  0
SECTION
  2
HEADER
  9
$ACADVER
  1
AC1015
  9
$ACADMAINTVER
 70
    20
  9
$DWGCODEPAGE
  3
ANSI_932
  9
$INSBASE
 10
0.0
 20
0.0
 30
0.0
  9
$EXTMIN
 10
139.9999999999995
 20
-0.0000000000000909
 30
0.0
  9
$EXTMAX
 10
16307.2
 20
11409.6
 30
0.0
  9
$LIMMIN
 10
0.0
 20
0.0
  9
$LIMMAX
 10
16800.0
 20
11880.0
  9
$ORTHOMODE
 70
     0
  9
$REGENMODE
 70
     1
  9
$FILLMODE
 70
     1
  9
$QTEXTMODE
 70
     0
  9
$MIRRTEXT
 70
     1
  9
$LTSCALE
 40
20.0
  9
$ATTMODE
 70
     1
  9
$TEXTSIZE
 40
4.0
  9
$TRACEWID
 40
1.0
  9
$TEXTSTYLE
  7
STYLE1
  9
$CLAYER
  8
部品1
  9
$CELTYPE
  6
BYLAYER
  9
$CECOLOR
 62
   256
  9
$CELTSCALE
 40
50.0
  9
$DISPSILH
 70
     0
  9
$DIMSCALE
 40
40.0
  9
$DIMASZ
 40
2.5
  9
$DIMEXO
 40
0.5
  9
$DIMDLI
 40
7.0
  9
$DIMRND
 40
0.0
  9
$DIMDLE
 40
0.0
  9
$DIMEXE
 40
1.5
  9
$DIMTP
 40
0.0
  9
$DIMTM
 40
0.0
  9
$DIMTXT
 40
3.0
  9
$DIMCEN
 40
0.0
  9
$DIMTSZ
 40
0.0
  9
$DIMTOL
 70
     0
  9
$DIMLIM
 70
     0
  9
$DIMTIH
 70
     0
  9
$DIMTOH
 70
     0
  9
$DIMSE1
 70
     0
  9
$DIMSE2
 70
     0
  9
$DIMTAD
 70
     3
  9
$DIMZIN
 70
     8
  9
$DIMBLK
  1

  9
$DIMASO
 70
     1
  9
$DIMSHO
 70
     1
  9
$DIMPOST
  1

  9
$DIMAPOST
  1

  9
$DIMALT
 70
     0
  9
$DIMALTD
 70
     2
  9
$DIMALTF
 40
0.0394
  9
$DIMLFAC
 40
1.0
  9
$DIMTOFL
 70
     1
  9
$DIMTVP
 40
0.0
  9
$DIMTIX
 70
     1
  9
$DIMSOXD
 70
     0
  9
$DIMSAH
 70
     1
  9
$DIMBLK1
  1
DOTSMALL
  9
$DIMBLK2
  1
DOTSMALL
  9
$DIMSTYLE
  2
INABA_S40G
  9
$DIMCLRD
 70
     0
  9
$DIMCLRE
 70
     0
  9
$DIMCLRT
 70
     7
  9
$DIMTFAC
 40
1.0
  9
$DIMGAP
 40
1.0
  9
$DIMJUST
 70
     0
  9
$DIMSD1
 70
     0
  9
$DIMSD2
 70
     0
  9
$DIMTOLJ
 70
     1
  9
$DIMTZIN
 70
     0
  9
$DIMALTZ
 70
     0
  9
$DIMALTTZ
 70
     0
  9
$DIMUPT
 70
     0
  9
$DIMDEC
 70
     1
  9
$DIMTDEC
 70
     4
  9
$DIMALTU
 70
     2
  9
$DIMALTTD
 70
     2
  9
$DIMTXSTY
  7
STYLE1
  9
$DIMAUNIT
 70
     0
  9
$DIMADEC
 70
     0
  9
$DIMALTRND
 40
0.0
  9
$DIMAZIN
 70
     0
  9
$DIMDSEP
 70
    46
  9
$DIMATFIT
 70
     3
  9
$DIMFRAC
 70
     0
  9
$DIMLDRBLK
  1

  9
$DIMLUNIT
 70
     2
  9
$DIMLWD
 70
    -2
  9
$DIMLWE
 70
    -2
  9
$DIMTMOVE
 70
     0
  9
$LUNITS
 70
     2
  9
$LUPREC
 70
     1
  9
$SKETCHINC
 40
1.0
  9
$FILLETRAD
 40
3.0
  9
$AUNITS
 70
     0
  9
$AUPREC
 70
     0
  9
$MENU
  1
acad
  9
$ELEVATION
 40
0.0
  9
$PELEVATION
 40
0.0
  9
$THICKNESS
 40
0.0
  9
$LIMCHECK
 70
     0
  9
$CHAMFERA
 40
0.0
  9
$CHAMFERB
 40
0.0
  9
$CHAMFERC
 40
0.0
  9
$CHAMFERD
 40
0.0
  9
$SKPOLY
 70
     0
  9
$TDCREATE
 40
2451368.612993866
  9
$TDUCREATE
 40
2451368.237993866
  9
$TDUPDATE
 40
2455575.686267176
  9
$TDUUPDATE
 40
2455575.311267176
  9
$TDINDWG
 40
0.5979646759
  9
$TDUSRTIMER
 40
0.5979646759
  9
$USRTIMER
 70
     1
  9
$ANGBASE
 50
0.0
  9
$ANGDIR
 70
     0
  9
$PDMODE
 70
     3
  9
$PDSIZE
 40
2.0
  9
$PLINEWID
 40
0.0
  9
$SPLFRAME
 70
     0
  9
$SPLINETYPE
 70
     6
  9
$SPLINESEGS
 70
     8
  9
$HANDSEED
  5
17EFC
  9
$SURFTAB1
 70
     6
  9
$SURFTAB2
 70
     6
  9
$SURFTYPE
 70
     6
  9
$SURFU
 70
     6
  9
$SURFV
 70
     6
  9
$UCSBASE
  2

  9
$UCSNAME
  2

  9
$UCSORG
 10
0.0
 20
0.0
 30
0.0
  9
$UCSXDIR
 10
1.0
 20
0.0
 30
0.0
  9
$UCSYDIR
 10
0.0
 20
1.0
 30
0.0
  9
$UCSORTHOREF
  2

  9
$UCSORTHOVIEW
 70
     0
  9
$UCSORGTOP
 10
0.0
 20
0.0
 30
0.0
  9
$UCSORGBOTTOM
 10
0.0
 20
0.0
 30
0.0
  9
$UCSORGLEFT
 10
0.0
 20
0.0
 30
0.0
  9
$UCSORGRIGHT
 10
0.0
 20
0.0
 30
0.0
  9
$UCSORGFRONT
 10
0.0
 20
0.0
 30
0.0
  9
$UCSORGBACK
 10
0.0
 20
0.0
 30
0.0
  9
$PUCSBASE
  2

  9
$PUCSNAME
  2

  9
$PUCSORG
 10
0.0
 20
0.0
 30
0.0
  9
$PUCSXDIR
 10
1.0
 20
0.0
 30
0.0
  9
$PUCSYDIR
 10
0.0
 20
1.0
 30
0.0
  9
$PUCSORTHOREF
  2

  9
$PUCSORTHOVIEW
 70
     0
  9
$PUCSORGTOP
 10
0.0
 20
0.0
 30
0.0
  9
$PUCSORGBOTTOM
 10
0.0
 20
0.0
 30
0.0
  9
$PUCSORGLEFT
 10
0.0
 20
0.0
 30
0.0
  9
$PUCSORGRIGHT
 10
0.0
 20
0.0
 30
0.0
  9
$PUCSORGFRONT
 10
0.0
 20
0.0
 30
0.0
  9
$PUCSORGBACK
 10
0.0
 20
0.0
 30
0.0
  9
$USERI1
 70
     0
  9
$USERI2
 70
     0
  9
$USERI3
 70
     0
  9
$USERI4
 70
     0
  9
$USERI5
 70
     0
  9
$USERR1
 40
0.0
  9
$USERR2
 40
0.0
  9
$USERR3
 40
0.0
  9
$USERR4
 40
0.0
  9
$USERR5
 40
0.0
  9
$WORLDVIEW
 70
     1
  9
$SHADEDGE
 70
     3
  9
$SHADEDIF
 70
    70
  9
$TILEMODE
 70
     1
  9
$MAXACTVP
 70
    16
  9
$PINSBASE
 10
0.0
 20
0.0
 30
0.0
  9
$PLIMCHECK
 70
     0
  9
$PEXTMIN
 10
1.000000000000000E+20
 20
1.000000000000000E+20
 30
1.000000000000000E+20
  9
$PEXTMAX
 10
-1.000000000000000E+20
 20
-1.000000000000000E+20
 30
-1.000000000000000E+20
  9
$PLIMMIN
 10
0.0
 20
0.0
  9
$PLIMMAX
 10
420.0
 20
297.0
  9
$UNITMODE
 70
     0
  9
$VISRETAIN
 70
     0
  9
$PLINEGEN
 70
     0
  9
$PSLTSCALE
 70
     0
  9
$TREEDEPTH
 70
  3020
  9
$CMLSTYLE
  2
STANDARD
  9
$CMLJUST
 70
     0
  9
$CMLSCALE
 40
1.0
  9
$PROXYGRAPHICS
 70
     1
  9
$MEASUREMENT
 70
     1
  9
$CELWEIGHT
370
    -1
  9
$ENDCAPS
280
     0
  9
$JOINSTYLE
280
     0
  9
$LWDISPLAY
290
     0
  9
$INSUNITS
 70
     0
  9
$HYPERLINKBASE
  1

  9
$STYLESHEET
  1

  9
$XEDIT
290
     1
  9
$CEPSNTYPE
380
     0
  9
$PSTYLEMODE
290
     1
  9
$FINGERPRINTGUID
  2
{5EAB6CE8-68A5-4E1A-A1FD-416036A919E9}
  9
$VERSIONGUID
  2
{4ABD5AD2-95FF-4007-A715-692DEEB5758C}
  9
$EXTNAMES
290
     1
  9
$PSVPSCALE
 40
0.0
  9
$OLESTARTUP
290
     0
  0
ENDSEC
  0
SECTION
  2
CLASSES
  0
CLASS
  1
ACDBDICTIONARYWDFLT
  2
AcDbDictionaryWithDefault
  3
ObjectDBX Classes
 90
        0
280
     0
281
     0
  0
CLASS
  1
DICTIONARYVAR
  2
AcDbDictionaryVar
  3
ObjectDBX Classes
 90
        0
280
     0
281
     0
  0
CLASS
  1
ACDBPLACEHOLDER
  2
AcDbPlaceHolder
  3
ObjectDBX Classes
 90
        0
280
     0
281
     0
  0
CLASS
  1
LAYOUT
  2
AcDbLayout
  3
ObjectDBX Classes
 90
        0
280
     0
281
     0
  0
ENDSEC
  0
SECTION
  2
TABLES
  0
TABLE
  2
VPORT
  5
746D
330
0
100
AcDbSymbolTable
 70
     2
  0
VPORT
  5
17EF4
330
746D
100
AcDbSymbolTableRecord
100
AcDbViewportTableRecord
  2
*Active
 70
     0
 10
0.0
 20
0.0
 11
1.0
 21
1.0
 12
8223.761025238502
 22
6348.703162895247
 13
0.0
 23
0.0
 14
10.0
 24
10.0
 15
10.0
 25
10.0
 16
0.0
 26
0.0
 36
1.0
 17
0.0
 27
0.0
 37
0.0
 40
12805.60689082044
 41
1.525925925925925
 42
50.0
 43
0.0
 44
0.0
 50
0.0
 51
0.0
 71
     0
 72
     0
 73
     1
 74
     0
 75
     0
 76
     0
 77
     0
 78
     0
281
     0
 65
     1
110
0.0
120
0.0
130
0.0
111
1.0
121
0.0
131
0.0
112
0.0
122
1.0
132
0.0
 79
     0
146
0.0
  0
ENDTAB
  0
TABLE
  2
LTYPE
  5
746A
330
0
100
AcDbSymbolTable
 70
     4
  0
LTYPE
  5
7477
330
746A
100
AcDbSymbolTableRecord
100
AcDbLinetypeTableRecord
  2
BYBLOCK
 70
     0
  3

 72
    65
 73
     0
 40
0.0
  0
LTYPE
  5
7478
330
746A
100
AcDbSymbolTableRecord
100
AcDbLinetypeTableRecord
  2
BYLAYER
 70
     0
  3

 72
    65
 73
     0
 40
0.0
  0
LTYPE
  5
7479
330
746A
100
AcDbSymbolTableRecord
100
AcDbLinetypeTableRecord
  2
CONTINUOUS
 70
     0
  3
Solid line
 72
    65
 73
     0
 40
0.0
  0
LTYPE
  5
7816
330
746A
100
AcDbSymbolTableRecord
100
AcDbLinetypeTableRecord
  2
CENTER
 70
     0
  3
____ _ ____ _ ____ _ ____ _ ____ _ ____ _ ____ 
 72
    65
 73
     4
 40
2.0
 49
1.25
 74
     0
 49
-0.25
 74
     0
 49
0.25
 74
     0
 49
-0.25
 74
     0
  0
LTYPE
  5
781A
330
746A
100
AcDbSymbolTableRecord
100
AcDbLinetypeTableRecord
  2
HIDDEN
 70
     0
  3
__ __ __ __ __ __ __ __ __ __ __ __ __ __ __ __
 72
    65
 73
     2
 40
0.375
 49
0.25
 74
     0
 49
-0.125
 74
     0
  0
LTYPE
  5
781B
330
746A
100
AcDbSymbolTableRecord
100
AcDbLinetypeTableRecord
  2
PHANTOM
 70
     0
  3
______  __  __  ______  __  __  ______  __  __ 
 72
    65
 73
     6
 40
2.5
 49
1.25
 74
     0
 49
-0.25
 74
     0
 49
0.25
 74
     0
 49
-0.25
 74
     0
 49
0.25
 74
     0
 49
-0.25
 74
     0
  0
ENDTAB
  0
TABLE
  2
LAYER
  5
7467
102
{ACAD_XDICTIONARY
360
16B44
102
}
330
0
100
AcDbSymbolTable
 70
    12
  0
LAYER
  5
7474
330
7467
100
AcDbSymbolTableRecord
100
AcDbLayerTableRecord
  2
0
 70
     0
 62
     7
  6
CONTINUOUS
370
    -3
390
169A8
  0
LAYER
  5
DEB2
330
7467
100
AcDbSymbolTableRecord
100
AcDbLayerTableRecord
  2
センター
 70
     0
 62
     3
  6
CENTER
370
    -3
390
169A8
  0
LAYER
  5
DEB3
330
7467
100
AcDbSymbolTableRecord
100
AcDbLayerTableRecord
  2
寸法
 70
     0
 62
     4
  6
CONTINUOUS
370
    -3
390
169A8
  0
LAYER
  5
DEB4
330
7467
100
AcDbSymbolTableRecord
100
AcDbLayerTableRecord
  2
部品1
 70
     0
 62
     7
  6
CONTINUOUS
370
    -3
390
169A8
  0
LAYER
  5
DEB5
330
7467
100
AcDbSymbolTableRecord
100
AcDbLayerTableRecord
  2
補助
 70
     0
 62
    -1
  6
CONTINUOUS
370
    -3
390
169A8
  0
LAYER
  5
DEB6
330
7467
100
AcDbSymbolTableRecord
100
AcDbLayerTableRecord
  2
文字
 70
     0
 62
     7
  6
CONTINUOUS
370
    -3
390
169A8
  0
LAYER
  5
F255
330
7467
100
AcDbSymbolTableRecord
100
AcDbLayerTableRecord
  2
DEFPOINTS
 70
     0
 62
     7
  6
CONTINUOUS
290
     0
370
    -3
390
169A8
  0
LAYER
  5
10B54
330
7467
100
AcDbSymbolTableRecord
100
AcDbLayerTableRecord
  2
仕様書枠
 70
     0
 62
   230
  6
CONTINUOUS
370
    -3
390
169A8
  0
LAYER
  5
11729
330
7467
100
AcDbSymbolTableRecord
100
AcDbLayerTableRecord
  2
Ｇ．Ｌ
 70
     0
 62
    30
  6
CONTINUOUS
370
    -3
390
169A8
  0
LAYER
  5
1173F
330
7467
100
AcDbSymbolTableRecord
100
AcDbLayerTableRecord
  2
細線
 70
     0
 62
     5
  6
CONTINUOUS
370
    -3
390
169A8
  0
LAYER
  5
12CC4
330
7467
100
AcDbSymbolTableRecord
100
AcDbLayerTableRecord
  2
想像線
 70
     0
 62
     6
  6
PHANTOM
370
    -3
390
169A8
  0
LAYER
  5
142E2
330
7467
100
AcDbSymbolTableRecord
100
AcDbLayerTableRecord
  2
破線
 70
     0
 62
     2
  6
HIDDEN
370
    -3
390
169A8
  0
ENDTAB
  0
TABLE
  2
STYLE
  5
7468
330
0
100
AcDbSymbolTable
 70
     4
  0
STYLE
  5
7475
330
7468
100
AcDbSymbolTableRecord
100
AcDbTextStyleTableRecord
  2
STANDARD
 70
     0
 40
0.0
 41
1.0
 50
0.0
 71
     0
 42
4.0
  3
txt
  4
C:\AutoCAD LT\bigfont.shx
  0
STYLE
  5
F706
330
7468
100
AcDbSymbolTableRecord
100
AcDbTextStyleTableRecord
  2
STYLE1
 70
     0
 40
0.0
 41
1.0
 50
0.0
 71
     0
 42
4.0
  3
isocp.shx
  4
bigfont.shx
  0
STYLE
  5
103BF
330
7468
100
AcDbSymbolTableRecord
100
AcDbTextStyleTableRecord
  2
STYLE2
 70
     0
 40
0.0
 41
1.0
 50
0.0
 71
     0
 42
100.0
  3
MS PGothic.ttf
  4

1001
ACAD
1000
MS PGothic
1071
    32818
  0
STYLE
  5
1758F
330
7468
100
AcDbSymbolTableRecord
100
AcDbTextStyleTableRecord
  2
STYLE3
 70
     0
 40
0.0
 41
1.0
 50
0.0
 71
     0
 42
100.0
  3

  4

1001
ACAD
1000
DFPGothic-EB
1071
    32818
  0
ENDTAB
  0
TABLE
  2
VIEW
  5
746B
330
0
100
AcDbSymbolTable
 70
     0
  0
ENDTAB
  0
TABLE
  2
UCS
  5
746C
330
0
100
AcDbSymbolTable
 70
     0
  0
ENDTAB
  0
TABLE
  2
APPID
  5
746E
330
0
100
AcDbSymbolTable
 70
     6
  0
APPID
  5
7476
330
746E
100
AcDbSymbolTableRecord
100
AcDbRegAppTableRecord
  2
ACAD
 70
     0
  0
APPID
  5
DEA9
330
746E
100
AcDbSymbolTableRecord
100
AcDbRegAppTableRecord
  2
CONTENTBLOCKICON
 70
     0
  0
APPID
  5
DEAA
330
746E
100
AcDbSymbolTableRecord
100
AcDbRegAppTableRecord
  2
CONTENTBLOCKDESCRIPTION
 70
     0
  0
APPID
  5
E71D
330
746E
100
AcDbSymbolTableRecord
100
AcDbRegAppTableRecord
  2
CONTENTTABDATA
 70
     0
  0
APPID
  5
E71E
330
746E
100
AcDbSymbolTableRecord
100
AcDbRegAppTableRecord
  2
CONTENTCURRENTTAB
 70
     0
  0
APPID
  5
F3BA
330
746E
100
AcDbSymbolTableRecord
100
AcDbRegAppTableRecord
  2
DRAWINGVARIABLESXDATA
 70
     0
  0
ENDTAB
  0
TABLE
  2
DIMSTYLE
  5
746F
330
0
100
AcDbSymbolTable
 70
     5
100
AcDbDimStyleTable
 71
     0
  0
DIMSTYLE
105
7484
330
746F
100
AcDbSymbolTableRecord
100
AcDbDimStyleTableRecord
  2
JIS
 70
     0
 41
2.5
 42
1.0
 43
7.0
 44
1.0
 73
     0
 74
     0
 77
     1
 78
     8
140
2.5
141
0.0
143
0.0394
147
0.0
172
     1
174
     1
175
     1
340
7475
  0
DIMSTYLE
105
F71F
102
{ACAD_REACTORS
330
16DFD
330
16E38
330
16E39
330
16E3A
330
16E45
330
16E49
330
16E8F
330
16FEF
330
16FF0
330
16FFB
330
16FFF
330
17000
330
17037
330
1703B
330
1703C
330
1703D
330
1703E
330
1705D
330
17069
330
1706A
330
1706B
330
1706C
330
1706D
330
1706E
330
1708C
330
1708D
330
1708E
330
1708F
330
17B95
330
17C52
102
}
330
746F
100
AcDbSymbolTableRecord
100
AcDbDimStyleTableRecord
  2
INABA_S40G
 70
     0
 40
40.0
 41
2.5
 42
0.5
 43
7.0
 44
1.5
 73
     0
 74
     0
 77
     3
 78
     8
140
3.0
141
0.0
143
0.0394
147
1.0
172
     1
173
     1
174
     1
178
     7
271
     1
340
F706
341
F770
343
F770
344
F770
  0
DIMSTYLE
105
16B43
102
{ACAD_REACTORS
330
17900
330
17B96
102
}
330
746F
100
AcDbSymbolTableRecord
100
AcDbDimStyleTableRecord
  2
INABA_S40
 70
     0
 40
40.0
 41
2.5
 42
0.5
 43
7.0
 44
1.5
 73
     0
 74
     0
 77
     3
 78
     8
140
3.0
141
0.0
143
0.0394
147
1.0
172
     1
173
     1
174
     1
175
     1
178
     7
340
7475
  0
DIMSTYLE
105
17590
330
746F
100
AcDbSymbolTableRecord
100
AcDbDimStyleTableRecord
  2
INABA_S50G
 70
     0
 41
125.0
 42
25.0
 43
7.0
 44
75.0
 73
     0
 74
     0
 77
     3
 78
     8
140
150.0
141
0.0
143
0.0394
147
25.0
172
     1
173
     1
174
     1
175
     1
178
     7
271
     1
340
F706
341
F770
343
F770
344
F770
  0
DIMSTYLE
105
17E8A
330
746F
100
AcDbSymbolTableRecord
100
AcDbDimStyleTableRecord
  2
INABA_S20G
 70
     0
 40
20.0
 41
2.5
 42
0.5
 43
7.0
 44
1.5
 73
     0
 74
     0
 77
     3
 78
     8
140
3.0
141
0.0
143
0.0394
147
1.0
172
     1
173
     1
174
     1
178
     7
271
     1
340
F706
341
F770
343
F770
344
F770
  0
ENDTAB
  0
TABLE
  2
BLOCK_RECORD
  5
7466
330
0
100
AcDbSymbolTable
 70
    34
  0
BLOCK_RECORD
  5
747D
330
7466
100
AcDbSymbolTableRecord
100
AcDbBlockTableRecord
  2
*MODEL_SPACE
340
169AD
  0
BLOCK_RECORD
  5
747A
330
7466
100
AcDbSymbolTableRecord
100
AcDbBlockTableRecord
  2
*PAPER_SPACE
340
169AE
  0
BLOCK_RECORD
  5
F770
330
7466
100
AcDbSymbolTableRecord
100
AcDbBlockTableRecord
  2
_DOTSMALL
340
0
102
{BLKREFS
331
1769F
331
176A0
331
176A8
331
176A9
331
176B1
331
176B2
331
176BB
331
176BC
331
176C5
331
176C6
331
176D0
331
176D1
331
176D9
331
176DA
331
176E2
331
176E3
331
176EC
331
176ED
331
176F5
331
176F6
331
176FE
331
176FF
331
17786
331
17787
331
1778F
331
17790
331
17798
331
17799
331
177A1
331
177A2
331
177AA
331
177AB
331
177B5
331
177B6
331
177C0
331
177C1
331
17DFC
331
17DFD
331
17E10
331
17E11
331
17E24
331
17E25
331
17E2D
331
17E2E
331
17E38
331
17E39
331
17E41
331
17E42
331
17E4A
331
17E4B
331
17E53
331
17E54
331
17E5C
331
17E5D
331
17E67
331
17E68
331
17E70
331
17E71
331
17E7B
331
17E7C
102
}
  0
BLOCK_RECORD
  5
169B5
330
7466
100
AcDbSymbolTableRecord
100
AcDbBlockTableRecord
  2
_DOT
340
0
102
{BLKREFS
331
17E07
331
17E08
331
17E19
331
17E1A
102
}
  0
BLOCK_RECORD
  5
1709C
330
7466
100
AcDbSymbolTableRecord
100
AcDbBlockTableRecord
  2
*D2
340
0
  0
BLOCK_RECORD
  5
170AA
330
7466
100
AcDbSymbolTableRecord
100
AcDbBlockTableRecord
  2
*D3
340
0
  0
BLOCK_RECORD
  5
170B8
330
7466
100
AcDbSymbolTableRecord
100
AcDbBlockTableRecord
  2
*D4
340
0
  0
BLOCK_RECORD
  5
170C4
330
7466
100
AcDbSymbolTableRecord
100
AcDbBlockTableRecord
  2
*D5
340
0
  0
BLOCK_RECORD
  5
170D0
330
7466
100
AcDbSymbolTableRecord
100
AcDbBlockTableRecord
  2
*D6
340
0
  0
BLOCK_RECORD
  5
170DC
330
7466
100
AcDbSymbolTableRecord
100
AcDbBlockTableRecord
  2
*D7
340
0
  0
BLOCK_RECORD
  5
170E8
330
7466
100
AcDbSymbolTableRecord
100
AcDbBlockTableRecord
  2
*D8
340
0
  0
BLOCK_RECORD
  5
1710E
330
7466
100
AcDbSymbolTableRecord
100
AcDbBlockTableRecord
  2
*D9
340
0
  0
BLOCK_RECORD
  5
1711C
330
7466
100
AcDbSymbolTableRecord
100
AcDbBlockTableRecord
  2
*D10
340
0
  0
BLOCK_RECORD
  5
17128
330
7466
100
AcDbSymbolTableRecord
100
AcDbBlockTableRecord
  2
*D11
340
0
  0
BLOCK_RECORD
  5
17136
330
7466
100
AcDbSymbolTableRecord
100
AcDbBlockTableRecord
  2
*D12
340
0
  0
BLOCK_RECORD
  5
17142
330
7466
100
AcDbSymbolTableRecord
100
AcDbBlockTableRecord
  2
*D13
340
0
  0
BLOCK_RECORD
  5
1714E
330
7466
100
AcDbSymbolTableRecord
100
AcDbBlockTableRecord
  2
*D14
340
0
  0
BLOCK_RECORD
  5
17166
330
7466
100
AcDbSymbolTableRecord
100
AcDbBlockTableRecord
  2
*D15
340
0
  0
BLOCK_RECORD
  5
17172
330
7466
100
AcDbSymbolTableRecord
100
AcDbBlockTableRecord
  2
*D16
340
0
  0
BLOCK_RECORD
  5
17180
330
7466
100
AcDbSymbolTableRecord
100
AcDbBlockTableRecord
  2
*D17
340
0
  0
BLOCK_RECORD
  5
1718C
330
7466
100
AcDbSymbolTableRecord
100
AcDbBlockTableRecord
  2
*D18
340
0
  0
BLOCK_RECORD
  5
1719A
330
7466
100
AcDbSymbolTableRecord
100
AcDbBlockTableRecord
  2
*D19
340
0
  0
BLOCK_RECORD
  5
171A6
330
7466
100
AcDbSymbolTableRecord
100
AcDbBlockTableRecord
  2
*D20
340
0
  0
BLOCK_RECORD
  5
171B2
330
7466
100
AcDbSymbolTableRecord
100
AcDbBlockTableRecord
  2
*D21
340
0
  0
BLOCK_RECORD
  5
171BF
330
7466
100
AcDbSymbolTableRecord
100
AcDbBlockTableRecord
  2
*D22
340
0
  0
BLOCK_RECORD
  5
171CB
330
7466
100
AcDbSymbolTableRecord
100
AcDbBlockTableRecord
  2
*D23
340
0
  0
BLOCK_RECORD
  5
171D7
330
7466
100
AcDbSymbolTableRecord
100
AcDbBlockTableRecord
  2
*D24
340
0
  0
BLOCK_RECORD
  5
171E5
330
7466
100
AcDbSymbolTableRecord
100
AcDbBlockTableRecord
  2
*D25
340
0
  0
BLOCK_RECORD
  5
171F2
330
7466
100
AcDbSymbolTableRecord
100
AcDbBlockTableRecord
  2
*D26
340
0
  0
BLOCK_RECORD
  5
171FF
330
7466
100
AcDbSymbolTableRecord
100
AcDbBlockTableRecord
  2
*D27
340
0
  0
BLOCK_RECORD
  5
1720B
330
7466
100
AcDbSymbolTableRecord
100
AcDbBlockTableRecord
  2
*D28
340
0
  0
BLOCK_RECORD
  5
17217
330
7466
100
AcDbSymbolTableRecord
100
AcDbBlockTableRecord
  2
*D29
340
0
  0
BLOCK_RECORD
  5
1796B
330
7466
100
AcDbSymbolTableRecord
100
AcDbBlockTableRecord
  2
*D30
340
0
  0
BLOCK_RECORD
  5
17CA2
330
7466
100
AcDbSymbolTableRecord
100
AcDbBlockTableRecord
  2
*D31
340
0
  0
BLOCK_RECORD
  5
17CAE
330
7466
100
AcDbSymbolTableRecord
100
AcDbBlockTableRecord
  2
*D32
340
0
  0
BLOCK_RECORD
  5
17CFC
330
7466
100
AcDbSymbolTableRecord
100
AcDbBlockTableRecord
  2
*D33
340
0
  0
ENDTAB
  0
ENDSEC
  0
SECTION
  2
BLOCKS
  0
BLOCK
  5
7489
330
747D
100
AcDbEntity
  8
0
100
AcDbBlockBegin
  2
*MODEL_SPACE
 70
     0
 10
0.0
 20
0.0
 30
0.0
  3
*MODEL_SPACE
  1

  0
ENDBLK
  5
748A
330
747D
100
AcDbEntity
  8
0
100
AcDbBlockEnd
  0
BLOCK
  5
7487
330
747A
100
AcDbEntity
 67
     1
  8
0
100
AcDbBlockBegin
  2
*PAPER_SPACE
 70
     0
 10
0.0
 20
0.0
 30
0.0
  3
*PAPER_SPACE
  1

  0
ENDBLK
  5
7488
330
747A
100
AcDbEntity
 67
     1
  8
0
100
AcDbBlockEnd
  0
BLOCK
  5
F771
330
F770
100
AcDbEntity
  8
0
 48
50.0
100
AcDbBlockBegin
  2
_DOTSMALL
 70
     0
 10
0.0
 20
0.0
 30
0.0
  3
_DOTSMALL
  1

  0
LWPOLYLINE
  5
F772
330
F770
100
AcDbEntity
  8
0
  6
ByBlock
 62
     0
 48
50.0
100
AcDbPolyline
 90
        2
 70
     1
 43
0.5
 10
-0.0625
 20
0.0
 42
1.0
 10
0.0625
 20
0.0
 42
1.0
  0
ENDBLK
  5
F776
330
F770
100
AcDbEntity
  8
0
 48
50.0
100
AcDbBlockEnd
  0
BLOCK
  5
169B6
330
169B5
100
AcDbEntity
  8
0
 48
50.0
100
AcDbBlockBegin
  2
_DOT
 70
     0
 10
0.0
 20
0.0
 30
0.0
  3
_DOT
  1

  0
LWPOLYLINE
  5
169B7
330
169B5
100
AcDbEntity
  8
0
  6
ByBlock
 62
     0
 48
50.0
100
AcDbPolyline
 90
        2
 70
     1
 43
0.5
 10
-0.25
 20
0.0
 42
1.0
 10
0.25
 20
0.0
 42
1.0
  0
LINE
  5
169B8
330
169B5
100
AcDbEntity
  8
0
  6
ByBlock
 62
     0
 48
50.0
100
AcDbLine
 10
-0.5
 20
0.0
 30
0.0
 11
-1.0
 21
0.0
 31
0.0
  0
ENDBLK
  5
169B9
330
169B5
100
AcDbEntity
  8
0
 48
50.0
100
AcDbBlockEnd
  0
BLOCK
  5
170A8
330
1709C
100
AcDbEntity
  8
0
 48
50.0
100
AcDbBlockBegin
  2
*D2
 70
     1
 10
0.0
 20
0.0
 30
0.0
  3
*D2
  1

  0
LINE
  5
177BB
330
1709C
100
AcDbEntity
  8
寸法
 62
     0
 48
50.0
370
    -2
100
AcDbLine
 10
6286.92203712829
 20
4749.800454890557
 30
0.0
 11
6286.92203712829
 21
5194.420714317827
 31
0.0
  0
LINE
  5
177BC
330
1709C
100
AcDbEntity
  8
寸法
 62
     0
 48
50.0
370
    -2
100
AcDbLine
 10
6236.92203712829
 20
4749.800454890559
 30
0.0
 11
6236.92203712829
 21
5194.420714317827
 31
0.0
  0
LINE
  5
177BD
330
1709C
100
AcDbEntity
  8
寸法
 62
     0
 48
50.0
370
    -2
100
AcDbLine
 10
6236.92203712829
 20
5134.420714317826
 30
0.0
 11
6136.922037128289
 21
5134.420714317826
 31
0.0
  0
LINE
  5
177BE
330
1709C
100
AcDbEntity
  8
寸法
 62
     0
 48
50.0
370
    -2
100
AcDbLine
 10
6286.92203712829
 20
5134.420714317826
 30
0.0
 11
6706.454562597014
 21
5134.420714317826
 31
0.0
  0
LINE
  5
177BF
330
1709C
100
AcDbEntity
  8
寸法
 62
     0
 48
50.0
370
    -2
100
AcDbLine
 10
6236.92203712829
 20
5134.420714317826
 30
0.0
 11
6286.92203712829
 21
5134.420714317826
 31
0.0
  0
INSERT
  5
177C0
330
1709C
100
AcDbEntity
  8
寸法
 62
     0
 48
50.0
370
    -2
100
AcDbBlockReference
  2
_DOTSMALL
 10
6236.92203712829
 20
5134.420714317826
 30
0.0
 41
100.0
 42
100.0
 43
100.0
  0
INSERT
  5
177C1
330
1709C
100
AcDbEntity
  8
寸法
 62
     0
 48
50.0
370
    -2
100
AcDbBlockReference
  2
_DOTSMALL
 10
6286.92203712829
 20
5134.420714317826
 30
0.0
 41
100.0
 42
100.0
 43
100.0
 50
180.0
  0
MTEXT
  5
177C2
330
1709C
100
AcDbEntity
  8
寸法
 62
     7
 48
50.0
100
AcDbMText
 10
6600.407318502526
 20
5234.420714317827
 30
0.0
 40
120.0
 41
0.0
 71
     5
 72
     1
  1
\A1;50
  7
STYLE1
 73
     1
 44
1.0
1001
ACAD
1000
MTEXTBEGIN
1070
    73
1070
     1
1070
    44
1040
1.0
1070
    74
1070
     0
1000
MTEXTEND
  0
POINT
  5
177C3
330
1709C
100
AcDbEntity
  8
DEFPOINTS
 62
     0
 48
50.0
100
AcDbPoint
 10
6286.92203712829
 20
4729.800454890557
 30
0.0
  0
POINT
  5
177C4
330
1709C
100
AcDbEntity
  8
DEFPOINTS
 62
     0
 48
50.0
100
AcDbPoint
 10
6236.92203712829
 20
4729.800454890559
 30
0.0
  0
POINT
  5
177C5
330
1709C
100
AcDbEntity
  8
DEFPOINTS
 62
     0
 48
50.0
100
AcDbPoint
 10
6236.92203712829
 20
5134.420714317826
 30
0.0
  0
ENDBLK
  5
170A9
330
1709C
100
AcDbEntity
  8
0
 48
50.0
100
AcDbBlockEnd
  0
BLOCK
  5
170B6
330
170AA
100
AcDbEntity
  8
0
 48
50.0
100
AcDbBlockBegin
  2
*D3
 70
     1
 10
0.0
 20
0.0
 30
0.0
  3
*D3
  1

  0
LINE
  5
177B0
330
170AA
100
AcDbEntity
  8
寸法
 62
     0
 48
50.0
370
    -2
100
AcDbLine
 10
4446.922037128301
 20
4749.800454890561
 30
0.0
 11
4446.922037128301
 21
5194.420714317827
 31
0.0
  0
LINE
  5
177B1
330
170AA
100
AcDbEntity
  8
寸法
 62
     0
 48
50.0
370
    -2
100
AcDbLine
 10
4396.922037128301
 20
4749.800454890559
 30
0.0
 11
4396.922037128301
 21
5194.420714317827
 31
0.0
  0
LINE
  5
177B2
330
170AA
100
AcDbEntity
  8
寸法
 62
     0
 48
50.0
370
    -2
100
AcDbLine
 10
4446.922037128301
 20
5134.420714317826
 30
0.0
 11
4546.9220371283
 21
5134.420714317826
 31
0.0
  0
LINE
  5
177B3
330
170AA
100
AcDbEntity
  8
寸法
 62
     0
 48
50.0
370
    -2
100
AcDbLine
 10
4396.922037128301
 20
5134.420714317826
 30
0.0
 11
3977.389511659566
 21
5134.420714317826
 31
0.0
  0
LINE
  5
177B4
330
170AA
100
AcDbEntity
  8
寸法
 62
     0
 48
50.0
370
    -2
100
AcDbLine
 10
4446.922037128301
 20
5134.420714317826
 30
0.0
 11
4396.922037128301
 21
5134.420714317826
 31
0.0
  0
INSERT
  5
177B5
330
170AA
100
AcDbEntity
  8
寸法
 62
     0
 48
50.0
370
    -2
100
AcDbBlockReference
  2
_DOTSMALL
 10
4446.922037128301
 20
5134.420714317826
 30
0.0
 41
100.0
 42
100.0
 43
100.0
 50
180.0
  0
INSERT
  5
177B6
330
170AA
100
AcDbEntity
  8
寸法
 62
     0
 48
50.0
370
    -2
100
AcDbBlockReference
  2
_DOTSMALL
 10
4396.922037128301
 20
5134.420714317826
 30
0.0
 41
100.0
 42
100.0
 43
100.0
  0
MTEXT
  5
177B7
330
170AA
100
AcDbEntity
  8
寸法
 62
     7
 48
50.0
100
AcDbMText
 10
4083.436755754053
 20
5234.420714317827
 30
0.0
 40
120.0
 41
0.0
 71
     5
 72
     1
  1
\A1;50
  7
STYLE1
 73
     1
 44
1.0
1001
ACAD
1000
MTEXTBEGIN
1070
    73
1070
     1
1070
    44
1040
1.0
1070
    74
1070
     0
1000
MTEXTEND
  0
POINT
  5
177B8
330
170AA
100
AcDbEntity
  8
DEFPOINTS
 62
     0
 48
50.0
100
AcDbPoint
 10
4446.922037128301
 20
4729.80045489056
 30
0.0
  0
POINT
  5
177B9
330
170AA
100
AcDbEntity
  8
DEFPOINTS
 62
     0
 48
50.0
100
AcDbPoint
 10
4396.922037128301
 20
4729.800454890559
 30
0.0
  0
POINT
  5
177BA
330
170AA
100
AcDbEntity
  8
DEFPOINTS
 62
     0
 48
50.0
100
AcDbPoint
 10
4396.922037128301
 20
5134.420714317826
 30
0.0
  0
ENDBLK
  5
170B7
330
170AA
100
AcDbEntity
  8
0
 48
50.0
100
AcDbBlockEnd
  0
BLOCK
  5
170C2
330
170B8
100
AcDbEntity
  8
0
 48
50.0
100
AcDbBlockBegin
  2
*D4
 70
     1
 10
0.0
 20
0.0
 30
0.0
  3
*D4
  1

  0
LINE
  5
177A7
330
170B8
100
AcDbEntity
  8
寸法
 62
     0
 48
50.0
370
    -2
100
AcDbLine
 10
4396.922037128301
 20
4749.800454890559
 30
0.0
 11
4396.922037128301
 21
5404.014588739277
 31
0.0
  0
LINE
  5
177A8
330
170B8
100
AcDbEntity
  8
寸法
 62
     0
 48
50.0
370
    -2
100
AcDbLine
 10
6286.92203712829
 20
4749.800454890557
 30
0.0
 11
6286.92203712829
 21
5404.014588739277
 31
0.0
  0
LINE
  5
177A9
330
170B8
100
AcDbEntity
  8
寸法
 62
     0
 48
50.0
370
    -2
100
AcDbLine
 10
4396.922037128301
 20
5344.014588739277
 30
0.0
 11
6286.92203712829
 21
5344.014588739277
 31
0.0
  0
INSERT
  5
177AA
330
170B8
100
AcDbEntity
  8
寸法
 62
     0
 48
50.0
370
    -2
100
AcDbBlockReference
  2
_DOTSMALL
 10
4396.922037128301
 20
5344.014588739277
 30
0.0
 41
100.0
 42
100.0
 43
100.0
 50
180.0
  0
INSERT
  5
177AB
330
170B8
100
AcDbEntity
  8
寸法
 62
     0
 48
50.0
370
    -2
100
AcDbBlockReference
  2
_DOTSMALL
 10
6286.92203712829
 20
5344.014588739277
 30
0.0
 41
100.0
 42
100.0
 43
100.0
  0
MTEXT
  5
177AC
330
170B8
100
AcDbEntity
  8
寸法
 62
     7
 48
50.0
100
AcDbMText
 10
5341.922037128294
 20
5444.014588739277
 30
0.0
 40
120.0
 41
0.0
 71
     5
 72
     1
  1
\A1;1890
  7
STYLE1
 73
     1
 44
1.0
1001
ACAD
1000
MTEXTBEGIN
1070
    73
1070
     1
1070
    44
1040
1.0
1070
    74
1070
     0
1000
MTEXTEND
  0
POINT
  5
177AD
330
170B8
100
AcDbEntity
  8
DEFPOINTS
 62
     0
 48
50.0
100
AcDbPoint
 10
4396.922037128301
 20
4729.800454890559
 30
0.0
  0
POINT
  5
177AE
330
170B8
100
AcDbEntity
  8
DEFPOINTS
 62
     0
 48
50.0
100
AcDbPoint
 10
6286.92203712829
 20
4729.800454890557
 30
0.0
  0
POINT
  5
177AF
330
170B8
100
AcDbEntity
  8
DEFPOINTS
 62
     0
 48
50.0
100
AcDbPoint
 10
6286.92203712829
 20
5344.014588739277
 30
0.0
  0
ENDBLK
  5
170C3
330
170B8
100
AcDbEntity
  8
0
 48
50.0
100
AcDbBlockEnd
  0
BLOCK
  5
170CE
330
170C4
100
AcDbEntity
  8
0
 48
50.0
100
AcDbBlockBegin
  2
*D5
 70
     1
 10
0.0
 20
0.0
 30
0.0
  3
*D5
  1

  0
LINE
  5
1779E
330
170C4
100
AcDbEntity
  8
寸法
 62
     0
 48
50.0
370
    -2
100
AcDbLine
 10
6236.92203712829
 20
4749.800454890559
 30
0.0
 11
6236.92203712829
 21
5194.420714317827
 31
0.0
  0
LINE
  5
1779F
330
170C4
100
AcDbEntity
  8
寸法
 62
     0
 48
50.0
370
    -2
100
AcDbLine
 10
4446.922037128301
 20
4749.800454890561
 30
0.0
 11
4446.922037128301
 21
5194.420714317827
 31
0.0
  0
LINE
  5
177A0
330
170C4
100
AcDbEntity
  8
寸法
 62
     0
 48
50.0
370
    -2
100
AcDbLine
 10
6236.92203712829
 20
5134.420714317826
 30
0.0
 11
4446.922037128301
 21
5134.420714317826
 31
0.0
  0
INSERT
  5
177A1
330
170C4
100
AcDbEntity
  8
寸法
 62
     0
 48
50.0
370
    -2
100
AcDbBlockReference
  2
_DOTSMALL
 10
6236.92203712829
 20
5134.420714317826
 30
0.0
 41
100.0
 42
100.0
 43
100.0
  0
INSERT
  5
177A2
330
170C4
100
AcDbEntity
  8
寸法
 62
     0
 48
50.0
370
    -2
100
AcDbBlockReference
  2
_DOTSMALL
 10
4446.922037128301
 20
5134.420714317826
 30
0.0
 41
100.0
 42
100.0
 43
100.0
 50
180.0
  0
MTEXT
  5
177A3
330
170C4
100
AcDbEntity
  8
寸法
 62
     7
 48
50.0
100
AcDbMText
 10
5341.922037128294
 20
5234.420714317827
 30
0.0
 40
120.0
 41
0.0
 71
     5
 72
     1
  1
\A1;柱外寸法1790
  7
STYLE1
 73
     1
 44
1.0
1001
ACAD
1000
MTEXTBEGIN
1070
    73
1070
     1
1070
    44
1040
1.0
1070
    74
1070
     0
1000
MTEXTEND
  0
POINT
  5
177A4
330
170C4
100
AcDbEntity
  8
DEFPOINTS
 62
     0
 48
50.0
100
AcDbPoint
 10
6236.92203712829
 20
4729.800454890559
 30
0.0
  0
POINT
  5
177A5
330
170C4
100
AcDbEntity
  8
DEFPOINTS
 62
     0
 48
50.0
100
AcDbPoint
 10
4446.922037128301
 20
4729.80045489056
 30
0.0
  0
POINT
  5
177A6
330
170C4
100
AcDbEntity
  8
DEFPOINTS
 62
     0
 48
50.0
100
AcDbPoint
 10
4446.922037128301
 20
5134.420714317826
 30
0.0
  0
ENDBLK
  5
170CF
330
170C4
100
AcDbEntity
  8
0
 48
50.0
100
AcDbBlockEnd
  0
BLOCK
  5
170DA
330
170D0
100
AcDbEntity
  8
0
 48
50.0
100
AcDbBlockBegin
  2
*D6
 70
     1
 10
0.0
 20
0.0
 30
0.0
  3
*D6
  1

  0
LINE
  5
17795
330
170D0
100
AcDbEntity
  8
寸法
 62
     0
 48
50.0
370
    -2
100
AcDbLine
 10
4574.422037128293
 20
2034.800454890552
 30
0.0
 11
4574.422037128293
 21
1708.753125590176
 31
0.0
  0
LINE
  5
17796
330
170D0
100
AcDbEntity
  8
寸法
 62
     0
 48
50.0
370
    -2
100
AcDbLine
 10
4374.422037128296
 20
2034.800454890554
 30
0.0
 11
4374.422037128296
 21
1708.753125590176
 31
0.0
  0
LINE
  5
17797
330
170D0
100
AcDbEntity
  8
寸法
 62
     0
 48
50.0
370
    -2
100
AcDbLine
 10
4574.422037128293
 20
1768.753125590176
 30
0.0
 11
4374.422037128296
 21
1768.753125590176
 31
0.0
  0
INSERT
  5
17798
330
170D0
100
AcDbEntity
  8
寸法
 62
     0
 48
50.0
370
    -2
100
AcDbBlockReference
  2
_DOTSMALL
 10
4574.422037128293
 20
1768.753125590176
 30
0.0
 41
100.0
 42
100.0
 43
100.0
  0
INSERT
  5
17799
330
170D0
100
AcDbEntity
  8
寸法
 62
     0
 48
50.0
370
    -2
100
AcDbBlockReference
  2
_DOTSMALL
 10
4374.422037128296
 20
1768.753125590176
 30
0.0
 41
100.0
 42
100.0
 43
100.0
 50
180.0
  0
MTEXT
  5
1779A
330
170D0
100
AcDbEntity
  8
寸法
 62
     7
 48
50.0
100
AcDbMText
 10
4474.422037128295
 20
1868.764936613798
 30
0.0
 40
120.0
 41
0.0
 71
     5
 72
     1
  1
\A1;200
  7
STYLE1
 73
     1
 44
1.0
1001
ACAD
1000
MTEXTBEGIN
1070
    73
1070
     1
1070
    44
1040
1.0
1070
    74
1070
     0
1000
MTEXTEND
  0
POINT
  5
1779B
330
170D0
100
AcDbEntity
  8
DEFPOINTS
 62
     0
 48
50.0
100
AcDbPoint
 10
4574.422037128293
 20
2054.800454890552
 30
0.0
  0
POINT
  5
1779C
330
170D0
100
AcDbEntity
  8
DEFPOINTS
 62
     0
 48
50.0
100
AcDbPoint
 10
4374.422037128296
 20
2054.800454890554
 30
0.0
  0
POINT
  5
1779D
330
170D0
100
AcDbEntity
  8
DEFPOINTS
 62
     0
 48
50.0
100
AcDbPoint
 10
4374.422037128296
 20
1768.753125590176
 30
0.0
  0
ENDBLK
  5
170DB
330
170D0
100
AcDbEntity
  8
0
 48
50.0
100
AcDbBlockEnd
  0
BLOCK
  5
170E6
330
170DC
100
AcDbEntity
  8
0
 48
50.0
100
AcDbBlockBegin
  2
*D7
 70
     1
 10
0.0
 20
0.0
 30
0.0
  3
*D7
  1

  0
LINE
  5
1778C
330
170DC
100
AcDbEntity
  8
寸法
 62
     0
 48
50.0
370
    -2
100
AcDbLine
 10
4354.422037128297
 20
2054.800454890554
 30
0.0
 11
4164.92203388166
 21
2054.800454890554
 31
0.0
  0
LINE
  5
1778D
330
170DC
100
AcDbEntity
  8
寸法
 62
     0
 48
50.0
370
    -2
100
AcDbLine
 10
4329.422037128294
 20
2254.800454890554
 30
0.0
 11
4164.92203388166
 21
2254.800454890554
 31
0.0
  0
LINE
  5
1778E
330
170DC
100
AcDbEntity
  8
寸法
 62
     0
 48
50.0
370
    -2
100
AcDbLine
 10
4224.92203388166
 20
2054.800454890554
 30
0.0
 11
4224.92203388166
 21
2254.800454890554
 31
0.0
  0
INSERT
  5
1778F
330
170DC
100
AcDbEntity
  8
寸法
 62
     0
 48
50.0
370
    -2
100
AcDbBlockReference
  2
_DOTSMALL
 10
4224.92203388166
 20
2054.800454890554
 30
0.0
 41
100.0
 42
100.0
 43
100.0
 50
270.0
  0
INSERT
  5
17790
330
170DC
100
AcDbEntity
  8
寸法
 62
     0
 48
50.0
370
    -2
100
AcDbBlockReference
  2
_DOTSMALL
 10
4224.92203388166
 20
2254.800454890554
 30
0.0
 41
100.0
 42
100.0
 43
100.0
 50
90.0
  0
MTEXT
  5
17791
330
170DC
100
AcDbEntity
  8
寸法
 62
     7
 48
50.0
100
AcDbMText
 10
4124.910222858037
 20
2154.800454890554
 30
0.0
 40
120.0
 41
0.0
 71
     5
 72
     1
  1
\A1;200
  7
STYLE1
 11
0.0000000000000001
 21
1.0
 31
0.0
 73
     1
 44
1.0
1001
ACAD
1000
MTEXTBEGIN
1070
    73
1070
     1
1070
    44
1040
1.0
1070
    74
1070
     0
1000
MTEXTEND
  0
POINT
  5
17792
330
170DC
100
AcDbEntity
  8
DEFPOINTS
 62
     0
 48
50.0
100
AcDbPoint
 10
4374.422037128296
 20
2054.800454890554
 30
0.0
  0
POINT
  5
17793
330
170DC
100
AcDbEntity
  8
DEFPOINTS
 62
     0
 48
50.0
100
AcDbPoint
 10
4349.422037128293
 20
2254.800454890554
 30
0.0
  0
POINT
  5
17794
330
170DC
100
AcDbEntity
  8
DEFPOINTS
 62
     0
 48
50.0
100
AcDbPoint
 10
4224.92203388166
 20
2254.800454890554
 30
0.0
  0
ENDBLK
  5
170E7
330
170DC
100
AcDbEntity
  8
0
 48
50.0
100
AcDbBlockEnd
  0
BLOCK
  5
170F2
330
170E8
100
AcDbEntity
  8
0
 48
50.0
100
AcDbBlockBegin
  2
*D8
 70
     1
 10
0.0
 20
0.0
 30
0.0
  3
*D8
  1

  0
LINE
  5
17783
330
170E8
100
AcDbEntity
  8
寸法
 62
     0
 48
50.0
370
    -2
100
AcDbLine
 10
11013.38238322583
 20
2354.800454890554
 30
0.0
 11
11579.87936452541
 21
2354.800454890554
 31
0.0
  0
LINE
  5
17784
330
170E8
100
AcDbEntity
  8
寸法
 62
     0
 48
50.0
370
    -2
100
AcDbLine
 10
11093.38238322581
 20
4674.800454890555
 30
0.0
 11
11579.87936452541
 21
4674.800454890555
 31
0.0
  0
LINE
  5
17785
330
170E8
100
AcDbEntity
  8
寸法
 62
     0
 48
50.0
370
    -2
100
AcDbLine
 10
11519.87936452541
 20
2354.800454890554
 30
0.0
 11
11519.87936452541
 21
4674.800454890555
 31
0.0
  0
INSERT
  5
17786
330
170E8
100
AcDbEntity
  8
寸法
 62
     0
 48
50.0
370
    -2
100
AcDbBlockReference
  2
_DOTSMALL
 10
11519.87936452541
 20
2354.800454890554
 30
0.0
 41
100.0
 42
100.0
 43
100.0
 50
270.0
  0
INSERT
  5
17787
330
170E8
100
AcDbEntity
  8
寸法
 62
     0
 48
50.0
370
    -2
100
AcDbBlockReference
  2
_DOTSMALL
 10
11519.87936452541
 20
4674.800454890555
 30
0.0
 41
100.0
 42
100.0
 43
100.0
 50
90.0
  0
MTEXT
  5
17788
330
170E8
100
AcDbEntity
  8
寸法
 62
     7
 48
50.0
100
AcDbMText
 10
11419.86755350179
 20
3489.10795856452
 30
0.0
 40
120.0
 41
0.0
 71
     5
 72
     1
  1
\A1;2320
  7
STYLE1
 11
0.0000000000000001
 21
1.0
 31
0.0
 73
     1
 44
1.0
1001
ACAD
1000
MTEXTBEGIN
1070
    73
1070
     1
1070
    44
1040
1.0
1070
    74
1070
     0
1000
MTEXTEND
  0
POINT
  5
17789
330
170E8
100
AcDbEntity
  8
DEFPOINTS
 62
     0
 48
50.0
100
AcDbPoint
 10
10993.38238322583
 20
2354.800454890554
 30
0.0
  0
POINT
  5
1778A
330
170E8
100
AcDbEntity
  8
DEFPOINTS
 62
     0
 48
50.0
100
AcDbPoint
 10
11073.38238322581
 20
4674.800454890555
 30
0.0
  0
POINT
  5
1778B
330
170E8
100
AcDbEntity
  8
DEFPOINTS
 62
     0
 48
50.0
100
AcDbPoint
 10
11519.87936452541
 20
4674.800454890555
 30
0.0
  0
ENDBLK
  5
170F3
330
170E8
100
AcDbEntity
  8
0
 48
50.0
100
AcDbBlockEnd
  0
BLOCK
  5
1711A
330
1710E
100
AcDbEntity
  8
0
 48
50.0
100
AcDbBlockBegin
  2
*D9
 70
     1
 10
0.0
 20
0.0
 30
0.0
  3
*D9
  1

  0
LINE
  5
17E76
330
1710E
100
AcDbEntity
  8
寸法
 62
     0
 48
50.0
370
    -2
100
AcDbLine
 10
11013.38238322584
 20
9393.290620335731
 30
0.0
 11
11753.38238322583
 21
9393.290620335731
 31
0.0
  0
LINE
  5
17E77
330
1710E
100
AcDbEntity
  8
寸法
 62
     0
 48
50.0
370
    -2
100
AcDbLine
 10
11013.38238322584
 20
9338.290620335737
 30
0.0
 11
11753.38238322583
 21
9338.290620335737
 31
0.0
  0
LINE
  5
17E78
330
1710E
100
AcDbEntity
  8
寸法
 62
     0
 48
50.0
370
    -2
100
AcDbLine
 10
11693.38238322583
 20
9338.290620335737
 30
0.0
 11
11693.38238322583
 21
9238.290620335737
 31
0.0
  0
LINE
  5
17E79
330
1710E
100
AcDbEntity
  8
寸法
 62
     0
 48
50.0
370
    -2
100
AcDbLine
 10
11693.38238322583
 20
9393.290620335731
 30
0.0
 11
11693.38238322583
 21
9810.261183084209
 31
0.0
  0
LINE
  5
17E7A
330
1710E
100
AcDbEntity
  8
寸法
 62
     0
 48
50.0
370
    -2
100
AcDbLine
 10
11693.38238322583
 20
9338.290620335737
 30
0.0
 11
11693.38238322583
 21
9393.290620335731
 31
0.0
  0
INSERT
  5
17E7B
330
1710E
100
AcDbEntity
  8
寸法
 62
     0
 48
50.0
370
    -2
100
AcDbBlockReference
  2
_DOTSMALL
 10
11693.38238322583
 20
9338.290620335737
 30
0.0
 41
100.0
 42
100.0
 43
100.0
 50
90.0
  0
INSERT
  5
17E7C
330
1710E
100
AcDbEntity
  8
寸法
 62
     0
 48
50.0
370
    -2
100
AcDbBlockReference
  2
_DOTSMALL
 10
11693.38238322583
 20
9393.290620335731
 30
0.0
 41
100.0
 42
100.0
 43
100.0
 50
270.0
  0
MTEXT
  5
17E7D
330
1710E
100
AcDbEntity
  8
寸法
 62
     7
 48
50.0
100
AcDbMText
 10
11593.38238322583
 20
9701.775901709972
 30
0.0
 40
120.0
 41
0.0
 71
     5
 72
     1
  1
\A1;55
  7
STYLE1
 11
0.0000000000000001
 21
1.0
 31
0.0
 73
     1
 44
1.0
1001
ACAD
1000
MTEXTBEGIN
1070
    73
1070
     1
1070
    44
1040
1.0
1070
    74
1070
     0
1000
MTEXTEND
  0
POINT
  5
17E7E
330
1710E
100
AcDbEntity
  8
DEFPOINTS
 62
     0
 48
50.0
100
AcDbPoint
 10
10993.38238322584
 20
9393.290620335731
 30
0.0
  0
POINT
  5
17E7F
330
1710E
100
AcDbEntity
  8
DEFPOINTS
 62
     0
 48
50.0
100
AcDbPoint
 10
10993.38238322584
 20
9338.290620335737
 30
0.0
  0
POINT
  5
17E80
330
1710E
100
AcDbEntity
  8
DEFPOINTS
 62
     0
 48
50.0
100
AcDbPoint
 10
11693.38238322583
 20
9338.290620335737
 30
0.0
  0
ENDBLK
  5
1711B
330
1710E
100
AcDbEntity
  8
0
 48
50.0
100
AcDbBlockEnd
  0
BLOCK
  5
17126
330
1711C
100
AcDbEntity
  8
0
 48
50.0
100
AcDbBlockBegin
  2
*D10
 70
     1
 10
0.0
 20
0.0
 30
0.0
  3
*D10
  1

  0
LINE
  5
17E6D
330
1711C
100
AcDbEntity
  8
寸法
 62
     0
 48
50.0
370
    -2
100
AcDbLine
 10
10984.88238322584
 20
9357.93163648711
 30
0.0
 11
11453.38238322583
 21
9232.39743983313
 31
0.0
  0
LINE
  5
17E6E
330
1711C
100
AcDbEntity
  8
寸法
 62
     0
 48
50.0
370
    -2
100
AcDbLine
 10
10984.88238322584
 20
8907.931636487113
 30
0.0
 11
11453.38238322583
 21
8782.397439833134
 31
0.0
  0
LINE
  5
17E6F
330
1711C
100
AcDbEntity
  8
寸法
 62
     0
 48
50.0
370
    -2
100
AcDbLine
 10
11393.38238322583
 20
9248.474391378996
 30
0.0
 11
11393.38238322583
 21
8798.474391379
 31
0.0
  0
INSERT
  5
17E70
330
1711C
100
AcDbEntity
  8
寸法
 62
     0
 48
50.0
370
    -2
100
AcDbBlockReference
  2
_DOTSMALL
 10
11393.38238322583
 20
9248.474391378996
 30
0.0
 41
100.0
 42
100.0
 43
100.0
 50
90.0
  0
INSERT
  5
17E71
330
1711C
100
AcDbEntity
  8
寸法
 62
     0
 48
50.0
370
    -2
100
AcDbBlockReference
  2
_DOTSMALL
 10
11393.38238322583
 20
8798.474391379
 30
0.0
 41
100.0
 42
100.0
 43
100.0
 50
270.0
  0
MTEXT
  5
17E72
330
1711C
100
AcDbEntity
  8
寸法
 62
     7
 48
50.0
100
AcDbMText
 10
11293.38238322583
 20
9023.474391378998
 30
0.0
 40
120.0
 41
0.0
 71
     5
 72
     1
  1
\A1;450
  7
STYLE1
 11
0.0000000000000001
 21
1.0
 31
0.0
 73
     1
 44
1.0
1001
ACAD
1000
MTEXTBEGIN
1070
    73
1070
     1
1070
    44
1040
1.0
1070
    74
1070
     0
1000
MTEXTEND
  0
POINT
  5
17E73
330
1711C
100
AcDbEntity
  8
DEFPOINTS
 62
     0
 48
50.0
100
AcDbPoint
 10
10964.88238322584
 20
9363.290620335732
 30
0.0
  0
POINT
  5
17E74
330
1711C
100
AcDbEntity
  8
DEFPOINTS
 62
     0
 48
50.0
100
AcDbPoint
 10
10964.88238322584
 20
8913.290620335736
 30
0.0
  0
POINT
  5
17E75
330
1711C
100
AcDbEntity
  8
DEFPOINTS
 62
     0
 48
50.0
100
AcDbPoint
 10
11393.38238322583
 20
8798.474391379
 30
0.0
  0
ENDBLK
  5
17127
330
1711C
100
AcDbEntity
  8
0
 48
50.0
100
AcDbBlockEnd
  0
BLOCK
  5
17134
330
17128
100
AcDbEntity
  8
0
 48
50.0
100
AcDbBlockBegin
  2
*D11
 70
     1
 10
0.0
 20
0.0
 30
0.0
  3
*D11
  1

  0
LINE
  5
17E62
330
17128
100
AcDbEntity
  8
寸法
 62
     0
 48
50.0
370
    -2
100
AcDbLine
 10
11013.38238322582
 20
7658.290620335718
 30
0.0
 11
11753.38238322582
 21
7658.290620335718
 31
0.0
  0
LINE
  5
17E63
330
17128
100
AcDbEntity
  8
寸法
 62
     0
 48
50.0
370
    -2
100
AcDbLine
 10
11013.38238322582
 20
7603.290620335721
 30
0.0
 11
11753.38238322582
 21
7603.290620335721
 31
0.0
  0
LINE
  5
17E64
330
17128
100
AcDbEntity
  8
寸法
 62
     0
 48
50.0
370
    -2
100
AcDbLine
 10
11693.38238322582
 20
7658.290620335718
 30
0.0
 11
11693.38238322582
 21
7758.290620335718
 31
0.0
  0
LINE
  5
17E65
330
17128
100
AcDbEntity
  8
寸法
 62
     0
 48
50.0
370
    -2
100
AcDbLine
 10
11693.38238322582
 20
7603.290620335721
 30
0.0
 11
11693.38238322582
 21
7186.320057587231
 31
0.0
  0
LINE
  5
17E66
330
17128
100
AcDbEntity
  8
寸法
 62
     0
 48
50.0
370
    -2
100
AcDbLine
 10
11693.38238322582
 20
7658.290620335718
 30
0.0
 11
11693.38238322582
 21
7603.290620335721
 31
0.0
  0
INSERT
  5
17E67
330
17128
100
AcDbEntity
  8
寸法
 62
     0
 48
50.0
370
    -2
100
AcDbBlockReference
  2
_DOTSMALL
 10
11693.38238322582
 20
7658.290620335718
 30
0.0
 41
100.0
 42
100.0
 43
100.0
 50
270.0
  0
INSERT
  5
17E68
330
17128
100
AcDbEntity
  8
寸法
 62
     0
 48
50.0
370
    -2
100
AcDbBlockReference
  2
_DOTSMALL
 10
11693.38238322582
 20
7603.290620335721
 30
0.0
 41
100.0
 42
100.0
 43
100.0
 50
90.0
  0
MTEXT
  5
17E69
330
17128
100
AcDbEntity
  8
寸法
 62
     7
 48
50.0
100
AcDbMText
 10
11593.38238322581
 20
7294.805338961471
 30
0.0
 40
120.0
 41
0.0
 71
     5
 72
     1
  1
\A1;55
  7
STYLE1
 11
0.0000000000000001
 21
1.0
 31
0.0
 73
     1
 44
1.0
1001
ACAD
1000
MTEXTBEGIN
1070
    73
1070
     1
1070
    44
1040
1.0
1070
    74
1070
     0
1000
MTEXTEND
  0
POINT
  5
17E6A
330
17128
100
AcDbEntity
  8
DEFPOINTS
 62
     0
 48
50.0
100
AcDbPoint
 10
10993.38238322582
 20
7658.290620335718
 30
0.0
  0
POINT
  5
17E6B
330
17128
100
AcDbEntity
  8
DEFPOINTS
 62
     0
 48
50.0
100
AcDbPoint
 10
10993.38238322582
 20
7603.290620335721
 30
0.0
  0
POINT
  5
17E6C
330
17128
100
AcDbEntity
  8
DEFPOINTS
 62
     0
 48
50.0
100
AcDbPoint
 10
11693.38238322582
 20
7603.290620335721
 30
0.0
  0
ENDBLK
  5
17135
330
17128
100
AcDbEntity
  8
0
 48
50.0
100
AcDbBlockEnd
  0
BLOCK
  5
17140
330
17136
100
AcDbEntity
  8
0
 48
50.0
100
AcDbBlockBegin
  2
*D12
 70
     1
 10
0.0
 20
0.0
 30
0.0
  3
*D12
  1

  0
LINE
  5
17E59
330
17136
100
AcDbEntity
  8
寸法
 62
     0
 48
50.0
370
    -2
100
AcDbLine
 10
11013.38238322584
 20
9338.290620335737
 30
0.0
 11
11753.38238322583
 21
9338.290620335737
 31
0.0
  0
LINE
  5
17E5A
330
17136
100
AcDbEntity
  8
寸法
 62
     0
 48
50.0
370
    -2
100
AcDbLine
 10
11013.38238322582
 20
7658.290620335718
 30
0.0
 11
11753.38238322583
 21
7658.290620335718
 31
0.0
  0
LINE
  5
17E5B
330
17136
100
AcDbEntity
  8
寸法
 62
     0
 48
50.0
370
    -2
100
AcDbLine
 10
11693.38238322583
 20
9338.290620335737
 30
0.0
 11
11693.38238322583
 21
7658.290620335718
 31
0.0
  0
INSERT
  5
17E5C
330
17136
100
AcDbEntity
  8
寸法
 62
     0
 48
50.0
370
    -2
100
AcDbBlockReference
  2
_DOTSMALL
 10
11693.38238322583
 20
9338.290620335737
 30
0.0
 41
100.0
 42
100.0
 43
100.0
 50
90.0
  0
INSERT
  5
17E5D
330
17136
100
AcDbEntity
  8
寸法
 62
     0
 48
50.0
370
    -2
100
AcDbBlockReference
  2
_DOTSMALL
 10
11693.38238322583
 20
7658.290620335718
 30
0.0
 41
100.0
 42
100.0
 43
100.0
 50
270.0
  0
MTEXT
  5
17E5E
330
17136
100
AcDbEntity
  8
寸法
 62
     7
 48
50.0
100
AcDbMText
 10
11593.37057220221
 20
8498.290620335728
 30
0.0
 40
120.0
 41
0.0
 71
     5
 72
     1
  1
\A1;4X420=1680
  7
STYLE1
 11
0.0000000000000001
 21
1.0
 31
0.0
 73
     1
 44
1.0
1001
ACAD
1000
MTEXTBEGIN
1070
    73
1070
     1
1070
    44
1040
1.0
1070
    74
1070
     0
1000
MTEXTEND
  0
POINT
  5
17E5F
330
17136
100
AcDbEntity
  8
DEFPOINTS
 62
     0
 48
50.0
100
AcDbPoint
 10
10993.38238322584
 20
9338.290620335737
 30
0.0
  0
POINT
  5
17E60
330
17136
100
AcDbEntity
  8
DEFPOINTS
 62
     0
 48
50.0
100
AcDbPoint
 10
10993.38238322582
 20
7658.290620335718
 30
0.0
  0
POINT
  5
17E61
330
17136
100
AcDbEntity
  8
DEFPOINTS
 62
     0
 48
50.0
100
AcDbPoint
 10
11693.38238322583
 20
7658.290620335718
 30
0.0
  0
ENDBLK
  5
17141
330
17136
100
AcDbEntity
  8
0
 48
50.0
100
AcDbBlockEnd
  0
BLOCK
  5
1714C
330
17142
100
AcDbEntity
  8
0
 48
50.0
100
AcDbBlockBegin
  2
*D13
 70
     1
 10
0.0
 20
0.0
 30
0.0
  3
*D13
  1

  0
LINE
  5
17E50
330
17142
100
AcDbEntity
  8
寸法
 62
     0
 48
50.0
370
    -2
100
AcDbLine
 10
11013.38238322584
 20
9393.290620335731
 30
0.0
 11
12053.38238322584
 21
9393.290620335731
 31
0.0
  0
LINE
  5
17E51
330
17142
100
AcDbEntity
  8
寸法
 62
     0
 48
50.0
370
    -2
100
AcDbLine
 10
11013.38238322582
 20
7603.290620335721
 30
0.0
 11
12053.38238322584
 21
7603.290620335721
 31
0.0
  0
LINE
  5
17E52
330
17142
100
AcDbEntity
  8
寸法
 62
     0
 48
50.0
370
    -2
100
AcDbLine
 10
11993.38238322584
 20
9393.290620335731
 30
0.0
 11
11993.38238322584
 21
7603.290620335721
 31
0.0
  0
INSERT
  5
17E53
330
17142
100
AcDbEntity
  8
寸法
 62
     0
 48
50.0
370
    -2
100
AcDbBlockReference
  2
_DOTSMALL
 10
11993.38238322584
 20
9393.290620335731
 30
0.0
 41
100.0
 42
100.0
 43
100.0
 50
90.0
  0
INSERT
  5
17E54
330
17142
100
AcDbEntity
  8
寸法
 62
     0
 48
50.0
370
    -2
100
AcDbBlockReference
  2
_DOTSMALL
 10
11993.38238322584
 20
7603.290620335721
 30
0.0
 41
100.0
 42
100.0
 43
100.0
 50
270.0
  0
MTEXT
  5
17E55
330
17142
100
AcDbEntity
  8
寸法
 62
     7
 48
50.0
100
AcDbMText
 10
11893.38238322584
 20
8498.290620335728
 30
0.0
 40
120.0
 41
0.0
 71
     5
 72
     1
  1
\A1;1790
  7
STYLE1
 11
0.0000000000000001
 21
1.0
 31
0.0
 73
     1
 44
1.0
1001
ACAD
1000
MTEXTBEGIN
1070
    73
1070
     1
1070
    44
1040
1.0
1070
    74
1070
     0
1000
MTEXTEND
  0
POINT
  5
17E56
330
17142
100
AcDbEntity
  8
DEFPOINTS
 62
     0
 48
50.0
100
AcDbPoint
 10
10993.38238322584
 20
9393.290620335731
 30
0.0
  0
POINT
  5
17E57
330
17142
100
AcDbEntity
  8
DEFPOINTS
 62
     0
 48
50.0
100
AcDbPoint
 10
10993.38238322582
 20
7603.290620335721
 30
0.0
  0
POINT
  5
17E58
330
17142
100
AcDbEntity
  8
DEFPOINTS
 62
     0
 48
50.0
100
AcDbPoint
 10
11993.38238322584
 20
7603.290620335721
 30
0.0
  0
ENDBLK
  5
1714D
330
17142
100
AcDbEntity
  8
0
 48
50.0
100
AcDbBlockEnd
  0
BLOCK
  5
17158
330
1714E
100
AcDbEntity
  8
0
 48
50.0
100
AcDbBlockBegin
  2
*D14
 70
     1
 10
0.0
 20
0.0
 30
0.0
  3
*D14
  1

  0
LINE
  5
17E47
330
1714E
100
AcDbEntity
  8
寸法
 62
     0
 48
50.0
370
    -2
100
AcDbLine
 10
9685.52339937722
 20
8893.290620335744
 30
0.0
 11
9589.071499843958
 21
8533.327230791085
 31
0.0
  0
LINE
  5
17E48
330
1714E
100
AcDbEntity
  8
寸法
 62
     0
 48
50.0
370
    -2
100
AcDbLine
 10
10958.52339937723
 20
8893.290620335736
 30
0.0
 11
10862.07149984397
 21
8533.327230791085
 31
0.0
  0
LINE
  5
17E49
330
1714E
100
AcDbEntity
  8
寸法
 62
     0
 48
50.0
370
    -2
100
AcDbLine
 10
9605.148451389824
 20
8593.327230791086
 30
0.0
 11
10878.14845138983
 21
8593.327230791086
 31
0.0
  0
INSERT
  5
17E4A
330
1714E
100
AcDbEntity
  8
寸法
 62
     0
 48
50.0
370
    -2
100
AcDbBlockReference
  2
_DOTSMALL
 10
9605.148451389824
 20
8593.327230791086
 30
0.0
 41
100.0
 42
100.0
 43
100.0
 50
180.0
  0
INSERT
  5
17E4B
330
1714E
100
AcDbEntity
  8
寸法
 62
     0
 48
50.0
370
    -2
100
AcDbBlockReference
  2
_DOTSMALL
 10
10878.14845138983
 20
8593.327230791086
 30
0.0
 41
100.0
 42
100.0
 43
100.0
  0
MTEXT
  5
17E4C
330
1714E
100
AcDbEntity
  8
寸法
 62
     7
 48
50.0
100
AcDbMText
 10
10311.27029053985
 20
8693.339041814708
 30
0.0
 40
120.0
 41
0.0
 71
     5
 72
     1
  1
\A1;1273
  7
STYLE1
 73
     1
 44
1.0
1001
ACAD
1000
MTEXTBEGIN
1070
    73
1070
     1
1070
    44
1040
1.0
1070
    74
1070
     0
1000
MTEXTEND
  0
POINT
  5
17E4D
330
1714E
100
AcDbEntity
  8
DEFPOINTS
 62
     0
 48
50.0
100
AcDbPoint
 10
9690.882383225842
 20
8913.290620335743
 30
0.0
  0
POINT
  5
17E4E
330
1714E
100
AcDbEntity
  8
DEFPOINTS
 62
     0
 48
50.0
100
AcDbPoint
 10
10963.88238322585
 20
8913.290620335736
 30
0.0
  0
POINT
  5
17E4F
330
1714E
100
AcDbEntity
  8
DEFPOINTS
 62
     0
 48
50.0
100
AcDbPoint
 10
10878.14845138983
 20
8593.327230791086
 30
0.0
  0
ENDBLK
  5
17159
330
1714E
100
AcDbEntity
  8
0
 48
50.0
100
AcDbBlockEnd
  0
BLOCK
  5
17170
330
17166
100
AcDbEntity
  8
0
 48
50.0
100
AcDbBlockBegin
  2
*D15
 70
     1
 10
0.0
 20
0.0
 30
0.0
  3
*D15
  1

  0
LINE
  5
17E3E
330
17166
100
AcDbEntity
  8
寸法
 62
     0
 48
50.0
370
    -2
100
AcDbLine
 10
8418.382383225843
 20
9413.290620335638
 30
0.0
 11
8418.382383225843
 21
9753.290620335638
 31
0.0
  0
LINE
  5
17E3F
330
17166
100
AcDbEntity
  8
寸法
 62
     0
 48
50.0
370
    -2
100
AcDbLine
 10
10938.38238322584
 20
9413.290620335732
 30
0.0
 11
10938.38238322584
 21
9753.290620335638
 31
0.0
  0
LINE
  5
17E40
330
17166
100
AcDbEntity
  8
寸法
 62
     0
 48
50.0
370
    -2
100
AcDbLine
 10
8418.382383225843
 20
9693.290620335638
 30
0.0
 11
10938.38238322584
 21
9693.290620335638
 31
0.0
  0
INSERT
  5
17E41
330
17166
100
AcDbEntity
  8
寸法
 62
     0
 48
50.0
370
    -2
100
AcDbBlockReference
  2
_DOTSMALL
 10
8418.382383225843
 20
9693.290620335638
 30
0.0
 41
100.0
 42
100.0
 43
100.0
 50
180.0
  0
INSERT
  5
17E42
330
17166
100
AcDbEntity
  8
寸法
 62
     0
 48
50.0
370
    -2
100
AcDbBlockReference
  2
_DOTSMALL
 10
10938.38238322584
 20
9693.290620335638
 30
0.0
 41
100.0
 42
100.0
 43
100.0
  0
MTEXT
  5
17E43
330
17166
100
AcDbEntity
  8
寸法
 62
     7
 48
50.0
100
AcDbMText
 10
9678.382383225839
 20
9793.30243135926
 30
0.0
 40
120.0
 41
0.0
 71
     5
 72
     1
  1
\A1;6X420=2520
  7
STYLE1
 73
     1
 44
1.0
1001
ACAD
1000
MTEXTBEGIN
1070
    73
1070
     1
1070
    44
1040
1.0
1070
    74
1070
     0
1000
MTEXTEND
  0
POINT
  5
17E44
330
17166
100
AcDbEntity
  8
DEFPOINTS
 62
     0
 48
50.0
100
AcDbPoint
 10
8418.382383225843
 20
9393.290620335639
 30
0.0
  0
POINT
  5
17E45
330
17166
100
AcDbEntity
  8
DEFPOINTS
 62
     0
 48
50.0
100
AcDbPoint
 10
10938.38238322584
 20
9393.290620335731
 30
0.0
  0
POINT
  5
17E46
330
17166
100
AcDbEntity
  8
DEFPOINTS
 62
     0
 48
50.0
100
AcDbPoint
 10
10938.38238322584
 20
9693.290620335638
 30
0.0
  0
ENDBLK
  5
17171
330
17166
100
AcDbEntity
  8
0
 48
50.0
100
AcDbBlockEnd
  0
BLOCK
  5
1717E
330
17172
100
AcDbEntity
  8
0
 48
50.0
100
AcDbBlockBegin
  2
*D16
 70
     1
 10
0.0
 20
0.0
 30
0.0
  3
*D16
  1

  0
LINE
  5
17E33
330
17172
100
AcDbEntity
  8
寸法
 62
     0
 48
50.0
370
    -2
100
AcDbLine
 10
10938.38238322584
 20
9413.290620335732
 30
0.0
 11
10938.38238322584
 21
9753.290620335638
 31
0.0
  0
LINE
  5
17E34
330
17172
100
AcDbEntity
  8
寸法
 62
     0
 48
50.0
370
    -2
100
AcDbLine
 10
10993.38238322584
 20
9413.290620335732
 30
0.0
 11
10993.38238322584
 21
9753.290620335638
 31
0.0
  0
LINE
  5
17E35
330
17172
100
AcDbEntity
  8
寸法
 62
     0
 48
50.0
370
    -2
100
AcDbLine
 10
10938.38238322584
 20
9693.290620335638
 30
0.0
 11
10838.38238322584
 21
9693.290620335638
 31
0.0
  0
LINE
  5
17E36
330
17172
100
AcDbEntity
  8
寸法
 62
     0
 48
50.0
370
    -2
100
AcDbLine
 10
10993.38238322584
 20
9693.290620335638
 30
0.0
 11
11410.35294597432
 21
9693.290620335638
 31
0.0
  0
LINE
  5
17E37
330
17172
100
AcDbEntity
  8
寸法
 62
     0
 48
50.0
370
    -2
100
AcDbLine
 10
10938.38238322584
 20
9693.290620335638
 30
0.0
 11
10993.38238322584
 21
9693.290620335638
 31
0.0
  0
INSERT
  5
17E38
330
17172
100
AcDbEntity
  8
寸法
 62
     0
 48
50.0
370
    -2
100
AcDbBlockReference
  2
_DOTSMALL
 10
10938.38238322584
 20
9693.290620335638
 30
0.0
 41
100.0
 42
100.0
 43
100.0
  0
INSERT
  5
17E39
330
17172
100
AcDbEntity
  8
寸法
 62
     0
 48
50.0
370
    -2
100
AcDbBlockReference
  2
_DOTSMALL
 10
10993.38238322584
 20
9693.290620335638
 30
0.0
 41
100.0
 42
100.0
 43
100.0
 50
180.0
  0
MTEXT
  5
17E3A
330
17172
100
AcDbEntity
  8
寸法
 62
     7
 48
50.0
100
AcDbMText
 10
11301.86766460008
 20
9793.290620335639
 30
0.0
 40
120.0
 41
0.0
 71
     5
 72
     1
  1
\A1;55
  7
STYLE1
 73
     1
 44
1.0
1001
ACAD
1000
MTEXTBEGIN
1070
    73
1070
     1
1070
    44
1040
1.0
1070
    74
1070
     0
1000
MTEXTEND
  0
POINT
  5
17E3B
330
17172
100
AcDbEntity
  8
DEFPOINTS
 62
     0
 48
50.0
100
AcDbPoint
 10
10938.38238322584
 20
9393.290620335731
 30
0.0
  0
POINT
  5
17E3C
330
17172
100
AcDbEntity
  8
DEFPOINTS
 62
     0
 48
50.0
100
AcDbPoint
 10
10993.38238322584
 20
9393.290620335731
 30
0.0
  0
POINT
  5
17E3D
330
17172
100
AcDbEntity
  8
DEFPOINTS
 62
     0
 48
50.0
100
AcDbPoint
 10
10993.38238322584
 20
9693.290620335638
 30
0.0
  0
ENDBLK
  5
1717F
330
17172
100
AcDbEntity
  8
0
 48
50.0
100
AcDbBlockEnd
  0
BLOCK
  5
1718A
330
17180
100
AcDbEntity
  8
0
 48
50.0
100
AcDbBlockBegin
  2
*D17
 70
     1
 10
0.0
 20
0.0
 30
0.0
  3
*D17
  1

  0
LINE
  5
17E2A
330
17180
100
AcDbEntity
  8
寸法
 62
     0
 48
50.0
370
    -2
100
AcDbLine
 10
8385.52339937715
 20
8893.290620335685
 30
0.0
 11
8289.071499843904
 21
8533.327230791085
 31
0.0
  0
LINE
  5
17E2B
330
17180
100
AcDbEntity
  8
寸法
 62
     0
 48
50.0
370
    -2
100
AcDbLine
 10
9658.523399377221
 20
8893.290620335678
 30
0.0
 11
9562.071499843977
 21
8533.327230791085
 31
0.0
  0
LINE
  5
17E2C
330
17180
100
AcDbEntity
  8
寸法
 62
     0
 48
50.0
370
    -2
100
AcDbLine
 10
8305.148451389772
 20
8593.327230791086
 30
0.0
 11
9578.148451389843
 21
8593.327230791086
 31
0.0
  0
INSERT
  5
17E2D
330
17180
100
AcDbEntity
  8
寸法
 62
     0
 48
50.0
370
    -2
100
AcDbBlockReference
  2
_DOTSMALL
 10
8305.148451389772
 20
8593.327230791086
 30
0.0
 41
100.0
 42
100.0
 43
100.0
 50
180.0
  0
INSERT
  5
17E2E
330
17180
100
AcDbEntity
  8
寸法
 62
     0
 48
50.0
370
    -2
100
AcDbBlockReference
  2
_DOTSMALL
 10
9578.148451389843
 20
8593.327230791086
 30
0.0
 41
100.0
 42
100.0
 43
100.0
  0
MTEXT
  5
17E2F
330
17180
100
AcDbEntity
  8
寸法
 62
     7
 48
50.0
100
AcDbMText
 10
8941.648451389808
 20
8693.339041814708
 30
0.0
 40
120.0
 41
0.0
 71
     5
 72
     1
  1
\A1;1273
  7
STYLE1
 73
     1
 44
1.0
1001
ACAD
1000
MTEXTBEGIN
1070
    73
1070
     1
1070
    44
1040
1.0
1070
    74
1070
     0
1000
MTEXTEND
  0
POINT
  5
17E30
330
17180
100
AcDbEntity
  8
DEFPOINTS
 62
     0
 48
50.0
100
AcDbPoint
 10
8390.882383225774
 20
8913.290620335684
 30
0.0
  0
POINT
  5
17E31
330
17180
100
AcDbEntity
  8
DEFPOINTS
 62
     0
 48
50.0
100
AcDbPoint
 10
9663.882383225843
 20
8913.290620335677
 30
0.0
  0
POINT
  5
17E32
330
17180
100
AcDbEntity
  8
DEFPOINTS
 62
     0
 48
50.0
100
AcDbPoint
 10
9578.148451389843
 20
8593.327230791086
 30
0.0
  0
ENDBLK
  5
1718B
330
17180
100
AcDbEntity
  8
0
 48
50.0
100
AcDbBlockEnd
  0
BLOCK
  5
17198
330
1718C
100
AcDbEntity
  8
0
 48
50.0
100
AcDbBlockBegin
  2
*D18
 70
     1
 10
0.0
 20
0.0
 30
0.0
  3
*D18
  1

  0
LINE
  5
17E1F
330
1718C
100
AcDbEntity
  8
寸法
 62
     0
 48
50.0
370
    -2
100
AcDbLine
 10
8363.382383225806
 20
9413.290620335638
 30
0.0
 11
8363.382383225806
 21
9753.290620335638
 31
0.0
  0
LINE
  5
17E20
330
1718C
100
AcDbEntity
  8
寸法
 62
     0
 48
50.0
370
    -2
100
AcDbLine
 10
8418.382383225843
 20
9413.290620335638
 30
0.0
 11
8418.382383225843
 21
9753.290620335638
 31
0.0
  0
LINE
  5
17E21
330
1718C
100
AcDbEntity
  8
寸法
 62
     0
 48
50.0
370
    -2
100
AcDbLine
 10
8418.382383225843
 20
9693.290620335638
 30
0.0
 11
8518.382383225842
 21
9693.290620335638
 31
0.0
  0
LINE
  5
17E22
330
1718C
100
AcDbEntity
  8
寸法
 62
     0
 48
50.0
370
    -2
100
AcDbLine
 10
8363.382383225806
 20
9693.290620335638
 30
0.0
 11
7946.411820477329
 21
9693.290620335638
 31
0.0
  0
LINE
  5
17E23
330
1718C
100
AcDbEntity
  8
寸法
 62
     0
 48
50.0
370
    -2
100
AcDbLine
 10
8418.382383225843
 20
9693.290620335638
 30
0.0
 11
8363.382383225806
 21
9693.290620335638
 31
0.0
  0
INSERT
  5
17E24
330
1718C
100
AcDbEntity
  8
寸法
 62
     0
 48
50.0
370
    -2
100
AcDbBlockReference
  2
_DOTSMALL
 10
8418.382383225843
 20
9693.290620335638
 30
0.0
 41
100.0
 42
100.0
 43
100.0
 50
180.0
  0
INSERT
  5
17E25
330
1718C
100
AcDbEntity
  8
寸法
 62
     0
 48
50.0
370
    -2
100
AcDbBlockReference
  2
_DOTSMALL
 10
8363.382383225806
 20
9693.290620335638
 30
0.0
 41
100.0
 42
100.0
 43
100.0
  0
MTEXT
  5
17E26
330
1718C
100
AcDbEntity
  8
寸法
 62
     7
 48
50.0
100
AcDbMText
 10
8054.897101851567
 20
9793.290620335639
 30
0.0
 40
120.0
 41
0.0
 71
     5
 72
     1
  1
\A1;55
  7
STYLE1
 73
     1
 44
1.0
1001
ACAD
1000
MTEXTBEGIN
1070
    73
1070
     1
1070
    44
1040
1.0
1070
    74
1070
     0
1000
MTEXTEND
  0
POINT
  5
17E27
330
1718C
100
AcDbEntity
  8
DEFPOINTS
 62
     0
 48
50.0
100
AcDbPoint
 10
8363.382383225806
 20
9393.290620335639
 30
0.0
  0
POINT
  5
17E28
330
1718C
100
AcDbEntity
  8
DEFPOINTS
 62
     0
 48
50.0
100
AcDbPoint
 10
8418.382383225843
 20
9393.290620335639
 30
0.0
  0
POINT
  5
17E29
330
1718C
100
AcDbEntity
  8
DEFPOINTS
 62
     0
 48
50.0
100
AcDbPoint
 10
8418.382383225843
 20
9693.290620335638
 30
0.0
  0
ENDBLK
  5
17199
330
1718C
100
AcDbEntity
  8
0
 48
50.0
100
AcDbBlockEnd
  0
BLOCK
  5
171A4
330
1719A
100
AcDbEntity
  8
0
 48
50.0
100
AcDbBlockBegin
  2
*D19
 70
     1
 10
0.0
 20
0.0
 30
0.0
  3
*D19
  1

  0
LINE
  5
176FB
330
1719A
100
AcDbEntity
  8
寸法
 62
     0
 48
50.0
370
    -2
100
AcDbLine
 10
8463.382383225832
 20
2034.800454890554
 30
0.0
 11
8463.382383225832
 21
1708.753125590176
 31
0.0
  0
LINE
  5
176FC
330
1719A
100
AcDbEntity
  8
寸法
 62
     0
 48
50.0
370
    -2
100
AcDbLine
 10
8263.382383225831
 20
2034.800454890554
 30
0.0
 11
8263.382383225831
 21
1708.753125590176
 31
0.0
  0
LINE
  5
176FD
330
1719A
100
AcDbEntity
  8
寸法
 62
     0
 48
50.0
370
    -2
100
AcDbLine
 10
8463.382383225832
 20
1768.753125590176
 30
0.0
 11
8263.382383225831
 21
1768.753125590176
 31
0.0
  0
INSERT
  5
176FE
330
1719A
100
AcDbEntity
  8
寸法
 62
     0
 48
50.0
370
    -2
100
AcDbBlockReference
  2
_DOTSMALL
 10
8463.382383225832
 20
1768.753125590176
 30
0.0
 41
100.0
 42
100.0
 43
100.0
  0
INSERT
  5
176FF
330
1719A
100
AcDbEntity
  8
寸法
 62
     0
 48
50.0
370
    -2
100
AcDbBlockReference
  2
_DOTSMALL
 10
8263.382383225831
 20
1768.753125590176
 30
0.0
 41
100.0
 42
100.0
 43
100.0
 50
180.0
  0
MTEXT
  5
17700
330
1719A
100
AcDbEntity
  8
寸法
 62
     7
 48
50.0
100
AcDbMText
 10
8363.382383225831
 20
1868.764936613798
 30
0.0
 40
120.0
 41
0.0
 71
     5
 72
     1
  1
\A1;200
  7
STYLE1
 73
     1
 44
1.0
1001
ACAD
1000
MTEXTBEGIN
1070
    73
1070
     1
1070
    44
1040
1.0
1070
    74
1070
     0
1000
MTEXTEND
  0
POINT
  5
17701
330
1719A
100
AcDbEntity
  8
DEFPOINTS
 62
     0
 48
50.0
100
AcDbPoint
 10
8463.382383225832
 20
2054.800454890554
 30
0.0
  0
POINT
  5
17702
330
1719A
100
AcDbEntity
  8
DEFPOINTS
 62
     0
 48
50.0
100
AcDbPoint
 10
8263.382383225831
 20
2054.800454890554
 30
0.0
  0
POINT
  5
17703
330
1719A
100
AcDbEntity
  8
DEFPOINTS
 62
     0
 48
50.0
100
AcDbPoint
 10
8263.382383225831
 20
1768.753125590176
 30
0.0
  0
ENDBLK
  5
171A5
330
1719A
100
AcDbEntity
  8
0
 48
50.0
100
AcDbBlockEnd
  0
BLOCK
  5
171B0
330
171A6
100
AcDbEntity
  8
0
 48
50.0
100
AcDbBlockBegin
  2
*D20
 70
     1
 10
0.0
 20
0.0
 30
0.0
  3
*D20
  1

  0
LINE
  5
176F2
330
171A6
100
AcDbEntity
  8
寸法
 62
     0
 48
50.0
370
    -2
100
AcDbLine
 10
8791.382383225833
 20
4437.800454890553
 30
0.0
 11
8010.157576754819
 21
4437.800454890553
 31
0.0
  0
LINE
  5
176F3
330
171A6
100
AcDbEntity
  8
寸法
 62
     0
 48
50.0
370
    -2
100
AcDbLine
 10
8791.382383225833
 20
2412.800454890553
 30
0.0
 11
8010.157576754819
 21
2412.800454890553
 31
0.0
  0
LINE
  5
176F4
330
171A6
100
AcDbEntity
  8
寸法
 62
     0
 48
50.0
370
    -2
100
AcDbLine
 10
8070.157576754819
 20
4437.800454890553
 30
0.0
 11
8070.157576754819
 21
2412.800454890553
 31
0.0
  0
INSERT
  5
176F5
330
171A6
100
AcDbEntity
  8
寸法
 62
     0
 48
50.0
370
    -2
100
AcDbBlockReference
  2
_DOTSMALL
 10
8070.157576754819
 20
4437.800454890553
 30
0.0
 41
100.0
 42
100.0
 43
100.0
 50
90.0
  0
INSERT
  5
176F6
330
171A6
100
AcDbEntity
  8
寸法
 62
     0
 48
50.0
370
    -2
100
AcDbBlockReference
  2
_DOTSMALL
 10
8070.157576754819
 20
2412.800454890553
 30
0.0
 41
100.0
 42
100.0
 43
100.0
 50
270.0
  0
MTEXT
  5
176F7
330
171A6
100
AcDbEntity
  8
寸法
 62
     7
 48
50.0
100
AcDbMText
 10
7970.145765731196
 20
3425.300454890554
 30
0.0
 40
120.0
 41
0.0
 71
     5
 72
     1
  1
\A1;有効開口部高サ2025
  7
STYLE1
 11
0.0000000000000001
 21
1.0
 31
0.0
 73
     1
 44
1.0
1001
ACAD
1000
MTEXTBEGIN
1070
    73
1070
     1
1070
    44
1040
1.0
1070
    74
1070
     0
1000
MTEXTEND
  0
POINT
  5
176F8
330
171A6
100
AcDbEntity
  8
DEFPOINTS
 62
     0
 48
50.0
100
AcDbPoint
 10
8811.382383225833
 20
4437.800454890553
 30
0.0
  0
POINT
  5
176F9
330
171A6
100
AcDbEntity
  8
DEFPOINTS
 62
     0
 48
50.0
100
AcDbPoint
 10
8811.382383225833
 20
2412.800454890553
 30
0.0
  0
POINT
  5
176FA
330
171A6
100
AcDbEntity
  8
DEFPOINTS
 62
     0
 48
50.0
100
AcDbPoint
 10
8070.157576754819
 20
2412.800454890553
 30
0.0
  0
ENDBLK
  5
171B1
330
171A6
100
AcDbEntity
  8
0
 48
50.0
100
AcDbBlockEnd
  0
BLOCK
  5
171BD
330
171B2
100
AcDbEntity
  8
0
 48
50.0
100
AcDbBlockBegin
  2
*D21
 70
     1
 10
0.0
 20
0.0
 30
0.0
  3
*D21
  1

  0
LINE
  5
176E8
330
171B2
100
AcDbEntity
  8
寸法
 62
     0
 48
50.0
370
    -2
100
AcDbLine
 10
8302.786669516931
 20
4729.098161960216
 30
0.0
 11
7686.852230411654
 21
4746.812312234545
 31
0.0
  0
LINE
  5
176E9
330
171B2
100
AcDbEntity
  8
寸法
 62
     0
 48
50.0
370
    -2
100
AcDbLine
 10
8298.733213960305
 20
4588.156438194501
 30
0.0
 11
7682.798774855029
 21
4605.87058846883
 31
0.0
  0
LINE
  5
176EA
330
171B2
100
AcDbEntity
  8
寸法
 62
     0
 48
50.0
370
    -2
100
AcDbLine
 10
7742.773976457458
 20
4604.145713763883
 30
0.0
 11
7746.827432014085
 21
4745.087437529598
 31
0.0
  0
LINE
  5
176EB
330
171B2
100
AcDbEntity
  8
寸法
 62
     0
 48
50.0
370
    -2
100
AcDbLine
 10
7746.827432014085
 20
4745.087437529598
 30
0.0
 11
7757.17668024377
 21
5104.938647144187
 31
0.0
  0
INSERT
  5
176EC
330
171B2
100
AcDbEntity
  8
寸法
 62
     0
 48
50.0
370
    -2
100
AcDbBlockReference
  2
_DOTSMALL
 10
7742.773976457458
 20
4604.145713763883
 30
0.0
 41
100.0
 42
100.0
 43
100.0
 50
268.3526390256379
  0
INSERT
  5
176ED
330
171B2
100
AcDbEntity
  8
寸法
 62
     0
 48
50.0
370
    -2
100
AcDbBlockReference
  2
_DOTSMALL
 10
7746.827432014085
 20
4745.087437529598
 30
0.0
 41
100.0
 42
100.0
 43
100.0
 50
88.35263902563784
  0
MTEXT
  5
176EE
330
171B2
100
AcDbEntity
  8
寸法
 62
     7
 48
50.0
100
AcDbMText
 10
7653.480782378998
 20
4977.867168180501
 30
0.0
 40
120.0
 41
0.0
 71
     5
 72
     1
  1
\A1;141
  7
STYLE1
 11
0.0287479117491228
 21
0.9995866933738486
 31
0.0
 73
     1
 44
1.0
1001
ACAD
1000
MTEXTBEGIN
1070
    73
1070
     1
1070
    44
1040
1.0
1070
    74
1070
     0
1000
MTEXTEND
  0
POINT
  5
176EF
330
171B2
100
AcDbEntity
  8
DEFPOINTS
 62
     0
 48
50.0
100
AcDbPoint
 10
8322.778403384409
 20
4728.523203725234
 30
0.0
  0
POINT
  5
176F0
330
171B2
100
AcDbEntity
  8
DEFPOINTS
 62
     0
 48
50.0
100
AcDbPoint
 10
8318.724947827783
 20
4587.581479959518
 30
0.0
  0
POINT
  5
176F1
330
171B2
100
AcDbEntity
  8
DEFPOINTS
 62
     0
 48
50.0
100
AcDbPoint
 10
7742.773976457458
 20
4604.145713763883
 30
0.0
  0
ENDBLK
  5
171BE
330
171B2
100
AcDbEntity
  8
0
 48
50.0
100
AcDbBlockEnd
  0
BLOCK
  5
171C9
330
171BF
100
AcDbEntity
  8
0
 48
50.0
100
AcDbBlockBegin
  2
*D22
 70
     1
 10
0.0
 20
0.0
 30
0.0
  3
*D22
  1

  0
LINE
  5
176DF
330
171BF
100
AcDbEntity
  8
寸法
 62
     0
 48
50.0
370
    -2
100
AcDbLine
 10
8343.382383225831
 20
2354.800454890554
 30
0.0
 11
7394.743001296473
 21
2354.800454890554
 31
0.0
  0
LINE
  5
176E0
330
171BF
100
AcDbEntity
  8
寸法
 62
     0
 48
50.0
370
    -2
100
AcDbLine
 10
8283.382383225832
 20
4729.800454890559
 30
0.0
 11
7394.743001296473
 21
4729.800454890559
 31
0.0
  0
LINE
  5
176E1
330
171BF
100
AcDbEntity
  8
寸法
 62
     0
 48
50.0
370
    -2
100
AcDbLine
 10
7454.743001296474
 20
2354.800454890554
 30
0.0
 11
7454.743001296474
 21
4729.800454890559
 31
0.0
  0
INSERT
  5
176E2
330
171BF
100
AcDbEntity
  8
寸法
 62
     0
 48
50.0
370
    -2
100
AcDbBlockReference
  2
_DOTSMALL
 10
7454.743001296474
 20
2354.800454890554
 30
0.0
 41
100.0
 42
100.0
 43
100.0
 50
270.0
  0
INSERT
  5
176E3
330
171BF
100
AcDbEntity
  8
寸法
 62
     0
 48
50.0
370
    -2
100
AcDbBlockReference
  2
_DOTSMALL
 10
7454.743001296474
 20
4729.800454890559
 30
0.0
 41
100.0
 42
100.0
 43
100.0
 50
90.0
  0
MTEXT
  5
176E4
330
171BF
100
AcDbEntity
  8
寸法
 62
     7
 48
50.0
100
AcDbMText
 10
7354.73119027285
 20
3425.300454890554
 30
0.0
 40
120.0
 41
0.0
 71
     5
 72
     1
  1
\A1;2375
  7
STYLE1
 11
0.0000000000000001
 21
1.0
 31
0.0
 73
     1
 44
1.0
1001
ACAD
1000
MTEXTBEGIN
1070
    73
1070
     1
1070
    44
1040
1.0
1070
    74
1070
     0
1000
MTEXTEND
  0
POINT
  5
176E5
330
171BF
100
AcDbEntity
  8
DEFPOINTS
 62
     0
 48
50.0
100
AcDbPoint
 10
8363.382383225831
 20
2354.800454890554
 30
0.0
  0
POINT
  5
176E6
330
171BF
100
AcDbEntity
  8
DEFPOINTS
 62
     0
 48
50.0
100
AcDbPoint
 10
8303.382383225832
 20
4729.800454890559
 30
0.0
  0
POINT
  5
176E7
330
171BF
100
AcDbEntity
  8
DEFPOINTS
 62
     0
 48
50.0
100
AcDbPoint
 10
7454.743001296474
 20
4729.800454890559
 30
0.0
  0
ENDBLK
  5
171CA
330
171BF
100
AcDbEntity
  8
0
 48
50.0
100
AcDbBlockEnd
  0
BLOCK
  5
171D5
330
171CB
100
AcDbEntity
  8
0
 48
50.0
100
AcDbBlockBegin
  2
*D23
 70
     1
 10
0.0
 20
0.0
 30
0.0
  3
*D23
  1

  0
LINE
  5
176D6
330
171CB
100
AcDbEntity
  8
寸法
 62
     0
 48
50.0
370
    -2
100
AcDbLine
 10
8343.382383225831
 20
4494.800454890554
 30
0.0
 11
7679.729674067534
 21
4494.800454890554
 31
0.0
  0
LINE
  5
176D7
330
171CB
100
AcDbEntity
  8
寸法
 62
     0
 48
50.0
370
    -2
100
AcDbLine
 10
8343.382383225831
 20
2404.800454890554
 30
0.0
 11
7679.729674067534
 21
2404.800454890554
 31
0.0
  0
LINE
  5
176D8
330
171CB
100
AcDbEntity
  8
寸法
 62
     0
 48
50.0
370
    -2
100
AcDbLine
 10
7739.729674067534
 20
4494.800454890554
 30
0.0
 11
7739.729674067534
 21
2404.800454890554
 31
0.0
  0
INSERT
  5
176D9
330
171CB
100
AcDbEntity
  8
寸法
 62
     0
 48
50.0
370
    -2
100
AcDbBlockReference
  2
_DOTSMALL
 10
7739.729674067534
 20
4494.800454890554
 30
0.0
 41
100.0
 42
100.0
 43
100.0
 50
90.0
  0
INSERT
  5
176DA
330
171CB
100
AcDbEntity
  8
寸法
 62
     0
 48
50.0
370
    -2
100
AcDbBlockReference
  2
_DOTSMALL
 10
7739.729674067534
 20
2404.800454890554
 30
0.0
 41
100.0
 42
100.0
 43
100.0
 50
270.0
  0
MTEXT
  5
176DB
330
171CB
100
AcDbEntity
  8
寸法
 62
     7
 48
50.0
100
AcDbMText
 10
7639.717863043911
 20
3425.300454890554
 30
0.0
 40
120.0
 41
0.0
 71
     5
 72
     1
  1
\A1;2090
  7
STYLE1
 11
0.0000000000000001
 21
1.0
 31
0.0
 73
     1
 44
1.0
1001
ACAD
1000
MTEXTBEGIN
1070
    73
1070
     1
1070
    44
1040
1.0
1070
    74
1070
     0
1000
MTEXTEND
  0
POINT
  5
176DC
330
171CB
100
AcDbEntity
  8
DEFPOINTS
 62
     0
 48
50.0
100
AcDbPoint
 10
8363.382383225831
 20
4494.800454890554
 30
0.0
  0
POINT
  5
176DD
330
171CB
100
AcDbEntity
  8
DEFPOINTS
 62
     0
 48
50.0
100
AcDbPoint
 10
8363.382383225831
 20
2404.800454890554
 30
0.0
  0
POINT
  5
176DE
330
171CB
100
AcDbEntity
  8
DEFPOINTS
 62
     0
 48
50.0
100
AcDbPoint
 10
7739.729674067534
 20
2404.800454890554
 30
0.0
  0
ENDBLK
  5
171D6
330
171CB
100
AcDbEntity
  8
0
 48
50.0
100
AcDbBlockEnd
  0
BLOCK
  5
171E3
330
171D7
100
AcDbEntity
  8
0
 48
50.0
100
AcDbBlockBegin
  2
*D24
 70
     1
 10
0.0
 20
0.0
 30
0.0
  3
*D24
  1

  0
LINE
  5
176CB
330
171D7
100
AcDbEntity
  8
寸法
 62
     0
 48
50.0
370
    -2
100
AcDbLine
 10
8343.382383225831
 20
2404.800454890554
 30
0.0
 11
7679.729674067535
 21
2404.800454890554
 31
0.0
  0
LINE
  5
176CC
330
171D7
100
AcDbEntity
  8
寸法
 62
     0
 48
50.0
370
    -2
100
AcDbLine
 10
8288.382383225831
 20
2354.800454890554
 30
0.0
 11
7679.729674067535
 21
2354.800454890554
 31
0.0
  0
LINE
  5
176CD
330
171D7
100
AcDbEntity
  8
寸法
 62
     0
 48
50.0
370
    -2
100
AcDbLine
 10
7739.729674067534
 20
2404.800454890554
 30
0.0
 11
7739.729674067534
 21
2504.800454890554
 31
0.0
  0
LINE
  5
176CE
330
171D7
100
AcDbEntity
  8
寸法
 62
     0
 48
50.0
370
    -2
100
AcDbLine
 10
7739.729674067534
 20
2354.800454890554
 30
0.0
 11
7739.729674067534
 21
1942.705966701574
 31
0.0
  0
LINE
  5
176CF
330
171D7
100
AcDbEntity
  8
寸法
 62
     0
 48
50.0
370
    -2
100
AcDbLine
 10
7739.729674067534
 20
2404.800454890554
 30
0.0
 11
7739.729674067534
 21
2354.800454890554
 31
0.0
  0
INSERT
  5
176D0
330
171D7
100
AcDbEntity
  8
寸法
 62
     0
 48
50.0
370
    -2
100
AcDbBlockReference
  2
_DOTSMALL
 10
7739.729674067534
 20
2404.800454890554
 30
0.0
 41
100.0
 42
100.0
 43
100.0
 50
270.0
  0
INSERT
  5
176D1
330
171D7
100
AcDbEntity
  8
寸法
 62
     0
 48
50.0
370
    -2
100
AcDbBlockReference
  2
_DOTSMALL
 10
7739.729674067534
 20
2354.800454890554
 30
0.0
 41
100.0
 42
100.0
 43
100.0
 50
90.0
  0
MTEXT
  5
176D2
330
171D7
100
AcDbEntity
  8
寸法
 62
     7
 48
50.0
100
AcDbMText
 10
7639.729674067535
 20
2048.753210796063
 30
0.0
 40
120.0
 41
0.0
 71
     5
 72
     1
  1
\A1;50
  7
STYLE1
 11
0.0000000000000001
 21
1.0
 31
0.0
 73
     1
 44
1.0
1001
ACAD
1000
MTEXTBEGIN
1070
    73
1070
     1
1070
    44
1040
1.0
1070
    74
1070
     0
1000
MTEXTEND
  0
POINT
  5
176D3
330
171D7
100
AcDbEntity
  8
DEFPOINTS
 62
     0
 48
50.0
100
AcDbPoint
 10
8363.382383225831
 20
2404.800454890554
 30
0.0
  0
POINT
  5
176D4
330
171D7
100
AcDbEntity
  8
DEFPOINTS
 62
     0
 48
50.0
100
AcDbPoint
 10
8308.382383225831
 20
2354.800454890554
 30
0.0
  0
POINT
  5
176D5
330
171D7
100
AcDbEntity
  8
DEFPOINTS
 62
     0
 48
50.0
100
AcDbPoint
 10
7739.729674067534
 20
2354.800454890554
 30
0.0
  0
ENDBLK
  5
171E4
330
171D7
100
AcDbEntity
  8
0
 48
50.0
100
AcDbBlockEnd
  0
BLOCK
  5
171F0
330
171E5
100
AcDbEntity
  8
0
 48
50.0
100
AcDbBlockBegin
  2
*D25
 70
     1
 10
0.0
 20
0.0
 30
0.0
  3
*D25
  1

  0
LINE
  5
176C1
330
171E5
100
AcDbEntity
  8
寸法
 62
     0
 48
50.0
370
    -2
100
AcDbLine
 10
8288.382383225831
 20
2354.800454890554
 30
0.0
 11
7394.743001296473
 21
2354.800454890554
 31
0.0
  0
LINE
  5
176C2
330
171E5
100
AcDbEntity
  8
寸法
 62
     0
 48
50.0
370
    -2
100
AcDbLine
 10
7719.729674067534
 20
2254.800454890554
 30
0.0
 11
7394.743001296473
 21
2254.800454890554
 31
0.0
  0
LINE
  5
176C3
330
171E5
100
AcDbEntity
  8
寸法
 62
     0
 48
50.0
370
    -2
100
AcDbLine
 10
7454.743001296474
 20
2354.800454890554
 30
0.0
 11
7454.743001296474
 21
2254.800454890554
 31
0.0
  0
LINE
  5
176C4
330
171E5
100
AcDbEntity
  8
寸法
 62
     0
 48
50.0
370
    -2
100
AcDbLine
 10
7454.743001296474
 20
2254.800454890554
 30
0.0
 11
7454.743001296472
 21
1882.705966701574
 31
0.0
  0
INSERT
  5
176C5
330
171E5
100
AcDbEntity
  8
寸法
 62
     0
 48
50.0
370
    -2
100
AcDbBlockReference
  2
_DOTSMALL
 10
7454.743001296474
 20
2354.800454890554
 30
0.0
 41
100.0
 42
100.0
 43
100.0
 50
90.0
  0
INSERT
  5
176C6
330
171E5
100
AcDbEntity
  8
寸法
 62
     0
 48
50.0
370
    -2
100
AcDbBlockReference
  2
_DOTSMALL
 10
7454.743001296474
 20
2254.800454890554
 30
0.0
 41
100.0
 42
100.0
 43
100.0
 50
270.0
  0
MTEXT
  5
176C7
330
171E5
100
AcDbEntity
  8
寸法
 62
     7
 48
50.0
100
AcDbMText
 10
7354.743001296473
 20
2018.753210796063
 30
0.0
 40
120.0
 41
0.0
 71
     5
 72
     1
  1
\A1;100
  7
STYLE1
 11
0.0000000000000001
 21
1.0
 31
0.0
 73
     1
 44
1.0
1001
ACAD
1000
MTEXTBEGIN
1070
    73
1070
     1
1070
    44
1040
1.0
1070
    74
1070
     0
1000
MTEXTEND
  0
POINT
  5
176C8
330
171E5
100
AcDbEntity
  8
DEFPOINTS
 62
     0
 48
50.0
100
AcDbPoint
 10
8308.382383225831
 20
2354.800454890554
 30
0.0
  0
POINT
  5
176C9
330
171E5
100
AcDbEntity
  8
DEFPOINTS
 62
     0
 48
50.0
100
AcDbPoint
 10
7739.729674067534
 20
2254.800454890554
 30
0.0
  0
POINT
  5
176CA
330
171E5
100
AcDbEntity
  8
DEFPOINTS
 62
     0
 48
50.0
100
AcDbPoint
 10
7454.743001296474
 20
2254.800454890554
 30
0.0
  0
ENDBLK
  5
171F1
330
171E5
100
AcDbEntity
  8
0
 48
50.0
100
AcDbBlockEnd
  0
BLOCK
  5
171FD
330
171F2
100
AcDbEntity
  8
0
 48
50.0
100
AcDbBlockBegin
  2
*D26
 70
     1
 10
0.0
 20
0.0
 30
0.0
  3
*D26
  1

  0
LINE
  5
176B7
330
171F2
100
AcDbEntity
  8
寸法
 62
     0
 48
50.0
370
    -2
100
AcDbLine
 10
10993.38238322583
 20
4696.611134502208
 30
0.0
 11
10993.38238322583
 21
5188.457908469859
 31
0.0
  0
LINE
  5
176B8
330
171F2
100
AcDbEntity
  8
寸法
 62
     0
 48
50.0
370
    -2
100
AcDbLine
 10
11073.38238322583
 20
4694.800454890556
 30
0.0
 11
11073.38238322583
 21
5188.457908469859
 31
0.0
  0
LINE
  5
176B9
330
171F2
100
AcDbEntity
  8
寸法
 62
     0
 48
50.0
370
    -2
100
AcDbLine
 10
10993.38238322583
 20
5128.457908469859
 30
0.0
 11
11073.38238322583
 21
5128.457908469859
 31
0.0
  0
LINE
  5
176BA
330
171F2
100
AcDbEntity
  8
寸法
 62
     0
 48
50.0
370
    -2
100
AcDbLine
 10
11073.38238322583
 20
5128.457908469859
 30
0.0
 11
11385.47687141481
 21
5128.457908469859
 31
0.0
  0
INSERT
  5
176BB
330
171F2
100
AcDbEntity
  8
寸法
 62
     0
 48
50.0
370
    -2
100
AcDbBlockReference
  2
_DOTSMALL
 10
10993.38238322583
 20
5128.457908469859
 30
0.0
 41
100.0
 42
100.0
 43
100.0
 50
180.0
  0
INSERT
  5
176BC
330
171F2
100
AcDbEntity
  8
寸法
 62
     0
 48
50.0
370
    -2
100
AcDbBlockReference
  2
_DOTSMALL
 10
11073.38238322583
 20
5128.457908469859
 30
0.0
 41
100.0
 42
100.0
 43
100.0
  0
MTEXT
  5
176BD
330
171F2
100
AcDbEntity
  8
寸法
 62
     7
 48
50.0
100
AcDbMText
 10
11279.42962732032
 20
5228.457908469859
 30
0.0
 40
120.0
 41
0.0
 71
     5
 72
     1
  1
\A1;80
  7
STYLE1
 73
     1
 44
1.0
1001
ACAD
1000
MTEXTBEGIN
1070
    73
1070
     1
1070
    44
1040
1.0
1070
    74
1070
     0
1000
MTEXTEND
  0
POINT
  5
176BE
330
171F2
100
AcDbEntity
  8
DEFPOINTS
 62
     0
 48
50.0
100
AcDbPoint
 10
10993.38238322583
 20
4676.611134502208
 30
0.0
  0
POINT
  5
176BF
330
171F2
100
AcDbEntity
  8
DEFPOINTS
 62
     0
 48
50.0
100
AcDbPoint
 10
11073.38238322583
 20
4674.800454890555
 30
0.0
  0
POINT
  5
176C0
330
171F2
100
AcDbEntity
  8
DEFPOINTS
 62
     0
 48
50.0
100
AcDbPoint
 10
11073.38238322583
 20
5128.457908469859
 30
0.0
  0
ENDBLK
  5
171FE
330
171F2
100
AcDbEntity
  8
0
 48
50.0
100
AcDbBlockEnd
  0
BLOCK
  5
17209
330
171FF
100
AcDbEntity
  8
0
 48
50.0
100
AcDbBlockBegin
  2
*D27
 70
     1
 10
0.0
 20
0.0
 30
0.0
  3
*D27
  1

  0
LINE
  5
176AE
330
171FF
100
AcDbEntity
  8
寸法
 62
     0
 48
50.0
370
    -2
100
AcDbLine
 10
11073.38238322583
 20
4694.800454890556
 30
0.0
 11
11073.38238322583
 21
5408.668595201476
 31
0.0
  0
LINE
  5
176AF
330
171FF
100
AcDbEntity
  8
寸法
 62
     0
 48
50.0
370
    -2
100
AcDbLine
 10
8303.382383225835
 20
4749.800454890558
 30
0.0
 11
8303.382383225835
 21
5408.668595201476
 31
0.0
  0
LINE
  5
176B0
330
171FF
100
AcDbEntity
  8
寸法
 62
     0
 48
50.0
370
    -2
100
AcDbLine
 10
11073.38238322583
 20
5348.668595201476
 30
0.0
 11
8303.382383225835
 21
5348.668595201476
 31
0.0
  0
INSERT
  5
176B1
330
171FF
100
AcDbEntity
  8
寸法
 62
     0
 48
50.0
370
    -2
100
AcDbBlockReference
  2
_DOTSMALL
 10
11073.38238322583
 20
5348.668595201476
 30
0.0
 41
100.0
 42
100.0
 43
100.0
  0
INSERT
  5
176B2
330
171FF
100
AcDbEntity
  8
寸法
 62
     0
 48
50.0
370
    -2
100
AcDbBlockReference
  2
_DOTSMALL
 10
8303.382383225835
 20
5348.668595201476
 30
0.0
 41
100.0
 42
100.0
 43
100.0
 50
180.0
  0
MTEXT
  5
176B3
330
171FF
100
AcDbEntity
  8
寸法
 62
     7
 48
50.0
100
AcDbMText
 10
9706.741308113212
 20
5448.680406225097
 30
0.0
 40
120.0
 41
0.0
 71
     5
 72
     1
  1
\A1;2770
  7
STYLE1
 73
     1
 44
1.0
1001
ACAD
1000
MTEXTBEGIN
1070
    73
1070
     1
1070
    44
1040
1.0
1070
    74
1070
     0
1000
MTEXTEND
  0
POINT
  5
176B4
330
171FF
100
AcDbEntity
  8
DEFPOINTS
 62
     0
 48
50.0
100
AcDbPoint
 10
11073.38238322583
 20
4674.800454890555
 30
0.0
  0
POINT
  5
176B5
330
171FF
100
AcDbEntity
  8
DEFPOINTS
 62
     0
 48
50.0
100
AcDbPoint
 10
8303.382383225835
 20
4729.800454890558
 30
0.0
  0
POINT
  5
176B6
330
171FF
100
AcDbEntity
  8
DEFPOINTS
 62
     0
 48
50.0
100
AcDbPoint
 10
8303.382383225835
 20
5348.668595201476
 30
0.0
  0
ENDBLK
  5
1720A
330
171FF
100
AcDbEntity
  8
0
 48
50.0
100
AcDbBlockEnd
  0
BLOCK
  5
17215
330
1720B
100
AcDbEntity
  8
0
 48
50.0
100
AcDbBlockBegin
  2
*D28
 70
     1
 10
0.0
 20
0.0
 30
0.0
  3
*D28
  1

  0
LINE
  5
176A5
330
1720B
100
AcDbEntity
  8
寸法
 62
     0
 48
50.0
370
    -2
100
AcDbLine
 10
10993.38238322583
 20
4696.611134502208
 30
0.0
 11
10993.38238322583
 21
5188.457908469859
 31
0.0
  0
LINE
  5
176A6
330
1720B
100
AcDbEntity
  8
寸法
 62
     0
 48
50.0
370
    -2
100
AcDbLine
 10
8363.382383225836
 20
4745.80207301353
 30
0.0
 11
8363.382383225836
 21
5188.457908469859
 31
0.0
  0
LINE
  5
176A7
330
1720B
100
AcDbEntity
  8
寸法
 62
     0
 48
50.0
370
    -2
100
AcDbLine
 10
10993.38238322583
 20
5128.457908469859
 30
0.0
 11
8363.382383225836
 21
5128.457908469859
 31
0.0
  0
INSERT
  5
176A8
330
1720B
100
AcDbEntity
  8
寸法
 62
     0
 48
50.0
370
    -2
100
AcDbBlockReference
  2
_DOTSMALL
 10
10993.38238322583
 20
5128.457908469859
 30
0.0
 41
100.0
 42
100.0
 43
100.0
  0
INSERT
  5
176A9
330
1720B
100
AcDbEntity
  8
寸法
 62
     0
 48
50.0
370
    -2
100
AcDbBlockReference
  2
_DOTSMALL
 10
8363.382383225836
 20
5128.457908469859
 30
0.0
 41
100.0
 42
100.0
 43
100.0
 50
180.0
  0
MTEXT
  5
176AA
330
1720B
100
AcDbEntity
  8
寸法
 62
     7
 48
50.0
100
AcDbMText
 10
9718.152574255029
 20
5228.469719493481
 30
0.0
 40
120.0
 41
0.0
 71
     5
 72
     1
  1
\A1;柱外寸法2630
  7
STYLE1
 73
     1
 44
1.0
1001
ACAD
1000
MTEXTBEGIN
1070
    73
1070
     1
1070
    44
1040
1.0
1070
    74
1070
     0
1000
MTEXTEND
  0
POINT
  5
176AB
330
1720B
100
AcDbEntity
  8
DEFPOINTS
 62
     0
 48
50.0
100
AcDbPoint
 10
10993.38238322583
 20
4676.611134502208
 30
0.0
  0
POINT
  5
176AC
330
1720B
100
AcDbEntity
  8
DEFPOINTS
 62
     0
 48
50.0
100
AcDbPoint
 10
8363.382383225836
 20
4725.802073013531
 30
0.0
  0
POINT
  5
176AD
330
1720B
100
AcDbEntity
  8
DEFPOINTS
 62
     0
 48
50.0
100
AcDbPoint
 10
8363.382383225836
 20
5128.457908469859
 30
0.0
  0
ENDBLK
  5
17216
330
1720B
100
AcDbEntity
  8
0
 48
50.0
100
AcDbBlockEnd
  0
BLOCK
  5
17223
330
17217
100
AcDbEntity
  8
0
 48
50.0
100
AcDbBlockBegin
  2
*D29
 70
     1
 10
0.0
 20
0.0
 30
0.0
  3
*D29
  1

  0
LINE
  5
1769A
330
17217
100
AcDbEntity
  8
寸法
 62
     0
 48
50.0
370
    -2
100
AcDbLine
 10
8363.382383225836
 20
4745.80207301353
 30
0.0
 11
8363.382383225836
 21
5188.457908469858
 31
0.0
  0
LINE
  5
1769B
330
17217
100
AcDbEntity
  8
寸法
 62
     0
 48
50.0
370
    -2
100
AcDbLine
 10
8303.382383225835
 20
4749.800454890558
 30
0.0
 11
8303.382383225835
 21
5188.457908469858
 31
0.0
  0
LINE
  5
1769C
330
17217
100
AcDbEntity
  8
寸法
 62
     0
 48
50.0
370
    -2
100
AcDbLine
 10
8363.382383225836
 20
5128.457908469858
 30
0.0
 11
8463.382383225836
 21
5128.457908469858
 31
0.0
  0
LINE
  5
1769D
330
17217
100
AcDbEntity
  8
寸法
 62
     0
 48
50.0
370
    -2
100
AcDbLine
 10
8303.382383225835
 20
5128.457908469858
 30
0.0
 11
7884.106792674653
 21
5128.457908469858
 31
0.0
  0
LINE
  5
1769E
330
17217
100
AcDbEntity
  8
寸法
 62
     0
 48
50.0
370
    -2
100
AcDbLine
 10
8363.382383225836
 20
5128.457908469858
 30
0.0
 11
8303.382383225835
 21
5128.457908469858
 31
0.0
  0
INSERT
  5
1769F
330
17217
100
AcDbEntity
  8
寸法
 62
     0
 48
50.0
370
    -2
100
AcDbBlockReference
  2
_DOTSMALL
 10
8363.382383225836
 20
5128.457908469858
 30
0.0
 41
100.0
 42
100.0
 43
100.0
 50
180.0
  0
INSERT
  5
176A0
330
17217
100
AcDbEntity
  8
寸法
 62
     0
 48
50.0
370
    -2
100
AcDbBlockReference
  2
_DOTSMALL
 10
8303.382383225835
 20
5128.457908469858
 30
0.0
 41
100.0
 42
100.0
 43
100.0
  0
MTEXT
  5
176A1
330
17217
100
AcDbEntity
  8
寸法
 62
     7
 48
50.0
100
AcDbMText
 10
7993.744587950245
 20
5228.457908469858
 30
0.0
 40
120.0
 41
0.0
 71
     5
 72
     1
  1
\A1;60
  7
STYLE1
 73
     1
 44
1.0
1001
ACAD
1000
MTEXTBEGIN
1070
    73
1070
     1
1070
    44
1040
1.0
1070
    74
1070
     0
1000
MTEXTEND
  0
POINT
  5
176A2
330
17217
100
AcDbEntity
  8
DEFPOINTS
 62
     0
 48
50.0
100
AcDbPoint
 10
8363.382383225836
 20
4725.802073013531
 30
0.0
  0
POINT
  5
176A3
330
17217
100
AcDbEntity
  8
DEFPOINTS
 62
     0
 48
50.0
100
AcDbPoint
 10
8303.382383225835
 20
4729.800454890558
 30
0.0
  0
POINT
  5
176A4
330
17217
100
AcDbEntity
  8
DEFPOINTS
 62
     0
 48
50.0
100
AcDbPoint
 10
8303.382383225835
 20
5128.457908469858
 30
0.0
  0
ENDBLK
  5
17224
330
17217
100
AcDbEntity
  8
0
 48
50.0
100
AcDbBlockEnd
  0
BLOCK
  5
17975
330
1796B
100
AcDbEntity
  8
0
 48
50.0
100
AcDbBlockBegin
  2
*D30
 70
     1
 10
0.0
 20
0.0
 30
0.0
  3
*D30
  1

  0
LINE
  5
17E16
330
1796B
100
AcDbEntity
  8
寸法
 62
     0
 48
50.0
370
    -2
100
AcDbLine
 10
8850.382383225809
 20
7506.290620335595
 30
0.0
 11
8850.382383225809
 21
6821.765999941817
 31
0.0
  0
LINE
  5
17E17
330
1796B
100
AcDbEntity
  8
寸法
 62
     0
 48
50.0
370
    -2
100
AcDbLine
 10
10116.38238322581
 20
7506.290620335595
 30
0.0
 11
10116.38238322581
 21
6821.765999941817
 31
0.0
  0
LINE
  5
17E18
330
1796B
100
AcDbEntity
  8
寸法
 62
     0
 48
50.0
370
    -2
100
AcDbLine
 10
8870.382383225809
 20
6861.765999941818
 30
0.0
 11
10096.38238322581
 21
6861.765999941818
 31
0.0
  0
INSERT
  5
17E19
330
1796B
100
AcDbEntity
  8
寸法
 62
     0
 48
50.0
370
    -2
100
AcDbBlockReference
  2
_DOT
 10
8850.382383225809
 20
6861.765999941818
 30
0.0
 41
20.0
 42
20.0
 43
20.0
 50
180.0
  0
INSERT
  5
17E1A
330
1796B
100
AcDbEntity
  8
寸法
 62
     0
 48
50.0
370
    -2
100
AcDbBlockReference
  2
_DOT
 10
10116.38238322581
 20
6861.765999941818
 30
0.0
 41
20.0
 42
20.0
 43
20.0
  0
MTEXT
  5
17E1B
330
1796B
100
AcDbEntity
  8
寸法
 62
     7
 48
50.0
100
AcDbMText
 10
9512.433672128187
 20
7053.777810965439
 30
0.0
 40
120.0
 41
0.0
 71
     5
 72
     1
  1
\A1;有効開口部間口\P1266
  7
STYLE1
 73
     1
 44
1.0
1001
ACAD
1000
MTEXTBEGIN
1070
    73
1070
     1
1070
    44
1040
1.0
1070
    74
1070
     0
1000
MTEXTEND
  0
POINT
  5
17E1C
330
1796B
100
AcDbEntity
  8
DEFPOINTS
 62
     0
 48
50.0
100
AcDbPoint
 10
8850.382383225809
 20
7526.290620335593
 30
0.0
  0
POINT
  5
17E1D
330
1796B
100
AcDbEntity
  8
DEFPOINTS
 62
     0
 48
50.0
100
AcDbPoint
 10
10116.38238322581
 20
7526.290620335593
 30
0.0
  0
POINT
  5
17E1E
330
1796B
100
AcDbEntity
  8
DEFPOINTS
 62
     0
 48
50.0
100
AcDbPoint
 10
10116.38238322581
 20
6861.765999941818
 30
0.0
  0
ENDBLK
  5
17976
330
1796B
100
AcDbEntity
  8
0
 48
50.0
100
AcDbBlockEnd
  0
BLOCK
  5
17CAC
330
17CA2
100
AcDbEntity
  8
0
 48
50.0
100
AcDbBlockBegin
  2
*D31
 70
     1
 10
0.0
 20
0.0
 30
0.0
  3
*D31
  1

  0
LINE
  5
17E0D
330
17CA2
100
AcDbEntity
  8
寸法
 62
     0
 48
50.0
370
    -2
100
AcDbLine
 10
8811.38238322581
 20
7506.29062033559
 30
0.0
 11
8811.38238322581
 21
6546.160904907823
 31
0.0
  0
LINE
  5
17E0E
330
17CA2
100
AcDbEntity
  8
寸法
 62
     0
 48
50.0
370
    -2
100
AcDbLine
 10
10965.38238322581
 20
7506.29062033559
 30
0.0
 11
10965.38238322581
 21
6546.160904907823
 31
0.0
  0
LINE
  5
17E0F
330
17CA2
100
AcDbEntity
  8
寸法
 62
     0
 48
50.0
370
    -2
100
AcDbLine
 10
8811.38238322581
 20
6606.160904907823
 30
0.0
 11
10965.38238322581
 21
6606.160904907823
 31
0.0
  0
INSERT
  5
17E10
330
17CA2
100
AcDbEntity
  8
寸法
 62
     0
 48
50.0
370
    -2
100
AcDbBlockReference
  2
_DOTSMALL
 10
8811.38238322581
 20
6606.160904907823
 30
0.0
 41
100.0
 42
100.0
 43
100.0
 50
180.0
  0
INSERT
  5
17E11
330
17CA2
100
AcDbEntity
  8
寸法
 62
     0
 48
50.0
370
    -2
100
AcDbBlockReference
  2
_DOTSMALL
 10
10965.38238322581
 20
6606.160904907823
 30
0.0
 41
100.0
 42
100.0
 43
100.0
  0
MTEXT
  5
17E12
330
17CA2
100
AcDbEntity
  8
寸法
 62
     7
 48
50.0
100
AcDbMText
 10
9910.515139973123
 20
6706.172715931446
 30
0.0
 40
120.0
 41
0.0
 71
     5
 72
     1
  1
\A1;2154
  7
STYLE1
 73
     1
 44
1.0
1001
ACAD
1000
MTEXTBEGIN
1070
    73
1070
     1
1070
    44
1040
1.0
1070
    74
1070
     0
1000
MTEXTEND
  0
POINT
  5
17E13
330
17CA2
100
AcDbEntity
  8
DEFPOINTS
 62
     0
 48
50.0
100
AcDbPoint
 10
8811.38238322581
 20
7526.290620335591
 30
0.0
  0
POINT
  5
17E14
330
17CA2
100
AcDbEntity
  8
DEFPOINTS
 62
     0
 48
50.0
100
AcDbPoint
 10
10965.38238322581
 20
7526.290620335591
 30
0.0
  0
POINT
  5
17E15
330
17CA2
100
AcDbEntity
  8
DEFPOINTS
 62
     0
 48
50.0
100
AcDbPoint
 10
10965.38238322581
 20
6606.160904907823
 30
0.0
  0
ENDBLK
  5
17CAD
330
17CA2
100
AcDbEntity
  8
0
 48
50.0
100
AcDbBlockEnd
  0
BLOCK
  5
17CBA
330
17CAE
100
AcDbEntity
  8
0
 48
50.0
100
AcDbBlockBegin
  2
*D32
 70
     1
 10
0.0
 20
0.0
 30
0.0
  3
*D32
  1

  0
LINE
  5
17E02
330
17CAE
100
AcDbEntity
  8
寸法
 62
     0
 48
50.0
370
    -2
100
AcDbLine
 10
8343.382383225835
 20
7603.290620335556
 30
0.0
 11
8028.771137599118
 21
7603.290620335556
 31
0.0
  0
LINE
  5
17E03
330
17CAE
100
AcDbEntity
  8
寸法
 62
     0
 48
50.0
370
    -2
100
AcDbLine
 10
8791.38238322581
 20
7528.290620335557
 30
0.0
 11
8028.771137599118
 21
7528.290620335557
 31
0.0
  0
LINE
  5
17E04
330
17CAE
100
AcDbEntity
  8
寸法
 62
     0
 48
50.0
370
    -2
100
AcDbLine
 10
8068.771137599119
 20
7623.290620335557
 30
0.0
 11
8068.771137599119
 21
7643.290620335557
 31
0.0
  0
LINE
  5
17E05
330
17CAE
100
AcDbEntity
  8
寸法
 62
     0
 48
50.0
370
    -2
100
AcDbLine
 10
8068.771137599119
 20
7508.290620335557
 30
0.0
 11
8068.771137599119
 21
7287.320057587078
 31
0.0
  0
LINE
  5
17E06
330
17CAE
100
AcDbEntity
  8
寸法
 62
     0
 48
50.0
370
    -2
100
AcDbLine
 10
8068.771137599119
 20
7603.290620335556
 30
0.0
 11
8068.771137599119
 21
7528.290620335557
 31
0.0
  0
INSERT
  5
17E07
330
17CAE
100
AcDbEntity
  8
寸法
 62
     0
 48
50.0
370
    -2
100
AcDbBlockReference
  2
_DOT
 10
8068.771137599119
 20
7603.290620335556
 30
0.0
 41
20.0
 42
20.0
 43
20.0
 50
270.0
  0
INSERT
  5
17E08
330
17CAE
100
AcDbEntity
  8
寸法
 62
     0
 48
50.0
370
    -2
100
AcDbBlockReference
  2
_DOT
 10
8068.771137599119
 20
7528.290620335557
 30
0.0
 41
20.0
 42
20.0
 43
20.0
 50
90.0
  0
MTEXT
  5
17E09
330
17CAE
100
AcDbEntity
  8
寸法
 62
     7
 48
50.0
100
AcDbMText
 10
7976.771137599117
 20
7387.805338961318
 30
0.0
 40
120.0
 41
0.0
 71
     5
 72
     1
  1
\A1;75
  7
STYLE1
 11
0.0000000000000001
 21
1.0
 31
0.0
 73
     1
 44
1.0
1001
ACAD
1000
MTEXTBEGIN
1070
    73
1070
     1
1070
    44
1040
1.0
1070
    74
1070
     0
1000
MTEXTEND
  0
POINT
  5
17E0A
330
17CAE
100
AcDbEntity
  8
DEFPOINTS
 62
     0
 48
50.0
100
AcDbPoint
 10
8363.382383225836
 20
7603.290620335556
 30
0.0
  0
POINT
  5
17E0B
330
17CAE
100
AcDbEntity
  8
DEFPOINTS
 62
     0
 48
50.0
100
AcDbPoint
 10
8811.38238322581
 20
7528.290620335557
 30
0.0
  0
POINT
  5
17E0C
330
17CAE
100
AcDbEntity
  8
DEFPOINTS
 62
     0
 48
50.0
100
AcDbPoint
 10
8068.771137599119
 20
7528.290620335557
 30
0.0
  0
ENDBLK
  5
17CBB
330
17CAE
100
AcDbEntity
  8
0
 48
50.0
100
AcDbBlockEnd
  0
BLOCK
  5
17D06
330
17CFC
100
AcDbEntity
  8
0
 48
50.0
100
AcDbBlockBegin
  2
*D33
 70
     1
 10
0.0
 20
0.0
 30
0.0
  3
*D33
  1

  0
LINE
  5
17DF9
330
17CFC
100
AcDbEntity
  8
寸法
 62
     0
 48
50.0
370
    -2
100
AcDbLine
 10
8363.382383225836
 20
7583.290620335557
 30
0.0
 11
8363.382383225836
 21
6286.903103272811
 31
0.0
  0
LINE
  5
17DFA
330
17CFC
100
AcDbEntity
  8
寸法
 62
     0
 48
50.0
370
    -2
100
AcDbLine
 10
10993.38238322582
 20
7583.290620335721
 30
0.0
 11
10993.38238322582
 21
6286.903103272811
 31
0.0
  0
LINE
  5
17DFB
330
17CFC
100
AcDbEntity
  8
寸法
 62
     0
 48
50.0
370
    -2
100
AcDbLine
 10
8363.382383225836
 20
6346.903103272811
 30
0.0
 11
10993.38238322582
 21
6346.903103272811
 31
0.0
  0
INSERT
  5
17DFC
330
17CFC
100
AcDbEntity
  8
寸法
 62
     0
 48
50.0
370
    -2
100
AcDbBlockReference
  2
_DOTSMALL
 10
8363.382383225836
 20
6346.903103272811
 30
0.0
 41
100.0
 42
100.0
 43
100.0
 50
180.0
  0
INSERT
  5
17DFD
330
17CFC
100
AcDbEntity
  8
寸法
 62
     0
 48
50.0
370
    -2
100
AcDbBlockReference
  2
_DOTSMALL
 10
10993.38238322582
 20
6346.903103272811
 30
0.0
 41
100.0
 42
100.0
 43
100.0
  0
MTEXT
  5
17DFE
330
17CFC
100
AcDbEntity
  8
寸法
 62
     7
 48
50.0
100
AcDbMText
 10
9696.184171861984
 20
6446.914914296432
 30
0.0
 40
120.0
 41
0.0
 71
     5
 72
     1
  1
\A1;2630
  7
STYLE1
 73
     1
 44
1.0
1001
ACAD
1000
MTEXTBEGIN
1070
    73
1070
     1
1070
    44
1040
1.0
1070
    74
1070
     0
1000
MTEXTEND
  0
POINT
  5
17DFF
330
17CFC
100
AcDbEntity
  8
DEFPOINTS
 62
     0
 48
50.0
100
AcDbPoint
 10
8363.382383225836
 20
7603.290620335556
 30
0.0
  0
POINT
  5
17E00
330
17CFC
100
AcDbEntity
  8
DEFPOINTS
 62
     0
 48
50.0
100
AcDbPoint
 10
10993.38238322582
 20
7603.290620335721
 30
0.0
  0
POINT
  5
17E01
330
17CFC
100
AcDbEntity
  8
DEFPOINTS
 62
     0
 48
50.0
100
AcDbPoint
 10
10993.38238322582
 20
6346.903103272811
 30
0.0
  0
ENDBLK
  5
17D07
330
17CFC
100
AcDbEntity
  8
0
 48
50.0
100
AcDbBlockEnd
  0
ENDSEC
  0
SECTION
  2
ENTITIES
  0
LINE
  5
10B57
330
747D
100
AcDbEntity
  8
補助
  6
PHANTOM
 62
   230
 48
50.0
100
AcDbLine
 10
139.9999999999995
 20
11409.6
 30
0.0
 11
16307.2
 21
11409.6
 31
0.0
  0
LINE
  5
10B59
330
747D
100
AcDbEntity
  8
仕様書枠
  6
Continuous
 48
50.0
100
AcDbLine
 10
13107.2
 20
1200.0
 30
0.0
 11
13107.2
 21
-0.0000000000000729
 31
0.0
  0
LINE
  5
10B5C
330
747D
100
AcDbEntity
  8
仕様書枠
 48
50.0
100
AcDbLine
 10
16307.2
 20
1200.0
 30
0.0
 11
16307.2
 21
-0.0000000000000909
 31
0.0
  0
LINE
  5
10B5D
330
747D
100
AcDbEntity
  8
仕様書枠
 48
50.0
100
AcDbLine
 10
140.0
 20
0.0
 30
0.0
 11
16307.2
 21
-0.0000000000000909
 31
0.0
  0
LINE
  5
10B5E
330
747D
100
AcDbEntity
  8
補助
  6
PHANTOM
 62
   230
 48
50.0
100
AcDbLine
 10
16307.2
 20
11409.6
 30
0.0
 11
16307.2
 21
1200.0
 31
0.0
  0
LINE
  5
10B6C
330
747D
100
AcDbEntity
  8
仕様書枠
 48
50.0
100
AcDbLine
 10
13107.2
 20
1200.0
 30
0.0
 11
16307.2
 21
1200.0
 31
0.0
  0
LINE
  5
10B6D
330
747D
100
AcDbEntity
  8
補助
  6
PHANTOM
 62
   230
 48
50.0
100
AcDbLine
 10
13107.2
 20
11409.6
 30
0.0
 11
13107.2
 21
4800.0
 31
0.0
  0
LINE
  5
10B6F
330
747D
100
AcDbEntity
  8
補助
  6
PHANTOM
 62
   230
 48
50.0
100
AcDbLine
 10
13107.2
 20
4800.0
 30
0.0
 11
16307.2
 21
4800.0
 31
0.0
  0
LINE
  5
10B72
330
747D
100
AcDbEntity
  8
文字
 62
     7
 48
50.0
100
AcDbLine
 10
13187.2
 20
400.0
 30
0.0
 11
16227.2
 21
400.0
 31
0.0
  0
TEXT
  5
10B73
330
747D
100
AcDbEntity
  8
文字
 62
     7
 48
50.0
100
AcDbText
 10
13162.9790565769
 20
895.0906074299405
 30
0.0
 40
200.0
  1
外 形 図
  7
STYLE2
100
AcDbText
  0
TEXT
  5
10B74
330
747D
100
AcDbEntity
  8
文字
 62
     7
 48
50.0
100
AcDbText
 10
13201.43669998441
 20
477.2740661031255
 30
0.0
 40
160.0
  1
機種名
  7
STYLE2
100
AcDbText
  0
TEXT
  5
10B76
330
747D
100
AcDbEntity
  8
文字
 62
     7
 48
50.0
100
AcDbText
 10
13209.4053442172
 20
76.09434707649343
 30
0.0
 40
100.0
  1
○床面積 ： 4.87㎡(1.48坪) 　
  7
STYLE2
100
AcDbText
  0
TEXT
  5
10B79
330
747D
100
AcDbEntity
  8
文字
 62
     7
 48
50.0
100
AcDbText
 10
14524.131837222
 20
1031.557706291228
 30
0.0
 40
100.0
  1
NO.21     <縮尺> S=1/40
  7
STYLE2
100
AcDbText
  0
LINE
  5
10B7B
330
747D
100
AcDbEntity
  8
仕様書枠
 48
50.0
100
AcDbLine
 10
13107.2
 20
800.0
 30
0.0
 11
14251.2
 21
800.0
 31
0.0
  0
LINE
  5
10B88
330
747D
100
AcDbEntity
  8
仕様書枠
  6
Continuous
 48
50.0
100
AcDbLine
 10
14251.2
 20
1200.0
 30
0.0
 11
14251.2
 21
800.0
 31
0.0
  0
TEXT
  5
15729
330
747D
100
AcDbEntity
  8
文字
 62
     7
 48
50.0
100
AcDbText
 10
14632.86525697857
 20
869.7247441969318
 30
0.0
 40
100.0
  1
～一般型・多雪地型～
  7
STYLE2
100
AcDbText
  0
ARC
  5
16DF3
330
747D
100
AcDbEntity
  8
部品1
100
AcDbCircle
 10
6279.513616021858
 20
4722.800454890557
 30
0.0
 40
7.0
100
AcDbArc
 50
356.7526572096623
 51
90.0
  0
ARC
  5
16DF4
330
747D
100
AcDbEntity
  8
部品1
100
AcDbCircle
 10
6266.298292560823
 20
4595.800454890561
 30
0.0
 40
7.0
100
AcDbArc
 50
270.0
 51
356.7526572096623
  0
ARC
  5
16DF5
330
747D
100
AcDbEntity
  8
部品1
 48
50.0
100
AcDbCircle
 10
6284.670102771503
 20
4702.467454052245
 30
0.0
 40
0.7
100
AcDbArc
 50
277.6581272073635
 51
356.7526572096103
  0
ARC
  5
16DF6
330
747D
100
AcDbEntity
  8
部品1
 48
50.0
100
AcDbCircle
 10
6276.434072246658
 20
4610.26745405224
 30
0.0
 40
0.7
100
AcDbArc
 50
277.6581272073635
 51
356.7526572096623
  0
ARC
  5
16DF7
330
747D
100
AcDbEntity
  8
部品1
 48
50.0
100
AcDbCircle
 10
6276.927141355219
 20
4606.600454890556
 30
0.0
 40
3.0
100
AcDbArc
 50
97.65812720736347
 51
176.7526572096623
  0
ARC
  5
16DF8
330
747D
100
AcDbEntity
  8
部品1
 48
50.0
100
AcDbCircle
 10
6285.163171880064
 20
4698.800454890561
 30
0.0
 40
3.0
100
AcDbArc
 50
97.65812720736347
 51
176.7526572096623
  0
LINE
  5
16DF9
330
747D
100
AcDbEntity
  8
部品1
100
AcDbLine
 10
6282.167988983879
 20
4698.970394345661
 30
0.0
 11
6277.132948255767
 21
4610.227801512717
 31
0.0
  0
LINE
  5
16DFA
330
747D
100
AcDbEntity
  8
部品1
100
AcDbLine
 10
6273.931958459034
 20
4606.77039434566
 30
0.0
 11
6273.287052651922
 21
4595.403929495319
 31
0.0
  0
LINE
  5
16DFB
330
747D
100
AcDbEntity
  8
細線
 48
50.0
100
AcDbLine
 10
6253.92203712829
 20
4729.800454890557
 30
0.0
 11
6253.92203712829
 21
4588.800454890558
 31
0.0
  0
LINE
  5
16DFC
330
747D
100
AcDbEntity
  8
部品1
100
AcDbLine
 10
6286.502376112956
 20
4722.40392949532
 30
0.0
 11
6285.368978780611
 21
4702.427801512718
 31
0.0
  0
DIMENSION
  5
16DFD
330
747D
100
AcDbEntity
  8
寸法
 48
50.0
100
AcDbDimension
  2
*D2
 10
6236.92203712829
 20
5134.420714317826
 30
0.0
 11
6600.407318502526
 21
5134.420714317826
 31
0.0
 70
   160
 71
     5
 42
50.0
  3
INABA_S40G
100
AcDbAlignedDimension
 13
6286.92203712829
 23
4729.800454890557
 33
0.0
 14
6236.92203712829
 24
4729.800454890559
 34
0.0
100
AcDbRotatedDimension
  0
LINE
  5
16DFE
330
747D
100
AcDbEntity
  8
部品1
 48
0.01
100
AcDbLine
 10
5836.922037128293
 20
4558.800454890554
 30
0.0
 11
5836.922037128293
 21
4527.300454890553
 31
0.0
  0
LINE
  5
16DFF
330
747D
100
AcDbEntity
  8
部品1
 48
0.01
100
AcDbLine
 10
5834.922037128293
 20
4525.300454890554
 30
0.0
 11
5658.922037128293
 21
4525.300454890554
 31
0.0
  0
LINE
  5
16E00
330
747D
100
AcDbEntity
  8
部品1
 48
0.01
100
AcDbLine
 10
5656.922037128294
 20
4527.300454890553
 30
0.0
 11
5656.922037128294
 21
4558.800454890554
 31
0.0
  0
ARC
  5
16E01
330
747D
100
AcDbEntity
  8
部品1
 48
0.01
100
AcDbCircle
 10
5834.922037128293
 20
4527.300454890553
 30
0.0
 40
2.0
100
AcDbArc
 50
270.0
 51
0.0
  0
ARC
  5
16E02
330
747D
100
AcDbEntity
  8
部品1
 48
0.01
100
AcDbCircle
 10
5658.922037128293
 20
4527.300454890553
 30
0.0
 40
2.0
100
AcDbArc
 50
180.0
 51
270.0
  0
LINE
  5
16E03
330
747D
100
AcDbEntity
  8
細線
100
AcDbLine
 10
5746.922037128293
 20
4554.300454890554
 30
0.0
 11
5746.922037128293
 21
4531.300454890554
 31
0.0
  0
LINE
  5
16E04
330
747D
100
AcDbEntity
  8
細線
100
AcDbLine
 10
5672.922037128294
 20
4542.300454890553
 30
0.0
 11
5746.922037128293
 21
4542.300454890553
 31
0.0
  0
LINE
  5
16E05
330
747D
100
AcDbEntity
  8
細線
100
AcDbLine
 10
5672.922037128294
 20
4536.300454890553
 30
0.0
 11
5746.922037128293
 21
4536.300454890553
 31
0.0
  0
LINE
  5
16E06
330
747D
100
AcDbEntity
  8
細線
100
AcDbLine
 10
5672.922037128294
 20
4548.300454890553
 30
0.0
 11
5746.922037128293
 21
4548.300454890553
 31
0.0
  0
LINE
  5
16E07
330
747D
100
AcDbEntity
  8
細線
100
AcDbLine
 10
5820.922037128294
 20
4548.300454890553
 30
0.0
 11
5751.922037128293
 21
4548.300454890553
 31
0.0
  0
LINE
  5
16E08
330
747D
100
AcDbEntity
  8
細線
100
AcDbLine
 10
5820.922037128294
 20
4536.300454890553
 30
0.0
 11
5746.922037128293
 21
4536.300454890553
 31
0.0
  0
LINE
  5
16E09
330
747D
100
AcDbEntity
  8
細線
100
AcDbLine
 10
5820.922037128294
 20
4542.300454890553
 30
0.0
 11
5746.922037128293
 21
4542.300454890553
 31
0.0
  0
LINE
  5
16E0A
330
747D
100
AcDbEntity
  8
細線
100
AcDbLine
 10
5820.922037128294
 20
4548.300454890553
 30
0.0
 11
5746.922037128293
 21
4548.300454890553
 31
0.0
  0
LINE
  5
16E0B
330
747D
100
AcDbEntity
  8
部品1
 48
0.01
100
AcDbLine
 10
5658.922037128293
 20
4560.800454890554
 30
0.0
 11
5834.922037128293
 21
4560.800454890554
 31
0.0
  0
LINE
  5
16E0C
330
747D
100
AcDbEntity
  8
細線
100
AcDbLine
 10
5820.922037128294
 20
4554.300454890554
 30
0.0
 11
5820.922037128294
 21
4531.300454890554
 31
0.0
  0
LINE
  5
16E0D
330
747D
100
AcDbEntity
  8
細線
100
AcDbLine
 10
5672.922037128294
 20
4531.300454890554
 30
0.0
 11
5672.922037128294
 21
4554.300454890554
 31
0.0
  0
LINE
  5
16E0E
330
747D
100
AcDbEntity
  8
細線
100
AcDbLine
 10
5672.922037128294
 20
4554.300454890554
 30
0.0
 11
5746.922037128293
 21
4554.300454890554
 31
0.0
  0
LINE
  5
16E0F
330
747D
100
AcDbEntity
  8
細線
100
AcDbLine
 10
5820.922037128294
 20
4531.300454890554
 30
0.0
 11
5746.922037128293
 21
4531.300454890554
 31
0.0
  0
LINE
  5
16E10
330
747D
100
AcDbEntity
  8
細線
100
AcDbLine
 10
5746.922037128293
 20
4554.300454890554
 30
0.0
 11
5820.922037128294
 21
4554.300454890554
 31
0.0
  0
LINE
  5
16E11
330
747D
100
AcDbEntity
  8
細線
100
AcDbLine
 10
5746.922037128293
 20
4531.300454890554
 30
0.0
 11
5672.922037128294
 21
4531.300454890554
 31
0.0
  0
ARC
  5
16E12
330
747D
100
AcDbEntity
  8
部品1
 48
0.01
100
AcDbCircle
 10
5834.922037128293
 20
4558.800454890554
 30
0.0
 40
2.0
100
AcDbArc
 50
0.0
 51
90.0
  0
ARC
  5
16E13
330
747D
100
AcDbEntity
  8
部品1
 48
0.01
100
AcDbCircle
 10
5658.922037128293
 20
4558.800454890554
 30
0.0
 40
2.0
100
AcDbArc
 50
90.0
 51
180.0
  0
ARC
  5
16E14
330
747D
100
AcDbEntity
  8
部品1
 48
0.01
100
AcDbCircle
 10
5024.92203712829
 20
4527.300454890553
 30
0.0
 40
2.0
100
AcDbArc
 50
270.0
 51
0.0
  0
ARC
  5
16E15
330
747D
100
AcDbEntity
  8
部品1
 48
0.01
100
AcDbCircle
 10
5024.922037128294
 20
4558.800454890554
 30
0.0
 40
2.0
100
AcDbArc
 50
0.0
 51
90.0
  0
ARC
  5
16E16
330
747D
100
AcDbEntity
  8
部品1
 48
0.01
100
AcDbCircle
 10
4848.922037128294
 20
4527.300454890553
 30
0.0
 40
2.0
100
AcDbArc
 50
180.0
 51
270.0
  0
ARC
  5
16E17
330
747D
100
AcDbEntity
  8
部品1
 48
0.01
100
AcDbCircle
 10
4848.922037128294
 20
4558.800454890554
 30
0.0
 40
2.0
100
AcDbArc
 50
90.0
 51
180.0
  0
LINE
  5
16E18
330
747D
100
AcDbEntity
  8
細線
100
AcDbLine
 10
4936.92203712829
 20
4531.300454890554
 30
0.0
 11
5010.922037128294
 21
4531.300454890554
 31
0.0
  0
LINE
  5
16E19
330
747D
100
AcDbEntity
  8
細線
100
AcDbLine
 10
4936.922037128294
 20
4554.300454890554
 30
0.0
 11
4862.922037128294
 21
4554.300454890554
 31
0.0
  0
LINE
  5
16E1A
330
747D
100
AcDbEntity
  8
細線
100
AcDbLine
 10
4862.922037128294
 20
4531.300454890554
 30
0.0
 11
4936.922037128294
 21
4531.300454890554
 31
0.0
  0
LINE
  5
16E1B
330
747D
100
AcDbEntity
  8
細線
100
AcDbLine
 10
5010.922037128294
 20
4554.300454890554
 30
0.0
 11
4936.922037128294
 21
4554.300454890554
 31
0.0
  0
LINE
  5
16E1C
330
747D
100
AcDbEntity
  8
細線
100
AcDbLine
 10
5010.922037128294
 20
4531.300454890554
 30
0.0
 11
5010.922037128294
 21
4554.300454890554
 31
0.0
  0
LINE
  5
16E1D
330
747D
100
AcDbEntity
  8
細線
100
AcDbLine
 10
4862.922037128294
 20
4554.300454890554
 30
0.0
 11
4862.922037128294
 21
4531.300454890554
 31
0.0
  0
LINE
  5
16E1E
330
747D
100
AcDbEntity
  8
部品1
 48
0.01
100
AcDbLine
 10
5026.92203712829
 20
4527.300454890553
 30
0.0
 11
5026.922037128294
 21
4558.800454890554
 31
0.0
  0
LINE
  5
16E1F
330
747D
100
AcDbEntity
  8
部品1
 48
0.01
100
AcDbLine
 10
4848.922037128294
 20
4525.300454890554
 30
0.0
 11
5024.92203712829
 21
4525.300454890554
 31
0.0
  0
LINE
  5
16E20
330
747D
100
AcDbEntity
  8
部品1
 48
0.01
100
AcDbLine
 10
4846.922037128294
 20
4558.800454890554
 30
0.0
 11
4846.922037128294
 21
4527.300454890553
 31
0.0
  0
LINE
  5
16E21
330
747D
100
AcDbEntity
  8
部品1
 48
0.01
100
AcDbLine
 10
5024.922037128294
 20
4560.800454890554
 30
0.0
 11
4848.922037128294
 21
4560.800454890554
 31
0.0
  0
LINE
  5
16E22
330
747D
100
AcDbEntity
  8
細線
100
AcDbLine
 10
4862.922037128294
 20
4548.300454890553
 30
0.0
 11
4936.922037128294
 21
4548.300454890553
 31
0.0
  0
LINE
  5
16E23
330
747D
100
AcDbEntity
  8
細線
100
AcDbLine
 10
4862.922037128294
 20
4542.300454890553
 30
0.0
 11
4936.922037128294
 21
4542.300454890553
 31
0.0
  0
LINE
  5
16E24
330
747D
100
AcDbEntity
  8
細線
100
AcDbLine
 10
4862.922037128289
 20
4536.300454890553
 30
0.0
 11
4936.922037128294
 21
4536.300454890553
 31
0.0
  0
LINE
  5
16E25
330
747D
100
AcDbEntity
  8
細線
100
AcDbLine
 10
4862.922037128294
 20
4548.300454890553
 30
0.0
 11
4931.922037128294
 21
4548.300454890553
 31
0.0
  0
LINE
  5
16E26
330
747D
100
AcDbEntity
  8
細線
100
AcDbLine
 10
5010.92203712829
 20
4548.300454890553
 30
0.0
 11
4936.922037128294
 21
4548.300454890553
 31
0.0
  0
LINE
  5
16E27
330
747D
100
AcDbEntity
  8
細線
100
AcDbLine
 10
5010.92203712829
 20
4536.300454890553
 30
0.0
 11
4936.922037128294
 21
4536.300454890553
 31
0.0
  0
LINE
  5
16E28
330
747D
100
AcDbEntity
  8
細線
100
AcDbLine
 10
5010.92203712829
 20
4542.300454890553
 30
0.0
 11
4936.922037128294
 21
4542.300454890553
 31
0.0
  0
LINE
  5
16E29
330
747D
100
AcDbEntity
  8
細線
100
AcDbLine
 10
4936.922037128294
 20
4554.300454890554
 30
0.0
 11
4936.92203712829
 21
4531.300454890554
 31
0.0
  0
LINE
  5
16E2A
330
747D
100
AcDbEntity
  8
細線
 48
50.0
100
AcDbLine
 10
6276.646468382009
 20
4609.600454890556
 30
0.0
 11
4407.197605874563
 21
4609.60045489056
 31
0.0
  0
LINE
  5
16E2B
330
747D
100
AcDbEntity
  8
細線
 48
50.0
100
AcDbLine
 10
6284.882498906855
 20
4701.800454890559
 30
0.0
 11
4398.961575349734
 21
4701.800454890557
 31
0.0
  0
LINE
  5
16E2C
330
747D
100
AcDbEntity
  8
部品1
 48
50.0
100
AcDbLine
 10
6266.298292560823
 20
4588.800454890561
 30
0.0
 11
4417.545781695763
 21
4588.800454890558
 31
0.0
  0
LINE
  5
16E2D
330
747D
100
AcDbEntity
  8
部品1
 48
50.0
100
AcDbLine
 10
6279.513616021858
 20
4729.800454890557
 30
0.0
 11
4404.330458234727
 21
4729.80045489056
 31
0.0
  0
LINE
  5
16E2E
330
747D
100
AcDbEntity
  8
部品1
100
AcDbLine
 10
4397.341698143631
 20
4722.40392949532
 30
0.0
 11
4398.47509547598
 21
4702.427801512718
 31
0.0
  0
LINE
  5
16E2F
330
747D
100
AcDbEntity
  8
部品1
100
AcDbLine
 10
4409.912115797553
 20
4606.77039434566
 30
0.0
 11
4410.557021604661
 21
4595.403929495319
 31
0.0
  0
LINE
  5
16E30
330
747D
100
AcDbEntity
  8
部品1
100
AcDbLine
 10
4401.676085272709
 20
4698.970394345661
 30
0.0
 11
4406.711126000817
 21
4610.227801512717
 31
0.0
  0
ARC
  5
16E31
330
747D
100
AcDbEntity
  8
部品1
 48
50.0
100
AcDbCircle
 10
4398.680902376524
 20
4698.800454890561
 30
0.0
 40
3.0
100
AcDbArc
 50
3.247342790337682
 51
82.34187279263654
  0
ARC
  5
16E32
330
747D
100
AcDbEntity
  8
部品1
 48
50.0
100
AcDbCircle
 10
4406.916932901367
 20
4606.600454890556
 30
0.0
 40
3.0
100
AcDbArc
 50
3.247342790337682
 51
82.34187279263654
  0
ARC
  5
16E33
330
747D
100
AcDbEntity
  8
部品1
 48
50.0
100
AcDbCircle
 10
4407.410002009928
 20
4610.26745405224
 30
0.0
 40
0.7
100
AcDbArc
 50
183.2473427903377
 51
262.3418727926365
  0
ARC
  5
16E34
330
747D
100
AcDbEntity
  8
部品1
 48
50.0
100
AcDbCircle
 10
4399.173971485084
 20
4702.467454052245
 30
0.0
 40
0.7
100
AcDbArc
 50
183.2473427903897
 51
262.3418727926365
  0
ARC
  5
16E35
330
747D
100
AcDbEntity
  8
部品1
100
AcDbCircle
 10
4417.545781695763
 20
4595.800454890561
 30
0.0
 40
7.0
100
AcDbArc
 50
183.2473427903377
 51
270.0
  0
ARC
  5
16E36
330
747D
100
AcDbEntity
  8
部品1
100
AcDbCircle
 10
4404.330458234727
 20
4722.800454890557
 30
0.0
 40
7.0
100
AcDbArc
 50
90.0
 51
183.2473427903377
  0
LINE
  5
16E37
330
747D
100
AcDbEntity
  8
細線
 48
50.0
100
AcDbLine
 10
4429.9220371283
 20
4729.800454890557
 30
0.0
 11
4429.9220371283
 21
4588.800454890558
 31
0.0
  0
DIMENSION
  5
16E38
330
747D
100
AcDbEntity
  8
寸法
 48
50.0
100
AcDbDimension
  2
*D3
 10
4396.922037128301
 20
5134.420714317826
 30
0.0
 11
4083.436755754053
 21
5134.420714317826
 31
0.0
 70
   160
 71
     5
 42
50.0
  3
INABA_S40G
100
AcDbAlignedDimension
 13
4446.922037128301
 23
4729.80045489056
 33
0.0
 14
4396.922037128301
 24
4729.800454890559
 34
0.0
100
AcDbRotatedDimension
1001
ACAD
1000
DSTYLE
1002
{
1002
}
  0
DIMENSION
  5
16E39
330
747D
100
AcDbEntity
  8
寸法
 48
50.0
100
AcDbDimension
  2
*D4
 10
6286.92203712829
 20
5344.014588739277
 30
0.0
 11
5341.922037128294
 21
5344.014588739277
 31
0.0
 70
   160
 71
     5
 42
1889.999999999989
  3
INABA_S40G
100
AcDbAlignedDimension
 13
4396.922037128301
 23
4729.800454890559
 33
0.0
 14
6286.92203712829
 24
4729.800454890557
 34
0.0
100
AcDbRotatedDimension
  0
DIMENSION
  5
16E3A
330
747D
100
AcDbEntity
  8
寸法
 48
50.0
100
AcDbDimension
  2
*D5
 10
4446.922037128301
 20
5134.420714317826
 30
0.0
 11
5341.922037128294
 21
5134.420714317826
 31
0.0
 70
   160
  1
柱外寸法<>
 71
     5
 42
1789.999999999989
  3
INABA_S40G
100
AcDbAlignedDimension
 13
6236.92203712829
 23
4729.800454890559
 33
0.0
 14
4446.922037128301
 24
4729.80045489056
 34
0.0
100
AcDbRotatedDimension
  0
LINE
  5
16E3B
330
747D
100
AcDbEntity
  8
部品1
100
AcDbLine
 10
4646.922037128294
 20
2354.800454890554
 30
0.0
 11
4646.922037128294
 21
2254.800454890554
 31
0.0
  0
LINE
  5
16E3C
330
747D
100
AcDbEntity
  8
部品1
 48
50.0
100
AcDbLine
 10
5241.922037128293
 20
2354.800454890554
 30
0.0
 11
5241.922037128293
 21
2254.800454890554
 31
0.0
  0
LINE
  5
16E3D
330
747D
100
AcDbEntity
  8
部品1
 48
50.0
100
AcDbLine
 10
5441.922037128294
 20
2354.800454890554
 30
0.0
 11
5441.922037128294
 21
2254.800454890554
 31
0.0
  0
LINE
  5
16E3E
330
747D
100
AcDbEntity
  8
部品1
100
AcDbLine
 10
6036.922037128293
 20
2354.800454890554
 30
0.0
 11
6036.922037128293
 21
2254.800454890554
 31
0.0
  0
LINE
  5
16E3F
330
747D
100
AcDbEntity
  8
部品1
 48
50.0
100
AcDbLine
 10
6313.922037128297
 20
2354.800454890554
 30
0.0
 11
6229.422037128298
 21
2354.800454890554
 31
0.0
  0
LINE
  5
16E40
330
747D
100
AcDbEntity
  8
部品1
 48
50.0
100
AcDbLine
 10
6313.922037128297
 20
4479.800454890556
 30
0.0
 11
6313.922037128297
 21
2254.800454890554
 31
0.0
  0
LINE
  5
16E41
330
747D
100
AcDbEntity
  8
部品1
 48
50.0
100
AcDbLine
 10
6236.922037128297
 20
4489.800454890555
 30
0.0
 11
6313.922037128297
 21
4479.800454890556
 31
0.0
  0
LINE
  5
16E42
330
747D
100
AcDbEntity
  8
破線
 48
5.0
100
AcDbLine
 10
6109.4220371283
 20
2254.800454890554
 30
0.0
 11
6109.4220371283
 21
2054.800454890554
 31
0.0
  0
LINE
  5
16E43
330
747D
100
AcDbEntity
  8
破線
 48
5.0
100
AcDbLine
 10
6309.422037128297
 20
2054.800454890554
 30
0.0
 11
6109.4220371283
 21
2054.800454890554
 31
0.0
  0
LINE
  5
16E44
330
747D
100
AcDbEntity
  8
破線
 48
5.0
100
AcDbLine
 10
6309.4220371283
 20
2254.800454890554
 30
0.0
 11
6309.422037128297
 21
2054.800454890554
 31
0.0
  0
DIMENSION
  5
16E45
330
747D
100
AcDbEntity
  8
寸法
 48
50.0
100
AcDbDimension
  2
*D6
 10
4374.422037128296
 20
1768.753125590176
 30
0.0
 11
4474.422037128295
 21
1768.753125590176
 31
0.0
 70
   160
 71
     5
 42
199.9999999999963
  3
INABA_S40G
100
AcDbAlignedDimension
 13
4574.422037128293
 23
2054.800454890552
 33
0.0
 14
4374.422037128296
 24
2054.800454890554
 34
0.0
100
AcDbRotatedDimension
  0
LINE
  5
16E46
330
747D
100
AcDbEntity
  8
破線
 48
5.0
100
AcDbLine
 10
4374.422037128293
 20
2254.800454890554
 30
0.0
 11
4374.422037128296
 21
2054.800454890554
 31
0.0
  0
LINE
  5
16E47
330
747D
100
AcDbEntity
  8
破線
 48
5.0
100
AcDbLine
 10
4574.422037128293
 20
2254.800454890554
 30
0.0
 11
4574.422037128293
 21
2054.800454890554
 31
0.0
  0
LINE
  5
16E48
330
747D
100
AcDbEntity
  8
破線
 48
5.0
100
AcDbLine
 10
4574.422037128293
 20
2054.800454890554
 30
0.0
 11
4374.422037128296
 21
2054.800454890554
 31
0.0
  0
DIMENSION
  5
16E49
330
747D
100
AcDbEntity
  8
寸法
 48
50.0
100
AcDbDimension
  2
*D7
 10
4224.92203388166
 20
2254.800454890554
 30
0.0
 11
4224.922033881659
 21
2154.800454890554
 31
0.0
 70
   160
 71
     5
 42
200.0
  3
INABA_S40G
100
AcDbAlignedDimension
 13
4374.422037128296
 23
2054.800454890554
 33
0.0
 14
4349.422037128293
 24
2254.800454890554
 34
0.0
 50
90.0
100
AcDbRotatedDimension
1001
ACAD
1000
DSTYLE
1002
{
1070
   174
1070
     0
1070
   272
1070
     1
1070
   288
1070
     0
1070
   341
1005
0
1002
}
  0
LINE
  5
16E4A
330
747D
100
AcDbEntity
  8
細線
 48
50.0
100
AcDbLine
 10
6104.422037128301
 20
4494.800454890554
 30
0.0
 11
6104.422037128301
 21
2404.800454890554
 31
0.0
  0
LINE
  5
16E4B
330
747D
100
AcDbEntity
  8
細線
 48
50.0
100
AcDbLine
 10
6119.422037128301
 20
4494.800454890554
 30
0.0
 11
6119.422037128301
 21
2404.800454890554
 31
0.0
  0
LINE
  5
16E4C
330
747D
100
AcDbEntity
  8
細線
 48
50.0
100
AcDbLine
 10
5979.422037128301
 20
4494.800454890554
 30
0.0
 11
5979.422037128301
 21
2404.800454890554
 31
0.0
  0
LINE
  5
16E4D
330
747D
100
AcDbEntity
  8
細線
 48
50.0
100
AcDbLine
 10
5964.422037128301
 20
4494.800454890554
 30
0.0
 11
5964.422037128301
 21
2404.800454890554
 31
0.0
  0
LINE
  5
16E4E
330
747D
100
AcDbEntity
  8
細線
 48
50.0
100
AcDbLine
 10
5824.4220371283
 20
4494.800454890554
 30
0.0
 11
5824.4220371283
 21
2404.800454890554
 31
0.0
  0
LINE
  5
16E4F
330
747D
100
AcDbEntity
  8
細線
 48
50.0
100
AcDbLine
 10
5839.422037128301
 20
4494.800454890554
 30
0.0
 11
5839.422037128301
 21
2404.800454890554
 31
0.0
  0
LINE
  5
16E50
330
747D
100
AcDbEntity
  8
部品1
100
AcDbLine
 10
5761.922037128293
 20
4494.800454890554
 30
0.0
 11
5761.922037128293
 21
2404.800454890554
 31
0.0
  0
LINE
  5
16E51
330
747D
100
AcDbEntity
  8
細線
 48
50.0
100
AcDbLine
 10
5419.422037128297
 20
4494.800454890554
 30
0.0
 11
5419.422037128297
 21
2404.800454890554
 31
0.0
  0
LINE
  5
16E52
330
747D
100
AcDbEntity
  8
細線
 48
50.0
100
AcDbLine
 10
5404.422037128298
 20
4494.800454890554
 30
0.0
 11
5404.422037128298
 21
2404.800454890554
 31
0.0
  0
LINE
  5
16E53
330
747D
100
AcDbEntity
  8
細線
 48
50.0
100
AcDbLine
 10
5544.422037128297
 20
4494.800454890554
 30
0.0
 11
5544.422037128297
 21
2404.800454890554
 31
0.0
  0
LINE
  5
16E54
330
747D
100
AcDbEntity
  8
細線
 48
50.0
100
AcDbLine
 10
5559.422037128297
 20
4494.800454890554
 30
0.0
 11
5559.422037128297
 21
2404.800454890554
 31
0.0
  0
LINE
  5
16E55
330
747D
100
AcDbEntity
  8
細線
 48
50.0
100
AcDbLine
 10
5699.422037128297
 20
4494.800454890554
 30
0.0
 11
5699.422037128297
 21
2404.800454890554
 31
0.0
  0
LINE
  5
16E56
330
747D
100
AcDbEntity
  8
細線
 48
50.0
100
AcDbLine
 10
5684.422037128297
 20
4494.800454890554
 30
0.0
 11
5684.422037128297
 21
2404.800454890554
 31
0.0
  0
LINE
  5
16E57
330
747D
100
AcDbEntity
  8
部品1
100
AcDbLine
 10
5341.922037128294
 20
4494.800454890554
 30
0.0
 11
5341.922037128294
 21
2404.800454890554
 31
0.0
  0
LINE
  5
16E58
330
747D
100
AcDbEntity
  8
細線
 48
50.0
100
AcDbLine
 10
4579.422037128294
 20
4494.800454890554
 30
0.0
 11
4579.422037128294
 21
2404.800454890554
 31
0.0
  0
LINE
  5
16E59
330
747D
100
AcDbEntity
  8
細線
 48
50.0
100
AcDbLine
 10
4564.422037128293
 20
4494.800454890554
 30
0.0
 11
4564.422037128293
 21
2404.800454890554
 31
0.0
  0
LINE
  5
16E5A
330
747D
100
AcDbEntity
  8
細線
 48
50.0
100
AcDbLine
 10
4704.422037128294
 20
4494.800454890554
 30
0.0
 11
4704.422037128294
 21
2404.800454890554
 31
0.0
  0
LINE
  5
16E5B
330
747D
100
AcDbEntity
  8
細線
 48
50.0
100
AcDbLine
 10
4719.422037128294
 20
4494.800454890554
 30
0.0
 11
4719.422037128294
 21
2404.800454890554
 31
0.0
  0
LINE
  5
16E5C
330
747D
100
AcDbEntity
  8
細線
 48
50.0
100
AcDbLine
 10
4859.422037128293
 20
4494.800454890554
 30
0.0
 11
4859.422037128293
 21
2404.800454890554
 31
0.0
  0
LINE
  5
16E5D
330
747D
100
AcDbEntity
  8
細線
 48
50.0
100
AcDbLine
 10
4844.422037128294
 20
4494.800454890554
 30
0.0
 11
4844.422037128294
 21
2404.800454890554
 31
0.0
  0
LINE
  5
16E5E
330
747D
100
AcDbEntity
  8
細線
 48
50.0
100
AcDbLine
 10
5264.422037128293
 20
4494.800454890554
 30
0.0
 11
5264.422037128293
 21
2404.800454890554
 31
0.0
  0
LINE
  5
16E5F
330
747D
100
AcDbEntity
  8
細線
 48
50.0
100
AcDbLine
 10
5279.422037128294
 20
4494.800454890554
 30
0.0
 11
5279.422037128294
 21
2404.800454890554
 31
0.0
  0
LINE
  5
16E60
330
747D
100
AcDbEntity
  8
細線
 48
50.0
100
AcDbLine
 10
5139.422037128293
 20
4494.800454890554
 30
0.0
 11
5139.422037128293
 21
2404.800454890554
 31
0.0
  0
LINE
  5
16E61
330
747D
100
AcDbEntity
  8
細線
 48
50.0
100
AcDbLine
 10
5124.422037128294
 20
4494.800454890554
 30
0.0
 11
5124.422037128294
 21
2404.800454890554
 31
0.0
  0
LINE
  5
16E62
330
747D
100
AcDbEntity
  8
細線
 48
50.0
100
AcDbLine
 10
4984.422037128293
 20
4494.800454890554
 30
0.0
 11
4984.422037128293
 21
2404.800454890554
 31
0.0
  0
LINE
  5
16E63
330
747D
100
AcDbEntity
  8
細線
 48
50.0
100
AcDbLine
 10
4999.422037128294
 20
4494.800454890554
 30
0.0
 11
4999.422037128294
 21
2404.800454890554
 31
0.0
  0
LINE
  5
16E64
330
747D
100
AcDbEntity
  8
部品1
100
AcDbLine
 10
4494.422037128294
 20
2354.800454890554
 30
0.0
 11
6189.422037128293
 21
2354.800454890554
 31
0.0
  0
LINE
  5
16E65
330
747D
100
AcDbEntity
  8
部品1
100
AcDbLine
 10
6229.422037128294
 20
2354.800454890554
 30
0.0
 11
6236.922037128297
 21
2354.800454890554
 31
0.0
  0
LINE
  5
16E66
330
747D
100
AcDbEntity
  8
破線
  6
HIDDEN
 48
5.0
100
AcDbLine
 10
4494.422037128294
 20
2254.800454890554
 30
0.0
 11
4494.422037128294
 21
2249.800454890554
 31
0.0
  0
LINE
  5
16E67
330
747D
100
AcDbEntity
  8
破線
  6
HIDDEN
 48
5.0
100
AcDbLine
 10
4454.422037128301
 20
2254.800454890554
 30
0.0
 11
4454.422037128301
 21
2249.800454890554
 31
0.0
  0
LINE
  5
16E68
330
747D
100
AcDbEntity
  8
破線
  6
HIDDEN
 48
5.0
100
AcDbLine
 10
6229.422037128294
 20
2254.800454890554
 30
0.0
 11
6229.422037128294
 21
2249.800454890554
 31
0.0
  0
LINE
  5
16E69
330
747D
100
AcDbEntity
  8
破線
  6
HIDDEN
 48
5.0
100
AcDbLine
 10
6189.422037128293
 20
2254.800454890554
 30
0.0
 11
6189.422037128293
 21
2249.800454890554
 31
0.0
  0
ARC
  5
16E6A
330
747D
100
AcDbEntity
  8
部品1
 48
50.0
100
AcDbCircle
 10
6224.422037128293
 20
2394.800454890554
 30
0.0
 40
5.0
100
AcDbArc
 50
0.0
 51
90.0
  0
ARC
  5
16E6B
330
747D
100
AcDbEntity
  8
部品1
 48
50.0
100
AcDbCircle
 10
6194.422037128294
 20
2394.800454890554
 30
0.0
 40
5.0
100
AcDbArc
 50
90.0
 51
180.0
  0
LINE
  5
16E6C
330
747D
100
AcDbEntity
  8
部品1
100
AcDbLine
 10
6224.422037128293
 20
2399.800454890554
 30
0.0
 11
6194.422037128294
 21
2399.800454890554
 31
0.0
  0
LINE
  5
16E6D
330
747D
100
AcDbEntity
  8
部品1
 48
50.0
100
AcDbLine
 10
6229.422037128294
 20
2394.800454890554
 30
0.0
 11
6229.422037128294
 21
2254.800454890554
 31
0.0
  0
LINE
  5
16E6E
330
747D
100
AcDbEntity
  8
部品1
 48
50.0
100
AcDbLine
 10
6189.422037128293
 20
2394.800454890554
 30
0.0
 11
6189.422037128293
 21
2254.800454890554
 31
0.0
  0
ARC
  5
16E6F
330
747D
100
AcDbEntity
  8
部品1
 48
50.0
100
AcDbCircle
 10
4489.422037128293
 20
2394.800454890554
 30
0.0
 40
5.0
100
AcDbArc
 50
0.0
 51
90.0
  0
ARC
  5
16E70
330
747D
100
AcDbEntity
  8
部品1
 48
50.0
100
AcDbCircle
 10
4459.422037128294
 20
2394.800454890554
 30
0.0
 40
5.0
100
AcDbArc
 50
90.0
 51
180.0
  0
LINE
  5
16E71
330
747D
100
AcDbEntity
  8
部品1
100
AcDbLine
 10
4459.422037128294
 20
2399.800454890554
 30
0.0
 11
4489.422037128293
 21
2399.800454890554
 31
0.0
  0
LINE
  5
16E72
330
747D
100
AcDbEntity
  8
部品1
 48
50.0
100
AcDbLine
 10
4494.422037128294
 20
2394.800454890554
 30
0.0
 11
4494.422037128294
 21
2254.800454890554
 31
0.0
  0
LINE
  5
16E73
330
747D
100
AcDbEntity
  8
部品1
 48
50.0
100
AcDbLine
 10
4454.422037128294
 20
2394.800454890554
 30
0.0
 11
4454.422037128294
 21
2254.800454890554
 31
0.0
  0
LINE
  5
16E74
330
747D
100
AcDbEntity
  8
破線
  6
HIDDEN
 48
5.0
100
AcDbLine
 10
4494.422037128294
 20
2249.800454890554
 30
0.0
 11
4509.422037128294
 21
2102.100454890553
 31
0.0
  0
LINE
  5
16E75
330
747D
100
AcDbEntity
  8
破線
  6
HIDDEN
 48
5.0
100
AcDbLine
 10
4454.422037128294
 20
2249.800454890554
 30
0.0
 11
4439.422037128293
 21
2102.100454890553
 31
0.0
  0
LINE
  5
16E76
330
747D
100
AcDbEntity
  8
破線
  6
HIDDEN
 48
5.0
100
AcDbLine
 10
4509.422037128294
 20
2102.100454890553
 30
0.0
 11
4509.422037128294
 21
2099.800454890554
 31
0.0
  0
LINE
  5
16E77
330
747D
100
AcDbEntity
  8
破線
  6
HIDDEN
 48
5.0
100
AcDbLine
 10
4439.422037128293
 20
2102.100454890553
 30
0.0
 11
4439.422037128293
 21
2099.800454890554
 31
0.0
  0
LINE
  5
16E78
330
747D
100
AcDbEntity
  8
破線
  6
HIDDEN
 48
5.0
100
AcDbLine
 10
4439.422037128293
 20
2099.800454890554
 30
0.0
 11
4509.422037128294
 21
2099.800454890554
 31
0.0
  0
LINE
  5
16E79
330
747D
100
AcDbEntity
  8
破線
  6
HIDDEN
 48
5.0
100
AcDbLine
 10
6244.422037128294
 20
2102.100454890553
 30
0.0
 11
6244.422037128294
 21
2099.800454890554
 31
0.0
  0
LINE
  5
16E7A
330
747D
100
AcDbEntity
  8
破線
  6
HIDDEN
 48
5.0
100
AcDbLine
 10
6229.422037128294
 20
2249.800454890554
 30
0.0
 11
6244.422037128294
 21
2102.100454890553
 31
0.0
  0
LINE
  5
16E7B
330
747D
100
AcDbEntity
  8
破線
  6
HIDDEN
 48
5.0
100
AcDbLine
 10
6174.422037128294
 20
2102.100454890553
 30
0.0
 11
6174.422037128294
 21
2099.800454890554
 31
0.0
  0
LINE
  5
16E7C
330
747D
100
AcDbEntity
  8
破線
  6
HIDDEN
 48
5.0
100
AcDbLine
 10
6189.422037128293
 20
2249.800454890554
 30
0.0
 11
6174.422037128294
 21
2102.100454890553
 31
0.0
  0
LINE
  5
16E7D
330
747D
100
AcDbEntity
  8
破線
  6
HIDDEN
 48
5.0
100
AcDbLine
 10
6244.422037128294
 20
2099.800454890554
 30
0.0
 11
6174.422037128294
 21
2099.800454890554
 31
0.0
  0
LINE
  5
16E7E
330
747D
100
AcDbEntity
  8
部品1
100
AcDbLine
 10
6181.922037128297
 20
4494.800454890554
 30
0.0
 11
6181.922037128297
 21
2404.800454890554
 31
0.0
  0
LINE
  5
16E7F
330
747D
100
AcDbEntity
  8
部品1
100
AcDbLine
 10
6236.922037128294
 20
4588.800454890561
 30
0.0
 11
6236.922037128297
 21
2254.800454890554
 31
0.0
  0
LINE
  5
16E80
330
747D
100
AcDbEntity
  8
部品1
100
AcDbLine
 10
4921.922037128293
 20
4494.800454890554
 30
0.0
 11
4921.922037128293
 21
2404.800454890554
 31
0.0
  0
LINE
  5
16E81
330
747D
100
AcDbEntity
  8
部品1
100
AcDbLine
 10
4446.922037128294
 20
4588.800454890558
 30
0.0
 11
4446.922037128294
 21
2254.800454890554
 31
0.0
  0
LINE
  5
16E82
330
747D
100
AcDbEntity
  8
部品1
100
AcDbLine
 10
4501.922037128293
 20
4494.800454890554
 30
0.0
 11
4501.922037128293
 21
2404.800454890554
 31
0.0
  0
LINE
  5
16E83
330
747D
100
AcDbEntity
  8
部品1
100
AcDbLine
 10
4446.922037128294
 20
2354.800454890554
 30
0.0
 11
4454.422037128294
 21
2354.800454890554
 31
0.0
  0
LINE
  5
16E84
330
747D
100
AcDbEntity
  8
部品1
100
AcDbLine
 10
4446.922037128294
 20
2404.800454890554
 30
0.0
 11
6236.922037128297
 21
2404.800454890554
 31
0.0
  0
LINE
  5
16E85
330
747D
100
AcDbEntity
  8
部品1
100
AcDbLine
 10
4446.922037128294
 20
4494.800454890554
 30
0.0
 11
6236.922037128294
 21
4494.800454890554
 31
0.0
  0
LINE
  5
16E86
330
747D
100
AcDbEntity
  8
部品1
100
AcDbLine
 10
5723.657370242512
 20
1565.762191913145
 30
0.0
 11
4960.186704014075
 21
1565.762191913145
 31
0.0
  0
LINE
  5
16E87
330
747D
100
AcDbEntity
  8
部品1
100
AcDbLine
 10
5723.657370242512
 20
1325.869870367613
 30
0.0
 11
5723.657370242512
 21
1565.762191913145
 31
0.0
  0
LINE
  5
16E88
330
747D
100
AcDbEntity
  8
部品1
100
AcDbLine
 10
4960.186704014075
 20
1325.869870367613
 30
0.0
 11
5723.657370242512
 21
1325.869870367613
 31
0.0
  0
LINE
  5
16E89
330
747D
100
AcDbEntity
  8
部品1
100
AcDbLine
 10
4960.186704014075
 20
1565.762191913145
 30
0.0
 11
4960.186704014075
 21
1325.869870367613
 31
0.0
  0
TEXT
  5
16E8A
330
747D
100
AcDbEntity
  8
部品1
100
AcDbText
 10
5049.632805437682
 20
1372.86866269462
 30
0.0
 40
135.0
  1
側面図
  7
STYLE2
100
AcDbText
  0
TEXT
  5
16E8B
330
747D
100
AcDbEntity
  8
部品1
100
AcDbText
 10
3432.422757087098
 20
2290.907358496455
 30
0.0
 40
125.0
  1
▽G.L
  7
STYLE2
100
AcDbText
  0
LINE
  5
16E8C
330
747D
100
AcDbEntity
  8
部品1
100
AcDbLine
 10
10936.88238322583
 20
8078.290620335712
 30
0.0
 11
8419.882383225825
 21
8078.290620335609
 31
0.0
  0
LINE
  5
16E8D
330
747D
100
AcDbEntity
  8
部品1
100
AcDbLine
 10
8391.382383225817
 20
8078.290620335609
 30
0.0
 11
8363.382383225816
 21
8078.290620335609
 31
0.0
  0
LINE
  5
16E8E
330
747D
100
AcDbEntity
  8
部品1
100
AcDbLine
 10
10965.38238322584
 20
8078.290620335733
 30
0.0
 11
10993.38238322584
 21
8078.290620335733
 31
0.0
  0
DIMENSION
  5
16E8F
330
747D
100
AcDbEntity
  8
寸法
100
AcDbDimension
  2
*D8
 10
11519.87936452541
 20
4674.800454890555
 30
0.0
 11
11519.87936452541
 21
3489.10795856452
 31
0.0
 70
   160
 71
     5
 42
2320.000000000002
  3
INABA_S40G
100
AcDbAlignedDimension
 13
10993.38238322583
 23
2354.800454890554
 33
0.0
 14
11073.38238322581
 24
4674.800454890555
 34
0.0
 50
90.0
100
AcDbRotatedDimension
1001
ACAD
1000
DSTYLE
1002
{
1070
   174
1070
     0
1070
   272
1070
     1
1070
   288
1070
     0
1070
   341
1005
0
1002
}
  0
TEXT
  5
16E90
330
747D
100
AcDbEntity
  8
文字
 62
     7
 48
50.0
100
AcDbText
 10
13583.11819016569
 20
8550.013745883733
 30
0.0
 40
100.0
  1
棚板
  7
STYLE1
100
AcDbText
  0
TEXT
  5
16E91
330
747D
100
AcDbEntity
  8
文字
 62
     7
 48
50.0
100
AcDbText
 10
15022.63965474516
 20
8550.013745883729
 30
0.0
 40
100.0
  1
F12            0.6
  7
STYLE1
100
AcDbText
  0
TEXT
  5
16E92
330
747D
100
AcDbEntity
  8
文字
 62
     7
 48
50.0
100
AcDbText
 10
15022.63965474515
 20
9740.013745883725
 30
0.0
 40
100.0
  1
F12            1.0
  7
STYLE1
100
AcDbText
  0
TEXT
  5
16E93
330
747D
100
AcDbEntity
  8
文字
 62
     7
 48
50.0
100
AcDbText
 10
13583.11819016569
 20
9740.013745883729
 30
0.0
 40
100.0
  1
母屋中
  7
STYLE1
100
AcDbText
  0
TEXT
  5
16E94
330
747D
100
AcDbEntity
  8
文字
 62
     7
 48
50.0
100
AcDbText
 10
13248.77747366447
 20
8720.013745883729
 30
0.0
 40
100.0
  1
15
  7
STYLE1
100
AcDbText
  0
LINE
  5
16E95
330
747D
100
AcDbEntity
  8
仕様書枠
 48
50.0
100
AcDbLine
 10
16307.19999999999
 20
8009.600000000007
 30
0.0
 11
13127.19999999999
 21
8009.600000000007
 31
0.0
  0
TEXT
  5
16E96
330
747D
100
AcDbEntity
  8
文字
 62
     7
 48
50.0
100
AcDbText
 10
13583.11819016569
 20
8720.013745883733
 30
0.0
 40
100.0
  1
扉
  7
STYLE1
100
AcDbText
  0
TEXT
  5
16E97
330
747D
100
AcDbEntity
  8
文字
 62
     7
 48
50.0
100
AcDbText
 10
15022.63965474516
 20
8720.013745883729
 30
0.0
 40
100.0
  1
F12            0.8
  7
STYLE1
100
AcDbText
  0
TEXT
  5
16E98
330
747D
100
AcDbEntity
  8
文字
 62
     7
 48
50.0
100
AcDbText
 10
13583.11819016568
 20
8890.013745883733
 30
0.0
 40
100.0
  1
正面パネル
  7
STYLE1
100
AcDbText
  0
TEXT
  5
16E99
330
747D
100
AcDbEntity
  8
文字
 62
     7
 48
50.0
100
AcDbText
 10
15022.63965474515
 20
8890.013745883729
 30
0.0
 40
100.0
  1
F12            0.7
  7
STYLE1
100
AcDbText
  0
TEXT
  5
16E9A
330
747D
100
AcDbEntity
  8
文字
 62
     7
 48
50.0
100
AcDbText
 10
15022.63965474517
 20
10590.01374588373
 30
0.0
 40
100.0
  1
F12            1.0
  7
STYLE1
100
AcDbText
  0
TEXT
  5
16E9B
330
747D
100
AcDbEntity
  8
文字
 62
     7
 48
50.0
100
AcDbText
 10
15022.63965474516
 20
10930.01374588373
 30
0.0
 40
100.0
  1
F12            1.2
  7
STYLE1
100
AcDbText
  0
TEXT
  5
16E9C
330
747D
100
AcDbEntity
  8
文字
 62
     7
 48
50.0
100
AcDbText
 10
13248.77747366448
 20
8890.013745883729
 30
0.0
 40
100.0
  1
14
  7
STYLE1
100
AcDbText
  0
TEXT
  5
16E9D
330
747D
100
AcDbEntity
  8
文字
 62
     7
 48
50.0
100
AcDbText
 10
13583.11819016569
 20
10930.01374588373
 30
0.0
 40
100.0
  1
根太
  7
STYLE1
100
AcDbText
  0
TEXT
  5
16E9E
330
747D
100
AcDbEntity
  8
文字
 62
     7
 48
50.0
100
AcDbText
 10
13583.1181901657
 20
10590.01374588373
 30
0.0
 40
100.0
  1
床パネル
 41
0.9
  7
STYLE1
100
AcDbText
  0
LINE
  5
16E9F
330
747D
100
AcDbEntity
  8
仕様書枠
 48
50.0
100
AcDbLine
 10
16307.19999999999
 20
9029.6
 30
0.0
 11
13127.2
 21
9029.600000000003
 31
0.0
  0
LINE
  5
16EA0
330
747D
100
AcDbEntity
  8
仕様書枠
 48
50.0
100
AcDbLine
 10
13127.2
 20
11409.6
 30
0.0
 11
13127.19999999999
 21
8009.600000000007
 31
0.0
  0
TEXT
  5
16EA1
330
747D
100
AcDbEntity
  8
文字
 62
     7
 48
50.0
100
AcDbText
 10
13229.83081656554
 20
8040.013745883737
 30
0.0
 40
100.0
  1
Y10→溶融亜鉛-5％アルミニウム合金めっき鋼板(JIS G 3317)
 41
0.9
  7
STYLE1
100
AcDbText
  0
TEXT
  5
16EA2
330
747D
100
AcDbEntity
  8
文字
 62
     7
 48
50.0
100
AcDbText
 10
13229.83081656554
 20
8210.013745883737
 30
0.0
 40
100.0
  1
F12→溶融亜鉛めっき鋼板(JIS G 3302)
  7
STYLE1
100
AcDbText
  0
LINE
  5
16EA3
330
747D
100
AcDbEntity
  8
仕様書枠
 48
50.0
100
AcDbLine
 10
16307.19999999999
 20
8179.600000000007
 30
0.0
 11
13127.19999999999
 21
8179.600000000007
 31
0.0
  0
LINE
  5
16EA4
330
747D
100
AcDbEntity
  8
仕様書枠
 48
50.0
100
AcDbLine
 10
16307.19999999999
 20
8349.600000000007
 30
0.0
 11
13127.19999999999
 21
8349.600000000007
 31
0.0
  0
TEXT
  5
16EA5
330
747D
100
AcDbEntity
  8
文字
 62
     7
 48
50.0
100
AcDbText
 10
15022.63965474515
 20
9570.013745883729
 30
0.0
 40
100.0
  1
F12            0.7
  7
STYLE1
100
AcDbText
  0
TEXT
  5
16EA6
330
747D
100
AcDbEntity
  8
文字
 62
     7
 48
50.0
100
AcDbText
 10
15022.63965474517
 20
9910.01374588373
 30
0.0
 40
100.0
  1
Y10            0.5
  7
STYLE1
100
AcDbText
  0
TEXT
  5
16EA7
330
747D
100
AcDbEntity
  8
文字
 62
     7
 48
50.0
100
AcDbText
 10
15022.63965474516
 20
10080.01374588373
 30
0.0
 40
100.0
  1
Y10            0.7
  7
STYLE1
100
AcDbText
  0
TEXT
  5
16EA8
330
747D
100
AcDbEntity
  8
文字
 62
     7
 48
50.0
100
AcDbText
 10
15022.63965474516
 20
10250.01374588373
 30
0.0
 40
100.0
  1
Y10            0.7
  7
STYLE1
100
AcDbText
  0
TEXT
  5
16EA9
330
747D
100
AcDbEntity
  8
文字
 62
     7
 48
50.0
100
AcDbText
 10
15022.63965474516
 20
10420.01374588373
 30
0.0
 40
100.0
  1
Y10            1.0
  7
STYLE1
100
AcDbText
  0
TEXT
  5
16EAA
330
747D
100
AcDbEntity
  8
文字
 62
     7
 48
50.0
100
AcDbText
 10
15022.63965474518
 20
10760.01374588373
 30
0.0
 40
100.0
  1
F12            1.0
  7
STYLE1
100
AcDbText
  0
TEXT
  5
16EAB
330
747D
100
AcDbEntity
  8
文字
 62
     7
 48
50.0
100
AcDbText
 10
15022.63965474517
 20
11100.01374588373
 30
0.0
 40
100.0
  1
F12            1.2
  7
STYLE1
100
AcDbText
  0
TEXT
  5
16EAC
330
747D
100
AcDbEntity
  8
文字
 62
     7
 48
50.0
100
AcDbText
 10
13248.77747366448
 20
9230.013745883729
 30
0.0
 40
100.0
  1
12
  7
STYLE1
100
AcDbText
  0
TEXT
  5
16EAD
330
747D
100
AcDbEntity
  8
文字
 62
     7
 48
50.0
100
AcDbText
 10
13248.77747366448
 20
9060.013745883729
 30
0.0
 40
100.0
  1
13
  7
STYLE1
100
AcDbText
  0
LINE
  5
16EAE
330
747D
100
AcDbEntity
  8
仕様書枠
 48
50.0
100
AcDbLine
 10
16307.19999999999
 20
8859.6
 30
0.0
 11
13127.2
 21
8859.600000000005
 31
0.0
  0
LINE
  5
16EAF
330
747D
100
AcDbEntity
  8
仕様書枠
 48
50.0
100
AcDbLine
 10
16307.19999999999
 20
9199.600000000001
 30
0.0
 11
13127.2
 21
9199.600000000001
 31
0.0
  0
TEXT
  5
16EB0
330
747D
100
AcDbEntity
  8
文字
 62
     7
 48
50.0
100
AcDbText
 10
13248.77747366447
 20
9400.013745883729
 30
0.0
 40
100.0
  1
11
  7
STYLE1
100
AcDbText
  0
LINE
  5
16EB1
330
747D
100
AcDbEntity
  8
仕様書枠
 48
50.0
100
AcDbLine
 10
16307.2
 20
9879.600000000001
 30
0.0
 11
13127.2
 21
9879.600000000001
 31
0.0
  0
LINE
  5
16EB2
330
747D
100
AcDbEntity
  8
仕様書枠
 48
50.0
100
AcDbLine
 10
16307.2
 20
10219.6
 30
0.0
 11
13127.2
 21
10219.6
 31
0.0
  0
LINE
  5
16EB3
330
747D
100
AcDbEntity
  8
仕様書枠
 48
50.0
100
AcDbLine
 10
16307.19999999999
 20
9539.6
 30
0.0
 11
13127.2
 21
9539.6
 31
0.0
  0
LINE
  5
16EB4
330
747D
100
AcDbEntity
  8
仕様書枠
 48
50.0
100
AcDbLine
 10
16307.19999999999
 20
9369.600000000001
 30
0.0
 11
13127.2
 21
9369.600000000001
 31
0.0
  0
LINE
  5
16EB5
330
747D
100
AcDbEntity
  8
仕様書枠
 48
50.0
100
AcDbLine
 10
16307.19999999999
 20
9709.600000000001
 30
0.0
 11
13127.2
 21
9709.600000000001
 31
0.0
  0
TEXT
  5
16EB6
330
747D
100
AcDbEntity
  8
文字
 62
     7
 48
50.0
100
AcDbText
 10
13271.19032244792
 20
10250.01374588373
 30
0.0
 40
100.0
  1
6
  7
STYLE1
100
AcDbText
  0
TEXT
  5
16EB7
330
747D
100
AcDbEntity
  8
文字
 62
     7
 48
50.0
100
AcDbText
 10
13271.19032244792
 20
10080.01374588373
 30
0.0
 40
100.0
  1
7
  7
STYLE1
100
AcDbText
  0
TEXT
  5
16EB8
330
747D
100
AcDbEntity
  8
文字
 62
     7
 48
50.0
100
AcDbText
 10
13271.19032244792
 20
9740.013745883729
 30
0.0
 40
100.0
  1
9
  7
STYLE1
100
AcDbText
  0
TEXT
  5
16EB9
330
747D
100
AcDbEntity
  8
文字
 62
     7
 48
50.0
100
AcDbText
 10
13271.19032244792
 20
9910.01374588373
 30
0.0
 40
100.0
  1
8
  7
STYLE1
100
AcDbText
  0
TEXT
  5
16EBA
330
747D
100
AcDbEntity
  8
文字
 62
     7
 48
50.0
100
AcDbText
 10
13583.11819016569
 20
10080.01374588373
 30
0.0
 40
100.0
  1
鼻隠シ前後
  7
STYLE1
100
AcDbText
  0
TEXT
  5
16EBB
330
747D
100
AcDbEntity
  8
文字
 62
     7
 48
50.0
100
AcDbText
 10
13583.11819016569
 20
9910.01374588373
 30
0.0
 40
100.0
  1
屋根パネル
  7
STYLE1
100
AcDbText
  0
TEXT
  5
16EBC
330
747D
100
AcDbEntity
  8
文字
 62
     7
 48
50.0
100
AcDbText
 10
13583.11819016568
 20
9570.013745883729
 30
0.0
 40
100.0
  1
壁パネル
  7
STYLE1
100
AcDbText
  0
TEXT
  5
16EBD
330
747D
100
AcDbEntity
  8
文字
 62
     7
 48
50.0
100
AcDbText
 10
13248.77747366447
 20
9570.013745883729
 30
0.0
 40
100.0
  1
10
  7
STYLE1
100
AcDbText
  0
TEXT
  5
16EBE
330
747D
100
AcDbEntity
  8
文字
 62
     7
 48
50.0
100
AcDbText
 10
13583.11819016569
 20
10250.01374588373
 30
0.0
 40
100.0
  1
妻板左右
  7
STYLE1
100
AcDbText
  0
TEXT
  5
16EBF
330
747D
100
AcDbEntity
  8
文字
 62
     7
 48
50.0
100
AcDbText
 10
13271.19032244792
 20
10420.01374588373
 30
0.0
 40
100.0
  1
5
  7
STYLE1
100
AcDbText
  0
TEXT
  5
16EC0
330
747D
100
AcDbEntity
  8
文字
 62
     7
 48
50.0
100
AcDbText
 10
13583.11819016569
 20
10420.01374588373
 30
0.0
 40
100.0
  1
桁前後
  7
STYLE1
100
AcDbText
  0
TEXT
  5
16EC1
330
747D
100
AcDbEntity
  8
文字
 62
     7
 48
50.0
100
AcDbText
 10
13583.1181901657
 20
10760.01374588373
 30
0.0
 40
100.0
  1
柱
  7
STYLE1
100
AcDbText
  0
TEXT
  5
16EC2
330
747D
100
AcDbEntity
  8
文字
 62
     7
 48
50.0
100
AcDbText
 10
13583.11819016569
 20
11100.01374588373
 30
0.0
 40
100.0
  1
土台枠
  7
STYLE1
100
AcDbText
  0
TEXT
  5
16EC3
330
747D
100
AcDbEntity
  8
文字
 62
     7
 48
50.0
100
AcDbText
 10
14859.79774614482
 20
11270.01374588373
 30
0.0
 40
100.0
  1
材料（材質）　　単位mm
  7
STYLE1
100
AcDbText
  0
TEXT
  5
16EC4
330
747D
100
AcDbEntity
  8
文字
 62
     7
 48
50.0
100
AcDbText
 10
13732.03840939434
 20
11270.01374588373
 30
0.0
 40
100.0
  1
部　　品　　名
  7
STYLE1
100
AcDbText
  0
TEXT
  5
16EC5
330
747D
100
AcDbEntity
  8
文字
 62
     7
 48
50.0
100
AcDbText
 10
13271.19032244792
 20
10760.01374588373
 30
0.0
 40
100.0
  1
3
  7
STYLE1
100
AcDbText
  0
TEXT
  5
16EC6
330
747D
100
AcDbEntity
  8
文字
 62
     7
 48
50.0
100
AcDbText
 10
13271.19032244792
 20
10590.01374588373
 30
0.0
 40
100.0
  1
4
  7
STYLE1
100
AcDbText
  0
TEXT
  5
16EC7
330
747D
100
AcDbEntity
  8
文字
 62
     7
 48
50.0
100
AcDbText
 10
13271.19032244792
 20
10930.01374588373
 30
0.0
 40
100.0
  1
2
  7
STYLE1
100
AcDbText
  0
TEXT
  5
16EC8
330
747D
100
AcDbEntity
  8
文字
 62
     7
 48
50.0
100
AcDbText
 10
13271.19032244792
 20
11100.01374588373
 30
0.0
 40
100.0
  1
1
  7
STYLE1
100
AcDbText
  0
TEXT
  5
16EC9
330
747D
100
AcDbEntity
  8
文字
 62
     7
 48
50.0
100
AcDbText
 10
13197.42518560407
 20
11270.01374588373
 30
0.0
 40
100.0
  1
品番
  7
STYLE1
100
AcDbText
  0
LINE
  5
16ECA
330
747D
100
AcDbEntity
  8
仕様書枠
 48
50.0
100
AcDbLine
 10
16307.19999999999
 20
10729.6
 30
0.0
 11
13127.2
 21
10729.6
 31
0.0
  0
LINE
  5
16ECB
330
747D
100
AcDbEntity
  8
仕様書枠
 48
50.0
100
AcDbLine
 10
16307.19999999999
 20
10389.6
 30
0.0
 11
13127.2
 21
10389.6
 31
0.0
  0
LINE
  5
16ECC
330
747D
100
AcDbEntity
  8
仕様書枠
 48
50.0
100
AcDbLine
 10
16307.19999999999
 20
10559.6
 30
0.0
 11
13127.2
 21
10559.6
 31
0.0
  0
LINE
  5
16ECD
330
747D
100
AcDbEntity
  8
仕様書枠
 48
50.0
100
AcDbLine
 10
16307.2
 20
11069.6
 30
0.0
 11
13127.2
 21
11069.6
 31
0.0
  0
LINE
  5
16ECE
330
747D
100
AcDbEntity
  8
仕様書枠
 48
50.0
100
AcDbLine
 10
16307.2
 20
10899.6
 30
0.0
 11
13127.2
 21
10899.6
 31
0.0
  0
LINE
  5
16ECF
330
747D
100
AcDbEntity
  8
仕様書枠
 48
50.0
100
AcDbLine
 10
16307.2
 20
11239.6
 30
0.0
 11
13127.2
 21
11239.6
 31
0.0
  0
LINE
  5
16ED0
330
747D
100
AcDbEntity
  8
仕様書枠
 48
50.0
100
AcDbLine
 10
13490.2
 20
11409.6
 30
0.0
 11
13490.20000000001
 21
8349.600000000007
 31
0.0
  0
LINE
  5
16ED1
330
747D
100
AcDbEntity
  8
仕様書枠
 48
50.0
100
AcDbLine
 10
14785.2
 20
11409.6
 30
0.0
 11
14785.2
 21
8349.600000000007
 31
0.0
  0
LINE
  5
16ED2
330
747D
100
AcDbEntity
  8
仕様書枠
 48
50.0
100
AcDbLine
 10
16307.19999999999
 20
8009.600000000007
 30
0.0
 11
16307.2
 21
11409.6
 31
0.0
  0
LINE
  5
16ED3
330
747D
100
AcDbEntity
  8
仕様書枠
 48
50.0
100
AcDbLine
 10
16307.2
 20
11409.6
 30
0.0
 11
13127.2
 21
11409.6
 31
0.0
  0
LINE
  5
16ED4
330
747D
100
AcDbEntity
  8
仕様書枠
 48
50.0
100
AcDbLine
 10
16307.2
 20
10049.6
 30
0.0
 11
13127.2
 21
10049.6
 31
0.0
  0
TEXT
  5
16ED5
330
747D
100
AcDbEntity
  8
文字
 62
     7
 48
50.0
100
AcDbText
 10
15022.63965474515
 20
8380.013745883726
 30
0.0
 40
100.0
  1
F12            2.3
  7
STYLE1
100
AcDbText
  0
TEXT
  5
16ED6
330
747D
100
AcDbEntity
  8
文字
 62
     7
 48
50.0
100
AcDbText
 10
13583.11819016569
 20
8380.013745883728
 30
0.0
 40
100.0
  1
アンカープレート
  7
STYLE1
100
AcDbText
  0
LINE
  5
16ED7
330
747D
100
AcDbEntity
  8
仕様書枠
 48
50.0
100
AcDbLine
 10
16307.19999999999
 20
8519.600000000009
 30
0.0
 11
13127.2
 21
8519.600000000009
 31
0.0
  0
LINE
  5
16ED8
330
747D
100
AcDbEntity
  8
仕様書枠
 48
50.0
100
AcDbLine
 10
16307.19999999999
 20
8689.600000000007
 30
0.0
 11
13127.2
 21
8689.600000000007
 31
0.0
  0
TEXT
  5
16ED9
330
747D
100
AcDbEntity
  8
文字
 62
     7
 48
50.0
100
AcDbText
 10
13583.11819016569
 20
9400.013745883729
 30
0.0
 40
100.0
  1
壁面扉鴨居
  7
STYLE1
100
AcDbText
  0
TEXT
  5
16EDA
330
747D
100
AcDbEntity
  8
文字
 62
     7
 48
50.0
100
AcDbText
 10
13583.11819016569
 20
9230.013745883736
 30
0.0
 40
100.0
  1
壁面扉敷居
  7
STYLE1
100
AcDbText
  0
TEXT
  5
16EDB
330
747D
100
AcDbEntity
  8
文字
 62
     7
 48
50.0
100
AcDbText
 10
15022.63965474515
 20
9400.013745883729
 30
0.0
 40
100.0
  1
F12            0.7
  7
STYLE1
100
AcDbText
  0
TEXT
  5
16EDC
330
747D
100
AcDbEntity
  8
文字
 62
     7
 48
50.0
100
AcDbText
 10
15022.63965474517
 20
9230.013745883729
 30
0.0
 40
100.0
  1
F12            1.0
  7
STYLE1
100
AcDbText
  0
TEXT
  5
16EDD
330
747D
100
AcDbEntity
  8
文字
 62
     7
 48
50.0
100
AcDbText
 10
13583.11819016569
 20
9060.013745883736
 30
0.0
 40
100.0
  1
壁面扉枠左右
  7
STYLE1
100
AcDbText
  0
TEXT
  5
16EDE
330
747D
100
AcDbEntity
  8
文字
 62
     7
 48
50.0
100
AcDbText
 10
15022.63965474517
 20
9060.013745883729
 30
0.0
 40
100.0
  1
F12            1.0
  7
STYLE1
100
AcDbText
  0
TEXT
  5
16EDF
330
747D
100
AcDbEntity
  8
文字
 62
     7
 48
50.0
100
AcDbText
 10
13248.77747366447
 20
8550.013745883729
 30
0.0
 40
100.0
  1
16
  7
STYLE1
100
AcDbText
  0
TEXT
  5
16EE0
330
747D
100
AcDbEntity
  8
文字
 62
     7
 48
50.0
100
AcDbText
 10
13248.77747366447
 20
8380.013745883728
 30
0.0
 40
100.0
  1
17
  7
STYLE1
100
AcDbText
  0
TEXT
  5
16EE1
330
747D
100
AcDbEntity
  8
文字
 62
     7
 48
50.0
100
AcDbText
 10
13209.4053442172
 20
228.5435242569015
 30
0.0
 40
100.0
  1
○有効開口寸法 ： 1266×2025(mm)
  7
STYLE2
100
AcDbText
  0
TEXT
  5
16EE2
330
747D
100
AcDbEntity
  8
文字
 62
     7
 48
50.0
100
AcDbText
 10
14491.96323844892
 20
483.8967129911416
 30
0.0
 40
160.0
  1
ＮＸＮ－５０ＨＢ
  7
STYLE2
100
AcDbText
  0
LINE
  5
16EE4
330
747D
100
AcDbEntity
  8
細線
 48
50.0
100
AcDbLine
 10
8760.882383225833
 20
4494.800454890554
 30
0.0
 11
8760.882383225833
 21
2404.800454890554
 31
0.0
  0
LINE
  5
16EE5
330
747D
100
AcDbEntity
  8
細線
 48
50.0
100
AcDbLine
 10
8775.882383225832
 20
4494.800454890554
 30
0.0
 11
8775.882383225832
 21
2404.800454890554
 31
0.0
  0
LINE
  5
16EE6
330
747D
100
AcDbEntity
  8
細線
 48
50.0
100
AcDbLine
 10
8635.882383225833
 20
4494.800454890554
 30
0.0
 11
8635.882383225833
 21
2404.800454890554
 31
0.0
  0
LINE
  5
16EE7
330
747D
100
AcDbEntity
  8
細線
 48
50.0
100
AcDbLine
 10
8620.882383225833
 20
4494.800454890554
 30
0.0
 11
8620.882383225833
 21
2404.800454890554
 31
0.0
  0
LINE
  5
16EE8
330
747D
100
AcDbEntity
  8
細線
 48
50.0
100
AcDbLine
 10
8480.882383225832
 20
4494.800454890554
 30
0.0
 11
8480.882383225832
 21
2404.800454890554
 31
0.0
  0
LINE
  5
16EE9
330
747D
100
AcDbEntity
  8
細線
 48
50.0
100
AcDbLine
 10
8495.882383225833
 20
4494.800454890554
 30
0.0
 11
8495.882383225833
 21
2404.800454890554
 31
0.0
  0
LINE
  5
16F9A
330
747D
100
AcDbEntity
  8
部品1
 48
50.0
100
AcDbLine
 10
9645.382383225831
 20
4437.800454915321
 30
0.0
 11
9645.382383225829
 21
2404.80045489055
 31
0.0
  0
LINE
  5
16F9B
330
747D
100
AcDbEntity
  8
部品1
100
AcDbLine
 10
10299.38237353068
 20
4437.800454927705
 30
0.0
 11
10299.38237353069
 21
2412.30045492772
 31
0.0
  0
LINE
  5
16F9C
330
747D
100
AcDbEntity
  8
細線
100
AcDbLine
 10
9545.382383225833
 20
4437.800454890553
 30
0.0
 11
9545.382383225829
 21
2404.800454890561
 31
0.0
  0
LINE
  5
16F9D
330
747D
100
AcDbEntity
  8
細線
100
AcDbLine
 10
9475.382383225833
 20
4437.800454890553
 30
0.0
 11
9475.382383225829
 21
2404.800454890561
 31
0.0
  0
LINE
  5
16F9E
330
747D
100
AcDbEntity
  8
細線
100
AcDbLine
 10
9405.382383225832
 20
4437.800454890553
 30
0.0
 11
9405.38238322583
 21
2404.800454890557
 31
0.0
  0
LINE
  5
16F9F
330
747D
100
AcDbEntity
  8
細線
100
AcDbLine
 10
9335.382383225832
 20
4437.800454890553
 30
0.0
 11
9335.38238322583
 21
2404.800454890557
 31
0.0
  0
LINE
  5
16FA0
330
747D
100
AcDbEntity
  8
細線
100
AcDbLine
 10
9265.382383225833
 20
4437.800454890553
 30
0.0
 11
9265.38238322583
 21
2404.800454890557
 31
0.0
  0
LINE
  5
16FA1
330
747D
100
AcDbEntity
  8
細線
100
AcDbLine
 10
9195.382383225833
 20
4437.800454890553
 30
0.0
 11
9195.38238322583
 21
2404.800454890557
 31
0.0
  0
LINE
  5
16FA2
330
747D
100
AcDbEntity
  8
部品1
100
AcDbLine
 10
9011.382383225829
 20
4437.800454890553
 30
0.0
 11
9011.382383225834
 21
2404.800454890557
 31
0.0
  0
LINE
  5
16FA3
330
747D
100
AcDbEntity
  8
部品1
100
AcDbLine
 10
8961.38238322583
 20
4437.800454890553
 30
0.0
 11
8961.382383225833
 21
2404.800454890557
 31
0.0
  0
LINE
  5
16FA4
330
747D
100
AcDbEntity
  8
細線
100
AcDbLine
 10
9003.382383225829
 20
4437.800454890553
 30
0.0
 11
9003.382383225833
 21
2404.800454890557
 31
0.0
  0
LINE
  5
16FA5
330
747D
100
AcDbEntity
  8
細線
100
AcDbLine
 10
8969.382383225831
 20
4437.800454890553
 30
0.0
 11
8969.382383225832
 21
2404.800454890557
 31
0.0
  0
LINE
  5
16FA6
330
747D
100
AcDbEntity
  8
細線
100
AcDbLine
 10
10196.88239297607
 20
4437.800454890553
 30
0.0
 11
10196.88239297607
 21
2412.300454890565
 31
0.0
  0
LINE
  5
16FA7
330
747D
100
AcDbEntity
  8
細線
100
AcDbLine
 10
10126.88239297607
 20
4437.800454890553
 30
0.0
 11
10126.88239297607
 21
2412.300454890565
 31
0.0
  0
LINE
  5
16FA8
330
747D
100
AcDbEntity
  8
細線
100
AcDbLine
 10
10056.88239297607
 20
4437.800454890553
 30
0.0
 11
10056.88239297607
 21
2412.300454890565
 31
0.0
  0
LINE
  5
16FA9
330
747D
100
AcDbEntity
  8
細線
100
AcDbLine
 10
9986.882392976077
 20
4437.800454890553
 30
0.0
 11
9986.882392976077
 21
2412.300454890565
 31
0.0
  0
LINE
  5
16FAA
330
747D
100
AcDbEntity
  8
細線
100
AcDbLine
 10
9916.882392976077
 20
4437.800454890553
 30
0.0
 11
9916.882392976077
 21
2412.300454890565
 31
0.0
  0
LINE
  5
16FAB
330
747D
100
AcDbEntity
  8
細線
100
AcDbLine
 10
9846.882392976077
 20
4437.800454890553
 30
0.0
 11
9846.882392976077
 21
2412.300454890565
 31
0.0
  0
LINE
  5
16FAC
330
747D
100
AcDbEntity
  8
細線
100
AcDbLine
 10
10772.13238322583
 20
4437.800454890553
 30
0.0
 11
10772.13238322583
 21
2412.300454890572
 31
0.0
  0
LINE
  5
16FAD
330
747D
100
AcDbEntity
  8
細線
100
AcDbLine
 10
10702.13238322583
 20
4437.800454890553
 30
0.0
 11
10702.13238322583
 21
2412.300454890572
 31
0.0
  0
LINE
  5
16FAE
330
747D
100
AcDbEntity
  8
細線
100
AcDbLine
 10
10632.13238322583
 20
4437.800454890553
 30
0.0
 11
10632.13238322583
 21
2412.300454890572
 31
0.0
  0
LINE
  5
16FAF
330
747D
100
AcDbEntity
  8
細線
100
AcDbLine
 10
10562.13238322583
 20
4437.800454890553
 30
0.0
 11
10562.13238322583
 21
2412.300454890572
 31
0.0
  0
LINE
  5
16FB0
330
747D
100
AcDbEntity
  8
細線
100
AcDbLine
 10
10492.13238322583
 20
4437.800454890553
 30
0.0
 11
10492.13238322583
 21
2412.300454890572
 31
0.0
  0
LINE
  5
16FB1
330
747D
100
AcDbEntity
  8
細線
100
AcDbLine
 10
9125.382383225833
 20
4437.800454890553
 30
0.0
 11
9125.382383225829
 21
2404.800454890557
 31
0.0
  0
LINE
  5
16FB2
330
747D
100
AcDbEntity
  8
細線
100
AcDbLine
 10
9055.382383225833
 20
4437.800454890553
 30
0.0
 11
9055.382383225831
 21
2404.800454890557
 31
0.0
  0
LINE
  5
16FB3
330
747D
100
AcDbEntity
  8
細線
100
AcDbLine
 10
9776.882392976077
 20
4437.800454890553
 30
0.0
 11
9776.882392976077
 21
2412.300454890565
 31
0.0
  0
LINE
  5
16FB4
330
747D
100
AcDbEntity
  8
細線
100
AcDbLine
 10
9706.882392976076
 20
4437.800454890553
 30
0.0
 11
9706.882392976076
 21
2412.300454890565
 31
0.0
  0
LINE
  5
16FB5
330
747D
100
AcDbEntity
  8
細線
100
AcDbLine
 10
10422.13238322583
 20
4437.800454890553
 30
0.0
 11
10422.13238322583
 21
2412.300454890572
 31
0.0
  0
LINE
  5
16FB6
330
747D
100
AcDbEntity
  8
部品1
 48
50.0
100
AcDbLine
 10
10965.38238322583
 20
4445.800454890553
 30
0.0
 11
10935.38238322583
 21
4445.800454890553
 31
0.0
  0
LINE
  5
16FB7
330
747D
100
AcDbEntity
  8
細線
 48
50.0
100
AcDbLine
 10
10913.38238322583
 20
2401.800454890554
 30
0.0
 11
10909.38238322583
 21
2412.300454890554
 31
0.0
  0
LINE
  5
16FB8
330
747D
100
AcDbEntity
  8
部品1
 48
50.0
100
AcDbLine
 10
10299.38237353069
 20
4437.800454927701
 30
0.0
 11
10299.38237353069
 21
2412.300454927701
 31
0.0
  0
LINE
  5
16FB9
330
747D
100
AcDbEntity
  8
部品1
 48
50.0
100
AcDbLine
 10
10965.38238322583
 20
2354.800454890554
 30
0.0
 11
10965.38238322583
 21
4489.800454890554
 31
0.0
  0
LINE
  5
16FBA
330
747D
100
AcDbEntity
  8
細線
 48
50.0
100
AcDbLine
 10
10935.38238322583
 20
2354.800454890554
 30
0.0
 11
10935.38238322583
 21
4447.300454890553
 31
0.0
  0
LINE
  5
16FBB
330
747D
100
AcDbEntity
  8
部品1
 48
50.0
100
AcDbLine
 10
10926.38238322583
 20
2401.800454890554
 30
0.0
 11
10926.38238322583
 21
4437.800454890553
 31
0.0
  0
LINE
  5
16FBC
330
747D
100
AcDbEntity
  8
部品1
 48
50.0
100
AcDbLine
 10
8841.382383225832
 20
4445.800454890553
 30
0.0
 11
8811.382383225833
 21
4445.800454890553
 31
0.0
  0
LINE
  5
16FBD
330
747D
100
AcDbEntity
  8
部品1
 48
50.0
100
AcDbLine
 10
8850.382383225833
 20
2404.800454890554
 30
0.0
 11
8850.382383225833
 21
2401.800454890554
 31
0.0
  0
LINE
  5
16FBE
330
747D
100
AcDbEntity
  8
部品1
 48
50.0
100
AcDbLine
 10
8841.382383225832
 20
2404.800454890554
 30
0.0
 11
9645.382383225829
 21
2404.80045489055
 31
0.0
  0
LINE
  5
16FBF
330
747D
100
AcDbEntity
  8
部品1
 48
50.0
100
AcDbLine
 10
9645.382383225831
 20
4437.800454915321
 30
0.0
 11
9645.382383225831
 21
2404.800454915321
 31
0.0
  0
LINE
  5
16FC0
330
747D
100
AcDbEntity
  8
部品1
 48
50.0
100
AcDbLine
 10
8811.382383225833
 20
4489.800454890554
 30
0.0
 11
8811.382383225833
 21
2354.800454890554
 31
0.0
  0
LINE
  5
16FC1
330
747D
100
AcDbEntity
  8
細線
 48
50.0
100
AcDbLine
 10
8841.382383225832
 20
4447.300454890553
 30
0.0
 11
8841.382383225832
 21
2354.800454890554
 31
0.0
  0
LINE
  5
16FC2
330
747D
100
AcDbEntity
  8
部品1
 48
50.0
100
AcDbLine
 10
8841.382383225832
 20
2404.800454890554
 30
0.0
 11
8841.382383225832
 21
4437.800454890553
 31
0.0
  0
LINE
  5
16FC3
330
747D
100
AcDbEntity
  8
細線
 48
50.0
100
AcDbLine
 10
9645.382383225831
 20
2412.300454890554
 30
0.0
 11
10909.38238322583
 21
2412.300454890554
 31
0.0
  0
LINE
  5
16FC4
330
747D
100
AcDbEntity
  8
細線
 48
50.0
100
AcDbLine
 10
8841.382383225832
 20
2401.800454890554
 30
0.0
 11
10935.38238322583
 21
2401.800454890554
 31
0.0
  0
LINE
  5
16FC5
330
747D
100
AcDbEntity
  8
細線
 48
50.0
100
AcDbLine
 10
8841.382383225832
 20
2397.800454890554
 30
0.0
 11
10935.38238322583
 21
2397.800454890554
 31
0.0
  0
LINE
  5
16FC6
330
747D
100
AcDbEntity
  8
部品1
 48
50.0
100
AcDbLine
 10
8811.382383225833
 20
2354.800454890554
 30
0.0
 11
10965.38238322583
 21
2354.800454890554
 31
0.0
  0
LINE
  5
16FC7
330
747D
100
AcDbEntity
  8
細線
 48
50.0
100
AcDbLine
 10
10935.38238322583
 20
4447.300454890553
 30
0.0
 11
8841.382383225832
 21
4447.300454890553
 31
0.0
  0
LINE
  5
16FC8
330
747D
100
AcDbEntity
  8
細線
 48
50.0
100
AcDbLine
 10
10935.38238322583
 20
4437.800454890553
 30
0.0
 11
8841.382383225832
 21
4437.800454890553
 31
0.0
  0
LINE
  5
16FC9
330
747D
100
AcDbEntity
  8
細線
 48
50.0
100
AcDbLine
 10
10965.38238322583
 20
4479.800454890553
 30
0.0
 11
8811.382383225833
 21
4479.800454890553
 31
0.0
  0
LINE
  5
16FCA
330
747D
100
AcDbEntity
  8
部品1
 48
50.0
100
AcDbLine
 10
10965.38238322583
 20
4489.800454890554
 30
0.0
 11
8811.382383225833
 21
4489.800454890554
 31
0.0
  0
MTEXT
  5
16FE8
330
747D
100
AcDbEntity
  8
寸法
 62
     7
 48
50.0
100
AcDbMText
 10
10343.48492031898
 20
8979.525438533043
 30
0.0
 40
96.0
 41
0.0
 71
     5
 72
     1
  1
棚 3段
  7
STYLE1
 73
     1
 44
1.0
1001
ACAD
1000
MTEXTBEGIN
1070
    73
1070
     1
1070
    44
1040
1.0
1070
    74
1070
     0
1000
MTEXTEND
  0
LINE
  5
16FEA
330
747D
100
AcDbEntity
  8
部品1
100
AcDbLine
 10
10938.38238322584
 20
9393.290620335731
 30
0.0
 11
10938.38238322584
 21
9365.290620335732
 31
0.0
  0
LINE
  5
16FEB
330
747D
100
AcDbEntity
  8
部品1
100
AcDbLine
 10
10938.38238322584
 20
9393.290620335754
 30
0.0
 11
10938.38238322584
 21
9365.290620335754
 31
0.0
  0
LINE
  5
16FEC
330
747D
100
AcDbEntity
  8
部品1
100
AcDbLine
 10
10965.38238322584
 20
9338.290620335737
 30
0.0
 11
10993.38238322584
 21
9338.290620335737
 31
0.0
  0
LINE
  5
16FED
330
747D
100
AcDbEntity
  8
部品1
100
AcDbLine
 10
10965.38238322584
 20
8918.290620335737
 30
0.0
 11
10993.38238322584
 21
8918.290620335737
 31
0.0
  0
LINE
  5
16FEE
330
747D
100
AcDbEntity
  8
部品1
100
AcDbLine
 10
10965.38238322584
 20
8498.290620335733
 30
0.0
 11
10993.38238322584
 21
8498.290620335733
 31
0.0
  0
DIMENSION
  5
16FEF
330
747D
100
AcDbEntity
  8
寸法
100
AcDbDimension
  2
*D9
 10
11693.38238322583
 20
9338.290620335737
 30
0.0
 11
11693.38238322583
 21
9701.775901709972
 31
0.0
 70
   160
 71
     5
 42
54.99999999999636
  3
INABA_S40G
100
AcDbAlignedDimension
 13
10993.38238322584
 23
9393.290620335731
 33
0.0
 14
10993.38238322584
 24
9338.290620335737
 34
0.0
 50
90.0
100
AcDbRotatedDimension
1001
ACAD
1000
DSTYLE
1002
{
1002
}
  0
DIMENSION
  5
16FF0
330
747D
100
AcDbEntity
  8
寸法
100
AcDbDimension
  2
*D10
 10
11393.38238322583
 20
8798.474391379
 30
0.0
 11
11393.38238322583
 21
9023.474391378998
 31
0.0
 70
   160
 71
     5
 42
449.9999999999963
  3
INABA_S40G
100
AcDbAlignedDimension
 13
10964.88238322584
 23
9363.290620335732
 33
0.0
 14
10964.88238322584
 24
8913.290620335736
 34
0.0
 50
90.0
100
AcDbRotatedDimension
1001
ACAD
1000
DSTYLE
1002
{
1002
}
  0
LINE
  5
16FF1
330
747D
100
AcDbEntity
  8
部品1
100
AcDbLine
 10
10964.88238322584
 20
9363.290620335732
 30
0.0
 11
10964.88238322584
 21
8913.290620335736
 31
0.0
  0
LINE
  5
16FF2
330
747D
100
AcDbEntity
  8
部品1
100
AcDbLine
 10
10965.38238322584
 20
9365.290620335732
 30
0.0
 11
10965.38238322583
 21
8912.790620335609
 31
0.0
  0
LINE
  5
16FF4
330
747D
100
AcDbEntity
  8
部品1
 48
50.0
100
AcDbLine
 10
10938.38238322584
 20
7603.290620335712
 30
0.0
 11
10938.38238322584
 21
7631.29062033571
 31
0.0
  0
LINE
  5
16FF5
330
747D
100
AcDbEntity
  8
部品1
100
AcDbLine
 10
10965.38238322584
 20
7658.290620335718
 30
0.0
 11
10993.38238322584
 21
7658.290620335718
 31
0.0
  0
LINE
  5
16FF6
330
747D
100
AcDbEntity
  8
部品1
100
AcDbLine
 10
10993.38238322582
 20
7658.290620335718
 30
0.0
 11
10993.38238322582
 21
7603.290620335726
 31
0.0
  0
LINE
  5
16FF7
330
747D
100
AcDbEntity
  8
部品1
 48
50.0
100
AcDbLine
 10
10936.88238322584
 20
7659.790620335725
 30
0.0
 11
10965.38238322584
 21
7631.290620335725
 31
0.0
  0
LINE
  5
16FF8
330
747D
100
AcDbEntity
  8
部品1
100
AcDbLine
 10
10993.38238322582
 20
7603.290620335726
 30
0.0
 11
10942.38238322581
 21
7603.290620335726
 31
0.0
  0
LINE
  5
16FF9
330
747D
100
AcDbEntity
  8
部品1
100
AcDbLine
 10
10965.38238322582
 20
7658.290620335718
 30
0.0
 11
10993.38238322582
 21
7658.290620335718
 31
0.0
  0
LINE
  5
16FFA
330
747D
100
AcDbEntity
  8
部品1
100
AcDbLine
 10
10993.38238322582
 20
7603.290620335726
 30
0.0
 11
10938.38238322584
 21
7603.290620335712
 31
0.0
  0
DIMENSION
  5
16FFB
330
747D
100
AcDbEntity
  8
寸法
100
AcDbDimension
  2
*D11
 10
11693.38238322582
 20
7603.290620335721
 30
0.0
 11
11693.38238322581
 21
7294.805338961471
 31
0.0
 70
   160
 71
     5
 42
54.99999999999636
  3
INABA_S40G
100
AcDbAlignedDimension
 13
10993.38238322582
 23
7658.290620335718
 33
0.0
 14
10993.38238322582
 24
7603.290620335721
 34
0.0
 50
90.0
100
AcDbRotatedDimension
1001
ACAD
1000
DSTYLE
1002
{
1002
}
  0
LINE
  5
16FFC
330
747D
100
AcDbEntity
  8
部品1
100
AcDbLine
 10
10965.38238322583
 20
8918.290620335737
 30
0.0
 11
10965.38238322582
 21
7631.290620335725
 31
0.0
  0
LINE
  5
16FFD
330
747D
100
AcDbEntity
  8
部品1
100
AcDbLine
 10
10936.88238322583
 20
8913.290620335732
 30
0.0
 11
10936.88238322584
 21
7659.790620335725
 31
0.0
  0
LINE
  5
16FFE
330
747D
100
AcDbEntity
  8
部品1
100
AcDbLine
 10
10993.38238322584
 20
9393.290620335731
 30
0.0
 11
10993.38238322582
 21
7603.290620335726
 31
0.0
  0
DIMENSION
  5
16FFF
330
747D
100
AcDbEntity
  8
寸法
100
AcDbDimension
  2
*D12
 10
11693.38238322583
 20
7658.290620335718
 30
0.0
 11
11693.38238322583
 21
8498.290620335728
 31
0.0
 70
   160
  1
4X420=<>
 71
     5
 42
1680.000000000017
  3
INABA_S40G
100
AcDbAlignedDimension
 13
10993.38238322584
 23
9338.290620335737
 33
0.0
 14
10993.38238322582
 24
7658.290620335718
 34
0.0
 50
90.0
100
AcDbRotatedDimension
1001
ACAD
1000
DSTYLE
1002
{
1002
}
  0
DIMENSION
  5
17000
330
747D
100
AcDbEntity
  8
寸法
100
AcDbDimension
  2
*D13
 10
11993.38238322584
 20
7603.290620335721
 30
0.0
 11
11993.38238322584
 21
8498.290620335728
 31
0.0
 70
   160
 71
     5
 42
1790.00000000001
  3
INABA_S40G
100
AcDbAlignedDimension
 13
10993.38238322584
 23
9393.290620335731
 33
0.0
 14
10993.38238322582
 24
7603.290620335721
 34
0.0
 50
90.0
100
AcDbRotatedDimension
1001
ACAD
1000
DSTYLE
1002
{
1002
}
  0
LINE
  5
17001
330
747D
100
AcDbEntity
  8
部品1
100
AcDbLine
 10
10518.3823832258
 20
9393.290620335605
 30
0.0
 11
10518.38238322581
 21
9365.290620335604
 31
0.0
  0
LINE
  5
17002
330
747D
100
AcDbEntity
  8
部品1
100
AcDbLine
 10
10098.3823832258
 20
9393.290620335605
 30
0.0
 11
10098.38238322581
 21
9365.290620335604
 31
0.0
  0
LINE
  5
17003
330
747D
100
AcDbEntity
  8
部品1
100
AcDbLine
 10
9678.382383225807
 20
9393.290620335605
 30
0.0
 11
9678.382383225809
 21
9365.290620335604
 31
0.0
  0
LINE
  5
17004
330
747D
100
AcDbEntity
  8
部品1
100
AcDbLine
 10
9707.382383225843
 20
9383.29062033574
 30
0.0
 11
9713.382383225843
 21
9383.29062033574
 31
0.0
  0
LINE
  5
17005
330
747D
100
AcDbEntity
  8
部品1
100
AcDbLine
 10
9713.382383225843
 20
9383.29062033574
 30
0.0
 11
9713.382383225843
 21
9365.29062033574
 31
0.0
  0
LINE
  5
17006
330
747D
100
AcDbEntity
  8
部品1
100
AcDbLine
 10
9643.382383225842
 20
9383.29062033574
 30
0.0
 11
9649.382383225843
 21
9383.29062033574
 31
0.0
  0
LINE
  5
17007
330
747D
100
AcDbEntity
  8
部品1
100
AcDbLine
 10
9643.382383225842
 20
9383.29062033574
 30
0.0
 11
9643.382383225842
 21
9365.29062033574
 31
0.0
  0
LINE
  5
17008
330
747D
100
AcDbEntity
  8
部品1
100
AcDbLine
 10
9665.882383225842
 20
9357.290620335737
 30
0.0
 11
9690.882383225842
 21
9357.29062033574
 31
0.0
  0
LINE
  5
17009
330
747D
100
AcDbEntity
  8
部品1
100
AcDbLine
 10
9665.882383225842
 20
8913.290620335743
 30
0.0
 11
9690.882383225842
 21
8913.290620335743
 31
0.0
  0
LINE
  5
1700A
330
747D
100
AcDbEntity
  8
部品1
 48
50.0
100
AcDbLine
 10
9690.882383225842
 20
9365.290620335743
 30
0.0
 11
9690.882383225842
 21
8913.290620335743
 31
0.0
  0
LINE
  5
1700B
330
747D
100
AcDbEntity
  8
部品1
 48
50.0
100
AcDbLine
 10
9665.882383225842
 20
9365.290620335747
 30
0.0
 11
9665.882383225842
 21
8913.290620335743
 31
0.0
  0
LINE
  5
1700C
330
747D
100
AcDbEntity
  8
部品1
 48
50.0
100
AcDbLine
 10
9691.882383225843
 20
9363.290620335737
 30
0.0
 11
9691.882383225843
 21
8913.290620335743
 31
0.0
  0
LINE
  5
1700D
330
747D
100
AcDbEntity
  8
部品1
 48
50.0
100
AcDbLine
 10
9664.882383225844
 20
9363.290620335739
 30
0.0
 11
9664.882383225844
 21
8913.290620335743
 31
0.0
  0
LINE
  5
1700E
330
747D
100
AcDbEntity
  8
部品1
100
AcDbLine
 10
9258.382383225805
 20
9393.290620335605
 30
0.0
 11
9258.382383225809
 21
9365.290620335604
 31
0.0
  0
LINE
  5
1700F
330
747D
100
AcDbEntity
  8
部品1
100
AcDbLine
 10
8838.382383225805
 20
9393.290620335605
 30
0.0
 11
8838.382383225811
 21
9365.290620335604
 31
0.0
  0
LINE
  5
17010
330
747D
100
AcDbEntity
  8
部品1
100
AcDbLine
 10
8418.382383225806
 20
9393.290620335605
 30
0.0
 11
8418.382383225809
 21
9365.290620335604
 31
0.0
  0
LINE
  5
17011
330
747D
100
AcDbEntity
  8
部品1
100
AcDbLine
 10
8418.382383225843
 20
9393.290620335639
 30
0.0
 11
8418.382383225843
 21
9365.290620335638
 31
0.0
  0
LINE
  5
17012
330
747D
100
AcDbEntity
  8
部品1
100
AcDbLine
 10
8391.38238322581
 20
9338.290620335609
 30
0.0
 11
8363.382383225809
 21
9338.290620335609
 31
0.0
  0
LINE
  5
17013
330
747D
100
AcDbEntity
  8
部品1
100
AcDbLine
 10
8391.382383225817
 20
8918.290620335609
 30
0.0
 11
8363.382383225816
 21
8918.290620335609
 31
0.0
  0
LINE
  5
17014
330
747D
100
AcDbEntity
  8
部品1
100
AcDbLine
 10
8391.382383225817
 20
8498.290620335609
 30
0.0
 11
8363.382383225816
 21
8498.290620335609
 31
0.0
  0
LINE
  5
17015
330
747D
100
AcDbEntity
  8
部品1
100
AcDbLine
 10
8391.382383225831
 20
8912.790620335609
 30
0.0
 11
8391.382383225844
 21
9365.290620335638
 31
0.0
  0
LINE
  5
17016
330
747D
100
AcDbEntity
  8
部品1
 48
50.0
100
AcDbLine
 10
8391.882383225773
 20
9363.290620335739
 30
0.0
 11
8391.882383225773
 21
8913.290620335743
 31
0.0
  0
LINE
  5
17017
330
747D
100
AcDbEntity
  8
部品1
100
AcDbLine
 10
8391.882383225773
 20
8913.290620335684
 30
0.0
 11
9664.88238322584
 21
8913.290620335743
 31
0.0
  0
LINE
  5
17018
330
747D
100
AcDbEntity
  8
部品1
100
AcDbLine
 10
8391.882383225773
 20
9363.290620335686
 30
0.0
 11
9664.882383225844
 21
9363.290620335744
 31
0.0
  0
LINE
  5
17019
330
747D
100
AcDbEntity
  8
部品1
100
AcDbLine
 10
8391.382383225844
 20
9365.29062033575
 30
0.0
 11
9665.88238322584
 21
9365.290620335754
 31
0.0
  0
LINE
  5
1701A
330
747D
100
AcDbEntity
  8
細線
 48
50.0
100
AcDbLine
 10
9664.882383225844
 20
9363.290620335739
 30
0.0
 11
8391.882383225773
 21
8913.290620335684
 31
0.0
  0
LINE
  5
1701B
330
747D
100
AcDbEntity
  8
細線
 48
50.0
100
AcDbLine
 10
9664.88238322584
 20
8913.290620335743
 30
0.0
 11
8391.882383225771
 21
9363.290620335686
 31
0.0
  0
LINE
  5
1701C
330
747D
100
AcDbEntity
  8
破線
 48
10.0
100
AcDbLine
 10
10913.38238322584
 20
7683.290620335725
 30
0.0
 11
10118.88238322582
 21
7683.290620335544
 31
0.0
  0
LINE
  5
1701D
330
747D
100
AcDbEntity
  8
部品1
100
AcDbLine
 10
8838.382383225811
 20
7603.290620335726
 30
0.0
 11
8838.382383225811
 21
7631.290620335725
 31
0.0
  0
LINE
  5
1701E
330
747D
100
AcDbEntity
  8
部品1
 48
50.0
100
AcDbLine
 10
8419.88238322583
 20
7659.790620335704
 30
0.0
 11
8391.382383225831
 21
7631.290620335703
 31
0.0
  0
LINE
  5
1701F
330
747D
100
AcDbEntity
  8
部品1
100
AcDbLine
 10
8418.382383225809
 20
7603.290620335726
 30
0.0
 11
8418.382383225809
 21
7631.290620335725
 31
0.0
  0
LINE
  5
17020
330
747D
100
AcDbEntity
  8
部品1
100
AcDbLine
 10
8391.382383225817
 20
7658.290620335558
 30
0.0
 11
8363.382383225832
 21
7658.290620335558
 31
0.0
  0
LINE
  5
17021
330
747D
100
AcDbEntity
  8
部品1
100
AcDbLine
 10
8391.382383225817
 20
7658.290620335595
 30
0.0
 11
8363.382383225832
 21
7658.290620335595
 31
0.0
  0
LINE
  5
17022
330
747D
100
AcDbEntity
  8
部品1
100
AcDbLine
 10
8391.382383225833
 20
7658.290620335609
 30
0.0
 11
8363.382383225832
 21
7658.290620335609
 31
0.0
  0
LINE
  5
17023
330
747D
100
AcDbEntity
  8
部品1
100
AcDbLine
 10
8363.382383225832
 20
7658.290620335558
 30
0.0
 11
8363.382383225836
 21
7603.290620335558
 31
0.0
  0
LINE
  5
17024
330
747D
100
AcDbEntity
  8
部品1
100
AcDbLine
 10
8838.382383225811
 20
7603.290620335595
 30
0.0
 11
8363.382383225836
 21
7603.290620335595
 31
0.0
  0
LINE
  5
17025
330
747D
100
AcDbEntity
  8
破線
 48
10.0
100
AcDbLine
 10
9237.882383225821
 20
7683.290620335587
 30
0.0
 11
8443.382383225829
 21
7683.290620335601
 31
0.0
  0
LINE
  5
17026
330
747D
100
AcDbEntity
  8
破線
 48
10.0
100
AcDbLine
 10
10068.88238322582
 20
7683.290620335639
 30
0.0
 11
9287.882383225817
 21
7683.290620335616
 31
0.0
  0
LINE
  5
17027
330
747D
100
AcDbEntity
  8
破線
 48
10.0
100
AcDbLine
 10
10068.88238322582
 20
7659.79062033563
 30
0.0
 11
10068.88238322581
 21
8913.290620335743
 31
0.0
  0
LINE
  5
17028
330
747D
100
AcDbEntity
  8
破線
 48
10.0
100
AcDbLine
 10
10118.88238322582
 20
7659.790620335638
 30
0.0
 11
10118.88238322582
 21
8913.290620335743
 31
0.0
  0
LINE
  5
17029
330
747D
100
AcDbEntity
  8
部品1
100
AcDbLine
 10
8419.882383225818
 20
8913.290620335684
 30
0.0
 11
8419.88238322583
 21
7659.790620335695
 31
0.0
  0
LINE
  5
1702A
330
747D
100
AcDbEntity
  8
破線
 48
10.0
100
AcDbLine
 10
9287.882383225817
 20
7659.790620335638
 30
0.0
 11
9287.882383225817
 21
8913.290620335743
 31
0.0
  0
LINE
  5
1702B
330
747D
100
AcDbEntity
  8
破線
 48
10.0
100
AcDbLine
 10
9237.882383225821
 20
7659.79062033563
 30
0.0
 11
9237.882383225816
 21
8913.290620335743
 31
0.0
  0
LINE
  5
1702C
330
747D
100
AcDbEntity
  8
部品1
100
AcDbLine
 10
8363.382383225806
 20
9393.290620335605
 30
0.0
 11
8363.382383225836
 21
7603.290620335595
 31
0.0
  0
LINE
  5
1702D
330
747D
100
AcDbEntity
  8
部品1
100
AcDbLine
 10
8391.382383225817
 20
7631.290620335682
 30
0.0
 11
8391.382383225835
 21
8918.290620335609
 31
0.0
  0
LINE
  5
1702E
330
747D
100
AcDbEntity
  8
破線
 48
10.0
100
AcDbLine
 10
8443.382383225817
 20
8913.290620335736
 30
0.0
 11
8443.382383225831
 21
7683.290620335601
 31
0.0
  0
LINE
  5
1702F
330
747D
100
AcDbEntity
  8
破線
 48
10.0
100
AcDbLine
 10
10913.38238322583
 20
8913.290620335736
 30
0.0
 11
10913.38238322584
 21
7683.290620335718
 31
0.0
  0
LINE
  5
17030
330
747D
100
AcDbEntity
  8
部品1
 48
50.0
100
AcDbLine
 10
8391.382383225835
 20
7631.290620335703
 30
0.0
 11
10965.38238322585
 21
7631.29062033571
 31
0.0
  0
LINE
  5
17031
330
747D
100
AcDbEntity
  8
部品1
100
AcDbLine
 10
10936.88238322583
 20
8498.29062033571
 30
0.0
 11
8419.882383225825
 21
8498.290620335609
 31
0.0
  0
LINE
  5
17032
330
747D
100
AcDbEntity
  8
部品1
100
AcDbLine
 10
9690.882383225842
 20
9365.29062033575
 30
0.0
 11
10965.38238322584
 21
9365.290620335732
 31
0.0
  0
LINE
  5
17033
330
747D
100
AcDbEntity
  8
細線
 48
50.0
100
AcDbLine
 10
10964.88238322584
 20
8913.290620335736
 30
0.0
 11
9691.882383225843
 21
9363.290620335737
 31
0.0
  0
LINE
  5
17034
330
747D
100
AcDbEntity
  8
部品1
100
AcDbLine
 10
9691.882383225841
 20
8913.290620335743
 30
0.0
 11
10964.88238322584
 21
8913.290620335736
 31
0.0
  0
LINE
  5
17035
330
747D
100
AcDbEntity
  8
部品1
100
AcDbLine
 10
9691.882383225843
 20
9363.290620335739
 30
0.0
 11
10964.88238322584
 21
9363.290620335732
 31
0.0
  0
LINE
  5
17036
330
747D
100
AcDbEntity
  8
細線
 48
50.0
100
AcDbLine
 10
10964.88238322584
 20
9363.290620335732
 30
0.0
 11
9691.882383225841
 21
8913.290620335743
 31
0.0
  0
DIMENSION
  5
17037
330
747D
100
AcDbEntity
  8
寸法
100
AcDbDimension
  2
*D14
 10
10878.14845138983
 20
8593.327230791086
 30
0.0
 11
10311.27029053985
 21
8593.327230791086
 31
0.0
 70
   160
 71
     5
 42
1273.000000000011
  3
INABA_S40G
100
AcDbAlignedDimension
 13
9690.882383225842
 23
8913.290620335743
 33
0.0
 14
10963.88238322585
 24
8913.290620335736
 34
0.0
100
AcDbRotatedDimension
1001
ACAD
1000
DSTYLE
1002
{
1002
}
  0
LINE
  5
17039
330
747D
100
AcDbEntity
  8
部品1
100
AcDbLine
 10
8363.382383225843
 20
9393.290620335639
 30
0.0
 11
10993.38238322584
 21
9393.290620335731
 31
0.0
  0
LINE
  5
1703A
330
747D
100
AcDbEntity
  8
部品1
100
AcDbLine
 10
10936.88238322584
 20
7659.790620335725
 30
0.0
 11
8419.882383225735
 21
7659.790620335602
 31
0.0
  0
DIMENSION
  5
1703B
330
747D
100
AcDbEntity
  8
寸法
100
AcDbDimension
  2
*D15
 10
10938.38238322584
 20
9693.290620335638
 30
0.0
 11
9678.382383225839
 21
9693.290620335638
 31
0.0
 70
   160
  1
6X420=<>
 71
     5
 42
2520.0
  3
INABA_S40G
100
AcDbAlignedDimension
 13
8418.382383225843
 23
9393.290620335639
 33
0.0
 14
10938.38238322584
 24
9393.290620335731
 34
0.0
100
AcDbRotatedDimension
1001
ACAD
1000
DSTYLE
1002
{
1002
}
  0
DIMENSION
  5
1703C
330
747D
100
AcDbEntity
  8
寸法
100
AcDbDimension
  2
*D16
 10
10993.38238322584
 20
9693.290620335638
 30
0.0
 11
11301.86766460008
 21
9693.290620335638
 31
0.0
 70
   160
 71
     5
 42
55.0
  3
INABA_S40G
100
AcDbAlignedDimension
 13
10938.38238322584
 23
9393.290620335731
 33
0.0
 14
10993.38238322584
 24
9393.290620335731
 34
0.0
100
AcDbRotatedDimension
1001
ACAD
1000
DSTYLE
1002
{
1002
}
  0
DIMENSION
  5
1703D
330
747D
100
AcDbEntity
  8
寸法
100
AcDbDimension
  2
*D17
 10
9578.148451389843
 20
8593.327230791086
 30
0.0
 11
8941.648451389808
 21
8593.327230791086
 31
0.0
 70
   160
 71
     5
 42
1273.000000000069
  3
INABA_S40G
100
AcDbAlignedDimension
 13
8390.882383225774
 23
8913.290620335684
 33
0.0
 14
9663.882383225843
 24
8913.290620335677
 34
0.0
100
AcDbRotatedDimension
1001
ACAD
1000
DSTYLE
1002
{
1002
}
  0
DIMENSION
  5
1703E
330
747D
100
AcDbEntity
  8
寸法
100
AcDbDimension
  2
*D18
 10
8418.382383225843
 20
9693.290620335638
 30
0.0
 11
8054.897101851567
 21
9693.290620335638
 31
0.0
 70
   160
 71
     5
 42
55.00000000003637
  3
INABA_S40G
100
AcDbAlignedDimension
 13
8363.382383225806
 23
9393.290620335639
 33
0.0
 14
8418.382383225843
 24
9393.290620335639
 34
0.0
100
AcDbRotatedDimension
1001
ACAD
1000
DSTYLE
1002
{
1002
}
  0
LINE
  5
1703F
330
747D
100
AcDbEntity
  8
部品1
 48
50.0
100
AcDbLine
 10
10938.38238322583
 20
4489.800454890551
 30
0.0
 11
10938.38238322583
 21
4494.800454890554
 31
0.0
  0
LINE
  5
17040
330
747D
100
AcDbEntity
  8
部品1
100
AcDbLine
 10
10965.38238322583
 20
2404.800454890574
 30
0.0
 11
10993.38238322583
 21
2404.800454890574
 31
0.0
  0
LINE
  5
17041
330
747D
100
AcDbEntity
  8
破線
 48
5.0
100
AcDbLine
 10
11018.38238322583
 20
2099.800454890554
 30
0.0
 11
10998.38238322583
 21
2099.800454890554
 31
0.0
  0
LINE
  5
17042
330
747D
100
AcDbEntity
  8
破線
 48
5.0
100
AcDbLine
 10
11093.38238322583
 20
2254.800454890554
 30
0.0
 11
11093.38238322583
 21
2054.800454890554
 31
0.0
  0
LINE
  5
17043
330
747D
100
AcDbEntity
  8
破線
 48
5.0
100
AcDbLine
 10
10998.38238322583
 20
2254.800454890554
 30
0.0
 11
10998.38238322583
 21
2099.800454890554
 31
0.0
  0
LINE
  5
17044
330
747D
100
AcDbEntity
  8
部品1
100
AcDbLine
 10
10998.38238322583
 20
2399.800454890554
 30
0.0
 11
10998.38238322583
 21
2254.800454890554
 31
0.0
  0
LINE
  5
17045
330
747D
100
AcDbEntity
  8
部品1
100
AcDbLine
 10
10993.38238322583
 20
4549.334728278292
 30
0.0
 11
10993.38238322583
 21
2254.800454890554
 31
0.0
  0
LINE
  5
17046
330
747D
100
AcDbEntity
  8
部品1
 48
50.0
100
AcDbLine
 10
8838.382383225832
 20
4489.800454890551
 30
0.0
 11
8838.382383225832
 21
4494.800454890554
 31
0.0
  0
LINE
  5
17047
330
747D
100
AcDbEntity
  8
破線
 48
5.0
100
AcDbLine
 10
10893.38238322583
 20
2254.800454890554
 30
0.0
 11
10893.38238322583
 21
2054.800454890554
 31
0.0
  0
LINE
  5
17048
330
747D
100
AcDbEntity
  8
部品1
100
AcDbLine
 10
10593.38238322583
 20
2354.800454890554
 30
0.0
 11
10593.38238322583
 21
2254.800454890554
 31
0.0
  0
LINE
  5
17049
330
747D
100
AcDbEntity
  8
部品1
 48
50.0
100
AcDbLine
 10
10193.38238322583
 20
2354.800454890554
 30
0.0
 11
10193.38238322583
 21
2254.800454890554
 31
0.0
  0
LINE
  5
1704A
330
747D
100
AcDbEntity
  8
部品1
 48
50.0
100
AcDbLine
 10
9993.382383225831
 20
2354.800454890554
 30
0.0
 11
9993.382383225831
 21
2254.800454890554
 31
0.0
  0
LINE
  5
1704B
330
747D
100
AcDbEntity
  8
部品1
 48
50.0
100
AcDbLine
 10
9363.382383225831
 20
2354.800454890554
 30
0.0
 11
9363.382383225831
 21
2254.800454890554
 31
0.0
  0
LINE
  5
1704C
330
747D
100
AcDbEntity
  8
部品1
 48
50.0
100
AcDbLine
 10
9163.382383225831
 20
2354.800454890554
 30
0.0
 11
9163.382383225831
 21
2254.800454890554
 31
0.0
  0
LINE
  5
1704D
330
747D
100
AcDbEntity
  8
部品1
100
AcDbLine
 10
8363.382383225831
 20
2404.800454890574
 30
0.0
 11
8811.382383225833
 21
2404.800454890574
 31
0.0
  0
LINE
  5
1704E
330
747D
100
AcDbEntity
  8
部品1
100
AcDbLine
 10
8763.382383225831
 20
2354.800454890554
 30
0.0
 11
8763.382383225831
 21
2254.800454890554
 31
0.0
  0
LINE
  5
1704F
330
747D
100
AcDbEntity
  8
破線
 48
5.0
100
AcDbLine
 10
8338.382383225832
 20
2099.800454890554
 30
0.0
 11
8358.382383225833
 21
2099.800454890554
 31
0.0
  0
LINE
  5
17050
330
747D
100
AcDbEntity
  8
破線
 48
5.0
100
AcDbLine
 10
8463.382383225832
 20
2254.800454890554
 30
0.0
 11
8463.382383225832
 21
2054.800454890554
 31
0.0
  0
LINE
  5
17051
330
747D
100
AcDbEntity
  8
破線
 48
5.0
100
AcDbLine
 10
8358.382383225832
 20
2254.800454890554
 30
0.0
 11
8358.382383225832
 21
2099.800454890554
 31
0.0
  0
LINE
  5
17052
330
747D
100
AcDbEntity
  8
部品1
100
AcDbLine
 10
8358.382383225832
 20
2399.800454890556
 30
0.0
 11
8358.382383225832
 21
2254.800454890554
 31
0.0
  0
LINE
  5
17053
330
747D
100
AcDbEntity
  8
部品1
100
AcDbLine
 10
8363.382383225831
 20
4586.942892819432
 30
0.0
 11
8363.382383225831
 21
2254.800454890554
 31
0.0
  0
LINE
  5
17054
330
747D
100
AcDbEntity
  8
部品1
 48
50.0
100
AcDbLine
 10
8418.382383225832
 20
2404.800454890574
 30
0.0
 11
8418.382383225832
 21
4494.800454890554
 31
0.0
  0
LINE
  5
17055
330
747D
100
AcDbEntity
  8
部品1
100
AcDbLine
 10
8363.382383225831
 20
2354.800454890554
 30
0.0
 11
10993.38238322583
 21
2354.800454890554
 31
0.0
  0
LINE
  5
17056
330
747D
100
AcDbEntity
  8
部品1
100
AcDbLine
 10
8363.382383225831
 20
4494.800454890554
 30
0.0
 11
10993.38238322583
 21
4494.800454890554
 31
0.0
  0
LINE
  5
17057
330
747D
100
AcDbEntity
  8
破線
 48
5.0
100
AcDbLine
 10
11093.38238322583
 20
2054.800454890554
 30
0.0
 11
10893.38238322583
 21
2054.800454890554
 31
0.0
  0
LINE
  5
17058
330
747D
100
AcDbEntity
  8
部品1
 48
50.0
100
AcDbLine
 10
8391.382383225833
 20
2354.800454890554
 30
0.0
 11
10965.38238322583
 21
2354.800454890554
 31
0.0
  0
LINE
  5
17059
330
747D
100
AcDbEntity
  8
部品1
 48
50.0
100
AcDbLine
 10
8811.382383225833
 20
2354.800454890554
 30
0.0
 11
10965.38238322583
 21
2354.800454890554
 31
0.0
  0
LINE
  5
1705A
330
747D
100
AcDbEntity
  8
部品1
100
AcDbLine
 10
8363.382383225831
 20
4494.800454890554
 30
0.0
 11
10993.38238322583
 21
4494.800454890554
 31
0.0
  0
LINE
  5
1705B
330
747D
100
AcDbEntity
  8
破線
 48
5.0
100
AcDbLine
 10
8263.382383225831
 20
2254.800454890554
 30
0.0
 11
8263.382383225831
 21
2054.800454890554
 31
0.0
  0
LINE
  5
1705C
330
747D
100
AcDbEntity
  8
破線
 48
5.0
100
AcDbLine
 10
8263.382383225831
 20
2054.800454890554
 30
0.0
 11
8463.382383225832
 21
2054.800454890554
 31
0.0
  0
DIMENSION
  5
1705D
330
747D
100
AcDbEntity
  8
寸法
 48
50.0
100
AcDbDimension
  2
*D19
 10
8263.382383225831
 20
1768.753125590176
 30
0.0
 11
8363.382383225831
 21
1768.753125590176
 31
0.0
 70
   160
 71
     5
 42
200.0000000000018
  3
INABA_S40G
100
AcDbAlignedDimension
 13
8463.382383225832
 23
2054.800454890554
 33
0.0
 14
8263.382383225831
 24
2054.800454890554
 34
0.0
100
AcDbRotatedDimension
  0
LINE
  5
1705E
330
747D
100
AcDbEntity
  8
部品1
100
AcDbLine
 10
10060.11771634005
 20
1375.484911915593
 30
0.0
 11
9296.647050111614
 21
1375.484911915593
 31
0.0
  0
LINE
  5
1705F
330
747D
100
AcDbEntity
  8
部品1
100
AcDbLine
 10
10060.11771634005
 20
1135.592590370061
 30
0.0
 11
10060.11771634005
 21
1375.484911915593
 31
0.0
  0
LINE
  5
17060
330
747D
100
AcDbEntity
  8
部品1
100
AcDbLine
 10
9296.647050111614
 20
1135.592590370061
 30
0.0
 11
10060.11771634005
 21
1135.592590370061
 31
0.0
  0
LINE
  5
17061
330
747D
100
AcDbEntity
  8
部品1
100
AcDbLine
 10
9296.647050111614
 20
1375.484911915593
 30
0.0
 11
9296.647050111614
 21
1135.592590370061
 31
0.0
  0
TEXT
  5
17067
330
747D
100
AcDbEntity
  8
部品1
100
AcDbText
 10
9387.172453849567
 20
1182.59138269707
 30
0.0
 40
135.0
  1
正面図
  7
STYLE2
100
AcDbText
  0
LINE
  5
17068
330
747D
100
AcDbEntity
  8
Ｇ．Ｌ
100
AcDbLine
 10
3235.968453487934
 20
2254.800454890554
 30
0.0
 11
11642.89493625467
 21
2254.800454890554
 31
0.0
  0
DIMENSION
  5
17069
330
747D
100
AcDbEntity
  8
寸法
 48
50.0
100
AcDbDimension
  2
*D20
 10
8070.157576754819
 20
2412.800454890553
 30
0.0
 11
8070.157576754818
 21
3425.300454890554
 31
0.0
 70
   160
  1
有効開口部高サ<>
 71
     5
 42
2025.000000000001
  3
INABA_S40G
100
AcDbAlignedDimension
 13
8811.382383225833
 23
4437.800454890553
 33
0.0
 14
8811.382383225833
 24
2412.800454890553
 34
0.0
 50
90.0
100
AcDbRotatedDimension
  0
DIMENSION
  5
1706A
330
747D
100
AcDbEntity
  8
寸法
 48
50.0
100
AcDbDimension
  2
*D21
 10
7742.773976457458
 20
4604.145713763883
 30
0.0
 11
7753.439451716383
 21
4974.992377005588
 31
0.0
 70
   161
 71
     5
 42
141.0000000000027
  3
INABA_S40G
100
AcDbAlignedDimension
 13
8322.778403384411
 23
4728.523203725234
 33
0.0
 14
8318.724947827785
 24
4587.581479959519
 34
0.0
1001
ACAD
1000
DSTYLE
1002
{
1070
   174
1070
     0
1070
   272
1070
     1
1070
   288
1070
     0
1070
   341
1005
0
1002
}
  0
DIMENSION
  5
1706B
330
747D
100
AcDbEntity
  8
寸法
100
AcDbDimension
  2
*D22
 10
7454.743001296474
 20
4729.800454890559
 30
0.0
 11
7454.743001296472
 21
3425.300454890554
 31
0.0
 70
   160
 71
     5
 42
2375.000000000005
  3
INABA_S40G
100
AcDbAlignedDimension
 13
8363.382383225831
 23
2354.800454890554
 33
0.0
 14
8303.382383225832
 24
4729.800454890559
 34
0.0
 50
90.0
100
AcDbRotatedDimension
1001
ACAD
1000
DSTYLE
1002
{
1070
   174
1070
     0
1070
   272
1070
     1
1070
   288
1070
     0
1070
   341
1005
0
1002
}
  0
DIMENSION
  5
1706C
330
747D
100
AcDbEntity
  8
寸法
100
AcDbDimension
  2
*D23
 10
7739.729674067534
 20
2404.800454890554
 30
0.0
 11
7739.729674067532
 21
3425.300454890554
 31
0.0
 70
   160
 71
     5
 42
2090.0
  3
INABA_S40G
100
AcDbAlignedDimension
 13
8363.382383225831
 23
4494.800454890554
 33
0.0
 14
8363.382383225831
 24
2404.800454890554
 34
0.0
 50
90.0
100
AcDbRotatedDimension
1001
ACAD
1000
DSTYLE
1002
{
1070
   174
1070
     0
1070
   272
1070
     1
1070
   288
1070
     0
1070
   341
1005
0
1002
}
  0
DIMENSION
  5
1706D
330
747D
100
AcDbEntity
  8
寸法
100
AcDbDimension
  2
*D24
 10
7739.729674067534
 20
2354.800454890554
 30
0.0
 11
7739.729674067534
 21
2048.753210796063
 31
0.0
 70
   160
 71
     5
 42
50.0
  3
INABA_S40G
100
AcDbAlignedDimension
 13
8363.382383225831
 23
2404.800454890554
 33
0.0
 14
8308.382383225831
 24
2354.800454890554
 34
0.0
 50
90.0
100
AcDbRotatedDimension
1001
ACAD
1000
DSTYLE
1002
{
1070
   174
1070
     0
1070
   272
1070
     1
1070
   288
1070
     0
1070
   341
1005
0
1002
}
  0
DIMENSION
  5
1706E
330
747D
100
AcDbEntity
  8
寸法
100
AcDbDimension
  2
*D25
 10
7454.743001296474
 20
2254.800454890554
 30
0.0
 11
7454.743001296472
 21
2018.753210796063
 31
0.0
 70
   160
 71
     5
 42
100.0
  3
INABA_S40G
100
AcDbAlignedDimension
 13
8308.382383225831
 23
2354.800454890554
 33
0.0
 14
7739.729674067534
 24
2254.800454890554
 34
0.0
 50
90.0
100
AcDbRotatedDimension
1001
ACAD
1000
DSTYLE
1002
{
1070
   174
1070
     0
1070
   272
1070
     1
1070
   288
1070
     0
1070
   341
1005
0
1002
}
  0
TEXT
  5
1706F
330
747D
100
AcDbEntity
  8
部品1
 48
50.0
100
AcDbText
 10
10029.96338518693
 20
4752.069547828861
 30
0.0
 40
120.0
  1
37
 50
90.0
  7
STYLE1
100
AcDbText
  0
TEXT
  5
17070
330
747D
100
AcDbEntity
  8
部品1
 48
50.0
100
AcDbText
 10
9552.330362521841
 20
4889.570806047144
 30
0.0
 40
120.0
  1
1000
  7
STYLE1
100
AcDbText
  0
LINE
  5
17071
330
747D
100
AcDbEntity
  8
部品1
 48
50.0
100
AcDbLine
 10
9864.062527298113
 20
4853.686783894711
 30
0.0
 11
9864.062527298113
 21
4837.486783894711
 31
0.0
  0
LINE
  5
17072
330
747D
100
AcDbEntity
  8
部品1
 48
50.0
100
AcDbLine
 10
9564.062527298112
 20
4853.686783894711
 30
0.0
 11
9864.062527298113
 21
4853.686783894711
 31
0.0
  0
LINE
  5
17073
330
747D
100
AcDbEntity
  8
部品1
100
AcDbLine
 10
9538.607513655076
 20
4855.004842853571
 30
0.0
 11
9864.062527298113
 21
4837.486783894711
 31
0.0
  0
LINE
  5
17074
330
747D
100
AcDbEntity
  8
部品1
100
AcDbLine
 10
8310.927369582797
 20
4728.518190224821
 30
0.0
 11
11065.9942600873
 21
4673.441252599692
 31
0.0
  0
LINE
  5
17075
330
747D
100
AcDbEntity
  8
部品1
100
AcDbLine
 10
8318.724947827787
 20
4587.581479959521
 30
0.0
 11
11048.04608376569
 21
4548.553054725315
 31
0.0
  0
LINE
  5
17076
330
747D
100
AcDbEntity
  8
細線
 48
50.0
100
AcDbLine
 10
8304.421806326649
 20
4700.817536731916
 30
0.0
 11
11070.05779107182
 21
4645.193332091086
 31
0.0
  0
LINE
  5
17077
330
747D
100
AcDbEntity
  8
細線
 48
50.0
100
AcDbLine
 10
8309.182281563936
 20
4607.956025034051
 30
0.0
 11
11059.18594599458
 21
4568.146706059558
 31
0.0
  0
LINE
  5
17078
330
747D
100
AcDbEntity
  8
細線
 48
50.0
100
AcDbLine
 10
8336.382383225835
 20
4727.200131265959
 30
0.0
 11
8331.093281670328
 21
4587.114498638604
 31
0.0
  0
LINE
  5
17079
330
747D
100
AcDbEntity
  8
部品1
 48
50.0
100
AcDbLine
 10
8303.566669138943
 20
4721.394001055247
 30
0.0
 11
8303.946928916754
 21
4701.467036608836
 31
0.0
  0
LINE
  5
1707A
330
747D
100
AcDbEntity
  8
部品1
 48
50.0
100
AcDbLine
 10
8307.015701022999
 20
4697.891755115363
 30
0.0
 11
8308.719602514363
 21
4608.601258408715
 31
0.0
  0
LINE
  5
1707B
330
747D
100
AcDbEntity
  8
部品1
 48
50.0
100
AcDbLine
 10
8311.788374620606
 20
4605.025976915243
 30
0.0
 11
8311.990327241039
 21
4594.442941522151
 31
0.0
  0
ARC
  5
1707C
330
747D
100
AcDbEntity
  8
部品1
 48
50.0
100
AcDbCircle
 10
8310.565394967282
 20
4721.527555462674
 30
0.0
 40
7.0
100
AcDbArc
 50
87.03587545283093
 51
181.0932240293156
  0
ARC
  5
1707D
330
747D
100
AcDbEntity
  8
部品1
 48
50.0
100
AcDbCircle
 10
8318.989053069378
 20
4594.576495929579
 30
0.0
 40
7.0
100
AcDbArc
 50
181.0932240293156
 51
267.8377559869489
  0
ARC
  5
1707E
330
747D
100
AcDbEntity
  8
部品1
100
AcDbCircle
 10
8308.788920694176
 20
4604.96873931206
 30
0.0
 40
3.0
100
AcDbArc
 50
1.093224029315636
 51
80.18775403169765
  0
ARC
  5
1707F
330
747D
100
AcDbEntity
  8
部品1
100
AcDbCircle
 10
8304.016247096569
 20
4697.83451751218
 30
0.0
 40
3.0
100
AcDbArc
 50
1.093224029315636
 51
80.18775403169765
  0
ARC
  5
17080
330
747D
100
AcDbEntity
  8
部品1
100
AcDbCircle
 10
8304.646801499592
 20
4701.480392049576
 30
0.0
 40
0.7
100
AcDbArc
 50
181.0932240292114
 51
260.1877540314855
  0
ARC
  5
17081
330
747D
100
AcDbEntity
  8
部品1
100
AcDbCircle
 10
8309.419475097202
 20
4608.614613849459
 30
0.0
 40
0.7
100
AcDbArc
 50
181.0932240292114
 51
260.1877540314855
  0
LINE
  5
17082
330
747D
100
AcDbEntity
  8
細線
 48
50.0
100
AcDbLine
 10
11040.35166641953
 20
4673.953877370022
 30
0.0
 11
11035.63470033784
 21
4549.021661435107
 31
0.0
  0
LINE
  5
17083
330
747D
100
AcDbEntity
  8
部品1
 48
50.0
100
AcDbLine
 10
11072.59628603654
 20
4665.741607164773
 30
0.0
 11
11070.56566484557
 21
4645.796565906993
 31
0.0
  0
LINE
  5
17084
330
747D
100
AcDbEntity
  8
部品1
 48
50.0
100
AcDbLine
 10
11067.21309836109
 20
4642.485931834084
 30
0.0
 11
11059.70631909625
 21
4568.753311089072
 31
0.0
  0
LINE
  5
17085
330
747D
100
AcDbEntity
  8
部品1
 48
50.0
100
AcDbLine
 10
11056.35375261176
 20
4565.442677016159
 30
0.0
 11
11055.27418957202
 21
4554.839060022601
 31
0.0
  0
ARC
  5
17086
330
747D
100
AcDbEntity
  8
部品1
 48
50.0
100
AcDbCircle
 10
11065.63228547178
 20
4666.450617837549
 30
0.0
 40
7.0
100
AcDbArc
 50
354.1866997665596
 51
87.03587545283093
  0
ARC
  5
17087
330
747D
100
AcDbEntity
  8
部品1
 48
50.0
100
AcDbCircle
 10
11048.31018900727
 20
4555.548070695375
 30
0.0
 40
7.0
100
AcDbArc
 50
267.8377559869489
 51
354.1866997665596
  0
ARC
  5
17088
330
747D
100
AcDbEntity
  8
部品1
100
AcDbCircle
 10
11059.33832428237
 20
4565.138815299256
 30
0.0
 40
3.0
100
AcDbArc
 50
95.0921697642102
 51
174.1866997665596
  0
ARC
  5
17089
330
747D
100
AcDbEntity
  8
部品1
100
AcDbCircle
 10
11070.1976700317
 20
4642.182070117182
 30
0.0
 40
3.0
100
AcDbArc
 50
95.0921697642102
 51
174.1866997665596
  0
ARC
  5
1708A
330
747D
100
AcDbEntity
  8
部品1
100
AcDbCircle
 10
11069.86926478909
 20
4645.86746697427
 30
0.0
 40
0.7
100
AcDbArc
 50
275.0921697642102
 51
354.1866997665596
  0
ARC
  5
1708B
330
747D
100
AcDbEntity
  8
部品1
100
AcDbCircle
 10
11059.00991903977
 20
4568.824212156346
 30
0.0
 40
0.7
100
AcDbArc
 50
275.0921697642102
 51
354.1866997667606
  0
DIMENSION
  5
1708C
330
747D
100
AcDbEntity
  8
寸法
 48
50.0
100
AcDbDimension
  2
*D26
 10
11073.38238322583
 20
5128.457908469859
 30
0.0
 11
11279.42962732032
 21
5128.457908469859
 31
0.0
 70
   160
 71
     5
 42
80.0
  3
INABA_S40G
100
AcDbAlignedDimension
 13
10993.38238322583
 23
4676.611134502208
 33
0.0
 14
11073.38238322583
 24
4674.800454890555
 34
0.0
100
AcDbRotatedDimension
1001
ACAD
1000
DSTYLE
1002
{
1070
   174
1070
     0
1070
   272
1070
     1
1070
   288
1070
     0
1070
   341
1005
0
1002
}
  0
DIMENSION
  5
1708D
330
747D
100
AcDbEntity
  8
寸法
 48
50.0
100
AcDbDimension
  2
*D27
 10
8303.382383225835
 20
5348.668595201476
 30
0.0
 11
9706.741308113212
 21
5348.668595201476
 31
0.0
 70
   160
 71
     5
 42
2770.0
  3
INABA_S40G
100
AcDbAlignedDimension
 13
11073.38238322583
 23
4674.800454890555
 33
0.0
 14
8303.382383225835
 24
4729.800454890558
 34
0.0
100
AcDbRotatedDimension
1001
ACAD
1000
DSTYLE
1002
{
1070
   174
1070
     0
1070
   272
1070
     1
1070
   288
1070
     0
1070
   341
1005
0
1002
}
  0
DIMENSION
  5
1708E
330
747D
100
AcDbEntity
  8
寸法
 48
50.0
100
AcDbDimension
  2
*D28
 10
8363.382383225836
 20
5128.457908469859
 30
0.0
 11
9718.152574255029
 21
5128.457908469859
 31
0.0
 70
   160
  1
柱外寸法<>
 71
     5
 42
2630.0
  3
INABA_S40G
100
AcDbAlignedDimension
 13
10993.38238322583
 23
4676.611134502208
 33
0.0
 14
8363.382383225836
 24
4725.802073013531
 34
0.0
100
AcDbRotatedDimension
1001
ACAD
1000
DSTYLE
1002
{
1070
   174
1070
     0
1070
   272
1070
     1
1070
   288
1070
     0
1070
   341
1005
0
1002
}
  0
DIMENSION
  5
1708F
330
747D
100
AcDbEntity
  8
寸法
 48
50.0
100
AcDbDimension
  2
*D29
 10
8303.382383225835
 20
5128.457908469858
 30
0.0
 11
7993.744587950245
 21
5128.457908469858
 31
0.0
 70
   160
 71
     5
 42
60.0
  3
INABA_S40G
100
AcDbAlignedDimension
 13
8363.382383225836
 23
4725.802073013531
 33
0.0
 14
8303.382383225835
 24
4729.800454890558
 34
0.0
100
AcDbRotatedDimension
1001
ACAD
1000
DSTYLE
1002
{
1070
   174
1070
     0
1070
   272
1070
     1
1070
   288
1070
     0
1070
   341
1005
0
1002
}
  0
LINE
  5
17351
330
747D
100
AcDbEntity
  8
補助
  6
PHANTOM
 62
   230
 48
50.0
100
AcDbLine
 10
140.0
 20
0.0
 30
0.0
 11
140.0
 21
11409.6
 31
0.0
  0
LINE
  5
17668
330
747D
100
AcDbEntity
  8
部品1
 48
50.0
100
AcDbLine
 10
8885.382383225833
 20
3486.300454890556
 30
0.0
 11
8938.382383225834
 21
3486.300454890556
 31
0.0
  0
MTEXT
  5
177C6
330
747D
100
AcDbEntity
  8
寸法
 62
     7
 48
50.0
100
AcDbMText
 10
9043.484920318951
 20
8979.525438533016
 30
0.0
 40
96.0
 41
0.0
 71
     5
 72
     1
  1
棚 3段
  7
STYLE1
 73
     1
 44
1.0
1001
ACAD
1000
MTEXTBEGIN
1070
    73
1070
     1
1070
    44
1040
1.0
1070
    74
1070
     0
1000
MTEXTEND
  0
LINE
  5
178AE
330
747D
100
AcDbEntity
  8
寸法
 48
50.0
100
AcDbLine
 10
9273.585389507655
 20
7381.327371904458
 30
0.0
 11
9222.17938159755
 21
7381.327371904458
 31
0.0
  0
LINE
  5
178AF
330
747D
100
AcDbEntity
  8
寸法
 48
50.0
100
AcDbLine
 10
9222.17938159755
 20
7381.327371904458
 30
0.0
 11
9222.17938159755
 21
7412.637530556624
 31
0.0
  0
LINE
  5
178B0
330
747D
100
AcDbEntity
  8
寸法
 48
50.0
100
AcDbLine
 10
9222.17938159755
 20
7412.637530556624
 30
0.0
 11
9192.418049606127
 21
7412.637530556624
 31
0.0
  0
LINE
  5
178B1
330
747D
100
AcDbEntity
  8
寸法
 48
50.0
100
AcDbLine
 10
9192.418049606127
 20
7412.637530556624
 30
0.0
 11
9247.882385552603
 21
7450.216981485233
 31
0.0
  0
LINE
  5
178B2
330
747D
100
AcDbEntity
  8
寸法
 48
50.0
100
AcDbLine
 10
9303.346721499078
 20
7412.637530556624
 30
0.0
 11
9247.882385552603
 21
7450.216981485233
 31
0.0
  0
LINE
  5
178B3
330
747D
100
AcDbEntity
  8
寸法
 48
50.0
100
AcDbLine
 10
9273.585389507655
 20
7412.637530556624
 30
0.0
 11
9303.346721499078
 21
7412.637530556624
 31
0.0
  0
LINE
  5
178B4
330
747D
100
AcDbEntity
  8
寸法
 48
50.0
100
AcDbLine
 10
9273.585389507655
 20
7381.327371904458
 30
0.0
 11
9273.585389507655
 21
7412.637530556624
 31
0.0
  0
LINE
  5
178B5
330
747D
100
AcDbEntity
  8
寸法
 48
50.0
100
AcDbLine
 10
9222.17938159755
 20
7381.327371904458
 30
0.0
 11
9273.585389507655
 21
7381.327371904458
 31
0.0
  0
LINE
  5
178B6
330
747D
100
AcDbEntity
  8
寸法
 48
50.0
100
AcDbLine
 10
9552.750923784513
 20
7438.47296265928
 30
0.0
 11
9552.750923784513
 21
7384.809328077491
 31
0.0
  0
LINE
  5
178B7
330
747D
100
AcDbEntity
  8
寸法
 48
50.0
100
AcDbLine
 10
9642.035142379933
 20
7414.549328389795
 30
0.0
 11
9552.750923784513
 21
7438.47296265928
 31
0.0
  0
LINE
  5
178B8
330
747D
100
AcDbEntity
  8
寸法
 48
50.0
100
AcDbLine
 10
9422.883202204209
 20
7414.549328389795
 30
0.0
 11
9642.035142379933
 21
7414.549328389795
 31
0.0
  0
LINE
  5
178B9
330
747D
100
AcDbEntity
  8
細線
 48
50.0
100
AcDbLine
 10
10299.38238322581
 20
7579.790735284319
 30
0.0
 11
10926.38238322581
 21
7579.790735284319
 31
0.0
  0
LINE
  5
178BA
330
747D
100
AcDbEntity
  8
細線
 48
50.0
100
AcDbLine
 10
9645.382387879401
 20
7546.081966730245
 30
0.0
 11
10926.38238322581
 21
7546.081966730245
 31
0.0
  0
LINE
  5
178BB
330
747D
100
AcDbEntity
  8
細線
 48
50.0
100
AcDbLine
 10
9604.382387879404
 20
7575.486874726498
 30
0.0
 11
8850.382383225809
 21
7575.486874726493
 31
0.0
  0
LINE
  5
178BC
330
747D
100
AcDbEntity
  8
細線
100
AcDbLine
 10
10702.13237380935
 20
7599.290635249328
 30
0.0
 11
10704.46391333116
 21
7604.290637889289
 31
0.0
  0
LINE
  5
178BD
330
747D
100
AcDbEntity
  8
細線
100
AcDbLine
 10
10772.13238322581
 20
7599.290620335594
 30
0.0
 11
10769.80083674962
 21
7604.290637889275
 31
0.0
  0
LINE
  5
178BE
330
747D
100
AcDbEntity
  8
細線
100
AcDbLine
 10
10769.80083674962
 20
7604.290637889275
 30
0.0
 11
10704.46391333115
 21
7604.290637889261
 31
0.0
  0
LINE
  5
178BF
330
747D
100
AcDbEntity
  8
細線
100
AcDbLine
 10
10629.80083674962
 20
7604.290637889275
 30
0.0
 11
10564.46391333115
 21
7604.290637889261
 31
0.0
  0
LINE
  5
178C0
330
747D
100
AcDbEntity
  8
細線
100
AcDbLine
 10
10632.13238322581
 20
7599.290620335594
 30
0.0
 11
10629.80083674962
 21
7604.290637889275
 31
0.0
  0
LINE
  5
178C1
330
747D
100
AcDbEntity
  8
細線
100
AcDbLine
 10
10562.13237380935
 20
7599.290635249328
 30
0.0
 11
10564.46391333116
 21
7604.290637889289
 31
0.0
  0
LINE
  5
178C2
330
747D
100
AcDbEntity
  8
細線
100
AcDbLine
 10
10422.13238322581
 20
7599.290620335594
 30
0.0
 11
10424.46392274762
 21
7604.290622975556
 31
0.0
  0
LINE
  5
178C3
330
747D
100
AcDbEntity
  8
細線
100
AcDbLine
 10
10492.13239264227
 20
7599.29060542186
 30
0.0
 11
10489.80084616608
 21
7604.290622975542
 31
0.0
  0
LINE
  5
178C4
330
747D
100
AcDbEntity
  8
細線
100
AcDbLine
 10
10489.80084616608
 20
7604.290622975542
 30
0.0
 11
10424.46392274761
 21
7604.290622975526
 31
0.0
  0
LINE
  5
178C5
330
747D
100
AcDbEntity
  8
細線
100
AcDbLine
 10
10194.55086741491
 20
7570.290659672922
 30
0.0
 11
10129.21394399644
 21
7570.290659672908
 31
0.0
  0
LINE
  5
178C6
330
747D
100
AcDbEntity
  8
細線
100
AcDbLine
 10
10196.8824138911
 20
7565.290642119243
 30
0.0
 11
10194.55086741491
 21
7570.290659672922
 31
0.0
  0
LINE
  5
178C7
330
747D
100
AcDbEntity
  8
細線
100
AcDbLine
 10
10126.88240447465
 20
7565.290657032976
 30
0.0
 11
10129.21394399645
 21
7570.290659672938
 31
0.0
  0
LINE
  5
178C8
330
747D
100
AcDbEntity
  8
細線
 48
50.0
100
AcDbLine
 10
9968.265762473825
 20
7583.561483488676
 30
0.0
 11
9974.021280056492
 21
7565.290632198188
 31
0.0
  0
LINE
  5
178C9
330
747D
100
AcDbEntity
  8
細線
 48
50.0
100
AcDbLine
 10
9957.337313993393
 20
7583.561483488676
 30
0.0
 11
9968.265762473825
 21
7583.561483488676
 31
0.0
  0
ARC
  5
178CA
330
747D
100
AcDbEntity
  8
細線
 48
50.0
100
AcDbCircle
 10
9951.882957936073
 20
7585.061483488674
 30
0.0
 40
5.0
100
AcDbArc
 50
204.6243183521304
 51
335.3756816478695
  0
ARC
  5
178CB
330
747D
100
AcDbEntity
  8
細線
 48
50.0
100
AcDbCircle
 10
9957.337313993393
 20
7582.561483488674
 30
0.0
 40
1.0
100
AcDbArc
 50
90.0
 51
155.3756816478695
  0
ARC
  5
178CC
330
747D
100
AcDbEntity
  8
細線
 48
50.0
100
AcDbCircle
 10
9946.428601878757
 20
7582.561483488674
 30
0.0
 40
1.0
100
AcDbArc
 50
24.62431835213048
 51
90.0
  0
LINE
  5
178CD
330
747D
100
AcDbEntity
  8
細線
 48
50.0
100
AcDbLine
 10
9935.500153398322
 20
7583.561483488676
 30
0.0
 11
9946.428601878757
 21
7583.561483488676
 31
0.0
  0
LINE
  5
178CE
330
747D
100
AcDbEntity
  8
細線
 48
50.0
100
AcDbLine
 10
9929.744635815657
 20
7565.290632198181
 30
0.0
 11
9935.500153398322
 21
7583.561483488676
 31
0.0
  0
LINE
  5
178CF
330
747D
100
AcDbEntity
  8
細線
100
AcDbLine
 10
9986.882405705689
 20
7565.290629563985
 30
0.0
 11
9989.213945227501
 21
7570.290632203946
 31
0.0
  0
LINE
  5
178D0
330
747D
100
AcDbEntity
  8
細線
100
AcDbLine
 10
10056.88241512215
 20
7565.290614650251
 30
0.0
 11
10054.55086864596
 21
7570.290632203931
 31
0.0
  0
LINE
  5
178D1
330
747D
100
AcDbEntity
  8
細線
100
AcDbLine
 10
10054.55086864596
 20
7570.290632203931
 30
0.0
 11
9989.213945227486
 21
7570.290632203917
 31
0.0
  0
LINE
  5
178D2
330
747D
100
AcDbEntity
  8
細線
100
AcDbLine
 10
9914.550840281442
 20
7570.290632198151
 30
0.0
 11
9849.213916862966
 21
7570.290632198137
 31
0.0
  0
LINE
  5
178D3
330
747D
100
AcDbEntity
  8
細線
100
AcDbLine
 10
9916.882386757629
 20
7565.290614644471
 30
0.0
 11
9914.550840281442
 21
7570.290632198151
 31
0.0
  0
LINE
  5
178D4
330
747D
100
AcDbEntity
  8
細線
100
AcDbLine
 10
9846.882378572212
 20
7565.290632198181
 30
0.0
 11
9849.21391686298
 21
7570.290632198167
 31
0.0
  0
LINE
  5
178D5
330
747D
100
AcDbEntity
  8
細線
100
AcDbLine
 10
9706.882413891104
 20
7565.290640385551
 30
0.0
 11
9709.213952181872
 21
7570.290640385536
 31
0.0
  0
LINE
  5
178D6
330
747D
100
AcDbEntity
  8
細線
100
AcDbLine
 10
9776.88242207652
 20
7565.290622831842
 30
0.0
 11
9774.550875600333
 21
7570.290640385518
 31
0.0
  0
LINE
  5
178D7
330
747D
100
AcDbEntity
  8
細線
100
AcDbLine
 10
9774.550875600333
 20
7570.290640385518
 30
0.0
 11
9709.213952181858
 21
7570.290640385507
 31
0.0
  0
LINE
  5
178D8
330
747D
100
AcDbEntity
  8
細線
100
AcDbLine
 10
9335.382379693983
 20
7531.290812066264
 30
0.0
 11
9337.71391798475
 21
7536.290812066248
 31
0.0
  0
LINE
  5
178D9
330
747D
100
AcDbEntity
  8
細線
100
AcDbLine
 10
9405.382387879399
 20
7531.29079451255
 30
0.0
 11
9403.050841403212
 21
7536.290812066226
 31
0.0
  0
LINE
  5
178DA
330
747D
100
AcDbEntity
  8
細線
100
AcDbLine
 10
9403.050841403212
 20
7536.290812066226
 30
0.0
 11
9337.713917984741
 21
7536.290812066219
 31
0.0
  0
LINE
  5
178DB
330
747D
100
AcDbEntity
  8
細線
100
AcDbLine
 10
9543.050841403212
 20
7536.290812066226
 30
0.0
 11
9477.71391798474
 21
7536.290812066219
 31
0.0
  0
LINE
  5
178DC
330
747D
100
AcDbEntity
  8
細線
100
AcDbLine
 10
9545.382387879399
 20
7531.29079451255
 30
0.0
 11
9543.050841403212
 21
7536.290812066226
 31
0.0
  0
LINE
  5
178DD
330
747D
100
AcDbEntity
  8
細線
100
AcDbLine
 10
9475.382379693984
 20
7531.290812066264
 30
0.0
 11
9477.71391798475
 21
7536.290812066248
 31
0.0
  0
LINE
  5
178DE
330
747D
100
AcDbEntity
  8
細線
100
AcDbLine
 10
9263.050841403211
 20
7536.290812066226
 30
0.0
 11
9197.71391798474
 21
7536.290812066216
 31
0.0
  0
LINE
  5
178DF
330
747D
100
AcDbEntity
  8
細線
100
AcDbLine
 10
9265.3823878794
 20
7531.29079451255
 30
0.0
 11
9263.050841403211
 21
7536.290812066226
 31
0.0
  0
LINE
  5
178E0
330
747D
100
AcDbEntity
  8
細線
100
AcDbLine
 10
9195.382379693983
 20
7531.290812066259
 30
0.0
 11
9197.713917984751
 21
7536.290812066245
 31
0.0
  0
LINE
  5
178E1
330
747D
100
AcDbEntity
  8
細線
100
AcDbLine
 10
9055.382387879399
 20
7531.290812066264
 30
0.0
 11
9057.713926170167
 21
7536.290812066248
 31
0.0
  0
LINE
  5
178E2
330
747D
100
AcDbEntity
  8
細線
100
AcDbLine
 10
9125.382396064814
 20
7531.29079451255
 30
0.0
 11
9123.050849588627
 21
7536.290812066226
 31
0.0
  0
LINE
  5
178E3
330
747D
100
AcDbEntity
  8
細線
100
AcDbLine
 10
9123.050849588627
 20
7536.290812066226
 30
0.0
 11
9057.713926170157
 21
7536.290812066219
 31
0.0
  0
ARC
  5
178E4
330
747D
100
AcDbEntity
  8
部品1
 48
0.01
100
AcDbCircle
 10
9010.882276627064
 20
7530.289689881191
 30
0.0
 40
0.5
100
AcDbArc
 50
270.0
 51
0.0
  0
LINE
  5
178E5
330
747D
100
AcDbEntity
  8
部品1
 48
0.01
100
AcDbLine
 10
9011.382276627065
 20
7531.28968988119
 30
0.0
 11
9011.382276627065
 21
7530.289689881191
 31
0.0
  0
LINE
  5
178E6
330
747D
100
AcDbEntity
  8
部品1
 48
0.01
100
AcDbLine
 10
9011.382276627065
 20
7531.28968988119
 30
0.0
 11
9011.382276627065
 21
7530.289689881191
 31
0.0
  0
LINE
  5
178E7
330
747D
100
AcDbEntity
  8
部品1
 48
0.01
100
AcDbLine
 10
9010.882276627064
 20
7529.789689881191
 30
0.0
 11
9004.269771197
 21
7529.789689881191
 31
0.0
  0
ARC
  5
178E8
330
747D
100
AcDbEntity
  8
部品1
100
AcDbCircle
 10
9004.33812074978
 20
7530.78968988119
 30
0.0
 40
1.0
100
AcDbArc
 50
160.5287793655778
 51
270.0
  0
ARC
  5
178E9
330
747D
100
AcDbEntity
  8
部品1
100
AcDbCircle
 10
8978.882276627064
 20
7539.789689881191
 30
0.0
 40
26.0
100
AcDbArc
 50
340.5287793655779
 51
0.0
  0
LINE
  5
178EA
330
747D
100
AcDbEntity
  8
部品1
100
AcDbLine
 10
9004.882276627064
 20
7539.789689881191
 30
0.0
 11
9004.882276627064
 21
7544.789689881191
 31
0.0
  0
ARC
  5
178EB
330
747D
100
AcDbEntity
  8
部品1
 48
0.01
100
AcDbCircle
 10
9002.882276627063
 20
7544.789689881191
 30
0.0
 40
2.0
100
AcDbArc
 50
0.0
 51
90.0
  0
ARC
  5
178EC
330
747D
100
AcDbEntity
  8
部品1
100
AcDbCircle
 10
9001.273885002254
 20
7543.78968988119
 30
0.0
 40
3.0
100
AcDbArc
 50
90.0
 51
141.6069559807873
  0
LINE
  5
178ED
330
747D
100
AcDbEntity
  8
部品1
 48
0.01
100
AcDbLine
 10
9002.882276627063
 20
7546.78968988119
 30
0.0
 11
9001.273885002254
 21
7546.78968988119
 31
0.0
  0
ARC
  5
178EE
330
747D
100
AcDbEntity
  8
部品1
100
AcDbCircle
 10
8982.811562412793
 20
7543.089689881194
 30
0.0
 40
3.0
100
AcDbArc
 50
254.0576313943215
 51
270.0
  0
ARC
  5
178EF
330
747D
100
AcDbEntity
  8
部品1
100
AcDbCircle
 10
8989.952990841336
 20
7543.089689881194
 30
0.0
 40
3.0
100
AcDbArc
 50
270.0
 51
285.9423686056786
  0
LINE
  5
178F0
330
747D
100
AcDbEntity
  8
部品1
100
AcDbLine
 10
8989.952990841336
 20
7540.089689881193
 30
0.0
 11
8982.811562412793
 21
7540.089689881193
 31
0.0
  0
ARC
  5
178F1
330
747D
100
AcDbEntity
  8
部品1
100
AcDbCircle
 10
8986.382276627065
 20
7555.589689881194
 30
0.0
 40
16.0
100
AcDbArc
 50
285.9423686056786
 51
321.6069559807873
  0
LINE
  5
178F2
330
747D
100
AcDbEntity
  8
部品1
 48
0.01
100
AcDbLine
 10
8969.882276627064
 20
7546.78968988119
 30
0.0
 11
8971.490668251874
 21
7546.78968988119
 31
0.0
  0
ARC
  5
178F3
330
747D
100
AcDbEntity
  8
部品1
100
AcDbCircle
 10
8971.490668251874
 20
7543.78968988119
 30
0.0
 40
3.0
100
AcDbArc
 50
38.39304401921267
 51
90.0
  0
ARC
  5
178F4
330
747D
100
AcDbEntity
  8
部品1
100
AcDbCircle
 10
8986.382276627065
 20
7555.589689881194
 30
0.0
 40
16.0
100
AcDbArc
 50
218.3930440192126
 51
254.0576313943215
  0
LINE
  5
178F5
330
747D
100
AcDbEntity
  8
部品1
100
AcDbLine
 10
8967.882276627063
 20
7539.789689881191
 30
0.0
 11
8967.882276627063
 21
7544.789689881191
 31
0.0
  0
ARC
  5
178F6
330
747D
100
AcDbEntity
  8
部品1
 48
0.01
100
AcDbCircle
 10
8969.882276627064
 20
7544.789689881191
 30
0.0
 40
2.0
100
AcDbArc
 50
90.0
 51
180.0
  0
ARC
  5
178F7
330
747D
100
AcDbEntity
  8
部品1
100
AcDbCircle
 10
8993.882276627065
 20
7539.789689881191
 30
0.0
 40
26.0
100
AcDbArc
 50
180.0
 51
199.4712206344221
  0
ARC
  5
178F8
330
747D
100
AcDbEntity
  8
部品1
 48
0.01
100
AcDbCircle
 10
8961.882276627063
 20
7530.289689881191
 30
0.0
 40
0.5
100
AcDbArc
 50
180.0
 51
270.0
  0
LINE
  5
178F9
330
747D
100
AcDbEntity
  8
部品1
 48
0.01
100
AcDbLine
 10
8961.882276627063
 20
7529.789689881191
 30
0.0
 11
8968.426432504349
 21
7529.789689881191
 31
0.0
  0
LINE
  5
178FA
330
747D
100
AcDbEntity
  8
部品1
 48
0.01
100
AcDbLine
 10
8961.382276627064
 20
7531.28968988119
 30
0.0
 11
8961.382276627064
 21
7530.289689881191
 31
0.0
  0
ARC
  5
178FB
330
747D
100
AcDbEntity
  8
部品1
100
AcDbCircle
 10
8968.426432504349
 20
7530.78968988119
 30
0.0
 40
1.0
100
AcDbArc
 50
270.0
 51
19.47122063442214
  0
LINE
  5
178FC
330
747D
100
AcDbEntity
  8
細線
100
AcDbLine
 10
9006.882276627072
 20
7549.289689881195
 30
0.0
 11
8965.882276627072
 21
7549.289689881186
 31
0.0
  0
LINE
  5
178FD
330
747D
100
AcDbEntity
  8
細線
100
AcDbLine
 10
8965.882276627072
 20
7549.289689881186
 30
0.0
 11
8965.882276627072
 21
7531.289689881169
 31
0.0
  0
LINE
  5
178FE
330
747D
100
AcDbEntity
  8
細線
100
AcDbLine
 10
9006.882276627072
 20
7549.289689881195
 30
0.0
 11
9006.882276627072
 21
7531.289689881169
 31
0.0
  0
LINE
  5
178FF
330
747D
100
AcDbEntity
  8
細線
100
AcDbLine
 10
8850.382383225809
 20
7535.290620335594
 30
0.0
 11
8850.382383225809
 21
7531.290620335642
 31
0.0
  0
DIMENSION
  5
17900
330
747D
100
AcDbEntity
  8
寸法
 48
50.0
100
AcDbDimension
  2
*D30
 10
10116.38238322581
 20
6861.765999941818
 30
0.0
 11
9512.433672128187
 21
6861.765999941818
 31
0.0
 70
   160
  1
有効開口部間口\P<>
 71
     5
 42
1266.0
  3
INABA_S40
100
AcDbAlignedDimension
 13
8850.382383225809
 23
7526.290620335593
 33
0.0
 14
10116.38238322581
 24
7526.290620335593
 34
0.0
100
AcDbRotatedDimension
1001
ACAD
1000
DSTYLE
1002
{
1070
    41
1040
0.5
1070
    44
1040
1.0
1070
   147
1040
0.8
1070
   271
1070
     2
1070
   272
1070
     2
1070
   289
1070
     3
1070
   340
1005
F706
1070
   343
1005
169B5
1070
   344
1005
169B5
1002
}
  0
LINE
  5
17901
330
747D
100
AcDbEntity
  8
部品1
100
AcDbLine
 10
10938.38238322581
 20
7603.290620335595
 30
0.0
 11
10965.38238322581
 21
7603.290620335595
 31
0.0
  0
LINE
  5
17903
330
747D
100
AcDbEntity
  8
部品1
100
AcDbLine
 10
10965.38238322581
 20
7526.290620335593
 30
0.0
 11
10965.38238322581
 21
7603.290620335595
 31
0.0
  0
LINE
  5
17904
330
747D
100
AcDbEntity
  8
部品1
100
AcDbLine
 10
10926.38238322581
 20
7599.290620335594
 30
0.0
 11
10938.38238322581
 21
7599.290620335594
 31
0.0
  0
LINE
  5
17905
330
747D
100
AcDbEntity
  8
部品1
100
AcDbLine
 10
10935.38238322581
 20
7535.290620335594
 30
0.0
 11
10935.38238322581
 21
7526.290620335593
 31
0.0
  0
LINE
  5
17906
330
747D
100
AcDbEntity
  8
部品1
100
AcDbLine
 10
10926.38238322581
 20
7535.290620335594
 30
0.0
 11
10935.38238322581
 21
7535.290620335594
 31
0.0
  0
LINE
  5
17907
330
747D
100
AcDbEntity
  8
部品1
100
AcDbLine
 10
10926.38238322581
 20
7599.290620335594
 30
0.0
 11
10926.38238322581
 21
7535.290620335594
 31
0.0
  0
LINE
  5
17908
330
747D
100
AcDbEntity
  8
部品1
100
AcDbLine
 10
10938.38238322581
 20
7630.290620335594
 30
0.0
 11
10938.38238322581
 21
7599.290620335594
 31
0.0
  0
LINE
  5
17909
330
747D
100
AcDbEntity
  8
部品1
100
AcDbLine
 10
8850.382383225809
 20
7599.290620335594
 30
0.0
 11
8838.382383225811
 21
7599.290620335594
 31
0.0
  0
LINE
  5
1790A
330
747D
100
AcDbEntity
  8
部品1
100
AcDbLine
 10
8811.38238322581
 20
7603.290620335595
 30
0.0
 11
8838.382383225811
 21
7603.290620335595
 31
0.0
  0
LINE
  5
1790B
330
747D
100
AcDbEntity
  8
部品1
100
AcDbLine
 10
8841.382383225811
 20
7535.290620335594
 30
0.0
 11
8841.382383225811
 21
7526.290620335593
 31
0.0
  0
LINE
  5
1790C
330
747D
100
AcDbEntity
  8
部品1
100
AcDbLine
 10
8850.382383225809
 20
7535.290620335594
 30
0.0
 11
8841.382383225811
 21
7535.290620335594
 31
0.0
  0
LINE
  5
1790D
330
747D
100
AcDbEntity
  8
部品1
100
AcDbLine
 10
8841.382383225811
 20
7526.290620335593
 30
0.0
 11
8811.38238322581
 21
7526.290620335593
 31
0.0
  0
LINE
  5
1790E
330
747D
100
AcDbEntity
  8
部品1
100
AcDbLine
 10
8811.38238322581
 20
7526.290620335593
 30
0.0
 11
8811.38238322581
 21
7603.290620335595
 31
0.0
  0
LINE
  5
1790F
330
747D
100
AcDbEntity
  8
部品1
100
AcDbLine
 10
8850.382383225809
 20
7599.290620335594
 30
0.0
 11
8850.382383225809
 21
7535.290620335594
 31
0.0
  0
LINE
  5
17910
330
747D
100
AcDbEntity
  8
部品1
100
AcDbLine
 10
8838.382383225811
 20
7630.29062033559
 30
0.0
 11
8838.382383225811
 21
7599.290620335594
 31
0.0
  0
LINE
  5
17911
330
747D
100
AcDbEntity
  8
部品1
100
AcDbLine
 10
8838.382383225811
 20
7630.29062033559
 30
0.0
 11
10938.38238322581
 21
7630.290620335594
 31
0.0
  0
LINE
  5
17912
330
747D
100
AcDbEntity
  8
部品1
100
AcDbLine
 10
10935.38238322581
 20
7526.290620335593
 30
0.0
 11
10965.38238322581
 21
7526.290620335593
 31
0.0
  0
LINE
  5
17913
330
747D
100
AcDbEntity
  8
部品1
100
AcDbLine
 10
8841.382383225811
 20
7526.290620335593
 30
0.0
 11
10938.38238322581
 21
7526.290620335593
 31
0.0
  0
LINE
  5
17914
330
747D
100
AcDbEntity
  8
細線
  6
Continuous
 62
     5
100
AcDbLine
 10
10217.38238322581
 20
7565.290620335591
 30
0.0
 11
10217.38238322581
 21
7565.290620335591
 31
0.0
  0
LINE
  5
17915
330
747D
100
AcDbEntity
  8
細線
  6
Continuous
 62
     5
100
AcDbLine
 10
10209.8824185447
 20
7565.290630256647
 30
0.0
 11
10209.8824185447
 21
7565.290630256647
 31
0.0
  0
LINE
  5
17916
330
747D
100
AcDbEntity
  8
細線
  6
Continuous
 62
     5
100
AcDbLine
 10
10203.8824185447
 20
7565.290630256647
 30
0.0
 11
10203.8824185447
 21
7565.290630256647
 31
0.0
  0
LINE
  5
17917
330
747D
100
AcDbEntity
  8
細線
  6
Continuous
 62
     5
100
AcDbLine
 10
10271.38238322581
 20
7584.290620335591
 30
0.0
 11
10271.38238322581
 21
7584.290620335591
 31
0.0
  0
LINE
  5
17918
330
747D
100
AcDbEntity
  8
細線
 48
50.0
100
AcDbLine
 10
8864.382387879402
 20
7551.890794512549
 30
0.0
 11
8864.382387879402
 21
7560.286944920187
 31
0.0
  0
LINE
  5
17919
330
747D
100
AcDbEntity
  8
細線
 48
50.0
100
AcDbLine
 10
8864.382387879402
 20
7560.286944920187
 30
0.0
 11
8850.382383225809
 21
7560.286944920185
 31
0.0
  0
LINE
  5
1791A
330
747D
100
AcDbEntity
  8
細線
 48
50.0
100
AcDbLine
 10
9615.3823878794
 20
7548.440794512548
 30
0.0
 11
9615.3823878794
 21
7553.29079451255
 31
0.0
  0
LINE
  5
1791B
330
747D
100
AcDbEntity
  8
細線
 48
50.0
100
AcDbLine
 10
9615.3823878794
 20
7553.29079451255
 30
0.0
 11
9630.3823878794
 21
7553.29079451255
 31
0.0
  0
LINE
  5
1791C
330
747D
100
AcDbEntity
  8
細線
 48
50.0
100
AcDbLine
 10
9630.3823878794
 20
7553.29079451255
 30
0.0
 11
9630.382387879404
 21
7560.29079451255
 31
0.0
  0
LINE
  5
1791D
330
747D
100
AcDbEntity
  8
細線
 48
50.0
100
AcDbLine
 10
9630.382387879404
 20
7560.29079451255
 30
0.0
 11
9645.382387879401
 21
7560.29079451255
 31
0.0
  0
LINE
  5
1791E
330
747D
100
AcDbEntity
  8
細線
 48
50.0
100
AcDbLine
 10
9645.382387879401
 20
7560.29079451255
 30
0.0
 11
9645.382387879401
 21
7531.29079451255
 31
0.0
  0
LINE
  5
1791F
330
747D
100
AcDbEntity
  8
細線
 48
50.0
100
AcDbLine
 10
8841.382383225811
 20
7531.288128856019
 30
0.0
 11
9055.382387879399
 21
7531.290812066264
 31
0.0
  0
LINE
  5
17920
330
747D
100
AcDbEntity
  8
細線
 48
50.0
100
AcDbLine
 10
9545.382387879399
 20
7531.29079451255
 30
0.0
 11
9645.382387879401
 21
7531.29079451255
 31
0.0
  0
LINE
  5
17921
330
747D
100
AcDbEntity
  8
細線
 48
50.0
100
AcDbLine
 10
9265.3823878794
 20
7531.29079451255
 30
0.0
 11
9335.382387879398
 21
7531.29079451255
 31
0.0
  0
LINE
  5
17922
330
747D
100
AcDbEntity
  8
細線
 48
50.0
100
AcDbLine
 10
9278.244352891929
 20
7531.29079451255
 30
0.0
 11
9283.999870474596
 21
7549.561645803044
 31
0.0
  0
LINE
  5
17923
330
747D
100
AcDbEntity
  8
細線
 48
50.0
100
AcDbLine
 10
9283.999870474596
 20
7549.561645803044
 30
0.0
 11
9294.92831895503
 21
7549.56164580304
 31
0.0
  0
ARC
  5
17924
330
747D
100
AcDbEntity
  8
細線
 48
50.0
100
AcDbCircle
 10
9294.92831895503
 20
7548.56164580304
 30
0.0
 40
1.0
100
AcDbArc
 50
24.62431835213048
 51
90.0
  0
ARC
  5
17925
330
747D
100
AcDbEntity
  8
細線
 48
50.0
100
AcDbCircle
 10
9305.837031069662
 20
7548.56164580304
 30
0.0
 40
1.0
100
AcDbArc
 50
90.0
 51
155.3756816478695
  0
ARC
  5
17926
330
747D
100
AcDbEntity
  8
細線
 48
50.0
100
AcDbCircle
 10
9300.382675012345
 20
7551.06164580304
 30
0.0
 40
5.0
100
AcDbArc
 50
204.6243183521304
 51
335.3756816478695
  0
LINE
  5
17927
330
747D
100
AcDbEntity
  8
細線
 48
50.0
100
AcDbLine
 10
9305.837031069662
 20
7549.56164580304
 30
0.0
 11
9316.765479550097
 21
7549.561645803044
 31
0.0
  0
LINE
  5
17928
330
747D
100
AcDbEntity
  8
細線
 48
50.0
100
AcDbLine
 10
9316.765479550097
 20
7549.561645803044
 30
0.0
 11
9322.520997132764
 21
7531.29079451255
 31
0.0
  0
LINE
  5
17929
330
747D
100
AcDbEntity
  8
細線
 48
50.0
100
AcDbLine
 10
9615.3823878794
 20
7551.890794512549
 30
0.0
 11
8864.382387879402
 21
7551.890794512549
 31
0.0
  0
LINE
  5
1792A
330
747D
100
AcDbEntity
  8
細線
 48
50.0
100
AcDbLine
 10
9475.382387879399
 20
7531.29079451255
 30
0.0
 11
9405.382387879399
 21
7531.29079451255
 31
0.0
  0
LINE
  5
1792B
330
747D
100
AcDbEntity
  8
細線
100
AcDbLine
 10
9195.3823878794
 20
7531.29079451255
 30
0.0
 11
9125.382396064814
 21
7531.29079451255
 31
0.0
  0
LINE
  5
1792C
330
747D
100
AcDbEntity
  8
細線
 48
50.0
100
AcDbLine
 10
10269.38237857222
 20
7585.890838370416
 30
0.0
 11
9634.3823878794
 21
7585.890838370414
 31
0.0
  0
LINE
  5
1792D
330
747D
100
AcDbEntity
  8
細線
 48
50.0
100
AcDbLine
 10
9634.3823878794
 20
7582.786988778057
 30
0.0
 11
9634.3823878794
 21
7587.286988778057
 31
0.0
  0
LINE
  5
1792E
330
747D
100
AcDbEntity
  8
細線
 48
50.0
100
AcDbLine
 10
9634.3823878794
 20
7587.286988778057
 30
0.0
 11
9619.382387879399
 21
7587.286988778057
 31
0.0
  0
LINE
  5
1792F
330
747D
100
AcDbEntity
  8
細線
 48
50.0
100
AcDbLine
 10
9619.382387879399
 20
7587.286988778057
 30
0.0
 11
9619.382387879399
 21
7594.286988778056
 31
0.0
  0
LINE
  5
17930
330
747D
100
AcDbEntity
  8
細線
 48
50.0
100
AcDbLine
 10
9619.382387879399
 20
7594.286988778056
 30
0.0
 11
9604.382387879404
 21
7594.286988778053
 31
0.0
  0
LINE
  5
17931
330
747D
100
AcDbEntity
  8
細線
 48
50.0
100
AcDbLine
 10
9604.382387879404
 20
7594.286988778053
 30
0.0
 11
9604.382387879404
 21
7556.686760674942
 31
0.0
  0
LINE
  5
17932
330
747D
100
AcDbEntity
  8
細線
 48
50.0
100
AcDbLine
 10
9604.382387879404
 20
7556.686760674942
 30
0.0
 11
9624.382395180575
 21
7556.686802224483
 31
0.0
  0
LINE
  5
17933
330
747D
100
AcDbEntity
  8
細線
 48
50.0
100
AcDbLine
 10
9624.382350311634
 20
7565.290263860292
 30
0.0
 11
9624.382395180575
 21
7556.686802224483
 31
0.0
  0
LINE
  5
17934
330
747D
100
AcDbEntity
  8
細線
 48
50.0
100
AcDbLine
 10
10269.38237857222
 20
7582.440838370415
 30
0.0
 11
10269.38237857222
 21
7587.290838370414
 31
0.0
  0
LINE
  5
17935
330
747D
100
AcDbEntity
  8
細線
 48
50.0
100
AcDbLine
 10
10269.38237857222
 20
7587.290838370414
 30
0.0
 11
10284.38237857222
 21
7587.290838370414
 31
0.0
  0
LINE
  5
17936
330
747D
100
AcDbEntity
  8
細線
 48
50.0
100
AcDbLine
 10
10284.38237857222
 20
7587.290838370414
 30
0.0
 11
10284.38239020619
 21
7594.290838370458
 31
0.0
  0
LINE
  5
17937
330
747D
100
AcDbEntity
  8
細線
 48
50.0
100
AcDbLine
 10
10284.38239020619
 20
7594.290838370458
 30
0.0
 11
10299.38238837672
 21
7594.290838370458
 31
0.0
  0
LINE
  5
17938
330
747D
100
AcDbEntity
  8
細線
 48
50.0
100
AcDbLine
 10
10299.38238837672
 20
7594.290838370458
 30
0.0
 11
10299.3823780749
 21
7565.290632198184
 31
0.0
  0
LINE
  5
17939
330
747D
100
AcDbEntity
  8
細線
 48
50.0
100
AcDbLine
 10
9986.882405705689
 20
7565.290640385551
 30
0.0
 11
9916.882657788105
 21
7565.290634948212
 31
0.0
  0
LINE
  5
1793A
330
747D
100
AcDbEntity
  8
細線
 48
50.0
100
AcDbLine
 10
9624.382350311634
 20
7565.290263860292
 30
0.0
 11
9635.615039666344
 21
7565.290446813438
 31
0.0
  0
ARC
  5
1793B
330
747D
100
AcDbEntity
  8
細線
 48
50.0
100
AcDbCircle
 10
9642.19733197368
 20
7564.090610727051
 30
0.0
 40
1.8
100
AcDbArc
 50
270.0006665777295
 51
345.0005554812987
  0
LINE
  5
1793C
330
747D
100
AcDbEntity
  8
細線
 48
50.0
100
AcDbLine
 10
9644.183765419759
 20
7564.54945118433
 30
0.0
 11
9643.936002977561
 21
7563.624753302223
 31
0.0
  0
LINE
  5
1793D
330
747D
100
AcDbEntity
  8
細線
 48
50.0
100
AcDbLine
 10
9642.197352914834
 20
7562.290610727171
 30
0.0
 11
9638.567425496065
 21
7562.290568496692
 31
0.0
  0
ARC
  5
1793E
330
747D
100
AcDbEntity
  8
細線
 48
50.0
100
AcDbCircle
 10
9638.567404554914
 20
7564.090568496571
 30
0.0
 40
1.8
100
AcDbArc
 50
195.0010443049394
 51
270.0006665777295
  0
LINE
  5
1793F
330
747D
100
AcDbEntity
  8
細線
 48
50.0
100
AcDbLine
 10
9636.580977062656
 20
7564.549283464136
 30
0.0
 11
9636.828746559167
 21
7563.624662525554
 31
0.0
  0
ARC
  5
17940
330
747D
100
AcDbEntity
  8
細線
 48
50.0
100
AcDbCircle
 10
9635.615055953905
 20
7564.290446813572
 30
0.0
 40
1.0
100
AcDbArc
 50
15.00104430493943
 51
90.00093320877969
  0
LINE
  5
17941
330
747D
100
AcDbEntity
  8
細線
 48
50.0
100
AcDbLine
 10
9645.149686774862
 20
7565.290641503843
 30
0.0
 11
9646.091446925765
 21
7565.290648077693
 31
0.0
  0
ARC
  5
17942
330
747D
100
AcDbEntity
  8
細線
 48
50.0
100
AcDbCircle
 10
9645.149693755248
 20
7564.29064150387
 30
0.0
 40
1.0
100
AcDbArc
 50
90.0003999466794
 51
165.0005554812987
  0
LINE
  5
17943
330
747D
100
AcDbEntity
  8
細線
 48
50.0
100
AcDbLine
 10
10196.88237857221
 20
7565.290632198184
 30
0.0
 11
10299.3823780749
 21
7565.290632198184
 31
0.0
  0
LINE
  5
17944
330
747D
100
AcDbEntity
  8
細線
 48
50.0
100
AcDbLine
 10
9706.882413891104
 20
7565.290640385551
 30
0.0
 11
9645.782352664184
 21
7565.290648077693
 31
0.0
  0
LINE
  5
17945
330
747D
100
AcDbEntity
  8
細線
 48
50.0
100
AcDbLine
 10
10126.8824138911
 20
7565.290677226633
 30
0.0
 11
10056.88240693672
 21
7565.290632203965
 31
0.0
  0
LINE
  5
17946
330
747D
100
AcDbEntity
  8
細線
 48
50.0
100
AcDbLine
 10
9846.882378572212
 20
7565.290632198181
 30
0.0
 11
9776.882361284338
 21
7565.290632198188
 31
0.0
  0
ARC
  5
17947
330
747D
100
AcDbEntity
  8
細線
 48
50.0
100
AcDbCircle
 10
10283.58238322582
 20
7598.490620335595
 30
0.0
 40
0.8
100
AcDbArc
 50
359.9997333689499
 51
89.99986668437072
  0
ARC
  5
17948
330
747D
100
AcDbEntity
  8
細線
 48
50.0
100
AcDbCircle
 10
10291.18239005091
 20
7598.490631504212
 30
0.0
 40
0.8
100
AcDbArc
 50
90.00014387753465
 51
179.9997333689498
  0
LINE
  5
17949
330
747D
100
AcDbEntity
  8
細線
 48
50.0
100
AcDbLine
 10
10283.58238508725
 20
7599.290620335594
 30
0.0
 11
10278.38238322581
 21
7599.290620335594
 31
0.0
  0
ARC
  5
1794A
330
747D
100
AcDbEntity
  8
細線
 48
50.0
100
AcDbCircle
 10
10285.08238322581
 20
7596.990620335595
 30
0.0
 40
0.7
100
AcDbArc
 50
180.0
 51
270.0
  0
ARC
  5
1794B
330
747D
100
AcDbEntity
  8
細線
 48
50.0
100
AcDbCircle
 10
10289.68238322581
 20
7596.990620335595
 30
0.0
 40
0.7
100
AcDbArc
 50
270.0
 51
0.0
  0
LINE
  5
1794C
330
747D
100
AcDbEntity
  8
細線
 48
50.0
100
AcDbLine
 10
10290.38238322581
 20
7596.990620335595
 30
0.0
 11
10290.38239005092
 21
7598.490635227083
 31
0.0
  0
LINE
  5
1794D
330
747D
100
AcDbEntity
  8
細線
 48
50.0
100
AcDbLine
 10
10285.08238322581
 20
7596.290620335594
 30
0.0
 11
10289.68238322581
 21
7596.290620335594
 31
0.0
  0
LINE
  5
1794E
330
747D
100
AcDbEntity
  8
細線
 48
50.0
100
AcDbLine
 10
10284.38238322581
 20
7598.490620335595
 30
0.0
 11
10284.38238322581
 21
7596.990620335595
 31
0.0
  0
LINE
  5
1794F
330
747D
100
AcDbEntity
  8
細線
 48
50.0
100
AcDbLine
 10
10909.98238322581
 20
7629.290620335594
 30
0.0
 11
10273.38238322581
 21
7629.290620335591
 31
0.0
  0
LINE
  5
17950
330
747D
100
AcDbEntity
  8
細線
 48
50.0
100
AcDbLine
 10
10935.88238322581
 20
7624.290620335599
 30
0.0
 11
10919.98238322581
 21
7624.290620335594
 31
0.0
  0
LINE
  5
17951
330
747D
100
AcDbEntity
  8
細線
 48
50.0
100
AcDbLine
 10
10919.98238322581
 20
7624.290620335594
 30
0.0
 11
10909.98238322581
 21
7629.290620335594
 31
0.0
  0
LINE
  5
17952
330
747D
100
AcDbEntity
  8
細線
100
AcDbLine
 10
10520.88238322581
 20
7599.290620335594
 30
0.0
 11
10520.88238322581
 21
7628.590620335593
 31
0.0
  0
LINE
  5
17953
330
747D
100
AcDbEntity
  8
細線
100
AcDbLine
 10
10520.88238322581
 20
7628.590620335593
 30
0.0
 11
10540.88238322581
 21
7628.590620335593
 31
0.0
  0
LINE
  5
17954
330
747D
100
AcDbEntity
  8
細線
100
AcDbLine
 10
10540.88238322581
 20
7599.290620335594
 30
0.0
 11
10540.88238322581
 21
7628.590620335593
 31
0.0
  0
LINE
  5
17955
330
747D
100
AcDbEntity
  8
細線
100
AcDbLine
 10
10702.13238322581
 20
7599.290620335594
 30
0.0
 11
10632.13238322581
 21
7599.290620335594
 31
0.0
  0
LINE
  5
17956
330
747D
100
AcDbEntity
  8
細線
 48
50.0
100
AcDbLine
 10
10422.13238322581
 20
7599.290620335594
 30
0.0
 11
10291.17816279865
 21
7599.290620335594
 31
0.0
  0
LINE
  5
17957
330
747D
100
AcDbEntity
  8
細線
100
AcDbLine
 10
10562.13238322581
 20
7599.290620335594
 30
0.0
 11
10492.13238322581
 21
7599.290620335594
 31
0.0
  0
LINE
  5
17958
330
747D
100
AcDbEntity
  8
細線
 48
50.0
100
AcDbLine
 10
10278.38238322581
 20
7591.290620335595
 30
0.0
 11
10278.38238322581
 21
7599.290620335594
 31
0.0
  0
LINE
  5
17959
330
747D
100
AcDbEntity
  8
細線
 48
50.0
100
AcDbLine
 10
10258.38238322581
 20
7591.290620335597
 30
0.0
 11
10278.38238322581
 21
7591.290620335595
 31
0.0
  0
LINE
  5
1795A
330
747D
100
AcDbEntity
  8
細線
 48
50.0
100
AcDbLine
 10
10273.38238322581
 20
7629.290620335594
 30
0.0
 11
10273.38238322581
 21
7624.290620335594
 31
0.0
  0
LINE
  5
1795B
330
747D
100
AcDbEntity
  8
細線
 48
50.0
100
AcDbLine
 10
10258.38238322581
 20
7629.290620335591
 30
0.0
 11
10273.38238322581
 21
7629.290620335594
 31
0.0
  0
LINE
  5
1795C
330
747D
100
AcDbEntity
  8
細線
 48
50.0
100
AcDbLine
 10
10258.38238322581
 20
7591.290620335597
 30
0.0
 11
10258.38238322581
 21
7629.290620335591
 31
0.0
  0
LINE
  5
1795D
330
747D
100
AcDbEntity
  8
細線
100
AcDbLine
 10
10926.38238322581
 20
7599.290620335594
 30
0.0
 11
10772.13238322581
 21
7599.290620335594
 31
0.0
  0
LINE
  5
1795E
330
747D
100
AcDbEntity
  8
細線
 48
50.0
100
AcDbLine
 10
10935.88238322581
 20
7624.290620335599
 30
0.0
 11
10935.88238322581
 21
7599.290620335594
 31
0.0
  0
DIMENSION
  5
17B95
330
747D
100
AcDbEntity
  8
寸法
 48
50.0
100
AcDbDimension
  2
*D31
 10
10965.38238322581
 20
6606.160904907823
 30
0.0
 11
9910.515139973123
 21
6606.160904907823
 31
0.0
 70
   160
 71
     5
 42
2154.0
  3
INABA_S40G
100
AcDbAlignedDimension
 13
8811.38238322581
 23
7526.290620335591
 33
0.0
 14
10965.38238322581
 24
7526.290620335591
 34
0.0
100
AcDbRotatedDimension
1001
ACAD
1000
DSTYLE
1002
{
1070
   341
1005
0
1002
}
  0
DIMENSION
  5
17B96
330
747D
100
AcDbEntity
  8
寸法
100
AcDbDimension
  2
*D32
 10
8068.771137599119
 20
7528.290620335557
 30
0.0
 11
8068.771137599117
 21
7387.805338961318
 31
0.0
 70
   160
 71
     5
 42
75.0
  3
INABA_S40
100
AcDbAlignedDimension
 13
8363.382383225836
 23
7603.290620335556
 33
0.0
 14
8811.38238322581
 24
7528.290620335557
 34
0.0
 50
90.0
100
AcDbRotatedDimension
1001
ACAD
1000
DSTYLE
1002
{
1070
    41
1040
0.5
1070
    44
1040
1.0
1070
   147
1040
0.8
1070
   271
1070
     2
1070
   272
1070
     2
1070
   289
1070
     3
1070
   340
1005
F706
1070
   343
1005
169B5
1070
   344
1005
169B5
1002
}
  0
TEXT
  5
17C47
330
747D
100
AcDbEntity
  8
部品1
100
AcDbText
 10
9386.566659940651
 20
5962.660422124116
 30
0.0
 40
135.0
  1
平面図
  7
STYLE2
100
AcDbText
  0
LINE
  5
17C48
330
747D
100
AcDbEntity
  8
部品1
100
AcDbLine
 10
9296.647050111614
 20
6155.553951342639
 30
0.0
 11
9296.647050111614
 21
5915.661629797106
 31
0.0
  0
LINE
  5
17C49
330
747D
100
AcDbEntity
  8
部品1
100
AcDbLine
 10
9296.647050111614
 20
5915.661629797106
 30
0.0
 11
10060.11771634005
 21
5915.661629797106
 31
0.0
  0
LINE
  5
17C4A
330
747D
100
AcDbEntity
  8
部品1
100
AcDbLine
 10
10060.11771634005
 20
5915.661629797106
 30
0.0
 11
10060.11771634005
 21
6155.553951342639
 31
0.0
  0
LINE
  5
17C4B
330
747D
100
AcDbEntity
  8
部品1
100
AcDbLine
 10
10060.11771634005
 20
6155.553951342639
 30
0.0
 11
9296.647050111614
 21
6155.553951342639
 31
0.0
  0
DIMENSION
  5
17C52
330
747D
100
AcDbEntity
  8
寸法
100
AcDbDimension
  2
*D33
 10
10993.38238322582
 20
6346.903103272811
 30
0.0
 11
9696.184171861984
 21
6346.903103272811
 31
0.0
 70
   160
 71
     5
 42
2629.999999999982
  3
INABA_S40G
100
AcDbAlignedDimension
 13
8363.382383225836
 23
7603.290620335556
 33
0.0
 14
10993.38238322582
 24
7603.290620335721
 34
0.0
100
AcDbRotatedDimension
1001
ACAD
1000
DSTYLE
1002
{
1002
}
  0
LWPOLYLINE
  5
17EBB
330
747D
100
AcDbEntity
  8
部品1
 48
50.0
100
AcDbPolyline
 90
        4
 70
     1
 43
0.0
 10
8910.432383225833
 20
3401.050454890556
 10
8913.332383225833
 20
3401.050454890556
 10
8913.332383225833
 20
3410.550454890556
 10
8910.432383225833
 20
3410.550454890556
  0
CIRCLE
  5
17EBC
330
747D
100
AcDbEntity
  8
部品1
 48
50.0
100
AcDbCircle
 10
8911.882383225833
 20
3405.800454890556
 30
0.0
 40
9.0
  0
ARC
  5
17EBD
330
747D
100
AcDbEntity
  8
細線
 48
50.0
100
AcDbCircle
 10
8911.882383225833
 20
3405.800454890556
 30
0.0
 40
4.0
100
AcDbArc
 50
111.2538091853132
 51
248.7461908146868
  0
ARC
  5
17EBE
330
747D
100
AcDbEntity
  8
細線
 48
50.0
100
AcDbCircle
 10
8911.882383225833
 20
3405.800454890556
 30
0.0
 40
17.5
100
AcDbArc
 50
306.4837370612677
 51
233.5162629387323
  0
LINE
  5
17EBF
330
747D
100
AcDbEntity
  8
細線
 48
50.0
100
AcDbLine
 10
8921.882383225829
 20
3381.941494309673
 30
0.0
 11
8921.882383225833
 21
3390.925980109914
 31
0.0
  0
LINE
  5
17EC0
330
747D
100
AcDbEntity
  8
細線
 48
50.0
100
AcDbLine
 10
8901.882383225833
 20
3381.941494309675
 30
0.0
 11
8901.882383225833
 21
3390.925980109911
 31
0.0
  0
ARC
  5
17EC1
330
747D
100
AcDbEntity
  8
細線
 48
50.0
100
AcDbCircle
 10
8911.882383225833
 20
3405.800454890556
 30
0.0
 40
26.5
100
AcDbArc
 50
249.3326835063939
 51
290.6673164933835
  0
ARC
  5
17EC2
330
747D
100
AcDbEntity
  8
細線
 48
50.0
100
AcDbCircle
 10
8920.882383225826
 20
3381.941494309673
 30
0.0
 40
1.0
100
AcDbArc
 50
290.6673164936062
 51
359.9999999998958
  0
ARC
  5
17EC3
330
747D
100
AcDbEntity
  8
細線
 48
50.0
100
AcDbCircle
 10
8902.882383225835
 20
3381.941494309675
 30
0.0
 40
1.0
100
AcDbArc
 50
180.0
 51
249.3326835066164
  0
ARC
  5
17EC4
330
747D
100
AcDbEntity
  8
細線
 48
50.0
100
AcDbCircle
 10
8900.882383225832
 20
3390.925980109911
 30
0.0
 40
1.0
100
AcDbArc
 50
0.0
 51
53.51626293873231
  0
ARC
  5
17EC5
330
747D
100
AcDbEntity
  8
細線
 48
50.0
100
AcDbCircle
 10
8922.882383225838
 20
3390.925980109914
 30
0.0
 40
1.0
100
AcDbArc
 50
126.4837370615127
 51
180.0
  0
ARC
  5
17EC6
330
747D
100
AcDbEntity
  8
細線
 48
50.0
100
AcDbCircle
 10
8911.882383225833
 20
3405.800454890556
 30
0.0
 40
21.5
100
AcDbArc
 50
255.8014401250294
 51
284.1985598749706
  0
ARC
  5
17EC7
330
747D
100
AcDbEntity
  8
細線
 48
50.0
100
AcDbCircle
 10
8911.882383225833
 20
3405.800454890556
 30
0.0
 40
16.5
100
AcDbArc
 50
251.9694646069326
 51
288.0305353930674
  0
LINE
  5
17EC8
330
747D
100
AcDbEntity
  8
細線
 48
50.0
100
AcDbLine
 10
8917.382383225833
 20
3385.248082764749
 30
0.0
 11
8917.382383225833
 21
3389.825474452086
 31
0.0
  0
LINE
  5
17EC9
330
747D
100
AcDbEntity
  8
細線
 48
50.0
100
AcDbLine
 10
8906.382383225833
 20
3385.248082764749
 30
0.0
 11
8906.382383225833
 21
3389.825474452083
 31
0.0
  0
ARC
  5
17ECA
330
747D
100
AcDbEntity
  8
細線
 48
50.0
100
AcDbCircle
 10
8906.682383225836
 20
3389.825474452083
 30
0.0
 40
0.3
100
AcDbArc
 50
71.96946460693259
 51
180.0
  0
ARC
  5
17ECB
330
747D
100
AcDbEntity
  8
細線
 48
50.0
100
AcDbCircle
 10
8917.082383225833
 20
3389.825474452086
 30
0.0
 40
0.3
100
AcDbArc
 50
0.0
 51
108.0305353930674
  0
ARC
  5
17ECC
330
747D
100
AcDbEntity
  8
細線
 48
50.0
100
AcDbCircle
 10
8917.08238322583
 20
3385.248082764749
 30
0.0
 40
0.3
100
AcDbArc
 50
284.1985598747622
 51
0.0000000001042204
  0
ARC
  5
17ECD
330
747D
100
AcDbEntity
  8
細線
 48
50.0
100
AcDbCircle
 10
8906.682383225836
 20
3385.248082764749
 30
0.0
 40
0.3
100
AcDbArc
 50
180.0
 51
255.8014401248081
  0
CIRCLE
  5
17ECE
330
747D
100
AcDbEntity
  8
細線
 48
50.0
100
AcDbCircle
 10
8911.882383225833
 20
3405.800454890556
 30
0.0
 40
12.0
  0
ARC
  5
17ECF
330
747D
100
AcDbEntity
  8
部品1
 48
50.0
100
AcDbCircle
 10
8911.882383225833
 20
3455.800454890556
 30
0.0
 40
8.5
100
AcDbArc
 50
114.315739171091
 51
245.684260828909
  0
CIRCLE
  5
17ED0
330
747D
100
AcDbEntity
  8
細線
 48
50.0
100
AcDbCircle
 10
8911.882383225833
 20
3455.800454890556
 30
0.0
 40
4.5
  0
LWPOLYLINE
  5
17ED1
330
747D
100
AcDbEntity
  8
部品1
 48
50.0
100
AcDbPolyline
 90
        2
 70
     0
 43
0.0
 10
8908.382383225832
 20
3474.475304287538
 10
8908.382383225832
 20
3463.546421582971
  0
CIRCLE
  5
17ED2
330
747D
100
AcDbEntity
  8
部品1
 48
50.0
100
AcDbCircle
 10
8911.882383225833
 20
3455.800454890556
 30
0.0
 40
19.0
  0
LWPOLYLINE
  5
17ED3
330
747D
100
AcDbEntity
  8
部品1
 48
50.0
100
AcDbPolyline
 90
        2
 70
     0
 43
0.0
 10
8908.382383225832
 20
3448.054488198141
 10
8908.382383225832
 20
3437.125605493573
  0
LWPOLYLINE
  5
17ED4
330
747D
100
AcDbEntity
  8
部品1
 48
50.0
100
AcDbPolyline
 90
        2
 70
     0
 43
0.0
 10
8915.382383225834
 20
3463.546421582971
 10
8915.382383225834
 20
3474.475304287538
  0
ARC
  5
17ED5
330
747D
100
AcDbEntity
  8
部品1
 48
50.0
100
AcDbCircle
 10
8911.882383225833
 20
3455.800454890556
 30
0.0
 40
8.5
100
AcDbArc
 50
294.315739171091
 51
65.68426082890896
  0
LWPOLYLINE
  5
17ED6
330
747D
100
AcDbEntity
  8
部品1
 48
50.0
100
AcDbPolyline
 90
        2
 70
     0
 43
0.0
 10
8915.382383225834
 20
3437.125605493573
 10
8915.382383225834
 20
3448.054488198141
  0
ARC
  5
17ED7
330
747D
100
AcDbEntity
  8
細線
 48
50.0
100
AcDbCircle
 10
8911.882383225833
 20
3455.800454890556
 30
0.0
 40
16.5
100
AcDbArc
 50
332.0012352654438
 51
27.99876473455621
  0
ARC
  5
17ED8
330
747D
100
AcDbEntity
  8
細線
 48
50.0
100
AcDbCircle
 10
8911.882383225833
 20
3455.800454890556
 30
0.0
 40
14.0
100
AcDbArc
 50
326.4074436112986
 51
33.59255638870134
  0
LINE
  5
17ED9
330
747D
100
AcDbEntity
  8
細線
 48
50.0
100
AcDbLine
 10
8897.313580941501
 20
3463.546421582971
 30
0.0
 11
8900.220479436145
 21
3463.546421582971
 31
0.0
  0
LINE
  5
17EDA
330
747D
100
AcDbEntity
  8
細線
 48
50.0
100
AcDbLine
 10
8897.313580941501
 20
3448.054488198141
 30
0.0
 11
8900.220479436145
 21
3448.054488198141
 31
0.0
  0
LINE
  5
17EDB
330
747D
100
AcDbEntity
  8
細線
 48
50.0
100
AcDbLine
 10
8923.544287015522
 20
3463.546421582971
 30
0.0
 11
8926.451185510169
 21
3463.546421582971
 31
0.0
  0
LINE
  5
17EDC
330
747D
100
AcDbEntity
  8
細線
 48
50.0
100
AcDbLine
 10
8923.544287015522
 20
3448.054488198141
 30
0.0
 11
8926.451185510169
 21
3448.054488198141
 31
0.0
  0
ARC
  5
17EDD
330
747D
100
AcDbEntity
  8
細線
 48
50.0
100
AcDbCircle
 10
8911.882383225833
 20
3455.800454890556
 30
0.0
 40
14.0
100
AcDbArc
 50
146.4074436112986
 51
213.5925563887013
  0
ARC
  5
17EDE
330
747D
100
AcDbEntity
  8
細線
 48
50.0
100
AcDbCircle
 10
8911.882383225833
 20
3455.800454890556
 30
0.0
 40
16.5
100
AcDbArc
 50
152.0012352654438
 51
207.9987647345562
  0
ARC
  5
17EDF
330
747D
100
AcDbEntity
  8
部品1
 48
50.0
100
AcDbCircle
 10
8885.382383225833
 20
3481.300454890555
 30
0.0
 40
5.0
100
AcDbArc
 50
90.0
 51
180.0
  0
ARC
  5
17EE0
330
747D
100
AcDbEntity
  8
部品1
 48
50.0
100
AcDbCircle
 10
8885.382383225833
 20
3370.300454890556
 30
0.0
 40
5.0
100
AcDbArc
 50
180.0
 51
270.0
  0
ARC
  5
17EE1
330
747D
100
AcDbEntity
  8
部品1
 48
50.0
100
AcDbCircle
 10
8938.382383225834
 20
3370.300454890556
 30
0.0
 40
5.0
100
AcDbArc
 50
270.0
 51
0.0
  0
ARC
  5
17EE2
330
747D
100
AcDbEntity
  8
部品1
 48
50.0
100
AcDbCircle
 10
8938.382383225834
 20
3481.300454890555
 30
0.0
 40
5.0
100
AcDbArc
 50
0.0
 51
90.0
  0
LINE
  5
17EE4
330
747D
100
AcDbEntity
  8
部品1
 48
50.0
100
AcDbLine
 10
8880.382383225834
 20
3370.300454890556
 30
0.0
 11
8880.382383225834
 21
3481.300454890555
 31
0.0
  0
LINE
  5
17EE5
330
747D
100
AcDbEntity
  8
部品1
 48
50.0
100
AcDbLine
 10
8938.382383225834
 20
3365.300454890556
 30
0.0
 11
8885.382383225833
 21
3365.300454890556
 31
0.0
  0
LINE
  5
17EE6
330
747D
100
AcDbEntity
  8
部品1
 48
50.0
100
AcDbLine
 10
8943.382383225833
 20
3481.300454890555
 30
0.0
 11
8943.382383225833
 21
3370.300454890556
 31
0.0
  0
ENDSEC
  0
SECTION
  2
OBJECTS
  0
DICTIONARY
  5
7471
330
0
100
AcDbDictionary
281
     1
  3
ACAD_COLOR
350
169AA
  3
ACAD_GROUP
350
7472
  3
ACAD_LAYOUT
350
169AB
  3
ACAD_MATERIAL
350
169A9
  3
ACAD_MLINESTYLE
350
7473
  3
ACAD_PLOTSETTINGS
350
169AC
  3
ACAD_PLOTSTYLENAME
350
169A7
  3
ACDBHEADERROUNDTRIPXREC
350
17EF5
  3
AcDbVariableDictionary
350
17EF1
  3
CONTENTDICTIONARY
350
E71C
  3
DRAWINGVARIABLESDICT
350
F3B9
  0
DICTIONARY
  5
16B44
330
7467
100
AcDbDictionary
280
     1
281
     1
  3
ACAD_LAYERSTATES
360
16B45
  0
DICTIONARY
  5
169AA
102
{ACAD_REACTORS
330
7471
102
}
330
7471
100
AcDbDictionary
281
     1
  0
DICTIONARY
  5
7472
102
{ACAD_REACTORS
330
7471
102
}
330
7471
100
AcDbDictionary
281
     1
  0
DICTIONARY
  5
169AB
102
{ACAD_REACTORS
330
7471
102
}
330
7471
100
AcDbDictionary
281
     1
  3
Model
350
169AD
  3
レイアウト1
350
169AE
  0
DICTIONARY
  5
169A9
102
{ACAD_REACTORS
330
7471
102
}
330
7471
100
AcDbDictionary
281
     1
  0
DICTIONARY
  5
7473
102
{ACAD_REACTORS
330
7471
102
}
330
7471
100
AcDbDictionary
281
     1
  3
STANDARD
350
7480
  0
DICTIONARY
  5
169AC
102
{ACAD_REACTORS
330
7471
102
}
330
7471
100
AcDbDictionary
281
     1
  0
ACDBDICTIONARYWDFLT
  5
169A7
102
{ACAD_REACTORS
330
7471
102
}
330
7471
100
AcDbDictionary
281
     1
  3
Normal
350
169A8
100
AcDbDictionaryWithDefault
340
169A8
  0
DICTIONARY
  5
17EF5
102
{ACAD_REACTORS
330
7471
102
}
330
7471
100
AcDbDictionary
281
     1
  3
COLORDICT
350
17EF7
  3
MATERIALDICT
350
17EF6
  0
DICTIONARY
  5
17EF1
102
{ACAD_REACTORS
330
7471
102
}
330
7471
100
AcDbDictionary
281
     1
  3
DIMASSOC
350
17EF2
  3
PROJECTNAME
350
17EF3
  0
DICTIONARY
  5
E71C
102
{ACAD_REACTORS
330
7471
102
}
330
7471
100
AcDbDictionary
281
     1
  0
DICTIONARY
  5
F3B9
102
{ACAD_REACTORS
330
7471
102
}
330
7471
100
AcDbDictionary
281
     1
1001
DRAWINGVARIABLESXDATA
1000
POLARMODE
1000
1
  0
DICTIONARY
  5
16B45
102
{ACAD_REACTORS
330
16B44
102
}
330
16B44
100
AcDbDictionary
281
     1
  0
LAYOUT
  5
169AD
102
{ACAD_XDICTIONARY
360
17EF8
102
}
102
{ACAD_REACTORS
330
169AB
102
}
330
169AB
100
AcDbPlotSettings
  1

  2
Microsoft Office Document Image Writer
  4

  6

 40
0.0
 41
0.0
 42
0.0
 43
0.0
 44
0.0
 45
0.0
 46
0.0
 47
0.0
 48
0.0
 49
0.0
140
0.0
141
0.0
142
1.0
143
1.0
 70
  1712
 72
     0
 73
     0
 74
     0
  7

 75
     0
147
1.0
148
0.0
149
0.0
100
AcDbLayout
  1
Model
 70
     1
 71
     0
 10
0.0
 20
0.0
 11
12.0
 21
9.0
 12
0.0
 22
0.0
 32
0.0
 14
0.0
 24
0.0
 34
0.0
 15
0.0
 25
0.0
 35
0.0
146
0.0
 13
0.0
 23
0.0
 33
0.0
 16
1.0
 26
0.0
 36
0.0
 17
0.0
 27
1.0
 37
0.0
 76
     0
330
747D
  0
LAYOUT
  5
169AE
102
{ACAD_XDICTIONARY
360
17EFA
102
}
102
{ACAD_REACTORS
330
169AB
102
}
330
169AB
100
AcDbPlotSettings
  1

  2
Microsoft Office Document Image Writer
  4

  6

 40
0.0
 41
0.0
 42
0.0
 43
0.0
 44
0.0
 45
0.0
 46
0.0
 47
0.0
 48
0.0
 49
0.0
140
0.0
141
0.0
142
1.0
143
1.0
 70
   688
 72
     0
 73
     0
 74
     5
  7

 75
    16
147
1.0
148
0.0
149
0.0
100
AcDbLayout
  1
レイアウト1
 70
     0
 71
     1
 10
0.0
 20
0.0
 11
420.0
 21
297.0
 12
0.0
 22
0.0
 32
0.0
 14
1.000000000000000E+20
 24
1.000000000000000E+20
 34
1.000000000000000E+20
 15
-1.000000000000000E+20
 25
-1.000000000000000E+20
 35
-1.000000000000000E+20
146
0.0
 13
0.0
 23
0.0
 33
0.0
 16
1.0
 26
0.0
 36
0.0
 17
0.0
 27
1.0
 37
0.0
 76
     0
330
747A
  0
MLINESTYLE
  5
7480
102
{ACAD_REACTORS
330
7473
102
}
330
7473
100
AcDbMlineStyle
  2
STANDARD
 70
     0
  3

 62
     0
 51
90.0
 52
90.0
 71
     2
 49
0.5
 62
   256
  6
BYLAYER
 49
-0.5
 62
   256
  6
BYLAYER
  0
ACDBPLACEHOLDER
  5
169A8
102
{ACAD_REACTORS
330
169A7
102
}
330
169A7
  0
XRECORD
  5
17EF7
102
{ACAD_REACTORS
330
17EF5
102
}
330
17EF5
100
AcDbXrecord
280
     1
340
169AA
  0
XRECORD
  5
17EF6
102
{ACAD_REACTORS
330
17EF5
102
}
330
17EF5
100
AcDbXrecord
280
     1
340
169A9
  0
DICTIONARYVAR
  5
17EF2
102
{ACAD_REACTORS
330
17EF1
102
}
330
17EF1
100
DictionaryVariables
280
     0
  1
1
  0
DICTIONARYVAR
  5
17EF3
102
{ACAD_REACTORS
330
17EF1
102
}
330
17EF1
100
DictionaryVariables
280
     0
  1

  0
DICTIONARY
  5
17EF8
330
169AD
100
AcDbDictionary
280
     1
281
     1
  3
ACAD_XREC_ROUNDTRIP
360
17EF9
  0
DICTIONARY
  5
17EFA
330
169AE
100
AcDbDictionary
280
     1
281
     1
  3
ACAD_XREC_ROUNDTRIP
360
17EFB
  0
XRECORD
  5
17EF9
102
{ACAD_REACTORS
330
17EF8
102
}
330
17EF8
100
AcDbXrecord
280
     1
102
SHADEPLOT
 70
     0
102
SHADEPLOTRESLEVEL
 70
     2
102
SHADEPLOTCUSTOMDPI
 70
   300
  0
XRECORD
  5
17EFB
102
{ACAD_REACTORS
330
17EFA
102
}
330
17EFA
100
AcDbXrecord
280
     1
102
SHADEPLOT
 70
     0
102
SHADEPLOTRESLEVEL
 70
     2
102
SHADEPLOTCUSTOMDPI
 70
   300
  0
ENDSEC
  0
EOF
