  0
SECTION
  2
HEADER
  9
$ACADVER
  1
AC1015
  9
$ACADMAINTVER
 70
    20
  9
$DWGCODEPAGE
  3
ANSI_932
  9
$INSBASE
 10
0.0
 20
0.0
 30
0.0
  9
$EXTMIN
 10
139.9999999999995
 20
-0.0000000000000909
 30
0.0
  9
$EXTMAX
 10
16307.2
 20
11409.6
 30
0.0
  9
$LIMMIN
 10
-25.79074261211281
 20
-125.8223078213959
  9
$LIMMAX
 10
16471.10331197129
 20
11496.44801950658
  9
$ORTHOMODE
 70
     0
  9
$REGENMODE
 70
     1
  9
$FILLMODE
 70
     1
  9
$QTEXTMODE
 70
     0
  9
$MIRRTEXT
 70
     1
  9
$LTSCALE
 40
20.0
  9
$ATTMODE
 70
     1
  9
$TEXTSIZE
 40
4.0
  9
$TRACEWID
 40
1.0
  9
$TEXTSTYLE
  7
STYLE1
  9
$CLAYER
  8
寸法
  9
$CELTYPE
  6
BYLAYER
  9
$CECOLOR
 62
   256
  9
$CELTSCALE
 40
50.0
  9
$DISPSILH
 70
     0
  9
$DIMSCALE
 40
40.0
  9
$DIMASZ
 40
2.5
  9
$DIMEXO
 40
0.5
  9
$DIMDLI
 40
7.0
  9
$DIMRND
 40
0.0
  9
$DIMDLE
 40
0.0
  9
$DIMEXE
 40
1.5
  9
$DIMTP
 40
0.0
  9
$DIMTM
 40
0.0
  9
$DIMTXT
 40
3.0
  9
$DIMCEN
 40
0.0
  9
$DIMTSZ
 40
0.0
  9
$DIMTOL
 70
     0
  9
$DIMLIM
 70
     0
  9
$DIMTIH
 70
     0
  9
$DIMTOH
 70
     0
  9
$DIMSE1
 70
     0
  9
$DIMSE2
 70
     0
  9
$DIMTAD
 70
     3
  9
$DIMZIN
 70
     8
  9
$DIMBLK
  1

  9
$DIMASO
 70
     1
  9
$DIMSHO
 70
     1
  9
$DIMPOST
  1

  9
$DIMAPOST
  1

  9
$DIMALT
 70
     0
  9
$DIMALTD
 70
     2
  9
$DIMALTF
 40
0.0394
  9
$DIMLFAC
 40
1.0
  9
$DIMTOFL
 70
     1
  9
$DIMTVP
 40
0.0
  9
$DIMTIX
 70
     1
  9
$DIMSOXD
 70
     0
  9
$DIMSAH
 70
     1
  9
$DIMBLK1
  1
DOTSMALL
  9
$DIMBLK2
  1
DOTSMALL
  9
$DIMSTYLE
  2
INABA_S40G
  9
$DIMCLRD
 70
     0
  9
$DIMCLRE
 70
     0
  9
$DIMCLRT
 70
     7
  9
$DIMTFAC
 40
1.0
  9
$DIMGAP
 40
1.0
  9
$DIMJUST
 70
     0
  9
$DIMSD1
 70
     0
  9
$DIMSD2
 70
     0
  9
$DIMTOLJ
 70
     1
  9
$DIMTZIN
 70
     0
  9
$DIMALTZ
 70
     0
  9
$DIMALTTZ
 70
     0
  9
$DIMUPT
 70
     0
  9
$DIMDEC
 70
     1
  9
$DIMTDEC
 70
     4
  9
$DIMALTU
 70
     2
  9
$DIMALTTD
 70
     2
  9
$DIMTXSTY
  7
STYLE1
  9
$DIMAUNIT
 70
     0
  9
$DIMADEC
 70
     0
  9
$DIMALTRND
 40
0.0
  9
$DIMAZIN
 70
     0
  9
$DIMDSEP
 70
    46
  9
$DIMATFIT
 70
     3
  9
$DIMFRAC
 70
     0
  9
$DIMLDRBLK
  1

  9
$DIMLUNIT
 70
     2
  9
$DIMLWD
 70
    -2
  9
$DIMLWE
 70
    -2
  9
$DIMTMOVE
 70
     0
  9
$LUNITS
 70
     2
  9
$LUPREC
 70
     1
  9
$SKETCHINC
 40
1.0
  9
$FILLETRAD
 40
3.0
  9
$AUNITS
 70
     0
  9
$AUPREC
 70
     0
  9
$MENU
  1
acad
  9
$ELEVATION
 40
0.0
  9
$PELEVATION
 40
0.0
  9
$THICKNESS
 40
0.0
  9
$LIMCHECK
 70
     0
  9
$CHAMFERA
 40
0.0
  9
$CHAMFERB
 40
0.0
  9
$CHAMFERC
 40
0.0
  9
$CHAMFERD
 40
0.0
  9
$SKPOLY
 70
     0
  9
$TDCREATE
 40
2451368.612993866
  9
$TDUCREATE
 40
2451368.237993866
  9
$TDUPDATE
 40
2455575.682956806
  9
$TDUUPDATE
 40
2455575.307956805
  9
$TDINDWG
 40
0.4869916782
  9
$TDUSRTIMER
 40
0.4869916782
  9
$USRTIMER
 70
     1
  9
$ANGBASE
 50
0.0
  9
$ANGDIR
 70
     0
  9
$PDMODE
 70
     3
  9
$PDSIZE
 40
2.0
  9
$PLINEWID
 40
0.0
  9
$SPLFRAME
 70
     0
  9
$SPLINETYPE
 70
     6
  9
$SPLINESEGS
 70
     8
  9
$HANDSEED
  5
17A36
  9
$SURFTAB1
 70
     6
  9
$SURFTAB2
 70
     6
  9
$SURFTYPE
 70
     6
  9
$SURFU
 70
     6
  9
$SURFV
 70
     6
  9
$UCSBASE
  2

  9
$UCSNAME
  2

  9
$UCSORG
 10
0.0
 20
0.0
 30
0.0
  9
$UCSXDIR
 10
1.0
 20
0.0
 30
0.0
  9
$UCSYDIR
 10
0.0
 20
1.0
 30
0.0
  9
$UCSORTHOREF
  2

  9
$UCSORTHOVIEW
 70
     0
  9
$UCSORGTOP
 10
0.0
 20
0.0
 30
0.0
  9
$UCSORGBOTTOM
 10
0.0
 20
0.0
 30
0.0
  9
$UCSORGLEFT
 10
0.0
 20
0.0
 30
0.0
  9
$UCSORGRIGHT
 10
0.0
 20
0.0
 30
0.0
  9
$UCSORGFRONT
 10
0.0
 20
0.0
 30
0.0
  9
$UCSORGBACK
 10
0.0
 20
0.0
 30
0.0
  9
$PUCSBASE
  2

  9
$PUCSNAME
  2

  9
$PUCSORG
 10
0.0
 20
0.0
 30
0.0
  9
$PUCSXDIR
 10
1.0
 20
0.0
 30
0.0
  9
$PUCSYDIR
 10
0.0
 20
1.0
 30
0.0
  9
$PUCSORTHOREF
  2

  9
$PUCSORTHOVIEW
 70
     0
  9
$PUCSORGTOP
 10
0.0
 20
0.0
 30
0.0
  9
$PUCSORGBOTTOM
 10
0.0
 20
0.0
 30
0.0
  9
$PUCSORGLEFT
 10
0.0
 20
0.0
 30
0.0
  9
$PUCSORGRIGHT
 10
0.0
 20
0.0
 30
0.0
  9
$PUCSORGFRONT
 10
0.0
 20
0.0
 30
0.0
  9
$PUCSORGBACK
 10
0.0
 20
0.0
 30
0.0
  9
$USERI1
 70
     0
  9
$USERI2
 70
     0
  9
$USERI3
 70
     0
  9
$USERI4
 70
     0
  9
$USERI5
 70
     0
  9
$USERR1
 40
0.0
  9
$USERR2
 40
0.0
  9
$USERR3
 40
0.0
  9
$USERR4
 40
0.0
  9
$USERR5
 40
0.0
  9
$WORLDVIEW
 70
     1
  9
$SHADEDGE
 70
     3
  9
$SHADEDIF
 70
    70
  9
$TILEMODE
 70
     1
  9
$MAXACTVP
 70
    16
  9
$PINSBASE
 10
0.0
 20
0.0
 30
0.0
  9
$PLIMCHECK
 70
     0
  9
$PEXTMIN
 10
1.000000000000000E+20
 20
1.000000000000000E+20
 30
1.000000000000000E+20
  9
$PEXTMAX
 10
-1.000000000000000E+20
 20
-1.000000000000000E+20
 30
-1.000000000000000E+20
  9
$PLIMMIN
 10
0.0
 20
0.0
  9
$PLIMMAX
 10
420.0
 20
297.0
  9
$UNITMODE
 70
     0
  9
$VISRETAIN
 70
     0
  9
$PLINEGEN
 70
     0
  9
$PSLTSCALE
 70
     0
  9
$TREEDEPTH
 70
  3020
  9
$CMLSTYLE
  2
STANDARD
  9
$CMLJUST
 70
     0
  9
$CMLSCALE
 40
1.0
  9
$PROXYGRAPHICS
 70
     1
  9
$MEASUREMENT
 70
     1
  9
$CELWEIGHT
370
    -1
  9
$ENDCAPS
280
     0
  9
$JOINSTYLE
280
     0
  9
$LWDISPLAY
290
     0
  9
$INSUNITS
 70
     0
  9
$HYPERLINKBASE
  1

  9
$STYLESHEET
  1
inaba.ctb
  9
$XEDIT
290
     1
  9
$CEPSNTYPE
380
     0
  9
$PSTYLEMODE
290
     1
  9
$FINGERPRINTGUID
  2
{474EEE6D-965E-4E22-BF25-CF9AA86CDC36}
  9
$VERSIONGUID
  2
{0A13B1C1-F6A8-4113-9CBC-EC9A9586D527}
  9
$EXTNAMES
290
     1
  9
$PSVPSCALE
 40
0.0
  9
$OLESTARTUP
290
     0
  0
ENDSEC
  0
SECTION
  2
CLASSES
  0
CLASS
  1
ACDBDICTIONARYWDFLT
  2
AcDbDictionaryWithDefault
  3
ObjectDBX Classes
 90
        0
280
     0
281
     0
  0
CLASS
  1
DICTIONARYVAR
  2
AcDbDictionaryVar
  3
ObjectDBX Classes
 90
        0
280
     0
281
     0
  0
CLASS
  1
ACDBPLACEHOLDER
  2
AcDbPlaceHolder
  3
ObjectDBX Classes
 90
        0
280
     0
281
     0
  0
CLASS
  1
LAYOUT
  2
AcDbLayout
  3
ObjectDBX Classes
 90
        0
280
     0
281
     0
  0
ENDSEC
  0
SECTION
  2
TABLES
  0
TABLE
  2
VPORT
  5
746D
330
0
100
AcDbSymbolTable
 70
     2
  0
VPORT
  5
17A2E
330
746D
100
AcDbSymbolTableRecord
100
AcDbViewportTableRecord
  2
*Active
 70
     0
 10
0.0
 20
0.0
 11
1.0
 21
1.0
 12
8223.761025238504
 22
5704.608037261908
 13
0.0
 23
0.0
 14
10.0
 24
10.0
 15
10.0
 25
10.0
 16
0.0
 26
0.0
 36
1.0
 17
0.0
 27
0.0
 37
0.0
 40
11495.08541324274
 41
1.525925925925925
 42
50.0
 43
0.0
 44
0.0
 50
0.0
 51
0.0
 71
     0
 72
     0
 73
     1
 74
     0
 75
     0
 76
     0
 77
     0
 78
     0
281
     0
 65
     1
110
0.0
120
0.0
130
0.0
111
1.0
121
0.0
131
0.0
112
0.0
122
1.0
132
0.0
 79
     0
146
0.0
  0
ENDTAB
  0
TABLE
  2
LTYPE
  5
746A
330
0
100
AcDbSymbolTable
 70
     4
  0
LTYPE
  5
7477
330
746A
100
AcDbSymbolTableRecord
100
AcDbLinetypeTableRecord
  2
BYBLOCK
 70
     0
  3

 72
    65
 73
     0
 40
0.0
  0
LTYPE
  5
7478
330
746A
100
AcDbSymbolTableRecord
100
AcDbLinetypeTableRecord
  2
BYLAYER
 70
     0
  3

 72
    65
 73
     0
 40
0.0
  0
LTYPE
  5
7479
330
746A
100
AcDbSymbolTableRecord
100
AcDbLinetypeTableRecord
  2
CONTINUOUS
 70
     0
  3
Solid line
 72
    65
 73
     0
 40
0.0
  0
LTYPE
  5
7816
330
746A
100
AcDbSymbolTableRecord
100
AcDbLinetypeTableRecord
  2
CENTER
 70
     0
  3
____ _ ____ _ ____ _ ____ _ ____ _ ____ _ ____ 
 72
    65
 73
     4
 40
2.0
 49
1.25
 74
     0
 49
-0.25
 74
     0
 49
0.25
 74
     0
 49
-0.25
 74
     0
  0
LTYPE
  5
781A
330
746A
100
AcDbSymbolTableRecord
100
AcDbLinetypeTableRecord
  2
HIDDEN
 70
     0
  3
__ __ __ __ __ __ __ __ __ __ __ __ __ __ __ __
 72
    65
 73
     2
 40
0.375
 49
0.25
 74
     0
 49
-0.125
 74
     0
  0
LTYPE
  5
781B
330
746A
100
AcDbSymbolTableRecord
100
AcDbLinetypeTableRecord
  2
PHANTOM
 70
     0
  3
______  __  __  ______  __  __  ______  __  __ 
 72
    65
 73
     6
 40
2.5
 49
1.25
 74
     0
 49
-0.25
 74
     0
 49
0.25
 74
     0
 49
-0.25
 74
     0
 49
0.25
 74
     0
 49
-0.25
 74
     0
  0
ENDTAB
  0
TABLE
  2
LAYER
  5
7467
102
{ACAD_XDICTIONARY
360
166F2
102
}
330
0
100
AcDbSymbolTable
 70
    12
  0
LAYER
  5
7474
330
7467
100
AcDbSymbolTableRecord
100
AcDbLayerTableRecord
  2
0
 70
     0
 62
     7
  6
CONTINUOUS
370
    -3
390
16556
  0
LAYER
  5
DEB2
330
7467
100
AcDbSymbolTableRecord
100
AcDbLayerTableRecord
  2
センター
 70
     0
 62
     3
  6
CENTER
370
    -3
390
16556
  0
LAYER
  5
DEB3
330
7467
100
AcDbSymbolTableRecord
100
AcDbLayerTableRecord
  2
寸法
 70
     0
 62
     4
  6
CONTINUOUS
370
    -3
390
16556
  0
LAYER
  5
DEB4
330
7467
100
AcDbSymbolTableRecord
100
AcDbLayerTableRecord
  2
部品1
 70
     0
 62
     7
  6
CONTINUOUS
370
    -3
390
16556
  0
LAYER
  5
DEB5
330
7467
100
AcDbSymbolTableRecord
100
AcDbLayerTableRecord
  2
補助
 70
     0
 62
    -1
  6
CONTINUOUS
370
    -3
390
16556
  0
LAYER
  5
DEB6
330
7467
100
AcDbSymbolTableRecord
100
AcDbLayerTableRecord
  2
文字
 70
     0
 62
     7
  6
CONTINUOUS
370
    -3
390
16556
  0
LAYER
  5
F255
330
7467
100
AcDbSymbolTableRecord
100
AcDbLayerTableRecord
  2
DEFPOINTS
 70
     0
 62
     7
  6
CONTINUOUS
290
     0
370
    -3
390
16556
  0
LAYER
  5
10B54
330
7467
100
AcDbSymbolTableRecord
100
AcDbLayerTableRecord
  2
仕様書枠
 70
     0
 62
   230
  6
CONTINUOUS
370
    -3
390
16556
  0
LAYER
  5
11729
330
7467
100
AcDbSymbolTableRecord
100
AcDbLayerTableRecord
  2
Ｇ．Ｌ
 70
     0
 62
    30
  6
CONTINUOUS
370
    -3
390
16556
  0
LAYER
  5
1173F
330
7467
100
AcDbSymbolTableRecord
100
AcDbLayerTableRecord
  2
細線
 70
     0
 62
     5
  6
CONTINUOUS
370
    -3
390
16556
  0
LAYER
  5
12CC4
330
7467
100
AcDbSymbolTableRecord
100
AcDbLayerTableRecord
  2
想像線
 70
     0
 62
     6
  6
PHANTOM
370
    -3
390
16556
  0
LAYER
  5
142E2
330
7467
100
AcDbSymbolTableRecord
100
AcDbLayerTableRecord
  2
破線
 70
     0
 62
     2
  6
HIDDEN
370
    -3
390
16556
  0
ENDTAB
  0
TABLE
  2
STYLE
  5
7468
330
0
100
AcDbSymbolTable
 70
     4
  0
STYLE
  5
7475
330
7468
100
AcDbSymbolTableRecord
100
AcDbTextStyleTableRecord
  2
STANDARD
 70
     0
 40
0.0
 41
1.0
 50
0.0
 71
     0
 42
4.0
  3
txt
  4
C:\AutoCAD LT\bigfont.shx
  0
STYLE
  5
F706
330
7468
100
AcDbSymbolTableRecord
100
AcDbTextStyleTableRecord
  2
STYLE1
 70
     0
 40
0.0
 41
1.0
 50
0.0
 71
     0
 42
4.0
  3
isocp.shx
  4
bigfont.shx
  0
STYLE
  5
103BF
330
7468
100
AcDbSymbolTableRecord
100
AcDbTextStyleTableRecord
  2
STYLE2
 70
     0
 40
0.0
 41
1.0
 50
0.0
 71
     0
 42
100.0
  3
MS PGothic.ttf
  4

1001
ACAD
1000
MS PGothic
1071
    32818
  0
STYLE
  5
16FD9
330
7468
100
AcDbSymbolTableRecord
100
AcDbTextStyleTableRecord
  2
STYLE3
 70
     0
 40
0.0
 41
1.0
 50
0.0
 71
     0
 42
100.0
  3
DFPGothic-EB.ttf
  4

1001
ACAD
1000
DFPGothic-EB
1071
    32818
  0
ENDTAB
  0
TABLE
  2
VIEW
  5
746B
330
0
100
AcDbSymbolTable
 70
     0
  0
ENDTAB
  0
TABLE
  2
UCS
  5
746C
330
0
100
AcDbSymbolTable
 70
     0
  0
ENDTAB
  0
TABLE
  2
APPID
  5
746E
330
0
100
AcDbSymbolTable
 70
     6
  0
APPID
  5
7476
330
746E
100
AcDbSymbolTableRecord
100
AcDbRegAppTableRecord
  2
ACAD
 70
     0
  0
APPID
  5
DEA9
330
746E
100
AcDbSymbolTableRecord
100
AcDbRegAppTableRecord
  2
CONTENTBLOCKICON
 70
     0
  0
APPID
  5
DEAA
330
746E
100
AcDbSymbolTableRecord
100
AcDbRegAppTableRecord
  2
CONTENTBLOCKDESCRIPTION
 70
     0
  0
APPID
  5
E71D
330
746E
100
AcDbSymbolTableRecord
100
AcDbRegAppTableRecord
  2
CONTENTTABDATA
 70
     0
  0
APPID
  5
E71E
330
746E
100
AcDbSymbolTableRecord
100
AcDbRegAppTableRecord
  2
CONTENTCURRENTTAB
 70
     0
  0
APPID
  5
F3BA
330
746E
100
AcDbSymbolTableRecord
100
AcDbRegAppTableRecord
  2
DRAWINGVARIABLESXDATA
 70
     0
  0
ENDTAB
  0
TABLE
  2
DIMSTYLE
  5
746F
330
0
100
AcDbSymbolTable
 70
     5
100
AcDbDimStyleTable
 71
     0
  0
DIMSTYLE
105
7484
330
746F
100
AcDbSymbolTableRecord
100
AcDbDimStyleTableRecord
  2
JIS
 70
     0
 41
2.5
 42
1.0
 43
7.0
 44
1.0
 73
     0
 74
     0
 77
     1
 78
     8
140
2.5
141
0.0
143
0.0394
147
0.0
172
     1
174
     1
175
     1
340
7475
  0
DIMSTYLE
105
F71F
102
{ACAD_REACTORS
330
16A36
330
16A37
330
16A38
330
16A39
330
16A3D
330
16A74
330
16A75
330
16A79
330
16A84
330
16A85
330
16BDE
330
16BDF
330
16BE0
330
16C5D
330
16C9F
330
16CA0
330
16CA1
330
16CA2
330
16CA6
330
16CA7
330
16CA8
330
16CA9
330
16CE8
330
16CFB
330
16CFD
330
16D01
330
16A16
330
16A17
330
176BF
330
177C0
102
}
330
746F
100
AcDbSymbolTableRecord
100
AcDbDimStyleTableRecord
  2
INABA_S40G
 70
     0
 40
40.0
 41
2.5
 42
0.5
 43
7.0
 44
1.5
 73
     0
 74
     0
 77
     3
 78
     8
140
3.0
141
0.0
143
0.0394
147
1.0
172
     1
173
     1
174
     1
178
     7
271
     1
340
F706
341
F770
343
F770
344
F770
  0
DIMSTYLE
105
166F1
102
{ACAD_REACTORS
330
1742A
330
176C0
102
}
330
746F
100
AcDbSymbolTableRecord
100
AcDbDimStyleTableRecord
  2
INABA_S40
 70
     0
 40
40.0
 41
2.5
 42
0.5
 43
7.0
 44
1.5
 73
     0
 74
     0
 77
     3
 78
     8
140
3.0
141
0.0
143
0.0394
147
1.0
172
     1
173
     1
174
     1
175
     1
178
     7
340
7475
  0
DIMSTYLE
105
16FDA
330
746F
100
AcDbSymbolTableRecord
100
AcDbDimStyleTableRecord
  2
INABA_S50G
 70
     0
 41
125.0
 42
25.0
 43
7.0
 44
75.0
 73
     0
 74
     0
 77
     3
 78
     8
140
150.0
141
0.0
143
0.0394
147
25.0
172
     1
173
     1
174
     1
175
     1
178
     7
271
     1
340
F706
341
F770
343
F770
344
F770
  0
DIMSTYLE
105
179B4
330
746F
100
AcDbSymbolTableRecord
100
AcDbDimStyleTableRecord
  2
INABA_S20G
 70
     0
 40
20.0
 41
2.5
 42
0.5
 43
7.0
 44
1.5
 73
     0
 74
     0
 77
     3
 78
     8
140
3.0
141
0.0
143
0.0394
147
1.0
172
     1
173
     1
174
     1
178
     7
271
     1
340
F706
341
F770
343
F770
344
F770
  0
ENDTAB
  0
TABLE
  2
BLOCK_RECORD
  5
7466
330
0
100
AcDbSymbolTable
 70
    34
  0
BLOCK_RECORD
  5
747D
330
7466
100
AcDbSymbolTableRecord
100
AcDbBlockTableRecord
  2
*MODEL_SPACE
340
1655B
  0
BLOCK_RECORD
  5
747A
330
7466
100
AcDbSymbolTableRecord
100
AcDbBlockTableRecord
  2
*PAPER_SPACE
340
1655C
  0
BLOCK_RECORD
  5
F770
330
7466
100
AcDbSymbolTableRecord
100
AcDbBlockTableRecord
  2
_DOTSMALL
340
0
102
{BLKREFS
331
171C7
331
171C8
331
171D0
331
171D1
331
171DA
331
171DB
331
171E4
331
171E5
331
171ED
331
171EE
331
171F8
331
171F9
331
17201
331
17202
331
1720A
331
1720B
331
17215
331
17216
331
1721F
331
17220
331
17228
331
17229
331
17231
331
17232
331
17247
331
17248
331
17250
331
17251
331
1725B
331
1725C
331
17264
331
17265
331
172E1
331
172E2
331
172EA
331
172EB
331
17926
331
17927
331
1793A
331
1793B
331
1794E
331
1794F
331
17957
331
17958
331
17962
331
17963
331
1796B
331
1796C
331
17974
331
17975
331
1797D
331
1797E
331
17986
331
17987
331
17991
331
17992
331
1799A
331
1799B
331
179A5
331
179A6
102
}
  0
BLOCK_RECORD
  5
16563
330
7466
100
AcDbSymbolTableRecord
100
AcDbBlockTableRecord
  2
_DOT
340
0
102
{BLKREFS
331
17931
331
17932
331
17943
331
17944
102
}
  0
BLOCK_RECORD
  5
16D18
330
7466
100
AcDbSymbolTableRecord
100
AcDbBlockTableRecord
  2
*D2
340
0
  0
BLOCK_RECORD
  5
16D26
330
7466
100
AcDbSymbolTableRecord
100
AcDbBlockTableRecord
  2
*D3
340
0
  0
BLOCK_RECORD
  5
16D32
330
7466
100
AcDbSymbolTableRecord
100
AcDbBlockTableRecord
  2
*D4
340
0
  0
BLOCK_RECORD
  5
16D40
330
7466
100
AcDbSymbolTableRecord
100
AcDbBlockTableRecord
  2
*D5
340
0
  0
BLOCK_RECORD
  5
16D58
330
7466
100
AcDbSymbolTableRecord
100
AcDbBlockTableRecord
  2
*D6
340
0
  0
BLOCK_RECORD
  5
16D64
330
7466
100
AcDbSymbolTableRecord
100
AcDbBlockTableRecord
  2
*D7
340
0
  0
BLOCK_RECORD
  5
16D70
330
7466
100
AcDbSymbolTableRecord
100
AcDbBlockTableRecord
  2
*D8
340
0
  0
BLOCK_RECORD
  5
16D7C
330
7466
100
AcDbSymbolTableRecord
100
AcDbBlockTableRecord
  2
*D9
340
0
  0
BLOCK_RECORD
  5
16D8A
330
7466
100
AcDbSymbolTableRecord
100
AcDbBlockTableRecord
  2
*D10
340
0
  0
BLOCK_RECORD
  5
16D96
330
7466
100
AcDbSymbolTableRecord
100
AcDbBlockTableRecord
  2
*D11
340
0
  0
BLOCK_RECORD
  5
16DB0
330
7466
100
AcDbSymbolTableRecord
100
AcDbBlockTableRecord
  2
*D12
340
0
  0
BLOCK_RECORD
  5
16DBC
330
7466
100
AcDbSymbolTableRecord
100
AcDbBlockTableRecord
  2
*D13
340
0
  0
BLOCK_RECORD
  5
16DCA
330
7466
100
AcDbSymbolTableRecord
100
AcDbBlockTableRecord
  2
*D14
340
0
  0
BLOCK_RECORD
  5
16DD6
330
7466
100
AcDbSymbolTableRecord
100
AcDbBlockTableRecord
  2
*D15
340
0
  0
BLOCK_RECORD
  5
16DF2
330
7466
100
AcDbSymbolTableRecord
100
AcDbBlockTableRecord
  2
*D16
340
0
  0
BLOCK_RECORD
  5
16DFE
330
7466
100
AcDbSymbolTableRecord
100
AcDbBlockTableRecord
  2
*D17
340
0
  0
BLOCK_RECORD
  5
16E0A
330
7466
100
AcDbSymbolTableRecord
100
AcDbBlockTableRecord
  2
*D18
340
0
  0
BLOCK_RECORD
  5
16E17
330
7466
100
AcDbSymbolTableRecord
100
AcDbBlockTableRecord
  2
*D19
340
0
  0
BLOCK_RECORD
  5
16E25
330
7466
100
AcDbSymbolTableRecord
100
AcDbBlockTableRecord
  2
*D20
340
0
  0
BLOCK_RECORD
  5
16E31
330
7466
100
AcDbSymbolTableRecord
100
AcDbBlockTableRecord
  2
*D21
340
0
  0
BLOCK_RECORD
  5
16E3D
330
7466
100
AcDbSymbolTableRecord
100
AcDbBlockTableRecord
  2
*D22
340
0
  0
BLOCK_RECORD
  5
16E4B
330
7466
100
AcDbSymbolTableRecord
100
AcDbBlockTableRecord
  2
*D23
340
0
  0
BLOCK_RECORD
  5
16E57
330
7466
100
AcDbSymbolTableRecord
100
AcDbBlockTableRecord
  2
*D24
340
0
  0
BLOCK_RECORD
  5
16E64
330
7466
100
AcDbSymbolTableRecord
100
AcDbBlockTableRecord
  2
*D25
340
0
  0
BLOCK_RECORD
  5
16E71
330
7466
100
AcDbSymbolTableRecord
100
AcDbBlockTableRecord
  2
*D26
340
0
  0
BLOCK_RECORD
  5
16E7D
330
7466
100
AcDbSymbolTableRecord
100
AcDbBlockTableRecord
  2
*D27
340
0
  0
BLOCK_RECORD
  5
16E89
330
7466
100
AcDbSymbolTableRecord
100
AcDbBlockTableRecord
  2
*D28
340
0
  0
BLOCK_RECORD
  5
16E95
330
7466
100
AcDbSymbolTableRecord
100
AcDbBlockTableRecord
  2
*D29
340
0
  0
BLOCK_RECORD
  5
17495
330
7466
100
AcDbSymbolTableRecord
100
AcDbBlockTableRecord
  2
*D30
340
0
  0
BLOCK_RECORD
  5
177CC
330
7466
100
AcDbSymbolTableRecord
100
AcDbBlockTableRecord
  2
*D31
340
0
  0
BLOCK_RECORD
  5
177D8
330
7466
100
AcDbSymbolTableRecord
100
AcDbBlockTableRecord
  2
*D32
340
0
  0
BLOCK_RECORD
  5
1783E
330
7466
100
AcDbSymbolTableRecord
100
AcDbBlockTableRecord
  2
*D33
340
0
  0
ENDTAB
  0
ENDSEC
  0
SECTION
  2
BLOCKS
  0
BLOCK
  5
7489
330
747D
100
AcDbEntity
  8
0
100
AcDbBlockBegin
  2
*MODEL_SPACE
 70
     0
 10
0.0
 20
0.0
 30
0.0
  3
*MODEL_SPACE
  1

  0
ENDBLK
  5
748A
330
747D
100
AcDbEntity
  8
0
100
AcDbBlockEnd
  0
BLOCK
  5
7487
330
747A
100
AcDbEntity
 67
     1
  8
0
100
AcDbBlockBegin
  2
*PAPER_SPACE
 70
     0
 10
0.0
 20
0.0
 30
0.0
  3
*PAPER_SPACE
  1

  0
ENDBLK
  5
7488
330
747A
100
AcDbEntity
 67
     1
  8
0
100
AcDbBlockEnd
  0
BLOCK
  5
F771
330
F770
100
AcDbEntity
  8
0
 48
50.0
100
AcDbBlockBegin
  2
_DOTSMALL
 70
     0
 10
0.0
 20
0.0
 30
0.0
  3
_DOTSMALL
  1

  0
LWPOLYLINE
  5
F772
330
F770
100
AcDbEntity
  8
0
  6
ByBlock
 62
     0
 48
50.0
100
AcDbPolyline
 90
        2
 70
     1
 43
0.5
 10
-0.0625
 20
0.0
 42
1.0
 10
0.0625
 20
0.0
 42
1.0
  0
ENDBLK
  5
F776
330
F770
100
AcDbEntity
  8
0
 48
50.0
100
AcDbBlockEnd
  0
BLOCK
  5
16564
330
16563
100
AcDbEntity
  8
0
 48
50.0
100
AcDbBlockBegin
  2
_DOT
 70
     0
 10
0.0
 20
0.0
 30
0.0
  3
_DOT
  1

  0
LWPOLYLINE
  5
16565
330
16563
100
AcDbEntity
  8
0
  6
ByBlock
 62
     0
 48
50.0
100
AcDbPolyline
 90
        2
 70
     1
 43
0.5
 10
-0.25
 20
0.0
 42
1.0
 10
0.25
 20
0.0
 42
1.0
  0
LINE
  5
16566
330
16563
100
AcDbEntity
  8
0
  6
ByBlock
 62
     0
 48
50.0
100
AcDbLine
 10
-0.5
 20
0.0
 30
0.0
 11
-1.0
 21
0.0
 31
0.0
  0
ENDBLK
  5
16567
330
16563
100
AcDbEntity
  8
0
 48
50.0
100
AcDbBlockEnd
  0
BLOCK
  5
16D24
330
16D18
100
AcDbEntity
  8
0
 48
50.0
100
AcDbBlockBegin
  2
*D2
 70
     1
 10
0.0
 20
0.0
 30
0.0
  3
*D2
  1

  0
LINE
  5
179A0
330
16D18
100
AcDbEntity
  8
寸法
 62
     0
 48
50.0
370
    -2
100
AcDbLine
 10
8892.011791341833
 20
9703.515418979382
 30
0.0
 11
8892.011791341833
 21
10043.51541897938
 31
0.0
  0
LINE
  5
179A1
330
16D18
100
AcDbEntity
  8
寸法
 62
     0
 48
50.0
370
    -2
100
AcDbLine
 10
8947.01179134187
 20
9703.515418979382
 30
0.0
 11
8947.01179134187
 21
10043.51541897938
 31
0.0
  0
LINE
  5
179A2
330
16D18
100
AcDbEntity
  8
寸法
 62
     0
 48
50.0
370
    -2
100
AcDbLine
 10
8947.01179134187
 20
9983.515418979381
 30
0.0
 11
9047.011791341869
 21
9983.515418979381
 31
0.0
  0
LINE
  5
179A3
330
16D18
100
AcDbEntity
  8
寸法
 62
     0
 48
50.0
370
    -2
100
AcDbLine
 10
8892.011791341833
 20
9983.515418979381
 30
0.0
 11
8475.041228593356
 21
9983.515418979381
 31
0.0
  0
LINE
  5
179A4
330
16D18
100
AcDbEntity
  8
寸法
 62
     0
 48
50.0
370
    -2
100
AcDbLine
 10
8947.01179134187
 20
9983.515418979381
 30
0.0
 11
8892.011791341833
 21
9983.515418979381
 31
0.0
  0
INSERT
  5
179A5
330
16D18
100
AcDbEntity
  8
寸法
 62
     0
 48
50.0
370
    -2
100
AcDbBlockReference
  2
_DOTSMALL
 10
8947.01179134187
 20
9983.515418979381
 30
0.0
 41
100.0
 42
100.0
 43
100.0
 50
180.0
  0
INSERT
  5
179A6
330
16D18
100
AcDbEntity
  8
寸法
 62
     0
 48
50.0
370
    -2
100
AcDbBlockReference
  2
_DOTSMALL
 10
8892.011791341833
 20
9983.515418979381
 30
0.0
 41
100.0
 42
100.0
 43
100.0
  0
MTEXT
  5
179A7
330
16D18
100
AcDbEntity
  8
寸法
 62
     7
 48
50.0
100
AcDbMText
 10
8583.526509967596
 20
10083.51541897938
 30
0.0
 40
120.0
 41
0.0
 71
     5
 72
     1
  1
\A1;55
  7
STYLE1
 73
     1
 44
1.0
1001
ACAD
1000
MTEXTBEGIN
1070
    73
1070
     1
1070
    44
1040
1.0
1070
    74
1070
     0
1000
MTEXTEND
  0
POINT
  5
179A8
330
16D18
100
AcDbEntity
  8
DEFPOINTS
 62
     0
 48
50.0
100
AcDbPoint
 10
8892.011791341833
 20
9683.515418979382
 30
0.0
  0
POINT
  5
179A9
330
16D18
100
AcDbEntity
  8
DEFPOINTS
 62
     0
 48
50.0
100
AcDbPoint
 10
8947.01179134187
 20
9683.515418979382
 30
0.0
  0
POINT
  5
179AA
330
16D18
100
AcDbEntity
  8
DEFPOINTS
 62
     0
 48
50.0
100
AcDbPoint
 10
8947.01179134187
 20
9983.515418979381
 30
0.0
  0
ENDBLK
  5
16D25
330
16D18
100
AcDbEntity
  8
0
 48
50.0
100
AcDbBlockEnd
  0
BLOCK
  5
16D30
330
16D26
100
AcDbEntity
  8
0
 48
50.0
100
AcDbBlockBegin
  2
*D3
 70
     1
 10
0.0
 20
0.0
 30
0.0
  3
*D3
  1

  0
LINE
  5
17997
330
16D26
100
AcDbEntity
  8
寸法
 62
     0
 48
50.0
370
    -2
100
AcDbLine
 10
8914.152807493177
 20
9183.515418979428
 30
0.0
 11
8817.700907959931
 21
8823.55202943483
 31
0.0
  0
LINE
  5
17998
330
16D26
100
AcDbEntity
  8
寸法
 62
     0
 48
50.0
370
    -2
100
AcDbLine
 10
10187.15280749324
 20
9183.515418979421
 30
0.0
 11
10090.70090796
 21
8823.55202943483
 31
0.0
  0
LINE
  5
17999
330
16D26
100
AcDbEntity
  8
寸法
 62
     0
 48
50.0
370
    -2
100
AcDbLine
 10
8833.777859505799
 20
8883.552029434829
 30
0.0
 11
10106.77785950587
 21
8883.552029434829
 31
0.0
  0
INSERT
  5
1799A
330
16D26
100
AcDbEntity
  8
寸法
 62
     0
 48
50.0
370
    -2
100
AcDbBlockReference
  2
_DOTSMALL
 10
8833.777859505799
 20
8883.552029434829
 30
0.0
 41
100.0
 42
100.0
 43
100.0
 50
180.0
  0
INSERT
  5
1799B
330
16D26
100
AcDbEntity
  8
寸法
 62
     0
 48
50.0
370
    -2
100
AcDbBlockReference
  2
_DOTSMALL
 10
10106.77785950587
 20
8883.552029434829
 30
0.0
 41
100.0
 42
100.0
 43
100.0
  0
MTEXT
  5
1799C
330
16D26
100
AcDbEntity
  8
寸法
 62
     7
 48
50.0
100
AcDbMText
 10
9470.277859505834
 20
8983.563840458451
 30
0.0
 40
120.0
 41
0.0
 71
     5
 72
     1
  1
\A1;1273
  7
STYLE1
 73
     1
 44
1.0
1001
ACAD
1000
MTEXTBEGIN
1070
    73
1070
     1
1070
    44
1040
1.0
1070
    74
1070
     0
1000
MTEXTEND
  0
POINT
  5
1799D
330
16D26
100
AcDbEntity
  8
DEFPOINTS
 62
     0
 48
50.0
100
AcDbPoint
 10
8919.5117913418
 20
9203.515418979428
 30
0.0
  0
POINT
  5
1799E
330
16D26
100
AcDbEntity
  8
DEFPOINTS
 62
     0
 48
50.0
100
AcDbPoint
 10
10192.51179134187
 20
9203.515418979421
 30
0.0
  0
POINT
  5
1799F
330
16D26
100
AcDbEntity
  8
DEFPOINTS
 62
     0
 48
50.0
100
AcDbPoint
 10
10106.77785950587
 20
8883.552029434829
 30
0.0
  0
ENDBLK
  5
16D31
330
16D26
100
AcDbEntity
  8
0
 48
50.0
100
AcDbBlockEnd
  0
BLOCK
  5
16D3E
330
16D32
100
AcDbEntity
  8
0
 48
50.0
100
AcDbBlockBegin
  2
*D4
 70
     1
 10
0.0
 20
0.0
 30
0.0
  3
*D4
  1

  0
LINE
  5
1798C
330
16D32
100
AcDbEntity
  8
寸法
 62
     0
 48
50.0
370
    -2
100
AcDbLine
 10
11467.01179134187
 20
9703.515418979476
 30
0.0
 11
11467.01179134187
 21
10043.51541897938
 31
0.0
  0
LINE
  5
1798D
330
16D32
100
AcDbEntity
  8
寸法
 62
     0
 48
50.0
370
    -2
100
AcDbLine
 10
11522.01179134187
 20
9703.515418979476
 30
0.0
 11
11522.01179134187
 21
10043.51541897938
 31
0.0
  0
LINE
  5
1798E
330
16D32
100
AcDbEntity
  8
寸法
 62
     0
 48
50.0
370
    -2
100
AcDbLine
 10
11467.01179134187
 20
9983.515418979381
 30
0.0
 11
11367.01179134187
 21
9983.515418979381
 31
0.0
  0
LINE
  5
1798F
330
16D32
100
AcDbEntity
  8
寸法
 62
     0
 48
50.0
370
    -2
100
AcDbLine
 10
11522.01179134187
 20
9983.515418979381
 30
0.0
 11
11938.98235409035
 21
9983.515418979381
 31
0.0
  0
LINE
  5
17990
330
16D32
100
AcDbEntity
  8
寸法
 62
     0
 48
50.0
370
    -2
100
AcDbLine
 10
11467.01179134187
 20
9983.515418979381
 30
0.0
 11
11522.01179134187
 21
9983.515418979381
 31
0.0
  0
INSERT
  5
17991
330
16D32
100
AcDbEntity
  8
寸法
 62
     0
 48
50.0
370
    -2
100
AcDbBlockReference
  2
_DOTSMALL
 10
11467.01179134187
 20
9983.515418979381
 30
0.0
 41
100.0
 42
100.0
 43
100.0
  0
INSERT
  5
17992
330
16D32
100
AcDbEntity
  8
寸法
 62
     0
 48
50.0
370
    -2
100
AcDbBlockReference
  2
_DOTSMALL
 10
11522.01179134187
 20
9983.515418979381
 30
0.0
 41
100.0
 42
100.0
 43
100.0
 50
180.0
  0
MTEXT
  5
17993
330
16D32
100
AcDbEntity
  8
寸法
 62
     7
 48
50.0
100
AcDbMText
 10
11830.49707271611
 20
10083.51541897938
 30
0.0
 40
120.0
 41
0.0
 71
     5
 72
     1
  1
\A1;55
  7
STYLE1
 73
     1
 44
1.0
1001
ACAD
1000
MTEXTBEGIN
1070
    73
1070
     1
1070
    44
1040
1.0
1070
    74
1070
     0
1000
MTEXTEND
  0
POINT
  5
17994
330
16D32
100
AcDbEntity
  8
DEFPOINTS
 62
     0
 48
50.0
100
AcDbPoint
 10
11467.01179134187
 20
9683.515418979476
 30
0.0
  0
POINT
  5
17995
330
16D32
100
AcDbEntity
  8
DEFPOINTS
 62
     0
 48
50.0
100
AcDbPoint
 10
11522.01179134187
 20
9683.515418979476
 30
0.0
  0
POINT
  5
17996
330
16D32
100
AcDbEntity
  8
DEFPOINTS
 62
     0
 48
50.0
100
AcDbPoint
 10
11522.01179134187
 20
9983.515418979381
 30
0.0
  0
ENDBLK
  5
16D3F
330
16D32
100
AcDbEntity
  8
0
 48
50.0
100
AcDbBlockEnd
  0
BLOCK
  5
16D4A
330
16D40
100
AcDbEntity
  8
0
 48
50.0
100
AcDbBlockBegin
  2
*D5
 70
     1
 10
0.0
 20
0.0
 30
0.0
  3
*D5
  1

  0
LINE
  5
17983
330
16D40
100
AcDbEntity
  8
寸法
 62
     0
 48
50.0
370
    -2
100
AcDbLine
 10
8947.01179134187
 20
9703.515418979382
 30
0.0
 11
8947.01179134187
 21
10043.51541897938
 31
0.0
  0
LINE
  5
17984
330
16D40
100
AcDbEntity
  8
寸法
 62
     0
 48
50.0
370
    -2
100
AcDbLine
 10
11467.01179134187
 20
9703.515418979476
 30
0.0
 11
11467.01179134187
 21
10043.51541897938
 31
0.0
  0
LINE
  5
17985
330
16D40
100
AcDbEntity
  8
寸法
 62
     0
 48
50.0
370
    -2
100
AcDbLine
 10
8947.01179134187
 20
9983.515418979381
 30
0.0
 11
11467.01179134187
 21
9983.515418979381
 31
0.0
  0
INSERT
  5
17986
330
16D40
100
AcDbEntity
  8
寸法
 62
     0
 48
50.0
370
    -2
100
AcDbBlockReference
  2
_DOTSMALL
 10
8947.01179134187
 20
9983.515418979381
 30
0.0
 41
100.0
 42
100.0
 43
100.0
 50
180.0
  0
INSERT
  5
17987
330
16D40
100
AcDbEntity
  8
寸法
 62
     0
 48
50.0
370
    -2
100
AcDbBlockReference
  2
_DOTSMALL
 10
11467.01179134187
 20
9983.515418979381
 30
0.0
 41
100.0
 42
100.0
 43
100.0
  0
MTEXT
  5
17988
330
16D40
100
AcDbEntity
  8
寸法
 62
     7
 48
50.0
100
AcDbMText
 10
10207.01179134186
 20
10083.527230003
 30
0.0
 40
120.0
 41
0.0
 71
     5
 72
     1
  1
\A1;6X420=2520
  7
STYLE1
 73
     1
 44
1.0
1001
ACAD
1000
MTEXTBEGIN
1070
    73
1070
     1
1070
    44
1040
1.0
1070
    74
1070
     0
1000
MTEXTEND
  0
POINT
  5
17989
330
16D40
100
AcDbEntity
  8
DEFPOINTS
 62
     0
 48
50.0
100
AcDbPoint
 10
8947.01179134187
 20
9683.515418979382
 30
0.0
  0
POINT
  5
1798A
330
16D40
100
AcDbEntity
  8
DEFPOINTS
 62
     0
 48
50.0
100
AcDbPoint
 10
11467.01179134187
 20
9683.515418979476
 30
0.0
  0
POINT
  5
1798B
330
16D40
100
AcDbEntity
  8
DEFPOINTS
 62
     0
 48
50.0
100
AcDbPoint
 10
11467.01179134187
 20
9983.515418979381
 30
0.0
  0
ENDBLK
  5
16D4B
330
16D40
100
AcDbEntity
  8
0
 48
50.0
100
AcDbBlockEnd
  0
BLOCK
  5
16D62
330
16D58
100
AcDbEntity
  8
0
 48
50.0
100
AcDbBlockBegin
  2
*D6
 70
     1
 10
0.0
 20
0.0
 30
0.0
  3
*D6
  1

  0
LINE
  5
1797A
330
16D58
100
AcDbEntity
  8
寸法
 62
     0
 48
50.0
370
    -2
100
AcDbLine
 10
10214.15280749324
 20
9183.515418979487
 30
0.0
 11
10117.70090795998
 21
8823.55202943483
 31
0.0
  0
LINE
  5
1797B
330
16D58
100
AcDbEntity
  8
寸法
 62
     0
 48
50.0
370
    -2
100
AcDbLine
 10
11487.15280749325
 20
9183.51541897948
 30
0.0
 11
11390.70090796
 21
8823.55202943483
 31
0.0
  0
LINE
  5
1797C
330
16D58
100
AcDbEntity
  8
寸法
 62
     0
 48
50.0
370
    -2
100
AcDbLine
 10
10133.77785950585
 20
8883.552029434829
 30
0.0
 11
11406.77785950586
 21
8883.552029434829
 31
0.0
  0
INSERT
  5
1797D
330
16D58
100
AcDbEntity
  8
寸法
 62
     0
 48
50.0
370
    -2
100
AcDbBlockReference
  2
_DOTSMALL
 10
10133.77785950585
 20
8883.552029434829
 30
0.0
 41
100.0
 42
100.0
 43
100.0
 50
180.0
  0
INSERT
  5
1797E
330
16D58
100
AcDbEntity
  8
寸法
 62
     0
 48
50.0
370
    -2
100
AcDbBlockReference
  2
_DOTSMALL
 10
11406.77785950586
 20
8883.552029434829
 30
0.0
 41
100.0
 42
100.0
 43
100.0
  0
MTEXT
  5
1797F
330
16D58
100
AcDbEntity
  8
寸法
 62
     7
 48
50.0
100
AcDbMText
 10
10839.89969865588
 20
8983.563840458451
 30
0.0
 40
120.0
 41
0.0
 71
     5
 72
     1
  1
\A1;1273
  7
STYLE1
 73
     1
 44
1.0
1001
ACAD
1000
MTEXTBEGIN
1070
    73
1070
     1
1070
    44
1040
1.0
1070
    74
1070
     0
1000
MTEXTEND
  0
POINT
  5
17980
330
16D58
100
AcDbEntity
  8
DEFPOINTS
 62
     0
 48
50.0
100
AcDbPoint
 10
10219.51179134187
 20
9203.515418979486
 30
0.0
  0
POINT
  5
17981
330
16D58
100
AcDbEntity
  8
DEFPOINTS
 62
     0
 48
50.0
100
AcDbPoint
 10
11492.51179134188
 20
9203.515418979479
 30
0.0
  0
POINT
  5
17982
330
16D58
100
AcDbEntity
  8
DEFPOINTS
 62
     0
 48
50.0
100
AcDbPoint
 10
11406.77785950586
 20
8883.552029434829
 30
0.0
  0
ENDBLK
  5
16D63
330
16D58
100
AcDbEntity
  8
0
 48
50.0
100
AcDbBlockEnd
  0
BLOCK
  5
16D6E
330
16D64
100
AcDbEntity
  8
0
 48
50.0
100
AcDbBlockBegin
  2
*D7
 70
     1
 10
0.0
 20
0.0
 30
0.0
  3
*D7
  1

  0
LINE
  5
17971
330
16D64
100
AcDbEntity
  8
寸法
 62
     0
 48
50.0
370
    -2
100
AcDbLine
 10
11542.01179134187
 20
9683.515418979476
 30
0.0
 11
12582.01179134187
 21
9683.515418979474
 31
0.0
  0
LINE
  5
17972
330
16D64
100
AcDbEntity
  8
寸法
 62
     0
 48
50.0
370
    -2
100
AcDbLine
 10
11542.01179134184
 20
7893.515418979465
 30
0.0
 11
12582.01179134187
 21
7893.515418979465
 31
0.0
  0
LINE
  5
17973
330
16D64
100
AcDbEntity
  8
寸法
 62
     0
 48
50.0
370
    -2
100
AcDbLine
 10
12522.01179134187
 20
9683.515418979474
 30
0.0
 11
12522.01179134187
 21
7893.515418979465
 31
0.0
  0
INSERT
  5
17974
330
16D64
100
AcDbEntity
  8
寸法
 62
     0
 48
50.0
370
    -2
100
AcDbBlockReference
  2
_DOTSMALL
 10
12522.01179134187
 20
9683.515418979474
 30
0.0
 41
100.0
 42
100.0
 43
100.0
 50
90.0
  0
INSERT
  5
17975
330
16D64
100
AcDbEntity
  8
寸法
 62
     0
 48
50.0
370
    -2
100
AcDbBlockReference
  2
_DOTSMALL
 10
12522.01179134187
 20
7893.515418979465
 30
0.0
 41
100.0
 42
100.0
 43
100.0
 50
270.0
  0
MTEXT
  5
17976
330
16D64
100
AcDbEntity
  8
寸法
 62
     7
 48
50.0
100
AcDbMText
 10
12422.01179134187
 20
8788.51541897947
 30
0.0
 40
120.0
 41
0.0
 71
     5
 72
     1
  1
\A1;1790
  7
STYLE1
 11
0.0000000000000001
 21
1.0
 31
0.0
 73
     1
 44
1.0
1001
ACAD
1000
MTEXTBEGIN
1070
    73
1070
     1
1070
    44
1040
1.0
1070
    74
1070
     0
1000
MTEXTEND
  0
POINT
  5
17977
330
16D64
100
AcDbEntity
  8
DEFPOINTS
 62
     0
 48
50.0
100
AcDbPoint
 10
11522.01179134187
 20
9683.515418979476
 30
0.0
  0
POINT
  5
17978
330
16D64
100
AcDbEntity
  8
DEFPOINTS
 62
     0
 48
50.0
100
AcDbPoint
 10
11522.01179134184
 20
7893.515418979465
 30
0.0
  0
POINT
  5
17979
330
16D64
100
AcDbEntity
  8
DEFPOINTS
 62
     0
 48
50.0
100
AcDbPoint
 10
12522.01179134187
 20
7893.515418979465
 30
0.0
  0
ENDBLK
  5
16D6F
330
16D64
100
AcDbEntity
  8
0
 48
50.0
100
AcDbBlockEnd
  0
BLOCK
  5
16D7A
330
16D70
100
AcDbEntity
  8
0
 48
50.0
100
AcDbBlockBegin
  2
*D8
 70
     1
 10
0.0
 20
0.0
 30
0.0
  3
*D8
  1

  0
LINE
  5
17968
330
16D70
100
AcDbEntity
  8
寸法
 62
     0
 48
50.0
370
    -2
100
AcDbLine
 10
11542.01179134187
 20
9628.51541897948
 30
0.0
 11
12282.01179134186
 21
9628.51541897948
 31
0.0
  0
LINE
  5
17969
330
16D70
100
AcDbEntity
  8
寸法
 62
     0
 48
50.0
370
    -2
100
AcDbLine
 10
11542.01179134184
 20
7948.515418979461
 30
0.0
 11
12282.01179134186
 21
7948.515418979461
 31
0.0
  0
LINE
  5
1796A
330
16D70
100
AcDbEntity
  8
寸法
 62
     0
 48
50.0
370
    -2
100
AcDbLine
 10
12222.01179134186
 20
9628.51541897948
 30
0.0
 11
12222.01179134186
 21
7948.515418979461
 31
0.0
  0
INSERT
  5
1796B
330
16D70
100
AcDbEntity
  8
寸法
 62
     0
 48
50.0
370
    -2
100
AcDbBlockReference
  2
_DOTSMALL
 10
12222.01179134186
 20
9628.51541897948
 30
0.0
 41
100.0
 42
100.0
 43
100.0
 50
90.0
  0
INSERT
  5
1796C
330
16D70
100
AcDbEntity
  8
寸法
 62
     0
 48
50.0
370
    -2
100
AcDbBlockReference
  2
_DOTSMALL
 10
12222.01179134186
 20
7948.515418979461
 30
0.0
 41
100.0
 42
100.0
 43
100.0
 50
270.0
  0
MTEXT
  5
1796D
330
16D70
100
AcDbEntity
  8
寸法
 62
     7
 48
50.0
100
AcDbMText
 10
12121.99998031823
 20
8788.51541897947
 30
0.0
 40
120.0
 41
0.0
 71
     5
 72
     1
  1
\A1;4X420=1680
  7
STYLE1
 11
0.0000000000000001
 21
1.0
 31
0.0
 73
     1
 44
1.0
1001
ACAD
1000
MTEXTBEGIN
1070
    73
1070
     1
1070
    44
1040
1.0
1070
    74
1070
     0
1000
MTEXTEND
  0
POINT
  5
1796E
330
16D70
100
AcDbEntity
  8
DEFPOINTS
 62
     0
 48
50.0
100
AcDbPoint
 10
11522.01179134187
 20
9628.51541897948
 30
0.0
  0
POINT
  5
1796F
330
16D70
100
AcDbEntity
  8
DEFPOINTS
 62
     0
 48
50.0
100
AcDbPoint
 10
11522.01179134184
 20
7948.515418979461
 30
0.0
  0
POINT
  5
17970
330
16D70
100
AcDbEntity
  8
DEFPOINTS
 62
     0
 48
50.0
100
AcDbPoint
 10
12222.01179134186
 20
7948.515418979461
 30
0.0
  0
ENDBLK
  5
16D7B
330
16D70
100
AcDbEntity
  8
0
 48
50.0
100
AcDbBlockEnd
  0
BLOCK
  5
16D88
330
16D7C
100
AcDbEntity
  8
0
 48
50.0
100
AcDbBlockBegin
  2
*D9
 70
     1
 10
0.0
 20
0.0
 30
0.0
  3
*D9
  1

  0
LINE
  5
1795D
330
16D7C
100
AcDbEntity
  8
寸法
 62
     0
 48
50.0
370
    -2
100
AcDbLine
 10
11542.01179134184
 20
7948.515418979461
 30
0.0
 11
12282.01179134184
 21
7948.515418979461
 31
0.0
  0
LINE
  5
1795E
330
16D7C
100
AcDbEntity
  8
寸法
 62
     0
 48
50.0
370
    -2
100
AcDbLine
 10
11542.01179134184
 20
7893.515418979465
 30
0.0
 11
12282.01179134184
 21
7893.515418979465
 31
0.0
  0
LINE
  5
1795F
330
16D7C
100
AcDbEntity
  8
寸法
 62
     0
 48
50.0
370
    -2
100
AcDbLine
 10
12222.01179134184
 20
7948.515418979461
 30
0.0
 11
12222.01179134184
 21
8048.51541897946
 31
0.0
  0
LINE
  5
17960
330
16D7C
100
AcDbEntity
  8
寸法
 62
     0
 48
50.0
370
    -2
100
AcDbLine
 10
12222.01179134184
 20
7893.515418979465
 30
0.0
 11
12222.01179134184
 21
7476.544856230972
 31
0.0
  0
LINE
  5
17961
330
16D7C
100
AcDbEntity
  8
寸法
 62
     0
 48
50.0
370
    -2
100
AcDbLine
 10
12222.01179134184
 20
7948.515418979461
 30
0.0
 11
12222.01179134184
 21
7893.515418979465
 31
0.0
  0
INSERT
  5
17962
330
16D7C
100
AcDbEntity
  8
寸法
 62
     0
 48
50.0
370
    -2
100
AcDbBlockReference
  2
_DOTSMALL
 10
12222.01179134184
 20
7948.515418979461
 30
0.0
 41
100.0
 42
100.0
 43
100.0
 50
270.0
  0
INSERT
  5
17963
330
16D7C
100
AcDbEntity
  8
寸法
 62
     0
 48
50.0
370
    -2
100
AcDbBlockReference
  2
_DOTSMALL
 10
12222.01179134184
 20
7893.515418979465
 30
0.0
 41
100.0
 42
100.0
 43
100.0
 50
90.0
  0
MTEXT
  5
17964
330
16D7C
100
AcDbEntity
  8
寸法
 62
     7
 48
50.0
100
AcDbMText
 10
12122.01179134184
 20
7585.030137605214
 30
0.0
 40
120.0
 41
0.0
 71
     5
 72
     1
  1
\A1;55
  7
STYLE1
 11
0.0000000000000001
 21
1.0
 31
0.0
 73
     1
 44
1.0
1001
ACAD
1000
MTEXTBEGIN
1070
    73
1070
     1
1070
    44
1040
1.0
1070
    74
1070
     0
1000
MTEXTEND
  0
POINT
  5
17965
330
16D7C
100
AcDbEntity
  8
DEFPOINTS
 62
     0
 48
50.0
100
AcDbPoint
 10
11522.01179134184
 20
7948.515418979461
 30
0.0
  0
POINT
  5
17966
330
16D7C
100
AcDbEntity
  8
DEFPOINTS
 62
     0
 48
50.0
100
AcDbPoint
 10
11522.01179134184
 20
7893.515418979465
 30
0.0
  0
POINT
  5
17967
330
16D7C
100
AcDbEntity
  8
DEFPOINTS
 62
     0
 48
50.0
100
AcDbPoint
 10
12222.01179134184
 20
7893.515418979465
 30
0.0
  0
ENDBLK
  5
16D89
330
16D7C
100
AcDbEntity
  8
0
 48
50.0
100
AcDbBlockEnd
  0
BLOCK
  5
16D94
330
16D8A
100
AcDbEntity
  8
0
 48
50.0
100
AcDbBlockBegin
  2
*D10
 70
     1
 10
0.0
 20
0.0
 30
0.0
  3
*D10
  1

  0
LINE
  5
17954
330
16D8A
100
AcDbEntity
  8
寸法
 62
     0
 48
50.0
370
    -2
100
AcDbLine
 10
11513.51179134187
 20
9648.156435130854
 30
0.0
 11
11982.01179134186
 21
9522.622238476873
 31
0.0
  0
LINE
  5
17955
330
16D8A
100
AcDbEntity
  8
寸法
 62
     0
 48
50.0
370
    -2
100
AcDbLine
 10
11513.51179134187
 20
9198.156435130858
 30
0.0
 11
11982.01179134186
 21
9072.622238476878
 31
0.0
  0
LINE
  5
17956
330
16D8A
100
AcDbEntity
  8
寸法
 62
     0
 48
50.0
370
    -2
100
AcDbLine
 10
11922.01179134186
 20
9538.69919002274
 30
0.0
 11
11922.01179134186
 21
9088.699190022744
 31
0.0
  0
INSERT
  5
17957
330
16D8A
100
AcDbEntity
  8
寸法
 62
     0
 48
50.0
370
    -2
100
AcDbBlockReference
  2
_DOTSMALL
 10
11922.01179134186
 20
9538.69919002274
 30
0.0
 41
100.0
 42
100.0
 43
100.0
 50
90.0
  0
INSERT
  5
17958
330
16D8A
100
AcDbEntity
  8
寸法
 62
     0
 48
50.0
370
    -2
100
AcDbBlockReference
  2
_DOTSMALL
 10
11922.01179134186
 20
9088.699190022744
 30
0.0
 41
100.0
 42
100.0
 43
100.0
 50
270.0
  0
MTEXT
  5
17959
330
16D8A
100
AcDbEntity
  8
寸法
 62
     7
 48
50.0
100
AcDbMText
 10
11822.01179134186
 20
9313.699190022743
 30
0.0
 40
120.0
 41
0.0
 71
     5
 72
     1
  1
\A1;450
  7
STYLE1
 11
0.0000000000000001
 21
1.0
 31
0.0
 73
     1
 44
1.0
1001
ACAD
1000
MTEXTBEGIN
1070
    73
1070
     1
1070
    44
1040
1.0
1070
    74
1070
     0
1000
MTEXTEND
  0
POINT
  5
1795A
330
16D8A
100
AcDbEntity
  8
DEFPOINTS
 62
     0
 48
50.0
100
AcDbPoint
 10
11493.51179134187
 20
9653.515418979475
 30
0.0
  0
POINT
  5
1795B
330
16D8A
100
AcDbEntity
  8
DEFPOINTS
 62
     0
 48
50.0
100
AcDbPoint
 10
11493.51179134187
 20
9203.515418979479
 30
0.0
  0
POINT
  5
1795C
330
16D8A
100
AcDbEntity
  8
DEFPOINTS
 62
     0
 48
50.0
100
AcDbPoint
 10
11922.01179134186
 20
9088.699190022744
 30
0.0
  0
ENDBLK
  5
16D95
330
16D8A
100
AcDbEntity
  8
0
 48
50.0
100
AcDbBlockEnd
  0
BLOCK
  5
16DA2
330
16D96
100
AcDbEntity
  8
0
 48
50.0
100
AcDbBlockBegin
  2
*D11
 70
     1
 10
0.0
 20
0.0
 30
0.0
  3
*D11
  1

  0
LINE
  5
17949
330
16D96
100
AcDbEntity
  8
寸法
 62
     0
 48
50.0
370
    -2
100
AcDbLine
 10
11542.01179134187
 20
9683.515418979476
 30
0.0
 11
12282.01179134186
 21
9683.515418979476
 31
0.0
  0
LINE
  5
1794A
330
16D96
100
AcDbEntity
  8
寸法
 62
     0
 48
50.0
370
    -2
100
AcDbLine
 10
11542.01179134187
 20
9628.51541897948
 30
0.0
 11
12282.01179134186
 21
9628.51541897948
 31
0.0
  0
LINE
  5
1794B
330
16D96
100
AcDbEntity
  8
寸法
 62
     0
 48
50.0
370
    -2
100
AcDbLine
 10
12222.01179134186
 20
9628.51541897948
 30
0.0
 11
12222.01179134186
 21
9528.515418979479
 31
0.0
  0
LINE
  5
1794C
330
16D96
100
AcDbEntity
  8
寸法
 62
     0
 48
50.0
370
    -2
100
AcDbLine
 10
12222.01179134186
 20
9683.515418979476
 30
0.0
 11
12222.01179134186
 21
10100.48598172795
 31
0.0
  0
LINE
  5
1794D
330
16D96
100
AcDbEntity
  8
寸法
 62
     0
 48
50.0
370
    -2
100
AcDbLine
 10
12222.01179134186
 20
9628.51541897948
 30
0.0
 11
12222.01179134186
 21
9683.515418979476
 31
0.0
  0
INSERT
  5
1794E
330
16D96
100
AcDbEntity
  8
寸法
 62
     0
 48
50.0
370
    -2
100
AcDbBlockReference
  2
_DOTSMALL
 10
12222.01179134186
 20
9628.51541897948
 30
0.0
 41
100.0
 42
100.0
 43
100.0
 50
90.0
  0
INSERT
  5
1794F
330
16D96
100
AcDbEntity
  8
寸法
 62
     0
 48
50.0
370
    -2
100
AcDbBlockReference
  2
_DOTSMALL
 10
12222.01179134186
 20
9683.515418979476
 30
0.0
 41
100.0
 42
100.0
 43
100.0
 50
270.0
  0
MTEXT
  5
17950
330
16D96
100
AcDbEntity
  8
寸法
 62
     7
 48
50.0
100
AcDbMText
 10
12122.01179134186
 20
9992.000700353717
 30
0.0
 40
120.0
 41
0.0
 71
     5
 72
     1
  1
\A1;55
  7
STYLE1
 11
0.0000000000000001
 21
1.0
 31
0.0
 73
     1
 44
1.0
1001
ACAD
1000
MTEXTBEGIN
1070
    73
1070
     1
1070
    44
1040
1.0
1070
    74
1070
     0
1000
MTEXTEND
  0
POINT
  5
17951
330
16D96
100
AcDbEntity
  8
DEFPOINTS
 62
     0
 48
50.0
100
AcDbPoint
 10
11522.01179134187
 20
9683.515418979476
 30
0.0
  0
POINT
  5
17952
330
16D96
100
AcDbEntity
  8
DEFPOINTS
 62
     0
 48
50.0
100
AcDbPoint
 10
11522.01179134187
 20
9628.51541897948
 30
0.0
  0
POINT
  5
17953
330
16D96
100
AcDbEntity
  8
DEFPOINTS
 62
     0
 48
50.0
100
AcDbPoint
 10
12222.01179134186
 20
9628.51541897948
 30
0.0
  0
ENDBLK
  5
16DA3
330
16D96
100
AcDbEntity
  8
0
 48
50.0
100
AcDbBlockEnd
  0
BLOCK
  5
16DBA
330
16DB0
100
AcDbEntity
  8
0
 48
50.0
100
AcDbBlockBegin
  2
*D12
 70
     1
 10
0.0
 20
0.0
 30
0.0
  3
*D12
  1

  0
LINE
  5
17261
330
16DB0
100
AcDbEntity
  8
寸法
 62
     0
 48
50.0
370
    -2
100
AcDbLine
 10
11522.01179134185
 20
4975.956185787588
 30
0.0
 11
11522.01179134185
 21
5415.049355127053
 31
0.0
  0
LINE
  5
17262
330
16DB0
100
AcDbEntity
  8
寸法
 62
     0
 48
50.0
370
    -2
100
AcDbLine
 10
8892.011791341857
 20
4975.956185787591
 30
0.0
 11
8892.011791341857
 21
5415.049355127053
 31
0.0
  0
LINE
  5
17263
330
16DB0
100
AcDbEntity
  8
寸法
 62
     0
 48
50.0
370
    -2
100
AcDbLine
 10
11522.01179134185
 20
5355.049355127054
 30
0.0
 11
8892.011791341857
 21
5355.049355127054
 31
0.0
  0
INSERT
  5
17264
330
16DB0
100
AcDbEntity
  8
寸法
 62
     0
 48
50.0
370
    -2
100
AcDbBlockReference
  2
_DOTSMALL
 10
11522.01179134185
 20
5355.049355127054
 30
0.0
 41
100.0
 42
100.0
 43
100.0
  0
INSERT
  5
17265
330
16DB0
100
AcDbEntity
  8
寸法
 62
     0
 48
50.0
370
    -2
100
AcDbBlockReference
  2
_DOTSMALL
 10
8892.011791341857
 20
5355.049355127054
 30
0.0
 41
100.0
 42
100.0
 43
100.0
 50
180.0
  0
MTEXT
  5
17266
330
16DB0
100
AcDbEntity
  8
寸法
 62
     7
 48
50.0
100
AcDbMText
 10
10207.01179134185
 20
5455.061166150676
 30
0.0
 40
120.0
 41
0.0
 71
     5
 72
     1
  1
\A1;柱外寸法2630
  7
STYLE1
 73
     1
 44
1.0
1001
ACAD
1000
MTEXTBEGIN
1070
    73
1070
     1
1070
    44
1040
1.0
1070
    74
1070
     0
1000
MTEXTEND
  0
POINT
  5
17267
330
16DB0
100
AcDbEntity
  8
DEFPOINTS
 62
     0
 48
50.0
100
AcDbPoint
 10
11522.01179134185
 20
4955.956185787587
 30
0.0
  0
POINT
  5
17268
330
16DB0
100
AcDbEntity
  8
DEFPOINTS
 62
     0
 48
50.0
100
AcDbPoint
 10
8892.011791341857
 20
4955.956185787591
 30
0.0
  0
POINT
  5
17269
330
16DB0
100
AcDbEntity
  8
DEFPOINTS
 62
     0
 48
50.0
100
AcDbPoint
 10
8892.011791341857
 20
5355.049355127054
 30
0.0
  0
ENDBLK
  5
16DBB
330
16DB0
100
AcDbEntity
  8
0
 48
50.0
100
AcDbBlockEnd
  0
BLOCK
  5
16DC8
330
16DBC
100
AcDbEntity
  8
0
 48
50.0
100
AcDbBlockBegin
  2
*D13
 70
     1
 10
0.0
 20
0.0
 30
0.0
  3
*D13
  1

  0
LINE
  5
17256
330
16DBC
100
AcDbEntity
  8
寸法
 62
     0
 48
50.0
370
    -2
100
AcDbLine
 10
8892.011791341857
 20
4975.956185787591
 30
0.0
 11
8892.011791341857
 21
5415.049355127058
 31
0.0
  0
LINE
  5
17257
330
16DBC
100
AcDbEntity
  8
寸法
 62
     0
 48
50.0
370
    -2
100
AcDbLine
 10
8842.011791341858
 20
4975.956185787588
 30
0.0
 11
8842.011791341858
 21
5415.049355127058
 31
0.0
  0
LINE
  5
17258
330
16DBC
100
AcDbEntity
  8
寸法
 62
     0
 48
50.0
370
    -2
100
AcDbLine
 10
8892.011791341857
 20
5355.049355127057
 30
0.0
 11
8992.011791341857
 21
5355.049355127057
 31
0.0
  0
LINE
  5
17259
330
16DBC
100
AcDbEntity
  8
寸法
 62
     0
 48
50.0
370
    -2
100
AcDbLine
 10
8842.011791341858
 20
5355.049355127057
 30
0.0
 11
8422.479265873125
 21
5355.049355127057
 31
0.0
  0
LINE
  5
1725A
330
16DBC
100
AcDbEntity
  8
寸法
 62
     0
 48
50.0
370
    -2
100
AcDbLine
 10
8892.011791341857
 20
5355.049355127057
 30
0.0
 11
8842.011791341858
 21
5355.049355127057
 31
0.0
  0
INSERT
  5
1725B
330
16DBC
100
AcDbEntity
  8
寸法
 62
     0
 48
50.0
370
    -2
100
AcDbBlockReference
  2
_DOTSMALL
 10
8892.011791341857
 20
5355.049355127057
 30
0.0
 41
100.0
 42
100.0
 43
100.0
 50
180.0
  0
INSERT
  5
1725C
330
16DBC
100
AcDbEntity
  8
寸法
 62
     0
 48
50.0
370
    -2
100
AcDbBlockReference
  2
_DOTSMALL
 10
8842.011791341858
 20
5355.049355127057
 30
0.0
 41
100.0
 42
100.0
 43
100.0
  0
MTEXT
  5
1725D
330
16DBC
100
AcDbEntity
  8
寸法
 62
     7
 48
50.0
100
AcDbMText
 10
8528.52650996761
 20
5455.049355127058
 30
0.0
 40
120.0
 41
0.0
 71
     5
 72
     1
  1
\A1;50
  7
STYLE1
 73
     1
 44
1.0
1001
ACAD
1000
MTEXTBEGIN
1070
    73
1070
     1
1070
    44
1040
1.0
1070
    74
1070
     0
1000
MTEXTEND
  0
POINT
  5
1725E
330
16DBC
100
AcDbEntity
  8
DEFPOINTS
 62
     0
 48
50.0
100
AcDbPoint
 10
8892.011791341857
 20
4955.956185787591
 30
0.0
  0
POINT
  5
1725F
330
16DBC
100
AcDbEntity
  8
DEFPOINTS
 62
     0
 48
50.0
100
AcDbPoint
 10
8842.011791341858
 20
4955.956185787587
 30
0.0
  0
POINT
  5
17260
330
16DBC
100
AcDbEntity
  8
DEFPOINTS
 62
     0
 48
50.0
100
AcDbPoint
 10
8842.011791341858
 20
5355.049355127057
 30
0.0
  0
ENDBLK
  5
16DC9
330
16DBC
100
AcDbEntity
  8
0
 48
50.0
100
AcDbBlockEnd
  0
BLOCK
  5
16DD4
330
16DCA
100
AcDbEntity
  8
0
 48
50.0
100
AcDbBlockBegin
  2
*D14
 70
     1
 10
0.0
 20
0.0
 30
0.0
  3
*D14
  1

  0
LINE
  5
1724D
330
16DCA
100
AcDbEntity
  8
寸法
 62
     0
 48
50.0
370
    -2
100
AcDbLine
 10
8842.011791341858
 20
4975.956185787588
 30
0.0
 11
8842.011791341858
 21
5631.575454745501
 31
0.0
  0
LINE
  5
1724E
330
16DCA
100
AcDbEntity
  8
寸法
 62
     0
 48
50.0
370
    -2
100
AcDbLine
 10
11572.01179134185
 20
4975.956185787588
 30
0.0
 11
11572.01179134185
 21
5631.575454745501
 31
0.0
  0
LINE
  5
1724F
330
16DCA
100
AcDbEntity
  8
寸法
 62
     0
 48
50.0
370
    -2
100
AcDbLine
 10
8842.011791341858
 20
5571.575454745502
 30
0.0
 11
11572.01179134185
 21
5571.575454745502
 31
0.0
  0
INSERT
  5
17250
330
16DCA
100
AcDbEntity
  8
寸法
 62
     0
 48
50.0
370
    -2
100
AcDbBlockReference
  2
_DOTSMALL
 10
8842.011791341858
 20
5571.575454745502
 30
0.0
 41
100.0
 42
100.0
 43
100.0
 50
180.0
  0
INSERT
  5
17251
330
16DCA
100
AcDbEntity
  8
寸法
 62
     0
 48
50.0
370
    -2
100
AcDbBlockReference
  2
_DOTSMALL
 10
11572.01179134185
 20
5571.575454745502
 30
0.0
 41
100.0
 42
100.0
 43
100.0
  0
MTEXT
  5
17252
330
16DCA
100
AcDbEntity
  8
寸法
 62
     7
 48
50.0
100
AcDbMText
 10
10207.01179134186
 20
5671.587265769123
 30
0.0
 40
120.0
 41
0.0
 71
     5
 72
     1
  1
\A1;2730
  7
STYLE1
 73
     1
 44
1.0
1001
ACAD
1000
MTEXTBEGIN
1070
    73
1070
     1
1070
    44
1040
1.0
1070
    74
1070
     0
1000
MTEXTEND
  0
POINT
  5
17253
330
16DCA
100
AcDbEntity
  8
DEFPOINTS
 62
     0
 48
50.0
100
AcDbPoint
 10
8842.011791341858
 20
4955.956185787587
 30
0.0
  0
POINT
  5
17254
330
16DCA
100
AcDbEntity
  8
DEFPOINTS
 62
     0
 48
50.0
100
AcDbPoint
 10
11572.01179134185
 20
4955.956185787587
 30
0.0
  0
POINT
  5
17255
330
16DCA
100
AcDbEntity
  8
DEFPOINTS
 62
     0
 48
50.0
100
AcDbPoint
 10
11572.01179134185
 20
5571.575454745502
 30
0.0
  0
ENDBLK
  5
16DD5
330
16DCA
100
AcDbEntity
  8
0
 48
50.0
100
AcDbBlockEnd
  0
BLOCK
  5
16DE2
330
16DD6
100
AcDbEntity
  8
0
 48
50.0
100
AcDbBlockBegin
  2
*D15
 70
     1
 10
0.0
 20
0.0
 30
0.0
  3
*D15
  1

  0
LINE
  5
17242
330
16DD6
100
AcDbEntity
  8
寸法
 62
     0
 48
50.0
370
    -2
100
AcDbLine
 10
11572.01179134185
 20
4975.956185787588
 30
0.0
 11
11572.01179134185
 21
5415.049355127058
 31
0.0
  0
LINE
  5
17243
330
16DD6
100
AcDbEntity
  8
寸法
 62
     0
 48
50.0
370
    -2
100
AcDbLine
 10
11522.01179134185
 20
4975.956185787588
 30
0.0
 11
11522.01179134185
 21
5415.049355127058
 31
0.0
  0
LINE
  5
17244
330
16DD6
100
AcDbEntity
  8
寸法
 62
     0
 48
50.0
370
    -2
100
AcDbLine
 10
11522.01179134185
 20
5355.049355127057
 30
0.0
 11
11422.01179134185
 21
5355.049355127057
 31
0.0
  0
LINE
  5
17245
330
16DD6
100
AcDbEntity
  8
寸法
 62
     0
 48
50.0
370
    -2
100
AcDbLine
 10
11572.01179134185
 20
5355.049355127057
 30
0.0
 11
11991.54431681058
 21
5355.049355127057
 31
0.0
  0
LINE
  5
17246
330
16DD6
100
AcDbEntity
  8
寸法
 62
     0
 48
50.0
370
    -2
100
AcDbLine
 10
11522.01179134185
 20
5355.049355127057
 30
0.0
 11
11572.01179134185
 21
5355.049355127057
 31
0.0
  0
INSERT
  5
17247
330
16DD6
100
AcDbEntity
  8
寸法
 62
     0
 48
50.0
370
    -2
100
AcDbBlockReference
  2
_DOTSMALL
 10
11522.01179134185
 20
5355.049355127057
 30
0.0
 41
100.0
 42
100.0
 43
100.0
  0
INSERT
  5
17248
330
16DD6
100
AcDbEntity
  8
寸法
 62
     0
 48
50.0
370
    -2
100
AcDbBlockReference
  2
_DOTSMALL
 10
11572.01179134185
 20
5355.049355127057
 30
0.0
 41
100.0
 42
100.0
 43
100.0
 50
180.0
  0
MTEXT
  5
17249
330
16DD6
100
AcDbEntity
  8
寸法
 62
     7
 48
50.0
100
AcDbMText
 10
11885.49707271609
 20
5455.049355127058
 30
0.0
 40
120.0
 41
0.0
 71
     5
 72
     1
  1
\A1;50
  7
STYLE1
 73
     1
 44
1.0
1001
ACAD
1000
MTEXTBEGIN
1070
    73
1070
     1
1070
    44
1040
1.0
1070
    74
1070
     0
1000
MTEXTEND
  0
POINT
  5
1724A
330
16DD6
100
AcDbEntity
  8
DEFPOINTS
 62
     0
 48
50.0
100
AcDbPoint
 10
11572.01179134185
 20
4955.956185787587
 30
0.0
  0
POINT
  5
1724B
330
16DD6
100
AcDbEntity
  8
DEFPOINTS
 62
     0
 48
50.0
100
AcDbPoint
 10
11522.01179134185
 20
4955.956185787587
 30
0.0
  0
POINT
  5
1724C
330
16DD6
100
AcDbEntity
  8
DEFPOINTS
 62
     0
 48
50.0
100
AcDbPoint
 10
11522.01179134185
 20
5355.049355127057
 30
0.0
  0
ENDBLK
  5
16DE3
330
16DD6
100
AcDbEntity
  8
0
 48
50.0
100
AcDbBlockEnd
  0
BLOCK
  5
16DFC
330
16DF2
100
AcDbEntity
  8
0
 48
50.0
100
AcDbBlockBegin
  2
*D16
 70
     1
 10
0.0
 20
0.0
 30
0.0
  3
*D16
  1

  0
LINE
  5
1722E
330
16DF2
100
AcDbEntity
  8
寸法
 62
     0
 48
50.0
370
    -2
100
AcDbLine
 10
4955.551445244321
 20
4720.956185787583
 30
0.0
 11
4291.898736086022
 21
4720.956185787583
 31
0.0
  0
LINE
  5
1722F
330
16DF2
100
AcDbEntity
  8
寸法
 62
     0
 48
50.0
370
    -2
100
AcDbLine
 10
4955.551445244321
 20
2630.956185787584
 30
0.0
 11
4291.898736086022
 21
2630.956185787584
 31
0.0
  0
LINE
  5
17230
330
16DF2
100
AcDbEntity
  8
寸法
 62
     0
 48
50.0
370
    -2
100
AcDbLine
 10
4351.898736086022
 20
4720.956185787583
 30
0.0
 11
4351.898736086022
 21
2630.956185787584
 31
0.0
  0
INSERT
  5
17231
330
16DF2
100
AcDbEntity
  8
寸法
 62
     0
 48
50.0
370
    -2
100
AcDbBlockReference
  2
_DOTSMALL
 10
4351.898736086022
 20
4720.956185787583
 30
0.0
 41
100.0
 42
100.0
 43
100.0
 50
90.0
  0
INSERT
  5
17232
330
16DF2
100
AcDbEntity
  8
寸法
 62
     0
 48
50.0
370
    -2
100
AcDbBlockReference
  2
_DOTSMALL
 10
4351.898736086022
 20
2630.956185787584
 30
0.0
 41
100.0
 42
100.0
 43
100.0
 50
270.0
  0
MTEXT
  5
17233
330
16DF2
100
AcDbEntity
  8
寸法
 62
     7
 48
50.0
100
AcDbMText
 10
4251.886925062399
 20
3740.956185787584
 30
0.0
 40
120.0
 41
0.0
 71
     5
 72
     1
  1
\A1;2090
  7
STYLE1
 11
0.0000000000000001
 21
1.0
 31
0.0
 73
     1
 44
1.0
1001
ACAD
1000
MTEXTBEGIN
1070
    73
1070
     1
1070
    44
1040
1.0
1070
    74
1070
     0
1000
MTEXTEND
  0
POINT
  5
17234
330
16DF2
100
AcDbEntity
  8
DEFPOINTS
 62
     0
 48
50.0
100
AcDbPoint
 10
4975.55144524432
 20
4720.956185787583
 30
0.0
  0
POINT
  5
17235
330
16DF2
100
AcDbEntity
  8
DEFPOINTS
 62
     0
 48
50.0
100
AcDbPoint
 10
4975.55144524432
 20
2630.956185787584
 30
0.0
  0
POINT
  5
17236
330
16DF2
100
AcDbEntity
  8
DEFPOINTS
 62
     0
 48
50.0
100
AcDbPoint
 10
4351.898736086022
 20
2630.956185787584
 30
0.0
  0
ENDBLK
  5
16DFD
330
16DF2
100
AcDbEntity
  8
0
 48
50.0
100
AcDbBlockEnd
  0
BLOCK
  5
16E08
330
16DFE
100
AcDbEntity
  8
0
 48
50.0
100
AcDbBlockBegin
  2
*D17
 70
     1
 10
0.0
 20
0.0
 30
0.0
  3
*D17
  1

  0
LINE
  5
17225
330
16DFE
100
AcDbEntity
  8
寸法
 62
     0
 48
50.0
370
    -2
100
AcDbLine
 10
4955.551445244321
 20
2580.956185787584
 30
0.0
 11
4006.912063314959
 21
2580.956185787584
 31
0.0
  0
LINE
  5
17226
330
16DFE
100
AcDbEntity
  8
寸法
 62
     0
 48
50.0
370
    -2
100
AcDbLine
 10
4895.55144524432
 20
4955.956185787587
 30
0.0
 11
4006.91206331496
 21
4955.956185787587
 31
0.0
  0
LINE
  5
17227
330
16DFE
100
AcDbEntity
  8
寸法
 62
     0
 48
50.0
370
    -2
100
AcDbLine
 10
4066.912063314959
 20
2580.956185787584
 30
0.0
 11
4066.91206331496
 21
4955.956185787587
 31
0.0
  0
INSERT
  5
17228
330
16DFE
100
AcDbEntity
  8
寸法
 62
     0
 48
50.0
370
    -2
100
AcDbBlockReference
  2
_DOTSMALL
 10
4066.912063314959
 20
2580.956185787584
 30
0.0
 41
100.0
 42
100.0
 43
100.0
 50
270.0
  0
INSERT
  5
17229
330
16DFE
100
AcDbEntity
  8
寸法
 62
     0
 48
50.0
370
    -2
100
AcDbBlockReference
  2
_DOTSMALL
 10
4066.91206331496
 20
4955.956185787587
 30
0.0
 41
100.0
 42
100.0
 43
100.0
 50
90.0
  0
MTEXT
  5
1722A
330
16DFE
100
AcDbEntity
  8
寸法
 62
     7
 48
50.0
100
AcDbMText
 10
3966.900252291337
 20
3740.956185787584
 30
0.0
 40
120.0
 41
0.0
 71
     5
 72
     1
  1
\A1;2375
  7
STYLE1
 11
0.0000000000000001
 21
1.0
 31
0.0
 73
     1
 44
1.0
1001
ACAD
1000
MTEXTBEGIN
1070
    73
1070
     1
1070
    44
1040
1.0
1070
    74
1070
     0
1000
MTEXTEND
  0
POINT
  5
1722B
330
16DFE
100
AcDbEntity
  8
DEFPOINTS
 62
     0
 48
50.0
100
AcDbPoint
 10
4975.55144524432
 20
2580.956185787584
 30
0.0
  0
POINT
  5
1722C
330
16DFE
100
AcDbEntity
  8
DEFPOINTS
 62
     0
 48
50.0
100
AcDbPoint
 10
4915.551445244321
 20
4955.956185787587
 30
0.0
  0
POINT
  5
1722D
330
16DFE
100
AcDbEntity
  8
DEFPOINTS
 62
     0
 48
50.0
100
AcDbPoint
 10
4066.91206331496
 20
4955.956185787587
 30
0.0
  0
ENDBLK
  5
16E09
330
16DFE
100
AcDbEntity
  8
0
 48
50.0
100
AcDbBlockEnd
  0
BLOCK
  5
16E15
330
16E0A
100
AcDbEntity
  8
0
 48
50.0
100
AcDbBlockBegin
  2
*D18
 70
     1
 10
0.0
 20
0.0
 30
0.0
  3
*D18
  1

  0
LINE
  5
1721B
330
16E0A
100
AcDbEntity
  8
寸法
 62
     0
 48
50.0
370
    -2
100
AcDbLine
 10
4900.551445244321
 20
2580.956185787584
 30
0.0
 11
4006.912063314961
 21
2580.956185787584
 31
0.0
  0
LINE
  5
1721C
330
16E0A
100
AcDbEntity
  8
寸法
 62
     0
 48
50.0
370
    -2
100
AcDbLine
 10
4331.898736086023
 20
2480.956185787583
 30
0.0
 11
4006.912063314961
 21
2480.956185787583
 31
0.0
  0
LINE
  5
1721D
330
16E0A
100
AcDbEntity
  8
寸法
 62
     0
 48
50.0
370
    -2
100
AcDbLine
 10
4066.912063314961
 20
2580.956185787584
 30
0.0
 11
4066.912063314961
 21
2480.956185787583
 31
0.0
  0
LINE
  5
1721E
330
16E0A
100
AcDbEntity
  8
寸法
 62
     0
 48
50.0
370
    -2
100
AcDbLine
 10
4066.912063314961
 20
2480.956185787583
 30
0.0
 11
4066.912063314961
 21
2108.861697598604
 31
0.0
  0
INSERT
  5
1721F
330
16E0A
100
AcDbEntity
  8
寸法
 62
     0
 48
50.0
370
    -2
100
AcDbBlockReference
  2
_DOTSMALL
 10
4066.912063314961
 20
2580.956185787584
 30
0.0
 41
100.0
 42
100.0
 43
100.0
 50
90.0
  0
INSERT
  5
17220
330
16E0A
100
AcDbEntity
  8
寸法
 62
     0
 48
50.0
370
    -2
100
AcDbBlockReference
  2
_DOTSMALL
 10
4066.912063314961
 20
2480.956185787583
 30
0.0
 41
100.0
 42
100.0
 43
100.0
 50
270.0
  0
MTEXT
  5
17221
330
16E0A
100
AcDbEntity
  8
寸法
 62
     7
 48
50.0
100
AcDbMText
 10
3966.912063314962
 20
2244.908941693093
 30
0.0
 40
120.0
 41
0.0
 71
     5
 72
     1
  1
\A1;100
  7
STYLE1
 11
0.0000000000000001
 21
1.0
 31
0.0
 73
     1
 44
1.0
1001
ACAD
1000
MTEXTBEGIN
1070
    73
1070
     1
1070
    44
1040
1.0
1070
    74
1070
     0
1000
MTEXTEND
  0
POINT
  5
17222
330
16E0A
100
AcDbEntity
  8
DEFPOINTS
 62
     0
 48
50.0
100
AcDbPoint
 10
4920.551445244321
 20
2580.956185787584
 30
0.0
  0
POINT
  5
17223
330
16E0A
100
AcDbEntity
  8
DEFPOINTS
 62
     0
 48
50.0
100
AcDbPoint
 10
4351.898736086023
 20
2480.956185787583
 30
0.0
  0
POINT
  5
17224
330
16E0A
100
AcDbEntity
  8
DEFPOINTS
 62
     0
 48
50.0
100
AcDbPoint
 10
4066.912063314961
 20
2480.956185787583
 30
0.0
  0
ENDBLK
  5
16E16
330
16E0A
100
AcDbEntity
  8
0
 48
50.0
100
AcDbBlockEnd
  0
BLOCK
  5
16E23
330
16E17
100
AcDbEntity
  8
0
 48
50.0
100
AcDbBlockBegin
  2
*D19
 70
     1
 10
0.0
 20
0.0
 30
0.0
  3
*D19
  1

  0
LINE
  5
17210
330
16E17
100
AcDbEntity
  8
寸法
 62
     0
 48
50.0
370
    -2
100
AcDbLine
 10
4955.551445244321
 20
2630.956185787584
 30
0.0
 11
4291.898736086023
 21
2630.956185787584
 31
0.0
  0
LINE
  5
17211
330
16E17
100
AcDbEntity
  8
寸法
 62
     0
 48
50.0
370
    -2
100
AcDbLine
 10
4900.551445244321
 20
2580.956185787584
 30
0.0
 11
4291.898736086023
 21
2580.956185787584
 31
0.0
  0
LINE
  5
17212
330
16E17
100
AcDbEntity
  8
寸法
 62
     0
 48
50.0
370
    -2
100
AcDbLine
 10
4351.898736086023
 20
2630.956185787584
 30
0.0
 11
4351.898736086023
 21
2730.956185787583
 31
0.0
  0
LINE
  5
17213
330
16E17
100
AcDbEntity
  8
寸法
 62
     0
 48
50.0
370
    -2
100
AcDbLine
 10
4351.898736086023
 20
2580.956185787584
 30
0.0
 11
4351.898736086023
 21
2168.861697598604
 31
0.0
  0
LINE
  5
17214
330
16E17
100
AcDbEntity
  8
寸法
 62
     0
 48
50.0
370
    -2
100
AcDbLine
 10
4351.898736086023
 20
2630.956185787584
 30
0.0
 11
4351.898736086023
 21
2580.956185787584
 31
0.0
  0
INSERT
  5
17215
330
16E17
100
AcDbEntity
  8
寸法
 62
     0
 48
50.0
370
    -2
100
AcDbBlockReference
  2
_DOTSMALL
 10
4351.898736086023
 20
2630.956185787584
 30
0.0
 41
100.0
 42
100.0
 43
100.0
 50
270.0
  0
INSERT
  5
17216
330
16E17
100
AcDbEntity
  8
寸法
 62
     0
 48
50.0
370
    -2
100
AcDbBlockReference
  2
_DOTSMALL
 10
4351.898736086023
 20
2580.956185787584
 30
0.0
 41
100.0
 42
100.0
 43
100.0
 50
90.0
  0
MTEXT
  5
17217
330
16E17
100
AcDbEntity
  8
寸法
 62
     7
 48
50.0
100
AcDbMText
 10
4251.898736086022
 20
2274.908941693093
 30
0.0
 40
120.0
 41
0.0
 71
     5
 72
     1
  1
\A1;50
  7
STYLE1
 11
0.0000000000000001
 21
1.0
 31
0.0
 73
     1
 44
1.0
1001
ACAD
1000
MTEXTBEGIN
1070
    73
1070
     1
1070
    44
1040
1.0
1070
    74
1070
     0
1000
MTEXTEND
  0
POINT
  5
17218
330
16E17
100
AcDbEntity
  8
DEFPOINTS
 62
     0
 48
50.0
100
AcDbPoint
 10
4975.55144524432
 20
2630.956185787584
 30
0.0
  0
POINT
  5
17219
330
16E17
100
AcDbEntity
  8
DEFPOINTS
 62
     0
 48
50.0
100
AcDbPoint
 10
4920.551445244321
 20
2580.956185787584
 30
0.0
  0
POINT
  5
1721A
330
16E17
100
AcDbEntity
  8
DEFPOINTS
 62
     0
 48
50.0
100
AcDbPoint
 10
4351.898736086023
 20
2580.956185787584
 30
0.0
  0
ENDBLK
  5
16E24
330
16E17
100
AcDbEntity
  8
0
 48
50.0
100
AcDbBlockEnd
  0
BLOCK
  5
16E2F
330
16E25
100
AcDbEntity
  8
0
 48
50.0
100
AcDbBlockBegin
  2
*D20
 70
     1
 10
0.0
 20
0.0
 30
0.0
  3
*D20
  1

  0
LINE
  5
17207
330
16E25
100
AcDbEntity
  8
寸法
 62
     0
 48
50.0
370
    -2
100
AcDbLine
 10
6862.551445244324
 20
2580.956185787584
 30
0.0
 11
7437.721541006748
 21
2580.956185787583
 31
0.0
  0
LINE
  5
17208
330
16E25
100
AcDbEntity
  8
寸法
 62
     0
 48
50.0
370
    -2
100
AcDbLine
 10
6865.55144524432
 20
4900.956185787584
 30
0.0
 11
7437.721541006748
 21
4900.956185787584
 31
0.0
  0
LINE
  5
17209
330
16E25
100
AcDbEntity
  8
寸法
 62
     0
 48
50.0
370
    -2
100
AcDbLine
 10
7377.721541006748
 20
2580.956185787583
 30
0.0
 11
7377.721541006748
 21
4900.956185787584
 31
0.0
  0
INSERT
  5
1720A
330
16E25
100
AcDbEntity
  8
寸法
 62
     0
 48
50.0
370
    -2
100
AcDbBlockReference
  2
_DOTSMALL
 10
7377.721541006748
 20
2580.956185787583
 30
0.0
 41
100.0
 42
100.0
 43
100.0
 50
270.0
  0
INSERT
  5
1720B
330
16E25
100
AcDbEntity
  8
寸法
 62
     0
 48
50.0
370
    -2
100
AcDbBlockReference
  2
_DOTSMALL
 10
7377.721541006748
 20
4900.956185787584
 30
0.0
 41
100.0
 42
100.0
 43
100.0
 50
90.0
  0
MTEXT
  5
1720C
330
16E25
100
AcDbEntity
  8
寸法
 62
     7
 48
50.0
100
AcDbMText
 10
7277.709729983126
 20
3740.956185787584
 30
0.0
 40
120.0
 41
0.0
 71
     5
 72
     1
  1
\A1;2320
  7
STYLE1
 11
0.0000000000000001
 21
1.0
 31
0.0
 73
     1
 44
1.0
1001
ACAD
1000
MTEXTBEGIN
1070
    73
1070
     1
1070
    44
1040
1.0
1070
    74
1070
     0
1000
MTEXTEND
  0
POINT
  5
1720D
330
16E25
100
AcDbEntity
  8
DEFPOINTS
 62
     0
 48
50.0
100
AcDbPoint
 10
6842.551445244324
 20
2580.956185787584
 30
0.0
  0
POINT
  5
1720E
330
16E25
100
AcDbEntity
  8
DEFPOINTS
 62
     0
 48
50.0
100
AcDbPoint
 10
6845.551445244321
 20
4900.956185787584
 30
0.0
  0
POINT
  5
1720F
330
16E25
100
AcDbEntity
  8
DEFPOINTS
 62
     0
 48
50.0
100
AcDbPoint
 10
7377.721541006748
 20
4900.956185787584
 30
0.0
  0
ENDBLK
  5
16E30
330
16E25
100
AcDbEntity
  8
0
 48
50.0
100
AcDbBlockEnd
  0
BLOCK
  5
16E3B
330
16E31
100
AcDbEntity
  8
0
 48
50.0
100
AcDbBlockBegin
  2
*D21
 70
     1
 10
0.0
 20
0.0
 30
0.0
  3
*D21
  1

  0
LINE
  5
171FE
330
16E31
100
AcDbEntity
  8
寸法
 62
     0
 48
50.0
370
    -2
100
AcDbLine
 10
6765.551445244319
 20
4922.766865399236
 30
0.0
 11
6765.551445244319
 21
5415.049355127058
 31
0.0
  0
LINE
  5
171FF
330
16E31
100
AcDbEntity
  8
寸法
 62
     0
 48
50.0
370
    -2
100
AcDbLine
 10
4975.55144524432
 20
4971.95780391056
 30
0.0
 11
4975.55144524432
 21
5415.049355127058
 31
0.0
  0
LINE
  5
17200
330
16E31
100
AcDbEntity
  8
寸法
 62
     0
 48
50.0
370
    -2
100
AcDbLine
 10
6765.551445244319
 20
5355.049355127057
 30
0.0
 11
4975.55144524432
 21
5355.049355127057
 31
0.0
  0
INSERT
  5
17201
330
16E31
100
AcDbEntity
  8
寸法
 62
     0
 48
50.0
370
    -2
100
AcDbBlockReference
  2
_DOTSMALL
 10
6765.551445244319
 20
5355.049355127057
 30
0.0
 41
100.0
 42
100.0
 43
100.0
  0
INSERT
  5
17202
330
16E31
100
AcDbEntity
  8
寸法
 62
     0
 48
50.0
370
    -2
100
AcDbBlockReference
  2
_DOTSMALL
 10
4975.55144524432
 20
5355.049355127057
 30
0.0
 41
100.0
 42
100.0
 43
100.0
 50
180.0
  0
MTEXT
  5
17203
330
16E31
100
AcDbEntity
  8
寸法
 62
     7
 48
50.0
100
AcDbMText
 10
5885.147093920801
 20
5455.049355127058
 30
0.0
 40
120.0
 41
0.0
 71
     5
 72
     1
  1
\A1;柱外寸法1790
  7
STYLE1
 73
     1
 44
1.0
1001
ACAD
1000
MTEXTBEGIN
1070
    73
1070
     1
1070
    44
1040
1.0
1070
    74
1070
     0
1000
MTEXTEND
  0
POINT
  5
17204
330
16E31
100
AcDbEntity
  8
DEFPOINTS
 62
     0
 48
50.0
100
AcDbPoint
 10
6765.551445244319
 20
4902.766865399235
 30
0.0
  0
POINT
  5
17205
330
16E31
100
AcDbEntity
  8
DEFPOINTS
 62
     0
 48
50.0
100
AcDbPoint
 10
4975.55144524432
 20
4951.95780391056
 30
0.0
  0
POINT
  5
17206
330
16E31
100
AcDbEntity
  8
DEFPOINTS
 62
     0
 48
50.0
100
AcDbPoint
 10
4975.55144524432
 20
5355.049355127057
 30
0.0
  0
ENDBLK
  5
16E3C
330
16E31
100
AcDbEntity
  8
0
 48
50.0
100
AcDbBlockEnd
  0
BLOCK
  5
16E49
330
16E3D
100
AcDbEntity
  8
0
 48
50.0
100
AcDbBlockBegin
  2
*D22
 70
     1
 10
0.0
 20
0.0
 30
0.0
  3
*D22
  1

  0
LINE
  5
171F3
330
16E3D
100
AcDbEntity
  8
寸法
 62
     0
 48
50.0
370
    -2
100
AcDbLine
 10
4975.55144524432
 20
4971.95780391056
 30
0.0
 11
4975.55144524432
 21
5414.613639366887
 31
0.0
  0
LINE
  5
171F4
330
16E3D
100
AcDbEntity
  8
寸法
 62
     0
 48
50.0
370
    -2
100
AcDbLine
 10
4915.551445244321
 20
4975.956185787588
 30
0.0
 11
4915.551445244321
 21
5414.613639366887
 31
0.0
  0
LINE
  5
171F5
330
16E3D
100
AcDbEntity
  8
寸法
 62
     0
 48
50.0
370
    -2
100
AcDbLine
 10
4975.55144524432
 20
5354.613639366887
 30
0.0
 11
5075.551445244321
 21
5354.613639366887
 31
0.0
  0
LINE
  5
171F6
330
16E3D
100
AcDbEntity
  8
寸法
 62
     0
 48
50.0
370
    -2
100
AcDbLine
 10
4915.551445244321
 20
5354.613639366887
 30
0.0
 11
4496.275854693139
 21
5354.613639366887
 31
0.0
  0
LINE
  5
171F7
330
16E3D
100
AcDbEntity
  8
寸法
 62
     0
 48
50.0
370
    -2
100
AcDbLine
 10
4975.55144524432
 20
5354.613639366887
 30
0.0
 11
4915.551445244321
 21
5354.613639366887
 31
0.0
  0
INSERT
  5
171F8
330
16E3D
100
AcDbEntity
  8
寸法
 62
     0
 48
50.0
370
    -2
100
AcDbBlockReference
  2
_DOTSMALL
 10
4975.55144524432
 20
5354.613639366887
 30
0.0
 41
100.0
 42
100.0
 43
100.0
 50
180.0
  0
INSERT
  5
171F9
330
16E3D
100
AcDbEntity
  8
寸法
 62
     0
 48
50.0
370
    -2
100
AcDbBlockReference
  2
_DOTSMALL
 10
4915.551445244321
 20
5354.613639366887
 30
0.0
 41
100.0
 42
100.0
 43
100.0
  0
MTEXT
  5
171FA
330
16E3D
100
AcDbEntity
  8
寸法
 62
     7
 48
50.0
100
AcDbMText
 10
4605.91364996873
 20
5454.613639366887
 30
0.0
 40
120.0
 41
0.0
 71
     5
 72
     1
  1
\A1;60
  7
STYLE1
 73
     1
 44
1.0
1001
ACAD
1000
MTEXTBEGIN
1070
    73
1070
     1
1070
    44
1040
1.0
1070
    74
1070
     0
1000
MTEXTEND
  0
POINT
  5
171FB
330
16E3D
100
AcDbEntity
  8
DEFPOINTS
 62
     0
 48
50.0
100
AcDbPoint
 10
4975.55144524432
 20
4951.95780391056
 30
0.0
  0
POINT
  5
171FC
330
16E3D
100
AcDbEntity
  8
DEFPOINTS
 62
     0
 48
50.0
100
AcDbPoint
 10
4915.551445244321
 20
4955.956185787587
 30
0.0
  0
POINT
  5
171FD
330
16E3D
100
AcDbEntity
  8
DEFPOINTS
 62
     0
 48
50.0
100
AcDbPoint
 10
4915.551445244321
 20
5354.613639366887
 30
0.0
  0
ENDBLK
  5
16E4A
330
16E3D
100
AcDbEntity
  8
0
 48
50.0
100
AcDbBlockEnd
  0
BLOCK
  5
16E55
330
16E4B
100
AcDbEntity
  8
0
 48
50.0
100
AcDbBlockBegin
  2
*D23
 70
     1
 10
0.0
 20
0.0
 30
0.0
  3
*D23
  1

  0
LINE
  5
171EA
330
16E4B
100
AcDbEntity
  8
寸法
 62
     0
 48
50.0
370
    -2
100
AcDbLine
 10
6845.551445244321
 20
4920.956185787583
 30
0.0
 11
6845.551445244321
 21
5631.575454745501
 31
0.0
  0
LINE
  5
171EB
330
16E4B
100
AcDbEntity
  8
寸法
 62
     0
 48
50.0
370
    -2
100
AcDbLine
 10
4915.551445244321
 20
4975.956185787588
 30
0.0
 11
4915.551445244321
 21
5631.575454745501
 31
0.0
  0
LINE
  5
171EC
330
16E4B
100
AcDbEntity
  8
寸法
 62
     0
 48
50.0
370
    -2
100
AcDbLine
 10
6845.551445244321
 20
5571.575454745502
 30
0.0
 11
4915.551445244321
 21
5571.575454745502
 31
0.0
  0
INSERT
  5
171ED
330
16E4B
100
AcDbEntity
  8
寸法
 62
     0
 48
50.0
370
    -2
100
AcDbBlockReference
  2
_DOTSMALL
 10
6845.551445244321
 20
5571.575454745502
 30
0.0
 41
100.0
 42
100.0
 43
100.0
  0
INSERT
  5
171EE
330
16E4B
100
AcDbEntity
  8
寸法
 62
     0
 48
50.0
370
    -2
100
AcDbBlockReference
  2
_DOTSMALL
 10
4915.551445244321
 20
5571.575454745502
 30
0.0
 41
100.0
 42
100.0
 43
100.0
 50
180.0
  0
MTEXT
  5
171EF
330
16E4B
100
AcDbEntity
  8
寸法
 62
     7
 48
50.0
100
AcDbMText
 10
5821.35719649529
 20
5671.575454745502
 30
0.0
 40
120.0
 41
0.0
 71
     5
 72
     1
  1
\A1;1930
  7
STYLE1
 73
     1
 44
1.0
1001
ACAD
1000
MTEXTBEGIN
1070
    73
1070
     1
1070
    44
1040
1.0
1070
    74
1070
     0
1000
MTEXTEND
  0
POINT
  5
171F0
330
16E4B
100
AcDbEntity
  8
DEFPOINTS
 62
     0
 48
50.0
100
AcDbPoint
 10
6845.551445244321
 20
4900.956185787584
 30
0.0
  0
POINT
  5
171F1
330
16E4B
100
AcDbEntity
  8
DEFPOINTS
 62
     0
 48
50.0
100
AcDbPoint
 10
4915.551445244321
 20
4955.956185787587
 30
0.0
  0
POINT
  5
171F2
330
16E4B
100
AcDbEntity
  8
DEFPOINTS
 62
     0
 48
50.0
100
AcDbPoint
 10
4915.551445244321
 20
5571.575454745502
 30
0.0
  0
ENDBLK
  5
16E56
330
16E4B
100
AcDbEntity
  8
0
 48
50.0
100
AcDbBlockEnd
  0
BLOCK
  5
16E62
330
16E57
100
AcDbEntity
  8
0
 48
50.0
100
AcDbBlockBegin
  2
*D24
 70
     1
 10
0.0
 20
0.0
 30
0.0
  3
*D24
  1

  0
LINE
  5
171E0
330
16E57
100
AcDbEntity
  8
寸法
 62
     0
 48
50.0
370
    -2
100
AcDbLine
 10
6765.551445244319
 20
4922.766865399236
 30
0.0
 11
6765.551445244319
 21
5414.613639366887
 31
0.0
  0
LINE
  5
171E1
330
16E57
100
AcDbEntity
  8
寸法
 62
     0
 48
50.0
370
    -2
100
AcDbLine
 10
6845.551445244321
 20
4920.956185787583
 30
0.0
 11
6845.551445244321
 21
5414.613639366887
 31
0.0
  0
LINE
  5
171E2
330
16E57
100
AcDbEntity
  8
寸法
 62
     0
 48
50.0
370
    -2
100
AcDbLine
 10
6765.551445244319
 20
5354.613639366887
 30
0.0
 11
6845.551445244321
 21
5354.613639366887
 31
0.0
  0
LINE
  5
171E3
330
16E57
100
AcDbEntity
  8
寸法
 62
     0
 48
50.0
370
    -2
100
AcDbLine
 10
6845.551445244321
 20
5354.613639366887
 30
0.0
 11
7157.645933433298
 21
5354.613639366887
 31
0.0
  0
INSERT
  5
171E4
330
16E57
100
AcDbEntity
  8
寸法
 62
     0
 48
50.0
370
    -2
100
AcDbBlockReference
  2
_DOTSMALL
 10
6765.551445244319
 20
5354.613639366887
 30
0.0
 41
100.0
 42
100.0
 43
100.0
 50
180.0
  0
INSERT
  5
171E5
330
16E57
100
AcDbEntity
  8
寸法
 62
     0
 48
50.0
370
    -2
100
AcDbBlockReference
  2
_DOTSMALL
 10
6845.551445244321
 20
5354.613639366887
 30
0.0
 41
100.0
 42
100.0
 43
100.0
  0
MTEXT
  5
171E6
330
16E57
100
AcDbEntity
  8
寸法
 62
     7
 48
50.0
100
AcDbMText
 10
7051.59868933881
 20
5454.613639366887
 30
0.0
 40
120.0
 41
0.0
 71
     5
 72
     1
  1
\A1;80
  7
STYLE1
 73
     1
 44
1.0
1001
ACAD
1000
MTEXTBEGIN
1070
    73
1070
     1
1070
    44
1040
1.0
1070
    74
1070
     0
1000
MTEXTEND
  0
POINT
  5
171E7
330
16E57
100
AcDbEntity
  8
DEFPOINTS
 62
     0
 48
50.0
100
AcDbPoint
 10
6765.551445244319
 20
4902.766865399235
 30
0.0
  0
POINT
  5
171E8
330
16E57
100
AcDbEntity
  8
DEFPOINTS
 62
     0
 48
50.0
100
AcDbPoint
 10
6845.551445244321
 20
4900.956185787584
 30
0.0
  0
POINT
  5
171E9
330
16E57
100
AcDbEntity
  8
DEFPOINTS
 62
     0
 48
50.0
100
AcDbPoint
 10
6845.551445244321
 20
5354.613639366887
 30
0.0
  0
ENDBLK
  5
16E63
330
16E57
100
AcDbEntity
  8
0
 48
50.0
100
AcDbBlockEnd
  0
BLOCK
  5
16E6F
330
16E64
100
AcDbEntity
  8
0
 48
50.0
100
AcDbBlockBegin
  2
*D25
 70
     1
 10
0.0
 20
0.0
 30
0.0
  3
*D25
  1

  0
LINE
  5
171D6
330
16E64
100
AcDbEntity
  8
寸法
 62
     0
 48
50.0
370
    -2
100
AcDbLine
 10
4914.955731535423
 20
4955.253892857245
 30
0.0
 11
4299.021292430155
 21
4972.968043131575
 31
0.0
  0
LINE
  5
171D7
330
16E64
100
AcDbEntity
  8
寸法
 62
     0
 48
50.0
370
    -2
100
AcDbLine
 10
4910.902275978797
 20
4814.312169091534
 30
0.0
 11
4294.967836873528
 21
4832.026319365864
 31
0.0
  0
LINE
  5
171D8
330
16E64
100
AcDbEntity
  8
寸法
 62
     0
 48
50.0
370
    -2
100
AcDbLine
 10
4354.943038475958
 20
4830.301444660917
 30
0.0
 11
4358.996494032585
 21
4971.243168426628
 31
0.0
  0
LINE
  5
171D9
330
16E64
100
AcDbEntity
  8
寸法
 62
     0
 48
50.0
370
    -2
100
AcDbLine
 10
4358.996494032585
 20
4971.243168426628
 30
0.0
 11
4369.34574226227
 21
5331.094378041214
 31
0.0
  0
INSERT
  5
171DA
330
16E64
100
AcDbEntity
  8
寸法
 62
     0
 48
50.0
370
    -2
100
AcDbBlockReference
  2
_DOTSMALL
 10
4354.943038475958
 20
4830.301444660917
 30
0.0
 41
100.0
 42
100.0
 43
100.0
 50
268.3526390256377
  0
INSERT
  5
171DB
330
16E64
100
AcDbEntity
  8
寸法
 62
     0
 48
50.0
370
    -2
100
AcDbBlockReference
  2
_DOTSMALL
 10
4358.996494032585
 20
4971.243168426628
 30
0.0
 41
100.0
 42
100.0
 43
100.0
 50
88.35263902563776
  0
MTEXT
  5
171DC
330
16E64
100
AcDbEntity
  8
寸法
 62
     7
 48
50.0
100
AcDbMText
 10
4265.649844397499
 20
5204.022899077526
 30
0.0
 40
120.0
 41
0.0
 71
     5
 72
     1
  1
\A1;141
  7
STYLE1
 11
0.0287479117491245
 21
0.9995866933738486
 31
0.0
 73
     1
 44
1.0
1001
ACAD
1000
MTEXTBEGIN
1070
    73
1070
     1
1070
    44
1040
1.0
1070
    74
1070
     0
1000
MTEXTEND
  0
POINT
  5
171DD
330
16E64
100
AcDbEntity
  8
DEFPOINTS
 62
     0
 48
50.0
100
AcDbPoint
 10
4934.9474654029
 20
4954.678934622262
 30
0.0
  0
POINT
  5
171DE
330
16E64
100
AcDbEntity
  8
DEFPOINTS
 62
     0
 48
50.0
100
AcDbPoint
 10
4930.894009846273
 20
4813.737210856551
 30
0.0
  0
POINT
  5
171DF
330
16E64
100
AcDbEntity
  8
DEFPOINTS
 62
     0
 48
50.0
100
AcDbPoint
 10
4354.943038475958
 20
4830.301444660917
 30
0.0
  0
ENDBLK
  5
16E70
330
16E64
100
AcDbEntity
  8
0
 48
50.0
100
AcDbBlockEnd
  0
BLOCK
  5
16E7B
330
16E71
100
AcDbEntity
  8
0
 48
50.0
100
AcDbBlockBegin
  2
*D26
 70
     1
 10
0.0
 20
0.0
 30
0.0
  3
*D26
  1

  0
LINE
  5
171CD
330
16E71
100
AcDbEntity
  8
寸法
 62
     0
 48
50.0
370
    -2
100
AcDbLine
 10
4883.051445244324
 20
2280.956185787584
 30
0.0
 11
4693.551441997686
 21
2280.956185787584
 31
0.0
  0
LINE
  5
171CE
330
16E71
100
AcDbEntity
  8
寸法
 62
     0
 48
50.0
370
    -2
100
AcDbLine
 10
4858.051445244321
 20
2480.956185787583
 30
0.0
 11
4693.551441997686
 21
2480.956185787583
 31
0.0
  0
LINE
  5
171CF
330
16E71
100
AcDbEntity
  8
寸法
 62
     0
 48
50.0
370
    -2
100
AcDbLine
 10
4753.551441997687
 20
2280.956185787584
 30
0.0
 11
4753.551441997687
 21
2480.956185787583
 31
0.0
  0
INSERT
  5
171D0
330
16E71
100
AcDbEntity
  8
寸法
 62
     0
 48
50.0
370
    -2
100
AcDbBlockReference
  2
_DOTSMALL
 10
4753.551441997687
 20
2280.956185787584
 30
0.0
 41
100.0
 42
100.0
 43
100.0
 50
270.0
  0
INSERT
  5
171D1
330
16E71
100
AcDbEntity
  8
寸法
 62
     0
 48
50.0
370
    -2
100
AcDbBlockReference
  2
_DOTSMALL
 10
4753.551441997687
 20
2480.956185787583
 30
0.0
 41
100.0
 42
100.0
 43
100.0
 50
90.0
  0
MTEXT
  5
171D2
330
16E71
100
AcDbEntity
  8
寸法
 62
     7
 48
50.0
100
AcDbMText
 10
4653.539630974065
 20
2380.956185787584
 30
0.0
 40
120.0
 41
0.0
 71
     5
 72
     1
  1
\A1;200
  7
STYLE1
 11
0.0000000000000001
 21
1.0
 31
0.0
 73
     1
 44
1.0
1001
ACAD
1000
MTEXTBEGIN
1070
    73
1070
     1
1070
    44
1040
1.0
1070
    74
1070
     0
1000
MTEXTEND
  0
POINT
  5
171D3
330
16E71
100
AcDbEntity
  8
DEFPOINTS
 62
     0
 48
50.0
100
AcDbPoint
 10
4903.051445244324
 20
2280.956185787584
 30
0.0
  0
POINT
  5
171D4
330
16E71
100
AcDbEntity
  8
DEFPOINTS
 62
     0
 48
50.0
100
AcDbPoint
 10
4878.05144524432
 20
2480.956185787583
 30
0.0
  0
POINT
  5
171D5
330
16E71
100
AcDbEntity
  8
DEFPOINTS
 62
     0
 48
50.0
100
AcDbPoint
 10
4753.551441997687
 20
2480.956185787583
 30
0.0
  0
ENDBLK
  5
16E7C
330
16E71
100
AcDbEntity
  8
0
 48
50.0
100
AcDbBlockEnd
  0
BLOCK
  5
16E87
330
16E7D
100
AcDbEntity
  8
0
 48
50.0
100
AcDbBlockBegin
  2
*D27
 70
     1
 10
0.0
 20
0.0
 30
0.0
  3
*D27
  1

  0
LINE
  5
171C4
330
16E7D
100
AcDbEntity
  8
寸法
 62
     0
 48
50.0
370
    -2
100
AcDbLine
 10
5103.051445244321
 20
2260.95618578758
 30
0.0
 11
5103.051445244321
 21
1934.908856487205
 31
0.0
  0
LINE
  5
171C5
330
16E7D
100
AcDbEntity
  8
寸法
 62
     0
 48
50.0
370
    -2
100
AcDbLine
 10
4903.051445244324
 20
2260.956185787583
 30
0.0
 11
4903.051445244324
 21
1934.908856487205
 31
0.0
  0
LINE
  5
171C6
330
16E7D
100
AcDbEntity
  8
寸法
 62
     0
 48
50.0
370
    -2
100
AcDbLine
 10
5103.051445244321
 20
1994.908856487205
 30
0.0
 11
4903.051445244324
 21
1994.908856487205
 31
0.0
  0
INSERT
  5
171C7
330
16E7D
100
AcDbEntity
  8
寸法
 62
     0
 48
50.0
370
    -2
100
AcDbBlockReference
  2
_DOTSMALL
 10
5103.051445244321
 20
1994.908856487205
 30
0.0
 41
100.0
 42
100.0
 43
100.0
  0
INSERT
  5
171C8
330
16E7D
100
AcDbEntity
  8
寸法
 62
     0
 48
50.0
370
    -2
100
AcDbBlockReference
  2
_DOTSMALL
 10
4903.051445244324
 20
1994.908856487205
 30
0.0
 41
100.0
 42
100.0
 43
100.0
 50
180.0
  0
MTEXT
  5
171C9
330
16E7D
100
AcDbEntity
  8
寸法
 62
     7
 48
50.0
100
AcDbMText
 10
5003.051445244322
 20
2094.920667510828
 30
0.0
 40
120.0
 41
0.0
 71
     5
 72
     1
  1
\A1;200
  7
STYLE1
 73
     1
 44
1.0
1001
ACAD
1000
MTEXTBEGIN
1070
    73
1070
     1
1070
    44
1040
1.0
1070
    74
1070
     0
1000
MTEXTEND
  0
POINT
  5
171CA
330
16E7D
100
AcDbEntity
  8
DEFPOINTS
 62
     0
 48
50.0
100
AcDbPoint
 10
5103.051445244321
 20
2280.95618578758
 30
0.0
  0
POINT
  5
171CB
330
16E7D
100
AcDbEntity
  8
DEFPOINTS
 62
     0
 48
50.0
100
AcDbPoint
 10
4903.051445244324
 20
2280.956185787584
 30
0.0
  0
POINT
  5
171CC
330
16E7D
100
AcDbEntity
  8
DEFPOINTS
 62
     0
 48
50.0
100
AcDbPoint
 10
4903.051445244324
 20
1994.908856487205
 30
0.0
  0
ENDBLK
  5
16E88
330
16E7D
100
AcDbEntity
  8
0
 48
50.0
100
AcDbBlockEnd
  0
BLOCK
  5
16E93
330
16E89
100
AcDbEntity
  8
0
 48
50.0
100
AcDbBlockBegin
  2
*D28
 70
     1
 10
0.0
 20
0.0
 30
0.0
  3
*D28
  1

  0
LINE
  5
172E7
330
16E89
100
AcDbEntity
  8
寸法
 62
     0
 48
50.0
370
    -2
100
AcDbLine
 10
9320.01179134186
 20
4663.956185787583
 30
0.0
 11
8497.261028190443
 21
4663.956185787583
 31
0.0
  0
LINE
  5
172E8
330
16E89
100
AcDbEntity
  8
寸法
 62
     0
 48
50.0
370
    -2
100
AcDbLine
 10
9320.01179134186
 20
2638.956185787583
 30
0.0
 11
8497.261028190441
 21
2638.956185787584
 31
0.0
  0
LINE
  5
172E9
330
16E89
100
AcDbEntity
  8
寸法
 62
     0
 48
50.0
370
    -2
100
AcDbLine
 10
8557.261028190444
 20
4663.956185787583
 30
0.0
 11
8557.261028190442
 21
2638.956185787584
 31
0.0
  0
INSERT
  5
172EA
330
16E89
100
AcDbEntity
  8
寸法
 62
     0
 48
50.0
370
    -2
100
AcDbBlockReference
  2
_DOTSMALL
 10
8557.261028190444
 20
4663.956185787583
 30
0.0
 41
100.0
 42
100.0
 43
100.0
 50
90.0
  0
INSERT
  5
172EB
330
16E89
100
AcDbEntity
  8
寸法
 62
     0
 48
50.0
370
    -2
100
AcDbBlockReference
  2
_DOTSMALL
 10
8557.261028190442
 20
2638.956185787584
 30
0.0
 41
100.0
 42
100.0
 43
100.0
 50
270.0
  0
MTEXT
  5
172EC
330
16E89
100
AcDbEntity
  8
寸法
 62
     7
 48
50.0
100
AcDbMText
 10
8457.24921716682
 20
3673.532556214381
 30
0.0
 40
120.0
 41
0.0
 71
     5
 72
     1
  1
\A1;有効開口部高サ2025
  7
STYLE1
 11
0.0000000000000001
 21
1.0
 31
0.0
 73
     1
 44
1.0
1001
ACAD
1000
MTEXTBEGIN
1070
    73
1070
     1
1070
    44
1040
1.0
1070
    74
1070
     0
1000
MTEXTEND
  0
POINT
  5
172ED
330
16E89
100
AcDbEntity
  8
DEFPOINTS
 62
     0
 48
50.0
100
AcDbPoint
 10
9340.01179134186
 20
4663.956185787583
 30
0.0
  0
POINT
  5
172EE
330
16E89
100
AcDbEntity
  8
DEFPOINTS
 62
     0
 48
50.0
100
AcDbPoint
 10
9340.01179134186
 20
2638.956185787583
 30
0.0
  0
POINT
  5
172EF
330
16E89
100
AcDbEntity
  8
DEFPOINTS
 62
     0
 48
50.0
100
AcDbPoint
 10
8557.261028190442
 20
2638.956185787584
 30
0.0
  0
ENDBLK
  5
16E94
330
16E89
100
AcDbEntity
  8
0
 48
50.0
100
AcDbBlockEnd
  0
BLOCK
  5
16E9F
330
16E95
100
AcDbEntity
  8
0
 48
50.0
100
AcDbBlockBegin
  2
*D29
 70
     1
 10
0.0
 20
0.0
 30
0.0
  3
*D29
  1

  0
LINE
  5
172DE
330
16E95
100
AcDbEntity
  8
寸法
 62
     0
 48
50.0
370
    -2
100
AcDbLine
 10
8992.011791341859
 20
2260.956185787583
 30
0.0
 11
8992.011791341859
 21
1934.908856487205
 31
0.0
  0
LINE
  5
172DF
330
16E95
100
AcDbEntity
  8
寸法
 62
     0
 48
50.0
370
    -2
100
AcDbLine
 10
8792.011791341858
 20
2260.956185787583
 30
0.0
 11
8792.011791341858
 21
1934.908856487205
 31
0.0
  0
LINE
  5
172E0
330
16E95
100
AcDbEntity
  8
寸法
 62
     0
 48
50.0
370
    -2
100
AcDbLine
 10
8992.011791341859
 20
1994.908856487205
 30
0.0
 11
8792.011791341858
 21
1994.908856487205
 31
0.0
  0
INSERT
  5
172E1
330
16E95
100
AcDbEntity
  8
寸法
 62
     0
 48
50.0
370
    -2
100
AcDbBlockReference
  2
_DOTSMALL
 10
8992.011791341859
 20
1994.908856487205
 30
0.0
 41
100.0
 42
100.0
 43
100.0
  0
INSERT
  5
172E2
330
16E95
100
AcDbEntity
  8
寸法
 62
     0
 48
50.0
370
    -2
100
AcDbBlockReference
  2
_DOTSMALL
 10
8792.011791341858
 20
1994.908856487205
 30
0.0
 41
100.0
 42
100.0
 43
100.0
 50
180.0
  0
MTEXT
  5
172E3
330
16E95
100
AcDbEntity
  8
寸法
 62
     7
 48
50.0
100
AcDbMText
 10
8892.011791341857
 20
2094.920667510828
 30
0.0
 40
120.0
 41
0.0
 71
     5
 72
     1
  1
\A1;200
  7
STYLE1
 73
     1
 44
1.0
1001
ACAD
1000
MTEXTBEGIN
1070
    73
1070
     1
1070
    44
1040
1.0
1070
    74
1070
     0
1000
MTEXTEND
  0
POINT
  5
172E4
330
16E95
100
AcDbEntity
  8
DEFPOINTS
 62
     0
 48
50.0
100
AcDbPoint
 10
8992.011791341859
 20
2280.956185787584
 30
0.0
  0
POINT
  5
172E5
330
16E95
100
AcDbEntity
  8
DEFPOINTS
 62
     0
 48
50.0
100
AcDbPoint
 10
8792.011791341858
 20
2280.956185787584
 30
0.0
  0
POINT
  5
172E6
330
16E95
100
AcDbEntity
  8
DEFPOINTS
 62
     0
 48
50.0
100
AcDbPoint
 10
8792.011791341858
 20
1994.908856487205
 30
0.0
  0
ENDBLK
  5
16EA0
330
16E95
100
AcDbEntity
  8
0
 48
50.0
100
AcDbBlockEnd
  0
BLOCK
  5
1749F
330
17495
100
AcDbEntity
  8
0
 48
50.0
100
AcDbBlockBegin
  2
*D30
 70
     1
 10
0.0
 20
0.0
 30
0.0
  3
*D30
  1

  0
LINE
  5
17940
330
17495
100
AcDbEntity
  8
寸法
 62
     0
 48
50.0
370
    -2
100
AcDbLine
 10
9379.011791341836
 20
7796.51541897947
 30
0.0
 11
9379.011791341836
 21
7123.022364813266
 31
0.0
  0
LINE
  5
17941
330
17495
100
AcDbEntity
  8
寸法
 62
     0
 48
50.0
370
    -2
100
AcDbLine
 10
10645.01179134183
 20
7796.51541897947
 30
0.0
 11
10645.01179134183
 21
7123.022364813266
 31
0.0
  0
LINE
  5
17942
330
17495
100
AcDbEntity
  8
寸法
 62
     0
 48
50.0
370
    -2
100
AcDbLine
 10
9399.011791341836
 20
7163.022364813267
 30
0.0
 11
10625.01179134183
 21
7163.022364813267
 31
0.0
  0
INSERT
  5
17943
330
17495
100
AcDbEntity
  8
寸法
 62
     0
 48
50.0
370
    -2
100
AcDbBlockReference
  2
_DOT
 10
9379.011791341836
 20
7163.022364813267
 30
0.0
 41
20.0
 42
20.0
 43
20.0
 50
180.0
  0
INSERT
  5
17944
330
17495
100
AcDbEntity
  8
寸法
 62
     0
 48
50.0
370
    -2
100
AcDbBlockReference
  2
_DOT
 10
10645.01179134183
 20
7163.022364813267
 30
0.0
 41
20.0
 42
20.0
 43
20.0
  0
MTEXT
  5
17945
330
17495
100
AcDbEntity
  8
寸法
 62
     7
 48
50.0
100
AcDbMText
 10
10012.66828421093
 20
7355.034175836888
 30
0.0
 40
120.0
 41
0.0
 71
     5
 72
     1
  1
\A1;有効開口部間口\P1266
  7
STYLE1
 73
     1
 44
1.0
1001
ACAD
1000
MTEXTBEGIN
1070
    73
1070
     1
1070
    44
1040
1.0
1070
    74
1070
     0
1000
MTEXTEND
  0
POINT
  5
17946
330
17495
100
AcDbEntity
  8
DEFPOINTS
 62
     0
 48
50.0
100
AcDbPoint
 10
9379.011791341836
 20
7816.51541897947
 30
0.0
  0
POINT
  5
17947
330
17495
100
AcDbEntity
  8
DEFPOINTS
 62
     0
 48
50.0
100
AcDbPoint
 10
10645.01179134183
 20
7816.51541897947
 30
0.0
  0
POINT
  5
17948
330
17495
100
AcDbEntity
  8
DEFPOINTS
 62
     0
 48
50.0
100
AcDbPoint
 10
10645.01179134183
 20
7163.022364813267
 30
0.0
  0
ENDBLK
  5
174A0
330
17495
100
AcDbEntity
  8
0
 48
50.0
100
AcDbBlockEnd
  0
BLOCK
  5
177D6
330
177CC
100
AcDbEntity
  8
0
 48
50.0
100
AcDbBlockBegin
  2
*D31
 70
     1
 10
0.0
 20
0.0
 30
0.0
  3
*D31
  1

  0
LINE
  5
17937
330
177CC
100
AcDbEntity
  8
寸法
 62
     0
 48
50.0
370
    -2
100
AcDbLine
 10
9340.011791341837
 20
7796.515418979338
 30
0.0
 11
9340.011791341837
 21
6818.660049590011
 31
0.0
  0
LINE
  5
17938
330
177CC
100
AcDbEntity
  8
寸法
 62
     0
 48
50.0
370
    -2
100
AcDbLine
 10
11494.01179134183
 20
7796.515418979338
 30
0.0
 11
11494.01179134183
 21
6818.660049590011
 31
0.0
  0
LINE
  5
17939
330
177CC
100
AcDbEntity
  8
寸法
 62
     0
 48
50.0
370
    -2
100
AcDbLine
 10
9340.011791341837
 20
6878.660049590012
 30
0.0
 11
11494.01179134183
 21
6878.660049590012
 31
0.0
  0
INSERT
  5
1793A
330
177CC
100
AcDbEntity
  8
寸法
 62
     0
 48
50.0
370
    -2
100
AcDbBlockReference
  2
_DOTSMALL
 10
9340.011791341837
 20
6878.660049590012
 30
0.0
 41
100.0
 42
100.0
 43
100.0
 50
180.0
  0
INSERT
  5
1793B
330
177CC
100
AcDbEntity
  8
寸法
 62
     0
 48
50.0
370
    -2
100
AcDbBlockReference
  2
_DOTSMALL
 10
11494.01179134183
 20
6878.660049590012
 30
0.0
 41
100.0
 42
100.0
 43
100.0
  0
MTEXT
  5
1793C
330
177CC
100
AcDbEntity
  8
寸法
 62
     7
 48
50.0
100
AcDbMText
 10
10418.81176261228
 20
6978.671860613633
 30
0.0
 40
120.0
 41
0.0
 71
     5
 72
     1
  1
\A1;2154
  7
STYLE1
 73
     1
 44
1.0
1001
ACAD
1000
MTEXTBEGIN
1070
    73
1070
     1
1070
    44
1040
1.0
1070
    74
1070
     0
1000
MTEXTEND
  0
POINT
  5
1793D
330
177CC
100
AcDbEntity
  8
DEFPOINTS
 62
     0
 48
50.0
100
AcDbPoint
 10
9340.011791341837
 20
7816.515418979337
 30
0.0
  0
POINT
  5
1793E
330
177CC
100
AcDbEntity
  8
DEFPOINTS
 62
     0
 48
50.0
100
AcDbPoint
 10
11494.01179134183
 20
7816.515418979337
 30
0.0
  0
POINT
  5
1793F
330
177CC
100
AcDbEntity
  8
DEFPOINTS
 62
     0
 48
50.0
100
AcDbPoint
 10
11494.01179134183
 20
6878.660049590012
 30
0.0
  0
ENDBLK
  5
177D7
330
177CC
100
AcDbEntity
  8
0
 48
50.0
100
AcDbBlockEnd
  0
BLOCK
  5
177E4
330
177D8
100
AcDbEntity
  8
0
 48
50.0
100
AcDbBlockBegin
  2
*D32
 70
     1
 10
0.0
 20
0.0
 30
0.0
  3
*D32
  1

  0
LINE
  5
1792C
330
177D8
100
AcDbEntity
  8
寸法
 62
     0
 48
50.0
370
    -2
100
AcDbLine
 10
8872.011791341861
 20
7893.515418979333
 30
0.0
 11
8557.400545715145
 21
7893.515418979333
 31
0.0
  0
LINE
  5
1792D
330
177D8
100
AcDbEntity
  8
寸法
 62
     0
 48
50.0
370
    -2
100
AcDbLine
 10
9320.011791341837
 20
7818.515418979334
 30
0.0
 11
8557.400545715145
 21
7818.515418979334
 31
0.0
  0
LINE
  5
1792E
330
177D8
100
AcDbEntity
  8
寸法
 62
     0
 48
50.0
370
    -2
100
AcDbLine
 10
8597.400545715144
 20
7913.515418979334
 30
0.0
 11
8597.400545715144
 21
7933.515418979334
 31
0.0
  0
LINE
  5
1792F
330
177D8
100
AcDbEntity
  8
寸法
 62
     0
 48
50.0
370
    -2
100
AcDbLine
 10
8597.400545715144
 20
7798.515418979333
 30
0.0
 11
8597.400545715144
 21
7577.544856230855
 31
0.0
  0
LINE
  5
17930
330
177D8
100
AcDbEntity
  8
寸法
 62
     0
 48
50.0
370
    -2
100
AcDbLine
 10
8597.400545715144
 20
7893.515418979333
 30
0.0
 11
8597.400545715144
 21
7818.515418979334
 31
0.0
  0
INSERT
  5
17931
330
177D8
100
AcDbEntity
  8
寸法
 62
     0
 48
50.0
370
    -2
100
AcDbBlockReference
  2
_DOT
 10
8597.400545715144
 20
7893.515418979333
 30
0.0
 41
20.0
 42
20.0
 43
20.0
 50
270.0
  0
INSERT
  5
17932
330
177D8
100
AcDbEntity
  8
寸法
 62
     0
 48
50.0
370
    -2
100
AcDbBlockReference
  2
_DOT
 10
8597.400545715144
 20
7818.515418979334
 30
0.0
 41
20.0
 42
20.0
 43
20.0
 50
90.0
  0
MTEXT
  5
17933
330
177D8
100
AcDbEntity
  8
寸法
 62
     7
 48
50.0
100
AcDbMText
 10
8505.400545715144
 20
7678.030137605095
 30
0.0
 40
120.0
 41
0.0
 71
     5
 72
     1
  1
\A1;75
  7
STYLE1
 11
0.0000000000000001
 21
1.0
 31
0.0
 73
     1
 44
1.0
1001
ACAD
1000
MTEXTBEGIN
1070
    73
1070
     1
1070
    44
1040
1.0
1070
    74
1070
     0
1000
MTEXTEND
  0
POINT
  5
17934
330
177D8
100
AcDbEntity
  8
DEFPOINTS
 62
     0
 48
50.0
100
AcDbPoint
 10
8892.011791341863
 20
7893.515418979333
 30
0.0
  0
POINT
  5
17935
330
177D8
100
AcDbEntity
  8
DEFPOINTS
 62
     0
 48
50.0
100
AcDbPoint
 10
9340.011791341837
 20
7818.515418979334
 30
0.0
  0
POINT
  5
17936
330
177D8
100
AcDbEntity
  8
DEFPOINTS
 62
     0
 48
50.0
100
AcDbPoint
 10
8597.400545715144
 20
7818.515418979334
 30
0.0
  0
ENDBLK
  5
177E5
330
177D8
100
AcDbEntity
  8
0
 48
50.0
100
AcDbBlockEnd
  0
BLOCK
  5
17848
330
1783E
100
AcDbEntity
  8
0
 48
50.0
100
AcDbBlockBegin
  2
*D33
 70
     1
 10
0.0
 20
0.0
 30
0.0
  3
*D33
  1

  0
LINE
  5
17923
330
1783E
100
AcDbEntity
  8
寸法
 62
     0
 48
50.0
370
    -2
100
AcDbLine
 10
8892.011791341863
 20
7873.515418979301
 30
0.0
 11
8892.011791341863
 21
6552.318461698333
 31
0.0
  0
LINE
  5
17924
330
1783E
100
AcDbEntity
  8
寸法
 62
     0
 48
50.0
370
    -2
100
AcDbLine
 10
11522.01179134184
 20
7873.515418979465
 30
0.0
 11
11522.01179134184
 21
6552.318461698333
 31
0.0
  0
LINE
  5
17925
330
1783E
100
AcDbEntity
  8
寸法
 62
     0
 48
50.0
370
    -2
100
AcDbLine
 10
8892.011791341863
 20
6612.318461698333
 30
0.0
 11
11522.01179134184
 21
6612.318461698333
 31
0.0
  0
INSERT
  5
17926
330
1783E
100
AcDbEntity
  8
寸法
 62
     0
 48
50.0
370
    -2
100
AcDbBlockReference
  2
_DOTSMALL
 10
8892.011791341863
 20
6612.318461698333
 30
0.0
 41
100.0
 42
100.0
 43
100.0
 50
180.0
  0
INSERT
  5
17927
330
1783E
100
AcDbEntity
  8
寸法
 62
     0
 48
50.0
370
    -2
100
AcDbBlockReference
  2
_DOTSMALL
 10
11522.01179134184
 20
6612.318461698333
 30
0.0
 41
100.0
 42
100.0
 43
100.0
  0
MTEXT
  5
17928
330
1783E
100
AcDbEntity
  8
寸法
 62
     7
 48
50.0
100
AcDbMText
 10
10191.45113604438
 20
6712.330272721954
 30
0.0
 40
120.0
 41
0.0
 71
     5
 72
     1
  1
\A1;2630
  7
STYLE1
 73
     1
 44
1.0
1001
ACAD
1000
MTEXTBEGIN
1070
    73
1070
     1
1070
    44
1040
1.0
1070
    74
1070
     0
1000
MTEXTEND
  0
POINT
  5
17929
330
1783E
100
AcDbEntity
  8
DEFPOINTS
 62
     0
 48
50.0
100
AcDbPoint
 10
8892.011791341863
 20
7893.515418979301
 30
0.0
  0
POINT
  5
1792A
330
1783E
100
AcDbEntity
  8
DEFPOINTS
 62
     0
 48
50.0
100
AcDbPoint
 10
11522.01179134184
 20
7893.515418979465
 30
0.0
  0
POINT
  5
1792B
330
1783E
100
AcDbEntity
  8
DEFPOINTS
 62
     0
 48
50.0
100
AcDbPoint
 10
11522.01179134184
 20
6612.318461698333
 30
0.0
  0
ENDBLK
  5
17849
330
1783E
100
AcDbEntity
  8
0
 48
50.0
100
AcDbBlockEnd
  0
ENDSEC
  0
SECTION
  2
ENTITIES
  0
LINE
  5
10B57
330
747D
100
AcDbEntity
  8
補助
  6
PHANTOM
 62
   230
 48
50.0
100
AcDbLine
 10
139.9999999999995
 20
11409.6
 30
0.0
 11
16307.2
 21
11409.6
 31
0.0
  0
LINE
  5
10B59
330
747D
100
AcDbEntity
  8
仕様書枠
  6
Continuous
 48
50.0
100
AcDbLine
 10
13107.2
 20
1200.0
 30
0.0
 11
13107.2
 21
-0.0000000000000729
 31
0.0
  0
LINE
  5
10B5C
330
747D
100
AcDbEntity
  8
仕様書枠
 48
50.0
100
AcDbLine
 10
16307.2
 20
1200.0
 30
0.0
 11
16307.2
 21
-0.0000000000000909
 31
0.0
  0
LINE
  5
10B5D
330
747D
100
AcDbEntity
  8
仕様書枠
 48
50.0
100
AcDbLine
 10
140.0
 20
0.0
 30
0.0
 11
16307.2
 21
-0.0000000000000909
 31
0.0
  0
LINE
  5
10B5E
330
747D
100
AcDbEntity
  8
補助
  6
PHANTOM
 62
   230
 48
50.0
100
AcDbLine
 10
16307.2
 20
11409.6
 30
0.0
 11
16307.2
 21
1200.0
 31
0.0
  0
LINE
  5
10B6C
330
747D
100
AcDbEntity
  8
仕様書枠
 48
50.0
100
AcDbLine
 10
13107.2
 20
1200.0
 30
0.0
 11
16307.2
 21
1200.0
 31
0.0
  0
LINE
  5
10B6D
330
747D
100
AcDbEntity
  8
補助
  6
PHANTOM
 62
   230
 48
50.0
100
AcDbLine
 10
13107.2
 20
11409.6
 30
0.0
 11
13107.2
 21
4800.0
 31
0.0
  0
LINE
  5
10B6F
330
747D
100
AcDbEntity
  8
補助
  6
PHANTOM
 62
   230
 48
50.0
100
AcDbLine
 10
13107.2
 20
4800.0
 30
0.0
 11
16307.2
 21
4800.0
 31
0.0
  0
LINE
  5
10B72
330
747D
100
AcDbEntity
  8
文字
 62
     7
 48
50.0
100
AcDbLine
 10
13187.2
 20
400.0
 30
0.0
 11
16227.2
 21
400.0
 31
0.0
  0
TEXT
  5
10B73
330
747D
100
AcDbEntity
  8
文字
 62
     7
 48
50.0
100
AcDbText
 10
13162.9790565769
 20
895.0906074299405
 30
0.0
 40
200.0
  1
外 形 図
  7
STYLE2
100
AcDbText
  0
TEXT
  5
10B74
330
747D
100
AcDbEntity
  8
文字
 62
     7
 48
50.0
100
AcDbText
 10
13201.43669998441
 20
477.2740661031255
 30
0.0
 40
160.0
  1
機種名
  7
STYLE2
100
AcDbText
  0
TEXT
  5
10B76
330
747D
100
AcDbEntity
  8
文字
 62
     7
 48
50.0
100
AcDbText
 10
13209.4053442172
 20
76.09434707649343
 30
0.0
 40
100.0
  1
○床面積 ： 4.87㎡(1.48坪) 　
  7
STYLE2
100
AcDbText
  0
TEXT
  5
10B79
330
747D
100
AcDbEntity
  8
文字
 62
     7
 48
50.0
100
AcDbText
 10
14524.131837222
 20
1031.557706291228
 30
0.0
 40
100.0
  1
NO.21      <縮尺> S=1/40
  7
STYLE2
100
AcDbText
  0
LINE
  5
10B7B
330
747D
100
AcDbEntity
  8
仕様書枠
 48
50.0
100
AcDbLine
 10
13107.2
 20
800.0
 30
0.0
 11
14251.2
 21
800.0
 31
0.0
  0
LINE
  5
10B88
330
747D
100
AcDbEntity
  8
仕様書枠
  6
Continuous
 48
50.0
100
AcDbLine
 10
14251.2
 20
1200.0
 30
0.0
 11
14251.2
 21
800.0
 31
0.0
  0
TEXT
  5
154D3
330
747D
100
AcDbEntity
  8
文字
 62
     7
 48
50.0
100
AcDbText
 10
14643.63059855437
 20
863.0097378581719
 30
0.0
 40
100.0
  1
～一般型・多雪地型～
  7
STYLE2
100
AcDbText
  0
LINE
  5
16A08
330
747D
100
AcDbEntity
  8
部品1
100
AcDbLine
 10
11494.01179134187
 20
8368.515418979477
 30
0.0
 11
11522.01179134187
 21
8368.515418979477
 31
0.0
  0
LINE
  5
16A09
330
747D
100
AcDbEntity
  8
部品1
100
AcDbLine
 10
8920.011791341844
 20
8368.515418979354
 30
0.0
 11
8892.011791341843
 21
8368.515418979354
 31
0.0
  0
LINE
  5
16A0A
330
747D
100
AcDbEntity
  8
部品1
100
AcDbLine
 10
11465.51179134185
 20
8368.515418979448
 30
0.0
 11
8948.511791341854
 21
8368.515418979354
 31
0.0
  0
LINE
  5
16A0B
330
747D
100
AcDbEntity
  8
Ｇ．Ｌ
100
AcDbLine
 10
3021.502821816099
 20
2480.956185787583
 30
0.0
 11
12171.5243443707
 21
2480.956185787583
 31
0.0
  0
TEXT
  5
16A0C
330
747D
100
AcDbEntity
  8
部品1
100
AcDbText
 10
9915.801861965595
 20
1599.024393591649
 30
0.0
 40
135.0
  1
正面図
  7
STYLE2
100
AcDbText
  0
LINE
  5
16A12
330
747D
100
AcDbEntity
  8
部品1
100
AcDbLine
 10
9825.276458227641
 20
1791.917922810173
 30
0.0
 11
9825.276458227641
 21
1552.02560126464
 31
0.0
  0
LINE
  5
16A13
330
747D
100
AcDbEntity
  8
部品1
100
AcDbLine
 10
9825.276458227641
 20
1552.02560126464
 30
0.0
 11
10588.74712445607
 21
1552.02560126464
 31
0.0
  0
LINE
  5
16A14
330
747D
100
AcDbEntity
  8
部品1
100
AcDbLine
 10
10588.74712445607
 20
1552.02560126464
 30
0.0
 11
10588.74712445607
 21
1791.917922810173
 31
0.0
  0
LINE
  5
16A15
330
747D
100
AcDbEntity
  8
部品1
100
AcDbLine
 10
10588.74712445607
 20
1791.917922810173
 30
0.0
 11
9825.276458227641
 21
1791.917922810173
 31
0.0
  0
DIMENSION
  5
16A16
330
747D
100
AcDbEntity
  8
寸法
 48
50.0
100
AcDbDimension
  2
*D28
 10
8557.261028190442
 20
2638.956185787584
 30
0.0
 11
8557.261028190442
 21
3673.532556214381
 31
0.0
 70
   160
  1
有効開口部高サ<>
 71
     5
 42
2025.0
  3
INABA_S40G
100
AcDbAlignedDimension
 13
9340.01179134186
 23
4663.956185787583
 33
0.0
 14
9340.01179134186
 24
2638.956185787583
 34
0.0
 50
90.0
100
AcDbRotatedDimension
  0
DIMENSION
  5
16A17
330
747D
100
AcDbEntity
  8
寸法
 48
50.0
100
AcDbDimension
  2
*D29
 10
8792.011791341858
 20
1994.908856487205
 30
0.0
 11
8892.011791341857
 21
1994.908856487205
 31
0.0
 70
   160
 71
     5
 42
200.0000000000018
  3
INABA_S40G
100
AcDbAlignedDimension
 13
8992.011791341859
 23
2280.956185787584
 33
0.0
 14
8792.011791341858
 24
2280.956185787584
 34
0.0
100
AcDbRotatedDimension
  0
LINE
  5
16A18
330
747D
100
AcDbEntity
  8
破線
 48
5.0
100
AcDbLine
 10
8792.011791341858
 20
2280.956185787584
 30
0.0
 11
8992.011791341859
 21
2280.956185787584
 31
0.0
  0
LINE
  5
16A19
330
747D
100
AcDbEntity
  8
破線
 48
5.0
100
AcDbLine
 10
8792.011791341858
 20
2480.956185787583
 30
0.0
 11
8792.011791341858
 21
2280.956185787584
 31
0.0
  0
LINE
  5
16A1A
330
747D
100
AcDbEntity
  8
部品1
100
AcDbLine
 10
8892.011791341857
 20
4720.956185787583
 30
0.0
 11
11522.01179134186
 21
4720.956185787583
 31
0.0
  0
LINE
  5
16A1B
330
747D
100
AcDbEntity
  8
部品1
 48
50.0
100
AcDbLine
 10
9340.01179134186
 20
2580.956185787584
 30
0.0
 11
11494.01179134186
 21
2580.956185787584
 31
0.0
  0
LINE
  5
16A1C
330
747D
100
AcDbEntity
  8
部品1
 48
50.0
100
AcDbLine
 10
8920.01179134186
 20
2580.956185787584
 30
0.0
 11
11494.01179134186
 21
2580.956185787584
 31
0.0
  0
LINE
  5
16A1D
330
747D
100
AcDbEntity
  8
破線
 48
5.0
100
AcDbLine
 10
11622.01179134186
 20
2280.956185787584
 30
0.0
 11
11422.01179134185
 21
2280.956185787584
 31
0.0
  0
LINE
  5
16A1E
330
747D
100
AcDbEntity
  8
部品1
100
AcDbLine
 10
8892.011791341857
 20
4720.956185787583
 30
0.0
 11
11522.01179134186
 21
4720.956185787583
 31
0.0
  0
LINE
  5
16A1F
330
747D
100
AcDbEntity
  8
部品1
100
AcDbLine
 10
8892.011791341857
 20
2580.956185787584
 30
0.0
 11
11522.01179134186
 21
2580.956185787584
 31
0.0
  0
LINE
  5
16A20
330
747D
100
AcDbEntity
  8
部品1
 48
50.0
100
AcDbLine
 10
8947.011791341861
 20
2630.956185787603
 30
0.0
 11
8947.011791341861
 21
4720.956185787583
 31
0.0
  0
LINE
  5
16A21
330
747D
100
AcDbEntity
  8
部品1
100
AcDbLine
 10
8892.011791341856
 20
4774.456185787584
 30
0.0
 11
8892.011791341857
 21
2480.956185787583
 31
0.0
  0
LINE
  5
16A22
330
747D
100
AcDbEntity
  8
部品1
100
AcDbLine
 10
8887.011791341858
 20
2625.956185787585
 30
0.0
 11
8887.011791341858
 21
2480.956185787583
 31
0.0
  0
LINE
  5
16A23
330
747D
100
AcDbEntity
  8
破線
 48
5.0
100
AcDbLine
 10
8887.011791341858
 20
2480.956185787583
 30
0.0
 11
8887.011791341858
 21
2325.956185787584
 31
0.0
  0
LINE
  5
16A24
330
747D
100
AcDbEntity
  8
破線
 48
5.0
100
AcDbLine
 10
8992.011791341857
 20
2480.956185787583
 30
0.0
 11
8992.011791341857
 21
2280.956185787584
 31
0.0
  0
LINE
  5
16A25
330
747D
100
AcDbEntity
  8
破線
 48
5.0
100
AcDbLine
 10
8867.011791341857
 20
2325.956185787584
 30
0.0
 11
8887.01179134186
 21
2325.956185787584
 31
0.0
  0
LINE
  5
16A26
330
747D
100
AcDbEntity
  8
部品1
100
AcDbLine
 10
9292.011791341858
 20
2580.956185787584
 30
0.0
 11
9292.011791341858
 21
2480.956185787583
 31
0.0
  0
LINE
  5
16A27
330
747D
100
AcDbEntity
  8
部品1
100
AcDbLine
 10
8892.011791341857
 20
2630.956185787603
 30
0.0
 11
9340.01179134186
 21
2630.956185787603
 31
0.0
  0
LINE
  5
16A28
330
747D
100
AcDbEntity
  8
部品1
 48
50.0
100
AcDbLine
 10
9692.011791341858
 20
2580.956185787584
 30
0.0
 11
9692.011791341858
 21
2480.956185787583
 31
0.0
  0
LINE
  5
16A29
330
747D
100
AcDbEntity
  8
部品1
 48
50.0
100
AcDbLine
 10
9892.011791341857
 20
2580.956185787584
 30
0.0
 11
9892.011791341857
 21
2480.956185787583
 31
0.0
  0
LINE
  5
16A2A
330
747D
100
AcDbEntity
  8
部品1
 48
50.0
100
AcDbLine
 10
10522.01179134186
 20
2580.956185787584
 30
0.0
 11
10522.01179134186
 21
2480.956185787583
 31
0.0
  0
LINE
  5
16A2B
330
747D
100
AcDbEntity
  8
部品1
 48
50.0
100
AcDbLine
 10
10722.01179134186
 20
2580.956185787584
 30
0.0
 11
10722.01179134186
 21
2480.956185787583
 31
0.0
  0
LINE
  5
16A2C
330
747D
100
AcDbEntity
  8
部品1
100
AcDbLine
 10
11122.01179134186
 20
2580.956185787584
 30
0.0
 11
11122.01179134186
 21
2480.956185787583
 31
0.0
  0
LINE
  5
16A2D
330
747D
100
AcDbEntity
  8
破線
 48
5.0
100
AcDbLine
 10
11422.01179134186
 20
2480.956185787583
 30
0.0
 11
11422.01179134186
 21
2280.956185787584
 31
0.0
  0
LINE
  5
16A2E
330
747D
100
AcDbEntity
  8
部品1
 48
50.0
100
AcDbLine
 10
9367.011791341859
 20
4715.956185787583
 30
0.0
 11
9367.011791341859
 21
4720.956185787583
 31
0.0
  0
LINE
  5
16A2F
330
747D
100
AcDbEntity
  8
部品1
100
AcDbLine
 10
11522.01179134186
 20
4774.456185787584
 30
0.0
 11
11522.01179134186
 21
2480.956185787583
 31
0.0
  0
LINE
  5
16A30
330
747D
100
AcDbEntity
  8
部品1
100
AcDbLine
 10
11527.01179134186
 20
2625.956185787583
 30
0.0
 11
11527.01179134186
 21
2480.956185787583
 31
0.0
  0
LINE
  5
16A31
330
747D
100
AcDbEntity
  8
破線
 48
5.0
100
AcDbLine
 10
11527.01179134186
 20
2480.956185787583
 30
0.0
 11
11527.01179134186
 21
2325.956185787584
 31
0.0
  0
LINE
  5
16A32
330
747D
100
AcDbEntity
  8
破線
 48
5.0
100
AcDbLine
 10
11622.01179134186
 20
2480.956185787583
 30
0.0
 11
11622.01179134186
 21
2280.956185787584
 31
0.0
  0
LINE
  5
16A33
330
747D
100
AcDbEntity
  8
破線
 48
5.0
100
AcDbLine
 10
11547.01179134186
 20
2325.956185787584
 30
0.0
 11
11527.01179134185
 21
2325.956185787584
 31
0.0
  0
LINE
  5
16A34
330
747D
100
AcDbEntity
  8
部品1
100
AcDbLine
 10
11494.01179134186
 20
2630.956185787603
 30
0.0
 11
11522.01179134186
 21
2630.956185787603
 31
0.0
  0
LINE
  5
16A35
330
747D
100
AcDbEntity
  8
部品1
 48
50.0
100
AcDbLine
 10
11467.01179134186
 20
4715.956185787583
 30
0.0
 11
11467.01179134186
 21
4720.956185787583
 31
0.0
  0
DIMENSION
  5
16A36
330
747D
100
AcDbEntity
  8
寸法
100
AcDbDimension
  2
*D2
 10
8947.01179134187
 20
9983.515418979381
 30
0.0
 11
8583.526509967596
 21
9983.515418979381
 31
0.0
 70
   160
 71
     5
 42
55.00000000003637
  3
INABA_S40G
100
AcDbAlignedDimension
 13
8892.011791341833
 23
9683.515418979382
 33
0.0
 14
8947.01179134187
 24
9683.515418979382
 34
0.0
100
AcDbRotatedDimension
1001
ACAD
1000
DSTYLE
1002
{
1002
}
  0
DIMENSION
  5
16A37
330
747D
100
AcDbEntity
  8
寸法
100
AcDbDimension
  2
*D3
 10
10106.77785950587
 20
8883.552029434829
 30
0.0
 11
9470.277859505834
 21
8883.552029434829
 31
0.0
 70
   160
 71
     5
 42
1273.000000000069
  3
INABA_S40G
100
AcDbAlignedDimension
 13
8919.5117913418
 23
9203.515418979428
 33
0.0
 14
10192.51179134187
 24
9203.515418979421
 34
0.0
100
AcDbRotatedDimension
1001
ACAD
1000
DSTYLE
1002
{
1002
}
  0
DIMENSION
  5
16A38
330
747D
100
AcDbEntity
  8
寸法
100
AcDbDimension
  2
*D4
 10
11522.01179134187
 20
9983.515418979381
 30
0.0
 11
11830.49707271611
 21
9983.515418979381
 31
0.0
 70
   160
 71
     5
 42
55.0
  3
INABA_S40G
100
AcDbAlignedDimension
 13
11467.01179134187
 23
9683.515418979476
 33
0.0
 14
11522.01179134187
 24
9683.515418979476
 34
0.0
100
AcDbRotatedDimension
1001
ACAD
1000
DSTYLE
1002
{
1002
}
  0
DIMENSION
  5
16A39
330
747D
100
AcDbEntity
  8
寸法
100
AcDbDimension
  2
*D5
 10
11467.01179134187
 20
9983.515418979381
 30
0.0
 11
10207.01179134186
 21
9983.515418979381
 31
0.0
 70
   160
  1
6X420=<>
 71
     5
 42
2520.0
  3
INABA_S40G
100
AcDbAlignedDimension
 13
8947.01179134187
 23
9683.515418979382
 33
0.0
 14
11467.01179134187
 24
9683.515418979476
 34
0.0
100
AcDbRotatedDimension
1001
ACAD
1000
DSTYLE
1002
{
1002
}
  0
LINE
  5
16A3A
330
747D
100
AcDbEntity
  8
部品1
100
AcDbLine
 10
11465.51179134187
 20
7950.015418979463
 30
0.0
 11
8948.511791341763
 21
7950.015418979346
 31
0.0
  0
LINE
  5
16A3B
330
747D
100
AcDbEntity
  8
部品1
100
AcDbLine
 10
8892.01179134187
 20
9683.515418979382
 30
0.0
 11
11522.01179134187
 21
9683.515418979478
 31
0.0
  0
DIMENSION
  5
16A3D
330
747D
100
AcDbEntity
  8
寸法
100
AcDbDimension
  2
*D6
 10
11406.77785950586
 20
8883.552029434829
 30
0.0
 11
10839.89969865588
 21
8883.552029434829
 31
0.0
 70
   160
 71
     5
 42
1273.000000000011
  3
INABA_S40G
100
AcDbAlignedDimension
 13
10219.51179134187
 23
9203.515418979486
 33
0.0
 14
11492.51179134188
 24
9203.515418979479
 34
0.0
100
AcDbRotatedDimension
1001
ACAD
1000
DSTYLE
1002
{
1002
}
  0
LINE
  5
16A3E
330
747D
100
AcDbEntity
  8
細線
 48
50.0
100
AcDbLine
 10
11493.51179134187
 20
9653.515418979479
 30
0.0
 11
10220.51179134187
 21
9203.515418979485
 31
0.0
  0
LINE
  5
16A3F
330
747D
100
AcDbEntity
  8
部品1
100
AcDbLine
 10
10220.51179134187
 20
9653.515418979486
 30
0.0
 11
11493.51179134187
 21
9653.515418979479
 31
0.0
  0
LINE
  5
16A40
330
747D
100
AcDbEntity
  8
部品1
100
AcDbLine
 10
10220.51179134187
 20
9203.515418979485
 30
0.0
 11
11493.51179134187
 21
9203.515418979478
 31
0.0
  0
LINE
  5
16A41
330
747D
100
AcDbEntity
  8
細線
 48
50.0
100
AcDbLine
 10
11493.51179134187
 20
9203.515418979478
 30
0.0
 11
10220.51179134187
 21
9653.515418979479
 31
0.0
  0
LINE
  5
16A42
330
747D
100
AcDbEntity
  8
部品1
100
AcDbLine
 10
10219.51179134187
 20
9655.515418979492
 30
0.0
 11
11494.01179134187
 21
9655.515418979478
 31
0.0
  0
LINE
  5
16A43
330
747D
100
AcDbEntity
  8
部品1
100
AcDbLine
 10
11465.51179134185
 20
8788.515418979448
 30
0.0
 11
8948.511791341854
 21
8788.515418979354
 31
0.0
  0
LINE
  5
16A44
330
747D
100
AcDbEntity
  8
部品1
 48
50.0
100
AcDbLine
 10
8920.011791341861
 20
7921.515418979449
 30
0.0
 11
11494.01179134188
 21
7921.515418979456
 31
0.0
  0
LINE
  5
16A45
330
747D
100
AcDbEntity
  8
破線
 48
10.0
100
AcDbLine
 10
11442.01179134186
 20
9203.515418979478
 30
0.0
 11
11442.01179134187
 21
7973.515418979463
 31
0.0
  0
LINE
  5
16A46
330
747D
100
AcDbEntity
  8
破線
 48
10.0
100
AcDbLine
 10
8972.011791341843
 20
9203.515418979478
 30
0.0
 11
8972.011791341858
 21
7973.515418979346
 31
0.0
  0
LINE
  5
16A47
330
747D
100
AcDbEntity
  8
部品1
100
AcDbLine
 10
8920.011791341844
 20
7921.515418979426
 30
0.0
 11
8920.011791341861
 21
9208.515418979354
 31
0.0
  0
LINE
  5
16A48
330
747D
100
AcDbEntity
  8
部品1
100
AcDbLine
 10
8892.011791341833
 20
9683.515418979347
 30
0.0
 11
8892.011791341863
 21
7893.515418979339
 31
0.0
  0
LINE
  5
16A49
330
747D
100
AcDbEntity
  8
破線
 48
10.0
100
AcDbLine
 10
9766.511791341848
 20
7950.015418979376
 30
0.0
 11
9766.511791341844
 21
9203.515418979485
 31
0.0
  0
LINE
  5
16A4A
330
747D
100
AcDbEntity
  8
破線
 48
10.0
100
AcDbLine
 10
9816.511791341845
 20
7950.015418979383
 30
0.0
 11
9816.511791341845
 21
9203.515418979485
 31
0.0
  0
LINE
  5
16A4B
330
747D
100
AcDbEntity
  8
部品1
100
AcDbLine
 10
8948.511791341845
 20
9203.515418979426
 30
0.0
 11
8948.511791341857
 21
7950.015418979441
 31
0.0
  0
LINE
  5
16A4C
330
747D
100
AcDbEntity
  8
破線
 48
10.0
100
AcDbLine
 10
10647.51179134184
 20
7950.015418979383
 30
0.0
 11
10647.51179134184
 21
9203.515418979485
 31
0.0
  0
LINE
  5
16A4D
330
747D
100
AcDbEntity
  8
破線
 48
10.0
100
AcDbLine
 10
10597.51179134184
 20
7950.015418979376
 30
0.0
 11
10597.51179134184
 21
9203.515418979485
 31
0.0
  0
LINE
  5
16A4E
330
747D
100
AcDbEntity
  8
破線
 48
10.0
100
AcDbLine
 10
10597.51179134184
 20
7973.515418979383
 30
0.0
 11
9816.511791341845
 21
7973.515418979362
 31
0.0
  0
LINE
  5
16A4F
330
747D
100
AcDbEntity
  8
破線
 48
10.0
100
AcDbLine
 10
9766.511791341848
 20
7973.515418979332
 30
0.0
 11
8972.011791341854
 21
7973.515418979346
 31
0.0
  0
LINE
  5
16A50
330
747D
100
AcDbEntity
  8
部品1
100
AcDbLine
 10
9367.011791341836
 20
7893.515418979339
 30
0.0
 11
8892.011791341863
 21
7893.515418979339
 31
0.0
  0
LINE
  5
16A51
330
747D
100
AcDbEntity
  8
部品1
100
AcDbLine
 10
8892.011791341859
 20
7948.515418979304
 30
0.0
 11
8892.011791341863
 21
7893.515418979302
 31
0.0
  0
LINE
  5
16A52
330
747D
100
AcDbEntity
  8
部品1
100
AcDbLine
 10
8920.01179134186
 20
7948.515418979346
 30
0.0
 11
8892.011791341859
 21
7948.515418979346
 31
0.0
  0
LINE
  5
16A53
330
747D
100
AcDbEntity
  8
部品1
100
AcDbLine
 10
8920.011791341844
 20
7948.515418979332
 30
0.0
 11
8892.011791341859
 21
7948.515418979332
 31
0.0
  0
LINE
  5
16A54
330
747D
100
AcDbEntity
  8
部品1
100
AcDbLine
 10
8920.011791341844
 20
7948.515418979304
 30
0.0
 11
8892.011791341859
 21
7948.515418979304
 31
0.0
  0
LINE
  5
16A55
330
747D
100
AcDbEntity
  8
部品1
100
AcDbLine
 10
8947.011791341836
 20
7893.51541897947
 30
0.0
 11
8947.011791341836
 21
7921.51541897947
 31
0.0
  0
LINE
  5
16A56
330
747D
100
AcDbEntity
  8
部品1
 48
50.0
100
AcDbLine
 10
8948.511791341857
 20
7950.015418979441
 30
0.0
 11
8920.011791341858
 21
7921.515418979449
 31
0.0
  0
LINE
  5
16A57
330
747D
100
AcDbEntity
  8
部品1
100
AcDbLine
 10
9367.011791341836
 20
7893.51541897947
 30
0.0
 11
9367.011791341836
 21
7921.51541897947
 31
0.0
  0
LINE
  5
16A58
330
747D
100
AcDbEntity
  8
破線
 48
10.0
100
AcDbLine
 10
11442.01179134187
 20
7973.515418979463
 30
0.0
 11
10647.51179134184
 21
7973.515418979288
 31
0.0
  0
LINE
  5
16A59
330
747D
100
AcDbEntity
  8
細線
 48
50.0
100
AcDbLine
 10
10193.51179134186
 20
9203.515418979485
 30
0.0
 11
8920.511791341798
 21
9653.515418979427
 31
0.0
  0
LINE
  5
16A5A
330
747D
100
AcDbEntity
  8
細線
 48
50.0
100
AcDbLine
 10
10193.51179134187
 20
9653.515418979486
 30
0.0
 11
8920.5117913418
 21
9203.515418979426
 31
0.0
  0
LINE
  5
16A5B
330
747D
100
AcDbEntity
  8
部品1
100
AcDbLine
 10
8920.01179134187
 20
9655.515418979492
 30
0.0
 11
10194.51179134186
 21
9655.515418979499
 31
0.0
  0
LINE
  5
16A5C
330
747D
100
AcDbEntity
  8
部品1
100
AcDbLine
 10
8920.5117913418
 20
9653.515418979427
 30
0.0
 11
10193.51179134187
 21
9653.515418979486
 31
0.0
  0
LINE
  5
16A5D
330
747D
100
AcDbEntity
  8
部品1
100
AcDbLine
 10
8920.5117913418
 20
9203.515418979426
 30
0.0
 11
10193.51179134186
 21
9203.515418979485
 31
0.0
  0
LINE
  5
16A5E
330
747D
100
AcDbEntity
  8
部品1
 48
50.0
100
AcDbLine
 10
8920.5117913418
 20
9653.515418979486
 30
0.0
 11
8920.5117913418
 21
9203.515418979485
 31
0.0
  0
LINE
  5
16A5F
330
747D
100
AcDbEntity
  8
部品1
100
AcDbLine
 10
8920.011791341858
 20
9203.015418979353
 30
0.0
 11
8920.011791341869
 21
9655.515418979383
 31
0.0
  0
LINE
  5
16A60
330
747D
100
AcDbEntity
  8
部品1
100
AcDbLine
 10
8920.011791341844
 20
8788.515418979354
 30
0.0
 11
8892.011791341843
 21
8788.515418979354
 31
0.0
  0
LINE
  5
16A61
330
747D
100
AcDbEntity
  8
部品1
100
AcDbLine
 10
8920.011791341844
 20
9208.515418979354
 30
0.0
 11
8892.011791341843
 21
9208.515418979354
 31
0.0
  0
LINE
  5
16A62
330
747D
100
AcDbEntity
  8
部品1
100
AcDbLine
 10
8920.011791341837
 20
9628.515418979354
 30
0.0
 11
8892.011791341836
 21
9628.515418979354
 31
0.0
  0
LINE
  5
16A63
330
747D
100
AcDbEntity
  8
部品1
100
AcDbLine
 10
8947.01179134187
 20
9683.515418979382
 30
0.0
 11
8947.01179134187
 21
9655.515418979383
 31
0.0
  0
LINE
  5
16A64
330
747D
100
AcDbEntity
  8
部品1
100
AcDbLine
 10
8947.011791341832
 20
9683.515418979347
 30
0.0
 11
8947.011791341836
 21
9655.515418979348
 31
0.0
  0
LINE
  5
16A65
330
747D
100
AcDbEntity
  8
部品1
100
AcDbLine
 10
9367.011791341832
 20
9683.515418979347
 30
0.0
 11
9367.011791341836
 21
9655.515418979348
 31
0.0
  0
LINE
  5
16A66
330
747D
100
AcDbEntity
  8
部品1
100
AcDbLine
 10
9787.011791341832
 20
9683.515418979347
 30
0.0
 11
9787.011791341837
 21
9655.515418979348
 31
0.0
  0
LINE
  5
16A67
330
747D
100
AcDbEntity
  8
部品1
 48
50.0
100
AcDbLine
 10
10193.51179134187
 20
9653.515418979486
 30
0.0
 11
10193.51179134187
 21
9203.515418979485
 31
0.0
  0
LINE
  5
16A68
330
747D
100
AcDbEntity
  8
部品1
 48
50.0
100
AcDbLine
 10
10220.51179134187
 20
9653.515418979479
 30
0.0
 11
10220.51179134187
 21
9203.515418979485
 31
0.0
  0
LINE
  5
16A69
330
747D
100
AcDbEntity
  8
部品1
 48
50.0
100
AcDbLine
 10
10194.51179134186
 20
9655.515418979492
 30
0.0
 11
10194.51179134187
 21
9203.515418979485
 31
0.0
  0
LINE
  5
16A6A
330
747D
100
AcDbEntity
  8
部品1
 48
50.0
100
AcDbLine
 10
10219.51179134187
 20
9655.515418979485
 30
0.0
 11
10219.51179134187
 21
9203.515418979485
 31
0.0
  0
LINE
  5
16A6B
330
747D
100
AcDbEntity
  8
部品1
100
AcDbLine
 10
10194.51179134187
 20
9203.515418979485
 30
0.0
 11
10219.51179134187
 21
9203.515418979485
 31
0.0
  0
LINE
  5
16A6C
330
747D
100
AcDbEntity
  8
部品1
100
AcDbLine
 10
10194.51179134187
 20
9647.515418979478
 30
0.0
 11
10219.51179134187
 21
9647.515418979486
 31
0.0
  0
LINE
  5
16A6D
330
747D
100
AcDbEntity
  8
部品1
100
AcDbLine
 10
10172.01179134187
 20
9673.515418979485
 30
0.0
 11
10172.01179134187
 21
9655.515418979485
 31
0.0
  0
LINE
  5
16A6E
330
747D
100
AcDbEntity
  8
部品1
100
AcDbLine
 10
10172.01179134187
 20
9673.515418979485
 30
0.0
 11
10178.01179134187
 21
9673.515418979485
 31
0.0
  0
LINE
  5
16A6F
330
747D
100
AcDbEntity
  8
部品1
100
AcDbLine
 10
10242.01179134187
 20
9673.515418979485
 30
0.0
 11
10242.01179134187
 21
9655.515418979485
 31
0.0
  0
LINE
  5
16A70
330
747D
100
AcDbEntity
  8
部品1
100
AcDbLine
 10
10236.01179134187
 20
9673.515418979485
 30
0.0
 11
10242.01179134187
 21
9673.515418979485
 31
0.0
  0
LINE
  5
16A71
330
747D
100
AcDbEntity
  8
部品1
100
AcDbLine
 10
10207.01179134183
 20
9683.515418979347
 30
0.0
 11
10207.01179134183
 21
9655.515418979348
 31
0.0
  0
LINE
  5
16A72
330
747D
100
AcDbEntity
  8
部品1
100
AcDbLine
 10
10627.01179134183
 20
9683.515418979347
 30
0.0
 11
10627.01179134183
 21
9655.515418979348
 31
0.0
  0
LINE
  5
16A73
330
747D
100
AcDbEntity
  8
部品1
100
AcDbLine
 10
11047.01179134183
 20
9683.515418979347
 30
0.0
 11
11047.01179134183
 21
9655.515418979348
 31
0.0
  0
DIMENSION
  5
16A74
330
747D
100
AcDbEntity
  8
寸法
100
AcDbDimension
  2
*D7
 10
12522.01179134187
 20
7893.515418979465
 30
0.0
 11
12522.01179134187
 21
8788.51541897947
 31
0.0
 70
   160
 71
     5
 42
1790.00000000001
  3
INABA_S40G
100
AcDbAlignedDimension
 13
11522.01179134187
 23
9683.515418979476
 33
0.0
 14
11522.01179134184
 24
7893.515418979465
 34
0.0
 50
90.0
100
AcDbRotatedDimension
1001
ACAD
1000
DSTYLE
1002
{
1002
}
  0
DIMENSION
  5
16A75
330
747D
100
AcDbEntity
  8
寸法
100
AcDbDimension
  2
*D8
 10
12222.01179134186
 20
7948.515418979461
 30
0.0
 11
12222.01179134186
 21
8788.51541897947
 31
0.0
 70
   160
  1
4X420=<>
 71
     5
 42
1680.000000000017
  3
INABA_S40G
100
AcDbAlignedDimension
 13
11522.01179134187
 23
9628.51541897948
 33
0.0
 14
11522.01179134184
 24
7948.515418979461
 34
0.0
 50
90.0
100
AcDbRotatedDimension
1001
ACAD
1000
DSTYLE
1002
{
1002
}
  0
LINE
  5
16A76
330
747D
100
AcDbEntity
  8
部品1
100
AcDbLine
 10
11522.01179134187
 20
9683.515418979478
 30
0.0
 11
11522.01179134184
 21
7893.515418979463
 31
0.0
  0
LINE
  5
16A77
330
747D
100
AcDbEntity
  8
部品1
100
AcDbLine
 10
11465.51179134186
 20
9203.515418979478
 30
0.0
 11
11465.51179134187
 21
7950.015418979463
 31
0.0
  0
LINE
  5
16A78
330
747D
100
AcDbEntity
  8
部品1
100
AcDbLine
 10
11494.01179134186
 20
9208.515418979478
 30
0.0
 11
11494.01179134184
 21
7921.51541897947
 31
0.0
  0
DIMENSION
  5
16A79
330
747D
100
AcDbEntity
  8
寸法
100
AcDbDimension
  2
*D9
 10
12222.01179134184
 20
7893.515418979465
 30
0.0
 11
12222.01179134184
 21
7585.030137605214
 31
0.0
 70
   160
 71
     5
 42
54.99999999999636
  3
INABA_S40G
100
AcDbAlignedDimension
 13
11522.01179134184
 23
7948.515418979461
 33
0.0
 14
11522.01179134184
 24
7893.515418979465
 34
0.0
 50
90.0
100
AcDbRotatedDimension
1001
ACAD
1000
DSTYLE
1002
{
1002
}
  0
LINE
  5
16A7A
330
747D
100
AcDbEntity
  8
部品1
100
AcDbLine
 10
11522.01179134184
 20
7893.515418979463
 30
0.0
 11
11467.01179134187
 21
7893.515418979456
 31
0.0
  0
LINE
  5
16A7B
330
747D
100
AcDbEntity
  8
部品1
100
AcDbLine
 10
11494.01179134184
 20
7948.515418979463
 30
0.0
 11
11522.01179134184
 21
7948.515418979463
 31
0.0
  0
LINE
  5
16A7C
330
747D
100
AcDbEntity
  8
部品1
100
AcDbLine
 10
11522.01179134184
 20
7893.515418979463
 30
0.0
 11
11471.01179134184
 21
7893.515418979463
 31
0.0
  0
LINE
  5
16A7D
330
747D
100
AcDbEntity
  8
部品1
 48
50.0
100
AcDbLine
 10
11465.51179134187
 20
7950.015418979463
 30
0.0
 11
11494.01179134187
 21
7921.51541897947
 31
0.0
  0
LINE
  5
16A7E
330
747D
100
AcDbEntity
  8
部品1
100
AcDbLine
 10
11522.01179134185
 20
7948.515418979463
 30
0.0
 11
11522.01179134184
 21
7893.515418979463
 31
0.0
  0
LINE
  5
16A7F
330
747D
100
AcDbEntity
  8
部品1
100
AcDbLine
 10
11494.01179134187
 20
7948.515418979463
 30
0.0
 11
11522.01179134187
 21
7948.515418979463
 31
0.0
  0
LINE
  5
16A80
330
747D
100
AcDbEntity
  8
部品1
 48
50.0
100
AcDbLine
 10
11467.01179134187
 20
7893.515418979456
 30
0.0
 11
11467.01179134187
 21
7921.515418979456
 31
0.0
  0
LINE
  5
16A82
330
747D
100
AcDbEntity
  8
部品1
100
AcDbLine
 10
11494.01179134187
 20
9655.515418979478
 30
0.0
 11
11494.01179134186
 21
9203.015418979353
 31
0.0
  0
LINE
  5
16A83
330
747D
100
AcDbEntity
  8
部品1
100
AcDbLine
 10
11493.51179134187
 20
9653.515418979479
 30
0.0
 11
11493.51179134187
 21
9203.515418979478
 31
0.0
  0
DIMENSION
  5
16A84
330
747D
100
AcDbEntity
  8
寸法
100
AcDbDimension
  2
*D10
 10
11922.01179134186
 20
9088.699190022744
 30
0.0
 11
11922.01179134186
 21
9313.699190022743
 31
0.0
 70
   160
 71
     5
 42
449.9999999999963
  3
INABA_S40G
100
AcDbAlignedDimension
 13
11493.51179134187
 23
9653.515418979475
 33
0.0
 14
11493.51179134187
 24
9203.515418979479
 34
0.0
 50
90.0
100
AcDbRotatedDimension
1001
ACAD
1000
DSTYLE
1002
{
1002
}
  0
DIMENSION
  5
16A85
330
747D
100
AcDbEntity
  8
寸法
100
AcDbDimension
  2
*D11
 10
12222.01179134186
 20
9628.51541897948
 30
0.0
 11
12222.01179134186
 21
9992.000700353717
 31
0.0
 70
   160
 71
     5
 42
54.99999999999636
  3
INABA_S40G
100
AcDbAlignedDimension
 13
11522.01179134187
 23
9683.515418979476
 33
0.0
 14
11522.01179134187
 24
9628.51541897948
 34
0.0
 50
90.0
100
AcDbRotatedDimension
1001
ACAD
1000
DSTYLE
1002
{
1002
}
  0
LINE
  5
16A86
330
747D
100
AcDbEntity
  8
部品1
100
AcDbLine
 10
11494.01179134187
 20
8788.515418979477
 30
0.0
 11
11522.01179134187
 21
8788.515418979477
 31
0.0
  0
LINE
  5
16A87
330
747D
100
AcDbEntity
  8
部品1
100
AcDbLine
 10
11494.01179134187
 20
9208.515418979478
 30
0.0
 11
11522.01179134187
 21
9208.515418979478
 31
0.0
  0
LINE
  5
16A88
330
747D
100
AcDbEntity
  8
部品1
100
AcDbLine
 10
11494.01179134187
 20
9628.515418979478
 30
0.0
 11
11522.01179134187
 21
9628.515418979478
 31
0.0
  0
LINE
  5
16A89
330
747D
100
AcDbEntity
  8
部品1
100
AcDbLine
 10
11467.01179134187
 20
9683.515418979499
 30
0.0
 11
11467.01179134187
 21
9655.515418979499
 31
0.0
  0
LINE
  5
16A8A
330
747D
100
AcDbEntity
  8
部品1
100
AcDbLine
 10
11467.01179134187
 20
9683.515418979478
 30
0.0
 11
11467.01179134187
 21
9655.515418979478
 31
0.0
  0
TEXT
  5
16A8B
330
747D
100
AcDbEntity
  8
文字
 62
     7
 48
50.0
100
AcDbText
 10
13583.11819016569
 20
8550.013745883733
 30
0.0
 40
100.0
  1
棚板
  7
STYLE1
100
AcDbText
  0
TEXT
  5
16A8C
330
747D
100
AcDbEntity
  8
文字
 62
     7
 48
50.0
100
AcDbText
 10
15022.63965474516
 20
8550.013745883729
 30
0.0
 40
100.0
  1
F12            0.6
  7
STYLE1
100
AcDbText
  0
TEXT
  5
16A8D
330
747D
100
AcDbEntity
  8
文字
 62
     7
 48
50.0
100
AcDbText
 10
13583.11819016569
 20
9740.013745883729
 30
0.0
 40
100.0
  1
母屋中
  7
STYLE1
100
AcDbText
  0
TEXT
  5
16A8E
330
747D
100
AcDbEntity
  8
文字
 62
     7
 48
50.0
100
AcDbText
 10
13248.77747366447
 20
8720.013745883729
 30
0.0
 40
100.0
  1
15
  7
STYLE1
100
AcDbText
  0
LINE
  5
16A8F
330
747D
100
AcDbEntity
  8
仕様書枠
 48
50.0
100
AcDbLine
 10
16307.19999999999
 20
8009.600000000007
 30
0.0
 11
13127.19999999999
 21
8009.600000000007
 31
0.0
  0
TEXT
  5
16A90
330
747D
100
AcDbEntity
  8
文字
 62
     7
 48
50.0
100
AcDbText
 10
13583.11819016569
 20
8720.013745883733
 30
0.0
 40
100.0
  1
扉
  7
STYLE1
100
AcDbText
  0
TEXT
  5
16A91
330
747D
100
AcDbEntity
  8
文字
 62
     7
 48
50.0
100
AcDbText
 10
15022.63965474516
 20
8720.013745883729
 30
0.0
 40
100.0
  1
F12            0.8
  7
STYLE1
100
AcDbText
  0
TEXT
  5
16A92
330
747D
100
AcDbEntity
  8
文字
 62
     7
 48
50.0
100
AcDbText
 10
13583.11819016568
 20
8890.013745883733
 30
0.0
 40
100.0
  1
正面パネル
  7
STYLE1
100
AcDbText
  0
TEXT
  5
16A93
330
747D
100
AcDbEntity
  8
文字
 62
     7
 48
50.0
100
AcDbText
 10
15022.63965474515
 20
8890.013745883729
 30
0.0
 40
100.0
  1
F12            0.7
  7
STYLE1
100
AcDbText
  0
TEXT
  5
16A94
330
747D
100
AcDbEntity
  8
文字
 62
     7
 48
50.0
100
AcDbText
 10
15022.63965474517
 20
10590.01374588373
 30
0.0
 40
100.0
  1
F12            1.0
  7
STYLE1
100
AcDbText
  0
TEXT
  5
16A95
330
747D
100
AcDbEntity
  8
文字
 62
     7
 48
50.0
100
AcDbText
 10
15022.63965474516
 20
10930.01374588373
 30
0.0
 40
100.0
  1
F12            1.2
  7
STYLE1
100
AcDbText
  0
TEXT
  5
16A96
330
747D
100
AcDbEntity
  8
文字
 62
     7
 48
50.0
100
AcDbText
 10
13248.77747366448
 20
8890.013745883729
 30
0.0
 40
100.0
  1
14
  7
STYLE1
100
AcDbText
  0
TEXT
  5
16A97
330
747D
100
AcDbEntity
  8
文字
 62
     7
 48
50.0
100
AcDbText
 10
13583.11819016569
 20
10930.01374588373
 30
0.0
 40
100.0
  1
根太
  7
STYLE1
100
AcDbText
  0
TEXT
  5
16A98
330
747D
100
AcDbEntity
  8
文字
 62
     7
 48
50.0
100
AcDbText
 10
13583.1181901657
 20
10590.01374588373
 30
0.0
 40
100.0
  1
床パネル
 41
0.9
  7
STYLE1
100
AcDbText
  0
LINE
  5
16A99
330
747D
100
AcDbEntity
  8
仕様書枠
 48
50.0
100
AcDbLine
 10
16307.19999999999
 20
9029.6
 30
0.0
 11
13127.2
 21
9029.600000000003
 31
0.0
  0
LINE
  5
16A9A
330
747D
100
AcDbEntity
  8
仕様書枠
 48
50.0
100
AcDbLine
 10
13127.2
 20
11409.6
 30
0.0
 11
13127.19999999999
 21
8009.600000000007
 31
0.0
  0
TEXT
  5
16A9B
330
747D
100
AcDbEntity
  8
文字
 62
     7
 48
50.0
100
AcDbText
 10
13229.83081656554
 20
8040.013745883737
 30
0.0
 40
100.0
  1
Y10→溶融亜鉛-5％アルミニウム合金めっき鋼板(JIS G 3317)
 41
0.9
  7
STYLE1
100
AcDbText
  0
TEXT
  5
16A9C
330
747D
100
AcDbEntity
  8
文字
 62
     7
 48
50.0
100
AcDbText
 10
13229.83081656554
 20
8210.013745883737
 30
0.0
 40
100.0
  1
F12→溶融亜鉛めっき鋼板(JIS G 3302)
  7
STYLE1
100
AcDbText
  0
LINE
  5
16A9D
330
747D
100
AcDbEntity
  8
仕様書枠
 48
50.0
100
AcDbLine
 10
16307.19999999999
 20
8179.600000000007
 30
0.0
 11
13127.19999999999
 21
8179.600000000007
 31
0.0
  0
LINE
  5
16A9E
330
747D
100
AcDbEntity
  8
仕様書枠
 48
50.0
100
AcDbLine
 10
16307.19999999999
 20
8349.600000000007
 30
0.0
 11
13127.19999999999
 21
8349.600000000007
 31
0.0
  0
TEXT
  5
16A9F
330
747D
100
AcDbEntity
  8
文字
 62
     7
 48
50.0
100
AcDbText
 10
15022.63965474515
 20
9570.013745883729
 30
0.0
 40
100.0
  1
F12            0.7
  7
STYLE1
100
AcDbText
  0
TEXT
  5
16AA0
330
747D
100
AcDbEntity
  8
文字
 62
     7
 48
50.0
100
AcDbText
 10
15022.63965474517
 20
9910.01374588373
 30
0.0
 40
100.0
  1
Y10            0.5
  7
STYLE1
100
AcDbText
  0
TEXT
  5
16AA1
330
747D
100
AcDbEntity
  8
文字
 62
     7
 48
50.0
100
AcDbText
 10
15022.63965474516
 20
10080.01374588373
 30
0.0
 40
100.0
  1
Y10            0.7
  7
STYLE1
100
AcDbText
  0
TEXT
  5
16AA2
330
747D
100
AcDbEntity
  8
文字
 62
     7
 48
50.0
100
AcDbText
 10
15022.63965474516
 20
10250.01374588373
 30
0.0
 40
100.0
  1
Y10            0.7
  7
STYLE1
100
AcDbText
  0
TEXT
  5
16AA3
330
747D
100
AcDbEntity
  8
文字
 62
     7
 48
50.0
100
AcDbText
 10
15022.63965474516
 20
10420.01374588373
 30
0.0
 40
100.0
  1
Y10            1.0
  7
STYLE1
100
AcDbText
  0
TEXT
  5
16AA4
330
747D
100
AcDbEntity
  8
文字
 62
     7
 48
50.0
100
AcDbText
 10
15022.63965474518
 20
10760.01374588373
 30
0.0
 40
100.0
  1
F12            1.0
  7
STYLE1
100
AcDbText
  0
TEXT
  5
16AA5
330
747D
100
AcDbEntity
  8
文字
 62
     7
 48
50.0
100
AcDbText
 10
15022.63965474517
 20
11100.01374588373
 30
0.0
 40
100.0
  1
F12            1.2
  7
STYLE1
100
AcDbText
  0
TEXT
  5
16AA6
330
747D
100
AcDbEntity
  8
文字
 62
     7
 48
50.0
100
AcDbText
 10
13248.77747366448
 20
9230.013745883729
 30
0.0
 40
100.0
  1
12
  7
STYLE1
100
AcDbText
  0
TEXT
  5
16AA7
330
747D
100
AcDbEntity
  8
文字
 62
     7
 48
50.0
100
AcDbText
 10
13248.77747366448
 20
9060.013745883729
 30
0.0
 40
100.0
  1
13
  7
STYLE1
100
AcDbText
  0
LINE
  5
16AA8
330
747D
100
AcDbEntity
  8
仕様書枠
 48
50.0
100
AcDbLine
 10
16307.19999999999
 20
8859.6
 30
0.0
 11
13127.2
 21
8859.600000000005
 31
0.0
  0
LINE
  5
16AA9
330
747D
100
AcDbEntity
  8
仕様書枠
 48
50.0
100
AcDbLine
 10
16307.19999999999
 20
9199.600000000001
 30
0.0
 11
13127.2
 21
9199.600000000001
 31
0.0
  0
TEXT
  5
16AAA
330
747D
100
AcDbEntity
  8
文字
 62
     7
 48
50.0
100
AcDbText
 10
13248.77747366447
 20
9400.013745883729
 30
0.0
 40
100.0
  1
11
  7
STYLE1
100
AcDbText
  0
LINE
  5
16AAB
330
747D
100
AcDbEntity
  8
仕様書枠
 48
50.0
100
AcDbLine
 10
16307.2
 20
9879.600000000001
 30
0.0
 11
13127.2
 21
9879.600000000001
 31
0.0
  0
LINE
  5
16AAC
330
747D
100
AcDbEntity
  8
仕様書枠
 48
50.0
100
AcDbLine
 10
16307.2
 20
10219.6
 30
0.0
 11
13127.2
 21
10219.6
 31
0.0
  0
LINE
  5
16AAD
330
747D
100
AcDbEntity
  8
仕様書枠
 48
50.0
100
AcDbLine
 10
16307.19999999999
 20
9539.6
 30
0.0
 11
13127.2
 21
9539.6
 31
0.0
  0
LINE
  5
16AAE
330
747D
100
AcDbEntity
  8
仕様書枠
 48
50.0
100
AcDbLine
 10
16307.19999999999
 20
9369.600000000001
 30
0.0
 11
13127.2
 21
9369.600000000001
 31
0.0
  0
LINE
  5
16AAF
330
747D
100
AcDbEntity
  8
仕様書枠
 48
50.0
100
AcDbLine
 10
16307.19999999999
 20
9709.600000000001
 30
0.0
 11
13127.2
 21
9709.600000000001
 31
0.0
  0
TEXT
  5
16AB0
330
747D
100
AcDbEntity
  8
文字
 62
     7
 48
50.0
100
AcDbText
 10
13271.19032244792
 20
10250.01374588373
 30
0.0
 40
100.0
  1
6
  7
STYLE1
100
AcDbText
  0
TEXT
  5
16AB1
330
747D
100
AcDbEntity
  8
文字
 62
     7
 48
50.0
100
AcDbText
 10
13271.19032244792
 20
10080.01374588373
 30
0.0
 40
100.0
  1
7
  7
STYLE1
100
AcDbText
  0
TEXT
  5
16AB2
330
747D
100
AcDbEntity
  8
文字
 62
     7
 48
50.0
100
AcDbText
 10
13271.19032244792
 20
9740.013745883729
 30
0.0
 40
100.0
  1
9
  7
STYLE1
100
AcDbText
  0
TEXT
  5
16AB3
330
747D
100
AcDbEntity
  8
文字
 62
     7
 48
50.0
100
AcDbText
 10
13271.19032244792
 20
9910.01374588373
 30
0.0
 40
100.0
  1
8
  7
STYLE1
100
AcDbText
  0
TEXT
  5
16AB4
330
747D
100
AcDbEntity
  8
文字
 62
     7
 48
50.0
100
AcDbText
 10
13583.11819016569
 20
10080.01374588373
 30
0.0
 40
100.0
  1
鼻隠シ前後
  7
STYLE1
100
AcDbText
  0
TEXT
  5
16AB5
330
747D
100
AcDbEntity
  8
文字
 62
     7
 48
50.0
100
AcDbText
 10
13583.11819016569
 20
9910.01374588373
 30
0.0
 40
100.0
  1
屋根パネル
  7
STYLE1
100
AcDbText
  0
TEXT
  5
16AB6
330
747D
100
AcDbEntity
  8
文字
 62
     7
 48
50.0
100
AcDbText
 10
13583.11819016568
 20
9570.013745883729
 30
0.0
 40
100.0
  1
壁パネル
  7
STYLE1
100
AcDbText
  0
TEXT
  5
16AB7
330
747D
100
AcDbEntity
  8
文字
 62
     7
 48
50.0
100
AcDbText
 10
13248.77747366447
 20
9570.013745883729
 30
0.0
 40
100.0
  1
10
  7
STYLE1
100
AcDbText
  0
TEXT
  5
16AB8
330
747D
100
AcDbEntity
  8
文字
 62
     7
 48
50.0
100
AcDbText
 10
13583.11819016569
 20
10250.01374588373
 30
0.0
 40
100.0
  1
妻板左右
  7
STYLE1
100
AcDbText
  0
TEXT
  5
16AB9
330
747D
100
AcDbEntity
  8
文字
 62
     7
 48
50.0
100
AcDbText
 10
13271.19032244792
 20
10420.01374588373
 30
0.0
 40
100.0
  1
5
  7
STYLE1
100
AcDbText
  0
TEXT
  5
16ABA
330
747D
100
AcDbEntity
  8
文字
 62
     7
 48
50.0
100
AcDbText
 10
13583.11819016569
 20
10420.01374588373
 30
0.0
 40
100.0
  1
桁前後
  7
STYLE1
100
AcDbText
  0
TEXT
  5
16ABB
330
747D
100
AcDbEntity
  8
文字
 62
     7
 48
50.0
100
AcDbText
 10
13583.1181901657
 20
10760.01374588373
 30
0.0
 40
100.0
  1
柱
  7
STYLE1
100
AcDbText
  0
TEXT
  5
16ABC
330
747D
100
AcDbEntity
  8
文字
 62
     7
 48
50.0
100
AcDbText
 10
13583.11819016569
 20
11100.01374588373
 30
0.0
 40
100.0
  1
土台枠
  7
STYLE1
100
AcDbText
  0
TEXT
  5
16ABD
330
747D
100
AcDbEntity
  8
文字
 62
     7
 48
50.0
100
AcDbText
 10
14859.79774614482
 20
11270.01374588373
 30
0.0
 40
100.0
  1
材料（材質）　　単位mm
  7
STYLE1
100
AcDbText
  0
TEXT
  5
16ABE
330
747D
100
AcDbEntity
  8
文字
 62
     7
 48
50.0
100
AcDbText
 10
13732.03840939434
 20
11270.01374588373
 30
0.0
 40
100.0
  1
部　　品　　名
  7
STYLE1
100
AcDbText
  0
TEXT
  5
16ABF
330
747D
100
AcDbEntity
  8
文字
 62
     7
 48
50.0
100
AcDbText
 10
13271.19032244792
 20
10760.01374588373
 30
0.0
 40
100.0
  1
3
  7
STYLE1
100
AcDbText
  0
TEXT
  5
16AC0
330
747D
100
AcDbEntity
  8
文字
 62
     7
 48
50.0
100
AcDbText
 10
13271.19032244792
 20
10590.01374588373
 30
0.0
 40
100.0
  1
4
  7
STYLE1
100
AcDbText
  0
TEXT
  5
16AC1
330
747D
100
AcDbEntity
  8
文字
 62
     7
 48
50.0
100
AcDbText
 10
13271.19032244792
 20
10930.01374588373
 30
0.0
 40
100.0
  1
2
  7
STYLE1
100
AcDbText
  0
TEXT
  5
16AC2
330
747D
100
AcDbEntity
  8
文字
 62
     7
 48
50.0
100
AcDbText
 10
13271.19032244792
 20
11100.01374588373
 30
0.0
 40
100.0
  1
1
  7
STYLE1
100
AcDbText
  0
TEXT
  5
16AC3
330
747D
100
AcDbEntity
  8
文字
 62
     7
 48
50.0
100
AcDbText
 10
13197.42518560407
 20
11270.01374588373
 30
0.0
 40
100.0
  1
品番
  7
STYLE1
100
AcDbText
  0
LINE
  5
16AC4
330
747D
100
AcDbEntity
  8
仕様書枠
 48
50.0
100
AcDbLine
 10
16307.19999999999
 20
10729.6
 30
0.0
 11
13127.2
 21
10729.6
 31
0.0
  0
LINE
  5
16AC5
330
747D
100
AcDbEntity
  8
仕様書枠
 48
50.0
100
AcDbLine
 10
16307.19999999999
 20
10389.6
 30
0.0
 11
13127.2
 21
10389.6
 31
0.0
  0
LINE
  5
16AC6
330
747D
100
AcDbEntity
  8
仕様書枠
 48
50.0
100
AcDbLine
 10
16307.19999999999
 20
10559.6
 30
0.0
 11
13127.2
 21
10559.6
 31
0.0
  0
LINE
  5
16AC7
330
747D
100
AcDbEntity
  8
仕様書枠
 48
50.0
100
AcDbLine
 10
16307.2
 20
11069.6
 30
0.0
 11
13127.2
 21
11069.6
 31
0.0
  0
LINE
  5
16AC8
330
747D
100
AcDbEntity
  8
仕様書枠
 48
50.0
100
AcDbLine
 10
16307.2
 20
10899.6
 30
0.0
 11
13127.2
 21
10899.6
 31
0.0
  0
LINE
  5
16AC9
330
747D
100
AcDbEntity
  8
仕様書枠
 48
50.0
100
AcDbLine
 10
16307.2
 20
11239.6
 30
0.0
 11
13127.2
 21
11239.6
 31
0.0
  0
LINE
  5
16ACA
330
747D
100
AcDbEntity
  8
仕様書枠
 48
50.0
100
AcDbLine
 10
13490.2
 20
11409.6
 30
0.0
 11
13490.20000000001
 21
8349.600000000007
 31
0.0
  0
LINE
  5
16ACB
330
747D
100
AcDbEntity
  8
仕様書枠
 48
50.0
100
AcDbLine
 10
14785.2
 20
11409.6
 30
0.0
 11
14785.2
 21
8349.600000000007
 31
0.0
  0
LINE
  5
16ACC
330
747D
100
AcDbEntity
  8
仕様書枠
 48
50.0
100
AcDbLine
 10
16307.19999999999
 20
8009.600000000007
 30
0.0
 11
16307.2
 21
11409.6
 31
0.0
  0
LINE
  5
16ACD
330
747D
100
AcDbEntity
  8
仕様書枠
 48
50.0
100
AcDbLine
 10
16307.2
 20
11409.6
 30
0.0
 11
13127.2
 21
11409.6
 31
0.0
  0
LINE
  5
16ACE
330
747D
100
AcDbEntity
  8
仕様書枠
 48
50.0
100
AcDbLine
 10
16307.2
 20
10049.6
 30
0.0
 11
13127.2
 21
10049.6
 31
0.0
  0
TEXT
  5
16ACF
330
747D
100
AcDbEntity
  8
文字
 62
     7
 48
50.0
100
AcDbText
 10
15022.63965474515
 20
8380.013745883726
 30
0.0
 40
100.0
  1
F12            2.3
  7
STYLE1
100
AcDbText
  0
TEXT
  5
16AD0
330
747D
100
AcDbEntity
  8
文字
 62
     7
 48
50.0
100
AcDbText
 10
13583.11819016569
 20
8380.013745883728
 30
0.0
 40
100.0
  1
アンカープレート
  7
STYLE1
100
AcDbText
  0
LINE
  5
16AD1
330
747D
100
AcDbEntity
  8
仕様書枠
 48
50.0
100
AcDbLine
 10
16307.19999999999
 20
8519.600000000009
 30
0.0
 11
13127.2
 21
8519.600000000009
 31
0.0
  0
LINE
  5
16AD2
330
747D
100
AcDbEntity
  8
仕様書枠
 48
50.0
100
AcDbLine
 10
16307.19999999999
 20
8689.600000000007
 30
0.0
 11
13127.2
 21
8689.600000000007
 31
0.0
  0
TEXT
  5
16AD3
330
747D
100
AcDbEntity
  8
文字
 62
     7
 48
50.0
100
AcDbText
 10
13583.11819016569
 20
9400.013745883729
 30
0.0
 40
100.0
  1
壁面扉鴨居
  7
STYLE1
100
AcDbText
  0
TEXT
  5
16AD4
330
747D
100
AcDbEntity
  8
文字
 62
     7
 48
50.0
100
AcDbText
 10
13583.11819016569
 20
9230.013745883736
 30
0.0
 40
100.0
  1
壁面扉敷居
  7
STYLE1
100
AcDbText
  0
TEXT
  5
16AD5
330
747D
100
AcDbEntity
  8
文字
 62
     7
 48
50.0
100
AcDbText
 10
15022.63965474515
 20
9400.013745883729
 30
0.0
 40
100.0
  1
F12            0.7
  7
STYLE1
100
AcDbText
  0
TEXT
  5
16AD6
330
747D
100
AcDbEntity
  8
文字
 62
     7
 48
50.0
100
AcDbText
 10
15022.63965474517
 20
9230.013745883729
 30
0.0
 40
100.0
  1
F12            1.0
  7
STYLE1
100
AcDbText
  0
TEXT
  5
16AD7
330
747D
100
AcDbEntity
  8
文字
 62
     7
 48
50.0
100
AcDbText
 10
13583.11819016569
 20
9060.013745883736
 30
0.0
 40
100.0
  1
壁面扉枠左右
  7
STYLE1
100
AcDbText
  0
TEXT
  5
16AD8
330
747D
100
AcDbEntity
  8
文字
 62
     7
 48
50.0
100
AcDbText
 10
15022.63965474517
 20
9060.013745883729
 30
0.0
 40
100.0
  1
F12            1.0
  7
STYLE1
100
AcDbText
  0
TEXT
  5
16AD9
330
747D
100
AcDbEntity
  8
文字
 62
     7
 48
50.0
100
AcDbText
 10
13248.77747366447
 20
8550.013745883729
 30
0.0
 40
100.0
  1
16
  7
STYLE1
100
AcDbText
  0
TEXT
  5
16ADA
330
747D
100
AcDbEntity
  8
文字
 62
     7
 48
50.0
100
AcDbText
 10
13248.77747366447
 20
8380.013745883728
 30
0.0
 40
100.0
  1
17
  7
STYLE1
100
AcDbText
  0
TEXT
  5
16ADB
330
747D
100
AcDbEntity
  8
文字
 62
     7
 48
50.0
100
AcDbText
 10
14798.72402257234
 20
9740.013745883729
 30
0.0
 40
100.0
  1
F12(一般型1.2/多雪地型2.3)
  7
STYLE1
100
AcDbText
  0
TEXT
  5
16ADC
330
747D
100
AcDbEntity
  8
文字
 62
     7
 48
50.0
100
AcDbText
 10
14491.96323844892
 20
483.8967129911416
 30
0.0
 40
160.0
  1
ＮＸＮ－５０ＨＡ
  7
STYLE2
100
AcDbText
  0
TEXT
  5
16ADD
330
747D
100
AcDbEntity
  8
文字
 62
     7
 48
50.0
100
AcDbText
 10
13209.4053442172
 20
243.7062907158852
 30
0.0
 40
100.0
  1
○有効開口寸法 ： 1266×2025(mm)
  7
STYLE2
100
AcDbText
  0
MTEXT
  5
16ADE
330
747D
100
AcDbEntity
  8
寸法
 62
     7
 48
50.0
100
AcDbMText
 10
9572.114328434974
 20
9269.750237176761
 30
0.0
 40
96.0
 41
0.0
 71
     5
 72
     1
  1
棚 3段
  7
STYLE1
 73
     1
 44
1.0
1001
ACAD
1000
MTEXTBEGIN
1070
    73
1070
     1
1070
    44
1040
1.0
1070
    74
1070
     0
1000
MTEXTEND
  0
MTEXT
  5
16ADF
330
747D
100
AcDbEntity
  8
寸法
 62
     7
 48
50.0
100
AcDbMText
 10
10872.114328435
 20
9269.750237176786
 30
0.0
 40
96.0
 41
0.0
 71
     5
 72
     1
  1
棚 3段
  7
STYLE1
 73
     1
 44
1.0
1001
ACAD
1000
MTEXTBEGIN
1070
    73
1070
     1
1070
    44
1040
1.0
1070
    74
1070
     0
1000
MTEXTEND
  0
LINE
  5
16AFD
330
747D
100
AcDbEntity
  8
部品1
 48
50.0
100
AcDbLine
 10
11494.01179134186
 20
4715.956185787583
 30
0.0
 11
9340.01179134186
 21
4715.956185787583
 31
0.0
  0
LINE
  5
16AFE
330
747D
100
AcDbEntity
  8
細線
 48
50.0
100
AcDbLine
 10
11494.01179134186
 20
4705.956185787584
 30
0.0
 11
9340.01179134186
 21
4705.956185787584
 31
0.0
  0
LINE
  5
16AFF
330
747D
100
AcDbEntity
  8
細線
 48
50.0
100
AcDbLine
 10
11464.01179134186
 20
4663.956185787583
 30
0.0
 11
9370.011791341859
 21
4663.956185787583
 31
0.0
  0
LINE
  5
16B00
330
747D
100
AcDbEntity
  8
細線
 48
50.0
100
AcDbLine
 10
11464.01179134186
 20
4673.456185787583
 30
0.0
 11
9370.011791341859
 21
4673.456185787583
 31
0.0
  0
LINE
  5
16B01
330
747D
100
AcDbEntity
  8
部品1
 48
50.0
100
AcDbLine
 10
9340.01179134186
 20
2580.956185787584
 30
0.0
 11
11494.01179134186
 21
2580.956185787584
 31
0.0
  0
LINE
  5
16B02
330
747D
100
AcDbEntity
  8
細線
 48
50.0
100
AcDbLine
 10
9370.011791341859
 20
2623.956185787584
 30
0.0
 11
11464.01179134186
 21
2623.956185787584
 31
0.0
  0
LINE
  5
16B03
330
747D
100
AcDbEntity
  8
細線
 48
50.0
100
AcDbLine
 10
9370.011791341859
 20
2627.956185787584
 30
0.0
 11
11464.01179134186
 21
2627.956185787584
 31
0.0
  0
LINE
  5
16B04
330
747D
100
AcDbEntity
  8
細線
 48
50.0
100
AcDbLine
 10
10174.01179134186
 20
2638.456185787584
 30
0.0
 11
11438.01179134186
 21
2638.456185787584
 31
0.0
  0
LINE
  5
16B05
330
747D
100
AcDbEntity
  8
部品1
 48
50.0
100
AcDbLine
 10
9370.011791341859
 20
2630.956185787584
 30
0.0
 11
9370.011791341859
 21
4663.956185787583
 31
0.0
  0
LINE
  5
16B06
330
747D
100
AcDbEntity
  8
細線
 48
50.0
100
AcDbLine
 10
9370.011791341859
 20
4673.456185787583
 30
0.0
 11
9370.011791341859
 21
2580.956185787584
 31
0.0
  0
LINE
  5
16B07
330
747D
100
AcDbEntity
  8
部品1
 48
50.0
100
AcDbLine
 10
9340.01179134186
 20
4715.956185787583
 30
0.0
 11
9340.01179134186
 21
2580.956185787584
 31
0.0
  0
LINE
  5
16B08
330
747D
100
AcDbEntity
  8
部品1
 48
50.0
100
AcDbLine
 10
10174.01179134186
 20
4663.956185812351
 30
0.0
 11
10174.01179134186
 21
2630.956185812351
 31
0.0
  0
LINE
  5
16B09
330
747D
100
AcDbEntity
  8
部品1
 48
50.0
100
AcDbLine
 10
9370.011791341859
 20
2630.956185787584
 30
0.0
 11
10174.01179134185
 21
2630.95618578758
 31
0.0
  0
LINE
  5
16B0A
330
747D
100
AcDbEntity
  8
部品1
 48
50.0
100
AcDbLine
 10
9379.011791341859
 20
2630.956185787584
 30
0.0
 11
9379.011791341859
 21
2627.956185787584
 31
0.0
  0
LINE
  5
16B0B
330
747D
100
AcDbEntity
  8
部品1
 48
50.0
100
AcDbLine
 10
9370.011791341859
 20
4671.956185787583
 30
0.0
 11
9340.01179134186
 21
4671.956185787583
 31
0.0
  0
LINE
  5
16B0C
330
747D
100
AcDbEntity
  8
部品1
 48
50.0
100
AcDbLine
 10
11455.01179134186
 20
2627.956185787584
 30
0.0
 11
11455.01179134186
 21
4663.956185787583
 31
0.0
  0
LINE
  5
16B0D
330
747D
100
AcDbEntity
  8
細線
 48
50.0
100
AcDbLine
 10
11464.01179134186
 20
2580.956185787584
 30
0.0
 11
11464.01179134186
 21
4673.456185787583
 31
0.0
  0
LINE
  5
16B0E
330
747D
100
AcDbEntity
  8
部品1
 48
50.0
100
AcDbLine
 10
11494.01179134186
 20
2580.956185787584
 30
0.0
 11
11494.01179134186
 21
4715.956185787583
 31
0.0
  0
LINE
  5
16B0F
330
747D
100
AcDbEntity
  8
部品1
 48
50.0
100
AcDbLine
 10
10828.01178164672
 20
4663.95618582473
 30
0.0
 11
10828.01178164672
 21
2638.456185824731
 31
0.0
  0
LINE
  5
16B10
330
747D
100
AcDbEntity
  8
細線
 48
50.0
100
AcDbLine
 10
11442.01179134186
 20
2627.956185787584
 30
0.0
 11
11438.01179134186
 21
2638.456185787584
 31
0.0
  0
LINE
  5
16B11
330
747D
100
AcDbEntity
  8
部品1
 48
50.0
100
AcDbLine
 10
11494.01179134186
 20
4671.956185787583
 30
0.0
 11
11464.01179134186
 21
4671.956185787583
 31
0.0
  0
LINE
  5
16B12
330
747D
100
AcDbEntity
  8
細線
100
AcDbLine
 10
10950.76179134186
 20
4663.956185787583
 30
0.0
 11
10950.76179134186
 21
2638.456185787602
 31
0.0
  0
LINE
  5
16B13
330
747D
100
AcDbEntity
  8
細線
100
AcDbLine
 10
10235.5118010921
 20
4663.956185787583
 30
0.0
 11
10235.5118010921
 21
2638.456185787595
 31
0.0
  0
LINE
  5
16B14
330
747D
100
AcDbEntity
  8
細線
100
AcDbLine
 10
10305.5118010921
 20
4663.956185787583
 30
0.0
 11
10305.5118010921
 21
2638.456185787595
 31
0.0
  0
LINE
  5
16B15
330
747D
100
AcDbEntity
  8
細線
100
AcDbLine
 10
9584.011791341859
 20
4663.956185787583
 30
0.0
 11
9584.011791341856
 21
2630.956185787587
 31
0.0
  0
LINE
  5
16B16
330
747D
100
AcDbEntity
  8
細線
100
AcDbLine
 10
9654.01179134186
 20
4663.956185787583
 30
0.0
 11
9654.011791341858
 21
2630.956185787587
 31
0.0
  0
LINE
  5
16B17
330
747D
100
AcDbEntity
  8
細線
100
AcDbLine
 10
11020.76179134186
 20
4663.956185787583
 30
0.0
 11
11020.76179134186
 21
2638.456185787602
 31
0.0
  0
LINE
  5
16B18
330
747D
100
AcDbEntity
  8
細線
100
AcDbLine
 10
11090.76179134186
 20
4663.956185787583
 30
0.0
 11
11090.76179134186
 21
2638.456185787602
 31
0.0
  0
LINE
  5
16B19
330
747D
100
AcDbEntity
  8
細線
100
AcDbLine
 10
11160.76179134186
 20
4663.956185787583
 30
0.0
 11
11160.76179134186
 21
2638.456185787602
 31
0.0
  0
LINE
  5
16B1A
330
747D
100
AcDbEntity
  8
細線
100
AcDbLine
 10
11230.76179134186
 20
4663.956185787583
 30
0.0
 11
11230.76179134186
 21
2638.456185787602
 31
0.0
  0
LINE
  5
16B1B
330
747D
100
AcDbEntity
  8
細線
100
AcDbLine
 10
11300.76179134186
 20
4663.956185787583
 30
0.0
 11
11300.76179134186
 21
2638.456185787602
 31
0.0
  0
LINE
  5
16B1C
330
747D
100
AcDbEntity
  8
細線
100
AcDbLine
 10
10375.5118010921
 20
4663.956185787583
 30
0.0
 11
10375.5118010921
 21
2638.456185787595
 31
0.0
  0
LINE
  5
16B1D
330
747D
100
AcDbEntity
  8
細線
100
AcDbLine
 10
10445.5118010921
 20
4663.956185787583
 30
0.0
 11
10445.5118010921
 21
2638.456185787595
 31
0.0
  0
LINE
  5
16B1E
330
747D
100
AcDbEntity
  8
細線
100
AcDbLine
 10
10515.5118010921
 20
4663.956185787583
 30
0.0
 11
10515.5118010921
 21
2638.456185787595
 31
0.0
  0
LINE
  5
16B1F
330
747D
100
AcDbEntity
  8
細線
100
AcDbLine
 10
10585.5118010921
 20
4663.956185787583
 30
0.0
 11
10585.5118010921
 21
2638.456185787595
 31
0.0
  0
LINE
  5
16B20
330
747D
100
AcDbEntity
  8
細線
100
AcDbLine
 10
10655.5118010921
 20
4663.956185787583
 30
0.0
 11
10655.5118010921
 21
2638.456185787595
 31
0.0
  0
LINE
  5
16B21
330
747D
100
AcDbEntity
  8
細線
100
AcDbLine
 10
10725.5118010921
 20
4663.956185787583
 30
0.0
 11
10725.5118010921
 21
2638.456185787595
 31
0.0
  0
LINE
  5
16B22
330
747D
100
AcDbEntity
  8
細線
100
AcDbLine
 10
9498.011791341857
 20
4663.956185787583
 30
0.0
 11
9498.011791341859
 21
2630.956185787587
 31
0.0
  0
LINE
  5
16B23
330
747D
100
AcDbEntity
  8
細線
100
AcDbLine
 10
9532.011791341856
 20
4663.956185787583
 30
0.0
 11
9532.01179134186
 21
2630.956185787587
 31
0.0
  0
LINE
  5
16B24
330
747D
100
AcDbEntity
  8
部品1
100
AcDbLine
 10
9490.011791341856
 20
4663.956185787583
 30
0.0
 11
9490.01179134186
 21
2630.956185787587
 31
0.0
  0
LINE
  5
16B25
330
747D
100
AcDbEntity
  8
部品1
100
AcDbLine
 10
9540.011791341857
 20
4663.956185787583
 30
0.0
 11
9540.011791341859
 21
2630.956185787587
 31
0.0
  0
LINE
  5
16B26
330
747D
100
AcDbEntity
  8
細線
100
AcDbLine
 10
9724.01179134186
 20
4663.956185787583
 30
0.0
 11
9724.011791341856
 21
2630.956185787587
 31
0.0
  0
LINE
  5
16B27
330
747D
100
AcDbEntity
  8
細線
100
AcDbLine
 10
9794.01179134186
 20
4663.956185787583
 30
0.0
 11
9794.011791341857
 21
2630.956185787587
 31
0.0
  0
LINE
  5
16B28
330
747D
100
AcDbEntity
  8
細線
100
AcDbLine
 10
9864.011791341861
 20
4663.956185787583
 30
0.0
 11
9864.011791341857
 21
2630.956185787587
 31
0.0
  0
LINE
  5
16B29
330
747D
100
AcDbEntity
  8
細線
100
AcDbLine
 10
9934.011791341859
 20
4663.956185787583
 30
0.0
 11
9934.011791341857
 21
2630.956185787587
 31
0.0
  0
LINE
  5
16B2A
330
747D
100
AcDbEntity
  8
細線
100
AcDbLine
 10
10004.01179134186
 20
4663.956185787583
 30
0.0
 11
10004.01179134185
 21
2630.956185787591
 31
0.0
  0
LINE
  5
16B2B
330
747D
100
AcDbEntity
  8
細線
100
AcDbLine
 10
10074.01179134186
 20
4663.956185787583
 30
0.0
 11
10074.01179134185
 21
2630.956185787591
 31
0.0
  0
LINE
  5
16B2C
330
747D
100
AcDbEntity
  8
部品1
100
AcDbLine
 10
10828.01178164671
 20
4663.956185824734
 30
0.0
 11
10828.01178164672
 21
2638.456185824749
 31
0.0
  0
LINE
  5
16B2D
330
747D
100
AcDbEntity
  8
部品1
 48
50.0
100
AcDbLine
 10
10174.01179134186
 20
4663.956185812351
 30
0.0
 11
10174.01179134185
 21
2630.95618578758
 31
0.0
  0
DIMENSION
  5
16BDE
330
747D
100
AcDbEntity
  8
寸法
 48
50.0
100
AcDbDimension
  2
*D12
 10
8892.011791341857
 20
5355.049355127054
 30
0.0
 11
10207.01179134185
 21
5355.049355127054
 31
0.0
 70
   160
  1
柱外寸法<>
 71
     5
 42
2629.999999999999
  3
INABA_S40G
100
AcDbAlignedDimension
 13
11522.01179134185
 23
4955.956185787587
 33
0.0
 14
8892.011791341857
 24
4955.956185787591
 34
0.0
100
AcDbRotatedDimension
  0
DIMENSION
  5
16BDF
330
747D
100
AcDbEntity
  8
寸法
 48
50.0
100
AcDbDimension
  2
*D13
 10
8842.011791341858
 20
5355.049355127057
 30
0.0
 11
8528.52650996761
 21
5355.049355127057
 31
0.0
 70
   160
 71
     5
 42
50.0
  3
INABA_S40G
100
AcDbAlignedDimension
 13
8892.011791341857
 23
4955.956185787591
 33
0.0
 14
8842.011791341858
 24
4955.956185787587
 34
0.0
100
AcDbRotatedDimension
1001
ACAD
1000
DSTYLE
1002
{
1002
}
  0
DIMENSION
  5
16BE0
330
747D
100
AcDbEntity
  8
寸法
 48
50.0
100
AcDbDimension
  2
*D14
 10
11572.01179134185
 20
5571.575454745502
 30
0.0
 11
10207.01179134186
 21
5571.575454745502
 31
0.0
 70
   160
 71
     5
 42
2729.999999999999
  3
INABA_S40G
100
AcDbAlignedDimension
 13
8842.011791341858
 23
4955.956185787587
 33
0.0
 14
11572.01179134185
 24
4955.956185787587
 34
0.0
100
AcDbRotatedDimension
  0
LINE
  5
16BE1
330
747D
100
AcDbEntity
  8
部品1
100
AcDbLine
 10
10055.01179134187
 20
4950.956185796052
 30
0.0
 11
10055.01179134187
 21
4853.54511828748
 31
0.0
  0
LINE
  5
16BE2
330
747D
100
AcDbEntity
  8
部品1
100
AcDbLine
 10
10030.01179134187
 20
4950.956185796052
 30
0.0
 11
10030.01179134187
 21
4853.54511828748
 31
0.0
  0
LINE
  5
16BE3
330
747D
100
AcDbEntity
  8
部品1
 48
50.0
100
AcDbLine
 10
10028.51179134186
 20
4950.956185796056
 30
0.0
 11
10056.51179134186
 21
4950.956185796056
 31
0.0
  0
LINE
  5
16BE4
330
747D
100
AcDbEntity
  8
部品1
 48
50.0
100
AcDbLine
 10
10056.51179134186
 20
4950.956185796056
 30
0.0
 11
10067.01179134186
 21
4931.556185796054
 31
0.0
  0
LINE
  5
16BE5
330
747D
100
AcDbEntity
  8
部品1
 48
50.0
100
AcDbLine
 10
10028.51179134186
 20
4950.956185796056
 30
0.0
 11
10018.01179134186
 21
4931.556185796054
 31
0.0
  0
LINE
  5
16BE6
330
747D
100
AcDbEntity
  8
部品1
 48
50.0
100
AcDbLine
 10
9955.511791341866
 20
4950.956185796056
 30
0.0
 11
9983.511791341861
 21
4950.956185796056
 31
0.0
  0
LINE
  5
16BE7
330
747D
100
AcDbEntity
  8
部品1
100
AcDbLine
 10
9957.011791341873
 20
4950.956185796052
 30
0.0
 11
9957.011791341873
 21
4853.54511828748
 31
0.0
  0
LINE
  5
16BE8
330
747D
100
AcDbEntity
  8
部品1
 48
50.0
100
AcDbLine
 10
9955.511791341866
 20
4950.956185796056
 30
0.0
 11
9945.011791341865
 21
4931.556185796054
 31
0.0
  0
LINE
  5
16BE9
330
747D
100
AcDbEntity
  8
部品1
100
AcDbLine
 10
9982.011791341873
 20
4950.956185796052
 30
0.0
 11
9982.011791341873
 21
4853.54511828748
 31
0.0
  0
LINE
  5
16BEA
330
747D
100
AcDbEntity
  8
部品1
 48
50.0
100
AcDbLine
 10
9983.511791341866
 20
4950.956185796056
 30
0.0
 11
9994.011791341867
 21
4931.556185796054
 31
0.0
  0
LINE
  5
16BEB
330
747D
100
AcDbEntity
  8
部品1
100
AcDbLine
 10
9796.011791341873
 20
4950.956185796045
 30
0.0
 11
9796.011791341875
 21
4853.54511828748
 31
0.0
  0
LINE
  5
16BEC
330
747D
100
AcDbEntity
  8
部品1
 48
50.0
100
AcDbLine
 10
9799.011791341866
 20
4950.956185796056
 30
0.0
 11
9801.511791341866
 21
4931.556185796054
 31
0.0
  0
LINE
  5
16BED
330
747D
100
AcDbEntity
  8
部品1
100
AcDbLine
 10
9778.011791341874
 20
4950.956185796045
 30
0.0
 11
9778.011791341874
 21
4853.54511828748
 31
0.0
  0
LINE
  5
16BEE
330
747D
100
AcDbEntity
  8
部品1
 48
50.0
100
AcDbLine
 10
9759.800451135678
 20
4941.556185796055
 30
0.0
 11
9758.511791341867
 21
4931.556185796054
 31
0.0
  0
LINE
  5
16BEF
330
747D
100
AcDbEntity
  8
部品1
 48
50.0
100
AcDbLine
 10
9759.800451135678
 20
4941.556185796055
 30
0.0
 11
9773.800451135677
 21
4941.556185796055
 31
0.0
  0
LINE
  5
16BF0
330
747D
100
AcDbEntity
  8
部品1
 48
50.0
100
AcDbLine
 10
9775.011791341865
 20
4950.956185796056
 30
0.0
 11
9773.800451135677
 21
4941.556185796055
 31
0.0
  0
LINE
  5
16BF1
330
747D
100
AcDbEntity
  8
部品1
 48
50.0
100
AcDbLine
 10
9799.011791341866
 20
4950.956185796056
 30
0.0
 11
9775.011791341865
 21
4950.956185796056
 31
0.0
  0
LINE
  5
16BF2
330
747D
100
AcDbEntity
  8
部品1
100
AcDbLine
 10
9945.011791341862
 20
4931.556185796051
 30
0.0
 11
9801.511791341862
 21
4931.556185796051
 31
0.0
  0
LINE
  5
16BF3
330
747D
100
AcDbEntity
  8
部品1
100
AcDbLine
 10
9635.011791341874
 20
4950.956185796052
 30
0.0
 11
9635.011791341874
 21
4853.54511828748
 31
0.0
  0
LINE
  5
16BF4
330
747D
100
AcDbEntity
  8
部品1
 48
50.0
100
AcDbLine
 10
9636.511791341867
 20
4950.956185796056
 30
0.0
 11
9647.011791341867
 21
4931.556185796054
 31
0.0
  0
LINE
  5
16BF5
330
747D
100
AcDbEntity
  8
部品1
100
AcDbLine
 10
9537.011791341873
 20
4950.956185796052
 30
0.0
 11
9537.011791341873
 21
4853.54511828748
 31
0.0
  0
LINE
  5
16BF6
330
747D
100
AcDbEntity
  8
部品1
100
AcDbLine
 10
9562.011791341872
 20
4950.956185796052
 30
0.0
 11
9562.011791341872
 21
4853.54511828748
 31
0.0
  0
LINE
  5
16BF7
330
747D
100
AcDbEntity
  8
部品1
100
AcDbLine
 10
9610.011791341873
 20
4950.956185796052
 30
0.0
 11
9610.011791341873
 21
4853.54511828748
 31
0.0
  0
LINE
  5
16BF8
330
747D
100
AcDbEntity
  8
部品1
 48
50.0
100
AcDbLine
 10
9535.511791341866
 20
4950.956185796056
 30
0.0
 11
9525.011791341865
 21
4931.556185796054
 31
0.0
  0
LINE
  5
16BF9
330
747D
100
AcDbEntity
  8
部品1
100
AcDbLine
 10
9598.011791341862
 20
4931.556185796051
 30
0.0
 11
9574.011791341865
 21
4931.556185796051
 31
0.0
  0
LINE
  5
16BFA
330
747D
100
AcDbEntity
  8
部品1
 48
50.0
100
AcDbLine
 10
9563.511791341865
 20
4950.956185796056
 30
0.0
 11
9574.011791341865
 21
4931.556185796054
 31
0.0
  0
LINE
  5
16BFB
330
747D
100
AcDbEntity
  8
部品1
 48
50.0
100
AcDbLine
 10
9608.511791341866
 20
4950.956185796056
 30
0.0
 11
9598.011791341866
 21
4931.556185796054
 31
0.0
  0
LINE
  5
16BFC
330
747D
100
AcDbEntity
  8
部品1
 48
50.0
100
AcDbLine
 10
9535.511791341866
 20
4950.956185796056
 30
0.0
 11
9563.511791341863
 21
4950.956185796056
 31
0.0
  0
LINE
  5
16BFD
330
747D
100
AcDbEntity
  8
部品1
 48
50.0
100
AcDbLine
 10
9608.511791341866
 20
4950.956185796056
 30
0.0
 11
9636.511791341861
 21
4950.956185796056
 31
0.0
  0
LINE
  5
16BFE
330
747D
100
AcDbEntity
  8
部品1
100
AcDbLine
 10
9376.011791341872
 20
4950.956185796045
 30
0.0
 11
9376.011791341873
 21
4853.54511828748
 31
0.0
  0
LINE
  5
16BFF
330
747D
100
AcDbEntity
  8
部品1
100
AcDbLine
 10
9358.011791341873
 20
4950.956185796045
 30
0.0
 11
9358.011791341874
 21
4853.54511828748
 31
0.0
  0
LINE
  5
16C00
330
747D
100
AcDbEntity
  8
部品1
 48
50.0
100
AcDbLine
 10
9379.011791341865
 20
4950.956185796056
 30
0.0
 11
9355.011791341866
 21
4950.956185796056
 31
0.0
  0
LINE
  5
16C01
330
747D
100
AcDbEntity
  8
部品1
 48
50.0
100
AcDbLine
 10
9355.011791341866
 20
4950.956185796056
 30
0.0
 11
9353.800451135677
 21
4941.556185796055
 31
0.0
  0
LINE
  5
16C02
330
747D
100
AcDbEntity
  8
部品1
 48
50.0
100
AcDbLine
 10
9379.011791341865
 20
4950.956185796056
 30
0.0
 11
9381.511791341866
 21
4931.556185796054
 31
0.0
  0
LINE
  5
16C03
330
747D
100
AcDbEntity
  8
部品1
100
AcDbLine
 10
9525.011791341862
 20
4931.556185796051
 30
0.0
 11
9381.511791341862
 21
4931.556185796051
 31
0.0
  0
LINE
  5
16C04
330
747D
100
AcDbEntity
  8
部品1
100
AcDbLine
 10
9758.511791341867
 20
4931.556185796051
 30
0.0
 11
9647.011791341867
 21
4931.556185796051
 31
0.0
  0
LINE
  5
16C05
330
747D
100
AcDbEntity
  8
部品1
100
AcDbLine
 10
10018.01179134186
 20
4931.556185796051
 30
0.0
 11
9994.011791341867
 21
4931.556185796051
 31
0.0
  0
LINE
  5
16C06
330
747D
100
AcDbEntity
  8
部品1
100
AcDbLine
 10
9338.511791341865
 20
4931.556185796051
 30
0.0
 11
9227.011791341865
 21
4931.556185796051
 31
0.0
  0
LINE
  5
16C07
330
747D
100
AcDbEntity
  8
部品1
100
AcDbLine
 10
9190.011791341872
 20
4950.956185796052
 30
0.0
 11
9190.011791341872
 21
4853.54511828748
 31
0.0
  0
LINE
  5
16C08
330
747D
100
AcDbEntity
  8
部品1
100
AcDbLine
 10
9215.011791341872
 20
4950.956185796052
 30
0.0
 11
9215.011791341872
 21
4853.54511828748
 31
0.0
  0
LINE
  5
16C09
330
747D
100
AcDbEntity
  8
部品1
 48
50.0
100
AcDbLine
 10
9216.511791341865
 20
4950.956185796056
 30
0.0
 11
9227.011791341865
 21
4931.556185796054
 31
0.0
  0
LINE
  5
16C0A
330
747D
100
AcDbEntity
  8
部品1
 48
50.0
100
AcDbLine
 10
9188.511791341865
 20
4950.956185796056
 30
0.0
 11
9216.511791341861
 21
4950.956185796056
 31
0.0
  0
LINE
  5
16C0B
330
747D
100
AcDbEntity
  8
部品1
 48
50.0
100
AcDbLine
 10
9339.800451135678
 20
4941.556185796055
 30
0.0
 11
9338.511791341865
 21
4931.556185796054
 31
0.0
  0
LINE
  5
16C0C
330
747D
100
AcDbEntity
  8
部品1
100
AcDbLine
 10
9178.011791341862
 20
4931.556185796051
 30
0.0
 11
9154.011791341865
 21
4931.556185796054
 31
0.0
  0
LINE
  5
16C0D
330
747D
100
AcDbEntity
  8
部品1
100
AcDbLine
 10
9142.011791341872
 20
4950.956185796052
 30
0.0
 11
9142.011791341875
 21
4853.54511828748
 31
0.0
  0
LINE
  5
16C0E
330
747D
100
AcDbEntity
  8
部品1
 48
50.0
100
AcDbLine
 10
9143.511791341865
 20
4950.956185796056
 30
0.0
 11
9154.011791341865
 21
4931.556185796054
 31
0.0
  0
LINE
  5
16C0F
330
747D
100
AcDbEntity
  8
部品1
100
AcDbLine
 10
9117.011791341871
 20
4950.956185796052
 30
0.0
 11
9117.011791341871
 21
4853.54511828748
 31
0.0
  0
LINE
  5
16C10
330
747D
100
AcDbEntity
  8
部品1
 48
50.0
100
AcDbLine
 10
9115.511791341864
 20
4950.956185796056
 30
0.0
 11
9105.011791341866
 21
4931.556185796054
 31
0.0
  0
LINE
  5
16C11
330
747D
100
AcDbEntity
  8
部品1
 48
50.0
100
AcDbLine
 10
9115.511791341864
 20
4950.956185796056
 30
0.0
 11
9143.511791341863
 21
4950.956185796056
 31
0.0
  0
LINE
  5
16C12
330
747D
100
AcDbEntity
  8
部品1
 48
50.0
100
AcDbLine
 10
9188.511791341865
 20
4950.956185796056
 30
0.0
 11
9178.011791341864
 21
4931.556185796054
 31
0.0
  0
LINE
  5
16C13
330
747D
100
AcDbEntity
  8
部品1
100
AcDbLine
 10
8956.011791341872
 20
4950.956185796045
 30
0.0
 11
8956.011791341872
 21
4853.54511828748
 31
0.0
  0
LINE
  5
16C14
330
747D
100
AcDbEntity
  8
部品1
100
AcDbLine
 10
8938.011791341873
 20
4950.956185796056
 30
0.0
 11
8938.011791341875
 21
4853.54511828748
 31
0.0
  0
LINE
  5
16C15
330
747D
100
AcDbEntity
  8
部品1
 48
50.0
100
AcDbLine
 10
8959.011791341865
 20
4950.956185796056
 30
0.0
 11
8961.511791341866
 21
4931.556185796054
 31
0.0
  0
LINE
  5
16C16
330
747D
100
AcDbEntity
  8
部品1
100
AcDbLine
 10
8918.511791341865
 20
4931.556185796054
 30
0.0
 11
8892.011791341865
 21
4931.556185796054
 31
0.0
  0
LINE
  5
16C17
330
747D
100
AcDbEntity
  8
部品1
 48
50.0
100
AcDbLine
 10
8919.800451135676
 20
4941.556185796055
 30
0.0
 11
8933.800451135677
 21
4941.556185796055
 31
0.0
  0
LINE
  5
16C18
330
747D
100
AcDbEntity
  8
部品1
 48
50.0
100
AcDbLine
 10
8919.800451135676
 20
4941.556185796055
 30
0.0
 11
8918.511791341865
 21
4931.556185796054
 31
0.0
  0
LINE
  5
16C19
330
747D
100
AcDbEntity
  8
部品1
 48
50.0
100
AcDbLine
 10
8935.011791341866
 20
4950.956185796056
 30
0.0
 11
8933.800451135677
 21
4941.556185796055
 31
0.0
  0
LINE
  5
16C1A
330
747D
100
AcDbEntity
  8
部品1
 48
50.0
100
AcDbLine
 10
8959.011791341865
 20
4950.956185796056
 30
0.0
 11
8935.011791341866
 21
4950.956185796056
 31
0.0
  0
LINE
  5
16C1B
330
747D
100
AcDbEntity
  8
部品1
100
AcDbLine
 10
9105.011791341866
 20
4931.556185796051
 30
0.0
 11
8961.511791341866
 21
4931.556185796054
 31
0.0
  0
LINE
  5
16C1C
330
747D
100
AcDbEntity
  8
部品1
 48
50.0
100
AcDbLine
 10
9339.800451135678
 20
4941.556185796055
 30
0.0
 11
9353.800451135677
 21
4941.556185796055
 31
0.0
  0
LINE
  5
16C1D
330
747D
100
AcDbEntity
  8
部品1
100
AcDbLine
 10
11527.08212863649
 20
4955.956185796031
 30
0.0
 11
8866.443951722773
 21
4955.956185796056
 31
0.0
  0
LINE
  5
16C1E
330
747D
100
AcDbEntity
  8
部品1
100
AcDbLine
 10
10178.51179134186
 20
4931.556185796036
 30
0.0
 11
10067.01179134187
 21
4931.556185796036
 31
0.0
  0
LINE
  5
16C1F
330
747D
100
AcDbEntity
  8
部品1
 48
50.0
100
AcDbLine
 10
8886.941163348659
 20
4900.956185787584
 30
0.0
 11
8848.997835159076
 21
4900.956185787584
 31
0.0
  0
ARC
  5
16C20
330
747D
100
AcDbEntity
  8
部品1
100
AcDbCircle
 10
8843.970933782154
 20
4873.626303108174
 30
0.0
 40
0.7
100
AcDbArc
 50
183.6186294801377
 51
262.7131594833544
  0
ARC
  5
16C21
330
747D
100
AcDbEntity
  8
部品1
100
AcDbCircle
 10
8843.501637656958
 20
4869.956185787583
 30
0.0
 40
3.0
100
AcDbArc
 50
3.618629480137788
 51
90.0
  0
LINE
  5
16C22
330
747D
100
AcDbEntity
  8
部品1
100
AcDbLine
 10
8846.495656435763
 20
4870.145530848697
 30
0.0
 11
8851.242749447925
 21
4795.082122593913
 31
0.0
  0
ARC
  5
16C23
330
747D
100
AcDbEntity
  8
部品1
100
AcDbCircle
 10
8851.941353829644
 20
4795.126303108174
 30
0.0
 40
0.7
100
AcDbArc
 50
183.6186294801377
 51
262.7131594833544
  0
ARC
  5
16C24
330
747D
100
AcDbEntity
  8
部品1
100
AcDbCircle
 10
8851.47205770445
 20
4791.456185787583
 30
0.0
 40
3.0
100
AcDbArc
 50
3.618629480137788
 51
90.0
  0
ARC
  5
16C25
330
747D
100
AcDbEntity
  8
部品1
100
AcDbCircle
 10
8862.124446005047
 20
4781.456185787583
 30
0.0
 40
7.0
100
AcDbArc
 50
183.6186294801377
 51
270.0
  0
ARC
  5
16C26
330
747D
100
AcDbEntity
  8
部品1
100
AcDbCircle
 10
8848.997835159076
 20
4893.956185787583
 30
0.0
 40
7.0
100
AcDbArc
 50
90.0
 51
183.6186294801377
  0
LINE
  5
16C27
330
747D
100
AcDbEntity
  8
部品1
100
AcDbLine
 10
8855.138402187836
 20
4781.014380644994
 30
0.0
 11
8854.466076483255
 21
4791.645530848696
 31
0.0
  0
LINE
  5
16C28
330
747D
100
AcDbEntity
  8
部品1
100
AcDbLine
 10
8843.272329400432
 20
4873.582122593912
 30
0.0
 11
8842.011791341866
 21
4893.514380644994
 31
0.0
  0
LINE
  5
16C29
330
747D
100
AcDbEntity
  8
部品1
100
AcDbLine
 10
8886.941163348659
 20
4900.956185787584
 30
0.0
 11
8848.997835159076
 21
4900.956185787584
 31
0.0
  0
ARC
  5
16C2A
330
747D
100
AcDbEntity
  8
部品1
100
AcDbCircle
 10
8886.941163348659
 20
4895.956185787583
 30
0.0
 40
5.0
100
AcDbArc
 50
0.0
 51
90.0
  0
LINE
  5
16C2B
330
747D
100
AcDbEntity
  8
部品1
100
AcDbLine
 10
8891.94116334866
 20
4950.956185804482
 30
0.0
 11
8891.941163348658
 21
4853.552157114913
 31
0.0
  0
LINE
  5
16C2C
330
747D
100
AcDbEntity
  8
部品1
100
AcDbLine
 10
11551.89913667866
 20
4774.456185787584
 30
0.0
 11
8862.124446005047
 21
4774.456185787584
 31
0.0
  0
LINE
  5
16C2D
330
747D
100
AcDbEntity
  8
部品1
 48
50.0
100
AcDbLine
 10
8842.011791341866
 20
4893.514380644994
 30
0.0
 11
8842.011791341866
 21
4948.514380661893
 31
0.0
  0
ARC
  5
16C2E
330
747D
100
AcDbEntity
  8
部品1
100
AcDbCircle
 10
8886.941163348659
 20
4950.956185804482
 30
0.0
 40
5.0
100
AcDbArc
 50
0.0
 51
90.0
  0
LINE
  5
16C2F
330
747D
100
AcDbEntity
  8
部品1
100
AcDbLine
 10
8886.941163348659
 20
4955.956185804481
 30
0.0
 11
8848.997835159076
 21
4955.956185804481
 31
0.0
  0
ARC
  5
16C30
330
747D
100
AcDbEntity
  8
部品1
100
AcDbCircle
 10
8848.997835159076
 20
4948.956185804481
 30
0.0
 40
7.0
100
AcDbArc
 50
90.0
 51
183.6186294801377
  0
LINE
  5
16C31
330
747D
100
AcDbEntity
  8
細線
 48
50.0
100
AcDbLine
 10
11562.79014901492
 20
4795.229428351367
 30
0.0
 11
8851.895382974383
 21
4795.229428351367
 31
0.0
  0
LINE
  5
16C32
330
747D
100
AcDbEntity
  8
細線
 48
50.0
100
AcDbLine
 10
8874.500701437582
 20
4900.956185787584
 30
0.0
 11
8874.500701437582
 21
4774.456185787584
 31
0.0
  0
LINE
  5
16C33
330
747D
100
AcDbEntity
  8
細線
 48
50.0
100
AcDbLine
 10
8891.941163348658
 20
4872.928018535533
 30
0.0
 11
8843.877922064711
 21
4872.92801853554
 31
0.0
  0
LINE
  5
16C34
330
747D
100
AcDbEntity
  8
部品1
100
AcDbLine
 10
10198.01179134186
 20
4950.956185796045
 30
0.0
 11
10198.01179134186
 21
4853.54511828748
 31
0.0
  0
LINE
  5
16C35
330
747D
100
AcDbEntity
  8
部品1
100
AcDbLine
 10
10216.01179134186
 20
4950.956185796056
 30
0.0
 11
10216.01179134186
 21
4853.54511828748
 31
0.0
  0
LINE
  5
16C36
330
747D
100
AcDbEntity
  8
部品1
 48
50.0
100
AcDbLine
 10
10195.01179134187
 20
4950.956185796056
 30
0.0
 11
10219.01179134186
 21
4950.956185796056
 31
0.0
  0
LINE
  5
16C37
330
747D
100
AcDbEntity
  8
部品1
 48
50.0
100
AcDbLine
 10
10195.01179134187
 20
4950.956185796056
 30
0.0
 11
10193.80045113568
 21
4941.556185796055
 31
0.0
  0
LINE
  5
16C38
330
747D
100
AcDbEntity
  8
部品1
 48
50.0
100
AcDbLine
 10
10179.80045113568
 20
4941.556185796055
 30
0.0
 11
10193.80045113568
 21
4941.556185796055
 31
0.0
  0
LINE
  5
16C39
330
747D
100
AcDbEntity
  8
部品1
 48
50.0
100
AcDbLine
 10
10179.80045113568
 20
4941.556185796055
 30
0.0
 11
10178.51179134186
 21
4931.556185796054
 31
0.0
  0
LINE
  5
16C3A
330
747D
100
AcDbEntity
  8
部品1
 48
50.0
100
AcDbLine
 10
10219.01179134186
 20
4950.956185796056
 30
0.0
 11
10221.51179134187
 21
4931.556185796054
 31
0.0
  0
LINE
  5
16C3B
330
747D
100
AcDbEntity
  8
部品1
 48
50.0
100
AcDbLine
 10
8874.500701437584
 20
4853.54511828748
 30
0.0
 11
11539.52288124613
 21
4853.545118287485
 31
0.0
  0
LINE
  5
16C3C
330
747D
100
AcDbEntity
  8
部品1
100
AcDbLine
 10
10438.01179134186
 20
4931.556185796054
 30
0.0
 11
10414.01179134187
 21
4931.556185796054
 31
0.0
  0
LINE
  5
16C3D
330
747D
100
AcDbEntity
  8
部品1
 48
50.0
100
AcDbLine
 10
10403.51179134187
 20
4950.95618579606
 30
0.0
 11
10414.01179134187
 21
4931.556185796058
 31
0.0
  0
LINE
  5
16C3E
330
747D
100
AcDbEntity
  8
部品1
 48
50.0
100
AcDbLine
 10
10375.51179134186
 20
4950.95618579606
 30
0.0
 11
10365.01179134186
 21
4931.556185796058
 31
0.0
  0
LINE
  5
16C3F
330
747D
100
AcDbEntity
  8
部品1
 48
50.0
100
AcDbLine
 10
10375.51179134186
 20
4950.95618579606
 30
0.0
 11
10403.51179134186
 21
4950.95618579606
 31
0.0
  0
LINE
  5
16C40
330
747D
100
AcDbEntity
  8
部品1
 48
50.0
100
AcDbLine
 10
10448.51179134187
 20
4950.95618579606
 30
0.0
 11
10438.01179134187
 21
4931.556185796058
 31
0.0
  0
LINE
  5
16C41
330
747D
100
AcDbEntity
  8
部品1
 48
50.0
100
AcDbLine
 10
10476.51179134186
 20
4950.95618579606
 30
0.0
 11
10487.01179134186
 21
4931.556185796058
 31
0.0
  0
LINE
  5
16C42
330
747D
100
AcDbEntity
  8
部品1
 48
50.0
100
AcDbLine
 10
10448.51179134187
 20
4950.95618579606
 30
0.0
 11
10476.51179134186
 21
4950.95618579606
 31
0.0
  0
LINE
  5
16C43
330
747D
100
AcDbEntity
  8
部品1
100
AcDbLine
 10
10598.51179134186
 20
4931.55618579604
 30
0.0
 11
10487.01179134187
 21
4931.55618579604
 31
0.0
  0
LINE
  5
16C44
330
747D
100
AcDbEntity
  8
部品1
100
AcDbLine
 10
10365.01179134186
 20
4931.556185796054
 30
0.0
 11
10221.51179134186
 21
4931.556185796054
 31
0.0
  0
LINE
  5
16C45
330
747D
100
AcDbEntity
  8
部品1
100
AcDbLine
 10
10402.01179134187
 20
4950.956185796056
 30
0.0
 11
10402.01179134187
 21
4853.545118287485
 31
0.0
  0
LINE
  5
16C46
330
747D
100
AcDbEntity
  8
部品1
100
AcDbLine
 10
10377.01179134187
 20
4950.956185796056
 30
0.0
 11
10377.01179134187
 21
4853.545118287485
 31
0.0
  0
LINE
  5
16C47
330
747D
100
AcDbEntity
  8
部品1
100
AcDbLine
 10
10450.01179134187
 20
4950.956185796056
 30
0.0
 11
10450.01179134187
 21
4853.545118287485
 31
0.0
  0
LINE
  5
16C48
330
747D
100
AcDbEntity
  8
部品1
100
AcDbLine
 10
10475.01179134187
 20
4950.956185796056
 30
0.0
 11
10475.01179134187
 21
4853.545118287485
 31
0.0
  0
LINE
  5
16C49
330
747D
100
AcDbEntity
  8
部品1
100
AcDbLine
 10
11018.51179134186
 20
4931.556185796043
 30
0.0
 11
10907.01179134187
 21
4931.556185796043
 31
0.0
  0
LINE
  5
16C4A
330
747D
100
AcDbEntity
  8
部品1
100
AcDbLine
 10
10895.01179134187
 20
4950.95618579606
 30
0.0
 11
10895.01179134187
 21
4853.545118287488
 31
0.0
  0
LINE
  5
16C4B
330
747D
100
AcDbEntity
  8
部品1
100
AcDbLine
 10
10870.01179134187
 20
4950.95618579606
 30
0.0
 11
10870.01179134188
 21
4853.545118287488
 31
0.0
  0
LINE
  5
16C4C
330
747D
100
AcDbEntity
  8
部品1
100
AcDbLine
 10
10797.01179134187
 20
4950.95618579606
 30
0.0
 11
10797.01179134187
 21
4853.545118287488
 31
0.0
  0
LINE
  5
16C4D
330
747D
100
AcDbEntity
  8
部品1
100
AcDbLine
 10
10822.01179134187
 20
4950.95618579606
 30
0.0
 11
10822.01179134187
 21
4853.545118287488
 31
0.0
  0
LINE
  5
16C4E
330
747D
100
AcDbEntity
  8
部品1
 48
50.0
100
AcDbLine
 10
10868.51179134187
 20
4950.956185796063
 30
0.0
 11
10896.51179134186
 21
4950.956185796063
 31
0.0
  0
LINE
  5
16C4F
330
747D
100
AcDbEntity
  8
部品1
 48
50.0
100
AcDbLine
 10
10896.51179134187
 20
4950.956185796063
 30
0.0
 11
10907.01179134187
 21
4931.556185796062
 31
0.0
  0
LINE
  5
16C50
330
747D
100
AcDbEntity
  8
部品1
 48
50.0
100
AcDbLine
 10
10868.51179134187
 20
4950.956185796063
 30
0.0
 11
10858.01179134187
 21
4931.556185796062
 31
0.0
  0
LINE
  5
16C51
330
747D
100
AcDbEntity
  8
部品1
 48
50.0
100
AcDbLine
 10
10795.51179134187
 20
4950.956185796063
 30
0.0
 11
10823.51179134186
 21
4950.956185796063
 31
0.0
  0
LINE
  5
16C52
330
747D
100
AcDbEntity
  8
部品1
 48
50.0
100
AcDbLine
 10
10795.51179134187
 20
4950.956185796063
 30
0.0
 11
10785.01179134187
 21
4931.556185796062
 31
0.0
  0
LINE
  5
16C53
330
747D
100
AcDbEntity
  8
部品1
 48
50.0
100
AcDbLine
 10
10823.51179134187
 20
4950.956185796063
 30
0.0
 11
10834.01179134187
 21
4931.556185796062
 31
0.0
  0
LINE
  5
16C54
330
747D
100
AcDbEntity
  8
部品1
100
AcDbLine
 10
10858.01179134186
 20
4931.556185796058
 30
0.0
 11
10834.01179134187
 21
4931.556185796058
 31
0.0
  0
LINE
  5
16C55
330
747D
100
AcDbEntity
  8
部品1
100
AcDbLine
 10
10785.01179134186
 20
4931.556185796058
 30
0.0
 11
10641.51179134186
 21
4931.556185796058
 31
0.0
  0
LINE
  5
16C56
330
747D
100
AcDbEntity
  8
部品1
 48
50.0
100
AcDbLine
 10
10639.01179134187
 20
4950.95618579606
 30
0.0
 11
10641.51179134187
 21
4931.556185796058
 31
0.0
  0
LINE
  5
16C57
330
747D
100
AcDbEntity
  8
部品1
 48
50.0
100
AcDbLine
 10
10599.80045113568
 20
4941.556185796058
 30
0.0
 11
10598.51179134187
 21
4931.556185796058
 31
0.0
  0
LINE
  5
16C58
330
747D
100
AcDbEntity
  8
部品1
 48
50.0
100
AcDbLine
 10
10599.80045113568
 20
4941.556185796058
 30
0.0
 11
10613.80045113568
 21
4941.556185796058
 31
0.0
  0
LINE
  5
16C59
330
747D
100
AcDbEntity
  8
部品1
 48
50.0
100
AcDbLine
 10
10615.01179134187
 20
4950.95618579606
 30
0.0
 11
10613.80045113568
 21
4941.556185796058
 31
0.0
  0
LINE
  5
16C5A
330
747D
100
AcDbEntity
  8
部品1
 48
50.0
100
AcDbLine
 10
10615.01179134187
 20
4950.95618579606
 30
0.0
 11
10639.01179134187
 21
4950.95618579606
 31
0.0
  0
LINE
  5
16C5B
330
747D
100
AcDbEntity
  8
部品1
100
AcDbLine
 10
10636.01179134186
 20
4950.95618579606
 30
0.0
 11
10636.01179134186
 21
4853.545118287485
 31
0.0
  0
LINE
  5
16C5C
330
747D
100
AcDbEntity
  8
部品1
100
AcDbLine
 10
10618.01179134186
 20
4950.956185796049
 30
0.0
 11
10618.01179134186
 21
4853.545118287485
 31
0.0
  0
DIMENSION
  5
16C5D
330
747D
100
AcDbEntity
  8
寸法
 48
50.0
100
AcDbDimension
  2
*D15
 10
11522.01179134185
 20
5355.049355127057
 30
0.0
 11
11885.49707271609
 21
5355.049355127057
 31
0.0
 70
   160
 71
     5
 42
50.0
  3
INABA_S40G
100
AcDbAlignedDimension
 13
11572.01179134185
 23
4955.956185787587
 33
0.0
 14
11522.01179134185
 24
4955.956185787587
 34
0.0
100
AcDbRotatedDimension
  0
LINE
  5
16C5E
330
747D
100
AcDbEntity
  8
部品1
100
AcDbLine
 10
11458.01179134184
 20
4950.956185796045
 30
0.0
 11
11458.01179134184
 21
4853.54511828748
 31
0.0
  0
LINE
  5
16C5F
330
747D
100
AcDbEntity
  8
部品1
100
AcDbLine
 10
11476.01179134184
 20
4950.956185796056
 30
0.0
 11
11476.01179134184
 21
4853.54511828748
 31
0.0
  0
LINE
  5
16C60
330
747D
100
AcDbEntity
  8
部品1
 48
50.0
100
AcDbLine
 10
11455.01179134184
 20
4950.956185796056
 30
0.0
 11
11479.01179134184
 21
4950.956185796056
 31
0.0
  0
LINE
  5
16C61
330
747D
100
AcDbEntity
  8
部品1
 48
50.0
100
AcDbLine
 10
11527.08241933505
 20
4900.956185787584
 30
0.0
 11
11565.02574752463
 21
4900.956185787584
 31
0.0
  0
ARC
  5
16C62
330
747D
100
AcDbEntity
  8
部品1
100
AcDbCircle
 10
11570.05264890156
 20
4873.626303108174
 30
0.0
 40
0.7
100
AcDbArc
 50
277.2868405166456
 51
356.3813705198622
  0
ARC
  5
16C63
330
747D
100
AcDbEntity
  8
部品1
100
AcDbCircle
 10
11570.52194502675
 20
4869.956185787583
 30
0.0
 40
3.0
100
AcDbArc
 50
90.0
 51
176.3813705198622
  0
LINE
  5
16C64
330
747D
100
AcDbEntity
  8
部品1
100
AcDbLine
 10
11567.52792624795
 20
4870.145530848697
 30
0.0
 11
11562.78083323579
 21
4795.082122593913
 31
0.0
  0
ARC
  5
16C65
330
747D
100
AcDbEntity
  8
部品1
100
AcDbCircle
 10
11562.08222885407
 20
4795.126303108174
 30
0.0
 40
0.7
100
AcDbArc
 50
277.2868405166456
 51
356.3813705198622
  0
ARC
  5
16C66
330
747D
100
AcDbEntity
  8
部品1
100
AcDbCircle
 10
11562.55152497926
 20
4791.456185787583
 30
0.0
 40
3.0
100
AcDbArc
 50
90.0
 51
176.3813705198622
  0
ARC
  5
16C67
330
747D
100
AcDbEntity
  8
部品1
100
AcDbCircle
 10
11551.89913667866
 20
4781.456185787583
 30
0.0
 40
7.0
100
AcDbArc
 50
270.0
 51
356.3813705198622
  0
ARC
  5
16C68
330
747D
100
AcDbEntity
  8
部品1
100
AcDbCircle
 10
11565.02574752463
 20
4893.956185787583
 30
0.0
 40
7.0
100
AcDbArc
 50
356.3813705198622
 51
90.0
  0
LINE
  5
16C69
330
747D
100
AcDbEntity
  8
部品1
100
AcDbLine
 10
11558.88518049588
 20
4781.014380644994
 30
0.0
 11
11559.55750620046
 21
4791.645530848696
 31
0.0
  0
LINE
  5
16C6A
330
747D
100
AcDbEntity
  8
部品1
100
AcDbLine
 10
11570.75125328328
 20
4873.582122593912
 30
0.0
 11
11572.01179134184
 21
4893.514380644994
 31
0.0
  0
LINE
  5
16C6B
330
747D
100
AcDbEntity
  8
部品1
100
AcDbLine
 10
11527.08241933505
 20
4900.956185787584
 30
0.0
 11
11565.02574752463
 21
4900.956185787584
 31
0.0
  0
ARC
  5
16C6C
330
747D
100
AcDbEntity
  8
部品1
100
AcDbCircle
 10
11527.08241933505
 20
4895.956185787583
 30
0.0
 40
5.0
100
AcDbArc
 50
90.0
 51
180.0
  0
LINE
  5
16C6D
330
747D
100
AcDbEntity
  8
部品1
100
AcDbLine
 10
11522.08241933505
 20
4950.956185804482
 30
0.0
 11
11522.08241933505
 21
4853.54511828748
 31
0.0
  0
LINE
  5
16C6E
330
747D
100
AcDbEntity
  8
部品1
 48
50.0
100
AcDbLine
 10
11572.01179134184
 20
4893.514380644994
 30
0.0
 11
11572.01179134184
 21
4948.514380661893
 31
0.0
  0
ARC
  5
16C6F
330
747D
100
AcDbEntity
  8
部品1
100
AcDbCircle
 10
11527.08241933505
 20
4950.956185804482
 30
0.0
 40
5.0
100
AcDbArc
 50
90.0
 51
180.0
  0
LINE
  5
16C70
330
747D
100
AcDbEntity
  8
部品1
100
AcDbLine
 10
11527.08241933505
 20
4955.956185804481
 30
0.0
 11
11565.02574752463
 21
4955.956185804481
 31
0.0
  0
ARC
  5
16C71
330
747D
100
AcDbEntity
  8
部品1
100
AcDbCircle
 10
11565.02574752463
 20
4948.956185804481
 30
0.0
 40
7.0
100
AcDbArc
 50
356.3813705198622
 51
90.0
  0
LINE
  5
16C72
330
747D
100
AcDbEntity
  8
細線
 48
50.0
100
AcDbLine
 10
11539.52288124613
 20
4900.956185787584
 30
0.0
 11
11539.52288124613
 21
4774.456185787584
 31
0.0
  0
LINE
  5
16C73
330
747D
100
AcDbEntity
  8
細線
 48
50.0
100
AcDbLine
 10
11522.08241933505
 20
4872.928018535533
 30
0.0
 11
11570.145660619
 21
4872.92801853554
 31
0.0
  0
LINE
  5
16C74
330
747D
100
AcDbEntity
  8
部品1
 48
50.0
100
AcDbLine
 10
11455.01179134184
 20
4950.956185796056
 30
0.0
 11
11453.80045113566
 21
4941.556185796055
 31
0.0
  0
LINE
  5
16C75
330
747D
100
AcDbEntity
  8
部品1
 48
50.0
100
AcDbLine
 10
11439.80045113566
 20
4941.556185796055
 30
0.0
 11
11453.80045113566
 21
4941.556185796055
 31
0.0
  0
LINE
  5
16C76
330
747D
100
AcDbEntity
  8
部品1
 48
50.0
100
AcDbLine
 10
11439.80045113566
 20
4941.556185796055
 30
0.0
 11
11438.51179134184
 21
4931.556185796054
 31
0.0
  0
LINE
  5
16C77
330
747D
100
AcDbEntity
  8
部品1
 48
50.0
100
AcDbLine
 10
11479.01179134184
 20
4950.956185796056
 30
0.0
 11
11481.51179134184
 21
4931.556185796054
 31
0.0
  0
LINE
  5
16C78
330
747D
100
AcDbEntity
  8
部品1
100
AcDbLine
 10
11522.08241933505
 20
4931.556185796051
 30
0.0
 11
11481.51179134184
 21
4931.556185796051
 31
0.0
  0
LINE
  5
16C79
330
747D
100
AcDbEntity
  8
部品1
100
AcDbLine
 10
11038.01179134184
 20
4950.95618579606
 30
0.0
 11
11038.01179134184
 21
4853.545118287495
 31
0.0
  0
LINE
  5
16C7A
330
747D
100
AcDbEntity
  8
部品1
100
AcDbLine
 10
11056.01179134184
 20
4950.95618579607
 30
0.0
 11
11056.01179134184
 21
4853.545118287495
 31
0.0
  0
LINE
  5
16C7B
330
747D
100
AcDbEntity
  8
部品1
 48
50.0
100
AcDbLine
 10
11035.01179134185
 20
4950.95618579607
 30
0.0
 11
11059.01179134185
 21
4950.95618579607
 31
0.0
  0
LINE
  5
16C7C
330
747D
100
AcDbEntity
  8
部品1
 48
50.0
100
AcDbLine
 10
11035.01179134185
 20
4950.95618579607
 30
0.0
 11
11033.80045113566
 21
4941.55618579607
 31
0.0
  0
LINE
  5
16C7D
330
747D
100
AcDbEntity
  8
部品1
 48
50.0
100
AcDbLine
 10
11019.80045113566
 20
4941.55618579607
 30
0.0
 11
11033.80045113566
 21
4941.55618579607
 31
0.0
  0
LINE
  5
16C7E
330
747D
100
AcDbEntity
  8
部品1
 48
50.0
100
AcDbLine
 10
11019.80045113566
 20
4941.55618579607
 30
0.0
 11
11018.51179134185
 21
4931.556185796069
 31
0.0
  0
LINE
  5
16C7F
330
747D
100
AcDbEntity
  8
部品1
 48
50.0
100
AcDbLine
 10
11059.01179134185
 20
4950.95618579607
 30
0.0
 11
11061.51179134185
 21
4931.556185796069
 31
0.0
  0
LINE
  5
16C80
330
747D
100
AcDbEntity
  8
部品1
100
AcDbLine
 10
11205.01179134185
 20
4931.556185796069
 30
0.0
 11
11061.51179134184
 21
4931.556185796069
 31
0.0
  0
LINE
  5
16C81
330
747D
100
AcDbEntity
  8
部品1
100
AcDbLine
 10
11278.01179134185
 20
4931.556185796069
 30
0.0
 11
11254.01179134185
 21
4931.556185796069
 31
0.0
  0
LINE
  5
16C82
330
747D
100
AcDbEntity
  8
部品1
 48
50.0
100
AcDbLine
 10
11243.51179134185
 20
4950.956185796075
 30
0.0
 11
11254.01179134185
 21
4931.556185796073
 31
0.0
  0
LINE
  5
16C83
330
747D
100
AcDbEntity
  8
部品1
 48
50.0
100
AcDbLine
 10
11215.51179134185
 20
4950.956185796075
 30
0.0
 11
11205.01179134185
 21
4931.556185796073
 31
0.0
  0
LINE
  5
16C84
330
747D
100
AcDbEntity
  8
部品1
 48
50.0
100
AcDbLine
 10
11215.51179134185
 20
4950.956185796075
 30
0.0
 11
11243.51179134184
 21
4950.956185796075
 31
0.0
  0
LINE
  5
16C85
330
747D
100
AcDbEntity
  8
部品1
 48
50.0
100
AcDbLine
 10
11288.51179134185
 20
4950.956185796075
 30
0.0
 11
11278.01179134185
 21
4931.556185796073
 31
0.0
  0
LINE
  5
16C86
330
747D
100
AcDbEntity
  8
部品1
 48
50.0
100
AcDbLine
 10
11316.51179134185
 20
4950.956185796075
 30
0.0
 11
11327.01179134185
 21
4931.556185796073
 31
0.0
  0
LINE
  5
16C87
330
747D
100
AcDbEntity
  8
部品1
 48
50.0
100
AcDbLine
 10
11288.51179134185
 20
4950.956185796075
 30
0.0
 11
11316.51179134185
 21
4950.956185796075
 31
0.0
  0
LINE
  5
16C88
330
747D
100
AcDbEntity
  8
部品1
100
AcDbLine
 10
11242.01179134186
 20
4950.95618579607
 30
0.0
 11
11242.01179134186
 21
4853.545118287499
 31
0.0
  0
LINE
  5
16C89
330
747D
100
AcDbEntity
  8
部品1
100
AcDbLine
 10
11217.01179134185
 20
4950.95618579607
 30
0.0
 11
11217.01179134185
 21
4853.545118287499
 31
0.0
  0
LINE
  5
16C8A
330
747D
100
AcDbEntity
  8
部品1
100
AcDbLine
 10
11290.01179134186
 20
4950.95618579607
 30
0.0
 11
11290.01179134186
 21
4853.545118287499
 31
0.0
  0
LINE
  5
16C8B
330
747D
100
AcDbEntity
  8
部品1
100
AcDbLine
 10
11315.01179134186
 20
4950.95618579607
 30
0.0
 11
11315.01179134186
 21
4853.545118287499
 31
0.0
  0
LINE
  5
16C8C
330
747D
100
AcDbEntity
  8
部品1
100
AcDbLine
 10
11438.51179134184
 20
4931.556185796054
 30
0.0
 11
11327.01179134186
 21
4931.556185796054
 31
0.0
  0
LINE
  5
16C8D
330
747D
100
AcDbEntity
  8
細線
 48
50.0
100
AcDbLine
 10
9024.511791341859
 20
4720.956185787583
 30
0.0
 11
9024.511791341859
 21
2630.956185787584
 31
0.0
  0
LINE
  5
16C8E
330
747D
100
AcDbEntity
  8
細線
 48
50.0
100
AcDbLine
 10
9009.511791341861
 20
4720.956185787583
 30
0.0
 11
9009.511791341861
 21
2630.956185787584
 31
0.0
  0
LINE
  5
16C8F
330
747D
100
AcDbEntity
  8
細線
 48
50.0
100
AcDbLine
 10
9149.511791341859
 20
4720.956185787583
 30
0.0
 11
9149.511791341859
 21
2630.956185787584
 31
0.0
  0
LINE
  5
16C90
330
747D
100
AcDbEntity
  8
細線
 48
50.0
100
AcDbLine
 10
9164.51179134186
 20
4720.956185787583
 30
0.0
 11
9164.51179134186
 21
2630.956185787584
 31
0.0
  0
LINE
  5
16C91
330
747D
100
AcDbEntity
  8
細線
 48
50.0
100
AcDbLine
 10
9304.511791341859
 20
4720.956185787583
 30
0.0
 11
9304.511791341859
 21
2630.956185787584
 31
0.0
  0
LINE
  5
16C92
330
747D
100
AcDbEntity
  8
細線
 48
50.0
100
AcDbLine
 10
9289.51179134186
 20
4720.956185787583
 30
0.0
 11
9289.51179134186
 21
2630.956185787584
 31
0.0
  0
TEXT
  5
16C94
330
747D
100
AcDbEntity
  8
部品1
100
AcDbText
 10
3094.983403673148
 20
2517.063089393485
 30
0.0
 40
125.0
  1
▽G.L
  7
STYLE2
100
AcDbText
  0
TEXT
  5
16C95
330
747D
100
AcDbEntity
  8
部品1
100
AcDbText
 10
5578.262213553707
 20
1599.02439359165
 30
0.0
 40
135.0
  1
側面図
  7
STYLE2
100
AcDbText
  0
LINE
  5
16C96
330
747D
100
AcDbEntity
  8
部品1
100
AcDbLine
 10
5488.8161121301
 20
1791.917922810173
 30
0.0
 11
5488.8161121301
 21
1552.02560126464
 31
0.0
  0
LINE
  5
16C97
330
747D
100
AcDbEntity
  8
部品1
100
AcDbLine
 10
5488.8161121301
 20
1552.02560126464
 30
0.0
 11
6252.286778358539
 21
1552.02560126464
 31
0.0
  0
LINE
  5
16C98
330
747D
100
AcDbEntity
  8
部品1
100
AcDbLine
 10
6252.286778358539
 20
1552.02560126464
 30
0.0
 11
6252.286778358539
 21
1791.917922810173
 31
0.0
  0
LINE
  5
16C99
330
747D
100
AcDbEntity
  8
部品1
100
AcDbLine
 10
6252.286778358539
 20
1791.917922810173
 30
0.0
 11
5488.8161121301
 21
1791.917922810173
 31
0.0
  0
LINE
  5
16C9A
330
747D
100
AcDbEntity
  8
部品1
100
AcDbLine
 10
4975.55144524432
 20
4720.956185787583
 30
0.0
 11
6765.551445244319
 21
4720.956185787583
 31
0.0
  0
LINE
  5
16C9B
330
747D
100
AcDbEntity
  8
部品1
100
AcDbLine
 10
4975.55144524432
 20
2630.956185787584
 30
0.0
 11
6765.551445244324
 21
2630.956185787584
 31
0.0
  0
LINE
  5
16C9C
330
747D
100
AcDbEntity
  8
部品1
100
AcDbLine
 10
4975.55144524432
 20
2580.956185787584
 30
0.0
 11
4983.051445244321
 21
2580.956185787584
 31
0.0
  0
LINE
  5
16C9D
330
747D
100
AcDbEntity
  8
部品1
100
AcDbLine
 10
5030.55144524432
 20
4720.956185787583
 30
0.0
 11
5030.55144524432
 21
2630.956185787584
 31
0.0
  0
LINE
  5
16C9E
330
747D
100
AcDbEntity
  8
部品1
100
AcDbLine
 10
4975.55144524432
 20
4812.814705229832
 30
0.0
 11
4975.55144524432
 21
2480.956185787583
 31
0.0
  0
DIMENSION
  5
16C9F
330
747D
100
AcDbEntity
  8
寸法
100
AcDbDimension
  2
*D16
 10
4351.898736086022
 20
2630.956185787584
 30
0.0
 11
4351.89873608602
 21
3740.956185787584
 31
0.0
 70
   160
 71
     5
 42
2090.0
  3
INABA_S40G
100
AcDbAlignedDimension
 13
4975.55144524432
 23
4720.956185787583
 33
0.0
 14
4975.55144524432
 24
2630.956185787584
 34
0.0
 50
90.0
100
AcDbRotatedDimension
1001
ACAD
1000
DSTYLE
1002
{
1070
   174
1070
     0
1070
   272
1070
     1
1070
   288
1070
     0
1070
   341
1005
0
1002
}
  0
DIMENSION
  5
16CA0
330
747D
100
AcDbEntity
  8
寸法
100
AcDbDimension
  2
*D17
 10
4066.91206331496
 20
4955.956185787587
 30
0.0
 11
4066.912063314959
 21
3740.956185787584
 31
0.0
 70
   160
 71
     5
 42
2375.000000000003
  3
INABA_S40G
100
AcDbAlignedDimension
 13
4975.55144524432
 23
2580.956185787584
 33
0.0
 14
4915.551445244321
 24
4955.956185787587
 34
0.0
 50
90.0
100
AcDbRotatedDimension
1001
ACAD
1000
DSTYLE
1002
{
1070
   174
1070
     0
1070
   272
1070
     1
1070
   288
1070
     0
1070
   341
1005
0
1002
}
  0
DIMENSION
  5
16CA1
330
747D
100
AcDbEntity
  8
寸法
100
AcDbDimension
  2
*D18
 10
4066.912063314961
 20
2480.956185787583
 30
0.0
 11
4066.912063314961
 21
2244.908941693093
 31
0.0
 70
   160
 71
     5
 42
100.0
  3
INABA_S40G
100
AcDbAlignedDimension
 13
4920.551445244321
 23
2580.956185787584
 33
0.0
 14
4351.898736086023
 24
2480.956185787583
 34
0.0
 50
90.0
100
AcDbRotatedDimension
1001
ACAD
1000
DSTYLE
1002
{
1070
   174
1070
     0
1070
   272
1070
     1
1070
   288
1070
     0
1070
   341
1005
0
1002
}
  0
DIMENSION
  5
16CA2
330
747D
100
AcDbEntity
  8
寸法
100
AcDbDimension
  2
*D19
 10
4351.898736086023
 20
2580.956185787584
 30
0.0
 11
4351.898736086023
 21
2274.908941693093
 31
0.0
 70
   160
 71
     5
 42
50.0
  3
INABA_S40G
100
AcDbAlignedDimension
 13
4975.55144524432
 23
2630.956185787584
 33
0.0
 14
4920.551445244321
 24
2580.956185787584
 34
0.0
 50
90.0
100
AcDbRotatedDimension
1001
ACAD
1000
DSTYLE
1002
{
1070
   174
1070
     0
1070
   272
1070
     1
1070
   288
1070
     0
1070
   341
1005
0
1002
}
  0
LINE
  5
16CA3
330
747D
100
AcDbEntity
  8
部品1
100
AcDbLine
 10
5450.551445244321
 20
4720.956185787583
 30
0.0
 11
5450.551445244321
 21
2630.956185787584
 31
0.0
  0
LINE
  5
16CA4
330
747D
100
AcDbEntity
  8
部品1
100
AcDbLine
 10
6765.551445244319
 20
4775.837994473591
 30
0.0
 11
6765.551445244324
 21
2480.956185787583
 31
0.0
  0
LINE
  5
16CA5
330
747D
100
AcDbEntity
  8
部品1
100
AcDbLine
 10
6710.551445244324
 20
4720.956185787583
 30
0.0
 11
6710.551445244324
 21
2630.956185787584
 31
0.0
  0
DIMENSION
  5
16CA6
330
747D
100
AcDbEntity
  8
寸法
100
AcDbDimension
  2
*D20
 10
7377.721541006748
 20
4900.956185787584
 30
0.0
 11
7377.721541006747
 21
3740.956185787584
 31
0.0
 70
   160
 71
     5
 42
2320.000000000001
  3
INABA_S40G
100
AcDbAlignedDimension
 13
6842.551445244324
 23
2580.956185787584
 33
0.0
 14
6845.551445244321
 24
4900.956185787584
 34
0.0
 50
90.0
100
AcDbRotatedDimension
1001
ACAD
1000
DSTYLE
1002
{
1070
   174
1070
     0
1070
   272
1070
     1
1070
   288
1070
     0
1070
   341
1005
0
1002
}
  0
DIMENSION
  5
16CA7
330
747D
100
AcDbEntity
  8
寸法
 48
50.0
100
AcDbDimension
  2
*D21
 10
4975.55144524432
 20
5355.049355127057
 30
0.0
 11
5885.147093920801
 21
5355.049355127057
 31
0.0
 70
   160
  1
柱外寸法<>
 71
     5
 42
1790.0
  3
INABA_S40G
100
AcDbAlignedDimension
 13
6765.551445244319
 23
4902.766865399235
 33
0.0
 14
4975.55144524432
 24
4951.95780391056
 34
0.0
100
AcDbRotatedDimension
1001
ACAD
1000
DSTYLE
1002
{
1070
   174
1070
     0
1070
   272
1070
     1
1070
   288
1070
     0
1070
   341
1005
0
1002
}
  0
DIMENSION
  5
16CA8
330
747D
100
AcDbEntity
  8
寸法
 48
50.0
100
AcDbDimension
  2
*D22
 10
4915.551445244321
 20
5354.613639366887
 30
0.0
 11
4605.91364996873
 21
5354.613639366887
 31
0.0
 70
   160
 71
     5
 42
60.0
  3
INABA_S40G
100
AcDbAlignedDimension
 13
4975.55144524432
 23
4951.95780391056
 33
0.0
 14
4915.551445244321
 24
4955.956185787587
 34
0.0
100
AcDbRotatedDimension
1001
ACAD
1000
DSTYLE
1002
{
1070
   174
1070
     0
1070
   272
1070
     1
1070
   288
1070
     0
1070
   341
1005
0
1002
}
  0
DIMENSION
  5
16CA9
330
747D
100
AcDbEntity
  8
寸法
 48
50.0
100
AcDbDimension
  2
*D23
 10
4915.551445244321
 20
5571.575454745502
 30
0.0
 11
5821.35719649529
 21
5571.575454745502
 31
0.0
 70
   160
 71
     5
 42
1930.0
  3
INABA_S40G
100
AcDbAlignedDimension
 13
6845.551445244321
 23
4900.956185787584
 33
0.0
 14
4915.551445244321
 24
4955.956185787587
 34
0.0
100
AcDbRotatedDimension
1001
ACAD
1000
DSTYLE
1002
{
1070
   174
1070
     0
1070
   272
1070
     1
1070
   288
1070
     0
1070
   341
1005
0
1002
}
  0
LINE
  5
16CAA
330
747D
100
AcDbEntity
  8
破線
  6
HIDDEN
 48
5.0
100
AcDbLine
 10
6773.05144524432
 20
2325.956185787584
 30
0.0
 11
6703.051445244319
 21
2325.956185787584
 31
0.0
  0
LINE
  5
16CAB
330
747D
100
AcDbEntity
  8
破線
  6
HIDDEN
 48
5.0
100
AcDbLine
 10
6718.05144524432
 20
2475.956185787584
 30
0.0
 11
6703.051445244319
 21
2328.256185787583
 31
0.0
  0
LINE
  5
16CAC
330
747D
100
AcDbEntity
  8
破線
  6
HIDDEN
 48
5.0
100
AcDbLine
 10
6703.051445244319
 20
2328.256185787583
 30
0.0
 11
6703.051445244319
 21
2325.956185787584
 31
0.0
  0
LINE
  5
16CAD
330
747D
100
AcDbEntity
  8
破線
  6
HIDDEN
 48
5.0
100
AcDbLine
 10
6758.051445244321
 20
2475.956185787584
 30
0.0
 11
6773.05144524432
 21
2328.256185787583
 31
0.0
  0
LINE
  5
16CAE
330
747D
100
AcDbEntity
  8
破線
  6
HIDDEN
 48
5.0
100
AcDbLine
 10
6773.05144524432
 20
2328.256185787583
 30
0.0
 11
6773.05144524432
 21
2325.956185787584
 31
0.0
  0
LINE
  5
16CAF
330
747D
100
AcDbEntity
  8
破線
  6
HIDDEN
 48
5.0
100
AcDbLine
 10
4968.05144524432
 20
2325.956185787584
 30
0.0
 11
5038.05144524432
 21
2325.956185787584
 31
0.0
  0
LINE
  5
16CB0
330
747D
100
AcDbEntity
  8
破線
  6
HIDDEN
 48
5.0
100
AcDbLine
 10
4968.05144524432
 20
2328.256185787583
 30
0.0
 11
4968.05144524432
 21
2325.956185787584
 31
0.0
  0
LINE
  5
16CB1
330
747D
100
AcDbEntity
  8
破線
  6
HIDDEN
 48
5.0
100
AcDbLine
 10
5038.05144524432
 20
2328.256185787583
 30
0.0
 11
5038.05144524432
 21
2325.956185787584
 31
0.0
  0
LINE
  5
16CB2
330
747D
100
AcDbEntity
  8
破線
  6
HIDDEN
 48
5.0
100
AcDbLine
 10
4983.051445244321
 20
2475.956185787584
 30
0.0
 11
4968.05144524432
 21
2328.256185787583
 31
0.0
  0
LINE
  5
16CB3
330
747D
100
AcDbEntity
  8
破線
  6
HIDDEN
 48
5.0
100
AcDbLine
 10
5023.05144524432
 20
2475.956185787584
 30
0.0
 11
5038.05144524432
 21
2328.256185787583
 31
0.0
  0
LINE
  5
16CB4
330
747D
100
AcDbEntity
  8
部品1
 48
50.0
100
AcDbLine
 10
4983.051445244321
 20
2620.956185787584
 30
0.0
 11
4983.051445244321
 21
2480.956185787583
 31
0.0
  0
LINE
  5
16CB5
330
747D
100
AcDbEntity
  8
部品1
 48
50.0
100
AcDbLine
 10
5023.05144524432
 20
2620.956185787584
 30
0.0
 11
5023.05144524432
 21
2480.956185787583
 31
0.0
  0
LINE
  5
16CB6
330
747D
100
AcDbEntity
  8
部品1
100
AcDbLine
 10
4988.05144524432
 20
2625.956185787583
 30
0.0
 11
5018.051445244321
 21
2625.956185787583
 31
0.0
  0
ARC
  5
16CB7
330
747D
100
AcDbEntity
  8
部品1
 48
50.0
100
AcDbCircle
 10
4988.05144524432
 20
2620.956185787584
 30
0.0
 40
5.0
100
AcDbArc
 50
90.0
 51
180.0
  0
ARC
  5
16CB8
330
747D
100
AcDbEntity
  8
部品1
 48
50.0
100
AcDbCircle
 10
5018.051445244321
 20
2620.956185787584
 30
0.0
 40
5.0
100
AcDbArc
 50
0.0
 51
90.0
  0
LINE
  5
16CB9
330
747D
100
AcDbEntity
  8
部品1
 48
50.0
100
AcDbLine
 10
6718.05144524432
 20
2620.956185787584
 30
0.0
 11
6718.05144524432
 21
2480.956185787583
 31
0.0
  0
LINE
  5
16CBA
330
747D
100
AcDbEntity
  8
部品1
 48
50.0
100
AcDbLine
 10
6758.051445244321
 20
2620.956185787584
 30
0.0
 11
6758.051445244321
 21
2480.956185787583
 31
0.0
  0
LINE
  5
16CBB
330
747D
100
AcDbEntity
  8
部品1
100
AcDbLine
 10
6753.05144524432
 20
2625.956185787583
 30
0.0
 11
6723.05144524432
 21
2625.956185787583
 31
0.0
  0
ARC
  5
16CBC
330
747D
100
AcDbEntity
  8
部品1
 48
50.0
100
AcDbCircle
 10
6723.05144524432
 20
2620.956185787584
 30
0.0
 40
5.0
100
AcDbArc
 50
90.0
 51
180.0
  0
ARC
  5
16CBD
330
747D
100
AcDbEntity
  8
部品1
 48
50.0
100
AcDbCircle
 10
6753.05144524432
 20
2620.956185787584
 30
0.0
 40
5.0
100
AcDbArc
 50
0.0
 51
90.0
  0
LINE
  5
16CBE
330
747D
100
AcDbEntity
  8
破線
  6
HIDDEN
 48
5.0
100
AcDbLine
 10
6718.05144524432
 20
2480.956185787583
 30
0.0
 11
6718.05144524432
 21
2475.956185787584
 31
0.0
  0
LINE
  5
16CBF
330
747D
100
AcDbEntity
  8
破線
  6
HIDDEN
 48
5.0
100
AcDbLine
 10
6758.051445244321
 20
2480.956185787583
 30
0.0
 11
6758.051445244321
 21
2475.956185787584
 31
0.0
  0
LINE
  5
16CC0
330
747D
100
AcDbEntity
  8
破線
  6
HIDDEN
 48
5.0
100
AcDbLine
 10
4983.051445244328
 20
2480.956185787583
 30
0.0
 11
4983.051445244328
 21
2475.956185787584
 31
0.0
  0
LINE
  5
16CC1
330
747D
100
AcDbEntity
  8
破線
  6
HIDDEN
 48
5.0
100
AcDbLine
 10
5023.05144524432
 20
2480.956185787583
 30
0.0
 11
5023.05144524432
 21
2475.956185787584
 31
0.0
  0
LINE
  5
16CC2
330
747D
100
AcDbEntity
  8
部品1
100
AcDbLine
 10
6758.051445244321
 20
2580.956185787584
 30
0.0
 11
6765.551445244324
 21
2580.956185787584
 31
0.0
  0
LINE
  5
16CC3
330
747D
100
AcDbEntity
  8
部品1
100
AcDbLine
 10
5023.05144524432
 20
2580.956185787584
 30
0.0
 11
6718.05144524432
 21
2580.956185787584
 31
0.0
  0
LINE
  5
16CC4
330
747D
100
AcDbEntity
  8
細線
 48
50.0
100
AcDbLine
 10
5528.051445244321
 20
4720.956185787583
 30
0.0
 11
5528.051445244321
 21
2630.956185787584
 31
0.0
  0
LINE
  5
16CC5
330
747D
100
AcDbEntity
  8
細線
 48
50.0
100
AcDbLine
 10
5513.051445244321
 20
4720.956185787583
 30
0.0
 11
5513.051445244321
 21
2630.956185787584
 31
0.0
  0
LINE
  5
16CC6
330
747D
100
AcDbEntity
  8
細線
 48
50.0
100
AcDbLine
 10
5653.051445244321
 20
4720.956185787583
 30
0.0
 11
5653.051445244321
 21
2630.956185787584
 31
0.0
  0
LINE
  5
16CC7
330
747D
100
AcDbEntity
  8
細線
 48
50.0
100
AcDbLine
 10
5668.05144524432
 20
4720.956185787583
 30
0.0
 11
5668.05144524432
 21
2630.956185787584
 31
0.0
  0
LINE
  5
16CC8
330
747D
100
AcDbEntity
  8
細線
 48
50.0
100
AcDbLine
 10
5808.05144524432
 20
4720.956185787583
 30
0.0
 11
5808.05144524432
 21
2630.956185787584
 31
0.0
  0
LINE
  5
16CC9
330
747D
100
AcDbEntity
  8
細線
 48
50.0
100
AcDbLine
 10
5793.05144524432
 20
4720.956185787583
 30
0.0
 11
5793.05144524432
 21
2630.956185787584
 31
0.0
  0
LINE
  5
16CCA
330
747D
100
AcDbEntity
  8
細線
 48
50.0
100
AcDbLine
 10
5373.05144524432
 20
4720.956185787583
 30
0.0
 11
5373.05144524432
 21
2630.956185787584
 31
0.0
  0
LINE
  5
16CCB
330
747D
100
AcDbEntity
  8
細線
 48
50.0
100
AcDbLine
 10
5388.051445244321
 20
4720.956185787583
 30
0.0
 11
5388.051445244321
 21
2630.956185787584
 31
0.0
  0
LINE
  5
16CCC
330
747D
100
AcDbEntity
  8
細線
 48
50.0
100
AcDbLine
 10
5248.05144524432
 20
4720.956185787583
 30
0.0
 11
5248.05144524432
 21
2630.956185787584
 31
0.0
  0
LINE
  5
16CCD
330
747D
100
AcDbEntity
  8
細線
 48
50.0
100
AcDbLine
 10
5233.051445244321
 20
4720.956185787583
 30
0.0
 11
5233.051445244321
 21
2630.956185787584
 31
0.0
  0
LINE
  5
16CCE
330
747D
100
AcDbEntity
  8
細線
 48
50.0
100
AcDbLine
 10
5093.05144524432
 20
4720.956185787583
 30
0.0
 11
5093.05144524432
 21
2630.956185787584
 31
0.0
  0
LINE
  5
16CCF
330
747D
100
AcDbEntity
  8
細線
 48
50.0
100
AcDbLine
 10
5108.051445244321
 20
4720.956185787583
 30
0.0
 11
5108.051445244321
 21
2630.956185787584
 31
0.0
  0
LINE
  5
16CD0
330
747D
100
AcDbEntity
  8
部品1
100
AcDbLine
 10
4923.096431601283
 20
4954.67392112185
 30
0.0
 11
6838.163322105782
 21
4899.596983496724
 31
0.0
  0
LINE
  5
16CD1
330
747D
100
AcDbEntity
  8
部品1
100
AcDbLine
 10
4930.894009846273
 20
4813.737210856552
 30
0.0
 11
6820.215145784165
 21
4774.708785622346
 31
0.0
  0
LINE
  5
16CD2
330
747D
100
AcDbEntity
  8
細線
 48
50.0
100
AcDbLine
 10
4948.55144524432
 20
4953.355862162987
 30
0.0
 11
4943.262343688814
 21
4813.270229535634
 31
0.0
  0
LINE
  5
16CD3
330
747D
100
AcDbEntity
  8
細線
 48
50.0
100
AcDbLine
 10
6812.55144524432
 20
4900.92316482288
 30
0.0
 11
6807.803762356321
 21
4775.177392332135
 31
0.0
  0
LINE
  5
16CD4
330
747D
100
AcDbEntity
  8
部品1
 48
50.0
100
AcDbLine
 10
4915.735731157427
 20
4947.549731952275
 30
0.0
 11
4916.115990935239
 21
4927.622767505863
 31
0.0
  0
LINE
  5
16CD5
330
747D
100
AcDbEntity
  8
部品1
 48
50.0
100
AcDbLine
 10
4919.184763041485
 20
4924.047486012392
 30
0.0
 11
4920.888664532849
 21
4834.756989305746
 31
0.0
  0
LINE
  5
16CD6
330
747D
100
AcDbEntity
  8
細線
 48
50.0
100
AcDbLine
 10
4916.590868345134
 20
4926.973267628945
 30
0.0
 11
6842.226853090302
 21
4871.349062988118
 31
0.0
  0
LINE
  5
16CD7
330
747D
100
AcDbEntity
  8
細線
 48
50.0
100
AcDbLine
 10
4921.351343582421
 20
4834.111755931083
 30
0.0
 11
6831.355008013055
 21
4794.302436956588
 31
0.0
  0
LINE
  5
16CD8
330
747D
100
AcDbEntity
  8
部品1
 48
50.0
100
AcDbLine
 10
4923.957436639092
 20
4831.181707812275
 30
0.0
 11
4924.159389259523
 21
4820.598672419181
 31
0.0
  0
ARC
  5
16CD9
330
747D
100
AcDbEntity
  8
部品1
 48
50.0
100
AcDbCircle
 10
4922.734456985767
 20
4947.683286359703
 30
0.0
 40
7.0
100
AcDbArc
 50
87.03587545283093
 51
181.0932240292635
  0
ARC
  5
16CDA
330
747D
100
AcDbEntity
  8
部品1
 48
50.0
100
AcDbCircle
 10
4931.158115087863
 20
4820.732226826609
 30
0.0
 40
7.0
100
AcDbArc
 50
181.0932240292635
 51
267.8377559869492
  0
ARC
  5
16CDB
330
747D
100
AcDbEntity
  8
部品1
100
AcDbCircle
 10
4920.957982712661
 20
4831.12447020909
 30
0.0
 40
3.0
100
AcDbArc
 50
1.093224029263536
 51
80.18775403148449
  0
ARC
  5
16CDC
330
747D
100
AcDbEntity
  8
部品1
100
AcDbCircle
 10
4916.185309115055
 20
4923.990248409207
 30
0.0
 40
3.0
100
AcDbArc
 50
1.093224029263536
 51
80.18775403169875
  0
ARC
  5
16CDD
330
747D
100
AcDbEntity
  8
部品1
100
AcDbCircle
 10
4916.815863518078
 20
4927.636122946608
 30
0.0
 40
0.7
100
AcDbArc
 50
181.0932240292114
 51
260.1877540314845
  0
ARC
  5
16CDE
330
747D
100
AcDbEntity
  8
部品1
100
AcDbCircle
 10
4921.588537115687
 20
4834.770344746487
 30
0.0
 40
0.7
100
AcDbArc
 50
181.0932240292114
 51
260.1877540314845
  0
LINE
  5
16CDF
330
747D
100
AcDbEntity
  8
部品1
 48
50.0
100
AcDbLine
 10
6844.765348055021
 20
4891.897338061802
 30
0.0
 11
6842.734726864051
 21
4871.952296804024
 31
0.0
  0
LINE
  5
16CE0
330
747D
100
AcDbEntity
  8
部品1
 48
50.0
100
AcDbLine
 10
6839.38216037957
 20
4868.641662731114
 30
0.0
 11
6831.875381114733
 21
4794.909041986101
 31
0.0
  0
LINE
  5
16CE1
330
747D
100
AcDbEntity
  8
部品1
 48
50.0
100
AcDbLine
 10
6828.522814630247
 20
4791.598407913187
 30
0.0
 11
6827.443251590506
 21
4780.994790919629
 31
0.0
  0
ARC
  5
16CE2
330
747D
100
AcDbEntity
  8
部品1
 48
50.0
100
AcDbCircle
 10
6837.801347490266
 20
4892.606348734577
 30
0.0
 40
7.0
100
AcDbArc
 50
354.1866997665532
 51
87.03587545283093
  0
ARC
  5
16CE3
330
747D
100
AcDbEntity
  8
部品1
 48
50.0
100
AcDbCircle
 10
6820.479251025751
 20
4781.703801592402
 30
0.0
 40
7.0
100
AcDbArc
 50
267.8377559869492
 51
354.1866997665532
  0
ARC
  5
16CE4
330
747D
100
AcDbEntity
  8
部品1
100
AcDbCircle
 10
6831.507386300855
 20
4791.294546196286
 30
0.0
 40
3.0
100
AcDbArc
 50
95.0921697642102
 51
174.1866997665532
  0
ARC
  5
16CE5
330
747D
100
AcDbEntity
  8
部品1
100
AcDbCircle
 10
6842.36673205018
 20
4868.337801014209
 30
0.0
 40
3.0
100
AcDbArc
 50
95.0921697642102
 51
174.1866997665532
  0
ARC
  5
16CE6
330
747D
100
AcDbEntity
  8
部品1
100
AcDbCircle
 10
6842.038326807578
 20
4872.0231978713
 30
0.0
 40
0.7
100
AcDbArc
 50
275.0921697642102
 51
354.1866997665532
  0
ARC
  5
16CE7
330
747D
100
AcDbEntity
  8
部品1
100
AcDbCircle
 10
6831.178981058259
 20
4794.979943053376
 30
0.0
 40
0.7
100
AcDbArc
 50
275.0921697642102
 51
354.1866997667087
  0
DIMENSION
  5
16CE8
330
747D
100
AcDbEntity
  8
寸法
 48
50.0
100
AcDbDimension
  2
*D24
 10
6845.551445244321
 20
5354.613639366887
 30
0.0
 11
7051.59868933881
 21
5354.613639366887
 31
0.0
 70
   160
 71
     5
 42
80.0
  3
INABA_S40G
100
AcDbAlignedDimension
 13
6765.551445244319
 23
4902.766865399235
 33
0.0
 14
6845.551445244321
 24
4900.956185787584
 34
0.0
100
AcDbRotatedDimension
1001
ACAD
1000
DSTYLE
1002
{
1070
   174
1070
     0
1070
   272
1070
     1
1070
   288
1070
     0
1070
   341
1005
0
1002
}
  0
LINE
  5
16CE9
330
747D
100
AcDbEntity
  8
部品1
 48
50.0
100
AcDbLine
 10
5720.55144524432
 20
5086.824324888863
 30
0.0
 11
6020.55144524432
 21
5086.824324888863
 31
0.0
  0
LINE
  5
16CEA
330
747D
100
AcDbEntity
  8
部品1
 48
50.0
100
AcDbLine
 10
6020.55144524432
 20
5086.824324888863
 30
0.0
 11
6020.55144524432
 21
5070.624324888862
 31
0.0
  0
TEXT
  5
16CEB
330
747D
100
AcDbEntity
  8
部品1
 48
50.0
100
AcDbText
 10
5708.819280468047
 20
5122.708347041296
 30
0.0
 40
120.0
  1
1000
  7
STYLE1
100
AcDbText
  0
TEXT
  5
16CEC
330
747D
100
AcDbEntity
  8
部品1
 48
50.0
100
AcDbText
 10
6197.644292532179
 20
4985.207088823013
 30
0.0
 40
120.0
  1
54
 50
90.0
  7
STYLE1
100
AcDbText
  0
LINE
  5
16CED
330
747D
100
AcDbEntity
  8
部品1
100
AcDbLine
 10
5870.55144524432
 20
4720.956185787583
 30
0.0
 11
5870.55144524432
 21
2630.956185787584
 31
0.0
  0
LINE
  5
16CEE
330
747D
100
AcDbEntity
  8
細線
 48
50.0
100
AcDbLine
 10
6213.051445244325
 20
4720.956185787583
 30
0.0
 11
6213.051445244325
 21
2630.956185787584
 31
0.0
  0
LINE
  5
16CEF
330
747D
100
AcDbEntity
  8
細線
 48
50.0
100
AcDbLine
 10
6228.051445244324
 20
4720.956185787583
 30
0.0
 11
6228.051445244324
 21
2630.956185787584
 31
0.0
  0
LINE
  5
16CF0
330
747D
100
AcDbEntity
  8
細線
 48
50.0
100
AcDbLine
 10
6088.051445244325
 20
4720.956185787583
 30
0.0
 11
6088.051445244325
 21
2630.956185787584
 31
0.0
  0
LINE
  5
16CF1
330
747D
100
AcDbEntity
  8
細線
 48
50.0
100
AcDbLine
 10
6073.051445244324
 20
4720.956185787583
 30
0.0
 11
6073.051445244324
 21
2630.956185787584
 31
0.0
  0
LINE
  5
16CF2
330
747D
100
AcDbEntity
  8
細線
 48
50.0
100
AcDbLine
 10
5933.051445244323
 20
4720.956185787583
 30
0.0
 11
5933.051445244323
 21
2630.956185787584
 31
0.0
  0
LINE
  5
16CF3
330
747D
100
AcDbEntity
  8
細線
 48
50.0
100
AcDbLine
 10
5948.051445244324
 20
4720.956185787583
 30
0.0
 11
5948.051445244324
 21
2630.956185787584
 31
0.0
  0
LINE
  5
16CF4
330
747D
100
AcDbEntity
  8
部品1
100
AcDbLine
 10
6290.551445244321
 20
4720.956185787583
 30
0.0
 11
6290.551445244321
 21
2630.956185787584
 31
0.0
  0
LINE
  5
16CF5
330
747D
100
AcDbEntity
  8
細線
 48
50.0
100
AcDbLine
 10
6368.051445244327
 20
4720.956185787583
 30
0.0
 11
6368.051445244327
 21
2630.956185787584
 31
0.0
  0
LINE
  5
16CF6
330
747D
100
AcDbEntity
  8
細線
 48
50.0
100
AcDbLine
 10
6353.051445244328
 20
4720.956185787583
 30
0.0
 11
6353.051445244328
 21
2630.956185787584
 31
0.0
  0
LINE
  5
16CF7
330
747D
100
AcDbEntity
  8
細線
 48
50.0
100
AcDbLine
 10
6493.051445244327
 20
4720.956185787583
 30
0.0
 11
6493.051445244327
 21
2630.956185787584
 31
0.0
  0
LINE
  5
16CF8
330
747D
100
AcDbEntity
  8
細線
 48
50.0
100
AcDbLine
 10
6508.051445244328
 20
4720.956185787583
 30
0.0
 11
6508.051445244328
 21
2630.956185787584
 31
0.0
  0
LINE
  5
16CF9
330
747D
100
AcDbEntity
  8
細線
 48
50.0
100
AcDbLine
 10
6648.051445244327
 20
4720.956185787583
 30
0.0
 11
6648.051445244327
 21
2630.956185787584
 31
0.0
  0
LINE
  5
16CFA
330
747D
100
AcDbEntity
  8
細線
 48
50.0
100
AcDbLine
 10
6633.051445244328
 20
4720.956185787583
 30
0.0
 11
6633.051445244328
 21
2630.956185787584
 31
0.0
  0
DIMENSION
  5
16CFB
330
747D
100
AcDbEntity
  8
寸法
 48
50.0
100
AcDbDimension
  2
*D25
 10
4354.943038475958
 20
4830.301444660917
 30
0.0
 11
4365.608513734883
 21
5201.148107902613
 31
0.0
 70
   161
 71
     5
 42
140.9999999999982
  3
INABA_S40G
100
AcDbAlignedDimension
 13
4934.9474654029
 23
4954.678934622263
 33
0.0
 14
4930.894009846273
 24
4813.737210856552
 34
0.0
1001
ACAD
1000
DSTYLE
1002
{
1070
   174
1070
     0
1070
   272
1070
     1
1070
   288
1070
     0
1070
   341
1005
0
1002
}
  0
LINE
  5
16CFC
330
747D
100
AcDbEntity
  8
部品1
 48
50.0
100
AcDbLine
 10
5720.55144524432
 20
5086.824324888863
 30
0.0
 11
6020.55144524432
 21
5070.624324888862
 31
0.0
  0
DIMENSION
  5
16CFD
330
747D
100
AcDbEntity
  8
寸法
 48
50.0
100
AcDbDimension
  2
*D26
 10
4753.551441997687
 20
2480.956185787583
 30
0.0
 11
4753.551441997686
 21
2380.956185787584
 31
0.0
 70
   160
 71
     5
 42
200.0
  3
INABA_S40G
100
AcDbAlignedDimension
 13
4903.051445244324
 23
2280.956185787584
 33
0.0
 14
4878.05144524432
 24
2480.956185787583
 34
0.0
 50
90.0
100
AcDbRotatedDimension
1001
ACAD
1000
DSTYLE
1002
{
1070
   174
1070
     0
1070
   272
1070
     1
1070
   288
1070
     0
1070
   341
1005
0
1002
}
  0
LINE
  5
16CFE
330
747D
100
AcDbEntity
  8
破線
 48
5.0
100
AcDbLine
 10
5103.051445244321
 20
2280.956185787582
 30
0.0
 11
4903.051445244324
 21
2280.956185787582
 31
0.0
  0
LINE
  5
16CFF
330
747D
100
AcDbEntity
  8
破線
 48
5.0
100
AcDbLine
 10
5103.051445244321
 20
2480.956185787583
 30
0.0
 11
5103.051445244321
 21
2280.956185787582
 31
0.0
  0
LINE
  5
16D00
330
747D
100
AcDbEntity
  8
破線
 48
5.0
100
AcDbLine
 10
4903.051445244321
 20
2480.956185787583
 30
0.0
 11
4903.051445244324
 21
2280.956185787582
 31
0.0
  0
DIMENSION
  5
16D01
330
747D
100
AcDbEntity
  8
寸法
 48
50.0
100
AcDbDimension
  2
*D27
 10
4903.051445244324
 20
1994.908856487205
 30
0.0
 11
5003.051445244322
 21
1994.908856487205
 31
0.0
 70
   160
 71
     5
 42
199.9999999999963
  3
INABA_S40G
100
AcDbAlignedDimension
 13
5103.051445244321
 23
2280.95618578758
 33
0.0
 14
4903.051445244324
 24
2280.956185787584
 34
0.0
100
AcDbRotatedDimension
  0
LINE
  5
16D02
330
747D
100
AcDbEntity
  8
破線
 48
5.0
100
AcDbLine
 10
6838.051445244328
 20
2480.956185787583
 30
0.0
 11
6838.051445244324
 21
2280.956185787582
 31
0.0
  0
LINE
  5
16D03
330
747D
100
AcDbEntity
  8
破線
 48
5.0
100
AcDbLine
 10
6838.051445244324
 20
2280.956185787582
 30
0.0
 11
6638.051445244328
 21
2280.956185787584
 31
0.0
  0
LINE
  5
16D04
330
747D
100
AcDbEntity
  8
破線
 48
5.0
100
AcDbLine
 10
6638.051445244328
 20
2480.956185787583
 30
0.0
 11
6638.051445244328
 21
2280.956185787584
 31
0.0
  0
LINE
  5
16D05
330
747D
100
AcDbEntity
  8
部品1
 48
50.0
100
AcDbLine
 10
6765.551445244324
 20
4715.956185787583
 30
0.0
 11
6842.551445244324
 21
4705.956185787584
 31
0.0
  0
LINE
  5
16D06
330
747D
100
AcDbEntity
  8
部品1
 48
50.0
100
AcDbLine
 10
6842.551445244324
 20
4705.956185787584
 30
0.0
 11
6842.551445244324
 21
2480.956185787583
 31
0.0
  0
LINE
  5
16D07
330
747D
100
AcDbEntity
  8
部品1
 48
50.0
100
AcDbLine
 10
6842.551445244324
 20
2580.956185787584
 30
0.0
 11
6758.051445244324
 21
2580.956185787584
 31
0.0
  0
LINE
  5
16D08
330
747D
100
AcDbEntity
  8
部品1
100
AcDbLine
 10
6565.55144524432
 20
2580.956185787584
 30
0.0
 11
6565.55144524432
 21
2480.956185787583
 31
0.0
  0
LINE
  5
16D09
330
747D
100
AcDbEntity
  8
部品1
 48
50.0
100
AcDbLine
 10
5970.55144524432
 20
2580.956185787584
 30
0.0
 11
5970.55144524432
 21
2480.956185787583
 31
0.0
  0
LINE
  5
16D0A
330
747D
100
AcDbEntity
  8
部品1
 48
50.0
100
AcDbLine
 10
5770.55144524432
 20
2580.956185787584
 30
0.0
 11
5770.55144524432
 21
2480.956185787583
 31
0.0
  0
LINE
  5
16D0B
330
747D
100
AcDbEntity
  8
部品1
100
AcDbLine
 10
5175.55144524432
 20
2580.956185787584
 30
0.0
 11
5175.55144524432
 21
2480.956185787583
 31
0.0
  0
LINE
  5
1704C
330
747D
100
AcDbEntity
  8
部品1
 48
50.0
100
AcDbLine
 10
9414.011791341861
 20
3712.456185787586
 30
0.0
 11
9467.011791341858
 21
3712.456185787586
 31
0.0
  0
LINE
  5
171C3
330
747D
100
AcDbEntity
  8
補助
  6
PHANTOM
 62
   230
 48
50.0
100
AcDbLine
 10
140.0
 20
0.0
 30
0.0
 11
139.9999999999995
 21
11409.6
 31
0.0
  0
LINE
  5
173D8
330
747D
100
AcDbEntity
  8
寸法
 48
50.0
100
AcDbLine
 10
9802.214797623681
 20
7671.552170548334
 30
0.0
 11
9750.808789713579
 21
7671.552170548334
 31
0.0
  0
LINE
  5
173D9
330
747D
100
AcDbEntity
  8
寸法
 48
50.0
100
AcDbLine
 10
9750.808789713579
 20
7671.552170548334
 30
0.0
 11
9750.808789713579
 21
7702.862329200499
 31
0.0
  0
LINE
  5
173DA
330
747D
100
AcDbEntity
  8
寸法
 48
50.0
100
AcDbLine
 10
9750.808789713579
 20
7702.862329200499
 30
0.0
 11
9721.047457722155
 21
7702.862329200499
 31
0.0
  0
LINE
  5
173DB
330
747D
100
AcDbEntity
  8
寸法
 48
50.0
100
AcDbLine
 10
9721.047457722155
 20
7702.862329200499
 30
0.0
 11
9776.51179366863
 21
7740.441780129109
 31
0.0
  0
LINE
  5
173DC
330
747D
100
AcDbEntity
  8
寸法
 48
50.0
100
AcDbLine
 10
9831.976129615105
 20
7702.862329200499
 30
0.0
 11
9776.51179366863
 21
7740.441780129109
 31
0.0
  0
LINE
  5
173DD
330
747D
100
AcDbEntity
  8
寸法
 48
50.0
100
AcDbLine
 10
9802.214797623681
 20
7702.862329200499
 30
0.0
 11
9831.976129615105
 21
7702.862329200499
 31
0.0
  0
LINE
  5
173DE
330
747D
100
AcDbEntity
  8
寸法
 48
50.0
100
AcDbLine
 10
9802.214797623681
 20
7671.552170548334
 30
0.0
 11
9802.214797623681
 21
7702.862329200499
 31
0.0
  0
LINE
  5
173DF
330
747D
100
AcDbEntity
  8
寸法
 48
50.0
100
AcDbLine
 10
9750.808789713579
 20
7671.552170548334
 30
0.0
 11
9802.214797623681
 21
7671.552170548334
 31
0.0
  0
LINE
  5
173E0
330
747D
100
AcDbEntity
  8
寸法
 48
50.0
100
AcDbLine
 10
10081.38033190054
 20
7728.697761303156
 30
0.0
 11
10081.38033190054
 21
7675.034126721367
 31
0.0
  0
LINE
  5
173E1
330
747D
100
AcDbEntity
  8
寸法
 48
50.0
100
AcDbLine
 10
10170.66455049596
 20
7704.77412703367
 30
0.0
 11
10081.38033190054
 21
7728.697761303156
 31
0.0
  0
LINE
  5
173E2
330
747D
100
AcDbEntity
  8
寸法
 48
50.0
100
AcDbLine
 10
9951.512610320236
 20
7704.77412703367
 30
0.0
 11
10170.66455049596
 21
7704.77412703367
 31
0.0
  0
LINE
  5
173E3
330
747D
100
AcDbEntity
  8
細線
 48
50.0
100
AcDbLine
 10
10828.01179134184
 20
7870.015533928196
 30
0.0
 11
11455.01179134183
 21
7870.015533928196
 31
0.0
  0
LINE
  5
173E4
330
747D
100
AcDbEntity
  8
細線
 48
50.0
100
AcDbLine
 10
10174.01179599542
 20
7836.30676537412
 30
0.0
 11
11455.01179134183
 21
7836.30676537412
 31
0.0
  0
LINE
  5
173E5
330
747D
100
AcDbEntity
  8
細線
 48
50.0
100
AcDbLine
 10
10133.01179599543
 20
7865.711673370373
 30
0.0
 11
9379.011791341836
 21
7865.71167337037
 31
0.0
  0
LINE
  5
173E6
330
747D
100
AcDbEntity
  8
細線
100
AcDbLine
 10
11230.76178192538
 20
7889.515433893205
 30
0.0
 11
11233.09332144719
 21
7894.515436533166
 31
0.0
  0
LINE
  5
173E7
330
747D
100
AcDbEntity
  8
細線
100
AcDbLine
 10
11300.76179134183
 20
7889.51541897947
 30
0.0
 11
11298.43024486565
 21
7894.515436533151
 31
0.0
  0
LINE
  5
173E8
330
747D
100
AcDbEntity
  8
細線
100
AcDbLine
 10
11298.43024486565
 20
7894.515436533151
 30
0.0
 11
11233.09332144717
 21
7894.515436533136
 31
0.0
  0
LINE
  5
173E9
330
747D
100
AcDbEntity
  8
細線
100
AcDbLine
 10
11158.43024486565
 20
7894.515436533151
 30
0.0
 11
11093.09332144717
 21
7894.515436533136
 31
0.0
  0
LINE
  5
173EA
330
747D
100
AcDbEntity
  8
細線
100
AcDbLine
 10
11160.76179134183
 20
7889.51541897947
 30
0.0
 11
11158.43024486565
 21
7894.515436533151
 31
0.0
  0
LINE
  5
173EB
330
747D
100
AcDbEntity
  8
細線
100
AcDbLine
 10
11090.76178192538
 20
7889.515433893205
 30
0.0
 11
11093.09332144719
 21
7894.515436533166
 31
0.0
  0
LINE
  5
173EC
330
747D
100
AcDbEntity
  8
細線
100
AcDbLine
 10
10950.76179134183
 20
7889.51541897947
 30
0.0
 11
10953.09333086365
 21
7894.515421619431
 31
0.0
  0
LINE
  5
173ED
330
747D
100
AcDbEntity
  8
細線
100
AcDbLine
 10
11020.76180075829
 20
7889.515404065736
 30
0.0
 11
11018.4302542821
 21
7894.515421619416
 31
0.0
  0
LINE
  5
173EE
330
747D
100
AcDbEntity
  8
細線
100
AcDbLine
 10
11018.43025428211
 20
7894.515421619416
 30
0.0
 11
10953.09333086363
 21
7894.515421619402
 31
0.0
  0
LINE
  5
173EF
330
747D
100
AcDbEntity
  8
細線
100
AcDbLine
 10
10723.18027553094
 20
7860.515458316799
 30
0.0
 11
10657.84335211247
 21
7860.515458316784
 31
0.0
  0
LINE
  5
173F0
330
747D
100
AcDbEntity
  8
細線
100
AcDbLine
 10
10725.51182200713
 20
7855.515440763118
 30
0.0
 11
10723.18027553094
 21
7860.515458316799
 31
0.0
  0
LINE
  5
173F1
330
747D
100
AcDbEntity
  8
細線
100
AcDbLine
 10
10655.51181259067
 20
7855.515455676853
 30
0.0
 11
10657.84335211248
 21
7860.515458316813
 31
0.0
  0
LINE
  5
173F2
330
747D
100
AcDbEntity
  8
細線
 48
50.0
100
AcDbLine
 10
10496.89517058985
 20
7873.786282132551
 30
0.0
 11
10502.65068817252
 21
7855.515430842064
 31
0.0
  0
LINE
  5
173F3
330
747D
100
AcDbEntity
  8
細線
 48
50.0
100
AcDbLine
 10
10485.96672210942
 20
7873.786282132551
 30
0.0
 11
10496.89517058985
 21
7873.786282132551
 31
0.0
  0
ARC
  5
173F4
330
747D
100
AcDbEntity
  8
細線
 48
50.0
100
AcDbCircle
 10
10480.5123660521
 20
7875.286282132551
 30
0.0
 40
5.0
100
AcDbArc
 50
204.6243183521304
 51
335.3756816478695
  0
ARC
  5
173F5
330
747D
100
AcDbEntity
  8
細線
 48
50.0
100
AcDbCircle
 10
10485.96672210942
 20
7872.78628213255
 30
0.0
 40
1.0
100
AcDbArc
 50
90.0
 51
155.3756816478695
  0
ARC
  5
173F6
330
747D
100
AcDbEntity
  8
細線
 48
50.0
100
AcDbCircle
 10
10475.05800999478
 20
7872.78628213255
 30
0.0
 40
1.0
100
AcDbArc
 50
24.62431835213048
 51
90.0
  0
LINE
  5
173F7
330
747D
100
AcDbEntity
  8
細線
 48
50.0
100
AcDbLine
 10
10464.12956151435
 20
7873.786282132551
 30
0.0
 11
10475.05800999478
 21
7873.786282132551
 31
0.0
  0
LINE
  5
173F8
330
747D
100
AcDbEntity
  8
細線
 48
50.0
100
AcDbLine
 10
10458.37404393168
 20
7855.515430842057
 30
0.0
 11
10464.12956151435
 21
7873.786282132551
 31
0.0
  0
LINE
  5
173F9
330
747D
100
AcDbEntity
  8
細線
100
AcDbLine
 10
10515.51181382171
 20
7855.515428207862
 30
0.0
 11
10517.84335334353
 21
7860.515430847822
 31
0.0
  0
LINE
  5
173FA
330
747D
100
AcDbEntity
  8
細線
100
AcDbLine
 10
10585.51182323817
 20
7855.515413294127
 30
0.0
 11
10583.18027676198
 21
7860.515430847808
 31
0.0
  0
LINE
  5
173FB
330
747D
100
AcDbEntity
  8
細線
100
AcDbLine
 10
10583.18027676198
 20
7860.515430847808
 30
0.0
 11
10517.84335334351
 21
7860.515430847794
 31
0.0
  0
LINE
  5
173FC
330
747D
100
AcDbEntity
  8
細線
100
AcDbLine
 10
10443.18024839747
 20
7860.515430842028
 30
0.0
 11
10377.84332497899
 21
7860.515430842013
 31
0.0
  0
LINE
  5
173FD
330
747D
100
AcDbEntity
  8
細線
100
AcDbLine
 10
10445.51179487365
 20
7855.515413288348
 30
0.0
 11
10443.18024839747
 21
7860.515430842028
 31
0.0
  0
LINE
  5
173FE
330
747D
100
AcDbEntity
  8
細線
100
AcDbLine
 10
10375.51178668824
 20
7855.515430842057
 30
0.0
 11
10377.84332497901
 21
7860.515430842042
 31
0.0
  0
LINE
  5
173FF
330
747D
100
AcDbEntity
  8
細線
100
AcDbLine
 10
10235.51182200713
 20
7855.515439029426
 30
0.0
 11
10237.8433602979
 21
7860.515439029412
 31
0.0
  0
LINE
  5
17400
330
747D
100
AcDbEntity
  8
細線
100
AcDbLine
 10
10305.51183019254
 20
7855.515421475717
 30
0.0
 11
10303.18028371636
 21
7860.515439029393
 31
0.0
  0
LINE
  5
17401
330
747D
100
AcDbEntity
  8
細線
100
AcDbLine
 10
10303.18028371636
 20
7860.515439029393
 30
0.0
 11
10237.84336029788
 21
7860.515439029383
 31
0.0
  0
LINE
  5
17402
330
747D
100
AcDbEntity
  8
細線
100
AcDbLine
 10
9864.01178781001
 20
7821.51561071014
 30
0.0
 11
9866.343326100778
 21
7826.515610710124
 31
0.0
  0
LINE
  5
17403
330
747D
100
AcDbEntity
  8
細線
100
AcDbLine
 10
9934.011795995425
 20
7821.515593156425
 30
0.0
 11
9931.680249519239
 21
7826.515610710103
 31
0.0
  0
LINE
  5
17404
330
747D
100
AcDbEntity
  8
細線
100
AcDbLine
 10
9931.680249519239
 20
7826.515610710103
 30
0.0
 11
9866.343326100768
 21
7826.515610710096
 31
0.0
  0
LINE
  5
17405
330
747D
100
AcDbEntity
  8
細線
100
AcDbLine
 10
10071.68024951924
 20
7826.515610710103
 30
0.0
 11
10006.34332610076
 21
7826.515610710096
 31
0.0
  0
LINE
  5
17406
330
747D
100
AcDbEntity
  8
細線
100
AcDbLine
 10
10074.01179599542
 20
7821.515593156425
 30
0.0
 11
10071.68024951924
 21
7826.515610710103
 31
0.0
  0
LINE
  5
17407
330
747D
100
AcDbEntity
  8
細線
100
AcDbLine
 10
10004.01178781001
 20
7821.51561071014
 30
0.0
 11
10006.34332610077
 21
7826.515610710124
 31
0.0
  0
LINE
  5
17408
330
747D
100
AcDbEntity
  8
細線
100
AcDbLine
 10
9791.680249519238
 20
7826.515610710103
 30
0.0
 11
9726.343326100767
 21
7826.515610710092
 31
0.0
  0
LINE
  5
17409
330
747D
100
AcDbEntity
  8
細線
100
AcDbLine
 10
9794.011795995427
 20
7821.515593156425
 30
0.0
 11
9791.680249519238
 21
7826.515610710103
 31
0.0
  0
LINE
  5
1740A
330
747D
100
AcDbEntity
  8
細線
100
AcDbLine
 10
9724.011787810011
 20
7821.515610710136
 30
0.0
 11
9726.343326100778
 21
7826.515610710122
 31
0.0
  0
LINE
  5
1740B
330
747D
100
AcDbEntity
  8
細線
100
AcDbLine
 10
9584.011795995426
 20
7821.51561071014
 30
0.0
 11
9586.343334286194
 21
7826.515610710124
 31
0.0
  0
LINE
  5
1740C
330
747D
100
AcDbEntity
  8
細線
100
AcDbLine
 10
9654.011804180843
 20
7821.515593156425
 30
0.0
 11
9651.680257704654
 21
7826.515610710103
 31
0.0
  0
LINE
  5
1740D
330
747D
100
AcDbEntity
  8
細線
100
AcDbLine
 10
9651.680257704654
 20
7826.515610710103
 30
0.0
 11
9586.343334286182
 21
7826.515610710096
 31
0.0
  0
ARC
  5
1740E
330
747D
100
AcDbEntity
  8
部品1
 48
0.01
100
AcDbCircle
 10
9539.511684743091
 20
7820.514488525066
 30
0.0
 40
0.5
100
AcDbArc
 50
270.0
 51
0.0
  0
LINE
  5
1740F
330
747D
100
AcDbEntity
  8
部品1
 48
0.01
100
AcDbLine
 10
9540.01168474309
 20
7821.514488525067
 30
0.0
 11
9540.01168474309
 21
7820.514488525066
 31
0.0
  0
LINE
  5
17410
330
747D
100
AcDbEntity
  8
部品1
 48
0.01
100
AcDbLine
 10
9540.01168474309
 20
7821.514488525067
 30
0.0
 11
9540.01168474309
 21
7820.514488525066
 31
0.0
  0
LINE
  5
17411
330
747D
100
AcDbEntity
  8
部品1
 48
0.01
100
AcDbLine
 10
9539.511684743091
 20
7820.014488525067
 30
0.0
 11
9532.899179313027
 21
7820.014488525067
 31
0.0
  0
ARC
  5
17412
330
747D
100
AcDbEntity
  8
部品1
100
AcDbCircle
 10
9532.967528865809
 20
7821.014488525067
 30
0.0
 40
1.0
100
AcDbArc
 50
160.5287793655778
 51
270.0
  0
ARC
  5
17413
330
747D
100
AcDbEntity
  8
部品1
100
AcDbCircle
 10
9507.511684743091
 20
7830.014488525067
 30
0.0
 40
26.0
100
AcDbArc
 50
340.5287793655779
 51
0.0
  0
LINE
  5
17414
330
747D
100
AcDbEntity
  8
部品1
100
AcDbLine
 10
9533.511684743091
 20
7830.014488525067
 30
0.0
 11
9533.511684743091
 21
7835.014488525067
 31
0.0
  0
ARC
  5
17415
330
747D
100
AcDbEntity
  8
部品1
 48
0.01
100
AcDbCircle
 10
9531.511684743092
 20
7835.014488525067
 30
0.0
 40
2.0
100
AcDbArc
 50
0.0
 51
90.0
  0
ARC
  5
17416
330
747D
100
AcDbEntity
  8
部品1
100
AcDbCircle
 10
9529.90329311828
 20
7834.014488525067
 30
0.0
 40
3.0
100
AcDbArc
 50
90.0
 51
141.6069559807873
  0
LINE
  5
17417
330
747D
100
AcDbEntity
  8
部品1
 48
0.01
100
AcDbLine
 10
9531.511684743092
 20
7837.014488525067
 30
0.0
 11
9529.90329311828
 21
7837.014488525067
 31
0.0
  0
ARC
  5
17418
330
747D
100
AcDbEntity
  8
部品1
100
AcDbCircle
 10
9511.44097052882
 20
7833.314488525068
 30
0.0
 40
3.0
100
AcDbArc
 50
254.0576313943215
 51
270.0
  0
ARC
  5
17419
330
747D
100
AcDbEntity
  8
部品1
100
AcDbCircle
 10
9518.582398957361
 20
7833.314488525068
 30
0.0
 40
3.0
100
AcDbArc
 50
270.0
 51
285.9423686056786
  0
LINE
  5
1741A
330
747D
100
AcDbEntity
  8
部品1
100
AcDbLine
 10
9518.582398957361
 20
7830.31448852507
 30
0.0
 11
9511.44097052882
 21
7830.31448852507
 31
0.0
  0
ARC
  5
1741B
330
747D
100
AcDbEntity
  8
部品1
100
AcDbCircle
 10
9515.011684743091
 20
7845.814488525069
 30
0.0
 40
16.0
100
AcDbArc
 50
285.9423686056786
 51
321.6069559807873
  0
LINE
  5
1741C
330
747D
100
AcDbEntity
  8
部品1
 48
0.01
100
AcDbLine
 10
9498.511684743091
 20
7837.014488525067
 30
0.0
 11
9500.120076367901
 21
7837.014488525067
 31
0.0
  0
ARC
  5
1741D
330
747D
100
AcDbEntity
  8
部品1
100
AcDbCircle
 10
9500.120076367901
 20
7834.014488525067
 30
0.0
 40
3.0
100
AcDbArc
 50
38.39304401921267
 51
90.0
  0
ARC
  5
1741E
330
747D
100
AcDbEntity
  8
部品1
100
AcDbCircle
 10
9515.011684743091
 20
7845.814488525069
 30
0.0
 40
16.0
100
AcDbArc
 50
218.3930440192126
 51
254.0576313943215
  0
LINE
  5
1741F
330
747D
100
AcDbEntity
  8
部品1
100
AcDbLine
 10
9496.51168474309
 20
7830.014488525067
 30
0.0
 11
9496.51168474309
 21
7835.014488525067
 31
0.0
  0
ARC
  5
17420
330
747D
100
AcDbEntity
  8
部品1
 48
0.01
100
AcDbCircle
 10
9498.511684743091
 20
7835.014488525067
 30
0.0
 40
2.0
100
AcDbArc
 50
90.0
 51
180.0
  0
ARC
  5
17421
330
747D
100
AcDbEntity
  8
部品1
100
AcDbCircle
 10
9522.511684743092
 20
7830.014488525067
 30
0.0
 40
26.0
100
AcDbArc
 50
180.0
 51
199.4712206344221
  0
ARC
  5
17422
330
747D
100
AcDbEntity
  8
部品1
 48
0.01
100
AcDbCircle
 10
9490.51168474309
 20
7820.514488525066
 30
0.0
 40
0.5
100
AcDbArc
 50
180.0
 51
270.0
  0
LINE
  5
17423
330
747D
100
AcDbEntity
  8
部品1
 48
0.01
100
AcDbLine
 10
9490.51168474309
 20
7820.014488525067
 30
0.0
 11
9497.055840620374
 21
7820.014488525067
 31
0.0
  0
LINE
  5
17424
330
747D
100
AcDbEntity
  8
部品1
 48
0.01
100
AcDbLine
 10
9490.011684743091
 20
7821.514488525067
 30
0.0
 11
9490.011684743091
 21
7820.514488525066
 31
0.0
  0
ARC
  5
17425
330
747D
100
AcDbEntity
  8
部品1
100
AcDbCircle
 10
9497.055840620374
 20
7821.014488525067
 30
0.0
 40
1.0
100
AcDbArc
 50
270.0
 51
19.47122063442214
  0
LINE
  5
17426
330
747D
100
AcDbEntity
  8
細線
100
AcDbLine
 10
9535.511684743097
 20
7839.51448852507
 30
0.0
 11
9494.511684743098
 21
7839.514488525063
 31
0.0
  0
LINE
  5
17427
330
747D
100
AcDbEntity
  8
細線
100
AcDbLine
 10
9494.511684743098
 20
7839.514488525063
 30
0.0
 11
9494.511684743098
 21
7821.514488525045
 31
0.0
  0
LINE
  5
17428
330
747D
100
AcDbEntity
  8
細線
100
AcDbLine
 10
9535.511684743097
 20
7839.51448852507
 30
0.0
 11
9535.511684743097
 21
7821.514488525045
 31
0.0
  0
LINE
  5
17429
330
747D
100
AcDbEntity
  8
細線
100
AcDbLine
 10
9379.011791341836
 20
7825.51541897947
 30
0.0
 11
9379.011791341836
 21
7821.515418979517
 31
0.0
  0
DIMENSION
  5
1742A
330
747D
100
AcDbEntity
  8
寸法
 48
50.0
100
AcDbDimension
  2
*D30
 10
10645.01179134183
 20
7163.022364813267
 30
0.0
 11
10012.66828421093
 21
7163.022364813267
 31
0.0
 70
   160
  1
有効開口部間口\P<>
 71
     5
 42
1266.0
  3
INABA_S40
100
AcDbAlignedDimension
 13
9379.011791341836
 23
7816.51541897947
 33
0.0
 14
10645.01179134183
 24
7816.51541897947
 34
0.0
100
AcDbRotatedDimension
1001
ACAD
1000
DSTYLE
1002
{
1070
    41
1040
0.5
1070
    44
1040
1.0
1070
   147
1040
0.8
1070
   271
1070
     2
1070
   272
1070
     2
1070
   289
1070
     3
1070
   340
1005
F706
1070
   343
1005
16563
1070
   344
1005
16563
1002
}
  0
LINE
  5
1742B
330
747D
100
AcDbEntity
  8
部品1
100
AcDbLine
 10
11467.01179134183
 20
7893.51541897947
 30
0.0
 11
11494.01179134183
 21
7893.51541897947
 31
0.0
  0
LINE
  5
1742D
330
747D
100
AcDbEntity
  8
部品1
100
AcDbLine
 10
11494.01179134183
 20
7816.51541897947
 30
0.0
 11
11494.01179134183
 21
7893.51541897947
 31
0.0
  0
LINE
  5
1742E
330
747D
100
AcDbEntity
  8
部品1
100
AcDbLine
 10
11455.01179134183
 20
7889.51541897947
 30
0.0
 11
11467.01179134183
 21
7889.51541897947
 31
0.0
  0
LINE
  5
1742F
330
747D
100
AcDbEntity
  8
部品1
100
AcDbLine
 10
11464.01179134183
 20
7825.51541897947
 30
0.0
 11
11464.01179134183
 21
7816.51541897947
 31
0.0
  0
LINE
  5
17430
330
747D
100
AcDbEntity
  8
部品1
100
AcDbLine
 10
11455.01179134183
 20
7825.51541897947
 30
0.0
 11
11464.01179134183
 21
7825.51541897947
 31
0.0
  0
LINE
  5
17431
330
747D
100
AcDbEntity
  8
部品1
100
AcDbLine
 10
11455.01179134183
 20
7889.51541897947
 30
0.0
 11
11455.01179134183
 21
7825.51541897947
 31
0.0
  0
LINE
  5
17432
330
747D
100
AcDbEntity
  8
部品1
100
AcDbLine
 10
11467.01179134183
 20
7920.515418979469
 30
0.0
 11
11467.01179134183
 21
7889.51541897947
 31
0.0
  0
LINE
  5
17433
330
747D
100
AcDbEntity
  8
部品1
100
AcDbLine
 10
9379.011791341836
 20
7889.51541897947
 30
0.0
 11
9367.011791341836
 21
7889.51541897947
 31
0.0
  0
LINE
  5
17434
330
747D
100
AcDbEntity
  8
部品1
100
AcDbLine
 10
9340.011791341837
 20
7893.51541897947
 30
0.0
 11
9367.011791341836
 21
7893.51541897947
 31
0.0
  0
LINE
  5
17435
330
747D
100
AcDbEntity
  8
部品1
100
AcDbLine
 10
9370.011791341836
 20
7825.51541897947
 30
0.0
 11
9370.011791341836
 21
7816.51541897947
 31
0.0
  0
LINE
  5
17436
330
747D
100
AcDbEntity
  8
部品1
100
AcDbLine
 10
9379.011791341836
 20
7825.51541897947
 30
0.0
 11
9370.011791341836
 21
7825.51541897947
 31
0.0
  0
LINE
  5
17437
330
747D
100
AcDbEntity
  8
部品1
100
AcDbLine
 10
9370.011791341836
 20
7816.51541897947
 30
0.0
 11
9340.011791341837
 21
7816.51541897947
 31
0.0
  0
LINE
  5
17438
330
747D
100
AcDbEntity
  8
部品1
100
AcDbLine
 10
9340.011791341837
 20
7816.51541897947
 30
0.0
 11
9340.011791341837
 21
7893.51541897947
 31
0.0
  0
LINE
  5
17439
330
747D
100
AcDbEntity
  8
部品1
100
AcDbLine
 10
9379.011791341836
 20
7889.51541897947
 30
0.0
 11
9379.011791341836
 21
7825.51541897947
 31
0.0
  0
LINE
  5
1743A
330
747D
100
AcDbEntity
  8
部品1
100
AcDbLine
 10
9367.011791341836
 20
7920.515418979467
 30
0.0
 11
9367.011791341836
 21
7889.51541897947
 31
0.0
  0
LINE
  5
1743B
330
747D
100
AcDbEntity
  8
部品1
100
AcDbLine
 10
9367.011791341836
 20
7920.515418979467
 30
0.0
 11
11467.01179134183
 21
7920.515418979469
 31
0.0
  0
LINE
  5
1743C
330
747D
100
AcDbEntity
  8
部品1
100
AcDbLine
 10
11464.01179134183
 20
7816.51541897947
 30
0.0
 11
11494.01179134183
 21
7816.51541897947
 31
0.0
  0
LINE
  5
1743D
330
747D
100
AcDbEntity
  8
部品1
100
AcDbLine
 10
9370.011791341836
 20
7816.51541897947
 30
0.0
 11
11467.01179134183
 21
7816.51541897947
 31
0.0
  0
LINE
  5
1743E
330
747D
100
AcDbEntity
  8
細線
  6
Continuous
 62
     5
100
AcDbLine
 10
10746.01179134184
 20
7855.515418979466
 30
0.0
 11
10746.01179134184
 21
7855.515418979466
 31
0.0
  0
LINE
  5
1743F
330
747D
100
AcDbEntity
  8
細線
  6
Continuous
 62
     5
100
AcDbLine
 10
10738.51182666073
 20
7855.515428900524
 30
0.0
 11
10738.51182666073
 21
7855.515428900524
 31
0.0
  0
LINE
  5
17440
330
747D
100
AcDbEntity
  8
細線
  6
Continuous
 62
     5
100
AcDbLine
 10
10732.51182666073
 20
7855.515428900524
 30
0.0
 11
10732.51182666073
 21
7855.515428900524
 31
0.0
  0
LINE
  5
17441
330
747D
100
AcDbEntity
  8
細線
  6
Continuous
 62
     5
100
AcDbLine
 10
10800.01179134184
 20
7874.515418979466
 30
0.0
 11
10800.01179134184
 21
7874.515418979466
 31
0.0
  0
LINE
  5
17442
330
747D
100
AcDbEntity
  8
細線
 48
50.0
100
AcDbLine
 10
9393.01179599543
 20
7842.115593156425
 30
0.0
 11
9393.01179599543
 21
7850.511743564064
 31
0.0
  0
LINE
  5
17443
330
747D
100
AcDbEntity
  8
細線
 48
50.0
100
AcDbLine
 10
9393.01179599543
 20
7850.511743564064
 30
0.0
 11
9379.011791341836
 21
7850.51174356406
 31
0.0
  0
LINE
  5
17444
330
747D
100
AcDbEntity
  8
細線
 48
50.0
100
AcDbLine
 10
10144.01179599542
 20
7838.665593156424
 30
0.0
 11
10144.01179599542
 21
7843.515593156427
 31
0.0
  0
LINE
  5
17445
330
747D
100
AcDbEntity
  8
細線
 48
50.0
100
AcDbLine
 10
10144.01179599542
 20
7843.515593156427
 30
0.0
 11
10159.01179599542
 21
7843.515593156427
 31
0.0
  0
LINE
  5
17446
330
747D
100
AcDbEntity
  8
細線
 48
50.0
100
AcDbLine
 10
10159.01179599542
 20
7843.515593156427
 30
0.0
 11
10159.01179599543
 21
7850.515593156426
 31
0.0
  0
LINE
  5
17447
330
747D
100
AcDbEntity
  8
細線
 48
50.0
100
AcDbLine
 10
10159.01179599543
 20
7850.515593156426
 30
0.0
 11
10174.01179599542
 21
7850.515593156426
 31
0.0
  0
LINE
  5
17448
330
747D
100
AcDbEntity
  8
細線
 48
50.0
100
AcDbLine
 10
10174.01179599542
 20
7850.515593156426
 30
0.0
 11
10174.01179599542
 21
7821.515593156425
 31
0.0
  0
LINE
  5
17449
330
747D
100
AcDbEntity
  8
細線
 48
50.0
100
AcDbLine
 10
9370.011791341836
 20
7821.512927499894
 30
0.0
 11
9584.011795995426
 21
7821.51561071014
 31
0.0
  0
LINE
  5
1744A
330
747D
100
AcDbEntity
  8
細線
 48
50.0
100
AcDbLine
 10
10074.01179599542
 20
7821.515593156425
 30
0.0
 11
10174.01179599542
 21
7821.515593156425
 31
0.0
  0
LINE
  5
1744B
330
747D
100
AcDbEntity
  8
細線
 48
50.0
100
AcDbLine
 10
9794.011795995427
 20
7821.515593156425
 30
0.0
 11
9864.011795995427
 21
7821.515593156425
 31
0.0
  0
LINE
  5
1744C
330
747D
100
AcDbEntity
  8
細線
 48
50.0
100
AcDbLine
 10
9806.873761007956
 20
7821.515593156425
 30
0.0
 11
9812.629278590623
 21
7839.786444446919
 31
0.0
  0
LINE
  5
1744D
330
747D
100
AcDbEntity
  8
細線
 48
50.0
100
AcDbLine
 10
9812.629278590623
 20
7839.786444446919
 30
0.0
 11
9823.557727071056
 21
7839.786444446916
 31
0.0
  0
ARC
  5
1744E
330
747D
100
AcDbEntity
  8
細線
 48
50.0
100
AcDbCircle
 10
9823.557727071056
 20
7838.786444446916
 30
0.0
 40
1.0
100
AcDbArc
 50
24.62431835213048
 51
90.0
  0
ARC
  5
1744F
330
747D
100
AcDbEntity
  8
細線
 48
50.0
100
AcDbCircle
 10
9834.466439185689
 20
7838.786444446916
 30
0.0
 40
1.0
100
AcDbArc
 50
90.0
 51
155.3756816478695
  0
ARC
  5
17450
330
747D
100
AcDbEntity
  8
細線
 48
50.0
100
AcDbCircle
 10
9829.012083128372
 20
7841.286444446916
 30
0.0
 40
5.0
100
AcDbArc
 50
204.6243183521304
 51
335.3756816478695
  0
LINE
  5
17451
330
747D
100
AcDbEntity
  8
細線
 48
50.0
100
AcDbLine
 10
9834.466439185689
 20
7839.786444446916
 30
0.0
 11
9845.394887666124
 21
7839.786444446919
 31
0.0
  0
LINE
  5
17452
330
747D
100
AcDbEntity
  8
細線
 48
50.0
100
AcDbLine
 10
9845.394887666124
 20
7839.786444446919
 30
0.0
 11
9851.150405248791
 21
7821.515593156425
 31
0.0
  0
LINE
  5
17453
330
747D
100
AcDbEntity
  8
細線
 48
50.0
100
AcDbLine
 10
10144.01179599542
 20
7842.115593156425
 30
0.0
 11
9393.01179599543
 21
7842.115593156425
 31
0.0
  0
LINE
  5
17454
330
747D
100
AcDbEntity
  8
細線
 48
50.0
100
AcDbLine
 10
10004.01179599542
 20
7821.515593156425
 30
0.0
 11
9934.011795995425
 21
7821.515593156425
 31
0.0
  0
LINE
  5
17455
330
747D
100
AcDbEntity
  8
細線
100
AcDbLine
 10
9724.011795995426
 20
7821.515593156425
 30
0.0
 11
9654.011804180843
 21
7821.515593156425
 31
0.0
  0
LINE
  5
17456
330
747D
100
AcDbEntity
  8
細線
 48
50.0
100
AcDbLine
 10
10798.01178668825
 20
7876.115637014293
 30
0.0
 11
10163.01179599542
 21
7876.115637014288
 31
0.0
  0
LINE
  5
17457
330
747D
100
AcDbEntity
  8
細線
 48
50.0
100
AcDbLine
 10
10163.01179599542
 20
7873.011787421932
 30
0.0
 11
10163.01179599542
 21
7877.511787421932
 31
0.0
  0
LINE
  5
17458
330
747D
100
AcDbEntity
  8
細線
 48
50.0
100
AcDbLine
 10
10163.01179599542
 20
7877.511787421932
 30
0.0
 11
10148.01179599542
 21
7877.511787421932
 31
0.0
  0
LINE
  5
17459
330
747D
100
AcDbEntity
  8
細線
 48
50.0
100
AcDbLine
 10
10148.01179599542
 20
7877.511787421932
 30
0.0
 11
10148.01179599542
 21
7884.511787421932
 31
0.0
  0
LINE
  5
1745A
330
747D
100
AcDbEntity
  8
細線
 48
50.0
100
AcDbLine
 10
10148.01179599542
 20
7884.511787421932
 30
0.0
 11
10133.01179599543
 21
7884.511787421928
 31
0.0
  0
LINE
  5
1745B
330
747D
100
AcDbEntity
  8
細線
 48
50.0
100
AcDbLine
 10
10133.01179599543
 20
7884.511787421928
 30
0.0
 11
10133.01179599543
 21
7846.911559318818
 31
0.0
  0
LINE
  5
1745C
330
747D
100
AcDbEntity
  8
細線
 48
50.0
100
AcDbLine
 10
10133.01179599543
 20
7846.911559318818
 30
0.0
 11
10153.0118032966
 21
7846.911600868359
 31
0.0
  0
LINE
  5
1745D
330
747D
100
AcDbEntity
  8
細線
 48
50.0
100
AcDbLine
 10
10153.01175842766
 20
7855.515062504167
 30
0.0
 11
10153.0118032966
 21
7846.911600868359
 31
0.0
  0
LINE
  5
1745E
330
747D
100
AcDbEntity
  8
細線
 48
50.0
100
AcDbLine
 10
10798.01178668825
 20
7872.665637014292
 30
0.0
 11
10798.01178668825
 21
7877.51563701429
 31
0.0
  0
LINE
  5
1745F
330
747D
100
AcDbEntity
  8
細線
 48
50.0
100
AcDbLine
 10
10798.01178668825
 20
7877.51563701429
 30
0.0
 11
10813.01178668824
 21
7877.51563701429
 31
0.0
  0
LINE
  5
17460
330
747D
100
AcDbEntity
  8
細線
 48
50.0
100
AcDbLine
 10
10813.01178668824
 20
7877.51563701429
 30
0.0
 11
10813.01179832222
 21
7884.515637014334
 31
0.0
  0
LINE
  5
17461
330
747D
100
AcDbEntity
  8
細線
 48
50.0
100
AcDbLine
 10
10813.01179832222
 20
7884.515637014334
 30
0.0
 11
10828.01179649275
 21
7884.515637014334
 31
0.0
  0
LINE
  5
17462
330
747D
100
AcDbEntity
  8
細線
 48
50.0
100
AcDbLine
 10
10828.01179649275
 20
7884.515637014334
 30
0.0
 11
10828.01178619093
 21
7855.515430842061
 31
0.0
  0
LINE
  5
17463
330
747D
100
AcDbEntity
  8
細線
 48
50.0
100
AcDbLine
 10
10515.51181382171
 20
7855.515439029426
 30
0.0
 11
10445.51206590413
 21
7855.515433592088
 31
0.0
  0
LINE
  5
17464
330
747D
100
AcDbEntity
  8
細線
 48
50.0
100
AcDbLine
 10
10153.01175842766
 20
7855.515062504167
 30
0.0
 11
10164.24444778237
 21
7855.515245457315
 31
0.0
  0
ARC
  5
17465
330
747D
100
AcDbEntity
  8
細線
 48
50.0
100
AcDbCircle
 10
10170.8267400897
 20
7854.315409370927
 30
0.0
 40
1.8
100
AcDbArc
 50
270.0006665777295
 51
345.0005554812987
  0
LINE
  5
17466
330
747D
100
AcDbEntity
  8
細線
 48
50.0
100
AcDbLine
 10
10172.81317353578
 20
7854.774249828206
 30
0.0
 11
10172.56541109359
 21
7853.849551946099
 31
0.0
  0
LINE
  5
17467
330
747D
100
AcDbEntity
  8
細線
 48
50.0
100
AcDbLine
 10
10170.82676103086
 20
7852.515409371048
 30
0.0
 11
10167.19683361209
 21
7852.515367140568
 31
0.0
  0
ARC
  5
17468
330
747D
100
AcDbEntity
  8
細線
 48
50.0
100
AcDbCircle
 10
10167.19681267094
 20
7854.315367140447
 30
0.0
 40
1.8
100
AcDbArc
 50
195.0010443049394
 51
270.0006665777295
  0
LINE
  5
17469
330
747D
100
AcDbEntity
  8
細線
 48
50.0
100
AcDbLine
 10
10165.21038517868
 20
7854.774082108011
 30
0.0
 11
10165.45815467519
 21
7853.84946116943
 31
0.0
  0
ARC
  5
1746A
330
747D
100
AcDbEntity
  8
細線
 48
50.0
100
AcDbCircle
 10
10164.24446406993
 20
7854.515245457449
 30
0.0
 40
1.0
100
AcDbArc
 50
15.00104430493943
 51
90.00093320877969
  0
LINE
  5
1746B
330
747D
100
AcDbEntity
  8
細線
 48
50.0
100
AcDbLine
 10
10173.77909489089
 20
7855.515440147719
 30
0.0
 11
10174.72085504179
 21
7855.515446721568
 31
0.0
  0
ARC
  5
1746C
330
747D
100
AcDbEntity
  8
細線
 48
50.0
100
AcDbCircle
 10
10173.77910187127
 20
7854.515440147745
 30
0.0
 40
1.0
100
AcDbArc
 50
90.0003999466794
 51
165.0005554812987
  0
LINE
  5
1746D
330
747D
100
AcDbEntity
  8
細線
 48
50.0
100
AcDbLine
 10
10725.51178668824
 20
7855.515430842061
 30
0.0
 11
10828.01178619093
 21
7855.515430842061
 31
0.0
  0
LINE
  5
1746E
330
747D
100
AcDbEntity
  8
細線
 48
50.0
100
AcDbLine
 10
10235.51182200713
 20
7855.515439029426
 30
0.0
 11
10174.41176078021
 21
7855.515446721568
 31
0.0
  0
LINE
  5
1746F
330
747D
100
AcDbEntity
  8
細線
 48
50.0
100
AcDbLine
 10
10655.51182200713
 20
7855.51547587051
 30
0.0
 11
10585.51181505274
 21
7855.515430847842
 31
0.0
  0
LINE
  5
17470
330
747D
100
AcDbEntity
  8
細線
 48
50.0
100
AcDbLine
 10
10375.51178668824
 20
7855.515430842057
 30
0.0
 11
10305.51176940036
 21
7855.515430842064
 31
0.0
  0
ARC
  5
17471
330
747D
100
AcDbEntity
  8
細線
 48
50.0
100
AcDbCircle
 10
10812.21179134185
 20
7888.715418979471
 30
0.0
 40
0.8
100
AcDbArc
 50
359.9997333689499
 51
89.99986668437072
  0
ARC
  5
17472
330
747D
100
AcDbEntity
  8
細線
 48
50.0
100
AcDbCircle
 10
10819.81179816694
 20
7888.715430148088
 30
0.0
 40
0.8
100
AcDbArc
 50
90.00014387753465
 51
179.9997333689498
  0
LINE
  5
17473
330
747D
100
AcDbEntity
  8
細線
 48
50.0
100
AcDbLine
 10
10812.21179320328
 20
7889.51541897947
 30
0.0
 11
10807.01179134183
 21
7889.51541897947
 31
0.0
  0
ARC
  5
17474
330
747D
100
AcDbEntity
  8
細線
 48
50.0
100
AcDbCircle
 10
10813.71179134184
 20
7887.215418979471
 30
0.0
 40
0.7
100
AcDbArc
 50
180.0
 51
270.0
  0
ARC
  5
17475
330
747D
100
AcDbEntity
  8
細線
 48
50.0
100
AcDbCircle
 10
10818.31179134184
 20
7887.215418979471
 30
0.0
 40
0.7
100
AcDbArc
 50
270.0
 51
0.0
  0
LINE
  5
17476
330
747D
100
AcDbEntity
  8
細線
 48
50.0
100
AcDbLine
 10
10819.01179134183
 20
7887.215418979471
 30
0.0
 11
10819.01179816695
 21
7888.715433870959
 31
0.0
  0
LINE
  5
17477
330
747D
100
AcDbEntity
  8
細線
 48
50.0
100
AcDbLine
 10
10813.71179134184
 20
7886.51541897947
 30
0.0
 11
10818.31179134184
 21
7886.51541897947
 31
0.0
  0
LINE
  5
17478
330
747D
100
AcDbEntity
  8
細線
 48
50.0
100
AcDbLine
 10
10813.01179134183
 20
7888.715418979471
 30
0.0
 11
10813.01179134183
 21
7887.215418979471
 31
0.0
  0
LINE
  5
17479
330
747D
100
AcDbEntity
  8
細線
 48
50.0
100
AcDbLine
 10
11438.61179134184
 20
7919.515418979471
 30
0.0
 11
10802.01179134183
 21
7919.515418979466
 31
0.0
  0
LINE
  5
1747A
330
747D
100
AcDbEntity
  8
細線
 48
50.0
100
AcDbLine
 10
11464.51179134183
 20
7914.515418979473
 30
0.0
 11
11448.61179134184
 21
7914.515418979471
 31
0.0
  0
LINE
  5
1747B
330
747D
100
AcDbEntity
  8
細線
 48
50.0
100
AcDbLine
 10
11448.61179134184
 20
7914.515418979471
 30
0.0
 11
11438.61179134184
 21
7919.515418979471
 31
0.0
  0
LINE
  5
1747C
330
747D
100
AcDbEntity
  8
細線
100
AcDbLine
 10
11049.51179134183
 20
7889.51541897947
 30
0.0
 11
11049.51179134183
 21
7918.81541897947
 31
0.0
  0
LINE
  5
1747D
330
747D
100
AcDbEntity
  8
細線
100
AcDbLine
 10
11049.51179134183
 20
7918.81541897947
 30
0.0
 11
11069.51179134183
 21
7918.81541897947
 31
0.0
  0
LINE
  5
1747E
330
747D
100
AcDbEntity
  8
細線
100
AcDbLine
 10
11069.51179134183
 20
7889.51541897947
 30
0.0
 11
11069.51179134183
 21
7918.81541897947
 31
0.0
  0
LINE
  5
1747F
330
747D
100
AcDbEntity
  8
細線
100
AcDbLine
 10
11230.76179134183
 20
7889.51541897947
 30
0.0
 11
11160.76179134183
 21
7889.51541897947
 31
0.0
  0
LINE
  5
17480
330
747D
100
AcDbEntity
  8
細線
 48
50.0
100
AcDbLine
 10
10950.76179134183
 20
7889.51541897947
 30
0.0
 11
10819.80757091468
 21
7889.51541897947
 31
0.0
  0
LINE
  5
17481
330
747D
100
AcDbEntity
  8
細線
100
AcDbLine
 10
11090.76179134183
 20
7889.51541897947
 30
0.0
 11
11020.76179134183
 21
7889.51541897947
 31
0.0
  0
LINE
  5
17482
330
747D
100
AcDbEntity
  8
細線
 48
50.0
100
AcDbLine
 10
10807.01179134183
 20
7881.515418979471
 30
0.0
 11
10807.01179134183
 21
7889.51541897947
 31
0.0
  0
LINE
  5
17483
330
747D
100
AcDbEntity
  8
細線
 48
50.0
100
AcDbLine
 10
10787.01179134183
 20
7881.515418979474
 30
0.0
 11
10807.01179134183
 21
7881.515418979471
 31
0.0
  0
LINE
  5
17484
330
747D
100
AcDbEntity
  8
細線
 48
50.0
100
AcDbLine
 10
10802.01179134183
 20
7919.515418979471
 30
0.0
 11
10802.01179134183
 21
7914.515418979471
 31
0.0
  0
LINE
  5
17485
330
747D
100
AcDbEntity
  8
細線
 48
50.0
100
AcDbLine
 10
10787.01179134183
 20
7919.515418979466
 30
0.0
 11
10802.01179134183
 21
7919.515418979471
 31
0.0
  0
LINE
  5
17486
330
747D
100
AcDbEntity
  8
細線
 48
50.0
100
AcDbLine
 10
10787.01179134183
 20
7881.515418979474
 30
0.0
 11
10787.01179134183
 21
7919.515418979466
 31
0.0
  0
LINE
  5
17487
330
747D
100
AcDbEntity
  8
細線
100
AcDbLine
 10
11455.01179134183
 20
7889.51541897947
 30
0.0
 11
11300.76179134183
 21
7889.51541897947
 31
0.0
  0
LINE
  5
17488
330
747D
100
AcDbEntity
  8
細線
 48
50.0
100
AcDbLine
 10
11464.51179134183
 20
7914.515418979473
 30
0.0
 11
11464.51179134183
 21
7889.51541897947
 31
0.0
  0
DIMENSION
  5
176BF
330
747D
100
AcDbEntity
  8
寸法
 48
50.0
100
AcDbDimension
  2
*D31
 10
11494.01179134183
 20
6878.660049590012
 30
0.0
 11
10418.81176261228
 21
6878.660049590012
 31
0.0
 70
   160
 71
     5
 42
2154.0
  3
INABA_S40G
100
AcDbAlignedDimension
 13
9340.011791341837
 23
7816.515418979337
 33
0.0
 14
11494.01179134183
 24
7816.515418979337
 34
0.0
100
AcDbRotatedDimension
1001
ACAD
1000
DSTYLE
1002
{
1070
   341
1005
0
1002
}
  0
DIMENSION
  5
176C0
330
747D
100
AcDbEntity
  8
寸法
100
AcDbDimension
  2
*D32
 10
8597.400545715144
 20
7818.515418979334
 30
0.0
 11
8597.400545715144
 21
7678.030137605095
 31
0.0
 70
   160
 71
     5
 42
75.0
  3
INABA_S40
100
AcDbAlignedDimension
 13
8892.011791341863
 23
7893.515418979333
 33
0.0
 14
9340.011791341837
 24
7818.515418979334
 34
0.0
 50
90.0
100
AcDbRotatedDimension
1001
ACAD
1000
DSTYLE
1002
{
1070
    41
1040
0.5
1070
    44
1040
1.0
1070
   147
1040
0.8
1070
   271
1070
     2
1070
   272
1070
     2
1070
   289
1070
     3
1070
   340
1005
F706
1070
   343
1005
16563
1070
   344
1005
16563
1002
}
  0
DIMENSION
  5
177C0
330
747D
100
AcDbEntity
  8
寸法
100
AcDbDimension
  2
*D33
 10
11522.01179134184
 20
6612.318461698333
 30
0.0
 11
10191.45113604438
 21
6612.318461698333
 31
0.0
 70
   160
 71
     5
 42
2629.999999999982
  3
INABA_S40G
100
AcDbAlignedDimension
 13
8892.011791341863
 23
7893.515418979301
 33
0.0
 14
11522.01179134184
 24
7893.515418979465
 34
0.0
100
AcDbRotatedDimension
1001
ACAD
1000
DSTYLE
1002
{
1002
}
  0
LINE
  5
177C7
330
747D
100
AcDbEntity
  8
部品1
100
AcDbLine
 10
10588.74712445607
 20
6442.965001811375
 30
0.0
 11
9825.276458227641
 21
6442.965001811375
 31
0.0
  0
LINE
  5
177C8
330
747D
100
AcDbEntity
  8
部品1
100
AcDbLine
 10
10588.74712445607
 20
6203.072680265843
 30
0.0
 11
10588.74712445607
 21
6442.965001811375
 31
0.0
  0
LINE
  5
177C9
330
747D
100
AcDbEntity
  8
部品1
100
AcDbLine
 10
9825.276458227641
 20
6203.072680265843
 30
0.0
 11
10588.74712445607
 21
6203.072680265843
 31
0.0
  0
LINE
  5
177CA
330
747D
100
AcDbEntity
  8
部品1
100
AcDbLine
 10
9825.276458227641
 20
6442.965001811375
 30
0.0
 11
9825.276458227641
 21
6203.072680265843
 31
0.0
  0
TEXT
  5
177CB
330
747D
100
AcDbEntity
  8
部品1
100
AcDbText
 10
9915.196068056678
 20
6250.071472592852
 30
0.0
 40
135.0
  1
平面図
  7
STYLE2
100
AcDbText
  0
LWPOLYLINE
  5
179E5
330
747D
100
AcDbEntity
  8
部品1
 48
50.0
100
AcDbPolyline
 90
        4
 70
     1
 43
0.0
 10
9439.06179134186
 20
3627.206185787585
 10
9441.96179134186
 20
3627.206185787585
 10
9441.96179134186
 20
3636.706185787585
 10
9439.06179134186
 20
3636.706185787585
  0
CIRCLE
  5
179E6
330
747D
100
AcDbEntity
  8
部品1
 48
50.0
100
AcDbCircle
 10
9440.51179134186
 20
3631.956185787585
 30
0.0
 40
9.0
  0
ARC
  5
179E7
330
747D
100
AcDbEntity
  8
細線
 48
50.0
100
AcDbCircle
 10
9440.51179134186
 20
3631.956185787585
 30
0.0
 40
4.0
100
AcDbArc
 50
111.2538091853132
 51
248.7461908146868
  0
ARC
  5
179E8
330
747D
100
AcDbEntity
  8
細線
 48
50.0
100
AcDbCircle
 10
9440.51179134186
 20
3631.956185787585
 30
0.0
 40
17.5
100
AcDbArc
 50
306.4837370612677
 51
233.5162629387323
  0
LINE
  5
179E9
330
747D
100
AcDbEntity
  8
細線
 48
50.0
100
AcDbLine
 10
9450.511791341856
 20
3608.097225206702
 30
0.0
 11
9450.51179134186
 21
3617.081711006944
 31
0.0
  0
LINE
  5
179EA
330
747D
100
AcDbEntity
  8
細線
 48
50.0
100
AcDbLine
 10
9430.51179134186
 20
3608.097225206704
 30
0.0
 11
9430.51179134186
 21
3617.08171100694
 31
0.0
  0
ARC
  5
179EB
330
747D
100
AcDbEntity
  8
細線
 48
50.0
100
AcDbCircle
 10
9440.51179134186
 20
3631.956185787585
 30
0.0
 40
26.5
100
AcDbArc
 50
249.3326835063939
 51
290.6673164933835
  0
ARC
  5
179EC
330
747D
100
AcDbEntity
  8
細線
 48
50.0
100
AcDbCircle
 10
9449.511791341853
 20
3608.097225206702
 30
0.0
 40
1.0
100
AcDbArc
 50
290.6673164936062
 51
359.9999999998958
  0
ARC
  5
179ED
330
747D
100
AcDbEntity
  8
細線
 48
50.0
100
AcDbCircle
 10
9431.51179134186
 20
3608.097225206704
 30
0.0
 40
1.0
100
AcDbArc
 50
180.0
 51
249.3326835066164
  0
ARC
  5
179EE
330
747D
100
AcDbEntity
  8
細線
 48
50.0
100
AcDbCircle
 10
9429.511791341859
 20
3617.08171100694
 30
0.0
 40
1.0
100
AcDbArc
 50
0.0
 51
53.51626293873231
  0
ARC
  5
179EF
330
747D
100
AcDbEntity
  8
細線
 48
50.0
100
AcDbCircle
 10
9451.511791341863
 20
3617.081711006944
 30
0.0
 40
1.0
100
AcDbArc
 50
126.4837370615127
 51
180.0
  0
ARC
  5
179F0
330
747D
100
AcDbEntity
  8
細線
 48
50.0
100
AcDbCircle
 10
9440.51179134186
 20
3631.956185787585
 30
0.0
 40
21.5
100
AcDbArc
 50
255.8014401250294
 51
284.1985598749706
  0
ARC
  5
179F1
330
747D
100
AcDbEntity
  8
細線
 48
50.0
100
AcDbCircle
 10
9440.51179134186
 20
3631.956185787585
 30
0.0
 40
16.5
100
AcDbArc
 50
251.9694646069326
 51
288.0305353930674
  0
LINE
  5
179F2
330
747D
100
AcDbEntity
  8
細線
 48
50.0
100
AcDbLine
 10
9446.011791341859
 20
3611.403813661779
 30
0.0
 11
9446.011791341859
 21
3615.981205349115
 31
0.0
  0
LINE
  5
179F3
330
747D
100
AcDbEntity
  8
細線
 48
50.0
100
AcDbLine
 10
9435.01179134186
 20
3611.403813661779
 30
0.0
 11
9435.01179134186
 21
3615.981205349113
 31
0.0
  0
ARC
  5
179F4
330
747D
100
AcDbEntity
  8
細線
 48
50.0
100
AcDbCircle
 10
9435.311791341863
 20
3615.981205349113
 30
0.0
 40
0.3
100
AcDbArc
 50
71.96946460693259
 51
180.0
  0
ARC
  5
179F5
330
747D
100
AcDbEntity
  8
細線
 48
50.0
100
AcDbCircle
 10
9445.711791341862
 20
3615.981205349115
 30
0.0
 40
0.3
100
AcDbArc
 50
0.0
 51
108.0305353930674
  0
ARC
  5
179F6
330
747D
100
AcDbEntity
  8
細線
 48
50.0
100
AcDbCircle
 10
9445.711791341857
 20
3611.403813661779
 30
0.0
 40
0.3
100
AcDbArc
 50
284.1985598747622
 51
0.0000000001042204
  0
ARC
  5
179F7
330
747D
100
AcDbEntity
  8
細線
 48
50.0
100
AcDbCircle
 10
9435.311791341863
 20
3611.403813661779
 30
0.0
 40
0.3
100
AcDbArc
 50
180.0
 51
255.8014401248081
  0
CIRCLE
  5
179F8
330
747D
100
AcDbEntity
  8
細線
 48
50.0
100
AcDbCircle
 10
9440.51179134186
 20
3631.956185787585
 30
0.0
 40
12.0
  0
ARC
  5
179F9
330
747D
100
AcDbEntity
  8
部品1
 48
50.0
100
AcDbCircle
 10
9440.51179134186
 20
3681.956185787586
 30
0.0
 40
8.5
100
AcDbArc
 50
114.315739171091
 51
245.684260828909
  0
CIRCLE
  5
179FA
330
747D
100
AcDbEntity
  8
細線
 48
50.0
100
AcDbCircle
 10
9440.51179134186
 20
3681.956185787586
 30
0.0
 40
4.5
  0
LWPOLYLINE
  5
179FB
330
747D
100
AcDbEntity
  8
部品1
 48
50.0
100
AcDbPolyline
 90
        2
 70
     0
 43
0.0
 10
9437.011791341859
 20
3700.631035184568
 10
9437.011791341859
 20
3689.702152480001
  0
CIRCLE
  5
179FC
330
747D
100
AcDbEntity
  8
部品1
 48
50.0
100
AcDbCircle
 10
9440.51179134186
 20
3681.956185787586
 30
0.0
 40
19.0
  0
LWPOLYLINE
  5
179FD
330
747D
100
AcDbEntity
  8
部品1
 48
50.0
100
AcDbPolyline
 90
        2
 70
     0
 43
0.0
 10
9437.011791341859
 20
3674.21021909517
 10
9437.011791341859
 20
3663.281336390602
  0
LWPOLYLINE
  5
179FE
330
747D
100
AcDbEntity
  8
部品1
 48
50.0
100
AcDbPolyline
 90
        2
 70
     0
 43
0.0
 10
9444.011791341861
 20
3689.702152480001
 10
9444.011791341861
 20
3700.631035184568
  0
ARC
  5
179FF
330
747D
100
AcDbEntity
  8
部品1
 48
50.0
100
AcDbCircle
 10
9440.51179134186
 20
3681.956185787586
 30
0.0
 40
8.5
100
AcDbArc
 50
294.315739171091
 51
65.68426082890896
  0
LWPOLYLINE
  5
17A00
330
747D
100
AcDbEntity
  8
部品1
 48
50.0
100
AcDbPolyline
 90
        2
 70
     0
 43
0.0
 10
9444.011791341861
 20
3663.281336390602
 10
9444.011791341861
 20
3674.21021909517
  0
ARC
  5
17A01
330
747D
100
AcDbEntity
  8
細線
 48
50.0
100
AcDbCircle
 10
9440.51179134186
 20
3681.956185787586
 30
0.0
 40
16.5
100
AcDbArc
 50
332.0012352654438
 51
27.99876473455621
  0
ARC
  5
17A02
330
747D
100
AcDbEntity
  8
細線
 48
50.0
100
AcDbCircle
 10
9440.51179134186
 20
3681.956185787586
 30
0.0
 40
14.0
100
AcDbArc
 50
326.4074436112986
 51
33.59255638870134
  0
LINE
  5
17A03
330
747D
100
AcDbEntity
  8
細線
 48
50.0
100
AcDbLine
 10
9425.94298905753
 20
3689.702152480001
 30
0.0
 11
9428.849887552171
 21
3689.702152480001
 31
0.0
  0
LINE
  5
17A04
330
747D
100
AcDbEntity
  8
細線
 48
50.0
100
AcDbLine
 10
9425.94298905753
 20
3674.21021909517
 30
0.0
 11
9428.849887552171
 21
3674.21021909517
 31
0.0
  0
LINE
  5
17A05
330
747D
100
AcDbEntity
  8
細線
 48
50.0
100
AcDbLine
 10
9452.173695131548
 20
3689.702152480001
 30
0.0
 11
9455.080593626195
 21
3689.702152480001
 31
0.0
  0
LINE
  5
17A06
330
747D
100
AcDbEntity
  8
細線
 48
50.0
100
AcDbLine
 10
9452.173695131548
 20
3674.21021909517
 30
0.0
 11
9455.080593626195
 21
3674.21021909517
 31
0.0
  0
ARC
  5
17A07
330
747D
100
AcDbEntity
  8
細線
 48
50.0
100
AcDbCircle
 10
9440.51179134186
 20
3681.956185787586
 30
0.0
 40
14.0
100
AcDbArc
 50
146.4074436112986
 51
213.5925563887013
  0
ARC
  5
17A08
330
747D
100
AcDbEntity
  8
細線
 48
50.0
100
AcDbCircle
 10
9440.51179134186
 20
3681.956185787586
 30
0.0
 40
16.5
100
AcDbArc
 50
152.0012352654438
 51
207.9987647345562
  0
ARC
  5
17A09
330
747D
100
AcDbEntity
  8
部品1
 48
50.0
100
AcDbCircle
 10
9414.011791341861
 20
3707.456185787585
 30
0.0
 40
5.0
100
AcDbArc
 50
90.0
 51
180.0
  0
ARC
  5
17A0A
330
747D
100
AcDbEntity
  8
部品1
 48
50.0
100
AcDbCircle
 10
9414.011791341861
 20
3596.456185787585
 30
0.0
 40
5.0
100
AcDbArc
 50
180.0
 51
270.0
  0
ARC
  5
17A0B
330
747D
100
AcDbEntity
  8
部品1
 48
50.0
100
AcDbCircle
 10
9467.011791341858
 20
3596.456185787585
 30
0.0
 40
5.0
100
AcDbArc
 50
270.0
 51
0.0
  0
ARC
  5
17A0C
330
747D
100
AcDbEntity
  8
部品1
 48
50.0
100
AcDbCircle
 10
9467.011791341858
 20
3707.456185787585
 30
0.0
 40
5.0
100
AcDbArc
 50
0.0
 51
90.0
  0
LINE
  5
17A0E
330
747D
100
AcDbEntity
  8
部品1
 48
50.0
100
AcDbLine
 10
9409.011791341859
 20
3596.456185787585
 30
0.0
 11
9409.011791341859
 21
3707.456185787585
 31
0.0
  0
LINE
  5
17A0F
330
747D
100
AcDbEntity
  8
部品1
 48
50.0
100
AcDbLine
 10
9467.011791341858
 20
3591.456185787585
 30
0.0
 11
9414.011791341861
 21
3591.456185787585
 31
0.0
  0
LINE
  5
17A10
330
747D
100
AcDbEntity
  8
部品1
 48
50.0
100
AcDbLine
 10
9472.011791341861
 20
3707.456185787585
 30
0.0
 11
9472.011791341861
 21
3596.456185787585
 31
0.0
  0
ENDSEC
  0
SECTION
  2
OBJECTS
  0
DICTIONARY
  5
7471
330
0
100
AcDbDictionary
281
     1
  3
ACAD_COLOR
350
16558
  3
ACAD_GROUP
350
7472
  3
ACAD_LAYOUT
350
16559
  3
ACAD_MATERIAL
350
16557
  3
ACAD_MLINESTYLE
350
7473
  3
ACAD_PLOTSETTINGS
350
1655A
  3
ACAD_PLOTSTYLENAME
350
16555
  3
ACDBHEADERROUNDTRIPXREC
350
17A2F
  3
AcDbVariableDictionary
350
17A2B
  3
CONTENTDICTIONARY
350
E71C
  3
DRAWINGVARIABLESDICT
350
F3B9
  0
DICTIONARY
  5
166F2
330
7467
100
AcDbDictionary
280
     1
281
     1
  3
ACAD_LAYERSTATES
360
166F3
  0
DICTIONARY
  5
16558
102
{ACAD_REACTORS
330
7471
102
}
330
7471
100
AcDbDictionary
281
     1
  0
DICTIONARY
  5
7472
102
{ACAD_REACTORS
330
7471
102
}
330
7471
100
AcDbDictionary
281
     1
  0
DICTIONARY
  5
16559
102
{ACAD_REACTORS
330
7471
102
}
330
7471
100
AcDbDictionary
281
     1
  3
Model
350
1655B
  3
レイアウト1
350
1655C
  0
DICTIONARY
  5
16557
102
{ACAD_REACTORS
330
7471
102
}
330
7471
100
AcDbDictionary
281
     1
  0
DICTIONARY
  5
7473
102
{ACAD_REACTORS
330
7471
102
}
330
7471
100
AcDbDictionary
281
     1
  3
STANDARD
350
7480
  0
DICTIONARY
  5
1655A
102
{ACAD_REACTORS
330
7471
102
}
330
7471
100
AcDbDictionary
281
     1
  0
ACDBDICTIONARYWDFLT
  5
16555
102
{ACAD_REACTORS
330
7471
102
}
330
7471
100
AcDbDictionary
281
     1
  3
Normal
350
16556
100
AcDbDictionaryWithDefault
340
16556
  0
DICTIONARY
  5
17A2F
102
{ACAD_REACTORS
330
7471
102
}
330
7471
100
AcDbDictionary
281
     1
  3
COLORDICT
350
17A31
  3
MATERIALDICT
350
17A30
  0
DICTIONARY
  5
17A2B
102
{ACAD_REACTORS
330
7471
102
}
330
7471
100
AcDbDictionary
281
     1
  3
DIMASSOC
350
17A2C
  3
PROJECTNAME
350
17A2D
  0
DICTIONARY
  5
E71C
102
{ACAD_REACTORS
330
7471
102
}
330
7471
100
AcDbDictionary
281
     1
  0
DICTIONARY
  5
F3B9
102
{ACAD_REACTORS
330
7471
102
}
330
7471
100
AcDbDictionary
281
     1
1001
DRAWINGVARIABLESXDATA
1000
POLARMODE
1000
1
  0
DICTIONARY
  5
166F3
102
{ACAD_REACTORS
330
166F2
102
}
330
166F2
100
AcDbDictionary
281
     1
  0
LAYOUT
  5
1655B
102
{ACAD_XDICTIONARY
360
17A32
102
}
102
{ACAD_REACTORS
330
16559
102
}
330
16559
100
AcDbPlotSettings
  1

  2
クセロPDF
  4
A3
  6

 40
3.174999952316284
 41
3.174999952316284
 42
3.17498779296875
 43
3.17498779296875
 44
419.9466552734374
 45
296.9259948730469
 46
0.0
 47
0.0
 48
3.619013395666115
 49
-4.192117100517862
140
820.022926294543
141
573.2392198881443
142
1.0
143
39.99735023620806
 70
 11952
 72
     1
 73
     0
 74
     2
  7
inaba.ctb
 75
     0
147
0.0250016562120842
148
25.79074261211281
149
125.8223078213959
100
AcDbLayout
  1
Model
 70
     1
 71
     0
 10
0.0
 20
0.0
 11
12.0
 21
9.0
 12
0.0
 22
0.0
 32
0.0
 14
0.0
 24
0.0
 34
0.0
 15
0.0
 25
0.0
 35
0.0
146
0.0
 13
0.0
 23
0.0
 33
0.0
 16
1.0
 26
0.0
 36
0.0
 17
0.0
 27
1.0
 37
0.0
 76
     0
330
747D
  0
LAYOUT
  5
1655C
102
{ACAD_XDICTIONARY
360
17A34
102
}
102
{ACAD_REACTORS
330
16559
102
}
330
16559
100
AcDbPlotSettings
  1

  2
Microsoft Office Document Image Writer
  4

  6

 40
0.0
 41
0.0
 42
0.0
 43
0.0
 44
0.0
 45
0.0
 46
0.0
 47
0.0
 48
0.0
 49
0.0
140
0.0
141
0.0
142
1.0
143
1.0
 70
   688
 72
     0
 73
     0
 74
     5
  7

 75
    16
147
1.0
148
0.0
149
0.0
100
AcDbLayout
  1
レイアウト1
 70
     0
 71
     1
 10
0.0
 20
0.0
 11
420.0
 21
297.0
 12
0.0
 22
0.0
 32
0.0
 14
1.000000000000000E+20
 24
1.000000000000000E+20
 34
1.000000000000000E+20
 15
-1.000000000000000E+20
 25
-1.000000000000000E+20
 35
-1.000000000000000E+20
146
0.0
 13
0.0
 23
0.0
 33
0.0
 16
1.0
 26
0.0
 36
0.0
 17
0.0
 27
1.0
 37
0.0
 76
     0
330
747A
  0
MLINESTYLE
  5
7480
102
{ACAD_REACTORS
330
7473
102
}
330
7473
100
AcDbMlineStyle
  2
STANDARD
 70
     0
  3

 62
     0
 51
90.0
 52
90.0
 71
     2
 49
0.5
 62
   256
  6
BYLAYER
 49
-0.5
 62
   256
  6
BYLAYER
  0
ACDBPLACEHOLDER
  5
16556
102
{ACAD_REACTORS
330
16555
102
}
330
16555
  0
XRECORD
  5
17A31
102
{ACAD_REACTORS
330
17A2F
102
}
330
17A2F
100
AcDbXrecord
280
     1
340
16558
  0
XRECORD
  5
17A30
102
{ACAD_REACTORS
330
17A2F
102
}
330
17A2F
100
AcDbXrecord
280
     1
340
16557
  0
DICTIONARYVAR
  5
17A2C
102
{ACAD_REACTORS
330
17A2B
102
}
330
17A2B
100
DictionaryVariables
280
     0
  1
1
  0
DICTIONARYVAR
  5
17A2D
102
{ACAD_REACTORS
330
17A2B
102
}
330
17A2B
100
DictionaryVariables
280
     0
  1

  0
DICTIONARY
  5
17A32
330
1655B
100
AcDbDictionary
280
     1
281
     1
  3
ACAD_XREC_ROUNDTRIP
360
17A33
  0
DICTIONARY
  5
17A34
330
1655C
100
AcDbDictionary
280
     1
281
     1
  3
ACAD_XREC_ROUNDTRIP
360
17A35
  0
XRECORD
  5
17A33
102
{ACAD_REACTORS
330
17A32
102
}
330
17A32
100
AcDbXrecord
280
     1
102
SHADEPLOT
 70
     0
102
SHADEPLOTRESLEVEL
 70
     2
102
SHADEPLOTCUSTOMDPI
 70
   150
  0
XRECORD
  5
17A35
102
{ACAD_REACTORS
330
17A34
102
}
330
17A34
100
AcDbXrecord
280
     1
102
SHADEPLOT
 70
     0
102
SHADEPLOTRESLEVEL
 70
     2
102
SHADEPLOTCUSTOMDPI
 70
   300
  0
ENDSEC
  0
EOF
