  0
SECTION
  2
HEADER
  9
$ACADVER
  1
AC1015
  9
$ACADMAINTVER
 70
    20
  9
$DWGCODEPAGE
  3
ANSI_932
  9
$INSBASE
 10
0.0
 20
0.0
 30
0.0
  9
$EXTMIN
 10
139.9999999999995
 20
-0.0000000000000909
 30
0.0
  9
$EXTMAX
 10
16307.2
 20
11409.6
 30
0.0
  9
$LIMMIN
 10
0.0
 20
0.0
  9
$LIMMAX
 10
16800.0
 20
11880.0
  9
$ORTHOMODE
 70
     0
  9
$REGENMODE
 70
     1
  9
$FILLMODE
 70
     1
  9
$QTEXTMODE
 70
     0
  9
$MIRRTEXT
 70
     1
  9
$LTSCALE
 40
20.0
  9
$ATTMODE
 70
     1
  9
$TEXTSIZE
 40
4.0
  9
$TRACEWID
 40
1.0
  9
$TEXTSTYLE
  7
STYLE1
  9
$CLAYER
  8
寸法
  9
$CELTYPE
  6
BYLAYER
  9
$CECOLOR
 62
   256
  9
$CELTSCALE
 40
50.0
  9
$DISPSILH
 70
     0
  9
$DIMSCALE
 40
40.0
  9
$DIMASZ
 40
2.5
  9
$DIMEXO
 40
0.5
  9
$DIMDLI
 40
7.0
  9
$DIMRND
 40
0.0
  9
$DIMDLE
 40
0.0
  9
$DIMEXE
 40
1.5
  9
$DIMTP
 40
0.0
  9
$DIMTM
 40
0.0
  9
$DIMTXT
 40
3.0
  9
$DIMCEN
 40
0.0
  9
$DIMTSZ
 40
0.0
  9
$DIMTOL
 70
     0
  9
$DIMLIM
 70
     0
  9
$DIMTIH
 70
     0
  9
$DIMTOH
 70
     0
  9
$DIMSE1
 70
     0
  9
$DIMSE2
 70
     0
  9
$DIMTAD
 70
     3
  9
$DIMZIN
 70
     8
  9
$DIMBLK
  1

  9
$DIMASO
 70
     1
  9
$DIMSHO
 70
     1
  9
$DIMPOST
  1

  9
$DIMAPOST
  1

  9
$DIMALT
 70
     0
  9
$DIMALTD
 70
     2
  9
$DIMALTF
 40
0.0394
  9
$DIMLFAC
 40
1.0
  9
$DIMTOFL
 70
     1
  9
$DIMTVP
 40
0.0
  9
$DIMTIX
 70
     1
  9
$DIMSOXD
 70
     0
  9
$DIMSAH
 70
     1
  9
$DIMBLK1
  1
DOTSMALL
  9
$DIMBLK2
  1
DOTSMALL
  9
$DIMSTYLE
  2
INABA_S40G
  9
$DIMCLRD
 70
     0
  9
$DIMCLRE
 70
     0
  9
$DIMCLRT
 70
     7
  9
$DIMTFAC
 40
1.0
  9
$DIMGAP
 40
1.0
  9
$DIMJUST
 70
     0
  9
$DIMSD1
 70
     0
  9
$DIMSD2
 70
     0
  9
$DIMTOLJ
 70
     1
  9
$DIMTZIN
 70
     0
  9
$DIMALTZ
 70
     0
  9
$DIMALTTZ
 70
     0
  9
$DIMUPT
 70
     1
  9
$DIMDEC
 70
     1
  9
$DIMTDEC
 70
     4
  9
$DIMALTU
 70
     2
  9
$DIMALTTD
 70
     2
  9
$DIMTXSTY
  7
STYLE1
  9
$DIMAUNIT
 70
     0
  9
$DIMADEC
 70
     0
  9
$DIMALTRND
 40
0.0
  9
$DIMAZIN
 70
     0
  9
$DIMDSEP
 70
    46
  9
$DIMATFIT
 70
     3
  9
$DIMFRAC
 70
     0
  9
$DIMLDRBLK
  1

  9
$DIMLUNIT
 70
     2
  9
$DIMLWD
 70
    -2
  9
$DIMLWE
 70
    -2
  9
$DIMTMOVE
 70
     0
  9
$LUNITS
 70
     2
  9
$LUPREC
 70
     1
  9
$SKETCHINC
 40
1.0
  9
$FILLETRAD
 40
3.0
  9
$AUNITS
 70
     0
  9
$AUPREC
 70
     0
  9
$MENU
  1
acad
  9
$ELEVATION
 40
0.0
  9
$PELEVATION
 40
0.0
  9
$THICKNESS
 40
0.0
  9
$LIMCHECK
 70
     0
  9
$CHAMFERA
 40
0.0
  9
$CHAMFERB
 40
0.0
  9
$CHAMFERC
 40
0.0
  9
$CHAMFERD
 40
0.0
  9
$SKPOLY
 70
     0
  9
$TDCREATE
 40
2451368.612993866
  9
$TDUCREATE
 40
2451368.237993866
  9
$TDUPDATE
 40
2455575.686116169
  9
$TDUUPDATE
 40
2455575.311116169
  9
$TDINDWG
 40
0.6821937500
  9
$TDUSRTIMER
 40
0.6821937500
  9
$USRTIMER
 70
     1
  9
$ANGBASE
 50
0.0
  9
$ANGDIR
 70
     0
  9
$PDMODE
 70
     3
  9
$PDSIZE
 40
2.0
  9
$PLINEWID
 40
0.0
  9
$SPLFRAME
 70
     0
  9
$SPLINETYPE
 70
     6
  9
$SPLINESEGS
 70
     8
  9
$HANDSEED
  5
1A2F5
  9
$SURFTAB1
 70
     6
  9
$SURFTAB2
 70
     6
  9
$SURFTYPE
 70
     6
  9
$SURFU
 70
     6
  9
$SURFV
 70
     6
  9
$UCSBASE
  2

  9
$UCSNAME
  2

  9
$UCSORG
 10
0.0
 20
0.0
 30
0.0
  9
$UCSXDIR
 10
1.0
 20
0.0
 30
0.0
  9
$UCSYDIR
 10
0.0
 20
1.0
 30
0.0
  9
$UCSORTHOREF
  2

  9
$UCSORTHOVIEW
 70
     0
  9
$UCSORGTOP
 10
0.0
 20
0.0
 30
0.0
  9
$UCSORGBOTTOM
 10
0.0
 20
0.0
 30
0.0
  9
$UCSORGLEFT
 10
0.0
 20
0.0
 30
0.0
  9
$UCSORGRIGHT
 10
0.0
 20
0.0
 30
0.0
  9
$UCSORGFRONT
 10
0.0
 20
0.0
 30
0.0
  9
$UCSORGBACK
 10
0.0
 20
0.0
 30
0.0
  9
$PUCSBASE
  2

  9
$PUCSNAME
  2

  9
$PUCSORG
 10
0.0
 20
0.0
 30
0.0
  9
$PUCSXDIR
 10
1.0
 20
0.0
 30
0.0
  9
$PUCSYDIR
 10
0.0
 20
1.0
 30
0.0
  9
$PUCSORTHOREF
  2

  9
$PUCSORTHOVIEW
 70
     0
  9
$PUCSORGTOP
 10
0.0
 20
0.0
 30
0.0
  9
$PUCSORGBOTTOM
 10
0.0
 20
0.0
 30
0.0
  9
$PUCSORGLEFT
 10
0.0
 20
0.0
 30
0.0
  9
$PUCSORGRIGHT
 10
0.0
 20
0.0
 30
0.0
  9
$PUCSORGFRONT
 10
0.0
 20
0.0
 30
0.0
  9
$PUCSORGBACK
 10
0.0
 20
0.0
 30
0.0
  9
$USERI1
 70
     0
  9
$USERI2
 70
     0
  9
$USERI3
 70
     0
  9
$USERI4
 70
     0
  9
$USERI5
 70
     0
  9
$USERR1
 40
0.0
  9
$USERR2
 40
0.0
  9
$USERR3
 40
0.0
  9
$USERR4
 40
0.0
  9
$USERR5
 40
0.0
  9
$WORLDVIEW
 70
     1
  9
$SHADEDGE
 70
     3
  9
$SHADEDIF
 70
    70
  9
$TILEMODE
 70
     1
  9
$MAXACTVP
 70
    16
  9
$PINSBASE
 10
0.0
 20
0.0
 30
0.0
  9
$PLIMCHECK
 70
     0
  9
$PEXTMIN
 10
1.000000000000000E+20
 20
1.000000000000000E+20
 30
1.000000000000000E+20
  9
$PEXTMAX
 10
-1.000000000000000E+20
 20
-1.000000000000000E+20
 30
-1.000000000000000E+20
  9
$PLIMMIN
 10
0.0
 20
0.0
  9
$PLIMMAX
 10
420.0
 20
297.0
  9
$UNITMODE
 70
     0
  9
$VISRETAIN
 70
     0
  9
$PLINEGEN
 70
     0
  9
$PSLTSCALE
 70
     0
  9
$TREEDEPTH
 70
  3020
  9
$CMLSTYLE
  2
STANDARD
  9
$CMLJUST
 70
     0
  9
$CMLSCALE
 40
1.0
  9
$PROXYGRAPHICS
 70
     1
  9
$MEASUREMENT
 70
     1
  9
$CELWEIGHT
370
    -1
  9
$ENDCAPS
280
     0
  9
$JOINSTYLE
280
     0
  9
$LWDISPLAY
290
     0
  9
$INSUNITS
 70
     0
  9
$HYPERLINKBASE
  1

  9
$STYLESHEET
  1

  9
$XEDIT
290
     1
  9
$CEPSNTYPE
380
     0
  9
$PSTYLEMODE
290
     1
  9
$FINGERPRINTGUID
  2
{D6A59616-7A4A-4B68-8B02-F86A6ECB9B7D}
  9
$VERSIONGUID
  2
{0C262ABB-DB32-4D7B-9B0D-7F9E3C6AC889}
  9
$EXTNAMES
290
     1
  9
$PSVPSCALE
 40
0.0
  9
$OLESTARTUP
290
     0
  0
ENDSEC
  0
SECTION
  2
CLASSES
  0
CLASS
  1
ACDBDICTIONARYWDFLT
  2
AcDbDictionaryWithDefault
  3
ObjectDBX Classes
 90
        0
280
     0
281
     0
  0
CLASS
  1
DICTIONARYVAR
  2
AcDbDictionaryVar
  3
ObjectDBX Classes
 90
        0
280
     0
281
     0
  0
CLASS
  1
ACDBPLACEHOLDER
  2
AcDbPlaceHolder
  3
ObjectDBX Classes
 90
        0
280
     0
281
     0
  0
CLASS
  1
LAYOUT
  2
AcDbLayout
  3
ObjectDBX Classes
 90
        0
280
     0
281
     0
  0
ENDSEC
  0
SECTION
  2
TABLES
  0
TABLE
  2
VPORT
  5
746D
330
0
100
AcDbSymbolTable
 70
     2
  0
VPORT
  5
1A2ED
330
746D
100
AcDbSymbolTableRecord
100
AcDbViewportTableRecord
  2
*Active
 70
     0
 10
0.0
 20
0.0
 11
1.0
 21
1.0
 12
8223.761025238502
 22
6348.703162895247
 13
0.0
 23
0.0
 14
10.0
 24
10.0
 15
10.0
 25
10.0
 16
0.0
 26
0.0
 36
1.0
 17
0.0
 27
0.0
 37
0.0
 40
12805.60689082044
 41
1.525925925925925
 42
50.0
 43
0.0
 44
0.0
 50
0.0
 51
0.0
 71
     0
 72
     0
 73
     1
 74
     0
 75
     0
 76
     0
 77
     0
 78
     0
281
     0
 65
     1
110
0.0
120
0.0
130
0.0
111
1.0
121
0.0
131
0.0
112
0.0
122
1.0
132
0.0
 79
     0
146
0.0
  0
ENDTAB
  0
TABLE
  2
LTYPE
  5
746A
330
0
100
AcDbSymbolTable
 70
     4
  0
LTYPE
  5
7477
330
746A
100
AcDbSymbolTableRecord
100
AcDbLinetypeTableRecord
  2
BYBLOCK
 70
     0
  3

 72
    65
 73
     0
 40
0.0
  0
LTYPE
  5
7478
330
746A
100
AcDbSymbolTableRecord
100
AcDbLinetypeTableRecord
  2
BYLAYER
 70
     0
  3

 72
    65
 73
     0
 40
0.0
  0
LTYPE
  5
7479
330
746A
100
AcDbSymbolTableRecord
100
AcDbLinetypeTableRecord
  2
CONTINUOUS
 70
     0
  3
Solid line
 72
    65
 73
     0
 40
0.0
  0
LTYPE
  5
7816
330
746A
100
AcDbSymbolTableRecord
100
AcDbLinetypeTableRecord
  2
CENTER
 70
     0
  3
____ _ ____ _ ____ _ ____ _ ____ _ ____ _ ____ 
 72
    65
 73
     4
 40
2.0
 49
1.25
 74
     0
 49
-0.25
 74
     0
 49
0.25
 74
     0
 49
-0.25
 74
     0
  0
LTYPE
  5
781A
330
746A
100
AcDbSymbolTableRecord
100
AcDbLinetypeTableRecord
  2
HIDDEN
 70
     0
  3
__ __ __ __ __ __ __ __ __ __ __ __ __ __ __ __
 72
    65
 73
     2
 40
0.375
 49
0.25
 74
     0
 49
-0.125
 74
     0
  0
LTYPE
  5
781B
330
746A
100
AcDbSymbolTableRecord
100
AcDbLinetypeTableRecord
  2
PHANTOM
 70
     0
  3
______  __  __  ______  __  __  ______  __  __ 
 72
    65
 73
     6
 40
2.5
 49
1.25
 74
     0
 49
-0.25
 74
     0
 49
0.25
 74
     0
 49
-0.25
 74
     0
 49
0.25
 74
     0
 49
-0.25
 74
     0
  0
ENDTAB
  0
TABLE
  2
LAYER
  5
7467
102
{ACAD_XDICTIONARY
360
18AB9
102
}
330
0
100
AcDbSymbolTable
 70
    12
  0
LAYER
  5
7474
330
7467
100
AcDbSymbolTableRecord
100
AcDbLayerTableRecord
  2
0
 70
     0
 62
     7
  6
CONTINUOUS
370
    -3
390
1891D
  0
LAYER
  5
DEB2
330
7467
100
AcDbSymbolTableRecord
100
AcDbLayerTableRecord
  2
センター
 70
     0
 62
     3
  6
CENTER
370
    -3
390
1891D
  0
LAYER
  5
DEB3
330
7467
100
AcDbSymbolTableRecord
100
AcDbLayerTableRecord
  2
寸法
 70
     0
 62
     4
  6
CONTINUOUS
370
    -3
390
1891D
  0
LAYER
  5
DEB4
330
7467
100
AcDbSymbolTableRecord
100
AcDbLayerTableRecord
  2
部品1
 70
     0
 62
     7
  6
CONTINUOUS
370
    -3
390
1891D
  0
LAYER
  5
DEB5
330
7467
100
AcDbSymbolTableRecord
100
AcDbLayerTableRecord
  2
補助
 70
     0
 62
    -1
  6
CONTINUOUS
370
    -3
390
1891D
  0
LAYER
  5
DEB6
330
7467
100
AcDbSymbolTableRecord
100
AcDbLayerTableRecord
  2
文字
 70
     0
 62
     7
  6
CONTINUOUS
370
    -3
390
1891D
  0
LAYER
  5
F255
330
7467
100
AcDbSymbolTableRecord
100
AcDbLayerTableRecord
  2
DEFPOINTS
 70
     0
 62
     7
  6
CONTINUOUS
290
     0
370
    -3
390
1891D
  0
LAYER
  5
10B54
330
7467
100
AcDbSymbolTableRecord
100
AcDbLayerTableRecord
  2
仕様書枠
 70
     0
 62
   230
  6
CONTINUOUS
370
    -3
390
1891D
  0
LAYER
  5
11729
330
7467
100
AcDbSymbolTableRecord
100
AcDbLayerTableRecord
  2
Ｇ．Ｌ
 70
     0
 62
    30
  6
CONTINUOUS
370
    -3
390
1891D
  0
LAYER
  5
1173F
330
7467
100
AcDbSymbolTableRecord
100
AcDbLayerTableRecord
  2
細線
 70
     0
 62
     5
  6
CONTINUOUS
370
    -3
390
1891D
  0
LAYER
  5
12CC4
330
7467
100
AcDbSymbolTableRecord
100
AcDbLayerTableRecord
  2
想像線
 70
     0
 62
     6
  6
PHANTOM
370
    -3
390
1891D
  0
LAYER
  5
142E2
330
7467
100
AcDbSymbolTableRecord
100
AcDbLayerTableRecord
  2
破線
 70
     0
 62
     2
  6
HIDDEN
370
    -3
390
1891D
  0
ENDTAB
  0
TABLE
  2
STYLE
  5
7468
330
0
100
AcDbSymbolTable
 70
     4
  0
STYLE
  5
7475
330
7468
100
AcDbSymbolTableRecord
100
AcDbTextStyleTableRecord
  2
STANDARD
 70
     0
 40
0.0
 41
1.0
 50
0.0
 71
     0
 42
4.0
  3
txt
  4
C:\AutoCAD LT\bigfont.shx
  0
STYLE
  5
F706
330
7468
100
AcDbSymbolTableRecord
100
AcDbTextStyleTableRecord
  2
STYLE1
 70
     0
 40
0.0
 41
1.0
 50
0.0
 71
     0
 42
4.0
  3
isocp.shx
  4
bigfont.shx
  0
STYLE
  5
103BF
330
7468
100
AcDbSymbolTableRecord
100
AcDbTextStyleTableRecord
  2
STYLE2
 70
     0
 40
0.0
 41
1.0
 50
0.0
 71
     0
 42
100.0
  3
MS PGothic.ttf
  4

1001
ACAD
1000
MS PGothic
1071
    32818
  0
STYLE
  5
19BDC
330
7468
100
AcDbSymbolTableRecord
100
AcDbTextStyleTableRecord
  2
STYLE3
 70
     0
 40
0.0
 41
1.0
 50
0.0
 71
     0
 42
100.0
  3

  4

1001
ACAD
1000
DFPGothic-EB
1071
    32818
  0
ENDTAB
  0
TABLE
  2
VIEW
  5
746B
330
0
100
AcDbSymbolTable
 70
     0
  0
ENDTAB
  0
TABLE
  2
UCS
  5
746C
330
0
100
AcDbSymbolTable
 70
     0
  0
ENDTAB
  0
TABLE
  2
APPID
  5
746E
330
0
100
AcDbSymbolTable
 70
     6
  0
APPID
  5
7476
330
746E
100
AcDbSymbolTableRecord
100
AcDbRegAppTableRecord
  2
ACAD
 70
     0
  0
APPID
  5
DEA9
330
746E
100
AcDbSymbolTableRecord
100
AcDbRegAppTableRecord
  2
CONTENTBLOCKICON
 70
     0
  0
APPID
  5
DEAA
330
746E
100
AcDbSymbolTableRecord
100
AcDbRegAppTableRecord
  2
CONTENTBLOCKDESCRIPTION
 70
     0
  0
APPID
  5
E71D
330
746E
100
AcDbSymbolTableRecord
100
AcDbRegAppTableRecord
  2
CONTENTTABDATA
 70
     0
  0
APPID
  5
E71E
330
746E
100
AcDbSymbolTableRecord
100
AcDbRegAppTableRecord
  2
CONTENTCURRENTTAB
 70
     0
  0
APPID
  5
F3BA
330
746E
100
AcDbSymbolTableRecord
100
AcDbRegAppTableRecord
  2
DRAWINGVARIABLESXDATA
 70
     0
  0
ENDTAB
  0
TABLE
  2
DIMSTYLE
  5
746F
330
0
100
AcDbSymbolTable
 70
     5
100
AcDbDimStyleTable
 71
     0
  0
DIMSTYLE
105
7484
330
746F
100
AcDbSymbolTableRecord
100
AcDbDimStyleTableRecord
  2
JIS
 70
     0
 41
2.5
 42
1.0
 43
7.0
 44
1.0
 73
     0
 74
     0
 77
     1
 78
     8
140
2.5
141
0.0
143
0.0394
147
0.0
172
     1
174
     1
175
     1
340
7475
  0
DIMSTYLE
105
F71F
102
{ACAD_REACTORS
330
18F0B
330
18F22
330
18F24
330
18F3B
330
18F3E
330
18F50
330
18F53
330
18F54
330
18F55
330
18F56
330
18F57
330
18F5A
330
18FC0
330
18FC1
330
18FC2
330
18FC3
330
18FCC
330
18FE1
330
18FE2
330
18FE3
330
18FE4
330
18FE5
330
194FB
330
194FF
330
1950B
330
1950C
330
1950D
330
19548
330
19F81
330
19F83
102
}
330
746F
100
AcDbSymbolTableRecord
100
AcDbDimStyleTableRecord
  2
INABA_S40G
 70
     0
 40
40.0
 41
2.5
 42
0.5
 43
7.0
 44
1.5
 73
     0
 74
     0
 77
     3
 78
     8
140
3.0
141
0.0
143
0.0394
147
1.0
172
     1
173
     1
174
     1
178
     7
271
     1
288
     1
340
F706
341
F770
343
F770
344
F770
  0
DIMSTYLE
105
18AB8
102
{ACAD_REACTORS
330
19CE8
330
19F82
102
}
330
746F
100
AcDbSymbolTableRecord
100
AcDbDimStyleTableRecord
  2
INABA_S40
 70
     0
 40
40.0
 41
2.5
 42
0.5
 43
7.0
 44
1.5
 73
     0
 74
     0
 77
     3
 78
     8
140
3.0
141
0.0
143
0.0394
147
1.0
172
     1
173
     1
174
     1
175
     1
178
     7
340
7475
  0
DIMSTYLE
105
19BDD
330
746F
100
AcDbSymbolTableRecord
100
AcDbDimStyleTableRecord
  2
INABA_S50G
 70
     0
 41
125.0
 42
25.0
 43
7.0
 44
75.0
 73
     0
 74
     0
 77
     3
 78
     8
140
150.0
141
0.0
143
0.0394
147
25.0
172
     1
173
     1
174
     1
175
     1
178
     7
271
     1
340
F706
341
F770
343
F770
344
F770
  0
DIMSTYLE
105
1A283
330
746F
100
AcDbSymbolTableRecord
100
AcDbDimStyleTableRecord
  2
INABA_S20G
 70
     0
 40
20.0
 41
2.5
 42
0.5
 43
7.0
 44
1.5
 73
     0
 74
     0
 77
     3
 78
     8
140
3.0
141
0.0
143
0.0394
147
1.0
172
     1
173
     1
174
     1
178
     7
271
     1
340
F706
341
F770
343
F770
344
F770
  0
ENDTAB
  0
TABLE
  2
BLOCK_RECORD
  5
7466
330
0
100
AcDbSymbolTable
 70
    34
  0
BLOCK_RECORD
  5
747D
330
7466
100
AcDbSymbolTableRecord
100
AcDbBlockTableRecord
  2
*MODEL_SPACE
340
18922
  0
BLOCK_RECORD
  5
747A
330
7466
100
AcDbSymbolTableRecord
100
AcDbBlockTableRecord
  2
*PAPER_SPACE
340
18923
  0
BLOCK_RECORD
  5
F770
330
7466
100
AcDbSymbolTableRecord
100
AcDbBlockTableRecord
  2
_DOTSMALL
340
0
102
{BLKREFS
331
199E0
331
199E1
331
199E9
331
199EA
331
199F4
331
199F5
331
199FD
331
199FE
331
19A06
331
19A07
331
19A0F
331
19A10
331
19A19
331
19A1A
331
19A24
331
19A25
331
19A2D
331
19A2E
331
19A36
331
19A37
331
19A3F
331
19A40
331
19A49
331
19A4A
331
19A54
331
19A55
331
19A5E
331
19A5F
331
19A67
331
19A68
331
19A70
331
19A71
331
19A79
331
19A7A
331
19AED
331
19AEE
331
1A1E3
331
1A1E4
331
1A1F7
331
1A1F8
331
1A212
331
1A213
331
1A21D
331
1A21E
331
1A228
331
1A229
331
1A233
331
1A234
331
1A23C
331
1A23D
331
1A247
331
1A248
331
1A250
331
1A251
331
1A259
331
1A25A
331
1A262
331
1A263
331
1A274
331
1A275
102
}
  0
BLOCK_RECORD
  5
1892A
330
7466
100
AcDbSymbolTableRecord
100
AcDbBlockTableRecord
  2
_DOT
340
0
102
{BLKREFS
331
1A1EE
331
1A1EF
331
1A200
331
1A201
102
}
  0
BLOCK_RECORD
  5
18FFF
330
7466
100
AcDbSymbolTableRecord
100
AcDbBlockTableRecord
  2
*D2
340
0
  0
BLOCK_RECORD
  5
1900B
330
7466
100
AcDbSymbolTableRecord
100
AcDbBlockTableRecord
  2
*D3
340
0
  0
BLOCK_RECORD
  5
19017
330
7466
100
AcDbSymbolTableRecord
100
AcDbBlockTableRecord
  2
*D4
340
0
  0
BLOCK_RECORD
  5
19023
330
7466
100
AcDbSymbolTableRecord
100
AcDbBlockTableRecord
  2
*D5
340
0
  0
BLOCK_RECORD
  5
1902F
330
7466
100
AcDbSymbolTableRecord
100
AcDbBlockTableRecord
  2
*D6
340
0
  0
BLOCK_RECORD
  5
19049
330
7466
100
AcDbSymbolTableRecord
100
AcDbBlockTableRecord
  2
*D7
340
0
  0
BLOCK_RECORD
  5
19055
330
7466
100
AcDbSymbolTableRecord
100
AcDbBlockTableRecord
  2
*D8
340
0
  0
BLOCK_RECORD
  5
19063
330
7466
100
AcDbSymbolTableRecord
100
AcDbBlockTableRecord
  2
*D9
340
0
  0
BLOCK_RECORD
  5
19071
330
7466
100
AcDbSymbolTableRecord
100
AcDbBlockTableRecord
  2
*D10
340
0
  0
BLOCK_RECORD
  5
1907F
330
7466
100
AcDbSymbolTableRecord
100
AcDbBlockTableRecord
  2
*D11
340
0
  0
BLOCK_RECORD
  5
1908B
330
7466
100
AcDbSymbolTableRecord
100
AcDbBlockTableRecord
  2
*D12
340
0
  0
BLOCK_RECORD
  5
19097
330
7466
100
AcDbSymbolTableRecord
100
AcDbBlockTableRecord
  2
*D13
340
0
  0
BLOCK_RECORD
  5
190A3
330
7466
100
AcDbSymbolTableRecord
100
AcDbBlockTableRecord
  2
*D14
340
0
  0
BLOCK_RECORD
  5
190AF
330
7466
100
AcDbSymbolTableRecord
100
AcDbBlockTableRecord
  2
*D15
340
0
  0
BLOCK_RECORD
  5
190BB
330
7466
100
AcDbSymbolTableRecord
100
AcDbBlockTableRecord
  2
*D16
340
0
  0
BLOCK_RECORD
  5
190C8
330
7466
100
AcDbSymbolTableRecord
100
AcDbBlockTableRecord
  2
*D17
340
0
  0
BLOCK_RECORD
  5
190D6
330
7466
100
AcDbSymbolTableRecord
100
AcDbBlockTableRecord
  2
*D18
340
0
  0
BLOCK_RECORD
  5
190E3
330
7466
100
AcDbSymbolTableRecord
100
AcDbBlockTableRecord
  2
*D19
340
0
  0
BLOCK_RECORD
  5
190EF
330
7466
100
AcDbSymbolTableRecord
100
AcDbBlockTableRecord
  2
*D20
340
0
  0
BLOCK_RECORD
  5
190FB
330
7466
100
AcDbSymbolTableRecord
100
AcDbBlockTableRecord
  2
*D21
340
0
  0
BLOCK_RECORD
  5
19107
330
7466
100
AcDbSymbolTableRecord
100
AcDbBlockTableRecord
  2
*D22
340
0
  0
BLOCK_RECORD
  5
1916F
330
7466
100
AcDbSymbolTableRecord
100
AcDbBlockTableRecord
  2
*D23
340
0
  0
BLOCK_RECORD
  5
195E0
330
7466
100
AcDbSymbolTableRecord
100
AcDbBlockTableRecord
  2
*D24
340
0
  0
BLOCK_RECORD
  5
195EC
330
7466
100
AcDbSymbolTableRecord
100
AcDbBlockTableRecord
  2
*D25
340
0
  0
BLOCK_RECORD
  5
195F8
330
7466
100
AcDbSymbolTableRecord
100
AcDbBlockTableRecord
  2
*D26
340
0
  0
BLOCK_RECORD
  5
19604
330
7466
100
AcDbSymbolTableRecord
100
AcDbBlockTableRecord
  2
*D27
340
0
  0
BLOCK_RECORD
  5
19612
330
7466
100
AcDbSymbolTableRecord
100
AcDbBlockTableRecord
  2
*D28
340
0
  0
BLOCK_RECORD
  5
1961E
330
7466
100
AcDbSymbolTableRecord
100
AcDbBlockTableRecord
  2
*D29
340
0
  0
BLOCK_RECORD
  5
19D53
330
7466
100
AcDbSymbolTableRecord
100
AcDbBlockTableRecord
  2
*D30
340
0
  0
BLOCK_RECORD
  5
1A088
330
7466
100
AcDbSymbolTableRecord
100
AcDbBlockTableRecord
  2
*D31
340
0
  0
BLOCK_RECORD
  5
1A094
330
7466
100
AcDbSymbolTableRecord
100
AcDbBlockTableRecord
  2
*D32
340
0
  0
BLOCK_RECORD
  5
1A0A2
330
7466
100
AcDbSymbolTableRecord
100
AcDbBlockTableRecord
  2
*D33
340
0
  0
ENDTAB
  0
ENDSEC
  0
SECTION
  2
BLOCKS
  0
BLOCK
  5
7489
330
747D
100
AcDbEntity
  8
0
100
AcDbBlockBegin
  2
*MODEL_SPACE
 70
     0
 10
0.0
 20
0.0
 30
0.0
  3
*MODEL_SPACE
  1

  0
ENDBLK
  5
748A
330
747D
100
AcDbEntity
  8
0
100
AcDbBlockEnd
  0
BLOCK
  5
7487
330
747A
100
AcDbEntity
 67
     1
  8
0
100
AcDbBlockBegin
  2
*PAPER_SPACE
 70
     0
 10
0.0
 20
0.0
 30
0.0
  3
*PAPER_SPACE
  1

  0
ENDBLK
  5
7488
330
747A
100
AcDbEntity
 67
     1
  8
0
100
AcDbBlockEnd
  0
BLOCK
  5
F771
330
F770
100
AcDbEntity
  8
0
 48
50.0
100
AcDbBlockBegin
  2
_DOTSMALL
 70
     0
 10
0.0
 20
0.0
 30
0.0
  3
_DOTSMALL
  1

  0
LWPOLYLINE
  5
F772
330
F770
100
AcDbEntity
  8
0
  6
ByBlock
 62
     0
 48
50.0
100
AcDbPolyline
 90
        2
 70
     1
 43
0.5
 10
-0.0625
 20
0.0
 42
1.0
 10
0.0625
 20
0.0
 42
1.0
  0
ENDBLK
  5
F776
330
F770
100
AcDbEntity
  8
0
 48
50.0
100
AcDbBlockEnd
  0
BLOCK
  5
1892B
330
1892A
100
AcDbEntity
  8
0
 48
50.0
100
AcDbBlockBegin
  2
_DOT
 70
     0
 10
0.0
 20
0.0
 30
0.0
  3
_DOT
  1

  0
LWPOLYLINE
  5
1892C
330
1892A
100
AcDbEntity
  8
0
  6
ByBlock
 62
     0
 48
50.0
100
AcDbPolyline
 90
        2
 70
     1
 43
0.5
 10
-0.25
 20
0.0
 42
1.0
 10
0.25
 20
0.0
 42
1.0
  0
LINE
  5
1892D
330
1892A
100
AcDbEntity
  8
0
  6
ByBlock
 62
     0
 48
50.0
100
AcDbLine
 10
-0.5
 20
0.0
 30
0.0
 11
-1.0
 21
0.0
 31
0.0
  0
ENDBLK
  5
1892E
330
1892A
100
AcDbEntity
  8
0
 48
50.0
100
AcDbBlockEnd
  0
BLOCK
  5
19009
330
18FFF
100
AcDbEntity
  8
0
 48
50.0
100
AcDbBlockBegin
  2
*D2
 70
     1
 10
0.0
 20
0.0
 30
0.0
  3
*D2
  1

  0
LINE
  5
19AEA
330
18FFF
100
AcDbEntity
  8
寸法
 62
     0
 48
50.0
370
    -2
100
AcDbLine
 10
8883.842723644848
 20
4309.291920427774
 30
0.0
 11
8522.617917173835
 21
4309.291920427774
 31
0.0
  0
LINE
  5
19AEB
330
18FFF
100
AcDbEntity
  8
寸法
 62
     0
 48
50.0
370
    -2
100
AcDbLine
 10
8883.842723644848
 20
2584.291920427774
 30
0.0
 11
8522.617917173834
 21
2584.291920427774
 31
0.0
  0
LINE
  5
19AEC
330
18FFF
100
AcDbEntity
  8
寸法
 62
     0
 48
50.0
370
    -2
100
AcDbLine
 10
8582.617917173834
 20
4309.291920427774
 30
0.0
 11
8582.617917173832
 21
2584.291920427774
 31
0.0
  0
INSERT
  5
19AED
330
18FFF
100
AcDbEntity
  8
寸法
 62
     0
 48
50.0
370
    -2
100
AcDbBlockReference
  2
_DOTSMALL
 10
8582.617917173834
 20
4309.291920427774
 30
0.0
 41
100.0
 42
100.0
 43
100.0
 50
90.0
  0
INSERT
  5
19AEE
330
18FFF
100
AcDbEntity
  8
寸法
 62
     0
 48
50.0
370
    -2
100
AcDbBlockReference
  2
_DOTSMALL
 10
8582.617917173832
 20
2584.291920427774
 30
0.0
 41
100.0
 42
100.0
 43
100.0
 50
270.0
  0
MTEXT
  5
19AEF
330
18FFF
100
AcDbEntity
  8
寸法
 62
     7
 48
50.0
100
AcDbMText
 10
8482.606106150212
 20
3486.220540636736
 30
0.0
 40
120.0
 41
0.0
 71
     5
 72
     1
  1
\A1;有効開口部高サ1725
  7
STYLE1
 11
0.0000000000000001
 21
1.0
 31
0.0
 73
     1
 44
1.0
1001
ACAD
1000
MTEXTBEGIN
1070
    73
1070
     1
1070
    44
1040
1.0
1070
    74
1070
     0
1000
MTEXTEND
  0
POINT
  5
19AF0
330
18FFF
100
AcDbEntity
  8
DEFPOINTS
 62
     0
 48
50.0
100
AcDbPoint
 10
8903.842723644848
 20
4309.291920427774
 30
0.0
  0
POINT
  5
19AF1
330
18FFF
100
AcDbEntity
  8
DEFPOINTS
 62
     0
 48
50.0
100
AcDbPoint
 10
8903.842723644848
 20
2584.291920427774
 30
0.0
  0
POINT
  5
19AF2
330
18FFF
100
AcDbEntity
  8
DEFPOINTS
 62
     0
 48
50.0
100
AcDbPoint
 10
8582.617917173832
 20
2584.291920427774
 30
0.0
  0
ENDBLK
  5
1900A
330
18FFF
100
AcDbEntity
  8
0
 48
50.0
100
AcDbBlockEnd
  0
BLOCK
  5
19015
330
1900B
100
AcDbEntity
  8
0
 48
50.0
100
AcDbBlockBegin
  2
*D3
 70
     1
 10
0.0
 20
0.0
 30
0.0
  3
*D3
  1

  0
LINE
  5
1A25F
330
1900B
100
AcDbEntity
  8
寸法
 62
     0
 48
50.0
370
    -2
100
AcDbLine
 10
11105.84272364485
 20
9814.412850865938
 30
0.0
 11
11793.26906937927
 21
9814.412850865938
 31
0.0
  0
LINE
  5
1A260
330
1900B
100
AcDbEntity
  8
寸法
 62
     0
 48
50.0
370
    -2
100
AcDbLine
 10
11105.84272364483
 20
7714.412850865923
 30
0.0
 11
11793.26906937927
 21
7714.412850865923
 31
0.0
  0
LINE
  5
1A261
330
1900B
100
AcDbEntity
  8
寸法
 62
     0
 48
50.0
370
    -2
100
AcDbLine
 10
11733.26906937927
 20
9814.412850865938
 30
0.0
 11
11733.26906937927
 21
7714.412850865923
 31
0.0
  0
INSERT
  5
1A262
330
1900B
100
AcDbEntity
  8
寸法
 62
     0
 48
50.0
370
    -2
100
AcDbBlockReference
  2
_DOTSMALL
 10
11733.26906937927
 20
9814.412850865938
 30
0.0
 41
100.0
 42
100.0
 43
100.0
 50
90.0
  0
INSERT
  5
1A263
330
1900B
100
AcDbEntity
  8
寸法
 62
     0
 48
50.0
370
    -2
100
AcDbBlockReference
  2
_DOTSMALL
 10
11733.26906937927
 20
7714.412850865923
 30
0.0
 41
100.0
 42
100.0
 43
100.0
 50
270.0
  0
MTEXT
  5
1A264
330
1900B
100
AcDbEntity
  8
寸法
 62
     7
 48
50.0
100
AcDbMText
 10
11633.25725835564
 20
8764.41285086593
 30
0.0
 40
120.0
 41
0.0
 71
     5
 72
     1
  1
\A1;5X420=2100
  7
STYLE1
 11
0.0000000000000001
 21
1.0
 31
0.0
 73
     1
 44
1.0
1001
ACAD
1000
MTEXTBEGIN
1070
    73
1070
     1
1070
    44
1040
1.0
1070
    74
1070
     0
1000
MTEXTEND
  0
POINT
  5
1A265
330
1900B
100
AcDbEntity
  8
DEFPOINTS
 62
     0
 48
50.0
100
AcDbPoint
 10
11085.84272364485
 20
9814.412850865938
 30
0.0
  0
POINT
  5
1A266
330
1900B
100
AcDbEntity
  8
DEFPOINTS
 62
     0
 48
50.0
100
AcDbPoint
 10
11085.84272364483
 20
7714.412850865923
 30
0.0
  0
POINT
  5
1A267
330
1900B
100
AcDbEntity
  8
DEFPOINTS
 62
     0
 48
50.0
100
AcDbPoint
 10
11733.26906937927
 20
7714.412850865923
 30
0.0
  0
ENDBLK
  5
19016
330
1900B
100
AcDbEntity
  8
0
 48
50.0
100
AcDbBlockEnd
  0
BLOCK
  5
19021
330
19017
100
AcDbEntity
  8
0
 48
50.0
100
AcDbBlockBegin
  2
*D4
 70
     1
 10
0.0
 20
0.0
 30
0.0
  3
*D4
  1

  0
LINE
  5
1A256
330
19017
100
AcDbEntity
  8
寸法
 62
     0
 48
50.0
370
    -2
100
AcDbLine
 10
11077.34272364485
 20
9834.053867017312
 30
0.0
 11
11472.70044950688
 21
9728.118083651178
 31
0.0
  0
LINE
  5
1A257
330
19017
100
AcDbEntity
  8
寸法
 62
     0
 48
50.0
370
    -2
100
AcDbLine
 10
11077.34272364485
 20
9384.053867017316
 30
0.0
 11
11472.70044950688
 21
9278.118083651181
 31
0.0
  0
LINE
  5
1A258
330
19017
100
AcDbEntity
  8
寸法
 62
     0
 48
50.0
370
    -2
100
AcDbLine
 10
11412.70044950688
 20
9744.195035197044
 30
0.0
 11
11412.70044950688
 21
9294.195035197047
 31
0.0
  0
INSERT
  5
1A259
330
19017
100
AcDbEntity
  8
寸法
 62
     0
 48
50.0
370
    -2
100
AcDbBlockReference
  2
_DOTSMALL
 10
11412.70044950688
 20
9744.195035197044
 30
0.0
 41
100.0
 42
100.0
 43
100.0
 50
90.0
  0
INSERT
  5
1A25A
330
19017
100
AcDbEntity
  8
寸法
 62
     0
 48
50.0
370
    -2
100
AcDbBlockReference
  2
_DOTSMALL
 10
11412.70044950688
 20
9294.195035197047
 30
0.0
 41
100.0
 42
100.0
 43
100.0
 50
270.0
  0
MTEXT
  5
1A25B
330
19017
100
AcDbEntity
  8
寸法
 62
     7
 48
50.0
100
AcDbMText
 10
11312.70044950688
 20
9519.195035197048
 30
0.0
 40
120.0
 41
0.0
 71
     5
 72
     1
  1
\A1;450
  7
STYLE1
 11
0.0000000000000001
 21
1.0
 31
0.0
 73
     1
 44
1.0
1001
ACAD
1000
MTEXTBEGIN
1070
    73
1070
     1
1070
    44
1040
1.0
1070
    74
1070
     0
1000
MTEXTEND
  0
POINT
  5
1A25C
330
19017
100
AcDbEntity
  8
DEFPOINTS
 62
     0
 48
50.0
100
AcDbPoint
 10
11057.34272364485
 20
9839.412850865935
 30
0.0
  0
POINT
  5
1A25D
330
19017
100
AcDbEntity
  8
DEFPOINTS
 62
     0
 48
50.0
100
AcDbPoint
 10
11057.34272364485
 20
9389.412850865937
 30
0.0
  0
POINT
  5
1A25E
330
19017
100
AcDbEntity
  8
DEFPOINTS
 62
     0
 48
50.0
100
AcDbPoint
 10
11412.70044950688
 20
9294.195035197047
 30
0.0
  0
ENDBLK
  5
19022
330
19017
100
AcDbEntity
  8
0
 48
50.0
100
AcDbBlockEnd
  0
BLOCK
  5
1902D
330
19023
100
AcDbEntity
  8
0
 48
50.0
100
AcDbBlockBegin
  2
*D5
 70
     1
 10
0.0
 20
0.0
 30
0.0
  3
*D5
  1

  0
LINE
  5
1A24D
330
19023
100
AcDbEntity
  8
寸法
 62
     0
 48
50.0
370
    -2
100
AcDbLine
 10
10198.98373979623
 20
9369.412850865945
 30
0.0
 11
10109.69699854255
 21
9036.190196064969
 31
0.0
  0
LINE
  5
1A24E
330
19023
100
AcDbEntity
  8
寸法
 62
     0
 48
50.0
370
    -2
100
AcDbLine
 10
11051.98373979624
 20
9369.412850865938
 30
0.0
 11
10962.69699854257
 21
9036.190196064969
 31
0.0
  0
LINE
  5
1A24F
330
19023
100
AcDbEntity
  8
寸法
 62
     0
 48
50.0
370
    -2
100
AcDbLine
 10
10125.77395008842
 20
9096.19019606497
 30
0.0
 11
10978.77395008843
 21
9096.19019606497
 31
0.0
  0
INSERT
  5
1A250
330
19023
100
AcDbEntity
  8
寸法
 62
     0
 48
50.0
370
    -2
100
AcDbBlockReference
  2
_DOTSMALL
 10
10125.77395008842
 20
9096.19019606497
 30
0.0
 41
100.0
 42
100.0
 43
100.0
 50
180.0
  0
INSERT
  5
1A251
330
19023
100
AcDbEntity
  8
寸法
 62
     0
 48
50.0
370
    -2
100
AcDbBlockReference
  2
_DOTSMALL
 10
10978.77395008843
 20
9096.19019606497
 30
0.0
 41
100.0
 42
100.0
 43
100.0
  0
MTEXT
  5
1A252
330
19023
100
AcDbEntity
  8
寸法
 62
     7
 48
50.0
100
AcDbMText
 10
10583.68978576312
 20
9196.19019606497
 30
0.0
 40
120.0
 41
0.0
 71
     5
 72
     1
  1
\A1;853
  7
STYLE1
 73
     1
 44
1.0
1001
ACAD
1000
MTEXTBEGIN
1070
    73
1070
     1
1070
    44
1040
1.0
1070
    74
1070
     0
1000
MTEXTEND
  0
POINT
  5
1A253
330
19023
100
AcDbEntity
  8
DEFPOINTS
 62
     0
 48
50.0
100
AcDbPoint
 10
10204.34272364485
 20
9389.412850865944
 30
0.0
  0
POINT
  5
1A254
330
19023
100
AcDbEntity
  8
DEFPOINTS
 62
     0
 48
50.0
100
AcDbPoint
 10
11057.34272364486
 20
9389.412850865937
 30
0.0
  0
POINT
  5
1A255
330
19023
100
AcDbEntity
  8
DEFPOINTS
 62
     0
 48
50.0
100
AcDbPoint
 10
10978.77395008843
 20
9096.19019606497
 30
0.0
  0
ENDBLK
  5
1902E
330
19023
100
AcDbEntity
  8
0
 48
50.0
100
AcDbBlockEnd
  0
BLOCK
  5
1903B
330
1902F
100
AcDbEntity
  8
0
 48
50.0
100
AcDbBlockBegin
  2
*D6
 70
     1
 10
0.0
 20
0.0
 30
0.0
  3
*D6
  1

  0
LINE
  5
1A242
330
1902F
100
AcDbEntity
  8
寸法
 62
     0
 48
50.0
370
    -2
100
AcDbLine
 10
11105.84272364483
 20
7714.412850865923
 30
0.0
 11
11793.26906937924
 21
7714.412850865923
 31
0.0
  0
LINE
  5
1A243
330
1902F
100
AcDbEntity
  8
寸法
 62
     0
 48
50.0
370
    -2
100
AcDbLine
 10
11105.84272364483
 20
7659.412850865926
 30
0.0
 11
11793.26906937924
 21
7659.412850865926
 31
0.0
  0
LINE
  5
1A244
330
1902F
100
AcDbEntity
  8
寸法
 62
     0
 48
50.0
370
    -2
100
AcDbLine
 10
11733.26906937924
 20
7714.412850865923
 30
0.0
 11
11733.26906937924
 21
7814.412850865924
 31
0.0
  0
LINE
  5
1A245
330
1902F
100
AcDbEntity
  8
寸法
 62
     0
 48
50.0
370
    -2
100
AcDbLine
 10
11733.26906937924
 20
7659.412850865926
 30
0.0
 11
11733.26906937924
 21
7173.066102586824
 31
0.0
  0
LINE
  5
1A246
330
1902F
100
AcDbEntity
  8
寸法
 62
     0
 48
50.0
370
    -2
100
AcDbLine
 10
11733.26906937924
 20
7714.412850865923
 30
0.0
 11
11733.26906937924
 21
7659.412850865926
 31
0.0
  0
INSERT
  5
1A247
330
1902F
100
AcDbEntity
  8
寸法
 62
     0
 48
50.0
370
    -2
100
AcDbBlockReference
  2
_DOTSMALL
 10
11733.26906937924
 20
7714.412850865923
 30
0.0
 41
100.0
 42
100.0
 43
100.0
 50
270.0
  0
INSERT
  5
1A248
330
1902F
100
AcDbEntity
  8
寸法
 62
     0
 48
50.0
370
    -2
100
AcDbBlockReference
  2
_DOTSMALL
 10
11733.26906937924
 20
7659.412850865926
 30
0.0
 41
100.0
 42
100.0
 43
100.0
 50
90.0
  0
MTEXT
  5
1A249
330
1902F
100
AcDbEntity
  8
寸法
 62
     7
 48
50.0
100
AcDbMText
 10
11633.26906937924
 20
7281.551383961065
 30
0.0
 40
120.0
 41
0.0
 71
     5
 72
     1
  1
\A1;55
  7
STYLE1
 11
0.0000000000000001
 21
1.0
 31
0.0
 73
     1
 44
1.0
1001
ACAD
1000
MTEXTBEGIN
1070
    73
1070
     1
1070
    44
1040
1.0
1070
    74
1070
     0
1000
MTEXTEND
  0
POINT
  5
1A24A
330
1902F
100
AcDbEntity
  8
DEFPOINTS
 62
     0
 48
50.0
100
AcDbPoint
 10
11085.84272364483
 20
7714.412850865923
 30
0.0
  0
POINT
  5
1A24B
330
1902F
100
AcDbEntity
  8
DEFPOINTS
 62
     0
 48
50.0
100
AcDbPoint
 10
11085.84272364483
 20
7659.412850865926
 30
0.0
  0
POINT
  5
1A24C
330
1902F
100
AcDbEntity
  8
DEFPOINTS
 62
     0
 48
50.0
100
AcDbPoint
 10
11733.26906937924
 20
7659.412850865926
 30
0.0
  0
ENDBLK
  5
1903C
330
1902F
100
AcDbEntity
  8
0
 48
50.0
100
AcDbBlockEnd
  0
BLOCK
  5
19053
330
19049
100
AcDbEntity
  8
0
 48
50.0
100
AcDbBlockBegin
  2
*D7
 70
     1
 10
0.0
 20
0.0
 30
0.0
  3
*D7
  1

  0
LINE
  5
1A239
330
19049
100
AcDbEntity
  8
寸法
 62
     0
 48
50.0
370
    -2
100
AcDbLine
 10
8898.983739796234
 20
9369.41285086584
 30
0.0
 11
8809.696998542584
 21
9036.190196064969
 31
0.0
  0
LINE
  5
1A23A
330
19049
100
AcDbEntity
  8
寸法
 62
     0
 48
50.0
370
    -2
100
AcDbLine
 10
10171.98373979624
 20
9369.412850865833
 30
0.0
 11
10082.69699854259
 21
9036.190196064969
 31
0.0
  0
LINE
  5
1A23B
330
19049
100
AcDbEntity
  8
寸法
 62
     0
 48
50.0
370
    -2
100
AcDbLine
 10
8825.773950088452
 20
9096.19019606497
 30
0.0
 11
10098.77395008846
 21
9096.19019606497
 31
0.0
  0
INSERT
  5
1A23C
330
19049
100
AcDbEntity
  8
寸法
 62
     0
 48
50.0
370
    -2
100
AcDbBlockReference
  2
_DOTSMALL
 10
8825.773950088452
 20
9096.19019606497
 30
0.0
 41
100.0
 42
100.0
 43
100.0
 50
180.0
  0
INSERT
  5
1A23D
330
19049
100
AcDbEntity
  8
寸法
 62
     0
 48
50.0
370
    -2
100
AcDbBlockReference
  2
_DOTSMALL
 10
10098.77395008846
 20
9096.19019606497
 30
0.0
 41
100.0
 42
100.0
 43
100.0
  0
MTEXT
  5
1A23E
330
19049
100
AcDbEntity
  8
寸法
 62
     7
 48
50.0
100
AcDbMText
 10
9439.919500221236
 20
9196.202007088592
 30
0.0
 40
120.0
 41
0.0
 71
     5
 72
     1
  1
\A1;1273
  7
STYLE1
 73
     1
 44
1.0
1001
ACAD
1000
MTEXTBEGIN
1070
    73
1070
     1
1070
    44
1040
1.0
1070
    74
1070
     0
1000
MTEXTEND
  0
POINT
  5
1A23F
330
19049
100
AcDbEntity
  8
DEFPOINTS
 62
     0
 48
50.0
100
AcDbPoint
 10
8904.342723644855
 20
9389.41285086584
 30
0.0
  0
POINT
  5
1A240
330
19049
100
AcDbEntity
  8
DEFPOINTS
 62
     0
 48
50.0
100
AcDbPoint
 10
10177.34272364486
 20
9389.412850865832
 30
0.0
  0
POINT
  5
1A241
330
19049
100
AcDbEntity
  8
DEFPOINTS
 62
     0
 48
50.0
100
AcDbPoint
 10
10098.77395008846
 20
9096.19019606497
 30
0.0
  0
ENDBLK
  5
19054
330
19049
100
AcDbEntity
  8
0
 48
50.0
100
AcDbBlockEnd
  0
BLOCK
  5
19061
330
19055
100
AcDbEntity
  8
0
 48
50.0
100
AcDbBlockBegin
  2
*D8
 70
     1
 10
0.0
 20
0.0
 30
0.0
  3
*D8
  1

  0
LINE
  5
1A22E
330
19055
100
AcDbEntity
  8
寸法
 62
     0
 48
50.0
370
    -2
100
AcDbLine
 10
8875.842723644819
 20
9889.41285086584
 30
0.0
 11
8875.842723644819
 21
10232.45844544142
 31
0.0
  0
LINE
  5
1A22F
330
19055
100
AcDbEntity
  8
寸法
 62
     0
 48
50.0
370
    -2
100
AcDbLine
 10
8930.842723644856
 20
9889.41285086584
 30
0.0
 11
8930.842723644856
 21
10232.45844544142
 31
0.0
  0
LINE
  5
1A230
330
19055
100
AcDbEntity
  8
寸法
 62
     0
 48
50.0
370
    -2
100
AcDbLine
 10
8930.842723644856
 20
10172.45844544142
 30
0.0
 11
9030.842723644855
 21
10172.45844544142
 31
0.0
  0
LINE
  5
1A231
330
19055
100
AcDbEntity
  8
寸法
 62
     0
 48
50.0
370
    -2
100
AcDbLine
 10
8875.842723644819
 20
10172.45844544142
 30
0.0
 11
8458.872160896342
 21
10172.45844544142
 31
0.0
  0
LINE
  5
1A232
330
19055
100
AcDbEntity
  8
寸法
 62
     0
 48
50.0
370
    -2
100
AcDbLine
 10
8930.842723644856
 20
10172.45844544142
 30
0.0
 11
8875.842723644819
 21
10172.45844544142
 31
0.0
  0
INSERT
  5
1A233
330
19055
100
AcDbEntity
  8
寸法
 62
     0
 48
50.0
370
    -2
100
AcDbBlockReference
  2
_DOTSMALL
 10
8930.842723644856
 20
10172.45844544142
 30
0.0
 41
100.0
 42
100.0
 43
100.0
 50
180.0
  0
INSERT
  5
1A234
330
19055
100
AcDbEntity
  8
寸法
 62
     0
 48
50.0
370
    -2
100
AcDbBlockReference
  2
_DOTSMALL
 10
8875.842723644819
 20
10172.45844544142
 30
0.0
 41
100.0
 42
100.0
 43
100.0
  0
MTEXT
  5
1A235
330
19055
100
AcDbEntity
  8
寸法
 62
     7
 48
50.0
100
AcDbMText
 10
8567.357442270582
 20
10272.45844544142
 30
0.0
 40
120.0
 41
0.0
 71
     5
 72
     1
  1
\A1;55
  7
STYLE1
 73
     1
 44
1.0
1001
ACAD
1000
MTEXTBEGIN
1070
    73
1070
     1
1070
    44
1040
1.0
1070
    74
1070
     0
1000
MTEXTEND
  0
POINT
  5
1A236
330
19055
100
AcDbEntity
  8
DEFPOINTS
 62
     0
 48
50.0
100
AcDbPoint
 10
8875.842723644819
 20
9869.41285086584
 30
0.0
  0
POINT
  5
1A237
330
19055
100
AcDbEntity
  8
DEFPOINTS
 62
     0
 48
50.0
100
AcDbPoint
 10
8930.842723644856
 20
9869.41285086584
 30
0.0
  0
POINT
  5
1A238
330
19055
100
AcDbEntity
  8
DEFPOINTS
 62
     0
 48
50.0
100
AcDbPoint
 10
8930.842723644856
 20
10172.45844544142
 30
0.0
  0
ENDBLK
  5
19062
330
19055
100
AcDbEntity
  8
0
 48
50.0
100
AcDbBlockEnd
  0
BLOCK
  5
1906F
330
19063
100
AcDbEntity
  8
0
 48
50.0
100
AcDbBlockBegin
  2
*D9
 70
     1
 10
0.0
 20
0.0
 30
0.0
  3
*D9
  1

  0
LINE
  5
1A223
330
19063
100
AcDbEntity
  8
寸法
 62
     0
 48
50.0
370
    -2
100
AcDbLine
 10
11105.84272364485
 20
9869.412850865934
 30
0.0
 11
11793.26906937926
 21
9869.412850865934
 31
0.0
  0
LINE
  5
1A224
330
19063
100
AcDbEntity
  8
寸法
 62
     0
 48
50.0
370
    -2
100
AcDbLine
 10
11105.84272364485
 20
9814.412850865938
 30
0.0
 11
11793.26906937926
 21
9814.412850865938
 31
0.0
  0
LINE
  5
1A225
330
19063
100
AcDbEntity
  8
寸法
 62
     0
 48
50.0
370
    -2
100
AcDbLine
 10
11733.26906937926
 20
9814.412850865938
 30
0.0
 11
11733.26906937926
 21
9714.412850865938
 31
0.0
  0
LINE
  5
1A226
330
19063
100
AcDbEntity
  8
寸法
 62
     0
 48
50.0
370
    -2
100
AcDbLine
 10
11733.26906937926
 20
9869.412850865934
 30
0.0
 11
11733.26906937926
 21
10286.38341361441
 31
0.0
  0
LINE
  5
1A227
330
19063
100
AcDbEntity
  8
寸法
 62
     0
 48
50.0
370
    -2
100
AcDbLine
 10
11733.26906937926
 20
9814.412850865938
 30
0.0
 11
11733.26906937926
 21
9869.412850865934
 31
0.0
  0
INSERT
  5
1A228
330
19063
100
AcDbEntity
  8
寸法
 62
     0
 48
50.0
370
    -2
100
AcDbBlockReference
  2
_DOTSMALL
 10
11733.26906937926
 20
9814.412850865938
 30
0.0
 41
100.0
 42
100.0
 43
100.0
 50
90.0
  0
INSERT
  5
1A229
330
19063
100
AcDbEntity
  8
寸法
 62
     0
 48
50.0
370
    -2
100
AcDbBlockReference
  2
_DOTSMALL
 10
11733.26906937926
 20
9869.412850865934
 30
0.0
 41
100.0
 42
100.0
 43
100.0
 50
270.0
  0
MTEXT
  5
1A22A
330
19063
100
AcDbEntity
  8
寸法
 62
     7
 48
50.0
100
AcDbMText
 10
11633.26906937926
 20
10177.89813224017
 30
0.0
 40
120.0
 41
0.0
 71
     5
 72
     1
  1
\A1;55
  7
STYLE1
 11
0.0000000000000001
 21
1.0
 31
0.0
 73
     1
 44
1.0
1001
ACAD
1000
MTEXTBEGIN
1070
    73
1070
     1
1070
    44
1040
1.0
1070
    74
1070
     0
1000
MTEXTEND
  0
POINT
  5
1A22B
330
19063
100
AcDbEntity
  8
DEFPOINTS
 62
     0
 48
50.0
100
AcDbPoint
 10
11085.84272364485
 20
9869.412850865934
 30
0.0
  0
POINT
  5
1A22C
330
19063
100
AcDbEntity
  8
DEFPOINTS
 62
     0
 48
50.0
100
AcDbPoint
 10
11085.84272364485
 20
9814.412850865938
 30
0.0
  0
POINT
  5
1A22D
330
19063
100
AcDbEntity
  8
DEFPOINTS
 62
     0
 48
50.0
100
AcDbPoint
 10
11733.26906937926
 20
9814.412850865938
 30
0.0
  0
ENDBLK
  5
19070
330
19063
100
AcDbEntity
  8
0
 48
50.0
100
AcDbBlockEnd
  0
BLOCK
  5
1907D
330
19071
100
AcDbEntity
  8
0
 48
50.0
100
AcDbBlockBegin
  2
*D10
 70
     1
 10
0.0
 20
0.0
 30
0.0
  3
*D10
  1

  0
LINE
  5
1A218
330
19071
100
AcDbEntity
  8
寸法
 62
     0
 48
50.0
370
    -2
100
AcDbLine
 10
11030.84272364485
 20
9889.412850865936
 30
0.0
 11
11030.84272364485
 21
10232.45844544151
 31
0.0
  0
LINE
  5
1A219
330
19071
100
AcDbEntity
  8
寸法
 62
     0
 48
50.0
370
    -2
100
AcDbLine
 10
11085.84272364485
 20
9889.412850865936
 30
0.0
 11
11085.84272364485
 21
10232.45844544151
 31
0.0
  0
LINE
  5
1A21A
330
19071
100
AcDbEntity
  8
寸法
 62
     0
 48
50.0
370
    -2
100
AcDbLine
 10
11030.84272364485
 20
10172.45844544151
 30
0.0
 11
10930.84272364485
 21
10172.45844544151
 31
0.0
  0
LINE
  5
1A21B
330
19071
100
AcDbEntity
  8
寸法
 62
     0
 48
50.0
370
    -2
100
AcDbLine
 10
11085.84272364485
 20
10172.45844544151
 30
0.0
 11
11502.81328639333
 21
10172.45844544151
 31
0.0
  0
LINE
  5
1A21C
330
19071
100
AcDbEntity
  8
寸法
 62
     0
 48
50.0
370
    -2
100
AcDbLine
 10
11030.84272364485
 20
10172.45844544151
 30
0.0
 11
11085.84272364485
 21
10172.45844544151
 31
0.0
  0
INSERT
  5
1A21D
330
19071
100
AcDbEntity
  8
寸法
 62
     0
 48
50.0
370
    -2
100
AcDbBlockReference
  2
_DOTSMALL
 10
11030.84272364485
 20
10172.45844544151
 30
0.0
 41
100.0
 42
100.0
 43
100.0
  0
INSERT
  5
1A21E
330
19071
100
AcDbEntity
  8
寸法
 62
     0
 48
50.0
370
    -2
100
AcDbBlockReference
  2
_DOTSMALL
 10
11085.84272364485
 20
10172.45844544151
 30
0.0
 41
100.0
 42
100.0
 43
100.0
 50
180.0
  0
MTEXT
  5
1A21F
330
19071
100
AcDbEntity
  8
寸法
 62
     7
 48
50.0
100
AcDbMText
 10
11394.32800501909
 20
10272.45844544151
 30
0.0
 40
120.0
 41
0.0
 71
     5
 72
     1
  1
\A1;55
  7
STYLE1
 73
     1
 44
1.0
1001
ACAD
1000
MTEXTBEGIN
1070
    73
1070
     1
1070
    44
1040
1.0
1070
    74
1070
     0
1000
MTEXTEND
  0
POINT
  5
1A220
330
19071
100
AcDbEntity
  8
DEFPOINTS
 62
     0
 48
50.0
100
AcDbPoint
 10
11030.84272364485
 20
9869.412850865934
 30
0.0
  0
POINT
  5
1A221
330
19071
100
AcDbEntity
  8
DEFPOINTS
 62
     0
 48
50.0
100
AcDbPoint
 10
11085.84272364485
 20
9869.412850865934
 30
0.0
  0
POINT
  5
1A222
330
19071
100
AcDbEntity
  8
DEFPOINTS
 62
     0
 48
50.0
100
AcDbPoint
 10
11085.84272364485
 20
10172.45844544151
 30
0.0
  0
ENDBLK
  5
1907E
330
19071
100
AcDbEntity
  8
0
 48
50.0
100
AcDbBlockEnd
  0
BLOCK
  5
19089
330
1907F
100
AcDbEntity
  8
0
 48
50.0
100
AcDbBlockBegin
  2
*D11
 70
     1
 10
0.0
 20
0.0
 30
0.0
  3
*D11
  1

  0
LINE
  5
1A20F
330
1907F
100
AcDbEntity
  8
寸法
 62
     0
 48
50.0
370
    -2
100
AcDbLine
 10
8930.842723644856
 20
9889.41285086584
 30
0.0
 11
8930.842723644856
 21
10232.45844544153
 31
0.0
  0
LINE
  5
1A210
330
1907F
100
AcDbEntity
  8
寸法
 62
     0
 48
50.0
370
    -2
100
AcDbLine
 10
11030.84272364485
 20
9889.412850865936
 30
0.0
 11
11030.84272364485
 21
10232.45844544153
 31
0.0
  0
LINE
  5
1A211
330
1907F
100
AcDbEntity
  8
寸法
 62
     0
 48
50.0
370
    -2
100
AcDbLine
 10
8930.842723644856
 20
10172.45844544153
 30
0.0
 11
11030.84272364485
 21
10172.45844544153
 31
0.0
  0
INSERT
  5
1A212
330
1907F
100
AcDbEntity
  8
寸法
 62
     0
 48
50.0
370
    -2
100
AcDbBlockReference
  2
_DOTSMALL
 10
8930.842723644856
 20
10172.45844544153
 30
0.0
 41
100.0
 42
100.0
 43
100.0
 50
180.0
  0
INSERT
  5
1A213
330
1907F
100
AcDbEntity
  8
寸法
 62
     0
 48
50.0
370
    -2
100
AcDbBlockReference
  2
_DOTSMALL
 10
11030.84272364485
 20
10172.45844544153
 30
0.0
 41
100.0
 42
100.0
 43
100.0
  0
MTEXT
  5
1A214
330
1907F
100
AcDbEntity
  8
寸法
 62
     7
 48
50.0
100
AcDbMText
 10
9980.842723644855
 20
10272.47025646515
 30
0.0
 40
120.0
 41
0.0
 71
     5
 72
     1
  1
\A1;5X420=2100
  7
STYLE1
 73
     1
 44
1.0
1001
ACAD
1000
MTEXTBEGIN
1070
    73
1070
     1
1070
    44
1040
1.0
1070
    74
1070
     0
1000
MTEXTEND
  0
POINT
  5
1A215
330
1907F
100
AcDbEntity
  8
DEFPOINTS
 62
     0
 48
50.0
100
AcDbPoint
 10
8930.842723644856
 20
9869.41285086584
 30
0.0
  0
POINT
  5
1A216
330
1907F
100
AcDbEntity
  8
DEFPOINTS
 62
     0
 48
50.0
100
AcDbPoint
 10
11030.84272364485
 20
9869.412850865934
 30
0.0
  0
POINT
  5
1A217
330
1907F
100
AcDbEntity
  8
DEFPOINTS
 62
     0
 48
50.0
100
AcDbPoint
 10
11030.84272364485
 20
10172.45844544153
 30
0.0
  0
ENDBLK
  5
1908A
330
1907F
100
AcDbEntity
  8
0
 48
50.0
100
AcDbBlockEnd
  0
BLOCK
  5
19095
330
1908B
100
AcDbEntity
  8
0
 48
50.0
100
AcDbBlockBegin
  2
*D12
 70
     1
 10
0.0
 20
0.0
 30
0.0
  3
*D12
  1

  0
LINE
  5
1A271
330
1908B
100
AcDbEntity
  8
寸法
 62
     0
 48
50.0
370
    -2
100
AcDbLine
 10
11105.84272364485
 20
9869.412850865934
 30
0.0
 11
12065.95771720716
 21
9869.412850865934
 31
0.0
  0
LINE
  5
1A272
330
1908B
100
AcDbEntity
  8
寸法
 62
     0
 48
50.0
370
    -2
100
AcDbLine
 10
11105.84272364483
 20
7659.412850865926
 30
0.0
 11
12065.95771720716
 21
7659.412850865926
 31
0.0
  0
LINE
  5
1A273
330
1908B
100
AcDbEntity
  8
寸法
 62
     0
 48
50.0
370
    -2
100
AcDbLine
 10
12005.95771720716
 20
9869.412850865934
 30
0.0
 11
12005.95771720716
 21
7659.412850865926
 31
0.0
  0
INSERT
  5
1A274
330
1908B
100
AcDbEntity
  8
寸法
 62
     0
 48
50.0
370
    -2
100
AcDbBlockReference
  2
_DOTSMALL
 10
12005.95771720716
 20
9869.412850865934
 30
0.0
 41
100.0
 42
100.0
 43
100.0
 50
90.0
  0
INSERT
  5
1A275
330
1908B
100
AcDbEntity
  8
寸法
 62
     0
 48
50.0
370
    -2
100
AcDbBlockReference
  2
_DOTSMALL
 10
12005.95771720716
 20
7659.412850865926
 30
0.0
 41
100.0
 42
100.0
 43
100.0
 50
270.0
  0
MTEXT
  5
1A276
330
1908B
100
AcDbEntity
  8
寸法
 62
     7
 48
50.0
100
AcDbMText
 10
11905.94590618353
 20
8749.628443744411
 30
0.0
 40
120.0
 41
0.0
 71
     5
 72
     1
  1
\A1;2210
  7
STYLE1
 11
0.0000000000000001
 21
1.0
 31
0.0
 73
     1
 44
1.0
1001
ACAD
1000
MTEXTBEGIN
1070
    73
1070
     1
1070
    44
1040
1.0
1070
    74
1070
     0
1000
MTEXTEND
  0
POINT
  5
1A277
330
1908B
100
AcDbEntity
  8
DEFPOINTS
 62
     0
 48
50.0
100
AcDbPoint
 10
11085.84272364485
 20
9869.412850865934
 30
0.0
  0
POINT
  5
1A278
330
1908B
100
AcDbEntity
  8
DEFPOINTS
 62
     0
 48
50.0
100
AcDbPoint
 10
11085.84272364483
 20
7659.412850865926
 30
0.0
  0
POINT
  5
1A279
330
1908B
100
AcDbEntity
  8
DEFPOINTS
 62
     0
 48
50.0
100
AcDbPoint
 10
12005.95771720716
 20
7659.412850865926
 30
0.0
  0
ENDBLK
  5
19096
330
1908B
100
AcDbEntity
  8
0
 48
50.0
100
AcDbBlockEnd
  0
BLOCK
  5
190A1
330
19097
100
AcDbEntity
  8
0
 48
50.0
100
AcDbBlockBegin
  2
*D13
 70
     1
 10
0.0
 20
0.0
 30
0.0
  3
*D13
  1

  0
LINE
  5
19A76
330
19097
100
AcDbEntity
  8
寸法
 62
     0
 48
50.0
370
    -2
100
AcDbLine
 10
8975.84272364485
 20
2206.291920427775
 30
0.0
 11
8975.84272364485
 21
1880.244591127398
 31
0.0
  0
LINE
  5
19A77
330
19097
100
AcDbEntity
  8
寸法
 62
     0
 48
50.0
370
    -2
100
AcDbLine
 10
8775.842723644847
 20
2206.291920427775
 30
0.0
 11
8775.842723644847
 21
1880.244591127398
 31
0.0
  0
LINE
  5
19A78
330
19097
100
AcDbEntity
  8
寸法
 62
     0
 48
50.0
370
    -2
100
AcDbLine
 10
8975.84272364485
 20
1940.244591127398
 30
0.0
 11
8775.842723644847
 21
1940.244591127398
 31
0.0
  0
INSERT
  5
19A79
330
19097
100
AcDbEntity
  8
寸法
 62
     0
 48
50.0
370
    -2
100
AcDbBlockReference
  2
_DOTSMALL
 10
8975.84272364485
 20
1940.244591127398
 30
0.0
 41
100.0
 42
100.0
 43
100.0
  0
INSERT
  5
19A7A
330
19097
100
AcDbEntity
  8
寸法
 62
     0
 48
50.0
370
    -2
100
AcDbBlockReference
  2
_DOTSMALL
 10
8775.842723644847
 20
1940.244591127398
 30
0.0
 41
100.0
 42
100.0
 43
100.0
 50
180.0
  0
MTEXT
  5
19A7B
330
19097
100
AcDbEntity
  8
寸法
 62
     7
 48
50.0
100
AcDbMText
 10
8875.842723644849
 20
2040.25640215102
 30
0.0
 40
120.0
 41
0.0
 71
     5
 72
     1
  1
\A1;200
  7
STYLE1
 73
     1
 44
1.0
1001
ACAD
1000
MTEXTBEGIN
1070
    73
1070
     1
1070
    44
1040
1.0
1070
    74
1070
     0
1000
MTEXTEND
  0
POINT
  5
19A7C
330
19097
100
AcDbEntity
  8
DEFPOINTS
 62
     0
 48
50.0
100
AcDbPoint
 10
8975.84272364485
 20
2226.291920427775
 30
0.0
  0
POINT
  5
19A7D
330
19097
100
AcDbEntity
  8
DEFPOINTS
 62
     0
 48
50.0
100
AcDbPoint
 10
8775.842723644847
 20
2226.291920427775
 30
0.0
  0
POINT
  5
19A7E
330
19097
100
AcDbEntity
  8
DEFPOINTS
 62
     0
 48
50.0
100
AcDbPoint
 10
8775.842723644847
 20
1940.244591127398
 30
0.0
  0
ENDBLK
  5
190A2
330
19097
100
AcDbEntity
  8
0
 48
50.0
100
AcDbBlockEnd
  0
BLOCK
  5
190AD
330
190A3
100
AcDbEntity
  8
0
 48
50.0
100
AcDbBlockBegin
  2
*D14
 70
     1
 10
0.0
 20
0.0
 30
0.0
  3
*D14
  1

  0
LINE
  5
19A6D
330
190A3
100
AcDbEntity
  8
寸法
 62
     0
 48
50.0
370
    -2
100
AcDbLine
 10
11085.84272364484
 20
4568.102600039426
 30
0.0
 11
11085.84272364484
 21
5059.949374007079
 31
0.0
  0
LINE
  5
19A6E
330
190A3
100
AcDbEntity
  8
寸法
 62
     0
 48
50.0
370
    -2
100
AcDbLine
 10
8875.842723644849
 20
4617.293538550751
 30
0.0
 11
8875.842723644849
 21
5059.949374007079
 31
0.0
  0
LINE
  5
19A6F
330
190A3
100
AcDbEntity
  8
寸法
 62
     0
 48
50.0
370
    -2
100
AcDbLine
 10
11085.84272364484
 20
4999.949374007078
 30
0.0
 11
8875.842723644849
 21
4999.949374007078
 31
0.0
  0
INSERT
  5
19A70
330
190A3
100
AcDbEntity
  8
寸法
 62
     0
 48
50.0
370
    -2
100
AcDbBlockReference
  2
_DOTSMALL
 10
11085.84272364484
 20
4999.949374007078
 30
0.0
 41
100.0
 42
100.0
 43
100.0
  0
INSERT
  5
19A71
330
190A3
100
AcDbEntity
  8
寸法
 62
     0
 48
50.0
370
    -2
100
AcDbBlockReference
  2
_DOTSMALL
 10
8875.842723644849
 20
4999.949374007078
 30
0.0
 41
100.0
 42
100.0
 43
100.0
 50
180.0
  0
MTEXT
  5
19A72
330
190A3
100
AcDbEntity
  8
寸法
 62
     7
 48
50.0
100
AcDbMText
 10
9970.487460715361
 20
5099.9611850307
 30
0.0
 40
120.0
 41
0.0
 71
     5
 72
     1
  1
\A1;柱外寸法2210
  7
STYLE1
 73
     1
 44
1.0
1001
ACAD
1000
MTEXTBEGIN
1070
    73
1070
     1
1070
    44
1040
1.0
1070
    74
1070
     0
1000
MTEXTEND
  0
POINT
  5
19A73
330
190A3
100
AcDbEntity
  8
DEFPOINTS
 62
     0
 48
50.0
100
AcDbPoint
 10
11085.84272364484
 20
4548.102600039427
 30
0.0
  0
POINT
  5
19A74
330
190A3
100
AcDbEntity
  8
DEFPOINTS
 62
     0
 48
50.0
100
AcDbPoint
 10
8875.842723644849
 20
4597.293538550752
 30
0.0
  0
POINT
  5
19A75
330
190A3
100
AcDbEntity
  8
DEFPOINTS
 62
     0
 48
50.0
100
AcDbPoint
 10
8875.842723644849
 20
4999.949374007078
 30
0.0
  0
ENDBLK
  5
190AE
330
190A3
100
AcDbEntity
  8
0
 48
50.0
100
AcDbBlockEnd
  0
BLOCK
  5
190B9
330
190AF
100
AcDbEntity
  8
0
 48
50.0
100
AcDbBlockBegin
  2
*D15
 70
     1
 10
0.0
 20
0.0
 30
0.0
  3
*D15
  1

  0
LINE
  5
19A64
330
190AF
100
AcDbEntity
  8
寸法
 62
     0
 48
50.0
370
    -2
100
AcDbLine
 10
11165.84272364484
 20
4566.291920427775
 30
0.0
 11
11165.84272364484
 21
5279.151207681371
 31
0.0
  0
LINE
  5
19A65
330
190AF
100
AcDbEntity
  8
寸法
 62
     0
 48
50.0
370
    -2
100
AcDbLine
 10
8815.842723644847
 20
4621.291920427778
 30
0.0
 11
8815.842723644847
 21
5279.151207681371
 31
0.0
  0
LINE
  5
19A66
330
190AF
100
AcDbEntity
  8
寸法
 62
     0
 48
50.0
370
    -2
100
AcDbLine
 10
11165.84272364484
 20
5219.15120768137
 30
0.0
 11
8815.842723644847
 21
5219.15120768137
 31
0.0
  0
INSERT
  5
19A67
330
190AF
100
AcDbEntity
  8
寸法
 62
     0
 48
50.0
370
    -2
100
AcDbBlockReference
  2
_DOTSMALL
 10
11165.84272364484
 20
5219.15120768137
 30
0.0
 41
100.0
 42
100.0
 43
100.0
  0
INSERT
  5
19A68
330
190AF
100
AcDbEntity
  8
寸法
 62
     0
 48
50.0
370
    -2
100
AcDbBlockReference
  2
_DOTSMALL
 10
8815.842723644847
 20
5219.15120768137
 30
0.0
 41
100.0
 42
100.0
 43
100.0
 50
180.0
  0
MTEXT
  5
19A69
330
190AF
100
AcDbEntity
  8
寸法
 62
     7
 48
50.0
100
AcDbMText
 10
10050.18657773731
 20
5319.163018704992
 30
0.0
 40
120.0
 41
0.0
 71
     5
 72
     1
  1
\A1;2350
  7
STYLE1
 73
     1
 44
1.0
1001
ACAD
1000
MTEXTBEGIN
1070
    73
1070
     1
1070
    44
1040
1.0
1070
    74
1070
     0
1000
MTEXTEND
  0
POINT
  5
19A6A
330
190AF
100
AcDbEntity
  8
DEFPOINTS
 62
     0
 48
50.0
100
AcDbPoint
 10
11165.84272364484
 20
4546.291920427775
 30
0.0
  0
POINT
  5
19A6B
330
190AF
100
AcDbEntity
  8
DEFPOINTS
 62
     0
 48
50.0
100
AcDbPoint
 10
8815.842723644847
 20
4601.291920427779
 30
0.0
  0
POINT
  5
19A6C
330
190AF
100
AcDbEntity
  8
DEFPOINTS
 62
     0
 48
50.0
100
AcDbPoint
 10
8815.842723644847
 20
5219.15120768137
 30
0.0
  0
ENDBLK
  5
190BA
330
190AF
100
AcDbEntity
  8
0
 48
50.0
100
AcDbBlockEnd
  0
BLOCK
  5
190C6
330
190BB
100
AcDbEntity
  8
0
 48
50.0
100
AcDbBlockBegin
  2
*D16
 70
     1
 10
0.0
 20
0.0
 30
0.0
  3
*D16
  1

  0
LINE
  5
19A5A
330
190BB
100
AcDbEntity
  8
寸法
 62
     0
 48
50.0
370
    -2
100
AcDbLine
 10
11085.84272364484
 20
4568.102600039426
 30
0.0
 11
11085.84272364484
 21
5059.949374007079
 31
0.0
  0
LINE
  5
19A5B
330
190BB
100
AcDbEntity
  8
寸法
 62
     0
 48
50.0
370
    -2
100
AcDbLine
 10
11165.84272364484
 20
4566.291920427775
 30
0.0
 11
11165.84272364484
 21
5059.949374007079
 31
0.0
  0
LINE
  5
19A5C
330
190BB
100
AcDbEntity
  8
寸法
 62
     0
 48
50.0
370
    -2
100
AcDbLine
 10
11085.84272364484
 20
4999.949374007078
 30
0.0
 11
11165.84272364484
 21
4999.949374007078
 31
0.0
  0
LINE
  5
19A5D
330
190BB
100
AcDbEntity
  8
寸法
 62
     0
 48
50.0
370
    -2
100
AcDbLine
 10
11165.84272364484
 20
4999.949374007078
 30
0.0
 11
11477.93721183383
 21
4999.949374007078
 31
0.0
  0
INSERT
  5
19A5E
330
190BB
100
AcDbEntity
  8
寸法
 62
     0
 48
50.0
370
    -2
100
AcDbBlockReference
  2
_DOTSMALL
 10
11085.84272364484
 20
4999.949374007078
 30
0.0
 41
100.0
 42
100.0
 43
100.0
 50
180.0
  0
INSERT
  5
19A5F
330
190BB
100
AcDbEntity
  8
寸法
 62
     0
 48
50.0
370
    -2
100
AcDbBlockReference
  2
_DOTSMALL
 10
11165.84272364484
 20
4999.949374007078
 30
0.0
 41
100.0
 42
100.0
 43
100.0
  0
MTEXT
  5
19A60
330
190BB
100
AcDbEntity
  8
寸法
 62
     7
 48
50.0
100
AcDbMText
 10
11371.88996773934
 20
5099.949374007078
 30
0.0
 40
120.0
 41
0.0
 71
     5
 72
     1
  1
\A1;80
  7
STYLE1
 73
     1
 44
1.0
1001
ACAD
1000
MTEXTBEGIN
1070
    73
1070
     1
1070
    44
1040
1.0
1070
    74
1070
     0
1000
MTEXTEND
  0
POINT
  5
19A61
330
190BB
100
AcDbEntity
  8
DEFPOINTS
 62
     0
 48
50.0
100
AcDbPoint
 10
11085.84272364484
 20
4548.102600039427
 30
0.0
  0
POINT
  5
19A62
330
190BB
100
AcDbEntity
  8
DEFPOINTS
 62
     0
 48
50.0
100
AcDbPoint
 10
11165.84272364484
 20
4546.291920427775
 30
0.0
  0
POINT
  5
19A63
330
190BB
100
AcDbEntity
  8
DEFPOINTS
 62
     0
 48
50.0
100
AcDbPoint
 10
11165.84272364484
 20
4999.949374007078
 30
0.0
  0
ENDBLK
  5
190C7
330
190BB
100
AcDbEntity
  8
0
 48
50.0
100
AcDbBlockEnd
  0
BLOCK
  5
190D4
330
190C8
100
AcDbEntity
  8
0
 48
50.0
100
AcDbBlockBegin
  2
*D17
 70
     1
 10
0.0
 20
0.0
 30
0.0
  3
*D17
  1

  0
LINE
  5
19A4F
330
190C8
100
AcDbEntity
  8
寸法
 62
     0
 48
50.0
370
    -2
100
AcDbLine
 10
8875.842723644849
 20
4617.293538550751
 30
0.0
 11
8875.842723644849
 21
5059.949374007079
 31
0.0
  0
LINE
  5
19A50
330
190C8
100
AcDbEntity
  8
寸法
 62
     0
 48
50.0
370
    -2
100
AcDbLine
 10
8815.842723644847
 20
4621.291920427778
 30
0.0
 11
8815.842723644847
 21
5059.949374007079
 31
0.0
  0
LINE
  5
19A51
330
190C8
100
AcDbEntity
  8
寸法
 62
     0
 48
50.0
370
    -2
100
AcDbLine
 10
8875.842723644849
 20
4999.949374007078
 30
0.0
 11
8975.842723644849
 21
4999.949374007078
 31
0.0
  0
LINE
  5
19A52
330
190C8
100
AcDbEntity
  8
寸法
 62
     0
 48
50.0
370
    -2
100
AcDbLine
 10
8815.842723644847
 20
4999.949374007078
 30
0.0
 11
8396.567133093666
 21
4999.949374007078
 31
0.0
  0
LINE
  5
19A53
330
190C8
100
AcDbEntity
  8
寸法
 62
     0
 48
50.0
370
    -2
100
AcDbLine
 10
8875.842723644849
 20
4999.949374007078
 30
0.0
 11
8815.842723644847
 21
4999.949374007078
 31
0.0
  0
INSERT
  5
19A54
330
190C8
100
AcDbEntity
  8
寸法
 62
     0
 48
50.0
370
    -2
100
AcDbBlockReference
  2
_DOTSMALL
 10
8875.842723644849
 20
4999.949374007078
 30
0.0
 41
100.0
 42
100.0
 43
100.0
 50
180.0
  0
INSERT
  5
19A55
330
190C8
100
AcDbEntity
  8
寸法
 62
     0
 48
50.0
370
    -2
100
AcDbBlockReference
  2
_DOTSMALL
 10
8815.842723644847
 20
4999.949374007078
 30
0.0
 41
100.0
 42
100.0
 43
100.0
  0
MTEXT
  5
19A56
330
190C8
100
AcDbEntity
  8
寸法
 62
     7
 48
50.0
100
AcDbMText
 10
8506.204928369257
 20
5099.949374007078
 30
0.0
 40
120.0
 41
0.0
 71
     5
 72
     1
  1
\A1;60
  7
STYLE1
 73
     1
 44
1.0
1001
ACAD
1000
MTEXTBEGIN
1070
    73
1070
     1
1070
    44
1040
1.0
1070
    74
1070
     0
1000
MTEXTEND
  0
POINT
  5
19A57
330
190C8
100
AcDbEntity
  8
DEFPOINTS
 62
     0
 48
50.0
100
AcDbPoint
 10
8875.842723644849
 20
4597.293538550752
 30
0.0
  0
POINT
  5
19A58
330
190C8
100
AcDbEntity
  8
DEFPOINTS
 62
     0
 48
50.0
100
AcDbPoint
 10
8815.842723644847
 20
4601.291920427779
 30
0.0
  0
POINT
  5
19A59
330
190C8
100
AcDbEntity
  8
DEFPOINTS
 62
     0
 48
50.0
100
AcDbPoint
 10
8815.842723644847
 20
4999.949374007078
 30
0.0
  0
ENDBLK
  5
190D5
330
190C8
100
AcDbEntity
  8
0
 48
50.0
100
AcDbBlockEnd
  0
BLOCK
  5
190E1
330
190D6
100
AcDbEntity
  8
0
 48
50.0
100
AcDbBlockBegin
  2
*D18
 70
     1
 10
0.0
 20
0.0
 30
0.0
  3
*D18
  1

  0
LINE
  5
19A45
330
190D6
100
AcDbEntity
  8
寸法
 62
     0
 48
50.0
370
    -2
100
AcDbLine
 10
8815.24700993595
 20
4600.589627497437
 30
0.0
 11
8199.312570830675
 21
4618.303777771767
 31
0.0
  0
LINE
  5
19A46
330
190D6
100
AcDbEntity
  8
寸法
 62
     0
 48
50.0
370
    -2
100
AcDbLine
 10
8811.193554379325
 20
4459.647903731722
 30
0.0
 11
8195.259115274049
 21
4477.362054006052
 31
0.0
  0
LINE
  5
19A47
330
190D6
100
AcDbEntity
  8
寸法
 62
     0
 48
50.0
370
    -2
100
AcDbLine
 10
8255.234316876482
 20
4475.637179301104
 30
0.0
 11
8259.287772433109
 21
4616.578903066819
 31
0.0
  0
LINE
  5
19A48
330
190D6
100
AcDbEntity
  8
寸法
 62
     0
 48
50.0
370
    -2
100
AcDbLine
 10
8259.287772433109
 20
4616.578903066819
 30
0.0
 11
8269.637020662793
 21
4976.430112681409
 31
0.0
  0
INSERT
  5
19A49
330
190D6
100
AcDbEntity
  8
寸法
 62
     0
 48
50.0
370
    -2
100
AcDbBlockReference
  2
_DOTSMALL
 10
8255.234316876482
 20
4475.637179301104
 30
0.0
 41
100.0
 42
100.0
 43
100.0
 50
268.3526390256379
  0
INSERT
  5
19A4A
330
190D6
100
AcDbEntity
  8
寸法
 62
     0
 48
50.0
370
    -2
100
AcDbBlockReference
  2
_DOTSMALL
 10
8259.287772433109
 20
4616.578903066819
 30
0.0
 41
100.0
 42
100.0
 43
100.0
 50
88.35263902563784
  0
MTEXT
  5
19A4B
330
190D6
100
AcDbEntity
  8
寸法
 62
     7
 48
50.0
100
AcDbMText
 10
8165.941122798022
 20
4849.358633717724
 30
0.0
 40
120.0
 41
0.0
 71
     5
 72
     1
  1
\A1;141
  7
STYLE1
 11
0.0287479117491228
 21
0.9995866933738486
 31
0.0
 73
     1
 44
1.0
1001
ACAD
1000
MTEXTBEGIN
1070
    73
1070
     1
1070
    44
1040
1.0
1070
    74
1070
     0
1000
MTEXTEND
  0
POINT
  5
19A4C
330
190D6
100
AcDbEntity
  8
DEFPOINTS
 62
     0
 48
50.0
100
AcDbPoint
 10
8835.238743803426
 20
4600.014669262455
 30
0.0
  0
POINT
  5
19A4D
330
190D6
100
AcDbEntity
  8
DEFPOINTS
 62
     0
 48
50.0
100
AcDbPoint
 10
8831.185288246802
 20
4459.07294549674
 30
0.0
  0
POINT
  5
19A4E
330
190D6
100
AcDbEntity
  8
DEFPOINTS
 62
     0
 48
50.0
100
AcDbPoint
 10
8255.234316876482
 20
4475.637179301104
 30
0.0
  0
ENDBLK
  5
190E2
330
190D6
100
AcDbEntity
  8
0
 48
50.0
100
AcDbBlockEnd
  0
BLOCK
  5
190ED
330
190E3
100
AcDbEntity
  8
0
 48
50.0
100
AcDbBlockBegin
  2
*D19
 70
     1
 10
0.0
 20
0.0
 30
0.0
  3
*D19
  1

  0
LINE
  5
19A3C
330
190E3
100
AcDbEntity
  8
寸法
 62
     0
 48
50.0
370
    -2
100
AcDbLine
 10
11105.84272364484
 20
2526.291920427775
 30
0.0
 11
11681.01281940727
 21
2526.291920427775
 31
0.0
  0
LINE
  5
19A3D
330
190E3
100
AcDbEntity
  8
寸法
 62
     0
 48
50.0
370
    -2
100
AcDbLine
 10
11185.84272364483
 20
4546.291920427776
 30
0.0
 11
11681.01281940727
 21
4546.291920427776
 31
0.0
  0
LINE
  5
19A3E
330
190E3
100
AcDbEntity
  8
寸法
 62
     0
 48
50.0
370
    -2
100
AcDbLine
 10
11621.01281940727
 20
2526.291920427775
 30
0.0
 11
11621.01281940727
 21
4546.291920427776
 31
0.0
  0
INSERT
  5
19A3F
330
190E3
100
AcDbEntity
  8
寸法
 62
     0
 48
50.0
370
    -2
100
AcDbBlockReference
  2
_DOTSMALL
 10
11621.01281940727
 20
2526.291920427775
 30
0.0
 41
100.0
 42
100.0
 43
100.0
 50
270.0
  0
INSERT
  5
19A40
330
190E3
100
AcDbEntity
  8
寸法
 62
     0
 48
50.0
370
    -2
100
AcDbBlockReference
  2
_DOTSMALL
 10
11621.01281940727
 20
4546.291920427776
 30
0.0
 41
100.0
 42
100.0
 43
100.0
 50
90.0
  0
MTEXT
  5
19A41
330
190E3
100
AcDbEntity
  8
寸法
 62
     7
 48
50.0
100
AcDbMText
 10
11521.00100838365
 20
3508.548247857464
 30
0.0
 40
120.0
 41
0.0
 71
     5
 72
     1
  1
\A1;2020
  7
STYLE1
 11
0.0000000000000001
 21
1.0
 31
0.0
 73
     1
 44
1.0
1001
ACAD
1000
MTEXTBEGIN
1070
    73
1070
     1
1070
    44
1040
1.0
1070
    74
1070
     0
1000
MTEXTEND
  0
POINT
  5
19A42
330
190E3
100
AcDbEntity
  8
DEFPOINTS
 62
     0
 48
50.0
100
AcDbPoint
 10
11085.84272364484
 20
2526.291920427775
 30
0.0
  0
POINT
  5
19A43
330
190E3
100
AcDbEntity
  8
DEFPOINTS
 62
     0
 48
50.0
100
AcDbPoint
 10
11165.84272364483
 20
4546.291920427776
 30
0.0
  0
POINT
  5
19A44
330
190E3
100
AcDbEntity
  8
DEFPOINTS
 62
     0
 48
50.0
100
AcDbPoint
 10
11621.01281940727
 20
4546.291920427776
 30
0.0
  0
ENDBLK
  5
190EE
330
190E3
100
AcDbEntity
  8
0
 48
50.0
100
AcDbBlockEnd
  0
BLOCK
  5
190F9
330
190EF
100
AcDbEntity
  8
0
 48
50.0
100
AcDbBlockBegin
  2
*D20
 70
     1
 10
0.0
 20
0.0
 30
0.0
  3
*D20
  1

  0
LINE
  5
19A33
330
190EF
100
AcDbEntity
  8
寸法
 62
     0
 48
50.0
370
    -2
100
AcDbLine
 10
8855.842723644848
 20
2526.291920427775
 30
0.0
 11
7907.20334171549
 21
2526.291920427775
 31
0.0
  0
LINE
  5
19A34
330
190EF
100
AcDbEntity
  8
寸法
 62
     0
 48
50.0
370
    -2
100
AcDbLine
 10
8795.842723644849
 20
4601.29192042778
 30
0.0
 11
7907.20334171549
 21
4601.29192042778
 31
0.0
  0
LINE
  5
19A35
330
190EF
100
AcDbEntity
  8
寸法
 62
     0
 48
50.0
370
    -2
100
AcDbLine
 10
7967.203341715491
 20
2526.291920427775
 30
0.0
 11
7967.203341715491
 21
4601.29192042778
 31
0.0
  0
INSERT
  5
19A36
330
190EF
100
AcDbEntity
  8
寸法
 62
     0
 48
50.0
370
    -2
100
AcDbBlockReference
  2
_DOTSMALL
 10
7967.203341715491
 20
2526.291920427775
 30
0.0
 41
100.0
 42
100.0
 43
100.0
 50
270.0
  0
INSERT
  5
19A37
330
190EF
100
AcDbEntity
  8
寸法
 62
     0
 48
50.0
370
    -2
100
AcDbBlockReference
  2
_DOTSMALL
 10
7967.203341715491
 20
4601.29192042778
 30
0.0
 41
100.0
 42
100.0
 43
100.0
 50
90.0
  0
MTEXT
  5
19A38
330
190EF
100
AcDbEntity
  8
寸法
 62
     7
 48
50.0
100
AcDbMText
 10
7867.191530691868
 20
3520.497797920886
 30
0.0
 40
120.0
 41
0.0
 71
     5
 72
     1
  1
\A1;2075
  7
STYLE1
 11
0.0000000000000001
 21
1.0
 31
0.0
 73
     1
 44
1.0
1001
ACAD
1000
MTEXTBEGIN
1070
    73
1070
     1
1070
    44
1040
1.0
1070
    74
1070
     0
1000
MTEXTEND
  0
POINT
  5
19A39
330
190EF
100
AcDbEntity
  8
DEFPOINTS
 62
     0
 48
50.0
100
AcDbPoint
 10
8875.842723644849
 20
2526.291920427775
 30
0.0
  0
POINT
  5
19A3A
330
190EF
100
AcDbEntity
  8
DEFPOINTS
 62
     0
 48
50.0
100
AcDbPoint
 10
8815.842723644847
 20
4601.29192042778
 30
0.0
  0
POINT
  5
19A3B
330
190EF
100
AcDbEntity
  8
DEFPOINTS
 62
     0
 48
50.0
100
AcDbPoint
 10
7967.203341715491
 20
4601.29192042778
 30
0.0
  0
ENDBLK
  5
190FA
330
190EF
100
AcDbEntity
  8
0
 48
50.0
100
AcDbBlockEnd
  0
BLOCK
  5
19105
330
190FB
100
AcDbEntity
  8
0
 48
50.0
100
AcDbBlockBegin
  2
*D21
 70
     1
 10
0.0
 20
0.0
 30
0.0
  3
*D21
  1

  0
LINE
  5
19A2A
330
190FB
100
AcDbEntity
  8
寸法
 62
     0
 48
50.0
370
    -2
100
AcDbLine
 10
8855.842723644848
 20
4366.291920427775
 30
0.0
 11
8192.190014486552
 21
4366.291920427775
 31
0.0
  0
LINE
  5
19A2B
330
190FB
100
AcDbEntity
  8
寸法
 62
     0
 48
50.0
370
    -2
100
AcDbLine
 10
8855.842723644848
 20
2576.291920427775
 30
0.0
 11
8192.19001448655
 21
2576.291920427775
 31
0.0
  0
LINE
  5
19A2C
330
190FB
100
AcDbEntity
  8
寸法
 62
     0
 48
50.0
370
    -2
100
AcDbLine
 10
8252.190014486552
 20
4366.291920427775
 30
0.0
 11
8252.190014486551
 21
2576.291920427775
 31
0.0
  0
INSERT
  5
19A2D
330
190FB
100
AcDbEntity
  8
寸法
 62
     0
 48
50.0
370
    -2
100
AcDbBlockReference
  2
_DOTSMALL
 10
8252.190014486552
 20
4366.291920427775
 30
0.0
 41
100.0
 42
100.0
 43
100.0
 50
90.0
  0
INSERT
  5
19A2E
330
190FB
100
AcDbEntity
  8
寸法
 62
     0
 48
50.0
370
    -2
100
AcDbBlockReference
  2
_DOTSMALL
 10
8252.190014486551
 20
2576.291920427775
 30
0.0
 41
100.0
 42
100.0
 43
100.0
 50
270.0
  0
MTEXT
  5
19A2F
330
190FB
100
AcDbEntity
  8
寸法
 62
     7
 48
50.0
100
AcDbMText
 10
8152.190014486551
 20
3466.746218969733
 30
0.0
 40
120.0
 41
0.0
 71
     5
 72
     1
  1
\A1;1790
  7
STYLE1
 11
0.0000000000000001
 21
1.0
 31
0.0
 73
     1
 44
1.0
1001
ACAD
1000
MTEXTBEGIN
1070
    73
1070
     1
1070
    44
1040
1.0
1070
    74
1070
     0
1000
MTEXTEND
  0
POINT
  5
19A30
330
190FB
100
AcDbEntity
  8
DEFPOINTS
 62
     0
 48
50.0
100
AcDbPoint
 10
8875.842723644849
 20
4366.291920427775
 30
0.0
  0
POINT
  5
19A31
330
190FB
100
AcDbEntity
  8
DEFPOINTS
 62
     0
 48
50.0
100
AcDbPoint
 10
8875.842723644849
 20
2576.291920427775
 30
0.0
  0
POINT
  5
19A32
330
190FB
100
AcDbEntity
  8
DEFPOINTS
 62
     0
 48
50.0
100
AcDbPoint
 10
8252.190014486551
 20
2576.291920427775
 30
0.0
  0
ENDBLK
  5
19106
330
190FB
100
AcDbEntity
  8
0
 48
50.0
100
AcDbBlockEnd
  0
BLOCK
  5
19113
330
19107
100
AcDbEntity
  8
0
 48
50.0
100
AcDbBlockBegin
  2
*D22
 70
     1
 10
0.0
 20
0.0
 30
0.0
  3
*D22
  1

  0
LINE
  5
19A1F
330
19107
100
AcDbEntity
  8
寸法
 62
     0
 48
50.0
370
    -2
100
AcDbLine
 10
8855.842723644848
 20
2576.291920427775
 30
0.0
 11
8192.19001448655
 21
2576.291920427775
 31
0.0
  0
LINE
  5
19A20
330
19107
100
AcDbEntity
  8
寸法
 62
     0
 48
50.0
370
    -2
100
AcDbLine
 10
8800.842723644848
 20
2526.291920427775
 30
0.0
 11
8192.19001448655
 21
2526.291920427775
 31
0.0
  0
LINE
  5
19A21
330
19107
100
AcDbEntity
  8
寸法
 62
     0
 48
50.0
370
    -2
100
AcDbLine
 10
8252.190014486551
 20
2576.291920427775
 30
0.0
 11
8252.190014486551
 21
2676.291920427775
 31
0.0
  0
LINE
  5
19A22
330
19107
100
AcDbEntity
  8
寸法
 62
     0
 48
50.0
370
    -2
100
AcDbLine
 10
8252.190014486551
 20
2526.291920427775
 30
0.0
 11
8252.190014486551
 21
2114.197432238795
 31
0.0
  0
LINE
  5
19A23
330
19107
100
AcDbEntity
  8
寸法
 62
     0
 48
50.0
370
    -2
100
AcDbLine
 10
8252.190014486551
 20
2576.291920427775
 30
0.0
 11
8252.190014486551
 21
2526.291920427775
 31
0.0
  0
INSERT
  5
19A24
330
19107
100
AcDbEntity
  8
寸法
 62
     0
 48
50.0
370
    -2
100
AcDbBlockReference
  2
_DOTSMALL
 10
8252.190014486551
 20
2576.291920427775
 30
0.0
 41
100.0
 42
100.0
 43
100.0
 50
270.0
  0
INSERT
  5
19A25
330
19107
100
AcDbEntity
  8
寸法
 62
     0
 48
50.0
370
    -2
100
AcDbBlockReference
  2
_DOTSMALL
 10
8252.190014486551
 20
2526.291920427775
 30
0.0
 41
100.0
 42
100.0
 43
100.0
 50
90.0
  0
MTEXT
  5
19A26
330
19107
100
AcDbEntity
  8
寸法
 62
     7
 48
50.0
100
AcDbMText
 10
8152.190014486551
 20
2220.244676333285
 30
0.0
 40
120.0
 41
0.0
 71
     5
 72
     1
  1
\A1;50
  7
STYLE1
 11
0.0000000000000001
 21
1.0
 31
0.0
 73
     1
 44
1.0
1001
ACAD
1000
MTEXTBEGIN
1070
    73
1070
     1
1070
    44
1040
1.0
1070
    74
1070
     0
1000
MTEXTEND
  0
POINT
  5
19A27
330
19107
100
AcDbEntity
  8
DEFPOINTS
 62
     0
 48
50.0
100
AcDbPoint
 10
8875.842723644849
 20
2576.291920427775
 30
0.0
  0
POINT
  5
19A28
330
19107
100
AcDbEntity
  8
DEFPOINTS
 62
     0
 48
50.0
100
AcDbPoint
 10
8820.842723644849
 20
2526.291920427775
 30
0.0
  0
POINT
  5
19A29
330
19107
100
AcDbEntity
  8
DEFPOINTS
 62
     0
 48
50.0
100
AcDbPoint
 10
8252.190014486551
 20
2526.291920427775
 30
0.0
  0
ENDBLK
  5
19114
330
19107
100
AcDbEntity
  8
0
 48
50.0
100
AcDbBlockEnd
  0
BLOCK
  5
1917A
330
1916F
100
AcDbEntity
  8
0
 48
50.0
100
AcDbBlockBegin
  2
*D23
 70
     1
 10
0.0
 20
0.0
 30
0.0
  3
*D23
  1

  0
LINE
  5
19A15
330
1916F
100
AcDbEntity
  8
寸法
 62
     0
 48
50.0
370
    -2
100
AcDbLine
 10
8800.842723644848
 20
2526.291920427775
 30
0.0
 11
7907.20334171549
 21
2526.291920427775
 31
0.0
  0
LINE
  5
19A16
330
1916F
100
AcDbEntity
  8
寸法
 62
     0
 48
50.0
370
    -2
100
AcDbLine
 10
8232.190014486551
 20
2426.291920427775
 30
0.0
 11
7907.20334171549
 21
2426.291920427775
 31
0.0
  0
LINE
  5
19A17
330
1916F
100
AcDbEntity
  8
寸法
 62
     0
 48
50.0
370
    -2
100
AcDbLine
 10
7967.203341715491
 20
2526.291920427775
 30
0.0
 11
7967.203341715491
 21
2426.291920427775
 31
0.0
  0
LINE
  5
19A18
330
1916F
100
AcDbEntity
  8
寸法
 62
     0
 48
50.0
370
    -2
100
AcDbLine
 10
7967.203341715491
 20
2426.291920427775
 30
0.0
 11
7967.203341715491
 21
2054.197432238795
 31
0.0
  0
INSERT
  5
19A19
330
1916F
100
AcDbEntity
  8
寸法
 62
     0
 48
50.0
370
    -2
100
AcDbBlockReference
  2
_DOTSMALL
 10
7967.203341715491
 20
2526.291920427775
 30
0.0
 41
100.0
 42
100.0
 43
100.0
 50
90.0
  0
INSERT
  5
19A1A
330
1916F
100
AcDbEntity
  8
寸法
 62
     0
 48
50.0
370
    -2
100
AcDbBlockReference
  2
_DOTSMALL
 10
7967.203341715491
 20
2426.291920427775
 30
0.0
 41
100.0
 42
100.0
 43
100.0
 50
270.0
  0
MTEXT
  5
19A1B
330
1916F
100
AcDbEntity
  8
寸法
 62
     7
 48
50.0
100
AcDbMText
 10
7867.203341715489
 20
2190.244676333285
 30
0.0
 40
120.0
 41
0.0
 71
     5
 72
     1
  1
\A1;100
  7
STYLE1
 11
0.0000000000000001
 21
1.0
 31
0.0
 73
     1
 44
1.0
1001
ACAD
1000
MTEXTBEGIN
1070
    73
1070
     1
1070
    44
1040
1.0
1070
    74
1070
     0
1000
MTEXTEND
  0
POINT
  5
19A1C
330
1916F
100
AcDbEntity
  8
DEFPOINTS
 62
     0
 48
50.0
100
AcDbPoint
 10
8820.842723644849
 20
2526.291920427775
 30
0.0
  0
POINT
  5
19A1D
330
1916F
100
AcDbEntity
  8
DEFPOINTS
 62
     0
 48
50.0
100
AcDbPoint
 10
8252.190014486551
 20
2426.291920427775
 30
0.0
  0
POINT
  5
19A1E
330
1916F
100
AcDbEntity
  8
DEFPOINTS
 62
     0
 48
50.0
100
AcDbPoint
 10
7967.203341715491
 20
2426.291920427775
 30
0.0
  0
ENDBLK
  5
1917B
330
1916F
100
AcDbEntity
  8
0
 48
50.0
100
AcDbBlockEnd
  0
BLOCK
  5
195EA
330
195E0
100
AcDbEntity
  8
0
 48
50.0
100
AcDbBlockBegin
  2
*D24
 70
     1
 10
0.0
 20
0.0
 30
0.0
  3
*D24
  1

  0
LINE
  5
19A0C
330
195E0
100
AcDbEntity
  8
寸法
 62
     0
 48
50.0
370
    -2
100
AcDbLine
 10
4471.245694307592
 20
2226.291920427776
 30
0.0
 11
4281.745691060955
 21
2226.291920427776
 31
0.0
  0
LINE
  5
19A0D
330
195E0
100
AcDbEntity
  8
寸法
 62
     0
 48
50.0
370
    -2
100
AcDbLine
 10
4446.245694307588
 20
2426.291920427776
 30
0.0
 11
4281.745691060955
 21
2426.291920427776
 31
0.0
  0
LINE
  5
19A0E
330
195E0
100
AcDbEntity
  8
寸法
 62
     0
 48
50.0
370
    -2
100
AcDbLine
 10
4341.745691060955
 20
2226.291920427776
 30
0.0
 11
4341.745691060955
 21
2426.291920427776
 31
0.0
  0
INSERT
  5
19A0F
330
195E0
100
AcDbEntity
  8
寸法
 62
     0
 48
50.0
370
    -2
100
AcDbBlockReference
  2
_DOTSMALL
 10
4341.745691060955
 20
2226.291920427776
 30
0.0
 41
100.0
 42
100.0
 43
100.0
 50
270.0
  0
INSERT
  5
19A10
330
195E0
100
AcDbEntity
  8
寸法
 62
     0
 48
50.0
370
    -2
100
AcDbBlockReference
  2
_DOTSMALL
 10
4341.745691060955
 20
2426.291920427776
 30
0.0
 41
100.0
 42
100.0
 43
100.0
 50
90.0
  0
MTEXT
  5
19A11
330
195E0
100
AcDbEntity
  8
寸法
 62
     7
 48
50.0
100
AcDbMText
 10
4241.733880037332
 20
2326.291920427776
 30
0.0
 40
120.0
 41
0.0
 71
     5
 72
     1
  1
\A1;200
  7
STYLE1
 11
0.0000000000000001
 21
1.0
 31
0.0
 73
     1
 44
1.0
1001
ACAD
1000
MTEXTBEGIN
1070
    73
1070
     1
1070
    44
1040
1.0
1070
    74
1070
     0
1000
MTEXTEND
  0
POINT
  5
19A12
330
195E0
100
AcDbEntity
  8
DEFPOINTS
 62
     0
 48
50.0
100
AcDbPoint
 10
4491.245694307592
 20
2226.291920427776
 30
0.0
  0
POINT
  5
19A13
330
195E0
100
AcDbEntity
  8
DEFPOINTS
 62
     0
 48
50.0
100
AcDbPoint
 10
4466.245694307588
 20
2426.291920427776
 30
0.0
  0
POINT
  5
19A14
330
195E0
100
AcDbEntity
  8
DEFPOINTS
 62
     0
 48
50.0
100
AcDbPoint
 10
4341.745691060955
 20
2426.291920427776
 30
0.0
  0
ENDBLK
  5
195EB
330
195E0
100
AcDbEntity
  8
0
 48
50.0
100
AcDbBlockEnd
  0
BLOCK
  5
195F6
330
195EC
100
AcDbEntity
  8
0
 48
50.0
100
AcDbBlockBegin
  2
*D25
 70
     1
 10
0.0
 20
0.0
 30
0.0
  3
*D25
  1

  0
LINE
  5
19A03
330
195EC
100
AcDbEntity
  8
寸法
 62
     0
 48
50.0
370
    -2
100
AcDbLine
 10
4691.245694307588
 20
2206.291920427774
 30
0.0
 11
4691.245694307588
 21
1880.244591127398
 31
0.0
  0
LINE
  5
19A04
330
195EC
100
AcDbEntity
  8
寸法
 62
     0
 48
50.0
370
    -2
100
AcDbLine
 10
4491.245694307592
 20
2206.291920427776
 30
0.0
 11
4491.245694307592
 21
1880.244591127398
 31
0.0
  0
LINE
  5
19A05
330
195EC
100
AcDbEntity
  8
寸法
 62
     0
 48
50.0
370
    -2
100
AcDbLine
 10
4691.245694307588
 20
1940.244591127398
 30
0.0
 11
4491.245694307592
 21
1940.244591127398
 31
0.0
  0
INSERT
  5
19A06
330
195EC
100
AcDbEntity
  8
寸法
 62
     0
 48
50.0
370
    -2
100
AcDbBlockReference
  2
_DOTSMALL
 10
4691.245694307588
 20
1940.244591127398
 30
0.0
 41
100.0
 42
100.0
 43
100.0
  0
INSERT
  5
19A07
330
195EC
100
AcDbEntity
  8
寸法
 62
     0
 48
50.0
370
    -2
100
AcDbBlockReference
  2
_DOTSMALL
 10
4491.245694307592
 20
1940.244591127398
 30
0.0
 41
100.0
 42
100.0
 43
100.0
 50
180.0
  0
MTEXT
  5
19A08
330
195EC
100
AcDbEntity
  8
寸法
 62
     7
 48
50.0
100
AcDbMText
 10
4591.24569430759
 20
2040.25640215102
 30
0.0
 40
120.0
 41
0.0
 71
     5
 72
     1
  1
\A1;200
  7
STYLE1
 73
     1
 44
1.0
1001
ACAD
1000
MTEXTBEGIN
1070
    73
1070
     1
1070
    44
1040
1.0
1070
    74
1070
     0
1000
MTEXTEND
  0
POINT
  5
19A09
330
195EC
100
AcDbEntity
  8
DEFPOINTS
 62
     0
 48
50.0
100
AcDbPoint
 10
4691.245694307588
 20
2226.291920427774
 30
0.0
  0
POINT
  5
19A0A
330
195EC
100
AcDbEntity
  8
DEFPOINTS
 62
     0
 48
50.0
100
AcDbPoint
 10
4491.245694307592
 20
2226.291920427776
 30
0.0
  0
POINT
  5
19A0B
330
195EC
100
AcDbEntity
  8
DEFPOINTS
 62
     0
 48
50.0
100
AcDbPoint
 10
4491.245694307592
 20
1940.244591127398
 30
0.0
  0
ENDBLK
  5
195F7
330
195EC
100
AcDbEntity
  8
0
 48
50.0
100
AcDbBlockEnd
  0
BLOCK
  5
19602
330
195F8
100
AcDbEntity
  8
0
 48
50.0
100
AcDbBlockBegin
  2
*D26
 70
     1
 10
0.0
 20
0.0
 30
0.0
  3
*D26
  1

  0
LINE
  5
199FA
330
195F8
100
AcDbEntity
  8
寸法
 62
     0
 48
50.0
370
    -2
100
AcDbLine
 10
4513.745694307589
 20
4621.291920427782
 30
0.0
 11
4513.745694307589
 21
5275.506054276497
 31
0.0
  0
LINE
  5
199FB
330
195F8
100
AcDbEntity
  8
寸法
 62
     0
 48
50.0
370
    -2
100
AcDbLine
 10
6823.745694307593
 20
4621.291920427778
 30
0.0
 11
6823.745694307593
 21
5275.506054276497
 31
0.0
  0
LINE
  5
199FC
330
195F8
100
AcDbEntity
  8
寸法
 62
     0
 48
50.0
370
    -2
100
AcDbLine
 10
4513.745694307589
 20
5215.506054276498
 30
0.0
 11
6823.745694307593
 21
5215.506054276498
 31
0.0
  0
INSERT
  5
199FD
330
195F8
100
AcDbEntity
  8
寸法
 62
     0
 48
50.0
370
    -2
100
AcDbBlockReference
  2
_DOTSMALL
 10
4513.745694307589
 20
5215.506054276498
 30
0.0
 41
100.0
 42
100.0
 43
100.0
 50
180.0
  0
INSERT
  5
199FE
330
195F8
100
AcDbEntity
  8
寸法
 62
     0
 48
50.0
370
    -2
100
AcDbBlockReference
  2
_DOTSMALL
 10
6823.745694307593
 20
5215.506054276498
 30
0.0
 41
100.0
 42
100.0
 43
100.0
  0
MTEXT
  5
199FF
330
195F8
100
AcDbEntity
  8
寸法
 62
     7
 48
50.0
100
AcDbMText
 10
5668.745694307588
 20
5315.517865300119
 30
0.0
 40
120.0
 41
0.0
 71
     5
 72
     1
  1
\A1;2310
  7
STYLE1
 73
     1
 44
1.0
1001
ACAD
1000
MTEXTBEGIN
1070
    73
1070
     1
1070
    44
1040
1.0
1070
    74
1070
     0
1000
MTEXTEND
  0
POINT
  5
19A00
330
195F8
100
AcDbEntity
  8
DEFPOINTS
 62
     0
 48
50.0
100
AcDbPoint
 10
4513.745694307589
 20
4601.291920427781
 30
0.0
  0
POINT
  5
19A01
330
195F8
100
AcDbEntity
  8
DEFPOINTS
 62
     0
 48
50.0
100
AcDbPoint
 10
6823.745694307593
 20
4601.291920427778
 30
0.0
  0
POINT
  5
19A02
330
195F8
100
AcDbEntity
  8
DEFPOINTS
 62
     0
 48
50.0
100
AcDbPoint
 10
6823.745694307593
 20
5215.506054276498
 30
0.0
  0
ENDBLK
  5
19603
330
195F8
100
AcDbEntity
  8
0
 48
50.0
100
AcDbBlockEnd
  0
BLOCK
  5
19610
330
19604
100
AcDbEntity
  8
0
 48
50.0
100
AcDbBlockBegin
  2
*D27
 70
     1
 10
0.0
 20
0.0
 30
0.0
  3
*D27
  1

  0
LINE
  5
199EF
330
19604
100
AcDbEntity
  8
寸法
 62
     0
 48
50.0
370
    -2
100
AcDbLine
 10
4563.745694307589
 20
4621.291920427782
 30
0.0
 11
4563.745694307589
 21
5065.912179855047
 31
0.0
  0
LINE
  5
199F0
330
19604
100
AcDbEntity
  8
寸法
 62
     0
 48
50.0
370
    -2
100
AcDbLine
 10
4513.745694307589
 20
4621.291920427782
 30
0.0
 11
4513.745694307589
 21
5065.912179855047
 31
0.0
  0
LINE
  5
199F1
330
19604
100
AcDbEntity
  8
寸法
 62
     0
 48
50.0
370
    -2
100
AcDbLine
 10
4563.745694307589
 20
5005.912179855047
 30
0.0
 11
4663.745694307588
 21
5005.912179855047
 31
0.0
  0
LINE
  5
199F2
330
19604
100
AcDbEntity
  8
寸法
 62
     0
 48
50.0
370
    -2
100
AcDbLine
 10
4513.745694307589
 20
5005.912179855047
 30
0.0
 11
4094.213168838853
 21
5005.912179855047
 31
0.0
  0
LINE
  5
199F3
330
19604
100
AcDbEntity
  8
寸法
 62
     0
 48
50.0
370
    -2
100
AcDbLine
 10
4563.745694307589
 20
5005.912179855047
 30
0.0
 11
4513.745694307589
 21
5005.912179855047
 31
0.0
  0
INSERT
  5
199F4
330
19604
100
AcDbEntity
  8
寸法
 62
     0
 48
50.0
370
    -2
100
AcDbBlockReference
  2
_DOTSMALL
 10
4563.745694307589
 20
5005.912179855047
 30
0.0
 41
100.0
 42
100.0
 43
100.0
 50
180.0
  0
INSERT
  5
199F5
330
19604
100
AcDbEntity
  8
寸法
 62
     0
 48
50.0
370
    -2
100
AcDbBlockReference
  2
_DOTSMALL
 10
4513.745694307589
 20
5005.912179855047
 30
0.0
 41
100.0
 42
100.0
 43
100.0
  0
MTEXT
  5
199F6
330
19604
100
AcDbEntity
  8
寸法
 62
     7
 48
50.0
100
AcDbMText
 10
4200.260412933341
 20
5105.912179855047
 30
0.0
 40
120.0
 41
0.0
 71
     5
 72
     1
  1
\A1;50
  7
STYLE1
 73
     1
 44
1.0
1001
ACAD
1000
MTEXTBEGIN
1070
    73
1070
     1
1070
    44
1040
1.0
1070
    74
1070
     0
1000
MTEXTEND
  0
POINT
  5
199F7
330
19604
100
AcDbEntity
  8
DEFPOINTS
 62
     0
 48
50.0
100
AcDbPoint
 10
4563.745694307589
 20
4601.291920427781
 30
0.0
  0
POINT
  5
199F8
330
19604
100
AcDbEntity
  8
DEFPOINTS
 62
     0
 48
50.0
100
AcDbPoint
 10
4513.745694307589
 20
4601.291920427781
 30
0.0
  0
POINT
  5
199F9
330
19604
100
AcDbEntity
  8
DEFPOINTS
 62
     0
 48
50.0
100
AcDbPoint
 10
4513.745694307589
 20
5005.912179855047
 30
0.0
  0
ENDBLK
  5
19611
330
19604
100
AcDbEntity
  8
0
 48
50.0
100
AcDbBlockEnd
  0
BLOCK
  5
1961C
330
19612
100
AcDbEntity
  8
0
 48
50.0
100
AcDbBlockBegin
  2
*D28
 70
     1
 10
0.0
 20
0.0
 30
0.0
  3
*D28
  1

  0
LINE
  5
199E6
330
19612
100
AcDbEntity
  8
寸法
 62
     0
 48
50.0
370
    -2
100
AcDbLine
 10
6773.745694307592
 20
4621.291920427782
 30
0.0
 11
6773.745694307592
 21
5065.912179855047
 31
0.0
  0
LINE
  5
199E7
330
19612
100
AcDbEntity
  8
寸法
 62
     0
 48
50.0
370
    -2
100
AcDbLine
 10
4563.745694307589
 20
4621.291920427782
 30
0.0
 11
4563.745694307589
 21
5065.912179855047
 31
0.0
  0
LINE
  5
199E8
330
19612
100
AcDbEntity
  8
寸法
 62
     0
 48
50.0
370
    -2
100
AcDbLine
 10
6773.745694307592
 20
5005.912179855047
 30
0.0
 11
4563.745694307589
 21
5005.912179855047
 31
0.0
  0
INSERT
  5
199E9
330
19612
100
AcDbEntity
  8
寸法
 62
     0
 48
50.0
370
    -2
100
AcDbBlockReference
  2
_DOTSMALL
 10
6773.745694307592
 20
5005.912179855047
 30
0.0
 41
100.0
 42
100.0
 43
100.0
  0
INSERT
  5
199EA
330
19612
100
AcDbEntity
  8
寸法
 62
     0
 48
50.0
370
    -2
100
AcDbBlockReference
  2
_DOTSMALL
 10
4563.745694307589
 20
5005.912179855047
 30
0.0
 41
100.0
 42
100.0
 43
100.0
 50
180.0
  0
MTEXT
  5
199EB
330
19612
100
AcDbEntity
  8
寸法
 62
     7
 48
50.0
100
AcDbMText
 10
5668.745694307588
 20
5105.923990878668
 30
0.0
 40
120.0
 41
0.0
 71
     5
 72
     1
  1
\A1;柱外寸法2210
  7
STYLE1
 73
     1
 44
1.0
1001
ACAD
1000
MTEXTBEGIN
1070
    73
1070
     1
1070
    44
1040
1.0
1070
    74
1070
     0
1000
MTEXTEND
  0
POINT
  5
199EC
330
19612
100
AcDbEntity
  8
DEFPOINTS
 62
     0
 48
50.0
100
AcDbPoint
 10
6773.745694307592
 20
4601.291920427781
 30
0.0
  0
POINT
  5
199ED
330
19612
100
AcDbEntity
  8
DEFPOINTS
 62
     0
 48
50.0
100
AcDbPoint
 10
4563.745694307589
 20
4601.291920427781
 30
0.0
  0
POINT
  5
199EE
330
19612
100
AcDbEntity
  8
DEFPOINTS
 62
     0
 48
50.0
100
AcDbPoint
 10
4563.745694307589
 20
5005.912179855047
 30
0.0
  0
ENDBLK
  5
1961D
330
19612
100
AcDbEntity
  8
0
 48
50.0
100
AcDbBlockEnd
  0
BLOCK
  5
1962A
330
1961E
100
AcDbEntity
  8
0
 48
50.0
100
AcDbBlockBegin
  2
*D29
 70
     1
 10
0.0
 20
0.0
 30
0.0
  3
*D29
  1

  0
LINE
  5
199DB
330
1961E
100
AcDbEntity
  8
寸法
 62
     0
 48
50.0
370
    -2
100
AcDbLine
 10
6823.745694307593
 20
4621.291920427778
 30
0.0
 11
6823.745694307593
 21
5065.912179855047
 31
0.0
  0
LINE
  5
199DC
330
1961E
100
AcDbEntity
  8
寸法
 62
     0
 48
50.0
370
    -2
100
AcDbLine
 10
6773.745694307592
 20
4621.291920427782
 30
0.0
 11
6773.745694307592
 21
5065.912179855047
 31
0.0
  0
LINE
  5
199DD
330
1961E
100
AcDbEntity
  8
寸法
 62
     0
 48
50.0
370
    -2
100
AcDbLine
 10
6773.745694307592
 20
5005.912179855047
 30
0.0
 11
6673.745694307593
 21
5005.912179855047
 31
0.0
  0
LINE
  5
199DE
330
1961E
100
AcDbEntity
  8
寸法
 62
     0
 48
50.0
370
    -2
100
AcDbLine
 10
6823.745694307593
 20
5005.912179855047
 30
0.0
 11
7243.278219776313
 21
5005.912179855047
 31
0.0
  0
LINE
  5
199DF
330
1961E
100
AcDbEntity
  8
寸法
 62
     0
 48
50.0
370
    -2
100
AcDbLine
 10
6773.745694307592
 20
5005.912179855047
 30
0.0
 11
6823.745694307593
 21
5005.912179855047
 31
0.0
  0
INSERT
  5
199E0
330
1961E
100
AcDbEntity
  8
寸法
 62
     0
 48
50.0
370
    -2
100
AcDbBlockReference
  2
_DOTSMALL
 10
6773.745694307592
 20
5005.912179855047
 30
0.0
 41
100.0
 42
100.0
 43
100.0
  0
INSERT
  5
199E1
330
1961E
100
AcDbEntity
  8
寸法
 62
     0
 48
50.0
370
    -2
100
AcDbBlockReference
  2
_DOTSMALL
 10
6823.745694307593
 20
5005.912179855047
 30
0.0
 41
100.0
 42
100.0
 43
100.0
 50
180.0
  0
MTEXT
  5
199E2
330
1961E
100
AcDbEntity
  8
寸法
 62
     7
 48
50.0
100
AcDbMText
 10
7137.230975681825
 20
5105.912179855047
 30
0.0
 40
120.0
 41
0.0
 71
     5
 72
     1
  1
\A1;50
  7
STYLE1
 73
     1
 44
1.0
1001
ACAD
1000
MTEXTBEGIN
1070
    73
1070
     1
1070
    44
1040
1.0
1070
    74
1070
     0
1000
MTEXTEND
  0
POINT
  5
199E3
330
1961E
100
AcDbEntity
  8
DEFPOINTS
 62
     0
 48
50.0
100
AcDbPoint
 10
6823.745694307593
 20
4601.291920427778
 30
0.0
  0
POINT
  5
199E4
330
1961E
100
AcDbEntity
  8
DEFPOINTS
 62
     0
 48
50.0
100
AcDbPoint
 10
6773.745694307592
 20
4601.291920427781
 30
0.0
  0
POINT
  5
199E5
330
1961E
100
AcDbEntity
  8
DEFPOINTS
 62
     0
 48
50.0
100
AcDbPoint
 10
6773.745694307592
 20
5005.912179855047
 30
0.0
  0
ENDBLK
  5
1962B
330
1961E
100
AcDbEntity
  8
0
 48
50.0
100
AcDbBlockEnd
  0
BLOCK
  5
19D5D
330
19D53
100
AcDbEntity
  8
0
 48
50.0
100
AcDbBlockBegin
  2
*D30
 70
     1
 10
0.0
 20
0.0
 30
0.0
  3
*D30
  1

  0
LINE
  5
1A1FD
330
19D53
100
AcDbEntity
  8
寸法
 62
     0
 48
50.0
370
    -2
100
AcDbLine
 10
8942.842723644798
 20
7562.412850865742
 30
0.0
 11
8942.842723644798
 21
6888.783375551014
 31
0.0
  0
LINE
  5
1A1FE
330
19D53
100
AcDbEntity
  8
寸法
 62
     0
 48
50.0
370
    -2
100
AcDbLine
 10
10208.84272364479
 20
7562.412850865742
 30
0.0
 11
10208.84272364479
 21
6888.783375551014
 31
0.0
  0
LINE
  5
1A1FF
330
19D53
100
AcDbEntity
  8
寸法
 62
     0
 48
50.0
370
    -2
100
AcDbLine
 10
8962.842723644797
 20
6928.783375551015
 30
0.0
 11
10188.84272364479
 21
6928.783375551015
 31
0.0
  0
INSERT
  5
1A200
330
19D53
100
AcDbEntity
  8
寸法
 62
     0
 48
50.0
370
    -2
100
AcDbBlockReference
  2
_DOT
 10
8942.842723644798
 20
6928.783375551015
 30
0.0
 41
20.0
 42
20.0
 43
20.0
 50
180.0
  0
INSERT
  5
1A201
330
19D53
100
AcDbEntity
  8
寸法
 62
     0
 48
50.0
370
    -2
100
AcDbBlockReference
  2
_DOT
 10
10208.84272364479
 20
6928.783375551015
 30
0.0
 41
20.0
 42
20.0
 43
20.0
  0
MTEXT
  5
1A202
330
19D53
100
AcDbEntity
  8
寸法
 62
     7
 48
50.0
100
AcDbMText
 10
9577.659234899126
 20
7120.795186574636
 30
0.0
 40
120.0
 41
0.0
 71
     5
 72
     1
  1
\A1;有効開口部間口\P1266
  7
STYLE1
 73
     1
 44
1.0
1001
ACAD
1000
MTEXTBEGIN
1070
    73
1070
     1
1070
    44
1040
1.0
1070
    74
1070
     0
1000
MTEXTEND
  0
POINT
  5
1A203
330
19D53
100
AcDbEntity
  8
DEFPOINTS
 62
     0
 48
50.0
100
AcDbPoint
 10
8942.842723644798
 20
7582.412850865741
 30
0.0
  0
POINT
  5
1A204
330
19D53
100
AcDbEntity
  8
DEFPOINTS
 62
     0
 48
50.0
100
AcDbPoint
 10
10208.84272364479
 20
7582.412850865741
 30
0.0
  0
POINT
  5
1A205
330
19D53
100
AcDbEntity
  8
DEFPOINTS
 62
     0
 48
50.0
100
AcDbPoint
 10
10208.84272364479
 20
6928.783375551015
 30
0.0
  0
ENDBLK
  5
19D5E
330
19D53
100
AcDbEntity
  8
0
 48
50.0
100
AcDbBlockEnd
  0
BLOCK
  5
1A092
330
1A088
100
AcDbEntity
  8
0
 48
50.0
100
AcDbBlockBegin
  2
*D31
 70
     1
 10
0.0
 20
0.0
 30
0.0
  3
*D31
  1

  0
LINE
  5
1A1F4
330
1A088
100
AcDbEntity
  8
寸法
 62
     0
 48
50.0
370
    -2
100
AcDbLine
 10
8875.842723644849
 20
7639.4128508658
 30
0.0
 11
8875.842723644849
 21
6335.901621092719
 31
0.0
  0
LINE
  5
1A1F5
330
1A088
100
AcDbEntity
  8
寸法
 62
     0
 48
50.0
370
    -2
100
AcDbLine
 10
11085.84272364483
 20
7639.412850865927
 30
0.0
 11
11085.84272364483
 21
6335.901621092719
 31
0.0
  0
LINE
  5
1A1F6
330
1A088
100
AcDbEntity
  8
寸法
 62
     0
 48
50.0
370
    -2
100
AcDbLine
 10
8875.842723644849
 20
6395.901621092718
 30
0.0
 11
11085.84272364483
 21
6395.901621092718
 31
0.0
  0
INSERT
  5
1A1F7
330
1A088
100
AcDbEntity
  8
寸法
 62
     0
 48
50.0
370
    -2
100
AcDbBlockReference
  2
_DOTSMALL
 10
8875.842723644849
 20
6395.901621092718
 30
0.0
 41
100.0
 42
100.0
 43
100.0
 50
180.0
  0
INSERT
  5
1A1F8
330
1A088
100
AcDbEntity
  8
寸法
 62
     0
 48
50.0
370
    -2
100
AcDbBlockReference
  2
_DOTSMALL
 10
11085.84272364483
 20
6395.901621092718
 30
0.0
 41
100.0
 42
100.0
 43
100.0
  0
MTEXT
  5
1A1F9
330
1A088
100
AcDbEntity
  8
寸法
 62
     7
 48
50.0
100
AcDbMText
 10
10002.97548039214
 20
6495.91343211634
 30
0.0
 40
120.0
 41
0.0
 71
     5
 72
     1
  1
\A1;2210
  7
STYLE1
 73
     1
 44
1.0
1001
ACAD
1000
MTEXTBEGIN
1070
    73
1070
     1
1070
    44
1040
1.0
1070
    74
1070
     0
1000
MTEXTEND
  0
POINT
  5
1A1FA
330
1A088
100
AcDbEntity
  8
DEFPOINTS
 62
     0
 48
50.0
100
AcDbPoint
 10
8875.842723644849
 20
7659.4128508658
 30
0.0
  0
POINT
  5
1A1FB
330
1A088
100
AcDbEntity
  8
DEFPOINTS
 62
     0
 48
50.0
100
AcDbPoint
 10
11085.84272364483
 20
7659.412850865926
 30
0.0
  0
POINT
  5
1A1FC
330
1A088
100
AcDbEntity
  8
DEFPOINTS
 62
     0
 48
50.0
100
AcDbPoint
 10
11085.84272364483
 20
6395.901621092718
 30
0.0
  0
ENDBLK
  5
1A093
330
1A088
100
AcDbEntity
  8
0
 48
50.0
100
AcDbBlockEnd
  0
BLOCK
  5
1A0A0
330
1A094
100
AcDbEntity
  8
0
 48
50.0
100
AcDbBlockBegin
  2
*D32
 70
     1
 10
0.0
 20
0.0
 30
0.0
  3
*D32
  1

  0
LINE
  5
1A1E9
330
1A094
100
AcDbEntity
  8
寸法
 62
     0
 48
50.0
370
    -2
100
AcDbLine
 10
8855.842723644848
 20
7659.412850865866
 30
0.0
 11
8541.231478018131
 21
7659.412850865866
 31
0.0
  0
LINE
  5
1A1EA
330
1A094
100
AcDbEntity
  8
寸法
 62
     0
 48
50.0
370
    -2
100
AcDbLine
 10
8883.84272364483
 20
7584.412850865866
 30
0.0
 11
8541.231478018131
 21
7584.412850865866
 31
0.0
  0
LINE
  5
1A1EB
330
1A094
100
AcDbEntity
  8
寸法
 62
     0
 48
50.0
370
    -2
100
AcDbLine
 10
8581.23147801813
 20
7679.412850865865
 30
0.0
 11
8581.23147801813
 21
7699.412850865865
 31
0.0
  0
LINE
  5
1A1EC
330
1A094
100
AcDbEntity
  8
寸法
 62
     0
 48
50.0
370
    -2
100
AcDbLine
 10
8581.23147801813
 20
7564.412850865865
 30
0.0
 11
8581.23147801813
 21
7343.442288117387
 31
0.0
  0
LINE
  5
1A1ED
330
1A094
100
AcDbEntity
  8
寸法
 62
     0
 48
50.0
370
    -2
100
AcDbLine
 10
8581.23147801813
 20
7659.412850865866
 30
0.0
 11
8581.23147801813
 21
7584.412850865866
 31
0.0
  0
INSERT
  5
1A1EE
330
1A094
100
AcDbEntity
  8
寸法
 62
     0
 48
50.0
370
    -2
100
AcDbBlockReference
  2
_DOT
 10
8581.23147801813
 20
7659.412850865866
 30
0.0
 41
20.0
 42
20.0
 43
20.0
 50
270.0
  0
INSERT
  5
1A1EF
330
1A094
100
AcDbEntity
  8
寸法
 62
     0
 48
50.0
370
    -2
100
AcDbBlockReference
  2
_DOT
 10
8581.23147801813
 20
7584.412850865866
 30
0.0
 41
20.0
 42
20.0
 43
20.0
 50
90.0
  0
MTEXT
  5
1A1F0
330
1A094
100
AcDbEntity
  8
寸法
 62
     7
 48
50.0
100
AcDbMText
 10
8489.23147801813
 20
7443.927569491627
 30
0.0
 40
120.0
 41
0.0
 71
     5
 72
     1
  1
\A1;75
  7
STYLE1
 11
0.0000000000000001
 21
1.0
 31
0.0
 73
     1
 44
1.0
1001
ACAD
1000
MTEXTBEGIN
1070
    73
1070
     1
1070
    44
1040
1.0
1070
    74
1070
     0
1000
MTEXTEND
  0
POINT
  5
1A1F1
330
1A094
100
AcDbEntity
  8
DEFPOINTS
 62
     0
 48
50.0
100
AcDbPoint
 10
8875.842723644849
 20
7659.412850865866
 30
0.0
  0
POINT
  5
1A1F2
330
1A094
100
AcDbEntity
  8
DEFPOINTS
 62
     0
 48
50.0
100
AcDbPoint
 10
8903.84272364483
 20
7584.412850865866
 30
0.0
  0
POINT
  5
1A1F3
330
1A094
100
AcDbEntity
  8
DEFPOINTS
 62
     0
 48
50.0
100
AcDbPoint
 10
8581.23147801813
 20
7584.412850865866
 30
0.0
  0
ENDBLK
  5
1A0A1
330
1A094
100
AcDbEntity
  8
0
 48
50.0
100
AcDbBlockEnd
  0
BLOCK
  5
1A0AC
330
1A0A2
100
AcDbEntity
  8
0
 48
50.0
100
AcDbBlockBegin
  2
*D33
 70
     1
 10
0.0
 20
0.0
 30
0.0
  3
*D33
  1

  0
LINE
  5
1A1E0
330
1A0A2
100
AcDbEntity
  8
寸法
 62
     0
 48
50.0
370
    -2
100
AcDbLine
 10
8903.84272364483
 20
7562.41285086581
 30
0.0
 11
8903.84272364483
 21
6602.283135438042
 31
0.0
  0
LINE
  5
1A1E1
330
1A0A2
100
AcDbEntity
  8
寸法
 62
     0
 48
50.0
370
    -2
100
AcDbLine
 10
11057.84272364483
 20
7562.41285086581
 30
0.0
 11
11057.84272364483
 21
6602.283135438042
 31
0.0
  0
LINE
  5
1A1E2
330
1A0A2
100
AcDbEntity
  8
寸法
 62
     0
 48
50.0
370
    -2
100
AcDbLine
 10
8903.84272364483
 20
6662.283135438044
 30
0.0
 11
11057.84272364483
 21
6662.283135438044
 31
0.0
  0
INSERT
  5
1A1E3
330
1A0A2
100
AcDbEntity
  8
寸法
 62
     0
 48
50.0
370
    -2
100
AcDbBlockReference
  2
_DOTSMALL
 10
8903.84272364483
 20
6662.283135438044
 30
0.0
 41
100.0
 42
100.0
 43
100.0
 50
180.0
  0
INSERT
  5
1A1E4
330
1A0A2
100
AcDbEntity
  8
寸法
 62
     0
 48
50.0
370
    -2
100
AcDbBlockReference
  2
_DOTSMALL
 10
11057.84272364483
 20
6662.283135438044
 30
0.0
 41
100.0
 42
100.0
 43
100.0
  0
MTEXT
  5
1A1E5
330
1A0A2
100
AcDbEntity
  8
寸法
 62
     7
 48
50.0
100
AcDbMText
 10
10002.97548039214
 20
6762.294946461665
 30
0.0
 40
120.0
 41
0.0
 71
     5
 72
     1
  1
\A1;2154
  7
STYLE1
 73
     1
 44
1.0
1001
ACAD
1000
MTEXTBEGIN
1070
    73
1070
     1
1070
    44
1040
1.0
1070
    74
1070
     0
1000
MTEXTEND
  0
POINT
  5
1A1E6
330
1A0A2
100
AcDbEntity
  8
DEFPOINTS
 62
     0
 48
50.0
100
AcDbPoint
 10
8903.84272364483
 20
7582.412850865811
 30
0.0
  0
POINT
  5
1A1E7
330
1A0A2
100
AcDbEntity
  8
DEFPOINTS
 62
     0
 48
50.0
100
AcDbPoint
 10
11057.84272364483
 20
7582.412850865811
 30
0.0
  0
POINT
  5
1A1E8
330
1A0A2
100
AcDbEntity
  8
DEFPOINTS
 62
     0
 48
50.0
100
AcDbPoint
 10
11057.84272364483
 20
6662.283135438044
 30
0.0
  0
ENDBLK
  5
1A0AD
330
1A0A2
100
AcDbEntity
  8
0
 48
50.0
100
AcDbBlockEnd
  0
ENDSEC
  0
SECTION
  2
ENTITIES
  0
LINE
  5
10B57
330
747D
100
AcDbEntity
  8
補助
  6
PHANTOM
 62
   230
 48
50.0
100
AcDbLine
 10
139.9999999999995
 20
11409.6
 30
0.0
 11
16307.2
 21
11409.6
 31
0.0
  0
LINE
  5
10B59
330
747D
100
AcDbEntity
  8
仕様書枠
  6
Continuous
 48
50.0
100
AcDbLine
 10
13107.2
 20
1200.0
 30
0.0
 11
13107.2
 21
-0.0000000000000729
 31
0.0
  0
LINE
  5
10B5C
330
747D
100
AcDbEntity
  8
仕様書枠
 48
50.0
100
AcDbLine
 10
16307.2
 20
1200.0
 30
0.0
 11
16307.2
 21
-0.0000000000000909
 31
0.0
  0
LINE
  5
10B5D
330
747D
100
AcDbEntity
  8
仕様書枠
 48
50.0
100
AcDbLine
 10
140.0
 20
0.0
 30
0.0
 11
16307.2
 21
-0.0000000000000909
 31
0.0
  0
LINE
  5
10B5E
330
747D
100
AcDbEntity
  8
補助
  6
PHANTOM
 62
   230
 48
50.0
100
AcDbLine
 10
16307.2
 20
11409.6
 30
0.0
 11
16307.2
 21
1200.0
 31
0.0
  0
LINE
  5
10B6C
330
747D
100
AcDbEntity
  8
仕様書枠
 48
50.0
100
AcDbLine
 10
13107.2
 20
1200.0
 30
0.0
 11
16307.2
 21
1200.0
 31
0.0
  0
LINE
  5
10B6D
330
747D
100
AcDbEntity
  8
補助
  6
PHANTOM
 62
   230
 48
50.0
100
AcDbLine
 10
13107.2
 20
11409.6
 30
0.0
 11
13107.2
 21
4800.0
 31
0.0
  0
LINE
  5
10B6F
330
747D
100
AcDbEntity
  8
補助
  6
PHANTOM
 62
   230
 48
50.0
100
AcDbLine
 10
13107.2
 20
4800.0
 30
0.0
 11
16307.2
 21
4800.0
 31
0.0
  0
LINE
  5
10B72
330
747D
100
AcDbEntity
  8
文字
 62
     7
 48
50.0
100
AcDbLine
 10
13187.2
 20
400.0
 30
0.0
 11
16227.2
 21
400.0
 31
0.0
  0
TEXT
  5
10B73
330
747D
100
AcDbEntity
  8
文字
 62
     7
 48
50.0
100
AcDbText
 10
13162.9790565769
 20
895.0906074299405
 30
0.0
 40
200.0
  1
外 形 図
  7
STYLE2
100
AcDbText
  0
TEXT
  5
10B74
330
747D
100
AcDbEntity
  8
文字
 62
     7
 48
50.0
100
AcDbText
 10
13201.43669998441
 20
477.2740661031255
 30
0.0
 40
160.0
  1
機種名
  7
STYLE2
100
AcDbText
  0
TEXT
  5
10B76
330
747D
100
AcDbEntity
  8
文字
 62
     7
 48
50.0
100
AcDbText
 10
13209.4053442172
 20
76.09434707649343
 30
0.0
 40
100.0
  1
○床面積 ： 5.05㎡(1.53坪) 　
  7
STYLE2
100
AcDbText
  0
TEXT
  5
10B79
330
747D
100
AcDbEntity
  8
文字
 62
     7
 48
50.0
100
AcDbText
 10
14524.131837222
 20
1031.557706291228
 30
0.0
 40
100.0
  1
NO.16      <縮尺> S=1/40
  7
STYLE2
100
AcDbText
  0
LINE
  5
10B7B
330
747D
100
AcDbEntity
  8
仕様書枠
 48
50.0
100
AcDbLine
 10
13107.2
 20
800.0
 30
0.0
 11
14251.2
 21
800.0
 31
0.0
  0
LINE
  5
10B88
330
747D
100
AcDbEntity
  8
仕様書枠
  6
Continuous
 48
50.0
100
AcDbLine
 10
14251.2
 20
1200.0
 30
0.0
 11
14251.2
 21
800.0
 31
0.0
  0
TEXT
  5
14D2F
330
747D
100
AcDbEntity
  8
文字
 62
     7
 48
50.0
100
AcDbText
 10
14644.07818602837
 20
876.4448062548634
 30
0.0
 40
100.0
  1
～一般型・多雪地型～
  7
STYLE2
100
AcDbText
  0
LINE
  5
18D59
330
747D
100
AcDbEntity
  8
部品1
 48
50.0
100
AcDbLine
 10
11029.34272364484
 20
8134.412850865938
 30
0.0
 11
8932.34272364484
 21
8134.412850866025
 31
0.0
  0
LINE
  5
18D5A
330
747D
100
AcDbEntity
  8
部品1
100
AcDbLine
 10
8903.842723644833
 20
8134.41285086581
 30
0.0
 11
8875.842723644835
 21
8134.41285086581
 31
0.0
  0
LINE
  5
18D5B
330
747D
100
AcDbEntity
  8
部品1
100
AcDbLine
 10
11057.84272364486
 20
8134.412850865938
 30
0.0
 11
11085.84272364486
 21
8134.412850865938
 31
0.0
  0
LINE
  5
18DF5
330
747D
100
AcDbEntity
  8
部品1
 48
50.0
100
AcDbLine
 10
10226.84272364484
 20
2526.291920427775
 30
0.0
 11
10226.84272364484
 21
2426.291920427775
 31
0.0
  0
LINE
  5
18DF6
330
747D
100
AcDbEntity
  8
部品1
 48
50.0
100
AcDbLine
 10
10426.84272364484
 20
2526.291920427775
 30
0.0
 11
10426.84272364484
 21
2426.291920427775
 31
0.0
  0
LINE
  5
18DF7
330
747D
100
AcDbEntity
  8
部品1
 48
50.0
100
AcDbLine
 10
9534.842723644839
 20
2526.291920427775
 30
0.0
 11
9534.842723644839
 21
2426.291920427775
 31
0.0
  0
LINE
  5
18DF8
330
747D
100
AcDbEntity
  8
部品1
 48
50.0
100
AcDbLine
 10
9734.842723644838
 20
2526.291920427775
 30
0.0
 11
9734.842723644838
 21
2426.291920427775
 31
0.0
  0
LINE
  5
18DF9
330
747D
100
AcDbEntity
  8
破線
 48
10.0
100
AcDbLine
 10
9610.342723644874
 20
7739.412850865793
 30
0.0
 11
8955.842723644826
 21
7739.41285086576
 31
0.0
  0
LINE
  5
18DFA
330
747D
100
AcDbEntity
  8
破線
 48
10.0
100
AcDbLine
 10
10351.34272364487
 20
7715.912850865826
 30
0.0
 11
10351.34272364487
 21
9389.412850865952
 31
0.0
  0
LINE
  5
18DFB
330
747D
100
AcDbEntity
  8
破線
 48
10.0
100
AcDbLine
 10
10301.34272364487
 20
7715.912850865823
 30
0.0
 11
10301.34272364487
 21
9389.412850865957
 31
0.0
  0
LINE
  5
18DFC
330
747D
100
AcDbEntity
  8
破線
 48
10.0
100
AcDbLine
 10
9610.342723644874
 20
7715.91285086579
 30
0.0
 11
9610.342723644869
 21
9389.412850865886
 31
0.0
  0
LINE
  5
18DFD
330
747D
100
AcDbEntity
  8
破線
 48
10.0
100
AcDbLine
 10
9660.34272364487
 20
7715.912850865793
 30
0.0
 11
9660.342723644873
 21
9389.412850865891
 31
0.0
  0
MTEXT
  5
18DFF
330
747D
100
AcDbEntity
  8
寸法
 62
     7
 48
50.0
100
AcDbMText
 10
9555.945260737995
 20
9455.647669063196
 30
0.0
 40
96.0
 41
0.0
 71
     5
 72
     1
  1
棚 2段
  7
STYLE1
 73
     1
 44
1.0
1001
ACAD
1000
MTEXTBEGIN
1070
    73
1070
     1
1070
    44
1040
1.0
1070
    74
1070
     0
1000
MTEXTEND
  0
MTEXT
  5
18E00
330
747D
100
AcDbEntity
  8
寸法
 62
     7
 48
50.0
100
AcDbMText
 10
10645.94526073799
 20
9455.647669063244
 30
0.0
 40
96.0
 41
0.0
 71
     5
 72
     1
  1
棚 2段
  7
STYLE1
 73
     1
 44
1.0
1001
ACAD
1000
MTEXTBEGIN
1070
    73
1070
     1
1070
    44
1040
1.0
1070
    74
1070
     0
1000
MTEXTEND
  0
LINE
  5
18E01
330
747D
100
AcDbEntity
  8
部品1
 48
50.0
100
AcDbLine
 10
9737.842723644845
 20
4309.291920452542
 30
0.0
 11
9737.842723644845
 21
2576.291920427772
 31
0.0
  0
LINE
  5
18E02
330
747D
100
AcDbEntity
  8
部品1
100
AcDbLine
 10
10391.8427139497
 20
4309.291920464926
 30
0.0
 11
10391.8427139497
 21
2583.791920464941
 31
0.0
  0
LINE
  5
18E03
330
747D
100
AcDbEntity
  8
細線
100
AcDbLine
 10
9637.842723644849
 20
4309.291920427774
 30
0.0
 11
9637.842723644844
 21
2576.291920427783
 31
0.0
  0
LINE
  5
18E04
330
747D
100
AcDbEntity
  8
細線
100
AcDbLine
 10
9567.842723644849
 20
4309.291920427774
 30
0.0
 11
9567.842723644844
 21
2576.291920427783
 31
0.0
  0
LINE
  5
18E05
330
747D
100
AcDbEntity
  8
細線
100
AcDbLine
 10
9497.842723644849
 20
4309.291920427774
 30
0.0
 11
9497.842723644843
 21
2576.291920427779
 31
0.0
  0
LINE
  5
18E06
330
747D
100
AcDbEntity
  8
細線
100
AcDbLine
 10
9427.842723644848
 20
4309.291920427774
 30
0.0
 11
9427.842723644845
 21
2576.291920427779
 31
0.0
  0
LINE
  5
18E07
330
747D
100
AcDbEntity
  8
細線
100
AcDbLine
 10
9357.842723644848
 20
4309.291920427774
 30
0.0
 11
9357.842723644845
 21
2576.291920427779
 31
0.0
  0
LINE
  5
18E08
330
747D
100
AcDbEntity
  8
細線
100
AcDbLine
 10
9287.842723644848
 20
4309.291920427774
 30
0.0
 11
9287.842723644844
 21
2576.291920427779
 31
0.0
  0
LINE
  5
18E09
330
747D
100
AcDbEntity
  8
部品1
100
AcDbLine
 10
9103.842723644843
 20
4309.291920427774
 30
0.0
 11
9103.842723644849
 21
2576.291920427779
 31
0.0
  0
LINE
  5
18E0A
330
747D
100
AcDbEntity
  8
部品1
100
AcDbLine
 10
9053.842723644844
 20
4309.291920427774
 30
0.0
 11
9053.842723644848
 21
2576.291920427779
 31
0.0
  0
LINE
  5
18E0B
330
747D
100
AcDbEntity
  8
細線
100
AcDbLine
 10
9095.842723644844
 20
4309.291920427774
 30
0.0
 11
9095.842723644848
 21
2576.291920427779
 31
0.0
  0
LINE
  5
18E0C
330
747D
100
AcDbEntity
  8
細線
100
AcDbLine
 10
9061.842723644843
 20
4309.291920427774
 30
0.0
 11
9061.842723644849
 21
2576.291920427779
 31
0.0
  0
LINE
  5
18E0D
330
747D
100
AcDbEntity
  8
細線
100
AcDbLine
 10
10289.34273339509
 20
4309.291920427774
 30
0.0
 11
10289.34273339509
 21
2583.791920427786
 31
0.0
  0
LINE
  5
18E0E
330
747D
100
AcDbEntity
  8
細線
100
AcDbLine
 10
10219.34273339509
 20
4309.291920427774
 30
0.0
 11
10219.34273339509
 21
2583.791920427786
 31
0.0
  0
LINE
  5
18E0F
330
747D
100
AcDbEntity
  8
細線
100
AcDbLine
 10
10149.34273339509
 20
4309.291920427774
 30
0.0
 11
10149.34273339509
 21
2583.791920427786
 31
0.0
  0
LINE
  5
18E10
330
747D
100
AcDbEntity
  8
細線
100
AcDbLine
 10
10079.34273339509
 20
4309.291920427774
 30
0.0
 11
10079.34273339509
 21
2583.791920427786
 31
0.0
  0
LINE
  5
18E11
330
747D
100
AcDbEntity
  8
細線
100
AcDbLine
 10
10009.34273339509
 20
4309.291920427774
 30
0.0
 11
10009.34273339509
 21
2583.791920427786
 31
0.0
  0
LINE
  5
18E12
330
747D
100
AcDbEntity
  8
細線
100
AcDbLine
 10
9939.34273339509
 20
4309.291920427774
 30
0.0
 11
9939.34273339509
 21
2583.791920427786
 31
0.0
  0
LINE
  5
18E13
330
747D
100
AcDbEntity
  8
細線
100
AcDbLine
 10
10864.59272364485
 20
4309.291920427774
 30
0.0
 11
10864.59272364485
 21
2583.791920427794
 31
0.0
  0
LINE
  5
18E14
330
747D
100
AcDbEntity
  8
細線
100
AcDbLine
 10
10794.59272364485
 20
4309.291920427774
 30
0.0
 11
10794.59272364485
 21
2583.791920427794
 31
0.0
  0
LINE
  5
18E15
330
747D
100
AcDbEntity
  8
細線
100
AcDbLine
 10
10724.59272364485
 20
4309.291920427774
 30
0.0
 11
10724.59272364485
 21
2583.791920427794
 31
0.0
  0
LINE
  5
18E16
330
747D
100
AcDbEntity
  8
細線
100
AcDbLine
 10
10654.59272364485
 20
4309.291920427774
 30
0.0
 11
10654.59272364485
 21
2583.791920427794
 31
0.0
  0
LINE
  5
18E17
330
747D
100
AcDbEntity
  8
細線
100
AcDbLine
 10
10584.59272364485
 20
4309.291920427774
 30
0.0
 11
10584.59272364485
 21
2583.791920427794
 31
0.0
  0
LINE
  5
18E18
330
747D
100
AcDbEntity
  8
細線
100
AcDbLine
 10
9217.842723644848
 20
4309.291920427774
 30
0.0
 11
9217.842723644844
 21
2576.291920427779
 31
0.0
  0
LINE
  5
18E19
330
747D
100
AcDbEntity
  8
細線
100
AcDbLine
 10
9147.842723644847
 20
4309.291920427774
 30
0.0
 11
9147.842723644844
 21
2576.291920427779
 31
0.0
  0
LINE
  5
18E1A
330
747D
100
AcDbEntity
  8
細線
100
AcDbLine
 10
9869.34273339509
 20
4309.291920427774
 30
0.0
 11
9869.34273339509
 21
2583.791920427786
 31
0.0
  0
LINE
  5
18E1B
330
747D
100
AcDbEntity
  8
細線
100
AcDbLine
 10
9799.342733395089
 20
4309.291920427774
 30
0.0
 11
9799.342733395089
 21
2583.791920427786
 31
0.0
  0
LINE
  5
18E1C
330
747D
100
AcDbEntity
  8
細線
100
AcDbLine
 10
10514.59272364485
 20
4309.291920427774
 30
0.0
 11
10514.59272364485
 21
2583.791920427794
 31
0.0
  0
LINE
  5
18E1D
330
747D
100
AcDbEntity
  8
部品1
 48
50.0
100
AcDbLine
 10
11057.84272364485
 20
4317.291920427775
 30
0.0
 11
11027.84272364484
 21
4317.291920427775
 31
0.0
  0
LINE
  5
18E1E
330
747D
100
AcDbEntity
  8
細線
 48
50.0
100
AcDbLine
 10
11005.84272364484
 20
2573.291920427775
 30
0.0
 11
11001.84272364485
 21
2583.791920427775
 31
0.0
  0
LINE
  5
18E1F
330
747D
100
AcDbEntity
  8
部品1
 48
50.0
100
AcDbLine
 10
10391.84271394971
 20
4309.291920464922
 30
0.0
 11
10391.84271394971
 21
2583.791920464923
 31
0.0
  0
LINE
  5
18E20
330
747D
100
AcDbEntity
  8
部品1
 48
50.0
100
AcDbLine
 10
11057.84272364485
 20
2526.291920427775
 30
0.0
 11
11057.84272364485
 21
4361.291920427775
 31
0.0
  0
LINE
  5
18E21
330
747D
100
AcDbEntity
  8
細線
 48
50.0
100
AcDbLine
 10
11027.84272364484
 20
2526.291920427775
 30
0.0
 11
11027.84272364484
 21
4318.791920427775
 31
0.0
  0
LINE
  5
18E22
330
747D
100
AcDbEntity
  8
部品1
 48
50.0
100
AcDbLine
 10
11018.84272364485
 20
2573.291920427775
 30
0.0
 11
11018.84272364485
 21
4309.291920427774
 31
0.0
  0
LINE
  5
18E23
330
747D
100
AcDbEntity
  8
部品1
 48
50.0
100
AcDbLine
 10
8933.842723644849
 20
4317.291920427775
 30
0.0
 11
8903.842723644848
 21
4317.291920427775
 31
0.0
  0
LINE
  5
18E24
330
747D
100
AcDbEntity
  8
部品1
 48
50.0
100
AcDbLine
 10
8942.842723644849
 20
2576.291920427775
 30
0.0
 11
8942.842723644849
 21
2573.291920427775
 31
0.0
  0
LINE
  5
18E25
330
747D
100
AcDbEntity
  8
部品1
 48
50.0
100
AcDbLine
 10
8933.842723644849
 20
2576.291920427775
 30
0.0
 11
9737.842723644845
 21
2576.291920427772
 31
0.0
  0
LINE
  5
18E26
330
747D
100
AcDbEntity
  8
部品1
 48
50.0
100
AcDbLine
 10
9737.842723644845
 20
4309.291920452542
 30
0.0
 11
9737.842723644845
 21
2576.291920452542
 31
0.0
  0
LINE
  5
18E27
330
747D
100
AcDbEntity
  8
部品1
 48
50.0
100
AcDbLine
 10
8903.842723644848
 20
4361.291920427775
 30
0.0
 11
8903.842723644848
 21
2526.291920427775
 31
0.0
  0
LINE
  5
18E28
330
747D
100
AcDbEntity
  8
細線
 48
50.0
100
AcDbLine
 10
8933.842723644849
 20
4318.791920427775
 30
0.0
 11
8933.842723644849
 21
2526.291920427775
 31
0.0
  0
LINE
  5
18E29
330
747D
100
AcDbEntity
  8
部品1
 48
50.0
100
AcDbLine
 10
8933.842723644849
 20
2576.291920427775
 30
0.0
 11
8933.842723644849
 21
4309.291920427774
 31
0.0
  0
LINE
  5
18E2A
330
747D
100
AcDbEntity
  8
細線
 48
50.0
100
AcDbLine
 10
9737.842723644845
 20
2583.791920427775
 30
0.0
 11
11001.84272364485
 21
2583.791920427775
 31
0.0
  0
LINE
  5
18E2B
330
747D
100
AcDbEntity
  8
細線
 48
50.0
100
AcDbLine
 10
8933.842723644849
 20
2573.291920427775
 30
0.0
 11
11027.84272364484
 21
2573.291920427775
 31
0.0
  0
LINE
  5
18E2C
330
747D
100
AcDbEntity
  8
細線
 48
50.0
100
AcDbLine
 10
8933.842723644849
 20
2569.291920427775
 30
0.0
 11
11027.84272364484
 21
2569.291920427775
 31
0.0
  0
LINE
  5
18E2D
330
747D
100
AcDbEntity
  8
部品1
 48
50.0
100
AcDbLine
 10
8903.842723644848
 20
2526.291920427775
 30
0.0
 11
11057.84272364485
 21
2526.291920427775
 31
0.0
  0
LINE
  5
18E2E
330
747D
100
AcDbEntity
  8
細線
 48
50.0
100
AcDbLine
 10
11027.84272364484
 20
4318.791920427775
 30
0.0
 11
8933.842723644849
 21
4318.791920427775
 31
0.0
  0
LINE
  5
18E2F
330
747D
100
AcDbEntity
  8
細線
 48
50.0
100
AcDbLine
 10
11027.84272364484
 20
4309.291920427774
 30
0.0
 11
8933.842723644849
 21
4309.291920427774
 31
0.0
  0
LINE
  5
18E30
330
747D
100
AcDbEntity
  8
細線
 48
50.0
100
AcDbLine
 10
11057.84272364485
 20
4351.291920427775
 30
0.0
 11
8903.842723644848
 21
4351.291920427775
 31
0.0
  0
LINE
  5
18E31
330
747D
100
AcDbEntity
  8
部品1
 48
50.0
100
AcDbLine
 10
11057.84272364485
 20
4361.291920427775
 30
0.0
 11
8903.842723644848
 21
4361.291920427775
 31
0.0
  0
LINE
  5
18E4B
330
747D
100
AcDbEntity
  8
部品1
 48
50.0
100
AcDbLine
 10
8977.842723644847
 20
3507.791920427775
 30
0.0
 11
9030.842723644848
 21
3507.791920427775
 31
0.0
  0
TEXT
  5
18EFF
330
747D
100
AcDbEntity
  8
文字
 62
     7
 48
50.0
100
AcDbText
 10
14491.96323844892
 20
483.8967129911416
 30
0.0
 40
160.0
  1
ＮＸＮ－４８ＳＢ
  7
STYLE2
100
AcDbText
  0
LINE
  5
18F00
330
747D
100
AcDbEntity
  8
部品1
100
AcDbLine
 10
10362.57805675906
 20
1737.253657450367
 30
0.0
 11
9599.107390530626
 21
1737.253657450367
 31
0.0
  0
LINE
  5
18F01
330
747D
100
AcDbEntity
  8
部品1
100
AcDbLine
 10
10362.57805675906
 20
1497.361335904835
 30
0.0
 11
10362.57805675906
 21
1737.253657450367
 31
0.0
  0
LINE
  5
18F02
330
747D
100
AcDbEntity
  8
部品1
100
AcDbLine
 10
9599.107390530626
 20
1497.361335904835
 30
0.0
 11
10362.57805675906
 21
1497.361335904835
 31
0.0
  0
LINE
  5
18F03
330
747D
100
AcDbEntity
  8
部品1
100
AcDbLine
 10
9599.107390530626
 20
1737.253657450367
 30
0.0
 11
9599.107390530626
 21
1497.361335904835
 31
0.0
  0
LINE
  5
18F08
330
747D
100
AcDbEntity
  8
部品1
100
AcDbLine
 10
11057.84272364485
 20
2576.291920427795
 30
0.0
 11
11085.84272364484
 21
2576.291920427795
 31
0.0
  0
LINE
  5
18F09
330
747D
100
AcDbEntity
  8
部品1
 48
50.0
100
AcDbLine
 10
11030.84272364485
 20
4361.291920427775
 30
0.0
 11
11030.84272364485
 21
4366.291920427775
 31
0.0
  0
LINE
  5
18F0A
330
747D
100
AcDbEntity
  8
部品1
 48
50.0
100
AcDbLine
 10
8930.842723644849
 20
4361.291920427775
 30
0.0
 11
8930.842723644849
 21
4366.291920427775
 31
0.0
  0
DIMENSION
  5
18F0B
330
747D
100
AcDbEntity
  8
寸法
 48
50.0
100
AcDbDimension
  2
*D2
 10
8582.617917173832
 20
2584.291920427774
 30
0.0
 11
8582.617917173832
 21
3486.220540636736
 31
0.0
 70
   160
  1
有効開口部高サ<>
 71
     5
 42
1725.000000000001
  3
INABA_S40G
100
AcDbAlignedDimension
 13
8903.842723644848
 23
4309.291920427774
 33
0.0
 14
8903.842723644848
 24
2584.291920427774
 34
0.0
 50
90.0
100
AcDbRotatedDimension
  0
LINE
  5
18F0C
330
747D
100
AcDbEntity
  8
部品1
 48
50.0
100
AcDbLine
 10
11030.84272364483
 20
7659.412850865921
 30
0.0
 11
11085.84272364483
 21
7659.412850865926
 31
0.0
  0
LINE
  5
18F0D
330
747D
100
AcDbEntity
  8
部品1
 48
50.0
100
AcDbLine
 10
11057.84272364483
 20
7687.412850865891
 30
0.0
 11
8903.84272364483
 21
7687.412850865858
 31
0.0
  0
LINE
  5
18F0E
330
747D
100
AcDbEntity
  8
部品1
 48
50.0
100
AcDbLine
 10
8875.842723644849
 20
7659.412850865763
 30
0.0
 11
8930.842723644829
 21
7659.412850865767
 31
0.0
  0
LINE
  5
18F0F
330
747D
100
AcDbEntity
  8
部品1
100
AcDbLine
 10
11030.84272364483
 20
7687.412850865891
 30
0.0
 11
11030.84272364483
 21
7659.412850865891
 31
0.0
  0
LINE
  5
18F10
330
747D
100
AcDbEntity
  8
部品1
100
AcDbLine
 10
11030.84272364483
 20
7687.412850865868
 30
0.0
 11
11030.84272364483
 21
7659.412850865868
 31
0.0
  0
LINE
  5
18F11
330
747D
100
AcDbEntity
  8
部品1
100
AcDbLine
 10
8930.842723644829
 20
7687.412850865775
 30
0.0
 11
8930.842723644829
 21
7659.412850865774
 31
0.0
  0
LINE
  5
18F12
330
747D
100
AcDbEntity
  8
部品1
100
AcDbLine
 10
8930.842723644794
 20
7687.412850865742
 30
0.0
 11
8930.842723644797
 21
7659.412850865741
 31
0.0
  0
LINE
  5
18F13
330
747D
100
AcDbEntity
  8
部品1
100
AcDbLine
 10
8903.842723644833
 20
7714.412850865811
 30
0.0
 11
8875.842723644835
 21
7714.412850865811
 31
0.0
  0
LINE
  5
18F14
330
747D
100
AcDbEntity
  8
部品1
100
AcDbLine
 10
11057.84272364486
 20
7714.412850865937
 30
0.0
 11
11085.84272364486
 21
7714.412850865937
 31
0.0
  0
LINE
  5
18F15
330
747D
100
AcDbEntity
  8
部品1
100
AcDbLine
 10
11057.84272364486
 20
8974.412850865938
 30
0.0
 11
11085.84272364486
 21
8974.412850865938
 31
0.0
  0
LINE
  5
18F16
330
747D
100
AcDbEntity
  8
部品1
100
AcDbLine
 10
8903.842723644833
 20
8974.41285086581
 30
0.0
 11
8875.842723644835
 21
8974.41285086581
 31
0.0
  0
LINE
  5
18F17
330
747D
100
AcDbEntity
  8
部品1
 48
50.0
100
AcDbLine
 10
11029.34272364484
 20
8974.412850865938
 30
0.0
 11
8932.34272364484
 21
8974.412850866025
 31
0.0
  0
LINE
  5
18F18
330
747D
100
AcDbEntity
  8
部品1
100
AcDbLine
 10
9770.842723644856
 20
9869.412850865955
 30
0.0
 11
9770.842723644856
 21
9841.412850865957
 31
0.0
  0
LINE
  5
18F19
330
747D
100
AcDbEntity
  8
部品1
100
AcDbLine
 10
9770.842723644856
 20
9869.41285086584
 30
0.0
 11
9770.842723644856
 21
9841.41285086584
 31
0.0
  0
LINE
  5
18F1A
330
747D
100
AcDbEntity
  8
部品1
100
AcDbLine
 10
9770.842723644856
 20
9869.41285086584
 30
0.0
 11
9770.842723644856
 21
9841.41285086584
 31
0.0
  0
LINE
  5
18F1B
330
747D
100
AcDbEntity
  8
部品1
100
AcDbLine
 10
11030.84272364485
 20
9869.412850865934
 30
0.0
 11
11030.84272364485
 21
9841.412850865935
 31
0.0
  0
LINE
  5
18F1C
330
747D
100
AcDbEntity
  8
部品1
100
AcDbLine
 10
11030.84272364485
 20
9869.412850865955
 30
0.0
 11
11030.84272364485
 21
9841.412850865957
 31
0.0
  0
LINE
  5
18F1D
330
747D
100
AcDbEntity
  8
部品1
100
AcDbLine
 10
11057.84272364485
 20
9814.412850865938
 30
0.0
 11
11085.84272364485
 21
9814.412850865938
 31
0.0
  0
LINE
  5
18F1E
330
747D
100
AcDbEntity
  8
部品1
100
AcDbLine
 10
11057.84272364485
 20
9394.412850865938
 30
0.0
 11
11085.84272364485
 21
9394.412850865938
 31
0.0
  0
LINE
  5
18F1F
330
747D
100
AcDbEntity
  8
部品1
100
AcDbLine
 10
11057.34272364485
 20
9839.412850865935
 30
0.0
 11
11057.34272364485
 21
9389.412850865937
 31
0.0
  0
LINE
  5
18F20
330
747D
100
AcDbEntity
  8
部品1
 48
50.0
100
AcDbLine
 10
11029.34272364481
 20
7715.912850865855
 30
0.0
 11
11057.84272364481
 21
7687.412850865858
 31
0.0
  0
LINE
  5
18F21
330
747D
100
AcDbEntity
  8
部品1
100
AcDbLine
 10
11085.84272364485
 20
9869.412850865934
 30
0.0
 11
11085.84272364483
 21
7659.412850865926
 31
0.0
  0
DIMENSION
  5
18F22
330
747D
100
AcDbEntity
  8
寸法
100
AcDbDimension
  2
*D3
 10
11733.26906937927
 20
7714.412850865923
 30
0.0
 11
11733.26906937927
 21
8764.41285086593
 31
0.0
 70
   160
  1
5X420=<>
 71
     5
 42
2100.000000000014
  3
INABA_S40G
100
AcDbAlignedDimension
 13
11085.84272364485
 23
9814.412850865938
 33
0.0
 14
11085.84272364483
 24
7714.412850865923
 34
0.0
 50
90.0
100
AcDbRotatedDimension
1001
ACAD
1000
DSTYLE
1002
{
1002
}
  0
LINE
  5
18F23
330
747D
100
AcDbEntity
  8
部品1
100
AcDbLine
 10
11057.84272364485
 20
9841.412850865935
 30
0.0
 11
11057.84272364483
 21
7687.412850865891
 31
0.0
  0
DIMENSION
  5
18F24
330
747D
100
AcDbEntity
  8
寸法
100
AcDbDimension
  2
*D4
 10
11412.70044950688
 20
9294.195035197047
 30
0.0
 11
11312.70044950688
 21
9519.195035197048
 31
0.0
 70
    32
 71
     5
 42
449.9999999999963
  3
INABA_S40G
100
AcDbAlignedDimension
 13
11057.34272364485
 23
9839.412850865935
 33
0.0
 14
11057.34272364485
 24
9389.412850865937
 34
0.0
 50
90.0
100
AcDbRotatedDimension
1001
ACAD
1000
DSTYLE
1002
{
1002
}
  0
LINE
  5
18F25
330
747D
100
AcDbEntity
  8
部品1
100
AcDbLine
 10
11029.34272364484
 20
9389.412850865937
 30
0.0
 11
11029.34272364483
 21
7715.912850865845
 31
0.0
  0
LINE
  5
18F26
330
747D
100
AcDbEntity
  8
破線
 48
10.0
100
AcDbLine
 10
11005.84272364484
 20
9389.412850865937
 30
0.0
 11
11005.84272364483
 21
7739.412850865853
 31
0.0
  0
LINE
  5
18F27
330
747D
100
AcDbEntity
  8
部品1
100
AcDbLine
 10
10610.84272364485
 20
9869.412850865955
 30
0.0
 11
10610.84272364485
 21
9841.412850865957
 31
0.0
  0
LINE
  5
18F28
330
747D
100
AcDbEntity
  8
部品1
100
AcDbLine
 10
10190.84272364485
 20
9869.412850865955
 30
0.0
 11
10190.84272364485
 21
9841.412850865957
 31
0.0
  0
LINE
  5
18F29
330
747D
100
AcDbEntity
  8
部品1
100
AcDbLine
 10
10178.34272364485
 20
9833.412850865938
 30
0.0
 11
10203.34272364485
 21
9833.412850865942
 31
0.0
  0
LINE
  5
18F2A
330
747D
100
AcDbEntity
  8
部品1
100
AcDbLine
 10
10219.84272364485
 20
9859.412850865943
 30
0.0
 11
10225.84272364485
 21
9859.412850865943
 31
0.0
  0
LINE
  5
18F2B
330
747D
100
AcDbEntity
  8
部品1
100
AcDbLine
 10
10225.84272364485
 20
9859.412850865943
 30
0.0
 11
10225.84272364485
 21
9841.412850865943
 31
0.0
  0
LINE
  5
18F2C
330
747D
100
AcDbEntity
  8
部品1
100
AcDbLine
 10
10155.84272364485
 20
9859.412850865943
 30
0.0
 11
10161.84272364485
 21
9859.412850865943
 31
0.0
  0
LINE
  5
18F2D
330
747D
100
AcDbEntity
  8
部品1
100
AcDbLine
 10
10155.84272364485
 20
9859.412850865943
 30
0.0
 11
10155.84272364485
 21
9841.412850865943
 31
0.0
  0
LINE
  5
18F2E
330
747D
100
AcDbEntity
  8
部品1
100
AcDbLine
 10
10178.34272364485
 20
9389.412850865944
 30
0.0
 11
10203.34272364485
 21
9389.412850865944
 31
0.0
  0
LINE
  5
18F2F
330
747D
100
AcDbEntity
  8
部品1
 48
50.0
100
AcDbLine
 10
10203.34272364485
 20
9841.412850865946
 30
0.0
 11
10203.34272364485
 21
9389.412850865944
 31
0.0
  0
LINE
  5
18F30
330
747D
100
AcDbEntity
  8
部品1
 48
50.0
100
AcDbLine
 10
10178.34272364485
 20
9841.41285086595
 30
0.0
 11
10178.34272364485
 21
9389.412850865944
 31
0.0
  0
LINE
  5
18F31
330
747D
100
AcDbEntity
  8
部品1
 48
50.0
100
AcDbLine
 10
10204.34272364485
 20
9839.412850865938
 30
0.0
 11
10204.34272364485
 21
9389.412850865944
 31
0.0
  0
LINE
  5
18F32
330
747D
100
AcDbEntity
  8
部品1
 48
50.0
100
AcDbLine
 10
10177.34272364485
 20
9839.412850865942
 30
0.0
 11
10177.34272364485
 21
9389.412850865944
 31
0.0
  0
LINE
  5
18F33
330
747D
100
AcDbEntity
  8
部品1
100
AcDbLine
 10
9350.842723644856
 20
9869.412850865955
 30
0.0
 11
9350.842723644856
 21
9841.412850865957
 31
0.0
  0
LINE
  5
18F34
330
747D
100
AcDbEntity
  8
部品1
100
AcDbLine
 10
9350.842723644856
 20
9869.41285086584
 30
0.0
 11
9350.842723644856
 21
9841.41285086584
 31
0.0
  0
LINE
  5
18F35
330
747D
100
AcDbEntity
  8
部品1
100
AcDbLine
 10
9350.842723644856
 20
9869.41285086584
 30
0.0
 11
9350.842723644856
 21
9841.41285086584
 31
0.0
  0
LINE
  5
18F36
330
747D
100
AcDbEntity
  8
部品1
100
AcDbLine
 10
10203.34272364485
 20
9841.412850865953
 30
0.0
 11
11057.84272364485
 21
9841.412850865935
 31
0.0
  0
LINE
  5
18F37
330
747D
100
AcDbEntity
  8
細線
 48
50.0
100
AcDbLine
 10
11057.34272364485
 20
9389.412850865937
 30
0.0
 11
10204.34272364485
 21
9839.412850865938
 31
0.0
  0
LINE
  5
18F38
330
747D
100
AcDbEntity
  8
部品1
100
AcDbLine
 10
10204.34272364485
 20
9389.412850865944
 30
0.0
 11
11057.34272364485
 21
9389.412850865937
 31
0.0
  0
LINE
  5
18F39
330
747D
100
AcDbEntity
  8
部品1
100
AcDbLine
 10
10204.34272364485
 20
9839.412850865942
 30
0.0
 11
11057.34272364485
 21
9839.412850865935
 31
0.0
  0
LINE
  5
18F3A
330
747D
100
AcDbEntity
  8
細線
 48
50.0
100
AcDbLine
 10
11057.34272364485
 20
9839.412850865935
 30
0.0
 11
10204.34272364485
 21
9389.412850865944
 31
0.0
  0
DIMENSION
  5
18F3B
330
747D
100
AcDbEntity
  8
寸法
100
AcDbDimension
  2
*D5
 10
10978.77395008843
 20
9096.19019606497
 30
0.0
 11
10583.68978576312
 21
9096.19019606497
 31
0.0
 70
   160
 71
     5
 42
853.0000000000109
  3
INABA_S40G
100
AcDbAlignedDimension
 13
10204.34272364485
 23
9389.412850865944
 33
0.0
 14
11057.34272364486
 24
9389.412850865937
 34
0.0
100
AcDbRotatedDimension
1001
ACAD
1000
DSTYLE
1002
{
1002
}
  0
LINE
  5
18F3C
330
747D
100
AcDbEntity
  8
破線
 48
10.0
100
AcDbLine
 10
11005.84272364481
 20
7739.412850865853
 30
0.0
 11
10351.34272364487
 21
7739.412850865827
 31
0.0
  0
DIMENSION
  5
18F3E
330
747D
100
AcDbEntity
  8
寸法
100
AcDbDimension
  2
*D6
 10
11733.26906937924
 20
7659.412850865926
 30
0.0
 11
11733.26906937924
 21
7281.551383961065
 31
0.0
 70
   160
 71
     5
 42
54.99999999999636
  3
INABA_S40G
100
AcDbAlignedDimension
 13
11085.84272364483
 23
7714.412850865923
 33
0.0
 14
11085.84272364483
 24
7659.412850865926
 34
0.0
 50
90.0
100
AcDbRotatedDimension
1001
ACAD
1000
DSTYLE
1002
{
1002
}
  0
LINE
  5
18F3F
330
747D
100
AcDbEntity
  8
部品1
100
AcDbLine
 10
8930.84272364482
 20
9869.412850865806
 30
0.0
 11
8930.842723644822
 21
9841.412850865808
 31
0.0
  0
LINE
  5
18F40
330
747D
100
AcDbEntity
  8
部品1
100
AcDbLine
 10
8930.842723644856
 20
9869.41285086584
 30
0.0
 11
8930.842723644856
 21
9841.41285086584
 31
0.0
  0
LINE
  5
18F41
330
747D
100
AcDbEntity
  8
部品1
100
AcDbLine
 10
8903.842723644823
 20
9814.412850865812
 30
0.0
 11
8875.842723644822
 21
9814.412850865812
 31
0.0
  0
LINE
  5
18F42
330
747D
100
AcDbEntity
  8
部品1
100
AcDbLine
 10
8903.84272364483
 20
9394.41285086581
 30
0.0
 11
8875.842723644829
 21
9394.41285086581
 31
0.0
  0
LINE
  5
18F43
330
747D
100
AcDbEntity
  8
部品1
 48
50.0
100
AcDbLine
 10
8904.342723644854
 20
9839.412850865835
 30
0.0
 11
8904.342723644855
 21
9389.412850865836
 31
0.0
  0
LINE
  5
18F44
330
747D
100
AcDbEntity
  8
部品1
 48
50.0
100
AcDbLine
 10
8932.342723644827
 20
7715.912850865855
 30
0.0
 11
8903.84272364483
 21
7687.412850865858
 31
0.0
  0
LINE
  5
18F45
330
747D
100
AcDbEntity
  8
部品1
100
AcDbLine
 10
8875.842723644819
 20
9869.412850865806
 30
0.0
 11
8875.842723644849
 21
7659.412850865796
 31
0.0
  0
LINE
  5
18F46
330
747D
100
AcDbEntity
  8
部品1
100
AcDbLine
 10
8903.84272364483
 20
7687.412850865858
 30
0.0
 11
8903.842723644855
 21
9841.41285086584
 31
0.0
  0
LINE
  5
18F47
330
747D
100
AcDbEntity
  8
部品1
100
AcDbLine
 10
8932.342723644831
 20
9389.412850865937
 30
0.0
 11
8932.342723644849
 21
7715.912850865876
 31
0.0
  0
LINE
  5
18F48
330
747D
100
AcDbEntity
  8
破線
 48
10.0
100
AcDbLine
 10
8955.842723644829
 20
9389.412850865937
 30
0.0
 11
8955.842723644844
 21
7739.41285086576
 31
0.0
  0
LINE
  5
18F4A
330
747D
100
AcDbEntity
  8
部品1
100
AcDbLine
 10
8903.842723644855
 20
9841.41285086584
 30
0.0
 11
10178.34272364485
 21
9841.412850865957
 31
0.0
  0
LINE
  5
18F4B
330
747D
100
AcDbEntity
  8
部品1
100
AcDbLine
 10
8875.842723644856
 20
9869.41285086584
 30
0.0
 11
11085.84272364485
 21
9869.412850865934
 31
0.0
  0
LINE
  5
18F4C
330
747D
100
AcDbEntity
  8
部品1
100
AcDbLine
 10
8904.342723644855
 20
9389.41285086584
 30
0.0
 11
10177.34272364485
 21
9389.412850865944
 31
0.0
  0
LINE
  5
18F4D
330
747D
100
AcDbEntity
  8
細線
 48
50.0
100
AcDbLine
 10
10177.34272364485
 20
9839.412850865942
 30
0.0
 11
8904.342723644855
 21
9389.41285086584
 31
0.0
  0
LINE
  5
18F4E
330
747D
100
AcDbEntity
  8
部品1
100
AcDbLine
 10
8904.342723644854
 20
9839.412850865841
 30
0.0
 11
10177.34272364485
 21
9839.412850865945
 31
0.0
  0
LINE
  5
18F4F
330
747D
100
AcDbEntity
  8
細線
 48
50.0
100
AcDbLine
 10
10177.34272364485
 20
9389.412850865944
 30
0.0
 11
8904.342723644854
 21
9839.412850865841
 31
0.0
  0
DIMENSION
  5
18F50
330
747D
100
AcDbEntity
  8
寸法
100
AcDbDimension
  2
*D7
 10
10098.77395008846
 20
9096.19019606497
 30
0.0
 11
9439.919500221236
 21
9096.19019606497
 31
0.0
 70
   160
 71
     5
 42
1273.000000000011
  3
INABA_S40G
100
AcDbAlignedDimension
 13
8904.342723644855
 23
9389.41285086584
 33
0.0
 14
10177.34272364486
 24
9389.412850865832
 34
0.0
100
AcDbRotatedDimension
1001
ACAD
1000
DSTYLE
1002
{
1002
}
  0
LINE
  5
18F51
330
747D
100
AcDbEntity
  8
破線
 48
10.0
100
AcDbLine
 10
10301.34272364487
 20
7739.412850865821
 30
0.0
 11
9660.34272364487
 21
7739.412850865793
 31
0.0
  0
LINE
  5
18F52
330
747D
100
AcDbEntity
  8
部品1
100
AcDbLine
 10
11029.34272364481
 20
7715.912850865855
 30
0.0
 11
8932.342723644731
 21
7715.91285086576
 31
0.0
  0
DIMENSION
  5
18F53
330
747D
100
AcDbEntity
  8
寸法
100
AcDbDimension
  2
*D8
 10
8930.842723644856
 20
10172.45844544142
 30
0.0
 11
8567.357442270582
 21
10172.45844544142
 31
0.0
 70
   160
 71
     5
 42
55.00000000003637
  3
INABA_S40G
100
AcDbAlignedDimension
 13
8875.842723644819
 23
9869.41285086584
 33
0.0
 14
8930.842723644856
 24
9869.41285086584
 34
0.0
100
AcDbRotatedDimension
1001
ACAD
1000
DSTYLE
1002
{
1002
}
  0
DIMENSION
  5
18F54
330
747D
100
AcDbEntity
  8
寸法
100
AcDbDimension
  2
*D9
 10
11733.26906937926
 20
9814.412850865938
 30
0.0
 11
11733.26906937926
 21
10177.89813224017
 31
0.0
 70
   160
 71
     5
 42
54.99999999999636
  3
INABA_S40G
100
AcDbAlignedDimension
 13
11085.84272364485
 23
9869.412850865934
 33
0.0
 14
11085.84272364485
 24
9814.412850865938
 34
0.0
 50
90.0
100
AcDbRotatedDimension
1001
ACAD
1000
DSTYLE
1002
{
1002
}
  0
DIMENSION
  5
18F55
330
747D
100
AcDbEntity
  8
寸法
100
AcDbDimension
  2
*D10
 10
11085.84272364485
 20
10172.45844544151
 30
0.0
 11
11394.32800501909
 21
10172.45844544151
 31
0.0
 70
   160
 71
     5
 42
55.0
  3
INABA_S40G
100
AcDbAlignedDimension
 13
11030.84272364485
 23
9869.412850865934
 33
0.0
 14
11085.84272364485
 24
9869.412850865934
 34
0.0
100
AcDbRotatedDimension
1001
ACAD
1000
DSTYLE
1002
{
1002
}
  0
DIMENSION
  5
18F56
330
747D
100
AcDbEntity
  8
寸法
100
AcDbDimension
  2
*D11
 10
11030.84272364485
 20
10172.45844544153
 30
0.0
 11
9980.842723644855
 21
10172.45844544153
 31
0.0
 70
   160
  1
5X420=<>
 71
     5
 42
2100.0
  3
INABA_S40G
100
AcDbAlignedDimension
 13
8930.842723644856
 23
9869.41285086584
 33
0.0
 14
11030.84272364485
 24
9869.412850865934
 34
0.0
100
AcDbRotatedDimension
1001
ACAD
1000
DSTYLE
1002
{
1002
}
  0
DIMENSION
  5
18F57
330
747D
100
AcDbEntity
  8
寸法
100
AcDbDimension
  2
*D12
 10
12005.95771720716
 20
7659.412850865926
 30
0.0
 11
12005.95771720716
 21
8749.628443744411
 31
0.0
 70
   160
 71
     5
 42
2210.000000000007
  3
INABA_S40G
100
AcDbAlignedDimension
 13
11085.84272364485
 23
9869.412850865934
 33
0.0
 14
11085.84272364483
 24
7659.412850865926
 34
0.0
 50
90.0
100
AcDbRotatedDimension
1001
ACAD
1000
DSTYLE
1002
{
1002
}
  0
LINE
  5
18F58
330
747D
100
AcDbEntity
  8
部品1
100
AcDbLine
 10
8875.842723644849
 20
2576.291920427779
 30
0.0
 11
8903.842723644848
 21
2576.291920427779
 31
0.0
  0
TEXT
  5
18F59
330
747D
100
AcDbEntity
  8
部品1
100
AcDbText
 10
9689.632794268581
 20
1544.360128231844
 30
0.0
 40
135.0
  1
正面図
  7
STYLE2
100
AcDbText
  0
DIMENSION
  5
18F5A
330
747D
100
AcDbEntity
  8
寸法
 48
50.0
100
AcDbDimension
  2
*D13
 10
8775.842723644847
 20
1940.244591127398
 30
0.0
 11
8875.842723644849
 21
1940.244591127398
 31
0.0
 70
   160
 71
     5
 42
200.0000000000018
  3
INABA_S40G
100
AcDbAlignedDimension
 13
8975.84272364485
 23
2226.291920427775
 33
0.0
 14
8775.842723644847
 24
2226.291920427775
 34
0.0
100
AcDbRotatedDimension
  0
LINE
  5
18F5B
330
747D
100
AcDbEntity
  8
破線
 48
5.0
100
AcDbLine
 10
8870.842723644848
 20
2426.291920427775
 30
0.0
 11
8870.842723644848
 21
2271.291920427776
 31
0.0
  0
LINE
  5
18F5C
330
747D
100
AcDbEntity
  8
破線
 48
5.0
100
AcDbLine
 10
11090.84272364485
 20
2426.291920427775
 30
0.0
 11
11090.84272364485
 21
2271.291920427775
 31
0.0
  0
LINE
  5
18F5D
330
747D
100
AcDbEntity
  8
破線
 48
5.0
100
AcDbLine
 10
8975.842723644849
 20
2426.291920427776
 30
0.0
 11
8975.842723644849
 21
2226.291920427775
 31
0.0
  0
LINE
  5
18F5E
330
747D
100
AcDbEntity
  8
破線
 48
5.0
100
AcDbLine
 10
8850.842723644849
 20
2271.291920427776
 30
0.0
 11
8870.84272364485
 21
2271.291920427776
 31
0.0
  0
LINE
  5
18F5F
330
747D
100
AcDbEntity
  8
破線
 48
5.0
100
AcDbLine
 10
8775.842723644847
 20
2426.291920427776
 30
0.0
 11
8775.842723644847
 21
2226.291920427775
 31
0.0
  0
LINE
  5
18F60
330
747D
100
AcDbEntity
  8
破線
 48
5.0
100
AcDbLine
 10
8775.842723644847
 20
2226.291920427775
 30
0.0
 11
8975.84272364485
 21
2226.291920427775
 31
0.0
  0
LINE
  5
18F61
330
747D
100
AcDbEntity
  8
部品1
100
AcDbLine
 10
8870.842723644848
 20
2571.291920427777
 30
0.0
 11
8870.842723644848
 21
2426.291920427775
 31
0.0
  0
LINE
  5
18F62
330
747D
100
AcDbEntity
  8
破線
 48
5.0
100
AcDbLine
 10
11110.84272364485
 20
2271.291920427775
 30
0.0
 11
11090.84272364484
 21
2271.291920427775
 31
0.0
  0
LINE
  5
18F63
330
747D
100
AcDbEntity
  8
破線
 48
5.0
100
AcDbLine
 10
11185.84272364484
 20
2426.291920427775
 30
0.0
 11
11185.84272364484
 21
2226.291920427774
 31
0.0
  0
LINE
  5
18F64
330
747D
100
AcDbEntity
  8
破線
 48
5.0
100
AcDbLine
 10
10985.84272364484
 20
2426.291920427775
 30
0.0
 11
10985.84272364484
 21
2226.291920427774
 31
0.0
  0
LINE
  5
18F65
330
747D
100
AcDbEntity
  8
破線
 48
5.0
100
AcDbLine
 10
11185.84272364484
 20
2226.291920427774
 30
0.0
 11
10985.84272364484
 21
2226.291920427774
 31
0.0
  0
LINE
  5
18F66
330
747D
100
AcDbEntity
  8
部品1
100
AcDbLine
 10
11090.84272364485
 20
2571.291920427776
 30
0.0
 11
11090.84272364485
 21
2426.291920427775
 31
0.0
  0
LINE
  5
18F67
330
747D
100
AcDbEntity
  8
部品1
100
AcDbLine
 10
9275.842723644847
 20
2526.291920427775
 30
0.0
 11
9275.842723644847
 21
2426.291920427775
 31
0.0
  0
LINE
  5
18F68
330
747D
100
AcDbEntity
  8
部品1
100
AcDbLine
 10
10685.84272364485
 20
2526.291920427775
 30
0.0
 11
10685.84272364485
 21
2426.291920427775
 31
0.0
  0
LINE
  5
18F69
330
747D
100
AcDbEntity
  8
部品1
100
AcDbLine
 10
11085.84272364485
 20
4420.968358058995
 30
0.0
 11
11085.84272364484
 21
2426.291920427775
 31
0.0
  0
LINE
  5
18F6A
330
747D
100
AcDbEntity
  8
部品1
100
AcDbLine
 10
8875.842723644849
 20
4458.318217472361
 30
0.0
 11
8875.842723644849
 21
2426.291920427775
 31
0.0
  0
LINE
  5
18F6B
330
747D
100
AcDbEntity
  8
部品1
100
AcDbLine
 10
8875.842723644849
 20
4366.291920427775
 30
0.0
 11
11085.84272364484
 21
4366.291920427775
 31
0.0
  0
LINE
  5
18F6C
330
747D
100
AcDbEntity
  8
部品1
100
AcDbLine
 10
8875.842723644849
 20
2526.291920427775
 30
0.0
 11
11085.84272364484
 21
2526.291920427775
 31
0.0
  0
LINE
  5
18F6D
330
747D
100
AcDbEntity
  8
Ｇ．Ｌ
100
AcDbLine
 10
3254.636781068555
 20
2426.291920427775
 30
0.0
 11
11735.35527667369
 21
2426.291920427775
 31
0.0
  0
TEXT
  5
18F6E
330
747D
100
AcDbEntity
  8
文字
 62
     7
 48
50.0
100
AcDbText
 10
13209.4053442172
 20
228.5435242569015
 30
0.0
 40
100.0
  1
○有効開口寸法 ： 1266×1725(mm)
  7
STYLE2
100
AcDbText
  0
DIMENSION
  5
18FC0
330
747D
100
AcDbEntity
  8
寸法
 48
50.0
100
AcDbDimension
  2
*D14
 10
8875.842723644849
 20
4999.949374007078
 30
0.0
 11
9970.487460715361
 21
4999.949374007078
 31
0.0
 70
   160
  1
柱外寸法<>
 71
     5
 42
2210.0
  3
INABA_S40G
100
AcDbAlignedDimension
 13
11085.84272364484
 23
4548.102600039427
 33
0.0
 14
8875.842723644849
 24
4597.293538550752
 34
0.0
100
AcDbRotatedDimension
1001
ACAD
1000
DSTYLE
1002
{
1070
   174
1070
     0
1070
   272
1070
     1
1070
   288
1070
     0
1070
   341
1005
0
1002
}
  0
DIMENSION
  5
18FC1
330
747D
100
AcDbEntity
  8
寸法
 48
50.0
100
AcDbDimension
  2
*D15
 10
8815.842723644847
 20
5219.15120768137
 30
0.0
 11
10050.18657773731
 21
5219.15120768137
 31
0.0
 70
   160
 71
     5
 42
2350.0
  3
INABA_S40G
100
AcDbAlignedDimension
 13
11165.84272364484
 23
4546.291920427775
 33
0.0
 14
8815.842723644847
 24
4601.291920427779
 34
0.0
100
AcDbRotatedDimension
1001
ACAD
1000
DSTYLE
1002
{
1070
   174
1070
     0
1070
   272
1070
     1
1070
   288
1070
     0
1070
   341
1005
0
1002
}
  0
DIMENSION
  5
18FC2
330
747D
100
AcDbEntity
  8
寸法
 48
50.0
100
AcDbDimension
  2
*D16
 10
11165.84272364484
 20
4999.949374007078
 30
0.0
 11
11371.88996773934
 21
4999.949374007078
 31
0.0
 70
   160
 71
     5
 42
80.0
  3
INABA_S40G
100
AcDbAlignedDimension
 13
11085.84272364484
 23
4548.102600039427
 33
0.0
 14
11165.84272364484
 24
4546.291920427775
 34
0.0
100
AcDbRotatedDimension
1001
ACAD
1000
DSTYLE
1002
{
1070
   174
1070
     0
1070
   272
1070
     1
1070
   288
1070
     0
1070
   341
1005
0
1002
}
  0
DIMENSION
  5
18FC3
330
747D
100
AcDbEntity
  8
寸法
 48
50.0
100
AcDbDimension
  2
*D17
 10
8815.842723644847
 20
4999.949374007078
 30
0.0
 11
8506.204928369257
 21
4999.949374007078
 31
0.0
 70
   160
 71
     5
 42
60.0
  3
INABA_S40G
100
AcDbAlignedDimension
 13
8875.842723644849
 23
4597.293538550752
 33
0.0
 14
8815.842723644847
 24
4601.291920427779
 34
0.0
100
AcDbRotatedDimension
1001
ACAD
1000
DSTYLE
1002
{
1070
   174
1070
     0
1070
   272
1070
     1
1070
   288
1070
     0
1070
   341
1005
0
1002
}
  0
LINE
  5
18FC4
330
747D
100
AcDbEntity
  8
部品1
100
AcDbLine
 10
9805.387710001811
 20
4733.042402727748
 30
0.0
 11
10130.84272364485
 21
4715.524343768886
 31
0.0
  0
LINE
  5
18FC5
330
747D
100
AcDbEntity
  8
部品1
 48
50.0
100
AcDbLine
 10
9830.842723644849
 20
4731.724343768885
 30
0.0
 11
10130.84272364485
 21
4731.724343768885
 31
0.0
  0
LINE
  5
18FC6
330
747D
100
AcDbEntity
  8
部品1
 48
50.0
100
AcDbLine
 10
10130.84272364485
 20
4731.724343768885
 30
0.0
 11
10130.84272364485
 21
4715.524343768886
 31
0.0
  0
TEXT
  5
18FC7
330
747D
100
AcDbEntity
  8
部品1
 48
50.0
100
AcDbText
 10
9819.110558868576
 20
4767.608365921318
 30
0.0
 40
120.0
  1
1000
  7
STYLE1
100
AcDbText
  0
LINE
  5
18FC8
330
747D
100
AcDbEntity
  8
細線
 48
50.0
100
AcDbLine
 10
8821.642621982949
 20
4479.447490571272
 30
0.0
 11
11151.64628641359
 21
4439.638171596779
 31
0.0
  0
LINE
  5
18FC9
330
747D
100
AcDbEntity
  8
細線
 48
50.0
100
AcDbLine
 10
8816.882146745662
 20
4572.309002269135
 30
0.0
 11
11162.51813149083
 21
4516.684797628307
 31
0.0
  0
LINE
  5
18FCA
330
747D
100
AcDbEntity
  8
部品1
100
AcDbLine
 10
8831.185288246802
 20
4459.07294549674
 30
0.0
 11
11140.50642418469
 21
4420.044520262536
 31
0.0
  0
LINE
  5
18FCB
330
747D
100
AcDbEntity
  8
部品1
100
AcDbLine
 10
8823.38771000181
 20
4600.009655762042
 30
0.0
 11
11158.45460050631
 21
4544.932718136913
 31
0.0
  0
DIMENSION
  5
18FCC
330
747D
100
AcDbEntity
  8
寸法
 48
50.0
100
AcDbDimension
  2
*D18
 10
8255.234316876482
 20
4475.637179301104
 30
0.0
 11
8265.899792135405
 21
4846.483842542812
 31
0.0
 70
   161
 71
     5
 42
141.0000000000018
  3
INABA_S40G
100
AcDbAlignedDimension
 13
8835.238743803428
 23
4600.014669262455
 33
0.0
 14
8831.185288246802
 24
4459.07294549674
 34
0.0
1001
ACAD
1000
DSTYLE
1002
{
1070
   174
1070
     0
1070
   272
1070
     1
1070
   288
1070
     0
1070
   341
1005
0
1002
}
  0
ARC
  5
18FCD
330
747D
100
AcDbEntity
  8
部品1
100
AcDbCircle
 10
8821.879815516215
 20
4480.106079386678
 30
0.0
 40
0.7
100
AcDbArc
 50
181.0932240293156
 51
260.1877540314855
  0
ARC
  5
18FCE
330
747D
100
AcDbEntity
  8
部品1
100
AcDbCircle
 10
8817.107141918604
 20
4572.971857586797
 30
0.0
 40
0.7
100
AcDbArc
 50
181.0932240292114
 51
260.1877540314855
  0
ARC
  5
18FCF
330
747D
100
AcDbEntity
  8
部品1
100
AcDbCircle
 10
8816.476587515582
 20
4569.325983049399
 30
0.0
 40
3.0
100
AcDbArc
 50
1.093224029315636
 51
80.18775403148559
  0
ARC
  5
18FD0
330
747D
100
AcDbEntity
  8
部品1
100
AcDbCircle
 10
8821.249261113189
 20
4476.460204849281
 30
0.0
 40
3.0
100
AcDbArc
 50
1.093224029315636
 51
80.18775403148559
  0
ARC
  5
18FD1
330
747D
100
AcDbEntity
  8
部品1
 48
50.0
100
AcDbCircle
 10
8831.449393488389
 20
4466.067961466801
 30
0.0
 40
7.0
100
AcDbArc
 50
181.0932240293156
 51
267.8377559869488
  0
ARC
  5
18FD2
330
747D
100
AcDbEntity
  8
部品1
 48
50.0
100
AcDbCircle
 10
8823.025735386293
 20
4593.019020999895
 30
0.0
 40
7.0
100
AcDbArc
 50
87.03587545303976
 51
181.0932240293156
  0
LINE
  5
18FD3
330
747D
100
AcDbEntity
  8
部品1
 48
50.0
100
AcDbLine
 10
8824.248715039619
 20
4476.517442452463
 30
0.0
 11
8824.45066766005
 21
4465.934407059372
 31
0.0
  0
LINE
  5
18FD4
330
747D
100
AcDbEntity
  8
部品1
 48
50.0
100
AcDbLine
 10
8819.476041442014
 20
4569.383220652584
 30
0.0
 11
8821.179942933376
 21
4480.092723945936
 31
0.0
  0
LINE
  5
18FD5
330
747D
100
AcDbEntity
  8
部品1
 48
50.0
100
AcDbLine
 10
8816.027009557954
 20
4592.885466592466
 30
0.0
 11
8816.407269335767
 21
4572.958502146055
 31
0.0
  0
LINE
  5
18FD6
330
747D
100
AcDbEntity
  8
細線
 48
50.0
100
AcDbLine
 10
8848.842723644848
 20
4598.691596803178
 30
0.0
 11
8843.553622089341
 21
4458.605964175825
 31
0.0
  0
ARC
  5
18FD7
330
747D
100
AcDbEntity
  8
部品1
100
AcDbCircle
 10
11151.47025945879
 20
4440.315677693567
 30
0.0
 40
0.7
100
AcDbArc
 50
275.0921697642102
 51
354.1866997666601
  0
ARC
  5
18FD8
330
747D
100
AcDbEntity
  8
部品1
100
AcDbCircle
 10
11162.32960520811
 20
4517.35893251149
 30
0.0
 40
0.7
100
AcDbArc
 50
275.0921697642102
 51
354.1866997665565
  0
ARC
  5
18FD9
330
747D
100
AcDbEntity
  8
部品1
100
AcDbCircle
 10
11162.65801045071
 20
4513.673535654401
 30
0.0
 40
3.0
100
AcDbArc
 50
95.09216976441955
 51
174.1866997665564
  0
ARC
  5
18FDA
330
747D
100
AcDbEntity
  8
部品1
100
AcDbCircle
 10
11151.79866470138
 20
4436.630280836476
 30
0.0
 40
3.0
100
AcDbArc
 50
95.0921697642102
 51
174.1866997665564
  0
ARC
  5
18FDB
330
747D
100
AcDbEntity
  8
部品1
 48
50.0
100
AcDbCircle
 10
11140.77052942628
 20
4427.039536232594
 30
0.0
 40
7.0
100
AcDbArc
 50
267.8377559869488
 51
354.1866997665565
  0
ARC
  5
18FDC
330
747D
100
AcDbEntity
  8
部品1
 48
50.0
100
AcDbCircle
 10
11158.09262589079
 20
4537.942083374768
 30
0.0
 40
7.0
100
AcDbArc
 50
354.1866997665565
 51
87.03587545303976
  0
LINE
  5
18FDD
330
747D
100
AcDbEntity
  8
部品1
 48
50.0
100
AcDbLine
 10
11148.81409303078
 20
4436.934142553378
 30
0.0
 11
11147.73452999104
 21
4426.33052555982
 31
0.0
  0
LINE
  5
18FDE
330
747D
100
AcDbEntity
  8
部品1
 48
50.0
100
AcDbLine
 10
11159.6734387801
 20
4513.977397371303
 30
0.0
 11
11152.16665951526
 21
4440.244776626292
 31
0.0
  0
LINE
  5
18FDF
330
747D
100
AcDbEntity
  8
部品1
 48
50.0
100
AcDbLine
 10
11165.05662645555
 20
4537.233072701993
 30
0.0
 11
11163.02600526458
 21
4517.288031444212
 31
0.0
  0
LINE
  5
18FE0
330
747D
100
AcDbEntity
  8
細線
 48
50.0
100
AcDbLine
 10
11132.84272364485
 20
4546.258899463071
 30
0.0
 11
11128.09504075685
 21
4420.513126972326
 31
0.0
  0
DIMENSION
  5
18FE1
330
747D
100
AcDbEntity
  8
寸法
100
AcDbDimension
  2
*D19
 10
11621.01281940727
 20
4546.291920427776
 30
0.0
 11
11621.01281940727
 21
3508.548247857464
 31
0.0
 70
   160
 71
     5
 42
2020.000000000003
  3
INABA_S40G
100
AcDbAlignedDimension
 13
11085.84272364484
 23
2526.291920427775
 33
0.0
 14
11165.84272364483
 24
4546.291920427776
 34
0.0
 50
90.0
100
AcDbRotatedDimension
1001
ACAD
1000
DSTYLE
1002
{
1070
   174
1070
     0
1070
   272
1070
     1
1070
   288
1070
     0
1070
   341
1005
0
1002
}
  0
DIMENSION
  5
18FE2
330
747D
100
AcDbEntity
  8
寸法
100
AcDbDimension
  2
*D20
 10
7967.203341715491
 20
4601.29192042778
 30
0.0
 11
7967.203341715489
 21
3520.497797920886
 31
0.0
 70
   160
 71
     5
 42
2075.000000000005
  3
INABA_S40G
100
AcDbAlignedDimension
 13
8875.842723644849
 23
2526.291920427775
 33
0.0
 14
8815.842723644847
 24
4601.29192042778
 34
0.0
 50
90.0
100
AcDbRotatedDimension
1001
ACAD
1000
DSTYLE
1002
{
1070
   174
1070
     0
1070
   272
1070
     1
1070
   288
1070
     0
1070
   341
1005
0
1002
}
  0
DIMENSION
  5
18FE3
330
747D
100
AcDbEntity
  8
寸法
100
AcDbDimension
  2
*D21
 10
8252.190014486551
 20
2576.291920427775
 30
0.0
 11
8252.190014486551
 21
3466.746218969733
 31
0.0
 70
   160
 71
     5
 42
1790.0
  3
INABA_S40G
100
AcDbAlignedDimension
 13
8875.842723644849
 23
4366.291920427775
 33
0.0
 14
8875.842723644849
 24
2576.291920427775
 34
0.0
 50
90.0
100
AcDbRotatedDimension
1001
ACAD
1000
DSTYLE
1002
{
1070
   174
1070
     0
1070
   272
1070
     1
1070
   288
1070
     0
1070
   341
1005
0
1002
}
  0
DIMENSION
  5
18FE4
330
747D
100
AcDbEntity
  8
寸法
100
AcDbDimension
  2
*D22
 10
8252.190014486551
 20
2526.291920427775
 30
0.0
 11
8252.190014486551
 21
2220.244676333285
 31
0.0
 70
   160
 71
     5
 42
50.0
  3
INABA_S40G
100
AcDbAlignedDimension
 13
8875.842723644849
 23
2576.291920427775
 33
0.0
 14
8820.842723644849
 24
2526.291920427775
 34
0.0
 50
90.0
100
AcDbRotatedDimension
1001
ACAD
1000
DSTYLE
1002
{
1070
   174
1070
     0
1070
   272
1070
     1
1070
   288
1070
     0
1070
   341
1005
0
1002
}
  0
DIMENSION
  5
18FE5
330
747D
100
AcDbEntity
  8
寸法
100
AcDbDimension
  2
*D23
 10
7967.203341715491
 20
2426.291920427775
 30
0.0
 11
7967.203341715489
 21
2190.244676333285
 31
0.0
 70
   160
 71
     5
 42
100.0
  3
INABA_S40G
100
AcDbAlignedDimension
 13
8820.842723644849
 23
2526.291920427775
 33
0.0
 14
8252.190014486551
 24
2426.291920427775
 34
0.0
 50
90.0
100
AcDbRotatedDimension
1001
ACAD
1000
DSTYLE
1002
{
1070
   174
1070
     0
1070
   272
1070
     1
1070
   288
1070
     0
1070
   341
1005
0
1002
}
  0
TEXT
  5
18FE6
330
747D
100
AcDbEntity
  8
部品1
 48
50.0
100
AcDbText
 10
10296.74358153366
 20
4630.107107703035
 30
0.0
 40
120.0
  1
44
 50
90.0
  7
STYLE1
100
AcDbText
  0
LINE
  5
194B1
330
747D
100
AcDbEntity
  8
部品1
100
AcDbLine
 10
6766.245694307588
 20
2526.291920427778
 30
0.0
 11
6773.745694307592
 21
2526.291920427778
 31
0.0
  0
LINE
  5
194B2
330
747D
100
AcDbEntity
  8
部品1
100
AcDbLine
 10
4611.245694307588
 20
2526.291920427778
 30
0.0
 11
6726.245694307589
 21
2526.291920427778
 31
0.0
  0
LINE
  5
194B3
330
747D
100
AcDbEntity
  8
細線
 48
50.0
100
AcDbLine
 10
5956.245694307592
 20
4366.291920427777
 30
0.0
 11
5956.245694307592
 21
2576.291920427778
 31
0.0
  0
LINE
  5
194B4
330
747D
100
AcDbEntity
  8
細線
 48
50.0
100
AcDbLine
 10
5941.245694307593
 20
4366.291920427777
 30
0.0
 11
5941.245694307593
 21
2576.291920427778
 31
0.0
  0
LINE
  5
194B5
330
747D
100
AcDbEntity
  8
細線
 48
50.0
100
AcDbLine
 10
6081.245694307592
 20
4366.291920427777
 30
0.0
 11
6081.245694307592
 21
2576.291920427778
 31
0.0
  0
LINE
  5
194B6
330
747D
100
AcDbEntity
  8
細線
 48
50.0
100
AcDbLine
 10
6096.245694307592
 20
4366.291920427777
 30
0.0
 11
6096.245694307592
 21
2576.291920427778
 31
0.0
  0
LINE
  5
194B7
330
747D
100
AcDbEntity
  8
細線
 48
50.0
100
AcDbLine
 10
6236.245694307593
 20
4366.291920427777
 30
0.0
 11
6236.245694307593
 21
2576.291920427778
 31
0.0
  0
LINE
  5
194B8
330
747D
100
AcDbEntity
  8
細線
 48
50.0
100
AcDbLine
 10
6221.245694307592
 20
4366.291920427777
 30
0.0
 11
6221.245694307592
 21
2576.291920427778
 31
0.0
  0
LINE
  5
194B9
330
747D
100
AcDbEntity
  8
部品1
100
AcDbLine
 10
6298.745694307588
 20
4366.291920427777
 30
0.0
 11
6298.745694307588
 21
2576.291920427778
 31
0.0
  0
LINE
  5
194BA
330
747D
100
AcDbEntity
  8
部品1
100
AcDbLine
 10
4563.745694307589
 20
4366.291920427777
 30
0.0
 11
6773.745694307592
 21
4366.291920427777
 31
0.0
  0
LINE
  5
194BB
330
747D
100
AcDbEntity
  8
部品1
100
AcDbLine
 10
4563.745694307589
 20
2576.291920427778
 30
0.0
 11
6773.745694307592
 21
2576.291920427778
 31
0.0
  0
LINE
  5
194BC
330
747D
100
AcDbEntity
  8
部品1
100
AcDbLine
 10
4618.745694307588
 20
4366.291920427777
 30
0.0
 11
4618.745694307588
 21
2576.291920427778
 31
0.0
  0
LINE
  5
194BD
330
747D
100
AcDbEntity
  8
部品1
100
AcDbLine
 10
4563.745694307592
 20
4460.291920427781
 30
0.0
 11
4563.745694307589
 21
2426.291920427778
 31
0.0
  0
LINE
  5
194BE
330
747D
100
AcDbEntity
  8
部品1
100
AcDbLine
 10
5038.745694307589
 20
4366.291920427777
 30
0.0
 11
5038.745694307589
 21
2576.291920427778
 31
0.0
  0
LINE
  5
194BF
330
747D
100
AcDbEntity
  8
部品1
100
AcDbLine
 10
6773.745694307589
 20
4460.291920427785
 30
0.0
 11
6773.745694307592
 21
2426.291920427778
 31
0.0
  0
LINE
  5
194C0
330
747D
100
AcDbEntity
  8
部品1
100
AcDbLine
 10
6718.745694307592
 20
4366.291920427777
 30
0.0
 11
6718.745694307592
 21
2576.291920427778
 31
0.0
  0
LINE
  5
194C1
330
747D
100
AcDbEntity
  8
部品1
100
AcDbLine
 10
4563.745694307589
 20
2526.291920427778
 30
0.0
 11
4571.245694307588
 21
2526.291920427778
 31
0.0
  0
LINE
  5
194C2
330
747D
100
AcDbEntity
  8
細線
 48
50.0
100
AcDbLine
 10
5116.245694307589
 20
4366.291920427777
 30
0.0
 11
5116.245694307589
 21
2576.291920427778
 31
0.0
  0
LINE
  5
194C3
330
747D
100
AcDbEntity
  8
細線
 48
50.0
100
AcDbLine
 10
5101.245694307589
 20
4366.291920427777
 30
0.0
 11
5101.245694307589
 21
2576.291920427778
 31
0.0
  0
LINE
  5
194C4
330
747D
100
AcDbEntity
  8
細線
 48
50.0
100
AcDbLine
 10
5241.245694307589
 20
4366.291920427777
 30
0.0
 11
5241.245694307589
 21
2576.291920427778
 31
0.0
  0
LINE
  5
194C5
330
747D
100
AcDbEntity
  8
細線
 48
50.0
100
AcDbLine
 10
5256.245694307589
 20
4366.291920427777
 30
0.0
 11
5256.245694307589
 21
2576.291920427778
 31
0.0
  0
LINE
  5
194C6
330
747D
100
AcDbEntity
  8
細線
 48
50.0
100
AcDbLine
 10
5396.245694307588
 20
4366.291920427777
 30
0.0
 11
5396.245694307588
 21
2576.291920427778
 31
0.0
  0
LINE
  5
194C7
330
747D
100
AcDbEntity
  8
細線
 48
50.0
100
AcDbLine
 10
5381.245694307589
 20
4366.291920427777
 30
0.0
 11
5381.245694307589
 21
2576.291920427778
 31
0.0
  0
LINE
  5
194C8
330
747D
100
AcDbEntity
  8
細線
 48
50.0
100
AcDbLine
 10
4961.245694307589
 20
4366.291920427777
 30
0.0
 11
4961.245694307589
 21
2576.291920427778
 31
0.0
  0
LINE
  5
194C9
330
747D
100
AcDbEntity
  8
細線
 48
50.0
100
AcDbLine
 10
4976.245694307589
 20
4366.291920427777
 30
0.0
 11
4976.245694307589
 21
2576.291920427778
 31
0.0
  0
LINE
  5
194CA
330
747D
100
AcDbEntity
  8
細線
 48
50.0
100
AcDbLine
 10
4836.245694307589
 20
4366.291920427777
 30
0.0
 11
4836.245694307589
 21
2576.291920427778
 31
0.0
  0
LINE
  5
194CB
330
747D
100
AcDbEntity
  8
細線
 48
50.0
100
AcDbLine
 10
4821.245694307588
 20
4366.291920427777
 30
0.0
 11
4821.245694307588
 21
2576.291920427778
 31
0.0
  0
LINE
  5
194CC
330
747D
100
AcDbEntity
  8
細線
 48
50.0
100
AcDbLine
 10
4681.245694307588
 20
4366.291920427777
 30
0.0
 11
4681.245694307588
 21
2576.291920427778
 31
0.0
  0
LINE
  5
194CD
330
747D
100
AcDbEntity
  8
細線
 48
50.0
100
AcDbLine
 10
4696.245694307588
 20
4366.291920427777
 30
0.0
 11
4696.245694307588
 21
2576.291920427778
 31
0.0
  0
LINE
  5
194CE
330
747D
100
AcDbEntity
  8
部品1
100
AcDbLine
 10
5458.745694307588
 20
4366.291920427777
 30
0.0
 11
5458.745694307588
 21
2576.291920427778
 31
0.0
  0
LINE
  5
194CF
330
747D
100
AcDbEntity
  8
細線
 48
50.0
100
AcDbLine
 10
5801.245694307592
 20
4366.291920427777
 30
0.0
 11
5801.245694307592
 21
2576.291920427778
 31
0.0
  0
LINE
  5
194D0
330
747D
100
AcDbEntity
  8
細線
 48
50.0
100
AcDbLine
 10
5816.245694307593
 20
4366.291920427777
 30
0.0
 11
5816.245694307593
 21
2576.291920427778
 31
0.0
  0
LINE
  5
194D1
330
747D
100
AcDbEntity
  8
細線
 48
50.0
100
AcDbLine
 10
5676.245694307592
 20
4366.291920427777
 30
0.0
 11
5676.245694307592
 21
2576.291920427778
 31
0.0
  0
LINE
  5
194D2
330
747D
100
AcDbEntity
  8
細線
 48
50.0
100
AcDbLine
 10
5661.245694307592
 20
4366.291920427777
 30
0.0
 11
5661.245694307592
 21
2576.291920427778
 31
0.0
  0
LINE
  5
194D3
330
747D
100
AcDbEntity
  8
細線
 48
50.0
100
AcDbLine
 10
5521.245694307592
 20
4366.291920427777
 30
0.0
 11
5521.245694307592
 21
2576.291920427778
 31
0.0
  0
LINE
  5
194D4
330
747D
100
AcDbEntity
  8
細線
 48
50.0
100
AcDbLine
 10
5536.245694307592
 20
4366.291920427777
 30
0.0
 11
5536.245694307592
 21
2576.291920427778
 31
0.0
  0
LINE
  5
194D5
330
747D
100
AcDbEntity
  8
部品1
100
AcDbLine
 10
5878.745694307589
 20
4366.291920427777
 30
0.0
 11
5878.745694307589
 21
2576.291920427778
 31
0.0
  0
LINE
  5
194D6
330
747D
100
AcDbEntity
  8
細線
 48
50.0
100
AcDbLine
 10
6376.245694307596
 20
4366.291920427777
 30
0.0
 11
6376.245694307596
 21
2576.291920427778
 31
0.0
  0
LINE
  5
194D7
330
747D
100
AcDbEntity
  8
細線
 48
50.0
100
AcDbLine
 10
6361.245694307596
 20
4366.291920427777
 30
0.0
 11
6361.245694307596
 21
2576.291920427778
 31
0.0
  0
LINE
  5
194D8
330
747D
100
AcDbEntity
  8
細線
 48
50.0
100
AcDbLine
 10
6501.245694307596
 20
4366.291920427777
 30
0.0
 11
6501.245694307596
 21
2576.291920427778
 31
0.0
  0
LINE
  5
194D9
330
747D
100
AcDbEntity
  8
細線
 48
50.0
100
AcDbLine
 10
6516.245694307596
 20
4366.291920427777
 30
0.0
 11
6516.245694307596
 21
2576.291920427778
 31
0.0
  0
LINE
  5
194DA
330
747D
100
AcDbEntity
  8
細線
 48
50.0
100
AcDbLine
 10
6656.245694307596
 20
4366.291920427777
 30
0.0
 11
6656.245694307596
 21
2576.291920427778
 31
0.0
  0
LINE
  5
194DB
330
747D
100
AcDbEntity
  8
細線
 48
50.0
100
AcDbLine
 10
6641.245694307596
 20
4366.291920427777
 30
0.0
 11
6641.245694307596
 21
2576.291920427778
 31
0.0
  0
TEXT
  5
194DC
330
747D
100
AcDbEntity
  8
部品1
100
AcDbText
 10
5376.456462616978
 20
1544.360128231842
 30
0.0
 40
135.0
  1
側面図
  7
STYLE2
100
AcDbText
  0
LINE
  5
194DD
330
747D
100
AcDbEntity
  8
部品1
100
AcDbLine
 10
5287.01036119337
 20
1737.253657450367
 30
0.0
 11
5287.01036119337
 21
1497.361335904835
 31
0.0
  0
LINE
  5
194DE
330
747D
100
AcDbEntity
  8
部品1
100
AcDbLine
 10
5287.01036119337
 20
1497.361335904835
 30
0.0
 11
6050.481027421807
 21
1497.361335904835
 31
0.0
  0
LINE
  5
194DF
330
747D
100
AcDbEntity
  8
部品1
100
AcDbLine
 10
6050.481027421807
 20
1497.361335904835
 30
0.0
 11
6050.481027421807
 21
1737.253657450367
 31
0.0
  0
LINE
  5
194E0
330
747D
100
AcDbEntity
  8
部品1
100
AcDbLine
 10
6050.481027421807
 20
1737.253657450367
 30
0.0
 11
5287.01036119337
 21
1737.253657450367
 31
0.0
  0
LINE
  5
194E1
330
747D
100
AcDbEntity
  8
部品1
100
AcDbLine
 10
4563.745694307589
 20
2526.291920427778
 30
0.0
 11
4571.245694307588
 21
2526.291920427778
 31
0.0
  0
LINE
  5
194E2
330
747D
100
AcDbEntity
  8
破線
  6
HIDDEN
 48
5.0
100
AcDbLine
 10
6781.245694307589
 20
2271.291920427778
 30
0.0
 11
6711.245694307589
 21
2271.291920427778
 31
0.0
  0
LINE
  5
194E3
330
747D
100
AcDbEntity
  8
破線
  6
HIDDEN
 48
5.0
100
AcDbLine
 10
6726.245694307589
 20
2421.291920427778
 30
0.0
 11
6711.245694307589
 21
2273.591920427777
 31
0.0
  0
LINE
  5
194E4
330
747D
100
AcDbEntity
  8
破線
  6
HIDDEN
 48
5.0
100
AcDbLine
 10
6711.245694307589
 20
2273.591920427777
 30
0.0
 11
6711.245694307589
 21
2271.291920427778
 31
0.0
  0
LINE
  5
194E5
330
747D
100
AcDbEntity
  8
破線
  6
HIDDEN
 48
5.0
100
AcDbLine
 10
6766.245694307588
 20
2421.291920427778
 30
0.0
 11
6781.245694307589
 21
2273.591920427777
 31
0.0
  0
LINE
  5
194E6
330
747D
100
AcDbEntity
  8
破線
  6
HIDDEN
 48
5.0
100
AcDbLine
 10
6781.245694307589
 20
2273.591920427777
 30
0.0
 11
6781.245694307589
 21
2271.291920427778
 31
0.0
  0
LINE
  5
194E7
330
747D
100
AcDbEntity
  8
破線
  6
HIDDEN
 48
5.0
100
AcDbLine
 10
4556.245694307588
 20
2271.291920427778
 30
0.0
 11
4626.245694307589
 21
2271.291920427778
 31
0.0
  0
LINE
  5
194E8
330
747D
100
AcDbEntity
  8
破線
  6
HIDDEN
 48
5.0
100
AcDbLine
 10
4556.245694307588
 20
2273.591920427777
 30
0.0
 11
4556.245694307588
 21
2271.291920427778
 31
0.0
  0
LINE
  5
194E9
330
747D
100
AcDbEntity
  8
破線
  6
HIDDEN
 48
5.0
100
AcDbLine
 10
4626.245694307589
 20
2273.591920427777
 30
0.0
 11
4626.245694307589
 21
2271.291920427778
 31
0.0
  0
LINE
  5
194EA
330
747D
100
AcDbEntity
  8
破線
  6
HIDDEN
 48
5.0
100
AcDbLine
 10
4571.245694307588
 20
2421.291920427778
 30
0.0
 11
4556.245694307588
 21
2273.591920427777
 31
0.0
  0
LINE
  5
194EB
330
747D
100
AcDbEntity
  8
破線
  6
HIDDEN
 48
5.0
100
AcDbLine
 10
4611.245694307588
 20
2421.291920427778
 30
0.0
 11
4626.245694307589
 21
2273.591920427777
 31
0.0
  0
LINE
  5
194EC
330
747D
100
AcDbEntity
  8
部品1
 48
50.0
100
AcDbLine
 10
4571.245694307588
 20
2566.291920427778
 30
0.0
 11
4571.245694307588
 21
2426.291920427778
 31
0.0
  0
LINE
  5
194ED
330
747D
100
AcDbEntity
  8
部品1
 48
50.0
100
AcDbLine
 10
4611.245694307588
 20
2566.291920427778
 30
0.0
 11
4611.245694307588
 21
2426.291920427778
 31
0.0
  0
LINE
  5
194EE
330
747D
100
AcDbEntity
  8
部品1
100
AcDbLine
 10
4576.245694307589
 20
2571.291920427778
 30
0.0
 11
4606.245694307588
 21
2571.291920427778
 31
0.0
  0
ARC
  5
194EF
330
747D
100
AcDbEntity
  8
部品1
 48
50.0
100
AcDbCircle
 10
4576.245694307589
 20
2566.291920427778
 30
0.0
 40
5.0
100
AcDbArc
 50
90.0
 51
180.0
  0
ARC
  5
194F0
330
747D
100
AcDbEntity
  8
部品1
 48
50.0
100
AcDbCircle
 10
4606.245694307588
 20
2566.291920427778
 30
0.0
 40
5.0
100
AcDbArc
 50
0.0
 51
90.0
  0
LINE
  5
194F1
330
747D
100
AcDbEntity
  8
部品1
 48
50.0
100
AcDbLine
 10
6726.245694307589
 20
2566.291920427778
 30
0.0
 11
6726.245694307589
 21
2426.291920427778
 31
0.0
  0
LINE
  5
194F2
330
747D
100
AcDbEntity
  8
部品1
 48
50.0
100
AcDbLine
 10
6766.245694307588
 20
2566.291920427778
 30
0.0
 11
6766.245694307588
 21
2426.291920427778
 31
0.0
  0
LINE
  5
194F3
330
747D
100
AcDbEntity
  8
部品1
100
AcDbLine
 10
6761.245694307588
 20
2571.291920427778
 30
0.0
 11
6731.245694307588
 21
2571.291920427778
 31
0.0
  0
ARC
  5
194F4
330
747D
100
AcDbEntity
  8
部品1
 48
50.0
100
AcDbCircle
 10
6731.245694307588
 20
2566.291920427778
 30
0.0
 40
5.0
100
AcDbArc
 50
90.0
 51
180.0
  0
ARC
  5
194F5
330
747D
100
AcDbEntity
  8
部品1
 48
50.0
100
AcDbCircle
 10
6761.245694307588
 20
2566.291920427778
 30
0.0
 40
5.0
100
AcDbArc
 50
0.0
 51
90.0
  0
LINE
  5
194F6
330
747D
100
AcDbEntity
  8
破線
  6
HIDDEN
 48
5.0
100
AcDbLine
 10
6726.245694307589
 20
2426.291920427778
 30
0.0
 11
6726.245694307589
 21
2421.291920427778
 31
0.0
  0
LINE
  5
194F7
330
747D
100
AcDbEntity
  8
破線
  6
HIDDEN
 48
5.0
100
AcDbLine
 10
6766.245694307588
 20
2426.291920427778
 30
0.0
 11
6766.245694307588
 21
2421.291920427778
 31
0.0
  0
LINE
  5
194F8
330
747D
100
AcDbEntity
  8
破線
  6
HIDDEN
 48
5.0
100
AcDbLine
 10
4571.245694307595
 20
2426.291920427778
 30
0.0
 11
4571.245694307595
 21
2421.291920427778
 31
0.0
  0
LINE
  5
194F9
330
747D
100
AcDbEntity
  8
破線
  6
HIDDEN
 48
5.0
100
AcDbLine
 10
4611.245694307588
 20
2426.291920427778
 30
0.0
 11
4611.245694307588
 21
2421.291920427778
 31
0.0
  0
LINE
  5
194FA
330
747D
100
AcDbEntity
  8
部品1
100
AcDbLine
 10
6766.245694307588
 20
2526.291920427778
 30
0.0
 11
6773.745694307592
 21
2526.291920427778
 31
0.0
  0
DIMENSION
  5
194FB
330
747D
100
AcDbEntity
  8
寸法
 48
50.0
100
AcDbDimension
  2
*D24
 10
4341.745691060955
 20
2426.291920427776
 30
0.0
 11
4341.745691060954
 21
2326.291920427776
 31
0.0
 70
   160
 71
     5
 42
200.0
  3
INABA_S40G
100
AcDbAlignedDimension
 13
4491.245694307592
 23
2226.291920427776
 33
0.0
 14
4466.245694307588
 24
2426.291920427776
 34
0.0
 50
90.0
100
AcDbRotatedDimension
1001
ACAD
1000
DSTYLE
1002
{
1070
   174
1070
     0
1070
   272
1070
     1
1070
   288
1070
     0
1070
   341
1005
0
1002
}
  0
LINE
  5
194FC
330
747D
100
AcDbEntity
  8
破線
 48
5.0
100
AcDbLine
 10
4691.245694307588
 20
2226.291920427774
 30
0.0
 11
4491.245694307592
 21
2226.291920427774
 31
0.0
  0
LINE
  5
194FD
330
747D
100
AcDbEntity
  8
破線
 48
5.0
100
AcDbLine
 10
4691.245694307588
 20
2426.291920427778
 30
0.0
 11
4691.245694307588
 21
2226.291920427774
 31
0.0
  0
LINE
  5
194FE
330
747D
100
AcDbEntity
  8
破線
 48
5.0
100
AcDbLine
 10
4491.245694307589
 20
2426.291920427778
 30
0.0
 11
4491.245694307592
 21
2226.291920427774
 31
0.0
  0
DIMENSION
  5
194FF
330
747D
100
AcDbEntity
  8
寸法
 48
50.0
100
AcDbDimension
  2
*D25
 10
4491.245694307592
 20
1940.244591127398
 30
0.0
 11
4591.24569430759
 21
1940.244591127398
 31
0.0
 70
   160
 71
     5
 42
199.9999999999963
  3
INABA_S40G
100
AcDbAlignedDimension
 13
4691.245694307588
 23
2226.291920427774
 33
0.0
 14
4491.245694307592
 24
2226.291920427776
 34
0.0
100
AcDbRotatedDimension
  0
LINE
  5
19500
330
747D
100
AcDbEntity
  8
破線
 48
5.0
100
AcDbLine
 10
6846.245694307596
 20
2426.291920427778
 30
0.0
 11
6846.245694307592
 21
2226.291920427774
 31
0.0
  0
LINE
  5
19501
330
747D
100
AcDbEntity
  8
破線
 48
5.0
100
AcDbLine
 10
6846.245694307592
 20
2226.291920427774
 30
0.0
 11
6646.245694307596
 21
2226.291920427778
 31
0.0
  0
LINE
  5
19502
330
747D
100
AcDbEntity
  8
破線
 48
5.0
100
AcDbLine
 10
6646.245694307596
 20
2426.291920427778
 30
0.0
 11
6646.245694307596
 21
2226.291920427778
 31
0.0
  0
LINE
  5
19503
330
747D
100
AcDbEntity
  8
部品1
 48
50.0
100
AcDbLine
 10
6773.745694307592
 20
4361.291920427778
 30
0.0
 11
6850.745694307592
 21
4351.291920427778
 31
0.0
  0
LINE
  5
19504
330
747D
100
AcDbEntity
  8
部品1
 48
50.0
100
AcDbLine
 10
6850.745694307592
 20
4351.291920427778
 30
0.0
 11
6850.745694307592
 21
2426.291920427778
 31
0.0
  0
LINE
  5
19505
330
747D
100
AcDbEntity
  8
部品1
 48
50.0
100
AcDbLine
 10
6850.745694307592
 20
2526.291920427778
 30
0.0
 11
6766.245694307592
 21
2526.291920427778
 31
0.0
  0
LINE
  5
19506
330
747D
100
AcDbEntity
  8
部品1
100
AcDbLine
 10
6573.745694307588
 20
2526.291920427778
 30
0.0
 11
6573.745694307588
 21
2426.291920427778
 31
0.0
  0
LINE
  5
19507
330
747D
100
AcDbEntity
  8
部品1
 48
50.0
100
AcDbLine
 10
5768.745694307589
 20
2526.291920427778
 30
0.0
 11
5768.745694307589
 21
2426.291920427778
 31
0.0
  0
LINE
  5
19508
330
747D
100
AcDbEntity
  8
部品1
 48
50.0
100
AcDbLine
 10
5568.745694307589
 20
2526.291920427778
 30
0.0
 11
5568.745694307589
 21
2426.291920427778
 31
0.0
  0
LINE
  5
19509
330
747D
100
AcDbEntity
  8
部品1
100
AcDbLine
 10
4763.745694307589
 20
2526.291920427778
 30
0.0
 11
4763.745694307589
 21
2426.291920427778
 31
0.0
  0
TEXT
  5
1950A
330
747D
100
AcDbEntity
  8
部品1
100
AcDbText
 10
3443.906390112108
 20
2462.398824033679
 30
0.0
 40
125.0
  1
▽G.L
  7
STYLE2
100
AcDbText
  0
DIMENSION
  5
1950B
330
747D
100
AcDbEntity
  8
寸法
 48
50.0
100
AcDbDimension
  2
*D26
 10
6823.745694307593
 20
5215.506054276498
 30
0.0
 11
5668.745694307588
 21
5215.506054276498
 31
0.0
 70
   160
 71
     5
 42
2310.000000000004
  3
INABA_S40G
100
AcDbAlignedDimension
 13
4513.745694307589
 23
4601.291920427781
 33
0.0
 14
6823.745694307593
 24
4601.291920427778
 34
0.0
100
AcDbRotatedDimension
  0
DIMENSION
  5
1950C
330
747D
100
AcDbEntity
  8
寸法
 48
50.0
100
AcDbDimension
  2
*D27
 10
4513.745694307589
 20
5005.912179855047
 30
0.0
 11
4200.260412933341
 21
5005.912179855047
 31
0.0
 70
   160
 71
     5
 42
50.0
  3
INABA_S40G
100
AcDbAlignedDimension
 13
4563.745694307589
 23
4601.291920427781
 33
0.0
 14
4513.745694307589
 24
4601.291920427781
 34
0.0
100
AcDbRotatedDimension
1001
ACAD
1000
DSTYLE
1002
{
1002
}
  0
DIMENSION
  5
1950D
330
747D
100
AcDbEntity
  8
寸法
 48
50.0
100
AcDbDimension
  2
*D28
 10
4563.745694307589
 20
5005.912179855047
 30
0.0
 11
5668.745694307588
 21
5005.912179855047
 31
0.0
 70
   160
  1
柱外寸法<>
 71
     5
 42
2210.000000000004
  3
INABA_S40G
100
AcDbAlignedDimension
 13
6773.745694307592
 23
4601.291920427781
 33
0.0
 14
4563.745694307589
 24
4601.291920427781
 34
0.0
100
AcDbRotatedDimension
  0
LINE
  5
1950E
330
747D
100
AcDbEntity
  8
部品1
 48
50.0
100
AcDbLine
 10
6816.33727320116
 20
4601.291920427778
 30
0.0
 11
4521.154115414018
 21
4601.291920427781
 31
0.0
  0
LINE
  5
1950F
330
747D
100
AcDbEntity
  8
部品1
 48
50.0
100
AcDbLine
 10
6803.121949740122
 20
4460.291920427785
 30
0.0
 11
4534.369438875052
 21
4460.291920427781
 31
0.0
  0
LINE
  5
19510
330
747D
100
AcDbEntity
  8
細線
 48
50.0
100
AcDbLine
 10
6821.70615608615
 20
4573.291920427781
 30
0.0
 11
4515.785232529025
 21
4573.291920427777
 31
0.0
  0
LINE
  5
19511
330
747D
100
AcDbEntity
  8
細線
 48
50.0
100
AcDbLine
 10
6813.470125561304
 20
4481.091920427777
 30
0.0
 11
4524.021263053856
 21
4481.091920427781
 31
0.0
  0
LINE
  5
19512
330
747D
100
AcDbEntity
  8
細線
 48
50.0
100
AcDbLine
 10
4546.745694307588
 20
4601.291920427781
 30
0.0
 11
4546.745694307588
 21
4460.291920427781
 31
0.0
  0
ARC
  5
19513
330
747D
100
AcDbEntity
  8
部品1
100
AcDbCircle
 10
4521.154115414018
 20
4594.291920427781
 30
0.0
 40
7.0
100
AcDbArc
 50
90.0
 51
183.2473427903377
  0
ARC
  5
19514
330
747D
100
AcDbEntity
  8
部品1
100
AcDbCircle
 10
4534.369438875052
 20
4467.291920427782
 30
0.0
 40
7.0
100
AcDbArc
 50
183.2473427903377
 51
270.0
  0
ARC
  5
19515
330
747D
100
AcDbEntity
  8
部品1
 48
50.0
100
AcDbCircle
 10
4515.997628664376
 20
4573.958919589465
 30
0.0
 40
0.7
100
AcDbArc
 50
183.2473427904417
 51
262.3418727926349
  0
ARC
  5
19516
330
747D
100
AcDbEntity
  8
部品1
 48
50.0
100
AcDbCircle
 10
4524.233659189216
 20
4481.758919589464
 30
0.0
 40
0.7
100
AcDbArc
 50
183.2473427903377
 51
262.3418727926349
  0
ARC
  5
19517
330
747D
100
AcDbEntity
  8
部品1
 48
50.0
100
AcDbCircle
 10
4523.740590080655
 20
4478.091920427777
 30
0.0
 40
3.0
100
AcDbArc
 50
3.247342790337682
 51
82.3418727926348
  0
ARC
  5
19518
330
747D
100
AcDbEntity
  8
部品1
 48
50.0
100
AcDbCircle
 10
4515.504559555814
 20
4570.291920427781
 30
0.0
 40
3.0
100
AcDbArc
 50
3.247342790337682
 51
82.3418727926348
  0
LINE
  5
19519
330
747D
100
AcDbEntity
  8
部品1
100
AcDbLine
 10
4518.499742451997
 20
4570.461859882885
 30
0.0
 11
4523.534783180108
 21
4481.719267049938
 31
0.0
  0
LINE
  5
1951A
330
747D
100
AcDbEntity
  8
部品1
100
AcDbLine
 10
4526.735772976844
 20
4478.26185988288
 30
0.0
 11
4527.380678783953
 21
4466.89539503254
 31
0.0
  0
LINE
  5
1951B
330
747D
100
AcDbEntity
  8
部品1
100
AcDbLine
 10
4514.165355322922
 20
4593.89539503254
 30
0.0
 11
4515.298752655268
 21
4573.919267049943
 31
0.0
  0
ARC
  5
1951C
330
747D
100
AcDbEntity
  8
部品1
 48
0.01
100
AcDbCircle
 10
6195.745694307589
 20
4430.291920427777
 30
0.0
 40
2.0
100
AcDbArc
 50
90.0
 51
180.0
  0
ARC
  5
1951D
330
747D
100
AcDbEntity
  8
部品1
 48
0.01
100
AcDbCircle
 10
6371.745694307588
 20
4430.291920427777
 30
0.0
 40
2.0
100
AcDbArc
 50
0.0
 51
90.0
  0
LINE
  5
1951E
330
747D
100
AcDbEntity
  8
細線
100
AcDbLine
 10
6283.745694307588
 20
4402.791920427778
 30
0.0
 11
6209.745694307589
 21
4402.791920427778
 31
0.0
  0
LINE
  5
1951F
330
747D
100
AcDbEntity
  8
細線
100
AcDbLine
 10
6283.745694307588
 20
4425.791920427777
 30
0.0
 11
6357.745694307588
 21
4425.791920427777
 31
0.0
  0
LINE
  5
19520
330
747D
100
AcDbEntity
  8
細線
100
AcDbLine
 10
6357.745694307588
 20
4402.791920427778
 30
0.0
 11
6283.745694307588
 21
4402.791920427778
 31
0.0
  0
LINE
  5
19521
330
747D
100
AcDbEntity
  8
細線
100
AcDbLine
 10
6209.745694307589
 20
4425.791920427777
 30
0.0
 11
6283.745694307588
 21
4425.791920427777
 31
0.0
  0
LINE
  5
19522
330
747D
100
AcDbEntity
  8
細線
100
AcDbLine
 10
6209.745694307589
 20
4402.791920427778
 30
0.0
 11
6209.745694307589
 21
4425.791920427777
 31
0.0
  0
LINE
  5
19523
330
747D
100
AcDbEntity
  8
細線
100
AcDbLine
 10
6357.745694307588
 20
4425.791920427777
 30
0.0
 11
6357.745694307588
 21
4402.791920427778
 31
0.0
  0
LINE
  5
19524
330
747D
100
AcDbEntity
  8
部品1
 48
0.01
100
AcDbLine
 10
6195.745694307589
 20
4432.291920427778
 30
0.0
 11
6371.745694307588
 21
4432.291920427778
 31
0.0
  0
LINE
  5
19525
330
747D
100
AcDbEntity
  8
細線
100
AcDbLine
 10
6357.745694307588
 20
4419.791920427778
 30
0.0
 11
6283.745694307588
 21
4419.791920427778
 31
0.0
  0
LINE
  5
19526
330
747D
100
AcDbEntity
  8
細線
100
AcDbLine
 10
6357.745694307588
 20
4413.791920427778
 30
0.0
 11
6283.745694307588
 21
4413.791920427778
 31
0.0
  0
LINE
  5
19527
330
747D
100
AcDbEntity
  8
細線
100
AcDbLine
 10
6357.745694307588
 20
4407.791920427778
 30
0.0
 11
6283.745694307588
 21
4407.791920427778
 31
0.0
  0
LINE
  5
19528
330
747D
100
AcDbEntity
  8
細線
100
AcDbLine
 10
6357.745694307588
 20
4419.791920427778
 30
0.0
 11
6288.745694307589
 21
4419.791920427778
 31
0.0
  0
LINE
  5
19529
330
747D
100
AcDbEntity
  8
細線
100
AcDbLine
 10
6209.745694307589
 20
4419.791920427774
 30
0.0
 11
6283.745694307588
 21
4419.791920427778
 31
0.0
  0
LINE
  5
1952A
330
747D
100
AcDbEntity
  8
細線
100
AcDbLine
 10
6209.745694307589
 20
4407.791920427774
 30
0.0
 11
6283.745694307588
 21
4407.791920427778
 31
0.0
  0
LINE
  5
1952B
330
747D
100
AcDbEntity
  8
細線
100
AcDbLine
 10
6209.745694307589
 20
4413.791920427778
 30
0.0
 11
6283.745694307588
 21
4413.791920427778
 31
0.0
  0
LINE
  5
1952C
330
747D
100
AcDbEntity
  8
細線
100
AcDbLine
 10
6283.745694307588
 20
4425.791920427777
 30
0.0
 11
6283.745694307588
 21
4402.791920427778
 31
0.0
  0
ARC
  5
1952D
330
747D
100
AcDbEntity
  8
部品1
 48
0.01
100
AcDbCircle
 10
6195.745694307589
 20
4398.791920427778
 30
0.0
 40
2.0
100
AcDbArc
 50
180.0
 51
270.0
  0
ARC
  5
1952E
330
747D
100
AcDbEntity
  8
部品1
 48
0.01
100
AcDbCircle
 10
6371.745694307588
 20
4398.791920427778
 30
0.0
 40
2.0
100
AcDbArc
 50
270.0
 51
0.0
  0
LINE
  5
1952F
330
747D
100
AcDbEntity
  8
部品1
 48
0.01
100
AcDbLine
 10
6193.745694307589
 20
4398.791920427778
 30
0.0
 11
6193.745694307589
 21
4430.291920427777
 31
0.0
  0
LINE
  5
19530
330
747D
100
AcDbEntity
  8
部品1
 48
0.01
100
AcDbLine
 10
6371.745694307588
 20
4396.791920427777
 30
0.0
 11
6195.745694307589
 21
4396.791920427777
 31
0.0
  0
LINE
  5
19531
330
747D
100
AcDbEntity
  8
部品1
 48
0.01
100
AcDbLine
 10
6373.745694307588
 20
4430.291920427777
 30
0.0
 11
6373.745694307588
 21
4398.791920427778
 31
0.0
  0
LINE
  5
19532
330
747D
100
AcDbEntity
  8
細線
100
AcDbLine
 10
5053.745694307589
 20
4425.791920427777
 30
0.0
 11
5053.745694307585
 21
4402.791920427778
 31
0.0
  0
LINE
  5
19533
330
747D
100
AcDbEntity
  8
細線
100
AcDbLine
 10
5127.745694307584
 20
4413.791920427778
 30
0.0
 11
5053.745694307589
 21
4413.791920427778
 31
0.0
  0
LINE
  5
19534
330
747D
100
AcDbEntity
  8
細線
100
AcDbLine
 10
5127.745694307584
 20
4407.791920427774
 30
0.0
 11
5053.745694307589
 21
4407.791920427778
 31
0.0
  0
LINE
  5
19535
330
747D
100
AcDbEntity
  8
細線
100
AcDbLine
 10
5127.745694307584
 20
4419.791920427774
 30
0.0
 11
5053.745694307589
 21
4419.791920427778
 31
0.0
  0
LINE
  5
19536
330
747D
100
AcDbEntity
  8
細線
100
AcDbLine
 10
4979.745694307588
 20
4419.791920427778
 30
0.0
 11
5048.745694307588
 21
4419.791920427778
 31
0.0
  0
LINE
  5
19537
330
747D
100
AcDbEntity
  8
細線
100
AcDbLine
 10
4979.745694307585
 20
4407.791920427778
 30
0.0
 11
5053.745694307589
 21
4407.791920427778
 31
0.0
  0
LINE
  5
19538
330
747D
100
AcDbEntity
  8
細線
100
AcDbLine
 10
4979.745694307588
 20
4413.791920427778
 30
0.0
 11
5053.745694307589
 21
4413.791920427778
 31
0.0
  0
LINE
  5
19539
330
747D
100
AcDbEntity
  8
細線
100
AcDbLine
 10
4979.745694307588
 20
4419.791920427778
 30
0.0
 11
5053.745694307589
 21
4419.791920427778
 31
0.0
  0
LINE
  5
1953A
330
747D
100
AcDbEntity
  8
部品1
 48
0.01
100
AcDbLine
 10
5141.745694307588
 20
4432.291920427778
 30
0.0
 11
4965.745694307589
 21
4432.291920427778
 31
0.0
  0
LINE
  5
1953B
330
747D
100
AcDbEntity
  8
部品1
 48
0.01
100
AcDbLine
 10
4963.745694307589
 20
4430.291920427777
 30
0.0
 11
4963.745694307589
 21
4398.791920427778
 31
0.0
  0
LINE
  5
1953C
330
747D
100
AcDbEntity
  8
部品1
 48
0.01
100
AcDbLine
 10
4965.745694307589
 20
4396.791920427777
 30
0.0
 11
5141.745694307584
 21
4396.791920427777
 31
0.0
  0
LINE
  5
1953D
330
747D
100
AcDbEntity
  8
部品1
 48
0.01
100
AcDbLine
 10
5143.745694307585
 20
4398.791920427778
 30
0.0
 11
5143.745694307589
 21
4430.291920427777
 31
0.0
  0
LINE
  5
1953E
330
747D
100
AcDbEntity
  8
細線
100
AcDbLine
 10
4979.745694307588
 20
4425.791920427777
 30
0.0
 11
4979.745694307588
 21
4402.791920427778
 31
0.0
  0
LINE
  5
1953F
330
747D
100
AcDbEntity
  8
細線
100
AcDbLine
 10
5127.745694307589
 20
4402.791920427778
 30
0.0
 11
5127.745694307589
 21
4425.791920427777
 31
0.0
  0
LINE
  5
19540
330
747D
100
AcDbEntity
  8
細線
100
AcDbLine
 10
5127.745694307589
 20
4425.791920427777
 30
0.0
 11
5053.745694307589
 21
4425.791920427777
 31
0.0
  0
LINE
  5
19541
330
747D
100
AcDbEntity
  8
細線
100
AcDbLine
 10
4979.745694307588
 20
4402.791920427778
 30
0.0
 11
5053.745694307589
 21
4402.791920427778
 31
0.0
  0
LINE
  5
19542
330
747D
100
AcDbEntity
  8
細線
100
AcDbLine
 10
5053.745694307589
 20
4425.791920427777
 30
0.0
 11
4979.745694307588
 21
4425.791920427777
 31
0.0
  0
LINE
  5
19543
330
747D
100
AcDbEntity
  8
細線
100
AcDbLine
 10
5053.745694307585
 20
4402.791920427778
 30
0.0
 11
5127.745694307589
 21
4402.791920427778
 31
0.0
  0
ARC
  5
19544
330
747D
100
AcDbEntity
  8
部品1
 48
0.01
100
AcDbCircle
 10
4965.745694307589
 20
4430.291920427777
 30
0.0
 40
2.0
100
AcDbArc
 50
90.0
 51
180.0
  0
ARC
  5
19545
330
747D
100
AcDbEntity
  8
部品1
 48
0.01
100
AcDbCircle
 10
4965.745694307589
 20
4398.791920427778
 30
0.0
 40
2.0
100
AcDbArc
 50
180.0
 51
270.0
  0
ARC
  5
19546
330
747D
100
AcDbEntity
  8
部品1
 48
0.01
100
AcDbCircle
 10
5141.745694307588
 20
4430.291920427777
 30
0.0
 40
2.0
100
AcDbArc
 50
0.0
 51
90.0
  0
ARC
  5
19547
330
747D
100
AcDbEntity
  8
部品1
 48
0.01
100
AcDbCircle
 10
5141.745694307584
 20
4398.791920427778
 30
0.0
 40
2.0
100
AcDbArc
 50
270.0
 51
0.0
  0
DIMENSION
  5
19548
330
747D
100
AcDbEntity
  8
寸法
 48
50.0
100
AcDbDimension
  2
*D29
 10
6773.745694307592
 20
5005.912179855047
 30
0.0
 11
7137.230975681825
 21
5005.912179855047
 31
0.0
 70
   160
 71
     5
 42
50.0
  3
INABA_S40G
100
AcDbAlignedDimension
 13
6823.745694307593
 23
4601.291920427778
 33
0.0
 14
6773.745694307592
 24
4601.291920427781
 34
0.0
100
AcDbRotatedDimension
  0
LINE
  5
19549
330
747D
100
AcDbEntity
  8
部品1
100
AcDbLine
 10
6823.326033292254
 20
4593.89539503254
 30
0.0
 11
6822.192635959912
 21
4573.919267049943
 31
0.0
  0
LINE
  5
1954A
330
747D
100
AcDbEntity
  8
細線
 48
50.0
100
AcDbLine
 10
6790.745694307593
 20
4601.291920427781
 30
0.0
 11
6790.745694307593
 21
4460.291920427781
 31
0.0
  0
LINE
  5
1954B
330
747D
100
AcDbEntity
  8
部品1
100
AcDbLine
 10
6810.755615638332
 20
4478.26185988288
 30
0.0
 11
6810.110709831224
 21
4466.89539503254
 31
0.0
  0
LINE
  5
1954C
330
747D
100
AcDbEntity
  8
部品1
100
AcDbLine
 10
6818.991646163176
 20
4570.461859882885
 30
0.0
 11
6813.95660543507
 21
4481.719267049938
 31
0.0
  0
ARC
  5
1954D
330
747D
100
AcDbEntity
  8
部品1
 48
50.0
100
AcDbCircle
 10
6821.986829059362
 20
4570.291920427781
 30
0.0
 40
3.0
100
AcDbArc
 50
97.65812720736519
 51
176.7526572096623
  0
ARC
  5
1954E
330
747D
100
AcDbEntity
  8
部品1
 48
50.0
100
AcDbCircle
 10
6813.750798534518
 20
4478.091920427777
 30
0.0
 40
3.0
100
AcDbArc
 50
97.65812720736519
 51
176.7526572096623
  0
ARC
  5
1954F
330
747D
100
AcDbEntity
  8
部品1
 48
50.0
100
AcDbCircle
 10
6813.257729425957
 20
4481.758919589464
 30
0.0
 40
0.7
100
AcDbArc
 50
277.6581272073652
 51
356.7526572096623
  0
ARC
  5
19550
330
747D
100
AcDbEntity
  8
部品1
 48
50.0
100
AcDbCircle
 10
6821.493759950802
 20
4573.958919589465
 30
0.0
 40
0.7
100
AcDbArc
 50
277.6581272073652
 51
356.7526572095583
  0
ARC
  5
19551
330
747D
100
AcDbEntity
  8
部品1
100
AcDbCircle
 10
6803.121949740122
 20
4467.291920427782
 30
0.0
 40
7.0
100
AcDbArc
 50
270.0
 51
356.7526572096623
  0
ARC
  5
19552
330
747D
100
AcDbEntity
  8
部品1
100
AcDbCircle
 10
6816.33727320116
 20
4594.291920427781
 30
0.0
 40
7.0
100
AcDbArc
 50
356.7526572096623
 51
90.0
  0
LINE
  5
197FC
330
747D
100
AcDbEntity
  8
補助
  6
PHANTOM
 62
   230
 48
50.0
100
AcDbLine
 10
140.0
 20
0.0
 30
0.0
 11
140.0
 21
11409.6
 31
0.0
  0
LINE
  5
199C5
330
747D
100
AcDbEntity
  8
部品1
100
AcDbLine
 10
11057.84272364486
 20
8554.412850865938
 30
0.0
 11
11085.84272364486
 21
8554.412850865938
 31
0.0
  0
LINE
  5
199C6
330
747D
100
AcDbEntity
  8
部品1
100
AcDbLine
 10
8903.842723644833
 20
8554.41285086581
 30
0.0
 11
8875.842723644835
 21
8554.41285086581
 31
0.0
  0
LINE
  5
199C7
330
747D
100
AcDbEntity
  8
部品1
 48
50.0
100
AcDbLine
 10
11029.34272364484
 20
8554.412850865938
 30
0.0
 11
8932.34272364484
 21
8554.412850866025
 31
0.0
  0
TEXT
  5
19B5C
330
747D
100
AcDbEntity
  8
文字
 62
     7
 48
50.0
100
AcDbText
 10
13583.11819016569
 20
8550.013745883731
 30
0.0
 40
100.0
  1
棚板
  7
STYLE1
100
AcDbText
  0
TEXT
  5
19B5D
330
747D
100
AcDbEntity
  8
文字
 62
     7
 48
50.0
100
AcDbText
 10
15022.63965474516
 20
8550.013745883727
 30
0.0
 40
100.0
  1
F12            0.6
  7
STYLE1
100
AcDbText
  0
TEXT
  5
19B5E
330
747D
100
AcDbEntity
  8
文字
 62
     7
 48
50.0
100
AcDbText
 10
13583.11819016569
 20
9740.013745883729
 30
0.0
 40
100.0
  1
母屋中
  7
STYLE1
100
AcDbText
  0
TEXT
  5
19B5F
330
747D
100
AcDbEntity
  8
文字
 62
     7
 48
50.0
100
AcDbText
 10
13248.77747366447
 20
8720.013745883729
 30
0.0
 40
100.0
  1
15
  7
STYLE1
100
AcDbText
  0
LINE
  5
19B60
330
747D
100
AcDbEntity
  8
仕様書枠
 48
50.0
100
AcDbLine
 10
16307.19999999999
 20
8009.600000000004
 30
0.0
 11
13127.19999999999
 21
8009.600000000006
 31
0.0
  0
TEXT
  5
19B61
330
747D
100
AcDbEntity
  8
文字
 62
     7
 48
50.0
100
AcDbText
 10
13583.11819016569
 20
8720.013745883731
 30
0.0
 40
100.0
  1
扉
  7
STYLE1
100
AcDbText
  0
TEXT
  5
19B62
330
747D
100
AcDbEntity
  8
文字
 62
     7
 48
50.0
100
AcDbText
 10
15022.63965474516
 20
8720.013745883727
 30
0.0
 40
100.0
  1
F12            0.8
  7
STYLE1
100
AcDbText
  0
TEXT
  5
19B63
330
747D
100
AcDbEntity
  8
文字
 62
     7
 48
50.0
100
AcDbText
 10
13583.11819016568
 20
8890.013745883731
 30
0.0
 40
100.0
  1
正面パネル
  7
STYLE1
100
AcDbText
  0
TEXT
  5
19B64
330
747D
100
AcDbEntity
  8
文字
 62
     7
 48
50.0
100
AcDbText
 10
15022.63965474515
 20
8890.013745883727
 30
0.0
 40
100.0
  1
F12            0.7
  7
STYLE1
100
AcDbText
  0
TEXT
  5
19B65
330
747D
100
AcDbEntity
  8
文字
 62
     7
 48
50.0
100
AcDbText
 10
15022.63965474517
 20
10590.01374588372
 30
0.0
 40
100.0
  1
F12            1.0
  7
STYLE1
100
AcDbText
  0
TEXT
  5
19B66
330
747D
100
AcDbEntity
  8
文字
 62
     7
 48
50.0
100
AcDbText
 10
15022.63965474516
 20
10930.01374588372
 30
0.0
 40
100.0
  1
F12            1.2
  7
STYLE1
100
AcDbText
  0
TEXT
  5
19B67
330
747D
100
AcDbEntity
  8
文字
 62
     7
 48
50.0
100
AcDbText
 10
13248.77747366448
 20
8890.013745883727
 30
0.0
 40
100.0
  1
14
  7
STYLE1
100
AcDbText
  0
TEXT
  5
19B68
330
747D
100
AcDbEntity
  8
文字
 62
     7
 48
50.0
100
AcDbText
 10
13583.11819016569
 20
10930.01374588372
 30
0.0
 40
100.0
  1
根太
  7
STYLE1
100
AcDbText
  0
TEXT
  5
19B69
330
747D
100
AcDbEntity
  8
文字
 62
     7
 48
50.0
100
AcDbText
 10
13583.1181901657
 20
10590.01374588372
 30
0.0
 40
100.0
  1
床パネル
 41
0.9
  7
STYLE1
100
AcDbText
  0
LINE
  5
19B6A
330
747D
100
AcDbEntity
  8
仕様書枠
 48
50.0
100
AcDbLine
 10
16307.19999999999
 20
9029.6
 30
0.0
 11
13127.2
 21
9029.600000000002
 31
0.0
  0
LINE
  5
19B6B
330
747D
100
AcDbEntity
  8
仕様書枠
 48
50.0
100
AcDbLine
 10
13127.2
 20
11409.6
 30
0.0
 11
13127.19999999999
 21
8009.600000000006
 31
0.0
  0
TEXT
  5
19B6C
330
747D
100
AcDbEntity
  8
文字
 62
     7
 48
50.0
100
AcDbText
 10
13229.83081656554
 20
8040.013745883731
 30
0.0
 40
100.0
  1
Y10→溶融亜鉛-5％アルミニウム合金めっき鋼板(JIS G 3317)
 41
0.9
  7
STYLE1
100
AcDbText
  0
TEXT
  5
19B6D
330
747D
100
AcDbEntity
  8
文字
 62
     7
 48
50.0
100
AcDbText
 10
13229.83081656554
 20
8210.013745883733
 30
0.0
 40
100.0
  1
F12→溶融亜鉛めっき鋼板(JIS G 3302)
  7
STYLE1
100
AcDbText
  0
LINE
  5
19B6E
330
747D
100
AcDbEntity
  8
仕様書枠
 48
50.0
100
AcDbLine
 10
16307.19999999999
 20
8179.600000000004
 30
0.0
 11
13127.19999999999
 21
8179.600000000005
 31
0.0
  0
LINE
  5
19B6F
330
747D
100
AcDbEntity
  8
仕様書枠
 48
50.0
100
AcDbLine
 10
16307.19999999999
 20
8349.600000000004
 30
0.0
 11
13127.19999999999
 21
8349.600000000007
 31
0.0
  0
TEXT
  5
19B70
330
747D
100
AcDbEntity
  8
文字
 62
     7
 48
50.0
100
AcDbText
 10
15022.63965474515
 20
9570.013745883725
 30
0.0
 40
100.0
  1
F12            0.6
  7
STYLE1
100
AcDbText
  0
TEXT
  5
19B71
330
747D
100
AcDbEntity
  8
文字
 62
     7
 48
50.0
100
AcDbText
 10
15022.63965474517
 20
9910.013745883725
 30
0.0
 40
100.0
  1
Y10            0.5
  7
STYLE1
100
AcDbText
  0
TEXT
  5
19B72
330
747D
100
AcDbEntity
  8
文字
 62
     7
 48
50.0
100
AcDbText
 10
15022.63965474516
 20
10080.01374588372
 30
0.0
 40
100.0
  1
Y10            0.7
  7
STYLE1
100
AcDbText
  0
TEXT
  5
19B73
330
747D
100
AcDbEntity
  8
文字
 62
     7
 48
50.0
100
AcDbText
 10
15022.63965474516
 20
10250.01374588372
 30
0.0
 40
100.0
  1
Y10            0.7
  7
STYLE1
100
AcDbText
  0
TEXT
  5
19B74
330
747D
100
AcDbEntity
  8
文字
 62
     7
 48
50.0
100
AcDbText
 10
15022.63965474516
 20
10420.01374588372
 30
0.0
 40
100.0
  1
Y10            1.0
  7
STYLE1
100
AcDbText
  0
TEXT
  5
19B75
330
747D
100
AcDbEntity
  8
文字
 62
     7
 48
50.0
100
AcDbText
 10
15022.63965474518
 20
10760.01374588372
 30
0.0
 40
100.0
  1
F12            1.0
  7
STYLE1
100
AcDbText
  0
TEXT
  5
19B76
330
747D
100
AcDbEntity
  8
文字
 62
     7
 48
50.0
100
AcDbText
 10
15022.63965474517
 20
11100.01374588372
 30
0.0
 40
100.0
  1
F12            1.2
  7
STYLE1
100
AcDbText
  0
TEXT
  5
19B77
330
747D
100
AcDbEntity
  8
文字
 62
     7
 48
50.0
100
AcDbText
 10
13248.77747366448
 20
9230.013745883727
 30
0.0
 40
100.0
  1
12
  7
STYLE1
100
AcDbText
  0
TEXT
  5
19B78
330
747D
100
AcDbEntity
  8
文字
 62
     7
 48
50.0
100
AcDbText
 10
13248.77747366448
 20
9060.013745883727
 30
0.0
 40
100.0
  1
13
  7
STYLE1
100
AcDbText
  0
LINE
  5
19B79
330
747D
100
AcDbEntity
  8
仕様書枠
 48
50.0
100
AcDbLine
 10
16307.19999999999
 20
8859.6
 30
0.0
 11
13127.2
 21
8859.600000000002
 31
0.0
  0
LINE
  5
19B7A
330
747D
100
AcDbEntity
  8
仕様書枠
 48
50.0
100
AcDbLine
 10
16307.19999999999
 20
9199.599999999998
 30
0.0
 11
13127.2
 21
9199.600000000001
 31
0.0
  0
TEXT
  5
19B7B
330
747D
100
AcDbEntity
  8
文字
 62
     7
 48
50.0
100
AcDbText
 10
13248.77747366447
 20
9400.013745883727
 30
0.0
 40
100.0
  1
11
  7
STYLE1
100
AcDbText
  0
LINE
  5
19B7C
330
747D
100
AcDbEntity
  8
仕様書枠
 48
50.0
100
AcDbLine
 10
16307.2
 20
9879.599999999999
 30
0.0
 11
13127.2
 21
9879.600000000001
 31
0.0
  0
LINE
  5
19B7D
330
747D
100
AcDbEntity
  8
仕様書枠
 48
50.0
100
AcDbLine
 10
16307.2
 20
10219.6
 30
0.0
 11
13127.2
 21
10219.6
 31
0.0
  0
LINE
  5
19B7E
330
747D
100
AcDbEntity
  8
仕様書枠
 48
50.0
100
AcDbLine
 10
16307.19999999999
 20
9539.599999999998
 30
0.0
 11
13127.2
 21
9539.6
 31
0.0
  0
LINE
  5
19B7F
330
747D
100
AcDbEntity
  8
仕様書枠
 48
50.0
100
AcDbLine
 10
16307.19999999999
 20
9369.599999999998
 30
0.0
 11
13127.2
 21
9369.600000000001
 31
0.0
  0
LINE
  5
19B80
330
747D
100
AcDbEntity
  8
仕様書枠
 48
50.0
100
AcDbLine
 10
16307.19999999999
 20
9709.6
 30
0.0
 11
13127.2
 21
9709.600000000001
 31
0.0
  0
TEXT
  5
19B81
330
747D
100
AcDbEntity
  8
文字
 62
     7
 48
50.0
100
AcDbText
 10
13271.19032244792
 20
10250.01374588373
 30
0.0
 40
100.0
  1
6
  7
STYLE1
100
AcDbText
  0
TEXT
  5
19B82
330
747D
100
AcDbEntity
  8
文字
 62
     7
 48
50.0
100
AcDbText
 10
13271.19032244792
 20
10080.01374588373
 30
0.0
 40
100.0
  1
7
  7
STYLE1
100
AcDbText
  0
TEXT
  5
19B83
330
747D
100
AcDbEntity
  8
文字
 62
     7
 48
50.0
100
AcDbText
 10
13271.19032244792
 20
9740.013745883729
 30
0.0
 40
100.0
  1
9
  7
STYLE1
100
AcDbText
  0
TEXT
  5
19B84
330
747D
100
AcDbEntity
  8
文字
 62
     7
 48
50.0
100
AcDbText
 10
13271.19032244792
 20
9910.01374588373
 30
0.0
 40
100.0
  1
8
  7
STYLE1
100
AcDbText
  0
TEXT
  5
19B85
330
747D
100
AcDbEntity
  8
文字
 62
     7
 48
50.0
100
AcDbText
 10
13583.11819016569
 20
10080.01374588372
 30
0.0
 40
100.0
  1
鼻隠シ前後
  7
STYLE1
100
AcDbText
  0
TEXT
  5
19B86
330
747D
100
AcDbEntity
  8
文字
 62
     7
 48
50.0
100
AcDbText
 10
13583.11819016569
 20
9910.013745883727
 30
0.0
 40
100.0
  1
屋根パネル
  7
STYLE1
100
AcDbText
  0
TEXT
  5
19B87
330
747D
100
AcDbEntity
  8
文字
 62
     7
 48
50.0
100
AcDbText
 10
13583.11819016568
 20
9570.013745883729
 30
0.0
 40
100.0
  1
壁パネル
  7
STYLE1
100
AcDbText
  0
TEXT
  5
19B88
330
747D
100
AcDbEntity
  8
文字
 62
     7
 48
50.0
100
AcDbText
 10
13248.77747366447
 20
9570.013745883727
 30
0.0
 40
100.0
  1
10
  7
STYLE1
100
AcDbText
  0
TEXT
  5
19B89
330
747D
100
AcDbEntity
  8
文字
 62
     7
 48
50.0
100
AcDbText
 10
13583.11819016569
 20
10250.01374588373
 30
0.0
 40
100.0
  1
妻板左右
  7
STYLE1
100
AcDbText
  0
TEXT
  5
19B8A
330
747D
100
AcDbEntity
  8
文字
 62
     7
 48
50.0
100
AcDbText
 10
13271.19032244792
 20
10420.01374588372
 30
0.0
 40
100.0
  1
5
  7
STYLE1
100
AcDbText
  0
TEXT
  5
19B8B
330
747D
100
AcDbEntity
  8
文字
 62
     7
 48
50.0
100
AcDbText
 10
13583.11819016569
 20
10420.01374588373
 30
0.0
 40
100.0
  1
桁前後
  7
STYLE1
100
AcDbText
  0
TEXT
  5
19B8C
330
747D
100
AcDbEntity
  8
文字
 62
     7
 48
50.0
100
AcDbText
 10
13583.1181901657
 20
10760.01374588372
 30
0.0
 40
100.0
  1
柱
  7
STYLE1
100
AcDbText
  0
TEXT
  5
19B8D
330
747D
100
AcDbEntity
  8
文字
 62
     7
 48
50.0
100
AcDbText
 10
13583.11819016569
 20
11100.01374588372
 30
0.0
 40
100.0
  1
土台枠
  7
STYLE1
100
AcDbText
  0
TEXT
  5
19B8E
330
747D
100
AcDbEntity
  8
文字
 62
     7
 48
50.0
100
AcDbText
 10
14859.79774614482
 20
11270.01374588372
 30
0.0
 40
100.0
  1
材料（材質）　　単位mm
  7
STYLE1
100
AcDbText
  0
TEXT
  5
19B8F
330
747D
100
AcDbEntity
  8
文字
 62
     7
 48
50.0
100
AcDbText
 10
13732.03840939434
 20
11270.01374588372
 30
0.0
 40
100.0
  1
部　　品　　名
  7
STYLE1
100
AcDbText
  0
TEXT
  5
19B90
330
747D
100
AcDbEntity
  8
文字
 62
     7
 48
50.0
100
AcDbText
 10
13271.19032244792
 20
10760.01374588373
 30
0.0
 40
100.0
  1
3
  7
STYLE1
100
AcDbText
  0
TEXT
  5
19B91
330
747D
100
AcDbEntity
  8
文字
 62
     7
 48
50.0
100
AcDbText
 10
13271.19032244792
 20
10590.01374588373
 30
0.0
 40
100.0
  1
4
  7
STYLE1
100
AcDbText
  0
TEXT
  5
19B92
330
747D
100
AcDbEntity
  8
文字
 62
     7
 48
50.0
100
AcDbText
 10
13271.19032244792
 20
10930.01374588373
 30
0.0
 40
100.0
  1
2
  7
STYLE1
100
AcDbText
  0
TEXT
  5
19B93
330
747D
100
AcDbEntity
  8
文字
 62
     7
 48
50.0
100
AcDbText
 10
13271.19032244792
 20
11100.01374588373
 30
0.0
 40
100.0
  1
1
  7
STYLE1
100
AcDbText
  0
TEXT
  5
19B94
330
747D
100
AcDbEntity
  8
文字
 62
     7
 48
50.0
100
AcDbText
 10
13197.42518560407
 20
11270.01374588372
 30
0.0
 40
100.0
  1
品番
  7
STYLE1
100
AcDbText
  0
LINE
  5
19B95
330
747D
100
AcDbEntity
  8
仕様書枠
 48
50.0
100
AcDbLine
 10
16307.19999999999
 20
10729.59999999999
 30
0.0
 11
13127.2
 21
10729.6
 31
0.0
  0
LINE
  5
19B96
330
747D
100
AcDbEntity
  8
仕様書枠
 48
50.0
100
AcDbLine
 10
16307.19999999999
 20
10389.6
 30
0.0
 11
13127.2
 21
10389.6
 31
0.0
  0
LINE
  5
19B97
330
747D
100
AcDbEntity
  8
仕様書枠
 48
50.0
100
AcDbLine
 10
16307.19999999999
 20
10559.6
 30
0.0
 11
13127.2
 21
10559.6
 31
0.0
  0
LINE
  5
19B98
330
747D
100
AcDbEntity
  8
仕様書枠
 48
50.0
100
AcDbLine
 10
16307.2
 20
11069.59999999999
 30
0.0
 11
13127.2
 21
11069.6
 31
0.0
  0
LINE
  5
19B99
330
747D
100
AcDbEntity
  8
仕様書枠
 48
50.0
100
AcDbLine
 10
16307.2
 20
10899.6
 30
0.0
 11
13127.2
 21
10899.6
 31
0.0
  0
LINE
  5
19B9A
330
747D
100
AcDbEntity
  8
仕様書枠
 48
50.0
100
AcDbLine
 10
16307.2
 20
11239.59999999999
 30
0.0
 11
13127.2
 21
11239.6
 31
0.0
  0
LINE
  5
19B9B
330
747D
100
AcDbEntity
  8
仕様書枠
 48
50.0
100
AcDbLine
 10
13490.2
 20
11409.59999999999
 30
0.0
 11
13490.20000000001
 21
8349.600000000007
 31
0.0
  0
LINE
  5
19B9C
330
747D
100
AcDbEntity
  8
仕様書枠
 48
50.0
100
AcDbLine
 10
14785.2
 20
11409.59999999999
 30
0.0
 11
14785.2
 21
8349.600000000004
 31
0.0
  0
LINE
  5
19B9D
330
747D
100
AcDbEntity
  8
仕様書枠
 48
50.0
100
AcDbLine
 10
16307.19999999999
 20
8009.600000000004
 30
0.0
 11
16307.2
 21
11409.6
 31
0.0
  0
LINE
  5
19B9E
330
747D
100
AcDbEntity
  8
仕様書枠
 48
50.0
100
AcDbLine
 10
16307.2
 20
11409.59999999999
 30
0.0
 11
13127.2
 21
11409.6
 31
0.0
  0
LINE
  5
19B9F
330
747D
100
AcDbEntity
  8
仕様書枠
 48
50.0
100
AcDbLine
 10
16307.2
 20
10049.6
 30
0.0
 11
13127.2
 21
10049.6
 31
0.0
  0
TEXT
  5
19BA0
330
747D
100
AcDbEntity
  8
文字
 62
     7
 48
50.0
100
AcDbText
 10
15022.63965474515
 20
8380.013745883724
 30
0.0
 40
100.0
  1
F12            2.3
  7
STYLE1
100
AcDbText
  0
TEXT
  5
19BA1
330
747D
100
AcDbEntity
  8
文字
 62
     7
 48
50.0
100
AcDbText
 10
13583.11819016569
 20
8380.013745883728
 30
0.0
 40
100.0
  1
アンカープレート
  7
STYLE1
100
AcDbText
  0
LINE
  5
19BA2
330
747D
100
AcDbEntity
  8
仕様書枠
 48
50.0
100
AcDbLine
 10
16307.19999999999
 20
8519.600000000004
 30
0.0
 11
13127.2
 21
8519.600000000005
 31
0.0
  0
LINE
  5
19BA3
330
747D
100
AcDbEntity
  8
仕様書枠
 48
50.0
100
AcDbLine
 10
16307.19999999999
 20
8689.600000000003
 30
0.0
 11
13127.2
 21
8689.600000000005
 31
0.0
  0
TEXT
  5
19BA4
330
747D
100
AcDbEntity
  8
文字
 62
     7
 48
50.0
100
AcDbText
 10
13583.11819016569
 20
9400.013745883729
 30
0.0
 40
100.0
  1
壁面扉鴨居
  7
STYLE1
100
AcDbText
  0
TEXT
  5
19BA5
330
747D
100
AcDbEntity
  8
文字
 62
     7
 48
50.0
100
AcDbText
 10
13583.11819016569
 20
9230.013745883733
 30
0.0
 40
100.0
  1
壁面扉敷居
  7
STYLE1
100
AcDbText
  0
TEXT
  5
19BA6
330
747D
100
AcDbEntity
  8
文字
 62
     7
 48
50.0
100
AcDbText
 10
15022.63965474515
 20
9400.013745883727
 30
0.0
 40
100.0
  1
F12            0.7
  7
STYLE1
100
AcDbText
  0
TEXT
  5
19BA7
330
747D
100
AcDbEntity
  8
文字
 62
     7
 48
50.0
100
AcDbText
 10
15022.63965474517
 20
9230.013745883725
 30
0.0
 40
100.0
  1
F12            1.0
  7
STYLE1
100
AcDbText
  0
TEXT
  5
19BA8
330
747D
100
AcDbEntity
  8
文字
 62
     7
 48
50.0
100
AcDbText
 10
13583.11819016569
 20
9060.013745883733
 30
0.0
 40
100.0
  1
壁面扉枠左右
  7
STYLE1
100
AcDbText
  0
TEXT
  5
19BA9
330
747D
100
AcDbEntity
  8
文字
 62
     7
 48
50.0
100
AcDbText
 10
15022.63965474517
 20
9060.013745883725
 30
0.0
 40
100.0
  1
F12            1.0
  7
STYLE1
100
AcDbText
  0
TEXT
  5
19BAA
330
747D
100
AcDbEntity
  8
文字
 62
     7
 48
50.0
100
AcDbText
 10
13248.77747366447
 20
8550.013745883729
 30
0.0
 40
100.0
  1
16
  7
STYLE1
100
AcDbText
  0
TEXT
  5
19BAB
330
747D
100
AcDbEntity
  8
文字
 62
     7
 48
50.0
100
AcDbText
 10
13248.77747366447
 20
8380.013745883728
 30
0.0
 40
100.0
  1
17
  7
STYLE1
100
AcDbText
  0
TEXT
  5
19BAC
330
747D
100
AcDbEntity
  8
文字
 62
     7
 48
50.0
100
AcDbText
 10
14798.72402257234
 20
9740.013745883725
 30
0.0
 40
100.0
  1
F12(一般型1.0/多雪地型2.3)
  7
STYLE1
100
AcDbText
  0
LINE
  5
19C96
330
747D
100
AcDbEntity
  8
寸法
 48
50.0
100
AcDbLine
 10
9366.045729926643
 20
7437.449602434604
 30
0.0
 11
9314.639722016538
 21
7437.449602434604
 31
0.0
  0
LINE
  5
19C97
330
747D
100
AcDbEntity
  8
寸法
 48
50.0
100
AcDbLine
 10
9314.639722016538
 20
7437.449602434604
 30
0.0
 11
9314.639722016538
 21
7468.759761086771
 31
0.0
  0
LINE
  5
19C98
330
747D
100
AcDbEntity
  8
寸法
 48
50.0
100
AcDbLine
 10
9314.639722016538
 20
7468.759761086771
 30
0.0
 11
9284.878390025115
 21
7468.759761086771
 31
0.0
  0
LINE
  5
19C99
330
747D
100
AcDbEntity
  8
寸法
 48
50.0
100
AcDbLine
 10
9284.878390025115
 20
7468.759761086771
 30
0.0
 11
9340.34272597159
 21
7506.33921201538
 31
0.0
  0
LINE
  5
19C9A
330
747D
100
AcDbEntity
  8
寸法
 48
50.0
100
AcDbLine
 10
9395.807061918066
 20
7468.759761086771
 30
0.0
 11
9340.34272597159
 21
7506.33921201538
 31
0.0
  0
LINE
  5
19C9B
330
747D
100
AcDbEntity
  8
寸法
 48
50.0
100
AcDbLine
 10
9366.045729926643
 20
7468.759761086771
 30
0.0
 11
9395.807061918066
 21
7468.759761086771
 31
0.0
  0
LINE
  5
19C9C
330
747D
100
AcDbEntity
  8
寸法
 48
50.0
100
AcDbLine
 10
9366.045729926643
 20
7437.449602434604
 30
0.0
 11
9366.045729926643
 21
7468.759761086771
 31
0.0
  0
LINE
  5
19C9D
330
747D
100
AcDbEntity
  8
寸法
 48
50.0
100
AcDbLine
 10
9314.639722016538
 20
7437.449602434604
 30
0.0
 11
9366.045729926643
 21
7437.449602434604
 31
0.0
  0
LINE
  5
19C9E
330
747D
100
AcDbEntity
  8
寸法
 48
50.0
100
AcDbLine
 10
9645.211264203499
 20
7494.595193189427
 30
0.0
 11
9645.211264203499
 21
7440.931558607637
 31
0.0
  0
LINE
  5
19C9F
330
747D
100
AcDbEntity
  8
寸法
 48
50.0
100
AcDbLine
 10
9734.495482798921
 20
7470.671558919942
 30
0.0
 11
9645.211264203499
 21
7494.595193189427
 31
0.0
  0
LINE
  5
19CA0
330
747D
100
AcDbEntity
  8
寸法
 48
50.0
100
AcDbLine
 10
9515.343542623195
 20
7470.671558919942
 30
0.0
 11
9734.495482798921
 21
7470.671558919942
 31
0.0
  0
LINE
  5
19CA1
330
747D
100
AcDbEntity
  8
細線
 48
50.0
100
AcDbLine
 10
10391.8427236448
 20
7635.912965814466
 30
0.0
 11
11018.84272364479
 21
7635.912965814466
 31
0.0
  0
LINE
  5
19CA2
330
747D
100
AcDbEntity
  8
細線
 48
50.0
100
AcDbLine
 10
9737.842728298387
 20
7602.204197260391
 30
0.0
 11
11018.84272364479
 21
7602.204197260391
 31
0.0
  0
LINE
  5
19CA3
330
747D
100
AcDbEntity
  8
細線
 48
50.0
100
AcDbLine
 10
9696.842728298392
 20
7631.609105256645
 30
0.0
 11
8942.842723644798
 21
7631.60910525664
 31
0.0
  0
LINE
  5
19CA4
330
747D
100
AcDbEntity
  8
細線
100
AcDbLine
 10
10794.59271422834
 20
7655.412865779474
 30
0.0
 11
10796.92425375015
 21
7660.412868419436
 31
0.0
  0
LINE
  5
19CA5
330
747D
100
AcDbEntity
  8
細線
100
AcDbLine
 10
10864.59272364479
 20
7655.412850865741
 30
0.0
 11
10862.26117716861
 21
7660.412868419422
 31
0.0
  0
LINE
  5
19CA6
330
747D
100
AcDbEntity
  8
細線
100
AcDbLine
 10
10862.26117716861
 20
7660.412868419422
 30
0.0
 11
10796.92425375013
 21
7660.412868419408
 31
0.0
  0
LINE
  5
19CA7
330
747D
100
AcDbEntity
  8
細線
100
AcDbLine
 10
10722.26117716861
 20
7660.412868419422
 30
0.0
 11
10656.92425375013
 21
7660.412868419408
 31
0.0
  0
LINE
  5
19CA8
330
747D
100
AcDbEntity
  8
細線
100
AcDbLine
 10
10724.59272364479
 20
7655.412850865741
 30
0.0
 11
10722.26117716861
 21
7660.412868419422
 31
0.0
  0
LINE
  5
19CA9
330
747D
100
AcDbEntity
  8
細線
100
AcDbLine
 10
10654.59271422834
 20
7655.412865779474
 30
0.0
 11
10656.92425375015
 21
7660.412868419436
 31
0.0
  0
LINE
  5
19CAA
330
747D
100
AcDbEntity
  8
細線
100
AcDbLine
 10
10514.5927236448
 20
7655.412850865741
 30
0.0
 11
10516.92426316661
 21
7660.412853505703
 31
0.0
  0
LINE
  5
19CAB
330
747D
100
AcDbEntity
  8
細線
100
AcDbLine
 10
10584.59273306125
 20
7655.412835952008
 30
0.0
 11
10582.26118658506
 21
7660.412853505689
 31
0.0
  0
LINE
  5
19CAC
330
747D
100
AcDbEntity
  8
細線
100
AcDbLine
 10
10582.26118658507
 20
7660.412853505689
 30
0.0
 11
10516.92426316659
 21
7660.412853505673
 31
0.0
  0
LINE
  5
19CAD
330
747D
100
AcDbEntity
  8
細線
100
AcDbLine
 10
10287.0112078339
 20
7626.41289020307
 30
0.0
 11
10221.67428441543
 21
7626.412890203055
 31
0.0
  0
LINE
  5
19CAE
330
747D
100
AcDbEntity
  8
細線
100
AcDbLine
 10
10289.34275431009
 20
7621.41287264939
 30
0.0
 11
10287.0112078339
 21
7626.41289020307
 31
0.0
  0
LINE
  5
19CAF
330
747D
100
AcDbEntity
  8
細線
100
AcDbLine
 10
10219.34274489363
 20
7621.412887563123
 30
0.0
 11
10221.67428441544
 21
7626.412890203084
 31
0.0
  0
LINE
  5
19CB0
330
747D
100
AcDbEntity
  8
細線
 48
50.0
100
AcDbLine
 10
10060.72610289281
 20
7639.683714018822
 30
0.0
 11
10066.48162047548
 21
7621.412862728336
 31
0.0
  0
LINE
  5
19CB1
330
747D
100
AcDbEntity
  8
細線
 48
50.0
100
AcDbLine
 10
10049.79765441238
 20
7639.683714018822
 30
0.0
 11
10060.72610289281
 21
7639.683714018822
 31
0.0
  0
ARC
  5
19CB2
330
747D
100
AcDbEntity
  8
細線
 48
50.0
100
AcDbCircle
 10
10044.34329835506
 20
7641.183714018822
 30
0.0
 40
5.0
100
AcDbArc
 50
204.6243183521304
 51
335.3756816478695
  0
ARC
  5
19CB3
330
747D
100
AcDbEntity
  8
細線
 48
50.0
100
AcDbCircle
 10
10049.79765441238
 20
7638.683714018822
 30
0.0
 40
1.0
100
AcDbArc
 50
90.0
 51
155.3756816478695
  0
ARC
  5
19CB4
330
747D
100
AcDbEntity
  8
細線
 48
50.0
100
AcDbCircle
 10
10038.88894229774
 20
7638.683714018822
 30
0.0
 40
1.0
100
AcDbArc
 50
24.62431835213048
 51
90.0
  0
LINE
  5
19CB5
330
747D
100
AcDbEntity
  8
細線
 48
50.0
100
AcDbLine
 10
10027.96049381731
 20
7639.683714018822
 30
0.0
 11
10038.88894229774
 21
7639.683714018822
 31
0.0
  0
LINE
  5
19CB6
330
747D
100
AcDbEntity
  8
細線
 48
50.0
100
AcDbLine
 10
10022.20497623464
 20
7621.412862728329
 30
0.0
 11
10027.96049381731
 21
7639.683714018822
 31
0.0
  0
LINE
  5
19CB7
330
747D
100
AcDbEntity
  8
細線
100
AcDbLine
 10
10079.34274612467
 20
7621.412860094132
 30
0.0
 11
10081.67428564649
 21
7626.412862734094
 31
0.0
  0
LINE
  5
19CB8
330
747D
100
AcDbEntity
  8
細線
100
AcDbLine
 10
10149.34275554113
 20
7621.412845180398
 30
0.0
 11
10147.01120906494
 21
7626.412862734079
 31
0.0
  0
LINE
  5
19CB9
330
747D
100
AcDbEntity
  8
細線
100
AcDbLine
 10
10147.01120906494
 20
7626.412862734079
 30
0.0
 11
10081.67428564647
 21
7626.412862734063
 31
0.0
  0
LINE
  5
19CBA
330
747D
100
AcDbEntity
  8
細線
100
AcDbLine
 10
10007.01118070043
 20
7626.412862728298
 30
0.0
 11
9941.674257281952
 21
7626.412862728284
 31
0.0
  0
LINE
  5
19CBB
330
747D
100
AcDbEntity
  8
細線
100
AcDbLine
 10
10009.34272717661
 20
7621.412845174619
 30
0.0
 11
10007.01118070043
 21
7626.412862728298
 31
0.0
  0
LINE
  5
19CBC
330
747D
100
AcDbEntity
  8
細線
100
AcDbLine
 10
9939.3427189912
 20
7621.412862728329
 30
0.0
 11
9941.674257281967
 21
7626.412862728314
 31
0.0
  0
LINE
  5
19CBD
330
747D
100
AcDbEntity
  8
細線
100
AcDbLine
 10
9799.342754310092
 20
7621.412870915698
 30
0.0
 11
9801.674292600859
 21
7626.412870915683
 31
0.0
  0
LINE
  5
19CBE
330
747D
100
AcDbEntity
  8
細線
100
AcDbLine
 10
9869.342762495508
 20
7621.412853361988
 30
0.0
 11
9867.011216019321
 21
7626.412870915665
 31
0.0
  0
LINE
  5
19CBF
330
747D
100
AcDbEntity
  8
細線
100
AcDbLine
 10
9867.011216019321
 20
7626.412870915665
 30
0.0
 11
9801.674292600845
 21
7626.412870915654
 31
0.0
  0
LINE
  5
19CC0
330
747D
100
AcDbEntity
  8
細線
100
AcDbLine
 10
9427.84272011297
 20
7587.413042596411
 30
0.0
 11
9430.174258403738
 21
7592.413042596397
 31
0.0
  0
LINE
  5
19CC1
330
747D
100
AcDbEntity
  8
細線
100
AcDbLine
 10
9497.842728298387
 20
7587.413025042697
 30
0.0
 11
9495.5111818222
 21
7592.413042596374
 31
0.0
  0
LINE
  5
19CC2
330
747D
100
AcDbEntity
  8
細線
100
AcDbLine
 10
9495.5111818222
 20
7592.413042596374
 30
0.0
 11
9430.174258403727
 21
7592.413042596366
 31
0.0
  0
LINE
  5
19CC3
330
747D
100
AcDbEntity
  8
細線
100
AcDbLine
 10
9635.511181822201
 20
7592.413042596374
 30
0.0
 11
9570.174258403728
 21
7592.413042596366
 31
0.0
  0
LINE
  5
19CC4
330
747D
100
AcDbEntity
  8
細線
100
AcDbLine
 10
9637.842728298387
 20
7587.413025042697
 30
0.0
 11
9635.511181822201
 21
7592.413042596374
 31
0.0
  0
LINE
  5
19CC5
330
747D
100
AcDbEntity
  8
細線
100
AcDbLine
 10
9567.84272011297
 20
7587.413042596411
 30
0.0
 11
9570.174258403739
 21
7592.413042596397
 31
0.0
  0
LINE
  5
19CC6
330
747D
100
AcDbEntity
  8
細線
100
AcDbLine
 10
9355.511181822199
 20
7592.413042596374
 30
0.0
 11
9290.174258403729
 21
7592.413042596364
 31
0.0
  0
LINE
  5
19CC7
330
747D
100
AcDbEntity
  8
細線
100
AcDbLine
 10
9357.842728298386
 20
7587.413025042697
 30
0.0
 11
9355.511181822199
 21
7592.413042596374
 31
0.0
  0
LINE
  5
19CC8
330
747D
100
AcDbEntity
  8
細線
100
AcDbLine
 10
9287.842720112971
 20
7587.413042596407
 30
0.0
 11
9290.174258403737
 21
7592.413042596392
 31
0.0
  0
LINE
  5
19CC9
330
747D
100
AcDbEntity
  8
細線
100
AcDbLine
 10
9147.842728298387
 20
7587.413042596411
 30
0.0
 11
9150.174266589154
 21
7592.413042596397
 31
0.0
  0
LINE
  5
19CCA
330
747D
100
AcDbEntity
  8
細線
100
AcDbLine
 10
9217.842736483802
 20
7587.413025042697
 30
0.0
 11
9215.511190007616
 21
7592.413042596374
 31
0.0
  0
LINE
  5
19CCB
330
747D
100
AcDbEntity
  8
細線
100
AcDbLine
 10
9215.511190007616
 20
7592.413042596374
 30
0.0
 11
9150.174266589145
 21
7592.413042596366
 31
0.0
  0
ARC
  5
19CCC
330
747D
100
AcDbEntity
  8
部品1
 48
0.01
100
AcDbCircle
 10
9103.342617046051
 20
7586.411920411338
 30
0.0
 40
0.5
100
AcDbArc
 50
270.0
 51
0.0
  0
LINE
  5
19CCD
330
747D
100
AcDbEntity
  8
部品1
 48
0.01
100
AcDbLine
 10
9103.842617046051
 20
7587.411920411338
 30
0.0
 11
9103.842617046051
 21
7586.411920411338
 31
0.0
  0
LINE
  5
19CCE
330
747D
100
AcDbEntity
  8
部品1
 48
0.01
100
AcDbLine
 10
9103.842617046051
 20
7587.411920411338
 30
0.0
 11
9103.842617046051
 21
7586.411920411338
 31
0.0
  0
LINE
  5
19CCF
330
747D
100
AcDbEntity
  8
部品1
 48
0.01
100
AcDbLine
 10
9103.342617046051
 20
7585.911920411338
 30
0.0
 11
9096.730111615988
 21
7585.911920411338
 31
0.0
  0
ARC
  5
19CD0
330
747D
100
AcDbEntity
  8
部品1
100
AcDbCircle
 10
9096.798461168768
 20
7586.911920411337
 30
0.0
 40
1.0
100
AcDbArc
 50
160.5287793655778
 51
270.0
  0
ARC
  5
19CD1
330
747D
100
AcDbEntity
  8
部品1
100
AcDbCircle
 10
9071.342617046052
 20
7595.911920411338
 30
0.0
 40
26.0
100
AcDbArc
 50
340.5287793655779
 51
0.0
  0
LINE
  5
19CD2
330
747D
100
AcDbEntity
  8
部品1
100
AcDbLine
 10
9097.34261704605
 20
7595.911920411338
 30
0.0
 11
9097.34261704605
 21
7600.911920411338
 31
0.0
  0
ARC
  5
19CD3
330
747D
100
AcDbEntity
  8
部品1
 48
0.01
100
AcDbCircle
 10
9095.342617046052
 20
7600.911920411338
 30
0.0
 40
2.0
100
AcDbArc
 50
0.0
 51
90.0
  0
ARC
  5
19CD4
330
747D
100
AcDbEntity
  8
部品1
100
AcDbCircle
 10
9093.734225421242
 20
7599.911920411338
 30
0.0
 40
3.0
100
AcDbArc
 50
90.0
 51
141.6069559807873
  0
LINE
  5
19CD5
330
747D
100
AcDbEntity
  8
部品1
 48
0.01
100
AcDbLine
 10
9095.342617046052
 20
7602.911920411337
 30
0.0
 11
9093.734225421242
 21
7602.911920411337
 31
0.0
  0
ARC
  5
19CD6
330
747D
100
AcDbEntity
  8
部品1
100
AcDbCircle
 10
9075.271902831781
 20
7599.211920411341
 30
0.0
 40
3.0
100
AcDbArc
 50
254.0576313943215
 51
270.0
  0
ARC
  5
19CD7
330
747D
100
AcDbEntity
  8
部品1
100
AcDbCircle
 10
9082.413331260323
 20
7599.211920411341
 30
0.0
 40
3.0
100
AcDbArc
 50
270.0
 51
285.9423686056786
  0
LINE
  5
19CD8
330
747D
100
AcDbEntity
  8
部品1
100
AcDbLine
 10
9082.413331260323
 20
7596.211920411341
 30
0.0
 11
9075.271902831781
 21
7596.211920411341
 31
0.0
  0
ARC
  5
19CD9
330
747D
100
AcDbEntity
  8
部品1
100
AcDbCircle
 10
9078.842617046051
 20
7611.711920411341
 30
0.0
 40
16.0
100
AcDbArc
 50
285.9423686056786
 51
321.6069559807873
  0
LINE
  5
19CDA
330
747D
100
AcDbEntity
  8
部品1
 48
0.01
100
AcDbLine
 10
9062.342617046052
 20
7602.911920411337
 30
0.0
 11
9063.95100867086
 21
7602.911920411337
 31
0.0
  0
ARC
  5
19CDB
330
747D
100
AcDbEntity
  8
部品1
100
AcDbCircle
 10
9063.95100867086
 20
7599.911920411338
 30
0.0
 40
3.0
100
AcDbArc
 50
38.39304401921267
 51
90.0
  0
ARC
  5
19CDC
330
747D
100
AcDbEntity
  8
部品1
100
AcDbCircle
 10
9078.842617046051
 20
7611.711920411341
 30
0.0
 40
16.0
100
AcDbArc
 50
218.3930440192126
 51
254.0576313943215
  0
LINE
  5
19CDD
330
747D
100
AcDbEntity
  8
部品1
100
AcDbLine
 10
9060.342617046051
 20
7595.911920411338
 30
0.0
 11
9060.342617046051
 21
7600.911920411338
 31
0.0
  0
ARC
  5
19CDE
330
747D
100
AcDbEntity
  8
部品1
 48
0.01
100
AcDbCircle
 10
9062.342617046052
 20
7600.911920411338
 30
0.0
 40
2.0
100
AcDbArc
 50
90.0
 51
180.0
  0
ARC
  5
19CDF
330
747D
100
AcDbEntity
  8
部品1
100
AcDbCircle
 10
9086.342617046051
 20
7595.911920411338
 30
0.0
 40
26.0
100
AcDbArc
 50
180.0
 51
199.4712206344221
  0
ARC
  5
19CE0
330
747D
100
AcDbEntity
  8
部品1
 48
0.01
100
AcDbCircle
 10
9054.342617046051
 20
7586.411920411338
 30
0.0
 40
0.5
100
AcDbArc
 50
180.0
 51
270.0
  0
LINE
  5
19CE1
330
747D
100
AcDbEntity
  8
部品1
 48
0.01
100
AcDbLine
 10
9054.342617046051
 20
7585.911920411338
 30
0.0
 11
9060.886772923335
 21
7585.911920411338
 31
0.0
  0
LINE
  5
19CE2
330
747D
100
AcDbEntity
  8
部品1
 48
0.01
100
AcDbLine
 10
9053.842617046051
 20
7587.411920411338
 30
0.0
 11
9053.842617046051
 21
7586.411920411338
 31
0.0
  0
ARC
  5
19CE3
330
747D
100
AcDbEntity
  8
部品1
100
AcDbCircle
 10
9060.886772923335
 20
7586.911920411337
 30
0.0
 40
1.0
100
AcDbArc
 50
270.0
 51
19.47122063442214
  0
LINE
  5
19CE4
330
747D
100
AcDbEntity
  8
細線
100
AcDbLine
 10
9099.34261704606
 20
7605.411920411341
 30
0.0
 11
9058.342617046058
 21
7605.411920411334
 31
0.0
  0
LINE
  5
19CE5
330
747D
100
AcDbEntity
  8
細線
100
AcDbLine
 10
9058.342617046058
 20
7605.411920411334
 30
0.0
 11
9058.342617046058
 21
7587.411920411316
 31
0.0
  0
LINE
  5
19CE6
330
747D
100
AcDbEntity
  8
細線
100
AcDbLine
 10
9099.34261704606
 20
7605.411920411341
 30
0.0
 11
9099.34261704606
 21
7587.411920411316
 31
0.0
  0
LINE
  5
19CE7
330
747D
100
AcDbEntity
  8
細線
100
AcDbLine
 10
8942.842723644798
 20
7591.412850865741
 30
0.0
 11
8942.842723644798
 21
7587.412850865788
 31
0.0
  0
DIMENSION
  5
19CE8
330
747D
100
AcDbEntity
  8
寸法
 48
50.0
100
AcDbDimension
  2
*D30
 10
10208.84272364479
 20
6928.783375551015
 30
0.0
 11
9577.659234899126
 21
6928.783375551015
 31
0.0
 70
   160
  1
有効開口部間口\P<>
 71
     5
 42
1266.0
  3
INABA_S40
100
AcDbAlignedDimension
 13
8942.842723644798
 23
7582.412850865741
 33
0.0
 14
10208.84272364479
 24
7582.412850865741
 34
0.0
100
AcDbRotatedDimension
1001
ACAD
1000
DSTYLE
1002
{
1070
    41
1040
0.5
1070
    44
1040
1.0
1070
   147
1040
0.8
1070
   271
1070
     2
1070
   272
1070
     2
1070
   289
1070
     3
1070
   340
1005
F706
1070
   343
1005
1892A
1070
   344
1005
1892A
1002
}
  0
LINE
  5
19CE9
330
747D
100
AcDbEntity
  8
部品1
100
AcDbLine
 10
11030.8427236448
 20
7659.412850865741
 30
0.0
 11
11057.84272364479
 21
7659.412850865741
 31
0.0
  0
LINE
  5
19CEB
330
747D
100
AcDbEntity
  8
部品1
100
AcDbLine
 10
11057.84272364479
 20
7582.412850865741
 30
0.0
 11
11057.84272364479
 21
7659.412850865741
 31
0.0
  0
LINE
  5
19CEC
330
747D
100
AcDbEntity
  8
部品1
100
AcDbLine
 10
11018.84272364479
 20
7655.412850865741
 30
0.0
 11
11030.8427236448
 21
7655.412850865741
 31
0.0
  0
LINE
  5
19CED
330
747D
100
AcDbEntity
  8
部品1
100
AcDbLine
 10
11027.8427236448
 20
7591.412850865741
 30
0.0
 11
11027.8427236448
 21
7582.412850865741
 31
0.0
  0
LINE
  5
19CEE
330
747D
100
AcDbEntity
  8
部品1
100
AcDbLine
 10
11018.84272364479
 20
7591.412850865741
 30
0.0
 11
11027.8427236448
 21
7591.412850865741
 31
0.0
  0
LINE
  5
19CEF
330
747D
100
AcDbEntity
  8
部品1
100
AcDbLine
 10
11018.84272364479
 20
7655.412850865741
 30
0.0
 11
11018.84272364479
 21
7591.412850865741
 31
0.0
  0
LINE
  5
19CF0
330
747D
100
AcDbEntity
  8
部品1
100
AcDbLine
 10
11030.8427236448
 20
7686.412850865742
 30
0.0
 11
11030.8427236448
 21
7655.412850865741
 31
0.0
  0
LINE
  5
19CF1
330
747D
100
AcDbEntity
  8
部品1
100
AcDbLine
 10
8942.842723644798
 20
7655.412850865741
 30
0.0
 11
8930.842723644797
 21
7655.412850865741
 31
0.0
  0
LINE
  5
19CF2
330
747D
100
AcDbEntity
  8
部品1
100
AcDbLine
 10
8903.842723644798
 20
7659.412850865741
 30
0.0
 11
8930.842723644797
 21
7659.412850865741
 31
0.0
  0
LINE
  5
19CF3
330
747D
100
AcDbEntity
  8
部品1
100
AcDbLine
 10
8933.842723644797
 20
7591.412850865741
 30
0.0
 11
8933.842723644797
 21
7582.412850865741
 31
0.0
  0
LINE
  5
19CF4
330
747D
100
AcDbEntity
  8
部品1
100
AcDbLine
 10
8942.842723644798
 20
7591.412850865741
 30
0.0
 11
8933.842723644797
 21
7591.412850865741
 31
0.0
  0
LINE
  5
19CF5
330
747D
100
AcDbEntity
  8
部品1
100
AcDbLine
 10
8933.842723644797
 20
7582.412850865741
 30
0.0
 11
8903.842723644798
 21
7582.412850865741
 31
0.0
  0
LINE
  5
19CF6
330
747D
100
AcDbEntity
  8
部品1
100
AcDbLine
 10
8903.842723644798
 20
7582.412850865741
 30
0.0
 11
8903.842723644798
 21
7659.412850865741
 31
0.0
  0
LINE
  5
19CF7
330
747D
100
AcDbEntity
  8
部品1
100
AcDbLine
 10
8942.842723644798
 20
7655.412850865741
 30
0.0
 11
8942.842723644798
 21
7591.412850865741
 31
0.0
  0
LINE
  5
19CF8
330
747D
100
AcDbEntity
  8
部品1
100
AcDbLine
 10
8930.842723644797
 20
7686.412850865737
 30
0.0
 11
8930.842723644797
 21
7655.412850865741
 31
0.0
  0
LINE
  5
19CF9
330
747D
100
AcDbEntity
  8
部品1
100
AcDbLine
 10
8930.842723644797
 20
7686.412850865737
 30
0.0
 11
11030.8427236448
 21
7686.412850865742
 31
0.0
  0
LINE
  5
19CFA
330
747D
100
AcDbEntity
  8
部品1
100
AcDbLine
 10
11027.8427236448
 20
7582.412850865741
 30
0.0
 11
11057.84272364479
 21
7582.412850865741
 31
0.0
  0
LINE
  5
19CFB
330
747D
100
AcDbEntity
  8
部品1
100
AcDbLine
 10
8933.842723644797
 20
7582.412850865741
 30
0.0
 11
11030.8427236448
 21
7582.412850865741
 31
0.0
  0
LINE
  5
19CFC
330
747D
100
AcDbEntity
  8
細線
  6
Continuous
 62
     5
100
AcDbLine
 10
10309.8427236448
 20
7621.412850865738
 30
0.0
 11
10309.8427236448
 21
7621.412850865738
 31
0.0
  0
LINE
  5
19CFD
330
747D
100
AcDbEntity
  8
細線
  6
Continuous
 62
     5
100
AcDbLine
 10
10302.34275896369
 20
7621.412860786795
 30
0.0
 11
10302.34275896369
 21
7621.412860786795
 31
0.0
  0
LINE
  5
19CFE
330
747D
100
AcDbEntity
  8
細線
  6
Continuous
 62
     5
100
AcDbLine
 10
10296.34275896369
 20
7621.412860786795
 30
0.0
 11
10296.34275896369
 21
7621.412860786795
 31
0.0
  0
LINE
  5
19CFF
330
747D
100
AcDbEntity
  8
細線
  6
Continuous
 62
     5
100
AcDbLine
 10
10363.8427236448
 20
7640.412850865738
 30
0.0
 11
10363.8427236448
 21
7640.412850865738
 31
0.0
  0
LINE
  5
19D00
330
747D
100
AcDbEntity
  8
細線
 48
50.0
100
AcDbLine
 10
8956.84272829839
 20
7608.013025042696
 30
0.0
 11
8956.84272829839
 21
7616.409175450336
 31
0.0
  0
LINE
  5
19D01
330
747D
100
AcDbEntity
  8
細線
 48
50.0
100
AcDbLine
 10
8956.84272829839
 20
7616.409175450336
 30
0.0
 11
8942.842723644798
 21
7616.409175450332
 31
0.0
  0
LINE
  5
19D02
330
747D
100
AcDbEntity
  8
細線
 48
50.0
100
AcDbLine
 10
9707.842728298388
 20
7604.563025042695
 30
0.0
 11
9707.842728298388
 21
7609.413025042697
 31
0.0
  0
LINE
  5
19D03
330
747D
100
AcDbEntity
  8
細線
 48
50.0
100
AcDbLine
 10
9707.842728298388
 20
7609.413025042697
 30
0.0
 11
9722.842728298388
 21
7609.413025042697
 31
0.0
  0
LINE
  5
19D04
330
747D
100
AcDbEntity
  8
細線
 48
50.0
100
AcDbLine
 10
9722.842728298388
 20
7609.413025042697
 30
0.0
 11
9722.84272829839
 21
7616.413025042696
 31
0.0
  0
LINE
  5
19D05
330
747D
100
AcDbEntity
  8
細線
 48
50.0
100
AcDbLine
 10
9722.84272829839
 20
7616.413025042696
 30
0.0
 11
9737.842728298387
 21
7616.413025042696
 31
0.0
  0
LINE
  5
19D06
330
747D
100
AcDbEntity
  8
細線
 48
50.0
100
AcDbLine
 10
9737.842728298387
 20
7616.413025042696
 30
0.0
 11
9737.842728298387
 21
7587.413025042697
 31
0.0
  0
LINE
  5
19D07
330
747D
100
AcDbEntity
  8
細線
 48
50.0
100
AcDbLine
 10
8933.842723644797
 20
7587.410359386166
 30
0.0
 11
9147.842728298387
 21
7587.413042596411
 31
0.0
  0
LINE
  5
19D08
330
747D
100
AcDbEntity
  8
細線
 48
50.0
100
AcDbLine
 10
9637.842728298387
 20
7587.413025042697
 30
0.0
 11
9737.842728298387
 21
7587.413025042697
 31
0.0
  0
LINE
  5
19D09
330
747D
100
AcDbEntity
  8
細線
 48
50.0
100
AcDbLine
 10
9357.842728298386
 20
7587.413025042697
 30
0.0
 11
9427.842728298386
 21
7587.413025042697
 31
0.0
  0
LINE
  5
19D0A
330
747D
100
AcDbEntity
  8
細線
 48
50.0
100
AcDbLine
 10
9370.704693310916
 20
7587.413025042697
 30
0.0
 11
9376.460210893583
 21
7605.683876333191
 31
0.0
  0
LINE
  5
19D0B
330
747D
100
AcDbEntity
  8
細線
 48
50.0
100
AcDbLine
 10
9376.460210893583
 20
7605.683876333191
 30
0.0
 11
9387.388659374016
 21
7605.683876333187
 31
0.0
  0
ARC
  5
19D0C
330
747D
100
AcDbEntity
  8
細線
 48
50.0
100
AcDbCircle
 10
9387.388659374016
 20
7604.683876333187
 30
0.0
 40
1.0
100
AcDbArc
 50
24.62431835213048
 51
90.0
  0
ARC
  5
19D0D
330
747D
100
AcDbEntity
  8
細線
 48
50.0
100
AcDbCircle
 10
9398.29737148865
 20
7604.683876333187
 30
0.0
 40
1.0
100
AcDbArc
 50
90.0
 51
155.3756816478695
  0
ARC
  5
19D0E
330
747D
100
AcDbEntity
  8
細線
 48
50.0
100
AcDbCircle
 10
9392.843015431331
 20
7607.183876333187
 30
0.0
 40
5.0
100
AcDbArc
 50
204.6243183521304
 51
335.3756816478695
  0
LINE
  5
19D0F
330
747D
100
AcDbEntity
  8
細線
 48
50.0
100
AcDbLine
 10
9398.29737148865
 20
7605.683876333187
 30
0.0
 11
9409.225819969085
 21
7605.683876333191
 31
0.0
  0
LINE
  5
19D10
330
747D
100
AcDbEntity
  8
細線
 48
50.0
100
AcDbLine
 10
9409.225819969085
 20
7605.683876333191
 30
0.0
 11
9414.981337551751
 21
7587.413025042697
 31
0.0
  0
LINE
  5
19D11
330
747D
100
AcDbEntity
  8
細線
 48
50.0
100
AcDbLine
 10
9707.842728298388
 20
7608.013025042696
 30
0.0
 11
8956.84272829839
 21
7608.013025042696
 31
0.0
  0
LINE
  5
19D12
330
747D
100
AcDbEntity
  8
細線
 48
50.0
100
AcDbLine
 10
9567.842728298387
 20
7587.413025042697
 30
0.0
 11
9497.842728298387
 21
7587.413025042697
 31
0.0
  0
LINE
  5
19D13
330
747D
100
AcDbEntity
  8
細線
100
AcDbLine
 10
9287.842728298386
 20
7587.413025042697
 30
0.0
 11
9217.842736483802
 21
7587.413025042697
 31
0.0
  0
LINE
  5
19D14
330
747D
100
AcDbEntity
  8
細線
 48
50.0
100
AcDbLine
 10
10361.84271899121
 20
7642.013068900563
 30
0.0
 11
9726.842728298386
 21
7642.01306890056
 31
0.0
  0
LINE
  5
19D15
330
747D
100
AcDbEntity
  8
細線
 48
50.0
100
AcDbLine
 10
9726.842728298386
 20
7638.909219308203
 30
0.0
 11
9726.842728298386
 21
7643.409219308203
 31
0.0
  0
LINE
  5
19D16
330
747D
100
AcDbEntity
  8
細線
 48
50.0
100
AcDbLine
 10
9726.842728298386
 20
7643.409219308203
 30
0.0
 11
9711.842728298387
 21
7643.409219308203
 31
0.0
  0
LINE
  5
19D17
330
747D
100
AcDbEntity
  8
細線
 48
50.0
100
AcDbLine
 10
9711.842728298387
 20
7643.409219308203
 30
0.0
 11
9711.842728298387
 21
7650.409219308203
 31
0.0
  0
LINE
  5
19D18
330
747D
100
AcDbEntity
  8
細線
 48
50.0
100
AcDbLine
 10
9711.842728298387
 20
7650.409219308203
 30
0.0
 11
9696.842728298392
 21
7650.4092193082
 31
0.0
  0
LINE
  5
19D19
330
747D
100
AcDbEntity
  8
細線
 48
50.0
100
AcDbLine
 10
9696.842728298392
 20
7650.4092193082
 30
0.0
 11
9696.842728298392
 21
7612.808991205089
 31
0.0
  0
LINE
  5
19D1A
330
747D
100
AcDbEntity
  8
細線
 48
50.0
100
AcDbLine
 10
9696.842728298392
 20
7612.808991205089
 30
0.0
 11
9716.842735599563
 21
7612.80903275463
 31
0.0
  0
LINE
  5
19D1B
330
747D
100
AcDbEntity
  8
細線
 48
50.0
100
AcDbLine
 10
9716.84269073062
 20
7621.412494390439
 30
0.0
 11
9716.842735599563
 21
7612.80903275463
 31
0.0
  0
LINE
  5
19D1C
330
747D
100
AcDbEntity
  8
細線
 48
50.0
100
AcDbLine
 10
10361.84271899121
 20
7638.563068900563
 30
0.0
 11
10361.84271899121
 21
7643.413068900561
 31
0.0
  0
LINE
  5
19D1D
330
747D
100
AcDbEntity
  8
細線
 48
50.0
100
AcDbLine
 10
10361.84271899121
 20
7643.413068900561
 30
0.0
 11
10376.84271899121
 21
7643.413068900561
 31
0.0
  0
LINE
  5
19D1E
330
747D
100
AcDbEntity
  8
細線
 48
50.0
100
AcDbLine
 10
10376.84271899121
 20
7643.413068900561
 30
0.0
 11
10376.84273062518
 21
7650.413068900604
 31
0.0
  0
LINE
  5
19D1F
330
747D
100
AcDbEntity
  8
細線
 48
50.0
100
AcDbLine
 10
10376.84273062518
 20
7650.413068900604
 30
0.0
 11
10391.84272879571
 21
7650.413068900604
 31
0.0
  0
LINE
  5
19D20
330
747D
100
AcDbEntity
  8
細線
 48
50.0
100
AcDbLine
 10
10391.84272879571
 20
7650.413068900604
 30
0.0
 11
10391.84271849389
 21
7621.412862728331
 31
0.0
  0
LINE
  5
19D21
330
747D
100
AcDbEntity
  8
細線
 48
50.0
100
AcDbLine
 10
10079.34274612467
 20
7621.412870915698
 30
0.0
 11
10009.34299820709
 21
7621.412865478361
 31
0.0
  0
LINE
  5
19D22
330
747D
100
AcDbEntity
  8
細線
 48
50.0
100
AcDbLine
 10
9716.84269073062
 20
7621.412494390439
 30
0.0
 11
9728.07538008533
 21
7621.412677343585
 31
0.0
  0
ARC
  5
19D23
330
747D
100
AcDbEntity
  8
細線
 48
50.0
100
AcDbCircle
 10
9734.657672392666
 20
7620.212841257198
 30
0.0
 40
1.8
100
AcDbArc
 50
270.0006665777295
 51
345.0005554812987
  0
LINE
  5
19D24
330
747D
100
AcDbEntity
  8
細線
 48
50.0
100
AcDbLine
 10
9736.644105838747
 20
7620.671681714476
 30
0.0
 11
9736.396343396549
 21
7619.746983832371
 31
0.0
  0
LINE
  5
19D25
330
747D
100
AcDbEntity
  8
細線
 48
50.0
100
AcDbLine
 10
9734.657693333822
 20
7618.412841257319
 30
0.0
 11
9731.027765915053
 21
7618.412799026839
 31
0.0
  0
ARC
  5
19D26
330
747D
100
AcDbEntity
  8
細線
 48
50.0
100
AcDbCircle
 10
9731.0277449739
 20
7620.212799026718
 30
0.0
 40
1.8
100
AcDbArc
 50
195.0010443049394
 51
270.0006665777295
  0
LINE
  5
19D27
330
747D
100
AcDbEntity
  8
細線
 48
50.0
100
AcDbLine
 10
9729.041317481643
 20
7620.671513994283
 30
0.0
 11
9729.289086978155
 21
7619.746893055701
 31
0.0
  0
ARC
  5
19D28
330
747D
100
AcDbEntity
  8
細線
 48
50.0
100
AcDbCircle
 10
9728.075396372894
 20
7620.412677343721
 30
0.0
 40
1.0
100
AcDbArc
 50
15.00104430493943
 51
90.00093320877969
  0
LINE
  5
19D29
330
747D
100
AcDbEntity
  8
細線
 48
50.0
100
AcDbLine
 10
9737.610027193849
 20
7621.41287203399
 30
0.0
 11
9738.551787344754
 21
7621.412878607841
 31
0.0
  0
ARC
  5
19D2A
330
747D
100
AcDbEntity
  8
細線
 48
50.0
100
AcDbCircle
 10
9737.610034174236
 20
7620.412872034016
 30
0.0
 40
1.0
100
AcDbArc
 50
90.0003999466794
 51
165.0005554812987
  0
LINE
  5
19D2B
330
747D
100
AcDbEntity
  8
細線
 48
50.0
100
AcDbLine
 10
10289.3427189912
 20
7621.412862728331
 30
0.0
 11
10391.84271849389
 21
7621.412862728331
 31
0.0
  0
LINE
  5
19D2C
330
747D
100
AcDbEntity
  8
細線
 48
50.0
100
AcDbLine
 10
9799.342754310092
 20
7621.412870915698
 30
0.0
 11
9738.242693083172
 21
7621.412878607841
 31
0.0
  0
LINE
  5
19D2D
330
747D
100
AcDbEntity
  8
細線
 48
50.0
100
AcDbLine
 10
10219.34275431009
 20
7621.412907756781
 30
0.0
 11
10149.3427473557
 21
7621.412862734112
 31
0.0
  0
LINE
  5
19D2E
330
747D
100
AcDbEntity
  8
細線
 48
50.0
100
AcDbLine
 10
9939.3427189912
 20
7621.412862728329
 30
0.0
 11
9869.342701703324
 21
7621.412862728336
 31
0.0
  0
ARC
  5
19D2F
330
747D
100
AcDbEntity
  8
細線
 48
50.0
100
AcDbCircle
 10
10376.04272364481
 20
7654.612850865742
 30
0.0
 40
0.8
100
AcDbArc
 50
359.9997333689499
 51
89.99986668437072
  0
ARC
  5
19D30
330
747D
100
AcDbEntity
  8
細線
 48
50.0
100
AcDbCircle
 10
10383.6427304699
 20
7654.612862034359
 30
0.0
 40
0.8
100
AcDbArc
 50
90.00014387753465
 51
179.9997333689498
  0
LINE
  5
19D31
330
747D
100
AcDbEntity
  8
細線
 48
50.0
100
AcDbLine
 10
10376.04272550624
 20
7655.412850865741
 30
0.0
 11
10370.84272364479
 21
7655.412850865741
 31
0.0
  0
ARC
  5
19D32
330
747D
100
AcDbEntity
  8
細線
 48
50.0
100
AcDbCircle
 10
10377.5427236448
 20
7653.112850865742
 30
0.0
 40
0.7
100
AcDbArc
 50
180.0
 51
270.0
  0
ARC
  5
19D33
330
747D
100
AcDbEntity
  8
細線
 48
50.0
100
AcDbCircle
 10
10382.1427236448
 20
7653.112850865742
 30
0.0
 40
0.7
100
AcDbArc
 50
270.0
 51
0.0
  0
LINE
  5
19D34
330
747D
100
AcDbEntity
  8
細線
 48
50.0
100
AcDbLine
 10
10382.8427236448
 20
7653.112850865742
 30
0.0
 11
10382.84273046991
 21
7654.612865757229
 31
0.0
  0
LINE
  5
19D35
330
747D
100
AcDbEntity
  8
細線
 48
50.0
100
AcDbLine
 10
10377.5427236448
 20
7652.412850865741
 30
0.0
 11
10382.1427236448
 21
7652.412850865741
 31
0.0
  0
LINE
  5
19D36
330
747D
100
AcDbEntity
  8
細線
 48
50.0
100
AcDbLine
 10
10376.84272364479
 20
7654.612850865742
 30
0.0
 11
10376.84272364479
 21
7653.112850865742
 31
0.0
  0
LINE
  5
19D37
330
747D
100
AcDbEntity
  8
細線
 48
50.0
100
AcDbLine
 10
11002.4427236448
 20
7685.412850865741
 30
0.0
 11
10365.8427236448
 21
7685.412850865738
 31
0.0
  0
LINE
  5
19D38
330
747D
100
AcDbEntity
  8
細線
 48
50.0
100
AcDbLine
 10
11028.34272364479
 20
7680.412850865746
 30
0.0
 11
11012.4427236448
 21
7680.412850865741
 31
0.0
  0
LINE
  5
19D39
330
747D
100
AcDbEntity
  8
細線
 48
50.0
100
AcDbLine
 10
11012.4427236448
 20
7680.412850865741
 30
0.0
 11
11002.4427236448
 21
7685.412850865741
 31
0.0
  0
LINE
  5
19D3A
330
747D
100
AcDbEntity
  8
細線
100
AcDbLine
 10
10613.34272364479
 20
7655.412850865741
 30
0.0
 11
10613.34272364479
 21
7684.71285086574
 31
0.0
  0
LINE
  5
19D3B
330
747D
100
AcDbEntity
  8
細線
100
AcDbLine
 10
10613.34272364479
 20
7684.71285086574
 30
0.0
 11
10633.34272364479
 21
7684.71285086574
 31
0.0
  0
LINE
  5
19D3C
330
747D
100
AcDbEntity
  8
細線
100
AcDbLine
 10
10633.34272364479
 20
7655.412850865741
 30
0.0
 11
10633.34272364479
 21
7684.71285086574
 31
0.0
  0
LINE
  5
19D3D
330
747D
100
AcDbEntity
  8
細線
100
AcDbLine
 10
10794.5927236448
 20
7655.412850865741
 30
0.0
 11
10724.59272364479
 21
7655.412850865741
 31
0.0
  0
LINE
  5
19D3E
330
747D
100
AcDbEntity
  8
細線
 48
50.0
100
AcDbLine
 10
10514.5927236448
 20
7655.412850865741
 30
0.0
 11
10383.63850321764
 21
7655.412850865741
 31
0.0
  0
LINE
  5
19D3F
330
747D
100
AcDbEntity
  8
細線
100
AcDbLine
 10
10654.5927236448
 20
7655.412850865741
 30
0.0
 11
10584.59272364479
 21
7655.412850865741
 31
0.0
  0
LINE
  5
19D40
330
747D
100
AcDbEntity
  8
細線
 48
50.0
100
AcDbLine
 10
10370.84272364479
 20
7647.412850865741
 30
0.0
 11
10370.84272364479
 21
7655.412850865741
 31
0.0
  0
LINE
  5
19D41
330
747D
100
AcDbEntity
  8
細線
 48
50.0
100
AcDbLine
 10
10350.84272364479
 20
7647.412850865745
 30
0.0
 11
10370.84272364479
 21
7647.412850865741
 31
0.0
  0
LINE
  5
19D42
330
747D
100
AcDbEntity
  8
細線
 48
50.0
100
AcDbLine
 10
10365.8427236448
 20
7685.412850865741
 30
0.0
 11
10365.8427236448
 21
7680.412850865741
 31
0.0
  0
LINE
  5
19D43
330
747D
100
AcDbEntity
  8
細線
 48
50.0
100
AcDbLine
 10
10350.84272364479
 20
7685.412850865738
 30
0.0
 11
10365.8427236448
 21
7685.412850865741
 31
0.0
  0
LINE
  5
19D44
330
747D
100
AcDbEntity
  8
細線
 48
50.0
100
AcDbLine
 10
10350.84272364479
 20
7647.412850865745
 30
0.0
 11
10350.84272364479
 21
7685.412850865738
 31
0.0
  0
LINE
  5
19D45
330
747D
100
AcDbEntity
  8
細線
100
AcDbLine
 10
11018.84272364479
 20
7655.412850865741
 30
0.0
 11
10864.59272364479
 21
7655.412850865741
 31
0.0
  0
LINE
  5
19D46
330
747D
100
AcDbEntity
  8
細線
 48
50.0
100
AcDbLine
 10
11028.34272364479
 20
7680.412850865746
 30
0.0
 11
11028.34272364479
 21
7655.412850865741
 31
0.0
  0
LINE
  5
19F7C
330
747D
100
AcDbEntity
  8
部品1
100
AcDbLine
 10
10362.57805675906
 20
6117.544705900275
 30
0.0
 11
9599.107390530626
 21
6117.544705900275
 31
0.0
  0
LINE
  5
19F7D
330
747D
100
AcDbEntity
  8
部品1
100
AcDbLine
 10
10362.57805675906
 20
5877.652384354743
 30
0.0
 11
10362.57805675906
 21
6117.544705900275
 31
0.0
  0
LINE
  5
19F7E
330
747D
100
AcDbEntity
  8
部品1
100
AcDbLine
 10
9599.107390530626
 20
5877.652384354743
 30
0.0
 11
10362.57805675906
 21
5877.652384354743
 31
0.0
  0
LINE
  5
19F7F
330
747D
100
AcDbEntity
  8
部品1
100
AcDbLine
 10
9599.107390530626
 20
6117.544705900275
 30
0.0
 11
9599.107390530626
 21
5877.652384354743
 31
0.0
  0
TEXT
  5
19F80
330
747D
100
AcDbEntity
  8
部品1
100
AcDbText
 10
9689.027000359665
 20
5924.651176681751
 30
0.0
 40
135.0
  1
平面図
  7
STYLE2
100
AcDbText
  0
DIMENSION
  5
19F81
330
747D
100
AcDbEntity
  8
寸法
100
AcDbDimension
  2
*D31
 10
11085.84272364483
 20
6395.901621092718
 30
0.0
 11
10002.97548039214
 21
6395.901621092718
 31
0.0
 70
   160
 71
     5
 42
2209.999999999982
  3
INABA_S40G
100
AcDbAlignedDimension
 13
8875.842723644849
 23
7659.4128508658
 33
0.0
 14
11085.84272364483
 24
7659.412850865926
 34
0.0
100
AcDbRotatedDimension
1001
ACAD
1000
DSTYLE
1002
{
1002
}
  0
DIMENSION
  5
19F82
330
747D
100
AcDbEntity
  8
寸法
100
AcDbDimension
  2
*D32
 10
8581.23147801813
 20
7584.412850865866
 30
0.0
 11
8581.23147801813
 21
7443.927569491627
 31
0.0
 70
   160
 71
     5
 42
75.0
  3
INABA_S40
100
AcDbAlignedDimension
 13
8875.842723644849
 23
7659.412850865866
 33
0.0
 14
8903.84272364483
 24
7584.412850865866
 34
0.0
 50
90.0
100
AcDbRotatedDimension
1001
ACAD
1000
DSTYLE
1002
{
1070
    41
1040
0.5
1070
    44
1040
1.0
1070
   147
1040
0.8
1070
   271
1070
     2
1070
   272
1070
     2
1070
   289
1070
     3
1070
   340
1005
F706
1070
   343
1005
1892A
1070
   344
1005
1892A
1002
}
  0
DIMENSION
  5
19F83
330
747D
100
AcDbEntity
  8
寸法
 48
50.0
100
AcDbDimension
  2
*D33
 10
11057.84272364483
 20
6662.283135438044
 30
0.0
 11
10002.97548039214
 21
6662.283135438044
 31
0.0
 70
   160
 71
     5
 42
2154.0
  3
INABA_S40G
100
AcDbAlignedDimension
 13
8903.84272364483
 23
7582.412850865811
 33
0.0
 14
11057.84272364483
 24
7582.412850865811
 34
0.0
100
AcDbRotatedDimension
1001
ACAD
1000
DSTYLE
1002
{
1070
   341
1005
0
1002
}
  0
LWPOLYLINE
  5
1A2B4
330
747D
100
AcDbEntity
  8
部品1
 48
50.0
100
AcDbPolyline
 90
        4
 70
     1
 43
0.0
 10
9002.892723644846
 20
3422.541920427775
 10
9005.79272364485
 20
3422.541920427775
 10
9005.79272364485
 20
3432.041920427775
 10
9002.892723644846
 20
3432.041920427775
  0
CIRCLE
  5
1A2B5
330
747D
100
AcDbEntity
  8
部品1
 48
50.0
100
AcDbCircle
 10
9004.342723644848
 20
3427.291920427775
 30
0.0
 40
9.0
  0
ARC
  5
1A2B6
330
747D
100
AcDbEntity
  8
細線
 48
50.0
100
AcDbCircle
 10
9004.342723644848
 20
3427.291920427775
 30
0.0
 40
4.0
100
AcDbArc
 50
111.2538091853132
 51
248.7461908146868
  0
ARC
  5
1A2B7
330
747D
100
AcDbEntity
  8
細線
 48
50.0
100
AcDbCircle
 10
9004.342723644848
 20
3427.291920427775
 30
0.0
 40
17.5
100
AcDbArc
 50
306.4837370612677
 51
233.5162629387323
  0
LINE
  5
1A2B8
330
747D
100
AcDbEntity
  8
細線
 48
50.0
100
AcDbLine
 10
9014.342723644844
 20
3403.432959846892
 30
0.0
 11
9014.342723644848
 21
3412.417445647134
 31
0.0
  0
LINE
  5
1A2B9
330
747D
100
AcDbEntity
  8
細線
 48
50.0
100
AcDbLine
 10
8994.342723644848
 20
3403.432959846894
 30
0.0
 11
8994.342723644848
 21
3412.41744564713
 31
0.0
  0
ARC
  5
1A2BA
330
747D
100
AcDbEntity
  8
細線
 48
50.0
100
AcDbCircle
 10
9004.342723644848
 20
3427.291920427775
 30
0.0
 40
26.5
100
AcDbArc
 50
249.3326835063939
 51
290.6673164933835
  0
ARC
  5
1A2BB
330
747D
100
AcDbEntity
  8
細線
 48
50.0
100
AcDbCircle
 10
9013.342723644841
 20
3403.432959846892
 30
0.0
 40
1.0
100
AcDbArc
 50
290.6673164936062
 51
359.9999999998958
  0
ARC
  5
1A2BC
330
747D
100
AcDbEntity
  8
細線
 48
50.0
100
AcDbCircle
 10
8995.342723644847
 20
3403.432959846894
 30
0.0
 40
1.0
100
AcDbArc
 50
180.0
 51
249.3326835066164
  0
ARC
  5
1A2BD
330
747D
100
AcDbEntity
  8
細線
 48
50.0
100
AcDbCircle
 10
8993.342723644849
 20
3412.41744564713
 30
0.0
 40
1.0
100
AcDbArc
 50
0.0
 51
53.51626293873231
  0
ARC
  5
1A2BE
330
747D
100
AcDbEntity
  8
細線
 48
50.0
100
AcDbCircle
 10
9015.342723644852
 20
3412.417445647134
 30
0.0
 40
1.0
100
AcDbArc
 50
126.4837370615127
 51
180.0
  0
ARC
  5
1A2BF
330
747D
100
AcDbEntity
  8
細線
 48
50.0
100
AcDbCircle
 10
9004.342723644848
 20
3427.291920427775
 30
0.0
 40
21.5
100
AcDbArc
 50
255.8014401250294
 51
284.1985598749706
  0
ARC
  5
1A2C0
330
747D
100
AcDbEntity
  8
細線
 48
50.0
100
AcDbCircle
 10
9004.342723644848
 20
3427.291920427775
 30
0.0
 40
16.5
100
AcDbArc
 50
251.9694646069326
 51
288.0305353930674
  0
LINE
  5
1A2C1
330
747D
100
AcDbEntity
  8
細線
 48
50.0
100
AcDbLine
 10
9009.842723644849
 20
3406.739548301968
 30
0.0
 11
9009.842723644849
 21
3411.316939989305
 31
0.0
  0
LINE
  5
1A2C2
330
747D
100
AcDbEntity
  8
細線
 48
50.0
100
AcDbLine
 10
8998.842723644848
 20
3406.739548301968
 30
0.0
 11
8998.842723644848
 21
3411.316939989303
 31
0.0
  0
ARC
  5
1A2C3
330
747D
100
AcDbEntity
  8
細線
 48
50.0
100
AcDbCircle
 10
8999.142723644851
 20
3411.316939989303
 30
0.0
 40
0.3
100
AcDbArc
 50
71.96946460693259
 51
180.0
  0
ARC
  5
1A2C4
330
747D
100
AcDbEntity
  8
細線
 48
50.0
100
AcDbCircle
 10
9009.542723644848
 20
3411.316939989305
 30
0.0
 40
0.3
100
AcDbArc
 50
0.0
 51
108.0305353930674
  0
ARC
  5
1A2C5
330
747D
100
AcDbEntity
  8
細線
 48
50.0
100
AcDbCircle
 10
9009.542723644846
 20
3406.739548301968
 30
0.0
 40
0.3
100
AcDbArc
 50
284.1985598747622
 51
0.0000000001042204
  0
ARC
  5
1A2C6
330
747D
100
AcDbEntity
  8
細線
 48
50.0
100
AcDbCircle
 10
8999.142723644851
 20
3406.739548301968
 30
0.0
 40
0.3
100
AcDbArc
 50
180.0
 51
255.8014401248081
  0
CIRCLE
  5
1A2C7
330
747D
100
AcDbEntity
  8
細線
 48
50.0
100
AcDbCircle
 10
9004.342723644848
 20
3427.291920427775
 30
0.0
 40
12.0
  0
ARC
  5
1A2C8
330
747D
100
AcDbEntity
  8
部品1
 48
50.0
100
AcDbCircle
 10
9004.342723644848
 20
3477.291920427775
 30
0.0
 40
8.5
100
AcDbArc
 50
114.315739171091
 51
245.684260828909
  0
CIRCLE
  5
1A2C9
330
747D
100
AcDbEntity
  8
細線
 48
50.0
100
AcDbCircle
 10
9004.342723644848
 20
3477.291920427775
 30
0.0
 40
4.5
  0
LWPOLYLINE
  5
1A2CA
330
747D
100
AcDbEntity
  8
部品1
 48
50.0
100
AcDbPolyline
 90
        2
 70
     0
 43
0.0
 10
9000.842723644849
 20
3495.966769824758
 10
9000.842723644849
 20
3485.037887120191
  0
CIRCLE
  5
1A2CB
330
747D
100
AcDbEntity
  8
部品1
 48
50.0
100
AcDbCircle
 10
9004.342723644848
 20
3477.291920427775
 30
0.0
 40
19.0
  0
LWPOLYLINE
  5
1A2CC
330
747D
100
AcDbEntity
  8
部品1
 48
50.0
100
AcDbPolyline
 90
        2
 70
     0
 43
0.0
 10
9000.842723644849
 20
3469.54595373536
 10
9000.842723644849
 20
3458.617071030793
  0
LWPOLYLINE
  5
1A2CD
330
747D
100
AcDbEntity
  8
部品1
 48
50.0
100
AcDbPolyline
 90
        2
 70
     0
 43
0.0
 10
9007.842723644847
 20
3485.037887120191
 10
9007.842723644847
 20
3495.966769824758
  0
ARC
  5
1A2CE
330
747D
100
AcDbEntity
  8
部品1
 48
50.0
100
AcDbCircle
 10
9004.342723644848
 20
3477.291920427775
 30
0.0
 40
8.5
100
AcDbArc
 50
294.315739171091
 51
65.68426082890896
  0
LWPOLYLINE
  5
1A2CF
330
747D
100
AcDbEntity
  8
部品1
 48
50.0
100
AcDbPolyline
 90
        2
 70
     0
 43
0.0
 10
9007.842723644847
 20
3458.617071030793
 10
9007.842723644847
 20
3469.54595373536
  0
ARC
  5
1A2D0
330
747D
100
AcDbEntity
  8
細線
 48
50.0
100
AcDbCircle
 10
9004.342723644848
 20
3477.291920427775
 30
0.0
 40
16.5
100
AcDbArc
 50
332.0012352654438
 51
27.99876473455621
  0
ARC
  5
1A2D1
330
747D
100
AcDbEntity
  8
細線
 48
50.0
100
AcDbCircle
 10
9004.342723644848
 20
3477.291920427775
 30
0.0
 40
14.0
100
AcDbArc
 50
326.4074436112986
 51
33.59255638870134
  0
LINE
  5
1A2D2
330
747D
100
AcDbEntity
  8
細線
 48
50.0
100
AcDbLine
 10
8989.773921360516
 20
3485.037887120191
 30
0.0
 11
8992.680819855159
 21
3485.037887120191
 31
0.0
  0
LINE
  5
1A2D3
330
747D
100
AcDbEntity
  8
細線
 48
50.0
100
AcDbLine
 10
8989.773921360516
 20
3469.54595373536
 30
0.0
 11
8992.680819855159
 21
3469.54595373536
 31
0.0
  0
LINE
  5
1A2D4
330
747D
100
AcDbEntity
  8
細線
 48
50.0
100
AcDbLine
 10
9016.004627434538
 20
3485.037887120191
 30
0.0
 11
9018.911525929182
 21
3485.037887120191
 31
0.0
  0
LINE
  5
1A2D5
330
747D
100
AcDbEntity
  8
細線
 48
50.0
100
AcDbLine
 10
9016.004627434538
 20
3469.54595373536
 30
0.0
 11
9018.911525929182
 21
3469.54595373536
 31
0.0
  0
ARC
  5
1A2D6
330
747D
100
AcDbEntity
  8
細線
 48
50.0
100
AcDbCircle
 10
9004.342723644848
 20
3477.291920427775
 30
0.0
 40
14.0
100
AcDbArc
 50
146.4074436112986
 51
213.5925563887013
  0
ARC
  5
1A2D7
330
747D
100
AcDbEntity
  8
細線
 48
50.0
100
AcDbCircle
 10
9004.342723644848
 20
3477.291920427775
 30
0.0
 40
16.5
100
AcDbArc
 50
152.0012352654438
 51
207.9987647345562
  0
ARC
  5
1A2D8
330
747D
100
AcDbEntity
  8
部品1
 48
50.0
100
AcDbCircle
 10
8977.842723644847
 20
3502.791920427775
 30
0.0
 40
5.0
100
AcDbArc
 50
90.0
 51
180.0
  0
ARC
  5
1A2D9
330
747D
100
AcDbEntity
  8
部品1
 48
50.0
100
AcDbCircle
 10
8977.842723644847
 20
3391.791920427775
 30
0.0
 40
5.0
100
AcDbArc
 50
180.0
 51
270.0
  0
ARC
  5
1A2DA
330
747D
100
AcDbEntity
  8
部品1
 48
50.0
100
AcDbCircle
 10
9030.842723644848
 20
3391.791920427775
 30
0.0
 40
5.0
100
AcDbArc
 50
270.0
 51
0.0
  0
ARC
  5
1A2DB
330
747D
100
AcDbEntity
  8
部品1
 48
50.0
100
AcDbCircle
 10
9030.842723644848
 20
3502.791920427775
 30
0.0
 40
5.0
100
AcDbArc
 50
0.0
 51
90.0
  0
LINE
  5
1A2DD
330
747D
100
AcDbEntity
  8
部品1
 48
50.0
100
AcDbLine
 10
8972.842723644848
 20
3391.791920427775
 30
0.0
 11
8972.842723644848
 21
3502.791920427775
 31
0.0
  0
LINE
  5
1A2DE
330
747D
100
AcDbEntity
  8
部品1
 48
50.0
100
AcDbLine
 10
9030.842723644848
 20
3386.791920427775
 30
0.0
 11
8977.842723644847
 21
3386.791920427775
 31
0.0
  0
LINE
  5
1A2DF
330
747D
100
AcDbEntity
  8
部品1
 48
50.0
100
AcDbLine
 10
9035.842723644847
 20
3502.791920427775
 30
0.0
 11
9035.842723644847
 21
3391.791920427775
 31
0.0
  0
ENDSEC
  0
SECTION
  2
OBJECTS
  0
DICTIONARY
  5
7471
330
0
100
AcDbDictionary
281
     1
  3
ACAD_COLOR
350
1891F
  3
ACAD_GROUP
350
7472
  3
ACAD_LAYOUT
350
18920
  3
ACAD_MATERIAL
350
1891E
  3
ACAD_MLINESTYLE
350
7473
  3
ACAD_PLOTSETTINGS
350
18921
  3
ACAD_PLOTSTYLENAME
350
1891C
  3
ACDBHEADERROUNDTRIPXREC
350
1A2EE
  3
AcDbVariableDictionary
350
1A2EA
  3
CONTENTDICTIONARY
350
E71C
  3
DRAWINGVARIABLESDICT
350
F3B9
  0
DICTIONARY
  5
18AB9
330
7467
100
AcDbDictionary
280
     1
281
     1
  3
ACAD_LAYERSTATES
360
18ABA
  0
DICTIONARY
  5
1891F
102
{ACAD_REACTORS
330
7471
102
}
330
7471
100
AcDbDictionary
281
     1
  0
DICTIONARY
  5
7472
102
{ACAD_REACTORS
330
7471
102
}
330
7471
100
AcDbDictionary
281
     1
  0
DICTIONARY
  5
18920
102
{ACAD_REACTORS
330
7471
102
}
330
7471
100
AcDbDictionary
281
     1
  3
Model
350
18922
  3
レイアウト1
350
18923
  0
DICTIONARY
  5
1891E
102
{ACAD_REACTORS
330
7471
102
}
330
7471
100
AcDbDictionary
281
     1
  0
DICTIONARY
  5
7473
102
{ACAD_REACTORS
330
7471
102
}
330
7471
100
AcDbDictionary
281
     1
  3
STANDARD
350
7480
  0
DICTIONARY
  5
18921
102
{ACAD_REACTORS
330
7471
102
}
330
7471
100
AcDbDictionary
281
     1
  0
ACDBDICTIONARYWDFLT
  5
1891C
102
{ACAD_REACTORS
330
7471
102
}
330
7471
100
AcDbDictionary
281
     1
  3
Normal
350
1891D
100
AcDbDictionaryWithDefault
340
1891D
  0
DICTIONARY
  5
1A2EE
102
{ACAD_REACTORS
330
7471
102
}
330
7471
100
AcDbDictionary
281
     1
  3
COLORDICT
350
1A2F0
  3
MATERIALDICT
350
1A2EF
  0
DICTIONARY
  5
1A2EA
102
{ACAD_REACTORS
330
7471
102
}
330
7471
100
AcDbDictionary
281
     1
  3
DIMASSOC
350
1A2EB
  3
PROJECTNAME
350
1A2EC
  0
DICTIONARY
  5
E71C
102
{ACAD_REACTORS
330
7471
102
}
330
7471
100
AcDbDictionary
281
     1
  0
DICTIONARY
  5
F3B9
102
{ACAD_REACTORS
330
7471
102
}
330
7471
100
AcDbDictionary
281
     1
1001
DRAWINGVARIABLESXDATA
1000
POLARMODE
1000
1
  0
DICTIONARY
  5
18ABA
102
{ACAD_REACTORS
330
18AB9
102
}
330
18AB9
100
AcDbDictionary
281
     1
  0
LAYOUT
  5
18922
102
{ACAD_XDICTIONARY
360
1A2F1
102
}
102
{ACAD_REACTORS
330
18920
102
}
330
18920
100
AcDbPlotSettings
  1

  2
Microsoft Office Document Image Writer
  4

  6

 40
0.0
 41
0.0
 42
0.0
 43
0.0
 44
0.0
 45
0.0
 46
0.0
 47
0.0
 48
0.0
 49
0.0
140
0.0
141
0.0
142
1.0
143
1.0
 70
  1712
 72
     0
 73
     0
 74
     0
  7

 75
     0
147
1.0
148
0.0
149
0.0
100
AcDbLayout
  1
Model
 70
     1
 71
     0
 10
0.0
 20
0.0
 11
12.0
 21
9.0
 12
0.0
 22
0.0
 32
0.0
 14
0.0
 24
0.0
 34
0.0
 15
0.0
 25
0.0
 35
0.0
146
0.0
 13
0.0
 23
0.0
 33
0.0
 16
1.0
 26
0.0
 36
0.0
 17
0.0
 27
1.0
 37
0.0
 76
     0
330
747D
  0
LAYOUT
  5
18923
102
{ACAD_XDICTIONARY
360
1A2F3
102
}
102
{ACAD_REACTORS
330
18920
102
}
330
18920
100
AcDbPlotSettings
  1

  2
Microsoft Office Document Image Writer
  4

  6

 40
0.0
 41
0.0
 42
0.0
 43
0.0
 44
0.0
 45
0.0
 46
0.0
 47
0.0
 48
0.0
 49
0.0
140
0.0
141
0.0
142
1.0
143
1.0
 70
   688
 72
     0
 73
     0
 74
     5
  7

 75
    16
147
1.0
148
0.0
149
0.0
100
AcDbLayout
  1
レイアウト1
 70
     0
 71
     1
 10
0.0
 20
0.0
 11
420.0
 21
297.0
 12
0.0
 22
0.0
 32
0.0
 14
1.000000000000000E+20
 24
1.000000000000000E+20
 34
1.000000000000000E+20
 15
-1.000000000000000E+20
 25
-1.000000000000000E+20
 35
-1.000000000000000E+20
146
0.0
 13
0.0
 23
0.0
 33
0.0
 16
1.0
 26
0.0
 36
0.0
 17
0.0
 27
1.0
 37
0.0
 76
     0
330
747A
  0
MLINESTYLE
  5
7480
102
{ACAD_REACTORS
330
7473
102
}
330
7473
100
AcDbMlineStyle
  2
STANDARD
 70
     0
  3

 62
     0
 51
90.0
 52
90.0
 71
     2
 49
0.5
 62
   256
  6
BYLAYER
 49
-0.5
 62
   256
  6
BYLAYER
  0
ACDBPLACEHOLDER
  5
1891D
102
{ACAD_REACTORS
330
1891C
102
}
330
1891C
  0
XRECORD
  5
1A2F0
102
{ACAD_REACTORS
330
1A2EE
102
}
330
1A2EE
100
AcDbXrecord
280
     1
340
1891F
  0
XRECORD
  5
1A2EF
102
{ACAD_REACTORS
330
1A2EE
102
}
330
1A2EE
100
AcDbXrecord
280
     1
340
1891E
  0
DICTIONARYVAR
  5
1A2EB
102
{ACAD_REACTORS
330
1A2EA
102
}
330
1A2EA
100
DictionaryVariables
280
     0
  1
1
  0
DICTIONARYVAR
  5
1A2EC
102
{ACAD_REACTORS
330
1A2EA
102
}
330
1A2EA
100
DictionaryVariables
280
     0
  1

  0
DICTIONARY
  5
1A2F1
330
18922
100
AcDbDictionary
280
     1
281
     1
  3
ACAD_XREC_ROUNDTRIP
360
1A2F2
  0
DICTIONARY
  5
1A2F3
330
18923
100
AcDbDictionary
280
     1
281
     1
  3
ACAD_XREC_ROUNDTRIP
360
1A2F4
  0
XRECORD
  5
1A2F2
102
{ACAD_REACTORS
330
1A2F1
102
}
330
1A2F1
100
AcDbXrecord
280
     1
102
SHADEPLOT
 70
     0
102
SHADEPLOTRESLEVEL
 70
     2
102
SHADEPLOTCUSTOMDPI
 70
   300
  0
XRECORD
  5
1A2F4
102
{ACAD_REACTORS
330
1A2F3
102
}
330
1A2F3
100
AcDbXrecord
280
     1
102
SHADEPLOT
 70
     0
102
SHADEPLOTRESLEVEL
 70
     2
102
SHADEPLOTCUSTOMDPI
 70
   300
  0
ENDSEC
  0
EOF
