  0
SECTION
  2
HEADER
  9
$ACADVER
  1
AC1015
  9
$ACADMAINTVER
 70
    20
  9
$DWGCODEPAGE
  3
ANSI_932
  9
$INSBASE
 10
0.0
 20
0.0
 30
0.0
  9
$EXTMIN
 10
139.9999999999995
 20
-0.0000000000000909
 30
0.0
  9
$EXTMAX
 10
16307.2
 20
11409.6
 30
0.0
  9
$LIMMIN
 10
-25.79074261211281
 20
-125.8223078213959
  9
$LIMMAX
 10
16471.10331197129
 20
11496.44801950658
  9
$ORTHOMODE
 70
     0
  9
$REGENMODE
 70
     1
  9
$FILLMODE
 70
     1
  9
$QTEXTMODE
 70
     0
  9
$MIRRTEXT
 70
     1
  9
$LTSCALE
 40
20.0
  9
$ATTMODE
 70
     1
  9
$TEXTSIZE
 40
4.0
  9
$TRACEWID
 40
1.0
  9
$TEXTSTYLE
  7
STYLE1
  9
$CLAYER
  8
部品1
  9
$CELTYPE
  6
BYLAYER
  9
$CECOLOR
 62
   256
  9
$CELTSCALE
 40
50.0
  9
$DISPSILH
 70
     0
  9
$DIMSCALE
 40
40.0
  9
$DIMASZ
 40
2.5
  9
$DIMEXO
 40
0.5
  9
$DIMDLI
 40
7.0
  9
$DIMRND
 40
0.0
  9
$DIMDLE
 40
0.0
  9
$DIMEXE
 40
1.5
  9
$DIMTP
 40
0.0
  9
$DIMTM
 40
0.0
  9
$DIMTXT
 40
3.0
  9
$DIMCEN
 40
0.0
  9
$DIMTSZ
 40
0.0
  9
$DIMTOL
 70
     0
  9
$DIMLIM
 70
     0
  9
$DIMTIH
 70
     0
  9
$DIMTOH
 70
     0
  9
$DIMSE1
 70
     0
  9
$DIMSE2
 70
     0
  9
$DIMTAD
 70
     3
  9
$DIMZIN
 70
     8
  9
$DIMBLK
  1

  9
$DIMASO
 70
     1
  9
$DIMSHO
 70
     1
  9
$DIMPOST
  1

  9
$DIMAPOST
  1

  9
$DIMALT
 70
     0
  9
$DIMALTD
 70
     2
  9
$DIMALTF
 40
0.0394
  9
$DIMLFAC
 40
1.0
  9
$DIMTOFL
 70
     1
  9
$DIMTVP
 40
0.0
  9
$DIMTIX
 70
     1
  9
$DIMSOXD
 70
     0
  9
$DIMSAH
 70
     1
  9
$DIMBLK1
  1
DOTSMALL
  9
$DIMBLK2
  1
DOTSMALL
  9
$DIMSTYLE
  2
INABA_S40G
  9
$DIMCLRD
 70
     0
  9
$DIMCLRE
 70
     0
  9
$DIMCLRT
 70
     7
  9
$DIMTFAC
 40
1.0
  9
$DIMGAP
 40
1.0
  9
$DIMJUST
 70
     0
  9
$DIMSD1
 70
     0
  9
$DIMSD2
 70
     0
  9
$DIMTOLJ
 70
     1
  9
$DIMTZIN
 70
     0
  9
$DIMALTZ
 70
     0
  9
$DIMALTTZ
 70
     0
  9
$DIMUPT
 70
     0
  9
$DIMDEC
 70
     1
  9
$DIMTDEC
 70
     4
  9
$DIMALTU
 70
     2
  9
$DIMALTTD
 70
     2
  9
$DIMTXSTY
  7
STYLE1
  9
$DIMAUNIT
 70
     0
  9
$DIMADEC
 70
     0
  9
$DIMALTRND
 40
0.0
  9
$DIMAZIN
 70
     0
  9
$DIMDSEP
 70
    46
  9
$DIMATFIT
 70
     3
  9
$DIMFRAC
 70
     0
  9
$DIMLDRBLK
  1

  9
$DIMLUNIT
 70
     2
  9
$DIMLWD
 70
    -2
  9
$DIMLWE
 70
    -2
  9
$DIMTMOVE
 70
     0
  9
$LUNITS
 70
     2
  9
$LUPREC
 70
     1
  9
$SKETCHINC
 40
1.0
  9
$FILLETRAD
 40
3.0
  9
$AUNITS
 70
     0
  9
$AUPREC
 70
     0
  9
$MENU
  1
acad
  9
$ELEVATION
 40
0.0
  9
$PELEVATION
 40
0.0
  9
$THICKNESS
 40
0.0
  9
$LIMCHECK
 70
     0
  9
$CHAMFERA
 40
0.0
  9
$CHAMFERB
 40
0.0
  9
$CHAMFERC
 40
0.0
  9
$CHAMFERD
 40
0.0
  9
$SKPOLY
 70
     0
  9
$TDCREATE
 40
2451368.612993866
  9
$TDUCREATE
 40
2451368.237993866
  9
$TDUPDATE
 40
2455575.682805625
  9
$TDUUPDATE
 40
2455575.307805625
  9
$TDINDWG
 40
0.4716878935
  9
$TDUSRTIMER
 40
0.4716878935
  9
$USRTIMER
 70
     1
  9
$ANGBASE
 50
0.0
  9
$ANGDIR
 70
     0
  9
$PDMODE
 70
     3
  9
$PDSIZE
 40
2.0
  9
$PLINEWID
 40
0.0
  9
$SPLFRAME
 70
     0
  9
$SPLINETYPE
 70
     6
  9
$SPLINESEGS
 70
     8
  9
$HANDSEED
  5
18491
  9
$SURFTAB1
 70
     6
  9
$SURFTAB2
 70
     6
  9
$SURFTYPE
 70
     6
  9
$SURFU
 70
     6
  9
$SURFV
 70
     6
  9
$UCSBASE
  2

  9
$UCSNAME
  2

  9
$UCSORG
 10
0.0
 20
0.0
 30
0.0
  9
$UCSXDIR
 10
1.0
 20
0.0
 30
0.0
  9
$UCSYDIR
 10
0.0
 20
1.0
 30
0.0
  9
$UCSORTHOREF
  2

  9
$UCSORTHOVIEW
 70
     0
  9
$UCSORGTOP
 10
0.0
 20
0.0
 30
0.0
  9
$UCSORGBOTTOM
 10
0.0
 20
0.0
 30
0.0
  9
$UCSORGLEFT
 10
0.0
 20
0.0
 30
0.0
  9
$UCSORGRIGHT
 10
0.0
 20
0.0
 30
0.0
  9
$UCSORGFRONT
 10
0.0
 20
0.0
 30
0.0
  9
$UCSORGBACK
 10
0.0
 20
0.0
 30
0.0
  9
$PUCSBASE
  2

  9
$PUCSNAME
  2

  9
$PUCSORG
 10
0.0
 20
0.0
 30
0.0
  9
$PUCSXDIR
 10
1.0
 20
0.0
 30
0.0
  9
$PUCSYDIR
 10
0.0
 20
1.0
 30
0.0
  9
$PUCSORTHOREF
  2

  9
$PUCSORTHOVIEW
 70
     0
  9
$PUCSORGTOP
 10
0.0
 20
0.0
 30
0.0
  9
$PUCSORGBOTTOM
 10
0.0
 20
0.0
 30
0.0
  9
$PUCSORGLEFT
 10
0.0
 20
0.0
 30
0.0
  9
$PUCSORGRIGHT
 10
0.0
 20
0.0
 30
0.0
  9
$PUCSORGFRONT
 10
0.0
 20
0.0
 30
0.0
  9
$PUCSORGBACK
 10
0.0
 20
0.0
 30
0.0
  9
$USERI1
 70
     0
  9
$USERI2
 70
     0
  9
$USERI3
 70
     0
  9
$USERI4
 70
     0
  9
$USERI5
 70
     0
  9
$USERR1
 40
0.0
  9
$USERR2
 40
0.0
  9
$USERR3
 40
0.0
  9
$USERR4
 40
0.0
  9
$USERR5
 40
0.0
  9
$WORLDVIEW
 70
     1
  9
$SHADEDGE
 70
     3
  9
$SHADEDIF
 70
    70
  9
$TILEMODE
 70
     1
  9
$MAXACTVP
 70
    16
  9
$PINSBASE
 10
0.0
 20
0.0
 30
0.0
  9
$PLIMCHECK
 70
     0
  9
$PEXTMIN
 10
1.000000000000000E+20
 20
1.000000000000000E+20
 30
1.000000000000000E+20
  9
$PEXTMAX
 10
-1.000000000000000E+20
 20
-1.000000000000000E+20
 30
-1.000000000000000E+20
  9
$PLIMMIN
 10
0.0
 20
0.0
  9
$PLIMMAX
 10
420.0
 20
297.0
  9
$UNITMODE
 70
     0
  9
$VISRETAIN
 70
     0
  9
$PLINEGEN
 70
     0
  9
$PSLTSCALE
 70
     0
  9
$TREEDEPTH
 70
  3020
  9
$CMLSTYLE
  2
STANDARD
  9
$CMLJUST
 70
     0
  9
$CMLSCALE
 40
1.0
  9
$PROXYGRAPHICS
 70
     1
  9
$MEASUREMENT
 70
     1
  9
$CELWEIGHT
370
    -1
  9
$ENDCAPS
280
     0
  9
$JOINSTYLE
280
     0
  9
$LWDISPLAY
290
     0
  9
$INSUNITS
 70
     0
  9
$HYPERLINKBASE
  1

  9
$STYLESHEET
  1
inaba.ctb
  9
$XEDIT
290
     1
  9
$CEPSNTYPE
380
     0
  9
$PSTYLEMODE
290
     1
  9
$FINGERPRINTGUID
  2
{E32A8B69-1CCA-4453-BE11-F8164FE4E77E}
  9
$VERSIONGUID
  2
{F4AD51A6-CA63-473E-9582-B6F85610C6B2}
  9
$EXTNAMES
290
     1
  9
$PSVPSCALE
 40
0.0
  9
$OLESTARTUP
290
     0
  0
ENDSEC
  0
SECTION
  2
CLASSES
  0
CLASS
  1
ACDBDICTIONARYWDFLT
  2
AcDbDictionaryWithDefault
  3
ObjectDBX Classes
 90
        0
280
     0
281
     0
  0
CLASS
  1
DICTIONARYVAR
  2
AcDbDictionaryVar
  3
ObjectDBX Classes
 90
        0
280
     0
281
     0
  0
CLASS
  1
ACDBPLACEHOLDER
  2
AcDbPlaceHolder
  3
ObjectDBX Classes
 90
        0
280
     0
281
     0
  0
CLASS
  1
LAYOUT
  2
AcDbLayout
  3
ObjectDBX Classes
 90
        0
280
     0
281
     0
  0
ENDSEC
  0
SECTION
  2
TABLES
  0
TABLE
  2
VPORT
  5
746D
330
0
100
AcDbSymbolTable
 70
     2
  0
VPORT
  5
18489
330
746D
100
AcDbSymbolTableRecord
100
AcDbViewportTableRecord
  2
*Active
 70
     0
 10
0.0
 20
0.0
 11
1.0
 21
1.0
 12
8223.761025238504
 22
5704.608037261908
 13
0.0
 23
0.0
 14
10.0
 24
10.0
 15
10.0
 25
10.0
 16
0.0
 26
0.0
 36
1.0
 17
0.0
 27
0.0
 37
0.0
 40
11495.08541324274
 41
1.525925925925925
 42
50.0
 43
0.0
 44
0.0
 50
0.0
 51
0.0
 71
     0
 72
     0
 73
     1
 74
     0
 75
     0
 76
     0
 77
     0
 78
     0
281
     0
 65
     1
110
0.0
120
0.0
130
0.0
111
1.0
121
0.0
131
0.0
112
0.0
122
1.0
132
0.0
 79
     0
146
0.0
  0
ENDTAB
  0
TABLE
  2
LTYPE
  5
746A
330
0
100
AcDbSymbolTable
 70
     4
  0
LTYPE
  5
7477
330
746A
100
AcDbSymbolTableRecord
100
AcDbLinetypeTableRecord
  2
BYBLOCK
 70
     0
  3

 72
    65
 73
     0
 40
0.0
  0
LTYPE
  5
7478
330
746A
100
AcDbSymbolTableRecord
100
AcDbLinetypeTableRecord
  2
BYLAYER
 70
     0
  3

 72
    65
 73
     0
 40
0.0
  0
LTYPE
  5
7479
330
746A
100
AcDbSymbolTableRecord
100
AcDbLinetypeTableRecord
  2
CONTINUOUS
 70
     0
  3
Solid line
 72
    65
 73
     0
 40
0.0
  0
LTYPE
  5
7816
330
746A
100
AcDbSymbolTableRecord
100
AcDbLinetypeTableRecord
  2
CENTER
 70
     0
  3
____ _ ____ _ ____ _ ____ _ ____ _ ____ _ ____ 
 72
    65
 73
     4
 40
2.0
 49
1.25
 74
     0
 49
-0.25
 74
     0
 49
0.25
 74
     0
 49
-0.25
 74
     0
  0
LTYPE
  5
781A
330
746A
100
AcDbSymbolTableRecord
100
AcDbLinetypeTableRecord
  2
HIDDEN
 70
     0
  3
__ __ __ __ __ __ __ __ __ __ __ __ __ __ __ __
 72
    65
 73
     2
 40
0.375
 49
0.25
 74
     0
 49
-0.125
 74
     0
  0
LTYPE
  5
781B
330
746A
100
AcDbSymbolTableRecord
100
AcDbLinetypeTableRecord
  2
PHANTOM
 70
     0
  3
______  __  __  ______  __  __  ______  __  __ 
 72
    65
 73
     6
 40
2.5
 49
1.25
 74
     0
 49
-0.25
 74
     0
 49
0.25
 74
     0
 49
-0.25
 74
     0
 49
0.25
 74
     0
 49
-0.25
 74
     0
  0
ENDTAB
  0
TABLE
  2
LAYER
  5
7467
102
{ACAD_XDICTIONARY
360
162B5
102
}
330
0
100
AcDbSymbolTable
 70
    12
  0
LAYER
  5
7474
330
7467
100
AcDbSymbolTableRecord
100
AcDbLayerTableRecord
  2
0
 70
     0
 62
     7
  6
CONTINUOUS
370
    -3
390
16118
  0
LAYER
  5
DEB2
330
7467
100
AcDbSymbolTableRecord
100
AcDbLayerTableRecord
  2
センター
 70
     0
 62
     3
  6
CENTER
370
    -3
390
16118
  0
LAYER
  5
DEB3
330
7467
100
AcDbSymbolTableRecord
100
AcDbLayerTableRecord
  2
寸法
 70
     0
 62
     4
  6
CONTINUOUS
370
    -3
390
16118
  0
LAYER
  5
DEB4
330
7467
100
AcDbSymbolTableRecord
100
AcDbLayerTableRecord
  2
部品1
 70
     0
 62
     7
  6
CONTINUOUS
370
    -3
390
16118
  0
LAYER
  5
DEB5
330
7467
100
AcDbSymbolTableRecord
100
AcDbLayerTableRecord
  2
補助
 70
     0
 62
    -1
  6
CONTINUOUS
370
    -3
390
16118
  0
LAYER
  5
DEB6
330
7467
100
AcDbSymbolTableRecord
100
AcDbLayerTableRecord
  2
文字
 70
     0
 62
     7
  6
CONTINUOUS
370
    -3
390
16118
  0
LAYER
  5
F255
330
7467
100
AcDbSymbolTableRecord
100
AcDbLayerTableRecord
  2
DEFPOINTS
 70
     0
 62
     7
  6
CONTINUOUS
290
     0
370
    -3
390
16118
  0
LAYER
  5
10B54
330
7467
100
AcDbSymbolTableRecord
100
AcDbLayerTableRecord
  2
仕様書枠
 70
     0
 62
   230
  6
CONTINUOUS
370
    -3
390
16118
  0
LAYER
  5
11729
330
7467
100
AcDbSymbolTableRecord
100
AcDbLayerTableRecord
  2
Ｇ．Ｌ
 70
     0
 62
    30
  6
CONTINUOUS
370
    -3
390
16118
  0
LAYER
  5
1173F
330
7467
100
AcDbSymbolTableRecord
100
AcDbLayerTableRecord
  2
細線
 70
     0
 62
     5
  6
CONTINUOUS
370
    -3
390
16118
  0
LAYER
  5
12CC4
330
7467
100
AcDbSymbolTableRecord
100
AcDbLayerTableRecord
  2
想像線
 70
     0
 62
     6
  6
PHANTOM
370
    -3
390
16118
  0
LAYER
  5
142E2
330
7467
100
AcDbSymbolTableRecord
100
AcDbLayerTableRecord
  2
破線
 70
     0
 62
     2
  6
HIDDEN
370
    -3
390
16118
  0
ENDTAB
  0
TABLE
  2
STYLE
  5
7468
330
0
100
AcDbSymbolTable
 70
     4
  0
STYLE
  5
7475
330
7468
100
AcDbSymbolTableRecord
100
AcDbTextStyleTableRecord
  2
STANDARD
 70
     0
 40
0.0
 41
1.0
 50
0.0
 71
     0
 42
4.0
  3
txt
  4
C:\AutoCAD LT\bigfont.shx
  0
STYLE
  5
F706
330
7468
100
AcDbSymbolTableRecord
100
AcDbTextStyleTableRecord
  2
STYLE1
 70
     0
 40
0.0
 41
1.0
 50
0.0
 71
     0
 42
4.0
  3
isocp.shx
  4
bigfont.shx
  0
STYLE
  5
103BF
330
7468
100
AcDbSymbolTableRecord
100
AcDbTextStyleTableRecord
  2
STYLE2
 70
     0
 40
0.0
 41
1.0
 50
0.0
 71
     0
 42
100.0
  3
MS PGothic.ttf
  4

1001
ACAD
1000
MS PGothic
1071
    32818
  0
STYLE
  5
17D6F
330
7468
100
AcDbSymbolTableRecord
100
AcDbTextStyleTableRecord
  2
STYLE3
 70
     0
 40
0.0
 41
1.0
 50
0.0
 71
     0
 42
100.0
  3
DFPGothic-EB.ttf
  4

1001
ACAD
1000
DFPGothic-EB
1071
    32818
  0
ENDTAB
  0
TABLE
  2
VIEW
  5
746B
330
0
100
AcDbSymbolTable
 70
     0
  0
ENDTAB
  0
TABLE
  2
UCS
  5
746C
330
0
100
AcDbSymbolTable
 70
     0
  0
ENDTAB
  0
TABLE
  2
APPID
  5
746E
330
0
100
AcDbSymbolTable
 70
     6
  0
APPID
  5
7476
330
746E
100
AcDbSymbolTableRecord
100
AcDbRegAppTableRecord
  2
ACAD
 70
     0
  0
APPID
  5
DEA9
330
746E
100
AcDbSymbolTableRecord
100
AcDbRegAppTableRecord
  2
CONTENTBLOCKICON
 70
     0
  0
APPID
  5
DEAA
330
746E
100
AcDbSymbolTableRecord
100
AcDbRegAppTableRecord
  2
CONTENTBLOCKDESCRIPTION
 70
     0
  0
APPID
  5
E71D
330
746E
100
AcDbSymbolTableRecord
100
AcDbRegAppTableRecord
  2
CONTENTTABDATA
 70
     0
  0
APPID
  5
E71E
330
746E
100
AcDbSymbolTableRecord
100
AcDbRegAppTableRecord
  2
CONTENTCURRENTTAB
 70
     0
  0
APPID
  5
F3BA
330
746E
100
AcDbSymbolTableRecord
100
AcDbRegAppTableRecord
  2
DRAWINGVARIABLESXDATA
 70
     0
  0
ENDTAB
  0
TABLE
  2
DIMSTYLE
  5
746F
330
0
100
AcDbSymbolTable
 70
     5
100
AcDbDimStyleTable
 71
     0
  0
DIMSTYLE
105
7484
330
746F
100
AcDbSymbolTableRecord
100
AcDbDimStyleTableRecord
  2
JIS
 70
     0
 41
2.5
 42
1.0
 43
7.0
 44
1.0
 73
     0
 74
     0
 77
     1
 78
     8
140
2.5
141
0.0
143
0.0394
147
0.0
172
     1
174
     1
175
     1
340
7475
  0
DIMSTYLE
105
F71F
102
{ACAD_REACTORS
330
16634
330
16637
330
16638
330
16639
330
1663A
330
1663B
330
1663E
330
16650
330
16653
330
1666C
330
1666E
330
16685
330
16790
330
16791
330
16792
330
167FB
330
16ECD
330
16ED1
330
16ED2
330
16EEC
330
16EED
330
16EEE
330
16EEF
330
16F04
330
16F12
330
16F13
330
16F14
330
16F15
330
1810C
330
18206
102
}
330
746F
100
AcDbSymbolTableRecord
100
AcDbDimStyleTableRecord
  2
INABA_S40G
 70
     0
 40
40.0
 41
2.5
 42
0.5
 43
7.0
 44
1.5
 73
     0
 74
     0
 77
     3
 78
     8
140
3.0
141
0.0
143
0.0394
147
1.0
172
     1
173
     1
174
     1
178
     7
271
     1
340
F706
341
F770
343
F770
344
F770
  0
DIMSTYLE
105
162B4
102
{ACAD_REACTORS
330
17E7B
330
1810D
102
}
330
746F
100
AcDbSymbolTableRecord
100
AcDbDimStyleTableRecord
  2
INABA_S40
 70
     0
 40
40.0
 41
2.5
 42
0.5
 43
7.0
 44
1.5
 73
     0
 74
     0
 77
     3
 78
     8
140
3.0
141
0.0
143
0.0394
147
1.0
172
     1
173
     1
174
     1
175
     1
178
     7
340
7475
  0
DIMSTYLE
105
17D70
330
746F
100
AcDbSymbolTableRecord
100
AcDbDimStyleTableRecord
  2
INABA_S50G
 70
     0
 41
125.0
 42
25.0
 43
7.0
 44
75.0
 73
     0
 74
     0
 77
     3
 78
     8
140
150.0
141
0.0
143
0.0394
147
25.0
172
     1
173
     1
174
     1
175
     1
178
     7
271
     1
340
F706
341
F770
343
F770
344
F770
  0
DIMSTYLE
105
1840F
330
746F
100
AcDbSymbolTableRecord
100
AcDbDimStyleTableRecord
  2
INABA_S20G
 70
     0
 40
20.0
 41
2.5
 42
0.5
 43
7.0
 44
1.5
 73
     0
 74
     0
 77
     3
 78
     8
140
3.0
141
0.0
143
0.0394
147
1.0
172
     1
173
     1
174
     1
178
     7
271
     1
340
F706
341
F770
343
F770
344
F770
  0
ENDTAB
  0
TABLE
  2
BLOCK_RECORD
  5
7466
330
0
100
AcDbSymbolTable
 70
    34
  0
BLOCK_RECORD
  5
747D
330
7466
100
AcDbSymbolTableRecord
100
AcDbBlockTableRecord
  2
*MODEL_SPACE
340
1611D
  0
BLOCK_RECORD
  5
747A
330
7466
100
AcDbSymbolTableRecord
100
AcDbBlockTableRecord
  2
*PAPER_SPACE
340
1611E
  0
BLOCK_RECORD
  5
F770
330
7466
100
AcDbSymbolTableRecord
100
AcDbBlockTableRecord
  2
_DOTSMALL
340
0
102
{BLKREFS
331
172AD
331
172AE
331
172B6
331
172B7
331
172C1
331
172C2
331
172CA
331
172CB
331
172D4
331
172D5
331
172DD
331
172DE
331
172E6
331
172E7
331
172F0
331
172F1
331
172FB
331
172FC
331
17305
331
17306
331
1730E
331
1730F
331
17317
331
17318
331
1732D
331
1732E
331
17336
331
17337
331
17341
331
17342
331
1734A
331
1734B
331
1735C
331
1735D
331
173D0
331
173D1
331
1836F
331
18370
331
18383
331
18384
331
18395
331
18396
331
1839E
331
1839F
331
183A7
331
183A8
331
183B2
331
183B3
331
183BB
331
183BC
331
183C6
331
183C7
331
183D1
331
183D2
331
183DC
331
183DD
331
183E5
331
183E6
331
18400
331
18401
102
}
  0
BLOCK_RECORD
  5
16126
330
7466
100
AcDbSymbolTableRecord
100
AcDbBlockTableRecord
  2
_DOT
340
0
102
{BLKREFS
331
1837A
331
1837B
331
1838C
331
1838D
102
}
  0
BLOCK_RECORD
  5
16922
330
7466
100
AcDbSymbolTableRecord
100
AcDbBlockTableRecord
  2
*D2
340
0
  0
BLOCK_RECORD
  5
1692E
330
7466
100
AcDbSymbolTableRecord
100
AcDbBlockTableRecord
  2
*D3
340
0
  0
BLOCK_RECORD
  5
1693A
330
7466
100
AcDbSymbolTableRecord
100
AcDbBlockTableRecord
  2
*D4
340
0
  0
BLOCK_RECORD
  5
16946
330
7466
100
AcDbSymbolTableRecord
100
AcDbBlockTableRecord
  2
*D5
340
0
  0
BLOCK_RECORD
  5
16954
330
7466
100
AcDbSymbolTableRecord
100
AcDbBlockTableRecord
  2
*D6
340
0
  0
BLOCK_RECORD
  5
16962
330
7466
100
AcDbSymbolTableRecord
100
AcDbBlockTableRecord
  2
*D7
340
0
  0
BLOCK_RECORD
  5
16970
330
7466
100
AcDbSymbolTableRecord
100
AcDbBlockTableRecord
  2
*D8
340
0
  0
BLOCK_RECORD
  5
16988
330
7466
100
AcDbSymbolTableRecord
100
AcDbBlockTableRecord
  2
*D9
340
0
  0
BLOCK_RECORD
  5
16996
330
7466
100
AcDbSymbolTableRecord
100
AcDbBlockTableRecord
  2
*D10
340
0
  0
BLOCK_RECORD
  5
169A2
330
7466
100
AcDbSymbolTableRecord
100
AcDbBlockTableRecord
  2
*D11
340
0
  0
BLOCK_RECORD
  5
169AE
330
7466
100
AcDbSymbolTableRecord
100
AcDbBlockTableRecord
  2
*D12
340
0
  0
BLOCK_RECORD
  5
169BA
330
7466
100
AcDbSymbolTableRecord
100
AcDbBlockTableRecord
  2
*D13
340
0
  0
BLOCK_RECORD
  5
169D2
330
7466
100
AcDbSymbolTableRecord
100
AcDbBlockTableRecord
  2
*D14
340
0
  0
BLOCK_RECORD
  5
169DE
330
7466
100
AcDbSymbolTableRecord
100
AcDbBlockTableRecord
  2
*D15
340
0
  0
BLOCK_RECORD
  5
169EC
330
7466
100
AcDbSymbolTableRecord
100
AcDbBlockTableRecord
  2
*D16
340
0
  0
BLOCK_RECORD
  5
169F8
330
7466
100
AcDbSymbolTableRecord
100
AcDbBlockTableRecord
  2
*D17
340
0
  0
BLOCK_RECORD
  5
17031
330
7466
100
AcDbSymbolTableRecord
100
AcDbBlockTableRecord
  2
*D18
340
0
  0
BLOCK_RECORD
  5
1703D
330
7466
100
AcDbSymbolTableRecord
100
AcDbBlockTableRecord
  2
*D19
340
0
  0
BLOCK_RECORD
  5
17049
330
7466
100
AcDbSymbolTableRecord
100
AcDbBlockTableRecord
  2
*D20
340
0
  0
BLOCK_RECORD
  5
17056
330
7466
100
AcDbSymbolTableRecord
100
AcDbBlockTableRecord
  2
*D21
340
0
  0
BLOCK_RECORD
  5
17064
330
7466
100
AcDbSymbolTableRecord
100
AcDbBlockTableRecord
  2
*D22
340
0
  0
BLOCK_RECORD
  5
17071
330
7466
100
AcDbSymbolTableRecord
100
AcDbBlockTableRecord
  2
*D23
340
0
  0
BLOCK_RECORD
  5
1707D
330
7466
100
AcDbSymbolTableRecord
100
AcDbBlockTableRecord
  2
*D24
340
0
  0
BLOCK_RECORD
  5
17089
330
7466
100
AcDbSymbolTableRecord
100
AcDbBlockTableRecord
  2
*D25
340
0
  0
BLOCK_RECORD
  5
17096
330
7466
100
AcDbSymbolTableRecord
100
AcDbBlockTableRecord
  2
*D26
340
0
  0
BLOCK_RECORD
  5
170A2
330
7466
100
AcDbSymbolTableRecord
100
AcDbBlockTableRecord
  2
*D27
340
0
  0
BLOCK_RECORD
  5
170B0
330
7466
100
AcDbSymbolTableRecord
100
AcDbBlockTableRecord
  2
*D28
340
0
  0
BLOCK_RECORD
  5
170BC
330
7466
100
AcDbSymbolTableRecord
100
AcDbBlockTableRecord
  2
*D29
340
0
  0
BLOCK_RECORD
  5
17EE6
330
7466
100
AcDbSymbolTableRecord
100
AcDbBlockTableRecord
  2
*D30
340
0
  0
BLOCK_RECORD
  5
18215
330
7466
100
AcDbSymbolTableRecord
100
AcDbBlockTableRecord
  2
*D31
340
0
  0
BLOCK_RECORD
  5
18221
330
7466
100
AcDbSymbolTableRecord
100
AcDbBlockTableRecord
  2
*D32
340
0
  0
BLOCK_RECORD
  5
1826D
330
7466
100
AcDbSymbolTableRecord
100
AcDbBlockTableRecord
  2
*D33
340
0
  0
ENDTAB
  0
ENDSEC
  0
SECTION
  2
BLOCKS
  0
BLOCK
  5
7489
330
747D
100
AcDbEntity
  8
0
100
AcDbBlockBegin
  2
*MODEL_SPACE
 70
     0
 10
0.0
 20
0.0
 30
0.0
  3
*MODEL_SPACE
  1

  0
ENDBLK
  5
748A
330
747D
100
AcDbEntity
  8
0
100
AcDbBlockEnd
  0
BLOCK
  5
7487
330
747A
100
AcDbEntity
 67
     1
  8
0
100
AcDbBlockBegin
  2
*PAPER_SPACE
 70
     0
 10
0.0
 20
0.0
 30
0.0
  3
*PAPER_SPACE
  1

  0
ENDBLK
  5
7488
330
747A
100
AcDbEntity
 67
     1
  8
0
100
AcDbBlockEnd
  0
BLOCK
  5
F771
330
F770
100
AcDbEntity
  8
0
 48
50.0
100
AcDbBlockBegin
  2
_DOTSMALL
 70
     0
 10
0.0
 20
0.0
 30
0.0
  3
_DOTSMALL
  1

  0
LWPOLYLINE
  5
F772
330
F770
100
AcDbEntity
  8
0
  6
ByBlock
 62
     0
 48
50.0
100
AcDbPolyline
 90
        2
 70
     1
 43
0.5
 10
-0.0625
 20
0.0
 42
1.0
 10
0.0625
 20
0.0
 42
1.0
  0
ENDBLK
  5
F776
330
F770
100
AcDbEntity
  8
0
 48
50.0
100
AcDbBlockEnd
  0
BLOCK
  5
16127
330
16126
100
AcDbEntity
  8
0
 48
50.0
100
AcDbBlockBegin
  2
_DOT
 70
     0
 10
0.0
 20
0.0
 30
0.0
  3
_DOT
  1

  0
LWPOLYLINE
  5
16128
330
16126
100
AcDbEntity
  8
0
  6
ByBlock
 62
     0
 48
50.0
100
AcDbPolyline
 90
        2
 70
     1
 43
0.5
 10
-0.25
 20
0.0
 42
1.0
 10
0.25
 20
0.0
 42
1.0
  0
LINE
  5
16129
330
16126
100
AcDbEntity
  8
0
  6
ByBlock
 62
     0
 48
50.0
100
AcDbLine
 10
-0.5
 20
0.0
 30
0.0
 11
-1.0
 21
0.0
 31
0.0
  0
ENDBLK
  5
1612A
330
16126
100
AcDbEntity
  8
0
 48
50.0
100
AcDbBlockEnd
  0
BLOCK
  5
1692C
330
16922
100
AcDbEntity
  8
0
 48
50.0
100
AcDbBlockBegin
  2
*D2
 70
     1
 10
0.0
 20
0.0
 30
0.0
  3
*D2
  1

  0
LINE
  5
173CD
330
16922
100
AcDbEntity
  8
寸法
 62
     0
 48
50.0
370
    -2
100
AcDbLine
 10
9239.402465285774
 20
2217.225613616782
 30
0.0
 11
9239.402465285774
 21
1891.178284316405
 31
0.0
  0
LINE
  5
173CE
330
16922
100
AcDbEntity
  8
寸法
 62
     0
 48
50.0
370
    -2
100
AcDbLine
 10
9039.402465285773
 20
2217.225613616782
 30
0.0
 11
9039.402465285773
 21
1891.178284316405
 31
0.0
  0
LINE
  5
173CF
330
16922
100
AcDbEntity
  8
寸法
 62
     0
 48
50.0
370
    -2
100
AcDbLine
 10
9239.402465285774
 20
1951.178284316404
 30
0.0
 11
9039.402465285773
 21
1951.178284316404
 31
0.0
  0
INSERT
  5
173D0
330
16922
100
AcDbEntity
  8
寸法
 62
     0
 48
50.0
370
    -2
100
AcDbBlockReference
  2
_DOTSMALL
 10
9239.402465285774
 20
1951.178284316404
 30
0.0
 41
100.0
 42
100.0
 43
100.0
  0
INSERT
  5
173D1
330
16922
100
AcDbEntity
  8
寸法
 62
     0
 48
50.0
370
    -2
100
AcDbBlockReference
  2
_DOTSMALL
 10
9039.402465285773
 20
1951.178284316404
 30
0.0
 41
100.0
 42
100.0
 43
100.0
 50
180.0
  0
MTEXT
  5
173D2
330
16922
100
AcDbEntity
  8
寸法
 62
     7
 48
50.0
100
AcDbMText
 10
9139.402465285774
 20
2051.190095340027
 30
0.0
 40
120.0
 41
0.0
 71
     5
 72
     1
  1
\A1;200
  7
STYLE1
 73
     1
 44
1.0
1001
ACAD
1000
MTEXTBEGIN
1070
    73
1070
     1
1070
    44
1040
1.0
1070
    74
1070
     0
1000
MTEXTEND
  0
POINT
  5
173D3
330
16922
100
AcDbEntity
  8
DEFPOINTS
 62
     0
 48
50.0
100
AcDbPoint
 10
9239.402465285774
 20
2237.225613616782
 30
0.0
  0
POINT
  5
173D4
330
16922
100
AcDbEntity
  8
DEFPOINTS
 62
     0
 48
50.0
100
AcDbPoint
 10
9039.402465285773
 20
2237.225613616782
 30
0.0
  0
POINT
  5
173D5
330
16922
100
AcDbEntity
  8
DEFPOINTS
 62
     0
 48
50.0
100
AcDbPoint
 10
9039.402465285773
 20
1951.178284316404
 30
0.0
  0
ENDBLK
  5
1692D
330
16922
100
AcDbEntity
  8
0
 48
50.0
100
AcDbBlockEnd
  0
BLOCK
  5
16938
330
1692E
100
AcDbEntity
  8
0
 48
50.0
100
AcDbBlockBegin
  2
*D3
 70
     1
 10
0.0
 20
0.0
 30
0.0
  3
*D3
  1

  0
LINE
  5
183FD
330
1692E
100
AcDbEntity
  8
寸法
 62
     0
 48
50.0
370
    -2
100
AcDbLine
 10
11369.40246528578
 20
9982.87121142247
 30
0.0
 11
12357.13991166555
 21
9982.871211422468
 31
0.0
  0
LINE
  5
183FE
330
1692E
100
AcDbEntity
  8
寸法
 62
     0
 48
50.0
370
    -2
100
AcDbLine
 10
11369.40246528575
 20
7772.871211422461
 30
0.0
 11
12357.13991166555
 21
7772.871211422461
 31
0.0
  0
LINE
  5
183FF
330
1692E
100
AcDbEntity
  8
寸法
 62
     0
 48
50.0
370
    -2
100
AcDbLine
 10
12297.13991166555
 20
9982.871211422468
 30
0.0
 11
12297.13991166555
 21
7772.871211422461
 31
0.0
  0
INSERT
  5
18400
330
1692E
100
AcDbEntity
  8
寸法
 62
     0
 48
50.0
370
    -2
100
AcDbBlockReference
  2
_DOTSMALL
 10
12297.13991166555
 20
9982.871211422468
 30
0.0
 41
100.0
 42
100.0
 43
100.0
 50
90.0
  0
INSERT
  5
18401
330
1692E
100
AcDbEntity
  8
寸法
 62
     0
 48
50.0
370
    -2
100
AcDbBlockReference
  2
_DOTSMALL
 10
12297.13991166555
 20
7772.871211422461
 30
0.0
 41
100.0
 42
100.0
 43
100.0
 50
270.0
  0
MTEXT
  5
18402
330
1692E
100
AcDbEntity
  8
寸法
 62
     7
 48
50.0
100
AcDbMText
 10
12197.12810064193
 20
8862.834240165248
 30
0.0
 40
120.0
 41
0.0
 71
     5
 72
     1
  1
\A1;2210
  7
STYLE1
 11
0.0000000000000001
 21
1.0
 31
0.0
 73
     1
 44
1.0
1001
ACAD
1000
MTEXTBEGIN
1070
    73
1070
     1
1070
    44
1040
1.0
1070
    74
1070
     0
1000
MTEXTEND
  0
POINT
  5
18403
330
1692E
100
AcDbEntity
  8
DEFPOINTS
 62
     0
 48
50.0
100
AcDbPoint
 10
11349.40246528578
 20
9982.87121142247
 30
0.0
  0
POINT
  5
18404
330
1692E
100
AcDbEntity
  8
DEFPOINTS
 62
     0
 48
50.0
100
AcDbPoint
 10
11349.40246528575
 20
7772.871211422461
 30
0.0
  0
POINT
  5
18405
330
1692E
100
AcDbEntity
  8
DEFPOINTS
 62
     0
 48
50.0
100
AcDbPoint
 10
12297.13991166555
 20
7772.871211422461
 30
0.0
  0
ENDBLK
  5
16939
330
1692E
100
AcDbEntity
  8
0
 48
50.0
100
AcDbBlockEnd
  0
BLOCK
  5
16944
330
1693A
100
AcDbEntity
  8
0
 48
50.0
100
AcDbBlockBegin
  2
*D4
 70
     1
 10
0.0
 20
0.0
 30
0.0
  3
*D4
  1

  0
LINE
  5
183E2
330
1693A
100
AcDbEntity
  8
寸法
 62
     0
 48
50.0
370
    -2
100
AcDbLine
 10
9194.402465285779
 20
10002.87121142237
 30
0.0
 11
9194.402465285779
 21
10345.91680599807
 31
0.0
  0
LINE
  5
183E3
330
1693A
100
AcDbEntity
  8
寸法
 62
     0
 48
50.0
370
    -2
100
AcDbLine
 10
11294.40246528578
 20
10002.87121142247
 30
0.0
 11
11294.40246528578
 21
10345.91680599807
 31
0.0
  0
LINE
  5
183E4
330
1693A
100
AcDbEntity
  8
寸法
 62
     0
 48
50.0
370
    -2
100
AcDbLine
 10
9194.402465285779
 20
10285.91680599807
 30
0.0
 11
11294.40246528578
 21
10285.91680599807
 31
0.0
  0
INSERT
  5
183E5
330
1693A
100
AcDbEntity
  8
寸法
 62
     0
 48
50.0
370
    -2
100
AcDbBlockReference
  2
_DOTSMALL
 10
9194.402465285779
 20
10285.91680599807
 30
0.0
 41
100.0
 42
100.0
 43
100.0
 50
180.0
  0
INSERT
  5
183E6
330
1693A
100
AcDbEntity
  8
寸法
 62
     0
 48
50.0
370
    -2
100
AcDbBlockReference
  2
_DOTSMALL
 10
11294.40246528578
 20
10285.91680599807
 30
0.0
 41
100.0
 42
100.0
 43
100.0
  0
MTEXT
  5
183E7
330
1693A
100
AcDbEntity
  8
寸法
 62
     7
 48
50.0
100
AcDbMText
 10
10244.40246528578
 20
10385.92861702169
 30
0.0
 40
120.0
 41
0.0
 71
     5
 72
     1
  1
\A1;5X420=2100
  7
STYLE1
 73
     1
 44
1.0
1001
ACAD
1000
MTEXTBEGIN
1070
    73
1070
     1
1070
    44
1040
1.0
1070
    74
1070
     0
1000
MTEXTEND
  0
POINT
  5
183E8
330
1693A
100
AcDbEntity
  8
DEFPOINTS
 62
     0
 48
50.0
100
AcDbPoint
 10
9194.402465285779
 20
9982.871211422375
 30
0.0
  0
POINT
  5
183E9
330
1693A
100
AcDbEntity
  8
DEFPOINTS
 62
     0
 48
50.0
100
AcDbPoint
 10
11294.40246528578
 20
9982.87121142247
 30
0.0
  0
POINT
  5
183EA
330
1693A
100
AcDbEntity
  8
DEFPOINTS
 62
     0
 48
50.0
100
AcDbPoint
 10
11294.40246528578
 20
10285.91680599807
 30
0.0
  0
ENDBLK
  5
16945
330
1693A
100
AcDbEntity
  8
0
 48
50.0
100
AcDbBlockEnd
  0
BLOCK
  5
16952
330
16946
100
AcDbEntity
  8
0
 48
50.0
100
AcDbBlockBegin
  2
*D5
 70
     1
 10
0.0
 20
0.0
 30
0.0
  3
*D5
  1

  0
LINE
  5
183D7
330
16946
100
AcDbEntity
  8
寸法
 62
     0
 48
50.0
370
    -2
100
AcDbLine
 10
11294.40246528578
 20
10002.87121142247
 30
0.0
 11
11294.40246528578
 21
10345.91680599805
 31
0.0
  0
LINE
  5
183D8
330
16946
100
AcDbEntity
  8
寸法
 62
     0
 48
50.0
370
    -2
100
AcDbLine
 10
11349.40246528578
 20
10002.87121142247
 30
0.0
 11
11349.40246528578
 21
10345.91680599805
 31
0.0
  0
LINE
  5
183D9
330
16946
100
AcDbEntity
  8
寸法
 62
     0
 48
50.0
370
    -2
100
AcDbLine
 10
11294.40246528578
 20
10285.91680599805
 30
0.0
 11
11194.40246528578
 21
10285.91680599805
 31
0.0
  0
LINE
  5
183DA
330
16946
100
AcDbEntity
  8
寸法
 62
     0
 48
50.0
370
    -2
100
AcDbLine
 10
11349.40246528578
 20
10285.91680599805
 30
0.0
 11
11766.37302803425
 21
10285.91680599805
 31
0.0
  0
LINE
  5
183DB
330
16946
100
AcDbEntity
  8
寸法
 62
     0
 48
50.0
370
    -2
100
AcDbLine
 10
11294.40246528578
 20
10285.91680599805
 30
0.0
 11
11349.40246528578
 21
10285.91680599805
 31
0.0
  0
INSERT
  5
183DC
330
16946
100
AcDbEntity
  8
寸法
 62
     0
 48
50.0
370
    -2
100
AcDbBlockReference
  2
_DOTSMALL
 10
11294.40246528578
 20
10285.91680599805
 30
0.0
 41
100.0
 42
100.0
 43
100.0
  0
INSERT
  5
183DD
330
16946
100
AcDbEntity
  8
寸法
 62
     0
 48
50.0
370
    -2
100
AcDbBlockReference
  2
_DOTSMALL
 10
11349.40246528578
 20
10285.91680599805
 30
0.0
 41
100.0
 42
100.0
 43
100.0
 50
180.0
  0
MTEXT
  5
183DE
330
16946
100
AcDbEntity
  8
寸法
 62
     7
 48
50.0
100
AcDbMText
 10
11657.88774666002
 20
10385.91680599805
 30
0.0
 40
120.0
 41
0.0
 71
     5
 72
     1
  1
\A1;55
  7
STYLE1
 73
     1
 44
1.0
1001
ACAD
1000
MTEXTBEGIN
1070
    73
1070
     1
1070
    44
1040
1.0
1070
    74
1070
     0
1000
MTEXTEND
  0
POINT
  5
183DF
330
16946
100
AcDbEntity
  8
DEFPOINTS
 62
     0
 48
50.0
100
AcDbPoint
 10
11294.40246528578
 20
9982.87121142247
 30
0.0
  0
POINT
  5
183E0
330
16946
100
AcDbEntity
  8
DEFPOINTS
 62
     0
 48
50.0
100
AcDbPoint
 10
11349.40246528578
 20
9982.87121142247
 30
0.0
  0
POINT
  5
183E1
330
16946
100
AcDbEntity
  8
DEFPOINTS
 62
     0
 48
50.0
100
AcDbPoint
 10
11349.40246528578
 20
10285.91680599805
 30
0.0
  0
ENDBLK
  5
16953
330
16946
100
AcDbEntity
  8
0
 48
50.0
100
AcDbBlockEnd
  0
BLOCK
  5
16960
330
16954
100
AcDbEntity
  8
0
 48
50.0
100
AcDbBlockBegin
  2
*D6
 70
     1
 10
0.0
 20
0.0
 30
0.0
  3
*D6
  1

  0
LINE
  5
183CC
330
16954
100
AcDbEntity
  8
寸法
 62
     0
 48
50.0
370
    -2
100
AcDbLine
 10
11369.40246528578
 20
9982.87121142247
 30
0.0
 11
12056.82881102019
 21
9982.87121142247
 31
0.0
  0
LINE
  5
183CD
330
16954
100
AcDbEntity
  8
寸法
 62
     0
 48
50.0
370
    -2
100
AcDbLine
 10
11369.40246528578
 20
9927.871211422473
 30
0.0
 11
12056.82881102019
 21
9927.871211422473
 31
0.0
  0
LINE
  5
183CE
330
16954
100
AcDbEntity
  8
寸法
 62
     0
 48
50.0
370
    -2
100
AcDbLine
 10
11996.82881102019
 20
9927.871211422473
 30
0.0
 11
11996.82881102019
 21
9827.871211422474
 31
0.0
  0
LINE
  5
183CF
330
16954
100
AcDbEntity
  8
寸法
 62
     0
 48
50.0
370
    -2
100
AcDbLine
 10
11996.82881102019
 20
9982.87121142247
 30
0.0
 11
11996.82881102019
 21
10399.84177417094
 31
0.0
  0
LINE
  5
183D0
330
16954
100
AcDbEntity
  8
寸法
 62
     0
 48
50.0
370
    -2
100
AcDbLine
 10
11996.82881102019
 20
9927.871211422473
 30
0.0
 11
11996.82881102019
 21
9982.87121142247
 31
0.0
  0
INSERT
  5
183D1
330
16954
100
AcDbEntity
  8
寸法
 62
     0
 48
50.0
370
    -2
100
AcDbBlockReference
  2
_DOTSMALL
 10
11996.82881102019
 20
9927.871211422473
 30
0.0
 41
100.0
 42
100.0
 43
100.0
 50
90.0
  0
INSERT
  5
183D2
330
16954
100
AcDbEntity
  8
寸法
 62
     0
 48
50.0
370
    -2
100
AcDbBlockReference
  2
_DOTSMALL
 10
11996.82881102019
 20
9982.87121142247
 30
0.0
 41
100.0
 42
100.0
 43
100.0
 50
270.0
  0
MTEXT
  5
183D3
330
16954
100
AcDbEntity
  8
寸法
 62
     7
 48
50.0
100
AcDbMText
 10
11896.82881102019
 20
10291.35649279671
 30
0.0
 40
120.0
 41
0.0
 71
     5
 72
     1
  1
\A1;55
  7
STYLE1
 11
0.0000000000000001
 21
1.0
 31
0.0
 73
     1
 44
1.0
1001
ACAD
1000
MTEXTBEGIN
1070
    73
1070
     1
1070
    44
1040
1.0
1070
    74
1070
     0
1000
MTEXTEND
  0
POINT
  5
183D4
330
16954
100
AcDbEntity
  8
DEFPOINTS
 62
     0
 48
50.0
100
AcDbPoint
 10
11349.40246528578
 20
9982.87121142247
 30
0.0
  0
POINT
  5
183D5
330
16954
100
AcDbEntity
  8
DEFPOINTS
 62
     0
 48
50.0
100
AcDbPoint
 10
11349.40246528578
 20
9927.871211422473
 30
0.0
  0
POINT
  5
183D6
330
16954
100
AcDbEntity
  8
DEFPOINTS
 62
     0
 48
50.0
100
AcDbPoint
 10
11996.82881102019
 20
9927.871211422473
 30
0.0
  0
ENDBLK
  5
16961
330
16954
100
AcDbEntity
  8
0
 48
50.0
100
AcDbBlockEnd
  0
BLOCK
  5
1696E
330
16962
100
AcDbEntity
  8
0
 48
50.0
100
AcDbBlockBegin
  2
*D7
 70
     1
 10
0.0
 20
0.0
 30
0.0
  3
*D7
  1

  0
LINE
  5
183C1
330
16962
100
AcDbEntity
  8
寸法
 62
     0
 48
50.0
370
    -2
100
AcDbLine
 10
9139.402465285742
 20
10002.87121142237
 30
0.0
 11
9139.402465285742
 21
10345.91680599795
 31
0.0
  0
LINE
  5
183C2
330
16962
100
AcDbEntity
  8
寸法
 62
     0
 48
50.0
370
    -2
100
AcDbLine
 10
9194.402465285779
 20
10002.87121142237
 30
0.0
 11
9194.402465285779
 21
10345.91680599795
 31
0.0
  0
LINE
  5
183C3
330
16962
100
AcDbEntity
  8
寸法
 62
     0
 48
50.0
370
    -2
100
AcDbLine
 10
9194.402465285779
 20
10285.91680599795
 30
0.0
 11
9294.402465285779
 21
10285.91680599795
 31
0.0
  0
LINE
  5
183C4
330
16962
100
AcDbEntity
  8
寸法
 62
     0
 48
50.0
370
    -2
100
AcDbLine
 10
9139.402465285742
 20
10285.91680599795
 30
0.0
 11
8722.431902537266
 21
10285.91680599795
 31
0.0
  0
LINE
  5
183C5
330
16962
100
AcDbEntity
  8
寸法
 62
     0
 48
50.0
370
    -2
100
AcDbLine
 10
9194.402465285779
 20
10285.91680599795
 30
0.0
 11
9139.402465285742
 21
10285.91680599795
 31
0.0
  0
INSERT
  5
183C6
330
16962
100
AcDbEntity
  8
寸法
 62
     0
 48
50.0
370
    -2
100
AcDbBlockReference
  2
_DOTSMALL
 10
9194.402465285779
 20
10285.91680599795
 30
0.0
 41
100.0
 42
100.0
 43
100.0
 50
180.0
  0
INSERT
  5
183C7
330
16962
100
AcDbEntity
  8
寸法
 62
     0
 48
50.0
370
    -2
100
AcDbBlockReference
  2
_DOTSMALL
 10
9139.402465285742
 20
10285.91680599795
 30
0.0
 41
100.0
 42
100.0
 43
100.0
  0
MTEXT
  5
183C8
330
16962
100
AcDbEntity
  8
寸法
 62
     7
 48
50.0
100
AcDbMText
 10
8830.917183911504
 20
10385.91680599795
 30
0.0
 40
120.0
 41
0.0
 71
     5
 72
     1
  1
\A1;55
  7
STYLE1
 73
     1
 44
1.0
1001
ACAD
1000
MTEXTBEGIN
1070
    73
1070
     1
1070
    44
1040
1.0
1070
    74
1070
     0
1000
MTEXTEND
  0
POINT
  5
183C9
330
16962
100
AcDbEntity
  8
DEFPOINTS
 62
     0
 48
50.0
100
AcDbPoint
 10
9139.402465285742
 20
9982.871211422375
 30
0.0
  0
POINT
  5
183CA
330
16962
100
AcDbEntity
  8
DEFPOINTS
 62
     0
 48
50.0
100
AcDbPoint
 10
9194.402465285779
 20
9982.871211422375
 30
0.0
  0
POINT
  5
183CB
330
16962
100
AcDbEntity
  8
DEFPOINTS
 62
     0
 48
50.0
100
AcDbPoint
 10
9194.402465285779
 20
10285.91680599795
 30
0.0
  0
ENDBLK
  5
1696F
330
16962
100
AcDbEntity
  8
0
 48
50.0
100
AcDbBlockEnd
  0
BLOCK
  5
1697A
330
16970
100
AcDbEntity
  8
0
 48
50.0
100
AcDbBlockBegin
  2
*D8
 70
     1
 10
0.0
 20
0.0
 30
0.0
  3
*D8
  1

  0
LINE
  5
183B8
330
16970
100
AcDbEntity
  8
寸法
 62
     0
 48
50.0
370
    -2
100
AcDbLine
 10
9162.543481437158
 20
9482.871211422375
 30
0.0
 11
9073.044882280193
 21
9148.857892162348
 31
0.0
  0
LINE
  5
183B9
330
16970
100
AcDbEntity
  8
寸法
 62
     0
 48
50.0
370
    -2
100
AcDbLine
 10
10435.54348143717
 20
9482.871211422368
 30
0.0
 11
10346.0448822802
 21
9148.857892162348
 31
0.0
  0
LINE
  5
183BA
330
16970
100
AcDbEntity
  8
寸法
 62
     0
 48
50.0
370
    -2
100
AcDbLine
 10
9089.121833826061
 20
9208.857892162347
 30
0.0
 11
10362.12183382607
 21
9208.857892162347
 31
0.0
  0
INSERT
  5
183BB
330
16970
100
AcDbEntity
  8
寸法
 62
     0
 48
50.0
370
    -2
100
AcDbBlockReference
  2
_DOTSMALL
 10
9089.121833826061
 20
9208.857892162347
 30
0.0
 41
100.0
 42
100.0
 43
100.0
 50
180.0
  0
INSERT
  5
183BC
330
16970
100
AcDbEntity
  8
寸法
 62
     0
 48
50.0
370
    -2
100
AcDbBlockReference
  2
_DOTSMALL
 10
10362.12183382607
 20
9208.857892162347
 30
0.0
 41
100.0
 42
100.0
 43
100.0
  0
MTEXT
  5
183BD
330
16970
100
AcDbEntity
  8
寸法
 62
     7
 48
50.0
100
AcDbMText
 10
9701.557596566505
 20
9308.869703185971
 30
0.0
 40
120.0
 41
0.0
 71
     5
 72
     1
  1
\A1;1273
  7
STYLE1
 73
     1
 44
1.0
1001
ACAD
1000
MTEXTBEGIN
1070
    73
1070
     1
1070
    44
1040
1.0
1070
    74
1070
     0
1000
MTEXTEND
  0
POINT
  5
183BE
330
16970
100
AcDbEntity
  8
DEFPOINTS
 62
     0
 48
50.0
100
AcDbPoint
 10
9167.902465285779
 20
9502.871211422375
 30
0.0
  0
POINT
  5
183BF
330
16970
100
AcDbEntity
  8
DEFPOINTS
 62
     0
 48
50.0
100
AcDbPoint
 10
10440.90246528579
 20
9502.871211422368
 30
0.0
  0
POINT
  5
183C0
330
16970
100
AcDbEntity
  8
DEFPOINTS
 62
     0
 48
50.0
100
AcDbPoint
 10
10362.12183382607
 20
9208.857892162347
 30
0.0
  0
ENDBLK
  5
1697B
330
16970
100
AcDbEntity
  8
0
 48
50.0
100
AcDbBlockEnd
  0
BLOCK
  5
16994
330
16988
100
AcDbEntity
  8
0
 48
50.0
100
AcDbBlockBegin
  2
*D9
 70
     1
 10
0.0
 20
0.0
 30
0.0
  3
*D9
  1

  0
LINE
  5
183AD
330
16988
100
AcDbEntity
  8
寸法
 62
     0
 48
50.0
370
    -2
100
AcDbLine
 10
11369.40246528575
 20
7827.871211422458
 30
0.0
 11
12056.82881102016
 21
7827.871211422458
 31
0.0
  0
LINE
  5
183AE
330
16988
100
AcDbEntity
  8
寸法
 62
     0
 48
50.0
370
    -2
100
AcDbLine
 10
11369.40246528575
 20
7772.871211422461
 30
0.0
 11
12056.82881102016
 21
7772.871211422461
 31
0.0
  0
LINE
  5
183AF
330
16988
100
AcDbEntity
  8
寸法
 62
     0
 48
50.0
370
    -2
100
AcDbLine
 10
11996.82881102016
 20
7827.871211422458
 30
0.0
 11
11996.82881102016
 21
7927.871211422457
 31
0.0
  0
LINE
  5
183B0
330
16988
100
AcDbEntity
  8
寸法
 62
     0
 48
50.0
370
    -2
100
AcDbLine
 10
11996.82881102016
 20
7772.871211422461
 30
0.0
 11
11996.82881102016
 21
7286.524463143358
 31
0.0
  0
LINE
  5
183B1
330
16988
100
AcDbEntity
  8
寸法
 62
     0
 48
50.0
370
    -2
100
AcDbLine
 10
11996.82881102016
 20
7827.871211422458
 30
0.0
 11
11996.82881102016
 21
7772.871211422461
 31
0.0
  0
INSERT
  5
183B2
330
16988
100
AcDbEntity
  8
寸法
 62
     0
 48
50.0
370
    -2
100
AcDbBlockReference
  2
_DOTSMALL
 10
11996.82881102016
 20
7827.871211422458
 30
0.0
 41
100.0
 42
100.0
 43
100.0
 50
270.0
  0
INSERT
  5
183B3
330
16988
100
AcDbEntity
  8
寸法
 62
     0
 48
50.0
370
    -2
100
AcDbBlockReference
  2
_DOTSMALL
 10
11996.82881102016
 20
7772.871211422461
 30
0.0
 41
100.0
 42
100.0
 43
100.0
 50
90.0
  0
MTEXT
  5
183B4
330
16988
100
AcDbEntity
  8
寸法
 62
     7
 48
50.0
100
AcDbMText
 10
11896.82881102016
 20
7395.0097445176
 30
0.0
 40
120.0
 41
0.0
 71
     5
 72
     1
  1
\A1;55
  7
STYLE1
 11
0.0000000000000001
 21
1.0
 31
0.0
 73
     1
 44
1.0
1001
ACAD
1000
MTEXTBEGIN
1070
    73
1070
     1
1070
    44
1040
1.0
1070
    74
1070
     0
1000
MTEXTEND
  0
POINT
  5
183B5
330
16988
100
AcDbEntity
  8
DEFPOINTS
 62
     0
 48
50.0
100
AcDbPoint
 10
11349.40246528575
 20
7827.871211422458
 30
0.0
  0
POINT
  5
183B6
330
16988
100
AcDbEntity
  8
DEFPOINTS
 62
     0
 48
50.0
100
AcDbPoint
 10
11349.40246528575
 20
7772.871211422461
 30
0.0
  0
POINT
  5
183B7
330
16988
100
AcDbEntity
  8
DEFPOINTS
 62
     0
 48
50.0
100
AcDbPoint
 10
11996.82881102016
 20
7772.871211422461
 30
0.0
  0
ENDBLK
  5
16995
330
16988
100
AcDbEntity
  8
0
 48
50.0
100
AcDbBlockEnd
  0
BLOCK
  5
169A0
330
16996
100
AcDbEntity
  8
0
 48
50.0
100
AcDbBlockBegin
  2
*D10
 70
     1
 10
0.0
 20
0.0
 30
0.0
  3
*D10
  1

  0
LINE
  5
183A4
330
16996
100
AcDbEntity
  8
寸法
 62
     0
 48
50.0
370
    -2
100
AcDbLine
 10
10462.54348143715
 20
9482.87121142248
 30
0.0
 11
10373.25674018348
 21
9149.648556621505
 31
0.0
  0
LINE
  5
183A5
330
16996
100
AcDbEntity
  8
寸法
 62
     0
 48
50.0
370
    -2
100
AcDbLine
 10
11315.54348143716
 20
9482.871211422473
 30
0.0
 11
11226.25674018349
 21
9149.648556621505
 31
0.0
  0
LINE
  5
183A6
330
16996
100
AcDbEntity
  8
寸法
 62
     0
 48
50.0
370
    -2
100
AcDbLine
 10
10389.33369172934
 20
9209.648556621505
 30
0.0
 11
11242.33369172936
 21
9209.648556621505
 31
0.0
  0
INSERT
  5
183A7
330
16996
100
AcDbEntity
  8
寸法
 62
     0
 48
50.0
370
    -2
100
AcDbBlockReference
  2
_DOTSMALL
 10
10389.33369172934
 20
9209.648556621505
 30
0.0
 41
100.0
 42
100.0
 43
100.0
 50
180.0
  0
INSERT
  5
183A8
330
16996
100
AcDbEntity
  8
寸法
 62
     0
 48
50.0
370
    -2
100
AcDbBlockReference
  2
_DOTSMALL
 10
11242.33369172936
 20
9209.648556621505
 30
0.0
 41
100.0
 42
100.0
 43
100.0
  0
MTEXT
  5
183A9
330
16996
100
AcDbEntity
  8
寸法
 62
     7
 48
50.0
100
AcDbMText
 10
10847.24952740405
 20
9309.648556621505
 30
0.0
 40
120.0
 41
0.0
 71
     5
 72
     1
  1
\A1;853
  7
STYLE1
 73
     1
 44
1.0
1001
ACAD
1000
MTEXTBEGIN
1070
    73
1070
     1
1070
    44
1040
1.0
1070
    74
1070
     0
1000
MTEXTEND
  0
POINT
  5
183AA
330
16996
100
AcDbEntity
  8
DEFPOINTS
 62
     0
 48
50.0
100
AcDbPoint
 10
10467.90246528578
 20
9502.87121142248
 30
0.0
  0
POINT
  5
183AB
330
16996
100
AcDbEntity
  8
DEFPOINTS
 62
     0
 48
50.0
100
AcDbPoint
 10
11320.90246528579
 20
9502.871211422473
 30
0.0
  0
POINT
  5
183AC
330
16996
100
AcDbEntity
  8
DEFPOINTS
 62
     0
 48
50.0
100
AcDbPoint
 10
11242.33369172936
 20
9209.648556621505
 30
0.0
  0
ENDBLK
  5
169A1
330
16996
100
AcDbEntity
  8
0
 48
50.0
100
AcDbBlockEnd
  0
BLOCK
  5
169AC
330
169A2
100
AcDbEntity
  8
0
 48
50.0
100
AcDbBlockBegin
  2
*D11
 70
     1
 10
0.0
 20
0.0
 30
0.0
  3
*D11
  1

  0
LINE
  5
1839B
330
169A2
100
AcDbEntity
  8
寸法
 62
     0
 48
50.0
370
    -2
100
AcDbLine
 10
11340.90246528578
 20
9947.512227573847
 30
0.0
 11
11736.2601911478
 21
9841.576444207714
 31
0.0
  0
LINE
  5
1839C
330
169A2
100
AcDbEntity
  8
寸法
 62
     0
 48
50.0
370
    -2
100
AcDbLine
 10
11340.90246528578
 20
9497.512227573849
 30
0.0
 11
11736.2601911478
 21
9391.576444207716
 31
0.0
  0
LINE
  5
1839D
330
169A2
100
AcDbEntity
  8
寸法
 62
     0
 48
50.0
370
    -2
100
AcDbLine
 10
11676.2601911478
 20
9857.65339575358
 30
0.0
 11
11676.2601911478
 21
9407.653395753582
 31
0.0
  0
INSERT
  5
1839E
330
169A2
100
AcDbEntity
  8
寸法
 62
     0
 48
50.0
370
    -2
100
AcDbBlockReference
  2
_DOTSMALL
 10
11676.2601911478
 20
9857.65339575358
 30
0.0
 41
100.0
 42
100.0
 43
100.0
 50
90.0
  0
INSERT
  5
1839F
330
169A2
100
AcDbEntity
  8
寸法
 62
     0
 48
50.0
370
    -2
100
AcDbBlockReference
  2
_DOTSMALL
 10
11676.2601911478
 20
9407.653395753582
 30
0.0
 41
100.0
 42
100.0
 43
100.0
 50
270.0
  0
MTEXT
  5
183A0
330
169A2
100
AcDbEntity
  8
寸法
 62
     7
 48
50.0
100
AcDbMText
 10
11576.2601911478
 20
9632.653395753584
 30
0.0
 40
120.0
 41
0.0
 71
     5
 72
     1
  1
\A1;450
  7
STYLE1
 11
0.0000000000000001
 21
1.0
 31
0.0
 73
     1
 44
1.0
1001
ACAD
1000
MTEXTBEGIN
1070
    73
1070
     1
1070
    44
1040
1.0
1070
    74
1070
     0
1000
MTEXTEND
  0
POINT
  5
183A1
330
169A2
100
AcDbEntity
  8
DEFPOINTS
 62
     0
 48
50.0
100
AcDbPoint
 10
11320.90246528578
 20
9952.871211422468
 30
0.0
  0
POINT
  5
183A2
330
169A2
100
AcDbEntity
  8
DEFPOINTS
 62
     0
 48
50.0
100
AcDbPoint
 10
11320.90246528578
 20
9502.871211422473
 30
0.0
  0
POINT
  5
183A3
330
169A2
100
AcDbEntity
  8
DEFPOINTS
 62
     0
 48
50.0
100
AcDbPoint
 10
11676.2601911478
 20
9407.653395753582
 30
0.0
  0
ENDBLK
  5
169AD
330
169A2
100
AcDbEntity
  8
0
 48
50.0
100
AcDbBlockEnd
  0
BLOCK
  5
169B8
330
169AE
100
AcDbEntity
  8
0
 48
50.0
100
AcDbBlockBegin
  2
*D12
 70
     1
 10
0.0
 20
0.0
 30
0.0
  3
*D12
  1

  0
LINE
  5
18392
330
169AE
100
AcDbEntity
  8
寸法
 62
     0
 48
50.0
370
    -2
100
AcDbLine
 10
11369.40246528578
 20
9927.871211422473
 30
0.0
 11
12056.82881102019
 21
9927.871211422473
 31
0.0
  0
LINE
  5
18393
330
169AE
100
AcDbEntity
  8
寸法
 62
     0
 48
50.0
370
    -2
100
AcDbLine
 10
11369.40246528575
 20
7827.871211422458
 30
0.0
 11
12056.82881102019
 21
7827.871211422458
 31
0.0
  0
LINE
  5
18394
330
169AE
100
AcDbEntity
  8
寸法
 62
     0
 48
50.0
370
    -2
100
AcDbLine
 10
11996.82881102019
 20
9927.871211422473
 30
0.0
 11
11996.82881102019
 21
7827.871211422458
 31
0.0
  0
INSERT
  5
18395
330
169AE
100
AcDbEntity
  8
寸法
 62
     0
 48
50.0
370
    -2
100
AcDbBlockReference
  2
_DOTSMALL
 10
11996.82881102019
 20
9927.871211422473
 30
0.0
 41
100.0
 42
100.0
 43
100.0
 50
90.0
  0
INSERT
  5
18396
330
169AE
100
AcDbEntity
  8
寸法
 62
     0
 48
50.0
370
    -2
100
AcDbBlockReference
  2
_DOTSMALL
 10
11996.82881102019
 20
7827.871211422458
 30
0.0
 41
100.0
 42
100.0
 43
100.0
 50
270.0
  0
MTEXT
  5
18397
330
169AE
100
AcDbEntity
  8
寸法
 62
     7
 48
50.0
100
AcDbMText
 10
11896.81699999656
 20
8877.871211422466
 30
0.0
 40
120.0
 41
0.0
 71
     5
 72
     1
  1
\A1;5X420=2100
  7
STYLE1
 11
0.0000000000000001
 21
1.0
 31
0.0
 73
     1
 44
1.0
1001
ACAD
1000
MTEXTBEGIN
1070
    73
1070
     1
1070
    44
1040
1.0
1070
    74
1070
     0
1000
MTEXTEND
  0
POINT
  5
18398
330
169AE
100
AcDbEntity
  8
DEFPOINTS
 62
     0
 48
50.0
100
AcDbPoint
 10
11349.40246528578
 20
9927.871211422473
 30
0.0
  0
POINT
  5
18399
330
169AE
100
AcDbEntity
  8
DEFPOINTS
 62
     0
 48
50.0
100
AcDbPoint
 10
11349.40246528575
 20
7827.871211422458
 30
0.0
  0
POINT
  5
1839A
330
169AE
100
AcDbEntity
  8
DEFPOINTS
 62
     0
 48
50.0
100
AcDbPoint
 10
11996.82881102019
 20
7827.871211422458
 30
0.0
  0
ENDBLK
  5
169B9
330
169AE
100
AcDbEntity
  8
0
 48
50.0
100
AcDbBlockEnd
  0
BLOCK
  5
169C4
330
169BA
100
AcDbEntity
  8
0
 48
50.0
100
AcDbBlockBegin
  2
*D13
 70
     1
 10
0.0
 20
0.0
 30
0.0
  3
*D13
  1

  0
LINE
  5
17359
330
169BA
100
AcDbEntity
  8
寸法
 62
     0
 48
50.0
370
    -2
100
AcDbLine
 10
9147.402465285772
 20
4320.225613616782
 30
0.0
 11
8786.177658814759
 21
4320.225613616782
 31
0.0
  0
LINE
  5
1735A
330
169BA
100
AcDbEntity
  8
寸法
 62
     0
 48
50.0
370
    -2
100
AcDbLine
 10
9147.402465285772
 20
2595.225613616781
 30
0.0
 11
8786.177658814755
 21
2595.225613616781
 31
0.0
  0
LINE
  5
1735B
330
169BA
100
AcDbEntity
  8
寸法
 62
     0
 48
50.0
370
    -2
100
AcDbLine
 10
8846.177658814758
 20
4320.225613616782
 30
0.0
 11
8846.177658814758
 21
2595.225613616781
 31
0.0
  0
INSERT
  5
1735C
330
169BA
100
AcDbEntity
  8
寸法
 62
     0
 48
50.0
370
    -2
100
AcDbBlockReference
  2
_DOTSMALL
 10
8846.177658814758
 20
4320.225613616782
 30
0.0
 41
100.0
 42
100.0
 43
100.0
 50
90.0
  0
INSERT
  5
1735D
330
169BA
100
AcDbEntity
  8
寸法
 62
     0
 48
50.0
370
    -2
100
AcDbBlockReference
  2
_DOTSMALL
 10
8846.177658814758
 20
2595.225613616781
 30
0.0
 41
100.0
 42
100.0
 43
100.0
 50
270.0
  0
MTEXT
  5
1735E
330
169BA
100
AcDbEntity
  8
寸法
 62
     7
 48
50.0
100
AcDbMText
 10
8746.165847791136
 20
3497.154233825742
 30
0.0
 40
120.0
 41
0.0
 71
     5
 72
     1
  1
\A1;有効開口部高サ1725
  7
STYLE1
 11
0.0000000000000001
 21
1.0
 31
0.0
 73
     1
 44
1.0
1001
ACAD
1000
MTEXTBEGIN
1070
    73
1070
     1
1070
    44
1040
1.0
1070
    74
1070
     0
1000
MTEXTEND
  0
POINT
  5
1735F
330
169BA
100
AcDbEntity
  8
DEFPOINTS
 62
     0
 48
50.0
100
AcDbPoint
 10
9167.402465285771
 20
4320.225613616782
 30
0.0
  0
POINT
  5
17360
330
169BA
100
AcDbEntity
  8
DEFPOINTS
 62
     0
 48
50.0
100
AcDbPoint
 10
9167.402465285771
 20
2595.225613616781
 30
0.0
  0
POINT
  5
17361
330
169BA
100
AcDbEntity
  8
DEFPOINTS
 62
     0
 48
50.0
100
AcDbPoint
 10
8846.177658814758
 20
2595.225613616781
 30
0.0
  0
ENDBLK
  5
169C5
330
169BA
100
AcDbEntity
  8
0
 48
50.0
100
AcDbBlockEnd
  0
BLOCK
  5
169DC
330
169D2
100
AcDbEntity
  8
0
 48
50.0
100
AcDbBlockBegin
  2
*D14
 70
     1
 10
0.0
 20
0.0
 30
0.0
  3
*D14
  1

  0
LINE
  5
17347
330
169D2
100
AcDbEntity
  8
寸法
 62
     0
 48
50.0
370
    -2
100
AcDbLine
 10
11349.40246528577
 20
4632.225613616787
 30
0.0
 11
11349.40246528577
 21
5071.318782956255
 31
0.0
  0
LINE
  5
17348
330
169D2
100
AcDbEntity
  8
寸法
 62
     0
 48
50.0
370
    -2
100
AcDbLine
 10
9139.402465285773
 20
4632.225613616788
 30
0.0
 11
9139.402465285773
 21
5071.318782956255
 31
0.0
  0
LINE
  5
17349
330
169D2
100
AcDbEntity
  8
寸法
 62
     0
 48
50.0
370
    -2
100
AcDbLine
 10
11349.40246528577
 20
5011.318782956255
 30
0.0
 11
9139.402465285773
 21
5011.318782956255
 31
0.0
  0
INSERT
  5
1734A
330
169D2
100
AcDbEntity
  8
寸法
 62
     0
 48
50.0
370
    -2
100
AcDbBlockReference
  2
_DOTSMALL
 10
11349.40246528577
 20
5011.318782956255
 30
0.0
 41
100.0
 42
100.0
 43
100.0
  0
INSERT
  5
1734B
330
169D2
100
AcDbEntity
  8
寸法
 62
     0
 48
50.0
370
    -2
100
AcDbBlockReference
  2
_DOTSMALL
 10
9139.402465285773
 20
5011.318782956255
 30
0.0
 41
100.0
 42
100.0
 43
100.0
 50
180.0
  0
MTEXT
  5
1734C
330
169D2
100
AcDbEntity
  8
寸法
 62
     7
 48
50.0
100
AcDbMText
 10
10244.40246528577
 20
5111.330593979876
 30
0.0
 40
120.0
 41
0.0
 71
     5
 72
     1
  1
\A1;柱外寸法2210
  7
STYLE1
 73
     1
 44
1.0
1001
ACAD
1000
MTEXTBEGIN
1070
    73
1070
     1
1070
    44
1040
1.0
1070
    74
1070
     0
1000
MTEXTEND
  0
POINT
  5
1734D
330
169D2
100
AcDbEntity
  8
DEFPOINTS
 62
     0
 48
50.0
100
AcDbPoint
 10
11349.40246528577
 20
4612.225613616787
 30
0.0
  0
POINT
  5
1734E
330
169D2
100
AcDbEntity
  8
DEFPOINTS
 62
     0
 48
50.0
100
AcDbPoint
 10
9139.402465285773
 20
4612.225613616788
 30
0.0
  0
POINT
  5
1734F
330
169D2
100
AcDbEntity
  8
DEFPOINTS
 62
     0
 48
50.0
100
AcDbPoint
 10
9139.402465285773
 20
5011.318782956255
 30
0.0
  0
ENDBLK
  5
169DD
330
169D2
100
AcDbEntity
  8
0
 48
50.0
100
AcDbBlockEnd
  0
BLOCK
  5
169EA
330
169DE
100
AcDbEntity
  8
0
 48
50.0
100
AcDbBlockBegin
  2
*D15
 70
     1
 10
0.0
 20
0.0
 30
0.0
  3
*D15
  1

  0
LINE
  5
1733C
330
169DE
100
AcDbEntity
  8
寸法
 62
     0
 48
50.0
370
    -2
100
AcDbLine
 10
9139.402465285773
 20
4632.225613616788
 30
0.0
 11
9139.402465285773
 21
5071.318782956255
 31
0.0
  0
LINE
  5
1733D
330
169DE
100
AcDbEntity
  8
寸法
 62
     0
 48
50.0
370
    -2
100
AcDbLine
 10
9089.402465285772
 20
4632.225613616787
 30
0.0
 11
9089.402465285772
 21
5071.318782956255
 31
0.0
  0
LINE
  5
1733E
330
169DE
100
AcDbEntity
  8
寸法
 62
     0
 48
50.0
370
    -2
100
AcDbLine
 10
9139.402465285773
 20
5011.318782956255
 30
0.0
 11
9239.402465285772
 21
5011.318782956255
 31
0.0
  0
LINE
  5
1733F
330
169DE
100
AcDbEntity
  8
寸法
 62
     0
 48
50.0
370
    -2
100
AcDbLine
 10
9089.402465285772
 20
5011.318782956255
 30
0.0
 11
8669.869939817036
 21
5011.318782956255
 31
0.0
  0
LINE
  5
17340
330
169DE
100
AcDbEntity
  8
寸法
 62
     0
 48
50.0
370
    -2
100
AcDbLine
 10
9139.402465285773
 20
5011.318782956255
 30
0.0
 11
9089.402465285772
 21
5011.318782956255
 31
0.0
  0
INSERT
  5
17341
330
169DE
100
AcDbEntity
  8
寸法
 62
     0
 48
50.0
370
    -2
100
AcDbBlockReference
  2
_DOTSMALL
 10
9139.402465285773
 20
5011.318782956255
 30
0.0
 41
100.0
 42
100.0
 43
100.0
 50
180.0
  0
INSERT
  5
17342
330
169DE
100
AcDbEntity
  8
寸法
 62
     0
 48
50.0
370
    -2
100
AcDbBlockReference
  2
_DOTSMALL
 10
9089.402465285772
 20
5011.318782956255
 30
0.0
 41
100.0
 42
100.0
 43
100.0
  0
MTEXT
  5
17343
330
169DE
100
AcDbEntity
  8
寸法
 62
     7
 48
50.0
100
AcDbMText
 10
8775.917183911523
 20
5111.318782956255
 30
0.0
 40
120.0
 41
0.0
 71
     5
 72
     1
  1
\A1;50
  7
STYLE1
 73
     1
 44
1.0
1001
ACAD
1000
MTEXTBEGIN
1070
    73
1070
     1
1070
    44
1040
1.0
1070
    74
1070
     0
1000
MTEXTEND
  0
POINT
  5
17344
330
169DE
100
AcDbEntity
  8
DEFPOINTS
 62
     0
 48
50.0
100
AcDbPoint
 10
9139.402465285773
 20
4612.225613616788
 30
0.0
  0
POINT
  5
17345
330
169DE
100
AcDbEntity
  8
DEFPOINTS
 62
     0
 48
50.0
100
AcDbPoint
 10
9089.402465285772
 20
4612.225613616787
 30
0.0
  0
POINT
  5
17346
330
169DE
100
AcDbEntity
  8
DEFPOINTS
 62
     0
 48
50.0
100
AcDbPoint
 10
9089.402465285772
 20
5011.318782956255
 30
0.0
  0
ENDBLK
  5
169EB
330
169DE
100
AcDbEntity
  8
0
 48
50.0
100
AcDbBlockEnd
  0
BLOCK
  5
169F6
330
169EC
100
AcDbEntity
  8
0
 48
50.0
100
AcDbBlockBegin
  2
*D16
 70
     1
 10
0.0
 20
0.0
 30
0.0
  3
*D16
  1

  0
LINE
  5
17333
330
169EC
100
AcDbEntity
  8
寸法
 62
     0
 48
50.0
370
    -2
100
AcDbLine
 10
9089.402465285772
 20
4632.225613616787
 30
0.0
 11
9089.402465285772
 21
5287.8448825747
 31
0.0
  0
LINE
  5
17334
330
169EC
100
AcDbEntity
  8
寸法
 62
     0
 48
50.0
370
    -2
100
AcDbLine
 10
11399.40246528577
 20
4632.225613616784
 30
0.0
 11
11399.40246528577
 21
5287.8448825747
 31
0.0
  0
LINE
  5
17335
330
169EC
100
AcDbEntity
  8
寸法
 62
     0
 48
50.0
370
    -2
100
AcDbLine
 10
9089.402465285772
 20
5227.8448825747
 30
0.0
 11
11399.40246528577
 21
5227.8448825747
 31
0.0
  0
INSERT
  5
17336
330
169EC
100
AcDbEntity
  8
寸法
 62
     0
 48
50.0
370
    -2
100
AcDbBlockReference
  2
_DOTSMALL
 10
9089.402465285772
 20
5227.8448825747
 30
0.0
 41
100.0
 42
100.0
 43
100.0
 50
180.0
  0
INSERT
  5
17337
330
169EC
100
AcDbEntity
  8
寸法
 62
     0
 48
50.0
370
    -2
100
AcDbBlockReference
  2
_DOTSMALL
 10
11399.40246528577
 20
5227.8448825747
 30
0.0
 41
100.0
 42
100.0
 43
100.0
  0
MTEXT
  5
17338
330
169EC
100
AcDbEntity
  8
寸法
 62
     7
 48
50.0
100
AcDbMText
 10
10244.40246528577
 20
5327.856693598322
 30
0.0
 40
120.0
 41
0.0
 71
     5
 72
     1
  1
\A1;2310
  7
STYLE1
 73
     1
 44
1.0
1001
ACAD
1000
MTEXTBEGIN
1070
    73
1070
     1
1070
    44
1040
1.0
1070
    74
1070
     0
1000
MTEXTEND
  0
POINT
  5
17339
330
169EC
100
AcDbEntity
  8
DEFPOINTS
 62
     0
 48
50.0
100
AcDbPoint
 10
9089.402465285772
 20
4612.225613616787
 30
0.0
  0
POINT
  5
1733A
330
169EC
100
AcDbEntity
  8
DEFPOINTS
 62
     0
 48
50.0
100
AcDbPoint
 10
11399.40246528577
 20
4612.225613616784
 30
0.0
  0
POINT
  5
1733B
330
169EC
100
AcDbEntity
  8
DEFPOINTS
 62
     0
 48
50.0
100
AcDbPoint
 10
11399.40246528577
 20
5227.8448825747
 30
0.0
  0
ENDBLK
  5
169F7
330
169EC
100
AcDbEntity
  8
0
 48
50.0
100
AcDbBlockEnd
  0
BLOCK
  5
16A04
330
169F8
100
AcDbEntity
  8
0
 48
50.0
100
AcDbBlockBegin
  2
*D17
 70
     1
 10
0.0
 20
0.0
 30
0.0
  3
*D17
  1

  0
LINE
  5
17328
330
169F8
100
AcDbEntity
  8
寸法
 62
     0
 48
50.0
370
    -2
100
AcDbLine
 10
11399.40246528577
 20
4632.225613616784
 30
0.0
 11
11399.40246528577
 21
5071.318782956255
 31
0.0
  0
LINE
  5
17329
330
169F8
100
AcDbEntity
  8
寸法
 62
     0
 48
50.0
370
    -2
100
AcDbLine
 10
11349.40246528577
 20
4632.225613616787
 30
0.0
 11
11349.40246528577
 21
5071.318782956255
 31
0.0
  0
LINE
  5
1732A
330
169F8
100
AcDbEntity
  8
寸法
 62
     0
 48
50.0
370
    -2
100
AcDbLine
 10
11349.40246528577
 20
5011.318782956255
 30
0.0
 11
11249.40246528577
 21
5011.318782956255
 31
0.0
  0
LINE
  5
1732B
330
169F8
100
AcDbEntity
  8
寸法
 62
     0
 48
50.0
370
    -2
100
AcDbLine
 10
11399.40246528577
 20
5011.318782956255
 30
0.0
 11
11818.93499075449
 21
5011.318782956255
 31
0.0
  0
LINE
  5
1732C
330
169F8
100
AcDbEntity
  8
寸法
 62
     0
 48
50.0
370
    -2
100
AcDbLine
 10
11349.40246528577
 20
5011.318782956255
 30
0.0
 11
11399.40246528577
 21
5011.318782956255
 31
0.0
  0
INSERT
  5
1732D
330
169F8
100
AcDbEntity
  8
寸法
 62
     0
 48
50.0
370
    -2
100
AcDbBlockReference
  2
_DOTSMALL
 10
11349.40246528577
 20
5011.318782956255
 30
0.0
 41
100.0
 42
100.0
 43
100.0
  0
INSERT
  5
1732E
330
169F8
100
AcDbEntity
  8
寸法
 62
     0
 48
50.0
370
    -2
100
AcDbBlockReference
  2
_DOTSMALL
 10
11399.40246528577
 20
5011.318782956255
 30
0.0
 41
100.0
 42
100.0
 43
100.0
 50
180.0
  0
MTEXT
  5
1732F
330
169F8
100
AcDbEntity
  8
寸法
 62
     7
 48
50.0
100
AcDbMText
 10
11712.88774666001
 20
5111.318782956255
 30
0.0
 40
120.0
 41
0.0
 71
     5
 72
     1
  1
\A1;50
  7
STYLE1
 73
     1
 44
1.0
1001
ACAD
1000
MTEXTBEGIN
1070
    73
1070
     1
1070
    44
1040
1.0
1070
    74
1070
     0
1000
MTEXTEND
  0
POINT
  5
17330
330
169F8
100
AcDbEntity
  8
DEFPOINTS
 62
     0
 48
50.0
100
AcDbPoint
 10
11399.40246528577
 20
4612.225613616784
 30
0.0
  0
POINT
  5
17331
330
169F8
100
AcDbEntity
  8
DEFPOINTS
 62
     0
 48
50.0
100
AcDbPoint
 10
11349.40246528577
 20
4612.225613616787
 30
0.0
  0
POINT
  5
17332
330
169F8
100
AcDbEntity
  8
DEFPOINTS
 62
     0
 48
50.0
100
AcDbPoint
 10
11349.40246528577
 20
5011.318782956255
 30
0.0
  0
ENDBLK
  5
16A05
330
169F8
100
AcDbEntity
  8
0
 48
50.0
100
AcDbBlockEnd
  0
BLOCK
  5
1703B
330
17031
100
AcDbEntity
  8
0
 48
50.0
100
AcDbBlockBegin
  2
*D18
 70
     1
 10
0.0
 20
0.0
 30
0.0
  3
*D18
  1

  0
LINE
  5
17314
330
17031
100
AcDbEntity
  8
寸法
 62
     0
 48
50.0
370
    -2
100
AcDbLine
 10
4954.805435948512
 20
2217.225613616778
 30
0.0
 11
4954.805435948512
 21
1891.178284316402
 31
0.0
  0
LINE
  5
17315
330
17031
100
AcDbEntity
  8
寸法
 62
     0
 48
50.0
370
    -2
100
AcDbLine
 10
4754.805435948515
 20
2217.22561361678
 30
0.0
 11
4754.805435948515
 21
1891.178284316402
 31
0.0
  0
LINE
  5
17316
330
17031
100
AcDbEntity
  8
寸法
 62
     0
 48
50.0
370
    -2
100
AcDbLine
 10
4954.805435948512
 20
1951.178284316402
 30
0.0
 11
4754.805435948515
 21
1951.178284316402
 31
0.0
  0
INSERT
  5
17317
330
17031
100
AcDbEntity
  8
寸法
 62
     0
 48
50.0
370
    -2
100
AcDbBlockReference
  2
_DOTSMALL
 10
4954.805435948512
 20
1951.178284316402
 30
0.0
 41
100.0
 42
100.0
 43
100.0
  0
INSERT
  5
17318
330
17031
100
AcDbEntity
  8
寸法
 62
     0
 48
50.0
370
    -2
100
AcDbBlockReference
  2
_DOTSMALL
 10
4754.805435948515
 20
1951.178284316402
 30
0.0
 41
100.0
 42
100.0
 43
100.0
 50
180.0
  0
MTEXT
  5
17319
330
17031
100
AcDbEntity
  8
寸法
 62
     7
 48
50.0
100
AcDbMText
 10
4854.805435948514
 20
2051.190095340024
 30
0.0
 40
120.0
 41
0.0
 71
     5
 72
     1
  1
\A1;200
  7
STYLE1
 73
     1
 44
1.0
1001
ACAD
1000
MTEXTBEGIN
1070
    73
1070
     1
1070
    44
1040
1.0
1070
    74
1070
     0
1000
MTEXTEND
  0
POINT
  5
1731A
330
17031
100
AcDbEntity
  8
DEFPOINTS
 62
     0
 48
50.0
100
AcDbPoint
 10
4954.805435948512
 20
2237.225613616778
 30
0.0
  0
POINT
  5
1731B
330
17031
100
AcDbEntity
  8
DEFPOINTS
 62
     0
 48
50.0
100
AcDbPoint
 10
4754.805435948515
 20
2237.22561361678
 30
0.0
  0
POINT
  5
1731C
330
17031
100
AcDbEntity
  8
DEFPOINTS
 62
     0
 48
50.0
100
AcDbPoint
 10
4754.805435948515
 20
1951.178284316402
 30
0.0
  0
ENDBLK
  5
1703C
330
17031
100
AcDbEntity
  8
0
 48
50.0
100
AcDbBlockEnd
  0
BLOCK
  5
17047
330
1703D
100
AcDbEntity
  8
0
 48
50.0
100
AcDbBlockBegin
  2
*D19
 70
     1
 10
0.0
 20
0.0
 30
0.0
  3
*D19
  1

  0
LINE
  5
1730B
330
1703D
100
AcDbEntity
  8
寸法
 62
     0
 48
50.0
370
    -2
100
AcDbLine
 10
4734.805435948516
 20
2237.22561361678
 30
0.0
 11
4545.305432701879
 21
2237.22561361678
 31
0.0
  0
LINE
  5
1730C
330
1703D
100
AcDbEntity
  8
寸法
 62
     0
 48
50.0
370
    -2
100
AcDbLine
 10
4709.805435948513
 20
2437.22561361678
 30
0.0
 11
4545.305432701879
 21
2437.22561361678
 31
0.0
  0
LINE
  5
1730D
330
1703D
100
AcDbEntity
  8
寸法
 62
     0
 48
50.0
370
    -2
100
AcDbLine
 10
4605.305432701879
 20
2237.22561361678
 30
0.0
 11
4605.305432701879
 21
2437.22561361678
 31
0.0
  0
INSERT
  5
1730E
330
1703D
100
AcDbEntity
  8
寸法
 62
     0
 48
50.0
370
    -2
100
AcDbBlockReference
  2
_DOTSMALL
 10
4605.305432701879
 20
2237.22561361678
 30
0.0
 41
100.0
 42
100.0
 43
100.0
 50
270.0
  0
INSERT
  5
1730F
330
1703D
100
AcDbEntity
  8
寸法
 62
     0
 48
50.0
370
    -2
100
AcDbBlockReference
  2
_DOTSMALL
 10
4605.305432701879
 20
2437.22561361678
 30
0.0
 41
100.0
 42
100.0
 43
100.0
 50
90.0
  0
MTEXT
  5
17310
330
1703D
100
AcDbEntity
  8
寸法
 62
     7
 48
50.0
100
AcDbMText
 10
4505.293621678256
 20
2337.22561361678
 30
0.0
 40
120.0
 41
0.0
 71
     5
 72
     1
  1
\A1;200
  7
STYLE1
 11
0.0000000000000001
 21
1.0
 31
0.0
 73
     1
 44
1.0
1001
ACAD
1000
MTEXTBEGIN
1070
    73
1070
     1
1070
    44
1040
1.0
1070
    74
1070
     0
1000
MTEXTEND
  0
POINT
  5
17311
330
1703D
100
AcDbEntity
  8
DEFPOINTS
 62
     0
 48
50.0
100
AcDbPoint
 10
4754.805435948515
 20
2237.22561361678
 30
0.0
  0
POINT
  5
17312
330
1703D
100
AcDbEntity
  8
DEFPOINTS
 62
     0
 48
50.0
100
AcDbPoint
 10
4729.805435948512
 20
2437.22561361678
 30
0.0
  0
POINT
  5
17313
330
1703D
100
AcDbEntity
  8
DEFPOINTS
 62
     0
 48
50.0
100
AcDbPoint
 10
4605.305432701879
 20
2437.22561361678
 30
0.0
  0
ENDBLK
  5
17048
330
1703D
100
AcDbEntity
  8
0
 48
50.0
100
AcDbBlockEnd
  0
BLOCK
  5
17054
330
17049
100
AcDbEntity
  8
0
 48
50.0
100
AcDbBlockBegin
  2
*D20
 70
     1
 10
0.0
 20
0.0
 30
0.0
  3
*D20
  1

  0
LINE
  5
17301
330
17049
100
AcDbEntity
  8
寸法
 62
     0
 48
50.0
370
    -2
100
AcDbLine
 10
4766.709722239614
 20
4611.523320686443
 30
0.0
 11
4150.775283134342
 21
4629.237470960772
 31
0.0
  0
LINE
  5
17302
330
17049
100
AcDbEntity
  8
寸法
 62
     0
 48
50.0
370
    -2
100
AcDbLine
 10
4762.656266682987
 20
4470.581596920728
 30
0.0
 11
4146.721827577715
 21
4488.295747195056
 31
0.0
  0
LINE
  5
17303
330
17049
100
AcDbEntity
  8
寸法
 62
     0
 48
50.0
370
    -2
100
AcDbLine
 10
4206.697029180146
 20
4486.570872490109
 30
0.0
 11
4210.750484736773
 21
4627.512596255825
 31
0.0
  0
LINE
  5
17304
330
17049
100
AcDbEntity
  8
寸法
 62
     0
 48
50.0
370
    -2
100
AcDbLine
 10
4210.750484736773
 20
4627.512596255825
 30
0.0
 11
4221.099732966457
 21
4987.363805870415
 31
0.0
  0
INSERT
  5
17305
330
17049
100
AcDbEntity
  8
寸法
 62
     0
 48
50.0
370
    -2
100
AcDbBlockReference
  2
_DOTSMALL
 10
4206.697029180146
 20
4486.570872490109
 30
0.0
 41
100.0
 42
100.0
 43
100.0
 50
268.3526390256379
  0
INSERT
  5
17306
330
17049
100
AcDbEntity
  8
寸法
 62
     0
 48
50.0
370
    -2
100
AcDbBlockReference
  2
_DOTSMALL
 10
4210.750484736773
 20
4627.512596255825
 30
0.0
 41
100.0
 42
100.0
 43
100.0
 50
88.35263902563784
  0
MTEXT
  5
17307
330
17049
100
AcDbEntity
  8
寸法
 62
     7
 48
50.0
100
AcDbMText
 10
4117.403835101685
 20
4860.292326906726
 30
0.0
 40
120.0
 41
0.0
 71
     5
 72
     1
  1
\A1;141
  7
STYLE1
 11
0.0287479117491228
 21
0.9995866933738486
 31
0.0
 73
     1
 44
1.0
1001
ACAD
1000
MTEXTBEGIN
1070
    73
1070
     1
1070
    44
1040
1.0
1070
    74
1070
     0
1000
MTEXTEND
  0
POINT
  5
17308
330
17049
100
AcDbEntity
  8
DEFPOINTS
 62
     0
 48
50.0
100
AcDbPoint
 10
4786.701456107091
 20
4610.948362451462
 30
0.0
  0
POINT
  5
17309
330
17049
100
AcDbEntity
  8
DEFPOINTS
 62
     0
 48
50.0
100
AcDbPoint
 10
4782.648000550465
 20
4470.006638685746
 30
0.0
  0
POINT
  5
1730A
330
17049
100
AcDbEntity
  8
DEFPOINTS
 62
     0
 48
50.0
100
AcDbPoint
 10
4206.697029180146
 20
4486.570872490109
 30
0.0
  0
ENDBLK
  5
17055
330
17049
100
AcDbEntity
  8
0
 48
50.0
100
AcDbBlockEnd
  0
BLOCK
  5
17062
330
17056
100
AcDbEntity
  8
0
 48
50.0
100
AcDbBlockBegin
  2
*D21
 70
     1
 10
0.0
 20
0.0
 30
0.0
  3
*D21
  1

  0
LINE
  5
172F6
330
17056
100
AcDbEntity
  8
寸法
 62
     0
 48
50.0
370
    -2
100
AcDbLine
 10
4807.305435948513
 20
2587.225613616782
 30
0.0
 11
4143.652726790215
 21
2587.225613616782
 31
0.0
  0
LINE
  5
172F7
330
17056
100
AcDbEntity
  8
寸法
 62
     0
 48
50.0
370
    -2
100
AcDbLine
 10
4752.305435948512
 20
2537.225613616782
 30
0.0
 11
4143.652726790215
 21
2537.225613616782
 31
0.0
  0
LINE
  5
172F8
330
17056
100
AcDbEntity
  8
寸法
 62
     0
 48
50.0
370
    -2
100
AcDbLine
 10
4203.652726790216
 20
2587.225613616782
 30
0.0
 11
4203.652726790216
 21
2687.225613616782
 31
0.0
  0
LINE
  5
172F9
330
17056
100
AcDbEntity
  8
寸法
 62
     0
 48
50.0
370
    -2
100
AcDbLine
 10
4203.652726790216
 20
2537.225613616782
 30
0.0
 11
4203.652726790216
 21
2125.131125427799
 31
0.0
  0
LINE
  5
172FA
330
17056
100
AcDbEntity
  8
寸法
 62
     0
 48
50.0
370
    -2
100
AcDbLine
 10
4203.652726790216
 20
2587.225613616782
 30
0.0
 11
4203.652726790216
 21
2537.225613616782
 31
0.0
  0
INSERT
  5
172FB
330
17056
100
AcDbEntity
  8
寸法
 62
     0
 48
50.0
370
    -2
100
AcDbBlockReference
  2
_DOTSMALL
 10
4203.652726790216
 20
2587.225613616782
 30
0.0
 41
100.0
 42
100.0
 43
100.0
 50
270.0
  0
INSERT
  5
172FC
330
17056
100
AcDbEntity
  8
寸法
 62
     0
 48
50.0
370
    -2
100
AcDbBlockReference
  2
_DOTSMALL
 10
4203.652726790216
 20
2537.225613616782
 30
0.0
 41
100.0
 42
100.0
 43
100.0
 50
90.0
  0
MTEXT
  5
172FD
330
17056
100
AcDbEntity
  8
寸法
 62
     7
 48
50.0
100
AcDbMText
 10
4103.652726790214
 20
2231.178369522288
 30
0.0
 40
120.0
 41
0.0
 71
     5
 72
     1
  1
\A1;50
  7
STYLE1
 11
0.0000000000000001
 21
1.0
 31
0.0
 73
     1
 44
1.0
1001
ACAD
1000
MTEXTBEGIN
1070
    73
1070
     1
1070
    44
1040
1.0
1070
    74
1070
     0
1000
MTEXTEND
  0
POINT
  5
172FE
330
17056
100
AcDbEntity
  8
DEFPOINTS
 62
     0
 48
50.0
100
AcDbPoint
 10
4827.305435948512
 20
2587.225613616782
 30
0.0
  0
POINT
  5
172FF
330
17056
100
AcDbEntity
  8
DEFPOINTS
 62
     0
 48
50.0
100
AcDbPoint
 10
4772.305435948513
 20
2537.225613616782
 30
0.0
  0
POINT
  5
17300
330
17056
100
AcDbEntity
  8
DEFPOINTS
 62
     0
 48
50.0
100
AcDbPoint
 10
4203.652726790216
 20
2537.225613616782
 30
0.0
  0
ENDBLK
  5
17063
330
17056
100
AcDbEntity
  8
0
 48
50.0
100
AcDbBlockEnd
  0
BLOCK
  5
1706F
330
17064
100
AcDbEntity
  8
0
 48
50.0
100
AcDbBlockBegin
  2
*D22
 70
     1
 10
0.0
 20
0.0
 30
0.0
  3
*D22
  1

  0
LINE
  5
172EC
330
17064
100
AcDbEntity
  8
寸法
 62
     0
 48
50.0
370
    -2
100
AcDbLine
 10
4752.305435948512
 20
2537.225613616782
 30
0.0
 11
3858.666054019154
 21
2537.225613616782
 31
0.0
  0
LINE
  5
172ED
330
17064
100
AcDbEntity
  8
寸法
 62
     0
 48
50.0
370
    -2
100
AcDbLine
 10
4183.652726790215
 20
2437.225613616782
 30
0.0
 11
3858.666054019154
 21
2437.225613616782
 31
0.0
  0
LINE
  5
172EE
330
17064
100
AcDbEntity
  8
寸法
 62
     0
 48
50.0
370
    -2
100
AcDbLine
 10
3918.666054019154
 20
2537.225613616782
 30
0.0
 11
3918.666054019154
 21
2437.225613616782
 31
0.0
  0
LINE
  5
172EF
330
17064
100
AcDbEntity
  8
寸法
 62
     0
 48
50.0
370
    -2
100
AcDbLine
 10
3918.666054019154
 20
2437.225613616782
 30
0.0
 11
3918.666054019154
 21
2065.131125427799
 31
0.0
  0
INSERT
  5
172F0
330
17064
100
AcDbEntity
  8
寸法
 62
     0
 48
50.0
370
    -2
100
AcDbBlockReference
  2
_DOTSMALL
 10
3918.666054019154
 20
2537.225613616782
 30
0.0
 41
100.0
 42
100.0
 43
100.0
 50
90.0
  0
INSERT
  5
172F1
330
17064
100
AcDbEntity
  8
寸法
 62
     0
 48
50.0
370
    -2
100
AcDbBlockReference
  2
_DOTSMALL
 10
3918.666054019154
 20
2437.225613616782
 30
0.0
 41
100.0
 42
100.0
 43
100.0
 50
270.0
  0
MTEXT
  5
172F2
330
17064
100
AcDbEntity
  8
寸法
 62
     7
 48
50.0
100
AcDbMText
 10
3818.666054019153
 20
2201.178369522287
 30
0.0
 40
120.0
 41
0.0
 71
     5
 72
     1
  1
\A1;100
  7
STYLE1
 11
0.0000000000000001
 21
1.0
 31
0.0
 73
     1
 44
1.0
1001
ACAD
1000
MTEXTBEGIN
1070
    73
1070
     1
1070
    44
1040
1.0
1070
    74
1070
     0
1000
MTEXTEND
  0
POINT
  5
172F3
330
17064
100
AcDbEntity
  8
DEFPOINTS
 62
     0
 48
50.0
100
AcDbPoint
 10
4772.305435948513
 20
2537.225613616782
 30
0.0
  0
POINT
  5
172F4
330
17064
100
AcDbEntity
  8
DEFPOINTS
 62
     0
 48
50.0
100
AcDbPoint
 10
4203.652726790215
 20
2437.225613616782
 30
0.0
  0
POINT
  5
172F5
330
17064
100
AcDbEntity
  8
DEFPOINTS
 62
     0
 48
50.0
100
AcDbPoint
 10
3918.666054019154
 20
2437.225613616782
 30
0.0
  0
ENDBLK
  5
17070
330
17064
100
AcDbEntity
  8
0
 48
50.0
100
AcDbBlockEnd
  0
BLOCK
  5
1707B
330
17071
100
AcDbEntity
  8
0
 48
50.0
100
AcDbBlockBegin
  2
*D23
 70
     1
 10
0.0
 20
0.0
 30
0.0
  3
*D23
  1

  0
LINE
  5
172E3
330
17071
100
AcDbEntity
  8
寸法
 62
     0
 48
50.0
370
    -2
100
AcDbLine
 10
4807.305435948513
 20
2537.225613616782
 30
0.0
 11
3858.666054019154
 21
2537.225613616782
 31
0.0
  0
LINE
  5
172E4
330
17071
100
AcDbEntity
  8
寸法
 62
     0
 48
50.0
370
    -2
100
AcDbLine
 10
4747.305435948512
 20
4612.225613616785
 30
0.0
 11
3858.666054019155
 21
4612.225613616785
 31
0.0
  0
LINE
  5
172E5
330
17071
100
AcDbEntity
  8
寸法
 62
     0
 48
50.0
370
    -2
100
AcDbLine
 10
3918.666054019154
 20
2537.225613616782
 30
0.0
 11
3918.666054019155
 21
4612.225613616785
 31
0.0
  0
INSERT
  5
172E6
330
17071
100
AcDbEntity
  8
寸法
 62
     0
 48
50.0
370
    -2
100
AcDbBlockReference
  2
_DOTSMALL
 10
3918.666054019154
 20
2537.225613616782
 30
0.0
 41
100.0
 42
100.0
 43
100.0
 50
270.0
  0
INSERT
  5
172E7
330
17071
100
AcDbEntity
  8
寸法
 62
     0
 48
50.0
370
    -2
100
AcDbBlockReference
  2
_DOTSMALL
 10
3918.666054019155
 20
4612.225613616785
 30
0.0
 41
100.0
 42
100.0
 43
100.0
 50
90.0
  0
MTEXT
  5
172E8
330
17071
100
AcDbEntity
  8
寸法
 62
     7
 48
50.0
100
AcDbMText
 10
3818.654242995531
 20
3531.431491109892
 30
0.0
 40
120.0
 41
0.0
 71
     5
 72
     1
  1
\A1;2075
  7
STYLE1
 11
0.0000000000000001
 21
1.0
 31
0.0
 73
     1
 44
1.0
1001
ACAD
1000
MTEXTBEGIN
1070
    73
1070
     1
1070
    44
1040
1.0
1070
    74
1070
     0
1000
MTEXTEND
  0
POINT
  5
172E9
330
17071
100
AcDbEntity
  8
DEFPOINTS
 62
     0
 48
50.0
100
AcDbPoint
 10
4827.305435948512
 20
2537.225613616782
 30
0.0
  0
POINT
  5
172EA
330
17071
100
AcDbEntity
  8
DEFPOINTS
 62
     0
 48
50.0
100
AcDbPoint
 10
4767.305435948512
 20
4612.225613616785
 30
0.0
  0
POINT
  5
172EB
330
17071
100
AcDbEntity
  8
DEFPOINTS
 62
     0
 48
50.0
100
AcDbPoint
 10
3918.666054019155
 20
4612.225613616785
 30
0.0
  0
ENDBLK
  5
1707C
330
17071
100
AcDbEntity
  8
0
 48
50.0
100
AcDbBlockEnd
  0
BLOCK
  5
17087
330
1707D
100
AcDbEntity
  8
0
 48
50.0
100
AcDbBlockBegin
  2
*D24
 70
     1
 10
0.0
 20
0.0
 30
0.0
  3
*D24
  1

  0
LINE
  5
172DA
330
1707D
100
AcDbEntity
  8
寸法
 62
     0
 48
50.0
370
    -2
100
AcDbLine
 10
4807.305435948513
 20
4377.225613616782
 30
0.0
 11
4143.652726790215
 21
4377.225613616782
 31
0.0
  0
LINE
  5
172DB
330
1707D
100
AcDbEntity
  8
寸法
 62
     0
 48
50.0
370
    -2
100
AcDbLine
 10
4807.305435948513
 20
2587.225613616782
 30
0.0
 11
4143.652726790215
 21
2587.225613616782
 31
0.0
  0
LINE
  5
172DC
330
1707D
100
AcDbEntity
  8
寸法
 62
     0
 48
50.0
370
    -2
100
AcDbLine
 10
4203.652726790216
 20
4377.225613616782
 30
0.0
 11
4203.652726790216
 21
2587.225613616782
 31
0.0
  0
INSERT
  5
172DD
330
1707D
100
AcDbEntity
  8
寸法
 62
     0
 48
50.0
370
    -2
100
AcDbBlockReference
  2
_DOTSMALL
 10
4203.652726790216
 20
4377.225613616782
 30
0.0
 41
100.0
 42
100.0
 43
100.0
 50
90.0
  0
INSERT
  5
172DE
330
1707D
100
AcDbEntity
  8
寸法
 62
     0
 48
50.0
370
    -2
100
AcDbBlockReference
  2
_DOTSMALL
 10
4203.652726790216
 20
2587.225613616782
 30
0.0
 41
100.0
 42
100.0
 43
100.0
 50
270.0
  0
MTEXT
  5
172DF
330
1707D
100
AcDbEntity
  8
寸法
 62
     7
 48
50.0
100
AcDbMText
 10
4103.652726790214
 20
3477.67991215874
 30
0.0
 40
120.0
 41
0.0
 71
     5
 72
     1
  1
\A1;1790
  7
STYLE1
 11
0.0000000000000001
 21
1.0
 31
0.0
 73
     1
 44
1.0
1001
ACAD
1000
MTEXTBEGIN
1070
    73
1070
     1
1070
    44
1040
1.0
1070
    74
1070
     0
1000
MTEXTEND
  0
POINT
  5
172E0
330
1707D
100
AcDbEntity
  8
DEFPOINTS
 62
     0
 48
50.0
100
AcDbPoint
 10
4827.305435948512
 20
4377.225613616782
 30
0.0
  0
POINT
  5
172E1
330
1707D
100
AcDbEntity
  8
DEFPOINTS
 62
     0
 48
50.0
100
AcDbPoint
 10
4827.305435948512
 20
2587.225613616782
 30
0.0
  0
POINT
  5
172E2
330
1707D
100
AcDbEntity
  8
DEFPOINTS
 62
     0
 48
50.0
100
AcDbPoint
 10
4203.652726790216
 20
2587.225613616782
 30
0.0
  0
ENDBLK
  5
17088
330
1707D
100
AcDbEntity
  8
0
 48
50.0
100
AcDbBlockEnd
  0
BLOCK
  5
17094
330
17089
100
AcDbEntity
  8
0
 48
50.0
100
AcDbBlockBegin
  2
*D25
 70
     1
 10
0.0
 20
0.0
 30
0.0
  3
*D25
  1

  0
LINE
  5
172D0
330
17089
100
AcDbEntity
  8
寸法
 62
     0
 48
50.0
370
    -2
100
AcDbLine
 10
7037.305435948512
 20
4579.036293228432
 30
0.0
 11
7037.305435948512
 21
5070.883067196085
 31
0.0
  0
LINE
  5
172D1
330
17089
100
AcDbEntity
  8
寸法
 62
     0
 48
50.0
370
    -2
100
AcDbLine
 10
7117.305435948512
 20
4577.225613616781
 30
0.0
 11
7117.305435948512
 21
5070.883067196085
 31
0.0
  0
LINE
  5
172D2
330
17089
100
AcDbEntity
  8
寸法
 62
     0
 48
50.0
370
    -2
100
AcDbLine
 10
7037.305435948512
 20
5010.883067196085
 30
0.0
 11
7117.305435948512
 21
5010.883067196085
 31
0.0
  0
LINE
  5
172D3
330
17089
100
AcDbEntity
  8
寸法
 62
     0
 48
50.0
370
    -2
100
AcDbLine
 10
7117.305435948512
 20
5010.883067196085
 30
0.0
 11
7429.399924137491
 21
5010.883067196085
 31
0.0
  0
INSERT
  5
172D4
330
17089
100
AcDbEntity
  8
寸法
 62
     0
 48
50.0
370
    -2
100
AcDbBlockReference
  2
_DOTSMALL
 10
7037.305435948512
 20
5010.883067196085
 30
0.0
 41
100.0
 42
100.0
 43
100.0
 50
180.0
  0
INSERT
  5
172D5
330
17089
100
AcDbEntity
  8
寸法
 62
     0
 48
50.0
370
    -2
100
AcDbBlockReference
  2
_DOTSMALL
 10
7117.305435948512
 20
5010.883067196085
 30
0.0
 41
100.0
 42
100.0
 43
100.0
  0
MTEXT
  5
172D6
330
17089
100
AcDbEntity
  8
寸法
 62
     7
 48
50.0
100
AcDbMText
 10
7323.352680043003
 20
5110.883067196085
 30
0.0
 40
120.0
 41
0.0
 71
     5
 72
     1
  1
\A1;80
  7
STYLE1
 73
     1
 44
1.0
1001
ACAD
1000
MTEXTBEGIN
1070
    73
1070
     1
1070
    44
1040
1.0
1070
    74
1070
     0
1000
MTEXTEND
  0
POINT
  5
172D7
330
17089
100
AcDbEntity
  8
DEFPOINTS
 62
     0
 48
50.0
100
AcDbPoint
 10
7037.305435948512
 20
4559.036293228433
 30
0.0
  0
POINT
  5
172D8
330
17089
100
AcDbEntity
  8
DEFPOINTS
 62
     0
 48
50.0
100
AcDbPoint
 10
7117.305435948512
 20
4557.225613616782
 30
0.0
  0
POINT
  5
172D9
330
17089
100
AcDbEntity
  8
DEFPOINTS
 62
     0
 48
50.0
100
AcDbPoint
 10
7117.305435948512
 20
5010.883067196085
 30
0.0
  0
ENDBLK
  5
17095
330
17089
100
AcDbEntity
  8
0
 48
50.0
100
AcDbBlockEnd
  0
BLOCK
  5
170A0
330
17096
100
AcDbEntity
  8
0
 48
50.0
100
AcDbBlockBegin
  2
*D26
 70
     1
 10
0.0
 20
0.0
 30
0.0
  3
*D26
  1

  0
LINE
  5
172C7
330
17096
100
AcDbEntity
  8
寸法
 62
     0
 48
50.0
370
    -2
100
AcDbLine
 10
7117.305435948512
 20
4577.225613616781
 30
0.0
 11
7117.305435948512
 21
5290.084900870376
 31
0.0
  0
LINE
  5
172C8
330
17096
100
AcDbEntity
  8
寸法
 62
     0
 48
50.0
370
    -2
100
AcDbLine
 10
4767.305435948512
 20
4632.225613616784
 30
0.0
 11
4767.305435948512
 21
5290.084900870376
 31
0.0
  0
LINE
  5
172C9
330
17096
100
AcDbEntity
  8
寸法
 62
     0
 48
50.0
370
    -2
100
AcDbLine
 10
7117.305435948512
 20
5230.084900870377
 30
0.0
 11
4767.305435948512
 21
5230.084900870377
 31
0.0
  0
INSERT
  5
172CA
330
17096
100
AcDbEntity
  8
寸法
 62
     0
 48
50.0
370
    -2
100
AcDbBlockReference
  2
_DOTSMALL
 10
7117.305435948512
 20
5230.084900870377
 30
0.0
 41
100.0
 42
100.0
 43
100.0
  0
INSERT
  5
172CB
330
17096
100
AcDbEntity
  8
寸法
 62
     0
 48
50.0
370
    -2
100
AcDbBlockReference
  2
_DOTSMALL
 10
4767.305435948512
 20
5230.084900870377
 30
0.0
 41
100.0
 42
100.0
 43
100.0
 50
180.0
  0
MTEXT
  5
172CC
330
17096
100
AcDbEntity
  8
寸法
 62
     7
 48
50.0
100
AcDbMText
 10
6001.649290040981
 20
5330.096711893998
 30
0.0
 40
120.0
 41
0.0
 71
     5
 72
     1
  1
\A1;2350
  7
STYLE1
 73
     1
 44
1.0
1001
ACAD
1000
MTEXTBEGIN
1070
    73
1070
     1
1070
    44
1040
1.0
1070
    74
1070
     0
1000
MTEXTEND
  0
POINT
  5
172CD
330
17096
100
AcDbEntity
  8
DEFPOINTS
 62
     0
 48
50.0
100
AcDbPoint
 10
7117.305435948512
 20
4557.225613616782
 30
0.0
  0
POINT
  5
172CE
330
17096
100
AcDbEntity
  8
DEFPOINTS
 62
     0
 48
50.0
100
AcDbPoint
 10
4767.305435948512
 20
4612.225613616785
 30
0.0
  0
POINT
  5
172CF
330
17096
100
AcDbEntity
  8
DEFPOINTS
 62
     0
 48
50.0
100
AcDbPoint
 10
4767.305435948512
 20
5230.084900870377
 30
0.0
  0
ENDBLK
  5
170A1
330
17096
100
AcDbEntity
  8
0
 48
50.0
100
AcDbBlockEnd
  0
BLOCK
  5
170AE
330
170A2
100
AcDbEntity
  8
0
 48
50.0
100
AcDbBlockBegin
  2
*D27
 70
     1
 10
0.0
 20
0.0
 30
0.0
  3
*D27
  1

  0
LINE
  5
172BC
330
170A2
100
AcDbEntity
  8
寸法
 62
     0
 48
50.0
370
    -2
100
AcDbLine
 10
4827.305435948512
 20
4628.227231739758
 30
0.0
 11
4827.305435948512
 21
5070.883067196085
 31
0.0
  0
LINE
  5
172BD
330
170A2
100
AcDbEntity
  8
寸法
 62
     0
 48
50.0
370
    -2
100
AcDbLine
 10
4767.305435948512
 20
4632.225613616784
 30
0.0
 11
4767.305435948512
 21
5070.883067196085
 31
0.0
  0
LINE
  5
172BE
330
170A2
100
AcDbEntity
  8
寸法
 62
     0
 48
50.0
370
    -2
100
AcDbLine
 10
4827.305435948512
 20
5010.883067196085
 30
0.0
 11
4927.305435948512
 21
5010.883067196085
 31
0.0
  0
LINE
  5
172BF
330
170A2
100
AcDbEntity
  8
寸法
 62
     0
 48
50.0
370
    -2
100
AcDbLine
 10
4767.305435948512
 20
5010.883067196085
 30
0.0
 11
4348.029845397331
 21
5010.883067196085
 31
0.0
  0
LINE
  5
172C0
330
170A2
100
AcDbEntity
  8
寸法
 62
     0
 48
50.0
370
    -2
100
AcDbLine
 10
4827.305435948512
 20
5010.883067196085
 30
0.0
 11
4767.305435948512
 21
5010.883067196085
 31
0.0
  0
INSERT
  5
172C1
330
170A2
100
AcDbEntity
  8
寸法
 62
     0
 48
50.0
370
    -2
100
AcDbBlockReference
  2
_DOTSMALL
 10
4827.305435948512
 20
5010.883067196085
 30
0.0
 41
100.0
 42
100.0
 43
100.0
 50
180.0
  0
INSERT
  5
172C2
330
170A2
100
AcDbEntity
  8
寸法
 62
     0
 48
50.0
370
    -2
100
AcDbBlockReference
  2
_DOTSMALL
 10
4767.305435948512
 20
5010.883067196085
 30
0.0
 41
100.0
 42
100.0
 43
100.0
  0
MTEXT
  5
172C3
330
170A2
100
AcDbEntity
  8
寸法
 62
     7
 48
50.0
100
AcDbMText
 10
4457.667640672922
 20
5110.883067196085
 30
0.0
 40
120.0
 41
0.0
 71
     5
 72
     1
  1
\A1;60
  7
STYLE1
 73
     1
 44
1.0
1001
ACAD
1000
MTEXTBEGIN
1070
    73
1070
     1
1070
    44
1040
1.0
1070
    74
1070
     0
1000
MTEXTEND
  0
POINT
  5
172C4
330
170A2
100
AcDbEntity
  8
DEFPOINTS
 62
     0
 48
50.0
100
AcDbPoint
 10
4827.305435948512
 20
4608.227231739758
 30
0.0
  0
POINT
  5
172C5
330
170A2
100
AcDbEntity
  8
DEFPOINTS
 62
     0
 48
50.0
100
AcDbPoint
 10
4767.305435948512
 20
4612.225613616785
 30
0.0
  0
POINT
  5
172C6
330
170A2
100
AcDbEntity
  8
DEFPOINTS
 62
     0
 48
50.0
100
AcDbPoint
 10
4767.305435948512
 20
5010.883067196085
 30
0.0
  0
ENDBLK
  5
170AF
330
170A2
100
AcDbEntity
  8
0
 48
50.0
100
AcDbBlockEnd
  0
BLOCK
  5
170BA
330
170B0
100
AcDbEntity
  8
0
 48
50.0
100
AcDbBlockBegin
  2
*D28
 70
     1
 10
0.0
 20
0.0
 30
0.0
  3
*D28
  1

  0
LINE
  5
172B3
330
170B0
100
AcDbEntity
  8
寸法
 62
     0
 48
50.0
370
    -2
100
AcDbLine
 10
7037.305435948512
 20
4579.036293228432
 30
0.0
 11
7037.305435948512
 21
5070.883067196085
 31
0.0
  0
LINE
  5
172B4
330
170B0
100
AcDbEntity
  8
寸法
 62
     0
 48
50.0
370
    -2
100
AcDbLine
 10
4827.305435948512
 20
4628.227231739758
 30
0.0
 11
4827.305435948512
 21
5070.883067196085
 31
0.0
  0
LINE
  5
172B5
330
170B0
100
AcDbEntity
  8
寸法
 62
     0
 48
50.0
370
    -2
100
AcDbLine
 10
7037.305435948512
 20
5010.883067196085
 30
0.0
 11
4827.305435948512
 21
5010.883067196085
 31
0.0
  0
INSERT
  5
172B6
330
170B0
100
AcDbEntity
  8
寸法
 62
     0
 48
50.0
370
    -2
100
AcDbBlockReference
  2
_DOTSMALL
 10
7037.305435948512
 20
5010.883067196085
 30
0.0
 41
100.0
 42
100.0
 43
100.0
  0
INSERT
  5
172B7
330
170B0
100
AcDbEntity
  8
寸法
 62
     0
 48
50.0
370
    -2
100
AcDbBlockReference
  2
_DOTSMALL
 10
4827.305435948512
 20
5010.883067196085
 30
0.0
 41
100.0
 42
100.0
 43
100.0
 50
180.0
  0
MTEXT
  5
172B8
330
170B0
100
AcDbEntity
  8
寸法
 62
     7
 48
50.0
100
AcDbMText
 10
5921.950173019026
 20
5110.894878219706
 30
0.0
 40
120.0
 41
0.0
 71
     5
 72
     1
  1
\A1;柱外寸法2210
  7
STYLE1
 73
     1
 44
1.0
1001
ACAD
1000
MTEXTBEGIN
1070
    73
1070
     1
1070
    44
1040
1.0
1070
    74
1070
     0
1000
MTEXTEND
  0
POINT
  5
172B9
330
170B0
100
AcDbEntity
  8
DEFPOINTS
 62
     0
 48
50.0
100
AcDbPoint
 10
7037.305435948512
 20
4559.036293228433
 30
0.0
  0
POINT
  5
172BA
330
170B0
100
AcDbEntity
  8
DEFPOINTS
 62
     0
 48
50.0
100
AcDbPoint
 10
4827.305435948512
 20
4608.227231739758
 30
0.0
  0
POINT
  5
172BB
330
170B0
100
AcDbEntity
  8
DEFPOINTS
 62
     0
 48
50.0
100
AcDbPoint
 10
4827.305435948512
 20
5010.883067196085
 30
0.0
  0
ENDBLK
  5
170BB
330
170B0
100
AcDbEntity
  8
0
 48
50.0
100
AcDbBlockEnd
  0
BLOCK
  5
170C6
330
170BC
100
AcDbEntity
  8
0
 48
50.0
100
AcDbBlockBegin
  2
*D29
 70
     1
 10
0.0
 20
0.0
 30
0.0
  3
*D29
  1

  0
LINE
  5
172AA
330
170BC
100
AcDbEntity
  8
寸法
 62
     0
 48
50.0
370
    -2
100
AcDbLine
 10
7134.305435948516
 20
2537.22561361678
 30
0.0
 11
7657.412059890102
 21
2537.22561361678
 31
0.0
  0
LINE
  5
172AB
330
170BC
100
AcDbEntity
  8
寸法
 62
     0
 48
50.0
370
    -2
100
AcDbLine
 10
7137.305435948512
 20
4557.225613616782
 30
0.0
 11
7657.412059890102
 21
4557.225613616782
 31
0.0
  0
LINE
  5
172AC
330
170BC
100
AcDbEntity
  8
寸法
 62
     0
 48
50.0
370
    -2
100
AcDbLine
 10
7597.412059890102
 20
2537.22561361678
 30
0.0
 11
7597.412059890102
 21
4557.225613616782
 31
0.0
  0
INSERT
  5
172AD
330
170BC
100
AcDbEntity
  8
寸法
 62
     0
 48
50.0
370
    -2
100
AcDbBlockReference
  2
_DOTSMALL
 10
7597.412059890102
 20
2537.22561361678
 30
0.0
 41
100.0
 42
100.0
 43
100.0
 50
270.0
  0
INSERT
  5
172AE
330
170BC
100
AcDbEntity
  8
寸法
 62
     0
 48
50.0
370
    -2
100
AcDbBlockReference
  2
_DOTSMALL
 10
7597.412059890102
 20
4557.225613616782
 30
0.0
 41
100.0
 42
100.0
 43
100.0
 50
90.0
  0
MTEXT
  5
172AF
330
170BC
100
AcDbEntity
  8
寸法
 62
     7
 48
50.0
100
AcDbMText
 10
7497.40024886648
 20
3559.278294863718
 30
0.0
 40
120.0
 41
0.0
 71
     5
 72
     1
  1
\A1;2020
  7
STYLE1
 11
0.0000000000000001
 21
1.0
 31
0.0
 73
     1
 44
1.0
1001
ACAD
1000
MTEXTBEGIN
1070
    73
1070
     1
1070
    44
1040
1.0
1070
    74
1070
     0
1000
MTEXTEND
  0
POINT
  5
172B0
330
170BC
100
AcDbEntity
  8
DEFPOINTS
 62
     0
 48
50.0
100
AcDbPoint
 10
7114.305435948516
 20
2537.22561361678
 30
0.0
  0
POINT
  5
172B1
330
170BC
100
AcDbEntity
  8
DEFPOINTS
 62
     0
 48
50.0
100
AcDbPoint
 10
7117.305435948512
 20
4557.225613616782
 30
0.0
  0
POINT
  5
172B2
330
170BC
100
AcDbEntity
  8
DEFPOINTS
 62
     0
 48
50.0
100
AcDbPoint
 10
7597.412059890102
 20
4557.225613616782
 30
0.0
  0
ENDBLK
  5
170C7
330
170BC
100
AcDbEntity
  8
0
 48
50.0
100
AcDbBlockEnd
  0
BLOCK
  5
17EF0
330
17EE6
100
AcDbEntity
  8
0
 48
50.0
100
AcDbBlockBegin
  2
*D30
 70
     1
 10
0.0
 20
0.0
 30
0.0
  3
*D30
  1

  0
LINE
  5
18389
330
17EE6
100
AcDbEntity
  8
寸法
 62
     0
 48
50.0
370
    -2
100
AcDbLine
 10
9206.402465285721
 20
7675.871211422276
 30
0.0
 11
9206.402465285721
 21
6995.705582345974
 31
0.0
  0
LINE
  5
1838A
330
17EE6
100
AcDbEntity
  8
寸法
 62
     0
 48
50.0
370
    -2
100
AcDbLine
 10
10472.40246528572
 20
7675.871211422276
 30
0.0
 11
10472.40246528572
 21
6995.705582345974
 31
0.0
  0
LINE
  5
1838B
330
17EE6
100
AcDbEntity
  8
寸法
 62
     0
 48
50.0
370
    -2
100
AcDbLine
 10
9226.402465285721
 20
7035.705582345975
 30
0.0
 11
10452.40246528572
 21
7035.705582345975
 31
0.0
  0
INSERT
  5
1838C
330
17EE6
100
AcDbEntity
  8
寸法
 62
     0
 48
50.0
370
    -2
100
AcDbBlockReference
  2
_DOT
 10
9206.402465285721
 20
7035.705582345975
 30
0.0
 41
20.0
 42
20.0
 43
20.0
 50
180.0
  0
INSERT
  5
1838D
330
17EE6
100
AcDbEntity
  8
寸法
 62
     0
 48
50.0
370
    -2
100
AcDbBlockReference
  2
_DOT
 10
10472.40246528572
 20
7035.705582345975
 30
0.0
 41
20.0
 42
20.0
 43
20.0
  0
MTEXT
  5
1838E
330
17EE6
100
AcDbEntity
  8
寸法
 62
     7
 48
50.0
100
AcDbMText
 10
9849.794905497068
 20
7227.717393369596
 30
0.0
 40
120.0
 41
0.0
 71
     5
 72
     1
  1
\A1;有効開口部間口\P1266
  7
STYLE1
 73
     1
 44
1.0
1001
ACAD
1000
MTEXTBEGIN
1070
    73
1070
     1
1070
    44
1040
1.0
1070
    74
1070
     0
1000
MTEXTEND
  0
POINT
  5
1838F
330
17EE6
100
AcDbEntity
  8
DEFPOINTS
 62
     0
 48
50.0
100
AcDbPoint
 10
9206.402465285721
 20
7695.871211422276
 30
0.0
  0
POINT
  5
18390
330
17EE6
100
AcDbEntity
  8
DEFPOINTS
 62
     0
 48
50.0
100
AcDbPoint
 10
10472.40246528572
 20
7695.871211422276
 30
0.0
  0
POINT
  5
18391
330
17EE6
100
AcDbEntity
  8
DEFPOINTS
 62
     0
 48
50.0
100
AcDbPoint
 10
10472.40246528572
 20
7035.705582345975
 30
0.0
  0
ENDBLK
  5
17EF1
330
17EE6
100
AcDbEntity
  8
0
 48
50.0
100
AcDbBlockEnd
  0
BLOCK
  5
1821F
330
18215
100
AcDbEntity
  8
0
 48
50.0
100
AcDbBlockBegin
  2
*D31
 70
     1
 10
0.0
 20
0.0
 30
0.0
  3
*D31
  1

  0
LINE
  5
18380
330
18215
100
AcDbEntity
  8
寸法
 62
     0
 48
50.0
370
    -2
100
AcDbLine
 10
9167.402465285722
 20
7675.871211422311
 30
0.0
 11
9167.402465285722
 21
6671.198015901913
 31
0.0
  0
LINE
  5
18381
330
18215
100
AcDbEntity
  8
寸法
 62
     0
 48
50.0
370
    -2
100
AcDbLine
 10
11321.40246528572
 20
7675.871211422311
 30
0.0
 11
11321.40246528572
 21
6671.198015901913
 31
0.0
  0
LINE
  5
18382
330
18215
100
AcDbEntity
  8
寸法
 62
     0
 48
50.0
370
    -2
100
AcDbLine
 10
9167.402465285722
 20
6731.198015901914
 30
0.0
 11
11321.40246528572
 21
6731.198015901914
 31
0.0
  0
INSERT
  5
18383
330
18215
100
AcDbEntity
  8
寸法
 62
     0
 48
50.0
370
    -2
100
AcDbBlockReference
  2
_DOTSMALL
 10
9167.402465285722
 20
6731.198015901914
 30
0.0
 41
100.0
 42
100.0
 43
100.0
 50
180.0
  0
INSERT
  5
18384
330
18215
100
AcDbEntity
  8
寸法
 62
     0
 48
50.0
370
    -2
100
AcDbBlockReference
  2
_DOTSMALL
 10
11321.40246528572
 20
6731.198015901914
 30
0.0
 41
100.0
 42
100.0
 43
100.0
  0
MTEXT
  5
18385
330
18215
100
AcDbEntity
  8
寸法
 62
     7
 48
50.0
100
AcDbMText
 10
10244.40246528572
 20
6831.209826925536
 30
0.0
 40
120.0
 41
0.0
 71
     5
 72
     1
  1
\A1;2154
  7
STYLE1
 73
     1
 44
1.0
1001
ACAD
1000
MTEXTBEGIN
1070
    73
1070
     1
1070
    44
1040
1.0
1070
    74
1070
     0
1000
MTEXTEND
  0
POINT
  5
18386
330
18215
100
AcDbEntity
  8
DEFPOINTS
 62
     0
 48
50.0
100
AcDbPoint
 10
9167.402465285722
 20
7695.871211422312
 30
0.0
  0
POINT
  5
18387
330
18215
100
AcDbEntity
  8
DEFPOINTS
 62
     0
 48
50.0
100
AcDbPoint
 10
11321.40246528572
 20
7695.871211422312
 30
0.0
  0
POINT
  5
18388
330
18215
100
AcDbEntity
  8
DEFPOINTS
 62
     0
 48
50.0
100
AcDbPoint
 10
11321.40246528572
 20
6731.198015901914
 30
0.0
  0
ENDBLK
  5
18220
330
18215
100
AcDbEntity
  8
0
 48
50.0
100
AcDbBlockEnd
  0
BLOCK
  5
1822D
330
18221
100
AcDbEntity
  8
0
 48
50.0
100
AcDbBlockBegin
  2
*D32
 70
     1
 10
0.0
 20
0.0
 30
0.0
  3
*D32
  1

  0
LINE
  5
18375
330
18221
100
AcDbEntity
  8
寸法
 62
     0
 48
50.0
370
    -2
100
AcDbLine
 10
9119.402465285771
 20
7772.871211422367
 30
0.0
 11
8804.791219659056
 21
7772.871211422367
 31
0.0
  0
LINE
  5
18376
330
18221
100
AcDbEntity
  8
寸法
 62
     0
 48
50.0
370
    -2
100
AcDbLine
 10
9147.402465285749
 20
7697.871211422366
 30
0.0
 11
8804.791219659056
 21
7697.871211422366
 31
0.0
  0
LINE
  5
18377
330
18221
100
AcDbEntity
  8
寸法
 62
     0
 48
50.0
370
    -2
100
AcDbLine
 10
8844.791219659056
 20
7792.871211422367
 30
0.0
 11
8844.791219659056
 21
7812.871211422366
 31
0.0
  0
LINE
  5
18378
330
18221
100
AcDbEntity
  8
寸法
 62
     0
 48
50.0
370
    -2
100
AcDbLine
 10
8844.791219659056
 20
7677.871211422367
 30
0.0
 11
8844.791219659056
 21
7456.900648673888
 31
0.0
  0
LINE
  5
18379
330
18221
100
AcDbEntity
  8
寸法
 62
     0
 48
50.0
370
    -2
100
AcDbLine
 10
8844.791219659056
 20
7772.871211422367
 30
0.0
 11
8844.791219659056
 21
7697.871211422366
 31
0.0
  0
INSERT
  5
1837A
330
18221
100
AcDbEntity
  8
寸法
 62
     0
 48
50.0
370
    -2
100
AcDbBlockReference
  2
_DOT
 10
8844.791219659056
 20
7772.871211422367
 30
0.0
 41
20.0
 42
20.0
 43
20.0
 50
270.0
  0
INSERT
  5
1837B
330
18221
100
AcDbEntity
  8
寸法
 62
     0
 48
50.0
370
    -2
100
AcDbBlockReference
  2
_DOT
 10
8844.791219659056
 20
7697.871211422366
 30
0.0
 41
20.0
 42
20.0
 43
20.0
 50
90.0
  0
MTEXT
  5
1837C
330
18221
100
AcDbEntity
  8
寸法
 62
     7
 48
50.0
100
AcDbMText
 10
8752.791219659053
 20
7557.385930048129
 30
0.0
 40
120.0
 41
0.0
 71
     5
 72
     1
  1
\A1;75
  7
STYLE1
 11
0.0000000000000001
 21
1.0
 31
0.0
 73
     1
 44
1.0
1001
ACAD
1000
MTEXTBEGIN
1070
    73
1070
     1
1070
    44
1040
1.0
1070
    74
1070
     0
1000
MTEXTEND
  0
POINT
  5
1837D
330
18221
100
AcDbEntity
  8
DEFPOINTS
 62
     0
 48
50.0
100
AcDbPoint
 10
9139.402465285773
 20
7772.871211422367
 30
0.0
  0
POINT
  5
1837E
330
18221
100
AcDbEntity
  8
DEFPOINTS
 62
     0
 48
50.0
100
AcDbPoint
 10
9167.40246528575
 20
7697.871211422366
 30
0.0
  0
POINT
  5
1837F
330
18221
100
AcDbEntity
  8
DEFPOINTS
 62
     0
 48
50.0
100
AcDbPoint
 10
8844.791219659056
 20
7697.871211422366
 30
0.0
  0
ENDBLK
  5
1822E
330
18221
100
AcDbEntity
  8
0
 48
50.0
100
AcDbBlockEnd
  0
BLOCK
  5
18277
330
1826D
100
AcDbEntity
  8
0
 48
50.0
100
AcDbBlockBegin
  2
*D33
 70
     1
 10
0.0
 20
0.0
 30
0.0
  3
*D33
  1

  0
LINE
  5
1836C
330
1826D
100
AcDbEntity
  8
寸法
 62
     0
 48
50.0
370
    -2
100
AcDbLine
 10
9139.402465285773
 20
7752.871211422334
 30
0.0
 11
9139.402465285773
 21
6408.844885895435
 31
0.0
  0
LINE
  5
1836D
330
1826D
100
AcDbEntity
  8
寸法
 62
     0
 48
50.0
370
    -2
100
AcDbLine
 10
11349.40246528575
 20
7752.87121142246
 30
0.0
 11
11349.40246528575
 21
6408.844885895435
 31
0.0
  0
LINE
  5
1836E
330
1826D
100
AcDbEntity
  8
寸法
 62
     0
 48
50.0
370
    -2
100
AcDbLine
 10
9139.402465285773
 20
6468.844885895435
 30
0.0
 11
11349.40246528575
 21
6468.844885895435
 31
0.0
  0
INSERT
  5
1836F
330
1826D
100
AcDbEntity
  8
寸法
 62
     0
 48
50.0
370
    -2
100
AcDbBlockReference
  2
_DOTSMALL
 10
9139.402465285773
 20
6468.844885895435
 30
0.0
 41
100.0
 42
100.0
 43
100.0
 50
180.0
  0
INSERT
  5
18370
330
1826D
100
AcDbEntity
  8
寸法
 62
     0
 48
50.0
370
    -2
100
AcDbBlockReference
  2
_DOTSMALL
 10
11349.40246528575
 20
6468.844885895435
 30
0.0
 41
100.0
 42
100.0
 43
100.0
  0
MTEXT
  5
18371
330
1826D
100
AcDbEntity
  8
寸法
 62
     7
 48
50.0
100
AcDbMText
 10
10242.98389649419
 20
6568.856696919057
 30
0.0
 40
120.0
 41
0.0
 71
     5
 72
     1
  1
\A1;2210
  7
STYLE1
 73
     1
 44
1.0
1001
ACAD
1000
MTEXTBEGIN
1070
    73
1070
     1
1070
    44
1040
1.0
1070
    74
1070
     0
1000
MTEXTEND
  0
POINT
  5
18372
330
1826D
100
AcDbEntity
  8
DEFPOINTS
 62
     0
 48
50.0
100
AcDbPoint
 10
9139.402465285773
 20
7772.871211422334
 30
0.0
  0
POINT
  5
18373
330
1826D
100
AcDbEntity
  8
DEFPOINTS
 62
     0
 48
50.0
100
AcDbPoint
 10
11349.40246528575
 20
7772.871211422461
 30
0.0
  0
POINT
  5
18374
330
1826D
100
AcDbEntity
  8
DEFPOINTS
 62
     0
 48
50.0
100
AcDbPoint
 10
11349.40246528575
 20
6468.844885895435
 30
0.0
  0
ENDBLK
  5
18278
330
1826D
100
AcDbEntity
  8
0
 48
50.0
100
AcDbBlockEnd
  0
ENDSEC
  0
SECTION
  2
ENTITIES
  0
LINE
  5
10B57
330
747D
100
AcDbEntity
  8
補助
  6
PHANTOM
 62
   230
 48
50.0
100
AcDbLine
 10
139.9999999999995
 20
11409.6
 30
0.0
 11
16307.2
 21
11409.6
 31
0.0
  0
LINE
  5
10B59
330
747D
100
AcDbEntity
  8
仕様書枠
  6
Continuous
 48
50.0
100
AcDbLine
 10
13107.2
 20
1200.0
 30
0.0
 11
13107.2
 21
-0.0000000000000729
 31
0.0
  0
LINE
  5
10B5C
330
747D
100
AcDbEntity
  8
仕様書枠
 48
50.0
100
AcDbLine
 10
16307.2
 20
1200.0
 30
0.0
 11
16307.2
 21
-0.0000000000000909
 31
0.0
  0
LINE
  5
10B5D
330
747D
100
AcDbEntity
  8
仕様書枠
 48
50.0
100
AcDbLine
 10
140.0
 20
0.0
 30
0.0
 11
16307.2
 21
-0.0000000000000909
 31
0.0
  0
LINE
  5
10B5E
330
747D
100
AcDbEntity
  8
補助
  6
PHANTOM
 62
   230
 48
50.0
100
AcDbLine
 10
16307.2
 20
11409.6
 30
0.0
 11
16307.2
 21
1200.0
 31
0.0
  0
LINE
  5
10B6C
330
747D
100
AcDbEntity
  8
仕様書枠
 48
50.0
100
AcDbLine
 10
13107.2
 20
1200.0
 30
0.0
 11
16307.2
 21
1200.0
 31
0.0
  0
LINE
  5
10B6D
330
747D
100
AcDbEntity
  8
補助
  6
PHANTOM
 62
   230
 48
50.0
100
AcDbLine
 10
13107.2
 20
11409.6
 30
0.0
 11
13107.2
 21
4800.0
 31
0.0
  0
LINE
  5
10B6F
330
747D
100
AcDbEntity
  8
補助
  6
PHANTOM
 62
   230
 48
50.0
100
AcDbLine
 10
13107.2
 20
4800.0
 30
0.0
 11
16307.2
 21
4800.0
 31
0.0
  0
LINE
  5
10B72
330
747D
100
AcDbEntity
  8
文字
 62
     7
 48
50.0
100
AcDbLine
 10
13187.2
 20
400.0
 30
0.0
 11
16227.2
 21
400.0
 31
0.0
  0
TEXT
  5
10B73
330
747D
100
AcDbEntity
  8
文字
 62
     7
 48
50.0
100
AcDbText
 10
13162.9790565769
 20
895.0906074299405
 30
0.0
 40
200.0
  1
外 形 図
  7
STYLE2
100
AcDbText
  0
TEXT
  5
10B74
330
747D
100
AcDbEntity
  8
文字
 62
     7
 48
50.0
100
AcDbText
 10
13201.43669998441
 20
477.2740661031255
 30
0.0
 40
160.0
  1
機種名
  7
STYLE2
100
AcDbText
  0
TEXT
  5
10B76
330
747D
100
AcDbEntity
  8
文字
 62
     7
 48
50.0
100
AcDbText
 10
13209.4053442172
 20
76.09434707649343
 30
0.0
 40
100.0
  1
○床面積 ： 5.05㎡(1.53坪) 　
  7
STYLE2
100
AcDbText
  0
TEXT
  5
10B79
330
747D
100
AcDbEntity
  8
文字
 62
     7
 48
50.0
100
AcDbText
 10
14524.131837222
 20
1031.557706291228
 30
0.0
 40
100.0
  1
NO.16      <縮尺> S=1/40
  7
STYLE2
100
AcDbText
  0
LINE
  5
10B7B
330
747D
100
AcDbEntity
  8
仕様書枠
 48
50.0
100
AcDbLine
 10
13107.2
 20
800.0
 30
0.0
 11
14251.2
 21
800.0
 31
0.0
  0
LINE
  5
10B88
330
747D
100
AcDbEntity
  8
仕様書枠
  6
Continuous
 48
50.0
100
AcDbLine
 10
14251.2
 20
1200.0
 30
0.0
 11
14251.2
 21
800.0
 31
0.0
  0
TEXT
  5
154D3
330
747D
100
AcDbEntity
  8
文字
 62
     7
 48
50.0
100
AcDbText
 10
14643.63059855437
 20
863.0097378581719
 30
0.0
 40
100.0
  1
～一般型・多雪地型～
  7
STYLE2
100
AcDbText
  0
LINE
  5
16125
330
747D
100
AcDbEntity
  8
補助
  6
PHANTOM
 62
   230
 48
50.0
100
AcDbLine
 10
140.0
 20
0.0
 30
0.0
 11
139.9999999999995
 21
11409.6
 31
0.0
  0
LINE
  5
165A3
330
747D
100
AcDbEntity
  8
部品1
100
AcDbLine
 10
11321.40246528578
 20
8247.871211422474
 30
0.0
 11
11349.40246528578
 21
8247.871211422474
 31
0.0
  0
LINE
  5
165A4
330
747D
100
AcDbEntity
  8
部品1
100
AcDbLine
 10
9167.402465285757
 20
8247.871211422346
 30
0.0
 11
9139.402465285757
 21
8247.871211422346
 31
0.0
  0
LINE
  5
165A5
330
747D
100
AcDbEntity
  8
部品1
 48
50.0
100
AcDbLine
 10
11292.90246528576
 20
8247.871211422474
 30
0.0
 11
9195.902465285762
 21
8247.871211422561
 31
0.0
  0
TEXT
  5
1661E
330
747D
100
AcDbEntity
  8
文字
 62
     7
 48
50.0
100
AcDbText
 10
13209.4053442172
 20
228.543524256902
 30
0.0
 40
100.0
  1
○有効開口寸法 ： 1266×1725(mm)
  7
STYLE2
100
AcDbText
  0
LINE
  5
1661F
330
747D
100
AcDbEntity
  8
Ｇ．Ｌ
100
AcDbLine
 10
2906.849496313689
 20
2437.225613616782
 30
0.0
 11
11998.91501831461
 21
2437.225613616782
 31
0.0
  0
LINE
  5
16620
330
747D
100
AcDbEntity
  8
部品1
100
AcDbLine
 10
9139.402465285773
 20
2537.225613616782
 30
0.0
 11
11349.40246528577
 21
2537.225613616782
 31
0.0
  0
LINE
  5
16621
330
747D
100
AcDbEntity
  8
部品1
100
AcDbLine
 10
9139.402465285773
 20
4377.225613616782
 30
0.0
 11
11349.40246528577
 21
4377.225613616782
 31
0.0
  0
LINE
  5
16622
330
747D
100
AcDbEntity
  8
部品1
100
AcDbLine
 10
9139.402465285773
 20
4430.725613616782
 30
0.0
 11
9139.402465285773
 21
2437.225613616782
 31
0.0
  0
LINE
  5
16623
330
747D
100
AcDbEntity
  8
部品1
100
AcDbLine
 10
11349.40246528577
 20
4430.725613616782
 30
0.0
 11
11349.40246528577
 21
2437.225613616782
 31
0.0
  0
LINE
  5
16624
330
747D
100
AcDbEntity
  8
部品1
100
AcDbLine
 10
10949.40246528577
 20
2537.225613616782
 30
0.0
 11
10949.40246528577
 21
2437.225613616782
 31
0.0
  0
LINE
  5
16625
330
747D
100
AcDbEntity
  8
部品1
100
AcDbLine
 10
9539.402465285773
 20
2537.225613616782
 30
0.0
 11
9539.402465285773
 21
2437.225613616782
 31
0.0
  0
LINE
  5
16628
330
747D
100
AcDbEntity
  8
部品1
100
AcDbLine
 10
11354.40246528577
 20
2582.225613616782
 30
0.0
 11
11354.40246528577
 21
2437.225613616782
 31
0.0
  0
LINE
  5
16629
330
747D
100
AcDbEntity
  8
破線
 48
5.0
100
AcDbLine
 10
11449.40246528577
 20
2237.225613616782
 30
0.0
 11
11249.40246528577
 21
2237.225613616782
 31
0.0
  0
LINE
  5
1662A
330
747D
100
AcDbEntity
  8
破線
 48
5.0
100
AcDbLine
 10
11249.40246528577
 20
2437.225613616782
 30
0.0
 11
11249.40246528577
 21
2237.225613616782
 31
0.0
  0
LINE
  5
1662B
330
747D
100
AcDbEntity
  8
破線
 48
5.0
100
AcDbLine
 10
11449.40246528577
 20
2437.225613616782
 30
0.0
 11
11449.40246528577
 21
2237.225613616782
 31
0.0
  0
LINE
  5
1662C
330
747D
100
AcDbEntity
  8
破線
 48
5.0
100
AcDbLine
 10
11374.40246528577
 20
2282.225613616782
 30
0.0
 11
11354.40246528577
 21
2282.225613616782
 31
0.0
  0
LINE
  5
1662D
330
747D
100
AcDbEntity
  8
部品1
100
AcDbLine
 10
9134.402465285772
 20
2582.225613616783
 30
0.0
 11
9134.402465285772
 21
2437.225613616782
 31
0.0
  0
LINE
  5
1662E
330
747D
100
AcDbEntity
  8
破線
 48
5.0
100
AcDbLine
 10
9039.402465285773
 20
2237.225613616782
 30
0.0
 11
9239.402465285774
 21
2237.225613616782
 31
0.0
  0
LINE
  5
1662F
330
747D
100
AcDbEntity
  8
破線
 48
5.0
100
AcDbLine
 10
9039.402465285773
 20
2437.225613616782
 30
0.0
 11
9039.402465285773
 21
2237.225613616782
 31
0.0
  0
LINE
  5
16630
330
747D
100
AcDbEntity
  8
破線
 48
5.0
100
AcDbLine
 10
9114.402465285772
 20
2282.225613616782
 30
0.0
 11
9134.402465285774
 21
2282.225613616782
 31
0.0
  0
LINE
  5
16631
330
747D
100
AcDbEntity
  8
破線
 48
5.0
100
AcDbLine
 10
9239.402465285772
 20
2437.225613616782
 30
0.0
 11
9239.402465285772
 21
2237.225613616782
 31
0.0
  0
LINE
  5
16632
330
747D
100
AcDbEntity
  8
破線
 48
5.0
100
AcDbLine
 10
11354.40246528577
 20
2437.225613616782
 30
0.0
 11
11354.40246528577
 21
2282.225613616782
 31
0.0
  0
LINE
  5
16633
330
747D
100
AcDbEntity
  8
破線
 48
5.0
100
AcDbLine
 10
9134.402465285772
 20
2437.225613616782
 30
0.0
 11
9134.402465285772
 21
2282.225613616782
 31
0.0
  0
DIMENSION
  5
16634
330
747D
100
AcDbEntity
  8
寸法
 48
50.0
100
AcDbDimension
  2
*D2
 10
9039.402465285773
 20
1951.178284316404
 30
0.0
 11
9139.402465285774
 21
1951.178284316404
 31
0.0
 70
   160
 71
     5
 42
200.0000000000018
  3
INABA_S40G
100
AcDbAlignedDimension
 13
9239.402465285774
 23
2237.225613616782
 33
0.0
 14
9039.402465285773
 24
2237.225613616782
 34
0.0
100
AcDbRotatedDimension
  0
TEXT
  5
16635
330
747D
100
AcDbEntity
  8
部品1
100
AcDbText
 10
9953.192535909504
 20
1555.293821420849
 30
0.0
 40
135.0
  1
正面図
  7
STYLE2
100
AcDbText
  0
LINE
  5
16636
330
747D
100
AcDbEntity
  8
部品1
100
AcDbLine
 10
9139.402465285773
 20
2587.225613616785
 30
0.0
 11
9167.402465285771
 21
2587.225613616785
 31
0.0
  0
DIMENSION
  5
16637
330
747D
100
AcDbEntity
  8
寸法
100
AcDbDimension
  2
*D3
 10
12297.13991166555
 20
7772.871211422461
 30
0.0
 11
12297.13991166555
 21
8862.834240165248
 31
0.0
 70
   160
 71
     5
 42
2210.000000000007
  3
INABA_S40G
100
AcDbAlignedDimension
 13
11349.40246528578
 23
9982.87121142247
 33
0.0
 14
11349.40246528575
 24
7772.871211422461
 34
0.0
 50
90.0
100
AcDbRotatedDimension
1001
ACAD
1000
DSTYLE
1002
{
1002
}
  0
DIMENSION
  5
16638
330
747D
100
AcDbEntity
  8
寸法
100
AcDbDimension
  2
*D4
 10
11294.40246528578
 20
10285.91680599807
 30
0.0
 11
10244.40246528578
 21
10285.91680599807
 31
0.0
 70
   160
  1
5X420=<>
 71
     5
 42
2100.0
  3
INABA_S40G
100
AcDbAlignedDimension
 13
9194.402465285779
 23
9982.871211422375
 33
0.0
 14
11294.40246528578
 24
9982.87121142247
 34
0.0
100
AcDbRotatedDimension
1001
ACAD
1000
DSTYLE
1002
{
1002
}
  0
DIMENSION
  5
16639
330
747D
100
AcDbEntity
  8
寸法
100
AcDbDimension
  2
*D5
 10
11349.40246528578
 20
10285.91680599805
 30
0.0
 11
11657.88774666002
 21
10285.91680599805
 31
0.0
 70
   160
 71
     5
 42
55.0
  3
INABA_S40G
100
AcDbAlignedDimension
 13
11294.40246528578
 23
9982.87121142247
 33
0.0
 14
11349.40246528578
 24
9982.87121142247
 34
0.0
100
AcDbRotatedDimension
1001
ACAD
1000
DSTYLE
1002
{
1002
}
  0
DIMENSION
  5
1663A
330
747D
100
AcDbEntity
  8
寸法
100
AcDbDimension
  2
*D6
 10
11996.82881102019
 20
9927.871211422473
 30
0.0
 11
11996.82881102019
 21
10291.35649279671
 31
0.0
 70
   160
 71
     5
 42
54.99999999999636
  3
INABA_S40G
100
AcDbAlignedDimension
 13
11349.40246528578
 23
9982.87121142247
 33
0.0
 14
11349.40246528578
 24
9927.871211422473
 34
0.0
 50
90.0
100
AcDbRotatedDimension
1001
ACAD
1000
DSTYLE
1002
{
1002
}
  0
DIMENSION
  5
1663B
330
747D
100
AcDbEntity
  8
寸法
100
AcDbDimension
  2
*D7
 10
9194.402465285779
 20
10285.91680599795
 30
0.0
 11
8830.917183911504
 21
10285.91680599795
 31
0.0
 70
   160
 71
     5
 42
55.00000000003637
  3
INABA_S40G
100
AcDbAlignedDimension
 13
9139.402465285742
 23
9982.871211422375
 33
0.0
 14
9194.402465285779
 24
9982.871211422375
 34
0.0
100
AcDbRotatedDimension
1001
ACAD
1000
DSTYLE
1002
{
1002
}
  0
LINE
  5
1663C
330
747D
100
AcDbEntity
  8
部品1
100
AcDbLine
 10
11292.90246528574
 20
7829.37121142239
 30
0.0
 11
9195.902465285655
 21
7829.371211422294
 31
0.0
  0
LINE
  5
1663D
330
747D
100
AcDbEntity
  8
破線
 48
10.0
100
AcDbLine
 10
10564.90246528579
 20
7852.871211422358
 30
0.0
 11
9923.90246528579
 21
7852.871211422328
 31
0.0
  0
DIMENSION
  5
1663E
330
747D
100
AcDbEntity
  8
寸法
100
AcDbDimension
  2
*D8
 10
10362.12183382607
 20
9208.857892162347
 30
0.0
 11
9701.557596566505
 21
9208.857892162347
 31
0.0
 70
   160
 71
     5
 42
1273.000000000011
  3
INABA_S40G
100
AcDbAlignedDimension
 13
9167.902465285779
 23
9502.871211422375
 33
0.0
 14
10440.90246528579
 24
9502.871211422368
 34
0.0
100
AcDbRotatedDimension
1001
ACAD
1000
DSTYLE
1002
{
1002
}
  0
LINE
  5
1663F
330
747D
100
AcDbEntity
  8
細線
 48
50.0
100
AcDbLine
 10
10440.90246528577
 20
9502.87121142248
 30
0.0
 11
9167.902465285777
 21
9952.871211422376
 31
0.0
  0
LINE
  5
16640
330
747D
100
AcDbEntity
  8
部品1
100
AcDbLine
 10
9167.902465285777
 20
9952.871211422376
 30
0.0
 11
10440.90246528578
 21
9952.871211422481
 31
0.0
  0
LINE
  5
16641
330
747D
100
AcDbEntity
  8
細線
 48
50.0
100
AcDbLine
 10
10440.90246528578
 20
9952.871211422475
 30
0.0
 11
9167.902465285779
 21
9502.871211422375
 31
0.0
  0
LINE
  5
16642
330
747D
100
AcDbEntity
  8
部品1
100
AcDbLine
 10
9167.902465285779
 20
9502.871211422375
 30
0.0
 11
10440.90246528577
 21
9502.87121142248
 31
0.0
  0
LINE
  5
16643
330
747D
100
AcDbEntity
  8
部品1
100
AcDbLine
 10
9139.40246528578
 20
9982.871211422375
 30
0.0
 11
11349.40246528578
 21
9982.87121142247
 31
0.0
  0
LINE
  5
16644
330
747D
100
AcDbEntity
  8
部品1
100
AcDbLine
 10
9167.40246528578
 20
9954.871211422375
 30
0.0
 11
10441.90246528577
 21
9954.871211422492
 31
0.0
  0
LINE
  5
16646
330
747D
100
AcDbEntity
  8
破線
 48
10.0
100
AcDbLine
 10
9219.402465285753
 20
9502.871211422473
 30
0.0
 11
9219.402465285767
 21
7852.871211422294
 31
0.0
  0
LINE
  5
16647
330
747D
100
AcDbEntity
  8
部品1
100
AcDbLine
 10
9195.902465285755
 20
9502.871211422473
 30
0.0
 11
9195.902465285772
 21
7829.371211422411
 31
0.0
  0
LINE
  5
16648
330
747D
100
AcDbEntity
  8
部品1
100
AcDbLine
 10
9167.402465285753
 20
7800.871211422393
 30
0.0
 11
9167.40246528578
 21
9954.871211422375
 31
0.0
  0
LINE
  5
16649
330
747D
100
AcDbEntity
  8
部品1
100
AcDbLine
 10
9139.402465285742
 20
9982.871211422342
 30
0.0
 11
9139.402465285773
 21
7772.871211422331
 31
0.0
  0
LINE
  5
1664A
330
747D
100
AcDbEntity
  8
部品1
 48
50.0
100
AcDbLine
 10
9195.902465285753
 20
7829.37121142239
 30
0.0
 11
9167.402465285753
 21
7800.871211422393
 31
0.0
  0
LINE
  5
1664B
330
747D
100
AcDbEntity
  8
部品1
 48
50.0
100
AcDbLine
 10
9167.902465285777
 20
9952.871211422371
 30
0.0
 11
9167.902465285779
 21
9502.871211422371
 31
0.0
  0
LINE
  5
1664C
330
747D
100
AcDbEntity
  8
部品1
100
AcDbLine
 10
9167.402465285753
 20
9507.871211422346
 30
0.0
 11
9139.402465285753
 21
9507.871211422346
 31
0.0
  0
LINE
  5
1664D
330
747D
100
AcDbEntity
  8
部品1
100
AcDbLine
 10
9167.402465285746
 20
9927.871211422345
 30
0.0
 11
9139.402465285746
 21
9927.871211422345
 31
0.0
  0
LINE
  5
1664E
330
747D
100
AcDbEntity
  8
部品1
100
AcDbLine
 10
9194.402465285779
 20
9982.871211422375
 30
0.0
 11
9194.402465285779
 21
9954.871211422375
 31
0.0
  0
LINE
  5
1664F
330
747D
100
AcDbEntity
  8
部品1
100
AcDbLine
 10
9194.402465285742
 20
9982.871211422342
 30
0.0
 11
9194.402465285746
 21
9954.871211422343
 31
0.0
  0
DIMENSION
  5
16650
330
747D
100
AcDbEntity
  8
寸法
100
AcDbDimension
  2
*D9
 10
11996.82881102016
 20
7772.871211422461
 30
0.0
 11
11996.82881102016
 21
7395.0097445176
 31
0.0
 70
   160
 71
     5
 42
54.99999999999636
  3
INABA_S40G
100
AcDbAlignedDimension
 13
11349.40246528575
 23
7827.871211422458
 33
0.0
 14
11349.40246528575
 24
7772.871211422461
 34
0.0
 50
90.0
100
AcDbRotatedDimension
1001
ACAD
1000
DSTYLE
1002
{
1002
}
  0
LINE
  5
16652
330
747D
100
AcDbEntity
  8
破線
 48
10.0
100
AcDbLine
 10
11269.40246528574
 20
7852.871211422389
 30
0.0
 11
10614.90246528579
 21
7852.87121142236
 31
0.0
  0
DIMENSION
  5
16653
330
747D
100
AcDbEntity
  8
寸法
100
AcDbDimension
  2
*D10
 10
11242.33369172936
 20
9209.648556621505
 30
0.0
 11
10847.24952740405
 21
9209.648556621505
 31
0.0
 70
   160
 71
     5
 42
853.0000000000109
  3
INABA_S40G
100
AcDbAlignedDimension
 13
10467.90246528578
 23
9502.87121142248
 33
0.0
 14
11320.90246528579
 24
9502.871211422473
 34
0.0
100
AcDbRotatedDimension
1001
ACAD
1000
DSTYLE
1002
{
1002
}
  0
LINE
  5
16654
330
747D
100
AcDbEntity
  8
細線
 48
50.0
100
AcDbLine
 10
11320.90246528578
 20
9952.871211422468
 30
0.0
 11
10467.90246528577
 21
9502.87121142248
 31
0.0
  0
LINE
  5
16655
330
747D
100
AcDbEntity
  8
部品1
100
AcDbLine
 10
10467.90246528578
 20
9952.871211422475
 30
0.0
 11
11320.90246528578
 21
9952.871211422468
 31
0.0
  0
LINE
  5
16656
330
747D
100
AcDbEntity
  8
部品1
100
AcDbLine
 10
10467.90246528577
 20
9502.87121142248
 30
0.0
 11
11320.90246528578
 21
9502.871211422473
 31
0.0
  0
LINE
  5
16657
330
747D
100
AcDbEntity
  8
細線
 48
50.0
100
AcDbLine
 10
11320.90246528578
 20
9502.871211422473
 30
0.0
 11
10467.90246528578
 21
9952.871211422474
 31
0.0
  0
LINE
  5
16658
330
747D
100
AcDbEntity
  8
部品1
100
AcDbLine
 10
10466.90246528578
 20
9954.871211422487
 30
0.0
 11
11321.40246528578
 21
9954.871211422471
 31
0.0
  0
LINE
  5
1665B
330
747D
100
AcDbEntity
  8
部品1
100
AcDbLine
 10
9614.402465285779
 20
9982.871211422375
 30
0.0
 11
9614.402465285779
 21
9954.871211422375
 31
0.0
  0
LINE
  5
1665C
330
747D
100
AcDbEntity
  8
部品1
100
AcDbLine
 10
9614.402465285779
 20
9982.871211422375
 30
0.0
 11
9614.402465285779
 21
9954.871211422375
 31
0.0
  0
LINE
  5
1665D
330
747D
100
AcDbEntity
  8
部品1
100
AcDbLine
 10
9614.402465285779
 20
9982.871211422491
 30
0.0
 11
9614.402465285779
 21
9954.871211422492
 31
0.0
  0
LINE
  5
1665E
330
747D
100
AcDbEntity
  8
部品1
 48
50.0
100
AcDbLine
 10
10440.90246528578
 20
9952.871211422475
 30
0.0
 11
10440.90246528578
 21
9502.87121142248
 31
0.0
  0
LINE
  5
1665F
330
747D
100
AcDbEntity
  8
部品1
 48
50.0
100
AcDbLine
 10
10467.90246528578
 20
9952.871211422474
 30
0.0
 11
10467.90246528578
 21
9502.87121142248
 31
0.0
  0
LINE
  5
16660
330
747D
100
AcDbEntity
  8
部品1
 48
50.0
100
AcDbLine
 10
10441.90246528577
 20
9954.871211422485
 30
0.0
 11
10441.90246528578
 21
9502.87121142248
 31
0.0
  0
LINE
  5
16661
330
747D
100
AcDbEntity
  8
部品1
 48
50.0
100
AcDbLine
 10
10466.90246528578
 20
9954.87121142248
 30
0.0
 11
10466.90246528578
 21
9502.87121142248
 31
0.0
  0
LINE
  5
16662
330
747D
100
AcDbEntity
  8
部品1
100
AcDbLine
 10
10441.90246528578
 20
9502.87121142248
 30
0.0
 11
10466.90246528578
 21
9502.87121142248
 31
0.0
  0
LINE
  5
16663
330
747D
100
AcDbEntity
  8
部品1
100
AcDbLine
 10
10419.40246528578
 20
9972.871211422477
 30
0.0
 11
10419.40246528578
 21
9954.871211422478
 31
0.0
  0
LINE
  5
16664
330
747D
100
AcDbEntity
  8
部品1
100
AcDbLine
 10
10419.40246528578
 20
9972.871211422477
 30
0.0
 11
10425.40246528578
 21
9972.871211422477
 31
0.0
  0
LINE
  5
16665
330
747D
100
AcDbEntity
  8
部品1
100
AcDbLine
 10
10489.40246528578
 20
9972.871211422477
 30
0.0
 11
10489.40246528578
 21
9954.871211422478
 31
0.0
  0
LINE
  5
16666
330
747D
100
AcDbEntity
  8
部品1
100
AcDbLine
 10
10483.40246528578
 20
9972.871211422477
 30
0.0
 11
10489.40246528578
 21
9972.871211422477
 31
0.0
  0
LINE
  5
16667
330
747D
100
AcDbEntity
  8
部品1
100
AcDbLine
 10
10441.90246528578
 20
9946.871211422473
 30
0.0
 11
10466.90246528578
 21
9946.871211422477
 31
0.0
  0
LINE
  5
16668
330
747D
100
AcDbEntity
  8
部品1
100
AcDbLine
 10
10454.40246528578
 20
9982.871211422491
 30
0.0
 11
10454.40246528578
 21
9954.871211422492
 31
0.0
  0
LINE
  5
16669
330
747D
100
AcDbEntity
  8
部品1
100
AcDbLine
 10
10874.40246528578
 20
9982.871211422491
 30
0.0
 11
10874.40246528578
 21
9954.871211422492
 31
0.0
  0
LINE
  5
1666A
330
747D
100
AcDbEntity
  8
破線
 48
10.0
100
AcDbLine
 10
11269.40246528577
 20
9502.871211422473
 30
0.0
 11
11269.40246528576
 21
7852.871211422389
 31
0.0
  0
LINE
  5
1666B
330
747D
100
AcDbEntity
  8
部品1
100
AcDbLine
 10
11292.90246528577
 20
9502.871211422473
 30
0.0
 11
11292.90246528575
 21
7829.37121142238
 31
0.0
  0
DIMENSION
  5
1666C
330
747D
100
AcDbEntity
  8
寸法
100
AcDbDimension
  2
*D11
 10
11676.2601911478
 20
9407.653395753582
 30
0.0
 11
11576.2601911478
 21
9632.653395753584
 31
0.0
 70
    32
 71
     5
 42
449.9999999999963
  3
INABA_S40G
100
AcDbAlignedDimension
 13
11320.90246528578
 23
9952.871211422468
 33
0.0
 14
11320.90246528578
 24
9502.871211422473
 34
0.0
 50
90.0
100
AcDbRotatedDimension
1001
ACAD
1000
DSTYLE
1002
{
1002
}
  0
LINE
  5
1666D
330
747D
100
AcDbEntity
  8
部品1
100
AcDbLine
 10
11321.40246528578
 20
9954.871211422471
 30
0.0
 11
11321.40246528575
 21
7800.871211422425
 31
0.0
  0
DIMENSION
  5
1666E
330
747D
100
AcDbEntity
  8
寸法
100
AcDbDimension
  2
*D12
 10
11996.82881102019
 20
7827.871211422458
 30
0.0
 11
11996.82881102019
 21
8877.871211422466
 31
0.0
 70
   160
  1
5X420=<>
 71
     5
 42
2100.000000000015
  3
INABA_S40G
100
AcDbAlignedDimension
 13
11349.40246528578
 23
9927.871211422473
 33
0.0
 14
11349.40246528575
 24
7827.871211422458
 34
0.0
 50
90.0
100
AcDbRotatedDimension
1001
ACAD
1000
DSTYLE
1002
{
1002
}
  0
LINE
  5
1666F
330
747D
100
AcDbEntity
  8
部品1
100
AcDbLine
 10
11349.40246528578
 20
9982.87121142247
 30
0.0
 11
11349.40246528575
 21
7772.871211422462
 31
0.0
  0
LINE
  5
16670
330
747D
100
AcDbEntity
  8
部品1
 48
50.0
100
AcDbLine
 10
11292.90246528574
 20
7829.37121142239
 30
0.0
 11
11321.40246528574
 21
7800.871211422393
 31
0.0
  0
LINE
  5
16671
330
747D
100
AcDbEntity
  8
部品1
100
AcDbLine
 10
11320.90246528578
 20
9952.871211422468
 30
0.0
 11
11320.90246528578
 21
9502.871211422473
 31
0.0
  0
LINE
  5
16672
330
747D
100
AcDbEntity
  8
部品1
100
AcDbLine
 10
11321.40246528578
 20
9507.871211422473
 30
0.0
 11
11349.40246528578
 21
9507.871211422473
 31
0.0
  0
LINE
  5
16673
330
747D
100
AcDbEntity
  8
部品1
100
AcDbLine
 10
11321.40246528578
 20
9927.871211422473
 30
0.0
 11
11349.40246528578
 21
9927.871211422473
 31
0.0
  0
LINE
  5
16674
330
747D
100
AcDbEntity
  8
部品1
100
AcDbLine
 10
11294.40246528578
 20
9982.871211422491
 30
0.0
 11
11294.40246528578
 21
9954.871211422492
 31
0.0
  0
LINE
  5
16675
330
747D
100
AcDbEntity
  8
部品1
100
AcDbLine
 10
11294.40246528578
 20
9982.87121142247
 30
0.0
 11
11294.40246528578
 21
9954.871211422471
 31
0.0
  0
LINE
  5
16676
330
747D
100
AcDbEntity
  8
部品1
100
AcDbLine
 10
10034.40246528578
 20
9982.871211422375
 30
0.0
 11
10034.40246528578
 21
9954.871211422375
 31
0.0
  0
LINE
  5
16677
330
747D
100
AcDbEntity
  8
部品1
100
AcDbLine
 10
10034.40246528578
 20
9982.871211422375
 30
0.0
 11
10034.40246528578
 21
9954.871211422375
 31
0.0
  0
LINE
  5
16678
330
747D
100
AcDbEntity
  8
部品1
100
AcDbLine
 10
10034.40246528578
 20
9982.871211422491
 30
0.0
 11
10034.40246528578
 21
9954.871211422492
 31
0.0
  0
LINE
  5
16679
330
747D
100
AcDbEntity
  8
部品1
 48
50.0
100
AcDbLine
 10
11292.90246528576
 20
9087.871211422472
 30
0.0
 11
9195.902465285762
 21
9087.871211422561
 31
0.0
  0
LINE
  5
1667A
330
747D
100
AcDbEntity
  8
部品1
100
AcDbLine
 10
9167.402465285757
 20
9087.871211422346
 30
0.0
 11
9139.402465285757
 21
9087.871211422346
 31
0.0
  0
LINE
  5
1667B
330
747D
100
AcDbEntity
  8
部品1
100
AcDbLine
 10
11321.40246528578
 20
9087.871211422472
 30
0.0
 11
11349.40246528578
 21
9087.871211422472
 31
0.0
  0
LINE
  5
1667C
330
747D
100
AcDbEntity
  8
部品1
100
AcDbLine
 10
11321.40246528578
 20
7827.871211422473
 30
0.0
 11
11349.40246528578
 21
7827.871211422473
 31
0.0
  0
LINE
  5
1667D
330
747D
100
AcDbEntity
  8
部品1
100
AcDbLine
 10
9167.402465285757
 20
7827.871211422345
 30
0.0
 11
9139.402465285757
 21
7827.871211422345
 31
0.0
  0
LINE
  5
1667E
330
747D
100
AcDbEntity
  8
部品1
100
AcDbLine
 10
9194.402465285717
 20
7800.871211422276
 30
0.0
 11
9194.402465285721
 21
7772.871211422276
 31
0.0
  0
LINE
  5
1667F
330
747D
100
AcDbEntity
  8
部品1
100
AcDbLine
 10
9194.402465285753
 20
7800.871211422308
 30
0.0
 11
9194.402465285753
 21
7772.871211422309
 31
0.0
  0
LINE
  5
16680
330
747D
100
AcDbEntity
  8
部品1
100
AcDbLine
 10
11294.40246528575
 20
7800.871211422403
 30
0.0
 11
11294.40246528575
 21
7772.871211422404
 31
0.0
  0
LINE
  5
16681
330
747D
100
AcDbEntity
  8
部品1
100
AcDbLine
 10
11294.40246528575
 20
7800.871211422425
 30
0.0
 11
11294.40246528575
 21
7772.871211422425
 31
0.0
  0
LINE
  5
16682
330
747D
100
AcDbEntity
  8
部品1
 48
50.0
100
AcDbLine
 10
9139.402465285773
 20
7772.871211422298
 30
0.0
 11
9194.402465285753
 21
7772.871211422302
 31
0.0
  0
LINE
  5
16683
330
747D
100
AcDbEntity
  8
部品1
 48
50.0
100
AcDbLine
 10
11321.40246528575
 20
7800.871211422425
 30
0.0
 11
9167.402465285753
 21
7800.871211422393
 31
0.0
  0
LINE
  5
16684
330
747D
100
AcDbEntity
  8
部品1
 48
50.0
100
AcDbLine
 10
11294.40246528575
 20
7772.871211422456
 30
0.0
 11
11349.40246528575
 21
7772.871211422462
 31
0.0
  0
DIMENSION
  5
16685
330
747D
100
AcDbEntity
  8
寸法
 48
50.0
100
AcDbDimension
  2
*D13
 10
8846.177658814758
 20
2595.225613616781
 30
0.0
 11
8846.177658814758
 21
3497.154233825742
 31
0.0
 70
   160
  1
有効開口部高サ<>
 71
     5
 42
1725.000000000001
  3
INABA_S40G
100
AcDbAlignedDimension
 13
9167.402465285771
 23
4320.225613616782
 33
0.0
 14
9167.402465285771
 24
2595.225613616781
 34
0.0
 50
90.0
100
AcDbRotatedDimension
  0
LINE
  5
16686
330
747D
100
AcDbEntity
  8
部品1
 48
50.0
100
AcDbLine
 10
9194.402465285772
 20
4372.225613616781
 30
0.0
 11
9194.402465285772
 21
4377.225613616782
 31
0.0
  0
LINE
  5
16687
330
747D
100
AcDbEntity
  8
部品1
 48
50.0
100
AcDbLine
 10
11294.40246528577
 20
4372.225613616781
 30
0.0
 11
11294.40246528577
 21
4377.225613616782
 31
0.0
  0
LINE
  5
16688
330
747D
100
AcDbEntity
  8
部品1
100
AcDbLine
 10
11321.40246528577
 20
2587.225613616802
 30
0.0
 11
11349.40246528577
 21
2587.225613616802
 31
0.0
  0
LINE
  5
1668D
330
747D
100
AcDbEntity
  8
部品1
100
AcDbLine
 10
9862.66713217155
 20
1748.187350639372
 30
0.0
 11
9862.66713217155
 21
1508.295029093839
 31
0.0
  0
LINE
  5
1668E
330
747D
100
AcDbEntity
  8
部品1
100
AcDbLine
 10
9862.66713217155
 20
1508.295029093839
 30
0.0
 11
10626.13779839998
 21
1508.295029093839
 31
0.0
  0
LINE
  5
1668F
330
747D
100
AcDbEntity
  8
部品1
100
AcDbLine
 10
10626.13779839998
 20
1508.295029093839
 30
0.0
 11
10626.13779839998
 21
1748.187350639372
 31
0.0
  0
LINE
  5
16690
330
747D
100
AcDbEntity
  8
部品1
100
AcDbLine
 10
10626.13779839998
 20
1748.187350639372
 30
0.0
 11
9862.66713217155
 21
1748.187350639372
 31
0.0
  0
TEXT
  5
16691
330
747D
100
AcDbEntity
  8
文字
 62
     7
 48
50.0
100
AcDbText
 10
14491.96323844892
 20
483.8967129911416
 30
0.0
 40
160.0
  1
ＮＸＮ－４８ＳＡ
  7
STYLE2
100
AcDbText
  0
LINE
  5
16745
330
747D
100
AcDbEntity
  8
部品1
 48
50.0
100
AcDbLine
 10
9241.402465285771
 20
3518.725613616782
 30
0.0
 11
9294.402465285772
 21
3518.725613616782
 31
0.0
  0
LINE
  5
1675F
330
747D
100
AcDbEntity
  8
部品1
 48
50.0
100
AcDbLine
 10
11321.40246528577
 20
4372.225613616781
 30
0.0
 11
9167.402465285771
 21
4372.225613616781
 31
0.0
  0
LINE
  5
16760
330
747D
100
AcDbEntity
  8
細線
 48
50.0
100
AcDbLine
 10
11321.40246528577
 20
4362.225613616781
 30
0.0
 11
9167.402465285771
 21
4362.225613616781
 31
0.0
  0
LINE
  5
16761
330
747D
100
AcDbEntity
  8
細線
 48
50.0
100
AcDbLine
 10
11291.40246528577
 20
4320.225613616782
 30
0.0
 11
9197.402465285772
 21
4320.225613616782
 31
0.0
  0
LINE
  5
16762
330
747D
100
AcDbEntity
  8
細線
 48
50.0
100
AcDbLine
 10
11291.40246528577
 20
4329.725613616782
 30
0.0
 11
9197.402465285772
 21
4329.725613616782
 31
0.0
  0
LINE
  5
16763
330
747D
100
AcDbEntity
  8
部品1
 48
50.0
100
AcDbLine
 10
9167.402465285771
 20
2537.225613616782
 30
0.0
 11
11321.40246528577
 21
2537.225613616782
 31
0.0
  0
LINE
  5
16764
330
747D
100
AcDbEntity
  8
細線
 48
50.0
100
AcDbLine
 10
9197.402465285772
 20
2580.225613616782
 30
0.0
 11
11291.40246528577
 21
2580.225613616782
 31
0.0
  0
LINE
  5
16765
330
747D
100
AcDbEntity
  8
細線
 48
50.0
100
AcDbLine
 10
9197.402465285772
 20
2584.225613616782
 30
0.0
 11
11291.40246528577
 21
2584.225613616782
 31
0.0
  0
LINE
  5
16766
330
747D
100
AcDbEntity
  8
細線
 48
50.0
100
AcDbLine
 10
10001.40246528577
 20
2594.725613616782
 30
0.0
 11
11265.40246528577
 21
2594.725613616782
 31
0.0
  0
LINE
  5
16767
330
747D
100
AcDbEntity
  8
部品1
 48
50.0
100
AcDbLine
 10
9197.402465285772
 20
2587.225613616782
 30
0.0
 11
9197.402465285772
 21
4320.225613616782
 31
0.0
  0
LINE
  5
16768
330
747D
100
AcDbEntity
  8
細線
 48
50.0
100
AcDbLine
 10
9197.402465285772
 20
4329.725613616782
 30
0.0
 11
9197.402465285772
 21
2537.225613616782
 31
0.0
  0
LINE
  5
16769
330
747D
100
AcDbEntity
  8
部品1
 48
50.0
100
AcDbLine
 10
9167.402465285771
 20
4372.225613616781
 30
0.0
 11
9167.402465285771
 21
2537.225613616782
 31
0.0
  0
LINE
  5
1676A
330
747D
100
AcDbEntity
  8
部品1
 48
50.0
100
AcDbLine
 10
10001.40246528577
 20
4320.225613641549
 30
0.0
 11
10001.40246528577
 21
2587.225613641549
 31
0.0
  0
LINE
  5
1676B
330
747D
100
AcDbEntity
  8
部品1
 48
50.0
100
AcDbLine
 10
9197.402465285772
 20
2587.225613616782
 30
0.0
 11
10001.40246528577
 21
2587.225613616778
 31
0.0
  0
LINE
  5
1676C
330
747D
100
AcDbEntity
  8
部品1
 48
50.0
100
AcDbLine
 10
9206.402465285771
 20
2587.225613616782
 30
0.0
 11
9206.402465285771
 21
2584.225613616782
 31
0.0
  0
LINE
  5
1676D
330
747D
100
AcDbEntity
  8
部品1
 48
50.0
100
AcDbLine
 10
9197.402465285772
 20
4328.225613616782
 30
0.0
 11
9167.402465285771
 21
4328.225613616782
 31
0.0
  0
LINE
  5
1676E
330
747D
100
AcDbEntity
  8
部品1
 48
50.0
100
AcDbLine
 10
11282.40246528577
 20
2584.225613616782
 30
0.0
 11
11282.40246528577
 21
4320.225613616782
 31
0.0
  0
LINE
  5
1676F
330
747D
100
AcDbEntity
  8
細線
 48
50.0
100
AcDbLine
 10
11291.40246528577
 20
2537.225613616782
 30
0.0
 11
11291.40246528577
 21
4329.725613616782
 31
0.0
  0
LINE
  5
16770
330
747D
100
AcDbEntity
  8
部品1
 48
50.0
100
AcDbLine
 10
11321.40246528577
 20
2537.225613616782
 30
0.0
 11
11321.40246528577
 21
4372.225613616781
 31
0.0
  0
LINE
  5
16771
330
747D
100
AcDbEntity
  8
部品1
 48
50.0
100
AcDbLine
 10
10655.40245559063
 20
4320.225613653929
 30
0.0
 11
10655.40245559063
 21
2594.725613653929
 31
0.0
  0
LINE
  5
16772
330
747D
100
AcDbEntity
  8
細線
 48
50.0
100
AcDbLine
 10
11269.40246528577
 20
2584.225613616782
 30
0.0
 11
11265.40246528577
 21
2594.725613616782
 31
0.0
  0
LINE
  5
16773
330
747D
100
AcDbEntity
  8
部品1
 48
50.0
100
AcDbLine
 10
11321.40246528577
 20
4328.225613616782
 30
0.0
 11
11291.40246528577
 21
4328.225613616782
 31
0.0
  0
LINE
  5
16774
330
747D
100
AcDbEntity
  8
細線
100
AcDbLine
 10
10778.15246528577
 20
4320.225613616782
 30
0.0
 11
10778.15246528577
 21
2594.7256136168
 31
0.0
  0
LINE
  5
16775
330
747D
100
AcDbEntity
  8
細線
100
AcDbLine
 10
10062.90247503601
 20
4320.225613616782
 30
0.0
 11
10062.90247503601
 21
2594.725613616793
 31
0.0
  0
LINE
  5
16776
330
747D
100
AcDbEntity
  8
細線
100
AcDbLine
 10
10132.90247503601
 20
4320.225613616782
 30
0.0
 11
10132.90247503601
 21
2594.725613616793
 31
0.0
  0
LINE
  5
16777
330
747D
100
AcDbEntity
  8
細線
100
AcDbLine
 10
9411.402465285773
 20
4320.225613616782
 30
0.0
 11
9411.402465285767
 21
2587.225613616785
 31
0.0
  0
LINE
  5
16778
330
747D
100
AcDbEntity
  8
細線
100
AcDbLine
 10
9481.402465285771
 20
4320.225613616782
 30
0.0
 11
9481.402465285768
 21
2587.225613616785
 31
0.0
  0
LINE
  5
16779
330
747D
100
AcDbEntity
  8
細線
100
AcDbLine
 10
10848.15246528577
 20
4320.225613616782
 30
0.0
 11
10848.15246528577
 21
2594.7256136168
 31
0.0
  0
LINE
  5
1677A
330
747D
100
AcDbEntity
  8
細線
100
AcDbLine
 10
10918.15246528577
 20
4320.225613616782
 30
0.0
 11
10918.15246528577
 21
2594.7256136168
 31
0.0
  0
LINE
  5
1677B
330
747D
100
AcDbEntity
  8
細線
100
AcDbLine
 10
10988.15246528577
 20
4320.225613616782
 30
0.0
 11
10988.15246528577
 21
2594.7256136168
 31
0.0
  0
LINE
  5
1677C
330
747D
100
AcDbEntity
  8
細線
100
AcDbLine
 10
11058.15246528577
 20
4320.225613616782
 30
0.0
 11
11058.15246528577
 21
2594.7256136168
 31
0.0
  0
LINE
  5
1677D
330
747D
100
AcDbEntity
  8
細線
100
AcDbLine
 10
11128.15246528577
 20
4320.225613616782
 30
0.0
 11
11128.15246528577
 21
2594.7256136168
 31
0.0
  0
LINE
  5
1677E
330
747D
100
AcDbEntity
  8
細線
100
AcDbLine
 10
10202.90247503601
 20
4320.225613616782
 30
0.0
 11
10202.90247503601
 21
2594.725613616793
 31
0.0
  0
LINE
  5
1677F
330
747D
100
AcDbEntity
  8
細線
100
AcDbLine
 10
10272.90247503601
 20
4320.225613616782
 30
0.0
 11
10272.90247503601
 21
2594.725613616793
 31
0.0
  0
LINE
  5
16780
330
747D
100
AcDbEntity
  8
細線
100
AcDbLine
 10
10342.90247503601
 20
4320.225613616782
 30
0.0
 11
10342.90247503601
 21
2594.725613616793
 31
0.0
  0
LINE
  5
16781
330
747D
100
AcDbEntity
  8
細線
100
AcDbLine
 10
10412.90247503601
 20
4320.225613616782
 30
0.0
 11
10412.90247503601
 21
2594.725613616793
 31
0.0
  0
LINE
  5
16782
330
747D
100
AcDbEntity
  8
細線
100
AcDbLine
 10
10482.90247503601
 20
4320.225613616782
 30
0.0
 11
10482.90247503601
 21
2594.725613616793
 31
0.0
  0
LINE
  5
16783
330
747D
100
AcDbEntity
  8
細線
100
AcDbLine
 10
10552.90247503601
 20
4320.225613616782
 30
0.0
 11
10552.90247503601
 21
2594.725613616793
 31
0.0
  0
LINE
  5
16784
330
747D
100
AcDbEntity
  8
細線
100
AcDbLine
 10
9325.402465285767
 20
4320.225613616782
 30
0.0
 11
9325.402465285772
 21
2587.225613616785
 31
0.0
  0
LINE
  5
16785
330
747D
100
AcDbEntity
  8
細線
100
AcDbLine
 10
9359.402465285768
 20
4320.225613616782
 30
0.0
 11
9359.402465285771
 21
2587.225613616785
 31
0.0
  0
LINE
  5
16786
330
747D
100
AcDbEntity
  8
部品1
100
AcDbLine
 10
9317.402465285768
 20
4320.225613616782
 30
0.0
 11
9317.402465285772
 21
2587.225613616785
 31
0.0
  0
LINE
  5
16787
330
747D
100
AcDbEntity
  8
部品1
100
AcDbLine
 10
9367.402465285769
 20
4320.225613616782
 30
0.0
 11
9367.402465285771
 21
2587.225613616785
 31
0.0
  0
LINE
  5
16788
330
747D
100
AcDbEntity
  8
細線
100
AcDbLine
 10
9551.402465285772
 20
4320.225613616782
 30
0.0
 11
9551.402465285768
 21
2587.225613616785
 31
0.0
  0
LINE
  5
16789
330
747D
100
AcDbEntity
  8
細線
100
AcDbLine
 10
9621.402465285772
 20
4320.225613616782
 30
0.0
 11
9621.402465285768
 21
2587.225613616785
 31
0.0
  0
LINE
  5
1678A
330
747D
100
AcDbEntity
  8
細線
100
AcDbLine
 10
9691.402465285772
 20
4320.225613616782
 30
0.0
 11
9691.402465285769
 21
2587.225613616785
 31
0.0
  0
LINE
  5
1678B
330
747D
100
AcDbEntity
  8
細線
100
AcDbLine
 10
9761.402465285772
 20
4320.225613616782
 30
0.0
 11
9761.402465285769
 21
2587.225613616785
 31
0.0
  0
LINE
  5
1678C
330
747D
100
AcDbEntity
  8
細線
100
AcDbLine
 10
9831.402465285771
 20
4320.225613616782
 30
0.0
 11
9831.402465285769
 21
2587.225613616789
 31
0.0
  0
LINE
  5
1678D
330
747D
100
AcDbEntity
  8
細線
100
AcDbLine
 10
9901.402465285771
 20
4320.225613616782
 30
0.0
 11
9901.402465285769
 21
2587.225613616789
 31
0.0
  0
LINE
  5
1678E
330
747D
100
AcDbEntity
  8
部品1
100
AcDbLine
 10
10655.40245559062
 20
4320.225613653932
 30
0.0
 11
10655.40245559063
 21
2594.725613653948
 31
0.0
  0
LINE
  5
1678F
330
747D
100
AcDbEntity
  8
部品1
 48
50.0
100
AcDbLine
 10
10001.40246528577
 20
4320.225613641549
 30
0.0
 11
10001.40246528577
 21
2587.225613616778
 31
0.0
  0
DIMENSION
  5
16790
330
747D
100
AcDbEntity
  8
寸法
 48
50.0
100
AcDbDimension
  2
*D14
 10
9139.402465285773
 20
5011.318782956255
 30
0.0
 11
10244.40246528577
 21
5011.318782956255
 31
0.0
 70
   160
  1
柱外寸法<>
 71
     5
 42
2210.0
  3
INABA_S40G
100
AcDbAlignedDimension
 13
11349.40246528577
 23
4612.225613616787
 33
0.0
 14
9139.402465285773
 24
4612.225613616788
 34
0.0
100
AcDbRotatedDimension
  0
DIMENSION
  5
16791
330
747D
100
AcDbEntity
  8
寸法
 48
50.0
100
AcDbDimension
  2
*D15
 10
9089.402465285772
 20
5011.318782956255
 30
0.0
 11
8775.917183911523
 21
5011.318782956255
 31
0.0
 70
   160
 71
     5
 42
50.0
  3
INABA_S40G
100
AcDbAlignedDimension
 13
9139.402465285773
 23
4612.225613616788
 33
0.0
 14
9089.402465285772
 24
4612.225613616787
 34
0.0
100
AcDbRotatedDimension
1001
ACAD
1000
DSTYLE
1002
{
1002
}
  0
DIMENSION
  5
16792
330
747D
100
AcDbEntity
  8
寸法
 48
50.0
100
AcDbDimension
  2
*D16
 10
11399.40246528577
 20
5227.8448825747
 30
0.0
 11
10244.40246528577
 21
5227.8448825747
 31
0.0
 70
   160
 71
     5
 42
2310.0
  3
INABA_S40G
100
AcDbAlignedDimension
 13
9089.402465285772
 23
4612.225613616787
 33
0.0
 14
11399.40246528577
 24
4612.225613616784
 34
0.0
100
AcDbRotatedDimension
  0
LINE
  5
16793
330
747D
100
AcDbEntity
  8
部品1
100
AcDbLine
 10
10302.40246528578
 20
4607.225613625251
 30
0.0
 11
10302.40246528579
 21
4509.814546116678
 31
0.0
  0
LINE
  5
16794
330
747D
100
AcDbEntity
  8
部品1
100
AcDbLine
 10
10277.40246528578
 20
4607.225613625251
 30
0.0
 11
10277.40246528578
 21
4509.814546116678
 31
0.0
  0
LINE
  5
16795
330
747D
100
AcDbEntity
  8
部品1
 48
50.0
100
AcDbLine
 10
10275.90246528578
 20
4607.225613625255
 30
0.0
 11
10303.90246528577
 21
4607.225613625255
 31
0.0
  0
LINE
  5
16796
330
747D
100
AcDbEntity
  8
部品1
 48
50.0
100
AcDbLine
 10
10303.90246528578
 20
4607.225613625255
 30
0.0
 11
10314.40246528578
 21
4587.825613625253
 31
0.0
  0
LINE
  5
16797
330
747D
100
AcDbEntity
  8
部品1
 48
50.0
100
AcDbLine
 10
10275.90246528578
 20
4607.225613625255
 30
0.0
 11
10265.40246528578
 21
4587.825613625253
 31
0.0
  0
LINE
  5
16798
330
747D
100
AcDbEntity
  8
部品1
 48
50.0
100
AcDbLine
 10
10202.90246528578
 20
4607.225613625255
 30
0.0
 11
10230.90246528577
 21
4607.225613625255
 31
0.0
  0
LINE
  5
16799
330
747D
100
AcDbEntity
  8
部品1
100
AcDbLine
 10
10204.40246528578
 20
4607.225613625251
 30
0.0
 11
10204.40246528578
 21
4509.814546116678
 31
0.0
  0
LINE
  5
1679A
330
747D
100
AcDbEntity
  8
部品1
 48
50.0
100
AcDbLine
 10
10202.90246528578
 20
4607.225613625255
 30
0.0
 11
10192.40246528578
 21
4587.825613625253
 31
0.0
  0
LINE
  5
1679B
330
747D
100
AcDbEntity
  8
部品1
100
AcDbLine
 10
10229.40246528578
 20
4607.225613625251
 30
0.0
 11
10229.40246528578
 21
4509.814546116678
 31
0.0
  0
LINE
  5
1679C
330
747D
100
AcDbEntity
  8
部品1
 48
50.0
100
AcDbLine
 10
10230.90246528578
 20
4607.225613625255
 30
0.0
 11
10241.40246528578
 21
4587.825613625253
 31
0.0
  0
LINE
  5
1679D
330
747D
100
AcDbEntity
  8
部品1
100
AcDbLine
 10
10043.40246528578
 20
4607.225613625243
 30
0.0
 11
10043.40246528579
 21
4509.814546116678
 31
0.0
  0
LINE
  5
1679E
330
747D
100
AcDbEntity
  8
部品1
 48
50.0
100
AcDbLine
 10
10046.40246528578
 20
4607.225613625255
 30
0.0
 11
10048.90246528578
 21
4587.825613625253
 31
0.0
  0
LINE
  5
1679F
330
747D
100
AcDbEntity
  8
部品1
100
AcDbLine
 10
10025.40246528578
 20
4607.225613625243
 30
0.0
 11
10025.40246528579
 21
4509.814546116678
 31
0.0
  0
LINE
  5
167A0
330
747D
100
AcDbEntity
  8
部品1
 48
50.0
100
AcDbLine
 10
10007.19112507959
 20
4597.825613625253
 30
0.0
 11
10005.90246528578
 21
4587.825613625253
 31
0.0
  0
LINE
  5
167A1
330
747D
100
AcDbEntity
  8
部品1
 48
50.0
100
AcDbLine
 10
10007.19112507959
 20
4597.825613625253
 30
0.0
 11
10021.19112507959
 21
4597.825613625253
 31
0.0
  0
LINE
  5
167A2
330
747D
100
AcDbEntity
  8
部品1
 48
50.0
100
AcDbLine
 10
10022.40246528578
 20
4607.225613625255
 30
0.0
 11
10021.19112507959
 21
4597.825613625253
 31
0.0
  0
LINE
  5
167A3
330
747D
100
AcDbEntity
  8
部品1
 48
50.0
100
AcDbLine
 10
10046.40246528578
 20
4607.225613625255
 30
0.0
 11
10022.40246528578
 21
4607.225613625255
 31
0.0
  0
LINE
  5
167A4
330
747D
100
AcDbEntity
  8
部品1
100
AcDbLine
 10
10192.40246528577
 20
4587.825613625249
 30
0.0
 11
10048.90246528577
 21
4587.825613625249
 31
0.0
  0
LINE
  5
167A5
330
747D
100
AcDbEntity
  8
部品1
100
AcDbLine
 10
9882.402465285785
 20
4607.225613625251
 30
0.0
 11
9882.402465285789
 21
4509.814546116678
 31
0.0
  0
LINE
  5
167A6
330
747D
100
AcDbEntity
  8
部品1
 48
50.0
100
AcDbLine
 10
9883.902465285778
 20
4607.225613625255
 30
0.0
 11
9894.402465285779
 21
4587.825613625253
 31
0.0
  0
LINE
  5
167A7
330
747D
100
AcDbEntity
  8
部品1
100
AcDbLine
 10
9784.402465285786
 20
4607.225613625251
 30
0.0
 11
9784.402465285786
 21
4509.814546116678
 31
0.0
  0
LINE
  5
167A8
330
747D
100
AcDbEntity
  8
部品1
100
AcDbLine
 10
9809.402465285787
 20
4607.225613625251
 30
0.0
 11
9809.402465285787
 21
4509.814546116678
 31
0.0
  0
LINE
  5
167A9
330
747D
100
AcDbEntity
  8
部品1
100
AcDbLine
 10
9857.402465285787
 20
4607.225613625251
 30
0.0
 11
9857.402465285787
 21
4509.814546116678
 31
0.0
  0
LINE
  5
167AA
330
747D
100
AcDbEntity
  8
部品1
 48
50.0
100
AcDbLine
 10
9782.902465285779
 20
4607.225613625255
 30
0.0
 11
9772.402465285779
 21
4587.825613625253
 31
0.0
  0
LINE
  5
167AB
330
747D
100
AcDbEntity
  8
部品1
100
AcDbLine
 10
9845.402465285776
 20
4587.825613625249
 30
0.0
 11
9821.402465285778
 21
4587.825613625249
 31
0.0
  0
LINE
  5
167AC
330
747D
100
AcDbEntity
  8
部品1
 48
50.0
100
AcDbLine
 10
9810.902465285778
 20
4607.225613625255
 30
0.0
 11
9821.402465285778
 21
4587.825613625253
 31
0.0
  0
LINE
  5
167AD
330
747D
100
AcDbEntity
  8
部品1
 48
50.0
100
AcDbLine
 10
9855.90246528578
 20
4607.225613625255
 30
0.0
 11
9845.402465285779
 21
4587.825613625253
 31
0.0
  0
LINE
  5
167AE
330
747D
100
AcDbEntity
  8
部品1
 48
50.0
100
AcDbLine
 10
9782.902465285779
 20
4607.225613625255
 30
0.0
 11
9810.902465285776
 21
4607.225613625255
 31
0.0
  0
LINE
  5
167AF
330
747D
100
AcDbEntity
  8
部品1
 48
50.0
100
AcDbLine
 10
9855.90246528578
 20
4607.225613625255
 30
0.0
 11
9883.902465285776
 21
4607.225613625255
 31
0.0
  0
LINE
  5
167B0
330
747D
100
AcDbEntity
  8
部品1
100
AcDbLine
 10
9623.402465285787
 20
4607.225613625243
 30
0.0
 11
9623.402465285789
 21
4509.814546116678
 31
0.0
  0
LINE
  5
167B1
330
747D
100
AcDbEntity
  8
部品1
100
AcDbLine
 10
9605.402465285786
 20
4607.225613625243
 30
0.0
 11
9605.402465285788
 21
4509.814546116678
 31
0.0
  0
LINE
  5
167B2
330
747D
100
AcDbEntity
  8
部品1
 48
50.0
100
AcDbLine
 10
9626.402465285778
 20
4607.225613625255
 30
0.0
 11
9602.402465285779
 21
4607.225613625255
 31
0.0
  0
LINE
  5
167B3
330
747D
100
AcDbEntity
  8
部品1
 48
50.0
100
AcDbLine
 10
9602.402465285779
 20
4607.225613625255
 30
0.0
 11
9601.191125079592
 21
4597.825613625253
 31
0.0
  0
LINE
  5
167B4
330
747D
100
AcDbEntity
  8
部品1
 48
50.0
100
AcDbLine
 10
9626.402465285778
 20
4607.225613625255
 30
0.0
 11
9628.902465285779
 21
4587.825613625253
 31
0.0
  0
LINE
  5
167B5
330
747D
100
AcDbEntity
  8
部品1
100
AcDbLine
 10
9772.402465285775
 20
4587.825613625249
 30
0.0
 11
9628.902465285776
 21
4587.825613625249
 31
0.0
  0
LINE
  5
167B6
330
747D
100
AcDbEntity
  8
部品1
100
AcDbLine
 10
10005.90246528578
 20
4587.825613625249
 30
0.0
 11
9894.402465285779
 21
4587.825613625249
 31
0.0
  0
LINE
  5
167B7
330
747D
100
AcDbEntity
  8
部品1
100
AcDbLine
 10
10265.40246528577
 20
4587.825613625249
 30
0.0
 11
10241.40246528578
 21
4587.825613625249
 31
0.0
  0
LINE
  5
167B8
330
747D
100
AcDbEntity
  8
部品1
100
AcDbLine
 10
9585.902465285778
 20
4587.825613625249
 30
0.0
 11
9474.402465285779
 21
4587.825613625249
 31
0.0
  0
LINE
  5
167B9
330
747D
100
AcDbEntity
  8
部品1
100
AcDbLine
 10
9437.402465285787
 20
4607.225613625251
 30
0.0
 11
9437.402465285787
 21
4509.814546116678
 31
0.0
  0
LINE
  5
167BA
330
747D
100
AcDbEntity
  8
部品1
100
AcDbLine
 10
9462.402465285787
 20
4607.225613625251
 30
0.0
 11
9462.402465285787
 21
4509.814546116678
 31
0.0
  0
LINE
  5
167BB
330
747D
100
AcDbEntity
  8
部品1
 48
50.0
100
AcDbLine
 10
9463.902465285778
 20
4607.225613625255
 30
0.0
 11
9474.402465285779
 21
4587.825613625253
 31
0.0
  0
LINE
  5
167BC
330
747D
100
AcDbEntity
  8
部品1
 48
50.0
100
AcDbLine
 10
9435.902465285778
 20
4607.225613625255
 30
0.0
 11
9463.902465285775
 21
4607.225613625255
 31
0.0
  0
LINE
  5
167BD
330
747D
100
AcDbEntity
  8
部品1
 48
50.0
100
AcDbLine
 10
9587.191125079591
 20
4597.825613625253
 30
0.0
 11
9585.902465285778
 21
4587.825613625253
 31
0.0
  0
LINE
  5
167BE
330
747D
100
AcDbEntity
  8
部品1
100
AcDbLine
 10
9425.402465285776
 20
4587.825613625249
 30
0.0
 11
9401.402465285778
 21
4587.825613625253
 31
0.0
  0
LINE
  5
167BF
330
747D
100
AcDbEntity
  8
部品1
100
AcDbLine
 10
9389.402465285787
 20
4607.225613625251
 30
0.0
 11
9389.402465285789
 21
4509.814546116678
 31
0.0
  0
LINE
  5
167C0
330
747D
100
AcDbEntity
  8
部品1
 48
50.0
100
AcDbLine
 10
9390.90246528578
 20
4607.225613625255
 30
0.0
 11
9401.402465285778
 21
4587.825613625253
 31
0.0
  0
LINE
  5
167C1
330
747D
100
AcDbEntity
  8
部品1
100
AcDbLine
 10
9364.402465285786
 20
4607.225613625251
 30
0.0
 11
9364.402465285785
 21
4509.814546116678
 31
0.0
  0
LINE
  5
167C2
330
747D
100
AcDbEntity
  8
部品1
 48
50.0
100
AcDbLine
 10
9362.902465285779
 20
4607.225613625255
 30
0.0
 11
9352.402465285779
 21
4587.825613625253
 31
0.0
  0
LINE
  5
167C3
330
747D
100
AcDbEntity
  8
部品1
 48
50.0
100
AcDbLine
 10
9362.902465285779
 20
4607.225613625255
 30
0.0
 11
9390.902465285774
 21
4607.225613625255
 31
0.0
  0
LINE
  5
167C4
330
747D
100
AcDbEntity
  8
部品1
 48
50.0
100
AcDbLine
 10
9435.902465285778
 20
4607.225613625255
 30
0.0
 11
9425.402465285779
 21
4587.825613625253
 31
0.0
  0
LINE
  5
167C5
330
747D
100
AcDbEntity
  8
部品1
100
AcDbLine
 10
9203.402465285787
 20
4607.225613625243
 30
0.0
 11
9203.402465285787
 21
4509.814546116678
 31
0.0
  0
LINE
  5
167C6
330
747D
100
AcDbEntity
  8
部品1
100
AcDbLine
 10
9185.402465285786
 20
4607.225613625255
 30
0.0
 11
9185.402465285788
 21
4509.814546116678
 31
0.0
  0
LINE
  5
167C7
330
747D
100
AcDbEntity
  8
部品1
 48
50.0
100
AcDbLine
 10
9206.40246528578
 20
4607.225613625255
 30
0.0
 11
9208.902465285779
 21
4587.825613625253
 31
0.0
  0
LINE
  5
167C8
330
747D
100
AcDbEntity
  8
部品1
100
AcDbLine
 10
9165.90246528578
 20
4587.825613625253
 30
0.0
 11
9139.40246528578
 21
4587.825613625253
 31
0.0
  0
LINE
  5
167C9
330
747D
100
AcDbEntity
  8
部品1
 48
50.0
100
AcDbLine
 10
9167.191125079591
 20
4597.825613625253
 30
0.0
 11
9181.191125079591
 21
4597.825613625253
 31
0.0
  0
LINE
  5
167CA
330
747D
100
AcDbEntity
  8
部品1
 48
50.0
100
AcDbLine
 10
9167.191125079591
 20
4597.825613625253
 30
0.0
 11
9165.90246528578
 21
4587.825613625253
 31
0.0
  0
LINE
  5
167CB
330
747D
100
AcDbEntity
  8
部品1
 48
50.0
100
AcDbLine
 10
9182.402465285779
 20
4607.225613625255
 30
0.0
 11
9181.191125079591
 21
4597.825613625253
 31
0.0
  0
LINE
  5
167CC
330
747D
100
AcDbEntity
  8
部品1
 48
50.0
100
AcDbLine
 10
9206.40246528578
 20
4607.225613625255
 30
0.0
 11
9182.402465285779
 21
4607.225613625255
 31
0.0
  0
LINE
  5
167CD
330
747D
100
AcDbEntity
  8
部品1
100
AcDbLine
 10
9352.402465285779
 20
4587.825613625249
 30
0.0
 11
9208.902465285779
 21
4587.825613625253
 31
0.0
  0
LINE
  5
167CE
330
747D
100
AcDbEntity
  8
部品1
 48
50.0
100
AcDbLine
 10
9587.191125079591
 20
4597.825613625253
 30
0.0
 11
9601.191125079592
 21
4597.825613625253
 31
0.0
  0
LINE
  5
167CF
330
747D
100
AcDbEntity
  8
部品1
100
AcDbLine
 10
11354.47280261804
 20
4612.225613625232
 30
0.0
 11
9113.834625666687
 21
4612.225613625255
 31
0.0
  0
LINE
  5
167D0
330
747D
100
AcDbEntity
  8
部品1
100
AcDbLine
 10
10425.90246528577
 20
4587.825613625234
 30
0.0
 11
10314.40246528578
 21
4587.825613625234
 31
0.0
  0
LINE
  5
167D1
330
747D
100
AcDbEntity
  8
部品1
 48
50.0
100
AcDbLine
 10
9134.331837292574
 20
4557.225613616782
 30
0.0
 11
9096.38850910299
 21
4557.225613616782
 31
0.0
  0
ARC
  5
167D2
330
747D
100
AcDbEntity
  8
部品1
100
AcDbCircle
 10
9091.361607726067
 20
4529.895730937371
 30
0.0
 40
0.7
100
AcDbArc
 50
183.6186294801443
 51
262.7131594833535
  0
ARC
  5
167D3
330
747D
100
AcDbEntity
  8
部品1
100
AcDbCircle
 10
9090.892311600873
 20
4526.225613616781
 30
0.0
 40
3.0
100
AcDbArc
 50
3.618629480144289
 51
90.0
  0
LINE
  5
167D4
330
747D
100
AcDbEntity
  8
部品1
100
AcDbLine
 10
9093.886330379676
 20
4526.414958677893
 30
0.0
 11
9098.633423391836
 21
4451.351550423111
 31
0.0
  0
ARC
  5
167D5
330
747D
100
AcDbEntity
  8
部品1
100
AcDbCircle
 10
9099.332027773559
 20
4451.39573093737
 30
0.0
 40
0.7
100
AcDbArc
 50
183.6186294801443
 51
262.7131594833535
  0
ARC
  5
167D6
330
747D
100
AcDbEntity
  8
部品1
100
AcDbCircle
 10
9098.862731648363
 20
4447.725613616781
 30
0.0
 40
3.0
100
AcDbArc
 50
3.618629480144289
 51
90.0
  0
ARC
  5
167D7
330
747D
100
AcDbEntity
  8
部品1
100
AcDbCircle
 10
9109.515119948961
 20
4437.725613616781
 30
0.0
 40
7.0
100
AcDbArc
 50
183.6186294801443
 51
270.0
  0
ARC
  5
167D8
330
747D
100
AcDbEntity
  8
部品1
100
AcDbCircle
 10
9096.38850910299
 20
4550.225613616781
 30
0.0
 40
7.0
100
AcDbArc
 50
90.0
 51
183.6186294801443
  0
LINE
  5
167D9
330
747D
100
AcDbEntity
  8
部品1
100
AcDbLine
 10
9102.52907613175
 20
4437.283808474193
 30
0.0
 11
9101.856750427169
 21
4447.914958677893
 31
0.0
  0
LINE
  5
167DA
330
747D
100
AcDbEntity
  8
部品1
100
AcDbLine
 10
9090.663003344344
 20
4529.851550423111
 30
0.0
 11
9089.402465285779
 21
4549.783808474193
 31
0.0
  0
LINE
  5
167DB
330
747D
100
AcDbEntity
  8
部品1
100
AcDbLine
 10
9134.331837292574
 20
4557.225613616782
 30
0.0
 11
9096.38850910299
 21
4557.225613616782
 31
0.0
  0
ARC
  5
167DC
330
747D
100
AcDbEntity
  8
部品1
100
AcDbCircle
 10
9134.331837292574
 20
4552.225613616782
 30
0.0
 40
5.0
100
AcDbArc
 50
0.0
 51
90.0
  0
LINE
  5
167DD
330
747D
100
AcDbEntity
  8
部品1
100
AcDbLine
 10
9139.331837292573
 20
4607.22561363368
 30
0.0
 11
9139.331837292571
 21
4509.821584944111
 31
0.0
  0
LINE
  5
167DE
330
747D
100
AcDbEntity
  8
部品1
100
AcDbLine
 10
11379.28981062258
 20
4430.725613616782
 30
0.0
 11
9109.515119948961
 21
4430.725613616782
 31
0.0
  0
LINE
  5
167DF
330
747D
100
AcDbEntity
  8
部品1
 48
50.0
100
AcDbLine
 10
9089.402465285779
 20
4549.783808474193
 30
0.0
 11
9089.402465285779
 21
4604.783808491091
 31
0.0
  0
ARC
  5
167E0
330
747D
100
AcDbEntity
  8
部品1
100
AcDbCircle
 10
9134.331837292574
 20
4607.22561363368
 30
0.0
 40
5.0
100
AcDbArc
 50
0.0
 51
90.0
  0
LINE
  5
167E1
330
747D
100
AcDbEntity
  8
部品1
100
AcDbLine
 10
9134.331837292574
 20
4612.22561363368
 30
0.0
 11
9096.38850910299
 21
4612.22561363368
 31
0.0
  0
ARC
  5
167E2
330
747D
100
AcDbEntity
  8
部品1
100
AcDbCircle
 10
9096.38850910299
 20
4605.22561363368
 30
0.0
 40
7.0
100
AcDbArc
 50
90.0
 51
183.6186294801443
  0
LINE
  5
167E3
330
747D
100
AcDbEntity
  8
細線
 48
50.0
100
AcDbLine
 10
11390.18082295883
 20
4451.498856180566
 30
0.0
 11
9099.286056918298
 21
4451.498856180568
 31
0.0
  0
LINE
  5
167E4
330
747D
100
AcDbEntity
  8
細線
 48
50.0
100
AcDbLine
 10
9121.891375381496
 20
4557.225613616782
 30
0.0
 11
9121.891375381496
 21
4430.725613616782
 31
0.0
  0
LINE
  5
167E5
330
747D
100
AcDbEntity
  8
細線
 48
50.0
100
AcDbLine
 10
9139.331837292571
 20
4529.197446364731
 30
0.0
 11
9091.268596008625
 21
4529.197446364738
 31
0.0
  0
LINE
  5
167E6
330
747D
100
AcDbEntity
  8
部品1
100
AcDbLine
 10
10445.40246528577
 20
4607.225613625243
 30
0.0
 11
10445.40246528577
 21
4509.814546116678
 31
0.0
  0
LINE
  5
167E7
330
747D
100
AcDbEntity
  8
部品1
100
AcDbLine
 10
10463.40246528577
 20
4607.225613625255
 30
0.0
 11
10463.40246528577
 21
4509.814546116678
 31
0.0
  0
LINE
  5
167E8
330
747D
100
AcDbEntity
  8
部品1
 48
50.0
100
AcDbLine
 10
10442.40246528578
 20
4607.225613625255
 30
0.0
 11
10466.40246528578
 21
4607.225613625255
 31
0.0
  0
LINE
  5
167E9
330
747D
100
AcDbEntity
  8
部品1
 48
50.0
100
AcDbLine
 10
10442.40246528578
 20
4607.225613625255
 30
0.0
 11
10441.19112507959
 21
4597.825613625253
 31
0.0
  0
LINE
  5
167EA
330
747D
100
AcDbEntity
  8
部品1
 48
50.0
100
AcDbLine
 10
10427.19112507959
 20
4597.825613625253
 30
0.0
 11
10441.19112507959
 21
4597.825613625253
 31
0.0
  0
LINE
  5
167EB
330
747D
100
AcDbEntity
  8
部品1
 48
50.0
100
AcDbLine
 10
10427.19112507959
 20
4597.825613625253
 30
0.0
 11
10425.90246528578
 21
4587.825613625253
 31
0.0
  0
LINE
  5
167EC
330
747D
100
AcDbEntity
  8
部品1
 48
50.0
100
AcDbLine
 10
10466.40246528578
 20
4607.225613625255
 30
0.0
 11
10468.90246528578
 21
4587.825613625253
 31
0.0
  0
LINE
  5
167ED
330
747D
100
AcDbEntity
  8
部品1
 48
50.0
100
AcDbLine
 10
9121.891375381498
 20
4509.814546116678
 30
0.0
 11
11366.91355519005
 21
4509.814546116678
 31
0.0
  0
LINE
  5
167EE
330
747D
100
AcDbEntity
  8
部品1
100
AcDbLine
 10
10685.40246528578
 20
4587.825613625253
 30
0.0
 11
10661.40246528578
 21
4587.825613625253
 31
0.0
  0
LINE
  5
167EF
330
747D
100
AcDbEntity
  8
部品1
 48
50.0
100
AcDbLine
 10
10650.90246528578
 20
4607.225613625258
 30
0.0
 11
10661.40246528578
 21
4587.825613625256
 31
0.0
  0
LINE
  5
167F0
330
747D
100
AcDbEntity
  8
部品1
 48
50.0
100
AcDbLine
 10
10622.90246528578
 20
4607.225613625258
 30
0.0
 11
10612.40246528578
 21
4587.825613625256
 31
0.0
  0
LINE
  5
167F1
330
747D
100
AcDbEntity
  8
部品1
 48
50.0
100
AcDbLine
 10
10622.90246528578
 20
4607.225613625258
 30
0.0
 11
10650.90246528577
 21
4607.225613625258
 31
0.0
  0
LINE
  5
167F2
330
747D
100
AcDbEntity
  8
部品1
 48
50.0
100
AcDbLine
 10
10695.90246528578
 20
4607.225613625258
 30
0.0
 11
10685.40246528578
 21
4587.825613625256
 31
0.0
  0
LINE
  5
167F3
330
747D
100
AcDbEntity
  8
部品1
 48
50.0
100
AcDbLine
 10
10723.90246528578
 20
4607.225613625258
 30
0.0
 11
10734.40246528578
 21
4587.825613625256
 31
0.0
  0
LINE
  5
167F4
330
747D
100
AcDbEntity
  8
部品1
 48
50.0
100
AcDbLine
 10
10695.90246528578
 20
4607.225613625258
 30
0.0
 11
10723.90246528577
 21
4607.225613625258
 31
0.0
  0
LINE
  5
167F5
330
747D
100
AcDbEntity
  8
部品1
100
AcDbLine
 10
10845.90246528577
 20
4587.825613625238
 30
0.0
 11
10734.40246528579
 21
4587.825613625238
 31
0.0
  0
LINE
  5
167F6
330
747D
100
AcDbEntity
  8
部品1
100
AcDbLine
 10
10612.40246528577
 20
4587.825613625253
 30
0.0
 11
10468.90246528577
 21
4587.825613625253
 31
0.0
  0
LINE
  5
167F7
330
747D
100
AcDbEntity
  8
部品1
100
AcDbLine
 10
10649.40246528579
 20
4607.225613625255
 30
0.0
 11
10649.40246528579
 21
4509.814546116682
 31
0.0
  0
LINE
  5
167F8
330
747D
100
AcDbEntity
  8
部品1
100
AcDbLine
 10
10624.40246528579
 20
4607.225613625255
 30
0.0
 11
10624.40246528579
 21
4509.814546116682
 31
0.0
  0
LINE
  5
167F9
330
747D
100
AcDbEntity
  8
部品1
100
AcDbLine
 10
10697.40246528579
 20
4607.225613625255
 30
0.0
 11
10697.40246528579
 21
4509.814546116682
 31
0.0
  0
LINE
  5
167FA
330
747D
100
AcDbEntity
  8
部品1
100
AcDbLine
 10
10722.40246528578
 20
4607.225613625255
 30
0.0
 11
10722.40246528579
 21
4509.814546116682
 31
0.0
  0
DIMENSION
  5
167FB
330
747D
100
AcDbEntity
  8
寸法
 48
50.0
100
AcDbDimension
  2
*D17
 10
11349.40246528577
 20
5011.318782956255
 30
0.0
 11
11712.88774666001
 21
5011.318782956255
 31
0.0
 70
   160
 71
     5
 42
50.0
  3
INABA_S40G
100
AcDbAlignedDimension
 13
11399.40246528577
 23
4612.225613616784
 33
0.0
 14
11349.40246528577
 24
4612.225613616787
 34
0.0
100
AcDbRotatedDimension
  0
LINE
  5
167FC
330
747D
100
AcDbEntity
  8
部品1
100
AcDbLine
 10
11285.40246528575
 20
4607.225613625243
 30
0.0
 11
11285.40246528575
 21
4509.814546116678
 31
0.0
  0
LINE
  5
167FD
330
747D
100
AcDbEntity
  8
部品1
100
AcDbLine
 10
11303.40246528575
 20
4607.225613625255
 30
0.0
 11
11303.40246528575
 21
4509.814546116678
 31
0.0
  0
LINE
  5
167FE
330
747D
100
AcDbEntity
  8
部品1
 48
50.0
100
AcDbLine
 10
11282.40246528576
 20
4607.225613625255
 30
0.0
 11
11306.40246528576
 21
4607.225613625255
 31
0.0
  0
LINE
  5
167FF
330
747D
100
AcDbEntity
  8
部品1
 48
50.0
100
AcDbLine
 10
11354.47309327897
 20
4557.225613616782
 30
0.0
 11
11392.41642146855
 21
4557.225613616782
 31
0.0
  0
ARC
  5
16800
330
747D
100
AcDbEntity
  8
部品1
100
AcDbCircle
 10
11397.44332284547
 20
4529.895730937371
 30
0.0
 40
0.7
100
AcDbArc
 50
277.2868405166465
 51
356.3813705198557
  0
ARC
  5
16801
330
747D
100
AcDbEntity
  8
部品1
100
AcDbCircle
 10
11397.91261897067
 20
4526.225613616781
 30
0.0
 40
3.0
100
AcDbArc
 50
90.0
 51
176.3813705198557
  0
LINE
  5
16802
330
747D
100
AcDbEntity
  8
部品1
100
AcDbLine
 10
11394.91860019186
 20
4526.414958677893
 30
0.0
 11
11390.1715071797
 21
4451.351550423111
 31
0.0
  0
ARC
  5
16803
330
747D
100
AcDbEntity
  8
部品1
100
AcDbCircle
 10
11389.47290279798
 20
4451.39573093737
 30
0.0
 40
0.7
100
AcDbArc
 50
277.2868405166465
 51
356.3813705198557
  0
ARC
  5
16804
330
747D
100
AcDbEntity
  8
部品1
100
AcDbCircle
 10
11389.94219892318
 20
4447.725613616781
 30
0.0
 40
3.0
100
AcDbArc
 50
90.0
 51
176.3813705198557
  0
ARC
  5
16805
330
747D
100
AcDbEntity
  8
部品1
100
AcDbCircle
 10
11379.28981062258
 20
4437.725613616781
 30
0.0
 40
7.0
100
AcDbArc
 50
270.0
 51
356.3813705198557
  0
ARC
  5
16806
330
747D
100
AcDbEntity
  8
部品1
100
AcDbCircle
 10
11392.41642146855
 20
4550.225613616781
 30
0.0
 40
7.0
100
AcDbArc
 50
356.3813705198557
 51
90.0
  0
LINE
  5
16807
330
747D
100
AcDbEntity
  8
部品1
100
AcDbLine
 10
11386.27585443979
 20
4437.283808474193
 30
0.0
 11
11386.94818014437
 21
4447.914958677893
 31
0.0
  0
LINE
  5
16808
330
747D
100
AcDbEntity
  8
部品1
100
AcDbLine
 10
11398.1419272272
 20
4529.851550423111
 30
0.0
 11
11399.40246528576
 21
4549.783808474193
 31
0.0
  0
LINE
  5
16809
330
747D
100
AcDbEntity
  8
部品1
100
AcDbLine
 10
11354.47309327897
 20
4557.225613616782
 30
0.0
 11
11392.41642146855
 21
4557.225613616782
 31
0.0
  0
ARC
  5
1680A
330
747D
100
AcDbEntity
  8
部品1
100
AcDbCircle
 10
11354.47309327897
 20
4552.225613616782
 30
0.0
 40
5.0
100
AcDbArc
 50
90.0
 51
180.0
  0
LINE
  5
1680B
330
747D
100
AcDbEntity
  8
部品1
100
AcDbLine
 10
11349.47309327897
 20
4607.22561363368
 30
0.0
 11
11349.47309327897
 21
4509.814546116678
 31
0.0
  0
LINE
  5
1680C
330
747D
100
AcDbEntity
  8
部品1
 48
50.0
100
AcDbLine
 10
11399.40246528576
 20
4549.783808474193
 30
0.0
 11
11399.40246528576
 21
4604.783808491091
 31
0.0
  0
ARC
  5
1680D
330
747D
100
AcDbEntity
  8
部品1
100
AcDbCircle
 10
11354.47309327897
 20
4607.22561363368
 30
0.0
 40
5.0
100
AcDbArc
 50
90.0
 51
180.0
  0
LINE
  5
1680E
330
747D
100
AcDbEntity
  8
部品1
100
AcDbLine
 10
11354.47309327897
 20
4612.22561363368
 30
0.0
 11
11392.41642146855
 21
4612.22561363368
 31
0.0
  0
ARC
  5
1680F
330
747D
100
AcDbEntity
  8
部品1
100
AcDbCircle
 10
11392.41642146855
 20
4605.22561363368
 30
0.0
 40
7.0
100
AcDbArc
 50
356.3813705198557
 51
90.0
  0
LINE
  5
16810
330
747D
100
AcDbEntity
  8
細線
 48
50.0
100
AcDbLine
 10
11366.91355519005
 20
4557.225613616782
 30
0.0
 11
11366.91355519004
 21
4430.725613616782
 31
0.0
  0
LINE
  5
16811
330
747D
100
AcDbEntity
  8
細線
 48
50.0
100
AcDbLine
 10
11349.47309327897
 20
4529.197446364731
 30
0.0
 11
11397.53633456291
 21
4529.197446364738
 31
0.0
  0
LINE
  5
16812
330
747D
100
AcDbEntity
  8
部品1
 48
50.0
100
AcDbLine
 10
11282.40246528576
 20
4607.225613625255
 30
0.0
 11
11281.19112507957
 21
4597.825613625253
 31
0.0
  0
LINE
  5
16813
330
747D
100
AcDbEntity
  8
部品1
 48
50.0
100
AcDbLine
 10
11267.19112507957
 20
4597.825613625253
 30
0.0
 11
11281.19112507957
 21
4597.825613625253
 31
0.0
  0
LINE
  5
16814
330
747D
100
AcDbEntity
  8
部品1
 48
50.0
100
AcDbLine
 10
11267.19112507957
 20
4597.825613625253
 30
0.0
 11
11265.90246528576
 21
4587.825613625253
 31
0.0
  0
LINE
  5
16815
330
747D
100
AcDbEntity
  8
部品1
 48
50.0
100
AcDbLine
 10
11306.40246528576
 20
4607.225613625255
 30
0.0
 11
11308.90246528576
 21
4587.825613625253
 31
0.0
  0
LINE
  5
16816
330
747D
100
AcDbEntity
  8
部品1
100
AcDbLine
 10
11349.47309327897
 20
4587.825613625249
 30
0.0
 11
11308.90246528576
 21
4587.825613625249
 31
0.0
  0
LINE
  5
16817
330
747D
100
AcDbEntity
  8
部品1
100
AcDbLine
 10
11265.90246528578
 20
4587.825613625242
 30
0.0
 11
11154.40246528579
 21
4587.825613625242
 31
0.0
  0
LINE
  5
16818
330
747D
100
AcDbEntity
  8
部品1
100
AcDbLine
 10
11142.40246528579
 20
4607.225613625258
 30
0.0
 11
11142.40246528579
 21
4509.814546116685
 31
0.0
  0
LINE
  5
16819
330
747D
100
AcDbEntity
  8
部品1
100
AcDbLine
 10
11117.40246528579
 20
4607.225613625258
 30
0.0
 11
11117.40246528579
 21
4509.814546116685
 31
0.0
  0
LINE
  5
1681A
330
747D
100
AcDbEntity
  8
部品1
100
AcDbLine
 10
11044.40246528579
 20
4607.225613625258
 30
0.0
 11
11044.40246528579
 21
4509.814546116685
 31
0.0
  0
LINE
  5
1681B
330
747D
100
AcDbEntity
  8
部品1
100
AcDbLine
 10
11069.40246528579
 20
4607.225613625258
 30
0.0
 11
11069.40246528579
 21
4509.814546116685
 31
0.0
  0
LINE
  5
1681C
330
747D
100
AcDbEntity
  8
部品1
 48
50.0
100
AcDbLine
 10
11115.90246528578
 20
4607.225613625262
 30
0.0
 11
11143.90246528578
 21
4607.225613625262
 31
0.0
  0
LINE
  5
1681D
330
747D
100
AcDbEntity
  8
部品1
 48
50.0
100
AcDbLine
 10
11143.90246528578
 20
4607.225613625262
 30
0.0
 11
11154.40246528578
 21
4587.82561362526
 31
0.0
  0
LINE
  5
1681E
330
747D
100
AcDbEntity
  8
部品1
 48
50.0
100
AcDbLine
 10
11115.90246528578
 20
4607.225613625262
 30
0.0
 11
11105.40246528578
 21
4587.82561362526
 31
0.0
  0
LINE
  5
1681F
330
747D
100
AcDbEntity
  8
部品1
 48
50.0
100
AcDbLine
 10
11042.90246528578
 20
4607.225613625262
 30
0.0
 11
11070.90246528578
 21
4607.225613625262
 31
0.0
  0
LINE
  5
16820
330
747D
100
AcDbEntity
  8
部品1
 48
50.0
100
AcDbLine
 10
11042.90246528578
 20
4607.225613625262
 30
0.0
 11
11032.40246528578
 21
4587.82561362526
 31
0.0
  0
LINE
  5
16821
330
747D
100
AcDbEntity
  8
部品1
 48
50.0
100
AcDbLine
 10
11070.90246528578
 20
4607.225613625262
 30
0.0
 11
11081.40246528578
 21
4587.82561362526
 31
0.0
  0
LINE
  5
16822
330
747D
100
AcDbEntity
  8
部品1
100
AcDbLine
 10
11105.40246528578
 20
4587.825613625256
 30
0.0
 11
11081.40246528578
 21
4587.825613625256
 31
0.0
  0
LINE
  5
16823
330
747D
100
AcDbEntity
  8
部品1
100
AcDbLine
 10
11032.40246528578
 20
4587.825613625256
 30
0.0
 11
10888.90246528578
 21
4587.825613625256
 31
0.0
  0
LINE
  5
16824
330
747D
100
AcDbEntity
  8
部品1
 48
50.0
100
AcDbLine
 10
10886.40246528578
 20
4607.225613625258
 30
0.0
 11
10888.90246528578
 21
4587.825613625256
 31
0.0
  0
LINE
  5
16825
330
747D
100
AcDbEntity
  8
部品1
 48
50.0
100
AcDbLine
 10
10847.19112507959
 20
4597.825613625256
 30
0.0
 11
10845.90246528578
 21
4587.825613625256
 31
0.0
  0
LINE
  5
16826
330
747D
100
AcDbEntity
  8
部品1
 48
50.0
100
AcDbLine
 10
10847.19112507959
 20
4597.825613625256
 30
0.0
 11
10861.19112507959
 21
4597.825613625256
 31
0.0
  0
LINE
  5
16827
330
747D
100
AcDbEntity
  8
部品1
 48
50.0
100
AcDbLine
 10
10862.40246528578
 20
4607.225613625258
 30
0.0
 11
10861.19112507959
 21
4597.825613625256
 31
0.0
  0
LINE
  5
16828
330
747D
100
AcDbEntity
  8
部品1
 48
50.0
100
AcDbLine
 10
10862.40246528578
 20
4607.225613625258
 30
0.0
 11
10886.40246528578
 21
4607.225613625258
 31
0.0
  0
LINE
  5
16829
330
747D
100
AcDbEntity
  8
部品1
100
AcDbLine
 10
10883.40246528577
 20
4607.225613625258
 30
0.0
 11
10883.40246528577
 21
4509.814546116682
 31
0.0
  0
LINE
  5
1682A
330
747D
100
AcDbEntity
  8
部品1
100
AcDbLine
 10
10865.40246528577
 20
4607.225613625247
 30
0.0
 11
10865.40246528577
 21
4509.814546116682
 31
0.0
  0
MTEXT
  5
1682B
330
747D
100
AcDbEntity
  8
寸法
 62
     7
 48
50.0
100
AcDbMText
 10
10909.50500237891
 20
9569.10602961978
 30
0.0
 40
96.0
 41
0.0
 71
     5
 72
     1
  1
棚 2段
  7
STYLE1
 73
     1
 44
1.0
1001
ACAD
1000
MTEXTBEGIN
1070
    73
1070
     1
1070
    44
1040
1.0
1070
    74
1070
     0
1000
MTEXTEND
  0
MTEXT
  5
1682C
330
747D
100
AcDbEntity
  8
寸法
 62
     7
 48
50.0
100
AcDbMText
 10
9819.505002378919
 20
9569.106029619732
 30
0.0
 40
96.0
 41
0.0
 71
     5
 72
     1
  1
棚 2段
  7
STYLE1
 73
     1
 44
1.0
1001
ACAD
1000
MTEXTBEGIN
1070
    73
1070
     1
1070
    44
1040
1.0
1070
    74
1070
     0
1000
MTEXTEND
  0
TEXT
  5
1682D
330
747D
100
AcDbEntity
  8
文字
 62
     7
 48
50.0
100
AcDbText
 10
14798.72402257234
 20
9740.013745883729
 30
0.0
 40
100.0
  1
F12(一般型1.0/多雪地型2.3)
  7
STYLE1
100
AcDbText
  0
TEXT
  5
1682E
330
747D
100
AcDbEntity
  8
文字
 62
     7
 48
50.0
100
AcDbText
 10
13248.77747366447
 20
8380.013745883733
 30
0.0
 40
100.0
  1
17
  7
STYLE1
100
AcDbText
  0
TEXT
  5
1682F
330
747D
100
AcDbEntity
  8
文字
 62
     7
 48
50.0
100
AcDbText
 10
13248.77747366447
 20
8550.013745883733
 30
0.0
 40
100.0
  1
16
  7
STYLE1
100
AcDbText
  0
TEXT
  5
16830
330
747D
100
AcDbEntity
  8
文字
 62
     7
 48
50.0
100
AcDbText
 10
15022.63965474517
 20
9060.013745883729
 30
0.0
 40
100.0
  1
F12            1.0
  7
STYLE1
100
AcDbText
  0
TEXT
  5
16831
330
747D
100
AcDbEntity
  8
文字
 62
     7
 48
50.0
100
AcDbText
 10
13583.11819016569
 20
9060.013745883736
 30
0.0
 40
100.0
  1
壁面扉枠左右
  7
STYLE1
100
AcDbText
  0
TEXT
  5
16832
330
747D
100
AcDbEntity
  8
文字
 62
     7
 48
50.0
100
AcDbText
 10
15022.63965474517
 20
9230.013745883729
 30
0.0
 40
100.0
  1
F12            1.0
  7
STYLE1
100
AcDbText
  0
TEXT
  5
16833
330
747D
100
AcDbEntity
  8
文字
 62
     7
 48
50.0
100
AcDbText
 10
15022.63965474515
 20
9400.013745883731
 30
0.0
 40
100.0
  1
F12            0.7
  7
STYLE1
100
AcDbText
  0
TEXT
  5
16834
330
747D
100
AcDbEntity
  8
文字
 62
     7
 48
50.0
100
AcDbText
 10
13583.11819016569
 20
9230.013745883736
 30
0.0
 40
100.0
  1
壁面扉敷居
  7
STYLE1
100
AcDbText
  0
TEXT
  5
16835
330
747D
100
AcDbEntity
  8
文字
 62
     7
 48
50.0
100
AcDbText
 10
13583.11819016569
 20
9400.013745883732
 30
0.0
 40
100.0
  1
壁面扉鴨居
  7
STYLE1
100
AcDbText
  0
LINE
  5
16836
330
747D
100
AcDbEntity
  8
仕様書枠
 48
50.0
100
AcDbLine
 10
16307.19999999999
 20
8689.600000000007
 30
0.0
 11
13127.2
 21
8689.600000000011
 31
0.0
  0
LINE
  5
16837
330
747D
100
AcDbEntity
  8
仕様書枠
 48
50.0
100
AcDbLine
 10
16307.19999999999
 20
8519.600000000009
 30
0.0
 11
13127.2
 21
8519.600000000009
 31
0.0
  0
TEXT
  5
16838
330
747D
100
AcDbEntity
  8
文字
 62
     7
 48
50.0
100
AcDbText
 10
13583.11819016569
 20
8380.013745883733
 30
0.0
 40
100.0
  1
アンカープレート
  7
STYLE1
100
AcDbText
  0
TEXT
  5
16839
330
747D
100
AcDbEntity
  8
文字
 62
     7
 48
50.0
100
AcDbText
 10
15022.63965474515
 20
8380.013745883728
 30
0.0
 40
100.0
  1
F12            2.3
  7
STYLE1
100
AcDbText
  0
LINE
  5
1683A
330
747D
100
AcDbEntity
  8
仕様書枠
 48
50.0
100
AcDbLine
 10
16307.2
 20
10049.6
 30
0.0
 11
13127.2
 21
10049.6
 31
0.0
  0
LINE
  5
1683B
330
747D
100
AcDbEntity
  8
仕様書枠
 48
50.0
100
AcDbLine
 10
16307.2
 20
11409.6
 30
0.0
 11
13127.2
 21
11409.6
 31
0.0
  0
LINE
  5
1683C
330
747D
100
AcDbEntity
  8
仕様書枠
 48
50.0
100
AcDbLine
 10
16307.19999999999
 20
8009.600000000007
 30
0.0
 11
16307.2
 21
11409.6
 31
0.0
  0
LINE
  5
1683D
330
747D
100
AcDbEntity
  8
仕様書枠
 48
50.0
100
AcDbLine
 10
14785.2
 20
11409.6
 30
0.0
 11
14785.2
 21
8349.600000000007
 31
0.0
  0
LINE
  5
1683E
330
747D
100
AcDbEntity
  8
仕様書枠
 48
50.0
100
AcDbLine
 10
13490.2
 20
11409.6
 30
0.0
 11
13490.20000000001
 21
8349.600000000009
 31
0.0
  0
LINE
  5
1683F
330
747D
100
AcDbEntity
  8
仕様書枠
 48
50.0
100
AcDbLine
 10
16307.2
 20
11239.6
 30
0.0
 11
13127.2
 21
11239.6
 31
0.0
  0
LINE
  5
16840
330
747D
100
AcDbEntity
  8
仕様書枠
 48
50.0
100
AcDbLine
 10
16307.2
 20
10899.6
 30
0.0
 11
13127.2
 21
10899.6
 31
0.0
  0
LINE
  5
16841
330
747D
100
AcDbEntity
  8
仕様書枠
 48
50.0
100
AcDbLine
 10
16307.2
 20
11069.6
 30
0.0
 11
13127.2
 21
11069.6
 31
0.0
  0
LINE
  5
16842
330
747D
100
AcDbEntity
  8
仕様書枠
 48
50.0
100
AcDbLine
 10
16307.19999999999
 20
10559.6
 30
0.0
 11
13127.2
 21
10559.6
 31
0.0
  0
LINE
  5
16843
330
747D
100
AcDbEntity
  8
仕様書枠
 48
50.0
100
AcDbLine
 10
16307.19999999999
 20
10389.6
 30
0.0
 11
13127.2
 21
10389.6
 31
0.0
  0
LINE
  5
16844
330
747D
100
AcDbEntity
  8
仕様書枠
 48
50.0
100
AcDbLine
 10
16307.19999999999
 20
10729.6
 30
0.0
 11
13127.2
 21
10729.6
 31
0.0
  0
TEXT
  5
16845
330
747D
100
AcDbEntity
  8
文字
 62
     7
 48
50.0
100
AcDbText
 10
13197.42518560407
 20
11270.01374588373
 30
0.0
 40
100.0
  1
品番
  7
STYLE1
100
AcDbText
  0
TEXT
  5
16846
330
747D
100
AcDbEntity
  8
文字
 62
     7
 48
50.0
100
AcDbText
 10
13271.19032244792
 20
11100.01374588373
 30
0.0
 40
100.0
  1
1
  7
STYLE1
100
AcDbText
  0
TEXT
  5
16847
330
747D
100
AcDbEntity
  8
文字
 62
     7
 48
50.0
100
AcDbText
 10
13271.19032244792
 20
10930.01374588373
 30
0.0
 40
100.0
  1
2
  7
STYLE1
100
AcDbText
  0
TEXT
  5
16848
330
747D
100
AcDbEntity
  8
文字
 62
     7
 48
50.0
100
AcDbText
 10
13271.19032244792
 20
10590.01374588373
 30
0.0
 40
100.0
  1
4
  7
STYLE1
100
AcDbText
  0
TEXT
  5
16849
330
747D
100
AcDbEntity
  8
文字
 62
     7
 48
50.0
100
AcDbText
 10
13271.19032244792
 20
10760.01374588373
 30
0.0
 40
100.0
  1
3
  7
STYLE1
100
AcDbText
  0
TEXT
  5
1684A
330
747D
100
AcDbEntity
  8
文字
 62
     7
 48
50.0
100
AcDbText
 10
13732.03840939434
 20
11270.01374588373
 30
0.0
 40
100.0
  1
部　　品　　名
  7
STYLE1
100
AcDbText
  0
TEXT
  5
1684B
330
747D
100
AcDbEntity
  8
文字
 62
     7
 48
50.0
100
AcDbText
 10
14859.79774614482
 20
11270.01374588373
 30
0.0
 40
100.0
  1
材料（材質）　　単位mm
  7
STYLE1
100
AcDbText
  0
TEXT
  5
1684C
330
747D
100
AcDbEntity
  8
文字
 62
     7
 48
50.0
100
AcDbText
 10
13583.11819016569
 20
11100.01374588373
 30
0.0
 40
100.0
  1
土台枠
  7
STYLE1
100
AcDbText
  0
TEXT
  5
1684D
330
747D
100
AcDbEntity
  8
文字
 62
     7
 48
50.0
100
AcDbText
 10
13583.1181901657
 20
10760.01374588373
 30
0.0
 40
100.0
  1
柱
  7
STYLE1
100
AcDbText
  0
TEXT
  5
1684E
330
747D
100
AcDbEntity
  8
文字
 62
     7
 48
50.0
100
AcDbText
 10
13583.11819016569
 20
10420.01374588373
 30
0.0
 40
100.0
  1
桁前後
  7
STYLE1
100
AcDbText
  0
TEXT
  5
1684F
330
747D
100
AcDbEntity
  8
文字
 62
     7
 48
50.0
100
AcDbText
 10
13271.19032244792
 20
10420.01374588373
 30
0.0
 40
100.0
  1
5
  7
STYLE1
100
AcDbText
  0
TEXT
  5
16850
330
747D
100
AcDbEntity
  8
文字
 62
     7
 48
50.0
100
AcDbText
 10
13583.11819016569
 20
10250.01374588373
 30
0.0
 40
100.0
  1
妻板左右
  7
STYLE1
100
AcDbText
  0
TEXT
  5
16851
330
747D
100
AcDbEntity
  8
文字
 62
     7
 48
50.0
100
AcDbText
 10
13248.77747366447
 20
9570.013745883731
 30
0.0
 40
100.0
  1
10
  7
STYLE1
100
AcDbText
  0
TEXT
  5
16852
330
747D
100
AcDbEntity
  8
文字
 62
     7
 48
50.0
100
AcDbText
 10
13583.11819016568
 20
9570.013745883732
 30
0.0
 40
100.0
  1
壁パネル
  7
STYLE1
100
AcDbText
  0
TEXT
  5
16853
330
747D
100
AcDbEntity
  8
文字
 62
     7
 48
50.0
100
AcDbText
 10
13583.11819016569
 20
9910.01374588373
 30
0.0
 40
100.0
  1
屋根パネル
  7
STYLE1
100
AcDbText
  0
TEXT
  5
16854
330
747D
100
AcDbEntity
  8
文字
 62
     7
 48
50.0
100
AcDbText
 10
13583.11819016569
 20
10080.01374588373
 30
0.0
 40
100.0
  1
鼻隠シ前後
  7
STYLE1
100
AcDbText
  0
TEXT
  5
16855
330
747D
100
AcDbEntity
  8
文字
 62
     7
 48
50.0
100
AcDbText
 10
13271.19032244792
 20
9910.013745883732
 30
0.0
 40
100.0
  1
8
  7
STYLE1
100
AcDbText
  0
TEXT
  5
16856
330
747D
100
AcDbEntity
  8
文字
 62
     7
 48
50.0
100
AcDbText
 10
13271.19032244792
 20
9740.013745883732
 30
0.0
 40
100.0
  1
9
  7
STYLE1
100
AcDbText
  0
TEXT
  5
16857
330
747D
100
AcDbEntity
  8
文字
 62
     7
 48
50.0
100
AcDbText
 10
13271.19032244792
 20
10080.01374588373
 30
0.0
 40
100.0
  1
7
  7
STYLE1
100
AcDbText
  0
TEXT
  5
16858
330
747D
100
AcDbEntity
  8
文字
 62
     7
 48
50.0
100
AcDbText
 10
13271.19032244792
 20
10250.01374588373
 30
0.0
 40
100.0
  1
6
  7
STYLE1
100
AcDbText
  0
LINE
  5
16859
330
747D
100
AcDbEntity
  8
仕様書枠
 48
50.0
100
AcDbLine
 10
16307.19999999999
 20
9709.600000000001
 30
0.0
 11
13127.2
 21
9709.600000000005
 31
0.0
  0
LINE
  5
1685A
330
747D
100
AcDbEntity
  8
仕様書枠
 48
50.0
100
AcDbLine
 10
16307.19999999999
 20
9369.600000000003
 30
0.0
 11
13127.2
 21
9369.600000000003
 31
0.0
  0
LINE
  5
1685B
330
747D
100
AcDbEntity
  8
仕様書枠
 48
50.0
100
AcDbLine
 10
16307.19999999999
 20
9539.600000000003
 30
0.0
 11
13127.2
 21
9539.600000000005
 31
0.0
  0
LINE
  5
1685C
330
747D
100
AcDbEntity
  8
仕様書枠
 48
50.0
100
AcDbLine
 10
16307.2
 20
10219.6
 30
0.0
 11
13127.2
 21
10219.6
 31
0.0
  0
LINE
  5
1685D
330
747D
100
AcDbEntity
  8
仕様書枠
 48
50.0
100
AcDbLine
 10
16307.2
 20
9879.600000000003
 30
0.0
 11
13127.2
 21
9879.600000000005
 31
0.0
  0
TEXT
  5
1685E
330
747D
100
AcDbEntity
  8
文字
 62
     7
 48
50.0
100
AcDbText
 10
13248.77747366447
 20
9400.013745883731
 30
0.0
 40
100.0
  1
11
  7
STYLE1
100
AcDbText
  0
LINE
  5
1685F
330
747D
100
AcDbEntity
  8
仕様書枠
 48
50.0
100
AcDbLine
 10
16307.19999999999
 20
9199.600000000001
 30
0.0
 11
13127.2
 21
9199.600000000003
 31
0.0
  0
LINE
  5
16860
330
747D
100
AcDbEntity
  8
仕様書枠
 48
50.0
100
AcDbLine
 10
16307.19999999999
 20
8859.600000000005
 30
0.0
 11
13127.2
 21
8859.600000000005
 31
0.0
  0
TEXT
  5
16861
330
747D
100
AcDbEntity
  8
文字
 62
     7
 48
50.0
100
AcDbText
 10
13248.77747366448
 20
9060.013745883731
 30
0.0
 40
100.0
  1
13
  7
STYLE1
100
AcDbText
  0
TEXT
  5
16862
330
747D
100
AcDbEntity
  8
文字
 62
     7
 48
50.0
100
AcDbText
 10
13248.77747366448
 20
9230.013745883731
 30
0.0
 40
100.0
  1
12
  7
STYLE1
100
AcDbText
  0
TEXT
  5
16863
330
747D
100
AcDbEntity
  8
文字
 62
     7
 48
50.0
100
AcDbText
 10
15022.63965474517
 20
11100.01374588373
 30
0.0
 40
100.0
  1
F12            1.2
  7
STYLE1
100
AcDbText
  0
TEXT
  5
16864
330
747D
100
AcDbEntity
  8
文字
 62
     7
 48
50.0
100
AcDbText
 10
15022.63965474518
 20
10760.01374588373
 30
0.0
 40
100.0
  1
F12            1.0
  7
STYLE1
100
AcDbText
  0
TEXT
  5
16865
330
747D
100
AcDbEntity
  8
文字
 62
     7
 48
50.0
100
AcDbText
 10
15022.63965474516
 20
10420.01374588373
 30
0.0
 40
100.0
  1
Y10            1.0
  7
STYLE1
100
AcDbText
  0
TEXT
  5
16866
330
747D
100
AcDbEntity
  8
文字
 62
     7
 48
50.0
100
AcDbText
 10
15022.63965474516
 20
10250.01374588373
 30
0.0
 40
100.0
  1
Y10            0.7
  7
STYLE1
100
AcDbText
  0
TEXT
  5
16867
330
747D
100
AcDbEntity
  8
文字
 62
     7
 48
50.0
100
AcDbText
 10
15022.63965474516
 20
10080.01374588373
 30
0.0
 40
100.0
  1
Y10            0.7
  7
STYLE1
100
AcDbText
  0
TEXT
  5
16868
330
747D
100
AcDbEntity
  8
文字
 62
     7
 48
50.0
100
AcDbText
 10
15022.63965474517
 20
9910.01374588373
 30
0.0
 40
100.0
  1
Y10            0.5
  7
STYLE1
100
AcDbText
  0
TEXT
  5
16869
330
747D
100
AcDbEntity
  8
文字
 62
     7
 48
50.0
100
AcDbText
 10
15022.63965474515
 20
9570.013745883729
 30
0.0
 40
100.0
  1
F12            0.6
  7
STYLE1
100
AcDbText
  0
LINE
  5
1686A
330
747D
100
AcDbEntity
  8
仕様書枠
 48
50.0
100
AcDbLine
 10
16307.19999999999
 20
8349.600000000007
 30
0.0
 11
13127.19999999999
 21
8349.600000000009
 31
0.0
  0
LINE
  5
1686B
330
747D
100
AcDbEntity
  8
仕様書枠
 48
50.0
100
AcDbLine
 10
16307.19999999999
 20
8179.600000000007
 30
0.0
 11
13127.19999999999
 21
8179.600000000009
 31
0.0
  0
TEXT
  5
1686C
330
747D
100
AcDbEntity
  8
文字
 62
     7
 48
50.0
100
AcDbText
 10
13229.83081656554
 20
8210.013745883737
 30
0.0
 40
100.0
  1
F12→溶融亜鉛めっき鋼板(JIS G 3302)
  7
STYLE1
100
AcDbText
  0
TEXT
  5
1686D
330
747D
100
AcDbEntity
  8
文字
 62
     7
 48
50.0
100
AcDbText
 10
13229.83081656554
 20
8040.013745883737
 30
0.0
 40
100.0
  1
Y10→溶融亜鉛-5％アルミニウム合金めっき鋼板(JIS G 3317)
 41
0.9
  7
STYLE1
100
AcDbText
  0
LINE
  5
1686E
330
747D
100
AcDbEntity
  8
仕様書枠
 48
50.0
100
AcDbLine
 10
13127.2
 20
11409.6
 30
0.0
 11
13127.19999999999
 21
8009.600000000011
 31
0.0
  0
LINE
  5
1686F
330
747D
100
AcDbEntity
  8
仕様書枠
 48
50.0
100
AcDbLine
 10
16307.19999999999
 20
9029.600000000003
 30
0.0
 11
13127.2
 21
9029.600000000007
 31
0.0
  0
TEXT
  5
16870
330
747D
100
AcDbEntity
  8
文字
 62
     7
 48
50.0
100
AcDbText
 10
13583.1181901657
 20
10590.01374588373
 30
0.0
 40
100.0
  1
床パネル
 41
0.9
  7
STYLE1
100
AcDbText
  0
TEXT
  5
16871
330
747D
100
AcDbEntity
  8
文字
 62
     7
 48
50.0
100
AcDbText
 10
13583.11819016569
 20
10930.01374588373
 30
0.0
 40
100.0
  1
根太
  7
STYLE1
100
AcDbText
  0
TEXT
  5
16872
330
747D
100
AcDbEntity
  8
文字
 62
     7
 48
50.0
100
AcDbText
 10
13248.77747366448
 20
8890.013745883731
 30
0.0
 40
100.0
  1
14
  7
STYLE1
100
AcDbText
  0
TEXT
  5
16873
330
747D
100
AcDbEntity
  8
文字
 62
     7
 48
50.0
100
AcDbText
 10
15022.63965474516
 20
10930.01374588373
 30
0.0
 40
100.0
  1
F12            1.2
  7
STYLE1
100
AcDbText
  0
TEXT
  5
16874
330
747D
100
AcDbEntity
  8
文字
 62
     7
 48
50.0
100
AcDbText
 10
15022.63965474517
 20
10590.01374588373
 30
0.0
 40
100.0
  1
F12            1.0
  7
STYLE1
100
AcDbText
  0
TEXT
  5
16875
330
747D
100
AcDbEntity
  8
文字
 62
     7
 48
50.0
100
AcDbText
 10
15022.63965474515
 20
8890.013745883731
 30
0.0
 40
100.0
  1
F12            0.7
  7
STYLE1
100
AcDbText
  0
TEXT
  5
16876
330
747D
100
AcDbEntity
  8
文字
 62
     7
 48
50.0
100
AcDbText
 10
13583.11819016568
 20
8890.013745883734
 30
0.0
 40
100.0
  1
正面パネル
  7
STYLE1
100
AcDbText
  0
TEXT
  5
16877
330
747D
100
AcDbEntity
  8
文字
 62
     7
 48
50.0
100
AcDbText
 10
15022.63965474516
 20
8720.013745883731
 30
0.0
 40
100.0
  1
F12            0.8
  7
STYLE1
100
AcDbText
  0
TEXT
  5
16878
330
747D
100
AcDbEntity
  8
文字
 62
     7
 48
50.0
100
AcDbText
 10
13583.11819016569
 20
8720.013745883735
 30
0.0
 40
100.0
  1
扉
  7
STYLE1
100
AcDbText
  0
LINE
  5
16879
330
747D
100
AcDbEntity
  8
仕様書枠
 48
50.0
100
AcDbLine
 10
16307.19999999999
 20
8009.600000000007
 30
0.0
 11
13127.19999999999
 21
8009.600000000011
 31
0.0
  0
TEXT
  5
1687A
330
747D
100
AcDbEntity
  8
文字
 62
     7
 48
50.0
100
AcDbText
 10
13248.77747366447
 20
8720.013745883733
 30
0.0
 40
100.0
  1
15
  7
STYLE1
100
AcDbText
  0
TEXT
  5
1687B
330
747D
100
AcDbEntity
  8
文字
 62
     7
 48
50.0
100
AcDbText
 10
13583.11819016569
 20
9740.013745883731
 30
0.0
 40
100.0
  1
母屋中
  7
STYLE1
100
AcDbText
  0
TEXT
  5
1687C
330
747D
100
AcDbEntity
  8
文字
 62
     7
 48
50.0
100
AcDbText
 10
15022.63965474516
 20
8550.013745883731
 30
0.0
 40
100.0
  1
F12            0.6
  7
STYLE1
100
AcDbText
  0
TEXT
  5
1687D
330
747D
100
AcDbEntity
  8
文字
 62
     7
 48
50.0
100
AcDbText
 10
13583.11819016569
 20
8550.013745883735
 30
0.0
 40
100.0
  1
棚板
  7
STYLE1
100
AcDbText
  0
TEXT
  5
16EC2
330
747D
100
AcDbEntity
  8
部品1
100
AcDbText
 10
3035.935080958179
 20
2473.332517222683
 30
0.0
 40
125.0
  1
▽G.L
  7
STYLE2
100
AcDbText
  0
LINE
  5
16EC3
330
747D
100
AcDbEntity
  8
部品1
100
AcDbLine
 10
5027.305435948512
 20
2537.225613616782
 30
0.0
 11
5027.305435948512
 21
2437.225613616782
 31
0.0
  0
LINE
  5
16EC4
330
747D
100
AcDbEntity
  8
部品1
 48
50.0
100
AcDbLine
 10
5832.305435948512
 20
2537.225613616782
 30
0.0
 11
5832.305435948512
 21
2437.225613616782
 31
0.0
  0
LINE
  5
16EC5
330
747D
100
AcDbEntity
  8
部品1
 48
50.0
100
AcDbLine
 10
6032.305435948512
 20
2537.225613616782
 30
0.0
 11
6032.305435948512
 21
2437.225613616782
 31
0.0
  0
LINE
  5
16EC6
330
747D
100
AcDbEntity
  8
部品1
100
AcDbLine
 10
6837.305435948512
 20
2537.225613616782
 30
0.0
 11
6837.305435948512
 21
2437.225613616782
 31
0.0
  0
LINE
  5
16EC7
330
747D
100
AcDbEntity
  8
部品1
 48
50.0
100
AcDbLine
 10
7114.305435948516
 20
2537.225613616782
 30
0.0
 11
7029.805435948516
 21
2537.225613616782
 31
0.0
  0
LINE
  5
16EC8
330
747D
100
AcDbEntity
  8
部品1
 48
50.0
100
AcDbLine
 10
7114.305435948516
 20
4362.225613616781
 30
0.0
 11
7114.305435948516
 21
2437.225613616782
 31
0.0
  0
LINE
  5
16EC9
330
747D
100
AcDbEntity
  8
部品1
 48
50.0
100
AcDbLine
 10
7037.305435948517
 20
4372.225613616781
 30
0.0
 11
7114.305435948516
 21
4362.225613616781
 31
0.0
  0
LINE
  5
16ECA
330
747D
100
AcDbEntity
  8
破線
 48
5.0
100
AcDbLine
 10
6909.80543594852
 20
2437.225613616782
 30
0.0
 11
6909.80543594852
 21
2237.225613616782
 31
0.0
  0
LINE
  5
16ECB
330
747D
100
AcDbEntity
  8
破線
 48
5.0
100
AcDbLine
 10
7109.805435948516
 20
2237.225613616778
 30
0.0
 11
6909.80543594852
 21
2237.225613616782
 31
0.0
  0
LINE
  5
16ECC
330
747D
100
AcDbEntity
  8
破線
 48
5.0
100
AcDbLine
 10
7109.80543594852
 20
2437.225613616782
 30
0.0
 11
7109.805435948516
 21
2237.225613616778
 31
0.0
  0
DIMENSION
  5
16ECD
330
747D
100
AcDbEntity
  8
寸法
 48
50.0
100
AcDbDimension
  2
*D18
 10
4754.805435948515
 20
1951.178284316402
 30
0.0
 11
4854.805435948514
 21
1951.178284316402
 31
0.0
 70
   160
 71
     5
 42
199.9999999999963
  3
INABA_S40G
100
AcDbAlignedDimension
 13
4954.805435948512
 23
2237.225613616778
 33
0.0
 14
4754.805435948515
 24
2237.22561361678
 34
0.0
100
AcDbRotatedDimension
  0
LINE
  5
16ECE
330
747D
100
AcDbEntity
  8
破線
 48
5.0
100
AcDbLine
 10
4754.805435948512
 20
2437.225613616782
 30
0.0
 11
4754.805435948515
 21
2237.225613616778
 31
0.0
  0
LINE
  5
16ECF
330
747D
100
AcDbEntity
  8
破線
 48
5.0
100
AcDbLine
 10
4954.805435948512
 20
2437.225613616782
 30
0.0
 11
4954.805435948512
 21
2237.225613616778
 31
0.0
  0
LINE
  5
16ED0
330
747D
100
AcDbEntity
  8
破線
 48
5.0
100
AcDbLine
 10
4954.805435948512
 20
2237.225613616778
 30
0.0
 11
4754.805435948515
 21
2237.225613616778
 31
0.0
  0
DIMENSION
  5
16ED1
330
747D
100
AcDbEntity
  8
寸法
 48
50.0
100
AcDbDimension
  2
*D19
 10
4605.305432701879
 20
2437.22561361678
 30
0.0
 11
4605.305432701878
 21
2337.22561361678
 31
0.0
 70
   160
 71
     5
 42
200.0
  3
INABA_S40G
100
AcDbAlignedDimension
 13
4754.805435948515
 23
2237.22561361678
 33
0.0
 14
4729.805435948512
 24
2437.22561361678
 34
0.0
 50
90.0
100
AcDbRotatedDimension
1001
ACAD
1000
DSTYLE
1002
{
1070
   174
1070
     0
1070
   272
1070
     1
1070
   288
1070
     0
1070
   341
1005
0
1002
}
  0
DIMENSION
  5
16ED2
330
747D
100
AcDbEntity
  8
寸法
 48
50.0
100
AcDbDimension
  2
*D20
 10
4206.697029180146
 20
4486.570872490109
 30
0.0
 11
4217.362504439071
 21
4857.417535731815
 31
0.0
 70
   161
 71
     5
 42
141.0000000000027
  3
INABA_S40G
100
AcDbAlignedDimension
 13
4786.701456107091
 23
4610.948362451462
 33
0.0
 14
4782.648000550465
 24
4470.006638685747
 34
0.0
1001
ACAD
1000
DSTYLE
1002
{
1070
   174
1070
     0
1070
   272
1070
     1
1070
   288
1070
     0
1070
   341
1005
0
1002
}
  0
LINE
  5
16ED3
330
747D
100
AcDbEntity
  8
部品1
100
AcDbLine
 10
7029.805435948512
 20
2537.225613616782
 30
0.0
 11
7037.305435948517
 21
2537.225613616782
 31
0.0
  0
LINE
  5
16ED4
330
747D
100
AcDbEntity
  8
破線
  6
HIDDEN
 48
5.0
100
AcDbLine
 10
4874.805435948513
 20
2437.225613616782
 30
0.0
 11
4874.805435948513
 21
2432.225613616782
 31
0.0
  0
LINE
  5
16ED5
330
747D
100
AcDbEntity
  8
破線
  6
HIDDEN
 48
5.0
100
AcDbLine
 10
4834.80543594852
 20
2437.225613616782
 30
0.0
 11
4834.80543594852
 21
2432.225613616782
 31
0.0
  0
LINE
  5
16ED6
330
747D
100
AcDbEntity
  8
破線
  6
HIDDEN
 48
5.0
100
AcDbLine
 10
7029.805435948512
 20
2437.225613616782
 30
0.0
 11
7029.805435948512
 21
2432.225613616782
 31
0.0
  0
LINE
  5
16ED7
330
747D
100
AcDbEntity
  8
破線
  6
HIDDEN
 48
5.0
100
AcDbLine
 10
6989.805435948513
 20
2437.225613616782
 30
0.0
 11
6989.805435948513
 21
2432.225613616782
 31
0.0
  0
ARC
  5
16ED8
330
747D
100
AcDbEntity
  8
部品1
 48
50.0
100
AcDbCircle
 10
7024.805435948512
 20
2577.225613616782
 30
0.0
 40
5.0
100
AcDbArc
 50
0.0
 51
90.0
  0
ARC
  5
16ED9
330
747D
100
AcDbEntity
  8
部品1
 48
50.0
100
AcDbCircle
 10
6994.805435948513
 20
2577.225613616782
 30
0.0
 40
5.0
100
AcDbArc
 50
90.0
 51
180.0
  0
LINE
  5
16EDA
330
747D
100
AcDbEntity
  8
部品1
100
AcDbLine
 10
7024.805435948512
 20
2582.225613616782
 30
0.0
 11
6994.805435948513
 21
2582.225613616782
 31
0.0
  0
LINE
  5
16EDB
330
747D
100
AcDbEntity
  8
部品1
 48
50.0
100
AcDbLine
 10
7029.805435948512
 20
2577.225613616782
 30
0.0
 11
7029.805435948512
 21
2437.225613616782
 31
0.0
  0
LINE
  5
16EDC
330
747D
100
AcDbEntity
  8
部品1
 48
50.0
100
AcDbLine
 10
6989.805435948513
 20
2577.225613616782
 30
0.0
 11
6989.805435948513
 21
2437.225613616782
 31
0.0
  0
ARC
  5
16EDD
330
747D
100
AcDbEntity
  8
部品1
 48
50.0
100
AcDbCircle
 10
4869.805435948513
 20
2577.225613616782
 30
0.0
 40
5.0
100
AcDbArc
 50
0.0
 51
90.0
  0
ARC
  5
16EDE
330
747D
100
AcDbEntity
  8
部品1
 48
50.0
100
AcDbCircle
 10
4839.805435948512
 20
2577.225613616782
 30
0.0
 40
5.0
100
AcDbArc
 50
90.0
 51
180.0
  0
LINE
  5
16EDF
330
747D
100
AcDbEntity
  8
部品1
100
AcDbLine
 10
4839.805435948512
 20
2582.225613616782
 30
0.0
 11
4869.805435948513
 21
2582.225613616782
 31
0.0
  0
LINE
  5
16EE0
330
747D
100
AcDbEntity
  8
部品1
 48
50.0
100
AcDbLine
 10
4874.805435948513
 20
2577.225613616782
 30
0.0
 11
4874.805435948513
 21
2437.225613616782
 31
0.0
  0
LINE
  5
16EE1
330
747D
100
AcDbEntity
  8
部品1
 48
50.0
100
AcDbLine
 10
4834.805435948513
 20
2577.225613616782
 30
0.0
 11
4834.805435948513
 21
2437.225613616782
 31
0.0
  0
LINE
  5
16EE2
330
747D
100
AcDbEntity
  8
破線
  6
HIDDEN
 48
5.0
100
AcDbLine
 10
4874.805435948513
 20
2432.225613616782
 30
0.0
 11
4889.805435948512
 21
2284.525613616781
 31
0.0
  0
LINE
  5
16EE3
330
747D
100
AcDbEntity
  8
破線
  6
HIDDEN
 48
5.0
100
AcDbLine
 10
4834.805435948513
 20
2432.225613616782
 30
0.0
 11
4819.805435948513
 21
2284.525613616781
 31
0.0
  0
LINE
  5
16EE4
330
747D
100
AcDbEntity
  8
破線
  6
HIDDEN
 48
5.0
100
AcDbLine
 10
4889.805435948512
 20
2284.525613616781
 30
0.0
 11
4889.805435948512
 21
2282.225613616782
 31
0.0
  0
LINE
  5
16EE5
330
747D
100
AcDbEntity
  8
破線
  6
HIDDEN
 48
5.0
100
AcDbLine
 10
4819.805435948513
 20
2284.525613616781
 30
0.0
 11
4819.805435948513
 21
2282.225613616782
 31
0.0
  0
LINE
  5
16EE6
330
747D
100
AcDbEntity
  8
破線
  6
HIDDEN
 48
5.0
100
AcDbLine
 10
4819.805435948513
 20
2282.225613616782
 30
0.0
 11
4889.805435948512
 21
2282.225613616782
 31
0.0
  0
LINE
  5
16EE7
330
747D
100
AcDbEntity
  8
破線
  6
HIDDEN
 48
5.0
100
AcDbLine
 10
7044.805435948513
 20
2284.525613616781
 30
0.0
 11
7044.805435948513
 21
2282.225613616782
 31
0.0
  0
LINE
  5
16EE8
330
747D
100
AcDbEntity
  8
破線
  6
HIDDEN
 48
5.0
100
AcDbLine
 10
7029.805435948512
 20
2432.225613616782
 30
0.0
 11
7044.805435948513
 21
2284.525613616781
 31
0.0
  0
LINE
  5
16EE9
330
747D
100
AcDbEntity
  8
破線
  6
HIDDEN
 48
5.0
100
AcDbLine
 10
6974.805435948512
 20
2284.525613616781
 30
0.0
 11
6974.805435948512
 21
2282.225613616782
 31
0.0
  0
LINE
  5
16EEA
330
747D
100
AcDbEntity
  8
破線
  6
HIDDEN
 48
5.0
100
AcDbLine
 10
6989.805435948513
 20
2432.225613616782
 30
0.0
 11
6974.805435948512
 21
2284.525613616781
 31
0.0
  0
LINE
  5
16EEB
330
747D
100
AcDbEntity
  8
破線
  6
HIDDEN
 48
5.0
100
AcDbLine
 10
7044.805435948513
 20
2282.225613616782
 30
0.0
 11
6974.805435948512
 21
2282.225613616782
 31
0.0
  0
DIMENSION
  5
16EEC
330
747D
100
AcDbEntity
  8
寸法
100
AcDbDimension
  2
*D21
 10
4203.652726790216
 20
2537.225613616782
 30
0.0
 11
4203.652726790215
 21
2231.178369522288
 31
0.0
 70
   160
 71
     5
 42
50.0
  3
INABA_S40G
100
AcDbAlignedDimension
 13
4827.305435948512
 23
2587.225613616782
 33
0.0
 14
4772.305435948513
 24
2537.225613616782
 34
0.0
 50
90.0
100
AcDbRotatedDimension
1001
ACAD
1000
DSTYLE
1002
{
1070
   174
1070
     0
1070
   272
1070
     1
1070
   288
1070
     0
1070
   341
1005
0
1002
}
  0
DIMENSION
  5
16EED
330
747D
100
AcDbEntity
  8
寸法
100
AcDbDimension
  2
*D22
 10
3918.666054019154
 20
2437.225613616782
 30
0.0
 11
3918.666054019153
 21
2201.178369522287
 31
0.0
 70
   160
 71
     5
 42
100.0
  3
INABA_S40G
100
AcDbAlignedDimension
 13
4772.305435948513
 23
2537.225613616782
 33
0.0
 14
4203.652726790215
 24
2437.225613616782
 34
0.0
 50
90.0
100
AcDbRotatedDimension
1001
ACAD
1000
DSTYLE
1002
{
1070
   174
1070
     0
1070
   272
1070
     1
1070
   288
1070
     0
1070
   341
1005
0
1002
}
  0
DIMENSION
  5
16EEE
330
747D
100
AcDbEntity
  8
寸法
100
AcDbDimension
  2
*D23
 10
3918.666054019155
 20
4612.225613616785
 30
0.0
 11
3918.666054019153
 21
3531.431491109892
 31
0.0
 70
   160
 71
     5
 42
2075.000000000004
  3
INABA_S40G
100
AcDbAlignedDimension
 13
4827.305435948512
 23
2537.225613616782
 33
0.0
 14
4767.305435948512
 24
4612.225613616785
 34
0.0
 50
90.0
100
AcDbRotatedDimension
1001
ACAD
1000
DSTYLE
1002
{
1070
   174
1070
     0
1070
   272
1070
     1
1070
   288
1070
     0
1070
   341
1005
0
1002
}
  0
DIMENSION
  5
16EEF
330
747D
100
AcDbEntity
  8
寸法
100
AcDbDimension
  2
*D24
 10
4203.652726790216
 20
2587.225613616782
 30
0.0
 11
4203.652726790215
 21
3477.67991215874
 31
0.0
 70
   160
 71
     5
 42
1790.0
  3
INABA_S40G
100
AcDbAlignedDimension
 13
4827.305435948512
 23
4377.225613616782
 33
0.0
 14
4827.305435948512
 24
2587.225613616782
 34
0.0
 50
90.0
100
AcDbRotatedDimension
1001
ACAD
1000
DSTYLE
1002
{
1070
   174
1070
     0
1070
   272
1070
     1
1070
   288
1070
     0
1070
   341
1005
0
1002
}
  0
LINE
  5
16EF0
330
747D
100
AcDbEntity
  8
部品1
100
AcDbLine
 10
4827.305435948512
 20
2537.225613616782
 30
0.0
 11
4834.805435948513
 21
2537.225613616782
 31
0.0
  0
LINE
  5
16EF1
330
747D
100
AcDbEntity
  8
部品1
100
AcDbLine
 10
6314.040769062732
 20
1748.187350639371
 30
0.0
 11
5550.570102834292
 21
1748.187350639371
 31
0.0
  0
LINE
  5
16EF2
330
747D
100
AcDbEntity
  8
部品1
100
AcDbLine
 10
6314.040769062732
 20
1508.295029093839
 30
0.0
 11
6314.040769062732
 21
1748.187350639371
 31
0.0
  0
LINE
  5
16EF3
330
747D
100
AcDbEntity
  8
部品1
100
AcDbLine
 10
5550.570102834292
 20
1508.295029093839
 30
0.0
 11
6314.040769062732
 21
1508.295029093839
 31
0.0
  0
LINE
  5
16EF4
330
747D
100
AcDbEntity
  8
部品1
100
AcDbLine
 10
5550.570102834292
 20
1748.187350639371
 30
0.0
 11
5550.570102834292
 21
1508.295029093839
 31
0.0
  0
TEXT
  5
16EF5
330
747D
100
AcDbEntity
  8
部品1
100
AcDbText
 10
5640.0162042579
 20
1555.293821420846
 30
0.0
 40
135.0
  1
側面図
  7
STYLE2
100
AcDbText
  0
LINE
  5
16EF6
330
747D
100
AcDbEntity
  8
細線
 48
50.0
100
AcDbLine
 10
6904.805435948519
 20
4377.225613616782
 30
0.0
 11
6904.805435948519
 21
2587.225613616782
 31
0.0
  0
LINE
  5
16EF7
330
747D
100
AcDbEntity
  8
細線
 48
50.0
100
AcDbLine
 10
6919.80543594852
 20
4377.225613616782
 30
0.0
 11
6919.80543594852
 21
2587.225613616782
 31
0.0
  0
LINE
  5
16EF8
330
747D
100
AcDbEntity
  8
細線
 48
50.0
100
AcDbLine
 10
6779.805435948519
 20
4377.225613616782
 30
0.0
 11
6779.805435948519
 21
2587.225613616782
 31
0.0
  0
LINE
  5
16EF9
330
747D
100
AcDbEntity
  8
細線
 48
50.0
100
AcDbLine
 10
6764.80543594852
 20
4377.225613616782
 30
0.0
 11
6764.80543594852
 21
2587.225613616782
 31
0.0
  0
LINE
  5
16EFA
330
747D
100
AcDbEntity
  8
細線
 48
50.0
100
AcDbLine
 10
6624.80543594852
 20
4377.225613616782
 30
0.0
 11
6624.80543594852
 21
2587.225613616782
 31
0.0
  0
LINE
  5
16EFB
330
747D
100
AcDbEntity
  8
細線
 48
50.0
100
AcDbLine
 10
6639.80543594852
 20
4377.225613616782
 30
0.0
 11
6639.80543594852
 21
2587.225613616782
 31
0.0
  0
LINE
  5
16EFC
330
747D
100
AcDbEntity
  8
部品1
100
AcDbLine
 10
6142.305435948512
 20
4377.225613616782
 30
0.0
 11
6142.305435948512
 21
2587.225613616782
 31
0.0
  0
LINE
  5
16EFD
330
747D
100
AcDbEntity
  8
細線
 48
50.0
100
AcDbLine
 10
5799.805435948516
 20
4377.225613616782
 30
0.0
 11
5799.805435948516
 21
2587.225613616782
 31
0.0
  0
LINE
  5
16EFE
330
747D
100
AcDbEntity
  8
細線
 48
50.0
100
AcDbLine
 10
5784.805435948516
 20
4377.225613616782
 30
0.0
 11
5784.805435948516
 21
2587.225613616782
 31
0.0
  0
LINE
  5
16EFF
330
747D
100
AcDbEntity
  8
細線
 48
50.0
100
AcDbLine
 10
5924.805435948516
 20
4377.225613616782
 30
0.0
 11
5924.805435948516
 21
2587.225613616782
 31
0.0
  0
LINE
  5
16F00
330
747D
100
AcDbEntity
  8
細線
 48
50.0
100
AcDbLine
 10
5939.805435948516
 20
4377.225613616782
 30
0.0
 11
5939.805435948516
 21
2587.225613616782
 31
0.0
  0
LINE
  5
16F01
330
747D
100
AcDbEntity
  8
細線
 48
50.0
100
AcDbLine
 10
6079.805435948515
 20
4377.225613616782
 30
0.0
 11
6079.805435948515
 21
2587.225613616782
 31
0.0
  0
LINE
  5
16F02
330
747D
100
AcDbEntity
  8
細線
 48
50.0
100
AcDbLine
 10
6064.805435948516
 20
4377.225613616782
 30
0.0
 11
6064.805435948516
 21
2587.225613616782
 31
0.0
  0
LINE
  5
16F03
330
747D
100
AcDbEntity
  8
部品1
100
AcDbLine
 10
5722.305435948513
 20
4377.225613616782
 30
0.0
 11
5722.305435948513
 21
2587.225613616782
 31
0.0
  0
DIMENSION
  5
16F04
330
747D
100
AcDbEntity
  8
寸法
 48
50.0
100
AcDbDimension
  2
*D25
 10
7117.305435948512
 20
5010.883067196085
 30
0.0
 11
7323.352680043003
 21
5010.883067196085
 31
0.0
 70
   160
 71
     5
 42
80.0
  3
INABA_S40G
100
AcDbAlignedDimension
 13
7037.305435948512
 23
4559.036293228433
 33
0.0
 14
7117.305435948512
 24
4557.225613616782
 34
0.0
100
AcDbRotatedDimension
1001
ACAD
1000
DSTYLE
1002
{
1070
   174
1070
     0
1070
   272
1070
     1
1070
   288
1070
     0
1070
   341
1005
0
1002
}
  0
LINE
  5
16F05
330
747D
100
AcDbEntity
  8
細線
 48
50.0
100
AcDbLine
 10
4959.805435948513
 20
4377.225613616782
 30
0.0
 11
4959.805435948513
 21
2587.225613616782
 31
0.0
  0
LINE
  5
16F06
330
747D
100
AcDbEntity
  8
細線
 48
50.0
100
AcDbLine
 10
4944.805435948513
 20
4377.225613616782
 30
0.0
 11
4944.805435948513
 21
2587.225613616782
 31
0.0
  0
LINE
  5
16F07
330
747D
100
AcDbEntity
  8
細線
 48
50.0
100
AcDbLine
 10
5084.805435948513
 20
4377.225613616782
 30
0.0
 11
5084.805435948513
 21
2587.225613616782
 31
0.0
  0
LINE
  5
16F08
330
747D
100
AcDbEntity
  8
細線
 48
50.0
100
AcDbLine
 10
5099.805435948512
 20
4377.225613616782
 30
0.0
 11
5099.805435948512
 21
2587.225613616782
 31
0.0
  0
LINE
  5
16F09
330
747D
100
AcDbEntity
  8
細線
 48
50.0
100
AcDbLine
 10
5239.805435948512
 20
4377.225613616782
 30
0.0
 11
5239.805435948512
 21
2587.225613616782
 31
0.0
  0
LINE
  5
16F0A
330
747D
100
AcDbEntity
  8
細線
 48
50.0
100
AcDbLine
 10
5224.805435948512
 20
4377.225613616782
 30
0.0
 11
5224.805435948512
 21
2587.225613616782
 31
0.0
  0
LINE
  5
16F0B
330
747D
100
AcDbEntity
  8
細線
 48
50.0
100
AcDbLine
 10
5644.805435948512
 20
4377.225613616782
 30
0.0
 11
5644.805435948512
 21
2587.225613616782
 31
0.0
  0
LINE
  5
16F0C
330
747D
100
AcDbEntity
  8
細線
 48
50.0
100
AcDbLine
 10
5659.805435948513
 20
4377.225613616782
 30
0.0
 11
5659.805435948513
 21
2587.225613616782
 31
0.0
  0
LINE
  5
16F0D
330
747D
100
AcDbEntity
  8
細線
 48
50.0
100
AcDbLine
 10
5519.805435948512
 20
4377.225613616782
 30
0.0
 11
5519.805435948512
 21
2587.225613616782
 31
0.0
  0
LINE
  5
16F0E
330
747D
100
AcDbEntity
  8
細線
 48
50.0
100
AcDbLine
 10
5504.805435948512
 20
4377.225613616782
 30
0.0
 11
5504.805435948512
 21
2587.225613616782
 31
0.0
  0
LINE
  5
16F0F
330
747D
100
AcDbEntity
  8
細線
 48
50.0
100
AcDbLine
 10
5364.805435948512
 20
4377.225613616782
 30
0.0
 11
5364.805435948512
 21
2587.225613616782
 31
0.0
  0
LINE
  5
16F10
330
747D
100
AcDbEntity
  8
細線
 48
50.0
100
AcDbLine
 10
5379.805435948512
 20
4377.225613616782
 30
0.0
 11
5379.805435948512
 21
2587.225613616782
 31
0.0
  0
LINE
  5
16F11
330
747D
100
AcDbEntity
  8
部品1
100
AcDbLine
 10
4827.305435948512
 20
2537.225613616782
 30
0.0
 11
4834.805435948513
 21
2537.225613616782
 31
0.0
  0
DIMENSION
  5
16F12
330
747D
100
AcDbEntity
  8
寸法
 48
50.0
100
AcDbDimension
  2
*D26
 10
4767.305435948512
 20
5230.084900870377
 30
0.0
 11
6001.649290040981
 21
5230.084900870377
 31
0.0
 70
   160
 71
     5
 42
2350.0
  3
INABA_S40G
100
AcDbAlignedDimension
 13
7117.305435948512
 23
4557.225613616782
 33
0.0
 14
4767.305435948512
 24
4612.225613616785
 34
0.0
100
AcDbRotatedDimension
1001
ACAD
1000
DSTYLE
1002
{
1070
   174
1070
     0
1070
   272
1070
     1
1070
   288
1070
     0
1070
   341
1005
0
1002
}
  0
DIMENSION
  5
16F13
330
747D
100
AcDbEntity
  8
寸法
 48
50.0
100
AcDbDimension
  2
*D27
 10
4767.305435948512
 20
5010.883067196085
 30
0.0
 11
4457.667640672922
 21
5010.883067196085
 31
0.0
 70
   160
 71
     5
 42
60.0
  3
INABA_S40G
100
AcDbAlignedDimension
 13
4827.305435948512
 23
4608.227231739758
 33
0.0
 14
4767.305435948512
 24
4612.225613616785
 34
0.0
100
AcDbRotatedDimension
1001
ACAD
1000
DSTYLE
1002
{
1070
   174
1070
     0
1070
   272
1070
     1
1070
   288
1070
     0
1070
   341
1005
0
1002
}
  0
DIMENSION
  5
16F14
330
747D
100
AcDbEntity
  8
寸法
 48
50.0
100
AcDbDimension
  2
*D28
 10
4827.305435948512
 20
5010.883067196085
 30
0.0
 11
5921.950173019026
 21
5010.883067196085
 31
0.0
 70
   160
  1
柱外寸法<>
 71
     5
 42
2210.0
  3
INABA_S40G
100
AcDbAlignedDimension
 13
7037.305435948512
 23
4559.036293228433
 33
0.0
 14
4827.305435948512
 24
4608.227231739758
 34
0.0
100
AcDbRotatedDimension
1001
ACAD
1000
DSTYLE
1002
{
1070
   174
1070
     0
1070
   272
1070
     1
1070
   288
1070
     0
1070
   341
1005
0
1002
}
  0
DIMENSION
  5
16F15
330
747D
100
AcDbEntity
  8
寸法
100
AcDbDimension
  2
*D29
 10
7597.412059890102
 20
4557.225613616782
 30
0.0
 11
7597.412059890101
 21
3559.278294863718
 31
0.0
 70
   160
 71
     5
 42
2020.000000000003
  3
INABA_S40G
100
AcDbAlignedDimension
 13
7114.305435948516
 23
2537.22561361678
 33
0.0
 14
7117.305435948512
 24
4557.225613616782
 34
0.0
 50
90.0
100
AcDbRotatedDimension
1001
ACAD
1000
DSTYLE
1002
{
1070
   174
1070
     0
1070
   272
1070
     1
1070
   288
1070
     0
1070
   341
1005
0
1002
}
  0
LINE
  5
16F16
330
747D
100
AcDbEntity
  8
部品1
100
AcDbLine
 10
6982.305435948515
 20
4377.225613616782
 30
0.0
 11
6982.305435948515
 21
2587.225613616782
 31
0.0
  0
LINE
  5
16F17
330
747D
100
AcDbEntity
  8
部品1
100
AcDbLine
 10
7037.305435948512
 20
4431.902051248002
 30
0.0
 11
7037.305435948517
 21
2437.225613616782
 31
0.0
  0
LINE
  5
16F18
330
747D
100
AcDbEntity
  8
部品1
100
AcDbLine
 10
5302.305435948512
 20
4377.225613616782
 30
0.0
 11
5302.305435948512
 21
2587.225613616782
 31
0.0
  0
LINE
  5
16F19
330
747D
100
AcDbEntity
  8
部品1
100
AcDbLine
 10
4827.305435948512
 20
4469.084133059028
 30
0.0
 11
4827.305435948512
 21
2437.225613616782
 31
0.0
  0
LINE
  5
16F1A
330
747D
100
AcDbEntity
  8
部品1
100
AcDbLine
 10
4882.305435948513
 20
4377.225613616782
 30
0.0
 11
4882.305435948513
 21
2587.225613616782
 31
0.0
  0
LINE
  5
16F1B
330
747D
100
AcDbEntity
  8
部品1
100
AcDbLine
 10
4827.305435948512
 20
2587.225613616782
 30
0.0
 11
7037.305435948517
 21
2587.225613616782
 31
0.0
  0
LINE
  5
16F1C
330
747D
100
AcDbEntity
  8
部品1
100
AcDbLine
 10
4827.305435948512
 20
4377.225613616782
 30
0.0
 11
7037.305435948514
 21
4377.225613616782
 31
0.0
  0
LINE
  5
16F1D
330
747D
100
AcDbEntity
  8
部品1
100
AcDbLine
 10
6562.305435948513
 20
4377.225613616782
 30
0.0
 11
6562.305435948513
 21
2587.225613616782
 31
0.0
  0
LINE
  5
16F1E
330
747D
100
AcDbEntity
  8
細線
 48
50.0
100
AcDbLine
 10
6484.805435948516
 20
4377.225613616782
 30
0.0
 11
6484.805435948516
 21
2587.225613616782
 31
0.0
  0
LINE
  5
16F1F
330
747D
100
AcDbEntity
  8
細線
 48
50.0
100
AcDbLine
 10
6499.805435948516
 20
4377.225613616782
 30
0.0
 11
6499.805435948516
 21
2587.225613616782
 31
0.0
  0
LINE
  5
16F20
330
747D
100
AcDbEntity
  8
細線
 48
50.0
100
AcDbLine
 10
6359.805435948516
 20
4377.225613616782
 30
0.0
 11
6359.805435948516
 21
2587.225613616782
 31
0.0
  0
LINE
  5
16F21
330
747D
100
AcDbEntity
  8
細線
 48
50.0
100
AcDbLine
 10
6344.805435948516
 20
4377.225613616782
 30
0.0
 11
6344.805435948516
 21
2587.225613616782
 31
0.0
  0
LINE
  5
16F22
330
747D
100
AcDbEntity
  8
細線
 48
50.0
100
AcDbLine
 10
6204.805435948515
 20
4377.225613616782
 30
0.0
 11
6204.805435948515
 21
2587.225613616782
 31
0.0
  0
LINE
  5
16F23
330
747D
100
AcDbEntity
  8
細線
 48
50.0
100
AcDbLine
 10
6219.805435948516
 20
4377.225613616782
 30
0.0
 11
6219.805435948516
 21
2587.225613616782
 31
0.0
  0
TEXT
  5
16F24
330
747D
100
AcDbEntity
  8
部品1
 48
50.0
100
AcDbText
 10
6248.20629383733
 20
4641.040800892041
 30
0.0
 40
120.0
  1
44
 50
90.0
  7
STYLE1
100
AcDbText
  0
TEXT
  5
16F25
330
747D
100
AcDbEntity
  8
部品1
 48
50.0
100
AcDbText
 10
5770.573271172239
 20
4778.542059110324
 30
0.0
 40
120.0
  1
1000
  7
STYLE1
100
AcDbText
  0
LINE
  5
16F26
330
747D
100
AcDbEntity
  8
部品1
 48
50.0
100
AcDbLine
 10
6082.305435948512
 20
4742.658036957891
 30
0.0
 11
6082.305435948512
 21
4726.458036957892
 31
0.0
  0
LINE
  5
16F27
330
747D
100
AcDbEntity
  8
部品1
 48
50.0
100
AcDbLine
 10
5782.305435948512
 20
4742.658036957891
 30
0.0
 11
6082.305435948512
 21
4742.658036957891
 31
0.0
  0
LINE
  5
16F28
330
747D
100
AcDbEntity
  8
部品1
100
AcDbLine
 10
4774.850422305475
 20
4610.943348951049
 30
0.0
 11
7109.917312809978
 21
4555.86641132592
 31
0.0
  0
LINE
  5
16F29
330
747D
100
AcDbEntity
  8
部品1
100
AcDbLine
 10
4782.648000550465
 20
4470.006638685747
 30
0.0
 11
7091.96913648836
 21
4430.978213451543
 31
0.0
  0
LINE
  5
16F2A
330
747D
100
AcDbEntity
  8
細線
 48
50.0
100
AcDbLine
 10
4800.305435948512
 20
4609.625289992186
 30
0.0
 11
4795.016334393006
 21
4469.539657364832
 31
0.0
  0
LINE
  5
16F2B
330
747D
100
AcDbEntity
  8
細線
 48
50.0
100
AcDbLine
 10
7084.305435948516
 20
4557.192592652078
 30
0.0
 11
7079.557753060517
 21
4431.446820161332
 31
0.0
  0
LINE
  5
16F2C
330
747D
100
AcDbEntity
  8
部品1
 48
50.0
100
AcDbLine
 10
4767.489721861618
 20
4603.819159781473
 30
0.0
 11
4767.869981639431
 21
4583.892195335062
 31
0.0
  0
LINE
  5
16F2D
330
747D
100
AcDbEntity
  8
部品1
 48
50.0
100
AcDbLine
 10
4770.938753745677
 20
4580.31691384159
 30
0.0
 11
4772.642655237041
 21
4491.026417134942
 31
0.0
  0
LINE
  5
16F2E
330
747D
100
AcDbEntity
  8
細線
 48
50.0
100
AcDbLine
 10
4768.344859049326
 20
4583.242695458142
 30
0.0
 11
7113.980843794498
 21
4527.618490817314
 31
0.0
  0
LINE
  5
16F2F
330
747D
100
AcDbEntity
  8
細線
 48
50.0
100
AcDbLine
 10
4773.105334286612
 20
4490.381183760279
 30
0.0
 11
7103.10899871725
 21
4450.571864785787
 31
0.0
  0
LINE
  5
16F30
330
747D
100
AcDbEntity
  8
部品1
 48
50.0
100
AcDbLine
 10
4775.711427343283
 20
4487.451135641469
 30
0.0
 11
4775.913379963714
 21
4476.868100248379
 31
0.0
  0
ARC
  5
16F31
330
747D
100
AcDbEntity
  8
部品1
 48
50.0
100
AcDbCircle
 10
4774.488447689958
 20
4603.952714188901
 30
0.0
 40
7.0
100
AcDbArc
 50
87.03587545293636
 51
181.0932240293156
  0
ARC
  5
16F32
330
747D
100
AcDbEntity
  8
部品1
 48
50.0
100
AcDbCircle
 10
4782.912105792054
 20
4477.001654655807
 30
0.0
 40
7.0
100
AcDbArc
 50
181.0932240293156
 51
267.8377559870533
  0
ARC
  5
16F33
330
747D
100
AcDbEntity
  8
部品1
100
AcDbCircle
 10
4772.711973416853
 20
4487.393898038288
 30
0.0
 40
3.0
100
AcDbArc
 50
1.093224029315636
 51
80.18775403158718
  0
ARC
  5
16F34
330
747D
100
AcDbEntity
  8
部品1
100
AcDbCircle
 10
4767.939299819246
 20
4580.259676238405
 30
0.0
 40
3.0
100
AcDbArc
 50
1.093224029315636
 51
80.18775403158718
  0
ARC
  5
16F35
330
747D
100
AcDbEntity
  8
部品1
100
AcDbCircle
 10
4768.569854222269
 20
4583.905550775804
 30
0.0
 40
0.7
100
AcDbArc
 50
181.0932240292114
 51
260.1877540315872
  0
ARC
  5
16F36
330
747D
100
AcDbEntity
  8
部品1
100
AcDbCircle
 10
4773.342527819879
 20
4491.039772575684
 30
0.0
 40
0.7
100
AcDbArc
 50
181.0932240293156
 51
260.1877540315872
  0
LINE
  5
16F37
330
747D
100
AcDbEntity
  8
部品1
 48
50.0
100
AcDbLine
 10
7116.519338759217
 20
4548.166765890999
 30
0.0
 11
7114.488717568247
 21
4528.221724633218
 31
0.0
  0
LINE
  5
16F38
330
747D
100
AcDbEntity
  8
部品1
 48
50.0
100
AcDbLine
 10
7111.136151083766
 20
4524.91109056031
 30
0.0
 11
7103.629371818929
 21
4451.178469815299
 31
0.0
  0
LINE
  5
16F39
330
747D
100
AcDbEntity
  8
部品1
 48
50.0
100
AcDbLine
 10
7100.276805334442
 20
4447.867835742385
 30
0.0
 11
7099.197242294701
 21
4437.264218748827
 31
0.0
  0
ARC
  5
16F3A
330
747D
100
AcDbEntity
  8
部品1
 48
50.0
100
AcDbCircle
 10
7109.555338194461
 20
4548.875776563774
 30
0.0
 40
7.0
100
AcDbArc
 50
354.1866997665532
 51
87.03587545293636
  0
ARC
  5
16F3B
330
747D
100
AcDbEntity
  8
部品1
 48
50.0
100
AcDbCircle
 10
7092.233241729946
 20
4437.973229421601
 30
0.0
 40
7.0
100
AcDbArc
 50
267.8377559870533
 51
354.1866997665532
  0
ARC
  5
16F3C
330
747D
100
AcDbEntity
  8
部品1
100
AcDbCircle
 10
7103.261377005051
 20
4447.563974025483
 30
0.0
 40
3.0
100
AcDbArc
 50
95.09216976420788
 51
174.1866997665532
  0
ARC
  5
16F3D
330
747D
100
AcDbEntity
  8
部品1
100
AcDbCircle
 10
7114.120722754376
 20
4524.607228843407
 30
0.0
 40
3.0
100
AcDbArc
 50
95.0921697643163
 51
174.1866997665532
  0
ARC
  5
16F3E
330
747D
100
AcDbEntity
  8
部品1
100
AcDbCircle
 10
7113.792317511773
 20
4528.292625700497
 30
0.0
 40
0.7
100
AcDbArc
 50
275.0921697642079
 51
354.1866997665532
  0
ARC
  5
16F3F
330
747D
100
AcDbEntity
  8
部品1
100
AcDbCircle
 10
7102.932971762455
 20
4451.249370882573
 30
0.0
 40
0.7
100
AcDbArc
 50
275.0921697642079
 51
354.1866997666569
  0
LINE
  5
16F40
330
747D
100
AcDbEntity
  8
部品1
100
AcDbLine
 10
5756.850422305475
 20
4743.976095916754
 30
0.0
 11
6082.305435948512
 21
4726.458036957892
 31
0.0
  0
LINE
  5
16F41
330
747D
100
AcDbEntity
  8
部品1
100
AcDbLine
 10
4874.805435948513
 20
2537.225613616782
 30
0.0
 11
6989.805435948513
 21
2537.225613616782
 31
0.0
  0
LINE
  5
16F42
330
747D
100
AcDbEntity
  8
部品1
100
AcDbLine
 10
7029.805435948512
 20
2537.225613616782
 30
0.0
 11
7037.305435948517
 21
2537.225613616782
 31
0.0
  0
LINE
  5
1728B
330
747D
100
AcDbEntity
  8
部品1
 48
50.0
100
AcDbLine
 10
11292.90246528576
 20
8667.871211422472
 30
0.0
 11
9195.902465285762
 21
8667.871211422561
 31
0.0
  0
LINE
  5
1728C
330
747D
100
AcDbEntity
  8
部品1
100
AcDbLine
 10
9167.402465285757
 20
8667.871211422346
 30
0.0
 11
9139.402465285757
 21
8667.871211422346
 31
0.0
  0
LINE
  5
1728D
330
747D
100
AcDbEntity
  8
部品1
100
AcDbLine
 10
11321.40246528578
 20
8667.871211422472
 30
0.0
 11
11349.40246528578
 21
8667.871211422472
 31
0.0
  0
LINE
  5
177F0
330
747D
100
AcDbEntity
  8
部品1
 48
50.0
100
AcDbLine
 10
10490.40246528576
 20
2537.225613616782
 30
0.0
 11
10490.40246528576
 21
2437.225613616782
 31
0.0
  0
LINE
  5
177F1
330
747D
100
AcDbEntity
  8
部品1
 48
50.0
100
AcDbLine
 10
10690.40246528576
 20
2537.225613616782
 30
0.0
 11
10690.40246528576
 21
2437.225613616782
 31
0.0
  0
LINE
  5
177F2
330
747D
100
AcDbEntity
  8
部品1
 48
50.0
100
AcDbLine
 10
9798.402465285763
 20
2537.225613616782
 30
0.0
 11
9798.402465285763
 21
2437.225613616782
 31
0.0
  0
LINE
  5
177F3
330
747D
100
AcDbEntity
  8
部品1
 48
50.0
100
AcDbLine
 10
9998.402465285764
 20
2537.225613616782
 30
0.0
 11
9998.402465285764
 21
2437.225613616782
 31
0.0
  0
LINE
  5
17D29
330
747D
100
AcDbEntity
  8
破線
 48
10.0
100
AcDbLine
 10
9923.90246528579
 20
7829.37121142233
 30
0.0
 11
9923.902465285799
 21
9502.871211422426
 31
0.0
  0
LINE
  5
17D2A
330
747D
100
AcDbEntity
  8
破線
 48
10.0
100
AcDbLine
 10
9873.902465285802
 20
7829.371211422326
 30
0.0
 11
9873.902465285794
 21
9502.871211422421
 31
0.0
  0
LINE
  5
17D2B
330
747D
100
AcDbEntity
  8
破線
 48
10.0
100
AcDbLine
 10
10564.9024652858
 20
7829.371211422359
 30
0.0
 11
10564.90246528579
 21
9502.871211422492
 31
0.0
  0
LINE
  5
17D2C
330
747D
100
AcDbEntity
  8
破線
 48
10.0
100
AcDbLine
 10
10614.90246528579
 20
7829.371211422359
 30
0.0
 11
10614.9024652858
 21
9502.871211422487
 31
0.0
  0
LINE
  5
17D2D
330
747D
100
AcDbEntity
  8
破線
 48
10.0
100
AcDbLine
 10
9873.902465285805
 20
7852.871211422327
 30
0.0
 11
9219.40246528575
 21
7852.871211422294
 31
0.0
  0
LINE
  5
17E29
330
747D
100
AcDbEntity
  8
寸法
 48
50.0
100
AcDbLine
 10
9629.605471567565
 20
7550.907962991139
 30
0.0
 11
9578.199463657462
 21
7550.907962991139
 31
0.0
  0
LINE
  5
17E2A
330
747D
100
AcDbEntity
  8
寸法
 48
50.0
100
AcDbLine
 10
9578.199463657462
 20
7550.907962991139
 30
0.0
 11
9578.199463657462
 21
7582.218121643305
 31
0.0
  0
LINE
  5
17E2B
330
747D
100
AcDbEntity
  8
寸法
 48
50.0
100
AcDbLine
 10
9578.199463657462
 20
7582.218121643305
 30
0.0
 11
9548.438131666038
 21
7582.218121643305
 31
0.0
  0
LINE
  5
17E2C
330
747D
100
AcDbEntity
  8
寸法
 48
50.0
100
AcDbLine
 10
9548.438131666038
 20
7582.218121643305
 30
0.0
 11
9603.902467612513
 21
7619.797572571916
 31
0.0
  0
LINE
  5
17E2D
330
747D
100
AcDbEntity
  8
寸法
 48
50.0
100
AcDbLine
 10
9659.366803558988
 20
7582.218121643305
 30
0.0
 11
9603.902467612513
 21
7619.797572571916
 31
0.0
  0
LINE
  5
17E2E
330
747D
100
AcDbEntity
  8
寸法
 48
50.0
100
AcDbLine
 10
9629.605471567565
 20
7582.218121643305
 30
0.0
 11
9659.366803558988
 21
7582.218121643305
 31
0.0
  0
LINE
  5
17E2F
330
747D
100
AcDbEntity
  8
寸法
 48
50.0
100
AcDbLine
 10
9629.605471567565
 20
7550.907962991139
 30
0.0
 11
9629.605471567565
 21
7582.218121643305
 31
0.0
  0
LINE
  5
17E30
330
747D
100
AcDbEntity
  8
寸法
 48
50.0
100
AcDbLine
 10
9578.199463657462
 20
7550.907962991139
 30
0.0
 11
9629.605471567565
 21
7550.907962991139
 31
0.0
  0
LINE
  5
17E31
330
747D
100
AcDbEntity
  8
寸法
 48
50.0
100
AcDbLine
 10
9908.771005844423
 20
7608.053553745962
 30
0.0
 11
9908.771005844423
 21
7554.389919164172
 31
0.0
  0
LINE
  5
17E32
330
747D
100
AcDbEntity
  8
寸法
 48
50.0
100
AcDbLine
 10
9998.055224439845
 20
7584.129919476476
 30
0.0
 11
9908.771005844423
 21
7608.053553745962
 31
0.0
  0
LINE
  5
17E33
330
747D
100
AcDbEntity
  8
寸法
 48
50.0
100
AcDbLine
 10
9778.903284264119
 20
7584.129919476476
 30
0.0
 11
9998.055224439845
 21
7584.129919476476
 31
0.0
  0
LINE
  5
17E34
330
747D
100
AcDbEntity
  8
細線
 48
50.0
100
AcDbLine
 10
10655.40246528572
 20
7749.371326371002
 30
0.0
 11
11282.40246528572
 21
7749.371326371002
 31
0.0
  0
LINE
  5
17E35
330
747D
100
AcDbEntity
  8
細線
 48
50.0
100
AcDbLine
 10
10001.40246993931
 20
7715.662557816926
 30
0.0
 11
11282.40246528572
 21
7715.662557816926
 31
0.0
  0
LINE
  5
17E36
330
747D
100
AcDbEntity
  8
細線
 48
50.0
100
AcDbLine
 10
9960.402469939314
 20
7745.067465813178
 30
0.0
 11
9206.402465285721
 21
7745.067465813176
 31
0.0
  0
LINE
  5
17E37
330
747D
100
AcDbEntity
  8
細線
100
AcDbLine
 10
11058.15245586926
 20
7768.87122633601
 30
0.0
 11
11060.48399539107
 21
7773.871228975972
 31
0.0
  0
LINE
  5
17E38
330
747D
100
AcDbEntity
  8
細線
100
AcDbLine
 10
11128.15246528572
 20
7768.871211422276
 30
0.0
 11
11125.82091880953
 21
7773.871228975957
 31
0.0
  0
LINE
  5
17E39
330
747D
100
AcDbEntity
  8
細線
100
AcDbLine
 10
11125.82091880953
 20
7773.871228975957
 30
0.0
 11
11060.48399539106
 21
7773.871228975941
 31
0.0
  0
LINE
  5
17E3A
330
747D
100
AcDbEntity
  8
細線
100
AcDbLine
 10
10985.82091880953
 20
7773.871228975957
 30
0.0
 11
10920.48399539106
 21
7773.871228975941
 31
0.0
  0
LINE
  5
17E3B
330
747D
100
AcDbEntity
  8
細線
100
AcDbLine
 10
10988.15246528572
 20
7768.871211422276
 30
0.0
 11
10985.82091880953
 21
7773.871228975957
 31
0.0
  0
LINE
  5
17E3C
330
747D
100
AcDbEntity
  8
細線
100
AcDbLine
 10
10918.15245586926
 20
7768.87122633601
 30
0.0
 11
10920.48399539107
 21
7773.871228975972
 31
0.0
  0
LINE
  5
17E3D
330
747D
100
AcDbEntity
  8
細線
100
AcDbLine
 10
10778.15246528572
 20
7768.871211422276
 30
0.0
 11
10780.48400480753
 21
7773.871214062238
 31
0.0
  0
LINE
  5
17E3E
330
747D
100
AcDbEntity
  8
細線
100
AcDbLine
 10
10848.15247470218
 20
7768.871196508541
 30
0.0
 11
10845.82092822599
 21
7773.871214062222
 31
0.0
  0
LINE
  5
17E3F
330
747D
100
AcDbEntity
  8
細線
100
AcDbLine
 10
10845.82092822599
 20
7773.871214062222
 30
0.0
 11
10780.48400480752
 21
7773.871214062208
 31
0.0
  0
LINE
  5
17E40
330
747D
100
AcDbEntity
  8
細線
100
AcDbLine
 10
10550.57094947483
 20
7739.871250759605
 30
0.0
 11
10485.23402605635
 21
7739.87125075959
 31
0.0
  0
LINE
  5
17E41
330
747D
100
AcDbEntity
  8
細線
100
AcDbLine
 10
10552.90249595101
 20
7734.871233205923
 30
0.0
 11
10550.57094947483
 21
7739.871250759605
 31
0.0
  0
LINE
  5
17E42
330
747D
100
AcDbEntity
  8
細線
100
AcDbLine
 10
10482.90248653455
 20
7734.871248119659
 30
0.0
 11
10485.23402605636
 21
7739.871250759619
 31
0.0
  0
LINE
  5
17E43
330
747D
100
AcDbEntity
  8
細線
 48
50.0
100
AcDbLine
 10
10324.28584453373
 20
7753.142074575356
 30
0.0
 11
10330.0413621164
 21
7734.871223284869
 31
0.0
  0
LINE
  5
17E44
330
747D
100
AcDbEntity
  8
細線
 48
50.0
100
AcDbLine
 10
10313.3573960533
 20
7753.142074575356
 30
0.0
 11
10324.28584453373
 21
7753.142074575356
 31
0.0
  0
ARC
  5
17E45
330
747D
100
AcDbEntity
  8
細線
 48
50.0
100
AcDbCircle
 10
10307.90303999598
 20
7754.642074575357
 30
0.0
 40
5.0
100
AcDbArc
 50
204.6243183521304
 51
335.3756816478695
  0
ARC
  5
17E46
330
747D
100
AcDbEntity
  8
細線
 48
50.0
100
AcDbCircle
 10
10313.3573960533
 20
7752.142074575357
 30
0.0
 40
1.0
100
AcDbArc
 50
90.0
 51
155.3756816478695
  0
ARC
  5
17E47
330
747D
100
AcDbEntity
  8
細線
 48
50.0
100
AcDbCircle
 10
10302.44868393867
 20
7752.142074575357
 30
0.0
 40
1.0
100
AcDbArc
 50
24.62431835213048
 51
90.0
  0
LINE
  5
17E48
330
747D
100
AcDbEntity
  8
細線
 48
50.0
100
AcDbLine
 10
10291.52023545823
 20
7753.142074575356
 30
0.0
 11
10302.44868393867
 21
7753.142074575356
 31
0.0
  0
LINE
  5
17E49
330
747D
100
AcDbEntity
  8
細線
 48
50.0
100
AcDbLine
 10
10285.76471787556
 20
7734.871223284862
 30
0.0
 11
10291.52023545823
 21
7753.142074575356
 31
0.0
  0
LINE
  5
17E4A
330
747D
100
AcDbEntity
  8
細線
100
AcDbLine
 10
10342.9024877656
 20
7734.871220650667
 30
0.0
 11
10345.23402728741
 21
7739.871223290627
 31
0.0
  0
LINE
  5
17E4B
330
747D
100
AcDbEntity
  8
細線
100
AcDbLine
 10
10412.90249718206
 20
7734.871205736933
 30
0.0
 11
10410.57095070587
 21
7739.871223290613
 31
0.0
  0
LINE
  5
17E4C
330
747D
100
AcDbEntity
  8
細線
100
AcDbLine
 10
10410.57095070587
 20
7739.871223290613
 30
0.0
 11
10345.23402728739
 21
7739.871223290599
 31
0.0
  0
LINE
  5
17E4D
330
747D
100
AcDbEntity
  8
細線
100
AcDbLine
 10
10270.57092234135
 20
7739.871223284834
 30
0.0
 11
10205.23399892288
 21
7739.871223284819
 31
0.0
  0
LINE
  5
17E4E
330
747D
100
AcDbEntity
  8
細線
100
AcDbLine
 10
10272.90246881754
 20
7734.871205731153
 30
0.0
 11
10270.57092234135
 21
7739.871223284834
 31
0.0
  0
LINE
  5
17E4F
330
747D
100
AcDbEntity
  8
細線
100
AcDbLine
 10
10202.90246063212
 20
7734.871223284862
 30
0.0
 11
10205.23399892289
 21
7739.871223284848
 31
0.0
  0
LINE
  5
17E50
330
747D
100
AcDbEntity
  8
細線
100
AcDbLine
 10
10062.90249595101
 20
7734.871231472232
 30
0.0
 11
10065.23403424178
 21
7739.871231472218
 31
0.0
  0
LINE
  5
17E51
330
747D
100
AcDbEntity
  8
細線
100
AcDbLine
 10
10132.90250413643
 20
7734.871213918522
 30
0.0
 11
10130.57095766024
 21
7739.8712314722
 31
0.0
  0
LINE
  5
17E52
330
747D
100
AcDbEntity
  8
細線
100
AcDbLine
 10
10130.57095766024
 20
7739.8712314722
 30
0.0
 11
10065.23403424177
 21
7739.871231472189
 31
0.0
  0
LINE
  5
17E53
330
747D
100
AcDbEntity
  8
細線
100
AcDbLine
 10
9691.402461753895
 20
7700.871403152945
 30
0.0
 11
9693.734000044663
 21
7705.87140315293
 31
0.0
  0
LINE
  5
17E54
330
747D
100
AcDbEntity
  8
細線
100
AcDbLine
 10
9761.40246993931
 20
7700.871385599232
 30
0.0
 11
9759.070923463124
 21
7705.871403152909
 31
0.0
  0
LINE
  5
17E55
330
747D
100
AcDbEntity
  8
細線
100
AcDbLine
 10
9759.070923463124
 20
7705.871403152909
 30
0.0
 11
9693.734000044651
 21
7705.871403152902
 31
0.0
  0
LINE
  5
17E56
330
747D
100
AcDbEntity
  8
細線
100
AcDbLine
 10
9899.070923463124
 20
7705.871403152909
 30
0.0
 11
9833.734000044652
 21
7705.871403152902
 31
0.0
  0
LINE
  5
17E57
330
747D
100
AcDbEntity
  8
細線
100
AcDbLine
 10
9901.402469939311
 20
7700.871385599232
 30
0.0
 11
9899.070923463124
 21
7705.871403152909
 31
0.0
  0
LINE
  5
17E58
330
747D
100
AcDbEntity
  8
細線
100
AcDbLine
 10
9831.402461753896
 20
7700.871403152945
 30
0.0
 11
9833.734000044662
 21
7705.87140315293
 31
0.0
  0
LINE
  5
17E59
330
747D
100
AcDbEntity
  8
細線
100
AcDbLine
 10
9619.070923463123
 20
7705.871403152909
 30
0.0
 11
9553.734000044652
 21
7705.871403152897
 31
0.0
  0
LINE
  5
17E5A
330
747D
100
AcDbEntity
  8
細線
100
AcDbLine
 10
9621.402469939312
 20
7700.871385599232
 30
0.0
 11
9619.070923463123
 21
7705.871403152909
 31
0.0
  0
LINE
  5
17E5B
330
747D
100
AcDbEntity
  8
細線
100
AcDbLine
 10
9551.402461753895
 20
7700.871403152942
 30
0.0
 11
9553.734000044661
 21
7705.871403152928
 31
0.0
  0
LINE
  5
17E5C
330
747D
100
AcDbEntity
  8
細線
100
AcDbLine
 10
9411.402469939309
 20
7700.871403152945
 30
0.0
 11
9413.734008230077
 21
7705.87140315293
 31
0.0
  0
LINE
  5
17E5D
330
747D
100
AcDbEntity
  8
細線
100
AcDbLine
 10
9481.402478124726
 20
7700.871385599232
 30
0.0
 11
9479.070931648539
 21
7705.871403152909
 31
0.0
  0
LINE
  5
17E5E
330
747D
100
AcDbEntity
  8
細線
100
AcDbLine
 10
9479.070931648539
 20
7705.871403152909
 30
0.0
 11
9413.734008230067
 21
7705.871403152902
 31
0.0
  0
ARC
  5
17E5F
330
747D
100
AcDbEntity
  8
部品1
 48
0.01
100
AcDbCircle
 10
9366.902358686976
 20
7699.870280967873
 30
0.0
 40
0.5
100
AcDbArc
 50
270.0
 51
0.0
  0
LINE
  5
17E60
330
747D
100
AcDbEntity
  8
部品1
 48
0.01
100
AcDbLine
 10
9367.402358686975
 20
7700.870280967873
 30
0.0
 11
9367.402358686975
 21
7699.870280967873
 31
0.0
  0
LINE
  5
17E61
330
747D
100
AcDbEntity
  8
部品1
 48
0.01
100
AcDbLine
 10
9367.402358686975
 20
7700.870280967873
 30
0.0
 11
9367.402358686975
 21
7699.870280967873
 31
0.0
  0
LINE
  5
17E62
330
747D
100
AcDbEntity
  8
部品1
 48
0.01
100
AcDbLine
 10
9366.902358686976
 20
7699.370280967873
 30
0.0
 11
9360.289853256912
 21
7699.370280967873
 31
0.0
  0
ARC
  5
17E63
330
747D
100
AcDbEntity
  8
部品1
100
AcDbCircle
 10
9360.358202809692
 20
7700.370280967873
 30
0.0
 40
1.0
100
AcDbArc
 50
160.5287793655778
 51
270.0
  0
ARC
  5
17E64
330
747D
100
AcDbEntity
  8
部品1
100
AcDbCircle
 10
9334.902358686974
 20
7709.370280967873
 30
0.0
 40
26.0
100
AcDbArc
 50
340.5287793655779
 51
0.0
  0
LINE
  5
17E65
330
747D
100
AcDbEntity
  8
部品1
100
AcDbLine
 10
9360.902358686976
 20
7709.370280967873
 30
0.0
 11
9360.902358686976
 21
7714.370280967873
 31
0.0
  0
ARC
  5
17E66
330
747D
100
AcDbEntity
  8
部品1
 48
0.01
100
AcDbCircle
 10
9358.902358686975
 20
7714.370280967873
 30
0.0
 40
2.0
100
AcDbArc
 50
0.0
 51
90.0
  0
ARC
  5
17E67
330
747D
100
AcDbEntity
  8
部品1
100
AcDbCircle
 10
9357.293967062165
 20
7713.370280967872
 30
0.0
 40
3.0
100
AcDbArc
 50
90.0
 51
141.6069559807873
  0
LINE
  5
17E68
330
747D
100
AcDbEntity
  8
部品1
 48
0.01
100
AcDbLine
 10
9358.902358686975
 20
7716.370280967872
 30
0.0
 11
9357.293967062165
 21
7716.370280967872
 31
0.0
  0
ARC
  5
17E69
330
747D
100
AcDbEntity
  8
部品1
100
AcDbCircle
 10
9338.831644472703
 20
7712.670280967876
 30
0.0
 40
3.0
100
AcDbArc
 50
254.0576313943215
 51
270.0
  0
ARC
  5
17E6A
330
747D
100
AcDbEntity
  8
部品1
100
AcDbCircle
 10
9345.973072901246
 20
7712.670280967876
 30
0.0
 40
3.0
100
AcDbArc
 50
270.0
 51
285.9423686056786
  0
LINE
  5
17E6B
330
747D
100
AcDbEntity
  8
部品1
100
AcDbLine
 10
9345.973072901246
 20
7709.670280967876
 30
0.0
 11
9338.831644472703
 21
7709.670280967876
 31
0.0
  0
ARC
  5
17E6C
330
747D
100
AcDbEntity
  8
部品1
100
AcDbCircle
 10
9342.402358686975
 20
7725.170280967876
 30
0.0
 40
16.0
100
AcDbArc
 50
285.9423686056786
 51
321.6069559807873
  0
LINE
  5
17E6D
330
747D
100
AcDbEntity
  8
部品1
 48
0.01
100
AcDbLine
 10
9325.902358686976
 20
7716.370280967872
 30
0.0
 11
9327.510750311786
 21
7716.370280967872
 31
0.0
  0
ARC
  5
17E6E
330
747D
100
AcDbEntity
  8
部品1
100
AcDbCircle
 10
9327.510750311786
 20
7713.370280967872
 30
0.0
 40
3.0
100
AcDbArc
 50
38.39304401921267
 51
90.0
  0
ARC
  5
17E6F
330
747D
100
AcDbEntity
  8
部品1
100
AcDbCircle
 10
9342.402358686975
 20
7725.170280967876
 30
0.0
 40
16.0
100
AcDbArc
 50
218.3930440192126
 51
254.0576313943215
  0
LINE
  5
17E70
330
747D
100
AcDbEntity
  8
部品1
100
AcDbLine
 10
9323.902358686975
 20
7709.370280967873
 30
0.0
 11
9323.902358686975
 21
7714.370280967873
 31
0.0
  0
ARC
  5
17E71
330
747D
100
AcDbEntity
  8
部品1
 48
0.01
100
AcDbCircle
 10
9325.902358686976
 20
7714.370280967873
 30
0.0
 40
2.0
100
AcDbArc
 50
90.0
 51
180.0
  0
ARC
  5
17E72
330
747D
100
AcDbEntity
  8
部品1
100
AcDbCircle
 10
9349.902358686975
 20
7709.370280967873
 30
0.0
 40
26.0
100
AcDbArc
 50
180.0
 51
199.4712206344221
  0
ARC
  5
17E73
330
747D
100
AcDbEntity
  8
部品1
 48
0.01
100
AcDbCircle
 10
9317.902358686977
 20
7699.870280967873
 30
0.0
 40
0.5
100
AcDbArc
 50
180.0
 51
270.0
  0
LINE
  5
17E74
330
747D
100
AcDbEntity
  8
部品1
 48
0.01
100
AcDbLine
 10
9317.902358686977
 20
7699.370280967873
 30
0.0
 11
9324.446514564259
 21
7699.370280967873
 31
0.0
  0
LINE
  5
17E75
330
747D
100
AcDbEntity
  8
部品1
 48
0.01
100
AcDbLine
 10
9317.402358686974
 20
7700.870280967873
 30
0.0
 11
9317.402358686974
 21
7699.870280967873
 31
0.0
  0
ARC
  5
17E76
330
747D
100
AcDbEntity
  8
部品1
100
AcDbCircle
 10
9324.446514564259
 20
7700.370280967873
 30
0.0
 40
1.0
100
AcDbArc
 50
270.0
 51
19.47122063442214
  0
LINE
  5
17E77
330
747D
100
AcDbEntity
  8
細線
100
AcDbLine
 10
9362.902358686982
 20
7718.870280967876
 30
0.0
 11
9321.902358686982
 21
7718.870280967869
 31
0.0
  0
LINE
  5
17E78
330
747D
100
AcDbEntity
  8
細線
100
AcDbLine
 10
9321.902358686982
 20
7718.870280967869
 30
0.0
 11
9321.902358686982
 21
7700.870280967851
 31
0.0
  0
LINE
  5
17E79
330
747D
100
AcDbEntity
  8
細線
100
AcDbLine
 10
9362.902358686982
 20
7718.870280967876
 30
0.0
 11
9362.902358686982
 21
7700.870280967851
 31
0.0
  0
LINE
  5
17E7A
330
747D
100
AcDbEntity
  8
細線
100
AcDbLine
 10
9206.402465285721
 20
7704.871211422276
 30
0.0
 11
9206.402465285721
 21
7700.871211422324
 31
0.0
  0
DIMENSION
  5
17E7B
330
747D
100
AcDbEntity
  8
寸法
 48
50.0
100
AcDbDimension
  2
*D30
 10
10472.40246528572
 20
7035.705582345975
 30
0.0
 11
9849.794905497068
 21
7035.705582345975
 31
0.0
 70
   160
  1
有効開口部間口\P<>
 71
     5
 42
1266.0
  3
INABA_S40
100
AcDbAlignedDimension
 13
9206.402465285721
 23
7695.871211422276
 33
0.0
 14
10472.40246528572
 24
7695.871211422276
 34
0.0
100
AcDbRotatedDimension
1001
ACAD
1000
DSTYLE
1002
{
1070
    41
1040
0.5
1070
    44
1040
1.0
1070
   147
1040
0.8
1070
   271
1070
     2
1070
   272
1070
     2
1070
   289
1070
     3
1070
   340
1005
F706
1070
   343
1005
16126
1070
   344
1005
16126
1002
}
  0
LINE
  5
17E7C
330
747D
100
AcDbEntity
  8
部品1
100
AcDbLine
 10
11294.40246528572
 20
7772.871211422276
 30
0.0
 11
11321.40246528572
 21
7772.871211422276
 31
0.0
  0
LINE
  5
17E7E
330
747D
100
AcDbEntity
  8
部品1
100
AcDbLine
 10
11321.40246528572
 20
7695.871211422276
 30
0.0
 11
11321.40246528572
 21
7772.871211422276
 31
0.0
  0
LINE
  5
17E7F
330
747D
100
AcDbEntity
  8
部品1
100
AcDbLine
 10
11282.40246528572
 20
7768.871211422276
 30
0.0
 11
11294.40246528572
 21
7768.871211422276
 31
0.0
  0
LINE
  5
17E80
330
747D
100
AcDbEntity
  8
部品1
100
AcDbLine
 10
11291.40246528572
 20
7704.871211422276
 30
0.0
 11
11291.40246528572
 21
7695.871211422276
 31
0.0
  0
LINE
  5
17E81
330
747D
100
AcDbEntity
  8
部品1
100
AcDbLine
 10
11282.40246528572
 20
7704.871211422276
 30
0.0
 11
11291.40246528572
 21
7704.871211422276
 31
0.0
  0
LINE
  5
17E82
330
747D
100
AcDbEntity
  8
部品1
100
AcDbLine
 10
11282.40246528572
 20
7768.871211422276
 30
0.0
 11
11282.40246528572
 21
7704.871211422276
 31
0.0
  0
LINE
  5
17E83
330
747D
100
AcDbEntity
  8
部品1
100
AcDbLine
 10
11294.40246528572
 20
7799.871211422277
 30
0.0
 11
11294.40246528572
 21
7768.871211422276
 31
0.0
  0
LINE
  5
17E84
330
747D
100
AcDbEntity
  8
部品1
100
AcDbLine
 10
9206.402465285721
 20
7768.871211422276
 30
0.0
 11
9194.402465285721
 21
7768.871211422276
 31
0.0
  0
LINE
  5
17E85
330
747D
100
AcDbEntity
  8
部品1
100
AcDbLine
 10
9167.402465285722
 20
7772.871211422276
 30
0.0
 11
9194.402465285721
 21
7772.871211422276
 31
0.0
  0
LINE
  5
17E86
330
747D
100
AcDbEntity
  8
部品1
100
AcDbLine
 10
9197.402465285721
 20
7704.871211422276
 30
0.0
 11
9197.402465285721
 21
7695.871211422276
 31
0.0
  0
LINE
  5
17E87
330
747D
100
AcDbEntity
  8
部品1
100
AcDbLine
 10
9206.402465285721
 20
7704.871211422276
 30
0.0
 11
9197.402465285721
 21
7704.871211422276
 31
0.0
  0
LINE
  5
17E88
330
747D
100
AcDbEntity
  8
部品1
100
AcDbLine
 10
9197.402465285721
 20
7695.871211422276
 30
0.0
 11
9167.402465285722
 21
7695.871211422276
 31
0.0
  0
LINE
  5
17E89
330
747D
100
AcDbEntity
  8
部品1
100
AcDbLine
 10
9167.402465285722
 20
7695.871211422276
 30
0.0
 11
9167.402465285722
 21
7772.871211422276
 31
0.0
  0
LINE
  5
17E8A
330
747D
100
AcDbEntity
  8
部品1
100
AcDbLine
 10
9206.402465285721
 20
7768.871211422276
 30
0.0
 11
9206.402465285721
 21
7704.871211422276
 31
0.0
  0
LINE
  5
17E8B
330
747D
100
AcDbEntity
  8
部品1
100
AcDbLine
 10
9194.402465285721
 20
7799.871211422273
 30
0.0
 11
9194.402465285721
 21
7768.871211422276
 31
0.0
  0
LINE
  5
17E8C
330
747D
100
AcDbEntity
  8
部品1
100
AcDbLine
 10
9194.402465285721
 20
7799.871211422273
 30
0.0
 11
11294.40246528572
 21
7799.871211422277
 31
0.0
  0
LINE
  5
17E8D
330
747D
100
AcDbEntity
  8
部品1
100
AcDbLine
 10
11291.40246528572
 20
7695.871211422276
 30
0.0
 11
11321.40246528572
 21
7695.871211422276
 31
0.0
  0
LINE
  5
17E8E
330
747D
100
AcDbEntity
  8
部品1
100
AcDbLine
 10
9197.402465285721
 20
7695.871211422276
 30
0.0
 11
11294.40246528572
 21
7695.871211422276
 31
0.0
  0
LINE
  5
17E8F
330
747D
100
AcDbEntity
  8
細線
  6
Continuous
 62
     5
100
AcDbLine
 10
10573.40246528572
 20
7734.871211422272
 30
0.0
 11
10573.40246528572
 21
7734.871211422272
 31
0.0
  0
LINE
  5
17E90
330
747D
100
AcDbEntity
  8
細線
  6
Continuous
 62
     5
100
AcDbLine
 10
10565.90250060461
 20
7734.87122134333
 30
0.0
 11
10565.90250060461
 21
7734.87122134333
 31
0.0
  0
LINE
  5
17E91
330
747D
100
AcDbEntity
  8
細線
  6
Continuous
 62
     5
100
AcDbLine
 10
10559.90250060461
 20
7734.87122134333
 30
0.0
 11
10559.90250060461
 21
7734.87122134333
 31
0.0
  0
LINE
  5
17E92
330
747D
100
AcDbEntity
  8
細線
  6
Continuous
 62
     5
100
AcDbLine
 10
10627.40246528572
 20
7753.871211422273
 30
0.0
 11
10627.40246528572
 21
7753.871211422273
 31
0.0
  0
LINE
  5
17E93
330
747D
100
AcDbEntity
  8
細線
 48
50.0
100
AcDbLine
 10
9220.402469939314
 20
7721.47138559923
 30
0.0
 11
9220.402469939314
 21
7729.86753600687
 31
0.0
  0
LINE
  5
17E94
330
747D
100
AcDbEntity
  8
細線
 48
50.0
100
AcDbLine
 10
9220.402469939314
 20
7729.86753600687
 30
0.0
 11
9206.402465285721
 21
7729.867536006867
 31
0.0
  0
LINE
  5
17E95
330
747D
100
AcDbEntity
  8
細線
 48
50.0
100
AcDbLine
 10
9971.402469939311
 20
7718.021385599229
 30
0.0
 11
9971.402469939311
 21
7722.871385599233
 31
0.0
  0
LINE
  5
17E96
330
747D
100
AcDbEntity
  8
細線
 48
50.0
100
AcDbLine
 10
9971.402469939311
 20
7722.871385599233
 30
0.0
 11
9986.40246993931
 21
7722.871385599233
 31
0.0
  0
LINE
  5
17E97
330
747D
100
AcDbEntity
  8
細線
 48
50.0
100
AcDbLine
 10
9986.40246993931
 20
7722.871385599233
 30
0.0
 11
9986.402469939314
 21
7729.871385599231
 31
0.0
  0
LINE
  5
17E98
330
747D
100
AcDbEntity
  8
細線
 48
50.0
100
AcDbLine
 10
9986.402469939314
 20
7729.871385599231
 30
0.0
 11
10001.40246993931
 21
7729.871385599231
 31
0.0
  0
LINE
  5
17E99
330
747D
100
AcDbEntity
  8
細線
 48
50.0
100
AcDbLine
 10
10001.40246993931
 20
7729.871385599231
 30
0.0
 11
10001.40246993931
 21
7700.871385599232
 31
0.0
  0
LINE
  5
17E9A
330
747D
100
AcDbEntity
  8
細線
 48
50.0
100
AcDbLine
 10
9197.402465285721
 20
7700.8687199427
 30
0.0
 11
9411.402469939309
 21
7700.871403152945
 31
0.0
  0
LINE
  5
17E9B
330
747D
100
AcDbEntity
  8
細線
 48
50.0
100
AcDbLine
 10
9901.402469939311
 20
7700.871385599232
 30
0.0
 11
10001.40246993931
 21
7700.871385599232
 31
0.0
  0
LINE
  5
17E9C
330
747D
100
AcDbEntity
  8
細線
 48
50.0
100
AcDbLine
 10
9621.402469939312
 20
7700.871385599232
 30
0.0
 11
9691.402469939312
 21
7700.871385599232
 31
0.0
  0
LINE
  5
17E9D
330
747D
100
AcDbEntity
  8
細線
 48
50.0
100
AcDbLine
 10
9634.264434951839
 20
7700.871385599232
 30
0.0
 11
9640.019952534508
 21
7719.142236889727
 31
0.0
  0
LINE
  5
17E9E
330
747D
100
AcDbEntity
  8
細線
 48
50.0
100
AcDbLine
 10
9640.019952534508
 20
7719.142236889727
 30
0.0
 11
9650.948401014941
 21
7719.142236889722
 31
0.0
  0
ARC
  5
17E9F
330
747D
100
AcDbEntity
  8
細線
 48
50.0
100
AcDbCircle
 10
9650.948401014941
 20
7718.142236889722
 30
0.0
 40
1.0
100
AcDbArc
 50
24.62431835213048
 51
90.0
  0
ARC
  5
17EA0
330
747D
100
AcDbEntity
  8
細線
 48
50.0
100
AcDbCircle
 10
9661.857113129574
 20
7718.142236889722
 30
0.0
 40
1.0
100
AcDbArc
 50
90.0
 51
155.3756816478695
  0
ARC
  5
17EA1
330
747D
100
AcDbEntity
  8
細線
 48
50.0
100
AcDbCircle
 10
9656.402757072257
 20
7720.642236889722
 30
0.0
 40
5.0
100
AcDbArc
 50
204.6243183521304
 51
335.3756816478695
  0
LINE
  5
17EA2
330
747D
100
AcDbEntity
  8
細線
 48
50.0
100
AcDbLine
 10
9661.857113129574
 20
7719.142236889722
 30
0.0
 11
9672.785561610009
 21
7719.142236889727
 31
0.0
  0
LINE
  5
17EA3
330
747D
100
AcDbEntity
  8
細線
 48
50.0
100
AcDbLine
 10
9672.785561610009
 20
7719.142236889727
 30
0.0
 11
9678.541079192676
 21
7700.871385599232
 31
0.0
  0
LINE
  5
17EA4
330
747D
100
AcDbEntity
  8
細線
 48
50.0
100
AcDbLine
 10
9971.402469939311
 20
7721.47138559923
 30
0.0
 11
9220.402469939314
 21
7721.47138559923
 31
0.0
  0
LINE
  5
17EA5
330
747D
100
AcDbEntity
  8
細線
 48
50.0
100
AcDbLine
 10
9831.402469939311
 20
7700.871385599232
 30
0.0
 11
9761.40246993931
 21
7700.871385599232
 31
0.0
  0
LINE
  5
17EA6
330
747D
100
AcDbEntity
  8
細線
100
AcDbLine
 10
9551.40246993931
 20
7700.871385599232
 30
0.0
 11
9481.402478124726
 21
7700.871385599232
 31
0.0
  0
LINE
  5
17EA7
330
747D
100
AcDbEntity
  8
細線
 48
50.0
100
AcDbLine
 10
10625.40246063213
 20
7755.471429457099
 30
0.0
 11
9990.402469939311
 21
7755.471429457095
 31
0.0
  0
LINE
  5
17EA8
330
747D
100
AcDbEntity
  8
細線
 48
50.0
100
AcDbLine
 10
9990.402469939311
 20
7752.367579864738
 30
0.0
 11
9990.402469939311
 21
7756.867579864739
 31
0.0
  0
LINE
  5
17EA9
330
747D
100
AcDbEntity
  8
細線
 48
50.0
100
AcDbLine
 10
9990.402469939311
 20
7756.867579864739
 30
0.0
 11
9975.402469939311
 21
7756.867579864739
 31
0.0
  0
LINE
  5
17EAA
330
747D
100
AcDbEntity
  8
細線
 48
50.0
100
AcDbLine
 10
9975.402469939311
 20
7756.867579864739
 30
0.0
 11
9975.402469939311
 21
7763.867579864738
 31
0.0
  0
LINE
  5
17EAB
330
747D
100
AcDbEntity
  8
細線
 48
50.0
100
AcDbLine
 10
9975.402469939311
 20
7763.867579864738
 30
0.0
 11
9960.402469939314
 21
7763.867579864734
 31
0.0
  0
LINE
  5
17EAC
330
747D
100
AcDbEntity
  8
細線
 48
50.0
100
AcDbLine
 10
9960.402469939314
 20
7763.867579864734
 30
0.0
 11
9960.402469939314
 21
7726.267351761624
 31
0.0
  0
LINE
  5
17EAD
330
747D
100
AcDbEntity
  8
細線
 48
50.0
100
AcDbLine
 10
9960.402469939314
 20
7726.267351761624
 30
0.0
 11
9980.402477240488
 21
7726.267393311165
 31
0.0
  0
LINE
  5
17EAE
330
747D
100
AcDbEntity
  8
細線
 48
50.0
100
AcDbLine
 10
9980.402432371544
 20
7734.870854946973
 30
0.0
 11
9980.402477240488
 21
7726.267393311165
 31
0.0
  0
LINE
  5
17EAF
330
747D
100
AcDbEntity
  8
細線
 48
50.0
100
AcDbLine
 10
10625.40246063213
 20
7752.021429457098
 30
0.0
 11
10625.40246063213
 21
7756.871429457096
 31
0.0
  0
LINE
  5
17EB0
330
747D
100
AcDbEntity
  8
細線
 48
50.0
100
AcDbLine
 10
10625.40246063213
 20
7756.871429457096
 30
0.0
 11
10640.40246063213
 21
7756.871429457096
 31
0.0
  0
LINE
  5
17EB1
330
747D
100
AcDbEntity
  8
細線
 48
50.0
100
AcDbLine
 10
10640.40246063213
 20
7756.871429457096
 30
0.0
 11
10640.40247226611
 21
7763.87142945714
 31
0.0
  0
LINE
  5
17EB2
330
747D
100
AcDbEntity
  8
細線
 48
50.0
100
AcDbLine
 10
10640.40247226611
 20
7763.87142945714
 30
0.0
 11
10655.40247043663
 21
7763.87142945714
 31
0.0
  0
LINE
  5
17EB3
330
747D
100
AcDbEntity
  8
細線
 48
50.0
100
AcDbLine
 10
10655.40247043663
 20
7763.87142945714
 30
0.0
 11
10655.40246013481
 21
7734.871223284867
 31
0.0
  0
LINE
  5
17EB4
330
747D
100
AcDbEntity
  8
細線
 48
50.0
100
AcDbLine
 10
10342.9024877656
 20
7734.871231472232
 30
0.0
 11
10272.90273984801
 21
7734.871226034894
 31
0.0
  0
LINE
  5
17EB5
330
747D
100
AcDbEntity
  8
細線
 48
50.0
100
AcDbLine
 10
9980.402432371544
 20
7734.870854946973
 30
0.0
 11
9991.635121726254
 21
7734.87103790012
 31
0.0
  0
ARC
  5
17EB6
330
747D
100
AcDbEntity
  8
細線
 48
50.0
100
AcDbCircle
 10
9998.217414033589
 20
7733.671201813733
 30
0.0
 40
1.8
100
AcDbArc
 50
270.0006665777295
 51
345.0005554812987
  0
LINE
  5
17EB7
330
747D
100
AcDbEntity
  8
細線
 48
50.0
100
AcDbLine
 10
10000.20384747967
 20
7734.130042271011
 30
0.0
 11
9999.956085037471
 21
7733.205344388905
 31
0.0
  0
LINE
  5
17EB8
330
747D
100
AcDbEntity
  8
細線
 48
50.0
100
AcDbLine
 10
9998.217434974746
 20
7731.871201813854
 30
0.0
 11
9994.587507555976
 21
7731.871159583374
 31
0.0
  0
ARC
  5
17EB9
330
747D
100
AcDbEntity
  8
細線
 48
50.0
100
AcDbCircle
 10
9994.587486614825
 20
7733.671159583252
 30
0.0
 40
1.8
100
AcDbArc
 50
195.0010443049394
 51
270.0006665777295
  0
LINE
  5
17EBA
330
747D
100
AcDbEntity
  8
細線
 48
50.0
100
AcDbLine
 10
9992.601059122566
 20
7734.129874550818
 30
0.0
 11
9992.848828619079
 21
7733.205253612236
 31
0.0
  0
ARC
  5
17EBB
330
747D
100
AcDbEntity
  8
細線
 48
50.0
100
AcDbCircle
 10
9991.635138013817
 20
7733.871037900255
 30
0.0
 40
1.0
100
AcDbArc
 50
15.00104430493943
 51
90.00093320877969
  0
LINE
  5
17EBC
330
747D
100
AcDbEntity
  8
細線
 48
50.0
100
AcDbLine
 10
10001.16976883477
 20
7734.871232590525
 30
0.0
 11
10002.11152898567
 21
7734.871239164374
 31
0.0
  0
ARC
  5
17EBD
330
747D
100
AcDbEntity
  8
細線
 48
50.0
100
AcDbCircle
 10
10001.16977581516
 20
7733.87123259055
 30
0.0
 40
1.0
100
AcDbArc
 50
90.0003999466794
 51
165.0005554812987
  0
LINE
  5
17EBE
330
747D
100
AcDbEntity
  8
細線
 48
50.0
100
AcDbLine
 10
10552.90246063212
 20
7734.871223284867
 30
0.0
 11
10655.40246013481
 21
7734.871223284867
 31
0.0
  0
LINE
  5
17EBF
330
747D
100
AcDbEntity
  8
細線
 48
50.0
100
AcDbLine
 10
10062.90249595101
 20
7734.871231472232
 30
0.0
 11
10001.80243472409
 21
7734.871239164374
 31
0.0
  0
LINE
  5
17EC0
330
747D
100
AcDbEntity
  8
細線
 48
50.0
100
AcDbLine
 10
10482.90249595101
 20
7734.871268313316
 30
0.0
 11
10412.90248899663
 21
7734.871223290648
 31
0.0
  0
LINE
  5
17EC1
330
747D
100
AcDbEntity
  8
細線
 48
50.0
100
AcDbLine
 10
10202.90246063212
 20
7734.871223284862
 30
0.0
 11
10132.90244334425
 21
7734.871223284869
 31
0.0
  0
ARC
  5
17EC2
330
747D
100
AcDbEntity
  8
細線
 48
50.0
100
AcDbCircle
 10
10639.60246528573
 20
7768.071211422277
 30
0.0
 40
0.8
100
AcDbArc
 50
359.9997333689499
 51
89.99986668437072
  0
ARC
  5
17EC3
330
747D
100
AcDbEntity
  8
細線
 48
50.0
100
AcDbCircle
 10
10647.20247211082
 20
7768.071222590894
 30
0.0
 40
0.8
100
AcDbArc
 50
90.00014387753465
 51
179.9997333689498
  0
LINE
  5
17EC4
330
747D
100
AcDbEntity
  8
細線
 48
50.0
100
AcDbLine
 10
10639.60246714716
 20
7768.871211422276
 30
0.0
 11
10634.40246528572
 21
7768.871211422276
 31
0.0
  0
ARC
  5
17EC5
330
747D
100
AcDbEntity
  8
細線
 48
50.0
100
AcDbCircle
 10
10641.10246528572
 20
7766.571211422277
 30
0.0
 40
0.7
100
AcDbArc
 50
180.0
 51
270.0
  0
ARC
  5
17EC6
330
747D
100
AcDbEntity
  8
細線
 48
50.0
100
AcDbCircle
 10
10645.70246528572
 20
7766.571211422277
 30
0.0
 40
0.7
100
AcDbArc
 50
270.0
 51
0.0
  0
LINE
  5
17EC7
330
747D
100
AcDbEntity
  8
細線
 48
50.0
100
AcDbLine
 10
10646.40246528572
 20
7766.571211422277
 30
0.0
 11
10646.40247211084
 21
7768.071226313765
 31
0.0
  0
LINE
  5
17EC8
330
747D
100
AcDbEntity
  8
細線
 48
50.0
100
AcDbLine
 10
10641.10246528572
 20
7765.871211422276
 30
0.0
 11
10645.70246528572
 21
7765.871211422276
 31
0.0
  0
LINE
  5
17EC9
330
747D
100
AcDbEntity
  8
細線
 48
50.0
100
AcDbLine
 10
10640.40246528572
 20
7768.071211422277
 30
0.0
 11
10640.40246528572
 21
7766.571211422277
 31
0.0
  0
LINE
  5
17ECA
330
747D
100
AcDbEntity
  8
細線
 48
50.0
100
AcDbLine
 10
11266.00246528572
 20
7798.871211422277
 30
0.0
 11
10629.40246528572
 21
7798.871211422272
 31
0.0
  0
LINE
  5
17ECB
330
747D
100
AcDbEntity
  8
細線
 48
50.0
100
AcDbLine
 10
11291.90246528572
 20
7793.871211422279
 30
0.0
 11
11276.00246528572
 21
7793.871211422277
 31
0.0
  0
LINE
  5
17ECC
330
747D
100
AcDbEntity
  8
細線
 48
50.0
100
AcDbLine
 10
11276.00246528572
 20
7793.871211422277
 30
0.0
 11
11266.00246528572
 21
7798.871211422277
 31
0.0
  0
LINE
  5
17ECD
330
747D
100
AcDbEntity
  8
細線
100
AcDbLine
 10
10876.90246528572
 20
7768.871211422276
 30
0.0
 11
10876.90246528572
 21
7798.171211422276
 31
0.0
  0
LINE
  5
17ECE
330
747D
100
AcDbEntity
  8
細線
100
AcDbLine
 10
10876.90246528572
 20
7798.171211422276
 30
0.0
 11
10896.90246528572
 21
7798.171211422276
 31
0.0
  0
LINE
  5
17ECF
330
747D
100
AcDbEntity
  8
細線
100
AcDbLine
 10
10896.90246528572
 20
7768.871211422276
 30
0.0
 11
10896.90246528572
 21
7798.171211422276
 31
0.0
  0
LINE
  5
17ED0
330
747D
100
AcDbEntity
  8
細線
100
AcDbLine
 10
11058.15246528572
 20
7768.871211422276
 30
0.0
 11
10988.15246528572
 21
7768.871211422276
 31
0.0
  0
LINE
  5
17ED1
330
747D
100
AcDbEntity
  8
細線
 48
50.0
100
AcDbLine
 10
10778.15246528572
 20
7768.871211422276
 30
0.0
 11
10647.19824485856
 21
7768.871211422276
 31
0.0
  0
LINE
  5
17ED2
330
747D
100
AcDbEntity
  8
細線
100
AcDbLine
 10
10918.15246528572
 20
7768.871211422276
 30
0.0
 11
10848.15246528572
 21
7768.871211422276
 31
0.0
  0
LINE
  5
17ED3
330
747D
100
AcDbEntity
  8
細線
 48
50.0
100
AcDbLine
 10
10634.40246528572
 20
7760.871211422276
 30
0.0
 11
10634.40246528572
 21
7768.871211422276
 31
0.0
  0
LINE
  5
17ED4
330
747D
100
AcDbEntity
  8
細線
 48
50.0
100
AcDbLine
 10
10614.40246528572
 20
7760.87121142228
 30
0.0
 11
10634.40246528572
 21
7760.871211422276
 31
0.0
  0
LINE
  5
17ED5
330
747D
100
AcDbEntity
  8
細線
 48
50.0
100
AcDbLine
 10
10629.40246528572
 20
7798.871211422277
 30
0.0
 11
10629.40246528572
 21
7793.871211422277
 31
0.0
  0
LINE
  5
17ED6
330
747D
100
AcDbEntity
  8
細線
 48
50.0
100
AcDbLine
 10
10614.40246528572
 20
7798.871211422272
 30
0.0
 11
10629.40246528572
 21
7798.871211422277
 31
0.0
  0
LINE
  5
17ED7
330
747D
100
AcDbEntity
  8
細線
 48
50.0
100
AcDbLine
 10
10614.40246528572
 20
7760.87121142228
 30
0.0
 11
10614.40246528572
 21
7798.871211422272
 31
0.0
  0
LINE
  5
17ED8
330
747D
100
AcDbEntity
  8
細線
100
AcDbLine
 10
11282.40246528572
 20
7768.871211422276
 30
0.0
 11
11128.15246528572
 21
7768.871211422276
 31
0.0
  0
LINE
  5
17ED9
330
747D
100
AcDbEntity
  8
細線
 48
50.0
100
AcDbLine
 10
11291.90246528572
 20
7793.871211422279
 30
0.0
 11
11291.90246528572
 21
7768.871211422276
 31
0.0
  0
DIMENSION
  5
1810C
330
747D
100
AcDbEntity
  8
寸法
 48
50.0
100
AcDbDimension
  2
*D31
 10
11321.40246528572
 20
6731.198015901914
 30
0.0
 11
10244.40246528572
 21
6831.209826925536
 31
0.0
 70
    32
 71
     5
 42
2154.0
  3
INABA_S40G
100
AcDbAlignedDimension
 13
9167.402465285722
 23
7695.871211422312
 33
0.0
 14
11321.40246528572
 24
7695.871211422312
 34
0.0
100
AcDbRotatedDimension
1001
ACAD
1000
DSTYLE
1002
{
1070
   341
1005
0
1002
}
  0
DIMENSION
  5
1810D
330
747D
100
AcDbEntity
  8
寸法
100
AcDbDimension
  2
*D32
 10
8844.791219659056
 20
7697.871211422366
 30
0.0
 11
8844.791219659054
 21
7557.385930048129
 31
0.0
 70
   160
 71
     5
 42
75.0
  3
INABA_S40
100
AcDbAlignedDimension
 13
9139.402465285773
 23
7772.871211422367
 33
0.0
 14
9167.40246528575
 24
7697.871211422366
 34
0.0
 50
90.0
100
AcDbRotatedDimension
1001
ACAD
1000
DSTYLE
1002
{
1070
    41
1040
0.5
1070
    44
1040
1.0
1070
   147
1040
0.8
1070
   271
1070
     2
1070
   272
1070
     2
1070
   289
1070
     3
1070
   340
1005
F706
1070
   343
1005
16126
1070
   344
1005
16126
1002
}
  0
LINE
  5
181C5
330
747D
100
AcDbEntity
  8
部品1
100
AcDbLine
 10
10626.13779839998
 20
6097.368992625566
 30
0.0
 11
9862.66713217155
 21
6097.368992625566
 31
0.0
  0
LINE
  5
181C6
330
747D
100
AcDbEntity
  8
部品1
100
AcDbLine
 10
10626.13779839998
 20
5857.476671080033
 30
0.0
 11
10626.13779839998
 21
6097.368992625566
 31
0.0
  0
LINE
  5
181C7
330
747D
100
AcDbEntity
  8
部品1
100
AcDbLine
 10
9862.66713217155
 20
5857.476671080033
 30
0.0
 11
10626.13779839998
 21
5857.476671080033
 31
0.0
  0
LINE
  5
181C8
330
747D
100
AcDbEntity
  8
部品1
100
AcDbLine
 10
9862.66713217155
 20
6097.368992625566
 30
0.0
 11
9862.66713217155
 21
5857.476671080033
 31
0.0
  0
TEXT
  5
181FA
330
747D
100
AcDbEntity
  8
部品1
100
AcDbText
 10
9952.586742000587
 20
5904.475463407042
 30
0.0
 40
135.0
  1
平面図
  7
STYLE2
100
AcDbText
  0
DIMENSION
  5
18206
330
747D
100
AcDbEntity
  8
寸法
100
AcDbDimension
  2
*D33
 10
11349.40246528575
 20
6468.844885895435
 30
0.0
 11
10242.98389649419
 21
6468.844885895435
 31
0.0
 70
   160
 71
     5
 42
2209.999999999982
  3
INABA_S40G
100
AcDbAlignedDimension
 13
9139.402465285773
 23
7772.871211422334
 33
0.0
 14
11349.40246528575
 24
7772.871211422461
 34
0.0
100
AcDbRotatedDimension
1001
ACAD
1000
DSTYLE
1002
{
1002
}
  0
LWPOLYLINE
  5
18440
330
747D
100
AcDbEntity
  8
部品1
 48
50.0
100
AcDbPolyline
 90
        4
 70
     1
 43
0.0
 10
9266.452465285771
 20
3433.475613616782
 10
9269.352465285772
 20
3433.475613616782
 10
9269.352465285772
 20
3442.975613616782
 10
9266.452465285771
 20
3442.975613616782
  0
CIRCLE
  5
18441
330
747D
100
AcDbEntity
  8
部品1
 48
50.0
100
AcDbCircle
 10
9267.902465285771
 20
3438.225613616782
 30
0.0
 40
9.0
  0
ARC
  5
18442
330
747D
100
AcDbEntity
  8
細線
 48
50.0
100
AcDbCircle
 10
9267.902465285771
 20
3438.225613616782
 30
0.0
 40
4.0
100
AcDbArc
 50
111.2538091853132
 51
248.7461908146868
  0
ARC
  5
18443
330
747D
100
AcDbEntity
  8
細線
 48
50.0
100
AcDbCircle
 10
9267.902465285771
 20
3438.225613616782
 30
0.0
 40
17.5
100
AcDbArc
 50
306.4837370612677
 51
233.5162629387323
  0
LINE
  5
18444
330
747D
100
AcDbEntity
  8
細線
 48
50.0
100
AcDbLine
 10
9277.902465285768
 20
3414.366653035898
 30
0.0
 11
9277.902465285771
 21
3423.351138836141
 31
0.0
  0
LINE
  5
18445
330
747D
100
AcDbEntity
  8
細線
 48
50.0
100
AcDbLine
 10
9257.902465285772
 20
3414.366653035901
 30
0.0
 11
9257.902465285772
 21
3423.351138836137
 31
0.0
  0
ARC
  5
18446
330
747D
100
AcDbEntity
  8
細線
 48
50.0
100
AcDbCircle
 10
9267.902465285771
 20
3438.225613616782
 30
0.0
 40
26.5
100
AcDbArc
 50
249.3326835063939
 51
290.6673164933835
  0
ARC
  5
18447
330
747D
100
AcDbEntity
  8
細線
 48
50.0
100
AcDbCircle
 10
9276.902465285763
 20
3414.366653035898
 30
0.0
 40
1.0
100
AcDbArc
 50
290.6673164936062
 51
359.9999999998958
  0
ARC
  5
18448
330
747D
100
AcDbEntity
  8
細線
 48
50.0
100
AcDbCircle
 10
9258.902465285771
 20
3414.366653035901
 30
0.0
 40
1.0
100
AcDbArc
 50
180.0
 51
249.3326835066164
  0
ARC
  5
18449
330
747D
100
AcDbEntity
  8
細線
 48
50.0
100
AcDbCircle
 10
9256.902465285772
 20
3423.351138836137
 30
0.0
 40
1.0
100
AcDbArc
 50
0.0
 51
53.51626293873231
  0
ARC
  5
1844A
330
747D
100
AcDbEntity
  8
細線
 48
50.0
100
AcDbCircle
 10
9278.902465285774
 20
3423.351138836141
 30
0.0
 40
1.0
100
AcDbArc
 50
126.4837370615127
 51
180.0
  0
ARC
  5
1844B
330
747D
100
AcDbEntity
  8
細線
 48
50.0
100
AcDbCircle
 10
9267.902465285771
 20
3438.225613616782
 30
0.0
 40
21.5
100
AcDbArc
 50
255.8014401250294
 51
284.1985598749706
  0
ARC
  5
1844C
330
747D
100
AcDbEntity
  8
細線
 48
50.0
100
AcDbCircle
 10
9267.902465285771
 20
3438.225613616782
 30
0.0
 40
16.5
100
AcDbArc
 50
251.9694646069326
 51
288.0305353930674
  0
LINE
  5
1844D
330
747D
100
AcDbEntity
  8
細線
 48
50.0
100
AcDbLine
 10
9273.402465285771
 20
3417.673241490975
 30
0.0
 11
9273.402465285771
 21
3422.250633178312
 31
0.0
  0
LINE
  5
1844E
330
747D
100
AcDbEntity
  8
細線
 48
50.0
100
AcDbLine
 10
9262.402465285772
 20
3417.673241490975
 30
0.0
 11
9262.402465285772
 21
3422.25063317831
 31
0.0
  0
ARC
  5
1844F
330
747D
100
AcDbEntity
  8
細線
 48
50.0
100
AcDbCircle
 10
9262.702465285775
 20
3422.25063317831
 30
0.0
 40
0.3
100
AcDbArc
 50
71.96946460693259
 51
180.0
  0
ARC
  5
18450
330
747D
100
AcDbEntity
  8
細線
 48
50.0
100
AcDbCircle
 10
9273.102465285772
 20
3422.250633178312
 30
0.0
 40
0.3
100
AcDbArc
 50
0.0
 51
108.0305353930674
  0
ARC
  5
18451
330
747D
100
AcDbEntity
  8
細線
 48
50.0
100
AcDbCircle
 10
9273.102465285768
 20
3417.673241490975
 30
0.0
 40
0.3
100
AcDbArc
 50
284.1985598747622
 51
0.0000000001042204
  0
ARC
  5
18452
330
747D
100
AcDbEntity
  8
細線
 48
50.0
100
AcDbCircle
 10
9262.702465285775
 20
3417.673241490975
 30
0.0
 40
0.3
100
AcDbArc
 50
180.0
 51
255.8014401248081
  0
CIRCLE
  5
18453
330
747D
100
AcDbEntity
  8
細線
 48
50.0
100
AcDbCircle
 10
9267.902465285771
 20
3438.225613616782
 30
0.0
 40
12.0
  0
ARC
  5
18454
330
747D
100
AcDbEntity
  8
部品1
 48
50.0
100
AcDbCircle
 10
9267.902465285771
 20
3488.225613616782
 30
0.0
 40
8.5
100
AcDbArc
 50
114.315739171091
 51
245.684260828909
  0
CIRCLE
  5
18455
330
747D
100
AcDbEntity
  8
細線
 48
50.0
100
AcDbCircle
 10
9267.902465285771
 20
3488.225613616782
 30
0.0
 40
4.5
  0
LWPOLYLINE
  5
18456
330
747D
100
AcDbEntity
  8
部品1
 48
50.0
100
AcDbPolyline
 90
        2
 70
     0
 43
0.0
 10
9264.402465285773
 20
3506.900463013764
 10
9264.402465285773
 20
3495.971580309197
  0
CIRCLE
  5
18457
330
747D
100
AcDbEntity
  8
部品1
 48
50.0
100
AcDbCircle
 10
9267.902465285771
 20
3488.225613616782
 30
0.0
 40
19.0
  0
LWPOLYLINE
  5
18458
330
747D
100
AcDbEntity
  8
部品1
 48
50.0
100
AcDbPolyline
 90
        2
 70
     0
 43
0.0
 10
9264.402465285773
 20
3480.479646924367
 10
9264.402465285773
 20
3469.550764219799
  0
LWPOLYLINE
  5
18459
330
747D
100
AcDbEntity
  8
部品1
 48
50.0
100
AcDbPolyline
 90
        2
 70
     0
 43
0.0
 10
9271.402465285772
 20
3495.971580309197
 10
9271.402465285772
 20
3506.900463013764
  0
ARC
  5
1845A
330
747D
100
AcDbEntity
  8
部品1
 48
50.0
100
AcDbCircle
 10
9267.902465285771
 20
3488.225613616782
 30
0.0
 40
8.5
100
AcDbArc
 50
294.315739171091
 51
65.68426082890896
  0
LWPOLYLINE
  5
1845B
330
747D
100
AcDbEntity
  8
部品1
 48
50.0
100
AcDbPolyline
 90
        2
 70
     0
 43
0.0
 10
9271.402465285772
 20
3469.550764219799
 10
9271.402465285772
 20
3480.479646924367
  0
ARC
  5
1845C
330
747D
100
AcDbEntity
  8
細線
 48
50.0
100
AcDbCircle
 10
9267.902465285771
 20
3488.225613616782
 30
0.0
 40
16.5
100
AcDbArc
 50
332.0012352654438
 51
27.99876473455621
  0
ARC
  5
1845D
330
747D
100
AcDbEntity
  8
細線
 48
50.0
100
AcDbCircle
 10
9267.902465285771
 20
3488.225613616782
 30
0.0
 40
14.0
100
AcDbArc
 50
326.4074436112986
 51
33.59255638870134
  0
LINE
  5
1845E
330
747D
100
AcDbEntity
  8
細線
 48
50.0
100
AcDbLine
 10
9253.33366300144
 20
3495.971580309197
 30
0.0
 11
9256.240561496083
 21
3495.971580309197
 31
0.0
  0
LINE
  5
1845F
330
747D
100
AcDbEntity
  8
細線
 48
50.0
100
AcDbLine
 10
9253.33366300144
 20
3480.479646924367
 30
0.0
 11
9256.240561496083
 21
3480.479646924367
 31
0.0
  0
LINE
  5
18460
330
747D
100
AcDbEntity
  8
細線
 48
50.0
100
AcDbLine
 10
9279.56436907546
 20
3495.971580309197
 30
0.0
 11
9282.471267570107
 21
3495.971580309197
 31
0.0
  0
LINE
  5
18461
330
747D
100
AcDbEntity
  8
細線
 48
50.0
100
AcDbLine
 10
9279.56436907546
 20
3480.479646924367
 30
0.0
 11
9282.471267570107
 21
3480.479646924367
 31
0.0
  0
ARC
  5
18462
330
747D
100
AcDbEntity
  8
細線
 48
50.0
100
AcDbCircle
 10
9267.902465285771
 20
3488.225613616782
 30
0.0
 40
14.0
100
AcDbArc
 50
146.4074436112986
 51
213.5925563887013
  0
ARC
  5
18463
330
747D
100
AcDbEntity
  8
細線
 48
50.0
100
AcDbCircle
 10
9267.902465285771
 20
3488.225613616782
 30
0.0
 40
16.5
100
AcDbArc
 50
152.0012352654438
 51
207.9987647345562
  0
ARC
  5
18464
330
747D
100
AcDbEntity
  8
部品1
 48
50.0
100
AcDbCircle
 10
9241.402465285771
 20
3513.725613616781
 30
0.0
 40
5.0
100
AcDbArc
 50
90.0
 51
180.0
  0
ARC
  5
18465
330
747D
100
AcDbEntity
  8
部品1
 48
50.0
100
AcDbCircle
 10
9241.402465285771
 20
3402.725613616782
 30
0.0
 40
5.0
100
AcDbArc
 50
180.0
 51
270.0
  0
ARC
  5
18466
330
747D
100
AcDbEntity
  8
部品1
 48
50.0
100
AcDbCircle
 10
9294.402465285772
 20
3402.725613616782
 30
0.0
 40
5.0
100
AcDbArc
 50
270.0
 51
0.0
  0
ARC
  5
18467
330
747D
100
AcDbEntity
  8
部品1
 48
50.0
100
AcDbCircle
 10
9294.402465285772
 20
3513.725613616781
 30
0.0
 40
5.0
100
AcDbArc
 50
0.0
 51
90.0
  0
LINE
  5
18469
330
747D
100
AcDbEntity
  8
部品1
 48
50.0
100
AcDbLine
 10
9236.402465285772
 20
3402.725613616782
 30
0.0
 11
9236.402465285772
 21
3513.725613616781
 31
0.0
  0
LINE
  5
1846A
330
747D
100
AcDbEntity
  8
部品1
 48
50.0
100
AcDbLine
 10
9294.402465285772
 20
3397.725613616782
 30
0.0
 11
9241.402465285771
 21
3397.725613616782
 31
0.0
  0
LINE
  5
1846B
330
747D
100
AcDbEntity
  8
部品1
 48
50.0
100
AcDbLine
 10
9299.402465285771
 20
3513.725613616781
 30
0.0
 11
9299.402465285771
 21
3402.725613616782
 31
0.0
  0
ENDSEC
  0
SECTION
  2
OBJECTS
  0
DICTIONARY
  5
7471
330
0
100
AcDbDictionary
281
     1
  3
ACAD_COLOR
350
1611A
  3
ACAD_GROUP
350
7472
  3
ACAD_LAYOUT
350
1611B
  3
ACAD_MATERIAL
350
16119
  3
ACAD_MLINESTYLE
350
7473
  3
ACAD_PLOTSETTINGS
350
1611C
  3
ACAD_PLOTSTYLENAME
350
16117
  3
ACDBHEADERROUNDTRIPXREC
350
1848A
  3
AcDbVariableDictionary
350
18486
  3
CONTENTDICTIONARY
350
E71C
  3
DRAWINGVARIABLESDICT
350
F3B9
  0
DICTIONARY
  5
162B5
330
7467
100
AcDbDictionary
280
     1
281
     1
  3
ACAD_LAYERSTATES
360
162B6
  0
DICTIONARY
  5
1611A
102
{ACAD_REACTORS
330
7471
102
}
330
7471
100
AcDbDictionary
281
     1
  0
DICTIONARY
  5
7472
102
{ACAD_REACTORS
330
7471
102
}
330
7471
100
AcDbDictionary
281
     1
  0
DICTIONARY
  5
1611B
102
{ACAD_REACTORS
330
7471
102
}
330
7471
100
AcDbDictionary
281
     1
  3
Model
350
1611D
  3
レイアウト1
350
1611E
  0
DICTIONARY
  5
16119
102
{ACAD_REACTORS
330
7471
102
}
330
7471
100
AcDbDictionary
281
     1
  0
DICTIONARY
  5
7473
102
{ACAD_REACTORS
330
7471
102
}
330
7471
100
AcDbDictionary
281
     1
  3
STANDARD
350
7480
  0
DICTIONARY
  5
1611C
102
{ACAD_REACTORS
330
7471
102
}
330
7471
100
AcDbDictionary
281
     1
  0
ACDBDICTIONARYWDFLT
  5
16117
102
{ACAD_REACTORS
330
7471
102
}
330
7471
100
AcDbDictionary
281
     1
  3
Normal
350
16118
100
AcDbDictionaryWithDefault
340
16118
  0
DICTIONARY
  5
1848A
102
{ACAD_REACTORS
330
7471
102
}
330
7471
100
AcDbDictionary
281
     1
  3
COLORDICT
350
1848C
  3
MATERIALDICT
350
1848B
  0
DICTIONARY
  5
18486
102
{ACAD_REACTORS
330
7471
102
}
330
7471
100
AcDbDictionary
281
     1
  3
DIMASSOC
350
18487
  3
PROJECTNAME
350
18488
  0
DICTIONARY
  5
E71C
102
{ACAD_REACTORS
330
7471
102
}
330
7471
100
AcDbDictionary
281
     1
  0
DICTIONARY
  5
F3B9
102
{ACAD_REACTORS
330
7471
102
}
330
7471
100
AcDbDictionary
281
     1
1001
DRAWINGVARIABLESXDATA
1000
POLARMODE
1000
1
  0
DICTIONARY
  5
162B6
102
{ACAD_REACTORS
330
162B5
102
}
330
162B5
100
AcDbDictionary
281
     1
  0
LAYOUT
  5
1611D
102
{ACAD_XDICTIONARY
360
1848D
102
}
102
{ACAD_REACTORS
330
1611B
102
}
330
1611B
100
AcDbPlotSettings
  1

  2
クセロPDF
  4
A3
  6

 40
3.174999952316284
 41
3.174999952316284
 42
3.17498779296875
 43
3.17498779296875
 44
419.9466552734374
 45
296.9259948730469
 46
0.0
 47
0.0
 48
3.619013395666115
 49
-4.192117100517862
140
820.022926294543
141
573.2392198881443
142
1.0
143
39.99735023620806
 70
 11952
 72
     1
 73
     0
 74
     2
  7
inaba.ctb
 75
     0
147
0.0250016562120842
148
25.79074261211281
149
125.8223078213959
100
AcDbLayout
  1
Model
 70
     1
 71
     0
 10
0.0
 20
0.0
 11
12.0
 21
9.0
 12
0.0
 22
0.0
 32
0.0
 14
0.0
 24
0.0
 34
0.0
 15
0.0
 25
0.0
 35
0.0
146
0.0
 13
0.0
 23
0.0
 33
0.0
 16
1.0
 26
0.0
 36
0.0
 17
0.0
 27
1.0
 37
0.0
 76
     0
330
747D
  0
LAYOUT
  5
1611E
102
{ACAD_XDICTIONARY
360
1848F
102
}
102
{ACAD_REACTORS
330
1611B
102
}
330
1611B
100
AcDbPlotSettings
  1

  2
Microsoft Office Document Image Writer
  4

  6

 40
0.0
 41
0.0
 42
0.0
 43
0.0
 44
0.0
 45
0.0
 46
0.0
 47
0.0
 48
0.0
 49
0.0
140
0.0
141
0.0
142
1.0
143
1.0
 70
   688
 72
     0
 73
     0
 74
     5
  7

 75
    16
147
1.0
148
0.0
149
0.0
100
AcDbLayout
  1
レイアウト1
 70
     0
 71
     1
 10
0.0
 20
0.0
 11
420.0
 21
297.0
 12
0.0
 22
0.0
 32
0.0
 14
1.000000000000000E+20
 24
1.000000000000000E+20
 34
1.000000000000000E+20
 15
-1.000000000000000E+20
 25
-1.000000000000000E+20
 35
-1.000000000000000E+20
146
0.0
 13
0.0
 23
0.0
 33
0.0
 16
1.0
 26
0.0
 36
0.0
 17
0.0
 27
1.0
 37
0.0
 76
     0
330
747A
  0
MLINESTYLE
  5
7480
102
{ACAD_REACTORS
330
7473
102
}
330
7473
100
AcDbMlineStyle
  2
STANDARD
 70
     0
  3

 62
     0
 51
90.0
 52
90.0
 71
     2
 49
0.5
 62
   256
  6
BYLAYER
 49
-0.5
 62
   256
  6
BYLAYER
  0
ACDBPLACEHOLDER
  5
16118
102
{ACAD_REACTORS
330
16117
102
}
330
16117
  0
XRECORD
  5
1848C
102
{ACAD_REACTORS
330
1848A
102
}
330
1848A
100
AcDbXrecord
280
     1
340
1611A
  0
XRECORD
  5
1848B
102
{ACAD_REACTORS
330
1848A
102
}
330
1848A
100
AcDbXrecord
280
     1
340
16119
  0
DICTIONARYVAR
  5
18487
102
{ACAD_REACTORS
330
18486
102
}
330
18486
100
DictionaryVariables
280
     0
  1
1
  0
DICTIONARYVAR
  5
18488
102
{ACAD_REACTORS
330
18486
102
}
330
18486
100
DictionaryVariables
280
     0
  1

  0
DICTIONARY
  5
1848D
330
1611D
100
AcDbDictionary
280
     1
281
     1
  3
ACAD_XREC_ROUNDTRIP
360
1848E
  0
DICTIONARY
  5
1848F
330
1611E
100
AcDbDictionary
280
     1
281
     1
  3
ACAD_XREC_ROUNDTRIP
360
18490
  0
XRECORD
  5
1848E
102
{ACAD_REACTORS
330
1848D
102
}
330
1848D
100
AcDbXrecord
280
     1
102
SHADEPLOT
 70
     0
102
SHADEPLOTRESLEVEL
 70
     2
102
SHADEPLOTCUSTOMDPI
 70
   150
  0
XRECORD
  5
18490
102
{ACAD_REACTORS
330
1848F
102
}
330
1848F
100
AcDbXrecord
280
     1
102
SHADEPLOT
 70
     0
102
SHADEPLOTRESLEVEL
 70
     2
102
SHADEPLOTCUSTOMDPI
 70
   300
  0
ENDSEC
  0
EOF
