  0
SECTION
  2
HEADER
  9
$ACADVER
  1
AC1015
  9
$ACADMAINTVER
 70
    20
  9
$DWGCODEPAGE
  3
ANSI_932
  9
$INSBASE
 10
0.0
 20
0.0
 30
0.0
  9
$EXTMIN
 10
139.9999999999995
 20
-0.0000000000000909
 30
0.0
  9
$EXTMAX
 10
16307.2
 20
11409.6
 30
0.0
  9
$LIMMIN
 10
0.0
 20
0.0
  9
$LIMMAX
 10
16800.0
 20
11880.0
  9
$ORTHOMODE
 70
     0
  9
$REGENMODE
 70
     1
  9
$FILLMODE
 70
     1
  9
$QTEXTMODE
 70
     0
  9
$MIRRTEXT
 70
     1
  9
$LTSCALE
 40
20.0
  9
$ATTMODE
 70
     1
  9
$TEXTSIZE
 40
100.0
  9
$TRACEWID
 40
1.0
  9
$TEXTSTYLE
  7
STYLE2
  9
$CLAYER
  8
部品1
  9
$CELTYPE
  6
BYLAYER
  9
$CECOLOR
 62
   256
  9
$CELTSCALE
 40
50.0
  9
$DISPSILH
 70
     0
  9
$DIMSCALE
 40
40.0
  9
$DIMASZ
 40
2.5
  9
$DIMEXO
 40
0.5
  9
$DIMDLI
 40
7.0
  9
$DIMRND
 40
0.0
  9
$DIMDLE
 40
0.0
  9
$DIMEXE
 40
1.5
  9
$DIMTP
 40
0.0
  9
$DIMTM
 40
0.0
  9
$DIMTXT
 40
3.0
  9
$DIMCEN
 40
0.0
  9
$DIMTSZ
 40
0.0
  9
$DIMTOL
 70
     0
  9
$DIMLIM
 70
     0
  9
$DIMTIH
 70
     0
  9
$DIMTOH
 70
     0
  9
$DIMSE1
 70
     0
  9
$DIMSE2
 70
     0
  9
$DIMTAD
 70
     3
  9
$DIMZIN
 70
     8
  9
$DIMBLK
  1

  9
$DIMASO
 70
     1
  9
$DIMSHO
 70
     1
  9
$DIMPOST
  1

  9
$DIMAPOST
  1

  9
$DIMALT
 70
     0
  9
$DIMALTD
 70
     2
  9
$DIMALTF
 40
0.0394
  9
$DIMLFAC
 40
1.0
  9
$DIMTOFL
 70
     1
  9
$DIMTVP
 40
0.0
  9
$DIMTIX
 70
     0
  9
$DIMSOXD
 70
     0
  9
$DIMSAH
 70
     1
  9
$DIMBLK1
  1
DOTSMALL
  9
$DIMBLK2
  1
DOTSMALL
  9
$DIMSTYLE
  2
INABA_S40G
  9
$DIMCLRD
 70
     0
  9
$DIMCLRE
 70
     0
  9
$DIMCLRT
 70
     7
  9
$DIMTFAC
 40
1.0
  9
$DIMGAP
 40
1.0
  9
$DIMJUST
 70
     0
  9
$DIMSD1
 70
     0
  9
$DIMSD2
 70
     0
  9
$DIMTOLJ
 70
     1
  9
$DIMTZIN
 70
     0
  9
$DIMALTZ
 70
     0
  9
$DIMALTTZ
 70
     0
  9
$DIMUPT
 70
     0
  9
$DIMDEC
 70
     1
  9
$DIMTDEC
 70
     1
  9
$DIMALTU
 70
     2
  9
$DIMALTTD
 70
     2
  9
$DIMTXSTY
  7
STYLE1
  9
$DIMAUNIT
 70
     0
  9
$DIMADEC
 70
     0
  9
$DIMALTRND
 40
0.0
  9
$DIMAZIN
 70
     0
  9
$DIMDSEP
 70
    46
  9
$DIMATFIT
 70
     3
  9
$DIMFRAC
 70
     0
  9
$DIMLDRBLK
  1

  9
$DIMLUNIT
 70
     2
  9
$DIMLWD
 70
    -2
  9
$DIMLWE
 70
    -2
  9
$DIMTMOVE
 70
     0
  9
$LUNITS
 70
     2
  9
$LUPREC
 70
     1
  9
$SKETCHINC
 40
1.0
  9
$FILLETRAD
 40
7.0
  9
$AUNITS
 70
     0
  9
$AUPREC
 70
     0
  9
$MENU
  1
acad
  9
$ELEVATION
 40
0.0
  9
$PELEVATION
 40
0.0
  9
$THICKNESS
 40
0.0
  9
$LIMCHECK
 70
     0
  9
$CHAMFERA
 40
3.0
  9
$CHAMFERB
 40
3.0
  9
$CHAMFERC
 40
0.0
  9
$CHAMFERD
 40
0.0
  9
$SKPOLY
 70
     0
  9
$TDCREATE
 40
2451368.612993866
  9
$TDUCREATE
 40
2451368.237993866
  9
$TDUPDATE
 40
2455575.698036921
  9
$TDUUPDATE
 40
2455575.323036921
  9
$TDINDWG
 40
1.3338495023
  9
$TDUSRTIMER
 40
1.3338495023
  9
$USRTIMER
 70
     1
  9
$ANGBASE
 50
0.0
  9
$ANGDIR
 70
     0
  9
$PDMODE
 70
     3
  9
$PDSIZE
 40
2.0
  9
$PLINEWID
 40
0.0
  9
$SPLFRAME
 70
     0
  9
$SPLINETYPE
 70
     6
  9
$SPLINESEGS
 70
     8
  9
$HANDSEED
  5
23621
  9
$SURFTAB1
 70
     6
  9
$SURFTAB2
 70
     6
  9
$SURFTYPE
 70
     6
  9
$SURFU
 70
     6
  9
$SURFV
 70
     6
  9
$UCSBASE
  2

  9
$UCSNAME
  2

  9
$UCSORG
 10
0.0
 20
0.0
 30
0.0
  9
$UCSXDIR
 10
1.0
 20
0.0
 30
0.0
  9
$UCSYDIR
 10
0.0
 20
1.0
 30
0.0
  9
$UCSORTHOREF
  2

  9
$UCSORTHOVIEW
 70
     0
  9
$UCSORGTOP
 10
0.0
 20
0.0
 30
0.0
  9
$UCSORGBOTTOM
 10
0.0
 20
0.0
 30
0.0
  9
$UCSORGLEFT
 10
0.0
 20
0.0
 30
0.0
  9
$UCSORGRIGHT
 10
0.0
 20
0.0
 30
0.0
  9
$UCSORGFRONT
 10
0.0
 20
0.0
 30
0.0
  9
$UCSORGBACK
 10
0.0
 20
0.0
 30
0.0
  9
$PUCSBASE
  2

  9
$PUCSNAME
  2

  9
$PUCSORG
 10
0.0
 20
0.0
 30
0.0
  9
$PUCSXDIR
 10
1.0
 20
0.0
 30
0.0
  9
$PUCSYDIR
 10
0.0
 20
1.0
 30
0.0
  9
$PUCSORTHOREF
  2

  9
$PUCSORTHOVIEW
 70
     0
  9
$PUCSORGTOP
 10
0.0
 20
0.0
 30
0.0
  9
$PUCSORGBOTTOM
 10
0.0
 20
0.0
 30
0.0
  9
$PUCSORGLEFT
 10
0.0
 20
0.0
 30
0.0
  9
$PUCSORGRIGHT
 10
0.0
 20
0.0
 30
0.0
  9
$PUCSORGFRONT
 10
0.0
 20
0.0
 30
0.0
  9
$PUCSORGBACK
 10
0.0
 20
0.0
 30
0.0
  9
$USERI1
 70
     0
  9
$USERI2
 70
     0
  9
$USERI3
 70
     0
  9
$USERI4
 70
     0
  9
$USERI5
 70
     0
  9
$USERR1
 40
0.0
  9
$USERR2
 40
0.0
  9
$USERR3
 40
0.0
  9
$USERR4
 40
0.0
  9
$USERR5
 40
0.0
  9
$WORLDVIEW
 70
     1
  9
$SHADEDGE
 70
     3
  9
$SHADEDIF
 70
    70
  9
$TILEMODE
 70
     1
  9
$MAXACTVP
 70
    16
  9
$PINSBASE
 10
0.0
 20
0.0
 30
0.0
  9
$PLIMCHECK
 70
     0
  9
$PEXTMIN
 10
1.000000000000000E+20
 20
1.000000000000000E+20
 30
1.000000000000000E+20
  9
$PEXTMAX
 10
-1.000000000000000E+20
 20
-1.000000000000000E+20
 30
-1.000000000000000E+20
  9
$PLIMMIN
 10
0.0
 20
0.0
  9
$PLIMMAX
 10
420.0
 20
297.0
  9
$UNITMODE
 70
     0
  9
$VISRETAIN
 70
     0
  9
$PLINEGEN
 70
     0
  9
$PSLTSCALE
 70
     0
  9
$TREEDEPTH
 70
  3020
  9
$CMLSTYLE
  2
STANDARD
  9
$CMLJUST
 70
     0
  9
$CMLSCALE
 40
1.0
  9
$PROXYGRAPHICS
 70
     1
  9
$MEASUREMENT
 70
     1
  9
$CELWEIGHT
370
    -1
  9
$ENDCAPS
280
     0
  9
$JOINSTYLE
280
     0
  9
$LWDISPLAY
290
     0
  9
$INSUNITS
 70
     0
  9
$HYPERLINKBASE
  1

  9
$STYLESHEET
  1
inaba.ctb
  9
$XEDIT
290
     1
  9
$CEPSNTYPE
380
     0
  9
$PSTYLEMODE
290
     1
  9
$FINGERPRINTGUID
  2
{3B57B35E-7D77-4BBF-81B7-6C583B9EB24C}
  9
$VERSIONGUID
  2
{34898F61-6AFF-4062-9246-CD4F3127021D}
  9
$EXTNAMES
290
     1
  9
$PSVPSCALE
 40
0.0
  9
$OLESTARTUP
290
     0
  0
ENDSEC
  0
SECTION
  2
CLASSES
  0
CLASS
  1
ACDBDICTIONARYWDFLT
  2
AcDbDictionaryWithDefault
  3
ObjectDBX Classes
 90
        0
280
     0
281
     0
  0
CLASS
  1
DICTIONARYVAR
  2
AcDbDictionaryVar
  3
ObjectDBX Classes
 90
        0
280
     0
281
     0
  0
CLASS
  1
ACDBPLACEHOLDER
  2
AcDbPlaceHolder
  3
ObjectDBX Classes
 90
        0
280
     0
281
     0
  0
CLASS
  1
LAYOUT
  2
AcDbLayout
  3
ObjectDBX Classes
 90
        0
280
     0
281
     0
  0
ENDSEC
  0
SECTION
  2
TABLES
  0
TABLE
  2
VPORT
  5
746D
330
0
100
AcDbSymbolTable
 70
     2
  0
VPORT
  5
23619
330
746D
100
AcDbSymbolTableRecord
100
AcDbViewportTableRecord
  2
*Active
 70
     0
 10
0.0
 20
0.0
 11
1.0
 21
1.0
 12
8223.7610252385
 22
6348.630780428494
 13
0.0
 23
0.0
 14
10.0
 24
10.0
 15
10.0
 25
10.0
 16
0.0
 26
0.0
 36
1.0
 17
0.0
 27
0.0
 37
0.0
 40
12805.77446479856
 41
1.525925925925925
 42
50.0
 43
0.0
 44
0.0
 50
0.0
 51
0.0
 71
     0
 72
     0
 73
     1
 74
     0
 75
     0
 76
     0
 77
     0
 78
     0
281
     0
 65
     1
110
0.0
120
0.0
130
0.0
111
1.0
121
0.0
131
0.0
112
0.0
122
1.0
132
0.0
 79
     0
146
0.0
  0
ENDTAB
  0
TABLE
  2
LTYPE
  5
746A
330
0
100
AcDbSymbolTable
 70
     3
  0
LTYPE
  5
7477
330
746A
100
AcDbSymbolTableRecord
100
AcDbLinetypeTableRecord
  2
BYBLOCK
 70
     0
  3

 72
    65
 73
     0
 40
0.0
  0
LTYPE
  5
7478
330
746A
100
AcDbSymbolTableRecord
100
AcDbLinetypeTableRecord
  2
BYLAYER
 70
     0
  3

 72
    65
 73
     0
 40
0.0
  0
LTYPE
  5
7479
330
746A
100
AcDbSymbolTableRecord
100
AcDbLinetypeTableRecord
  2
CONTINUOUS
 70
     0
  3
Solid line
 72
    65
 73
     0
 40
0.0
  0
LTYPE
  5
781A
330
746A
100
AcDbSymbolTableRecord
100
AcDbLinetypeTableRecord
  2
HIDDEN
 70
     0
  3
__ __ __ __ __ __ __ __ __ __ __ __ __ __ __ __
 72
    65
 73
     2
 40
0.375
 49
0.25
 74
     0
 49
-0.125
 74
     0
  0
LTYPE
  5
781B
330
746A
100
AcDbSymbolTableRecord
100
AcDbLinetypeTableRecord
  2
PHANTOM
 70
     0
  3
______  __  __  ______  __  __  ______  __  __ 
 72
    65
 73
     6
 40
2.5
 49
1.25
 74
     0
 49
-0.25
 74
     0
 49
0.25
 74
     0
 49
-0.25
 74
     0
 49
0.25
 74
     0
 49
-0.25
 74
     0
  0
ENDTAB
  0
TABLE
  2
LAYER
  5
7467
102
{ACAD_XDICTIONARY
360
21E20
102
}
330
0
100
AcDbSymbolTable
 70
    10
  0
LAYER
  5
7474
330
7467
100
AcDbSymbolTableRecord
100
AcDbLayerTableRecord
  2
0
 70
     0
 62
     7
  6
CONTINUOUS
370
    -3
390
159AE
  0
LAYER
  5
DEB3
330
7467
100
AcDbSymbolTableRecord
100
AcDbLayerTableRecord
  2
寸法
 70
     0
 62
     4
  6
CONTINUOUS
370
    -3
390
159AE
  0
LAYER
  5
DEB4
330
7467
100
AcDbSymbolTableRecord
100
AcDbLayerTableRecord
  2
部品1
 70
     0
 62
     7
  6
CONTINUOUS
370
    -3
390
159AE
  0
LAYER
  5
DEB5
330
7467
100
AcDbSymbolTableRecord
100
AcDbLayerTableRecord
  2
補助
 70
     0
 62
    -1
  6
CONTINUOUS
370
    -3
390
159AE
  0
LAYER
  5
DEB6
330
7467
100
AcDbSymbolTableRecord
100
AcDbLayerTableRecord
  2
文字
 70
     0
 62
     7
  6
CONTINUOUS
370
    -3
390
159AE
  0
LAYER
  5
F255
330
7467
100
AcDbSymbolTableRecord
100
AcDbLayerTableRecord
  2
DEFPOINTS
 70
     0
 62
     7
  6
CONTINUOUS
290
     0
370
    -3
390
159AE
  0
LAYER
  5
10B54
330
7467
100
AcDbSymbolTableRecord
100
AcDbLayerTableRecord
  2
仕様書枠
 70
     0
 62
   230
  6
CONTINUOUS
370
    -3
390
159AE
  0
LAYER
  5
11729
330
7467
100
AcDbSymbolTableRecord
100
AcDbLayerTableRecord
  2
Ｇ．Ｌ
 70
     0
 62
    30
  6
CONTINUOUS
370
    -3
390
159AE
  0
LAYER
  5
1173F
330
7467
100
AcDbSymbolTableRecord
100
AcDbLayerTableRecord
  2
細線
 70
     0
 62
     5
  6
CONTINUOUS
370
    -3
390
159AE
  0
LAYER
  5
142E2
330
7467
100
AcDbSymbolTableRecord
100
AcDbLayerTableRecord
  2
破線
 70
     0
 62
     2
  6
HIDDEN
370
    -3
390
159AE
  0
ENDTAB
  0
TABLE
  2
STYLE
  5
7468
330
0
100
AcDbSymbolTable
 70
     4
  0
STYLE
  5
7475
330
7468
100
AcDbSymbolTableRecord
100
AcDbTextStyleTableRecord
  2
STANDARD
 70
     0
 40
0.0
 41
1.0
 50
0.0
 71
     0
 42
4.0
  3
txt
  4
C:\AutoCAD LT\bigfont.shx
  0
STYLE
  5
F706
330
7468
100
AcDbSymbolTableRecord
100
AcDbTextStyleTableRecord
  2
STYLE1
 70
     0
 40
0.0
 41
1.0
 50
0.0
 71
     0
 42
100.0
  3
isocp.shx
  4
bigfont.shx
  0
STYLE
  5
103BF
330
7468
100
AcDbSymbolTableRecord
100
AcDbTextStyleTableRecord
  2
STYLE2
 70
     0
 40
0.0
 41
1.0
 50
0.0
 71
     0
 42
100.0
  3
MS PGothic.ttf
  4

1001
ACAD
1000
MS PGothic
1071
    32818
  0
STYLE
  5
235B0
330
7468
100
AcDbSymbolTableRecord
100
AcDbTextStyleTableRecord
  2
STYLE3
 70
     0
 40
0.0
 41
1.0
 50
0.0
 71
     0
 42
100.0
  3

  4

1001
ACAD
1000
DFPGothic-EB
1071
    32818
  0
ENDTAB
  0
TABLE
  2
VIEW
  5
746B
330
0
100
AcDbSymbolTable
 70
     0
  0
ENDTAB
  0
TABLE
  2
UCS
  5
746C
330
0
100
AcDbSymbolTable
 70
     0
  0
ENDTAB
  0
TABLE
  2
APPID
  5
746E
330
0
100
AcDbSymbolTable
 70
     6
  0
APPID
  5
7476
330
746E
100
AcDbSymbolTableRecord
100
AcDbRegAppTableRecord
  2
ACAD
 70
     0
  0
APPID
  5
DEA9
330
746E
100
AcDbSymbolTableRecord
100
AcDbRegAppTableRecord
  2
CONTENTBLOCKICON
 70
     0
  0
APPID
  5
DEAA
330
746E
100
AcDbSymbolTableRecord
100
AcDbRegAppTableRecord
  2
CONTENTBLOCKDESCRIPTION
 70
     0
  0
APPID
  5
E71D
330
746E
100
AcDbSymbolTableRecord
100
AcDbRegAppTableRecord
  2
CONTENTTABDATA
 70
     0
  0
APPID
  5
E71E
330
746E
100
AcDbSymbolTableRecord
100
AcDbRegAppTableRecord
  2
CONTENTCURRENTTAB
 70
     0
  0
APPID
  5
F3BA
330
746E
100
AcDbSymbolTableRecord
100
AcDbRegAppTableRecord
  2
DRAWINGVARIABLESXDATA
 70
     0
  0
ENDTAB
  0
TABLE
  2
DIMSTYLE
  5
746F
330
0
100
AcDbSymbolTable
 70
     2
100
AcDbDimStyleTable
 71
     1
340
F71F
  0
DIMSTYLE
105
F71F
102
{ACAD_REACTORS
330
141C3
330
14206
330
146E8
330
14D62
330
13BF0
330
14521
330
14526
330
1452E
330
1452F
330
14530
330
14531
330
14532
330
14533
330
1453F
330
14587
330
14589
330
224A1
330
22A08
330
22A09
330
22A0A
330
22A0B
330
22A0C
330
22A10
330
22A13
330
22A14
330
22A15
330
22A3E
330
22A4D
330
22A4E
330
22A52
102
}
330
746F
100
AcDbSymbolTableRecord
100
AcDbDimStyleTableRecord
  2
INABA_S40G
 70
     0
 40
40.0
 41
2.5
 42
0.5
 43
7.0
 44
1.5
 73
     0
 74
     0
 77
     3
 78
     8
140
3.0
141
0.0
143
0.0394
147
1.0
172
     1
173
     1
174
     1
178
     7
271
     1
288
     1
340
F706
341
F770
343
F770
344
F770
  0
DIMSTYLE
105
235B1
330
746F
100
AcDbSymbolTableRecord
100
AcDbDimStyleTableRecord
  2
INABA_S20G
 70
     0
 40
20.0
 41
2.5
 42
0.5
 43
7.0
 44
1.5
 73
     0
 74
     0
 77
     3
 78
     8
140
3.0
141
0.0
143
0.0394
147
1.0
172
     1
173
     1
174
     1
178
     7
271
     1
340
F706
341
F770
343
F770
344
F770
  0
ENDTAB
  0
TABLE
  2
BLOCK_RECORD
  5
7466
330
0
100
AcDbSymbolTable
 70
    31
  0
BLOCK_RECORD
  5
747D
330
7466
100
AcDbSymbolTableRecord
100
AcDbBlockTableRecord
  2
*MODEL_SPACE
340
159B3
  0
BLOCK_RECORD
  5
747A
330
7466
100
AcDbSymbolTableRecord
100
AcDbBlockTableRecord
  2
*PAPER_SPACE
340
159B4
  0
BLOCK_RECORD
  5
F770
330
7466
100
AcDbSymbolTableRecord
100
AcDbBlockTableRecord
  2
_DOTSMALL
340
0
102
{BLKREFS
331
1F3FB
331
1F3FC
331
1F421
331
1F422
331
1F43C
331
1F43D
331
21075
331
21076
331
2107E
331
2107F
331
21092
331
21093
331
224D1
331
224D2
331
2288A
331
2288B
331
22B7A
331
22B7B
331
22B83
331
22B84
331
22B8D
331
22B8E
331
22B97
331
22B98
331
22BA0
331
22BA1
331
22BAB
331
22BAC
331
22BB4
331
22BB5
331
22BBD
331
22BBE
331
22BC8
331
22BC9
331
22BD2
331
22BD3
331
22BDB
331
22BDC
331
22BE4
331
22BE5
331
22BED
331
22BEE
331
2350F
331
23510
331
23518
331
23519
331
23523
331
23524
331
2352C
331
2352D
331
23535
331
23536
331
23540
331
23541
331
2354B
331
2354C
331
23572
331
23573
331
23596
331
23597
102
}
  0
BLOCK_RECORD
  5
13DA8
330
7466
100
AcDbSymbolTableRecord
100
AcDbBlockTableRecord
  2
*D1
340
0
  0
BLOCK_RECORD
  5
141B5
330
7466
100
AcDbSymbolTableRecord
100
AcDbBlockTableRecord
  2
*D2
340
0
  0
BLOCK_RECORD
  5
141F9
330
7466
100
AcDbSymbolTableRecord
100
AcDbBlockTableRecord
  2
*D3
340
0
  0
BLOCK_RECORD
  5
1458A
330
7466
100
AcDbSymbolTableRecord
100
AcDbBlockTableRecord
  2
*D4
340
0
  0
BLOCK_RECORD
  5
14598
330
7466
100
AcDbSymbolTableRecord
100
AcDbBlockTableRecord
  2
*D5
340
0
  0
BLOCK_RECORD
  5
145A4
330
7466
100
AcDbSymbolTableRecord
100
AcDbBlockTableRecord
  2
*D6
340
0
  0
BLOCK_RECORD
  5
145B2
330
7466
100
AcDbSymbolTableRecord
100
AcDbBlockTableRecord
  2
*D7
340
0
  0
BLOCK_RECORD
  5
145BE
330
7466
100
AcDbSymbolTableRecord
100
AcDbBlockTableRecord
  2
*D8
340
0
  0
BLOCK_RECORD
  5
145CC
330
7466
100
AcDbSymbolTableRecord
100
AcDbBlockTableRecord
  2
*D9
340
0
  0
BLOCK_RECORD
  5
145D8
330
7466
100
AcDbSymbolTableRecord
100
AcDbBlockTableRecord
  2
*D10
340
0
  0
BLOCK_RECORD
  5
145E4
330
7466
100
AcDbSymbolTableRecord
100
AcDbBlockTableRecord
  2
*D11
340
0
  0
BLOCK_RECORD
  5
145FC
330
7466
100
AcDbSymbolTableRecord
100
AcDbBlockTableRecord
  2
*D12
340
0
  0
BLOCK_RECORD
  5
14608
330
7466
100
AcDbSymbolTableRecord
100
AcDbBlockTableRecord
  2
*D13
340
0
  0
BLOCK_RECORD
  5
14616
330
7466
100
AcDbSymbolTableRecord
100
AcDbBlockTableRecord
  2
*D14
340
0
  0
BLOCK_RECORD
  5
146DC
330
7466
100
AcDbSymbolTableRecord
100
AcDbBlockTableRecord
  2
*D15
340
0
  0
BLOCK_RECORD
  5
14D63
330
7466
100
AcDbSymbolTableRecord
100
AcDbBlockTableRecord
  2
*D16
340
0
  0
BLOCK_RECORD
  5
224B9
330
7466
100
AcDbSymbolTableRecord
100
AcDbBlockTableRecord
  2
*D17
340
0
  0
BLOCK_RECORD
  5
22A57
330
7466
100
AcDbSymbolTableRecord
100
AcDbBlockTableRecord
  2
*D18
340
0
  0
BLOCK_RECORD
  5
22A63
330
7466
100
AcDbSymbolTableRecord
100
AcDbBlockTableRecord
  2
*D19
340
0
  0
BLOCK_RECORD
  5
22A6F
330
7466
100
AcDbSymbolTableRecord
100
AcDbBlockTableRecord
  2
*D20
340
0
  0
BLOCK_RECORD
  5
22A7B
330
7466
100
AcDbSymbolTableRecord
100
AcDbBlockTableRecord
  2
*D21
340
0
  0
BLOCK_RECORD
  5
22A88
330
7466
100
AcDbSymbolTableRecord
100
AcDbBlockTableRecord
  2
*D22
340
0
  0
BLOCK_RECORD
  5
22A96
330
7466
100
AcDbSymbolTableRecord
100
AcDbBlockTableRecord
  2
*D23
340
0
  0
BLOCK_RECORD
  5
22AA2
330
7466
100
AcDbSymbolTableRecord
100
AcDbBlockTableRecord
  2
*D24
340
0
  0
BLOCK_RECORD
  5
22AAE
330
7466
100
AcDbSymbolTableRecord
100
AcDbBlockTableRecord
  2
*D25
340
0
  0
BLOCK_RECORD
  5
22ABC
330
7466
100
AcDbSymbolTableRecord
100
AcDbBlockTableRecord
  2
*D26
340
0
  0
BLOCK_RECORD
  5
22AC8
330
7466
100
AcDbSymbolTableRecord
100
AcDbBlockTableRecord
  2
*D27
340
0
  0
BLOCK_RECORD
  5
22AD5
330
7466
100
AcDbSymbolTableRecord
100
AcDbBlockTableRecord
  2
*D28
340
0
  0
BLOCK_RECORD
  5
22AE2
330
7466
100
AcDbSymbolTableRecord
100
AcDbBlockTableRecord
  2
*D29
340
0
  0
BLOCK_RECORD
  5
22AEE
330
7466
100
AcDbSymbolTableRecord
100
AcDbBlockTableRecord
  2
*D30
340
0
  0
ENDTAB
  0
ENDSEC
  0
SECTION
  2
BLOCKS
  0
BLOCK
  5
7489
330
747D
100
AcDbEntity
  8
0
100
AcDbBlockBegin
  2
*MODEL_SPACE
 70
     0
 10
0.0
 20
0.0
 30
0.0
  3
*MODEL_SPACE
  1

  0
ENDBLK
  5
748A
330
747D
100
AcDbEntity
  8
0
100
AcDbBlockEnd
  0
BLOCK
  5
7487
330
747A
100
AcDbEntity
 67
     1
  8
0
100
AcDbBlockBegin
  2
*PAPER_SPACE
 70
     0
 10
0.0
 20
0.0
 30
0.0
  3
*PAPER_SPACE
  1

  0
ENDBLK
  5
7488
330
747A
100
AcDbEntity
 67
     1
  8
0
100
AcDbBlockEnd
  0
BLOCK
  5
F771
330
F770
100
AcDbEntity
  8
0
 48
50.0
100
AcDbBlockBegin
  2
_DOTSMALL
 70
     0
 10
0.0
 20
0.0
 30
0.0
  3
_DOTSMALL
  1

  0
LWPOLYLINE
  5
F772
330
F770
100
AcDbEntity
  8
0
  6
ByBlock
 62
     0
 48
50.0
100
AcDbPolyline
 90
        2
 70
     1
 43
0.5
 10
-0.0625
 20
0.0
 42
1.0
 10
0.0625
 20
0.0
 42
1.0
  0
ENDBLK
  5
F776
330
F770
100
AcDbEntity
  8
0
 48
50.0
100
AcDbBlockEnd
  0
BLOCK
  5
14A98
330
13DA8
100
AcDbEntity
  8
0
 48
50.0
100
AcDbBlockBegin
  2
*D1
 70
     1
 10
0.0
 20
0.0
 30
0.0
  3
*D1
  1

  0
LINE
  5
1F41E
330
13DA8
100
AcDbEntity
  8
寸法
 62
     0
 48
50.0
370
    -2
100
AcDbLine
 10
5209.896575106991
 20
5195.000000000005
 30
0.0
 11
5209.896575106991
 21
5655.370389148895
 31
0.0
  0
LINE
  5
1F41F
330
13DA8
100
AcDbEntity
  8
寸法
 62
     0
 48
50.0
370
    -2
100
AcDbLine
 10
7519.896575107009
 20
5195.000000000003
 30
0.0
 11
7519.896575107009
 21
5655.370389148895
 31
0.0
  0
LINE
  5
1F420
330
13DA8
100
AcDbEntity
  8
寸法
 62
     0
 48
50.0
370
    -2
100
AcDbLine
 10
5209.896575106991
 20
5595.370389148895
 30
0.0
 11
7519.896575107009
 21
5595.370389148895
 31
0.0
  0
INSERT
  5
1F421
330
13DA8
100
AcDbEntity
  8
寸法
 62
     0
 48
50.0
370
    -2
100
AcDbBlockReference
  2
_DOTSMALL
 10
5209.896575106991
 20
5595.370389148895
 30
0.0
 41
100.0
 42
100.0
 43
100.0
 50
180.0
  0
INSERT
  5
1F422
330
13DA8
100
AcDbEntity
  8
寸法
 62
     0
 48
50.0
370
    -2
100
AcDbBlockReference
  2
_DOTSMALL
 10
7519.896575107009
 20
5595.370389148895
 30
0.0
 41
100.0
 42
100.0
 43
100.0
  0
MTEXT
  5
1F423
330
13DA8
100
AcDbEntity
  8
寸法
 62
     7
 48
50.0
100
AcDbMText
 10
6358.975848044829
 20
5695.382200172517
 30
0.0
 40
120.0
 41
0.0
 71
     5
 72
     1
  1
\A1;2310
  7
STYLE1
 73
     1
 44
1.0
1001
ACAD
1000
MTEXTBEGIN
1070
    73
1070
     1
1070
    44
1040
1.0
1070
    74
1070
     0
1000
MTEXTEND
  0
POINT
  5
1F424
330
13DA8
100
AcDbEntity
  8
DEFPOINTS
 62
     0
 48
50.0
100
AcDbPoint
 10
5209.896575106991
 20
5175.000000000006
 30
0.0
  0
POINT
  5
1F425
330
13DA8
100
AcDbEntity
  8
DEFPOINTS
 62
     0
 48
50.0
100
AcDbPoint
 10
7519.896575107009
 20
5175.000000000003
 30
0.0
  0
POINT
  5
1F426
330
13DA8
100
AcDbEntity
  8
DEFPOINTS
 62
     0
 48
50.0
100
AcDbPoint
 10
7519.896575107009
 20
5595.370389148895
 30
0.0
  0
ENDBLK
  5
14AA2
330
13DA8
100
AcDbEntity
  8
0
 48
50.0
100
AcDbBlockEnd
  0
BLOCK
  5
14A8A
330
141B5
100
AcDbEntity
  8
0
 48
50.0
100
AcDbBlockBegin
  2
*D2
 70
     1
 10
0.0
 20
0.0
 30
0.0
  3
*D2
  1

  0
LINE
  5
1F3F6
330
141B5
100
AcDbEntity
  8
寸法
 62
     0
 48
50.0
370
    -2
100
AcDbLine
 10
7519.896575107009
 20
5195.000000000003
 30
0.0
 11
7519.896575107009
 21
5439.620259427273
 31
0.0
  0
LINE
  5
1F3F7
330
141B5
100
AcDbEntity
  8
寸法
 62
     0
 48
50.0
370
    -2
100
AcDbLine
 10
7469.896575107011
 20
5195.000000000005
 30
0.0
 11
7469.896575107011
 21
5439.620259427273
 31
0.0
  0
LINE
  5
1F3F8
330
141B5
100
AcDbEntity
  8
寸法
 62
     0
 48
50.0
370
    -2
100
AcDbLine
 10
7469.896575107011
 20
5379.620259427273
 30
0.0
 11
7369.89657510701
 21
5379.620259427273
 31
0.0
  0
LINE
  5
1F3F9
330
141B5
100
AcDbEntity
  8
寸法
 62
     0
 48
50.0
370
    -2
100
AcDbLine
 10
7519.896575107009
 20
5379.620259427273
 30
0.0
 11
7939.429100575736
 21
5379.620259427273
 31
0.0
  0
LINE
  5
1F3FA
330
141B5
100
AcDbEntity
  8
寸法
 62
     0
 48
50.0
370
    -2
100
AcDbLine
 10
7469.896575107011
 20
5379.620259427273
 30
0.0
 11
7519.896575107009
 21
5379.620259427273
 31
0.0
  0
INSERT
  5
1F3FB
330
141B5
100
AcDbEntity
  8
寸法
 62
     0
 48
50.0
370
    -2
100
AcDbBlockReference
  2
_DOTSMALL
 10
7469.896575107011
 20
5379.620259427273
 30
0.0
 41
100.0
 42
100.0
 43
100.0
  0
INSERT
  5
1F3FC
330
141B5
100
AcDbEntity
  8
寸法
 62
     0
 48
50.0
370
    -2
100
AcDbBlockReference
  2
_DOTSMALL
 10
7519.896575107009
 20
5379.620259427273
 30
0.0
 41
100.0
 42
100.0
 43
100.0
 50
180.0
  0
MTEXT
  5
1F3FD
330
141B5
100
AcDbEntity
  8
寸法
 62
     7
 48
50.0
100
AcDbMText
 10
7833.381856481247
 20
5479.620259427273
 30
0.0
 40
120.0
 41
0.0
 71
     5
 72
     1
  1
\A1;50
  7
STYLE1
 73
     1
 44
1.0
1001
ACAD
1000
MTEXTBEGIN
1070
    73
1070
     1
1070
    44
1040
1.0
1070
    74
1070
     0
1000
MTEXTEND
  0
POINT
  5
1F3FE
330
141B5
100
AcDbEntity
  8
DEFPOINTS
 62
     0
 48
50.0
100
AcDbPoint
 10
7519.896575107009
 20
5175.000000000003
 30
0.0
  0
POINT
  5
1F3FF
330
141B5
100
AcDbEntity
  8
DEFPOINTS
 62
     0
 48
50.0
100
AcDbPoint
 10
7469.896575107011
 20
5175.000000000006
 30
0.0
  0
POINT
  5
1F400
330
141B5
100
AcDbEntity
  8
DEFPOINTS
 62
     0
 48
50.0
100
AcDbPoint
 10
7469.896575107011
 20
5379.620259427273
 30
0.0
  0
ENDBLK
  5
14A96
330
141B5
100
AcDbEntity
  8
0
 48
50.0
100
AcDbBlockEnd
  0
BLOCK
  5
14A7D
330
141F9
100
AcDbEntity
  8
0
 48
50.0
100
AcDbBlockBegin
  2
*D3
 70
     1
 10
0.0
 20
0.0
 30
0.0
  3
*D3
  1

  0
LINE
  5
22885
330
141F9
100
AcDbEntity
  8
寸法
 62
     0
 48
50.0
370
    -2
100
AcDbLine
 10
5259.896575106991
 20
5195.000000000007
 30
0.0
 11
5259.896575106991
 21
5439.142231267993
 31
0.0
  0
LINE
  5
22886
330
141F9
100
AcDbEntity
  8
寸法
 62
     0
 48
50.0
370
    -2
100
AcDbLine
 10
5209.896575106991
 20
5195.000000000005
 30
0.0
 11
5209.896575106991
 21
5439.142231267993
 31
0.0
  0
LINE
  5
22887
330
141F9
100
AcDbEntity
  8
寸法
 62
     0
 48
50.0
370
    -2
100
AcDbLine
 10
5259.896575106991
 20
5379.142231267993
 30
0.0
 11
5359.896575106991
 21
5379.142231267993
 31
0.0
  0
LINE
  5
22888
330
141F9
100
AcDbEntity
  8
寸法
 62
     0
 48
50.0
370
    -2
100
AcDbLine
 10
5209.896575106991
 20
5379.142231267993
 30
0.0
 11
4790.364049638257
 21
5379.142231267993
 31
0.0
  0
LINE
  5
22889
330
141F9
100
AcDbEntity
  8
寸法
 62
     0
 48
50.0
370
    -2
100
AcDbLine
 10
5259.896575106991
 20
5379.142231267993
 30
0.0
 11
5209.896575106991
 21
5379.142231267993
 31
0.0
  0
INSERT
  5
2288A
330
141F9
100
AcDbEntity
  8
寸法
 62
     0
 48
50.0
370
    -2
100
AcDbBlockReference
  2
_DOTSMALL
 10
5259.896575106991
 20
5379.142231267993
 30
0.0
 41
100.0
 42
100.0
 43
100.0
 50
180.0
  0
INSERT
  5
2288B
330
141F9
100
AcDbEntity
  8
寸法
 62
     0
 48
50.0
370
    -2
100
AcDbBlockReference
  2
_DOTSMALL
 10
5209.896575106991
 20
5379.142231267993
 30
0.0
 41
100.0
 42
100.0
 43
100.0
  0
MTEXT
  5
2288C
330
141F9
100
AcDbEntity
  8
寸法
 62
     7
 48
50.0
100
AcDbMText
 10
4896.411293732746
 20
5479.142231267992
 30
0.0
 40
120.0
 41
0.0
 71
     5
 72
     1
  1
\A1;50
  7
STYLE1
 73
     1
 44
1.0
1001
ACAD
1000
MTEXTBEGIN
1070
    73
1070
     1
1070
    44
1040
1.0
1070
    74
1070
     0
1000
MTEXTEND
  0
POINT
  5
2288D
330
141F9
100
AcDbEntity
  8
DEFPOINTS
 62
     0
 48
50.0
100
AcDbPoint
 10
5259.896575106991
 20
5175.000000000006
 30
0.0
  0
POINT
  5
2288E
330
141F9
100
AcDbEntity
  8
DEFPOINTS
 62
     0
 48
50.0
100
AcDbPoint
 10
5209.896575106991
 20
5175.000000000006
 30
0.0
  0
POINT
  5
2288F
330
141F9
100
AcDbEntity
  8
DEFPOINTS
 62
     0
 48
50.0
100
AcDbPoint
 10
5209.896575106991
 20
5379.142231267993
 30
0.0
  0
ENDBLK
  5
14A89
330
141F9
100
AcDbEntity
  8
0
 48
50.0
100
AcDbBlockEnd
  0
BLOCK
  5
148C8
330
1458A
100
AcDbEntity
  8
0
 48
50.0
100
AcDbBlockBegin
  2
*D4
 70
     1
 10
0.0
 20
0.0
 30
0.0
  3
*D4
  1

  0
LINE
  5
23546
330
1458A
100
AcDbEntity
  8
寸法
 62
     0
 48
50.0
370
    -2
100
AcDbLine
 10
5259.896575106979
 20
9511.933683184627
 30
0.0
 11
5259.896575106979
 21
9767.741902809611
 31
0.0
  0
LINE
  5
23547
330
1458A
100
AcDbEntity
  8
寸法
 62
     0
 48
50.0
370
    -2
100
AcDbLine
 10
5314.896575107013
 20
9511.933683184627
 30
0.0
 11
5314.896575107013
 21
9767.741902809611
 31
0.0
  0
LINE
  5
23548
330
1458A
100
AcDbEntity
  8
寸法
 62
     0
 48
50.0
370
    -2
100
AcDbLine
 10
5314.896575107013
 20
9707.74190280961
 30
0.0
 11
5414.896575107014
 21
9707.74190280961
 31
0.0
  0
LINE
  5
23549
330
1458A
100
AcDbEntity
  8
寸法
 62
     0
 48
50.0
370
    -2
100
AcDbLine
 10
5259.896575106979
 20
9707.74190280961
 30
0.0
 11
4842.926012358502
 21
9707.74190280961
 31
0.0
  0
LINE
  5
2354A
330
1458A
100
AcDbEntity
  8
寸法
 62
     0
 48
50.0
370
    -2
100
AcDbLine
 10
5314.896575107013
 20
9707.74190280961
 30
0.0
 11
5259.896575106979
 21
9707.74190280961
 31
0.0
  0
INSERT
  5
2354B
330
1458A
100
AcDbEntity
  8
寸法
 62
     0
 48
50.0
370
    -2
100
AcDbBlockReference
  2
_DOTSMALL
 10
5314.896575107013
 20
9707.74190280961
 30
0.0
 41
100.0
 42
100.0
 43
100.0
 50
180.0
  0
INSERT
  5
2354C
330
1458A
100
AcDbEntity
  8
寸法
 62
     0
 48
50.0
370
    -2
100
AcDbBlockReference
  2
_DOTSMALL
 10
5259.896575106979
 20
9707.74190280961
 30
0.0
 41
100.0
 42
100.0
 43
100.0
  0
MTEXT
  5
2354D
330
1458A
100
AcDbEntity
  8
寸法
 62
     7
 48
50.0
100
AcDbMText
 10
4951.411293732741
 20
9807.74190280961
 30
0.0
 40
120.0
 41
0.0
 71
     5
 72
     1
  1
\A1;55
  7
STYLE1
 73
     1
 44
1.0
1001
ACAD
1000
MTEXTBEGIN
1070
    73
1070
     1
1070
    44
1040
1.0
1070
    74
1070
     0
1000
MTEXTEND
  0
POINT
  5
2354E
330
1458A
100
AcDbEntity
  8
DEFPOINTS
 62
     0
 48
50.0
100
AcDbPoint
 10
5259.896575106979
 20
9491.933683184626
 30
0.0
  0
POINT
  5
2354F
330
1458A
100
AcDbEntity
  8
DEFPOINTS
 62
     0
 48
50.0
100
AcDbPoint
 10
5314.896575107013
 20
9491.933683184626
 30
0.0
  0
POINT
  5
23550
330
1458A
100
AcDbEntity
  8
DEFPOINTS
 62
     0
 48
50.0
100
AcDbPoint
 10
5314.896575107013
 20
9707.74190280961
 30
0.0
  0
ENDBLK
  5
148D4
330
1458A
100
AcDbEntity
  8
0
 48
50.0
100
AcDbBlockEnd
  0
BLOCK
  5
14D6F
330
14598
100
AcDbEntity
  8
0
 48
50.0
100
AcDbBlockBegin
  2
*D5
 70
     1
 10
0.0
 20
0.0
 30
0.0
  3
*D5
  1

  0
LINE
  5
2356F
330
14598
100
AcDbEntity
  8
寸法
 62
     0
 48
50.0
370
    -2
100
AcDbLine
 10
7489.896575107031
 20
9491.933683184718
 30
0.0
 11
8470.743036823749
 21
9491.933683184718
 31
0.0
  0
LINE
  5
23570
330
14598
100
AcDbEntity
  8
寸法
 62
     0
 48
50.0
370
    -2
100
AcDbLine
 10
7489.896575106977
 20
7281.933683184724
 30
0.0
 11
8470.743036823749
 21
7281.933683184724
 31
0.0
  0
LINE
  5
23571
330
14598
100
AcDbEntity
  8
寸法
 62
     0
 48
50.0
370
    -2
100
AcDbLine
 10
8410.743036823749
 20
9491.933683184718
 30
0.0
 11
8410.743036823749
 21
7281.933683184724
 31
0.0
  0
INSERT
  5
23572
330
14598
100
AcDbEntity
  8
寸法
 62
     0
 48
50.0
370
    -2
100
AcDbBlockReference
  2
_DOTSMALL
 10
8410.743036823749
 20
9491.933683184718
 30
0.0
 41
100.0
 42
100.0
 43
100.0
 50
90.0
  0
INSERT
  5
23573
330
14598
100
AcDbEntity
  8
寸法
 62
     0
 48
50.0
370
    -2
100
AcDbBlockReference
  2
_DOTSMALL
 10
8410.743036823749
 20
7281.933683184724
 30
0.0
 41
100.0
 42
100.0
 43
100.0
 50
270.0
  0
MTEXT
  5
23574
330
14598
100
AcDbEntity
  8
寸法
 62
     7
 48
50.0
100
AcDbMText
 10
8310.731225800125
 20
8337.42212338817
 30
0.0
 40
120.0
 41
0.0
 71
     5
 72
     1
  1
\A1;2210
  7
STYLE1
 11
0.0000000000000001
 21
1.0
 31
0.0
 73
     1
 44
1.0
1001
ACAD
1000
MTEXTBEGIN
1070
    73
1070
     1
1070
    44
1040
1.0
1070
    74
1070
     0
1000
MTEXTEND
  0
POINT
  5
23575
330
14598
100
AcDbEntity
  8
DEFPOINTS
 62
     0
 48
50.0
100
AcDbPoint
 10
7469.89657510703
 20
9491.933683184718
 30
0.0
  0
POINT
  5
23576
330
14598
100
AcDbEntity
  8
DEFPOINTS
 62
     0
 48
50.0
100
AcDbPoint
 10
7469.896575106976
 20
7281.933683184724
 30
0.0
  0
POINT
  5
23577
330
14598
100
AcDbEntity
  8
DEFPOINTS
 62
     0
 48
50.0
100
AcDbPoint
 10
8410.743036823749
 20
7281.933683184724
 30
0.0
  0
ENDBLK
  5
14D79
330
14598
100
AcDbEntity
  8
0
 48
50.0
100
AcDbBlockEnd
  0
BLOCK
  5
1492F
330
145A4
100
AcDbEntity
  8
0
 48
50.0
100
AcDbBlockBegin
  2
*D6
 70
     1
 10
0.0
 20
0.0
 30
0.0
  3
*D6
  1

  0
LINE
  5
2353B
330
145A4
100
AcDbEntity
  8
寸法
 62
     0
 48
50.0
370
    -2
100
AcDbLine
 10
7489.896575107015
 20
9491.933683184724
 30
0.0
 11
8177.322920841424
 21
9491.933683184724
 31
0.0
  0
LINE
  5
2353C
330
145A4
100
AcDbEntity
  8
寸法
 62
     0
 48
50.0
370
    -2
100
AcDbLine
 10
7489.896575107015
 20
9436.933683184726
 30
0.0
 11
8177.322920841424
 21
9436.933683184726
 31
0.0
  0
LINE
  5
2353D
330
145A4
100
AcDbEntity
  8
寸法
 62
     0
 48
50.0
370
    -2
100
AcDbLine
 10
8117.322920841425
 20
9436.933683184726
 30
0.0
 11
8117.322920841425
 21
9336.933683184726
 31
0.0
  0
LINE
  5
2353E
330
145A4
100
AcDbEntity
  8
寸法
 62
     0
 48
50.0
370
    -2
100
AcDbLine
 10
8117.322920841425
 20
9491.933683184724
 30
0.0
 11
8117.322920841425
 21
9908.9042459332
 31
0.0
  0
LINE
  5
2353F
330
145A4
100
AcDbEntity
  8
寸法
 62
     0
 48
50.0
370
    -2
100
AcDbLine
 10
8117.322920841425
 20
9436.933683184726
 30
0.0
 11
8117.322920841425
 21
9491.933683184724
 31
0.0
  0
INSERT
  5
23540
330
145A4
100
AcDbEntity
  8
寸法
 62
     0
 48
50.0
370
    -2
100
AcDbBlockReference
  2
_DOTSMALL
 10
8117.322920841425
 20
9436.933683184726
 30
0.0
 41
100.0
 42
100.0
 43
100.0
 50
90.0
  0
INSERT
  5
23541
330
145A4
100
AcDbEntity
  8
寸法
 62
     0
 48
50.0
370
    -2
100
AcDbBlockReference
  2
_DOTSMALL
 10
8117.322920841425
 20
9491.933683184724
 30
0.0
 41
100.0
 42
100.0
 43
100.0
 50
270.0
  0
MTEXT
  5
23542
330
145A4
100
AcDbEntity
  8
寸法
 62
     7
 48
50.0
100
AcDbMText
 10
8017.322920841424
 20
9800.418964558964
 30
0.0
 40
120.0
 41
0.0
 71
     5
 72
     1
  1
\A1;55
  7
STYLE1
 11
0.0000000000000001
 21
1.0
 31
0.0
 73
     1
 44
1.0
1001
ACAD
1000
MTEXTBEGIN
1070
    73
1070
     1
1070
    44
1040
1.0
1070
    74
1070
     0
1000
MTEXTEND
  0
POINT
  5
23543
330
145A4
100
AcDbEntity
  8
DEFPOINTS
 62
     0
 48
50.0
100
AcDbPoint
 10
7469.896575107014
 20
9491.933683184724
 30
0.0
  0
POINT
  5
23544
330
145A4
100
AcDbEntity
  8
DEFPOINTS
 62
     0
 48
50.0
100
AcDbPoint
 10
7469.896575107014
 20
9436.933683184726
 30
0.0
  0
POINT
  5
23545
330
145A4
100
AcDbEntity
  8
DEFPOINTS
 62
     0
 48
50.0
100
AcDbPoint
 10
8117.322920841425
 20
9436.933683184726
 30
0.0
  0
ENDBLK
  5
1493B
330
145A4
100
AcDbEntity
  8
0
 48
50.0
100
AcDbBlockEnd
  0
BLOCK
  5
14BDB
330
145B2
100
AcDbEntity
  8
0
 48
50.0
100
AcDbBlockBegin
  2
*D7
 70
     1
 10
0.0
 20
0.0
 30
0.0
  3
*D7
  1

  0
LINE
  5
23532
330
145B2
100
AcDbEntity
  8
寸法
 62
     0
 48
50.0
370
    -2
100
AcDbLine
 10
7461.396575107015
 20
9456.574699336099
 30
0.0
 11
7856.75430096904
 21
9350.638915969966
 31
0.0
  0
LINE
  5
23533
330
145B2
100
AcDbEntity
  8
寸法
 62
     0
 48
50.0
370
    -2
100
AcDbLine
 10
7461.396575107015
 20
9006.574699336104
 30
0.0
 11
7856.75430096904
 21
8900.638915969969
 31
0.0
  0
LINE
  5
23534
330
145B2
100
AcDbEntity
  8
寸法
 62
     0
 48
50.0
370
    -2
100
AcDbLine
 10
7796.754300969038
 20
9366.715867515834
 30
0.0
 11
7796.754300969038
 21
8916.715867515835
 31
0.0
  0
INSERT
  5
23535
330
145B2
100
AcDbEntity
  8
寸法
 62
     0
 48
50.0
370
    -2
100
AcDbBlockReference
  2
_DOTSMALL
 10
7796.754300969038
 20
9366.715867515834
 30
0.0
 41
100.0
 42
100.0
 43
100.0
 50
90.0
  0
INSERT
  5
23536
330
145B2
100
AcDbEntity
  8
寸法
 62
     0
 48
50.0
370
    -2
100
AcDbBlockReference
  2
_DOTSMALL
 10
7796.754300969038
 20
8916.715867515835
 30
0.0
 41
100.0
 42
100.0
 43
100.0
 50
270.0
  0
MTEXT
  5
23537
330
145B2
100
AcDbEntity
  8
寸法
 62
     7
 48
50.0
100
AcDbMText
 10
7696.754300969039
 20
9141.715867515834
 30
0.0
 40
120.0
 41
0.0
 71
     5
 72
     1
  1
\A1;450
  7
STYLE1
 11
0.0000000000000001
 21
1.0
 31
0.0
 73
     1
 44
1.0
1001
ACAD
1000
MTEXTBEGIN
1070
    73
1070
     1
1070
    44
1040
1.0
1070
    74
1070
     0
1000
MTEXTEND
  0
POINT
  5
23538
330
145B2
100
AcDbEntity
  8
DEFPOINTS
 62
     0
 48
50.0
100
AcDbPoint
 10
7441.396575107015
 20
9461.933683184723
 30
0.0
  0
POINT
  5
23539
330
145B2
100
AcDbEntity
  8
DEFPOINTS
 62
     0
 48
50.0
100
AcDbPoint
 10
7441.396575107015
 20
9011.933683184725
 30
0.0
  0
POINT
  5
2353A
330
145B2
100
AcDbEntity
  8
DEFPOINTS
 62
     0
 48
50.0
100
AcDbPoint
 10
7796.754300969038
 20
8916.715867515835
 30
0.0
  0
ENDBLK
  5
14BE5
330
145B2
100
AcDbEntity
  8
0
 48
50.0
100
AcDbBlockEnd
  0
BLOCK
  5
1496A
330
145BE
100
AcDbEntity
  8
0
 48
50.0
100
AcDbBlockBegin
  2
*D8
 70
     1
 10
0.0
 20
0.0
 30
0.0
  3
*D8
  1

  0
LINE
  5
2108D
330
145BE
100
AcDbEntity
  8
寸法
 62
     0
 48
50.0
370
    -2
100
AcDbLine
 10
7489.896575106977
 20
7336.933683184719
 30
0.0
 11
8177.322920841389
 21
7336.933683184719
 31
0.0
  0
LINE
  5
2108E
330
145BE
100
AcDbEntity
  8
寸法
 62
     0
 48
50.0
370
    -2
100
AcDbLine
 10
7489.896575106977
 20
7281.933683184724
 30
0.0
 11
8177.322920841389
 21
7281.933683184724
 31
0.0
  0
LINE
  5
2108F
330
145BE
100
AcDbEntity
  8
寸法
 62
     0
 48
50.0
370
    -2
100
AcDbLine
 10
8117.322920841386
 20
7336.933683184719
 30
0.0
 11
8117.322920841386
 21
7436.933683184719
 31
0.0
  0
LINE
  5
21090
330
145BE
100
AcDbEntity
  8
寸法
 62
     0
 48
50.0
370
    -2
100
AcDbLine
 10
8117.322920841386
 20
7281.933683184724
 30
0.0
 11
8117.322920841386
 21
6795.586934905621
 31
0.0
  0
LINE
  5
21091
330
145BE
100
AcDbEntity
  8
寸法
 62
     0
 48
50.0
370
    -2
100
AcDbLine
 10
8117.322920841386
 20
7336.933683184719
 30
0.0
 11
8117.322920841386
 21
7281.933683184724
 31
0.0
  0
INSERT
  5
21092
330
145BE
100
AcDbEntity
  8
寸法
 62
     0
 48
50.0
370
    -2
100
AcDbBlockReference
  2
_DOTSMALL
 10
8117.322920841386
 20
7336.933683184719
 30
0.0
 41
100.0
 42
100.0
 43
100.0
 50
270.0
  0
INSERT
  5
21093
330
145BE
100
AcDbEntity
  8
寸法
 62
     0
 48
50.0
370
    -2
100
AcDbBlockReference
  2
_DOTSMALL
 10
8117.322920841386
 20
7281.933683184724
 30
0.0
 41
100.0
 42
100.0
 43
100.0
 50
90.0
  0
MTEXT
  5
21094
330
145BE
100
AcDbEntity
  8
寸法
 62
     7
 48
50.0
100
AcDbMText
 10
8017.322920841385
 20
6904.072216279861
 30
0.0
 40
120.0
 41
0.0
 71
     5
 72
     1
  1
\A1;55
  7
STYLE1
 11
0.0000000000000001
 21
1.0
 31
0.0
 73
     1
 44
1.0
1001
ACAD
1000
MTEXTBEGIN
1070
    73
1070
     1
1070
    44
1040
1.0
1070
    74
1070
     0
1000
MTEXTEND
  0
POINT
  5
21095
330
145BE
100
AcDbEntity
  8
DEFPOINTS
 62
     0
 48
50.0
100
AcDbPoint
 10
7469.896575106976
 20
7336.933683184719
 30
0.0
  0
POINT
  5
21096
330
145BE
100
AcDbEntity
  8
DEFPOINTS
 62
     0
 48
50.0
100
AcDbPoint
 10
7469.896575106976
 20
7281.933683184724
 30
0.0
  0
POINT
  5
21097
330
145BE
100
AcDbEntity
  8
DEFPOINTS
 62
     0
 48
50.0
100
AcDbPoint
 10
8117.322920841386
 20
7281.933683184724
 30
0.0
  0
ENDBLK
  5
14976
330
145BE
100
AcDbEntity
  8
0
 48
50.0
100
AcDbBlockEnd
  0
BLOCK
  5
14D4C
330
145CC
100
AcDbEntity
  8
0
 48
50.0
100
AcDbBlockBegin
  2
*D9
 70
     1
 10
0.0
 20
0.0
 30
0.0
  3
*D9
  1

  0
LINE
  5
23593
330
145CC
100
AcDbEntity
  8
寸法
 62
     0
 48
50.0
370
    -2
100
AcDbLine
 10
7489.896575107015
 20
9436.933683184726
 30
0.0
 11
8177.322920841389
 21
9436.933683184726
 31
0.0
  0
LINE
  5
23594
330
145CC
100
AcDbEntity
  8
寸法
 62
     0
 48
50.0
370
    -2
100
AcDbLine
 10
7489.896575106977
 20
7336.933683184719
 30
0.0
 11
8177.322920841389
 21
7336.933683184719
 31
0.0
  0
LINE
  5
23595
330
145CC
100
AcDbEntity
  8
寸法
 62
     0
 48
50.0
370
    -2
100
AcDbLine
 10
8117.322920841386
 20
9436.933683184726
 30
0.0
 11
8117.322920841386
 21
7336.933683184719
 31
0.0
  0
INSERT
  5
23596
330
145CC
100
AcDbEntity
  8
寸法
 62
     0
 48
50.0
370
    -2
100
AcDbBlockReference
  2
_DOTSMALL
 10
8117.322920841386
 20
9436.933683184726
 30
0.0
 41
100.0
 42
100.0
 43
100.0
 50
90.0
  0
INSERT
  5
23597
330
145CC
100
AcDbEntity
  8
寸法
 62
     0
 48
50.0
370
    -2
100
AcDbBlockReference
  2
_DOTSMALL
 10
8117.322920841386
 20
7336.933683184719
 30
0.0
 41
100.0
 42
100.0
 43
100.0
 50
270.0
  0
MTEXT
  5
23598
330
145CC
100
AcDbEntity
  8
寸法
 62
     7
 48
50.0
100
AcDbMText
 10
8017.311109817766
 20
8385.020322115183
 30
0.0
 40
120.0
 41
0.0
 71
     5
 72
     1
  1
\A1;5X420=2100
  7
STYLE1
 11
0.0000000000000001
 21
1.0
 31
0.0
 73
     1
 44
1.0
1001
ACAD
1000
MTEXTBEGIN
1070
    73
1070
     1
1070
    44
1040
1.0
1070
    74
1070
     0
1000
MTEXTEND
  0
POINT
  5
23599
330
145CC
100
AcDbEntity
  8
DEFPOINTS
 62
     0
 48
50.0
100
AcDbPoint
 10
7469.896575107014
 20
9436.933683184726
 30
0.0
  0
POINT
  5
2359A
330
145CC
100
AcDbEntity
  8
DEFPOINTS
 62
     0
 48
50.0
100
AcDbPoint
 10
7469.896575106976
 20
7336.933683184719
 30
0.0
  0
POINT
  5
2359B
330
145CC
100
AcDbEntity
  8
DEFPOINTS
 62
     0
 48
50.0
100
AcDbPoint
 10
8117.322920841386
 20
7336.933683184719
 30
0.0
  0
ENDBLK
  5
14D56
330
145CC
100
AcDbEntity
  8
0
 48
50.0
100
AcDbBlockEnd
  0
BLOCK
  5
14954
330
145D8
100
AcDbEntity
  8
0
 48
50.0
100
AcDbBlockBegin
  2
*D10
 70
     1
 10
0.0
 20
0.0
 30
0.0
  3
*D10
  1

  0
LINE
  5
2107B
330
145D8
100
AcDbEntity
  8
寸法
 62
     0
 48
50.0
370
    -2
100
AcDbLine
 10
5259.896575106995
 20
7261.933683184593
 30
0.0
 11
5259.896575106995
 21
6442.4203118173
 31
0.0
  0
LINE
  5
2107C
330
145D8
100
AcDbEntity
  8
寸法
 62
     0
 48
50.0
370
    -2
100
AcDbLine
 10
7469.896575106976
 20
7261.93368318469
 30
0.0
 11
7469.896575106976
 21
6442.4203118173
 31
0.0
  0
LINE
  5
2107D
330
145D8
100
AcDbEntity
  8
寸法
 62
     0
 48
50.0
370
    -2
100
AcDbLine
 10
5259.896575106995
 20
6502.420311817299
 30
0.0
 11
7469.896575106976
 21
6502.420311817299
 31
0.0
  0
INSERT
  5
2107E
330
145D8
100
AcDbEntity
  8
寸法
 62
     0
 48
50.0
370
    -2
100
AcDbBlockReference
  2
_DOTSMALL
 10
5259.896575106995
 20
6502.420311817299
 30
0.0
 41
100.0
 42
100.0
 43
100.0
 50
180.0
  0
INSERT
  5
2107F
330
145D8
100
AcDbEntity
  8
寸法
 62
     0
 48
50.0
370
    -2
100
AcDbBlockReference
  2
_DOTSMALL
 10
7469.896575106976
 20
6502.420311817299
 30
0.0
 41
100.0
 42
100.0
 43
100.0
  0
MTEXT
  5
21080
330
145D8
100
AcDbEntity
  8
寸法
 62
     7
 48
50.0
100
AcDbMText
 10
6375.856517730952
 20
6602.43212284092
 30
0.0
 40
120.0
 41
0.0
 71
     5
 72
     1
  1
\A1;2210
  7
STYLE1
 73
     1
 44
1.0
1001
ACAD
1000
MTEXTBEGIN
1070
    73
1070
     1
1070
    44
1040
1.0
1070
    74
1070
     0
1000
MTEXTEND
  0
POINT
  5
21081
330
145D8
100
AcDbEntity
  8
DEFPOINTS
 62
     0
 48
50.0
100
AcDbPoint
 10
5259.896575106995
 20
7281.933683184593
 30
0.0
  0
POINT
  5
21082
330
145D8
100
AcDbEntity
  8
DEFPOINTS
 62
     0
 48
50.0
100
AcDbPoint
 10
7469.896575106976
 20
7281.933683184688
 30
0.0
  0
POINT
  5
21083
330
145D8
100
AcDbEntity
  8
DEFPOINTS
 62
     0
 48
50.0
100
AcDbPoint
 10
7469.896575106976
 20
6502.420311817299
 30
0.0
  0
ENDBLK
  5
1495E
330
145D8
100
AcDbEntity
  8
0
 48
50.0
100
AcDbBlockEnd
  0
BLOCK
  5
14D90
330
145E4
100
AcDbEntity
  8
0
 48
50.0
100
AcDbBlockBegin
  2
*D11
 70
     1
 10
0.0
 20
0.0
 30
0.0
  3
*D11
  1

  0
LINE
  5
21072
330
145E4
100
AcDbEntity
  8
寸法
 62
     0
 48
50.0
370
    -2
100
AcDbLine
 10
6597.896575106995
 20
7261.933683184654
 30
0.0
 11
6597.896575106995
 21
6668.736931209405
 31
0.0
  0
LINE
  5
21073
330
145E4
100
AcDbEntity
  8
寸法
 62
     0
 48
50.0
370
    -2
100
AcDbLine
 10
5319.896575106994
 20
7261.933683184591
 30
0.0
 11
5319.896575106994
 21
6668.736931209405
 31
0.0
  0
LINE
  5
21074
330
145E4
100
AcDbEntity
  8
寸法
 62
     0
 48
50.0
370
    -2
100
AcDbLine
 10
6597.896575106995
 20
6728.736931209406
 30
0.0
 11
5319.896575106994
 21
6728.736931209406
 31
0.0
  0
INSERT
  5
21075
330
145E4
100
AcDbEntity
  8
寸法
 62
     0
 48
50.0
370
    -2
100
AcDbBlockReference
  2
_DOTSMALL
 10
6597.896575106995
 20
6728.736931209406
 30
0.0
 41
100.0
 42
100.0
 43
100.0
  0
INSERT
  5
21076
330
145E4
100
AcDbEntity
  8
寸法
 62
     0
 48
50.0
370
    -2
100
AcDbBlockReference
  2
_DOTSMALL
 10
5319.896575106994
 20
6728.736931209406
 30
0.0
 41
100.0
 42
100.0
 43
100.0
 50
180.0
  0
MTEXT
  5
21077
330
145E4
100
AcDbEntity
  8
寸法
 62
     7
 48
50.0
100
AcDbMText
 10
5947.686700450972
 20
6928.748742233027
 30
0.0
 40
120.0
 41
0.0
 71
     5
 72
     1
  1
\A1;有効開口部間口\P1278
  7
STYLE1
 73
     1
 44
1.0
1001
ACAD
1000
MTEXTBEGIN
1070
    73
1070
     1
1070
    44
1040
1.0
1070
    74
1070
     0
1000
MTEXTEND
  0
POINT
  5
21078
330
145E4
100
AcDbEntity
  8
DEFPOINTS
 62
     0
 48
50.0
100
AcDbPoint
 10
6597.896575106995
 20
7281.933683184653
 30
0.0
  0
POINT
  5
21079
330
145E4
100
AcDbEntity
  8
DEFPOINTS
 62
     0
 48
50.0
100
AcDbPoint
 10
5319.896575106994
 20
7281.933683184591
 30
0.0
  0
POINT
  5
2107A
330
145E4
100
AcDbEntity
  8
DEFPOINTS
 62
     0
 48
50.0
100
AcDbPoint
 10
5319.896575106994
 20
6728.736931209406
 30
0.0
  0
ENDBLK
  5
14D9A
330
145E4
100
AcDbEntity
  8
0
 48
50.0
100
AcDbBlockEnd
  0
BLOCK
  5
14D57
330
145FC
100
AcDbEntity
  8
0
 48
50.0
100
AcDbBlockBegin
  2
*D12
 70
     1
 10
0.0
 20
0.0
 30
0.0
  3
*D12
  1

  0
LINE
  5
23529
330
145FC
100
AcDbEntity
  8
寸法
 62
     0
 48
50.0
370
    -2
100
AcDbLine
 10
6583.037591258392
 20
8991.933683184731
 30
0.0
 11
6513.626127267166
 21
8732.886572941747
 31
0.0
  0
LINE
  5
2352A
330
145FC
100
AcDbEntity
  8
寸法
 62
     0
 48
50.0
370
    -2
100
AcDbLine
 10
7436.037591258403
 20
8991.933683184727
 30
0.0
 11
7366.62612726718
 21
8732.886572941747
 31
0.0
  0
LINE
  5
2352B
330
145FC
100
AcDbEntity
  8
寸法
 62
     0
 48
50.0
370
    -2
100
AcDbLine
 10
6529.703078813034
 20
8792.886572941746
 30
0.0
 11
7382.703078813048
 21
8792.886572941746
 31
0.0
  0
INSERT
  5
2352C
330
145FC
100
AcDbEntity
  8
寸法
 62
     0
 48
50.0
370
    -2
100
AcDbBlockReference
  2
_DOTSMALL
 10
6529.703078813034
 20
8792.886572941746
 30
0.0
 41
100.0
 42
100.0
 43
100.0
 50
180.0
  0
INSERT
  5
2352D
330
145FC
100
AcDbEntity
  8
寸法
 62
     0
 48
50.0
370
    -2
100
AcDbBlockReference
  2
_DOTSMALL
 10
7382.703078813048
 20
8792.886572941746
 30
0.0
 41
100.0
 42
100.0
 43
100.0
  0
MTEXT
  5
2352E
330
145FC
100
AcDbEntity
  8
寸法
 62
     7
 48
50.0
100
AcDbMText
 10
6967.743637225282
 20
8892.886572941746
 30
0.0
 40
120.0
 41
0.0
 71
     5
 72
     1
  1
\A1;853
  7
STYLE1
 73
     1
 44
1.0
1001
ACAD
1000
MTEXTBEGIN
1070
    73
1070
     1
1070
    44
1040
1.0
1070
    74
1070
     0
1000
MTEXTEND
  0
POINT
  5
2352F
330
145FC
100
AcDbEntity
  8
DEFPOINTS
 62
     0
 48
50.0
100
AcDbPoint
 10
6588.396575107013
 20
9011.933683184732
 30
0.0
  0
POINT
  5
23530
330
145FC
100
AcDbEntity
  8
DEFPOINTS
 62
     0
 48
50.0
100
AcDbPoint
 10
7441.396575107025
 20
9011.933683184727
 30
0.0
  0
POINT
  5
23531
330
145FC
100
AcDbEntity
  8
DEFPOINTS
 62
     0
 48
50.0
100
AcDbPoint
 10
7382.703078813048
 20
8792.886572941746
 30
0.0
  0
ENDBLK
  5
14D61
330
145FC
100
AcDbEntity
  8
0
 48
50.0
100
AcDbBlockEnd
  0
BLOCK
  5
148D5
330
14608
100
AcDbEntity
  8
0
 48
50.0
100
AcDbBlockBegin
  2
*D13
 70
     1
 10
0.0
 20
0.0
 30
0.0
  3
*D13
  1

  0
LINE
  5
2351E
330
14608
100
AcDbEntity
  8
寸法
 62
     0
 48
50.0
370
    -2
100
AcDbLine
 10
7414.896575107015
 20
9511.933683184723
 30
0.0
 11
7414.896575107015
 21
9767.741902809706
 31
0.0
  0
LINE
  5
2351F
330
14608
100
AcDbEntity
  8
寸法
 62
     0
 48
50.0
370
    -2
100
AcDbLine
 10
7469.896575107014
 20
9511.933683184723
 30
0.0
 11
7469.896575107014
 21
9767.741902809706
 31
0.0
  0
LINE
  5
23520
330
14608
100
AcDbEntity
  8
寸法
 62
     0
 48
50.0
370
    -2
100
AcDbLine
 10
7414.896575107015
 20
9707.741902809708
 30
0.0
 11
7314.896575107015
 21
9707.741902809708
 31
0.0
  0
LINE
  5
23521
330
14608
100
AcDbEntity
  8
寸法
 62
     0
 48
50.0
370
    -2
100
AcDbLine
 10
7469.896575107014
 20
9707.741902809708
 30
0.0
 11
7886.867137855492
 21
9707.741902809708
 31
0.0
  0
LINE
  5
23522
330
14608
100
AcDbEntity
  8
寸法
 62
     0
 48
50.0
370
    -2
100
AcDbLine
 10
7414.896575107015
 20
9707.741902809708
 30
0.0
 11
7469.896575107014
 21
9707.741902809708
 31
0.0
  0
INSERT
  5
23523
330
14608
100
AcDbEntity
  8
寸法
 62
     0
 48
50.0
370
    -2
100
AcDbBlockReference
  2
_DOTSMALL
 10
7414.896575107015
 20
9707.741902809708
 30
0.0
 41
100.0
 42
100.0
 43
100.0
  0
INSERT
  5
23524
330
14608
100
AcDbEntity
  8
寸法
 62
     0
 48
50.0
370
    -2
100
AcDbBlockReference
  2
_DOTSMALL
 10
7469.896575107014
 20
9707.741902809708
 30
0.0
 41
100.0
 42
100.0
 43
100.0
 50
180.0
  0
MTEXT
  5
23525
330
14608
100
AcDbEntity
  8
寸法
 62
     7
 48
50.0
100
AcDbMText
 10
7778.381856481253
 20
9807.741902809707
 30
0.0
 40
120.0
 41
0.0
 71
     5
 72
     1
  1
\A1;55
  7
STYLE1
 73
     1
 44
1.0
1001
ACAD
1000
MTEXTBEGIN
1070
    73
1070
     1
1070
    44
1040
1.0
1070
    74
1070
     0
1000
MTEXTEND
  0
POINT
  5
23526
330
14608
100
AcDbEntity
  8
DEFPOINTS
 62
     0
 48
50.0
100
AcDbPoint
 10
7414.896575107015
 20
9491.933683184724
 30
0.0
  0
POINT
  5
23527
330
14608
100
AcDbEntity
  8
DEFPOINTS
 62
     0
 48
50.0
100
AcDbPoint
 10
7469.896575107014
 20
9491.933683184724
 30
0.0
  0
POINT
  5
23528
330
14608
100
AcDbEntity
  8
DEFPOINTS
 62
     0
 48
50.0
100
AcDbPoint
 10
7469.896575107014
 20
9707.741902809708
 30
0.0
  0
ENDBLK
  5
148E1
330
14608
100
AcDbEntity
  8
0
 48
50.0
100
AcDbBlockEnd
  0
BLOCK
  5
14B64
330
14616
100
AcDbEntity
  8
0
 48
50.0
100
AcDbBlockBegin
  2
*D14
 70
     1
 10
0.0
 20
0.0
 30
0.0
  3
*D14
  1

  0
LINE
  5
23515
330
14616
100
AcDbEntity
  8
寸法
 62
     0
 48
50.0
370
    -2
100
AcDbLine
 10
5314.896575107013
 20
9511.933683184627
 30
0.0
 11
5314.896575107013
 21
9767.741902809611
 31
0.0
  0
LINE
  5
23516
330
14616
100
AcDbEntity
  8
寸法
 62
     0
 48
50.0
370
    -2
100
AcDbLine
 10
7414.896575107015
 20
9511.933683184723
 30
0.0
 11
7414.896575107015
 21
9767.741902809611
 31
0.0
  0
LINE
  5
23517
330
14616
100
AcDbEntity
  8
寸法
 62
     0
 48
50.0
370
    -2
100
AcDbLine
 10
5314.896575107013
 20
9707.74190280961
 30
0.0
 11
7414.896575107015
 21
9707.74190280961
 31
0.0
  0
INSERT
  5
23518
330
14616
100
AcDbEntity
  8
寸法
 62
     0
 48
50.0
370
    -2
100
AcDbBlockReference
  2
_DOTSMALL
 10
5314.896575107013
 20
9707.74190280961
 30
0.0
 41
100.0
 42
100.0
 43
100.0
 50
180.0
  0
INSERT
  5
23519
330
14616
100
AcDbEntity
  8
寸法
 62
     0
 48
50.0
370
    -2
100
AcDbBlockReference
  2
_DOTSMALL
 10
7414.896575107015
 20
9707.74190280961
 30
0.0
 41
100.0
 42
100.0
 43
100.0
  0
MTEXT
  5
2351A
330
14616
100
AcDbEntity
  8
寸法
 62
     7
 48
50.0
100
AcDbMText
 10
6356.769737990334
 20
9807.753713833232
 30
0.0
 40
120.0
 41
0.0
 71
     5
 72
     1
  1
\A1;5X420=2100
  7
STYLE1
 73
     1
 44
1.0
1001
ACAD
1000
MTEXTBEGIN
1070
    73
1070
     1
1070
    44
1040
1.0
1070
    74
1070
     0
1000
MTEXTEND
  0
POINT
  5
2351B
330
14616
100
AcDbEntity
  8
DEFPOINTS
 62
     0
 48
50.0
100
AcDbPoint
 10
5314.896575107013
 20
9491.933683184626
 30
0.0
  0
POINT
  5
2351C
330
14616
100
AcDbEntity
  8
DEFPOINTS
 62
     0
 48
50.0
100
AcDbPoint
 10
7414.896575107015
 20
9491.933683184724
 30
0.0
  0
POINT
  5
2351D
330
14616
100
AcDbEntity
  8
DEFPOINTS
 62
     0
 48
50.0
100
AcDbPoint
 10
7414.896575107015
 20
9707.74190280961
 30
0.0
  0
ENDBLK
  5
14B6E
330
14616
100
AcDbEntity
  8
0
 48
50.0
100
AcDbBlockEnd
  0
BLOCK
  5
14A72
330
146DC
100
AcDbEntity
  8
0
 48
50.0
100
AcDbBlockBegin
  2
*D15
 70
     1
 10
0.0
 20
0.0
 30
0.0
  3
*D15
  1

  0
LINE
  5
1F439
330
146DC
100
AcDbEntity
  8
寸法
 62
     0
 48
50.0
370
    -2
100
AcDbLine
 10
7469.896575107011
 20
5195.000000000005
 30
0.0
 11
7469.896575107011
 21
5439.142231267993
 31
0.0
  0
LINE
  5
1F43A
330
146DC
100
AcDbEntity
  8
寸法
 62
     0
 48
50.0
370
    -2
100
AcDbLine
 10
5259.896575106991
 20
5195.000000000007
 30
0.0
 11
5259.896575106991
 21
5439.142231267993
 31
0.0
  0
LINE
  5
1F43B
330
146DC
100
AcDbEntity
  8
寸法
 62
     0
 48
50.0
370
    -2
100
AcDbLine
 10
7469.896575107011
 20
5379.142231267993
 30
0.0
 11
5259.896575106991
 21
5379.142231267993
 31
0.0
  0
INSERT
  5
1F43C
330
146DC
100
AcDbEntity
  8
寸法
 62
     0
 48
50.0
370
    -2
100
AcDbBlockReference
  2
_DOTSMALL
 10
7469.896575107011
 20
5379.142231267993
 30
0.0
 41
100.0
 42
100.0
 43
100.0
  0
INSERT
  5
1F43D
330
146DC
100
AcDbEntity
  8
寸法
 62
     0
 48
50.0
370
    -2
100
AcDbBlockReference
  2
_DOTSMALL
 10
5259.896575106991
 20
5379.142231267993
 30
0.0
 41
100.0
 42
100.0
 43
100.0
 50
180.0
  0
MTEXT
  5
1F43E
330
146DC
100
AcDbEntity
  8
寸法
 62
     7
 48
50.0
100
AcDbMText
 10
6397.940818449586
 20
5479.154042291614
 30
0.0
 40
120.0
 41
0.0
 71
     5
 72
     1
  1
\A1;柱外寸法2210
  7
STYLE1
 73
     1
 44
1.0
1001
ACAD
1000
MTEXTBEGIN
1070
    73
1070
     1
1070
    44
1040
1.0
1070
    74
1070
     0
1000
MTEXTEND
  0
POINT
  5
1F43F
330
146DC
100
AcDbEntity
  8
DEFPOINTS
 62
     0
 48
50.0
100
AcDbPoint
 10
7469.896575107011
 20
5175.000000000006
 30
0.0
  0
POINT
  5
1F440
330
146DC
100
AcDbEntity
  8
DEFPOINTS
 62
     0
 48
50.0
100
AcDbPoint
 10
5259.896575106991
 20
5175.000000000006
 30
0.0
  0
POINT
  5
1F441
330
146DC
100
AcDbEntity
  8
DEFPOINTS
 62
     0
 48
50.0
100
AcDbPoint
 10
5259.896575106991
 20
5379.142231267993
 30
0.0
  0
ENDBLK
  5
14A7C
330
146DC
100
AcDbEntity
  8
0
 48
50.0
100
AcDbBlockEnd
  0
BLOCK
  5
14D64
330
14D63
100
AcDbEntity
  8
0
 48
50.0
100
AcDbBlockBegin
  2
*D16
 70
     1
 10
0.0
 20
0.0
 30
0.0
  3
*D16
  1

  0
LINE
  5
2350C
330
14D63
100
AcDbEntity
  8
寸法
 62
     0
 48
50.0
370
    -2
100
AcDbLine
 10
5283.03759125839
 20
8991.933683184575
 30
0.0
 11
5213.10096837934
 21
8730.926653290174
 31
0.0
  0
LINE
  5
2350D
330
14D63
100
AcDbEntity
  8
寸法
 62
     0
 48
50.0
370
    -2
100
AcDbLine
 10
6556.037591258405
 20
8991.933683184621
 30
0.0
 11
6486.100968379341
 21
8730.926653290174
 31
0.0
  0
LINE
  5
2350E
330
14D63
100
AcDbEntity
  8
寸法
 62
     0
 48
50.0
370
    -2
100
AcDbLine
 10
5229.177919925206
 20
8790.926653290172
 30
0.0
 11
6502.177919925209
 21
8790.926653290172
 31
0.0
  0
INSERT
  5
2350F
330
14D63
100
AcDbEntity
  8
寸法
 62
     0
 48
50.0
370
    -2
100
AcDbBlockReference
  2
_DOTSMALL
 10
5229.177919925206
 20
8790.926653290172
 30
0.0
 41
100.0
 42
100.0
 43
100.0
 50
180.0
  0
INSERT
  5
23510
330
14D63
100
AcDbEntity
  8
寸法
 62
     0
 48
50.0
370
    -2
100
AcDbBlockReference
  2
_DOTSMALL
 10
6502.177919925209
 20
8790.926653290172
 30
0.0
 41
100.0
 42
100.0
 43
100.0
  0
MTEXT
  5
23511
330
14D63
100
AcDbEntity
  8
寸法
 62
     7
 48
50.0
100
AcDbMText
 10
5765.319254562271
 20
8890.938464313796
 30
0.0
 40
120.0
 41
0.0
 71
     5
 72
     1
  1
\A1;1273
  7
STYLE1
 73
     1
 44
1.0
1001
ACAD
1000
MTEXTBEGIN
1070
    73
1070
     1
1070
    44
1040
1.0
1070
    74
1070
     0
1000
MTEXTEND
  0
POINT
  5
23512
330
14D63
100
AcDbEntity
  8
DEFPOINTS
 62
     0
 48
50.0
100
AcDbPoint
 10
5288.396575107013
 20
9011.933683184576
 30
0.0
  0
POINT
  5
23513
330
14D63
100
AcDbEntity
  8
DEFPOINTS
 62
     0
 48
50.0
100
AcDbPoint
 10
6561.396575107027
 20
9011.93368318462
 30
0.0
  0
POINT
  5
23514
330
14D63
100
AcDbEntity
  8
DEFPOINTS
 62
     0
 48
50.0
100
AcDbPoint
 10
6502.177919925209
 20
8790.926653290172
 30
0.0
  0
ENDBLK
  5
14D6E
330
14D63
100
AcDbEntity
  8
0
 48
50.0
100
AcDbBlockEnd
  0
BLOCK
  5
224C3
330
224B9
100
AcDbEntity
  8
0
 48
50.0
100
AcDbBlockBegin
  2
*D17
 70
     1
 10
0.0
 20
0.0
 30
0.0
  3
*D17
  1

  0
LINE
  5
224CE
330
224B9
100
AcDbEntity
  8
寸法
 62
     0
 48
50.0
370
    -2
100
AcDbLine
 10
7569.896575107009
 20
2779.999999999998
 30
0.0
 11
7569.896575107009
 21
2453.952670699622
 31
0.0
  0
LINE
  5
224CF
330
224B9
100
AcDbEntity
  8
寸法
 62
     0
 48
50.0
370
    -2
100
AcDbLine
 10
7369.89657510701
 20
2779.999999999999
 30
0.0
 11
7369.89657510701
 21
2453.952670699622
 31
0.0
  0
LINE
  5
224D0
330
224B9
100
AcDbEntity
  8
寸法
 62
     0
 48
50.0
370
    -2
100
AcDbLine
 10
7569.896575107009
 20
2513.952670699622
 30
0.0
 11
7369.89657510701
 21
2513.952670699622
 31
0.0
  0
INSERT
  5
224D1
330
224B9
100
AcDbEntity
  8
寸法
 62
     0
 48
50.0
370
    -2
100
AcDbBlockReference
  2
_DOTSMALL
 10
7569.896575107009
 20
2513.952670699622
 30
0.0
 41
100.0
 42
100.0
 43
100.0
  0
INSERT
  5
224D2
330
224B9
100
AcDbEntity
  8
寸法
 62
     0
 48
50.0
370
    -2
100
AcDbBlockReference
  2
_DOTSMALL
 10
7369.89657510701
 20
2513.952670699622
 30
0.0
 41
100.0
 42
100.0
 43
100.0
 50
180.0
  0
MTEXT
  5
224D3
330
224B9
100
AcDbEntity
  8
寸法
 62
     7
 48
50.0
100
AcDbMText
 10
7469.896575107011
 20
2613.964481723245
 30
0.0
 40
120.0
 41
0.0
 71
     5
 72
     1
  1
\A1;200
  7
STYLE1
 73
     1
 44
1.0
1001
ACAD
1000
MTEXTBEGIN
1070
    73
1070
     1
1070
    44
1040
1.0
1070
    74
1070
     0
1000
MTEXTEND
  0
POINT
  5
224D4
330
224B9
100
AcDbEntity
  8
DEFPOINTS
 62
     0
 48
50.0
100
AcDbPoint
 10
7569.896575107009
 20
2799.999999999998
 30
0.0
  0
POINT
  5
224D5
330
224B9
100
AcDbEntity
  8
DEFPOINTS
 62
     0
 48
50.0
100
AcDbPoint
 10
7369.89657510701
 20
2799.999999999999
 30
0.0
  0
POINT
  5
224D6
330
224B9
100
AcDbEntity
  8
DEFPOINTS
 62
     0
 48
50.0
100
AcDbPoint
 10
7369.89657510701
 20
2513.952670699622
 30
0.0
  0
ENDBLK
  5
224C4
330
224B9
100
AcDbEntity
  8
0
 48
50.0
100
AcDbBlockEnd
  0
BLOCK
  5
22A61
330
22A57
100
AcDbEntity
  8
0
 48
50.0
100
AcDbBlockBegin
  2
*D18
 70
     1
 10
0.0
 20
0.0
 30
0.0
  3
*D18
  1

  0
LINE
  5
22BEA
330
22A57
100
AcDbEntity
  8
寸法
 62
     0
 48
50.0
370
    -2
100
AcDbLine
 10
9385.693956914492
 20
4932.0
 30
0.0
 11
8800.78531551724
 21
4932.0
 31
0.0
  0
LINE
  5
22BEB
330
22A57
100
AcDbEntity
  8
寸法
 62
     0
 48
50.0
370
    -2
100
AcDbLine
 10
9385.693956914492
 20
3162.0
 30
0.0
 11
8800.785315517238
 21
3162.000000000001
 31
0.0
  0
LINE
  5
22BEC
330
22A57
100
AcDbEntity
  8
寸法
 62
     0
 48
50.0
370
    -2
100
AcDbLine
 10
8860.785315517238
 20
4932.0
 30
0.0
 11
8860.785315517238
 21
3162.000000000001
 31
0.0
  0
INSERT
  5
22BED
330
22A57
100
AcDbEntity
  8
寸法
 62
     0
 48
50.0
370
    -2
100
AcDbBlockReference
  2
_DOTSMALL
 10
8860.785315517238
 20
4932.0
 30
0.0
 41
100.0
 42
100.0
 43
100.0
 50
90.0
  0
INSERT
  5
22BEE
330
22A57
100
AcDbEntity
  8
寸法
 62
     0
 48
50.0
370
    -2
100
AcDbBlockReference
  2
_DOTSMALL
 10
8860.785315517238
 20
3162.000000000001
 30
0.0
 41
100.0
 42
100.0
 43
100.0
 50
270.0
  0
MTEXT
  5
22BEF
330
22A57
100
AcDbEntity
  8
寸法
 62
     7
 48
50.0
100
AcDbMText
 10
8760.785315517237
 20
4047.000000000001
 30
0.0
 40
120.0
 41
0.0
 71
     5
 72
     1
  1
\A1;有効開口部高サ1770
  7
STYLE1
 11
0.0000000000000001
 21
1.0
 31
0.0
 73
     1
 44
1.0
1001
ACAD
1000
MTEXTBEGIN
1070
    73
1070
     1
1070
    44
1040
1.0
1070
    74
1070
     0
1000
MTEXTEND
  0
POINT
  5
22BF0
330
22A57
100
AcDbEntity
  8
DEFPOINTS
 62
     0
 48
50.0
100
AcDbPoint
 10
9405.693956914493
 20
4932.0
 30
0.0
  0
POINT
  5
22BF1
330
22A57
100
AcDbEntity
  8
DEFPOINTS
 62
     0
 48
50.0
100
AcDbPoint
 10
9405.693956914493
 20
3162.0
 30
0.0
  0
POINT
  5
22BF2
330
22A57
100
AcDbEntity
  8
DEFPOINTS
 62
     0
 48
50.0
100
AcDbPoint
 10
8860.785315517238
 20
3162.000000000001
 30
0.0
  0
ENDBLK
  5
22A62
330
22A57
100
AcDbEntity
  8
0
 48
50.0
100
AcDbBlockEnd
  0
BLOCK
  5
22A6D
330
22A63
100
AcDbEntity
  8
0
 48
50.0
100
AcDbBlockBegin
  2
*D19
 70
     1
 10
0.0
 20
0.0
 30
0.0
  3
*D19
  1

  0
LINE
  5
22BE1
330
22A63
100
AcDbEntity
  8
寸法
 62
     0
 48
50.0
370
    -2
100
AcDbLine
 10
9385.693956914492
 20
4940.0
 30
0.0
 11
8501.943827731235
 21
4940.0
 31
0.0
  0
LINE
  5
22BE2
330
22A63
100
AcDbEntity
  8
寸法
 62
     0
 48
50.0
370
    -2
100
AcDbLine
 10
9385.693956914492
 20
3150.0
 30
0.0
 11
8501.943827731233
 21
3150.0
 31
0.0
  0
LINE
  5
22BE3
330
22A63
100
AcDbEntity
  8
寸法
 62
     0
 48
50.0
370
    -2
100
AcDbLine
 10
8561.943827731235
 20
4940.0
 30
0.0
 11
8561.943827731232
 21
3150.0
 31
0.0
  0
INSERT
  5
22BE4
330
22A63
100
AcDbEntity
  8
寸法
 62
     0
 48
50.0
370
    -2
100
AcDbBlockReference
  2
_DOTSMALL
 10
8561.943827731235
 20
4940.0
 30
0.0
 41
100.0
 42
100.0
 43
100.0
 50
90.0
  0
INSERT
  5
22BE5
330
22A63
100
AcDbEntity
  8
寸法
 62
     0
 48
50.0
370
    -2
100
AcDbBlockReference
  2
_DOTSMALL
 10
8561.943827731232
 20
3150.0
 30
0.0
 41
100.0
 42
100.0
 43
100.0
 50
270.0
  0
MTEXT
  5
22BE6
330
22A63
100
AcDbEntity
  8
寸法
 62
     7
 48
50.0
100
AcDbMText
 10
8461.943827731232
 20
4045.000000000001
 30
0.0
 40
120.0
 41
0.0
 71
     5
 72
     1
  1
\A1;1790
  7
STYLE1
 11
0.0000000000000001
 21
1.0
 31
0.0
 73
     1
 44
1.0
1001
ACAD
1000
MTEXTBEGIN
1070
    73
1070
     1
1070
    44
1040
1.0
1070
    74
1070
     0
1000
MTEXTEND
  0
POINT
  5
22BE7
330
22A63
100
AcDbEntity
  8
DEFPOINTS
 62
     0
 48
50.0
100
AcDbPoint
 10
9405.693956914493
 20
4940.0
 30
0.0
  0
POINT
  5
22BE8
330
22A63
100
AcDbEntity
  8
DEFPOINTS
 62
     0
 48
50.0
100
AcDbPoint
 10
9405.693956914493
 20
3150.0
 30
0.0
  0
POINT
  5
22BE9
330
22A63
100
AcDbEntity
  8
DEFPOINTS
 62
     0
 48
50.0
100
AcDbPoint
 10
8561.943827731232
 20
3150.0
 30
0.0
  0
ENDBLK
  5
22A6E
330
22A63
100
AcDbEntity
  8
0
 48
50.0
100
AcDbBlockEnd
  0
BLOCK
  5
22A79
330
22A6F
100
AcDbEntity
  8
0
 48
50.0
100
AcDbBlockBegin
  2
*D20
 70
     1
 10
0.0
 20
0.0
 30
0.0
  3
*D20
  1

  0
LINE
  5
22BD8
330
22A6F
100
AcDbEntity
  8
寸法
 62
     0
 48
50.0
370
    -2
100
AcDbLine
 10
9385.693956914492
 20
3100.0
 30
0.0
 11
8201.943827731232
 21
3100.0
 31
0.0
  0
LINE
  5
22BD9
330
22A6F
100
AcDbEntity
  8
寸法
 62
     0
 48
50.0
370
    -2
100
AcDbLine
 10
9325.693956914493
 20
5175.000000000005
 30
0.0
 11
8201.943827731232
 21
5175.000000000005
 31
0.0
  0
LINE
  5
22BDA
330
22A6F
100
AcDbEntity
  8
寸法
 62
     0
 48
50.0
370
    -2
100
AcDbLine
 10
8261.943827731231
 20
3100.0
 30
0.0
 11
8261.943827731233
 21
5175.000000000005
 31
0.0
  0
INSERT
  5
22BDB
330
22A6F
100
AcDbEntity
  8
寸法
 62
     0
 48
50.0
370
    -2
100
AcDbBlockReference
  2
_DOTSMALL
 10
8261.943827731231
 20
3100.0
 30
0.0
 41
100.0
 42
100.0
 43
100.0
 50
270.0
  0
INSERT
  5
22BDC
330
22A6F
100
AcDbEntity
  8
寸法
 62
     0
 48
50.0
370
    -2
100
AcDbBlockReference
  2
_DOTSMALL
 10
8261.943827731233
 20
5175.000000000005
 30
0.0
 41
100.0
 42
100.0
 43
100.0
 50
90.0
  0
MTEXT
  5
22BDD
330
22A6F
100
AcDbEntity
  8
寸法
 62
     7
 48
50.0
100
AcDbMText
 10
8161.932016707609
 20
4137.500000000003
 30
0.0
 40
120.0
 41
0.0
 71
     5
 72
     1
  1
\A1;2075
  7
STYLE1
 11
0.0000000000000001
 21
1.0
 31
0.0
 73
     1
 44
1.0
1001
ACAD
1000
MTEXTBEGIN
1070
    73
1070
     1
1070
    44
1040
1.0
1070
    74
1070
     0
1000
MTEXTEND
  0
POINT
  5
22BDE
330
22A6F
100
AcDbEntity
  8
DEFPOINTS
 62
     0
 48
50.0
100
AcDbPoint
 10
9405.693956914493
 20
3100.0
 30
0.0
  0
POINT
  5
22BDF
330
22A6F
100
AcDbEntity
  8
DEFPOINTS
 62
     0
 48
50.0
100
AcDbPoint
 10
9345.693956914493
 20
5175.000000000005
 30
0.0
  0
POINT
  5
22BE0
330
22A6F
100
AcDbEntity
  8
DEFPOINTS
 62
     0
 48
50.0
100
AcDbPoint
 10
8261.943827731233
 20
5175.000000000005
 30
0.0
  0
ENDBLK
  5
22A7A
330
22A6F
100
AcDbEntity
  8
0
 48
50.0
100
AcDbBlockEnd
  0
BLOCK
  5
22A86
330
22A7B
100
AcDbEntity
  8
0
 48
50.0
100
AcDbBlockBegin
  2
*D21
 70
     1
 10
0.0
 20
0.0
 30
0.0
  3
*D21
  1

  0
LINE
  5
22BCE
330
22A7B
100
AcDbEntity
  8
寸法
 62
     0
 48
50.0
370
    -2
100
AcDbLine
 10
9330.693956914492
 20
3100.0
 30
0.0
 11
8201.943827731232
 21
3100.0
 31
0.0
  0
LINE
  5
22BCF
330
22A7B
100
AcDbEntity
  8
寸法
 62
     0
 48
50.0
370
    -2
100
AcDbLine
 10
8329.192881019361
 20
3000.0
 30
0.0
 11
8201.943827731232
 21
3000.0
 31
0.0
  0
LINE
  5
22BD0
330
22A7B
100
AcDbEntity
  8
寸法
 62
     0
 48
50.0
370
    -2
100
AcDbLine
 10
8261.943827731233
 20
3100.0
 30
0.0
 11
8261.943827731233
 21
3000.0
 31
0.0
  0
LINE
  5
22BD1
330
22A7B
100
AcDbEntity
  8
寸法
 62
     0
 48
50.0
370
    -2
100
AcDbLine
 10
8261.943827731233
 20
3000.0
 30
0.0
 11
8261.943827731233
 21
2627.905511811023
 31
0.0
  0
INSERT
  5
22BD2
330
22A7B
100
AcDbEntity
  8
寸法
 62
     0
 48
50.0
370
    -2
100
AcDbBlockReference
  2
_DOTSMALL
 10
8261.943827731233
 20
3100.0
 30
0.0
 41
100.0
 42
100.0
 43
100.0
 50
90.0
  0
INSERT
  5
22BD3
330
22A7B
100
AcDbEntity
  8
寸法
 62
     0
 48
50.0
370
    -2
100
AcDbBlockReference
  2
_DOTSMALL
 10
8261.943827731233
 20
3000.0
 30
0.0
 41
100.0
 42
100.0
 43
100.0
 50
270.0
  0
MTEXT
  5
22BD4
330
22A7B
100
AcDbEntity
  8
寸法
 62
     7
 48
50.0
100
AcDbMText
 10
8161.943827731233
 20
2763.952755905513
 30
0.0
 40
120.0
 41
0.0
 71
     5
 72
     1
  1
\A1;100
  7
STYLE1
 11
0.0000000000000001
 21
1.0
 31
0.0
 73
     1
 44
1.0
1001
ACAD
1000
MTEXTBEGIN
1070
    73
1070
     1
1070
    44
1040
1.0
1070
    74
1070
     0
1000
MTEXTEND
  0
POINT
  5
22BD5
330
22A7B
100
AcDbEntity
  8
DEFPOINTS
 62
     0
 48
50.0
100
AcDbPoint
 10
9350.693956914494
 20
3100.0
 30
0.0
  0
POINT
  5
22BD6
330
22A7B
100
AcDbEntity
  8
DEFPOINTS
 62
     0
 48
50.0
100
AcDbPoint
 10
8349.19288101936
 20
3000.0
 30
0.0
  0
POINT
  5
22BD7
330
22A7B
100
AcDbEntity
  8
DEFPOINTS
 62
     0
 48
50.0
100
AcDbPoint
 10
8261.943827731233
 20
3000.0
 30
0.0
  0
ENDBLK
  5
22A87
330
22A7B
100
AcDbEntity
  8
0
 48
50.0
100
AcDbBlockEnd
  0
BLOCK
  5
22A94
330
22A88
100
AcDbEntity
  8
0
 48
50.0
100
AcDbBlockBegin
  2
*D22
 70
     1
 10
0.0
 20
0.0
 30
0.0
  3
*D22
  1

  0
LINE
  5
22BC3
330
22A88
100
AcDbEntity
  8
寸法
 62
     0
 48
50.0
370
    -2
100
AcDbLine
 10
9385.693956914492
 20
3150.0
 30
0.0
 11
8501.943827731233
 21
3150.0
 31
0.0
  0
LINE
  5
22BC4
330
22A88
100
AcDbEntity
  8
寸法
 62
     0
 48
50.0
370
    -2
100
AcDbLine
 10
9330.693956914492
 20
3100.0
 30
0.0
 11
8501.943827731233
 21
3100.0
 31
0.0
  0
LINE
  5
22BC5
330
22A88
100
AcDbEntity
  8
寸法
 62
     0
 48
50.0
370
    -2
100
AcDbLine
 10
8561.943827731232
 20
3150.0
 30
0.0
 11
8561.943827731232
 21
3250.000000000001
 31
0.0
  0
LINE
  5
22BC6
330
22A88
100
AcDbEntity
  8
寸法
 62
     0
 48
50.0
370
    -2
100
AcDbLine
 10
8561.943827731232
 20
3100.0
 30
0.0
 11
8561.943827731232
 21
2687.905511811023
 31
0.0
  0
LINE
  5
22BC7
330
22A88
100
AcDbEntity
  8
寸法
 62
     0
 48
50.0
370
    -2
100
AcDbLine
 10
8561.943827731232
 20
3150.0
 30
0.0
 11
8561.943827731232
 21
3100.0
 31
0.0
  0
INSERT
  5
22BC8
330
22A88
100
AcDbEntity
  8
寸法
 62
     0
 48
50.0
370
    -2
100
AcDbBlockReference
  2
_DOTSMALL
 10
8561.943827731232
 20
3150.0
 30
0.0
 41
100.0
 42
100.0
 43
100.0
 50
270.0
  0
INSERT
  5
22BC9
330
22A88
100
AcDbEntity
  8
寸法
 62
     0
 48
50.0
370
    -2
100
AcDbBlockReference
  2
_DOTSMALL
 10
8561.943827731232
 20
3100.0
 30
0.0
 41
100.0
 42
100.0
 43
100.0
 50
90.0
  0
MTEXT
  5
22BCA
330
22A88
100
AcDbEntity
  8
寸法
 62
     7
 48
50.0
100
AcDbMText
 10
8461.943827731232
 20
2793.952755905512
 30
0.0
 40
120.0
 41
0.0
 71
     5
 72
     1
  1
\A1;50
  7
STYLE1
 11
0.0000000000000001
 21
1.0
 31
0.0
 73
     1
 44
1.0
1001
ACAD
1000
MTEXTBEGIN
1070
    73
1070
     1
1070
    44
1040
1.0
1070
    74
1070
     0
1000
MTEXTEND
  0
POINT
  5
22BCB
330
22A88
100
AcDbEntity
  8
DEFPOINTS
 62
     0
 48
50.0
100
AcDbPoint
 10
9405.693956914493
 20
3150.0
 30
0.0
  0
POINT
  5
22BCC
330
22A88
100
AcDbEntity
  8
DEFPOINTS
 62
     0
 48
50.0
100
AcDbPoint
 10
9350.693956914494
 20
3100.0
 30
0.0
  0
POINT
  5
22BCD
330
22A88
100
AcDbEntity
  8
DEFPOINTS
 62
     0
 48
50.0
100
AcDbPoint
 10
8561.943827731232
 20
3100.0
 30
0.0
  0
ENDBLK
  5
22A95
330
22A88
100
AcDbEntity
  8
0
 48
50.0
100
AcDbBlockEnd
  0
BLOCK
  5
22AA0
330
22A96
100
AcDbEntity
  8
0
 48
50.0
100
AcDbBlockBegin
  2
*D23
 70
     1
 10
0.0
 20
0.0
 30
0.0
  3
*D23
  1

  0
LINE
  5
22BBA
330
22A96
100
AcDbEntity
  8
寸法
 62
     0
 48
50.0
370
    -2
100
AcDbLine
 10
11635.69395691449
 20
3100.0
 30
0.0
 11
12380.62111488662
 21
3100.0
 31
0.0
  0
LINE
  5
22BBB
330
22A96
100
AcDbEntity
  8
寸法
 62
     0
 48
50.0
370
    -2
100
AcDbLine
 10
11715.69395691449
 20
5120.0
 30
0.0
 11
12380.62111488662
 21
5120.0
 31
0.0
  0
LINE
  5
22BBC
330
22A96
100
AcDbEntity
  8
寸法
 62
     0
 48
50.0
370
    -2
100
AcDbLine
 10
12320.62111488662
 20
3100.0
 30
0.0
 11
12320.62111488662
 21
5120.0
 31
0.0
  0
INSERT
  5
22BBD
330
22A96
100
AcDbEntity
  8
寸法
 62
     0
 48
50.0
370
    -2
100
AcDbBlockReference
  2
_DOTSMALL
 10
12320.62111488662
 20
3100.0
 30
0.0
 41
100.0
 42
100.0
 43
100.0
 50
270.0
  0
INSERT
  5
22BBE
330
22A96
100
AcDbEntity
  8
寸法
 62
     0
 48
50.0
370
    -2
100
AcDbBlockReference
  2
_DOTSMALL
 10
12320.62111488662
 20
5120.0
 30
0.0
 41
100.0
 42
100.0
 43
100.0
 50
90.0
  0
MTEXT
  5
22BBF
330
22A96
100
AcDbEntity
  8
寸法
 62
     7
 48
50.0
100
AcDbMText
 10
12220.609303863
 20
4110.000000000002
 30
0.0
 40
120.0
 41
0.0
 71
     5
 72
     1
  1
\A1;2020
  7
STYLE1
 11
0.0000000000000001
 21
1.0
 31
0.0
 73
     1
 44
1.0
1001
ACAD
1000
MTEXTBEGIN
1070
    73
1070
     1
1070
    44
1040
1.0
1070
    74
1070
     0
1000
MTEXTEND
  0
POINT
  5
22BC0
330
22A96
100
AcDbEntity
  8
DEFPOINTS
 62
     0
 48
50.0
100
AcDbPoint
 10
11615.69395691449
 20
3100.0
 30
0.0
  0
POINT
  5
22BC1
330
22A96
100
AcDbEntity
  8
DEFPOINTS
 62
     0
 48
50.0
100
AcDbPoint
 10
11695.69395691449
 20
5120.0
 30
0.0
  0
POINT
  5
22BC2
330
22A96
100
AcDbEntity
  8
DEFPOINTS
 62
     0
 48
50.0
100
AcDbPoint
 10
12320.62111488662
 20
5120.0
 30
0.0
  0
ENDBLK
  5
22AA1
330
22A96
100
AcDbEntity
  8
0
 48
50.0
100
AcDbBlockEnd
  0
BLOCK
  5
22AAC
330
22AA2
100
AcDbEntity
  8
0
 48
50.0
100
AcDbBlockBegin
  2
*D24
 70
     1
 10
0.0
 20
0.0
 30
0.0
  3
*D24
  1

  0
LINE
  5
22BB1
330
22AA2
100
AcDbEntity
  8
寸法
 62
     0
 48
50.0
370
    -2
100
AcDbLine
 10
11615.69395691449
 20
5141.810679611654
 30
0.0
 11
11615.69395691449
 21
5633.657453579304
 31
0.0
  0
LINE
  5
22BB2
330
22AA2
100
AcDbEntity
  8
寸法
 62
     0
 48
50.0
370
    -2
100
AcDbLine
 10
9405.693956914493
 20
5191.001618122976
 30
0.0
 11
9405.693956914493
 21
5633.657453579304
 31
0.0
  0
LINE
  5
22BB3
330
22AA2
100
AcDbEntity
  8
寸法
 62
     0
 48
50.0
370
    -2
100
AcDbLine
 10
11615.69395691449
 20
5573.657453579304
 30
0.0
 11
9405.693956914493
 21
5573.657453579304
 31
0.0
  0
INSERT
  5
22BB4
330
22AA2
100
AcDbEntity
  8
寸法
 62
     0
 48
50.0
370
    -2
100
AcDbBlockReference
  2
_DOTSMALL
 10
11615.69395691449
 20
5573.657453579304
 30
0.0
 41
100.0
 42
100.0
 43
100.0
  0
INSERT
  5
22BB5
330
22AA2
100
AcDbEntity
  8
寸法
 62
     0
 48
50.0
370
    -2
100
AcDbBlockReference
  2
_DOTSMALL
 10
9405.693956914493
 20
5573.657453579304
 30
0.0
 41
100.0
 42
100.0
 43
100.0
 50
180.0
  0
MTEXT
  5
22BB6
330
22AA2
100
AcDbEntity
  8
寸法
 62
     7
 48
50.0
100
AcDbMText
 10
10500.338693985
 20
5673.669264602926
 30
0.0
 40
120.0
 41
0.0
 71
     5
 72
     1
  1
\A1;柱外寸法2210
  7
STYLE1
 73
     1
 44
1.0
1001
ACAD
1000
MTEXTBEGIN
1070
    73
1070
     1
1070
    44
1040
1.0
1070
    74
1070
     0
1000
MTEXTEND
  0
POINT
  5
22BB7
330
22AA2
100
AcDbEntity
  8
DEFPOINTS
 62
     0
 48
50.0
100
AcDbPoint
 10
11615.69395691449
 20
5121.810679611654
 30
0.0
  0
POINT
  5
22BB8
330
22AA2
100
AcDbEntity
  8
DEFPOINTS
 62
     0
 48
50.0
100
AcDbPoint
 10
9405.693956914493
 20
5171.001618122977
 30
0.0
  0
POINT
  5
22BB9
330
22AA2
100
AcDbEntity
  8
DEFPOINTS
 62
     0
 48
50.0
100
AcDbPoint
 10
9405.693956914493
 20
5573.657453579304
 30
0.0
  0
ENDBLK
  5
22AAD
330
22AA2
100
AcDbEntity
  8
0
 48
50.0
100
AcDbBlockEnd
  0
BLOCK
  5
22ABA
330
22AAE
100
AcDbEntity
  8
0
 48
50.0
100
AcDbBlockBegin
  2
*D25
 70
     1
 10
0.0
 20
0.0
 30
0.0
  3
*D25
  1

  0
LINE
  5
22BA6
330
22AAE
100
AcDbEntity
  8
寸法
 62
     0
 48
50.0
370
    -2
100
AcDbLine
 10
9405.693956914493
 20
5191.001618122976
 30
0.0
 11
9405.693956914493
 21
5633.657453579304
 31
0.0
  0
LINE
  5
22BA7
330
22AAE
100
AcDbEntity
  8
寸法
 62
     0
 48
50.0
370
    -2
100
AcDbLine
 10
9345.693956914493
 20
5195.000000000004
 30
0.0
 11
9345.693956914493
 21
5633.657453579304
 31
0.0
  0
LINE
  5
22BA8
330
22AAE
100
AcDbEntity
  8
寸法
 62
     0
 48
50.0
370
    -2
100
AcDbLine
 10
9405.693956914493
 20
5573.657453579304
 30
0.0
 11
9505.693956914493
 21
5573.657453579304
 31
0.0
  0
LINE
  5
22BA9
330
22AAE
100
AcDbEntity
  8
寸法
 62
     0
 48
50.0
370
    -2
100
AcDbLine
 10
9345.693956914493
 20
5573.657453579304
 30
0.0
 11
8926.418366363312
 21
5573.657453579304
 31
0.0
  0
LINE
  5
22BAA
330
22AAE
100
AcDbEntity
  8
寸法
 62
     0
 48
50.0
370
    -2
100
AcDbLine
 10
9405.693956914493
 20
5573.657453579304
 30
0.0
 11
9345.693956914493
 21
5573.657453579304
 31
0.0
  0
INSERT
  5
22BAB
330
22AAE
100
AcDbEntity
  8
寸法
 62
     0
 48
50.0
370
    -2
100
AcDbBlockReference
  2
_DOTSMALL
 10
9405.693956914493
 20
5573.657453579304
 30
0.0
 41
100.0
 42
100.0
 43
100.0
 50
180.0
  0
INSERT
  5
22BAC
330
22AAE
100
AcDbEntity
  8
寸法
 62
     0
 48
50.0
370
    -2
100
AcDbBlockReference
  2
_DOTSMALL
 10
9345.693956914493
 20
5573.657453579304
 30
0.0
 41
100.0
 42
100.0
 43
100.0
  0
MTEXT
  5
22BAD
330
22AAE
100
AcDbEntity
  8
寸法
 62
     7
 48
50.0
100
AcDbMText
 10
9036.056161638901
 20
5673.657453579305
 30
0.0
 40
120.0
 41
0.0
 71
     5
 72
     1
  1
\A1;60
  7
STYLE1
 73
     1
 44
1.0
1001
ACAD
1000
MTEXTBEGIN
1070
    73
1070
     1
1070
    44
1040
1.0
1070
    74
1070
     0
1000
MTEXTEND
  0
POINT
  5
22BAE
330
22AAE
100
AcDbEntity
  8
DEFPOINTS
 62
     0
 48
50.0
100
AcDbPoint
 10
9405.693956914493
 20
5171.001618122977
 30
0.0
  0
POINT
  5
22BAF
330
22AAE
100
AcDbEntity
  8
DEFPOINTS
 62
     0
 48
50.0
100
AcDbPoint
 10
9345.693956914493
 20
5175.000000000005
 30
0.0
  0
POINT
  5
22BB0
330
22AAE
100
AcDbEntity
  8
DEFPOINTS
 62
     0
 48
50.0
100
AcDbPoint
 10
9345.693956914493
 20
5573.657453579304
 30
0.0
  0
ENDBLK
  5
22ABB
330
22AAE
100
AcDbEntity
  8
0
 48
50.0
100
AcDbBlockEnd
  0
BLOCK
  5
22AC6
330
22ABC
100
AcDbEntity
  8
0
 48
50.0
100
AcDbBlockBegin
  2
*D26
 70
     1
 10
0.0
 20
0.0
 30
0.0
  3
*D26
  1

  0
LINE
  5
22B9D
330
22ABC
100
AcDbEntity
  8
寸法
 62
     0
 48
50.0
370
    -2
100
AcDbLine
 10
11695.69395691449
 20
5140.000000000001
 30
0.0
 11
11695.69395691449
 21
5852.859287253596
 31
0.0
  0
LINE
  5
22B9E
330
22ABC
100
AcDbEntity
  8
寸法
 62
     0
 48
50.0
370
    -2
100
AcDbLine
 10
9345.693956914493
 20
5195.000000000004
 30
0.0
 11
9345.693956914493
 21
5852.859287253596
 31
0.0
  0
LINE
  5
22B9F
330
22ABC
100
AcDbEntity
  8
寸法
 62
     0
 48
50.0
370
    -2
100
AcDbLine
 10
11695.69395691449
 20
5792.859287253596
 30
0.0
 11
9345.693956914493
 21
5792.859287253596
 31
0.0
  0
INSERT
  5
22BA0
330
22ABC
100
AcDbEntity
  8
寸法
 62
     0
 48
50.0
370
    -2
100
AcDbBlockReference
  2
_DOTSMALL
 10
11695.69395691449
 20
5792.859287253596
 30
0.0
 41
100.0
 42
100.0
 43
100.0
  0
INSERT
  5
22BA1
330
22ABC
100
AcDbEntity
  8
寸法
 62
     0
 48
50.0
370
    -2
100
AcDbBlockReference
  2
_DOTSMALL
 10
9345.693956914493
 20
5792.859287253596
 30
0.0
 41
100.0
 42
100.0
 43
100.0
 50
180.0
  0
MTEXT
  5
22BA2
330
22ABC
100
AcDbEntity
  8
寸法
 62
     7
 48
50.0
100
AcDbMText
 10
10580.03781100696
 20
5892.871098277217
 30
0.0
 40
120.0
 41
0.0
 71
     5
 72
     1
  1
\A1;2350
  7
STYLE1
 73
     1
 44
1.0
1001
ACAD
1000
MTEXTBEGIN
1070
    73
1070
     1
1070
    44
1040
1.0
1070
    74
1070
     0
1000
MTEXTEND
  0
POINT
  5
22BA3
330
22ABC
100
AcDbEntity
  8
DEFPOINTS
 62
     0
 48
50.0
100
AcDbPoint
 10
11695.69395691449
 20
5120.0
 30
0.0
  0
POINT
  5
22BA4
330
22ABC
100
AcDbEntity
  8
DEFPOINTS
 62
     0
 48
50.0
100
AcDbPoint
 10
9345.693956914493
 20
5175.000000000005
 30
0.0
  0
POINT
  5
22BA5
330
22ABC
100
AcDbEntity
  8
DEFPOINTS
 62
     0
 48
50.0
100
AcDbPoint
 10
9345.693956914493
 20
5792.859287253596
 30
0.0
  0
ENDBLK
  5
22AC7
330
22ABC
100
AcDbEntity
  8
0
 48
50.0
100
AcDbBlockEnd
  0
BLOCK
  5
22AD3
330
22AC8
100
AcDbEntity
  8
0
 48
50.0
100
AcDbBlockBegin
  2
*D27
 70
     1
 10
0.0
 20
0.0
 30
0.0
  3
*D27
  1

  0
LINE
  5
22B93
330
22AC8
100
AcDbEntity
  8
寸法
 62
     0
 48
50.0
370
    -2
100
AcDbLine
 10
11615.69395691449
 20
5141.810679611654
 30
0.0
 11
11615.69395691449
 21
5633.657453579304
 31
0.0
  0
LINE
  5
22B94
330
22AC8
100
AcDbEntity
  8
寸法
 62
     0
 48
50.0
370
    -2
100
AcDbLine
 10
11695.69395691449
 20
5140.000000000001
 30
0.0
 11
11695.69395691449
 21
5633.657453579304
 31
0.0
  0
LINE
  5
22B95
330
22AC8
100
AcDbEntity
  8
寸法
 62
     0
 48
50.0
370
    -2
100
AcDbLine
 10
11615.69395691449
 20
5573.657453579304
 30
0.0
 11
11695.69395691449
 21
5573.657453579304
 31
0.0
  0
LINE
  5
22B96
330
22AC8
100
AcDbEntity
  8
寸法
 62
     0
 48
50.0
370
    -2
100
AcDbLine
 10
11695.69395691449
 20
5573.657453579304
 30
0.0
 11
12007.78844510347
 21
5573.657453579304
 31
0.0
  0
INSERT
  5
22B97
330
22AC8
100
AcDbEntity
  8
寸法
 62
     0
 48
50.0
370
    -2
100
AcDbBlockReference
  2
_DOTSMALL
 10
11615.69395691449
 20
5573.657453579304
 30
0.0
 41
100.0
 42
100.0
 43
100.0
 50
180.0
  0
INSERT
  5
22B98
330
22AC8
100
AcDbEntity
  8
寸法
 62
     0
 48
50.0
370
    -2
100
AcDbBlockReference
  2
_DOTSMALL
 10
11695.69395691449
 20
5573.657453579304
 30
0.0
 41
100.0
 42
100.0
 43
100.0
  0
MTEXT
  5
22B99
330
22AC8
100
AcDbEntity
  8
寸法
 62
     7
 48
50.0
100
AcDbMText
 10
11901.74120100898
 20
5673.657453579305
 30
0.0
 40
120.0
 41
0.0
 71
     5
 72
     1
  1
\A1;80
  7
STYLE1
 73
     1
 44
1.0
1001
ACAD
1000
MTEXTBEGIN
1070
    73
1070
     1
1070
    44
1040
1.0
1070
    74
1070
     0
1000
MTEXTEND
  0
POINT
  5
22B9A
330
22AC8
100
AcDbEntity
  8
DEFPOINTS
 62
     0
 48
50.0
100
AcDbPoint
 10
11615.69395691449
 20
5121.810679611654
 30
0.0
  0
POINT
  5
22B9B
330
22AC8
100
AcDbEntity
  8
DEFPOINTS
 62
     0
 48
50.0
100
AcDbPoint
 10
11695.69395691449
 20
5120.0
 30
0.0
  0
POINT
  5
22B9C
330
22AC8
100
AcDbEntity
  8
DEFPOINTS
 62
     0
 48
50.0
100
AcDbPoint
 10
11695.69395691449
 20
5573.657453579304
 30
0.0
  0
ENDBLK
  5
22AD4
330
22AC8
100
AcDbEntity
  8
0
 48
50.0
100
AcDbBlockEnd
  0
BLOCK
  5
22AE0
330
22AD5
100
AcDbEntity
  8
0
 48
50.0
100
AcDbBlockBegin
  2
*D28
 70
     1
 10
0.0
 20
0.0
 30
0.0
  3
*D28
  1

  0
LINE
  5
22B89
330
22AD5
100
AcDbEntity
  8
寸法
 62
     0
 48
50.0
370
    -2
100
AcDbLine
 10
9345.098243205594
 20
5174.297707069662
 30
0.0
 11
8729.163804100322
 21
5192.011857343992
 31
0.0
  0
LINE
  5
22B8A
330
22AD5
100
AcDbEntity
  8
寸法
 62
     0
 48
50.0
370
    -2
100
AcDbLine
 10
9341.044787648966
 20
5033.35598330395
 30
0.0
 11
8725.110348543694
 21
5051.070133578279
 31
0.0
  0
LINE
  5
22B8B
330
22AD5
100
AcDbEntity
  8
寸法
 62
     0
 48
50.0
370
    -2
100
AcDbLine
 10
8785.085550146126
 20
5049.345258873332
 30
0.0
 11
8789.13900570275
 21
5190.286982639044
 31
0.0
  0
LINE
  5
22B8C
330
22AD5
100
AcDbEntity
  8
寸法
 62
     0
 48
50.0
370
    -2
100
AcDbLine
 10
8789.13900570275
 20
5190.286982639044
 30
0.0
 11
8799.488253932436
 21
5550.13819225363
 31
0.0
  0
INSERT
  5
22B8D
330
22AD5
100
AcDbEntity
  8
寸法
 62
     0
 48
50.0
370
    -2
100
AcDbBlockReference
  2
_DOTSMALL
 10
8785.085550146126
 20
5049.345258873332
 30
0.0
 41
100.0
 42
100.0
 43
100.0
 50
268.3526390256378
  0
INSERT
  5
22B8E
330
22AD5
100
AcDbEntity
  8
寸法
 62
     0
 48
50.0
370
    -2
100
AcDbBlockReference
  2
_DOTSMALL
 10
8789.13900570275
 20
5190.286982639044
 30
0.0
 41
100.0
 42
100.0
 43
100.0
 50
88.35263902563776
  0
MTEXT
  5
22B8F
330
22AD5
100
AcDbEntity
  8
寸法
 62
     7
 48
50.0
100
AcDbMText
 10
8695.792356067665
 20
5423.066713289943
 30
0.0
 40
120.0
 41
0.0
 71
     5
 72
     1
  1
\A1;141
  7
STYLE1
 11
0.0287479117491237
 21
0.9995866933738488
 31
0.0
 73
     1
 44
1.0
1001
ACAD
1000
MTEXTBEGIN
1070
    73
1070
     1
1070
    44
1040
1.0
1070
    74
1070
     0
1000
MTEXTEND
  0
POINT
  5
22B90
330
22AD5
100
AcDbEntity
  8
DEFPOINTS
 62
     0
 48
50.0
100
AcDbPoint
 10
9365.089977073072
 20
5173.72274883468
 30
0.0
  0
POINT
  5
22B91
330
22AD5
100
AcDbEntity
  8
DEFPOINTS
 62
     0
 48
50.0
100
AcDbPoint
 10
9361.036521516446
 20
5032.781025068967
 30
0.0
  0
POINT
  5
22B92
330
22AD5
100
AcDbEntity
  8
DEFPOINTS
 62
     0
 48
50.0
100
AcDbPoint
 10
8785.085550146126
 20
5049.345258873332
 30
0.0
  0
ENDBLK
  5
22AE1
330
22AD5
100
AcDbEntity
  8
0
 48
50.0
100
AcDbBlockEnd
  0
BLOCK
  5
22AEC
330
22AE2
100
AcDbEntity
  8
0
 48
50.0
100
AcDbBlockBegin
  2
*D29
 70
     1
 10
0.0
 20
0.0
 30
0.0
  3
*D29
  1

  0
LINE
  5
22B80
330
22AE2
100
AcDbEntity
  8
寸法
 62
     0
 48
50.0
370
    -2
100
AcDbLine
 10
9313.193956914496
 20
2799.999999999999
 30
0.0
 11
9123.693953667858
 21
2799.999999999999
 31
0.0
  0
LINE
  5
22B81
330
22AE2
100
AcDbEntity
  8
寸法
 62
     0
 48
50.0
370
    -2
100
AcDbLine
 10
9288.193956914494
 20
3000.0
 30
0.0
 11
9123.693953667858
 21
3000.0
 31
0.0
  0
LINE
  5
22B82
330
22AE2
100
AcDbEntity
  8
寸法
 62
     0
 48
50.0
370
    -2
100
AcDbLine
 10
9183.693953667859
 20
2799.999999999999
 30
0.0
 11
9183.693953667859
 21
3000.0
 31
0.0
  0
INSERT
  5
22B83
330
22AE2
100
AcDbEntity
  8
寸法
 62
     0
 48
50.0
370
    -2
100
AcDbBlockReference
  2
_DOTSMALL
 10
9183.693953667859
 20
2799.999999999999
 30
0.0
 41
100.0
 42
100.0
 43
100.0
 50
270.0
  0
INSERT
  5
22B84
330
22AE2
100
AcDbEntity
  8
寸法
 62
     0
 48
50.0
370
    -2
100
AcDbBlockReference
  2
_DOTSMALL
 10
9183.693953667859
 20
3000.0
 30
0.0
 41
100.0
 42
100.0
 43
100.0
 50
90.0
  0
MTEXT
  5
22B85
330
22AE2
100
AcDbEntity
  8
寸法
 62
     7
 48
50.0
100
AcDbMText
 10
9083.682142644237
 20
2900.000000000001
 30
0.0
 40
120.0
 41
0.0
 71
     5
 72
     1
  1
\A1;200
  7
STYLE1
 11
0.0000000000000001
 21
1.0
 31
0.0
 73
     1
 44
1.0
1001
ACAD
1000
MTEXTBEGIN
1070
    73
1070
     1
1070
    44
1040
1.0
1070
    74
1070
     0
1000
MTEXTEND
  0
POINT
  5
22B86
330
22AE2
100
AcDbEntity
  8
DEFPOINTS
 62
     0
 48
50.0
100
AcDbPoint
 10
9333.193956914497
 20
2799.999999999999
 30
0.0
  0
POINT
  5
22B87
330
22AE2
100
AcDbEntity
  8
DEFPOINTS
 62
     0
 48
50.0
100
AcDbPoint
 10
9308.193956914491
 20
3000.0
 30
0.0
  0
POINT
  5
22B88
330
22AE2
100
AcDbEntity
  8
DEFPOINTS
 62
     0
 48
50.0
100
AcDbPoint
 10
9183.693953667859
 20
3000.0
 30
0.0
  0
ENDBLK
  5
22AED
330
22AE2
100
AcDbEntity
  8
0
 48
50.0
100
AcDbBlockEnd
  0
BLOCK
  5
22AF8
330
22AEE
100
AcDbEntity
  8
0
 48
50.0
100
AcDbBlockBegin
  2
*D30
 70
     1
 10
0.0
 20
0.0
 30
0.0
  3
*D30
  1

  0
LINE
  5
22B77
330
22AEE
100
AcDbEntity
  8
寸法
 62
     0
 48
50.0
370
    -2
100
AcDbLine
 10
9533.193956914493
 20
2779.999999999998
 30
0.0
 11
9533.193956914493
 21
2453.952670699622
 31
0.0
  0
LINE
  5
22B78
330
22AEE
100
AcDbEntity
  8
寸法
 62
     0
 48
50.0
370
    -2
100
AcDbLine
 10
9333.193956914497
 20
2779.999999999999
 30
0.0
 11
9333.193956914497
 21
2453.952670699622
 31
0.0
  0
LINE
  5
22B79
330
22AEE
100
AcDbEntity
  8
寸法
 62
     0
 48
50.0
370
    -2
100
AcDbLine
 10
9533.193956914493
 20
2513.952670699622
 30
0.0
 11
9333.193956914497
 21
2513.952670699622
 31
0.0
  0
INSERT
  5
22B7A
330
22AEE
100
AcDbEntity
  8
寸法
 62
     0
 48
50.0
370
    -2
100
AcDbBlockReference
  2
_DOTSMALL
 10
9533.193956914493
 20
2513.952670699622
 30
0.0
 41
100.0
 42
100.0
 43
100.0
  0
INSERT
  5
22B7B
330
22AEE
100
AcDbEntity
  8
寸法
 62
     0
 48
50.0
370
    -2
100
AcDbBlockReference
  2
_DOTSMALL
 10
9333.193956914497
 20
2513.952670699622
 30
0.0
 41
100.0
 42
100.0
 43
100.0
 50
180.0
  0
MTEXT
  5
22B7C
330
22AEE
100
AcDbEntity
  8
寸法
 62
     7
 48
50.0
100
AcDbMText
 10
9433.193956914495
 20
2613.964481723244
 30
0.0
 40
120.0
 41
0.0
 71
     5
 72
     1
  1
\A1;200
  7
STYLE1
 73
     1
 44
1.0
1001
ACAD
1000
MTEXTBEGIN
1070
    73
1070
     1
1070
    44
1040
1.0
1070
    74
1070
     0
1000
MTEXTEND
  0
POINT
  5
22B7D
330
22AEE
100
AcDbEntity
  8
DEFPOINTS
 62
     0
 48
50.0
100
AcDbPoint
 10
9533.193956914493
 20
2799.999999999998
 30
0.0
  0
POINT
  5
22B7E
330
22AEE
100
AcDbEntity
  8
DEFPOINTS
 62
     0
 48
50.0
100
AcDbPoint
 10
9333.193956914497
 20
2799.999999999999
 30
0.0
  0
POINT
  5
22B7F
330
22AEE
100
AcDbEntity
  8
DEFPOINTS
 62
     0
 48
50.0
100
AcDbPoint
 10
9333.193956914497
 20
2513.952670699622
 30
0.0
  0
ENDBLK
  5
22AF9
330
22AEE
100
AcDbEntity
  8
0
 48
50.0
100
AcDbBlockEnd
  0
ENDSEC
  0
SECTION
  2
ENTITIES
  0
LINE
  5
10B57
330
747D
100
AcDbEntity
  8
補助
  6
PHANTOM
 62
   230
 48
50.0
100
AcDbLine
 10
139.9999999999995
 20
11409.6
 30
0.0
 11
16307.2
 21
11409.6
 31
0.0
  0
LINE
  5
10B59
330
747D
100
AcDbEntity
  8
仕様書枠
  6
Continuous
 48
50.0
100
AcDbLine
 10
13107.2
 20
1200.0
 30
0.0
 11
13107.2
 21
-0.0000000000000729
 31
0.0
  0
LINE
  5
10B5C
330
747D
100
AcDbEntity
  8
仕様書枠
 48
50.0
100
AcDbLine
 10
16307.2
 20
1200.0
 30
0.0
 11
16307.2
 21
-0.0000000000000909
 31
0.0
  0
LINE
  5
10B5D
330
747D
100
AcDbEntity
  8
仕様書枠
 48
50.0
100
AcDbLine
 10
140.0
 20
0.0
 30
0.0
 11
16307.2
 21
-0.0000000000000909
 31
0.0
  0
LINE
  5
10B5E
330
747D
100
AcDbEntity
  8
補助
  6
PHANTOM
 62
   230
 48
50.0
100
AcDbLine
 10
16307.2
 20
11409.6
 30
0.0
 11
16307.2
 21
1200.0
 31
0.0
  0
LINE
  5
10B6C
330
747D
100
AcDbEntity
  8
仕様書枠
 48
50.0
100
AcDbLine
 10
13107.2
 20
1200.0
 30
0.0
 11
16307.2
 21
1200.0
 31
0.0
  0
LINE
  5
10B6D
330
747D
100
AcDbEntity
  8
補助
  6
PHANTOM
 62
   230
 48
50.0
100
AcDbLine
 10
13107.2
 20
11409.6
 30
0.0
 11
13107.2
 21
4800.0
 31
0.0
  0
LINE
  5
10B6F
330
747D
100
AcDbEntity
  8
補助
  6
PHANTOM
 62
   230
 48
50.0
100
AcDbLine
 10
13107.2
 20
4800.0
 30
0.0
 11
16307.2
 21
4800.0
 31
0.0
  0
LINE
  5
10B72
330
747D
100
AcDbEntity
  8
文字
 62
     7
 48
50.0
100
AcDbLine
 10
13187.2
 20
400.0
 30
0.0
 11
16227.2
 21
400.0
 31
0.0
  0
TEXT
  5
10B73
330
747D
100
AcDbEntity
  8
文字
 62
     7
 48
50.0
100
AcDbText
 10
13162.9790565769
 20
895.0906074299405
 30
0.0
 40
200.0
  1
外 形 図
  7
STYLE2
100
AcDbText
  0
TEXT
  5
10B74
330
747D
100
AcDbEntity
  8
文字
 62
     7
 48
50.0
100
AcDbText
 10
13201.43669998441
 20
477.2740661031255
 30
0.0
 40
160.0
  1
機種名
  7
STYLE2
100
AcDbText
  0
TEXT
  5
10B75
330
747D
100
AcDbEntity
  8
文字
 62
     7
 48
50.0
100
AcDbText
 10
13209.4053442172
 20
228.5435242569016
 30
0.0
 40
100.0
  1
○有効開口寸法 ： 1278×1770(mm)
  7
STYLE2
100
AcDbText
  0
TEXT
  5
10B79
330
747D
100
AcDbEntity
  8
文字
 62
     7
 48
50.0
100
AcDbText
 10
14524.131837222
 20
1031.557706291228
 30
0.0
 40
100.0
  1
NO.20      <縮尺> S=1/40
  7
STYLE2
100
AcDbText
  0
LINE
  5
10B7B
330
747D
100
AcDbEntity
  8
仕様書枠
 48
50.0
100
AcDbLine
 10
13107.2
 20
800.0
 30
0.0
 11
14251.2
 21
800.0
 31
0.0
  0
LINE
  5
10B88
330
747D
100
AcDbEntity
  8
仕様書枠
  6
Continuous
 48
50.0
100
AcDbLine
 10
14251.2
 20
1200.0
 30
0.0
 11
14251.2
 21
800.0
 31
0.0
  0
LINE
  5
12765
330
747D
100
AcDbEntity
  8
Ｇ．Ｌ
100
AcDbLine
 10
4541.629972436509
 20
3000.0
 30
0.0
 11
11857.79572712994
 21
3000.0
 31
0.0
  0
TEXT
  5
127AA
330
747D
100
AcDbEntity
  8
部品1
100
AcDbText
 10
4599.545247166584
 20
3013.953728039225
 30
0.0
 40
125.0
  1
▽G.L
  7
STYLE2
100
AcDbText
  0
LINE
  5
13BE8
330
747D
100
AcDbEntity
  8
部品1
100
AcDbLine
 10
5259.896575106991
 20
3100.0
 30
0.0
 11
7469.896575107009
 21
3100.0
 31
0.0
  0
LINE
  5
13BE9
330
747D
100
AcDbEntity
  8
部品1
100
AcDbLine
 10
5259.896575106992
 20
4940.0
 30
0.0
 11
7469.896575107009
 21
4940.000000000001
 31
0.0
  0
LINE
  5
13BEF
330
747D
100
AcDbEntity
  8
部品1
100
AcDbLine
 10
5319.896575106992
 20
3149.000000000001
 30
0.0
 11
6114.896575106991
 21
3149.000000000008
 31
0.0
  0
DIMENSION
  5
13BF0
330
747D
100
AcDbEntity
  8
寸法
 48
50.0
100
AcDbDimension
  2
*D1
 10
7519.896575107009
 20
5595.370389148895
 30
0.0
 11
6358.975848044829
 21
5595.370389148895
 31
0.0
 70
   160
 71
     5
 42
2310.000000000017
  3
INABA_S40G
100
AcDbAlignedDimension
 13
5209.896575106991
 23
5175.000000000006
 33
0.0
 14
7519.896575107009
 24
5175.000000000003
 34
0.0
100
AcDbRotatedDimension
  0
LINE
  5
13C1F
330
747D
100
AcDbEntity
  8
部品1
100
AcDbLine
 10
5259.896575106992
 20
5034.000000000004
 30
0.0
 11
5259.896575106991
 21
3000.0
 31
0.0
  0
LINE
  5
13CFC
330
747D
100
AcDbEntity
  8
部品1
100
AcDbLine
 10
7409.896575107009
 20
4940.0
 30
0.0
 11
7409.896575107009
 21
3142.00000000002
 31
0.0
  0
LINE
  5
13CFE
330
747D
100
AcDbEntity
  8
部品1
100
AcDbLine
 10
5319.896575106991
 20
4940.0
 30
0.0
 11
5319.896575106991
 21
3142.000000000004
 31
0.0
  0
LINE
  5
13D18
330
747D
100
AcDbEntity
  8
部品1
100
AcDbLine
 10
7469.896575107009
 20
5034.000000000004
 30
0.0
 11
7469.896575107009
 21
3000.0
 31
0.0
  0
LINE
  5
13E0C
330
747D
100
AcDbEntity
  8
部品1
100
AcDbLine
 10
7069.896575107009
 20
3100.0
 30
0.0
 11
7069.896575107009
 21
3000.0
 31
0.0
  0
LINE
  5
13E0D
330
747D
100
AcDbEntity
  8
部品1
100
AcDbLine
 10
5659.896575106991
 20
3100.0
 30
0.0
 11
5659.896575106991
 21
3000.0
 31
0.0
  0
DIMENSION
  5
141C3
330
747D
100
AcDbEntity
  8
寸法
 48
50.0
100
AcDbDimension
  2
*D2
 10
7469.896575107011
 20
5379.620259427273
 30
0.0
 11
7833.381856481247
 21
5379.620259427273
 31
0.0
 70
   160
 71
     5
 42
49.99999999999909
  3
INABA_S40G
100
AcDbAlignedDimension
 13
7519.896575107009
 23
5175.000000000003
 33
0.0
 14
7469.896575107011
 24
5175.000000000006
 34
0.0
100
AcDbRotatedDimension
  0
DIMENSION
  5
14206
330
747D
100
AcDbEntity
  8
寸法
 48
50.0
100
AcDbDimension
  2
*D3
 10
5209.896575106991
 20
5379.142231267993
 30
0.0
 11
4896.411293732746
 21
5379.142231267993
 31
0.0
 70
   160
 71
     5
 42
49.99999999999909
  3
INABA_S40G
100
AcDbAlignedDimension
 13
5259.896575106991
 23
5175.000000000006
 33
0.0
 14
5209.896575106991
 24
5175.000000000006
 34
0.0
100
AcDbRotatedDimension
1001
ACAD
1000
DSTYLE
1002
{
1002
}
  0
LINE
  5
1427D
330
747D
100
AcDbEntity
  8
部品1
100
AcDbLine
 10
6114.896575106991
 20
3156.500000000006
 30
0.0
 11
7409.896575107009
 21
3156.500000000022
 31
0.0
  0
LINE
  5
14517
330
747D
100
AcDbEntity
  8
部品1
100
AcDbLine
 10
7474.896575107009
 20
3145.000000000001
 30
0.0
 11
7474.896575107009
 21
3000.0
 31
0.0
  0
LINE
  5
1451B
330
747D
100
AcDbEntity
  8
破線
 48
5.0
100
AcDbLine
 10
7494.896575107009
 20
2845.0
 30
0.0
 11
7474.896575107007
 21
2845.0
 31
0.0
  0
LINE
  5
1451C
330
747D
100
AcDbEntity
  8
部品1
100
AcDbLine
 10
5254.89657510699
 20
3145.000000000002
 30
0.0
 11
5254.896575106992
 21
3000.0
 31
0.0
  0
LINE
  5
1451F
330
747D
100
AcDbEntity
  8
破線
 48
5.0
100
AcDbLine
 10
5234.896575106991
 20
2845.000000000001
 30
0.0
 11
5254.896575106993
 21
2845.000000000001
 31
0.0
  0
DIMENSION
  5
14521
330
747D
100
AcDbEntity
  8
寸法
100
AcDbDimension
  2
*D4
 10
5314.896575107013
 20
9707.74190280961
 30
0.0
 11
4951.411293732741
 21
9707.74190280961
 31
0.0
 70
   160
 71
     5
 42
55.00000000003456
  3
INABA_S40G
100
AcDbAlignedDimension
 13
5259.896575106979
 23
9491.933683184626
 33
0.0
 14
5314.896575107013
 24
9491.933683184626
 34
0.0
100
AcDbRotatedDimension
1001
ACAD
1000
DSTYLE
1002
{
1002
}
  0
LINE
  5
14522
330
747D
100
AcDbEntity
  8
部品1
100
AcDbLine
 10
5734.896575106979
 20
9491.933683184596
 30
0.0
 11
5734.896575106981
 21
9463.933683184597
 31
0.0
  0
LINE
  5
14523
330
747D
100
AcDbEntity
  8
部品1
100
AcDbLine
 10
5259.89657510693
 20
9491.933683184608
 30
0.0
 11
5259.896575106995
 21
7281.933683184593
 31
0.0
  0
LINE
  5
14524
330
747D
100
AcDbEntity
  8
部品1
100
AcDbLine
 10
7414.896575107015
 20
9491.933683184724
 30
0.0
 11
7414.896575107015
 21
9463.933683184723
 31
0.0
  0
LINE
  5
14525
330
747D
100
AcDbEntity
  8
部品1
100
AcDbLine
 10
7414.896575107015
 20
9491.933683184743
 30
0.0
 11
7414.896575107015
 21
9463.933683184743
 31
0.0
  0
DIMENSION
  5
14526
330
747D
100
AcDbEntity
  8
寸法
100
AcDbDimension
  2
*D5
 10
8410.743036823749
 20
7281.933683184724
 30
0.0
 11
8410.743036823747
 21
8337.42212338817
 31
0.0
 70
   160
 71
     5
 42
2209.999999999996
  3
INABA_S40G
100
AcDbAlignedDimension
 13
7469.89657510703
 23
9491.933683184718
 33
0.0
 14
7469.896575106976
 24
7281.933683184724
 34
0.0
 50
90.0
100
AcDbRotatedDimension
1001
ACAD
1000
DSTYLE
1002
{
1002
}
  0
LINE
  5
14527
330
747D
100
AcDbEntity
  8
部品1
100
AcDbLine
 10
7469.89657510703
 20
9491.933683184718
 30
0.0
 11
7469.896575106976
 21
7281.933683184724
 31
0.0
  0
LINE
  5
14528
330
747D
100
AcDbEntity
  8
部品1
100
AcDbLine
 10
6994.896575107013
 20
9491.933683184743
 30
0.0
 11
6994.896575107013
 21
9463.933683184743
 31
0.0
  0
LINE
  5
14529
330
747D
100
AcDbEntity
  8
部品1
100
AcDbLine
 10
6574.896575107013
 20
9491.933683184743
 30
0.0
 11
6574.896575107013
 21
9463.933683184743
 31
0.0
  0
LINE
  5
1452A
330
747D
100
AcDbEntity
  8
部品1
100
AcDbLine
 10
6154.896575107013
 20
9491.933683184743
 30
0.0
 11
6154.896575107013
 21
9463.933683184743
 31
0.0
  0
LINE
  5
1452B
330
747D
100
AcDbEntity
  8
部品1
100
AcDbLine
 10
6154.896575107013
 20
9491.933683184626
 30
0.0
 11
6154.896575107013
 21
9463.933683184626
 31
0.0
  0
LINE
  5
1452C
330
747D
100
AcDbEntity
  8
部品1
100
AcDbLine
 10
6154.896575107013
 20
9491.933683184628
 30
0.0
 11
6154.896575107013
 21
9463.933683184629
 31
0.0
  0
LINE
  5
1452D
330
747D
100
AcDbEntity
  8
部品1
100
AcDbLine
 10
5314.896575107013
 20
9491.933683184626
 30
0.0
 11
5314.896575107013
 21
9463.933683184626
 31
0.0
  0
DIMENSION
  5
1452E
330
747D
100
AcDbEntity
  8
寸法
100
AcDbDimension
  2
*D6
 10
8117.322920841425
 20
9436.933683184726
 30
0.0
 11
8117.322920841424
 21
9800.418964558964
 31
0.0
 70
   160
 71
     5
 42
54.99999999999636
  3
INABA_S40G
100
AcDbAlignedDimension
 13
7469.896575107014
 23
9491.933683184724
 33
0.0
 14
7469.896575107014
 24
9436.933683184726
 34
0.0
 50
90.0
100
AcDbRotatedDimension
1001
ACAD
1000
DSTYLE
1002
{
1002
}
  0
DIMENSION
  5
1452F
330
747D
100
AcDbEntity
  8
寸法
100
AcDbDimension
  2
*D7
 10
7796.754300969038
 20
8916.715867515835
 30
0.0
 11
7696.754300969039
 21
9141.715867515834
 31
0.0
 70
    32
 71
     5
 42
449.9999999999982
  3
INABA_S40G
100
AcDbAlignedDimension
 13
7441.396575107015
 23
9461.933683184723
 33
0.0
 14
7441.396575107015
 24
9011.933683184725
 34
0.0
 50
90.0
100
AcDbRotatedDimension
1001
ACAD
1000
DSTYLE
1002
{
1002
}
  0
DIMENSION
  5
14530
330
747D
100
AcDbEntity
  8
寸法
100
AcDbDimension
  2
*D8
 10
8117.322920841386
 20
7281.933683184724
 30
0.0
 11
8117.322920841386
 21
6904.072216279861
 31
0.0
 70
   160
 71
     5
 42
54.99999999999636
  3
INABA_S40G
100
AcDbAlignedDimension
 13
7469.896575106976
 23
7336.933683184719
 33
0.0
 14
7469.896575106976
 24
7281.933683184724
 34
0.0
 50
90.0
100
AcDbRotatedDimension
1001
ACAD
1000
DSTYLE
1002
{
1002
}
  0
DIMENSION
  5
14531
330
747D
100
AcDbEntity
  8
寸法
100
AcDbDimension
  2
*D9
 10
8117.322920841386
 20
7336.933683184719
 30
0.0
 11
8117.322920841386
 21
8385.020322115183
 31
0.0
 70
   160
  1
5X420=<>
 71
     5
 42
2100.000000000008
  3
INABA_S40G
100
AcDbAlignedDimension
 13
7469.896575107014
 23
9436.933683184726
 33
0.0
 14
7469.896575106976
 24
7336.933683184719
 34
0.0
 50
90.0
100
AcDbRotatedDimension
1001
ACAD
1000
DSTYLE
1002
{
1002
}
  0
DIMENSION
  5
14532
330
747D
100
AcDbEntity
  8
寸法
100
AcDbDimension
  2
*D10
 10
7469.896575106976
 20
6502.420311817299
 30
0.0
 11
6375.856517730952
 21
6502.420311817299
 31
0.0
 70
   160
 71
     5
 42
2209.999999999982
  3
INABA_S40G
100
AcDbAlignedDimension
 13
5259.896575106995
 23
7281.933683184593
 33
0.0
 14
7469.896575106976
 24
7281.933683184688
 34
0.0
100
AcDbRotatedDimension
1001
ACAD
1000
DSTYLE
1002
{
1002
}
  0
DIMENSION
  5
14533
330
747D
100
AcDbEntity
  8
寸法
100
AcDbDimension
  2
*D11
 10
5319.896575106994
 20
6728.736931209406
 30
0.0
 11
5947.686700450972
 21
6728.736931209406
 31
0.0
 70
   160
  1
有効開口部間口\P<>
 71
     5
 42
1278.0
  3
INABA_S40G
100
AcDbAlignedDimension
 13
6597.896575106995
 23
7281.933683184653
 33
0.0
 14
5319.896575106994
 24
7281.933683184591
 34
0.0
100
AcDbRotatedDimension
1001
ACAD
1000
DSTYLE
1002
{
1002
}
  0
LWPOLYLINE
  5
14534
330
747D
100
AcDbEntity
  8
部品1
100
AcDbPolyline
 90
        4
 70
     1
 43
0.0
 10
5983.161241992782
 20
6320.02887121833
 10
5983.161241992782
 20
6080.136549672797
 10
6746.631908221221
 20
6080.136549672797
 10
6746.631908221221
 20
6320.02887121833
  0
TEXT
  5
14535
330
747D
100
AcDbEntity
  8
部品1
100
AcDbText
 10
6073.080851821821
 20
6127.135341999806
 30
0.0
 40
135.0
  1
平面図
  7
STYLE2
100
AcDbText
  0
LINE
  5
14538
330
747D
100
AcDbEntity
  8
部品1
100
AcDbLine
 10
7441.896575106977
 20
7383.933683184726
 30
0.0
 11
5287.89657510687
 21
7383.933683184604
 31
0.0
  0
LINE
  5
1453A
330
747D
100
AcDbEntity
  8
細線
100
AcDbLine
 10
6768.896575106987
 20
7318.933683184721
 30
0.0
 11
6666.396575107008
 21
7318.933683184721
 31
0.0
  0
LINE
  5
1453B
330
747D
100
AcDbEntity
  8
細線
100
AcDbLine
 10
6753.896575106982
 20
7341.933683184722
 30
0.0
 11
6088.896575106992
 21
7341.933683184727
 31
0.0
  0
LINE
  5
1453C
330
747D
100
AcDbEntity
  8
細線
 48
50.0
100
AcDbLine
 10
7409.896575106976
 20
7297.933683184723
 30
0.0
 11
6114.896575106998
 21
7297.933683184725
 31
0.0
  0
LINE
  5
1453E
330
747D
100
AcDbEntity
  8
部品1
100
AcDbLine
 10
5288.396575107013
 20
9011.933683184576
 30
0.0
 11
6561.396575107012
 21
9011.933683184732
 31
0.0
  0
DIMENSION
  5
1453F
330
747D
100
AcDbEntity
  8
寸法
100
AcDbDimension
  2
*D12
 10
7382.703078813048
 20
8792.886572941746
 30
0.0
 11
6967.743637225282
 21
8792.886572941746
 31
0.0
 70
   160
 71
     5
 42
853.0000000000118
  3
INABA_S40G
100
AcDbAlignedDimension
 13
6588.396575107013
 23
9011.933683184732
 33
0.0
 14
7441.396575107025
 24
9011.933683184727
 34
0.0
100
AcDbRotatedDimension
1001
ACAD
1000
DSTYLE
1002
{
1002
}
  0
LINE
  5
14540
330
747D
100
AcDbEntity
  8
細線
 48
50.0
100
AcDbLine
 10
6561.396575107014
 20
9461.93368318473
 30
0.0
 11
5288.396575107013
 21
9011.933683184576
 31
0.0
  0
LINE
  5
14541
330
747D
100
AcDbEntity
  8
細線
 48
50.0
100
AcDbLine
 10
6561.396575107012
 20
9011.933683184732
 30
0.0
 11
5288.396575107014
 21
9461.933683184577
 31
0.0
  0
LINE
  5
14542
330
747D
100
AcDbEntity
  8
部品1
100
AcDbLine
 10
5288.396575107014
 20
9461.933683184581
 30
0.0
 11
6561.396575107014
 21
9461.933683184735
 31
0.0
  0
LINE
  5
14543
330
747D
100
AcDbEntity
  8
部品1
100
AcDbLine
 10
5734.896575107014
 20
9463.933683184745
 30
0.0
 11
6562.396575107012
 21
9463.933683184743
 31
0.0
  0
LINE
  5
14544
330
747D
100
AcDbEntity
  8
部品1
100
AcDbLine
 10
7469.896575106976
 20
7281.933683184724
 30
0.0
 11
5259.896575106995
 21
7281.933683184546
 31
0.0
  0
LINE
  5
14546
330
747D
100
AcDbEntity
  8
部品1
100
AcDbLine
 10
5287.896575106977
 20
7336.933683184589
 30
0.0
 11
5287.896575107039
 21
9463.933683184624
 31
0.0
  0
LINE
  5
14547
330
747D
100
AcDbEntity
  8
細線
 48
50.0
100
AcDbLine
 10
6073.896575106992
 20
7331.933683184736
 30
0.0
 11
5319.896575106991
 21
7331.933683184607
 31
0.0
  0
LINE
  5
14548
330
747D
100
AcDbEntity
  8
細線
100
AcDbLine
 10
6114.896575106994
 20
7284.933683184757
 30
0.0
 11
6014.89657510698
 21
7284.933683184743
 31
0.0
  0
LINE
  5
14549
330
747D
100
AcDbEntity
  8
細線
100
AcDbLine
 10
6099.896575106996
 20
7307.933683184754
 30
0.0
 11
5334.896575106991
 21
7307.933683184639
 31
0.0
  0
LINE
  5
1454A
330
747D
100
AcDbEntity
  8
部品1
100
AcDbLine
 10
5730.896575106995
 20
7281.933683184594
 30
0.0
 11
5679.896575106994
 21
7281.933683184594
 31
0.0
  0
LINE
  5
1454B
330
747D
100
AcDbEntity
  8
部品1
100
AcDbLine
 10
5287.896575106977
 20
7336.933683184544
 30
0.0
 11
5259.896575106992
 21
7336.933683184544
 31
0.0
  0
LINE
  5
1454C
330
747D
100
AcDbEntity
  8
部品1
100
AcDbLine
 10
5287.896575106977
 20
7336.933683184579
 30
0.0
 11
5259.896575106992
 21
7336.933683184579
 31
0.0
  0
LINE
  5
1454D
330
747D
100
AcDbEntity
  8
部品1
100
AcDbLine
 10
5287.896575106993
 20
7336.933683184605
 30
0.0
 11
5259.896575106992
 21
7336.933683184605
 31
0.0
  0
LINE
  5
1454E
330
747D
100
AcDbEntity
  8
部品1
100
AcDbLine
 10
5259.896575106992
 20
7336.933683184544
 30
0.0
 11
5259.896575106995
 21
7281.933683184546
 31
0.0
  0
LINE
  5
1454F
330
747D
100
AcDbEntity
  8
部品1
100
AcDbLine
 10
5319.896575106991
 20
7336.933683184554
 30
0.0
 11
5291.896575106991
 21
7336.933683184554
 31
0.0
  0
LINE
  5
14550
330
747D
100
AcDbEntity
  8
部品1
100
AcDbLine
 10
5310.896575106994
 20
7281.933683184558
 30
0.0
 11
5310.896575106993
 21
7288.933683184594
 31
0.0
  0
LINE
  5
14551
330
747D
100
AcDbEntity
  8
部品1
100
AcDbLine
 10
5319.896575106993
 20
7288.933683184591
 30
0.0
 11
5310.896575106993
 21
7288.933683184594
 31
0.0
  0
LINE
  5
14552
330
747D
100
AcDbEntity
  8
部品1
100
AcDbLine
 10
5319.896575106993
 20
7288.933683184591
 30
0.0
 11
5319.896575106991
 21
7336.933683184557
 31
0.0
  0
LINE
  5
14553
330
747D
100
AcDbEntity
  8
細線
100
AcDbLine
 10
5334.896575106991
 20
7314.933683184638
 30
0.0
 11
5334.896575106991
 21
7307.933683184639
 31
0.0
  0
LINE
  5
14554
330
747D
100
AcDbEntity
  8
細線
100
AcDbLine
 10
5334.896575106991
 20
7314.933683184638
 30
0.0
 11
5319.896575106992
 21
7314.933683184638
 31
0.0
  0
LINE
  5
1455D
330
747D
100
AcDbEntity
  8
部品1
100
AcDbLine
 10
5287.896575107025
 20
9463.933683184624
 30
0.0
 11
6154.896575107013
 21
9463.933683184633
 31
0.0
  0
LINE
  5
1455E
330
747D
100
AcDbEntity
  8
部品1
 48
50.0
100
AcDbLine
 10
5288.396575107014
 20
9461.933683184581
 30
0.0
 11
5288.396575107013
 21
9011.933683184576
 31
0.0
  0
LINE
  5
1455F
330
747D
100
AcDbEntity
  8
部品1
100
AcDbLine
 10
5287.896575106976
 20
7756.933683184605
 30
0.0
 11
5259.896575106975
 21
7756.933683184605
 31
0.0
  0
LINE
  5
14560
330
747D
100
AcDbEntity
  8
部品1
100
AcDbLine
 10
5287.896575106981
 20
9436.933683184598
 30
0.0
 11
5259.896575106981
 21
9436.933683184598
 31
0.0
  0
LINE
  5
14562
330
747D
100
AcDbEntity
  8
部品1
100
AcDbLine
 10
7441.896575107041
 20
9463.933683184725
 30
0.0
 11
7441.896575106977
 21
7336.933683184719
 31
0.0
  0
LINE
  5
14563
330
747D
100
AcDbEntity
  8
細線
100
AcDbLine
 10
7407.896575106976
 20
7354.93368318472
 30
0.0
 11
7348.896575106976
 21
7354.933683184722
 31
0.0
  0
LINE
  5
14564
330
747D
100
AcDbEntity
  8
細線
 48
50.0
100
AcDbLine
 10
7409.896575106976
 20
7331.933683184726
 30
0.0
 11
6768.89657510699
 21
7331.933683184728
 31
0.0
  0
LINE
  5
14565
330
747D
100
AcDbEntity
  8
細線
100
AcDbLine
 10
7441.896575106977
 20
7382.933683184717
 30
0.0
 11
6727.896575106988
 21
7382.933683184726
 31
0.0
  0
LINE
  5
14566
330
747D
100
AcDbEntity
  8
細線
100
AcDbLine
 10
6747.896575106988
 20
7346.93368318472
 30
0.0
 11
6747.896575106988
 21
7354.93368318472
 31
0.0
  0
LINE
  5
14567
330
747D
100
AcDbEntity
  8
細線
100
AcDbLine
 10
6747.896575106988
 20
7346.93368318472
 30
0.0
 11
6727.896575106988
 21
7346.93368318472
 31
0.0
  0
LINE
  5
14568
330
747D
100
AcDbEntity
  8
細線
100
AcDbLine
 10
6727.896575106988
 20
7346.93368318472
 30
0.0
 11
6727.896575106988
 21
7382.933683184726
 31
0.0
  0
LINE
  5
14569
330
747D
100
AcDbEntity
  8
細線
100
AcDbLine
 10
6768.896575106987
 20
7318.933683184721
 30
0.0
 11
6768.896575106994
 21
7348.933683184718
 31
0.0
  0
LINE
  5
1456A
330
747D
100
AcDbEntity
  8
部品1
100
AcDbLine
 10
7469.896575106976
 20
7281.933683184724
 30
0.0
 11
7418.896575106976
 21
7281.933683184724
 31
0.0
  0
LINE
  5
1456B
330
747D
100
AcDbEntity
  8
部品1
100
AcDbLine
 10
7469.896575106978
 20
7336.933683184719
 30
0.0
 11
7469.896575106976
 21
7281.933683184724
 31
0.0
  0
LINE
  5
1456C
330
747D
100
AcDbEntity
  8
部品1
100
AcDbLine
 10
7441.896575106977
 20
7336.933683184719
 30
0.0
 11
7469.896575106976
 21
7336.933683184719
 31
0.0
  0
LINE
  5
1456E
330
747D
100
AcDbEntity
  8
部品1
100
AcDbLine
 10
7409.896575106976
 20
7336.933683184719
 30
0.0
 11
7441.896575106977
 21
7336.933683184719
 31
0.0
  0
LINE
  5
1456F
330
747D
100
AcDbEntity
  8
細線
100
AcDbLine
 10
7407.896575106976
 20
7336.933683184719
 30
0.0
 11
7407.896575106976
 21
7354.93368318472
 31
0.0
  0
LINE
  5
14570
330
747D
100
AcDbEntity
  8
部品1
100
AcDbLine
 10
7418.896575106976
 20
7281.933683184721
 30
0.0
 11
7418.896575106976
 21
7288.933683184723
 31
0.0
  0
LINE
  5
14571
330
747D
100
AcDbEntity
  8
部品1
100
AcDbLine
 10
7418.896575106976
 20
7288.933683184723
 30
0.0
 11
7409.896575106976
 21
7288.933683184723
 31
0.0
  0
LINE
  5
14572
330
747D
100
AcDbEntity
  8
部品1
100
AcDbLine
 10
7409.896575106976
 20
7288.933683184723
 30
0.0
 11
7409.896575106976
 21
7336.933683184719
 31
0.0
  0
LINE
  5
14573
330
747D
100
AcDbEntity
  8
部品1
100
AcDbLine
 10
7441.896575107008
 20
7336.933683184736
 30
0.0
 11
7469.896575107009
 21
7336.933683184736
 31
0.0
  0
LINE
  5
14575
330
747D
100
AcDbEntity
  8
部品1
100
AcDbLine
 10
6588.396575107012
 20
9011.933683184732
 30
0.0
 11
7441.396575107015
 21
9011.933683184725
 31
0.0
  0
LINE
  5
14576
330
747D
100
AcDbEntity
  8
細線
 48
50.0
100
AcDbLine
 10
7441.396575107015
 20
9461.933683184723
 30
0.0
 11
6588.396575107012
 21
9011.933683184732
 31
0.0
  0
LINE
  5
14577
330
747D
100
AcDbEntity
  8
細線
 48
50.0
100
AcDbLine
 10
7441.396575107015
 20
9011.933683184725
 30
0.0
 11
6588.396575107013
 21
9461.933683184726
 31
0.0
  0
LINE
  5
14578
330
747D
100
AcDbEntity
  8
部品1
100
AcDbLine
 10
6588.396575107013
 20
9461.93368318473
 30
0.0
 11
7441.396575107015
 21
9461.933683184723
 31
0.0
  0
LINE
  5
14579
330
747D
100
AcDbEntity
  8
部品1
100
AcDbLine
 10
6587.396575107013
 20
9463.933683184741
 30
0.0
 11
7441.896575107027
 21
9463.933683184723
 31
0.0
  0
LINE
  5
1457A
330
747D
100
AcDbEntity
  8
部品1
 48
50.0
100
AcDbLine
 10
6588.396575107013
 20
9461.933683184726
 30
0.0
 11
6588.396575107013
 21
9011.933683184732
 31
0.0
  0
LINE
  5
1457B
330
747D
100
AcDbEntity
  8
部品1
 48
50.0
100
AcDbLine
 10
6561.396575107014
 20
9461.93368318473
 30
0.0
 11
6561.396575107014
 21
9011.933683184732
 31
0.0
  0
LINE
  5
1457C
330
747D
100
AcDbEntity
  8
部品1
 48
50.0
100
AcDbLine
 10
6587.396575107013
 20
9463.933683184732
 30
0.0
 11
6587.396575107013
 21
9011.933683184732
 31
0.0
  0
LINE
  5
1457D
330
747D
100
AcDbEntity
  8
部品1
 48
50.0
100
AcDbLine
 10
6562.396575107013
 20
9463.933683184738
 30
0.0
 11
6562.396575107013
 21
9011.933683184732
 31
0.0
  0
LINE
  5
1457E
330
747D
100
AcDbEntity
  8
部品1
100
AcDbLine
 10
6562.396575107013
 20
9011.933683184732
 30
0.0
 11
6587.396575107013
 21
9011.933683184732
 31
0.0
  0
LINE
  5
1457F
330
747D
100
AcDbEntity
  8
部品1
100
AcDbLine
 10
6562.396575107013
 20
9455.933683184728
 30
0.0
 11
6587.396575107013
 21
9455.93368318473
 31
0.0
  0
LINE
  5
14580
330
747D
100
AcDbEntity
  8
部品1
100
AcDbLine
 10
6603.896575107014
 20
9481.933683184731
 30
0.0
 11
6609.896575107014
 21
9481.933683184731
 31
0.0
  0
LINE
  5
14581
330
747D
100
AcDbEntity
  8
部品1
100
AcDbLine
 10
6609.896575107014
 20
9481.933683184731
 30
0.0
 11
6609.896575107014
 21
9463.93368318473
 31
0.0
  0
LINE
  5
14582
330
747D
100
AcDbEntity
  8
部品1
100
AcDbLine
 10
6539.896575107014
 20
9481.933683184731
 30
0.0
 11
6545.896575107014
 21
9481.933683184731
 31
0.0
  0
LINE
  5
14583
330
747D
100
AcDbEntity
  8
部品1
100
AcDbLine
 10
6539.896575107014
 20
9481.933683184731
 30
0.0
 11
6539.896575107014
 21
9463.93368318473
 31
0.0
  0
LINE
  5
14584
330
747D
100
AcDbEntity
  8
部品1
100
AcDbLine
 10
7441.396575107015
 20
9461.933683184723
 30
0.0
 11
7441.396575107015
 21
9011.933683184725
 31
0.0
  0
LINE
  5
14585
330
747D
100
AcDbEntity
  8
部品1
100
AcDbLine
 10
7441.896575107015
 20
9016.933683184728
 30
0.0
 11
7469.896575107014
 21
9016.933683184728
 31
0.0
  0
LINE
  5
14586
330
747D
100
AcDbEntity
  8
部品1
100
AcDbLine
 10
7441.896575107015
 20
9436.933683184726
 30
0.0
 11
7469.896575107014
 21
9436.933683184726
 31
0.0
  0
DIMENSION
  5
14587
330
747D
100
AcDbEntity
  8
寸法
100
AcDbDimension
  2
*D13
 10
7469.896575107014
 20
9707.741902809708
 30
0.0
 11
7778.381856481253
 21
9707.741902809708
 31
0.0
 70
   160
 71
     5
 42
55.0
  3
INABA_S40G
100
AcDbAlignedDimension
 13
7414.896575107015
 23
9491.933683184724
 33
0.0
 14
7469.896575107014
 24
9491.933683184724
 34
0.0
100
AcDbRotatedDimension
1001
ACAD
1000
DSTYLE
1002
{
1002
}
  0
LINE
  5
14588
330
747D
100
AcDbEntity
  8
部品1
100
AcDbLine
 10
5259.896575106942
 20
9491.933683184607
 30
0.0
 11
7469.89657510702
 21
9491.933683184718
 31
0.0
  0
DIMENSION
  5
14589
330
747D
100
AcDbEntity
  8
寸法
100
AcDbDimension
  2
*D14
 10
7414.896575107015
 20
9707.74190280961
 30
0.0
 11
6356.769737990334
 21
9707.74190280961
 31
0.0
 70
   160
  1
5X420=<>
 71
     5
 42
2100.000000000001
  3
INABA_S40G
100
AcDbAlignedDimension
 13
5314.896575107013
 23
9491.933683184626
 33
0.0
 14
7414.896575107015
 24
9491.933683184724
 34
0.0
100
AcDbRotatedDimension
1001
ACAD
1000
DSTYLE
1002
{
1002
}
  0
LINE
  5
146B2
330
747D
100
AcDbEntity
  8
破線
 48
5.0
100
AcDbLine
 10
7474.896575107009
 20
3000.0
 30
0.0
 11
7474.896575107009
 21
2845.0
 31
0.0
  0
LINE
  5
146B3
330
747D
100
AcDbEntity
  8
破線
 48
5.0
100
AcDbLine
 10
5254.896575106992
 20
3000.0
 30
0.0
 11
5254.89657510699
 21
2845.000000000001
 31
0.0
  0
DIMENSION
  5
146E8
330
747D
100
AcDbEntity
  8
寸法
 48
50.0
100
AcDbDimension
  2
*D15
 10
5259.896575106991
 20
5379.142231267993
 30
0.0
 11
6397.940818449586
 21
5379.142231267993
 31
0.0
 70
   160
  1
柱外寸法<>
 71
     5
 42
2210.000000000019
  3
INABA_S40G
100
AcDbAlignedDimension
 13
7469.896575107011
 23
5175.000000000006
 33
0.0
 14
5259.896575106991
 24
5175.000000000006
 34
0.0
100
AcDbRotatedDimension
  0
LINE
  5
1483A
330
747D
100
AcDbEntity
  8
寸法
 48
50.0
100
AcDbLine
 10
6043.563058493196
 20
7212.261280798173
 30
0.0
 11
6262.714998668921
 21
7212.261280798173
 31
0.0
  0
LINE
  5
1483B
330
747D
100
AcDbEntity
  8
寸法
 48
50.0
100
AcDbLine
 10
6262.714998668921
 20
7212.261280798173
 30
0.0
 11
6173.430780073499
 21
7236.18491506766
 31
0.0
  0
LINE
  5
1483C
330
747D
100
AcDbEntity
  8
寸法
 48
50.0
100
AcDbLine
 10
6173.430780073499
 20
7236.18491506766
 30
0.0
 11
6173.430780073499
 21
7182.521280485871
 31
0.0
  0
LINE
  5
1483D
330
747D
100
AcDbEntity
  8
寸法
 48
50.0
100
AcDbLine
 10
5691.69357115194
 20
7179.039324312838
 30
0.0
 11
5743.099579062044
 21
7179.039324312838
 31
0.0
  0
LINE
  5
1483E
330
747D
100
AcDbEntity
  8
寸法
 48
50.0
100
AcDbLine
 10
5743.099579062044
 20
7179.039324312838
 30
0.0
 11
5743.099579062044
 21
7210.349482965003
 31
0.0
  0
LINE
  5
1483F
330
747D
100
AcDbEntity
  8
寸法
 48
50.0
100
AcDbLine
 10
5743.099579062044
 20
7210.349482965003
 30
0.0
 11
5772.860911053468
 21
7210.349482965003
 31
0.0
  0
LINE
  5
14840
330
747D
100
AcDbEntity
  8
寸法
 48
50.0
100
AcDbLine
 10
5772.860911053468
 20
7210.349482965003
 30
0.0
 11
5717.396575106993
 21
7247.928933893615
 31
0.0
  0
LINE
  5
14841
330
747D
100
AcDbEntity
  8
寸法
 48
50.0
100
AcDbLine
 10
5661.932239160517
 20
7210.349482965003
 30
0.0
 11
5717.396575106993
 21
7247.928933893615
 31
0.0
  0
LINE
  5
14842
330
747D
100
AcDbEntity
  8
寸法
 48
50.0
100
AcDbLine
 10
5691.69357115194
 20
7210.349482965003
 30
0.0
 11
5661.932239160517
 21
7210.349482965003
 31
0.0
  0
LINE
  5
14843
330
747D
100
AcDbEntity
  8
寸法
 48
50.0
100
AcDbLine
 10
5691.69357115194
 20
7179.039324312838
 30
0.0
 11
5691.69357115194
 21
7210.349482965003
 31
0.0
  0
LINE
  5
14844
330
747D
100
AcDbEntity
  8
寸法
 48
50.0
100
AcDbLine
 10
5743.099579062044
 20
7179.039324312838
 30
0.0
 11
5691.69357115194
 21
7179.039324312838
 31
0.0
  0
TEXT
  5
149A1
330
747D
100
AcDbEntity
  8
部品1
100
AcDbText
 10
6073.686645730737
 20
1927.790927806517
 30
0.0
 40
135.0
  1
正面図
  7
STYLE2
100
AcDbText
  0
LWPOLYLINE
  5
149A2
330
747D
100
AcDbEntity
  8
部品1
100
AcDbPolyline
 90
        4
 70
     1
 43
0.0
 10
5983.161241992782
 20
2120.684457025041
 10
5983.161241992782
 20
1880.792135479508
 10
6746.631908221221
 20
1880.792135479508
 10
6746.631908221221
 20
2120.684457025041
  0
LINE
  5
149E3
330
747D
100
AcDbEntity
  8
部品1
100
AcDbLine
 10
5259.896575106991
 20
3142.0
 30
0.0
 11
7469.896575107009
 21
3142.000000000021
 31
0.0
  0
LINE
  5
14A32
330
747D
100
AcDbEntity
  8
細線
100
AcDbLine
 10
6768.896575106985
 20
7348.93368318472
 30
0.0
 11
6753.896575106984
 21
7348.933683184715
 31
0.0
  0
LINE
  5
14A33
330
747D
100
AcDbEntity
  8
細線
100
AcDbLine
 10
6753.896575106982
 20
7341.933683184722
 30
0.0
 11
6753.896575106984
 21
7348.933683184715
 31
0.0
  0
LINE
  5
14A58
330
747D
100
AcDbEntity
  8
細線
100
AcDbLine
 10
6753.896575106988
 20
7354.93368318472
 30
0.0
 11
6747.896575106988
 21
7354.93368318472
 31
0.0
  0
LINE
  5
14AA3
330
747D
100
AcDbEntity
  8
細線
 48
50.0
100
AcDbLine
 10
7407.896575106976
 20
7336.933683184719
 30
0.0
 11
7409.896575106976
 21
7336.933683184719
 31
0.0
  0
LINE
  5
14AC7
330
747D
100
AcDbEntity
  8
破線
 48
10.0
100
AcDbLine
 10
6044.396575106999
 20
7412.433683184649
 30
0.0
 11
6044.396575107004
 21
9011.93368318467
 31
0.0
  0
LINE
  5
14AC8
330
747D
100
AcDbEntity
  8
破線
 48
10.0
100
AcDbLine
 10
5994.396575107002
 20
7412.433683184644
 30
0.0
 11
5994.396575106994
 21
9011.933683184665
 31
0.0
  0
LINE
  5
14ADA
330
747D
100
AcDbEntity
  8
細線
100
AcDbLine
 10
6986.896575106979
 20
7382.933683184721
 30
0.0
 11
6986.896575106978
 21
7354.933683184724
 31
0.0
  0
LINE
  5
14ADC
330
747D
100
AcDbEntity
  8
細線
100
AcDbLine
 10
6971.896575106979
 20
7382.933683184721
 30
0.0
 11
6956.896575106977
 21
7354.933683184724
 31
0.0
  0
LINE
  5
14AE0
330
747D
100
AcDbEntity
  8
細線
100
AcDbLine
 10
6451.396575107016
 20
7318.933683184798
 30
0.0
 11
6443.89657510702
 21
7341.933683184727
 31
0.0
  0
LINE
  5
14AE1
330
747D
100
AcDbEntity
  8
細線
100
AcDbLine
 10
6391.396575107016
 20
7318.933683184808
 30
0.0
 11
6398.896575107021
 21
7341.933683184727
 31
0.0
  0
LINE
  5
14AE2
330
747D
100
AcDbEntity
  8
細線
100
AcDbLine
 10
5739.896575106912
 20
7284.933683184822
 30
0.0
 11
5747.396575106917
 21
7307.93368318474
 31
0.0
  0
LINE
  5
14AE3
330
747D
100
AcDbEntity
  8
細線
100
AcDbLine
 10
5799.896575106912
 20
7284.933683184812
 30
0.0
 11
5792.396575106916
 21
7307.93368318474
 31
0.0
  0
LINE
  5
14C0C
330
747D
100
AcDbEntity
  8
部品1
100
AcDbLine
 10
7413.396575106979
 20
7412.433683184724
 30
0.0
 11
5316.396575106873
 21
7412.433683184606
 31
0.0
  0
LINE
  5
14C0D
330
747D
100
AcDbEntity
  8
破線
 48
10.0
100
AcDbLine
 10
7389.89657510698
 20
7435.933683184725
 30
0.0
 11
6735.396575106999
 21
7435.933683184687
 31
0.0
  0
LINE
  5
14C0E
330
747D
100
AcDbEntity
  8
破線
 48
10.0
100
AcDbLine
 10
6685.396575106999
 20
7435.933683184683
 30
0.0
 11
6044.396575106999
 21
7435.933683184646
 31
0.0
  0
LINE
  5
14C1E
330
747D
100
AcDbEntity
  8
部品1
100
AcDbLine
 10
7413.396575107047
 20
9011.933683184725
 30
0.0
 11
7413.396575106978
 21
7412.433683184727
 31
0.0
  0
LINE
  5
14C1F
330
747D
100
AcDbEntity
  8
破線
 48
10.0
100
AcDbLine
 10
7389.896575107048
 20
9011.933683184723
 30
0.0
 11
7389.896575106982
 21
7435.933683184725
 31
0.0
  0
LINE
  5
14C20
330
747D
100
AcDbEntity
  8
部品1
 48
50.0
100
AcDbLine
 10
7413.396575106979
 20
7412.433683184724
 30
0.0
 11
7441.896575106977
 21
7383.933683184726
 31
0.0
  0
LINE
  5
14C31
330
747D
100
AcDbEntity
  8
部品1
100
AcDbLine
 10
5316.39657510693
 20
9011.933683184579
 30
0.0
 11
5316.396575106991
 21
7412.433683184723
 31
0.0
  0
LINE
  5
14C32
330
747D
100
AcDbEntity
  8
破線
 48
10.0
100
AcDbLine
 10
5339.896575106926
 20
9011.933683184581
 30
0.0
 11
5339.89657510699
 21
7435.933683184605
 31
0.0
  0
LINE
  5
14C33
330
747D
100
AcDbEntity
  8
部品1
 48
50.0
100
AcDbLine
 10
5316.396575106991
 20
7412.433683184724
 30
0.0
 11
5287.896575106993
 21
7383.933683184726
 31
0.0
  0
LINE
  5
14C5B
330
747D
100
AcDbEntity
  8
細線
100
AcDbLine
 10
5319.896575106993
 20
7288.933683184591
 30
0.0
 11
5319.896575106993
 21
7284.93368318464
 31
0.0
  0
DIMENSION
  5
14D62
330
747D
100
AcDbEntity
  8
寸法
100
AcDbDimension
  2
*D16
 10
6502.177919925209
 20
8790.926653290172
 30
0.0
 11
5765.319254562271
 21
8790.926653290172
 31
0.0
 70
   160
 71
     5
 42
1273.000000000015
  3
INABA_S40G
100
AcDbAlignedDimension
 13
5288.396575107013
 23
9011.933683184576
 33
0.0
 14
6561.396575107027
 24
9011.93368318462
 34
0.0
100
AcDbRotatedDimension
1001
ACAD
1000
DSTYLE
1002
{
1002
}
  0
LINE
  5
14D86
330
747D
100
AcDbEntity
  8
細線
100
AcDbLine
 10
5319.896575106991
 20
4932.000000000003
 30
0.0
 11
7409.896575107008
 21
4932.0
 31
0.0
  0
TEXT
  5
14DEF
330
747D
100
AcDbEntity
  8
文字
 62
     7
 48
50.0
100
AcDbText
 10
14641.2525855784
 20
871.1744590657925
 30
0.0
 40
100.0
  1
～一般型・多雪地型～
  7
STYLE2
100
AcDbText
  0
TEXT
  5
15A76
330
747D
100
AcDbEntity
  8
文字
 62
     7
 48
50.0
100
AcDbText
 10
14464.69563014562
 20
483.8967129911411
 30
0.0
 40
160.0
  1
ＮＸＮ－４８Ｓ
  7
STYLE2
100
AcDbText
  0
LINE
  5
1B049
330
747D
100
AcDbEntity
  8
部品1
100
AcDbLine
 10
6768.896575106987
 20
4932.000000000002
 30
0.0
 11
6768.896575106989
 21
3156.500000000015
 31
0.0
  0
LINE
  5
1B556
330
747D
100
AcDbEntity
  8
細線
100
AcDbLine
 10
6014.896575106991
 20
4932.0
 30
0.0
 11
6014.896575106991
 21
3149.000000000008
 31
0.0
  0
LINE
  5
1B557
330
747D
100
AcDbEntity
  8
細線
100
AcDbLine
 10
5944.896575106992
 20
4932.0
 30
0.0
 11
5944.896575106991
 21
3149.000000000007
 31
0.0
  0
LINE
  5
1B558
330
747D
100
AcDbEntity
  8
細線
100
AcDbLine
 10
5874.896575106991
 20
4932.0
 30
0.0
 11
5874.896575106991
 21
3149.000000000006
 31
0.0
  0
LINE
  5
1B559
330
747D
100
AcDbEntity
  8
細線
100
AcDbLine
 10
5804.896575106992
 20
4932.0
 30
0.0
 11
5804.89657510699
 21
3149.000000000004
 31
0.0
  0
LINE
  5
1B55A
330
747D
100
AcDbEntity
  8
細線
100
AcDbLine
 10
5734.896575106992
 20
4932.0
 30
0.0
 11
5734.896575106991
 21
3149.000000000004
 31
0.0
  0
LINE
  5
1B55B
330
747D
100
AcDbEntity
  8
細線
100
AcDbLine
 10
5664.896575106991
 20
4932.0
 30
0.0
 11
5664.896575106991
 21
3149.000000000004
 31
0.0
  0
LINE
  5
1B55D
330
747D
100
AcDbEntity
  8
部品1
100
AcDbLine
 10
5480.89657510699
 20
4932.000000000003
 30
0.0
 11
5480.896575106992
 21
3149.000000000006
 31
0.0
  0
LINE
  5
1B55E
330
747D
100
AcDbEntity
  8
部品1
100
AcDbLine
 10
5430.89657510699
 20
4932.000000000003
 30
0.0
 11
5430.896575106991
 21
3149.000000000005
 31
0.0
  0
LINE
  5
1B560
330
747D
100
AcDbEntity
  8
細線
100
AcDbLine
 10
5472.89657510699
 20
4932.000000000003
 30
0.0
 11
5472.896575106992
 21
3149.000000000006
 31
0.0
  0
LINE
  5
1B561
330
747D
100
AcDbEntity
  8
細線
100
AcDbLine
 10
5438.896575106991
 20
4932.000000000003
 30
0.0
 11
5438.896575106991
 21
3149.000000000005
 31
0.0
  0
LINE
  5
1B562
330
747D
100
AcDbEntity
  8
細線
100
AcDbLine
 10
6666.396575106986
 20
4932.0
 30
0.0
 11
6666.396575106988
 21
3156.500000000013
 31
0.0
  0
LINE
  5
1B563
330
747D
100
AcDbEntity
  8
細線
100
AcDbLine
 10
6596.396575106988
 20
4932.0
 30
0.0
 11
6596.396575106988
 21
3156.500000000013
 31
0.0
  0
LINE
  5
1B564
330
747D
100
AcDbEntity
  8
細線
100
AcDbLine
 10
6526.396575106987
 20
4932.0
 30
0.0
 11
6526.396575106989
 21
3156.500000000013
 31
0.0
  0
LINE
  5
1B565
330
747D
100
AcDbEntity
  8
細線
100
AcDbLine
 10
6456.396575106987
 20
4932.0
 30
0.0
 11
6456.396575106989
 21
3156.500000000013
 31
0.0
  0
LINE
  5
1B566
330
747D
100
AcDbEntity
  8
細線
100
AcDbLine
 10
6386.396575106988
 20
4932.0
 30
0.0
 11
6386.396575106989
 21
3156.500000000013
 31
0.0
  0
LINE
  5
1B567
330
747D
100
AcDbEntity
  8
細線
100
AcDbLine
 10
6316.396575106987
 20
4932.0
 30
0.0
 11
6316.396575106988
 21
3156.500000000013
 31
0.0
  0
LINE
  5
1B594
330
747D
100
AcDbEntity
  8
細線
100
AcDbLine
 10
7278.896575106975
 20
4932.0
 30
0.0
 11
7278.896575106975
 21
3156.500000000019
 31
0.0
  0
LINE
  5
1B595
330
747D
100
AcDbEntity
  8
細線
100
AcDbLine
 10
7208.896575106975
 20
4932.0
 30
0.0
 11
7208.896575106975
 21
3156.500000000019
 31
0.0
  0
LINE
  5
1B596
330
747D
100
AcDbEntity
  8
細線
100
AcDbLine
 10
7138.896575106976
 20
4932.0
 30
0.0
 11
7138.896575106976
 21
3156.500000000019
 31
0.0
  0
LINE
  5
1B597
330
747D
100
AcDbEntity
  8
細線
100
AcDbLine
 10
7068.896575106975
 20
4932.0
 30
0.0
 11
7068.896575106975
 21
3156.500000000019
 31
0.0
  0
LINE
  5
1B598
330
747D
100
AcDbEntity
  8
細線
100
AcDbLine
 10
6998.896575106975
 20
4932.0
 30
0.0
 11
6998.896575106975
 21
3156.500000000019
 31
0.0
  0
LINE
  5
1B599
330
747D
100
AcDbEntity
  8
細線
100
AcDbLine
 10
6928.896575106975
 20
4932.0
 30
0.0
 11
6928.896575106975
 21
3156.500000000019
 31
0.0
  0
LINE
  5
1B9FE
330
747D
100
AcDbEntity
  8
部品1
 48
50.0
100
AcDbLine
 10
5354.896575106991
 20
4105.500000000011
 30
0.0
 11
5407.896575106991
 21
4105.500000000012
 31
0.0
  0
ARC
  5
1BAB8
330
747D
100
AcDbEntity
  8
部品1
 48
0.01
100
AcDbCircle
 10
6956.896575107009
 20
4972.500000000001
 30
0.0
 40
2.0
100
AcDbArc
 50
180.0
 51
270.0
  0
ARC
  5
1BAB9
330
747D
100
AcDbEntity
  8
部品1
 48
0.01
100
AcDbCircle
 10
6956.896575107009
 20
5004.000000000001
 30
0.0
 40
2.0
100
AcDbArc
 50
90.0
 51
180.0
  0
ARC
  5
1BABA
330
747D
100
AcDbEntity
  8
部品1
 48
0.01
100
AcDbCircle
 10
7132.896575107008
 20
4972.500000000001
 30
0.0
 40
2.0
100
AcDbArc
 50
270.0
 51
0.0
  0
ARC
  5
1BABB
330
747D
100
AcDbEntity
  8
部品1
 48
0.01
100
AcDbCircle
 10
7132.896575107008
 20
5004.000000000001
 30
0.0
 40
2.0
100
AcDbArc
 50
0.0
 51
90.0
  0
LINE
  5
1BABC
330
747D
100
AcDbEntity
  8
細線
100
AcDbLine
 10
7044.89657510701
 20
4976.500000000001
 30
0.0
 11
6970.896575107009
 21
4976.500000000001
 31
0.0
  0
LINE
  5
1BABD
330
747D
100
AcDbEntity
  8
細線
100
AcDbLine
 10
7044.896575107009
 20
4999.500000000001
 30
0.0
 11
7118.896575107008
 21
4999.500000000001
 31
0.0
  0
LINE
  5
1BABE
330
747D
100
AcDbEntity
  8
細線
100
AcDbLine
 10
7118.896575107008
 20
4976.500000000001
 30
0.0
 11
7044.896575107009
 21
4976.500000000001
 31
0.0
  0
LINE
  5
1BABF
330
747D
100
AcDbEntity
  8
細線
100
AcDbLine
 10
6970.896575107009
 20
4999.500000000001
 30
0.0
 11
7044.896575107009
 21
4999.500000000001
 31
0.0
  0
LINE
  5
1BAC0
330
747D
100
AcDbEntity
  8
細線
100
AcDbLine
 10
6970.896575107009
 20
4976.500000000001
 30
0.0
 11
6970.896575107009
 21
4999.500000000001
 31
0.0
  0
LINE
  5
1BAC1
330
747D
100
AcDbEntity
  8
細線
100
AcDbLine
 10
7118.896575107008
 20
4999.500000000001
 30
0.0
 11
7118.896575107008
 21
4976.500000000001
 31
0.0
  0
LINE
  5
1BAC2
330
747D
100
AcDbEntity
  8
部品1
 48
0.01
100
AcDbLine
 10
6954.89657510701
 20
4972.500000000001
 30
0.0
 11
6954.89657510701
 21
5004.000000000001
 31
0.0
  0
LINE
  5
1BAC3
330
747D
100
AcDbEntity
  8
部品1
 48
0.01
100
AcDbLine
 10
7132.896575107008
 20
4970.500000000001
 30
0.0
 11
6956.896575107009
 21
4970.500000000001
 31
0.0
  0
LINE
  5
1BAC4
330
747D
100
AcDbEntity
  8
部品1
 48
0.01
100
AcDbLine
 10
7134.89657510701
 20
5004.000000000001
 30
0.0
 11
7134.89657510701
 21
4972.500000000001
 31
0.0
  0
LINE
  5
1BAC5
330
747D
100
AcDbEntity
  8
部品1
 48
0.01
100
AcDbLine
 10
6956.896575107009
 20
5006.000000000001
 30
0.0
 11
7132.896575107008
 21
5006.000000000001
 31
0.0
  0
LINE
  5
1BAD3
330
747D
100
AcDbEntity
  8
細線
100
AcDbLine
 10
7118.896575107008
 20
4993.5
 30
0.0
 11
7044.896575107009
 21
4993.5
 31
0.0
  0
LINE
  5
1BAD4
330
747D
100
AcDbEntity
  8
細線
100
AcDbLine
 10
7118.896575107008
 20
4987.5
 30
0.0
 11
7044.896575107009
 21
4987.5
 31
0.0
  0
LINE
  5
1BAD5
330
747D
100
AcDbEntity
  8
細線
100
AcDbLine
 10
7118.89657510701
 20
4981.500000000001
 30
0.0
 11
7044.896575107009
 21
4981.500000000001
 31
0.0
  0
LINE
  5
1BAD7
330
747D
100
AcDbEntity
  8
細線
100
AcDbLine
 10
7118.896575107008
 20
4993.5
 30
0.0
 11
7049.896575107009
 21
4993.5
 31
0.0
  0
LINE
  5
1BAE0
330
747D
100
AcDbEntity
  8
細線
100
AcDbLine
 10
6970.896575107009
 20
4993.5
 30
0.0
 11
7044.896575107009
 21
4993.5
 31
0.0
  0
LINE
  5
1BAE4
330
747D
100
AcDbEntity
  8
細線
100
AcDbLine
 10
6970.896575107009
 20
4981.5
 30
0.0
 11
7044.896575107009
 21
4981.500000000001
 31
0.0
  0
LINE
  5
1BAE5
330
747D
100
AcDbEntity
  8
細線
100
AcDbLine
 10
6970.896575107009
 20
4987.5
 30
0.0
 11
7044.896575107009
 21
4987.5
 31
0.0
  0
LINE
  5
1BDC6
330
747D
100
AcDbEntity
  8
細線
100
AcDbLine
 10
7044.896575107009
 20
4999.500000000001
 30
0.0
 11
7044.89657510701
 21
4976.500000000001
 31
0.0
  0
LINE
  5
1BDD2
330
747D
100
AcDbEntity
  8
細線
100
AcDbLine
 10
5684.896575106991
 20
4999.500000000001
 30
0.0
 11
5684.896575106989
 21
4976.5
 31
0.0
  0
LINE
  5
1BDD3
330
747D
100
AcDbEntity
  8
細線
100
AcDbLine
 10
5758.89657510699
 20
4987.5
 30
0.0
 11
5684.896575106991
 21
4987.5
 31
0.0
  0
LINE
  5
1BDD4
330
747D
100
AcDbEntity
  8
細線
100
AcDbLine
 10
5758.89657510699
 20
4981.499999999999
 30
0.0
 11
5684.896575106991
 21
4981.5
 31
0.0
  0
LINE
  5
1BDD5
330
747D
100
AcDbEntity
  8
細線
100
AcDbLine
 10
5758.89657510699
 20
4993.5
 30
0.0
 11
5684.896575106991
 21
4993.5
 31
0.0
  0
LINE
  5
1BDD6
330
747D
100
AcDbEntity
  8
細線
100
AcDbLine
 10
5610.896575106991
 20
4993.5
 30
0.0
 11
5679.89657510699
 21
4993.5
 31
0.0
  0
LINE
  5
1BDD7
330
747D
100
AcDbEntity
  8
細線
100
AcDbLine
 10
5610.89657510699
 20
4981.5
 30
0.0
 11
5684.896575106991
 21
4981.5
 31
0.0
  0
LINE
  5
1BDD8
330
747D
100
AcDbEntity
  8
細線
100
AcDbLine
 10
5610.896575106991
 20
4987.5
 30
0.0
 11
5684.896575106991
 21
4987.5
 31
0.0
  0
LINE
  5
1BDD9
330
747D
100
AcDbEntity
  8
細線
100
AcDbLine
 10
5610.896575106991
 20
4993.5
 30
0.0
 11
5684.896575106991
 21
4993.5
 31
0.0
  0
LINE
  5
1BDDA
330
747D
100
AcDbEntity
  8
部品1
 48
0.01
100
AcDbLine
 10
5772.89657510699
 20
5006.0
 30
0.0
 11
5596.896575106991
 21
5006.0
 31
0.0
  0
LINE
  5
1BDDB
330
747D
100
AcDbEntity
  8
部品1
 48
0.01
100
AcDbLine
 10
5594.896575106991
 20
5004.0
 30
0.0
 11
5594.896575106991
 21
4972.5
 31
0.0
  0
LINE
  5
1BDDC
330
747D
100
AcDbEntity
  8
部品1
 48
0.01
100
AcDbLine
 10
5596.896575106991
 20
4970.5
 30
0.0
 11
5772.89657510699
 21
4970.5
 31
0.0
  0
LINE
  5
1BDDD
330
747D
100
AcDbEntity
  8
部品1
 48
0.01
100
AcDbLine
 10
5774.89657510699
 20
4972.5
 30
0.0
 11
5774.896575106991
 21
5004.0
 31
0.0
  0
LINE
  5
1BDDE
330
747D
100
AcDbEntity
  8
細線
100
AcDbLine
 10
5610.896575106991
 20
4999.500000000001
 30
0.0
 11
5610.896575106991
 21
4976.5
 31
0.0
  0
LINE
  5
1BDDF
330
747D
100
AcDbEntity
  8
細線
100
AcDbLine
 10
5758.896575106991
 20
4976.5
 30
0.0
 11
5758.896575106991
 21
4999.500000000001
 31
0.0
  0
LINE
  5
1BDE0
330
747D
100
AcDbEntity
  8
細線
100
AcDbLine
 10
5758.896575106991
 20
4999.500000000001
 30
0.0
 11
5684.896575106991
 21
4999.500000000001
 31
0.0
  0
LINE
  5
1BDE1
330
747D
100
AcDbEntity
  8
細線
100
AcDbLine
 10
5610.896575106991
 20
4976.5
 30
0.0
 11
5684.896575106991
 21
4976.5
 31
0.0
  0
LINE
  5
1BDE2
330
747D
100
AcDbEntity
  8
細線
100
AcDbLine
 10
5684.896575106991
 20
4999.500000000001
 30
0.0
 11
5610.896575106991
 21
4999.500000000001
 31
0.0
  0
LINE
  5
1BDE3
330
747D
100
AcDbEntity
  8
細線
100
AcDbLine
 10
5684.896575106989
 20
4976.5
 30
0.0
 11
5758.896575106991
 21
4976.5
 31
0.0
  0
ARC
  5
1BDE4
330
747D
100
AcDbEntity
  8
部品1
 48
0.01
100
AcDbCircle
 10
5596.896575106991
 20
5004.0
 30
0.0
 40
2.0
100
AcDbArc
 50
90.0
 51
180.0
  0
ARC
  5
1BDE5
330
747D
100
AcDbEntity
  8
部品1
 48
0.01
100
AcDbCircle
 10
5596.896575106991
 20
4972.5
 30
0.0
 40
2.0
100
AcDbArc
 50
180.0
 51
270.0
  0
ARC
  5
1BDE6
330
747D
100
AcDbEntity
  8
部品1
 48
0.01
100
AcDbCircle
 10
5772.89657510699
 20
5004.0
 30
0.0
 40
2.0
100
AcDbArc
 50
0.000000000000007
 51
90.0
  0
ARC
  5
1BDE7
330
747D
100
AcDbEntity
  8
部品1
 48
0.01
100
AcDbCircle
 10
5772.89657510699
 20
4972.5
 30
0.0
 40
2.0
100
AcDbArc
 50
270.0
 51
0.000000000000007
  0
LINE
  5
1BDE8
330
747D
100
AcDbEntity
  8
部品1
 48
50.0
100
AcDbLine
 10
7512.488154000577
 20
5175.000000000005
 30
0.0
 11
5217.304996213423
 21
5175.000000000005
 31
0.0
  0
LINE
  5
1BDE9
330
747D
100
AcDbEntity
  8
部品1
 48
50.0
100
AcDbLine
 10
7499.272830539545
 20
5034.000000000006
 30
0.0
 11
5230.520319674456
 21
5034.000000000006
 31
0.0
  0
LINE
  5
1BDEA
330
747D
100
AcDbEntity
  8
細線
 48
50.0
100
AcDbLine
 10
7517.737924095093
 20
5146.973242563473
 30
0.0
 11
5212.055226118951
 21
5146.973242563792
 31
0.0
  0
LINE
  5
1BDEB
330
747D
100
AcDbEntity
  8
細線
 48
50.0
100
AcDbLine
 10
7509.501893570207
 20
5054.77324256379
 30
0.0
 11
5220.291256643793
 21
5054.77324256379
 31
0.0
  0
LINE
  5
1BDEC
330
747D
100
AcDbEntity
  8
部品1
100
AcDbLine
 10
7519.476914091676
 20
5167.603474604764
 30
0.0
 11
7518.34351675933
 21
5147.627346622165
 31
0.0
  0
LINE
  5
1BDEE
330
747D
100
AcDbEntity
  8
細線
 48
50.0
100
AcDbLine
 10
7486.896575107009
 20
5175.000000000005
 30
0.0
 11
7486.896575107009
 21
5034.000000000005
 31
0.0
  0
LINE
  5
1BDEF
330
747D
100
AcDbEntity
  8
細線
 48
50.0
100
AcDbLine
 10
5242.896575106992
 20
5175.000000000005
 30
0.0
 11
5242.896575106992
 21
5034.000000000005
 31
0.0
  0
LINE
  5
1BE41
330
747D
100
AcDbEntity
  8
部品1
100
AcDbLine
 10
7506.906496437753
 20
5051.969939455105
 30
0.0
 11
7506.261590630643
 21
5040.603474604766
 31
0.0
  0
LINE
  5
1BE42
330
747D
100
AcDbEntity
  8
部品1
100
AcDbLine
 10
7515.142526962598
 20
5144.169939455108
 30
0.0
 11
7510.107486234487
 21
5055.427346622163
 31
0.0
  0
ARC
  5
1BE44
330
747D
100
AcDbEntity
  8
部品1
 48
50.0
100
AcDbCircle
 10
7518.137709858784
 20
5144.000000000005
 30
0.0
 40
3.0
100
AcDbArc
 50
97.65812720738011
 51
176.7526572096774
  0
ARC
  5
1BE45
330
747D
100
AcDbEntity
  8
部品1
 48
50.0
100
AcDbCircle
 10
7509.90167933394
 20
5051.800000000003
 30
0.0
 40
3.0
100
AcDbArc
 50
97.6581272073629
 51
176.7526572096767
  0
ARC
  5
1BE46
330
747D
100
AcDbEntity
  8
部品1
 48
50.0
100
AcDbCircle
 10
7509.40861022538
 20
5055.466999161687
 30
0.0
 40
0.7
100
AcDbArc
 50
277.6581272073433
 51
356.7526572097019
  0
ARC
  5
1BE47
330
747D
100
AcDbEntity
  8
部品1
 48
50.0
100
AcDbCircle
 10
7517.644640750221
 20
5147.66699916169
 30
0.0
 40
0.7
100
AcDbArc
 50
277.6581272073433
 51
356.7526572096275
  0
ARC
  5
1BE48
330
747D
100
AcDbEntity
  8
部品1
100
AcDbCircle
 10
7499.272830539545
 20
5041.000000000005
 30
0.0
 40
7.0
100
AcDbArc
 50
270.0
 51
356.7526572096773
  0
ARC
  5
1BE49
330
747D
100
AcDbEntity
  8
部品1
100
AcDbCircle
 10
7512.488154000577
 20
5168.000000000005
 30
0.0
 40
7.0
100
AcDbArc
 50
356.752657209676
 51
89.99999999999998
  0
ARC
  5
1BE4A
330
747D
100
AcDbEntity
  8
部品1
100
AcDbCircle
 10
5217.304996213423
 20
5168.000000000005
 30
0.0
 40
7.0
100
AcDbArc
 50
90.00000000000003
 51
183.247342790324
  0
ARC
  5
1BE4B
330
747D
100
AcDbEntity
  8
部品1
100
AcDbCircle
 10
5230.520319674456
 20
5041.000000000005
 30
0.0
 40
7.0
100
AcDbArc
 50
183.2473427903227
 51
270.0
  0
ARC
  5
1BE4C
330
747D
100
AcDbEntity
  8
部品1
 48
50.0
100
AcDbCircle
 10
5212.148509463778
 20
5147.66699916169
 30
0.0
 40
0.7
100
AcDbArc
 50
183.2473427903725
 51
262.3418727926567
  0
ARC
  5
1BE4D
330
747D
100
AcDbEntity
  8
部品1
 48
50.0
100
AcDbCircle
 10
5220.384539988621
 20
5055.466999161687
 30
0.0
 40
0.7
100
AcDbArc
 50
183.2473427902981
 51
262.3418727926567
  0
ARC
  5
1BE4E
330
747D
100
AcDbEntity
  8
部品1
 48
50.0
100
AcDbCircle
 10
5219.891470880059
 20
5051.800000000003
 30
0.0
 40
3.0
100
AcDbArc
 50
3.247342790323342
 51
82.34187279263712
  0
ARC
  5
1BE4F
330
747D
100
AcDbEntity
  8
部品1
 48
50.0
100
AcDbCircle
 10
5211.655440355216
 20
5144.000000000005
 30
0.0
 40
3.0
100
AcDbArc
 50
3.247342790322579
 51
82.34187279261989
  0
LINE
  5
1BE50
330
747D
100
AcDbEntity
  8
部品1
100
AcDbLine
 10
5214.650623251401
 20
5144.169939455108
 30
0.0
 11
5219.685663979512
 21
5055.427346622163
 31
0.0
  0
LINE
  5
1BE51
330
747D
100
AcDbEntity
  8
部品1
100
AcDbLine
 10
5222.886653776247
 20
5051.969939455105
 30
0.0
 11
5223.531559583357
 21
5040.603474604766
 31
0.0
  0
LINE
  5
1BE52
330
747D
100
AcDbEntity
  8
部品1
100
AcDbLine
 10
5210.316236122324
 20
5167.603474604764
 30
0.0
 11
5211.44963345467
 21
5147.627346622165
 31
0.0
  0
LINE
  5
1C310
330
747D
100
AcDbEntity
  8
細線
100
AcDbLine
 10
5874.896575106982
 20
7284.933683184736
 30
0.0
 11
5872.565036816214
 21
7289.93368318472
 31
0.0
  0
LINE
  5
1C316
330
747D
100
AcDbEntity
  8
細線
100
AcDbLine
 10
5872.565036816215
 20
7289.93368318472
 30
0.0
 11
5807.228113397741
 21
7289.933683184711
 31
0.0
  0
LINE
  5
1C318
330
747D
100
AcDbEntity
  8
細線
100
AcDbLine
 10
5804.896575106987
 20
7284.933683184711
 30
0.0
 11
5734.896575106986
 21
7284.933683184701
 31
0.0
  0
LINE
  5
1C319
330
747D
100
AcDbEntity
  8
細線
100
AcDbLine
 10
5664.896575106987
 20
7284.933683184691
 30
0.0
 11
5594.896575106987
 21
7284.933683184681
 31
0.0
  0
LINE
  5
1C31B
330
747D
100
AcDbEntity
  8
細線
100
AcDbLine
 10
5524.896575106987
 20
7284.93368318467
 30
0.0
 11
5310.884268457942
 21
7284.933683184639
 31
0.0
  0
LINE
  5
1C31C
330
747D
100
AcDbEntity
  8
細線
100
AcDbLine
 10
5804.896575106987
 20
7284.933683184753
 30
0.0
 11
5807.228113397755
 21
7289.933683184739
 31
0.0
  0
LINE
  5
1C31D
330
747D
100
AcDbEntity
  8
細線
100
AcDbLine
 10
5732.565036816214
 20
7289.933683184701
 30
0.0
 11
5667.228113397739
 21
7289.933683184689
 31
0.0
  0
LINE
  5
1C31E
330
747D
100
AcDbEntity
  8
細線
100
AcDbLine
 10
5734.896575106979
 20
7284.933683184715
 30
0.0
 11
5732.565036816212
 21
7289.933683184701
 31
0.0
  0
LINE
  5
1C31F
330
747D
100
AcDbEntity
  8
細線
100
AcDbLine
 10
5664.896575106985
 20
7284.933683184734
 30
0.0
 11
5667.228113397754
 21
7289.933683184719
 31
0.0
  0
LINE
  5
1C320
330
747D
100
AcDbEntity
  8
細線
100
AcDbLine
 10
5592.565036816214
 20
7289.933683184681
 30
0.0
 11
5527.22811339774
 21
7289.933683184671
 31
0.0
  0
LINE
  5
1C321
330
747D
100
AcDbEntity
  8
細線
100
AcDbLine
 10
5594.896575106981
 20
7284.933683184696
 30
0.0
 11
5592.565036816213
 21
7289.933683184681
 31
0.0
  0
LINE
  5
1C322
330
747D
100
AcDbEntity
  8
細線
100
AcDbLine
 10
5524.896575106986
 20
7284.933683184714
 30
0.0
 11
5527.228113397754
 21
7289.933683184699
 31
0.0
  0
LINE
  5
1C333
330
747D
100
AcDbEntity
  8
細線
100
AcDbLine
 10
5476.396575106992
 20
7302.933683184663
 30
0.0
 11
5476.396575106992
 21
7284.93368318464
 31
0.0
  0
LINE
  5
1C334
330
747D
100
AcDbEntity
  8
細線
100
AcDbLine
 10
5435.396575106993
 20
7302.933683184658
 30
0.0
 11
5435.396575106993
 21
7284.93368318464
 31
0.0
  0
LINE
  5
1C335
330
747D
100
AcDbEntity
  8
細線
100
AcDbLine
 10
5476.396575106992
 20
7302.933683184663
 30
0.0
 11
5435.396575106993
 21
7302.933683184658
 31
0.0
  0
ARC
  5
1C337
330
747D
100
AcDbEntity
  8
部品1
100
AcDbCircle
 10
5437.940730984269
 20
7284.433683184662
 30
0.0
 40
1.0
100
AcDbArc
 50
270.0
 51
19.47122063447127
  0
LINE
  5
1C339
330
747D
100
AcDbEntity
  8
部品1
 48
0.01
100
AcDbLine
 10
5430.896575106986
 20
7284.933683184663
 30
0.0
 11
5430.896575106986
 21
7283.933683184662
 31
0.0
  0
LINE
  5
1C33C
330
747D
100
AcDbEntity
  8
部品1
 48
0.01
100
AcDbLine
 10
5431.396575106987
 20
7283.433683184663
 30
0.0
 11
5437.940730984269
 21
7283.433683184661
 31
0.0
  0
ARC
  5
1C33D
330
747D
100
AcDbEntity
  8
部品1
 48
0.01
100
AcDbCircle
 10
5431.396575106987
 20
7283.933683184662
 30
0.0
 40
0.5
100
AcDbArc
 50
180.0
 51
270.0
  0
ARC
  5
1C33F
330
747D
100
AcDbEntity
  8
部品1
100
AcDbCircle
 10
5463.396575106987
 20
7293.433683184661
 30
0.0
 40
26.0
100
AcDbArc
 50
180.0
 51
199.4712206344713
  0
ARC
  5
1C341
330
747D
100
AcDbEntity
  8
部品1
 48
0.01
100
AcDbCircle
 10
5439.396575106986
 20
7298.433683184661
 30
0.0
 40
2.0
100
AcDbArc
 50
90.0
 51
180.0
  0
LINE
  5
1C343
330
747D
100
AcDbEntity
  8
部品1
100
AcDbLine
 10
5437.396575106987
 20
7293.433683184661
 30
0.0
 11
5437.396575106987
 21
7298.433683184661
 31
0.0
  0
ARC
  5
1C344
330
747D
100
AcDbEntity
  8
部品1
100
AcDbCircle
 10
5455.896575106987
 20
7309.233683184662
 30
0.0
 40
16.0
100
AcDbArc
 50
218.3930440192126
 51
254.0576313943716
  0
ARC
  5
1C346
330
747D
100
AcDbEntity
  8
部品1
100
AcDbCircle
 10
5441.004966731799
 20
7297.433683184661
 30
0.0
 40
3.0
100
AcDbArc
 50
38.39304401921267
 51
90.0
  0
LINE
  5
1C347
330
747D
100
AcDbEntity
  8
部品1
 48
0.01
100
AcDbLine
 10
5439.396575106986
 20
7300.433683184661
 30
0.0
 11
5441.004966731799
 21
7300.433683184661
 31
0.0
  0
ARC
  5
1C358
330
747D
100
AcDbEntity
  8
部品1
100
AcDbCircle
 10
5455.896575106987
 20
7309.233683184662
 30
0.0
 40
16.0
100
AcDbArc
 50
285.9423686056284
 51
321.6069559807873
  0
LINE
  5
1C35E
330
747D
100
AcDbEntity
  8
部品1
100
AcDbLine
 10
5459.467289321257
 20
7293.733683184662
 30
0.0
 11
5452.325860892714
 21
7293.733683184662
 31
0.0
  0
ARC
  5
1C360
330
747D
100
AcDbEntity
  8
部品1
100
AcDbCircle
 10
5459.467289321257
 20
7296.733683184662
 30
0.0
 40
3.0
100
AcDbArc
 50
270.0
 51
285.9423686056284
  0
ARC
  5
1C362
330
747D
100
AcDbEntity
  8
部品1
100
AcDbCircle
 10
5452.325860892714
 20
7296.733683184662
 30
0.0
 40
3.0
100
AcDbArc
 50
254.0576313943716
 51
270.0
  0
LINE
  5
1C363
330
747D
100
AcDbEntity
  8
部品1
 48
0.01
100
AcDbLine
 10
5472.396575106986
 20
7300.433683184661
 30
0.0
 11
5470.788183482174
 21
7300.433683184661
 31
0.0
  0
ARC
  5
1C366
330
747D
100
AcDbEntity
  8
部品1
100
AcDbCircle
 10
5470.788183482174
 20
7297.433683184661
 30
0.0
 40
3.0
100
AcDbArc
 50
90.0
 51
141.6069559807873
  0
ARC
  5
1C368
330
747D
100
AcDbEntity
  8
部品1
 48
0.01
100
AcDbCircle
 10
5472.396575106986
 20
7298.433683184661
 30
0.0
 40
2.0
100
AcDbArc
 50
0.0
 51
90.0
  0
LINE
  5
1C369
330
747D
100
AcDbEntity
  8
部品1
100
AcDbLine
 10
5474.396575106986
 20
7293.433683184661
 30
0.0
 11
5474.396575106986
 21
7298.433683184661
 31
0.0
  0
ARC
  5
1C36C
330
747D
100
AcDbEntity
  8
部品1
100
AcDbCircle
 10
5448.396575106986
 20
7293.433683184661
 30
0.0
 40
26.0
100
AcDbArc
 50
340.5287793655287
 51
0.0
  0
ARC
  5
1C36D
330
747D
100
AcDbEntity
  8
部品1
100
AcDbCircle
 10
5473.852419229702
 20
7284.433683184662
 30
0.0
 40
1.0
100
AcDbArc
 50
160.5287793655287
 51
270.0
  0
LINE
  5
1C36F
330
747D
100
AcDbEntity
  8
部品1
 48
0.01
100
AcDbLine
 10
5480.396575106986
 20
7283.433683184663
 30
0.0
 11
5473.784069676923
 21
7283.433683184661
 31
0.0
  0
LINE
  5
1C372
330
747D
100
AcDbEntity
  8
部品1
 48
0.01
100
AcDbLine
 10
5480.896575106986
 20
7284.933683184663
 30
0.0
 11
5480.896575106986
 21
7283.933683184662
 31
0.0
  0
LINE
  5
1C373
330
747D
100
AcDbEntity
  8
部品1
 48
0.01
100
AcDbLine
 10
5480.896575106986
 20
7284.933683184663
 30
0.0
 11
5480.896575106986
 21
7283.933683184662
 31
0.0
  0
ARC
  5
1C374
330
747D
100
AcDbEntity
  8
部品1
 48
0.01
100
AcDbCircle
 10
5480.396575106986
 20
7283.933683184662
 30
0.0
 40
0.5
100
AcDbArc
 50
270.0
 51
0.0
  0
LINE
  5
1C386
330
747D
100
AcDbEntity
  8
細線
100
AcDbLine
 10
6176.396575107
 20
7318.933683184728
 30
0.0
 11
6178.728113397761
 21
7323.933683184701
 31
0.0
  0
LINE
  5
1C387
330
747D
100
AcDbEntity
  8
細線
100
AcDbLine
 10
6246.396575106988
 20
7318.933683184697
 30
0.0
 11
6244.065036816221
 21
7323.933683184683
 31
0.0
  0
LINE
  5
1C388
330
747D
100
AcDbEntity
  8
細線
100
AcDbLine
 10
6244.065036816222
 20
7323.933683184683
 30
0.0
 11
6178.728113397748
 21
7323.933683184671
 31
0.0
  0
LINE
  5
1C389
330
747D
100
AcDbEntity
  8
細線
100
AcDbLine
 10
6316.396575106993
 20
7318.933683184734
 30
0.0
 11
6318.72811339776
 21
7323.933683184719
 31
0.0
  0
LINE
  5
1C38A
330
747D
100
AcDbEntity
  8
細線
100
AcDbLine
 10
6386.396575106988
 20
7318.933683184716
 30
0.0
 11
6384.065036816219
 21
7323.933683184701
 31
0.0
  0
LINE
  5
1C38B
330
747D
100
AcDbEntity
  8
細線
100
AcDbLine
 10
6384.06503681622
 20
7323.933683184701
 30
0.0
 11
6318.728113397747
 21
7323.93368318469
 31
0.0
  0
LINE
  5
1C38C
330
747D
100
AcDbEntity
  8
細線
100
AcDbLine
 10
6456.396575106994
 20
7318.933683184756
 30
0.0
 11
6458.728113397762
 21
7323.933683184741
 31
0.0
  0
LINE
  5
1C38D
330
747D
100
AcDbEntity
  8
細線
100
AcDbLine
 10
6524.065036816222
 20
7323.933683184723
 30
0.0
 11
6458.728113397748
 21
7323.933683184711
 31
0.0
  0
LINE
  5
1C38E
330
747D
100
AcDbEntity
  8
細線
100
AcDbLine
 10
6526.396575106989
 20
7318.933683184737
 30
0.0
 11
6524.065036816222
 21
7323.933683184723
 31
0.0
  0
LINE
  5
1C3A4
330
747D
100
AcDbEntity
  8
細線
100
AcDbLine
 10
7208.896575106983
 20
7354.933683184732
 30
0.0
 11
7206.565036816215
 21
7359.933683184718
 31
0.0
  0
LINE
  5
1C3A5
330
747D
100
AcDbEntity
  8
細線
100
AcDbLine
 10
7206.565036816217
 20
7359.933683184718
 30
0.0
 11
7141.228113397743
 21
7359.933683184708
 31
0.0
  0
LINE
  5
1C3A6
330
747D
100
AcDbEntity
  8
細線
100
AcDbLine
 10
7138.896575106989
 20
7354.933683184751
 30
0.0
 11
7141.228113397755
 21
7359.933683184737
 31
0.0
  0
LINE
  5
1C3A7
330
747D
100
AcDbEntity
  8
細線
100
AcDbLine
 10
7066.565036816214
 20
7359.933683184698
 30
0.0
 11
7001.228113397741
 21
7359.933683184687
 31
0.0
  0
LINE
  5
1C3A8
330
747D
100
AcDbEntity
  8
細線
100
AcDbLine
 10
7068.896575106982
 20
7354.933683184713
 30
0.0
 11
7066.565036816213
 21
7359.933683184698
 31
0.0
  0
LINE
  5
1C3A9
330
747D
100
AcDbEntity
  8
細線
100
AcDbLine
 10
6998.896575106987
 20
7354.93368318473
 30
0.0
 11
7001.228113397754
 21
7359.933683184715
 31
0.0
  0
LINE
  5
1C3AA
330
747D
100
AcDbEntity
  8
細線
100
AcDbLine
 10
6926.565036816215
 20
7359.933683184678
 30
0.0
 11
6861.228113397742
 21
7359.933683184668
 31
0.0
  0
LINE
  5
1C3AB
330
747D
100
AcDbEntity
  8
細線
100
AcDbLine
 10
6928.896575106982
 20
7354.933683184693
 30
0.0
 11
6926.565036816214
 21
7359.933683184678
 31
0.0
  0
LINE
  5
1C3AC
330
747D
100
AcDbEntity
  8
細線
100
AcDbLine
 10
6858.896575106992
 20
7354.933683184724
 30
0.0
 11
6861.228113397754
 21
7359.933683184697
 31
0.0
  0
LINE
  5
1C3AD
330
747D
100
AcDbEntity
  8
細線
100
AcDbLine
 10
7138.896575106975
 20
7354.93368318472
 30
0.0
 11
7068.896575106975
 21
7354.93368318472
 31
0.0
  0
LINE
  5
1C3AE
330
747D
100
AcDbEntity
  8
細線
100
AcDbLine
 10
6998.896575106981
 20
7354.93368318472
 30
0.0
 11
6928.896575106969
 21
7354.933683184722
 31
0.0
  0
LINE
  5
1C3AF
330
747D
100
AcDbEntity
  8
細線
100
AcDbLine
 10
6858.896575106992
 20
7354.933683184724
 30
0.0
 11
6759.896575106989
 21
7354.93368318472
 31
0.0
  0
LINE
  5
1C3B0
330
747D
100
AcDbEntity
  8
細線
100
AcDbLine
 10
6456.396575106978
 20
7318.933683184723
 30
0.0
 11
6386.396575106985
 21
7318.933683184723
 31
0.0
  0
LINE
  5
1C3B1
330
747D
100
AcDbEntity
  8
細線
100
AcDbLine
 10
6316.396575106987
 20
7318.933683184723
 30
0.0
 11
6246.396575106974
 21
7318.933683184724
 31
0.0
  0
LINE
  5
1C3B2
330
747D
100
AcDbEntity
  8
細線
100
AcDbLine
 10
6176.396575107
 20
7318.933683184728
 30
0.0
 11
6105.896575107004
 21
7318.93368318475
 31
0.0
  0
LINE
  5
1DC7C
330
747D
100
AcDbEntity
  8
細線
100
AcDbLine
 10
5944.896575106986
 20
7284.933683184711
 30
0.0
 11
5874.896575106987
 21
7284.933683184701
 31
0.0
  0
LINE
  5
1DC7D
330
747D
100
AcDbEntity
  8
細線
100
AcDbLine
 10
5944.896575106987
 20
7284.933683184753
 30
0.0
 11
5947.228113397756
 21
7289.933683184739
 31
0.0
  0
LINE
  5
1DC7E
330
747D
100
AcDbEntity
  8
細線
100
AcDbLine
 10
6012.565036816216
 20
7289.93368318472
 30
0.0
 11
5947.228113397741
 21
7289.933683184711
 31
0.0
  0
LINE
  5
1DC7F
330
747D
100
AcDbEntity
  8
細線
100
AcDbLine
 10
6014.89657510698
 20
7284.933683184743
 30
0.0
 11
6012.565036816214
 21
7289.93368318472
 31
0.0
  0
LINE
  5
1E435
330
747D
100
AcDbEntity
  8
細線
100
AcDbLine
 10
6596.396575106981
 20
7318.933683184742
 30
0.0
 11
6526.396575106986
 21
7318.933683184742
 31
0.0
  0
LINE
  5
1E436
330
747D
100
AcDbEntity
  8
細線
100
AcDbLine
 10
6666.396575107008
 20
7318.933683184721
 30
0.0
 11
6664.065036816222
 21
7323.933683184744
 31
0.0
  0
LINE
  5
1E437
330
747D
100
AcDbEntity
  8
細線
100
AcDbLine
 10
6664.065036816224
 20
7323.933683184744
 30
0.0
 11
6598.728113397751
 21
7323.933683184733
 31
0.0
  0
LINE
  5
1E438
330
747D
100
AcDbEntity
  8
細線
100
AcDbLine
 10
6596.396575106997
 20
7318.933683184775
 30
0.0
 11
6598.728113397765
 21
7323.933683184761
 31
0.0
  0
LINE
  5
1E4B9
330
747D
100
AcDbEntity
  8
細線
100
AcDbLine
 10
7278.896575106976
 20
7354.933683184741
 30
0.0
 11
7208.896575106978
 21
7354.933683184741
 31
0.0
  0
LINE
  5
1E4BA
330
747D
100
AcDbEntity
  8
細線
100
AcDbLine
 10
7278.89657510699
 20
7354.933683184772
 30
0.0
 11
7281.228113397758
 21
7359.933683184758
 31
0.0
  0
LINE
  5
1E4BB
330
747D
100
AcDbEntity
  8
細線
100
AcDbLine
 10
7346.565036816217
 20
7359.933683184739
 30
0.0
 11
7281.228113397744
 21
7359.933683184728
 31
0.0
  0
LINE
  5
1E4BC
330
747D
100
AcDbEntity
  8
細線
100
AcDbLine
 10
7348.896575106984
 20
7354.933683184754
 30
0.0
 11
7346.565036816217
 21
7359.933683184739
 31
0.0
  0
LINE
  5
1E4BD
330
747D
100
AcDbEntity
  8
部品1
100
AcDbLine
 10
6114.896575106992
 20
4932.000000000003
 30
0.0
 11
6114.896575106991
 21
3149.000000000008
 31
0.0
  0
LINE
  5
1F3C3
330
747D
100
AcDbEntity
  8
細線
100
AcDbLine
 10
5594.896575106992
 20
4932.0
 30
0.0
 11
5594.896575106991
 21
3149.000000000004
 31
0.0
  0
LINE
  5
1F3C4
330
747D
100
AcDbEntity
  8
細線
100
AcDbLine
 10
5524.896575106992
 20
4932.0
 30
0.0
 11
5524.896575106991
 21
3149.000000000004
 31
0.0
  0
LINE
  5
1F3C7
330
747D
100
AcDbEntity
  8
細線
100
AcDbLine
 10
6246.396575106987
 20
4932.0
 30
0.0
 11
6246.396575106988
 21
3156.500000000013
 31
0.0
  0
LINE
  5
1F3C8
330
747D
100
AcDbEntity
  8
細線
100
AcDbLine
 10
6176.396575106988
 20
4932.0
 30
0.0
 11
6176.396575106988
 21
3156.500000000013
 31
0.0
  0
LINE
  5
1F3CA
330
747D
100
AcDbEntity
  8
細線
100
AcDbLine
 10
7348.896575106976
 20
4932.0
 30
0.0
 11
7348.896575106976
 21
3156.500000000019
 31
0.0
  0
LINE
  5
1F414
330
747D
100
AcDbEntity
  8
細線
100
AcDbLine
 10
6858.896575106975
 20
4932.0
 30
0.0
 11
6858.896575106975
 21
3156.500000000019
 31
0.0
  0
LINE
  5
1FD6F
330
747D
100
AcDbEntity
  8
破線
 48
10.0
100
AcDbLine
 10
5994.396575107
 20
7435.933683184645
 30
0.0
 11
5339.89657510699
 21
7435.933683184605
 31
0.0
  0
LINE
  5
1FD71
330
747D
100
AcDbEntity
  8
破線
 48
10.0
100
AcDbLine
 10
6685.396575107001
 20
7412.433683184684
 30
0.0
 11
6685.396575106998
 21
9011.93368318473
 31
0.0
  0
LINE
  5
1FD72
330
747D
100
AcDbEntity
  8
破線
 48
10.0
100
AcDbLine
 10
6735.396575106998
 20
7412.433683184687
 30
0.0
 11
6735.39657510701
 21
9011.933683184732
 31
0.0
  0
TEXT
  5
20645
330
747D
100
AcDbEntity
  8
文字
 62
     7
 48
50.0
100
AcDbText
 10
13583.11819016568
 20
8720.013745883727
 30
0.0
 40
100.0
  1
アンカープレート
  7
STYLE1
100
AcDbText
  0
TEXT
  5
20646
330
747D
100
AcDbEntity
  8
文字
 62
     7
 48
50.0
100
AcDbText
 10
15022.63965474515
 20
8720.013745883722
 30
0.0
 40
100.0
  1
F12            2.3
  7
STYLE1
100
AcDbText
  0
LINE
  5
20647
330
747D
100
AcDbEntity
  8
仕様書枠
 48
50.0
100
AcDbLine
 10
16307.2
 20
10049.6
 30
0.0
 11
13127.2
 21
10049.6
 31
0.0
  0
LINE
  5
20648
330
747D
100
AcDbEntity
  8
仕様書枠
 48
50.0
100
AcDbLine
 10
16307.2
 20
11409.6
 30
0.0
 11
13127.2
 21
11409.6
 31
0.0
  0
LINE
  5
20649
330
747D
100
AcDbEntity
  8
仕様書枠
 48
50.0
100
AcDbLine
 10
16307.19999999999
 20
8349.600000000002
 30
0.0
 11
16307.2
 21
11409.6
 31
0.0
  0
LINE
  5
2064A
330
747D
100
AcDbEntity
  8
仕様書枠
 48
50.0
100
AcDbLine
 10
14785.2
 20
11409.59999999999
 30
0.0
 11
14785.2
 21
8689.600000000005
 31
0.0
  0
LINE
  5
2064B
330
747D
100
AcDbEntity
  8
仕様書枠
 48
50.0
100
AcDbLine
 10
13490.2
 20
11409.6
 30
0.0
 11
13490.20000000001
 21
8689.600000000003
 31
0.0
  0
LINE
  5
2064C
330
747D
100
AcDbEntity
  8
仕様書枠
 48
50.0
100
AcDbLine
 10
16307.2
 20
11239.6
 30
0.0
 11
13127.2
 21
11239.6
 31
0.0
  0
LINE
  5
2064D
330
747D
100
AcDbEntity
  8
仕様書枠
 48
50.0
100
AcDbLine
 10
16307.2
 20
10899.6
 30
0.0
 11
13127.2
 21
10899.6
 31
0.0
  0
LINE
  5
2064E
330
747D
100
AcDbEntity
  8
仕様書枠
 48
50.0
100
AcDbLine
 10
16307.2
 20
11069.6
 30
0.0
 11
13127.2
 21
11069.6
 31
0.0
  0
LINE
  5
2064F
330
747D
100
AcDbEntity
  8
仕様書枠
 48
50.0
100
AcDbLine
 10
16307.19999999999
 20
10559.6
 30
0.0
 11
13127.2
 21
10559.6
 31
0.0
  0
LINE
  5
20650
330
747D
100
AcDbEntity
  8
仕様書枠
 48
50.0
100
AcDbLine
 10
16307.19999999999
 20
10389.6
 30
0.0
 11
13127.2
 21
10389.6
 31
0.0
  0
LINE
  5
20651
330
747D
100
AcDbEntity
  8
仕様書枠
 48
50.0
100
AcDbLine
 10
16307.19999999999
 20
10729.6
 30
0.0
 11
13127.2
 21
10729.6
 31
0.0
  0
TEXT
  5
20652
330
747D
100
AcDbEntity
  8
文字
 62
     7
 48
50.0
100
AcDbText
 10
13197.42518560407
 20
11270.01374588372
 30
0.0
 40
100.0
  1
品番
  7
STYLE1
100
AcDbText
  0
TEXT
  5
20653
330
747D
100
AcDbEntity
  8
文字
 62
     7
 48
50.0
100
AcDbText
 10
13271.19032244792
 20
11100.01374588373
 30
0.0
 40
100.0
  1
1
  7
STYLE1
100
AcDbText
  0
TEXT
  5
20654
330
747D
100
AcDbEntity
  8
文字
 62
     7
 48
50.0
100
AcDbText
 10
13271.19032244792
 20
10930.01374588373
 30
0.0
 40
100.0
  1
2
  7
STYLE1
100
AcDbText
  0
TEXT
  5
20655
330
747D
100
AcDbEntity
  8
文字
 62
     7
 48
50.0
100
AcDbText
 10
13271.19032244792
 20
10590.01374588373
 30
0.0
 40
100.0
  1
4
  7
STYLE1
100
AcDbText
  0
TEXT
  5
20656
330
747D
100
AcDbEntity
  8
文字
 62
     7
 48
50.0
100
AcDbText
 10
13271.19032244792
 20
10760.01374588373
 30
0.0
 40
100.0
  1
3
  7
STYLE1
100
AcDbText
  0
TEXT
  5
20657
330
747D
100
AcDbEntity
  8
文字
 62
     7
 48
50.0
100
AcDbText
 10
13732.03840939434
 20
11270.01374588372
 30
0.0
 40
100.0
  1
部　　品　　名
  7
STYLE1
100
AcDbText
  0
TEXT
  5
20658
330
747D
100
AcDbEntity
  8
文字
 62
     7
 48
50.0
100
AcDbText
 10
14859.79774614482
 20
11270.01374588372
 30
0.0
 40
100.0
  1
材料（材質）　　単位mm
  7
STYLE1
100
AcDbText
  0
TEXT
  5
20659
330
747D
100
AcDbEntity
  8
文字
 62
     7
 48
50.0
100
AcDbText
 10
13583.11819016569
 20
11100.01374588373
 30
0.0
 40
100.0
  1
土台枠
  7
STYLE1
100
AcDbText
  0
TEXT
  5
2065A
330
747D
100
AcDbEntity
  8
文字
 62
     7
 48
50.0
100
AcDbText
 10
13583.1181901657
 20
10760.01374588372
 30
0.0
 40
100.0
  1
柱
  7
STYLE1
100
AcDbText
  0
TEXT
  5
2065B
330
747D
100
AcDbEntity
  8
文字
 62
     7
 48
50.0
100
AcDbText
 10
13583.1181901657
 20
10420.01374588372
 30
0.0
 40
100.0
  1
鴨居
  7
STYLE1
100
AcDbText
  0
TEXT
  5
2065C
330
747D
100
AcDbEntity
  8
文字
 62
     7
 48
50.0
100
AcDbText
 10
13583.1181901657
 20
10250.01374588373
 30
0.0
 40
100.0
  1
桁後
  7
STYLE1
100
AcDbText
  0
TEXT
  5
2065D
330
747D
100
AcDbEntity
  8
文字
 62
     7
 48
50.0
100
AcDbText
 10
13271.19032244792
 20
10420.01374588372
 30
0.0
 40
100.0
  1
5
  7
STYLE1
100
AcDbText
  0
TEXT
  5
2065E
330
747D
100
AcDbEntity
  8
文字
 62
     7
 48
50.0
100
AcDbText
 10
13583.1181901657
 20
10080.01374588372
 30
0.0
 40
100.0
  1
妻板左右
  7
STYLE1
100
AcDbText
  0
TEXT
  5
2065F
330
747D
100
AcDbEntity
  8
文字
 62
     7
 48
50.0
100
AcDbText
 10
13248.77747366447
 20
9570.013745883727
 30
0.0
 40
100.0
  1
10
  7
STYLE1
100
AcDbText
  0
TEXT
  5
20660
330
747D
100
AcDbEntity
  8
文字
 62
     7
 48
50.0
100
AcDbText
 10
13583.11819016568
 20
9400.013745883729
 30
0.0
 40
100.0
  1
壁パネル
  7
STYLE1
100
AcDbText
  0
TEXT
  5
20661
330
747D
100
AcDbEntity
  8
文字
 62
     7
 48
50.0
100
AcDbText
 10
13583.11819016569
 20
9740.013745883729
 30
0.0
 40
100.0
  1
屋根パネル
  7
STYLE1
100
AcDbText
  0
TEXT
  5
20662
330
747D
100
AcDbEntity
  8
文字
 62
     7
 48
50.0
100
AcDbText
 10
13583.1181901657
 20
9910.013745883727
 30
0.0
 40
100.0
  1
鼻隠シ前後
  7
STYLE1
100
AcDbText
  0
TEXT
  5
20663
330
747D
100
AcDbEntity
  8
文字
 62
     7
 48
50.0
100
AcDbText
 10
13271.19032244792
 20
9910.01374588373
 30
0.0
 40
100.0
  1
8
  7
STYLE1
100
AcDbText
  0
TEXT
  5
20664
330
747D
100
AcDbEntity
  8
文字
 62
     7
 48
50.0
100
AcDbText
 10
13271.19032244792
 20
9740.013745883729
 30
0.0
 40
100.0
  1
9
  7
STYLE1
100
AcDbText
  0
TEXT
  5
20665
330
747D
100
AcDbEntity
  8
文字
 62
     7
 48
50.0
100
AcDbText
 10
13271.19032244792
 20
10080.01374588373
 30
0.0
 40
100.0
  1
7
  7
STYLE1
100
AcDbText
  0
TEXT
  5
20666
330
747D
100
AcDbEntity
  8
文字
 62
     7
 48
50.0
100
AcDbText
 10
13271.19032244792
 20
10250.01374588373
 30
0.0
 40
100.0
  1
6
  7
STYLE1
100
AcDbText
  0
LINE
  5
20667
330
747D
100
AcDbEntity
  8
仕様書枠
 48
50.0
100
AcDbLine
 10
16307.19999999999
 20
9709.6
 30
0.0
 11
13127.2
 21
9709.600000000001
 31
0.0
  0
LINE
  5
20668
330
747D
100
AcDbEntity
  8
仕様書枠
 48
50.0
100
AcDbLine
 10
16307.19999999999
 20
9369.599999999998
 30
0.0
 11
13127.2
 21
9369.600000000001
 31
0.0
  0
LINE
  5
20669
330
747D
100
AcDbEntity
  8
仕様書枠
 48
50.0
100
AcDbLine
 10
16307.19999999999
 20
9539.599999999998
 30
0.0
 11
13127.2
 21
9539.6
 31
0.0
  0
LINE
  5
2066A
330
747D
100
AcDbEntity
  8
仕様書枠
 48
50.0
100
AcDbLine
 10
16307.2
 20
10219.6
 30
0.0
 11
13127.2
 21
10219.6
 31
0.0
  0
LINE
  5
2066B
330
747D
100
AcDbEntity
  8
仕様書枠
 48
50.0
100
AcDbLine
 10
16307.2
 20
9879.599999999999
 30
0.0
 11
13127.2
 21
9879.600000000001
 31
0.0
  0
TEXT
  5
2066C
330
747D
100
AcDbEntity
  8
文字
 62
     7
 48
50.0
100
AcDbText
 10
13248.77747366447
 20
9400.013745883727
 30
0.0
 40
100.0
  1
11
  7
STYLE1
100
AcDbText
  0
LINE
  5
2066D
330
747D
100
AcDbEntity
  8
仕様書枠
 48
50.0
100
AcDbLine
 10
16307.19999999999
 20
9199.599999999998
 30
0.0
 11
13127.2
 21
9199.600000000001
 31
0.0
  0
LINE
  5
2066E
330
747D
100
AcDbEntity
  8
仕様書枠
 48
50.0
100
AcDbLine
 10
16307.19999999999
 20
8859.6
 30
0.0
 11
13127.2
 21
8859.600000000002
 31
0.0
  0
TEXT
  5
2066F
330
747D
100
AcDbEntity
  8
文字
 62
     7
 48
50.0
100
AcDbText
 10
13248.77747366447
 20
9060.013745883729
 30
0.0
 40
100.0
  1
13
  7
STYLE1
100
AcDbText
  0
TEXT
  5
20670
330
747D
100
AcDbEntity
  8
文字
 62
     7
 48
50.0
100
AcDbText
 10
13248.77747366447
 20
9230.013745883729
 30
0.0
 40
100.0
  1
12
  7
STYLE1
100
AcDbText
  0
TEXT
  5
20671
330
747D
100
AcDbEntity
  8
文字
 62
     7
 48
50.0
100
AcDbText
 10
15022.63965474517
 20
11100.01374588372
 30
0.0
 40
100.0
  1
F12            1.2
  7
STYLE1
100
AcDbText
  0
TEXT
  5
20672
330
747D
100
AcDbEntity
  8
文字
 62
     7
 48
50.0
100
AcDbText
 10
15022.63965474518
 20
10760.01374588372
 30
0.0
 40
100.0
  1
F12            1.0
  7
STYLE1
100
AcDbText
  0
TEXT
  5
20673
330
747D
100
AcDbEntity
  8
文字
 62
     7
 48
50.0
100
AcDbText
 10
15022.63965474517
 20
10420.01374588372
 30
0.0
 40
100.0
  1
Y10            1.0
  7
STYLE1
100
AcDbText
  0
TEXT
  5
20674
330
747D
100
AcDbEntity
  8
文字
 62
     7
 48
50.0
100
AcDbText
 10
15022.63965474517
 20
10250.01374588372
 30
0.0
 40
100.0
  1
Y10            1.0
  7
STYLE1
100
AcDbText
  0
TEXT
  5
20675
330
747D
100
AcDbEntity
  8
文字
 62
     7
 48
50.0
100
AcDbText
 10
15022.63965474517
 20
10080.01374588372
 30
0.0
 40
100.0
  1
Y10            0.7
  7
STYLE1
100
AcDbText
  0
TEXT
  5
20676
330
747D
100
AcDbEntity
  8
文字
 62
     7
 48
50.0
100
AcDbText
 10
15022.63965474517
 20
9910.013745883725
 30
0.0
 40
100.0
  1
Y10            0.7
  7
STYLE1
100
AcDbText
  0
TEXT
  5
20677
330
747D
100
AcDbEntity
  8
文字
 62
     7
 48
50.0
100
AcDbText
 10
15022.63965474517
 20
9740.013745883725
 30
0.0
 40
100.0
  1
Y10            0.5
  7
STYLE1
100
AcDbText
  0
TEXT
  5
20678
330
747D
100
AcDbEntity
  8
文字
 62
     7
 48
50.0
100
AcDbText
 10
15022.63965474515
 20
9400.013745883725
 30
0.0
 40
100.0
  1
F12            0.6
  7
STYLE1
100
AcDbText
  0
LINE
  5
20679
330
747D
100
AcDbEntity
  8
仕様書枠
 48
50.0
100
AcDbLine
 10
16307.19999999998
 20
8689.600000000003
 30
0.0
 11
13127.19999999999
 21
8689.600000000003
 31
0.0
  0
LINE
  5
2067A
330
747D
100
AcDbEntity
  8
仕様書枠
 48
50.0
100
AcDbLine
 10
16307.19999999998
 20
8519.600000000002
 30
0.0
 11
13127.19999999999
 21
8519.600000000004
 31
0.0
  0
TEXT
  5
2067B
330
747D
100
AcDbEntity
  8
文字
 62
     7
 48
50.0
100
AcDbText
 10
13229.83081656553
 20
8550.013745883731
 30
0.0
 40
100.0
  1
F12→溶融亜鉛めっき鋼板(JIS G 3302)
  7
STYLE1
100
AcDbText
  0
TEXT
  5
2067C
330
747D
100
AcDbEntity
  8
文字
 62
     7
 48
50.0
100
AcDbText
 10
13229.83081656553
 20
8380.013745883731
 30
0.0
 40
100.0
  1
Y10→溶融亜鉛-5％アルミニウム合金めっき鋼板(JIS G 3317)
 41
0.9
  7
STYLE1
100
AcDbText
  0
LINE
  5
2067D
330
747D
100
AcDbEntity
  8
仕様書枠
 48
50.0
100
AcDbLine
 10
13127.2
 20
11409.6
 30
0.0
 11
13127.19999999999
 21
8349.600000000002
 31
0.0
  0
LINE
  5
2067E
330
747D
100
AcDbEntity
  8
仕様書枠
 48
50.0
100
AcDbLine
 10
16307.19999999999
 20
9029.6
 30
0.0
 11
13127.2
 21
9029.600000000002
 31
0.0
  0
TEXT
  5
2067F
330
747D
100
AcDbEntity
  8
文字
 62
     7
 48
50.0
100
AcDbText
 10
13583.1181901657
 20
10590.01374588373
 30
0.0
 40
100.0
  1
床パネル
 41
0.9
  7
STYLE1
100
AcDbText
  0
TEXT
  5
20680
330
747D
100
AcDbEntity
  8
文字
 62
     7
 48
50.0
100
AcDbText
 10
13583.11819016569
 20
10930.01374588372
 30
0.0
 40
100.0
  1
根太
  7
STYLE1
100
AcDbText
  0
TEXT
  5
20681
330
747D
100
AcDbEntity
  8
文字
 62
     7
 48
50.0
100
AcDbText
 10
13248.77747366447
 20
8890.013745883729
 30
0.0
 40
100.0
  1
14
  7
STYLE1
100
AcDbText
  0
TEXT
  5
20682
330
747D
100
AcDbEntity
  8
文字
 62
     7
 48
50.0
100
AcDbText
 10
15022.63965474516
 20
10930.01374588372
 30
0.0
 40
100.0
  1
F12            1.2
  7
STYLE1
100
AcDbText
  0
TEXT
  5
20683
330
747D
100
AcDbEntity
  8
文字
 62
     7
 48
50.0
100
AcDbText
 10
15022.63965474517
 20
10590.01374588372
 30
0.0
 40
100.0
  1
F12            1.0
  7
STYLE1
100
AcDbText
  0
TEXT
  5
20684
330
747D
100
AcDbEntity
  8
文字
 62
     7
 48
50.0
100
AcDbText
 10
15022.63965474515
 20
9230.013745883725
 30
0.0
 40
100.0
  1
F12            0.7
  7
STYLE1
100
AcDbText
  0
TEXT
  5
20685
330
747D
100
AcDbEntity
  8
文字
 62
     7
 48
50.0
100
AcDbText
 10
13583.11819016568
 20
9230.013745883729
 30
0.0
 40
100.0
  1
正面パネル
  7
STYLE1
100
AcDbText
  0
TEXT
  5
20686
330
747D
100
AcDbEntity
  8
文字
 62
     7
 48
50.0
100
AcDbText
 10
15022.63965474515
 20
9060.013745883725
 30
0.0
 40
100.0
  1
F12            0.8
  7
STYLE1
100
AcDbText
  0
TEXT
  5
20687
330
747D
100
AcDbEntity
  8
文字
 62
     7
 48
50.0
100
AcDbText
 10
13583.11819016568
 20
9060.013745883729
 30
0.0
 40
100.0
  1
扉
  7
STYLE1
100
AcDbText
  0
TEXT
  5
20688
330
747D
100
AcDbEntity
  8
文字
 62
     7
 48
50.0
100
AcDbText
 10
15022.63965474515
 20
8890.013745883727
 30
0.0
 40
100.0
  1
F12            0.6
  7
STYLE1
100
AcDbText
  0
TEXT
  5
20689
330
747D
100
AcDbEntity
  8
文字
 62
     7
 48
50.0
100
AcDbText
 10
13583.11819016568
 20
8890.013745883731
 30
0.0
 40
100.0
  1
棚板
  7
STYLE1
100
AcDbText
  0
LINE
  5
2068A
330
747D
100
AcDbEntity
  8
仕様書枠
 48
50.0
100
AcDbLine
 10
16307.19999999998
 20
8349.600000000002
 30
0.0
 11
13127.19999999999
 21
8349.600000000004
 31
0.0
  0
TEXT
  5
2068B
330
747D
100
AcDbEntity
  8
文字
 62
     7
 48
50.0
100
AcDbText
 10
13248.77747366447
 20
8720.013745883731
 30
0.0
 40
100.0
  1
15
  7
STYLE1
100
AcDbText
  0
TEXT
  5
2068C
330
747D
100
AcDbEntity
  8
文字
 62
     7
 48
50.0
100
AcDbText
 10
13583.11819016569
 20
9570.013745883727
 30
0.0
 40
100.0
  1
母屋中
  7
STYLE1
100
AcDbText
  0
TEXT
  5
2068D
330
747D
100
AcDbEntity
  8
文字
 62
     7
 48
50.0
100
AcDbText
 10
14798.72402257234
 20
9570.013745883725
 30
0.0
 40
100.0
  1
F12(一般型1.0/多雪地型2.3)
  7
STYLE1
100
AcDbText
  0
LINE
  5
20793
330
747D
100
AcDbEntity
  8
部品1
100
AcDbLine
 10
7441.896575107001
 20
7756.933683184726
 30
0.0
 11
7469.896575107002
 21
7756.933683184726
 31
0.0
  0
LINE
  5
20794
330
747D
100
AcDbEntity
  8
部品1
100
AcDbLine
 10
5287.896575106981
 20
9016.933683184598
 30
0.0
 11
5259.896575106981
 21
9016.933683184598
 31
0.0
  0
LINE
  5
20795
330
747D
100
AcDbEntity
  8
部品1
 48
50.0
100
AcDbLine
 10
7413.396575106983
 20
7756.933683184726
 30
0.0
 11
5316.396575106981
 21
7756.933683184815
 31
0.0
  0
LWPOLYLINE
  5
21673
330
747D
100
AcDbEntity
  8
部品1
100
AcDbPolyline
 90
        4
 70
     1
 43
0.0
 10
10138.95862380027
 20
2250.019971730181
 10
10138.95862380027
 20
2010.127650184649
 10
10902.42929002871
 20
2010.127650184649
 10
10902.42929002871
 20
2250.019971730181
  0
TEXT
  5
21674
330
747D
100
AcDbEntity
  8
部品1
100
AcDbText
 10
10228.40472522388
 20
2057.126442511658
 30
0.0
 40
135.0
  1
側面図
  7
STYLE2
100
AcDbText
  0
LINE
  5
21C30
330
747D
100
AcDbEntity
  8
部品1
100
AcDbLine
 10
5287.896575106976
 20
8176.933683184605
 30
0.0
 11
5259.896575106975
 21
8176.933683184605
 31
0.0
  0
LINE
  5
21C31
330
747D
100
AcDbEntity
  8
部品1
100
AcDbLine
 10
7441.896575107001
 20
8176.933683184726
 30
0.0
 11
7469.896575107002
 21
8176.933683184726
 31
0.0
  0
LINE
  5
21C32
330
747D
100
AcDbEntity
  8
部品1
 48
50.0
100
AcDbLine
 10
7413.396575106969
 20
8176.933683184726
 30
0.0
 11
5316.396575106969
 21
8176.933683184813
 31
0.0
  0
DIMENSION
  5
224A1
330
747D
100
AcDbEntity
  8
寸法
 48
50.0
100
AcDbDimension
  2
*D17
 10
7369.89657510701
 20
2513.952670699622
 30
0.0
 11
7469.896575107011
 21
2513.952670699622
 31
0.0
 70
   160
 71
     5
 42
199.9999999999982
  3
INABA_S40G
100
AcDbAlignedDimension
 13
7569.896575107009
 23
2799.999999999998
 33
0.0
 14
7369.89657510701
 24
2799.999999999999
 34
0.0
100
AcDbRotatedDimension
  0
LINE
  5
224A2
330
747D
100
AcDbEntity
  8
破線
 48
5.0
100
AcDbLine
 10
7369.89657510701
 20
3000.0
 30
0.0
 11
7369.89657510701
 21
2799.999999999999
 31
0.0
  0
LINE
  5
224A3
330
747D
100
AcDbEntity
  8
破線
 48
5.0
100
AcDbLine
 10
7569.89657510701
 20
3000.0
 30
0.0
 11
7569.896575107009
 21
2799.999999999998
 31
0.0
  0
LINE
  5
224A4
330
747D
100
AcDbEntity
  8
破線
 48
5.0
100
AcDbLine
 10
7569.896575107009
 20
2799.999999999998
 30
0.0
 11
7369.89657510701
 21
2799.999999999999
 31
0.0
  0
LINE
  5
224A5
330
747D
100
AcDbEntity
  8
破線
 48
5.0
100
AcDbLine
 10
5349.896575106994
 20
3000.000000000001
 30
0.0
 11
5349.896575106993
 21
2800.0
 31
0.0
  0
LINE
  5
224A6
330
747D
100
AcDbEntity
  8
破線
 48
5.0
100
AcDbLine
 10
5349.896575106993
 20
2800.0
 30
0.0
 11
5149.896575106994
 21
2800.0
 31
0.0
  0
LINE
  5
224A7
330
747D
100
AcDbEntity
  8
破線
 48
5.0
100
AcDbLine
 10
5149.896575106994
 20
3000.000000000001
 30
0.0
 11
5149.896575106994
 21
2800.0
 31
0.0
  0
LINE
  5
224A9
330
747D
100
AcDbEntity
  8
部品1
 48
50.0
100
AcDbLine
 10
5918.896575107001
 20
3100.0
 30
0.0
 11
5918.896575107001
 21
3000.0
 31
0.0
  0
LINE
  5
224AA
330
747D
100
AcDbEntity
  8
部品1
 48
50.0
100
AcDbLine
 10
6118.896575107001
 20
3100.0
 30
0.0
 11
6118.896575107001
 21
3000.0
 31
0.0
  0
LINE
  5
224AB
330
747D
100
AcDbEntity
  8
部品1
 48
50.0
100
AcDbLine
 10
6610.896575107002
 20
3100.0
 30
0.0
 11
6610.896575107002
 21
3000.0
 31
0.0
  0
LINE
  5
224AC
330
747D
100
AcDbEntity
  8
部品1
 48
50.0
100
AcDbLine
 10
6810.896575107001
 20
3100.0
 30
0.0
 11
6810.896575107001
 21
3000.0
 31
0.0
  0
ARC
  5
22509
330
747D
100
AcDbEntity
  8
細線
100
AcDbCircle
 10
5769.896581606886
 20
7310.433683184712
 30
0.0
 40
6.0
100
AcDbArc
 50
204.6243183521779
 51
335.3756816478222
  0
ARC
  5
2250A
330
747D
100
AcDbEntity
  8
細線
100
AcDbCircle
 10
6421.396581606881
 20
7344.433683184729
 30
0.0
 40
6.0
100
AcDbArc
 50
204.6243183521779
 51
335.3756816478222
  0
LINE
  5
2250B
330
747D
100
AcDbEntity
  8
細線
100
AcDbLine
 10
6093.896575106977
 20
7314.933683184742
 30
0.0
 11
6093.896575106978
 21
7318.933683184742
 31
0.0
  0
LINE
  5
2250C
330
747D
100
AcDbEntity
  8
細線
100
AcDbLine
 10
6093.896575106977
 20
7314.933683184742
 30
0.0
 11
6073.896575106988
 21
7314.933683184742
 31
0.0
  0
LINE
  5
2250D
330
747D
100
AcDbEntity
  8
細線
100
AcDbLine
 10
6073.896575106988
 20
7314.933683184742
 30
0.0
 11
6073.896575106998
 21
7348.933683184751
 31
0.0
  0
LINE
  5
2250E
330
747D
100
AcDbEntity
  8
細線
100
AcDbLine
 10
6114.896575106994
 20
7284.933683184757
 30
0.0
 11
6114.896575107003
 21
7314.933683184756
 31
0.0
  0
LINE
  5
2250F
330
747D
100
AcDbEntity
  8
細線
100
AcDbLine
 10
6114.896575107002
 20
7314.933683184756
 30
0.0
 11
6099.896575106999
 21
7314.933683184754
 31
0.0
  0
LINE
  5
22510
330
747D
100
AcDbEntity
  8
細線
100
AcDbLine
 10
6099.896575106997
 20
7307.933683184753
 30
0.0
 11
6099.896575106999
 21
7314.933683184754
 31
0.0
  0
LINE
  5
22511
330
747D
100
AcDbEntity
  8
細線
100
AcDbLine
 10
6099.896575106978
 20
7318.93368318475
 30
0.0
 11
6093.896575106978
 21
7318.93368318475
 31
0.0
  0
LINE
  5
22512
330
747D
100
AcDbEntity
  8
細線
100
AcDbLine
 10
6105.896575107004
 20
7318.233683184749
 30
0.0
 11
6105.896575107004
 21
7318.93368318475
 31
0.0
  0
ARC
  5
22513
330
747D
100
AcDbEntity
  8
細線
100
AcDbCircle
 10
6103.896575107003
 20
7318.233683184749
 30
0.0
 40
2.0
100
AcDbArc
 50
270.0
 51
0.0
  0
LINE
  5
22514
330
747D
100
AcDbEntity
  8
細線
100
AcDbLine
 10
6101.896575107003
 20
7316.233683184748
 30
0.0
 11
6103.896575107004
 21
7316.233683184748
 31
0.0
  0
LINE
  5
22515
330
747D
100
AcDbEntity
  8
細線
100
AcDbLine
 10
6099.896575107004
 20
7318.233683184749
 30
0.0
 11
6099.896575107004
 21
7318.93368318475
 31
0.0
  0
ARC
  5
22516
330
747D
100
AcDbEntity
  8
細線
100
AcDbCircle
 10
6101.896575107002
 20
7318.233683184749
 30
0.0
 40
2.0
100
AcDbArc
 50
180.0
 51
270.0
  0
LINE
  5
22518
330
747D
100
AcDbEntity
  8
細線
100
AcDbLine
 10
6088.896575106992
 20
7341.933683184727
 30
0.0
 11
6088.896575106996
 21
7348.933683184751
 31
0.0
  0
ARC
  5
22519
330
747D
100
AcDbEntity
  8
細線
100
AcDbCircle
 10
6755.896575106987
 20
7354.23368318472
 30
0.0
 40
2.0
100
AcDbArc
 50
180.0
 51
270.0
  0
LINE
  5
2251A
330
747D
100
AcDbEntity
  8
細線
100
AcDbLine
 10
6753.896575106988
 20
7354.233683184721
 30
0.0
 11
6753.896575106988
 21
7354.93368318472
 31
0.0
  0
LINE
  5
2251B
330
747D
100
AcDbEntity
  8
細線
100
AcDbLine
 10
6755.896575106987
 20
7352.233683184721
 30
0.0
 11
6757.896575106989
 21
7352.233683184721
 31
0.0
  0
ARC
  5
2251C
330
747D
100
AcDbEntity
  8
細線
100
AcDbCircle
 10
6757.896575106987
 20
7354.23368318472
 30
0.0
 40
2.0
100
AcDbArc
 50
270.0
 51
0.0
  0
LINE
  5
2251D
330
747D
100
AcDbEntity
  8
細線
100
AcDbLine
 10
6759.896575106989
 20
7354.233683184721
 30
0.0
 11
6759.896575106989
 21
7354.93368318472
 31
0.0
  0
LINE
  5
22870
330
747D
100
AcDbEntity
  8
細線
100
AcDbLine
 10
6088.896575106995
 20
7348.933683184751
 30
0.0
 11
6073.896575106996
 21
7348.933683184751
 31
0.0
  0
LINE
  5
22871
330
747D
100
AcDbEntity
  8
細線
100
AcDbLine
 10
6742.896575106986
 20
7378.43368318472
 30
0.0
 11
6742.896575106986
 21
7382.933683184716
 31
0.0
  0
MTEXT
  5
2289E
330
747D
100
AcDbEntity
  8
寸法
 62
     7
 48
50.0
100
AcDbMText
 10
5946.277650217345
 20
9087.540286712515
 30
0.0
 40
96.0
 41
0.0
 71
     5
 72
     1
  1
棚 2段
  7
STYLE1
 73
     1
 44
1.0
1001
ACAD
1000
MTEXTBEGIN
1070
    73
1070
     1
1070
    44
1040
1.0
1070
    74
1070
     0
1000
MTEXTEND
  0
MTEXT
  5
2289F
330
747D
100
AcDbEntity
  8
寸法
 62
     7
 48
50.0
100
AcDbMText
 10
7036.277650217343
 20
9087.540286712586
 30
0.0
 40
96.0
 41
0.0
 71
     5
 72
     1
  1
棚 2段
  7
STYLE1
 73
     1
 44
1.0
1001
ACAD
1000
MTEXTBEGIN
1070
    73
1070
     1
1070
    44
1040
1.0
1070
    74
1070
     0
1000
MTEXTEND
  0
LINE
  5
229DD
330
747D
100
AcDbEntity
  8
部品1
100
AcDbLine
 10
10335.23894327145
 20
5306.750482299973
 30
0.0
 11
10660.69395691449
 21
5289.232423341111
 31
0.0
  0
LINE
  5
229DE
330
747D
100
AcDbEntity
  8
部品1
 48
50.0
100
AcDbLine
 10
10610.69395691449
 20
3100.0
 30
0.0
 11
10610.69395691449
 21
3000.0
 31
0.0
  0
LINE
  5
229DF
330
747D
100
AcDbEntity
  8
部品1
 48
50.0
100
AcDbLine
 10
10410.69395691449
 20
3100.0
 30
0.0
 11
10410.69395691449
 21
3000.0
 31
0.0
  0
ARC
  5
229E0
330
747D
100
AcDbEntity
  8
部品1
100
AcDbCircle
 10
11681.32149272843
 20
5014.023757265793
 30
0.0
 40
0.7
100
AcDbArc
 50
275.0921697642102
 51
354.1866997666828
  0
ARC
  5
229E1
330
747D
100
AcDbEntity
  8
部品1
100
AcDbCircle
 10
11692.18083847775
 20
5091.067012083716
 30
0.0
 40
0.7
100
AcDbArc
 50
275.0921697642102
 51
354.1866997665273
  0
ARC
  5
229E2
330
747D
100
AcDbEntity
  8
部品1
100
AcDbCircle
 10
11692.50924372035
 20
5087.381615226626
 30
0.0
 40
3.0
100
AcDbArc
 50
95.092169764314
 51
174.1866997665272
  0
ARC
  5
229E3
330
747D
100
AcDbEntity
  8
部品1
100
AcDbCircle
 10
11681.64989797103
 20
5010.338360408702
 30
0.0
 40
3.0
100
AcDbArc
 50
95.0921697642102
 51
174.1866997665272
  0
ARC
  5
229E4
330
747D
100
AcDbEntity
  8
部品1
 48
50.0
100
AcDbCircle
 10
11670.62176269592
 20
5000.74761580482
 30
0.0
 40
7.0
100
AcDbArc
 50
267.8377559870533
 51
354.1866997665273
  0
ARC
  5
229E5
330
747D
100
AcDbEntity
  8
部品1
 48
50.0
100
AcDbCircle
 10
11687.94385916044
 20
5111.650162946993
 30
0.0
 40
7.0
100
AcDbArc
 50
354.1866997665273
 51
87.03587545293501
  0
LINE
  5
229E6
330
747D
100
AcDbEntity
  8
部品1
 48
50.0
100
AcDbLine
 10
11678.66532630042
 20
5010.642222125605
 30
0.0
 11
11677.58576326068
 21
5000.038605132047
 31
0.0
  0
LINE
  5
229E7
330
747D
100
AcDbEntity
  8
部品1
 48
50.0
100
AcDbLine
 10
11689.52467204974
 20
5087.68547694353
 30
0.0
 11
11682.01789278491
 21
5013.952856198518
 31
0.0
  0
LINE
  5
229E8
330
747D
100
AcDbEntity
  8
部品1
 48
50.0
100
AcDbLine
 10
11694.9078597252
 20
5110.941152274218
 30
0.0
 11
11692.87723853422
 21
5090.996111016439
 31
0.0
  0
ARC
  5
229E9
330
747D
100
AcDbEntity
  8
部品1
100
AcDbCircle
 10
9351.731048785859
 20
5053.814158958903
 30
0.0
 40
0.7
100
AcDbArc
 50
181.0932240292375
 51
260.1877540315916
  0
ARC
  5
229EA
330
747D
100
AcDbEntity
  8
部品1
100
AcDbCircle
 10
9346.958375188249
 20
5146.679937159023
 30
0.0
 40
0.7
100
AcDbArc
 50
181.0932240292114
 51
260.1877540315916
  0
ARC
  5
229EB
330
747D
100
AcDbEntity
  8
部品1
100
AcDbCircle
 10
9346.327820785226
 20
5143.034062621626
 30
0.0
 40
3.0
100
AcDbArc
 50
1.093224029289586
 51
80.18775403159162
  0
ARC
  5
229EC
330
747D
100
AcDbEntity
  8
部品1
100
AcDbCircle
 10
9351.100494382833
 20
5050.168284421507
 30
0.0
 40
3.0
100
AcDbArc
 50
1.093224029289586
 51
80.18775403159162
  0
ARC
  5
229ED
330
747D
100
AcDbEntity
  8
部品1
 48
50.0
100
AcDbCircle
 10
9361.300626758035
 20
5039.776041039026
 30
0.0
 40
7.0
100
AcDbArc
 50
181.0932240292895
 51
267.8377559870533
  0
ARC
  5
229EE
330
747D
100
AcDbEntity
  8
部品1
 48
50.0
100
AcDbCircle
 10
9352.876968655939
 20
5166.727100572121
 30
0.0
 40
7.0
100
AcDbArc
 50
87.03587545293501
 51
181.0932240292895
  0
LINE
  5
229EF
330
747D
100
AcDbEntity
  8
部品1
 48
50.0
100
AcDbLine
 10
9354.099948309263
 20
5050.22552202469
 30
0.0
 11
9354.301900929696
 21
5039.642486631597
 31
0.0
  0
LINE
  5
229F0
330
747D
100
AcDbEntity
  8
細線
 48
50.0
100
AcDbLine
 10
9351.493855252593
 20
5053.155570143498
 30
0.0
 11
11681.49751968323
 21
5013.346251169005
 31
0.0
  0
LINE
  5
229F1
330
747D
100
AcDbEntity
  8
細線
 48
50.0
100
AcDbLine
 10
9346.733380015306
 20
5146.017081841361
 30
0.0
 11
11692.36936476047
 21
5090.392877200534
 31
0.0
  0
LINE
  5
229F2
330
747D
100
AcDbEntity
  8
部品1
 48
50.0
100
AcDbLine
 10
9349.327274711658
 20
5143.091300224809
 30
0.0
 11
9351.03117620302
 21
5053.800803518162
 31
0.0
  0
LINE
  5
229F3
330
747D
100
AcDbEntity
  8
部品1
 48
50.0
100
AcDbLine
 10
9345.8782428276
 20
5166.593546164693
 30
0.0
 11
9346.258502605412
 21
5146.666581718282
 31
0.0
  0
LINE
  5
229F4
330
747D
100
AcDbEntity
  8
細線
 48
50.0
100
AcDbLine
 10
11662.69395691449
 20
5119.966979035297
 30
0.0
 11
11657.9462740265
 21
4994.221206544551
 31
0.0
  0
LINE
  5
229F5
330
747D
100
AcDbEntity
  8
細線
 48
50.0
100
AcDbLine
 10
9378.693956914492
 20
5172.399676375405
 30
0.0
 11
9373.404855358986
 21
5032.31404374805
 31
0.0
  0
LINE
  5
229F6
330
747D
100
AcDbEntity
  8
部品1
100
AcDbLine
 10
9361.036521516446
 20
5032.781025068967
 30
0.0
 11
11670.35765745434
 21
4993.752599834762
 31
0.0
  0
LINE
  5
229F7
330
747D
100
AcDbEntity
  8
部品1
100
AcDbLine
 10
9353.238943271454
 20
5173.717735334267
 30
0.0
 11
11688.30583377596
 21
5118.640797709139
 31
0.0
  0
LINE
  5
229F8
330
747D
100
AcDbEntity
  8
部品1
 48
50.0
100
AcDbLine
 10
10360.69395691449
 20
5305.432423341111
 30
0.0
 11
10660.69395691449
 21
5305.432423341111
 31
0.0
  0
LINE
  5
229F9
330
747D
100
AcDbEntity
  8
部品1
 48
50.0
100
AcDbLine
 10
10660.69395691449
 20
5305.432423341111
 30
0.0
 11
10660.69395691449
 21
5289.232423341111
 31
0.0
  0
TEXT
  5
229FA
330
747D
100
AcDbEntity
  8
部品1
 48
50.0
100
AcDbText
 10
10348.96179213822
 20
5341.316445493544
 30
0.0
 40
120.0
  1
1000
  7
STYLE1
100
AcDbText
  0
TEXT
  5
229FB
330
747D
100
AcDbEntity
  8
部品1
 48
50.0
100
AcDbText
 10
10826.59481480331
 20
5203.815187275261
 30
0.0
 40
120.0
  1
44
 50
90.0
  7
STYLE1
100
AcDbText
  0
LINE
  5
229FC
330
747D
100
AcDbEntity
  8
細線
 48
50.0
100
AcDbLine
 10
10798.19395691449
 20
4940.0
 30
0.0
 11
10798.19395691449
 21
3150.0
 31
0.0
  0
LINE
  5
229FD
330
747D
100
AcDbEntity
  8
細線
 48
50.0
100
AcDbLine
 10
10783.19395691449
 20
4940.0
 30
0.0
 11
10783.19395691449
 21
3150.0
 31
0.0
  0
LINE
  5
229FE
330
747D
100
AcDbEntity
  8
細線
 48
50.0
100
AcDbLine
 10
10923.19395691449
 20
4940.0
 30
0.0
 11
10923.19395691449
 21
3150.0
 31
0.0
  0
LINE
  5
229FF
330
747D
100
AcDbEntity
  8
細線
 48
50.0
100
AcDbLine
 10
10938.19395691449
 20
4940.0
 30
0.0
 11
10938.19395691449
 21
3150.0
 31
0.0
  0
LINE
  5
22A00
330
747D
100
AcDbEntity
  8
細線
 48
50.0
100
AcDbLine
 10
11078.19395691449
 20
4940.0
 30
0.0
 11
11078.19395691449
 21
3150.0
 31
0.0
  0
LINE
  5
22A01
330
747D
100
AcDbEntity
  8
細線
 48
50.0
100
AcDbLine
 10
11063.19395691449
 20
4940.0
 30
0.0
 11
11063.19395691449
 21
3150.0
 31
0.0
  0
LINE
  5
22A02
330
747D
100
AcDbEntity
  8
部品1
100
AcDbLine
 10
11140.69395691449
 20
4940.0
 30
0.0
 11
11140.69395691449
 21
3150.0
 31
0.0
  0
LINE
  5
22A03
330
747D
100
AcDbEntity
  8
部品1
100
AcDbLine
 10
9405.693956914493
 20
4940.0
 30
0.0
 11
11615.69395691449
 21
4940.0
 31
0.0
  0
LINE
  5
22A04
330
747D
100
AcDbEntity
  8
部品1
100
AcDbLine
 10
9405.693956914493
 20
3150.0
 30
0.0
 11
11615.69395691449
 21
3150.000000000001
 31
0.0
  0
LINE
  5
22A05
330
747D
100
AcDbEntity
  8
部品1
100
AcDbLine
 10
9405.693956914493
 20
3100.0
 30
0.0
 11
9413.193956914494
 21
3100.0
 31
0.0
  0
LINE
  5
22A06
330
747D
100
AcDbEntity
  8
部品1
100
AcDbLine
 10
9460.693956914493
 20
4940.0
 30
0.0
 11
9460.693956914493
 21
3150.0
 31
0.0
  0
LINE
  5
22A07
330
747D
100
AcDbEntity
  8
部品1
100
AcDbLine
 10
9405.693956914493
 20
5031.858519442248
 30
0.0
 11
9405.693956914493
 21
3000.0
 31
0.0
  0
DIMENSION
  5
22A08
330
747D
100
AcDbEntity
  8
寸法
100
AcDbDimension
  2
*D18
 10
8860.785315517238
 20
3162.000000000001
 30
0.0
 11
8760.785315517237
 21
4047.000000000001
 31
0.0
 70
    32
  1
有効開口部高サ<>
 71
     5
 42
1769.999999999999
  3
INABA_S40G
100
AcDbAlignedDimension
 13
9405.693956914493
 23
4932.0
 33
0.0
 14
9405.693956914493
 24
3162.0
 34
0.0
 50
90.0
100
AcDbRotatedDimension
1001
ACAD
1000
DSTYLE
1002
{
1070
   174
1070
     0
1070
   272
1070
     1
1070
   288
1070
     0
1070
   341
1005
0
1002
}
  0
DIMENSION
  5
22A09
330
747D
100
AcDbEntity
  8
寸法
100
AcDbDimension
  2
*D19
 10
8561.943827731232
 20
3150.0
 30
0.0
 11
8461.943827731232
 21
4045.000000000001
 31
0.0
 70
    32
 71
     5
 42
1789.999999999999
  3
INABA_S40G
100
AcDbAlignedDimension
 13
9405.693956914493
 23
4940.0
 33
0.0
 14
9405.693956914493
 24
3150.0
 34
0.0
 50
90.0
100
AcDbRotatedDimension
1001
ACAD
1000
DSTYLE
1002
{
1070
   174
1070
     0
1070
   272
1070
     1
1070
   288
1070
     0
1070
   341
1005
0
1002
}
  0
DIMENSION
  5
22A0A
330
747D
100
AcDbEntity
  8
寸法
100
AcDbDimension
  2
*D20
 10
8261.943827731233
 20
5175.000000000005
 30
0.0
 11
8161.932016707609
 21
4137.500000000003
 31
0.0
 70
    32
 71
     5
 42
2075.000000000004
  3
INABA_S40G
100
AcDbAlignedDimension
 13
9405.693956914493
 23
3100.0
 33
0.0
 14
9345.693956914493
 24
5175.000000000005
 34
0.0
 50
90.0
100
AcDbRotatedDimension
1001
ACAD
1000
DSTYLE
1002
{
1070
   174
1070
     0
1070
   272
1070
     1
1070
   288
1070
     0
1070
   341
1005
0
1002
}
  0
DIMENSION
  5
22A0B
330
747D
100
AcDbEntity
  8
寸法
100
AcDbDimension
  2
*D21
 10
8261.943827731233
 20
3000.0
 30
0.0
 11
8261.943827731233
 21
2763.952755905513
 31
0.0
 70
   160
 71
     5
 42
100.0000000000004
  3
INABA_S40G
100
AcDbAlignedDimension
 13
9350.693956914494
 23
3100.0
 33
0.0
 14
8349.19288101936
 24
3000.0
 34
0.0
 50
90.0
100
AcDbRotatedDimension
1001
ACAD
1000
DSTYLE
1002
{
1070
   174
1070
     0
1070
   272
1070
     1
1070
   288
1070
     0
1070
   341
1005
0
1002
}
  0
DIMENSION
  5
22A0C
330
747D
100
AcDbEntity
  8
寸法
100
AcDbDimension
  2
*D22
 10
8561.943827731232
 20
3100.0
 30
0.0
 11
8561.943827731232
 21
2793.952755905512
 31
0.0
 70
   160
 71
     5
 42
50.0
  3
INABA_S40G
100
AcDbAlignedDimension
 13
9405.693956914493
 23
3150.0
 33
0.0
 14
9350.693956914494
 24
3100.0
 34
0.0
 50
90.0
100
AcDbRotatedDimension
1001
ACAD
1000
DSTYLE
1002
{
1070
   174
1070
     0
1070
   272
1070
     1
1070
   288
1070
     0
1070
   341
1005
0
1002
}
  0
LINE
  5
22A0D
330
747D
100
AcDbEntity
  8
部品1
100
AcDbLine
 10
9880.693956914493
 20
4940.0
 30
0.0
 11
9880.693956914493
 21
3150.0
 31
0.0
  0
LINE
  5
22A0E
330
747D
100
AcDbEntity
  8
部品1
100
AcDbLine
 10
11615.69395691449
 20
4994.676437631222
 30
0.0
 11
11615.69395691449
 21
3000.0
 31
0.0
  0
LINE
  5
22A0F
330
747D
100
AcDbEntity
  8
部品1
100
AcDbLine
 10
11560.69395691449
 20
4940.0
 30
0.0
 11
11560.69395691449
 21
3150.0
 31
0.0
  0
DIMENSION
  5
22A10
330
747D
100
AcDbEntity
  8
寸法
100
AcDbDimension
  2
*D23
 10
12320.62111488662
 20
5120.0
 30
0.0
 11
12220.609303863
 21
4110.000000000002
 31
0.0
 70
    32
 71
     5
 42
2020.000000000001
  3
INABA_S40G
100
AcDbAlignedDimension
 13
11615.69395691449
 23
3100.0
 33
0.0
 14
11695.69395691449
 24
5120.0
 34
0.0
 50
90.0
100
AcDbRotatedDimension
1001
ACAD
1000
DSTYLE
1002
{
1070
   174
1070
     0
1070
   272
1070
     1
1070
   288
1070
     0
1070
   341
1005
0
1002
}
  0
LINE
  5
22A11
330
747D
100
AcDbEntity
  8
部品1
100
AcDbLine
 10
9605.693956914493
 20
3100.0
 30
0.0
 11
9605.693956914493
 21
3000.0
 31
0.0
  0
LINE
  5
22A12
330
747D
100
AcDbEntity
  8
部品1
100
AcDbLine
 10
11415.69395691449
 20
3100.0
 30
0.0
 11
11415.69395691449
 21
3000.0
 31
0.0
  0
DIMENSION
  5
22A13
330
747D
100
AcDbEntity
  8
寸法
 48
50.0
100
AcDbDimension
  2
*D24
 10
9405.693956914493
 20
5573.657453579304
 30
0.0
 11
10500.338693985
 21
5573.657453579304
 31
0.0
 70
   160
  1
柱外寸法<>
 71
     5
 42
2210.0
  3
INABA_S40G
100
AcDbAlignedDimension
 13
11615.69395691449
 23
5121.810679611654
 33
0.0
 14
9405.693956914493
 24
5171.001618122977
 34
0.0
100
AcDbRotatedDimension
1001
ACAD
1000
DSTYLE
1002
{
1070
   174
1070
     0
1070
   272
1070
     1
1070
   288
1070
     0
1070
   341
1005
0
1002
}
  0
DIMENSION
  5
22A14
330
747D
100
AcDbEntity
  8
寸法
 48
50.0
100
AcDbDimension
  2
*D25
 10
9345.693956914493
 20
5573.657453579304
 30
0.0
 11
9036.056161638901
 21
5573.657453579304
 31
0.0
 70
   160
 71
     5
 42
60.0
  3
INABA_S40G
100
AcDbAlignedDimension
 13
9405.693956914493
 23
5171.001618122977
 33
0.0
 14
9345.693956914493
 24
5175.000000000005
 34
0.0
100
AcDbRotatedDimension
1001
ACAD
1000
DSTYLE
1002
{
1070
   174
1070
     0
1070
   272
1070
     1
1070
   288
1070
     0
1070
   341
1005
0
1002
}
  0
DIMENSION
  5
22A15
330
747D
100
AcDbEntity
  8
寸法
 48
50.0
100
AcDbDimension
  2
*D26
 10
9345.693956914493
 20
5792.859287253596
 30
0.0
 11
10580.03781100696
 21
5792.859287253596
 31
0.0
 70
   160
 71
     5
 42
2350.0
  3
INABA_S40G
100
AcDbAlignedDimension
 13
11695.69395691449
 23
5120.0
 33
0.0
 14
9345.693956914493
 24
5175.000000000005
 34
0.0
100
AcDbRotatedDimension
1001
ACAD
1000
DSTYLE
1002
{
1070
   174
1070
     0
1070
   272
1070
     1
1070
   288
1070
     0
1070
   341
1005
0
1002
}
  0
LINE
  5
22A16
330
747D
100
AcDbEntity
  8
破線
  6
HIDDEN
 48
5.0
100
AcDbLine
 10
11623.19395691449
 20
2845.0
 30
0.0
 11
11553.19395691449
 21
2845.0
 31
0.0
  0
LINE
  5
22A17
330
747D
100
AcDbEntity
  8
破線
  6
HIDDEN
 48
5.0
100
AcDbLine
 10
11568.19395691449
 20
2995.0
 30
0.0
 11
11553.19395691449
 21
2847.3
 31
0.0
  0
LINE
  5
22A18
330
747D
100
AcDbEntity
  8
破線
  6
HIDDEN
 48
5.0
100
AcDbLine
 10
11553.19395691449
 20
2847.3
 30
0.0
 11
11553.19395691449
 21
2845.0
 31
0.0
  0
LINE
  5
22A19
330
747D
100
AcDbEntity
  8
破線
  6
HIDDEN
 48
5.0
100
AcDbLine
 10
11608.19395691449
 20
2995.0
 30
0.0
 11
11623.19395691449
 21
2847.3
 31
0.0
  0
LINE
  5
22A1A
330
747D
100
AcDbEntity
  8
破線
  6
HIDDEN
 48
5.0
100
AcDbLine
 10
11623.19395691449
 20
2847.3
 30
0.0
 11
11623.19395691449
 21
2845.0
 31
0.0
  0
LINE
  5
22A1B
330
747D
100
AcDbEntity
  8
破線
  6
HIDDEN
 48
5.0
100
AcDbLine
 10
9398.193956914493
 20
2845.0
 30
0.0
 11
9468.193956914493
 21
2845.0
 31
0.0
  0
LINE
  5
22A1C
330
747D
100
AcDbEntity
  8
破線
  6
HIDDEN
 48
5.0
100
AcDbLine
 10
9398.193956914493
 20
2847.3
 30
0.0
 11
9398.193956914493
 21
2845.0
 31
0.0
  0
LINE
  5
22A1D
330
747D
100
AcDbEntity
  8
破線
  6
HIDDEN
 48
5.0
100
AcDbLine
 10
9468.193956914493
 20
2847.3
 30
0.0
 11
9468.193956914493
 21
2845.0
 31
0.0
  0
LINE
  5
22A1E
330
747D
100
AcDbEntity
  8
破線
  6
HIDDEN
 48
5.0
100
AcDbLine
 10
9413.193956914494
 20
2995.000000000001
 30
0.0
 11
9398.193956914493
 21
2847.3
 31
0.0
  0
LINE
  5
22A1F
330
747D
100
AcDbEntity
  8
破線
  6
HIDDEN
 48
5.0
100
AcDbLine
 10
9453.193956914493
 20
2995.0
 30
0.0
 11
9468.193956914493
 21
2847.3
 31
0.0
  0
LINE
  5
22A20
330
747D
100
AcDbEntity
  8
部品1
 48
50.0
100
AcDbLine
 10
9413.193956914494
 20
3140.000000000001
 30
0.0
 11
9413.193956914494
 21
3000.0
 31
0.0
  0
LINE
  5
22A21
330
747D
100
AcDbEntity
  8
部品1
 48
50.0
100
AcDbLine
 10
9453.193956914493
 20
3140.0
 30
0.0
 11
9453.193956914493
 21
3000.0
 31
0.0
  0
LINE
  5
22A22
330
747D
100
AcDbEntity
  8
部品1
100
AcDbLine
 10
9418.193956914493
 20
3145.000000000001
 30
0.0
 11
9448.193956914492
 21
3145.0
 31
0.0
  0
ARC
  5
22A23
330
747D
100
AcDbEntity
  8
部品1
 48
50.0
100
AcDbCircle
 10
9418.193956914493
 20
3140.000000000001
 30
0.0
 40
5.0
100
AcDbArc
 50
90.0
 51
180.0
  0
ARC
  5
22A24
330
747D
100
AcDbEntity
  8
部品1
 48
50.0
100
AcDbCircle
 10
9448.193956914492
 20
3140.0
 30
0.0
 40
5.0
100
AcDbArc
 50
0.0
 51
90.0
  0
LINE
  5
22A25
330
747D
100
AcDbEntity
  8
部品1
 48
50.0
100
AcDbLine
 10
11568.19395691449
 20
3140.0
 30
0.0
 11
11568.19395691449
 21
3000.0
 31
0.0
  0
LINE
  5
22A26
330
747D
100
AcDbEntity
  8
部品1
 48
50.0
100
AcDbLine
 10
11608.19395691449
 20
3140.0
 30
0.0
 11
11608.19395691449
 21
3000.0
 31
0.0
  0
LINE
  5
22A27
330
747D
100
AcDbEntity
  8
部品1
100
AcDbLine
 10
11603.19395691449
 20
3145.0
 30
0.0
 11
11573.19395691449
 21
3145.0
 31
0.0
  0
ARC
  5
22A28
330
747D
100
AcDbEntity
  8
部品1
 48
50.0
100
AcDbCircle
 10
11573.19395691449
 20
3140.0
 30
0.0
 40
5.0
100
AcDbArc
 50
90.0
 51
180.0
  0
ARC
  5
22A29
330
747D
100
AcDbEntity
  8
部品1
 48
50.0
100
AcDbCircle
 10
11603.19395691449
 20
3140.0
 30
0.0
 40
5.0
100
AcDbArc
 50
0.0
 51
90.0
  0
LINE
  5
22A2A
330
747D
100
AcDbEntity
  8
破線
  6
HIDDEN
 48
5.0
100
AcDbLine
 10
11568.19395691449
 20
3000.0
 30
0.0
 11
11568.19395691449
 21
2995.0
 31
0.0
  0
LINE
  5
22A2B
330
747D
100
AcDbEntity
  8
破線
  6
HIDDEN
 48
5.0
100
AcDbLine
 10
11608.19395691449
 20
3000.0
 30
0.0
 11
11608.19395691449
 21
2995.0
 31
0.0
  0
LINE
  5
22A2C
330
747D
100
AcDbEntity
  8
破線
  6
HIDDEN
 48
5.0
100
AcDbLine
 10
9413.193956914501
 20
3000.0
 30
0.0
 11
9413.193956914501
 21
2995.000000000001
 31
0.0
  0
LINE
  5
22A2D
330
747D
100
AcDbEntity
  8
破線
  6
HIDDEN
 48
5.0
100
AcDbLine
 10
9453.193956914493
 20
3000.0
 30
0.0
 11
9453.193956914493
 21
2995.0
 31
0.0
  0
LINE
  5
22A2E
330
747D
100
AcDbEntity
  8
部品1
100
AcDbLine
 10
11608.19395691449
 20
3100.0
 30
0.0
 11
11615.69395691449
 21
3100.0
 31
0.0
  0
LINE
  5
22A2F
330
747D
100
AcDbEntity
  8
部品1
100
AcDbLine
 10
9453.193956914493
 20
3100.0
 30
0.0
 11
11568.19395691449
 21
3100.0
 31
0.0
  0
LINE
  5
22A32
330
747D
100
AcDbEntity
  8
細線
 48
50.0
100
AcDbLine
 10
9958.193956914492
 20
4940.0
 30
0.0
 11
9958.193956914492
 21
3150.0
 31
0.0
  0
LINE
  5
22A33
330
747D
100
AcDbEntity
  8
細線
 48
50.0
100
AcDbLine
 10
9943.193956914493
 20
4940.0
 30
0.0
 11
9943.193956914493
 21
3150.0
 31
0.0
  0
LINE
  5
22A34
330
747D
100
AcDbEntity
  8
細線
 48
50.0
100
AcDbLine
 10
10083.19395691449
 20
4940.0
 30
0.0
 11
10083.19395691449
 21
3150.0
 31
0.0
  0
LINE
  5
22A35
330
747D
100
AcDbEntity
  8
細線
 48
50.0
100
AcDbLine
 10
10098.19395691449
 20
4940.0
 30
0.0
 11
10098.19395691449
 21
3150.0
 31
0.0
  0
LINE
  5
22A36
330
747D
100
AcDbEntity
  8
細線
 48
50.0
100
AcDbLine
 10
10238.19395691449
 20
4940.0
 30
0.0
 11
10238.19395691449
 21
3150.0
 31
0.0
  0
LINE
  5
22A37
330
747D
100
AcDbEntity
  8
細線
 48
50.0
100
AcDbLine
 10
10223.19395691449
 20
4940.0
 30
0.0
 11
10223.19395691449
 21
3150.0
 31
0.0
  0
LINE
  5
22A38
330
747D
100
AcDbEntity
  8
細線
 48
50.0
100
AcDbLine
 10
9803.193956914492
 20
4940.0
 30
0.0
 11
9803.193956914492
 21
3150.0
 31
0.0
  0
LINE
  5
22A39
330
747D
100
AcDbEntity
  8
細線
 48
50.0
100
AcDbLine
 10
9818.193956914493
 20
4940.0
 30
0.0
 11
9818.193956914493
 21
3150.0
 31
0.0
  0
LINE
  5
22A3A
330
747D
100
AcDbEntity
  8
細線
 48
50.0
100
AcDbLine
 10
9678.193956914492
 20
4940.0
 30
0.0
 11
9678.193956914492
 21
3150.0
 31
0.0
  0
LINE
  5
22A3B
330
747D
100
AcDbEntity
  8
細線
 48
50.0
100
AcDbLine
 10
9663.193956914494
 20
4940.0
 30
0.0
 11
9663.193956914494
 21
3150.0
 31
0.0
  0
LINE
  5
22A3C
330
747D
100
AcDbEntity
  8
細線
 48
50.0
100
AcDbLine
 10
9523.193956914493
 20
4940.0
 30
0.0
 11
9523.193956914493
 21
3150.0
 31
0.0
  0
LINE
  5
22A3D
330
747D
100
AcDbEntity
  8
細線
 48
50.0
100
AcDbLine
 10
9538.193956914494
 20
4940.0
 30
0.0
 11
9538.193956914494
 21
3150.0
 31
0.0
  0
DIMENSION
  5
22A3E
330
747D
100
AcDbEntity
  8
寸法
 48
50.0
100
AcDbDimension
  2
*D27
 10
11695.69395691449
 20
5573.657453579304
 30
0.0
 11
11901.74120100898
 21
5573.657453579304
 31
0.0
 70
   160
 71
     5
 42
80.0
  3
INABA_S40G
100
AcDbAlignedDimension
 13
11615.69395691449
 23
5121.810679611654
 33
0.0
 14
11695.69395691449
 24
5120.0
 34
0.0
100
AcDbRotatedDimension
1001
ACAD
1000
DSTYLE
1002
{
1070
   174
1070
     0
1070
   272
1070
     1
1070
   288
1070
     0
1070
   341
1005
0
1002
}
  0
LINE
  5
22A3F
330
747D
100
AcDbEntity
  8
部品1
100
AcDbLine
 10
10300.69395691449
 20
4940.0
 30
0.0
 11
10300.69395691449
 21
3150.0
 31
0.0
  0
LINE
  5
22A40
330
747D
100
AcDbEntity
  8
細線
 48
50.0
100
AcDbLine
 10
10643.19395691449
 20
4940.0
 30
0.0
 11
10643.19395691449
 21
3150.0
 31
0.0
  0
LINE
  5
22A41
330
747D
100
AcDbEntity
  8
細線
 48
50.0
100
AcDbLine
 10
10658.19395691449
 20
4940.0
 30
0.0
 11
10658.19395691449
 21
3150.0
 31
0.0
  0
LINE
  5
22A42
330
747D
100
AcDbEntity
  8
細線
 48
50.0
100
AcDbLine
 10
10518.19395691449
 20
4940.0
 30
0.0
 11
10518.19395691449
 21
3150.0
 31
0.0
  0
LINE
  5
22A43
330
747D
100
AcDbEntity
  8
細線
 48
50.0
100
AcDbLine
 10
10503.19395691449
 20
4940.0
 30
0.0
 11
10503.19395691449
 21
3150.0
 31
0.0
  0
LINE
  5
22A44
330
747D
100
AcDbEntity
  8
細線
 48
50.0
100
AcDbLine
 10
10363.19395691449
 20
4940.0
 30
0.0
 11
10363.19395691449
 21
3150.0
 31
0.0
  0
LINE
  5
22A45
330
747D
100
AcDbEntity
  8
細線
 48
50.0
100
AcDbLine
 10
10378.19395691449
 20
4940.0
 30
0.0
 11
10378.19395691449
 21
3150.0
 31
0.0
  0
LINE
  5
22A46
330
747D
100
AcDbEntity
  8
部品1
100
AcDbLine
 10
10720.69395691449
 20
4940.0
 30
0.0
 11
10720.69395691449
 21
3150.0
 31
0.0
  0
LINE
  5
22A47
330
747D
100
AcDbEntity
  8
細線
 48
50.0
100
AcDbLine
 10
11218.1939569145
 20
4940.0
 30
0.0
 11
11218.1939569145
 21
3150.0
 31
0.0
  0
LINE
  5
22A48
330
747D
100
AcDbEntity
  8
細線
 48
50.0
100
AcDbLine
 10
11203.1939569145
 20
4940.0
 30
0.0
 11
11203.1939569145
 21
3150.0
 31
0.0
  0
LINE
  5
22A49
330
747D
100
AcDbEntity
  8
細線
 48
50.0
100
AcDbLine
 10
11343.1939569145
 20
4940.0
 30
0.0
 11
11343.1939569145
 21
3150.0
 31
0.0
  0
LINE
  5
22A4A
330
747D
100
AcDbEntity
  8
細線
 48
50.0
100
AcDbLine
 10
11358.1939569145
 20
4940.0
 30
0.0
 11
11358.1939569145
 21
3150.0
 31
0.0
  0
LINE
  5
22A4B
330
747D
100
AcDbEntity
  8
細線
 48
50.0
100
AcDbLine
 10
11498.1939569145
 20
4940.0
 30
0.0
 11
11498.1939569145
 21
3150.0
 31
0.0
  0
LINE
  5
22A4C
330
747D
100
AcDbEntity
  8
細線
 48
50.0
100
AcDbLine
 10
11483.1939569145
 20
4940.0
 30
0.0
 11
11483.1939569145
 21
3150.0
 31
0.0
  0
DIMENSION
  5
22A4D
330
747D
100
AcDbEntity
  8
寸法
 48
50.0
100
AcDbDimension
  2
*D28
 10
8785.085550146126
 20
5049.345258873332
 30
0.0
 11
8795.751025405049
 21
5420.19192211503
 31
0.0
 70
   161
 71
     5
 42
141.0
  3
INABA_S40G
100
AcDbAlignedDimension
 13
9365.089977073072
 23
5173.72274883468
 33
0.0
 14
9361.036521516446
 24
5032.781025068967
 34
0.0
1001
ACAD
1000
DSTYLE
1002
{
1070
   174
1070
     0
1070
   272
1070
     1
1070
   288
1070
     0
1070
   341
1005
0
1002
}
  0
DIMENSION
  5
22A4E
330
747D
100
AcDbEntity
  8
寸法
 48
50.0
100
AcDbDimension
  2
*D29
 10
9183.693953667859
 20
3000.0
 30
0.0
 11
9183.693953667859
 21
2900.000000000001
 31
0.0
 70
   160
 71
     5
 42
200.0000000000009
  3
INABA_S40G
100
AcDbAlignedDimension
 13
9333.193956914497
 23
2799.999999999999
 33
0.0
 14
9308.193956914491
 24
3000.0
 34
0.0
 50
90.0
100
AcDbRotatedDimension
1001
ACAD
1000
DSTYLE
1002
{
1070
   174
1070
     0
1070
   272
1070
     1
1070
   288
1070
     0
1070
   341
1005
0
1002
}
  0
LINE
  5
22A4F
330
747D
100
AcDbEntity
  8
破線
 48
5.0
100
AcDbLine
 10
9533.193956914493
 20
2799.999999999998
 30
0.0
 11
9333.193956914497
 21
2799.999999999999
 31
0.0
  0
LINE
  5
22A50
330
747D
100
AcDbEntity
  8
破線
 48
5.0
100
AcDbLine
 10
9533.193956914493
 20
3000.0
 30
0.0
 11
9533.193956914493
 21
2799.999999999998
 31
0.0
  0
LINE
  5
22A51
330
747D
100
AcDbEntity
  8
破線
 48
5.0
100
AcDbLine
 10
9333.193956914492
 20
3000.0
 30
0.0
 11
9333.193956914497
 21
2799.999999999999
 31
0.0
  0
DIMENSION
  5
22A52
330
747D
100
AcDbEntity
  8
寸法
 48
50.0
100
AcDbDimension
  2
*D30
 10
9333.193956914497
 20
2513.952670699622
 30
0.0
 11
9433.193956914495
 21
2513.952670699622
 31
0.0
 70
   160
 71
     5
 42
199.9999999999963
  3
INABA_S40G
100
AcDbAlignedDimension
 13
9533.193956914493
 23
2799.999999999998
 33
0.0
 14
9333.193956914497
 24
2799.999999999999
 34
0.0
100
AcDbRotatedDimension
  0
LINE
  5
22A53
330
747D
100
AcDbEntity
  8
破線
 48
5.0
100
AcDbLine
 10
11688.1939569145
 20
3000.0
 30
0.0
 11
11688.19395691449
 21
2799.999999999998
 31
0.0
  0
LINE
  5
22A54
330
747D
100
AcDbEntity
  8
破線
 48
5.0
100
AcDbLine
 10
11688.19395691449
 20
2799.999999999998
 30
0.0
 11
11488.1939569145
 21
2799.999999999999
 31
0.0
  0
LINE
  5
22A55
330
747D
100
AcDbEntity
  8
破線
 48
5.0
100
AcDbLine
 10
11488.1939569145
 20
3000.0
 30
0.0
 11
11488.1939569145
 21
2799.999999999999
 31
0.0
  0
TEXT
  5
230D1
330
747D
100
AcDbEntity
  8
文字
 62
     7
 48
50.0
100
AcDbText
 10
13209.4053442172
 20
56.69022270994833
 30
0.0
 40
100.0
  1
○床面積 ： 4.88㎡(1.48坪) 　
  7
STYLE2
100
AcDbText
  0
LINE
  5
23551
330
747D
100
AcDbEntity
  8
部品1
 48
50.0
100
AcDbLine
 10
7413.396575106965
 20
8596.933683184728
 30
0.0
 11
5316.396575106965
 21
8596.933683184813
 31
0.0
  0
LINE
  5
23552
330
747D
100
AcDbEntity
  8
部品1
100
AcDbLine
 10
7441.896575106999
 20
8596.933683184728
 30
0.0
 11
7469.896575106997
 21
8596.933683184728
 31
0.0
  0
LINE
  5
23553
330
747D
100
AcDbEntity
  8
部品1
100
AcDbLine
 10
5287.896575106972
 20
8596.933683184605
 30
0.0
 11
5259.896575106972
 21
8596.933683184605
 31
0.0
  0
LWPOLYLINE
  5
235E1
330
747D
100
AcDbEntity
  8
部品1
 48
50.0
100
AcDbPolyline
 90
        4
 70
     1
 43
0.0
 10
5379.94657510699
 20
4020.25000000001
 10
5382.846575106992
 20
4020.25000000001
 10
5382.846575106992
 20
4029.750000000011
 10
5379.94657510699
 20
4029.750000000011
  0
CIRCLE
  5
235E2
330
747D
100
AcDbEntity
  8
部品1
 48
50.0
100
AcDbCircle
 10
5381.39657510699
 20
4025.000000000011
 30
0.0
 40
9.0
  0
ARC
  5
235E3
330
747D
100
AcDbEntity
  8
細線
 48
50.0
100
AcDbCircle
 10
5381.39657510699
 20
4025.000000000011
 30
0.0
 40
4.0
100
AcDbArc
 50
111.2538091853132
 51
248.7461908146868
  0
ARC
  5
235E4
330
747D
100
AcDbEntity
  8
細線
 48
50.0
100
AcDbCircle
 10
5381.39657510699
 20
4025.000000000011
 30
0.0
 40
17.5
100
AcDbArc
 50
306.4837370612677
 51
233.5162629387323
  0
LINE
  5
235E5
330
747D
100
AcDbEntity
  8
細線
 48
50.0
100
AcDbLine
 10
5391.396575106988
 20
4001.141039419128
 30
0.0
 11
5391.396575106991
 21
4010.125525219369
 31
0.0
  0
LINE
  5
235E6
330
747D
100
AcDbEntity
  8
細線
 48
50.0
100
AcDbLine
 10
5371.396575106991
 20
4001.14103941913
 30
0.0
 11
5371.396575106991
 21
4010.125525219366
 31
0.0
  0
ARC
  5
235E7
330
747D
100
AcDbEntity
  8
細線
 48
50.0
100
AcDbCircle
 10
5381.39657510699
 20
4025.000000000011
 30
0.0
 40
26.5
100
AcDbArc
 50
249.332683506403
 51
290.6673164933835
  0
ARC
  5
235E8
330
747D
100
AcDbEntity
  8
細線
 48
50.0
100
AcDbCircle
 10
5390.396575106984
 20
4001.141039419128
 30
0.0
 40
1.0
100
AcDbArc
 50
290.667316493597
 51
359.9999999998958
  0
ARC
  5
235E9
330
747D
100
AcDbEntity
  8
細線
 48
50.0
100
AcDbCircle
 10
5372.396575106991
 20
4001.14103941913
 30
0.0
 40
1.0
100
AcDbArc
 50
180.0
 51
249.3326835066164
  0
ARC
  5
235EA
330
747D
100
AcDbEntity
  8
細線
 48
50.0
100
AcDbCircle
 10
5370.39657510699
 20
4010.125525219366
 30
0.0
 40
1.0
100
AcDbArc
 50
0.0
 51
53.51626293873231
  0
ARC
  5
235EB
330
747D
100
AcDbEntity
  8
細線
 48
50.0
100
AcDbCircle
 10
5392.396575106994
 20
4010.125525219369
 30
0.0
 40
1.0
100
AcDbArc
 50
126.4837370615282
 51
180.0
  0
ARC
  5
235EC
330
747D
100
AcDbEntity
  8
細線
 48
50.0
100
AcDbCircle
 10
5381.39657510699
 20
4025.000000000011
 30
0.0
 40
21.5
100
AcDbArc
 50
255.8014401250294
 51
284.1985598749706
  0
ARC
  5
235ED
330
747D
100
AcDbEntity
  8
細線
 48
50.0
100
AcDbCircle
 10
5381.39657510699
 20
4025.000000000011
 30
0.0
 40
16.5
100
AcDbArc
 50
251.9694646069326
 51
288.0305353930674
  0
LINE
  5
235EE
330
747D
100
AcDbEntity
  8
細線
 48
50.0
100
AcDbLine
 10
5386.896575106991
 20
4004.447627874204
 30
0.0
 11
5386.896575106991
 21
4009.025019561541
 31
0.0
  0
LINE
  5
235EF
330
747D
100
AcDbEntity
  8
細線
 48
50.0
100
AcDbLine
 10
5375.896575106991
 20
4004.447627874204
 30
0.0
 11
5375.896575106991
 21
4009.025019561539
 31
0.0
  0
ARC
  5
235F0
330
747D
100
AcDbEntity
  8
細線
 48
50.0
100
AcDbCircle
 10
5376.196575106994
 20
4009.025019561539
 30
0.0
 40
0.3
100
AcDbArc
 50
71.96946460693259
 51
180.0
  0
ARC
  5
235F1
330
747D
100
AcDbEntity
  8
細線
 48
50.0
100
AcDbCircle
 10
5386.596575106992
 20
4009.025019561541
 30
0.0
 40
0.3
100
AcDbArc
 50
0.0
 51
108.0305353930674
  0
ARC
  5
235F2
330
747D
100
AcDbEntity
  8
細線
 48
50.0
100
AcDbCircle
 10
5386.596575106988
 20
4004.447627874204
 30
0.0
 40
0.3
100
AcDbArc
 50
284.1985598747557
 51
0.0000000001042204
  0
ARC
  5
235F3
330
747D
100
AcDbEntity
  8
細線
 48
50.0
100
AcDbCircle
 10
5376.196575106994
 20
4004.447627874204
 30
0.0
 40
0.3
100
AcDbArc
 50
180.0
 51
255.8014401248145
  0
CIRCLE
  5
235F4
330
747D
100
AcDbEntity
  8
細線
 48
50.0
100
AcDbCircle
 10
5381.39657510699
 20
4025.000000000011
 30
0.0
 40
12.0
  0
ARC
  5
235F5
330
747D
100
AcDbEntity
  8
部品1
 48
50.0
100
AcDbCircle
 10
5381.39657510699
 20
4075.00000000001
 30
0.0
 40
8.5
100
AcDbArc
 50
114.315739171091
 51
245.684260828909
  0
CIRCLE
  5
235F6
330
747D
100
AcDbEntity
  8
細線
 48
50.0
100
AcDbCircle
 10
5381.39657510699
 20
4075.00000000001
 30
0.0
 40
4.5
  0
LWPOLYLINE
  5
235F7
330
747D
100
AcDbEntity
  8
部品1
 48
50.0
100
AcDbPolyline
 90
        2
 70
     0
 43
0.0
 10
5377.896575106991
 20
4093.674849396993
 10
5377.896575106991
 20
4082.745966692426
  0
CIRCLE
  5
235F8
330
747D
100
AcDbEntity
  8
部品1
 48
50.0
100
AcDbCircle
 10
5381.39657510699
 20
4075.00000000001
 30
0.0
 40
19.0
  0
LWPOLYLINE
  5
235F9
330
747D
100
AcDbEntity
  8
部品1
 48
50.0
100
AcDbPolyline
 90
        2
 70
     0
 43
0.0
 10
5377.896575106991
 20
4067.254033307595
 10
5377.896575106991
 20
4056.325150603028
  0
LWPOLYLINE
  5
235FA
330
747D
100
AcDbEntity
  8
部品1
 48
50.0
100
AcDbPolyline
 90
        2
 70
     0
 43
0.0
 10
5384.896575106991
 20
4082.745966692426
 10
5384.896575106991
 20
4093.674849396993
  0
ARC
  5
235FB
330
747D
100
AcDbEntity
  8
部品1
 48
50.0
100
AcDbCircle
 10
5381.39657510699
 20
4075.00000000001
 30
0.0
 40
8.5
100
AcDbArc
 50
294.315739171091
 51
65.68426082890896
  0
LWPOLYLINE
  5
235FC
330
747D
100
AcDbEntity
  8
部品1
 48
50.0
100
AcDbPolyline
 90
        2
 70
     0
 43
0.0
 10
5384.896575106991
 20
4056.325150603028
 10
5384.896575106991
 20
4067.254033307595
  0
ARC
  5
235FD
330
747D
100
AcDbEntity
  8
細線
 48
50.0
100
AcDbCircle
 10
5381.39657510699
 20
4075.00000000001
 30
0.0
 40
16.5
100
AcDbArc
 50
332.0012352654438
 51
27.99876473455621
  0
ARC
  5
235FE
330
747D
100
AcDbEntity
  8
細線
 48
50.0
100
AcDbCircle
 10
5381.39657510699
 20
4075.00000000001
 30
0.0
 40
14.0
100
AcDbArc
 50
326.407443611277
 51
33.59255638872305
  0
LINE
  5
235FF
330
747D
100
AcDbEntity
  8
細線
 48
50.0
100
AcDbLine
 10
5366.827772822659
 20
4082.745966692426
 30
0.0
 11
5369.734671317302
 21
4082.745966692426
 31
0.0
  0
LINE
  5
23600
330
747D
100
AcDbEntity
  8
細線
 48
50.0
100
AcDbLine
 10
5366.827772822659
 20
4067.254033307595
 30
0.0
 11
5369.734671317302
 21
4067.254033307595
 31
0.0
  0
LINE
  5
23601
330
747D
100
AcDbEntity
  8
細線
 48
50.0
100
AcDbLine
 10
5393.05847889668
 20
4082.745966692426
 30
0.0
 11
5395.965377391326
 21
4082.745966692426
 31
0.0
  0
LINE
  5
23602
330
747D
100
AcDbEntity
  8
細線
 48
50.0
100
AcDbLine
 10
5393.05847889668
 20
4067.254033307595
 30
0.0
 11
5395.965377391326
 21
4067.254033307595
 31
0.0
  0
ARC
  5
23603
330
747D
100
AcDbEntity
  8
細線
 48
50.0
100
AcDbCircle
 10
5381.39657510699
 20
4075.00000000001
 30
0.0
 40
14.0
100
AcDbArc
 50
146.4074436112769
 51
213.592556388723
  0
ARC
  5
23604
330
747D
100
AcDbEntity
  8
細線
 48
50.0
100
AcDbCircle
 10
5381.39657510699
 20
4075.00000000001
 30
0.0
 40
16.5
100
AcDbArc
 50
152.0012352654438
 51
207.9987647345562
  0
ARC
  5
23605
330
747D
100
AcDbEntity
  8
部品1
 48
50.0
100
AcDbCircle
 10
5354.896575106991
 20
4100.50000000001
 30
0.0
 40
5.0
100
AcDbArc
 50
90.0
 51
180.0
  0
ARC
  5
23606
330
747D
100
AcDbEntity
  8
部品1
 48
50.0
100
AcDbCircle
 10
5354.896575106991
 20
3989.500000000011
 30
0.0
 40
5.0
100
AcDbArc
 50
180.0
 51
270.0
  0
ARC
  5
23607
330
747D
100
AcDbEntity
  8
部品1
 48
50.0
100
AcDbCircle
 10
5407.896575106991
 20
3989.500000000011
 30
0.0
 40
5.0
100
AcDbArc
 50
270.0
 51
0.0
  0
ARC
  5
23608
330
747D
100
AcDbEntity
  8
部品1
 48
50.0
100
AcDbCircle
 10
5407.896575106991
 20
4100.50000000001
 30
0.0
 40
5.0
100
AcDbArc
 50
0.0
 51
90.0
  0
LINE
  5
23609
330
747D
100
AcDbEntity
  8
部品1
 48
50.0
100
AcDbLine
 10
5349.896575106991
 20
3989.500000000011
 30
0.0
 11
5349.896575106991
 21
4100.50000000001
 31
0.0
  0
LINE
  5
2360A
330
747D
100
AcDbEntity
  8
部品1
 48
50.0
100
AcDbLine
 10
5407.896575106991
 20
3984.500000000011
 30
0.0
 11
5354.896575106991
 21
3984.500000000011
 31
0.0
  0
LINE
  5
2360B
330
747D
100
AcDbEntity
  8
部品1
 48
50.0
100
AcDbLine
 10
5412.896575106991
 20
4100.50000000001
 30
0.0
 11
5412.896575106991
 21
3989.500000000011
 31
0.0
  0
ENDSEC
  0
SECTION
  2
OBJECTS
  0
DICTIONARY
  5
7471
330
0
100
AcDbDictionary
281
     1
  3
ACAD_COLOR
350
159B0
  3
ACAD_GROUP
350
7472
  3
ACAD_LAYOUT
350
159B1
  3
ACAD_MATERIAL
350
159AF
  3
ACAD_MLINESTYLE
350
7473
  3
ACAD_PLOTSETTINGS
350
159B2
  3
ACAD_PLOTSTYLENAME
350
159AD
  3
ACDBHEADERROUNDTRIPXREC
350
2361A
  3
AcDbVariableDictionary
350
23616
  3
CONTENTDICTIONARY
350
E71C
  3
DRAWINGVARIABLESDICT
350
F3B9
  0
DICTIONARY
  5
21E20
330
7467
100
AcDbDictionary
280
     1
281
     1
  3
ACAD_LAYERSTATES
360
21E21
  0
DICTIONARY
  5
159B0
102
{ACAD_REACTORS
330
7471
102
}
330
7471
100
AcDbDictionary
281
     1
  0
DICTIONARY
  5
7472
102
{ACAD_REACTORS
330
7471
102
}
330
7471
100
AcDbDictionary
281
     1
  0
DICTIONARY
  5
159B1
102
{ACAD_REACTORS
330
7471
102
}
330
7471
100
AcDbDictionary
281
     1
  3
Model
350
159B3
  3
レイアウト1
350
159B4
  0
DICTIONARY
  5
159AF
102
{ACAD_REACTORS
330
7471
102
}
330
7471
100
AcDbDictionary
281
     1
  0
DICTIONARY
  5
7473
102
{ACAD_REACTORS
330
7471
102
}
330
7471
100
AcDbDictionary
281
     1
  3
STANDARD
350
7480
  0
DICTIONARY
  5
159B2
102
{ACAD_REACTORS
330
7471
102
}
330
7471
100
AcDbDictionary
281
     1
  0
ACDBDICTIONARYWDFLT
  5
159AD
102
{ACAD_REACTORS
330
7471
102
}
330
7471
100
AcDbDictionary
281
     1
  3
Normal
350
159AE
100
AcDbDictionaryWithDefault
340
159AE
  0
DICTIONARY
  5
2361A
102
{ACAD_REACTORS
330
7471
102
}
330
7471
100
AcDbDictionary
281
     1
  3
COLORDICT
350
2361C
  3
MATERIALDICT
350
2361B
  0
DICTIONARY
  5
23616
102
{ACAD_REACTORS
330
7471
102
}
330
7471
100
AcDbDictionary
281
     1
  3
DIMASSOC
350
23617
  3
PROJECTNAME
350
23618
  0
DICTIONARY
  5
E71C
102
{ACAD_REACTORS
330
7471
102
}
330
7471
100
AcDbDictionary
281
     1
  0
DICTIONARY
  5
F3B9
102
{ACAD_REACTORS
330
7471
102
}
330
7471
100
AcDbDictionary
281
     1
1001
DRAWINGVARIABLESXDATA
1000
POLARMODE
1000
1
  0
DICTIONARY
  5
21E21
102
{ACAD_REACTORS
330
21E20
102
}
330
21E20
100
AcDbDictionary
281
     1
  0
LAYOUT
  5
159B3
102
{ACAD_XDICTIONARY
360
2361D
102
}
102
{ACAD_REACTORS
330
159B1
102
}
330
159B1
100
AcDbPlotSettings
  1

  2
none_device
  4
Letter_(8.50_x_11.00_Inches)
  6

 40
6.349999904632568
 41
6.349999904632568
 42
6.350006103515625
 43
6.350006103515625
 44
215.8999938964844
 45
279.3999938964844
 46
0.0
 47
0.0
 48
0.0
 49
0.0
140
0.0
141
0.0
142
1.0
143
1.0
 70
 11952
 72
     1
 73
     1
 74
     0
  7

 75
     0
147
1.0
148
-4149.571981164617
149
65.56433826894044
100
AcDbLayout
  1
Model
 70
     1
 71
     0
 10
0.0
 20
0.0
 11
12.0
 21
9.0
 12
0.0
 22
0.0
 32
0.0
 14
0.0
 24
0.0
 34
0.0
 15
0.0
 25
0.0
 35
0.0
146
0.0
 13
0.0
 23
0.0
 33
0.0
 16
1.0
 26
0.0
 36
0.0
 17
0.0
 27
1.0
 37
0.0
 76
     0
330
747D
  0
LAYOUT
  5
159B4
102
{ACAD_XDICTIONARY
360
2361F
102
}
102
{ACAD_REACTORS
330
159B1
102
}
330
159B1
100
AcDbPlotSettings
  1

  2
自動 EPSON LP-8400FX (TATENO 上)
  4

  6

 40
0.0
 41
0.0
 42
0.0
 43
0.0
 44
0.0
 45
0.0
 46
0.0
 47
0.0
 48
0.0
 49
0.0
140
0.0
141
0.0
142
1.0
143
1.0
 70
   688
 72
     0
 73
     0
 74
     5
  7
inaba.ctb
 75
    16
147
1.0
148
0.0
149
0.0
100
AcDbLayout
  1
レイアウト1
 70
     0
 71
     1
 10
0.0
 20
0.0
 11
420.0
 21
297.0
 12
0.0
 22
0.0
 32
0.0
 14
1.000000000000000E+20
 24
1.000000000000000E+20
 34
1.000000000000000E+20
 15
-1.000000000000000E+20
 25
-1.000000000000000E+20
 35
-1.000000000000000E+20
146
0.0
 13
0.0
 23
0.0
 33
0.0
 16
1.0
 26
0.0
 36
0.0
 17
0.0
 27
1.0
 37
0.0
 76
     0
330
747A
  0
MLINESTYLE
  5
7480
102
{ACAD_REACTORS
330
7473
102
}
330
7473
100
AcDbMlineStyle
  2
STANDARD
 70
     0
  3

 62
     0
 51
90.0
 52
90.0
 71
     2
 49
0.5
 62
   256
  6
BYLAYER
 49
-0.5
 62
   256
  6
BYLAYER
  0
ACDBPLACEHOLDER
  5
159AE
102
{ACAD_REACTORS
330
159AD
102
}
330
159AD
  0
XRECORD
  5
2361C
102
{ACAD_REACTORS
330
2361A
102
}
330
2361A
100
AcDbXrecord
280
     1
340
159B0
  0
XRECORD
  5
2361B
102
{ACAD_REACTORS
330
2361A
102
}
330
2361A
100
AcDbXrecord
280
     1
340
159AF
  0
DICTIONARYVAR
  5
23617
102
{ACAD_REACTORS
330
23616
102
}
330
23616
100
DictionaryVariables
280
     0
  1
1
  0
DICTIONARYVAR
  5
23618
102
{ACAD_REACTORS
330
23616
102
}
330
23616
100
DictionaryVariables
280
     0
  1

  0
DICTIONARY
  5
2361D
330
159B3
100
AcDbDictionary
280
     1
281
     1
  3
ACAD_XREC_ROUNDTRIP
360
2361E
  0
DICTIONARY
  5
2361F
330
159B4
100
AcDbDictionary
280
     1
281
     1
  3
ACAD_XREC_ROUNDTRIP
360
23620
  0
XRECORD
  5
2361E
102
{ACAD_REACTORS
330
2361D
102
}
330
2361D
100
AcDbXrecord
280
     1
102
SHADEPLOT
 70
     0
102
SHADEPLOTRESLEVEL
 70
     2
102
SHADEPLOTCUSTOMDPI
 70
   300
  0
XRECORD
  5
23620
102
{ACAD_REACTORS
330
2361F
102
}
330
2361F
100
AcDbXrecord
280
     1
102
SHADEPLOT
 70
     0
102
SHADEPLOTRESLEVEL
 70
     2
102
SHADEPLOTCUSTOMDPI
 70
   300
  0
ENDSEC
  0
EOF
