  0
SECTION
  2
HEADER
  9
$ACADVER
  1
AC1015
  9
$ACADMAINTVER
 70
    20
  9
$DWGCODEPAGE
  3
ANSI_932
  9
$INSBASE
 10
0.0
 20
0.0
 30
0.0
  9
$EXTMIN
 10
139.9999999999995
 20
-0.0000000000000909
 30
0.0
  9
$EXTMAX
 10
16307.2
 20
11409.6
 30
0.0
  9
$LIMMIN
 10
-25.79074261211281
 20
-125.8223078213959
  9
$LIMMAX
 10
16471.10331197129
 20
11496.44801950658
  9
$ORTHOMODE
 70
     0
  9
$REGENMODE
 70
     1
  9
$FILLMODE
 70
     1
  9
$QTEXTMODE
 70
     0
  9
$MIRRTEXT
 70
     1
  9
$LTSCALE
 40
20.0
  9
$ATTMODE
 70
     1
  9
$TEXTSIZE
 40
4.0
  9
$TRACEWID
 40
1.0
  9
$TEXTSTYLE
  7
STYLE1
  9
$CLAYER
  8
部品1
  9
$CELTYPE
  6
BYLAYER
  9
$CECOLOR
 62
   256
  9
$CELTSCALE
 40
50.0
  9
$DISPSILH
 70
     0
  9
$DIMSCALE
 40
40.0
  9
$DIMASZ
 40
2.5
  9
$DIMEXO
 40
0.5
  9
$DIMDLI
 40
7.0
  9
$DIMRND
 40
0.0
  9
$DIMDLE
 40
0.0
  9
$DIMEXE
 40
1.5
  9
$DIMTP
 40
0.0
  9
$DIMTM
 40
0.0
  9
$DIMTXT
 40
3.0
  9
$DIMCEN
 40
0.0
  9
$DIMTSZ
 40
0.0
  9
$DIMTOL
 70
     0
  9
$DIMLIM
 70
     0
  9
$DIMTIH
 70
     0
  9
$DIMTOH
 70
     0
  9
$DIMSE1
 70
     0
  9
$DIMSE2
 70
     0
  9
$DIMTAD
 70
     3
  9
$DIMZIN
 70
     8
  9
$DIMBLK
  1

  9
$DIMASO
 70
     1
  9
$DIMSHO
 70
     1
  9
$DIMPOST
  1

  9
$DIMAPOST
  1

  9
$DIMALT
 70
     0
  9
$DIMALTD
 70
     2
  9
$DIMALTF
 40
0.0394
  9
$DIMLFAC
 40
1.0
  9
$DIMTOFL
 70
     1
  9
$DIMTVP
 40
0.0
  9
$DIMTIX
 70
     1
  9
$DIMSOXD
 70
     0
  9
$DIMSAH
 70
     1
  9
$DIMBLK1
  1
DOTSMALL
  9
$DIMBLK2
  1
DOTSMALL
  9
$DIMSTYLE
  2
INABA_S40G
  9
$DIMCLRD
 70
     0
  9
$DIMCLRE
 70
     0
  9
$DIMCLRT
 70
     7
  9
$DIMTFAC
 40
1.0
  9
$DIMGAP
 40
1.0
  9
$DIMJUST
 70
     0
  9
$DIMSD1
 70
     0
  9
$DIMSD2
 70
     0
  9
$DIMTOLJ
 70
     1
  9
$DIMTZIN
 70
     0
  9
$DIMALTZ
 70
     0
  9
$DIMALTTZ
 70
     0
  9
$DIMUPT
 70
     0
  9
$DIMDEC
 70
     1
  9
$DIMTDEC
 70
     4
  9
$DIMALTU
 70
     2
  9
$DIMALTTD
 70
     2
  9
$DIMTXSTY
  7
STYLE1
  9
$DIMAUNIT
 70
     0
  9
$DIMADEC
 70
     0
  9
$DIMALTRND
 40
0.0
  9
$DIMAZIN
 70
     0
  9
$DIMDSEP
 70
    46
  9
$DIMATFIT
 70
     3
  9
$DIMFRAC
 70
     0
  9
$DIMLDRBLK
  1

  9
$DIMLUNIT
 70
     2
  9
$DIMLWD
 70
    -2
  9
$DIMLWE
 70
    -2
  9
$DIMTMOVE
 70
     0
  9
$LUNITS
 70
     2
  9
$LUPREC
 70
     1
  9
$SKETCHINC
 40
1.0
  9
$FILLETRAD
 40
3.0
  9
$AUNITS
 70
     0
  9
$AUPREC
 70
     0
  9
$MENU
  1
acad
  9
$ELEVATION
 40
0.0
  9
$PELEVATION
 40
0.0
  9
$THICKNESS
 40
0.0
  9
$LIMCHECK
 70
     0
  9
$CHAMFERA
 40
0.0
  9
$CHAMFERB
 40
0.0
  9
$CHAMFERC
 40
0.0
  9
$CHAMFERD
 40
0.0
  9
$SKPOLY
 70
     0
  9
$TDCREATE
 40
2451368.612993866
  9
$TDUCREATE
 40
2451368.237993866
  9
$TDUPDATE
 40
2455575.682834919
  9
$TDUUPDATE
 40
2455575.307834919
  9
$TDINDWG
 40
0.4543954861
  9
$TDUSRTIMER
 40
0.4543954861
  9
$USRTIMER
 70
     1
  9
$ANGBASE
 50
0.0
  9
$ANGDIR
 70
     0
  9
$PDMODE
 70
     3
  9
$PDSIZE
 40
2.0
  9
$PLINEWID
 40
0.0
  9
$SPLFRAME
 70
     0
  9
$SPLINETYPE
 70
     6
  9
$SPLINESEGS
 70
     8
  9
$HANDSEED
  5
18BCE
  9
$SURFTAB1
 70
     6
  9
$SURFTAB2
 70
     6
  9
$SURFTYPE
 70
     6
  9
$SURFU
 70
     6
  9
$SURFV
 70
     6
  9
$UCSBASE
  2

  9
$UCSNAME
  2

  9
$UCSORG
 10
0.0
 20
0.0
 30
0.0
  9
$UCSXDIR
 10
1.0
 20
0.0
 30
0.0
  9
$UCSYDIR
 10
0.0
 20
1.0
 30
0.0
  9
$UCSORTHOREF
  2

  9
$UCSORTHOVIEW
 70
     0
  9
$UCSORGTOP
 10
0.0
 20
0.0
 30
0.0
  9
$UCSORGBOTTOM
 10
0.0
 20
0.0
 30
0.0
  9
$UCSORGLEFT
 10
0.0
 20
0.0
 30
0.0
  9
$UCSORGRIGHT
 10
0.0
 20
0.0
 30
0.0
  9
$UCSORGFRONT
 10
0.0
 20
0.0
 30
0.0
  9
$UCSORGBACK
 10
0.0
 20
0.0
 30
0.0
  9
$PUCSBASE
  2

  9
$PUCSNAME
  2

  9
$PUCSORG
 10
0.0
 20
0.0
 30
0.0
  9
$PUCSXDIR
 10
1.0
 20
0.0
 30
0.0
  9
$PUCSYDIR
 10
0.0
 20
1.0
 30
0.0
  9
$PUCSORTHOREF
  2

  9
$PUCSORTHOVIEW
 70
     0
  9
$PUCSORGTOP
 10
0.0
 20
0.0
 30
0.0
  9
$PUCSORGBOTTOM
 10
0.0
 20
0.0
 30
0.0
  9
$PUCSORGLEFT
 10
0.0
 20
0.0
 30
0.0
  9
$PUCSORGRIGHT
 10
0.0
 20
0.0
 30
0.0
  9
$PUCSORGFRONT
 10
0.0
 20
0.0
 30
0.0
  9
$PUCSORGBACK
 10
0.0
 20
0.0
 30
0.0
  9
$USERI1
 70
     0
  9
$USERI2
 70
     0
  9
$USERI3
 70
     0
  9
$USERI4
 70
     0
  9
$USERI5
 70
     0
  9
$USERR1
 40
0.0
  9
$USERR2
 40
0.0
  9
$USERR3
 40
0.0
  9
$USERR4
 40
0.0
  9
$USERR5
 40
0.0
  9
$WORLDVIEW
 70
     1
  9
$SHADEDGE
 70
     3
  9
$SHADEDIF
 70
    70
  9
$TILEMODE
 70
     1
  9
$MAXACTVP
 70
    16
  9
$PINSBASE
 10
0.0
 20
0.0
 30
0.0
  9
$PLIMCHECK
 70
     0
  9
$PEXTMIN
 10
1.000000000000000E+20
 20
1.000000000000000E+20
 30
1.000000000000000E+20
  9
$PEXTMAX
 10
-1.000000000000000E+20
 20
-1.000000000000000E+20
 30
-1.000000000000000E+20
  9
$PLIMMIN
 10
0.0
 20
0.0
  9
$PLIMMAX
 10
420.0
 20
297.0
  9
$UNITMODE
 70
     0
  9
$VISRETAIN
 70
     0
  9
$PLINEGEN
 70
     0
  9
$PSLTSCALE
 70
     0
  9
$TREEDEPTH
 70
  3020
  9
$CMLSTYLE
  2
STANDARD
  9
$CMLJUST
 70
     0
  9
$CMLSCALE
 40
1.0
  9
$PROXYGRAPHICS
 70
     1
  9
$MEASUREMENT
 70
     1
  9
$CELWEIGHT
370
    -1
  9
$ENDCAPS
280
     0
  9
$JOINSTYLE
280
     0
  9
$LWDISPLAY
290
     0
  9
$INSUNITS
 70
     0
  9
$HYPERLINKBASE
  1

  9
$STYLESHEET
  1
inaba.ctb
  9
$XEDIT
290
     1
  9
$CEPSNTYPE
380
     0
  9
$PSTYLEMODE
290
     1
  9
$FINGERPRINTGUID
  2
{C3FEE96A-5603-4488-8F84-7FFD8BB27DFD}
  9
$VERSIONGUID
  2
{E6357086-DFE6-44AF-A5D5-68A3C2FF2BCF}
  9
$EXTNAMES
290
     1
  9
$PSVPSCALE
 40
0.0
  9
$OLESTARTUP
290
     0
  0
ENDSEC
  0
SECTION
  2
CLASSES
  0
CLASS
  1
ACDBDICTIONARYWDFLT
  2
AcDbDictionaryWithDefault
  3
ObjectDBX Classes
 90
        0
280
     0
281
     0
  0
CLASS
  1
DICTIONARYVAR
  2
AcDbDictionaryVar
  3
ObjectDBX Classes
 90
        0
280
     0
281
     0
  0
CLASS
  1
ACDBPLACEHOLDER
  2
AcDbPlaceHolder
  3
ObjectDBX Classes
 90
        0
280
     0
281
     0
  0
CLASS
  1
LAYOUT
  2
AcDbLayout
  3
ObjectDBX Classes
 90
        0
280
     0
281
     0
  0
ENDSEC
  0
SECTION
  2
TABLES
  0
TABLE
  2
VPORT
  5
746D
330
0
100
AcDbSymbolTable
 70
     2
  0
VPORT
  5
18BC6
330
746D
100
AcDbSymbolTableRecord
100
AcDbViewportTableRecord
  2
*Active
 70
     0
 10
0.0
 20
0.0
 11
1.0
 21
1.0
 12
8223.761025238504
 22
5704.608037261908
 13
0.0
 23
0.0
 14
10.0
 24
10.0
 15
10.0
 25
10.0
 16
0.0
 26
0.0
 36
1.0
 17
0.0
 27
0.0
 37
0.0
 40
11495.08541324274
 41
1.525925925925925
 42
50.0
 43
0.0
 44
0.0
 50
0.0
 51
0.0
 71
     0
 72
     0
 73
     1
 74
     0
 75
     0
 76
     0
 77
     0
 78
     0
281
     0
 65
     1
110
0.0
120
0.0
130
0.0
111
1.0
121
0.0
131
0.0
112
0.0
122
1.0
132
0.0
 79
     0
146
0.0
  0
ENDTAB
  0
TABLE
  2
LTYPE
  5
746A
330
0
100
AcDbSymbolTable
 70
     4
  0
LTYPE
  5
7477
330
746A
100
AcDbSymbolTableRecord
100
AcDbLinetypeTableRecord
  2
BYBLOCK
 70
     0
  3

 72
    65
 73
     0
 40
0.0
  0
LTYPE
  5
7478
330
746A
100
AcDbSymbolTableRecord
100
AcDbLinetypeTableRecord
  2
BYLAYER
 70
     0
  3

 72
    65
 73
     0
 40
0.0
  0
LTYPE
  5
7479
330
746A
100
AcDbSymbolTableRecord
100
AcDbLinetypeTableRecord
  2
CONTINUOUS
 70
     0
  3
Solid line
 72
    65
 73
     0
 40
0.0
  0
LTYPE
  5
7816
330
746A
100
AcDbSymbolTableRecord
100
AcDbLinetypeTableRecord
  2
CENTER
 70
     0
  3
____ _ ____ _ ____ _ ____ _ ____ _ ____ _ ____ 
 72
    65
 73
     4
 40
2.0
 49
1.25
 74
     0
 49
-0.25
 74
     0
 49
0.25
 74
     0
 49
-0.25
 74
     0
  0
LTYPE
  5
781A
330
746A
100
AcDbSymbolTableRecord
100
AcDbLinetypeTableRecord
  2
HIDDEN
 70
     0
  3
__ __ __ __ __ __ __ __ __ __ __ __ __ __ __ __
 72
    65
 73
     2
 40
0.375
 49
0.25
 74
     0
 49
-0.125
 74
     0
  0
LTYPE
  5
781B
330
746A
100
AcDbSymbolTableRecord
100
AcDbLinetypeTableRecord
  2
PHANTOM
 70
     0
  3
______  __  __  ______  __  __  ______  __  __ 
 72
    65
 73
     6
 40
2.5
 49
1.25
 74
     0
 49
-0.25
 74
     0
 49
0.25
 74
     0
 49
-0.25
 74
     0
 49
0.25
 74
     0
 49
-0.25
 74
     0
  0
ENDTAB
  0
TABLE
  2
LAYER
  5
7467
102
{ACAD_XDICTIONARY
360
16545
102
}
330
0
100
AcDbSymbolTable
 70
    12
  0
LAYER
  5
7474
330
7467
100
AcDbSymbolTableRecord
100
AcDbLayerTableRecord
  2
0
 70
     0
 62
     7
  6
CONTINUOUS
370
    -3
390
163A9
  0
LAYER
  5
DEB2
330
7467
100
AcDbSymbolTableRecord
100
AcDbLayerTableRecord
  2
センター
 70
     0
 62
     3
  6
CENTER
370
    -3
390
163A9
  0
LAYER
  5
DEB3
330
7467
100
AcDbSymbolTableRecord
100
AcDbLayerTableRecord
  2
寸法
 70
     0
 62
     4
  6
CONTINUOUS
370
    -3
390
163A9
  0
LAYER
  5
DEB4
330
7467
100
AcDbSymbolTableRecord
100
AcDbLayerTableRecord
  2
部品1
 70
     0
 62
     7
  6
CONTINUOUS
370
    -3
390
163A9
  0
LAYER
  5
DEB5
330
7467
100
AcDbSymbolTableRecord
100
AcDbLayerTableRecord
  2
補助
 70
     0
 62
    -1
  6
CONTINUOUS
370
    -3
390
163A9
  0
LAYER
  5
DEB6
330
7467
100
AcDbSymbolTableRecord
100
AcDbLayerTableRecord
  2
文字
 70
     0
 62
     7
  6
CONTINUOUS
370
    -3
390
163A9
  0
LAYER
  5
F255
330
7467
100
AcDbSymbolTableRecord
100
AcDbLayerTableRecord
  2
DEFPOINTS
 70
     0
 62
     7
  6
CONTINUOUS
290
     0
370
    -3
390
163A9
  0
LAYER
  5
10B54
330
7467
100
AcDbSymbolTableRecord
100
AcDbLayerTableRecord
  2
仕様書枠
 70
     0
 62
   230
  6
CONTINUOUS
370
    -3
390
163A9
  0
LAYER
  5
11729
330
7467
100
AcDbSymbolTableRecord
100
AcDbLayerTableRecord
  2
Ｇ．Ｌ
 70
     0
 62
    30
  6
CONTINUOUS
370
    -3
390
163A9
  0
LAYER
  5
1173F
330
7467
100
AcDbSymbolTableRecord
100
AcDbLayerTableRecord
  2
細線
 70
     0
 62
     5
  6
CONTINUOUS
370
    -3
390
163A9
  0
LAYER
  5
12CC4
330
7467
100
AcDbSymbolTableRecord
100
AcDbLayerTableRecord
  2
想像線
 70
     0
 62
     6
  6
PHANTOM
370
    -3
390
163A9
  0
LAYER
  5
142E2
330
7467
100
AcDbSymbolTableRecord
100
AcDbLayerTableRecord
  2
破線
 70
     0
 62
     2
  6
HIDDEN
370
    -3
390
163A9
  0
ENDTAB
  0
TABLE
  2
STYLE
  5
7468
330
0
100
AcDbSymbolTable
 70
     4
  0
STYLE
  5
7475
330
7468
100
AcDbSymbolTableRecord
100
AcDbTextStyleTableRecord
  2
STANDARD
 70
     0
 40
0.0
 41
1.0
 50
0.0
 71
     0
 42
4.0
  3
txt
  4
C:\AutoCAD LT\bigfont.shx
  0
STYLE
  5
F706
330
7468
100
AcDbSymbolTableRecord
100
AcDbTextStyleTableRecord
  2
STYLE1
 70
     0
 40
0.0
 41
1.0
 50
0.0
 71
     0
 42
4.0
  3
isocp.shx
  4
bigfont.shx
  0
STYLE
  5
103BF
330
7468
100
AcDbSymbolTableRecord
100
AcDbTextStyleTableRecord
  2
STYLE2
 70
     0
 40
0.0
 41
1.0
 50
0.0
 71
     0
 42
100.0
  3
MS PGothic.ttf
  4

1001
ACAD
1000
MS PGothic
1071
    32818
  0
STYLE
  5
1704D
330
7468
100
AcDbSymbolTableRecord
100
AcDbTextStyleTableRecord
  2
STYLE3
 70
     0
 40
0.0
 41
1.0
 50
0.0
 71
     0
 42
100.0
  3
DFPGothic-EB.ttf
  4

1001
ACAD
1000
DFPGothic-EB
1071
    32818
  0
ENDTAB
  0
TABLE
  2
VIEW
  5
746B
330
0
100
AcDbSymbolTable
 70
     0
  0
ENDTAB
  0
TABLE
  2
UCS
  5
746C
330
0
100
AcDbSymbolTable
 70
     0
  0
ENDTAB
  0
TABLE
  2
APPID
  5
746E
330
0
100
AcDbSymbolTable
 70
     6
  0
APPID
  5
7476
330
746E
100
AcDbSymbolTableRecord
100
AcDbRegAppTableRecord
  2
ACAD
 70
     0
  0
APPID
  5
DEA9
330
746E
100
AcDbSymbolTableRecord
100
AcDbRegAppTableRecord
  2
CONTENTBLOCKICON
 70
     0
  0
APPID
  5
DEAA
330
746E
100
AcDbSymbolTableRecord
100
AcDbRegAppTableRecord
  2
CONTENTBLOCKDESCRIPTION
 70
     0
  0
APPID
  5
E71D
330
746E
100
AcDbSymbolTableRecord
100
AcDbRegAppTableRecord
  2
CONTENTTABDATA
 70
     0
  0
APPID
  5
E71E
330
746E
100
AcDbSymbolTableRecord
100
AcDbRegAppTableRecord
  2
CONTENTCURRENTTAB
 70
     0
  0
APPID
  5
F3BA
330
746E
100
AcDbSymbolTableRecord
100
AcDbRegAppTableRecord
  2
DRAWINGVARIABLESXDATA
 70
     0
  0
ENDTAB
  0
TABLE
  2
DIMSTYLE
  5
746F
330
0
100
AcDbSymbolTable
 70
     5
100
AcDbDimStyleTable
 71
     0
  0
DIMSTYLE
105
7484
330
746F
100
AcDbSymbolTableRecord
100
AcDbDimStyleTableRecord
  2
JIS
 70
     0
 41
2.5
 42
1.0
 43
7.0
 44
1.0
 73
     0
 74
     0
 77
     1
 78
     8
140
2.5
141
0.0
143
0.0394
147
0.0
172
     1
174
     1
175
     1
340
7475
  0
DIMSTYLE
105
F71F
102
{ACAD_REACTORS
330
1686F
330
16870
330
16871
330
16872
330
16880
330
16895
330
16896
330
16897
330
16898
330
168B2
330
168B3
330
168B7
330
16946
330
169AF
330
169B0
330
169B1
330
16ABC
330
16AD3
330
16AD5
330
16AEE
330
16AF1
330
16B03
330
16B06
330
16B07
330
16B08
330
16B09
330
16B0A
330
16B0D
330
188BF
330
189B9
102
}
330
746F
100
AcDbSymbolTableRecord
100
AcDbDimStyleTableRecord
  2
INABA_S40G
 70
     0
 40
40.0
 41
2.5
 42
0.5
 43
7.0
 44
1.5
 73
     0
 74
     0
 77
     3
 78
     8
140
3.0
141
0.0
143
0.0394
147
1.0
172
     1
173
     1
174
     1
178
     7
271
     1
340
F706
341
F770
343
F770
344
F770
  0
DIMSTYLE
105
16544
102
{ACAD_REACTORS
330
1862E
330
188C0
102
}
330
746F
100
AcDbSymbolTableRecord
100
AcDbDimStyleTableRecord
  2
INABA_S40
 70
     0
 40
40.0
 41
2.5
 42
0.5
 43
7.0
 44
1.5
 73
     0
 74
     0
 77
     3
 78
     8
140
3.0
141
0.0
143
0.0394
147
1.0
172
     1
173
     1
174
     1
175
     1
178
     7
340
7475
  0
DIMSTYLE
105
1704E
330
746F
100
AcDbSymbolTableRecord
100
AcDbDimStyleTableRecord
  2
INABA_S50G
 70
     0
 41
125.0
 42
25.0
 43
7.0
 44
75.0
 73
     0
 74
     0
 77
     3
 78
     8
140
150.0
141
0.0
143
0.0394
147
25.0
172
     1
173
     1
174
     1
175
     1
178
     7
271
     1
340
F706
341
F770
343
F770
344
F770
  0
DIMSTYLE
105
18B4C
330
746F
100
AcDbSymbolTableRecord
100
AcDbDimStyleTableRecord
  2
INABA_S20G
 70
     0
 40
20.0
 41
2.5
 42
0.5
 43
7.0
 44
1.5
 73
     0
 74
     0
 77
     3
 78
     8
140
3.0
141
0.0
143
0.0394
147
1.0
172
     1
173
     1
174
     1
178
     7
271
     1
340
F706
341
F770
343
F770
344
F770
  0
ENDTAB
  0
TABLE
  2
BLOCK_RECORD
  5
7466
330
0
100
AcDbSymbolTable
 70
    34
  0
BLOCK_RECORD
  5
747D
330
7466
100
AcDbSymbolTableRecord
100
AcDbBlockTableRecord
  2
*MODEL_SPACE
340
163AE
  0
BLOCK_RECORD
  5
747A
330
7466
100
AcDbSymbolTableRecord
100
AcDbBlockTableRecord
  2
*PAPER_SPACE
340
163AF
  0
BLOCK_RECORD
  5
F770
330
7466
100
AcDbSymbolTableRecord
100
AcDbBlockTableRecord
  2
_DOTSMALL
340
0
102
{BLKREFS
331
17111
331
17112
331
17123
331
17124
331
1712E
331
1712F
331
17139
331
1713A
331
17144
331
17145
331
17161
331
17162
331
1716A
331
1716B
331
17173
331
17174
331
1717C
331
1717D
331
17185
331
17186
331
17197
331
17198
331
171A2
331
171A3
331
171AB
331
171AC
331
171B6
331
171B7
331
171CA
331
171CB
331
171D3
331
171D4
331
171DD
331
171DE
331
171E8
331
171E9
331
171F2
331
171F3
331
171FB
331
171FC
331
17204
331
17205
331
1720E
331
1720F
331
17217
331
17218
331
17222
331
17223
331
1722B
331
1722C
331
17234
331
17235
331
17BA2
331
17BA3
331
18B05
331
18B06
331
18B2B
331
18B2C
331
18B3D
331
18B3E
102
}
  0
BLOCK_RECORD
  5
163B6
330
7466
100
AcDbSymbolTableRecord
100
AcDbBlockTableRecord
  2
_DOT
340
0
102
{BLKREFS
331
186F0
331
186F1
331
18B19
331
18B1A
102
}
  0
BLOCK_RECORD
  5
16B33
330
7466
100
AcDbSymbolTableRecord
100
AcDbBlockTableRecord
  2
*D2
340
0
  0
BLOCK_RECORD
  5
16B3F
330
7466
100
AcDbSymbolTableRecord
100
AcDbBlockTableRecord
  2
*D3
340
0
  0
BLOCK_RECORD
  5
16B4B
330
7466
100
AcDbSymbolTableRecord
100
AcDbBlockTableRecord
  2
*D4
340
0
  0
BLOCK_RECORD
  5
16B59
330
7466
100
AcDbSymbolTableRecord
100
AcDbBlockTableRecord
  2
*D5
340
0
  0
BLOCK_RECORD
  5
16B65
330
7466
100
AcDbSymbolTableRecord
100
AcDbBlockTableRecord
  2
*D6
340
0
  0
BLOCK_RECORD
  5
16B72
330
7466
100
AcDbSymbolTableRecord
100
AcDbBlockTableRecord
  2
*D7
340
0
  0
BLOCK_RECORD
  5
16B7E
330
7466
100
AcDbSymbolTableRecord
100
AcDbBlockTableRecord
  2
*D8
340
0
  0
BLOCK_RECORD
  5
16B8A
330
7466
100
AcDbSymbolTableRecord
100
AcDbBlockTableRecord
  2
*D9
340
0
  0
BLOCK_RECORD
  5
16B97
330
7466
100
AcDbSymbolTableRecord
100
AcDbBlockTableRecord
  2
*D10
340
0
  0
BLOCK_RECORD
  5
16BA5
330
7466
100
AcDbSymbolTableRecord
100
AcDbBlockTableRecord
  2
*D11
340
0
  0
BLOCK_RECORD
  5
16BB2
330
7466
100
AcDbSymbolTableRecord
100
AcDbBlockTableRecord
  2
*D12
340
0
  0
BLOCK_RECORD
  5
16BBE
330
7466
100
AcDbSymbolTableRecord
100
AcDbBlockTableRecord
  2
*D13
340
0
  0
BLOCK_RECORD
  5
16BD8
330
7466
100
AcDbSymbolTableRecord
100
AcDbBlockTableRecord
  2
*D14
340
0
  0
BLOCK_RECORD
  5
16BE6
330
7466
100
AcDbSymbolTableRecord
100
AcDbBlockTableRecord
  2
*D15
340
0
  0
BLOCK_RECORD
  5
16BF2
330
7466
100
AcDbSymbolTableRecord
100
AcDbBlockTableRecord
  2
*D16
340
0
  0
BLOCK_RECORD
  5
16C00
330
7466
100
AcDbSymbolTableRecord
100
AcDbBlockTableRecord
  2
*D17
340
0
  0
BLOCK_RECORD
  5
16C18
330
7466
100
AcDbSymbolTableRecord
100
AcDbBlockTableRecord
  2
*D18
340
0
  0
BLOCK_RECORD
  5
16C24
330
7466
100
AcDbSymbolTableRecord
100
AcDbBlockTableRecord
  2
*D19
340
0
  0
BLOCK_RECORD
  5
16C30
330
7466
100
AcDbSymbolTableRecord
100
AcDbBlockTableRecord
  2
*D20
340
0
  0
BLOCK_RECORD
  5
16C3C
330
7466
100
AcDbSymbolTableRecord
100
AcDbBlockTableRecord
  2
*D21
340
0
  0
BLOCK_RECORD
  5
16C48
330
7466
100
AcDbSymbolTableRecord
100
AcDbBlockTableRecord
  2
*D22
340
0
  0
BLOCK_RECORD
  5
16C62
330
7466
100
AcDbSymbolTableRecord
100
AcDbBlockTableRecord
  2
*D23
340
0
  0
BLOCK_RECORD
  5
16C6E
330
7466
100
AcDbSymbolTableRecord
100
AcDbBlockTableRecord
  2
*D24
340
0
  0
BLOCK_RECORD
  5
16C7C
330
7466
100
AcDbSymbolTableRecord
100
AcDbBlockTableRecord
  2
*D25
340
0
  0
BLOCK_RECORD
  5
16C8A
330
7466
100
AcDbSymbolTableRecord
100
AcDbBlockTableRecord
  2
*D26
340
0
  0
BLOCK_RECORD
  5
16C98
330
7466
100
AcDbSymbolTableRecord
100
AcDbBlockTableRecord
  2
*D27
340
0
  0
BLOCK_RECORD
  5
16CA4
330
7466
100
AcDbSymbolTableRecord
100
AcDbBlockTableRecord
  2
*D28
340
0
  0
BLOCK_RECORD
  5
16CB0
330
7466
100
AcDbSymbolTableRecord
100
AcDbBlockTableRecord
  2
*D29
340
0
  0
BLOCK_RECORD
  5
18699
330
7466
100
AcDbSymbolTableRecord
100
AcDbBlockTableRecord
  2
*D30
340
0
  0
BLOCK_RECORD
  5
189C8
330
7466
100
AcDbSymbolTableRecord
100
AcDbBlockTableRecord
  2
*D31
340
0
  0
BLOCK_RECORD
  5
189D4
330
7466
100
AcDbSymbolTableRecord
100
AcDbBlockTableRecord
  2
*D32
340
0
  0
BLOCK_RECORD
  5
18A20
330
7466
100
AcDbSymbolTableRecord
100
AcDbBlockTableRecord
  2
*D33
340
0
  0
ENDTAB
  0
ENDSEC
  0
SECTION
  2
BLOCKS
  0
BLOCK
  5
7489
330
747D
100
AcDbEntity
  8
0
100
AcDbBlockBegin
  2
*MODEL_SPACE
 70
     0
 10
0.0
 20
0.0
 30
0.0
  3
*MODEL_SPACE
  1

  0
ENDBLK
  5
748A
330
747D
100
AcDbEntity
  8
0
100
AcDbBlockEnd
  0
BLOCK
  5
7487
330
747A
100
AcDbEntity
 67
     1
  8
0
100
AcDbBlockBegin
  2
*PAPER_SPACE
 70
     0
 10
0.0
 20
0.0
 30
0.0
  3
*PAPER_SPACE
  1

  0
ENDBLK
  5
7488
330
747A
100
AcDbEntity
 67
     1
  8
0
100
AcDbBlockEnd
  0
BLOCK
  5
F771
330
F770
100
AcDbEntity
  8
0
 48
50.0
100
AcDbBlockBegin
  2
_DOTSMALL
 70
     0
 10
0.0
 20
0.0
 30
0.0
  3
_DOTSMALL
  1

  0
LWPOLYLINE
  5
F772
330
F770
100
AcDbEntity
  8
0
  6
ByBlock
 62
     0
 48
50.0
100
AcDbPolyline
 90
        2
 70
     1
 43
0.5
 10
-0.0625
 20
0.0
 42
1.0
 10
0.0625
 20
0.0
 42
1.0
  0
ENDBLK
  5
F776
330
F770
100
AcDbEntity
  8
0
 48
50.0
100
AcDbBlockEnd
  0
BLOCK
  5
163B7
330
163B6
100
AcDbEntity
  8
0
 48
50.0
100
AcDbBlockBegin
  2
_DOT
 70
     0
 10
0.0
 20
0.0
 30
0.0
  3
_DOT
  1

  0
LWPOLYLINE
  5
163B8
330
163B6
100
AcDbEntity
  8
0
  6
ByBlock
 62
     0
 48
50.0
100
AcDbPolyline
 90
        2
 70
     1
 43
0.5
 10
-0.25
 20
0.0
 42
1.0
 10
0.25
 20
0.0
 42
1.0
  0
LINE
  5
163B9
330
163B6
100
AcDbEntity
  8
0
  6
ByBlock
 62
     0
 48
50.0
100
AcDbLine
 10
-0.5
 20
0.0
 30
0.0
 11
-1.0
 21
0.0
 31
0.0
  0
ENDBLK
  5
163BA
330
163B6
100
AcDbEntity
  8
0
 48
50.0
100
AcDbBlockEnd
  0
BLOCK
  5
16B3D
330
16B33
100
AcDbEntity
  8
0
 48
50.0
100
AcDbBlockBegin
  2
*D2
 70
     1
 10
0.0
 20
0.0
 30
0.0
  3
*D2
  1

  0
LINE
  5
17231
330
16B33
100
AcDbEntity
  8
寸法
 62
     0
 48
50.0
370
    -2
100
AcDbLine
 10
6960.020036815715
 20
2431.026906074271
 30
0.0
 11
7483.126660757301
 21
2431.02690607427
 31
0.0
  0
LINE
  5
17232
330
16B33
100
AcDbEntity
  8
寸法
 62
     0
 48
50.0
370
    -2
100
AcDbLine
 10
6963.020036815712
 20
4751.026906074272
 30
0.0
 11
7483.126660757301
 21
4751.026906074272
 31
0.0
  0
LINE
  5
17233
330
16B33
100
AcDbEntity
  8
寸法
 62
     0
 48
50.0
370
    -2
100
AcDbLine
 10
7423.126660757301
 20
2431.02690607427
 30
0.0
 11
7423.126660757301
 21
4751.026906074272
 31
0.0
  0
INSERT
  5
17234
330
16B33
100
AcDbEntity
  8
寸法
 62
     0
 48
50.0
370
    -2
100
AcDbBlockReference
  2
_DOTSMALL
 10
7423.126660757301
 20
2431.02690607427
 30
0.0
 41
100.0
 42
100.0
 43
100.0
 50
270.0
  0
INSERT
  5
17235
330
16B33
100
AcDbEntity
  8
寸法
 62
     0
 48
50.0
370
    -2
100
AcDbBlockReference
  2
_DOTSMALL
 10
7423.126660757301
 20
4751.026906074272
 30
0.0
 41
100.0
 42
100.0
 43
100.0
 50
90.0
  0
MTEXT
  5
17236
330
16B33
100
AcDbEntity
  8
寸法
 62
     7
 48
50.0
100
AcDbMText
 10
7323.114849733677
 20
3591.026906074271
 30
0.0
 40
120.0
 41
0.0
 71
     5
 72
     1
  1
\A1;2320
  7
STYLE1
 11
0.0000000000000001
 21
1.0
 31
0.0
 73
     1
 44
1.0
1001
ACAD
1000
MTEXTBEGIN
1070
    73
1070
     1
1070
    44
1040
1.0
1070
    74
1070
     0
1000
MTEXTEND
  0
POINT
  5
17237
330
16B33
100
AcDbEntity
  8
DEFPOINTS
 62
     0
 48
50.0
100
AcDbPoint
 10
6940.020036815714
 20
2431.026906074271
 30
0.0
  0
POINT
  5
17238
330
16B33
100
AcDbEntity
  8
DEFPOINTS
 62
     0
 48
50.0
100
AcDbPoint
 10
6943.020036815712
 20
4751.026906074272
 30
0.0
  0
POINT
  5
17239
330
16B33
100
AcDbEntity
  8
DEFPOINTS
 62
     0
 48
50.0
100
AcDbPoint
 10
7423.126660757301
 20
4751.026906074272
 30
0.0
  0
ENDBLK
  5
16B3E
330
16B33
100
AcDbEntity
  8
0
 48
50.0
100
AcDbBlockEnd
  0
BLOCK
  5
16B49
330
16B3F
100
AcDbEntity
  8
0
 48
50.0
100
AcDbBlockBegin
  2
*D3
 70
     1
 10
0.0
 20
0.0
 30
0.0
  3
*D3
  1

  0
LINE
  5
17228
330
16B3F
100
AcDbEntity
  8
寸法
 62
     0
 48
50.0
370
    -2
100
AcDbLine
 10
6863.020036815711
 20
4772.837585685923
 30
0.0
 11
6863.020036815711
 21
5264.684359653575
 31
0.0
  0
LINE
  5
17229
330
16B3F
100
AcDbEntity
  8
寸法
 62
     0
 48
50.0
370
    -2
100
AcDbLine
 10
4653.020036815711
 20
4822.028524197249
 30
0.0
 11
4653.020036815711
 21
5264.684359653575
 31
0.0
  0
LINE
  5
1722A
330
16B3F
100
AcDbEntity
  8
寸法
 62
     0
 48
50.0
370
    -2
100
AcDbLine
 10
6863.020036815711
 20
5204.684359653576
 30
0.0
 11
4653.020036815711
 21
5204.684359653576
 31
0.0
  0
INSERT
  5
1722B
330
16B3F
100
AcDbEntity
  8
寸法
 62
     0
 48
50.0
370
    -2
100
AcDbBlockReference
  2
_DOTSMALL
 10
6863.020036815711
 20
5204.684359653576
 30
0.0
 41
100.0
 42
100.0
 43
100.0
  0
INSERT
  5
1722C
330
16B3F
100
AcDbEntity
  8
寸法
 62
     0
 48
50.0
370
    -2
100
AcDbBlockReference
  2
_DOTSMALL
 10
4653.020036815711
 20
5204.684359653576
 30
0.0
 41
100.0
 42
100.0
 43
100.0
 50
180.0
  0
MTEXT
  5
1722D
330
16B3F
100
AcDbEntity
  8
寸法
 62
     7
 48
50.0
100
AcDbMText
 10
5747.664773886224
 20
5304.696170677197
 30
0.0
 40
120.0
 41
0.0
 71
     5
 72
     1
  1
\A1;柱外寸法2210
  7
STYLE1
 73
     1
 44
1.0
1001
ACAD
1000
MTEXTBEGIN
1070
    73
1070
     1
1070
    44
1040
1.0
1070
    74
1070
     0
1000
MTEXTEND
  0
POINT
  5
1722E
330
16B3F
100
AcDbEntity
  8
DEFPOINTS
 62
     0
 48
50.0
100
AcDbPoint
 10
6863.020036815711
 20
4752.837585685924
 30
0.0
  0
POINT
  5
1722F
330
16B3F
100
AcDbEntity
  8
DEFPOINTS
 62
     0
 48
50.0
100
AcDbPoint
 10
4653.020036815711
 20
4802.028524197249
 30
0.0
  0
POINT
  5
17230
330
16B3F
100
AcDbEntity
  8
DEFPOINTS
 62
     0
 48
50.0
100
AcDbPoint
 10
4653.020036815711
 20
5204.684359653576
 30
0.0
  0
ENDBLK
  5
16B4A
330
16B3F
100
AcDbEntity
  8
0
 48
50.0
100
AcDbBlockEnd
  0
BLOCK
  5
16B57
330
16B4B
100
AcDbEntity
  8
0
 48
50.0
100
AcDbBlockBegin
  2
*D4
 70
     1
 10
0.0
 20
0.0
 30
0.0
  3
*D4
  1

  0
LINE
  5
1721D
330
16B4B
100
AcDbEntity
  8
寸法
 62
     0
 48
50.0
370
    -2
100
AcDbLine
 10
4653.020036815711
 20
4822.028524197249
 30
0.0
 11
4653.020036815711
 21
5264.684359653575
 31
0.0
  0
LINE
  5
1721E
330
16B4B
100
AcDbEntity
  8
寸法
 62
     0
 48
50.0
370
    -2
100
AcDbLine
 10
4593.020036815711
 20
4826.026906074275
 30
0.0
 11
4593.020036815711
 21
5264.684359653575
 31
0.0
  0
LINE
  5
1721F
330
16B4B
100
AcDbEntity
  8
寸法
 62
     0
 48
50.0
370
    -2
100
AcDbLine
 10
4653.020036815711
 20
5204.684359653576
 30
0.0
 11
4753.020036815711
 21
5204.684359653576
 31
0.0
  0
LINE
  5
17220
330
16B4B
100
AcDbEntity
  8
寸法
 62
     0
 48
50.0
370
    -2
100
AcDbLine
 10
4593.020036815711
 20
5204.684359653576
 30
0.0
 11
4173.74444626453
 21
5204.684359653576
 31
0.0
  0
LINE
  5
17221
330
16B4B
100
AcDbEntity
  8
寸法
 62
     0
 48
50.0
370
    -2
100
AcDbLine
 10
4653.020036815711
 20
5204.684359653576
 30
0.0
 11
4593.020036815711
 21
5204.684359653576
 31
0.0
  0
INSERT
  5
17222
330
16B4B
100
AcDbEntity
  8
寸法
 62
     0
 48
50.0
370
    -2
100
AcDbBlockReference
  2
_DOTSMALL
 10
4653.020036815711
 20
5204.684359653576
 30
0.0
 41
100.0
 42
100.0
 43
100.0
 50
180.0
  0
INSERT
  5
17223
330
16B4B
100
AcDbEntity
  8
寸法
 62
     0
 48
50.0
370
    -2
100
AcDbBlockReference
  2
_DOTSMALL
 10
4593.020036815711
 20
5204.684359653576
 30
0.0
 41
100.0
 42
100.0
 43
100.0
  0
MTEXT
  5
17224
330
16B4B
100
AcDbEntity
  8
寸法
 62
     7
 48
50.0
100
AcDbMText
 10
4283.38224154012
 20
5304.684359653576
 30
0.0
 40
120.0
 41
0.0
 71
     5
 72
     1
  1
\A1;60
  7
STYLE1
 73
     1
 44
1.0
1001
ACAD
1000
MTEXTBEGIN
1070
    73
1070
     1
1070
    44
1040
1.0
1070
    74
1070
     0
1000
MTEXTEND
  0
POINT
  5
17225
330
16B4B
100
AcDbEntity
  8
DEFPOINTS
 62
     0
 48
50.0
100
AcDbPoint
 10
4653.020036815711
 20
4802.028524197249
 30
0.0
  0
POINT
  5
17226
330
16B4B
100
AcDbEntity
  8
DEFPOINTS
 62
     0
 48
50.0
100
AcDbPoint
 10
4593.020036815711
 20
4806.026906074276
 30
0.0
  0
POINT
  5
17227
330
16B4B
100
AcDbEntity
  8
DEFPOINTS
 62
     0
 48
50.0
100
AcDbPoint
 10
4593.020036815711
 20
5204.684359653576
 30
0.0
  0
ENDBLK
  5
16B58
330
16B4B
100
AcDbEntity
  8
0
 48
50.0
100
AcDbBlockEnd
  0
BLOCK
  5
16B63
330
16B59
100
AcDbEntity
  8
0
 48
50.0
100
AcDbBlockBegin
  2
*D5
 70
     1
 10
0.0
 20
0.0
 30
0.0
  3
*D5
  1

  0
LINE
  5
17214
330
16B59
100
AcDbEntity
  8
寸法
 62
     0
 48
50.0
370
    -2
100
AcDbLine
 10
6943.020036815712
 20
4771.026906074272
 30
0.0
 11
6943.020036815712
 21
5483.886193327867
 31
0.0
  0
LINE
  5
17215
330
16B59
100
AcDbEntity
  8
寸法
 62
     0
 48
50.0
370
    -2
100
AcDbLine
 10
4593.020036815711
 20
4826.026906074275
 30
0.0
 11
4593.020036815711
 21
5483.886193327867
 31
0.0
  0
LINE
  5
17216
330
16B59
100
AcDbEntity
  8
寸法
 62
     0
 48
50.0
370
    -2
100
AcDbLine
 10
6943.020036815712
 20
5423.886193327867
 30
0.0
 11
4593.020036815711
 21
5423.886193327867
 31
0.0
  0
INSERT
  5
17217
330
16B59
100
AcDbEntity
  8
寸法
 62
     0
 48
50.0
370
    -2
100
AcDbBlockReference
  2
_DOTSMALL
 10
6943.020036815712
 20
5423.886193327867
 30
0.0
 41
100.0
 42
100.0
 43
100.0
  0
INSERT
  5
17218
330
16B59
100
AcDbEntity
  8
寸法
 62
     0
 48
50.0
370
    -2
100
AcDbBlockReference
  2
_DOTSMALL
 10
4593.020036815711
 20
5423.886193327867
 30
0.0
 41
100.0
 42
100.0
 43
100.0
 50
180.0
  0
MTEXT
  5
17219
330
16B59
100
AcDbEntity
  8
寸法
 62
     7
 48
50.0
100
AcDbMText
 10
5827.363890908181
 20
5523.898004351488
 30
0.0
 40
120.0
 41
0.0
 71
     5
 72
     1
  1
\A1;2350
  7
STYLE1
 73
     1
 44
1.0
1001
ACAD
1000
MTEXTBEGIN
1070
    73
1070
     1
1070
    44
1040
1.0
1070
    74
1070
     0
1000
MTEXTEND
  0
POINT
  5
1721A
330
16B59
100
AcDbEntity
  8
DEFPOINTS
 62
     0
 48
50.0
100
AcDbPoint
 10
6943.020036815712
 20
4751.026906074272
 30
0.0
  0
POINT
  5
1721B
330
16B59
100
AcDbEntity
  8
DEFPOINTS
 62
     0
 48
50.0
100
AcDbPoint
 10
4593.020036815711
 20
4806.026906074276
 30
0.0
  0
POINT
  5
1721C
330
16B59
100
AcDbEntity
  8
DEFPOINTS
 62
     0
 48
50.0
100
AcDbPoint
 10
4593.020036815711
 20
5423.886193327867
 30
0.0
  0
ENDBLK
  5
16B64
330
16B59
100
AcDbEntity
  8
0
 48
50.0
100
AcDbBlockEnd
  0
BLOCK
  5
16B70
330
16B65
100
AcDbEntity
  8
0
 48
50.0
100
AcDbBlockBegin
  2
*D6
 70
     1
 10
0.0
 20
0.0
 30
0.0
  3
*D6
  1

  0
LINE
  5
1720A
330
16B65
100
AcDbEntity
  8
寸法
 62
     0
 48
50.0
370
    -2
100
AcDbLine
 10
6863.020036815711
 20
4772.837585685923
 30
0.0
 11
6863.020036815711
 21
5264.684359653575
 31
0.0
  0
LINE
  5
1720B
330
16B65
100
AcDbEntity
  8
寸法
 62
     0
 48
50.0
370
    -2
100
AcDbLine
 10
6943.020036815712
 20
4771.026906074272
 30
0.0
 11
6943.020036815712
 21
5264.684359653575
 31
0.0
  0
LINE
  5
1720C
330
16B65
100
AcDbEntity
  8
寸法
 62
     0
 48
50.0
370
    -2
100
AcDbLine
 10
6863.020036815711
 20
5204.684359653576
 30
0.0
 11
6943.020036815712
 21
5204.684359653576
 31
0.0
  0
LINE
  5
1720D
330
16B65
100
AcDbEntity
  8
寸法
 62
     0
 48
50.0
370
    -2
100
AcDbLine
 10
6943.020036815712
 20
5204.684359653576
 30
0.0
 11
7255.11452500469
 21
5204.684359653576
 31
0.0
  0
INSERT
  5
1720E
330
16B65
100
AcDbEntity
  8
寸法
 62
     0
 48
50.0
370
    -2
100
AcDbBlockReference
  2
_DOTSMALL
 10
6863.020036815711
 20
5204.684359653576
 30
0.0
 41
100.0
 42
100.0
 43
100.0
 50
180.0
  0
INSERT
  5
1720F
330
16B65
100
AcDbEntity
  8
寸法
 62
     0
 48
50.0
370
    -2
100
AcDbBlockReference
  2
_DOTSMALL
 10
6943.020036815712
 20
5204.684359653576
 30
0.0
 41
100.0
 42
100.0
 43
100.0
  0
MTEXT
  5
17210
330
16B65
100
AcDbEntity
  8
寸法
 62
     7
 48
50.0
100
AcDbMText
 10
7149.067280910202
 20
5304.684359653576
 30
0.0
 40
120.0
 41
0.0
 71
     5
 72
     1
  1
\A1;80
  7
STYLE1
 73
     1
 44
1.0
1001
ACAD
1000
MTEXTBEGIN
1070
    73
1070
     1
1070
    44
1040
1.0
1070
    74
1070
     0
1000
MTEXTEND
  0
POINT
  5
17211
330
16B65
100
AcDbEntity
  8
DEFPOINTS
 62
     0
 48
50.0
100
AcDbPoint
 10
6863.020036815711
 20
4752.837585685924
 30
0.0
  0
POINT
  5
17212
330
16B65
100
AcDbEntity
  8
DEFPOINTS
 62
     0
 48
50.0
100
AcDbPoint
 10
6943.020036815712
 20
4751.026906074272
 30
0.0
  0
POINT
  5
17213
330
16B65
100
AcDbEntity
  8
DEFPOINTS
 62
     0
 48
50.0
100
AcDbPoint
 10
6943.020036815712
 20
5204.684359653576
 30
0.0
  0
ENDBLK
  5
16B71
330
16B65
100
AcDbEntity
  8
0
 48
50.0
100
AcDbBlockEnd
  0
BLOCK
  5
16B7C
330
16B72
100
AcDbEntity
  8
0
 48
50.0
100
AcDbBlockBegin
  2
*D7
 70
     1
 10
0.0
 20
0.0
 30
0.0
  3
*D7
  1

  0
LINE
  5
17201
330
16B72
100
AcDbEntity
  8
寸法
 62
     0
 48
50.0
370
    -2
100
AcDbLine
 10
4633.020036815711
 20
4571.026906074272
 30
0.0
 11
3969.367327657415
 21
4571.026906074272
 31
0.0
  0
LINE
  5
17202
330
16B72
100
AcDbEntity
  8
寸法
 62
     0
 48
50.0
370
    -2
100
AcDbLine
 10
4633.020036815711
 20
2481.026906074272
 30
0.0
 11
3969.367327657414
 21
2481.026906074272
 31
0.0
  0
LINE
  5
17203
330
16B72
100
AcDbEntity
  8
寸法
 62
     0
 48
50.0
370
    -2
100
AcDbLine
 10
4029.367327657414
 20
4571.026906074272
 30
0.0
 11
4029.367327657413
 21
2481.026906074272
 31
0.0
  0
INSERT
  5
17204
330
16B72
100
AcDbEntity
  8
寸法
 62
     0
 48
50.0
370
    -2
100
AcDbBlockReference
  2
_DOTSMALL
 10
4029.367327657414
 20
4571.026906074272
 30
0.0
 41
100.0
 42
100.0
 43
100.0
 50
90.0
  0
INSERT
  5
17205
330
16B72
100
AcDbEntity
  8
寸法
 62
     0
 48
50.0
370
    -2
100
AcDbBlockReference
  2
_DOTSMALL
 10
4029.367327657413
 20
2481.026906074272
 30
0.0
 41
100.0
 42
100.0
 43
100.0
 50
270.0
  0
MTEXT
  5
17206
330
16B72
100
AcDbEntity
  8
寸法
 62
     7
 48
50.0
100
AcDbMText
 10
3929.355516633792
 20
3526.026906074272
 30
0.0
 40
120.0
 41
0.0
 71
     5
 72
     1
  1
\A1;2090
  7
STYLE1
 11
0.0000000000000001
 21
1.0
 31
0.0
 73
     1
 44
1.0
1001
ACAD
1000
MTEXTBEGIN
1070
    73
1070
     1
1070
    44
1040
1.0
1070
    74
1070
     0
1000
MTEXTEND
  0
POINT
  5
17207
330
16B72
100
AcDbEntity
  8
DEFPOINTS
 62
     0
 48
50.0
100
AcDbPoint
 10
4653.020036815711
 20
4571.026906074272
 30
0.0
  0
POINT
  5
17208
330
16B72
100
AcDbEntity
  8
DEFPOINTS
 62
     0
 48
50.0
100
AcDbPoint
 10
4653.020036815711
 20
2481.026906074272
 30
0.0
  0
POINT
  5
17209
330
16B72
100
AcDbEntity
  8
DEFPOINTS
 62
     0
 48
50.0
100
AcDbPoint
 10
4029.367327657413
 20
2481.026906074272
 30
0.0
  0
ENDBLK
  5
16B7D
330
16B72
100
AcDbEntity
  8
0
 48
50.0
100
AcDbBlockEnd
  0
BLOCK
  5
16B88
330
16B7E
100
AcDbEntity
  8
0
 48
50.0
100
AcDbBlockBegin
  2
*D8
 70
     1
 10
0.0
 20
0.0
 30
0.0
  3
*D8
  1

  0
LINE
  5
171F8
330
16B7E
100
AcDbEntity
  8
寸法
 62
     0
 48
50.0
370
    -2
100
AcDbLine
 10
4633.020036815711
 20
2431.026906074273
 30
0.0
 11
3684.380654886353
 21
2431.026906074273
 31
0.0
  0
LINE
  5
171F9
330
16B7E
100
AcDbEntity
  8
寸法
 62
     0
 48
50.0
370
    -2
100
AcDbLine
 10
4573.020036815711
 20
4806.026906074276
 30
0.0
 11
3684.380654886354
 21
4806.026906074276
 31
0.0
  0
LINE
  5
171FA
330
16B7E
100
AcDbEntity
  8
寸法
 62
     0
 48
50.0
370
    -2
100
AcDbLine
 10
3744.380654886353
 20
2431.026906074273
 30
0.0
 11
3744.380654886354
 21
4806.026906074276
 31
0.0
  0
INSERT
  5
171FB
330
16B7E
100
AcDbEntity
  8
寸法
 62
     0
 48
50.0
370
    -2
100
AcDbBlockReference
  2
_DOTSMALL
 10
3744.380654886353
 20
2431.026906074273
 30
0.0
 41
100.0
 42
100.0
 43
100.0
 50
270.0
  0
INSERT
  5
171FC
330
16B7E
100
AcDbEntity
  8
寸法
 62
     0
 48
50.0
370
    -2
100
AcDbBlockReference
  2
_DOTSMALL
 10
3744.380654886354
 20
4806.026906074276
 30
0.0
 41
100.0
 42
100.0
 43
100.0
 50
90.0
  0
MTEXT
  5
171FD
330
16B7E
100
AcDbEntity
  8
寸法
 62
     7
 48
50.0
100
AcDbMText
 10
3644.36884386273
 20
3526.026906074273
 30
0.0
 40
120.0
 41
0.0
 71
     5
 72
     1
  1
\A1;2375
  7
STYLE1
 11
0.0000000000000001
 21
1.0
 31
0.0
 73
     1
 44
1.0
1001
ACAD
1000
MTEXTBEGIN
1070
    73
1070
     1
1070
    44
1040
1.0
1070
    74
1070
     0
1000
MTEXTEND
  0
POINT
  5
171FE
330
16B7E
100
AcDbEntity
  8
DEFPOINTS
 62
     0
 48
50.0
100
AcDbPoint
 10
4653.020036815711
 20
2431.026906074273
 30
0.0
  0
POINT
  5
171FF
330
16B7E
100
AcDbEntity
  8
DEFPOINTS
 62
     0
 48
50.0
100
AcDbPoint
 10
4593.020036815711
 20
4806.026906074276
 30
0.0
  0
POINT
  5
17200
330
16B7E
100
AcDbEntity
  8
DEFPOINTS
 62
     0
 48
50.0
100
AcDbPoint
 10
3744.380654886354
 20
4806.026906074276
 30
0.0
  0
ENDBLK
  5
16B89
330
16B7E
100
AcDbEntity
  8
0
 48
50.0
100
AcDbBlockEnd
  0
BLOCK
  5
16B95
330
16B8A
100
AcDbEntity
  8
0
 48
50.0
100
AcDbBlockBegin
  2
*D9
 70
     1
 10
0.0
 20
0.0
 30
0.0
  3
*D9
  1

  0
LINE
  5
171EE
330
16B8A
100
AcDbEntity
  8
寸法
 62
     0
 48
50.0
370
    -2
100
AcDbLine
 10
4578.02003681571
 20
2431.026906074273
 30
0.0
 11
3684.380654886353
 21
2431.026906074273
 31
0.0
  0
LINE
  5
171EF
330
16B8A
100
AcDbEntity
  8
寸法
 62
     0
 48
50.0
370
    -2
100
AcDbLine
 10
4009.367327657414
 20
2331.026906074272
 30
0.0
 11
3684.380654886353
 21
2331.026906074272
 31
0.0
  0
LINE
  5
171F0
330
16B8A
100
AcDbEntity
  8
寸法
 62
     0
 48
50.0
370
    -2
100
AcDbLine
 10
3744.380654886353
 20
2431.026906074273
 30
0.0
 11
3744.380654886353
 21
2331.026906074272
 31
0.0
  0
LINE
  5
171F1
330
16B8A
100
AcDbEntity
  8
寸法
 62
     0
 48
50.0
370
    -2
100
AcDbLine
 10
3744.380654886353
 20
2331.026906074272
 30
0.0
 11
3744.380654886353
 21
1958.932417885289
 31
0.0
  0
INSERT
  5
171F2
330
16B8A
100
AcDbEntity
  8
寸法
 62
     0
 48
50.0
370
    -2
100
AcDbBlockReference
  2
_DOTSMALL
 10
3744.380654886353
 20
2431.026906074273
 30
0.0
 41
100.0
 42
100.0
 43
100.0
 50
90.0
  0
INSERT
  5
171F3
330
16B8A
100
AcDbEntity
  8
寸法
 62
     0
 48
50.0
370
    -2
100
AcDbBlockReference
  2
_DOTSMALL
 10
3744.380654886353
 20
2331.026906074272
 30
0.0
 41
100.0
 42
100.0
 43
100.0
 50
270.0
  0
MTEXT
  5
171F4
330
16B8A
100
AcDbEntity
  8
寸法
 62
     7
 48
50.0
100
AcDbMText
 10
3644.380654886352
 20
2094.979661979778
 30
0.0
 40
120.0
 41
0.0
 71
     5
 72
     1
  1
\A1;100
  7
STYLE1
 11
0.0000000000000001
 21
1.0
 31
0.0
 73
     1
 44
1.0
1001
ACAD
1000
MTEXTBEGIN
1070
    73
1070
     1
1070
    44
1040
1.0
1070
    74
1070
     0
1000
MTEXTEND
  0
POINT
  5
171F5
330
16B8A
100
AcDbEntity
  8
DEFPOINTS
 62
     0
 48
50.0
100
AcDbPoint
 10
4598.020036815711
 20
2431.026906074273
 30
0.0
  0
POINT
  5
171F6
330
16B8A
100
AcDbEntity
  8
DEFPOINTS
 62
     0
 48
50.0
100
AcDbPoint
 10
4029.367327657413
 20
2331.026906074272
 30
0.0
  0
POINT
  5
171F7
330
16B8A
100
AcDbEntity
  8
DEFPOINTS
 62
     0
 48
50.0
100
AcDbPoint
 10
3744.380654886353
 20
2331.026906074272
 30
0.0
  0
ENDBLK
  5
16B96
330
16B8A
100
AcDbEntity
  8
0
 48
50.0
100
AcDbBlockEnd
  0
BLOCK
  5
16BA3
330
16B97
100
AcDbEntity
  8
0
 48
50.0
100
AcDbBlockBegin
  2
*D10
 70
     1
 10
0.0
 20
0.0
 30
0.0
  3
*D10
  1

  0
LINE
  5
171E3
330
16B97
100
AcDbEntity
  8
寸法
 62
     0
 48
50.0
370
    -2
100
AcDbLine
 10
4633.020036815711
 20
2481.026906074272
 30
0.0
 11
3969.367327657414
 21
2481.026906074272
 31
0.0
  0
LINE
  5
171E4
330
16B97
100
AcDbEntity
  8
寸法
 62
     0
 48
50.0
370
    -2
100
AcDbLine
 10
4578.02003681571
 20
2431.026906074273
 30
0.0
 11
3969.367327657414
 21
2431.026906074273
 31
0.0
  0
LINE
  5
171E5
330
16B97
100
AcDbEntity
  8
寸法
 62
     0
 48
50.0
370
    -2
100
AcDbLine
 10
4029.367327657413
 20
2481.026906074272
 30
0.0
 11
4029.367327657413
 21
2581.026906074272
 31
0.0
  0
LINE
  5
171E6
330
16B97
100
AcDbEntity
  8
寸法
 62
     0
 48
50.0
370
    -2
100
AcDbLine
 10
4029.367327657413
 20
2431.026906074273
 30
0.0
 11
4029.367327657413
 21
2018.93241788529
 31
0.0
  0
LINE
  5
171E7
330
16B97
100
AcDbEntity
  8
寸法
 62
     0
 48
50.0
370
    -2
100
AcDbLine
 10
4029.367327657413
 20
2481.026906074272
 30
0.0
 11
4029.367327657413
 21
2431.026906074273
 31
0.0
  0
INSERT
  5
171E8
330
16B97
100
AcDbEntity
  8
寸法
 62
     0
 48
50.0
370
    -2
100
AcDbBlockReference
  2
_DOTSMALL
 10
4029.367327657413
 20
2481.026906074272
 30
0.0
 41
100.0
 42
100.0
 43
100.0
 50
270.0
  0
INSERT
  5
171E9
330
16B97
100
AcDbEntity
  8
寸法
 62
     0
 48
50.0
370
    -2
100
AcDbBlockReference
  2
_DOTSMALL
 10
4029.367327657413
 20
2431.026906074273
 30
0.0
 41
100.0
 42
100.0
 43
100.0
 50
90.0
  0
MTEXT
  5
171EA
330
16B97
100
AcDbEntity
  8
寸法
 62
     7
 48
50.0
100
AcDbMText
 10
3929.367327657414
 20
2124.979661979778
 30
0.0
 40
120.0
 41
0.0
 71
     5
 72
     1
  1
\A1;50
  7
STYLE1
 11
0.0000000000000001
 21
1.0
 31
0.0
 73
     1
 44
1.0
1001
ACAD
1000
MTEXTBEGIN
1070
    73
1070
     1
1070
    44
1040
1.0
1070
    74
1070
     0
1000
MTEXTEND
  0
POINT
  5
171EB
330
16B97
100
AcDbEntity
  8
DEFPOINTS
 62
     0
 48
50.0
100
AcDbPoint
 10
4653.020036815711
 20
2481.026906074272
 30
0.0
  0
POINT
  5
171EC
330
16B97
100
AcDbEntity
  8
DEFPOINTS
 62
     0
 48
50.0
100
AcDbPoint
 10
4598.020036815711
 20
2431.026906074273
 30
0.0
  0
POINT
  5
171ED
330
16B97
100
AcDbEntity
  8
DEFPOINTS
 62
     0
 48
50.0
100
AcDbPoint
 10
4029.367327657413
 20
2431.026906074273
 30
0.0
  0
ENDBLK
  5
16BA4
330
16B97
100
AcDbEntity
  8
0
 48
50.0
100
AcDbBlockEnd
  0
BLOCK
  5
16BB0
330
16BA5
100
AcDbEntity
  8
0
 48
50.0
100
AcDbBlockBegin
  2
*D11
 70
     1
 10
0.0
 20
0.0
 30
0.0
  3
*D11
  1

  0
LINE
  5
171D9
330
16BA5
100
AcDbEntity
  8
寸法
 62
     0
 48
50.0
370
    -2
100
AcDbLine
 10
4592.424323106813
 20
4805.324613143934
 30
0.0
 11
3976.489884001542
 21
4823.038763418263
 31
0.0
  0
LINE
  5
171DA
330
16BA5
100
AcDbEntity
  8
寸法
 62
     0
 48
50.0
370
    -2
100
AcDbLine
 10
4588.370867550186
 20
4664.382889378219
 30
0.0
 11
3972.436428444915
 21
4682.097039652548
 31
0.0
  0
LINE
  5
171DB
330
16BA5
100
AcDbEntity
  8
寸法
 62
     0
 48
50.0
370
    -2
100
AcDbLine
 10
4032.411630047346
 20
4680.372164947601
 30
0.0
 11
4036.465085603972
 21
4821.313888713316
 31
0.0
  0
LINE
  5
171DC
330
16BA5
100
AcDbEntity
  8
寸法
 62
     0
 48
50.0
370
    -2
100
AcDbLine
 10
4036.465085603972
 20
4821.313888713316
 30
0.0
 11
4046.814333833657
 21
5181.165098327905
 31
0.0
  0
INSERT
  5
171DD
330
16BA5
100
AcDbEntity
  8
寸法
 62
     0
 48
50.0
370
    -2
100
AcDbBlockReference
  2
_DOTSMALL
 10
4032.411630047346
 20
4680.372164947601
 30
0.0
 41
100.0
 42
100.0
 43
100.0
 50
268.3526390256379
  0
INSERT
  5
171DE
330
16BA5
100
AcDbEntity
  8
寸法
 62
     0
 48
50.0
370
    -2
100
AcDbBlockReference
  2
_DOTSMALL
 10
4036.465085603972
 20
4821.313888713316
 30
0.0
 41
100.0
 42
100.0
 43
100.0
 50
88.35263902563784
  0
MTEXT
  5
171DF
330
16BA5
100
AcDbEntity
  8
寸法
 62
     7
 48
50.0
100
AcDbMText
 10
3943.118435968886
 20
5054.09361936422
 30
0.0
 40
120.0
 41
0.0
 71
     5
 72
     1
  1
\A1;141
  7
STYLE1
 11
0.0287479117491228
 21
0.9995866933738486
 31
0.0
 73
     1
 44
1.0
1001
ACAD
1000
MTEXTBEGIN
1070
    73
1070
     1
1070
    44
1040
1.0
1070
    74
1070
     0
1000
MTEXTEND
  0
POINT
  5
171E0
330
16BA5
100
AcDbEntity
  8
DEFPOINTS
 62
     0
 48
50.0
100
AcDbPoint
 10
4612.41605697429
 20
4804.749654908953
 30
0.0
  0
POINT
  5
171E1
330
16BA5
100
AcDbEntity
  8
DEFPOINTS
 62
     0
 48
50.0
100
AcDbPoint
 10
4608.362601417664
 20
4663.807931143238
 30
0.0
  0
POINT
  5
171E2
330
16BA5
100
AcDbEntity
  8
DEFPOINTS
 62
     0
 48
50.0
100
AcDbPoint
 10
4032.411630047346
 20
4680.372164947601
 30
0.0
  0
ENDBLK
  5
16BB1
330
16BA5
100
AcDbEntity
  8
0
 48
50.0
100
AcDbBlockEnd
  0
BLOCK
  5
16BBC
330
16BB2
100
AcDbEntity
  8
0
 48
50.0
100
AcDbBlockBegin
  2
*D12
 70
     1
 10
0.0
 20
0.0
 30
0.0
  3
*D12
  1

  0
LINE
  5
171D0
330
16BB2
100
AcDbEntity
  8
寸法
 62
     0
 48
50.0
370
    -2
100
AcDbLine
 10
4560.520036815715
 20
2131.026906074271
 30
0.0
 11
4371.020033569077
 21
2131.026906074271
 31
0.0
  0
LINE
  5
171D1
330
16BB2
100
AcDbEntity
  8
寸法
 62
     0
 48
50.0
370
    -2
100
AcDbLine
 10
4535.520036815711
 20
2331.026906074271
 30
0.0
 11
4371.020033569077
 21
2331.026906074271
 31
0.0
  0
LINE
  5
171D2
330
16BB2
100
AcDbEntity
  8
寸法
 62
     0
 48
50.0
370
    -2
100
AcDbLine
 10
4431.020033569078
 20
2131.026906074271
 30
0.0
 11
4431.020033569078
 21
2331.026906074271
 31
0.0
  0
INSERT
  5
171D3
330
16BB2
100
AcDbEntity
  8
寸法
 62
     0
 48
50.0
370
    -2
100
AcDbBlockReference
  2
_DOTSMALL
 10
4431.020033569078
 20
2131.026906074271
 30
0.0
 41
100.0
 42
100.0
 43
100.0
 50
270.0
  0
INSERT
  5
171D4
330
16BB2
100
AcDbEntity
  8
寸法
 62
     0
 48
50.0
370
    -2
100
AcDbBlockReference
  2
_DOTSMALL
 10
4431.020033569078
 20
2331.026906074271
 30
0.0
 41
100.0
 42
100.0
 43
100.0
 50
90.0
  0
MTEXT
  5
171D5
330
16BB2
100
AcDbEntity
  8
寸法
 62
     7
 48
50.0
100
AcDbMText
 10
4331.008222545455
 20
2231.026906074271
 30
0.0
 40
120.0
 41
0.0
 71
     5
 72
     1
  1
\A1;200
  7
STYLE1
 11
0.0000000000000001
 21
1.0
 31
0.0
 73
     1
 44
1.0
1001
ACAD
1000
MTEXTBEGIN
1070
    73
1070
     1
1070
    44
1040
1.0
1070
    74
1070
     0
1000
MTEXTEND
  0
POINT
  5
171D6
330
16BB2
100
AcDbEntity
  8
DEFPOINTS
 62
     0
 48
50.0
100
AcDbPoint
 10
4580.520036815715
 20
2131.026906074271
 30
0.0
  0
POINT
  5
171D7
330
16BB2
100
AcDbEntity
  8
DEFPOINTS
 62
     0
 48
50.0
100
AcDbPoint
 10
4555.52003681571
 20
2331.026906074271
 30
0.0
  0
POINT
  5
171D8
330
16BB2
100
AcDbEntity
  8
DEFPOINTS
 62
     0
 48
50.0
100
AcDbPoint
 10
4431.020033569078
 20
2331.026906074271
 30
0.0
  0
ENDBLK
  5
16BBD
330
16BB2
100
AcDbEntity
  8
0
 48
50.0
100
AcDbBlockEnd
  0
BLOCK
  5
16BC8
330
16BBE
100
AcDbEntity
  8
0
 48
50.0
100
AcDbBlockBegin
  2
*D13
 70
     1
 10
0.0
 20
0.0
 30
0.0
  3
*D13
  1

  0
LINE
  5
171C7
330
16BBE
100
AcDbEntity
  8
寸法
 62
     0
 48
50.0
370
    -2
100
AcDbLine
 10
4780.520036815711
 20
2111.026906074268
 30
0.0
 11
4780.520036815711
 21
1784.979576773892
 31
0.0
  0
LINE
  5
171C8
330
16BBE
100
AcDbEntity
  8
寸法
 62
     0
 48
50.0
370
    -2
100
AcDbLine
 10
4580.520036815715
 20
2111.02690607427
 30
0.0
 11
4580.520036815715
 21
1784.979576773892
 31
0.0
  0
LINE
  5
171C9
330
16BBE
100
AcDbEntity
  8
寸法
 62
     0
 48
50.0
370
    -2
100
AcDbLine
 10
4780.520036815711
 20
1844.979576773892
 30
0.0
 11
4580.520036815715
 21
1844.979576773892
 31
0.0
  0
INSERT
  5
171CA
330
16BBE
100
AcDbEntity
  8
寸法
 62
     0
 48
50.0
370
    -2
100
AcDbBlockReference
  2
_DOTSMALL
 10
4780.520036815711
 20
1844.979576773892
 30
0.0
 41
100.0
 42
100.0
 43
100.0
  0
INSERT
  5
171CB
330
16BBE
100
AcDbEntity
  8
寸法
 62
     0
 48
50.0
370
    -2
100
AcDbBlockReference
  2
_DOTSMALL
 10
4580.520036815715
 20
1844.979576773892
 30
0.0
 41
100.0
 42
100.0
 43
100.0
 50
180.0
  0
MTEXT
  5
171CC
330
16BBE
100
AcDbEntity
  8
寸法
 62
     7
 48
50.0
100
AcDbMText
 10
4680.520036815713
 20
1944.991387797514
 30
0.0
 40
120.0
 41
0.0
 71
     5
 72
     1
  1
\A1;200
  7
STYLE1
 73
     1
 44
1.0
1001
ACAD
1000
MTEXTBEGIN
1070
    73
1070
     1
1070
    44
1040
1.0
1070
    74
1070
     0
1000
MTEXTEND
  0
POINT
  5
171CD
330
16BBE
100
AcDbEntity
  8
DEFPOINTS
 62
     0
 48
50.0
100
AcDbPoint
 10
4780.520036815711
 20
2131.026906074268
 30
0.0
  0
POINT
  5
171CE
330
16BBE
100
AcDbEntity
  8
DEFPOINTS
 62
     0
 48
50.0
100
AcDbPoint
 10
4580.520036815715
 20
2131.026906074271
 30
0.0
  0
POINT
  5
171CF
330
16BBE
100
AcDbEntity
  8
DEFPOINTS
 62
     0
 48
50.0
100
AcDbPoint
 10
4580.520036815715
 20
1844.979576773892
 30
0.0
  0
ENDBLK
  5
16BC9
330
16BBE
100
AcDbEntity
  8
0
 48
50.0
100
AcDbBlockEnd
  0
BLOCK
  5
16BE4
330
16BD8
100
AcDbEntity
  8
0
 48
50.0
100
AcDbBlockBegin
  2
*D14
 70
     1
 10
0.0
 20
0.0
 30
0.0
  3
*D14
  1

  0
LINE
  5
171B1
330
16BD8
100
AcDbEntity
  8
寸法
 62
     0
 48
50.0
370
    -2
100
AcDbLine
 10
11225.11706615297
 20
4826.026906074275
 30
0.0
 11
11225.11706615297
 21
5265.120075413745
 31
0.0
  0
LINE
  5
171B2
330
16BD8
100
AcDbEntity
  8
寸法
 62
     0
 48
50.0
370
    -2
100
AcDbLine
 10
11175.11706615297
 20
4826.026906074278
 30
0.0
 11
11175.11706615297
 21
5265.120075413745
 31
0.0
  0
LINE
  5
171B3
330
16BD8
100
AcDbEntity
  8
寸法
 62
     0
 48
50.0
370
    -2
100
AcDbLine
 10
11175.11706615297
 20
5205.120075413745
 30
0.0
 11
11075.11706615297
 21
5205.120075413745
 31
0.0
  0
LINE
  5
171B4
330
16BD8
100
AcDbEntity
  8
寸法
 62
     0
 48
50.0
370
    -2
100
AcDbLine
 10
11225.11706615297
 20
5205.120075413745
 30
0.0
 11
11644.64959162169
 21
5205.120075413745
 31
0.0
  0
LINE
  5
171B5
330
16BD8
100
AcDbEntity
  8
寸法
 62
     0
 48
50.0
370
    -2
100
AcDbLine
 10
11175.11706615297
 20
5205.120075413745
 30
0.0
 11
11225.11706615297
 21
5205.120075413745
 31
0.0
  0
INSERT
  5
171B6
330
16BD8
100
AcDbEntity
  8
寸法
 62
     0
 48
50.0
370
    -2
100
AcDbBlockReference
  2
_DOTSMALL
 10
11175.11706615297
 20
5205.120075413745
 30
0.0
 41
100.0
 42
100.0
 43
100.0
  0
INSERT
  5
171B7
330
16BD8
100
AcDbEntity
  8
寸法
 62
     0
 48
50.0
370
    -2
100
AcDbBlockReference
  2
_DOTSMALL
 10
11225.11706615297
 20
5205.120075413745
 30
0.0
 41
100.0
 42
100.0
 43
100.0
 50
180.0
  0
MTEXT
  5
171B8
330
16BD8
100
AcDbEntity
  8
寸法
 62
     7
 48
50.0
100
AcDbMText
 10
11538.6023475272
 20
5305.120075413745
 30
0.0
 40
120.0
 41
0.0
 71
     5
 72
     1
  1
\A1;50
  7
STYLE1
 73
     1
 44
1.0
1001
ACAD
1000
MTEXTBEGIN
1070
    73
1070
     1
1070
    44
1040
1.0
1070
    74
1070
     0
1000
MTEXTEND
  0
POINT
  5
171B9
330
16BD8
100
AcDbEntity
  8
DEFPOINTS
 62
     0
 48
50.0
100
AcDbPoint
 10
11225.11706615297
 20
4806.026906074275
 30
0.0
  0
POINT
  5
171BA
330
16BD8
100
AcDbEntity
  8
DEFPOINTS
 62
     0
 48
50.0
100
AcDbPoint
 10
11175.11706615297
 20
4806.026906074277
 30
0.0
  0
POINT
  5
171BB
330
16BD8
100
AcDbEntity
  8
DEFPOINTS
 62
     0
 48
50.0
100
AcDbPoint
 10
11175.11706615297
 20
5205.120075413745
 30
0.0
  0
ENDBLK
  5
16BE5
330
16BD8
100
AcDbEntity
  8
0
 48
50.0
100
AcDbBlockEnd
  0
BLOCK
  5
16BF0
330
16BE6
100
AcDbEntity
  8
0
 48
50.0
100
AcDbBlockBegin
  2
*D15
 70
     1
 10
0.0
 20
0.0
 30
0.0
  3
*D15
  1

  0
LINE
  5
171A8
330
16BE6
100
AcDbEntity
  8
寸法
 62
     0
 48
50.0
370
    -2
100
AcDbLine
 10
8915.117066152971
 20
4826.026906074278
 30
0.0
 11
8915.117066152971
 21
5481.64617503219
 31
0.0
  0
LINE
  5
171A9
330
16BE6
100
AcDbEntity
  8
寸法
 62
     0
 48
50.0
370
    -2
100
AcDbLine
 10
11225.11706615297
 20
4826.026906074275
 30
0.0
 11
11225.11706615297
 21
5481.64617503219
 31
0.0
  0
LINE
  5
171AA
330
16BE6
100
AcDbEntity
  8
寸法
 62
     0
 48
50.0
370
    -2
100
AcDbLine
 10
8915.117066152971
 20
5421.64617503219
 30
0.0
 11
11225.11706615297
 21
5421.64617503219
 31
0.0
  0
INSERT
  5
171AB
330
16BE6
100
AcDbEntity
  8
寸法
 62
     0
 48
50.0
370
    -2
100
AcDbBlockReference
  2
_DOTSMALL
 10
8915.117066152971
 20
5421.64617503219
 30
0.0
 41
100.0
 42
100.0
 43
100.0
 50
180.0
  0
INSERT
  5
171AC
330
16BE6
100
AcDbEntity
  8
寸法
 62
     0
 48
50.0
370
    -2
100
AcDbBlockReference
  2
_DOTSMALL
 10
11225.11706615297
 20
5421.64617503219
 30
0.0
 41
100.0
 42
100.0
 43
100.0
  0
MTEXT
  5
171AD
330
16BE6
100
AcDbEntity
  8
寸法
 62
     7
 48
50.0
100
AcDbMText
 10
10070.11706615297
 20
5521.657986055812
 30
0.0
 40
120.0
 41
0.0
 71
     5
 72
     1
  1
\A1;2310
  7
STYLE1
 73
     1
 44
1.0
1001
ACAD
1000
MTEXTBEGIN
1070
    73
1070
     1
1070
    44
1040
1.0
1070
    74
1070
     0
1000
MTEXTEND
  0
POINT
  5
171AE
330
16BE6
100
AcDbEntity
  8
DEFPOINTS
 62
     0
 48
50.0
100
AcDbPoint
 10
8915.117066152971
 20
4806.026906074277
 30
0.0
  0
POINT
  5
171AF
330
16BE6
100
AcDbEntity
  8
DEFPOINTS
 62
     0
 48
50.0
100
AcDbPoint
 10
11225.11706615297
 20
4806.026906074275
 30
0.0
  0
POINT
  5
171B0
330
16BE6
100
AcDbEntity
  8
DEFPOINTS
 62
     0
 48
50.0
100
AcDbPoint
 10
11225.11706615297
 20
5421.64617503219
 30
0.0
  0
ENDBLK
  5
16BF1
330
16BE6
100
AcDbEntity
  8
0
 48
50.0
100
AcDbBlockEnd
  0
BLOCK
  5
16BFE
330
16BF2
100
AcDbEntity
  8
0
 48
50.0
100
AcDbBlockBegin
  2
*D16
 70
     1
 10
0.0
 20
0.0
 30
0.0
  3
*D16
  1

  0
LINE
  5
1719D
330
16BF2
100
AcDbEntity
  8
寸法
 62
     0
 48
50.0
370
    -2
100
AcDbLine
 10
8965.11706615297
 20
4826.026906074279
 30
0.0
 11
8965.11706615297
 21
5265.120075413745
 31
0.0
  0
LINE
  5
1719E
330
16BF2
100
AcDbEntity
  8
寸法
 62
     0
 48
50.0
370
    -2
100
AcDbLine
 10
8915.117066152971
 20
4826.026906074278
 30
0.0
 11
8915.117066152971
 21
5265.120075413745
 31
0.0
  0
LINE
  5
1719F
330
16BF2
100
AcDbEntity
  8
寸法
 62
     0
 48
50.0
370
    -2
100
AcDbLine
 10
8965.11706615297
 20
5205.120075413745
 30
0.0
 11
9065.11706615297
 21
5205.120075413745
 31
0.0
  0
LINE
  5
171A0
330
16BF2
100
AcDbEntity
  8
寸法
 62
     0
 48
50.0
370
    -2
100
AcDbLine
 10
8915.117066152971
 20
5205.120075413745
 30
0.0
 11
8495.584540684234
 21
5205.120075413745
 31
0.0
  0
LINE
  5
171A1
330
16BF2
100
AcDbEntity
  8
寸法
 62
     0
 48
50.0
370
    -2
100
AcDbLine
 10
8965.11706615297
 20
5205.120075413745
 30
0.0
 11
8915.117066152971
 21
5205.120075413745
 31
0.0
  0
INSERT
  5
171A2
330
16BF2
100
AcDbEntity
  8
寸法
 62
     0
 48
50.0
370
    -2
100
AcDbBlockReference
  2
_DOTSMALL
 10
8965.11706615297
 20
5205.120075413745
 30
0.0
 41
100.0
 42
100.0
 43
100.0
 50
180.0
  0
INSERT
  5
171A3
330
16BF2
100
AcDbEntity
  8
寸法
 62
     0
 48
50.0
370
    -2
100
AcDbBlockReference
  2
_DOTSMALL
 10
8915.117066152971
 20
5205.120075413745
 30
0.0
 41
100.0
 42
100.0
 43
100.0
  0
MTEXT
  5
171A4
330
16BF2
100
AcDbEntity
  8
寸法
 62
     7
 48
50.0
100
AcDbMText
 10
8601.631784778723
 20
5305.120075413745
 30
0.0
 40
120.0
 41
0.0
 71
     5
 72
     1
  1
\A1;50
  7
STYLE1
 73
     1
 44
1.0
1001
ACAD
1000
MTEXTBEGIN
1070
    73
1070
     1
1070
    44
1040
1.0
1070
    74
1070
     0
1000
MTEXTEND
  0
POINT
  5
171A5
330
16BF2
100
AcDbEntity
  8
DEFPOINTS
 62
     0
 48
50.0
100
AcDbPoint
 10
8965.11706615297
 20
4806.026906074278
 30
0.0
  0
POINT
  5
171A6
330
16BF2
100
AcDbEntity
  8
DEFPOINTS
 62
     0
 48
50.0
100
AcDbPoint
 10
8915.117066152971
 20
4806.026906074277
 30
0.0
  0
POINT
  5
171A7
330
16BF2
100
AcDbEntity
  8
DEFPOINTS
 62
     0
 48
50.0
100
AcDbPoint
 10
8915.117066152971
 20
5205.120075413745
 30
0.0
  0
ENDBLK
  5
16BFF
330
16BF2
100
AcDbEntity
  8
0
 48
50.0
100
AcDbBlockEnd
  0
BLOCK
  5
16C0A
330
16C00
100
AcDbEntity
  8
0
 48
50.0
100
AcDbBlockBegin
  2
*D17
 70
     1
 10
0.0
 20
0.0
 30
0.0
  3
*D17
  1

  0
LINE
  5
17194
330
16C00
100
AcDbEntity
  8
寸法
 62
     0
 48
50.0
370
    -2
100
AcDbLine
 10
11175.11706615297
 20
4826.026906074278
 30
0.0
 11
11175.11706615297
 21
5265.120075413745
 31
0.0
  0
LINE
  5
17195
330
16C00
100
AcDbEntity
  8
寸法
 62
     0
 48
50.0
370
    -2
100
AcDbLine
 10
8965.11706615297
 20
4826.026906074279
 30
0.0
 11
8965.11706615297
 21
5265.120075413745
 31
0.0
  0
LINE
  5
17196
330
16C00
100
AcDbEntity
  8
寸法
 62
     0
 48
50.0
370
    -2
100
AcDbLine
 10
11175.11706615297
 20
5205.120075413745
 30
0.0
 11
8965.11706615297
 21
5205.120075413745
 31
0.0
  0
INSERT
  5
17197
330
16C00
100
AcDbEntity
  8
寸法
 62
     0
 48
50.0
370
    -2
100
AcDbBlockReference
  2
_DOTSMALL
 10
11175.11706615297
 20
5205.120075413745
 30
0.0
 41
100.0
 42
100.0
 43
100.0
  0
INSERT
  5
17198
330
16C00
100
AcDbEntity
  8
寸法
 62
     0
 48
50.0
370
    -2
100
AcDbBlockReference
  2
_DOTSMALL
 10
8965.11706615297
 20
5205.120075413745
 30
0.0
 41
100.0
 42
100.0
 43
100.0
 50
180.0
  0
MTEXT
  5
17199
330
16C00
100
AcDbEntity
  8
寸法
 62
     7
 48
50.0
100
AcDbMText
 10
10070.11706615297
 20
5305.131886437367
 30
0.0
 40
120.0
 41
0.0
 71
     5
 72
     1
  1
\A1;柱外寸法2210
  7
STYLE1
 73
     1
 44
1.0
1001
ACAD
1000
MTEXTBEGIN
1070
    73
1070
     1
1070
    44
1040
1.0
1070
    74
1070
     0
1000
MTEXTEND
  0
POINT
  5
1719A
330
16C00
100
AcDbEntity
  8
DEFPOINTS
 62
     0
 48
50.0
100
AcDbPoint
 10
11175.11706615297
 20
4806.026906074277
 30
0.0
  0
POINT
  5
1719B
330
16C00
100
AcDbEntity
  8
DEFPOINTS
 62
     0
 48
50.0
100
AcDbPoint
 10
8965.11706615297
 20
4806.026906074278
 30
0.0
  0
POINT
  5
1719C
330
16C00
100
AcDbEntity
  8
DEFPOINTS
 62
     0
 48
50.0
100
AcDbPoint
 10
8965.11706615297
 20
5205.120075413745
 30
0.0
  0
ENDBLK
  5
16C0B
330
16C00
100
AcDbEntity
  8
0
 48
50.0
100
AcDbBlockEnd
  0
BLOCK
  5
16C22
330
16C18
100
AcDbEntity
  8
0
 48
50.0
100
AcDbBlockBegin
  2
*D18
 70
     1
 10
0.0
 20
0.0
 30
0.0
  3
*D18
  1

  0
LINE
  5
17182
330
16C18
100
AcDbEntity
  8
寸法
 62
     0
 48
50.0
370
    -2
100
AcDbLine
 10
8973.117066152971
 20
4514.026906074272
 30
0.0
 11
8614.934777906901
 21
4514.026906074272
 31
0.0
  0
LINE
  5
17183
330
16C18
100
AcDbEntity
  8
寸法
 62
     0
 48
50.0
370
    -2
100
AcDbLine
 10
8973.117066152971
 20
2489.026906074272
 30
0.0
 11
8614.934777906899
 21
2489.026906074272
 31
0.0
  0
LINE
  5
17184
330
16C18
100
AcDbEntity
  8
寸法
 62
     0
 48
50.0
370
    -2
100
AcDbLine
 10
8674.934777906901
 20
4514.026906074272
 30
0.0
 11
8674.9347779069
 21
2489.026906074272
 31
0.0
  0
INSERT
  5
17185
330
16C18
100
AcDbEntity
  8
寸法
 62
     0
 48
50.0
370
    -2
100
AcDbBlockReference
  2
_DOTSMALL
 10
8674.934777906901
 20
4514.026906074272
 30
0.0
 41
100.0
 42
100.0
 43
100.0
 50
90.0
  0
INSERT
  5
17186
330
16C18
100
AcDbEntity
  8
寸法
 62
     0
 48
50.0
370
    -2
100
AcDbBlockReference
  2
_DOTSMALL
 10
8674.9347779069
 20
2489.026906074272
 30
0.0
 41
100.0
 42
100.0
 43
100.0
 50
270.0
  0
MTEXT
  5
17187
330
16C18
100
AcDbEntity
  8
寸法
 62
     7
 48
50.0
100
AcDbMText
 10
8574.922966883278
 20
3508.500707210085
 30
0.0
 40
120.0
 41
0.0
 71
     5
 72
     1
  1
\A1;有効開口部高サ2025
  7
STYLE1
 11
0.0000000000000001
 21
1.0
 31
0.0
 73
     1
 44
1.0
1001
ACAD
1000
MTEXTBEGIN
1070
    73
1070
     1
1070
    44
1040
1.0
1070
    74
1070
     0
1000
MTEXTEND
  0
POINT
  5
17188
330
16C18
100
AcDbEntity
  8
DEFPOINTS
 62
     0
 48
50.0
100
AcDbPoint
 10
8993.11706615297
 20
4514.026906074272
 30
0.0
  0
POINT
  5
17189
330
16C18
100
AcDbEntity
  8
DEFPOINTS
 62
     0
 48
50.0
100
AcDbPoint
 10
8993.11706615297
 20
2489.026906074272
 30
0.0
  0
POINT
  5
1718A
330
16C18
100
AcDbEntity
  8
DEFPOINTS
 62
     0
 48
50.0
100
AcDbPoint
 10
8674.9347779069
 20
2489.026906074272
 30
0.0
  0
ENDBLK
  5
16C23
330
16C18
100
AcDbEntity
  8
0
 48
50.0
100
AcDbBlockEnd
  0
BLOCK
  5
16C2E
330
16C24
100
AcDbEntity
  8
0
 48
50.0
100
AcDbBlockBegin
  2
*D19
 70
     1
 10
0.0
 20
0.0
 30
0.0
  3
*D19
  1

  0
LINE
  5
17179
330
16C24
100
AcDbEntity
  8
寸法
 62
     0
 48
50.0
370
    -2
100
AcDbLine
 10
11195.11706615297
 20
9801.080917972555
 30
0.0
 11
11882.54341188739
 21
9801.080917972555
 31
0.0
  0
LINE
  5
1717A
330
16C24
100
AcDbEntity
  8
寸法
 62
     0
 48
50.0
370
    -2
100
AcDbLine
 10
11195.11706615295
 20
7701.080917972539
 30
0.0
 11
11882.54341188739
 21
7701.080917972539
 31
0.0
  0
LINE
  5
1717B
330
16C24
100
AcDbEntity
  8
寸法
 62
     0
 48
50.0
370
    -2
100
AcDbLine
 10
11822.54341188739
 20
9801.080917972555
 30
0.0
 11
11822.54341188739
 21
7701.080917972539
 31
0.0
  0
INSERT
  5
1717C
330
16C24
100
AcDbEntity
  8
寸法
 62
     0
 48
50.0
370
    -2
100
AcDbBlockReference
  2
_DOTSMALL
 10
11822.54341188739
 20
9801.080917972555
 30
0.0
 41
100.0
 42
100.0
 43
100.0
 50
90.0
  0
INSERT
  5
1717D
330
16C24
100
AcDbEntity
  8
寸法
 62
     0
 48
50.0
370
    -2
100
AcDbBlockReference
  2
_DOTSMALL
 10
11822.54341188739
 20
7701.080917972539
 30
0.0
 41
100.0
 42
100.0
 43
100.0
 50
270.0
  0
MTEXT
  5
1717E
330
16C24
100
AcDbEntity
  8
寸法
 62
     7
 48
50.0
100
AcDbMText
 10
11722.53160086376
 20
8751.080917972547
 30
0.0
 40
120.0
 41
0.0
 71
     5
 72
     1
  1
\A1;5X420=2100
  7
STYLE1
 11
0.0000000000000001
 21
1.0
 31
0.0
 73
     1
 44
1.0
1001
ACAD
1000
MTEXTBEGIN
1070
    73
1070
     1
1070
    44
1040
1.0
1070
    74
1070
     0
1000
MTEXTEND
  0
POINT
  5
1717F
330
16C24
100
AcDbEntity
  8
DEFPOINTS
 62
     0
 48
50.0
100
AcDbPoint
 10
11175.11706615297
 20
9801.080917972555
 30
0.0
  0
POINT
  5
17180
330
16C24
100
AcDbEntity
  8
DEFPOINTS
 62
     0
 48
50.0
100
AcDbPoint
 10
11175.11706615295
 20
7701.080917972539
 30
0.0
  0
POINT
  5
17181
330
16C24
100
AcDbEntity
  8
DEFPOINTS
 62
     0
 48
50.0
100
AcDbPoint
 10
11822.54341188739
 20
7701.080917972539
 30
0.0
  0
ENDBLK
  5
16C2F
330
16C24
100
AcDbEntity
  8
0
 48
50.0
100
AcDbBlockEnd
  0
BLOCK
  5
16C3A
330
16C30
100
AcDbEntity
  8
0
 48
50.0
100
AcDbBlockBegin
  2
*D20
 70
     1
 10
0.0
 20
0.0
 30
0.0
  3
*D20
  1

  0
LINE
  5
17170
330
16C30
100
AcDbEntity
  8
寸法
 62
     0
 48
50.0
370
    -2
100
AcDbLine
 10
11166.61706615297
 20
9820.72193412393
 30
0.0
 11
11561.974792015
 21
9714.786150757795
 31
0.0
  0
LINE
  5
17171
330
16C30
100
AcDbEntity
  8
寸法
 62
     0
 48
50.0
370
    -2
100
AcDbLine
 10
11166.61706615297
 20
9370.721934123933
 30
0.0
 11
11561.974792015
 21
9264.786150757798
 31
0.0
  0
LINE
  5
17172
330
16C30
100
AcDbEntity
  8
寸法
 62
     0
 48
50.0
370
    -2
100
AcDbLine
 10
11501.974792015
 20
9730.863102303661
 30
0.0
 11
11501.974792015
 21
9280.863102303666
 31
0.0
  0
INSERT
  5
17173
330
16C30
100
AcDbEntity
  8
寸法
 62
     0
 48
50.0
370
    -2
100
AcDbBlockReference
  2
_DOTSMALL
 10
11501.974792015
 20
9730.863102303661
 30
0.0
 41
100.0
 42
100.0
 43
100.0
 50
90.0
  0
INSERT
  5
17174
330
16C30
100
AcDbEntity
  8
寸法
 62
     0
 48
50.0
370
    -2
100
AcDbBlockReference
  2
_DOTSMALL
 10
11501.974792015
 20
9280.863102303666
 30
0.0
 41
100.0
 42
100.0
 43
100.0
 50
270.0
  0
MTEXT
  5
17175
330
16C30
100
AcDbEntity
  8
寸法
 62
     7
 48
50.0
100
AcDbMText
 10
11401.974792015
 20
9505.863102303665
 30
0.0
 40
120.0
 41
0.0
 71
     5
 72
     1
  1
\A1;450
  7
STYLE1
 11
0.0000000000000001
 21
1.0
 31
0.0
 73
     1
 44
1.0
1001
ACAD
1000
MTEXTBEGIN
1070
    73
1070
     1
1070
    44
1040
1.0
1070
    74
1070
     0
1000
MTEXTEND
  0
POINT
  5
17176
330
16C30
100
AcDbEntity
  8
DEFPOINTS
 62
     0
 48
50.0
100
AcDbPoint
 10
11146.61706615297
 20
9826.080917972552
 30
0.0
  0
POINT
  5
17177
330
16C30
100
AcDbEntity
  8
DEFPOINTS
 62
     0
 48
50.0
100
AcDbPoint
 10
11146.61706615297
 20
9376.080917972556
 30
0.0
  0
POINT
  5
17178
330
16C30
100
AcDbEntity
  8
DEFPOINTS
 62
     0
 48
50.0
100
AcDbPoint
 10
11501.974792015
 20
9280.863102303666
 30
0.0
  0
ENDBLK
  5
16C3B
330
16C30
100
AcDbEntity
  8
0
 48
50.0
100
AcDbBlockEnd
  0
BLOCK
  5
16C46
330
16C3C
100
AcDbEntity
  8
0
 48
50.0
100
AcDbBlockBegin
  2
*D21
 70
     1
 10
0.0
 20
0.0
 30
0.0
  3
*D21
  1

  0
LINE
  5
17167
330
16C3C
100
AcDbEntity
  8
寸法
 62
     0
 48
50.0
370
    -2
100
AcDbLine
 10
10288.25808230435
 20
9356.080917972562
 30
0.0
 11
10198.97134105068
 21
9022.858263171587
 31
0.0
  0
LINE
  5
17168
330
16C3C
100
AcDbEntity
  8
寸法
 62
     0
 48
50.0
370
    -2
100
AcDbLine
 10
11141.25808230436
 20
9356.080917972555
 30
0.0
 11
11051.97134105069
 21
9022.858263171587
 31
0.0
  0
LINE
  5
17169
330
16C3C
100
AcDbEntity
  8
寸法
 62
     0
 48
50.0
370
    -2
100
AcDbLine
 10
10215.04829259654
 20
9082.858263171587
 30
0.0
 11
11068.04829259656
 21
9082.858263171587
 31
0.0
  0
INSERT
  5
1716A
330
16C3C
100
AcDbEntity
  8
寸法
 62
     0
 48
50.0
370
    -2
100
AcDbBlockReference
  2
_DOTSMALL
 10
10215.04829259654
 20
9082.858263171587
 30
0.0
 41
100.0
 42
100.0
 43
100.0
 50
180.0
  0
INSERT
  5
1716B
330
16C3C
100
AcDbEntity
  8
寸法
 62
     0
 48
50.0
370
    -2
100
AcDbBlockReference
  2
_DOTSMALL
 10
11068.04829259656
 20
9082.858263171587
 30
0.0
 41
100.0
 42
100.0
 43
100.0
  0
MTEXT
  5
1716C
330
16C3C
100
AcDbEntity
  8
寸法
 62
     7
 48
50.0
100
AcDbMText
 10
10672.96412827124
 20
9182.858263171587
 30
0.0
 40
120.0
 41
0.0
 71
     5
 72
     1
  1
\A1;853
  7
STYLE1
 73
     1
 44
1.0
1001
ACAD
1000
MTEXTBEGIN
1070
    73
1070
     1
1070
    44
1040
1.0
1070
    74
1070
     0
1000
MTEXTEND
  0
POINT
  5
1716D
330
16C3C
100
AcDbEntity
  8
DEFPOINTS
 62
     0
 48
50.0
100
AcDbPoint
 10
10293.61706615298
 20
9376.080917972563
 30
0.0
  0
POINT
  5
1716E
330
16C3C
100
AcDbEntity
  8
DEFPOINTS
 62
     0
 48
50.0
100
AcDbPoint
 10
11146.61706615299
 20
9376.080917972556
 30
0.0
  0
POINT
  5
1716F
330
16C3C
100
AcDbEntity
  8
DEFPOINTS
 62
     0
 48
50.0
100
AcDbPoint
 10
11068.04829259656
 20
9082.858263171587
 30
0.0
  0
ENDBLK
  5
16C47
330
16C3C
100
AcDbEntity
  8
0
 48
50.0
100
AcDbBlockEnd
  0
BLOCK
  5
16C54
330
16C48
100
AcDbEntity
  8
0
 48
50.0
100
AcDbBlockBegin
  2
*D22
 70
     1
 10
0.0
 20
0.0
 30
0.0
  3
*D22
  1

  0
LINE
  5
1715C
330
16C48
100
AcDbEntity
  8
寸法
 62
     0
 48
50.0
370
    -2
100
AcDbLine
 10
11195.11706615295
 20
7701.080917972539
 30
0.0
 11
11882.54341188736
 21
7701.080917972539
 31
0.0
  0
LINE
  5
1715D
330
16C48
100
AcDbEntity
  8
寸法
 62
     0
 48
50.0
370
    -2
100
AcDbLine
 10
11195.11706615295
 20
7646.080917972543
 30
0.0
 11
11882.54341188736
 21
7646.080917972543
 31
0.0
  0
LINE
  5
1715E
330
16C48
100
AcDbEntity
  8
寸法
 62
     0
 48
50.0
370
    -2
100
AcDbLine
 10
11822.54341188736
 20
7701.080917972539
 30
0.0
 11
11822.54341188736
 21
7801.08091797254
 31
0.0
  0
LINE
  5
1715F
330
16C48
100
AcDbEntity
  8
寸法
 62
     0
 48
50.0
370
    -2
100
AcDbLine
 10
11822.54341188736
 20
7646.080917972543
 30
0.0
 11
11822.54341188736
 21
7159.73416969344
 31
0.0
  0
LINE
  5
17160
330
16C48
100
AcDbEntity
  8
寸法
 62
     0
 48
50.0
370
    -2
100
AcDbLine
 10
11822.54341188736
 20
7701.080917972539
 30
0.0
 11
11822.54341188736
 21
7646.080917972543
 31
0.0
  0
INSERT
  5
17161
330
16C48
100
AcDbEntity
  8
寸法
 62
     0
 48
50.0
370
    -2
100
AcDbBlockReference
  2
_DOTSMALL
 10
11822.54341188736
 20
7701.080917972539
 30
0.0
 41
100.0
 42
100.0
 43
100.0
 50
270.0
  0
INSERT
  5
17162
330
16C48
100
AcDbEntity
  8
寸法
 62
     0
 48
50.0
370
    -2
100
AcDbBlockReference
  2
_DOTSMALL
 10
11822.54341188736
 20
7646.080917972543
 30
0.0
 41
100.0
 42
100.0
 43
100.0
 50
90.0
  0
MTEXT
  5
17163
330
16C48
100
AcDbEntity
  8
寸法
 62
     7
 48
50.0
100
AcDbMText
 10
11722.54341188736
 20
7268.219451067682
 30
0.0
 40
120.0
 41
0.0
 71
     5
 72
     1
  1
\A1;55
  7
STYLE1
 11
0.0000000000000001
 21
1.0
 31
0.0
 73
     1
 44
1.0
1001
ACAD
1000
MTEXTBEGIN
1070
    73
1070
     1
1070
    44
1040
1.0
1070
    74
1070
     0
1000
MTEXTEND
  0
POINT
  5
17164
330
16C48
100
AcDbEntity
  8
DEFPOINTS
 62
     0
 48
50.0
100
AcDbPoint
 10
11175.11706615295
 20
7701.080917972539
 30
0.0
  0
POINT
  5
17165
330
16C48
100
AcDbEntity
  8
DEFPOINTS
 62
     0
 48
50.0
100
AcDbPoint
 10
11175.11706615295
 20
7646.080917972543
 30
0.0
  0
POINT
  5
17166
330
16C48
100
AcDbEntity
  8
DEFPOINTS
 62
     0
 48
50.0
100
AcDbPoint
 10
11822.54341188736
 20
7646.080917972543
 30
0.0
  0
ENDBLK
  5
16C55
330
16C48
100
AcDbEntity
  8
0
 48
50.0
100
AcDbBlockEnd
  0
BLOCK
  5
16C6C
330
16C62
100
AcDbEntity
  8
0
 48
50.0
100
AcDbBlockBegin
  2
*D23
 70
     1
 10
0.0
 20
0.0
 30
0.0
  3
*D23
  1

  0
LINE
  5
17B9F
330
16C62
100
AcDbEntity
  8
寸法
 62
     0
 48
50.0
370
    -2
100
AcDbLine
 10
8988.258082304355
 20
9356.080917972457
 30
0.0
 11
8898.678954392206
 21
9021.767061306608
 31
0.0
  0
LINE
  5
17BA0
330
16C62
100
AcDbEntity
  8
寸法
 62
     0
 48
50.0
370
    -2
100
AcDbLine
 10
10261.25808230436
 20
9356.08091797245
 30
0.0
 11
10171.67895439222
 21
9021.767061306608
 31
0.0
  0
LINE
  5
17BA1
330
16C62
100
AcDbEntity
  8
寸法
 62
     0
 48
50.0
370
    -2
100
AcDbLine
 10
8914.755905938076
 20
9081.767061306607
 30
0.0
 11
10187.75590593808
 21
9081.767061306607
 31
0.0
  0
INSERT
  5
17BA2
330
16C62
100
AcDbEntity
  8
寸法
 62
     0
 48
50.0
370
    -2
100
AcDbBlockReference
  2
_DOTSMALL
 10
8914.755905938076
 20
9081.767061306607
 30
0.0
 41
100.0
 42
100.0
 43
100.0
 50
180.0
  0
INSERT
  5
17BA3
330
16C62
100
AcDbEntity
  8
寸法
 62
     0
 48
50.0
370
    -2
100
AcDbBlockReference
  2
_DOTSMALL
 10
10187.75590593808
 20
9081.767061306607
 30
0.0
 41
100.0
 42
100.0
 43
100.0
  0
MTEXT
  5
17BA4
330
16C62
100
AcDbEntity
  8
寸法
 62
     7
 48
50.0
100
AcDbMText
 10
9535.075959002512
 20
9181.77887233023
 30
0.0
 40
120.0
 41
0.0
 71
     5
 72
     1
  1
\A1;1273
  7
STYLE1
 73
     1
 44
1.0
1001
ACAD
1000
MTEXTBEGIN
1070
    73
1070
     1
1070
    44
1040
1.0
1070
    74
1070
     0
1000
MTEXTEND
  0
POINT
  5
17BA5
330
16C62
100
AcDbEntity
  8
DEFPOINTS
 62
     0
 48
50.0
100
AcDbPoint
 10
8993.617066152976
 20
9376.080917972457
 30
0.0
  0
POINT
  5
17BA6
330
16C62
100
AcDbEntity
  8
DEFPOINTS
 62
     0
 48
50.0
100
AcDbPoint
 10
10266.61706615299
 20
9376.08091797245
 30
0.0
  0
POINT
  5
17BA7
330
16C62
100
AcDbEntity
  8
DEFPOINTS
 62
     0
 48
50.0
100
AcDbPoint
 10
10187.75590593808
 20
9081.767061306607
 30
0.0
  0
ENDBLK
  5
16C6D
330
16C62
100
AcDbEntity
  8
0
 48
50.0
100
AcDbBlockEnd
  0
BLOCK
  5
16C7A
330
16C6E
100
AcDbEntity
  8
0
 48
50.0
100
AcDbBlockBegin
  2
*D24
 70
     1
 10
0.0
 20
0.0
 30
0.0
  3
*D24
  1

  0
LINE
  5
1713F
330
16C6E
100
AcDbEntity
  8
寸法
 62
     0
 48
50.0
370
    -2
100
AcDbLine
 10
8965.117066152942
 20
9876.080917972457
 30
0.0
 11
8965.117066152942
 21
10219.12651254803
 31
0.0
  0
LINE
  5
17140
330
16C6E
100
AcDbEntity
  8
寸法
 62
     0
 48
50.0
370
    -2
100
AcDbLine
 10
9020.117066152977
 20
9876.080917972457
 30
0.0
 11
9020.117066152977
 21
10219.12651254803
 31
0.0
  0
LINE
  5
17141
330
16C6E
100
AcDbEntity
  8
寸法
 62
     0
 48
50.0
370
    -2
100
AcDbLine
 10
9020.117066152977
 20
10159.12651254803
 30
0.0
 11
9120.117066152976
 21
10159.12651254803
 31
0.0
  0
LINE
  5
17142
330
16C6E
100
AcDbEntity
  8
寸法
 62
     0
 48
50.0
370
    -2
100
AcDbLine
 10
8965.117066152942
 20
10159.12651254803
 30
0.0
 11
8548.146503404465
 21
10159.12651254803
 31
0.0
  0
LINE
  5
17143
330
16C6E
100
AcDbEntity
  8
寸法
 62
     0
 48
50.0
370
    -2
100
AcDbLine
 10
9020.117066152977
 20
10159.12651254803
 30
0.0
 11
8965.117066152942
 21
10159.12651254803
 31
0.0
  0
INSERT
  5
17144
330
16C6E
100
AcDbEntity
  8
寸法
 62
     0
 48
50.0
370
    -2
100
AcDbBlockReference
  2
_DOTSMALL
 10
9020.117066152977
 20
10159.12651254803
 30
0.0
 41
100.0
 42
100.0
 43
100.0
 50
180.0
  0
INSERT
  5
17145
330
16C6E
100
AcDbEntity
  8
寸法
 62
     0
 48
50.0
370
    -2
100
AcDbBlockReference
  2
_DOTSMALL
 10
8965.117066152942
 20
10159.12651254803
 30
0.0
 41
100.0
 42
100.0
 43
100.0
  0
MTEXT
  5
17146
330
16C6E
100
AcDbEntity
  8
寸法
 62
     7
 48
50.0
100
AcDbMText
 10
8656.631784778703
 20
10259.12651254803
 30
0.0
 40
120.0
 41
0.0
 71
     5
 72
     1
  1
\A1;55
  7
STYLE1
 73
     1
 44
1.0
1001
ACAD
1000
MTEXTBEGIN
1070
    73
1070
     1
1070
    44
1040
1.0
1070
    74
1070
     0
1000
MTEXTEND
  0
POINT
  5
17147
330
16C6E
100
AcDbEntity
  8
DEFPOINTS
 62
     0
 48
50.0
100
AcDbPoint
 10
8965.117066152942
 20
9856.080917972457
 30
0.0
  0
POINT
  5
17148
330
16C6E
100
AcDbEntity
  8
DEFPOINTS
 62
     0
 48
50.0
100
AcDbPoint
 10
9020.117066152977
 20
9856.080917972457
 30
0.0
  0
POINT
  5
17149
330
16C6E
100
AcDbEntity
  8
DEFPOINTS
 62
     0
 48
50.0
100
AcDbPoint
 10
9020.117066152977
 20
10159.12651254803
 30
0.0
  0
ENDBLK
  5
16C7B
330
16C6E
100
AcDbEntity
  8
0
 48
50.0
100
AcDbBlockEnd
  0
BLOCK
  5
16C88
330
16C7C
100
AcDbEntity
  8
0
 48
50.0
100
AcDbBlockBegin
  2
*D25
 70
     1
 10
0.0
 20
0.0
 30
0.0
  3
*D25
  1

  0
LINE
  5
17134
330
16C7C
100
AcDbEntity
  8
寸法
 62
     0
 48
50.0
370
    -2
100
AcDbLine
 10
11195.11706615297
 20
9856.080917972551
 30
0.0
 11
11882.54341188739
 21
9856.080917972551
 31
0.0
  0
LINE
  5
17135
330
16C7C
100
AcDbEntity
  8
寸法
 62
     0
 48
50.0
370
    -2
100
AcDbLine
 10
11195.11706615297
 20
9801.080917972555
 30
0.0
 11
11882.54341188739
 21
9801.080917972555
 31
0.0
  0
LINE
  5
17136
330
16C7C
100
AcDbEntity
  8
寸法
 62
     0
 48
50.0
370
    -2
100
AcDbLine
 10
11822.54341188739
 20
9801.080917972555
 30
0.0
 11
11822.54341188739
 21
9701.080917972555
 31
0.0
  0
LINE
  5
17137
330
16C7C
100
AcDbEntity
  8
寸法
 62
     0
 48
50.0
370
    -2
100
AcDbLine
 10
11822.54341188739
 20
9856.080917972551
 30
0.0
 11
11822.54341188739
 21
10273.05148072102
 31
0.0
  0
LINE
  5
17138
330
16C7C
100
AcDbEntity
  8
寸法
 62
     0
 48
50.0
370
    -2
100
AcDbLine
 10
11822.54341188739
 20
9801.080917972555
 30
0.0
 11
11822.54341188739
 21
9856.080917972551
 31
0.0
  0
INSERT
  5
17139
330
16C7C
100
AcDbEntity
  8
寸法
 62
     0
 48
50.0
370
    -2
100
AcDbBlockReference
  2
_DOTSMALL
 10
11822.54341188739
 20
9801.080917972555
 30
0.0
 41
100.0
 42
100.0
 43
100.0
 50
90.0
  0
INSERT
  5
1713A
330
16C7C
100
AcDbEntity
  8
寸法
 62
     0
 48
50.0
370
    -2
100
AcDbBlockReference
  2
_DOTSMALL
 10
11822.54341188739
 20
9856.080917972551
 30
0.0
 41
100.0
 42
100.0
 43
100.0
 50
270.0
  0
MTEXT
  5
1713B
330
16C7C
100
AcDbEntity
  8
寸法
 62
     7
 48
50.0
100
AcDbMText
 10
11722.54341188738
 20
10164.56619934679
 30
0.0
 40
120.0
 41
0.0
 71
     5
 72
     1
  1
\A1;55
  7
STYLE1
 11
0.0000000000000001
 21
1.0
 31
0.0
 73
     1
 44
1.0
1001
ACAD
1000
MTEXTBEGIN
1070
    73
1070
     1
1070
    44
1040
1.0
1070
    74
1070
     0
1000
MTEXTEND
  0
POINT
  5
1713C
330
16C7C
100
AcDbEntity
  8
DEFPOINTS
 62
     0
 48
50.0
100
AcDbPoint
 10
11175.11706615297
 20
9856.080917972551
 30
0.0
  0
POINT
  5
1713D
330
16C7C
100
AcDbEntity
  8
DEFPOINTS
 62
     0
 48
50.0
100
AcDbPoint
 10
11175.11706615297
 20
9801.080917972555
 30
0.0
  0
POINT
  5
1713E
330
16C7C
100
AcDbEntity
  8
DEFPOINTS
 62
     0
 48
50.0
100
AcDbPoint
 10
11822.54341188739
 20
9801.080917972555
 30
0.0
  0
ENDBLK
  5
16C89
330
16C7C
100
AcDbEntity
  8
0
 48
50.0
100
AcDbBlockEnd
  0
BLOCK
  5
16C96
330
16C8A
100
AcDbEntity
  8
0
 48
50.0
100
AcDbBlockBegin
  2
*D26
 70
     1
 10
0.0
 20
0.0
 30
0.0
  3
*D26
  1

  0
LINE
  5
17129
330
16C8A
100
AcDbEntity
  8
寸法
 62
     0
 48
50.0
370
    -2
100
AcDbLine
 10
11120.11706615298
 20
9876.080917972551
 30
0.0
 11
11120.11706615298
 21
10219.12651254813
 31
0.0
  0
LINE
  5
1712A
330
16C8A
100
AcDbEntity
  8
寸法
 62
     0
 48
50.0
370
    -2
100
AcDbLine
 10
11175.11706615297
 20
9876.080917972551
 30
0.0
 11
11175.11706615297
 21
10219.12651254813
 31
0.0
  0
LINE
  5
1712B
330
16C8A
100
AcDbEntity
  8
寸法
 62
     0
 48
50.0
370
    -2
100
AcDbLine
 10
11120.11706615298
 20
10159.12651254813
 30
0.0
 11
11020.11706615298
 21
10159.12651254813
 31
0.0
  0
LINE
  5
1712C
330
16C8A
100
AcDbEntity
  8
寸法
 62
     0
 48
50.0
370
    -2
100
AcDbLine
 10
11175.11706615297
 20
10159.12651254813
 30
0.0
 11
11592.08762890145
 21
10159.12651254813
 31
0.0
  0
LINE
  5
1712D
330
16C8A
100
AcDbEntity
  8
寸法
 62
     0
 48
50.0
370
    -2
100
AcDbLine
 10
11120.11706615298
 20
10159.12651254813
 30
0.0
 11
11175.11706615297
 21
10159.12651254813
 31
0.0
  0
INSERT
  5
1712E
330
16C8A
100
AcDbEntity
  8
寸法
 62
     0
 48
50.0
370
    -2
100
AcDbBlockReference
  2
_DOTSMALL
 10
11120.11706615298
 20
10159.12651254813
 30
0.0
 41
100.0
 42
100.0
 43
100.0
  0
INSERT
  5
1712F
330
16C8A
100
AcDbEntity
  8
寸法
 62
     0
 48
50.0
370
    -2
100
AcDbBlockReference
  2
_DOTSMALL
 10
11175.11706615297
 20
10159.12651254813
 30
0.0
 41
100.0
 42
100.0
 43
100.0
 50
180.0
  0
MTEXT
  5
17130
330
16C8A
100
AcDbEntity
  8
寸法
 62
     7
 48
50.0
100
AcDbMText
 10
11483.60234752721
 20
10259.12651254813
 30
0.0
 40
120.0
 41
0.0
 71
     5
 72
     1
  1
\A1;55
  7
STYLE1
 73
     1
 44
1.0
1001
ACAD
1000
MTEXTBEGIN
1070
    73
1070
     1
1070
    44
1040
1.0
1070
    74
1070
     0
1000
MTEXTEND
  0
POINT
  5
17131
330
16C8A
100
AcDbEntity
  8
DEFPOINTS
 62
     0
 48
50.0
100
AcDbPoint
 10
11120.11706615298
 20
9856.080917972551
 30
0.0
  0
POINT
  5
17132
330
16C8A
100
AcDbEntity
  8
DEFPOINTS
 62
     0
 48
50.0
100
AcDbPoint
 10
11175.11706615297
 20
9856.080917972551
 30
0.0
  0
POINT
  5
17133
330
16C8A
100
AcDbEntity
  8
DEFPOINTS
 62
     0
 48
50.0
100
AcDbPoint
 10
11175.11706615297
 20
10159.12651254813
 30
0.0
  0
ENDBLK
  5
16C97
330
16C8A
100
AcDbEntity
  8
0
 48
50.0
100
AcDbBlockEnd
  0
BLOCK
  5
16CA2
330
16C98
100
AcDbEntity
  8
0
 48
50.0
100
AcDbBlockBegin
  2
*D27
 70
     1
 10
0.0
 20
0.0
 30
0.0
  3
*D27
  1

  0
LINE
  5
17120
330
16C98
100
AcDbEntity
  8
寸法
 62
     0
 48
50.0
370
    -2
100
AcDbLine
 10
9020.117066152977
 20
9876.080917972457
 30
0.0
 11
9020.117066152977
 21
10219.12651254815
 31
0.0
  0
LINE
  5
17121
330
16C98
100
AcDbEntity
  8
寸法
 62
     0
 48
50.0
370
    -2
100
AcDbLine
 10
11120.11706615298
 20
9876.080917972551
 30
0.0
 11
11120.11706615298
 21
10219.12651254815
 31
0.0
  0
LINE
  5
17122
330
16C98
100
AcDbEntity
  8
寸法
 62
     0
 48
50.0
370
    -2
100
AcDbLine
 10
9020.117066152977
 20
10159.12651254815
 30
0.0
 11
11120.11706615298
 21
10159.12651254815
 31
0.0
  0
INSERT
  5
17123
330
16C98
100
AcDbEntity
  8
寸法
 62
     0
 48
50.0
370
    -2
100
AcDbBlockReference
  2
_DOTSMALL
 10
9020.117066152977
 20
10159.12651254815
 30
0.0
 41
100.0
 42
100.0
 43
100.0
 50
180.0
  0
INSERT
  5
17124
330
16C98
100
AcDbEntity
  8
寸法
 62
     0
 48
50.0
370
    -2
100
AcDbBlockReference
  2
_DOTSMALL
 10
11120.11706615298
 20
10159.12651254815
 30
0.0
 41
100.0
 42
100.0
 43
100.0
  0
MTEXT
  5
17125
330
16C98
100
AcDbEntity
  8
寸法
 62
     7
 48
50.0
100
AcDbMText
 10
10070.11706615297
 20
10259.13832357177
 30
0.0
 40
120.0
 41
0.0
 71
     5
 72
     1
  1
\A1;5X420=2100
  7
STYLE1
 73
     1
 44
1.0
1001
ACAD
1000
MTEXTBEGIN
1070
    73
1070
     1
1070
    44
1040
1.0
1070
    74
1070
     0
1000
MTEXTEND
  0
POINT
  5
17126
330
16C98
100
AcDbEntity
  8
DEFPOINTS
 62
     0
 48
50.0
100
AcDbPoint
 10
9020.117066152977
 20
9856.080917972457
 30
0.0
  0
POINT
  5
17127
330
16C98
100
AcDbEntity
  8
DEFPOINTS
 62
     0
 48
50.0
100
AcDbPoint
 10
11120.11706615298
 20
9856.080917972551
 30
0.0
  0
POINT
  5
17128
330
16C98
100
AcDbEntity
  8
DEFPOINTS
 62
     0
 48
50.0
100
AcDbPoint
 10
11120.11706615298
 20
10159.12651254815
 30
0.0
  0
ENDBLK
  5
16CA3
330
16C98
100
AcDbEntity
  8
0
 48
50.0
100
AcDbBlockEnd
  0
BLOCK
  5
16CAE
330
16CA4
100
AcDbEntity
  8
0
 48
50.0
100
AcDbBlockBegin
  2
*D28
 70
     1
 10
0.0
 20
0.0
 30
0.0
  3
*D28
  1

  0
LINE
  5
18B28
330
16CA4
100
AcDbEntity
  8
寸法
 62
     0
 48
50.0
370
    -2
100
AcDbLine
 10
11195.11706615297
 20
9856.080917972551
 30
0.0
 11
12170.86050843041
 21
9856.080917972551
 31
0.0
  0
LINE
  5
18B29
330
16CA4
100
AcDbEntity
  8
寸法
 62
     0
 48
50.0
370
    -2
100
AcDbLine
 10
11195.11706615295
 20
7646.080917972543
 30
0.0
 11
12170.86050843041
 21
7646.080917972543
 31
0.0
  0
LINE
  5
18B2A
330
16CA4
100
AcDbEntity
  8
寸法
 62
     0
 48
50.0
370
    -2
100
AcDbLine
 10
12110.86050843041
 20
9856.080917972551
 30
0.0
 11
12110.86050843041
 21
7646.080917972543
 31
0.0
  0
INSERT
  5
18B2B
330
16CA4
100
AcDbEntity
  8
寸法
 62
     0
 48
50.0
370
    -2
100
AcDbBlockReference
  2
_DOTSMALL
 10
12110.86050843041
 20
9856.080917972551
 30
0.0
 41
100.0
 42
100.0
 43
100.0
 50
90.0
  0
INSERT
  5
18B2C
330
16CA4
100
AcDbEntity
  8
寸法
 62
     0
 48
50.0
370
    -2
100
AcDbBlockReference
  2
_DOTSMALL
 10
12110.86050843041
 20
7646.080917972543
 30
0.0
 41
100.0
 42
100.0
 43
100.0
 50
270.0
  0
MTEXT
  5
18B2D
330
16CA4
100
AcDbEntity
  8
寸法
 62
     7
 48
50.0
100
AcDbMText
 10
12010.84869740679
 20
8711.833497790525
 30
0.0
 40
120.0
 41
0.0
 71
     5
 72
     1
  1
\A1;2210
  7
STYLE1
 11
0.0000000000000001
 21
1.0
 31
0.0
 73
     1
 44
1.0
1001
ACAD
1000
MTEXTBEGIN
1070
    73
1070
     1
1070
    44
1040
1.0
1070
    74
1070
     0
1000
MTEXTEND
  0
POINT
  5
18B2E
330
16CA4
100
AcDbEntity
  8
DEFPOINTS
 62
     0
 48
50.0
100
AcDbPoint
 10
11175.11706615297
 20
9856.080917972551
 30
0.0
  0
POINT
  5
18B2F
330
16CA4
100
AcDbEntity
  8
DEFPOINTS
 62
     0
 48
50.0
100
AcDbPoint
 10
11175.11706615295
 20
7646.080917972543
 30
0.0
  0
POINT
  5
18B30
330
16CA4
100
AcDbEntity
  8
DEFPOINTS
 62
     0
 48
50.0
100
AcDbPoint
 10
12110.86050843041
 20
7646.080917972543
 30
0.0
  0
ENDBLK
  5
16CAF
330
16CA4
100
AcDbEntity
  8
0
 48
50.0
100
AcDbBlockEnd
  0
BLOCK
  5
16CBA
330
16CB0
100
AcDbEntity
  8
0
 48
50.0
100
AcDbBlockBegin
  2
*D29
 70
     1
 10
0.0
 20
0.0
 30
0.0
  3
*D29
  1

  0
LINE
  5
1710E
330
16CB0
100
AcDbEntity
  8
寸法
 62
     0
 48
50.0
370
    -2
100
AcDbLine
 10
9065.117066152971
 20
2111.026906074272
 30
0.0
 11
9065.117066152971
 21
1784.979576773895
 31
0.0
  0
LINE
  5
1710F
330
16CB0
100
AcDbEntity
  8
寸法
 62
     0
 48
50.0
370
    -2
100
AcDbLine
 10
8865.11706615297
 20
2111.026906074272
 30
0.0
 11
8865.11706615297
 21
1784.979576773895
 31
0.0
  0
LINE
  5
17110
330
16CB0
100
AcDbEntity
  8
寸法
 62
     0
 48
50.0
370
    -2
100
AcDbLine
 10
9065.117066152971
 20
1844.979576773895
 30
0.0
 11
8865.11706615297
 21
1844.979576773895
 31
0.0
  0
INSERT
  5
17111
330
16CB0
100
AcDbEntity
  8
寸法
 62
     0
 48
50.0
370
    -2
100
AcDbBlockReference
  2
_DOTSMALL
 10
9065.117066152971
 20
1844.979576773895
 30
0.0
 41
100.0
 42
100.0
 43
100.0
  0
INSERT
  5
17112
330
16CB0
100
AcDbEntity
  8
寸法
 62
     0
 48
50.0
370
    -2
100
AcDbBlockReference
  2
_DOTSMALL
 10
8865.11706615297
 20
1844.979576773895
 30
0.0
 41
100.0
 42
100.0
 43
100.0
 50
180.0
  0
MTEXT
  5
17113
330
16CB0
100
AcDbEntity
  8
寸法
 62
     7
 48
50.0
100
AcDbMText
 10
8965.117066152972
 20
1944.991387797517
 30
0.0
 40
120.0
 41
0.0
 71
     5
 72
     1
  1
\A1;200
  7
STYLE1
 73
     1
 44
1.0
1001
ACAD
1000
MTEXTBEGIN
1070
    73
1070
     1
1070
    44
1040
1.0
1070
    74
1070
     0
1000
MTEXTEND
  0
POINT
  5
17114
330
16CB0
100
AcDbEntity
  8
DEFPOINTS
 62
     0
 48
50.0
100
AcDbPoint
 10
9065.117066152971
 20
2131.026906074272
 30
0.0
  0
POINT
  5
17115
330
16CB0
100
AcDbEntity
  8
DEFPOINTS
 62
     0
 48
50.0
100
AcDbPoint
 10
8865.11706615297
 20
2131.026906074272
 30
0.0
  0
POINT
  5
17116
330
16CB0
100
AcDbEntity
  8
DEFPOINTS
 62
     0
 48
50.0
100
AcDbPoint
 10
8865.11706615297
 20
1844.979576773895
 30
0.0
  0
ENDBLK
  5
16CBB
330
16CB0
100
AcDbEntity
  8
0
 48
50.0
100
AcDbBlockEnd
  0
BLOCK
  5
186A3
330
18699
100
AcDbEntity
  8
0
 48
50.0
100
AcDbBlockBegin
  2
*D30
 70
     1
 10
0.0
 20
0.0
 30
0.0
  3
*D30
  1

  0
LINE
  5
186ED
330
18699
100
AcDbEntity
  8
寸法
 62
     0
 48
50.0
370
    -2
100
AcDbLine
 10
9032.117066152952
 20
7549.080917972391
 30
0.0
 11
9032.117066152952
 21
6880.183640625786
 31
0.0
  0
LINE
  5
186EE
330
18699
100
AcDbEntity
  8
寸法
 62
     0
 48
50.0
370
    -2
100
AcDbLine
 10
10298.11706615295
 20
7549.080917972391
 30
0.0
 11
10298.11706615295
 21
6880.183640625786
 31
0.0
  0
LINE
  5
186EF
330
18699
100
AcDbEntity
  8
寸法
 62
     0
 48
50.0
370
    -2
100
AcDbLine
 10
9052.117066152952
 20
6920.183640625786
 30
0.0
 11
10278.11706615295
 21
6920.183640625786
 31
0.0
  0
INSERT
  5
186F0
330
18699
100
AcDbEntity
  8
寸法
 62
     0
 48
50.0
370
    -2
100
AcDbBlockReference
  2
_DOT
 10
9032.117066152952
 20
6920.183640625786
 30
0.0
 41
20.0
 42
20.0
 43
20.0
 50
180.0
  0
INSERT
  5
186F1
330
18699
100
AcDbEntity
  8
寸法
 62
     0
 48
50.0
370
    -2
100
AcDbBlockReference
  2
_DOT
 10
10298.11706615295
 20
6920.183640625786
 30
0.0
 41
20.0
 42
20.0
 43
20.0
  0
MTEXT
  5
186F2
330
18699
100
AcDbEntity
  8
寸法
 62
     7
 48
50.0
100
AcDbMText
 10
9684.093476966621
 20
7112.195451649409
 30
0.0
 40
120.0
 41
0.0
 71
     5
 72
     1
  1
\A1;有効開口部間口\P1266
  7
STYLE1
 73
     1
 44
1.0
1001
ACAD
1000
MTEXTBEGIN
1070
    73
1070
     1
1070
    44
1040
1.0
1070
    74
1070
     0
1000
MTEXTEND
  0
POINT
  5
186F3
330
18699
100
AcDbEntity
  8
DEFPOINTS
 62
     0
 48
50.0
100
AcDbPoint
 10
9032.117066152952
 20
7569.080917972391
 30
0.0
  0
POINT
  5
186F4
330
18699
100
AcDbEntity
  8
DEFPOINTS
 62
     0
 48
50.0
100
AcDbPoint
 10
10298.11706615295
 20
7569.080917972391
 30
0.0
  0
POINT
  5
186F5
330
18699
100
AcDbEntity
  8
DEFPOINTS
 62
     0
 48
50.0
100
AcDbPoint
 10
10298.11706615295
 20
6920.183640625786
 30
0.0
  0
ENDBLK
  5
186A4
330
18699
100
AcDbEntity
  8
0
 48
50.0
100
AcDbBlockEnd
  0
BLOCK
  5
189D2
330
189C8
100
AcDbEntity
  8
0
 48
50.0
100
AcDbBlockBegin
  2
*D31
 70
     1
 10
0.0
 20
0.0
 30
0.0
  3
*D31
  1

  0
LINE
  5
18B3A
330
189C8
100
AcDbEntity
  8
寸法
 62
     0
 48
50.0
370
    -2
100
AcDbLine
 10
8993.117066152919
 20
7549.080917972357
 30
0.0
 11
8993.117066152919
 21
6556.216681846257
 31
0.0
  0
LINE
  5
18B3B
330
189C8
100
AcDbEntity
  8
寸法
 62
     0
 48
50.0
370
    -2
100
AcDbLine
 10
11147.11706615292
 20
7549.080917972357
 30
0.0
 11
11147.11706615292
 21
6556.216681846257
 31
0.0
  0
LINE
  5
18B3C
330
189C8
100
AcDbEntity
  8
寸法
 62
     0
 48
50.0
370
    -2
100
AcDbLine
 10
8993.117066152919
 20
6616.216681846258
 30
0.0
 11
11147.11706615292
 21
6616.216681846258
 31
0.0
  0
INSERT
  5
18B3D
330
189C8
100
AcDbEntity
  8
寸法
 62
     0
 48
50.0
370
    -2
100
AcDbBlockReference
  2
_DOTSMALL
 10
8993.117066152919
 20
6616.216681846258
 30
0.0
 41
100.0
 42
100.0
 43
100.0
 50
180.0
  0
INSERT
  5
18B3E
330
189C8
100
AcDbEntity
  8
寸法
 62
     0
 48
50.0
370
    -2
100
AcDbBlockReference
  2
_DOTSMALL
 10
11147.11706615292
 20
6616.216681846258
 30
0.0
 41
100.0
 42
100.0
 43
100.0
  0
MTEXT
  5
18B3F
330
189C8
100
AcDbEntity
  8
寸法
 62
     7
 48
50.0
100
AcDbMText
 10
10071.34857809393
 20
6716.22849286988
 30
0.0
 40
120.0
 41
0.0
 71
     5
 72
     1
  1
\A1;2154
  7
STYLE1
 73
     1
 44
1.0
1001
ACAD
1000
MTEXTBEGIN
1070
    73
1070
     1
1070
    44
1040
1.0
1070
    74
1070
     0
1000
MTEXTEND
  0
POINT
  5
18B40
330
189C8
100
AcDbEntity
  8
DEFPOINTS
 62
     0
 48
50.0
100
AcDbPoint
 10
8993.117066152919
 20
7569.080917972357
 30
0.0
  0
POINT
  5
18B41
330
189C8
100
AcDbEntity
  8
DEFPOINTS
 62
     0
 48
50.0
100
AcDbPoint
 10
11147.11706615292
 20
7569.080917972357
 30
0.0
  0
POINT
  5
18B42
330
189C8
100
AcDbEntity
  8
DEFPOINTS
 62
     0
 48
50.0
100
AcDbPoint
 10
11147.11706615292
 20
6616.216681846258
 30
0.0
  0
ENDBLK
  5
189D3
330
189C8
100
AcDbEntity
  8
0
 48
50.0
100
AcDbBlockEnd
  0
BLOCK
  5
189E0
330
189D4
100
AcDbEntity
  8
0
 48
50.0
100
AcDbBlockBegin
  2
*D32
 70
     1
 10
0.0
 20
0.0
 30
0.0
  3
*D32
  1

  0
LINE
  5
18B14
330
189D4
100
AcDbEntity
  8
寸法
 62
     0
 48
50.0
370
    -2
100
AcDbLine
 10
8945.11706615297
 20
7646.080917972412
 30
0.0
 11
8630.505820526254
 21
7646.080917972412
 31
0.0
  0
LINE
  5
18B15
330
189D4
100
AcDbEntity
  8
寸法
 62
     0
 48
50.0
370
    -2
100
AcDbLine
 10
8973.11706615295
 20
7571.080917972413
 30
0.0
 11
8630.505820526254
 21
7571.080917972413
 31
0.0
  0
LINE
  5
18B16
330
189D4
100
AcDbEntity
  8
寸法
 62
     0
 48
50.0
370
    -2
100
AcDbLine
 10
8670.505820526255
 20
7666.080917972412
 30
0.0
 11
8670.505820526255
 21
7686.080917972411
 31
0.0
  0
LINE
  5
18B17
330
189D4
100
AcDbEntity
  8
寸法
 62
     0
 48
50.0
370
    -2
100
AcDbLine
 10
8670.505820526255
 20
7551.080917972412
 30
0.0
 11
8670.505820526255
 21
7330.110355223934
 31
0.0
  0
LINE
  5
18B18
330
189D4
100
AcDbEntity
  8
寸法
 62
     0
 48
50.0
370
    -2
100
AcDbLine
 10
8670.505820526255
 20
7646.080917972412
 30
0.0
 11
8670.505820526255
 21
7571.080917972413
 31
0.0
  0
INSERT
  5
18B19
330
189D4
100
AcDbEntity
  8
寸法
 62
     0
 48
50.0
370
    -2
100
AcDbBlockReference
  2
_DOT
 10
8670.505820526255
 20
7646.080917972412
 30
0.0
 41
20.0
 42
20.0
 43
20.0
 50
270.0
  0
INSERT
  5
18B1A
330
189D4
100
AcDbEntity
  8
寸法
 62
     0
 48
50.0
370
    -2
100
AcDbBlockReference
  2
_DOT
 10
8670.505820526255
 20
7571.080917972413
 30
0.0
 41
20.0
 42
20.0
 43
20.0
 50
90.0
  0
MTEXT
  5
18B1B
330
189D4
100
AcDbEntity
  8
寸法
 62
     7
 48
50.0
100
AcDbMText
 10
8578.505820526252
 20
7430.595636598174
 30
0.0
 40
120.0
 41
0.0
 71
     5
 72
     1
  1
\A1;75
  7
STYLE1
 11
0.0000000000000001
 21
1.0
 31
0.0
 73
     1
 44
1.0
1001
ACAD
1000
MTEXTBEGIN
1070
    73
1070
     1
1070
    44
1040
1.0
1070
    74
1070
     0
1000
MTEXTEND
  0
POINT
  5
18B1C
330
189D4
100
AcDbEntity
  8
DEFPOINTS
 62
     0
 48
50.0
100
AcDbPoint
 10
8965.11706615297
 20
7646.080917972412
 30
0.0
  0
POINT
  5
18B1D
330
189D4
100
AcDbEntity
  8
DEFPOINTS
 62
     0
 48
50.0
100
AcDbPoint
 10
8993.117066152949
 20
7571.080917972413
 30
0.0
  0
POINT
  5
18B1E
330
189D4
100
AcDbEntity
  8
DEFPOINTS
 62
     0
 48
50.0
100
AcDbPoint
 10
8670.505820526255
 20
7571.080917972413
 30
0.0
  0
ENDBLK
  5
189E1
330
189D4
100
AcDbEntity
  8
0
 48
50.0
100
AcDbBlockEnd
  0
BLOCK
  5
18A2A
330
18A20
100
AcDbEntity
  8
0
 48
50.0
100
AcDbBlockBegin
  2
*D33
 70
     1
 10
0.0
 20
0.0
 30
0.0
  3
*D33
  1

  0
LINE
  5
18B02
330
18A20
100
AcDbEntity
  8
寸法
 62
     0
 48
50.0
370
    -2
100
AcDbLine
 10
8965.11706615297
 20
7626.080917972379
 30
0.0
 11
8965.11706615297
 21
6282.054592445481
 31
0.0
  0
LINE
  5
18B03
330
18A20
100
AcDbEntity
  8
寸法
 62
     0
 48
50.0
370
    -2
100
AcDbLine
 10
11175.11706615295
 20
7626.080917972507
 30
0.0
 11
11175.11706615295
 21
6282.054592445481
 31
0.0
  0
LINE
  5
18B04
330
18A20
100
AcDbEntity
  8
寸法
 62
     0
 48
50.0
370
    -2
100
AcDbLine
 10
8965.11706615297
 20
6342.054592445482
 30
0.0
 11
11175.11706615295
 21
6342.054592445482
 31
0.0
  0
INSERT
  5
18B05
330
18A20
100
AcDbEntity
  8
寸法
 62
     0
 48
50.0
370
    -2
100
AcDbBlockReference
  2
_DOTSMALL
 10
8965.11706615297
 20
6342.054592445482
 30
0.0
 41
100.0
 42
100.0
 43
100.0
 50
180.0
  0
INSERT
  5
18B06
330
18A20
100
AcDbEntity
  8
寸法
 62
     0
 48
50.0
370
    -2
100
AcDbBlockReference
  2
_DOTSMALL
 10
11175.11706615295
 20
6342.054592445482
 30
0.0
 41
100.0
 42
100.0
 43
100.0
  0
MTEXT
  5
18B07
330
18A20
100
AcDbEntity
  8
寸法
 62
     7
 48
50.0
100
AcDbMText
 10
10068.69849736139
 20
6442.066403469103
 30
0.0
 40
120.0
 41
0.0
 71
     5
 72
     1
  1
\A1;2210
  7
STYLE1
 73
     1
 44
1.0
1001
ACAD
1000
MTEXTBEGIN
1070
    73
1070
     1
1070
    44
1040
1.0
1070
    74
1070
     0
1000
MTEXTEND
  0
POINT
  5
18B08
330
18A20
100
AcDbEntity
  8
DEFPOINTS
 62
     0
 48
50.0
100
AcDbPoint
 10
8965.11706615297
 20
7646.08091797238
 30
0.0
  0
POINT
  5
18B09
330
18A20
100
AcDbEntity
  8
DEFPOINTS
 62
     0
 48
50.0
100
AcDbPoint
 10
11175.11706615295
 20
7646.080917972506
 30
0.0
  0
POINT
  5
18B0A
330
18A20
100
AcDbEntity
  8
DEFPOINTS
 62
     0
 48
50.0
100
AcDbPoint
 10
11175.11706615295
 20
6342.054592445482
 30
0.0
  0
ENDBLK
  5
18A2B
330
18A20
100
AcDbEntity
  8
0
 48
50.0
100
AcDbBlockEnd
  0
ENDSEC
  0
SECTION
  2
ENTITIES
  0
LINE
  5
10B57
330
747D
100
AcDbEntity
  8
補助
  6
PHANTOM
 62
   230
 48
50.0
100
AcDbLine
 10
139.9999999999995
 20
11409.6
 30
0.0
 11
16307.2
 21
11409.6
 31
0.0
  0
LINE
  5
10B59
330
747D
100
AcDbEntity
  8
仕様書枠
  6
Continuous
 48
50.0
100
AcDbLine
 10
13107.2
 20
1200.0
 30
0.0
 11
13107.2
 21
-0.0000000000000729
 31
0.0
  0
LINE
  5
10B5C
330
747D
100
AcDbEntity
  8
仕様書枠
 48
50.0
100
AcDbLine
 10
16307.2
 20
1200.0
 30
0.0
 11
16307.2
 21
-0.0000000000000909
 31
0.0
  0
LINE
  5
10B5D
330
747D
100
AcDbEntity
  8
仕様書枠
 48
50.0
100
AcDbLine
 10
140.0
 20
0.0
 30
0.0
 11
16307.2
 21
-0.0000000000000909
 31
0.0
  0
LINE
  5
10B5E
330
747D
100
AcDbEntity
  8
補助
  6
PHANTOM
 62
   230
 48
50.0
100
AcDbLine
 10
16307.2
 20
11409.6
 30
0.0
 11
16307.2
 21
1200.0
 31
0.0
  0
LINE
  5
10B6C
330
747D
100
AcDbEntity
  8
仕様書枠
 48
50.0
100
AcDbLine
 10
13107.2
 20
1200.0
 30
0.0
 11
16307.2
 21
1200.0
 31
0.0
  0
LINE
  5
10B6D
330
747D
100
AcDbEntity
  8
補助
  6
PHANTOM
 62
   230
 48
50.0
100
AcDbLine
 10
13107.2
 20
11409.6
 30
0.0
 11
13107.2
 21
4800.0
 31
0.0
  0
LINE
  5
10B6F
330
747D
100
AcDbEntity
  8
補助
  6
PHANTOM
 62
   230
 48
50.0
100
AcDbLine
 10
13107.2
 20
4800.0
 30
0.0
 11
16307.2
 21
4800.0
 31
0.0
  0
LINE
  5
10B72
330
747D
100
AcDbEntity
  8
文字
 62
     7
 48
50.0
100
AcDbLine
 10
13187.2
 20
400.0
 30
0.0
 11
16227.2
 21
400.0
 31
0.0
  0
TEXT
  5
10B73
330
747D
100
AcDbEntity
  8
文字
 62
     7
 48
50.0
100
AcDbText
 10
13162.9790565769
 20
895.0906074299405
 30
0.0
 40
200.0
  1
外 形 図
  7
STYLE2
100
AcDbText
  0
TEXT
  5
10B74
330
747D
100
AcDbEntity
  8
文字
 62
     7
 48
50.0
100
AcDbText
 10
13201.43669998441
 20
477.2740661031255
 30
0.0
 40
160.0
  1
機種名
  7
STYLE2
100
AcDbText
  0
TEXT
  5
10B76
330
747D
100
AcDbEntity
  8
文字
 62
     7
 48
50.0
100
AcDbText
 10
13209.4053442172
 20
76.09434707649343
 30
0.0
 40
100.0
  1
○床面積 ： 5.05㎡(1.53坪) 　
  7
STYLE2
100
AcDbText
  0
TEXT
  5
10B79
330
747D
100
AcDbEntity
  8
文字
 62
     7
 48
50.0
100
AcDbText
 10
14524.131837222
 20
1031.557706291228
 30
0.0
 40
100.0
  1
NO.17      <縮尺> S=1/40
  7
STYLE2
100
AcDbText
  0
LINE
  5
10B7B
330
747D
100
AcDbEntity
  8
仕様書枠
 48
50.0
100
AcDbLine
 10
13107.2
 20
800.0
 30
0.0
 11
14251.2
 21
800.0
 31
0.0
  0
LINE
  5
10B88
330
747D
100
AcDbEntity
  8
仕様書枠
  6
Continuous
 48
50.0
100
AcDbLine
 10
14251.2
 20
1200.0
 30
0.0
 11
14251.2
 21
800.0
 31
0.0
  0
TEXT
  5
154D3
330
747D
100
AcDbEntity
  8
文字
 62
     7
 48
50.0
100
AcDbText
 10
14643.63059855437
 20
863.0097378581719
 30
0.0
 40
100.0
  1
～一般型・多雪地型～
  7
STYLE2
100
AcDbText
  0
LINE
  5
1683F
330
747D
100
AcDbEntity
  8
部品1
100
AcDbLine
 10
11147.11706615298
 20
8541.080917972555
 30
0.0
 11
11175.11706615298
 21
8541.080917972555
 31
0.0
  0
LINE
  5
16840
330
747D
100
AcDbEntity
  8
部品1
100
AcDbLine
 10
8993.117066152956
 20
8541.080917972427
 30
0.0
 11
8965.117066152956
 21
8541.080917972427
 31
0.0
  0
LINE
  5
16841
330
747D
100
AcDbEntity
  8
部品1
 48
50.0
100
AcDbLine
 10
11118.61706615296
 20
8541.080917972555
 30
0.0
 11
9021.617066152961
 21
8541.080917972642
 31
0.0
  0
LINE
  5
16842
330
747D
100
AcDbEntity
  8
部品1
100
AcDbLine
 10
6855.520036815711
 20
2431.026906074273
 30
0.0
 11
6863.020036815715
 21
2431.026906074273
 31
0.0
  0
LINE
  5
16843
330
747D
100
AcDbEntity
  8
部品1
100
AcDbLine
 10
4700.520036815711
 20
2431.026906074273
 30
0.0
 11
6815.520036815711
 21
2431.026906074273
 31
0.0
  0
LINE
  5
16844
330
747D
100
AcDbEntity
  8
部品1
100
AcDbLine
 10
5582.565023172674
 20
4937.777388374245
 30
0.0
 11
5908.020036815711
 21
4920.259329415383
 31
0.0
  0
ARC
  5
16845
330
747D
100
AcDbEntity
  8
部品1
100
AcDbCircle
 10
6928.647572629654
 20
4645.050663340064
 30
0.0
 40
0.7
100
AcDbArc
 50
275.0921697642102
 51
354.1866997666569
  0
ARC
  5
16846
330
747D
100
AcDbEntity
  8
部品1
100
AcDbCircle
 10
6939.506918378973
 20
4722.093918157987
 30
0.0
 40
0.7
100
AcDbArc
 50
275.0921697642102
 51
354.1866997665532
  0
ARC
  5
16847
330
747D
100
AcDbEntity
  8
部品1
100
AcDbCircle
 10
6939.835323621576
 20
4718.408521300898
 30
0.0
 40
3.0
100
AcDbArc
 50
95.09216976441781
 51
174.1866997665532
  0
ARC
  5
16848
330
747D
100
AcDbEntity
  8
部品1
100
AcDbCircle
 10
6928.97597787225
 20
4641.365266482973
 30
0.0
 40
3.0
100
AcDbArc
 50
95.0921697642102
 51
174.1866997665532
  0
ARC
  5
16849
330
747D
100
AcDbEntity
  8
部品1
 48
50.0
100
AcDbCircle
 10
6917.947842597145
 20
4631.774521879091
 30
0.0
 40
7.0
100
AcDbArc
 50
267.8377559869492
 51
354.1866997665532
  0
ARC
  5
1684A
330
747D
100
AcDbEntity
  8
部品1
 48
50.0
100
AcDbCircle
 10
6935.269939061661
 20
4742.677069021265
 30
0.0
 40
7.0
100
AcDbArc
 50
354.1866997665532
 51
87.03587545303909
  0
LINE
  5
1684B
330
747D
100
AcDbEntity
  8
部品1
 48
50.0
100
AcDbLine
 10
6925.991406201642
 20
4641.669128199875
 30
0.0
 11
6924.911843161901
 21
4631.065511206318
 31
0.0
  0
LINE
  5
1684C
330
747D
100
AcDbEntity
  8
部品1
 48
50.0
100
AcDbLine
 10
6936.850751950963
 20
4718.712383017801
 30
0.0
 11
6929.343972686126
 21
4644.979762272789
 31
0.0
  0
LINE
  5
1684D
330
747D
100
AcDbEntity
  8
部品1
 48
50.0
100
AcDbLine
 10
6942.233939626416
 20
4741.968058348489
 30
0.0
 11
6940.203318435447
 21
4722.023017090708
 31
0.0
  0
ARC
  5
1684E
330
747D
100
AcDbEntity
  8
部品1
100
AcDbCircle
 10
4599.057128687078
 20
4684.841065033174
 30
0.0
 40
0.7
100
AcDbArc
 50
181.0932240293156
 51
260.187754031489
  0
ARC
  5
1684F
330
747D
100
AcDbEntity
  8
部品1
100
AcDbCircle
 10
4594.284455089467
 20
4777.706843233294
 30
0.0
 40
0.7
100
AcDbArc
 50
181.0932240292114
 51
260.187754031489
  0
ARC
  5
16850
330
747D
100
AcDbEntity
  8
部品1
100
AcDbCircle
 10
4593.653900686446
 20
4774.060968695896
 30
0.0
 40
3.0
100
AcDbArc
 50
1.093224029315636
 51
80.18775403148891
  0
ARC
  5
16851
330
747D
100
AcDbEntity
  8
部品1
100
AcDbCircle
 10
4598.426574284053
 20
4681.195190495778
 30
0.0
 40
3.0
100
AcDbArc
 50
1.093224029315636
 51
80.18775403148891
  0
ARC
  5
16852
330
747D
100
AcDbEntity
  8
部品1
 48
50.0
100
AcDbCircle
 10
4608.626706659253
 20
4670.802947113298
 30
0.0
 40
7.0
100
AcDbArc
 50
181.0932240293156
 51
267.8377559869492
  0
ARC
  5
16853
330
747D
100
AcDbEntity
  8
部品1
 48
50.0
100
AcDbCircle
 10
4600.203048557157
 20
4797.754006646392
 30
0.0
 40
7.0
100
AcDbArc
 50
87.03587545303909
 51
181.0932240293156
  0
LINE
  5
16854
330
747D
100
AcDbEntity
  8
部品1
 48
50.0
100
AcDbLine
 10
4601.426028210481
 20
4681.25242809896
 30
0.0
 11
4601.627980830913
 21
4670.669392705869
 31
0.0
  0
LINE
  5
16855
330
747D
100
AcDbEntity
  8
細線
 48
50.0
100
AcDbLine
 10
4598.819935153811
 20
4684.182476217769
 30
0.0
 11
6928.82359958445
 21
4644.373157243277
 31
0.0
  0
LINE
  5
16856
330
747D
100
AcDbEntity
  8
細線
 48
50.0
100
AcDbLine
 10
4594.059459916524
 20
4777.043987915632
 30
0.0
 11
6939.695444661696
 21
4721.419783274805
 31
0.0
  0
LINE
  5
16857
330
747D
100
AcDbEntity
  8
部品1
 48
50.0
100
AcDbLine
 10
4596.653354612875
 20
4774.118206299081
 30
0.0
 11
4598.35725610424
 21
4684.827709592433
 31
0.0
  0
LINE
  5
16858
330
747D
100
AcDbEntity
  8
部品1
 48
50.0
100
AcDbLine
 10
4593.204322728817
 20
4797.620452238963
 30
0.0
 11
4593.58458250663
 21
4777.693487792553
 31
0.0
  0
LINE
  5
16859
330
747D
100
AcDbEntity
  8
細線
 48
50.0
100
AcDbLine
 10
6910.020036815715
 20
4750.993885109568
 30
0.0
 11
6905.272353927715
 21
4625.248112618822
 31
0.0
  0
LINE
  5
1685A
330
747D
100
AcDbEntity
  8
細線
 48
50.0
100
AcDbLine
 10
4626.020036815711
 20
4803.426582449676
 30
0.0
 11
4620.730935260204
 21
4663.340949822322
 31
0.0
  0
LINE
  5
1685B
330
747D
100
AcDbEntity
  8
部品1
100
AcDbLine
 10
4608.362601417664
 20
4663.807931143238
 30
0.0
 11
6917.683737355559
 21
4624.779505909033
 31
0.0
  0
LINE
  5
1685C
330
747D
100
AcDbEntity
  8
部品1
100
AcDbLine
 10
4600.565023172674
 20
4804.744641408539
 30
0.0
 11
6935.631913677176
 21
4749.66770378341
 31
0.0
  0
LINE
  5
1685D
330
747D
100
AcDbEntity
  8
部品1
 48
50.0
100
AcDbLine
 10
5608.020036815712
 20
4936.459329415382
 30
0.0
 11
5908.020036815711
 21
4936.459329415382
 31
0.0
  0
LINE
  5
1685E
330
747D
100
AcDbEntity
  8
部品1
 48
50.0
100
AcDbLine
 10
5908.020036815711
 20
4936.459329415382
 30
0.0
 11
5908.020036815711
 21
4920.259329415383
 31
0.0
  0
TEXT
  5
1685F
330
747D
100
AcDbEntity
  8
部品1
 48
50.0
100
AcDbText
 10
5596.287872039439
 20
4972.343351567815
 30
0.0
 40
120.0
  1
1000
  7
STYLE1
100
AcDbText
  0
TEXT
  5
16860
330
747D
100
AcDbEntity
  8
部品1
 48
50.0
100
AcDbText
 10
6073.920894704528
 20
4834.842093349532
 30
0.0
 40
120.0
  1
44
 50
90.0
  7
STYLE1
100
AcDbText
  0
LINE
  5
16861
330
747D
100
AcDbEntity
  8
細線
 48
50.0
100
AcDbLine
 10
6045.520036815715
 20
4571.026906074272
 30
0.0
 11
6045.520036815715
 21
2481.026906074272
 31
0.0
  0
LINE
  5
16862
330
747D
100
AcDbEntity
  8
細線
 48
50.0
100
AcDbLine
 10
6030.520036815715
 20
4571.026906074272
 30
0.0
 11
6030.520036815715
 21
2481.026906074272
 31
0.0
  0
LINE
  5
16863
330
747D
100
AcDbEntity
  8
細線
 48
50.0
100
AcDbLine
 10
6170.520036815715
 20
4571.026906074272
 30
0.0
 11
6170.520036815715
 21
2481.026906074272
 31
0.0
  0
LINE
  5
16864
330
747D
100
AcDbEntity
  8
細線
 48
50.0
100
AcDbLine
 10
6185.520036815715
 20
4571.026906074272
 30
0.0
 11
6185.520036815715
 21
2481.026906074272
 31
0.0
  0
LINE
  5
16865
330
747D
100
AcDbEntity
  8
細線
 48
50.0
100
AcDbLine
 10
6325.520036815714
 20
4571.026906074272
 30
0.0
 11
6325.520036815714
 21
2481.026906074272
 31
0.0
  0
LINE
  5
16866
330
747D
100
AcDbEntity
  8
細線
 48
50.0
100
AcDbLine
 10
6310.520036815715
 20
4571.026906074272
 30
0.0
 11
6310.520036815715
 21
2481.026906074272
 31
0.0
  0
LINE
  5
16867
330
747D
100
AcDbEntity
  8
部品1
100
AcDbLine
 10
6388.020036815711
 20
4571.026906074272
 30
0.0
 11
6388.020036815711
 21
2481.026906074272
 31
0.0
  0
LINE
  5
16868
330
747D
100
AcDbEntity
  8
部品1
100
AcDbLine
 10
4653.020036815711
 20
4571.026906074272
 30
0.0
 11
6863.020036815713
 21
4571.026906074272
 31
0.0
  0
LINE
  5
16869
330
747D
100
AcDbEntity
  8
部品1
100
AcDbLine
 10
4653.020036815711
 20
2481.026906074272
 30
0.0
 11
6863.020036815715
 21
2481.026906074272
 31
0.0
  0
LINE
  5
1686A
330
747D
100
AcDbEntity
  8
部品1
100
AcDbLine
 10
4708.020036815711
 20
4571.026906074272
 30
0.0
 11
4708.020036815711
 21
2481.026906074272
 31
0.0
  0
LINE
  5
1686B
330
747D
100
AcDbEntity
  8
部品1
100
AcDbLine
 10
4653.020036815711
 20
4662.885425516519
 30
0.0
 11
4653.020036815711
 21
2331.026906074272
 31
0.0
  0
LINE
  5
1686C
330
747D
100
AcDbEntity
  8
部品1
100
AcDbLine
 10
5128.020036815711
 20
4571.026906074272
 30
0.0
 11
5128.020036815711
 21
2481.026906074272
 31
0.0
  0
LINE
  5
1686D
330
747D
100
AcDbEntity
  8
部品1
100
AcDbLine
 10
6863.020036815711
 20
4625.703343705492
 30
0.0
 11
6863.020036815715
 21
2331.026906074272
 31
0.0
  0
LINE
  5
1686E
330
747D
100
AcDbEntity
  8
部品1
100
AcDbLine
 10
6808.020036815715
 20
4571.026906074272
 30
0.0
 11
6808.020036815715
 21
2481.026906074272
 31
0.0
  0
DIMENSION
  5
1686F
330
747D
100
AcDbEntity
  8
寸法
100
AcDbDimension
  2
*D2
 10
7423.126660757301
 20
4751.026906074272
 30
0.0
 11
7423.126660757301
 21
3591.026906074271
 31
0.0
 70
   160
 71
     5
 42
2320.000000000002
  3
INABA_S40G
100
AcDbAlignedDimension
 13
6940.020036815714
 23
2431.026906074271
 33
0.0
 14
6943.020036815712
 24
4751.026906074272
 34
0.0
 50
90.0
100
AcDbRotatedDimension
1001
ACAD
1000
DSTYLE
1002
{
1070
   174
1070
     0
1070
   272
1070
     1
1070
   288
1070
     0
1070
   341
1005
0
1002
}
  0
DIMENSION
  5
16870
330
747D
100
AcDbEntity
  8
寸法
 48
50.0
100
AcDbDimension
  2
*D3
 10
4653.020036815711
 20
5204.684359653576
 30
0.0
 11
5747.664773886224
 21
5204.684359653576
 31
0.0
 70
   160
  1
柱外寸法<>
 71
     5
 42
2210.0
  3
INABA_S40G
100
AcDbAlignedDimension
 13
6863.020036815711
 23
4752.837585685924
 33
0.0
 14
4653.020036815711
 24
4802.028524197249
 34
0.0
100
AcDbRotatedDimension
1001
ACAD
1000
DSTYLE
1002
{
1070
   174
1070
     0
1070
   272
1070
     1
1070
   288
1070
     0
1070
   341
1005
0
1002
}
  0
DIMENSION
  5
16871
330
747D
100
AcDbEntity
  8
寸法
 48
50.0
100
AcDbDimension
  2
*D4
 10
4593.020036815711
 20
5204.684359653576
 30
0.0
 11
4283.38224154012
 21
5204.684359653576
 31
0.0
 70
   160
 71
     5
 42
60.0
  3
INABA_S40G
100
AcDbAlignedDimension
 13
4653.020036815711
 23
4802.028524197249
 33
0.0
 14
4593.020036815711
 24
4806.026906074276
 34
0.0
100
AcDbRotatedDimension
1001
ACAD
1000
DSTYLE
1002
{
1070
   174
1070
     0
1070
   272
1070
     1
1070
   288
1070
     0
1070
   341
1005
0
1002
}
  0
DIMENSION
  5
16872
330
747D
100
AcDbEntity
  8
寸法
 48
50.0
100
AcDbDimension
  2
*D5
 10
4593.020036815711
 20
5423.886193327867
 30
0.0
 11
5827.363890908181
 21
5423.886193327867
 31
0.0
 70
   160
 71
     5
 42
2350.0
  3
INABA_S40G
100
AcDbAlignedDimension
 13
6943.020036815712
 23
4751.026906074272
 33
0.0
 14
4593.020036815711
 24
4806.026906074276
 34
0.0
100
AcDbRotatedDimension
1001
ACAD
1000
DSTYLE
1002
{
1070
   174
1070
     0
1070
   272
1070
     1
1070
   288
1070
     0
1070
   341
1005
0
1002
}
  0
LINE
  5
16873
330
747D
100
AcDbEntity
  8
部品1
100
AcDbLine
 10
4653.020036815711
 20
2431.026906074273
 30
0.0
 11
4660.520036815711
 21
2431.026906074273
 31
0.0
  0
LINE
  5
16874
330
747D
100
AcDbEntity
  8
細線
 48
50.0
100
AcDbLine
 10
5205.520036815711
 20
4571.026906074272
 30
0.0
 11
5205.520036815711
 21
2481.026906074272
 31
0.0
  0
LINE
  5
16875
330
747D
100
AcDbEntity
  8
細線
 48
50.0
100
AcDbLine
 10
5190.520036815711
 20
4571.026906074272
 30
0.0
 11
5190.520036815711
 21
2481.026906074272
 31
0.0
  0
LINE
  5
16876
330
747D
100
AcDbEntity
  8
細線
 48
50.0
100
AcDbLine
 10
5330.520036815711
 20
4571.026906074272
 30
0.0
 11
5330.520036815711
 21
2481.026906074272
 31
0.0
  0
LINE
  5
16877
330
747D
100
AcDbEntity
  8
細線
 48
50.0
100
AcDbLine
 10
5345.520036815711
 20
4571.026906074272
 30
0.0
 11
5345.520036815711
 21
2481.026906074272
 31
0.0
  0
LINE
  5
16878
330
747D
100
AcDbEntity
  8
細線
 48
50.0
100
AcDbLine
 10
5485.520036815711
 20
4571.026906074272
 30
0.0
 11
5485.520036815711
 21
2481.026906074272
 31
0.0
  0
LINE
  5
16879
330
747D
100
AcDbEntity
  8
細線
 48
50.0
100
AcDbLine
 10
5470.520036815711
 20
4571.026906074272
 30
0.0
 11
5470.520036815711
 21
2481.026906074272
 31
0.0
  0
LINE
  5
1687A
330
747D
100
AcDbEntity
  8
細線
 48
50.0
100
AcDbLine
 10
5050.520036815711
 20
4571.026906074272
 30
0.0
 11
5050.520036815711
 21
2481.026906074272
 31
0.0
  0
LINE
  5
1687B
330
747D
100
AcDbEntity
  8
細線
 48
50.0
100
AcDbLine
 10
5065.520036815711
 20
4571.026906074272
 30
0.0
 11
5065.520036815711
 21
2481.026906074272
 31
0.0
  0
LINE
  5
1687C
330
747D
100
AcDbEntity
  8
細線
 48
50.0
100
AcDbLine
 10
4925.520036815711
 20
4571.026906074272
 30
0.0
 11
4925.520036815711
 21
2481.026906074272
 31
0.0
  0
LINE
  5
1687D
330
747D
100
AcDbEntity
  8
細線
 48
50.0
100
AcDbLine
 10
4910.520036815711
 20
4571.026906074272
 30
0.0
 11
4910.520036815711
 21
2481.026906074272
 31
0.0
  0
LINE
  5
1687E
330
747D
100
AcDbEntity
  8
細線
 48
50.0
100
AcDbLine
 10
4770.520036815711
 20
4571.026906074272
 30
0.0
 11
4770.520036815711
 21
2481.026906074272
 31
0.0
  0
LINE
  5
1687F
330
747D
100
AcDbEntity
  8
細線
 48
50.0
100
AcDbLine
 10
4785.520036815711
 20
4571.026906074272
 30
0.0
 11
4785.520036815711
 21
2481.026906074272
 31
0.0
  0
DIMENSION
  5
16880
330
747D
100
AcDbEntity
  8
寸法
 48
50.0
100
AcDbDimension
  2
*D6
 10
6943.020036815712
 20
5204.684359653576
 30
0.0
 11
7149.067280910202
 21
5204.684359653576
 31
0.0
 70
   160
 71
     5
 42
80.0
  3
INABA_S40G
100
AcDbAlignedDimension
 13
6863.020036815711
 23
4752.837585685924
 33
0.0
 14
6943.020036815712
 24
4751.026906074272
 34
0.0
100
AcDbRotatedDimension
1001
ACAD
1000
DSTYLE
1002
{
1070
   174
1070
     0
1070
   272
1070
     1
1070
   288
1070
     0
1070
   341
1005
0
1002
}
  0
LINE
  5
16881
330
747D
100
AcDbEntity
  8
部品1
100
AcDbLine
 10
5548.020036815711
 20
4571.026906074272
 30
0.0
 11
5548.020036815711
 21
2481.026906074272
 31
0.0
  0
LINE
  5
16882
330
747D
100
AcDbEntity
  8
細線
 48
50.0
100
AcDbLine
 10
5890.520036815715
 20
4571.026906074272
 30
0.0
 11
5890.520036815715
 21
2481.026906074272
 31
0.0
  0
LINE
  5
16883
330
747D
100
AcDbEntity
  8
細線
 48
50.0
100
AcDbLine
 10
5905.520036815715
 20
4571.026906074272
 30
0.0
 11
5905.520036815715
 21
2481.026906074272
 31
0.0
  0
LINE
  5
16884
330
747D
100
AcDbEntity
  8
細線
 48
50.0
100
AcDbLine
 10
5765.520036815715
 20
4571.026906074272
 30
0.0
 11
5765.520036815715
 21
2481.026906074272
 31
0.0
  0
LINE
  5
16885
330
747D
100
AcDbEntity
  8
細線
 48
50.0
100
AcDbLine
 10
5750.520036815714
 20
4571.026906074272
 30
0.0
 11
5750.520036815714
 21
2481.026906074272
 31
0.0
  0
LINE
  5
16886
330
747D
100
AcDbEntity
  8
細線
 48
50.0
100
AcDbLine
 10
5610.520036815715
 20
4571.026906074272
 30
0.0
 11
5610.520036815715
 21
2481.026906074272
 31
0.0
  0
LINE
  5
16887
330
747D
100
AcDbEntity
  8
細線
 48
50.0
100
AcDbLine
 10
5625.520036815714
 20
4571.026906074272
 30
0.0
 11
5625.520036815714
 21
2481.026906074272
 31
0.0
  0
LINE
  5
16888
330
747D
100
AcDbEntity
  8
部品1
100
AcDbLine
 10
5968.020036815711
 20
4571.026906074272
 30
0.0
 11
5968.020036815711
 21
2481.026906074272
 31
0.0
  0
LINE
  5
16889
330
747D
100
AcDbEntity
  8
細線
 48
50.0
100
AcDbLine
 10
6465.520036815718
 20
4571.026906074272
 30
0.0
 11
6465.520036815718
 21
2481.026906074272
 31
0.0
  0
LINE
  5
1688A
330
747D
100
AcDbEntity
  8
細線
 48
50.0
100
AcDbLine
 10
6450.520036815719
 20
4571.026906074272
 30
0.0
 11
6450.520036815719
 21
2481.026906074272
 31
0.0
  0
LINE
  5
1688B
330
747D
100
AcDbEntity
  8
細線
 48
50.0
100
AcDbLine
 10
6590.520036815718
 20
4571.026906074272
 30
0.0
 11
6590.520036815718
 21
2481.026906074272
 31
0.0
  0
LINE
  5
1688C
330
747D
100
AcDbEntity
  8
細線
 48
50.0
100
AcDbLine
 10
6605.520036815718
 20
4571.026906074272
 30
0.0
 11
6605.520036815718
 21
2481.026906074272
 31
0.0
  0
LINE
  5
1688D
330
747D
100
AcDbEntity
  8
細線
 48
50.0
100
AcDbLine
 10
6745.520036815718
 20
4571.026906074272
 30
0.0
 11
6745.520036815718
 21
2481.026906074272
 31
0.0
  0
LINE
  5
1688E
330
747D
100
AcDbEntity
  8
細線
 48
50.0
100
AcDbLine
 10
6730.520036815718
 20
4571.026906074272
 30
0.0
 11
6730.520036815718
 21
2481.026906074272
 31
0.0
  0
TEXT
  5
1688F
330
747D
100
AcDbEntity
  8
部品1
100
AcDbText
 10
5465.730805125098
 20
1449.095113878336
 30
0.0
 40
135.0
  1
側面図
  7
STYLE2
100
AcDbText
  0
LINE
  5
16890
330
747D
100
AcDbEntity
  8
部品1
100
AcDbLine
 10
5376.28470370149
 20
1641.988643096861
 30
0.0
 11
5376.28470370149
 21
1402.096321551329
 31
0.0
  0
LINE
  5
16891
330
747D
100
AcDbEntity
  8
部品1
100
AcDbLine
 10
5376.28470370149
 20
1402.096321551329
 30
0.0
 11
6139.755369929932
 21
1402.096321551329
 31
0.0
  0
LINE
  5
16892
330
747D
100
AcDbEntity
  8
部品1
100
AcDbLine
 10
6139.755369929932
 20
1402.096321551329
 30
0.0
 11
6139.755369929932
 21
1641.988643096861
 31
0.0
  0
LINE
  5
16893
330
747D
100
AcDbEntity
  8
部品1
100
AcDbLine
 10
6139.755369929932
 20
1641.988643096861
 30
0.0
 11
5376.28470370149
 21
1641.988643096861
 31
0.0
  0
LINE
  5
16894
330
747D
100
AcDbEntity
  8
部品1
100
AcDbLine
 10
4653.020036815711
 20
2431.026906074273
 30
0.0
 11
4660.520036815711
 21
2431.026906074273
 31
0.0
  0
DIMENSION
  5
16895
330
747D
100
AcDbEntity
  8
寸法
100
AcDbDimension
  2
*D7
 10
4029.367327657413
 20
2481.026906074272
 30
0.0
 11
4029.367327657413
 21
3526.026906074272
 31
0.0
 70
   160
 71
     5
 42
2090.0
  3
INABA_S40G
100
AcDbAlignedDimension
 13
4653.020036815711
 23
4571.026906074272
 33
0.0
 14
4653.020036815711
 24
2481.026906074272
 34
0.0
 50
90.0
100
AcDbRotatedDimension
1001
ACAD
1000
DSTYLE
1002
{
1070
   174
1070
     0
1070
   272
1070
     1
1070
   288
1070
     0
1070
   341
1005
0
1002
}
  0
DIMENSION
  5
16896
330
747D
100
AcDbEntity
  8
寸法
100
AcDbDimension
  2
*D8
 10
3744.380654886354
 20
4806.026906074276
 30
0.0
 11
3744.380654886352
 21
3526.026906074272
 31
0.0
 70
   160
 71
     5
 42
2375.000000000003
  3
INABA_S40G
100
AcDbAlignedDimension
 13
4653.020036815711
 23
2431.026906074273
 33
0.0
 14
4593.020036815711
 24
4806.026906074276
 34
0.0
 50
90.0
100
AcDbRotatedDimension
1001
ACAD
1000
DSTYLE
1002
{
1070
   174
1070
     0
1070
   272
1070
     1
1070
   288
1070
     0
1070
   341
1005
0
1002
}
  0
DIMENSION
  5
16897
330
747D
100
AcDbEntity
  8
寸法
100
AcDbDimension
  2
*D9
 10
3744.380654886353
 20
2331.026906074272
 30
0.0
 11
3744.380654886352
 21
2094.979661979778
 31
0.0
 70
   160
 71
     5
 42
100.0
  3
INABA_S40G
100
AcDbAlignedDimension
 13
4598.020036815711
 23
2431.026906074273
 33
0.0
 14
4029.367327657413
 24
2331.026906074272
 34
0.0
 50
90.0
100
AcDbRotatedDimension
1001
ACAD
1000
DSTYLE
1002
{
1070
   174
1070
     0
1070
   272
1070
     1
1070
   288
1070
     0
1070
   341
1005
0
1002
}
  0
DIMENSION
  5
16898
330
747D
100
AcDbEntity
  8
寸法
100
AcDbDimension
  2
*D10
 10
4029.367327657413
 20
2431.026906074273
 30
0.0
 11
4029.367327657413
 21
2124.979661979778
 31
0.0
 70
   160
 71
     5
 42
50.0
  3
INABA_S40G
100
AcDbAlignedDimension
 13
4653.020036815711
 23
2481.026906074272
 33
0.0
 14
4598.020036815711
 24
2431.026906074273
 34
0.0
 50
90.0
100
AcDbRotatedDimension
1001
ACAD
1000
DSTYLE
1002
{
1070
   174
1070
     0
1070
   272
1070
     1
1070
   288
1070
     0
1070
   341
1005
0
1002
}
  0
LINE
  5
16899
330
747D
100
AcDbEntity
  8
破線
  6
HIDDEN
 48
5.0
100
AcDbLine
 10
6870.520036815711
 20
2176.026906074272
 30
0.0
 11
6800.520036815711
 21
2176.026906074272
 31
0.0
  0
LINE
  5
1689A
330
747D
100
AcDbEntity
  8
破線
  6
HIDDEN
 48
5.0
100
AcDbLine
 10
6815.520036815711
 20
2326.026906074272
 30
0.0
 11
6800.520036815711
 21
2178.326906074271
 31
0.0
  0
LINE
  5
1689B
330
747D
100
AcDbEntity
  8
破線
  6
HIDDEN
 48
5.0
100
AcDbLine
 10
6800.520036815711
 20
2178.326906074271
 30
0.0
 11
6800.520036815711
 21
2176.026906074272
 31
0.0
  0
LINE
  5
1689C
330
747D
100
AcDbEntity
  8
破線
  6
HIDDEN
 48
5.0
100
AcDbLine
 10
6855.520036815711
 20
2326.026906074272
 30
0.0
 11
6870.520036815711
 21
2178.326906074271
 31
0.0
  0
LINE
  5
1689D
330
747D
100
AcDbEntity
  8
破線
  6
HIDDEN
 48
5.0
100
AcDbLine
 10
6870.520036815711
 20
2178.326906074271
 30
0.0
 11
6870.520036815711
 21
2176.026906074272
 31
0.0
  0
LINE
  5
1689E
330
747D
100
AcDbEntity
  8
破線
  6
HIDDEN
 48
5.0
100
AcDbLine
 10
4645.520036815711
 20
2176.026906074272
 30
0.0
 11
4715.520036815711
 21
2176.026906074272
 31
0.0
  0
LINE
  5
1689F
330
747D
100
AcDbEntity
  8
破線
  6
HIDDEN
 48
5.0
100
AcDbLine
 10
4645.520036815711
 20
2178.326906074271
 30
0.0
 11
4645.520036815711
 21
2176.026906074272
 31
0.0
  0
LINE
  5
168A0
330
747D
100
AcDbEntity
  8
破線
  6
HIDDEN
 48
5.0
100
AcDbLine
 10
4715.520036815711
 20
2178.326906074271
 30
0.0
 11
4715.520036815711
 21
2176.026906074272
 31
0.0
  0
LINE
  5
168A1
330
747D
100
AcDbEntity
  8
破線
  6
HIDDEN
 48
5.0
100
AcDbLine
 10
4660.520036815711
 20
2326.026906074272
 30
0.0
 11
4645.520036815711
 21
2178.326906074271
 31
0.0
  0
LINE
  5
168A2
330
747D
100
AcDbEntity
  8
破線
  6
HIDDEN
 48
5.0
100
AcDbLine
 10
4700.520036815711
 20
2326.026906074272
 30
0.0
 11
4715.520036815711
 21
2178.326906074271
 31
0.0
  0
LINE
  5
168A3
330
747D
100
AcDbEntity
  8
部品1
 48
50.0
100
AcDbLine
 10
4660.520036815711
 20
2471.026906074272
 30
0.0
 11
4660.520036815711
 21
2331.026906074272
 31
0.0
  0
LINE
  5
168A4
330
747D
100
AcDbEntity
  8
部品1
 48
50.0
100
AcDbLine
 10
4700.520036815711
 20
2471.026906074272
 30
0.0
 11
4700.520036815711
 21
2331.026906074272
 31
0.0
  0
LINE
  5
168A5
330
747D
100
AcDbEntity
  8
部品1
100
AcDbLine
 10
4665.520036815711
 20
2476.026906074273
 30
0.0
 11
4695.520036815711
 21
2476.026906074273
 31
0.0
  0
ARC
  5
168A6
330
747D
100
AcDbEntity
  8
部品1
 48
50.0
100
AcDbCircle
 10
4665.520036815711
 20
2471.026906074272
 30
0.0
 40
5.0
100
AcDbArc
 50
90.0
 51
180.0
  0
ARC
  5
168A7
330
747D
100
AcDbEntity
  8
部品1
 48
50.0
100
AcDbCircle
 10
4695.520036815711
 20
2471.026906074272
 30
0.0
 40
5.0
100
AcDbArc
 50
0.0
 51
90.0
  0
LINE
  5
168A8
330
747D
100
AcDbEntity
  8
部品1
 48
50.0
100
AcDbLine
 10
6815.520036815711
 20
2471.026906074272
 30
0.0
 11
6815.520036815711
 21
2331.026906074272
 31
0.0
  0
LINE
  5
168A9
330
747D
100
AcDbEntity
  8
部品1
 48
50.0
100
AcDbLine
 10
6855.520036815711
 20
2471.026906074272
 30
0.0
 11
6855.520036815711
 21
2331.026906074272
 31
0.0
  0
LINE
  5
168AA
330
747D
100
AcDbEntity
  8
部品1
100
AcDbLine
 10
6850.520036815712
 20
2476.026906074273
 30
0.0
 11
6820.520036815711
 21
2476.026906074273
 31
0.0
  0
ARC
  5
168AB
330
747D
100
AcDbEntity
  8
部品1
 48
50.0
100
AcDbCircle
 10
6820.520036815711
 20
2471.026906074272
 30
0.0
 40
5.0
100
AcDbArc
 50
90.0
 51
180.0
  0
ARC
  5
168AC
330
747D
100
AcDbEntity
  8
部品1
 48
50.0
100
AcDbCircle
 10
6850.520036815712
 20
2471.026906074272
 30
0.0
 40
5.0
100
AcDbArc
 50
0.0
 51
90.0
  0
LINE
  5
168AD
330
747D
100
AcDbEntity
  8
破線
  6
HIDDEN
 48
5.0
100
AcDbLine
 10
6815.520036815711
 20
2331.026906074272
 30
0.0
 11
6815.520036815711
 21
2326.026906074272
 31
0.0
  0
LINE
  5
168AE
330
747D
100
AcDbEntity
  8
破線
  6
HIDDEN
 48
5.0
100
AcDbLine
 10
6855.520036815711
 20
2331.026906074272
 30
0.0
 11
6855.520036815711
 21
2326.026906074272
 31
0.0
  0
LINE
  5
168AF
330
747D
100
AcDbEntity
  8
破線
  6
HIDDEN
 48
5.0
100
AcDbLine
 10
4660.520036815718
 20
2331.026906074272
 30
0.0
 11
4660.520036815718
 21
2326.026906074272
 31
0.0
  0
LINE
  5
168B0
330
747D
100
AcDbEntity
  8
破線
  6
HIDDEN
 48
5.0
100
AcDbLine
 10
4700.520036815711
 20
2331.026906074272
 30
0.0
 11
4700.520036815711
 21
2326.026906074272
 31
0.0
  0
LINE
  5
168B1
330
747D
100
AcDbEntity
  8
部品1
100
AcDbLine
 10
6855.520036815711
 20
2431.026906074273
 30
0.0
 11
6863.020036815715
 21
2431.026906074273
 31
0.0
  0
DIMENSION
  5
168B2
330
747D
100
AcDbEntity
  8
寸法
 48
50.0
100
AcDbDimension
  2
*D11
 10
4032.411630047346
 20
4680.372164947601
 30
0.0
 11
4043.07710530627
 21
5051.218828189306
 31
0.0
 70
   161
 71
     5
 42
141.0000000000018
  3
INABA_S40G
100
AcDbAlignedDimension
 13
4612.41605697429
 23
4804.749654908953
 33
0.0
 14
4608.362601417664
 24
4663.807931143238
 34
0.0
1001
ACAD
1000
DSTYLE
1002
{
1070
   174
1070
     0
1070
   272
1070
     1
1070
   288
1070
     0
1070
   341
1005
0
1002
}
  0
DIMENSION
  5
168B3
330
747D
100
AcDbEntity
  8
寸法
 48
50.0
100
AcDbDimension
  2
*D12
 10
4431.020033569078
 20
2331.026906074271
 30
0.0
 11
4431.020033569077
 21
2231.026906074271
 31
0.0
 70
   160
 71
     5
 42
200.0
  3
INABA_S40G
100
AcDbAlignedDimension
 13
4580.520036815715
 23
2131.026906074271
 33
0.0
 14
4555.52003681571
 24
2331.026906074271
 34
0.0
 50
90.0
100
AcDbRotatedDimension
1001
ACAD
1000
DSTYLE
1002
{
1070
   174
1070
     0
1070
   272
1070
     1
1070
   288
1070
     0
1070
   341
1005
0
1002
}
  0
LINE
  5
168B4
330
747D
100
AcDbEntity
  8
破線
 48
5.0
100
AcDbLine
 10
4780.520036815711
 20
2131.026906074268
 30
0.0
 11
4580.520036815715
 21
2131.026906074268
 31
0.0
  0
LINE
  5
168B5
330
747D
100
AcDbEntity
  8
破線
 48
5.0
100
AcDbLine
 10
4780.520036815711
 20
2331.026906074272
 30
0.0
 11
4780.520036815711
 21
2131.026906074268
 31
0.0
  0
LINE
  5
168B6
330
747D
100
AcDbEntity
  8
破線
 48
5.0
100
AcDbLine
 10
4580.520036815711
 20
2331.026906074272
 30
0.0
 11
4580.520036815715
 21
2131.026906074268
 31
0.0
  0
DIMENSION
  5
168B7
330
747D
100
AcDbEntity
  8
寸法
 48
50.0
100
AcDbDimension
  2
*D13
 10
4580.520036815715
 20
1844.979576773892
 30
0.0
 11
4680.520036815713
 21
1844.979576773892
 31
0.0
 70
   160
 71
     5
 42
199.9999999999963
  3
INABA_S40G
100
AcDbAlignedDimension
 13
4780.520036815711
 23
2131.026906074268
 33
0.0
 14
4580.520036815715
 24
2131.026906074271
 34
0.0
100
AcDbRotatedDimension
  0
LINE
  5
168B8
330
747D
100
AcDbEntity
  8
破線
 48
5.0
100
AcDbLine
 10
6935.520036815718
 20
2331.026906074272
 30
0.0
 11
6935.520036815716
 21
2131.026906074268
 31
0.0
  0
LINE
  5
168B9
330
747D
100
AcDbEntity
  8
破線
 48
5.0
100
AcDbLine
 10
6935.520036815716
 20
2131.026906074268
 30
0.0
 11
6735.520036815718
 21
2131.026906074272
 31
0.0
  0
LINE
  5
168BA
330
747D
100
AcDbEntity
  8
破線
 48
5.0
100
AcDbLine
 10
6735.520036815718
 20
2331.026906074272
 30
0.0
 11
6735.520036815718
 21
2131.026906074272
 31
0.0
  0
LINE
  5
168BB
330
747D
100
AcDbEntity
  8
部品1
 48
50.0
100
AcDbLine
 10
6863.020036815715
 20
4566.026906074272
 30
0.0
 11
6940.020036815714
 21
4556.026906074271
 31
0.0
  0
LINE
  5
168BC
330
747D
100
AcDbEntity
  8
部品1
 48
50.0
100
AcDbLine
 10
6940.020036815714
 20
4556.026906074271
 30
0.0
 11
6940.020036815714
 21
2331.026906074272
 31
0.0
  0
LINE
  5
168BD
330
747D
100
AcDbEntity
  8
部品1
 48
50.0
100
AcDbLine
 10
6940.020036815714
 20
2431.026906074273
 30
0.0
 11
6855.520036815715
 21
2431.026906074273
 31
0.0
  0
LINE
  5
168BE
330
747D
100
AcDbEntity
  8
部品1
100
AcDbLine
 10
6663.020036815712
 20
2431.026906074273
 30
0.0
 11
6663.020036815712
 21
2331.026906074272
 31
0.0
  0
LINE
  5
168C1
330
747D
100
AcDbEntity
  8
部品1
100
AcDbLine
 10
4853.020036815711
 20
2431.026906074273
 30
0.0
 11
4853.020036815711
 21
2331.026906074272
 31
0.0
  0
TEXT
  5
168C2
330
747D
100
AcDbEntity
  8
部品1
100
AcDbText
 10
2861.649681825378
 20
2367.133809680174
 30
0.0
 40
125.0
  1
▽G.L
  7
STYLE2
100
AcDbText
  0
TEXT
  5
168C4
330
747D
100
AcDbEntity
  8
文字
 62
     7
 48
50.0
100
AcDbText
 10
13583.11819016569
 20
8550.013745883731
 30
0.0
 40
100.0
  1
棚板
  7
STYLE1
100
AcDbText
  0
TEXT
  5
168C5
330
747D
100
AcDbEntity
  8
文字
 62
     7
 48
50.0
100
AcDbText
 10
15022.63965474516
 20
8550.013745883727
 30
0.0
 40
100.0
  1
F12            0.6
  7
STYLE1
100
AcDbText
  0
TEXT
  5
168C6
330
747D
100
AcDbEntity
  8
文字
 62
     7
 48
50.0
100
AcDbText
 10
13583.11819016569
 20
9740.013745883729
 30
0.0
 40
100.0
  1
母屋中
  7
STYLE1
100
AcDbText
  0
TEXT
  5
168C7
330
747D
100
AcDbEntity
  8
文字
 62
     7
 48
50.0
100
AcDbText
 10
13248.77747366447
 20
8720.013745883729
 30
0.0
 40
100.0
  1
15
  7
STYLE1
100
AcDbText
  0
LINE
  5
168C8
330
747D
100
AcDbEntity
  8
仕様書枠
 48
50.0
100
AcDbLine
 10
16307.19999999999
 20
8009.600000000004
 30
0.0
 11
13127.19999999999
 21
8009.600000000006
 31
0.0
  0
TEXT
  5
168C9
330
747D
100
AcDbEntity
  8
文字
 62
     7
 48
50.0
100
AcDbText
 10
13583.11819016569
 20
8720.013745883731
 30
0.0
 40
100.0
  1
扉
  7
STYLE1
100
AcDbText
  0
TEXT
  5
168CA
330
747D
100
AcDbEntity
  8
文字
 62
     7
 48
50.0
100
AcDbText
 10
15022.63965474516
 20
8720.013745883727
 30
0.0
 40
100.0
  1
F12            0.8
  7
STYLE1
100
AcDbText
  0
TEXT
  5
168CB
330
747D
100
AcDbEntity
  8
文字
 62
     7
 48
50.0
100
AcDbText
 10
13583.11819016568
 20
8890.013745883731
 30
0.0
 40
100.0
  1
正面パネル
  7
STYLE1
100
AcDbText
  0
TEXT
  5
168CC
330
747D
100
AcDbEntity
  8
文字
 62
     7
 48
50.0
100
AcDbText
 10
15022.63965474515
 20
8890.013745883727
 30
0.0
 40
100.0
  1
F12            0.7
  7
STYLE1
100
AcDbText
  0
TEXT
  5
168CD
330
747D
100
AcDbEntity
  8
文字
 62
     7
 48
50.0
100
AcDbText
 10
15022.63965474517
 20
10590.01374588372
 30
0.0
 40
100.0
  1
F12            1.0
  7
STYLE1
100
AcDbText
  0
TEXT
  5
168CE
330
747D
100
AcDbEntity
  8
文字
 62
     7
 48
50.0
100
AcDbText
 10
15022.63965474516
 20
10930.01374588372
 30
0.0
 40
100.0
  1
F12            1.2
  7
STYLE1
100
AcDbText
  0
TEXT
  5
168CF
330
747D
100
AcDbEntity
  8
文字
 62
     7
 48
50.0
100
AcDbText
 10
13248.77747366448
 20
8890.013745883727
 30
0.0
 40
100.0
  1
14
  7
STYLE1
100
AcDbText
  0
TEXT
  5
168D0
330
747D
100
AcDbEntity
  8
文字
 62
     7
 48
50.0
100
AcDbText
 10
13583.11819016569
 20
10930.01374588372
 30
0.0
 40
100.0
  1
根太
  7
STYLE1
100
AcDbText
  0
TEXT
  5
168D1
330
747D
100
AcDbEntity
  8
文字
 62
     7
 48
50.0
100
AcDbText
 10
13583.1181901657
 20
10590.01374588372
 30
0.0
 40
100.0
  1
床パネル
 41
0.9
  7
STYLE1
100
AcDbText
  0
LINE
  5
168D2
330
747D
100
AcDbEntity
  8
仕様書枠
 48
50.0
100
AcDbLine
 10
16307.19999999999
 20
9029.6
 30
0.0
 11
13127.2
 21
9029.600000000002
 31
0.0
  0
LINE
  5
168D3
330
747D
100
AcDbEntity
  8
仕様書枠
 48
50.0
100
AcDbLine
 10
13127.2
 20
11409.6
 30
0.0
 11
13127.19999999999
 21
8009.600000000006
 31
0.0
  0
TEXT
  5
168D4
330
747D
100
AcDbEntity
  8
文字
 62
     7
 48
50.0
100
AcDbText
 10
13229.83081656554
 20
8040.013745883731
 30
0.0
 40
100.0
  1
Y10→溶融亜鉛-5％アルミニウム合金めっき鋼板(JIS G 3317)
 41
0.9
  7
STYLE1
100
AcDbText
  0
TEXT
  5
168D5
330
747D
100
AcDbEntity
  8
文字
 62
     7
 48
50.0
100
AcDbText
 10
13229.83081656554
 20
8210.013745883733
 30
0.0
 40
100.0
  1
F12→溶融亜鉛めっき鋼板(JIS G 3302)
  7
STYLE1
100
AcDbText
  0
LINE
  5
168D6
330
747D
100
AcDbEntity
  8
仕様書枠
 48
50.0
100
AcDbLine
 10
16307.19999999999
 20
8179.600000000004
 30
0.0
 11
13127.19999999999
 21
8179.600000000005
 31
0.0
  0
LINE
  5
168D7
330
747D
100
AcDbEntity
  8
仕様書枠
 48
50.0
100
AcDbLine
 10
16307.19999999999
 20
8349.600000000004
 30
0.0
 11
13127.19999999999
 21
8349.600000000007
 31
0.0
  0
TEXT
  5
168D8
330
747D
100
AcDbEntity
  8
文字
 62
     7
 48
50.0
100
AcDbText
 10
15022.63965474515
 20
9570.013745883725
 30
0.0
 40
100.0
  1
F12            0.7
  7
STYLE1
100
AcDbText
  0
TEXT
  5
168D9
330
747D
100
AcDbEntity
  8
文字
 62
     7
 48
50.0
100
AcDbText
 10
15022.63965474517
 20
9910.013745883725
 30
0.0
 40
100.0
  1
Y10            0.5
  7
STYLE1
100
AcDbText
  0
TEXT
  5
168DA
330
747D
100
AcDbEntity
  8
文字
 62
     7
 48
50.0
100
AcDbText
 10
15022.63965474516
 20
10080.01374588372
 30
0.0
 40
100.0
  1
Y10            0.7
  7
STYLE1
100
AcDbText
  0
TEXT
  5
168DB
330
747D
100
AcDbEntity
  8
文字
 62
     7
 48
50.0
100
AcDbText
 10
15022.63965474516
 20
10250.01374588372
 30
0.0
 40
100.0
  1
Y10            0.7
  7
STYLE1
100
AcDbText
  0
TEXT
  5
168DC
330
747D
100
AcDbEntity
  8
文字
 62
     7
 48
50.0
100
AcDbText
 10
15022.63965474516
 20
10420.01374588372
 30
0.0
 40
100.0
  1
Y10            1.0
  7
STYLE1
100
AcDbText
  0
TEXT
  5
168DD
330
747D
100
AcDbEntity
  8
文字
 62
     7
 48
50.0
100
AcDbText
 10
15022.63965474518
 20
10760.01374588372
 30
0.0
 40
100.0
  1
F12            1.0
  7
STYLE1
100
AcDbText
  0
TEXT
  5
168DE
330
747D
100
AcDbEntity
  8
文字
 62
     7
 48
50.0
100
AcDbText
 10
15022.63965474517
 20
11100.01374588372
 30
0.0
 40
100.0
  1
F12            1.2
  7
STYLE1
100
AcDbText
  0
TEXT
  5
168DF
330
747D
100
AcDbEntity
  8
文字
 62
     7
 48
50.0
100
AcDbText
 10
13248.77747366448
 20
9230.013745883727
 30
0.0
 40
100.0
  1
12
  7
STYLE1
100
AcDbText
  0
TEXT
  5
168E0
330
747D
100
AcDbEntity
  8
文字
 62
     7
 48
50.0
100
AcDbText
 10
13248.77747366448
 20
9060.013745883727
 30
0.0
 40
100.0
  1
13
  7
STYLE1
100
AcDbText
  0
LINE
  5
168E1
330
747D
100
AcDbEntity
  8
仕様書枠
 48
50.0
100
AcDbLine
 10
16307.19999999999
 20
8859.6
 30
0.0
 11
13127.2
 21
8859.600000000002
 31
0.0
  0
LINE
  5
168E2
330
747D
100
AcDbEntity
  8
仕様書枠
 48
50.0
100
AcDbLine
 10
16307.19999999999
 20
9199.599999999998
 30
0.0
 11
13127.2
 21
9199.600000000001
 31
0.0
  0
TEXT
  5
168E3
330
747D
100
AcDbEntity
  8
文字
 62
     7
 48
50.0
100
AcDbText
 10
13248.77747366447
 20
9400.013745883727
 30
0.0
 40
100.0
  1
11
  7
STYLE1
100
AcDbText
  0
LINE
  5
168E4
330
747D
100
AcDbEntity
  8
仕様書枠
 48
50.0
100
AcDbLine
 10
16307.2
 20
9879.599999999999
 30
0.0
 11
13127.2
 21
9879.600000000001
 31
0.0
  0
LINE
  5
168E5
330
747D
100
AcDbEntity
  8
仕様書枠
 48
50.0
100
AcDbLine
 10
16307.2
 20
10219.6
 30
0.0
 11
13127.2
 21
10219.6
 31
0.0
  0
LINE
  5
168E6
330
747D
100
AcDbEntity
  8
仕様書枠
 48
50.0
100
AcDbLine
 10
16307.19999999999
 20
9539.599999999998
 30
0.0
 11
13127.2
 21
9539.6
 31
0.0
  0
LINE
  5
168E7
330
747D
100
AcDbEntity
  8
仕様書枠
 48
50.0
100
AcDbLine
 10
16307.19999999999
 20
9369.599999999998
 30
0.0
 11
13127.2
 21
9369.600000000001
 31
0.0
  0
LINE
  5
168E8
330
747D
100
AcDbEntity
  8
仕様書枠
 48
50.0
100
AcDbLine
 10
16307.19999999999
 20
9709.6
 30
0.0
 11
13127.2
 21
9709.600000000001
 31
0.0
  0
TEXT
  5
168E9
330
747D
100
AcDbEntity
  8
文字
 62
     7
 48
50.0
100
AcDbText
 10
13271.19032244792
 20
10250.01374588373
 30
0.0
 40
100.0
  1
6
  7
STYLE1
100
AcDbText
  0
TEXT
  5
168EA
330
747D
100
AcDbEntity
  8
文字
 62
     7
 48
50.0
100
AcDbText
 10
13271.19032244792
 20
10080.01374588373
 30
0.0
 40
100.0
  1
7
  7
STYLE1
100
AcDbText
  0
TEXT
  5
168EB
330
747D
100
AcDbEntity
  8
文字
 62
     7
 48
50.0
100
AcDbText
 10
13271.19032244792
 20
9740.013745883729
 30
0.0
 40
100.0
  1
9
  7
STYLE1
100
AcDbText
  0
TEXT
  5
168EC
330
747D
100
AcDbEntity
  8
文字
 62
     7
 48
50.0
100
AcDbText
 10
13271.19032244792
 20
9910.01374588373
 30
0.0
 40
100.0
  1
8
  7
STYLE1
100
AcDbText
  0
TEXT
  5
168ED
330
747D
100
AcDbEntity
  8
文字
 62
     7
 48
50.0
100
AcDbText
 10
13583.11819016569
 20
10080.01374588372
 30
0.0
 40
100.0
  1
鼻隠シ前後
  7
STYLE1
100
AcDbText
  0
TEXT
  5
168EE
330
747D
100
AcDbEntity
  8
文字
 62
     7
 48
50.0
100
AcDbText
 10
13583.11819016569
 20
9910.013745883727
 30
0.0
 40
100.0
  1
屋根パネル
  7
STYLE1
100
AcDbText
  0
TEXT
  5
168EF
330
747D
100
AcDbEntity
  8
文字
 62
     7
 48
50.0
100
AcDbText
 10
13583.11819016568
 20
9570.013745883729
 30
0.0
 40
100.0
  1
壁パネル
  7
STYLE1
100
AcDbText
  0
TEXT
  5
168F0
330
747D
100
AcDbEntity
  8
文字
 62
     7
 48
50.0
100
AcDbText
 10
13248.77747366447
 20
9570.013745883727
 30
0.0
 40
100.0
  1
10
  7
STYLE1
100
AcDbText
  0
TEXT
  5
168F1
330
747D
100
AcDbEntity
  8
文字
 62
     7
 48
50.0
100
AcDbText
 10
13583.11819016569
 20
10250.01374588373
 30
0.0
 40
100.0
  1
妻板左右
  7
STYLE1
100
AcDbText
  0
TEXT
  5
168F2
330
747D
100
AcDbEntity
  8
文字
 62
     7
 48
50.0
100
AcDbText
 10
13271.19032244792
 20
10420.01374588372
 30
0.0
 40
100.0
  1
5
  7
STYLE1
100
AcDbText
  0
TEXT
  5
168F3
330
747D
100
AcDbEntity
  8
文字
 62
     7
 48
50.0
100
AcDbText
 10
13583.11819016569
 20
10420.01374588373
 30
0.0
 40
100.0
  1
桁前後
  7
STYLE1
100
AcDbText
  0
TEXT
  5
168F4
330
747D
100
AcDbEntity
  8
文字
 62
     7
 48
50.0
100
AcDbText
 10
13583.1181901657
 20
10760.01374588372
 30
0.0
 40
100.0
  1
柱
  7
STYLE1
100
AcDbText
  0
TEXT
  5
168F5
330
747D
100
AcDbEntity
  8
文字
 62
     7
 48
50.0
100
AcDbText
 10
13583.11819016569
 20
11100.01374588372
 30
0.0
 40
100.0
  1
土台枠
  7
STYLE1
100
AcDbText
  0
TEXT
  5
168F6
330
747D
100
AcDbEntity
  8
文字
 62
     7
 48
50.0
100
AcDbText
 10
14859.79774614482
 20
11270.01374588372
 30
0.0
 40
100.0
  1
材料（材質）　　単位mm
  7
STYLE1
100
AcDbText
  0
TEXT
  5
168F7
330
747D
100
AcDbEntity
  8
文字
 62
     7
 48
50.0
100
AcDbText
 10
13732.03840939434
 20
11270.01374588372
 30
0.0
 40
100.0
  1
部　　品　　名
  7
STYLE1
100
AcDbText
  0
TEXT
  5
168F8
330
747D
100
AcDbEntity
  8
文字
 62
     7
 48
50.0
100
AcDbText
 10
13271.19032244792
 20
10760.01374588373
 30
0.0
 40
100.0
  1
3
  7
STYLE1
100
AcDbText
  0
TEXT
  5
168F9
330
747D
100
AcDbEntity
  8
文字
 62
     7
 48
50.0
100
AcDbText
 10
13271.19032244792
 20
10590.01374588373
 30
0.0
 40
100.0
  1
4
  7
STYLE1
100
AcDbText
  0
TEXT
  5
168FA
330
747D
100
AcDbEntity
  8
文字
 62
     7
 48
50.0
100
AcDbText
 10
13271.19032244792
 20
10930.01374588373
 30
0.0
 40
100.0
  1
2
  7
STYLE1
100
AcDbText
  0
TEXT
  5
168FB
330
747D
100
AcDbEntity
  8
文字
 62
     7
 48
50.0
100
AcDbText
 10
13271.19032244792
 20
11100.01374588373
 30
0.0
 40
100.0
  1
1
  7
STYLE1
100
AcDbText
  0
TEXT
  5
168FC
330
747D
100
AcDbEntity
  8
文字
 62
     7
 48
50.0
100
AcDbText
 10
13197.42518560407
 20
11270.01374588372
 30
0.0
 40
100.0
  1
品番
  7
STYLE1
100
AcDbText
  0
LINE
  5
168FD
330
747D
100
AcDbEntity
  8
仕様書枠
 48
50.0
100
AcDbLine
 10
16307.19999999999
 20
10729.59999999999
 30
0.0
 11
13127.2
 21
10729.6
 31
0.0
  0
LINE
  5
168FE
330
747D
100
AcDbEntity
  8
仕様書枠
 48
50.0
100
AcDbLine
 10
16307.19999999999
 20
10389.6
 30
0.0
 11
13127.2
 21
10389.6
 31
0.0
  0
LINE
  5
168FF
330
747D
100
AcDbEntity
  8
仕様書枠
 48
50.0
100
AcDbLine
 10
16307.19999999999
 20
10559.6
 30
0.0
 11
13127.2
 21
10559.6
 31
0.0
  0
LINE
  5
16900
330
747D
100
AcDbEntity
  8
仕様書枠
 48
50.0
100
AcDbLine
 10
16307.2
 20
11069.59999999999
 30
0.0
 11
13127.2
 21
11069.6
 31
0.0
  0
LINE
  5
16901
330
747D
100
AcDbEntity
  8
仕様書枠
 48
50.0
100
AcDbLine
 10
16307.2
 20
10899.6
 30
0.0
 11
13127.2
 21
10899.6
 31
0.0
  0
LINE
  5
16902
330
747D
100
AcDbEntity
  8
仕様書枠
 48
50.0
100
AcDbLine
 10
16307.2
 20
11239.59999999999
 30
0.0
 11
13127.2
 21
11239.6
 31
0.0
  0
LINE
  5
16903
330
747D
100
AcDbEntity
  8
仕様書枠
 48
50.0
100
AcDbLine
 10
13490.2
 20
11409.59999999999
 30
0.0
 11
13490.20000000001
 21
8349.600000000007
 31
0.0
  0
LINE
  5
16904
330
747D
100
AcDbEntity
  8
仕様書枠
 48
50.0
100
AcDbLine
 10
14785.2
 20
11409.59999999999
 30
0.0
 11
14785.2
 21
8349.600000000004
 31
0.0
  0
LINE
  5
16905
330
747D
100
AcDbEntity
  8
仕様書枠
 48
50.0
100
AcDbLine
 10
16307.19999999999
 20
8009.600000000004
 30
0.0
 11
16307.2
 21
11409.6
 31
0.0
  0
LINE
  5
16906
330
747D
100
AcDbEntity
  8
仕様書枠
 48
50.0
100
AcDbLine
 10
16307.2
 20
11409.59999999999
 30
0.0
 11
13127.2
 21
11409.6
 31
0.0
  0
LINE
  5
16907
330
747D
100
AcDbEntity
  8
仕様書枠
 48
50.0
100
AcDbLine
 10
16307.2
 20
10049.6
 30
0.0
 11
13127.2
 21
10049.6
 31
0.0
  0
TEXT
  5
16908
330
747D
100
AcDbEntity
  8
文字
 62
     7
 48
50.0
100
AcDbText
 10
15022.63965474515
 20
8380.013745883724
 30
0.0
 40
100.0
  1
F12            2.3
  7
STYLE1
100
AcDbText
  0
TEXT
  5
16909
330
747D
100
AcDbEntity
  8
文字
 62
     7
 48
50.0
100
AcDbText
 10
13583.11819016569
 20
8380.013745883728
 30
0.0
 40
100.0
  1
アンカープレート
  7
STYLE1
100
AcDbText
  0
LINE
  5
1690A
330
747D
100
AcDbEntity
  8
仕様書枠
 48
50.0
100
AcDbLine
 10
16307.19999999999
 20
8519.600000000004
 30
0.0
 11
13127.2
 21
8519.600000000005
 31
0.0
  0
LINE
  5
1690B
330
747D
100
AcDbEntity
  8
仕様書枠
 48
50.0
100
AcDbLine
 10
16307.19999999999
 20
8689.600000000003
 30
0.0
 11
13127.2
 21
8689.600000000005
 31
0.0
  0
TEXT
  5
1690C
330
747D
100
AcDbEntity
  8
文字
 62
     7
 48
50.0
100
AcDbText
 10
13583.11819016569
 20
9400.013745883729
 30
0.0
 40
100.0
  1
壁面扉鴨居
  7
STYLE1
100
AcDbText
  0
TEXT
  5
1690D
330
747D
100
AcDbEntity
  8
文字
 62
     7
 48
50.0
100
AcDbText
 10
13583.11819016569
 20
9230.013745883733
 30
0.0
 40
100.0
  1
壁面扉敷居
  7
STYLE1
100
AcDbText
  0
TEXT
  5
1690E
330
747D
100
AcDbEntity
  8
文字
 62
     7
 48
50.0
100
AcDbText
 10
15022.63965474515
 20
9400.013745883727
 30
0.0
 40
100.0
  1
F12            0.7
  7
STYLE1
100
AcDbText
  0
TEXT
  5
1690F
330
747D
100
AcDbEntity
  8
文字
 62
     7
 48
50.0
100
AcDbText
 10
15022.63965474517
 20
9230.013745883725
 30
0.0
 40
100.0
  1
F12            1.0
  7
STYLE1
100
AcDbText
  0
TEXT
  5
16910
330
747D
100
AcDbEntity
  8
文字
 62
     7
 48
50.0
100
AcDbText
 10
13583.11819016569
 20
9060.013745883733
 30
0.0
 40
100.0
  1
壁面扉枠左右
  7
STYLE1
100
AcDbText
  0
TEXT
  5
16911
330
747D
100
AcDbEntity
  8
文字
 62
     7
 48
50.0
100
AcDbText
 10
15022.63965474517
 20
9060.013745883725
 30
0.0
 40
100.0
  1
F12            1.0
  7
STYLE1
100
AcDbText
  0
TEXT
  5
16912
330
747D
100
AcDbEntity
  8
文字
 62
     7
 48
50.0
100
AcDbText
 10
13248.77747366447
 20
8550.013745883729
 30
0.0
 40
100.0
  1
16
  7
STYLE1
100
AcDbText
  0
TEXT
  5
16913
330
747D
100
AcDbEntity
  8
文字
 62
     7
 48
50.0
100
AcDbText
 10
13248.77747366447
 20
8380.013745883728
 30
0.0
 40
100.0
  1
17
  7
STYLE1
100
AcDbText
  0
TEXT
  5
16914
330
747D
100
AcDbEntity
  8
文字
 62
     7
 48
50.0
100
AcDbText
 10
14798.72402257234
 20
9740.013745883725
 30
0.0
 40
100.0
  1
F12(一般型1.0/多雪地型2.3)
  7
STYLE1
100
AcDbText
  0
MTEXT
  5
16915
330
747D
100
AcDbEntity
  8
寸法
 62
     7
 48
50.0
100
AcDbMText
 10
9645.219603246118
 20
9442.315736169815
 30
0.0
 40
96.0
 41
0.0
 71
     5
 72
     1
  1
棚 3段
  7
STYLE1
 73
     1
 44
1.0
1001
ACAD
1000
MTEXTBEGIN
1070
    73
1070
     1
1070
    44
1040
1.0
1070
    74
1070
     0
1000
MTEXTEND
  0
MTEXT
  5
16916
330
747D
100
AcDbEntity
  8
寸法
 62
     7
 48
50.0
100
AcDbMText
 10
10735.21960324611
 20
9442.315736169861
 30
0.0
 40
96.0
 41
0.0
 71
     5
 72
     1
  1
棚 3段
  7
STYLE1
 73
     1
 44
1.0
1001
ACAD
1000
MTEXTBEGIN
1070
    73
1070
     1
1070
    44
1040
1.0
1070
    74
1070
     0
1000
MTEXTEND
  0
LINE
  5
16917
330
747D
100
AcDbEntity
  8
部品1
100
AcDbLine
 10
10691.11706615297
 20
4801.026906082737
 30
0.0
 11
10691.11706615297
 21
4703.615838574172
 31
0.0
  0
LINE
  5
16918
330
747D
100
AcDbEntity
  8
部品1
100
AcDbLine
 10
10709.11706615297
 20
4801.026906082749
 30
0.0
 11
10709.11706615297
 21
4703.615838574172
 31
0.0
  0
LINE
  5
16919
330
747D
100
AcDbEntity
  8
部品1
 48
50.0
100
AcDbLine
 10
10688.11706615298
 20
4801.026906082749
 30
0.0
 11
10712.11706615298
 21
4801.026906082749
 31
0.0
  0
LINE
  5
1691A
330
747D
100
AcDbEntity
  8
部品1
 48
50.0
100
AcDbLine
 10
10688.11706615298
 20
4801.026906082749
 30
0.0
 11
10686.90572594679
 21
4791.626906082747
 31
0.0
  0
LINE
  5
1691B
330
747D
100
AcDbEntity
  8
部品1
 48
50.0
100
AcDbLine
 10
10672.90572594679
 20
4791.626906082747
 30
0.0
 11
10686.90572594679
 21
4791.626906082747
 31
0.0
  0
LINE
  5
1691C
330
747D
100
AcDbEntity
  8
部品1
 48
50.0
100
AcDbLine
 10
10672.90572594679
 20
4791.626906082747
 30
0.0
 11
10671.61706615298
 21
4781.626906082747
 31
0.0
  0
LINE
  5
1691D
330
747D
100
AcDbEntity
  8
部品1
 48
50.0
100
AcDbLine
 10
10712.11706615298
 20
4801.026906082749
 30
0.0
 11
10714.61706615298
 21
4781.626906082747
 31
0.0
  0
LINE
  5
1691E
330
747D
100
AcDbEntity
  8
部品1
100
AcDbLine
 10
10858.11706615298
 20
4781.626906082747
 30
0.0
 11
10714.61706615298
 21
4781.626906082747
 31
0.0
  0
LINE
  5
1691F
330
747D
100
AcDbEntity
  8
部品1
100
AcDbLine
 10
10931.11706615298
 20
4781.626906082747
 30
0.0
 11
10907.11706615298
 21
4781.626906082747
 31
0.0
  0
LINE
  5
16920
330
747D
100
AcDbEntity
  8
部品1
 48
50.0
100
AcDbLine
 10
10896.61706615298
 20
4801.026906082753
 30
0.0
 11
10907.11706615298
 21
4781.626906082751
 31
0.0
  0
LINE
  5
16921
330
747D
100
AcDbEntity
  8
部品1
 48
50.0
100
AcDbLine
 10
10868.61706615298
 20
4801.026906082753
 30
0.0
 11
10858.11706615298
 21
4781.626906082751
 31
0.0
  0
LINE
  5
16922
330
747D
100
AcDbEntity
  8
部品1
 48
50.0
100
AcDbLine
 10
10868.61706615298
 20
4801.026906082753
 30
0.0
 11
10896.61706615298
 21
4801.026906082753
 31
0.0
  0
LINE
  5
16923
330
747D
100
AcDbEntity
  8
部品1
 48
50.0
100
AcDbLine
 10
10941.61706615298
 20
4801.026906082753
 30
0.0
 11
10931.11706615298
 21
4781.626906082751
 31
0.0
  0
LINE
  5
16924
330
747D
100
AcDbEntity
  8
部品1
 48
50.0
100
AcDbLine
 10
10969.61706615298
 20
4801.026906082753
 30
0.0
 11
10980.11706615298
 21
4781.626906082751
 31
0.0
  0
LINE
  5
16925
330
747D
100
AcDbEntity
  8
部品1
 48
50.0
100
AcDbLine
 10
10941.61706615298
 20
4801.026906082753
 30
0.0
 11
10969.61706615298
 21
4801.026906082753
 31
0.0
  0
LINE
  5
16926
330
747D
100
AcDbEntity
  8
部品1
100
AcDbLine
 10
10895.11706615299
 20
4801.026906082749
 30
0.0
 11
10895.11706615299
 21
4703.615838574176
 31
0.0
  0
LINE
  5
16927
330
747D
100
AcDbEntity
  8
部品1
100
AcDbLine
 10
10870.11706615299
 20
4801.026906082749
 30
0.0
 11
10870.11706615299
 21
4703.615838574176
 31
0.0
  0
LINE
  5
16928
330
747D
100
AcDbEntity
  8
部品1
100
AcDbLine
 10
10943.11706615299
 20
4801.026906082749
 30
0.0
 11
10943.11706615299
 21
4703.615838574176
 31
0.0
  0
LINE
  5
16929
330
747D
100
AcDbEntity
  8
部品1
100
AcDbLine
 10
10968.11706615299
 20
4801.026906082749
 30
0.0
 11
10968.11706615299
 21
4703.615838574176
 31
0.0
  0
LINE
  5
1692A
330
747D
100
AcDbEntity
  8
部品1
100
AcDbLine
 10
11091.61706615298
 20
4781.626906082732
 30
0.0
 11
10980.11706615299
 21
4781.626906082732
 31
0.0
  0
LINE
  5
1692B
330
747D
100
AcDbEntity
  8
部品1
100
AcDbLine
 10
11175.18769414617
 20
4781.62690608274
 30
0.0
 11
11134.61706615296
 21
4781.62690608274
 31
0.0
  0
LINE
  5
1692C
330
747D
100
AcDbEntity
  8
部品1
 48
50.0
100
AcDbLine
 10
11132.11706615296
 20
4801.026906082745
 30
0.0
 11
11134.61706615296
 21
4781.626906082744
 31
0.0
  0
LINE
  5
1692D
330
747D
100
AcDbEntity
  8
部品1
 48
50.0
100
AcDbLine
 10
11092.90572594677
 20
4791.626906082743
 30
0.0
 11
11091.61706615296
 21
4781.626906082744
 31
0.0
  0
LINE
  5
1692E
330
747D
100
AcDbEntity
  8
部品1
 48
50.0
100
AcDbLine
 10
11092.90572594677
 20
4791.626906082743
 30
0.0
 11
11106.90572594677
 21
4791.626906082743
 31
0.0
  0
LINE
  5
1692F
330
747D
100
AcDbEntity
  8
部品1
 48
50.0
100
AcDbLine
 10
11108.11706615296
 20
4801.026906082745
 30
0.0
 11
11106.90572594677
 21
4791.626906082743
 31
0.0
  0
LINE
  5
16930
330
747D
100
AcDbEntity
  8
細線
 48
50.0
100
AcDbLine
 10
11175.18769414617
 20
4722.998738822222
 30
0.0
 11
11223.25093543011
 21
4722.998738822229
 31
0.0
  0
LINE
  5
16931
330
747D
100
AcDbEntity
  8
細線
 48
50.0
100
AcDbLine
 10
11192.62815605724
 20
4751.026906074272
 30
0.0
 11
11192.62815605724
 21
4624.526906074271
 31
0.0
  0
ARC
  5
16932
330
747D
100
AcDbEntity
  8
部品1
100
AcDbCircle
 10
11218.13102233575
 20
4799.02690609117
 30
0.0
 40
7.0
100
AcDbArc
 50
356.3813705198622
 51
90.0
  0
LINE
  5
16933
330
747D
100
AcDbEntity
  8
部品1
100
AcDbLine
 10
11180.18769414617
 20
4806.026906091171
 30
0.0
 11
11218.13102233575
 21
4806.026906091171
 31
0.0
  0
ARC
  5
16934
330
747D
100
AcDbEntity
  8
部品1
100
AcDbCircle
 10
11180.18769414617
 20
4801.02690609117
 30
0.0
 40
5.0
100
AcDbArc
 50
90.0
 51
180.0
  0
LINE
  5
16935
330
747D
100
AcDbEntity
  8
部品1
 48
50.0
100
AcDbLine
 10
11225.11706615296
 20
4743.585100931682
 30
0.0
 11
11225.11706615296
 21
4798.585100948581
 31
0.0
  0
LINE
  5
16936
330
747D
100
AcDbEntity
  8
部品1
100
AcDbLine
 10
11175.18769414617
 20
4801.02690609117
 30
0.0
 11
11175.18769414616
 21
4703.615838574169
 31
0.0
  0
ARC
  5
16937
330
747D
100
AcDbEntity
  8
部品1
100
AcDbCircle
 10
11180.18769414617
 20
4746.026906074273
 30
0.0
 40
5.0
100
AcDbArc
 50
90.0
 51
180.0
  0
LINE
  5
16938
330
747D
100
AcDbEntity
  8
部品1
100
AcDbLine
 10
11180.18769414617
 20
4751.026906074272
 30
0.0
 11
11218.13102233575
 21
4751.026906074272
 31
0.0
  0
LINE
  5
16939
330
747D
100
AcDbEntity
  8
部品1
100
AcDbLine
 10
11223.8565280944
 20
4723.652842880602
 30
0.0
 11
11225.11706615296
 21
4743.585100931682
 31
0.0
  0
LINE
  5
1693A
330
747D
100
AcDbEntity
  8
部品1
100
AcDbLine
 10
11211.99045530699
 20
4631.085100931683
 30
0.0
 11
11212.66278101157
 21
4641.716251135384
 31
0.0
  0
ARC
  5
1693B
330
747D
100
AcDbEntity
  8
部品1
100
AcDbCircle
 10
11218.13102233575
 20
4744.026906074272
 30
0.0
 40
7.0
100
AcDbArc
 50
356.3813705198622
 51
90.0
  0
ARC
  5
1693C
330
747D
100
AcDbEntity
  8
部品1
100
AcDbCircle
 10
11205.00441148978
 20
4631.526906074272
 30
0.0
 40
7.0
100
AcDbArc
 50
270.0
 51
356.3813705198622
  0
ARC
  5
1693D
330
747D
100
AcDbEntity
  8
部品1
100
AcDbCircle
 10
11215.65679979038
 20
4641.526906074272
 30
0.0
 40
3.0
100
AcDbArc
 50
90.0
 51
176.3813705198622
  0
ARC
  5
1693E
330
747D
100
AcDbEntity
  8
部品1
100
AcDbCircle
 10
11215.18750366518
 20
4645.197023394861
 30
0.0
 40
0.7
100
AcDbArc
 50
277.2868405166456
 51
356.3813705198622
  0
LINE
  5
1693F
330
747D
100
AcDbEntity
  8
部品1
100
AcDbLine
 10
11220.63320105906
 20
4720.216251135383
 30
0.0
 11
11215.8861080469
 21
4645.152842880601
 31
0.0
  0
ARC
  5
16940
330
747D
100
AcDbEntity
  8
部品1
100
AcDbCircle
 10
11223.62721983787
 20
4720.026906074272
 30
0.0
 40
3.0
100
AcDbArc
 50
90.0
 51
176.3813705198622
  0
ARC
  5
16941
330
747D
100
AcDbEntity
  8
部品1
100
AcDbCircle
 10
11223.15792371267
 20
4723.697023394861
 30
0.0
 40
0.7
100
AcDbArc
 50
277.2868405166456
 51
356.3813705198622
  0
LINE
  5
16942
330
747D
100
AcDbEntity
  8
部品1
 48
50.0
100
AcDbLine
 10
11180.18769414617
 20
4751.026906074272
 30
0.0
 11
11218.13102233575
 21
4751.026906074272
 31
0.0
  0
LINE
  5
16943
330
747D
100
AcDbEntity
  8
部品1
 48
50.0
100
AcDbLine
 10
11108.11706615296
 20
4801.026906082745
 30
0.0
 11
11132.11706615296
 21
4801.026906082745
 31
0.0
  0
LINE
  5
16944
330
747D
100
AcDbEntity
  8
部品1
100
AcDbLine
 10
11129.11706615295
 20
4801.026906082745
 30
0.0
 11
11129.11706615295
 21
4703.615838574169
 31
0.0
  0
LINE
  5
16945
330
747D
100
AcDbEntity
  8
部品1
100
AcDbLine
 10
11111.11706615295
 20
4801.026906082734
 30
0.0
 11
11111.11706615295
 21
4703.615838574169
 31
0.0
  0
DIMENSION
  5
16946
330
747D
100
AcDbEntity
  8
寸法
 48
50.0
100
AcDbDimension
  2
*D14
 10
11175.11706615297
 20
5205.120075413745
 30
0.0
 11
11538.6023475272
 21
5205.120075413745
 31
0.0
 70
   160
 71
     5
 42
50.0
  3
INABA_S40G
100
AcDbAlignedDimension
 13
11225.11706615297
 23
4806.026906074275
 33
0.0
 14
11175.11706615297
 24
4806.026906074277
 34
0.0
100
AcDbRotatedDimension
  0
LINE
  5
16947
330
747D
100
AcDbEntity
  8
部品1
100
AcDbLine
 10
10548.11706615298
 20
4801.026906082745
 30
0.0
 11
10548.11706615299
 21
4703.615838574172
 31
0.0
  0
LINE
  5
16948
330
747D
100
AcDbEntity
  8
部品1
100
AcDbLine
 10
10523.11706615298
 20
4801.026906082745
 30
0.0
 11
10523.11706615299
 21
4703.615838574172
 31
0.0
  0
LINE
  5
16949
330
747D
100
AcDbEntity
  8
部品1
100
AcDbLine
 10
10450.11706615298
 20
4801.026906082745
 30
0.0
 11
10450.11706615298
 21
4703.615838574172
 31
0.0
  0
LINE
  5
1694A
330
747D
100
AcDbEntity
  8
部品1
100
AcDbLine
 10
10475.11706615299
 20
4801.026906082745
 30
0.0
 11
10475.11706615299
 21
4703.615838574172
 31
0.0
  0
LINE
  5
1694B
330
747D
100
AcDbEntity
  8
部品1
100
AcDbLine
 10
10438.11706615297
 20
4781.626906082744
 30
0.0
 11
10294.61706615297
 21
4781.626906082744
 31
0.0
  0
LINE
  5
1694C
330
747D
100
AcDbEntity
  8
部品1
100
AcDbLine
 10
10671.61706615297
 20
4781.626906082729
 30
0.0
 11
10560.11706615298
 21
4781.626906082729
 31
0.0
  0
LINE
  5
1694D
330
747D
100
AcDbEntity
  8
部品1
 48
50.0
100
AcDbLine
 10
10521.61706615298
 20
4801.026906082749
 30
0.0
 11
10549.61706615297
 21
4801.026906082749
 31
0.0
  0
LINE
  5
1694E
330
747D
100
AcDbEntity
  8
部品1
 48
50.0
100
AcDbLine
 10
10549.61706615298
 20
4801.026906082749
 30
0.0
 11
10560.11706615298
 21
4781.626906082747
 31
0.0
  0
LINE
  5
1694F
330
747D
100
AcDbEntity
  8
部品1
 48
50.0
100
AcDbLine
 10
10521.61706615298
 20
4801.026906082749
 30
0.0
 11
10511.11706615298
 21
4781.626906082747
 31
0.0
  0
LINE
  5
16950
330
747D
100
AcDbEntity
  8
部品1
 48
50.0
100
AcDbLine
 10
10448.61706615298
 20
4801.026906082749
 30
0.0
 11
10476.61706615297
 21
4801.026906082749
 31
0.0
  0
LINE
  5
16951
330
747D
100
AcDbEntity
  8
部品1
 48
50.0
100
AcDbLine
 10
10448.61706615298
 20
4801.026906082749
 30
0.0
 11
10438.11706615298
 21
4781.626906082747
 31
0.0
  0
LINE
  5
16952
330
747D
100
AcDbEntity
  8
部品1
 48
50.0
100
AcDbLine
 10
10476.61706615298
 20
4801.026906082749
 30
0.0
 11
10487.11706615298
 21
4781.626906082747
 31
0.0
  0
LINE
  5
16953
330
747D
100
AcDbEntity
  8
部品1
100
AcDbLine
 10
10511.11706615297
 20
4781.626906082744
 30
0.0
 11
10487.11706615298
 21
4781.626906082744
 31
0.0
  0
LINE
  5
16954
330
747D
100
AcDbEntity
  8
部品1
 48
50.0
100
AcDbLine
 10
8947.605976248697
 20
4703.615838574169
 30
0.0
 11
11192.62815605724
 21
4703.615838574169
 31
0.0
  0
LINE
  5
16955
330
747D
100
AcDbEntity
  8
部品1
 48
50.0
100
AcDbLine
 10
10292.11706615298
 20
4801.026906082745
 30
0.0
 11
10294.61706615298
 21
4781.626906082744
 31
0.0
  0
LINE
  5
16956
330
747D
100
AcDbEntity
  8
部品1
 48
50.0
100
AcDbLine
 10
10252.90572594679
 20
4791.626906082743
 30
0.0
 11
10251.61706615298
 21
4781.626906082744
 31
0.0
  0
LINE
  5
16957
330
747D
100
AcDbEntity
  8
部品1
 48
50.0
100
AcDbLine
 10
10252.90572594679
 20
4791.626906082743
 30
0.0
 11
10266.90572594679
 21
4791.626906082743
 31
0.0
  0
LINE
  5
16958
330
747D
100
AcDbEntity
  8
部品1
 48
50.0
100
AcDbLine
 10
10268.11706615298
 20
4801.026906082745
 30
0.0
 11
10266.90572594679
 21
4791.626906082743
 31
0.0
  0
LINE
  5
16959
330
747D
100
AcDbEntity
  8
部品1
 48
50.0
100
AcDbLine
 10
10268.11706615298
 20
4801.026906082745
 30
0.0
 11
10292.11706615298
 21
4801.026906082745
 31
0.0
  0
LINE
  5
1695A
330
747D
100
AcDbEntity
  8
部品1
100
AcDbLine
 10
10289.11706615297
 20
4801.026906082745
 30
0.0
 11
10289.11706615297
 21
4703.615838574169
 31
0.0
  0
LINE
  5
1695B
330
747D
100
AcDbEntity
  8
部品1
100
AcDbLine
 10
10271.11706615297
 20
4801.026906082734
 30
0.0
 11
10271.11706615297
 21
4703.615838574169
 31
0.0
  0
LINE
  5
1695C
330
747D
100
AcDbEntity
  8
細線
 48
50.0
100
AcDbLine
 10
8965.04643815977
 20
4722.998738822222
 30
0.0
 11
8916.983196875824
 21
4722.998738822229
 31
0.0
  0
LINE
  5
1695D
330
747D
100
AcDbEntity
  8
細線
 48
50.0
100
AcDbLine
 10
8947.605976248695
 20
4751.026906074272
 30
0.0
 11
8947.605976248695
 21
4624.526906074271
 31
0.0
  0
LINE
  5
1695E
330
747D
100
AcDbEntity
  8
細線
 48
50.0
100
AcDbLine
 10
11215.89542382603
 20
4645.300148638056
 30
0.0
 11
8925.000657785496
 21
4645.300148638058
 31
0.0
  0
ARC
  5
1695F
330
747D
100
AcDbEntity
  8
部品1
100
AcDbCircle
 10
8922.103109970189
 20
4799.02690609117
 30
0.0
 40
7.0
100
AcDbArc
 50
90.0
 51
183.6186294801377
  0
LINE
  5
16960
330
747D
100
AcDbEntity
  8
部品1
100
AcDbLine
 10
8960.046438159771
 20
4806.026906091171
 30
0.0
 11
8922.103109970189
 21
4806.026906091171
 31
0.0
  0
ARC
  5
16961
330
747D
100
AcDbEntity
  8
部品1
100
AcDbCircle
 10
8960.046438159771
 20
4801.02690609117
 30
0.0
 40
5.0
100
AcDbArc
 50
0.0
 51
90.0
  0
LINE
  5
16962
330
747D
100
AcDbEntity
  8
部品1
 48
50.0
100
AcDbLine
 10
8915.117066152978
 20
4743.585100931682
 30
0.0
 11
8915.117066152978
 21
4798.585100948581
 31
0.0
  0
LINE
  5
16963
330
747D
100
AcDbEntity
  8
部品1
100
AcDbLine
 10
11205.00441148978
 20
4624.526906074271
 30
0.0
 11
8935.22972081616
 21
4624.526906074271
 31
0.0
  0
LINE
  5
16964
330
747D
100
AcDbEntity
  8
部品1
100
AcDbLine
 10
8965.046438159772
 20
4801.02690609117
 30
0.0
 11
8965.04643815977
 21
4703.622877401602
 31
0.0
  0
ARC
  5
16965
330
747D
100
AcDbEntity
  8
部品1
100
AcDbCircle
 10
8960.046438159771
 20
4746.026906074273
 30
0.0
 40
5.0
100
AcDbArc
 50
0.0
 51
90.0
  0
LINE
  5
16966
330
747D
100
AcDbEntity
  8
部品1
100
AcDbLine
 10
8960.046438159771
 20
4751.026906074272
 30
0.0
 11
8922.103109970189
 21
4751.026906074272
 31
0.0
  0
LINE
  5
16967
330
747D
100
AcDbEntity
  8
部品1
100
AcDbLine
 10
8916.377604211545
 20
4723.652842880602
 30
0.0
 11
8915.117066152978
 21
4743.585100931682
 31
0.0
  0
LINE
  5
16968
330
747D
100
AcDbEntity
  8
部品1
100
AcDbLine
 10
8928.243676998949
 20
4631.085100931683
 30
0.0
 11
8927.571351294368
 21
4641.716251135384
 31
0.0
  0
ARC
  5
16969
330
747D
100
AcDbEntity
  8
部品1
100
AcDbCircle
 10
8922.103109970189
 20
4744.026906074272
 30
0.0
 40
7.0
100
AcDbArc
 50
90.0
 51
183.6186294801377
  0
ARC
  5
1696A
330
747D
100
AcDbEntity
  8
部品1
100
AcDbCircle
 10
8935.22972081616
 20
4631.526906074272
 30
0.0
 40
7.0
100
AcDbArc
 50
183.6186294801377
 51
270.0
  0
ARC
  5
1696B
330
747D
100
AcDbEntity
  8
部品1
100
AcDbCircle
 10
8924.577332515562
 20
4641.526906074272
 30
0.0
 40
3.0
100
AcDbArc
 50
3.618629480137788
 51
90.0
  0
ARC
  5
1696C
330
747D
100
AcDbEntity
  8
部品1
100
AcDbCircle
 10
8925.046628640757
 20
4645.197023394861
 30
0.0
 40
0.7
100
AcDbArc
 50
183.6186294801377
 51
262.7131594833544
  0
LINE
  5
1696D
330
747D
100
AcDbEntity
  8
部品1
100
AcDbLine
 10
8919.600931246876
 20
4720.216251135383
 30
0.0
 11
8924.348024259037
 21
4645.152842880601
 31
0.0
  0
ARC
  5
1696E
330
747D
100
AcDbEntity
  8
部品1
100
AcDbCircle
 10
8916.60691246807
 20
4720.026906074272
 30
0.0
 40
3.0
100
AcDbArc
 50
3.618629480137788
 51
90.0
  0
ARC
  5
1696F
330
747D
100
AcDbEntity
  8
部品1
100
AcDbCircle
 10
8917.076208593265
 20
4723.697023394861
 30
0.0
 40
0.7
100
AcDbArc
 50
183.6186294801377
 51
262.7131594833544
  0
LINE
  5
16970
330
747D
100
AcDbEntity
  8
部品1
 48
50.0
100
AcDbLine
 10
8960.046438159771
 20
4751.026906074272
 30
0.0
 11
8922.103109970189
 21
4751.026906074272
 31
0.0
  0
LINE
  5
16971
330
747D
100
AcDbEntity
  8
部品1
100
AcDbLine
 10
10251.61706615297
 20
4781.626906082725
 30
0.0
 11
10140.11706615298
 21
4781.626906082725
 31
0.0
  0
LINE
  5
16972
330
747D
100
AcDbEntity
  8
部品1
100
AcDbLine
 10
11180.18740348524
 20
4806.026906082723
 30
0.0
 11
8939.549226533886
 21
4806.026906082745
 31
0.0
  0
LINE
  5
16973
330
747D
100
AcDbEntity
  8
部品1
 48
50.0
100
AcDbLine
 10
9412.90572594679
 20
4791.626906082743
 30
0.0
 11
9426.90572594679
 21
4791.626906082743
 31
0.0
  0
LINE
  5
16974
330
747D
100
AcDbEntity
  8
部品1
100
AcDbLine
 10
9178.117066152978
 20
4781.62690608274
 30
0.0
 11
9034.617066152978
 21
4781.626906082744
 31
0.0
  0
LINE
  5
16975
330
747D
100
AcDbEntity
  8
部品1
 48
50.0
100
AcDbLine
 10
9032.117066152977
 20
4801.026906082745
 30
0.0
 11
9008.117066152978
 21
4801.026906082745
 31
0.0
  0
LINE
  5
16976
330
747D
100
AcDbEntity
  8
部品1
 48
50.0
100
AcDbLine
 10
9008.117066152978
 20
4801.026906082745
 30
0.0
 11
9006.90572594679
 21
4791.626906082743
 31
0.0
  0
LINE
  5
16977
330
747D
100
AcDbEntity
  8
部品1
 48
50.0
100
AcDbLine
 10
8992.905725946789
 20
4791.626906082743
 30
0.0
 11
8991.617066152977
 21
4781.626906082744
 31
0.0
  0
LINE
  5
16978
330
747D
100
AcDbEntity
  8
部品1
 48
50.0
100
AcDbLine
 10
8992.905725946789
 20
4791.626906082743
 30
0.0
 11
9006.90572594679
 21
4791.626906082743
 31
0.0
  0
LINE
  5
16979
330
747D
100
AcDbEntity
  8
部品1
100
AcDbLine
 10
8991.617066152977
 20
4781.626906082744
 30
0.0
 11
8965.117066152977
 21
4781.626906082744
 31
0.0
  0
LINE
  5
1697A
330
747D
100
AcDbEntity
  8
部品1
 48
50.0
100
AcDbLine
 10
9032.117066152977
 20
4801.026906082745
 30
0.0
 11
9034.617066152978
 21
4781.626906082744
 31
0.0
  0
LINE
  5
1697B
330
747D
100
AcDbEntity
  8
部品1
100
AcDbLine
 10
9011.117066152985
 20
4801.026906082745
 30
0.0
 11
9011.117066152987
 21
4703.615838574169
 31
0.0
  0
LINE
  5
1697C
330
747D
100
AcDbEntity
  8
部品1
100
AcDbLine
 10
9029.117066152984
 20
4801.026906082734
 30
0.0
 11
9029.117066152984
 21
4703.615838574169
 31
0.0
  0
LINE
  5
1697D
330
747D
100
AcDbEntity
  8
部品1
 48
50.0
100
AcDbLine
 10
9261.617066152977
 20
4801.026906082745
 30
0.0
 11
9251.117066152977
 21
4781.626906082744
 31
0.0
  0
LINE
  5
1697E
330
747D
100
AcDbEntity
  8
部品1
 48
50.0
100
AcDbLine
 10
9188.617066152977
 20
4801.026906082745
 30
0.0
 11
9216.617066152975
 21
4801.026906082745
 31
0.0
  0
LINE
  5
1697F
330
747D
100
AcDbEntity
  8
部品1
 48
50.0
100
AcDbLine
 10
9188.617066152977
 20
4801.026906082745
 30
0.0
 11
9178.117066152978
 21
4781.626906082744
 31
0.0
  0
LINE
  5
16980
330
747D
100
AcDbEntity
  8
部品1
100
AcDbLine
 10
9190.117066152984
 20
4801.026906082741
 30
0.0
 11
9190.117066152984
 21
4703.615838574169
 31
0.0
  0
LINE
  5
16981
330
747D
100
AcDbEntity
  8
部品1
 48
50.0
100
AcDbLine
 10
9216.617066152977
 20
4801.026906082745
 30
0.0
 11
9227.117066152977
 21
4781.626906082744
 31
0.0
  0
LINE
  5
16982
330
747D
100
AcDbEntity
  8
部品1
100
AcDbLine
 10
9215.117066152984
 20
4801.026906082741
 30
0.0
 11
9215.117066152988
 21
4703.615838574169
 31
0.0
  0
LINE
  5
16983
330
747D
100
AcDbEntity
  8
部品1
100
AcDbLine
 10
9251.117066152975
 20
4781.62690608274
 30
0.0
 11
9227.117066152977
 21
4781.626906082744
 31
0.0
  0
LINE
  5
16984
330
747D
100
AcDbEntity
  8
部品1
 48
50.0
100
AcDbLine
 10
9412.90572594679
 20
4791.626906082743
 30
0.0
 11
9411.617066152977
 21
4781.626906082744
 31
0.0
  0
LINE
  5
16985
330
747D
100
AcDbEntity
  8
部品1
 48
50.0
100
AcDbLine
 10
9261.617066152977
 20
4801.026906082745
 30
0.0
 11
9289.617066152974
 21
4801.026906082745
 31
0.0
  0
LINE
  5
16986
330
747D
100
AcDbEntity
  8
部品1
 48
50.0
100
AcDbLine
 10
9289.617066152977
 20
4801.026906082745
 30
0.0
 11
9300.117066152978
 21
4781.626906082744
 31
0.0
  0
LINE
  5
16987
330
747D
100
AcDbEntity
  8
部品1
100
AcDbLine
 10
9288.117066152985
 20
4801.026906082741
 30
0.0
 11
9288.117066152985
 21
4703.615838574169
 31
0.0
  0
LINE
  5
16988
330
747D
100
AcDbEntity
  8
部品1
100
AcDbLine
 10
9263.117066152984
 20
4801.026906082741
 30
0.0
 11
9263.117066152984
 21
4703.615838574169
 31
0.0
  0
LINE
  5
16989
330
747D
100
AcDbEntity
  8
部品1
100
AcDbLine
 10
9411.617066152977
 20
4781.62690608274
 30
0.0
 11
9300.117066152978
 21
4781.62690608274
 31
0.0
  0
LINE
  5
1698A
330
747D
100
AcDbEntity
  8
部品1
100
AcDbLine
 10
10091.11706615297
 20
4781.62690608274
 30
0.0
 11
10067.11706615297
 21
4781.62690608274
 31
0.0
  0
LINE
  5
1698B
330
747D
100
AcDbEntity
  8
部品1
100
AcDbLine
 10
9831.617066152979
 20
4781.62690608274
 30
0.0
 11
9720.117066152978
 21
4781.62690608274
 31
0.0
  0
LINE
  5
1698C
330
747D
100
AcDbEntity
  8
部品1
100
AcDbLine
 10
9598.117066152974
 20
4781.62690608274
 30
0.0
 11
9454.617066152975
 21
4781.62690608274
 31
0.0
  0
LINE
  5
1698D
330
747D
100
AcDbEntity
  8
部品1
 48
50.0
100
AcDbLine
 10
9452.117066152977
 20
4801.026906082745
 30
0.0
 11
9454.617066152978
 21
4781.626906082744
 31
0.0
  0
LINE
  5
1698E
330
747D
100
AcDbEntity
  8
部品1
 48
50.0
100
AcDbLine
 10
9428.117066152978
 20
4801.026906082745
 30
0.0
 11
9426.90572594679
 21
4791.626906082743
 31
0.0
  0
LINE
  5
1698F
330
747D
100
AcDbEntity
  8
部品1
 48
50.0
100
AcDbLine
 10
9452.117066152977
 20
4801.026906082745
 30
0.0
 11
9428.117066152978
 21
4801.026906082745
 31
0.0
  0
LINE
  5
16990
330
747D
100
AcDbEntity
  8
部品1
100
AcDbLine
 10
9431.117066152985
 20
4801.026906082734
 30
0.0
 11
9431.117066152987
 21
4703.615838574169
 31
0.0
  0
LINE
  5
16991
330
747D
100
AcDbEntity
  8
部品1
100
AcDbLine
 10
9449.117066152984
 20
4801.026906082734
 30
0.0
 11
9449.117066152986
 21
4703.615838574169
 31
0.0
  0
LINE
  5
16992
330
747D
100
AcDbEntity
  8
部品1
 48
50.0
100
AcDbLine
 10
9681.617066152979
 20
4801.026906082745
 30
0.0
 11
9709.617066152974
 21
4801.026906082745
 31
0.0
  0
LINE
  5
16993
330
747D
100
AcDbEntity
  8
部品1
 48
50.0
100
AcDbLine
 10
9608.617066152978
 20
4801.026906082745
 30
0.0
 11
9636.617066152973
 21
4801.026906082745
 31
0.0
  0
LINE
  5
16994
330
747D
100
AcDbEntity
  8
部品1
 48
50.0
100
AcDbLine
 10
9681.617066152979
 20
4801.026906082745
 30
0.0
 11
9671.117066152978
 21
4781.626906082744
 31
0.0
  0
LINE
  5
16995
330
747D
100
AcDbEntity
  8
部品1
 48
50.0
100
AcDbLine
 10
9636.617066152979
 20
4801.026906082745
 30
0.0
 11
9647.117066152979
 21
4781.626906082744
 31
0.0
  0
LINE
  5
16996
330
747D
100
AcDbEntity
  8
部品1
100
AcDbLine
 10
9671.117066152975
 20
4781.62690608274
 30
0.0
 11
9647.117066152979
 21
4781.62690608274
 31
0.0
  0
LINE
  5
16997
330
747D
100
AcDbEntity
  8
部品1
 48
50.0
100
AcDbLine
 10
9608.617066152978
 20
4801.026906082745
 30
0.0
 11
9598.117066152978
 21
4781.626906082744
 31
0.0
  0
LINE
  5
16998
330
747D
100
AcDbEntity
  8
部品1
100
AcDbLine
 10
9683.117066152986
 20
4801.026906082741
 30
0.0
 11
9683.117066152986
 21
4703.615838574169
 31
0.0
  0
LINE
  5
16999
330
747D
100
AcDbEntity
  8
部品1
100
AcDbLine
 10
9635.117066152986
 20
4801.026906082741
 30
0.0
 11
9635.117066152986
 21
4703.615838574169
 31
0.0
  0
LINE
  5
1699A
330
747D
100
AcDbEntity
  8
部品1
100
AcDbLine
 10
9610.117066152985
 20
4801.026906082741
 30
0.0
 11
9610.117066152985
 21
4703.615838574169
 31
0.0
  0
LINE
  5
1699B
330
747D
100
AcDbEntity
  8
部品1
 48
50.0
100
AcDbLine
 10
9709.617066152979
 20
4801.026906082745
 30
0.0
 11
9720.117066152978
 21
4781.626906082744
 31
0.0
  0
LINE
  5
1699C
330
747D
100
AcDbEntity
  8
部品1
100
AcDbLine
 10
9708.117066152986
 20
4801.026906082741
 30
0.0
 11
9708.117066152986
 21
4703.615838574169
 31
0.0
  0
LINE
  5
1699D
330
747D
100
AcDbEntity
  8
部品1
100
AcDbLine
 10
10018.11706615297
 20
4781.62690608274
 30
0.0
 11
9874.617066152975
 21
4781.62690608274
 31
0.0
  0
LINE
  5
1699E
330
747D
100
AcDbEntity
  8
部品1
 48
50.0
100
AcDbLine
 10
9872.117066152979
 20
4801.026906082745
 30
0.0
 11
9848.117066152978
 21
4801.026906082745
 31
0.0
  0
LINE
  5
1699F
330
747D
100
AcDbEntity
  8
部品1
 48
50.0
100
AcDbLine
 10
9848.117066152978
 20
4801.026906082745
 30
0.0
 11
9846.90572594679
 21
4791.626906082743
 31
0.0
  0
LINE
  5
169A0
330
747D
100
AcDbEntity
  8
部品1
 48
50.0
100
AcDbLine
 10
9832.90572594679
 20
4791.626906082743
 30
0.0
 11
9846.90572594679
 21
4791.626906082743
 31
0.0
  0
LINE
  5
169A1
330
747D
100
AcDbEntity
  8
部品1
 48
50.0
100
AcDbLine
 10
9832.90572594679
 20
4791.626906082743
 30
0.0
 11
9831.617066152979
 21
4781.626906082744
 31
0.0
  0
LINE
  5
169A2
330
747D
100
AcDbEntity
  8
部品1
100
AcDbLine
 10
9851.117066152985
 20
4801.026906082734
 30
0.0
 11
9851.117066152987
 21
4703.615838574169
 31
0.0
  0
LINE
  5
169A3
330
747D
100
AcDbEntity
  8
部品1
 48
50.0
100
AcDbLine
 10
9872.117066152979
 20
4801.026906082745
 30
0.0
 11
9874.617066152978
 21
4781.626906082744
 31
0.0
  0
LINE
  5
169A4
330
747D
100
AcDbEntity
  8
部品1
100
AcDbLine
 10
9869.117066152986
 20
4801.026906082734
 30
0.0
 11
9869.117066152988
 21
4703.615838574169
 31
0.0
  0
LINE
  5
169A5
330
747D
100
AcDbEntity
  8
部品1
 48
50.0
100
AcDbLine
 10
10056.61706615297
 20
4801.026906082745
 30
0.0
 11
10067.11706615297
 21
4781.626906082744
 31
0.0
  0
LINE
  5
169A6
330
747D
100
AcDbEntity
  8
部品1
100
AcDbLine
 10
10055.11706615298
 20
4801.026906082741
 30
0.0
 11
10055.11706615298
 21
4703.615838574169
 31
0.0
  0
LINE
  5
169A7
330
747D
100
AcDbEntity
  8
部品1
 48
50.0
100
AcDbLine
 10
10028.61706615298
 20
4801.026906082745
 30
0.0
 11
10018.11706615298
 21
4781.626906082744
 31
0.0
  0
LINE
  5
169A8
330
747D
100
AcDbEntity
  8
部品1
100
AcDbLine
 10
10030.11706615298
 20
4801.026906082741
 30
0.0
 11
10030.11706615298
 21
4703.615838574169
 31
0.0
  0
LINE
  5
169A9
330
747D
100
AcDbEntity
  8
部品1
 48
50.0
100
AcDbLine
 10
10028.61706615298
 20
4801.026906082745
 30
0.0
 11
10056.61706615297
 21
4801.026906082745
 31
0.0
  0
LINE
  5
169AA
330
747D
100
AcDbEntity
  8
部品1
 48
50.0
100
AcDbLine
 10
10101.61706615298
 20
4801.026906082745
 30
0.0
 11
10091.11706615298
 21
4781.626906082744
 31
0.0
  0
LINE
  5
169AB
330
747D
100
AcDbEntity
  8
部品1
 48
50.0
100
AcDbLine
 10
10129.61706615298
 20
4801.026906082745
 30
0.0
 11
10140.11706615298
 21
4781.626906082744
 31
0.0
  0
LINE
  5
169AC
330
747D
100
AcDbEntity
  8
部品1
 48
50.0
100
AcDbLine
 10
10101.61706615298
 20
4801.026906082745
 30
0.0
 11
10129.61706615297
 21
4801.026906082745
 31
0.0
  0
LINE
  5
169AD
330
747D
100
AcDbEntity
  8
部品1
100
AcDbLine
 10
10103.11706615298
 20
4801.026906082741
 30
0.0
 11
10103.11706615298
 21
4703.615838574169
 31
0.0
  0
LINE
  5
169AE
330
747D
100
AcDbEntity
  8
部品1
100
AcDbLine
 10
10128.11706615298
 20
4801.026906082741
 30
0.0
 11
10128.11706615298
 21
4703.615838574169
 31
0.0
  0
DIMENSION
  5
169AF
330
747D
100
AcDbEntity
  8
寸法
 48
50.0
100
AcDbDimension
  2
*D15
 10
11225.11706615297
 20
5421.64617503219
 30
0.0
 11
10070.11706615297
 21
5421.64617503219
 31
0.0
 70
   160
 71
     5
 42
2310.0
  3
INABA_S40G
100
AcDbAlignedDimension
 13
8915.117066152971
 23
4806.026906074277
 33
0.0
 14
11225.11706615297
 24
4806.026906074275
 34
0.0
100
AcDbRotatedDimension
  0
DIMENSION
  5
169B0
330
747D
100
AcDbEntity
  8
寸法
 48
50.0
100
AcDbDimension
  2
*D16
 10
8915.117066152971
 20
5205.120075413745
 30
0.0
 11
8601.631784778723
 21
5205.120075413745
 31
0.0
 70
   160
 71
     5
 42
50.0
  3
INABA_S40G
100
AcDbAlignedDimension
 13
8965.11706615297
 23
4806.026906074278
 33
0.0
 14
8915.117066152971
 24
4806.026906074277
 34
0.0
100
AcDbRotatedDimension
1001
ACAD
1000
DSTYLE
1002
{
1002
}
  0
DIMENSION
  5
169B1
330
747D
100
AcDbEntity
  8
寸法
 48
50.0
100
AcDbDimension
  2
*D17
 10
8965.11706615297
 20
5205.120075413745
 30
0.0
 11
10070.11706615297
 21
5205.120075413745
 31
0.0
 70
   160
  1
柱外寸法<>
 71
     5
 42
2210.0
  3
INABA_S40G
100
AcDbAlignedDimension
 13
11175.11706615297
 23
4806.026906074277
 33
0.0
 14
8965.11706615297
 24
4806.026906074278
 34
0.0
100
AcDbRotatedDimension
  0
LINE
  5
169B2
330
747D
100
AcDbEntity
  8
部品1
 48
50.0
100
AcDbLine
 10
9827.117066152966
 20
4514.026906099039
 30
0.0
 11
9827.117066152966
 21
2481.026906074268
 31
0.0
  0
LINE
  5
169B3
330
747D
100
AcDbEntity
  8
部品1
100
AcDbLine
 10
10481.11705645782
 20
4514.026906111423
 30
0.0
 11
10481.11705645783
 21
2488.526906111438
 31
0.0
  0
LINE
  5
169B4
330
747D
100
AcDbEntity
  8
細線
100
AcDbLine
 10
9727.11706615297
 20
4514.026906074272
 30
0.0
 11
9727.117066152967
 21
2481.02690607428
 31
0.0
  0
LINE
  5
169B5
330
747D
100
AcDbEntity
  8
細線
100
AcDbLine
 10
9657.11706615297
 20
4514.026906074272
 30
0.0
 11
9657.117066152967
 21
2481.02690607428
 31
0.0
  0
LINE
  5
169B6
330
747D
100
AcDbEntity
  8
細線
100
AcDbLine
 10
9587.11706615297
 20
4514.026906074272
 30
0.0
 11
9587.117066152968
 21
2481.026906074276
 31
0.0
  0
LINE
  5
169B7
330
747D
100
AcDbEntity
  8
細線
100
AcDbLine
 10
9517.11706615297
 20
4514.026906074272
 30
0.0
 11
9517.117066152968
 21
2481.026906074276
 31
0.0
  0
LINE
  5
169B8
330
747D
100
AcDbEntity
  8
細線
100
AcDbLine
 10
9447.117066152971
 20
4514.026906074272
 30
0.0
 11
9447.117066152967
 21
2481.026906074276
 31
0.0
  0
LINE
  5
169B9
330
747D
100
AcDbEntity
  8
細線
100
AcDbLine
 10
9377.117066152971
 20
4514.026906074272
 30
0.0
 11
9377.117066152967
 21
2481.026906074276
 31
0.0
  0
LINE
  5
169BA
330
747D
100
AcDbEntity
  8
部品1
100
AcDbLine
 10
9193.117066152966
 20
4514.026906074272
 30
0.0
 11
9193.11706615297
 21
2481.026906074276
 31
0.0
  0
LINE
  5
169BB
330
747D
100
AcDbEntity
  8
部品1
100
AcDbLine
 10
9143.117066152965
 20
4514.026906074272
 30
0.0
 11
9143.117066152971
 21
2481.026906074276
 31
0.0
  0
LINE
  5
169BC
330
747D
100
AcDbEntity
  8
細線
100
AcDbLine
 10
9185.117066152967
 20
4514.026906074272
 30
0.0
 11
9185.117066152971
 21
2481.026906074276
 31
0.0
  0
LINE
  5
169BD
330
747D
100
AcDbEntity
  8
細線
100
AcDbLine
 10
9151.117066152968
 20
4514.026906074272
 30
0.0
 11
9151.11706615297
 21
2481.026906074276
 31
0.0
  0
LINE
  5
169BE
330
747D
100
AcDbEntity
  8
細線
100
AcDbLine
 10
10378.61707590321
 20
4514.026906074272
 30
0.0
 11
10378.61707590321
 21
2488.526906074283
 31
0.0
  0
LINE
  5
169BF
330
747D
100
AcDbEntity
  8
細線
100
AcDbLine
 10
10308.61707590321
 20
4514.026906074272
 30
0.0
 11
10308.61707590321
 21
2488.526906074283
 31
0.0
  0
LINE
  5
169C0
330
747D
100
AcDbEntity
  8
細線
100
AcDbLine
 10
10238.61707590321
 20
4514.026906074272
 30
0.0
 11
10238.61707590321
 21
2488.526906074283
 31
0.0
  0
LINE
  5
169C1
330
747D
100
AcDbEntity
  8
細線
100
AcDbLine
 10
10168.61707590321
 20
4514.026906074272
 30
0.0
 11
10168.61707590321
 21
2488.526906074283
 31
0.0
  0
LINE
  5
169C2
330
747D
100
AcDbEntity
  8
細線
100
AcDbLine
 10
10098.61707590321
 20
4514.026906074272
 30
0.0
 11
10098.61707590321
 21
2488.526906074283
 31
0.0
  0
LINE
  5
169C3
330
747D
100
AcDbEntity
  8
細線
100
AcDbLine
 10
10028.61707590321
 20
4514.026906074272
 30
0.0
 11
10028.61707590321
 21
2488.526906074283
 31
0.0
  0
LINE
  5
169C4
330
747D
100
AcDbEntity
  8
細線
100
AcDbLine
 10
10953.86706615297
 20
4514.026906074272
 30
0.0
 11
10953.86706615297
 21
2488.52690607429
 31
0.0
  0
LINE
  5
169C5
330
747D
100
AcDbEntity
  8
細線
100
AcDbLine
 10
10883.86706615297
 20
4514.026906074272
 30
0.0
 11
10883.86706615297
 21
2488.52690607429
 31
0.0
  0
LINE
  5
169C6
330
747D
100
AcDbEntity
  8
細線
100
AcDbLine
 10
10813.86706615297
 20
4514.026906074272
 30
0.0
 11
10813.86706615297
 21
2488.52690607429
 31
0.0
  0
LINE
  5
169C7
330
747D
100
AcDbEntity
  8
細線
100
AcDbLine
 10
10743.86706615297
 20
4514.026906074272
 30
0.0
 11
10743.86706615297
 21
2488.52690607429
 31
0.0
  0
LINE
  5
169C8
330
747D
100
AcDbEntity
  8
細線
100
AcDbLine
 10
10673.86706615297
 20
4514.026906074272
 30
0.0
 11
10673.86706615297
 21
2488.52690607429
 31
0.0
  0
LINE
  5
169C9
330
747D
100
AcDbEntity
  8
細線
100
AcDbLine
 10
9307.11706615297
 20
4514.026906074272
 30
0.0
 11
9307.117066152967
 21
2481.026906074276
 31
0.0
  0
LINE
  5
169CA
330
747D
100
AcDbEntity
  8
細線
100
AcDbLine
 10
9237.11706615297
 20
4514.026906074272
 30
0.0
 11
9237.117066152967
 21
2481.026906074276
 31
0.0
  0
LINE
  5
169CB
330
747D
100
AcDbEntity
  8
細線
100
AcDbLine
 10
9958.617075903212
 20
4514.026906074272
 30
0.0
 11
9958.617075903212
 21
2488.526906074283
 31
0.0
  0
LINE
  5
169CC
330
747D
100
AcDbEntity
  8
細線
100
AcDbLine
 10
9888.617075903212
 20
4514.026906074272
 30
0.0
 11
9888.617075903212
 21
2488.526906074283
 31
0.0
  0
LINE
  5
169CD
330
747D
100
AcDbEntity
  8
細線
100
AcDbLine
 10
10603.86706615297
 20
4514.026906074272
 30
0.0
 11
10603.86706615297
 21
2488.52690607429
 31
0.0
  0
LINE
  5
169CE
330
747D
100
AcDbEntity
  8
部品1
 48
50.0
100
AcDbLine
 10
11147.11706615297
 20
4522.026906074272
 30
0.0
 11
11117.11706615297
 21
4522.026906074272
 31
0.0
  0
LINE
  5
169CF
330
747D
100
AcDbEntity
  8
細線
 48
50.0
100
AcDbLine
 10
11095.11706615297
 20
2478.026906074272
 30
0.0
 11
11091.11706615297
 21
2488.526906074272
 31
0.0
  0
LINE
  5
169D0
330
747D
100
AcDbEntity
  8
部品1
 48
50.0
100
AcDbLine
 10
10481.11705645783
 20
4514.026906111419
 30
0.0
 11
10481.11705645783
 21
2488.52690611142
 31
0.0
  0
LINE
  5
169D1
330
747D
100
AcDbEntity
  8
部品1
 48
50.0
100
AcDbLine
 10
11147.11706615297
 20
2431.026906074273
 30
0.0
 11
11147.11706615297
 21
4566.026906074272
 31
0.0
  0
LINE
  5
169D2
330
747D
100
AcDbEntity
  8
細線
 48
50.0
100
AcDbLine
 10
11117.11706615297
 20
2431.026906074273
 30
0.0
 11
11117.11706615297
 21
4523.526906074272
 31
0.0
  0
LINE
  5
169D3
330
747D
100
AcDbEntity
  8
部品1
 48
50.0
100
AcDbLine
 10
11108.11706615297
 20
2478.026906074272
 30
0.0
 11
11108.11706615297
 21
4514.026906074272
 31
0.0
  0
LINE
  5
169D4
330
747D
100
AcDbEntity
  8
部品1
 48
50.0
100
AcDbLine
 10
9023.11706615297
 20
4522.026906074272
 30
0.0
 11
8993.11706615297
 21
4522.026906074272
 31
0.0
  0
LINE
  5
169D5
330
747D
100
AcDbEntity
  8
部品1
 48
50.0
100
AcDbLine
 10
9032.11706615297
 20
2481.026906074272
 30
0.0
 11
9032.11706615297
 21
2478.026906074272
 31
0.0
  0
LINE
  5
169D6
330
747D
100
AcDbEntity
  8
部品1
 48
50.0
100
AcDbLine
 10
9023.11706615297
 20
2481.026906074272
 30
0.0
 11
9827.117066152966
 21
2481.026906074268
 31
0.0
  0
LINE
  5
169D7
330
747D
100
AcDbEntity
  8
部品1
 48
50.0
100
AcDbLine
 10
9827.117066152966
 20
4514.026906099039
 30
0.0
 11
9827.117066152966
 21
2481.02690609904
 31
0.0
  0
LINE
  5
169D8
330
747D
100
AcDbEntity
  8
部品1
 48
50.0
100
AcDbLine
 10
8993.11706615297
 20
4566.026906074272
 30
0.0
 11
8993.11706615297
 21
2431.026906074273
 31
0.0
  0
LINE
  5
169D9
330
747D
100
AcDbEntity
  8
細線
 48
50.0
100
AcDbLine
 10
9023.11706615297
 20
4523.526906074272
 30
0.0
 11
9023.11706615297
 21
2431.026906074273
 31
0.0
  0
LINE
  5
169DA
330
747D
100
AcDbEntity
  8
部品1
 48
50.0
100
AcDbLine
 10
9023.11706615297
 20
2481.026906074272
 30
0.0
 11
9023.11706615297
 21
4514.026906074272
 31
0.0
  0
LINE
  5
169DB
330
747D
100
AcDbEntity
  8
細線
 48
50.0
100
AcDbLine
 10
9827.117066152966
 20
2488.526906074272
 30
0.0
 11
11091.11706615297
 21
2488.526906074272
 31
0.0
  0
LINE
  5
169DC
330
747D
100
AcDbEntity
  8
細線
 48
50.0
100
AcDbLine
 10
9023.11706615297
 20
2478.026906074272
 30
0.0
 11
11117.11706615297
 21
2478.026906074272
 31
0.0
  0
LINE
  5
169DD
330
747D
100
AcDbEntity
  8
細線
 48
50.0
100
AcDbLine
 10
9023.11706615297
 20
2474.026906074272
 30
0.0
 11
11117.11706615297
 21
2474.026906074272
 31
0.0
  0
LINE
  5
169DE
330
747D
100
AcDbEntity
  8
部品1
 48
50.0
100
AcDbLine
 10
8993.11706615297
 20
2431.026906074273
 30
0.0
 11
11147.11706615297
 21
2431.026906074273
 31
0.0
  0
LINE
  5
169DF
330
747D
100
AcDbEntity
  8
細線
 48
50.0
100
AcDbLine
 10
11117.11706615297
 20
4523.526906074272
 30
0.0
 11
9023.11706615297
 21
4523.526906074272
 31
0.0
  0
LINE
  5
169E0
330
747D
100
AcDbEntity
  8
細線
 48
50.0
100
AcDbLine
 10
11117.11706615297
 20
4514.026906074272
 30
0.0
 11
9023.11706615297
 21
4514.026906074272
 31
0.0
  0
LINE
  5
169E1
330
747D
100
AcDbEntity
  8
細線
 48
50.0
100
AcDbLine
 10
11147.11706615297
 20
4556.026906074271
 30
0.0
 11
8993.11706615297
 21
4556.026906074271
 31
0.0
  0
LINE
  5
169E2
330
747D
100
AcDbEntity
  8
部品1
 48
50.0
100
AcDbLine
 10
11147.11706615297
 20
4566.026906074272
 30
0.0
 11
8993.11706615297
 21
4566.026906074272
 31
0.0
  0
TEXT
  5
16AB0
330
747D
100
AcDbEntity
  8
文字
 62
     7
 48
50.0
100
AcDbText
 10
14491.96323844892
 20
483.8967129911416
 30
0.0
 40
160.0
  1
ＮＸＮ－４８ＨＡ
  7
STYLE2
100
AcDbText
  0
LINE
  5
16AB1
330
747D
100
AcDbEntity
  8
部品1
100
AcDbLine
 10
10451.85239926718
 20
1641.988643096863
 30
0.0
 11
9688.381733038749
 21
1641.988643096863
 31
0.0
  0
LINE
  5
16AB2
330
747D
100
AcDbEntity
  8
部品1
100
AcDbLine
 10
10451.85239926718
 20
1402.09632155133
 30
0.0
 11
10451.85239926718
 21
1641.988643096863
 31
0.0
  0
LINE
  5
16AB3
330
747D
100
AcDbEntity
  8
部品1
100
AcDbLine
 10
9688.381733038749
 20
1402.09632155133
 30
0.0
 11
10451.85239926718
 21
1402.09632155133
 31
0.0
  0
LINE
  5
16AB4
330
747D
100
AcDbEntity
  8
部品1
100
AcDbLine
 10
9688.381733038749
 20
1641.988643096863
 30
0.0
 11
9688.381733038749
 21
1402.09632155133
 31
0.0
  0
LINE
  5
16AB9
330
747D
100
AcDbEntity
  8
部品1
100
AcDbLine
 10
11147.11706615297
 20
2481.026906074292
 30
0.0
 11
11175.11706615297
 21
2481.026906074292
 31
0.0
  0
LINE
  5
16ABA
330
747D
100
AcDbEntity
  8
部品1
 48
50.0
100
AcDbLine
 10
11120.11706615297
 20
4566.026906074272
 30
0.0
 11
11120.11706615297
 21
4571.026906074272
 31
0.0
  0
LINE
  5
16ABB
330
747D
100
AcDbEntity
  8
部品1
 48
50.0
100
AcDbLine
 10
9020.11706615297
 20
4566.026906074272
 30
0.0
 11
9020.11706615297
 21
4571.026906074272
 31
0.0
  0
DIMENSION
  5
16ABC
330
747D
100
AcDbEntity
  8
寸法
 48
50.0
100
AcDbDimension
  2
*D18
 10
8674.9347779069
 20
2489.026906074272
 30
0.0
 11
8674.9347779069
 21
3508.500707210085
 31
0.0
 70
   160
  1
有効開口部高サ<>
 71
     5
 42
2025.000000000001
  3
INABA_S40G
100
AcDbAlignedDimension
 13
8993.11706615297
 23
4514.026906074272
 33
0.0
 14
8993.11706615297
 24
2489.026906074272
 34
0.0
 50
90.0
100
AcDbRotatedDimension
  0
LINE
  5
16ABD
330
747D
100
AcDbEntity
  8
部品1
 48
50.0
100
AcDbLine
 10
11120.11706615295
 20
7646.080917972539
 30
0.0
 11
11175.11706615295
 21
7646.080917972544
 31
0.0
  0
LINE
  5
16ABE
330
747D
100
AcDbEntity
  8
部品1
 48
50.0
100
AcDbLine
 10
11147.11706615295
 20
7674.080917972507
 30
0.0
 11
8993.117066152953
 21
7674.080917972474
 31
0.0
  0
LINE
  5
16ABF
330
747D
100
AcDbEntity
  8
部品1
 48
50.0
100
AcDbLine
 10
8965.11706615297
 20
7646.08091797238
 30
0.0
 11
9020.117066152954
 21
7646.080917972383
 31
0.0
  0
LINE
  5
16AC0
330
747D
100
AcDbEntity
  8
部品1
100
AcDbLine
 10
11120.11706615295
 20
7674.080917972507
 30
0.0
 11
11120.11706615295
 21
7646.080917972508
 31
0.0
  0
LINE
  5
16AC1
330
747D
100
AcDbEntity
  8
部品1
100
AcDbLine
 10
11120.11706615295
 20
7674.080917972486
 30
0.0
 11
11120.11706615295
 21
7646.080917972486
 31
0.0
  0
LINE
  5
16AC2
330
747D
100
AcDbEntity
  8
部品1
100
AcDbLine
 10
9020.117066152954
 20
7674.080917972391
 30
0.0
 11
9020.117066152954
 21
7646.08091797239
 31
0.0
  0
LINE
  5
16AC3
330
747D
100
AcDbEntity
  8
部品1
100
AcDbLine
 10
9020.117066152916
 20
7674.080917972358
 30
0.0
 11
9020.117066152918
 21
7646.080917972359
 31
0.0
  0
LINE
  5
16AC4
330
747D
100
AcDbEntity
  8
部品1
100
AcDbLine
 10
8993.117066152956
 20
7701.080917972427
 30
0.0
 11
8965.117066152956
 21
7701.080917972427
 31
0.0
  0
LINE
  5
16AC5
330
747D
100
AcDbEntity
  8
部品1
100
AcDbLine
 10
11147.11706615298
 20
7701.080917972555
 30
0.0
 11
11175.11706615298
 21
7701.080917972555
 31
0.0
  0
LINE
  5
16AC6
330
747D
100
AcDbEntity
  8
部品1
100
AcDbLine
 10
11147.11706615298
 20
8961.080917972555
 30
0.0
 11
11175.11706615298
 21
8961.080917972555
 31
0.0
  0
LINE
  5
16AC7
330
747D
100
AcDbEntity
  8
部品1
100
AcDbLine
 10
8993.117066152956
 20
8961.080917972427
 30
0.0
 11
8965.117066152956
 21
8961.080917972427
 31
0.0
  0
LINE
  5
16AC8
330
747D
100
AcDbEntity
  8
部品1
 48
50.0
100
AcDbLine
 10
11118.61706615296
 20
8961.080917972555
 30
0.0
 11
9021.617066152961
 21
8961.080917972642
 31
0.0
  0
LINE
  5
16AC9
330
747D
100
AcDbEntity
  8
部品1
100
AcDbLine
 10
9860.117066152978
 20
9856.080917972574
 30
0.0
 11
9860.117066152978
 21
9828.080917972574
 31
0.0
  0
LINE
  5
16ACA
330
747D
100
AcDbEntity
  8
部品1
100
AcDbLine
 10
9860.117066152978
 20
9856.080917972457
 30
0.0
 11
9860.117066152978
 21
9828.080917972457
 31
0.0
  0
LINE
  5
16ACB
330
747D
100
AcDbEntity
  8
部品1
100
AcDbLine
 10
9860.117066152978
 20
9856.080917972457
 30
0.0
 11
9860.117066152978
 21
9828.080917972457
 31
0.0
  0
LINE
  5
16ACC
330
747D
100
AcDbEntity
  8
部品1
100
AcDbLine
 10
11120.11706615298
 20
9856.080917972551
 30
0.0
 11
11120.11706615298
 21
9828.080917972551
 31
0.0
  0
LINE
  5
16ACD
330
747D
100
AcDbEntity
  8
部品1
100
AcDbLine
 10
11120.11706615298
 20
9856.080917972574
 30
0.0
 11
11120.11706615298
 21
9828.080917972574
 31
0.0
  0
LINE
  5
16ACE
330
747D
100
AcDbEntity
  8
部品1
100
AcDbLine
 10
11147.11706615298
 20
9801.080917972555
 30
0.0
 11
11175.11706615297
 21
9801.080917972555
 31
0.0
  0
LINE
  5
16ACF
330
747D
100
AcDbEntity
  8
部品1
100
AcDbLine
 10
11147.11706615298
 20
9381.080917972555
 30
0.0
 11
11175.11706615297
 21
9381.080917972555
 31
0.0
  0
LINE
  5
16AD0
330
747D
100
AcDbEntity
  8
部品1
100
AcDbLine
 10
11146.61706615297
 20
9826.080917972552
 30
0.0
 11
11146.61706615297
 21
9376.080917972556
 31
0.0
  0
LINE
  5
16AD1
330
747D
100
AcDbEntity
  8
部品1
 48
50.0
100
AcDbLine
 10
11118.61706615294
 20
7702.580917972473
 30
0.0
 11
11147.11706615294
 21
7674.080917972474
 31
0.0
  0
LINE
  5
16AD2
330
747D
100
AcDbEntity
  8
部品1
100
AcDbLine
 10
11175.11706615297
 20
9856.080917972551
 30
0.0
 11
11175.11706615295
 21
7646.080917972544
 31
0.0
  0
DIMENSION
  5
16AD3
330
747D
100
AcDbEntity
  8
寸法
100
AcDbDimension
  2
*D19
 10
11822.54341188739
 20
7701.080917972539
 30
0.0
 11
11822.54341188738
 21
8751.080917972547
 31
0.0
 70
   160
  1
5X420=<>
 71
     5
 42
2100.000000000015
  3
INABA_S40G
100
AcDbAlignedDimension
 13
11175.11706615297
 23
9801.080917972555
 33
0.0
 14
11175.11706615295
 24
7701.080917972539
 34
0.0
 50
90.0
100
AcDbRotatedDimension
1001
ACAD
1000
DSTYLE
1002
{
1002
}
  0
LINE
  5
16AD4
330
747D
100
AcDbEntity
  8
部品1
100
AcDbLine
 10
11147.11706615298
 20
9828.080917972551
 30
0.0
 11
11147.11706615295
 21
7674.080917972507
 31
0.0
  0
DIMENSION
  5
16AD5
330
747D
100
AcDbEntity
  8
寸法
100
AcDbDimension
  2
*D20
 10
11501.974792015
 20
9280.863102303666
 30
0.0
 11
11401.974792015
 21
9505.863102303665
 31
0.0
 70
    32
 71
     5
 42
449.9999999999963
  3
INABA_S40G
100
AcDbAlignedDimension
 13
11146.61706615297
 23
9826.080917972552
 33
0.0
 14
11146.61706615297
 24
9376.080917972556
 34
0.0
 50
90.0
100
AcDbRotatedDimension
1001
ACAD
1000
DSTYLE
1002
{
1002
}
  0
LINE
  5
16AD6
330
747D
100
AcDbEntity
  8
部品1
100
AcDbLine
 10
11118.61706615297
 20
9376.080917972556
 30
0.0
 11
11118.61706615295
 21
7702.580917972461
 31
0.0
  0
LINE
  5
16AD7
330
747D
100
AcDbEntity
  8
破線
 48
10.0
100
AcDbLine
 10
11095.11706615297
 20
9376.080917972556
 30
0.0
 11
11095.11706615295
 21
7726.080917972471
 31
0.0
  0
LINE
  5
16AD8
330
747D
100
AcDbEntity
  8
部品1
100
AcDbLine
 10
10700.11706615298
 20
9856.080917972574
 30
0.0
 11
10700.11706615298
 21
9828.080917972574
 31
0.0
  0
LINE
  5
16AD9
330
747D
100
AcDbEntity
  8
部品1
100
AcDbLine
 10
10280.11706615298
 20
9856.080917972574
 30
0.0
 11
10280.11706615298
 21
9828.080917972574
 31
0.0
  0
LINE
  5
16ADA
330
747D
100
AcDbEntity
  8
部品1
100
AcDbLine
 10
10267.61706615298
 20
9820.080917972555
 30
0.0
 11
10292.61706615298
 21
9820.080917972559
 31
0.0
  0
LINE
  5
16ADB
330
747D
100
AcDbEntity
  8
部品1
100
AcDbLine
 10
10309.11706615297
 20
9846.080917972559
 30
0.0
 11
10315.11706615298
 21
9846.080917972559
 31
0.0
  0
LINE
  5
16ADC
330
747D
100
AcDbEntity
  8
部品1
100
AcDbLine
 10
10315.11706615298
 20
9846.080917972559
 30
0.0
 11
10315.11706615298
 21
9828.080917972558
 31
0.0
  0
LINE
  5
16ADD
330
747D
100
AcDbEntity
  8
部品1
100
AcDbLine
 10
10245.11706615298
 20
9846.080917972559
 30
0.0
 11
10251.11706615297
 21
9846.080917972559
 31
0.0
  0
LINE
  5
16ADE
330
747D
100
AcDbEntity
  8
部品1
100
AcDbLine
 10
10245.11706615298
 20
9846.080917972559
 30
0.0
 11
10245.11706615298
 21
9828.080917972558
 31
0.0
  0
LINE
  5
16ADF
330
747D
100
AcDbEntity
  8
部品1
100
AcDbLine
 10
10267.61706615298
 20
9376.080917972563
 30
0.0
 11
10292.61706615298
 21
9376.080917972563
 31
0.0
  0
LINE
  5
16AE0
330
747D
100
AcDbEntity
  8
部品1
 48
50.0
100
AcDbLine
 10
10292.61706615298
 20
9828.080917972563
 30
0.0
 11
10292.61706615298
 21
9376.080917972563
 31
0.0
  0
LINE
  5
16AE1
330
747D
100
AcDbEntity
  8
部品1
 48
50.0
100
AcDbLine
 10
10267.61706615297
 20
9828.080917972567
 30
0.0
 11
10267.61706615298
 21
9376.080917972563
 31
0.0
  0
LINE
  5
16AE2
330
747D
100
AcDbEntity
  8
部品1
 48
50.0
100
AcDbLine
 10
10293.61706615298
 20
9826.080917972555
 30
0.0
 11
10293.61706615298
 21
9376.080917972563
 31
0.0
  0
LINE
  5
16AE3
330
747D
100
AcDbEntity
  8
部品1
 48
50.0
100
AcDbLine
 10
10266.61706615298
 20
9826.080917972559
 30
0.0
 11
10266.61706615298
 21
9376.080917972563
 31
0.0
  0
LINE
  5
16AE4
330
747D
100
AcDbEntity
  8
部品1
100
AcDbLine
 10
9440.117066152977
 20
9856.080917972574
 30
0.0
 11
9440.117066152977
 21
9828.080917972574
 31
0.0
  0
LINE
  5
16AE5
330
747D
100
AcDbEntity
  8
部品1
100
AcDbLine
 10
9440.117066152977
 20
9856.080917972457
 30
0.0
 11
9440.117066152977
 21
9828.080917972457
 31
0.0
  0
LINE
  5
16AE6
330
747D
100
AcDbEntity
  8
部品1
100
AcDbLine
 10
9440.117066152977
 20
9856.080917972457
 30
0.0
 11
9440.117066152977
 21
9828.080917972457
 31
0.0
  0
LINE
  5
16AE9
330
747D
100
AcDbEntity
  8
部品1
100
AcDbLine
 10
10292.61706615298
 20
9828.08091797257
 30
0.0
 11
11147.11706615298
 21
9828.080917972551
 31
0.0
  0
LINE
  5
16AEA
330
747D
100
AcDbEntity
  8
細線
 48
50.0
100
AcDbLine
 10
11146.61706615297
 20
9376.080917972556
 30
0.0
 11
10293.61706615298
 21
9826.080917972555
 31
0.0
  0
LINE
  5
16AEB
330
747D
100
AcDbEntity
  8
部品1
100
AcDbLine
 10
10293.61706615297
 20
9376.080917972563
 30
0.0
 11
11146.61706615297
 21
9376.080917972556
 31
0.0
  0
LINE
  5
16AEC
330
747D
100
AcDbEntity
  8
部品1
100
AcDbLine
 10
10293.61706615298
 20
9826.080917972559
 30
0.0
 11
11146.61706615297
 21
9826.080917972552
 31
0.0
  0
LINE
  5
16AED
330
747D
100
AcDbEntity
  8
細線
 48
50.0
100
AcDbLine
 10
11146.61706615297
 20
9826.080917972552
 30
0.0
 11
10293.61706615297
 21
9376.080917972563
 31
0.0
  0
DIMENSION
  5
16AEE
330
747D
100
AcDbEntity
  8
寸法
100
AcDbDimension
  2
*D21
 10
11068.04829259656
 20
9082.858263171587
 30
0.0
 11
10672.96412827124
 21
9082.858263171587
 31
0.0
 70
   160
 71
     5
 42
853.0000000000109
  3
INABA_S40G
100
AcDbAlignedDimension
 13
10293.61706615298
 23
9376.080917972563
 33
0.0
 14
11146.61706615299
 24
9376.080917972556
 34
0.0
100
AcDbRotatedDimension
1001
ACAD
1000
DSTYLE
1002
{
1002
}
  0
LINE
  5
16AEF
330
747D
100
AcDbEntity
  8
破線
 48
10.0
100
AcDbLine
 10
11095.11706615294
 20
7726.080917972471
 30
0.0
 11
10440.61706615299
 21
7726.080917972443
 31
0.0
  0
DIMENSION
  5
16AF1
330
747D
100
AcDbEntity
  8
寸法
100
AcDbDimension
  2
*D22
 10
11822.54341188736
 20
7646.080917972543
 30
0.0
 11
11822.54341188736
 21
7268.219451067682
 31
0.0
 70
   160
 71
     5
 42
54.99999999999636
  3
INABA_S40G
100
AcDbAlignedDimension
 13
11175.11706615295
 23
7701.080917972539
 33
0.0
 14
11175.11706615295
 24
7646.080917972543
 34
0.0
 50
90.0
100
AcDbRotatedDimension
1001
ACAD
1000
DSTYLE
1002
{
1002
}
  0
LINE
  5
16AF2
330
747D
100
AcDbEntity
  8
部品1
100
AcDbLine
 10
9020.117066152941
 20
9856.080917972425
 30
0.0
 11
9020.117066152945
 21
9828.080917972425
 31
0.0
  0
LINE
  5
16AF3
330
747D
100
AcDbEntity
  8
部品1
100
AcDbLine
 10
9020.117066152977
 20
9856.080917972457
 30
0.0
 11
9020.117066152977
 21
9828.080917972457
 31
0.0
  0
LINE
  5
16AF4
330
747D
100
AcDbEntity
  8
部品1
100
AcDbLine
 10
8993.117066152946
 20
9801.080917972427
 30
0.0
 11
8965.117066152945
 21
9801.080917972427
 31
0.0
  0
LINE
  5
16AF5
330
747D
100
AcDbEntity
  8
部品1
100
AcDbLine
 10
8993.117066152953
 20
9381.080917972427
 30
0.0
 11
8965.117066152952
 21
9381.080917972427
 31
0.0
  0
LINE
  5
16AF6
330
747D
100
AcDbEntity
  8
部品1
 48
50.0
100
AcDbLine
 10
8993.617066152976
 20
9826.080917972454
 30
0.0
 11
8993.617066152976
 21
9376.080917972453
 31
0.0
  0
LINE
  5
16AF7
330
747D
100
AcDbEntity
  8
部品1
 48
50.0
100
AcDbLine
 10
9021.61706615295
 20
7702.580917972473
 30
0.0
 11
8993.117066152953
 21
7674.080917972474
 31
0.0
  0
LINE
  5
16AF8
330
747D
100
AcDbEntity
  8
部品1
100
AcDbLine
 10
8965.117066152942
 20
9856.080917972425
 30
0.0
 11
8965.11706615297
 21
7646.080917972414
 31
0.0
  0
LINE
  5
16AF9
330
747D
100
AcDbEntity
  8
部品1
100
AcDbLine
 10
8993.117066152953
 20
7674.080917972474
 30
0.0
 11
8993.117066152978
 21
9828.080917972457
 31
0.0
  0
LINE
  5
16AFA
330
747D
100
AcDbEntity
  8
部品1
100
AcDbLine
 10
9021.617066152954
 20
9376.080917972556
 30
0.0
 11
9021.61706615297
 21
7702.580917972493
 31
0.0
  0
LINE
  5
16AFB
330
747D
100
AcDbEntity
  8
破線
 48
10.0
100
AcDbLine
 10
9045.117066152952
 20
9376.080917972556
 30
0.0
 11
9045.117066152966
 21
7726.080917972376
 31
0.0
  0
LINE
  5
16AFD
330
747D
100
AcDbEntity
  8
部品1
100
AcDbLine
 10
8993.117066152978
 20
9828.080917972457
 30
0.0
 11
10267.61706615297
 21
9828.080917972574
 31
0.0
  0
LINE
  5
16AFE
330
747D
100
AcDbEntity
  8
部品1
100
AcDbLine
 10
8965.117066152977
 20
9856.080917972457
 30
0.0
 11
11175.11706615297
 21
9856.080917972551
 31
0.0
  0
LINE
  5
16AFF
330
747D
100
AcDbEntity
  8
部品1
100
AcDbLine
 10
8993.617066152976
 20
9376.080917972457
 30
0.0
 11
10266.61706615297
 21
9376.080917972563
 31
0.0
  0
LINE
  5
16B00
330
747D
100
AcDbEntity
  8
細線
 48
50.0
100
AcDbLine
 10
10266.61706615298
 20
9826.080917972559
 30
0.0
 11
8993.617066152976
 21
9376.080917972457
 31
0.0
  0
LINE
  5
16B01
330
747D
100
AcDbEntity
  8
部品1
100
AcDbLine
 10
8993.617066152976
 20
9826.080917972456
 30
0.0
 11
10266.61706615298
 21
9826.080917972563
 31
0.0
  0
LINE
  5
16B02
330
747D
100
AcDbEntity
  8
細線
 48
50.0
100
AcDbLine
 10
10266.61706615297
 20
9376.080917972563
 30
0.0
 11
8993.617066152976
 21
9826.080917972456
 31
0.0
  0
DIMENSION
  5
16B03
330
747D
100
AcDbEntity
  8
寸法
100
AcDbDimension
  2
*D23
 10
10187.75590593808
 20
9081.767061306607
 30
0.0
 11
9535.075959002512
 21
9081.767061306607
 31
0.0
 70
   160
 71
     5
 42
1273.000000000011
  3
INABA_S40G
100
AcDbAlignedDimension
 13
8993.617066152976
 23
9376.080917972457
 33
0.0
 14
10266.61706615299
 24
9376.08091797245
 34
0.0
100
AcDbRotatedDimension
1001
ACAD
1000
DSTYLE
1002
{
1002
}
  0
LINE
  5
16B04
330
747D
100
AcDbEntity
  8
破線
 48
10.0
100
AcDbLine
 10
10390.61706615299
 20
7726.080917972442
 30
0.0
 11
9749.617066152994
 21
7726.08091797241
 31
0.0
  0
LINE
  5
16B05
330
747D
100
AcDbEntity
  8
部品1
100
AcDbLine
 10
11118.61706615294
 20
7702.580917972473
 30
0.0
 11
9021.617066152854
 21
7702.580917972376
 31
0.0
  0
DIMENSION
  5
16B06
330
747D
100
AcDbEntity
  8
寸法
100
AcDbDimension
  2
*D24
 10
9020.117066152977
 20
10159.12651254803
 30
0.0
 11
8656.631784778703
 21
10159.12651254803
 31
0.0
 70
   160
 71
     5
 42
55.00000000003637
  3
INABA_S40G
100
AcDbAlignedDimension
 13
8965.117066152942
 23
9856.080917972457
 33
0.0
 14
9020.117066152977
 24
9856.080917972457
 34
0.0
100
AcDbRotatedDimension
1001
ACAD
1000
DSTYLE
1002
{
1002
}
  0
DIMENSION
  5
16B07
330
747D
100
AcDbEntity
  8
寸法
100
AcDbDimension
  2
*D25
 10
11822.54341188739
 20
9801.080917972555
 30
0.0
 11
11822.54341188738
 21
10164.56619934679
 31
0.0
 70
   160
 71
     5
 42
54.99999999999636
  3
INABA_S40G
100
AcDbAlignedDimension
 13
11175.11706615297
 23
9856.080917972551
 33
0.0
 14
11175.11706615297
 24
9801.080917972555
 34
0.0
 50
90.0
100
AcDbRotatedDimension
1001
ACAD
1000
DSTYLE
1002
{
1002
}
  0
DIMENSION
  5
16B08
330
747D
100
AcDbEntity
  8
寸法
100
AcDbDimension
  2
*D26
 10
11175.11706615297
 20
10159.12651254813
 30
0.0
 11
11483.60234752721
 21
10159.12651254813
 31
0.0
 70
   160
 71
     5
 42
55.0
  3
INABA_S40G
100
AcDbAlignedDimension
 13
11120.11706615298
 23
9856.080917972551
 33
0.0
 14
11175.11706615297
 24
9856.080917972551
 34
0.0
100
AcDbRotatedDimension
1001
ACAD
1000
DSTYLE
1002
{
1002
}
  0
DIMENSION
  5
16B09
330
747D
100
AcDbEntity
  8
寸法
100
AcDbDimension
  2
*D27
 10
11120.11706615298
 20
10159.12651254815
 30
0.0
 11
10070.11706615297
 21
10159.12651254815
 31
0.0
 70
   160
  1
5X420=<>
 71
     5
 42
2100.0
  3
INABA_S40G
100
AcDbAlignedDimension
 13
9020.117066152977
 23
9856.080917972457
 33
0.0
 14
11120.11706615298
 24
9856.080917972551
 34
0.0
100
AcDbRotatedDimension
1001
ACAD
1000
DSTYLE
1002
{
1002
}
  0
DIMENSION
  5
16B0A
330
747D
100
AcDbEntity
  8
寸法
100
AcDbDimension
  2
*D28
 10
12110.86050843041
 20
7646.080917972543
 30
0.0
 11
12110.86050843041
 21
8711.833497790525
 31
0.0
 70
   160
 71
     5
 42
2210.000000000007
  3
INABA_S40G
100
AcDbAlignedDimension
 13
11175.11706615297
 23
9856.080917972551
 33
0.0
 14
11175.11706615295
 24
7646.080917972543
 34
0.0
 50
90.0
100
AcDbRotatedDimension
1001
ACAD
1000
DSTYLE
1002
{
1002
}
  0
LINE
  5
16B0B
330
747D
100
AcDbEntity
  8
部品1
100
AcDbLine
 10
8965.11706615297
 20
2481.026906074276
 30
0.0
 11
8993.11706615297
 21
2481.026906074276
 31
0.0
  0
TEXT
  5
16B0C
330
747D
100
AcDbEntity
  8
部品1
100
AcDbText
 10
9778.907136776703
 20
1449.095113878339
 30
0.0
 40
135.0
  1
正面図
  7
STYLE2
100
AcDbText
  0
DIMENSION
  5
16B0D
330
747D
100
AcDbEntity
  8
寸法
 48
50.0
100
AcDbDimension
  2
*D29
 10
8865.11706615297
 20
1844.979576773895
 30
0.0
 11
8965.117066152972
 21
1844.979576773895
 31
0.0
 70
   160
 71
     5
 42
200.0000000000018
  3
INABA_S40G
100
AcDbAlignedDimension
 13
9065.117066152971
 23
2131.026906074272
 33
0.0
 14
8865.11706615297
 24
2131.026906074272
 34
0.0
100
AcDbRotatedDimension
  0
LINE
  5
16B0E
330
747D
100
AcDbEntity
  8
破線
 48
5.0
100
AcDbLine
 10
8960.117066152971
 20
2331.026906074272
 30
0.0
 11
8960.117066152971
 21
2176.026906074272
 31
0.0
  0
LINE
  5
16B0F
330
747D
100
AcDbEntity
  8
破線
 48
5.0
100
AcDbLine
 10
11180.11706615297
 20
2331.026906074272
 30
0.0
 11
11180.11706615297
 21
2176.026906074272
 31
0.0
  0
LINE
  5
16B10
330
747D
100
AcDbEntity
  8
破線
 48
5.0
100
AcDbLine
 10
9065.11706615297
 20
2331.026906074272
 30
0.0
 11
9065.11706615297
 21
2131.026906074272
 31
0.0
  0
LINE
  5
16B11
330
747D
100
AcDbEntity
  8
破線
 48
5.0
100
AcDbLine
 10
8940.11706615297
 20
2176.026906074272
 30
0.0
 11
8960.117066152973
 21
2176.026906074272
 31
0.0
  0
LINE
  5
16B12
330
747D
100
AcDbEntity
  8
破線
 48
5.0
100
AcDbLine
 10
8865.11706615297
 20
2331.026906074272
 30
0.0
 11
8865.11706615297
 21
2131.026906074272
 31
0.0
  0
LINE
  5
16B13
330
747D
100
AcDbEntity
  8
破線
 48
5.0
100
AcDbLine
 10
8865.11706615297
 20
2131.026906074272
 30
0.0
 11
9065.117066152971
 21
2131.026906074272
 31
0.0
  0
LINE
  5
16B14
330
747D
100
AcDbEntity
  8
部品1
100
AcDbLine
 10
8960.117066152971
 20
2476.026906074274
 30
0.0
 11
8960.117066152971
 21
2331.026906074272
 31
0.0
  0
LINE
  5
16B15
330
747D
100
AcDbEntity
  8
破線
 48
5.0
100
AcDbLine
 10
11200.11706615297
 20
2176.026906074272
 30
0.0
 11
11180.11706615297
 21
2176.026906074272
 31
0.0
  0
LINE
  5
16B16
330
747D
100
AcDbEntity
  8
破線
 48
5.0
100
AcDbLine
 10
11275.11706615297
 20
2331.026906074272
 30
0.0
 11
11275.11706615297
 21
2131.026906074272
 31
0.0
  0
LINE
  5
16B17
330
747D
100
AcDbEntity
  8
破線
 48
5.0
100
AcDbLine
 10
11075.11706615297
 20
2331.026906074272
 30
0.0
 11
11075.11706615297
 21
2131.026906074272
 31
0.0
  0
LINE
  5
16B18
330
747D
100
AcDbEntity
  8
破線
 48
5.0
100
AcDbLine
 10
11275.11706615297
 20
2131.026906074272
 30
0.0
 11
11075.11706615297
 21
2131.026906074272
 31
0.0
  0
LINE
  5
16B19
330
747D
100
AcDbEntity
  8
部品1
100
AcDbLine
 10
11180.11706615297
 20
2476.026906074273
 30
0.0
 11
11180.11706615297
 21
2331.026906074272
 31
0.0
  0
LINE
  5
16B1C
330
747D
100
AcDbEntity
  8
部品1
100
AcDbLine
 10
9365.11706615297
 20
2431.026906074273
 30
0.0
 11
9365.11706615297
 21
2331.026906074272
 31
0.0
  0
LINE
  5
16B1D
330
747D
100
AcDbEntity
  8
部品1
100
AcDbLine
 10
10775.11706615297
 20
2431.026906074273
 30
0.0
 11
10775.11706615297
 21
2331.026906074272
 31
0.0
  0
LINE
  5
16B1E
330
747D
100
AcDbEntity
  8
部品1
100
AcDbLine
 10
11175.11706615297
 20
4624.526906074271
 30
0.0
 11
11175.11706615297
 21
2331.026906074272
 31
0.0
  0
LINE
  5
16B1F
330
747D
100
AcDbEntity
  8
部品1
100
AcDbLine
 10
8965.11706615297
 20
4624.526906074271
 30
0.0
 11
8965.11706615297
 21
2331.026906074272
 31
0.0
  0
LINE
  5
16B20
330
747D
100
AcDbEntity
  8
部品1
100
AcDbLine
 10
8965.11706615297
 20
4571.026906074272
 30
0.0
 11
11175.11706615297
 21
4571.026906074272
 31
0.0
  0
LINE
  5
16B21
330
747D
100
AcDbEntity
  8
部品1
100
AcDbLine
 10
8965.11706615297
 20
2431.026906074273
 30
0.0
 11
11175.11706615297
 21
2431.026906074273
 31
0.0
  0
LINE
  5
16B22
330
747D
100
AcDbEntity
  8
Ｇ．Ｌ
100
AcDbLine
 10
2732.564097180888
 20
2331.026906074272
 30
0.0
 11
11824.62961918181
 21
2331.026906074272
 31
0.0
  0
TEXT
  5
16B23
330
747D
100
AcDbEntity
  8
文字
 62
     7
 48
50.0
100
AcDbText
 10
13209.4053442172
 20
228.543524256902
 30
0.0
 40
100.0
  1
○有効開口寸法 ： 1266×2025(mm)
  7
STYLE2
100
AcDbText
  0
LINE
  5
16B24
330
747D
100
AcDbEntity
  8
部品1
 48
50.0
100
AcDbLine
 10
11118.61706615296
 20
8121.080917972554
 30
0.0
 11
9021.617066152961
 21
8121.080917972642
 31
0.0
  0
LINE
  5
16B25
330
747D
100
AcDbEntity
  8
部品1
100
AcDbLine
 10
8993.117066152956
 20
8121.080917972427
 30
0.0
 11
8965.117066152956
 21
8121.080917972427
 31
0.0
  0
LINE
  5
16B26
330
747D
100
AcDbEntity
  8
部品1
100
AcDbLine
 10
11147.11706615298
 20
8121.080917972554
 30
0.0
 11
11175.11706615298
 21
8121.080917972554
 31
0.0
  0
LINE
  5
16DE8
330
747D
100
AcDbEntity
  8
補助
  6
PHANTOM
 62
   230
 48
50.0
100
AcDbLine
 10
140.0
 20
0.0
 30
0.0
 11
140.0
 21
11409.6
 31
0.0
  0
LINE
  5
170C0
330
747D
100
AcDbEntity
  8
部品1
 48
50.0
100
AcDbLine
 10
9067.11706615297
 20
3562.526906074274
 30
0.0
 11
9120.117066152969
 21
3562.526906074274
 31
0.0
  0
LINE
  5
17B8E
330
747D
100
AcDbEntity
  8
部品1
 48
50.0
100
AcDbLine
 10
9824.117066152963
 20
2431.026906074273
 30
0.0
 11
9824.117066152963
 21
2331.026906074272
 31
0.0
  0
LINE
  5
17B8F
330
747D
100
AcDbEntity
  8
部品1
 48
50.0
100
AcDbLine
 10
9624.117066152962
 20
2431.026906074273
 30
0.0
 11
9624.117066152962
 21
2331.026906074272
 31
0.0
  0
LINE
  5
17B90
330
747D
100
AcDbEntity
  8
部品1
 48
50.0
100
AcDbLine
 10
10516.11706615296
 20
2431.026906074273
 30
0.0
 11
10516.11706615296
 21
2331.026906074272
 31
0.0
  0
LINE
  5
17B91
330
747D
100
AcDbEntity
  8
部品1
 48
50.0
100
AcDbLine
 10
10316.11706615296
 20
2431.026906074273
 30
0.0
 11
10316.11706615296
 21
2331.026906074272
 31
0.0
  0
LINE
  5
17B92
330
747D
100
AcDbEntity
  8
破線
 48
10.0
100
AcDbLine
 10
9749.617066152993
 20
7702.580917972409
 30
0.0
 11
9749.617066153
 21
9376.080917972519
 31
0.0
  0
LINE
  5
17B93
330
747D
100
AcDbEntity
  8
破線
 48
10.0
100
AcDbLine
 10
10390.61706615299
 20
7702.58091797244
 30
0.0
 11
10390.61706615299
 21
9376.080917972563
 31
0.0
  0
LINE
  5
17B94
330
747D
100
AcDbEntity
  8
破線
 48
10.0
100
AcDbLine
 10
10440.61706615299
 20
7702.580917972442
 30
0.0
 11
10440.617066153
 21
9376.08091797256
 31
0.0
  0
LINE
  5
17B95
330
747D
100
AcDbEntity
  8
破線
 48
10.0
100
AcDbLine
 10
9699.617066152995
 20
7702.580917972408
 30
0.0
 11
9699.617066152988
 21
9376.080917972513
 31
0.0
  0
LINE
  5
17BA8
330
747D
100
AcDbEntity
  8
破線
 48
10.0
100
AcDbLine
 10
9699.617066152995
 20
7726.080917972409
 30
0.0
 11
9045.117066152949
 21
7726.080917972376
 31
0.0
  0
LINE
  5
184F3
330
747D
100
AcDbEntity
  8
部品1
 48
50.0
100
AcDbLine
 10
5658.020036815713
 20
2431.026906074273
 30
0.0
 11
5658.020036815713
 21
2331.026906074272
 31
0.0
  0
LINE
  5
184F4
330
747D
100
AcDbEntity
  8
部品1
 48
50.0
100
AcDbLine
 10
5858.020036815715
 20
2431.026906074273
 30
0.0
 11
5858.020036815712
 21
2331.026906074272
 31
0.0
  0
LINE
  5
185DC
330
747D
100
AcDbEntity
  8
寸法
 48
50.0
100
AcDbLine
 10
9455.320072434798
 20
7424.117669541255
 30
0.0
 11
9403.914064524693
 21
7424.117669541255
 31
0.0
  0
LINE
  5
185DD
330
747D
100
AcDbEntity
  8
寸法
 48
50.0
100
AcDbLine
 10
9403.914064524693
 20
7424.117669541255
 30
0.0
 11
9403.914064524693
 21
7455.42782819342
 31
0.0
  0
LINE
  5
185DE
330
747D
100
AcDbEntity
  8
寸法
 48
50.0
100
AcDbLine
 10
9403.914064524693
 20
7455.42782819342
 30
0.0
 11
9374.15273253327
 21
7455.42782819342
 31
0.0
  0
LINE
  5
185DF
330
747D
100
AcDbEntity
  8
寸法
 48
50.0
100
AcDbLine
 10
9374.15273253327
 20
7455.42782819342
 30
0.0
 11
9429.617068479746
 21
7493.007279122029
 31
0.0
  0
LINE
  5
185E0
330
747D
100
AcDbEntity
  8
寸法
 48
50.0
100
AcDbLine
 10
9485.081404426221
 20
7455.42782819342
 30
0.0
 11
9429.617068479746
 21
7493.007279122029
 31
0.0
  0
LINE
  5
185E1
330
747D
100
AcDbEntity
  8
寸法
 48
50.0
100
AcDbLine
 10
9455.320072434798
 20
7455.42782819342
 30
0.0
 11
9485.081404426221
 21
7455.42782819342
 31
0.0
  0
LINE
  5
185E2
330
747D
100
AcDbEntity
  8
寸法
 48
50.0
100
AcDbLine
 10
9455.320072434798
 20
7424.117669541255
 30
0.0
 11
9455.320072434798
 21
7455.42782819342
 31
0.0
  0
LINE
  5
185E3
330
747D
100
AcDbEntity
  8
寸法
 48
50.0
100
AcDbLine
 10
9403.914064524693
 20
7424.117669541255
 30
0.0
 11
9455.320072434798
 21
7424.117669541255
 31
0.0
  0
LINE
  5
185E4
330
747D
100
AcDbEntity
  8
寸法
 48
50.0
100
AcDbLine
 10
9734.485606711656
 20
7481.263260296076
 30
0.0
 11
9734.485606711656
 21
7427.599625714286
 31
0.0
  0
LINE
  5
185E5
330
747D
100
AcDbEntity
  8
寸法
 48
50.0
100
AcDbLine
 10
9823.769825307076
 20
7457.339626026591
 30
0.0
 11
9734.485606711656
 21
7481.263260296076
 31
0.0
  0
LINE
  5
185E6
330
747D
100
AcDbEntity
  8
寸法
 48
50.0
100
AcDbLine
 10
9604.617885131352
 20
7457.339626026591
 30
0.0
 11
9823.769825307076
 21
7457.339626026591
 31
0.0
  0
LINE
  5
185E7
330
747D
100
AcDbEntity
  8
細線
 48
50.0
100
AcDbLine
 10
10481.11706615295
 20
7622.581032921117
 30
0.0
 11
11108.11706615295
 21
7622.581032921117
 31
0.0
  0
LINE
  5
185E8
330
747D
100
AcDbEntity
  8
細線
 48
50.0
100
AcDbLine
 10
9827.117070806544
 20
7588.87226436704
 30
0.0
 11
11108.11706615295
 21
7588.87226436704
 31
0.0
  0
LINE
  5
185E9
330
747D
100
AcDbEntity
  8
細線
 48
50.0
100
AcDbLine
 10
9786.117070806547
 20
7618.277172363294
 30
0.0
 11
9032.117066152952
 21
7618.277172363291
 31
0.0
  0
LINE
  5
185EA
330
747D
100
AcDbEntity
  8
細線
100
AcDbLine
 10
10883.8670567365
 20
7642.080932886125
 30
0.0
 11
10886.1985962583
 21
7647.080935526087
 31
0.0
  0
LINE
  5
185EB
330
747D
100
AcDbEntity
  8
細線
100
AcDbLine
 10
10953.86706615295
 20
7642.080917972392
 30
0.0
 11
10951.53551967676
 21
7647.080935526071
 31
0.0
  0
LINE
  5
185EC
330
747D
100
AcDbEntity
  8
細線
100
AcDbLine
 10
10951.53551967676
 20
7647.080935526071
 30
0.0
 11
10886.19859625829
 21
7647.080935526057
 31
0.0
  0
LINE
  5
185ED
330
747D
100
AcDbEntity
  8
細線
100
AcDbLine
 10
10811.53551967676
 20
7647.080935526071
 30
0.0
 11
10746.19859625829
 21
7647.080935526057
 31
0.0
  0
LINE
  5
185EE
330
747D
100
AcDbEntity
  8
細線
100
AcDbLine
 10
10813.86706615295
 20
7642.080917972392
 30
0.0
 11
10811.53551967676
 21
7647.080935526071
 31
0.0
  0
LINE
  5
185EF
330
747D
100
AcDbEntity
  8
細線
100
AcDbLine
 10
10743.8670567365
 20
7642.080932886125
 30
0.0
 11
10746.1985962583
 21
7647.080935526087
 31
0.0
  0
LINE
  5
185F0
330
747D
100
AcDbEntity
  8
細線
100
AcDbLine
 10
10603.86706615295
 20
7642.080917972392
 30
0.0
 11
10606.19860567476
 21
7647.080920612352
 31
0.0
  0
LINE
  5
185F1
330
747D
100
AcDbEntity
  8
細線
100
AcDbLine
 10
10673.86707556941
 20
7642.080903058657
 30
0.0
 11
10671.53552909322
 21
7647.080920612338
 31
0.0
  0
LINE
  5
185F2
330
747D
100
AcDbEntity
  8
細線
100
AcDbLine
 10
10671.53552909323
 20
7647.080920612338
 30
0.0
 11
10606.19860567475
 21
7647.080920612324
 31
0.0
  0
LINE
  5
185F3
330
747D
100
AcDbEntity
  8
細線
100
AcDbLine
 10
10376.28555034206
 20
7613.080957309719
 30
0.0
 11
10310.94862692358
 21
7613.080957309705
 31
0.0
  0
LINE
  5
185F4
330
747D
100
AcDbEntity
  8
細線
100
AcDbLine
 10
10378.61709681825
 20
7608.080939756039
 30
0.0
 11
10376.28555034206
 21
7613.080957309719
 31
0.0
  0
LINE
  5
185F5
330
747D
100
AcDbEntity
  8
細線
100
AcDbLine
 10
10308.61708740179
 20
7608.080954669773
 30
0.0
 11
10310.9486269236
 21
7613.080957309733
 31
0.0
  0
LINE
  5
185F6
330
747D
100
AcDbEntity
  8
細線
 48
50.0
100
AcDbLine
 10
10150.00044540096
 20
7626.351781125471
 30
0.0
 11
10155.75596298363
 21
7608.080929834985
 31
0.0
  0
LINE
  5
185F7
330
747D
100
AcDbEntity
  8
細線
 48
50.0
100
AcDbLine
 10
10139.07199692053
 20
7626.351781125471
 30
0.0
 11
10150.00044540096
 21
7626.351781125471
 31
0.0
  0
ARC
  5
185F8
330
747D
100
AcDbEntity
  8
細線
 48
50.0
100
AcDbCircle
 10
10133.61764086321
 20
7627.851781125471
 30
0.0
 40
5.0
100
AcDbArc
 50
204.6243183521304
 51
335.3756816478695
  0
ARC
  5
185F9
330
747D
100
AcDbEntity
  8
細線
 48
50.0
100
AcDbCircle
 10
10139.07199692053
 20
7625.351781125471
 30
0.0
 40
1.0
100
AcDbArc
 50
90.0
 51
155.3756816478695
  0
ARC
  5
185FA
330
747D
100
AcDbEntity
  8
細線
 48
50.0
100
AcDbCircle
 10
10128.1632848059
 20
7625.351781125471
 30
0.0
 40
1.0
100
AcDbArc
 50
24.62431835213048
 51
90.0
  0
LINE
  5
185FB
330
747D
100
AcDbEntity
  8
細線
 48
50.0
100
AcDbLine
 10
10117.23483632546
 20
7626.351781125471
 30
0.0
 11
10128.1632848059
 21
7626.351781125471
 31
0.0
  0
LINE
  5
185FC
330
747D
100
AcDbEntity
  8
細線
 48
50.0
100
AcDbLine
 10
10111.4793187428
 20
7608.080929834978
 30
0.0
 11
10117.23483632546
 21
7626.351781125471
 31
0.0
  0
LINE
  5
185FD
330
747D
100
AcDbEntity
  8
細線
100
AcDbLine
 10
10168.61708863283
 20
7608.080927200782
 30
0.0
 11
10170.94862815464
 21
7613.080929840743
 31
0.0
  0
LINE
  5
185FE
330
747D
100
AcDbEntity
  8
細線
100
AcDbLine
 10
10238.61709804929
 20
7608.080912287047
 30
0.0
 11
10236.2855515731
 21
7613.080929840728
 31
0.0
  0
LINE
  5
185FF
330
747D
100
AcDbEntity
  8
細線
100
AcDbLine
 10
10236.2855515731
 20
7613.080929840728
 30
0.0
 11
10170.94862815463
 21
7613.080929840714
 31
0.0
  0
LINE
  5
18600
330
747D
100
AcDbEntity
  8
細線
100
AcDbLine
 10
10096.28552320858
 20
7613.080929834949
 30
0.0
 11
10030.94859979011
 21
7613.080929834935
 31
0.0
  0
LINE
  5
18601
330
747D
100
AcDbEntity
  8
細線
100
AcDbLine
 10
10098.61706968477
 20
7608.080912281268
 30
0.0
 11
10096.28552320858
 21
7613.080929834949
 31
0.0
  0
LINE
  5
18602
330
747D
100
AcDbEntity
  8
細線
100
AcDbLine
 10
10028.61706149935
 20
7608.080929834978
 30
0.0
 11
10030.94859979012
 21
7613.080929834963
 31
0.0
  0
LINE
  5
18603
330
747D
100
AcDbEntity
  8
細線
100
AcDbLine
 10
9888.617096818247
 20
7608.080938022347
 30
0.0
 11
9890.948635109015
 21
7613.080938022332
 31
0.0
  0
LINE
  5
18604
330
747D
100
AcDbEntity
  8
細線
100
AcDbLine
 10
9958.617105003662
 20
7608.080920468637
 30
0.0
 11
9956.285558527476
 21
7613.080938022314
 31
0.0
  0
LINE
  5
18605
330
747D
100
AcDbEntity
  8
細線
100
AcDbLine
 10
9956.285558527476
 20
7613.080938022314
 30
0.0
 11
9890.948635108999
 21
7613.080938022304
 31
0.0
  0
LINE
  5
18606
330
747D
100
AcDbEntity
  8
細線
100
AcDbLine
 10
9517.117062621126
 20
7574.08110970306
 30
0.0
 11
9519.448600911893
 21
7579.081109703046
 31
0.0
  0
LINE
  5
18607
330
747D
100
AcDbEntity
  8
細線
100
AcDbLine
 10
9587.117070806542
 20
7574.081092149346
 30
0.0
 11
9584.785524330355
 21
7579.081109703024
 31
0.0
  0
LINE
  5
18608
330
747D
100
AcDbEntity
  8
細線
100
AcDbLine
 10
9584.785524330355
 20
7579.081109703024
 30
0.0
 11
9519.448600911884
 21
7579.081109703017
 31
0.0
  0
LINE
  5
18609
330
747D
100
AcDbEntity
  8
細線
100
AcDbLine
 10
9724.785524330355
 20
7579.081109703024
 30
0.0
 11
9659.448600911883
 21
7579.081109703017
 31
0.0
  0
LINE
  5
1860A
330
747D
100
AcDbEntity
  8
細線
100
AcDbLine
 10
9727.117070806542
 20
7574.081092149346
 30
0.0
 11
9724.785524330355
 21
7579.081109703024
 31
0.0
  0
LINE
  5
1860B
330
747D
100
AcDbEntity
  8
細線
100
AcDbLine
 10
9657.117062621125
 20
7574.08110970306
 30
0.0
 11
9659.448600911893
 21
7579.081109703046
 31
0.0
  0
LINE
  5
1860C
330
747D
100
AcDbEntity
  8
細線
100
AcDbLine
 10
9444.785524330354
 20
7579.081109703024
 30
0.0
 11
9379.448600911883
 21
7579.081109703013
 31
0.0
  0
LINE
  5
1860D
330
747D
100
AcDbEntity
  8
細線
100
AcDbLine
 10
9447.117070806541
 20
7574.081092149346
 30
0.0
 11
9444.785524330354
 21
7579.081109703024
 31
0.0
  0
LINE
  5
1860E
330
747D
100
AcDbEntity
  8
細線
100
AcDbLine
 10
9377.117062621126
 20
7574.081109703057
 30
0.0
 11
9379.448600911894
 21
7579.081109703041
 31
0.0
  0
LINE
  5
1860F
330
747D
100
AcDbEntity
  8
細線
100
AcDbLine
 10
9237.117070806542
 20
7574.08110970306
 30
0.0
 11
9239.44860909731
 21
7579.081109703046
 31
0.0
  0
LINE
  5
18610
330
747D
100
AcDbEntity
  8
細線
100
AcDbLine
 10
9307.117078991957
 20
7574.081092149346
 30
0.0
 11
9304.78553251577
 21
7579.081109703024
 31
0.0
  0
LINE
  5
18611
330
747D
100
AcDbEntity
  8
細線
100
AcDbLine
 10
9304.78553251577
 20
7579.081109703024
 30
0.0
 11
9239.4486090973
 21
7579.081109703017
 31
0.0
  0
ARC
  5
18612
330
747D
100
AcDbEntity
  8
部品1
 48
0.01
100
AcDbCircle
 10
9192.616959554207
 20
7573.079987517987
 30
0.0
 40
0.5
100
AcDbArc
 50
270.0
 51
0.0
  0
LINE
  5
18613
330
747D
100
AcDbEntity
  8
部品1
 48
0.01
100
AcDbLine
 10
9193.116959554208
 20
7574.079987517987
 30
0.0
 11
9193.116959554208
 21
7573.079987517987
 31
0.0
  0
LINE
  5
18614
330
747D
100
AcDbEntity
  8
部品1
 48
0.01
100
AcDbLine
 10
9193.116959554208
 20
7574.079987517987
 30
0.0
 11
9193.116959554208
 21
7573.079987517987
 31
0.0
  0
LINE
  5
18615
330
747D
100
AcDbEntity
  8
部品1
 48
0.01
100
AcDbLine
 10
9192.616959554207
 20
7572.579987517987
 30
0.0
 11
9186.004454124143
 21
7572.579987517987
 31
0.0
  0
ARC
  5
18616
330
747D
100
AcDbEntity
  8
部品1
100
AcDbCircle
 10
9186.072803676923
 20
7573.579987517987
 30
0.0
 40
1.0
100
AcDbArc
 50
160.5287793655778
 51
270.0
  0
ARC
  5
18617
330
747D
100
AcDbEntity
  8
部品1
100
AcDbCircle
 10
9160.616959554207
 20
7582.579987517987
 30
0.0
 40
26.0
100
AcDbArc
 50
340.5287793655779
 51
0.0
  0
LINE
  5
18618
330
747D
100
AcDbEntity
  8
部品1
100
AcDbLine
 10
9186.616959554207
 20
7582.579987517987
 30
0.0
 11
9186.616959554207
 21
7587.579987517988
 31
0.0
  0
ARC
  5
18619
330
747D
100
AcDbEntity
  8
部品1
 48
0.01
100
AcDbCircle
 10
9184.616959554206
 20
7587.579987517988
 30
0.0
 40
2.0
100
AcDbArc
 50
0.0
 51
90.0
  0
ARC
  5
1861A
330
747D
100
AcDbEntity
  8
部品1
100
AcDbCircle
 10
9183.008567929396
 20
7586.579987517987
 30
0.0
 40
3.0
100
AcDbArc
 50
90.0
 51
141.6069559807873
  0
LINE
  5
1861B
330
747D
100
AcDbEntity
  8
部品1
 48
0.01
100
AcDbLine
 10
9184.616959554206
 20
7589.579987517987
 30
0.0
 11
9183.008567929396
 21
7589.579987517987
 31
0.0
  0
ARC
  5
1861C
330
747D
100
AcDbEntity
  8
部品1
100
AcDbCircle
 10
9164.546245339936
 20
7585.87998751799
 30
0.0
 40
3.0
100
AcDbArc
 50
254.0576313943215
 51
270.0
  0
ARC
  5
1861D
330
747D
100
AcDbEntity
  8
部品1
100
AcDbCircle
 10
9171.687673768479
 20
7585.87998751799
 30
0.0
 40
3.0
100
AcDbArc
 50
270.0
 51
285.9423686056786
  0
LINE
  5
1861E
330
747D
100
AcDbEntity
  8
部品1
100
AcDbLine
 10
9171.687673768479
 20
7582.879987517991
 30
0.0
 11
9164.546245339936
 21
7582.879987517991
 31
0.0
  0
ARC
  5
1861F
330
747D
100
AcDbEntity
  8
部品1
100
AcDbCircle
 10
9168.116959554208
 20
7598.37998751799
 30
0.0
 40
16.0
100
AcDbArc
 50
285.9423686056786
 51
321.6069559807873
  0
LINE
  5
18620
330
747D
100
AcDbEntity
  8
部品1
 48
0.01
100
AcDbLine
 10
9151.616959554207
 20
7589.579987517987
 30
0.0
 11
9153.225351179017
 21
7589.579987517987
 31
0.0
  0
ARC
  5
18621
330
747D
100
AcDbEntity
  8
部品1
100
AcDbCircle
 10
9153.225351179017
 20
7586.579987517987
 30
0.0
 40
3.0
100
AcDbArc
 50
38.39304401921267
 51
90.0
  0
ARC
  5
18622
330
747D
100
AcDbEntity
  8
部品1
100
AcDbCircle
 10
9168.116959554208
 20
7598.37998751799
 30
0.0
 40
16.0
100
AcDbArc
 50
218.3930440192126
 51
254.0576313943215
  0
LINE
  5
18623
330
747D
100
AcDbEntity
  8
部品1
100
AcDbLine
 10
9149.616959554206
 20
7582.579987517987
 30
0.0
 11
9149.616959554206
 21
7587.579987517988
 31
0.0
  0
ARC
  5
18624
330
747D
100
AcDbEntity
  8
部品1
 48
0.01
100
AcDbCircle
 10
9151.616959554207
 20
7587.579987517988
 30
0.0
 40
2.0
100
AcDbArc
 50
90.0
 51
180.0
  0
ARC
  5
18625
330
747D
100
AcDbEntity
  8
部品1
100
AcDbCircle
 10
9175.616959554208
 20
7582.579987517987
 30
0.0
 40
26.0
100
AcDbArc
 50
180.0
 51
199.4712206344221
  0
ARC
  5
18626
330
747D
100
AcDbEntity
  8
部品1
 48
0.01
100
AcDbCircle
 10
9143.616959554206
 20
7573.079987517987
 30
0.0
 40
0.5
100
AcDbArc
 50
180.0
 51
270.0
  0
LINE
  5
18627
330
747D
100
AcDbEntity
  8
部品1
 48
0.01
100
AcDbLine
 10
9143.616959554206
 20
7572.579987517987
 30
0.0
 11
9150.16111543149
 21
7572.579987517987
 31
0.0
  0
LINE
  5
18628
330
747D
100
AcDbEntity
  8
部品1
 48
0.01
100
AcDbLine
 10
9143.116959554207
 20
7574.079987517987
 30
0.0
 11
9143.116959554207
 21
7573.079987517987
 31
0.0
  0
ARC
  5
18629
330
747D
100
AcDbEntity
  8
部品1
100
AcDbCircle
 10
9150.16111543149
 20
7573.579987517987
 30
0.0
 40
1.0
100
AcDbArc
 50
270.0
 51
19.47122063442214
  0
LINE
  5
1862A
330
747D
100
AcDbEntity
  8
細線
100
AcDbLine
 10
9188.616959554215
 20
7592.07998751799
 30
0.0
 11
9147.616959554214
 21
7592.079987517983
 31
0.0
  0
LINE
  5
1862B
330
747D
100
AcDbEntity
  8
細線
100
AcDbLine
 10
9147.616959554214
 20
7592.079987517983
 30
0.0
 11
9147.616959554214
 21
7574.079987517966
 31
0.0
  0
LINE
  5
1862C
330
747D
100
AcDbEntity
  8
細線
100
AcDbLine
 10
9188.616959554215
 20
7592.07998751799
 30
0.0
 11
9188.616959554215
 21
7574.079987517966
 31
0.0
  0
LINE
  5
1862D
330
747D
100
AcDbEntity
  8
細線
100
AcDbLine
 10
9032.117066152952
 20
7578.080917972392
 30
0.0
 11
9032.117066152952
 21
7574.080917972437
 31
0.0
  0
DIMENSION
  5
1862E
330
747D
100
AcDbEntity
  8
寸法
 48
50.0
100
AcDbDimension
  2
*D30
 10
10298.11706615295
 20
6920.183640625786
 30
0.0
 11
9684.093476966621
 21
6920.183640625786
 31
0.0
 70
   160
  1
有効開口部間口\P<>
 71
     5
 42
1266.0
  3
INABA_S40
100
AcDbAlignedDimension
 13
9032.117066152952
 23
7569.080917972391
 33
0.0
 14
10298.11706615295
 24
7569.080917972391
 34
0.0
100
AcDbRotatedDimension
1001
ACAD
1000
DSTYLE
1002
{
1070
    41
1040
0.5
1070
    44
1040
1.0
1070
   147
1040
0.8
1070
   271
1070
     2
1070
   272
1070
     2
1070
   289
1070
     3
1070
   340
1005
F706
1070
   343
1005
163B6
1070
   344
1005
163B6
1002
}
  0
LINE
  5
1862F
330
747D
100
AcDbEntity
  8
部品1
100
AcDbLine
 10
11120.11706615295
 20
7646.08091797239
 30
0.0
 11
11147.11706615295
 21
7646.08091797239
 31
0.0
  0
LINE
  5
18631
330
747D
100
AcDbEntity
  8
部品1
100
AcDbLine
 10
11147.11706615295
 20
7569.080917972391
 30
0.0
 11
11147.11706615295
 21
7646.08091797239
 31
0.0
  0
LINE
  5
18632
330
747D
100
AcDbEntity
  8
部品1
100
AcDbLine
 10
11108.11706615295
 20
7642.080917972392
 30
0.0
 11
11120.11706615295
 21
7642.080917972392
 31
0.0
  0
LINE
  5
18633
330
747D
100
AcDbEntity
  8
部品1
100
AcDbLine
 10
11117.11706615295
 20
7578.080917972392
 30
0.0
 11
11117.11706615295
 21
7569.080917972391
 31
0.0
  0
LINE
  5
18634
330
747D
100
AcDbEntity
  8
部品1
100
AcDbLine
 10
11108.11706615295
 20
7578.080917972392
 30
0.0
 11
11117.11706615295
 21
7578.080917972392
 31
0.0
  0
LINE
  5
18635
330
747D
100
AcDbEntity
  8
部品1
100
AcDbLine
 10
11108.11706615295
 20
7642.080917972392
 30
0.0
 11
11108.11706615295
 21
7578.080917972392
 31
0.0
  0
LINE
  5
18636
330
747D
100
AcDbEntity
  8
部品1
100
AcDbLine
 10
11120.11706615295
 20
7673.080917972391
 30
0.0
 11
11120.11706615295
 21
7642.080917972392
 31
0.0
  0
LINE
  5
18637
330
747D
100
AcDbEntity
  8
部品1
100
AcDbLine
 10
9032.117066152952
 20
7642.080917972392
 30
0.0
 11
9020.117066152954
 21
7642.080917972392
 31
0.0
  0
LINE
  5
18638
330
747D
100
AcDbEntity
  8
部品1
100
AcDbLine
 10
8993.117066152953
 20
7646.08091797239
 30
0.0
 11
9020.117066152954
 21
7646.08091797239
 31
0.0
  0
LINE
  5
18639
330
747D
100
AcDbEntity
  8
部品1
100
AcDbLine
 10
9023.117066152952
 20
7578.080917972392
 30
0.0
 11
9023.117066152952
 21
7569.080917972391
 31
0.0
  0
LINE
  5
1863A
330
747D
100
AcDbEntity
  8
部品1
100
AcDbLine
 10
9032.117066152952
 20
7578.080917972392
 30
0.0
 11
9023.117066152952
 21
7578.080917972392
 31
0.0
  0
LINE
  5
1863B
330
747D
100
AcDbEntity
  8
部品1
100
AcDbLine
 10
9023.117066152952
 20
7569.080917972391
 30
0.0
 11
8993.117066152953
 21
7569.080917972391
 31
0.0
  0
LINE
  5
1863C
330
747D
100
AcDbEntity
  8
部品1
100
AcDbLine
 10
8993.117066152953
 20
7569.080917972391
 30
0.0
 11
8993.117066152953
 21
7646.08091797239
 31
0.0
  0
LINE
  5
1863D
330
747D
100
AcDbEntity
  8
部品1
100
AcDbLine
 10
9032.117066152952
 20
7642.080917972392
 30
0.0
 11
9032.117066152952
 21
7578.080917972392
 31
0.0
  0
LINE
  5
1863E
330
747D
100
AcDbEntity
  8
部品1
100
AcDbLine
 10
9020.117066152954
 20
7673.080917972388
 30
0.0
 11
9020.117066152954
 21
7642.080917972392
 31
0.0
  0
LINE
  5
1863F
330
747D
100
AcDbEntity
  8
部品1
100
AcDbLine
 10
9020.117066152954
 20
7673.080917972388
 30
0.0
 11
11120.11706615295
 21
7673.080917972391
 31
0.0
  0
LINE
  5
18640
330
747D
100
AcDbEntity
  8
部品1
100
AcDbLine
 10
11117.11706615295
 20
7569.080917972391
 30
0.0
 11
11147.11706615295
 21
7569.080917972391
 31
0.0
  0
LINE
  5
18641
330
747D
100
AcDbEntity
  8
部品1
100
AcDbLine
 10
9023.117066152952
 20
7569.080917972391
 30
0.0
 11
11120.11706615295
 21
7569.080917972391
 31
0.0
  0
LINE
  5
18642
330
747D
100
AcDbEntity
  8
細線
  6
Continuous
 62
     5
100
AcDbLine
 10
10399.11706615295
 20
7608.080917972387
 30
0.0
 11
10399.11706615295
 21
7608.080917972387
 31
0.0
  0
LINE
  5
18643
330
747D
100
AcDbEntity
  8
細線
  6
Continuous
 62
     5
100
AcDbLine
 10
10391.61710147185
 20
7608.080927893445
 30
0.0
 11
10391.61710147185
 21
7608.080927893445
 31
0.0
  0
LINE
  5
18644
330
747D
100
AcDbEntity
  8
細線
  6
Continuous
 62
     5
100
AcDbLine
 10
10385.61710147185
 20
7608.080927893445
 30
0.0
 11
10385.61710147185
 21
7608.080927893445
 31
0.0
  0
LINE
  5
18645
330
747D
100
AcDbEntity
  8
細線
  6
Continuous
 62
     5
100
AcDbLine
 10
10453.11706615295
 20
7627.080917972387
 30
0.0
 11
10453.11706615295
 21
7627.080917972387
 31
0.0
  0
LINE
  5
18646
330
747D
100
AcDbEntity
  8
細線
 48
50.0
100
AcDbLine
 10
9046.117070806545
 20
7594.681092149345
 30
0.0
 11
9046.117070806545
 21
7603.077242556985
 31
0.0
  0
LINE
  5
18647
330
747D
100
AcDbEntity
  8
細線
 48
50.0
100
AcDbLine
 10
9046.117070806545
 20
7603.077242556985
 30
0.0
 11
9032.117066152952
 21
7603.077242556981
 31
0.0
  0
LINE
  5
18648
330
747D
100
AcDbEntity
  8
細線
 48
50.0
100
AcDbLine
 10
9797.117070806542
 20
7591.231092149344
 30
0.0
 11
9797.117070806542
 21
7596.081092149346
 31
0.0
  0
LINE
  5
18649
330
747D
100
AcDbEntity
  8
細線
 48
50.0
100
AcDbLine
 10
9797.117070806542
 20
7596.081092149346
 30
0.0
 11
9812.117070806543
 21
7596.081092149346
 31
0.0
  0
LINE
  5
1864A
330
747D
100
AcDbEntity
  8
細線
 48
50.0
100
AcDbLine
 10
9812.117070806543
 20
7596.081092149346
 30
0.0
 11
9812.117070806547
 21
7603.081092149347
 31
0.0
  0
LINE
  5
1864B
330
747D
100
AcDbEntity
  8
細線
 48
50.0
100
AcDbLine
 10
9812.117070806547
 20
7603.081092149347
 30
0.0
 11
9827.117070806544
 21
7603.081092149347
 31
0.0
  0
LINE
  5
1864C
330
747D
100
AcDbEntity
  8
細線
 48
50.0
100
AcDbLine
 10
9827.117070806544
 20
7603.081092149347
 30
0.0
 11
9827.117070806544
 21
7574.081092149346
 31
0.0
  0
LINE
  5
1864D
330
747D
100
AcDbEntity
  8
細線
 48
50.0
100
AcDbLine
 10
9023.117066152952
 20
7574.078426492815
 30
0.0
 11
9237.117070806542
 21
7574.08110970306
 31
0.0
  0
LINE
  5
1864E
330
747D
100
AcDbEntity
  8
細線
 48
50.0
100
AcDbLine
 10
9727.117070806542
 20
7574.081092149346
 30
0.0
 11
9827.117070806544
 21
7574.081092149346
 31
0.0
  0
LINE
  5
1864F
330
747D
100
AcDbEntity
  8
細線
 48
50.0
100
AcDbLine
 10
9447.117070806541
 20
7574.081092149346
 30
0.0
 11
9517.117070806541
 21
7574.081092149346
 31
0.0
  0
LINE
  5
18650
330
747D
100
AcDbEntity
  8
細線
 48
50.0
100
AcDbLine
 10
9459.979035819072
 20
7574.081092149346
 30
0.0
 11
9465.734553401738
 21
7592.35194343984
 31
0.0
  0
LINE
  5
18651
330
747D
100
AcDbEntity
  8
細線
 48
50.0
100
AcDbLine
 10
9465.734553401738
 20
7592.35194343984
 30
0.0
 11
9476.663001882172
 21
7592.351943439837
 31
0.0
  0
ARC
  5
18652
330
747D
100
AcDbEntity
  8
細線
 48
50.0
100
AcDbCircle
 10
9476.663001882172
 20
7591.351943439836
 30
0.0
 40
1.0
100
AcDbArc
 50
24.62431835213048
 51
90.0
  0
ARC
  5
18653
330
747D
100
AcDbEntity
  8
細線
 48
50.0
100
AcDbCircle
 10
9487.571713996805
 20
7591.351943439836
 30
0.0
 40
1.0
100
AcDbArc
 50
90.0
 51
155.3756816478695
  0
ARC
  5
18654
330
747D
100
AcDbEntity
  8
細線
 48
50.0
100
AcDbCircle
 10
9482.117357939488
 20
7593.851943439837
 30
0.0
 40
5.0
100
AcDbArc
 50
204.6243183521304
 51
335.3756816478695
  0
LINE
  5
18655
330
747D
100
AcDbEntity
  8
細線
 48
50.0
100
AcDbLine
 10
9487.571713996805
 20
7592.351943439837
 30
0.0
 11
9498.50016247724
 21
7592.35194343984
 31
0.0
  0
LINE
  5
18656
330
747D
100
AcDbEntity
  8
細線
 48
50.0
100
AcDbLine
 10
9498.50016247724
 20
7592.35194343984
 30
0.0
 11
9504.255680059907
 21
7574.081092149346
 31
0.0
  0
LINE
  5
18657
330
747D
100
AcDbEntity
  8
細線
 48
50.0
100
AcDbLine
 10
9797.117070806542
 20
7594.681092149345
 30
0.0
 11
9046.117070806545
 21
7594.681092149345
 31
0.0
  0
LINE
  5
18658
330
747D
100
AcDbEntity
  8
細線
 48
50.0
100
AcDbLine
 10
9657.117070806542
 20
7574.081092149346
 30
0.0
 11
9587.117070806542
 21
7574.081092149346
 31
0.0
  0
LINE
  5
18659
330
747D
100
AcDbEntity
  8
細線
100
AcDbLine
 10
9377.117070806542
 20
7574.081092149346
 30
0.0
 11
9307.117078991957
 21
7574.081092149346
 31
0.0
  0
LINE
  5
1865A
330
747D
100
AcDbEntity
  8
細線
 48
50.0
100
AcDbLine
 10
10451.11706149936
 20
7628.681136007213
 30
0.0
 11
9816.117070806543
 21
7628.681136007209
 31
0.0
  0
LINE
  5
1865B
330
747D
100
AcDbEntity
  8
細線
 48
50.0
100
AcDbLine
 10
9816.117070806543
 20
7625.577286414852
 30
0.0
 11
9816.117070806543
 21
7630.077286414852
 31
0.0
  0
LINE
  5
1865C
330
747D
100
AcDbEntity
  8
細線
 48
50.0
100
AcDbLine
 10
9816.117070806543
 20
7630.077286414852
 30
0.0
 11
9801.117070806542
 21
7630.077286414852
 31
0.0
  0
LINE
  5
1865D
330
747D
100
AcDbEntity
  8
細線
 48
50.0
100
AcDbLine
 10
9801.117070806542
 20
7630.077286414852
 30
0.0
 11
9801.117070806542
 21
7637.077286414854
 31
0.0
  0
LINE
  5
1865E
330
747D
100
AcDbEntity
  8
細線
 48
50.0
100
AcDbLine
 10
9801.117070806542
 20
7637.077286414854
 30
0.0
 11
9786.117070806547
 21
7637.077286414849
 31
0.0
  0
LINE
  5
1865F
330
747D
100
AcDbEntity
  8
細線
 48
50.0
100
AcDbLine
 10
9786.117070806547
 20
7637.077286414849
 30
0.0
 11
9786.117070806547
 21
7599.477058311738
 31
0.0
  0
LINE
  5
18660
330
747D
100
AcDbEntity
  8
細線
 48
50.0
100
AcDbLine
 10
9786.117070806547
 20
7599.477058311738
 30
0.0
 11
9806.117078107718
 21
7599.477099861281
 31
0.0
  0
LINE
  5
18661
330
747D
100
AcDbEntity
  8
細線
 48
50.0
100
AcDbLine
 10
9806.117033238777
 20
7608.080561497089
 30
0.0
 11
9806.117078107718
 21
7599.477099861281
 31
0.0
  0
LINE
  5
18662
330
747D
100
AcDbEntity
  8
細線
 48
50.0
100
AcDbLine
 10
10451.11706149936
 20
7625.231136007212
 30
0.0
 11
10451.11706149936
 21
7630.081136007212
 31
0.0
  0
LINE
  5
18663
330
747D
100
AcDbEntity
  8
細線
 48
50.0
100
AcDbLine
 10
10451.11706149936
 20
7630.081136007212
 30
0.0
 11
10466.11706149936
 21
7630.081136007212
 31
0.0
  0
LINE
  5
18664
330
747D
100
AcDbEntity
  8
細線
 48
50.0
100
AcDbLine
 10
10466.11706149936
 20
7630.081136007212
 30
0.0
 11
10466.11707313334
 21
7637.081136007255
 31
0.0
  0
LINE
  5
18665
330
747D
100
AcDbEntity
  8
細線
 48
50.0
100
AcDbLine
 10
10466.11707313334
 20
7637.081136007255
 30
0.0
 11
10481.11707130387
 21
7637.081136007255
 31
0.0
  0
LINE
  5
18666
330
747D
100
AcDbEntity
  8
細線
 48
50.0
100
AcDbLine
 10
10481.11707130387
 20
7637.081136007255
 30
0.0
 11
10481.11706100204
 21
7608.080929834982
 31
0.0
  0
LINE
  5
18667
330
747D
100
AcDbEntity
  8
細線
 48
50.0
100
AcDbLine
 10
10168.61708863283
 20
7608.080938022347
 30
0.0
 11
10098.61734071525
 21
7608.08093258501
 31
0.0
  0
LINE
  5
18668
330
747D
100
AcDbEntity
  8
細線
 48
50.0
100
AcDbLine
 10
9806.117033238777
 20
7608.080561497089
 30
0.0
 11
9817.349722593487
 21
7608.080744450235
 31
0.0
  0
ARC
  5
18669
330
747D
100
AcDbEntity
  8
細線
 48
50.0
100
AcDbCircle
 10
9823.932014900822
 20
7606.880908363848
 30
0.0
 40
1.8
100
AcDbArc
 50
270.0006665777295
 51
345.0005554812987
  0
LINE
  5
1866A
330
747D
100
AcDbEntity
  8
細線
 48
50.0
100
AcDbLine
 10
9825.918448346902
 20
7607.339748821127
 30
0.0
 11
9825.670685904704
 21
7606.41505093902
 31
0.0
  0
LINE
  5
1866B
330
747D
100
AcDbEntity
  8
細線
 48
50.0
100
AcDbLine
 10
9823.932035841977
 20
7605.080908363969
 30
0.0
 11
9820.302108423208
 21
7605.080866133488
 31
0.0
  0
ARC
  5
1866C
330
747D
100
AcDbEntity
  8
細線
 48
50.0
100
AcDbCircle
 10
9820.302087482057
 20
7606.880866133368
 30
0.0
 40
1.8
100
AcDbArc
 50
195.0010443049394
 51
270.0006665777295
  0
LINE
  5
1866D
330
747D
100
AcDbEntity
  8
細線
 48
50.0
100
AcDbLine
 10
9818.315659989799
 20
7607.339581100932
 30
0.0
 11
9818.56342948631
 21
7606.41496016235
 31
0.0
  0
ARC
  5
1866E
330
747D
100
AcDbEntity
  8
細線
 48
50.0
100
AcDbCircle
 10
9817.349738881048
 20
7607.08074445037
 30
0.0
 40
1.0
100
AcDbArc
 50
15.00104430493943
 51
90.00093320877969
  0
LINE
  5
1866F
330
747D
100
AcDbEntity
  8
細線
 48
50.0
100
AcDbLine
 10
9826.884369702005
 20
7608.08093914064
 30
0.0
 11
9827.826129852908
 21
7608.08094571449
 31
0.0
  0
ARC
  5
18670
330
747D
100
AcDbEntity
  8
細線
 48
50.0
100
AcDbCircle
 10
9826.884376682391
 20
7607.080939140665
 30
0.0
 40
1.0
100
AcDbArc
 50
90.0003999466794
 51
165.0005554812987
  0
LINE
  5
18671
330
747D
100
AcDbEntity
  8
細線
 48
50.0
100
AcDbLine
 10
10378.61706149935
 20
7608.080929834982
 30
0.0
 11
10481.11706100204
 21
7608.080929834982
 31
0.0
  0
LINE
  5
18672
330
747D
100
AcDbEntity
  8
細線
 48
50.0
100
AcDbLine
 10
9888.617096818247
 20
7608.080938022347
 30
0.0
 11
9827.517035591327
 21
7608.08094571449
 31
0.0
  0
LINE
  5
18673
330
747D
100
AcDbEntity
  8
細線
 48
50.0
100
AcDbLine
 10
10308.61709681824
 20
7608.080974863431
 30
0.0
 11
10238.61708986386
 21
7608.080929840763
 31
0.0
  0
LINE
  5
18674
330
747D
100
AcDbEntity
  8
細線
 48
50.0
100
AcDbLine
 10
10028.61706149935
 20
7608.080929834978
 30
0.0
 11
9958.61704421148
 21
7608.080929834985
 31
0.0
  0
ARC
  5
18675
330
747D
100
AcDbEntity
  8
細線
 48
50.0
100
AcDbCircle
 10
10465.31706615296
 20
7641.280917972392
 30
0.0
 40
0.8
100
AcDbArc
 50
359.9997333689499
 51
89.99986668437072
  0
ARC
  5
18676
330
747D
100
AcDbEntity
  8
細線
 48
50.0
100
AcDbCircle
 10
10472.91707297806
 20
7641.280929141008
 30
0.0
 40
0.8
100
AcDbArc
 50
90.00014387753465
 51
179.9997333689498
  0
LINE
  5
18677
330
747D
100
AcDbEntity
  8
細線
 48
50.0
100
AcDbLine
 10
10465.31706801439
 20
7642.080917972392
 30
0.0
 11
10460.11706615295
 21
7642.080917972392
 31
0.0
  0
ARC
  5
18678
330
747D
100
AcDbEntity
  8
細線
 48
50.0
100
AcDbCircle
 10
10466.81706615295
 20
7639.780917972392
 30
0.0
 40
0.7
100
AcDbArc
 50
180.0
 51
270.0
  0
ARC
  5
18679
330
747D
100
AcDbEntity
  8
細線
 48
50.0
100
AcDbCircle
 10
10471.41706615295
 20
7639.780917972392
 30
0.0
 40
0.7
100
AcDbArc
 50
270.0
 51
0.0
  0
LINE
  5
1867A
330
747D
100
AcDbEntity
  8
細線
 48
50.0
100
AcDbLine
 10
10472.11706615295
 20
7639.780917972392
 30
0.0
 11
10472.11707297807
 21
7641.28093286388
 31
0.0
  0
LINE
  5
1867B
330
747D
100
AcDbEntity
  8
細線
 48
50.0
100
AcDbLine
 10
10466.81706615295
 20
7639.080917972392
 30
0.0
 11
10471.41706615295
 21
7639.080917972392
 31
0.0
  0
LINE
  5
1867C
330
747D
100
AcDbEntity
  8
細線
 48
50.0
100
AcDbLine
 10
10466.11706615295
 20
7641.280917972392
 30
0.0
 11
10466.11706615295
 21
7639.780917972392
 31
0.0
  0
LINE
  5
1867D
330
747D
100
AcDbEntity
  8
細線
 48
50.0
100
AcDbLine
 10
11091.71706615296
 20
7672.080917972391
 30
0.0
 11
10455.11706615295
 21
7672.080917972387
 31
0.0
  0
LINE
  5
1867E
330
747D
100
AcDbEntity
  8
細線
 48
50.0
100
AcDbLine
 10
11117.61706615295
 20
7667.080917972395
 30
0.0
 11
11101.71706615296
 21
7667.080917972391
 31
0.0
  0
LINE
  5
1867F
330
747D
100
AcDbEntity
  8
細線
 48
50.0
100
AcDbLine
 10
11101.71706615295
 20
7667.080917972391
 30
0.0
 11
11091.71706615296
 21
7672.080917972391
 31
0.0
  0
LINE
  5
18680
330
747D
100
AcDbEntity
  8
細線
100
AcDbLine
 10
10702.61706615295
 20
7642.080917972392
 30
0.0
 11
10702.61706615295
 21
7671.380917972391
 31
0.0
  0
LINE
  5
18681
330
747D
100
AcDbEntity
  8
細線
100
AcDbLine
 10
10702.61706615295
 20
7671.380917972391
 30
0.0
 11
10722.61706615295
 21
7671.380917972391
 31
0.0
  0
LINE
  5
18682
330
747D
100
AcDbEntity
  8
細線
100
AcDbLine
 10
10722.61706615295
 20
7642.080917972392
 30
0.0
 11
10722.61706615295
 21
7671.380917972391
 31
0.0
  0
LINE
  5
18683
330
747D
100
AcDbEntity
  8
細線
100
AcDbLine
 10
10883.86706615295
 20
7642.080917972392
 30
0.0
 11
10813.86706615295
 21
7642.080917972392
 31
0.0
  0
LINE
  5
18684
330
747D
100
AcDbEntity
  8
細線
 48
50.0
100
AcDbLine
 10
10603.86706615295
 20
7642.080917972392
 30
0.0
 11
10472.91284572579
 21
7642.080917972392
 31
0.0
  0
LINE
  5
18685
330
747D
100
AcDbEntity
  8
細線
100
AcDbLine
 10
10743.86706615295
 20
7642.080917972392
 30
0.0
 11
10673.86706615295
 21
7642.080917972392
 31
0.0
  0
LINE
  5
18686
330
747D
100
AcDbEntity
  8
細線
 48
50.0
100
AcDbLine
 10
10460.11706615295
 20
7634.08091797239
 30
0.0
 11
10460.11706615295
 21
7642.080917972392
 31
0.0
  0
LINE
  5
18687
330
747D
100
AcDbEntity
  8
細線
 48
50.0
100
AcDbLine
 10
10440.11706615295
 20
7634.080917972394
 30
0.0
 11
10460.11706615295
 21
7634.08091797239
 31
0.0
  0
LINE
  5
18688
330
747D
100
AcDbEntity
  8
細線
 48
50.0
100
AcDbLine
 10
10455.11706615295
 20
7672.080917972391
 30
0.0
 11
10455.11706615295
 21
7667.080917972391
 31
0.0
  0
LINE
  5
18689
330
747D
100
AcDbEntity
  8
細線
 48
50.0
100
AcDbLine
 10
10440.11706615295
 20
7672.080917972387
 30
0.0
 11
10455.11706615295
 21
7672.080917972391
 31
0.0
  0
LINE
  5
1868A
330
747D
100
AcDbEntity
  8
細線
 48
50.0
100
AcDbLine
 10
10440.11706615295
 20
7634.080917972394
 30
0.0
 11
10440.11706615295
 21
7672.080917972387
 31
0.0
  0
LINE
  5
1868B
330
747D
100
AcDbEntity
  8
細線
100
AcDbLine
 10
11108.11706615295
 20
7642.080917972392
 30
0.0
 11
10953.86706615295
 21
7642.080917972392
 31
0.0
  0
LINE
  5
1868C
330
747D
100
AcDbEntity
  8
細線
 48
50.0
100
AcDbLine
 10
11117.61706615295
 20
7667.080917972395
 30
0.0
 11
11117.61706615295
 21
7642.080917972392
 31
0.0
  0
DIMENSION
  5
188BF
330
747D
100
AcDbEntity
  8
寸法
 48
50.0
100
AcDbDimension
  2
*D31
 10
11147.11706615292
 20
6616.216681846258
 30
0.0
 11
10071.34857809393
 21
6616.216681846258
 31
0.0
 70
   160
 71
     5
 42
2154.0
  3
INABA_S40G
100
AcDbAlignedDimension
 13
8993.117066152919
 23
7569.080917972357
 33
0.0
 14
11147.11706615292
 24
7569.080917972357
 34
0.0
100
AcDbRotatedDimension
1001
ACAD
1000
DSTYLE
1002
{
1070
   341
1005
0
1002
}
  0
DIMENSION
  5
188C0
330
747D
100
AcDbEntity
  8
寸法
100
AcDbDimension
  2
*D32
 10
8670.505820526255
 20
7571.080917972413
 30
0.0
 11
8670.505820526251
 21
7430.595636598174
 31
0.0
 70
   160
 71
     5
 42
75.0
  3
INABA_S40
100
AcDbAlignedDimension
 13
8965.11706615297
 23
7646.080917972412
 33
0.0
 14
8993.117066152949
 24
7571.080917972413
 34
0.0
 50
90.0
100
AcDbRotatedDimension
1001
ACAD
1000
DSTYLE
1002
{
1070
    41
1040
0.5
1070
    44
1040
1.0
1070
   147
1040
0.8
1070
   271
1070
     2
1070
   272
1070
     2
1070
   289
1070
     3
1070
   340
1005
F706
1070
   343
1005
163B6
1070
   344
1005
163B6
1002
}
  0
LINE
  5
18978
330
747D
100
AcDbEntity
  8
部品1
100
AcDbLine
 10
10451.85239926718
 20
5970.578699175611
 30
0.0
 11
9688.381733038749
 21
5970.578699175611
 31
0.0
  0
LINE
  5
18979
330
747D
100
AcDbEntity
  8
部品1
100
AcDbLine
 10
10451.85239926718
 20
5730.686377630078
 30
0.0
 11
10451.85239926718
 21
5970.578699175611
 31
0.0
  0
LINE
  5
1897A
330
747D
100
AcDbEntity
  8
部品1
100
AcDbLine
 10
9688.381733038749
 20
5730.686377630078
 30
0.0
 11
10451.85239926718
 21
5730.686377630078
 31
0.0
  0
LINE
  5
1897B
330
747D
100
AcDbEntity
  8
部品1
100
AcDbLine
 10
9688.381733038749
 20
5970.578699175611
 30
0.0
 11
9688.381733038749
 21
5730.686377630078
 31
0.0
  0
TEXT
  5
189AD
330
747D
100
AcDbEntity
  8
部品1
100
AcDbText
 10
9778.301342867786
 20
5777.685169957088
 30
0.0
 40
135.0
  1
平面図
  7
STYLE2
100
AcDbText
  0
DIMENSION
  5
189B9
330
747D
100
AcDbEntity
  8
寸法
100
AcDbDimension
  2
*D33
 10
11175.11706615295
 20
6342.054592445482
 30
0.0
 11
10068.69849736139
 21
6342.054592445482
 31
0.0
 70
   160
 71
     5
 42
2209.999999999982
  3
INABA_S40G
100
AcDbAlignedDimension
 13
8965.11706615297
 23
7646.08091797238
 33
0.0
 14
11175.11706615295
 24
7646.080917972506
 34
0.0
100
AcDbRotatedDimension
1001
ACAD
1000
DSTYLE
1002
{
1002
}
  0
LWPOLYLINE
  5
18B7D
330
747D
100
AcDbEntity
  8
部品1
 48
50.0
100
AcDbPolyline
 90
        4
 70
     1
 43
0.0
 10
9092.16706615297
 20
3477.276906074274
 10
9095.067066152971
 20
3477.276906074274
 10
9095.067066152971
 20
3486.776906074274
 10
9092.16706615297
 20
3486.776906074274
  0
CIRCLE
  5
18B7E
330
747D
100
AcDbEntity
  8
部品1
 48
50.0
100
AcDbCircle
 10
9093.617066152971
 20
3482.026906074274
 30
0.0
 40
9.0
  0
ARC
  5
18B7F
330
747D
100
AcDbEntity
  8
細線
 48
50.0
100
AcDbCircle
 10
9093.617066152971
 20
3482.026906074274
 30
0.0
 40
4.0
100
AcDbArc
 50
111.2538091853132
 51
248.7461908146868
  0
ARC
  5
18B80
330
747D
100
AcDbEntity
  8
細線
 48
50.0
100
AcDbCircle
 10
9093.617066152971
 20
3482.026906074274
 30
0.0
 40
17.5
100
AcDbArc
 50
306.4837370612677
 51
233.5162629387323
  0
LINE
  5
18B81
330
747D
100
AcDbEntity
  8
細線
 48
50.0
100
AcDbLine
 10
9103.617066152967
 20
3458.167945493392
 30
0.0
 11
9103.61706615297
 21
3467.152431293633
 31
0.0
  0
LINE
  5
18B82
330
747D
100
AcDbEntity
  8
細線
 48
50.0
100
AcDbLine
 10
9083.617066152971
 20
3458.167945493393
 30
0.0
 11
9083.617066152971
 21
3467.152431293629
 31
0.0
  0
ARC
  5
18B83
330
747D
100
AcDbEntity
  8
細線
 48
50.0
100
AcDbCircle
 10
9093.617066152971
 20
3482.026906074274
 30
0.0
 40
26.5
100
AcDbArc
 50
249.3326835063939
 51
290.6673164933835
  0
ARC
  5
18B84
330
747D
100
AcDbEntity
  8
細線
 48
50.0
100
AcDbCircle
 10
9102.617066152964
 20
3458.167945493392
 30
0.0
 40
1.0
100
AcDbArc
 50
290.6673164936062
 51
359.9999999998958
  0
ARC
  5
18B85
330
747D
100
AcDbEntity
  8
細線
 48
50.0
100
AcDbCircle
 10
9084.61706615297
 20
3458.167945493393
 30
0.0
 40
1.0
100
AcDbArc
 50
180.0
 51
249.3326835066164
  0
ARC
  5
18B86
330
747D
100
AcDbEntity
  8
細線
 48
50.0
100
AcDbCircle
 10
9082.61706615297
 20
3467.152431293629
 30
0.0
 40
1.0
100
AcDbArc
 50
0.0
 51
53.51626293873231
  0
ARC
  5
18B87
330
747D
100
AcDbEntity
  8
細線
 48
50.0
100
AcDbCircle
 10
9104.617066152973
 20
3467.152431293633
 30
0.0
 40
1.0
100
AcDbArc
 50
126.4837370615127
 51
180.0
  0
ARC
  5
18B88
330
747D
100
AcDbEntity
  8
細線
 48
50.0
100
AcDbCircle
 10
9093.617066152971
 20
3482.026906074274
 30
0.0
 40
21.5
100
AcDbArc
 50
255.8014401250294
 51
284.1985598749706
  0
ARC
  5
18B89
330
747D
100
AcDbEntity
  8
細線
 48
50.0
100
AcDbCircle
 10
9093.617066152971
 20
3482.026906074274
 30
0.0
 40
16.5
100
AcDbArc
 50
251.9694646069326
 51
288.0305353930674
  0
LINE
  5
18B8A
330
747D
100
AcDbEntity
  8
細線
 48
50.0
100
AcDbLine
 10
9099.11706615297
 20
3461.474533948467
 30
0.0
 11
9099.11706615297
 21
3466.051925635804
 31
0.0
  0
LINE
  5
18B8B
330
747D
100
AcDbEntity
  8
細線
 48
50.0
100
AcDbLine
 10
9088.117066152971
 20
3461.474533948467
 30
0.0
 11
9088.117066152971
 21
3466.051925635802
 31
0.0
  0
ARC
  5
18B8C
330
747D
100
AcDbEntity
  8
細線
 48
50.0
100
AcDbCircle
 10
9088.417066152974
 20
3466.051925635802
 30
0.0
 40
0.3
100
AcDbArc
 50
71.96946460693259
 51
180.0
  0
ARC
  5
18B8D
330
747D
100
AcDbEntity
  8
細線
 48
50.0
100
AcDbCircle
 10
9098.817066152971
 20
3466.051925635804
 30
0.0
 40
0.3
100
AcDbArc
 50
0.0
 51
108.0305353930674
  0
ARC
  5
18B8E
330
747D
100
AcDbEntity
  8
細線
 48
50.0
100
AcDbCircle
 10
9098.817066152967
 20
3461.474533948467
 30
0.0
 40
0.3
100
AcDbArc
 50
284.1985598747622
 51
0.0000000001042204
  0
ARC
  5
18B8F
330
747D
100
AcDbEntity
  8
細線
 48
50.0
100
AcDbCircle
 10
9088.417066152974
 20
3461.474533948467
 30
0.0
 40
0.3
100
AcDbArc
 50
180.0
 51
255.8014401248081
  0
CIRCLE
  5
18B90
330
747D
100
AcDbEntity
  8
細線
 48
50.0
100
AcDbCircle
 10
9093.617066152971
 20
3482.026906074274
 30
0.0
 40
12.0
  0
ARC
  5
18B91
330
747D
100
AcDbEntity
  8
部品1
 48
50.0
100
AcDbCircle
 10
9093.617066152971
 20
3532.026906074274
 30
0.0
 40
8.5
100
AcDbArc
 50
114.315739171091
 51
245.684260828909
  0
CIRCLE
  5
18B92
330
747D
100
AcDbEntity
  8
細線
 48
50.0
100
AcDbCircle
 10
9093.617066152971
 20
3532.026906074274
 30
0.0
 40
4.5
  0
LWPOLYLINE
  5
18B93
330
747D
100
AcDbEntity
  8
部品1
 48
50.0
100
AcDbPolyline
 90
        2
 70
     0
 43
0.0
 10
9090.11706615297
 20
3550.701755471257
 10
9090.11706615297
 20
3539.77287276669
  0
CIRCLE
  5
18B94
330
747D
100
AcDbEntity
  8
部品1
 48
50.0
100
AcDbCircle
 10
9093.617066152971
 20
3532.026906074274
 30
0.0
 40
19.0
  0
LWPOLYLINE
  5
18B95
330
747D
100
AcDbEntity
  8
部品1
 48
50.0
100
AcDbPolyline
 90
        2
 70
     0
 43
0.0
 10
9090.11706615297
 20
3524.280939381859
 10
9090.11706615297
 20
3513.352056677292
  0
LWPOLYLINE
  5
18B96
330
747D
100
AcDbEntity
  8
部品1
 48
50.0
100
AcDbPolyline
 90
        2
 70
     0
 43
0.0
 10
9097.117066152971
 20
3539.77287276669
 10
9097.117066152971
 20
3550.701755471257
  0
ARC
  5
18B97
330
747D
100
AcDbEntity
  8
部品1
 48
50.0
100
AcDbCircle
 10
9093.617066152971
 20
3532.026906074274
 30
0.0
 40
8.5
100
AcDbArc
 50
294.315739171091
 51
65.68426082890896
  0
LWPOLYLINE
  5
18B98
330
747D
100
AcDbEntity
  8
部品1
 48
50.0
100
AcDbPolyline
 90
        2
 70
     0
 43
0.0
 10
9097.117066152971
 20
3513.352056677292
 10
9097.117066152971
 20
3524.280939381859
  0
ARC
  5
18B99
330
747D
100
AcDbEntity
  8
細線
 48
50.0
100
AcDbCircle
 10
9093.617066152971
 20
3532.026906074274
 30
0.0
 40
16.5
100
AcDbArc
 50
332.0012352654438
 51
27.99876473455621
  0
ARC
  5
18B9A
330
747D
100
AcDbEntity
  8
細線
 48
50.0
100
AcDbCircle
 10
9093.617066152971
 20
3532.026906074274
 30
0.0
 40
14.0
100
AcDbArc
 50
326.4074436112986
 51
33.59255638870134
  0
LINE
  5
18B9B
330
747D
100
AcDbEntity
  8
細線
 48
50.0
100
AcDbLine
 10
9079.048263868639
 20
3539.77287276669
 30
0.0
 11
9081.955162363282
 21
3539.77287276669
 31
0.0
  0
LINE
  5
18B9C
330
747D
100
AcDbEntity
  8
細線
 48
50.0
100
AcDbLine
 10
9079.048263868639
 20
3524.280939381859
 30
0.0
 11
9081.955162363282
 21
3524.280939381859
 31
0.0
  0
LINE
  5
18B9D
330
747D
100
AcDbEntity
  8
細線
 48
50.0
100
AcDbLine
 10
9105.278969942659
 20
3539.77287276669
 30
0.0
 11
9108.185868437306
 21
3539.77287276669
 31
0.0
  0
LINE
  5
18B9E
330
747D
100
AcDbEntity
  8
細線
 48
50.0
100
AcDbLine
 10
9105.278969942659
 20
3524.280939381859
 30
0.0
 11
9108.185868437306
 21
3524.280939381859
 31
0.0
  0
ARC
  5
18B9F
330
747D
100
AcDbEntity
  8
細線
 48
50.0
100
AcDbCircle
 10
9093.617066152971
 20
3532.026906074274
 30
0.0
 40
14.0
100
AcDbArc
 50
146.4074436112986
 51
213.5925563887013
  0
ARC
  5
18BA0
330
747D
100
AcDbEntity
  8
細線
 48
50.0
100
AcDbCircle
 10
9093.617066152971
 20
3532.026906074274
 30
0.0
 40
16.5
100
AcDbArc
 50
152.0012352654438
 51
207.9987647345562
  0
ARC
  5
18BA1
330
747D
100
AcDbEntity
  8
部品1
 48
50.0
100
AcDbCircle
 10
9067.11706615297
 20
3557.526906074274
 30
0.0
 40
5.0
100
AcDbArc
 50
90.0
 51
180.0
  0
ARC
  5
18BA2
330
747D
100
AcDbEntity
  8
部品1
 48
50.0
100
AcDbCircle
 10
9067.11706615297
 20
3446.526906074274
 30
0.0
 40
5.0
100
AcDbArc
 50
180.0
 51
270.0
  0
ARC
  5
18BA3
330
747D
100
AcDbEntity
  8
部品1
 48
50.0
100
AcDbCircle
 10
9120.117066152969
 20
3446.526906074274
 30
0.0
 40
5.0
100
AcDbArc
 50
270.0
 51
0.0
  0
ARC
  5
18BA4
330
747D
100
AcDbEntity
  8
部品1
 48
50.0
100
AcDbCircle
 10
9120.117066152969
 20
3557.526906074274
 30
0.0
 40
5.0
100
AcDbArc
 50
0.0
 51
90.0
  0
LINE
  5
18BA6
330
747D
100
AcDbEntity
  8
部品1
 48
50.0
100
AcDbLine
 10
9062.117066152969
 20
3446.526906074274
 30
0.0
 11
9062.117066152969
 21
3557.526906074274
 31
0.0
  0
LINE
  5
18BA7
330
747D
100
AcDbEntity
  8
部品1
 48
50.0
100
AcDbLine
 10
9120.117066152969
 20
3441.526906074274
 30
0.0
 11
9067.11706615297
 21
3441.526906074274
 31
0.0
  0
LINE
  5
18BA8
330
747D
100
AcDbEntity
  8
部品1
 48
50.0
100
AcDbLine
 10
9125.117066152972
 20
3557.526906074274
 30
0.0
 11
9125.117066152972
 21
3446.526906074274
 31
0.0
  0
ENDSEC
  0
SECTION
  2
OBJECTS
  0
DICTIONARY
  5
7471
330
0
100
AcDbDictionary
281
     1
  3
ACAD_COLOR
350
163AB
  3
ACAD_GROUP
350
7472
  3
ACAD_LAYOUT
350
163AC
  3
ACAD_MATERIAL
350
163AA
  3
ACAD_MLINESTYLE
350
7473
  3
ACAD_PLOTSETTINGS
350
163AD
  3
ACAD_PLOTSTYLENAME
350
163A8
  3
ACDBHEADERROUNDTRIPXREC
350
18BC7
  3
AcDbVariableDictionary
350
18BC3
  3
CONTENTDICTIONARY
350
E71C
  3
DRAWINGVARIABLESDICT
350
F3B9
  0
DICTIONARY
  5
16545
330
7467
100
AcDbDictionary
280
     1
281
     1
  3
ACAD_LAYERSTATES
360
16546
  0
DICTIONARY
  5
163AB
102
{ACAD_REACTORS
330
7471
102
}
330
7471
100
AcDbDictionary
281
     1
  0
DICTIONARY
  5
7472
102
{ACAD_REACTORS
330
7471
102
}
330
7471
100
AcDbDictionary
281
     1
  0
DICTIONARY
  5
163AC
102
{ACAD_REACTORS
330
7471
102
}
330
7471
100
AcDbDictionary
281
     1
  3
Model
350
163AE
  3
レイアウト1
350
163AF
  0
DICTIONARY
  5
163AA
102
{ACAD_REACTORS
330
7471
102
}
330
7471
100
AcDbDictionary
281
     1
  0
DICTIONARY
  5
7473
102
{ACAD_REACTORS
330
7471
102
}
330
7471
100
AcDbDictionary
281
     1
  3
STANDARD
350
7480
  0
DICTIONARY
  5
163AD
102
{ACAD_REACTORS
330
7471
102
}
330
7471
100
AcDbDictionary
281
     1
  0
ACDBDICTIONARYWDFLT
  5
163A8
102
{ACAD_REACTORS
330
7471
102
}
330
7471
100
AcDbDictionary
281
     1
  3
Normal
350
163A9
100
AcDbDictionaryWithDefault
340
163A9
  0
DICTIONARY
  5
18BC7
102
{ACAD_REACTORS
330
7471
102
}
330
7471
100
AcDbDictionary
281
     1
  3
COLORDICT
350
18BC9
  3
MATERIALDICT
350
18BC8
  0
DICTIONARY
  5
18BC3
102
{ACAD_REACTORS
330
7471
102
}
330
7471
100
AcDbDictionary
281
     1
  3
DIMASSOC
350
18BC4
  3
PROJECTNAME
350
18BC5
  0
DICTIONARY
  5
E71C
102
{ACAD_REACTORS
330
7471
102
}
330
7471
100
AcDbDictionary
281
     1
  0
DICTIONARY
  5
F3B9
102
{ACAD_REACTORS
330
7471
102
}
330
7471
100
AcDbDictionary
281
     1
1001
DRAWINGVARIABLESXDATA
1000
POLARMODE
1000
1
  0
DICTIONARY
  5
16546
102
{ACAD_REACTORS
330
16545
102
}
330
16545
100
AcDbDictionary
281
     1
  0
LAYOUT
  5
163AE
102
{ACAD_XDICTIONARY
360
18BCA
102
}
102
{ACAD_REACTORS
330
163AC
102
}
330
163AC
100
AcDbPlotSettings
  1

  2
クセロPDF
  4
A3
  6

 40
3.174999952316284
 41
3.174999952316284
 42
3.17498779296875
 43
3.17498779296875
 44
419.9466552734374
 45
296.9259948730469
 46
0.0
 47
0.0
 48
3.619013395666115
 49
-4.192117100517862
140
820.022926294543
141
573.2392198881443
142
1.0
143
39.99735023620806
 70
 11952
 72
     1
 73
     0
 74
     2
  7
inaba.ctb
 75
     0
147
0.0250016562120842
148
25.79074261211281
149
125.8223078213959
100
AcDbLayout
  1
Model
 70
     1
 71
     0
 10
0.0
 20
0.0
 11
12.0
 21
9.0
 12
0.0
 22
0.0
 32
0.0
 14
0.0
 24
0.0
 34
0.0
 15
0.0
 25
0.0
 35
0.0
146
0.0
 13
0.0
 23
0.0
 33
0.0
 16
1.0
 26
0.0
 36
0.0
 17
0.0
 27
1.0
 37
0.0
 76
     0
330
747D
  0
LAYOUT
  5
163AF
102
{ACAD_XDICTIONARY
360
18BCC
102
}
102
{ACAD_REACTORS
330
163AC
102
}
330
163AC
100
AcDbPlotSettings
  1

  2
Microsoft Office Document Image Writer
  4

  6

 40
0.0
 41
0.0
 42
0.0
 43
0.0
 44
0.0
 45
0.0
 46
0.0
 47
0.0
 48
0.0
 49
0.0
140
0.0
141
0.0
142
1.0
143
1.0
 70
   688
 72
     0
 73
     0
 74
     5
  7

 75
    16
147
1.0
148
0.0
149
0.0
100
AcDbLayout
  1
レイアウト1
 70
     0
 71
     1
 10
0.0
 20
0.0
 11
420.0
 21
297.0
 12
0.0
 22
0.0
 32
0.0
 14
1.000000000000000E+20
 24
1.000000000000000E+20
 34
1.000000000000000E+20
 15
-1.000000000000000E+20
 25
-1.000000000000000E+20
 35
-1.000000000000000E+20
146
0.0
 13
0.0
 23
0.0
 33
0.0
 16
1.0
 26
0.0
 36
0.0
 17
0.0
 27
1.0
 37
0.0
 76
     0
330
747A
  0
MLINESTYLE
  5
7480
102
{ACAD_REACTORS
330
7473
102
}
330
7473
100
AcDbMlineStyle
  2
STANDARD
 70
     0
  3

 62
     0
 51
90.0
 52
90.0
 71
     2
 49
0.5
 62
   256
  6
BYLAYER
 49
-0.5
 62
   256
  6
BYLAYER
  0
ACDBPLACEHOLDER
  5
163A9
102
{ACAD_REACTORS
330
163A8
102
}
330
163A8
  0
XRECORD
  5
18BC9
102
{ACAD_REACTORS
330
18BC7
102
}
330
18BC7
100
AcDbXrecord
280
     1
340
163AB
  0
XRECORD
  5
18BC8
102
{ACAD_REACTORS
330
18BC7
102
}
330
18BC7
100
AcDbXrecord
280
     1
340
163AA
  0
DICTIONARYVAR
  5
18BC4
102
{ACAD_REACTORS
330
18BC3
102
}
330
18BC3
100
DictionaryVariables
280
     0
  1
1
  0
DICTIONARYVAR
  5
18BC5
102
{ACAD_REACTORS
330
18BC3
102
}
330
18BC3
100
DictionaryVariables
280
     0
  1

  0
DICTIONARY
  5
18BCA
330
163AE
100
AcDbDictionary
280
     1
281
     1
  3
ACAD_XREC_ROUNDTRIP
360
18BCB
  0
DICTIONARY
  5
18BCC
330
163AF
100
AcDbDictionary
280
     1
281
     1
  3
ACAD_XREC_ROUNDTRIP
360
18BCD
  0
XRECORD
  5
18BCB
102
{ACAD_REACTORS
330
18BCA
102
}
330
18BCA
100
AcDbXrecord
280
     1
102
SHADEPLOT
 70
     0
102
SHADEPLOTRESLEVEL
 70
     2
102
SHADEPLOTCUSTOMDPI
 70
   150
  0
XRECORD
  5
18BCD
102
{ACAD_REACTORS
330
18BCC
102
}
330
18BCC
100
AcDbXrecord
280
     1
102
SHADEPLOT
 70
     0
102
SHADEPLOTRESLEVEL
 70
     2
102
SHADEPLOTCUSTOMDPI
 70
   300
  0
ENDSEC
  0
EOF
