  0
SECTION
  2
HEADER
  9
$ACADVER
  1
AC1015
  9
$ACADMAINTVER
 70
    20
  9
$DWGCODEPAGE
  3
ANSI_932
  9
$INSBASE
 10
0.0
 20
0.0
 30
0.0
  9
$EXTMIN
 10
139.9999999999995
 20
-0.0000000000000909
 30
0.0
  9
$EXTMAX
 10
16307.2
 20
11409.6
 30
0.0
  9
$LIMMIN
 10
-25.79074261211281
 20
-125.8223078213959
  9
$LIMMAX
 10
16471.10331197129
 20
11496.44801950658
  9
$ORTHOMODE
 70
     0
  9
$REGENMODE
 70
     1
  9
$FILLMODE
 70
     1
  9
$QTEXTMODE
 70
     0
  9
$MIRRTEXT
 70
     1
  9
$LTSCALE
 40
20.0
  9
$ATTMODE
 70
     1
  9
$TEXTSIZE
 40
4.0
  9
$TRACEWID
 40
1.0
  9
$TEXTSTYLE
  7
STYLE1
  9
$CLAYER
  8
部品1
  9
$CELTYPE
  6
BYLAYER
  9
$CECOLOR
 62
   256
  9
$CELTSCALE
 40
50.0
  9
$DISPSILH
 70
     0
  9
$DIMSCALE
 40
40.0
  9
$DIMASZ
 40
2.5
  9
$DIMEXO
 40
0.5
  9
$DIMDLI
 40
7.0
  9
$DIMRND
 40
0.0
  9
$DIMDLE
 40
0.0
  9
$DIMEXE
 40
1.5
  9
$DIMTP
 40
0.0
  9
$DIMTM
 40
0.0
  9
$DIMTXT
 40
3.0
  9
$DIMCEN
 40
0.0
  9
$DIMTSZ
 40
0.0
  9
$DIMTOL
 70
     0
  9
$DIMLIM
 70
     0
  9
$DIMTIH
 70
     0
  9
$DIMTOH
 70
     0
  9
$DIMSE1
 70
     0
  9
$DIMSE2
 70
     0
  9
$DIMTAD
 70
     3
  9
$DIMZIN
 70
     8
  9
$DIMBLK
  1

  9
$DIMASO
 70
     1
  9
$DIMSHO
 70
     1
  9
$DIMPOST
  1

  9
$DIMAPOST
  1

  9
$DIMALT
 70
     0
  9
$DIMALTD
 70
     2
  9
$DIMALTF
 40
0.0394
  9
$DIMLFAC
 40
1.0
  9
$DIMTOFL
 70
     1
  9
$DIMTVP
 40
0.0
  9
$DIMTIX
 70
     1
  9
$DIMSOXD
 70
     0
  9
$DIMSAH
 70
     1
  9
$DIMBLK1
  1
DOTSMALL
  9
$DIMBLK2
  1
DOTSMALL
  9
$DIMSTYLE
  2
INABA_S40G
  9
$DIMCLRD
 70
     0
  9
$DIMCLRE
 70
     0
  9
$DIMCLRT
 70
     7
  9
$DIMTFAC
 40
1.0
  9
$DIMGAP
 40
1.0
  9
$DIMJUST
 70
     0
  9
$DIMSD1
 70
     0
  9
$DIMSD2
 70
     0
  9
$DIMTOLJ
 70
     1
  9
$DIMTZIN
 70
     0
  9
$DIMALTZ
 70
     0
  9
$DIMALTTZ
 70
     0
  9
$DIMUPT
 70
     0
  9
$DIMDEC
 70
     1
  9
$DIMTDEC
 70
     4
  9
$DIMALTU
 70
     2
  9
$DIMALTTD
 70
     2
  9
$DIMTXSTY
  7
STYLE1
  9
$DIMAUNIT
 70
     0
  9
$DIMADEC
 70
     0
  9
$DIMALTRND
 40
0.0
  9
$DIMAZIN
 70
     0
  9
$DIMDSEP
 70
    46
  9
$DIMATFIT
 70
     3
  9
$DIMFRAC
 70
     0
  9
$DIMLDRBLK
  1

  9
$DIMLUNIT
 70
     2
  9
$DIMLWD
 70
    -2
  9
$DIMLWE
 70
    -2
  9
$DIMTMOVE
 70
     0
  9
$LUNITS
 70
     2
  9
$LUPREC
 70
     1
  9
$SKETCHINC
 40
1.0
  9
$FILLETRAD
 40
3.0
  9
$AUNITS
 70
     0
  9
$AUPREC
 70
     0
  9
$MENU
  1
acad
  9
$ELEVATION
 40
0.0
  9
$PELEVATION
 40
0.0
  9
$THICKNESS
 40
0.0
  9
$LIMCHECK
 70
     0
  9
$CHAMFERA
 40
0.0
  9
$CHAMFERB
 40
0.0
  9
$CHAMFERC
 40
0.0
  9
$CHAMFERD
 40
0.0
  9
$SKPOLY
 70
     0
  9
$TDCREATE
 40
2451368.612993866
  9
$TDUCREATE
 40
2451368.237993866
  9
$TDUPDATE
 40
2455575.683111609
  9
$TDUUPDATE
 40
2455575.308111609
  9
$TDINDWG
 40
0.4857130787
  9
$TDUSRTIMER
 40
0.4857130787
  9
$USRTIMER
 70
     1
  9
$ANGBASE
 50
0.0
  9
$ANGDIR
 70
     0
  9
$PDMODE
 70
     3
  9
$PDSIZE
 40
2.0
  9
$PLINEWID
 40
0.0
  9
$SPLFRAME
 70
     0
  9
$SPLINETYPE
 70
     6
  9
$SPLINESEGS
 70
     8
  9
$HANDSEED
  5
18A69
  9
$SURFTAB1
 70
     6
  9
$SURFTAB2
 70
     6
  9
$SURFTYPE
 70
     6
  9
$SURFU
 70
     6
  9
$SURFV
 70
     6
  9
$UCSBASE
  2

  9
$UCSNAME
  2

  9
$UCSORG
 10
0.0
 20
0.0
 30
0.0
  9
$UCSXDIR
 10
1.0
 20
0.0
 30
0.0
  9
$UCSYDIR
 10
0.0
 20
1.0
 30
0.0
  9
$UCSORTHOREF
  2

  9
$UCSORTHOVIEW
 70
     0
  9
$UCSORGTOP
 10
0.0
 20
0.0
 30
0.0
  9
$UCSORGBOTTOM
 10
0.0
 20
0.0
 30
0.0
  9
$UCSORGLEFT
 10
0.0
 20
0.0
 30
0.0
  9
$UCSORGRIGHT
 10
0.0
 20
0.0
 30
0.0
  9
$UCSORGFRONT
 10
0.0
 20
0.0
 30
0.0
  9
$UCSORGBACK
 10
0.0
 20
0.0
 30
0.0
  9
$PUCSBASE
  2

  9
$PUCSNAME
  2

  9
$PUCSORG
 10
0.0
 20
0.0
 30
0.0
  9
$PUCSXDIR
 10
1.0
 20
0.0
 30
0.0
  9
$PUCSYDIR
 10
0.0
 20
1.0
 30
0.0
  9
$PUCSORTHOREF
  2

  9
$PUCSORTHOVIEW
 70
     0
  9
$PUCSORGTOP
 10
0.0
 20
0.0
 30
0.0
  9
$PUCSORGBOTTOM
 10
0.0
 20
0.0
 30
0.0
  9
$PUCSORGLEFT
 10
0.0
 20
0.0
 30
0.0
  9
$PUCSORGRIGHT
 10
0.0
 20
0.0
 30
0.0
  9
$PUCSORGFRONT
 10
0.0
 20
0.0
 30
0.0
  9
$PUCSORGBACK
 10
0.0
 20
0.0
 30
0.0
  9
$USERI1
 70
     0
  9
$USERI2
 70
     0
  9
$USERI3
 70
     0
  9
$USERI4
 70
     0
  9
$USERI5
 70
     0
  9
$USERR1
 40
0.0
  9
$USERR2
 40
0.0
  9
$USERR3
 40
0.0
  9
$USERR4
 40
0.0
  9
$USERR5
 40
0.0
  9
$WORLDVIEW
 70
     1
  9
$SHADEDGE
 70
     3
  9
$SHADEDIF
 70
    70
  9
$TILEMODE
 70
     1
  9
$MAXACTVP
 70
    16
  9
$PINSBASE
 10
0.0
 20
0.0
 30
0.0
  9
$PLIMCHECK
 70
     0
  9
$PEXTMIN
 10
1.000000000000000E+20
 20
1.000000000000000E+20
 30
1.000000000000000E+20
  9
$PEXTMAX
 10
-1.000000000000000E+20
 20
-1.000000000000000E+20
 30
-1.000000000000000E+20
  9
$PLIMMIN
 10
0.0
 20
0.0
  9
$PLIMMAX
 10
420.0
 20
297.0
  9
$UNITMODE
 70
     0
  9
$VISRETAIN
 70
     0
  9
$PLINEGEN
 70
     0
  9
$PSLTSCALE
 70
     0
  9
$TREEDEPTH
 70
  3020
  9
$CMLSTYLE
  2
STANDARD
  9
$CMLJUST
 70
     0
  9
$CMLSCALE
 40
1.0
  9
$PROXYGRAPHICS
 70
     1
  9
$MEASUREMENT
 70
     1
  9
$CELWEIGHT
370
    -1
  9
$ENDCAPS
280
     0
  9
$JOINSTYLE
280
     0
  9
$LWDISPLAY
290
     0
  9
$INSUNITS
 70
     0
  9
$HYPERLINKBASE
  1

  9
$STYLESHEET
  1
inaba.ctb
  9
$XEDIT
290
     1
  9
$CEPSNTYPE
380
     0
  9
$PSTYLEMODE
290
     1
  9
$FINGERPRINTGUID
  2
{B4DB4D90-143E-450C-AC18-AF1BAA42BC92}
  9
$VERSIONGUID
  2
{C338ECA5-7F7E-468C-A1ED-5144EC89F987}
  9
$EXTNAMES
290
     1
  9
$PSVPSCALE
 40
0.0
  9
$OLESTARTUP
290
     0
  0
ENDSEC
  0
SECTION
  2
CLASSES
  0
CLASS
  1
ACDBDICTIONARYWDFLT
  2
AcDbDictionaryWithDefault
  3
ObjectDBX Classes
 90
        0
280
     0
281
     0
  0
CLASS
  1
DICTIONARYVAR
  2
AcDbDictionaryVar
  3
ObjectDBX Classes
 90
        0
280
     0
281
     0
  0
CLASS
  1
ACDBPLACEHOLDER
  2
AcDbPlaceHolder
  3
ObjectDBX Classes
 90
        0
280
     0
281
     0
  0
CLASS
  1
LAYOUT
  2
AcDbLayout
  3
ObjectDBX Classes
 90
        0
280
     0
281
     0
  0
ENDSEC
  0
SECTION
  2
TABLES
  0
TABLE
  2
VPORT
  5
746D
330
0
100
AcDbSymbolTable
 70
     2
  0
VPORT
  5
18A61
330
746D
100
AcDbSymbolTableRecord
100
AcDbViewportTableRecord
  2
*Active
 70
     0
 10
0.0
 20
0.0
 11
1.0
 21
1.0
 12
8223.761025238504
 22
5704.608037261908
 13
0.0
 23
0.0
 14
10.0
 24
10.0
 15
10.0
 25
10.0
 16
0.0
 26
0.0
 36
1.0
 17
0.0
 27
0.0
 37
0.0
 40
11495.08541324274
 41
1.525925925925925
 42
50.0
 43
0.0
 44
0.0
 50
0.0
 51
0.0
 71
     0
 72
     0
 73
     1
 74
     0
 75
     0
 76
     0
 77
     0
 78
     0
281
     0
 65
     1
110
0.0
120
0.0
130
0.0
111
1.0
121
0.0
131
0.0
112
0.0
122
1.0
132
0.0
 79
     0
146
0.0
  0
ENDTAB
  0
TABLE
  2
LTYPE
  5
746A
330
0
100
AcDbSymbolTable
 70
     4
  0
LTYPE
  5
7477
330
746A
100
AcDbSymbolTableRecord
100
AcDbLinetypeTableRecord
  2
BYBLOCK
 70
     0
  3

 72
    65
 73
     0
 40
0.0
  0
LTYPE
  5
7478
330
746A
100
AcDbSymbolTableRecord
100
AcDbLinetypeTableRecord
  2
BYLAYER
 70
     0
  3

 72
    65
 73
     0
 40
0.0
  0
LTYPE
  5
7479
330
746A
100
AcDbSymbolTableRecord
100
AcDbLinetypeTableRecord
  2
CONTINUOUS
 70
     0
  3
Solid line
 72
    65
 73
     0
 40
0.0
  0
LTYPE
  5
7816
330
746A
100
AcDbSymbolTableRecord
100
AcDbLinetypeTableRecord
  2
CENTER
 70
     0
  3
____ _ ____ _ ____ _ ____ _ ____ _ ____ _ ____ 
 72
    65
 73
     4
 40
2.0
 49
1.25
 74
     0
 49
-0.25
 74
     0
 49
0.25
 74
     0
 49
-0.25
 74
     0
  0
LTYPE
  5
781A
330
746A
100
AcDbSymbolTableRecord
100
AcDbLinetypeTableRecord
  2
HIDDEN
 70
     0
  3
__ __ __ __ __ __ __ __ __ __ __ __ __ __ __ __
 72
    65
 73
     2
 40
0.375
 49
0.25
 74
     0
 49
-0.125
 74
     0
  0
LTYPE
  5
781B
330
746A
100
AcDbSymbolTableRecord
100
AcDbLinetypeTableRecord
  2
PHANTOM
 70
     0
  3
______  __  __  ______  __  __  ______  __  __ 
 72
    65
 73
     6
 40
2.5
 49
1.25
 74
     0
 49
-0.25
 74
     0
 49
0.25
 74
     0
 49
-0.25
 74
     0
 49
0.25
 74
     0
 49
-0.25
 74
     0
  0
ENDTAB
  0
TABLE
  2
LAYER
  5
7467
102
{ACAD_XDICTIONARY
360
1701F
102
}
330
0
100
AcDbSymbolTable
 70
    12
  0
LAYER
  5
7474
330
7467
100
AcDbSymbolTableRecord
100
AcDbLayerTableRecord
  2
0
 70
     0
 62
     7
  6
CONTINUOUS
370
    -3
390
16E82
  0
LAYER
  5
DEB2
330
7467
100
AcDbSymbolTableRecord
100
AcDbLayerTableRecord
  2
センター
 70
     0
 62
     3
  6
CENTER
370
    -3
390
16E82
  0
LAYER
  5
DEB3
330
7467
100
AcDbSymbolTableRecord
100
AcDbLayerTableRecord
  2
寸法
 70
     0
 62
     4
  6
CONTINUOUS
370
    -3
390
16E82
  0
LAYER
  5
DEB4
330
7467
100
AcDbSymbolTableRecord
100
AcDbLayerTableRecord
  2
部品1
 70
     0
 62
     7
  6
CONTINUOUS
370
    -3
390
16E82
  0
LAYER
  5
DEB5
330
7467
100
AcDbSymbolTableRecord
100
AcDbLayerTableRecord
  2
補助
 70
     0
 62
    -1
  6
CONTINUOUS
370
    -3
390
16E82
  0
LAYER
  5
DEB6
330
7467
100
AcDbSymbolTableRecord
100
AcDbLayerTableRecord
  2
文字
 70
     0
 62
     7
  6
CONTINUOUS
370
    -3
390
16E82
  0
LAYER
  5
F255
330
7467
100
AcDbSymbolTableRecord
100
AcDbLayerTableRecord
  2
DEFPOINTS
 70
     0
 62
     7
  6
CONTINUOUS
290
     0
370
    -3
390
16E82
  0
LAYER
  5
10B54
330
7467
100
AcDbSymbolTableRecord
100
AcDbLayerTableRecord
  2
仕様書枠
 70
     0
 62
   230
  6
CONTINUOUS
370
    -3
390
16E82
  0
LAYER
  5
11729
330
7467
100
AcDbSymbolTableRecord
100
AcDbLayerTableRecord
  2
Ｇ．Ｌ
 70
     0
 62
    30
  6
CONTINUOUS
370
    -3
390
16E82
  0
LAYER
  5
1173F
330
7467
100
AcDbSymbolTableRecord
100
AcDbLayerTableRecord
  2
細線
 70
     0
 62
     5
  6
CONTINUOUS
370
    -3
390
16E82
  0
LAYER
  5
12CC4
330
7467
100
AcDbSymbolTableRecord
100
AcDbLayerTableRecord
  2
想像線
 70
     0
 62
     6
  6
PHANTOM
370
    -3
390
16E82
  0
LAYER
  5
142E2
330
7467
100
AcDbSymbolTableRecord
100
AcDbLayerTableRecord
  2
破線
 70
     0
 62
     2
  6
HIDDEN
370
    -3
390
16E82
  0
ENDTAB
  0
TABLE
  2
STYLE
  5
7468
330
0
100
AcDbSymbolTable
 70
     4
  0
STYLE
  5
7475
330
7468
100
AcDbSymbolTableRecord
100
AcDbTextStyleTableRecord
  2
STANDARD
 70
     0
 40
0.0
 41
1.0
 50
0.0
 71
     0
 42
4.0
  3
txt
  4
C:\AutoCAD LT\bigfont.shx
  0
STYLE
  5
F706
330
7468
100
AcDbSymbolTableRecord
100
AcDbTextStyleTableRecord
  2
STYLE1
 70
     0
 40
0.0
 41
1.0
 50
0.0
 71
     0
 42
4.0
  3
isocp.shx
  4
bigfont.shx
  0
STYLE
  5
103BF
330
7468
100
AcDbSymbolTableRecord
100
AcDbTextStyleTableRecord
  2
STYLE2
 70
     0
 40
0.0
 41
1.0
 50
0.0
 71
     0
 42
100.0
  3
MS PGothic.ttf
  4

1001
ACAD
1000
MS PGothic
1071
    32818
  0
STYLE
  5
17A44
330
7468
100
AcDbSymbolTableRecord
100
AcDbTextStyleTableRecord
  2
STYLE3
 70
     0
 40
0.0
 41
1.0
 50
0.0
 71
     0
 42
100.0
  3
DFPGothic-EB.ttf
  4

1001
ACAD
1000
DFPGothic-EB
1071
    32818
  0
ENDTAB
  0
TABLE
  2
VIEW
  5
746B
330
0
100
AcDbSymbolTable
 70
     0
  0
ENDTAB
  0
TABLE
  2
UCS
  5
746C
330
0
100
AcDbSymbolTable
 70
     0
  0
ENDTAB
  0
TABLE
  2
APPID
  5
746E
330
0
100
AcDbSymbolTable
 70
     6
  0
APPID
  5
7476
330
746E
100
AcDbSymbolTableRecord
100
AcDbRegAppTableRecord
  2
ACAD
 70
     0
  0
APPID
  5
DEA9
330
746E
100
AcDbSymbolTableRecord
100
AcDbRegAppTableRecord
  2
CONTENTBLOCKICON
 70
     0
  0
APPID
  5
DEAA
330
746E
100
AcDbSymbolTableRecord
100
AcDbRegAppTableRecord
  2
CONTENTBLOCKDESCRIPTION
 70
     0
  0
APPID
  5
E71D
330
746E
100
AcDbSymbolTableRecord
100
AcDbRegAppTableRecord
  2
CONTENTTABDATA
 70
     0
  0
APPID
  5
E71E
330
746E
100
AcDbSymbolTableRecord
100
AcDbRegAppTableRecord
  2
CONTENTCURRENTTAB
 70
     0
  0
APPID
  5
F3BA
330
746E
100
AcDbSymbolTableRecord
100
AcDbRegAppTableRecord
  2
DRAWINGVARIABLESXDATA
 70
     0
  0
ENDTAB
  0
TABLE
  2
DIMSTYLE
  5
746F
330
0
100
AcDbSymbolTable
 70
     5
100
AcDbDimStyleTable
 71
     1
340
F71F
  0
DIMSTYLE
105
7484
330
746F
100
AcDbSymbolTableRecord
100
AcDbDimStyleTableRecord
  2
JIS
 70
     0
 41
2.5
 42
1.0
 43
7.0
 44
1.0
 73
     0
 74
     0
 77
     1
 78
     8
140
2.5
141
0.0
143
0.0394
147
0.0
172
     1
174
     1
175
     1
340
7475
  0
DIMSTYLE
105
F71F
102
{ACAD_REACTORS
330
164B4
330
164B5
330
16C3E
330
16C3F
330
16C42
330
16C53
330
16C59
330
16CC3
330
16CC5
330
16CC9
330
16CD2
330
16CD5
330
16CD6
330
174F7
330
174F8
330
17537
330
17538
330
17539
330
1753C
330
17548
330
17549
330
1754A
330
1754B
330
17D10
330
17D12
330
17D0F
330
17E1A
330
17F3D
330
17F3C
330
1891B
102
}
330
746F
100
AcDbSymbolTableRecord
100
AcDbDimStyleTableRecord
  2
INABA_S40G
 70
     0
 40
40.0
 41
2.5
 42
0.5
 43
7.0
 44
1.5
 73
     0
 74
     0
 77
     3
 78
     8
140
3.0
141
0.0
143
0.0394
147
1.0
172
     1
173
     1
174
     1
178
     7
271
     1
340
F706
341
F770
343
F770
344
F770
  0
DIMSTYLE
105
1701E
102
{ACAD_REACTORS
330
18425
330
18901
102
}
330
746F
100
AcDbSymbolTableRecord
100
AcDbDimStyleTableRecord
  2
INABA_S40
 70
     0
 40
40.0
 41
2.5
 42
0.5
 43
7.0
 44
1.5
 73
     0
 74
     0
 77
     3
 78
     8
140
3.0
141
0.0
143
0.0394
147
1.0
172
     1
173
     1
174
     1
175
     1
178
     7
340
7475
  0
DIMSTYLE
105
17A45
330
746F
100
AcDbSymbolTableRecord
100
AcDbDimStyleTableRecord
  2
INABA_S50G
 70
     0
 41
125.0
 42
25.0
 43
7.0
 44
75.0
 73
     0
 74
     0
 77
     3
 78
     8
140
150.0
141
0.0
143
0.0394
147
25.0
172
     1
173
     1
174
     1
175
     1
178
     7
271
     1
340
F706
341
F770
343
F770
344
F770
  0
DIMSTYLE
105
189E7
330
746F
100
AcDbSymbolTableRecord
100
AcDbDimStyleTableRecord
  2
INABA_S20G
 70
     0
 40
20.0
 41
2.5
 42
0.5
 43
7.0
 44
1.5
 73
     0
 74
     0
 77
     3
 78
     8
140
3.0
141
0.0
143
0.0394
147
1.0
172
     1
173
     1
174
     1
178
     7
271
     1
340
F706
341
F770
343
F770
344
F770
  0
ENDTAB
  0
TABLE
  2
BLOCK_RECORD
  5
7466
330
0
100
AcDbSymbolTable
 70
    34
  0
BLOCK_RECORD
  5
747D
330
7466
100
AcDbSymbolTableRecord
100
AcDbBlockTableRecord
  2
*MODEL_SPACE
340
16E87
  0
BLOCK_RECORD
  5
747A
330
7466
100
AcDbSymbolTableRecord
100
AcDbBlockTableRecord
  2
*PAPER_SPACE
340
16E88
  0
BLOCK_RECORD
  5
F770
330
7466
100
AcDbSymbolTableRecord
100
AcDbBlockTableRecord
  2
_DOTSMALL
340
0
102
{BLKREFS
331
16A78
331
16A79
331
17E0B
331
17E0C
331
17E49
331
17E4A
331
17E83
331
17E84
331
17E99
331
17E9A
331
17EA2
331
17EA3
331
18231
331
18232
331
1823A
331
1823B
331
18245
331
18246
331
1824F
331
18250
331
18258
331
18259
331
18261
331
18262
331
1826A
331
1826B
331
18273
331
18274
331
1827E
331
1827F
331
18287
331
18288
331
18291
331
18292
331
1829B
331
1829C
331
18958
331
18959
331
18977
331
18978
331
18982
331
18983
331
1898B
331
1898C
331
18996
331
18997
331
1899F
331
189A0
331
189A8
331
189A9
331
189B1
331
189B2
331
189BC
331
189BD
331
189C5
331
189C6
331
189CE
331
189CF
331
189D7
331
189D8
102
}
  0
BLOCK_RECORD
  5
165D4
330
7466
100
AcDbSymbolTableRecord
100
AcDbBlockTableRecord
  2
*D1
340
0
  0
BLOCK_RECORD
  5
165E0
330
7466
100
AcDbSymbolTableRecord
100
AcDbBlockTableRecord
  2
*D2
340
0
  0
BLOCK_RECORD
  5
16CE8
330
7466
100
AcDbSymbolTableRecord
100
AcDbBlockTableRecord
  2
*D3
340
0
  0
BLOCK_RECORD
  5
16CF4
330
7466
100
AcDbSymbolTableRecord
100
AcDbBlockTableRecord
  2
*D4
340
0
  0
BLOCK_RECORD
  5
16D00
330
7466
100
AcDbSymbolTableRecord
100
AcDbBlockTableRecord
  2
*D5
340
0
  0
BLOCK_RECORD
  5
16D0C
330
7466
100
AcDbSymbolTableRecord
100
AcDbBlockTableRecord
  2
*D6
340
0
  0
BLOCK_RECORD
  5
16D1A
330
7466
100
AcDbSymbolTableRecord
100
AcDbBlockTableRecord
  2
*D7
340
0
  0
BLOCK_RECORD
  5
16D32
330
7466
100
AcDbSymbolTableRecord
100
AcDbBlockTableRecord
  2
*D8
340
0
  0
BLOCK_RECORD
  5
16D3E
330
7466
100
AcDbSymbolTableRecord
100
AcDbBlockTableRecord
  2
*D9
340
0
  0
BLOCK_RECORD
  5
16D4A
330
7466
100
AcDbSymbolTableRecord
100
AcDbBlockTableRecord
  2
*D10
340
0
  0
BLOCK_RECORD
  5
16D58
330
7466
100
AcDbSymbolTableRecord
100
AcDbBlockTableRecord
  2
*D11
340
0
  0
BLOCK_RECORD
  5
16D64
330
7466
100
AcDbSymbolTableRecord
100
AcDbBlockTableRecord
  2
*D12
340
0
  0
BLOCK_RECORD
  5
16D72
330
7466
100
AcDbSymbolTableRecord
100
AcDbBlockTableRecord
  2
*D13
340
0
  0
BLOCK_RECORD
  5
16F34
330
7466
100
AcDbSymbolTableRecord
100
AcDbBlockTableRecord
  2
_DOT
340
0
102
{BLKREFS
331
18963
331
18964
331
1896C
331
1896D
102
}
  0
BLOCK_RECORD
  5
17697
330
7466
100
AcDbSymbolTableRecord
100
AcDbBlockTableRecord
  2
*D15
340
0
  0
BLOCK_RECORD
  5
176A4
330
7466
100
AcDbSymbolTableRecord
100
AcDbBlockTableRecord
  2
*D16
340
0
  0
BLOCK_RECORD
  5
176B1
330
7466
100
AcDbSymbolTableRecord
100
AcDbBlockTableRecord
  2
*D17
340
0
  0
BLOCK_RECORD
  5
176BD
330
7466
100
AcDbSymbolTableRecord
100
AcDbBlockTableRecord
  2
*D18
340
0
  0
BLOCK_RECORD
  5
176CB
330
7466
100
AcDbSymbolTableRecord
100
AcDbBlockTableRecord
  2
*D19
340
0
  0
BLOCK_RECORD
  5
176D7
330
7466
100
AcDbSymbolTableRecord
100
AcDbBlockTableRecord
  2
*D20
340
0
  0
BLOCK_RECORD
  5
176E3
330
7466
100
AcDbSymbolTableRecord
100
AcDbBlockTableRecord
  2
*D21
340
0
  0
BLOCK_RECORD
  5
176EF
330
7466
100
AcDbSymbolTableRecord
100
AcDbBlockTableRecord
  2
*D22
340
0
  0
BLOCK_RECORD
  5
176FB
330
7466
100
AcDbSymbolTableRecord
100
AcDbBlockTableRecord
  2
*D23
340
0
  0
BLOCK_RECORD
  5
17708
330
7466
100
AcDbSymbolTableRecord
100
AcDbBlockTableRecord
  2
*D24
340
0
  0
BLOCK_RECORD
  5
17DCC
330
7466
100
AcDbSymbolTableRecord
100
AcDbBlockTableRecord
  2
*D25
340
0
  0
BLOCK_RECORD
  5
17DD8
330
7466
100
AcDbSymbolTableRecord
100
AcDbBlockTableRecord
  2
*D26
340
0
  0
BLOCK_RECORD
  5
17DE6
330
7466
100
AcDbSymbolTableRecord
100
AcDbBlockTableRecord
  2
*D27
340
0
  0
BLOCK_RECORD
  5
17E36
330
7466
100
AcDbSymbolTableRecord
100
AcDbBlockTableRecord
  2
*D28
340
0
  0
BLOCK_RECORD
  5
17F41
330
7466
100
AcDbSymbolTableRecord
100
AcDbBlockTableRecord
  2
*D29
340
0
  0
BLOCK_RECORD
  5
17F4D
330
7466
100
AcDbSymbolTableRecord
100
AcDbBlockTableRecord
  2
*D30
340
0
  0
BLOCK_RECORD
  5
18490
330
7466
100
AcDbSymbolTableRecord
100
AcDbBlockTableRecord
  2
*D31
340
0
  0
BLOCK_RECORD
  5
18902
330
7466
100
AcDbSymbolTableRecord
100
AcDbBlockTableRecord
  2
*D32
340
0
  0
BLOCK_RECORD
  5
1891C
330
7466
100
AcDbSymbolTableRecord
100
AcDbBlockTableRecord
  2
*D33
340
0
  0
ENDTAB
  0
ENDSEC
  0
SECTION
  2
BLOCKS
  0
BLOCK
  5
7489
330
747D
100
AcDbEntity
  8
0
100
AcDbBlockBegin
  2
*MODEL_SPACE
 70
     0
 10
0.0
 20
0.0
 30
0.0
  3
*MODEL_SPACE
  1

  0
ENDBLK
  5
748A
330
747D
100
AcDbEntity
  8
0
100
AcDbBlockEnd
  0
BLOCK
  5
7487
330
747A
100
AcDbEntity
 67
     1
  8
0
100
AcDbBlockBegin
  2
*PAPER_SPACE
 70
     0
 10
0.0
 20
0.0
 30
0.0
  3
*PAPER_SPACE
  1

  0
ENDBLK
  5
7488
330
747A
100
AcDbEntity
 67
     1
  8
0
100
AcDbBlockEnd
  0
BLOCK
  5
F771
330
F770
100
AcDbEntity
  8
0
 48
50.0
100
AcDbBlockBegin
  2
_DOTSMALL
 70
     0
 10
0.0
 20
0.0
 30
0.0
  3
_DOTSMALL
  1

  0
LWPOLYLINE
  5
F772
330
F770
100
AcDbEntity
  8
0
  6
ByBlock
 62
     0
 48
50.0
100
AcDbPolyline
 90
        2
 70
     1
 43
0.5
 10
-0.0625
 20
0.0
 42
1.0
 10
0.0625
 20
0.0
 42
1.0
  0
ENDBLK
  5
F776
330
F770
100
AcDbEntity
  8
0
 48
50.0
100
AcDbBlockEnd
  0
BLOCK
  5
16671
330
165D4
100
AcDbEntity
  8
0
 48
50.0
100
AcDbBlockBegin
  2
*D1
 70
     1
 10
0.0
 20
0.0
 30
0.0
  3
*D1
  1

  0
LINE
  5
17E80
330
165D4
100
AcDbEntity
  8
寸法
 62
     0
 48
50.0
370
    -2
100
AcDbLine
 10
8629.761265317412
 20
4480.931598713261
 30
0.0
 11
7838.460205573015
 21
4480.931598713261
 31
0.0
  0
LINE
  5
17E81
330
165D4
100
AcDbEntity
  8
寸法
 62
     0
 48
50.0
370
    -2
100
AcDbLine
 10
8629.761265317412
 20
2755.931598713261
 30
0.0
 11
7838.460205573015
 21
2755.931598713261
 31
0.0
  0
LINE
  5
17E82
330
165D4
100
AcDbEntity
  8
寸法
 62
     0
 48
50.0
370
    -2
100
AcDbLine
 10
7898.460205573015
 20
4480.931598713261
 30
0.0
 11
7898.460205573015
 21
2755.931598713261
 31
0.0
  0
INSERT
  5
17E83
330
165D4
100
AcDbEntity
  8
寸法
 62
     0
 48
50.0
370
    -2
100
AcDbBlockReference
  2
_DOTSMALL
 10
7898.460205573015
 20
4480.931598713261
 30
0.0
 41
100.0
 42
100.0
 43
100.0
 50
90.0
  0
INSERT
  5
17E84
330
165D4
100
AcDbEntity
  8
寸法
 62
     0
 48
50.0
370
    -2
100
AcDbBlockReference
  2
_DOTSMALL
 10
7898.460205573015
 20
2755.931598713261
 30
0.0
 41
100.0
 42
100.0
 43
100.0
 50
270.0
  0
MTEXT
  5
17E85
330
165D4
100
AcDbEntity
  8
寸法
 62
     7
 48
50.0
100
AcDbMText
 10
7798.448394549392
 20
3592.007525067958
 30
0.0
 40
120.0
 41
0.0
 71
     5
 72
     1
  1
\A1;有効開口部高サ1725
  7
STYLE1
 11
0.0000000000000001
 21
1.0
 31
0.0
 73
     1
 44
1.0
1001
ACAD
1000
MTEXTBEGIN
1070
    73
1070
     1
1070
    44
1040
1.0
1070
    74
1070
     0
1000
MTEXTEND
  0
POINT
  5
17E86
330
165D4
100
AcDbEntity
  8
DEFPOINTS
 62
     0
 48
50.0
100
AcDbPoint
 10
8649.761265317414
 20
4480.931598713261
 30
0.0
  0
POINT
  5
17E87
330
165D4
100
AcDbEntity
  8
DEFPOINTS
 62
     0
 48
50.0
100
AcDbPoint
 10
8649.761265317414
 20
2755.931598713261
 30
0.0
  0
POINT
  5
17E88
330
165D4
100
AcDbEntity
  8
DEFPOINTS
 62
     0
 48
50.0
100
AcDbPoint
 10
7898.460205573015
 20
2755.931598713261
 30
0.0
  0
ENDBLK
  5
1667B
330
165D4
100
AcDbEntity
  8
0
 48
50.0
100
AcDbBlockEnd
  0
BLOCK
  5
16A74
330
165E0
100
AcDbEntity
  8
0
 48
50.0
100
AcDbBlockBegin
  2
*D2
 70
     1
 10
0.0
 20
0.0
 30
0.0
  3
*D2
  1

  0
LINE
  5
16A75
330
165E0
100
AcDbEntity
  8
0
  6
ByBlock
 62
     0
 48
50.0
100
AcDbLine
 10
8326.761265317413
 20
2377.931598713261
 30
0.0
 11
8326.761265317413
 21
2051.884269412884
 31
0.0
  0
LINE
  5
16A76
330
165E0
100
AcDbEntity
  8
0
  6
ByBlock
 62
     0
 48
50.0
100
AcDbLine
 10
8076.761265317411
 20
2377.931598713261
 30
0.0
 11
8076.761265317411
 21
2051.884269412884
 31
0.0
  0
LINE
  5
16A77
330
165E0
100
AcDbEntity
  8
0
  6
ByBlock
 62
     0
 48
50.0
100
AcDbLine
 10
8326.761265317413
 20
2111.884269412883
 30
0.0
 11
8076.761265317411
 21
2111.884269412883
 31
0.0
  0
INSERT
  5
16A78
330
165E0
100
AcDbEntity
  8
0
  6
ByBlock
 62
     0
 48
50.0
100
AcDbBlockReference
  2
_DOTSMALL
 10
8326.761265317413
 20
2111.884269412883
 30
0.0
 41
100.0
 42
100.0
 43
100.0
  0
INSERT
  5
16A79
330
165E0
100
AcDbEntity
  8
0
  6
ByBlock
 62
     0
 48
50.0
100
AcDbBlockReference
  2
_DOTSMALL
 10
8076.761265317411
 20
2111.884269412883
 30
0.0
 41
100.0
 42
100.0
 43
100.0
 50
180.0
  0
MTEXT
  5
16A7A
330
165E0
100
AcDbEntity
  8
0
  6
ByBlock
 62
     7
 48
50.0
100
AcDbMText
 10
8201.761265317411
 20
2211.896080436506
 30
0.0
 40
120.0
 41
0.0
 71
     5
 72
     1
  1
\A1;250
  7
STYLE1
 73
     1
 44
1.0
1001
ACAD
1000
MTEXTBEGIN
1070
    73
1070
     1
1070
    44
1040
1.0
1070
    74
1070
     0
1000
MTEXTEND
  0
POINT
  5
16A7B
330
165E0
100
AcDbEntity
  8
DEFPOINTS
  6
ByBlock
 62
     0
 48
50.0
100
AcDbPoint
 10
8326.761265317413
 20
2397.931598713261
 30
0.0
  0
POINT
  5
16A7C
330
165E0
100
AcDbEntity
  8
DEFPOINTS
  6
ByBlock
 62
     0
 48
50.0
100
AcDbPoint
 10
8076.761265317411
 20
2397.931598713261
 30
0.0
  0
POINT
  5
16A7D
330
165E0
100
AcDbEntity
  8
DEFPOINTS
  6
ByBlock
 62
     0
 48
50.0
100
AcDbPoint
 10
8076.761265317411
 20
2111.884269412883
 30
0.0
  0
ENDBLK
  5
16A7E
330
165E0
100
AcDbEntity
  8
0
 48
50.0
100
AcDbBlockEnd
  0
BLOCK
  5
16D8D
330
16CE8
100
AcDbEntity
  8
0
 48
50.0
100
AcDbBlockBegin
  2
*D3
 70
     1
 10
0.0
 20
0.0
 30
0.0
  3
*D3
  1

  0
LINE
  5
189D4
330
16CE8
100
AcDbEntity
  8
寸法
 62
     0
 48
50.0
370
    -2
100
AcDbLine
 10
8224.902281468722
 20
8709.003900523644
 30
0.0
 11
8143.254307452806
 21
8404.289513161186
 31
0.0
  0
LINE
  5
189D5
330
16CE8
100
AcDbEntity
  8
寸法
 62
     0
 48
50.0
370
    -2
100
AcDbLine
 10
9707.902281468793
 20
8709.003900523637
 30
0.0
 11
9626.25430745288
 21
8404.289513161186
 31
0.0
  0
LINE
  5
189D6
330
16CE8
100
AcDbEntity
  8
寸法
 62
     0
 48
50.0
370
    -2
100
AcDbLine
 10
8159.331258998674
 20
8464.289513161189
 30
0.0
 11
9642.331258998748
 21
8464.289513161189
 31
0.0
  0
INSERT
  5
189D7
330
16CE8
100
AcDbEntity
  8
寸法
 62
     0
 48
50.0
370
    -2
100
AcDbBlockReference
  2
_DOTSMALL
 10
8159.331258998674
 20
8464.289513161189
 30
0.0
 41
100.0
 42
100.0
 43
100.0
 50
180.0
  0
INSERT
  5
189D8
330
16CE8
100
AcDbEntity
  8
寸法
 62
     0
 48
50.0
370
    -2
100
AcDbBlockReference
  2
_DOTSMALL
 10
9642.331258998748
 20
8464.289513161189
 30
0.0
 41
100.0
 42
100.0
 43
100.0
  0
MTEXT
  5
189D9
330
16CE8
100
AcDbEntity
  8
寸法
 62
     7
 48
50.0
100
AcDbMText
 10
8789.946816148136
 20
8564.289513161188
 30
0.0
 40
120.0
 41
0.0
 71
     5
 72
     1
  1
\A1;1483
  7
STYLE1
 73
     1
 44
1.0
1001
ACAD
1000
MTEXTBEGIN
1070
    73
1070
     1
1070
    44
1040
1.0
1070
    74
1070
     0
1000
MTEXTEND
  0
POINT
  5
189DA
330
16CE8
100
AcDbEntity
  8
DEFPOINTS
 62
     0
 48
50.0
100
AcDbPoint
 10
8230.261265317343
 20
8729.003900523643
 30
0.0
  0
POINT
  5
189DB
330
16CE8
100
AcDbEntity
  8
DEFPOINTS
 62
     0
 48
50.0
100
AcDbPoint
 10
9713.261265317415
 20
8729.003900523636
 30
0.0
  0
POINT
  5
189DC
330
16CE8
100
AcDbEntity
  8
DEFPOINTS
 62
     0
 48
50.0
100
AcDbPoint
 10
9642.331258998748
 20
8464.289513161189
 30
0.0
  0
ENDBLK
  5
16D97
330
16CE8
100
AcDbEntity
  8
0
 48
50.0
100
AcDbBlockEnd
  0
BLOCK
  5
16D98
330
16CF4
100
AcDbEntity
  8
0
 48
50.0
100
AcDbBlockBegin
  2
*D4
 70
     1
 10
0.0
 20
0.0
 30
0.0
  3
*D4
  1

  0
LINE
  5
189CB
330
16CF4
100
AcDbEntity
  8
寸法
 62
     0
 48
50.0
370
    -2
100
AcDbLine
 10
8256.76126531742
 20
9229.00390052353
 30
0.0
 11
8256.76126531742
 21
9769.003900523578
 31
0.0
  0
LINE
  5
189CC
330
16CF4
100
AcDbEntity
  8
寸法
 62
     0
 48
50.0
370
    -2
100
AcDbLine
 10
11196.76126531742
 20
9229.003900523625
 30
0.0
 11
11196.76126531742
 21
9769.003900523578
 31
0.0
  0
LINE
  5
189CD
330
16CF4
100
AcDbEntity
  8
寸法
 62
     0
 48
50.0
370
    -2
100
AcDbLine
 10
8256.76126531742
 20
9709.003900523578
 30
0.0
 11
11196.76126531742
 21
9709.003900523578
 31
0.0
  0
INSERT
  5
189CE
330
16CF4
100
AcDbEntity
  8
寸法
 62
     0
 48
50.0
370
    -2
100
AcDbBlockReference
  2
_DOTSMALL
 10
8256.76126531742
 20
9709.003900523578
 30
0.0
 41
100.0
 42
100.0
 43
100.0
 50
180.0
  0
INSERT
  5
189CF
330
16CF4
100
AcDbEntity
  8
寸法
 62
     0
 48
50.0
370
    -2
100
AcDbBlockReference
  2
_DOTSMALL
 10
11196.76126531742
 20
9709.003900523578
 30
0.0
 41
100.0
 42
100.0
 43
100.0
  0
MTEXT
  5
189D0
330
16CF4
100
AcDbEntity
  8
寸法
 62
     7
 48
50.0
100
AcDbMText
 10
9726.761265317421
 20
9809.0157115472
 30
0.0
 40
120.0
 41
0.0
 71
     5
 72
     1
  1
\A1;7X420=2940
  7
STYLE1
 73
     1
 44
1.0
1001
ACAD
1000
MTEXTBEGIN
1070
    73
1070
     1
1070
    44
1040
1.0
1070
    74
1070
     0
1000
MTEXTEND
  0
POINT
  5
189D1
330
16CF4
100
AcDbEntity
  8
DEFPOINTS
 62
     0
 48
50.0
100
AcDbPoint
 10
8256.76126531742
 20
9209.003900523532
 30
0.0
  0
POINT
  5
189D2
330
16CF4
100
AcDbEntity
  8
DEFPOINTS
 62
     0
 48
50.0
100
AcDbPoint
 10
11196.76126531742
 20
9209.003900523624
 30
0.0
  0
POINT
  5
189D3
330
16CF4
100
AcDbEntity
  8
DEFPOINTS
 62
     0
 48
50.0
100
AcDbPoint
 10
11196.76126531742
 20
9709.003900523578
 30
0.0
  0
ENDBLK
  5
16DA2
330
16CF4
100
AcDbEntity
  8
0
 48
50.0
100
AcDbBlockEnd
  0
BLOCK
  5
16DA3
330
16D00
100
AcDbEntity
  8
0
 48
50.0
100
AcDbBlockBegin
  2
*D5
 70
     1
 10
0.0
 20
0.0
 30
0.0
  3
*D5
  1

  0
LINE
  5
189C2
330
16D00
100
AcDbEntity
  8
寸法
 62
     0
 48
50.0
370
    -2
100
AcDbLine
 10
8201.761265317415
 20
7819.003900523454
 30
0.0
 11
8201.761265317415
 21
6483.546984160996
 31
0.0
  0
LINE
  5
189C3
330
16D00
100
AcDbEntity
  8
寸法
 62
     0
 48
50.0
370
    -2
100
AcDbLine
 10
11251.76126531739
 20
7819.003900523617
 30
0.0
 11
11251.76126531739
 21
6483.546984160996
 31
0.0
  0
LINE
  5
189C4
330
16D00
100
AcDbEntity
  8
寸法
 62
     0
 48
50.0
370
    -2
100
AcDbLine
 10
8201.761265317415
 20
6543.546984160996
 30
0.0
 11
11251.76126531739
 21
6543.546984160996
 31
0.0
  0
INSERT
  5
189C5
330
16D00
100
AcDbEntity
  8
寸法
 62
     0
 48
50.0
370
    -2
100
AcDbBlockReference
  2
_DOTSMALL
 10
8201.761265317415
 20
6543.546984160996
 30
0.0
 41
100.0
 42
100.0
 43
100.0
 50
180.0
  0
INSERT
  5
189C6
330
16D00
100
AcDbEntity
  8
寸法
 62
     0
 48
50.0
370
    -2
100
AcDbBlockReference
  2
_DOTSMALL
 10
11251.76126531739
 20
6543.546984160996
 30
0.0
 41
100.0
 42
100.0
 43
100.0
  0
MTEXT
  5
189C7
330
16D00
100
AcDbEntity
  8
寸法
 62
     7
 48
50.0
100
AcDbMText
 10
9700.706934414862
 20
6643.546984160995
 30
0.0
 40
120.0
 41
0.0
 71
     5
 72
     1
  1
\A1;3050
  7
STYLE1
 73
     1
 44
1.0
1001
ACAD
1000
MTEXTBEGIN
1070
    73
1070
     1
1070
    44
1040
1.0
1070
    74
1070
     0
1000
MTEXTEND
  0
POINT
  5
189C8
330
16D00
100
AcDbEntity
  8
DEFPOINTS
 62
     0
 48
50.0
100
AcDbPoint
 10
8201.761265317415
 20
7839.003900523453
 30
0.0
  0
POINT
  5
189C9
330
16D00
100
AcDbEntity
  8
DEFPOINTS
 62
     0
 48
50.0
100
AcDbPoint
 10
11251.76126531739
 20
7839.003900523618
 30
0.0
  0
POINT
  5
189CA
330
16D00
100
AcDbEntity
  8
DEFPOINTS
 62
     0
 48
50.0
100
AcDbPoint
 10
11251.76126531739
 20
6543.546984160996
 30
0.0
  0
ENDBLK
  5
16DAD
330
16D00
100
AcDbEntity
  8
0
 48
50.0
100
AcDbBlockEnd
  0
BLOCK
  5
16DAE
330
16D0C
100
AcDbEntity
  8
0
 48
50.0
100
AcDbBlockBegin
  2
*D6
 70
     1
 10
0.0
 20
0.0
 30
0.0
  3
*D6
  1

  0
LINE
  5
189B7
330
16D0C
100
AcDbEntity
  8
寸法
 62
     0
 48
50.0
370
    -2
100
AcDbLine
 10
8201.761265317387
 20
9229.00390052353
 30
0.0
 11
8201.761265317387
 21
9769.00390052353
 31
0.0
  0
LINE
  5
189B8
330
16D0C
100
AcDbEntity
  8
寸法
 62
     0
 48
50.0
370
    -2
100
AcDbLine
 10
8256.76126531742
 20
9229.00390052353
 30
0.0
 11
8256.76126531742
 21
9769.00390052353
 31
0.0
  0
LINE
  5
189B9
330
16D0C
100
AcDbEntity
  8
寸法
 62
     0
 48
50.0
370
    -2
100
AcDbLine
 10
8256.76126531742
 20
9709.003900523532
 30
0.0
 11
8356.761265317421
 21
9709.003900523532
 31
0.0
  0
LINE
  5
189BA
330
16D0C
100
AcDbEntity
  8
寸法
 62
     0
 48
50.0
370
    -2
100
AcDbLine
 10
8201.761265317387
 20
9709.003900523532
 30
0.0
 11
7784.790702568908
 21
9709.003900523532
 31
0.0
  0
LINE
  5
189BB
330
16D0C
100
AcDbEntity
  8
寸法
 62
     0
 48
50.0
370
    -2
100
AcDbLine
 10
8256.76126531742
 20
9709.003900523532
 30
0.0
 11
8201.761265317387
 21
9709.003900523532
 31
0.0
  0
INSERT
  5
189BC
330
16D0C
100
AcDbEntity
  8
寸法
 62
     0
 48
50.0
370
    -2
100
AcDbBlockReference
  2
_DOTSMALL
 10
8256.76126531742
 20
9709.003900523532
 30
0.0
 41
100.0
 42
100.0
 43
100.0
 50
180.0
  0
INSERT
  5
189BD
330
16D0C
100
AcDbEntity
  8
寸法
 62
     0
 48
50.0
370
    -2
100
AcDbBlockReference
  2
_DOTSMALL
 10
8201.761265317387
 20
9709.003900523532
 30
0.0
 41
100.0
 42
100.0
 43
100.0
  0
MTEXT
  5
189BE
330
16D0C
100
AcDbEntity
  8
寸法
 62
     7
 48
50.0
100
AcDbMText
 10
7893.275983943147
 20
9809.003900523531
 30
0.0
 40
120.0
 41
0.0
 71
     5
 72
     1
  1
\A1;55
  7
STYLE1
 73
     1
 44
1.0
1001
ACAD
1000
MTEXTBEGIN
1070
    73
1070
     1
1070
    44
1040
1.0
1070
    74
1070
     0
1000
MTEXTEND
  0
POINT
  5
189BF
330
16D0C
100
AcDbEntity
  8
DEFPOINTS
 62
     0
 48
50.0
100
AcDbPoint
 10
8201.761265317387
 20
9209.003900523532
 30
0.0
  0
POINT
  5
189C0
330
16D0C
100
AcDbEntity
  8
DEFPOINTS
 62
     0
 48
50.0
100
AcDbPoint
 10
8256.76126531742
 20
9209.003900523532
 30
0.0
  0
POINT
  5
189C1
330
16D0C
100
AcDbEntity
  8
DEFPOINTS
 62
     0
 48
50.0
100
AcDbPoint
 10
8256.76126531742
 20
9709.003900523532
 30
0.0
  0
ENDBLK
  5
16DBA
330
16D0C
100
AcDbEntity
  8
0
 48
50.0
100
AcDbBlockEnd
  0
BLOCK
  5
16DBB
330
16D1A
100
AcDbEntity
  8
0
 48
50.0
100
AcDbBlockBegin
  2
*D7
 70
     1
 10
0.0
 20
0.0
 30
0.0
  3
*D7
  1

  0
LINE
  5
189AE
330
16D1A
100
AcDbEntity
  8
寸法
 62
     0
 48
50.0
370
    -2
100
AcDbLine
 10
9734.902281468791
 20
8709.003900523702
 30
0.0
 11
9653.254307452861
 21
8404.289513161186
 31
0.0
  0
LINE
  5
189AF
330
16D1A
100
AcDbEntity
  8
寸法
 62
     0
 48
50.0
370
    -2
100
AcDbLine
 10
11217.9022814688
 20
8709.003900523695
 30
0.0
 11
11136.25430745287
 21
8404.289513161186
 31
0.0
  0
LINE
  5
189B0
330
16D1A
100
AcDbEntity
  8
寸法
 62
     0
 48
50.0
370
    -2
100
AcDbLine
 10
9669.331258998727
 20
8464.289513161189
 30
0.0
 11
11152.33125899874
 21
8464.289513161189
 31
0.0
  0
INSERT
  5
189B1
330
16D1A
100
AcDbEntity
  8
寸法
 62
     0
 48
50.0
370
    -2
100
AcDbBlockReference
  2
_DOTSMALL
 10
9669.331258998727
 20
8464.289513161189
 30
0.0
 41
100.0
 42
100.0
 43
100.0
 50
180.0
  0
INSERT
  5
189B2
330
16D1A
100
AcDbEntity
  8
寸法
 62
     0
 48
50.0
370
    -2
100
AcDbBlockReference
  2
_DOTSMALL
 10
11152.33125899874
 20
8464.289513161189
 30
0.0
 41
100.0
 42
100.0
 43
100.0
  0
MTEXT
  5
189B3
330
16D1A
100
AcDbEntity
  8
寸法
 62
     7
 48
50.0
100
AcDbMText
 10
10270.8372597741
 20
8564.289513161188
 30
0.0
 40
120.0
 41
0.0
 71
     5
 72
     1
  1
\A1;1483
  7
STYLE1
 73
     1
 44
1.0
1001
ACAD
1000
MTEXTBEGIN
1070
    73
1070
     1
1070
    44
1040
1.0
1070
    74
1070
     0
1000
MTEXTEND
  0
POINT
  5
189B4
330
16D1A
100
AcDbEntity
  8
DEFPOINTS
 62
     0
 48
50.0
100
AcDbPoint
 10
9740.261265317414
 20
8729.003900523702
 30
0.0
  0
POINT
  5
189B5
330
16D1A
100
AcDbEntity
  8
DEFPOINTS
 62
     0
 48
50.0
100
AcDbPoint
 10
11223.26126531742
 20
8729.003900523695
 30
0.0
  0
POINT
  5
189B6
330
16D1A
100
AcDbEntity
  8
DEFPOINTS
 62
     0
 48
50.0
100
AcDbPoint
 10
11152.33125899874
 20
8464.289513161189
 30
0.0
  0
ENDBLK
  5
16DC5
330
16D1A
100
AcDbEntity
  8
0
 48
50.0
100
AcDbBlockEnd
  0
BLOCK
  5
16DD1
330
16D32
100
AcDbEntity
  8
0
 48
50.0
100
AcDbBlockBegin
  2
*D8
 70
     1
 10
0.0
 20
0.0
 30
0.0
  3
*D8
  1

  0
LINE
  5
189A5
330
16D32
100
AcDbEntity
  8
寸法
 62
     0
 48
50.0
370
    -2
100
AcDbLine
 10
11271.76126531742
 20
9209.003900523624
 30
0.0
 11
12311.76126531741
 21
9209.003900523624
 31
0.0
  0
LINE
  5
189A6
330
16D32
100
AcDbEntity
  8
寸法
 62
     0
 48
50.0
370
    -2
100
AcDbLine
 10
11271.76126531739
 20
7839.003900523618
 30
0.0
 11
12311.76126531741
 21
7839.003900523618
 31
0.0
  0
LINE
  5
189A7
330
16D32
100
AcDbEntity
  8
寸法
 62
     0
 48
50.0
370
    -2
100
AcDbLine
 10
12251.76126531741
 20
9209.003900523624
 30
0.0
 11
12251.76126531741
 21
7839.003900523618
 31
0.0
  0
INSERT
  5
189A8
330
16D32
100
AcDbEntity
  8
寸法
 62
     0
 48
50.0
370
    -2
100
AcDbBlockReference
  2
_DOTSMALL
 10
12251.76126531741
 20
9209.003900523624
 30
0.0
 41
100.0
 42
100.0
 43
100.0
 50
90.0
  0
INSERT
  5
189A9
330
16D32
100
AcDbEntity
  8
寸法
 62
     0
 48
50.0
370
    -2
100
AcDbBlockReference
  2
_DOTSMALL
 10
12251.76126531741
 20
7839.003900523618
 30
0.0
 41
100.0
 42
100.0
 43
100.0
 50
270.0
  0
MTEXT
  5
189AA
330
16D32
100
AcDbEntity
  8
寸法
 62
     7
 48
50.0
100
AcDbMText
 10
12151.76126531741
 20
8524.003900523622
 30
0.0
 40
120.0
 41
0.0
 71
     5
 72
     1
  1
\A1;1370
  7
STYLE1
 11
0.0000000000000001
 21
1.0
 31
0.0
 73
     1
 44
1.0
1001
ACAD
1000
MTEXTBEGIN
1070
    73
1070
     1
1070
    44
1040
1.0
1070
    74
1070
     0
1000
MTEXTEND
  0
POINT
  5
189AB
330
16D32
100
AcDbEntity
  8
DEFPOINTS
 62
     0
 48
50.0
100
AcDbPoint
 10
11251.76126531742
 20
9209.003900523624
 30
0.0
  0
POINT
  5
189AC
330
16D32
100
AcDbEntity
  8
DEFPOINTS
 62
     0
 48
50.0
100
AcDbPoint
 10
11251.76126531739
 20
7839.003900523618
 30
0.0
  0
POINT
  5
189AD
330
16D32
100
AcDbEntity
  8
DEFPOINTS
 62
     0
 48
50.0
100
AcDbPoint
 10
12251.76126531741
 20
7839.003900523618
 30
0.0
  0
ENDBLK
  5
16DDB
330
16D32
100
AcDbEntity
  8
0
 48
50.0
100
AcDbBlockEnd
  0
BLOCK
  5
16DDC
330
16D3E
100
AcDbEntity
  8
0
 48
50.0
100
AcDbBlockBegin
  2
*D9
 70
     1
 10
0.0
 20
0.0
 30
0.0
  3
*D9
  1

  0
LINE
  5
1899C
330
16D3E
100
AcDbEntity
  8
寸法
 62
     0
 48
50.0
370
    -2
100
AcDbLine
 10
11271.76126531742
 20
9154.003900523628
 30
0.0
 11
12011.76126531741
 21
9154.003900523628
 31
0.0
  0
LINE
  5
1899D
330
16D3E
100
AcDbEntity
  8
寸法
 62
     0
 48
50.0
370
    -2
100
AcDbLine
 10
11271.76126531739
 20
7894.003900523613
 30
0.0
 11
12011.76126531741
 21
7894.003900523613
 31
0.0
  0
LINE
  5
1899E
330
16D3E
100
AcDbEntity
  8
寸法
 62
     0
 48
50.0
370
    -2
100
AcDbLine
 10
11951.76126531741
 20
9154.003900523628
 30
0.0
 11
11951.76126531741
 21
7894.003900523613
 31
0.0
  0
INSERT
  5
1899F
330
16D3E
100
AcDbEntity
  8
寸法
 62
     0
 48
50.0
370
    -2
100
AcDbBlockReference
  2
_DOTSMALL
 10
11951.76126531741
 20
9154.003900523628
 30
0.0
 41
100.0
 42
100.0
 43
100.0
 50
90.0
  0
INSERT
  5
189A0
330
16D3E
100
AcDbEntity
  8
寸法
 62
     0
 48
50.0
370
    -2
100
AcDbBlockReference
  2
_DOTSMALL
 10
11951.76126531741
 20
7894.003900523613
 30
0.0
 41
100.0
 42
100.0
 43
100.0
 50
270.0
  0
MTEXT
  5
189A1
330
16D3E
100
AcDbEntity
  8
寸法
 62
     7
 48
50.0
100
AcDbMText
 10
11851.74945429378
 20
8524.003900523608
 30
0.0
 40
120.0
 41
0.0
 71
     5
 72
     1
  1
\A1;3X420=1260
  7
STYLE1
 11
0.0000000000000001
 21
1.0
 31
0.0
 73
     1
 44
1.0
1001
ACAD
1000
MTEXTBEGIN
1070
    73
1070
     1
1070
    44
1040
1.0
1070
    74
1070
     0
1000
MTEXTEND
  0
POINT
  5
189A2
330
16D3E
100
AcDbEntity
  8
DEFPOINTS
 62
     0
 48
50.0
100
AcDbPoint
 10
11251.76126531742
 20
9154.003900523628
 30
0.0
  0
POINT
  5
189A3
330
16D3E
100
AcDbEntity
  8
DEFPOINTS
 62
     0
 48
50.0
100
AcDbPoint
 10
11251.76126531739
 20
7894.003900523613
 30
0.0
  0
POINT
  5
189A4
330
16D3E
100
AcDbEntity
  8
DEFPOINTS
 62
     0
 48
50.0
100
AcDbPoint
 10
11951.76126531741
 20
7894.003900523613
 30
0.0
  0
ENDBLK
  5
16DE6
330
16D3E
100
AcDbEntity
  8
0
 48
50.0
100
AcDbBlockEnd
  0
BLOCK
  5
16DE7
330
16D4A
100
AcDbEntity
  8
0
 48
50.0
100
AcDbBlockBegin
  2
*D10
 70
     1
 10
0.0
 20
0.0
 30
0.0
  3
*D10
  1

  0
LINE
  5
18991
330
16D4A
100
AcDbEntity
  8
寸法
 62
     0
 48
50.0
370
    -2
100
AcDbLine
 10
11271.76126531739
 20
7894.003900523613
 30
0.0
 11
12011.7612653174
 21
7894.003900523613
 31
0.0
  0
LINE
  5
18992
330
16D4A
100
AcDbEntity
  8
寸法
 62
     0
 48
50.0
370
    -2
100
AcDbLine
 10
11271.76126531739
 20
7839.003900523618
 30
0.0
 11
12011.7612653174
 21
7839.003900523618
 31
0.0
  0
LINE
  5
18993
330
16D4A
100
AcDbEntity
  8
寸法
 62
     0
 48
50.0
370
    -2
100
AcDbLine
 10
11951.7612653174
 20
7894.003900523613
 30
0.0
 11
11951.7612653174
 21
7994.003900523613
 31
0.0
  0
LINE
  5
18994
330
16D4A
100
AcDbEntity
  8
寸法
 62
     0
 48
50.0
370
    -2
100
AcDbLine
 10
11951.7612653174
 20
7839.003900523618
 30
0.0
 11
11951.7612653174
 21
7422.033337775136
 31
0.0
  0
LINE
  5
18995
330
16D4A
100
AcDbEntity
  8
寸法
 62
     0
 48
50.0
370
    -2
100
AcDbLine
 10
11951.7612653174
 20
7894.003900523613
 30
0.0
 11
11951.7612653174
 21
7839.003900523618
 31
0.0
  0
INSERT
  5
18996
330
16D4A
100
AcDbEntity
  8
寸法
 62
     0
 48
50.0
370
    -2
100
AcDbBlockReference
  2
_DOTSMALL
 10
11951.7612653174
 20
7894.003900523613
 30
0.0
 41
100.0
 42
100.0
 43
100.0
 50
270.0
  0
INSERT
  5
18997
330
16D4A
100
AcDbEntity
  8
寸法
 62
     0
 48
50.0
370
    -2
100
AcDbBlockReference
  2
_DOTSMALL
 10
11951.7612653174
 20
7839.003900523618
 30
0.0
 41
100.0
 42
100.0
 43
100.0
 50
90.0
  0
MTEXT
  5
18998
330
16D4A
100
AcDbEntity
  8
寸法
 62
     7
 48
50.0
100
AcDbMText
 10
11851.76126531739
 20
7530.518619149377
 30
0.0
 40
120.0
 41
0.0
 71
     5
 72
     1
  1
\A1;55
  7
STYLE1
 11
0.0000000000000001
 21
1.0
 31
0.0
 73
     1
 44
1.0
1001
ACAD
1000
MTEXTBEGIN
1070
    73
1070
     1
1070
    44
1040
1.0
1070
    74
1070
     0
1000
MTEXTEND
  0
POINT
  5
18999
330
16D4A
100
AcDbEntity
  8
DEFPOINTS
 62
     0
 48
50.0
100
AcDbPoint
 10
11251.76126531739
 20
7894.003900523613
 30
0.0
  0
POINT
  5
1899A
330
16D4A
100
AcDbEntity
  8
DEFPOINTS
 62
     0
 48
50.0
100
AcDbPoint
 10
11251.76126531739
 20
7839.003900523618
 30
0.0
  0
POINT
  5
1899B
330
16D4A
100
AcDbEntity
  8
DEFPOINTS
 62
     0
 48
50.0
100
AcDbPoint
 10
11951.7612653174
 20
7839.003900523618
 30
0.0
  0
ENDBLK
  5
16DF3
330
16D4A
100
AcDbEntity
  8
0
 48
50.0
100
AcDbBlockEnd
  0
BLOCK
  5
16DF4
330
16D58
100
AcDbEntity
  8
0
 48
50.0
100
AcDbBlockBegin
  2
*D11
 70
     1
 10
0.0
 20
0.0
 30
0.0
  3
*D11
  1

  0
LINE
  5
18988
330
16D58
100
AcDbEntity
  8
寸法
 62
     0
 48
50.0
370
    -2
100
AcDbLine
 10
11243.26126531742
 20
9173.644916675003
 30
0.0
 11
11711.76126531742
 21
9048.110720021023
 31
0.0
  0
LINE
  5
18989
330
16D58
100
AcDbEntity
  8
寸法
 62
     0
 48
50.0
370
    -2
100
AcDbLine
 10
11243.26126531742
 20
8723.644916675006
 30
0.0
 11
11711.76126531742
 21
8598.110720021026
 31
0.0
  0
LINE
  5
1898A
330
16D58
100
AcDbEntity
  8
寸法
 62
     0
 48
50.0
370
    -2
100
AcDbLine
 10
11651.76126531742
 20
9064.187671566889
 30
0.0
 11
11651.76126531742
 21
8614.187671566893
 31
0.0
  0
INSERT
  5
1898B
330
16D58
100
AcDbEntity
  8
寸法
 62
     0
 48
50.0
370
    -2
100
AcDbBlockReference
  2
_DOTSMALL
 10
11651.76126531742
 20
9064.187671566889
 30
0.0
 41
100.0
 42
100.0
 43
100.0
 50
90.0
  0
INSERT
  5
1898C
330
16D58
100
AcDbEntity
  8
寸法
 62
     0
 48
50.0
370
    -2
100
AcDbBlockReference
  2
_DOTSMALL
 10
11651.76126531742
 20
8614.187671566893
 30
0.0
 41
100.0
 42
100.0
 43
100.0
 50
270.0
  0
MTEXT
  5
1898D
330
16D58
100
AcDbEntity
  8
寸法
 62
     7
 48
50.0
100
AcDbMText
 10
11551.76126531741
 20
8839.187671566891
 30
0.0
 40
120.0
 41
0.0
 71
     5
 72
     1
  1
\A1;450
  7
STYLE1
 11
0.0000000000000001
 21
1.0
 31
0.0
 73
     1
 44
1.0
1001
ACAD
1000
MTEXTBEGIN
1070
    73
1070
     1
1070
    44
1040
1.0
1070
    74
1070
     0
1000
MTEXTEND
  0
POINT
  5
1898E
330
16D58
100
AcDbEntity
  8
DEFPOINTS
 62
     0
 48
50.0
100
AcDbPoint
 10
11223.26126531742
 20
9179.003900523625
 30
0.0
  0
POINT
  5
1898F
330
16D58
100
AcDbEntity
  8
DEFPOINTS
 62
     0
 48
50.0
100
AcDbPoint
 10
11223.26126531742
 20
8729.003900523627
 30
0.0
  0
POINT
  5
18990
330
16D58
100
AcDbEntity
  8
DEFPOINTS
 62
     0
 48
50.0
100
AcDbPoint
 10
11651.76126531742
 20
8614.187671566893
 30
0.0
  0
ENDBLK
  5
16DFE
330
16D58
100
AcDbEntity
  8
0
 48
50.0
100
AcDbBlockEnd
  0
BLOCK
  5
16DFF
330
16D64
100
AcDbEntity
  8
0
 48
50.0
100
AcDbBlockBegin
  2
*D12
 70
     1
 10
0.0
 20
0.0
 30
0.0
  3
*D12
  1

  0
LINE
  5
1897D
330
16D64
100
AcDbEntity
  8
寸法
 62
     0
 48
50.0
370
    -2
100
AcDbLine
 10
11196.76126531742
 20
9229.003900523625
 30
0.0
 11
11196.76126531742
 21
9769.003900523626
 31
0.0
  0
LINE
  5
1897E
330
16D64
100
AcDbEntity
  8
寸法
 62
     0
 48
50.0
370
    -2
100
AcDbLine
 10
11251.76126531742
 20
9229.003900523625
 30
0.0
 11
11251.76126531742
 21
9769.003900523626
 31
0.0
  0
LINE
  5
1897F
330
16D64
100
AcDbEntity
  8
寸法
 62
     0
 48
50.0
370
    -2
100
AcDbLine
 10
11196.76126531742
 20
9709.003900523626
 30
0.0
 11
11096.76126531742
 21
9709.003900523626
 31
0.0
  0
LINE
  5
18980
330
16D64
100
AcDbEntity
  8
寸法
 62
     0
 48
50.0
370
    -2
100
AcDbLine
 10
11251.76126531742
 20
9709.003900523626
 30
0.0
 11
11668.7318280659
 21
9709.003900523626
 31
0.0
  0
LINE
  5
18981
330
16D64
100
AcDbEntity
  8
寸法
 62
     0
 48
50.0
370
    -2
100
AcDbLine
 10
11196.76126531742
 20
9709.003900523626
 30
0.0
 11
11251.76126531742
 21
9709.003900523626
 31
0.0
  0
INSERT
  5
18982
330
16D64
100
AcDbEntity
  8
寸法
 62
     0
 48
50.0
370
    -2
100
AcDbBlockReference
  2
_DOTSMALL
 10
11196.76126531742
 20
9709.003900523626
 30
0.0
 41
100.0
 42
100.0
 43
100.0
  0
INSERT
  5
18983
330
16D64
100
AcDbEntity
  8
寸法
 62
     0
 48
50.0
370
    -2
100
AcDbBlockReference
  2
_DOTSMALL
 10
11251.76126531742
 20
9709.003900523626
 30
0.0
 41
100.0
 42
100.0
 43
100.0
 50
180.0
  0
MTEXT
  5
18984
330
16D64
100
AcDbEntity
  8
寸法
 62
     7
 48
50.0
100
AcDbMText
 10
11560.24654669166
 20
9809.003900523626
 30
0.0
 40
120.0
 41
0.0
 71
     5
 72
     1
  1
\A1;55
  7
STYLE1
 73
     1
 44
1.0
1001
ACAD
1000
MTEXTBEGIN
1070
    73
1070
     1
1070
    44
1040
1.0
1070
    74
1070
     0
1000
MTEXTEND
  0
POINT
  5
18985
330
16D64
100
AcDbEntity
  8
DEFPOINTS
 62
     0
 48
50.0
100
AcDbPoint
 10
11196.76126531742
 20
9209.003900523624
 30
0.0
  0
POINT
  5
18986
330
16D64
100
AcDbEntity
  8
DEFPOINTS
 62
     0
 48
50.0
100
AcDbPoint
 10
11251.76126531742
 20
9209.003900523624
 30
0.0
  0
POINT
  5
18987
330
16D64
100
AcDbEntity
  8
DEFPOINTS
 62
     0
 48
50.0
100
AcDbPoint
 10
11251.76126531742
 20
9709.003900523626
 30
0.0
  0
ENDBLK
  5
16E0B
330
16D64
100
AcDbEntity
  8
0
 48
50.0
100
AcDbBlockEnd
  0
BLOCK
  5
16E0C
330
16D72
100
AcDbEntity
  8
0
 48
50.0
100
AcDbBlockBegin
  2
*D13
 70
     1
 10
0.0
 20
0.0
 30
0.0
  3
*D13
  1

  0
LINE
  5
18972
330
16D72
100
AcDbEntity
  8
寸法
 62
     0
 48
50.0
370
    -2
100
AcDbLine
 10
11271.76126531742
 20
9209.003900523624
 30
0.0
 11
12011.76126531742
 21
9209.003900523624
 31
0.0
  0
LINE
  5
18973
330
16D72
100
AcDbEntity
  8
寸法
 62
     0
 48
50.0
370
    -2
100
AcDbLine
 10
11271.76126531742
 20
9154.003900523628
 30
0.0
 11
12011.76126531742
 21
9154.003900523628
 31
0.0
  0
LINE
  5
18974
330
16D72
100
AcDbEntity
  8
寸法
 62
     0
 48
50.0
370
    -2
100
AcDbLine
 10
11951.76126531742
 20
9154.003900523628
 30
0.0
 11
11951.76126531742
 21
9054.003900523628
 31
0.0
  0
LINE
  5
18975
330
16D72
100
AcDbEntity
  8
寸法
 62
     0
 48
50.0
370
    -2
100
AcDbLine
 10
11951.76126531742
 20
9209.003900523624
 30
0.0
 11
11951.76126531742
 21
9625.9744632721
 31
0.0
  0
LINE
  5
18976
330
16D72
100
AcDbEntity
  8
寸法
 62
     0
 48
50.0
370
    -2
100
AcDbLine
 10
11951.76126531742
 20
9154.003900523628
 30
0.0
 11
11951.76126531742
 21
9209.003900523624
 31
0.0
  0
INSERT
  5
18977
330
16D72
100
AcDbEntity
  8
寸法
 62
     0
 48
50.0
370
    -2
100
AcDbBlockReference
  2
_DOTSMALL
 10
11951.76126531742
 20
9154.003900523628
 30
0.0
 41
100.0
 42
100.0
 43
100.0
 50
90.0
  0
INSERT
  5
18978
330
16D72
100
AcDbEntity
  8
寸法
 62
     0
 48
50.0
370
    -2
100
AcDbBlockReference
  2
_DOTSMALL
 10
11951.76126531742
 20
9209.003900523624
 30
0.0
 41
100.0
 42
100.0
 43
100.0
 50
270.0
  0
MTEXT
  5
18979
330
16D72
100
AcDbEntity
  8
寸法
 62
     7
 48
50.0
100
AcDbMText
 10
11851.76126531742
 20
9517.489181897865
 30
0.0
 40
120.0
 41
0.0
 71
     5
 72
     1
  1
\A1;55
  7
STYLE1
 11
0.0000000000000001
 21
1.0
 31
0.0
 73
     1
 44
1.0
1001
ACAD
1000
MTEXTBEGIN
1070
    73
1070
     1
1070
    44
1040
1.0
1070
    74
1070
     0
1000
MTEXTEND
  0
POINT
  5
1897A
330
16D72
100
AcDbEntity
  8
DEFPOINTS
 62
     0
 48
50.0
100
AcDbPoint
 10
11251.76126531742
 20
9209.003900523624
 30
0.0
  0
POINT
  5
1897B
330
16D72
100
AcDbEntity
  8
DEFPOINTS
 62
     0
 48
50.0
100
AcDbPoint
 10
11251.76126531742
 20
9154.003900523628
 30
0.0
  0
POINT
  5
1897C
330
16D72
100
AcDbEntity
  8
DEFPOINTS
 62
     0
 48
50.0
100
AcDbPoint
 10
11951.76126531742
 20
9154.003900523628
 30
0.0
  0
ENDBLK
  5
16E18
330
16D72
100
AcDbEntity
  8
0
 48
50.0
100
AcDbBlockEnd
  0
BLOCK
  5
16F35
330
16F34
100
AcDbEntity
  8
0
 48
50.0
100
AcDbBlockBegin
  2
_DOT
 70
     0
 10
0.0
 20
0.0
 30
0.0
  3
_DOT
  1

  0
LWPOLYLINE
  5
16F36
330
16F34
100
AcDbEntity
  8
0
  6
ByBlock
 62
     0
 48
50.0
100
AcDbPolyline
 90
        2
 70
     1
 43
0.5
 10
-0.25
 20
0.0
 42
1.0
 10
0.25
 20
0.0
 42
1.0
  0
LINE
  5
16F37
330
16F34
100
AcDbEntity
  8
0
  6
ByBlock
 62
     0
 48
50.0
100
AcDbLine
 10
-0.5
 20
0.0
 30
0.0
 11
-1.0
 21
0.0
 31
0.0
  0
ENDBLK
  5
16F38
330
16F34
100
AcDbEntity
  8
0
 48
50.0
100
AcDbBlockEnd
  0
BLOCK
  5
176A2
330
17697
100
AcDbEntity
  8
0
 48
50.0
100
AcDbBlockBegin
  2
*D15
 70
     1
 10
0.0
 20
0.0
 30
0.0
  3
*D15
  1

  0
LINE
  5
18297
330
17697
100
AcDbEntity
  8
寸法
 62
     0
 48
50.0
370
    -2
100
AcDbLine
 10
4908.595439907113
 20
4631.467210186739
 30
0.0
 11
4255.695269613094
 21
4656.118241426717
 31
0.0
  0
LINE
  5
18298
330
17697
100
AcDbEntity
  8
寸法
 62
     0
 48
50.0
370
    -2
100
AcDbLine
 10
4913.915274059065
 20
4772.366817583621
 30
0.0
 11
4261.015103764887
 21
4797.017848823606
 31
0.0
  0
LINE
  5
18299
330
17697
100
AcDbEntity
  8
寸法
 62
     0
 48
50.0
370
    -2
100
AcDbLine
 10
4315.652549356451
 20
4653.854482213189
 30
0.0
 11
4320.972383508244
 21
4794.754089610077
 31
0.0
  0
LINE
  5
1829A
330
17697
100
AcDbEntity
  8
寸法
 62
     0
 48
50.0
370
    -2
100
AcDbLine
 10
4320.972383508244
 20
4794.754089610077
 30
0.0
 11
4334.554938789444
 21
5154.497768070912
 31
0.0
  0
INSERT
  5
1829B
330
17697
100
AcDbEntity
  8
寸法
 62
     0
 48
50.0
370
    -2
100
AcDbBlockReference
  2
_DOTSMALL
 10
4315.652549356451
 20
4653.854482213189
 30
0.0
 41
100.0
 42
100.0
 43
100.0
 50
267.8377559871574
  0
INSERT
  5
1829C
330
17697
100
AcDbEntity
  8
寸法
 62
     0
 48
50.0
370
    -2
100
AcDbBlockReference
  2
_DOTSMALL
 10
4320.972383508244
 20
4794.754089610077
 30
0.0
 41
100.0
 42
100.0
 43
100.0
 50
87.8377559871574
  0
MTEXT
  5
1829D
330
17697
100
AcDbEntity
  8
寸法
 62
     7
 48
50.0
100
AcDbMText
 10
4229.72132758787
 20
5028.363260649521
 30
0.0
 40
120.0
 41
0.0
 71
     5
 72
     1
  1
\A1;141
  7
STYLE1
 11
0.0377293202254807
 21
0.9992879957226159
 31
0.0
 73
     1
 44
1.0
1001
ACAD
1000
MTEXTBEGIN
1070
    73
1070
     1
1070
    44
1040
1.0
1070
    74
1070
     0
1000
MTEXTEND
  0
POINT
  5
1829E
330
17697
100
AcDbEntity
  8
DEFPOINTS
 62
     0
 48
50.0
100
AcDbPoint
 10
4928.581199821564
 20
4630.712623782229
 30
0.0
  0
POINT
  5
1829F
330
17697
100
AcDbEntity
  8
DEFPOINTS
 62
     0
 48
50.0
100
AcDbPoint
 10
4933.901033973518
 20
4771.612231179111
 30
0.0
  0
POINT
  5
182A0
330
17697
100
AcDbEntity
  8
DEFPOINTS
 62
     0
 48
50.0
100
AcDbPoint
 10
4320.972383508244
 20
4794.754089610077
 30
0.0
  0
ENDBLK
  5
176A3
330
17697
100
AcDbEntity
  8
0
 48
50.0
100
AcDbBlockEnd
  0
BLOCK
  5
176AF
330
176A4
100
AcDbEntity
  8
0
 48
50.0
100
AcDbBlockBegin
  2
*D16
 70
     1
 10
0.0
 20
0.0
 30
0.0
  3
*D16
  1

  0
LINE
  5
1828D
330
176A4
100
AcDbEntity
  8
寸法
 62
     0
 48
50.0
370
    -2
100
AcDbLine
 10
6343.238635219612
 20
4739.742278324914
 30
0.0
 11
6343.238635219612
 21
5231.589052292566
 31
0.0
  0
LINE
  5
1828E
330
176A4
100
AcDbEntity
  8
寸法
 62
     0
 48
50.0
370
    -2
100
AcDbLine
 10
6423.238635219611
 20
4737.931598713262
 30
0.0
 11
6423.238635219611
 21
5231.589052292566
 31
0.0
  0
LINE
  5
1828F
330
176A4
100
AcDbEntity
  8
寸法
 62
     0
 48
50.0
370
    -2
100
AcDbLine
 10
6343.238635219612
 20
5171.589052292565
 30
0.0
 11
6423.238635219611
 21
5171.589052292565
 31
0.0
  0
LINE
  5
18290
330
176A4
100
AcDbEntity
  8
寸法
 62
     0
 48
50.0
370
    -2
100
AcDbLine
 10
6423.238635219611
 20
5171.589052292565
 30
0.0
 11
6735.333123408588
 21
5171.589052292565
 31
0.0
  0
INSERT
  5
18291
330
176A4
100
AcDbEntity
  8
寸法
 62
     0
 48
50.0
370
    -2
100
AcDbBlockReference
  2
_DOTSMALL
 10
6343.238635219612
 20
5171.589052292565
 30
0.0
 41
100.0
 42
100.0
 43
100.0
 50
180.0
  0
INSERT
  5
18292
330
176A4
100
AcDbEntity
  8
寸法
 62
     0
 48
50.0
370
    -2
100
AcDbBlockReference
  2
_DOTSMALL
 10
6423.238635219611
 20
5171.589052292565
 30
0.0
 41
100.0
 42
100.0
 43
100.0
  0
MTEXT
  5
18293
330
176A4
100
AcDbEntity
  8
寸法
 62
     7
 48
50.0
100
AcDbMText
 10
6629.2858793141
 20
5271.589052292565
 30
0.0
 40
120.0
 41
0.0
 71
     5
 72
     1
  1
\A1;80
  7
STYLE1
 73
     1
 44
1.0
1001
ACAD
1000
MTEXTBEGIN
1070
    73
1070
     1
1070
    44
1040
1.0
1070
    74
1070
     0
1000
MTEXTEND
  0
POINT
  5
18294
330
176A4
100
AcDbEntity
  8
DEFPOINTS
 62
     0
 48
50.0
100
AcDbPoint
 10
6343.238635219612
 20
4719.742278324915
 30
0.0
  0
POINT
  5
18295
330
176A4
100
AcDbEntity
  8
DEFPOINTS
 62
     0
 48
50.0
100
AcDbPoint
 10
6423.238635219611
 20
4717.931598713263
 30
0.0
  0
POINT
  5
18296
330
176A4
100
AcDbEntity
  8
DEFPOINTS
 62
     0
 48
50.0
100
AcDbPoint
 10
6423.238635219611
 20
5171.589052292565
 30
0.0
  0
ENDBLK
  5
176B0
330
176A4
100
AcDbEntity
  8
0
 48
50.0
100
AcDbBlockEnd
  0
BLOCK
  5
176BB
330
176B1
100
AcDbEntity
  8
0
 48
50.0
100
AcDbBlockBegin
  2
*D17
 70
     1
 10
0.0
 20
0.0
 30
0.0
  3
*D17
  1

  0
LINE
  5
18284
330
176B1
100
AcDbEntity
  8
寸法
 62
     0
 48
50.0
370
    -2
100
AcDbLine
 10
6423.238635219611
 20
4737.931598713262
 30
0.0
 11
6423.238635219611
 21
5439.763373484529
 31
0.0
  0
LINE
  5
18285
330
176B1
100
AcDbEntity
  8
寸法
 62
     0
 48
50.0
370
    -2
100
AcDbLine
 10
4913.238635219612
 20
4792.931598713265
 30
0.0
 11
4913.238635219612
 21
5439.763373484529
 31
0.0
  0
LINE
  5
18286
330
176B1
100
AcDbEntity
  8
寸法
 62
     0
 48
50.0
370
    -2
100
AcDbLine
 10
6423.238635219611
 20
5379.76337348453
 30
0.0
 11
4913.238635219612
 21
5379.76337348453
 31
0.0
  0
INSERT
  5
18287
330
176B1
100
AcDbEntity
  8
寸法
 62
     0
 48
50.0
370
    -2
100
AcDbBlockReference
  2
_DOTSMALL
 10
6423.238635219611
 20
5379.76337348453
 30
0.0
 41
100.0
 42
100.0
 43
100.0
  0
INSERT
  5
18288
330
176B1
100
AcDbEntity
  8
寸法
 62
     0
 48
50.0
370
    -2
100
AcDbBlockReference
  2
_DOTSMALL
 10
4913.238635219612
 20
5379.76337348453
 30
0.0
 41
100.0
 42
100.0
 43
100.0
 50
180.0
  0
MTEXT
  5
18289
330
176B1
100
AcDbEntity
  8
寸法
 62
     7
 48
50.0
100
AcDbMText
 10
5640.363464921432
 20
5479.76337348453
 30
0.0
 40
120.0
 41
0.0
 71
     5
 72
     1
  1
\A1;1510
  7
STYLE1
 73
     1
 44
1.0
1001
ACAD
1000
MTEXTBEGIN
1070
    73
1070
     1
1070
    44
1040
1.0
1070
    74
1070
     0
1000
MTEXTEND
  0
POINT
  5
1828A
330
176B1
100
AcDbEntity
  8
DEFPOINTS
 62
     0
 48
50.0
100
AcDbPoint
 10
6423.238635219611
 20
4717.931598713263
 30
0.0
  0
POINT
  5
1828B
330
176B1
100
AcDbEntity
  8
DEFPOINTS
 62
     0
 48
50.0
100
AcDbPoint
 10
4913.238635219612
 20
4772.931598713266
 30
0.0
  0
POINT
  5
1828C
330
176B1
100
AcDbEntity
  8
DEFPOINTS
 62
     0
 48
50.0
100
AcDbPoint
 10
4913.238635219612
 20
5379.76337348453
 30
0.0
  0
ENDBLK
  5
176BC
330
176B1
100
AcDbEntity
  8
0
 48
50.0
100
AcDbBlockEnd
  0
BLOCK
  5
176C9
330
176BD
100
AcDbEntity
  8
0
 48
50.0
100
AcDbBlockBegin
  2
*D18
 70
     1
 10
0.0
 20
0.0
 30
0.0
  3
*D18
  1

  0
LINE
  5
18279
330
176BD
100
AcDbEntity
  8
寸法
 62
     0
 48
50.0
370
    -2
100
AcDbLine
 10
4973.238635219612
 20
4788.933216836237
 30
0.0
 11
4973.238635219612
 21
5231.589052292566
 31
0.0
  0
LINE
  5
1827A
330
176BD
100
AcDbEntity
  8
寸法
 62
     0
 48
50.0
370
    -2
100
AcDbLine
 10
4913.238635219612
 20
4792.931598713265
 30
0.0
 11
4913.238635219612
 21
5231.589052292566
 31
0.0
  0
LINE
  5
1827B
330
176BD
100
AcDbEntity
  8
寸法
 62
     0
 48
50.0
370
    -2
100
AcDbLine
 10
4973.238635219612
 20
5171.589052292565
 30
0.0
 11
5073.238635219611
 21
5171.589052292565
 31
0.0
  0
LINE
  5
1827C
330
176BD
100
AcDbEntity
  8
寸法
 62
     0
 48
50.0
370
    -2
100
AcDbLine
 10
4913.238635219612
 20
5171.589052292565
 30
0.0
 11
4493.963044668427
 21
5171.589052292565
 31
0.0
  0
LINE
  5
1827D
330
176BD
100
AcDbEntity
  8
寸法
 62
     0
 48
50.0
370
    -2
100
AcDbLine
 10
4973.238635219612
 20
5171.589052292565
 30
0.0
 11
4913.238635219612
 21
5171.589052292565
 31
0.0
  0
INSERT
  5
1827E
330
176BD
100
AcDbEntity
  8
寸法
 62
     0
 48
50.0
370
    -2
100
AcDbBlockReference
  2
_DOTSMALL
 10
4973.238635219612
 20
5171.589052292565
 30
0.0
 41
100.0
 42
100.0
 43
100.0
 50
180.0
  0
INSERT
  5
1827F
330
176BD
100
AcDbEntity
  8
寸法
 62
     0
 48
50.0
370
    -2
100
AcDbBlockReference
  2
_DOTSMALL
 10
4913.238635219612
 20
5171.589052292565
 30
0.0
 41
100.0
 42
100.0
 43
100.0
  0
MTEXT
  5
18280
330
176BD
100
AcDbEntity
  8
寸法
 62
     7
 48
50.0
100
AcDbMText
 10
4603.600839944017
 20
5271.589052292565
 30
0.0
 40
120.0
 41
0.0
 71
     5
 72
     1
  1
\A1;60
  7
STYLE1
 73
     1
 44
1.0
1001
ACAD
1000
MTEXTBEGIN
1070
    73
1070
     1
1070
    44
1040
1.0
1070
    74
1070
     0
1000
MTEXTEND
  0
POINT
  5
18281
330
176BD
100
AcDbEntity
  8
DEFPOINTS
 62
     0
 48
50.0
100
AcDbPoint
 10
4973.238635219612
 20
4768.933216836238
 30
0.0
  0
POINT
  5
18282
330
176BD
100
AcDbEntity
  8
DEFPOINTS
 62
     0
 48
50.0
100
AcDbPoint
 10
4913.238635219612
 20
4772.931598713266
 30
0.0
  0
POINT
  5
18283
330
176BD
100
AcDbEntity
  8
DEFPOINTS
 62
     0
 48
50.0
100
AcDbPoint
 10
4913.238635219612
 20
5171.589052292565
 30
0.0
  0
ENDBLK
  5
176CA
330
176BD
100
AcDbEntity
  8
0
 48
50.0
100
AcDbBlockEnd
  0
BLOCK
  5
176D5
330
176CB
100
AcDbEntity
  8
0
 48
50.0
100
AcDbBlockBegin
  2
*D19
 70
     1
 10
0.0
 20
0.0
 30
0.0
  3
*D19
  1

  0
LINE
  5
18270
330
176CB
100
AcDbEntity
  8
寸法
 62
     0
 48
50.0
370
    -2
100
AcDbLine
 10
6343.238635219612
 20
4739.742278324914
 30
0.0
 11
6343.238635219612
 21
5231.589052292566
 31
0.0
  0
LINE
  5
18271
330
176CB
100
AcDbEntity
  8
寸法
 62
     0
 48
50.0
370
    -2
100
AcDbLine
 10
4973.238635219612
 20
4788.933216836237
 30
0.0
 11
4973.238635219612
 21
5231.589052292566
 31
0.0
  0
LINE
  5
18272
330
176CB
100
AcDbEntity
  8
寸法
 62
     0
 48
50.0
370
    -2
100
AcDbLine
 10
6343.238635219612
 20
5171.589052292565
 30
0.0
 11
4973.238635219612
 21
5171.589052292565
 31
0.0
  0
INSERT
  5
18273
330
176CB
100
AcDbEntity
  8
寸法
 62
     0
 48
50.0
370
    -2
100
AcDbBlockReference
  2
_DOTSMALL
 10
6343.238635219612
 20
5171.589052292565
 30
0.0
 41
100.0
 42
100.0
 43
100.0
  0
INSERT
  5
18274
330
176CB
100
AcDbEntity
  8
寸法
 62
     0
 48
50.0
370
    -2
100
AcDbBlockReference
  2
_DOTSMALL
 10
4973.238635219612
 20
5171.589052292565
 30
0.0
 41
100.0
 42
100.0
 43
100.0
 50
180.0
  0
MTEXT
  5
18275
330
176CB
100
AcDbEntity
  8
寸法
 62
     7
 48
50.0
100
AcDbMText
 10
5623.057668110156
 20
5271.589052292565
 30
0.0
 40
120.0
 41
0.0
 71
     5
 72
     1
  1
\A1;柱外寸法1370
  7
STYLE1
 73
     1
 44
1.0
1001
ACAD
1000
MTEXTBEGIN
1070
    73
1070
     1
1070
    44
1040
1.0
1070
    74
1070
     0
1000
MTEXTEND
  0
POINT
  5
18276
330
176CB
100
AcDbEntity
  8
DEFPOINTS
 62
     0
 48
50.0
100
AcDbPoint
 10
6343.238635219612
 20
4719.742278324915
 30
0.0
  0
POINT
  5
18277
330
176CB
100
AcDbEntity
  8
DEFPOINTS
 62
     0
 48
50.0
100
AcDbPoint
 10
4973.238635219612
 20
4768.933216836238
 30
0.0
  0
POINT
  5
18278
330
176CB
100
AcDbEntity
  8
DEFPOINTS
 62
     0
 48
50.0
100
AcDbPoint
 10
4973.238635219612
 20
5171.589052292565
 30
0.0
  0
ENDBLK
  5
176D6
330
176CB
100
AcDbEntity
  8
0
 48
50.0
100
AcDbBlockEnd
  0
BLOCK
  5
176E1
330
176D7
100
AcDbEntity
  8
0
 48
50.0
100
AcDbBlockBegin
  2
*D20
 70
     1
 10
0.0
 20
0.0
 30
0.0
  3
*D20
  1

  0
LINE
  5
18267
330
176D7
100
AcDbEntity
  8
寸法
 62
     0
 48
50.0
370
    -2
100
AcDbLine
 10
6440.238635219616
 20
2697.931598713261
 30
0.0
 11
6956.859644800255
 21
2697.931598713261
 31
0.0
  0
LINE
  5
18268
330
176D7
100
AcDbEntity
  8
寸法
 62
     0
 48
50.0
370
    -2
100
AcDbLine
 10
6443.238635219612
 20
4717.931598713263
 30
0.0
 11
6956.859644800255
 21
4717.931598713263
 31
0.0
  0
LINE
  5
18269
330
176D7
100
AcDbEntity
  8
寸法
 62
     0
 48
50.0
370
    -2
100
AcDbLine
 10
6896.859644800255
 20
2697.931598713261
 30
0.0
 11
6896.859644800255
 21
4717.931598713263
 31
0.0
  0
INSERT
  5
1826A
330
176D7
100
AcDbEntity
  8
寸法
 62
     0
 48
50.0
370
    -2
100
AcDbBlockReference
  2
_DOTSMALL
 10
6896.859644800255
 20
2697.931598713261
 30
0.0
 41
100.0
 42
100.0
 43
100.0
 50
270.0
  0
INSERT
  5
1826B
330
176D7
100
AcDbEntity
  8
寸法
 62
     0
 48
50.0
370
    -2
100
AcDbBlockReference
  2
_DOTSMALL
 10
6896.859644800255
 20
4717.931598713263
 30
0.0
 41
100.0
 42
100.0
 43
100.0
 50
90.0
  0
MTEXT
  5
1826C
330
176D7
100
AcDbEntity
  8
寸法
 62
     7
 48
50.0
100
AcDbMText
 10
6796.847833776631
 20
3716.887133405384
 30
0.0
 40
120.0
 41
0.0
 71
     5
 72
     1
  1
\A1;2020
  7
STYLE1
 11
0.0000000000000001
 21
1.0
 31
0.0
 73
     1
 44
1.0
1001
ACAD
1000
MTEXTBEGIN
1070
    73
1070
     1
1070
    44
1040
1.0
1070
    74
1070
     0
1000
MTEXTEND
  0
POINT
  5
1826D
330
176D7
100
AcDbEntity
  8
DEFPOINTS
 62
     0
 48
50.0
100
AcDbPoint
 10
6420.238635219615
 20
2697.931598713261
 30
0.0
  0
POINT
  5
1826E
330
176D7
100
AcDbEntity
  8
DEFPOINTS
 62
     0
 48
50.0
100
AcDbPoint
 10
6423.238635219611
 20
4717.931598713263
 30
0.0
  0
POINT
  5
1826F
330
176D7
100
AcDbEntity
  8
DEFPOINTS
 62
     0
 48
50.0
100
AcDbPoint
 10
6896.859644800255
 20
4717.931598713263
 30
0.0
  0
ENDBLK
  5
176E2
330
176D7
100
AcDbEntity
  8
0
 48
50.0
100
AcDbBlockEnd
  0
BLOCK
  5
176ED
330
176E3
100
AcDbEntity
  8
0
 48
50.0
100
AcDbBlockBegin
  2
*D21
 70
     1
 10
0.0
 20
0.0
 30
0.0
  3
*D21
  1

  0
LINE
  5
1825E
330
176E3
100
AcDbEntity
  8
寸法
 62
     0
 48
50.0
370
    -2
100
AcDbLine
 10
4953.238635219612
 20
4537.93159871326
 30
0.0
 11
4289.585926061311
 21
4537.93159871326
 31
0.0
  0
LINE
  5
1825F
330
176E3
100
AcDbEntity
  8
寸法
 62
     0
 48
50.0
370
    -2
100
AcDbLine
 10
4953.238635219612
 20
2747.931598713261
 30
0.0
 11
4289.585926061311
 21
2747.931598713261
 31
0.0
  0
LINE
  5
18260
330
176E3
100
AcDbEntity
  8
寸法
 62
     0
 48
50.0
370
    -2
100
AcDbLine
 10
4349.585926061311
 20
4537.93159871326
 30
0.0
 11
4349.585926061311
 21
2747.931598713261
 31
0.0
  0
INSERT
  5
18261
330
176E3
100
AcDbEntity
  8
寸法
 62
     0
 48
50.0
370
    -2
100
AcDbBlockReference
  2
_DOTSMALL
 10
4349.585926061311
 20
4537.93159871326
 30
0.0
 41
100.0
 42
100.0
 43
100.0
 50
90.0
  0
INSERT
  5
18262
330
176E3
100
AcDbEntity
  8
寸法
 62
     0
 48
50.0
370
    -2
100
AcDbBlockReference
  2
_DOTSMALL
 10
4349.585926061311
 20
2747.931598713261
 30
0.0
 41
100.0
 42
100.0
 43
100.0
 50
270.0
  0
MTEXT
  5
18263
330
176E3
100
AcDbEntity
  8
寸法
 62
     7
 48
50.0
100
AcDbMText
 10
4249.58592606131
 20
3638.385897255218
 30
0.0
 40
120.0
 41
0.0
 71
     5
 72
     1
  1
\A1;1790
  7
STYLE1
 11
0.0000000000000001
 21
1.0
 31
0.0
 73
     1
 44
1.0
1001
ACAD
1000
MTEXTBEGIN
1070
    73
1070
     1
1070
    44
1040
1.0
1070
    74
1070
     0
1000
MTEXTEND
  0
POINT
  5
18264
330
176E3
100
AcDbEntity
  8
DEFPOINTS
 62
     0
 48
50.0
100
AcDbPoint
 10
4973.238635219612
 20
4537.93159871326
 30
0.0
  0
POINT
  5
18265
330
176E3
100
AcDbEntity
  8
DEFPOINTS
 62
     0
 48
50.0
100
AcDbPoint
 10
4973.238635219612
 20
2747.931598713261
 30
0.0
  0
POINT
  5
18266
330
176E3
100
AcDbEntity
  8
DEFPOINTS
 62
     0
 48
50.0
100
AcDbPoint
 10
4349.585926061311
 20
2747.931598713261
 30
0.0
  0
ENDBLK
  5
176EE
330
176E3
100
AcDbEntity
  8
0
 48
50.0
100
AcDbBlockEnd
  0
BLOCK
  5
176F9
330
176EF
100
AcDbEntity
  8
0
 48
50.0
100
AcDbBlockBegin
  2
*D22
 70
     1
 10
0.0
 20
0.0
 30
0.0
  3
*D22
  1

  0
LINE
  5
18255
330
176EF
100
AcDbEntity
  8
寸法
 62
     0
 48
50.0
370
    -2
100
AcDbLine
 10
4953.238635219612
 20
2697.931598713261
 30
0.0
 11
4004.599253290249
 21
2697.931598713261
 31
0.0
  0
LINE
  5
18256
330
176EF
100
AcDbEntity
  8
寸法
 62
     0
 48
50.0
370
    -2
100
AcDbLine
 10
4893.238635219612
 20
4772.931598713265
 30
0.0
 11
4004.59925329025
 21
4772.931598713265
 31
0.0
  0
LINE
  5
18257
330
176EF
100
AcDbEntity
  8
寸法
 62
     0
 48
50.0
370
    -2
100
AcDbLine
 10
4064.599253290249
 20
2697.931598713261
 30
0.0
 11
4064.59925329025
 21
4772.931598713265
 31
0.0
  0
INSERT
  5
18258
330
176EF
100
AcDbEntity
  8
寸法
 62
     0
 48
50.0
370
    -2
100
AcDbBlockReference
  2
_DOTSMALL
 10
4064.599253290249
 20
2697.931598713261
 30
0.0
 41
100.0
 42
100.0
 43
100.0
 50
270.0
  0
INSERT
  5
18259
330
176EF
100
AcDbEntity
  8
寸法
 62
     0
 48
50.0
370
    -2
100
AcDbBlockReference
  2
_DOTSMALL
 10
4064.59925329025
 20
4772.931598713265
 30
0.0
 41
100.0
 42
100.0
 43
100.0
 50
90.0
  0
MTEXT
  5
1825A
330
176EF
100
AcDbEntity
  8
寸法
 62
     7
 48
50.0
100
AcDbMText
 10
3964.587442266628
 20
3692.137476206371
 30
0.0
 40
120.0
 41
0.0
 71
     5
 72
     1
  1
\A1;2075
  7
STYLE1
 11
0.0000000000000001
 21
1.0
 31
0.0
 73
     1
 44
1.0
1001
ACAD
1000
MTEXTBEGIN
1070
    73
1070
     1
1070
    44
1040
1.0
1070
    74
1070
     0
1000
MTEXTEND
  0
POINT
  5
1825B
330
176EF
100
AcDbEntity
  8
DEFPOINTS
 62
     0
 48
50.0
100
AcDbPoint
 10
4973.238635219612
 20
2697.931598713261
 30
0.0
  0
POINT
  5
1825C
330
176EF
100
AcDbEntity
  8
DEFPOINTS
 62
     0
 48
50.0
100
AcDbPoint
 10
4913.238635219612
 20
4772.931598713265
 30
0.0
  0
POINT
  5
1825D
330
176EF
100
AcDbEntity
  8
DEFPOINTS
 62
     0
 48
50.0
100
AcDbPoint
 10
4064.59925329025
 20
4772.931598713265
 30
0.0
  0
ENDBLK
  5
176FA
330
176EF
100
AcDbEntity
  8
0
 48
50.0
100
AcDbBlockEnd
  0
BLOCK
  5
17706
330
176FB
100
AcDbEntity
  8
0
 48
50.0
100
AcDbBlockBegin
  2
*D23
 70
     1
 10
0.0
 20
0.0
 30
0.0
  3
*D23
  1

  0
LINE
  5
1824B
330
176FB
100
AcDbEntity
  8
寸法
 62
     0
 48
50.0
370
    -2
100
AcDbLine
 10
4898.238635219612
 20
2697.931598713261
 30
0.0
 11
4004.599253290249
 21
2697.931598713261
 31
0.0
  0
LINE
  5
1824C
330
176FB
100
AcDbEntity
  8
寸法
 62
     0
 48
50.0
370
    -2
100
AcDbLine
 10
4329.58592606131
 20
2597.931598713261
 30
0.0
 11
4004.599253290249
 21
2597.931598713261
 31
0.0
  0
LINE
  5
1824D
330
176FB
100
AcDbEntity
  8
寸法
 62
     0
 48
50.0
370
    -2
100
AcDbLine
 10
4064.599253290249
 20
2697.931598713261
 30
0.0
 11
4064.599253290249
 21
2597.931598713261
 31
0.0
  0
LINE
  5
1824E
330
176FB
100
AcDbEntity
  8
寸法
 62
     0
 48
50.0
370
    -2
100
AcDbLine
 10
4064.599253290249
 20
2597.931598713261
 30
0.0
 11
4064.599253290249
 21
2225.837110524279
 31
0.0
  0
INSERT
  5
1824F
330
176FB
100
AcDbEntity
  8
寸法
 62
     0
 48
50.0
370
    -2
100
AcDbBlockReference
  2
_DOTSMALL
 10
4064.599253290249
 20
2697.931598713261
 30
0.0
 41
100.0
 42
100.0
 43
100.0
 50
90.0
  0
INSERT
  5
18250
330
176FB
100
AcDbEntity
  8
寸法
 62
     0
 48
50.0
370
    -2
100
AcDbBlockReference
  2
_DOTSMALL
 10
4064.599253290249
 20
2597.931598713261
 30
0.0
 41
100.0
 42
100.0
 43
100.0
 50
270.0
  0
MTEXT
  5
18251
330
176FB
100
AcDbEntity
  8
寸法
 62
     7
 48
50.0
100
AcDbMText
 10
3964.599253290249
 20
2361.884354618768
 30
0.0
 40
120.0
 41
0.0
 71
     5
 72
     1
  1
\A1;100
  7
STYLE1
 11
0.0000000000000001
 21
1.0
 31
0.0
 73
     1
 44
1.0
1001
ACAD
1000
MTEXTBEGIN
1070
    73
1070
     1
1070
    44
1040
1.0
1070
    74
1070
     0
1000
MTEXTEND
  0
POINT
  5
18252
330
176FB
100
AcDbEntity
  8
DEFPOINTS
 62
     0
 48
50.0
100
AcDbPoint
 10
4918.238635219612
 20
2697.931598713261
 30
0.0
  0
POINT
  5
18253
330
176FB
100
AcDbEntity
  8
DEFPOINTS
 62
     0
 48
50.0
100
AcDbPoint
 10
4349.585926061311
 20
2597.931598713261
 30
0.0
  0
POINT
  5
18254
330
176FB
100
AcDbEntity
  8
DEFPOINTS
 62
     0
 48
50.0
100
AcDbPoint
 10
4064.599253290249
 20
2597.931598713261
 30
0.0
  0
ENDBLK
  5
17707
330
176FB
100
AcDbEntity
  8
0
 48
50.0
100
AcDbBlockEnd
  0
BLOCK
  5
17714
330
17708
100
AcDbEntity
  8
0
 48
50.0
100
AcDbBlockBegin
  2
*D24
 70
     1
 10
0.0
 20
0.0
 30
0.0
  3
*D24
  1

  0
LINE
  5
18240
330
17708
100
AcDbEntity
  8
寸法
 62
     0
 48
50.0
370
    -2
100
AcDbLine
 10
4953.238635219612
 20
2747.931598713261
 30
0.0
 11
4289.585926061311
 21
2747.931598713261
 31
0.0
  0
LINE
  5
18241
330
17708
100
AcDbEntity
  8
寸法
 62
     0
 48
50.0
370
    -2
100
AcDbLine
 10
4898.238635219612
 20
2697.931598713261
 30
0.0
 11
4289.585926061311
 21
2697.931598713261
 31
0.0
  0
LINE
  5
18242
330
17708
100
AcDbEntity
  8
寸法
 62
     0
 48
50.0
370
    -2
100
AcDbLine
 10
4349.585926061311
 20
2747.931598713261
 30
0.0
 11
4349.585926061311
 21
2847.931598713261
 31
0.0
  0
LINE
  5
18243
330
17708
100
AcDbEntity
  8
寸法
 62
     0
 48
50.0
370
    -2
100
AcDbLine
 10
4349.585926061311
 20
2697.931598713261
 30
0.0
 11
4349.585926061311
 21
2285.83711052428
 31
0.0
  0
LINE
  5
18244
330
17708
100
AcDbEntity
  8
寸法
 62
     0
 48
50.0
370
    -2
100
AcDbLine
 10
4349.585926061311
 20
2747.931598713261
 30
0.0
 11
4349.585926061311
 21
2697.931598713261
 31
0.0
  0
INSERT
  5
18245
330
17708
100
AcDbEntity
  8
寸法
 62
     0
 48
50.0
370
    -2
100
AcDbBlockReference
  2
_DOTSMALL
 10
4349.585926061311
 20
2747.931598713261
 30
0.0
 41
100.0
 42
100.0
 43
100.0
 50
270.0
  0
INSERT
  5
18246
330
17708
100
AcDbEntity
  8
寸法
 62
     0
 48
50.0
370
    -2
100
AcDbBlockReference
  2
_DOTSMALL
 10
4349.585926061311
 20
2697.931598713261
 30
0.0
 41
100.0
 42
100.0
 43
100.0
 50
90.0
  0
MTEXT
  5
18247
330
17708
100
AcDbEntity
  8
寸法
 62
     7
 48
50.0
100
AcDbMText
 10
4249.58592606131
 20
2391.884354618768
 30
0.0
 40
120.0
 41
0.0
 71
     5
 72
     1
  1
\A1;50
  7
STYLE1
 11
0.0000000000000001
 21
1.0
 31
0.0
 73
     1
 44
1.0
1001
ACAD
1000
MTEXTBEGIN
1070
    73
1070
     1
1070
    44
1040
1.0
1070
    74
1070
     0
1000
MTEXTEND
  0
POINT
  5
18248
330
17708
100
AcDbEntity
  8
DEFPOINTS
 62
     0
 48
50.0
100
AcDbPoint
 10
4973.238635219612
 20
2747.931598713261
 30
0.0
  0
POINT
  5
18249
330
17708
100
AcDbEntity
  8
DEFPOINTS
 62
     0
 48
50.0
100
AcDbPoint
 10
4918.238635219612
 20
2697.931598713261
 30
0.0
  0
POINT
  5
1824A
330
17708
100
AcDbEntity
  8
DEFPOINTS
 62
     0
 48
50.0
100
AcDbPoint
 10
4349.585926061311
 20
2697.931598713261
 30
0.0
  0
ENDBLK
  5
17715
330
17708
100
AcDbEntity
  8
0
 48
50.0
100
AcDbBlockEnd
  0
BLOCK
  5
17DD6
330
17DCC
100
AcDbEntity
  8
0
 48
50.0
100
AcDbBlockBegin
  2
*D25
 70
     1
 10
0.0
 20
0.0
 30
0.0
  3
*D25
  1

  0
LINE
  5
17E96
330
17DCC
100
AcDbEntity
  8
寸法
 62
     0
 48
50.0
370
    -2
100
AcDbLine
 10
8151.761265317412
 20
4792.931598713266
 30
0.0
 11
8151.761265317412
 21
5448.55086767118
 31
0.0
  0
LINE
  5
17E97
330
17DCC
100
AcDbEntity
  8
寸法
 62
     0
 48
50.0
370
    -2
100
AcDbLine
 10
11301.76126531741
 20
4792.931598713264
 30
0.0
 11
11301.76126531741
 21
5448.55086767118
 31
0.0
  0
LINE
  5
17E98
330
17DCC
100
AcDbEntity
  8
寸法
 62
     0
 48
50.0
370
    -2
100
AcDbLine
 10
8151.761265317412
 20
5388.55086767118
 30
0.0
 11
11301.76126531741
 21
5388.55086767118
 31
0.0
  0
INSERT
  5
17E99
330
17DCC
100
AcDbEntity
  8
寸法
 62
     0
 48
50.0
370
    -2
100
AcDbBlockReference
  2
_DOTSMALL
 10
8151.761265317412
 20
5388.55086767118
 30
0.0
 41
100.0
 42
100.0
 43
100.0
 50
180.0
  0
INSERT
  5
17E9A
330
17DCC
100
AcDbEntity
  8
寸法
 62
     0
 48
50.0
370
    -2
100
AcDbBlockReference
  2
_DOTSMALL
 10
11301.76126531741
 20
5388.55086767118
 30
0.0
 41
100.0
 42
100.0
 43
100.0
  0
MTEXT
  5
17E9B
330
17DCC
100
AcDbEntity
  8
寸法
 62
     7
 48
50.0
100
AcDbMText
 10
9726.761265317412
 20
5488.55086767118
 30
0.0
 40
120.0
 41
0.0
 71
     5
 72
     1
  1
\A1;3150
  7
STYLE1
 73
     1
 44
1.0
1001
ACAD
1000
MTEXTBEGIN
1070
    73
1070
     1
1070
    44
1040
1.0
1070
    74
1070
     0
1000
MTEXTEND
  0
POINT
  5
17E9C
330
17DCC
100
AcDbEntity
  8
DEFPOINTS
 62
     0
 48
50.0
100
AcDbPoint
 10
8151.761265317412
 20
4772.931598713267
 30
0.0
  0
POINT
  5
17E9D
330
17DCC
100
AcDbEntity
  8
DEFPOINTS
 62
     0
 48
50.0
100
AcDbPoint
 10
11301.76126531741
 20
4772.931598713264
 30
0.0
  0
POINT
  5
17E9E
330
17DCC
100
AcDbEntity
  8
DEFPOINTS
 62
     0
 48
50.0
100
AcDbPoint
 10
11301.76126531741
 20
5388.55086767118
 30
0.0
  0
ENDBLK
  5
17DD7
330
17DCC
100
AcDbEntity
  8
0
 48
50.0
100
AcDbBlockEnd
  0
BLOCK
  5
17DE4
330
17DD8
100
AcDbEntity
  8
0
 48
50.0
100
AcDbBlockBegin
  2
*D26
 70
     1
 10
0.0
 20
0.0
 30
0.0
  3
*D26
  1

  0
LINE
  5
17E06
330
17DD8
100
AcDbEntity
  8
寸法
 62
     0
 48
50.0
370
    -2
100
AcDbLine
 10
8201.761265317413
 20
4792.931598713267
 30
0.0
 11
8201.761265317413
 21
5232.024768052735
 31
0.0
  0
LINE
  5
17E07
330
17DD8
100
AcDbEntity
  8
寸法
 62
     0
 48
50.0
370
    -2
100
AcDbLine
 10
8151.761265317412
 20
4792.931598713266
 30
0.0
 11
8151.761265317412
 21
5232.024768052735
 31
0.0
  0
LINE
  5
17E08
330
17DD8
100
AcDbEntity
  8
寸法
 62
     0
 48
50.0
370
    -2
100
AcDbLine
 10
8201.761265317413
 20
5172.024768052734
 30
0.0
 11
8301.761265317413
 21
5172.024768052734
 31
0.0
  0
LINE
  5
17E09
330
17DD8
100
AcDbEntity
  8
寸法
 62
     0
 48
50.0
370
    -2
100
AcDbLine
 10
8151.761265317412
 20
5172.024768052734
 30
0.0
 11
7732.228739848678
 21
5172.024768052734
 31
0.0
  0
LINE
  5
17E0A
330
17DD8
100
AcDbEntity
  8
寸法
 62
     0
 48
50.0
370
    -2
100
AcDbLine
 10
8201.761265317413
 20
5172.024768052734
 30
0.0
 11
8151.761265317412
 21
5172.024768052734
 31
0.0
  0
INSERT
  5
17E0B
330
17DD8
100
AcDbEntity
  8
寸法
 62
     0
 48
50.0
370
    -2
100
AcDbBlockReference
  2
_DOTSMALL
 10
8201.761265317413
 20
5172.024768052734
 30
0.0
 41
100.0
 42
100.0
 43
100.0
 50
180.0
  0
INSERT
  5
17E0C
330
17DD8
100
AcDbEntity
  8
寸法
 62
     0
 48
50.0
370
    -2
100
AcDbBlockReference
  2
_DOTSMALL
 10
8151.761265317412
 20
5172.024768052734
 30
0.0
 41
100.0
 42
100.0
 43
100.0
  0
MTEXT
  5
17E0D
330
17DD8
100
AcDbEntity
  8
寸法
 62
     7
 48
50.0
100
AcDbMText
 10
7838.275983943166
 20
5272.024768052734
 30
0.0
 40
120.0
 41
0.0
 71
     5
 72
     1
  1
\A1;50
  7
STYLE1
 73
     1
 44
1.0
1001
ACAD
1000
MTEXTBEGIN
1070
    73
1070
     1
1070
    44
1040
1.0
1070
    74
1070
     0
1000
MTEXTEND
  0
POINT
  5
17E0E
330
17DD8
100
AcDbEntity
  8
DEFPOINTS
 62
     0
 48
50.0
100
AcDbPoint
 10
8201.761265317413
 20
4772.931598713268
 30
0.0
  0
POINT
  5
17E0F
330
17DD8
100
AcDbEntity
  8
DEFPOINTS
 62
     0
 48
50.0
100
AcDbPoint
 10
8151.761265317412
 20
4772.931598713267
 30
0.0
  0
POINT
  5
17E10
330
17DD8
100
AcDbEntity
  8
DEFPOINTS
 62
     0
 48
50.0
100
AcDbPoint
 10
8151.761265317412
 20
5172.024768052734
 30
0.0
  0
ENDBLK
  5
17DE5
330
17DD8
100
AcDbEntity
  8
0
 48
50.0
100
AcDbBlockEnd
  0
BLOCK
  5
17DF0
330
17DE6
100
AcDbEntity
  8
0
 48
50.0
100
AcDbBlockBegin
  2
*D27
 70
     1
 10
0.0
 20
0.0
 30
0.0
  3
*D27
  1

  0
LINE
  5
17E9F
330
17DE6
100
AcDbEntity
  8
寸法
 62
     0
 48
50.0
370
    -2
100
AcDbLine
 10
11251.76126531741
 20
4792.931598713266
 30
0.0
 11
11251.76126531741
 21
5232.024768052734
 31
0.0
  0
LINE
  5
17EA0
330
17DE6
100
AcDbEntity
  8
寸法
 62
     0
 48
50.0
370
    -2
100
AcDbLine
 10
8201.761265317413
 20
4792.931598713267
 30
0.0
 11
8201.761265317413
 21
5232.024768052734
 31
0.0
  0
LINE
  5
17EA1
330
17DE6
100
AcDbEntity
  8
寸法
 62
     0
 48
50.0
370
    -2
100
AcDbLine
 10
11251.76126531741
 20
5172.024768052733
 30
0.0
 11
8201.761265317413
 21
5172.024768052733
 31
0.0
  0
INSERT
  5
17EA2
330
17DE6
100
AcDbEntity
  8
寸法
 62
     0
 48
50.0
370
    -2
100
AcDbBlockReference
  2
_DOTSMALL
 10
11251.76126531741
 20
5172.024768052733
 30
0.0
 41
100.0
 42
100.0
 43
100.0
  0
INSERT
  5
17EA3
330
17DE6
100
AcDbEntity
  8
寸法
 62
     0
 48
50.0
370
    -2
100
AcDbBlockReference
  2
_DOTSMALL
 10
8201.761265317413
 20
5172.024768052733
 30
0.0
 41
100.0
 42
100.0
 43
100.0
 50
180.0
  0
MTEXT
  5
17EA4
330
17DE6
100
AcDbEntity
  8
寸法
 62
     7
 48
50.0
100
AcDbMText
 10
9726.761265317412
 20
5272.024768052734
 30
0.0
 40
120.0
 41
0.0
 71
     5
 72
     1
  1
\A1;柱外寸法3050
  7
STYLE1
 73
     1
 44
1.0
1001
ACAD
1000
MTEXTBEGIN
1070
    73
1070
     1
1070
    44
1040
1.0
1070
    74
1070
     0
1000
MTEXTEND
  0
POINT
  5
17EA5
330
17DE6
100
AcDbEntity
  8
DEFPOINTS
 62
     0
 48
50.0
100
AcDbPoint
 10
11251.76126531741
 20
4772.931598713267
 30
0.0
  0
POINT
  5
17EA6
330
17DE6
100
AcDbEntity
  8
DEFPOINTS
 62
     0
 48
50.0
100
AcDbPoint
 10
8201.761265317413
 20
4772.931598713268
 30
0.0
  0
POINT
  5
17EA7
330
17DE6
100
AcDbEntity
  8
DEFPOINTS
 62
     0
 48
50.0
100
AcDbPoint
 10
8201.761265317413
 20
5172.024768052733
 30
0.0
  0
ENDBLK
  5
17DF1
330
17DE6
100
AcDbEntity
  8
0
 48
50.0
100
AcDbBlockEnd
  0
BLOCK
  5
17E42
330
17E36
100
AcDbEntity
  8
0
 48
50.0
100
AcDbBlockBegin
  2
*D28
 70
     1
 10
0.0
 20
0.0
 30
0.0
  3
*D28
  1

  0
LINE
  5
17E44
330
17E36
100
AcDbEntity
  8
寸法
 62
     0
 48
50.0
370
    -2
100
AcDbLine
 10
11301.76126531741
 20
4792.931598713264
 30
0.0
 11
11301.76126531741
 21
5232.024768052735
 31
0.0
  0
LINE
  5
17E45
330
17E36
100
AcDbEntity
  8
寸法
 62
     0
 48
50.0
370
    -2
100
AcDbLine
 10
11251.76126531741
 20
4792.931598713266
 30
0.0
 11
11251.76126531741
 21
5232.024768052735
 31
0.0
  0
LINE
  5
17E46
330
17E36
100
AcDbEntity
  8
寸法
 62
     0
 48
50.0
370
    -2
100
AcDbLine
 10
11251.76126531741
 20
5172.024768052734
 30
0.0
 11
11151.76126531741
 21
5172.024768052734
 31
0.0
  0
LINE
  5
17E47
330
17E36
100
AcDbEntity
  8
寸法
 62
     0
 48
50.0
370
    -2
100
AcDbLine
 10
11301.76126531741
 20
5172.024768052734
 30
0.0
 11
11721.29379078613
 21
5172.024768052734
 31
0.0
  0
LINE
  5
17E48
330
17E36
100
AcDbEntity
  8
寸法
 62
     0
 48
50.0
370
    -2
100
AcDbLine
 10
11251.76126531741
 20
5172.024768052734
 30
0.0
 11
11301.76126531741
 21
5172.024768052734
 31
0.0
  0
INSERT
  5
17E49
330
17E36
100
AcDbEntity
  8
寸法
 62
     0
 48
50.0
370
    -2
100
AcDbBlockReference
  2
_DOTSMALL
 10
11251.76126531741
 20
5172.024768052734
 30
0.0
 41
100.0
 42
100.0
 43
100.0
  0
INSERT
  5
17E4A
330
17E36
100
AcDbEntity
  8
寸法
 62
     0
 48
50.0
370
    -2
100
AcDbBlockReference
  2
_DOTSMALL
 10
11301.76126531741
 20
5172.024768052734
 30
0.0
 41
100.0
 42
100.0
 43
100.0
 50
180.0
  0
MTEXT
  5
17E4B
330
17E36
100
AcDbEntity
  8
寸法
 62
     7
 48
50.0
100
AcDbMText
 10
11615.24654669164
 20
5272.024768052734
 30
0.0
 40
120.0
 41
0.0
 71
     5
 72
     1
  1
\A1;50
  7
STYLE1
 73
     1
 44
1.0
1001
ACAD
1000
MTEXTBEGIN
1070
    73
1070
     1
1070
    44
1040
1.0
1070
    74
1070
     0
1000
MTEXTEND
  0
POINT
  5
17E4C
330
17E36
100
AcDbEntity
  8
DEFPOINTS
 62
     0
 48
50.0
100
AcDbPoint
 10
11301.76126531741
 20
4772.931598713264
 30
0.0
  0
POINT
  5
17E4D
330
17E36
100
AcDbEntity
  8
DEFPOINTS
 62
     0
 48
50.0
100
AcDbPoint
 10
11251.76126531741
 20
4772.931598713267
 30
0.0
  0
POINT
  5
17E4E
330
17E36
100
AcDbEntity
  8
DEFPOINTS
 62
     0
 48
50.0
100
AcDbPoint
 10
11251.76126531741
 20
5172.024768052734
 30
0.0
  0
ENDBLK
  5
17E43
330
17E36
100
AcDbEntity
  8
0
 48
50.0
100
AcDbBlockEnd
  0
BLOCK
  5
17F4B
330
17F41
100
AcDbEntity
  8
0
 48
50.0
100
AcDbBlockBegin
  2
*D29
 70
     1
 10
0.0
 20
0.0
 30
0.0
  3
*D29
  1

  0
LINE
  5
1822E
330
17F41
100
AcDbEntity
  8
寸法
 62
     0
 48
50.0
370
    -2
100
AcDbLine
 10
5125.738635219612
 20
2327.931598713261
 30
0.0
 11
5125.738635219612
 21
2051.884269412884
 31
0.0
  0
LINE
  5
1822F
330
17F41
100
AcDbEntity
  8
寸法
 62
     0
 48
50.0
370
    -2
100
AcDbLine
 10
4875.738635219612
 20
2327.931598713259
 30
0.0
 11
4875.738635219612
 21
2051.884269412884
 31
0.0
  0
LINE
  5
18230
330
17F41
100
AcDbEntity
  8
寸法
 62
     0
 48
50.0
370
    -2
100
AcDbLine
 10
5125.738635219612
 20
2111.884269412884
 30
0.0
 11
4875.738635219612
 21
2111.884269412884
 31
0.0
  0
INSERT
  5
18231
330
17F41
100
AcDbEntity
  8
寸法
 62
     0
 48
50.0
370
    -2
100
AcDbBlockReference
  2
_DOTSMALL
 10
5125.738635219612
 20
2111.884269412884
 30
0.0
 41
100.0
 42
100.0
 43
100.0
  0
INSERT
  5
18232
330
17F41
100
AcDbEntity
  8
寸法
 62
     0
 48
50.0
370
    -2
100
AcDbBlockReference
  2
_DOTSMALL
 10
4875.738635219612
 20
2111.884269412884
 30
0.0
 41
100.0
 42
100.0
 43
100.0
 50
180.0
  0
MTEXT
  5
18233
330
17F41
100
AcDbEntity
  8
寸法
 62
     7
 48
50.0
100
AcDbMText
 10
5000.738635219612
 20
2211.896080436507
 30
0.0
 40
120.0
 41
0.0
 71
     5
 72
     1
  1
\A1;250
  7
STYLE1
 73
     1
 44
1.0
1001
ACAD
1000
MTEXTBEGIN
1070
    73
1070
     1
1070
    44
1040
1.0
1070
    74
1070
     0
1000
MTEXTEND
  0
POINT
  5
18234
330
17F41
100
AcDbEntity
  8
DEFPOINTS
 62
     0
 48
50.0
100
AcDbPoint
 10
5125.738635219612
 20
2347.931598713262
 30
0.0
  0
POINT
  5
18235
330
17F41
100
AcDbEntity
  8
DEFPOINTS
 62
     0
 48
50.0
100
AcDbPoint
 10
4875.738635219612
 20
2347.931598713259
 30
0.0
  0
POINT
  5
18236
330
17F41
100
AcDbEntity
  8
DEFPOINTS
 62
     0
 48
50.0
100
AcDbPoint
 10
4875.738635219612
 20
2111.884269412884
 30
0.0
  0
ENDBLK
  5
17F4C
330
17F41
100
AcDbEntity
  8
0
 48
50.0
100
AcDbBlockEnd
  0
BLOCK
  5
17F57
330
17F4D
100
AcDbEntity
  8
0
 48
50.0
100
AcDbBlockBegin
  2
*D30
 70
     1
 10
0.0
 20
0.0
 30
0.0
  3
*D30
  1

  0
LINE
  5
18237
330
17F4D
100
AcDbEntity
  8
寸法
 62
     0
 48
50.0
370
    -2
100
AcDbLine
 10
4855.738635219612
 20
2347.931598713262
 30
0.0
 11
4647.356205183427
 21
2347.931598713262
 31
0.0
  0
LINE
  5
18238
330
17F4D
100
AcDbEntity
  8
寸法
 62
     0
 48
50.0
370
    -2
100
AcDbLine
 10
4855.738635219612
 20
2597.931598713262
 30
0.0
 11
4647.356205183427
 21
2597.931598713262
 31
0.0
  0
LINE
  5
18239
330
17F4D
100
AcDbEntity
  8
寸法
 62
     0
 48
50.0
370
    -2
100
AcDbLine
 10
4707.356205183428
 20
2347.931598713262
 30
0.0
 11
4707.356205183428
 21
2597.931598713262
 31
0.0
  0
INSERT
  5
1823A
330
17F4D
100
AcDbEntity
  8
寸法
 62
     0
 48
50.0
370
    -2
100
AcDbBlockReference
  2
_DOTSMALL
 10
4707.356205183428
 20
2347.931598713262
 30
0.0
 41
100.0
 42
100.0
 43
100.0
 50
270.0
  0
INSERT
  5
1823B
330
17F4D
100
AcDbEntity
  8
寸法
 62
     0
 48
50.0
370
    -2
100
AcDbBlockReference
  2
_DOTSMALL
 10
4707.356205183428
 20
2597.931598713262
 30
0.0
 41
100.0
 42
100.0
 43
100.0
 50
90.0
  0
MTEXT
  5
1823C
330
17F4D
100
AcDbEntity
  8
寸法
 62
     7
 48
50.0
100
AcDbMText
 10
4607.344394159805
 20
2472.931598713262
 30
0.0
 40
120.0
 41
0.0
 71
     5
 72
     1
  1
\A1;250
  7
STYLE1
 11
0.0000000000000001
 21
1.0
 31
0.0
 73
     1
 44
1.0
1001
ACAD
1000
MTEXTBEGIN
1070
    73
1070
     1
1070
    44
1040
1.0
1070
    74
1070
     0
1000
MTEXTEND
  0
POINT
  5
1823D
330
17F4D
100
AcDbEntity
  8
DEFPOINTS
 62
     0
 48
50.0
100
AcDbPoint
 10
4875.738635219612
 20
2347.931598713262
 30
0.0
  0
POINT
  5
1823E
330
17F4D
100
AcDbEntity
  8
DEFPOINTS
 62
     0
 48
50.0
100
AcDbPoint
 10
4875.738635219612
 20
2597.931598713262
 30
0.0
  0
POINT
  5
1823F
330
17F4D
100
AcDbEntity
  8
DEFPOINTS
 62
     0
 48
50.0
100
AcDbPoint
 10
4707.356205183428
 20
2597.931598713262
 30
0.0
  0
ENDBLK
  5
17F58
330
17F4D
100
AcDbEntity
  8
0
 48
50.0
100
AcDbBlockEnd
  0
BLOCK
  5
1849A
330
18490
100
AcDbEntity
  8
0
 48
50.0
100
AcDbBlockBegin
  2
*D31
 70
     1
 10
0.0
 20
0.0
 30
0.0
  3
*D31
  1

  0
LINE
  5
18969
330
18490
100
AcDbEntity
  8
寸法
 62
     0
 48
50.0
370
    -2
100
AcDbLine
 10
8688.761265317388
 20
7742.003900523616
 30
0.0
 11
8688.761265317388
 21
7025.251074327425
 31
0.0
  0
LINE
  5
1896A
330
18490
100
AcDbEntity
  8
寸法
 62
     0
 48
50.0
370
    -2
100
AcDbLine
 10
9954.76126531739
 20
7742.003900523616
 30
0.0
 11
9954.76126531739
 21
7025.251074327425
 31
0.0
  0
LINE
  5
1896B
330
18490
100
AcDbEntity
  8
寸法
 62
     0
 48
50.0
370
    -2
100
AcDbLine
 10
8708.76126531739
 20
7065.251074327425
 30
0.0
 11
9934.761265317391
 21
7065.251074327425
 31
0.0
  0
INSERT
  5
1896C
330
18490
100
AcDbEntity
  8
寸法
 62
     0
 48
50.0
370
    -2
100
AcDbBlockReference
  2
_DOT
 10
8688.761265317388
 20
7065.251074327425
 30
0.0
 41
20.0
 42
20.0
 43
20.0
 50
180.0
  0
INSERT
  5
1896D
330
18490
100
AcDbEntity
  8
寸法
 62
     0
 48
50.0
370
    -2
100
AcDbBlockReference
  2
_DOT
 10
9954.76126531739
 20
7065.251074327425
 30
0.0
 41
20.0
 42
20.0
 43
20.0
  0
MTEXT
  5
1896E
330
18490
100
AcDbEntity
  8
寸法
 62
     7
 48
50.0
100
AcDbMText
 10
9349.448920913307
 20
7257.262885351046
 30
0.0
 40
120.0
 41
0.0
 71
     5
 72
     1
  1
\A1;有効開口部間口\P1266
  7
STYLE1
 73
     1
 44
1.0
1001
ACAD
1000
MTEXTBEGIN
1070
    73
1070
     1
1070
    44
1040
1.0
1070
    74
1070
     0
1000
MTEXTEND
  0
POINT
  5
1896F
330
18490
100
AcDbEntity
  8
DEFPOINTS
 62
     0
 48
50.0
100
AcDbPoint
 10
8688.761265317388
 20
7762.003900523616
 30
0.0
  0
POINT
  5
18970
330
18490
100
AcDbEntity
  8
DEFPOINTS
 62
     0
 48
50.0
100
AcDbPoint
 10
9954.76126531739
 20
7762.003900523616
 30
0.0
  0
POINT
  5
18971
330
18490
100
AcDbEntity
  8
DEFPOINTS
 62
     0
 48
50.0
100
AcDbPoint
 10
9954.76126531739
 20
7065.251074327425
 30
0.0
  0
ENDBLK
  5
1849B
330
18490
100
AcDbEntity
  8
0
 48
50.0
100
AcDbBlockEnd
  0
BLOCK
  5
1890E
330
18902
100
AcDbEntity
  8
0
 48
50.0
100
AcDbBlockBegin
  2
*D32
 70
     1
 10
0.0
 20
0.0
 30
0.0
  3
*D32
  1

  0
LINE
  5
1895E
330
18902
100
AcDbEntity
  8
寸法
 62
     0
 48
50.0
370
    -2
100
AcDbLine
 10
8181.761265317415
 20
7839.003900523451
 30
0.0
 11
7867.150019690697
 21
7839.003900523451
 31
0.0
  0
LINE
  5
1895F
330
18902
100
AcDbEntity
  8
寸法
 62
     0
 48
50.0
370
    -2
100
AcDbLine
 10
8629.761265317389
 20
7764.003900523452
 30
0.0
 11
7867.150019690697
 21
7764.003900523452
 31
0.0
  0
LINE
  5
18960
330
18902
100
AcDbEntity
  8
寸法
 62
     0
 48
50.0
370
    -2
100
AcDbLine
 10
7907.150019690696
 20
7859.003900523451
 30
0.0
 11
7907.150019690696
 21
7879.003900523452
 31
0.0
  0
LINE
  5
18961
330
18902
100
AcDbEntity
  8
寸法
 62
     0
 48
50.0
370
    -2
100
AcDbLine
 10
7907.150019690696
 20
7744.003900523451
 30
0.0
 11
7907.150019690696
 21
7523.033337774973
 31
0.0
  0
LINE
  5
18962
330
18902
100
AcDbEntity
  8
寸法
 62
     0
 48
50.0
370
    -2
100
AcDbLine
 10
7907.150019690696
 20
7839.003900523451
 30
0.0
 11
7907.150019690696
 21
7764.003900523452
 31
0.0
  0
INSERT
  5
18963
330
18902
100
AcDbEntity
  8
寸法
 62
     0
 48
50.0
370
    -2
100
AcDbBlockReference
  2
_DOT
 10
7907.150019690696
 20
7839.003900523451
 30
0.0
 41
20.0
 42
20.0
 43
20.0
 50
270.0
  0
INSERT
  5
18964
330
18902
100
AcDbEntity
  8
寸法
 62
     0
 48
50.0
370
    -2
100
AcDbBlockReference
  2
_DOT
 10
7907.150019690696
 20
7764.003900523452
 30
0.0
 41
20.0
 42
20.0
 43
20.0
 50
90.0
  0
MTEXT
  5
18965
330
18902
100
AcDbEntity
  8
寸法
 62
     7
 48
50.0
100
AcDbMText
 10
7815.150019690697
 20
7623.518619149213
 30
0.0
 40
120.0
 41
0.0
 71
     5
 72
     1
  1
\A1;75
  7
STYLE1
 11
0.0000000000000001
 21
1.0
 31
0.0
 73
     1
 44
1.0
1001
ACAD
1000
MTEXTBEGIN
1070
    73
1070
     1
1070
    44
1040
1.0
1070
    74
1070
     0
1000
MTEXTEND
  0
POINT
  5
18966
330
18902
100
AcDbEntity
  8
DEFPOINTS
 62
     0
 48
50.0
100
AcDbPoint
 10
8201.761265317415
 20
7839.003900523451
 30
0.0
  0
POINT
  5
18967
330
18902
100
AcDbEntity
  8
DEFPOINTS
 62
     0
 48
50.0
100
AcDbPoint
 10
8649.761265317389
 20
7764.003900523452
 30
0.0
  0
POINT
  5
18968
330
18902
100
AcDbEntity
  8
DEFPOINTS
 62
     0
 48
50.0
100
AcDbPoint
 10
7907.150019690696
 20
7764.003900523452
 30
0.0
  0
ENDBLK
  5
1890F
330
18902
100
AcDbEntity
  8
0
 48
50.0
100
AcDbBlockEnd
  0
BLOCK
  5
18926
330
1891C
100
AcDbEntity
  8
0
 48
50.0
100
AcDbBlockBegin
  2
*D33
 70
     1
 10
0.0
 20
0.0
 30
0.0
  3
*D33
  1

  0
LINE
  5
18955
330
1891C
100
AcDbEntity
  8
寸法
 62
     0
 48
50.0
370
    -2
100
AcDbLine
 10
8649.761265317389
 20
7744.003900523451
 30
0.0
 11
8649.761265317389
 21
6741.660096284256
 31
0.0
  0
LINE
  5
18956
330
1891C
100
AcDbEntity
  8
寸法
 62
     0
 48
50.0
370
    -2
100
AcDbLine
 10
10803.76126531739
 20
7744.003900523451
 30
0.0
 11
10803.76126531739
 21
6741.660096284256
 31
0.0
  0
LINE
  5
18957
330
1891C
100
AcDbEntity
  8
寸法
 62
     0
 48
50.0
370
    -2
100
AcDbLine
 10
8649.761265317389
 20
6801.660096284257
 30
0.0
 11
10803.76126531739
 21
6801.660096284257
 31
0.0
  0
INSERT
  5
18958
330
1891C
100
AcDbEntity
  8
寸法
 62
     0
 48
50.0
370
    -2
100
AcDbBlockReference
  2
_DOTSMALL
 10
8649.761265317389
 20
6801.660096284257
 30
0.0
 41
100.0
 42
100.0
 43
100.0
 50
180.0
  0
INSERT
  5
18959
330
1891C
100
AcDbEntity
  8
寸法
 62
     0
 48
50.0
370
    -2
100
AcDbBlockReference
  2
_DOTSMALL
 10
10803.76126531739
 20
6801.660096284257
 30
0.0
 41
100.0
 42
100.0
 43
100.0
  0
MTEXT
  5
1895A
330
1891C
100
AcDbEntity
  8
寸法
 62
     7
 48
50.0
100
AcDbMText
 10
9704.898011513854
 20
6901.671907307878
 30
0.0
 40
120.0
 41
0.0
 71
     5
 72
     1
  1
\A1;2154
  7
STYLE1
 73
     1
 44
1.0
1001
ACAD
1000
MTEXTBEGIN
1070
    73
1070
     1
1070
    44
1040
1.0
1070
    74
1070
     0
1000
MTEXTEND
  0
POINT
  5
1895B
330
1891C
100
AcDbEntity
  8
DEFPOINTS
 62
     0
 48
50.0
100
AcDbPoint
 10
8649.761265317389
 20
7764.003900523452
 30
0.0
  0
POINT
  5
1895C
330
1891C
100
AcDbEntity
  8
DEFPOINTS
 62
     0
 48
50.0
100
AcDbPoint
 10
10803.76126531739
 20
7764.003900523452
 30
0.0
  0
POINT
  5
1895D
330
1891C
100
AcDbEntity
  8
DEFPOINTS
 62
     0
 48
50.0
100
AcDbPoint
 10
10803.76126531739
 20
6801.660096284257
 30
0.0
  0
ENDBLK
  5
18927
330
1891C
100
AcDbEntity
  8
0
 48
50.0
100
AcDbBlockEnd
  0
ENDSEC
  0
SECTION
  2
ENTITIES
  0
LINE
  5
10B57
330
747D
100
AcDbEntity
  8
補助
  6
PHANTOM
 62
   230
 48
50.0
100
AcDbLine
 10
139.9999999999995
 20
11409.6
 30
0.0
 11
16307.2
 21
11409.6
 31
0.0
  0
LINE
  5
10B59
330
747D
100
AcDbEntity
  8
仕様書枠
  6
Continuous
 48
50.0
100
AcDbLine
 10
13107.2
 20
1200.0
 30
0.0
 11
13107.2
 21
-0.0000000000000729
 31
0.0
  0
LINE
  5
10B5C
330
747D
100
AcDbEntity
  8
仕様書枠
 48
50.0
100
AcDbLine
 10
16307.2
 20
1200.0
 30
0.0
 11
16307.2
 21
-0.0000000000000909
 31
0.0
  0
LINE
  5
10B5D
330
747D
100
AcDbEntity
  8
仕様書枠
 48
50.0
100
AcDbLine
 10
140.0
 20
0.0
 30
0.0
 11
16307.2
 21
-0.0000000000000909
 31
0.0
  0
LINE
  5
10B5E
330
747D
100
AcDbEntity
  8
補助
  6
PHANTOM
 62
   230
 48
50.0
100
AcDbLine
 10
16307.2
 20
11409.6
 30
0.0
 11
16307.2
 21
1200.0
 31
0.0
  0
LINE
  5
10B6C
330
747D
100
AcDbEntity
  8
仕様書枠
 48
50.0
100
AcDbLine
 10
13107.2
 20
1200.0
 30
0.0
 11
16307.2
 21
1200.0
 31
0.0
  0
LINE
  5
10B6D
330
747D
100
AcDbEntity
  8
補助
  6
PHANTOM
 62
   230
 48
50.0
100
AcDbLine
 10
13107.2
 20
11409.6
 30
0.0
 11
13107.2
 21
4800.0
 31
0.0
  0
LINE
  5
10B6F
330
747D
100
AcDbEntity
  8
補助
  6
PHANTOM
 62
   230
 48
50.0
100
AcDbLine
 10
13107.2
 20
4800.0
 30
0.0
 11
16307.2
 21
4800.0
 31
0.0
  0
LINE
  5
10B72
330
747D
100
AcDbEntity
  8
文字
 62
     7
 48
50.0
100
AcDbLine
 10
13187.2
 20
400.0
 30
0.0
 11
16227.2
 21
400.0
 31
0.0
  0
TEXT
  5
10B73
330
747D
100
AcDbEntity
  8
文字
 62
     7
 48
50.0
100
AcDbText
 10
13162.9790565769
 20
895.0906074299405
 30
0.0
 40
200.0
  1
外 形 図
  7
STYLE2
100
AcDbText
  0
TEXT
  5
10B74
330
747D
100
AcDbEntity
  8
文字
 62
     7
 48
50.0
100
AcDbText
 10
13201.43669998441
 20
477.2740661031255
 30
0.0
 40
160.0
  1
機種名
  7
STYLE2
100
AcDbText
  0
TEXT
  5
10B76
330
747D
100
AcDbEntity
  8
文字
 62
     7
 48
50.0
100
AcDbText
 10
13209.4053442172
 20
76.09434707649343
 30
0.0
 40
100.0
  1
○床面積 ： 4.34㎡(1.32坪) 　
  7
STYLE2
100
AcDbText
  0
TEXT
  5
10B79
330
747D
100
AcDbEntity
  8
文字
 62
     7
 48
50.0
100
AcDbText
 10
14524.131837222
 20
1031.557706291228
 30
0.0
 40
100.0
  1
NO.26      <縮尺> S=1/40
  7
STYLE2
100
AcDbText
  0
LINE
  5
10B7B
330
747D
100
AcDbEntity
  8
仕様書枠
 48
50.0
100
AcDbLine
 10
13107.2
 20
800.0
 30
0.0
 11
14251.2
 21
800.0
 31
0.0
  0
LINE
  5
10B88
330
747D
100
AcDbEntity
  8
仕様書枠
  6
Continuous
 48
50.0
100
AcDbLine
 10
14251.2
 20
1200.0
 30
0.0
 11
14251.2
 21
800.0
 31
0.0
  0
LINE
  5
12765
330
747D
100
AcDbEntity
  8
Ｇ．Ｌ
100
AcDbLine
 10
2766.886727252604
 20
2597.931598713262
 30
0.0
 11
11875.07381834626
 21
2597.931598713262
 31
0.0
  0
TEXT
  5
149A1
330
747D
100
AcDbEntity
  8
部品1
100
AcDbText
 10
9435.551335941147
 20
1525.722526519778
 30
0.0
 40
135.0
  1
正面図
  7
STYLE2
100
AcDbText
  0
TEXT
  5
14E88
330
747D
100
AcDbEntity
  8
部品1
100
AcDbText
 10
9434.945542032229
 20
6111.226971163383
 30
0.0
 40
135.0
  1
平面図
  7
STYLE2
100
AcDbText
  0
TEXT
  5
154D3
330
747D
100
AcDbEntity
  8
文字
 62
     7
 48
50.0
100
AcDbText
 10
14643.63059855437
 20
863.0097378581719
 30
0.0
 40
100.0
  1
～一般型・多雪地型～
  7
STYLE2
100
AcDbText
  0
LINE
  5
162FC
330
747D
100
AcDbEntity
  8
部品1
100
AcDbLine
 10
9345.025932203192
 20
6304.120500381907
 30
0.0
 11
9345.025932203192
 21
6064.228178836374
 31
0.0
  0
LINE
  5
162FD
330
747D
100
AcDbEntity
  8
部品1
100
AcDbLine
 10
9345.025932203192
 20
6064.228178836374
 30
0.0
 11
10108.49659843163
 21
6064.228178836374
 31
0.0
  0
LINE
  5
162FE
330
747D
100
AcDbEntity
  8
部品1
100
AcDbLine
 10
10108.49659843163
 20
6064.228178836374
 30
0.0
 11
10108.49659843163
 21
6304.120500381907
 31
0.0
  0
LINE
  5
162FF
330
747D
100
AcDbEntity
  8
部品1
100
AcDbLine
 10
10108.49659843163
 20
6304.120500381907
 30
0.0
 11
9345.025932203192
 21
6304.120500381907
 31
0.0
  0
LINE
  5
16300
330
747D
100
AcDbEntity
  8
部品1
100
AcDbLine
 10
9345.025932203192
 20
1718.616055738302
 30
0.0
 11
9345.025932203192
 21
1478.723734192769
 31
0.0
  0
LINE
  5
16301
330
747D
100
AcDbEntity
  8
部品1
100
AcDbLine
 10
9345.025932203192
 20
1478.723734192769
 30
0.0
 11
10108.49659843163
 21
1478.723734192769
 31
0.0
  0
LINE
  5
16302
330
747D
100
AcDbEntity
  8
部品1
100
AcDbLine
 10
10108.49659843163
 20
1478.723734192769
 30
0.0
 11
10108.49659843163
 21
1718.616055738302
 31
0.0
  0
LINE
  5
16303
330
747D
100
AcDbEntity
  8
部品1
100
AcDbLine
 10
10108.49659843163
 20
1718.616055738302
 30
0.0
 11
9345.025932203192
 21
1718.616055738302
 31
0.0
  0
DIMENSION
  5
164B4
330
747D
100
AcDbEntity
  8
寸法
 48
50.0
100
AcDbDimension
  2
*D1
 10
7898.460205573015
 20
2755.931598713261
 30
0.0
 11
7898.460205573013
 21
3592.007525067958
 31
0.0
 70
   160
  1
有効開口部高サ<>
 71
     5
 42
1724.999999999999
  3
INABA_S40G
100
AcDbAlignedDimension
 13
8649.761265317414
 23
4480.931598713261
 33
0.0
 14
8649.761265317414
 24
2755.931598713261
 34
0.0
 50
90.0
100
AcDbRotatedDimension
  0
DIMENSION
  5
164B5
330
747D
100
AcDbEntity
  8
寸法
 48
50.0
100
AcDbDimension
  2
*D2
 10
8076.761265317411
 20
2061.884269412884
 30
0.0
 11
8201.761265317411
 21
2061.884269412884
 31
0.0
 12
0.0
 22
-50.0
 32
0.0
 70
   160
 71
     5
 42
-1.0
  3
INABA_S40G
100
AcDbAlignedDimension
 13
8326.761265317413
 23
2347.931598713262
 33
0.0
 14
8076.761265317411
 24
2347.931598713262
 34
0.0
100
AcDbRotatedDimension
  0
LINE
  5
164B6
330
747D
100
AcDbEntity
  8
破線
 48
5.0
100
AcDbLine
 10
8076.761265317411
 20
2347.931598713262
 30
0.0
 11
8326.761265317413
 21
2347.931598713262
 31
0.0
  0
LINE
  5
164BA
330
747D
100
AcDbEntity
  8
破線
 48
5.0
100
AcDbLine
 10
8076.761265317411
 20
2597.931598713262
 30
0.0
 11
8076.761265317411
 21
2347.931598713262
 31
0.0
  0
LINE
  5
164C0
330
747D
100
AcDbEntity
  8
部品1
100
AcDbLine
 10
8201.761265317411
 20
4537.931598713261
 30
0.0
 11
11251.76126531741
 21
4537.931598713261
 31
0.0
  0
LINE
  5
164C8
330
747D
100
AcDbEntity
  8
部品1
 48
50.0
100
AcDbLine
 10
8229.761265317412
 20
2697.931598713262
 30
0.0
 11
10803.76126531741
 21
2697.931598713262
 31
0.0
  0
LINE
  5
164CC
330
747D
100
AcDbEntity
  8
部品1
100
AcDbLine
 10
8201.761265317411
 20
4537.931598713261
 30
0.0
 11
11251.76126531741
 21
4537.931598713261
 31
0.0
  0
LINE
  5
164CD
330
747D
100
AcDbEntity
  8
部品1
100
AcDbLine
 10
8201.761265317411
 20
2697.931598713262
 30
0.0
 11
11251.76126531741
 21
2697.931598713262
 31
0.0
  0
LINE
  5
164DF
330
747D
100
AcDbEntity
  8
部品1
 48
50.0
100
AcDbLine
 10
8256.761265317413
 20
2747.931598713281
 30
0.0
 11
8256.761265317413
 21
4537.931598713261
 31
0.0
  0
LINE
  5
164E0
330
747D
100
AcDbEntity
  8
部品1
100
AcDbLine
 10
8201.761265317411
 20
4591.431598713262
 30
0.0
 11
8201.761265317411
 21
2597.931598713262
 31
0.0
  0
LINE
  5
164E3
330
747D
100
AcDbEntity
  8
部品1
100
AcDbLine
 10
8196.761265317411
 20
2742.931598713263
 30
0.0
 11
8196.761265317411
 21
2597.931598713262
 31
0.0
  0
LINE
  5
164E4
330
747D
100
AcDbEntity
  8
破線
 48
5.0
100
AcDbLine
 10
8196.761265317411
 20
2597.931598713262
 30
0.0
 11
8196.761265317411
 21
2442.931598713262
 31
0.0
  0
LINE
  5
164E5
330
747D
100
AcDbEntity
  8
破線
 48
5.0
100
AcDbLine
 10
8326.761265317411
 20
2597.931598713262
 30
0.0
 11
8326.761265317411
 21
2347.931598713262
 31
0.0
  0
LINE
  5
164E6
330
747D
100
AcDbEntity
  8
破線
 48
5.0
100
AcDbLine
 10
8176.761265317411
 20
2442.931598713262
 30
0.0
 11
8196.761265317412
 21
2442.931598713262
 31
0.0
  0
LINE
  5
164E7
330
747D
100
AcDbEntity
  8
部品1
100
AcDbLine
 10
8601.761265317412
 20
2697.931598713262
 30
0.0
 11
8601.761265317412
 21
2597.931598713262
 31
0.0
  0
LINE
  5
164E8
330
747D
100
AcDbEntity
  8
部品1
100
AcDbLine
 10
8201.761265317411
 20
2747.931598713281
 30
0.0
 11
8649.761265317414
 21
2747.931598713281
 31
0.0
  0
LINE
  5
164EA
330
747D
100
AcDbEntity
  8
部品1
 48
50.0
100
AcDbLine
 10
8899.761265317412
 20
2697.931598713262
 30
0.0
 11
8899.761265317412
 21
2597.931598713262
 31
0.0
  0
LINE
  5
164EB
330
747D
100
AcDbEntity
  8
部品1
 48
50.0
100
AcDbLine
 10
9099.761265317411
 20
2697.931598713262
 30
0.0
 11
9099.761265317411
 21
2597.931598713262
 31
0.0
  0
LINE
  5
1650E
330
747D
100
AcDbEntity
  8
部品1
 48
50.0
100
AcDbLine
 10
9626.761265317412
 20
2697.931598713262
 30
0.0
 11
9626.761265317412
 21
2597.931598713262
 31
0.0
  0
LINE
  5
1650F
330
747D
100
AcDbEntity
  8
部品1
 48
50.0
100
AcDbLine
 10
9826.761265317411
 20
2697.931598713262
 30
0.0
 11
9826.761265317411
 21
2597.931598713262
 31
0.0
  0
LINE
  5
16510
330
747D
100
AcDbEntity
  8
部品1
100
AcDbLine
 10
10851.76126531741
 20
2697.931598713262
 30
0.0
 11
10851.76126531741
 21
2597.931598713262
 31
0.0
  0
LINE
  5
165AD
330
747D
100
AcDbEntity
  8
部品1
100
AcDbLine
 10
11251.76126531741
 20
4591.431598713262
 30
0.0
 11
11251.76126531741
 21
2597.931598713262
 31
0.0
  0
LINE
  5
165AE
330
747D
100
AcDbEntity
  8
部品1
100
AcDbLine
 10
11256.76126531741
 20
2742.931598713262
 30
0.0
 11
11256.76126531741
 21
2597.931598713262
 31
0.0
  0
LINE
  5
165AF
330
747D
100
AcDbEntity
  8
破線
 48
5.0
100
AcDbLine
 10
11256.76126531741
 20
2597.931598713262
 30
0.0
 11
11256.76126531741
 21
2442.931598713262
 31
0.0
  0
LINE
  5
165B1
330
747D
100
AcDbEntity
  8
破線
 48
5.0
100
AcDbLine
 10
11276.76126531741
 20
2442.931598713262
 30
0.0
 11
11256.76126531741
 21
2442.931598713262
 31
0.0
  0
LINE
  5
165B2
330
747D
100
AcDbEntity
  8
部品1
100
AcDbLine
 10
10803.76126531741
 20
2747.931598713281
 30
0.0
 11
11251.76126531741
 21
2747.931598713281
 31
0.0
  0
LINE
  5
16A16
330
747D
100
AcDbEntity
  8
部品1
100
AcDbLine
 10
11196.76126531741
 20
4537.931598713261
 30
0.0
 11
11196.76126531741
 21
2747.931598713282
 31
0.0
  0
LINE
  5
16A5A
330
747D
100
AcDbEntity
  8
部品1
 48
50.0
100
AcDbLine
 10
10553.76126531741
 20
2697.931598713262
 30
0.0
 11
10553.76126531741
 21
2597.931598713262
 31
0.0
  0
LINE
  5
16A5B
330
747D
100
AcDbEntity
  8
部品1
 48
50.0
100
AcDbLine
 10
10353.76126531741
 20
2697.931598713262
 30
0.0
 11
10353.76126531741
 21
2597.931598713262
 31
0.0
  0
LINE
  5
16A80
330
747D
100
AcDbEntity
  8
破線
 48
5.0
100
AcDbLine
 10
11126.76126531741
 20
2597.931598713262
 30
0.0
 11
11126.76126531741
 21
2347.931598713262
 31
0.0
  0
LINE
  5
16A81
330
747D
100
AcDbEntity
  8
破線
 48
5.0
100
AcDbLine
 10
11376.76126531741
 20
2597.931598713262
 30
0.0
 11
11376.76126531741
 21
2347.931598713262
 31
0.0
  0
LINE
  5
16A82
330
747D
100
AcDbEntity
  8
破線
 48
5.0
100
AcDbLine
 10
11376.76126531741
 20
2347.931598713262
 30
0.0
 11
11126.76126531741
 21
2347.931598713262
 31
0.0
  0
LINE
  5
16C36
330
747D
100
AcDbEntity
  8
部品1
100
AcDbLine
 10
8229.761265317419
 20
9181.003900523531
 30
0.0
 11
9201.76126531742
 21
9181.003900523533
 31
0.0
  0
LINE
  5
16C37
330
747D
100
AcDbEntity
  8
細線
 48
50.0
100
AcDbLine
 10
9713.26126531742
 20
8729.003900523636
 30
0.0
 11
8230.26126531735
 21
9179.003900523579
 31
0.0
  0
LINE
  5
16C38
330
747D
100
AcDbEntity
  8
細線
 48
50.0
100
AcDbLine
 10
9713.26126531742
 20
9179.003900523632
 30
0.0
 11
8230.26126531735
 21
8729.003900523577
 31
0.0
  0
LINE
  5
16C39
330
747D
100
AcDbEntity
  8
部品1
100
AcDbLine
 10
8256.76126531742
 20
9181.003900523647
 30
0.0
 11
9714.26126531742
 21
9181.003900523647
 31
0.0
  0
LINE
  5
16C3A
330
747D
100
AcDbEntity
  8
部品1
100
AcDbLine
 10
8230.26126531735
 20
9179.003900523579
 30
0.0
 11
9713.26126531742
 21
9179.003900523637
 31
0.0
  0
LINE
  5
16C3B
330
747D
100
AcDbEntity
  8
部品1
100
AcDbLine
 10
8230.26126531735
 20
8729.003900523577
 30
0.0
 11
9713.26126531742
 21
8729.003900523636
 31
0.0
  0
LINE
  5
16C3C
330
747D
100
AcDbEntity
  8
部品1
100
AcDbLine
 10
8676.761265317392
 20
7839.003900523485
 30
0.0
 11
8201.761265317415
 21
7839.003900523485
 31
0.0
  0
LINE
  5
16C3D
330
747D
100
AcDbEntity
  8
破線
 48
10.0
100
AcDbLine
 10
8974.261265317398
 20
7919.003900523486
 30
0.0
 11
8281.761265317408
 21
7919.003900523496
 31
0.0
  0
DIMENSION
  5
16C3E
330
747D
100
AcDbEntity
  8
寸法
100
AcDbDimension
  2
*D3
 10
9642.331258998748
 20
8464.289513161189
 30
0.0
 11
8789.946816148136
 21
8464.289513161189
 31
0.0
 70
   160
 71
     5
 42
1483.000000000071
  3
INABA_S40G
100
AcDbAlignedDimension
 13
8230.261265317343
 23
8729.003900523643
 33
0.0
 14
9713.261265317415
 24
8729.003900523636
 34
0.0
100
AcDbRotatedDimension
1001
ACAD
1000
DSTYLE
1002
{
1002
}
  0
DIMENSION
  5
16C3F
330
747D
100
AcDbEntity
  8
寸法
100
AcDbDimension
  2
*D4
 10
11196.76126531742
 20
9709.003900523578
 30
0.0
 11
9726.761265317421
 21
9709.003900523578
 31
0.0
 70
   160
  1
7X420=<>
 71
     5
 42
2940.000000000002
  3
INABA_S40G
100
AcDbAlignedDimension
 13
8256.76126531742
 23
9209.003900523532
 33
0.0
 14
11196.76126531742
 24
9209.003900523624
 34
0.0
100
AcDbRotatedDimension
1001
ACAD
1000
DSTYLE
1002
{
1002
}
  0
LINE
  5
16C40
330
747D
100
AcDbEntity
  8
部品1
100
AcDbLine
 10
11195.26126531742
 20
7895.503900523618
 30
0.0
 11
8258.261265317313
 21
7895.503900523497
 31
0.0
  0
LINE
  5
16C41
330
747D
100
AcDbEntity
  8
部品1
100
AcDbLine
 10
8201.76126531742
 20
9209.003900523532
 30
0.0
 11
11251.76126531742
 21
9209.003900523624
 31
0.0
  0
DIMENSION
  5
16C42
330
747D
100
AcDbEntity
  8
寸法
100
AcDbDimension
  2
*D5
 10
11251.76126531739
 20
6543.546984160996
 30
0.0
 11
9700.706934414862
 21
6543.546984160996
 31
0.0
 70
   160
 71
     5
 42
3049.999999999982
  3
INABA_S40G
100
AcDbAlignedDimension
 13
8201.761265317415
 23
7839.003900523453
 33
0.0
 14
11251.76126531739
 24
7839.003900523618
 34
0.0
100
AcDbRotatedDimension
1001
ACAD
1000
DSTYLE
1002
{
1002
}
  0
LINE
  5
16C43
330
747D
100
AcDbEntity
  8
部品1
100
AcDbLine
 10
11195.2612653174
 20
8314.0039005236
 30
0.0
 11
8258.261265317406
 21
8314.0039005235
 31
0.0
  0
LINE
  5
16C44
330
747D
100
AcDbEntity
  8
部品1
 48
50.0
100
AcDbLine
 10
8229.761265317417
 20
7867.003900523599
 30
0.0
 11
11223.76126531744
 21
7867.003900523602
 31
0.0
  0
LINE
  5
16C45
330
747D
100
AcDbEntity
  8
破線
 48
10.0
100
AcDbLine
 10
8281.761265317397
 20
8729.003900523627
 30
0.0
 11
8281.76126531741
 21
7919.003900523496
 31
0.0
  0
LINE
  5
16C46
330
747D
100
AcDbEntity
  8
部品1
100
AcDbLine
 10
8229.761265317394
 20
7867.003900523577
 30
0.0
 11
8229.761265317412
 21
8734.003900523502
 31
0.0
  0
LINE
  5
16C47
330
747D
100
AcDbEntity
  8
部品1
100
AcDbLine
 10
8201.761265317387
 20
9209.003900523496
 30
0.0
 11
8201.761265317415
 21
7839.003900523485
 31
0.0
  0
LINE
  5
16C48
330
747D
100
AcDbEntity
  8
部品1
100
AcDbLine
 10
8258.261265317399
 20
8729.003900523577
 30
0.0
 11
8258.261265317409
 21
7895.503900523592
 31
0.0
  0
LINE
  5
16C49
330
747D
100
AcDbEntity
  8
部品1
100
AcDbLine
 10
8229.761265317412
 20
7894.0039005235
 30
0.0
 11
8201.761265317413
 21
7894.0039005235
 31
0.0
  0
LINE
  5
16C4A
330
747D
100
AcDbEntity
  8
部品1
100
AcDbLine
 10
8229.761265317398
 20
7894.003900523486
 30
0.0
 11
8201.761265317413
 21
7894.003900523486
 31
0.0
  0
LINE
  5
16C4B
330
747D
100
AcDbEntity
  8
部品1
100
AcDbLine
 10
8229.761265317398
 20
7894.00390052345
 30
0.0
 11
8201.761265317413
 21
7894.00390052345
 31
0.0
  0
LINE
  5
16C4C
330
747D
100
AcDbEntity
  8
部品1
100
AcDbLine
 10
8201.761265317413
 20
7894.00390052345
 30
0.0
 11
8201.761265317415
 21
7839.003900523453
 31
0.0
  0
LINE
  5
16C4D
330
747D
100
AcDbEntity
  8
部品1
 48
50.0
100
AcDbLine
 10
8258.261265317409
 20
7895.503900523593
 30
0.0
 11
8229.761265317412
 21
7867.003900523595
 31
0.0
  0
LINE
  5
16C4E
330
747D
100
AcDbEntity
  8
部品1
100
AcDbLine
 10
8256.76126531739
 20
7839.003900523618
 30
0.0
 11
8256.76126531739
 21
7867.003900523616
 31
0.0
  0
LINE
  5
16C4F
330
747D
100
AcDbEntity
  8
部品1
 48
50.0
100
AcDbLine
 10
8230.26126531735
 20
9179.003900523632
 30
0.0
 11
8230.26126531735
 21
8729.003900523636
 31
0.0
  0
LINE
  5
16C50
330
747D
100
AcDbEntity
  8
部品1
100
AcDbLine
 10
8229.761265317412
 20
8728.503900523502
 30
0.0
 11
8229.761265317419
 21
9181.003900523531
 31
0.0
  0
LINE
  5
16C51
330
747D
100
AcDbEntity
  8
部品1
100
AcDbLine
 10
8229.761265317394
 20
8314.0039005235
 30
0.0
 11
8201.761265317394
 21
8314.0039005235
 31
0.0
  0
LINE
  5
16C52
330
747D
100
AcDbEntity
  8
部品1
100
AcDbLine
 10
8229.761265317394
 20
8734.003900523502
 30
0.0
 11
8201.761265317394
 21
8734.003900523502
 31
0.0
  0
DIMENSION
  5
16C53
330
747D
100
AcDbEntity
  8
寸法
100
AcDbDimension
  2
*D6
 10
8256.76126531742
 20
9709.003900523532
 30
0.0
 11
7893.275983943147
 21
9709.003900523532
 31
0.0
 70
   160
 71
     5
 42
55.00000000003274
  3
INABA_S40G
100
AcDbAlignedDimension
 13
8201.761265317387
 23
9209.003900523532
 33
0.0
 14
8256.76126531742
 24
9209.003900523532
 34
0.0
100
AcDbRotatedDimension
1001
ACAD
1000
DSTYLE
1002
{
1002
}
  0
LINE
  5
16C54
330
747D
100
AcDbEntity
  8
部品1
100
AcDbLine
 10
8229.761265317387
 20
9154.003900523502
 30
0.0
 11
8201.761265317387
 21
9154.003900523502
 31
0.0
  0
LINE
  5
16C55
330
747D
100
AcDbEntity
  8
部品1
100
AcDbLine
 10
8256.76126531742
 20
9209.003900523532
 30
0.0
 11
8256.76126531742
 21
9181.003900523531
 31
0.0
  0
LINE
  5
16C56
330
747D
100
AcDbEntity
  8
部品1
100
AcDbLine
 10
8256.761265317388
 20
9209.003900523496
 30
0.0
 11
8256.761265317388
 21
9181.003900523498
 31
0.0
  0
LINE
  5
16C57
330
747D
100
AcDbEntity
  8
部品1
100
AcDbLine
 10
11251.76126531739
 20
7839.003900523618
 30
0.0
 11
10776.76126531742
 21
7839.003900523602
 31
0.0
  0
LINE
  5
16C58
330
747D
100
AcDbEntity
  8
破線
 48
10.0
100
AcDbLine
 10
11171.76126531742
 20
7919.003900523614
 30
0.0
 11
10479.26126531739
 21
7919.003900523555
 31
0.0
  0
DIMENSION
  5
16C59
330
747D
100
AcDbEntity
  8
寸法
100
AcDbDimension
  2
*D7
 10
11152.33125899874
 20
8464.289513161189
 30
0.0
 11
10270.8372597741
 21
8464.289513161189
 31
0.0
 70
   160
 71
     5
 42
1483.000000000013
  3
INABA_S40G
100
AcDbAlignedDimension
 13
9740.261265317414
 23
8729.003900523702
 33
0.0
 14
11223.26126531742
 24
8729.003900523695
 34
0.0
100
AcDbRotatedDimension
1001
ACAD
1000
DSTYLE
1002
{
1002
}
  0
LINE
  5
16C5A
330
747D
100
AcDbEntity
  8
細線
 48
50.0
100
AcDbLine
 10
11223.26126531742
 20
9179.003900523625
 30
0.0
 11
9740.261265317421
 21
8729.003900523636
 31
0.0
  0
LINE
  5
16C5B
330
747D
100
AcDbEntity
  8
部品1
100
AcDbLine
 10
9740.261265317421
 20
9179.003900523632
 30
0.0
 11
11223.26126531742
 21
9179.003900523625
 31
0.0
  0
LINE
  5
16C5C
330
747D
100
AcDbEntity
  8
部品1
100
AcDbLine
 10
9740.261265317421
 20
8729.003900523636
 30
0.0
 11
11223.26126531742
 21
8729.003900523627
 31
0.0
  0
LINE
  5
16C5D
330
747D
100
AcDbEntity
  8
細線
 48
50.0
100
AcDbLine
 10
11223.26126531742
 20
8729.003900523627
 30
0.0
 11
9740.261265317421
 21
9179.003900523628
 31
0.0
  0
LINE
  5
16C5E
330
747D
100
AcDbEntity
  8
部品1
100
AcDbLine
 10
9739.26126531742
 20
9181.003900523643
 30
0.0
 11
11223.76126531742
 21
9181.003900523625
 31
0.0
  0
LINE
  5
16C5F
330
747D
100
AcDbEntity
  8
破線
 48
10.0
100
AcDbLine
 10
9701.761265317399
 20
7895.503900523526
 30
0.0
 11
9701.761265317392
 21
8729.003900523636
 31
0.0
  0
LINE
  5
16C60
330
747D
100
AcDbEntity
  8
破線
 48
10.0
100
AcDbLine
 10
9751.761265317398
 20
7895.503900523529
 30
0.0
 11
9751.761265317391
 21
8729.003900523633
 31
0.0
  0
LINE
  5
16C61
330
747D
100
AcDbEntity
  8
破線
 48
10.0
100
AcDbLine
 10
8974.261265317398
 20
7895.503900523526
 30
0.0
 11
8974.261265317398
 21
8729.003900523636
 31
0.0
  0
LINE
  5
16C62
330
747D
100
AcDbEntity
  8
破線
 48
10.0
100
AcDbLine
 10
9024.261265317397
 20
7895.503900523529
 30
0.0
 11
9024.261265317397
 21
8729.003900523636
 31
0.0
  0
LINE
  5
16C63
330
747D
100
AcDbEntity
  8
破線
 48
10.0
100
AcDbLine
 10
10429.26126531739
 20
7895.503900523526
 30
0.0
 11
10429.26126531739
 21
8729.003900523636
 31
0.0
  0
LINE
  5
16C64
330
747D
100
AcDbEntity
  8
破線
 48
10.0
100
AcDbLine
 10
10479.26126531739
 20
7895.503900523529
 30
0.0
 11
10479.2612653174
 21
8729.003900523636
 31
0.0
  0
LINE
  5
16C65
330
747D
100
AcDbEntity
  8
部品1
 48
50.0
100
AcDbLine
 10
9726.761265317422
 20
8729.003900523636
 30
0.0
 11
9726.761265317449
 21
7895.503900523515
 31
0.0
  0
LINE
  5
16C68
330
747D
100
AcDbEntity
  8
破線
 48
10.0
100
AcDbLine
 10
9701.761265317399
 20
7919.003900523527
 30
0.0
 11
9024.261265317395
 21
7919.003900523503
 31
0.0
  0
LINE
  5
16C7B
330
747D
100
AcDbEntity
  8
部品1
100
AcDbLine
 10
8676.76126531739
 20
7839.003900523618
 30
0.0
 11
8676.76126531739
 21
7867.003900523616
 31
0.0
  0
LINE
  5
16C96
330
747D
100
AcDbEntity
  8
破線
 48
10.0
100
AcDbLine
 10
10429.26126531739
 20
7919.003900523541
 30
0.0
 11
9751.761265317398
 21
7919.003900523529
 31
0.0
  0
LINE
  5
16CAE
330
747D
100
AcDbEntity
  8
部品1
100
AcDbLine
 10
10776.76126531742
 20
7839.003900523618
 30
0.0
 11
10776.76126531742
 21
7867.003900523616
 31
0.0
  0
LINE
  5
16CB3
330
747D
100
AcDbEntity
  8
部品1
100
AcDbLine
 10
8676.761265317386
 20
9209.003900523496
 30
0.0
 11
8676.761265317386
 21
9181.003900523498
 31
0.0
  0
LINE
  5
16CB4
330
747D
100
AcDbEntity
  8
部品1
100
AcDbLine
 10
9096.761265317388
 20
9209.003900523496
 30
0.0
 11
9096.761265317388
 21
9181.003900523498
 31
0.0
  0
LINE
  5
16CB5
330
747D
100
AcDbEntity
  8
部品1
100
AcDbLine
 10
9516.761265317388
 20
9209.003900523496
 30
0.0
 11
9516.761265317388
 21
9181.003900523498
 31
0.0
  0
LINE
  5
16CB6
330
747D
100
AcDbEntity
  8
部品1
 48
50.0
100
AcDbLine
 10
9713.26126531742
 20
9179.003900523632
 30
0.0
 11
9713.26126531742
 21
8729.003900523636
 31
0.0
  0
LINE
  5
16CB7
330
747D
100
AcDbEntity
  8
部品1
 48
50.0
100
AcDbLine
 10
9740.261265317421
 20
9179.003900523628
 30
0.0
 11
9740.261265317421
 21
8729.003900523636
 31
0.0
  0
LINE
  5
16CB8
330
747D
100
AcDbEntity
  8
部品1
 48
50.0
100
AcDbLine
 10
9714.26126531742
 20
9181.00390052364
 30
0.0
 11
9714.26126531742
 21
8729.003900523636
 31
0.0
  0
LINE
  5
16CB9
330
747D
100
AcDbEntity
  8
部品1
 48
50.0
100
AcDbLine
 10
9739.26126531742
 20
9181.003900523636
 30
0.0
 11
9739.26126531742
 21
8729.003900523636
 31
0.0
  0
LINE
  5
16CBA
330
747D
100
AcDbEntity
  8
部品1
100
AcDbLine
 10
9714.26126531742
 20
8729.003900523636
 30
0.0
 11
9739.26126531742
 21
8729.003900523636
 31
0.0
  0
LINE
  5
16CBB
330
747D
100
AcDbEntity
  8
部品1
100
AcDbLine
 10
9714.26126531742
 20
9173.00390052363
 30
0.0
 11
9739.26126531742
 21
9173.003900523632
 31
0.0
  0
LINE
  5
16CBC
330
747D
100
AcDbEntity
  8
部品1
100
AcDbLine
 10
9691.76126531742
 20
9199.003900523633
 30
0.0
 11
9691.76126531742
 21
9181.003900523633
 31
0.0
  0
LINE
  5
16CBD
330
747D
100
AcDbEntity
  8
部品1
100
AcDbLine
 10
9691.76126531742
 20
9199.003900523633
 30
0.0
 11
9697.761265317421
 21
9199.003900523633
 31
0.0
  0
LINE
  5
16CBE
330
747D
100
AcDbEntity
  8
部品1
100
AcDbLine
 10
9761.761265317421
 20
9199.003900523633
 30
0.0
 11
9761.761265317421
 21
9181.003900523633
 31
0.0
  0
LINE
  5
16CBF
330
747D
100
AcDbEntity
  8
部品1
100
AcDbLine
 10
9755.761265317421
 20
9199.003900523633
 30
0.0
 11
9761.761265317421
 21
9199.003900523633
 31
0.0
  0
LINE
  5
16CC0
330
747D
100
AcDbEntity
  8
部品1
100
AcDbLine
 10
9936.761265317388
 20
9209.003900523496
 30
0.0
 11
9936.761265317388
 21
9181.003900523498
 31
0.0
  0
LINE
  5
16CC1
330
747D
100
AcDbEntity
  8
部品1
100
AcDbLine
 10
10356.76126531738
 20
9209.003900523496
 30
0.0
 11
10356.76126531738
 21
9181.003900523498
 31
0.0
  0
LINE
  5
16CC2
330
747D
100
AcDbEntity
  8
部品1
100
AcDbLine
 10
10776.76126531738
 20
9209.003900523496
 30
0.0
 11
10776.76126531738
 21
9181.003900523498
 31
0.0
  0
DIMENSION
  5
16CC3
330
747D
100
AcDbEntity
  8
寸法
100
AcDbDimension
  2
*D8
 10
12251.76126531741
 20
7839.003900523618
 30
0.0
 11
12251.76126531741
 21
8524.003900523622
 31
0.0
 70
   160
 71
     5
 42
1370.000000000007
  3
INABA_S40G
100
AcDbAlignedDimension
 13
11251.76126531742
 23
9209.003900523624
 33
0.0
 14
11251.76126531739
 24
7839.003900523618
 34
0.0
 50
90.0
100
AcDbRotatedDimension
1001
ACAD
1000
DSTYLE
1002
{
1002
}
  0
LINE
  5
16CC4
330
747D
100
AcDbEntity
  8
破線
 48
10.0
100
AcDbLine
 10
11171.76126531741
 20
8729.003900523627
 30
0.0
 11
11171.76126531742
 21
7919.003900523613
 31
0.0
  0
DIMENSION
  5
16CC5
330
747D
100
AcDbEntity
  8
寸法
100
AcDbDimension
  2
*D9
 10
11951.76126531741
 20
7894.003900523613
 30
0.0
 11
11951.76126531741
 21
8524.003900523608
 31
0.0
 70
   160
  1
3X420=<>
 71
     5
 42
1260.000000000014
  3
INABA_S40G
100
AcDbAlignedDimension
 13
11251.76126531742
 23
9154.003900523628
 33
0.0
 14
11251.76126531739
 24
7894.003900523613
 34
0.0
 50
90.0
100
AcDbRotatedDimension
1001
ACAD
1000
DSTYLE
1002
{
1002
}
  0
LINE
  5
16CC6
330
747D
100
AcDbEntity
  8
部品1
100
AcDbLine
 10
11251.76126531742
 20
9209.003900523624
 30
0.0
 11
11251.76126531739
 21
7839.003900523618
 31
0.0
  0
LINE
  5
16CC7
330
747D
100
AcDbEntity
  8
部品1
100
AcDbLine
 10
11195.26126531741
 20
8729.003900523627
 30
0.0
 11
11195.26126531742
 21
7895.503900523618
 31
0.0
  0
LINE
  5
16CC8
330
747D
100
AcDbEntity
  8
部品1
100
AcDbLine
 10
11223.76126531741
 20
8734.00390052363
 30
0.0
 11
11223.7612653174
 21
7867.003900523616
 31
0.0
  0
DIMENSION
  5
16CC9
330
747D
100
AcDbEntity
  8
寸法
100
AcDbDimension
  2
*D10
 10
11951.7612653174
 20
7839.003900523618
 30
0.0
 11
11951.76126531739
 21
7530.518619149377
 31
0.0
 70
   160
 71
     5
 42
54.99999999999636
  3
INABA_S40G
100
AcDbAlignedDimension
 13
11251.76126531739
 23
7894.003900523613
 33
0.0
 14
11251.76126531739
 24
7839.003900523618
 34
0.0
 50
90.0
100
AcDbRotatedDimension
1001
ACAD
1000
DSTYLE
1002
{
1002
}
  0
LINE
  5
16CCA
330
747D
100
AcDbEntity
  8
部品1
100
AcDbLine
 10
11223.7612653174
 20
7894.003900523613
 30
0.0
 11
11251.76126531739
 21
7894.003900523613
 31
0.0
  0
LINE
  5
16CCB
330
747D
100
AcDbEntity
  8
部品1
100
AcDbLine
 10
11251.76126531739
 20
7839.003900523618
 30
0.0
 11
11200.76126531739
 21
7839.003900523618
 31
0.0
  0
LINE
  5
16CCC
330
747D
100
AcDbEntity
  8
部品1
 48
50.0
100
AcDbLine
 10
11195.26126531742
 20
7895.503900523618
 30
0.0
 11
11223.76126531742
 21
7867.003900523616
 31
0.0
  0
LINE
  5
16CCD
330
747D
100
AcDbEntity
  8
部品1
100
AcDbLine
 10
11251.7612653174
 20
7894.003900523613
 30
0.0
 11
11251.76126531739
 21
7839.003900523618
 31
0.0
  0
LINE
  5
16CCE
330
747D
100
AcDbEntity
  8
部品1
100
AcDbLine
 10
11223.76126531742
 20
7894.003900523613
 30
0.0
 11
11251.76126531742
 21
7894.003900523613
 31
0.0
  0
LINE
  5
16CCF
330
747D
100
AcDbEntity
  8
部品1
100
AcDbLine
 10
11196.76126531742
 20
7839.003900523618
 30
0.0
 11
11196.76126531742
 21
7867.003900523616
 31
0.0
  0
LINE
  5
16CD0
330
747D
100
AcDbEntity
  8
部品1
100
AcDbLine
 10
11223.76126531742
 20
9181.003900523625
 30
0.0
 11
11223.76126531741
 21
8728.503900523502
 31
0.0
  0
LINE
  5
16CD1
330
747D
100
AcDbEntity
  8
部品1
100
AcDbLine
 10
11223.26126531742
 20
9179.003900523625
 30
0.0
 11
11223.26126531742
 21
8729.003900523627
 31
0.0
  0
DIMENSION
  5
16CD2
330
747D
100
AcDbEntity
  8
寸法
100
AcDbDimension
  2
*D11
 10
11651.76126531742
 20
8614.187671566893
 30
0.0
 11
11651.76126531741
 21
8839.187671566891
 31
0.0
 70
   160
 71
     5
 42
449.9999999999963
  3
INABA_S40G
100
AcDbAlignedDimension
 13
11223.26126531742
 23
9179.003900523625
 33
0.0
 14
11223.26126531742
 24
8729.003900523627
 34
0.0
 50
90.0
100
AcDbRotatedDimension
1001
ACAD
1000
DSTYLE
1002
{
1002
}
  0
LINE
  5
16CD3
330
747D
100
AcDbEntity
  8
部品1
100
AcDbLine
 10
11223.76126531742
 20
8314.003900523628
 30
0.0
 11
11251.76126531742
 21
8314.003900523628
 31
0.0
  0
LINE
  5
16CD4
330
747D
100
AcDbEntity
  8
部品1
100
AcDbLine
 10
11223.76126531742
 20
8734.00390052363
 30
0.0
 11
11251.76126531742
 21
8734.00390052363
 31
0.0
  0
DIMENSION
  5
16CD5
330
747D
100
AcDbEntity
  8
寸法
100
AcDbDimension
  2
*D12
 10
11251.76126531742
 20
9709.003900523626
 30
0.0
 11
11560.24654669166
 21
9709.003900523626
 31
0.0
 70
   160
 71
     5
 42
55.0
  3
INABA_S40G
100
AcDbAlignedDimension
 13
11196.76126531742
 23
9209.003900523624
 33
0.0
 14
11251.76126531742
 24
9209.003900523624
 34
0.0
100
AcDbRotatedDimension
1001
ACAD
1000
DSTYLE
1002
{
1002
}
  0
DIMENSION
  5
16CD6
330
747D
100
AcDbEntity
  8
寸法
100
AcDbDimension
  2
*D13
 10
11951.76126531742
 20
9154.003900523628
 30
0.0
 11
11951.76126531742
 21
9517.489181897865
 31
0.0
 70
   160
 71
     5
 42
54.99999999999636
  3
INABA_S40G
100
AcDbAlignedDimension
 13
11251.76126531742
 23
9209.003900523624
 33
0.0
 14
11251.76126531742
 24
9154.003900523628
 34
0.0
 50
90.0
100
AcDbRotatedDimension
1001
ACAD
1000
DSTYLE
1002
{
1002
}
  0
LINE
  5
16CD7
330
747D
100
AcDbEntity
  8
部品1
100
AcDbLine
 10
11223.76126531742
 20
9154.003900523628
 30
0.0
 11
11251.76126531742
 21
9154.003900523628
 31
0.0
  0
LINE
  5
16CD8
330
747D
100
AcDbEntity
  8
部品1
100
AcDbLine
 10
11196.76126531742
 20
9209.003900523645
 30
0.0
 11
11196.76126531742
 21
9181.003900523647
 31
0.0
  0
LINE
  5
16CD9
330
747D
100
AcDbEntity
  8
部品1
100
AcDbLine
 10
11196.76126531742
 20
9209.003900523624
 30
0.0
 11
11196.76126531742
 21
9181.003900523625
 31
0.0
  0
LINE
  5
16E8F
330
747D
100
AcDbEntity
  8
補助
  6
PHANTOM
 62
   230
 48
50.0
100
AcDbLine
 10
140.0
 20
0.0
 30
0.0
 11
139.9999999999995
 21
11409.6
 31
0.0
  0
MTEXT
  5
174DF
330
747D
100
AcDbEntity
  8
寸法
 62
     7
 48
50.0
100
AcDbMText
 10
10496.86380241055
 20
8795.238718720936
 30
0.0
 40
96.0
 41
0.0
 71
     5
 72
     1
  1
棚 2段
  7
STYLE1
 73
     1
 44
1.0
1001
ACAD
1000
MTEXTBEGIN
1070
    73
1070
     1
1070
    44
1040
1.0
1070
    74
1070
     0
1000
MTEXTEND
  0
TEXT
  5
174E1
330
747D
100
AcDbEntity
  8
文字
 62
     7
 48
50.0
100
AcDbText
 10
13209.4053442172
 20
228.543524256902
 30
0.0
 40
100.0
  1
○有効開口寸法 ： 1266×1725(mm)
  7
STYLE2
100
AcDbText
  0
TEXT
  5
174E2
330
747D
100
AcDbEntity
  8
文字
 62
     7
 48
50.0
100
AcDbText
 10
14491.96323844892
 20
483.8967129911416
 30
0.0
 40
160.0
  1
ＮＸＮ－４５ＳＡ
  7
STYLE2
100
AcDbText
  0
LINE
  5
174EB
330
747D
100
AcDbEntity
  8
部品1
 48
50.0
100
AcDbLine
 10
5518.238635219612
 20
4903.799737814541
 30
0.0
 11
5818.238635219612
 21
4882.199737814542
 31
0.0
  0
LINE
  5
174EC
330
747D
100
AcDbEntity
  8
細線
 48
50.0
100
AcDbLine
 10
5945.738635219612
 20
4537.931598713261
 30
0.0
 11
5945.738635219612
 21
2747.931598713261
 31
0.0
  0
LINE
  5
174ED
330
747D
100
AcDbEntity
  8
細線
 48
50.0
100
AcDbLine
 10
5930.738635219611
 20
4537.931598713261
 30
0.0
 11
5930.738635219611
 21
2747.931598713261
 31
0.0
  0
LINE
  5
174EE
330
747D
100
AcDbEntity
  8
細線
 48
50.0
100
AcDbLine
 10
6070.738635219612
 20
4537.931598713261
 30
0.0
 11
6070.738635219612
 21
2747.931598713261
 31
0.0
  0
LINE
  5
174EF
330
747D
100
AcDbEntity
  8
細線
 48
50.0
100
AcDbLine
 10
6085.738635219612
 20
4537.931598713261
 30
0.0
 11
6085.738635219612
 21
2747.931598713261
 31
0.0
  0
LINE
  5
174F0
330
747D
100
AcDbEntity
  8
細線
 48
50.0
100
AcDbLine
 10
6225.738635219612
 20
4537.931598713261
 30
0.0
 11
6225.738635219612
 21
2747.931598713261
 31
0.0
  0
LINE
  5
174F1
330
747D
100
AcDbEntity
  8
細線
 48
50.0
100
AcDbLine
 10
6210.738635219612
 20
4537.931598713261
 30
0.0
 11
6210.738635219612
 21
2747.931598713261
 31
0.0
  0
LINE
  5
174F2
330
747D
100
AcDbEntity
  8
部品1
100
AcDbLine
 10
5868.238635219608
 20
4537.931598713261
 30
0.0
 11
5868.238635219608
 21
2747.931598713261
 31
0.0
  0
TEXT
  5
174F3
330
747D
100
AcDbEntity
  8
部品1
 48
50.0
100
AcDbText
 10
5995.33148250747
 20
4802.182501748692
 30
0.0
 40
120.0
  1
71
 50
90.0
  7
STYLE1
100
AcDbText
  0
TEXT
  5
174F4
330
747D
100
AcDbEntity
  8
部品1
 48
50.0
100
AcDbText
 10
5506.506470443339
 20
4939.683759966975
 30
0.0
 40
120.0
  1
1000
  7
STYLE1
100
AcDbText
  0
LINE
  5
174F5
330
747D
100
AcDbEntity
  8
部品1
 48
50.0
100
AcDbLine
 10
5818.238635219612
 20
4903.799737814541
 30
0.0
 11
5818.238635219612
 21
4882.199737814542
 31
0.0
  0
LINE
  5
174F6
330
747D
100
AcDbEntity
  8
部品1
 48
50.0
100
AcDbLine
 10
5518.238635219612
 20
4903.799737814541
 30
0.0
 11
5818.238635219612
 21
4903.799737814541
 31
0.0
  0
DIMENSION
  5
174F7
330
747D
100
AcDbEntity
  8
寸法
 48
50.0
100
AcDbDimension
  2
*D15
 10
4320.972383508244
 20
4794.754089610077
 30
0.0
 11
4329.65012716013
 21
5024.590328626972
 31
0.0
 70
   160
 71
     5
 42
141.0
  3
INABA_S40G
100
AcDbAlignedDimension
 13
4928.581199821564
 23
4630.712623782229
 33
0.0
 14
4933.901033973518
 24
4771.612231179111
 34
0.0
 50
87.8377559871574
100
AcDbRotatedDimension
1001
ACAD
1000
DSTYLE
1002
{
1070
   174
1070
     0
1070
   272
1070
     1
1070
   288
1070
     0
1070
   341
1005
0
1002
}
  0
DIMENSION
  5
174F8
330
747D
100
AcDbEntity
  8
寸法
 48
50.0
100
AcDbDimension
  2
*D16
 10
6423.238635219611
 20
5171.589052292565
 30
0.0
 11
6629.2858793141
 21
5171.589052292565
 31
0.0
 70
   160
 71
     5
 42
80.0
  3
INABA_S40G
100
AcDbAlignedDimension
 13
6343.238635219612
 23
4719.742278324915
 33
0.0
 14
6423.238635219611
 24
4717.931598713263
 34
0.0
100
AcDbRotatedDimension
1001
ACAD
1000
DSTYLE
1002
{
1070
   174
1070
     0
1070
   272
1070
     1
1070
   288
1070
     0
1070
   341
1005
0
1002
}
  0
ARC
  5
174F9
330
747D
100
AcDbEntity
  8
部品1
100
AcDbCircle
 10
6408.866171033547
 20
4611.365399597478
 30
0.0
 40
0.7
100
AcDbArc
 50
275.0921697642079
 51
354.1866997667087
  0
ARC
  5
174FA
330
747D
100
AcDbEntity
  8
部品1
100
AcDbCircle
 10
6419.725516782865
 20
4688.408654415401
 30
0.0
 40
0.7
100
AcDbArc
 50
275.0921697642079
 51
354.1866997665532
  0
ARC
  5
174FB
330
747D
100
AcDbEntity
  8
部品1
100
AcDbCircle
 10
6420.053922025468
 20
4684.723257558313
 30
0.0
 40
3.0
100
AcDbArc
 50
95.09216976442012
 51
174.1866997665532
  0
ARC
  5
174FC
330
747D
100
AcDbEntity
  8
部品1
100
AcDbCircle
 10
6409.194576276142
 20
4607.680002740387
 30
0.0
 40
3.0
100
AcDbArc
 50
95.09216976420788
 51
174.1866997665532
  0
ARC
  5
174FD
330
747D
100
AcDbEntity
  8
部品1
 48
50.0
100
AcDbCircle
 10
6398.166441001041
 20
4598.089258136507
 30
0.0
 40
7.0
100
AcDbArc
 50
267.8377559869492
 51
354.1866997665532
  0
ARC
  5
174FE
330
747D
100
AcDbEntity
  8
部品1
 48
50.0
100
AcDbCircle
 10
6415.488537465556
 20
4708.99180527868
 30
0.0
 40
7.0
100
AcDbArc
 50
354.1866997665013
 51
87.03587545304044
  0
LINE
  5
174FF
330
747D
100
AcDbEntity
  8
部品1
 48
50.0
100
AcDbLine
 10
6406.210004605535
 20
4607.983864457292
 30
0.0
 11
6405.130441565794
 21
4597.380247463735
 31
0.0
  0
LINE
  5
17500
330
747D
100
AcDbEntity
  8
部品1
 48
50.0
100
AcDbLine
 10
6417.069350354857
 20
4685.027119275215
 30
0.0
 11
6409.56257109002
 21
4611.294498530203
 31
0.0
  0
LINE
  5
17501
330
747D
100
AcDbEntity
  8
部品1
 48
50.0
100
AcDbLine
 10
6422.452538030309
 20
4708.282794605904
 30
0.0
 11
6420.421916839339
 21
4688.337753348124
 31
0.0
  0
ARC
  5
17502
330
747D
100
AcDbEntity
  8
部品1
100
AcDbCircle
 10
4919.275727090975
 20
4651.745757672165
 30
0.0
 40
0.7
100
AcDbArc
 50
181.0932240292114
 51
260.1877540314845
  0
ARC
  5
17503
330
747D
100
AcDbEntity
  8
部品1
100
AcDbCircle
 10
4914.503053493366
 20
4744.611535872286
 30
0.0
 40
0.7
100
AcDbArc
 50
181.0932240292114
 51
260.1877540314845
  0
ARC
  5
17504
330
747D
100
AcDbEntity
  8
部品1
100
AcDbCircle
 10
4913.872499090342
 20
4740.965661334887
 30
0.0
 40
3.0
100
AcDbArc
 50
1.093224029263536
 51
80.18775403148449
  0
ARC
  5
17505
330
747D
100
AcDbEntity
  8
部品1
100
AcDbCircle
 10
4918.645172687949
 20
4648.099883134768
 30
0.0
 40
3.0
100
AcDbArc
 50
1.093224029315636
 51
80.18775403148449
  0
ARC
  5
17506
330
747D
100
AcDbEntity
  8
部品1
 48
50.0
100
AcDbCircle
 10
4928.845305063151
 20
4637.707639752287
 30
0.0
 40
7.0
100
AcDbArc
 50
181.0932240293156
 51
267.8377559869492
  0
ARC
  5
17507
330
747D
100
AcDbEntity
  8
部品1
 48
50.0
100
AcDbCircle
 10
4920.421646961055
 20
4764.658699285381
 30
0.0
 40
7.0
100
AcDbArc
 50
87.03587545304044
 51
181.0932240292635
  0
LINE
  5
17508
330
747D
100
AcDbEntity
  8
部品1
 48
50.0
100
AcDbLine
 10
4921.64462661438
 20
4648.157120737951
 30
0.0
 11
4921.846579234814
 21
4637.574085344859
 31
0.0
  0
LINE
  5
17509
330
747D
100
AcDbEntity
  8
細線
 48
50.0
100
AcDbLine
 10
4919.038533557708
 20
4651.08716885676
 30
0.0
 11
6409.042197988347
 21
4610.687893500691
 31
0.0
  0
LINE
  5
1750A
330
747D
100
AcDbEntity
  8
細線
 48
50.0
100
AcDbLine
 10
4914.278058320422
 20
4743.948680554622
 30
0.0
 11
6419.91404306559
 21
4687.734519532219
 31
0.0
  0
LINE
  5
1750B
330
747D
100
AcDbEntity
  8
部品1
 48
50.0
100
AcDbLine
 10
4916.871953016773
 20
4741.02289893807
 30
0.0
 11
4918.575854508141
 21
4651.732402231424
 31
0.0
  0
LINE
  5
1750C
330
747D
100
AcDbEntity
  8
部品1
 48
50.0
100
AcDbLine
 10
4913.422921132718
 20
4764.525144877954
 30
0.0
 11
4913.80318091053
 21
4744.598180431541
 31
0.0
  0
LINE
  5
1750D
330
747D
100
AcDbEntity
  8
細線
 48
50.0
100
AcDbLine
 10
6390.238635219612
 20
4717.308621366983
 30
0.0
 11
6385.490952331609
 21
4591.562848876238
 31
0.0
  0
LINE
  5
1750E
330
747D
100
AcDbEntity
  8
細線
 48
50.0
100
AcDbLine
 10
4946.238635219612
 20
4770.331275088665
 30
0.0
 11
4940.949533664102
 21
4630.245642461312
 31
0.0
  0
LINE
  5
1750F
330
747D
100
AcDbEntity
  8
部品1
100
AcDbLine
 10
4928.581199821564
 20
4630.712623782229
 30
0.0
 11
6397.902335759453
 21
4591.094242166447
 31
0.0
  0
LINE
  5
17510
330
747D
100
AcDbEntity
  8
部品1
100
AcDbLine
 10
4920.783621576571
 20
4771.649334047528
 30
0.0
 11
6415.850512081073
 21
4715.982440040825
 31
0.0
  0
LINE
  5
17511
330
747D
100
AcDbEntity
  8
細線
 48
50.0
100
AcDbLine
 10
5105.738635219609
 20
4537.931598713261
 30
0.0
 11
5105.738635219609
 21
2747.931598713261
 31
0.0
  0
LINE
  5
17512
330
747D
100
AcDbEntity
  8
細線
 48
50.0
100
AcDbLine
 10
5090.738635219608
 20
4537.931598713261
 30
0.0
 11
5090.738635219608
 21
2747.931598713261
 31
0.0
  0
LINE
  5
17513
330
747D
100
AcDbEntity
  8
細線
 48
50.0
100
AcDbLine
 10
5230.738635219609
 20
4537.931598713261
 30
0.0
 11
5230.738635219609
 21
2747.931598713261
 31
0.0
  0
LINE
  5
17514
330
747D
100
AcDbEntity
  8
細線
 48
50.0
100
AcDbLine
 10
5245.738635219608
 20
4537.931598713261
 30
0.0
 11
5245.738635219608
 21
2747.931598713261
 31
0.0
  0
LINE
  5
17515
330
747D
100
AcDbEntity
  8
細線
 48
50.0
100
AcDbLine
 10
5385.738635219608
 20
4537.931598713261
 30
0.0
 11
5385.738635219608
 21
2747.931598713261
 31
0.0
  0
LINE
  5
17516
330
747D
100
AcDbEntity
  8
細線
 48
50.0
100
AcDbLine
 10
5370.738635219608
 20
4537.931598713261
 30
0.0
 11
5370.738635219608
 21
2747.931598713261
 31
0.0
  0
LINE
  5
17517
330
747D
100
AcDbEntity
  8
細線
 48
50.0
100
AcDbLine
 10
5790.738635219608
 20
4537.931598713261
 30
0.0
 11
5790.738635219608
 21
2747.931598713261
 31
0.0
  0
LINE
  5
17518
330
747D
100
AcDbEntity
  8
細線
 48
50.0
100
AcDbLine
 10
5805.738635219608
 20
4537.931598713261
 30
0.0
 11
5805.738635219608
 21
2747.931598713261
 31
0.0
  0
LINE
  5
17519
330
747D
100
AcDbEntity
  8
細線
 48
50.0
100
AcDbLine
 10
5665.738635219608
 20
4537.931598713261
 30
0.0
 11
5665.738635219608
 21
2747.931598713261
 31
0.0
  0
LINE
  5
1751A
330
747D
100
AcDbEntity
  8
細線
 48
50.0
100
AcDbLine
 10
5650.738635219608
 20
4537.931598713261
 30
0.0
 11
5650.738635219608
 21
2747.931598713261
 31
0.0
  0
LINE
  5
1751B
330
747D
100
AcDbEntity
  8
細線
 48
50.0
100
AcDbLine
 10
5510.738635219608
 20
4537.931598713261
 30
0.0
 11
5510.738635219608
 21
2747.931598713261
 31
0.0
  0
LINE
  5
1751C
330
747D
100
AcDbEntity
  8
細線
 48
50.0
100
AcDbLine
 10
5525.738635219608
 20
4537.931598713261
 30
0.0
 11
5525.738635219608
 21
2747.931598713261
 31
0.0
  0
LINE
  5
1751D
330
747D
100
AcDbEntity
  8
部品1
100
AcDbLine
 10
5020.738635219611
 20
2697.931598713262
 30
0.0
 11
6295.738635219608
 21
2697.931598713262
 31
0.0
  0
LINE
  5
1751E
330
747D
100
AcDbEntity
  8
部品1
100
AcDbLine
 10
6335.738635219612
 20
2697.931598713262
 30
0.0
 11
6343.238635219612
 21
2697.931598713262
 31
0.0
  0
LINE
  5
1751F
330
747D
100
AcDbEntity
  8
破線
  6
HIDDEN
 48
5.0
100
AcDbLine
 10
5020.738635219611
 20
2597.931598713262
 30
0.0
 11
5020.738635219611
 21
2592.931598713262
 31
0.0
  0
LINE
  5
17520
330
747D
100
AcDbEntity
  8
破線
  6
HIDDEN
 48
5.0
100
AcDbLine
 10
4980.738635219616
 20
2597.931598713262
 30
0.0
 11
4980.738635219616
 21
2592.931598713262
 31
0.0
  0
LINE
  5
17521
330
747D
100
AcDbEntity
  8
破線
  6
HIDDEN
 48
5.0
100
AcDbLine
 10
6335.738635219608
 20
2597.931598713262
 30
0.0
 11
6335.738635219608
 21
2592.931598713262
 31
0.0
  0
LINE
  5
17522
330
747D
100
AcDbEntity
  8
破線
  6
HIDDEN
 48
5.0
100
AcDbLine
 10
6295.738635219612
 20
2597.931598713262
 30
0.0
 11
6295.738635219612
 21
2592.931598713262
 31
0.0
  0
ARC
  5
17523
330
747D
100
AcDbEntity
  8
部品1
 48
50.0
100
AcDbCircle
 10
6330.738635219612
 20
2737.931598713262
 30
0.0
 40
5.0
100
AcDbArc
 50
0.0
 51
90.0
  0
ARC
  5
17524
330
747D
100
AcDbEntity
  8
部品1
 48
50.0
100
AcDbCircle
 10
6300.738635219609
 20
2737.931598713262
 30
0.0
 40
5.0
100
AcDbArc
 50
90.0
 51
180.0
  0
LINE
  5
17525
330
747D
100
AcDbEntity
  8
部品1
100
AcDbLine
 10
6330.738635219612
 20
2742.931598713262
 30
0.0
 11
6300.738635219609
 21
2742.931598713262
 31
0.0
  0
LINE
  5
17526
330
747D
100
AcDbEntity
  8
部品1
 48
50.0
100
AcDbLine
 10
6335.738635219612
 20
2737.931598713262
 30
0.0
 11
6335.738635219608
 21
2597.931598713262
 31
0.0
  0
LINE
  5
17527
330
747D
100
AcDbEntity
  8
部品1
 48
50.0
100
AcDbLine
 10
6295.738635219608
 20
2737.931598713262
 30
0.0
 11
6295.738635219612
 21
2597.931598713262
 31
0.0
  0
ARC
  5
17528
330
747D
100
AcDbEntity
  8
部品1
 48
50.0
100
AcDbCircle
 10
5015.738635219612
 20
2737.931598713262
 30
0.0
 40
5.0
100
AcDbArc
 50
0.0
 51
90.0
  0
ARC
  5
17529
330
747D
100
AcDbEntity
  8
部品1
 48
50.0
100
AcDbCircle
 10
4985.738635219608
 20
2737.931598713262
 30
0.0
 40
5.0
100
AcDbArc
 50
90.0
 51
180.0
  0
LINE
  5
1752A
330
747D
100
AcDbEntity
  8
部品1
100
AcDbLine
 10
4985.738635219608
 20
2742.931598713262
 30
0.0
 11
5015.738635219612
 21
2742.931598713262
 31
0.0
  0
LINE
  5
1752B
330
747D
100
AcDbEntity
  8
部品1
 48
50.0
100
AcDbLine
 10
5020.738635219611
 20
2737.931598713262
 30
0.0
 11
5020.738635219608
 21
2597.931598713262
 31
0.0
  0
LINE
  5
1752C
330
747D
100
AcDbEntity
  8
部品1
 48
50.0
100
AcDbLine
 10
4980.738635219609
 20
2737.931598713262
 30
0.0
 11
4980.738635219612
 21
2597.931598713262
 31
0.0
  0
LINE
  5
1752D
330
747D
100
AcDbEntity
  8
破線
  6
HIDDEN
 48
5.0
100
AcDbLine
 10
5020.738635219611
 20
2592.931598713262
 30
0.0
 11
5035.738635219612
 21
2445.231598713261
 31
0.0
  0
LINE
  5
1752E
330
747D
100
AcDbEntity
  8
破線
  6
HIDDEN
 48
5.0
100
AcDbLine
 10
4980.738635219612
 20
2592.931598713262
 30
0.0
 11
4965.738635219608
 21
2445.231598713261
 31
0.0
  0
LINE
  5
1752F
330
747D
100
AcDbEntity
  8
破線
  6
HIDDEN
 48
5.0
100
AcDbLine
 10
5035.738635219612
 20
2445.231598713261
 30
0.0
 11
5035.738635219608
 21
2442.931598713262
 31
0.0
  0
LINE
  5
17530
330
747D
100
AcDbEntity
  8
破線
  6
HIDDEN
 48
5.0
100
AcDbLine
 10
4965.738635219608
 20
2445.231598713261
 30
0.0
 11
4965.738635219608
 21
2442.931598713262
 31
0.0
  0
LINE
  5
17531
330
747D
100
AcDbEntity
  8
破線
  6
HIDDEN
 48
5.0
100
AcDbLine
 10
4965.738635219608
 20
2442.931598713262
 30
0.0
 11
5035.738635219608
 21
2442.931598713262
 31
0.0
  0
LINE
  5
17532
330
747D
100
AcDbEntity
  8
破線
  6
HIDDEN
 48
5.0
100
AcDbLine
 10
6350.738635219612
 20
2445.231598713261
 30
0.0
 11
6350.738635219612
 21
2442.931598713262
 31
0.0
  0
LINE
  5
17533
330
747D
100
AcDbEntity
  8
破線
  6
HIDDEN
 48
5.0
100
AcDbLine
 10
6335.738635219612
 20
2592.931598713262
 30
0.0
 11
6350.738635219612
 21
2445.231598713261
 31
0.0
  0
LINE
  5
17534
330
747D
100
AcDbEntity
  8
破線
  6
HIDDEN
 48
5.0
100
AcDbLine
 10
6280.738635219612
 20
2445.231598713261
 30
0.0
 11
6280.738635219612
 21
2442.931598713262
 31
0.0
  0
LINE
  5
17535
330
747D
100
AcDbEntity
  8
破線
  6
HIDDEN
 48
5.0
100
AcDbLine
 10
6295.738635219608
 20
2592.931598713262
 30
0.0
 11
6280.738635219612
 21
2445.231598713261
 31
0.0
  0
LINE
  5
17536
330
747D
100
AcDbEntity
  8
破線
  6
HIDDEN
 48
5.0
100
AcDbLine
 10
6350.738635219612
 20
2442.931598713262
 30
0.0
 11
6280.738635219612
 21
2442.931598713262
 31
0.0
  0
DIMENSION
  5
17537
330
747D
100
AcDbEntity
  8
寸法
 48
50.0
100
AcDbDimension
  2
*D17
 10
4913.238635219612
 20
5379.76337348453
 30
0.0
 11
5640.363464921432
 21
5379.76337348453
 31
0.0
 70
   160
 71
     5
 42
1510.0
  3
INABA_S40G
100
AcDbAlignedDimension
 13
6423.238635219611
 23
4717.931598713263
 33
0.0
 14
4913.238635219612
 24
4772.931598713266
 34
0.0
100
AcDbRotatedDimension
1001
ACAD
1000
DSTYLE
1002
{
1070
   174
1070
     0
1070
   272
1070
     1
1070
   288
1070
     0
1070
   341
1005
0
1002
}
  0
DIMENSION
  5
17538
330
747D
100
AcDbEntity
  8
寸法
 48
50.0
100
AcDbDimension
  2
*D18
 10
4913.238635219612
 20
5171.589052292565
 30
0.0
 11
4603.600839944017
 21
5171.589052292565
 31
0.0
 70
   160
 71
     5
 42
60.0
  3
INABA_S40G
100
AcDbAlignedDimension
 13
4973.238635219612
 23
4768.933216836238
 33
0.0
 14
4913.238635219612
 24
4772.931598713266
 34
0.0
100
AcDbRotatedDimension
1001
ACAD
1000
DSTYLE
1002
{
1070
   174
1070
     0
1070
   272
1070
     1
1070
   288
1070
     0
1070
   341
1005
0
1002
}
  0
DIMENSION
  5
17539
330
747D
100
AcDbEntity
  8
寸法
 48
50.0
100
AcDbDimension
  2
*D19
 10
4973.238635219612
 20
5171.589052292565
 30
0.0
 11
5623.057668110156
 21
5171.589052292565
 31
0.0
 70
   160
  1
柱外寸法<>
 71
     5
 42
1370.0
  3
INABA_S40G
100
AcDbAlignedDimension
 13
6343.238635219612
 23
4719.742278324915
 33
0.0
 14
4973.238635219612
 24
4768.933216836238
 34
0.0
100
AcDbRotatedDimension
1001
ACAD
1000
DSTYLE
1002
{
1070
   174
1070
     0
1070
   272
1070
     1
1070
   288
1070
     0
1070
   341
1005
0
1002
}
  0
LINE
  5
1753A
330
747D
100
AcDbEntity
  8
部品1
100
AcDbLine
 10
6143.238635219612
 20
2697.931598713262
 30
0.0
 11
6143.238635219612
 21
2597.931598713262
 31
0.0
  0
LINE
  5
1753B
330
747D
100
AcDbEntity
  8
部品1
100
AcDbLine
 10
5173.238635219608
 20
2697.931598713262
 30
0.0
 11
5173.238635219608
 21
2597.931598713262
 31
0.0
  0
DIMENSION
  5
1753C
330
747D
100
AcDbEntity
  8
寸法
100
AcDbDimension
  2
*D20
 10
6896.859644800255
 20
4717.931598713263
 30
0.0
 11
6896.859644800255
 21
3716.887133405384
 31
0.0
 70
   160
 71
     5
 42
2020.000000000003
  3
INABA_S40G
100
AcDbAlignedDimension
 13
6420.238635219615
 23
2697.931598713261
 33
0.0
 14
6423.238635219611
 24
4717.931598713263
 34
0.0
 50
90.0
100
AcDbRotatedDimension
1001
ACAD
1000
DSTYLE
1002
{
1070
   174
1070
     0
1070
   272
1070
     1
1070
   288
1070
     0
1070
   341
1005
0
1002
}
  0
LINE
  5
1753D
330
747D
100
AcDbEntity
  8
部品1
100
AcDbLine
 10
6288.238635219612
 20
4537.931598713261
 30
0.0
 11
6288.238635219612
 21
2747.931598713261
 31
0.0
  0
LINE
  5
1753E
330
747D
100
AcDbEntity
  8
部品1
100
AcDbLine
 10
6343.238635219608
 20
4592.568179548514
 30
0.0
 11
6343.238635219612
 21
2597.931598713262
 31
0.0
  0
LINE
  5
1753F
330
747D
100
AcDbEntity
  8
部品1
100
AcDbLine
 10
5448.238635219608
 20
4537.931598713261
 30
0.0
 11
5448.238635219608
 21
2747.931598713261
 31
0.0
  0
LINE
  5
17540
330
747D
100
AcDbEntity
  8
部品1
100
AcDbLine
 10
4973.238635219615
 20
4629.508492653704
 30
0.0
 11
4973.238635219608
 21
2597.931598713262
 31
0.0
  0
LINE
  5
17541
330
747D
100
AcDbEntity
  8
部品1
100
AcDbLine
 10
5028.238635219608
 20
4537.931598713261
 30
0.0
 11
5028.238635219608
 21
2747.931598713261
 31
0.0
  0
LINE
  5
17542
330
747D
100
AcDbEntity
  8
部品1
100
AcDbLine
 10
4973.238635219608
 20
2697.931598713262
 30
0.0
 11
4980.738635219609
 21
2697.931598713262
 31
0.0
  0
LINE
  5
17543
330
747D
100
AcDbEntity
  8
部品1
100
AcDbLine
 10
4973.238635219608
 20
2747.931598713261
 30
0.0
 11
6343.238635219615
 21
2747.931598713261
 31
0.0
  0
LINE
  5
17544
330
747D
100
AcDbEntity
  8
部品1
100
AcDbLine
 10
4973.238635219608
 20
4537.931598713261
 30
0.0
 11
6343.238635219612
 21
4537.931598713261
 31
0.0
  0
LINE
  5
17545
330
747D
100
AcDbEntity
  8
部品1
 48
50.0
100
AcDbLine
 10
6343.238635219615
 20
4532.931598713261
 30
0.0
 11
6420.238635219615
 21
4522.931598713261
 31
0.0
  0
LINE
  5
17546
330
747D
100
AcDbEntity
  8
部品1
 48
50.0
100
AcDbLine
 10
6420.238635219615
 20
4522.931598713261
 30
0.0
 11
6420.238635219615
 21
2597.931598713262
 31
0.0
  0
LINE
  5
17547
330
747D
100
AcDbEntity
  8
部品1
 48
50.0
100
AcDbLine
 10
6420.238635219615
 20
2697.931598713262
 30
0.0
 11
6343.238635219612
 21
2697.931598713262
 31
0.0
  0
DIMENSION
  5
17548
330
747D
100
AcDbEntity
  8
寸法
100
AcDbDimension
  2
*D21
 10
4349.585926061311
 20
2747.931598713261
 30
0.0
 11
4349.585926061311
 21
3638.385897255218
 31
0.0
 70
   160
 71
     5
 42
1790.0
  3
INABA_S40G
100
AcDbAlignedDimension
 13
4973.238635219612
 23
4537.93159871326
 33
0.0
 14
4973.238635219612
 24
2747.931598713261
 34
0.0
 50
90.0
100
AcDbRotatedDimension
1001
ACAD
1000
DSTYLE
1002
{
1070
   174
1070
     0
1070
   272
1070
     1
1070
   288
1070
     0
1070
   341
1005
0
1002
}
  0
DIMENSION
  5
17549
330
747D
100
AcDbEntity
  8
寸法
100
AcDbDimension
  2
*D22
 10
4064.59925329025
 20
4772.931598713265
 30
0.0
 11
4064.599253290249
 21
3692.137476206371
 31
0.0
 70
   160
 71
     5
 42
2075.000000000005
  3
INABA_S40G
100
AcDbAlignedDimension
 13
4973.238635219612
 23
2697.931598713261
 33
0.0
 14
4913.238635219612
 24
4772.931598713265
 34
0.0
 50
90.0
100
AcDbRotatedDimension
1001
ACAD
1000
DSTYLE
1002
{
1070
   174
1070
     0
1070
   272
1070
     1
1070
   288
1070
     0
1070
   341
1005
0
1002
}
  0
DIMENSION
  5
1754A
330
747D
100
AcDbEntity
  8
寸法
100
AcDbDimension
  2
*D23
 10
4064.599253290249
 20
2597.931598713261
 30
0.0
 11
4064.599253290249
 21
2361.884354618768
 31
0.0
 70
   160
 71
     5
 42
100.0
  3
INABA_S40G
100
AcDbAlignedDimension
 13
4918.238635219612
 23
2697.931598713261
 33
0.0
 14
4349.585926061311
 24
2597.931598713261
 34
0.0
 50
90.0
100
AcDbRotatedDimension
1001
ACAD
1000
DSTYLE
1002
{
1070
   174
1070
     0
1070
   272
1070
     1
1070
   288
1070
     0
1070
   341
1005
0
1002
}
  0
DIMENSION
  5
1754B
330
747D
100
AcDbEntity
  8
寸法
100
AcDbDimension
  2
*D24
 10
4349.585926061311
 20
2697.931598713261
 30
0.0
 11
4349.585926061311
 21
2391.884354618768
 31
0.0
 70
   160
 71
     5
 42
50.0
  3
INABA_S40G
100
AcDbAlignedDimension
 13
4973.238635219612
 23
2747.931598713261
 33
0.0
 14
4918.238635219612
 24
2697.931598713261
 34
0.0
 50
90.0
100
AcDbRotatedDimension
1001
ACAD
1000
DSTYLE
1002
{
1070
   174
1070
     0
1070
   272
1070
     1
1070
   288
1070
     0
1070
   341
1005
0
1002
}
  0
TEXT
  5
1754E
330
747D
100
AcDbEntity
  8
文字
 62
     7
 48
50.0
100
AcDbText
 10
14892.7563502105
 20
9740.013745883725
 30
0.0
 40
100.0
  1
F12  1.0(多雪地型2.3,1.6)
  7
STYLE1
100
AcDbText
  0
TEXT
  5
1754F
330
747D
100
AcDbEntity
  8
文字
 62
     7
 48
50.0
100
AcDbText
 10
13248.77747366447
 20
8380.013745883728
 30
0.0
 40
100.0
  1
17
  7
STYLE1
100
AcDbText
  0
TEXT
  5
17550
330
747D
100
AcDbEntity
  8
文字
 62
     7
 48
50.0
100
AcDbText
 10
13248.77747366447
 20
8550.013745883729
 30
0.0
 40
100.0
  1
16
  7
STYLE1
100
AcDbText
  0
TEXT
  5
17551
330
747D
100
AcDbEntity
  8
文字
 62
     7
 48
50.0
100
AcDbText
 10
15022.63965474517
 20
9060.013745883725
 30
0.0
 40
100.0
  1
F12            1.0
  7
STYLE1
100
AcDbText
  0
TEXT
  5
17552
330
747D
100
AcDbEntity
  8
文字
 62
     7
 48
50.0
100
AcDbText
 10
13583.11819016569
 20
9060.013745883733
 30
0.0
 40
100.0
  1
壁面扉枠左右
  7
STYLE1
100
AcDbText
  0
TEXT
  5
17553
330
747D
100
AcDbEntity
  8
文字
 62
     7
 48
50.0
100
AcDbText
 10
15022.63965474517
 20
9230.013745883725
 30
0.0
 40
100.0
  1
F12            1.0
  7
STYLE1
100
AcDbText
  0
TEXT
  5
17554
330
747D
100
AcDbEntity
  8
文字
 62
     7
 48
50.0
100
AcDbText
 10
15022.63965474515
 20
9400.013745883727
 30
0.0
 40
100.0
  1
F12            0.7
  7
STYLE1
100
AcDbText
  0
TEXT
  5
17555
330
747D
100
AcDbEntity
  8
文字
 62
     7
 48
50.0
100
AcDbText
 10
13583.11819016569
 20
9230.013745883733
 30
0.0
 40
100.0
  1
壁面扉敷居
  7
STYLE1
100
AcDbText
  0
TEXT
  5
17556
330
747D
100
AcDbEntity
  8
文字
 62
     7
 48
50.0
100
AcDbText
 10
13583.11819016569
 20
9400.013745883729
 30
0.0
 40
100.0
  1
壁面扉鴨居
  7
STYLE1
100
AcDbText
  0
LINE
  5
17557
330
747D
100
AcDbEntity
  8
仕様書枠
 48
50.0
100
AcDbLine
 10
16307.19999999999
 20
8689.600000000003
 30
0.0
 11
13127.2
 21
8689.600000000005
 31
0.0
  0
LINE
  5
17558
330
747D
100
AcDbEntity
  8
仕様書枠
 48
50.0
100
AcDbLine
 10
16307.19999999999
 20
8519.600000000004
 30
0.0
 11
13127.2
 21
8519.600000000005
 31
0.0
  0
TEXT
  5
17559
330
747D
100
AcDbEntity
  8
文字
 62
     7
 48
50.0
100
AcDbText
 10
13583.11819016569
 20
8380.013745883728
 30
0.0
 40
100.0
  1
アンカープレート
  7
STYLE1
100
AcDbText
  0
TEXT
  5
1755A
330
747D
100
AcDbEntity
  8
文字
 62
     7
 48
50.0
100
AcDbText
 10
15022.63965474515
 20
8380.013745883724
 30
0.0
 40
100.0
  1
F12            2.3
  7
STYLE1
100
AcDbText
  0
LINE
  5
1755B
330
747D
100
AcDbEntity
  8
仕様書枠
 48
50.0
100
AcDbLine
 10
16307.2
 20
10049.6
 30
0.0
 11
13127.2
 21
10049.6
 31
0.0
  0
LINE
  5
1755C
330
747D
100
AcDbEntity
  8
仕様書枠
 48
50.0
100
AcDbLine
 10
16307.2
 20
11409.59999999999
 30
0.0
 11
13127.2
 21
11409.6
 31
0.0
  0
LINE
  5
1755D
330
747D
100
AcDbEntity
  8
仕様書枠
 48
50.0
100
AcDbLine
 10
16307.19999999999
 20
8009.600000000004
 30
0.0
 11
16307.2
 21
11409.6
 31
0.0
  0
LINE
  5
1755E
330
747D
100
AcDbEntity
  8
仕様書枠
 48
50.0
100
AcDbLine
 10
14785.2
 20
11409.59999999999
 30
0.0
 11
14785.2
 21
8349.600000000004
 31
0.0
  0
LINE
  5
1755F
330
747D
100
AcDbEntity
  8
仕様書枠
 48
50.0
100
AcDbLine
 10
13490.2
 20
11409.59999999999
 30
0.0
 11
13490.20000000001
 21
8349.600000000007
 31
0.0
  0
LINE
  5
17560
330
747D
100
AcDbEntity
  8
仕様書枠
 48
50.0
100
AcDbLine
 10
16307.2
 20
11239.59999999999
 30
0.0
 11
13127.2
 21
11239.6
 31
0.0
  0
LINE
  5
17561
330
747D
100
AcDbEntity
  8
仕様書枠
 48
50.0
100
AcDbLine
 10
16307.2
 20
10899.6
 30
0.0
 11
13127.2
 21
10899.6
 31
0.0
  0
LINE
  5
17562
330
747D
100
AcDbEntity
  8
仕様書枠
 48
50.0
100
AcDbLine
 10
16307.2
 20
11069.59999999999
 30
0.0
 11
13127.2
 21
11069.6
 31
0.0
  0
LINE
  5
17563
330
747D
100
AcDbEntity
  8
仕様書枠
 48
50.0
100
AcDbLine
 10
16307.19999999999
 20
10559.6
 30
0.0
 11
13127.2
 21
10559.6
 31
0.0
  0
LINE
  5
17564
330
747D
100
AcDbEntity
  8
仕様書枠
 48
50.0
100
AcDbLine
 10
16307.19999999999
 20
10389.6
 30
0.0
 11
13127.2
 21
10389.6
 31
0.0
  0
LINE
  5
17565
330
747D
100
AcDbEntity
  8
仕様書枠
 48
50.0
100
AcDbLine
 10
16307.19999999999
 20
10729.59999999999
 30
0.0
 11
13127.2
 21
10729.6
 31
0.0
  0
TEXT
  5
17566
330
747D
100
AcDbEntity
  8
文字
 62
     7
 48
50.0
100
AcDbText
 10
13197.42518560407
 20
11270.01374588372
 30
0.0
 40
100.0
  1
品番
  7
STYLE1
100
AcDbText
  0
TEXT
  5
17567
330
747D
100
AcDbEntity
  8
文字
 62
     7
 48
50.0
100
AcDbText
 10
13271.19032244792
 20
11100.01374588373
 30
0.0
 40
100.0
  1
1
  7
STYLE1
100
AcDbText
  0
TEXT
  5
17568
330
747D
100
AcDbEntity
  8
文字
 62
     7
 48
50.0
100
AcDbText
 10
13271.19032244792
 20
10930.01374588373
 30
0.0
 40
100.0
  1
2
  7
STYLE1
100
AcDbText
  0
TEXT
  5
17569
330
747D
100
AcDbEntity
  8
文字
 62
     7
 48
50.0
100
AcDbText
 10
13271.19032244792
 20
10590.01374588373
 30
0.0
 40
100.0
  1
4
  7
STYLE1
100
AcDbText
  0
TEXT
  5
1756A
330
747D
100
AcDbEntity
  8
文字
 62
     7
 48
50.0
100
AcDbText
 10
13271.19032244792
 20
10760.01374588373
 30
0.0
 40
100.0
  1
3
  7
STYLE1
100
AcDbText
  0
TEXT
  5
1756B
330
747D
100
AcDbEntity
  8
文字
 62
     7
 48
50.0
100
AcDbText
 10
13732.03840939434
 20
11270.01374588372
 30
0.0
 40
100.0
  1
部　　品　　名
  7
STYLE1
100
AcDbText
  0
TEXT
  5
1756C
330
747D
100
AcDbEntity
  8
文字
 62
     7
 48
50.0
100
AcDbText
 10
14859.79774614482
 20
11270.01374588372
 30
0.0
 40
100.0
  1
材料（材質）　　単位mm
  7
STYLE1
100
AcDbText
  0
TEXT
  5
1756D
330
747D
100
AcDbEntity
  8
文字
 62
     7
 48
50.0
100
AcDbText
 10
13583.11819016569
 20
11100.01374588372
 30
0.0
 40
100.0
  1
土台枠
  7
STYLE1
100
AcDbText
  0
TEXT
  5
1756E
330
747D
100
AcDbEntity
  8
文字
 62
     7
 48
50.0
100
AcDbText
 10
13583.1181901657
 20
10760.01374588372
 30
0.0
 40
100.0
  1
柱
  7
STYLE1
100
AcDbText
  0
TEXT
  5
1756F
330
747D
100
AcDbEntity
  8
文字
 62
     7
 48
50.0
100
AcDbText
 10
13583.11819016569
 20
10420.01374588373
 30
0.0
 40
100.0
  1
桁前後
  7
STYLE1
100
AcDbText
  0
TEXT
  5
17570
330
747D
100
AcDbEntity
  8
文字
 62
     7
 48
50.0
100
AcDbText
 10
13271.19032244792
 20
10420.01374588372
 30
0.0
 40
100.0
  1
5
  7
STYLE1
100
AcDbText
  0
TEXT
  5
17571
330
747D
100
AcDbEntity
  8
文字
 62
     7
 48
50.0
100
AcDbText
 10
13583.11819016569
 20
10250.01374588373
 30
0.0
 40
100.0
  1
妻板左右
  7
STYLE1
100
AcDbText
  0
TEXT
  5
17572
330
747D
100
AcDbEntity
  8
文字
 62
     7
 48
50.0
100
AcDbText
 10
13248.77747366447
 20
9570.013745883727
 30
0.0
 40
100.0
  1
10
  7
STYLE1
100
AcDbText
  0
TEXT
  5
17573
330
747D
100
AcDbEntity
  8
文字
 62
     7
 48
50.0
100
AcDbText
 10
13583.11819016568
 20
9570.013745883729
 30
0.0
 40
100.0
  1
壁パネル
  7
STYLE1
100
AcDbText
  0
TEXT
  5
17574
330
747D
100
AcDbEntity
  8
文字
 62
     7
 48
50.0
100
AcDbText
 10
13583.11819016569
 20
9910.013745883727
 30
0.0
 40
100.0
  1
屋根パネル
  7
STYLE1
100
AcDbText
  0
TEXT
  5
17575
330
747D
100
AcDbEntity
  8
文字
 62
     7
 48
50.0
100
AcDbText
 10
13583.11819016569
 20
10080.01374588372
 30
0.0
 40
100.0
  1
鼻隠シ前後
  7
STYLE1
100
AcDbText
  0
TEXT
  5
17576
330
747D
100
AcDbEntity
  8
文字
 62
     7
 48
50.0
100
AcDbText
 10
13271.19032244792
 20
9910.01374588373
 30
0.0
 40
100.0
  1
8
  7
STYLE1
100
AcDbText
  0
TEXT
  5
17577
330
747D
100
AcDbEntity
  8
文字
 62
     7
 48
50.0
100
AcDbText
 10
13271.19032244792
 20
9740.013745883729
 30
0.0
 40
100.0
  1
9
  7
STYLE1
100
AcDbText
  0
TEXT
  5
17578
330
747D
100
AcDbEntity
  8
文字
 62
     7
 48
50.0
100
AcDbText
 10
13271.19032244792
 20
10080.01374588373
 30
0.0
 40
100.0
  1
7
  7
STYLE1
100
AcDbText
  0
TEXT
  5
17579
330
747D
100
AcDbEntity
  8
文字
 62
     7
 48
50.0
100
AcDbText
 10
13271.19032244792
 20
10250.01374588373
 30
0.0
 40
100.0
  1
6
  7
STYLE1
100
AcDbText
  0
LINE
  5
1757A
330
747D
100
AcDbEntity
  8
仕様書枠
 48
50.0
100
AcDbLine
 10
16307.19999999999
 20
9709.6
 30
0.0
 11
13127.2
 21
9709.600000000001
 31
0.0
  0
LINE
  5
1757B
330
747D
100
AcDbEntity
  8
仕様書枠
 48
50.0
100
AcDbLine
 10
16307.19999999999
 20
9369.599999999998
 30
0.0
 11
13127.2
 21
9369.600000000001
 31
0.0
  0
LINE
  5
1757C
330
747D
100
AcDbEntity
  8
仕様書枠
 48
50.0
100
AcDbLine
 10
16307.19999999999
 20
9539.599999999998
 30
0.0
 11
13127.2
 21
9539.6
 31
0.0
  0
LINE
  5
1757D
330
747D
100
AcDbEntity
  8
仕様書枠
 48
50.0
100
AcDbLine
 10
16307.2
 20
10219.6
 30
0.0
 11
13127.2
 21
10219.6
 31
0.0
  0
LINE
  5
1757E
330
747D
100
AcDbEntity
  8
仕様書枠
 48
50.0
100
AcDbLine
 10
16307.2
 20
9879.599999999999
 30
0.0
 11
13127.2
 21
9879.600000000001
 31
0.0
  0
TEXT
  5
1757F
330
747D
100
AcDbEntity
  8
文字
 62
     7
 48
50.0
100
AcDbText
 10
13248.77747366447
 20
9400.013745883727
 30
0.0
 40
100.0
  1
11
  7
STYLE1
100
AcDbText
  0
LINE
  5
17580
330
747D
100
AcDbEntity
  8
仕様書枠
 48
50.0
100
AcDbLine
 10
16307.19999999999
 20
9199.599999999998
 30
0.0
 11
13127.2
 21
9199.600000000001
 31
0.0
  0
LINE
  5
17581
330
747D
100
AcDbEntity
  8
仕様書枠
 48
50.0
100
AcDbLine
 10
16307.19999999999
 20
8859.6
 30
0.0
 11
13127.2
 21
8859.600000000002
 31
0.0
  0
TEXT
  5
17582
330
747D
100
AcDbEntity
  8
文字
 62
     7
 48
50.0
100
AcDbText
 10
13248.77747366448
 20
9060.013745883727
 30
0.0
 40
100.0
  1
13
  7
STYLE1
100
AcDbText
  0
TEXT
  5
17583
330
747D
100
AcDbEntity
  8
文字
 62
     7
 48
50.0
100
AcDbText
 10
13248.77747366448
 20
9230.013745883727
 30
0.0
 40
100.0
  1
12
  7
STYLE1
100
AcDbText
  0
TEXT
  5
17584
330
747D
100
AcDbEntity
  8
文字
 62
     7
 48
50.0
100
AcDbText
 10
15022.63965474517
 20
11100.01374588372
 30
0.0
 40
100.0
  1
F12            1.2
  7
STYLE1
100
AcDbText
  0
TEXT
  5
17585
330
747D
100
AcDbEntity
  8
文字
 62
     7
 48
50.0
100
AcDbText
 10
15022.63965474518
 20
10760.01374588372
 30
0.0
 40
100.0
  1
F12            1.0
  7
STYLE1
100
AcDbText
  0
TEXT
  5
17586
330
747D
100
AcDbEntity
  8
文字
 62
     7
 48
50.0
100
AcDbText
 10
15022.63965474516
 20
10420.01374588372
 30
0.0
 40
100.0
  1
Y10            1.0
  7
STYLE1
100
AcDbText
  0
TEXT
  5
17587
330
747D
100
AcDbEntity
  8
文字
 62
     7
 48
50.0
100
AcDbText
 10
15022.63965474516
 20
10250.01374588372
 30
0.0
 40
100.0
  1
Y10            0.7
  7
STYLE1
100
AcDbText
  0
TEXT
  5
17588
330
747D
100
AcDbEntity
  8
文字
 62
     7
 48
50.0
100
AcDbText
 10
15022.63965474516
 20
10080.01374588372
 30
0.0
 40
100.0
  1
Y10            0.7
  7
STYLE1
100
AcDbText
  0
TEXT
  5
17589
330
747D
100
AcDbEntity
  8
文字
 62
     7
 48
50.0
100
AcDbText
 10
15022.63965474517
 20
9910.013745883725
 30
0.0
 40
100.0
  1
Y10            0.5
  7
STYLE1
100
AcDbText
  0
TEXT
  5
1758A
330
747D
100
AcDbEntity
  8
文字
 62
     7
 48
50.0
100
AcDbText
 10
15022.63965474515
 20
9570.013745883725
 30
0.0
 40
100.0
  1
F12            0.6
  7
STYLE1
100
AcDbText
  0
LINE
  5
1758B
330
747D
100
AcDbEntity
  8
仕様書枠
 48
50.0
100
AcDbLine
 10
16307.19999999999
 20
8349.600000000004
 30
0.0
 11
13127.19999999999
 21
8349.600000000007
 31
0.0
  0
LINE
  5
1758C
330
747D
100
AcDbEntity
  8
仕様書枠
 48
50.0
100
AcDbLine
 10
16307.19999999999
 20
8179.600000000004
 30
0.0
 11
13127.19999999999
 21
8179.600000000005
 31
0.0
  0
TEXT
  5
1758D
330
747D
100
AcDbEntity
  8
文字
 62
     7
 48
50.0
100
AcDbText
 10
13229.83081656554
 20
8210.013745883733
 30
0.0
 40
100.0
  1
F12→溶融亜鉛めっき鋼板(JIS G 3302)
  7
STYLE1
100
AcDbText
  0
TEXT
  5
1758E
330
747D
100
AcDbEntity
  8
文字
 62
     7
 48
50.0
100
AcDbText
 10
13229.83081656554
 20
8040.013745883731
 30
0.0
 40
100.0
  1
Y10→溶融亜鉛-5％アルミニウム合金めっき鋼板(JIS G 3317)
 41
0.9
  7
STYLE1
100
AcDbText
  0
LINE
  5
1758F
330
747D
100
AcDbEntity
  8
仕様書枠
 48
50.0
100
AcDbLine
 10
13127.2
 20
11409.6
 30
0.0
 11
13127.19999999999
 21
8009.600000000006
 31
0.0
  0
LINE
  5
17590
330
747D
100
AcDbEntity
  8
仕様書枠
 48
50.0
100
AcDbLine
 10
16307.19999999999
 20
9029.6
 30
0.0
 11
13127.2
 21
9029.600000000002
 31
0.0
  0
TEXT
  5
17591
330
747D
100
AcDbEntity
  8
文字
 62
     7
 48
50.0
100
AcDbText
 10
13583.1181901657
 20
10590.01374588372
 30
0.0
 40
100.0
  1
床パネル
 41
0.9
  7
STYLE1
100
AcDbText
  0
TEXT
  5
17592
330
747D
100
AcDbEntity
  8
文字
 62
     7
 48
50.0
100
AcDbText
 10
13583.11819016569
 20
10930.01374588372
 30
0.0
 40
100.0
  1
根太
  7
STYLE1
100
AcDbText
  0
TEXT
  5
17593
330
747D
100
AcDbEntity
  8
文字
 62
     7
 48
50.0
100
AcDbText
 10
13248.77747366448
 20
8890.013745883727
 30
0.0
 40
100.0
  1
14
  7
STYLE1
100
AcDbText
  0
TEXT
  5
17594
330
747D
100
AcDbEntity
  8
文字
 62
     7
 48
50.0
100
AcDbText
 10
15022.63965474516
 20
10930.01374588372
 30
0.0
 40
100.0
  1
F12            1.2
  7
STYLE1
100
AcDbText
  0
TEXT
  5
17595
330
747D
100
AcDbEntity
  8
文字
 62
     7
 48
50.0
100
AcDbText
 10
15022.63965474517
 20
10590.01374588372
 30
0.0
 40
100.0
  1
F12            1.0
  7
STYLE1
100
AcDbText
  0
TEXT
  5
17596
330
747D
100
AcDbEntity
  8
文字
 62
     7
 48
50.0
100
AcDbText
 10
15022.63965474515
 20
8890.013745883727
 30
0.0
 40
100.0
  1
F12            0.7
  7
STYLE1
100
AcDbText
  0
TEXT
  5
17597
330
747D
100
AcDbEntity
  8
文字
 62
     7
 48
50.0
100
AcDbText
 10
13583.11819016568
 20
8890.013745883731
 30
0.0
 40
100.0
  1
正面パネル
  7
STYLE1
100
AcDbText
  0
TEXT
  5
17598
330
747D
100
AcDbEntity
  8
文字
 62
     7
 48
50.0
100
AcDbText
 10
15022.63965474516
 20
8720.013745883727
 30
0.0
 40
100.0
  1
F12            0.8
  7
STYLE1
100
AcDbText
  0
TEXT
  5
17599
330
747D
100
AcDbEntity
  8
文字
 62
     7
 48
50.0
100
AcDbText
 10
13583.11819016569
 20
8720.013745883731
 30
0.0
 40
100.0
  1
扉
  7
STYLE1
100
AcDbText
  0
LINE
  5
1759A
330
747D
100
AcDbEntity
  8
仕様書枠
 48
50.0
100
AcDbLine
 10
16307.19999999999
 20
8009.600000000004
 30
0.0
 11
13127.19999999999
 21
8009.600000000006
 31
0.0
  0
TEXT
  5
1759B
330
747D
100
AcDbEntity
  8
文字
 62
     7
 48
50.0
100
AcDbText
 10
13248.77747366447
 20
8720.013745883729
 30
0.0
 40
100.0
  1
15
  7
STYLE1
100
AcDbText
  0
TEXT
  5
1759C
330
747D
100
AcDbEntity
  8
文字
 62
     7
 48
50.0
100
AcDbText
 10
13583.11819016569
 20
9740.013745883729
 30
0.0
 40
100.0
  1
母屋中
  7
STYLE1
100
AcDbText
  0
TEXT
  5
1759D
330
747D
100
AcDbEntity
  8
文字
 62
     7
 48
50.0
100
AcDbText
 10
15022.63965474516
 20
8550.013745883727
 30
0.0
 40
100.0
  1
F12            0.6
  7
STYLE1
100
AcDbText
  0
TEXT
  5
1759E
330
747D
100
AcDbEntity
  8
文字
 62
     7
 48
50.0
100
AcDbText
 10
13583.11819016569
 20
8550.013745883731
 30
0.0
 40
100.0
  1
棚板
  7
STYLE1
100
AcDbText
  0
LINE
  5
17614
330
747D
100
AcDbEntity
  8
部品1
100
AcDbLine
 10
6049.97396833383
 20
1718.616055738302
 30
0.0
 11
5286.503302105391
 21
1718.616055738302
 31
0.0
  0
LINE
  5
17615
330
747D
100
AcDbEntity
  8
部品1
100
AcDbLine
 10
6049.97396833383
 20
1478.723734192769
 30
0.0
 11
6049.97396833383
 21
1718.616055738302
 31
0.0
  0
LINE
  5
17616
330
747D
100
AcDbEntity
  8
部品1
100
AcDbLine
 10
5286.503302105391
 20
1478.723734192769
 30
0.0
 11
6049.97396833383
 21
1478.723734192769
 31
0.0
  0
LINE
  5
17617
330
747D
100
AcDbEntity
  8
部品1
100
AcDbLine
 10
5286.503302105391
 20
1718.616055738302
 30
0.0
 11
5286.503302105391
 21
1478.723734192769
 31
0.0
  0
TEXT
  5
17622
330
747D
100
AcDbEntity
  8
部品1
100
AcDbText
 10
5375.949403528998
 20
1525.722526519778
 30
0.0
 40
135.0
  1
側面図
  7
STYLE2
100
AcDbText
  0
TEXT
  5
17624
330
747D
100
AcDbEntity
  8
部品1
100
AcDbText
 10
3097.135777161038
 20
2634.038502319163
 30
0.0
 40
125.0
  1
▽G.L
  7
STYLE2
100
AcDbText
  0
LINE
  5
17BB2
330
747D
100
AcDbEntity
  8
部品1
100
AcDbLine
 10
8676.761265317392
 20
7866.003900523482
 30
0.0
 11
8676.761265317392
 21
7835.003900523486
 31
0.0
  0
LINE
  5
17C04
330
747D
100
AcDbEntity
  8
部品1
 48
50.0
100
AcDbLine
 10
8723.761265317412
 20
3679.431598713261
 30
0.0
 11
8776.761265317412
 21
3679.431598713261
 31
0.0
  0
LINE
  5
17C1E
330
747D
100
AcDbEntity
  8
部品1
 48
50.0
100
AcDbLine
 10
10803.76126531741
 20
4532.931598713261
 30
0.0
 11
8649.761265317414
 21
4532.931598713261
 31
0.0
  0
LINE
  5
17C1F
330
747D
100
AcDbEntity
  8
細線
 48
50.0
100
AcDbLine
 10
10803.76126531741
 20
4522.931598713261
 30
0.0
 11
8649.761265317414
 21
4522.931598713261
 31
0.0
  0
LINE
  5
17C20
330
747D
100
AcDbEntity
  8
細線
 48
50.0
100
AcDbLine
 10
10773.76126531741
 20
4480.931598713261
 30
0.0
 11
8679.761265317413
 21
4480.931598713261
 31
0.0
  0
LINE
  5
17C21
330
747D
100
AcDbEntity
  8
細線
 48
50.0
100
AcDbLine
 10
10773.76126531741
 20
4490.431598713261
 30
0.0
 11
8679.761265317413
 21
4490.431598713261
 31
0.0
  0
LINE
  5
17C22
330
747D
100
AcDbEntity
  8
部品1
 48
50.0
100
AcDbLine
 10
8649.761265317414
 20
2697.931598713262
 30
0.0
 11
10803.76126531741
 21
2697.931598713262
 31
0.0
  0
LINE
  5
17C23
330
747D
100
AcDbEntity
  8
細線
 48
50.0
100
AcDbLine
 10
8679.761265317413
 20
2740.931598713262
 30
0.0
 11
10773.76126531741
 21
2740.931598713262
 31
0.0
  0
LINE
  5
17C24
330
747D
100
AcDbEntity
  8
細線
 48
50.0
100
AcDbLine
 10
8679.761265317413
 20
2744.931598713261
 30
0.0
 11
10773.76126531741
 21
2744.931598713261
 31
0.0
  0
LINE
  5
17C25
330
747D
100
AcDbEntity
  8
細線
 48
50.0
100
AcDbLine
 10
9483.76126531741
 20
2755.431598713262
 30
0.0
 11
10747.76126531741
 21
2755.431598713262
 31
0.0
  0
LINE
  5
17C26
330
747D
100
AcDbEntity
  8
部品1
 48
50.0
100
AcDbLine
 10
8679.761265317413
 20
2747.931598713261
 30
0.0
 11
8679.761265317413
 21
4480.931598713261
 31
0.0
  0
LINE
  5
17C27
330
747D
100
AcDbEntity
  8
細線
 48
50.0
100
AcDbLine
 10
8679.761265317413
 20
4490.431598713261
 30
0.0
 11
8679.761265317413
 21
2697.931598713262
 31
0.0
  0
LINE
  5
17C28
330
747D
100
AcDbEntity
  8
部品1
 48
50.0
100
AcDbLine
 10
8649.761265317414
 20
4532.931598713261
 30
0.0
 11
8649.761265317414
 21
2697.931598713262
 31
0.0
  0
LINE
  5
17C2A
330
747D
100
AcDbEntity
  8
部品1
 48
50.0
100
AcDbLine
 10
9483.76126531741
 20
4480.931598738028
 30
0.0
 11
9483.76126531741
 21
2747.931598738029
 31
0.0
  0
LINE
  5
17C2B
330
747D
100
AcDbEntity
  8
部品1
 48
50.0
100
AcDbLine
 10
8679.761265317413
 20
2747.931598713261
 30
0.0
 11
9483.76126531741
 21
2747.931598713258
 31
0.0
  0
LINE
  5
17C2C
330
747D
100
AcDbEntity
  8
部品1
 48
50.0
100
AcDbLine
 10
8688.761265317413
 20
2747.931598713261
 30
0.0
 11
8688.761265317413
 21
2744.931598713261
 31
0.0
  0
LINE
  5
17C2D
330
747D
100
AcDbEntity
  8
部品1
 48
50.0
100
AcDbLine
 10
8676.761265317413
 20
4532.931598713261
 30
0.0
 11
8676.761265317413
 21
4537.931598713261
 31
0.0
  0
LINE
  5
17C2E
330
747D
100
AcDbEntity
  8
部品1
 48
50.0
100
AcDbLine
 10
8679.761265317413
 20
4488.931598713261
 30
0.0
 11
8649.761265317414
 21
4488.931598713261
 31
0.0
  0
LINE
  5
17C2F
330
747D
100
AcDbEntity
  8
部品1
 48
50.0
100
AcDbLine
 10
10764.76126531741
 20
2744.931598713261
 30
0.0
 11
10764.76126531741
 21
4480.931598713261
 31
0.0
  0
LINE
  5
17C30
330
747D
100
AcDbEntity
  8
細線
 48
50.0
100
AcDbLine
 10
10773.76126531741
 20
2697.931598713262
 30
0.0
 11
10773.76126531741
 21
4490.431598713261
 31
0.0
  0
LINE
  5
17C31
330
747D
100
AcDbEntity
  8
部品1
 48
50.0
100
AcDbLine
 10
10803.76126531741
 20
2697.931598713262
 30
0.0
 11
10803.76126531741
 21
4532.931598713261
 31
0.0
  0
LINE
  5
17C32
330
747D
100
AcDbEntity
  8
部品1
 48
50.0
100
AcDbLine
 10
10137.76125562227
 20
4480.931598750408
 30
0.0
 11
10137.76125562227
 21
2755.431598750409
 31
0.0
  0
LINE
  5
17C33
330
747D
100
AcDbEntity
  8
細線
 48
50.0
100
AcDbLine
 10
10751.76126531741
 20
2744.931598713261
 30
0.0
 11
10747.76126531741
 21
2755.431598713262
 31
0.0
  0
LINE
  5
17C34
330
747D
100
AcDbEntity
  8
部品1
 48
50.0
100
AcDbLine
 10
10776.76126531741
 20
4532.931598713261
 30
0.0
 11
10776.76126531741
 21
4537.931598713261
 31
0.0
  0
LINE
  5
17C35
330
747D
100
AcDbEntity
  8
部品1
 48
50.0
100
AcDbLine
 10
10803.76126531741
 20
4488.931598713261
 30
0.0
 11
10773.76126531741
 21
4488.931598713261
 31
0.0
  0
LINE
  5
17C37
330
747D
100
AcDbEntity
  8
細線
100
AcDbLine
 10
10260.51126531742
 20
4480.931598713261
 30
0.0
 11
10260.51126531742
 21
2755.43159871328
 31
0.0
  0
LINE
  5
17C38
330
747D
100
AcDbEntity
  8
細線
100
AcDbLine
 10
9545.261275067655
 20
4480.931598713261
 30
0.0
 11
9545.261275067655
 21
2755.431598713272
 31
0.0
  0
LINE
  5
17C39
330
747D
100
AcDbEntity
  8
細線
100
AcDbLine
 10
9615.261275067656
 20
4480.931598713261
 30
0.0
 11
9615.261275067656
 21
2755.431598713272
 31
0.0
  0
LINE
  5
17C3A
330
747D
100
AcDbEntity
  8
細線
100
AcDbLine
 10
8893.761265317413
 20
4480.931598713261
 30
0.0
 11
8893.76126531741
 21
2747.931598713265
 31
0.0
  0
LINE
  5
17C3B
330
747D
100
AcDbEntity
  8
細線
100
AcDbLine
 10
8963.761265317414
 20
4480.931598713261
 30
0.0
 11
8963.761265317408
 21
2747.931598713265
 31
0.0
  0
LINE
  5
17C3C
330
747D
100
AcDbEntity
  8
細線
100
AcDbLine
 10
10330.51126531741
 20
4480.931598713261
 30
0.0
 11
10330.51126531741
 21
2755.43159871328
 31
0.0
  0
LINE
  5
17C3D
330
747D
100
AcDbEntity
  8
細線
100
AcDbLine
 10
10400.51126531741
 20
4480.931598713261
 30
0.0
 11
10400.51126531741
 21
2755.43159871328
 31
0.0
  0
LINE
  5
17C3E
330
747D
100
AcDbEntity
  8
細線
100
AcDbLine
 10
10470.51126531741
 20
4480.931598713261
 30
0.0
 11
10470.51126531741
 21
2755.43159871328
 31
0.0
  0
LINE
  5
17C3F
330
747D
100
AcDbEntity
  8
細線
100
AcDbLine
 10
10540.51126531741
 20
4480.931598713261
 30
0.0
 11
10540.51126531741
 21
2755.43159871328
 31
0.0
  0
LINE
  5
17C40
330
747D
100
AcDbEntity
  8
細線
100
AcDbLine
 10
10610.51126531741
 20
4480.931598713261
 30
0.0
 11
10610.51126531741
 21
2755.43159871328
 31
0.0
  0
LINE
  5
17C41
330
747D
100
AcDbEntity
  8
細線
100
AcDbLine
 10
9685.261275067654
 20
4480.931598713261
 30
0.0
 11
9685.261275067654
 21
2755.431598713272
 31
0.0
  0
LINE
  5
17C42
330
747D
100
AcDbEntity
  8
細線
100
AcDbLine
 10
9755.261275067654
 20
4480.931598713261
 30
0.0
 11
9755.261275067654
 21
2755.431598713272
 31
0.0
  0
LINE
  5
17C43
330
747D
100
AcDbEntity
  8
細線
100
AcDbLine
 10
9825.261275067655
 20
4480.931598713261
 30
0.0
 11
9825.261275067655
 21
2755.431598713272
 31
0.0
  0
LINE
  5
17C44
330
747D
100
AcDbEntity
  8
細線
100
AcDbLine
 10
9895.261275067655
 20
4480.931598713261
 30
0.0
 11
9895.261275067655
 21
2755.431598713272
 31
0.0
  0
LINE
  5
17C45
330
747D
100
AcDbEntity
  8
細線
100
AcDbLine
 10
9965.261275067655
 20
4480.931598713261
 30
0.0
 11
9965.261275067655
 21
2755.431598713272
 31
0.0
  0
LINE
  5
17C46
330
747D
100
AcDbEntity
  8
細線
100
AcDbLine
 10
10035.26127506765
 20
4480.931598713261
 30
0.0
 11
10035.26127506765
 21
2755.431598713272
 31
0.0
  0
LINE
  5
17C47
330
747D
100
AcDbEntity
  8
細線
100
AcDbLine
 10
8807.761265317409
 20
4480.931598713261
 30
0.0
 11
8807.761265317413
 21
2747.931598713265
 31
0.0
  0
LINE
  5
17C48
330
747D
100
AcDbEntity
  8
細線
100
AcDbLine
 10
8841.761265317408
 20
4480.931598713261
 30
0.0
 11
8841.761265317414
 21
2747.931598713265
 31
0.0
  0
LINE
  5
17C49
330
747D
100
AcDbEntity
  8
部品1
100
AcDbLine
 10
8799.761265317409
 20
4480.931598713261
 30
0.0
 11
8799.761265317412
 21
2747.931598713265
 31
0.0
  0
LINE
  5
17C4A
330
747D
100
AcDbEntity
  8
部品1
100
AcDbLine
 10
8849.761265317409
 20
4480.931598713261
 30
0.0
 11
8849.761265317413
 21
2747.931598713265
 31
0.0
  0
LINE
  5
17C4B
330
747D
100
AcDbEntity
  8
細線
100
AcDbLine
 10
9033.761265317414
 20
4480.931598713261
 30
0.0
 11
9033.761265317409
 21
2747.931598713265
 31
0.0
  0
LINE
  5
17C4C
330
747D
100
AcDbEntity
  8
細線
100
AcDbLine
 10
9103.761265317414
 20
4480.931598713261
 30
0.0
 11
9103.761265317409
 21
2747.931598713265
 31
0.0
  0
LINE
  5
17C4D
330
747D
100
AcDbEntity
  8
細線
100
AcDbLine
 10
9173.761265317413
 20
4480.931598713261
 30
0.0
 11
9173.761265317409
 21
2747.931598713265
 31
0.0
  0
LINE
  5
17C4E
330
747D
100
AcDbEntity
  8
細線
100
AcDbLine
 10
9243.761265317413
 20
4480.931598713261
 30
0.0
 11
9243.761265317409
 21
2747.931598713265
 31
0.0
  0
LINE
  5
17C4F
330
747D
100
AcDbEntity
  8
細線
100
AcDbLine
 10
9313.761265317413
 20
4480.931598713261
 30
0.0
 11
9313.761265317408
 21
2747.931598713269
 31
0.0
  0
LINE
  5
17C50
330
747D
100
AcDbEntity
  8
細線
100
AcDbLine
 10
9383.761265317414
 20
4480.931598713261
 30
0.0
 11
9383.761265317408
 21
2747.931598713269
 31
0.0
  0
LINE
  5
17C51
330
747D
100
AcDbEntity
  8
部品1
100
AcDbLine
 10
10137.76125562226
 20
4480.931598750412
 30
0.0
 11
10137.76125562227
 21
2755.431598750427
 31
0.0
  0
LINE
  5
17C52
330
747D
100
AcDbEntity
  8
部品1
 48
50.0
100
AcDbLine
 10
9483.76126531741
 20
4480.931598738028
 30
0.0
 11
9483.76126531741
 21
2747.931598713258
 31
0.0
  0
MTEXT
  5
17CEE
330
747D
100
AcDbEntity
  8
寸法
 62
     7
 48
50.0
100
AcDbMText
 10
8986.863802410523
 20
8795.238718720911
 30
0.0
 40
96.0
 41
0.0
 71
     5
 72
     1
  1
棚 2段
  7
STYLE1
 73
     1
 44
1.0
1001
ACAD
1000
MTEXTBEGIN
1070
    73
1070
     1
1070
    44
1040
1.0
1070
    74
1070
     0
1000
MTEXTEND
  0
DIMENSION
  5
17D0F
330
747D
100
AcDbEntity
  8
寸法
 48
50.0
100
AcDbDimension
  2
*D27
 10
8201.761265317413
 20
5172.024768052733
 30
0.0
 11
9726.761265317412
 21
5172.024768052733
 31
0.0
 70
   160
  1
柱外寸法<>
 71
     5
 42
3049.999999999997
  3
INABA_S40G
100
AcDbAlignedDimension
 13
11251.76126531741
 23
4772.931598713267
 33
0.0
 14
8201.761265317413
 24
4772.931598713268
 34
0.0
100
AcDbRotatedDimension
  0
DIMENSION
  5
17D10
330
747D
100
AcDbEntity
  8
寸法
 48
50.0
100
AcDbDimension
  2
*D25
 10
11301.76126531741
 20
5388.55086767118
 30
0.0
 11
9726.761265317412
 21
5388.55086767118
 31
0.0
 70
   160
 71
     5
 42
3149.999999999997
  3
INABA_S40G
100
AcDbAlignedDimension
 13
8151.761265317412
 23
4772.931598713267
 33
0.0
 14
11301.76126531741
 24
4772.931598713264
 34
0.0
100
AcDbRotatedDimension
  0
DIMENSION
  5
17D12
330
747D
100
AcDbEntity
  8
寸法
 48
50.0
100
AcDbDimension
  2
*D26
 10
8151.761265317412
 20
5172.024768052734
 30
0.0
 11
7838.275983943166
 21
5172.024768052734
 31
0.0
 70
   160
 71
     5
 42
50.0
  3
INABA_S40G
100
AcDbAlignedDimension
 13
8201.761265317413
 23
4772.931598713268
 33
0.0
 14
8151.761265317412
 24
4772.931598713267
 34
0.0
100
AcDbRotatedDimension
1001
ACAD
1000
DSTYLE
1002
{
1002
}
  0
LINE
  5
17D13
330
747D
100
AcDbEntity
  8
部品1
100
AcDbLine
 10
9364.761265317428
 20
4767.93159872173
 30
0.0
 11
9364.761265317429
 21
4670.520531213158
 31
0.0
  0
LINE
  5
17D14
330
747D
100
AcDbEntity
  8
部品1
100
AcDbLine
 10
9339.761265317427
 20
4767.93159872173
 30
0.0
 11
9339.761265317429
 21
4670.520531213158
 31
0.0
  0
LINE
  5
17D15
330
747D
100
AcDbEntity
  8
部品1
 48
50.0
100
AcDbLine
 10
9338.26126531742
 20
4767.931598721734
 30
0.0
 11
9366.261265317417
 21
4767.931598721734
 31
0.0
  0
LINE
  5
17D16
330
747D
100
AcDbEntity
  8
部品1
 48
50.0
100
AcDbLine
 10
9366.261265317421
 20
4767.931598721734
 30
0.0
 11
9376.761265317419
 21
4748.531598721732
 31
0.0
  0
LINE
  5
17D17
330
747D
100
AcDbEntity
  8
部品1
 48
50.0
100
AcDbLine
 10
9338.26126531742
 20
4767.931598721734
 30
0.0
 11
9327.76126531742
 21
4748.531598721732
 31
0.0
  0
LINE
  5
17D18
330
747D
100
AcDbEntity
  8
部品1
 48
50.0
100
AcDbLine
 10
9265.26126531742
 20
4767.931598721734
 30
0.0
 11
9293.261265317417
 21
4767.931598721734
 31
0.0
  0
LINE
  5
17D19
330
747D
100
AcDbEntity
  8
部品1
100
AcDbLine
 10
9266.761265317427
 20
4767.93159872173
 30
0.0
 11
9266.761265317427
 21
4670.520531213158
 31
0.0
  0
LINE
  5
17D1A
330
747D
100
AcDbEntity
  8
部品1
 48
50.0
100
AcDbLine
 10
9265.26126531742
 20
4767.931598721734
 30
0.0
 11
9254.761265317419
 21
4748.531598721732
 31
0.0
  0
LINE
  5
17D1B
330
747D
100
AcDbEntity
  8
部品1
100
AcDbLine
 10
9291.761265317427
 20
4767.93159872173
 30
0.0
 11
9291.761265317427
 21
4670.520531213158
 31
0.0
  0
LINE
  5
17D1C
330
747D
100
AcDbEntity
  8
部品1
 48
50.0
100
AcDbLine
 10
9293.26126531742
 20
4767.931598721734
 30
0.0
 11
9303.761265317421
 21
4748.531598721732
 31
0.0
  0
LINE
  5
17D1D
330
747D
100
AcDbEntity
  8
部品1
100
AcDbLine
 10
9105.761265317427
 20
4767.931598721723
 30
0.0
 11
9105.761265317429
 21
4670.520531213158
 31
0.0
  0
LINE
  5
17D1E
330
747D
100
AcDbEntity
  8
部品1
 48
50.0
100
AcDbLine
 10
9108.76126531742
 20
4767.931598721734
 30
0.0
 11
9111.26126531742
 21
4748.531598721732
 31
0.0
  0
LINE
  5
17D1F
330
747D
100
AcDbEntity
  8
部品1
100
AcDbLine
 10
9087.761265317428
 20
4767.931598721723
 30
0.0
 11
9087.76126531743
 21
4670.520531213158
 31
0.0
  0
LINE
  5
17D20
330
747D
100
AcDbEntity
  8
部品1
 48
50.0
100
AcDbLine
 10
9069.549925111232
 20
4758.531598721733
 30
0.0
 11
9068.261265317421
 21
4748.531598721732
 31
0.0
  0
LINE
  5
17D21
330
747D
100
AcDbEntity
  8
部品1
 48
50.0
100
AcDbLine
 10
9069.549925111232
 20
4758.531598721733
 30
0.0
 11
9083.549925111233
 21
4758.531598721733
 31
0.0
  0
LINE
  5
17D22
330
747D
100
AcDbEntity
  8
部品1
 48
50.0
100
AcDbLine
 10
9084.761265317421
 20
4767.931598721734
 30
0.0
 11
9083.549925111233
 21
4758.531598721733
 31
0.0
  0
LINE
  5
17D23
330
747D
100
AcDbEntity
  8
部品1
 48
50.0
100
AcDbLine
 10
9108.76126531742
 20
4767.931598721734
 30
0.0
 11
9084.761265317421
 21
4767.931598721734
 31
0.0
  0
LINE
  5
17D24
330
747D
100
AcDbEntity
  8
部品1
100
AcDbLine
 10
9254.761265317418
 20
4748.531598721728
 30
0.0
 11
9111.261265317416
 21
4748.531598721728
 31
0.0
  0
LINE
  5
17D25
330
747D
100
AcDbEntity
  8
部品1
100
AcDbLine
 10
8944.761265317428
 20
4767.93159872173
 30
0.0
 11
8944.761265317429
 21
4670.520531213158
 31
0.0
  0
LINE
  5
17D26
330
747D
100
AcDbEntity
  8
部品1
 48
50.0
100
AcDbLine
 10
8946.261265317421
 20
4767.931598721734
 30
0.0
 11
8956.761265317421
 21
4748.531598721732
 31
0.0
  0
LINE
  5
17D27
330
747D
100
AcDbEntity
  8
部品1
100
AcDbLine
 10
8846.761265317427
 20
4767.93159872173
 30
0.0
 11
8846.761265317427
 21
4670.520531213158
 31
0.0
  0
LINE
  5
17D28
330
747D
100
AcDbEntity
  8
部品1
100
AcDbLine
 10
8871.761265317427
 20
4767.93159872173
 30
0.0
 11
8871.761265317427
 21
4670.520531213158
 31
0.0
  0
LINE
  5
17D29
330
747D
100
AcDbEntity
  8
部品1
100
AcDbLine
 10
8919.761265317427
 20
4767.93159872173
 30
0.0
 11
8919.761265317427
 21
4670.520531213158
 31
0.0
  0
LINE
  5
17D2A
330
747D
100
AcDbEntity
  8
部品1
 48
50.0
100
AcDbLine
 10
8845.26126531742
 20
4767.931598721734
 30
0.0
 11
8834.761265317421
 21
4748.531598721732
 31
0.0
  0
LINE
  5
17D2B
330
747D
100
AcDbEntity
  8
部品1
100
AcDbLine
 10
8907.761265317416
 20
4748.531598721728
 30
0.0
 11
8883.761265317421
 21
4748.531598721728
 31
0.0
  0
LINE
  5
17D2C
330
747D
100
AcDbEntity
  8
部品1
 48
50.0
100
AcDbLine
 10
8873.26126531742
 20
4767.931598721734
 30
0.0
 11
8883.761265317421
 21
4748.531598721732
 31
0.0
  0
LINE
  5
17D2D
330
747D
100
AcDbEntity
  8
部品1
 48
50.0
100
AcDbLine
 10
8918.26126531742
 20
4767.931598721734
 30
0.0
 11
8907.76126531742
 21
4748.531598721732
 31
0.0
  0
LINE
  5
17D2E
330
747D
100
AcDbEntity
  8
部品1
 48
50.0
100
AcDbLine
 10
8845.26126531742
 20
4767.931598721734
 30
0.0
 11
8873.261265317417
 21
4767.931598721734
 31
0.0
  0
LINE
  5
17D2F
330
747D
100
AcDbEntity
  8
部品1
 48
50.0
100
AcDbLine
 10
8918.26126531742
 20
4767.931598721734
 30
0.0
 11
8946.261265317415
 21
4767.931598721734
 31
0.0
  0
LINE
  5
17D30
330
747D
100
AcDbEntity
  8
部品1
100
AcDbLine
 10
8685.761265317427
 20
4767.931598721723
 30
0.0
 11
8685.761265317429
 21
4670.520531213158
 31
0.0
  0
LINE
  5
17D31
330
747D
100
AcDbEntity
  8
部品1
100
AcDbLine
 10
8667.761265317428
 20
4767.931598721723
 30
0.0
 11
8667.761265317428
 21
4670.520531213158
 31
0.0
  0
LINE
  5
17D32
330
747D
100
AcDbEntity
  8
部品1
 48
50.0
100
AcDbLine
 10
8688.76126531742
 20
4767.931598721734
 30
0.0
 11
8664.761265317421
 21
4767.931598721734
 31
0.0
  0
LINE
  5
17D33
330
747D
100
AcDbEntity
  8
部品1
 48
50.0
100
AcDbLine
 10
8664.761265317421
 20
4767.931598721734
 30
0.0
 11
8663.549925111231
 21
4758.531598721733
 31
0.0
  0
LINE
  5
17D34
330
747D
100
AcDbEntity
  8
部品1
 48
50.0
100
AcDbLine
 10
8688.76126531742
 20
4767.931598721734
 30
0.0
 11
8691.26126531742
 21
4748.531598721732
 31
0.0
  0
LINE
  5
17D35
330
747D
100
AcDbEntity
  8
部品1
100
AcDbLine
 10
8834.761265317416
 20
4748.531598721728
 30
0.0
 11
8691.261265317416
 21
4748.531598721728
 31
0.0
  0
LINE
  5
17D36
330
747D
100
AcDbEntity
  8
部品1
100
AcDbLine
 10
9068.261265317421
 20
4748.531598721728
 30
0.0
 11
8956.761265317421
 21
4748.531598721728
 31
0.0
  0
LINE
  5
17D37
330
747D
100
AcDbEntity
  8
部品1
100
AcDbLine
 10
9327.761265317416
 20
4748.531598721728
 30
0.0
 11
9303.761265317421
 21
4748.531598721728
 31
0.0
  0
LINE
  5
17D38
330
747D
100
AcDbEntity
  8
部品1
100
AcDbLine
 10
8648.261265317421
 20
4748.531598721728
 30
0.0
 11
8536.761265317421
 21
4748.531598721728
 31
0.0
  0
LINE
  5
17D39
330
747D
100
AcDbEntity
  8
部品1
100
AcDbLine
 10
8499.761265317427
 20
4767.93159872173
 30
0.0
 11
8499.761265317427
 21
4670.520531213158
 31
0.0
  0
LINE
  5
17D3A
330
747D
100
AcDbEntity
  8
部品1
100
AcDbLine
 10
8524.761265317428
 20
4767.93159872173
 30
0.0
 11
8524.761265317428
 21
4670.520531213158
 31
0.0
  0
LINE
  5
17D3B
330
747D
100
AcDbEntity
  8
部品1
 48
50.0
100
AcDbLine
 10
8526.261265317421
 20
4767.931598721734
 30
0.0
 11
8536.761265317421
 21
4748.531598721732
 31
0.0
  0
LINE
  5
17D3C
330
747D
100
AcDbEntity
  8
部品1
 48
50.0
100
AcDbLine
 10
8498.26126531742
 20
4767.931598721734
 30
0.0
 11
8526.261265317417
 21
4767.931598721734
 31
0.0
  0
LINE
  5
17D3D
330
747D
100
AcDbEntity
  8
部品1
 48
50.0
100
AcDbLine
 10
8649.549925111232
 20
4758.531598721733
 30
0.0
 11
8648.261265317421
 21
4748.531598721732
 31
0.0
  0
LINE
  5
17D3E
330
747D
100
AcDbEntity
  8
部品1
100
AcDbLine
 10
8487.761265317416
 20
4748.531598721728
 30
0.0
 11
8463.761265317421
 21
4748.531598721732
 31
0.0
  0
LINE
  5
17D3F
330
747D
100
AcDbEntity
  8
部品1
100
AcDbLine
 10
8451.761265317427
 20
4767.93159872173
 30
0.0
 11
8451.761265317429
 21
4670.520531213158
 31
0.0
  0
LINE
  5
17D40
330
747D
100
AcDbEntity
  8
部品1
 48
50.0
100
AcDbLine
 10
8453.26126531742
 20
4767.931598721734
 30
0.0
 11
8463.761265317421
 21
4748.531598721732
 31
0.0
  0
LINE
  5
17D41
330
747D
100
AcDbEntity
  8
部品1
100
AcDbLine
 10
8426.761265317429
 20
4767.93159872173
 30
0.0
 11
8426.761265317425
 21
4670.520531213158
 31
0.0
  0
LINE
  5
17D42
330
747D
100
AcDbEntity
  8
部品1
 48
50.0
100
AcDbLine
 10
8425.26126531742
 20
4767.931598721734
 30
0.0
 11
8414.761265317421
 21
4748.531598721732
 31
0.0
  0
LINE
  5
17D43
330
747D
100
AcDbEntity
  8
部品1
 48
50.0
100
AcDbLine
 10
8425.26126531742
 20
4767.931598721734
 30
0.0
 11
8453.261265317417
 21
4767.931598721734
 31
0.0
  0
LINE
  5
17D44
330
747D
100
AcDbEntity
  8
部品1
 48
50.0
100
AcDbLine
 10
8498.26126531742
 20
4767.931598721734
 30
0.0
 11
8487.76126531742
 21
4748.531598721732
 31
0.0
  0
LINE
  5
17D45
330
747D
100
AcDbEntity
  8
部品1
100
AcDbLine
 10
8265.761265317427
 20
4767.931598721723
 30
0.0
 11
8265.761265317427
 21
4670.520531213158
 31
0.0
  0
LINE
  5
17D46
330
747D
100
AcDbEntity
  8
部品1
100
AcDbLine
 10
8247.761265317427
 20
4767.931598721734
 30
0.0
 11
8247.761265317429
 21
4670.520531213158
 31
0.0
  0
LINE
  5
17D47
330
747D
100
AcDbEntity
  8
部品1
 48
50.0
100
AcDbLine
 10
8268.76126531742
 20
4767.931598721734
 30
0.0
 11
8271.26126531742
 21
4748.531598721732
 31
0.0
  0
LINE
  5
17D48
330
747D
100
AcDbEntity
  8
部品1
100
AcDbLine
 10
8228.261265317419
 20
4748.531598721732
 30
0.0
 11
8201.76126531742
 21
4748.531598721732
 31
0.0
  0
LINE
  5
17D49
330
747D
100
AcDbEntity
  8
部品1
 48
50.0
100
AcDbLine
 10
8229.549925111234
 20
4758.531598721733
 30
0.0
 11
8243.549925111231
 21
4758.531598721733
 31
0.0
  0
LINE
  5
17D4A
330
747D
100
AcDbEntity
  8
部品1
 48
50.0
100
AcDbLine
 10
8229.549925111234
 20
4758.531598721733
 30
0.0
 11
8228.261265317419
 21
4748.531598721732
 31
0.0
  0
LINE
  5
17D4B
330
747D
100
AcDbEntity
  8
部品1
 48
50.0
100
AcDbLine
 10
8244.76126531742
 20
4767.931598721734
 30
0.0
 11
8243.549925111231
 21
4758.531598721733
 31
0.0
  0
LINE
  5
17D4C
330
747D
100
AcDbEntity
  8
部品1
 48
50.0
100
AcDbLine
 10
8268.76126531742
 20
4767.931598721734
 30
0.0
 11
8244.76126531742
 21
4767.931598721734
 31
0.0
  0
LINE
  5
17D4D
330
747D
100
AcDbEntity
  8
部品1
100
AcDbLine
 10
8414.761265317421
 20
4748.531598721728
 30
0.0
 11
8271.26126531742
 21
4748.531598721732
 31
0.0
  0
LINE
  5
17D4E
330
747D
100
AcDbEntity
  8
部品1
 48
50.0
100
AcDbLine
 10
8649.549925111232
 20
4758.531598721733
 30
0.0
 11
8663.549925111231
 21
4758.531598721733
 31
0.0
  0
LINE
  5
17D4F
330
747D
100
AcDbEntity
  8
部品1
100
AcDbLine
 10
11256.83160255814
 20
4772.931598721706
 30
0.0
 11
8176.193425698327
 21
4772.931598721734
 31
0.0
  0
LINE
  5
17D50
330
747D
100
AcDbEntity
  8
部品1
100
AcDbLine
 10
9488.261265317417
 20
4748.531598721714
 30
0.0
 11
9376.761265317428
 21
4748.531598721714
 31
0.0
  0
LINE
  5
17D51
330
747D
100
AcDbEntity
  8
部品1
 48
50.0
100
AcDbLine
 10
8196.690637324214
 20
4717.931598713261
 30
0.0
 11
8158.74730913463
 21
4717.931598713261
 31
0.0
  0
ARC
  5
17D52
330
747D
100
AcDbEntity
  8
部品1
100
AcDbCircle
 10
8153.720407757708
 20
4690.60171603385
 30
0.0
 40
0.7
100
AcDbArc
 50
183.6186294801312
 51
262.7131594833544
  0
ARC
  5
17D53
330
747D
100
AcDbEntity
  8
部品1
100
AcDbCircle
 10
8153.251111632513
 20
4686.931598713261
 30
0.0
 40
3.0
100
AcDbArc
 50
3.61862948013121
 51
90.0
  0
LINE
  5
17D54
330
747D
100
AcDbEntity
  8
部品1
100
AcDbLine
 10
8156.245130411319
 20
4687.120943774373
 30
0.0
 11
8160.992223423479
 21
4612.05753551959
 31
0.0
  0
ARC
  5
17D55
330
747D
100
AcDbEntity
  8
部品1
100
AcDbCircle
 10
8161.6908278052
 20
4612.10171603385
 30
0.0
 40
0.7
100
AcDbArc
 50
183.6186294801312
 51
262.7131594833544
  0
ARC
  5
17D56
330
747D
100
AcDbEntity
  8
部品1
100
AcDbCircle
 10
8161.221531680004
 20
4608.431598713261
 30
0.0
 40
3.0
100
AcDbArc
 50
3.61862948013121
 51
90.0
  0
ARC
  5
17D57
330
747D
100
AcDbEntity
  8
部品1
100
AcDbCircle
 10
8171.873919980603
 20
4598.43159871326
 30
0.0
 40
7.0
100
AcDbArc
 50
183.6186294801312
 51
270.0
  0
ARC
  5
17D58
330
747D
100
AcDbEntity
  8
部品1
100
AcDbCircle
 10
8158.74730913463
 20
4710.931598713261
 30
0.0
 40
7.0
100
AcDbArc
 50
90.0
 51
183.6186294801312
  0
LINE
  5
17D59
330
747D
100
AcDbEntity
  8
部品1
100
AcDbLine
 10
8164.88787616339
 20
4597.989793570672
 30
0.0
 11
8164.215550458811
 21
4608.620943774372
 31
0.0
  0
LINE
  5
17D5A
330
747D
100
AcDbEntity
  8
部品1
100
AcDbLine
 10
8153.021803375986
 20
4690.55753551959
 30
0.0
 11
8151.76126531742
 21
4710.489793570672
 31
0.0
  0
LINE
  5
17D5B
330
747D
100
AcDbEntity
  8
部品1
100
AcDbLine
 10
8196.690637324214
 20
4717.931598713261
 30
0.0
 11
8158.74730913463
 21
4717.931598713261
 31
0.0
  0
ARC
  5
17D5C
330
747D
100
AcDbEntity
  8
部品1
100
AcDbCircle
 10
8196.690637324214
 20
4712.931598713261
 30
0.0
 40
5.0
100
AcDbArc
 50
0.0
 51
90.0
  0
LINE
  5
17D5D
330
747D
100
AcDbEntity
  8
部品1
100
AcDbLine
 10
8201.690637324215
 20
4767.93159873016
 30
0.0
 11
8201.690637324212
 21
4670.527570040591
 31
0.0
  0
LINE
  5
17D5E
330
747D
100
AcDbEntity
  8
部品1
100
AcDbLine
 10
11281.64861065422
 20
4591.431598713262
 30
0.0
 11
8171.873919980603
 21
4591.431598713262
 31
0.0
  0
LINE
  5
17D5F
330
747D
100
AcDbEntity
  8
部品1
 48
50.0
100
AcDbLine
 10
8151.76126531742
 20
4710.489793570672
 30
0.0
 11
8151.76126531742
 21
4765.489793587571
 31
0.0
  0
ARC
  5
17D60
330
747D
100
AcDbEntity
  8
部品1
100
AcDbCircle
 10
8196.690637324214
 20
4767.93159873016
 30
0.0
 40
5.0
100
AcDbArc
 50
0.0
 51
90.0
  0
LINE
  5
17D61
330
747D
100
AcDbEntity
  8
部品1
100
AcDbLine
 10
8196.690637324214
 20
4772.931598730159
 30
0.0
 11
8158.74730913463
 21
4772.931598730159
 31
0.0
  0
ARC
  5
17D62
330
747D
100
AcDbEntity
  8
部品1
100
AcDbCircle
 10
8158.74730913463
 20
4765.931598730159
 30
0.0
 40
7.0
100
AcDbArc
 50
90.0
 51
183.6186294801312
  0
LINE
  5
17D63
330
747D
100
AcDbEntity
  8
細線
 48
50.0
100
AcDbLine
 10
11292.53962299047
 20
4612.204841277042
 30
0.0
 11
8161.644856949939
 21
4612.204841277047
 31
0.0
  0
LINE
  5
17D64
330
747D
100
AcDbEntity
  8
細線
 48
50.0
100
AcDbLine
 10
8184.250175413138
 20
4717.931598713261
 30
0.0
 11
8184.250175413138
 21
4591.431598713262
 31
0.0
  0
LINE
  5
17D65
330
747D
100
AcDbEntity
  8
細線
 48
50.0
100
AcDbLine
 10
8201.690637324212
 20
4689.90343146121
 30
0.0
 11
8153.627396040267
 21
4689.903431461218
 31
0.0
  0
LINE
  5
17D66
330
747D
100
AcDbEntity
  8
部品1
100
AcDbLine
 10
9507.761265317414
 20
4767.931598721723
 30
0.0
 11
9507.761265317414
 21
4670.520531213158
 31
0.0
  0
LINE
  5
17D67
330
747D
100
AcDbEntity
  8
部品1
100
AcDbLine
 10
9525.761265317415
 20
4767.931598721734
 30
0.0
 11
9525.761265317415
 21
4670.520531213158
 31
0.0
  0
LINE
  5
17D68
330
747D
100
AcDbEntity
  8
部品1
 48
50.0
100
AcDbLine
 10
9504.761265317423
 20
4767.931598721734
 30
0.0
 11
9528.761265317422
 21
4767.931598721734
 31
0.0
  0
LINE
  5
17D69
330
747D
100
AcDbEntity
  8
部品1
 48
50.0
100
AcDbLine
 10
9504.761265317423
 20
4767.931598721734
 30
0.0
 11
9503.549925111235
 21
4758.531598721733
 31
0.0
  0
LINE
  5
17D6A
330
747D
100
AcDbEntity
  8
部品1
 48
50.0
100
AcDbLine
 10
9489.549925111235
 20
4758.531598721733
 30
0.0
 11
9503.549925111235
 21
4758.531598721733
 31
0.0
  0
LINE
  5
17D6B
330
747D
100
AcDbEntity
  8
部品1
 48
50.0
100
AcDbLine
 10
9489.549925111235
 20
4758.531598721733
 30
0.0
 11
9488.261265317422
 21
4748.531598721732
 31
0.0
  0
LINE
  5
17D6C
330
747D
100
AcDbEntity
  8
部品1
 48
50.0
100
AcDbLine
 10
9528.761265317422
 20
4767.931598721734
 30
0.0
 11
9531.261265317423
 21
4748.531598721732
 31
0.0
  0
LINE
  5
17D6D
330
747D
100
AcDbEntity
  8
部品1
 48
50.0
100
AcDbLine
 10
8184.250175413138
 20
4670.520531213158
 30
0.0
 11
11269.27235522168
 21
4670.520531213159
 31
0.0
  0
LINE
  5
17D6E
330
747D
100
AcDbEntity
  8
部品1
100
AcDbLine
 10
9747.76126531742
 20
4748.531598721732
 30
0.0
 11
9723.761265317422
 21
4748.531598721732
 31
0.0
  0
LINE
  5
17D6F
330
747D
100
AcDbEntity
  8
部品1
 48
50.0
100
AcDbLine
 10
9713.261265317422
 20
4767.931598721737
 30
0.0
 11
9723.761265317422
 21
4748.531598721736
 31
0.0
  0
LINE
  5
17D70
330
747D
100
AcDbEntity
  8
部品1
 48
50.0
100
AcDbLine
 10
9685.261265317421
 20
4767.931598721737
 30
0.0
 11
9674.761265317421
 21
4748.531598721736
 31
0.0
  0
LINE
  5
17D71
330
747D
100
AcDbEntity
  8
部品1
 48
50.0
100
AcDbLine
 10
9685.261265317421
 20
4767.931598721737
 30
0.0
 11
9713.26126531742
 21
4767.931598721737
 31
0.0
  0
LINE
  5
17D72
330
747D
100
AcDbEntity
  8
部品1
 48
50.0
100
AcDbLine
 10
9758.261265317422
 20
4767.931598721737
 30
0.0
 11
9747.761265317421
 21
4748.531598721736
 31
0.0
  0
LINE
  5
17D73
330
747D
100
AcDbEntity
  8
部品1
 48
50.0
100
AcDbLine
 10
9786.261265317422
 20
4767.931598721737
 30
0.0
 11
9796.761265317423
 21
4748.531598721736
 31
0.0
  0
LINE
  5
17D74
330
747D
100
AcDbEntity
  8
部品1
 48
50.0
100
AcDbLine
 10
9758.261265317422
 20
4767.931598721737
 30
0.0
 11
9786.261265317419
 21
4767.931598721737
 31
0.0
  0
LINE
  5
17D75
330
747D
100
AcDbEntity
  8
部品1
100
AcDbLine
 10
9908.261265317419
 20
4748.531598721718
 30
0.0
 11
9796.76126531743
 21
4748.531598721718
 31
0.0
  0
LINE
  5
17D76
330
747D
100
AcDbEntity
  8
部品1
100
AcDbLine
 10
9674.761265317419
 20
4748.531598721732
 30
0.0
 11
9531.261265317418
 21
4748.531598721732
 31
0.0
  0
LINE
  5
17D77
330
747D
100
AcDbEntity
  8
部品1
100
AcDbLine
 10
9711.761265317429
 20
4767.931598721734
 30
0.0
 11
9711.761265317429
 21
4670.520531213162
 31
0.0
  0
LINE
  5
17D78
330
747D
100
AcDbEntity
  8
部品1
100
AcDbLine
 10
9686.761265317429
 20
4767.931598721734
 30
0.0
 11
9686.761265317429
 21
4670.520531213162
 31
0.0
  0
LINE
  5
17D79
330
747D
100
AcDbEntity
  8
部品1
100
AcDbLine
 10
9759.761265317429
 20
4767.931598721734
 30
0.0
 11
9759.761265317431
 21
4670.520531213162
 31
0.0
  0
LINE
  5
17D7A
330
747D
100
AcDbEntity
  8
部品1
100
AcDbLine
 10
9784.761265317429
 20
4767.931598721734
 30
0.0
 11
9784.761265317431
 21
4670.520531213162
 31
0.0
  0
LINE
  5
17D7B
330
747D
100
AcDbEntity
  8
部品1
100
AcDbLine
 10
10328.26126531742
 20
4748.531598721721
 30
0.0
 11
10216.76126531743
 21
4748.531598721721
 31
0.0
  0
LINE
  5
17D7C
330
747D
100
AcDbEntity
  8
部品1
100
AcDbLine
 10
10204.76126531743
 20
4767.931598721737
 30
0.0
 11
10204.76126531743
 21
4670.520531213166
 31
0.0
  0
LINE
  5
17D7D
330
747D
100
AcDbEntity
  8
部品1
100
AcDbLine
 10
10179.76126531743
 20
4767.931598721737
 30
0.0
 11
10179.76126531743
 21
4670.520531213166
 31
0.0
  0
LINE
  5
17D7E
330
747D
100
AcDbEntity
  8
部品1
100
AcDbLine
 10
10106.76126531743
 20
4767.931598721737
 30
0.0
 11
10106.76126531743
 21
4670.520531213166
 31
0.0
  0
LINE
  5
17D7F
330
747D
100
AcDbEntity
  8
部品1
100
AcDbLine
 10
10131.76126531743
 20
4767.931598721737
 30
0.0
 11
10131.76126531743
 21
4670.520531213166
 31
0.0
  0
LINE
  5
17D80
330
747D
100
AcDbEntity
  8
部品1
 48
50.0
100
AcDbLine
 10
10178.26126531742
 20
4767.931598721741
 30
0.0
 11
10206.26126531742
 21
4767.931598721741
 31
0.0
  0
LINE
  5
17D81
330
747D
100
AcDbEntity
  8
部品1
 48
50.0
100
AcDbLine
 10
10206.26126531742
 20
4767.931598721741
 30
0.0
 11
10216.76126531742
 21
4748.531598721739
 31
0.0
  0
LINE
  5
17D82
330
747D
100
AcDbEntity
  8
部品1
 48
50.0
100
AcDbLine
 10
10178.26126531742
 20
4767.931598721741
 30
0.0
 11
10167.76126531742
 21
4748.531598721739
 31
0.0
  0
LINE
  5
17D83
330
747D
100
AcDbEntity
  8
部品1
 48
50.0
100
AcDbLine
 10
10105.26126531742
 20
4767.931598721741
 30
0.0
 11
10133.26126531742
 21
4767.931598721741
 31
0.0
  0
LINE
  5
17D84
330
747D
100
AcDbEntity
  8
部品1
 48
50.0
100
AcDbLine
 10
10105.26126531742
 20
4767.931598721741
 30
0.0
 11
10094.76126531742
 21
4748.531598721739
 31
0.0
  0
LINE
  5
17D85
330
747D
100
AcDbEntity
  8
部品1
 48
50.0
100
AcDbLine
 10
10133.26126531742
 20
4767.931598721741
 30
0.0
 11
10143.76126531742
 21
4748.531598721739
 31
0.0
  0
LINE
  5
17D86
330
747D
100
AcDbEntity
  8
部品1
100
AcDbLine
 10
10167.76126531742
 20
4748.531598721736
 30
0.0
 11
10143.76126531742
 21
4748.531598721736
 31
0.0
  0
LINE
  5
17D87
330
747D
100
AcDbEntity
  8
部品1
100
AcDbLine
 10
10094.76126531742
 20
4748.531598721736
 30
0.0
 11
9951.26126531742
 21
4748.531598721736
 31
0.0
  0
LINE
  5
17D88
330
747D
100
AcDbEntity
  8
部品1
 48
50.0
100
AcDbLine
 10
9948.761265317424
 20
4767.931598721737
 30
0.0
 11
9951.261265317425
 21
4748.531598721736
 31
0.0
  0
LINE
  5
17D89
330
747D
100
AcDbEntity
  8
部品1
 48
50.0
100
AcDbLine
 10
9909.549925111239
 20
4758.531598721736
 30
0.0
 11
9908.261265317424
 21
4748.531598721736
 31
0.0
  0
LINE
  5
17D8A
330
747D
100
AcDbEntity
  8
部品1
 48
50.0
100
AcDbLine
 10
9909.549925111239
 20
4758.531598721736
 30
0.0
 11
9923.549925111238
 21
4758.531598721736
 31
0.0
  0
LINE
  5
17D8B
330
747D
100
AcDbEntity
  8
部品1
 48
50.0
100
AcDbLine
 10
9924.761265317425
 20
4767.931598721737
 30
0.0
 11
9923.549925111238
 21
4758.531598721736
 31
0.0
  0
LINE
  5
17D8C
330
747D
100
AcDbEntity
  8
部品1
 48
50.0
100
AcDbLine
 10
9924.761265317425
 20
4767.931598721737
 30
0.0
 11
9948.761265317424
 21
4767.931598721737
 31
0.0
  0
LINE
  5
17D8D
330
747D
100
AcDbEntity
  8
部品1
100
AcDbLine
 10
9945.761265317416
 20
4767.931598721737
 30
0.0
 11
9945.761265317416
 21
4670.520531213162
 31
0.0
  0
LINE
  5
17D8E
330
747D
100
AcDbEntity
  8
部品1
100
AcDbLine
 10
9927.761265317418
 20
4767.931598721727
 30
0.0
 11
9927.761265317418
 21
4670.520531213162
 31
0.0
  0
LINE
  5
17DAA
330
747D
100
AcDbEntity
  8
部品1
100
AcDbLine
 10
10347.7612653174
 20
4767.931598721737
 30
0.0
 11
10347.7612653174
 21
4670.520531213173
 31
0.0
  0
LINE
  5
17DAB
330
747D
100
AcDbEntity
  8
部品1
100
AcDbLine
 10
10365.7612653174
 20
4767.931598721748
 30
0.0
 11
10365.7612653174
 21
4670.520531213173
 31
0.0
  0
LINE
  5
17DAC
330
747D
100
AcDbEntity
  8
部品1
 48
50.0
100
AcDbLine
 10
10344.7612653174
 20
4767.931598721748
 30
0.0
 11
10368.7612653174
 21
4767.931598721748
 31
0.0
  0
LINE
  5
17DAD
330
747D
100
AcDbEntity
  8
部品1
 48
50.0
100
AcDbLine
 10
10344.7612653174
 20
4767.931598721748
 30
0.0
 11
10343.54992511122
 21
4758.531598721748
 31
0.0
  0
LINE
  5
17DAE
330
747D
100
AcDbEntity
  8
部品1
 48
50.0
100
AcDbLine
 10
10329.54992511122
 20
4758.531598721748
 30
0.0
 11
10343.54992511122
 21
4758.531598721748
 31
0.0
  0
LINE
  5
17DAF
330
747D
100
AcDbEntity
  8
部品1
 48
50.0
100
AcDbLine
 10
10329.54992511122
 20
4758.531598721748
 30
0.0
 11
10328.2612653174
 21
4748.531598721747
 31
0.0
  0
LINE
  5
17DB0
330
747D
100
AcDbEntity
  8
部品1
 48
50.0
100
AcDbLine
 10
10368.7612653174
 20
4767.931598721748
 30
0.0
 11
10371.2612653174
 21
4748.531598721747
 31
0.0
  0
LINE
  5
17DB1
330
747D
100
AcDbEntity
  8
部品1
100
AcDbLine
 10
10514.7612653174
 20
4748.531598721747
 30
0.0
 11
10371.2612653174
 21
4748.531598721747
 31
0.0
  0
LINE
  5
17DB2
330
747D
100
AcDbEntity
  8
部品1
100
AcDbLine
 10
10587.7612653174
 20
4748.531598721747
 30
0.0
 11
10563.7612653174
 21
4748.531598721747
 31
0.0
  0
LINE
  5
17DB3
330
747D
100
AcDbEntity
  8
部品1
 48
50.0
100
AcDbLine
 10
10553.2612653174
 20
4767.931598721752
 30
0.0
 11
10563.7612653174
 21
4748.531598721751
 31
0.0
  0
LINE
  5
17DB4
330
747D
100
AcDbEntity
  8
部品1
 48
50.0
100
AcDbLine
 10
10525.2612653174
 20
4767.931598721752
 30
0.0
 11
10514.7612653174
 21
4748.531598721751
 31
0.0
  0
LINE
  5
17DB5
330
747D
100
AcDbEntity
  8
部品1
 48
50.0
100
AcDbLine
 10
10525.2612653174
 20
4767.931598721752
 30
0.0
 11
10553.2612653174
 21
4767.931598721752
 31
0.0
  0
LINE
  5
17DB6
330
747D
100
AcDbEntity
  8
部品1
 48
50.0
100
AcDbLine
 10
10598.2612653174
 20
4767.931598721752
 30
0.0
 11
10587.7612653174
 21
4748.531598721751
 31
0.0
  0
LINE
  5
17DB7
330
747D
100
AcDbEntity
  8
部品1
 48
50.0
100
AcDbLine
 10
10626.2612653174
 20
4767.931598721752
 30
0.0
 11
10636.7612653174
 21
4748.531598721751
 31
0.0
  0
LINE
  5
17DB8
330
747D
100
AcDbEntity
  8
部品1
 48
50.0
100
AcDbLine
 10
10598.2612653174
 20
4767.931598721752
 30
0.0
 11
10626.2612653174
 21
4767.931598721752
 31
0.0
  0
LINE
  5
17DB9
330
747D
100
AcDbEntity
  8
部品1
100
AcDbLine
 10
10551.76126531741
 20
4767.931598721748
 30
0.0
 11
10551.76126531741
 21
4670.520531213177
 31
0.0
  0
LINE
  5
17DBA
330
747D
100
AcDbEntity
  8
部品1
100
AcDbLine
 10
10526.76126531741
 20
4767.931598721748
 30
0.0
 11
10526.76126531741
 21
4670.520531213177
 31
0.0
  0
LINE
  5
17DBB
330
747D
100
AcDbEntity
  8
部品1
100
AcDbLine
 10
10599.76126531741
 20
4767.931598721748
 30
0.0
 11
10599.76126531741
 21
4670.520531213177
 31
0.0
  0
LINE
  5
17DBC
330
747D
100
AcDbEntity
  8
部品1
100
AcDbLine
 10
10624.76126531741
 20
4767.931598721748
 30
0.0
 11
10624.76126531741
 21
4670.520531213177
 31
0.0
  0
LINE
  5
17DBD
330
747D
100
AcDbEntity
  8
部品1
100
AcDbLine
 10
10748.2612653174
 20
4748.531598721732
 30
0.0
 11
10636.76126531741
 21
4748.531598721732
 31
0.0
  0
DIMENSION
  5
17E1A
330
747D
100
AcDbEntity
  8
寸法
 48
50.0
100
AcDbDimension
  2
*D28
 10
11251.76126531741
 20
5172.024768052734
 30
0.0
 11
11615.24654669164
 21
5172.024768052734
 31
0.0
 70
   160
 71
     5
 42
50.0
  3
INABA_S40G
100
AcDbAlignedDimension
 13
11301.76126531741
 23
4772.931598713264
 33
0.0
 14
11251.76126531741
 24
4772.931598713267
 34
0.0
100
AcDbRotatedDimension
  0
LINE
  5
17E1B
330
747D
100
AcDbEntity
  8
部品1
100
AcDbLine
 10
11187.76126531739
 20
4767.931598721723
 30
0.0
 11
11187.76126531739
 21
4670.520531213158
 31
0.0
  0
LINE
  5
17E1C
330
747D
100
AcDbEntity
  8
部品1
100
AcDbLine
 10
11205.76126531739
 20
4767.931598721734
 30
0.0
 11
11205.76126531739
 21
4670.520531213158
 31
0.0
  0
LINE
  5
17E1D
330
747D
100
AcDbEntity
  8
部品1
 48
50.0
100
AcDbLine
 10
11184.7612653174
 20
4767.931598721734
 30
0.0
 11
11208.7612653174
 21
4767.931598721734
 31
0.0
  0
LINE
  5
17E1E
330
747D
100
AcDbEntity
  8
部品1
 48
50.0
100
AcDbLine
 10
11256.83189331061
 20
4717.931598713261
 30
0.0
 11
11294.77522150019
 21
4717.931598713261
 31
0.0
  0
ARC
  5
17E1F
330
747D
100
AcDbEntity
  8
部品1
100
AcDbCircle
 10
11299.80212287711
 20
4690.60171603385
 30
0.0
 40
0.7
100
AcDbArc
 50
277.2868405166456
 51
356.3813705198688
  0
ARC
  5
17E20
330
747D
100
AcDbEntity
  8
部品1
100
AcDbCircle
 10
11300.27141900231
 20
4686.931598713261
 30
0.0
 40
3.0
100
AcDbArc
 50
90.0
 51
176.3813705198687
  0
LINE
  5
17E21
330
747D
100
AcDbEntity
  8
部品1
100
AcDbLine
 10
11297.2774002235
 20
4687.120943774373
 30
0.0
 11
11292.53030721134
 21
4612.05753551959
 31
0.0
  0
ARC
  5
17E22
330
747D
100
AcDbEntity
  8
部品1
100
AcDbCircle
 10
11291.83170282962
 20
4612.10171603385
 30
0.0
 40
0.7
100
AcDbArc
 50
277.2868405166456
 51
356.3813705198688
  0
ARC
  5
17E23
330
747D
100
AcDbEntity
  8
部品1
100
AcDbCircle
 10
11292.30099895482
 20
4608.431598713261
 30
0.0
 40
3.0
100
AcDbArc
 50
90.0
 51
176.3813705198687
  0
ARC
  5
17E24
330
747D
100
AcDbEntity
  8
部品1
100
AcDbCircle
 10
11281.64861065422
 20
4598.43159871326
 30
0.0
 40
7.0
100
AcDbArc
 50
270.0
 51
356.3813705198688
  0
ARC
  5
17E25
330
747D
100
AcDbEntity
  8
部品1
100
AcDbCircle
 10
11294.77522150019
 20
4710.931598713261
 30
0.0
 40
7.0
100
AcDbArc
 50
356.3813705198688
 51
90.0
  0
LINE
  5
17E26
330
747D
100
AcDbEntity
  8
部品1
100
AcDbLine
 10
11288.63465447143
 20
4597.989793570672
 30
0.0
 11
11289.30698017601
 21
4608.620943774372
 31
0.0
  0
LINE
  5
17E27
330
747D
100
AcDbEntity
  8
部品1
100
AcDbLine
 10
11300.50072725883
 20
4690.55753551959
 30
0.0
 11
11301.7612653174
 21
4710.489793570672
 31
0.0
  0
LINE
  5
17E28
330
747D
100
AcDbEntity
  8
部品1
100
AcDbLine
 10
11256.83189331061
 20
4717.931598713261
 30
0.0
 11
11294.77522150019
 21
4717.931598713261
 31
0.0
  0
ARC
  5
17E29
330
747D
100
AcDbEntity
  8
部品1
100
AcDbCircle
 10
11256.83189331061
 20
4712.931598713261
 30
0.0
 40
5.0
100
AcDbArc
 50
90.0
 51
180.0
  0
LINE
  5
17E2A
330
747D
100
AcDbEntity
  8
部品1
100
AcDbLine
 10
11251.83189331061
 20
4767.93159873016
 30
0.0
 11
11251.8318933106
 21
4670.520531213158
 31
0.0
  0
LINE
  5
17E2B
330
747D
100
AcDbEntity
  8
部品1
 48
50.0
100
AcDbLine
 10
11301.7612653174
 20
4710.489793570672
 30
0.0
 11
11301.7612653174
 21
4765.489793587571
 31
0.0
  0
ARC
  5
17E2C
330
747D
100
AcDbEntity
  8
部品1
100
AcDbCircle
 10
11256.83189331061
 20
4767.93159873016
 30
0.0
 40
5.0
100
AcDbArc
 50
90.0
 51
180.0
  0
LINE
  5
17E2D
330
747D
100
AcDbEntity
  8
部品1
100
AcDbLine
 10
11256.83189331061
 20
4772.931598730159
 30
0.0
 11
11294.77522150019
 21
4772.931598730159
 31
0.0
  0
ARC
  5
17E2E
330
747D
100
AcDbEntity
  8
部品1
100
AcDbCircle
 10
11294.77522150019
 20
4765.931598730159
 30
0.0
 40
7.0
100
AcDbArc
 50
356.3813705198688
 51
90.0
  0
LINE
  5
17E2F
330
747D
100
AcDbEntity
  8
細線
 48
50.0
100
AcDbLine
 10
11269.27235522168
 20
4717.931598713261
 30
0.0
 11
11269.27235522168
 21
4591.431598713262
 31
0.0
  0
LINE
  5
17E30
330
747D
100
AcDbEntity
  8
細線
 48
50.0
100
AcDbLine
 10
11251.83189331061
 20
4689.90343146121
 30
0.0
 11
11299.89513459455
 21
4689.903431461218
 31
0.0
  0
LINE
  5
17E31
330
747D
100
AcDbEntity
  8
部品1
 48
50.0
100
AcDbLine
 10
11184.7612653174
 20
4767.931598721734
 30
0.0
 11
11183.54992511121
 21
4758.531598721733
 31
0.0
  0
LINE
  5
17E32
330
747D
100
AcDbEntity
  8
部品1
 48
50.0
100
AcDbLine
 10
11169.54992511121
 20
4758.531598721733
 30
0.0
 11
11183.54992511121
 21
4758.531598721733
 31
0.0
  0
LINE
  5
17E33
330
747D
100
AcDbEntity
  8
部品1
 48
50.0
100
AcDbLine
 10
11169.54992511121
 20
4758.531598721733
 30
0.0
 11
11168.2612653174
 21
4748.531598721732
 31
0.0
  0
LINE
  5
17E34
330
747D
100
AcDbEntity
  8
部品1
 48
50.0
100
AcDbLine
 10
11208.7612653174
 20
4767.931598721734
 30
0.0
 11
11211.2612653174
 21
4748.531598721732
 31
0.0
  0
LINE
  5
17E35
330
747D
100
AcDbEntity
  8
部品1
100
AcDbLine
 10
11251.83189331061
 20
4748.531598721728
 30
0.0
 11
11211.2612653174
 21
4748.531598721728
 31
0.0
  0
LINE
  5
17E4F
330
747D
100
AcDbEntity
  8
部品1
100
AcDbLine
 10
11168.2612653174
 20
4748.531598721732
 30
0.0
 11
11056.76126531741
 21
4748.531598721732
 31
0.0
  0
LINE
  5
17E50
330
747D
100
AcDbEntity
  8
部品1
100
AcDbLine
 10
11044.76126531741
 20
4767.931598721748
 30
0.0
 11
11044.76126531741
 21
4670.520531213177
 31
0.0
  0
LINE
  5
17E51
330
747D
100
AcDbEntity
  8
部品1
100
AcDbLine
 10
11019.76126531741
 20
4767.931598721748
 30
0.0
 11
11019.76126531741
 21
4670.520531213177
 31
0.0
  0
LINE
  5
17E52
330
747D
100
AcDbEntity
  8
部品1
100
AcDbLine
 10
10946.76126531741
 20
4767.931598721748
 30
0.0
 11
10946.76126531741
 21
4670.520531213177
 31
0.0
  0
LINE
  5
17E53
330
747D
100
AcDbEntity
  8
部品1
100
AcDbLine
 10
10971.76126531741
 20
4767.931598721748
 30
0.0
 11
10971.76126531741
 21
4670.520531213177
 31
0.0
  0
LINE
  5
17E54
330
747D
100
AcDbEntity
  8
部品1
 48
50.0
100
AcDbLine
 10
11018.2612653174
 20
4767.931598721752
 30
0.0
 11
11046.2612653174
 21
4767.931598721752
 31
0.0
  0
LINE
  5
17E55
330
747D
100
AcDbEntity
  8
部品1
 48
50.0
100
AcDbLine
 10
11046.2612653174
 20
4767.931598721752
 30
0.0
 11
11056.7612653174
 21
4748.531598721751
 31
0.0
  0
LINE
  5
17E56
330
747D
100
AcDbEntity
  8
部品1
 48
50.0
100
AcDbLine
 10
11018.2612653174
 20
4767.931598721752
 30
0.0
 11
11007.7612653174
 21
4748.531598721751
 31
0.0
  0
LINE
  5
17E57
330
747D
100
AcDbEntity
  8
部品1
 48
50.0
100
AcDbLine
 10
10945.2612653174
 20
4767.931598721752
 30
0.0
 11
10973.2612653174
 21
4767.931598721752
 31
0.0
  0
LINE
  5
17E58
330
747D
100
AcDbEntity
  8
部品1
 48
50.0
100
AcDbLine
 10
10945.2612653174
 20
4767.931598721752
 30
0.0
 11
10934.7612653174
 21
4748.531598721751
 31
0.0
  0
LINE
  5
17E59
330
747D
100
AcDbEntity
  8
部品1
 48
50.0
100
AcDbLine
 10
10973.2612653174
 20
4767.931598721752
 30
0.0
 11
10983.7612653174
 21
4748.531598721751
 31
0.0
  0
LINE
  5
17E5A
330
747D
100
AcDbEntity
  8
部品1
100
AcDbLine
 10
11007.7612653174
 20
4748.531598721747
 30
0.0
 11
10983.7612653174
 21
4748.531598721747
 31
0.0
  0
LINE
  5
17E5B
330
747D
100
AcDbEntity
  8
部品1
100
AcDbLine
 10
10934.7612653174
 20
4748.531598721747
 30
0.0
 11
10791.2612653174
 21
4748.531598721747
 31
0.0
  0
LINE
  5
17E5C
330
747D
100
AcDbEntity
  8
部品1
 48
50.0
100
AcDbLine
 10
10788.7612653174
 20
4767.931598721748
 30
0.0
 11
10791.2612653174
 21
4748.531598721747
 31
0.0
  0
LINE
  5
17E5D
330
747D
100
AcDbEntity
  8
部品1
 48
50.0
100
AcDbLine
 10
10749.54992511122
 20
4758.531598721748
 30
0.0
 11
10748.2612653174
 21
4748.531598721747
 31
0.0
  0
LINE
  5
17E5E
330
747D
100
AcDbEntity
  8
部品1
 48
50.0
100
AcDbLine
 10
10749.54992511122
 20
4758.531598721748
 30
0.0
 11
10763.54992511121
 21
4758.531598721748
 31
0.0
  0
LINE
  5
17E5F
330
747D
100
AcDbEntity
  8
部品1
 48
50.0
100
AcDbLine
 10
10764.7612653174
 20
4767.931598721748
 30
0.0
 11
10763.54992511121
 21
4758.531598721748
 31
0.0
  0
LINE
  5
17E60
330
747D
100
AcDbEntity
  8
部品1
 48
50.0
100
AcDbLine
 10
10764.7612653174
 20
4767.931598721748
 30
0.0
 11
10788.7612653174
 21
4767.931598721748
 31
0.0
  0
LINE
  5
17E61
330
747D
100
AcDbEntity
  8
部品1
100
AcDbLine
 10
10785.76126531739
 20
4767.931598721748
 30
0.0
 11
10785.76126531739
 21
4670.520531213173
 31
0.0
  0
LINE
  5
17E62
330
747D
100
AcDbEntity
  8
部品1
100
AcDbLine
 10
10767.76126531739
 20
4767.931598721737
 30
0.0
 11
10767.76126531739
 21
4670.520531213173
 31
0.0
  0
LINE
  5
17E89
330
747D
100
AcDbEntity
  8
細線
 48
50.0
100
AcDbLine
 10
11119.26126531742
 20
4537.931598713261
 30
0.0
 11
11119.26126531742
 21
2747.931598713261
 31
0.0
  0
LINE
  5
17E8A
330
747D
100
AcDbEntity
  8
細線
 48
50.0
100
AcDbLine
 10
11134.26126531741
 20
4537.931598713261
 30
0.0
 11
11134.26126531741
 21
2747.931598713261
 31
0.0
  0
LINE
  5
17E8B
330
747D
100
AcDbEntity
  8
細線
 48
50.0
100
AcDbLine
 10
10994.26126531742
 20
4537.931598713261
 30
0.0
 11
10994.26126531742
 21
2747.931598713261
 31
0.0
  0
LINE
  5
17E8C
330
747D
100
AcDbEntity
  8
細線
 48
50.0
100
AcDbLine
 10
10979.26126531742
 20
4537.931598713261
 30
0.0
 11
10979.26126531742
 21
2747.931598713261
 31
0.0
  0
LINE
  5
17E8D
330
747D
100
AcDbEntity
  8
細線
 48
50.0
100
AcDbLine
 10
10839.26126531742
 20
4537.931598713261
 30
0.0
 11
10839.26126531742
 21
2747.931598713261
 31
0.0
  0
LINE
  5
17E8E
330
747D
100
AcDbEntity
  8
細線
 48
50.0
100
AcDbLine
 10
10854.26126531742
 20
4537.931598713261
 30
0.0
 11
10854.26126531742
 21
2747.931598713261
 31
0.0
  0
LINE
  5
17E8F
330
747D
100
AcDbEntity
  8
細線
 48
50.0
100
AcDbLine
 10
8599.261265317414
 20
4537.931598713261
 30
0.0
 11
8599.261265317414
 21
2747.931598713261
 31
0.0
  0
LINE
  5
17E90
330
747D
100
AcDbEntity
  8
細線
 48
50.0
100
AcDbLine
 10
8614.261265317415
 20
4537.931598713261
 30
0.0
 11
8614.261265317415
 21
2747.931598713261
 31
0.0
  0
LINE
  5
17E91
330
747D
100
AcDbEntity
  8
細線
 48
50.0
100
AcDbLine
 10
8474.261265317414
 20
4537.931598713261
 30
0.0
 11
8474.261265317414
 21
2747.931598713261
 31
0.0
  0
LINE
  5
17E92
330
747D
100
AcDbEntity
  8
細線
 48
50.0
100
AcDbLine
 10
8459.261265317413
 20
4537.931598713261
 30
0.0
 11
8459.261265317413
 21
2747.931598713261
 31
0.0
  0
LINE
  5
17E93
330
747D
100
AcDbEntity
  8
細線
 48
50.0
100
AcDbLine
 10
8319.261265317415
 20
4537.931598713261
 30
0.0
 11
8319.261265317415
 21
2747.931598713261
 31
0.0
  0
LINE
  5
17E94
330
747D
100
AcDbEntity
  8
細線
 48
50.0
100
AcDbLine
 10
8334.261265317413
 20
4537.931598713261
 30
0.0
 11
8334.261265317413
 21
2747.931598713261
 31
0.0
  0
LINE
  5
17F39
330
747D
100
AcDbEntity
  8
破線
  6
HIDDEN
 48
5.0
100
AcDbLine
 10
5125.738635219616
 20
2597.931598713262
 30
0.0
 11
5125.738635219613
 21
2347.931598713262
 31
0.0
  0
LINE
  5
17F3A
330
747D
100
AcDbEntity
  8
破線
  6
HIDDEN
 48
5.0
100
AcDbLine
 10
4875.738635219612
 20
2347.931598713262
 30
0.0
 11
5125.738635219613
 21
2347.931598713262
 31
0.0
  0
LINE
  5
17F3B
330
747D
100
AcDbEntity
  8
破線
  6
HIDDEN
 48
5.0
100
AcDbLine
 10
4875.738635219612
 20
2597.931598713262
 30
0.0
 11
4875.738635219612
 21
2347.931598713262
 31
0.0
  0
DIMENSION
  5
17F3C
330
747D
100
AcDbEntity
  8
寸法
 48
50.0
100
AcDbDimension
  2
*D30
 10
4707.356205183428
 20
2597.931598713262
 30
0.0
 11
4707.356205183427
 21
2472.931598713262
 31
0.0
 70
   160
 71
     5
 42
250.0
  3
INABA_S40G
100
AcDbAlignedDimension
 13
4875.738635219612
 23
2347.931598713262
 33
0.0
 14
4875.738635219612
 24
2597.931598713262
 34
0.0
 50
270.0
100
AcDbRotatedDimension
  0
DIMENSION
  5
17F3D
330
747D
100
AcDbEntity
  8
寸法
 48
50.0
100
AcDbDimension
  2
*D29
 10
4875.738635219612
 20
2111.884269412884
 30
0.0
 11
5000.738635219612
 21
2111.884269412884
 31
0.0
 70
   160
 71
     5
 42
250.0
  3
INABA_S40G
100
AcDbAlignedDimension
 13
5125.738635219612
 23
2347.931598713262
 33
0.0
 14
4875.738635219612
 24
2347.931598713259
 34
0.0
100
AcDbRotatedDimension
  0
LINE
  5
17F3E
330
747D
100
AcDbEntity
  8
破線
  6
HIDDEN
 48
5.0
100
AcDbLine
 10
6440.738635219613
 20
2347.931598713262
 30
0.0
 11
6190.738635219613
 21
2347.931598713262
 31
0.0
  0
LINE
  5
17F3F
330
747D
100
AcDbEntity
  8
破線
  6
HIDDEN
 48
5.0
100
AcDbLine
 10
6440.738635219613
 20
2597.931598713262
 30
0.0
 11
6440.738635219613
 21
2347.931598713262
 31
0.0
  0
LINE
  5
17F40
330
747D
100
AcDbEntity
  8
破線
  6
HIDDEN
 48
5.0
100
AcDbLine
 10
6190.738635219609
 20
2597.931598713262
 30
0.0
 11
6190.738635219613
 21
2347.931598713262
 31
0.0
  0
LINE
  5
183D3
330
747D
100
AcDbEntity
  8
寸法
 48
50.0
100
AcDbLine
 10
9111.964271599234
 20
7617.04065209248
 30
0.0
 11
9060.558263689129
 21
7617.04065209248
 31
0.0
  0
LINE
  5
183D4
330
747D
100
AcDbEntity
  8
寸法
 48
50.0
100
AcDbLine
 10
9060.558263689129
 20
7617.04065209248
 30
0.0
 11
9060.558263689129
 21
7648.350810744647
 31
0.0
  0
LINE
  5
183D5
330
747D
100
AcDbEntity
  8
寸法
 48
50.0
100
AcDbLine
 10
9060.558263689129
 20
7648.350810744647
 30
0.0
 11
9030.796931697706
 21
7648.350810744647
 31
0.0
  0
LINE
  5
183D6
330
747D
100
AcDbEntity
  8
寸法
 48
50.0
100
AcDbLine
 10
9030.796931697706
 20
7648.350810744647
 30
0.0
 11
9086.261267644182
 21
7685.930261673256
 31
0.0
  0
LINE
  5
183D7
330
747D
100
AcDbEntity
  8
寸法
 48
50.0
100
AcDbLine
 10
9141.725603590657
 20
7648.350810744647
 30
0.0
 11
9086.261267644182
 21
7685.930261673256
 31
0.0
  0
LINE
  5
183D8
330
747D
100
AcDbEntity
  8
寸法
 48
50.0
100
AcDbLine
 10
9111.964271599234
 20
7648.350810744647
 30
0.0
 11
9141.725603590657
 21
7648.350810744647
 31
0.0
  0
LINE
  5
183D9
330
747D
100
AcDbEntity
  8
寸法
 48
50.0
100
AcDbLine
 10
9111.964271599234
 20
7617.04065209248
 30
0.0
 11
9111.964271599234
 21
7648.350810744647
 31
0.0
  0
LINE
  5
183DA
330
747D
100
AcDbEntity
  8
寸法
 48
50.0
100
AcDbLine
 10
9060.558263689129
 20
7617.04065209248
 30
0.0
 11
9111.964271599234
 21
7617.04065209248
 31
0.0
  0
LINE
  5
183DB
330
747D
100
AcDbEntity
  8
寸法
 48
50.0
100
AcDbLine
 10
9391.129805876092
 20
7674.186242847302
 30
0.0
 11
9391.129805876092
 21
7620.522608265513
 31
0.0
  0
LINE
  5
183DC
330
747D
100
AcDbEntity
  8
寸法
 48
50.0
100
AcDbLine
 10
9480.414024471512
 20
7650.262608577816
 30
0.0
 11
9391.129805876092
 21
7674.186242847302
 31
0.0
  0
LINE
  5
183DD
330
747D
100
AcDbEntity
  8
寸法
 48
50.0
100
AcDbLine
 10
9261.262084295788
 20
7650.262608577816
 30
0.0
 11
9480.414024471512
 21
7650.262608577816
 31
0.0
  0
LINE
  5
183DE
330
747D
100
AcDbEntity
  8
細線
 48
50.0
100
AcDbLine
 10
10137.76126531739
 20
7815.504015472342
 30
0.0
 11
10764.76126531739
 21
7815.504015472342
 31
0.0
  0
LINE
  5
183DF
330
747D
100
AcDbEntity
  8
細線
 48
50.0
100
AcDbLine
 10
9483.76126997098
 20
7781.795246918267
 30
0.0
 11
10764.76126531739
 21
7781.795246918267
 31
0.0
  0
LINE
  5
183E0
330
747D
100
AcDbEntity
  8
細線
 48
50.0
100
AcDbLine
 10
9442.761269970983
 20
7811.20015491452
 30
0.0
 11
8688.761265317388
 21
7811.200154914516
 31
0.0
  0
LINE
  5
183E1
330
747D
100
AcDbEntity
  8
細線
100
AcDbLine
 10
10540.51125590093
 20
7835.003915437351
 30
0.0
 11
10542.84279542274
 21
7840.003918077312
 31
0.0
  0
LINE
  5
183E2
330
747D
100
AcDbEntity
  8
細線
100
AcDbLine
 10
10610.51126531739
 20
7835.003900523616
 30
0.0
 11
10608.1797188412
 21
7840.003918077298
 31
0.0
  0
LINE
  5
183E3
330
747D
100
AcDbEntity
  8
細線
100
AcDbLine
 10
10608.1797188412
 20
7840.003918077298
 30
0.0
 11
10542.84279542272
 21
7840.003918077283
 31
0.0
  0
LINE
  5
183E4
330
747D
100
AcDbEntity
  8
細線
100
AcDbLine
 10
10468.1797188412
 20
7840.003918077298
 30
0.0
 11
10402.84279542272
 21
7840.003918077283
 31
0.0
  0
LINE
  5
183E5
330
747D
100
AcDbEntity
  8
細線
100
AcDbLine
 10
10470.51126531739
 20
7835.003900523616
 30
0.0
 11
10468.1797188412
 21
7840.003918077298
 31
0.0
  0
LINE
  5
183E6
330
747D
100
AcDbEntity
  8
細線
100
AcDbLine
 10
10400.51125590093
 20
7835.003915437351
 30
0.0
 11
10402.84279542274
 21
7840.003918077312
 31
0.0
  0
LINE
  5
183E7
330
747D
100
AcDbEntity
  8
細線
100
AcDbLine
 10
10260.51126531739
 20
7835.003900523616
 30
0.0
 11
10262.8428048392
 21
7840.003903163578
 31
0.0
  0
LINE
  5
183E8
330
747D
100
AcDbEntity
  8
細線
100
AcDbLine
 10
10330.51127473385
 20
7835.003885609883
 30
0.0
 11
10328.17972825766
 21
7840.003903163562
 31
0.0
  0
LINE
  5
183E9
330
747D
100
AcDbEntity
  8
細線
100
AcDbLine
 10
10328.17972825766
 20
7840.003903163562
 30
0.0
 11
10262.84280483918
 21
7840.003903163548
 31
0.0
  0
LINE
  5
183EA
330
747D
100
AcDbEntity
  8
細線
100
AcDbLine
 10
10032.92974950649
 20
7806.003939860945
 30
0.0
 11
9967.592826088022
 21
7806.00393986093
 31
0.0
  0
LINE
  5
183EB
330
747D
100
AcDbEntity
  8
細線
100
AcDbLine
 10
10035.26129598268
 20
7801.003922307265
 30
0.0
 11
10032.92974950649
 21
7806.003939860945
 31
0.0
  0
LINE
  5
183EC
330
747D
100
AcDbEntity
  8
細線
100
AcDbLine
 10
9965.261286566226
 20
7801.003937220999
 30
0.0
 11
9967.592826088036
 21
7806.003939860961
 31
0.0
  0
LINE
  5
183ED
330
747D
100
AcDbEntity
  8
細線
 48
50.0
100
AcDbLine
 10
9806.644644565404
 20
7819.274763676697
 30
0.0
 11
9812.400162148072
 21
7801.003912386211
 31
0.0
  0
LINE
  5
183EE
330
747D
100
AcDbEntity
  8
細線
 48
50.0
100
AcDbLine
 10
9795.716196084974
 20
7819.274763676697
 30
0.0
 11
9806.644644565404
 21
7819.274763676697
 31
0.0
  0
ARC
  5
183EF
330
747D
100
AcDbEntity
  8
細線
 48
50.0
100
AcDbCircle
 10
9790.261840027653
 20
7820.774763676697
 30
0.0
 40
5.0
100
AcDbArc
 50
204.6243183521304
 51
335.3756816478695
  0
ARC
  5
183F0
330
747D
100
AcDbEntity
  8
細線
 48
50.0
100
AcDbCircle
 10
9795.716196084974
 20
7818.274763676697
 30
0.0
 40
1.0
100
AcDbArc
 50
90.0
 51
155.3756816478695
  0
ARC
  5
183F1
330
747D
100
AcDbEntity
  8
細線
 48
50.0
100
AcDbCircle
 10
9784.807483970338
 20
7818.274763676697
 30
0.0
 40
1.0
100
AcDbArc
 50
24.62431835213048
 51
90.0
  0
LINE
  5
183F2
330
747D
100
AcDbEntity
  8
細線
 48
50.0
100
AcDbLine
 10
9773.879035489905
 20
7819.274763676697
 30
0.0
 11
9784.807483970338
 21
7819.274763676697
 31
0.0
  0
LINE
  5
183F3
330
747D
100
AcDbEntity
  8
細線
 48
50.0
100
AcDbLine
 10
9768.123517907236
 20
7801.003912386203
 30
0.0
 11
9773.879035489905
 21
7819.274763676697
 31
0.0
  0
LINE
  5
183F4
330
747D
100
AcDbEntity
  8
細線
100
AcDbLine
 10
9825.261287797268
 20
7801.003909752008
 30
0.0
 11
9827.59282731908
 21
7806.003912391969
 31
0.0
  0
LINE
  5
183F5
330
747D
100
AcDbEntity
  8
細線
100
AcDbLine
 10
9895.261297213728
 20
7801.003894838274
 30
0.0
 11
9892.929750737538
 21
7806.003912391954
 31
0.0
  0
LINE
  5
183F6
330
747D
100
AcDbEntity
  8
細線
100
AcDbLine
 10
9892.929750737538
 20
7806.003912391954
 30
0.0
 11
9827.592827319065
 21
7806.00391239194
 31
0.0
  0
LINE
  5
183F7
330
747D
100
AcDbEntity
  8
細線
100
AcDbLine
 10
9752.929722373021
 20
7806.003912386174
 30
0.0
 11
9687.592798954547
 21
7806.003912386159
 31
0.0
  0
LINE
  5
183F8
330
747D
100
AcDbEntity
  8
細線
100
AcDbLine
 10
9755.26126884921
 20
7801.003894832494
 30
0.0
 11
9752.929722373021
 21
7806.003912386174
 31
0.0
  0
LINE
  5
183F9
330
747D
100
AcDbEntity
  8
細線
100
AcDbLine
 10
9685.261260663793
 20
7801.003912386203
 30
0.0
 11
9687.592798954561
 21
7806.003912386188
 31
0.0
  0
LINE
  5
183FA
330
747D
100
AcDbEntity
  8
細線
100
AcDbLine
 10
9545.261295982683
 20
7801.003920573574
 30
0.0
 11
9547.592834273451
 21
7806.003920573559
 31
0.0
  0
LINE
  5
183FB
330
747D
100
AcDbEntity
  8
細線
100
AcDbLine
 10
9615.2613041681
 20
7801.003903019863
 30
0.0
 11
9612.929757691913
 21
7806.003920573541
 31
0.0
  0
LINE
  5
183FC
330
747D
100
AcDbEntity
  8
細線
100
AcDbLine
 10
9612.929757691913
 20
7806.003920573541
 30
0.0
 11
9547.592834273437
 21
7806.003920573529
 31
0.0
  0
LINE
  5
183FD
330
747D
100
AcDbEntity
  8
細線
100
AcDbLine
 10
9173.761261785562
 20
7767.004092254286
 30
0.0
 11
9176.092800076331
 21
7772.00409225427
 31
0.0
  0
LINE
  5
183FE
330
747D
100
AcDbEntity
  8
細線
100
AcDbLine
 10
9243.761269970979
 20
7767.004074700572
 30
0.0
 11
9241.429723494793
 21
7772.004092254249
 31
0.0
  0
LINE
  5
183FF
330
747D
100
AcDbEntity
  8
細線
100
AcDbLine
 10
9241.429723494793
 20
7772.004092254249
 30
0.0
 11
9176.09280007632
 21
7772.004092254242
 31
0.0
  0
LINE
  5
18400
330
747D
100
AcDbEntity
  8
細線
100
AcDbLine
 10
9381.429723494791
 20
7772.004092254249
 30
0.0
 11
9316.092800076319
 21
7772.004092254242
 31
0.0
  0
LINE
  5
18401
330
747D
100
AcDbEntity
  8
細線
100
AcDbLine
 10
9383.76126997098
 20
7767.004074700572
 30
0.0
 11
9381.429723494791
 21
7772.004092254249
 31
0.0
  0
LINE
  5
18402
330
747D
100
AcDbEntity
  8
細線
100
AcDbLine
 10
9313.761261785563
 20
7767.004092254286
 30
0.0
 11
9316.092800076331
 21
7772.00409225427
 31
0.0
  0
LINE
  5
18403
330
747D
100
AcDbEntity
  8
細線
100
AcDbLine
 10
9101.429723494792
 20
7772.004092254249
 30
0.0
 11
9036.092800076319
 21
7772.004092254238
 31
0.0
  0
LINE
  5
18404
330
747D
100
AcDbEntity
  8
細線
100
AcDbLine
 10
9103.761269970979
 20
7767.004074700572
 30
0.0
 11
9101.429723494792
 21
7772.004092254249
 31
0.0
  0
LINE
  5
18405
330
747D
100
AcDbEntity
  8
細線
100
AcDbLine
 10
9033.761261785562
 20
7767.004092254282
 30
0.0
 11
9036.09280007633
 21
7772.004092254268
 31
0.0
  0
LINE
  5
18406
330
747D
100
AcDbEntity
  8
細線
100
AcDbLine
 10
8893.761269970978
 20
7767.004092254286
 30
0.0
 11
8896.092808261746
 21
7772.00409225427
 31
0.0
  0
LINE
  5
18407
330
747D
100
AcDbEntity
  8
細線
100
AcDbLine
 10
8963.761278156395
 20
7767.004074700572
 30
0.0
 11
8961.429731680208
 21
7772.004092254249
 31
0.0
  0
LINE
  5
18408
330
747D
100
AcDbEntity
  8
細線
100
AcDbLine
 10
8961.429731680208
 20
7772.004092254249
 30
0.0
 11
8896.092808261736
 21
7772.004092254242
 31
0.0
  0
ARC
  5
18409
330
747D
100
AcDbEntity
  8
部品1
 48
0.01
100
AcDbCircle
 10
8849.261158718645
 20
7766.002970069213
 30
0.0
 40
0.5
100
AcDbArc
 50
270.0
 51
0.0
  0
LINE
  5
1840A
330
747D
100
AcDbEntity
  8
部品1
 48
0.01
100
AcDbLine
 10
8849.761158718644
 20
7767.002970069213
 30
0.0
 11
8849.761158718644
 21
7766.002970069213
 31
0.0
  0
LINE
  5
1840B
330
747D
100
AcDbEntity
  8
部品1
 48
0.01
100
AcDbLine
 10
8849.761158718644
 20
7767.002970069213
 30
0.0
 11
8849.761158718644
 21
7766.002970069213
 31
0.0
  0
LINE
  5
1840C
330
747D
100
AcDbEntity
  8
部品1
 48
0.01
100
AcDbLine
 10
8849.261158718645
 20
7765.502970069213
 30
0.0
 11
8842.648653288579
 21
7765.502970069213
 31
0.0
  0
ARC
  5
1840D
330
747D
100
AcDbEntity
  8
部品1
100
AcDbCircle
 10
8842.717002841359
 20
7766.502970069213
 30
0.0
 40
1.0
100
AcDbArc
 50
160.5287793655778
 51
270.0
  0
ARC
  5
1840E
330
747D
100
AcDbEntity
  8
部品1
100
AcDbCircle
 10
8817.261158718643
 20
7775.502970069213
 30
0.0
 40
26.0
100
AcDbArc
 50
340.5287793655779
 51
0.0
  0
LINE
  5
1840F
330
747D
100
AcDbEntity
  8
部品1
100
AcDbLine
 10
8843.261158718645
 20
7775.502970069213
 30
0.0
 11
8843.261158718645
 21
7780.502970069213
 31
0.0
  0
ARC
  5
18410
330
747D
100
AcDbEntity
  8
部品1
 48
0.01
100
AcDbCircle
 10
8841.261158718644
 20
7780.502970069213
 30
0.0
 40
2.0
100
AcDbArc
 50
0.0
 51
90.0
  0
ARC
  5
18411
330
747D
100
AcDbEntity
  8
部品1
100
AcDbCircle
 10
8839.652767093834
 20
7779.502970069213
 30
0.0
 40
3.0
100
AcDbArc
 50
90.0
 51
141.6069559807873
  0
LINE
  5
18412
330
747D
100
AcDbEntity
  8
部品1
 48
0.01
100
AcDbLine
 10
8841.261158718644
 20
7782.502970069213
 30
0.0
 11
8839.652767093834
 21
7782.502970069213
 31
0.0
  0
ARC
  5
18413
330
747D
100
AcDbEntity
  8
部品1
100
AcDbCircle
 10
8821.190444504372
 20
7778.802970069216
 30
0.0
 40
3.0
100
AcDbArc
 50
254.0576313943215
 51
270.0
  0
ARC
  5
18414
330
747D
100
AcDbEntity
  8
部品1
100
AcDbCircle
 10
8828.331872932915
 20
7778.802970069216
 30
0.0
 40
3.0
100
AcDbArc
 50
270.0
 51
285.9423686056786
  0
LINE
  5
18415
330
747D
100
AcDbEntity
  8
部品1
100
AcDbLine
 10
8828.331872932915
 20
7775.802970069216
 30
0.0
 11
8821.190444504372
 21
7775.802970069216
 31
0.0
  0
ARC
  5
18416
330
747D
100
AcDbEntity
  8
部品1
100
AcDbCircle
 10
8824.761158718644
 20
7791.302970069216
 30
0.0
 40
16.0
100
AcDbArc
 50
285.9423686056786
 51
321.6069559807873
  0
LINE
  5
18417
330
747D
100
AcDbEntity
  8
部品1
 48
0.01
100
AcDbLine
 10
8808.261158718643
 20
7782.502970069213
 30
0.0
 11
8809.869550343455
 21
7782.502970069213
 31
0.0
  0
ARC
  5
18418
330
747D
100
AcDbEntity
  8
部品1
100
AcDbCircle
 10
8809.869550343455
 20
7779.502970069213
 30
0.0
 40
3.0
100
AcDbArc
 50
38.39304401921267
 51
90.0
  0
ARC
  5
18419
330
747D
100
AcDbEntity
  8
部品1
100
AcDbCircle
 10
8824.761158718644
 20
7791.302970069216
 30
0.0
 40
16.0
100
AcDbArc
 50
218.3930440192126
 51
254.0576313943215
  0
LINE
  5
1841A
330
747D
100
AcDbEntity
  8
部品1
100
AcDbLine
 10
8806.261158718644
 20
7775.502970069213
 30
0.0
 11
8806.261158718644
 21
7780.502970069213
 31
0.0
  0
ARC
  5
1841B
330
747D
100
AcDbEntity
  8
部品1
 48
0.01
100
AcDbCircle
 10
8808.261158718643
 20
7780.502970069213
 30
0.0
 40
2.0
100
AcDbArc
 50
90.0
 51
180.0
  0
ARC
  5
1841C
330
747D
100
AcDbEntity
  8
部品1
100
AcDbCircle
 10
8832.261158718644
 20
7775.502970069213
 30
0.0
 40
26.0
100
AcDbArc
 50
180.0
 51
199.4712206344221
  0
ARC
  5
1841D
330
747D
100
AcDbEntity
  8
部品1
 48
0.01
100
AcDbCircle
 10
8800.261158718644
 20
7766.002970069213
 30
0.0
 40
0.5
100
AcDbArc
 50
180.0
 51
270.0
  0
LINE
  5
1841E
330
747D
100
AcDbEntity
  8
部品1
 48
0.01
100
AcDbLine
 10
8800.261158718644
 20
7765.502970069213
 30
0.0
 11
8806.805314595928
 21
7765.502970069213
 31
0.0
  0
LINE
  5
1841F
330
747D
100
AcDbEntity
  8
部品1
 48
0.01
100
AcDbLine
 10
8799.761158718643
 20
7767.002970069213
 30
0.0
 11
8799.761158718643
 21
7766.002970069213
 31
0.0
  0
ARC
  5
18420
330
747D
100
AcDbEntity
  8
部品1
100
AcDbCircle
 10
8806.805314595928
 20
7766.502970069213
 30
0.0
 40
1.0
100
AcDbArc
 50
270.0
 51
19.47122063442214
  0
LINE
  5
18421
330
747D
100
AcDbEntity
  8
細線
100
AcDbLine
 10
8845.261158718651
 20
7785.002970069216
 30
0.0
 11
8804.261158718651
 21
7785.002970069209
 31
0.0
  0
LINE
  5
18422
330
747D
100
AcDbEntity
  8
細線
100
AcDbLine
 10
8804.261158718651
 20
7785.002970069209
 30
0.0
 11
8804.261158718651
 21
7767.002970069191
 31
0.0
  0
LINE
  5
18423
330
747D
100
AcDbEntity
  8
細線
100
AcDbLine
 10
8845.261158718651
 20
7785.002970069216
 30
0.0
 11
8845.261158718651
 21
7767.002970069191
 31
0.0
  0
LINE
  5
18424
330
747D
100
AcDbEntity
  8
細線
100
AcDbLine
 10
8688.761265317388
 20
7771.003900523616
 30
0.0
 11
8688.761265317388
 21
7767.003900523665
 31
0.0
  0
DIMENSION
  5
18425
330
747D
100
AcDbEntity
  8
寸法
 48
50.0
100
AcDbDimension
  2
*D31
 10
9954.76126531739
 20
7065.251074327425
 30
0.0
 11
9349.448920913307
 21
7065.251074327425
 31
0.0
 70
   160
  1
有効開口部間口\P<>
 71
     5
 42
1266.0
  3
INABA_S40
100
AcDbAlignedDimension
 13
8688.761265317388
 23
7762.003900523616
 33
0.0
 14
9954.76126531739
 24
7762.003900523616
 34
0.0
100
AcDbRotatedDimension
1001
ACAD
1000
DSTYLE
1002
{
1070
    41
1040
0.5
1070
    44
1040
1.0
1070
   147
1040
0.8
1070
   271
1070
     2
1070
   272
1070
     2
1070
   289
1070
     3
1070
   340
1005
F706
1070
   343
1005
16F34
1070
   344
1005
16F34
1002
}
  0
LINE
  5
18426
330
747D
100
AcDbEntity
  8
部品1
100
AcDbLine
 10
10776.76126531739
 20
7839.003900523618
 30
0.0
 11
10803.76126531739
 21
7839.003900523618
 31
0.0
  0
LINE
  5
18428
330
747D
100
AcDbEntity
  8
部品1
100
AcDbLine
 10
10803.76126531739
 20
7762.003900523616
 30
0.0
 11
10803.76126531739
 21
7839.003900523618
 31
0.0
  0
LINE
  5
18429
330
747D
100
AcDbEntity
  8
部品1
100
AcDbLine
 10
10764.76126531739
 20
7835.003900523616
 30
0.0
 11
10776.76126531739
 21
7835.003900523616
 31
0.0
  0
LINE
  5
1842A
330
747D
100
AcDbEntity
  8
部品1
100
AcDbLine
 10
10773.76126531739
 20
7771.003900523616
 30
0.0
 11
10773.76126531739
 21
7762.003900523616
 31
0.0
  0
LINE
  5
1842B
330
747D
100
AcDbEntity
  8
部品1
100
AcDbLine
 10
10764.76126531739
 20
7771.003900523616
 30
0.0
 11
10773.76126531739
 21
7771.003900523616
 31
0.0
  0
LINE
  5
1842C
330
747D
100
AcDbEntity
  8
部品1
100
AcDbLine
 10
10764.76126531739
 20
7835.003900523616
 30
0.0
 11
10764.76126531739
 21
7771.003900523616
 31
0.0
  0
LINE
  5
1842D
330
747D
100
AcDbEntity
  8
部品1
100
AcDbLine
 10
10776.76126531739
 20
7866.003900523617
 30
0.0
 11
10776.76126531739
 21
7835.003900523616
 31
0.0
  0
LINE
  5
1842E
330
747D
100
AcDbEntity
  8
部品1
100
AcDbLine
 10
8688.761265317388
 20
7835.003900523616
 30
0.0
 11
8676.76126531739
 21
7835.003900523616
 31
0.0
  0
LINE
  5
1842F
330
747D
100
AcDbEntity
  8
部品1
100
AcDbLine
 10
8649.761265317389
 20
7839.003900523618
 30
0.0
 11
8676.76126531739
 21
7839.003900523618
 31
0.0
  0
LINE
  5
18430
330
747D
100
AcDbEntity
  8
部品1
100
AcDbLine
 10
8679.76126531739
 20
7771.003900523616
 30
0.0
 11
8679.76126531739
 21
7762.003900523616
 31
0.0
  0
LINE
  5
18431
330
747D
100
AcDbEntity
  8
部品1
100
AcDbLine
 10
8688.761265317388
 20
7771.003900523616
 30
0.0
 11
8679.76126531739
 21
7771.003900523616
 31
0.0
  0
LINE
  5
18432
330
747D
100
AcDbEntity
  8
部品1
100
AcDbLine
 10
8679.76126531739
 20
7762.003900523616
 30
0.0
 11
8649.761265317389
 21
7762.003900523616
 31
0.0
  0
LINE
  5
18433
330
747D
100
AcDbEntity
  8
部品1
100
AcDbLine
 10
8649.761265317389
 20
7762.003900523616
 30
0.0
 11
8649.761265317389
 21
7839.003900523618
 31
0.0
  0
LINE
  5
18434
330
747D
100
AcDbEntity
  8
部品1
100
AcDbLine
 10
8688.761265317388
 20
7835.003900523616
 30
0.0
 11
8688.761265317388
 21
7771.003900523616
 31
0.0
  0
LINE
  5
18436
330
747D
100
AcDbEntity
  8
部品1
100
AcDbLine
 10
8676.76126531739
 20
7866.003900523613
 30
0.0
 11
10776.76126531739
 21
7866.003900523617
 31
0.0
  0
LINE
  5
18437
330
747D
100
AcDbEntity
  8
部品1
100
AcDbLine
 10
10773.76126531739
 20
7762.003900523616
 30
0.0
 11
10803.76126531739
 21
7762.003900523616
 31
0.0
  0
LINE
  5
18438
330
747D
100
AcDbEntity
  8
部品1
100
AcDbLine
 10
8679.76126531739
 20
7762.003900523616
 30
0.0
 11
10776.76126531739
 21
7762.003900523616
 31
0.0
  0
LINE
  5
18439
330
747D
100
AcDbEntity
  8
細線
  6
Continuous
 62
     5
100
AcDbLine
 10
10055.76126531739
 20
7801.003900523614
 30
0.0
 11
10055.76126531739
 21
7801.003900523614
 31
0.0
  0
LINE
  5
1843A
330
747D
100
AcDbEntity
  8
細線
  6
Continuous
 62
     5
100
AcDbLine
 10
10048.26130063628
 20
7801.00391044467
 30
0.0
 11
10048.26130063628
 21
7801.00391044467
 31
0.0
  0
LINE
  5
1843B
330
747D
100
AcDbEntity
  8
細線
  6
Continuous
 62
     5
100
AcDbLine
 10
10042.26130063628
 20
7801.00391044467
 30
0.0
 11
10042.26130063628
 21
7801.00391044467
 31
0.0
  0
LINE
  5
1843C
330
747D
100
AcDbEntity
  8
細線
  6
Continuous
 62
     5
100
AcDbLine
 10
10109.76126531739
 20
7820.003900523613
 30
0.0
 11
10109.76126531739
 21
7820.003900523613
 31
0.0
  0
LINE
  5
1843D
330
747D
100
AcDbEntity
  8
細線
 48
50.0
100
AcDbLine
 10
8702.761269970983
 20
7787.604074700571
 30
0.0
 11
8702.761269970983
 21
7796.00022510821
 31
0.0
  0
LINE
  5
1843E
330
747D
100
AcDbEntity
  8
細線
 48
50.0
100
AcDbLine
 10
8702.761269970983
 20
7796.00022510821
 30
0.0
 11
8688.761265317388
 21
7796.000225108207
 31
0.0
  0
LINE
  5
1843F
330
747D
100
AcDbEntity
  8
細線
 48
50.0
100
AcDbLine
 10
9453.76126997098
 20
7784.154074700571
 30
0.0
 11
9453.76126997098
 21
7789.004074700573
 31
0.0
  0
LINE
  5
18440
330
747D
100
AcDbEntity
  8
細線
 48
50.0
100
AcDbLine
 10
9453.76126997098
 20
7789.004074700573
 30
0.0
 11
9468.761269970979
 21
7789.004074700573
 31
0.0
  0
LINE
  5
18441
330
747D
100
AcDbEntity
  8
細線
 48
50.0
100
AcDbLine
 10
9468.761269970979
 20
7789.004074700573
 30
0.0
 11
9468.761269970983
 21
7796.004074700572
 31
0.0
  0
LINE
  5
18442
330
747D
100
AcDbEntity
  8
細線
 48
50.0
100
AcDbLine
 10
9468.761269970983
 20
7796.004074700572
 30
0.0
 11
9483.76126997098
 21
7796.004074700572
 31
0.0
  0
LINE
  5
18443
330
747D
100
AcDbEntity
  8
細線
 48
50.0
100
AcDbLine
 10
9483.76126997098
 20
7796.004074700572
 30
0.0
 11
9483.76126997098
 21
7767.004074700572
 31
0.0
  0
LINE
  5
18444
330
747D
100
AcDbEntity
  8
細線
 48
50.0
100
AcDbLine
 10
8679.76126531739
 20
7767.00140904404
 30
0.0
 11
8893.761269970978
 21
7767.004092254286
 31
0.0
  0
LINE
  5
18445
330
747D
100
AcDbEntity
  8
細線
 48
50.0
100
AcDbLine
 10
9383.76126997098
 20
7767.004074700572
 30
0.0
 11
9483.76126997098
 21
7767.004074700572
 31
0.0
  0
LINE
  5
18446
330
747D
100
AcDbEntity
  8
細線
 48
50.0
100
AcDbLine
 10
9103.761269970979
 20
7767.004074700572
 30
0.0
 11
9173.761269970979
 21
7767.004074700572
 31
0.0
  0
LINE
  5
18447
330
747D
100
AcDbEntity
  8
細線
 48
50.0
100
AcDbLine
 10
9116.623234983508
 20
7767.004074700572
 30
0.0
 11
9122.378752566175
 21
7785.274925991067
 31
0.0
  0
LINE
  5
18448
330
747D
100
AcDbEntity
  8
細線
 48
50.0
100
AcDbLine
 10
9122.378752566175
 20
7785.274925991067
 30
0.0
 11
9133.30720104661
 21
7785.274925991062
 31
0.0
  0
ARC
  5
18449
330
747D
100
AcDbEntity
  8
細線
 48
50.0
100
AcDbCircle
 10
9133.30720104661
 20
7784.274925991063
 30
0.0
 40
1.0
100
AcDbArc
 50
24.62431835213048
 51
90.0
  0
ARC
  5
1844A
330
747D
100
AcDbEntity
  8
細線
 48
50.0
100
AcDbCircle
 10
9144.215913161243
 20
7784.274925991063
 30
0.0
 40
1.0
100
AcDbArc
 50
90.0
 51
155.3756816478695
  0
ARC
  5
1844B
330
747D
100
AcDbEntity
  8
細線
 48
50.0
100
AcDbCircle
 10
9138.761557103924
 20
7786.774925991062
 30
0.0
 40
5.0
100
AcDbArc
 50
204.6243183521304
 51
335.3756816478695
  0
LINE
  5
1844C
330
747D
100
AcDbEntity
  8
細線
 48
50.0
100
AcDbLine
 10
9144.215913161243
 20
7785.274925991062
 30
0.0
 11
9155.144361641676
 21
7785.274925991067
 31
0.0
  0
LINE
  5
1844D
330
747D
100
AcDbEntity
  8
細線
 48
50.0
100
AcDbLine
 10
9155.144361641676
 20
7785.274925991067
 30
0.0
 11
9160.899879224343
 21
7767.004074700572
 31
0.0
  0
LINE
  5
1844E
330
747D
100
AcDbEntity
  8
細線
 48
50.0
100
AcDbLine
 10
9453.76126997098
 20
7787.604074700571
 30
0.0
 11
8702.761269970983
 21
7787.604074700571
 31
0.0
  0
LINE
  5
1844F
330
747D
100
AcDbEntity
  8
細線
 48
50.0
100
AcDbLine
 10
9313.76126997098
 20
7767.004074700572
 30
0.0
 11
9243.761269970979
 21
7767.004074700572
 31
0.0
  0
LINE
  5
18450
330
747D
100
AcDbEntity
  8
細線
100
AcDbLine
 10
9033.761269970979
 20
7767.004074700572
 30
0.0
 11
8963.761278156395
 21
7767.004074700572
 31
0.0
  0
LINE
  5
18451
330
747D
100
AcDbEntity
  8
細線
 48
50.0
100
AcDbLine
 10
10107.7612606638
 20
7821.604118558439
 30
0.0
 11
9472.761269970979
 21
7821.604118558436
 31
0.0
  0
LINE
  5
18452
330
747D
100
AcDbEntity
  8
細線
 48
50.0
100
AcDbLine
 10
9472.761269970979
 20
7818.500268966079
 30
0.0
 11
9472.761269970979
 21
7823.00026896608
 31
0.0
  0
LINE
  5
18453
330
747D
100
AcDbEntity
  8
細線
 48
50.0
100
AcDbLine
 10
9472.761269970979
 20
7823.00026896608
 30
0.0
 11
9457.761269970978
 21
7823.00026896608
 31
0.0
  0
LINE
  5
18454
330
747D
100
AcDbEntity
  8
細線
 48
50.0
100
AcDbLine
 10
9457.761269970978
 20
7823.00026896608
 30
0.0
 11
9457.761269970978
 21
7830.000268966078
 31
0.0
  0
LINE
  5
18455
330
747D
100
AcDbEntity
  8
細線
 48
50.0
100
AcDbLine
 10
9457.761269970978
 20
7830.000268966078
 30
0.0
 11
9442.761269970983
 21
7830.000268966076
 31
0.0
  0
LINE
  5
18456
330
747D
100
AcDbEntity
  8
細線
 48
50.0
100
AcDbLine
 10
9442.761269970983
 20
7830.000268966076
 30
0.0
 11
9442.761269970983
 21
7792.400040862965
 31
0.0
  0
LINE
  5
18457
330
747D
100
AcDbEntity
  8
細線
 48
50.0
100
AcDbLine
 10
9442.761269970983
 20
7792.400040862965
 30
0.0
 11
9462.761277272155
 21
7792.400082412505
 31
0.0
  0
LINE
  5
18458
330
747D
100
AcDbEntity
  8
細線
 48
50.0
100
AcDbLine
 10
9462.761232403213
 20
7801.003544048315
 30
0.0
 11
9462.761277272155
 21
7792.400082412505
 31
0.0
  0
LINE
  5
18459
330
747D
100
AcDbEntity
  8
細線
 48
50.0
100
AcDbLine
 10
10107.7612606638
 20
7818.154118558438
 30
0.0
 11
10107.7612606638
 21
7823.004118558436
 31
0.0
  0
LINE
  5
1845A
330
747D
100
AcDbEntity
  8
細線
 48
50.0
100
AcDbLine
 10
10107.7612606638
 20
7823.004118558436
 30
0.0
 11
10122.7612606638
 21
7823.004118558436
 31
0.0
  0
LINE
  5
1845B
330
747D
100
AcDbEntity
  8
細線
 48
50.0
100
AcDbLine
 10
10122.7612606638
 20
7823.004118558436
 30
0.0
 11
10122.76127229777
 21
7830.00411855848
 31
0.0
  0
LINE
  5
1845C
330
747D
100
AcDbEntity
  8
細線
 48
50.0
100
AcDbLine
 10
10122.76127229777
 20
7830.00411855848
 30
0.0
 11
10137.7612704683
 21
7830.00411855848
 31
0.0
  0
LINE
  5
1845D
330
747D
100
AcDbEntity
  8
細線
 48
50.0
100
AcDbLine
 10
10137.7612704683
 20
7830.00411855848
 30
0.0
 11
10137.76126016648
 21
7801.003912386207
 31
0.0
  0
LINE
  5
1845E
330
747D
100
AcDbEntity
  8
細線
 48
50.0
100
AcDbLine
 10
9825.261287797268
 20
7801.003920573574
 30
0.0
 11
9755.261539879684
 21
7801.003915136234
 31
0.0
  0
LINE
  5
1845F
330
747D
100
AcDbEntity
  8
細線
 48
50.0
100
AcDbLine
 10
9462.761232403213
 20
7801.003544048315
 30
0.0
 11
9473.993921757923
 21
7801.003727001461
 31
0.0
  0
ARC
  5
18460
330
747D
100
AcDbEntity
  8
細線
 48
50.0
100
AcDbCircle
 10
9480.576214065258
 20
7799.803890915073
 30
0.0
 40
1.8
100
AcDbArc
 50
270.0006665777295
 51
345.0005554812987
  0
LINE
  5
18461
330
747D
100
AcDbEntity
  8
細線
 48
50.0
100
AcDbLine
 10
9482.562647511338
 20
7800.262731372352
 30
0.0
 11
9482.31488506914
 21
7799.338033490245
 31
0.0
  0
LINE
  5
18462
330
747D
100
AcDbEntity
  8
細線
 48
50.0
100
AcDbLine
 10
9480.576235006415
 20
7798.003890915194
 30
0.0
 11
9476.946307587644
 21
7798.003848684714
 31
0.0
  0
ARC
  5
18463
330
747D
100
AcDbEntity
  8
細線
 48
50.0
100
AcDbCircle
 10
9476.946286646493
 20
7799.803848684594
 30
0.0
 40
1.8
100
AcDbArc
 50
195.0010443049394
 51
270.0006665777295
  0
LINE
  5
18464
330
747D
100
AcDbEntity
  8
細線
 48
50.0
100
AcDbLine
 10
9474.959859154235
 20
7800.262563652158
 30
0.0
 11
9475.207628650748
 21
7799.337942713576
 31
0.0
  0
ARC
  5
18465
330
747D
100
AcDbEntity
  8
細線
 48
50.0
100
AcDbCircle
 10
9473.993938045486
 20
7800.003727001595
 30
0.0
 40
1.0
100
AcDbArc
 50
15.00104430493943
 51
90.00093320877969
  0
LINE
  5
18466
330
747D
100
AcDbEntity
  8
細線
 48
50.0
100
AcDbLine
 10
9483.528568866441
 20
7801.003921691865
 30
0.0
 11
9484.470329017346
 21
7801.003928265716
 31
0.0
  0
ARC
  5
18467
330
747D
100
AcDbEntity
  8
細線
 48
50.0
100
AcDbCircle
 10
9483.528575846827
 20
7800.003921691892
 30
0.0
 40
1.0
100
AcDbArc
 50
90.0003999466794
 51
165.0005554812987
  0
LINE
  5
18468
330
747D
100
AcDbEntity
  8
細線
 48
50.0
100
AcDbLine
 10
10035.26126066379
 20
7801.003912386207
 30
0.0
 11
10137.76126016648
 21
7801.003912386207
 31
0.0
  0
LINE
  5
18469
330
747D
100
AcDbEntity
  8
細線
 48
50.0
100
AcDbLine
 10
9545.261295982683
 20
7801.003920573574
 30
0.0
 11
9484.161234755765
 21
7801.003928265716
 31
0.0
  0
LINE
  5
1846A
330
747D
100
AcDbEntity
  8
細線
 48
50.0
100
AcDbLine
 10
9965.261295982685
 20
7801.003957414656
 30
0.0
 11
9895.261289028297
 21
7801.003912391988
 31
0.0
  0
LINE
  5
1846B
330
747D
100
AcDbEntity
  8
細線
 48
50.0
100
AcDbLine
 10
9685.261260663793
 20
7801.003912386203
 30
0.0
 11
9615.261243375918
 21
7801.003912386211
 31
0.0
  0
ARC
  5
1846C
330
747D
100
AcDbEntity
  8
細線
 48
50.0
100
AcDbCircle
 10
10121.9612653174
 20
7834.203900523617
 30
0.0
 40
0.8
100
AcDbArc
 50
359.9997333689499
 51
89.99986668437072
  0
ARC
  5
1846D
330
747D
100
AcDbEntity
  8
細線
 48
50.0
100
AcDbCircle
 10
10129.56127214249
 20
7834.203911692235
 30
0.0
 40
0.8
100
AcDbArc
 50
90.00014387753465
 51
179.9997333689498
  0
LINE
  5
1846E
330
747D
100
AcDbEntity
  8
細線
 48
50.0
100
AcDbLine
 10
10121.96126717883
 20
7835.003900523616
 30
0.0
 11
10116.76126531739
 21
7835.003900523616
 31
0.0
  0
ARC
  5
1846F
330
747D
100
AcDbEntity
  8
細線
 48
50.0
100
AcDbCircle
 10
10123.46126531739
 20
7832.703900523617
 30
0.0
 40
0.7
100
AcDbArc
 50
180.0
 51
270.0
  0
ARC
  5
18470
330
747D
100
AcDbEntity
  8
細線
 48
50.0
100
AcDbCircle
 10
10128.06126531739
 20
7832.703900523617
 30
0.0
 40
0.7
100
AcDbArc
 50
270.0
 51
0.0
  0
LINE
  5
18471
330
747D
100
AcDbEntity
  8
細線
 48
50.0
100
AcDbLine
 10
10128.76126531739
 20
7832.703900523617
 30
0.0
 11
10128.76127214251
 21
7834.203915415105
 31
0.0
  0
LINE
  5
18472
330
747D
100
AcDbEntity
  8
細線
 48
50.0
100
AcDbLine
 10
10123.46126531739
 20
7832.003900523616
 30
0.0
 11
10128.06126531739
 21
7832.003900523616
 31
0.0
  0
LINE
  5
18473
330
747D
100
AcDbEntity
  8
細線
 48
50.0
100
AcDbLine
 10
10122.76126531739
 20
7834.203900523617
 30
0.0
 11
10122.76126531739
 21
7832.703900523617
 31
0.0
  0
LINE
  5
18474
330
747D
100
AcDbEntity
  8
細線
 48
50.0
100
AcDbLine
 10
10748.36126531739
 20
7865.003900523617
 30
0.0
 11
10111.76126531739
 21
7865.003900523614
 31
0.0
  0
LINE
  5
18475
330
747D
100
AcDbEntity
  8
細線
 48
50.0
100
AcDbLine
 10
10774.26126531739
 20
7860.003900523621
 30
0.0
 11
10758.36126531739
 21
7860.003900523617
 31
0.0
  0
LINE
  5
18476
330
747D
100
AcDbEntity
  8
細線
 48
50.0
100
AcDbLine
 10
10758.36126531739
 20
7860.003900523617
 30
0.0
 11
10748.36126531739
 21
7865.003900523617
 31
0.0
  0
LINE
  5
18477
330
747D
100
AcDbEntity
  8
細線
100
AcDbLine
 10
10359.26126531739
 20
7835.003900523616
 30
0.0
 11
10359.26126531739
 21
7864.303900523616
 31
0.0
  0
LINE
  5
18478
330
747D
100
AcDbEntity
  8
細線
100
AcDbLine
 10
10359.26126531739
 20
7864.303900523616
 30
0.0
 11
10379.26126531739
 21
7864.303900523616
 31
0.0
  0
LINE
  5
18479
330
747D
100
AcDbEntity
  8
細線
100
AcDbLine
 10
10379.26126531739
 20
7835.003900523616
 30
0.0
 11
10379.26126531739
 21
7864.303900523616
 31
0.0
  0
LINE
  5
1847A
330
747D
100
AcDbEntity
  8
細線
100
AcDbLine
 10
10540.51126531739
 20
7835.003900523616
 30
0.0
 11
10470.51126531739
 21
7835.003900523616
 31
0.0
  0
LINE
  5
1847B
330
747D
100
AcDbEntity
  8
細線
 48
50.0
100
AcDbLine
 10
10260.51126531739
 20
7835.003900523616
 30
0.0
 11
10129.55704489023
 21
7835.003900523616
 31
0.0
  0
LINE
  5
1847C
330
747D
100
AcDbEntity
  8
細線
100
AcDbLine
 10
10400.51126531739
 20
7835.003900523616
 30
0.0
 11
10330.51126531739
 21
7835.003900523616
 31
0.0
  0
LINE
  5
1847D
330
747D
100
AcDbEntity
  8
細線
 48
50.0
100
AcDbLine
 10
10116.76126531739
 20
7827.003900523617
 30
0.0
 11
10116.76126531739
 21
7835.003900523616
 31
0.0
  0
LINE
  5
1847E
330
747D
100
AcDbEntity
  8
細線
 48
50.0
100
AcDbLine
 10
10096.76126531739
 20
7827.00390052362
 30
0.0
 11
10116.76126531739
 21
7827.003900523617
 31
0.0
  0
LINE
  5
1847F
330
747D
100
AcDbEntity
  8
細線
 48
50.0
100
AcDbLine
 10
10111.76126531739
 20
7865.003900523617
 30
0.0
 11
10111.76126531739
 21
7860.003900523617
 31
0.0
  0
LINE
  5
18480
330
747D
100
AcDbEntity
  8
細線
 48
50.0
100
AcDbLine
 10
10096.76126531739
 20
7865.003900523614
 30
0.0
 11
10111.76126531739
 21
7865.003900523617
 31
0.0
  0
LINE
  5
18481
330
747D
100
AcDbEntity
  8
細線
 48
50.0
100
AcDbLine
 10
10096.76126531739
 20
7827.00390052362
 30
0.0
 11
10096.76126531739
 21
7865.003900523614
 31
0.0
  0
LINE
  5
18482
330
747D
100
AcDbEntity
  8
細線
100
AcDbLine
 10
10764.76126531739
 20
7835.003900523616
 30
0.0
 11
10610.51126531739
 21
7835.003900523616
 31
0.0
  0
LINE
  5
18483
330
747D
100
AcDbEntity
  8
細線
 48
50.0
100
AcDbLine
 10
10774.26126531739
 20
7860.003900523621
 30
0.0
 11
10774.26126531739
 21
7835.003900523616
 31
0.0
  0
DIMENSION
  5
18901
330
747D
100
AcDbEntity
  8
寸法
100
AcDbDimension
  2
*D32
 10
7907.150019690696
 20
7764.003900523452
 30
0.0
 11
7907.150019690696
 21
7623.518619149213
 31
0.0
 70
   160
 71
     5
 42
75.0
  3
INABA_S40
100
AcDbAlignedDimension
 13
8201.761265317415
 23
7839.003900523451
 33
0.0
 14
8649.761265317389
 24
7764.003900523452
 34
0.0
 50
90.0
100
AcDbRotatedDimension
1001
ACAD
1000
DSTYLE
1002
{
1070
    41
1040
0.5
1070
    44
1040
1.0
1070
   147
1040
0.8
1070
   271
1070
     2
1070
   272
1070
     2
1070
   289
1070
     3
1070
   340
1005
F706
1070
   343
1005
16F34
1070
   344
1005
16F34
1002
}
  0
DIMENSION
  5
1891B
330
747D
100
AcDbEntity
  8
寸法
 48
50.0
100
AcDbDimension
  2
*D33
 10
10803.76126531739
 20
6801.660096284257
 30
0.0
 11
9704.898011513854
 21
6801.660096284257
 31
0.0
 70
   160
 71
     5
 42
2154.0
  3
INABA_S40G
100
AcDbAlignedDimension
 13
8649.761265317389
 23
7764.003900523452
 33
0.0
 14
10803.76126531739
 24
7764.003900523452
 34
0.0
100
AcDbRotatedDimension
1001
ACAD
1000
DSTYLE
1002
{
1070
   341
1005
0
1002
}
  0
LWPOLYLINE
  5
18A18
330
747D
100
AcDbEntity
  8
部品1
 48
50.0
100
AcDbPolyline
 90
        4
 70
     1
 43
0.0
 10
8748.811265317412
 20
3594.181598713261
 10
8751.711265317414
 20
3594.181598713261
 10
8751.711265317414
 20
3603.681598713261
 10
8748.811265317412
 20
3603.681598713261
  0
CIRCLE
  5
18A19
330
747D
100
AcDbEntity
  8
部品1
 48
50.0
100
AcDbCircle
 10
8750.261265317412
 20
3598.931598713261
 30
0.0
 40
9.0
  0
ARC
  5
18A1A
330
747D
100
AcDbEntity
  8
細線
 48
50.0
100
AcDbCircle
 10
8750.261265317412
 20
3598.931598713261
 30
0.0
 40
4.0
100
AcDbArc
 50
111.2538091853132
 51
248.7461908146868
  0
ARC
  5
18A1B
330
747D
100
AcDbEntity
  8
細線
 48
50.0
100
AcDbCircle
 10
8750.261265317412
 20
3598.931598713261
 30
0.0
 40
17.5
100
AcDbArc
 50
306.4837370612677
 51
233.5162629387323
  0
LINE
  5
18A1C
330
747D
100
AcDbEntity
  8
細線
 48
50.0
100
AcDbLine
 10
8760.261265317408
 20
3575.072638132379
 30
0.0
 11
8760.261265317414
 21
3584.05712393262
 31
0.0
  0
LINE
  5
18A1D
330
747D
100
AcDbEntity
  8
細線
 48
50.0
100
AcDbLine
 10
8740.261265317412
 20
3575.07263813238
 30
0.0
 11
8740.261265317412
 21
3584.057123932617
 31
0.0
  0
ARC
  5
18A1E
330
747D
100
AcDbEntity
  8
細線
 48
50.0
100
AcDbCircle
 10
8750.261265317412
 20
3598.931598713261
 30
0.0
 40
26.5
100
AcDbArc
 50
249.3326835063939
 51
290.6673164933835
  0
ARC
  5
18A1F
330
747D
100
AcDbEntity
  8
細線
 48
50.0
100
AcDbCircle
 10
8759.261265317405
 20
3575.072638132379
 30
0.0
 40
1.0
100
AcDbArc
 50
290.6673164936062
 51
359.9999999998958
  0
ARC
  5
18A20
330
747D
100
AcDbEntity
  8
細線
 48
50.0
100
AcDbCircle
 10
8741.261265317413
 20
3575.07263813238
 30
0.0
 40
1.0
100
AcDbArc
 50
180.0
 51
249.3326835066164
  0
ARC
  5
18A21
330
747D
100
AcDbEntity
  8
細線
 48
50.0
100
AcDbCircle
 10
8739.261265317413
 20
3584.057123932617
 30
0.0
 40
1.0
100
AcDbArc
 50
0.0
 51
53.51626293873231
  0
ARC
  5
18A22
330
747D
100
AcDbEntity
  8
細線
 48
50.0
100
AcDbCircle
 10
8761.261265317417
 20
3584.05712393262
 30
0.0
 40
1.0
100
AcDbArc
 50
126.4837370615127
 51
180.0
  0
ARC
  5
18A23
330
747D
100
AcDbEntity
  8
細線
 48
50.0
100
AcDbCircle
 10
8750.261265317412
 20
3598.931598713261
 30
0.0
 40
21.5
100
AcDbArc
 50
255.8014401250294
 51
284.1985598749706
  0
ARC
  5
18A24
330
747D
100
AcDbEntity
  8
細線
 48
50.0
100
AcDbCircle
 10
8750.261265317412
 20
3598.931598713261
 30
0.0
 40
16.5
100
AcDbArc
 50
251.9694646069326
 51
288.0305353930674
  0
LINE
  5
18A25
330
747D
100
AcDbEntity
  8
細線
 48
50.0
100
AcDbLine
 10
8755.761265317413
 20
3578.379226587454
 30
0.0
 11
8755.761265317413
 21
3582.956618274791
 31
0.0
  0
LINE
  5
18A26
330
747D
100
AcDbEntity
  8
細線
 48
50.0
100
AcDbLine
 10
8744.761265317412
 20
3578.379226587454
 30
0.0
 11
8744.761265317412
 21
3582.95661827479
 31
0.0
  0
ARC
  5
18A27
330
747D
100
AcDbEntity
  8
細線
 48
50.0
100
AcDbCircle
 10
8745.061265317415
 20
3582.95661827479
 30
0.0
 40
0.3
100
AcDbArc
 50
71.96946460693259
 51
180.0
  0
ARC
  5
18A28
330
747D
100
AcDbEntity
  8
細線
 48
50.0
100
AcDbCircle
 10
8755.461265317412
 20
3582.956618274791
 30
0.0
 40
0.3
100
AcDbArc
 50
0.0
 51
108.0305353930674
  0
ARC
  5
18A29
330
747D
100
AcDbEntity
  8
細線
 48
50.0
100
AcDbCircle
 10
8755.461265317411
 20
3578.379226587454
 30
0.0
 40
0.3
100
AcDbArc
 50
284.1985598747622
 51
0.0000000001042204
  0
ARC
  5
18A2A
330
747D
100
AcDbEntity
  8
細線
 48
50.0
100
AcDbCircle
 10
8745.061265317415
 20
3578.379226587454
 30
0.0
 40
0.3
100
AcDbArc
 50
180.0
 51
255.8014401248081
  0
CIRCLE
  5
18A2B
330
747D
100
AcDbEntity
  8
細線
 48
50.0
100
AcDbCircle
 10
8750.261265317412
 20
3598.931598713261
 30
0.0
 40
12.0
  0
ARC
  5
18A2C
330
747D
100
AcDbEntity
  8
部品1
 48
50.0
100
AcDbCircle
 10
8750.261265317412
 20
3648.931598713261
 30
0.0
 40
8.5
100
AcDbArc
 50
114.315739171091
 51
245.684260828909
  0
CIRCLE
  5
18A2D
330
747D
100
AcDbEntity
  8
細線
 48
50.0
100
AcDbCircle
 10
8750.261265317412
 20
3648.931598713261
 30
0.0
 40
4.5
  0
LWPOLYLINE
  5
18A2E
330
747D
100
AcDbEntity
  8
部品1
 48
50.0
100
AcDbPolyline
 90
        2
 70
     0
 43
0.0
 10
8746.761265317413
 20
3667.606448110245
 10
8746.761265317413
 20
3656.677565405676
  0
CIRCLE
  5
18A2F
330
747D
100
AcDbEntity
  8
部品1
 48
50.0
100
AcDbCircle
 10
8750.261265317412
 20
3648.931598713261
 30
0.0
 40
19.0
  0
LWPOLYLINE
  5
18A30
330
747D
100
AcDbEntity
  8
部品1
 48
50.0
100
AcDbPolyline
 90
        2
 70
     0
 43
0.0
 10
8746.761265317413
 20
3641.185632020846
 10
8746.761265317413
 20
3630.256749316279
  0
LWPOLYLINE
  5
18A31
330
747D
100
AcDbEntity
  8
部品1
 48
50.0
100
AcDbPolyline
 90
        2
 70
     0
 43
0.0
 10
8753.761265317413
 20
3656.677565405676
 10
8753.761265317413
 20
3667.606448110245
  0
ARC
  5
18A32
330
747D
100
AcDbEntity
  8
部品1
 48
50.0
100
AcDbCircle
 10
8750.261265317412
 20
3648.931598713261
 30
0.0
 40
8.5
100
AcDbArc
 50
294.315739171091
 51
65.68426082890896
  0
LWPOLYLINE
  5
18A33
330
747D
100
AcDbEntity
  8
部品1
 48
50.0
100
AcDbPolyline
 90
        2
 70
     0
 43
0.0
 10
8753.761265317413
 20
3630.256749316279
 10
8753.761265317413
 20
3641.185632020846
  0
ARC
  5
18A34
330
747D
100
AcDbEntity
  8
細線
 48
50.0
100
AcDbCircle
 10
8750.261265317412
 20
3648.931598713261
 30
0.0
 40
16.5
100
AcDbArc
 50
332.0012352654438
 51
27.99876473455621
  0
ARC
  5
18A35
330
747D
100
AcDbEntity
  8
細線
 48
50.0
100
AcDbCircle
 10
8750.261265317412
 20
3648.931598713261
 30
0.0
 40
14.0
100
AcDbArc
 50
326.4074436112986
 51
33.59255638870134
  0
LINE
  5
18A36
330
747D
100
AcDbEntity
  8
細線
 48
50.0
100
AcDbLine
 10
8735.69246303308
 20
3656.677565405676
 30
0.0
 11
8738.599361527723
 21
3656.677565405676
 31
0.0
  0
LINE
  5
18A37
330
747D
100
AcDbEntity
  8
細線
 48
50.0
100
AcDbLine
 10
8735.69246303308
 20
3641.185632020846
 30
0.0
 11
8738.599361527723
 21
3641.185632020846
 31
0.0
  0
LINE
  5
18A38
330
747D
100
AcDbEntity
  8
細線
 48
50.0
100
AcDbLine
 10
8761.923169107102
 20
3656.677565405676
 30
0.0
 11
8764.830067601748
 21
3656.677565405676
 31
0.0
  0
LINE
  5
18A39
330
747D
100
AcDbEntity
  8
細線
 48
50.0
100
AcDbLine
 10
8761.923169107102
 20
3641.185632020846
 30
0.0
 11
8764.830067601748
 21
3641.185632020846
 31
0.0
  0
ARC
  5
18A3A
330
747D
100
AcDbEntity
  8
細線
 48
50.0
100
AcDbCircle
 10
8750.261265317412
 20
3648.931598713261
 30
0.0
 40
14.0
100
AcDbArc
 50
146.4074436112986
 51
213.5925563887013
  0
ARC
  5
18A3B
330
747D
100
AcDbEntity
  8
細線
 48
50.0
100
AcDbCircle
 10
8750.261265317412
 20
3648.931598713261
 30
0.0
 40
16.5
100
AcDbArc
 50
152.0012352654438
 51
207.9987647345562
  0
ARC
  5
18A3C
330
747D
100
AcDbEntity
  8
部品1
 48
50.0
100
AcDbCircle
 10
8723.761265317412
 20
3674.431598713262
 30
0.0
 40
5.0
100
AcDbArc
 50
90.0
 51
180.0
  0
ARC
  5
18A3D
330
747D
100
AcDbEntity
  8
部品1
 48
50.0
100
AcDbCircle
 10
8723.761265317412
 20
3563.431598713262
 30
0.0
 40
5.0
100
AcDbArc
 50
180.0
 51
270.0
  0
ARC
  5
18A3E
330
747D
100
AcDbEntity
  8
部品1
 48
50.0
100
AcDbCircle
 10
8776.761265317412
 20
3563.431598713262
 30
0.0
 40
5.0
100
AcDbArc
 50
270.0
 51
0.0
  0
ARC
  5
18A3F
330
747D
100
AcDbEntity
  8
部品1
 48
50.0
100
AcDbCircle
 10
8776.761265317412
 20
3674.431598713262
 30
0.0
 40
5.0
100
AcDbArc
 50
0.0
 51
90.0
  0
LINE
  5
18A41
330
747D
100
AcDbEntity
  8
部品1
 48
50.0
100
AcDbLine
 10
8718.761265317413
 20
3563.431598713262
 30
0.0
 11
8718.761265317413
 21
3674.431598713262
 31
0.0
  0
LINE
  5
18A42
330
747D
100
AcDbEntity
  8
部品1
 48
50.0
100
AcDbLine
 10
8776.761265317412
 20
3558.431598713261
 30
0.0
 11
8723.761265317412
 21
3558.431598713261
 31
0.0
  0
LINE
  5
18A43
330
747D
100
AcDbEntity
  8
部品1
 48
50.0
100
AcDbLine
 10
8781.761265317411
 20
3674.431598713262
 30
0.0
 11
8781.761265317411
 21
3563.431598713262
 31
0.0
  0
ENDSEC
  0
SECTION
  2
OBJECTS
  0
DICTIONARY
  5
7471
330
0
100
AcDbDictionary
281
     1
  3
ACAD_COLOR
350
16E84
  3
ACAD_GROUP
350
7472
  3
ACAD_LAYOUT
350
16E85
  3
ACAD_MATERIAL
350
16E83
  3
ACAD_MLINESTYLE
350
7473
  3
ACAD_PLOTSETTINGS
350
16E86
  3
ACAD_PLOTSTYLENAME
350
16E81
  3
ACDBHEADERROUNDTRIPXREC
350
18A62
  3
AcDbVariableDictionary
350
18A5E
  3
CONTENTDICTIONARY
350
E71C
  3
DRAWINGVARIABLESDICT
350
F3B9
  0
DICTIONARY
  5
1701F
330
7467
100
AcDbDictionary
280
     1
281
     1
  3
ACAD_LAYERSTATES
360
17020
  0
DICTIONARY
  5
16E84
102
{ACAD_REACTORS
330
7471
102
}
330
7471
100
AcDbDictionary
281
     1
  0
DICTIONARY
  5
7472
102
{ACAD_REACTORS
330
7471
102
}
330
7471
100
AcDbDictionary
281
     1
  0
DICTIONARY
  5
16E85
102
{ACAD_REACTORS
330
7471
102
}
330
7471
100
AcDbDictionary
281
     1
  3
Model
350
16E87
  3
レイアウト1
350
16E88
  0
DICTIONARY
  5
16E83
102
{ACAD_REACTORS
330
7471
102
}
330
7471
100
AcDbDictionary
281
     1
  0
DICTIONARY
  5
7473
102
{ACAD_REACTORS
330
7471
102
}
330
7471
100
AcDbDictionary
281
     1
  3
STANDARD
350
7480
  0
DICTIONARY
  5
16E86
102
{ACAD_REACTORS
330
7471
102
}
330
7471
100
AcDbDictionary
281
     1
  0
ACDBDICTIONARYWDFLT
  5
16E81
102
{ACAD_REACTORS
330
7471
102
}
330
7471
100
AcDbDictionary
281
     1
  3
Normal
350
16E82
100
AcDbDictionaryWithDefault
340
16E82
  0
DICTIONARY
  5
18A62
102
{ACAD_REACTORS
330
7471
102
}
330
7471
100
AcDbDictionary
281
     1
  3
COLORDICT
350
18A64
  3
MATERIALDICT
350
18A63
  0
DICTIONARY
  5
18A5E
102
{ACAD_REACTORS
330
7471
102
}
330
7471
100
AcDbDictionary
281
     1
  3
DIMASSOC
350
18A5F
  3
PROJECTNAME
350
18A60
  0
DICTIONARY
  5
E71C
102
{ACAD_REACTORS
330
7471
102
}
330
7471
100
AcDbDictionary
281
     1
  0
DICTIONARY
  5
F3B9
102
{ACAD_REACTORS
330
7471
102
}
330
7471
100
AcDbDictionary
281
     1
1001
DRAWINGVARIABLESXDATA
1000
POLARMODE
1000
1
  0
DICTIONARY
  5
17020
102
{ACAD_REACTORS
330
1701F
102
}
330
1701F
100
AcDbDictionary
281
     1
  0
LAYOUT
  5
16E87
102
{ACAD_XDICTIONARY
360
18A65
102
}
102
{ACAD_REACTORS
330
16E85
102
}
330
16E85
100
AcDbPlotSettings
  1

  2
クセロPDF
  4
A3
  6

 40
3.174999952316284
 41
3.174999952316284
 42
3.17498779296875
 43
3.17498779296875
 44
419.9466552734374
 45
296.9259948730469
 46
0.0
 47
0.0
 48
3.619013395666115
 49
-4.192117100517862
140
820.022926294543
141
573.2392198881443
142
1.0
143
39.99735023620806
 70
 11952
 72
     1
 73
     0
 74
     2
  7
inaba.ctb
 75
     0
147
0.0250016562120842
148
25.79074261211281
149
125.8223078213959
100
AcDbLayout
  1
Model
 70
     1
 71
     0
 10
0.0
 20
0.0
 11
12.0
 21
9.0
 12
0.0
 22
0.0
 32
0.0
 14
0.0
 24
0.0
 34
0.0
 15
0.0
 25
0.0
 35
0.0
146
0.0
 13
0.0
 23
0.0
 33
0.0
 16
1.0
 26
0.0
 36
0.0
 17
0.0
 27
1.0
 37
0.0
 76
     0
330
747D
  0
LAYOUT
  5
16E88
102
{ACAD_XDICTIONARY
360
18A67
102
}
102
{ACAD_REACTORS
330
16E85
102
}
330
16E85
100
AcDbPlotSettings
  1

  2
Microsoft Office Document Image Writer
  4

  6

 40
0.0
 41
0.0
 42
0.0
 43
0.0
 44
0.0
 45
0.0
 46
0.0
 47
0.0
 48
0.0
 49
0.0
140
0.0
141
0.0
142
1.0
143
1.0
 70
   688
 72
     0
 73
     0
 74
     5
  7

 75
    16
147
1.0
148
0.0
149
0.0
100
AcDbLayout
  1
レイアウト1
 70
     0
 71
     1
 10
0.0
 20
0.0
 11
420.0
 21
297.0
 12
0.0
 22
0.0
 32
0.0
 14
1.000000000000000E+20
 24
1.000000000000000E+20
 34
1.000000000000000E+20
 15
-1.000000000000000E+20
 25
-1.000000000000000E+20
 35
-1.000000000000000E+20
146
0.0
 13
0.0
 23
0.0
 33
0.0
 16
1.0
 26
0.0
 36
0.0
 17
0.0
 27
1.0
 37
0.0
 76
     0
330
747A
  0
MLINESTYLE
  5
7480
102
{ACAD_REACTORS
330
7473
102
}
330
7473
100
AcDbMlineStyle
  2
STANDARD
 70
     0
  3

 62
     0
 51
90.0
 52
90.0
 71
     2
 49
0.5
 62
   256
  6
BYLAYER
 49
-0.5
 62
   256
  6
BYLAYER
  0
ACDBPLACEHOLDER
  5
16E82
102
{ACAD_REACTORS
330
16E81
102
}
330
16E81
  0
XRECORD
  5
18A64
102
{ACAD_REACTORS
330
18A62
102
}
330
18A62
100
AcDbXrecord
280
     1
340
16E84
  0
XRECORD
  5
18A63
102
{ACAD_REACTORS
330
18A62
102
}
330
18A62
100
AcDbXrecord
280
     1
340
16E83
  0
DICTIONARYVAR
  5
18A5F
102
{ACAD_REACTORS
330
18A5E
102
}
330
18A5E
100
DictionaryVariables
280
     0
  1
1
  0
DICTIONARYVAR
  5
18A60
102
{ACAD_REACTORS
330
18A5E
102
}
330
18A5E
100
DictionaryVariables
280
     0
  1

  0
DICTIONARY
  5
18A65
330
16E87
100
AcDbDictionary
280
     1
281
     1
  3
ACAD_XREC_ROUNDTRIP
360
18A66
  0
DICTIONARY
  5
18A67
330
16E88
100
AcDbDictionary
280
     1
281
     1
  3
ACAD_XREC_ROUNDTRIP
360
18A68
  0
XRECORD
  5
18A66
102
{ACAD_REACTORS
330
18A65
102
}
330
18A65
100
AcDbXrecord
280
     1
102
SHADEPLOT
 70
     0
102
SHADEPLOTRESLEVEL
 70
     2
102
SHADEPLOTCUSTOMDPI
 70
   150
  0
XRECORD
  5
18A68
102
{ACAD_REACTORS
330
18A67
102
}
330
18A67
100
AcDbXrecord
280
     1
102
SHADEPLOT
 70
     0
102
SHADEPLOTRESLEVEL
 70
     2
102
SHADEPLOTCUSTOMDPI
 70
   300
  0
ENDSEC
  0
EOF
