  0
SECTION
  2
HEADER
  9
$ACADVER
  1
AC1015
  9
$ACADMAINTVER
 70
    20
  9
$DWGCODEPAGE
  3
ANSI_932
  9
$INSBASE
 10
0.0
 20
0.0
 30
0.0
  9
$EXTMIN
 10
139.9999999999995
 20
-0.0000000000000909
 30
0.0
  9
$EXTMAX
 10
16307.2
 20
11409.6
 30
0.0
  9
$LIMMIN
 10
0.0
 20
0.0
  9
$LIMMAX
 10
16800.0
 20
11880.0
  9
$ORTHOMODE
 70
     0
  9
$REGENMODE
 70
     1
  9
$FILLMODE
 70
     1
  9
$QTEXTMODE
 70
     0
  9
$MIRRTEXT
 70
     1
  9
$LTSCALE
 40
20.0
  9
$ATTMODE
 70
     1
  9
$TEXTSIZE
 40
4.0
  9
$TRACEWID
 40
1.0
  9
$TEXTSTYLE
  7
STYLE1
  9
$CLAYER
  8
寸法
  9
$CELTYPE
  6
BYLAYER
  9
$CECOLOR
 62
   256
  9
$CELTSCALE
 40
50.0
  9
$DISPSILH
 70
     0
  9
$DIMSCALE
 40
40.0
  9
$DIMASZ
 40
2.5
  9
$DIMEXO
 40
0.5
  9
$DIMDLI
 40
7.0
  9
$DIMRND
 40
0.0
  9
$DIMDLE
 40
0.0
  9
$DIMEXE
 40
1.5
  9
$DIMTP
 40
0.0
  9
$DIMTM
 40
0.0
  9
$DIMTXT
 40
3.0
  9
$DIMCEN
 40
0.0
  9
$DIMTSZ
 40
0.0
  9
$DIMTOL
 70
     0
  9
$DIMLIM
 70
     0
  9
$DIMTIH
 70
     0
  9
$DIMTOH
 70
     0
  9
$DIMSE1
 70
     0
  9
$DIMSE2
 70
     0
  9
$DIMTAD
 70
     3
  9
$DIMZIN
 70
     8
  9
$DIMBLK
  1

  9
$DIMASO
 70
     1
  9
$DIMSHO
 70
     1
  9
$DIMPOST
  1

  9
$DIMAPOST
  1

  9
$DIMALT
 70
     0
  9
$DIMALTD
 70
     2
  9
$DIMALTF
 40
0.0394
  9
$DIMLFAC
 40
1.0
  9
$DIMTOFL
 70
     1
  9
$DIMTVP
 40
0.0
  9
$DIMTIX
 70
     1
  9
$DIMSOXD
 70
     0
  9
$DIMSAH
 70
     1
  9
$DIMBLK1
  1
DOTSMALL
  9
$DIMBLK2
  1
DOTSMALL
  9
$DIMSTYLE
  2
INABA_S40G
  9
$DIMCLRD
 70
     0
  9
$DIMCLRE
 70
     0
  9
$DIMCLRT
 70
     7
  9
$DIMTFAC
 40
1.0
  9
$DIMGAP
 40
1.0
  9
$DIMJUST
 70
     0
  9
$DIMSD1
 70
     0
  9
$DIMSD2
 70
     0
  9
$DIMTOLJ
 70
     1
  9
$DIMTZIN
 70
     0
  9
$DIMALTZ
 70
     0
  9
$DIMALTTZ
 70
     0
  9
$DIMUPT
 70
     1
  9
$DIMDEC
 70
     1
  9
$DIMTDEC
 70
     4
  9
$DIMALTU
 70
     2
  9
$DIMALTTD
 70
     2
  9
$DIMTXSTY
  7
STYLE1
  9
$DIMAUNIT
 70
     0
  9
$DIMADEC
 70
     0
  9
$DIMALTRND
 40
0.0
  9
$DIMAZIN
 70
     0
  9
$DIMDSEP
 70
    46
  9
$DIMATFIT
 70
     3
  9
$DIMFRAC
 70
     0
  9
$DIMLDRBLK
  1

  9
$DIMLUNIT
 70
     2
  9
$DIMLWD
 70
    -2
  9
$DIMLWE
 70
    -2
  9
$DIMTMOVE
 70
     0
  9
$LUNITS
 70
     2
  9
$LUPREC
 70
     1
  9
$SKETCHINC
 40
1.0
  9
$FILLETRAD
 40
3.0
  9
$AUNITS
 70
     0
  9
$AUPREC
 70
     0
  9
$MENU
  1
acad
  9
$ELEVATION
 40
0.0
  9
$PELEVATION
 40
0.0
  9
$THICKNESS
 40
0.0
  9
$LIMCHECK
 70
     0
  9
$CHAMFERA
 40
0.0
  9
$CHAMFERB
 40
0.0
  9
$CHAMFERC
 40
0.0
  9
$CHAMFERD
 40
0.0
  9
$SKPOLY
 70
     0
  9
$TDCREATE
 40
2451368.612993866
  9
$TDUCREATE
 40
2451368.237993866
  9
$TDUPDATE
 40
2455575.686085243
  9
$TDUUPDATE
 40
2455575.311085243
  9
$TDINDWG
 40
0.6978485417
  9
$TDUSRTIMER
 40
0.6978485417
  9
$USRTIMER
 70
     1
  9
$ANGBASE
 50
0.0
  9
$ANGDIR
 70
     0
  9
$PDMODE
 70
     3
  9
$PDSIZE
 40
2.0
  9
$PLINEWID
 40
0.0
  9
$SPLFRAME
 70
     0
  9
$SPLINETYPE
 70
     6
  9
$SPLINESEGS
 70
     8
  9
$HANDSEED
  5
1A3D3
  9
$SURFTAB1
 70
     6
  9
$SURFTAB2
 70
     6
  9
$SURFTYPE
 70
     6
  9
$SURFU
 70
     6
  9
$SURFV
 70
     6
  9
$UCSBASE
  2

  9
$UCSNAME
  2

  9
$UCSORG
 10
0.0
 20
0.0
 30
0.0
  9
$UCSXDIR
 10
1.0
 20
0.0
 30
0.0
  9
$UCSYDIR
 10
0.0
 20
1.0
 30
0.0
  9
$UCSORTHOREF
  2

  9
$UCSORTHOVIEW
 70
     0
  9
$UCSORGTOP
 10
0.0
 20
0.0
 30
0.0
  9
$UCSORGBOTTOM
 10
0.0
 20
0.0
 30
0.0
  9
$UCSORGLEFT
 10
0.0
 20
0.0
 30
0.0
  9
$UCSORGRIGHT
 10
0.0
 20
0.0
 30
0.0
  9
$UCSORGFRONT
 10
0.0
 20
0.0
 30
0.0
  9
$UCSORGBACK
 10
0.0
 20
0.0
 30
0.0
  9
$PUCSBASE
  2

  9
$PUCSNAME
  2

  9
$PUCSORG
 10
0.0
 20
0.0
 30
0.0
  9
$PUCSXDIR
 10
1.0
 20
0.0
 30
0.0
  9
$PUCSYDIR
 10
0.0
 20
1.0
 30
0.0
  9
$PUCSORTHOREF
  2

  9
$PUCSORTHOVIEW
 70
     0
  9
$PUCSORGTOP
 10
0.0
 20
0.0
 30
0.0
  9
$PUCSORGBOTTOM
 10
0.0
 20
0.0
 30
0.0
  9
$PUCSORGLEFT
 10
0.0
 20
0.0
 30
0.0
  9
$PUCSORGRIGHT
 10
0.0
 20
0.0
 30
0.0
  9
$PUCSORGFRONT
 10
0.0
 20
0.0
 30
0.0
  9
$PUCSORGBACK
 10
0.0
 20
0.0
 30
0.0
  9
$USERI1
 70
     0
  9
$USERI2
 70
     0
  9
$USERI3
 70
     0
  9
$USERI4
 70
     0
  9
$USERI5
 70
     0
  9
$USERR1
 40
0.0
  9
$USERR2
 40
0.0
  9
$USERR3
 40
0.0
  9
$USERR4
 40
0.0
  9
$USERR5
 40
0.0
  9
$WORLDVIEW
 70
     1
  9
$SHADEDGE
 70
     3
  9
$SHADEDIF
 70
    70
  9
$TILEMODE
 70
     1
  9
$MAXACTVP
 70
    16
  9
$PINSBASE
 10
0.0
 20
0.0
 30
0.0
  9
$PLIMCHECK
 70
     0
  9
$PEXTMIN
 10
1.000000000000000E+20
 20
1.000000000000000E+20
 30
1.000000000000000E+20
  9
$PEXTMAX
 10
-1.000000000000000E+20
 20
-1.000000000000000E+20
 30
-1.000000000000000E+20
  9
$PLIMMIN
 10
0.0
 20
0.0
  9
$PLIMMAX
 10
420.0
 20
297.0
  9
$UNITMODE
 70
     0
  9
$VISRETAIN
 70
     0
  9
$PLINEGEN
 70
     0
  9
$PSLTSCALE
 70
     0
  9
$TREEDEPTH
 70
  3020
  9
$CMLSTYLE
  2
STANDARD
  9
$CMLJUST
 70
     0
  9
$CMLSCALE
 40
1.0
  9
$PROXYGRAPHICS
 70
     1
  9
$MEASUREMENT
 70
     1
  9
$CELWEIGHT
370
    -1
  9
$ENDCAPS
280
     0
  9
$JOINSTYLE
280
     0
  9
$LWDISPLAY
290
     0
  9
$INSUNITS
 70
     0
  9
$HYPERLINKBASE
  1

  9
$STYLESHEET
  1

  9
$XEDIT
290
     1
  9
$CEPSNTYPE
380
     0
  9
$PSTYLEMODE
290
     1
  9
$FINGERPRINTGUID
  2
{DC030418-E7B4-4A05-8723-C1CDC382C775}
  9
$VERSIONGUID
  2
{CA7EAC17-C15D-42E9-9A89-79E491A64BC4}
  9
$EXTNAMES
290
     1
  9
$PSVPSCALE
 40
0.0
  9
$OLESTARTUP
290
     0
  0
ENDSEC
  0
SECTION
  2
CLASSES
  0
CLASS
  1
ACDBDICTIONARYWDFLT
  2
AcDbDictionaryWithDefault
  3
ObjectDBX Classes
 90
        0
280
     0
281
     0
  0
CLASS
  1
DICTIONARYVAR
  2
AcDbDictionaryVar
  3
ObjectDBX Classes
 90
        0
280
     0
281
     0
  0
CLASS
  1
ACDBPLACEHOLDER
  2
AcDbPlaceHolder
  3
ObjectDBX Classes
 90
        0
280
     0
281
     0
  0
CLASS
  1
LAYOUT
  2
AcDbLayout
  3
ObjectDBX Classes
 90
        0
280
     0
281
     0
  0
ENDSEC
  0
SECTION
  2
TABLES
  0
TABLE
  2
VPORT
  5
746D
330
0
100
AcDbSymbolTable
 70
     2
  0
VPORT
  5
1A3CB
330
746D
100
AcDbSymbolTableRecord
100
AcDbViewportTableRecord
  2
*Active
 70
     0
 10
0.0
 20
0.0
 11
1.0
 21
1.0
 12
8223.761025238502
 22
6348.703162895247
 13
0.0
 23
0.0
 14
10.0
 24
10.0
 15
10.0
 25
10.0
 16
0.0
 26
0.0
 36
1.0
 17
0.0
 27
0.0
 37
0.0
 40
12805.60689082044
 41
1.525925925925925
 42
50.0
 43
0.0
 44
0.0
 50
0.0
 51
0.0
 71
     0
 72
     0
 73
     1
 74
     0
 75
     0
 76
     0
 77
     0
 78
     0
281
     0
 65
     1
110
0.0
120
0.0
130
0.0
111
1.0
121
0.0
131
0.0
112
0.0
122
1.0
132
0.0
 79
     0
146
0.0
  0
ENDTAB
  0
TABLE
  2
LTYPE
  5
746A
330
0
100
AcDbSymbolTable
 70
     4
  0
LTYPE
  5
7477
330
746A
100
AcDbSymbolTableRecord
100
AcDbLinetypeTableRecord
  2
BYBLOCK
 70
     0
  3

 72
    65
 73
     0
 40
0.0
  0
LTYPE
  5
7478
330
746A
100
AcDbSymbolTableRecord
100
AcDbLinetypeTableRecord
  2
BYLAYER
 70
     0
  3

 72
    65
 73
     0
 40
0.0
  0
LTYPE
  5
7479
330
746A
100
AcDbSymbolTableRecord
100
AcDbLinetypeTableRecord
  2
CONTINUOUS
 70
     0
  3
Solid line
 72
    65
 73
     0
 40
0.0
  0
LTYPE
  5
7816
330
746A
100
AcDbSymbolTableRecord
100
AcDbLinetypeTableRecord
  2
CENTER
 70
     0
  3
____ _ ____ _ ____ _ ____ _ ____ _ ____ _ ____ 
 72
    65
 73
     4
 40
2.0
 49
1.25
 74
     0
 49
-0.25
 74
     0
 49
0.25
 74
     0
 49
-0.25
 74
     0
  0
LTYPE
  5
781A
330
746A
100
AcDbSymbolTableRecord
100
AcDbLinetypeTableRecord
  2
HIDDEN
 70
     0
  3
__ __ __ __ __ __ __ __ __ __ __ __ __ __ __ __
 72
    65
 73
     2
 40
0.375
 49
0.25
 74
     0
 49
-0.125
 74
     0
  0
LTYPE
  5
781B
330
746A
100
AcDbSymbolTableRecord
100
AcDbLinetypeTableRecord
  2
PHANTOM
 70
     0
  3
______  __  __  ______  __  __  ______  __  __ 
 72
    65
 73
     6
 40
2.5
 49
1.25
 74
     0
 49
-0.25
 74
     0
 49
0.25
 74
     0
 49
-0.25
 74
     0
 49
0.25
 74
     0
 49
-0.25
 74
     0
  0
ENDTAB
  0
TABLE
  2
LAYER
  5
7467
102
{ACAD_XDICTIONARY
360
1873E
102
}
330
0
100
AcDbSymbolTable
 70
    12
  0
LAYER
  5
7474
330
7467
100
AcDbSymbolTableRecord
100
AcDbLayerTableRecord
  2
0
 70
     0
 62
     7
  6
CONTINUOUS
370
    -3
390
185A2
  0
LAYER
  5
DEB2
330
7467
100
AcDbSymbolTableRecord
100
AcDbLayerTableRecord
  2
センター
 70
     0
 62
     3
  6
CENTER
370
    -3
390
185A2
  0
LAYER
  5
DEB3
330
7467
100
AcDbSymbolTableRecord
100
AcDbLayerTableRecord
  2
寸法
 70
     0
 62
     4
  6
CONTINUOUS
370
    -3
390
185A2
  0
LAYER
  5
DEB4
330
7467
100
AcDbSymbolTableRecord
100
AcDbLayerTableRecord
  2
部品1
 70
     0
 62
     7
  6
CONTINUOUS
370
    -3
390
185A2
  0
LAYER
  5
DEB5
330
7467
100
AcDbSymbolTableRecord
100
AcDbLayerTableRecord
  2
補助
 70
     0
 62
    -1
  6
CONTINUOUS
370
    -3
390
185A2
  0
LAYER
  5
DEB6
330
7467
100
AcDbSymbolTableRecord
100
AcDbLayerTableRecord
  2
文字
 70
     0
 62
     7
  6
CONTINUOUS
370
    -3
390
185A2
  0
LAYER
  5
F255
330
7467
100
AcDbSymbolTableRecord
100
AcDbLayerTableRecord
  2
DEFPOINTS
 70
     0
 62
     7
  6
CONTINUOUS
290
     0
370
    -3
390
185A2
  0
LAYER
  5
10B54
330
7467
100
AcDbSymbolTableRecord
100
AcDbLayerTableRecord
  2
仕様書枠
 70
     0
 62
   230
  6
CONTINUOUS
370
    -3
390
185A2
  0
LAYER
  5
11729
330
7467
100
AcDbSymbolTableRecord
100
AcDbLayerTableRecord
  2
Ｇ．Ｌ
 70
     0
 62
    30
  6
CONTINUOUS
370
    -3
390
185A2
  0
LAYER
  5
1173F
330
7467
100
AcDbSymbolTableRecord
100
AcDbLayerTableRecord
  2
細線
 70
     0
 62
     5
  6
CONTINUOUS
370
    -3
390
185A2
  0
LAYER
  5
12CC4
330
7467
100
AcDbSymbolTableRecord
100
AcDbLayerTableRecord
  2
想像線
 70
     0
 62
     6
  6
PHANTOM
370
    -3
390
185A2
  0
LAYER
  5
142E2
330
7467
100
AcDbSymbolTableRecord
100
AcDbLayerTableRecord
  2
破線
 70
     0
 62
     2
  6
HIDDEN
370
    -3
390
185A2
  0
ENDTAB
  0
TABLE
  2
STYLE
  5
7468
330
0
100
AcDbSymbolTable
 70
     4
  0
STYLE
  5
7475
330
7468
100
AcDbSymbolTableRecord
100
AcDbTextStyleTableRecord
  2
STANDARD
 70
     0
 40
0.0
 41
1.0
 50
0.0
 71
     0
 42
4.0
  3
txt
  4
C:\AutoCAD LT\bigfont.shx
  0
STYLE
  5
F706
330
7468
100
AcDbSymbolTableRecord
100
AcDbTextStyleTableRecord
  2
STYLE1
 70
     0
 40
0.0
 41
1.0
 50
0.0
 71
     0
 42
4.0
  3
isocp.shx
  4
bigfont.shx
  0
STYLE
  5
103BF
330
7468
100
AcDbSymbolTableRecord
100
AcDbTextStyleTableRecord
  2
STYLE2
 70
     0
 40
0.0
 41
1.0
 50
0.0
 71
     0
 42
100.0
  3
MS PGothic.ttf
  4

1001
ACAD
1000
MS PGothic
1071
    32818
  0
STYLE
  5
1978F
330
7468
100
AcDbSymbolTableRecord
100
AcDbTextStyleTableRecord
  2
STYLE3
 70
     0
 40
0.0
 41
1.0
 50
0.0
 71
     0
 42
100.0
  3

  4

1001
ACAD
1000
DFPGothic-EB
1071
    32818
  0
ENDTAB
  0
TABLE
  2
VIEW
  5
746B
330
0
100
AcDbSymbolTable
 70
     0
  0
ENDTAB
  0
TABLE
  2
UCS
  5
746C
330
0
100
AcDbSymbolTable
 70
     0
  0
ENDTAB
  0
TABLE
  2
APPID
  5
746E
330
0
100
AcDbSymbolTable
 70
     6
  0
APPID
  5
7476
330
746E
100
AcDbSymbolTableRecord
100
AcDbRegAppTableRecord
  2
ACAD
 70
     0
  0
APPID
  5
DEA9
330
746E
100
AcDbSymbolTableRecord
100
AcDbRegAppTableRecord
  2
CONTENTBLOCKICON
 70
     0
  0
APPID
  5
DEAA
330
746E
100
AcDbSymbolTableRecord
100
AcDbRegAppTableRecord
  2
CONTENTBLOCKDESCRIPTION
 70
     0
  0
APPID
  5
E71D
330
746E
100
AcDbSymbolTableRecord
100
AcDbRegAppTableRecord
  2
CONTENTTABDATA
 70
     0
  0
APPID
  5
E71E
330
746E
100
AcDbSymbolTableRecord
100
AcDbRegAppTableRecord
  2
CONTENTCURRENTTAB
 70
     0
  0
APPID
  5
F3BA
330
746E
100
AcDbSymbolTableRecord
100
AcDbRegAppTableRecord
  2
DRAWINGVARIABLESXDATA
 70
     0
  0
ENDTAB
  0
TABLE
  2
DIMSTYLE
  5
746F
330
0
100
AcDbSymbolTable
 70
     5
100
AcDbDimStyleTable
 71
     0
  0
DIMSTYLE
105
7484
330
746F
100
AcDbSymbolTableRecord
100
AcDbDimStyleTableRecord
  2
JIS
 70
     0
 41
2.5
 42
1.0
 43
7.0
 44
1.0
 73
     0
 74
     0
 77
     1
 78
     8
140
2.5
141
0.0
143
0.0394
147
0.0
172
     1
174
     1
175
     1
340
7475
  0
DIMSTYLE
105
F71F
102
{ACAD_REACTORS
330
18A32
330
18A33
330
18A34
330
18A6F
330
18B90
330
18BA7
330
18BA9
330
18BC0
330
18BC3
330
18BD5
330
18BD8
330
18BD9
330
18BDA
330
18BDB
330
18BDC
330
18C45
330
18C46
330
18C47
330
18C48
330
18C51
330
18C66
330
18C67
330
18C68
330
18C69
330
18C6A
330
193E8
330
1943F
330
19440
330
1A0F9
330
1A0FB
102
}
330
746F
100
AcDbSymbolTableRecord
100
AcDbDimStyleTableRecord
  2
INABA_S40G
 70
     0
 40
40.0
 41
2.5
 42
0.5
 43
7.0
 44
1.5
 73
     0
 74
     0
 77
     3
 78
     8
140
3.0
141
0.0
143
0.0394
147
1.0
172
     1
173
     1
174
     1
178
     7
271
     1
288
     1
340
F706
341
F770
343
F770
344
F770
  0
DIMSTYLE
105
1873D
102
{ACAD_REACTORS
330
19994
330
1A0FA
102
}
330
746F
100
AcDbSymbolTableRecord
100
AcDbDimStyleTableRecord
  2
INABA_S40
 70
     0
 40
40.0
 41
2.5
 42
0.5
 43
7.0
 44
1.5
 73
     0
 74
     0
 77
     3
 78
     8
140
3.0
141
0.0
143
0.0394
147
1.0
172
     1
173
     1
174
     1
175
     1
178
     7
340
7475
  0
DIMSTYLE
105
19790
330
746F
100
AcDbSymbolTableRecord
100
AcDbDimStyleTableRecord
  2
INABA_S50G
 70
     0
 41
125.0
 42
25.0
 43
7.0
 44
75.0
 73
     0
 74
     0
 77
     3
 78
     8
140
150.0
141
0.0
143
0.0394
147
25.0
172
     1
173
     1
174
     1
175
     1
178
     7
271
     1
340
F706
341
F770
343
F770
344
F770
  0
DIMSTYLE
105
1A361
330
746F
100
AcDbSymbolTableRecord
100
AcDbDimStyleTableRecord
  2
INABA_S20G
 70
     0
 40
20.0
 41
2.5
 42
0.5
 43
7.0
 44
1.5
 73
     0
 74
     0
 77
     3
 78
     8
140
3.0
141
0.0
143
0.0394
147
1.0
172
     1
173
     1
174
     1
178
     7
271
     1
340
F706
341
F770
343
F770
344
F770
  0
ENDTAB
  0
TABLE
  2
BLOCK_RECORD
  5
7466
330
0
100
AcDbSymbolTable
 70
    36
  0
BLOCK_RECORD
  5
747D
330
7466
100
AcDbSymbolTableRecord
100
AcDbBlockTableRecord
  2
*MODEL_SPACE
340
185A7
  0
BLOCK_RECORD
  5
747A
330
7466
100
AcDbSymbolTableRecord
100
AcDbBlockTableRecord
  2
*PAPER_SPACE
340
185A8
  0
BLOCK_RECORD
  5
F770
330
7466
100
AcDbSymbolTableRecord
100
AcDbBlockTableRecord
  2
_DOTSMALL
340
0
102
{BLKREFS
331
18281
331
18282
331
19658
331
19659
331
19661
331
19662
331
1966A
331
1966B
331
19674
331
19675
331
1967F
331
19680
331
19688
331
19689
331
19691
331
19692
331
1969A
331
1969B
331
196A4
331
196A5
331
196AF
331
196B0
331
196B9
331
196BA
331
196C2
331
196C3
331
196CB
331
196CC
331
1973F
331
19740
331
1975E
331
1975F
331
19769
331
1976A
331
19772
331
19773
331
1977B
331
1977C
331
19EC8
331
19EC9
331
19ED1
331
19ED2
331
19EDC
331
19EDD
331
19EE7
331
19EE8
331
19EF2
331
19EF3
331
19EFB
331
19EFC
331
19F06
331
19F07
331
19F0F
331
19F10
331
19F18
331
19F19
331
19F21
331
19F22
331
1A33D
331
1A33E
331
1A346
331
1A347
102
}
  0
BLOCK_RECORD
  5
1827D
330
7466
100
AcDbSymbolTableRecord
100
AcDbBlockTableRecord
  2
*D1
340
0
  0
BLOCK_RECORD
  5
18289
330
7466
100
AcDbSymbolTableRecord
100
AcDbBlockTableRecord
  2
A$C30647BB7
340
0
  0
BLOCK_RECORD
  5
185AF
330
7466
100
AcDbSymbolTableRecord
100
AcDbBlockTableRecord
  2
_DOT
340
0
102
{BLKREFS
331
19EBF
331
19EC0
331
1A351
331
1A352
102
}
  0
BLOCK_RECORD
  5
18C90
330
7466
100
AcDbSymbolTableRecord
100
AcDbBlockTableRecord
  2
*D4
340
0
  0
BLOCK_RECORD
  5
18C9C
330
7466
100
AcDbSymbolTableRecord
100
AcDbBlockTableRecord
  2
*D5
340
0
  0
BLOCK_RECORD
  5
18CA8
330
7466
100
AcDbSymbolTableRecord
100
AcDbBlockTableRecord
  2
*D6
340
0
  0
BLOCK_RECORD
  5
18CB6
330
7466
100
AcDbSymbolTableRecord
100
AcDbBlockTableRecord
  2
*D7
340
0
  0
BLOCK_RECORD
  5
18CDE
330
7466
100
AcDbSymbolTableRecord
100
AcDbBlockTableRecord
  2
*D8
340
0
  0
BLOCK_RECORD
  5
18CEA
330
7466
100
AcDbSymbolTableRecord
100
AcDbBlockTableRecord
  2
*D9
340
0
  0
BLOCK_RECORD
  5
18CF6
330
7466
100
AcDbSymbolTableRecord
100
AcDbBlockTableRecord
  2
*D10
340
0
  0
BLOCK_RECORD
  5
18D02
330
7466
100
AcDbSymbolTableRecord
100
AcDbBlockTableRecord
  2
*D11
340
0
  0
BLOCK_RECORD
  5
18D0E
330
7466
100
AcDbSymbolTableRecord
100
AcDbBlockTableRecord
  2
*D12
340
0
  0
BLOCK_RECORD
  5
18D28
330
7466
100
AcDbSymbolTableRecord
100
AcDbBlockTableRecord
  2
*D13
340
0
  0
BLOCK_RECORD
  5
18D34
330
7466
100
AcDbSymbolTableRecord
100
AcDbBlockTableRecord
  2
*D14
340
0
  0
BLOCK_RECORD
  5
18D42
330
7466
100
AcDbSymbolTableRecord
100
AcDbBlockTableRecord
  2
*D15
340
0
  0
BLOCK_RECORD
  5
18D50
330
7466
100
AcDbSymbolTableRecord
100
AcDbBlockTableRecord
  2
*D16
340
0
  0
BLOCK_RECORD
  5
18D5E
330
7466
100
AcDbSymbolTableRecord
100
AcDbBlockTableRecord
  2
*D17
340
0
  0
BLOCK_RECORD
  5
18D6A
330
7466
100
AcDbSymbolTableRecord
100
AcDbBlockTableRecord
  2
*D18
340
0
  0
BLOCK_RECORD
  5
18D82
330
7466
100
AcDbSymbolTableRecord
100
AcDbBlockTableRecord
  2
*D19
340
0
  0
BLOCK_RECORD
  5
18D8E
330
7466
100
AcDbSymbolTableRecord
100
AcDbBlockTableRecord
  2
*D20
340
0
  0
BLOCK_RECORD
  5
18D9A
330
7466
100
AcDbSymbolTableRecord
100
AcDbBlockTableRecord
  2
*D21
340
0
  0
BLOCK_RECORD
  5
18DA7
330
7466
100
AcDbSymbolTableRecord
100
AcDbBlockTableRecord
  2
*D22
340
0
  0
BLOCK_RECORD
  5
18DB5
330
7466
100
AcDbSymbolTableRecord
100
AcDbBlockTableRecord
  2
*D23
340
0
  0
BLOCK_RECORD
  5
18DC2
330
7466
100
AcDbSymbolTableRecord
100
AcDbBlockTableRecord
  2
*D24
340
0
  0
BLOCK_RECORD
  5
18DCE
330
7466
100
AcDbSymbolTableRecord
100
AcDbBlockTableRecord
  2
*D25
340
0
  0
BLOCK_RECORD
  5
18DDA
330
7466
100
AcDbSymbolTableRecord
100
AcDbBlockTableRecord
  2
*D26
340
0
  0
BLOCK_RECORD
  5
18DE6
330
7466
100
AcDbSymbolTableRecord
100
AcDbBlockTableRecord
  2
*D27
340
0
  0
BLOCK_RECORD
  5
18DF4
330
7466
100
AcDbSymbolTableRecord
100
AcDbBlockTableRecord
  2
*D28
340
0
  0
BLOCK_RECORD
  5
194B6
330
7466
100
AcDbSymbolTableRecord
100
AcDbBlockTableRecord
  2
*D29
340
0
  0
BLOCK_RECORD
  5
194F6
330
7466
100
AcDbSymbolTableRecord
100
AcDbBlockTableRecord
  2
*D30
340
0
  0
BLOCK_RECORD
  5
19502
330
7466
100
AcDbSymbolTableRecord
100
AcDbBlockTableRecord
  2
*D31
340
0
  0
BLOCK_RECORD
  5
199FF
330
7466
100
AcDbSymbolTableRecord
100
AcDbBlockTableRecord
  2
*D32
340
0
  0
BLOCK_RECORD
  5
1A200
330
7466
100
AcDbSymbolTableRecord
100
AcDbBlockTableRecord
  2
*D33
340
0
  0
BLOCK_RECORD
  5
1A20C
330
7466
100
AcDbSymbolTableRecord
100
AcDbBlockTableRecord
  2
*D34
340
0
  0
BLOCK_RECORD
  5
1A21A
330
7466
100
AcDbSymbolTableRecord
100
AcDbBlockTableRecord
  2
*D35
340
0
  0
ENDTAB
  0
ENDSEC
  0
SECTION
  2
BLOCKS
  0
BLOCK
  5
7489
330
747D
100
AcDbEntity
  8
0
100
AcDbBlockBegin
  2
*MODEL_SPACE
 70
     0
 10
0.0
 20
0.0
 30
0.0
  3
*MODEL_SPACE
  1

  0
ENDBLK
  5
748A
330
747D
100
AcDbEntity
  8
0
100
AcDbBlockEnd
  0
BLOCK
  5
7487
330
747A
100
AcDbEntity
 67
     1
  8
0
100
AcDbBlockBegin
  2
*PAPER_SPACE
 70
     0
 10
0.0
 20
0.0
 30
0.0
  3
*PAPER_SPACE
  1

  0
ENDBLK
  5
7488
330
747A
100
AcDbEntity
 67
     1
  8
0
100
AcDbBlockEnd
  0
BLOCK
  5
F771
330
F770
100
AcDbEntity
  8
0
 48
50.0
100
AcDbBlockBegin
  2
_DOTSMALL
 70
     0
 10
0.0
 20
0.0
 30
0.0
  3
_DOTSMALL
  1

  0
LWPOLYLINE
  5
F772
330
F770
100
AcDbEntity
  8
0
  6
ByBlock
 62
     0
 48
50.0
100
AcDbPolyline
 90
        2
 70
     1
 43
0.5
 10
-0.0625
 20
0.0
 42
1.0
 10
0.0625
 20
0.0
 42
1.0
  0
ENDBLK
  5
F776
330
F770
100
AcDbEntity
  8
0
 48
50.0
100
AcDbBlockEnd
  0
BLOCK
  5
18287
330
1827D
100
AcDbEntity
  8
0
 48
50.0
100
AcDbBlockBegin
  2
*D1
 70
     1
 10
0.0
 20
0.0
 30
0.0
  3
*D1
  1

  0
LINE
  5
1827E
330
1827D
100
AcDbEntity
  8
0
  6
ByBlock
 62
     0
 48
50.0
100
AcDbLine
 10
3306.365918176074
 20
7091.062405985133
 30
0.0
 11
3306.365918176074
 21
6451.062405985132
 31
0.0
  0
LINE
  5
1827F
330
1827D
100
AcDbEntity
  8
0
  6
ByBlock
 62
     0
 48
50.0
100
AcDbLine
 10
1985.365918176074
 20
7091.062405985133
 30
0.0
 11
1985.365918176074
 21
6451.062405985132
 31
0.0
  0
LINE
  5
18280
330
1827D
100
AcDbEntity
  8
0
  6
ByBlock
 62
     0
 48
50.0
100
AcDbLine
 10
3306.365918176074
 20
6511.062405985133
 30
0.0
 11
1985.365918176074
 21
6511.062405985133
 31
0.0
  0
INSERT
  5
18281
330
1827D
100
AcDbEntity
  8
0
  6
ByBlock
 62
     0
 48
50.0
100
AcDbBlockReference
  2
_DOTSMALL
 10
3306.365918176074
 20
6511.062405985133
 30
0.0
 41
100.0
 42
100.0
 43
100.0
  0
INSERT
  5
18282
330
1827D
100
AcDbEntity
  8
0
  6
ByBlock
 62
     0
 48
50.0
100
AcDbBlockReference
  2
_DOTSMALL
 10
1985.365918176074
 20
6511.062405985133
 30
0.0
 41
100.0
 42
100.0
 43
100.0
 50
180.0
  0
MTEXT
  5
18283
330
1827D
100
AcDbEntity
  8
0
  6
ByBlock
 62
     7
 48
50.0
100
AcDbMText
 10
2645.865918176074
 20
6711.070280000881
 30
0.0
 40
120.0
 41
0.0
 71
     5
 72
     1
  1
\A1;有効開口部間口\P1321
  7
STYLE1
 73
     1
 44
1.0
1001
ACAD
1000
MTEXTBEGIN
1070
    73
1070
     1
1070
    44
1040
1.0
1070
    74
1070
     0
1000
MTEXTEND
  0
POINT
  5
18284
330
1827D
100
AcDbEntity
  8
DEFPOINTS
  6
ByBlock
 62
     0
 48
50.0
100
AcDbPoint
 10
3306.365918176074
 20
7111.062405985133
 30
0.0
  0
POINT
  5
18285
330
1827D
100
AcDbEntity
  8
DEFPOINTS
  6
ByBlock
 62
     0
 48
50.0
100
AcDbPoint
 10
1985.365918176074
 20
7111.062405985133
 30
0.0
  0
POINT
  5
18286
330
1827D
100
AcDbEntity
  8
DEFPOINTS
  6
ByBlock
 62
     0
 48
50.0
100
AcDbPoint
 10
1985.365918176074
 20
6511.062405985133
 30
0.0
  0
ENDBLK
  5
18288
330
1827D
100
AcDbEntity
  8
0
 48
50.0
100
AcDbBlockEnd
  0
BLOCK
  5
18295
330
18289
100
AcDbEntity
  8
0
 48
50.0
100
AcDbBlockBegin
  2
A$C30647BB7
 70
     0
 10
0.0
 20
0.0
 30
0.0
  3
A$C30647BB7
  1

  0
LINE
  5
1828A
330
18289
100
AcDbEntity
  8
寸法
 48
50.0
100
AcDbLine
 10
762.3946456918384
 20
590.3275888192884
 30
0.0
 11
981.5465858675635
 21
590.3275888192884
 31
0.0
  0
DIMENSION
  5
1828B
330
18289
100
AcDbEntity
  8
寸法
100
AcDbDimension
  2
*D1
 10
12.50000483529948
 20
59.99999120570738
 30
0.0
 11
673.0000048352994
 21
59.99999120570738
 31
0.0
 12
-1972.865913340774
 22
-6451.062414779425
 32
0.0
 70
   128
  1
有効開口部間口\P<>
 71
     5
 42
-1.0
  3
INABA_S40G
100
AcDbAlignedDimension
 13
1333.500004835299
 23
659.9999912057073
 33
0.0
 14
12.50000483529948
 24
659.9999912057073
 34
0.0
100
AcDbRotatedDimension
1001
ACAD
1000
DSTYLE
1002
{
1002
}
  0
LINE
  5
1828C
330
18289
100
AcDbEntity
  8
寸法
 48
50.0
100
AcDbLine
 10
432.4429828439933
 20
588.4157909861178
 30
0.0
 11
376.978646897518
 21
625.9952419147311
 31
0.0
  0
LINE
  5
1828D
330
18289
100
AcDbEntity
  8
寸法
 48
50.0
100
AcDbLine
 10
402.6816508525699
 20
557.1056323339517
 30
0.0
 11
402.6816508525699
 21
588.4157909861178
 31
0.0
  0
LINE
  5
1828E
330
18289
100
AcDbEntity
  8
寸法
 48
50.0
100
AcDbLine
 10
402.6816508525699
 20
588.4157909861178
 30
0.0
 11
432.4429828439933
 21
588.4157909861178
 31
0.0
  0
LINE
  5
1828F
330
18289
100
AcDbEntity
  8
寸法
 48
50.0
100
AcDbLine
 10
351.2756429424662
 20
588.4157909861178
 30
0.0
 11
321.5143109510427
 21
588.4157909861178
 31
0.0
  0
LINE
  5
18290
330
18289
100
AcDbEntity
  8
寸法
 48
50.0
100
AcDbLine
 10
351.2756429424662
 20
557.1056323339517
 30
0.0
 11
351.2756429424662
 21
588.4157909861178
 31
0.0
  0
LINE
  5
18291
330
18289
100
AcDbEntity
  8
寸法
 48
50.0
100
AcDbLine
 10
321.5143109510427
 20
588.4157909861178
 30
0.0
 11
376.978646897518
 21
625.9952419147311
 31
0.0
  0
LINE
  5
18292
330
18289
100
AcDbEntity
  8
寸法
 48
50.0
100
AcDbLine
 10
402.6816508525699
 20
557.1056323339517
 30
0.0
 11
351.2756429424662
 21
557.1056323339517
 31
0.0
  0
LINE
  5
18293
330
18289
100
AcDbEntity
  8
寸法
 48
50.0
100
AcDbLine
 10
981.5465858675635
 20
590.3275888192884
 30
0.0
 11
892.2623672721419
 21
614.251223088776
 31
0.0
  0
LINE
  5
18294
330
18289
100
AcDbEntity
  8
寸法
 48
50.0
100
AcDbLine
 10
892.2623672721419
 20
614.251223088776
 30
0.0
 11
892.2623672721419
 21
560.5875885069845
 31
0.0
  0
ENDBLK
  5
18296
330
18289
100
AcDbEntity
  8
0
 48
50.0
100
AcDbBlockEnd
  0
BLOCK
  5
185B0
330
185AF
100
AcDbEntity
  8
0
 48
50.0
100
AcDbBlockBegin
  2
_DOT
 70
     0
 10
0.0
 20
0.0
 30
0.0
  3
_DOT
  1

  0
LWPOLYLINE
  5
185B1
330
185AF
100
AcDbEntity
  8
0
  6
ByBlock
 62
     0
 48
50.0
100
AcDbPolyline
 90
        2
 70
     1
 43
0.5
 10
-0.25
 20
0.0
 42
1.0
 10
0.25
 20
0.0
 42
1.0
  0
LINE
  5
185B2
330
185AF
100
AcDbEntity
  8
0
  6
ByBlock
 62
     0
 48
50.0
100
AcDbLine
 10
-0.5
 20
0.0
 30
0.0
 11
-1.0
 21
0.0
 31
0.0
  0
ENDBLK
  5
185B3
330
185AF
100
AcDbEntity
  8
0
 48
50.0
100
AcDbBlockEnd
  0
BLOCK
  5
18C9A
330
18C90
100
AcDbEntity
  8
0
 48
50.0
100
AcDbBlockBegin
  2
*D4
 70
     1
 10
0.0
 20
0.0
 30
0.0
  3
*D4
  1

  0
LINE
  5
19778
330
18C90
100
AcDbEntity
  8
寸法
 62
     0
 48
50.0
370
    -2
100
AcDbLine
 10
6406.72636253458
 20
4945.322253107033
 30
0.0
 11
6406.72636253458
 21
5389.9425125343
 31
0.0
  0
LINE
  5
19779
330
18C90
100
AcDbEntity
  8
寸法
 62
     0
 48
50.0
370
    -2
100
AcDbLine
 10
4616.726362534591
 20
4945.322253107034
 30
0.0
 11
4616.726362534591
 21
5389.9425125343
 31
0.0
  0
LINE
  5
1977A
330
18C90
100
AcDbEntity
  8
寸法
 62
     0
 48
50.0
370
    -2
100
AcDbLine
 10
6406.72636253458
 20
5329.942512534301
 30
0.0
 11
4616.726362534591
 21
5329.942512534301
 31
0.0
  0
INSERT
  5
1977B
330
18C90
100
AcDbEntity
  8
寸法
 62
     0
 48
50.0
370
    -2
100
AcDbBlockReference
  2
_DOTSMALL
 10
6406.72636253458
 20
5329.942512534301
 30
0.0
 41
100.0
 42
100.0
 43
100.0
  0
INSERT
  5
1977C
330
18C90
100
AcDbEntity
  8
寸法
 62
     0
 48
50.0
370
    -2
100
AcDbBlockReference
  2
_DOTSMALL
 10
4616.726362534591
 20
5329.942512534301
 30
0.0
 41
100.0
 42
100.0
 43
100.0
 50
180.0
  0
MTEXT
  5
1977D
330
18C90
100
AcDbEntity
  8
寸法
 62
     7
 48
50.0
100
AcDbMText
 10
5511.726362534584
 20
5429.9425125343
 30
0.0
 40
120.0
 41
0.0
 71
     5
 72
     1
  1
\A1;柱外寸法1790
  7
STYLE1
 73
     1
 44
1.0
1001
ACAD
1000
MTEXTBEGIN
1070
    73
1070
     1
1070
    44
1040
1.0
1070
    74
1070
     0
1000
MTEXTEND
  0
POINT
  5
1977E
330
18C90
100
AcDbEntity
  8
DEFPOINTS
 62
     0
 48
50.0
100
AcDbPoint
 10
6406.72636253458
 20
4925.322253107033
 30
0.0
  0
POINT
  5
1977F
330
18C90
100
AcDbEntity
  8
DEFPOINTS
 62
     0
 48
50.0
100
AcDbPoint
 10
4616.726362534591
 20
4925.322253107034
 30
0.0
  0
POINT
  5
19780
330
18C90
100
AcDbEntity
  8
DEFPOINTS
 62
     0
 48
50.0
100
AcDbPoint
 10
4616.726362534591
 20
5329.942512534301
 30
0.0
  0
ENDBLK
  5
18C9B
330
18C90
100
AcDbEntity
  8
0
 48
50.0
100
AcDbBlockEnd
  0
BLOCK
  5
18CA6
330
18C9C
100
AcDbEntity
  8
0
 48
50.0
100
AcDbBlockBegin
  2
*D5
 70
     1
 10
0.0
 20
0.0
 30
0.0
  3
*D5
  1

  0
LINE
  5
1976F
330
18C9C
100
AcDbEntity
  8
寸法
 62
     0
 48
50.0
370
    -2
100
AcDbLine
 10
4566.726362534591
 20
4945.322253107033
 30
0.0
 11
4566.726362534591
 21
5599.536386955751
 31
0.0
  0
LINE
  5
19770
330
18C9C
100
AcDbEntity
  8
寸法
 62
     0
 48
50.0
370
    -2
100
AcDbLine
 10
6456.72636253458
 20
4945.322253107031
 30
0.0
 11
6456.72636253458
 21
5599.536386955751
 31
0.0
  0
LINE
  5
19771
330
18C9C
100
AcDbEntity
  8
寸法
 62
     0
 48
50.0
370
    -2
100
AcDbLine
 10
4566.726362534591
 20
5539.536386955751
 30
0.0
 11
6456.72636253458
 21
5539.536386955751
 31
0.0
  0
INSERT
  5
19772
330
18C9C
100
AcDbEntity
  8
寸法
 62
     0
 48
50.0
370
    -2
100
AcDbBlockReference
  2
_DOTSMALL
 10
4566.726362534591
 20
5539.536386955751
 30
0.0
 41
100.0
 42
100.0
 43
100.0
 50
180.0
  0
INSERT
  5
19773
330
18C9C
100
AcDbEntity
  8
寸法
 62
     0
 48
50.0
370
    -2
100
AcDbBlockReference
  2
_DOTSMALL
 10
6456.72636253458
 20
5539.536386955751
 30
0.0
 41
100.0
 42
100.0
 43
100.0
  0
MTEXT
  5
19774
330
18C9C
100
AcDbEntity
  8
寸法
 62
     7
 48
50.0
100
AcDbMText
 10
5511.726362534584
 20
5639.536386955751
 30
0.0
 40
120.0
 41
0.0
 71
     5
 72
     1
  1
\A1;1890
  7
STYLE1
 73
     1
 44
1.0
1001
ACAD
1000
MTEXTBEGIN
1070
    73
1070
     1
1070
    44
1040
1.0
1070
    74
1070
     0
1000
MTEXTEND
  0
POINT
  5
19775
330
18C9C
100
AcDbEntity
  8
DEFPOINTS
 62
     0
 48
50.0
100
AcDbPoint
 10
4566.726362534591
 20
4925.322253107033
 30
0.0
  0
POINT
  5
19776
330
18C9C
100
AcDbEntity
  8
DEFPOINTS
 62
     0
 48
50.0
100
AcDbPoint
 10
6456.72636253458
 20
4925.32225310703
 30
0.0
  0
POINT
  5
19777
330
18C9C
100
AcDbEntity
  8
DEFPOINTS
 62
     0
 48
50.0
100
AcDbPoint
 10
6456.72636253458
 20
5539.536386955751
 30
0.0
  0
ENDBLK
  5
18CA7
330
18C9C
100
AcDbEntity
  8
0
 48
50.0
100
AcDbBlockEnd
  0
BLOCK
  5
18CB4
330
18CA8
100
AcDbEntity
  8
0
 48
50.0
100
AcDbBlockBegin
  2
*D6
 70
     1
 10
0.0
 20
0.0
 30
0.0
  3
*D6
  1

  0
LINE
  5
19764
330
18CA8
100
AcDbEntity
  8
寸法
 62
     0
 48
50.0
370
    -2
100
AcDbLine
 10
4616.726362534591
 20
4945.322253107034
 30
0.0
 11
4616.726362534591
 21
5389.9425125343
 31
0.0
  0
LINE
  5
19765
330
18CA8
100
AcDbEntity
  8
寸法
 62
     0
 48
50.0
370
    -2
100
AcDbLine
 10
4566.726362534591
 20
4945.322253107033
 30
0.0
 11
4566.726362534591
 21
5389.9425125343
 31
0.0
  0
LINE
  5
19766
330
18CA8
100
AcDbEntity
  8
寸法
 62
     0
 48
50.0
370
    -2
100
AcDbLine
 10
4616.726362534591
 20
5329.942512534301
 30
0.0
 11
4716.726362534592
 21
5329.942512534301
 31
0.0
  0
LINE
  5
19767
330
18CA8
100
AcDbEntity
  8
寸法
 62
     0
 48
50.0
370
    -2
100
AcDbLine
 10
4566.726362534591
 20
5329.942512534301
 30
0.0
 11
4147.193837065856
 21
5329.942512534301
 31
0.0
  0
LINE
  5
19768
330
18CA8
100
AcDbEntity
  8
寸法
 62
     0
 48
50.0
370
    -2
100
AcDbLine
 10
4616.726362534591
 20
5329.942512534301
 30
0.0
 11
4566.726362534591
 21
5329.942512534301
 31
0.0
  0
INSERT
  5
19769
330
18CA8
100
AcDbEntity
  8
寸法
 62
     0
 48
50.0
370
    -2
100
AcDbBlockReference
  2
_DOTSMALL
 10
4616.726362534591
 20
5329.942512534301
 30
0.0
 41
100.0
 42
100.0
 43
100.0
 50
180.0
  0
INSERT
  5
1976A
330
18CA8
100
AcDbEntity
  8
寸法
 62
     0
 48
50.0
370
    -2
100
AcDbBlockReference
  2
_DOTSMALL
 10
4566.726362534591
 20
5329.942512534301
 30
0.0
 41
100.0
 42
100.0
 43
100.0
  0
MTEXT
  5
1976B
330
18CA8
100
AcDbEntity
  8
寸法
 62
     7
 48
50.0
100
AcDbMText
 10
4253.241081160344
 20
5429.9425125343
 30
0.0
 40
120.0
 41
0.0
 71
     5
 72
     1
  1
\A1;50
  7
STYLE1
 73
     1
 44
1.0
1001
ACAD
1000
MTEXTBEGIN
1070
    73
1070
     1
1070
    44
1040
1.0
1070
    74
1070
     0
1000
MTEXTEND
  0
POINT
  5
1976C
330
18CA8
100
AcDbEntity
  8
DEFPOINTS
 62
     0
 48
50.0
100
AcDbPoint
 10
4616.726362534591
 20
4925.322253107034
 30
0.0
  0
POINT
  5
1976D
330
18CA8
100
AcDbEntity
  8
DEFPOINTS
 62
     0
 48
50.0
100
AcDbPoint
 10
4566.726362534591
 20
4925.322253107033
 30
0.0
  0
POINT
  5
1976E
330
18CA8
100
AcDbEntity
  8
DEFPOINTS
 62
     0
 48
50.0
100
AcDbPoint
 10
4566.726362534591
 20
5329.942512534301
 30
0.0
  0
ENDBLK
  5
18CB5
330
18CA8
100
AcDbEntity
  8
0
 48
50.0
100
AcDbBlockEnd
  0
BLOCK
  5
18CC2
330
18CB6
100
AcDbEntity
  8
0
 48
50.0
100
AcDbBlockBegin
  2
*D7
 70
     1
 10
0.0
 20
0.0
 30
0.0
  3
*D7
  1

  0
LINE
  5
19759
330
18CB6
100
AcDbEntity
  8
寸法
 62
     0
 48
50.0
370
    -2
100
AcDbLine
 10
6456.72636253458
 20
4945.322253107031
 30
0.0
 11
6456.72636253458
 21
5389.9425125343
 31
0.0
  0
LINE
  5
1975A
330
18CB6
100
AcDbEntity
  8
寸法
 62
     0
 48
50.0
370
    -2
100
AcDbLine
 10
6406.72636253458
 20
4945.322253107033
 30
0.0
 11
6406.72636253458
 21
5389.9425125343
 31
0.0
  0
LINE
  5
1975B
330
18CB6
100
AcDbEntity
  8
寸法
 62
     0
 48
50.0
370
    -2
100
AcDbLine
 10
6406.72636253458
 20
5329.942512534301
 30
0.0
 11
6306.72636253458
 21
5329.942512534301
 31
0.0
  0
LINE
  5
1975C
330
18CB6
100
AcDbEntity
  8
寸法
 62
     0
 48
50.0
370
    -2
100
AcDbLine
 10
6456.72636253458
 20
5329.942512534301
 30
0.0
 11
6876.258888003305
 21
5329.942512534301
 31
0.0
  0
LINE
  5
1975D
330
18CB6
100
AcDbEntity
  8
寸法
 62
     0
 48
50.0
370
    -2
100
AcDbLine
 10
6406.72636253458
 20
5329.942512534301
 30
0.0
 11
6456.72636253458
 21
5329.942512534301
 31
0.0
  0
INSERT
  5
1975E
330
18CB6
100
AcDbEntity
  8
寸法
 62
     0
 48
50.0
370
    -2
100
AcDbBlockReference
  2
_DOTSMALL
 10
6406.72636253458
 20
5329.942512534301
 30
0.0
 41
100.0
 42
100.0
 43
100.0
  0
INSERT
  5
1975F
330
18CB6
100
AcDbEntity
  8
寸法
 62
     0
 48
50.0
370
    -2
100
AcDbBlockReference
  2
_DOTSMALL
 10
6456.72636253458
 20
5329.942512534301
 30
0.0
 41
100.0
 42
100.0
 43
100.0
 50
180.0
  0
MTEXT
  5
19760
330
18CB6
100
AcDbEntity
  8
寸法
 62
     7
 48
50.0
100
AcDbMText
 10
6770.211643908817
 20
5429.9425125343
 30
0.0
 40
120.0
 41
0.0
 71
     5
 72
     1
  1
\A1;50
  7
STYLE1
 73
     1
 44
1.0
1001
ACAD
1000
MTEXTBEGIN
1070
    73
1070
     1
1070
    44
1040
1.0
1070
    74
1070
     0
1000
MTEXTEND
  0
POINT
  5
19761
330
18CB6
100
AcDbEntity
  8
DEFPOINTS
 62
     0
 48
50.0
100
AcDbPoint
 10
6456.72636253458
 20
4925.32225310703
 30
0.0
  0
POINT
  5
19762
330
18CB6
100
AcDbEntity
  8
DEFPOINTS
 62
     0
 48
50.0
100
AcDbPoint
 10
6406.72636253458
 20
4925.322253107033
 30
0.0
  0
POINT
  5
19763
330
18CB6
100
AcDbEntity
  8
DEFPOINTS
 62
     0
 48
50.0
100
AcDbPoint
 10
6406.72636253458
 20
5329.942512534301
 30
0.0
  0
ENDBLK
  5
18CC3
330
18CB6
100
AcDbEntity
  8
0
 48
50.0
100
AcDbBlockEnd
  0
BLOCK
  5
18CE8
330
18CDE
100
AcDbEntity
  8
0
 48
50.0
100
AcDbBlockBegin
  2
*D8
 70
     1
 10
0.0
 20
0.0
 30
0.0
  3
*D8
  1

  0
LINE
  5
1973C
330
18CDE
100
AcDbEntity
  8
寸法
 62
     0
 48
50.0
370
    -2
100
AcDbLine
 10
8541.186708632123
 20
4633.322253107027
 30
0.0
 11
8179.961902161108
 21
4633.322253107027
 31
0.0
  0
LINE
  5
1973D
330
18CDE
100
AcDbEntity
  8
寸法
 62
     0
 48
50.0
370
    -2
100
AcDbLine
 10
8541.186708632123
 20
2608.322253107027
 30
0.0
 11
8179.961902161108
 21
2608.322253107027
 31
0.0
  0
LINE
  5
1973E
330
18CDE
100
AcDbEntity
  8
寸法
 62
     0
 48
50.0
370
    -2
100
AcDbLine
 10
8239.961902161109
 20
4633.322253107027
 30
0.0
 11
8239.961902161107
 21
2608.322253107027
 31
0.0
  0
INSERT
  5
1973F
330
18CDE
100
AcDbEntity
  8
寸法
 62
     0
 48
50.0
370
    -2
100
AcDbBlockReference
  2
_DOTSMALL
 10
8239.961902161109
 20
4633.322253107027
 30
0.0
 41
100.0
 42
100.0
 43
100.0
 50
90.0
  0
INSERT
  5
19740
330
18CDE
100
AcDbEntity
  8
寸法
 62
     0
 48
50.0
370
    -2
100
AcDbBlockReference
  2
_DOTSMALL
 10
8239.961902161107
 20
2608.322253107027
 30
0.0
 41
100.0
 42
100.0
 43
100.0
 50
270.0
  0
MTEXT
  5
19741
330
18CDE
100
AcDbEntity
  8
寸法
 62
     7
 48
50.0
100
AcDbMText
 10
8139.950091137485
 20
3620.822253107028
 30
0.0
 40
120.0
 41
0.0
 71
     5
 72
     1
  1
\A1;有効開口部高サ2025
  7
STYLE1
 11
0.0000000000000001
 21
1.0
 31
0.0
 73
     1
 44
1.0
1001
ACAD
1000
MTEXTBEGIN
1070
    73
1070
     1
1070
    44
1040
1.0
1070
    74
1070
     0
1000
MTEXTEND
  0
POINT
  5
19742
330
18CDE
100
AcDbEntity
  8
DEFPOINTS
 62
     0
 48
50.0
100
AcDbPoint
 10
8561.186708632122
 20
4633.322253107027
 30
0.0
  0
POINT
  5
19743
330
18CDE
100
AcDbEntity
  8
DEFPOINTS
 62
     0
 48
50.0
100
AcDbPoint
 10
8561.186708632122
 20
2608.322253107027
 30
0.0
  0
POINT
  5
19744
330
18CDE
100
AcDbEntity
  8
DEFPOINTS
 62
     0
 48
50.0
100
AcDbPoint
 10
8239.961902161107
 20
2608.322253107027
 30
0.0
  0
ENDBLK
  5
18CE9
330
18CDE
100
AcDbEntity
  8
0
 48
50.0
100
AcDbBlockEnd
  0
BLOCK
  5
18CF4
330
18CEA
100
AcDbEntity
  8
0
 48
50.0
100
AcDbBlockBegin
  2
*D9
 70
     1
 10
0.0
 20
0.0
 30
0.0
  3
*D9
  1

  0
LINE
  5
19F1E
330
18CEA
100
AcDbEntity
  8
寸法
 62
     0
 48
50.0
370
    -2
100
AcDbLine
 10
10763.18670863213
 20
9691.35621807618
 30
0.0
 11
11450.61305436654
 21
9691.35621807618
 31
0.0
  0
LINE
  5
19F1F
330
18CEA
100
AcDbEntity
  8
寸法
 62
     0
 48
50.0
370
    -2
100
AcDbLine
 10
10763.1867086321
 20
8011.356218076166
 30
0.0
 11
11450.61305436654
 21
8011.356218076166
 31
0.0
  0
LINE
  5
19F20
330
18CEA
100
AcDbEntity
  8
寸法
 62
     0
 48
50.0
370
    -2
100
AcDbLine
 10
11390.61305436654
 20
9691.35621807618
 30
0.0
 11
11390.61305436654
 21
8011.356218076166
 31
0.0
  0
INSERT
  5
19F21
330
18CEA
100
AcDbEntity
  8
寸法
 62
     0
 48
50.0
370
    -2
100
AcDbBlockReference
  2
_DOTSMALL
 10
11390.61305436654
 20
9691.35621807618
 30
0.0
 41
100.0
 42
100.0
 43
100.0
 50
90.0
  0
INSERT
  5
19F22
330
18CEA
100
AcDbEntity
  8
寸法
 62
     0
 48
50.0
370
    -2
100
AcDbBlockReference
  2
_DOTSMALL
 10
11390.61305436654
 20
8011.356218076166
 30
0.0
 41
100.0
 42
100.0
 43
100.0
 50
270.0
  0
MTEXT
  5
19F23
330
18CEA
100
AcDbEntity
  8
寸法
 62
     7
 48
50.0
100
AcDbMText
 10
11290.60124334292
 20
8851.356218076173
 30
0.0
 40
120.0
 41
0.0
 71
     5
 72
     1
  1
\A1;4X420=1680
  7
STYLE1
 11
0.0000000000000001
 21
1.0
 31
0.0
 73
     1
 44
1.0
1001
ACAD
1000
MTEXTBEGIN
1070
    73
1070
     1
1070
    44
1040
1.0
1070
    74
1070
     0
1000
MTEXTEND
  0
POINT
  5
19F24
330
18CEA
100
AcDbEntity
  8
DEFPOINTS
 62
     0
 48
50.0
100
AcDbPoint
 10
10743.18670863213
 20
9691.35621807618
 30
0.0
  0
POINT
  5
19F25
330
18CEA
100
AcDbEntity
  8
DEFPOINTS
 62
     0
 48
50.0
100
AcDbPoint
 10
10743.1867086321
 20
8011.356218076166
 30
0.0
  0
POINT
  5
19F26
330
18CEA
100
AcDbEntity
  8
DEFPOINTS
 62
     0
 48
50.0
100
AcDbPoint
 10
11390.61305436654
 20
8011.356218076166
 30
0.0
  0
ENDBLK
  5
18CF5
330
18CEA
100
AcDbEntity
  8
0
 48
50.0
100
AcDbBlockEnd
  0
BLOCK
  5
18D00
330
18CF6
100
AcDbEntity
  8
0
 48
50.0
100
AcDbBlockBegin
  2
*D10
 70
     1
 10
0.0
 20
0.0
 30
0.0
  3
*D10
  1

  0
LINE
  5
19F15
330
18CF6
100
AcDbEntity
  8
寸法
 62
     0
 48
50.0
370
    -2
100
AcDbLine
 10
10734.68670863213
 20
9710.997234227555
 30
0.0
 11
11130.04443449415
 21
9605.06145086142
 31
0.0
  0
LINE
  5
19F16
330
18CF6
100
AcDbEntity
  8
寸法
 62
     0
 48
50.0
370
    -2
100
AcDbLine
 10
10734.68670863213
 20
9260.997234227557
 30
0.0
 11
11130.04443449415
 21
9155.061450861422
 31
0.0
  0
LINE
  5
19F17
330
18CF6
100
AcDbEntity
  8
寸法
 62
     0
 48
50.0
370
    -2
100
AcDbLine
 10
11070.04443449415
 20
9621.138402407288
 30
0.0
 11
11070.04443449415
 21
9171.13840240729
 31
0.0
  0
INSERT
  5
19F18
330
18CF6
100
AcDbEntity
  8
寸法
 62
     0
 48
50.0
370
    -2
100
AcDbBlockReference
  2
_DOTSMALL
 10
11070.04443449415
 20
9621.138402407288
 30
0.0
 41
100.0
 42
100.0
 43
100.0
 50
90.0
  0
INSERT
  5
19F19
330
18CF6
100
AcDbEntity
  8
寸法
 62
     0
 48
50.0
370
    -2
100
AcDbBlockReference
  2
_DOTSMALL
 10
11070.04443449415
 20
9171.13840240729
 30
0.0
 41
100.0
 42
100.0
 43
100.0
 50
270.0
  0
MTEXT
  5
19F1A
330
18CF6
100
AcDbEntity
  8
寸法
 62
     7
 48
50.0
100
AcDbMText
 10
10970.04443449415
 20
9396.13840240729
 30
0.0
 40
120.0
 41
0.0
 71
     5
 72
     1
  1
\A1;450
  7
STYLE1
 11
0.0000000000000001
 21
1.0
 31
0.0
 73
     1
 44
1.0
1001
ACAD
1000
MTEXTBEGIN
1070
    73
1070
     1
1070
    44
1040
1.0
1070
    74
1070
     0
1000
MTEXTEND
  0
POINT
  5
19F1B
330
18CF6
100
AcDbEntity
  8
DEFPOINTS
 62
     0
 48
50.0
100
AcDbPoint
 10
10714.68670863213
 20
9716.356218076178
 30
0.0
  0
POINT
  5
19F1C
330
18CF6
100
AcDbEntity
  8
DEFPOINTS
 62
     0
 48
50.0
100
AcDbPoint
 10
10714.68670863213
 20
9266.356218076181
 30
0.0
  0
POINT
  5
19F1D
330
18CF6
100
AcDbEntity
  8
DEFPOINTS
 62
     0
 48
50.0
100
AcDbPoint
 10
11070.04443449415
 20
9171.13840240729
 30
0.0
  0
ENDBLK
  5
18D01
330
18CF6
100
AcDbEntity
  8
0
 48
50.0
100
AcDbBlockEnd
  0
BLOCK
  5
18D0C
330
18D02
100
AcDbEntity
  8
0
 48
50.0
100
AcDbBlockBegin
  2
*D11
 70
     1
 10
0.0
 20
0.0
 30
0.0
  3
*D11
  1

  0
LINE
  5
19F0C
330
18D02
100
AcDbEntity
  8
寸法
 62
     0
 48
50.0
370
    -2
100
AcDbLine
 10
9856.327724783508
 20
9246.356218076186
 30
0.0
 11
9767.040983529831
 21
8913.133563275213
 31
0.0
  0
LINE
  5
19F0D
330
18D02
100
AcDbEntity
  8
寸法
 62
     0
 48
50.0
370
    -2
100
AcDbLine
 10
10709.32772478351
 20
9246.356218076179
 30
0.0
 11
10620.04098352984
 21
8913.133563275213
 31
0.0
  0
LINE
  5
19F0E
330
18D02
100
AcDbEntity
  8
寸法
 62
     0
 48
50.0
370
    -2
100
AcDbLine
 10
9783.117935075699
 20
8973.133563275212
 30
0.0
 11
10636.11793507571
 21
8973.133563275212
 31
0.0
  0
INSERT
  5
19F0F
330
18D02
100
AcDbEntity
  8
寸法
 62
     0
 48
50.0
370
    -2
100
AcDbBlockReference
  2
_DOTSMALL
 10
9783.117935075699
 20
8973.133563275212
 30
0.0
 41
100.0
 42
100.0
 43
100.0
 50
180.0
  0
INSERT
  5
19F10
330
18D02
100
AcDbEntity
  8
寸法
 62
     0
 48
50.0
370
    -2
100
AcDbBlockReference
  2
_DOTSMALL
 10
10636.11793507571
 20
8973.133563275212
 30
0.0
 41
100.0
 42
100.0
 43
100.0
  0
MTEXT
  5
19F11
330
18D02
100
AcDbEntity
  8
寸法
 62
     7
 48
50.0
100
AcDbMText
 10
10241.03377075039
 20
9073.133563275211
 30
0.0
 40
120.0
 41
0.0
 71
     5
 72
     1
  1
\A1;853
  7
STYLE1
 73
     1
 44
1.0
1001
ACAD
1000
MTEXTBEGIN
1070
    73
1070
     1
1070
    44
1040
1.0
1070
    74
1070
     0
1000
MTEXTEND
  0
POINT
  5
19F12
330
18D02
100
AcDbEntity
  8
DEFPOINTS
 62
     0
 48
50.0
100
AcDbPoint
 10
9861.686708632129
 20
9266.356218076188
 30
0.0
  0
POINT
  5
19F13
330
18D02
100
AcDbEntity
  8
DEFPOINTS
 62
     0
 48
50.0
100
AcDbPoint
 10
10714.68670863214
 20
9266.356218076181
 30
0.0
  0
POINT
  5
19F14
330
18D02
100
AcDbEntity
  8
DEFPOINTS
 62
     0
 48
50.0
100
AcDbPoint
 10
10636.11793507571
 20
8973.133563275212
 30
0.0
  0
ENDBLK
  5
18D0D
330
18D02
100
AcDbEntity
  8
0
 48
50.0
100
AcDbBlockEnd
  0
BLOCK
  5
18D1A
330
18D0E
100
AcDbEntity
  8
0
 48
50.0
100
AcDbBlockBegin
  2
*D12
 70
     1
 10
0.0
 20
0.0
 30
0.0
  3
*D12
  1

  0
LINE
  5
19F01
330
18D0E
100
AcDbEntity
  8
寸法
 62
     0
 48
50.0
370
    -2
100
AcDbLine
 10
10763.1867086321
 20
8011.356218076166
 30
0.0
 11
11450.61305436651
 21
8011.356218076166
 31
0.0
  0
LINE
  5
19F02
330
18D0E
100
AcDbEntity
  8
寸法
 62
     0
 48
50.0
370
    -2
100
AcDbLine
 10
10763.1867086321
 20
7956.356218076169
 30
0.0
 11
11450.61305436651
 21
7956.356218076169
 31
0.0
  0
LINE
  5
19F03
330
18D0E
100
AcDbEntity
  8
寸法
 62
     0
 48
50.0
370
    -2
100
AcDbLine
 10
11390.61305436651
 20
8011.356218076166
 30
0.0
 11
11390.61305436651
 21
8111.356218076165
 31
0.0
  0
LINE
  5
19F04
330
18D0E
100
AcDbEntity
  8
寸法
 62
     0
 48
50.0
370
    -2
100
AcDbLine
 10
11390.61305436651
 20
7956.356218076169
 30
0.0
 11
11390.61305436651
 21
7470.009469797067
 31
0.0
  0
LINE
  5
19F05
330
18D0E
100
AcDbEntity
  8
寸法
 62
     0
 48
50.0
370
    -2
100
AcDbLine
 10
11390.61305436651
 20
8011.356218076166
 30
0.0
 11
11390.61305436651
 21
7956.356218076169
 31
0.0
  0
INSERT
  5
19F06
330
18D0E
100
AcDbEntity
  8
寸法
 62
     0
 48
50.0
370
    -2
100
AcDbBlockReference
  2
_DOTSMALL
 10
11390.61305436651
 20
8011.356218076166
 30
0.0
 41
100.0
 42
100.0
 43
100.0
 50
270.0
  0
INSERT
  5
19F07
330
18D0E
100
AcDbEntity
  8
寸法
 62
     0
 48
50.0
370
    -2
100
AcDbBlockReference
  2
_DOTSMALL
 10
11390.61305436651
 20
7956.356218076169
 30
0.0
 41
100.0
 42
100.0
 43
100.0
 50
90.0
  0
MTEXT
  5
19F08
330
18D0E
100
AcDbEntity
  8
寸法
 62
     7
 48
50.0
100
AcDbMText
 10
11290.61305436651
 20
7578.494751171307
 30
0.0
 40
120.0
 41
0.0
 71
     5
 72
     1
  1
\A1;55
  7
STYLE1
 11
0.0000000000000001
 21
1.0
 31
0.0
 73
     1
 44
1.0
1001
ACAD
1000
MTEXTBEGIN
1070
    73
1070
     1
1070
    44
1040
1.0
1070
    74
1070
     0
1000
MTEXTEND
  0
POINT
  5
19F09
330
18D0E
100
AcDbEntity
  8
DEFPOINTS
 62
     0
 48
50.0
100
AcDbPoint
 10
10743.1867086321
 20
8011.356218076166
 30
0.0
  0
POINT
  5
19F0A
330
18D0E
100
AcDbEntity
  8
DEFPOINTS
 62
     0
 48
50.0
100
AcDbPoint
 10
10743.1867086321
 20
7956.356218076169
 30
0.0
  0
POINT
  5
19F0B
330
18D0E
100
AcDbEntity
  8
DEFPOINTS
 62
     0
 48
50.0
100
AcDbPoint
 10
11390.61305436651
 20
7956.356218076169
 30
0.0
  0
ENDBLK
  5
18D1B
330
18D0E
100
AcDbEntity
  8
0
 48
50.0
100
AcDbBlockEnd
  0
BLOCK
  5
18D32
330
18D28
100
AcDbEntity
  8
0
 48
50.0
100
AcDbBlockBegin
  2
*D13
 70
     1
 10
0.0
 20
0.0
 30
0.0
  3
*D13
  1

  0
LINE
  5
19EF8
330
18D28
100
AcDbEntity
  8
寸法
 62
     0
 48
50.0
370
    -2
100
AcDbLine
 10
8556.327724783507
 20
9246.356218076082
 30
0.0
 11
8467.040983529859
 21
8913.133563275213
 31
0.0
  0
LINE
  5
19EF9
330
18D28
100
AcDbEntity
  8
寸法
 62
     0
 48
50.0
370
    -2
100
AcDbLine
 10
9829.327724783517
 20
9246.356218076074
 30
0.0
 11
9740.040983529871
 21
8913.133563275213
 31
0.0
  0
LINE
  5
19EFA
330
18D28
100
AcDbEntity
  8
寸法
 62
     0
 48
50.0
370
    -2
100
AcDbLine
 10
8483.117935075727
 20
8973.133563275212
 30
0.0
 11
9756.11793507574
 21
8973.133563275212
 31
0.0
  0
INSERT
  5
19EFB
330
18D28
100
AcDbEntity
  8
寸法
 62
     0
 48
50.0
370
    -2
100
AcDbBlockReference
  2
_DOTSMALL
 10
8483.117935075727
 20
8973.133563275212
 30
0.0
 41
100.0
 42
100.0
 43
100.0
 50
180.0
  0
INSERT
  5
19EFC
330
18D28
100
AcDbEntity
  8
寸法
 62
     0
 48
50.0
370
    -2
100
AcDbBlockReference
  2
_DOTSMALL
 10
9756.11793507574
 20
8973.133563275212
 30
0.0
 41
100.0
 42
100.0
 43
100.0
  0
MTEXT
  5
19EFD
330
18D28
100
AcDbEntity
  8
寸法
 62
     7
 48
50.0
100
AcDbMText
 10
9097.263485208511
 20
9073.145374298835
 30
0.0
 40
120.0
 41
0.0
 71
     5
 72
     1
  1
\A1;1273
  7
STYLE1
 73
     1
 44
1.0
1001
ACAD
1000
MTEXTBEGIN
1070
    73
1070
     1
1070
    44
1040
1.0
1070
    74
1070
     0
1000
MTEXTEND
  0
POINT
  5
19EFE
330
18D28
100
AcDbEntity
  8
DEFPOINTS
 62
     0
 48
50.0
100
AcDbPoint
 10
8561.686708632128
 20
9266.356218076081
 30
0.0
  0
POINT
  5
19EFF
330
18D28
100
AcDbEntity
  8
DEFPOINTS
 62
     0
 48
50.0
100
AcDbPoint
 10
9834.686708632141
 20
9266.356218076074
 30
0.0
  0
POINT
  5
19F00
330
18D28
100
AcDbEntity
  8
DEFPOINTS
 62
     0
 48
50.0
100
AcDbPoint
 10
9756.11793507574
 20
8973.133563275212
 30
0.0
  0
ENDBLK
  5
18D33
330
18D28
100
AcDbEntity
  8
0
 48
50.0
100
AcDbBlockEnd
  0
BLOCK
  5
18D40
330
18D34
100
AcDbEntity
  8
0
 48
50.0
100
AcDbBlockBegin
  2
*D14
 70
     1
 10
0.0
 20
0.0
 30
0.0
  3
*D14
  1

  0
LINE
  5
19EED
330
18D34
100
AcDbEntity
  8
寸法
 62
     0
 48
50.0
370
    -2
100
AcDbLine
 10
8533.186708632092
 20
9766.356218076083
 30
0.0
 11
8533.186708632092
 21
10109.40181265166
 31
0.0
  0
LINE
  5
19EEE
330
18D34
100
AcDbEntity
  8
寸法
 62
     0
 48
50.0
370
    -2
100
AcDbLine
 10
8588.186708632129
 20
9766.356218076083
 30
0.0
 11
8588.186708632129
 21
10109.40181265166
 31
0.0
  0
LINE
  5
19EEF
330
18D34
100
AcDbEntity
  8
寸法
 62
     0
 48
50.0
370
    -2
100
AcDbLine
 10
8588.186708632129
 20
10049.40181265166
 30
0.0
 11
8688.186708632128
 21
10049.40181265166
 31
0.0
  0
LINE
  5
19EF0
330
18D34
100
AcDbEntity
  8
寸法
 62
     0
 48
50.0
370
    -2
100
AcDbLine
 10
8533.186708632092
 20
10049.40181265166
 30
0.0
 11
8116.216145883615
 21
10049.40181265166
 31
0.0
  0
LINE
  5
19EF1
330
18D34
100
AcDbEntity
  8
寸法
 62
     0
 48
50.0
370
    -2
100
AcDbLine
 10
8588.186708632129
 20
10049.40181265166
 30
0.0
 11
8533.186708632092
 21
10049.40181265166
 31
0.0
  0
INSERT
  5
19EF2
330
18D34
100
AcDbEntity
  8
寸法
 62
     0
 48
50.0
370
    -2
100
AcDbBlockReference
  2
_DOTSMALL
 10
8588.186708632129
 20
10049.40181265166
 30
0.0
 41
100.0
 42
100.0
 43
100.0
 50
180.0
  0
INSERT
  5
19EF3
330
18D34
100
AcDbEntity
  8
寸法
 62
     0
 48
50.0
370
    -2
100
AcDbBlockReference
  2
_DOTSMALL
 10
8533.186708632092
 20
10049.40181265166
 30
0.0
 41
100.0
 42
100.0
 43
100.0
  0
MTEXT
  5
19EF4
330
18D34
100
AcDbEntity
  8
寸法
 62
     7
 48
50.0
100
AcDbMText
 10
8224.701427257853
 20
10149.40181265166
 30
0.0
 40
120.0
 41
0.0
 71
     5
 72
     1
  1
\A1;55
  7
STYLE1
 73
     1
 44
1.0
1001
ACAD
1000
MTEXTBEGIN
1070
    73
1070
     1
1070
    44
1040
1.0
1070
    74
1070
     0
1000
MTEXTEND
  0
POINT
  5
19EF5
330
18D34
100
AcDbEntity
  8
DEFPOINTS
 62
     0
 48
50.0
100
AcDbPoint
 10
8533.186708632092
 20
9746.356218076082
 30
0.0
  0
POINT
  5
19EF6
330
18D34
100
AcDbEntity
  8
DEFPOINTS
 62
     0
 48
50.0
100
AcDbPoint
 10
8588.186708632129
 20
9746.356218076082
 30
0.0
  0
POINT
  5
19EF7
330
18D34
100
AcDbEntity
  8
DEFPOINTS
 62
     0
 48
50.0
100
AcDbPoint
 10
8588.186708632129
 20
10049.40181265166
 30
0.0
  0
ENDBLK
  5
18D41
330
18D34
100
AcDbEntity
  8
0
 48
50.0
100
AcDbBlockEnd
  0
BLOCK
  5
18D4E
330
18D42
100
AcDbEntity
  8
0
 48
50.0
100
AcDbBlockBegin
  2
*D15
 70
     1
 10
0.0
 20
0.0
 30
0.0
  3
*D15
  1

  0
LINE
  5
19EE2
330
18D42
100
AcDbEntity
  8
寸法
 62
     0
 48
50.0
370
    -2
100
AcDbLine
 10
10763.18670863213
 20
9746.356218076178
 30
0.0
 11
11450.61305436654
 21
9746.356218076178
 31
0.0
  0
LINE
  5
19EE3
330
18D42
100
AcDbEntity
  8
寸法
 62
     0
 48
50.0
370
    -2
100
AcDbLine
 10
10763.18670863213
 20
9691.35621807618
 30
0.0
 11
11450.61305436654
 21
9691.35621807618
 31
0.0
  0
LINE
  5
19EE4
330
18D42
100
AcDbEntity
  8
寸法
 62
     0
 48
50.0
370
    -2
100
AcDbLine
 10
11390.61305436654
 20
9691.35621807618
 30
0.0
 11
11390.61305436654
 21
9591.35621807618
 31
0.0
  0
LINE
  5
19EE5
330
18D42
100
AcDbEntity
  8
寸法
 62
     0
 48
50.0
370
    -2
100
AcDbLine
 10
11390.61305436654
 20
9746.356218076178
 30
0.0
 11
11390.61305436654
 21
10163.32678082465
 31
0.0
  0
LINE
  5
19EE6
330
18D42
100
AcDbEntity
  8
寸法
 62
     0
 48
50.0
370
    -2
100
AcDbLine
 10
11390.61305436654
 20
9691.35621807618
 30
0.0
 11
11390.61305436654
 21
9746.356218076178
 31
0.0
  0
INSERT
  5
19EE7
330
18D42
100
AcDbEntity
  8
寸法
 62
     0
 48
50.0
370
    -2
100
AcDbBlockReference
  2
_DOTSMALL
 10
11390.61305436654
 20
9691.35621807618
 30
0.0
 41
100.0
 42
100.0
 43
100.0
 50
90.0
  0
INSERT
  5
19EE8
330
18D42
100
AcDbEntity
  8
寸法
 62
     0
 48
50.0
370
    -2
100
AcDbBlockReference
  2
_DOTSMALL
 10
11390.61305436654
 20
9746.356218076178
 30
0.0
 41
100.0
 42
100.0
 43
100.0
 50
270.0
  0
MTEXT
  5
19EE9
330
18D42
100
AcDbEntity
  8
寸法
 62
     7
 48
50.0
100
AcDbMText
 10
11290.61305436654
 20
10054.84149945041
 30
0.0
 40
120.0
 41
0.0
 71
     5
 72
     1
  1
\A1;55
  7
STYLE1
 11
0.0000000000000001
 21
1.0
 31
0.0
 73
     1
 44
1.0
1001
ACAD
1000
MTEXTBEGIN
1070
    73
1070
     1
1070
    44
1040
1.0
1070
    74
1070
     0
1000
MTEXTEND
  0
POINT
  5
19EEA
330
18D42
100
AcDbEntity
  8
DEFPOINTS
 62
     0
 48
50.0
100
AcDbPoint
 10
10743.18670863213
 20
9746.356218076178
 30
0.0
  0
POINT
  5
19EEB
330
18D42
100
AcDbEntity
  8
DEFPOINTS
 62
     0
 48
50.0
100
AcDbPoint
 10
10743.18670863213
 20
9691.35621807618
 30
0.0
  0
POINT
  5
19EEC
330
18D42
100
AcDbEntity
  8
DEFPOINTS
 62
     0
 48
50.0
100
AcDbPoint
 10
11390.61305436654
 20
9691.35621807618
 30
0.0
  0
ENDBLK
  5
18D4F
330
18D42
100
AcDbEntity
  8
0
 48
50.0
100
AcDbBlockEnd
  0
BLOCK
  5
18D5C
330
18D50
100
AcDbEntity
  8
0
 48
50.0
100
AcDbBlockBegin
  2
*D16
 70
     1
 10
0.0
 20
0.0
 30
0.0
  3
*D16
  1

  0
LINE
  5
19ED7
330
18D50
100
AcDbEntity
  8
寸法
 62
     0
 48
50.0
370
    -2
100
AcDbLine
 10
10688.18670863213
 20
9766.356218076177
 30
0.0
 11
10688.18670863213
 21
10109.40181265176
 31
0.0
  0
LINE
  5
19ED8
330
18D50
100
AcDbEntity
  8
寸法
 62
     0
 48
50.0
370
    -2
100
AcDbLine
 10
10743.18670863213
 20
9766.356218076177
 30
0.0
 11
10743.18670863213
 21
10109.40181265176
 31
0.0
  0
LINE
  5
19ED9
330
18D50
100
AcDbEntity
  8
寸法
 62
     0
 48
50.0
370
    -2
100
AcDbLine
 10
10688.18670863213
 20
10049.40181265176
 30
0.0
 11
10588.18670863213
 21
10049.40181265176
 31
0.0
  0
LINE
  5
19EDA
330
18D50
100
AcDbEntity
  8
寸法
 62
     0
 48
50.0
370
    -2
100
AcDbLine
 10
10743.18670863213
 20
10049.40181265176
 30
0.0
 11
11160.1572713806
 21
10049.40181265176
 31
0.0
  0
LINE
  5
19EDB
330
18D50
100
AcDbEntity
  8
寸法
 62
     0
 48
50.0
370
    -2
100
AcDbLine
 10
10688.18670863213
 20
10049.40181265176
 30
0.0
 11
10743.18670863213
 21
10049.40181265176
 31
0.0
  0
INSERT
  5
19EDC
330
18D50
100
AcDbEntity
  8
寸法
 62
     0
 48
50.0
370
    -2
100
AcDbBlockReference
  2
_DOTSMALL
 10
10688.18670863213
 20
10049.40181265176
 30
0.0
 41
100.0
 42
100.0
 43
100.0
  0
INSERT
  5
19EDD
330
18D50
100
AcDbEntity
  8
寸法
 62
     0
 48
50.0
370
    -2
100
AcDbBlockReference
  2
_DOTSMALL
 10
10743.18670863213
 20
10049.40181265176
 30
0.0
 41
100.0
 42
100.0
 43
100.0
 50
180.0
  0
MTEXT
  5
19EDE
330
18D50
100
AcDbEntity
  8
寸法
 62
     7
 48
50.0
100
AcDbMText
 10
11051.67199000637
 20
10149.40181265176
 30
0.0
 40
120.0
 41
0.0
 71
     5
 72
     1
  1
\A1;55
  7
STYLE1
 73
     1
 44
1.0
1001
ACAD
1000
MTEXTBEGIN
1070
    73
1070
     1
1070
    44
1040
1.0
1070
    74
1070
     0
1000
MTEXTEND
  0
POINT
  5
19EDF
330
18D50
100
AcDbEntity
  8
DEFPOINTS
 62
     0
 48
50.0
100
AcDbPoint
 10
10688.18670863213
 20
9746.356218076178
 30
0.0
  0
POINT
  5
19EE0
330
18D50
100
AcDbEntity
  8
DEFPOINTS
 62
     0
 48
50.0
100
AcDbPoint
 10
10743.18670863213
 20
9746.356218076178
 30
0.0
  0
POINT
  5
19EE1
330
18D50
100
AcDbEntity
  8
DEFPOINTS
 62
     0
 48
50.0
100
AcDbPoint
 10
10743.18670863213
 20
10049.40181265176
 30
0.0
  0
ENDBLK
  5
18D5D
330
18D50
100
AcDbEntity
  8
0
 48
50.0
100
AcDbBlockEnd
  0
BLOCK
  5
18D68
330
18D5E
100
AcDbEntity
  8
0
 48
50.0
100
AcDbBlockBegin
  2
*D17
 70
     1
 10
0.0
 20
0.0
 30
0.0
  3
*D17
  1

  0
LINE
  5
19ECE
330
18D5E
100
AcDbEntity
  8
寸法
 62
     0
 48
50.0
370
    -2
100
AcDbLine
 10
8588.186708632129
 20
9766.356218076083
 30
0.0
 11
8588.186708632129
 21
10109.40181265177
 31
0.0
  0
LINE
  5
19ECF
330
18D5E
100
AcDbEntity
  8
寸法
 62
     0
 48
50.0
370
    -2
100
AcDbLine
 10
10688.18670863213
 20
9766.356218076177
 30
0.0
 11
10688.18670863213
 21
10109.40181265177
 31
0.0
  0
LINE
  5
19ED0
330
18D5E
100
AcDbEntity
  8
寸法
 62
     0
 48
50.0
370
    -2
100
AcDbLine
 10
8588.186708632129
 20
10049.40181265177
 30
0.0
 11
10688.18670863213
 21
10049.40181265177
 31
0.0
  0
INSERT
  5
19ED1
330
18D5E
100
AcDbEntity
  8
寸法
 62
     0
 48
50.0
370
    -2
100
AcDbBlockReference
  2
_DOTSMALL
 10
8588.186708632129
 20
10049.40181265177
 30
0.0
 41
100.0
 42
100.0
 43
100.0
 50
180.0
  0
INSERT
  5
19ED2
330
18D5E
100
AcDbEntity
  8
寸法
 62
     0
 48
50.0
370
    -2
100
AcDbBlockReference
  2
_DOTSMALL
 10
10688.18670863213
 20
10049.40181265177
 30
0.0
 41
100.0
 42
100.0
 43
100.0
  0
MTEXT
  5
19ED3
330
18D5E
100
AcDbEntity
  8
寸法
 62
     7
 48
50.0
100
AcDbMText
 10
9638.186708632128
 20
10149.4136236754
 30
0.0
 40
120.0
 41
0.0
 71
     5
 72
     1
  1
\A1;5X420=2100
  7
STYLE1
 73
     1
 44
1.0
1001
ACAD
1000
MTEXTBEGIN
1070
    73
1070
     1
1070
    44
1040
1.0
1070
    74
1070
     0
1000
MTEXTEND
  0
POINT
  5
19ED4
330
18D5E
100
AcDbEntity
  8
DEFPOINTS
 62
     0
 48
50.0
100
AcDbPoint
 10
8588.186708632129
 20
9746.356218076082
 30
0.0
  0
POINT
  5
19ED5
330
18D5E
100
AcDbEntity
  8
DEFPOINTS
 62
     0
 48
50.0
100
AcDbPoint
 10
10688.18670863213
 20
9746.356218076178
 30
0.0
  0
POINT
  5
19ED6
330
18D5E
100
AcDbEntity
  8
DEFPOINTS
 62
     0
 48
50.0
100
AcDbPoint
 10
10688.18670863213
 20
10049.40181265177
 30
0.0
  0
ENDBLK
  5
18D69
330
18D5E
100
AcDbEntity
  8
0
 48
50.0
100
AcDbBlockEnd
  0
BLOCK
  5
18D74
330
18D6A
100
AcDbEntity
  8
0
 48
50.0
100
AcDbBlockBegin
  2
*D18
 70
     1
 10
0.0
 20
0.0
 30
0.0
  3
*D18
  1

  0
LINE
  5
19EC5
330
18D6A
100
AcDbEntity
  8
寸法
 62
     0
 48
50.0
370
    -2
100
AcDbLine
 10
10763.18670863213
 20
9746.356218076178
 30
0.0
 11
11750.93794482328
 21
9746.356218076178
 31
0.0
  0
LINE
  5
19EC6
330
18D6A
100
AcDbEntity
  8
寸法
 62
     0
 48
50.0
370
    -2
100
AcDbLine
 10
10763.1867086321
 20
7956.356218076169
 30
0.0
 11
11750.93794482328
 21
7956.356218076169
 31
0.0
  0
LINE
  5
19EC7
330
18D6A
100
AcDbEntity
  8
寸法
 62
     0
 48
50.0
370
    -2
100
AcDbLine
 10
11690.93794482328
 20
9746.356218076178
 30
0.0
 11
11690.93794482328
 21
7956.356218076169
 31
0.0
  0
INSERT
  5
19EC8
330
18D6A
100
AcDbEntity
  8
寸法
 62
     0
 48
50.0
370
    -2
100
AcDbBlockReference
  2
_DOTSMALL
 10
11690.93794482328
 20
9746.356218076178
 30
0.0
 41
100.0
 42
100.0
 43
100.0
 50
90.0
  0
INSERT
  5
19EC9
330
18D6A
100
AcDbEntity
  8
寸法
 62
     0
 48
50.0
370
    -2
100
AcDbBlockReference
  2
_DOTSMALL
 10
11690.93794482328
 20
7956.356218076169
 30
0.0
 41
100.0
 42
100.0
 43
100.0
 50
270.0
  0
MTEXT
  5
19ECA
330
18D6A
100
AcDbEntity
  8
寸法
 62
     7
 48
50.0
100
AcDbMText
 10
11590.93794482328
 20
8844.625165184035
 30
0.0
 40
120.0
 41
0.0
 71
     5
 72
     1
  1
\A1;1790
  7
STYLE1
 11
0.0000000000000001
 21
1.0
 31
0.0
 73
     1
 44
1.0
1001
ACAD
1000
MTEXTBEGIN
1070
    73
1070
     1
1070
    44
1040
1.0
1070
    74
1070
     0
1000
MTEXTEND
  0
POINT
  5
19ECB
330
18D6A
100
AcDbEntity
  8
DEFPOINTS
 62
     0
 48
50.0
100
AcDbPoint
 10
10743.18670863213
 20
9746.356218076178
 30
0.0
  0
POINT
  5
19ECC
330
18D6A
100
AcDbEntity
  8
DEFPOINTS
 62
     0
 48
50.0
100
AcDbPoint
 10
10743.1867086321
 20
7956.356218076169
 30
0.0
  0
POINT
  5
19ECD
330
18D6A
100
AcDbEntity
  8
DEFPOINTS
 62
     0
 48
50.0
100
AcDbPoint
 10
11690.93794482328
 20
7956.356218076169
 30
0.0
  0
ENDBLK
  5
18D75
330
18D6A
100
AcDbEntity
  8
0
 48
50.0
100
AcDbBlockEnd
  0
BLOCK
  5
18D8C
330
18D82
100
AcDbEntity
  8
0
 48
50.0
100
AcDbBlockBegin
  2
*D19
 70
     1
 10
0.0
 20
0.0
 30
0.0
  3
*D19
  1

  0
LINE
  5
196C8
330
18D82
100
AcDbEntity
  8
寸法
 62
     0
 48
50.0
370
    -2
100
AcDbLine
 10
10743.18670863212
 20
4892.13293271868
 30
0.0
 11
10743.18670863212
 21
5383.979706686331
 31
0.0
  0
LINE
  5
196C9
330
18D82
100
AcDbEntity
  8
寸法
 62
     0
 48
50.0
370
    -2
100
AcDbLine
 10
8533.186708632122
 20
4941.323871230004
 30
0.0
 11
8533.186708632122
 21
5383.979706686331
 31
0.0
  0
LINE
  5
196CA
330
18D82
100
AcDbEntity
  8
寸法
 62
     0
 48
50.0
370
    -2
100
AcDbLine
 10
10743.18670863212
 20
5323.979706686331
 30
0.0
 11
8533.186708632122
 21
5323.979706686331
 31
0.0
  0
INSERT
  5
196CB
330
18D82
100
AcDbEntity
  8
寸法
 62
     0
 48
50.0
370
    -2
100
AcDbBlockReference
  2
_DOTSMALL
 10
10743.18670863212
 20
5323.979706686331
 30
0.0
 41
100.0
 42
100.0
 43
100.0
  0
INSERT
  5
196CC
330
18D82
100
AcDbEntity
  8
寸法
 62
     0
 48
50.0
370
    -2
100
AcDbBlockReference
  2
_DOTSMALL
 10
8533.186708632122
 20
5323.979706686331
 30
0.0
 41
100.0
 42
100.0
 43
100.0
 50
180.0
  0
MTEXT
  5
196CD
330
18D82
100
AcDbEntity
  8
寸法
 62
     7
 48
50.0
100
AcDbMText
 10
9627.831445702636
 20
5423.991517709954
 30
0.0
 40
120.0
 41
0.0
 71
     5
 72
     1
  1
\A1;柱外寸法2210
  7
STYLE1
 73
     1
 44
1.0
1001
ACAD
1000
MTEXTBEGIN
1070
    73
1070
     1
1070
    44
1040
1.0
1070
    74
1070
     0
1000
MTEXTEND
  0
POINT
  5
196CE
330
18D82
100
AcDbEntity
  8
DEFPOINTS
 62
     0
 48
50.0
100
AcDbPoint
 10
10743.18670863212
 20
4872.132932718679
 30
0.0
  0
POINT
  5
196CF
330
18D82
100
AcDbEntity
  8
DEFPOINTS
 62
     0
 48
50.0
100
AcDbPoint
 10
8533.186708632122
 20
4921.323871230004
 30
0.0
  0
POINT
  5
196D0
330
18D82
100
AcDbEntity
  8
DEFPOINTS
 62
     0
 48
50.0
100
AcDbPoint
 10
8533.186708632122
 20
5323.979706686331
 30
0.0
  0
ENDBLK
  5
18D8D
330
18D82
100
AcDbEntity
  8
0
 48
50.0
100
AcDbBlockEnd
  0
BLOCK
  5
18D98
330
18D8E
100
AcDbEntity
  8
0
 48
50.0
100
AcDbBlockBegin
  2
*D20
 70
     1
 10
0.0
 20
0.0
 30
0.0
  3
*D20
  1

  0
LINE
  5
196BF
330
18D8E
100
AcDbEntity
  8
寸法
 62
     0
 48
50.0
370
    -2
100
AcDbLine
 10
10823.18670863212
 20
4890.322253107028
 30
0.0
 11
10823.18670863212
 21
5603.181540360623
 31
0.0
  0
LINE
  5
196C0
330
18D8E
100
AcDbEntity
  8
寸法
 62
     0
 48
50.0
370
    -2
100
AcDbLine
 10
8473.186708632121
 20
4945.322253107032
 30
0.0
 11
8473.186708632121
 21
5603.181540360623
 31
0.0
  0
LINE
  5
196C1
330
18D8E
100
AcDbEntity
  8
寸法
 62
     0
 48
50.0
370
    -2
100
AcDbLine
 10
10823.18670863212
 20
5543.181540360624
 30
0.0
 11
8473.186708632121
 21
5543.181540360624
 31
0.0
  0
INSERT
  5
196C2
330
18D8E
100
AcDbEntity
  8
寸法
 62
     0
 48
50.0
370
    -2
100
AcDbBlockReference
  2
_DOTSMALL
 10
10823.18670863212
 20
5543.181540360624
 30
0.0
 41
100.0
 42
100.0
 43
100.0
  0
INSERT
  5
196C3
330
18D8E
100
AcDbEntity
  8
寸法
 62
     0
 48
50.0
370
    -2
100
AcDbBlockReference
  2
_DOTSMALL
 10
8473.186708632121
 20
5543.181540360624
 30
0.0
 41
100.0
 42
100.0
 43
100.0
 50
180.0
  0
MTEXT
  5
196C4
330
18D8E
100
AcDbEntity
  8
寸法
 62
     7
 48
50.0
100
AcDbMText
 10
9707.530562724592
 20
5643.193351384245
 30
0.0
 40
120.0
 41
0.0
 71
     5
 72
     1
  1
\A1;2350
  7
STYLE1
 73
     1
 44
1.0
1001
ACAD
1000
MTEXTBEGIN
1070
    73
1070
     1
1070
    44
1040
1.0
1070
    74
1070
     0
1000
MTEXTEND
  0
POINT
  5
196C5
330
18D8E
100
AcDbEntity
  8
DEFPOINTS
 62
     0
 48
50.0
100
AcDbPoint
 10
10823.18670863212
 20
4870.322253107028
 30
0.0
  0
POINT
  5
196C6
330
18D8E
100
AcDbEntity
  8
DEFPOINTS
 62
     0
 48
50.0
100
AcDbPoint
 10
8473.186708632121
 20
4925.322253107031
 30
0.0
  0
POINT
  5
196C7
330
18D8E
100
AcDbEntity
  8
DEFPOINTS
 62
     0
 48
50.0
100
AcDbPoint
 10
8473.186708632121
 20
5543.181540360624
 30
0.0
  0
ENDBLK
  5
18D99
330
18D8E
100
AcDbEntity
  8
0
 48
50.0
100
AcDbBlockEnd
  0
BLOCK
  5
18DA5
330
18D9A
100
AcDbEntity
  8
0
 48
50.0
100
AcDbBlockBegin
  2
*D21
 70
     1
 10
0.0
 20
0.0
 30
0.0
  3
*D21
  1

  0
LINE
  5
196B5
330
18D9A
100
AcDbEntity
  8
寸法
 62
     0
 48
50.0
370
    -2
100
AcDbLine
 10
10743.18670863212
 20
4892.13293271868
 30
0.0
 11
10743.18670863212
 21
5383.979706686331
 31
0.0
  0
LINE
  5
196B6
330
18D9A
100
AcDbEntity
  8
寸法
 62
     0
 48
50.0
370
    -2
100
AcDbLine
 10
10823.18670863212
 20
4890.322253107028
 30
0.0
 11
10823.18670863212
 21
5383.979706686331
 31
0.0
  0
LINE
  5
196B7
330
18D9A
100
AcDbEntity
  8
寸法
 62
     0
 48
50.0
370
    -2
100
AcDbLine
 10
10743.18670863212
 20
5323.979706686331
 30
0.0
 11
10823.18670863212
 21
5323.979706686331
 31
0.0
  0
LINE
  5
196B8
330
18D9A
100
AcDbEntity
  8
寸法
 62
     0
 48
50.0
370
    -2
100
AcDbLine
 10
10823.18670863212
 20
5323.979706686331
 30
0.0
 11
11135.2811968211
 21
5323.979706686331
 31
0.0
  0
INSERT
  5
196B9
330
18D9A
100
AcDbEntity
  8
寸法
 62
     0
 48
50.0
370
    -2
100
AcDbBlockReference
  2
_DOTSMALL
 10
10743.18670863212
 20
5323.979706686331
 30
0.0
 41
100.0
 42
100.0
 43
100.0
 50
180.0
  0
INSERT
  5
196BA
330
18D9A
100
AcDbEntity
  8
寸法
 62
     0
 48
50.0
370
    -2
100
AcDbBlockReference
  2
_DOTSMALL
 10
10823.18670863212
 20
5323.979706686331
 30
0.0
 41
100.0
 42
100.0
 43
100.0
  0
MTEXT
  5
196BB
330
18D9A
100
AcDbEntity
  8
寸法
 62
     7
 48
50.0
100
AcDbMText
 10
11029.23395272661
 20
5423.979706686331
 30
0.0
 40
120.0
 41
0.0
 71
     5
 72
     1
  1
\A1;80
  7
STYLE1
 73
     1
 44
1.0
1001
ACAD
1000
MTEXTBEGIN
1070
    73
1070
     1
1070
    44
1040
1.0
1070
    74
1070
     0
1000
MTEXTEND
  0
POINT
  5
196BC
330
18D9A
100
AcDbEntity
  8
DEFPOINTS
 62
     0
 48
50.0
100
AcDbPoint
 10
10743.18670863212
 20
4872.132932718679
 30
0.0
  0
POINT
  5
196BD
330
18D9A
100
AcDbEntity
  8
DEFPOINTS
 62
     0
 48
50.0
100
AcDbPoint
 10
10823.18670863212
 20
4870.322253107028
 30
0.0
  0
POINT
  5
196BE
330
18D9A
100
AcDbEntity
  8
DEFPOINTS
 62
     0
 48
50.0
100
AcDbPoint
 10
10823.18670863212
 20
5323.979706686331
 30
0.0
  0
ENDBLK
  5
18DA6
330
18D9A
100
AcDbEntity
  8
0
 48
50.0
100
AcDbBlockEnd
  0
BLOCK
  5
18DB3
330
18DA7
100
AcDbEntity
  8
0
 48
50.0
100
AcDbBlockBegin
  2
*D22
 70
     1
 10
0.0
 20
0.0
 30
0.0
  3
*D22
  1

  0
LINE
  5
196AA
330
18DA7
100
AcDbEntity
  8
寸法
 62
     0
 48
50.0
370
    -2
100
AcDbLine
 10
8533.186708632122
 20
4941.323871230004
 30
0.0
 11
8533.186708632122
 21
5383.979706686331
 31
0.0
  0
LINE
  5
196AB
330
18DA7
100
AcDbEntity
  8
寸法
 62
     0
 48
50.0
370
    -2
100
AcDbLine
 10
8473.186708632121
 20
4945.322253107032
 30
0.0
 11
8473.186708632121
 21
5383.979706686331
 31
0.0
  0
LINE
  5
196AC
330
18DA7
100
AcDbEntity
  8
寸法
 62
     0
 48
50.0
370
    -2
100
AcDbLine
 10
8533.186708632122
 20
5323.979706686331
 30
0.0
 11
8633.186708632122
 21
5323.979706686331
 31
0.0
  0
LINE
  5
196AD
330
18DA7
100
AcDbEntity
  8
寸法
 62
     0
 48
50.0
370
    -2
100
AcDbLine
 10
8473.186708632121
 20
5323.979706686331
 30
0.0
 11
8053.911118080939
 21
5323.979706686331
 31
0.0
  0
LINE
  5
196AE
330
18DA7
100
AcDbEntity
  8
寸法
 62
     0
 48
50.0
370
    -2
100
AcDbLine
 10
8533.186708632122
 20
5323.979706686331
 30
0.0
 11
8473.186708632121
 21
5323.979706686331
 31
0.0
  0
INSERT
  5
196AF
330
18DA7
100
AcDbEntity
  8
寸法
 62
     0
 48
50.0
370
    -2
100
AcDbBlockReference
  2
_DOTSMALL
 10
8533.186708632122
 20
5323.979706686331
 30
0.0
 41
100.0
 42
100.0
 43
100.0
 50
180.0
  0
INSERT
  5
196B0
330
18DA7
100
AcDbEntity
  8
寸法
 62
     0
 48
50.0
370
    -2
100
AcDbBlockReference
  2
_DOTSMALL
 10
8473.186708632121
 20
5323.979706686331
 30
0.0
 41
100.0
 42
100.0
 43
100.0
  0
MTEXT
  5
196B1
330
18DA7
100
AcDbEntity
  8
寸法
 62
     7
 48
50.0
100
AcDbMText
 10
8163.548913356532
 20
5423.979706686331
 30
0.0
 40
120.0
 41
0.0
 71
     5
 72
     1
  1
\A1;60
  7
STYLE1
 73
     1
 44
1.0
1001
ACAD
1000
MTEXTBEGIN
1070
    73
1070
     1
1070
    44
1040
1.0
1070
    74
1070
     0
1000
MTEXTEND
  0
POINT
  5
196B2
330
18DA7
100
AcDbEntity
  8
DEFPOINTS
 62
     0
 48
50.0
100
AcDbPoint
 10
8533.186708632122
 20
4921.323871230004
 30
0.0
  0
POINT
  5
196B3
330
18DA7
100
AcDbEntity
  8
DEFPOINTS
 62
     0
 48
50.0
100
AcDbPoint
 10
8473.186708632121
 20
4925.322253107031
 30
0.0
  0
POINT
  5
196B4
330
18DA7
100
AcDbEntity
  8
DEFPOINTS
 62
     0
 48
50.0
100
AcDbPoint
 10
8473.186708632121
 20
5323.979706686331
 30
0.0
  0
ENDBLK
  5
18DB4
330
18DA7
100
AcDbEntity
  8
0
 48
50.0
100
AcDbBlockEnd
  0
BLOCK
  5
18DC0
330
18DB5
100
AcDbEntity
  8
0
 48
50.0
100
AcDbBlockBegin
  2
*D23
 70
     1
 10
0.0
 20
0.0
 30
0.0
  3
*D23
  1

  0
LINE
  5
196A0
330
18DB5
100
AcDbEntity
  8
寸法
 62
     0
 48
50.0
370
    -2
100
AcDbLine
 10
8472.590994923223
 20
4924.61996017669
 30
0.0
 11
7856.656555817948
 21
4942.334110451018
 31
0.0
  0
LINE
  5
196A1
330
18DB5
100
AcDbEntity
  8
寸法
 62
     0
 48
50.0
370
    -2
100
AcDbLine
 10
8468.537539366597
 20
4783.678236410975
 30
0.0
 11
7852.603100261321
 21
4801.392386685304
 31
0.0
  0
LINE
  5
196A2
330
18DB5
100
AcDbEntity
  8
寸法
 62
     0
 48
50.0
370
    -2
100
AcDbLine
 10
7912.578301863752
 20
4799.667511980357
 30
0.0
 11
7916.631757420379
 21
4940.609235746071
 31
0.0
  0
LINE
  5
196A3
330
18DB5
100
AcDbEntity
  8
寸法
 62
     0
 48
50.0
370
    -2
100
AcDbLine
 10
7916.631757420379
 20
4940.609235746071
 30
0.0
 11
7926.981005650063
 21
5300.460445360664
 31
0.0
  0
INSERT
  5
196A4
330
18DB5
100
AcDbEntity
  8
寸法
 62
     0
 48
50.0
370
    -2
100
AcDbBlockReference
  2
_DOTSMALL
 10
7912.578301863752
 20
4799.667511980357
 30
0.0
 41
100.0
 42
100.0
 43
100.0
 50
268.3526390256379
  0
INSERT
  5
196A5
330
18DB5
100
AcDbEntity
  8
寸法
 62
     0
 48
50.0
370
    -2
100
AcDbBlockReference
  2
_DOTSMALL
 10
7916.631757420379
 20
4940.609235746071
 30
0.0
 41
100.0
 42
100.0
 43
100.0
 50
88.35263902563784
  0
MTEXT
  5
196A6
330
18DB5
100
AcDbEntity
  8
寸法
 62
     7
 48
50.0
100
AcDbMText
 10
7823.285107785292
 20
5173.388966396976
 30
0.0
 40
120.0
 41
0.0
 71
     5
 72
     1
  1
\A1;141
  7
STYLE1
 11
0.0287479117491228
 21
0.9995866933738486
 31
0.0
 73
     1
 44
1.0
1001
ACAD
1000
MTEXTBEGIN
1070
    73
1070
     1
1070
    44
1040
1.0
1070
    74
1070
     0
1000
MTEXTEND
  0
POINT
  5
196A7
330
18DB5
100
AcDbEntity
  8
DEFPOINTS
 62
     0
 48
50.0
100
AcDbPoint
 10
8492.582728790699
 20
4924.045001941706
 30
0.0
  0
POINT
  5
196A8
330
18DB5
100
AcDbEntity
  8
DEFPOINTS
 62
     0
 48
50.0
100
AcDbPoint
 10
8488.529273234073
 20
4783.103278175992
 30
0.0
  0
POINT
  5
196A9
330
18DB5
100
AcDbEntity
  8
DEFPOINTS
 62
     0
 48
50.0
100
AcDbPoint
 10
7912.578301863752
 20
4799.667511980357
 30
0.0
  0
ENDBLK
  5
18DC1
330
18DB5
100
AcDbEntity
  8
0
 48
50.0
100
AcDbBlockEnd
  0
BLOCK
  5
18DCC
330
18DC2
100
AcDbEntity
  8
0
 48
50.0
100
AcDbBlockBegin
  2
*D24
 70
     1
 10
0.0
 20
0.0
 30
0.0
  3
*D24
  1

  0
LINE
  5
19697
330
18DC2
100
AcDbEntity
  8
寸法
 62
     0
 48
50.0
370
    -2
100
AcDbLine
 10
10763.18670863212
 20
2550.322253107028
 30
0.0
 11
11334.66469268832
 21
2550.322253107028
 31
0.0
  0
LINE
  5
19698
330
18DC2
100
AcDbEntity
  8
寸法
 62
     0
 48
50.0
370
    -2
100
AcDbLine
 10
10843.1867086321
 20
4870.32225310703
 30
0.0
 11
11334.66469268832
 21
4870.32225310703
 31
0.0
  0
LINE
  5
19699
330
18DC2
100
AcDbEntity
  8
寸法
 62
     0
 48
50.0
370
    -2
100
AcDbLine
 10
11274.66469268832
 20
2550.322253107028
 30
0.0
 11
11274.66469268832
 21
4870.32225310703
 31
0.0
  0
INSERT
  5
1969A
330
18DC2
100
AcDbEntity
  8
寸法
 62
     0
 48
50.0
370
    -2
100
AcDbBlockReference
  2
_DOTSMALL
 10
11274.66469268832
 20
2550.322253107028
 30
0.0
 41
100.0
 42
100.0
 43
100.0
 50
270.0
  0
INSERT
  5
1969B
330
18DC2
100
AcDbEntity
  8
寸法
 62
     0
 48
50.0
370
    -2
100
AcDbBlockReference
  2
_DOTSMALL
 10
11274.66469268832
 20
4870.32225310703
 30
0.0
 41
100.0
 42
100.0
 43
100.0
 50
90.0
  0
MTEXT
  5
1969C
330
18DC2
100
AcDbEntity
  8
寸法
 62
     7
 48
50.0
100
AcDbMText
 10
11174.65288166469
 20
3639.849788276777
 30
0.0
 40
120.0
 41
0.0
 71
     5
 72
     1
  1
\A1;2320
  7
STYLE1
 11
0.0000000000000001
 21
1.0
 31
0.0
 73
     1
 44
1.0
1001
ACAD
1000
MTEXTBEGIN
1070
    73
1070
     1
1070
    44
1040
1.0
1070
    74
1070
     0
1000
MTEXTEND
  0
POINT
  5
1969D
330
18DC2
100
AcDbEntity
  8
DEFPOINTS
 62
     0
 48
50.0
100
AcDbPoint
 10
10743.18670863212
 20
2550.322253107028
 30
0.0
  0
POINT
  5
1969E
330
18DC2
100
AcDbEntity
  8
DEFPOINTS
 62
     0
 48
50.0
100
AcDbPoint
 10
10823.1867086321
 20
4870.32225310703
 30
0.0
  0
POINT
  5
1969F
330
18DC2
100
AcDbEntity
  8
DEFPOINTS
 62
     0
 48
50.0
100
AcDbPoint
 10
11274.66469268832
 20
4870.32225310703
 30
0.0
  0
ENDBLK
  5
18DCD
330
18DC2
100
AcDbEntity
  8
0
 48
50.0
100
AcDbBlockEnd
  0
BLOCK
  5
18DD8
330
18DCE
100
AcDbEntity
  8
0
 48
50.0
100
AcDbBlockBegin
  2
*D25
 70
     1
 10
0.0
 20
0.0
 30
0.0
  3
*D25
  1

  0
LINE
  5
1968E
330
18DCE
100
AcDbEntity
  8
寸法
 62
     0
 48
50.0
370
    -2
100
AcDbLine
 10
8513.186708632122
 20
2550.322253107028
 30
0.0
 11
7564.547326702764
 21
2550.322253107028
 31
0.0
  0
LINE
  5
1968F
330
18DCE
100
AcDbEntity
  8
寸法
 62
     0
 48
50.0
370
    -2
100
AcDbLine
 10
8453.186708632122
 20
4925.322253107033
 30
0.0
 11
7564.547326702764
 21
4925.322253107033
 31
0.0
  0
LINE
  5
19690
330
18DCE
100
AcDbEntity
  8
寸法
 62
     0
 48
50.0
370
    -2
100
AcDbLine
 10
7624.547326702764
 20
2550.322253107028
 30
0.0
 11
7624.547326702764
 21
4925.322253107033
 31
0.0
  0
INSERT
  5
19691
330
18DCE
100
AcDbEntity
  8
寸法
 62
     0
 48
50.0
370
    -2
100
AcDbBlockReference
  2
_DOTSMALL
 10
7624.547326702764
 20
2550.322253107028
 30
0.0
 41
100.0
 42
100.0
 43
100.0
 50
270.0
  0
INSERT
  5
19692
330
18DCE
100
AcDbEntity
  8
寸法
 62
     0
 48
50.0
370
    -2
100
AcDbBlockReference
  2
_DOTSMALL
 10
7624.547326702764
 20
4925.322253107033
 30
0.0
 41
100.0
 42
100.0
 43
100.0
 50
90.0
  0
MTEXT
  5
19693
330
18DCE
100
AcDbEntity
  8
寸法
 62
     7
 48
50.0
100
AcDbMText
 10
7524.535515679142
 20
3620.822253107028
 30
0.0
 40
120.0
 41
0.0
 71
     5
 72
     1
  1
\A1;2375
  7
STYLE1
 11
0.0000000000000001
 21
1.0
 31
0.0
 73
     1
 44
1.0
1001
ACAD
1000
MTEXTBEGIN
1070
    73
1070
     1
1070
    44
1040
1.0
1070
    74
1070
     0
1000
MTEXTEND
  0
POINT
  5
19694
330
18DCE
100
AcDbEntity
  8
DEFPOINTS
 62
     0
 48
50.0
100
AcDbPoint
 10
8533.186708632122
 20
2550.322253107028
 30
0.0
  0
POINT
  5
19695
330
18DCE
100
AcDbEntity
  8
DEFPOINTS
 62
     0
 48
50.0
100
AcDbPoint
 10
8473.186708632121
 20
4925.322253107033
 30
0.0
  0
POINT
  5
19696
330
18DCE
100
AcDbEntity
  8
DEFPOINTS
 62
     0
 48
50.0
100
AcDbPoint
 10
7624.547326702764
 20
4925.322253107033
 30
0.0
  0
ENDBLK
  5
18DD9
330
18DCE
100
AcDbEntity
  8
0
 48
50.0
100
AcDbBlockEnd
  0
BLOCK
  5
18DE4
330
18DDA
100
AcDbEntity
  8
0
 48
50.0
100
AcDbBlockBegin
  2
*D26
 70
     1
 10
0.0
 20
0.0
 30
0.0
  3
*D26
  1

  0
LINE
  5
19685
330
18DDA
100
AcDbEntity
  8
寸法
 62
     0
 48
50.0
370
    -2
100
AcDbLine
 10
8513.186708632122
 20
4690.322253107027
 30
0.0
 11
7849.533999473826
 21
4690.322253107027
 31
0.0
  0
LINE
  5
19686
330
18DDA
100
AcDbEntity
  8
寸法
 62
     0
 48
50.0
370
    -2
100
AcDbLine
 10
8513.186708632122
 20
2600.322253107028
 30
0.0
 11
7849.533999473826
 21
2600.322253107028
 31
0.0
  0
LINE
  5
19687
330
18DDA
100
AcDbEntity
  8
寸法
 62
     0
 48
50.0
370
    -2
100
AcDbLine
 10
7909.533999473826
 20
4690.322253107027
 30
0.0
 11
7909.533999473826
 21
2600.322253107028
 31
0.0
  0
INSERT
  5
19688
330
18DDA
100
AcDbEntity
  8
寸法
 62
     0
 48
50.0
370
    -2
100
AcDbBlockReference
  2
_DOTSMALL
 10
7909.533999473826
 20
4690.322253107027
 30
0.0
 41
100.0
 42
100.0
 43
100.0
 50
90.0
  0
INSERT
  5
19689
330
18DDA
100
AcDbEntity
  8
寸法
 62
     0
 48
50.0
370
    -2
100
AcDbBlockReference
  2
_DOTSMALL
 10
7909.533999473826
 20
2600.322253107028
 30
0.0
 41
100.0
 42
100.0
 43
100.0
 50
270.0
  0
MTEXT
  5
1968A
330
18DDA
100
AcDbEntity
  8
寸法
 62
     7
 48
50.0
100
AcDbMText
 10
7809.522188450204
 20
3620.822253107028
 30
0.0
 40
120.0
 41
0.0
 71
     5
 72
     1
  1
\A1;2090
  7
STYLE1
 11
0.0000000000000001
 21
1.0
 31
0.0
 73
     1
 44
1.0
1001
ACAD
1000
MTEXTBEGIN
1070
    73
1070
     1
1070
    44
1040
1.0
1070
    74
1070
     0
1000
MTEXTEND
  0
POINT
  5
1968B
330
18DDA
100
AcDbEntity
  8
DEFPOINTS
 62
     0
 48
50.0
100
AcDbPoint
 10
8533.186708632122
 20
4690.322253107027
 30
0.0
  0
POINT
  5
1968C
330
18DDA
100
AcDbEntity
  8
DEFPOINTS
 62
     0
 48
50.0
100
AcDbPoint
 10
8533.186708632122
 20
2600.322253107028
 30
0.0
  0
POINT
  5
1968D
330
18DDA
100
AcDbEntity
  8
DEFPOINTS
 62
     0
 48
50.0
100
AcDbPoint
 10
7909.533999473826
 20
2600.322253107028
 30
0.0
  0
ENDBLK
  5
18DE5
330
18DDA
100
AcDbEntity
  8
0
 48
50.0
100
AcDbBlockEnd
  0
BLOCK
  5
18DF2
330
18DE6
100
AcDbEntity
  8
0
 48
50.0
100
AcDbBlockBegin
  2
*D27
 70
     1
 10
0.0
 20
0.0
 30
0.0
  3
*D27
  1

  0
LINE
  5
1967A
330
18DE6
100
AcDbEntity
  8
寸法
 62
     0
 48
50.0
370
    -2
100
AcDbLine
 10
8513.186708632122
 20
2600.322253107028
 30
0.0
 11
7849.533999473826
 21
2600.322253107028
 31
0.0
  0
LINE
  5
1967B
330
18DE6
100
AcDbEntity
  8
寸法
 62
     0
 48
50.0
370
    -2
100
AcDbLine
 10
8458.186708632123
 20
2550.322253107028
 30
0.0
 11
7849.533999473826
 21
2550.322253107028
 31
0.0
  0
LINE
  5
1967C
330
18DE6
100
AcDbEntity
  8
寸法
 62
     0
 48
50.0
370
    -2
100
AcDbLine
 10
7909.533999473826
 20
2600.322253107028
 30
0.0
 11
7909.533999473826
 21
2700.322253107028
 31
0.0
  0
LINE
  5
1967D
330
18DE6
100
AcDbEntity
  8
寸法
 62
     0
 48
50.0
370
    -2
100
AcDbLine
 10
7909.533999473826
 20
2550.322253107028
 30
0.0
 11
7909.533999473826
 21
2138.227764918048
 31
0.0
  0
LINE
  5
1967E
330
18DE6
100
AcDbEntity
  8
寸法
 62
     0
 48
50.0
370
    -2
100
AcDbLine
 10
7909.533999473826
 20
2600.322253107028
 30
0.0
 11
7909.533999473826
 21
2550.322253107028
 31
0.0
  0
INSERT
  5
1967F
330
18DE6
100
AcDbEntity
  8
寸法
 62
     0
 48
50.0
370
    -2
100
AcDbBlockReference
  2
_DOTSMALL
 10
7909.533999473826
 20
2600.322253107028
 30
0.0
 41
100.0
 42
100.0
 43
100.0
 50
270.0
  0
INSERT
  5
19680
330
18DE6
100
AcDbEntity
  8
寸法
 62
     0
 48
50.0
370
    -2
100
AcDbBlockReference
  2
_DOTSMALL
 10
7909.533999473826
 20
2550.322253107028
 30
0.0
 41
100.0
 42
100.0
 43
100.0
 50
90.0
  0
MTEXT
  5
19681
330
18DE6
100
AcDbEntity
  8
寸法
 62
     7
 48
50.0
100
AcDbMText
 10
7809.533999473824
 20
2244.275009012537
 30
0.0
 40
120.0
 41
0.0
 71
     5
 72
     1
  1
\A1;50
  7
STYLE1
 11
0.0000000000000001
 21
1.0
 31
0.0
 73
     1
 44
1.0
1001
ACAD
1000
MTEXTBEGIN
1070
    73
1070
     1
1070
    44
1040
1.0
1070
    74
1070
     0
1000
MTEXTEND
  0
POINT
  5
19682
330
18DE6
100
AcDbEntity
  8
DEFPOINTS
 62
     0
 48
50.0
100
AcDbPoint
 10
8533.186708632122
 20
2600.322253107028
 30
0.0
  0
POINT
  5
19683
330
18DE6
100
AcDbEntity
  8
DEFPOINTS
 62
     0
 48
50.0
100
AcDbPoint
 10
8478.18670863212
 20
2550.322253107028
 30
0.0
  0
POINT
  5
19684
330
18DE6
100
AcDbEntity
  8
DEFPOINTS
 62
     0
 48
50.0
100
AcDbPoint
 10
7909.533999473826
 20
2550.322253107028
 30
0.0
  0
ENDBLK
  5
18DF3
330
18DE6
100
AcDbEntity
  8
0
 48
50.0
100
AcDbBlockEnd
  0
BLOCK
  5
18DFF
330
18DF4
100
AcDbEntity
  8
0
 48
50.0
100
AcDbBlockBegin
  2
*D28
 70
     1
 10
0.0
 20
0.0
 30
0.0
  3
*D28
  1

  0
LINE
  5
19670
330
18DF4
100
AcDbEntity
  8
寸法
 62
     0
 48
50.0
370
    -2
100
AcDbLine
 10
8458.186708632123
 20
2550.322253107028
 30
0.0
 11
7564.547326702764
 21
2550.322253107028
 31
0.0
  0
LINE
  5
19671
330
18DF4
100
AcDbEntity
  8
寸法
 62
     0
 48
50.0
370
    -2
100
AcDbLine
 10
7889.533999473825
 20
2450.322253107028
 30
0.0
 11
7564.547326702764
 21
2450.322253107028
 31
0.0
  0
LINE
  5
19672
330
18DF4
100
AcDbEntity
  8
寸法
 62
     0
 48
50.0
370
    -2
100
AcDbLine
 10
7624.547326702764
 20
2550.322253107028
 30
0.0
 11
7624.547326702764
 21
2450.322253107028
 31
0.0
  0
LINE
  5
19673
330
18DF4
100
AcDbEntity
  8
寸法
 62
     0
 48
50.0
370
    -2
100
AcDbLine
 10
7624.547326702764
 20
2450.322253107028
 30
0.0
 11
7624.547326702764
 21
2078.227764918048
 31
0.0
  0
INSERT
  5
19674
330
18DF4
100
AcDbEntity
  8
寸法
 62
     0
 48
50.0
370
    -2
100
AcDbBlockReference
  2
_DOTSMALL
 10
7624.547326702764
 20
2550.322253107028
 30
0.0
 41
100.0
 42
100.0
 43
100.0
 50
90.0
  0
INSERT
  5
19675
330
18DF4
100
AcDbEntity
  8
寸法
 62
     0
 48
50.0
370
    -2
100
AcDbBlockReference
  2
_DOTSMALL
 10
7624.547326702764
 20
2450.322253107028
 30
0.0
 41
100.0
 42
100.0
 43
100.0
 50
270.0
  0
MTEXT
  5
19676
330
18DF4
100
AcDbEntity
  8
寸法
 62
     7
 48
50.0
100
AcDbMText
 10
7524.547326702763
 20
2214.275009012538
 30
0.0
 40
120.0
 41
0.0
 71
     5
 72
     1
  1
\A1;100
  7
STYLE1
 11
0.0000000000000001
 21
1.0
 31
0.0
 73
     1
 44
1.0
1001
ACAD
1000
MTEXTBEGIN
1070
    73
1070
     1
1070
    44
1040
1.0
1070
    74
1070
     0
1000
MTEXTEND
  0
POINT
  5
19677
330
18DF4
100
AcDbEntity
  8
DEFPOINTS
 62
     0
 48
50.0
100
AcDbPoint
 10
8478.18670863212
 20
2550.322253107028
 30
0.0
  0
POINT
  5
19678
330
18DF4
100
AcDbEntity
  8
DEFPOINTS
 62
     0
 48
50.0
100
AcDbPoint
 10
7909.533999473824
 20
2450.322253107028
 30
0.0
  0
POINT
  5
19679
330
18DF4
100
AcDbEntity
  8
DEFPOINTS
 62
     0
 48
50.0
100
AcDbPoint
 10
7624.547326702764
 20
2450.322253107028
 30
0.0
  0
ENDBLK
  5
18E00
330
18DF4
100
AcDbEntity
  8
0
 48
50.0
100
AcDbBlockEnd
  0
BLOCK
  5
194C0
330
194B6
100
AcDbEntity
  8
0
 48
50.0
100
AcDbBlockBegin
  2
*D29
 70
     1
 10
0.0
 20
0.0
 30
0.0
  3
*D29
  1

  0
LINE
  5
19667
330
194B6
100
AcDbEntity
  8
寸法
 62
     0
 48
50.0
370
    -2
100
AcDbLine
 10
8658.186708632122
 20
2180.322253107028
 30
0.0
 11
8658.186708632122
 21
1854.295269489616
 31
0.0
  0
LINE
  5
19668
330
194B6
100
AcDbEntity
  8
寸法
 62
     0
 48
50.0
370
    -2
100
AcDbLine
 10
8408.186708632122
 20
2180.322253107028
 30
0.0
 11
8408.186708632122
 21
1854.295269489616
 31
0.0
  0
LINE
  5
19669
330
194B6
100
AcDbEntity
  8
寸法
 62
     0
 48
50.0
370
    -2
100
AcDbLine
 10
8658.186708632122
 20
1914.295269489616
 30
0.0
 11
8408.186708632122
 21
1914.295269489616
 31
0.0
  0
INSERT
  5
1966A
330
194B6
100
AcDbEntity
  8
寸法
 62
     0
 48
50.0
370
    -2
100
AcDbBlockReference
  2
_DOTSMALL
 10
8658.186708632122
 20
1914.295269489616
 30
0.0
 41
100.0
 42
100.0
 43
100.0
  0
INSERT
  5
1966B
330
194B6
100
AcDbEntity
  8
寸法
 62
     0
 48
50.0
370
    -2
100
AcDbBlockReference
  2
_DOTSMALL
 10
8408.186708632122
 20
1914.295269489616
 30
0.0
 41
100.0
 42
100.0
 43
100.0
 50
180.0
  0
MTEXT
  5
1966C
330
194B6
100
AcDbEntity
  8
寸法
 62
     7
 48
50.0
100
AcDbMText
 10
8533.186708632122
 20
2014.307080513238
 30
0.0
 40
120.0
 41
0.0
 71
     5
 72
     1
  1
\A1;250
  7
STYLE1
 73
     1
 44
1.0
1001
ACAD
1000
MTEXTBEGIN
1070
    73
1070
     1
1070
    44
1040
1.0
1070
    74
1070
     0
1000
MTEXTEND
  0
POINT
  5
1966D
330
194B6
100
AcDbEntity
  8
DEFPOINTS
 62
     0
 48
50.0
100
AcDbPoint
 10
8658.186708632122
 20
2200.322253107028
 30
0.0
  0
POINT
  5
1966E
330
194B6
100
AcDbEntity
  8
DEFPOINTS
 62
     0
 48
50.0
100
AcDbPoint
 10
8408.186708632122
 20
2200.322253107028
 30
0.0
  0
POINT
  5
1966F
330
194B6
100
AcDbEntity
  8
DEFPOINTS
 62
     0
 48
50.0
100
AcDbPoint
 10
8408.186708632122
 20
1914.295269489616
 30
0.0
  0
ENDBLK
  5
194C1
330
194B6
100
AcDbEntity
  8
0
 48
50.0
100
AcDbBlockEnd
  0
BLOCK
  5
19500
330
194F6
100
AcDbEntity
  8
0
 48
50.0
100
AcDbBlockBegin
  2
*D30
 70
     1
 10
0.0
 20
0.0
 30
0.0
  3
*D30
  1

  0
LINE
  5
1965E
330
194F6
100
AcDbEntity
  8
寸法
 62
     0
 48
50.0
370
    -2
100
AcDbLine
 10
4769.226362534584
 20
2180.322253107028
 30
0.0
 11
4769.226362534584
 21
1854.275316573971
 31
0.0
  0
LINE
  5
1965F
330
194F6
100
AcDbEntity
  8
寸法
 62
     0
 48
50.0
370
    -2
100
AcDbLine
 10
4519.226362534584
 20
2180.322253107028
 30
0.0
 11
4519.226362534584
 21
1854.275316573971
 31
0.0
  0
LINE
  5
19660
330
194F6
100
AcDbEntity
  8
寸法
 62
     0
 48
50.0
370
    -2
100
AcDbLine
 10
4769.226362534584
 20
1914.275316573971
 30
0.0
 11
4519.226362534584
 21
1914.275316573971
 31
0.0
  0
INSERT
  5
19661
330
194F6
100
AcDbEntity
  8
寸法
 62
     0
 48
50.0
370
    -2
100
AcDbBlockReference
  2
_DOTSMALL
 10
4769.226362534584
 20
1914.275316573971
 30
0.0
 41
100.0
 42
100.0
 43
100.0
  0
INSERT
  5
19662
330
194F6
100
AcDbEntity
  8
寸法
 62
     0
 48
50.0
370
    -2
100
AcDbBlockReference
  2
_DOTSMALL
 10
4519.226362534584
 20
1914.275316573971
 30
0.0
 41
100.0
 42
100.0
 43
100.0
 50
180.0
  0
MTEXT
  5
19663
330
194F6
100
AcDbEntity
  8
寸法
 62
     7
 48
50.0
100
AcDbMText
 10
4644.226362534584
 20
2014.287127597594
 30
0.0
 40
120.0
 41
0.0
 71
     5
 72
     1
  1
\A1;250
  7
STYLE1
 73
     1
 44
1.0
1001
ACAD
1000
MTEXTBEGIN
1070
    73
1070
     1
1070
    44
1040
1.0
1070
    74
1070
     0
1000
MTEXTEND
  0
POINT
  5
19664
330
194F6
100
AcDbEntity
  8
DEFPOINTS
 62
     0
 48
50.0
100
AcDbPoint
 10
4769.226362534584
 20
2200.322253107029
 30
0.0
  0
POINT
  5
19665
330
194F6
100
AcDbEntity
  8
DEFPOINTS
 62
     0
 48
50.0
100
AcDbPoint
 10
4519.226362534584
 20
2200.322253107029
 30
0.0
  0
POINT
  5
19666
330
194F6
100
AcDbEntity
  8
DEFPOINTS
 62
     0
 48
50.0
100
AcDbPoint
 10
4519.226362534584
 20
1914.275316573971
 30
0.0
  0
ENDBLK
  5
19501
330
194F6
100
AcDbEntity
  8
0
 48
50.0
100
AcDbBlockEnd
  0
BLOCK
  5
1950C
330
19502
100
AcDbEntity
  8
0
 48
50.0
100
AcDbBlockBegin
  2
*D31
 70
     1
 10
0.0
 20
0.0
 30
0.0
  3
*D31
  1

  0
LINE
  5
19655
330
19502
100
AcDbEntity
  8
寸法
 62
     0
 48
50.0
370
    -2
100
AcDbLine
 10
4499.226362534584
 20
2200.322253107029
 30
0.0
 11
4246.911271569359
 21
2200.322253107029
 31
0.0
  0
LINE
  5
19656
330
19502
100
AcDbEntity
  8
寸法
 62
     0
 48
50.0
370
    -2
100
AcDbLine
 10
4499.226362534584
 20
2450.322253107029
 30
0.0
 11
4246.911271569359
 21
2450.322253107029
 31
0.0
  0
LINE
  5
19657
330
19502
100
AcDbEntity
  8
寸法
 62
     0
 48
50.0
370
    -2
100
AcDbLine
 10
4306.91127156936
 20
2200.322253107029
 30
0.0
 11
4306.91127156936
 21
2450.322253107029
 31
0.0
  0
INSERT
  5
19658
330
19502
100
AcDbEntity
  8
寸法
 62
     0
 48
50.0
370
    -2
100
AcDbBlockReference
  2
_DOTSMALL
 10
4306.91127156936
 20
2200.322253107029
 30
0.0
 41
100.0
 42
100.0
 43
100.0
 50
270.0
  0
INSERT
  5
19659
330
19502
100
AcDbEntity
  8
寸法
 62
     0
 48
50.0
370
    -2
100
AcDbBlockReference
  2
_DOTSMALL
 10
4306.91127156936
 20
2450.322253107029
 30
0.0
 41
100.0
 42
100.0
 43
100.0
 50
90.0
  0
MTEXT
  5
1965A
330
19502
100
AcDbEntity
  8
寸法
 62
     7
 48
50.0
100
AcDbMText
 10
4206.899460545737
 20
2325.322253107029
 30
0.0
 40
120.0
 41
0.0
 71
     5
 72
     1
  1
\A1;250
  7
STYLE1
 11
0.0000000000000001
 21
1.0
 31
0.0
 73
     1
 44
1.0
1001
ACAD
1000
MTEXTBEGIN
1070
    73
1070
     1
1070
    44
1040
1.0
1070
    74
1070
     0
1000
MTEXTEND
  0
POINT
  5
1965B
330
19502
100
AcDbEntity
  8
DEFPOINTS
 62
     0
 48
50.0
100
AcDbPoint
 10
4519.226362534584
 20
2200.322253107029
 30
0.0
  0
POINT
  5
1965C
330
19502
100
AcDbEntity
  8
DEFPOINTS
 62
     0
 48
50.0
100
AcDbPoint
 10
4519.226362534584
 20
2450.322253107029
 30
0.0
  0
POINT
  5
1965D
330
19502
100
AcDbEntity
  8
DEFPOINTS
 62
     0
 48
50.0
100
AcDbPoint
 10
4306.91127156936
 20
2450.322253107029
 30
0.0
  0
ENDBLK
  5
1950D
330
19502
100
AcDbEntity
  8
0
 48
50.0
100
AcDbBlockEnd
  0
BLOCK
  5
19A09
330
199FF
100
AcDbEntity
  8
0
 48
50.0
100
AcDbBlockBegin
  2
*D32
 70
     1
 10
0.0
 20
0.0
 30
0.0
  3
*D32
  1

  0
LINE
  5
19EBC
330
199FF
100
AcDbEntity
  8
寸法
 62
     0
 48
50.0
370
    -2
100
AcDbLine
 10
8600.186708632071
 20
7859.356218076008
 30
0.0
 11
8600.186708632071
 21
7187.746632435265
 31
0.0
  0
LINE
  5
19EBD
330
199FF
100
AcDbEntity
  8
寸法
 62
     0
 48
50.0
370
    -2
100
AcDbLine
 10
9866.186708632071
 20
7859.356218076008
 30
0.0
 11
9866.186708632071
 21
7187.746632435265
 31
0.0
  0
LINE
  5
19EBE
330
199FF
100
AcDbEntity
  8
寸法
 62
     0
 48
50.0
370
    -2
100
AcDbLine
 10
8620.18670863207
 20
7227.746632435264
 30
0.0
 11
9846.186708632071
 21
7227.746632435264
 31
0.0
  0
INSERT
  5
19EBF
330
199FF
100
AcDbEntity
  8
寸法
 62
     0
 48
50.0
370
    -2
100
AcDbBlockReference
  2
_DOT
 10
8600.186708632071
 20
7227.746632435264
 30
0.0
 41
20.0
 42
20.0
 43
20.0
 50
180.0
  0
INSERT
  5
19EC0
330
199FF
100
AcDbEntity
  8
寸法
 62
     0
 48
50.0
370
    -2
100
AcDbBlockReference
  2
_DOT
 10
9866.186708632071
 20
7227.746632435264
 30
0.0
 41
20.0
 42
20.0
 43
20.0
  0
MTEXT
  5
19EC1
330
199FF
100
AcDbEntity
  8
寸法
 62
     7
 48
50.0
100
AcDbMText
 10
9233.517332999996
 20
7419.758443458886
 30
0.0
 40
120.0
 41
0.0
 71
     5
 72
     1
  1
\A1;有効開口部間口\P1266
  7
STYLE1
 73
     1
 44
1.0
1001
ACAD
1000
MTEXTBEGIN
1070
    73
1070
     1
1070
    44
1040
1.0
1070
    74
1070
     0
1000
MTEXTEND
  0
POINT
  5
19EC2
330
199FF
100
AcDbEntity
  8
DEFPOINTS
 62
     0
 48
50.0
100
AcDbPoint
 10
8600.186708632071
 20
7879.356218076009
 30
0.0
  0
POINT
  5
19EC3
330
199FF
100
AcDbEntity
  8
DEFPOINTS
 62
     0
 48
50.0
100
AcDbPoint
 10
9866.186708632071
 20
7879.356218076009
 30
0.0
  0
POINT
  5
19EC4
330
199FF
100
AcDbEntity
  8
DEFPOINTS
 62
     0
 48
50.0
100
AcDbPoint
 10
9866.186708632071
 20
7227.746632435264
 30
0.0
  0
ENDBLK
  5
19A0A
330
199FF
100
AcDbEntity
  8
0
 48
50.0
100
AcDbBlockEnd
  0
BLOCK
  5
1A20A
330
1A200
100
AcDbEntity
  8
0
 48
50.0
100
AcDbBlockBegin
  2
*D33
 70
     1
 10
0.0
 20
0.0
 30
0.0
  3
*D33
  1

  0
LINE
  5
1A343
330
1A200
100
AcDbEntity
  8
寸法
 62
     0
 48
50.0
370
    -2
100
AcDbLine
 10
8533.186708632122
 20
7936.356218076042
 30
0.0
 11
8533.186708632122
 21
6632.84498830296
 31
0.0
  0
LINE
  5
1A344
330
1A200
100
AcDbEntity
  8
寸法
 62
     0
 48
50.0
370
    -2
100
AcDbLine
 10
10743.1867086321
 20
7936.356218076169
 30
0.0
 11
10743.1867086321
 21
6632.84498830296
 31
0.0
  0
LINE
  5
1A345
330
1A200
100
AcDbEntity
  8
寸法
 62
     0
 48
50.0
370
    -2
100
AcDbLine
 10
8533.186708632122
 20
6692.844988302962
 30
0.0
 11
10743.1867086321
 21
6692.844988302962
 31
0.0
  0
INSERT
  5
1A346
330
1A200
100
AcDbEntity
  8
寸法
 62
     0
 48
50.0
370
    -2
100
AcDbBlockReference
  2
_DOTSMALL
 10
8533.186708632122
 20
6692.844988302962
 30
0.0
 41
100.0
 42
100.0
 43
100.0
 50
180.0
  0
INSERT
  5
1A347
330
1A200
100
AcDbEntity
  8
寸法
 62
     0
 48
50.0
370
    -2
100
AcDbBlockReference
  2
_DOTSMALL
 10
10743.1867086321
 20
6692.844988302962
 30
0.0
 41
100.0
 42
100.0
 43
100.0
  0
MTEXT
  5
1A348
330
1A200
100
AcDbEntity
  8
寸法
 62
     7
 48
50.0
100
AcDbMText
 10
9660.319465379416
 20
6792.856799326583
 30
0.0
 40
120.0
 41
0.0
 71
     5
 72
     1
  1
\A1;2210
  7
STYLE1
 73
     1
 44
1.0
1001
ACAD
1000
MTEXTBEGIN
1070
    73
1070
     1
1070
    44
1040
1.0
1070
    74
1070
     0
1000
MTEXTEND
  0
POINT
  5
1A349
330
1A200
100
AcDbEntity
  8
DEFPOINTS
 62
     0
 48
50.0
100
AcDbPoint
 10
8533.186708632122
 20
7956.356218076042
 30
0.0
  0
POINT
  5
1A34A
330
1A200
100
AcDbEntity
  8
DEFPOINTS
 62
     0
 48
50.0
100
AcDbPoint
 10
10743.1867086321
 20
7956.356218076169
 30
0.0
  0
POINT
  5
1A34B
330
1A200
100
AcDbEntity
  8
DEFPOINTS
 62
     0
 48
50.0
100
AcDbPoint
 10
10743.1867086321
 20
6692.844988302962
 30
0.0
  0
ENDBLK
  5
1A20B
330
1A200
100
AcDbEntity
  8
0
 48
50.0
100
AcDbBlockEnd
  0
BLOCK
  5
1A218
330
1A20C
100
AcDbEntity
  8
0
 48
50.0
100
AcDbBlockBegin
  2
*D34
 70
     1
 10
0.0
 20
0.0
 30
0.0
  3
*D34
  1

  0
LINE
  5
1A34C
330
1A20C
100
AcDbEntity
  8
寸法
 62
     0
 48
50.0
370
    -2
100
AcDbLine
 10
8513.186708632122
 20
7956.356218076108
 30
0.0
 11
8198.575463005406
 21
7956.356218076108
 31
0.0
  0
LINE
  5
1A34D
330
1A20C
100
AcDbEntity
  8
寸法
 62
     0
 48
50.0
370
    -2
100
AcDbLine
 10
8541.186708632103
 20
7881.356218076108
 30
0.0
 11
8198.575463005406
 21
7881.356218076108
 31
0.0
  0
LINE
  5
1A34E
330
1A20C
100
AcDbEntity
  8
寸法
 62
     0
 48
50.0
370
    -2
100
AcDbLine
 10
8238.575463005405
 20
7976.356218076107
 30
0.0
 11
8238.575463005405
 21
7996.356218076107
 31
0.0
  0
LINE
  5
1A34F
330
1A20C
100
AcDbEntity
  8
寸法
 62
     0
 48
50.0
370
    -2
100
AcDbLine
 10
8238.575463005405
 20
7861.356218076108
 30
0.0
 11
8238.575463005405
 21
7640.38565532763
 31
0.0
  0
LINE
  5
1A350
330
1A20C
100
AcDbEntity
  8
寸法
 62
     0
 48
50.0
370
    -2
100
AcDbLine
 10
8238.575463005405
 20
7956.356218076108
 30
0.0
 11
8238.575463005405
 21
7881.356218076108
 31
0.0
  0
INSERT
  5
1A351
330
1A20C
100
AcDbEntity
  8
寸法
 62
     0
 48
50.0
370
    -2
100
AcDbBlockReference
  2
_DOT
 10
8238.575463005405
 20
7956.356218076108
 30
0.0
 41
20.0
 42
20.0
 43
20.0
 50
270.0
  0
INSERT
  5
1A352
330
1A20C
100
AcDbEntity
  8
寸法
 62
     0
 48
50.0
370
    -2
100
AcDbBlockReference
  2
_DOT
 10
8238.575463005405
 20
7881.356218076108
 30
0.0
 41
20.0
 42
20.0
 43
20.0
 50
90.0
  0
MTEXT
  5
1A353
330
1A20C
100
AcDbEntity
  8
寸法
 62
     7
 48
50.0
100
AcDbMText
 10
8146.575463005405
 20
7740.870936701869
 30
0.0
 40
120.0
 41
0.0
 71
     5
 72
     1
  1
\A1;75
  7
STYLE1
 11
0.0000000000000001
 21
1.0
 31
0.0
 73
     1
 44
1.0
1001
ACAD
1000
MTEXTBEGIN
1070
    73
1070
     1
1070
    44
1040
1.0
1070
    74
1070
     0
1000
MTEXTEND
  0
POINT
  5
1A354
330
1A20C
100
AcDbEntity
  8
DEFPOINTS
 62
     0
 48
50.0
100
AcDbPoint
 10
8533.186708632122
 20
7956.356218076108
 30
0.0
  0
POINT
  5
1A355
330
1A20C
100
AcDbEntity
  8
DEFPOINTS
 62
     0
 48
50.0
100
AcDbPoint
 10
8561.186708632105
 20
7881.356218076108
 30
0.0
  0
POINT
  5
1A356
330
1A20C
100
AcDbEntity
  8
DEFPOINTS
 62
     0
 48
50.0
100
AcDbPoint
 10
8238.575463005405
 20
7881.356218076108
 30
0.0
  0
ENDBLK
  5
1A219
330
1A20C
100
AcDbEntity
  8
0
 48
50.0
100
AcDbBlockEnd
  0
BLOCK
  5
1A224
330
1A21A
100
AcDbEntity
  8
0
 48
50.0
100
AcDbBlockBegin
  2
*D35
 70
     1
 10
0.0
 20
0.0
 30
0.0
  3
*D35
  1

  0
LINE
  5
1A33A
330
1A21A
100
AcDbEntity
  8
寸法
 62
     0
 48
50.0
370
    -2
100
AcDbLine
 10
8561.186708632105
 20
7859.356218076053
 30
0.0
 11
8561.186708632105
 21
6899.226502648286
 31
0.0
  0
LINE
  5
1A33B
330
1A21A
100
AcDbEntity
  8
寸法
 62
     0
 48
50.0
370
    -2
100
AcDbLine
 10
10715.1867086321
 20
7859.356218076053
 30
0.0
 11
10715.1867086321
 21
6899.226502648286
 31
0.0
  0
LINE
  5
1A33C
330
1A21A
100
AcDbEntity
  8
寸法
 62
     0
 48
50.0
370
    -2
100
AcDbLine
 10
8561.186708632105
 20
6959.226502648286
 30
0.0
 11
10715.1867086321
 21
6959.226502648286
 31
0.0
  0
INSERT
  5
1A33D
330
1A21A
100
AcDbEntity
  8
寸法
 62
     0
 48
50.0
370
    -2
100
AcDbBlockReference
  2
_DOTSMALL
 10
8561.186708632105
 20
6959.226502648286
 30
0.0
 41
100.0
 42
100.0
 43
100.0
 50
180.0
  0
INSERT
  5
1A33E
330
1A21A
100
AcDbEntity
  8
寸法
 62
     0
 48
50.0
370
    -2
100
AcDbBlockReference
  2
_DOTSMALL
 10
10715.1867086321
 20
6959.226502648286
 30
0.0
 41
100.0
 42
100.0
 43
100.0
  0
MTEXT
  5
1A33F
330
1A21A
100
AcDbEntity
  8
寸法
 62
     7
 48
50.0
100
AcDbMText
 10
9660.319465379416
 20
7059.238313671908
 30
0.0
 40
120.0
 41
0.0
 71
     5
 72
     1
  1
\A1;2154
  7
STYLE1
 73
     1
 44
1.0
1001
ACAD
1000
MTEXTBEGIN
1070
    73
1070
     1
1070
    44
1040
1.0
1070
    74
1070
     0
1000
MTEXTEND
  0
POINT
  5
1A340
330
1A21A
100
AcDbEntity
  8
DEFPOINTS
 62
     0
 48
50.0
100
AcDbPoint
 10
8561.186708632105
 20
7879.356218076053
 30
0.0
  0
POINT
  5
1A341
330
1A21A
100
AcDbEntity
  8
DEFPOINTS
 62
     0
 48
50.0
100
AcDbPoint
 10
10715.1867086321
 20
7879.356218076053
 30
0.0
  0
POINT
  5
1A342
330
1A21A
100
AcDbEntity
  8
DEFPOINTS
 62
     0
 48
50.0
100
AcDbPoint
 10
10715.1867086321
 20
6959.226502648286
 30
0.0
  0
ENDBLK
  5
1A225
330
1A21A
100
AcDbEntity
  8
0
 48
50.0
100
AcDbBlockEnd
  0
ENDSEC
  0
SECTION
  2
ENTITIES
  0
LINE
  5
10B57
330
747D
100
AcDbEntity
  8
補助
  6
PHANTOM
 62
   230
 48
50.0
100
AcDbLine
 10
139.9999999999995
 20
11409.6
 30
0.0
 11
16307.2
 21
11409.6
 31
0.0
  0
LINE
  5
10B59
330
747D
100
AcDbEntity
  8
仕様書枠
  6
Continuous
 48
50.0
100
AcDbLine
 10
13107.2
 20
1200.0
 30
0.0
 11
13107.2
 21
-0.0000000000000729
 31
0.0
  0
LINE
  5
10B5C
330
747D
100
AcDbEntity
  8
仕様書枠
 48
50.0
100
AcDbLine
 10
16307.2
 20
1200.0
 30
0.0
 11
16307.2
 21
-0.0000000000000909
 31
0.0
  0
LINE
  5
10B5D
330
747D
100
AcDbEntity
  8
仕様書枠
 48
50.0
100
AcDbLine
 10
140.0
 20
0.0
 30
0.0
 11
16307.2
 21
-0.0000000000000909
 31
0.0
  0
LINE
  5
10B5E
330
747D
100
AcDbEntity
  8
補助
  6
PHANTOM
 62
   230
 48
50.0
100
AcDbLine
 10
16307.2
 20
11409.6
 30
0.0
 11
16307.2
 21
1200.0
 31
0.0
  0
LINE
  5
10B6C
330
747D
100
AcDbEntity
  8
仕様書枠
 48
50.0
100
AcDbLine
 10
13107.2
 20
1200.0
 30
0.0
 11
16307.2
 21
1200.0
 31
0.0
  0
LINE
  5
10B6D
330
747D
100
AcDbEntity
  8
補助
  6
PHANTOM
 62
   230
 48
50.0
100
AcDbLine
 10
13107.2
 20
11409.6
 30
0.0
 11
13107.2
 21
4800.0
 31
0.0
  0
LINE
  5
10B6F
330
747D
100
AcDbEntity
  8
補助
  6
PHANTOM
 62
   230
 48
50.0
100
AcDbLine
 10
13107.2
 20
4800.0
 30
0.0
 11
16307.2
 21
4800.0
 31
0.0
  0
LINE
  5
10B72
330
747D
100
AcDbEntity
  8
文字
 62
     7
 48
50.0
100
AcDbLine
 10
13187.2
 20
400.0
 30
0.0
 11
16227.2
 21
400.0
 31
0.0
  0
TEXT
  5
10B73
330
747D
100
AcDbEntity
  8
文字
 62
     7
 48
50.0
100
AcDbText
 10
13162.9790565769
 20
895.0906074299405
 30
0.0
 40
200.0
  1
外 形 図
  7
STYLE2
100
AcDbText
  0
TEXT
  5
10B74
330
747D
100
AcDbEntity
  8
文字
 62
     7
 48
50.0
100
AcDbText
 10
13201.43669998441
 20
477.2740661031255
 30
0.0
 40
160.0
  1
機種名
  7
STYLE2
100
AcDbText
  0
TEXT
  5
10B76
330
747D
100
AcDbEntity
  8
文字
 62
     7
 48
50.0
100
AcDbText
 10
13209.4053442172
 20
76.09434707649343
 30
0.0
 40
100.0
  1
○床面積 ： 4.12㎡(1.25坪) 　
  7
STYLE2
100
AcDbText
  0
TEXT
  5
10B79
330
747D
100
AcDbEntity
  8
文字
 62
     7
 48
50.0
100
AcDbText
 10
14524.131837222
 20
1031.557706291228
 30
0.0
 40
100.0
  1
NO.15      <縮尺> S=1/40
  7
STYLE2
100
AcDbText
  0
LINE
  5
10B7B
330
747D
100
AcDbEntity
  8
仕様書枠
 48
50.0
100
AcDbLine
 10
13107.2
 20
800.0
 30
0.0
 11
14251.2
 21
800.0
 31
0.0
  0
LINE
  5
10B88
330
747D
100
AcDbEntity
  8
仕様書枠
  6
Continuous
 48
50.0
100
AcDbLine
 10
14251.2
 20
1200.0
 30
0.0
 11
14251.2
 21
800.0
 31
0.0
  0
TEXT
  5
14D2F
330
747D
100
AcDbEntity
  8
文字
 62
     7
 48
50.0
100
AcDbText
 10
14644.07818602837
 20
876.4448062548634
 30
0.0
 40
100.0
  1
～一般型・多雪地型～
  7
STYLE2
100
AcDbText
  0
LINE
  5
189DE
330
747D
100
AcDbEntity
  8
部品1
 48
50.0
100
AcDbLine
 10
10686.68670863211
 20
8431.35621807618
 30
0.0
 11
8589.686708632113
 21
8431.356218076267
 31
0.0
  0
LINE
  5
189DF
330
747D
100
AcDbEntity
  8
部品1
100
AcDbLine
 10
8561.186708632106
 20
8431.356218076052
 30
0.0
 11
8533.186708632106
 21
8431.356218076052
 31
0.0
  0
LINE
  5
189E0
330
747D
100
AcDbEntity
  8
部品1
100
AcDbLine
 10
10715.18670863213
 20
8431.35621807618
 30
0.0
 11
10743.18670863213
 21
8431.35621807618
 31
0.0
  0
TEXT
  5
189E1
330
747D
100
AcDbEntity
  8
部品1
100
AcDbText
 10
3602.227082493388
 20
2486.42915671293
 30
0.0
 40
125.0
  1
▽G.L
  7
STYLE2
100
AcDbText
  0
TEXT
  5
189E2
330
747D
100
AcDbEntity
  8
部品1
100
AcDbText
 10
5219.437130843973
 20
1568.390460911095
 30
0.0
 40
135.0
  1
側面図
  7
STYLE2
100
AcDbText
  0
LINE
  5
189E3
330
747D
100
AcDbEntity
  8
部品1
100
AcDbLine
 10
5129.991029420366
 20
1761.283990129619
 30
0.0
 11
5129.991029420366
 21
1521.391668584087
 31
0.0
  0
LINE
  5
189E4
330
747D
100
AcDbEntity
  8
部品1
100
AcDbLine
 10
5129.991029420366
 20
1521.391668584087
 30
0.0
 11
5893.461695648802
 21
1521.391668584087
 31
0.0
  0
LINE
  5
189E5
330
747D
100
AcDbEntity
  8
部品1
100
AcDbLine
 10
5893.461695648802
 20
1521.391668584087
 30
0.0
 11
5893.461695648802
 21
1761.283990129619
 31
0.0
  0
LINE
  5
189E6
330
747D
100
AcDbEntity
  8
部品1
100
AcDbLine
 10
5893.461695648802
 20
1761.283990129619
 30
0.0
 11
5129.991029420366
 21
1761.283990129619
 31
0.0
  0
LINE
  5
189E7
330
747D
100
AcDbEntity
  8
部品1
100
AcDbLine
 10
4616.726362534584
 20
4690.322253107027
 30
0.0
 11
6406.726362534584
 21
4690.322253107027
 31
0.0
  0
LINE
  5
189E8
330
747D
100
AcDbEntity
  8
部品1
100
AcDbLine
 10
4616.726362534584
 20
2600.322253107029
 30
0.0
 11
6406.726362534588
 21
2600.322253107029
 31
0.0
  0
LINE
  5
189E9
330
747D
100
AcDbEntity
  8
部品1
100
AcDbLine
 10
4616.726362534584
 20
2550.322253107029
 30
0.0
 11
4624.226362534584
 21
2550.322253107029
 31
0.0
  0
LINE
  5
189EA
330
747D
100
AcDbEntity
  8
部品1
100
AcDbLine
 10
4671.726362534584
 20
4690.322253107027
 30
0.0
 11
4671.726362534584
 21
2600.322253107029
 31
0.0
  0
LINE
  5
189EB
330
747D
100
AcDbEntity
  8
部品1
100
AcDbLine
 10
4616.726362534584
 20
4784.322253107031
 30
0.0
 11
4616.726362534584
 21
2450.322253107029
 31
0.0
  0
LINE
  5
189EC
330
747D
100
AcDbEntity
  8
部品1
100
AcDbLine
 10
5091.726362534584
 20
4690.322253107027
 30
0.0
 11
5091.726362534584
 21
2600.322253107029
 31
0.0
  0
LINE
  5
189ED
330
747D
100
AcDbEntity
  8
部品1
100
AcDbLine
 10
6406.726362534584
 20
4784.322253107035
 30
0.0
 11
6406.726362534588
 21
2450.322253107029
 31
0.0
  0
LINE
  5
189EE
330
747D
100
AcDbEntity
  8
部品1
100
AcDbLine
 10
6351.726362534588
 20
4690.322253107027
 30
0.0
 11
6351.726362534588
 21
2600.322253107029
 31
0.0
  0
LINE
  5
189EF
330
747D
100
AcDbEntity
  8
破線
  6
HIDDEN
 48
5.0
100
AcDbLine
 10
6414.226362534584
 20
2295.322253107029
 30
0.0
 11
6344.226362534584
 21
2295.322253107029
 31
0.0
  0
LINE
  5
189F0
330
747D
100
AcDbEntity
  8
破線
  6
HIDDEN
 48
5.0
100
AcDbLine
 10
6359.226362534585
 20
2445.322253107029
 30
0.0
 11
6344.226362534584
 21
2297.622253107028
 31
0.0
  0
LINE
  5
189F1
330
747D
100
AcDbEntity
  8
破線
  6
HIDDEN
 48
5.0
100
AcDbLine
 10
6344.226362534584
 20
2297.622253107028
 30
0.0
 11
6344.226362534584
 21
2295.322253107029
 31
0.0
  0
LINE
  5
189F2
330
747D
100
AcDbEntity
  8
破線
  6
HIDDEN
 48
5.0
100
AcDbLine
 10
6399.226362534584
 20
2445.322253107029
 30
0.0
 11
6414.226362534584
 21
2297.622253107028
 31
0.0
  0
LINE
  5
189F3
330
747D
100
AcDbEntity
  8
破線
  6
HIDDEN
 48
5.0
100
AcDbLine
 10
6414.226362534584
 20
2297.622253107028
 30
0.0
 11
6414.226362534584
 21
2295.322253107029
 31
0.0
  0
LINE
  5
189F4
330
747D
100
AcDbEntity
  8
破線
  6
HIDDEN
 48
5.0
100
AcDbLine
 10
4609.226362534584
 20
2295.322253107029
 30
0.0
 11
4679.226362534584
 21
2295.322253107029
 31
0.0
  0
LINE
  5
189F5
330
747D
100
AcDbEntity
  8
破線
  6
HIDDEN
 48
5.0
100
AcDbLine
 10
4609.226362534584
 20
2297.622253107028
 30
0.0
 11
4609.226362534584
 21
2295.322253107029
 31
0.0
  0
LINE
  5
189F6
330
747D
100
AcDbEntity
  8
破線
  6
HIDDEN
 48
5.0
100
AcDbLine
 10
4679.226362534584
 20
2297.622253107028
 30
0.0
 11
4679.226362534584
 21
2295.322253107029
 31
0.0
  0
LINE
  5
189F7
330
747D
100
AcDbEntity
  8
破線
  6
HIDDEN
 48
5.0
100
AcDbLine
 10
4624.226362534584
 20
2445.322253107029
 30
0.0
 11
4609.226362534584
 21
2297.622253107028
 31
0.0
  0
LINE
  5
189F8
330
747D
100
AcDbEntity
  8
破線
  6
HIDDEN
 48
5.0
100
AcDbLine
 10
4664.226362534583
 20
2445.322253107029
 30
0.0
 11
4679.226362534584
 21
2297.622253107028
 31
0.0
  0
LINE
  5
189F9
330
747D
100
AcDbEntity
  8
部品1
 48
50.0
100
AcDbLine
 10
4624.226362534584
 20
2590.322253107029
 30
0.0
 11
4624.226362534584
 21
2450.322253107029
 31
0.0
  0
LINE
  5
189FA
330
747D
100
AcDbEntity
  8
部品1
 48
50.0
100
AcDbLine
 10
4664.226362534583
 20
2590.322253107029
 30
0.0
 11
4664.226362534583
 21
2450.322253107029
 31
0.0
  0
LINE
  5
189FB
330
747D
100
AcDbEntity
  8
部品1
100
AcDbLine
 10
4629.226362534583
 20
2595.322253107029
 30
0.0
 11
4659.226362534584
 21
2595.322253107029
 31
0.0
  0
ARC
  5
189FC
330
747D
100
AcDbEntity
  8
部品1
 48
50.0
100
AcDbCircle
 10
4629.226362534583
 20
2590.322253107029
 30
0.0
 40
5.0
100
AcDbArc
 50
90.0
 51
180.0
  0
ARC
  5
189FD
330
747D
100
AcDbEntity
  8
部品1
 48
50.0
100
AcDbCircle
 10
4659.226362534584
 20
2590.322253107029
 30
0.0
 40
5.0
100
AcDbArc
 50
0.0
 51
90.0
  0
LINE
  5
189FE
330
747D
100
AcDbEntity
  8
部品1
 48
50.0
100
AcDbLine
 10
6359.226362534585
 20
2590.322253107029
 30
0.0
 11
6359.226362534585
 21
2450.322253107029
 31
0.0
  0
LINE
  5
189FF
330
747D
100
AcDbEntity
  8
部品1
 48
50.0
100
AcDbLine
 10
6399.226362534584
 20
2590.322253107029
 30
0.0
 11
6399.226362534584
 21
2450.322253107029
 31
0.0
  0
LINE
  5
18A00
330
747D
100
AcDbEntity
  8
部品1
100
AcDbLine
 10
6394.226362534585
 20
2595.322253107029
 30
0.0
 11
6364.226362534584
 21
2595.322253107029
 31
0.0
  0
ARC
  5
18A01
330
747D
100
AcDbEntity
  8
部品1
 48
50.0
100
AcDbCircle
 10
6364.226362534584
 20
2590.322253107029
 30
0.0
 40
5.0
100
AcDbArc
 50
90.0
 51
180.0
  0
ARC
  5
18A02
330
747D
100
AcDbEntity
  8
部品1
 48
50.0
100
AcDbCircle
 10
6394.226362534585
 20
2590.322253107029
 30
0.0
 40
5.0
100
AcDbArc
 50
0.0
 51
90.0
  0
LINE
  5
18A03
330
747D
100
AcDbEntity
  8
破線
  6
HIDDEN
 48
5.0
100
AcDbLine
 10
6359.226362534585
 20
2450.322253107029
 30
0.0
 11
6359.226362534585
 21
2445.322253107029
 31
0.0
  0
LINE
  5
18A04
330
747D
100
AcDbEntity
  8
破線
  6
HIDDEN
 48
5.0
100
AcDbLine
 10
6399.226362534584
 20
2450.322253107029
 30
0.0
 11
6399.226362534584
 21
2445.322253107029
 31
0.0
  0
LINE
  5
18A05
330
747D
100
AcDbEntity
  8
破線
  6
HIDDEN
 48
5.0
100
AcDbLine
 10
4624.226362534591
 20
2450.322253107029
 30
0.0
 11
4624.226362534591
 21
2445.322253107029
 31
0.0
  0
LINE
  5
18A06
330
747D
100
AcDbEntity
  8
破線
  6
HIDDEN
 48
5.0
100
AcDbLine
 10
4664.226362534583
 20
2450.322253107029
 30
0.0
 11
4664.226362534583
 21
2445.322253107029
 31
0.0
  0
LINE
  5
18A07
330
747D
100
AcDbEntity
  8
部品1
100
AcDbLine
 10
6399.226362534584
 20
2550.322253107029
 30
0.0
 11
6406.726362534588
 21
2550.322253107029
 31
0.0
  0
LINE
  5
18A08
330
747D
100
AcDbEntity
  8
部品1
100
AcDbLine
 10
4664.226362534583
 20
2550.322253107029
 30
0.0
 11
6359.226362534585
 21
2550.322253107029
 31
0.0
  0
LINE
  5
18A09
330
747D
100
AcDbEntity
  8
細線
 48
50.0
100
AcDbLine
 10
5169.226362534584
 20
4690.322253107027
 30
0.0
 11
5169.226362534584
 21
2600.322253107029
 31
0.0
  0
LINE
  5
18A0A
330
747D
100
AcDbEntity
  8
細線
 48
50.0
100
AcDbLine
 10
5154.226362534584
 20
4690.322253107027
 30
0.0
 11
5154.226362534584
 21
2600.322253107029
 31
0.0
  0
LINE
  5
18A0B
330
747D
100
AcDbEntity
  8
細線
 48
50.0
100
AcDbLine
 10
5294.226362534584
 20
4690.322253107027
 30
0.0
 11
5294.226362534584
 21
2600.322253107029
 31
0.0
  0
LINE
  5
18A0C
330
747D
100
AcDbEntity
  8
細線
 48
50.0
100
AcDbLine
 10
5309.226362534584
 20
4690.322253107027
 30
0.0
 11
5309.226362534584
 21
2600.322253107029
 31
0.0
  0
LINE
  5
18A0D
330
747D
100
AcDbEntity
  8
細線
 48
50.0
100
AcDbLine
 10
5449.226362534584
 20
4690.322253107027
 30
0.0
 11
5449.226362534584
 21
2600.322253107029
 31
0.0
  0
LINE
  5
18A0E
330
747D
100
AcDbEntity
  8
細線
 48
50.0
100
AcDbLine
 10
5434.226362534584
 20
4690.322253107027
 30
0.0
 11
5434.226362534584
 21
2600.322253107029
 31
0.0
  0
LINE
  5
18A0F
330
747D
100
AcDbEntity
  8
細線
 48
50.0
100
AcDbLine
 10
5014.226362534584
 20
4690.322253107027
 30
0.0
 11
5014.226362534584
 21
2600.322253107029
 31
0.0
  0
LINE
  5
18A10
330
747D
100
AcDbEntity
  8
細線
 48
50.0
100
AcDbLine
 10
5029.226362534584
 20
4690.322253107027
 30
0.0
 11
5029.226362534584
 21
2600.322253107029
 31
0.0
  0
LINE
  5
18A11
330
747D
100
AcDbEntity
  8
細線
 48
50.0
100
AcDbLine
 10
4889.226362534584
 20
4690.322253107027
 30
0.0
 11
4889.226362534584
 21
2600.322253107029
 31
0.0
  0
LINE
  5
18A12
330
747D
100
AcDbEntity
  8
細線
 48
50.0
100
AcDbLine
 10
4874.226362534584
 20
4690.322253107027
 30
0.0
 11
4874.226362534584
 21
2600.322253107029
 31
0.0
  0
LINE
  5
18A13
330
747D
100
AcDbEntity
  8
細線
 48
50.0
100
AcDbLine
 10
4734.226362534584
 20
4690.322253107027
 30
0.0
 11
4734.226362534584
 21
2600.322253107029
 31
0.0
  0
LINE
  5
18A14
330
747D
100
AcDbEntity
  8
細線
 48
50.0
100
AcDbLine
 10
4749.226362534584
 20
4690.322253107027
 30
0.0
 11
4749.226362534584
 21
2600.322253107029
 31
0.0
  0
LINE
  5
18A15
330
747D
100
AcDbEntity
  8
部品1
100
AcDbLine
 10
5511.726362534584
 20
4690.322253107027
 30
0.0
 11
5511.726362534584
 21
2600.322253107029
 31
0.0
  0
LINE
  5
18A16
330
747D
100
AcDbEntity
  8
細線
 48
50.0
100
AcDbLine
 10
5854.226362534587
 20
4690.322253107027
 30
0.0
 11
5854.226362534587
 21
2600.322253107029
 31
0.0
  0
LINE
  5
18A17
330
747D
100
AcDbEntity
  8
細線
 48
50.0
100
AcDbLine
 10
5869.226362534588
 20
4690.322253107027
 30
0.0
 11
5869.226362534588
 21
2600.322253107029
 31
0.0
  0
LINE
  5
18A18
330
747D
100
AcDbEntity
  8
細線
 48
50.0
100
AcDbLine
 10
5729.226362534587
 20
4690.322253107027
 30
0.0
 11
5729.226362534587
 21
2600.322253107029
 31
0.0
  0
LINE
  5
18A19
330
747D
100
AcDbEntity
  8
細線
 48
50.0
100
AcDbLine
 10
5714.226362534588
 20
4690.322253107027
 30
0.0
 11
5714.226362534588
 21
2600.322253107029
 31
0.0
  0
LINE
  5
18A1A
330
747D
100
AcDbEntity
  8
細線
 48
50.0
100
AcDbLine
 10
5574.226362534588
 20
4690.322253107027
 30
0.0
 11
5574.226362534588
 21
2600.322253107029
 31
0.0
  0
LINE
  5
18A1B
330
747D
100
AcDbEntity
  8
細線
 48
50.0
100
AcDbLine
 10
5589.226362534588
 20
4690.322253107027
 30
0.0
 11
5589.226362534588
 21
2600.322253107029
 31
0.0
  0
LINE
  5
18A1C
330
747D
100
AcDbEntity
  8
部品1
100
AcDbLine
 10
5931.726362534584
 20
4690.322253107027
 30
0.0
 11
5931.726362534584
 21
2600.322253107029
 31
0.0
  0
LINE
  5
18A1D
330
747D
100
AcDbEntity
  8
細線
 48
50.0
100
AcDbLine
 10
6009.226362534591
 20
4690.322253107027
 30
0.0
 11
6009.226362534591
 21
2600.322253107029
 31
0.0
  0
LINE
  5
18A1E
330
747D
100
AcDbEntity
  8
細線
 48
50.0
100
AcDbLine
 10
5994.226362534591
 20
4690.322253107027
 30
0.0
 11
5994.226362534591
 21
2600.322253107029
 31
0.0
  0
LINE
  5
18A1F
330
747D
100
AcDbEntity
  8
細線
 48
50.0
100
AcDbLine
 10
6134.226362534591
 20
4690.322253107027
 30
0.0
 11
6134.226362534591
 21
2600.322253107029
 31
0.0
  0
LINE
  5
18A20
330
747D
100
AcDbEntity
  8
細線
 48
50.0
100
AcDbLine
 10
6149.226362534591
 20
4690.322253107027
 30
0.0
 11
6149.226362534591
 21
2600.322253107029
 31
0.0
  0
LINE
  5
18A21
330
747D
100
AcDbEntity
  8
細線
 48
50.0
100
AcDbLine
 10
6289.226362534591
 20
4690.322253107027
 30
0.0
 11
6289.226362534591
 21
2600.322253107029
 31
0.0
  0
LINE
  5
18A22
330
747D
100
AcDbEntity
  8
細線
 48
50.0
100
AcDbLine
 10
6274.226362534591
 20
4690.322253107027
 30
0.0
 11
6274.226362534591
 21
2600.322253107029
 31
0.0
  0
LINE
  5
18A2B
330
747D
100
AcDbEntity
  8
部品1
 48
50.0
100
AcDbLine
 10
6406.726362534588
 20
4685.322253107029
 30
0.0
 11
6483.726362534588
 21
4675.322253107029
 31
0.0
  0
LINE
  5
18A2C
330
747D
100
AcDbEntity
  8
部品1
 48
50.0
100
AcDbLine
 10
6483.726362534588
 20
4675.322253107029
 30
0.0
 11
6483.726362534588
 21
2450.322253107029
 31
0.0
  0
LINE
  5
18A2D
330
747D
100
AcDbEntity
  8
部品1
 48
50.0
100
AcDbLine
 10
6483.726362534588
 20
2550.322253107029
 30
0.0
 11
6399.226362534587
 21
2550.322253107029
 31
0.0
  0
LINE
  5
18A2E
330
747D
100
AcDbEntity
  8
部品1
100
AcDbLine
 10
6206.726362534585
 20
2550.322253107029
 30
0.0
 11
6206.726362534585
 21
2450.322253107029
 31
0.0
  0
LINE
  5
18A2F
330
747D
100
AcDbEntity
  8
部品1
 48
50.0
100
AcDbLine
 10
5611.726362534584
 20
2550.322253107029
 30
0.0
 11
5611.726362534584
 21
2450.322253107029
 31
0.0
  0
LINE
  5
18A30
330
747D
100
AcDbEntity
  8
部品1
 48
50.0
100
AcDbLine
 10
5411.726362534584
 20
2550.322253107029
 30
0.0
 11
5411.726362534584
 21
2450.322253107029
 31
0.0
  0
LINE
  5
18A31
330
747D
100
AcDbEntity
  8
部品1
100
AcDbLine
 10
4816.726362534584
 20
2550.322253107029
 30
0.0
 11
4816.726362534584
 21
2450.322253107029
 31
0.0
  0
DIMENSION
  5
18A32
330
747D
100
AcDbEntity
  8
寸法
 48
50.0
100
AcDbDimension
  2
*D4
 10
4616.726362534591
 20
5329.942512534301
 30
0.0
 11
5511.726362534584
 21
5329.942512534301
 31
0.0
 70
   160
  1
柱外寸法<>
 71
     5
 42
1789.999999999989
  3
INABA_S40G
100
AcDbAlignedDimension
 13
6406.72636253458
 23
4925.322253107033
 33
0.0
 14
4616.726362534591
 24
4925.322253107034
 34
0.0
100
AcDbRotatedDimension
  0
DIMENSION
  5
18A33
330
747D
100
AcDbEntity
  8
寸法
 48
50.0
100
AcDbDimension
  2
*D5
 10
6456.72636253458
 20
5539.536386955751
 30
0.0
 11
5511.726362534584
 21
5539.536386955751
 31
0.0
 70
   160
 71
     5
 42
1889.999999999989
  3
INABA_S40G
100
AcDbAlignedDimension
 13
4566.726362534591
 23
4925.322253107033
 33
0.0
 14
6456.72636253458
 24
4925.32225310703
 34
0.0
100
AcDbRotatedDimension
  0
DIMENSION
  5
18A34
330
747D
100
AcDbEntity
  8
寸法
 48
50.0
100
AcDbDimension
  2
*D6
 10
4566.726362534591
 20
5329.942512534301
 30
0.0
 11
4253.241081160344
 21
5329.942512534301
 31
0.0
 70
   160
 71
     5
 42
50.0
  3
INABA_S40G
100
AcDbAlignedDimension
 13
4616.726362534591
 23
4925.322253107034
 33
0.0
 14
4566.726362534591
 24
4925.322253107033
 34
0.0
100
AcDbRotatedDimension
1001
ACAD
1000
DSTYLE
1002
{
1002
}
  0
LINE
  5
18A35
330
747D
100
AcDbEntity
  8
細線
 48
50.0
100
AcDbLine
 10
4599.726362534592
 20
4925.322253107031
 30
0.0
 11
4599.726362534592
 21
4784.322253107031
 31
0.0
  0
ARC
  5
18A36
330
747D
100
AcDbEntity
  8
部品1
100
AcDbCircle
 10
4574.134783641016
 20
4918.322253107032
 30
0.0
 40
7.0
100
AcDbArc
 50
90.0
 51
183.247342790341
  0
ARC
  5
18A37
330
747D
100
AcDbEntity
  8
部品1
100
AcDbCircle
 10
4587.350107102055
 20
4791.322253107035
 30
0.0
 40
7.0
100
AcDbArc
 50
183.247342790341
 51
270.0
  0
ARC
  5
18A38
330
747D
100
AcDbEntity
  8
部品1
 48
50.0
100
AcDbCircle
 10
4568.978296891375
 20
4897.989252268718
 30
0.0
 40
0.7
100
AcDbArc
 50
183.2473427903929
 51
262.3418727926362
  0
ARC
  5
18A39
330
747D
100
AcDbEntity
  8
部品1
 48
50.0
100
AcDbCircle
 10
4577.214327416219
 20
4805.789252268715
 30
0.0
 40
0.7
100
AcDbArc
 50
183.2473427903149
 51
262.3418727926362
  0
ARC
  5
18A3A
330
747D
100
AcDbEntity
  8
部品1
 48
50.0
100
AcDbCircle
 10
4576.721258307657
 20
4802.122253107031
 30
0.0
 40
3.0
100
AcDbArc
 50
3.247342790340932
 51
82.3418727926362
  0
ARC
  5
18A3B
330
747D
100
AcDbEntity
  8
部品1
 48
50.0
100
AcDbCircle
 10
4568.485227782814
 20
4894.322253107035
 30
0.0
 40
3.0
100
AcDbArc
 50
3.247342790340932
 51
82.3418727926362
  0
LINE
  5
18A3C
330
747D
100
AcDbEntity
  8
部品1
100
AcDbLine
 10
4571.480410679
 20
4894.492192562135
 30
0.0
 11
4576.515451407106
 21
4805.749599729192
 31
0.0
  0
LINE
  5
18A3D
330
747D
100
AcDbEntity
  8
部品1
100
AcDbLine
 10
4579.716441203844
 20
4802.292192562134
 30
0.0
 11
4580.361347010952
 21
4790.925727711794
 31
0.0
  0
LINE
  5
18A3E
330
747D
100
AcDbEntity
  8
部品1
100
AcDbLine
 10
4567.146023549922
 20
4917.925727711794
 30
0.0
 11
4568.27942088227
 21
4897.949599729193
 31
0.0
  0
LINE
  5
18A3F
330
747D
100
AcDbEntity
  8
部品1
 48
50.0
100
AcDbLine
 10
6449.317941428147
 20
4925.322253107031
 30
0.0
 11
4574.134783641016
 21
4925.322253107035
 31
0.0
  0
LINE
  5
18A40
330
747D
100
AcDbEntity
  8
部品1
 48
50.0
100
AcDbLine
 10
6436.102617967114
 20
4784.322253107035
 30
0.0
 11
4587.350107102055
 21
4784.322253107031
 31
0.0
  0
LINE
  5
18A41
330
747D
100
AcDbEntity
  8
細線
 48
50.0
100
AcDbLine
 10
6454.686824313146
 20
4897.322253107033
 30
0.0
 11
4568.765900756025
 21
4897.322253107031
 31
0.0
  0
LINE
  5
18A42
330
747D
100
AcDbEntity
  8
細線
 48
50.0
100
AcDbLine
 10
6446.450793788298
 20
4805.122253107031
 30
0.0
 11
4577.001931280854
 21
4805.122253107034
 31
0.0
  0
LINE
  5
18A43
330
747D
100
AcDbEntity
  8
細線
100
AcDbLine
 10
5106.726362534584
 20
4749.822253107027
 30
0.0
 11
5106.72636253458
 21
4726.822253107028
 31
0.0
  0
LINE
  5
18A44
330
747D
100
AcDbEntity
  8
細線
100
AcDbLine
 10
5180.72636253458
 20
4737.822253107028
 30
0.0
 11
5106.726362534584
 21
4737.822253107028
 31
0.0
  0
LINE
  5
18A45
330
747D
100
AcDbEntity
  8
細線
100
AcDbLine
 10
5180.72636253458
 20
4731.822253107027
 30
0.0
 11
5106.726362534584
 21
4731.822253107027
 31
0.0
  0
LINE
  5
18A46
330
747D
100
AcDbEntity
  8
細線
100
AcDbLine
 10
5180.72636253458
 20
4743.822253107028
 30
0.0
 11
5106.726362534584
 21
4743.822253107028
 31
0.0
  0
LINE
  5
18A47
330
747D
100
AcDbEntity
  8
細線
100
AcDbLine
 10
5032.726362534584
 20
4743.822253107028
 30
0.0
 11
5101.726362534584
 21
4743.822253107028
 31
0.0
  0
LINE
  5
18A48
330
747D
100
AcDbEntity
  8
細線
100
AcDbLine
 10
5032.726362534581
 20
4731.822253107027
 30
0.0
 11
5106.726362534584
 21
4731.822253107027
 31
0.0
  0
LINE
  5
18A49
330
747D
100
AcDbEntity
  8
細線
100
AcDbLine
 10
5032.726362534584
 20
4737.822253107028
 30
0.0
 11
5106.726362534584
 21
4737.822253107028
 31
0.0
  0
LINE
  5
18A4A
330
747D
100
AcDbEntity
  8
細線
100
AcDbLine
 10
5032.726362534584
 20
4743.822253107028
 30
0.0
 11
5106.726362534584
 21
4743.822253107028
 31
0.0
  0
LINE
  5
18A4B
330
747D
100
AcDbEntity
  8
部品1
 48
0.01
100
AcDbLine
 10
5194.726362534584
 20
4756.322253107028
 30
0.0
 11
5018.726362534584
 21
4756.322253107028
 31
0.0
  0
LINE
  5
18A4C
330
747D
100
AcDbEntity
  8
部品1
 48
0.01
100
AcDbLine
 10
5016.726362534583
 20
4754.322253107027
 30
0.0
 11
5016.726362534583
 21
4722.822253107028
 31
0.0
  0
LINE
  5
18A4D
330
747D
100
AcDbEntity
  8
部品1
 48
0.01
100
AcDbLine
 10
5018.726362534584
 20
4720.822253107027
 30
0.0
 11
5194.726362534581
 21
4720.822253107027
 31
0.0
  0
LINE
  5
18A4E
330
747D
100
AcDbEntity
  8
部品1
 48
0.01
100
AcDbLine
 10
5196.72636253458
 20
4722.822253107028
 30
0.0
 11
5196.726362534584
 21
4754.322253107027
 31
0.0
  0
LINE
  5
18A4F
330
747D
100
AcDbEntity
  8
細線
100
AcDbLine
 10
5032.726362534584
 20
4749.822253107027
 30
0.0
 11
5032.726362534584
 21
4726.822253107028
 31
0.0
  0
LINE
  5
18A50
330
747D
100
AcDbEntity
  8
細線
100
AcDbLine
 10
5180.726362534584
 20
4726.822253107028
 30
0.0
 11
5180.726362534584
 21
4749.822253107027
 31
0.0
  0
LINE
  5
18A51
330
747D
100
AcDbEntity
  8
細線
100
AcDbLine
 10
5180.726362534584
 20
4749.822253107027
 30
0.0
 11
5106.726362534584
 21
4749.822253107027
 31
0.0
  0
LINE
  5
18A52
330
747D
100
AcDbEntity
  8
細線
100
AcDbLine
 10
5032.726362534584
 20
4726.822253107028
 30
0.0
 11
5106.726362534584
 21
4726.822253107028
 31
0.0
  0
LINE
  5
18A53
330
747D
100
AcDbEntity
  8
細線
100
AcDbLine
 10
5106.726362534584
 20
4749.822253107027
 30
0.0
 11
5032.726362534584
 21
4749.822253107027
 31
0.0
  0
LINE
  5
18A54
330
747D
100
AcDbEntity
  8
細線
100
AcDbLine
 10
5106.72636253458
 20
4726.822253107028
 30
0.0
 11
5180.726362534584
 21
4726.822253107028
 31
0.0
  0
ARC
  5
18A55
330
747D
100
AcDbEntity
  8
部品1
 48
0.01
100
AcDbCircle
 10
5018.726362534584
 20
4754.322253107027
 30
0.0
 40
2.0
100
AcDbArc
 50
90.0
 51
180.0
  0
ARC
  5
18A56
330
747D
100
AcDbEntity
  8
部品1
 48
0.01
100
AcDbCircle
 10
5018.726362534584
 20
4722.822253107028
 30
0.0
 40
2.0
100
AcDbArc
 50
180.0
 51
270.0
  0
ARC
  5
18A57
330
747D
100
AcDbEntity
  8
部品1
 48
0.01
100
AcDbCircle
 10
5194.726362534584
 20
4754.322253107027
 30
0.0
 40
2.0
100
AcDbArc
 50
0.0
 51
90.0
  0
ARC
  5
18A58
330
747D
100
AcDbEntity
  8
部品1
 48
0.01
100
AcDbCircle
 10
5194.726362534581
 20
4722.822253107028
 30
0.0
 40
2.0
100
AcDbArc
 50
270.0
 51
0.0
  0
ARC
  5
18A59
330
747D
100
AcDbEntity
  8
部品1
 48
0.01
100
AcDbCircle
 10
5828.726362534585
 20
4754.322253107027
 30
0.0
 40
2.0
100
AcDbArc
 50
90.0
 51
180.0
  0
ARC
  5
18A5A
330
747D
100
AcDbEntity
  8
部品1
 48
0.01
100
AcDbCircle
 10
6004.726362534584
 20
4754.322253107027
 30
0.0
 40
2.0
100
AcDbArc
 50
0.0
 51
90.0
  0
LINE
  5
18A5B
330
747D
100
AcDbEntity
  8
細線
100
AcDbLine
 10
5916.726362534584
 20
4726.822253107028
 30
0.0
 11
5842.726362534584
 21
4726.822253107028
 31
0.0
  0
LINE
  5
18A5C
330
747D
100
AcDbEntity
  8
細線
100
AcDbLine
 10
5916.726362534584
 20
4749.822253107027
 30
0.0
 11
5990.726362534584
 21
4749.822253107027
 31
0.0
  0
LINE
  5
18A5D
330
747D
100
AcDbEntity
  8
細線
100
AcDbLine
 10
5990.726362534584
 20
4726.822253107028
 30
0.0
 11
5916.726362534584
 21
4726.822253107028
 31
0.0
  0
LINE
  5
18A5E
330
747D
100
AcDbEntity
  8
細線
100
AcDbLine
 10
5842.726362534584
 20
4749.822253107027
 30
0.0
 11
5916.726362534584
 21
4749.822253107027
 31
0.0
  0
LINE
  5
18A5F
330
747D
100
AcDbEntity
  8
細線
100
AcDbLine
 10
5842.726362534584
 20
4726.822253107028
 30
0.0
 11
5842.726362534584
 21
4749.822253107027
 31
0.0
  0
LINE
  5
18A60
330
747D
100
AcDbEntity
  8
細線
100
AcDbLine
 10
5990.726362534584
 20
4749.822253107027
 30
0.0
 11
5990.726362534584
 21
4726.822253107028
 31
0.0
  0
LINE
  5
18A61
330
747D
100
AcDbEntity
  8
部品1
 48
0.01
100
AcDbLine
 10
5828.726362534585
 20
4756.322253107028
 30
0.0
 11
6004.726362534584
 21
4756.322253107028
 31
0.0
  0
LINE
  5
18A62
330
747D
100
AcDbEntity
  8
細線
100
AcDbLine
 10
5990.726362534584
 20
4743.822253107028
 30
0.0
 11
5916.726362534584
 21
4743.822253107028
 31
0.0
  0
LINE
  5
18A63
330
747D
100
AcDbEntity
  8
細線
100
AcDbLine
 10
5990.726362534584
 20
4737.822253107028
 30
0.0
 11
5916.726362534584
 21
4737.822253107028
 31
0.0
  0
LINE
  5
18A64
330
747D
100
AcDbEntity
  8
細線
100
AcDbLine
 10
5990.726362534584
 20
4731.822253107027
 30
0.0
 11
5916.726362534584
 21
4731.822253107027
 31
0.0
  0
LINE
  5
18A65
330
747D
100
AcDbEntity
  8
細線
100
AcDbLine
 10
5990.726362534584
 20
4743.822253107028
 30
0.0
 11
5921.726362534585
 21
4743.822253107028
 31
0.0
  0
LINE
  5
18A66
330
747D
100
AcDbEntity
  8
細線
100
AcDbLine
 10
5842.726362534584
 20
4743.822253107028
 30
0.0
 11
5916.726362534584
 21
4743.822253107028
 31
0.0
  0
LINE
  5
18A67
330
747D
100
AcDbEntity
  8
細線
100
AcDbLine
 10
5842.726362534584
 20
4731.822253107027
 30
0.0
 11
5916.726362534584
 21
4731.822253107027
 31
0.0
  0
LINE
  5
18A68
330
747D
100
AcDbEntity
  8
細線
100
AcDbLine
 10
5842.726362534584
 20
4737.822253107028
 30
0.0
 11
5916.726362534584
 21
4737.822253107028
 31
0.0
  0
LINE
  5
18A69
330
747D
100
AcDbEntity
  8
細線
100
AcDbLine
 10
5916.726362534584
 20
4749.822253107027
 30
0.0
 11
5916.726362534584
 21
4726.822253107028
 31
0.0
  0
ARC
  5
18A6A
330
747D
100
AcDbEntity
  8
部品1
 48
0.01
100
AcDbCircle
 10
5828.726362534585
 20
4722.822253107028
 30
0.0
 40
2.0
100
AcDbArc
 50
180.0
 51
270.0
  0
ARC
  5
18A6B
330
747D
100
AcDbEntity
  8
部品1
 48
0.01
100
AcDbCircle
 10
6004.726362534584
 20
4722.822253107028
 30
0.0
 40
2.0
100
AcDbArc
 50
270.0
 51
0.0
  0
LINE
  5
18A6C
330
747D
100
AcDbEntity
  8
部品1
 48
0.01
100
AcDbLine
 10
5826.726362534584
 20
4722.822253107028
 30
0.0
 11
5826.726362534584
 21
4754.322253107027
 31
0.0
  0
LINE
  5
18A6D
330
747D
100
AcDbEntity
  8
部品1
 48
0.01
100
AcDbLine
 10
6004.726362534584
 20
4720.822253107027
 30
0.0
 11
5828.726362534585
 21
4720.822253107027
 31
0.0
  0
LINE
  5
18A6E
330
747D
100
AcDbEntity
  8
部品1
 48
0.01
100
AcDbLine
 10
6006.726362534585
 20
4754.322253107027
 30
0.0
 11
6006.726362534585
 21
4722.822253107028
 31
0.0
  0
DIMENSION
  5
18A6F
330
747D
100
AcDbEntity
  8
寸法
 48
50.0
100
AcDbDimension
  2
*D7
 10
6406.72636253458
 20
5329.942512534301
 30
0.0
 11
6770.211643908817
 21
5329.942512534301
 31
0.0
 70
   160
 71
     5
 42
50.0
  3
INABA_S40G
100
AcDbAlignedDimension
 13
6456.72636253458
 23
4925.32225310703
 33
0.0
 14
6406.72636253458
 24
4925.322253107033
 34
0.0
100
AcDbRotatedDimension
  0
LINE
  5
18A70
330
747D
100
AcDbEntity
  8
部品1
100
AcDbLine
 10
6456.306701519245
 20
4917.925727711794
 30
0.0
 11
6455.173304186901
 21
4897.949599729193
 31
0.0
  0
LINE
  5
18A71
330
747D
100
AcDbEntity
  8
細線
 48
50.0
100
AcDbLine
 10
6423.72636253458
 20
4925.322253107031
 30
0.0
 11
6423.72636253458
 21
4784.322253107031
 31
0.0
  0
LINE
  5
18A72
330
747D
100
AcDbEntity
  8
部品1
100
AcDbLine
 10
6443.736283865324
 20
4802.292192562134
 30
0.0
 11
6443.091378058213
 21
4790.925727711794
 31
0.0
  0
LINE
  5
18A73
330
747D
100
AcDbEntity
  8
部品1
100
AcDbLine
 10
6451.972314390168
 20
4894.492192562135
 30
0.0
 11
6446.937273662057
 21
4805.749599729192
 31
0.0
  0
ARC
  5
18A74
330
747D
100
AcDbEntity
  8
部品1
 48
50.0
100
AcDbCircle
 10
6454.967497286354
 20
4894.322253107035
 30
0.0
 40
3.0
100
AcDbArc
 50
97.65812720736379
 51
176.752657209659
  0
ARC
  5
18A75
330
747D
100
AcDbEntity
  8
部品1
 48
50.0
100
AcDbCircle
 10
6446.73146676151
 20
4802.122253107031
 30
0.0
 40
3.0
100
AcDbArc
 50
97.65812720736379
 51
176.752657209659
  0
ARC
  5
18A76
330
747D
100
AcDbEntity
  8
部品1
 48
50.0
100
AcDbCircle
 10
6446.238397652949
 20
4805.789252268715
 30
0.0
 40
0.7
100
AcDbArc
 50
277.6581272073638
 51
356.7526572096851
  0
ARC
  5
18A77
330
747D
100
AcDbEntity
  8
部品1
 48
50.0
100
AcDbCircle
 10
6454.474428177793
 20
4897.989252268718
 30
0.0
 40
0.7
100
AcDbArc
 50
277.6581272073638
 51
356.752657209607
  0
ARC
  5
18A78
330
747D
100
AcDbEntity
  8
部品1
100
AcDbCircle
 10
6436.102617967114
 20
4791.322253107035
 30
0.0
 40
7.0
100
AcDbArc
 50
270.0
 51
356.752657209659
  0
ARC
  5
18A79
330
747D
100
AcDbEntity
  8
部品1
100
AcDbCircle
 10
6449.317941428147
 20
4918.322253107032
 30
0.0
 40
7.0
100
AcDbArc
 50
356.752657209659
 51
90.0
  0
LINE
  5
18A7A
330
747D
100
AcDbEntity
  8
部品1
 48
50.0
100
AcDbLine
 10
9884.186708632114
 20
2550.322253107028
 30
0.0
 11
9884.186708632114
 21
2450.322253107028
 31
0.0
  0
LINE
  5
18A7B
330
747D
100
AcDbEntity
  8
部品1
 48
50.0
100
AcDbLine
 10
10084.18670863211
 20
2550.322253107028
 30
0.0
 11
10084.18670863211
 21
2450.322253107028
 31
0.0
  0
LINE
  5
18A7C
330
747D
100
AcDbEntity
  8
部品1
 48
50.0
100
AcDbLine
 10
9192.186708632112
 20
2550.322253107028
 30
0.0
 11
9192.186708632112
 21
2450.322253107028
 31
0.0
  0
LINE
  5
18A7D
330
747D
100
AcDbEntity
  8
部品1
 48
50.0
100
AcDbLine
 10
9392.186708632113
 20
2550.322253107028
 30
0.0
 11
9392.186708632113
 21
2450.322253107028
 31
0.0
  0
LINE
  5
18A7E
330
747D
100
AcDbEntity
  8
破線
 48
10.0
100
AcDbLine
 10
9267.686708632147
 20
8036.356218076035
 30
0.0
 11
8613.186708632099
 21
8036.356218076001
 31
0.0
  0
LINE
  5
18A7F
330
747D
100
AcDbEntity
  8
破線
 48
10.0
100
AcDbLine
 10
10008.68670863214
 20
8012.856218076068
 30
0.0
 11
10008.68670863215
 21
9266.356218076195
 31
0.0
  0
LINE
  5
18A80
330
747D
100
AcDbEntity
  8
破線
 48
10.0
100
AcDbLine
 10
9958.686708632148
 20
8012.856218076064
 30
0.0
 11
9958.686708632146
 21
9266.356218076198
 31
0.0
  0
LINE
  5
18A81
330
747D
100
AcDbEntity
  8
破線
 48
10.0
100
AcDbLine
 10
9267.686708632147
 20
8012.856218076032
 30
0.0
 11
9267.686708632144
 21
9266.356218076129
 31
0.0
  0
LINE
  5
18A82
330
747D
100
AcDbEntity
  8
破線
 48
10.0
100
AcDbLine
 10
9317.686708632143
 20
8012.856218076034
 30
0.0
 11
9317.686708632148
 21
9266.356218076133
 31
0.0
  0
MTEXT
  5
18A85
330
747D
100
AcDbEntity
  8
寸法
 62
     7
 48
50.0
100
AcDbMText
 10
10303.28924572526
 20
9332.591036273488
 30
0.0
 40
96.0
 41
0.0
 71
     5
 72
     1
  1
棚 3段
  7
STYLE1
 73
     1
 44
1.0
1001
ACAD
1000
MTEXTBEGIN
1070
    73
1070
     1
1070
    44
1040
1.0
1070
    74
1070
     0
1000
MTEXTEND
  0
LINE
  5
18A86
330
747D
100
AcDbEntity
  8
部品1
 48
50.0
100
AcDbLine
 10
9395.186708632119
 20
4633.322253131795
 30
0.0
 11
9395.186708632119
 21
2600.322253107024
 31
0.0
  0
LINE
  5
18A87
330
747D
100
AcDbEntity
  8
部品1
100
AcDbLine
 10
10049.18669893697
 20
4633.322253144179
 30
0.0
 11
10049.18669893698
 21
2607.822253144194
 31
0.0
  0
LINE
  5
18A88
330
747D
100
AcDbEntity
  8
細線
100
AcDbLine
 10
9295.186708632121
 20
4633.322253107027
 30
0.0
 11
9295.186708632119
 21
2600.322253107035
 31
0.0
  0
LINE
  5
18A89
330
747D
100
AcDbEntity
  8
細線
100
AcDbLine
 10
9225.18670863212
 20
4633.322253107027
 30
0.0
 11
9225.186708632119
 21
2600.322253107035
 31
0.0
  0
LINE
  5
18A8A
330
747D
100
AcDbEntity
  8
細線
100
AcDbLine
 10
9155.186708632122
 20
4633.322253107027
 30
0.0
 11
9155.186708632118
 21
2600.322253107032
 31
0.0
  0
LINE
  5
18A8B
330
747D
100
AcDbEntity
  8
細線
100
AcDbLine
 10
9085.186708632122
 20
4633.322253107027
 30
0.0
 11
9085.186708632118
 21
2600.322253107032
 31
0.0
  0
LINE
  5
18A8C
330
747D
100
AcDbEntity
  8
細線
100
AcDbLine
 10
9015.186708632121
 20
4633.322253107027
 30
0.0
 11
9015.18670863212
 21
2600.322253107032
 31
0.0
  0
LINE
  5
18A8D
330
747D
100
AcDbEntity
  8
細線
100
AcDbLine
 10
8945.186708632121
 20
4633.322253107027
 30
0.0
 11
8945.186708632119
 21
2600.322253107032
 31
0.0
  0
LINE
  5
18A8E
330
747D
100
AcDbEntity
  8
部品1
100
AcDbLine
 10
8761.186708632118
 20
4633.322253107027
 30
0.0
 11
8761.186708632122
 21
2600.322253107032
 31
0.0
  0
LINE
  5
18A8F
330
747D
100
AcDbEntity
  8
部品1
100
AcDbLine
 10
8711.186708632117
 20
4633.322253107027
 30
0.0
 11
8711.186708632123
 21
2600.322253107032
 31
0.0
  0
LINE
  5
18A90
330
747D
100
AcDbEntity
  8
細線
100
AcDbLine
 10
8753.186708632119
 20
4633.322253107027
 30
0.0
 11
8753.186708632121
 21
2600.322253107032
 31
0.0
  0
LINE
  5
18A91
330
747D
100
AcDbEntity
  8
細線
100
AcDbLine
 10
8719.186708632118
 20
4633.322253107027
 30
0.0
 11
8719.186708632122
 21
2600.322253107032
 31
0.0
  0
LINE
  5
18A92
330
747D
100
AcDbEntity
  8
細線
100
AcDbLine
 10
9946.686718382364
 20
4633.322253107027
 30
0.0
 11
9946.686718382364
 21
2607.822253107039
 31
0.0
  0
LINE
  5
18A93
330
747D
100
AcDbEntity
  8
細線
100
AcDbLine
 10
9876.686718382364
 20
4633.322253107027
 30
0.0
 11
9876.686718382364
 21
2607.822253107039
 31
0.0
  0
LINE
  5
18A94
330
747D
100
AcDbEntity
  8
細線
100
AcDbLine
 10
9806.686718382364
 20
4633.322253107027
 30
0.0
 11
9806.686718382364
 21
2607.822253107039
 31
0.0
  0
LINE
  5
18A95
330
747D
100
AcDbEntity
  8
細線
100
AcDbLine
 10
9736.686718382363
 20
4633.322253107027
 30
0.0
 11
9736.686718382363
 21
2607.822253107039
 31
0.0
  0
LINE
  5
18A96
330
747D
100
AcDbEntity
  8
細線
100
AcDbLine
 10
9666.686718382365
 20
4633.322253107027
 30
0.0
 11
9666.686718382365
 21
2607.822253107039
 31
0.0
  0
LINE
  5
18A97
330
747D
100
AcDbEntity
  8
細線
100
AcDbLine
 10
9596.686718382363
 20
4633.322253107027
 30
0.0
 11
9596.686718382363
 21
2607.822253107039
 31
0.0
  0
LINE
  5
18A98
330
747D
100
AcDbEntity
  8
細線
100
AcDbLine
 10
10521.93670863212
 20
4633.322253107027
 30
0.0
 11
10521.93670863212
 21
2607.822253107046
 31
0.0
  0
LINE
  5
18A99
330
747D
100
AcDbEntity
  8
細線
100
AcDbLine
 10
10451.93670863212
 20
4633.322253107027
 30
0.0
 11
10451.93670863212
 21
2607.822253107046
 31
0.0
  0
LINE
  5
18A9A
330
747D
100
AcDbEntity
  8
細線
100
AcDbLine
 10
10381.93670863212
 20
4633.322253107027
 30
0.0
 11
10381.93670863212
 21
2607.822253107046
 31
0.0
  0
LINE
  5
18A9B
330
747D
100
AcDbEntity
  8
細線
100
AcDbLine
 10
10311.93670863212
 20
4633.322253107027
 30
0.0
 11
10311.93670863212
 21
2607.822253107046
 31
0.0
  0
LINE
  5
18A9C
330
747D
100
AcDbEntity
  8
細線
100
AcDbLine
 10
10241.93670863212
 20
4633.322253107027
 30
0.0
 11
10241.93670863212
 21
2607.822253107046
 31
0.0
  0
LINE
  5
18A9D
330
747D
100
AcDbEntity
  8
細線
100
AcDbLine
 10
8875.186708632121
 20
4633.322253107027
 30
0.0
 11
8875.186708632119
 21
2600.322253107032
 31
0.0
  0
LINE
  5
18A9E
330
747D
100
AcDbEntity
  8
細線
100
AcDbLine
 10
8805.186708632122
 20
4633.322253107027
 30
0.0
 11
8805.186708632119
 21
2600.322253107032
 31
0.0
  0
LINE
  5
18A9F
330
747D
100
AcDbEntity
  8
細線
100
AcDbLine
 10
9526.686718382363
 20
4633.322253107027
 30
0.0
 11
9526.686718382363
 21
2607.822253107039
 31
0.0
  0
LINE
  5
18AA0
330
747D
100
AcDbEntity
  8
細線
100
AcDbLine
 10
9456.686718382362
 20
4633.322253107027
 30
0.0
 11
9456.686718382362
 21
2607.822253107039
 31
0.0
  0
LINE
  5
18AA1
330
747D
100
AcDbEntity
  8
細線
100
AcDbLine
 10
10171.93670863212
 20
4633.322253107027
 30
0.0
 11
10171.93670863212
 21
2607.822253107046
 31
0.0
  0
LINE
  5
18AA2
330
747D
100
AcDbEntity
  8
部品1
 48
50.0
100
AcDbLine
 10
10715.18670863212
 20
4641.322253107028
 30
0.0
 11
10685.18670863212
 21
4641.322253107028
 31
0.0
  0
LINE
  5
18AA3
330
747D
100
AcDbEntity
  8
細線
 48
50.0
100
AcDbLine
 10
10663.18670863212
 20
2597.322253107028
 30
0.0
 11
10659.18670863212
 21
2607.822253107028
 31
0.0
  0
LINE
  5
18AA4
330
747D
100
AcDbEntity
  8
部品1
 48
50.0
100
AcDbLine
 10
10049.18669893698
 20
4633.322253144175
 30
0.0
 11
10049.18669893698
 21
2607.822253144175
 31
0.0
  0
LINE
  5
18AA5
330
747D
100
AcDbEntity
  8
部品1
 48
50.0
100
AcDbLine
 10
10715.18670863212
 20
2550.322253107028
 30
0.0
 11
10715.18670863212
 21
4685.322253107027
 31
0.0
  0
LINE
  5
18AA6
330
747D
100
AcDbEntity
  8
細線
 48
50.0
100
AcDbLine
 10
10685.18670863212
 20
2550.322253107028
 30
0.0
 11
10685.18670863212
 21
4642.822253107027
 31
0.0
  0
LINE
  5
18AA7
330
747D
100
AcDbEntity
  8
部品1
 48
50.0
100
AcDbLine
 10
10676.18670863212
 20
2597.322253107028
 30
0.0
 11
10676.18670863212
 21
4633.322253107027
 31
0.0
  0
LINE
  5
18AA8
330
747D
100
AcDbEntity
  8
部品1
 48
50.0
100
AcDbLine
 10
8591.186708632122
 20
4641.322253107028
 30
0.0
 11
8561.186708632122
 21
4641.322253107028
 31
0.0
  0
LINE
  5
18AA9
330
747D
100
AcDbEntity
  8
部品1
 48
50.0
100
AcDbLine
 10
8600.18670863212
 20
2600.322253107028
 30
0.0
 11
8600.18670863212
 21
2597.322253107028
 31
0.0
  0
LINE
  5
18AAA
330
747D
100
AcDbEntity
  8
部品1
 48
50.0
100
AcDbLine
 10
8591.186708632122
 20
2600.322253107028
 30
0.0
 11
9395.186708632119
 21
2600.322253107024
 31
0.0
  0
LINE
  5
18AAB
330
747D
100
AcDbEntity
  8
部品1
 48
50.0
100
AcDbLine
 10
9395.186708632119
 20
4633.322253131795
 30
0.0
 11
9395.186708632119
 21
2600.322253131795
 31
0.0
  0
LINE
  5
18AAC
330
747D
100
AcDbEntity
  8
部品1
 48
50.0
100
AcDbLine
 10
8561.186708632122
 20
4685.322253107027
 30
0.0
 11
8561.186708632122
 21
2550.322253107028
 31
0.0
  0
LINE
  5
18AAD
330
747D
100
AcDbEntity
  8
細線
 48
50.0
100
AcDbLine
 10
8591.186708632122
 20
4642.822253107027
 30
0.0
 11
8591.186708632122
 21
2550.322253107028
 31
0.0
  0
LINE
  5
18AAE
330
747D
100
AcDbEntity
  8
部品1
 48
50.0
100
AcDbLine
 10
8591.186708632122
 20
2600.322253107028
 30
0.0
 11
8591.186708632122
 21
4633.322253107027
 31
0.0
  0
LINE
  5
18AAF
330
747D
100
AcDbEntity
  8
細線
 48
50.0
100
AcDbLine
 10
9395.186708632119
 20
2607.822253107028
 30
0.0
 11
10659.18670863212
 21
2607.822253107028
 31
0.0
  0
LINE
  5
18AB0
330
747D
100
AcDbEntity
  8
細線
 48
50.0
100
AcDbLine
 10
8591.186708632122
 20
2597.322253107028
 30
0.0
 11
10685.18670863212
 21
2597.322253107028
 31
0.0
  0
LINE
  5
18AB1
330
747D
100
AcDbEntity
  8
細線
 48
50.0
100
AcDbLine
 10
8591.186708632122
 20
2593.322253107028
 30
0.0
 11
10685.18670863212
 21
2593.322253107028
 31
0.0
  0
LINE
  5
18AB2
330
747D
100
AcDbEntity
  8
部品1
 48
50.0
100
AcDbLine
 10
8561.186708632122
 20
2550.322253107028
 30
0.0
 11
10715.18670863212
 21
2550.322253107028
 31
0.0
  0
LINE
  5
18AB3
330
747D
100
AcDbEntity
  8
細線
 48
50.0
100
AcDbLine
 10
10685.18670863212
 20
4642.822253107027
 30
0.0
 11
8591.186708632122
 21
4642.822253107027
 31
0.0
  0
LINE
  5
18AB4
330
747D
100
AcDbEntity
  8
細線
 48
50.0
100
AcDbLine
 10
10685.18670863212
 20
4633.322253107027
 30
0.0
 11
8591.186708632122
 21
4633.322253107027
 31
0.0
  0
LINE
  5
18AB5
330
747D
100
AcDbEntity
  8
細線
 48
50.0
100
AcDbLine
 10
10715.18670863212
 20
4675.322253107028
 30
0.0
 11
8561.186708632122
 21
4675.322253107028
 31
0.0
  0
LINE
  5
18AB6
330
747D
100
AcDbEntity
  8
部品1
 48
50.0
100
AcDbLine
 10
10715.18670863212
 20
4685.322253107027
 30
0.0
 11
8561.186708632122
 21
4685.322253107027
 31
0.0
  0
TEXT
  5
18B84
330
747D
100
AcDbEntity
  8
文字
 62
     7
 48
50.0
100
AcDbText
 10
14491.96323844892
 20
483.8967129911416
 30
0.0
 40
160.0
  1
ＮＸＮ－４０ＨＢ
  7
STYLE2
100
AcDbText
  0
LINE
  5
18B85
330
747D
100
AcDbEntity
  8
部品1
100
AcDbLine
 10
10019.92204174633
 20
1571.006710132068
 30
0.0
 11
9256.451375517899
 21
1571.006710132068
 31
0.0
  0
LINE
  5
18B86
330
747D
100
AcDbEntity
  8
部品1
100
AcDbLine
 10
10019.92204174633
 20
1331.114388586536
 30
0.0
 11
10019.92204174633
 21
1571.006710132068
 31
0.0
  0
LINE
  5
18B87
330
747D
100
AcDbEntity
  8
部品1
100
AcDbLine
 10
9256.451375517899
 20
1331.114388586536
 30
0.0
 11
10019.92204174633
 21
1331.114388586536
 31
0.0
  0
LINE
  5
18B88
330
747D
100
AcDbEntity
  8
部品1
100
AcDbLine
 10
9256.451375517899
 20
1571.006710132068
 30
0.0
 11
9256.451375517899
 21
1331.114388586536
 31
0.0
  0
LINE
  5
18B8D
330
747D
100
AcDbEntity
  8
部品1
100
AcDbLine
 10
10715.18670863212
 20
2600.322253107048
 30
0.0
 11
10743.18670863212
 21
2600.322253107048
 31
0.0
  0
LINE
  5
18B8E
330
747D
100
AcDbEntity
  8
部品1
 48
50.0
100
AcDbLine
 10
10688.18670863212
 20
4685.322253107027
 30
0.0
 11
10688.18670863212
 21
4690.322253107027
 31
0.0
  0
LINE
  5
18B8F
330
747D
100
AcDbEntity
  8
部品1
 48
50.0
100
AcDbLine
 10
8588.186708632122
 20
4685.322253107027
 30
0.0
 11
8588.186708632122
 21
4690.322253107027
 31
0.0
  0
DIMENSION
  5
18B90
330
747D
100
AcDbEntity
  8
寸法
 48
50.0
100
AcDbDimension
  2
*D8
 10
8239.961902161107
 20
2608.322253107027
 30
0.0
 11
8239.961902161107
 21
3620.822253107028
 31
0.0
 70
   160
  1
有効開口部高サ<>
 71
     5
 42
2025.000000000001
  3
INABA_S40G
100
AcDbAlignedDimension
 13
8561.186708632122
 23
4633.322253107027
 33
0.0
 14
8561.186708632122
 24
2608.322253107027
 34
0.0
 50
90.0
100
AcDbRotatedDimension
  0
LINE
  5
18B91
330
747D
100
AcDbEntity
  8
部品1
 48
50.0
100
AcDbLine
 10
10688.1867086321
 20
7956.356218076163
 30
0.0
 11
10743.1867086321
 21
7956.356218076169
 31
0.0
  0
LINE
  5
18B92
330
747D
100
AcDbEntity
  8
部品1
 48
50.0
100
AcDbLine
 10
10715.1867086321
 20
7984.356218076133
 30
0.0
 11
8561.186708632105
 21
7984.3562180761
 31
0.0
  0
LINE
  5
18B93
330
747D
100
AcDbEntity
  8
部品1
 48
50.0
100
AcDbLine
 10
8533.186708632122
 20
7956.356218076006
 30
0.0
 11
8588.186708632104
 21
7956.356218076009
 31
0.0
  0
LINE
  5
18B94
330
747D
100
AcDbEntity
  8
部品1
100
AcDbLine
 10
10688.1867086321
 20
7984.356218076133
 30
0.0
 11
10688.1867086321
 21
7956.356218076132
 31
0.0
  0
LINE
  5
18B95
330
747D
100
AcDbEntity
  8
部品1
100
AcDbLine
 10
10688.1867086321
 20
7984.356218076111
 30
0.0
 11
10688.1867086321
 21
7956.356218076111
 31
0.0
  0
LINE
  5
18B96
330
747D
100
AcDbEntity
  8
部品1
100
AcDbLine
 10
8588.186708632104
 20
7984.356218076015
 30
0.0
 11
8588.186708632104
 21
7956.356218076017
 31
0.0
  0
LINE
  5
18B97
330
747D
100
AcDbEntity
  8
部品1
100
AcDbLine
 10
8588.186708632067
 20
7984.356218075983
 30
0.0
 11
8588.18670863207
 21
7956.356218075983
 31
0.0
  0
LINE
  5
18B98
330
747D
100
AcDbEntity
  8
部品1
100
AcDbLine
 10
8561.186708632106
 20
8011.356218076052
 30
0.0
 11
8533.186708632106
 21
8011.356218076052
 31
0.0
  0
LINE
  5
18B99
330
747D
100
AcDbEntity
  8
部品1
100
AcDbLine
 10
10715.18670863213
 20
8011.35621807618
 30
0.0
 11
10743.18670863213
 21
8011.35621807618
 31
0.0
  0
LINE
  5
18B9A
330
747D
100
AcDbEntity
  8
部品1
100
AcDbLine
 10
10715.18670863213
 20
8851.356218076182
 30
0.0
 11
10743.18670863213
 21
8851.356218076182
 31
0.0
  0
LINE
  5
18B9B
330
747D
100
AcDbEntity
  8
部品1
100
AcDbLine
 10
8561.186708632106
 20
8851.356218076054
 30
0.0
 11
8533.186708632106
 21
8851.356218076054
 31
0.0
  0
LINE
  5
18B9C
330
747D
100
AcDbEntity
  8
部品1
 48
50.0
100
AcDbLine
 10
10686.68670863211
 20
8851.356218076182
 30
0.0
 11
8589.686708632113
 21
8851.356218076267
 31
0.0
  0
LINE
  5
18B9D
330
747D
100
AcDbEntity
  8
部品1
100
AcDbLine
 10
9428.18670863213
 20
9746.356218076199
 30
0.0
 11
9428.18670863213
 21
9718.356218076198
 31
0.0
  0
LINE
  5
18B9E
330
747D
100
AcDbEntity
  8
部品1
100
AcDbLine
 10
9428.18670863213
 20
9746.356218076082
 30
0.0
 11
9428.18670863213
 21
9718.356218076081
 31
0.0
  0
LINE
  5
18B9F
330
747D
100
AcDbEntity
  8
部品1
100
AcDbLine
 10
9428.18670863213
 20
9746.356218076082
 30
0.0
 11
9428.18670863213
 21
9718.356218076081
 31
0.0
  0
LINE
  5
18BA0
330
747D
100
AcDbEntity
  8
部品1
100
AcDbLine
 10
10688.18670863213
 20
9746.356218076178
 30
0.0
 11
10688.18670863213
 21
9718.356218076177
 31
0.0
  0
LINE
  5
18BA1
330
747D
100
AcDbEntity
  8
部品1
100
AcDbLine
 10
10688.18670863213
 20
9746.356218076199
 30
0.0
 11
10688.18670863213
 21
9718.356218076198
 31
0.0
  0
LINE
  5
18BA2
330
747D
100
AcDbEntity
  8
部品1
100
AcDbLine
 10
10715.18670863213
 20
9691.35621807618
 30
0.0
 11
10743.18670863213
 21
9691.35621807618
 31
0.0
  0
LINE
  5
18BA3
330
747D
100
AcDbEntity
  8
部品1
100
AcDbLine
 10
10715.18670863213
 20
9271.35621807618
 30
0.0
 11
10743.18670863213
 21
9271.35621807618
 31
0.0
  0
LINE
  5
18BA4
330
747D
100
AcDbEntity
  8
部品1
100
AcDbLine
 10
10714.68670863213
 20
9716.356218076178
 30
0.0
 11
10714.68670863213
 21
9266.356218076181
 31
0.0
  0
LINE
  5
18BA5
330
747D
100
AcDbEntity
  8
部品1
 48
50.0
100
AcDbLine
 10
10686.68670863209
 20
8012.856218076098
 30
0.0
 11
10715.18670863209
 21
7984.3562180761
 31
0.0
  0
LINE
  5
18BA6
330
747D
100
AcDbEntity
  8
部品1
100
AcDbLine
 10
10743.18670863213
 20
9746.356218076178
 30
0.0
 11
10743.1867086321
 21
7956.356218076169
 31
0.0
  0
DIMENSION
  5
18BA7
330
747D
100
AcDbEntity
  8
寸法
100
AcDbDimension
  2
*D9
 10
11390.61305436654
 20
8011.356218076166
 30
0.0
 11
11390.61305436654
 21
8851.356218076173
 31
0.0
 70
   160
  1
4X420=<>
 71
     5
 42
1680.000000000013
  3
INABA_S40G
100
AcDbAlignedDimension
 13
10743.18670863213
 23
9691.35621807618
 33
0.0
 14
10743.1867086321
 24
8011.356218076166
 34
0.0
 50
90.0
100
AcDbRotatedDimension
1001
ACAD
1000
DSTYLE
1002
{
1002
}
  0
LINE
  5
18BA8
330
747D
100
AcDbEntity
  8
部品1
100
AcDbLine
 10
10715.18670863213
 20
9718.356218076177
 30
0.0
 11
10715.1867086321
 21
7984.356218076133
 31
0.0
  0
DIMENSION
  5
18BA9
330
747D
100
AcDbEntity
  8
寸法
100
AcDbDimension
  2
*D10
 10
11070.04443449415
 20
9171.13840240729
 30
0.0
 11
10970.04443449415
 21
9396.13840240729
 31
0.0
 70
    32
 71
     5
 42
449.9999999999963
  3
INABA_S40G
100
AcDbAlignedDimension
 13
10714.68670863213
 23
9716.356218076178
 33
0.0
 14
10714.68670863213
 24
9266.356218076181
 34
0.0
 50
90.0
100
AcDbRotatedDimension
1001
ACAD
1000
DSTYLE
1002
{
1002
}
  0
LINE
  5
18BAA
330
747D
100
AcDbEntity
  8
部品1
100
AcDbLine
 10
10686.68670863212
 20
9266.356218076181
 30
0.0
 11
10686.6867086321
 21
8012.856218076088
 31
0.0
  0
LINE
  5
18BAB
330
747D
100
AcDbEntity
  8
破線
 48
10.0
100
AcDbLine
 10
10663.18670863212
 20
9266.356218076181
 30
0.0
 11
10663.18670863211
 21
8036.356218076097
 31
0.0
  0
LINE
  5
18BAC
330
747D
100
AcDbEntity
  8
部品1
100
AcDbLine
 10
10268.18670863213
 20
9746.356218076199
 30
0.0
 11
10268.18670863213
 21
9718.356218076198
 31
0.0
  0
LINE
  5
18BAD
330
747D
100
AcDbEntity
  8
部品1
100
AcDbLine
 10
9848.186708632129
 20
9746.356218076199
 30
0.0
 11
9848.186708632129
 21
9718.356218076198
 31
0.0
  0
LINE
  5
18BAE
330
747D
100
AcDbEntity
  8
部品1
100
AcDbLine
 10
9835.686708632129
 20
9710.35621807618
 30
0.0
 11
9860.68670863213
 21
9710.356218076185
 31
0.0
  0
LINE
  5
18BAF
330
747D
100
AcDbEntity
  8
部品1
100
AcDbLine
 10
9877.18670863213
 20
9736.356218076185
 30
0.0
 11
9883.186708632131
 21
9736.356218076185
 31
0.0
  0
LINE
  5
18BB0
330
747D
100
AcDbEntity
  8
部品1
100
AcDbLine
 10
9883.186708632131
 20
9736.356218076185
 30
0.0
 11
9883.186708632131
 21
9718.356218076184
 31
0.0
  0
LINE
  5
18BB1
330
747D
100
AcDbEntity
  8
部品1
100
AcDbLine
 10
9813.18670863213
 20
9736.356218076185
 30
0.0
 11
9819.18670863213
 21
9736.356218076185
 31
0.0
  0
LINE
  5
18BB2
330
747D
100
AcDbEntity
  8
部品1
100
AcDbLine
 10
9813.18670863213
 20
9736.356218076185
 30
0.0
 11
9813.18670863213
 21
9718.356218076184
 31
0.0
  0
LINE
  5
18BB3
330
747D
100
AcDbEntity
  8
部品1
100
AcDbLine
 10
9835.686708632129
 20
9266.356218076188
 30
0.0
 11
9860.68670863213
 21
9266.356218076188
 31
0.0
  0
LINE
  5
18BB4
330
747D
100
AcDbEntity
  8
部品1
 48
50.0
100
AcDbLine
 10
9860.68670863213
 20
9718.356218076188
 30
0.0
 11
9860.68670863213
 21
9266.356218076188
 31
0.0
  0
LINE
  5
18BB5
330
747D
100
AcDbEntity
  8
部品1
 48
50.0
100
AcDbLine
 10
9835.686708632128
 20
9718.356218076191
 30
0.0
 11
9835.686708632129
 21
9266.356218076188
 31
0.0
  0
LINE
  5
18BB6
330
747D
100
AcDbEntity
  8
部品1
 48
50.0
100
AcDbLine
 10
9861.686708632129
 20
9716.35621807618
 30
0.0
 11
9861.686708632129
 21
9266.356218076188
 31
0.0
  0
LINE
  5
18BB7
330
747D
100
AcDbEntity
  8
部品1
 48
50.0
100
AcDbLine
 10
9834.68670863213
 20
9716.356218076185
 30
0.0
 11
9834.68670863213
 21
9266.356218076188
 31
0.0
  0
LINE
  5
18BB8
330
747D
100
AcDbEntity
  8
部品1
100
AcDbLine
 10
9008.186708632129
 20
9746.356218076199
 30
0.0
 11
9008.186708632129
 21
9718.356218076198
 31
0.0
  0
LINE
  5
18BB9
330
747D
100
AcDbEntity
  8
部品1
100
AcDbLine
 10
9008.186708632129
 20
9746.356218076082
 30
0.0
 11
9008.186708632129
 21
9718.356218076081
 31
0.0
  0
LINE
  5
18BBA
330
747D
100
AcDbEntity
  8
部品1
100
AcDbLine
 10
9008.186708632129
 20
9746.356218076082
 30
0.0
 11
9008.186708632129
 21
9718.356218076081
 31
0.0
  0
LINE
  5
18BBB
330
747D
100
AcDbEntity
  8
部品1
100
AcDbLine
 10
9860.68670863213
 20
9718.356218076195
 30
0.0
 11
10715.18670863213
 21
9718.356218076177
 31
0.0
  0
LINE
  5
18BBC
330
747D
100
AcDbEntity
  8
細線
 48
50.0
100
AcDbLine
 10
10714.68670863213
 20
9266.356218076181
 30
0.0
 11
9861.686708632129
 21
9716.35621807618
 31
0.0
  0
LINE
  5
18BBD
330
747D
100
AcDbEntity
  8
部品1
100
AcDbLine
 10
9861.686708632127
 20
9266.356218076188
 30
0.0
 11
10714.68670863213
 21
9266.356218076181
 31
0.0
  0
LINE
  5
18BBE
330
747D
100
AcDbEntity
  8
部品1
100
AcDbLine
 10
9861.686708632129
 20
9716.356218076185
 30
0.0
 11
10714.68670863213
 21
9716.356218076178
 31
0.0
  0
LINE
  5
18BBF
330
747D
100
AcDbEntity
  8
細線
 48
50.0
100
AcDbLine
 10
10714.68670863213
 20
9716.356218076178
 30
0.0
 11
9861.686708632127
 21
9266.356218076188
 31
0.0
  0
DIMENSION
  5
18BC0
330
747D
100
AcDbEntity
  8
寸法
100
AcDbDimension
  2
*D11
 10
10636.11793507571
 20
8973.133563275212
 30
0.0
 11
10241.03377075039
 21
8973.133563275212
 31
0.0
 70
   160
 71
     5
 42
853.0000000000109
  3
INABA_S40G
100
AcDbAlignedDimension
 13
9861.686708632129
 23
9266.356218076188
 33
0.0
 14
10714.68670863214
 24
9266.356218076181
 34
0.0
100
AcDbRotatedDimension
1001
ACAD
1000
DSTYLE
1002
{
1002
}
  0
LINE
  5
18BC1
330
747D
100
AcDbEntity
  8
破線
 48
10.0
100
AcDbLine
 10
10663.18670863209
 20
8036.356218076097
 30
0.0
 11
10008.68670863215
 21
8036.35621807607
 31
0.0
  0
DIMENSION
  5
18BC3
330
747D
100
AcDbEntity
  8
寸法
100
AcDbDimension
  2
*D12
 10
11390.61305436651
 20
7956.356218076169
 30
0.0
 11
11390.61305436651
 21
7578.494751171307
 31
0.0
 70
   160
 71
     5
 42
54.99999999999636
  3
INABA_S40G
100
AcDbAlignedDimension
 13
10743.1867086321
 23
8011.356218076166
 33
0.0
 14
10743.1867086321
 24
7956.356218076169
 34
0.0
 50
90.0
100
AcDbRotatedDimension
1001
ACAD
1000
DSTYLE
1002
{
1002
}
  0
LINE
  5
18BC4
330
747D
100
AcDbEntity
  8
部品1
100
AcDbLine
 10
8588.186708632091
 20
9746.35621807605
 30
0.0
 11
8588.186708632097
 21
9718.356218076049
 31
0.0
  0
LINE
  5
18BC5
330
747D
100
AcDbEntity
  8
部品1
100
AcDbLine
 10
8588.186708632129
 20
9746.356218076082
 30
0.0
 11
8588.186708632129
 21
9718.356218076081
 31
0.0
  0
LINE
  5
18BC6
330
747D
100
AcDbEntity
  8
部品1
100
AcDbLine
 10
8561.186708632098
 20
9691.356218076053
 30
0.0
 11
8533.186708632097
 21
9691.356218076053
 31
0.0
  0
LINE
  5
18BC7
330
747D
100
AcDbEntity
  8
部品1
100
AcDbLine
 10
8561.186708632105
 20
9271.356218076054
 30
0.0
 11
8533.186708632104
 21
9271.356218076054
 31
0.0
  0
LINE
  5
18BC8
330
747D
100
AcDbEntity
  8
部品1
 48
50.0
100
AcDbLine
 10
8561.686708632128
 20
9716.356218076079
 30
0.0
 11
8561.686708632128
 21
9266.356218076078
 31
0.0
  0
LINE
  5
18BC9
330
747D
100
AcDbEntity
  8
部品1
 48
50.0
100
AcDbLine
 10
8589.686708632102
 20
8012.856218076098
 30
0.0
 11
8561.186708632105
 21
7984.3562180761
 31
0.0
  0
LINE
  5
18BCA
330
747D
100
AcDbEntity
  8
部品1
100
AcDbLine
 10
8533.186708632092
 20
9746.35621807605
 30
0.0
 11
8533.186708632122
 21
7956.356218076038
 31
0.0
  0
LINE
  5
18BCB
330
747D
100
AcDbEntity
  8
部品1
100
AcDbLine
 10
8561.186708632105
 20
7984.3562180761
 30
0.0
 11
8561.18670863213
 21
9718.356218076081
 31
0.0
  0
LINE
  5
18BCC
330
747D
100
AcDbEntity
  8
部品1
100
AcDbLine
 10
8589.686708632106
 20
9266.356218076181
 30
0.0
 11
8589.686708632122
 21
8012.856218076118
 31
0.0
  0
LINE
  5
18BCD
330
747D
100
AcDbEntity
  8
破線
 48
10.0
100
AcDbLine
 10
8613.186708632104
 20
9266.356218076181
 30
0.0
 11
8613.186708632118
 21
8036.356218076001
 31
0.0
  0
LINE
  5
18BCF
330
747D
100
AcDbEntity
  8
部品1
100
AcDbLine
 10
8561.18670863213
 20
9718.356218076081
 30
0.0
 11
9835.686708632126
 21
9718.356218076198
 31
0.0
  0
LINE
  5
18BD0
330
747D
100
AcDbEntity
  8
部品1
100
AcDbLine
 10
8533.186708632129
 20
9746.356218076082
 30
0.0
 11
10743.18670863213
 21
9746.356218076178
 31
0.0
  0
LINE
  5
18BD1
330
747D
100
AcDbEntity
  8
部品1
100
AcDbLine
 10
8561.686708632128
 20
9266.356218076081
 30
0.0
 11
9834.686708632126
 21
9266.356218076188
 31
0.0
  0
LINE
  5
18BD2
330
747D
100
AcDbEntity
  8
細線
 48
50.0
100
AcDbLine
 10
9834.68670863213
 20
9716.356218076185
 30
0.0
 11
8561.686708632128
 21
9266.356218076081
 31
0.0
  0
LINE
  5
18BD3
330
747D
100
AcDbEntity
  8
部品1
100
AcDbLine
 10
8561.686708632128
 20
9716.356218076082
 30
0.0
 11
9834.68670863213
 21
9716.356218076187
 31
0.0
  0
LINE
  5
18BD4
330
747D
100
AcDbEntity
  8
細線
 48
50.0
100
AcDbLine
 10
9834.686708632126
 20
9266.356218076188
 30
0.0
 11
8561.686708632128
 21
9716.356218076082
 31
0.0
  0
DIMENSION
  5
18BD5
330
747D
100
AcDbEntity
  8
寸法
100
AcDbDimension
  2
*D13
 10
9756.11793507574
 20
8973.133563275212
 30
0.0
 11
9097.263485208511
 21
8973.133563275212
 31
0.0
 70
   160
 71
     5
 42
1273.000000000011
  3
INABA_S40G
100
AcDbAlignedDimension
 13
8561.686708632128
 23
9266.356218076081
 33
0.0
 14
9834.686708632141
 24
9266.356218076074
 34
0.0
100
AcDbRotatedDimension
1001
ACAD
1000
DSTYLE
1002
{
1002
}
  0
LINE
  5
18BD6
330
747D
100
AcDbEntity
  8
破線
 48
10.0
100
AcDbLine
 10
9958.686708632148
 20
8036.356218076063
 30
0.0
 11
9317.686708632143
 21
8036.356218076035
 31
0.0
  0
LINE
  5
18BD7
330
747D
100
AcDbEntity
  8
部品1
100
AcDbLine
 10
10686.68670863209
 20
8012.856218076098
 30
0.0
 11
8589.686708632006
 21
8012.856218076001
 31
0.0
  0
DIMENSION
  5
18BD8
330
747D
100
AcDbEntity
  8
寸法
100
AcDbDimension
  2
*D14
 10
8588.186708632129
 20
10049.40181265166
 30
0.0
 11
8224.701427257853
 21
10049.40181265166
 31
0.0
 70
   160
 71
     5
 42
55.00000000003637
  3
INABA_S40G
100
AcDbAlignedDimension
 13
8533.186708632092
 23
9746.356218076082
 33
0.0
 14
8588.186708632129
 24
9746.356218076082
 34
0.0
100
AcDbRotatedDimension
1001
ACAD
1000
DSTYLE
1002
{
1002
}
  0
DIMENSION
  5
18BD9
330
747D
100
AcDbEntity
  8
寸法
100
AcDbDimension
  2
*D15
 10
11390.61305436654
 20
9691.35621807618
 30
0.0
 11
11390.61305436654
 21
10054.84149945041
 31
0.0
 70
   160
 71
     5
 42
54.99999999999636
  3
INABA_S40G
100
AcDbAlignedDimension
 13
10743.18670863213
 23
9746.356218076178
 33
0.0
 14
10743.18670863213
 24
9691.35621807618
 34
0.0
 50
90.0
100
AcDbRotatedDimension
1001
ACAD
1000
DSTYLE
1002
{
1002
}
  0
DIMENSION
  5
18BDA
330
747D
100
AcDbEntity
  8
寸法
100
AcDbDimension
  2
*D16
 10
10743.18670863213
 20
10049.40181265176
 30
0.0
 11
11051.67199000637
 21
10049.40181265176
 31
0.0
 70
   160
 71
     5
 42
55.0
  3
INABA_S40G
100
AcDbAlignedDimension
 13
10688.18670863213
 23
9746.356218076178
 33
0.0
 14
10743.18670863213
 24
9746.356218076178
 34
0.0
100
AcDbRotatedDimension
1001
ACAD
1000
DSTYLE
1002
{
1002
}
  0
DIMENSION
  5
18BDB
330
747D
100
AcDbEntity
  8
寸法
100
AcDbDimension
  2
*D17
 10
10688.18670863213
 20
10049.40181265177
 30
0.0
 11
9638.186708632128
 21
10049.40181265177
 31
0.0
 70
   160
  1
5X420=<>
 71
     5
 42
2100.0
  3
INABA_S40G
100
AcDbAlignedDimension
 13
8588.186708632129
 23
9746.356218076082
 33
0.0
 14
10688.18670863213
 24
9746.356218076178
 34
0.0
100
AcDbRotatedDimension
1001
ACAD
1000
DSTYLE
1002
{
1002
}
  0
DIMENSION
  5
18BDC
330
747D
100
AcDbEntity
  8
寸法
100
AcDbDimension
  2
*D18
 10
11690.93794482328
 20
7956.356218076169
 30
0.0
 11
11690.93794482328
 21
8844.625165184035
 31
0.0
 70
   160
 71
     5
 42
1790.000000000006
  3
INABA_S40G
100
AcDbAlignedDimension
 13
10743.18670863213
 23
9746.356218076178
 33
0.0
 14
10743.1867086321
 24
7956.356218076169
 34
0.0
 50
90.0
100
AcDbRotatedDimension
1001
ACAD
1000
DSTYLE
1002
{
1002
}
  0
LINE
  5
18BDD
330
747D
100
AcDbEntity
  8
部品1
100
AcDbLine
 10
8533.186708632122
 20
2600.322253107032
 30
0.0
 11
8561.186708632122
 21
2600.322253107032
 31
0.0
  0
TEXT
  5
18BDE
330
747D
100
AcDbEntity
  8
部品1
100
AcDbText
 10
9346.976779255854
 20
1378.113180913545
 30
0.0
 40
135.0
  1
正面図
  7
STYLE2
100
AcDbText
  0
LINE
  5
18BE0
330
747D
100
AcDbEntity
  8
破線
 48
5.0
100
AcDbLine
 10
8528.186708632121
 20
2450.322253107028
 30
0.0
 11
8528.186708632121
 21
2295.322253107029
 31
0.0
  0
LINE
  5
18BE1
330
747D
100
AcDbEntity
  8
破線
 48
5.0
100
AcDbLine
 10
10748.18670863212
 20
2450.322253107028
 30
0.0
 11
10748.18670863212
 21
2295.322253107028
 31
0.0
  0
LINE
  5
18BE3
330
747D
100
AcDbEntity
  8
破線
 48
5.0
100
AcDbLine
 10
8508.186708632122
 20
2295.322253107029
 30
0.0
 11
8528.186708632125
 21
2295.322253107029
 31
0.0
  0
LINE
  5
18BE6
330
747D
100
AcDbEntity
  8
部品1
100
AcDbLine
 10
8528.186708632121
 20
2595.32225310703
 30
0.0
 11
8528.186708632121
 21
2450.322253107028
 31
0.0
  0
LINE
  5
18BE7
330
747D
100
AcDbEntity
  8
破線
 48
5.0
100
AcDbLine
 10
10768.18670863212
 20
2295.322253107028
 30
0.0
 11
10748.18670863212
 21
2295.322253107028
 31
0.0
  0
LINE
  5
18BEB
330
747D
100
AcDbEntity
  8
部品1
100
AcDbLine
 10
10748.18670863212
 20
2595.322253107029
 30
0.0
 11
10748.18670863212
 21
2450.322253107028
 31
0.0
  0
LINE
  5
18BEC
330
747D
100
AcDbEntity
  8
部品1
100
AcDbLine
 10
8933.186708632122
 20
2550.322253107028
 30
0.0
 11
8933.186708632122
 21
2450.322253107028
 31
0.0
  0
LINE
  5
18BED
330
747D
100
AcDbEntity
  8
部品1
100
AcDbLine
 10
10343.18670863212
 20
2550.322253107028
 30
0.0
 11
10343.18670863212
 21
2450.322253107028
 31
0.0
  0
LINE
  5
18BEE
330
747D
100
AcDbEntity
  8
部品1
100
AcDbLine
 10
10743.18670863212
 20
4744.998690738248
 30
0.0
 11
10743.18670863212
 21
2450.322253107028
 31
0.0
  0
LINE
  5
18BEF
330
747D
100
AcDbEntity
  8
部品1
100
AcDbLine
 10
8533.186708632122
 20
4782.348550151612
 30
0.0
 11
8533.186708632122
 21
2450.322253107028
 31
0.0
  0
LINE
  5
18BF0
330
747D
100
AcDbEntity
  8
部品1
100
AcDbLine
 10
8533.186708632122
 20
4690.322253107027
 30
0.0
 11
10743.18670863212
 21
4690.322253107027
 31
0.0
  0
LINE
  5
18BF1
330
747D
100
AcDbEntity
  8
部品1
100
AcDbLine
 10
8533.186708632122
 20
2550.322253107028
 30
0.0
 11
10743.18670863212
 21
2550.322253107028
 31
0.0
  0
LINE
  5
18BF2
330
747D
100
AcDbEntity
  8
Ｇ．Ｌ
100
AcDbLine
 10
3516.468135384894
 20
2450.322253107028
 30
0.0
 11
11392.69926166096
 21
2450.322253107028
 31
0.0
  0
TEXT
  5
18BF3
330
747D
100
AcDbEntity
  8
文字
 62
     7
 48
50.0
100
AcDbText
 10
13209.4053442172
 20
228.5435242569015
 30
0.0
 40
100.0
  1
○有効開口寸法 ： 1266×2025(mm)
  7
STYLE2
100
AcDbText
  0
TEXT
  5
18BF4
330
747D
100
AcDbEntity
  8
文字
 62
     7
 48
50.0
100
AcDbText
 10
13248.77747366447
 20
8380.013745883728
 30
0.0
 40
100.0
  1
17
  7
STYLE1
100
AcDbText
  0
TEXT
  5
18BF5
330
747D
100
AcDbEntity
  8
文字
 62
     7
 48
50.0
100
AcDbText
 10
13248.77747366447
 20
8550.013745883729
 30
0.0
 40
100.0
  1
16
  7
STYLE1
100
AcDbText
  0
TEXT
  5
18BF6
330
747D
100
AcDbEntity
  8
文字
 62
     7
 48
50.0
100
AcDbText
 10
15022.63965474517
 20
9060.013745883729
 30
0.0
 40
100.0
  1
F12            1.0
  7
STYLE1
100
AcDbText
  0
TEXT
  5
18BF7
330
747D
100
AcDbEntity
  8
文字
 62
     7
 48
50.0
100
AcDbText
 10
13583.11819016569
 20
9060.013745883736
 30
0.0
 40
100.0
  1
壁面扉枠左右
  7
STYLE1
100
AcDbText
  0
TEXT
  5
18BF8
330
747D
100
AcDbEntity
  8
文字
 62
     7
 48
50.0
100
AcDbText
 10
15022.63965474517
 20
9230.013745883729
 30
0.0
 40
100.0
  1
F12            1.0
  7
STYLE1
100
AcDbText
  0
TEXT
  5
18BF9
330
747D
100
AcDbEntity
  8
文字
 62
     7
 48
50.0
100
AcDbText
 10
15022.63965474515
 20
9400.013745883729
 30
0.0
 40
100.0
  1
F12            0.7
  7
STYLE1
100
AcDbText
  0
TEXT
  5
18BFA
330
747D
100
AcDbEntity
  8
文字
 62
     7
 48
50.0
100
AcDbText
 10
13583.11819016569
 20
9230.013745883736
 30
0.0
 40
100.0
  1
壁面扉敷居
  7
STYLE1
100
AcDbText
  0
TEXT
  5
18BFB
330
747D
100
AcDbEntity
  8
文字
 62
     7
 48
50.0
100
AcDbText
 10
13583.11819016569
 20
9400.013745883729
 30
0.0
 40
100.0
  1
壁面扉鴨居
  7
STYLE1
100
AcDbText
  0
LINE
  5
18BFC
330
747D
100
AcDbEntity
  8
仕様書枠
 48
50.0
100
AcDbLine
 10
16307.19999999999
 20
8689.600000000007
 30
0.0
 11
13127.2
 21
8689.600000000007
 31
0.0
  0
LINE
  5
18BFD
330
747D
100
AcDbEntity
  8
仕様書枠
 48
50.0
100
AcDbLine
 10
16307.19999999999
 20
8519.600000000009
 30
0.0
 11
13127.2
 21
8519.600000000009
 31
0.0
  0
TEXT
  5
18BFE
330
747D
100
AcDbEntity
  8
文字
 62
     7
 48
50.0
100
AcDbText
 10
13583.11819016569
 20
8380.013745883728
 30
0.0
 40
100.0
  1
アンカープレート
  7
STYLE1
100
AcDbText
  0
TEXT
  5
18BFF
330
747D
100
AcDbEntity
  8
文字
 62
     7
 48
50.0
100
AcDbText
 10
15022.63965474515
 20
8380.013745883726
 30
0.0
 40
100.0
  1
F12            2.3
  7
STYLE1
100
AcDbText
  0
LINE
  5
18C00
330
747D
100
AcDbEntity
  8
仕様書枠
 48
50.0
100
AcDbLine
 10
16307.2
 20
10049.6
 30
0.0
 11
13127.2
 21
10049.6
 31
0.0
  0
LINE
  5
18C01
330
747D
100
AcDbEntity
  8
仕様書枠
 48
50.0
100
AcDbLine
 10
16307.2
 20
11409.6
 30
0.0
 11
13127.2
 21
11409.6
 31
0.0
  0
LINE
  5
18C02
330
747D
100
AcDbEntity
  8
仕様書枠
 48
50.0
100
AcDbLine
 10
16307.19999999999
 20
8009.600000000007
 30
0.0
 11
16307.2
 21
11409.6
 31
0.0
  0
LINE
  5
18C03
330
747D
100
AcDbEntity
  8
仕様書枠
 48
50.0
100
AcDbLine
 10
14785.2
 20
11409.6
 30
0.0
 11
14785.2
 21
8349.600000000007
 31
0.0
  0
LINE
  5
18C04
330
747D
100
AcDbEntity
  8
仕様書枠
 48
50.0
100
AcDbLine
 10
13490.2
 20
11409.6
 30
0.0
 11
13490.20000000001
 21
8349.600000000007
 31
0.0
  0
LINE
  5
18C05
330
747D
100
AcDbEntity
  8
仕様書枠
 48
50.0
100
AcDbLine
 10
16307.2
 20
11239.6
 30
0.0
 11
13127.2
 21
11239.6
 31
0.0
  0
LINE
  5
18C06
330
747D
100
AcDbEntity
  8
仕様書枠
 48
50.0
100
AcDbLine
 10
16307.2
 20
10899.6
 30
0.0
 11
13127.2
 21
10899.6
 31
0.0
  0
LINE
  5
18C07
330
747D
100
AcDbEntity
  8
仕様書枠
 48
50.0
100
AcDbLine
 10
16307.2
 20
11069.6
 30
0.0
 11
13127.2
 21
11069.6
 31
0.0
  0
LINE
  5
18C08
330
747D
100
AcDbEntity
  8
仕様書枠
 48
50.0
100
AcDbLine
 10
16307.19999999999
 20
10559.6
 30
0.0
 11
13127.2
 21
10559.6
 31
0.0
  0
LINE
  5
18C09
330
747D
100
AcDbEntity
  8
仕様書枠
 48
50.0
100
AcDbLine
 10
16307.19999999999
 20
10389.6
 30
0.0
 11
13127.2
 21
10389.6
 31
0.0
  0
LINE
  5
18C0A
330
747D
100
AcDbEntity
  8
仕様書枠
 48
50.0
100
AcDbLine
 10
16307.19999999999
 20
10729.6
 30
0.0
 11
13127.2
 21
10729.6
 31
0.0
  0
TEXT
  5
18C0B
330
747D
100
AcDbEntity
  8
文字
 62
     7
 48
50.0
100
AcDbText
 10
13197.42518560407
 20
11270.01374588373
 30
0.0
 40
100.0
  1
品番
  7
STYLE1
100
AcDbText
  0
TEXT
  5
18C0C
330
747D
100
AcDbEntity
  8
文字
 62
     7
 48
50.0
100
AcDbText
 10
13271.19032244792
 20
11100.01374588373
 30
0.0
 40
100.0
  1
1
  7
STYLE1
100
AcDbText
  0
TEXT
  5
18C0D
330
747D
100
AcDbEntity
  8
文字
 62
     7
 48
50.0
100
AcDbText
 10
13271.19032244792
 20
10930.01374588373
 30
0.0
 40
100.0
  1
2
  7
STYLE1
100
AcDbText
  0
TEXT
  5
18C0E
330
747D
100
AcDbEntity
  8
文字
 62
     7
 48
50.0
100
AcDbText
 10
13271.19032244792
 20
10590.01374588373
 30
0.0
 40
100.0
  1
4
  7
STYLE1
100
AcDbText
  0
TEXT
  5
18C0F
330
747D
100
AcDbEntity
  8
文字
 62
     7
 48
50.0
100
AcDbText
 10
13271.19032244792
 20
10760.01374588373
 30
0.0
 40
100.0
  1
3
  7
STYLE1
100
AcDbText
  0
TEXT
  5
18C10
330
747D
100
AcDbEntity
  8
文字
 62
     7
 48
50.0
100
AcDbText
 10
13732.03840939434
 20
11270.01374588373
 30
0.0
 40
100.0
  1
部　　品　　名
  7
STYLE1
100
AcDbText
  0
TEXT
  5
18C11
330
747D
100
AcDbEntity
  8
文字
 62
     7
 48
50.0
100
AcDbText
 10
14859.79774614482
 20
11270.01374588373
 30
0.0
 40
100.0
  1
材料（材質）　　単位mm
  7
STYLE1
100
AcDbText
  0
TEXT
  5
18C12
330
747D
100
AcDbEntity
  8
文字
 62
     7
 48
50.0
100
AcDbText
 10
13583.11819016569
 20
11100.01374588373
 30
0.0
 40
100.0
  1
土台枠
  7
STYLE1
100
AcDbText
  0
TEXT
  5
18C13
330
747D
100
AcDbEntity
  8
文字
 62
     7
 48
50.0
100
AcDbText
 10
13583.1181901657
 20
10760.01374588373
 30
0.0
 40
100.0
  1
柱
  7
STYLE1
100
AcDbText
  0
TEXT
  5
18C14
330
747D
100
AcDbEntity
  8
文字
 62
     7
 48
50.0
100
AcDbText
 10
13583.11819016569
 20
10420.01374588373
 30
0.0
 40
100.0
  1
桁前後
  7
STYLE1
100
AcDbText
  0
TEXT
  5
18C15
330
747D
100
AcDbEntity
  8
文字
 62
     7
 48
50.0
100
AcDbText
 10
13271.19032244792
 20
10420.01374588373
 30
0.0
 40
100.0
  1
5
  7
STYLE1
100
AcDbText
  0
TEXT
  5
18C16
330
747D
100
AcDbEntity
  8
文字
 62
     7
 48
50.0
100
AcDbText
 10
13583.11819016569
 20
10250.01374588373
 30
0.0
 40
100.0
  1
妻板左右
  7
STYLE1
100
AcDbText
  0
TEXT
  5
18C17
330
747D
100
AcDbEntity
  8
文字
 62
     7
 48
50.0
100
AcDbText
 10
13248.77747366447
 20
9570.013745883729
 30
0.0
 40
100.0
  1
10
  7
STYLE1
100
AcDbText
  0
TEXT
  5
18C18
330
747D
100
AcDbEntity
  8
文字
 62
     7
 48
50.0
100
AcDbText
 10
13583.11819016568
 20
9570.013745883729
 30
0.0
 40
100.0
  1
壁パネル
  7
STYLE1
100
AcDbText
  0
TEXT
  5
18C19
330
747D
100
AcDbEntity
  8
文字
 62
     7
 48
50.0
100
AcDbText
 10
13583.11819016569
 20
9910.01374588373
 30
0.0
 40
100.0
  1
屋根パネル
  7
STYLE1
100
AcDbText
  0
TEXT
  5
18C1A
330
747D
100
AcDbEntity
  8
文字
 62
     7
 48
50.0
100
AcDbText
 10
13583.11819016569
 20
10080.01374588373
 30
0.0
 40
100.0
  1
鼻隠シ前後
  7
STYLE1
100
AcDbText
  0
TEXT
  5
18C1B
330
747D
100
AcDbEntity
  8
文字
 62
     7
 48
50.0
100
AcDbText
 10
13271.19032244792
 20
9910.01374588373
 30
0.0
 40
100.0
  1
8
  7
STYLE1
100
AcDbText
  0
TEXT
  5
18C1C
330
747D
100
AcDbEntity
  8
文字
 62
     7
 48
50.0
100
AcDbText
 10
13271.19032244792
 20
9740.013745883729
 30
0.0
 40
100.0
  1
9
  7
STYLE1
100
AcDbText
  0
TEXT
  5
18C1D
330
747D
100
AcDbEntity
  8
文字
 62
     7
 48
50.0
100
AcDbText
 10
13271.19032244792
 20
10080.01374588373
 30
0.0
 40
100.0
  1
7
  7
STYLE1
100
AcDbText
  0
TEXT
  5
18C1E
330
747D
100
AcDbEntity
  8
文字
 62
     7
 48
50.0
100
AcDbText
 10
13271.19032244792
 20
10250.01374588373
 30
0.0
 40
100.0
  1
6
  7
STYLE1
100
AcDbText
  0
LINE
  5
18C1F
330
747D
100
AcDbEntity
  8
仕様書枠
 48
50.0
100
AcDbLine
 10
16307.19999999999
 20
9709.600000000001
 30
0.0
 11
13127.2
 21
9709.600000000001
 31
0.0
  0
LINE
  5
18C20
330
747D
100
AcDbEntity
  8
仕様書枠
 48
50.0
100
AcDbLine
 10
16307.19999999999
 20
9369.600000000001
 30
0.0
 11
13127.2
 21
9369.600000000001
 31
0.0
  0
LINE
  5
18C21
330
747D
100
AcDbEntity
  8
仕様書枠
 48
50.0
100
AcDbLine
 10
16307.19999999999
 20
9539.6
 30
0.0
 11
13127.2
 21
9539.6
 31
0.0
  0
LINE
  5
18C22
330
747D
100
AcDbEntity
  8
仕様書枠
 48
50.0
100
AcDbLine
 10
16307.2
 20
10219.6
 30
0.0
 11
13127.2
 21
10219.6
 31
0.0
  0
LINE
  5
18C23
330
747D
100
AcDbEntity
  8
仕様書枠
 48
50.0
100
AcDbLine
 10
16307.2
 20
9879.600000000001
 30
0.0
 11
13127.2
 21
9879.600000000001
 31
0.0
  0
TEXT
  5
18C24
330
747D
100
AcDbEntity
  8
文字
 62
     7
 48
50.0
100
AcDbText
 10
13248.77747366447
 20
9400.013745883729
 30
0.0
 40
100.0
  1
11
  7
STYLE1
100
AcDbText
  0
LINE
  5
18C25
330
747D
100
AcDbEntity
  8
仕様書枠
 48
50.0
100
AcDbLine
 10
16307.19999999999
 20
9199.600000000001
 30
0.0
 11
13127.2
 21
9199.600000000001
 31
0.0
  0
LINE
  5
18C26
330
747D
100
AcDbEntity
  8
仕様書枠
 48
50.0
100
AcDbLine
 10
16307.19999999999
 20
8859.6
 30
0.0
 11
13127.2
 21
8859.600000000005
 31
0.0
  0
TEXT
  5
18C27
330
747D
100
AcDbEntity
  8
文字
 62
     7
 48
50.0
100
AcDbText
 10
13248.77747366448
 20
9060.013745883729
 30
0.0
 40
100.0
  1
13
  7
STYLE1
100
AcDbText
  0
TEXT
  5
18C28
330
747D
100
AcDbEntity
  8
文字
 62
     7
 48
50.0
100
AcDbText
 10
13248.77747366448
 20
9230.013745883729
 30
0.0
 40
100.0
  1
12
  7
STYLE1
100
AcDbText
  0
TEXT
  5
18C29
330
747D
100
AcDbEntity
  8
文字
 62
     7
 48
50.0
100
AcDbText
 10
15022.63965474517
 20
11100.01374588373
 30
0.0
 40
100.0
  1
F12            1.2
  7
STYLE1
100
AcDbText
  0
TEXT
  5
18C2A
330
747D
100
AcDbEntity
  8
文字
 62
     7
 48
50.0
100
AcDbText
 10
15022.63965474518
 20
10760.01374588373
 30
0.0
 40
100.0
  1
F12            1.0
  7
STYLE1
100
AcDbText
  0
TEXT
  5
18C2B
330
747D
100
AcDbEntity
  8
文字
 62
     7
 48
50.0
100
AcDbText
 10
15022.63965474516
 20
10420.01374588373
 30
0.0
 40
100.0
  1
Y10            1.0
  7
STYLE1
100
AcDbText
  0
TEXT
  5
18C2C
330
747D
100
AcDbEntity
  8
文字
 62
     7
 48
50.0
100
AcDbText
 10
15022.63965474516
 20
10250.01374588373
 30
0.0
 40
100.0
  1
Y10            0.7
  7
STYLE1
100
AcDbText
  0
TEXT
  5
18C2D
330
747D
100
AcDbEntity
  8
文字
 62
     7
 48
50.0
100
AcDbText
 10
15022.63965474516
 20
10080.01374588373
 30
0.0
 40
100.0
  1
Y10            0.7
  7
STYLE1
100
AcDbText
  0
TEXT
  5
18C2E
330
747D
100
AcDbEntity
  8
文字
 62
     7
 48
50.0
100
AcDbText
 10
15022.63965474517
 20
9910.01374588373
 30
0.0
 40
100.0
  1
Y10            0.5
  7
STYLE1
100
AcDbText
  0
TEXT
  5
18C2F
330
747D
100
AcDbEntity
  8
文字
 62
     7
 48
50.0
100
AcDbText
 10
15022.63965474515
 20
9570.013745883729
 30
0.0
 40
100.0
  1
F12            0.7
  7
STYLE1
100
AcDbText
  0
LINE
  5
18C30
330
747D
100
AcDbEntity
  8
仕様書枠
 48
50.0
100
AcDbLine
 10
16307.19999999999
 20
8349.600000000007
 30
0.0
 11
13127.19999999999
 21
8349.600000000007
 31
0.0
  0
LINE
  5
18C31
330
747D
100
AcDbEntity
  8
仕様書枠
 48
50.0
100
AcDbLine
 10
16307.19999999999
 20
8179.600000000007
 30
0.0
 11
13127.19999999999
 21
8179.600000000007
 31
0.0
  0
TEXT
  5
18C32
330
747D
100
AcDbEntity
  8
文字
 62
     7
 48
50.0
100
AcDbText
 10
13229.83081656554
 20
8210.013745883737
 30
0.0
 40
100.0
  1
F12→溶融亜鉛めっき鋼板(JIS G 3302)
  7
STYLE1
100
AcDbText
  0
TEXT
  5
18C33
330
747D
100
AcDbEntity
  8
文字
 62
     7
 48
50.0
100
AcDbText
 10
13229.83081656554
 20
8040.013745883737
 30
0.0
 40
100.0
  1
Y10→溶融亜鉛-5％アルミニウム合金めっき鋼板(JIS G 3317)
 41
0.9
  7
STYLE1
100
AcDbText
  0
LINE
  5
18C34
330
747D
100
AcDbEntity
  8
仕様書枠
 48
50.0
100
AcDbLine
 10
13127.2
 20
11409.6
 30
0.0
 11
13127.19999999999
 21
8009.600000000007
 31
0.0
  0
LINE
  5
18C35
330
747D
100
AcDbEntity
  8
仕様書枠
 48
50.0
100
AcDbLine
 10
16307.19999999999
 20
9029.6
 30
0.0
 11
13127.2
 21
9029.600000000003
 31
0.0
  0
TEXT
  5
18C36
330
747D
100
AcDbEntity
  8
文字
 62
     7
 48
50.0
100
AcDbText
 10
13583.1181901657
 20
10590.01374588373
 30
0.0
 40
100.0
  1
床パネル
 41
0.9
  7
STYLE1
100
AcDbText
  0
TEXT
  5
18C37
330
747D
100
AcDbEntity
  8
文字
 62
     7
 48
50.0
100
AcDbText
 10
13583.11819016569
 20
10930.01374588373
 30
0.0
 40
100.0
  1
根太
  7
STYLE1
100
AcDbText
  0
TEXT
  5
18C38
330
747D
100
AcDbEntity
  8
文字
 62
     7
 48
50.0
100
AcDbText
 10
13248.77747366448
 20
8890.013745883729
 30
0.0
 40
100.0
  1
14
  7
STYLE1
100
AcDbText
  0
TEXT
  5
18C39
330
747D
100
AcDbEntity
  8
文字
 62
     7
 48
50.0
100
AcDbText
 10
15022.63965474516
 20
10930.01374588373
 30
0.0
 40
100.0
  1
F12            1.2
  7
STYLE1
100
AcDbText
  0
TEXT
  5
18C3A
330
747D
100
AcDbEntity
  8
文字
 62
     7
 48
50.0
100
AcDbText
 10
15022.63965474517
 20
10590.01374588373
 30
0.0
 40
100.0
  1
F12            1.0
  7
STYLE1
100
AcDbText
  0
TEXT
  5
18C3B
330
747D
100
AcDbEntity
  8
文字
 62
     7
 48
50.0
100
AcDbText
 10
15022.63965474515
 20
8890.013745883729
 30
0.0
 40
100.0
  1
F12            0.7
  7
STYLE1
100
AcDbText
  0
TEXT
  5
18C3C
330
747D
100
AcDbEntity
  8
文字
 62
     7
 48
50.0
100
AcDbText
 10
13583.11819016568
 20
8890.013745883733
 30
0.0
 40
100.0
  1
正面パネル
  7
STYLE1
100
AcDbText
  0
TEXT
  5
18C3D
330
747D
100
AcDbEntity
  8
文字
 62
     7
 48
50.0
100
AcDbText
 10
15022.63965474516
 20
8720.013745883729
 30
0.0
 40
100.0
  1
F12            0.8
  7
STYLE1
100
AcDbText
  0
TEXT
  5
18C3E
330
747D
100
AcDbEntity
  8
文字
 62
     7
 48
50.0
100
AcDbText
 10
13583.11819016569
 20
8720.013745883733
 30
0.0
 40
100.0
  1
扉
  7
STYLE1
100
AcDbText
  0
LINE
  5
18C3F
330
747D
100
AcDbEntity
  8
仕様書枠
 48
50.0
100
AcDbLine
 10
16307.19999999999
 20
8009.600000000007
 30
0.0
 11
13127.19999999999
 21
8009.600000000007
 31
0.0
  0
TEXT
  5
18C40
330
747D
100
AcDbEntity
  8
文字
 62
     7
 48
50.0
100
AcDbText
 10
13248.77747366447
 20
8720.013745883729
 30
0.0
 40
100.0
  1
15
  7
STYLE1
100
AcDbText
  0
TEXT
  5
18C41
330
747D
100
AcDbEntity
  8
文字
 62
     7
 48
50.0
100
AcDbText
 10
13583.11819016569
 20
9740.013745883729
 30
0.0
 40
100.0
  1
母屋中
  7
STYLE1
100
AcDbText
  0
TEXT
  5
18C42
330
747D
100
AcDbEntity
  8
文字
 62
     7
 48
50.0
100
AcDbText
 10
15022.63965474515
 20
9740.013745883725
 30
0.0
 40
100.0
  1
F12            1.0
  7
STYLE1
100
AcDbText
  0
TEXT
  5
18C43
330
747D
100
AcDbEntity
  8
文字
 62
     7
 48
50.0
100
AcDbText
 10
15022.63965474516
 20
8550.013745883729
 30
0.0
 40
100.0
  1
F12            0.6
  7
STYLE1
100
AcDbText
  0
TEXT
  5
18C44
330
747D
100
AcDbEntity
  8
文字
 62
     7
 48
50.0
100
AcDbText
 10
13583.11819016569
 20
8550.013745883733
 30
0.0
 40
100.0
  1
棚板
  7
STYLE1
100
AcDbText
  0
DIMENSION
  5
18C45
330
747D
100
AcDbEntity
  8
寸法
 48
50.0
100
AcDbDimension
  2
*D19
 10
8533.186708632122
 20
5323.979706686331
 30
0.0
 11
9627.831445702636
 21
5323.979706686331
 31
0.0
 70
   160
  1
柱外寸法<>
 71
     5
 42
2210.0
  3
INABA_S40G
100
AcDbAlignedDimension
 13
10743.18670863212
 23
4872.132932718679
 33
0.0
 14
8533.186708632122
 24
4921.323871230004
 34
0.0
100
AcDbRotatedDimension
1001
ACAD
1000
DSTYLE
1002
{
1070
   174
1070
     0
1070
   272
1070
     1
1070
   288
1070
     0
1070
   341
1005
0
1002
}
  0
DIMENSION
  5
18C46
330
747D
100
AcDbEntity
  8
寸法
 48
50.0
100
AcDbDimension
  2
*D20
 10
8473.186708632121
 20
5543.181540360624
 30
0.0
 11
9707.530562724592
 21
5543.181540360624
 31
0.0
 70
   160
 71
     5
 42
2350.0
  3
INABA_S40G
100
AcDbAlignedDimension
 13
10823.18670863212
 23
4870.322253107028
 33
0.0
 14
8473.186708632121
 24
4925.322253107031
 34
0.0
100
AcDbRotatedDimension
1001
ACAD
1000
DSTYLE
1002
{
1070
   174
1070
     0
1070
   272
1070
     1
1070
   288
1070
     0
1070
   341
1005
0
1002
}
  0
DIMENSION
  5
18C47
330
747D
100
AcDbEntity
  8
寸法
 48
50.0
100
AcDbDimension
  2
*D21
 10
10823.18670863212
 20
5323.979706686331
 30
0.0
 11
11029.23395272661
 21
5323.979706686331
 31
0.0
 70
   160
 71
     5
 42
80.0
  3
INABA_S40G
100
AcDbAlignedDimension
 13
10743.18670863212
 23
4872.132932718679
 33
0.0
 14
10823.18670863212
 24
4870.322253107028
 34
0.0
100
AcDbRotatedDimension
1001
ACAD
1000
DSTYLE
1002
{
1070
   174
1070
     0
1070
   272
1070
     1
1070
   288
1070
     0
1070
   341
1005
0
1002
}
  0
DIMENSION
  5
18C48
330
747D
100
AcDbEntity
  8
寸法
 48
50.0
100
AcDbDimension
  2
*D22
 10
8473.186708632121
 20
5323.979706686331
 30
0.0
 11
8163.548913356532
 21
5323.979706686331
 31
0.0
 70
   160
 71
     5
 42
60.0
  3
INABA_S40G
100
AcDbAlignedDimension
 13
8533.186708632122
 23
4921.323871230004
 33
0.0
 14
8473.186708632121
 24
4925.322253107031
 34
0.0
100
AcDbRotatedDimension
1001
ACAD
1000
DSTYLE
1002
{
1070
   174
1070
     0
1070
   272
1070
     1
1070
   288
1070
     0
1070
   341
1005
0
1002
}
  0
LINE
  5
18C49
330
747D
100
AcDbEntity
  8
部品1
100
AcDbLine
 10
9462.731694989086
 20
5057.072735407
 30
0.0
 11
9788.186708632123
 21
5039.554676448139
 31
0.0
  0
LINE
  5
18C4A
330
747D
100
AcDbEntity
  8
部品1
 48
50.0
100
AcDbLine
 10
9488.186708632122
 20
5055.754676448138
 30
0.0
 11
9788.186708632123
 21
5055.754676448138
 31
0.0
  0
LINE
  5
18C4B
330
747D
100
AcDbEntity
  8
部品1
 48
50.0
100
AcDbLine
 10
9788.186708632123
 20
5055.754676448138
 30
0.0
 11
9788.186708632123
 21
5039.554676448139
 31
0.0
  0
TEXT
  5
18C4C
330
747D
100
AcDbEntity
  8
部品1
 48
50.0
100
AcDbText
 10
9476.454543855849
 20
5091.638698600571
 30
0.0
 40
120.0
  1
1000
  7
STYLE1
100
AcDbText
  0
LINE
  5
18C4D
330
747D
100
AcDbEntity
  8
細線
 48
50.0
100
AcDbLine
 10
8478.986606970222
 20
4803.477823250525
 30
0.0
 11
10808.99027140086
 21
4763.668504276032
 31
0.0
  0
LINE
  5
18C4E
330
747D
100
AcDbEntity
  8
細線
 48
50.0
100
AcDbLine
 10
8474.226131732937
 20
4896.339334948389
 30
0.0
 11
10819.8621164781
 21
4840.715130307561
 31
0.0
  0
LINE
  5
18C4F
330
747D
100
AcDbEntity
  8
部品1
100
AcDbLine
 10
8488.529273234075
 20
4783.103278175993
 30
0.0
 11
10797.85040917197
 21
4744.074852941788
 31
0.0
  0
LINE
  5
18C50
330
747D
100
AcDbEntity
  8
部品1
100
AcDbLine
 10
8480.731694989085
 20
4924.039988441294
 30
0.0
 11
10815.79858549359
 21
4868.963050816166
 31
0.0
  0
DIMENSION
  5
18C51
330
747D
100
AcDbEntity
  8
寸法
 48
50.0
100
AcDbDimension
  2
*D23
 10
7912.578301863752
 20
4799.667511980357
 30
0.0
 11
7923.243777122677
 21
5170.514175222063
 31
0.0
 70
   161
 71
     5
 42
141.0000000000018
  3
INABA_S40G
100
AcDbAlignedDimension
 13
8492.582728790701
 23
4924.045001941707
 33
0.0
 14
8488.529273234075
 24
4783.103278175993
 34
0.0
1001
ACAD
1000
DSTYLE
1002
{
1070
   174
1070
     0
1070
   272
1070
     1
1070
   288
1070
     0
1070
   341
1005
0
1002
}
  0
ARC
  5
18C52
330
747D
100
AcDbEntity
  8
部品1
100
AcDbCircle
 10
8479.223800503488
 20
4804.136412065931
 30
0.0
 40
0.7
100
AcDbArc
 50
181.0932240293156
 51
260.1877540314859
  0
ARC
  5
18C53
330
747D
100
AcDbEntity
  8
部品1
100
AcDbCircle
 10
8474.451126905879
 20
4897.00219026605
 30
0.0
 40
0.7
100
AcDbArc
 50
181.0932240292114
 51
260.1877540314859
  0
ARC
  5
18C54
330
747D
100
AcDbEntity
  8
部品1
100
AcDbCircle
 10
8473.820572502857
 20
4893.356315728652
 30
0.0
 40
3.0
100
AcDbArc
 50
1.093224029315636
 51
80.18775403148588
  0
ARC
  5
18C55
330
747D
100
AcDbEntity
  8
部品1
100
AcDbCircle
 10
8478.593246100464
 20
4800.490537528535
 30
0.0
 40
3.0
100
AcDbArc
 50
1.093224029315636
 51
80.18775403148588
  0
ARC
  5
18C56
330
747D
100
AcDbEntity
  8
部品1
 48
50.0
100
AcDbCircle
 10
8488.793378475664
 20
4790.098294146053
 30
0.0
 40
7.0
100
AcDbArc
 50
181.0932240293156
 51
267.8377559869488
  0
ARC
  5
18C57
330
747D
100
AcDbEntity
  8
部品1
 48
50.0
100
AcDbCircle
 10
8480.369720373568
 20
4917.049353679147
 30
0.0
 40
7.0
100
AcDbArc
 50
87.03587545303969
 51
181.0932240293156
  0
LINE
  5
18C58
330
747D
100
AcDbEntity
  8
部品1
 48
50.0
100
AcDbLine
 10
8481.592700026892
 20
4800.547775131716
 30
0.0
 11
8481.794652647325
 21
4789.964739738625
 31
0.0
  0
LINE
  5
18C59
330
747D
100
AcDbEntity
  8
部品1
 48
50.0
100
AcDbLine
 10
8476.820026429287
 20
4893.413553331837
 30
0.0
 11
8478.523927920651
 21
4804.123056625189
 31
0.0
  0
LINE
  5
18C5A
330
747D
100
AcDbEntity
  8
部品1
 48
50.0
100
AcDbLine
 10
8473.370994545229
 20
4916.91579927172
 30
0.0
 11
8473.75125432304
 21
4896.988834825307
 31
0.0
  0
LINE
  5
18C5B
330
747D
100
AcDbEntity
  8
細線
 48
50.0
100
AcDbLine
 10
8506.186708632121
 20
4922.721929482431
 30
0.0
 11
8500.897607076614
 21
4782.636296855078
 31
0.0
  0
ARC
  5
18C5C
330
747D
100
AcDbEntity
  8
部品1
100
AcDbCircle
 10
10808.81424444606
 20
4764.346010372819
 30
0.0
 40
0.7
100
AcDbArc
 50
275.0921697642102
 51
354.1866997666601
  0
ARC
  5
18C5D
330
747D
100
AcDbEntity
  8
部品1
100
AcDbCircle
 10
10819.67359019538
 20
4841.389265190742
 30
0.0
 40
0.7
100
AcDbArc
 50
275.0921697642102
 51
354.186699766558
  0
ARC
  5
18C5E
330
747D
100
AcDbEntity
  8
部品1
100
AcDbCircle
 10
10820.00199543798
 20
4837.703868333655
 30
0.0
 40
3.0
100
AcDbArc
 50
95.09216976441946
 51
174.186699766558
  0
ARC
  5
18C5F
330
747D
100
AcDbEntity
  8
部品1
100
AcDbCircle
 10
10809.14264968866
 20
4760.660613515729
 30
0.0
 40
3.0
100
AcDbArc
 50
95.0921697642102
 51
174.186699766558
  0
ARC
  5
18C60
330
747D
100
AcDbEntity
  8
部品1
 48
50.0
100
AcDbCircle
 10
10798.11451441355
 20
4751.069868911847
 30
0.0
 40
7.0
100
AcDbArc
 50
267.8377559869488
 51
354.186699766558
  0
ARC
  5
18C61
330
747D
100
AcDbEntity
  8
部品1
 48
50.0
100
AcDbCircle
 10
10815.43661087807
 20
4861.972416054021
 30
0.0
 40
7.0
100
AcDbArc
 50
354.186699766558
 51
87.03587545303969
  0
LINE
  5
18C62
330
747D
100
AcDbEntity
  8
部品1
 48
50.0
100
AcDbLine
 10
10806.15807801805
 20
4760.964475232631
 30
0.0
 11
10805.07851497831
 21
4750.360858239073
 31
0.0
  0
LINE
  5
18C63
330
747D
100
AcDbEntity
  8
部品1
 48
50.0
100
AcDbLine
 10
10817.01742376737
 20
4838.007730050556
 30
0.0
 11
10809.51064450254
 21
4764.275109305545
 31
0.0
  0
LINE
  5
18C64
330
747D
100
AcDbEntity
  8
部品1
 48
50.0
100
AcDbLine
 10
10822.40061144282
 20
4861.263405381246
 30
0.0
 11
10820.36999025185
 21
4841.318364123464
 31
0.0
  0
LINE
  5
18C65
330
747D
100
AcDbEntity
  8
細線
 48
50.0
100
AcDbLine
 10
10790.18670863212
 20
4870.289232142324
 30
0.0
 11
10785.43902574413
 21
4744.543459651579
 31
0.0
  0
DIMENSION
  5
18C66
330
747D
100
AcDbEntity
  8
寸法
100
AcDbDimension
  2
*D24
 10
11274.66469268832
 20
4870.32225310703
 30
0.0
 11
11274.66469268832
 21
3639.849788276777
 31
0.0
 70
   160
 71
     5
 42
2320.000000000002
  3
INABA_S40G
100
AcDbAlignedDimension
 13
10743.18670863212
 23
2550.322253107028
 33
0.0
 14
10823.1867086321
 24
4870.32225310703
 34
0.0
 50
90.0
100
AcDbRotatedDimension
1001
ACAD
1000
DSTYLE
1002
{
1070
   174
1070
     0
1070
   272
1070
     1
1070
   288
1070
     0
1070
   341
1005
0
1002
}
  0
DIMENSION
  5
18C67
330
747D
100
AcDbEntity
  8
寸法
100
AcDbDimension
  2
*D25
 10
7624.547326702764
 20
4925.322253107033
 30
0.0
 11
7624.547326702764
 21
3620.822253107028
 31
0.0
 70
   160
 71
     5
 42
2375.000000000005
  3
INABA_S40G
100
AcDbAlignedDimension
 13
8533.186708632122
 23
2550.322253107028
 33
0.0
 14
8473.186708632121
 24
4925.322253107033
 34
0.0
 50
90.0
100
AcDbRotatedDimension
1001
ACAD
1000
DSTYLE
1002
{
1070
   174
1070
     0
1070
   272
1070
     1
1070
   288
1070
     0
1070
   341
1005
0
1002
}
  0
DIMENSION
  5
18C68
330
747D
100
AcDbEntity
  8
寸法
100
AcDbDimension
  2
*D26
 10
7909.533999473826
 20
2600.322253107028
 30
0.0
 11
7909.533999473826
 21
3620.822253107028
 31
0.0
 70
   160
 71
     5
 42
2090.0
  3
INABA_S40G
100
AcDbAlignedDimension
 13
8533.186708632122
 23
4690.322253107027
 33
0.0
 14
8533.186708632122
 24
2600.322253107028
 34
0.0
 50
90.0
100
AcDbRotatedDimension
1001
ACAD
1000
DSTYLE
1002
{
1070
   174
1070
     0
1070
   272
1070
     1
1070
   288
1070
     0
1070
   341
1005
0
1002
}
  0
DIMENSION
  5
18C69
330
747D
100
AcDbEntity
  8
寸法
100
AcDbDimension
  2
*D27
 10
7909.533999473826
 20
2550.322253107028
 30
0.0
 11
7909.533999473824
 21
2244.275009012537
 31
0.0
 70
   160
 71
     5
 42
50.0
  3
INABA_S40G
100
AcDbAlignedDimension
 13
8533.186708632122
 23
2600.322253107028
 33
0.0
 14
8478.18670863212
 24
2550.322253107028
 34
0.0
 50
90.0
100
AcDbRotatedDimension
1001
ACAD
1000
DSTYLE
1002
{
1070
   174
1070
     0
1070
   272
1070
     1
1070
   288
1070
     0
1070
   341
1005
0
1002
}
  0
DIMENSION
  5
18C6A
330
747D
100
AcDbEntity
  8
寸法
100
AcDbDimension
  2
*D28
 10
7624.547326702764
 20
2450.322253107028
 30
0.0
 11
7624.547326702764
 21
2214.275009012538
 31
0.0
 70
   160
 71
     5
 42
100.0
  3
INABA_S40G
100
AcDbAlignedDimension
 13
8478.18670863212
 23
2550.322253107028
 33
0.0
 14
7909.533999473824
 24
2450.322253107028
 34
0.0
 50
90.0
100
AcDbRotatedDimension
1001
ACAD
1000
DSTYLE
1002
{
1070
   174
1070
     0
1070
   272
1070
     1
1070
   288
1070
     0
1070
   341
1005
0
1002
}
  0
TEXT
  5
18C6B
330
747D
100
AcDbEntity
  8
部品1
 48
50.0
100
AcDbText
 10
9954.087566520939
 20
4954.137440382289
 30
0.0
 40
120.0
  1
44
 50
90.0
  7
STYLE1
100
AcDbText
  0
LINE
  5
18F2D
330
747D
100
AcDbEntity
  8
補助
  6
PHANTOM
 62
   230
 48
50.0
100
AcDbLine
 10
140.0
 20
0.0
 30
0.0
 11
140.0
 21
11409.6
 31
0.0
  0
MTEXT
  5
19184
330
747D
100
AcDbEntity
  8
寸法
 62
     7
 48
50.0
100
AcDbMText
 10
9213.289245725265
 20
9332.59103627344
 30
0.0
 40
96.0
 41
0.0
 71
     5
 72
     1
  1
棚 3段
  7
STYLE1
 73
     1
 44
1.0
1001
ACAD
1000
MTEXTBEGIN
1070
    73
1070
     1
1070
    44
1040
1.0
1070
    74
1070
     0
1000
MTEXTEND
  0
LINE
  5
193A8
330
747D
100
AcDbEntity
  8
破線
  6
HIDDEN
 48
5.0
100
AcDbLine
 10
4519.226362534584
 20
2450.322253107029
 30
0.0
 11
4519.226362534584
 21
2200.322253107029
 31
0.0
  0
LINE
  5
193A9
330
747D
100
AcDbEntity
  8
破線
  6
HIDDEN
 48
5.0
100
AcDbLine
 10
4769.226362534584
 20
2450.322253107029
 30
0.0
 11
4769.226362534584
 21
2200.322253107029
 31
0.0
  0
LINE
  5
193AA
330
747D
100
AcDbEntity
  8
破線
  6
HIDDEN
 48
5.0
100
AcDbLine
 10
4519.226362534584
 20
2200.322253107029
 30
0.0
 11
4769.226362534584
 21
2200.322253107029
 31
0.0
  0
LINE
  5
193AB
330
747D
100
AcDbEntity
  8
破線
  6
HIDDEN
 48
5.0
100
AcDbLine
 10
6254.226362534584
 20
2450.322253107029
 30
0.0
 11
6254.226362534584
 21
2200.322253107029
 31
0.0
  0
LINE
  5
193AC
330
747D
100
AcDbEntity
  8
破線
  6
HIDDEN
 48
5.0
100
AcDbLine
 10
6504.226362534584
 20
2200.322253107029
 30
0.0
 11
6254.226362534584
 21
2200.322253107029
 31
0.0
  0
LINE
  5
193AD
330
747D
100
AcDbEntity
  8
破線
  6
HIDDEN
 48
5.0
100
AcDbLine
 10
6504.226362534584
 20
2450.322253107029
 30
0.0
 11
6504.226362534584
 21
2200.322253107029
 31
0.0
  0
DIMENSION
  5
193E8
330
747D
100
AcDbEntity
  8
寸法
 48
50.0
100
AcDbDimension
  2
*D29
 10
8408.186708632122
 20
1914.295269489616
 30
0.0
 11
8533.186708632122
 21
1914.295269489616
 31
0.0
 70
   160
 71
     5
 42
250.0
  3
INABA_S40G
100
AcDbAlignedDimension
 13
8658.186708632122
 23
2200.322253107028
 33
0.0
 14
8408.186708632122
 24
2200.322253107028
 34
0.0
100
AcDbRotatedDimension
  0
DIMENSION
  5
1943F
330
747D
100
AcDbEntity
  8
寸法
 48
50.0
100
AcDbDimension
  2
*D30
 10
4519.226362534584
 20
1914.275316573971
 30
0.0
 11
4644.226362534584
 21
1914.275316573971
 31
0.0
 70
   160
 71
     5
 42
250.0
  3
INABA_S40G
100
AcDbAlignedDimension
 13
4769.226362534584
 23
2200.322253107029
 33
0.0
 14
4519.226362534584
 24
2200.322253107029
 34
0.0
100
AcDbRotatedDimension
  0
DIMENSION
  5
19440
330
747D
100
AcDbEntity
  8
寸法
 48
50.0
100
AcDbDimension
  2
*D31
 10
4306.91127156936
 20
2450.322253107029
 30
0.0
 11
4306.911271569359
 21
2325.322253107029
 31
0.0
 70
   160
 71
     5
 42
250.0
  3
INABA_S40G
100
AcDbAlignedDimension
 13
4519.226362534584
 23
2200.322253107029
 33
0.0
 14
4519.226362534584
 24
2450.322253107029
 34
0.0
 50
90.0
100
AcDbRotatedDimension
1001
ACAD
1000
DSTYLE
1002
{
1070
   174
1070
     0
1070
   272
1070
     1
1070
   288
1070
     0
1070
   341
1005
0
1002
}
  0
LINE
  5
194A4
330
747D
100
AcDbEntity
  8
破線
 48
5.0
100
AcDbLine
 10
10618.18670863212
 20
2450.322253107029
 30
0.0
 11
10618.18670863212
 21
2200.322253107028
 31
0.0
  0
LINE
  5
194A5
330
747D
100
AcDbEntity
  8
破線
 48
5.0
100
AcDbLine
 10
10868.18670863212
 20
2450.322253107029
 30
0.0
 11
10868.18670863212
 21
2200.322253107028
 31
0.0
  0
LINE
  5
194A6
330
747D
100
AcDbEntity
  8
破線
 48
5.0
100
AcDbLine
 10
10868.18670863212
 20
2200.322253107028
 30
0.0
 11
10618.18670863212
 21
2200.322253107028
 31
0.0
  0
LINE
  5
194A7
330
747D
100
AcDbEntity
  8
破線
 48
5.0
100
AcDbLine
 10
8408.186708632122
 20
2200.322253107028
 30
0.0
 11
8658.186708632126
 21
2200.322253107028
 31
0.0
  0
LINE
  5
194A8
330
747D
100
AcDbEntity
  8
破線
 48
5.0
100
AcDbLine
 10
8408.186708632122
 20
2450.322253107029
 30
0.0
 11
8408.186708632122
 21
2200.322253107028
 31
0.0
  0
LINE
  5
194A9
330
747D
100
AcDbEntity
  8
破線
 48
5.0
100
AcDbLine
 10
8658.186708632122
 20
2450.322253107029
 30
0.0
 11
8658.186708632122
 21
2200.322253107028
 31
0.0
  0
LINE
  5
19802
330
747D
100
AcDbEntity
  8
部品1
 48
50.0
100
AcDbLine
 10
8635.186708632122
 20
3681.82225310703
 30
0.0
 11
8688.186708632121
 21
3681.82225310703
 31
0.0
  0
LINE
  5
19942
330
747D
100
AcDbEntity
  8
寸法
 48
50.0
100
AcDbLine
 10
9023.389714913916
 20
7734.392969644872
 30
0.0
 11
8971.983707003813
 21
7734.392969644872
 31
0.0
  0
LINE
  5
19943
330
747D
100
AcDbEntity
  8
寸法
 48
50.0
100
AcDbLine
 10
8971.983707003813
 20
7734.392969644872
 30
0.0
 11
8971.983707003813
 21
7765.703128297038
 31
0.0
  0
LINE
  5
19944
330
747D
100
AcDbEntity
  8
寸法
 48
50.0
100
AcDbLine
 10
8971.983707003813
 20
7765.703128297038
 30
0.0
 11
8942.22237501239
 21
7765.703128297038
 31
0.0
  0
LINE
  5
19945
330
747D
100
AcDbEntity
  8
寸法
 48
50.0
100
AcDbLine
 10
8942.22237501239
 20
7765.703128297038
 30
0.0
 11
8997.686710958864
 21
7803.282579225649
 31
0.0
  0
LINE
  5
19946
330
747D
100
AcDbEntity
  8
寸法
 48
50.0
100
AcDbLine
 10
9053.151046905339
 20
7765.703128297038
 30
0.0
 11
8997.686710958864
 21
7803.282579225649
 31
0.0
  0
LINE
  5
19947
330
747D
100
AcDbEntity
  8
寸法
 48
50.0
100
AcDbLine
 10
9023.389714913916
 20
7765.703128297038
 30
0.0
 11
9053.151046905339
 21
7765.703128297038
 31
0.0
  0
LINE
  5
19948
330
747D
100
AcDbEntity
  8
寸法
 48
50.0
100
AcDbLine
 10
9023.389714913916
 20
7734.392969644872
 30
0.0
 11
9023.389714913916
 21
7765.703128297038
 31
0.0
  0
LINE
  5
19949
330
747D
100
AcDbEntity
  8
寸法
 48
50.0
100
AcDbLine
 10
8971.983707003813
 20
7734.392969644872
 30
0.0
 11
9023.389714913916
 21
7734.392969644872
 31
0.0
  0
LINE
  5
1994A
330
747D
100
AcDbEntity
  8
寸法
 48
50.0
100
AcDbLine
 10
9302.555249190772
 20
7791.538560399695
 30
0.0
 11
9302.555249190772
 21
7737.874925817905
 31
0.0
  0
LINE
  5
1994B
330
747D
100
AcDbEntity
  8
寸法
 48
50.0
100
AcDbLine
 10
9391.839467786194
 20
7767.614926130208
 30
0.0
 11
9302.555249190772
 21
7791.538560399695
 31
0.0
  0
LINE
  5
1994C
330
747D
100
AcDbEntity
  8
寸法
 48
50.0
100
AcDbLine
 10
9172.687527610468
 20
7767.614926130208
 30
0.0
 11
9391.839467786194
 21
7767.614926130208
 31
0.0
  0
LINE
  5
1994D
330
747D
100
AcDbEntity
  8
細線
 48
50.0
100
AcDbLine
 10
10049.18670863207
 20
7932.856333024735
 30
0.0
 11
10676.18670863207
 21
7932.856333024735
 31
0.0
  0
LINE
  5
1994E
330
747D
100
AcDbEntity
  8
細線
 48
50.0
100
AcDbLine
 10
9395.18671328566
 20
7899.147564470659
 30
0.0
 11
10676.18670863207
 21
7899.147564470659
 31
0.0
  0
LINE
  5
1994F
330
747D
100
AcDbEntity
  8
細線
 48
50.0
100
AcDbLine
 10
9354.186713285663
 20
7928.552472466911
 30
0.0
 11
8600.186708632071
 21
7928.552472466908
 31
0.0
  0
LINE
  5
19950
330
747D
100
AcDbEntity
  8
細線
100
AcDbLine
 10
10451.93669921561
 20
7952.356232989743
 30
0.0
 11
10454.26823873742
 21
7957.356235629704
 31
0.0
  0
LINE
  5
19951
330
747D
100
AcDbEntity
  8
細線
100
AcDbLine
 10
10521.93670863207
 20
7952.356218076009
 30
0.0
 11
10519.60516215588
 21
7957.35623562969
 31
0.0
  0
LINE
  5
19952
330
747D
100
AcDbEntity
  8
細線
100
AcDbLine
 10
10519.60516215588
 20
7957.35623562969
 30
0.0
 11
10454.2682387374
 21
7957.356235629674
 31
0.0
  0
LINE
  5
19953
330
747D
100
AcDbEntity
  8
細線
100
AcDbLine
 10
10379.60516215588
 20
7957.35623562969
 30
0.0
 11
10314.2682387374
 21
7957.356235629674
 31
0.0
  0
LINE
  5
19954
330
747D
100
AcDbEntity
  8
細線
100
AcDbLine
 10
10381.93670863207
 20
7952.356218076009
 30
0.0
 11
10379.60516215588
 21
7957.35623562969
 31
0.0
  0
LINE
  5
19955
330
747D
100
AcDbEntity
  8
細線
100
AcDbLine
 10
10311.93669921561
 20
7952.356232989743
 30
0.0
 11
10314.26823873742
 21
7957.356235629704
 31
0.0
  0
LINE
  5
19956
330
747D
100
AcDbEntity
  8
細線
100
AcDbLine
 10
10171.93670863207
 20
7952.356218076009
 30
0.0
 11
10174.26824815388
 21
7957.356220715971
 31
0.0
  0
LINE
  5
19957
330
747D
100
AcDbEntity
  8
細線
100
AcDbLine
 10
10241.93671804853
 20
7952.356203162274
 30
0.0
 11
10239.60517157234
 21
7957.356220715955
 31
0.0
  0
LINE
  5
19958
330
747D
100
AcDbEntity
  8
細線
100
AcDbLine
 10
10239.60517157234
 20
7957.356220715955
 30
0.0
 11
10174.26824815387
 21
7957.356220715941
 31
0.0
  0
LINE
  5
19959
330
747D
100
AcDbEntity
  8
細線
100
AcDbLine
 10
9944.355192821179
 20
7923.356257413337
 30
0.0
 11
9879.018269402703
 21
7923.356257413323
 31
0.0
  0
LINE
  5
1995A
330
747D
100
AcDbEntity
  8
細線
100
AcDbLine
 10
9946.686739297366
 20
7918.356239859656
 30
0.0
 11
9944.355192821179
 21
7923.356257413337
 31
0.0
  0
LINE
  5
1995B
330
747D
100
AcDbEntity
  8
細線
100
AcDbLine
 10
9876.686729880908
 20
7918.356254773391
 30
0.0
 11
9879.018269402719
 21
7923.356257413352
 31
0.0
  0
LINE
  5
1995C
330
747D
100
AcDbEntity
  8
細線
 48
50.0
100
AcDbLine
 10
9718.070087880086
 20
7936.627081229089
 30
0.0
 11
9723.825605462753
 21
7918.356229938602
 31
0.0
  0
LINE
  5
1995D
330
747D
100
AcDbEntity
  8
細線
 48
50.0
100
AcDbLine
 10
9707.141639399656
 20
7936.627081229089
 30
0.0
 11
9718.070087880086
 21
7936.627081229089
 31
0.0
  0
ARC
  5
1995E
330
747D
100
AcDbEntity
  8
細線
 48
50.0
100
AcDbCircle
 10
9701.687283342334
 20
7938.127081229089
 30
0.0
 40
5.0
100
AcDbArc
 50
204.6243183521304
 51
335.3756816478695
  0
ARC
  5
1995F
330
747D
100
AcDbEntity
  8
細線
 48
50.0
100
AcDbCircle
 10
9707.141639399656
 20
7935.62708122909
 30
0.0
 40
1.0
100
AcDbArc
 50
90.0
 51
155.3756816478695
  0
ARC
  5
19960
330
747D
100
AcDbEntity
  8
細線
 48
50.0
100
AcDbCircle
 10
9696.232927285018
 20
7935.62708122909
 30
0.0
 40
1.0
100
AcDbArc
 50
24.62431835213048
 51
90.0
  0
LINE
  5
19961
330
747D
100
AcDbEntity
  8
細線
 48
50.0
100
AcDbLine
 10
9685.304478804585
 20
7936.627081229089
 30
0.0
 11
9696.232927285018
 21
7936.627081229089
 31
0.0
  0
LINE
  5
19962
330
747D
100
AcDbEntity
  8
細線
 48
50.0
100
AcDbLine
 10
9679.548961221918
 20
7918.356229938595
 30
0.0
 11
9685.304478804585
 21
7936.627081229089
 31
0.0
  0
LINE
  5
19963
330
747D
100
AcDbEntity
  8
細線
100
AcDbLine
 10
9736.68673111195
 20
7918.3562273044
 30
0.0
 11
9739.018270633764
 21
7923.356229944362
 31
0.0
  0
LINE
  5
19964
330
747D
100
AcDbEntity
  8
細線
100
AcDbLine
 10
9806.686740528411
 20
7918.356212390666
 30
0.0
 11
9804.35519405222
 21
7923.356229944346
 31
0.0
  0
LINE
  5
19965
330
747D
100
AcDbEntity
  8
細線
100
AcDbLine
 10
9804.35519405222
 20
7923.356229944346
 30
0.0
 11
9739.018270633748
 21
7923.356229944332
 31
0.0
  0
LINE
  5
19966
330
747D
100
AcDbEntity
  8
細線
100
AcDbLine
 10
9664.355165687702
 20
7923.356229938566
 30
0.0
 11
9599.018242269227
 21
7923.356229938552
 31
0.0
  0
LINE
  5
19967
330
747D
100
AcDbEntity
  8
細線
100
AcDbLine
 10
9666.68671216389
 20
7918.356212384885
 30
0.0
 11
9664.355165687702
 21
7923.356229938566
 31
0.0
  0
LINE
  5
19968
330
747D
100
AcDbEntity
  8
細線
100
AcDbLine
 10
9596.686703978475
 20
7918.356229938595
 30
0.0
 11
9599.018242269242
 21
7923.356229938581
 31
0.0
  0
LINE
  5
19969
330
747D
100
AcDbEntity
  8
細線
100
AcDbLine
 10
9456.686739297365
 20
7918.356238125965
 30
0.0
 11
9459.018277588134
 21
7923.356238125951
 31
0.0
  0
LINE
  5
1996A
330
747D
100
AcDbEntity
  8
細線
100
AcDbLine
 10
9526.686747482782
 20
7918.356220572255
 30
0.0
 11
9524.355201006594
 21
7923.356238125933
 31
0.0
  0
LINE
  5
1996B
330
747D
100
AcDbEntity
  8
細線
100
AcDbLine
 10
9524.355201006594
 20
7923.356238125933
 30
0.0
 11
9459.018277588119
 21
7923.356238125922
 31
0.0
  0
LINE
  5
1996C
330
747D
100
AcDbEntity
  8
細線
100
AcDbLine
 10
9085.186705100245
 20
7884.356409806677
 30
0.0
 11
9087.518243391013
 21
7889.356409806663
 31
0.0
  0
LINE
  5
1996D
330
747D
100
AcDbEntity
  8
細線
100
AcDbLine
 10
9155.18671328566
 20
7884.356392252965
 30
0.0
 11
9152.855166809473
 21
7889.356409806642
 31
0.0
  0
LINE
  5
1996E
330
747D
100
AcDbEntity
  8
細線
100
AcDbLine
 10
9152.855166809473
 20
7889.356409806642
 30
0.0
 11
9087.518243391
 21
7889.356409806635
 31
0.0
  0
LINE
  5
1996F
330
747D
100
AcDbEntity
  8
細線
100
AcDbLine
 10
9292.855166809474
 20
7889.356409806642
 30
0.0
 11
9227.518243391001
 21
7889.356409806635
 31
0.0
  0
LINE
  5
19970
330
747D
100
AcDbEntity
  8
細線
100
AcDbLine
 10
9295.18671328566
 20
7884.356392252965
 30
0.0
 11
9292.855166809474
 21
7889.356409806642
 31
0.0
  0
LINE
  5
19971
330
747D
100
AcDbEntity
  8
細線
100
AcDbLine
 10
9225.186705100245
 20
7884.356409806677
 30
0.0
 11
9227.518243391012
 21
7889.356409806663
 31
0.0
  0
LINE
  5
19972
330
747D
100
AcDbEntity
  8
細線
100
AcDbLine
 10
9012.855166809472
 20
7889.356409806642
 30
0.0
 11
8947.518243391002
 21
7889.35640980663
 31
0.0
  0
LINE
  5
19973
330
747D
100
AcDbEntity
  8
細線
100
AcDbLine
 10
9015.186713285661
 20
7884.356392252965
 30
0.0
 11
9012.855166809472
 21
7889.356409806642
 31
0.0
  0
LINE
  5
19974
330
747D
100
AcDbEntity
  8
細線
100
AcDbLine
 10
8945.186705100246
 20
7884.356409806675
 30
0.0
 11
8947.518243391012
 21
7889.35640980666
 31
0.0
  0
LINE
  5
19975
330
747D
100
AcDbEntity
  8
細線
100
AcDbLine
 10
8805.18671328566
 20
7884.356409806677
 30
0.0
 11
8807.518251576428
 21
7889.356409806663
 31
0.0
  0
LINE
  5
19976
330
747D
100
AcDbEntity
  8
細線
100
AcDbLine
 10
8875.186721471077
 20
7884.356392252965
 30
0.0
 11
8872.855174994889
 21
7889.356409806642
 31
0.0
  0
LINE
  5
19977
330
747D
100
AcDbEntity
  8
細線
100
AcDbLine
 10
8872.855174994889
 20
7889.356409806642
 30
0.0
 11
8807.518251576416
 21
7889.356409806635
 31
0.0
  0
ARC
  5
19978
330
747D
100
AcDbEntity
  8
部品1
 48
0.01
100
AcDbCircle
 10
8760.686602033326
 20
7883.355287621606
 30
0.0
 40
0.5
100
AcDbArc
 50
270.0
 51
0.0
  0
LINE
  5
19979
330
747D
100
AcDbEntity
  8
部品1
 48
0.01
100
AcDbLine
 10
8761.186602033324
 20
7884.355287621605
 30
0.0
 11
8761.186602033324
 21
7883.355287621606
 31
0.0
  0
LINE
  5
1997A
330
747D
100
AcDbEntity
  8
部品1
 48
0.01
100
AcDbLine
 10
8761.186602033324
 20
7884.355287621605
 30
0.0
 11
8761.186602033324
 21
7883.355287621606
 31
0.0
  0
LINE
  5
1997B
330
747D
100
AcDbEntity
  8
部品1
 48
0.01
100
AcDbLine
 10
8760.686602033326
 20
7882.855287621605
 30
0.0
 11
8754.074096603261
 21
7882.855287621605
 31
0.0
  0
ARC
  5
1997C
330
747D
100
AcDbEntity
  8
部品1
100
AcDbCircle
 10
8754.142446156043
 20
7883.855287621606
 30
0.0
 40
1.0
100
AcDbArc
 50
160.5287793655778
 51
270.0
  0
ARC
  5
1997D
330
747D
100
AcDbEntity
  8
部品1
100
AcDbCircle
 10
8728.686602033326
 20
7892.855287621606
 30
0.0
 40
26.0
100
AcDbArc
 50
340.5287793655779
 51
0.0
  0
LINE
  5
1997E
330
747D
100
AcDbEntity
  8
部品1
100
AcDbLine
 10
8754.686602033325
 20
7892.855287621606
 30
0.0
 11
8754.686602033325
 21
7897.855287621606
 31
0.0
  0
ARC
  5
1997F
330
747D
100
AcDbEntity
  8
部品1
 48
0.01
100
AcDbCircle
 10
8752.686602033326
 20
7897.855287621606
 30
0.0
 40
2.0
100
AcDbArc
 50
0.0
 51
90.0
  0
ARC
  5
19980
330
747D
100
AcDbEntity
  8
部品1
100
AcDbCircle
 10
8751.078210408515
 20
7896.855287621605
 30
0.0
 40
3.0
100
AcDbArc
 50
90.0
 51
141.6069559807873
  0
LINE
  5
19981
330
747D
100
AcDbEntity
  8
部品1
 48
0.01
100
AcDbLine
 10
8752.686602033326
 20
7899.855287621605
 30
0.0
 11
8751.078210408515
 21
7899.855287621605
 31
0.0
  0
ARC
  5
19982
330
747D
100
AcDbEntity
  8
部品1
100
AcDbCircle
 10
8732.615887819054
 20
7896.155287621609
 30
0.0
 40
3.0
100
AcDbArc
 50
254.0576313943215
 51
270.0
  0
ARC
  5
19983
330
747D
100
AcDbEntity
  8
部品1
100
AcDbCircle
 10
8739.757316247596
 20
7896.155287621609
 30
0.0
 40
3.0
100
AcDbArc
 50
270.0
 51
285.9423686056786
  0
LINE
  5
19984
330
747D
100
AcDbEntity
  8
部品1
100
AcDbLine
 10
8739.757316247596
 20
7893.155287621609
 30
0.0
 11
8732.615887819054
 21
7893.155287621609
 31
0.0
  0
ARC
  5
19985
330
747D
100
AcDbEntity
  8
部品1
100
AcDbCircle
 10
8736.186602033326
 20
7908.655287621609
 30
0.0
 40
16.0
100
AcDbArc
 50
285.9423686056786
 51
321.6069559807873
  0
LINE
  5
19986
330
747D
100
AcDbEntity
  8
部品1
 48
0.01
100
AcDbLine
 10
8719.686602033325
 20
7899.855287621605
 30
0.0
 11
8721.294993658135
 21
7899.855287621605
 31
0.0
  0
ARC
  5
19987
330
747D
100
AcDbEntity
  8
部品1
100
AcDbCircle
 10
8721.294993658135
 20
7896.855287621605
 30
0.0
 40
3.0
100
AcDbArc
 50
38.39304401921267
 51
90.0
  0
ARC
  5
19988
330
747D
100
AcDbEntity
  8
部品1
100
AcDbCircle
 10
8736.186602033326
 20
7908.655287621609
 30
0.0
 40
16.0
100
AcDbArc
 50
218.3930440192126
 51
254.0576313943215
  0
LINE
  5
19989
330
747D
100
AcDbEntity
  8
部品1
100
AcDbLine
 10
8717.686602033325
 20
7892.855287621606
 30
0.0
 11
8717.686602033325
 21
7897.855287621606
 31
0.0
  0
ARC
  5
1998A
330
747D
100
AcDbEntity
  8
部品1
 48
0.01
100
AcDbCircle
 10
8719.686602033325
 20
7897.855287621606
 30
0.0
 40
2.0
100
AcDbArc
 50
90.0
 51
180.0
  0
ARC
  5
1998B
330
747D
100
AcDbEntity
  8
部品1
100
AcDbCircle
 10
8743.686602033326
 20
7892.855287621606
 30
0.0
 40
26.0
100
AcDbArc
 50
180.0
 51
199.4712206344221
  0
ARC
  5
1998C
330
747D
100
AcDbEntity
  8
部品1
 48
0.01
100
AcDbCircle
 10
8711.686602033326
 20
7883.355287621606
 30
0.0
 40
0.5
100
AcDbArc
 50
180.0
 51
270.0
  0
LINE
  5
1998D
330
747D
100
AcDbEntity
  8
部品1
 48
0.01
100
AcDbLine
 10
8711.686602033326
 20
7882.855287621605
 30
0.0
 11
8718.230757910609
 21
7882.855287621605
 31
0.0
  0
LINE
  5
1998E
330
747D
100
AcDbEntity
  8
部品1
 48
0.01
100
AcDbLine
 10
8711.186602033325
 20
7884.355287621605
 30
0.0
 11
8711.186602033325
 21
7883.355287621606
 31
0.0
  0
ARC
  5
1998F
330
747D
100
AcDbEntity
  8
部品1
100
AcDbCircle
 10
8718.230757910609
 20
7883.855287621606
 30
0.0
 40
1.0
100
AcDbArc
 50
270.0
 51
19.47122063442214
  0
LINE
  5
19990
330
747D
100
AcDbEntity
  8
細線
100
AcDbLine
 10
8756.686602033333
 20
7902.355287621609
 30
0.0
 11
8715.686602033333
 21
7902.355287621602
 31
0.0
  0
LINE
  5
19991
330
747D
100
AcDbEntity
  8
細線
100
AcDbLine
 10
8715.686602033333
 20
7902.355287621602
 30
0.0
 11
8715.686602033333
 21
7884.355287621584
 31
0.0
  0
LINE
  5
19992
330
747D
100
AcDbEntity
  8
細線
100
AcDbLine
 10
8756.686602033333
 20
7902.355287621609
 30
0.0
 11
8756.686602033333
 21
7884.355287621584
 31
0.0
  0
LINE
  5
19993
330
747D
100
AcDbEntity
  8
細線
100
AcDbLine
 10
8600.186708632071
 20
7888.356218076009
 30
0.0
 11
8600.186708632071
 21
7884.356218076057
 31
0.0
  0
DIMENSION
  5
19994
330
747D
100
AcDbEntity
  8
寸法
 48
50.0
100
AcDbDimension
  2
*D32
 10
9866.186708632071
 20
7227.746632435264
 30
0.0
 11
9233.517332999996
 21
7227.746632435264
 31
0.0
 70
   160
  1
有効開口部間口\P<>
 71
     5
 42
1266.0
  3
INABA_S40
100
AcDbAlignedDimension
 13
8600.186708632071
 23
7879.356218076009
 33
0.0
 14
9866.186708632071
 24
7879.356218076009
 34
0.0
100
AcDbRotatedDimension
1001
ACAD
1000
DSTYLE
1002
{
1070
    41
1040
0.5
1070
    44
1040
1.0
1070
   147
1040
0.8
1070
   271
1070
     2
1070
   272
1070
     2
1070
   289
1070
     3
1070
   340
1005
F706
1070
   343
1005
185AF
1070
   344
1005
185AF
1002
}
  0
LINE
  5
19995
330
747D
100
AcDbEntity
  8
部品1
100
AcDbLine
 10
10688.18670863207
 20
7956.356218076009
 30
0.0
 11
10715.18670863207
 21
7956.356218076009
 31
0.0
  0
LINE
  5
19997
330
747D
100
AcDbEntity
  8
部品1
100
AcDbLine
 10
10715.18670863207
 20
7879.356218076009
 30
0.0
 11
10715.18670863207
 21
7956.356218076009
 31
0.0
  0
LINE
  5
19998
330
747D
100
AcDbEntity
  8
部品1
100
AcDbLine
 10
10676.18670863207
 20
7952.356218076009
 30
0.0
 11
10688.18670863207
 21
7952.356218076009
 31
0.0
  0
LINE
  5
19999
330
747D
100
AcDbEntity
  8
部品1
100
AcDbLine
 10
10685.18670863207
 20
7888.356218076009
 30
0.0
 11
10685.18670863207
 21
7879.356218076009
 31
0.0
  0
LINE
  5
1999A
330
747D
100
AcDbEntity
  8
部品1
100
AcDbLine
 10
10676.18670863207
 20
7888.356218076009
 30
0.0
 11
10685.18670863207
 21
7888.356218076009
 31
0.0
  0
LINE
  5
1999B
330
747D
100
AcDbEntity
  8
部品1
100
AcDbLine
 10
10676.18670863207
 20
7952.356218076009
 30
0.0
 11
10676.18670863207
 21
7888.356218076009
 31
0.0
  0
LINE
  5
1999C
330
747D
100
AcDbEntity
  8
部品1
100
AcDbLine
 10
10688.18670863207
 20
7983.35621807601
 30
0.0
 11
10688.18670863207
 21
7952.356218076009
 31
0.0
  0
LINE
  5
1999D
330
747D
100
AcDbEntity
  8
部品1
100
AcDbLine
 10
8600.186708632071
 20
7952.356218076009
 30
0.0
 11
8588.18670863207
 21
7952.356218076009
 31
0.0
  0
LINE
  5
1999E
330
747D
100
AcDbEntity
  8
部品1
100
AcDbLine
 10
8561.186708632071
 20
7956.356218076009
 30
0.0
 11
8588.18670863207
 21
7956.356218076009
 31
0.0
  0
LINE
  5
1999F
330
747D
100
AcDbEntity
  8
部品1
100
AcDbLine
 10
8591.18670863207
 20
7888.356218076009
 30
0.0
 11
8591.18670863207
 21
7879.356218076009
 31
0.0
  0
LINE
  5
199A0
330
747D
100
AcDbEntity
  8
部品1
100
AcDbLine
 10
8600.186708632071
 20
7888.356218076009
 30
0.0
 11
8591.18670863207
 21
7888.356218076009
 31
0.0
  0
LINE
  5
199A1
330
747D
100
AcDbEntity
  8
部品1
100
AcDbLine
 10
8591.18670863207
 20
7879.356218076009
 30
0.0
 11
8561.186708632071
 21
7879.356218076009
 31
0.0
  0
LINE
  5
199A2
330
747D
100
AcDbEntity
  8
部品1
100
AcDbLine
 10
8561.186708632071
 20
7879.356218076009
 30
0.0
 11
8561.186708632071
 21
7956.356218076009
 31
0.0
  0
LINE
  5
199A3
330
747D
100
AcDbEntity
  8
部品1
100
AcDbLine
 10
8600.186708632071
 20
7952.356218076009
 30
0.0
 11
8600.186708632071
 21
7888.356218076009
 31
0.0
  0
LINE
  5
199A4
330
747D
100
AcDbEntity
  8
部品1
100
AcDbLine
 10
8588.18670863207
 20
7983.356218076005
 30
0.0
 11
8588.18670863207
 21
7952.356218076009
 31
0.0
  0
LINE
  5
199A5
330
747D
100
AcDbEntity
  8
部品1
100
AcDbLine
 10
8588.18670863207
 20
7983.356218076005
 30
0.0
 11
10688.18670863207
 21
7983.35621807601
 31
0.0
  0
LINE
  5
199A6
330
747D
100
AcDbEntity
  8
部品1
100
AcDbLine
 10
10685.18670863207
 20
7879.356218076009
 30
0.0
 11
10715.18670863207
 21
7879.356218076009
 31
0.0
  0
LINE
  5
199A7
330
747D
100
AcDbEntity
  8
部品1
100
AcDbLine
 10
8591.18670863207
 20
7879.356218076009
 30
0.0
 11
10688.18670863207
 21
7879.356218076009
 31
0.0
  0
LINE
  5
199A8
330
747D
100
AcDbEntity
  8
細線
  6
Continuous
 62
     5
100
AcDbLine
 10
9967.186708632075
 20
7918.356218076006
 30
0.0
 11
9967.186708632075
 21
7918.356218076006
 31
0.0
  0
LINE
  5
199A9
330
747D
100
AcDbEntity
  8
細線
  6
Continuous
 62
     5
100
AcDbLine
 10
9959.686743950967
 20
7918.356227997063
 30
0.0
 11
9959.686743950967
 21
7918.356227997063
 31
0.0
  0
LINE
  5
199AA
330
747D
100
AcDbEntity
  8
細線
  6
Continuous
 62
     5
100
AcDbLine
 10
9953.686743950967
 20
7918.356227997063
 30
0.0
 11
9953.686743950967
 21
7918.356227997063
 31
0.0
  0
LINE
  5
199AB
330
747D
100
AcDbEntity
  8
細線
  6
Continuous
 62
     5
100
AcDbLine
 10
10021.18670863207
 20
7937.356218076006
 30
0.0
 11
10021.18670863207
 21
7937.356218076006
 31
0.0
  0
LINE
  5
199AC
330
747D
100
AcDbEntity
  8
細線
 48
50.0
100
AcDbLine
 10
8614.186713285665
 20
7904.956392252962
 30
0.0
 11
8614.186713285665
 21
7913.352542660603
 31
0.0
  0
LINE
  5
199AD
330
747D
100
AcDbEntity
  8
細線
 48
50.0
100
AcDbLine
 10
8614.186713285665
 20
7913.352542660603
 30
0.0
 11
8600.186708632071
 21
7913.3525426606
 31
0.0
  0
LINE
  5
199AE
330
747D
100
AcDbEntity
  8
細線
 48
50.0
100
AcDbLine
 10
9365.186713285661
 20
7901.506392252962
 30
0.0
 11
9365.186713285661
 21
7906.356392252965
 31
0.0
  0
LINE
  5
199AF
330
747D
100
AcDbEntity
  8
細線
 48
50.0
100
AcDbLine
 10
9365.186713285661
 20
7906.356392252965
 30
0.0
 11
9380.18671328566
 21
7906.356392252965
 31
0.0
  0
LINE
  5
199B0
330
747D
100
AcDbEntity
  8
細線
 48
50.0
100
AcDbLine
 10
9380.18671328566
 20
7906.356392252965
 30
0.0
 11
9380.186713285665
 21
7913.356392252964
 31
0.0
  0
LINE
  5
199B1
330
747D
100
AcDbEntity
  8
細線
 48
50.0
100
AcDbLine
 10
9380.186713285665
 20
7913.356392252964
 30
0.0
 11
9395.18671328566
 21
7913.356392252964
 31
0.0
  0
LINE
  5
199B2
330
747D
100
AcDbEntity
  8
細線
 48
50.0
100
AcDbLine
 10
9395.18671328566
 20
7913.356392252964
 30
0.0
 11
9395.18671328566
 21
7884.356392252965
 31
0.0
  0
LINE
  5
199B3
330
747D
100
AcDbEntity
  8
細線
 48
50.0
100
AcDbLine
 10
8591.18670863207
 20
7884.353726596433
 30
0.0
 11
8805.18671328566
 21
7884.356409806677
 31
0.0
  0
LINE
  5
199B4
330
747D
100
AcDbEntity
  8
細線
 48
50.0
100
AcDbLine
 10
9295.18671328566
 20
7884.356392252965
 30
0.0
 11
9395.18671328566
 21
7884.356392252965
 31
0.0
  0
LINE
  5
199B5
330
747D
100
AcDbEntity
  8
細線
 48
50.0
100
AcDbLine
 10
9015.186713285661
 20
7884.356392252965
 30
0.0
 11
9085.186713285661
 21
7884.356392252965
 31
0.0
  0
LINE
  5
199B6
330
747D
100
AcDbEntity
  8
細線
 48
50.0
100
AcDbLine
 10
9028.048678298189
 20
7884.356392252965
 30
0.0
 11
9033.804195880858
 21
7902.627243543459
 31
0.0
  0
LINE
  5
199B7
330
747D
100
AcDbEntity
  8
細線
 48
50.0
100
AcDbLine
 10
9033.804195880858
 20
7902.627243543459
 30
0.0
 11
9044.732644361291
 21
7902.627243543455
 31
0.0
  0
ARC
  5
199B8
330
747D
100
AcDbEntity
  8
細線
 48
50.0
100
AcDbCircle
 10
9044.732644361291
 20
7901.627243543455
 30
0.0
 40
1.0
100
AcDbArc
 50
24.62431835213048
 51
90.0
  0
ARC
  5
199B9
330
747D
100
AcDbEntity
  8
細線
 48
50.0
100
AcDbCircle
 10
9055.641356475923
 20
7901.627243543455
 30
0.0
 40
1.0
100
AcDbArc
 50
90.0
 51
155.3756816478695
  0
ARC
  5
199BA
330
747D
100
AcDbEntity
  8
細線
 48
50.0
100
AcDbCircle
 10
9050.187000418606
 20
7904.127243543455
 30
0.0
 40
5.0
100
AcDbArc
 50
204.6243183521304
 51
335.3756816478695
  0
LINE
  5
199BB
330
747D
100
AcDbEntity
  8
細線
 48
50.0
100
AcDbLine
 10
9055.641356475923
 20
7902.627243543455
 30
0.0
 11
9066.569804956358
 21
7902.627243543459
 31
0.0
  0
LINE
  5
199BC
330
747D
100
AcDbEntity
  8
細線
 48
50.0
100
AcDbLine
 10
9066.569804956358
 20
7902.627243543459
 30
0.0
 11
9072.325322539025
 21
7884.356392252965
 31
0.0
  0
LINE
  5
199BD
330
747D
100
AcDbEntity
  8
細線
 48
50.0
100
AcDbLine
 10
9365.186713285661
 20
7904.956392252962
 30
0.0
 11
8614.186713285665
 21
7904.956392252962
 31
0.0
  0
LINE
  5
199BE
330
747D
100
AcDbEntity
  8
細線
 48
50.0
100
AcDbLine
 10
9225.18671328566
 20
7884.356392252965
 30
0.0
 11
9155.18671328566
 21
7884.356392252965
 31
0.0
  0
LINE
  5
199BF
330
747D
100
AcDbEntity
  8
細線
100
AcDbLine
 10
8945.186713285661
 20
7884.356392252965
 30
0.0
 11
8875.186721471077
 21
7884.356392252965
 31
0.0
  0
LINE
  5
199C0
330
747D
100
AcDbEntity
  8
細線
 48
50.0
100
AcDbLine
 10
10019.18670397848
 20
7938.956436110832
 30
0.0
 11
9384.186713285661
 21
7938.956436110828
 31
0.0
  0
LINE
  5
199C1
330
747D
100
AcDbEntity
  8
細線
 48
50.0
100
AcDbLine
 10
9384.186713285661
 20
7935.852586518471
 30
0.0
 11
9384.186713285661
 21
7940.352586518471
 31
0.0
  0
LINE
  5
199C2
330
747D
100
AcDbEntity
  8
細線
 48
50.0
100
AcDbLine
 10
9384.186713285661
 20
7940.352586518471
 30
0.0
 11
9369.18671328566
 21
7940.352586518471
 31
0.0
  0
LINE
  5
199C3
330
747D
100
AcDbEntity
  8
細線
 48
50.0
100
AcDbLine
 10
9369.18671328566
 20
7940.352586518471
 30
0.0
 11
9369.18671328566
 21
7947.352586518471
 31
0.0
  0
LINE
  5
199C4
330
747D
100
AcDbEntity
  8
細線
 48
50.0
100
AcDbLine
 10
9369.18671328566
 20
7947.352586518471
 30
0.0
 11
9354.186713285663
 21
7947.352586518467
 31
0.0
  0
LINE
  5
199C5
330
747D
100
AcDbEntity
  8
細線
 48
50.0
100
AcDbLine
 10
9354.186713285663
 20
7947.352586518467
 30
0.0
 11
9354.186713285663
 21
7909.752358415357
 31
0.0
  0
LINE
  5
199C6
330
747D
100
AcDbEntity
  8
細線
 48
50.0
100
AcDbLine
 10
9354.186713285663
 20
7909.752358415357
 30
0.0
 11
9374.186720586838
 21
7909.752399964898
 31
0.0
  0
LINE
  5
199C7
330
747D
100
AcDbEntity
  8
細線
 48
50.0
100
AcDbLine
 10
9374.186675717893
 20
7918.355861600706
 30
0.0
 11
9374.186720586838
 21
7909.752399964898
 31
0.0
  0
LINE
  5
199C8
330
747D
100
AcDbEntity
  8
細線
 48
50.0
100
AcDbLine
 10
10019.18670397848
 20
7935.506436110831
 30
0.0
 11
10019.18670397848
 21
7940.356436110829
 31
0.0
  0
LINE
  5
199C9
330
747D
100
AcDbEntity
  8
細線
 48
50.0
100
AcDbLine
 10
10019.18670397848
 20
7940.356436110829
 30
0.0
 11
10034.18670397848
 21
7940.356436110829
 31
0.0
  0
LINE
  5
199CA
330
747D
100
AcDbEntity
  8
細線
 48
50.0
100
AcDbLine
 10
10034.18670397848
 20
7940.356436110829
 30
0.0
 11
10034.18671561246
 21
7947.356436110872
 31
0.0
  0
LINE
  5
199CB
330
747D
100
AcDbEntity
  8
細線
 48
50.0
100
AcDbLine
 10
10034.18671561246
 20
7947.356436110872
 30
0.0
 11
10049.18671378298
 21
7947.356436110872
 31
0.0
  0
LINE
  5
199CC
330
747D
100
AcDbEntity
  8
細線
 48
50.0
100
AcDbLine
 10
10049.18671378298
 20
7947.356436110872
 30
0.0
 11
10049.18670348116
 21
7918.356229938599
 31
0.0
  0
LINE
  5
199CD
330
747D
100
AcDbEntity
  8
細線
 48
50.0
100
AcDbLine
 10
9736.68673111195
 20
7918.356238125965
 30
0.0
 11
9666.686983194367
 21
7918.356232688627
 31
0.0
  0
LINE
  5
199CE
330
747D
100
AcDbEntity
  8
細線
 48
50.0
100
AcDbLine
 10
9374.186675717893
 20
7918.355861600706
 30
0.0
 11
9385.419365072605
 21
7918.356044553853
 31
0.0
  0
ARC
  5
199CF
330
747D
100
AcDbEntity
  8
細線
 48
50.0
100
AcDbCircle
 10
9392.001657379941
 20
7917.156208467466
 30
0.0
 40
1.8
100
AcDbArc
 50
270.0006665777295
 51
345.0005554812987
  0
LINE
  5
199D0
330
747D
100
AcDbEntity
  8
細線
 48
50.0
100
AcDbLine
 10
9393.98809082602
 20
7917.615048924744
 30
0.0
 11
9393.74032838382
 21
7916.690351042638
 31
0.0
  0
LINE
  5
199D1
330
747D
100
AcDbEntity
  8
細線
 48
50.0
100
AcDbLine
 10
9392.001678321095
 20
7915.356208467587
 30
0.0
 11
9388.371750902328
 21
7915.356166237107
 31
0.0
  0
ARC
  5
199D2
330
747D
100
AcDbEntity
  8
細線
 48
50.0
100
AcDbCircle
 10
9388.371729961175
 20
7917.156166236985
 30
0.0
 40
1.8
100
AcDbArc
 50
195.0010443049394
 51
270.0006665777295
  0
LINE
  5
199D3
330
747D
100
AcDbEntity
  8
細線
 48
50.0
100
AcDbLine
 10
9386.385302468916
 20
7917.614881204551
 30
0.0
 11
9386.633071965428
 21
7916.690260265969
 31
0.0
  0
ARC
  5
199D4
330
747D
100
AcDbEntity
  8
細線
 48
50.0
100
AcDbCircle
 10
9385.419381360167
 20
7917.356044553987
 30
0.0
 40
1.0
100
AcDbArc
 50
15.00104430493943
 51
90.00093320877969
  0
LINE
  5
199D5
330
747D
100
AcDbEntity
  8
細線
 48
50.0
100
AcDbLine
 10
9394.954012181122
 20
7918.356239244258
 30
0.0
 11
9395.895772332027
 21
7918.356245818107
 31
0.0
  0
ARC
  5
199D6
330
747D
100
AcDbEntity
  8
細線
 48
50.0
100
AcDbCircle
 10
9394.954019161508
 20
7917.356239244283
 30
0.0
 40
1.0
100
AcDbArc
 50
90.0003999466794
 51
165.0005554812987
  0
LINE
  5
199D7
330
747D
100
AcDbEntity
  8
細線
 48
50.0
100
AcDbLine
 10
9946.686703978475
 20
7918.356229938599
 30
0.0
 11
10049.18670348116
 21
7918.356229938599
 31
0.0
  0
LINE
  5
199D8
330
747D
100
AcDbEntity
  8
細線
 48
50.0
100
AcDbLine
 10
9456.686739297365
 20
7918.356238125965
 30
0.0
 11
9395.586678070445
 21
7918.356245818107
 31
0.0
  0
LINE
  5
199D9
330
747D
100
AcDbEntity
  8
細線
 48
50.0
100
AcDbLine
 10
9876.686739297365
 20
7918.356274967049
 30
0.0
 11
9806.686732342981
 21
7918.356229944381
 31
0.0
  0
LINE
  5
199DA
330
747D
100
AcDbEntity
  8
細線
 48
50.0
100
AcDbLine
 10
9596.686703978475
 20
7918.356229938595
 30
0.0
 11
9526.686686690599
 21
7918.356229938602
 31
0.0
  0
ARC
  5
199DB
330
747D
100
AcDbEntity
  8
細線
 48
50.0
100
AcDbCircle
 10
10033.38670863208
 20
7951.55621807601
 30
0.0
 40
0.8
100
AcDbArc
 50
359.9997333689499
 51
89.99986668437072
  0
ARC
  5
199DC
330
747D
100
AcDbEntity
  8
細線
 48
50.0
100
AcDbCircle
 10
10040.98671545717
 20
7951.556229244626
 30
0.0
 40
0.8
100
AcDbArc
 50
90.00014387753465
 51
179.9997333689498
  0
LINE
  5
199DD
330
747D
100
AcDbEntity
  8
細線
 48
50.0
100
AcDbLine
 10
10033.38671049351
 20
7952.356218076009
 30
0.0
 11
10028.18670863207
 21
7952.356218076009
 31
0.0
  0
ARC
  5
199DE
330
747D
100
AcDbEntity
  8
細線
 48
50.0
100
AcDbCircle
 10
10034.88670863207
 20
7950.05621807601
 30
0.0
 40
0.7
100
AcDbArc
 50
180.0
 51
270.0
  0
ARC
  5
199DF
330
747D
100
AcDbEntity
  8
細線
 48
50.0
100
AcDbCircle
 10
10039.48670863207
 20
7950.05621807601
 30
0.0
 40
0.7
100
AcDbArc
 50
270.0
 51
0.0
  0
LINE
  5
199E0
330
747D
100
AcDbEntity
  8
細線
 48
50.0
100
AcDbLine
 10
10040.18670863207
 20
7950.05621807601
 30
0.0
 11
10040.18671545719
 21
7951.556232967497
 31
0.0
  0
LINE
  5
199E1
330
747D
100
AcDbEntity
  8
細線
 48
50.0
100
AcDbLine
 10
10034.88670863207
 20
7949.356218076009
 30
0.0
 11
10039.48670863207
 21
7949.356218076009
 31
0.0
  0
LINE
  5
199E2
330
747D
100
AcDbEntity
  8
細線
 48
50.0
100
AcDbLine
 10
10034.18670863207
 20
7951.55621807601
 30
0.0
 11
10034.18670863207
 21
7950.05621807601
 31
0.0
  0
LINE
  5
199E3
330
747D
100
AcDbEntity
  8
細線
 48
50.0
100
AcDbLine
 10
10659.78670863207
 20
7982.356218076009
 30
0.0
 11
10023.18670863207
 21
7982.356218076005
 31
0.0
  0
LINE
  5
199E4
330
747D
100
AcDbEntity
  8
細線
 48
50.0
100
AcDbLine
 10
10685.68670863207
 20
7977.356218076012
 30
0.0
 11
10669.78670863207
 21
7977.35621807601
 31
0.0
  0
LINE
  5
199E5
330
747D
100
AcDbEntity
  8
細線
 48
50.0
100
AcDbLine
 10
10669.78670863207
 20
7977.35621807601
 30
0.0
 11
10659.78670863207
 21
7982.356218076009
 31
0.0
  0
LINE
  5
199E6
330
747D
100
AcDbEntity
  8
細線
100
AcDbLine
 10
10270.68670863207
 20
7952.356218076009
 30
0.0
 11
10270.68670863207
 21
7981.656218076008
 31
0.0
  0
LINE
  5
199E7
330
747D
100
AcDbEntity
  8
細線
100
AcDbLine
 10
10270.68670863207
 20
7981.656218076008
 30
0.0
 11
10290.68670863207
 21
7981.656218076008
 31
0.0
  0
LINE
  5
199E8
330
747D
100
AcDbEntity
  8
細線
100
AcDbLine
 10
10290.68670863207
 20
7952.356218076009
 30
0.0
 11
10290.68670863207
 21
7981.656218076008
 31
0.0
  0
LINE
  5
199E9
330
747D
100
AcDbEntity
  8
細線
100
AcDbLine
 10
10451.93670863207
 20
7952.356218076009
 30
0.0
 11
10381.93670863207
 21
7952.356218076009
 31
0.0
  0
LINE
  5
199EA
330
747D
100
AcDbEntity
  8
細線
 48
50.0
100
AcDbLine
 10
10171.93670863207
 20
7952.356218076009
 30
0.0
 11
10040.98248820491
 21
7952.356218076009
 31
0.0
  0
LINE
  5
199EB
330
747D
100
AcDbEntity
  8
細線
100
AcDbLine
 10
10311.93670863207
 20
7952.356218076009
 30
0.0
 11
10241.93670863207
 21
7952.356218076009
 31
0.0
  0
LINE
  5
199EC
330
747D
100
AcDbEntity
  8
細線
 48
50.0
100
AcDbLine
 10
10028.18670863207
 20
7944.356218076009
 30
0.0
 11
10028.18670863207
 21
7952.356218076009
 31
0.0
  0
LINE
  5
199ED
330
747D
100
AcDbEntity
  8
細線
 48
50.0
100
AcDbLine
 10
10008.18670863207
 20
7944.356218076013
 30
0.0
 11
10028.18670863207
 21
7944.356218076009
 31
0.0
  0
LINE
  5
199EE
330
747D
100
AcDbEntity
  8
細線
 48
50.0
100
AcDbLine
 10
10023.18670863207
 20
7982.356218076009
 30
0.0
 11
10023.18670863207
 21
7977.35621807601
 31
0.0
  0
LINE
  5
199EF
330
747D
100
AcDbEntity
  8
細線
 48
50.0
100
AcDbLine
 10
10008.18670863207
 20
7982.356218076005
 30
0.0
 11
10023.18670863207
 21
7982.356218076009
 31
0.0
  0
LINE
  5
199F0
330
747D
100
AcDbEntity
  8
細線
 48
50.0
100
AcDbLine
 10
10008.18670863207
 20
7944.356218076013
 30
0.0
 11
10008.18670863207
 21
7982.356218076005
 31
0.0
  0
LINE
  5
199F1
330
747D
100
AcDbEntity
  8
細線
100
AcDbLine
 10
10676.18670863207
 20
7952.356218076009
 30
0.0
 11
10521.93670863207
 21
7952.356218076009
 31
0.0
  0
LINE
  5
199F2
330
747D
100
AcDbEntity
  8
細線
 48
50.0
100
AcDbLine
 10
10685.68670863207
 20
7977.356218076012
 30
0.0
 11
10685.68670863207
 21
7952.356218076009
 31
0.0
  0
LINE
  5
1A0F4
330
747D
100
AcDbEntity
  8
部品1
100
AcDbLine
 10
10019.92204174633
 20
6414.488073110518
 30
0.0
 11
9256.451375517899
 21
6414.488073110518
 31
0.0
  0
LINE
  5
1A0F5
330
747D
100
AcDbEntity
  8
部品1
100
AcDbLine
 10
10019.92204174633
 20
6174.595751564984
 30
0.0
 11
10019.92204174633
 21
6414.488073110518
 31
0.0
  0
LINE
  5
1A0F6
330
747D
100
AcDbEntity
  8
部品1
100
AcDbLine
 10
9256.451375517899
 20
6174.595751564984
 30
0.0
 11
10019.92204174633
 21
6174.595751564984
 31
0.0
  0
LINE
  5
1A0F7
330
747D
100
AcDbEntity
  8
部品1
100
AcDbLine
 10
9256.451375517899
 20
6414.488073110518
 30
0.0
 11
9256.451375517899
 21
6174.595751564984
 31
0.0
  0
TEXT
  5
1A0F8
330
747D
100
AcDbEntity
  8
部品1
100
AcDbText
 10
9346.370985346936
 20
6221.594543891994
 30
0.0
 40
135.0
  1
平面図
  7
STYLE2
100
AcDbText
  0
DIMENSION
  5
1A0F9
330
747D
100
AcDbEntity
  8
寸法
100
AcDbDimension
  2
*D33
 10
10743.1867086321
 20
6692.844988302962
 30
0.0
 11
9660.319465379416
 21
6692.844988302962
 31
0.0
 70
   160
 71
     5
 42
2209.999999999982
  3
INABA_S40G
100
AcDbAlignedDimension
 13
8533.186708632122
 23
7956.356218076042
 33
0.0
 14
10743.1867086321
 24
7956.356218076169
 34
0.0
100
AcDbRotatedDimension
1001
ACAD
1000
DSTYLE
1002
{
1002
}
  0
DIMENSION
  5
1A0FA
330
747D
100
AcDbEntity
  8
寸法
100
AcDbDimension
  2
*D34
 10
8238.575463005405
 20
7881.356218076108
 30
0.0
 11
8238.575463005403
 21
7740.870936701869
 31
0.0
 70
   160
 71
     5
 42
75.0
  3
INABA_S40
100
AcDbAlignedDimension
 13
8533.186708632122
 23
7956.356218076108
 33
0.0
 14
8561.186708632105
 24
7881.356218076108
 34
0.0
 50
90.0
100
AcDbRotatedDimension
1001
ACAD
1000
DSTYLE
1002
{
1070
    41
1040
0.5
1070
    44
1040
1.0
1070
   147
1040
0.8
1070
   271
1070
     2
1070
   272
1070
     2
1070
   289
1070
     3
1070
   340
1005
F706
1070
   343
1005
185AF
1070
   344
1005
185AF
1002
}
  0
DIMENSION
  5
1A0FB
330
747D
100
AcDbEntity
  8
寸法
 48
50.0
100
AcDbDimension
  2
*D35
 10
10715.1867086321
 20
6959.226502648286
 30
0.0
 11
9660.319465379416
 21
6959.226502648286
 31
0.0
 70
   160
 71
     5
 42
2154.0
  3
INABA_S40G
100
AcDbAlignedDimension
 13
8561.186708632105
 23
7879.356218076053
 33
0.0
 14
10715.1867086321
 24
7879.356218076053
 34
0.0
100
AcDbRotatedDimension
1001
ACAD
1000
DSTYLE
1002
{
1070
   341
1005
0
1002
}
  0
LWPOLYLINE
  5
1A392
330
747D
100
AcDbEntity
  8
部品1
 48
50.0
100
AcDbPolyline
 90
        4
 70
     1
 43
0.0
 10
8660.236708632121
 20
3596.57225310703
 10
8663.136708632121
 20
3596.57225310703
 10
8663.136708632121
 20
3606.07225310703
 10
8660.236708632121
 20
3606.07225310703
  0
CIRCLE
  5
1A393
330
747D
100
AcDbEntity
  8
部品1
 48
50.0
100
AcDbCircle
 10
8661.686708632123
 20
3601.32225310703
 30
0.0
 40
9.0
  0
ARC
  5
1A394
330
747D
100
AcDbEntity
  8
細線
 48
50.0
100
AcDbCircle
 10
8661.686708632123
 20
3601.32225310703
 30
0.0
 40
4.0
100
AcDbArc
 50
111.2538091853132
 51
248.7461908146868
  0
ARC
  5
1A395
330
747D
100
AcDbEntity
  8
細線
 48
50.0
100
AcDbCircle
 10
8661.686708632123
 20
3601.32225310703
 30
0.0
 40
17.5
100
AcDbArc
 50
306.4837370612677
 51
233.5162629387323
  0
LINE
  5
1A396
330
747D
100
AcDbEntity
  8
細線
 48
50.0
100
AcDbLine
 10
8671.686708632119
 20
3577.463292526147
 30
0.0
 11
8671.686708632121
 21
3586.447778326389
 31
0.0
  0
LINE
  5
1A397
330
747D
100
AcDbEntity
  8
細線
 48
50.0
100
AcDbLine
 10
8651.686708632121
 20
3577.463292526149
 30
0.0
 11
8651.686708632121
 21
3586.447778326384
 31
0.0
  0
ARC
  5
1A398
330
747D
100
AcDbEntity
  8
細線
 48
50.0
100
AcDbCircle
 10
8661.686708632123
 20
3601.32225310703
 30
0.0
 40
26.5
100
AcDbArc
 50
249.3326835063939
 51
290.6673164933835
  0
ARC
  5
1A399
330
747D
100
AcDbEntity
  8
細線
 48
50.0
100
AcDbCircle
 10
8670.686708632114
 20
3577.463292526147
 30
0.0
 40
1.0
100
AcDbArc
 50
290.6673164936062
 51
359.9999999998958
  0
ARC
  5
1A39A
330
747D
100
AcDbEntity
  8
細線
 48
50.0
100
AcDbCircle
 10
8652.686708632122
 20
3577.463292526149
 30
0.0
 40
1.0
100
AcDbArc
 50
180.0
 51
249.3326835066164
  0
ARC
  5
1A39B
330
747D
100
AcDbEntity
  8
細線
 48
50.0
100
AcDbCircle
 10
8650.686708632122
 20
3586.447778326384
 30
0.0
 40
1.0
100
AcDbArc
 50
0.0
 51
53.51626293873231
  0
ARC
  5
1A39C
330
747D
100
AcDbEntity
  8
細線
 48
50.0
100
AcDbCircle
 10
8672.686708632125
 20
3586.447778326389
 30
0.0
 40
1.0
100
AcDbArc
 50
126.4837370615127
 51
180.0
  0
ARC
  5
1A39D
330
747D
100
AcDbEntity
  8
細線
 48
50.0
100
AcDbCircle
 10
8661.686708632123
 20
3601.32225310703
 30
0.0
 40
21.5
100
AcDbArc
 50
255.8014401250294
 51
284.1985598749706
  0
ARC
  5
1A39E
330
747D
100
AcDbEntity
  8
細線
 48
50.0
100
AcDbCircle
 10
8661.686708632123
 20
3601.32225310703
 30
0.0
 40
16.5
100
AcDbArc
 50
251.9694646069326
 51
288.0305353930674
  0
LINE
  5
1A39F
330
747D
100
AcDbEntity
  8
細線
 48
50.0
100
AcDbLine
 10
8667.186708632121
 20
3580.769880981223
 30
0.0
 11
8667.186708632121
 21
3585.34727266856
 31
0.0
  0
LINE
  5
1A3A0
330
747D
100
AcDbEntity
  8
細線
 48
50.0
100
AcDbLine
 10
8656.186708632121
 20
3580.769880981223
 30
0.0
 11
8656.186708632121
 21
3585.347272668558
 31
0.0
  0
ARC
  5
1A3A1
330
747D
100
AcDbEntity
  8
細線
 48
50.0
100
AcDbCircle
 10
8656.486708632124
 20
3585.347272668558
 30
0.0
 40
0.3
100
AcDbArc
 50
71.96946460693259
 51
180.0
  0
ARC
  5
1A3A2
330
747D
100
AcDbEntity
  8
細線
 48
50.0
100
AcDbCircle
 10
8666.886708632123
 20
3585.34727266856
 30
0.0
 40
0.3
100
AcDbArc
 50
0.0
 51
108.0305353930674
  0
ARC
  5
1A3A3
330
747D
100
AcDbEntity
  8
細線
 48
50.0
100
AcDbCircle
 10
8666.886708632118
 20
3580.769880981223
 30
0.0
 40
0.3
100
AcDbArc
 50
284.1985598747622
 51
0.0000000001042204
  0
ARC
  5
1A3A4
330
747D
100
AcDbEntity
  8
細線
 48
50.0
100
AcDbCircle
 10
8656.486708632124
 20
3580.769880981223
 30
0.0
 40
0.3
100
AcDbArc
 50
180.0
 51
255.8014401248081
  0
CIRCLE
  5
1A3A5
330
747D
100
AcDbEntity
  8
細線
 48
50.0
100
AcDbCircle
 10
8661.686708632123
 20
3601.32225310703
 30
0.0
 40
12.0
  0
ARC
  5
1A3A6
330
747D
100
AcDbEntity
  8
部品1
 48
50.0
100
AcDbCircle
 10
8661.686708632123
 20
3651.32225310703
 30
0.0
 40
8.5
100
AcDbArc
 50
114.315739171091
 51
245.684260828909
  0
CIRCLE
  5
1A3A7
330
747D
100
AcDbEntity
  8
細線
 48
50.0
100
AcDbCircle
 10
8661.686708632123
 20
3651.32225310703
 30
0.0
 40
4.5
  0
LWPOLYLINE
  5
1A3A8
330
747D
100
AcDbEntity
  8
部品1
 48
50.0
100
AcDbPolyline
 90
        2
 70
     0
 43
0.0
 10
8658.186708632122
 20
3669.997102504012
 10
8658.186708632122
 20
3659.068219799445
  0
CIRCLE
  5
1A3A9
330
747D
100
AcDbEntity
  8
部品1
 48
50.0
100
AcDbCircle
 10
8661.686708632123
 20
3651.32225310703
 30
0.0
 40
19.0
  0
LWPOLYLINE
  5
1A3AA
330
747D
100
AcDbEntity
  8
部品1
 48
50.0
100
AcDbPolyline
 90
        2
 70
     0
 43
0.0
 10
8658.186708632122
 20
3643.576286414615
 10
8658.186708632122
 20
3632.647403710047
  0
LWPOLYLINE
  5
1A3AB
330
747D
100
AcDbEntity
  8
部品1
 48
50.0
100
AcDbPolyline
 90
        2
 70
     0
 43
0.0
 10
8665.186708632122
 20
3659.068219799445
 10
8665.186708632122
 20
3669.997102504012
  0
ARC
  5
1A3AC
330
747D
100
AcDbEntity
  8
部品1
 48
50.0
100
AcDbCircle
 10
8661.686708632123
 20
3651.32225310703
 30
0.0
 40
8.5
100
AcDbArc
 50
294.315739171091
 51
65.68426082890896
  0
LWPOLYLINE
  5
1A3AD
330
747D
100
AcDbEntity
  8
部品1
 48
50.0
100
AcDbPolyline
 90
        2
 70
     0
 43
0.0
 10
8665.186708632122
 20
3632.647403710047
 10
8665.186708632122
 20
3643.576286414615
  0
ARC
  5
1A3AE
330
747D
100
AcDbEntity
  8
細線
 48
50.0
100
AcDbCircle
 10
8661.686708632123
 20
3651.32225310703
 30
0.0
 40
16.5
100
AcDbArc
 50
332.0012352654438
 51
27.99876473455621
  0
ARC
  5
1A3AF
330
747D
100
AcDbEntity
  8
細線
 48
50.0
100
AcDbCircle
 10
8661.686708632123
 20
3651.32225310703
 30
0.0
 40
14.0
100
AcDbArc
 50
326.4074436112986
 51
33.59255638870134
  0
LINE
  5
1A3B0
330
747D
100
AcDbEntity
  8
細線
 48
50.0
100
AcDbLine
 10
8647.117906347791
 20
3659.068219799445
 30
0.0
 11
8650.024804842432
 21
3659.068219799445
 31
0.0
  0
LINE
  5
1A3B1
330
747D
100
AcDbEntity
  8
細線
 48
50.0
100
AcDbLine
 10
8647.117906347791
 20
3643.576286414615
 30
0.0
 11
8650.024804842432
 21
3643.576286414615
 31
0.0
  0
LINE
  5
1A3B2
330
747D
100
AcDbEntity
  8
細線
 48
50.0
100
AcDbLine
 10
8673.348612421809
 20
3659.068219799445
 30
0.0
 11
8676.255510916456
 21
3659.068219799445
 31
0.0
  0
LINE
  5
1A3B3
330
747D
100
AcDbEntity
  8
細線
 48
50.0
100
AcDbLine
 10
8673.348612421809
 20
3643.576286414615
 30
0.0
 11
8676.255510916456
 21
3643.576286414615
 31
0.0
  0
ARC
  5
1A3B4
330
747D
100
AcDbEntity
  8
細線
 48
50.0
100
AcDbCircle
 10
8661.686708632123
 20
3651.32225310703
 30
0.0
 40
14.0
100
AcDbArc
 50
146.4074436112986
 51
213.5925563887013
  0
ARC
  5
1A3B5
330
747D
100
AcDbEntity
  8
細線
 48
50.0
100
AcDbCircle
 10
8661.686708632123
 20
3651.32225310703
 30
0.0
 40
16.5
100
AcDbArc
 50
152.0012352654438
 51
207.9987647345562
  0
ARC
  5
1A3B6
330
747D
100
AcDbEntity
  8
部品1
 48
50.0
100
AcDbCircle
 10
8635.186708632122
 20
3676.82225310703
 30
0.0
 40
5.0
100
AcDbArc
 50
90.0
 51
180.0
  0
ARC
  5
1A3B7
330
747D
100
AcDbEntity
  8
部品1
 48
50.0
100
AcDbCircle
 10
8635.186708632122
 20
3565.822253107029
 30
0.0
 40
5.0
100
AcDbArc
 50
180.0
 51
270.0
  0
ARC
  5
1A3B8
330
747D
100
AcDbEntity
  8
部品1
 48
50.0
100
AcDbCircle
 10
8688.186708632121
 20
3565.822253107029
 30
0.0
 40
5.0
100
AcDbArc
 50
270.0
 51
0.0
  0
ARC
  5
1A3B9
330
747D
100
AcDbEntity
  8
部品1
 48
50.0
100
AcDbCircle
 10
8688.186708632121
 20
3676.82225310703
 30
0.0
 40
5.0
100
AcDbArc
 50
0.0
 51
90.0
  0
LINE
  5
1A3BB
330
747D
100
AcDbEntity
  8
部品1
 48
50.0
100
AcDbLine
 10
8630.186708632122
 20
3565.822253107029
 30
0.0
 11
8630.186708632122
 21
3676.82225310703
 31
0.0
  0
LINE
  5
1A3BC
330
747D
100
AcDbEntity
  8
部品1
 48
50.0
100
AcDbLine
 10
8688.186708632121
 20
3560.82225310703
 30
0.0
 11
8635.186708632122
 21
3560.82225310703
 31
0.0
  0
LINE
  5
1A3BD
330
747D
100
AcDbEntity
  8
部品1
 48
50.0
100
AcDbLine
 10
8693.186708632122
 20
3676.82225310703
 30
0.0
 11
8693.186708632122
 21
3565.822253107029
 31
0.0
  0
ENDSEC
  0
SECTION
  2
OBJECTS
  0
DICTIONARY
  5
7471
330
0
100
AcDbDictionary
281
     1
  3
ACAD_COLOR
350
185A4
  3
ACAD_GROUP
350
7472
  3
ACAD_LAYOUT
350
185A5
  3
ACAD_MATERIAL
350
185A3
  3
ACAD_MLINESTYLE
350
7473
  3
ACAD_PLOTSETTINGS
350
185A6
  3
ACAD_PLOTSTYLENAME
350
185A1
  3
ACDBHEADERROUNDTRIPXREC
350
1A3CC
  3
AcDbVariableDictionary
350
1A3C8
  3
CONTENTDICTIONARY
350
E71C
  3
DRAWINGVARIABLESDICT
350
F3B9
  0
DICTIONARY
  5
1873E
330
7467
100
AcDbDictionary
280
     1
281
     1
  3
ACAD_LAYERSTATES
360
1873F
  0
DICTIONARY
  5
185A4
102
{ACAD_REACTORS
330
7471
102
}
330
7471
100
AcDbDictionary
281
     1
  0
DICTIONARY
  5
7472
102
{ACAD_REACTORS
330
7471
102
}
330
7471
100
AcDbDictionary
281
     1
  0
DICTIONARY
  5
185A5
102
{ACAD_REACTORS
330
7471
102
}
330
7471
100
AcDbDictionary
281
     1
  3
Model
350
185A7
  3
レイアウト1
350
185A8
  0
DICTIONARY
  5
185A3
102
{ACAD_REACTORS
330
7471
102
}
330
7471
100
AcDbDictionary
281
     1
  0
DICTIONARY
  5
7473
102
{ACAD_REACTORS
330
7471
102
}
330
7471
100
AcDbDictionary
281
     1
  3
STANDARD
350
7480
  0
DICTIONARY
  5
185A6
102
{ACAD_REACTORS
330
7471
102
}
330
7471
100
AcDbDictionary
281
     1
  0
ACDBDICTIONARYWDFLT
  5
185A1
102
{ACAD_REACTORS
330
7471
102
}
330
7471
100
AcDbDictionary
281
     1
  3
Normal
350
185A2
100
AcDbDictionaryWithDefault
340
185A2
  0
DICTIONARY
  5
1A3CC
102
{ACAD_REACTORS
330
7471
102
}
330
7471
100
AcDbDictionary
281
     1
  3
COLORDICT
350
1A3CE
  3
MATERIALDICT
350
1A3CD
  0
DICTIONARY
  5
1A3C8
102
{ACAD_REACTORS
330
7471
102
}
330
7471
100
AcDbDictionary
281
     1
  3
DIMASSOC
350
1A3C9
  3
PROJECTNAME
350
1A3CA
  0
DICTIONARY
  5
E71C
102
{ACAD_REACTORS
330
7471
102
}
330
7471
100
AcDbDictionary
281
     1
  0
DICTIONARY
  5
F3B9
102
{ACAD_REACTORS
330
7471
102
}
330
7471
100
AcDbDictionary
281
     1
1001
DRAWINGVARIABLESXDATA
1000
POLARMODE
1000
1
  0
DICTIONARY
  5
1873F
102
{ACAD_REACTORS
330
1873E
102
}
330
1873E
100
AcDbDictionary
281
     1
  0
LAYOUT
  5
185A7
102
{ACAD_XDICTIONARY
360
1A3CF
102
}
102
{ACAD_REACTORS
330
185A5
102
}
330
185A5
100
AcDbPlotSettings
  1

  2
Microsoft Office Document Image Writer
  4

  6

 40
0.0
 41
0.0
 42
0.0
 43
0.0
 44
0.0
 45
0.0
 46
0.0
 47
0.0
 48
0.0
 49
0.0
140
0.0
141
0.0
142
1.0
143
1.0
 70
  1712
 72
     0
 73
     0
 74
     0
  7

 75
     0
147
1.0
148
0.0
149
0.0
100
AcDbLayout
  1
Model
 70
     1
 71
     0
 10
0.0
 20
0.0
 11
12.0
 21
9.0
 12
0.0
 22
0.0
 32
0.0
 14
0.0
 24
0.0
 34
0.0
 15
0.0
 25
0.0
 35
0.0
146
0.0
 13
0.0
 23
0.0
 33
0.0
 16
1.0
 26
0.0
 36
0.0
 17
0.0
 27
1.0
 37
0.0
 76
     0
330
747D
  0
LAYOUT
  5
185A8
102
{ACAD_XDICTIONARY
360
1A3D1
102
}
102
{ACAD_REACTORS
330
185A5
102
}
330
185A5
100
AcDbPlotSettings
  1

  2
Microsoft Office Document Image Writer
  4

  6

 40
0.0
 41
0.0
 42
0.0
 43
0.0
 44
0.0
 45
0.0
 46
0.0
 47
0.0
 48
0.0
 49
0.0
140
0.0
141
0.0
142
1.0
143
1.0
 70
   688
 72
     0
 73
     0
 74
     5
  7

 75
    16
147
1.0
148
0.0
149
0.0
100
AcDbLayout
  1
レイアウト1
 70
     0
 71
     1
 10
0.0
 20
0.0
 11
420.0
 21
297.0
 12
0.0
 22
0.0
 32
0.0
 14
1.000000000000000E+20
 24
1.000000000000000E+20
 34
1.000000000000000E+20
 15
-1.000000000000000E+20
 25
-1.000000000000000E+20
 35
-1.000000000000000E+20
146
0.0
 13
0.0
 23
0.0
 33
0.0
 16
1.0
 26
0.0
 36
0.0
 17
0.0
 27
1.0
 37
0.0
 76
     0
330
747A
  0
MLINESTYLE
  5
7480
102
{ACAD_REACTORS
330
7473
102
}
330
7473
100
AcDbMlineStyle
  2
STANDARD
 70
     0
  3

 62
     0
 51
90.0
 52
90.0
 71
     2
 49
0.5
 62
   256
  6
BYLAYER
 49
-0.5
 62
   256
  6
BYLAYER
  0
ACDBPLACEHOLDER
  5
185A2
102
{ACAD_REACTORS
330
185A1
102
}
330
185A1
  0
XRECORD
  5
1A3CE
102
{ACAD_REACTORS
330
1A3CC
102
}
330
1A3CC
100
AcDbXrecord
280
     1
340
185A4
  0
XRECORD
  5
1A3CD
102
{ACAD_REACTORS
330
1A3CC
102
}
330
1A3CC
100
AcDbXrecord
280
     1
340
185A3
  0
DICTIONARYVAR
  5
1A3C9
102
{ACAD_REACTORS
330
1A3C8
102
}
330
1A3C8
100
DictionaryVariables
280
     0
  1
1
  0
DICTIONARYVAR
  5
1A3CA
102
{ACAD_REACTORS
330
1A3C8
102
}
330
1A3C8
100
DictionaryVariables
280
     0
  1

  0
DICTIONARY
  5
1A3CF
330
185A7
100
AcDbDictionary
280
     1
281
     1
  3
ACAD_XREC_ROUNDTRIP
360
1A3D0
  0
DICTIONARY
  5
1A3D1
330
185A8
100
AcDbDictionary
280
     1
281
     1
  3
ACAD_XREC_ROUNDTRIP
360
1A3D2
  0
XRECORD
  5
1A3D0
102
{ACAD_REACTORS
330
1A3CF
102
}
330
1A3CF
100
AcDbXrecord
280
     1
102
SHADEPLOT
 70
     0
102
SHADEPLOTRESLEVEL
 70
     2
102
SHADEPLOTCUSTOMDPI
 70
   300
  0
XRECORD
  5
1A3D2
102
{ACAD_REACTORS
330
1A3D1
102
}
330
1A3D1
100
AcDbXrecord
280
     1
102
SHADEPLOT
 70
     0
102
SHADEPLOTRESLEVEL
 70
     2
102
SHADEPLOTCUSTOMDPI
 70
   300
  0
ENDSEC
  0
EOF
