  0
SECTION
  2
HEADER
  9
$ACADVER
  1
AC1015
  9
$ACADMAINTVER
 70
    20
  9
$DWGCODEPAGE
  3
ANSI_932
  9
$INSBASE
 10
0.0
 20
0.0
 30
0.0
  9
$EXTMIN
 10
139.9999999999995
 20
-0.0000000000000909
 30
0.0
  9
$EXTMAX
 10
16307.2
 20
11409.6
 30
0.0
  9
$LIMMIN
 10
0.0
 20
0.0
  9
$LIMMAX
 10
16800.0
 20
11880.0
  9
$ORTHOMODE
 70
     0
  9
$REGENMODE
 70
     1
  9
$FILLMODE
 70
     1
  9
$QTEXTMODE
 70
     0
  9
$MIRRTEXT
 70
     1
  9
$LTSCALE
 40
20.0
  9
$ATTMODE
 70
     1
  9
$TEXTSIZE
 40
4.0
  9
$TRACEWID
 40
1.0
  9
$TEXTSTYLE
  7
STYLE1
  9
$CLAYER
  8
部品1
  9
$CELTYPE
  6
BYLAYER
  9
$CECOLOR
 62
   256
  9
$CELTSCALE
 40
50.0
  9
$DISPSILH
 70
     0
  9
$DIMSCALE
 40
40.0
  9
$DIMASZ
 40
2.5
  9
$DIMEXO
 40
0.5
  9
$DIMDLI
 40
7.0
  9
$DIMRND
 40
0.0
  9
$DIMDLE
 40
0.0
  9
$DIMEXE
 40
1.5
  9
$DIMTP
 40
0.0
  9
$DIMTM
 40
0.0
  9
$DIMTXT
 40
3.0
  9
$DIMCEN
 40
0.0
  9
$DIMTSZ
 40
0.0
  9
$DIMTOL
 70
     0
  9
$DIMLIM
 70
     0
  9
$DIMTIH
 70
     0
  9
$DIMTOH
 70
     0
  9
$DIMSE1
 70
     0
  9
$DIMSE2
 70
     0
  9
$DIMTAD
 70
     3
  9
$DIMZIN
 70
     8
  9
$DIMBLK
  1

  9
$DIMASO
 70
     1
  9
$DIMSHO
 70
     1
  9
$DIMPOST
  1

  9
$DIMAPOST
  1

  9
$DIMALT
 70
     0
  9
$DIMALTD
 70
     2
  9
$DIMALTF
 40
0.0394
  9
$DIMLFAC
 40
1.0
  9
$DIMTOFL
 70
     1
  9
$DIMTVP
 40
0.0
  9
$DIMTIX
 70
     1
  9
$DIMSOXD
 70
     0
  9
$DIMSAH
 70
     1
  9
$DIMBLK1
  1
DOTSMALL
  9
$DIMBLK2
  1
DOTSMALL
  9
$DIMSTYLE
  2
INABA_S40G
  9
$DIMCLRD
 70
     0
  9
$DIMCLRE
 70
     0
  9
$DIMCLRT
 70
     7
  9
$DIMTFAC
 40
1.0
  9
$DIMGAP
 40
1.0
  9
$DIMJUST
 70
     0
  9
$DIMSD1
 70
     0
  9
$DIMSD2
 70
     0
  9
$DIMTOLJ
 70
     1
  9
$DIMTZIN
 70
     0
  9
$DIMALTZ
 70
     0
  9
$DIMALTTZ
 70
     0
  9
$DIMUPT
 70
     1
  9
$DIMDEC
 70
     1
  9
$DIMTDEC
 70
     4
  9
$DIMALTU
 70
     2
  9
$DIMALTTD
 70
     2
  9
$DIMTXSTY
  7
STYLE1
  9
$DIMAUNIT
 70
     0
  9
$DIMADEC
 70
     0
  9
$DIMALTRND
 40
0.0
  9
$DIMAZIN
 70
     0
  9
$DIMDSEP
 70
    46
  9
$DIMATFIT
 70
     3
  9
$DIMFRAC
 70
     0
  9
$DIMLDRBLK
  1

  9
$DIMLUNIT
 70
     2
  9
$DIMLWD
 70
    -2
  9
$DIMLWE
 70
    -2
  9
$DIMTMOVE
 70
     0
  9
$LUNITS
 70
     2
  9
$LUPREC
 70
     1
  9
$SKETCHINC
 40
1.0
  9
$FILLETRAD
 40
3.0
  9
$AUNITS
 70
     0
  9
$AUPREC
 70
     0
  9
$MENU
  1
acad
  9
$ELEVATION
 40
0.0
  9
$PELEVATION
 40
0.0
  9
$THICKNESS
 40
0.0
  9
$LIMCHECK
 70
     0
  9
$CHAMFERA
 40
0.0
  9
$CHAMFERB
 40
0.0
  9
$CHAMFERC
 40
0.0
  9
$CHAMFERD
 40
0.0
  9
$SKPOLY
 70
     0
  9
$TDCREATE
 40
2451368.612993866
  9
$TDUCREATE
 40
2451368.237993866
  9
$TDUPDATE
 40
2455575.685900058
  9
$TDUUPDATE
 40
2455575.310900058
  9
$TDINDWG
 40
0.6848228819
  9
$TDUSRTIMER
 40
0.6848228819
  9
$USRTIMER
 70
     1
  9
$ANGBASE
 50
0.0
  9
$ANGDIR
 70
     0
  9
$PDMODE
 70
     3
  9
$PDSIZE
 40
2.0
  9
$PLINEWID
 40
0.0
  9
$SPLFRAME
 70
     0
  9
$SPLINETYPE
 70
     6
  9
$SPLINESEGS
 70
     8
  9
$HANDSEED
  5
19D73
  9
$SURFTAB1
 70
     6
  9
$SURFTAB2
 70
     6
  9
$SURFTYPE
 70
     6
  9
$SURFU
 70
     6
  9
$SURFV
 70
     6
  9
$UCSBASE
  2

  9
$UCSNAME
  2

  9
$UCSORG
 10
0.0
 20
0.0
 30
0.0
  9
$UCSXDIR
 10
1.0
 20
0.0
 30
0.0
  9
$UCSYDIR
 10
0.0
 20
1.0
 30
0.0
  9
$UCSORTHOREF
  2

  9
$UCSORTHOVIEW
 70
     0
  9
$UCSORGTOP
 10
0.0
 20
0.0
 30
0.0
  9
$UCSORGBOTTOM
 10
0.0
 20
0.0
 30
0.0
  9
$UCSORGLEFT
 10
0.0
 20
0.0
 30
0.0
  9
$UCSORGRIGHT
 10
0.0
 20
0.0
 30
0.0
  9
$UCSORGFRONT
 10
0.0
 20
0.0
 30
0.0
  9
$UCSORGBACK
 10
0.0
 20
0.0
 30
0.0
  9
$PUCSBASE
  2

  9
$PUCSNAME
  2

  9
$PUCSORG
 10
0.0
 20
0.0
 30
0.0
  9
$PUCSXDIR
 10
1.0
 20
0.0
 30
0.0
  9
$PUCSYDIR
 10
0.0
 20
1.0
 30
0.0
  9
$PUCSORTHOREF
  2

  9
$PUCSORTHOVIEW
 70
     0
  9
$PUCSORGTOP
 10
0.0
 20
0.0
 30
0.0
  9
$PUCSORGBOTTOM
 10
0.0
 20
0.0
 30
0.0
  9
$PUCSORGLEFT
 10
0.0
 20
0.0
 30
0.0
  9
$PUCSORGRIGHT
 10
0.0
 20
0.0
 30
0.0
  9
$PUCSORGFRONT
 10
0.0
 20
0.0
 30
0.0
  9
$PUCSORGBACK
 10
0.0
 20
0.0
 30
0.0
  9
$USERI1
 70
     0
  9
$USERI2
 70
     0
  9
$USERI3
 70
     0
  9
$USERI4
 70
     0
  9
$USERI5
 70
     0
  9
$USERR1
 40
0.0
  9
$USERR2
 40
0.0
  9
$USERR3
 40
0.0
  9
$USERR4
 40
0.0
  9
$USERR5
 40
0.0
  9
$WORLDVIEW
 70
     1
  9
$SHADEDGE
 70
     3
  9
$SHADEDIF
 70
    70
  9
$TILEMODE
 70
     1
  9
$MAXACTVP
 70
    16
  9
$PINSBASE
 10
0.0
 20
0.0
 30
0.0
  9
$PLIMCHECK
 70
     0
  9
$PEXTMIN
 10
1.000000000000000E+20
 20
1.000000000000000E+20
 30
1.000000000000000E+20
  9
$PEXTMAX
 10
-1.000000000000000E+20
 20
-1.000000000000000E+20
 30
-1.000000000000000E+20
  9
$PLIMMIN
 10
0.0
 20
0.0
  9
$PLIMMAX
 10
420.0
 20
297.0
  9
$UNITMODE
 70
     0
  9
$VISRETAIN
 70
     0
  9
$PLINEGEN
 70
     0
  9
$PSLTSCALE
 70
     0
  9
$TREEDEPTH
 70
  3020
  9
$CMLSTYLE
  2
STANDARD
  9
$CMLJUST
 70
     0
  9
$CMLSCALE
 40
1.0
  9
$PROXYGRAPHICS
 70
     1
  9
$MEASUREMENT
 70
     1
  9
$CELWEIGHT
370
    -1
  9
$ENDCAPS
280
     0
  9
$JOINSTYLE
280
     0
  9
$LWDISPLAY
290
     0
  9
$INSUNITS
 70
     0
  9
$HYPERLINKBASE
  1

  9
$STYLESHEET
  1

  9
$XEDIT
290
     1
  9
$CEPSNTYPE
380
     0
  9
$PSTYLEMODE
290
     1
  9
$FINGERPRINTGUID
  2
{B26049C9-524F-411F-BDE6-4F9F0F0DABE2}
  9
$VERSIONGUID
  2
{6F3BDEF1-E33E-42AA-B4E6-D01DB642A871}
  9
$EXTNAMES
290
     1
  9
$PSVPSCALE
 40
0.0
  9
$OLESTARTUP
290
     0
  0
ENDSEC
  0
SECTION
  2
CLASSES
  0
CLASS
  1
ACDBDICTIONARYWDFLT
  2
AcDbDictionaryWithDefault
  3
ObjectDBX Classes
 90
        0
280
     0
281
     0
  0
CLASS
  1
DICTIONARYVAR
  2
AcDbDictionaryVar
  3
ObjectDBX Classes
 90
        0
280
     0
281
     0
  0
CLASS
  1
ACDBPLACEHOLDER
  2
AcDbPlaceHolder
  3
ObjectDBX Classes
 90
        0
280
     0
281
     0
  0
CLASS
  1
LAYOUT
  2
AcDbLayout
  3
ObjectDBX Classes
 90
        0
280
     0
281
     0
  0
ENDSEC
  0
SECTION
  2
TABLES
  0
TABLE
  2
VPORT
  5
746D
330
0
100
AcDbSymbolTable
 70
     2
  0
VPORT
  5
19D6B
330
746D
100
AcDbSymbolTableRecord
100
AcDbViewportTableRecord
  2
*Active
 70
     0
 10
0.0
 20
0.0
 11
1.0
 21
1.0
 12
8223.761025238502
 22
6348.534373990247
 13
0.0
 23
0.0
 14
10.0
 24
10.0
 15
10.0
 25
10.0
 16
0.0
 26
0.0
 36
1.0
 17
0.0
 27
0.0
 37
0.0
 40
12805.99765711426
 41
1.525925925925925
 42
50.0
 43
0.0
 44
0.0
 50
0.0
 51
0.0
 71
     0
 72
     0
 73
     1
 74
     0
 75
     0
 76
     0
 77
     0
 78
     0
281
     0
 65
     1
110
0.0
120
0.0
130
0.0
111
1.0
121
0.0
131
0.0
112
0.0
122
1.0
132
0.0
 79
     0
146
0.0
  0
ENDTAB
  0
TABLE
  2
LTYPE
  5
746A
330
0
100
AcDbSymbolTable
 70
     4
  0
LTYPE
  5
7477
330
746A
100
AcDbSymbolTableRecord
100
AcDbLinetypeTableRecord
  2
BYBLOCK
 70
     0
  3

 72
    65
 73
     0
 40
0.0
  0
LTYPE
  5
7478
330
746A
100
AcDbSymbolTableRecord
100
AcDbLinetypeTableRecord
  2
BYLAYER
 70
     0
  3

 72
    65
 73
     0
 40
0.0
  0
LTYPE
  5
7479
330
746A
100
AcDbSymbolTableRecord
100
AcDbLinetypeTableRecord
  2
CONTINUOUS
 70
     0
  3
Solid line
 72
    65
 73
     0
 40
0.0
  0
LTYPE
  5
7816
330
746A
100
AcDbSymbolTableRecord
100
AcDbLinetypeTableRecord
  2
CENTER
 70
     0
  3
____ _ ____ _ ____ _ ____ _ ____ _ ____ _ ____ 
 72
    65
 73
     4
 40
2.0
 49
1.25
 74
     0
 49
-0.25
 74
     0
 49
0.25
 74
     0
 49
-0.25
 74
     0
  0
LTYPE
  5
781A
330
746A
100
AcDbSymbolTableRecord
100
AcDbLinetypeTableRecord
  2
HIDDEN
 70
     0
  3
__ __ __ __ __ __ __ __ __ __ __ __ __ __ __ __
 72
    65
 73
     2
 40
0.375
 49
0.25
 74
     0
 49
-0.125
 74
     0
  0
LTYPE
  5
781B
330
746A
100
AcDbSymbolTableRecord
100
AcDbLinetypeTableRecord
  2
PHANTOM
 70
     0
  3
______  __  __  ______  __  __  ______  __  __ 
 72
    65
 73
     6
 40
2.5
 49
1.25
 74
     0
 49
-0.25
 74
     0
 49
0.25
 74
     0
 49
-0.25
 74
     0
 49
0.25
 74
     0
 49
-0.25
 74
     0
  0
ENDTAB
  0
TABLE
  2
LAYER
  5
7467
102
{ACAD_XDICTIONARY
360
1867F
102
}
330
0
100
AcDbSymbolTable
 70
    12
  0
LAYER
  5
7474
330
7467
100
AcDbSymbolTableRecord
100
AcDbLayerTableRecord
  2
0
 70
     0
 62
     7
  6
CONTINUOUS
370
    -3
390
184FC
  0
LAYER
  5
DEB2
330
7467
100
AcDbSymbolTableRecord
100
AcDbLayerTableRecord
  2
センター
 70
     0
 62
     3
  6
CENTER
370
    -3
390
184FC
  0
LAYER
  5
DEB3
330
7467
100
AcDbSymbolTableRecord
100
AcDbLayerTableRecord
  2
寸法
 70
     0
 62
     4
  6
CONTINUOUS
370
    -3
390
184FC
  0
LAYER
  5
DEB4
330
7467
100
AcDbSymbolTableRecord
100
AcDbLayerTableRecord
  2
部品1
 70
     0
 62
     7
  6
CONTINUOUS
370
    -3
390
184FC
  0
LAYER
  5
DEB5
330
7467
100
AcDbSymbolTableRecord
100
AcDbLayerTableRecord
  2
補助
 70
     0
 62
    -1
  6
CONTINUOUS
370
    -3
390
184FC
  0
LAYER
  5
DEB6
330
7467
100
AcDbSymbolTableRecord
100
AcDbLayerTableRecord
  2
文字
 70
     0
 62
     7
  6
CONTINUOUS
370
    -3
390
184FC
  0
LAYER
  5
F255
330
7467
100
AcDbSymbolTableRecord
100
AcDbLayerTableRecord
  2
DEFPOINTS
 70
     0
 62
     7
  6
CONTINUOUS
290
     0
370
    -3
390
184FC
  0
LAYER
  5
10B54
330
7467
100
AcDbSymbolTableRecord
100
AcDbLayerTableRecord
  2
仕様書枠
 70
     0
 62
   230
  6
CONTINUOUS
370
    -3
390
184FC
  0
LAYER
  5
11729
330
7467
100
AcDbSymbolTableRecord
100
AcDbLayerTableRecord
  2
Ｇ．Ｌ
 70
     0
 62
    30
  6
CONTINUOUS
370
    -3
390
184FC
  0
LAYER
  5
1173F
330
7467
100
AcDbSymbolTableRecord
100
AcDbLayerTableRecord
  2
細線
 70
     0
 62
     5
  6
CONTINUOUS
370
    -3
390
184FC
  0
LAYER
  5
12CC4
330
7467
100
AcDbSymbolTableRecord
100
AcDbLayerTableRecord
  2
想像線
 70
     0
 62
     6
  6
PHANTOM
370
    -3
390
184FC
  0
LAYER
  5
142E2
330
7467
100
AcDbSymbolTableRecord
100
AcDbLayerTableRecord
  2
破線
 70
     0
 62
     2
  6
HIDDEN
370
    -3
390
184FC
  0
ENDTAB
  0
TABLE
  2
STYLE
  5
7468
330
0
100
AcDbSymbolTable
 70
     4
  0
STYLE
  5
7475
330
7468
100
AcDbSymbolTableRecord
100
AcDbTextStyleTableRecord
  2
STANDARD
 70
     0
 40
0.0
 41
1.0
 50
0.0
 71
     0
 42
4.0
  3
txt
  4
C:\AutoCAD LT\bigfont.shx
  0
STYLE
  5
F706
330
7468
100
AcDbSymbolTableRecord
100
AcDbTextStyleTableRecord
  2
STYLE1
 70
     0
 40
0.0
 41
1.0
 50
0.0
 71
     0
 42
4.0
  3
isocp.shx
  4
bigfont.shx
  0
STYLE
  5
103BF
330
7468
100
AcDbSymbolTableRecord
100
AcDbTextStyleTableRecord
  2
STYLE2
 70
     0
 40
0.0
 41
1.0
 50
0.0
 71
     0
 42
100.0
  3
MS PGothic.ttf
  4

1001
ACAD
1000
MS PGothic
1071
    32818
  0
STYLE
  5
1902E
330
7468
100
AcDbSymbolTableRecord
100
AcDbTextStyleTableRecord
  2
STYLE3
 70
     0
 40
0.0
 41
1.0
 50
0.0
 71
     0
 42
100.0
  3

  4

1001
ACAD
1000
DFPGothic-EB
1071
    32818
  0
ENDTAB
  0
TABLE
  2
VIEW
  5
746B
330
0
100
AcDbSymbolTable
 70
     0
  0
ENDTAB
  0
TABLE
  2
UCS
  5
746C
330
0
100
AcDbSymbolTable
 70
     0
  0
ENDTAB
  0
TABLE
  2
APPID
  5
746E
330
0
100
AcDbSymbolTable
 70
     6
  0
APPID
  5
7476
330
746E
100
AcDbSymbolTableRecord
100
AcDbRegAppTableRecord
  2
ACAD
 70
     0
  0
APPID
  5
DEA9
330
746E
100
AcDbSymbolTableRecord
100
AcDbRegAppTableRecord
  2
CONTENTBLOCKICON
 70
     0
  0
APPID
  5
DEAA
330
746E
100
AcDbSymbolTableRecord
100
AcDbRegAppTableRecord
  2
CONTENTBLOCKDESCRIPTION
 70
     0
  0
APPID
  5
E71D
330
746E
100
AcDbSymbolTableRecord
100
AcDbRegAppTableRecord
  2
CONTENTTABDATA
 70
     0
  0
APPID
  5
E71E
330
746E
100
AcDbSymbolTableRecord
100
AcDbRegAppTableRecord
  2
CONTENTCURRENTTAB
 70
     0
  0
APPID
  5
F3BA
330
746E
100
AcDbSymbolTableRecord
100
AcDbRegAppTableRecord
  2
DRAWINGVARIABLESXDATA
 70
     0
  0
ENDTAB
  0
TABLE
  2
DIMSTYLE
  5
746F
330
0
100
AcDbSymbolTable
 70
     5
100
AcDbDimStyleTable
 71
     1
340
F71F
  0
DIMSTYLE
105
7484
330
746F
100
AcDbSymbolTableRecord
100
AcDbDimStyleTableRecord
  2
JIS
 70
     0
 41
2.5
 42
1.0
 43
7.0
 44
1.0
 73
     0
 74
     0
 77
     1
 78
     8
140
2.5
141
0.0
143
0.0394
147
0.0
172
     1
174
     1
175
     1
340
7475
  0
DIMSTYLE
105
F71F
102
{ACAD_REACTORS
330
18978
330
1897C
330
18988
330
18989
330
1898A
330
189C5
330
189D0
330
189D1
330
189D2
330
189D3
330
189D4
330
189F2
330
189F3
330
189F4
330
189F5
330
18A0C
330
18A69
330
193DF
330
193E4
330
193EC
330
193ED
330
193EE
330
193FA
330
193FC
330
19428
330
19429
330
194CD
330
19A00
330
19A07
102
}
330
746F
100
AcDbSymbolTableRecord
100
AcDbDimStyleTableRecord
  2
INABA_S40G
 70
     0
 40
40.0
 41
2.5
 42
0.5
 43
7.0
 44
1.5
 73
     0
 74
     0
 77
     3
 78
     8
140
3.0
141
0.0
143
0.0394
147
1.0
172
     1
173
     1
174
     1
178
     7
271
     1
288
     1
340
F706
341
F770
343
F770
344
F770
  0
DIMSTYLE
105
1867E
102
{ACAD_REACTORS
330
197AA
330
19A06
102
}
330
746F
100
AcDbSymbolTableRecord
100
AcDbDimStyleTableRecord
  2
INABA_S40
 70
     0
 40
40.0
 41
2.5
 42
0.5
 43
7.0
 44
1.5
 73
     0
 74
     0
 77
     3
 78
     8
140
3.0
141
0.0
143
0.0394
147
1.0
172
     1
173
     1
174
     1
175
     1
178
     7
340
7475
  0
DIMSTYLE
105
1902F
330
746F
100
AcDbSymbolTableRecord
100
AcDbDimStyleTableRecord
  2
INABA_S50G
 70
     0
 41
125.0
 42
25.0
 43
7.0
 44
75.0
 73
     0
 74
     0
 77
     3
 78
     8
140
150.0
141
0.0
143
0.0394
147
25.0
172
     1
173
     1
174
     1
175
     1
178
     7
271
     1
340
F706
341
F770
343
F770
344
F770
  0
DIMSTYLE
105
19D01
330
746F
100
AcDbSymbolTableRecord
100
AcDbDimStyleTableRecord
  2
INABA_S20G
 70
     0
 40
20.0
 41
2.5
 42
0.5
 43
7.0
 44
1.5
 73
     0
 74
     0
 77
     3
 78
     8
140
3.0
141
0.0
143
0.0394
147
1.0
172
     1
173
     1
174
     1
178
     7
271
     1
340
F706
341
F770
343
F770
344
F770
  0
ENDTAB
  0
TABLE
  2
BLOCK_RECORD
  5
7466
330
0
100
AcDbSymbolTable
 70
    33
  0
BLOCK_RECORD
  5
747D
330
7466
100
AcDbSymbolTableRecord
100
AcDbBlockTableRecord
  2
*MODEL_SPACE
340
18501
  0
BLOCK_RECORD
  5
747A
330
7466
100
AcDbSymbolTableRecord
100
AcDbBlockTableRecord
  2
*PAPER_SPACE
340
18502
  0
BLOCK_RECORD
  5
F770
330
7466
100
AcDbSymbolTableRecord
100
AcDbBlockTableRecord
  2
_DOTSMALL
340
0
102
{BLKREFS
331
19183
331
19184
331
1918C
331
1918D
331
19195
331
19196
331
191A0
331
191A1
331
191A9
331
191AA
331
191B3
331
191B4
331
191BC
331
191BD
331
191C5
331
191C6
331
191D0
331
191D1
331
191DA
331
191DB
331
191E3
331
191E4
331
191EE
331
191EF
331
191F7
331
191F8
331
19202
331
19203
331
1920B
331
1920C
331
19214
331
19215
331
1921D
331
1921E
331
19C4F
331
19C50
331
19C63
331
19C64
331
19C75
331
19C76
331
19C87
331
19C88
331
19C90
331
19C91
331
19C9B
331
19C9C
331
19CA4
331
19CA5
331
19CAF
331
19CB0
331
19CBA
331
19CBB
331
19CC3
331
19CC4
331
19CCE
331
19CCF
331
19CF2
331
19CF3
102
}
  0
BLOCK_RECORD
  5
18509
330
7466
100
AcDbSymbolTableRecord
100
AcDbBlockTableRecord
  2
_DOT
340
0
102
{BLKREFS
331
19C5A
331
19C5B
331
19C6C
331
19C6D
102
}
  0
BLOCK_RECORD
  5
18BAD
330
7466
100
AcDbSymbolTableRecord
100
AcDbBlockTableRecord
  2
*D2
340
0
  0
BLOCK_RECORD
  5
18BB9
330
7466
100
AcDbSymbolTableRecord
100
AcDbBlockTableRecord
  2
*D3
340
0
  0
BLOCK_RECORD
  5
18BC5
330
7466
100
AcDbSymbolTableRecord
100
AcDbBlockTableRecord
  2
*D4
340
0
  0
BLOCK_RECORD
  5
18BD1
330
7466
100
AcDbSymbolTableRecord
100
AcDbBlockTableRecord
  2
*D5
340
0
  0
BLOCK_RECORD
  5
18BDF
330
7466
100
AcDbSymbolTableRecord
100
AcDbBlockTableRecord
  2
*D6
340
0
  0
BLOCK_RECORD
  5
18BEB
330
7466
100
AcDbSymbolTableRecord
100
AcDbBlockTableRecord
  2
*D7
340
0
  0
BLOCK_RECORD
  5
18BF9
330
7466
100
AcDbSymbolTableRecord
100
AcDbBlockTableRecord
  2
*D8
340
0
  0
BLOCK_RECORD
  5
18C05
330
7466
100
AcDbSymbolTableRecord
100
AcDbBlockTableRecord
  2
*D9
340
0
  0
BLOCK_RECORD
  5
18C12
330
7466
100
AcDbSymbolTableRecord
100
AcDbBlockTableRecord
  2
*D10
340
0
  0
BLOCK_RECORD
  5
18C20
330
7466
100
AcDbSymbolTableRecord
100
AcDbBlockTableRecord
  2
*D11
340
0
  0
BLOCK_RECORD
  5
18C2C
330
7466
100
AcDbSymbolTableRecord
100
AcDbBlockTableRecord
  2
*D12
340
0
  0
BLOCK_RECORD
  5
18C38
330
7466
100
AcDbSymbolTableRecord
100
AcDbBlockTableRecord
  2
*D13
340
0
  0
BLOCK_RECORD
  5
18C45
330
7466
100
AcDbSymbolTableRecord
100
AcDbBlockTableRecord
  2
*D14
340
0
  0
BLOCK_RECORD
  5
18C51
330
7466
100
AcDbSymbolTableRecord
100
AcDbBlockTableRecord
  2
*D15
340
0
  0
BLOCK_RECORD
  5
18C5F
330
7466
100
AcDbSymbolTableRecord
100
AcDbBlockTableRecord
  2
*D16
340
0
  0
BLOCK_RECORD
  5
18C6B
330
7466
100
AcDbSymbolTableRecord
100
AcDbBlockTableRecord
  2
*D17
340
0
  0
BLOCK_RECORD
  5
18C77
330
7466
100
AcDbSymbolTableRecord
100
AcDbBlockTableRecord
  2
*D18
340
0
  0
BLOCK_RECORD
  5
194D5
330
7466
100
AcDbSymbolTableRecord
100
AcDbBlockTableRecord
  2
*D19
340
0
  0
BLOCK_RECORD
  5
194E3
330
7466
100
AcDbSymbolTableRecord
100
AcDbBlockTableRecord
  2
*D20
340
0
  0
BLOCK_RECORD
  5
194EF
330
7466
100
AcDbSymbolTableRecord
100
AcDbBlockTableRecord
  2
*D21
340
0
  0
BLOCK_RECORD
  5
194FD
330
7466
100
AcDbSymbolTableRecord
100
AcDbBlockTableRecord
  2
*D22
340
0
  0
BLOCK_RECORD
  5
1950B
330
7466
100
AcDbSymbolTableRecord
100
AcDbBlockTableRecord
  2
*D23
340
0
  0
BLOCK_RECORD
  5
19523
330
7466
100
AcDbSymbolTableRecord
100
AcDbBlockTableRecord
  2
*D24
340
0
  0
BLOCK_RECORD
  5
19531
330
7466
100
AcDbSymbolTableRecord
100
AcDbBlockTableRecord
  2
*D25
340
0
  0
BLOCK_RECORD
  5
1953D
330
7466
100
AcDbSymbolTableRecord
100
AcDbBlockTableRecord
  2
*D26
340
0
  0
BLOCK_RECORD
  5
19549
330
7466
100
AcDbSymbolTableRecord
100
AcDbBlockTableRecord
  2
*D27
340
0
  0
BLOCK_RECORD
  5
1956F
330
7466
100
AcDbSymbolTableRecord
100
AcDbBlockTableRecord
  2
*D28
340
0
  0
BLOCK_RECORD
  5
1980E
330
7466
100
AcDbSymbolTableRecord
100
AcDbBlockTableRecord
  2
*D29
340
0
  0
BLOCK_RECORD
  5
19AF5
330
7466
100
AcDbSymbolTableRecord
100
AcDbBlockTableRecord
  2
*D30
340
0
  0
BLOCK_RECORD
  5
19B01
330
7466
100
AcDbSymbolTableRecord
100
AcDbBlockTableRecord
  2
*D31
340
0
  0
BLOCK_RECORD
  5
19B0F
330
7466
100
AcDbSymbolTableRecord
100
AcDbBlockTableRecord
  2
*D32
340
0
  0
ENDTAB
  0
ENDSEC
  0
SECTION
  2
BLOCKS
  0
BLOCK
  5
7489
330
747D
100
AcDbEntity
  8
0
100
AcDbBlockBegin
  2
*MODEL_SPACE
 70
     0
 10
0.0
 20
0.0
 30
0.0
  3
*MODEL_SPACE
  1

  0
ENDBLK
  5
748A
330
747D
100
AcDbEntity
  8
0
100
AcDbBlockEnd
  0
BLOCK
  5
7487
330
747A
100
AcDbEntity
 67
     1
  8
0
100
AcDbBlockBegin
  2
*PAPER_SPACE
 70
     0
 10
0.0
 20
0.0
 30
0.0
  3
*PAPER_SPACE
  1

  0
ENDBLK
  5
7488
330
747A
100
AcDbEntity
 67
     1
  8
0
100
AcDbBlockEnd
  0
BLOCK
  5
F771
330
F770
100
AcDbEntity
  8
0
 48
50.0
100
AcDbBlockBegin
  2
_DOTSMALL
 70
     0
 10
0.0
 20
0.0
 30
0.0
  3
_DOTSMALL
  1

  0
LWPOLYLINE
  5
F772
330
F770
100
AcDbEntity
  8
0
  6
ByBlock
 62
     0
 48
50.0
100
AcDbPolyline
 90
        2
 70
     1
 43
0.5
 10
-0.0625
 20
0.0
 42
1.0
 10
0.0625
 20
0.0
 42
1.0
  0
ENDBLK
  5
F776
330
F770
100
AcDbEntity
  8
0
 48
50.0
100
AcDbBlockEnd
  0
BLOCK
  5
1850A
330
18509
100
AcDbEntity
  8
0
 48
50.0
100
AcDbBlockBegin
  2
_DOT
 70
     0
 10
0.0
 20
0.0
 30
0.0
  3
_DOT
  1

  0
LWPOLYLINE
  5
1850B
330
18509
100
AcDbEntity
  8
0
  6
ByBlock
 62
     0
 48
50.0
100
AcDbPolyline
 90
        2
 70
     1
 43
0.5
 10
-0.25
 20
0.0
 42
1.0
 10
0.25
 20
0.0
 42
1.0
  0
LINE
  5
1850C
330
18509
100
AcDbEntity
  8
0
  6
ByBlock
 62
     0
 48
50.0
100
AcDbLine
 10
-0.5
 20
0.0
 30
0.0
 11
-1.0
 21
0.0
 31
0.0
  0
ENDBLK
  5
1850D
330
18509
100
AcDbEntity
  8
0
 48
50.0
100
AcDbBlockEnd
  0
BLOCK
  5
18BB7
330
18BAD
100
AcDbEntity
  8
0
 48
50.0
100
AcDbBlockBegin
  2
*D2
 70
     1
 10
0.0
 20
0.0
 30
0.0
  3
*D2
  1

  0
LINE
  5
1921A
330
18BAD
100
AcDbEntity
  8
寸法
 62
     0
 48
50.0
370
    -2
100
AcDbLine
 10
4708.955905017275
 20
2166.150592134394
 30
0.0
 11
4519.455901770639
 21
2166.150592134394
 31
0.0
  0
LINE
  5
1921B
330
18BAD
100
AcDbEntity
  8
寸法
 62
     0
 48
50.0
370
    -2
100
AcDbLine
 10
4683.955905017272
 20
2366.150592134394
 30
0.0
 11
4519.455901770639
 21
2366.150592134394
 31
0.0
  0
LINE
  5
1921C
330
18BAD
100
AcDbEntity
  8
寸法
 62
     0
 48
50.0
370
    -2
100
AcDbLine
 10
4579.455901770638
 20
2166.150592134394
 30
0.0
 11
4579.455901770638
 21
2366.150592134394
 31
0.0
  0
INSERT
  5
1921D
330
18BAD
100
AcDbEntity
  8
寸法
 62
     0
 48
50.0
370
    -2
100
AcDbBlockReference
  2
_DOTSMALL
 10
4579.455901770638
 20
2166.150592134394
 30
0.0
 41
100.0
 42
100.0
 43
100.0
 50
270.0
  0
INSERT
  5
1921E
330
18BAD
100
AcDbEntity
  8
寸法
 62
     0
 48
50.0
370
    -2
100
AcDbBlockReference
  2
_DOTSMALL
 10
4579.455901770638
 20
2366.150592134394
 30
0.0
 41
100.0
 42
100.0
 43
100.0
 50
90.0
  0
MTEXT
  5
1921F
330
18BAD
100
AcDbEntity
  8
寸法
 62
     7
 48
50.0
100
AcDbMText
 10
4479.444090747016
 20
2266.150592134394
 30
0.0
 40
120.0
 41
0.0
 71
     5
 72
     1
  1
\A1;200
  7
STYLE1
 11
0.0000000000000001
 21
1.0
 31
0.0
 73
     1
 44
1.0
1001
ACAD
1000
MTEXTBEGIN
1070
    73
1070
     1
1070
    44
1040
1.0
1070
    74
1070
     0
1000
MTEXTEND
  0
POINT
  5
19220
330
18BAD
100
AcDbEntity
  8
DEFPOINTS
 62
     0
 48
50.0
100
AcDbPoint
 10
4728.955905017275
 20
2166.150592134394
 30
0.0
  0
POINT
  5
19221
330
18BAD
100
AcDbEntity
  8
DEFPOINTS
 62
     0
 48
50.0
100
AcDbPoint
 10
4703.955905017272
 20
2366.150592134394
 30
0.0
  0
POINT
  5
19222
330
18BAD
100
AcDbEntity
  8
DEFPOINTS
 62
     0
 48
50.0
100
AcDbPoint
 10
4579.455901770638
 20
2366.150592134394
 30
0.0
  0
ENDBLK
  5
18BB8
330
18BAD
100
AcDbEntity
  8
0
 48
50.0
100
AcDbBlockEnd
  0
BLOCK
  5
18BC3
330
18BB9
100
AcDbEntity
  8
0
 48
50.0
100
AcDbBlockBegin
  2
*D3
 70
     1
 10
0.0
 20
0.0
 30
0.0
  3
*D3
  1

  0
LINE
  5
19211
330
18BB9
100
AcDbEntity
  8
寸法
 62
     0
 48
50.0
370
    -2
100
AcDbLine
 10
4928.955905017271
 20
2146.150592134393
 30
0.0
 11
4928.955905017271
 21
1820.103262834016
 31
0.0
  0
LINE
  5
19212
330
18BB9
100
AcDbEntity
  8
寸法
 62
     0
 48
50.0
370
    -2
100
AcDbLine
 10
4728.955905017275
 20
2146.150592134394
 30
0.0
 11
4728.955905017275
 21
1820.103262834016
 31
0.0
  0
LINE
  5
19213
330
18BB9
100
AcDbEntity
  8
寸法
 62
     0
 48
50.0
370
    -2
100
AcDbLine
 10
4928.955905017271
 20
1880.103262834016
 30
0.0
 11
4728.955905017275
 21
1880.103262834016
 31
0.0
  0
INSERT
  5
19214
330
18BB9
100
AcDbEntity
  8
寸法
 62
     0
 48
50.0
370
    -2
100
AcDbBlockReference
  2
_DOTSMALL
 10
4928.955905017271
 20
1880.103262834016
 30
0.0
 41
100.0
 42
100.0
 43
100.0
  0
INSERT
  5
19215
330
18BB9
100
AcDbEntity
  8
寸法
 62
     0
 48
50.0
370
    -2
100
AcDbBlockReference
  2
_DOTSMALL
 10
4728.955905017275
 20
1880.103262834016
 30
0.0
 41
100.0
 42
100.0
 43
100.0
 50
180.0
  0
MTEXT
  5
19216
330
18BB9
100
AcDbEntity
  8
寸法
 62
     7
 48
50.0
100
AcDbMText
 10
4828.955905017274
 20
1980.115073857638
 30
0.0
 40
120.0
 41
0.0
 71
     5
 72
     1
  1
\A1;200
  7
STYLE1
 73
     1
 44
1.0
1001
ACAD
1000
MTEXTBEGIN
1070
    73
1070
     1
1070
    44
1040
1.0
1070
    74
1070
     0
1000
MTEXTEND
  0
POINT
  5
19217
330
18BB9
100
AcDbEntity
  8
DEFPOINTS
 62
     0
 48
50.0
100
AcDbPoint
 10
4928.955905017271
 20
2166.150592134393
 30
0.0
  0
POINT
  5
19218
330
18BB9
100
AcDbEntity
  8
DEFPOINTS
 62
     0
 48
50.0
100
AcDbPoint
 10
4728.955905017275
 20
2166.150592134394
 30
0.0
  0
POINT
  5
19219
330
18BB9
100
AcDbEntity
  8
DEFPOINTS
 62
     0
 48
50.0
100
AcDbPoint
 10
4728.955905017275
 20
1880.103262834016
 30
0.0
  0
ENDBLK
  5
18BC4
330
18BB9
100
AcDbEntity
  8
0
 48
50.0
100
AcDbBlockEnd
  0
BLOCK
  5
18BCF
330
18BC5
100
AcDbEntity
  8
0
 48
50.0
100
AcDbBlockBegin
  2
*D4
 70
     1
 10
0.0
 20
0.0
 30
0.0
  3
*D4
  1

  0
LINE
  5
19208
330
18BC5
100
AcDbEntity
  8
寸法
 62
     0
 48
50.0
370
    -2
100
AcDbLine
 10
4751.455905017272
 20
4861.1505921344
 30
0.0
 11
4751.455905017272
 21
5515.364725983118
 31
0.0
  0
LINE
  5
19209
330
18BC5
100
AcDbEntity
  8
寸法
 62
     0
 48
50.0
370
    -2
100
AcDbLine
 10
7061.455905017274
 20
4861.150592134396
 30
0.0
 11
7061.455905017274
 21
5515.364725983118
 31
0.0
  0
LINE
  5
1920A
330
18BC5
100
AcDbEntity
  8
寸法
 62
     0
 48
50.0
370
    -2
100
AcDbLine
 10
4751.455905017272
 20
5455.364725983118
 30
0.0
 11
7061.455905017274
 21
5455.364725983118
 31
0.0
  0
INSERT
  5
1920B
330
18BC5
100
AcDbEntity
  8
寸法
 62
     0
 48
50.0
370
    -2
100
AcDbBlockReference
  2
_DOTSMALL
 10
4751.455905017272
 20
5455.364725983118
 30
0.0
 41
100.0
 42
100.0
 43
100.0
 50
180.0
  0
INSERT
  5
1920C
330
18BC5
100
AcDbEntity
  8
寸法
 62
     0
 48
50.0
370
    -2
100
AcDbBlockReference
  2
_DOTSMALL
 10
7061.455905017274
 20
5455.364725983118
 30
0.0
 41
100.0
 42
100.0
 43
100.0
  0
MTEXT
  5
1920D
330
18BC5
100
AcDbEntity
  8
寸法
 62
     7
 48
50.0
100
AcDbMText
 10
5906.455905017272
 20
5555.37653700674
 30
0.0
 40
120.0
 41
0.0
 71
     5
 72
     1
  1
\A1;2310
  7
STYLE1
 73
     1
 44
1.0
1001
ACAD
1000
MTEXTBEGIN
1070
    73
1070
     1
1070
    44
1040
1.0
1070
    74
1070
     0
1000
MTEXTEND
  0
POINT
  5
1920E
330
18BC5
100
AcDbEntity
  8
DEFPOINTS
 62
     0
 48
50.0
100
AcDbPoint
 10
4751.455905017272
 20
4841.1505921344
 30
0.0
  0
POINT
  5
1920F
330
18BC5
100
AcDbEntity
  8
DEFPOINTS
 62
     0
 48
50.0
100
AcDbPoint
 10
7061.455905017274
 20
4841.150592134397
 30
0.0
  0
POINT
  5
19210
330
18BC5
100
AcDbEntity
  8
DEFPOINTS
 62
     0
 48
50.0
100
AcDbPoint
 10
7061.455905017274
 20
5455.364725983118
 30
0.0
  0
ENDBLK
  5
18BD0
330
18BC5
100
AcDbEntity
  8
0
 48
50.0
100
AcDbBlockEnd
  0
BLOCK
  5
18BDD
330
18BD1
100
AcDbEntity
  8
0
 48
50.0
100
AcDbBlockBegin
  2
*D5
 70
     1
 10
0.0
 20
0.0
 30
0.0
  3
*D5
  1

  0
LINE
  5
191FD
330
18BD1
100
AcDbEntity
  8
寸法
 62
     0
 48
50.0
370
    -2
100
AcDbLine
 10
4801.455905017272
 20
4861.1505921344
 30
0.0
 11
4801.455905017272
 21
5305.770851561667
 31
0.0
  0
LINE
  5
191FE
330
18BD1
100
AcDbEntity
  8
寸法
 62
     0
 48
50.0
370
    -2
100
AcDbLine
 10
4751.455905017272
 20
4861.1505921344
 30
0.0
 11
4751.455905017272
 21
5305.770851561667
 31
0.0
  0
LINE
  5
191FF
330
18BD1
100
AcDbEntity
  8
寸法
 62
     0
 48
50.0
370
    -2
100
AcDbLine
 10
4801.455905017272
 20
5245.770851561667
 30
0.0
 11
4901.455905017272
 21
5245.770851561667
 31
0.0
  0
LINE
  5
19200
330
18BD1
100
AcDbEntity
  8
寸法
 62
     0
 48
50.0
370
    -2
100
AcDbLine
 10
4751.455905017272
 20
5245.770851561667
 30
0.0
 11
4331.923379548537
 21
5245.770851561667
 31
0.0
  0
LINE
  5
19201
330
18BD1
100
AcDbEntity
  8
寸法
 62
     0
 48
50.0
370
    -2
100
AcDbLine
 10
4801.455905017272
 20
5245.770851561667
 30
0.0
 11
4751.455905017272
 21
5245.770851561667
 31
0.0
  0
INSERT
  5
19202
330
18BD1
100
AcDbEntity
  8
寸法
 62
     0
 48
50.0
370
    -2
100
AcDbBlockReference
  2
_DOTSMALL
 10
4801.455905017272
 20
5245.770851561667
 30
0.0
 41
100.0
 42
100.0
 43
100.0
 50
180.0
  0
INSERT
  5
19203
330
18BD1
100
AcDbEntity
  8
寸法
 62
     0
 48
50.0
370
    -2
100
AcDbBlockReference
  2
_DOTSMALL
 10
4751.455905017272
 20
5245.770851561667
 30
0.0
 41
100.0
 42
100.0
 43
100.0
  0
MTEXT
  5
19204
330
18BD1
100
AcDbEntity
  8
寸法
 62
     7
 48
50.0
100
AcDbMText
 10
4437.970623643024
 20
5345.770851561667
 30
0.0
 40
120.0
 41
0.0
 71
     5
 72
     1
  1
\A1;50
  7
STYLE1
 73
     1
 44
1.0
1001
ACAD
1000
MTEXTBEGIN
1070
    73
1070
     1
1070
    44
1040
1.0
1070
    74
1070
     0
1000
MTEXTEND
  0
POINT
  5
19205
330
18BD1
100
AcDbEntity
  8
DEFPOINTS
 62
     0
 48
50.0
100
AcDbPoint
 10
4801.455905017272
 20
4841.1505921344
 30
0.0
  0
POINT
  5
19206
330
18BD1
100
AcDbEntity
  8
DEFPOINTS
 62
     0
 48
50.0
100
AcDbPoint
 10
4751.455905017272
 20
4841.1505921344
 30
0.0
  0
POINT
  5
19207
330
18BD1
100
AcDbEntity
  8
DEFPOINTS
 62
     0
 48
50.0
100
AcDbPoint
 10
4751.455905017272
 20
5245.770851561667
 30
0.0
  0
ENDBLK
  5
18BDE
330
18BD1
100
AcDbEntity
  8
0
 48
50.0
100
AcDbBlockEnd
  0
BLOCK
  5
18BE9
330
18BDF
100
AcDbEntity
  8
0
 48
50.0
100
AcDbBlockBegin
  2
*D6
 70
     1
 10
0.0
 20
0.0
 30
0.0
  3
*D6
  1

  0
LINE
  5
191F4
330
18BDF
100
AcDbEntity
  8
寸法
 62
     0
 48
50.0
370
    -2
100
AcDbLine
 10
7011.455905017275
 20
4861.1505921344
 30
0.0
 11
7011.455905017275
 21
5305.770851561667
 31
0.0
  0
LINE
  5
191F5
330
18BDF
100
AcDbEntity
  8
寸法
 62
     0
 48
50.0
370
    -2
100
AcDbLine
 10
4801.455905017272
 20
4861.1505921344
 30
0.0
 11
4801.455905017272
 21
5305.770851561667
 31
0.0
  0
LINE
  5
191F6
330
18BDF
100
AcDbEntity
  8
寸法
 62
     0
 48
50.0
370
    -2
100
AcDbLine
 10
7011.455905017275
 20
5245.770851561667
 30
0.0
 11
4801.455905017272
 21
5245.770851561667
 31
0.0
  0
INSERT
  5
191F7
330
18BDF
100
AcDbEntity
  8
寸法
 62
     0
 48
50.0
370
    -2
100
AcDbBlockReference
  2
_DOTSMALL
 10
7011.455905017275
 20
5245.770851561667
 30
0.0
 41
100.0
 42
100.0
 43
100.0
  0
INSERT
  5
191F8
330
18BDF
100
AcDbEntity
  8
寸法
 62
     0
 48
50.0
370
    -2
100
AcDbBlockReference
  2
_DOTSMALL
 10
4801.455905017272
 20
5245.770851561667
 30
0.0
 41
100.0
 42
100.0
 43
100.0
 50
180.0
  0
MTEXT
  5
191F9
330
18BDF
100
AcDbEntity
  8
寸法
 62
     7
 48
50.0
100
AcDbMText
 10
5906.455905017272
 20
5345.782662585289
 30
0.0
 40
120.0
 41
0.0
 71
     5
 72
     1
  1
\A1;柱外寸法2210
  7
STYLE1
 73
     1
 44
1.0
1001
ACAD
1000
MTEXTBEGIN
1070
    73
1070
     1
1070
    44
1040
1.0
1070
    74
1070
     0
1000
MTEXTEND
  0
POINT
  5
191FA
330
18BDF
100
AcDbEntity
  8
DEFPOINTS
 62
     0
 48
50.0
100
AcDbPoint
 10
7011.455905017275
 20
4841.1505921344
 30
0.0
  0
POINT
  5
191FB
330
18BDF
100
AcDbEntity
  8
DEFPOINTS
 62
     0
 48
50.0
100
AcDbPoint
 10
4801.455905017272
 20
4841.1505921344
 30
0.0
  0
POINT
  5
191FC
330
18BDF
100
AcDbEntity
  8
DEFPOINTS
 62
     0
 48
50.0
100
AcDbPoint
 10
4801.455905017272
 20
5245.770851561667
 30
0.0
  0
ENDBLK
  5
18BEA
330
18BDF
100
AcDbEntity
  8
0
 48
50.0
100
AcDbBlockEnd
  0
BLOCK
  5
18BF7
330
18BEB
100
AcDbEntity
  8
0
 48
50.0
100
AcDbBlockBegin
  2
*D7
 70
     1
 10
0.0
 20
0.0
 30
0.0
  3
*D7
  1

  0
LINE
  5
191E9
330
18BEB
100
AcDbEntity
  8
寸法
 62
     0
 48
50.0
370
    -2
100
AcDbLine
 10
7061.455905017274
 20
4861.150592134396
 30
0.0
 11
7061.455905017274
 21
5305.770851561667
 31
0.0
  0
LINE
  5
191EA
330
18BEB
100
AcDbEntity
  8
寸法
 62
     0
 48
50.0
370
    -2
100
AcDbLine
 10
7011.455905017275
 20
4861.1505921344
 30
0.0
 11
7011.455905017275
 21
5305.770851561667
 31
0.0
  0
LINE
  5
191EB
330
18BEB
100
AcDbEntity
  8
寸法
 62
     0
 48
50.0
370
    -2
100
AcDbLine
 10
7011.455905017275
 20
5245.770851561667
 30
0.0
 11
6911.455905017274
 21
5245.770851561667
 31
0.0
  0
LINE
  5
191EC
330
18BEB
100
AcDbEntity
  8
寸法
 62
     0
 48
50.0
370
    -2
100
AcDbLine
 10
7061.455905017274
 20
5245.770851561667
 30
0.0
 11
7480.988430485997
 21
5245.770851561667
 31
0.0
  0
LINE
  5
191ED
330
18BEB
100
AcDbEntity
  8
寸法
 62
     0
 48
50.0
370
    -2
100
AcDbLine
 10
7011.455905017275
 20
5245.770851561667
 30
0.0
 11
7061.455905017274
 21
5245.770851561667
 31
0.0
  0
INSERT
  5
191EE
330
18BEB
100
AcDbEntity
  8
寸法
 62
     0
 48
50.0
370
    -2
100
AcDbBlockReference
  2
_DOTSMALL
 10
7011.455905017275
 20
5245.770851561667
 30
0.0
 41
100.0
 42
100.0
 43
100.0
  0
INSERT
  5
191EF
330
18BEB
100
AcDbEntity
  8
寸法
 62
     0
 48
50.0
370
    -2
100
AcDbBlockReference
  2
_DOTSMALL
 10
7061.455905017274
 20
5245.770851561667
 30
0.0
 41
100.0
 42
100.0
 43
100.0
 50
180.0
  0
MTEXT
  5
191F0
330
18BEB
100
AcDbEntity
  8
寸法
 62
     7
 48
50.0
100
AcDbMText
 10
7374.941186391509
 20
5345.770851561667
 30
0.0
 40
120.0
 41
0.0
 71
     5
 72
     1
  1
\A1;50
  7
STYLE1
 73
     1
 44
1.0
1001
ACAD
1000
MTEXTBEGIN
1070
    73
1070
     1
1070
    44
1040
1.0
1070
    74
1070
     0
1000
MTEXTEND
  0
POINT
  5
191F1
330
18BEB
100
AcDbEntity
  8
DEFPOINTS
 62
     0
 48
50.0
100
AcDbPoint
 10
7061.455905017274
 20
4841.150592134397
 30
0.0
  0
POINT
  5
191F2
330
18BEB
100
AcDbEntity
  8
DEFPOINTS
 62
     0
 48
50.0
100
AcDbPoint
 10
7011.455905017275
 20
4841.1505921344
 30
0.0
  0
POINT
  5
191F3
330
18BEB
100
AcDbEntity
  8
DEFPOINTS
 62
     0
 48
50.0
100
AcDbPoint
 10
7011.455905017275
 20
5245.770851561667
 30
0.0
  0
ENDBLK
  5
18BF8
330
18BEB
100
AcDbEntity
  8
0
 48
50.0
100
AcDbBlockEnd
  0
BLOCK
  5
18C03
330
18BF9
100
AcDbEntity
  8
0
 48
50.0
100
AcDbBlockBegin
  2
*D8
 70
     1
 10
0.0
 20
0.0
 30
0.0
  3
*D8
  1

  0
LINE
  5
191E0
330
18BF9
100
AcDbEntity
  8
寸法
 62
     0
 48
50.0
370
    -2
100
AcDbLine
 10
10923.55293435453
 20
2466.150592134394
 30
0.0
 11
11490.81130740841
 21
2466.150592134394
 31
0.0
  0
LINE
  5
191E1
330
18BF9
100
AcDbEntity
  8
寸法
 62
     0
 48
50.0
370
    -2
100
AcDbLine
 10
11003.55293435451
 20
4786.150592134396
 30
0.0
 11
11490.81130740842
 21
4786.150592134396
 31
0.0
  0
LINE
  5
191E2
330
18BF9
100
AcDbEntity
  8
寸法
 62
     0
 48
50.0
370
    -2
100
AcDbLine
 10
11430.81130740841
 20
2466.150592134394
 30
0.0
 11
11430.81130740842
 21
4786.150592134396
 31
0.0
  0
INSERT
  5
191E3
330
18BF9
100
AcDbEntity
  8
寸法
 62
     0
 48
50.0
370
    -2
100
AcDbBlockReference
  2
_DOTSMALL
 10
11430.81130740841
 20
2466.150592134394
 30
0.0
 41
100.0
 42
100.0
 43
100.0
 50
270.0
  0
INSERT
  5
191E4
330
18BF9
100
AcDbEntity
  8
寸法
 62
     0
 48
50.0
370
    -2
100
AcDbBlockReference
  2
_DOTSMALL
 10
11430.81130740842
 20
4786.150592134396
 30
0.0
 41
100.0
 42
100.0
 43
100.0
 50
90.0
  0
MTEXT
  5
191E5
330
18BF9
100
AcDbEntity
  8
寸法
 62
     7
 48
50.0
100
AcDbMText
 10
11330.79949638479
 20
3635.798981809818
 30
0.0
 40
120.0
 41
0.0
 71
     5
 72
     1
  1
\A1;2320
  7
STYLE1
 11
0.0000000000000001
 21
1.0
 31
0.0
 73
     1
 44
1.0
1001
ACAD
1000
MTEXTBEGIN
1070
    73
1070
     1
1070
    44
1040
1.0
1070
    74
1070
     0
1000
MTEXTEND
  0
POINT
  5
191E6
330
18BF9
100
AcDbEntity
  8
DEFPOINTS
 62
     0
 48
50.0
100
AcDbPoint
 10
10903.55293435453
 20
2466.150592134394
 30
0.0
  0
POINT
  5
191E7
330
18BF9
100
AcDbEntity
  8
DEFPOINTS
 62
     0
 48
50.0
100
AcDbPoint
 10
10983.55293435451
 20
4786.150592134396
 30
0.0
  0
POINT
  5
191E8
330
18BF9
100
AcDbEntity
  8
DEFPOINTS
 62
     0
 48
50.0
100
AcDbPoint
 10
11430.81130740842
 20
4786.150592134396
 30
0.0
  0
ENDBLK
  5
18C04
330
18BF9
100
AcDbEntity
  8
0
 48
50.0
100
AcDbBlockEnd
  0
BLOCK
  5
18C10
330
18C05
100
AcDbEntity
  8
0
 48
50.0
100
AcDbBlockBegin
  2
*D9
 70
     1
 10
0.0
 20
0.0
 30
0.0
  3
*D9
  1

  0
LINE
  5
191D6
330
18C05
100
AcDbEntity
  8
寸法
 62
     0
 48
50.0
370
    -2
100
AcDbLine
 10
9038.552934354532
 20
2466.150592134394
 30
0.0
 11
8144.913552425173
 21
2466.150592134394
 31
0.0
  0
LINE
  5
191D7
330
18C05
100
AcDbEntity
  8
寸法
 62
     0
 48
50.0
370
    -2
100
AcDbLine
 10
8469.900225196234
 20
2366.150592134394
 30
0.0
 11
8144.913552425173
 21
2366.150592134394
 31
0.0
  0
LINE
  5
191D8
330
18C05
100
AcDbEntity
  8
寸法
 62
     0
 48
50.0
370
    -2
100
AcDbLine
 10
8204.913552425173
 20
2466.150592134394
 30
0.0
 11
8204.913552425173
 21
2366.150592134394
 31
0.0
  0
LINE
  5
191D9
330
18C05
100
AcDbEntity
  8
寸法
 62
     0
 48
50.0
370
    -2
100
AcDbLine
 10
8204.913552425173
 20
2366.150592134394
 30
0.0
 11
8204.913552425173
 21
1994.056103945414
 31
0.0
  0
INSERT
  5
191DA
330
18C05
100
AcDbEntity
  8
寸法
 62
     0
 48
50.0
370
    -2
100
AcDbBlockReference
  2
_DOTSMALL
 10
8204.913552425173
 20
2466.150592134394
 30
0.0
 41
100.0
 42
100.0
 43
100.0
 50
90.0
  0
INSERT
  5
191DB
330
18C05
100
AcDbEntity
  8
寸法
 62
     0
 48
50.0
370
    -2
100
AcDbBlockReference
  2
_DOTSMALL
 10
8204.913552425173
 20
2366.150592134394
 30
0.0
 41
100.0
 42
100.0
 43
100.0
 50
270.0
  0
MTEXT
  5
191DC
330
18C05
100
AcDbEntity
  8
寸法
 62
     7
 48
50.0
100
AcDbMText
 10
8104.913552425172
 20
2130.103348039904
 30
0.0
 40
120.0
 41
0.0
 71
     5
 72
     1
  1
\A1;100
  7
STYLE1
 11
0.0000000000000001
 21
1.0
 31
0.0
 73
     1
 44
1.0
1001
ACAD
1000
MTEXTBEGIN
1070
    73
1070
     1
1070
    44
1040
1.0
1070
    74
1070
     0
1000
MTEXTEND
  0
POINT
  5
191DD
330
18C05
100
AcDbEntity
  8
DEFPOINTS
 62
     0
 48
50.0
100
AcDbPoint
 10
9058.552934354532
 20
2466.150592134394
 30
0.0
  0
POINT
  5
191DE
330
18C05
100
AcDbEntity
  8
DEFPOINTS
 62
     0
 48
50.0
100
AcDbPoint
 10
8489.900225196235
 20
2366.150592134394
 30
0.0
  0
POINT
  5
191DF
330
18C05
100
AcDbEntity
  8
DEFPOINTS
 62
     0
 48
50.0
100
AcDbPoint
 10
8204.913552425173
 20
2366.150592134394
 30
0.0
  0
ENDBLK
  5
18C11
330
18C05
100
AcDbEntity
  8
0
 48
50.0
100
AcDbBlockEnd
  0
BLOCK
  5
18C1E
330
18C12
100
AcDbEntity
  8
0
 48
50.0
100
AcDbBlockBegin
  2
*D10
 70
     1
 10
0.0
 20
0.0
 30
0.0
  3
*D10
  1

  0
LINE
  5
191CB
330
18C12
100
AcDbEntity
  8
寸法
 62
     0
 48
50.0
370
    -2
100
AcDbLine
 10
9093.552934354532
 20
2516.150592134394
 30
0.0
 11
8429.900225196233
 21
2516.150592134394
 31
0.0
  0
LINE
  5
191CC
330
18C12
100
AcDbEntity
  8
寸法
 62
     0
 48
50.0
370
    -2
100
AcDbLine
 10
9038.552934354532
 20
2466.150592134394
 30
0.0
 11
8429.900225196233
 21
2466.150592134394
 31
0.0
  0
LINE
  5
191CD
330
18C12
100
AcDbEntity
  8
寸法
 62
     0
 48
50.0
370
    -2
100
AcDbLine
 10
8489.900225196235
 20
2516.150592134394
 30
0.0
 11
8489.900225196235
 21
2616.150592134394
 31
0.0
  0
LINE
  5
191CE
330
18C12
100
AcDbEntity
  8
寸法
 62
     0
 48
50.0
370
    -2
100
AcDbLine
 10
8489.900225196235
 20
2466.150592134394
 30
0.0
 11
8489.900225196235
 21
2054.056103945415
 31
0.0
  0
LINE
  5
191CF
330
18C12
100
AcDbEntity
  8
寸法
 62
     0
 48
50.0
370
    -2
100
AcDbLine
 10
8489.900225196235
 20
2516.150592134394
 30
0.0
 11
8489.900225196235
 21
2466.150592134394
 31
0.0
  0
INSERT
  5
191D0
330
18C12
100
AcDbEntity
  8
寸法
 62
     0
 48
50.0
370
    -2
100
AcDbBlockReference
  2
_DOTSMALL
 10
8489.900225196235
 20
2516.150592134394
 30
0.0
 41
100.0
 42
100.0
 43
100.0
 50
270.0
  0
INSERT
  5
191D1
330
18C12
100
AcDbEntity
  8
寸法
 62
     0
 48
50.0
370
    -2
100
AcDbBlockReference
  2
_DOTSMALL
 10
8489.900225196235
 20
2466.150592134394
 30
0.0
 41
100.0
 42
100.0
 43
100.0
 50
90.0
  0
MTEXT
  5
191D2
330
18C12
100
AcDbEntity
  8
寸法
 62
     7
 48
50.0
100
AcDbMText
 10
8389.900225196234
 20
2160.103348039904
 30
0.0
 40
120.0
 41
0.0
 71
     5
 72
     1
  1
\A1;50
  7
STYLE1
 11
0.0000000000000001
 21
1.0
 31
0.0
 73
     1
 44
1.0
1001
ACAD
1000
MTEXTBEGIN
1070
    73
1070
     1
1070
    44
1040
1.0
1070
    74
1070
     0
1000
MTEXTEND
  0
POINT
  5
191D3
330
18C12
100
AcDbEntity
  8
DEFPOINTS
 62
     0
 48
50.0
100
AcDbPoint
 10
9113.552934354531
 20
2516.150592134394
 30
0.0
  0
POINT
  5
191D4
330
18C12
100
AcDbEntity
  8
DEFPOINTS
 62
     0
 48
50.0
100
AcDbPoint
 10
9058.552934354532
 20
2466.150592134394
 30
0.0
  0
POINT
  5
191D5
330
18C12
100
AcDbEntity
  8
DEFPOINTS
 62
     0
 48
50.0
100
AcDbPoint
 10
8489.900225196235
 20
2466.150592134394
 30
0.0
  0
ENDBLK
  5
18C1F
330
18C12
100
AcDbEntity
  8
0
 48
50.0
100
AcDbBlockEnd
  0
BLOCK
  5
18C2A
330
18C20
100
AcDbEntity
  8
0
 48
50.0
100
AcDbBlockBegin
  2
*D11
 70
     1
 10
0.0
 20
0.0
 30
0.0
  3
*D11
  1

  0
LINE
  5
191C2
330
18C20
100
AcDbEntity
  8
寸法
 62
     0
 48
50.0
370
    -2
100
AcDbLine
 10
9093.552934354532
 20
4606.150592134394
 30
0.0
 11
8429.900225196236
 21
4606.150592134394
 31
0.0
  0
LINE
  5
191C3
330
18C20
100
AcDbEntity
  8
寸法
 62
     0
 48
50.0
370
    -2
100
AcDbLine
 10
9093.552934354532
 20
2516.150592134394
 30
0.0
 11
8429.900225196233
 21
2516.150592134394
 31
0.0
  0
LINE
  5
191C4
330
18C20
100
AcDbEntity
  8
寸法
 62
     0
 48
50.0
370
    -2
100
AcDbLine
 10
8489.900225196235
 20
4606.150592134394
 30
0.0
 11
8489.900225196235
 21
2516.150592134394
 31
0.0
  0
INSERT
  5
191C5
330
18C20
100
AcDbEntity
  8
寸法
 62
     0
 48
50.0
370
    -2
100
AcDbBlockReference
  2
_DOTSMALL
 10
8489.900225196235
 20
4606.150592134394
 30
0.0
 41
100.0
 42
100.0
 43
100.0
 50
90.0
  0
INSERT
  5
191C6
330
18C20
100
AcDbEntity
  8
寸法
 62
     0
 48
50.0
370
    -2
100
AcDbBlockReference
  2
_DOTSMALL
 10
8489.900225196235
 20
2516.150592134394
 30
0.0
 41
100.0
 42
100.0
 43
100.0
 50
270.0
  0
MTEXT
  5
191C7
330
18C20
100
AcDbEntity
  8
寸法
 62
     7
 48
50.0
100
AcDbMText
 10
8389.888414172613
 20
3536.650592134395
 30
0.0
 40
120.0
 41
0.0
 71
     5
 72
     1
  1
\A1;2090
  7
STYLE1
 11
0.0000000000000001
 21
1.0
 31
0.0
 73
     1
 44
1.0
1001
ACAD
1000
MTEXTBEGIN
1070
    73
1070
     1
1070
    44
1040
1.0
1070
    74
1070
     0
1000
MTEXTEND
  0
POINT
  5
191C8
330
18C20
100
AcDbEntity
  8
DEFPOINTS
 62
     0
 48
50.0
100
AcDbPoint
 10
9113.552934354531
 20
4606.150592134394
 30
0.0
  0
POINT
  5
191C9
330
18C20
100
AcDbEntity
  8
DEFPOINTS
 62
     0
 48
50.0
100
AcDbPoint
 10
9113.552934354531
 20
2516.150592134394
 30
0.0
  0
POINT
  5
191CA
330
18C20
100
AcDbEntity
  8
DEFPOINTS
 62
     0
 48
50.0
100
AcDbPoint
 10
8489.900225196235
 20
2516.150592134394
 30
0.0
  0
ENDBLK
  5
18C2B
330
18C20
100
AcDbEntity
  8
0
 48
50.0
100
AcDbBlockEnd
  0
BLOCK
  5
18C36
330
18C2C
100
AcDbEntity
  8
0
 48
50.0
100
AcDbBlockBegin
  2
*D12
 70
     1
 10
0.0
 20
0.0
 30
0.0
  3
*D12
  1

  0
LINE
  5
191B9
330
18C2C
100
AcDbEntity
  8
寸法
 62
     0
 48
50.0
370
    -2
100
AcDbLine
 10
9093.552934354532
 20
2466.150592134394
 30
0.0
 11
8144.913552425173
 21
2466.150592134394
 31
0.0
  0
LINE
  5
191BA
330
18C2C
100
AcDbEntity
  8
寸法
 62
     0
 48
50.0
370
    -2
100
AcDbLine
 10
9033.552934354531
 20
4841.150592134399
 30
0.0
 11
8144.913552425173
 21
4841.150592134399
 31
0.0
  0
LINE
  5
191BB
330
18C2C
100
AcDbEntity
  8
寸法
 62
     0
 48
50.0
370
    -2
100
AcDbLine
 10
8204.913552425173
 20
2466.150592134394
 30
0.0
 11
8204.913552425173
 21
4841.150592134399
 31
0.0
  0
INSERT
  5
191BC
330
18C2C
100
AcDbEntity
  8
寸法
 62
     0
 48
50.0
370
    -2
100
AcDbBlockReference
  2
_DOTSMALL
 10
8204.913552425173
 20
2466.150592134394
 30
0.0
 41
100.0
 42
100.0
 43
100.0
 50
270.0
  0
INSERT
  5
191BD
330
18C2C
100
AcDbEntity
  8
寸法
 62
     0
 48
50.0
370
    -2
100
AcDbBlockReference
  2
_DOTSMALL
 10
8204.913552425173
 20
4841.150592134399
 30
0.0
 41
100.0
 42
100.0
 43
100.0
 50
90.0
  0
MTEXT
  5
191BE
330
18C2C
100
AcDbEntity
  8
寸法
 62
     7
 48
50.0
100
AcDbMText
 10
8104.901741401551
 20
3536.650592134395
 30
0.0
 40
120.0
 41
0.0
 71
     5
 72
     1
  1
\A1;2375
  7
STYLE1
 11
0.0000000000000001
 21
1.0
 31
0.0
 73
     1
 44
1.0
1001
ACAD
1000
MTEXTBEGIN
1070
    73
1070
     1
1070
    44
1040
1.0
1070
    74
1070
     0
1000
MTEXTEND
  0
POINT
  5
191BF
330
18C2C
100
AcDbEntity
  8
DEFPOINTS
 62
     0
 48
50.0
100
AcDbPoint
 10
9113.552934354531
 20
2466.150592134394
 30
0.0
  0
POINT
  5
191C0
330
18C2C
100
AcDbEntity
  8
DEFPOINTS
 62
     0
 48
50.0
100
AcDbPoint
 10
9053.552934354533
 20
4841.150592134399
 30
0.0
  0
POINT
  5
191C1
330
18C2C
100
AcDbEntity
  8
DEFPOINTS
 62
     0
 48
50.0
100
AcDbPoint
 10
8204.913552425173
 20
4841.150592134399
 30
0.0
  0
ENDBLK
  5
18C37
330
18C2C
100
AcDbEntity
  8
0
 48
50.0
100
AcDbBlockEnd
  0
BLOCK
  5
18C43
330
18C38
100
AcDbEntity
  8
0
 48
50.0
100
AcDbBlockBegin
  2
*D13
 70
     1
 10
0.0
 20
0.0
 30
0.0
  3
*D13
  1

  0
LINE
  5
191AF
330
18C38
100
AcDbEntity
  8
寸法
 62
     0
 48
50.0
370
    -2
100
AcDbLine
 10
10903.55293435453
 20
4807.961271746048
 30
0.0
 11
10903.55293435453
 21
5300.243761473867
 31
0.0
  0
LINE
  5
191B0
330
18C38
100
AcDbEntity
  8
寸法
 62
     0
 48
50.0
370
    -2
100
AcDbLine
 10
10983.55293435453
 20
4806.150592134395
 30
0.0
 11
10983.55293435453
 21
5300.243761473867
 31
0.0
  0
LINE
  5
191B1
330
18C38
100
AcDbEntity
  8
寸法
 62
     0
 48
50.0
370
    -2
100
AcDbLine
 10
10903.55293435453
 20
5240.243761473867
 30
0.0
 11
10983.55293435453
 21
5240.243761473867
 31
0.0
  0
LINE
  5
191B2
330
18C38
100
AcDbEntity
  8
寸法
 62
     0
 48
50.0
370
    -2
100
AcDbLine
 10
10983.55293435453
 20
5240.243761473867
 30
0.0
 11
11295.64742254351
 21
5240.243761473867
 31
0.0
  0
INSERT
  5
191B3
330
18C38
100
AcDbEntity
  8
寸法
 62
     0
 48
50.0
370
    -2
100
AcDbBlockReference
  2
_DOTSMALL
 10
10903.55293435453
 20
5240.243761473867
 30
0.0
 41
100.0
 42
100.0
 43
100.0
 50
180.0
  0
INSERT
  5
191B4
330
18C38
100
AcDbEntity
  8
寸法
 62
     0
 48
50.0
370
    -2
100
AcDbBlockReference
  2
_DOTSMALL
 10
10983.55293435453
 20
5240.243761473867
 30
0.0
 41
100.0
 42
100.0
 43
100.0
  0
MTEXT
  5
191B5
330
18C38
100
AcDbEntity
  8
寸法
 62
     7
 48
50.0
100
AcDbMText
 10
11189.60017844902
 20
5340.243761473868
 30
0.0
 40
120.0
 41
0.0
 71
     5
 72
     1
  1
\A1;80
  7
STYLE1
 73
     1
 44
1.0
1001
ACAD
1000
MTEXTBEGIN
1070
    73
1070
     1
1070
    44
1040
1.0
1070
    74
1070
     0
1000
MTEXTEND
  0
POINT
  5
191B6
330
18C38
100
AcDbEntity
  8
DEFPOINTS
 62
     0
 48
50.0
100
AcDbPoint
 10
10903.55293435453
 20
4787.961271746048
 30
0.0
  0
POINT
  5
191B7
330
18C38
100
AcDbEntity
  8
DEFPOINTS
 62
     0
 48
50.0
100
AcDbPoint
 10
10983.55293435453
 20
4786.150592134395
 30
0.0
  0
POINT
  5
191B8
330
18C38
100
AcDbEntity
  8
DEFPOINTS
 62
     0
 48
50.0
100
AcDbPoint
 10
10983.55293435453
 20
5240.243761473867
 30
0.0
  0
ENDBLK
  5
18C44
330
18C38
100
AcDbEntity
  8
0
 48
50.0
100
AcDbBlockEnd
  0
BLOCK
  5
18C4F
330
18C45
100
AcDbEntity
  8
0
 48
50.0
100
AcDbBlockBegin
  2
*D14
 70
     1
 10
0.0
 20
0.0
 30
0.0
  3
*D14
  1

  0
LINE
  5
191A6
330
18C45
100
AcDbEntity
  8
寸法
 62
     0
 48
50.0
370
    -2
100
AcDbLine
 10
10983.55293435453
 20
4806.150592134395
 30
0.0
 11
10983.55293435453
 21
5516.769861092313
 31
0.0
  0
LINE
  5
191A7
330
18C45
100
AcDbEntity
  8
寸法
 62
     0
 48
50.0
370
    -2
100
AcDbLine
 10
9053.552934354534
 20
4861.150592134399
 30
0.0
 11
9053.552934354534
 21
5516.769861092313
 31
0.0
  0
LINE
  5
191A8
330
18C45
100
AcDbEntity
  8
寸法
 62
     0
 48
50.0
370
    -2
100
AcDbLine
 10
10983.55293435453
 20
5456.769861092312
 30
0.0
 11
9053.552934354534
 21
5456.769861092312
 31
0.0
  0
INSERT
  5
191A9
330
18C45
100
AcDbEntity
  8
寸法
 62
     0
 48
50.0
370
    -2
100
AcDbBlockReference
  2
_DOTSMALL
 10
10983.55293435453
 20
5456.769861092312
 30
0.0
 41
100.0
 42
100.0
 43
100.0
  0
INSERT
  5
191AA
330
18C45
100
AcDbEntity
  8
寸法
 62
     0
 48
50.0
370
    -2
100
AcDbBlockReference
  2
_DOTSMALL
 10
9053.552934354534
 20
5456.769861092312
 30
0.0
 41
100.0
 42
100.0
 43
100.0
 50
180.0
  0
MTEXT
  5
191AB
330
18C45
100
AcDbEntity
  8
寸法
 62
     7
 48
50.0
100
AcDbMText
 10
9959.358685605502
 20
5556.769861092313
 30
0.0
 40
120.0
 41
0.0
 71
     5
 72
     1
  1
\A1;1930
  7
STYLE1
 73
     1
 44
1.0
1001
ACAD
1000
MTEXTBEGIN
1070
    73
1070
     1
1070
    44
1040
1.0
1070
    74
1070
     0
1000
MTEXTEND
  0
POINT
  5
191AC
330
18C45
100
AcDbEntity
  8
DEFPOINTS
 62
     0
 48
50.0
100
AcDbPoint
 10
10983.55293435453
 20
4786.150592134395
 30
0.0
  0
POINT
  5
191AD
330
18C45
100
AcDbEntity
  8
DEFPOINTS
 62
     0
 48
50.0
100
AcDbPoint
 10
9053.552934354534
 20
4841.150592134399
 30
0.0
  0
POINT
  5
191AE
330
18C45
100
AcDbEntity
  8
DEFPOINTS
 62
     0
 48
50.0
100
AcDbPoint
 10
9053.552934354534
 20
5456.769861092312
 30
0.0
  0
ENDBLK
  5
18C50
330
18C45
100
AcDbEntity
  8
0
 48
50.0
100
AcDbBlockEnd
  0
BLOCK
  5
18C5D
330
18C51
100
AcDbEntity
  8
0
 48
50.0
100
AcDbBlockBegin
  2
*D15
 70
     1
 10
0.0
 20
0.0
 30
0.0
  3
*D15
  1

  0
LINE
  5
1919B
330
18C51
100
AcDbEntity
  8
寸法
 62
     0
 48
50.0
370
    -2
100
AcDbLine
 10
9113.552934354535
 20
4857.152210257371
 30
0.0
 11
9113.552934354535
 21
5300.243761473867
 31
0.0
  0
LINE
  5
1919C
330
18C51
100
AcDbEntity
  8
寸法
 62
     0
 48
50.0
370
    -2
100
AcDbLine
 10
9053.552934354534
 20
4861.150592134399
 30
0.0
 11
9053.552934354534
 21
5300.243761473867
 31
0.0
  0
LINE
  5
1919D
330
18C51
100
AcDbEntity
  8
寸法
 62
     0
 48
50.0
370
    -2
100
AcDbLine
 10
9113.552934354535
 20
5240.243761473867
 30
0.0
 11
9213.552934354536
 21
5240.243761473867
 31
0.0
  0
LINE
  5
1919E
330
18C51
100
AcDbEntity
  8
寸法
 62
     0
 48
50.0
370
    -2
100
AcDbLine
 10
9053.552934354534
 20
5240.243761473867
 30
0.0
 11
8634.277343803354
 21
5240.243761473867
 31
0.0
  0
LINE
  5
1919F
330
18C51
100
AcDbEntity
  8
寸法
 62
     0
 48
50.0
370
    -2
100
AcDbLine
 10
9113.552934354535
 20
5240.243761473867
 30
0.0
 11
9053.552934354534
 21
5240.243761473867
 31
0.0
  0
INSERT
  5
191A0
330
18C51
100
AcDbEntity
  8
寸法
 62
     0
 48
50.0
370
    -2
100
AcDbBlockReference
  2
_DOTSMALL
 10
9113.552934354535
 20
5240.243761473867
 30
0.0
 41
100.0
 42
100.0
 43
100.0
 50
180.0
  0
INSERT
  5
191A1
330
18C51
100
AcDbEntity
  8
寸法
 62
     0
 48
50.0
370
    -2
100
AcDbBlockReference
  2
_DOTSMALL
 10
9053.552934354534
 20
5240.243761473867
 30
0.0
 41
100.0
 42
100.0
 43
100.0
  0
MTEXT
  5
191A2
330
18C51
100
AcDbEntity
  8
寸法
 62
     7
 48
50.0
100
AcDbMText
 10
8743.915139078945
 20
5340.243761473868
 30
0.0
 40
120.0
 41
0.0
 71
     5
 72
     1
  1
\A1;60
  7
STYLE1
 73
     1
 44
1.0
1001
ACAD
1000
MTEXTBEGIN
1070
    73
1070
     1
1070
    44
1040
1.0
1070
    74
1070
     0
1000
MTEXTEND
  0
POINT
  5
191A3
330
18C51
100
AcDbEntity
  8
DEFPOINTS
 62
     0
 48
50.0
100
AcDbPoint
 10
9113.552934354535
 20
4837.152210257371
 30
0.0
  0
POINT
  5
191A4
330
18C51
100
AcDbEntity
  8
DEFPOINTS
 62
     0
 48
50.0
100
AcDbPoint
 10
9053.552934354534
 20
4841.150592134399
 30
0.0
  0
POINT
  5
191A5
330
18C51
100
AcDbEntity
  8
DEFPOINTS
 62
     0
 48
50.0
100
AcDbPoint
 10
9053.552934354534
 20
5240.243761473867
 30
0.0
  0
ENDBLK
  5
18C5E
330
18C51
100
AcDbEntity
  8
0
 48
50.0
100
AcDbBlockEnd
  0
BLOCK
  5
18C69
330
18C5F
100
AcDbEntity
  8
0
 48
50.0
100
AcDbBlockBegin
  2
*D16
 70
     1
 10
0.0
 20
0.0
 30
0.0
  3
*D16
  1

  0
LINE
  5
19192
330
18C5F
100
AcDbEntity
  8
寸法
 62
     0
 48
50.0
370
    -2
100
AcDbLine
 10
10903.55293435453
 20
4807.961271746048
 30
0.0
 11
10903.55293435453
 21
5300.243761473867
 31
0.0
  0
LINE
  5
19193
330
18C5F
100
AcDbEntity
  8
寸法
 62
     0
 48
50.0
370
    -2
100
AcDbLine
 10
9113.552934354535
 20
4857.152210257371
 30
0.0
 11
9113.552934354535
 21
5300.243761473867
 31
0.0
  0
LINE
  5
19194
330
18C5F
100
AcDbEntity
  8
寸法
 62
     0
 48
50.0
370
    -2
100
AcDbLine
 10
10903.55293435453
 20
5240.243761473867
 30
0.0
 11
9113.552934354535
 21
5240.243761473867
 31
0.0
  0
INSERT
  5
19195
330
18C5F
100
AcDbEntity
  8
寸法
 62
     0
 48
50.0
370
    -2
100
AcDbBlockReference
  2
_DOTSMALL
 10
10903.55293435453
 20
5240.243761473867
 30
0.0
 41
100.0
 42
100.0
 43
100.0
  0
INSERT
  5
19196
330
18C5F
100
AcDbEntity
  8
寸法
 62
     0
 48
50.0
370
    -2
100
AcDbBlockReference
  2
_DOTSMALL
 10
9113.552934354535
 20
5240.243761473867
 30
0.0
 41
100.0
 42
100.0
 43
100.0
 50
180.0
  0
MTEXT
  5
19197
330
18C5F
100
AcDbEntity
  8
寸法
 62
     7
 48
50.0
100
AcDbMText
 10
10023.14858303101
 20
5340.243761473868
 30
0.0
 40
120.0
 41
0.0
 71
     5
 72
     1
  1
\A1;柱外寸法1790
  7
STYLE1
 73
     1
 44
1.0
1001
ACAD
1000
MTEXTBEGIN
1070
    73
1070
     1
1070
    44
1040
1.0
1070
    74
1070
     0
1000
MTEXTEND
  0
POINT
  5
19198
330
18C5F
100
AcDbEntity
  8
DEFPOINTS
 62
     0
 48
50.0
100
AcDbPoint
 10
10903.55293435453
 20
4787.961271746048
 30
0.0
  0
POINT
  5
19199
330
18C5F
100
AcDbEntity
  8
DEFPOINTS
 62
     0
 48
50.0
100
AcDbPoint
 10
9113.552934354535
 20
4837.152210257371
 30
0.0
  0
POINT
  5
1919A
330
18C5F
100
AcDbEntity
  8
DEFPOINTS
 62
     0
 48
50.0
100
AcDbPoint
 10
9113.552934354535
 20
5240.243761473867
 30
0.0
  0
ENDBLK
  5
18C6A
330
18C5F
100
AcDbEntity
  8
0
 48
50.0
100
AcDbBlockEnd
  0
BLOCK
  5
18C75
330
18C6B
100
AcDbEntity
  8
0
 48
50.0
100
AcDbBlockBegin
  2
*D17
 70
     1
 10
0.0
 20
0.0
 30
0.0
  3
*D17
  1

  0
LINE
  5
19189
330
18C6B
100
AcDbEntity
  8
寸法
 62
     0
 48
50.0
370
    -2
100
AcDbLine
 10
9213.552934354533
 20
2146.150592134393
 30
0.0
 11
9213.552934354533
 21
1820.103262834016
 31
0.0
  0
LINE
  5
1918A
330
18C6B
100
AcDbEntity
  8
寸法
 62
     0
 48
50.0
370
    -2
100
AcDbLine
 10
9013.552934354532
 20
2146.150592134393
 30
0.0
 11
9013.552934354532
 21
1820.103262834016
 31
0.0
  0
LINE
  5
1918B
330
18C6B
100
AcDbEntity
  8
寸法
 62
     0
 48
50.0
370
    -2
100
AcDbLine
 10
9213.552934354533
 20
1880.103262834016
 30
0.0
 11
9013.552934354532
 21
1880.103262834016
 31
0.0
  0
INSERT
  5
1918C
330
18C6B
100
AcDbEntity
  8
寸法
 62
     0
 48
50.0
370
    -2
100
AcDbBlockReference
  2
_DOTSMALL
 10
9213.552934354533
 20
1880.103262834016
 30
0.0
 41
100.0
 42
100.0
 43
100.0
  0
INSERT
  5
1918D
330
18C6B
100
AcDbEntity
  8
寸法
 62
     0
 48
50.0
370
    -2
100
AcDbBlockReference
  2
_DOTSMALL
 10
9013.552934354532
 20
1880.103262834016
 30
0.0
 41
100.0
 42
100.0
 43
100.0
 50
180.0
  0
MTEXT
  5
1918E
330
18C6B
100
AcDbEntity
  8
寸法
 62
     7
 48
50.0
100
AcDbMText
 10
9113.552934354531
 20
1980.115073857638
 30
0.0
 40
120.0
 41
0.0
 71
     5
 72
     1
  1
\A1;200
  7
STYLE1
 73
     1
 44
1.0
1001
ACAD
1000
MTEXTBEGIN
1070
    73
1070
     1
1070
    44
1040
1.0
1070
    74
1070
     0
1000
MTEXTEND
  0
POINT
  5
1918F
330
18C6B
100
AcDbEntity
  8
DEFPOINTS
 62
     0
 48
50.0
100
AcDbPoint
 10
9213.552934354533
 20
2166.150592134393
 30
0.0
  0
POINT
  5
19190
330
18C6B
100
AcDbEntity
  8
DEFPOINTS
 62
     0
 48
50.0
100
AcDbPoint
 10
9013.552934354532
 20
2166.150592134393
 30
0.0
  0
POINT
  5
19191
330
18C6B
100
AcDbEntity
  8
DEFPOINTS
 62
     0
 48
50.0
100
AcDbPoint
 10
9013.552934354532
 20
1880.103262834016
 30
0.0
  0
ENDBLK
  5
18C76
330
18C6B
100
AcDbEntity
  8
0
 48
50.0
100
AcDbBlockEnd
  0
BLOCK
  5
18C81
330
18C77
100
AcDbEntity
  8
0
 48
50.0
100
AcDbBlockBegin
  2
*D18
 70
     1
 10
0.0
 20
0.0
 30
0.0
  3
*D18
  1

  0
LINE
  5
19180
330
18C77
100
AcDbEntity
  8
寸法
 62
     0
 48
50.0
370
    -2
100
AcDbLine
 10
9121.552934354548
 20
4549.150592134394
 30
0.0
 11
8782.346905142398
 21
4549.150592134394
 31
0.0
  0
LINE
  5
19181
330
18C77
100
AcDbEntity
  8
寸法
 62
     0
 48
50.0
370
    -2
100
AcDbLine
 10
9121.552934354548
 20
2524.150592134394
 30
0.0
 11
8782.346905142397
 21
2524.150592134394
 31
0.0
  0
LINE
  5
19182
330
18C77
100
AcDbEntity
  8
寸法
 62
     0
 48
50.0
370
    -2
100
AcDbLine
 10
8842.346905142397
 20
4549.150592134394
 30
0.0
 11
8842.346905142397
 21
2524.150592134394
 31
0.0
  0
INSERT
  5
19183
330
18C77
100
AcDbEntity
  8
寸法
 62
     0
 48
50.0
370
    -2
100
AcDbBlockReference
  2
_DOTSMALL
 10
8842.346905142397
 20
4549.150592134394
 30
0.0
 41
100.0
 42
100.0
 43
100.0
 50
90.0
  0
INSERT
  5
19184
330
18C77
100
AcDbEntity
  8
寸法
 62
     0
 48
50.0
370
    -2
100
AcDbBlockReference
  2
_DOTSMALL
 10
8842.346905142397
 20
2524.150592134394
 30
0.0
 41
100.0
 42
100.0
 43
100.0
 50
270.0
  0
MTEXT
  5
19185
330
18C77
100
AcDbEntity
  8
寸法
 62
     7
 48
50.0
100
AcDbMText
 10
8742.335094118775
 20
3536.650592134395
 30
0.0
 40
120.0
 41
0.0
 71
     5
 72
     1
  1
\A1;有効開口部高サ2025
  7
STYLE1
 11
0.0000000000000001
 21
1.0
 31
0.0
 73
     1
 44
1.0
1001
ACAD
1000
MTEXTBEGIN
1070
    73
1070
     1
1070
    44
1040
1.0
1070
    74
1070
     0
1000
MTEXTEND
  0
POINT
  5
19186
330
18C77
100
AcDbEntity
  8
DEFPOINTS
 62
     0
 48
50.0
100
AcDbPoint
 10
9141.552934354548
 20
4549.150592134394
 30
0.0
  0
POINT
  5
19187
330
18C77
100
AcDbEntity
  8
DEFPOINTS
 62
     0
 48
50.0
100
AcDbPoint
 10
9141.552934354548
 20
2524.150592134394
 30
0.0
  0
POINT
  5
19188
330
18C77
100
AcDbEntity
  8
DEFPOINTS
 62
     0
 48
50.0
100
AcDbPoint
 10
8842.346905142397
 20
2524.150592134394
 30
0.0
  0
ENDBLK
  5
18C82
330
18C77
100
AcDbEntity
  8
0
 48
50.0
100
AcDbBlockEnd
  0
BLOCK
  5
194E1
330
194D5
100
AcDbEntity
  8
0
 48
50.0
100
AcDbBlockBegin
  2
*D19
 70
     1
 10
0.0
 20
0.0
 30
0.0
  3
*D19
  1

  0
LINE
  5
19CC9
330
194D5
100
AcDbEntity
  8
寸法
 62
     0
 48
50.0
370
    -2
100
AcDbLine
 10
9113.552934354521
 20
9967.767976747152
 30
0.0
 11
9113.552934354521
 21
10298.97314131111
 31
0.0
  0
LINE
  5
19CCA
330
194D5
100
AcDbEntity
  8
寸法
 62
     0
 48
50.0
370
    -2
100
AcDbLine
 10
9168.552934354556
 20
9967.767976747152
 30
0.0
 11
9168.552934354556
 21
10298.97314131111
 31
0.0
  0
LINE
  5
19CCB
330
194D5
100
AcDbEntity
  8
寸法
 62
     0
 48
50.0
370
    -2
100
AcDbLine
 10
9168.552934354556
 20
10238.97314131111
 30
0.0
 11
9268.552934354557
 21
10238.97314131111
 31
0.0
  0
LINE
  5
19CCC
330
194D5
100
AcDbEntity
  8
寸法
 62
     0
 48
50.0
370
    -2
100
AcDbLine
 10
9113.552934354521
 20
10238.97314131111
 30
0.0
 11
8696.582371606044
 21
10238.97314131111
 31
0.0
  0
LINE
  5
19CCD
330
194D5
100
AcDbEntity
  8
寸法
 62
     0
 48
50.0
370
    -2
100
AcDbLine
 10
9168.552934354556
 20
10238.97314131111
 30
0.0
 11
9113.552934354521
 21
10238.97314131111
 31
0.0
  0
INSERT
  5
19CCE
330
194D5
100
AcDbEntity
  8
寸法
 62
     0
 48
50.0
370
    -2
100
AcDbBlockReference
  2
_DOTSMALL
 10
9168.552934354556
 20
10238.97314131111
 30
0.0
 41
100.0
 42
100.0
 43
100.0
 50
180.0
  0
INSERT
  5
19CCF
330
194D5
100
AcDbEntity
  8
寸法
 62
     0
 48
50.0
370
    -2
100
AcDbBlockReference
  2
_DOTSMALL
 10
9113.552934354521
 20
10238.97314131111
 30
0.0
 41
100.0
 42
100.0
 43
100.0
  0
MTEXT
  5
19CD0
330
194D5
100
AcDbEntity
  8
寸法
 62
     7
 48
50.0
100
AcDbMText
 10
8805.067652980282
 20
10338.97314131111
 30
0.0
 40
120.0
 41
0.0
 71
     5
 72
     1
  1
\A1;55
  7
STYLE1
 73
     1
 44
1.0
1001
ACAD
1000
MTEXTBEGIN
1070
    73
1070
     1
1070
    44
1040
1.0
1070
    74
1070
     0
1000
MTEXTEND
  0
POINT
  5
19CD1
330
194D5
100
AcDbEntity
  8
DEFPOINTS
 62
     0
 48
50.0
100
AcDbPoint
 10
9113.552934354521
 20
9947.767976747151
 30
0.0
  0
POINT
  5
19CD2
330
194D5
100
AcDbEntity
  8
DEFPOINTS
 62
     0
 48
50.0
100
AcDbPoint
 10
9168.552934354556
 20
9947.767976747151
 30
0.0
  0
POINT
  5
19CD3
330
194D5
100
AcDbEntity
  8
DEFPOINTS
 62
     0
 48
50.0
100
AcDbPoint
 10
9168.552934354556
 20
10238.97314131111
 30
0.0
  0
ENDBLK
  5
194E2
330
194D5
100
AcDbEntity
  8
0
 48
50.0
100
AcDbBlockEnd
  0
BLOCK
  5
194ED
330
194E3
100
AcDbEntity
  8
0
 48
50.0
100
AcDbBlockBegin
  2
*D20
 70
     1
 10
0.0
 20
0.0
 30
0.0
  3
*D20
  1

  0
LINE
  5
19CC0
330
194E3
100
AcDbEntity
  8
寸法
 62
     0
 48
50.0
370
    -2
100
AcDbLine
 10
10923.55293435455
 20
9947.767976747245
 30
0.0
 11
11976.0862218286
 21
9947.767976747245
 31
0.0
  0
LINE
  5
19CC1
330
194E3
100
AcDbEntity
  8
寸法
 62
     0
 48
50.0
370
    -2
100
AcDbLine
 10
10923.55293435453
 20
7737.767976747237
 30
0.0
 11
11976.0862218286
 21
7737.767976747237
 31
0.0
  0
LINE
  5
19CC2
330
194E3
100
AcDbEntity
  8
寸法
 62
     0
 48
50.0
370
    -2
100
AcDbLine
 10
11916.0862218286
 20
9947.767976747245
 30
0.0
 11
11916.0862218286
 21
7737.767976747237
 31
0.0
  0
INSERT
  5
19CC3
330
194E3
100
AcDbEntity
  8
寸法
 62
     0
 48
50.0
370
    -2
100
AcDbBlockReference
  2
_DOTSMALL
 10
11916.0862218286
 20
9947.767976747245
 30
0.0
 41
100.0
 42
100.0
 43
100.0
 50
90.0
  0
INSERT
  5
19CC4
330
194E3
100
AcDbEntity
  8
寸法
 62
     0
 48
50.0
370
    -2
100
AcDbBlockReference
  2
_DOTSMALL
 10
11916.0862218286
 20
7737.767976747237
 30
0.0
 41
100.0
 42
100.0
 43
100.0
 50
270.0
  0
MTEXT
  5
19CC5
330
194E3
100
AcDbEntity
  8
寸法
 62
     7
 48
50.0
100
AcDbMText
 10
11816.07441080498
 20
8842.767976747243
 30
0.0
 40
120.0
 41
0.0
 71
     5
 72
     1
  1
\A1;2210
  7
STYLE1
 11
0.0000000000000001
 21
1.0
 31
0.0
 73
     1
 44
1.0
1001
ACAD
1000
MTEXTBEGIN
1070
    73
1070
     1
1070
    44
1040
1.0
1070
    74
1070
     0
1000
MTEXTEND
  0
POINT
  5
19CC6
330
194E3
100
AcDbEntity
  8
DEFPOINTS
 62
     0
 48
50.0
100
AcDbPoint
 10
10903.55293435455
 20
9947.767976747245
 30
0.0
  0
POINT
  5
19CC7
330
194E3
100
AcDbEntity
  8
DEFPOINTS
 62
     0
 48
50.0
100
AcDbPoint
 10
10903.55293435453
 20
7737.767976747237
 30
0.0
  0
POINT
  5
19CC8
330
194E3
100
AcDbEntity
  8
DEFPOINTS
 62
     0
 48
50.0
100
AcDbPoint
 10
11916.0862218286
 20
7737.767976747237
 30
0.0
  0
ENDBLK
  5
194EE
330
194E3
100
AcDbEntity
  8
0
 48
50.0
100
AcDbBlockEnd
  0
BLOCK
  5
194FB
330
194EF
100
AcDbEntity
  8
0
 48
50.0
100
AcDbBlockBegin
  2
*D21
 70
     1
 10
0.0
 20
0.0
 30
0.0
  3
*D21
  1

  0
LINE
  5
19CB5
330
194EF
100
AcDbEntity
  8
寸法
 62
     0
 48
50.0
370
    -2
100
AcDbLine
 10
10923.55293435455
 20
9947.767976747245
 30
0.0
 11
11610.97928008897
 21
9947.767976747245
 31
0.0
  0
LINE
  5
19CB6
330
194EF
100
AcDbEntity
  8
寸法
 62
     0
 48
50.0
370
    -2
100
AcDbLine
 10
10923.55293435455
 20
9892.767976747251
 30
0.0
 11
11610.97928008897
 21
9892.767976747251
 31
0.0
  0
LINE
  5
19CB7
330
194EF
100
AcDbEntity
  8
寸法
 62
     0
 48
50.0
370
    -2
100
AcDbLine
 10
11550.97928008897
 20
9892.767976747251
 30
0.0
 11
11550.97928008897
 21
9792.767976747249
 31
0.0
  0
LINE
  5
19CB8
330
194EF
100
AcDbEntity
  8
寸法
 62
     0
 48
50.0
370
    -2
100
AcDbLine
 10
11550.97928008897
 20
9947.767976747245
 30
0.0
 11
11550.97928008897
 21
10364.73853949572
 31
0.0
  0
LINE
  5
19CB9
330
194EF
100
AcDbEntity
  8
寸法
 62
     0
 48
50.0
370
    -2
100
AcDbLine
 10
11550.97928008897
 20
9892.767976747251
 30
0.0
 11
11550.97928008897
 21
9947.767976747245
 31
0.0
  0
INSERT
  5
19CBA
330
194EF
100
AcDbEntity
  8
寸法
 62
     0
 48
50.0
370
    -2
100
AcDbBlockReference
  2
_DOTSMALL
 10
11550.97928008897
 20
9892.767976747251
 30
0.0
 41
100.0
 42
100.0
 43
100.0
 50
90.0
  0
INSERT
  5
19CBB
330
194EF
100
AcDbEntity
  8
寸法
 62
     0
 48
50.0
370
    -2
100
AcDbBlockReference
  2
_DOTSMALL
 10
11550.97928008897
 20
9947.767976747245
 30
0.0
 41
100.0
 42
100.0
 43
100.0
 50
270.0
  0
MTEXT
  5
19CBC
330
194EF
100
AcDbEntity
  8
寸法
 62
     7
 48
50.0
100
AcDbMText
 10
11450.97928008896
 20
10256.25325812148
 30
0.0
 40
120.0
 41
0.0
 71
     5
 72
     1
  1
\A1;55
  7
STYLE1
 11
0.0000000000000001
 21
1.0
 31
0.0
 73
     1
 44
1.0
1001
ACAD
1000
MTEXTBEGIN
1070
    73
1070
     1
1070
    44
1040
1.0
1070
    74
1070
     0
1000
MTEXTEND
  0
POINT
  5
19CBD
330
194EF
100
AcDbEntity
  8
DEFPOINTS
 62
     0
 48
50.0
100
AcDbPoint
 10
10903.55293435455
 20
9947.767976747245
 30
0.0
  0
POINT
  5
19CBE
330
194EF
100
AcDbEntity
  8
DEFPOINTS
 62
     0
 48
50.0
100
AcDbPoint
 10
10903.55293435455
 20
9892.767976747251
 30
0.0
  0
POINT
  5
19CBF
330
194EF
100
AcDbEntity
  8
DEFPOINTS
 62
     0
 48
50.0
100
AcDbPoint
 10
11550.97928008897
 20
9892.767976747251
 30
0.0
  0
ENDBLK
  5
194FC
330
194EF
100
AcDbEntity
  8
0
 48
50.0
100
AcDbBlockEnd
  0
BLOCK
  5
19509
330
194FD
100
AcDbEntity
  8
0
 48
50.0
100
AcDbBlockBegin
  2
*D22
 70
     1
 10
0.0
 20
0.0
 30
0.0
  3
*D22
  1

  0
LINE
  5
19CAA
330
194FD
100
AcDbEntity
  8
寸法
 62
     0
 48
50.0
370
    -2
100
AcDbLine
 10
10923.55293435453
 20
7792.767976747232
 30
0.0
 11
11610.97928008894
 21
7792.767976747232
 31
0.0
  0
LINE
  5
19CAB
330
194FD
100
AcDbEntity
  8
寸法
 62
     0
 48
50.0
370
    -2
100
AcDbLine
 10
10923.55293435453
 20
7737.767976747237
 30
0.0
 11
11610.97928008894
 21
7737.767976747237
 31
0.0
  0
LINE
  5
19CAC
330
194FD
100
AcDbEntity
  8
寸法
 62
     0
 48
50.0
370
    -2
100
AcDbLine
 10
11550.97928008894
 20
7792.767976747232
 30
0.0
 11
11550.97928008894
 21
7892.767976747233
 31
0.0
  0
LINE
  5
19CAD
330
194FD
100
AcDbEntity
  8
寸法
 62
     0
 48
50.0
370
    -2
100
AcDbLine
 10
11550.97928008894
 20
7737.767976747237
 30
0.0
 11
11550.97928008894
 21
7251.421228468135
 31
0.0
  0
LINE
  5
19CAE
330
194FD
100
AcDbEntity
  8
寸法
 62
     0
 48
50.0
370
    -2
100
AcDbLine
 10
11550.97928008894
 20
7792.767976747232
 30
0.0
 11
11550.97928008894
 21
7737.767976747237
 31
0.0
  0
INSERT
  5
19CAF
330
194FD
100
AcDbEntity
  8
寸法
 62
     0
 48
50.0
370
    -2
100
AcDbBlockReference
  2
_DOTSMALL
 10
11550.97928008894
 20
7792.767976747232
 30
0.0
 41
100.0
 42
100.0
 43
100.0
 50
270.0
  0
INSERT
  5
19CB0
330
194FD
100
AcDbEntity
  8
寸法
 62
     0
 48
50.0
370
    -2
100
AcDbBlockReference
  2
_DOTSMALL
 10
11550.97928008894
 20
7737.767976747237
 30
0.0
 41
100.0
 42
100.0
 43
100.0
 50
90.0
  0
MTEXT
  5
19CB1
330
194FD
100
AcDbEntity
  8
寸法
 62
     7
 48
50.0
100
AcDbMText
 10
11450.97928008894
 20
7359.906509842375
 30
0.0
 40
120.0
 41
0.0
 71
     5
 72
     1
  1
\A1;55
  7
STYLE1
 11
0.0000000000000001
 21
1.0
 31
0.0
 73
     1
 44
1.0
1001
ACAD
1000
MTEXTBEGIN
1070
    73
1070
     1
1070
    44
1040
1.0
1070
    74
1070
     0
1000
MTEXTEND
  0
POINT
  5
19CB2
330
194FD
100
AcDbEntity
  8
DEFPOINTS
 62
     0
 48
50.0
100
AcDbPoint
 10
10903.55293435453
 20
7792.767976747232
 30
0.0
  0
POINT
  5
19CB3
330
194FD
100
AcDbEntity
  8
DEFPOINTS
 62
     0
 48
50.0
100
AcDbPoint
 10
10903.55293435453
 20
7737.767976747237
 30
0.0
  0
POINT
  5
19CB4
330
194FD
100
AcDbEntity
  8
DEFPOINTS
 62
     0
 48
50.0
100
AcDbPoint
 10
11550.97928008894
 20
7737.767976747237
 30
0.0
  0
ENDBLK
  5
1950A
330
194FD
100
AcDbEntity
  8
0
 48
50.0
100
AcDbBlockEnd
  0
BLOCK
  5
19515
330
1950B
100
AcDbEntity
  8
0
 48
50.0
100
AcDbBlockBegin
  2
*D23
 70
     1
 10
0.0
 20
0.0
 30
0.0
  3
*D23
  1

  0
LINE
  5
19CA1
330
1950B
100
AcDbEntity
  8
寸法
 62
     0
 48
50.0
370
    -2
100
AcDbLine
 10
10923.55293435455
 20
9892.767976747251
 30
0.0
 11
11610.97928008897
 21
9892.767976747251
 31
0.0
  0
LINE
  5
19CA2
330
1950B
100
AcDbEntity
  8
寸法
 62
     0
 48
50.0
370
    -2
100
AcDbLine
 10
10923.55293435453
 20
7792.767976747232
 30
0.0
 11
11610.97928008897
 21
7792.767976747232
 31
0.0
  0
LINE
  5
19CA3
330
1950B
100
AcDbEntity
  8
寸法
 62
     0
 48
50.0
370
    -2
100
AcDbLine
 10
11550.97928008897
 20
9892.767976747251
 30
0.0
 11
11550.97928008897
 21
7792.767976747232
 31
0.0
  0
INSERT
  5
19CA4
330
1950B
100
AcDbEntity
  8
寸法
 62
     0
 48
50.0
370
    -2
100
AcDbBlockReference
  2
_DOTSMALL
 10
11550.97928008897
 20
9892.767976747251
 30
0.0
 41
100.0
 42
100.0
 43
100.0
 50
90.0
  0
INSERT
  5
19CA5
330
1950B
100
AcDbEntity
  8
寸法
 62
     0
 48
50.0
370
    -2
100
AcDbBlockReference
  2
_DOTSMALL
 10
11550.97928008897
 20
7792.767976747232
 30
0.0
 41
100.0
 42
100.0
 43
100.0
 50
270.0
  0
MTEXT
  5
19CA6
330
1950B
100
AcDbEntity
  8
寸法
 62
     7
 48
50.0
100
AcDbMText
 10
11450.96746906534
 20
8842.767976747243
 30
0.0
 40
120.0
 41
0.0
 71
     5
 72
     1
  1
\A1;5X420=2100
  7
STYLE1
 11
0.0000000000000001
 21
1.0
 31
0.0
 73
     1
 44
1.0
1001
ACAD
1000
MTEXTBEGIN
1070
    73
1070
     1
1070
    44
1040
1.0
1070
    74
1070
     0
1000
MTEXTEND
  0
POINT
  5
19CA7
330
1950B
100
AcDbEntity
  8
DEFPOINTS
 62
     0
 48
50.0
100
AcDbPoint
 10
10903.55293435455
 20
9892.767976747251
 30
0.0
  0
POINT
  5
19CA8
330
1950B
100
AcDbEntity
  8
DEFPOINTS
 62
     0
 48
50.0
100
AcDbPoint
 10
10903.55293435453
 20
7792.767976747232
 30
0.0
  0
POINT
  5
19CA9
330
1950B
100
AcDbEntity
  8
DEFPOINTS
 62
     0
 48
50.0
100
AcDbPoint
 10
11550.97928008897
 20
7792.767976747232
 30
0.0
  0
ENDBLK
  5
19516
330
1950B
100
AcDbEntity
  8
0
 48
50.0
100
AcDbBlockEnd
  0
BLOCK
  5
1952F
330
19523
100
AcDbEntity
  8
0
 48
50.0
100
AcDbBlockBegin
  2
*D24
 70
     1
 10
0.0
 20
0.0
 30
0.0
  3
*D24
  1

  0
LINE
  5
19C96
330
19523
100
AcDbEntity
  8
寸法
 62
     0
 48
50.0
370
    -2
100
AcDbLine
 10
10848.55293435456
 20
9967.767976747246
 30
0.0
 11
10848.55293435456
 21
10298.97314131121
 31
0.0
  0
LINE
  5
19C97
330
19523
100
AcDbEntity
  8
寸法
 62
     0
 48
50.0
370
    -2
100
AcDbLine
 10
10903.55293435455
 20
9967.767976747246
 30
0.0
 11
10903.55293435455
 21
10298.97314131121
 31
0.0
  0
LINE
  5
19C98
330
19523
100
AcDbEntity
  8
寸法
 62
     0
 48
50.0
370
    -2
100
AcDbLine
 10
10848.55293435456
 20
10238.97314131121
 30
0.0
 11
10748.55293435456
 21
10238.97314131121
 31
0.0
  0
LINE
  5
19C99
330
19523
100
AcDbEntity
  8
寸法
 62
     0
 48
50.0
370
    -2
100
AcDbLine
 10
10903.55293435455
 20
10238.97314131121
 30
0.0
 11
11320.52349710303
 21
10238.97314131121
 31
0.0
  0
LINE
  5
19C9A
330
19523
100
AcDbEntity
  8
寸法
 62
     0
 48
50.0
370
    -2
100
AcDbLine
 10
10848.55293435456
 20
10238.97314131121
 30
0.0
 11
10903.55293435455
 21
10238.97314131121
 31
0.0
  0
INSERT
  5
19C9B
330
19523
100
AcDbEntity
  8
寸法
 62
     0
 48
50.0
370
    -2
100
AcDbBlockReference
  2
_DOTSMALL
 10
10848.55293435456
 20
10238.97314131121
 30
0.0
 41
100.0
 42
100.0
 43
100.0
  0
INSERT
  5
19C9C
330
19523
100
AcDbEntity
  8
寸法
 62
     0
 48
50.0
370
    -2
100
AcDbBlockReference
  2
_DOTSMALL
 10
10903.55293435455
 20
10238.97314131121
 30
0.0
 41
100.0
 42
100.0
 43
100.0
 50
180.0
  0
MTEXT
  5
19C9D
330
19523
100
AcDbEntity
  8
寸法
 62
     7
 48
50.0
100
AcDbMText
 10
11212.03821572879
 20
10338.97314131121
 30
0.0
 40
120.0
 41
0.0
 71
     5
 72
     1
  1
\A1;55
  7
STYLE1
 73
     1
 44
1.0
1001
ACAD
1000
MTEXTBEGIN
1070
    73
1070
     1
1070
    44
1040
1.0
1070
    74
1070
     0
1000
MTEXTEND
  0
POINT
  5
19C9E
330
19523
100
AcDbEntity
  8
DEFPOINTS
 62
     0
 48
50.0
100
AcDbPoint
 10
10848.55293435456
 20
9947.767976747245
 30
0.0
  0
POINT
  5
19C9F
330
19523
100
AcDbEntity
  8
DEFPOINTS
 62
     0
 48
50.0
100
AcDbPoint
 10
10903.55293435455
 20
9947.767976747245
 30
0.0
  0
POINT
  5
19CA0
330
19523
100
AcDbEntity
  8
DEFPOINTS
 62
     0
 48
50.0
100
AcDbPoint
 10
10903.55293435455
 20
10238.97314131121
 30
0.0
  0
ENDBLK
  5
19530
330
19523
100
AcDbEntity
  8
0
 48
50.0
100
AcDbBlockEnd
  0
BLOCK
  5
1953B
330
19531
100
AcDbEntity
  8
0
 48
50.0
100
AcDbBlockBegin
  2
*D25
 70
     1
 10
0.0
 20
0.0
 30
0.0
  3
*D25
  1

  0
LINE
  5
19C8D
330
19531
100
AcDbEntity
  8
寸法
 62
     0
 48
50.0
370
    -2
100
AcDbLine
 10
9168.552934354556
 20
9967.767976747152
 30
0.0
 11
9168.552934354556
 21
10298.97314131123
 31
0.0
  0
LINE
  5
19C8E
330
19531
100
AcDbEntity
  8
寸法
 62
     0
 48
50.0
370
    -2
100
AcDbLine
 10
10848.55293435456
 20
9967.767976747246
 30
0.0
 11
10848.55293435456
 21
10298.97314131123
 31
0.0
  0
LINE
  5
19C8F
330
19531
100
AcDbEntity
  8
寸法
 62
     0
 48
50.0
370
    -2
100
AcDbLine
 10
9168.552934354556
 20
10238.97314131123
 30
0.0
 11
10848.55293435456
 21
10238.97314131123
 31
0.0
  0
INSERT
  5
19C90
330
19531
100
AcDbEntity
  8
寸法
 62
     0
 48
50.0
370
    -2
100
AcDbBlockReference
  2
_DOTSMALL
 10
9168.552934354556
 20
10238.97314131123
 30
0.0
 41
100.0
 42
100.0
 43
100.0
 50
180.0
  0
INSERT
  5
19C91
330
19531
100
AcDbEntity
  8
寸法
 62
     0
 48
50.0
370
    -2
100
AcDbBlockReference
  2
_DOTSMALL
 10
10848.55293435456
 20
10238.97314131123
 30
0.0
 41
100.0
 42
100.0
 43
100.0
  0
MTEXT
  5
19C92
330
19531
100
AcDbEntity
  8
寸法
 62
     7
 48
50.0
100
AcDbMText
 10
10008.55293435455
 20
10338.98495233485
 30
0.0
 40
120.0
 41
0.0
 71
     5
 72
     1
  1
\A1;4X420=1680
  7
STYLE1
 73
     1
 44
1.0
1001
ACAD
1000
MTEXTBEGIN
1070
    73
1070
     1
1070
    44
1040
1.0
1070
    74
1070
     0
1000
MTEXTEND
  0
POINT
  5
19C93
330
19531
100
AcDbEntity
  8
DEFPOINTS
 62
     0
 48
50.0
100
AcDbPoint
 10
9168.552934354556
 20
9947.767976747151
 30
0.0
  0
POINT
  5
19C94
330
19531
100
AcDbEntity
  8
DEFPOINTS
 62
     0
 48
50.0
100
AcDbPoint
 10
10848.55293435456
 20
9947.767976747245
 30
0.0
  0
POINT
  5
19C95
330
19531
100
AcDbEntity
  8
DEFPOINTS
 62
     0
 48
50.0
100
AcDbPoint
 10
10848.55293435456
 20
10238.97314131123
 30
0.0
  0
ENDBLK
  5
1953C
330
19531
100
AcDbEntity
  8
0
 48
50.0
100
AcDbBlockEnd
  0
BLOCK
  5
19547
330
1953D
100
AcDbEntity
  8
0
 48
50.0
100
AcDbBlockBegin
  2
*D26
 70
     1
 10
0.0
 20
0.0
 30
0.0
  3
*D26
  1

  0
LINE
  5
19C84
330
1953D
100
AcDbEntity
  8
寸法
 62
     0
 48
50.0
370
    -2
100
AcDbLine
 10
10403.55293435467
 20
8624.626960595845
 30
0.0
 11
10159.80215366347
 21
8689.939785436509
 31
0.0
  0
LINE
  5
19C85
330
1953D
100
AcDbEntity
  8
寸法
 62
     0
 48
50.0
370
    -2
100
AcDbLine
 10
10403.55293435466
 20
7771.626960595831
 30
0.0
 11
10159.80215366347
 21
7836.939785436495
 31
0.0
  0
LINE
  5
19C86
330
1953D
100
AcDbEntity
  8
寸法
 62
     0
 48
50.0
370
    -2
100
AcDbLine
 10
10219.80215366347
 20
8673.862833890643
 30
0.0
 11
10219.80215366347
 21
7820.862833890628
 31
0.0
  0
INSERT
  5
19C87
330
1953D
100
AcDbEntity
  8
寸法
 62
     0
 48
50.0
370
    -2
100
AcDbBlockReference
  2
_DOTSMALL
 10
10219.80215366347
 20
8673.862833890643
 30
0.0
 41
100.0
 42
100.0
 43
100.0
 50
90.0
  0
INSERT
  5
19C88
330
1953D
100
AcDbEntity
  8
寸法
 62
     0
 48
50.0
370
    -2
100
AcDbBlockReference
  2
_DOTSMALL
 10
10219.80215366347
 20
7820.862833890628
 30
0.0
 41
100.0
 42
100.0
 43
100.0
 50
270.0
  0
MTEXT
  5
19C89
330
1953D
100
AcDbEntity
  8
寸法
 62
     7
 48
50.0
100
AcDbMText
 10
10119.80215366346
 20
8182.069506417844
 30
0.0
 40
120.0
 41
0.0
 71
     5
 72
     1
  1
\A1;853
  7
STYLE1
 11
0.0000000000000001
 21
1.0
 31
0.0
 73
     1
 44
1.0
1001
ACAD
1000
MTEXTBEGIN
1070
    73
1070
     1
1070
    44
1040
1.0
1070
    74
1070
     0
1000
MTEXTEND
  0
POINT
  5
19C8A
330
1953D
100
AcDbEntity
  8
DEFPOINTS
 62
     0
 48
50.0
100
AcDbPoint
 10
10423.55293435467
 20
8619.267976747222
 30
0.0
  0
POINT
  5
19C8B
330
1953D
100
AcDbEntity
  8
DEFPOINTS
 62
     0
 48
50.0
100
AcDbPoint
 10
10423.55293435466
 20
7766.26797674721
 30
0.0
  0
POINT
  5
19C8C
330
1953D
100
AcDbEntity
  8
DEFPOINTS
 62
     0
 48
50.0
100
AcDbPoint
 10
10219.80215366347
 20
7820.862833890628
 30
0.0
  0
ENDBLK
  5
19548
330
1953D
100
AcDbEntity
  8
0
 48
50.0
100
AcDbBlockEnd
  0
BLOCK
  5
19553
330
19549
100
AcDbEntity
  8
0
 48
50.0
100
AcDbBlockBegin
  2
*D27
 70
     1
 10
0.0
 20
0.0
 30
0.0
  3
*D27
  1

  0
LINE
  5
19CEF
330
19549
100
AcDbEntity
  8
寸法
 62
     0
 48
50.0
370
    -2
100
AcDbLine
 10
10403.55293435461
 20
9924.626960595913
 30
0.0
 11
10159.80215366347
 21
9989.939785436561
 31
0.0
  0
LINE
  5
19CF0
330
19549
100
AcDbEntity
  8
寸法
 62
     0
 48
50.0
370
    -2
100
AcDbLine
 10
10403.55293435461
 20
8651.626960595843
 30
0.0
 11
10159.80215366347
 21
8716.939785436489
 31
0.0
  0
LINE
  5
19CF1
330
19549
100
AcDbEntity
  8
寸法
 62
     0
 48
50.0
370
    -2
100
AcDbLine
 10
10219.80215366347
 20
9973.862833890695
 30
0.0
 11
10219.80215366347
 21
8700.862833890623
 31
0.0
  0
INSERT
  5
19CF2
330
19549
100
AcDbEntity
  8
寸法
 62
     0
 48
50.0
370
    -2
100
AcDbBlockReference
  2
_DOTSMALL
 10
10219.80215366347
 20
9973.862833890695
 30
0.0
 41
100.0
 42
100.0
 43
100.0
 50
90.0
  0
INSERT
  5
19CF3
330
19549
100
AcDbEntity
  8
寸法
 62
     0
 48
50.0
370
    -2
100
AcDbBlockReference
  2
_DOTSMALL
 10
10219.80215366347
 20
8700.862833890623
 30
0.0
 41
100.0
 42
100.0
 43
100.0
 50
270.0
  0
MTEXT
  5
19CF4
330
19549
100
AcDbEntity
  8
寸法
 62
     7
 48
50.0
100
AcDbMText
 10
10119.79034263984
 20
9386.125545164155
 30
0.0
 40
120.0
 41
0.0
 71
     5
 72
     1
  1
\A1;1273
  7
STYLE1
 11
0.0000000000000001
 21
1.0
 31
0.0
 73
     1
 44
1.0
1001
ACAD
1000
MTEXTBEGIN
1070
    73
1070
     1
1070
    44
1040
1.0
1070
    74
1070
     0
1000
MTEXTEND
  0
POINT
  5
19CF5
330
19549
100
AcDbEntity
  8
DEFPOINTS
 62
     0
 48
50.0
100
AcDbPoint
 10
10423.55293435461
 20
9919.267976747292
 30
0.0
  0
POINT
  5
19CF6
330
19549
100
AcDbEntity
  8
DEFPOINTS
 62
     0
 48
50.0
100
AcDbPoint
 10
10423.55293435461
 20
8646.267976747219
 30
0.0
  0
POINT
  5
19CF7
330
19549
100
AcDbEntity
  8
DEFPOINTS
 62
     0
 48
50.0
100
AcDbPoint
 10
10219.80215366347
 20
8700.862833890623
 30
0.0
  0
ENDBLK
  5
19554
330
19549
100
AcDbEntity
  8
0
 48
50.0
100
AcDbBlockEnd
  0
BLOCK
  5
19579
330
1956F
100
AcDbEntity
  8
0
 48
50.0
100
AcDbBlockBegin
  2
*D28
 70
     1
 10
0.0
 20
0.0
 30
0.0
  3
*D28
  1

  0
LINE
  5
19C72
330
1956F
100
AcDbEntity
  8
寸法
 62
     0
 48
50.0
370
    -2
100
AcDbLine
 10
10878.91191820322
 20
7746.267976747212
 30
0.0
 11
10984.84294006522
 21
7350.928021060564
 31
0.0
  0
LINE
  5
19C73
330
1956F
100
AcDbEntity
  8
寸法
 62
     0
 48
50.0
370
    -2
100
AcDbLine
 10
10428.91191820322
 20
7746.267976747212
 30
0.0
 11
10534.84294006522
 21
7350.928021060564
 31
0.0
  0
LINE
  5
19C74
330
1956F
100
AcDbEntity
  8
寸法
 62
     0
 48
50.0
370
    -2
100
AcDbLine
 10
10968.76598851935
 20
7410.928021060563
 30
0.0
 11
10518.76598851935
 21
7410.928021060563
 31
0.0
  0
INSERT
  5
19C75
330
1956F
100
AcDbEntity
  8
寸法
 62
     0
 48
50.0
370
    -2
100
AcDbBlockReference
  2
_DOTSMALL
 10
10968.76598851935
 20
7410.928021060563
 30
0.0
 41
100.0
 42
100.0
 43
100.0
  0
INSERT
  5
19C76
330
1956F
100
AcDbEntity
  8
寸法
 62
     0
 48
50.0
370
    -2
100
AcDbBlockReference
  2
_DOTSMALL
 10
10518.76598851935
 20
7410.928021060563
 30
0.0
 41
100.0
 42
100.0
 43
100.0
 50
180.0
  0
MTEXT
  5
19C77
330
1956F
100
AcDbEntity
  8
寸法
 62
     7
 48
50.0
100
AcDbMText
 10
10718.76958928613
 20
7510.928021060563
 30
0.0
 40
120.0
 41
0.0
 71
     5
 72
     1
  1
\A1;450
  7
STYLE1
 73
     1
 44
1.0
1001
ACAD
1000
MTEXTBEGIN
1070
    73
1070
     1
1070
    44
1040
1.0
1070
    74
1070
     0
1000
MTEXTEND
  0
POINT
  5
19C78
330
1956F
100
AcDbEntity
  8
DEFPOINTS
 62
     0
 48
50.0
100
AcDbPoint
 10
10873.5529343546
 20
7766.267976747212
 30
0.0
  0
POINT
  5
19C79
330
1956F
100
AcDbEntity
  8
DEFPOINTS
 62
     0
 48
50.0
100
AcDbPoint
 10
10423.5529343546
 20
7766.267976747212
 30
0.0
  0
POINT
  5
19C7A
330
1956F
100
AcDbEntity
  8
DEFPOINTS
 62
     0
 48
50.0
100
AcDbPoint
 10
10518.76598851935
 20
7410.928021060563
 30
0.0
  0
ENDBLK
  5
1957A
330
1956F
100
AcDbEntity
  8
0
 48
50.0
100
AcDbBlockEnd
  0
BLOCK
  5
19818
330
1980E
100
AcDbEntity
  8
0
 48
50.0
100
AcDbBlockBegin
  2
*D29
 70
     1
 10
0.0
 20
0.0
 30
0.0
  3
*D29
  1

  0
LINE
  5
19C69
330
1980E
100
AcDbEntity
  8
寸法
 62
     0
 48
50.0
370
    -2
100
AcDbLine
 10
9180.552934354521
 20
7640.767976747078
 30
0.0
 11
9180.552934354521
 21
6995.692958698853
 31
0.0
  0
LINE
  5
19C6A
330
1980E
100
AcDbEntity
  8
寸法
 62
     0
 48
50.0
370
    -2
100
AcDbLine
 10
10130.55293435452
 20
7640.767976747078
 30
0.0
 11
10130.55293435452
 21
6995.692958698853
 31
0.0
  0
LINE
  5
19C6B
330
1980E
100
AcDbEntity
  8
寸法
 62
     0
 48
50.0
370
    -2
100
AcDbLine
 10
9200.55293435452
 20
7035.692958698854
 30
0.0
 11
10110.55293435452
 21
7035.692958698854
 31
0.0
  0
INSERT
  5
19C6C
330
1980E
100
AcDbEntity
  8
寸法
 62
     0
 48
50.0
370
    -2
100
AcDbBlockReference
  2
_DOT
 10
9180.552934354521
 20
7035.692958698854
 30
0.0
 41
20.0
 42
20.0
 43
20.0
 50
180.0
  0
INSERT
  5
19C6D
330
1980E
100
AcDbEntity
  8
寸法
 62
     0
 48
50.0
370
    -2
100
AcDbBlockReference
  2
_DOT
 10
10130.55293435452
 20
7035.692958698854
 30
0.0
 41
20.0
 42
20.0
 43
20.0
  0
MTEXT
  5
19C6E
330
1980E
100
AcDbEntity
  8
寸法
 62
     7
 48
50.0
100
AcDbMText
 10
9655.55293435452
 20
7227.692958698854
 30
0.0
 40
120.0
 41
0.0
 71
     5
 72
     1
  1
\A1;有効開口部間口\P950
  7
STYLE1
 73
     1
 44
1.0
1001
ACAD
1000
MTEXTBEGIN
1070
    73
1070
     1
1070
    44
1040
1.0
1070
    74
1070
     0
1000
MTEXTEND
  0
POINT
  5
19C6F
330
1980E
100
AcDbEntity
  8
DEFPOINTS
 62
     0
 48
50.0
100
AcDbPoint
 10
9180.552934354521
 20
7660.767976747078
 30
0.0
  0
POINT
  5
19C70
330
1980E
100
AcDbEntity
  8
DEFPOINTS
 62
     0
 48
50.0
100
AcDbPoint
 10
10130.55293435452
 20
7660.767976747078
 30
0.0
  0
POINT
  5
19C71
330
1980E
100
AcDbEntity
  8
DEFPOINTS
 62
     0
 48
50.0
100
AcDbPoint
 10
10130.55293435452
 20
7035.692958698854
 30
0.0
  0
ENDBLK
  5
19819
330
1980E
100
AcDbEntity
  8
0
 48
50.0
100
AcDbBlockEnd
  0
BLOCK
  5
19AFF
330
19AF5
100
AcDbEntity
  8
0
 48
50.0
100
AcDbBlockBegin
  2
*D30
 70
     1
 10
0.0
 20
0.0
 30
0.0
  3
*D30
  1

  0
LINE
  5
19C60
330
19AF5
100
AcDbEntity
  8
寸法
 62
     0
 48
50.0
370
    -2
100
AcDbLine
 10
9113.552934354549
 20
7717.767976747108
 30
0.0
 11
9113.552934354549
 21
6485.940186002205
 31
0.0
  0
LINE
  5
19C61
330
19AF5
100
AcDbEntity
  8
寸法
 62
     0
 48
50.0
370
    -2
100
AcDbLine
 10
10903.55293435453
 20
7717.767976747237
 30
0.0
 11
10903.55293435453
 21
6485.940186002205
 31
0.0
  0
LINE
  5
19C62
330
19AF5
100
AcDbEntity
  8
寸法
 62
     0
 48
50.0
370
    -2
100
AcDbLine
 10
9113.552934354549
 20
6545.940186002204
 30
0.0
 11
10903.55293435453
 21
6545.940186002204
 31
0.0
  0
INSERT
  5
19C63
330
19AF5
100
AcDbEntity
  8
寸法
 62
     0
 48
50.0
370
    -2
100
AcDbBlockReference
  2
_DOTSMALL
 10
9113.552934354549
 20
6545.940186002204
 30
0.0
 41
100.0
 42
100.0
 43
100.0
 50
180.0
  0
INSERT
  5
19C64
330
19AF5
100
AcDbEntity
  8
寸法
 62
     0
 48
50.0
370
    -2
100
AcDbBlockReference
  2
_DOTSMALL
 10
10903.55293435453
 20
6545.940186002204
 30
0.0
 41
100.0
 42
100.0
 43
100.0
  0
MTEXT
  5
19C65
330
19AF5
100
AcDbEntity
  8
寸法
 62
     7
 48
50.0
100
AcDbMText
 10
9996.699684685905
 20
6645.940186002204
 30
0.0
 40
120.0
 41
0.0
 71
     5
 72
     1
  1
\A1;1790
  7
STYLE1
 73
     1
 44
1.0
1001
ACAD
1000
MTEXTBEGIN
1070
    73
1070
     1
1070
    44
1040
1.0
1070
    74
1070
     0
1000
MTEXTEND
  0
POINT
  5
19C66
330
19AF5
100
AcDbEntity
  8
DEFPOINTS
 62
     0
 48
50.0
100
AcDbPoint
 10
9113.552934354549
 20
7737.767976747107
 30
0.0
  0
POINT
  5
19C67
330
19AF5
100
AcDbEntity
  8
DEFPOINTS
 62
     0
 48
50.0
100
AcDbPoint
 10
10903.55293435453
 20
7737.767976747237
 30
0.0
  0
POINT
  5
19C68
330
19AF5
100
AcDbEntity
  8
DEFPOINTS
 62
     0
 48
50.0
100
AcDbPoint
 10
10903.55293435453
 20
6545.940186002204
 30
0.0
  0
ENDBLK
  5
19B00
330
19AF5
100
AcDbEntity
  8
0
 48
50.0
100
AcDbBlockEnd
  0
BLOCK
  5
19B0D
330
19B01
100
AcDbEntity
  8
0
 48
50.0
100
AcDbBlockBegin
  2
*D31
 70
     1
 10
0.0
 20
0.0
 30
0.0
  3
*D31
  1

  0
LINE
  5
19C55
330
19B01
100
AcDbEntity
  8
寸法
 62
     0
 48
50.0
370
    -2
100
AcDbLine
 10
9093.55293435455
 20
7737.767976747107
 30
0.0
 11
8778.941688727833
 21
7737.767976747107
 31
0.0
  0
LINE
  5
19C56
330
19B01
100
AcDbEntity
  8
寸法
 62
     0
 48
50.0
370
    -2
100
AcDbLine
 10
9121.552934354529
 20
7662.767976747108
 30
0.0
 11
8778.941688727833
 21
7662.767976747108
 31
0.0
  0
LINE
  5
19C57
330
19B01
100
AcDbEntity
  8
寸法
 62
     0
 48
50.0
370
    -2
100
AcDbLine
 10
8818.941688727832
 20
7757.767976747107
 30
0.0
 11
8818.941688727832
 21
7777.767976747107
 31
0.0
  0
LINE
  5
19C58
330
19B01
100
AcDbEntity
  8
寸法
 62
     0
 48
50.0
370
    -2
100
AcDbLine
 10
8818.941688727832
 20
7642.767976747108
 30
0.0
 11
8818.941688727832
 21
7421.797413998629
 31
0.0
  0
LINE
  5
19C59
330
19B01
100
AcDbEntity
  8
寸法
 62
     0
 48
50.0
370
    -2
100
AcDbLine
 10
8818.941688727832
 20
7737.767976747107
 30
0.0
 11
8818.941688727832
 21
7662.767976747108
 31
0.0
  0
INSERT
  5
19C5A
330
19B01
100
AcDbEntity
  8
寸法
 62
     0
 48
50.0
370
    -2
100
AcDbBlockReference
  2
_DOT
 10
8818.941688727832
 20
7737.767976747107
 30
0.0
 41
20.0
 42
20.0
 43
20.0
 50
270.0
  0
INSERT
  5
19C5B
330
19B01
100
AcDbEntity
  8
寸法
 62
     0
 48
50.0
370
    -2
100
AcDbBlockReference
  2
_DOT
 10
8818.941688727832
 20
7662.767976747108
 30
0.0
 41
20.0
 42
20.0
 43
20.0
 50
90.0
  0
MTEXT
  5
19C5C
330
19B01
100
AcDbEntity
  8
寸法
 62
     7
 48
50.0
100
AcDbMText
 10
8726.941688727832
 20
7522.28269537287
 30
0.0
 40
120.0
 41
0.0
 71
     5
 72
     1
  1
\A1;75
  7
STYLE1
 11
0.0000000000000001
 21
1.0
 31
0.0
 73
     1
 44
1.0
1001
ACAD
1000
MTEXTBEGIN
1070
    73
1070
     1
1070
    44
1040
1.0
1070
    74
1070
     0
1000
MTEXTEND
  0
POINT
  5
19C5D
330
19B01
100
AcDbEntity
  8
DEFPOINTS
 62
     0
 48
50.0
100
AcDbPoint
 10
9113.552934354549
 20
7737.767976747107
 30
0.0
  0
POINT
  5
19C5E
330
19B01
100
AcDbEntity
  8
DEFPOINTS
 62
     0
 48
50.0
100
AcDbPoint
 10
9141.552934354526
 20
7662.767976747108
 30
0.0
  0
POINT
  5
19C5F
330
19B01
100
AcDbEntity
  8
DEFPOINTS
 62
     0
 48
50.0
100
AcDbPoint
 10
8818.941688727832
 20
7662.767976747108
 30
0.0
  0
ENDBLK
  5
19B0E
330
19B01
100
AcDbEntity
  8
0
 48
50.0
100
AcDbBlockEnd
  0
BLOCK
  5
19B19
330
19B0F
100
AcDbEntity
  8
0
 48
50.0
100
AcDbBlockBegin
  2
*D32
 70
     1
 10
0.0
 20
0.0
 30
0.0
  3
*D32
  1

  0
LINE
  5
19C4C
330
19B0F
100
AcDbEntity
  8
寸法
 62
     0
 48
50.0
370
    -2
100
AcDbLine
 10
9141.552934354519
 20
7640.767976747112
 30
0.0
 11
9141.552934354519
 21
6725.697706896332
 31
0.0
  0
LINE
  5
19C4D
330
19B0F
100
AcDbEntity
  8
寸法
 62
     0
 48
50.0
370
    -2
100
AcDbLine
 10
10875.55293435452
 20
7640.767976747111
 30
0.0
 11
10875.55293435452
 21
6725.697706896332
 31
0.0
  0
LINE
  5
19C4E
330
19B0F
100
AcDbEntity
  8
寸法
 62
     0
 48
50.0
370
    -2
100
AcDbLine
 10
9141.552934354519
 20
6785.697706896332
 30
0.0
 11
10875.55293435452
 21
6785.697706896332
 31
0.0
  0
INSERT
  5
19C4F
330
19B0F
100
AcDbEntity
  8
寸法
 62
     0
 48
50.0
370
    -2
100
AcDbBlockReference
  2
_DOTSMALL
 10
9141.552934354519
 20
6785.697706896332
 30
0.0
 41
100.0
 42
100.0
 43
100.0
 50
180.0
  0
INSERT
  5
19C50
330
19B0F
100
AcDbEntity
  8
寸法
 62
     0
 48
50.0
370
    -2
100
AcDbBlockReference
  2
_DOTSMALL
 10
10875.55293435452
 20
6785.697706896332
 30
0.0
 41
100.0
 42
100.0
 43
100.0
  0
MTEXT
  5
19C51
330
19B0F
100
AcDbEntity
  8
寸法
 62
     7
 48
50.0
100
AcDbMText
 10
9999.134678306342
 20
6885.697706896332
 30
0.0
 40
120.0
 41
0.0
 71
     5
 72
     1
  1
\A1;1734
  7
STYLE1
 73
     1
 44
1.0
1001
ACAD
1000
MTEXTBEGIN
1070
    73
1070
     1
1070
    44
1040
1.0
1070
    74
1070
     0
1000
MTEXTEND
  0
POINT
  5
19C52
330
19B0F
100
AcDbEntity
  8
DEFPOINTS
 62
     0
 48
50.0
100
AcDbPoint
 10
9141.552934354519
 20
7660.767976747113
 30
0.0
  0
POINT
  5
19C53
330
19B0F
100
AcDbEntity
  8
DEFPOINTS
 62
     0
 48
50.0
100
AcDbPoint
 10
10875.55293435452
 20
7660.767976747111
 30
0.0
  0
POINT
  5
19C54
330
19B0F
100
AcDbEntity
  8
DEFPOINTS
 62
     0
 48
50.0
100
AcDbPoint
 10
10875.55293435452
 20
6785.697706896332
 30
0.0
  0
ENDBLK
  5
19B1A
330
19B0F
100
AcDbEntity
  8
0
 48
50.0
100
AcDbBlockEnd
  0
ENDSEC
  0
SECTION
  2
ENTITIES
  0
LINE
  5
10B57
330
747D
100
AcDbEntity
  8
補助
  6
PHANTOM
 62
   230
 48
50.0
100
AcDbLine
 10
139.9999999999995
 20
11409.6
 30
0.0
 11
16307.2
 21
11409.6
 31
0.0
  0
LINE
  5
10B59
330
747D
100
AcDbEntity
  8
仕様書枠
  6
Continuous
 48
50.0
100
AcDbLine
 10
13107.2
 20
1200.0
 30
0.0
 11
13107.2
 21
-0.0000000000000729
 31
0.0
  0
LINE
  5
10B5C
330
747D
100
AcDbEntity
  8
仕様書枠
 48
50.0
100
AcDbLine
 10
16307.2
 20
1200.0
 30
0.0
 11
16307.2
 21
-0.0000000000000909
 31
0.0
  0
LINE
  5
10B5D
330
747D
100
AcDbEntity
  8
仕様書枠
 48
50.0
100
AcDbLine
 10
140.0
 20
0.0
 30
0.0
 11
16307.2
 21
-0.0000000000000909
 31
0.0
  0
LINE
  5
10B5E
330
747D
100
AcDbEntity
  8
補助
  6
PHANTOM
 62
   230
 48
50.0
100
AcDbLine
 10
16307.2
 20
11409.6
 30
0.0
 11
16307.2
 21
1200.0
 31
0.0
  0
LINE
  5
10B6C
330
747D
100
AcDbEntity
  8
仕様書枠
 48
50.0
100
AcDbLine
 10
13107.2
 20
1200.0
 30
0.0
 11
16307.2
 21
1200.0
 31
0.0
  0
LINE
  5
10B6D
330
747D
100
AcDbEntity
  8
補助
  6
PHANTOM
 62
   230
 48
50.0
100
AcDbLine
 10
13107.2
 20
11409.6
 30
0.0
 11
13107.2
 21
4800.0
 31
0.0
  0
LINE
  5
10B6F
330
747D
100
AcDbEntity
  8
補助
  6
PHANTOM
 62
   230
 48
50.0
100
AcDbLine
 10
13107.2
 20
4800.0
 30
0.0
 11
16307.2
 21
4800.0
 31
0.0
  0
LINE
  5
10B72
330
747D
100
AcDbEntity
  8
文字
 62
     7
 48
50.0
100
AcDbLine
 10
13187.2
 20
400.0
 30
0.0
 11
16227.2
 21
400.0
 31
0.0
  0
TEXT
  5
10B73
330
747D
100
AcDbEntity
  8
文字
 62
     7
 48
50.0
100
AcDbText
 10
13162.9790565769
 20
895.0906074299405
 30
0.0
 40
200.0
  1
外 形 図
  7
STYLE2
100
AcDbText
  0
TEXT
  5
10B74
330
747D
100
AcDbEntity
  8
文字
 62
     7
 48
50.0
100
AcDbText
 10
13201.43669998441
 20
477.2740661031255
 30
0.0
 40
160.0
  1
機種名
  7
STYLE2
100
AcDbText
  0
TEXT
  5
10B76
330
747D
100
AcDbEntity
  8
文字
 62
     7
 48
50.0
100
AcDbText
 10
13209.4053442172
 20
76.09434707649343
 30
0.0
 40
100.0
  1
○床面積 ： 4.09㎡(1.23坪) 　
  7
STYLE2
100
AcDbText
  0
TEXT
  5
10B79
330
747D
100
AcDbEntity
  8
文字
 62
     7
 48
50.0
100
AcDbText
 10
14524.131837222
 20
1031.557706291228
 30
0.0
 40
100.0
  1
NO.09      <縮尺> S=1/40
  7
STYLE2
100
AcDbText
  0
LINE
  5
10B7B
330
747D
100
AcDbEntity
  8
仕様書枠
 48
50.0
100
AcDbLine
 10
13107.2
 20
800.0
 30
0.0
 11
14251.2
 21
800.0
 31
0.0
  0
LINE
  5
10B88
330
747D
100
AcDbEntity
  8
仕様書枠
  6
Continuous
 48
50.0
100
AcDbLine
 10
14251.2
 20
1200.0
 30
0.0
 11
14251.2
 21
800.0
 31
0.0
  0
TEXT
  5
14D2F
330
747D
100
AcDbEntity
  8
文字
 62
     7
 48
50.0
100
AcDbText
 10
14644.07818602837
 20
876.4448062548634
 30
0.0
 40
100.0
  1
～一般型・多雪地型～
  7
STYLE2
100
AcDbText
  0
LINE
  5
1892E
330
747D
100
AcDbEntity
  8
部品1
100
AcDbLine
 10
7003.955905017273
 20
2466.150592134396
 30
0.0
 11
7011.455905017276
 21
2466.150592134396
 31
0.0
  0
LINE
  5
1892F
330
747D
100
AcDbEntity
  8
部品1
100
AcDbLine
 10
4848.955905017272
 20
2466.150592134396
 30
0.0
 11
6963.955905017272
 21
2466.150592134396
 31
0.0
  0
LINE
  5
18930
330
747D
100
AcDbEntity
  8
細線
 48
50.0
100
AcDbLine
 10
6193.955905017276
 20
4606.150592134395
 30
0.0
 11
6193.955905017276
 21
2516.150592134395
 31
0.0
  0
LINE
  5
18931
330
747D
100
AcDbEntity
  8
細線
 48
50.0
100
AcDbLine
 10
6178.955905017275
 20
4606.150592134395
 30
0.0
 11
6178.955905017275
 21
2516.150592134395
 31
0.0
  0
LINE
  5
18932
330
747D
100
AcDbEntity
  8
細線
 48
50.0
100
AcDbLine
 10
6318.955905017276
 20
4606.150592134395
 30
0.0
 11
6318.955905017276
 21
2516.150592134395
 31
0.0
  0
LINE
  5
18933
330
747D
100
AcDbEntity
  8
細線
 48
50.0
100
AcDbLine
 10
6333.955905017276
 20
4606.150592134395
 30
0.0
 11
6333.955905017276
 21
2516.150592134395
 31
0.0
  0
LINE
  5
18934
330
747D
100
AcDbEntity
  8
細線
 48
50.0
100
AcDbLine
 10
6473.955905017276
 20
4606.150592134395
 30
0.0
 11
6473.955905017276
 21
2516.150592134395
 31
0.0
  0
LINE
  5
18935
330
747D
100
AcDbEntity
  8
細線
 48
50.0
100
AcDbLine
 10
6458.955905017275
 20
4606.150592134395
 30
0.0
 11
6458.955905017275
 21
2516.150592134395
 31
0.0
  0
LINE
  5
18936
330
747D
100
AcDbEntity
  8
部品1
100
AcDbLine
 10
6536.455905017271
 20
4606.150592134395
 30
0.0
 11
6536.455905017271
 21
2516.150592134395
 31
0.0
  0
LINE
  5
18937
330
747D
100
AcDbEntity
  8
部品1
100
AcDbLine
 10
4801.455905017272
 20
4606.150592134395
 30
0.0
 11
7011.455905017275
 21
4606.150592134395
 31
0.0
  0
LINE
  5
18938
330
747D
100
AcDbEntity
  8
部品1
100
AcDbLine
 10
4801.455905017272
 20
2516.150592134395
 30
0.0
 11
7011.455905017276
 21
2516.150592134396
 31
0.0
  0
LINE
  5
18939
330
747D
100
AcDbEntity
  8
部品1
100
AcDbLine
 10
4856.455905017272
 20
4606.150592134395
 30
0.0
 11
4856.455905017272
 21
2516.150592134395
 31
0.0
  0
LINE
  5
1893A
330
747D
100
AcDbEntity
  8
部品1
100
AcDbLine
 10
4801.455905017274
 20
4700.150592134399
 30
0.0
 11
4801.455905017272
 21
2366.150592134395
 31
0.0
  0
LINE
  5
1893B
330
747D
100
AcDbEntity
  8
部品1
100
AcDbLine
 10
5276.455905017272
 20
4606.150592134395
 30
0.0
 11
5276.455905017272
 21
2516.150592134395
 31
0.0
  0
LINE
  5
1893C
330
747D
100
AcDbEntity
  8
部品1
100
AcDbLine
 10
7011.455905017271
 20
4700.150592134401
 30
0.0
 11
7011.455905017276
 21
2366.150592134395
 31
0.0
  0
LINE
  5
1893D
330
747D
100
AcDbEntity
  8
部品1
100
AcDbLine
 10
6956.455905017276
 20
4606.150592134395
 30
0.0
 11
6956.455905017276
 21
2516.150592134395
 31
0.0
  0
LINE
  5
1893E
330
747D
100
AcDbEntity
  8
部品1
100
AcDbLine
 10
4801.455905017272
 20
2466.150592134396
 30
0.0
 11
4808.955905017272
 21
2466.150592134396
 31
0.0
  0
LINE
  5
1893F
330
747D
100
AcDbEntity
  8
細線
 48
50.0
100
AcDbLine
 10
5353.955905017272
 20
4606.150592134395
 30
0.0
 11
5353.955905017272
 21
2516.150592134395
 31
0.0
  0
LINE
  5
18940
330
747D
100
AcDbEntity
  8
細線
 48
50.0
100
AcDbLine
 10
5338.955905017272
 20
4606.150592134395
 30
0.0
 11
5338.955905017272
 21
2516.150592134395
 31
0.0
  0
LINE
  5
18941
330
747D
100
AcDbEntity
  8
細線
 48
50.0
100
AcDbLine
 10
5478.955905017272
 20
4606.150592134395
 30
0.0
 11
5478.955905017272
 21
2516.150592134395
 31
0.0
  0
LINE
  5
18942
330
747D
100
AcDbEntity
  8
細線
 48
50.0
100
AcDbLine
 10
5493.955905017272
 20
4606.150592134395
 30
0.0
 11
5493.955905017272
 21
2516.150592134395
 31
0.0
  0
LINE
  5
18943
330
747D
100
AcDbEntity
  8
細線
 48
50.0
100
AcDbLine
 10
5633.955905017272
 20
4606.150592134395
 30
0.0
 11
5633.955905017272
 21
2516.150592134395
 31
0.0
  0
LINE
  5
18944
330
747D
100
AcDbEntity
  8
細線
 48
50.0
100
AcDbLine
 10
5618.955905017272
 20
4606.150592134395
 30
0.0
 11
5618.955905017272
 21
2516.150592134395
 31
0.0
  0
LINE
  5
18945
330
747D
100
AcDbEntity
  8
細線
 48
50.0
100
AcDbLine
 10
5198.955905017272
 20
4606.150592134395
 30
0.0
 11
5198.955905017272
 21
2516.150592134395
 31
0.0
  0
LINE
  5
18946
330
747D
100
AcDbEntity
  8
細線
 48
50.0
100
AcDbLine
 10
5213.955905017272
 20
4606.150592134395
 30
0.0
 11
5213.955905017272
 21
2516.150592134395
 31
0.0
  0
LINE
  5
18947
330
747D
100
AcDbEntity
  8
細線
 48
50.0
100
AcDbLine
 10
5073.955905017272
 20
4606.150592134395
 30
0.0
 11
5073.955905017272
 21
2516.150592134395
 31
0.0
  0
LINE
  5
18948
330
747D
100
AcDbEntity
  8
細線
 48
50.0
100
AcDbLine
 10
5058.955905017272
 20
4606.150592134395
 30
0.0
 11
5058.955905017272
 21
2516.150592134395
 31
0.0
  0
LINE
  5
18949
330
747D
100
AcDbEntity
  8
細線
 48
50.0
100
AcDbLine
 10
4918.955905017272
 20
4606.150592134395
 30
0.0
 11
4918.955905017272
 21
2516.150592134395
 31
0.0
  0
LINE
  5
1894A
330
747D
100
AcDbEntity
  8
細線
 48
50.0
100
AcDbLine
 10
4933.955905017272
 20
4606.150592134395
 30
0.0
 11
4933.955905017272
 21
2516.150592134395
 31
0.0
  0
LINE
  5
1894B
330
747D
100
AcDbEntity
  8
部品1
100
AcDbLine
 10
5696.455905017272
 20
4606.150592134395
 30
0.0
 11
5696.455905017272
 21
2516.150592134395
 31
0.0
  0
LINE
  5
1894C
330
747D
100
AcDbEntity
  8
細線
 48
50.0
100
AcDbLine
 10
6038.955905017275
 20
4606.150592134395
 30
0.0
 11
6038.955905017275
 21
2516.150592134395
 31
0.0
  0
LINE
  5
1894D
330
747D
100
AcDbEntity
  8
細線
 48
50.0
100
AcDbLine
 10
6053.955905017275
 20
4606.150592134395
 30
0.0
 11
6053.955905017275
 21
2516.150592134395
 31
0.0
  0
LINE
  5
1894E
330
747D
100
AcDbEntity
  8
細線
 48
50.0
100
AcDbLine
 10
5913.955905017275
 20
4606.150592134395
 30
0.0
 11
5913.955905017275
 21
2516.150592134395
 31
0.0
  0
LINE
  5
1894F
330
747D
100
AcDbEntity
  8
細線
 48
50.0
100
AcDbLine
 10
5898.955905017276
 20
4606.150592134395
 30
0.0
 11
5898.955905017276
 21
2516.150592134395
 31
0.0
  0
LINE
  5
18950
330
747D
100
AcDbEntity
  8
細線
 48
50.0
100
AcDbLine
 10
5758.955905017276
 20
4606.150592134395
 30
0.0
 11
5758.955905017276
 21
2516.150592134395
 31
0.0
  0
LINE
  5
18951
330
747D
100
AcDbEntity
  8
細線
 48
50.0
100
AcDbLine
 10
5773.955905017276
 20
4606.150592134395
 30
0.0
 11
5773.955905017276
 21
2516.150592134395
 31
0.0
  0
LINE
  5
18952
330
747D
100
AcDbEntity
  8
部品1
100
AcDbLine
 10
6116.455905017271
 20
4606.150592134395
 30
0.0
 11
6116.455905017271
 21
2516.150592134395
 31
0.0
  0
LINE
  5
18953
330
747D
100
AcDbEntity
  8
細線
 48
50.0
100
AcDbLine
 10
6613.955905017279
 20
4606.150592134395
 30
0.0
 11
6613.955905017279
 21
2516.150592134395
 31
0.0
  0
LINE
  5
18954
330
747D
100
AcDbEntity
  8
細線
 48
50.0
100
AcDbLine
 10
6598.95590501728
 20
4606.150592134395
 30
0.0
 11
6598.95590501728
 21
2516.150592134395
 31
0.0
  0
LINE
  5
18955
330
747D
100
AcDbEntity
  8
細線
 48
50.0
100
AcDbLine
 10
6738.955905017279
 20
4606.150592134395
 30
0.0
 11
6738.955905017279
 21
2516.150592134395
 31
0.0
  0
LINE
  5
18956
330
747D
100
AcDbEntity
  8
細線
 48
50.0
100
AcDbLine
 10
6753.95590501728
 20
4606.150592134395
 30
0.0
 11
6753.95590501728
 21
2516.150592134395
 31
0.0
  0
LINE
  5
18957
330
747D
100
AcDbEntity
  8
細線
 48
50.0
100
AcDbLine
 10
6893.955905017278
 20
4606.150592134395
 30
0.0
 11
6893.955905017278
 21
2516.150592134395
 31
0.0
  0
LINE
  5
18958
330
747D
100
AcDbEntity
  8
細線
 48
50.0
100
AcDbLine
 10
6878.95590501728
 20
4606.150592134395
 30
0.0
 11
6878.95590501728
 21
2516.150592134395
 31
0.0
  0
TEXT
  5
18959
330
747D
100
AcDbEntity
  8
部品1
100
AcDbText
 10
5614.16667332666
 20
1484.21879993846
 30
0.0
 40
135.0
  1
側面図
  7
STYLE2
100
AcDbText
  0
LINE
  5
1895A
330
747D
100
AcDbEntity
  8
部品1
100
AcDbLine
 10
5524.720571903052
 20
1677.112329156984
 30
0.0
 11
5524.720571903052
 21
1437.220007611452
 31
0.0
  0
LINE
  5
1895B
330
747D
100
AcDbEntity
  8
部品1
100
AcDbLine
 10
5524.720571903052
 20
1437.220007611452
 30
0.0
 11
6288.191238131492
 21
1437.220007611452
 31
0.0
  0
LINE
  5
1895C
330
747D
100
AcDbEntity
  8
部品1
100
AcDbLine
 10
6288.191238131492
 20
1437.220007611452
 30
0.0
 11
6288.191238131492
 21
1677.112329156984
 31
0.0
  0
LINE
  5
1895D
330
747D
100
AcDbEntity
  8
部品1
100
AcDbLine
 10
6288.191238131492
 20
1677.112329156984
 30
0.0
 11
5524.720571903052
 21
1677.112329156984
 31
0.0
  0
LINE
  5
1895E
330
747D
100
AcDbEntity
  8
部品1
100
AcDbLine
 10
4801.455905017272
 20
2466.150592134396
 30
0.0
 11
4808.955905017272
 21
2466.150592134396
 31
0.0
  0
LINE
  5
1895F
330
747D
100
AcDbEntity
  8
破線
  6
HIDDEN
 48
5.0
100
AcDbLine
 10
7018.955905017271
 20
2211.150592134395
 30
0.0
 11
6948.955905017271
 21
2211.150592134395
 31
0.0
  0
LINE
  5
18960
330
747D
100
AcDbEntity
  8
破線
  6
HIDDEN
 48
5.0
100
AcDbLine
 10
6963.955905017272
 20
2361.150592134395
 30
0.0
 11
6948.955905017271
 21
2213.450592134394
 31
0.0
  0
LINE
  5
18961
330
747D
100
AcDbEntity
  8
破線
  6
HIDDEN
 48
5.0
100
AcDbLine
 10
6948.955905017271
 20
2213.450592134394
 30
0.0
 11
6948.955905017271
 21
2211.150592134395
 31
0.0
  0
LINE
  5
18962
330
747D
100
AcDbEntity
  8
破線
  6
HIDDEN
 48
5.0
100
AcDbLine
 10
7003.955905017273
 20
2361.150592134395
 30
0.0
 11
7018.955905017271
 21
2213.450592134394
 31
0.0
  0
LINE
  5
18963
330
747D
100
AcDbEntity
  8
破線
  6
HIDDEN
 48
5.0
100
AcDbLine
 10
7018.955905017271
 20
2213.450592134394
 30
0.0
 11
7018.955905017271
 21
2211.150592134395
 31
0.0
  0
LINE
  5
18964
330
747D
100
AcDbEntity
  8
破線
  6
HIDDEN
 48
5.0
100
AcDbLine
 10
4793.955905017272
 20
2211.150592134395
 30
0.0
 11
4863.955905017272
 21
2211.150592134395
 31
0.0
  0
LINE
  5
18965
330
747D
100
AcDbEntity
  8
破線
  6
HIDDEN
 48
5.0
100
AcDbLine
 10
4793.955905017272
 20
2213.450592134394
 30
0.0
 11
4793.955905017272
 21
2211.150592134395
 31
0.0
  0
LINE
  5
18966
330
747D
100
AcDbEntity
  8
破線
  6
HIDDEN
 48
5.0
100
AcDbLine
 10
4863.955905017272
 20
2213.450592134394
 30
0.0
 11
4863.955905017272
 21
2211.150592134395
 31
0.0
  0
LINE
  5
18967
330
747D
100
AcDbEntity
  8
破線
  6
HIDDEN
 48
5.0
100
AcDbLine
 10
4808.955905017272
 20
2361.150592134395
 30
0.0
 11
4793.955905017272
 21
2213.450592134394
 31
0.0
  0
LINE
  5
18968
330
747D
100
AcDbEntity
  8
破線
  6
HIDDEN
 48
5.0
100
AcDbLine
 10
4848.955905017272
 20
2361.150592134395
 30
0.0
 11
4863.955905017272
 21
2213.450592134394
 31
0.0
  0
LINE
  5
18969
330
747D
100
AcDbEntity
  8
部品1
 48
50.0
100
AcDbLine
 10
4808.955905017272
 20
2506.150592134395
 30
0.0
 11
4808.955905017272
 21
2366.150592134395
 31
0.0
  0
LINE
  5
1896A
330
747D
100
AcDbEntity
  8
部品1
 48
50.0
100
AcDbLine
 10
4848.955905017272
 20
2506.150592134395
 30
0.0
 11
4848.955905017272
 21
2366.150592134395
 31
0.0
  0
LINE
  5
1896B
330
747D
100
AcDbEntity
  8
部品1
100
AcDbLine
 10
4813.955905017272
 20
2511.150592134395
 30
0.0
 11
4843.955905017272
 21
2511.150592134395
 31
0.0
  0
ARC
  5
1896C
330
747D
100
AcDbEntity
  8
部品1
 48
50.0
100
AcDbCircle
 10
4813.955905017272
 20
2506.150592134395
 30
0.0
 40
5.0
100
AcDbArc
 50
90.0
 51
180.0
  0
ARC
  5
1896D
330
747D
100
AcDbEntity
  8
部品1
 48
50.0
100
AcDbCircle
 10
4843.955905017272
 20
2506.150592134395
 30
0.0
 40
5.0
100
AcDbArc
 50
0.0
 51
90.0
  0
LINE
  5
1896E
330
747D
100
AcDbEntity
  8
部品1
 48
50.0
100
AcDbLine
 10
6963.955905017272
 20
2506.150592134395
 30
0.0
 11
6963.955905017272
 21
2366.150592134395
 31
0.0
  0
LINE
  5
1896F
330
747D
100
AcDbEntity
  8
部品1
 48
50.0
100
AcDbLine
 10
7003.955905017273
 20
2506.150592134395
 30
0.0
 11
7003.955905017273
 21
2366.150592134395
 31
0.0
  0
LINE
  5
18970
330
747D
100
AcDbEntity
  8
部品1
100
AcDbLine
 10
6998.955905017272
 20
2511.150592134395
 30
0.0
 11
6968.955905017272
 21
2511.150592134395
 31
0.0
  0
ARC
  5
18971
330
747D
100
AcDbEntity
  8
部品1
 48
50.0
100
AcDbCircle
 10
6968.955905017272
 20
2506.150592134395
 30
0.0
 40
5.0
100
AcDbArc
 50
90.0
 51
180.0
  0
ARC
  5
18972
330
747D
100
AcDbEntity
  8
部品1
 48
50.0
100
AcDbCircle
 10
6998.955905017272
 20
2506.150592134395
 30
0.0
 40
5.0
100
AcDbArc
 50
0.0
 51
90.0
  0
LINE
  5
18973
330
747D
100
AcDbEntity
  8
破線
  6
HIDDEN
 48
5.0
100
AcDbLine
 10
6963.955905017272
 20
2366.150592134395
 30
0.0
 11
6963.955905017272
 21
2361.150592134395
 31
0.0
  0
LINE
  5
18974
330
747D
100
AcDbEntity
  8
破線
  6
HIDDEN
 48
5.0
100
AcDbLine
 10
7003.955905017273
 20
2366.150592134395
 30
0.0
 11
7003.955905017273
 21
2361.150592134395
 31
0.0
  0
LINE
  5
18975
330
747D
100
AcDbEntity
  8
破線
  6
HIDDEN
 48
5.0
100
AcDbLine
 10
4808.955905017279
 20
2366.150592134395
 30
0.0
 11
4808.955905017279
 21
2361.150592134395
 31
0.0
  0
LINE
  5
18976
330
747D
100
AcDbEntity
  8
破線
  6
HIDDEN
 48
5.0
100
AcDbLine
 10
4848.955905017272
 20
2366.150592134395
 30
0.0
 11
4848.955905017272
 21
2361.150592134395
 31
0.0
  0
LINE
  5
18977
330
747D
100
AcDbEntity
  8
部品1
100
AcDbLine
 10
7003.955905017273
 20
2466.150592134396
 30
0.0
 11
7011.455905017276
 21
2466.150592134396
 31
0.0
  0
DIMENSION
  5
18978
330
747D
100
AcDbEntity
  8
寸法
 48
50.0
100
AcDbDimension
  2
*D2
 10
4579.455901770638
 20
2366.150592134394
 30
0.0
 11
4579.455901770637
 21
2266.150592134394
 31
0.0
 70
   160
 71
     5
 42
200.0
  3
INABA_S40G
100
AcDbAlignedDimension
 13
4728.955905017275
 23
2166.150592134394
 33
0.0
 14
4703.955905017272
 24
2366.150592134394
 34
0.0
 50
90.0
100
AcDbRotatedDimension
1001
ACAD
1000
DSTYLE
1002
{
1070
   174
1070
     0
1070
   272
1070
     1
1070
   288
1070
     0
1070
   341
1005
0
1002
}
  0
LINE
  5
18979
330
747D
100
AcDbEntity
  8
破線
 48
5.0
100
AcDbLine
 10
4928.955905017271
 20
2166.150592134393
 30
0.0
 11
4728.955905017275
 21
2166.150592134393
 31
0.0
  0
LINE
  5
1897A
330
747D
100
AcDbEntity
  8
破線
 48
5.0
100
AcDbLine
 10
4928.955905017271
 20
2366.150592134395
 30
0.0
 11
4928.955905017271
 21
2166.150592134393
 31
0.0
  0
LINE
  5
1897B
330
747D
100
AcDbEntity
  8
破線
 48
5.0
100
AcDbLine
 10
4728.955905017271
 20
2366.150592134395
 30
0.0
 11
4728.955905017275
 21
2166.150592134393
 31
0.0
  0
DIMENSION
  5
1897C
330
747D
100
AcDbEntity
  8
寸法
 48
50.0
100
AcDbDimension
  2
*D3
 10
4728.955905017275
 20
1880.103262834016
 30
0.0
 11
4828.955905017274
 21
1880.103262834016
 31
0.0
 70
   160
 71
     5
 42
199.9999999999963
  3
INABA_S40G
100
AcDbAlignedDimension
 13
4928.955905017271
 23
2166.150592134393
 33
0.0
 14
4728.955905017275
 24
2166.150592134394
 34
0.0
100
AcDbRotatedDimension
  0
LINE
  5
1897D
330
747D
100
AcDbEntity
  8
破線
 48
5.0
100
AcDbLine
 10
7083.95590501728
 20
2366.150592134395
 30
0.0
 11
7083.955905017275
 21
2166.150592134393
 31
0.0
  0
LINE
  5
1897E
330
747D
100
AcDbEntity
  8
破線
 48
5.0
100
AcDbLine
 10
7083.955905017275
 20
2166.150592134393
 30
0.0
 11
6883.95590501728
 21
2166.150592134395
 31
0.0
  0
LINE
  5
1897F
330
747D
100
AcDbEntity
  8
破線
 48
5.0
100
AcDbLine
 10
6883.95590501728
 20
2366.150592134395
 30
0.0
 11
6883.95590501728
 21
2166.150592134395
 31
0.0
  0
LINE
  5
18980
330
747D
100
AcDbEntity
  8
部品1
 48
50.0
100
AcDbLine
 10
7011.455905017276
 20
4601.150592134396
 30
0.0
 11
7088.455905017275
 21
4591.150592134396
 31
0.0
  0
LINE
  5
18981
330
747D
100
AcDbEntity
  8
部品1
 48
50.0
100
AcDbLine
 10
7088.455905017275
 20
4591.150592134396
 30
0.0
 11
7088.455905017275
 21
2366.150592134395
 31
0.0
  0
LINE
  5
18982
330
747D
100
AcDbEntity
  8
部品1
 48
50.0
100
AcDbLine
 10
7088.455905017275
 20
2466.150592134396
 30
0.0
 11
7003.955905017275
 21
2466.150592134396
 31
0.0
  0
LINE
  5
18983
330
747D
100
AcDbEntity
  8
部品1
100
AcDbLine
 10
6611.455905017272
 20
2466.150592134396
 30
0.0
 11
6611.455905017272
 21
2366.150592134395
 31
0.0
  0
LINE
  5
18984
330
747D
100
AcDbEntity
  8
部品1
 48
50.0
100
AcDbLine
 10
6006.455905017272
 20
2466.150592134396
 30
0.0
 11
6006.455905017272
 21
2366.150592134395
 31
0.0
  0
LINE
  5
18985
330
747D
100
AcDbEntity
  8
部品1
 48
50.0
100
AcDbLine
 10
5806.455905017272
 20
2466.150592134396
 30
0.0
 11
5806.455905017272
 21
2366.150592134395
 31
0.0
  0
LINE
  5
18986
330
747D
100
AcDbEntity
  8
部品1
100
AcDbLine
 10
5201.455905017272
 20
2466.150592134396
 30
0.0
 11
5201.455905017272
 21
2366.150592134395
 31
0.0
  0
TEXT
  5
18987
330
747D
100
AcDbEntity
  8
部品1
100
AcDbText
 10
3681.616600821791
 20
2402.257495740297
 30
0.0
 40
125.0
  1
▽G.L
  7
STYLE2
100
AcDbText
  0
DIMENSION
  5
18988
330
747D
100
AcDbEntity
  8
寸法
 48
50.0
100
AcDbDimension
  2
*D4
 10
7061.455905017274
 20
5455.364725983118
 30
0.0
 11
5906.455905017272
 21
5455.364725983118
 31
0.0
 70
   160
 71
     5
 42
2310.000000000002
  3
INABA_S40G
100
AcDbAlignedDimension
 13
4751.455905017272
 23
4841.1505921344
 33
0.0
 14
7061.455905017274
 24
4841.150592134397
 34
0.0
100
AcDbRotatedDimension
  0
DIMENSION
  5
18989
330
747D
100
AcDbEntity
  8
寸法
 48
50.0
100
AcDbDimension
  2
*D5
 10
4751.455905017272
 20
5245.770851561667
 30
0.0
 11
4437.970623643024
 21
5245.770851561667
 31
0.0
 70
   160
 71
     5
 42
50.0
  3
INABA_S40G
100
AcDbAlignedDimension
 13
4801.455905017272
 23
4841.1505921344
 33
0.0
 14
4751.455905017272
 24
4841.1505921344
 34
0.0
100
AcDbRotatedDimension
1001
ACAD
1000
DSTYLE
1002
{
1002
}
  0
DIMENSION
  5
1898A
330
747D
100
AcDbEntity
  8
寸法
 48
50.0
100
AcDbDimension
  2
*D6
 10
4801.455905017272
 20
5245.770851561667
 30
0.0
 11
5906.455905017272
 21
5245.770851561667
 31
0.0
 70
   160
  1
柱外寸法<>
 71
     5
 42
2210.000000000002
  3
INABA_S40G
100
AcDbAlignedDimension
 13
7011.455905017275
 23
4841.1505921344
 33
0.0
 14
4801.455905017272
 24
4841.1505921344
 34
0.0
100
AcDbRotatedDimension
  0
LINE
  5
1898B
330
747D
100
AcDbEntity
  8
部品1
 48
50.0
100
AcDbLine
 10
7054.047483910841
 20
4841.150592134398
 30
0.0
 11
4758.864326123703
 21
4841.1505921344
 31
0.0
  0
LINE
  5
1898C
330
747D
100
AcDbEntity
  8
部品1
 48
50.0
100
AcDbLine
 10
7040.832160449807
 20
4700.150592134401
 30
0.0
 11
4772.079649584735
 21
4700.150592134399
 31
0.0
  0
LINE
  5
1898D
330
747D
100
AcDbEntity
  8
細線
 48
50.0
100
AcDbLine
 10
7059.416366795834
 20
4813.150592134398
 30
0.0
 11
4753.495443238711
 21
4813.150592134397
 31
0.0
  0
LINE
  5
1898E
330
747D
100
AcDbEntity
  8
細線
 48
50.0
100
AcDbLine
 10
7051.180336270987
 20
4720.950592134395
 30
0.0
 11
4761.731473763538
 21
4720.950592134399
 31
0.0
  0
LINE
  5
1898F
330
747D
100
AcDbEntity
  8
細線
 48
50.0
100
AcDbLine
 10
4784.455905017272
 20
4841.150592134399
 30
0.0
 11
4784.455905017272
 21
4700.150592134399
 31
0.0
  0
ARC
  5
18990
330
747D
100
AcDbEntity
  8
部品1
100
AcDbCircle
 10
4758.864326123703
 20
4834.150592134399
 30
0.0
 40
7.0
100
AcDbArc
 50
90.0
 51
183.2473427903377
  0
ARC
  5
18991
330
747D
100
AcDbEntity
  8
部品1
100
AcDbCircle
 10
4772.079649584735
 20
4707.1505921344
 30
0.0
 40
7.0
100
AcDbArc
 50
183.2473427903377
 51
270.0
  0
ARC
  5
18992
330
747D
100
AcDbEntity
  8
部品1
 48
50.0
100
AcDbCircle
 10
4753.707839374059
 20
4813.817591296084
 30
0.0
 40
0.7
100
AcDbArc
 50
183.2473427903897
 51
262.3418727926349
  0
ARC
  5
18993
330
747D
100
AcDbEntity
  8
部品1
 48
50.0
100
AcDbCircle
 10
4761.9438698989
 20
4721.617591296081
 30
0.0
 40
0.7
100
AcDbArc
 50
183.2473427903377
 51
262.3418727926349
  0
ARC
  5
18994
330
747D
100
AcDbEntity
  8
部品1
 48
50.0
100
AcDbCircle
 10
4761.450800790338
 20
4717.950592134395
 30
0.0
 40
3.0
100
AcDbArc
 50
3.247342790337682
 51
82.3418727926348
  0
ARC
  5
18995
330
747D
100
AcDbEntity
  8
部品1
 48
50.0
100
AcDbCircle
 10
4753.214770265496
 20
4810.150592134401
 30
0.0
 40
3.0
100
AcDbArc
 50
3.247342790337682
 51
82.3418727926348
  0
LINE
  5
18996
330
747D
100
AcDbEntity
  8
部品1
100
AcDbLine
 10
4756.20995316168
 20
4810.320531589503
 30
0.0
 11
4761.244993889792
 21
4721.577938756557
 31
0.0
  0
LINE
  5
18997
330
747D
100
AcDbEntity
  8
部品1
100
AcDbLine
 10
4764.445983686528
 20
4718.120531589499
 30
0.0
 11
4765.090889493636
 21
4706.75406673916
 31
0.0
  0
LINE
  5
18998
330
747D
100
AcDbEntity
  8
部品1
100
AcDbLine
 10
4751.875566032604
 20
4833.754066739159
 30
0.0
 11
4753.008963364951
 21
4813.77793875656
 31
0.0
  0
ARC
  5
18999
330
747D
100
AcDbEntity
  8
部品1
 48
0.01
100
AcDbCircle
 10
6433.455905017272
 20
4670.150592134394
 30
0.0
 40
2.0
100
AcDbArc
 50
90.0
 51
180.0
  0
ARC
  5
1899A
330
747D
100
AcDbEntity
  8
部品1
 48
0.01
100
AcDbCircle
 10
6609.455905017272
 20
4670.150592134394
 30
0.0
 40
2.0
100
AcDbArc
 50
0.0
 51
90.0
  0
LINE
  5
1899B
330
747D
100
AcDbEntity
  8
細線
100
AcDbLine
 10
6521.455905017273
 20
4642.650592134394
 30
0.0
 11
6447.455905017271
 21
4642.650592134394
 31
0.0
  0
LINE
  5
1899C
330
747D
100
AcDbEntity
  8
細線
100
AcDbLine
 10
6521.455905017273
 20
4665.650592134394
 30
0.0
 11
6595.455905017272
 21
4665.650592134394
 31
0.0
  0
LINE
  5
1899D
330
747D
100
AcDbEntity
  8
細線
100
AcDbLine
 10
6595.455905017272
 20
4642.650592134394
 30
0.0
 11
6521.455905017273
 21
4642.650592134394
 31
0.0
  0
LINE
  5
1899E
330
747D
100
AcDbEntity
  8
細線
100
AcDbLine
 10
6447.455905017271
 20
4665.650592134394
 30
0.0
 11
6521.455905017273
 21
4665.650592134394
 31
0.0
  0
LINE
  5
1899F
330
747D
100
AcDbEntity
  8
細線
100
AcDbLine
 10
6447.455905017271
 20
4642.650592134394
 30
0.0
 11
6447.455905017271
 21
4665.650592134394
 31
0.0
  0
LINE
  5
189A0
330
747D
100
AcDbEntity
  8
細線
100
AcDbLine
 10
6595.455905017272
 20
4665.650592134394
 30
0.0
 11
6595.455905017272
 21
4642.650592134394
 31
0.0
  0
LINE
  5
189A1
330
747D
100
AcDbEntity
  8
部品1
 48
0.01
100
AcDbLine
 10
6433.455905017272
 20
4672.150592134394
 30
0.0
 11
6609.455905017272
 21
4672.150592134394
 31
0.0
  0
LINE
  5
189A2
330
747D
100
AcDbEntity
  8
細線
100
AcDbLine
 10
6595.455905017272
 20
4659.650592134394
 30
0.0
 11
6521.455905017273
 21
4659.650592134394
 31
0.0
  0
LINE
  5
189A3
330
747D
100
AcDbEntity
  8
細線
100
AcDbLine
 10
6595.455905017272
 20
4653.650592134394
 30
0.0
 11
6521.455905017273
 21
4653.650592134394
 31
0.0
  0
LINE
  5
189A4
330
747D
100
AcDbEntity
  8
細線
100
AcDbLine
 10
6595.455905017272
 20
4647.650592134394
 30
0.0
 11
6521.455905017273
 21
4647.650592134394
 31
0.0
  0
LINE
  5
189A5
330
747D
100
AcDbEntity
  8
細線
100
AcDbLine
 10
6595.455905017272
 20
4659.650592134394
 30
0.0
 11
6526.455905017272
 21
4659.650592134394
 31
0.0
  0
LINE
  5
189A6
330
747D
100
AcDbEntity
  8
細線
100
AcDbLine
 10
6447.455905017271
 20
4659.650592134393
 30
0.0
 11
6521.455905017273
 21
4659.650592134394
 31
0.0
  0
LINE
  5
189A7
330
747D
100
AcDbEntity
  8
細線
100
AcDbLine
 10
6447.455905017271
 20
4647.650592134393
 30
0.0
 11
6521.455905017273
 21
4647.650592134394
 31
0.0
  0
LINE
  5
189A8
330
747D
100
AcDbEntity
  8
細線
100
AcDbLine
 10
6447.455905017271
 20
4653.650592134394
 30
0.0
 11
6521.455905017273
 21
4653.650592134394
 31
0.0
  0
LINE
  5
189A9
330
747D
100
AcDbEntity
  8
細線
100
AcDbLine
 10
6521.455905017273
 20
4665.650592134394
 30
0.0
 11
6521.455905017273
 21
4642.650592134394
 31
0.0
  0
ARC
  5
189AA
330
747D
100
AcDbEntity
  8
部品1
 48
0.01
100
AcDbCircle
 10
6433.455905017272
 20
4638.650592134394
 30
0.0
 40
2.0
100
AcDbArc
 50
180.0
 51
270.0
  0
ARC
  5
189AB
330
747D
100
AcDbEntity
  8
部品1
 48
0.01
100
AcDbCircle
 10
6609.455905017272
 20
4638.650592134394
 30
0.0
 40
2.0
100
AcDbArc
 50
270.0
 51
0.0
  0
LINE
  5
189AC
330
747D
100
AcDbEntity
  8
部品1
 48
0.01
100
AcDbLine
 10
6431.455905017272
 20
4638.650592134394
 30
0.0
 11
6431.455905017272
 21
4670.150592134394
 31
0.0
  0
LINE
  5
189AD
330
747D
100
AcDbEntity
  8
部品1
 48
0.01
100
AcDbLine
 10
6609.455905017272
 20
4636.650592134394
 30
0.0
 11
6433.455905017272
 21
4636.650592134394
 31
0.0
  0
LINE
  5
189AE
330
747D
100
AcDbEntity
  8
部品1
 48
0.01
100
AcDbLine
 10
6611.455905017272
 20
4670.150592134394
 30
0.0
 11
6611.455905017272
 21
4638.650592134394
 31
0.0
  0
LINE
  5
189AF
330
747D
100
AcDbEntity
  8
細線
100
AcDbLine
 10
5291.455905017272
 20
4665.650592134394
 30
0.0
 11
5291.45590501727
 21
4642.650592134394
 31
0.0
  0
LINE
  5
189B0
330
747D
100
AcDbEntity
  8
細線
100
AcDbLine
 10
5365.45590501727
 20
4653.650592134394
 30
0.0
 11
5291.455905017272
 21
4653.650592134394
 31
0.0
  0
LINE
  5
189B1
330
747D
100
AcDbEntity
  8
細線
100
AcDbLine
 10
5365.45590501727
 20
4647.650592134393
 30
0.0
 11
5291.455905017272
 21
4647.650592134394
 31
0.0
  0
LINE
  5
189B2
330
747D
100
AcDbEntity
  8
細線
100
AcDbLine
 10
5365.45590501727
 20
4659.650592134393
 30
0.0
 11
5291.455905017272
 21
4659.650592134394
 31
0.0
  0
LINE
  5
189B3
330
747D
100
AcDbEntity
  8
細線
100
AcDbLine
 10
5217.455905017271
 20
4659.650592134394
 30
0.0
 11
5286.455905017272
 21
4659.650592134394
 31
0.0
  0
LINE
  5
189B4
330
747D
100
AcDbEntity
  8
細線
100
AcDbLine
 10
5217.455905017271
 20
4647.650592134394
 30
0.0
 11
5291.455905017272
 21
4647.650592134394
 31
0.0
  0
LINE
  5
189B5
330
747D
100
AcDbEntity
  8
細線
100
AcDbLine
 10
5217.455905017271
 20
4653.650592134394
 30
0.0
 11
5291.455905017272
 21
4653.650592134394
 31
0.0
  0
LINE
  5
189B6
330
747D
100
AcDbEntity
  8
細線
100
AcDbLine
 10
5217.455905017271
 20
4659.650592134394
 30
0.0
 11
5291.455905017272
 21
4659.650592134394
 31
0.0
  0
LINE
  5
189B7
330
747D
100
AcDbEntity
  8
部品1
 48
0.01
100
AcDbLine
 10
5379.455905017272
 20
4672.150592134394
 30
0.0
 11
5203.455905017272
 21
4672.150592134394
 31
0.0
  0
LINE
  5
189B8
330
747D
100
AcDbEntity
  8
部品1
 48
0.01
100
AcDbLine
 10
5201.455905017272
 20
4670.150592134394
 30
0.0
 11
5201.455905017272
 21
4638.650592134394
 31
0.0
  0
LINE
  5
189B9
330
747D
100
AcDbEntity
  8
部品1
 48
0.01
100
AcDbLine
 10
5203.455905017272
 20
4636.650592134394
 30
0.0
 11
5379.45590501727
 21
4636.650592134394
 31
0.0
  0
LINE
  5
189BA
330
747D
100
AcDbEntity
  8
部品1
 48
0.01
100
AcDbLine
 10
5381.45590501727
 20
4638.650592134394
 30
0.0
 11
5381.455905017272
 21
4670.150592134394
 31
0.0
  0
LINE
  5
189BB
330
747D
100
AcDbEntity
  8
細線
100
AcDbLine
 10
5217.455905017271
 20
4665.650592134394
 30
0.0
 11
5217.455905017271
 21
4642.650592134394
 31
0.0
  0
LINE
  5
189BC
330
747D
100
AcDbEntity
  8
細線
100
AcDbLine
 10
5365.455905017272
 20
4642.650592134394
 30
0.0
 11
5365.455905017272
 21
4665.650592134394
 31
0.0
  0
LINE
  5
189BD
330
747D
100
AcDbEntity
  8
細線
100
AcDbLine
 10
5365.455905017272
 20
4665.650592134394
 30
0.0
 11
5291.455905017272
 21
4665.650592134394
 31
0.0
  0
LINE
  5
189BE
330
747D
100
AcDbEntity
  8
細線
100
AcDbLine
 10
5217.455905017271
 20
4642.650592134394
 30
0.0
 11
5291.455905017272
 21
4642.650592134394
 31
0.0
  0
LINE
  5
189BF
330
747D
100
AcDbEntity
  8
細線
100
AcDbLine
 10
5291.455905017272
 20
4665.650592134394
 30
0.0
 11
5217.455905017271
 21
4665.650592134394
 31
0.0
  0
LINE
  5
189C0
330
747D
100
AcDbEntity
  8
細線
100
AcDbLine
 10
5291.45590501727
 20
4642.650592134394
 30
0.0
 11
5365.455905017272
 21
4642.650592134394
 31
0.0
  0
ARC
  5
189C1
330
747D
100
AcDbEntity
  8
部品1
 48
0.01
100
AcDbCircle
 10
5203.455905017272
 20
4670.150592134394
 30
0.0
 40
2.0
100
AcDbArc
 50
90.0
 51
180.0
  0
ARC
  5
189C2
330
747D
100
AcDbEntity
  8
部品1
 48
0.01
100
AcDbCircle
 10
5203.455905017272
 20
4638.650592134394
 30
0.0
 40
2.0
100
AcDbArc
 50
180.0
 51
270.0
  0
ARC
  5
189C3
330
747D
100
AcDbEntity
  8
部品1
 48
0.01
100
AcDbCircle
 10
5379.455905017272
 20
4670.150592134394
 30
0.0
 40
2.0
100
AcDbArc
 50
0.0
 51
90.0
  0
ARC
  5
189C4
330
747D
100
AcDbEntity
  8
部品1
 48
0.01
100
AcDbCircle
 10
5379.45590501727
 20
4638.650592134394
 30
0.0
 40
2.0
100
AcDbArc
 50
270.0
 51
0.0
  0
DIMENSION
  5
189C5
330
747D
100
AcDbEntity
  8
寸法
 48
50.0
100
AcDbDimension
  2
*D7
 10
7011.455905017275
 20
5245.770851561667
 30
0.0
 11
7374.941186391509
 21
5245.770851561667
 31
0.0
 70
   160
 71
     5
 42
50.0
  3
INABA_S40G
100
AcDbAlignedDimension
 13
7061.455905017274
 23
4841.150592134397
 33
0.0
 14
7011.455905017275
 24
4841.1505921344
 34
0.0
100
AcDbRotatedDimension
  0
LINE
  5
189C6
330
747D
100
AcDbEntity
  8
部品1
100
AcDbLine
 10
7061.03624400194
 20
4833.754066739159
 30
0.0
 11
7059.902846669594
 21
4813.77793875656
 31
0.0
  0
LINE
  5
189C7
330
747D
100
AcDbEntity
  8
細線
 48
50.0
100
AcDbLine
 10
7028.455905017274
 20
4841.150592134399
 30
0.0
 11
7028.455905017274
 21
4700.150592134399
 31
0.0
  0
LINE
  5
189C8
330
747D
100
AcDbEntity
  8
部品1
100
AcDbLine
 10
7048.465826348018
 20
4718.120531589499
 30
0.0
 11
7047.820920540906
 21
4706.75406673916
 31
0.0
  0
LINE
  5
189C9
330
747D
100
AcDbEntity
  8
部品1
100
AcDbLine
 10
7056.701856872861
 20
4810.320531589503
 30
0.0
 11
7051.666816144751
 21
4721.577938756557
 31
0.0
  0
ARC
  5
189CA
330
747D
100
AcDbEntity
  8
部品1
 48
50.0
100
AcDbCircle
 10
7059.697039769047
 20
4810.150592134401
 30
0.0
 40
3.0
100
AcDbArc
 50
97.65812720736519
 51
176.7526572096623
  0
ARC
  5
189CB
330
747D
100
AcDbEntity
  8
部品1
 48
50.0
100
AcDbCircle
 10
7051.461009244204
 20
4717.950592134395
 30
0.0
 40
3.0
100
AcDbArc
 50
97.65812720736519
 51
176.7526572096623
  0
ARC
  5
189CC
330
747D
100
AcDbEntity
  8
部品1
 48
50.0
100
AcDbCircle
 10
7050.967940135642
 20
4721.617591296081
 30
0.0
 40
0.7
100
AcDbArc
 50
277.6581272073652
 51
356.7526572096623
  0
ARC
  5
189CD
330
747D
100
AcDbEntity
  8
部品1
 48
50.0
100
AcDbCircle
 10
7059.203970660487
 20
4813.817591296084
 30
0.0
 40
0.7
100
AcDbArc
 50
277.6581272073652
 51
356.7526572096103
  0
ARC
  5
189CE
330
747D
100
AcDbEntity
  8
部品1
100
AcDbCircle
 10
7040.832160449807
 20
4707.1505921344
 30
0.0
 40
7.0
100
AcDbArc
 50
270.0
 51
356.7526572096623
  0
ARC
  5
189CF
330
747D
100
AcDbEntity
  8
部品1
100
AcDbCircle
 10
7054.047483910841
 20
4834.150592134399
 30
0.0
 40
7.0
100
AcDbArc
 50
356.7526572096623
 51
90.0
  0
DIMENSION
  5
189D0
330
747D
100
AcDbEntity
  8
寸法
100
AcDbDimension
  2
*D8
 10
11430.81130740842
 20
4786.150592134396
 30
0.0
 11
11430.81130740841
 21
3635.798981809818
 31
0.0
 70
   160
 71
     5
 42
2320.000000000002
  3
INABA_S40G
100
AcDbAlignedDimension
 13
10903.55293435453
 23
2466.150592134394
 33
0.0
 14
10983.55293435451
 24
4786.150592134396
 34
0.0
 50
90.0
100
AcDbRotatedDimension
1001
ACAD
1000
DSTYLE
1002
{
1070
   174
1070
     0
1070
   272
1070
     1
1070
   288
1070
     0
1070
   341
1005
0
1002
}
  0
DIMENSION
  5
189D1
330
747D
100
AcDbEntity
  8
寸法
100
AcDbDimension
  2
*D9
 10
8204.913552425173
 20
2366.150592134394
 30
0.0
 11
8204.913552425173
 21
2130.103348039904
 31
0.0
 70
   160
 71
     5
 42
100.0
  3
INABA_S40G
100
AcDbAlignedDimension
 13
9058.552934354532
 23
2466.150592134394
 33
0.0
 14
8489.900225196235
 24
2366.150592134394
 34
0.0
 50
90.0
100
AcDbRotatedDimension
1001
ACAD
1000
DSTYLE
1002
{
1070
   174
1070
     0
1070
   272
1070
     1
1070
   288
1070
     0
1070
   341
1005
0
1002
}
  0
DIMENSION
  5
189D2
330
747D
100
AcDbEntity
  8
寸法
100
AcDbDimension
  2
*D10
 10
8489.900225196235
 20
2466.150592134394
 30
0.0
 11
8489.900225196235
 21
2160.103348039904
 31
0.0
 70
   160
 71
     5
 42
50.0
  3
INABA_S40G
100
AcDbAlignedDimension
 13
9113.552934354531
 23
2516.150592134394
 33
0.0
 14
9058.552934354532
 24
2466.150592134394
 34
0.0
 50
90.0
100
AcDbRotatedDimension
1001
ACAD
1000
DSTYLE
1002
{
1070
   174
1070
     0
1070
   272
1070
     1
1070
   288
1070
     0
1070
   341
1005
0
1002
}
  0
DIMENSION
  5
189D3
330
747D
100
AcDbEntity
  8
寸法
100
AcDbDimension
  2
*D11
 10
8489.900225196235
 20
2516.150592134394
 30
0.0
 11
8489.900225196235
 21
3536.650592134395
 31
0.0
 70
   160
 71
     5
 42
2090.0
  3
INABA_S40G
100
AcDbAlignedDimension
 13
9113.552934354531
 23
4606.150592134394
 33
0.0
 14
9113.552934354531
 24
2516.150592134394
 34
0.0
 50
90.0
100
AcDbRotatedDimension
1001
ACAD
1000
DSTYLE
1002
{
1070
   174
1070
     0
1070
   272
1070
     1
1070
   288
1070
     0
1070
   341
1005
0
1002
}
  0
DIMENSION
  5
189D4
330
747D
100
AcDbEntity
  8
寸法
100
AcDbDimension
  2
*D12
 10
8204.913552425173
 20
4841.150592134399
 30
0.0
 11
8204.913552425173
 21
3536.650592134395
 31
0.0
 70
   160
 71
     5
 42
2375.000000000005
  3
INABA_S40G
100
AcDbAlignedDimension
 13
9113.552934354531
 23
2466.150592134394
 33
0.0
 14
9053.552934354533
 24
4841.150592134399
 34
0.0
 50
90.0
100
AcDbRotatedDimension
1001
ACAD
1000
DSTYLE
1002
{
1070
   174
1070
     0
1070
   272
1070
     1
1070
   288
1070
     0
1070
   341
1005
0
1002
}
  0
ARC
  5
189D5
330
747D
100
AcDbEntity
  8
部品1
100
AcDbCircle
 10
10969.18047016847
 20
4680.174349400187
 30
0.0
 40
0.7
100
AcDbArc
 50
275.0921697642102
 51
354.1866997667087
  0
ARC
  5
189D6
330
747D
100
AcDbEntity
  8
部品1
100
AcDbCircle
 10
10980.03981591779
 20
4757.217604218109
 30
0.0
 40
0.7
100
AcDbArc
 50
275.0921697642102
 51
354.1866997665532
  0
ARC
  5
189D7
330
747D
100
AcDbEntity
  8
部品1
100
AcDbCircle
 10
10980.36822116039
 20
4753.53220736102
 30
0.0
 40
3.0
100
AcDbArc
 50
95.09216976442012
 51
174.1866997665532
  0
ARC
  5
189D8
330
747D
100
AcDbEntity
  8
部品1
100
AcDbCircle
 10
10969.50887541106
 20
4676.488952543096
 30
0.0
 40
3.0
100
AcDbArc
 50
95.0921697642102
 51
174.1866997665532
  0
ARC
  5
189D9
330
747D
100
AcDbEntity
  8
部品1
 48
50.0
100
AcDbCircle
 10
10958.48074013596
 20
4666.898207939214
 30
0.0
 40
7.0
100
AcDbArc
 50
267.8377559869492
 51
354.1866997665532
  0
ARC
  5
189DA
330
747D
100
AcDbEntity
  8
部品1
 48
50.0
100
AcDbCircle
 10
10975.80283660048
 20
4777.800755081387
 30
0.0
 40
7.0
100
AcDbArc
 50
354.1866997665013
 51
87.03587545303909
  0
LINE
  5
189DB
330
747D
100
AcDbEntity
  8
部品1
 48
50.0
100
AcDbLine
 10
10966.52430374046
 20
4676.792814259999
 30
0.0
 11
10965.44474070072
 21
4666.18919726644
 31
0.0
  0
LINE
  5
189DC
330
747D
100
AcDbEntity
  8
部品1
 48
50.0
100
AcDbLine
 10
10977.38364948978
 20
4753.836069077922
 30
0.0
 11
10969.87687022494
 21
4680.103448332911
 31
0.0
  0
LINE
  5
189DD
330
747D
100
AcDbEntity
  8
部品1
 48
50.0
100
AcDbLine
 10
10982.76683716523
 20
4777.091744408611
 30
0.0
 11
10980.73621597426
 21
4757.146703150833
 31
0.0
  0
LINE
  5
189DE
330
747D
100
AcDbEntity
  8
細線
 48
50.0
100
AcDbLine
 10
10950.55293435453
 20
4786.117571169691
 30
0.0
 11
10945.80525146653
 21
4660.371798678946
 31
0.0
  0
ARC
  5
189DF
330
747D
100
AcDbEntity
  8
部品1
100
AcDbCircle
 10
9059.590026225897
 20
4719.964751093299
 30
0.0
 40
0.7
100
AcDbArc
 50
181.0932240292114
 51
260.1877540314845
  0
ARC
  5
189E0
330
747D
100
AcDbEntity
  8
部品1
100
AcDbCircle
 10
9054.817352628289
 20
4812.830529293417
 30
0.0
 40
0.7
100
AcDbArc
 50
181.0932240292114
 51
260.1877540314845
  0
ARC
  5
189E1
330
747D
100
AcDbEntity
  8
部品1
100
AcDbCircle
 10
9054.186798225268
 20
4809.18465475602
 30
0.0
 40
3.0
100
AcDbArc
 50
1.093224029263536
 51
80.18775403148449
  0
ARC
  5
189E2
330
747D
100
AcDbEntity
  8
部品1
100
AcDbCircle
 10
9058.959471822872
 20
4716.3188765559
 30
0.0
 40
3.0
100
AcDbArc
 50
1.093224029315636
 51
80.18775403148449
  0
ARC
  5
189E3
330
747D
100
AcDbEntity
  8
部品1
 48
50.0
100
AcDbCircle
 10
9069.159604198075
 20
4705.92663317342
 30
0.0
 40
7.0
100
AcDbArc
 50
181.0932240293156
 51
267.8377559869492
  0
ARC
  5
189E4
330
747D
100
AcDbEntity
  8
部品1
 48
50.0
100
AcDbCircle
 10
9060.735946095979
 20
4832.877692706516
 30
0.0
 40
7.0
100
AcDbArc
 50
87.03587545303909
 51
181.0932240292635
  0
LINE
  5
189E5
330
747D
100
AcDbEntity
  8
部品1
 48
50.0
100
AcDbLine
 10
9061.958925749305
 20
4716.376114159084
 30
0.0
 11
9062.160878369738
 21
4705.793078765991
 31
0.0
  0
LINE
  5
189E6
330
747D
100
AcDbEntity
  8
部品1
 48
50.0
100
AcDbLine
 10
9057.186252151698
 20
4809.241892359203
 30
0.0
 11
9058.890153643064
 21
4719.951395652555
 31
0.0
  0
LINE
  5
189E7
330
747D
100
AcDbEntity
  8
部品1
 48
50.0
100
AcDbLine
 10
9053.737220267642
 20
4832.744138299087
 30
0.0
 11
9054.117480045453
 21
4812.817173852676
 31
0.0
  0
LINE
  5
189E8
330
747D
100
AcDbEntity
  8
細線
 48
50.0
100
AcDbLine
 10
9086.552934354534
 20
4838.5502685098
 30
0.0
 11
9081.263832799024
 21
4698.464635882444
 31
0.0
  0
LINE
  5
189E9
330
747D
100
AcDbEntity
  8
細線
 48
50.0
100
AcDbLine
 10
9059.352832692633
 20
4719.306162277891
 30
0.0
 11
10969.35649712327
 21
4679.496843303399
 31
0.0
  0
LINE
  5
189EA
330
747D
100
AcDbEntity
  8
細線
 48
50.0
100
AcDbLine
 10
9054.592357455346
 20
4812.167673975757
 30
0.0
 11
10980.22834220051
 21
4756.543469334927
 31
0.0
  0
LINE
  5
189EB
330
747D
100
AcDbEntity
  8
部品1
100
AcDbLine
 10
9068.895498956488
 20
4698.931617203362
 30
0.0
 11
10958.21663489437
 21
4659.903191969156
 31
0.0
  0
LINE
  5
189EC
330
747D
100
AcDbEntity
  8
部品1
100
AcDbLine
 10
9061.097920711496
 20
4839.868327468661
 30
0.0
 11
10976.16481121599
 21
4784.791389843532
 31
0.0
  0
LINE
  5
189ED
330
747D
100
AcDbEntity
  8
部品1
 48
50.0
100
AcDbLine
 10
9858.552934354534
 20
4972.018731235674
 30
0.0
 11
10158.55293435453
 21
4955.818731235675
 31
0.0
  0
TEXT
  5
189EE
330
747D
100
AcDbEntity
  8
部品1
 48
50.0
100
AcDbText
 10
10335.64578164239
 20
4870.401495169825
 30
0.0
 40
120.0
  1
54
 50
90.0
  7
STYLE1
100
AcDbText
  0
LINE
  5
189EF
330
747D
100
AcDbEntity
  8
部品1
 48
50.0
100
AcDbLine
 10
10158.55293435453
 20
4972.018731235674
 30
0.0
 11
10158.55293435453
 21
4955.818731235675
 31
0.0
  0
LINE
  5
189F0
330
747D
100
AcDbEntity
  8
部品1
 48
50.0
100
AcDbLine
 10
9858.552934354534
 20
4972.018731235674
 30
0.0
 11
10158.55293435453
 21
4972.018731235674
 31
0.0
  0
TEXT
  5
189F1
330
747D
100
AcDbEntity
  8
部品1
 48
50.0
100
AcDbText
 10
9846.820769578261
 20
5007.902753388107
 30
0.0
 40
120.0
  1
1000
  7
STYLE1
100
AcDbText
  0
DIMENSION
  5
189F2
330
747D
100
AcDbEntity
  8
寸法
 48
50.0
100
AcDbDimension
  2
*D13
 10
10983.55293435453
 20
5240.243761473867
 30
0.0
 11
11189.60017844902
 21
5240.243761473867
 31
0.0
 70
   160
 71
     5
 42
80.0
  3
INABA_S40G
100
AcDbAlignedDimension
 13
10903.55293435453
 23
4787.961271746048
 33
0.0
 14
10983.55293435453
 24
4786.150592134395
 34
0.0
100
AcDbRotatedDimension
1001
ACAD
1000
DSTYLE
1002
{
1070
   174
1070
     0
1070
   272
1070
     1
1070
   288
1070
     0
1070
   341
1005
0
1002
}
  0
DIMENSION
  5
189F3
330
747D
100
AcDbEntity
  8
寸法
 48
50.0
100
AcDbDimension
  2
*D14
 10
9053.552934354534
 20
5456.769861092312
 30
0.0
 11
9959.358685605502
 21
5456.769861092312
 31
0.0
 70
   160
 71
     5
 42
1930.0
  3
INABA_S40G
100
AcDbAlignedDimension
 13
10983.55293435453
 23
4786.150592134395
 33
0.0
 14
9053.552934354534
 24
4841.150592134399
 34
0.0
100
AcDbRotatedDimension
1001
ACAD
1000
DSTYLE
1002
{
1070
   174
1070
     0
1070
   272
1070
     1
1070
   288
1070
     0
1070
   341
1005
0
1002
}
  0
DIMENSION
  5
189F4
330
747D
100
AcDbEntity
  8
寸法
 48
50.0
100
AcDbDimension
  2
*D15
 10
9053.552934354534
 20
5240.243761473867
 30
0.0
 11
8743.915139078945
 21
5240.243761473867
 31
0.0
 70
   160
 71
     5
 42
60.0
  3
INABA_S40G
100
AcDbAlignedDimension
 13
9113.552934354535
 23
4837.152210257371
 33
0.0
 14
9053.552934354534
 24
4841.150592134399
 34
0.0
100
AcDbRotatedDimension
1001
ACAD
1000
DSTYLE
1002
{
1070
   174
1070
     0
1070
   272
1070
     1
1070
   288
1070
     0
1070
   341
1005
0
1002
}
  0
DIMENSION
  5
189F5
330
747D
100
AcDbEntity
  8
寸法
 48
50.0
100
AcDbDimension
  2
*D16
 10
9113.552934354535
 20
5240.243761473867
 30
0.0
 11
10023.14858303101
 21
5240.243761473867
 31
0.0
 70
   160
  1
柱外寸法<>
 71
     5
 42
1790.0
  3
INABA_S40G
100
AcDbAlignedDimension
 13
10903.55293435453
 23
4787.961271746048
 33
0.0
 14
9113.552934354535
 24
4837.152210257371
 34
0.0
100
AcDbRotatedDimension
1001
ACAD
1000
DSTYLE
1002
{
1070
   174
1070
     0
1070
   272
1070
     1
1070
   288
1070
     0
1070
   341
1005
0
1002
}
  0
TEXT
  5
189F6
330
747D
100
AcDbEntity
  8
文字
 62
     7
 48
50.0
100
AcDbText
 10
13209.4053442172
 20
228.5435242569015
 30
0.0
 40
100.0
  1
○有効開口寸法 ： 950×2025(mm)
  7
STYLE2
100
AcDbText
  0
LINE
  5
189F7
330
747D
100
AcDbEntity
  8
Ｇ．Ｌ
100
AcDbLine
 10
3545.793545776087
 20
2366.150592134394
 30
0.0
 11
11537.57450812328
 21
2366.150592134394
 31
0.0
  0
LINE
  5
189F8
330
747D
100
AcDbEntity
  8
部品1
100
AcDbLine
 10
9113.552934354531
 20
2466.150592134394
 30
0.0
 11
10903.55293435453
 21
2466.150592134394
 31
0.0
  0
LINE
  5
189F9
330
747D
100
AcDbEntity
  8
部品1
100
AcDbLine
 10
9113.552934354531
 20
4606.150592134394
 30
0.0
 11
10903.55293435453
 21
4606.150592134394
 31
0.0
  0
LINE
  5
189FA
330
747D
100
AcDbEntity
  8
部品1
100
AcDbLine
 10
9113.552934354531
 20
4698.009111576641
 30
0.0
 11
9113.552934354531
 21
2366.150592134394
 31
0.0
  0
LINE
  5
189FB
330
747D
100
AcDbEntity
  8
部品1
100
AcDbLine
 10
10903.55293435453
 20
4661.032400820401
 30
0.0
 11
10903.55293435453
 21
2366.150592134394
 31
0.0
  0
LINE
  5
189FC
330
747D
100
AcDbEntity
  8
部品1
100
AcDbLine
 10
10703.55293435453
 20
2466.150592134394
 30
0.0
 11
10703.55293435453
 21
2366.150592134394
 31
0.0
  0
LINE
  5
189FD
330
747D
100
AcDbEntity
  8
部品1
100
AcDbLine
 10
9313.552934354531
 20
2466.150592134394
 30
0.0
 11
9313.552934354531
 21
2366.150592134394
 31
0.0
  0
LINE
  5
189FE
330
747D
100
AcDbEntity
  8
部品1
 48
50.0
100
AcDbLine
 10
9708.552934354532
 20
2466.150592134394
 30
0.0
 11
9708.552934354532
 21
2366.150592134394
 31
0.0
  0
LINE
  5
189FF
330
747D
100
AcDbEntity
  8
部品1
 48
50.0
100
AcDbLine
 10
10108.55293435453
 20
2466.150592134394
 30
0.0
 11
10108.55293435453
 21
2366.150592134394
 31
0.0
  0
LINE
  5
18A00
330
747D
100
AcDbEntity
  8
部品1
100
AcDbLine
 10
10908.55293435453
 20
2511.150592134396
 30
0.0
 11
10908.55293435453
 21
2366.150592134394
 31
0.0
  0
LINE
  5
18A01
330
747D
100
AcDbEntity
  8
破線
 48
5.0
100
AcDbLine
 10
11003.55293435453
 20
2166.150592134393
 30
0.0
 11
10803.55293435453
 21
2166.150592134393
 31
0.0
  0
LINE
  5
18A02
330
747D
100
AcDbEntity
  8
破線
 48
5.0
100
AcDbLine
 10
10803.55293435453
 20
2366.150592134394
 30
0.0
 11
10803.55293435453
 21
2166.150592134393
 31
0.0
  0
LINE
  5
18A03
330
747D
100
AcDbEntity
  8
破線
 48
5.0
100
AcDbLine
 10
11003.55293435453
 20
2366.150592134394
 30
0.0
 11
11003.55293435453
 21
2166.150592134393
 31
0.0
  0
LINE
  5
18A04
330
747D
100
AcDbEntity
  8
破線
 48
5.0
100
AcDbLine
 10
10928.55293435453
 20
2211.150592134394
 30
0.0
 11
10908.55293435453
 21
2211.150592134394
 31
0.0
  0
LINE
  5
18A05
330
747D
100
AcDbEntity
  8
部品1
100
AcDbLine
 10
9108.552934354532
 20
2511.150592134396
 30
0.0
 11
9108.552934354532
 21
2366.150592134394
 31
0.0
  0
LINE
  5
18A06
330
747D
100
AcDbEntity
  8
破線
 48
5.0
100
AcDbLine
 10
9013.552934354532
 20
2166.150592134394
 30
0.0
 11
9213.552934354533
 21
2166.150592134394
 31
0.0
  0
LINE
  5
18A07
330
747D
100
AcDbEntity
  8
破線
 48
5.0
100
AcDbLine
 10
9013.552934354532
 20
2366.150592134395
 30
0.0
 11
9013.552934354532
 21
2166.150592134394
 31
0.0
  0
LINE
  5
18A08
330
747D
100
AcDbEntity
  8
破線
 48
5.0
100
AcDbLine
 10
9088.552934354531
 20
2211.150592134396
 30
0.0
 11
9108.552934354532
 21
2211.150592134396
 31
0.0
  0
LINE
  5
18A09
330
747D
100
AcDbEntity
  8
破線
 48
5.0
100
AcDbLine
 10
9213.552934354531
 20
2366.150592134395
 30
0.0
 11
9213.552934354531
 21
2166.150592134394
 31
0.0
  0
LINE
  5
18A0A
330
747D
100
AcDbEntity
  8
破線
 48
5.0
100
AcDbLine
 10
10908.55293435453
 20
2366.150592134394
 30
0.0
 11
10908.55293435453
 21
2211.150592134394
 31
0.0
  0
LINE
  5
18A0B
330
747D
100
AcDbEntity
  8
破線
 48
5.0
100
AcDbLine
 10
9108.552934354532
 20
2366.150592134394
 30
0.0
 11
9108.552934354532
 21
2211.150592134396
 31
0.0
  0
DIMENSION
  5
18A0C
330
747D
100
AcDbEntity
  8
寸法
 48
50.0
100
AcDbDimension
  2
*D17
 10
9013.552934354532
 20
1880.103262834016
 30
0.0
 11
9113.552934354531
 21
1880.103262834016
 31
0.0
 70
   160
 71
     5
 42
200.0000000000018
  3
INABA_S40G
100
AcDbAlignedDimension
 13
9213.552934354533
 23
2166.150592134393
 33
0.0
 14
9013.552934354532
 24
2166.150592134393
 34
0.0
100
AcDbRotatedDimension
  0
TEXT
  5
18A0D
330
747D
100
AcDbEntity
  8
部品1
100
AcDbText
 10
9717.343004978266
 20
1484.218799938461
 30
0.0
 40
135.0
  1
正面図
  7
STYLE2
100
AcDbText
  0
LINE
  5
18A0E
330
747D
100
AcDbEntity
  8
部品1
100
AcDbLine
 10
9113.552934354531
 20
2516.150592134398
 30
0.0
 11
9141.552934354532
 21
2516.150592134398
 31
0.0
  0
LINE
  5
18A0F
330
747D
100
AcDbEntity
  8
部品1
100
AcDbLine
 10
10848.55293435453
 20
4606.150592134394
 30
0.0
 11
10848.55293435453
 21
4601.150592134394
 31
0.0
  0
LINE
  5
18A10
330
747D
100
AcDbEntity
  8
部品1
100
AcDbLine
 10
9168.552934354529
 20
4606.150592134389
 30
0.0
 11
9168.552934354529
 21
4601.150592134394
 31
0.0
  0
LINE
  5
18A11
330
747D
100
AcDbEntity
  8
部品1
 48
50.0
100
AcDbLine
 10
9141.552934354532
 20
2466.150592134394
 30
0.0
 11
10875.55293435453
 21
2466.150592134394
 31
0.0
  0
LINE
  5
18A12
330
747D
100
AcDbEntity
  8
部品1
100
AcDbLine
 10
10875.55293435453
 20
2516.150592134414
 30
0.0
 11
10903.55293435453
 21
2516.150592134414
 31
0.0
  0
LINE
  5
18A13
330
747D
100
AcDbEntity
  8
部品1
100
AcDbLine
 10
9626.817601240311
 20
1677.112329156984
 30
0.0
 11
9626.817601240311
 21
1437.220007611452
 31
0.0
  0
LINE
  5
18A14
330
747D
100
AcDbEntity
  8
部品1
100
AcDbLine
 10
9626.817601240311
 20
1437.220007611452
 30
0.0
 11
10390.28826746875
 21
1437.220007611452
 31
0.0
  0
LINE
  5
18A15
330
747D
100
AcDbEntity
  8
部品1
100
AcDbLine
 10
10390.28826746875
 20
1437.220007611452
 30
0.0
 11
10390.28826746875
 21
1677.112329156984
 31
0.0
  0
LINE
  5
18A16
330
747D
100
AcDbEntity
  8
部品1
100
AcDbLine
 10
10390.28826746875
 20
1677.112329156984
 30
0.0
 11
9626.817601240311
 21
1677.112329156984
 31
0.0
  0
TEXT
  5
18A17
330
747D
100
AcDbEntity
  8
文字
 62
     7
 48
50.0
100
AcDbText
 10
13248.77747366447
 20
8380.013745883728
 30
0.0
 40
100.0
  1
17
  7
STYLE1
100
AcDbText
  0
TEXT
  5
18A18
330
747D
100
AcDbEntity
  8
文字
 62
     7
 48
50.0
100
AcDbText
 10
13248.77747366447
 20
8550.013745883729
 30
0.0
 40
100.0
  1
16
  7
STYLE1
100
AcDbText
  0
TEXT
  5
18A19
330
747D
100
AcDbEntity
  8
文字
 62
     7
 48
50.0
100
AcDbText
 10
15022.63965474517
 20
9060.013745883725
 30
0.0
 40
100.0
  1
F12            1.0
  7
STYLE1
100
AcDbText
  0
TEXT
  5
18A1A
330
747D
100
AcDbEntity
  8
文字
 62
     7
 48
50.0
100
AcDbText
 10
13583.11819016569
 20
9060.013745883733
 30
0.0
 40
100.0
  1
壁面扉枠左右
  7
STYLE1
100
AcDbText
  0
TEXT
  5
18A1B
330
747D
100
AcDbEntity
  8
文字
 62
     7
 48
50.0
100
AcDbText
 10
15022.63965474517
 20
9230.013745883725
 30
0.0
 40
100.0
  1
F12            1.0
  7
STYLE1
100
AcDbText
  0
TEXT
  5
18A1C
330
747D
100
AcDbEntity
  8
文字
 62
     7
 48
50.0
100
AcDbText
 10
15022.63965474515
 20
9400.013745883727
 30
0.0
 40
100.0
  1
F12            0.7
  7
STYLE1
100
AcDbText
  0
TEXT
  5
18A1D
330
747D
100
AcDbEntity
  8
文字
 62
     7
 48
50.0
100
AcDbText
 10
13583.11819016569
 20
9230.013745883733
 30
0.0
 40
100.0
  1
壁面扉敷居
  7
STYLE1
100
AcDbText
  0
TEXT
  5
18A1E
330
747D
100
AcDbEntity
  8
文字
 62
     7
 48
50.0
100
AcDbText
 10
13583.11819016569
 20
9400.013745883729
 30
0.0
 40
100.0
  1
壁面扉鴨居
  7
STYLE1
100
AcDbText
  0
LINE
  5
18A1F
330
747D
100
AcDbEntity
  8
仕様書枠
 48
50.0
100
AcDbLine
 10
16307.19999999999
 20
8689.600000000003
 30
0.0
 11
13127.2
 21
8689.600000000005
 31
0.0
  0
LINE
  5
18A20
330
747D
100
AcDbEntity
  8
仕様書枠
 48
50.0
100
AcDbLine
 10
16307.19999999999
 20
8519.600000000004
 30
0.0
 11
13127.2
 21
8519.600000000005
 31
0.0
  0
TEXT
  5
18A21
330
747D
100
AcDbEntity
  8
文字
 62
     7
 48
50.0
100
AcDbText
 10
13583.11819016569
 20
8380.013745883728
 30
0.0
 40
100.0
  1
アンカープレート
  7
STYLE1
100
AcDbText
  0
TEXT
  5
18A22
330
747D
100
AcDbEntity
  8
文字
 62
     7
 48
50.0
100
AcDbText
 10
15022.63965474515
 20
8380.013745883724
 30
0.0
 40
100.0
  1
F12            2.3
  7
STYLE1
100
AcDbText
  0
LINE
  5
18A23
330
747D
100
AcDbEntity
  8
仕様書枠
 48
50.0
100
AcDbLine
 10
16307.2
 20
10049.6
 30
0.0
 11
13127.2
 21
10049.6
 31
0.0
  0
LINE
  5
18A24
330
747D
100
AcDbEntity
  8
仕様書枠
 48
50.0
100
AcDbLine
 10
16307.2
 20
11409.59999999999
 30
0.0
 11
13127.2
 21
11409.6
 31
0.0
  0
LINE
  5
18A25
330
747D
100
AcDbEntity
  8
仕様書枠
 48
50.0
100
AcDbLine
 10
16307.19999999999
 20
8009.600000000004
 30
0.0
 11
16307.2
 21
11409.6
 31
0.0
  0
LINE
  5
18A26
330
747D
100
AcDbEntity
  8
仕様書枠
 48
50.0
100
AcDbLine
 10
14785.2
 20
11409.59999999999
 30
0.0
 11
14785.2
 21
8349.600000000004
 31
0.0
  0
LINE
  5
18A27
330
747D
100
AcDbEntity
  8
仕様書枠
 48
50.0
100
AcDbLine
 10
13490.2
 20
11409.59999999999
 30
0.0
 11
13490.20000000001
 21
8349.600000000007
 31
0.0
  0
LINE
  5
18A28
330
747D
100
AcDbEntity
  8
仕様書枠
 48
50.0
100
AcDbLine
 10
16307.2
 20
11239.59999999999
 30
0.0
 11
13127.2
 21
11239.6
 31
0.0
  0
LINE
  5
18A29
330
747D
100
AcDbEntity
  8
仕様書枠
 48
50.0
100
AcDbLine
 10
16307.2
 20
10899.6
 30
0.0
 11
13127.2
 21
10899.6
 31
0.0
  0
LINE
  5
18A2A
330
747D
100
AcDbEntity
  8
仕様書枠
 48
50.0
100
AcDbLine
 10
16307.2
 20
11069.59999999999
 30
0.0
 11
13127.2
 21
11069.6
 31
0.0
  0
LINE
  5
18A2B
330
747D
100
AcDbEntity
  8
仕様書枠
 48
50.0
100
AcDbLine
 10
16307.19999999999
 20
10559.6
 30
0.0
 11
13127.2
 21
10559.6
 31
0.0
  0
LINE
  5
18A2C
330
747D
100
AcDbEntity
  8
仕様書枠
 48
50.0
100
AcDbLine
 10
16307.19999999999
 20
10389.6
 30
0.0
 11
13127.2
 21
10389.6
 31
0.0
  0
LINE
  5
18A2D
330
747D
100
AcDbEntity
  8
仕様書枠
 48
50.0
100
AcDbLine
 10
16307.19999999999
 20
10729.59999999999
 30
0.0
 11
13127.2
 21
10729.6
 31
0.0
  0
TEXT
  5
18A2E
330
747D
100
AcDbEntity
  8
文字
 62
     7
 48
50.0
100
AcDbText
 10
13197.42518560407
 20
11270.01374588372
 30
0.0
 40
100.0
  1
品番
  7
STYLE1
100
AcDbText
  0
TEXT
  5
18A2F
330
747D
100
AcDbEntity
  8
文字
 62
     7
 48
50.0
100
AcDbText
 10
13271.19032244792
 20
11100.01374588373
 30
0.0
 40
100.0
  1
1
  7
STYLE1
100
AcDbText
  0
TEXT
  5
18A30
330
747D
100
AcDbEntity
  8
文字
 62
     7
 48
50.0
100
AcDbText
 10
13271.19032244792
 20
10930.01374588373
 30
0.0
 40
100.0
  1
2
  7
STYLE1
100
AcDbText
  0
TEXT
  5
18A31
330
747D
100
AcDbEntity
  8
文字
 62
     7
 48
50.0
100
AcDbText
 10
13271.19032244792
 20
10590.01374588373
 30
0.0
 40
100.0
  1
4
  7
STYLE1
100
AcDbText
  0
TEXT
  5
18A32
330
747D
100
AcDbEntity
  8
文字
 62
     7
 48
50.0
100
AcDbText
 10
13271.19032244792
 20
10760.01374588373
 30
0.0
 40
100.0
  1
3
  7
STYLE1
100
AcDbText
  0
TEXT
  5
18A33
330
747D
100
AcDbEntity
  8
文字
 62
     7
 48
50.0
100
AcDbText
 10
13732.03840939434
 20
11270.01374588372
 30
0.0
 40
100.0
  1
部　　品　　名
  7
STYLE1
100
AcDbText
  0
TEXT
  5
18A34
330
747D
100
AcDbEntity
  8
文字
 62
     7
 48
50.0
100
AcDbText
 10
14859.79774614482
 20
11270.01374588372
 30
0.0
 40
100.0
  1
材料（材質）　　単位mm
  7
STYLE1
100
AcDbText
  0
TEXT
  5
18A35
330
747D
100
AcDbEntity
  8
文字
 62
     7
 48
50.0
100
AcDbText
 10
13583.11819016569
 20
11100.01374588372
 30
0.0
 40
100.0
  1
土台枠
  7
STYLE1
100
AcDbText
  0
TEXT
  5
18A36
330
747D
100
AcDbEntity
  8
文字
 62
     7
 48
50.0
100
AcDbText
 10
13583.1181901657
 20
10760.01374588372
 30
0.0
 40
100.0
  1
柱
  7
STYLE1
100
AcDbText
  0
TEXT
  5
18A37
330
747D
100
AcDbEntity
  8
文字
 62
     7
 48
50.0
100
AcDbText
 10
13583.11819016569
 20
10420.01374588373
 30
0.0
 40
100.0
  1
桁前後
  7
STYLE1
100
AcDbText
  0
TEXT
  5
18A38
330
747D
100
AcDbEntity
  8
文字
 62
     7
 48
50.0
100
AcDbText
 10
13271.19032244792
 20
10420.01374588372
 30
0.0
 40
100.0
  1
5
  7
STYLE1
100
AcDbText
  0
TEXT
  5
18A39
330
747D
100
AcDbEntity
  8
文字
 62
     7
 48
50.0
100
AcDbText
 10
13583.11819016569
 20
10250.01374588373
 30
0.0
 40
100.0
  1
妻板左右
  7
STYLE1
100
AcDbText
  0
TEXT
  5
18A3A
330
747D
100
AcDbEntity
  8
文字
 62
     7
 48
50.0
100
AcDbText
 10
13248.77747366447
 20
9570.013745883727
 30
0.0
 40
100.0
  1
10
  7
STYLE1
100
AcDbText
  0
TEXT
  5
18A3B
330
747D
100
AcDbEntity
  8
文字
 62
     7
 48
50.0
100
AcDbText
 10
13583.11819016568
 20
9570.013745883729
 30
0.0
 40
100.0
  1
壁パネル
  7
STYLE1
100
AcDbText
  0
TEXT
  5
18A3C
330
747D
100
AcDbEntity
  8
文字
 62
     7
 48
50.0
100
AcDbText
 10
13583.11819016569
 20
9910.013745883727
 30
0.0
 40
100.0
  1
屋根パネル
  7
STYLE1
100
AcDbText
  0
TEXT
  5
18A3D
330
747D
100
AcDbEntity
  8
文字
 62
     7
 48
50.0
100
AcDbText
 10
13583.11819016569
 20
10080.01374588372
 30
0.0
 40
100.0
  1
鼻隠シ前後
  7
STYLE1
100
AcDbText
  0
TEXT
  5
18A3E
330
747D
100
AcDbEntity
  8
文字
 62
     7
 48
50.0
100
AcDbText
 10
13271.19032244792
 20
9910.01374588373
 30
0.0
 40
100.0
  1
8
  7
STYLE1
100
AcDbText
  0
TEXT
  5
18A3F
330
747D
100
AcDbEntity
  8
文字
 62
     7
 48
50.0
100
AcDbText
 10
13271.19032244792
 20
9740.013745883729
 30
0.0
 40
100.0
  1
9
  7
STYLE1
100
AcDbText
  0
TEXT
  5
18A40
330
747D
100
AcDbEntity
  8
文字
 62
     7
 48
50.0
100
AcDbText
 10
13271.19032244792
 20
10080.01374588373
 30
0.0
 40
100.0
  1
7
  7
STYLE1
100
AcDbText
  0
TEXT
  5
18A41
330
747D
100
AcDbEntity
  8
文字
 62
     7
 48
50.0
100
AcDbText
 10
13271.19032244792
 20
10250.01374588373
 30
0.0
 40
100.0
  1
6
  7
STYLE1
100
AcDbText
  0
LINE
  5
18A42
330
747D
100
AcDbEntity
  8
仕様書枠
 48
50.0
100
AcDbLine
 10
16307.19999999999
 20
9709.6
 30
0.0
 11
13127.2
 21
9709.600000000001
 31
0.0
  0
LINE
  5
18A43
330
747D
100
AcDbEntity
  8
仕様書枠
 48
50.0
100
AcDbLine
 10
16307.19999999999
 20
9369.599999999998
 30
0.0
 11
13127.2
 21
9369.600000000001
 31
0.0
  0
LINE
  5
18A44
330
747D
100
AcDbEntity
  8
仕様書枠
 48
50.0
100
AcDbLine
 10
16307.19999999999
 20
9539.599999999998
 30
0.0
 11
13127.2
 21
9539.6
 31
0.0
  0
LINE
  5
18A45
330
747D
100
AcDbEntity
  8
仕様書枠
 48
50.0
100
AcDbLine
 10
16307.2
 20
10219.6
 30
0.0
 11
13127.2
 21
10219.6
 31
0.0
  0
LINE
  5
18A46
330
747D
100
AcDbEntity
  8
仕様書枠
 48
50.0
100
AcDbLine
 10
16307.2
 20
9879.599999999999
 30
0.0
 11
13127.2
 21
9879.600000000001
 31
0.0
  0
TEXT
  5
18A47
330
747D
100
AcDbEntity
  8
文字
 62
     7
 48
50.0
100
AcDbText
 10
13248.77747366447
 20
9400.013745883727
 30
0.0
 40
100.0
  1
11
  7
STYLE1
100
AcDbText
  0
LINE
  5
18A48
330
747D
100
AcDbEntity
  8
仕様書枠
 48
50.0
100
AcDbLine
 10
16307.19999999999
 20
9199.599999999998
 30
0.0
 11
13127.2
 21
9199.600000000001
 31
0.0
  0
LINE
  5
18A49
330
747D
100
AcDbEntity
  8
仕様書枠
 48
50.0
100
AcDbLine
 10
16307.19999999999
 20
8859.6
 30
0.0
 11
13127.2
 21
8859.600000000002
 31
0.0
  0
TEXT
  5
18A4A
330
747D
100
AcDbEntity
  8
文字
 62
     7
 48
50.0
100
AcDbText
 10
13248.77747366448
 20
9060.013745883727
 30
0.0
 40
100.0
  1
13
  7
STYLE1
100
AcDbText
  0
TEXT
  5
18A4B
330
747D
100
AcDbEntity
  8
文字
 62
     7
 48
50.0
100
AcDbText
 10
13248.77747366448
 20
9230.013745883727
 30
0.0
 40
100.0
  1
12
  7
STYLE1
100
AcDbText
  0
TEXT
  5
18A4C
330
747D
100
AcDbEntity
  8
文字
 62
     7
 48
50.0
100
AcDbText
 10
15022.63965474517
 20
11100.01374588372
 30
0.0
 40
100.0
  1
F12            1.2
  7
STYLE1
100
AcDbText
  0
TEXT
  5
18A4D
330
747D
100
AcDbEntity
  8
文字
 62
     7
 48
50.0
100
AcDbText
 10
15022.63965474518
 20
10760.01374588372
 30
0.0
 40
100.0
  1
F12            1.0
  7
STYLE1
100
AcDbText
  0
TEXT
  5
18A4E
330
747D
100
AcDbEntity
  8
文字
 62
     7
 48
50.0
100
AcDbText
 10
15022.63965474516
 20
10420.01374588372
 30
0.0
 40
100.0
  1
Y10            1.0
  7
STYLE1
100
AcDbText
  0
TEXT
  5
18A4F
330
747D
100
AcDbEntity
  8
文字
 62
     7
 48
50.0
100
AcDbText
 10
15022.63965474516
 20
10250.01374588372
 30
0.0
 40
100.0
  1
Y10            0.7
  7
STYLE1
100
AcDbText
  0
TEXT
  5
18A50
330
747D
100
AcDbEntity
  8
文字
 62
     7
 48
50.0
100
AcDbText
 10
15022.63965474516
 20
10080.01374588372
 30
0.0
 40
100.0
  1
Y10            0.7
  7
STYLE1
100
AcDbText
  0
TEXT
  5
18A51
330
747D
100
AcDbEntity
  8
文字
 62
     7
 48
50.0
100
AcDbText
 10
15022.63965474517
 20
9910.013745883725
 30
0.0
 40
100.0
  1
Y10            0.5
  7
STYLE1
100
AcDbText
  0
TEXT
  5
18A52
330
747D
100
AcDbEntity
  8
文字
 62
     7
 48
50.0
100
AcDbText
 10
15022.63965474515
 20
9570.013745883725
 30
0.0
 40
100.0
  1
F12            0.7
  7
STYLE1
100
AcDbText
  0
LINE
  5
18A53
330
747D
100
AcDbEntity
  8
仕様書枠
 48
50.0
100
AcDbLine
 10
16307.19999999999
 20
8349.600000000004
 30
0.0
 11
13127.19999999999
 21
8349.600000000007
 31
0.0
  0
LINE
  5
18A54
330
747D
100
AcDbEntity
  8
仕様書枠
 48
50.0
100
AcDbLine
 10
16307.19999999999
 20
8179.600000000004
 30
0.0
 11
13127.19999999999
 21
8179.600000000005
 31
0.0
  0
TEXT
  5
18A55
330
747D
100
AcDbEntity
  8
文字
 62
     7
 48
50.0
100
AcDbText
 10
13229.83081656554
 20
8210.013745883733
 30
0.0
 40
100.0
  1
F12→溶融亜鉛めっき鋼板(JIS G 3302)
  7
STYLE1
100
AcDbText
  0
TEXT
  5
18A56
330
747D
100
AcDbEntity
  8
文字
 62
     7
 48
50.0
100
AcDbText
 10
13229.83081656554
 20
8040.013745883731
 30
0.0
 40
100.0
  1
Y10→溶融亜鉛-5％アルミニウム合金めっき鋼板(JIS G 3317)
 41
0.9
  7
STYLE1
100
AcDbText
  0
LINE
  5
18A57
330
747D
100
AcDbEntity
  8
仕様書枠
 48
50.0
100
AcDbLine
 10
13127.2
 20
11409.6
 30
0.0
 11
13127.19999999999
 21
8009.600000000006
 31
0.0
  0
LINE
  5
18A58
330
747D
100
AcDbEntity
  8
仕様書枠
 48
50.0
100
AcDbLine
 10
16307.19999999999
 20
9029.6
 30
0.0
 11
13127.2
 21
9029.600000000002
 31
0.0
  0
TEXT
  5
18A59
330
747D
100
AcDbEntity
  8
文字
 62
     7
 48
50.0
100
AcDbText
 10
13583.1181901657
 20
10590.01374588372
 30
0.0
 40
100.0
  1
床パネル
 41
0.9
  7
STYLE1
100
AcDbText
  0
TEXT
  5
18A5A
330
747D
100
AcDbEntity
  8
文字
 62
     7
 48
50.0
100
AcDbText
 10
13583.11819016569
 20
10930.01374588372
 30
0.0
 40
100.0
  1
根太
  7
STYLE1
100
AcDbText
  0
TEXT
  5
18A5B
330
747D
100
AcDbEntity
  8
文字
 62
     7
 48
50.0
100
AcDbText
 10
13248.77747366448
 20
8890.013745883727
 30
0.0
 40
100.0
  1
14
  7
STYLE1
100
AcDbText
  0
TEXT
  5
18A5C
330
747D
100
AcDbEntity
  8
文字
 62
     7
 48
50.0
100
AcDbText
 10
15022.63965474516
 20
10930.01374588372
 30
0.0
 40
100.0
  1
F12            1.2
  7
STYLE1
100
AcDbText
  0
TEXT
  5
18A5D
330
747D
100
AcDbEntity
  8
文字
 62
     7
 48
50.0
100
AcDbText
 10
15022.63965474517
 20
10590.01374588372
 30
0.0
 40
100.0
  1
F12            1.0
  7
STYLE1
100
AcDbText
  0
TEXT
  5
18A5E
330
747D
100
AcDbEntity
  8
文字
 62
     7
 48
50.0
100
AcDbText
 10
15022.63965474515
 20
8890.013745883727
 30
0.0
 40
100.0
  1
F12            0.7
  7
STYLE1
100
AcDbText
  0
TEXT
  5
18A5F
330
747D
100
AcDbEntity
  8
文字
 62
     7
 48
50.0
100
AcDbText
 10
13583.11819016568
 20
8890.013745883731
 30
0.0
 40
100.0
  1
正面パネル
  7
STYLE1
100
AcDbText
  0
TEXT
  5
18A60
330
747D
100
AcDbEntity
  8
文字
 62
     7
 48
50.0
100
AcDbText
 10
15022.63965474516
 20
8720.013745883727
 30
0.0
 40
100.0
  1
F12            0.8
  7
STYLE1
100
AcDbText
  0
TEXT
  5
18A61
330
747D
100
AcDbEntity
  8
文字
 62
     7
 48
50.0
100
AcDbText
 10
13583.11819016569
 20
8720.013745883731
 30
0.0
 40
100.0
  1
扉
  7
STYLE1
100
AcDbText
  0
LINE
  5
18A62
330
747D
100
AcDbEntity
  8
仕様書枠
 48
50.0
100
AcDbLine
 10
16307.19999999999
 20
8009.600000000004
 30
0.0
 11
13127.19999999999
 21
8009.600000000006
 31
0.0
  0
TEXT
  5
18A63
330
747D
100
AcDbEntity
  8
文字
 62
     7
 48
50.0
100
AcDbText
 10
13248.77747366447
 20
8720.013745883729
 30
0.0
 40
100.0
  1
15
  7
STYLE1
100
AcDbText
  0
TEXT
  5
18A64
330
747D
100
AcDbEntity
  8
文字
 62
     7
 48
50.0
100
AcDbText
 10
13583.11819016569
 20
9740.013745883729
 30
0.0
 40
100.0
  1
母屋中
  7
STYLE1
100
AcDbText
  0
TEXT
  5
18A65
330
747D
100
AcDbEntity
  8
文字
 62
     7
 48
50.0
100
AcDbText
 10
15022.63965474515
 20
9740.013745883723
 30
0.0
 40
100.0
  1
F12            1.0
  7
STYLE1
100
AcDbText
  0
TEXT
  5
18A66
330
747D
100
AcDbEntity
  8
文字
 62
     7
 48
50.0
100
AcDbText
 10
15022.63965474516
 20
8550.013745883727
 30
0.0
 40
100.0
  1
F12            0.6
  7
STYLE1
100
AcDbText
  0
TEXT
  5
18A67
330
747D
100
AcDbEntity
  8
文字
 62
     7
 48
50.0
100
AcDbText
 10
13583.11819016569
 20
8550.013745883731
 30
0.0
 40
100.0
  1
棚板
  7
STYLE1
100
AcDbText
  0
TEXT
  5
18A68
330
747D
100
AcDbEntity
  8
文字
 62
     7
 48
50.0
100
AcDbText
 10
14491.96323844892
 20
483.8967129911416
 30
0.0
 40
160.0
  1
ＮＸＮ－４０ＣＨＢ
  7
STYLE2
100
AcDbText
  0
DIMENSION
  5
18A69
330
747D
100
AcDbEntity
  8
寸法
 48
50.0
100
AcDbDimension
  2
*D18
 10
8842.346905142397
 20
2524.150592134394
 30
0.0
 11
8842.346905142397
 21
3536.650592134395
 31
0.0
 70
   160
  1
有効開口部高サ<>
 71
     5
 42
2025.0
  3
INABA_S40G
100
AcDbAlignedDimension
 13
9141.552934354548
 23
4549.150592134394
 33
0.0
 14
9141.552934354548
 24
2524.150592134394
 34
0.0
 50
90.0
100
AcDbRotatedDimension
1001
ACAD
1000
DSTYLE
1002
{
1070
   341
1005
0
1002
}
  0
LINE
  5
18A87
330
747D
100
AcDbEntity
  8
部品1
 48
50.0
100
AcDbLine
 10
10875.55293435453
 20
4557.150592134393
 30
0.0
 11
10845.55293435453
 21
4557.150592134393
 31
0.0
  0
LINE
  5
18A88
330
747D
100
AcDbEntity
  8
部品1
 48
50.0
100
AcDbLine
 10
9171.552934354531
 20
4557.150592134393
 30
0.0
 11
9141.55293435453
 21
4557.150592134393
 31
0.0
  0
LINE
  5
18A89
330
747D
100
AcDbEntity
  8
細線
 48
50.0
100
AcDbLine
 10
10845.55293435453
 20
4558.650592134394
 30
0.0
 11
9171.552934354531
 21
4558.650592134394
 31
0.0
  0
LINE
  5
18A8A
330
747D
100
AcDbEntity
  8
細線
 48
50.0
100
AcDbLine
 10
10845.55293435453
 20
4549.150592134394
 30
0.0
 11
9171.552934354531
 21
4549.150592134394
 31
0.0
  0
LINE
  5
18A8B
330
747D
100
AcDbEntity
  8
細線
 48
50.0
100
AcDbLine
 10
10875.55293435453
 20
4591.150592134394
 30
0.0
 11
9141.55293435453
 21
4591.150592134394
 31
0.0
  0
LINE
  5
18A8C
330
747D
100
AcDbEntity
  8
部品1
 48
50.0
100
AcDbLine
 10
10875.55293435453
 20
4601.150592134394
 30
0.0
 11
9141.55293435453
 21
4601.150592134394
 31
0.0
  0
LINE
  5
18A8D
330
747D
100
AcDbEntity
  8
細線
 48
50.0
100
AcDbLine
 10
10823.55293435453
 20
2513.150592134394
 30
0.0
 11
10819.55293435453
 21
2523.650592134394
 31
0.0
  0
LINE
  5
18A8E
330
747D
100
AcDbEntity
  8
部品1
 48
50.0
100
AcDbLine
 10
9180.552934354532
 20
2516.150592134394
 30
0.0
 11
9180.552934354532
 21
2513.150592134394
 31
0.0
  0
LINE
  5
18A8F
330
747D
100
AcDbEntity
  8
部品1
 48
50.0
100
AcDbLine
 10
9171.552934354531
 20
2516.150592134394
 30
0.0
 11
9810.052934354535
 21
2516.150592134394
 31
0.0
  0
LINE
  5
18A90
330
747D
100
AcDbEntity
  8
部品1
 48
50.0
100
AcDbLine
 10
9141.55293435453
 20
2466.150592134394
 30
0.0
 11
10875.55293435453
 21
2466.150592134394
 31
0.0
  0
LINE
  5
18A91
330
747D
100
AcDbEntity
  8
細線
 48
50.0
100
AcDbLine
 10
9171.552934354531
 20
2509.150592134394
 30
0.0
 11
10845.55293435453
 21
2509.150592134394
 31
0.0
  0
LINE
  5
18A92
330
747D
100
AcDbEntity
  8
細線
 48
50.0
100
AcDbLine
 10
9171.552934354531
 20
2513.150592134394
 30
0.0
 11
10845.55293435453
 21
2513.150592134394
 31
0.0
  0
LINE
  5
18A93
330
747D
100
AcDbEntity
  8
細線
 48
50.0
100
AcDbLine
 10
9810.052934354535
 20
2523.650592134394
 30
0.0
 11
10819.55293435453
 21
2523.650592134394
 31
0.0
  0
LINE
  5
18A94
330
747D
100
AcDbEntity
  8
部品1
 48
50.0
100
AcDbLine
 10
10875.55293435453
 20
2466.150592134394
 30
0.0
 11
10875.55293435453
 21
4601.150592134394
 31
0.0
  0
LINE
  5
18A95
330
747D
100
AcDbEntity
  8
細線
 48
50.0
100
AcDbLine
 10
10845.55293435453
 20
2466.150592134394
 30
0.0
 11
10845.55293435453
 21
4558.650592134394
 31
0.0
  0
LINE
  5
18A96
330
747D
100
AcDbEntity
  8
部品1
 48
50.0
100
AcDbLine
 10
10836.55293435453
 20
2513.150592134394
 30
0.0
 11
10836.55293435453
 21
4549.150592134394
 31
0.0
  0
LINE
  5
18A97
330
747D
100
AcDbEntity
  8
部品1
 48
50.0
100
AcDbLine
 10
9171.552934354531
 20
2516.150592134394
 30
0.0
 11
9171.552934354533
 21
4549.150592134394
 31
0.0
  0
LINE
  5
18A98
330
747D
100
AcDbEntity
  8
細線
 48
50.0
100
AcDbLine
 10
9171.552934354533
 20
4558.650592134394
 30
0.0
 11
9171.552934354529
 21
2466.150592134394
 31
0.0
  0
LINE
  5
18A99
330
747D
100
AcDbEntity
  8
部品1
 48
50.0
100
AcDbLine
 10
9141.55293435453
 20
4601.150592134394
 30
0.0
 11
9141.55293435453
 21
2466.150592134394
 31
0.0
  0
LINE
  5
18A9A
330
747D
100
AcDbEntity
  8
部品1
 48
50.0
100
AcDbLine
 10
9810.052934354539
 20
4549.150592134394
 30
0.0
 11
9810.052934354535
 21
2516.150592134394
 31
0.0
  0
LINE
  5
18A9B
330
747D
100
AcDbEntity
  8
部品1
 48
50.0
100
AcDbLine
 10
10302.05293435453
 20
4549.150592134394
 30
0.0
 11
10302.05293435453
 21
2523.650592134394
 31
0.0
  0
LINE
  5
18A9C
330
747D
100
AcDbEntity
  8
細線
100
AcDbLine
 10
9691.552926169116
 20
4549.150592134387
 30
0.0
 11
9691.552926169116
 21
2516.150592134391
 31
0.0
  0
LINE
  5
18A9D
330
747D
100
AcDbEntity
  8
細線
100
AcDbLine
 10
9621.552926169115
 20
4549.150592134387
 30
0.0
 11
9621.552926169115
 21
2516.150592134391
 31
0.0
  0
LINE
  5
18A9E
330
747D
100
AcDbEntity
  8
細線
100
AcDbLine
 10
9551.552926169115
 20
4549.150592134387
 30
0.0
 11
9551.552926169115
 21
2516.150592134391
 31
0.0
  0
LINE
  5
18A9F
330
747D
100
AcDbEntity
  8
部品1
100
AcDbLine
 10
9341.552934354533
 20
4549.150592134387
 30
0.0
 11
9341.552934354533
 21
2516.150592134394
 31
0.0
  0
LINE
  5
18AA0
330
747D
100
AcDbEntity
  8
部品1
100
AcDbLine
 10
9291.552934354532
 20
4549.150592134387
 30
0.0
 11
9291.552934354532
 21
2516.150592134394
 31
0.0
  0
LINE
  5
18AA1
330
747D
100
AcDbEntity
  8
細線
100
AcDbLine
 10
9333.552934354534
 20
4549.150592134387
 30
0.0
 11
9333.552934354534
 21
2516.150592134394
 31
0.0
  0
LINE
  5
18AA2
330
747D
100
AcDbEntity
  8
細線
100
AcDbLine
 10
9299.552934354533
 20
4549.150592134387
 30
0.0
 11
9299.552934354533
 21
2516.150592134394
 31
0.0
  0
LINE
  5
18AA3
330
747D
100
AcDbEntity
  8
細線
100
AcDbLine
 10
10210.55293435453
 20
4549.150592134387
 30
0.0
 11
10210.55293435453
 21
2523.650592134402
 31
0.0
  0
LINE
  5
18AA4
330
747D
100
AcDbEntity
  8
細線
100
AcDbLine
 10
10140.55293435453
 20
4549.150592134387
 30
0.0
 11
10140.55293435453
 21
2523.650592134402
 31
0.0
  0
LINE
  5
18AA5
330
747D
100
AcDbEntity
  8
細線
100
AcDbLine
 10
10070.55293435453
 20
4549.150592134387
 30
0.0
 11
10070.55293435453
 21
2523.650592134402
 31
0.0
  0
LINE
  5
18AA6
330
747D
100
AcDbEntity
  8
細線
100
AcDbLine
 10
10000.55293435453
 20
4549.150592134387
 30
0.0
 11
10000.55293435453
 21
2523.650592134402
 31
0.0
  0
LINE
  5
18AA7
330
747D
100
AcDbEntity
  8
細線
100
AcDbLine
 10
10728.55293435453
 20
4549.150592134376
 30
0.0
 11
10728.55293435453
 21
2523.650592134394
 31
0.0
  0
LINE
  5
18AA8
330
747D
100
AcDbEntity
  8
細線
100
AcDbLine
 10
10658.55293435453
 20
4549.150592134376
 30
0.0
 11
10658.55293435453
 21
2523.650592134394
 31
0.0
  0
LINE
  5
18AA9
330
747D
100
AcDbEntity
  8
細線
100
AcDbLine
 10
10588.55293435453
 20
4549.150592134376
 30
0.0
 11
10588.55293435453
 21
2523.650592134394
 31
0.0
  0
LINE
  5
18AAA
330
747D
100
AcDbEntity
  8
細線
100
AcDbLine
 10
9481.552926169115
 20
4549.150592134387
 30
0.0
 11
9481.552926169115
 21
2516.150592134391
 31
0.0
  0
LINE
  5
18AAB
330
747D
100
AcDbEntity
  8
細線
100
AcDbLine
 10
9930.552934354532
 20
4549.150592134387
 30
0.0
 11
9930.552934354533
 21
2523.650592134402
 31
0.0
  0
LINE
  5
18AAC
330
747D
100
AcDbEntity
  8
細線
100
AcDbLine
 10
9860.552934354531
 20
4549.150592134387
 30
0.0
 11
9860.552934354533
 21
2523.650592134402
 31
0.0
  0
LINE
  5
18AAD
330
747D
100
AcDbEntity
  8
細線
100
AcDbLine
 10
10518.55293435453
 20
4549.150592134376
 30
0.0
 11
10518.55293435453
 21
2523.650592134394
 31
0.0
  0
LINE
  5
18AAE
330
747D
100
AcDbEntity
  8
細線
100
AcDbLine
 10
10378.55296967342
 20
4549.150592134376
 30
0.0
 11
10378.55296967342
 21
2523.650592134394
 31
0.0
  0
LINE
  5
18AAF
330
747D
100
AcDbEntity
  8
細線
100
AcDbLine
 10
10448.55296967343
 20
4549.150592134376
 30
0.0
 11
10448.55296967343
 21
2523.650592134394
 31
0.0
  0
LINE
  5
18E1E
330
747D
100
AcDbEntity
  8
補助
  6
PHANTOM
 62
   230
 48
50.0
100
AcDbLine
 10
140.0
 20
0.0
 30
0.0
 11
140.0
 21
11409.6
 31
0.0
  0
LINE
  5
190A1
330
747D
100
AcDbEntity
  8
部品1
 48
50.0
100
AcDbLine
 10
9215.55293435453
 20
3597.650592134396
 30
0.0
 11
9268.552934354529
 21
3597.650592134396
 31
0.0
  0
DIMENSION
  5
193DF
330
747D
100
AcDbEntity
  8
寸法
100
AcDbDimension
  2
*D19
 10
9168.552934354556
 20
10238.97314131111
 30
0.0
 11
8805.067652980282
 21
10238.97314131111
 31
0.0
 70
   160
 71
     5
 42
55.00000000003637
  3
INABA_S40G
100
AcDbAlignedDimension
 13
9113.552934354521
 23
9947.767976747151
 33
0.0
 14
9168.552934354556
 24
9947.767976747151
 34
0.0
100
AcDbRotatedDimension
1001
ACAD
1000
DSTYLE
1002
{
1002
}
  0
LINE
  5
193E0
330
747D
100
AcDbEntity
  8
部品1
100
AcDbLine
 10
9168.55293435452
 20
9947.767976747119
 30
0.0
 11
9168.552934354524
 21
9919.767976747118
 31
0.0
  0
LINE
  5
193E1
330
747D
100
AcDbEntity
  8
部品1
100
AcDbLine
 10
9113.552934354521
 20
9947.767976747119
 30
0.0
 11
9113.552934354549
 21
7737.767976747107
 31
0.0
  0
LINE
  5
193E2
330
747D
100
AcDbEntity
  8
部品1
100
AcDbLine
 10
10848.55293435456
 20
9947.767976747245
 30
0.0
 11
10848.55293435456
 21
9919.767976747245
 31
0.0
  0
LINE
  5
193E3
330
747D
100
AcDbEntity
  8
部品1
100
AcDbLine
 10
10848.55293435456
 20
9947.767976747265
 30
0.0
 11
10848.55293435456
 21
9919.767976747266
 31
0.0
  0
DIMENSION
  5
193E4
330
747D
100
AcDbEntity
  8
寸法
100
AcDbDimension
  2
*D20
 10
11916.0862218286
 20
7737.767976747237
 30
0.0
 11
11916.0862218286
 21
8842.767976747243
 31
0.0
 70
   160
 71
     5
 42
2210.000000000008
  3
INABA_S40G
100
AcDbAlignedDimension
 13
10903.55293435455
 23
9947.767976747245
 33
0.0
 14
10903.55293435453
 24
7737.767976747237
 34
0.0
 50
90.0
100
AcDbRotatedDimension
1001
ACAD
1000
DSTYLE
1002
{
1002
}
  0
LINE
  5
193E5
330
747D
100
AcDbEntity
  8
部品1
100
AcDbLine
 10
10903.55293435455
 20
9947.767976747245
 30
0.0
 11
10903.55293435453
 21
7737.767976747237
 31
0.0
  0
LINE
  5
193E6
330
747D
100
AcDbEntity
  8
部品1
100
AcDbLine
 10
10428.55293435456
 20
9947.767976747265
 30
0.0
 11
10428.55293435456
 21
9919.767976747266
 31
0.0
  0
LINE
  5
193E7
330
747D
100
AcDbEntity
  8
部品1
100
AcDbLine
 10
10008.55293435455
 20
9947.767976747265
 30
0.0
 11
10008.55293435455
 21
9919.767976747266
 31
0.0
  0
LINE
  5
193E8
330
747D
100
AcDbEntity
  8
部品1
100
AcDbLine
 10
9588.552934354558
 20
9947.767976747265
 30
0.0
 11
9588.552934354558
 21
9919.767976747266
 31
0.0
  0
LINE
  5
193E9
330
747D
100
AcDbEntity
  8
部品1
100
AcDbLine
 10
9588.552934354558
 20
9947.767976747151
 30
0.0
 11
9588.552934354558
 21
9919.76797674715
 31
0.0
  0
LINE
  5
193EA
330
747D
100
AcDbEntity
  8
部品1
100
AcDbLine
 10
9588.552934354558
 20
9947.767976747151
 30
0.0
 11
9588.552934354558
 21
9919.767976747152
 31
0.0
  0
LINE
  5
193EB
330
747D
100
AcDbEntity
  8
部品1
100
AcDbLine
 10
9168.552934354556
 20
9947.767976747151
 30
0.0
 11
9168.552934354556
 21
9919.767976747152
 31
0.0
  0
DIMENSION
  5
193EC
330
747D
100
AcDbEntity
  8
寸法
100
AcDbDimension
  2
*D21
 10
11550.97928008897
 20
9892.767976747251
 30
0.0
 11
11550.97928008896
 21
10256.25325812148
 31
0.0
 70
   160
 71
     5
 42
54.99999999999636
  3
INABA_S40G
100
AcDbAlignedDimension
 13
10903.55293435455
 23
9947.767976747245
 33
0.0
 14
10903.55293435455
 24
9892.767976747251
 34
0.0
 50
90.0
100
AcDbRotatedDimension
1001
ACAD
1000
DSTYLE
1002
{
1002
}
  0
DIMENSION
  5
193ED
330
747D
100
AcDbEntity
  8
寸法
100
AcDbDimension
  2
*D22
 10
11550.97928008894
 20
7737.767976747237
 30
0.0
 11
11550.97928008894
 21
7359.906509842375
 31
0.0
 70
   160
 71
     5
 42
54.99999999999636
  3
INABA_S40G
100
AcDbAlignedDimension
 13
10903.55293435453
 23
7792.767976747232
 33
0.0
 14
10903.55293435453
 24
7737.767976747237
 34
0.0
 50
90.0
100
AcDbRotatedDimension
1001
ACAD
1000
DSTYLE
1002
{
1002
}
  0
DIMENSION
  5
193EE
330
747D
100
AcDbEntity
  8
寸法
100
AcDbDimension
  2
*D23
 10
11550.97928008897
 20
7792.767976747232
 30
0.0
 11
11550.97928008896
 21
8842.767976747243
 31
0.0
 70
   160
  1
5X420=<>
 71
     5
 42
2100.000000000016
  3
INABA_S40G
100
AcDbAlignedDimension
 13
10903.55293435455
 23
9892.767976747251
 33
0.0
 14
10903.55293435453
 24
7792.767976747232
 34
0.0
 50
90.0
100
AcDbRotatedDimension
1001
ACAD
1000
DSTYLE
1002
{
1002
}
  0
LINE
  5
193F1
330
747D
100
AcDbEntity
  8
部品1
100
AcDbLine
 10
9141.55293435453
 20
7765.767976747075
 30
0.0
 11
9141.552934354557
 21
9919.767976747152
 31
0.0
  0
LINE
  5
193F2
330
747D
100
AcDbEntity
  8
部品1
100
AcDbLine
 10
9141.552934354534
 20
8212.767976747121
 30
0.0
 11
9113.552934354535
 21
8212.767976747121
 31
0.0
  0
LINE
  5
193F3
330
747D
100
AcDbEntity
  8
部品1
100
AcDbLine
 10
9141.552934354532
 20
9052.767976747119
 30
0.0
 11
9113.552934354531
 21
9052.767976747119
 31
0.0
  0
LINE
  5
193F4
330
747D
100
AcDbEntity
  8
部品1
100
AcDbLine
 10
9141.552934354525
 20
9892.767976747123
 30
0.0
 11
9113.552934354524
 21
9892.767976747123
 31
0.0
  0
LINE
  5
193F5
330
747D
100
AcDbEntity
  8
部品1
100
AcDbLine
 10
10875.55293435455
 20
9919.767976747245
 30
0.0
 11
10875.55293435454
 21
8645.267976747216
 31
0.0
  0
LINE
  5
193F6
330
747D
100
AcDbEntity
  8
部品1
100
AcDbLine
 10
10875.55293435456
 20
8212.767976747249
 30
0.0
 11
10903.55293435456
 21
8212.767976747249
 31
0.0
  0
LINE
  5
193F7
330
747D
100
AcDbEntity
  8
部品1
100
AcDbLine
 10
9141.552934354557
 20
9919.767976747278
 30
0.0
 11
10875.55293435455
 21
9919.767976747245
 31
0.0
  0
LINE
  5
193F8
330
747D
100
AcDbEntity
  8
部品1
100
AcDbLine
 10
10875.55293435455
 20
9052.767976747249
 30
0.0
 11
10903.55293435455
 21
9052.767976747249
 31
0.0
  0
LINE
  5
193F9
330
747D
100
AcDbEntity
  8
部品1
100
AcDbLine
 10
10875.55293435455
 20
9892.767976747251
 30
0.0
 11
10903.55293435455
 21
9892.767976747251
 31
0.0
  0
DIMENSION
  5
193FA
330
747D
100
AcDbEntity
  8
寸法
100
AcDbDimension
  2
*D24
 10
10903.55293435455
 20
10238.97314131121
 30
0.0
 11
11212.03821572879
 21
10238.97314131121
 31
0.0
 70
   160
 71
     5
 42
55.0
  3
INABA_S40G
100
AcDbAlignedDimension
 13
10848.55293435456
 23
9947.767976747245
 33
0.0
 14
10903.55293435455
 24
9947.767976747245
 34
0.0
100
AcDbRotatedDimension
1001
ACAD
1000
DSTYLE
1002
{
1002
}
  0
LINE
  5
193FB
330
747D
100
AcDbEntity
  8
部品1
100
AcDbLine
 10
9113.552934354556
 20
9947.767976747151
 30
0.0
 11
10903.55293435455
 21
9947.767976747245
 31
0.0
  0
DIMENSION
  5
193FC
330
747D
100
AcDbEntity
  8
寸法
100
AcDbDimension
  2
*D25
 10
10848.55293435456
 20
10238.97314131123
 30
0.0
 11
10008.55293435455
 21
10238.97314131123
 31
0.0
 70
   160
  1
4X420=<>
 71
     5
 42
1680.0
  3
INABA_S40G
100
AcDbAlignedDimension
 13
9168.552934354556
 23
9947.767976747151
 33
0.0
 14
10848.55293435456
 24
9947.767976747245
 34
0.0
100
AcDbRotatedDimension
1001
ACAD
1000
DSTYLE
1002
{
1002
}
  0
LINE
  5
193FD
330
747D
100
AcDbEntity
  8
部品1
100
AcDbLine
 10
10423.5529343546
 20
7794.267976747207
 30
0.0
 11
9170.052934354448
 21
7794.267976747136
 31
0.0
  0
LINE
  5
193FE
330
747D
100
AcDbEntity
  8
破線
 48
10.0
100
AcDbLine
 10
10423.5529343546
 20
7817.767976747207
 30
0.0
 11
9193.552934354539
 21
7817.767976747134
 31
0.0
  0
LINE
  5
193FF
330
747D
100
AcDbEntity
  8
部品1
100
AcDbLine
 10
9170.052934354526
 20
9891.267976747336
 30
0.0
 11
9170.052934354545
 21
7794.267976747234
 31
0.0
  0
LINE
  5
19400
330
747D
100
AcDbEntity
  8
破線
 48
10.0
100
AcDbLine
 10
9193.552934354523
 20
9867.767976747355
 30
0.0
 11
9193.552934354528
 21
9213.267976747161
 31
0.0
  0
LINE
  5
19401
330
747D
100
AcDbEntity
  8
部品1
 48
50.0
100
AcDbLine
 10
9170.052934354542
 20
7794.267976747232
 30
0.0
 11
9141.552934354544
 21
7765.767976747233
 31
0.0
  0
LINE
  5
19402
330
747D
100
AcDbEntity
  8
部品1
100
AcDbLine
 10
10875.55293435455
 20
7792.767976746977
 30
0.0
 11
10903.55293435455
 21
7792.767976746977
 31
0.0
  0
LINE
  5
19403
330
747D
100
AcDbEntity
  8
部品1
100
AcDbLine
 10
9141.552934354525
 20
7792.767976747104
 30
0.0
 11
9113.552934354524
 21
7792.767976747104
 31
0.0
  0
LINE
  5
19404
330
747D
100
AcDbEntity
  8
部品1
 48
50.0
100
AcDbLine
 10
9113.552934354549
 20
7737.767976747072
 30
0.0
 11
9168.55293435452
 21
7737.767976747078
 31
0.0
  0
LINE
  5
19405
330
747D
100
AcDbEntity
  8
部品1
 48
50.0
100
AcDbLine
 10
9141.552934354526
 20
7765.767976747075
 30
0.0
 11
10875.55293435453
 21
7765.767976747233
 31
0.0
  0
LINE
  5
19406
330
747D
100
AcDbEntity
  8
部品1
 48
50.0
100
AcDbLine
 10
10848.55293435452
 20
7737.767976747233
 30
0.0
 11
10903.55293435453
 21
7737.767976747237
 31
0.0
  0
LINE
  5
19407
330
747D
100
AcDbEntity
  8
部品1
 48
50.0
100
AcDbLine
 10
9168.55293435452
 20
7737.767976747076
 30
0.0
 11
9168.552934354524
 21
7765.767976747075
 31
0.0
  0
LINE
  5
19408
330
747D
100
AcDbEntity
  8
部品1
 48
50.0
100
AcDbLine
 10
10848.55293435452
 20
7737.767976747233
 30
0.0
 11
10848.55293435452
 21
7765.767976747231
 31
0.0
  0
LINE
  5
19409
330
747D
100
AcDbEntity
  8
部品1
100
AcDbLine
 10
9141.552934354534
 20
8632.767976747119
 30
0.0
 11
9113.552934354535
 21
8632.767976747119
 31
0.0
  0
LINE
  5
1940A
330
747D
100
AcDbEntity
  8
部品1
100
AcDbLine
 10
10875.55293435456
 20
8632.767976747249
 30
0.0
 11
10903.55293435456
 21
8632.767976747249
 31
0.0
  0
LINE
  5
1940F
330
747D
100
AcDbEntity
  8
部品1
100
AcDbLine
 10
9141.552934354532
 20
9472.767976747119
 30
0.0
 11
9113.552934354531
 21
9472.767976747119
 31
0.0
  0
LINE
  5
19410
330
747D
100
AcDbEntity
  8
部品1
100
AcDbLine
 10
10875.55293435455
 20
9472.767976747249
 30
0.0
 11
10903.55293435455
 21
9472.767976747249
 31
0.0
  0
LINE
  5
19411
330
747D
100
AcDbEntity
  8
部品1
 48
50.0
100
AcDbLine
 10
10423.55293435455
 20
9891.267976747272
 30
0.0
 11
9170.052934354542
 21
9891.267976747336
 31
0.0
  0
LINE
  5
19412
330
747D
100
AcDbEntity
  8
部品1
 48
50.0
100
AcDbLine
 10
9170.052934354526
 20
9891.267976747336
 30
0.0
 11
9141.552934354557
 21
9919.767976747152
 31
0.0
  0
LINE
  5
19413
330
747D
100
AcDbEntity
  8
破線
 48
10.0
100
AcDbLine
 10
9193.552934354521
 20
9867.767976747357
 30
0.0
 11
10423.55293435455
 21
9867.767976747346
 31
0.0
  0
LINE
  5
19414
330
747D
100
AcDbEntity
  8
部品1
100
AcDbLine
 10
10423.55293435455
 20
9919.267976747285
 30
0.0
 11
10423.55293435461
 21
8646.267976747216
 31
0.0
  0
LINE
  5
19415
330
747D
100
AcDbEntity
  8
部品1
100
AcDbLine
 10
10873.55293435455
 20
9919.267976747285
 30
0.0
 11
10873.55293435461
 21
8646.267976747212
 31
0.0
  0
LINE
  5
19416
330
747D
100
AcDbEntity
  8
細線
 48
50.0
100
AcDbLine
 10
10873.5529343546
 20
8646.267976747212
 30
0.0
 11
10423.55293435455
 21
9919.267976747285
 31
0.0
  0
LINE
  5
19417
330
747D
100
AcDbEntity
  8
細線
 48
50.0
100
AcDbLine
 10
10423.55293435461
 20
8646.267976747216
 30
0.0
 11
10873.55293435455
 21
9919.267976747285
 31
0.0
  0
LINE
  5
19418
330
747D
100
AcDbEntity
  8
部品1
 48
50.0
100
AcDbLine
 10
10873.5529343546
 20
9919.267976747285
 30
0.0
 11
10423.55293435461
 21
9919.267976747285
 31
0.0
  0
LINE
  5
19419
330
747D
100
AcDbEntity
  8
細線
 48
50.0
100
AcDbLine
 10
10423.5529343546
 20
7766.267976747212
 30
0.0
 11
10873.5529343546
 21
8619.267976747213
 31
0.0
  0
LINE
  5
1941A
330
747D
100
AcDbEntity
  8
部品1
100
AcDbLine
 10
10423.55293435461
 20
8619.267976747215
 30
0.0
 11
10423.5529343546
 21
7766.267976747212
 31
0.0
  0
LINE
  5
1941B
330
747D
100
AcDbEntity
  8
部品1
100
AcDbLine
 10
10873.5529343546
 20
8619.267976747213
 30
0.0
 11
10873.5529343546
 21
7766.267976747212
 31
0.0
  0
LINE
  5
1941C
330
747D
100
AcDbEntity
  8
細線
 48
50.0
100
AcDbLine
 10
10873.5529343546
 20
7766.267976747212
 30
0.0
 11
10423.55293435461
 21
8619.267976747215
 31
0.0
  0
LINE
  5
1941D
330
747D
100
AcDbEntity
  8
部品1
 48
50.0
100
AcDbLine
 10
10875.55293435461
 20
8620.267976747213
 30
0.0
 11
10423.55293435461
 21
8620.267976747213
 31
0.0
  0
LINE
  5
1941E
330
747D
100
AcDbEntity
  8
部品1
 48
50.0
100
AcDbLine
 10
10875.55293435461
 20
8645.267976747215
 30
0.0
 11
10423.55293435461
 21
8645.267976747213
 31
0.0
  0
LINE
  5
1941F
330
747D
100
AcDbEntity
  8
部品1
 48
50.0
100
AcDbLine
 10
10873.5529343546
 20
8619.267976747213
 30
0.0
 11
10423.55293435461
 21
8619.267976747213
 31
0.0
  0
LINE
  5
19420
330
747D
100
AcDbEntity
  8
部品1
 48
50.0
100
AcDbLine
 10
10873.5529343546
 20
8646.267976747212
 30
0.0
 11
10423.55293435461
 21
8646.267976747212
 31
0.0
  0
LINE
  5
19421
330
747D
100
AcDbEntity
  8
部品1
100
AcDbLine
 10
10423.55293435461
 20
8645.267976747213
 30
0.0
 11
10423.55293435461
 21
8620.267976747213
 31
0.0
  0
LINE
  5
19422
330
747D
100
AcDbEntity
  8
部品1
100
AcDbLine
 10
10867.5529343546
 20
8645.267976747213
 30
0.0
 11
10867.5529343546
 21
8620.267976747213
 31
0.0
  0
LINE
  5
19423
330
747D
100
AcDbEntity
  8
部品1
100
AcDbLine
 10
10893.5529343546
 20
8603.767976747212
 30
0.0
 11
10893.5529343546
 21
8597.767976747212
 31
0.0
  0
LINE
  5
19424
330
747D
100
AcDbEntity
  8
部品1
100
AcDbLine
 10
10893.5529343546
 20
8597.767976747212
 30
0.0
 11
10875.5529343546
 21
8597.767976747212
 31
0.0
  0
LINE
  5
19425
330
747D
100
AcDbEntity
  8
部品1
100
AcDbLine
 10
10893.5529343546
 20
8667.767976747212
 30
0.0
 11
10893.5529343546
 21
8661.767976747212
 31
0.0
  0
LINE
  5
19426
330
747D
100
AcDbEntity
  8
部品1
100
AcDbLine
 10
10893.5529343546
 20
8667.767976747212
 30
0.0
 11
10875.5529343546
 21
8667.767976747212
 31
0.0
  0
LINE
  5
19427
330
747D
100
AcDbEntity
  8
部品1
100
AcDbLine
 10
10873.5529343546
 20
7766.267976747212
 30
0.0
 11
10423.5529343546
 21
7766.267976747212
 31
0.0
  0
DIMENSION
  5
19428
330
747D
100
AcDbEntity
  8
寸法
100
AcDbDimension
  2
*D26
 10
10219.80215366347
 20
7820.862833890628
 30
0.0
 11
10219.80215366346
 21
8182.069506417844
 31
0.0
 70
   160
 71
     5
 42
853.0000000000118
  3
INABA_S40G
100
AcDbAlignedDimension
 13
10423.55293435467
 23
8619.267976747222
 33
0.0
 14
10423.55293435466
 24
7766.26797674721
 34
0.0
 50
270.0
100
AcDbRotatedDimension
1001
ACAD
1000
DSTYLE
1002
{
1002
}
  0
DIMENSION
  5
19429
330
747D
100
AcDbEntity
  8
寸法
100
AcDbDimension
  2
*D27
 10
10219.80215366347
 20
8700.862833890623
 30
0.0
 11
10219.80215366347
 21
9386.125545164155
 31
0.0
 70
   160
 71
     5
 42
1273.000000000071
  3
INABA_S40G
100
AcDbAlignedDimension
 13
10423.55293435461
 23
9919.267976747292
 33
0.0
 14
10423.55293435461
 24
8646.267976747219
 34
0.0
 50
270.0
100
AcDbRotatedDimension
1001
ACAD
1000
DSTYLE
1002
{
1002
}
  0
LINE
  5
1942A
330
747D
100
AcDbEntity
  8
部品1
100
AcDbLine
 10
10875.55293435454
 20
8620.267976747213
 30
0.0
 11
10875.55293435453
 21
7765.767976747233
 31
0.0
  0
DIMENSION
  5
194CD
330
747D
100
AcDbEntity
  8
寸法
100
AcDbDimension
  2
*D28
 10
10518.76598851935
 20
7410.928021060563
 30
0.0
 11
10718.76958928613
 21
7410.928021060563
 31
0.0
 70
   160
 71
     5
 42
449.9999999999963
  3
INABA_S40G
100
AcDbAlignedDimension
 13
10873.5529343546
 23
7766.267976747212
 33
0.0
 14
10423.5529343546
 24
7766.267976747212
 34
0.0
100
AcDbRotatedDimension
1001
ACAD
1000
DSTYLE
1002
{
1002
}
  0
LINE
  5
194CE
330
747D
100
AcDbEntity
  8
部品1
 48
50.0
100
AcDbLine
 10
9588.55293435457
 20
9891.267976747133
 30
0.0
 11
9588.552934354657
 21
7794.267976747135
 31
0.0
  0
LINE
  5
194D1
330
747D
100
AcDbEntity
  8
部品1
 48
50.0
100
AcDbLine
 10
10008.55293435457
 20
9891.267976747133
 30
0.0
 11
10008.55293435465
 21
7794.267976747135
 31
0.0
  0
LINE
  5
194D2
330
747D
100
AcDbEntity
  8
破線
 48
10.0
100
AcDbLine
 10
9193.552934354528
 20
9163.267976747167
 30
0.0
 11
9193.552934354539
 21
8522.267976747166
 31
0.0
  0
MTEXT
  5
194D3
330
747D
100
AcDbEntity
  8
寸法
 62
     7
 48
50.0
100
AcDbMText
 10
10498.26814277067
 20
8188.28492652438
 30
0.0
 40
96.0
 41
0.0
 71
     5
 72
     1
  1
棚 3段
  7
STYLE1
 11
0.0000000000000003
 21
1.0
 31
0.0
 73
     1
 44
1.0
1001
ACAD
1000
MTEXTBEGIN
1070
    73
1070
     1
1070
    44
1040
1.0
1070
    74
1070
     0
1000
MTEXTEND
  0
MTEXT
  5
194D4
330
747D
100
AcDbEntity
  8
寸法
 62
     7
 48
50.0
100
AcDbMText
 10
10498.26814277065
 20
9278.284926524415
 30
0.0
 40
96.0
 41
0.0
 71
     5
 72
     1
  1
棚 3段
  7
STYLE1
 11
0.0000000000000003
 21
1.0
 31
0.0
 73
     1
 44
1.0
1001
ACAD
1000
MTEXTBEGIN
1070
    73
1070
     1
1070
    44
1040
1.0
1070
    74
1070
     0
1000
MTEXTEND
  0
LINE
  5
19752
330
747D
100
AcDbEntity
  8
細線
 48
50.0
100
AcDbLine
 10
9691.552934354518
 20
7665.768150924034
 30
0.0
 11
9810.052934354519
 21
7665.768150924034
 31
0.0
  0
LINE
  5
19753
330
747D
100
AcDbEntity
  8
細線
 48
50.0
100
AcDbLine
 10
9780.052934354522
 20
7682.918150924033
 30
0.0
 11
9780.052934354522
 21
7687.768150924035
 31
0.0
  0
LINE
  5
19754
330
747D
100
AcDbEntity
  8
細線
 48
50.0
100
AcDbLine
 10
9780.052934354522
 20
7687.768150924035
 30
0.0
 11
9795.052934354522
 21
7687.768150924035
 31
0.0
  0
LINE
  5
19755
330
747D
100
AcDbEntity
  8
細線
 48
50.0
100
AcDbLine
 10
9795.052934354522
 20
7687.768150924035
 30
0.0
 11
9795.052934354524
 21
7694.768150924035
 31
0.0
  0
LINE
  5
19756
330
747D
100
AcDbEntity
  8
細線
 48
50.0
100
AcDbLine
 10
9795.052934354524
 20
7694.768150924035
 30
0.0
 11
9810.052934354523
 21
7694.768150924035
 31
0.0
  0
LINE
  5
19757
330
747D
100
AcDbEntity
  8
細線
 48
50.0
100
AcDbLine
 10
9810.052934354523
 20
7694.768150924035
 30
0.0
 11
9810.052934354523
 21
7665.768150924034
 31
0.0
  0
LINE
  5
19758
330
747D
100
AcDbEntity
  8
細線
 48
50.0
100
AcDbLine
 10
9799.052934354522
 20
7717.264345189541
 30
0.0
 11
9799.052934354522
 21
7721.764345189541
 31
0.0
  0
LINE
  5
19759
330
747D
100
AcDbEntity
  8
細線
 48
50.0
100
AcDbLine
 10
9799.052934354522
 20
7721.764345189541
 30
0.0
 11
9784.052934354523
 21
7721.764345189541
 31
0.0
  0
LINE
  5
1975A
330
747D
100
AcDbEntity
  8
細線
 48
50.0
100
AcDbLine
 10
9784.052934354523
 20
7721.764345189541
 30
0.0
 11
9784.052934354523
 21
7728.76434518954
 31
0.0
  0
LINE
  5
1975B
330
747D
100
AcDbEntity
  8
細線
 48
50.0
100
AcDbLine
 10
9784.052934354523
 20
7728.76434518954
 30
0.0
 11
9769.052934354524
 21
7728.764345189538
 31
0.0
  0
LINE
  5
1975C
330
747D
100
AcDbEntity
  8
細線
 48
50.0
100
AcDbLine
 10
9769.052934354524
 20
7728.764345189538
 30
0.0
 11
9769.052934354524
 21
7691.164117086427
 31
0.0
  0
LINE
  5
1975D
330
747D
100
AcDbEntity
  8
細線
 48
50.0
100
AcDbLine
 10
9769.052934354524
 20
7691.164117086427
 30
0.0
 11
9789.052941655699
 21
7691.164158635968
 31
0.0
  0
LINE
  5
1975E
330
747D
100
AcDbEntity
  8
細線
 48
50.0
100
AcDbLine
 10
9789.052896786758
 20
7699.767620271777
 30
0.0
 11
9789.052941655699
 21
7691.164158635968
 31
0.0
  0
LINE
  5
1975F
330
747D
100
AcDbEntity
  8
細線
 48
50.0
100
AcDbLine
 10
9789.052896786758
 20
7699.767620271777
 30
0.0
 11
9800.285586141468
 21
7699.767803224924
 31
0.0
  0
ARC
  5
19760
330
747D
100
AcDbEntity
  8
細線
 48
50.0
100
AcDbCircle
 10
9806.867878448803
 20
7698.567967138536
 30
0.0
 40
1.8
100
AcDbArc
 50
270.0006665777295
 51
345.0005554812987
  0
LINE
  5
19761
330
747D
100
AcDbEntity
  8
細線
 48
50.0
100
AcDbLine
 10
9808.854311894883
 20
7699.026807595815
 30
0.0
 11
9808.606549452683
 21
7698.102109713708
 31
0.0
  0
LINE
  5
19762
330
747D
100
AcDbEntity
  8
細線
 48
50.0
100
AcDbLine
 10
9806.867899389958
 20
7696.767967138656
 30
0.0
 11
9803.23797197119
 21
7696.767924908177
 31
0.0
  0
ARC
  5
19763
330
747D
100
AcDbEntity
  8
細線
 48
50.0
100
AcDbCircle
 10
9803.237951030036
 20
7698.567924908056
 30
0.0
 40
1.8
100
AcDbArc
 50
195.0010443049394
 51
270.0006665777295
  0
LINE
  5
19764
330
747D
100
AcDbEntity
  8
細線
 48
50.0
100
AcDbLine
 10
9801.251523537779
 20
7699.02663987562
 30
0.0
 11
9801.499293034291
 21
7698.102018937039
 31
0.0
  0
ARC
  5
19765
330
747D
100
AcDbEntity
  8
細線
 48
50.0
100
AcDbCircle
 10
9800.285602429031
 20
7698.767803225059
 30
0.0
 40
1.0
100
AcDbArc
 50
15.00104430493943
 51
90.00093320877969
  0
LINE
  5
19766
330
747D
100
AcDbEntity
  8
細線
 48
50.0
100
AcDbLine
 10
9809.820233249986
 20
7699.767997915329
 30
0.0
 11
9810.761993400891
 21
7699.768004489178
 31
0.0
  0
ARC
  5
19767
330
747D
100
AcDbEntity
  8
細線
 48
50.0
100
AcDbCircle
 10
9809.820240230372
 20
7698.767997915354
 30
0.0
 40
1.0
100
AcDbArc
 50
90.0003999466794
 51
165.0005554812987
  0
LINE
  5
19768
330
747D
100
AcDbEntity
  8
細線
 48
50.0
100
AcDbLine
 10
10846.05293435452
 20
7758.767976747083
 30
0.0
 11
10846.05293435452
 21
7733.767976747079
 31
0.0
  0
LINE
  5
19769
330
747D
100
AcDbEntity
  8
細線
100
AcDbLine
 10
10836.55293435452
 20
7733.767976747079
 30
0.0
 11
10728.55293435452
 21
7733.767976747079
 31
0.0
  0
LINE
  5
1976A
330
747D
100
AcDbEntity
  8
細線
 48
50.0
100
AcDbLine
 10
10261.05293950543
 20
7725.767976747082
 30
0.0
 11
10261.05293950543
 21
7763.767976747074
 31
0.0
  0
LINE
  5
1976B
330
747D
100
AcDbEntity
  8
細線
 48
50.0
100
AcDbLine
 10
10261.05293950543
 20
7763.767976747074
 30
0.0
 11
10276.05293950543
 21
7763.767976747079
 31
0.0
  0
LINE
  5
1976C
330
747D
100
AcDbEntity
  8
細線
 48
50.0
100
AcDbLine
 10
10276.05293950543
 20
7763.767976747079
 30
0.0
 11
10276.05293950543
 21
7758.767976747079
 31
0.0
  0
LINE
  5
1976D
330
747D
100
AcDbEntity
  8
細線
 48
50.0
100
AcDbLine
 10
10261.05293950543
 20
7725.767976747082
 30
0.0
 11
10281.05293950543
 21
7725.767976747078
 31
0.0
  0
LINE
  5
1976E
330
747D
100
AcDbEntity
  8
細線
 48
50.0
100
AcDbLine
 10
10281.05293950543
 20
7725.767976747078
 30
0.0
 11
10281.05293950543
 21
7733.767976747079
 31
0.0
  0
LINE
  5
1976F
330
747D
100
AcDbEntity
  8
細線
100
AcDbLine
 10
10518.55293435452
 20
7733.767976747079
 30
0.0
 11
10448.55293435452
 21
7733.767976747079
 31
0.0
  0
LINE
  5
19770
330
747D
100
AcDbEntity
  8
細線
 48
50.0
100
AcDbLine
 10
10378.55293435452
 20
7733.767976747078
 30
0.0
 11
10293.84871907827
 21
7733.767976747079
 31
0.0
  0
LINE
  5
19771
330
747D
100
AcDbEntity
  8
細線
100
AcDbLine
 10
10658.55293435452
 20
7733.767976747079
 30
0.0
 11
10588.55293435452
 21
7733.767976747079
 31
0.0
  0
LINE
  5
19772
330
747D
100
AcDbEntity
  8
細線
100
AcDbLine
 10
10486.55293435452
 20
7733.767976747078
 30
0.0
 11
10486.55293435452
 21
7763.067976747077
 31
0.0
  0
LINE
  5
19773
330
747D
100
AcDbEntity
  8
細線
100
AcDbLine
 10
10466.55293435452
 20
7763.067976747077
 30
0.0
 11
10486.55293435452
 21
7763.067976747077
 31
0.0
  0
LINE
  5
19774
330
747D
100
AcDbEntity
  8
細線
100
AcDbLine
 10
10466.55293435452
 20
7733.767976747078
 30
0.0
 11
10466.55293435452
 21
7763.067976747077
 31
0.0
  0
LINE
  5
19775
330
747D
100
AcDbEntity
  8
細線
 48
50.0
100
AcDbLine
 10
10830.15293435452
 20
7758.767976747079
 30
0.0
 11
10820.15293435452
 21
7763.767976747079
 31
0.0
  0
LINE
  5
19776
330
747D
100
AcDbEntity
  8
細線
 48
50.0
100
AcDbLine
 10
10846.05293435452
 20
7758.767976747083
 30
0.0
 11
10830.15293435452
 21
7758.767976747079
 31
0.0
  0
LINE
  5
19777
330
747D
100
AcDbEntity
  8
細線
 48
50.0
100
AcDbLine
 10
10820.15293435452
 20
7763.767976747077
 30
0.0
 11
10276.05293950543
 21
7763.767976747074
 31
0.0
  0
LINE
  5
19778
330
747D
100
AcDbEntity
  8
細線
 48
50.0
100
AcDbLine
 10
10287.05293950543
 20
7732.96797674708
 30
0.0
 11
10287.05293950543
 21
7731.467976747079
 31
0.0
  0
LINE
  5
19779
330
747D
100
AcDbEntity
  8
細線
 48
50.0
100
AcDbLine
 10
10287.75293950543
 20
7730.767976747078
 30
0.0
 11
10292.35293950543
 21
7730.767976747078
 31
0.0
  0
LINE
  5
1977A
330
747D
100
AcDbEntity
  8
細線
 48
50.0
100
AcDbLine
 10
10293.05293950543
 20
7731.467976747079
 30
0.0
 11
10293.05294633054
 21
7732.967991638567
 31
0.0
  0
ARC
  5
1977B
330
747D
100
AcDbEntity
  8
細線
 48
50.0
100
AcDbCircle
 10
10292.35293950543
 20
7731.467976747079
 30
0.0
 40
0.7
100
AcDbArc
 50
270.0
 51
0.0
  0
ARC
  5
1977C
330
747D
100
AcDbEntity
  8
細線
 48
50.0
100
AcDbCircle
 10
10287.75293950543
 20
7731.467976747079
 30
0.0
 40
0.7
100
AcDbArc
 50
180.0
 51
270.0
  0
LINE
  5
1977D
330
747D
100
AcDbEntity
  8
細線
 48
50.0
100
AcDbLine
 10
10286.25294136687
 20
7733.767976747079
 30
0.0
 11
10281.05293950543
 21
7733.767976747079
 31
0.0
  0
ARC
  5
1977E
330
747D
100
AcDbEntity
  8
細線
 48
50.0
100
AcDbCircle
 10
10293.85294633053
 20
7732.967987915696
 30
0.0
 40
0.8
100
AcDbArc
 50
90.00014387753465
 51
179.9997333689498
  0
ARC
  5
1977F
330
747D
100
AcDbEntity
  8
細線
 48
50.0
100
AcDbCircle
 10
10286.25293950544
 20
7732.96797674708
 30
0.0
 40
0.8
100
AcDbArc
 50
359.9997333689499
 51
89.99986668437072
  0
LINE
  5
19780
330
747D
100
AcDbEntity
  8
細線
 48
50.0
100
AcDbLine
 10
10000.55289903563
 20
7699.767988609664
 30
0.0
 11
9930.552881747752
 21
7699.767988609671
 31
0.0
  0
LINE
  5
19781
330
747D
100
AcDbEntity
  8
細線
 48
50.0
100
AcDbLine
 10
9860.552934354521
 20
7699.767996797034
 30
0.0
 11
9810.761993400891
 21
7699.768004489178
 31
0.0
  0
LINE
  5
19782
330
747D
100
AcDbEntity
  8
細線
 48
50.0
100
AcDbLine
 10
10210.55292611775
 20
7699.767988609669
 30
0.0
 11
10302.05293435452
 21
7699.767988609669
 31
0.0
  0
LINE
  5
19783
330
747D
100
AcDbEntity
  8
細線
 48
50.0
100
AcDbLine
 10
10140.55293435452
 20
7699.767985859662
 30
0.0
 11
10070.55317825152
 21
7699.767991359697
 31
0.0
  0
LINE
  5
19784
330
747D
100
AcDbEntity
  8
細線
 48
50.0
100
AcDbLine
 10
10302.05294465634
 20
7728.768194781942
 30
0.0
 11
10302.05293435452
 21
7699.767988609669
 31
0.0
  0
LINE
  5
19785
330
747D
100
AcDbEntity
  8
細線
 48
50.0
100
AcDbLine
 10
10287.05294648581
 20
7728.768194781942
 30
0.0
 11
10302.05294465634
 21
7728.768194781942
 31
0.0
  0
LINE
  5
19786
330
747D
100
AcDbEntity
  8
細線
 48
50.0
100
AcDbLine
 10
10287.05293485184
 20
7721.768194781899
 30
0.0
 11
10287.05294648581
 21
7728.768194781942
 31
0.0
  0
LINE
  5
19787
330
747D
100
AcDbEntity
  8
細線
 48
50.0
100
AcDbLine
 10
10272.05293485184
 20
7721.768194781899
 30
0.0
 11
10287.05293485184
 21
7721.768194781899
 31
0.0
  0
LINE
  5
19788
330
747D
100
AcDbEntity
  8
細線
 48
50.0
100
AcDbLine
 10
10272.05293485184
 20
7716.9181947819
 30
0.0
 11
10272.05293485184
 21
7721.768194781899
 31
0.0
  0
LINE
  5
19789
330
747D
100
AcDbEntity
  8
細線
 48
50.0
100
AcDbLine
 10
10272.05293485184
 20
7720.368194781901
 30
0.0
 11
9799.052934354522
 21
7720.368194781896
 31
0.0
  0
LINE
  5
1978A
330
747D
100
AcDbEntity
  8
細線
 48
50.0
100
AcDbLine
 10
9780.052934354522
 20
7686.368150924032
 30
0.0
 11
9194.552939008111
 21
7686.368150924032
 31
0.0
  0
LINE
  5
1978B
330
747D
100
AcDbEntity
  8
細線
 48
50.0
100
AcDbLine
 10
9602.936026025215
 20
7684.039002214527
 30
0.0
 11
9608.691543607884
 21
7665.768150924034
 31
0.0
  0
LINE
  5
1978C
330
747D
100
AcDbEntity
  8
細線
 48
50.0
100
AcDbLine
 10
9592.007577544782
 20
7684.039002214523
 30
0.0
 11
9602.936026025215
 21
7684.039002214527
 31
0.0
  0
ARC
  5
1978D
330
747D
100
AcDbEntity
  8
細線
 48
50.0
100
AcDbCircle
 10
9586.553221487463
 20
7685.539002214523
 30
0.0
 40
5.0
100
AcDbArc
 50
204.6243183521304
 51
335.3756816478695
  0
ARC
  5
1978E
330
747D
100
AcDbEntity
  8
細線
 48
50.0
100
AcDbCircle
 10
9592.007577544782
 20
7683.039002214524
 30
0.0
 40
1.0
100
AcDbArc
 50
90.0
 51
155.3756816478695
  0
ARC
  5
1978F
330
747D
100
AcDbEntity
  8
細線
 48
50.0
100
AcDbCircle
 10
9581.098865430147
 20
7683.039002214524
 30
0.0
 40
1.0
100
AcDbArc
 50
24.62431835213048
 51
90.0
  0
LINE
  5
19790
330
747D
100
AcDbEntity
  8
細線
 48
50.0
100
AcDbLine
 10
9570.170416949714
 20
7684.039002214527
 30
0.0
 11
9581.098865430147
 21
7684.039002214523
 31
0.0
  0
LINE
  5
19791
330
747D
100
AcDbEntity
  8
細線
 48
50.0
100
AcDbLine
 10
9564.414899367045
 20
7665.768150924034
 30
0.0
 11
9570.170416949714
 21
7684.039002214527
 31
0.0
  0
LINE
  5
19792
330
747D
100
AcDbEntity
  8
細線
 48
50.0
100
AcDbLine
 10
9551.552934354518
 20
7665.768150924034
 30
0.0
 11
9621.552934354518
 21
7665.768150924034
 31
0.0
  0
LINE
  5
19793
330
747D
100
AcDbEntity
  8
細線
 48
50.0
100
AcDbLine
 10
9171.552934354521
 20
7665.765485267503
 30
0.0
 11
9481.553487458949
 21
7665.769372167699
 31
0.0
  0
LINE
  5
19794
330
747D
100
AcDbEntity
  8
細線
 48
50.0
100
AcDbLine
 10
9194.552939008111
 20
7694.764301331672
 30
0.0
 11
9180.552934354521
 21
7694.764301331668
 31
0.0
  0
LINE
  5
19795
330
747D
100
AcDbEntity
  8
細線
 48
50.0
100
AcDbLine
 10
9194.552939008111
 20
7686.368150924032
 30
0.0
 11
9194.552939008111
 21
7694.764301331672
 31
0.0
  0
LINE
  5
19796
330
747D
100
AcDbEntity
  8
細線
  6
Continuous
 62
     5
100
AcDbLine
 10
10274.05293950543
 20
7718.767976747074
 30
0.0
 11
10274.05293950543
 21
7718.767976747074
 31
0.0
  0
LINE
  5
19797
330
747D
100
AcDbEntity
  8
部品1
100
AcDbLine
 10
9171.552934354521
 20
7660.767976747078
 30
0.0
 11
10875.55293435452
 21
7660.767976747077
 31
0.0
  0
LINE
  5
19798
330
747D
100
AcDbEntity
  8
部品1
100
AcDbLine
 10
10845.55293435452
 20
7660.76797674708
 30
0.0
 11
10875.55293435452
 21
7660.76797674708
 31
0.0
  0
LINE
  5
19799
330
747D
100
AcDbEntity
  8
部品1
100
AcDbLine
 10
9168.55293435452
 20
7764.767976747075
 30
0.0
 11
10848.55293435452
 21
7764.767976747077
 31
0.0
  0
LINE
  5
1979A
330
747D
100
AcDbEntity
  8
部品1
100
AcDbLine
 10
9168.55293435452
 20
7764.767976747075
 30
0.0
 11
9168.55293435452
 21
7733.767976747079
 31
0.0
  0
LINE
  5
1979B
330
747D
100
AcDbEntity
  8
部品1
100
AcDbLine
 10
9180.552934354521
 20
7733.767976747079
 30
0.0
 11
9180.552934354521
 21
7669.767976747078
 31
0.0
  0
LINE
  5
1979C
330
747D
100
AcDbEntity
  8
部品1
100
AcDbLine
 10
9141.552934354519
 20
7660.767976747078
 30
0.0
 11
9141.552934354519
 21
7737.767976747078
 31
0.0
  0
LINE
  5
1979D
330
747D
100
AcDbEntity
  8
部品1
100
AcDbLine
 10
9171.552934354521
 20
7660.767976747078
 30
0.0
 11
9141.552934354519
 21
7660.767976747078
 31
0.0
  0
LINE
  5
1979E
330
747D
100
AcDbEntity
  8
部品1
100
AcDbLine
 10
9180.552934354521
 20
7669.767976747078
 30
0.0
 11
9171.552934354521
 21
7669.767976747078
 31
0.0
  0
LINE
  5
1979F
330
747D
100
AcDbEntity
  8
部品1
100
AcDbLine
 10
9171.552934354521
 20
7669.767976747078
 30
0.0
 11
9171.552934354521
 21
7660.767976747078
 31
0.0
  0
LINE
  5
197A0
330
747D
100
AcDbEntity
  8
部品1
100
AcDbLine
 10
9141.552934354519
 20
7737.767976747078
 30
0.0
 11
9168.55293435452
 21
7737.767976747078
 31
0.0
  0
LINE
  5
197A1
330
747D
100
AcDbEntity
  8
部品1
100
AcDbLine
 10
9180.552934354521
 20
7733.767976747079
 30
0.0
 11
9168.55293435452
 21
7733.767976747079
 31
0.0
  0
LINE
  5
197A2
330
747D
100
AcDbEntity
  8
部品1
100
AcDbLine
 10
10848.55293435452
 20
7764.767976747079
 30
0.0
 11
10848.55293435452
 21
7733.767976747079
 31
0.0
  0
LINE
  5
197A3
330
747D
100
AcDbEntity
  8
部品1
100
AcDbLine
 10
10836.55293435452
 20
7733.767976747079
 30
0.0
 11
10836.55293435452
 21
7669.767976747078
 31
0.0
  0
LINE
  5
197A4
330
747D
100
AcDbEntity
  8
部品1
100
AcDbLine
 10
10836.55293435452
 20
7669.767976747078
 30
0.0
 11
10845.55293435452
 21
7669.767976747078
 31
0.0
  0
LINE
  5
197A5
330
747D
100
AcDbEntity
  8
部品1
100
AcDbLine
 10
10845.55293435452
 20
7669.767976747078
 30
0.0
 11
10845.55293435452
 21
7660.76797674708
 31
0.0
  0
LINE
  5
197A6
330
747D
100
AcDbEntity
  8
部品1
100
AcDbLine
 10
10836.55293435452
 20
7733.767976747079
 30
0.0
 11
10848.55293435452
 21
7733.767976747079
 31
0.0
  0
LINE
  5
197A7
330
747D
100
AcDbEntity
  8
部品1
100
AcDbLine
 10
10875.55293435452
 20
7660.76797674708
 30
0.0
 11
10875.55293435452
 21
7737.767976747079
 31
0.0
  0
LINE
  5
197A9
330
747D
100
AcDbEntity
  8
部品1
100
AcDbLine
 10
10848.55293435452
 20
7737.767976747079
 30
0.0
 11
10875.55293435452
 21
7737.767976747079
 31
0.0
  0
DIMENSION
  5
197AA
330
747D
100
AcDbEntity
  8
寸法
 48
50.0
100
AcDbDimension
  2
*D29
 10
10130.55293435452
 20
7035.692958698854
 30
0.0
 11
9655.55293435452
 21
7035.692958698854
 31
0.0
 70
   160
  1
有効開口部間口\P<>
 71
     5
 42
950.0
  3
INABA_S40
100
AcDbAlignedDimension
 13
9180.552934354521
 23
7660.767976747078
 33
0.0
 14
10130.55293435452
 24
7660.767976747078
 34
0.0
100
AcDbRotatedDimension
1001
ACAD
1000
DSTYLE
1002
{
1070
    41
1040
0.5
1070
    44
1040
1.0
1070
   147
1040
0.8
1070
   271
1070
     2
1070
   272
1070
     2
1070
   289
1070
     3
1070
   340
1005
F706
1070
   343
1005
18509
1070
   344
1005
18509
1002
}
  0
LINE
  5
197AB
330
747D
100
AcDbEntity
  8
細線
100
AcDbLine
 10
9180.552934354521
 20
7669.767976747078
 30
0.0
 11
9180.552934354521
 21
7665.767976747125
 31
0.0
  0
LINE
  5
197AC
330
747D
100
AcDbEntity
  8
細線
100
AcDbLine
 10
9337.052827755782
 20
7683.767046292678
 30
0.0
 11
9337.052827755782
 21
7665.767046292653
 31
0.0
  0
LINE
  5
197AD
330
747D
100
AcDbEntity
  8
細線
100
AcDbLine
 10
9296.052827755783
 20
7683.767046292671
 30
0.0
 11
9296.052827755783
 21
7665.767046292653
 31
0.0
  0
LINE
  5
197AE
330
747D
100
AcDbEntity
  8
細線
100
AcDbLine
 10
9337.052827755782
 20
7683.767046292678
 30
0.0
 11
9296.052827755783
 21
7683.767046292671
 31
0.0
  0
ARC
  5
197AF
330
747D
100
AcDbEntity
  8
部品1
100
AcDbCircle
 10
9298.596983633059
 20
7665.267046292675
 30
0.0
 40
1.0
100
AcDbArc
 50
270.0
 51
19.47122063442214
  0
LINE
  5
197B0
330
747D
100
AcDbEntity
  8
部品1
 48
0.01
100
AcDbLine
 10
9291.552827755776
 20
7665.767046292675
 30
0.0
 11
9291.552827755776
 21
7664.767046292674
 31
0.0
  0
LINE
  5
197B1
330
747D
100
AcDbEntity
  8
部品1
 48
0.01
100
AcDbLine
 10
9292.052827755775
 20
7664.267046292675
 30
0.0
 11
9298.596983633059
 21
7664.267046292675
 31
0.0
  0
ARC
  5
197B2
330
747D
100
AcDbEntity
  8
部品1
 48
0.01
100
AcDbCircle
 10
9292.052827755775
 20
7664.767046292674
 30
0.0
 40
0.5
100
AcDbArc
 50
180.0
 51
270.0
  0
ARC
  5
197B3
330
747D
100
AcDbEntity
  8
部品1
100
AcDbCircle
 10
9324.052827755776
 20
7674.267046292674
 30
0.0
 40
26.0
100
AcDbArc
 50
180.0
 51
199.4712206344221
  0
ARC
  5
197B4
330
747D
100
AcDbEntity
  8
部品1
 48
0.01
100
AcDbCircle
 10
9300.052827755775
 20
7679.267046292675
 30
0.0
 40
2.0
100
AcDbArc
 50
90.0
 51
180.0
  0
LINE
  5
197B5
330
747D
100
AcDbEntity
  8
部品1
100
AcDbLine
 10
9298.052827755775
 20
7674.267046292674
 30
0.0
 11
9298.052827755775
 21
7679.267046292675
 31
0.0
  0
ARC
  5
197B6
330
747D
100
AcDbEntity
  8
部品1
100
AcDbCircle
 10
9316.552827755776
 20
7690.067046292677
 30
0.0
 40
16.0
100
AcDbArc
 50
218.3930440192126
 51
254.0576313943215
  0
ARC
  5
197B7
330
747D
100
AcDbEntity
  8
部品1
100
AcDbCircle
 10
9301.661219380587
 20
7678.267046292674
 30
0.0
 40
3.0
100
AcDbArc
 50
38.39304401921267
 51
90.0
  0
LINE
  5
197B8
330
747D
100
AcDbEntity
  8
部品1
 48
0.01
100
AcDbLine
 10
9300.052827755775
 20
7681.267046292674
 30
0.0
 11
9301.661219380587
 21
7681.267046292674
 31
0.0
  0
ARC
  5
197B9
330
747D
100
AcDbEntity
  8
部品1
100
AcDbCircle
 10
9316.552827755776
 20
7690.067046292677
 30
0.0
 40
16.0
100
AcDbArc
 50
285.9423686056786
 51
321.6069559807873
  0
LINE
  5
197BA
330
747D
100
AcDbEntity
  8
部品1
100
AcDbLine
 10
9320.123541970046
 20
7674.567046292678
 30
0.0
 11
9312.982113541504
 21
7674.567046292678
 31
0.0
  0
ARC
  5
197BB
330
747D
100
AcDbEntity
  8
部品1
100
AcDbCircle
 10
9320.123541970046
 20
7677.567046292677
 30
0.0
 40
3.0
100
AcDbArc
 50
270.0
 51
285.9423686056786
  0
ARC
  5
197BC
330
747D
100
AcDbEntity
  8
部品1
100
AcDbCircle
 10
9312.982113541504
 20
7677.567046292677
 30
0.0
 40
3.0
100
AcDbArc
 50
254.0576313943215
 51
270.0
  0
LINE
  5
197BD
330
747D
100
AcDbEntity
  8
部品1
 48
0.01
100
AcDbLine
 10
9333.052827755775
 20
7681.267046292674
 30
0.0
 11
9331.444436130963
 21
7681.267046292674
 31
0.0
  0
ARC
  5
197BE
330
747D
100
AcDbEntity
  8
部品1
100
AcDbCircle
 10
9331.444436130963
 20
7678.267046292674
 30
0.0
 40
3.0
100
AcDbArc
 50
90.0
 51
141.6069559807873
  0
ARC
  5
197BF
330
747D
100
AcDbEntity
  8
部品1
 48
0.01
100
AcDbCircle
 10
9333.052827755775
 20
7679.267046292675
 30
0.0
 40
2.0
100
AcDbArc
 50
0.0
 51
90.0
  0
LINE
  5
197C0
330
747D
100
AcDbEntity
  8
部品1
100
AcDbLine
 10
9335.052827755776
 20
7674.267046292674
 30
0.0
 11
9335.052827755776
 21
7679.267046292675
 31
0.0
  0
ARC
  5
197C1
330
747D
100
AcDbEntity
  8
部品1
100
AcDbCircle
 10
9309.052827755776
 20
7674.267046292674
 30
0.0
 40
26.0
100
AcDbArc
 50
340.5287793655779
 51
0.0
  0
ARC
  5
197C2
330
747D
100
AcDbEntity
  8
部品1
100
AcDbCircle
 10
9334.508671878491
 20
7665.267046292675
 30
0.0
 40
1.0
100
AcDbArc
 50
160.5287793655778
 51
270.0
  0
LINE
  5
197C3
330
747D
100
AcDbEntity
  8
部品1
 48
0.01
100
AcDbLine
 10
9341.052827755776
 20
7664.267046292675
 30
0.0
 11
9334.440322325711
 21
7664.267046292675
 31
0.0
  0
LINE
  5
197C4
330
747D
100
AcDbEntity
  8
部品1
 48
0.01
100
AcDbLine
 10
9341.552827755775
 20
7665.767046292675
 30
0.0
 11
9341.552827755775
 21
7664.767046292674
 31
0.0
  0
LINE
  5
197C5
330
747D
100
AcDbEntity
  8
部品1
 48
0.01
100
AcDbLine
 10
9341.552827755775
 20
7665.767046292675
 30
0.0
 11
9341.552827755775
 21
7664.767046292674
 31
0.0
  0
ARC
  5
197C6
330
747D
100
AcDbEntity
  8
部品1
 48
0.01
100
AcDbCircle
 10
9341.052827755776
 20
7664.767046292674
 30
0.0
 40
0.5
100
AcDbArc
 50
270.0
 51
0.0
  0
LINE
  5
197C7
330
747D
100
AcDbEntity
  8
細線
100
AcDbLine
 10
9481.552926169102
 20
7665.768168477743
 30
0.0
 11
9483.884464459871
 21
7670.768168477728
 31
0.0
  0
LINE
  5
197C8
330
747D
100
AcDbEntity
  8
細線
100
AcDbLine
 10
9551.552934354518
 20
7665.768150924034
 30
0.0
 11
9549.221387878331
 21
7670.76816847771
 31
0.0
  0
LINE
  5
197C9
330
747D
100
AcDbEntity
  8
細線
100
AcDbLine
 10
9549.221387878331
 20
7670.76816847771
 30
0.0
 11
9483.884464459858
 21
7670.768168477699
 31
0.0
  0
LINE
  5
197CA
330
747D
100
AcDbEntity
  8
細線
100
AcDbLine
 10
9689.221387878331
 20
7670.76816847771
 30
0.0
 11
9623.884464459857
 21
7670.768168477703
 31
0.0
  0
LINE
  5
197CB
330
747D
100
AcDbEntity
  8
細線
100
AcDbLine
 10
9691.552934354518
 20
7665.768150924034
 30
0.0
 11
9689.221387878331
 21
7670.76816847771
 31
0.0
  0
LINE
  5
197CC
330
747D
100
AcDbEntity
  8
細線
100
AcDbLine
 10
9621.552926169103
 20
7665.768168477746
 30
0.0
 11
9623.88446445987
 21
7670.768168477732
 31
0.0
  0
LINE
  5
197CD
330
747D
100
AcDbEntity
  8
細線
100
AcDbLine
 10
9928.221396063747
 20
7704.767996797001
 30
0.0
 11
9862.884472645275
 21
7704.767996796991
 31
0.0
  0
LINE
  5
197CE
330
747D
100
AcDbEntity
  8
細線
100
AcDbLine
 10
9930.552942539938
 20
7699.767979243325
 30
0.0
 11
9928.221396063747
 21
7704.767996797001
 31
0.0
  0
LINE
  5
197CF
330
747D
100
AcDbEntity
  8
細線
100
AcDbLine
 10
9860.552934354521
 20
7699.767996797034
 30
0.0
 11
9862.884472645289
 21
7704.76799679702
 31
0.0
  0
LINE
  5
197D0
330
747D
100
AcDbEntity
  8
細線
100
AcDbLine
 10
10000.55289903563
 20
7699.767988609664
 30
0.0
 11
10002.88443732639
 21
7704.76798860965
 31
0.0
  0
LINE
  5
197D1
330
747D
100
AcDbEntity
  8
細線
100
AcDbLine
 10
10070.55290722104
 20
7699.767971055955
 30
0.0
 11
10068.22136074485
 21
7704.767988609636
 31
0.0
  0
LINE
  5
197D2
330
747D
100
AcDbEntity
  8
細線
100
AcDbLine
 10
10068.22136074485
 20
7704.767988609636
 30
0.0
 11
10002.88443732638
 21
7704.767988609622
 31
0.0
  0
LINE
  5
197D3
330
747D
100
AcDbEntity
  8
細線
100
AcDbLine
 10
10208.22139729479
 20
7704.767968305894
 30
0.0
 11
10142.88447387632
 21
7704.76796830588
 31
0.0
  0
LINE
  5
197D4
330
747D
100
AcDbEntity
  8
細線
100
AcDbLine
 10
10210.55294377098
 20
7699.767950752214
 30
0.0
 11
10208.22139729479
 21
7704.767968305894
 31
0.0
  0
LINE
  5
197D5
330
747D
100
AcDbEntity
  8
細線
100
AcDbLine
 10
10140.55293435452
 20
7699.767965665947
 30
0.0
 11
10142.88447387633
 21
7704.767968305908
 31
0.0
  0
LINE
  5
197D6
330
747D
100
AcDbEntity
  8
細線
 48
50.0
100
AcDbLine
 10
10083.41515627907
 20
7699.767988609664
 30
0.0
 11
10089.17067386174
 21
7718.038839900159
 31
0.0
  0
LINE
  5
197D7
330
747D
100
AcDbEntity
  8
細線
 48
50.0
100
AcDbLine
 10
10089.17067386174
 20
7718.038839900159
 30
0.0
 11
10100.09912234217
 21
7718.038839900159
 31
0.0
  0
ARC
  5
197D8
330
747D
100
AcDbEntity
  8
細線
 48
50.0
100
AcDbCircle
 10
10100.09912234217
 20
7717.038839900158
 30
0.0
 40
1.0
100
AcDbArc
 50
24.62431835213048
 51
90.0
  0
ARC
  5
197D9
330
747D
100
AcDbEntity
  8
細線
 48
50.0
100
AcDbCircle
 10
10111.0078344568
 20
7717.038839900158
 30
0.0
 40
1.0
100
AcDbArc
 50
90.0
 51
155.3756816478695
  0
ARC
  5
197DA
330
747D
100
AcDbEntity
  8
細線
 48
50.0
100
AcDbCircle
 10
10105.55347839949
 20
7719.538839900159
 30
0.0
 40
5.0
100
AcDbArc
 50
204.6243183521304
 51
335.3756816478695
  0
LINE
  5
197DB
330
747D
100
AcDbEntity
  8
細線
 48
50.0
100
AcDbLine
 10
10111.0078344568
 20
7718.038839900159
 30
0.0
 11
10121.93628293723
 21
7718.038839900159
 31
0.0
  0
LINE
  5
197DC
330
747D
100
AcDbEntity
  8
細線
 48
50.0
100
AcDbLine
 10
10121.93628293723
 20
7718.038839900159
 30
0.0
 11
10127.6918005199
 21
7699.767988609671
 31
0.0
  0
LINE
  5
197DD
330
747D
100
AcDbEntity
  8
細線
100
AcDbLine
 10
10446.22139729479
 20
7738.767979387024
 30
0.0
 11
10380.88447387631
 21
7738.76797938701
 31
0.0
  0
LINE
  5
197DE
330
747D
100
AcDbEntity
  8
細線
100
AcDbLine
 10
10448.55294377098
 20
7733.767961833343
 30
0.0
 11
10446.22139729479
 21
7738.767979387024
 31
0.0
  0
LINE
  5
197DF
330
747D
100
AcDbEntity
  8
細線
100
AcDbLine
 10
10378.55293435452
 20
7733.767976747079
 30
0.0
 11
10380.88447387633
 21
7738.767979387039
 31
0.0
  0
LINE
  5
197E0
330
747D
100
AcDbEntity
  8
細線
100
AcDbLine
 10
10518.55292493806
 20
7733.767991660812
 30
0.0
 11
10520.88446445987
 21
7738.767994300774
 31
0.0
  0
LINE
  5
197E1
330
747D
100
AcDbEntity
  8
細線
100
AcDbLine
 10
10588.55293435452
 20
7733.767976747079
 30
0.0
 11
10586.22138787833
 21
7738.767994300758
 31
0.0
  0
LINE
  5
197E2
330
747D
100
AcDbEntity
  8
細線
100
AcDbLine
 10
10586.22138787833
 20
7738.767994300758
 30
0.0
 11
10520.88446445986
 21
7738.767994300744
 31
0.0
  0
LINE
  5
197E3
330
747D
100
AcDbEntity
  8
細線
100
AcDbLine
 10
10726.22138787833
 20
7738.767994300758
 30
0.0
 11
10660.88446445986
 21
7738.767994300744
 31
0.0
  0
LINE
  5
197E4
330
747D
100
AcDbEntity
  8
細線
100
AcDbLine
 10
10728.55293435452
 20
7733.767976747079
 30
0.0
 11
10726.22138787833
 21
7738.767994300758
 31
0.0
  0
LINE
  5
197E5
330
747D
100
AcDbEntity
  8
細線
100
AcDbLine
 10
10658.55292493806
 20
7733.767991660812
 30
0.0
 11
10660.88446445987
 21
7738.767994300774
 31
0.0
  0
LINE
  5
197E6
330
747D
100
AcDbEntity
  8
細線
 48
50.0
100
AcDbLine
 10
9769.052934354524
 20
7709.964231137981
 30
0.0
 11
9180.552934354521
 21
7709.964231137978
 31
0.0
  0
LINE
  5
197E7
330
747D
100
AcDbEntity
  8
細線
 48
50.0
100
AcDbLine
 10
9810.052934354523
 20
7680.559323141729
 30
0.0
 11
10836.55293435452
 21
7680.559323141728
 31
0.0
  0
LINE
  5
197E8
330
747D
100
AcDbEntity
  8
細線
 48
50.0
100
AcDbLine
 10
10302.05293950543
 20
7714.268091695804
 30
0.0
 11
10836.55293435452
 21
7714.268091695804
 31
0.0
  0
LINE
  5
197E9
330
747D
100
AcDbEntity
  8
寸法
 48
50.0
100
AcDbLine
 10
9753.05375333292
 20
7549.026684801278
 30
0.0
 11
9972.205693508643
 21
7549.026684801278
 31
0.0
  0
LINE
  5
197EA
330
747D
100
AcDbEntity
  8
寸法
 48
50.0
100
AcDbLine
 10
9972.205693508643
 20
7549.026684801278
 30
0.0
 11
9882.921474913221
 21
7572.950319070763
 31
0.0
  0
LINE
  5
197EB
330
747D
100
AcDbEntity
  8
寸法
 48
50.0
100
AcDbLine
 10
9882.921474913221
 20
7572.950319070763
 30
0.0
 11
9882.921474913221
 21
7519.286684488974
 31
0.0
  0
LINE
  5
197EC
330
747D
100
AcDbEntity
  8
寸法
 48
50.0
100
AcDbLine
 10
9552.349932726261
 20
7515.804728315941
 30
0.0
 11
9603.755940636366
 21
7515.804728315941
 31
0.0
  0
LINE
  5
197ED
330
747D
100
AcDbEntity
  8
寸法
 48
50.0
100
AcDbLine
 10
9603.755940636366
 20
7515.804728315941
 30
0.0
 11
9603.755940636366
 21
7547.114886968107
 31
0.0
  0
LINE
  5
197EE
330
747D
100
AcDbEntity
  8
寸法
 48
50.0
100
AcDbLine
 10
9603.755940636366
 20
7547.114886968107
 30
0.0
 11
9633.51727262779
 21
7547.114886968107
 31
0.0
  0
LINE
  5
197EF
330
747D
100
AcDbEntity
  8
寸法
 48
50.0
100
AcDbLine
 10
9633.51727262779
 20
7547.114886968107
 30
0.0
 11
9578.052936681315
 21
7584.694337896717
 31
0.0
  0
LINE
  5
197F0
330
747D
100
AcDbEntity
  8
寸法
 48
50.0
100
AcDbLine
 10
9522.588600734838
 20
7547.114886968107
 30
0.0
 11
9578.052936681315
 21
7584.694337896717
 31
0.0
  0
LINE
  5
197F1
330
747D
100
AcDbEntity
  8
寸法
 48
50.0
100
AcDbLine
 10
9552.349932726261
 20
7547.114886968107
 30
0.0
 11
9522.588600734838
 21
7547.114886968107
 31
0.0
  0
LINE
  5
197F2
330
747D
100
AcDbEntity
  8
寸法
 48
50.0
100
AcDbLine
 10
9552.349932726261
 20
7515.804728315941
 30
0.0
 11
9552.349932726261
 21
7547.114886968107
 31
0.0
  0
LINE
  5
197F3
330
747D
100
AcDbEntity
  8
寸法
 48
50.0
100
AcDbLine
 10
9603.755940636366
 20
7515.804728315941
 30
0.0
 11
9552.349932726261
 21
7515.804728315941
 31
0.0
  0
DIMENSION
  5
19A00
330
747D
100
AcDbEntity
  8
寸法
100
AcDbDimension
  2
*D30
 10
10903.55293435453
 20
6545.940186002204
 30
0.0
 11
9996.699684685905
 21
6545.940186002204
 31
0.0
 70
   160
 71
     5
 42
1789.999999999982
  3
INABA_S40G
100
AcDbAlignedDimension
 13
9113.552934354549
 23
7737.767976747107
 33
0.0
 14
10903.55293435453
 24
7737.767976747237
 34
0.0
100
AcDbRotatedDimension
1001
ACAD
1000
DSTYLE
1002
{
1002
}
  0
TEXT
  5
19A01
330
747D
100
AcDbEntity
  8
部品1
100
AcDbText
 10
9716.737211069368
 20
6073.798313141317
 30
0.0
 40
135.0
  1
平面図
  7
STYLE2
100
AcDbText
  0
LINE
  5
19A02
330
747D
100
AcDbEntity
  8
部品1
100
AcDbLine
 10
9626.817601240329
 20
6266.691842359841
 30
0.0
 11
9626.817601240329
 21
6026.799520814308
 31
0.0
  0
LINE
  5
19A03
330
747D
100
AcDbEntity
  8
部品1
100
AcDbLine
 10
9626.817601240329
 20
6026.799520814308
 30
0.0
 11
10390.28826746877
 21
6026.799520814308
 31
0.0
  0
LINE
  5
19A04
330
747D
100
AcDbEntity
  8
部品1
100
AcDbLine
 10
10390.28826746877
 20
6026.799520814308
 30
0.0
 11
10390.28826746877
 21
6266.691842359841
 31
0.0
  0
LINE
  5
19A05
330
747D
100
AcDbEntity
  8
部品1
100
AcDbLine
 10
10390.28826746877
 20
6266.691842359841
 30
0.0
 11
9626.817601240329
 21
6266.691842359841
 31
0.0
  0
DIMENSION
  5
19A06
330
747D
100
AcDbEntity
  8
寸法
100
AcDbDimension
  2
*D31
 10
8818.941688727832
 20
7662.767976747108
 30
0.0
 11
8818.94168872783
 21
7522.28269537287
 31
0.0
 70
   160
 71
     5
 42
75.0
  3
INABA_S40
100
AcDbAlignedDimension
 13
9113.552934354549
 23
7737.767976747107
 33
0.0
 14
9141.552934354526
 24
7662.767976747108
 34
0.0
 50
90.0
100
AcDbRotatedDimension
1001
ACAD
1000
DSTYLE
1002
{
1070
    41
1040
0.5
1070
    44
1040
1.0
1070
   147
1040
0.8
1070
   271
1070
     2
1070
   272
1070
     2
1070
   289
1070
     3
1070
   340
1005
F706
1070
   343
1005
18509
1070
   344
1005
18509
1002
}
  0
DIMENSION
  5
19A07
330
747D
100
AcDbEntity
  8
寸法
 48
50.0
100
AcDbDimension
  2
*D32
 10
10875.55293435452
 20
6785.697706896332
 30
0.0
 11
9999.134678306342
 21
6785.697706896332
 31
0.0
 70
   160
 71
     5
 42
1734.0
  3
INABA_S40G
100
AcDbAlignedDimension
 13
9141.552934354519
 23
7660.767976747113
 33
0.0
 14
10875.55293435452
 24
7660.767976747111
 34
0.0
100
AcDbRotatedDimension
1001
ACAD
1000
DSTYLE
1002
{
1070
   341
1005
0
1002
}
  0
LINE
  5
19CE8
330
747D
100
AcDbEntity
  8
破線
 48
10.0
100
AcDbLine
 10
9170.052934354595
 20
9213.267976747165
 30
0.0
 11
10423.55293435464
 21
9213.267976747172
 31
0.0
  0
LINE
  5
19CE9
330
747D
100
AcDbEntity
  8
破線
 48
10.0
100
AcDbLine
 10
9170.052934354597
 20
9163.267976747167
 30
0.0
 11
10423.55293435465
 21
9163.267976747162
 31
0.0
  0
LINE
  5
19CEA
330
747D
100
AcDbEntity
  8
破線
 48
10.0
100
AcDbLine
 10
9170.052934354629
 20
8472.267976747167
 30
0.0
 11
10423.55293435469
 21
8472.267976747161
 31
0.0
  0
LINE
  5
19CEB
330
747D
100
AcDbEntity
  8
破線
 48
10.0
100
AcDbLine
 10
9170.052934354627
 20
8522.267976747164
 30
0.0
 11
10423.55293435469
 21
8522.267976747166
 31
0.0
  0
LINE
  5
19CED
330
747D
100
AcDbEntity
  8
破線
 48
10.0
100
AcDbLine
 10
9193.552934354539
 20
8472.267976747167
 30
0.0
 11
9193.552934354546
 21
7817.767976747136
 31
0.0
  0
LWPOLYLINE
  5
19D32
330
747D
100
AcDbEntity
  8
部品1
 48
50.0
100
AcDbPolyline
 90
        4
 70
     1
 43
0.0
 10
9240.602934354528
 20
3512.400592134396
 10
9243.50293435453
 20
3512.400592134396
 10
9243.50293435453
 20
3521.900592134397
 10
9240.602934354528
 20
3521.900592134397
  0
CIRCLE
  5
19D33
330
747D
100
AcDbEntity
  8
部品1
 48
50.0
100
AcDbCircle
 10
9242.05293435453
 20
3517.150592134396
 30
0.0
 40
9.0
  0
ARC
  5
19D34
330
747D
100
AcDbEntity
  8
細線
 48
50.0
100
AcDbCircle
 10
9242.05293435453
 20
3517.150592134396
 30
0.0
 40
4.0
100
AcDbArc
 50
111.2538091853132
 51
248.7461908146868
  0
ARC
  5
19D35
330
747D
100
AcDbEntity
  8
細線
 48
50.0
100
AcDbCircle
 10
9242.05293435453
 20
3517.150592134396
 30
0.0
 40
17.5
100
AcDbArc
 50
306.4837370612677
 51
233.5162629387323
  0
LINE
  5
19D36
330
747D
100
AcDbEntity
  8
細線
 48
50.0
100
AcDbLine
 10
9252.052934354527
 20
3493.291631553513
 30
0.0
 11
9252.052934354528
 21
3502.276117353755
 31
0.0
  0
LINE
  5
19D37
330
747D
100
AcDbEntity
  8
細線
 48
50.0
100
AcDbLine
 10
9232.052934354531
 20
3493.291631553515
 30
0.0
 11
9232.052934354531
 21
3502.276117353751
 31
0.0
  0
ARC
  5
19D38
330
747D
100
AcDbEntity
  8
細線
 48
50.0
100
AcDbCircle
 10
9242.05293435453
 20
3517.150592134396
 30
0.0
 40
26.5
100
AcDbArc
 50
249.3326835063939
 51
290.6673164933835
  0
ARC
  5
19D39
330
747D
100
AcDbEntity
  8
細線
 48
50.0
100
AcDbCircle
 10
9251.052934354524
 20
3493.291631553513
 30
0.0
 40
1.0
100
AcDbArc
 50
290.6673164936062
 51
359.9999999998958
  0
ARC
  5
19D3A
330
747D
100
AcDbEntity
  8
細線
 48
50.0
100
AcDbCircle
 10
9233.05293435453
 20
3493.291631553515
 30
0.0
 40
1.0
100
AcDbArc
 50
180.0
 51
249.3326835066164
  0
ARC
  5
19D3B
330
747D
100
AcDbEntity
  8
細線
 48
50.0
100
AcDbCircle
 10
9231.052934354529
 20
3502.276117353751
 30
0.0
 40
1.0
100
AcDbArc
 50
0.0
 51
53.51626293873231
  0
ARC
  5
19D3C
330
747D
100
AcDbEntity
  8
細線
 48
50.0
100
AcDbCircle
 10
9253.052934354533
 20
3502.276117353755
 30
0.0
 40
1.0
100
AcDbArc
 50
126.4837370615127
 51
180.0
  0
ARC
  5
19D3D
330
747D
100
AcDbEntity
  8
細線
 48
50.0
100
AcDbCircle
 10
9242.05293435453
 20
3517.150592134396
 30
0.0
 40
21.5
100
AcDbArc
 50
255.8014401250294
 51
284.1985598749706
  0
ARC
  5
19D3E
330
747D
100
AcDbEntity
  8
細線
 48
50.0
100
AcDbCircle
 10
9242.05293435453
 20
3517.150592134396
 30
0.0
 40
16.5
100
AcDbArc
 50
251.9694646069326
 51
288.0305353930674
  0
LINE
  5
19D3F
330
747D
100
AcDbEntity
  8
細線
 48
50.0
100
AcDbLine
 10
9247.552934354528
 20
3496.598220008589
 30
0.0
 11
9247.552934354528
 21
3501.175611695926
 31
0.0
  0
LINE
  5
19D40
330
747D
100
AcDbEntity
  8
細線
 48
50.0
100
AcDbLine
 10
9236.552934354529
 20
3496.598220008589
 30
0.0
 11
9236.552934354529
 21
3501.175611695924
 31
0.0
  0
ARC
  5
19D41
330
747D
100
AcDbEntity
  8
細線
 48
50.0
100
AcDbCircle
 10
9236.852934354532
 20
3501.175611695924
 30
0.0
 40
0.3
100
AcDbArc
 50
71.96946460693259
 51
180.0
  0
ARC
  5
19D42
330
747D
100
AcDbEntity
  8
細線
 48
50.0
100
AcDbCircle
 10
9247.252934354531
 20
3501.175611695926
 30
0.0
 40
0.3
100
AcDbArc
 50
0.0
 51
108.0305353930674
  0
ARC
  5
19D43
330
747D
100
AcDbEntity
  8
細線
 48
50.0
100
AcDbCircle
 10
9247.252934354525
 20
3496.598220008589
 30
0.0
 40
0.3
100
AcDbArc
 50
284.1985598747622
 51
0.0000000001042204
  0
ARC
  5
19D44
330
747D
100
AcDbEntity
  8
細線
 48
50.0
100
AcDbCircle
 10
9236.852934354532
 20
3496.598220008589
 30
0.0
 40
0.3
100
AcDbArc
 50
180.0
 51
255.8014401248081
  0
CIRCLE
  5
19D45
330
747D
100
AcDbEntity
  8
細線
 48
50.0
100
AcDbCircle
 10
9242.05293435453
 20
3517.150592134396
 30
0.0
 40
12.0
  0
ARC
  5
19D46
330
747D
100
AcDbEntity
  8
部品1
 48
50.0
100
AcDbCircle
 10
9242.05293435453
 20
3567.150592134396
 30
0.0
 40
8.5
100
AcDbArc
 50
114.315739171091
 51
245.684260828909
  0
CIRCLE
  5
19D47
330
747D
100
AcDbEntity
  8
細線
 48
50.0
100
AcDbCircle
 10
9242.05293435453
 20
3567.150592134396
 30
0.0
 40
4.5
  0
LWPOLYLINE
  5
19D48
330
747D
100
AcDbEntity
  8
部品1
 48
50.0
100
AcDbPolyline
 90
        2
 70
     0
 43
0.0
 10
9238.55293435453
 20
3585.825441531379
 10
9238.55293435453
 20
3574.896558826811
  0
CIRCLE
  5
19D49
330
747D
100
AcDbEntity
  8
部品1
 48
50.0
100
AcDbCircle
 10
9242.05293435453
 20
3567.150592134396
 30
0.0
 40
19.0
  0
LWPOLYLINE
  5
19D4A
330
747D
100
AcDbEntity
  8
部品1
 48
50.0
100
AcDbPolyline
 90
        2
 70
     0
 43
0.0
 10
9238.55293435453
 20
3559.404625441981
 10
9238.55293435453
 20
3548.475742737414
  0
LWPOLYLINE
  5
19D4B
330
747D
100
AcDbEntity
  8
部品1
 48
50.0
100
AcDbPolyline
 90
        2
 70
     0
 43
0.0
 10
9245.552934354529
 20
3574.896558826811
 10
9245.552934354529
 20
3585.825441531379
  0
ARC
  5
19D4C
330
747D
100
AcDbEntity
  8
部品1
 48
50.0
100
AcDbCircle
 10
9242.05293435453
 20
3567.150592134396
 30
0.0
 40
8.5
100
AcDbArc
 50
294.315739171091
 51
65.68426082890896
  0
LWPOLYLINE
  5
19D4D
330
747D
100
AcDbEntity
  8
部品1
 48
50.0
100
AcDbPolyline
 90
        2
 70
     0
 43
0.0
 10
9245.552934354529
 20
3548.475742737414
 10
9245.552934354529
 20
3559.404625441981
  0
ARC
  5
19D4E
330
747D
100
AcDbEntity
  8
細線
 48
50.0
100
AcDbCircle
 10
9242.05293435453
 20
3567.150592134396
 30
0.0
 40
16.5
100
AcDbArc
 50
332.0012352654438
 51
27.99876473455621
  0
ARC
  5
19D4F
330
747D
100
AcDbEntity
  8
細線
 48
50.0
100
AcDbCircle
 10
9242.05293435453
 20
3567.150592134396
 30
0.0
 40
14.0
100
AcDbArc
 50
326.4074436112986
 51
33.59255638870134
  0
LINE
  5
19D50
330
747D
100
AcDbEntity
  8
細線
 48
50.0
100
AcDbLine
 10
9227.484132070198
 20
3574.896558826811
 30
0.0
 11
9230.39103056484
 21
3574.896558826811
 31
0.0
  0
LINE
  5
19D51
330
747D
100
AcDbEntity
  8
細線
 48
50.0
100
AcDbLine
 10
9227.484132070198
 20
3559.404625441981
 30
0.0
 11
9230.39103056484
 21
3559.404625441981
 31
0.0
  0
LINE
  5
19D52
330
747D
100
AcDbEntity
  8
細線
 48
50.0
100
AcDbLine
 10
9253.714838144217
 20
3574.896558826811
 30
0.0
 11
9256.621736638864
 21
3574.896558826811
 31
0.0
  0
LINE
  5
19D53
330
747D
100
AcDbEntity
  8
細線
 48
50.0
100
AcDbLine
 10
9253.714838144217
 20
3559.404625441981
 30
0.0
 11
9256.621736638864
 21
3559.404625441981
 31
0.0
  0
ARC
  5
19D54
330
747D
100
AcDbEntity
  8
細線
 48
50.0
100
AcDbCircle
 10
9242.05293435453
 20
3567.150592134396
 30
0.0
 40
14.0
100
AcDbArc
 50
146.4074436112986
 51
213.5925563887013
  0
ARC
  5
19D55
330
747D
100
AcDbEntity
  8
細線
 48
50.0
100
AcDbCircle
 10
9242.05293435453
 20
3567.150592134396
 30
0.0
 40
16.5
100
AcDbArc
 50
152.0012352654438
 51
207.9987647345562
  0
ARC
  5
19D56
330
747D
100
AcDbEntity
  8
部品1
 48
50.0
100
AcDbCircle
 10
9215.55293435453
 20
3592.650592134396
 30
0.0
 40
5.0
100
AcDbArc
 50
90.0
 51
180.0
  0
ARC
  5
19D57
330
747D
100
AcDbEntity
  8
部品1
 48
50.0
100
AcDbCircle
 10
9215.55293435453
 20
3481.650592134396
 30
0.0
 40
5.0
100
AcDbArc
 50
180.0
 51
270.0
  0
ARC
  5
19D58
330
747D
100
AcDbEntity
  8
部品1
 48
50.0
100
AcDbCircle
 10
9268.552934354529
 20
3481.650592134396
 30
0.0
 40
5.0
100
AcDbArc
 50
270.0
 51
0.0
  0
ARC
  5
19D59
330
747D
100
AcDbEntity
  8
部品1
 48
50.0
100
AcDbCircle
 10
9268.552934354529
 20
3592.650592134396
 30
0.0
 40
5.0
100
AcDbArc
 50
0.0
 51
90.0
  0
LINE
  5
19D5B
330
747D
100
AcDbEntity
  8
部品1
 48
50.0
100
AcDbLine
 10
9210.552934354529
 20
3481.650592134396
 30
0.0
 11
9210.552934354529
 21
3592.650592134396
 31
0.0
  0
LINE
  5
19D5C
330
747D
100
AcDbEntity
  8
部品1
 48
50.0
100
AcDbLine
 10
9268.552934354529
 20
3476.650592134396
 30
0.0
 11
9215.55293435453
 21
3476.650592134396
 31
0.0
  0
LINE
  5
19D5D
330
747D
100
AcDbEntity
  8
部品1
 48
50.0
100
AcDbLine
 10
9273.55293435453
 20
3592.650592134396
 30
0.0
 11
9273.55293435453
 21
3481.650592134396
 31
0.0
  0
ENDSEC
  0
SECTION
  2
OBJECTS
  0
DICTIONARY
  5
7471
330
0
100
AcDbDictionary
281
     1
  3
ACAD_COLOR
350
184FE
  3
ACAD_GROUP
350
7472
  3
ACAD_LAYOUT
350
184FF
  3
ACAD_MATERIAL
350
184FD
  3
ACAD_MLINESTYLE
350
7473
  3
ACAD_PLOTSETTINGS
350
18500
  3
ACAD_PLOTSTYLENAME
350
184FB
  3
ACDBHEADERROUNDTRIPXREC
350
19D6C
  3
AcDbVariableDictionary
350
19D68
  3
CONTENTDICTIONARY
350
E71C
  3
DRAWINGVARIABLESDICT
350
F3B9
  0
DICTIONARY
  5
1867F
330
7467
100
AcDbDictionary
280
     1
281
     1
  3
ACAD_LAYERSTATES
360
18680
  0
DICTIONARY
  5
184FE
102
{ACAD_REACTORS
330
7471
102
}
330
7471
100
AcDbDictionary
281
     1
  0
DICTIONARY
  5
7472
102
{ACAD_REACTORS
330
7471
102
}
330
7471
100
AcDbDictionary
281
     1
  0
DICTIONARY
  5
184FF
102
{ACAD_REACTORS
330
7471
102
}
330
7471
100
AcDbDictionary
281
     1
  3
Model
350
18501
  3
レイアウト1
350
18502
  0
DICTIONARY
  5
184FD
102
{ACAD_REACTORS
330
7471
102
}
330
7471
100
AcDbDictionary
281
     1
  0
DICTIONARY
  5
7473
102
{ACAD_REACTORS
330
7471
102
}
330
7471
100
AcDbDictionary
281
     1
  3
STANDARD
350
7480
  0
DICTIONARY
  5
18500
102
{ACAD_REACTORS
330
7471
102
}
330
7471
100
AcDbDictionary
281
     1
  0
ACDBDICTIONARYWDFLT
  5
184FB
102
{ACAD_REACTORS
330
7471
102
}
330
7471
100
AcDbDictionary
281
     1
  3
Normal
350
184FC
100
AcDbDictionaryWithDefault
340
184FC
  0
DICTIONARY
  5
19D6C
102
{ACAD_REACTORS
330
7471
102
}
330
7471
100
AcDbDictionary
281
     1
  3
COLORDICT
350
19D6E
  3
MATERIALDICT
350
19D6D
  0
DICTIONARY
  5
19D68
102
{ACAD_REACTORS
330
7471
102
}
330
7471
100
AcDbDictionary
281
     1
  3
DIMASSOC
350
19D69
  3
PROJECTNAME
350
19D6A
  0
DICTIONARY
  5
E71C
102
{ACAD_REACTORS
330
7471
102
}
330
7471
100
AcDbDictionary
281
     1
  0
DICTIONARY
  5
F3B9
102
{ACAD_REACTORS
330
7471
102
}
330
7471
100
AcDbDictionary
281
     1
1001
DRAWINGVARIABLESXDATA
1000
POLARMODE
1000
1
  0
DICTIONARY
  5
18680
102
{ACAD_REACTORS
330
1867F
102
}
330
1867F
100
AcDbDictionary
281
     1
  0
LAYOUT
  5
18501
102
{ACAD_XDICTIONARY
360
19D6F
102
}
102
{ACAD_REACTORS
330
184FF
102
}
330
184FF
100
AcDbPlotSettings
  1

  2
Microsoft Office Document Image Writer
  4

  6

 40
0.0
 41
0.0
 42
0.0
 43
0.0
 44
0.0
 45
0.0
 46
0.0
 47
0.0
 48
0.0
 49
0.0
140
0.0
141
0.0
142
1.0
143
1.0
 70
  1712
 72
     0
 73
     0
 74
     0
  7

 75
     0
147
1.0
148
0.0
149
0.0
100
AcDbLayout
  1
Model
 70
     1
 71
     0
 10
0.0
 20
0.0
 11
12.0
 21
9.0
 12
0.0
 22
0.0
 32
0.0
 14
0.0
 24
0.0
 34
0.0
 15
0.0
 25
0.0
 35
0.0
146
0.0
 13
0.0
 23
0.0
 33
0.0
 16
1.0
 26
0.0
 36
0.0
 17
0.0
 27
1.0
 37
0.0
 76
     0
330
747D
  0
LAYOUT
  5
18502
102
{ACAD_XDICTIONARY
360
19D71
102
}
102
{ACAD_REACTORS
330
184FF
102
}
330
184FF
100
AcDbPlotSettings
  1

  2
Microsoft Office Document Image Writer
  4

  6

 40
0.0
 41
0.0
 42
0.0
 43
0.0
 44
0.0
 45
0.0
 46
0.0
 47
0.0
 48
0.0
 49
0.0
140
0.0
141
0.0
142
1.0
143
1.0
 70
   688
 72
     0
 73
     0
 74
     5
  7

 75
    16
147
1.0
148
0.0
149
0.0
100
AcDbLayout
  1
レイアウト1
 70
     0
 71
     1
 10
0.0
 20
0.0
 11
420.0
 21
297.0
 12
0.0
 22
0.0
 32
0.0
 14
1.000000000000000E+20
 24
1.000000000000000E+20
 34
1.000000000000000E+20
 15
-1.000000000000000E+20
 25
-1.000000000000000E+20
 35
-1.000000000000000E+20
146
0.0
 13
0.0
 23
0.0
 33
0.0
 16
1.0
 26
0.0
 36
0.0
 17
0.0
 27
1.0
 37
0.0
 76
     0
330
747A
  0
MLINESTYLE
  5
7480
102
{ACAD_REACTORS
330
7473
102
}
330
7473
100
AcDbMlineStyle
  2
STANDARD
 70
     0
  3

 62
     0
 51
90.0
 52
90.0
 71
     2
 49
0.5
 62
   256
  6
BYLAYER
 49
-0.5
 62
   256
  6
BYLAYER
  0
ACDBPLACEHOLDER
  5
184FC
102
{ACAD_REACTORS
330
184FB
102
}
330
184FB
  0
XRECORD
  5
19D6E
102
{ACAD_REACTORS
330
19D6C
102
}
330
19D6C
100
AcDbXrecord
280
     1
340
184FE
  0
XRECORD
  5
19D6D
102
{ACAD_REACTORS
330
19D6C
102
}
330
19D6C
100
AcDbXrecord
280
     1
340
184FD
  0
DICTIONARYVAR
  5
19D69
102
{ACAD_REACTORS
330
19D68
102
}
330
19D68
100
DictionaryVariables
280
     0
  1
1
  0
DICTIONARYVAR
  5
19D6A
102
{ACAD_REACTORS
330
19D68
102
}
330
19D68
100
DictionaryVariables
280
     0
  1

  0
DICTIONARY
  5
19D6F
330
18501
100
AcDbDictionary
280
     1
281
     1
  3
ACAD_XREC_ROUNDTRIP
360
19D70
  0
DICTIONARY
  5
19D71
330
18502
100
AcDbDictionary
280
     1
281
     1
  3
ACAD_XREC_ROUNDTRIP
360
19D72
  0
XRECORD
  5
19D70
102
{ACAD_REACTORS
330
19D6F
102
}
330
19D6F
100
AcDbXrecord
280
     1
102
SHADEPLOT
 70
     0
102
SHADEPLOTRESLEVEL
 70
     2
102
SHADEPLOTCUSTOMDPI
 70
   300
  0
XRECORD
  5
19D72
102
{ACAD_REACTORS
330
19D71
102
}
330
19D71
100
AcDbXrecord
280
     1
102
SHADEPLOT
 70
     0
102
SHADEPLOTRESLEVEL
 70
     2
102
SHADEPLOTCUSTOMDPI
 70
   300
  0
ENDSEC
  0
EOF
