  0
SECTION
  2
HEADER
  9
$ACADVER
  1
AC1015
  9
$ACADMAINTVER
 70
    20
  9
$DWGCODEPAGE
  3
ANSI_932
  9
$INSBASE
 10
0.0
 20
0.0
 30
0.0
  9
$EXTMIN
 10
139.9999999999995
 20
-0.0000000000000909
 30
0.0
  9
$EXTMAX
 10
16307.2
 20
11409.6
 30
0.0
  9
$LIMMIN
 10
0.0
 20
0.0
  9
$LIMMAX
 10
16800.0
 20
11880.0
  9
$ORTHOMODE
 70
     0
  9
$REGENMODE
 70
     1
  9
$FILLMODE
 70
     1
  9
$QTEXTMODE
 70
     0
  9
$MIRRTEXT
 70
     1
  9
$LTSCALE
 40
20.0
  9
$ATTMODE
 70
     1
  9
$TEXTSIZE
 40
4.0
  9
$TRACEWID
 40
1.0
  9
$TEXTSTYLE
  7
STYLE1
  9
$CLAYER
  8
寸法
  9
$CELTYPE
  6
BYLAYER
  9
$CECOLOR
 62
   256
  9
$CELTSCALE
 40
50.0
  9
$DISPSILH
 70
     0
  9
$DIMSCALE
 40
40.0
  9
$DIMASZ
 40
2.5
  9
$DIMEXO
 40
0.5
  9
$DIMDLI
 40
7.0
  9
$DIMRND
 40
0.0
  9
$DIMDLE
 40
0.0
  9
$DIMEXE
 40
1.5
  9
$DIMTP
 40
0.0
  9
$DIMTM
 40
0.0
  9
$DIMTXT
 40
3.0
  9
$DIMCEN
 40
0.0
  9
$DIMTSZ
 40
0.0
  9
$DIMTOL
 70
     0
  9
$DIMLIM
 70
     0
  9
$DIMTIH
 70
     0
  9
$DIMTOH
 70
     0
  9
$DIMSE1
 70
     0
  9
$DIMSE2
 70
     0
  9
$DIMTAD
 70
     3
  9
$DIMZIN
 70
     8
  9
$DIMBLK
  1

  9
$DIMASO
 70
     1
  9
$DIMSHO
 70
     1
  9
$DIMPOST
  1

  9
$DIMAPOST
  1

  9
$DIMALT
 70
     0
  9
$DIMALTD
 70
     2
  9
$DIMALTF
 40
0.0394
  9
$DIMLFAC
 40
1.0
  9
$DIMTOFL
 70
     1
  9
$DIMTVP
 40
0.0
  9
$DIMTIX
 70
     1
  9
$DIMSOXD
 70
     0
  9
$DIMSAH
 70
     1
  9
$DIMBLK1
  1
DOTSMALL
  9
$DIMBLK2
  1
DOTSMALL
  9
$DIMSTYLE
  2
INABA_S40G
  9
$DIMCLRD
 70
     0
  9
$DIMCLRE
 70
     0
  9
$DIMCLRT
 70
     7
  9
$DIMTFAC
 40
1.0
  9
$DIMGAP
 40
1.0
  9
$DIMJUST
 70
     0
  9
$DIMSD1
 70
     0
  9
$DIMSD2
 70
     0
  9
$DIMTOLJ
 70
     1
  9
$DIMTZIN
 70
     0
  9
$DIMALTZ
 70
     0
  9
$DIMALTTZ
 70
     0
  9
$DIMUPT
 70
     1
  9
$DIMDEC
 70
     1
  9
$DIMTDEC
 70
     4
  9
$DIMALTU
 70
     2
  9
$DIMALTTD
 70
     2
  9
$DIMTXSTY
  7
STYLE1
  9
$DIMAUNIT
 70
     0
  9
$DIMADEC
 70
     0
  9
$DIMALTRND
 40
0.0
  9
$DIMAZIN
 70
     0
  9
$DIMDSEP
 70
    46
  9
$DIMATFIT
 70
     3
  9
$DIMFRAC
 70
     0
  9
$DIMLDRBLK
  1

  9
$DIMLUNIT
 70
     2
  9
$DIMLWD
 70
    -2
  9
$DIMLWE
 70
    -2
  9
$DIMTMOVE
 70
     0
  9
$LUNITS
 70
     2
  9
$LUPREC
 70
     1
  9
$SKETCHINC
 40
1.0
  9
$FILLETRAD
 40
3.0
  9
$AUNITS
 70
     0
  9
$AUPREC
 70
     0
  9
$MENU
  1
acad
  9
$ELEVATION
 40
0.0
  9
$PELEVATION
 40
0.0
  9
$THICKNESS
 40
0.0
  9
$LIMCHECK
 70
     0
  9
$CHAMFERA
 40
0.0
  9
$CHAMFERB
 40
0.0
  9
$CHAMFERC
 40
0.0
  9
$CHAMFERD
 40
0.0
  9
$SKPOLY
 70
     0
  9
$TDCREATE
 40
2451368.612993866
  9
$TDUCREATE
 40
2451368.237993866
  9
$TDUPDATE
 40
2455575.686177836
  9
$TDUUPDATE
 40
2455575.311177836
  9
$TDINDWG
 40
0.6581090856
  9
$TDUSRTIMER
 40
0.6581090856
  9
$USRTIMER
 70
     1
  9
$ANGBASE
 50
0.0
  9
$ANGDIR
 70
     0
  9
$PDMODE
 70
     3
  9
$PDSIZE
 40
2.0
  9
$PLINEWID
 40
0.0
  9
$SPLFRAME
 70
     0
  9
$SPLINETYPE
 70
     6
  9
$SPLINESEGS
 70
     8
  9
$HANDSEED
  5
1B51D
  9
$SURFTAB1
 70
     6
  9
$SURFTAB2
 70
     6
  9
$SURFTYPE
 70
     6
  9
$SURFU
 70
     6
  9
$SURFV
 70
     6
  9
$UCSBASE
  2

  9
$UCSNAME
  2

  9
$UCSORG
 10
0.0
 20
0.0
 30
0.0
  9
$UCSXDIR
 10
1.0
 20
0.0
 30
0.0
  9
$UCSYDIR
 10
0.0
 20
1.0
 30
0.0
  9
$UCSORTHOREF
  2

  9
$UCSORTHOVIEW
 70
     0
  9
$UCSORGTOP
 10
0.0
 20
0.0
 30
0.0
  9
$UCSORGBOTTOM
 10
0.0
 20
0.0
 30
0.0
  9
$UCSORGLEFT
 10
0.0
 20
0.0
 30
0.0
  9
$UCSORGRIGHT
 10
0.0
 20
0.0
 30
0.0
  9
$UCSORGFRONT
 10
0.0
 20
0.0
 30
0.0
  9
$UCSORGBACK
 10
0.0
 20
0.0
 30
0.0
  9
$PUCSBASE
  2

  9
$PUCSNAME
  2

  9
$PUCSORG
 10
0.0
 20
0.0
 30
0.0
  9
$PUCSXDIR
 10
1.0
 20
0.0
 30
0.0
  9
$PUCSYDIR
 10
0.0
 20
1.0
 30
0.0
  9
$PUCSORTHOREF
  2

  9
$PUCSORTHOVIEW
 70
     0
  9
$PUCSORGTOP
 10
0.0
 20
0.0
 30
0.0
  9
$PUCSORGBOTTOM
 10
0.0
 20
0.0
 30
0.0
  9
$PUCSORGLEFT
 10
0.0
 20
0.0
 30
0.0
  9
$PUCSORGRIGHT
 10
0.0
 20
0.0
 30
0.0
  9
$PUCSORGFRONT
 10
0.0
 20
0.0
 30
0.0
  9
$PUCSORGBACK
 10
0.0
 20
0.0
 30
0.0
  9
$USERI1
 70
     0
  9
$USERI2
 70
     0
  9
$USERI3
 70
     0
  9
$USERI4
 70
     0
  9
$USERI5
 70
     0
  9
$USERR1
 40
0.0
  9
$USERR2
 40
0.0
  9
$USERR3
 40
0.0
  9
$USERR4
 40
0.0
  9
$USERR5
 40
0.0
  9
$WORLDVIEW
 70
     1
  9
$SHADEDGE
 70
     3
  9
$SHADEDIF
 70
    70
  9
$TILEMODE
 70
     1
  9
$MAXACTVP
 70
    16
  9
$PINSBASE
 10
0.0
 20
0.0
 30
0.0
  9
$PLIMCHECK
 70
     0
  9
$PEXTMIN
 10
1.000000000000000E+20
 20
1.000000000000000E+20
 30
1.000000000000000E+20
  9
$PEXTMAX
 10
-1.000000000000000E+20
 20
-1.000000000000000E+20
 30
-1.000000000000000E+20
  9
$PLIMMIN
 10
0.0
 20
0.0
  9
$PLIMMAX
 10
420.0
 20
297.0
  9
$UNITMODE
 70
     0
  9
$VISRETAIN
 70
     0
  9
$PLINEGEN
 70
     0
  9
$PSLTSCALE
 70
     0
  9
$TREEDEPTH
 70
  3020
  9
$CMLSTYLE
  2
STANDARD
  9
$CMLJUST
 70
     0
  9
$CMLSCALE
 40
1.0
  9
$PROXYGRAPHICS
 70
     1
  9
$MEASUREMENT
 70
     1
  9
$CELWEIGHT
370
    -1
  9
$ENDCAPS
280
     0
  9
$JOINSTYLE
280
     0
  9
$LWDISPLAY
290
     0
  9
$INSUNITS
 70
     0
  9
$HYPERLINKBASE
  1

  9
$STYLESHEET
  1

  9
$XEDIT
290
     1
  9
$CEPSNTYPE
380
     0
  9
$PSTYLEMODE
290
     1
  9
$FINGERPRINTGUID
  2
{1651B6C8-1AC2-4789-9CBA-D5D4046026B4}
  9
$VERSIONGUID
  2
{E3683BED-E012-43DE-A6BC-C0CD98135DB3}
  9
$EXTNAMES
290
     1
  9
$PSVPSCALE
 40
0.0
  9
$OLESTARTUP
290
     0
  0
ENDSEC
  0
SECTION
  2
CLASSES
  0
CLASS
  1
ACDBDICTIONARYWDFLT
  2
AcDbDictionaryWithDefault
  3
ObjectDBX Classes
 90
        0
280
     0
281
     0
  0
CLASS
  1
DICTIONARYVAR
  2
AcDbDictionaryVar
  3
ObjectDBX Classes
 90
        0
280
     0
281
     0
  0
CLASS
  1
ACDBPLACEHOLDER
  2
AcDbPlaceHolder
  3
ObjectDBX Classes
 90
        0
280
     0
281
     0
  0
CLASS
  1
LAYOUT
  2
AcDbLayout
  3
ObjectDBX Classes
 90
        0
280
     0
281
     0
  0
ENDSEC
  0
SECTION
  2
TABLES
  0
TABLE
  2
VPORT
  5
746D
330
0
100
AcDbSymbolTable
 70
     2
  0
VPORT
  5
1B515
330
746D
100
AcDbSymbolTableRecord
100
AcDbViewportTableRecord
  2
*Active
 70
     0
 10
0.0
 20
0.0
 11
1.0
 21
1.0
 12
8223.761025238502
 22
6348.703162895247
 13
0.0
 23
0.0
 14
10.0
 24
10.0
 15
10.0
 25
10.0
 16
0.0
 26
0.0
 36
1.0
 17
0.0
 27
0.0
 37
0.0
 40
12805.60689082044
 41
1.525925925925925
 42
50.0
 43
0.0
 44
0.0
 50
0.0
 51
0.0
 71
     0
 72
     0
 73
     1
 74
     0
 75
     0
 76
     0
 77
     0
 78
     0
281
     0
 65
     1
110
0.0
120
0.0
130
0.0
111
1.0
121
0.0
131
0.0
112
0.0
122
1.0
132
0.0
 79
     0
146
0.0
  0
ENDTAB
  0
TABLE
  2
LTYPE
  5
746A
330
0
100
AcDbSymbolTable
 70
     4
  0
LTYPE
  5
7477
330
746A
100
AcDbSymbolTableRecord
100
AcDbLinetypeTableRecord
  2
BYBLOCK
 70
     0
  3

 72
    65
 73
     0
 40
0.0
  0
LTYPE
  5
7478
330
746A
100
AcDbSymbolTableRecord
100
AcDbLinetypeTableRecord
  2
BYLAYER
 70
     0
  3

 72
    65
 73
     0
 40
0.0
  0
LTYPE
  5
7479
330
746A
100
AcDbSymbolTableRecord
100
AcDbLinetypeTableRecord
  2
CONTINUOUS
 70
     0
  3
Solid line
 72
    65
 73
     0
 40
0.0
  0
LTYPE
  5
7816
330
746A
100
AcDbSymbolTableRecord
100
AcDbLinetypeTableRecord
  2
CENTER
 70
     0
  3
____ _ ____ _ ____ _ ____ _ ____ _ ____ _ ____ 
 72
    65
 73
     4
 40
2.0
 49
1.25
 74
     0
 49
-0.25
 74
     0
 49
0.25
 74
     0
 49
-0.25
 74
     0
  0
LTYPE
  5
781A
330
746A
100
AcDbSymbolTableRecord
100
AcDbLinetypeTableRecord
  2
HIDDEN
 70
     0
  3
__ __ __ __ __ __ __ __ __ __ __ __ __ __ __ __
 72
    65
 73
     2
 40
0.375
 49
0.25
 74
     0
 49
-0.125
 74
     0
  0
LTYPE
  5
781B
330
746A
100
AcDbSymbolTableRecord
100
AcDbLinetypeTableRecord
  2
PHANTOM
 70
     0
  3
______  __  __  ______  __  __  ______  __  __ 
 72
    65
 73
     6
 40
2.5
 49
1.25
 74
     0
 49
-0.25
 74
     0
 49
0.25
 74
     0
 49
-0.25
 74
     0
 49
0.25
 74
     0
 49
-0.25
 74
     0
  0
ENDTAB
  0
TABLE
  2
LAYER
  5
7467
102
{ACAD_XDICTIONARY
360
18589
102
}
330
0
100
AcDbSymbolTable
 70
    12
  0
LAYER
  5
7474
330
7467
100
AcDbSymbolTableRecord
100
AcDbLayerTableRecord
  2
0
 70
     0
 62
     7
  6
CONTINUOUS
370
    -3
390
183ED
  0
LAYER
  5
DEB2
330
7467
100
AcDbSymbolTableRecord
100
AcDbLayerTableRecord
  2
センター
 70
     0
 62
     3
  6
CENTER
370
    -3
390
183ED
  0
LAYER
  5
DEB3
330
7467
100
AcDbSymbolTableRecord
100
AcDbLayerTableRecord
  2
寸法
 70
     0
 62
     4
  6
CONTINUOUS
370
    -3
390
183ED
  0
LAYER
  5
DEB4
330
7467
100
AcDbSymbolTableRecord
100
AcDbLayerTableRecord
  2
部品1
 70
     0
 62
     7
  6
CONTINUOUS
370
    -3
390
183ED
  0
LAYER
  5
DEB5
330
7467
100
AcDbSymbolTableRecord
100
AcDbLayerTableRecord
  2
補助
 70
     0
 62
    -1
  6
CONTINUOUS
370
    -3
390
183ED
  0
LAYER
  5
DEB6
330
7467
100
AcDbSymbolTableRecord
100
AcDbLayerTableRecord
  2
文字
 70
     0
 62
     7
  6
CONTINUOUS
370
    -3
390
183ED
  0
LAYER
  5
F255
330
7467
100
AcDbSymbolTableRecord
100
AcDbLayerTableRecord
  2
DEFPOINTS
 70
     0
 62
     7
  6
CONTINUOUS
290
     0
370
    -3
390
183ED
  0
LAYER
  5
10B54
330
7467
100
AcDbSymbolTableRecord
100
AcDbLayerTableRecord
  2
仕様書枠
 70
     0
 62
   230
  6
CONTINUOUS
370
    -3
390
183ED
  0
LAYER
  5
11729
330
7467
100
AcDbSymbolTableRecord
100
AcDbLayerTableRecord
  2
Ｇ．Ｌ
 70
     0
 62
    30
  6
CONTINUOUS
370
    -3
390
183ED
  0
LAYER
  5
1173F
330
7467
100
AcDbSymbolTableRecord
100
AcDbLayerTableRecord
  2
細線
 70
     0
 62
     5
  6
CONTINUOUS
370
    -3
390
183ED
  0
LAYER
  5
12CC4
330
7467
100
AcDbSymbolTableRecord
100
AcDbLayerTableRecord
  2
想像線
 70
     0
 62
     6
  6
PHANTOM
370
    -3
390
183ED
  0
LAYER
  5
142E2
330
7467
100
AcDbSymbolTableRecord
100
AcDbLayerTableRecord
  2
破線
 70
     0
 62
     2
  6
HIDDEN
370
    -3
390
183ED
  0
ENDTAB
  0
TABLE
  2
STYLE
  5
7468
330
0
100
AcDbSymbolTable
 70
     4
  0
STYLE
  5
7475
330
7468
100
AcDbSymbolTableRecord
100
AcDbTextStyleTableRecord
  2
STANDARD
 70
     0
 40
0.0
 41
1.0
 50
0.0
 71
     0
 42
4.0
  3
txt
  4
C:\AutoCAD LT\bigfont.shx
  0
STYLE
  5
F706
330
7468
100
AcDbSymbolTableRecord
100
AcDbTextStyleTableRecord
  2
STYLE1
 70
     0
 40
0.0
 41
1.0
 50
0.0
 71
     0
 42
4.0
  3
isocp.shx
  4
bigfont.shx
  0
STYLE
  5
103BF
330
7468
100
AcDbSymbolTableRecord
100
AcDbTextStyleTableRecord
  2
STYLE2
 70
     0
 40
0.0
 41
1.0
 50
0.0
 71
     0
 42
100.0
  3
MS PGothic.ttf
  4

1001
ACAD
1000
MS PGothic
1071
    32818
  0
STYLE
  5
1AE02
330
7468
100
AcDbSymbolTableRecord
100
AcDbTextStyleTableRecord
  2
STYLE3
 70
     0
 40
0.0
 41
1.0
 50
0.0
 71
     0
 42
100.0
  3

  4

1001
ACAD
1000
DFPGothic-EB
1071
    32818
  0
ENDTAB
  0
TABLE
  2
VIEW
  5
746B
330
0
100
AcDbSymbolTable
 70
     0
  0
ENDTAB
  0
TABLE
  2
UCS
  5
746C
330
0
100
AcDbSymbolTable
 70
     0
  0
ENDTAB
  0
TABLE
  2
APPID
  5
746E
330
0
100
AcDbSymbolTable
 70
     6
  0
APPID
  5
7476
330
746E
100
AcDbSymbolTableRecord
100
AcDbRegAppTableRecord
  2
ACAD
 70
     0
  0
APPID
  5
DEA9
330
746E
100
AcDbSymbolTableRecord
100
AcDbRegAppTableRecord
  2
CONTENTBLOCKICON
 70
     0
  0
APPID
  5
DEAA
330
746E
100
AcDbSymbolTableRecord
100
AcDbRegAppTableRecord
  2
CONTENTBLOCKDESCRIPTION
 70
     0
  0
APPID
  5
E71D
330
746E
100
AcDbSymbolTableRecord
100
AcDbRegAppTableRecord
  2
CONTENTTABDATA
 70
     0
  0
APPID
  5
E71E
330
746E
100
AcDbSymbolTableRecord
100
AcDbRegAppTableRecord
  2
CONTENTCURRENTTAB
 70
     0
  0
APPID
  5
F3BA
330
746E
100
AcDbSymbolTableRecord
100
AcDbRegAppTableRecord
  2
DRAWINGVARIABLESXDATA
 70
     0
  0
ENDTAB
  0
TABLE
  2
DIMSTYLE
  5
746F
330
0
100
AcDbSymbolTable
 70
     5
100
AcDbDimStyleTable
 71
     0
  0
DIMSTYLE
105
7484
330
746F
100
AcDbSymbolTableRecord
100
AcDbDimStyleTableRecord
  2
JIS
 70
     0
 41
2.5
 42
1.0
 43
7.0
 44
1.0
 73
     0
 74
     0
 77
     1
 78
     8
140
2.5
141
0.0
143
0.0394
147
0.0
172
     1
174
     1
175
     1
340
7475
  0
DIMSTYLE
105
F71F
102
{ACAD_REACTORS
330
18824
330
18882
330
18886
330
188DC
330
188DD
330
188DE
330
18919
330
194EB
330
194EC
330
194F7
330
194FB
330
194FC
330
19533
330
19534
330
19537
330
19538
330
19539
330
1953A
330
19559
330
1A750
330
1A74F
330
1A74E
330
1A74D
330
1A74C
330
1A74B
330
1AAD1
330
1AAD2
330
1AAD0
330
1AACF
330
1B1A9
102
}
330
746F
100
AcDbSymbolTableRecord
100
AcDbDimStyleTableRecord
  2
INABA_S40G
 70
     0
 40
40.0
 41
2.5
 42
0.5
 43
7.0
 44
1.5
 73
     0
 74
     0
 77
     3
 78
     8
140
3.0
141
0.0
143
0.0394
147
1.0
172
     1
173
     1
174
     1
178
     7
271
     1
288
     1
340
F706
341
F770
343
F770
344
F770
  0
DIMSTYLE
105
18588
102
{ACAD_REACTORS
330
1AF0E
330
1B1A8
102
}
330
746F
100
AcDbSymbolTableRecord
100
AcDbDimStyleTableRecord
  2
INABA_S40
 70
     0
 40
40.0
 41
2.5
 42
0.5
 43
7.0
 44
1.5
 73
     0
 74
     0
 77
     3
 78
     8
140
3.0
141
0.0
143
0.0394
147
1.0
172
     1
173
     1
174
     1
175
     1
178
     7
340
7475
  0
DIMSTYLE
105
1AE03
330
746F
100
AcDbSymbolTableRecord
100
AcDbDimStyleTableRecord
  2
INABA_S50G
 70
     0
 41
125.0
 42
25.0
 43
7.0
 44
75.0
 73
     0
 74
     0
 77
     3
 78
     8
140
150.0
141
0.0
143
0.0394
147
25.0
172
     1
173
     1
174
     1
175
     1
178
     7
271
     1
340
F706
341
F770
343
F770
344
F770
  0
DIMSTYLE
105
1B4AB
330
746F
100
AcDbSymbolTableRecord
100
AcDbDimStyleTableRecord
  2
INABA_S20G
 70
     0
 40
20.0
 41
2.5
 42
0.5
 43
7.0
 44
1.5
 73
     0
 74
     0
 77
     3
 78
     8
140
3.0
141
0.0
143
0.0394
147
1.0
172
     1
173
     1
174
     1
178
     7
271
     1
340
F706
341
F770
343
F770
344
F770
  0
ENDTAB
  0
TABLE
  2
BLOCK_RECORD
  5
7466
330
0
100
AcDbSymbolTable
 70
    34
  0
BLOCK_RECORD
  5
747D
330
7466
100
AcDbSymbolTableRecord
100
AcDbBlockTableRecord
  2
*MODEL_SPACE
340
183F2
  0
BLOCK_RECORD
  5
747A
330
7466
100
AcDbSymbolTableRecord
100
AcDbBlockTableRecord
  2
*PAPER_SPACE
340
183F3
  0
BLOCK_RECORD
  5
F770
330
7466
100
AcDbSymbolTableRecord
100
AcDbBlockTableRecord
  2
_DOTSMALL
340
0
102
{BLKREFS
331
1ACAB
331
1ACAC
331
1ACB4
331
1ACB5
331
1ACBD
331
1ACBE
331
1ACC7
331
1ACC8
331
1ACD1
331
1ACD2
331
1ACDC
331
1ACDD
331
1ACE5
331
1ACE6
331
1ACEE
331
1ACEF
331
1ACF8
331
1ACF9
331
1AD01
331
1AD02
331
1AD0A
331
1AD0B
331
1AD94
331
1AD95
331
1AD9D
331
1AD9E
331
1ADA8
331
1ADA9
331
1ADB1
331
1ADB2
331
1ADBA
331
1ADBB
331
1ADC3
331
1ADC4
331
1ADCC
331
1ADCD
331
1B41C
331
1B41D
331
1B43B
331
1B43C
331
1B444
331
1B445
331
1B44F
331
1B450
331
1B458
331
1B459
331
1B461
331
1B462
331
1B46A
331
1B46B
331
1B473
331
1B474
331
1B47C
331
1B47D
331
1B487
331
1B488
331
1B490
331
1B491
331
1B49B
331
1B49C
102
}
  0
BLOCK_RECORD
  5
183FA
330
7466
100
AcDbSymbolTableRecord
100
AcDbBlockTableRecord
  2
_DOT
340
0
102
{BLKREFS
331
1B427
331
1B428
331
1B430
331
1B431
102
}
  0
BLOCK_RECORD
  5
18AE2
330
7466
100
AcDbSymbolTableRecord
100
AcDbBlockTableRecord
  2
*D2
340
0
  0
BLOCK_RECORD
  5
18B2E
330
7466
100
AcDbSymbolTableRecord
100
AcDbBlockTableRecord
  2
*D3
340
0
  0
BLOCK_RECORD
  5
18B3A
330
7466
100
AcDbSymbolTableRecord
100
AcDbBlockTableRecord
  2
*D4
340
0
  0
BLOCK_RECORD
  5
18B46
330
7466
100
AcDbSymbolTableRecord
100
AcDbBlockTableRecord
  2
*D5
340
0
  0
BLOCK_RECORD
  5
18B52
330
7466
100
AcDbSymbolTableRecord
100
AcDbBlockTableRecord
  2
*D6
340
0
  0
BLOCK_RECORD
  5
18B60
330
7466
100
AcDbSymbolTableRecord
100
AcDbBlockTableRecord
  2
*D7
340
0
  0
BLOCK_RECORD
  5
18B6C
330
7466
100
AcDbSymbolTableRecord
100
AcDbBlockTableRecord
  2
*D8
340
0
  0
BLOCK_RECORD
  5
19603
330
7466
100
AcDbSymbolTableRecord
100
AcDbBlockTableRecord
  2
*D9
340
0
  0
BLOCK_RECORD
  5
19611
330
7466
100
AcDbSymbolTableRecord
100
AcDbBlockTableRecord
  2
*D10
340
0
  0
BLOCK_RECORD
  5
1961D
330
7466
100
AcDbSymbolTableRecord
100
AcDbBlockTableRecord
  2
*D11
340
0
  0
BLOCK_RECORD
  5
1962B
330
7466
100
AcDbSymbolTableRecord
100
AcDbBlockTableRecord
  2
*D12
340
0
  0
BLOCK_RECORD
  5
19637
330
7466
100
AcDbSymbolTableRecord
100
AcDbBlockTableRecord
  2
*D13
340
0
  0
BLOCK_RECORD
  5
19643
330
7466
100
AcDbSymbolTableRecord
100
AcDbBlockTableRecord
  2
*D14
340
0
  0
BLOCK_RECORD
  5
1964F
330
7466
100
AcDbSymbolTableRecord
100
AcDbBlockTableRecord
  2
*D15
340
0
  0
BLOCK_RECORD
  5
1965B
330
7466
100
AcDbSymbolTableRecord
100
AcDbBlockTableRecord
  2
*D16
340
0
  0
BLOCK_RECORD
  5
19667
330
7466
100
AcDbSymbolTableRecord
100
AcDbBlockTableRecord
  2
*D17
340
0
  0
BLOCK_RECORD
  5
19675
330
7466
100
AcDbSymbolTableRecord
100
AcDbBlockTableRecord
  2
*D18
340
0
  0
BLOCK_RECORD
  5
19681
330
7466
100
AcDbSymbolTableRecord
100
AcDbBlockTableRecord
  2
*D19
340
0
  0
BLOCK_RECORD
  5
1968F
330
7466
100
AcDbSymbolTableRecord
100
AcDbBlockTableRecord
  2
*D20
340
0
  0
BLOCK_RECORD
  5
1A751
330
7466
100
AcDbSymbolTableRecord
100
AcDbBlockTableRecord
  2
*D21
340
0
  0
BLOCK_RECORD
  5
1A75E
330
7466
100
AcDbSymbolTableRecord
100
AcDbBlockTableRecord
  2
*D22
340
0
  0
BLOCK_RECORD
  5
1A76C
330
7466
100
AcDbSymbolTableRecord
100
AcDbBlockTableRecord
  2
*D23
340
0
  0
BLOCK_RECORD
  5
1A778
330
7466
100
AcDbSymbolTableRecord
100
AcDbBlockTableRecord
  2
*D24
340
0
  0
BLOCK_RECORD
  5
1A784
330
7466
100
AcDbSymbolTableRecord
100
AcDbBlockTableRecord
  2
*D25
340
0
  0
BLOCK_RECORD
  5
1A791
330
7466
100
AcDbSymbolTableRecord
100
AcDbBlockTableRecord
  2
*D26
340
0
  0
BLOCK_RECORD
  5
1AAD3
330
7466
100
AcDbSymbolTableRecord
100
AcDbBlockTableRecord
  2
*D27
340
0
  0
BLOCK_RECORD
  5
1AADF
330
7466
100
AcDbSymbolTableRecord
100
AcDbBlockTableRecord
  2
*D28
340
0
  0
BLOCK_RECORD
  5
1AAED
330
7466
100
AcDbSymbolTableRecord
100
AcDbBlockTableRecord
  2
*D29
340
0
  0
BLOCK_RECORD
  5
1AAF9
330
7466
100
AcDbSymbolTableRecord
100
AcDbBlockTableRecord
  2
*D30
340
0
  0
BLOCK_RECORD
  5
1AF79
330
7466
100
AcDbSymbolTableRecord
100
AcDbBlockTableRecord
  2
*D31
340
0
  0
BLOCK_RECORD
  5
1B2BA
330
7466
100
AcDbSymbolTableRecord
100
AcDbBlockTableRecord
  2
*D32
340
0
  0
BLOCK_RECORD
  5
1B2C8
330
7466
100
AcDbSymbolTableRecord
100
AcDbBlockTableRecord
  2
*D33
340
0
  0
ENDTAB
  0
ENDSEC
  0
SECTION
  2
BLOCKS
  0
BLOCK
  5
7489
330
747D
100
AcDbEntity
  8
0
100
AcDbBlockBegin
  2
*MODEL_SPACE
 70
     0
 10
0.0
 20
0.0
 30
0.0
  3
*MODEL_SPACE
  1

  0
ENDBLK
  5
748A
330
747D
100
AcDbEntity
  8
0
100
AcDbBlockEnd
  0
BLOCK
  5
7487
330
747A
100
AcDbEntity
 67
     1
  8
0
100
AcDbBlockBegin
  2
*PAPER_SPACE
 70
     0
 10
0.0
 20
0.0
 30
0.0
  3
*PAPER_SPACE
  1

  0
ENDBLK
  5
7488
330
747A
100
AcDbEntity
 67
     1
  8
0
100
AcDbBlockEnd
  0
BLOCK
  5
F771
330
F770
100
AcDbEntity
  8
0
 48
50.0
100
AcDbBlockBegin
  2
_DOTSMALL
 70
     0
 10
0.0
 20
0.0
 30
0.0
  3
_DOTSMALL
  1

  0
LWPOLYLINE
  5
F772
330
F770
100
AcDbEntity
  8
0
  6
ByBlock
 62
     0
 48
50.0
100
AcDbPolyline
 90
        2
 70
     1
 43
0.5
 10
-0.0625
 20
0.0
 42
1.0
 10
0.0625
 20
0.0
 42
1.0
  0
ENDBLK
  5
F776
330
F770
100
AcDbEntity
  8
0
 48
50.0
100
AcDbBlockEnd
  0
BLOCK
  5
183FB
330
183FA
100
AcDbEntity
  8
0
 48
50.0
100
AcDbBlockBegin
  2
_DOT
 70
     0
 10
0.0
 20
0.0
 30
0.0
  3
_DOT
  1

  0
LWPOLYLINE
  5
183FC
330
183FA
100
AcDbEntity
  8
0
  6
ByBlock
 62
     0
 48
50.0
100
AcDbPolyline
 90
        2
 70
     1
 43
0.5
 10
-0.25
 20
0.0
 42
1.0
 10
0.25
 20
0.0
 42
1.0
  0
LINE
  5
183FD
330
183FA
100
AcDbEntity
  8
0
  6
ByBlock
 62
     0
 48
50.0
100
AcDbLine
 10
-0.5
 20
0.0
 30
0.0
 11
-1.0
 21
0.0
 31
0.0
  0
ENDBLK
  5
183FE
330
183FA
100
AcDbEntity
  8
0
 48
50.0
100
AcDbBlockEnd
  0
BLOCK
  5
18AEC
330
18AE2
100
AcDbEntity
  8
0
 48
50.0
100
AcDbBlockBegin
  2
*D2
 70
     1
 10
0.0
 20
0.0
 30
0.0
  3
*D2
  1

  0
LINE
  5
1ADC9
330
18AE2
100
AcDbEntity
  8
寸法
 62
     0
 48
50.0
370
    -2
100
AcDbLine
 10
11076.78035131595
 20
2960.688379067656
 30
0.0
 11
11651.95044707838
 21
2960.688379067656
 31
0.0
  0
LINE
  5
1ADCA
330
18AE2
100
AcDbEntity
  8
寸法
 62
     0
 48
50.0
370
    -2
100
AcDbLine
 10
11156.78035131594
 20
4980.688379067658
 30
0.0
 11
11651.95044707838
 21
4980.688379067658
 31
0.0
  0
LINE
  5
1ADCB
330
18AE2
100
AcDbEntity
  8
寸法
 62
     0
 48
50.0
370
    -2
100
AcDbLine
 10
11591.95044707838
 20
2960.688379067656
 30
0.0
 11
11591.95044707838
 21
4980.688379067658
 31
0.0
  0
INSERT
  5
1ADCC
330
18AE2
100
AcDbEntity
  8
寸法
 62
     0
 48
50.0
370
    -2
100
AcDbBlockReference
  2
_DOTSMALL
 10
11591.95044707838
 20
2960.688379067656
 30
0.0
 41
100.0
 42
100.0
 43
100.0
 50
270.0
  0
INSERT
  5
1ADCD
330
18AE2
100
AcDbEntity
  8
寸法
 62
     0
 48
50.0
370
    -2
100
AcDbBlockReference
  2
_DOTSMALL
 10
11591.95044707838
 20
4980.688379067658
 30
0.0
 41
100.0
 42
100.0
 43
100.0
 50
90.0
  0
MTEXT
  5
1ADCE
330
18AE2
100
AcDbEntity
  8
寸法
 62
     7
 48
50.0
100
AcDbMText
 10
11491.93863605476
 20
3942.944706497345
 30
0.0
 40
120.0
 41
0.0
 71
     5
 72
     1
  1
\A1;2020
  7
STYLE1
 11
0.0000000000000001
 21
1.0
 31
0.0
 73
     1
 44
1.0
1001
ACAD
1000
MTEXTBEGIN
1070
    73
1070
     1
1070
    44
1040
1.0
1070
    74
1070
     0
1000
MTEXTEND
  0
POINT
  5
1ADCF
330
18AE2
100
AcDbEntity
  8
DEFPOINTS
 62
     0
 48
50.0
100
AcDbPoint
 10
11056.78035131595
 20
2960.688379067656
 30
0.0
  0
POINT
  5
1ADD0
330
18AE2
100
AcDbEntity
  8
DEFPOINTS
 62
     0
 48
50.0
100
AcDbPoint
 10
11136.78035131594
 20
4980.688379067658
 30
0.0
  0
POINT
  5
1ADD1
330
18AE2
100
AcDbEntity
  8
DEFPOINTS
 62
     0
 48
50.0
100
AcDbPoint
 10
11591.95044707838
 20
4980.688379067658
 30
0.0
  0
ENDBLK
  5
18AED
330
18AE2
100
AcDbEntity
  8
0
 48
50.0
100
AcDbBlockEnd
  0
BLOCK
  5
18B38
330
18B2E
100
AcDbEntity
  8
0
 48
50.0
100
AcDbBlockBegin
  2
*D3
 70
     1
 10
0.0
 20
0.0
 30
0.0
  3
*D3
  1

  0
LINE
  5
1ADC0
330
18B2E
100
AcDbEntity
  8
寸法
 62
     0
 48
50.0
370
    -2
100
AcDbLine
 10
4542.122950375397
 20
2660.688379067655
 30
0.0
 11
4352.62294712876
 21
2660.688379067655
 31
0.0
  0
LINE
  5
1ADC1
330
18B2E
100
AcDbEntity
  8
寸法
 62
     0
 48
50.0
370
    -2
100
AcDbLine
 10
4517.122950375393
 20
2860.688379067657
 30
0.0
 11
4352.62294712876
 21
2860.688379067657
 31
0.0
  0
LINE
  5
1ADC2
330
18B2E
100
AcDbEntity
  8
寸法
 62
     0
 48
50.0
370
    -2
100
AcDbLine
 10
4412.62294712876
 20
2660.688379067655
 30
0.0
 11
4412.62294712876
 21
2860.688379067657
 31
0.0
  0
INSERT
  5
1ADC3
330
18B2E
100
AcDbEntity
  8
寸法
 62
     0
 48
50.0
370
    -2
100
AcDbBlockReference
  2
_DOTSMALL
 10
4412.62294712876
 20
2660.688379067655
 30
0.0
 41
100.0
 42
100.0
 43
100.0
 50
270.0
  0
INSERT
  5
1ADC4
330
18B2E
100
AcDbEntity
  8
寸法
 62
     0
 48
50.0
370
    -2
100
AcDbBlockReference
  2
_DOTSMALL
 10
4412.62294712876
 20
2860.688379067657
 30
0.0
 41
100.0
 42
100.0
 43
100.0
 50
90.0
  0
MTEXT
  5
1ADC5
330
18B2E
100
AcDbEntity
  8
寸法
 62
     7
 48
50.0
100
AcDbMText
 10
4312.611136105137
 20
2760.688379067656
 30
0.0
 40
120.0
 41
0.0
 71
     5
 72
     1
  1
\A1;200
  7
STYLE1
 11
0.0000000000000001
 21
1.0
 31
0.0
 73
     1
 44
1.0
1001
ACAD
1000
MTEXTBEGIN
1070
    73
1070
     1
1070
    44
1040
1.0
1070
    74
1070
     0
1000
MTEXTEND
  0
POINT
  5
1ADC6
330
18B2E
100
AcDbEntity
  8
DEFPOINTS
 62
     0
 48
50.0
100
AcDbPoint
 10
4562.122950375396
 20
2660.688379067655
 30
0.0
  0
POINT
  5
1ADC7
330
18B2E
100
AcDbEntity
  8
DEFPOINTS
 62
     0
 48
50.0
100
AcDbPoint
 10
4537.122950375393
 20
2860.688379067657
 30
0.0
  0
POINT
  5
1ADC8
330
18B2E
100
AcDbEntity
  8
DEFPOINTS
 62
     0
 48
50.0
100
AcDbPoint
 10
4412.62294712876
 20
2860.688379067657
 30
0.0
  0
ENDBLK
  5
18B39
330
18B2E
100
AcDbEntity
  8
0
 48
50.0
100
AcDbBlockEnd
  0
BLOCK
  5
18B44
330
18B3A
100
AcDbEntity
  8
0
 48
50.0
100
AcDbBlockBegin
  2
*D4
 70
     1
 10
0.0
 20
0.0
 30
0.0
  3
*D4
  1

  0
LINE
  5
1ADB7
330
18B3A
100
AcDbEntity
  8
寸法
 62
     0
 48
50.0
370
    -2
100
AcDbLine
 10
4762.122950375393
 20
2640.688379067655
 30
0.0
 11
4762.122950375393
 21
2314.641049767279
 31
0.0
  0
LINE
  5
1ADB8
330
18B3A
100
AcDbEntity
  8
寸法
 62
     0
 48
50.0
370
    -2
100
AcDbLine
 10
4562.122950375396
 20
2640.688379067655
 30
0.0
 11
4562.122950375396
 21
2314.641049767279
 31
0.0
  0
LINE
  5
1ADB9
330
18B3A
100
AcDbEntity
  8
寸法
 62
     0
 48
50.0
370
    -2
100
AcDbLine
 10
4762.122950375393
 20
2374.641049767279
 30
0.0
 11
4562.122950375396
 21
2374.641049767279
 31
0.0
  0
INSERT
  5
1ADBA
330
18B3A
100
AcDbEntity
  8
寸法
 62
     0
 48
50.0
370
    -2
100
AcDbBlockReference
  2
_DOTSMALL
 10
4762.122950375393
 20
2374.641049767279
 30
0.0
 41
100.0
 42
100.0
 43
100.0
  0
INSERT
  5
1ADBB
330
18B3A
100
AcDbEntity
  8
寸法
 62
     0
 48
50.0
370
    -2
100
AcDbBlockReference
  2
_DOTSMALL
 10
4562.122950375396
 20
2374.641049767279
 30
0.0
 41
100.0
 42
100.0
 43
100.0
 50
180.0
  0
MTEXT
  5
1ADBC
330
18B3A
100
AcDbEntity
  8
寸法
 62
     7
 48
50.0
100
AcDbMText
 10
4662.122950375395
 20
2474.652860790901
 30
0.0
 40
120.0
 41
0.0
 71
     5
 72
     1
  1
\A1;200
  7
STYLE1
 73
     1
 44
1.0
1001
ACAD
1000
MTEXTBEGIN
1070
    73
1070
     1
1070
    44
1040
1.0
1070
    74
1070
     0
1000
MTEXTEND
  0
POINT
  5
1ADBD
330
18B3A
100
AcDbEntity
  8
DEFPOINTS
 62
     0
 48
50.0
100
AcDbPoint
 10
4762.122950375393
 20
2660.688379067655
 30
0.0
  0
POINT
  5
1ADBE
330
18B3A
100
AcDbEntity
  8
DEFPOINTS
 62
     0
 48
50.0
100
AcDbPoint
 10
4562.122950375396
 20
2660.688379067655
 30
0.0
  0
POINT
  5
1ADBF
330
18B3A
100
AcDbEntity
  8
DEFPOINTS
 62
     0
 48
50.0
100
AcDbPoint
 10
4562.122950375396
 20
2374.641049767279
 30
0.0
  0
ENDBLK
  5
18B45
330
18B3A
100
AcDbEntity
  8
0
 48
50.0
100
AcDbBlockEnd
  0
BLOCK
  5
18B50
330
18B46
100
AcDbEntity
  8
0
 48
50.0
100
AcDbBlockBegin
  2
*D5
 70
     1
 10
0.0
 20
0.0
 30
0.0
  3
*D5
  1

  0
LINE
  5
1ADAE
330
18B46
100
AcDbEntity
  8
寸法
 62
     0
 48
50.0
370
    -2
100
AcDbLine
 10
4584.6229503754
 20
5055.688379067662
 30
0.0
 11
4584.6229503754
 21
5743.474750401947
 31
0.0
  0
LINE
  5
1ADAF
330
18B46
100
AcDbEntity
  8
寸法
 62
     0
 48
50.0
370
    -2
100
AcDbLine
 10
6054.622950375392
 20
5055.688379067658
 30
0.0
 11
6054.622950375392
 21
5743.474750401947
 31
0.0
  0
LINE
  5
1ADB0
330
18B46
100
AcDbEntity
  8
寸法
 62
     0
 48
50.0
370
    -2
100
AcDbLine
 10
4584.6229503754
 20
5683.474750401947
 30
0.0
 11
6054.622950375392
 21
5683.474750401947
 31
0.0
  0
INSERT
  5
1ADB1
330
18B46
100
AcDbEntity
  8
寸法
 62
     0
 48
50.0
370
    -2
100
AcDbBlockReference
  2
_DOTSMALL
 10
4584.6229503754
 20
5683.474750401947
 30
0.0
 41
100.0
 42
100.0
 43
100.0
 50
180.0
  0
INSERT
  5
1ADB2
330
18B46
100
AcDbEntity
  8
寸法
 62
     0
 48
50.0
370
    -2
100
AcDbBlockReference
  2
_DOTSMALL
 10
6054.622950375392
 20
5683.474750401947
 30
0.0
 41
100.0
 42
100.0
 43
100.0
  0
MTEXT
  5
1ADB3
330
18B46
100
AcDbEntity
  8
寸法
 62
     7
 48
50.0
100
AcDbMText
 10
5297.257164174073
 20
5783.474750401946
 30
0.0
 40
120.0
 41
0.0
 71
     5
 72
     1
  1
\A1;1470
  7
STYLE1
 73
     1
 44
1.0
1001
ACAD
1000
MTEXTBEGIN
1070
    73
1070
     1
1070
    44
1040
1.0
1070
    74
1070
     0
1000
MTEXTEND
  0
POINT
  5
1ADB4
330
18B46
100
AcDbEntity
  8
DEFPOINTS
 62
     0
 48
50.0
100
AcDbPoint
 10
4584.6229503754
 20
5035.688379067662
 30
0.0
  0
POINT
  5
1ADB5
330
18B46
100
AcDbEntity
  8
DEFPOINTS
 62
     0
 48
50.0
100
AcDbPoint
 10
6054.622950375392
 20
5035.688379067658
 30
0.0
  0
POINT
  5
1ADB6
330
18B46
100
AcDbEntity
  8
DEFPOINTS
 62
     0
 48
50.0
100
AcDbPoint
 10
6054.622950375392
 20
5683.474750401947
 30
0.0
  0
ENDBLK
  5
18B51
330
18B46
100
AcDbEntity
  8
0
 48
50.0
100
AcDbBlockEnd
  0
BLOCK
  5
18B5E
330
18B52
100
AcDbEntity
  8
0
 48
50.0
100
AcDbBlockBegin
  2
*D6
 70
     1
 10
0.0
 20
0.0
 30
0.0
  3
*D6
  1

  0
LINE
  5
1ADA3
330
18B52
100
AcDbEntity
  8
寸法
 62
     0
 48
50.0
370
    -2
100
AcDbLine
 10
4634.6229503754
 20
5055.688379067662
 30
0.0
 11
4634.6229503754
 21
5500.308638494928
 31
0.0
  0
LINE
  5
1ADA4
330
18B52
100
AcDbEntity
  8
寸法
 62
     0
 48
50.0
370
    -2
100
AcDbLine
 10
4584.6229503754
 20
5055.688379067662
 30
0.0
 11
4584.6229503754
 21
5500.308638494928
 31
0.0
  0
LINE
  5
1ADA5
330
18B52
100
AcDbEntity
  8
寸法
 62
     0
 48
50.0
370
    -2
100
AcDbLine
 10
4634.6229503754
 20
5440.308638494927
 30
0.0
 11
4734.6229503754
 21
5440.308638494927
 31
0.0
  0
LINE
  5
1ADA6
330
18B52
100
AcDbEntity
  8
寸法
 62
     0
 48
50.0
370
    -2
100
AcDbLine
 10
4584.6229503754
 20
5440.308638494927
 30
0.0
 11
4165.090424906665
 21
5440.308638494927
 31
0.0
  0
LINE
  5
1ADA7
330
18B52
100
AcDbEntity
  8
寸法
 62
     0
 48
50.0
370
    -2
100
AcDbLine
 10
4634.6229503754
 20
5440.308638494927
 30
0.0
 11
4584.6229503754
 21
5440.308638494927
 31
0.0
  0
INSERT
  5
1ADA8
330
18B52
100
AcDbEntity
  8
寸法
 62
     0
 48
50.0
370
    -2
100
AcDbBlockReference
  2
_DOTSMALL
 10
4634.6229503754
 20
5440.308638494927
 30
0.0
 41
100.0
 42
100.0
 43
100.0
 50
180.0
  0
INSERT
  5
1ADA9
330
18B52
100
AcDbEntity
  8
寸法
 62
     0
 48
50.0
370
    -2
100
AcDbBlockReference
  2
_DOTSMALL
 10
4584.6229503754
 20
5440.308638494927
 30
0.0
 41
100.0
 42
100.0
 43
100.0
  0
MTEXT
  5
1ADAA
330
18B52
100
AcDbEntity
  8
寸法
 62
     7
 48
50.0
100
AcDbMText
 10
4271.137669001153
 20
5540.308638494927
 30
0.0
 40
120.0
 41
0.0
 71
     5
 72
     1
  1
\A1;50
  7
STYLE1
 73
     1
 44
1.0
1001
ACAD
1000
MTEXTBEGIN
1070
    73
1070
     1
1070
    44
1040
1.0
1070
    74
1070
     0
1000
MTEXTEND
  0
POINT
  5
1ADAB
330
18B52
100
AcDbEntity
  8
DEFPOINTS
 62
     0
 48
50.0
100
AcDbPoint
 10
4634.6229503754
 20
5035.688379067662
 30
0.0
  0
POINT
  5
1ADAC
330
18B52
100
AcDbEntity
  8
DEFPOINTS
 62
     0
 48
50.0
100
AcDbPoint
 10
4584.6229503754
 20
5035.688379067662
 30
0.0
  0
POINT
  5
1ADAD
330
18B52
100
AcDbEntity
  8
DEFPOINTS
 62
     0
 48
50.0
100
AcDbPoint
 10
4584.6229503754
 20
5440.308638494927
 30
0.0
  0
ENDBLK
  5
18B5F
330
18B52
100
AcDbEntity
  8
0
 48
50.0
100
AcDbBlockEnd
  0
BLOCK
  5
18B6A
330
18B60
100
AcDbEntity
  8
0
 48
50.0
100
AcDbBlockBegin
  2
*D7
 70
     1
 10
0.0
 20
0.0
 30
0.0
  3
*D7
  1

  0
LINE
  5
1AD9A
330
18B60
100
AcDbEntity
  8
寸法
 62
     0
 48
50.0
370
    -2
100
AcDbLine
 10
6004.622950375392
 20
5055.688379067662
 30
0.0
 11
6004.622950375392
 21
5500.308638494928
 31
0.0
  0
LINE
  5
1AD9B
330
18B60
100
AcDbEntity
  8
寸法
 62
     0
 48
50.0
370
    -2
100
AcDbLine
 10
4634.6229503754
 20
5055.688379067662
 30
0.0
 11
4634.6229503754
 21
5500.308638494928
 31
0.0
  0
LINE
  5
1AD9C
330
18B60
100
AcDbEntity
  8
寸法
 62
     0
 48
50.0
370
    -2
100
AcDbLine
 10
6004.622950375392
 20
5440.308638494927
 30
0.0
 11
4634.6229503754
 21
5440.308638494927
 31
0.0
  0
INSERT
  5
1AD9D
330
18B60
100
AcDbEntity
  8
寸法
 62
     0
 48
50.0
370
    -2
100
AcDbBlockReference
  2
_DOTSMALL
 10
6004.622950375392
 20
5440.308638494927
 30
0.0
 41
100.0
 42
100.0
 43
100.0
  0
INSERT
  5
1AD9E
330
18B60
100
AcDbEntity
  8
寸法
 62
     0
 48
50.0
370
    -2
100
AcDbBlockReference
  2
_DOTSMALL
 10
4634.6229503754
 20
5440.308638494927
 30
0.0
 41
100.0
 42
100.0
 43
100.0
 50
180.0
  0
MTEXT
  5
1AD9F
330
18B60
100
AcDbEntity
  8
寸法
 62
     7
 48
50.0
100
AcDbMText
 10
5319.622950375396
 20
5540.308638494927
 30
0.0
 40
120.0
 41
0.0
 71
     5
 72
     1
  1
\A1;柱外寸法1370
  7
STYLE1
 73
     1
 44
1.0
1001
ACAD
1000
MTEXTBEGIN
1070
    73
1070
     1
1070
    44
1040
1.0
1070
    74
1070
     0
1000
MTEXTEND
  0
POINT
  5
1ADA0
330
18B60
100
AcDbEntity
  8
DEFPOINTS
 62
     0
 48
50.0
100
AcDbPoint
 10
6004.622950375392
 20
5035.688379067662
 30
0.0
  0
POINT
  5
1ADA1
330
18B60
100
AcDbEntity
  8
DEFPOINTS
 62
     0
 48
50.0
100
AcDbPoint
 10
4634.6229503754
 20
5035.688379067662
 30
0.0
  0
POINT
  5
1ADA2
330
18B60
100
AcDbEntity
  8
DEFPOINTS
 62
     0
 48
50.0
100
AcDbPoint
 10
4634.6229503754
 20
5440.308638494927
 30
0.0
  0
ENDBLK
  5
18B6B
330
18B60
100
AcDbEntity
  8
0
 48
50.0
100
AcDbBlockEnd
  0
BLOCK
  5
18B78
330
18B6C
100
AcDbEntity
  8
0
 48
50.0
100
AcDbBlockBegin
  2
*D8
 70
     1
 10
0.0
 20
0.0
 30
0.0
  3
*D8
  1

  0
LINE
  5
1AD8F
330
18B6C
100
AcDbEntity
  8
寸法
 62
     0
 48
50.0
370
    -2
100
AcDbLine
 10
6054.622950375392
 20
5055.688379067658
 30
0.0
 11
6054.622950375392
 21
5500.308638494928
 31
0.0
  0
LINE
  5
1AD90
330
18B6C
100
AcDbEntity
  8
寸法
 62
     0
 48
50.0
370
    -2
100
AcDbLine
 10
6004.622950375392
 20
5055.688379067662
 30
0.0
 11
6004.622950375392
 21
5500.308638494928
 31
0.0
  0
LINE
  5
1AD91
330
18B6C
100
AcDbEntity
  8
寸法
 62
     0
 48
50.0
370
    -2
100
AcDbLine
 10
6004.622950375392
 20
5440.308638494927
 30
0.0
 11
5904.622950375393
 21
5440.308638494927
 31
0.0
  0
LINE
  5
1AD92
330
18B6C
100
AcDbEntity
  8
寸法
 62
     0
 48
50.0
370
    -2
100
AcDbLine
 10
6054.622950375392
 20
5440.308638494927
 30
0.0
 11
6474.155475844117
 21
5440.308638494927
 31
0.0
  0
LINE
  5
1AD93
330
18B6C
100
AcDbEntity
  8
寸法
 62
     0
 48
50.0
370
    -2
100
AcDbLine
 10
6004.622950375392
 20
5440.308638494927
 30
0.0
 11
6054.622950375392
 21
5440.308638494927
 31
0.0
  0
INSERT
  5
1AD94
330
18B6C
100
AcDbEntity
  8
寸法
 62
     0
 48
50.0
370
    -2
100
AcDbBlockReference
  2
_DOTSMALL
 10
6004.622950375392
 20
5440.308638494927
 30
0.0
 41
100.0
 42
100.0
 43
100.0
  0
INSERT
  5
1AD95
330
18B6C
100
AcDbEntity
  8
寸法
 62
     0
 48
50.0
370
    -2
100
AcDbBlockReference
  2
_DOTSMALL
 10
6054.622950375392
 20
5440.308638494927
 30
0.0
 41
100.0
 42
100.0
 43
100.0
 50
180.0
  0
MTEXT
  5
1AD96
330
18B6C
100
AcDbEntity
  8
寸法
 62
     7
 48
50.0
100
AcDbMText
 10
6368.10823174963
 20
5540.308638494927
 30
0.0
 40
120.0
 41
0.0
 71
     5
 72
     1
  1
\A1;50
  7
STYLE1
 73
     1
 44
1.0
1001
ACAD
1000
MTEXTBEGIN
1070
    73
1070
     1
1070
    44
1040
1.0
1070
    74
1070
     0
1000
MTEXTEND
  0
POINT
  5
1AD97
330
18B6C
100
AcDbEntity
  8
DEFPOINTS
 62
     0
 48
50.0
100
AcDbPoint
 10
6054.622950375392
 20
5035.688379067658
 30
0.0
  0
POINT
  5
1AD98
330
18B6C
100
AcDbEntity
  8
DEFPOINTS
 62
     0
 48
50.0
100
AcDbPoint
 10
6004.622950375392
 20
5035.688379067662
 30
0.0
  0
POINT
  5
1AD99
330
18B6C
100
AcDbEntity
  8
DEFPOINTS
 62
     0
 48
50.0
100
AcDbPoint
 10
6004.622950375392
 20
5440.308638494927
 30
0.0
  0
ENDBLK
  5
18B79
330
18B6C
100
AcDbEntity
  8
0
 48
50.0
100
AcDbBlockEnd
  0
BLOCK
  5
1960F
330
19603
100
AcDbEntity
  8
0
 48
50.0
100
AcDbBlockBegin
  2
*D9
 70
     1
 10
0.0
 20
0.0
 30
0.0
  3
*D9
  1

  0
LINE
  5
1B496
330
19603
100
AcDbEntity
  8
寸法
 62
     0
 48
50.0
370
    -2
100
AcDbLine
 10
11076.78035131596
 20
9281.214169936795
 30
0.0
 11
11816.78035131596
 21
9281.214169936795
 31
0.0
  0
LINE
  5
1B497
330
19603
100
AcDbEntity
  8
寸法
 62
     0
 48
50.0
370
    -2
100
AcDbLine
 10
11076.78035131596
 20
9226.214169936799
 30
0.0
 11
11816.78035131596
 21
9226.214169936799
 31
0.0
  0
LINE
  5
1B498
330
19603
100
AcDbEntity
  8
寸法
 62
     0
 48
50.0
370
    -2
100
AcDbLine
 10
11756.78035131596
 20
9226.214169936799
 30
0.0
 11
11756.78035131596
 21
9126.214169936799
 31
0.0
  0
LINE
  5
1B499
330
19603
100
AcDbEntity
  8
寸法
 62
     0
 48
50.0
370
    -2
100
AcDbLine
 10
11756.78035131596
 20
9281.214169936795
 30
0.0
 11
11756.78035131596
 21
9698.184732685271
 31
0.0
  0
LINE
  5
1B49A
330
19603
100
AcDbEntity
  8
寸法
 62
     0
 48
50.0
370
    -2
100
AcDbLine
 10
11756.78035131596
 20
9226.214169936799
 30
0.0
 11
11756.78035131596
 21
9281.214169936795
 31
0.0
  0
INSERT
  5
1B49B
330
19603
100
AcDbEntity
  8
寸法
 62
     0
 48
50.0
370
    -2
100
AcDbBlockReference
  2
_DOTSMALL
 10
11756.78035131596
 20
9226.214169936799
 30
0.0
 41
100.0
 42
100.0
 43
100.0
 50
90.0
  0
INSERT
  5
1B49C
330
19603
100
AcDbEntity
  8
寸法
 62
     0
 48
50.0
370
    -2
100
AcDbBlockReference
  2
_DOTSMALL
 10
11756.78035131596
 20
9281.214169936795
 30
0.0
 41
100.0
 42
100.0
 43
100.0
 50
270.0
  0
MTEXT
  5
1B49D
330
19603
100
AcDbEntity
  8
寸法
 62
     7
 48
50.0
100
AcDbMText
 10
11656.78035131595
 20
9589.699451311036
 30
0.0
 40
120.0
 41
0.0
 71
     5
 72
     1
  1
\A1;55
  7
STYLE1
 11
0.0000000000000001
 21
1.0
 31
0.0
 73
     1
 44
1.0
1001
ACAD
1000
MTEXTBEGIN
1070
    73
1070
     1
1070
    44
1040
1.0
1070
    74
1070
     0
1000
MTEXTEND
  0
POINT
  5
1B49E
330
19603
100
AcDbEntity
  8
DEFPOINTS
 62
     0
 48
50.0
100
AcDbPoint
 10
11056.78035131596
 20
9281.214169936795
 30
0.0
  0
POINT
  5
1B49F
330
19603
100
AcDbEntity
  8
DEFPOINTS
 62
     0
 48
50.0
100
AcDbPoint
 10
11056.78035131596
 20
9226.214169936799
 30
0.0
  0
POINT
  5
1B4A0
330
19603
100
AcDbEntity
  8
DEFPOINTS
 62
     0
 48
50.0
100
AcDbPoint
 10
11756.78035131596
 20
9226.214169936799
 30
0.0
  0
ENDBLK
  5
19610
330
19603
100
AcDbEntity
  8
0
 48
50.0
100
AcDbBlockEnd
  0
BLOCK
  5
1961B
330
19611
100
AcDbEntity
  8
0
 48
50.0
100
AcDbBlockBegin
  2
*D10
 70
     1
 10
0.0
 20
0.0
 30
0.0
  3
*D10
  1

  0
LINE
  5
1B48D
330
19611
100
AcDbEntity
  8
寸法
 62
     0
 48
50.0
370
    -2
100
AcDbLine
 10
11048.28035131596
 20
9245.855186088173
 30
0.0
 11
11516.78035131596
 21
9120.320989434192
 31
0.0
  0
LINE
  5
1B48E
330
19611
100
AcDbEntity
  8
寸法
 62
     0
 48
50.0
370
    -2
100
AcDbLine
 10
11048.28035131596
 20
8795.855186088177
 30
0.0
 11
11516.78035131596
 21
8670.320989434197
 31
0.0
  0
LINE
  5
1B48F
330
19611
100
AcDbEntity
  8
寸法
 62
     0
 48
50.0
370
    -2
100
AcDbLine
 10
11456.78035131596
 20
9136.397940980058
 30
0.0
 11
11456.78035131596
 21
8686.397940980063
 31
0.0
  0
INSERT
  5
1B490
330
19611
100
AcDbEntity
  8
寸法
 62
     0
 48
50.0
370
    -2
100
AcDbBlockReference
  2
_DOTSMALL
 10
11456.78035131596
 20
9136.397940980058
 30
0.0
 41
100.0
 42
100.0
 43
100.0
 50
90.0
  0
INSERT
  5
1B491
330
19611
100
AcDbEntity
  8
寸法
 62
     0
 48
50.0
370
    -2
100
AcDbBlockReference
  2
_DOTSMALL
 10
11456.78035131596
 20
8686.397940980063
 30
0.0
 41
100.0
 42
100.0
 43
100.0
 50
270.0
  0
MTEXT
  5
1B492
330
19611
100
AcDbEntity
  8
寸法
 62
     7
 48
50.0
100
AcDbMText
 10
11356.78035131596
 20
8911.397940980062
 30
0.0
 40
120.0
 41
0.0
 71
     5
 72
     1
  1
\A1;450
  7
STYLE1
 11
0.0000000000000001
 21
1.0
 31
0.0
 73
     1
 44
1.0
1001
ACAD
1000
MTEXTBEGIN
1070
    73
1070
     1
1070
    44
1040
1.0
1070
    74
1070
     0
1000
MTEXTEND
  0
POINT
  5
1B493
330
19611
100
AcDbEntity
  8
DEFPOINTS
 62
     0
 48
50.0
100
AcDbPoint
 10
11028.28035131596
 20
9251.214169936794
 30
0.0
  0
POINT
  5
1B494
330
19611
100
AcDbEntity
  8
DEFPOINTS
 62
     0
 48
50.0
100
AcDbPoint
 10
11028.28035131596
 20
8801.214169936798
 30
0.0
  0
POINT
  5
1B495
330
19611
100
AcDbEntity
  8
DEFPOINTS
 62
     0
 48
50.0
100
AcDbPoint
 10
11456.78035131596
 20
8686.397940980063
 30
0.0
  0
ENDBLK
  5
1961C
330
19611
100
AcDbEntity
  8
0
 48
50.0
100
AcDbBlockEnd
  0
BLOCK
  5
19629
330
1961D
100
AcDbEntity
  8
0
 48
50.0
100
AcDbBlockBegin
  2
*D11
 70
     1
 10
0.0
 20
0.0
 30
0.0
  3
*D11
  1

  0
LINE
  5
1B482
330
1961D
100
AcDbEntity
  8
寸法
 62
     0
 48
50.0
370
    -2
100
AcDbLine
 10
11076.78035131594
 20
7966.21416993678
 30
0.0
 11
11816.78035131594
 21
7966.21416993678
 31
0.0
  0
LINE
  5
1B483
330
1961D
100
AcDbEntity
  8
寸法
 62
     0
 48
50.0
370
    -2
100
AcDbLine
 10
11076.78035131594
 20
7911.214169936785
 30
0.0
 11
11816.78035131594
 21
7911.214169936785
 31
0.0
  0
LINE
  5
1B484
330
1961D
100
AcDbEntity
  8
寸法
 62
     0
 48
50.0
370
    -2
100
AcDbLine
 10
11756.78035131594
 20
7966.21416993678
 30
0.0
 11
11756.78035131594
 21
8066.214169936781
 31
0.0
  0
LINE
  5
1B485
330
1961D
100
AcDbEntity
  8
寸法
 62
     0
 48
50.0
370
    -2
100
AcDbLine
 10
11756.78035131594
 20
7911.214169936785
 30
0.0
 11
11756.78035131594
 21
7494.243607188294
 31
0.0
  0
LINE
  5
1B486
330
1961D
100
AcDbEntity
  8
寸法
 62
     0
 48
50.0
370
    -2
100
AcDbLine
 10
11756.78035131594
 20
7966.21416993678
 30
0.0
 11
11756.78035131594
 21
7911.214169936785
 31
0.0
  0
INSERT
  5
1B487
330
1961D
100
AcDbEntity
  8
寸法
 62
     0
 48
50.0
370
    -2
100
AcDbBlockReference
  2
_DOTSMALL
 10
11756.78035131594
 20
7966.21416993678
 30
0.0
 41
100.0
 42
100.0
 43
100.0
 50
270.0
  0
INSERT
  5
1B488
330
1961D
100
AcDbEntity
  8
寸法
 62
     0
 48
50.0
370
    -2
100
AcDbBlockReference
  2
_DOTSMALL
 10
11756.78035131594
 20
7911.214169936785
 30
0.0
 41
100.0
 42
100.0
 43
100.0
 50
90.0
  0
MTEXT
  5
1B489
330
1961D
100
AcDbEntity
  8
寸法
 62
     7
 48
50.0
100
AcDbMText
 10
11656.78035131594
 20
7602.728888562534
 30
0.0
 40
120.0
 41
0.0
 71
     5
 72
     1
  1
\A1;55
  7
STYLE1
 11
0.0000000000000001
 21
1.0
 31
0.0
 73
     1
 44
1.0
1001
ACAD
1000
MTEXTBEGIN
1070
    73
1070
     1
1070
    44
1040
1.0
1070
    74
1070
     0
1000
MTEXTEND
  0
POINT
  5
1B48A
330
1961D
100
AcDbEntity
  8
DEFPOINTS
 62
     0
 48
50.0
100
AcDbPoint
 10
11056.78035131594
 20
7966.21416993678
 30
0.0
  0
POINT
  5
1B48B
330
1961D
100
AcDbEntity
  8
DEFPOINTS
 62
     0
 48
50.0
100
AcDbPoint
 10
11056.78035131594
 20
7911.214169936785
 30
0.0
  0
POINT
  5
1B48C
330
1961D
100
AcDbEntity
  8
DEFPOINTS
 62
     0
 48
50.0
100
AcDbPoint
 10
11756.78035131594
 20
7911.214169936785
 30
0.0
  0
ENDBLK
  5
1962A
330
1961D
100
AcDbEntity
  8
0
 48
50.0
100
AcDbBlockEnd
  0
BLOCK
  5
19635
330
1962B
100
AcDbEntity
  8
0
 48
50.0
100
AcDbBlockBegin
  2
*D12
 70
     1
 10
0.0
 20
0.0
 30
0.0
  3
*D12
  1

  0
LINE
  5
1B479
330
1962B
100
AcDbEntity
  8
寸法
 62
     0
 48
50.0
370
    -2
100
AcDbLine
 10
11076.78035131596
 20
9226.214169936799
 30
0.0
 11
11816.78035131596
 21
9226.214169936799
 31
0.0
  0
LINE
  5
1B47A
330
1962B
100
AcDbEntity
  8
寸法
 62
     0
 48
50.0
370
    -2
100
AcDbLine
 10
11076.78035131594
 20
7966.21416993678
 30
0.0
 11
11816.78035131596
 21
7966.21416993678
 31
0.0
  0
LINE
  5
1B47B
330
1962B
100
AcDbEntity
  8
寸法
 62
     0
 48
50.0
370
    -2
100
AcDbLine
 10
11756.78035131596
 20
9226.214169936799
 30
0.0
 11
11756.78035131596
 21
7966.21416993678
 31
0.0
  0
INSERT
  5
1B47C
330
1962B
100
AcDbEntity
  8
寸法
 62
     0
 48
50.0
370
    -2
100
AcDbBlockReference
  2
_DOTSMALL
 10
11756.78035131596
 20
9226.214169936799
 30
0.0
 41
100.0
 42
100.0
 43
100.0
 50
90.0
  0
INSERT
  5
1B47D
330
1962B
100
AcDbEntity
  8
寸法
 62
     0
 48
50.0
370
    -2
100
AcDbBlockReference
  2
_DOTSMALL
 10
11756.78035131596
 20
7966.21416993678
 30
0.0
 41
100.0
 42
100.0
 43
100.0
 50
270.0
  0
MTEXT
  5
1B47E
330
1962B
100
AcDbEntity
  8
寸法
 62
     7
 48
50.0
100
AcDbMText
 10
11656.76854029233
 20
8596.214169936789
 30
0.0
 40
120.0
 41
0.0
 71
     5
 72
     1
  1
\A1;3X420=1260
  7
STYLE1
 11
0.0000000000000001
 21
1.0
 31
0.0
 73
     1
 44
1.0
1001
ACAD
1000
MTEXTBEGIN
1070
    73
1070
     1
1070
    44
1040
1.0
1070
    74
1070
     0
1000
MTEXTEND
  0
POINT
  5
1B47F
330
1962B
100
AcDbEntity
  8
DEFPOINTS
 62
     0
 48
50.0
100
AcDbPoint
 10
11056.78035131596
 20
9226.214169936799
 30
0.0
  0
POINT
  5
1B480
330
1962B
100
AcDbEntity
  8
DEFPOINTS
 62
     0
 48
50.0
100
AcDbPoint
 10
11056.78035131594
 20
7966.21416993678
 30
0.0
  0
POINT
  5
1B481
330
1962B
100
AcDbEntity
  8
DEFPOINTS
 62
     0
 48
50.0
100
AcDbPoint
 10
11756.78035131596
 20
7966.21416993678
 30
0.0
  0
ENDBLK
  5
19636
330
1962B
100
AcDbEntity
  8
0
 48
50.0
100
AcDbBlockEnd
  0
BLOCK
  5
19641
330
19637
100
AcDbEntity
  8
0
 48
50.0
100
AcDbBlockBegin
  2
*D13
 70
     1
 10
0.0
 20
0.0
 30
0.0
  3
*D13
  1

  0
LINE
  5
1B470
330
19637
100
AcDbEntity
  8
寸法
 62
     0
 48
50.0
370
    -2
100
AcDbLine
 10
11076.78035131596
 20
9281.214169936795
 30
0.0
 11
12116.78035131597
 21
9281.214169936795
 31
0.0
  0
LINE
  5
1B471
330
19637
100
AcDbEntity
  8
寸法
 62
     0
 48
50.0
370
    -2
100
AcDbLine
 10
11076.78035131594
 20
7911.214169936785
 30
0.0
 11
12116.78035131597
 21
7911.214169936785
 31
0.0
  0
LINE
  5
1B472
330
19637
100
AcDbEntity
  8
寸法
 62
     0
 48
50.0
370
    -2
100
AcDbLine
 10
12056.78035131597
 20
9281.214169936795
 30
0.0
 11
12056.78035131597
 21
7911.214169936785
 31
0.0
  0
INSERT
  5
1B473
330
19637
100
AcDbEntity
  8
寸法
 62
     0
 48
50.0
370
    -2
100
AcDbBlockReference
  2
_DOTSMALL
 10
12056.78035131597
 20
9281.214169936795
 30
0.0
 41
100.0
 42
100.0
 43
100.0
 50
90.0
  0
INSERT
  5
1B474
330
19637
100
AcDbEntity
  8
寸法
 62
     0
 48
50.0
370
    -2
100
AcDbBlockReference
  2
_DOTSMALL
 10
12056.78035131597
 20
7911.214169936785
 30
0.0
 41
100.0
 42
100.0
 43
100.0
 50
270.0
  0
MTEXT
  5
1B475
330
19637
100
AcDbEntity
  8
寸法
 62
     7
 48
50.0
100
AcDbMText
 10
11956.78035131596
 20
8596.214169936789
 30
0.0
 40
120.0
 41
0.0
 71
     5
 72
     1
  1
\A1;1370
  7
STYLE1
 11
0.0000000000000001
 21
1.0
 31
0.0
 73
     1
 44
1.0
1001
ACAD
1000
MTEXTBEGIN
1070
    73
1070
     1
1070
    44
1040
1.0
1070
    74
1070
     0
1000
MTEXTEND
  0
POINT
  5
1B476
330
19637
100
AcDbEntity
  8
DEFPOINTS
 62
     0
 48
50.0
100
AcDbPoint
 10
11056.78035131596
 20
9281.214169936795
 30
0.0
  0
POINT
  5
1B477
330
19637
100
AcDbEntity
  8
DEFPOINTS
 62
     0
 48
50.0
100
AcDbPoint
 10
11056.78035131594
 20
7911.214169936785
 30
0.0
  0
POINT
  5
1B478
330
19637
100
AcDbEntity
  8
DEFPOINTS
 62
     0
 48
50.0
100
AcDbPoint
 10
12056.78035131597
 20
7911.214169936785
 30
0.0
  0
ENDBLK
  5
19642
330
19637
100
AcDbEntity
  8
0
 48
50.0
100
AcDbBlockEnd
  0
BLOCK
  5
1964D
330
19643
100
AcDbEntity
  8
0
 48
50.0
100
AcDbBlockBegin
  2
*D14
 70
     1
 10
0.0
 20
0.0
 30
0.0
  3
*D14
  1

  0
LINE
  5
1B467
330
19643
100
AcDbEntity
  8
寸法
 62
     0
 48
50.0
370
    -2
100
AcDbLine
 10
9748.921367467346
 20
8781.214169936806
 30
0.0
 11
9652.469467934082
 21
8421.250780392147
 31
0.0
  0
LINE
  5
1B468
330
19643
100
AcDbEntity
  8
寸法
 62
     0
 48
50.0
370
    -2
100
AcDbLine
 10
11021.92136746735
 20
8781.214169936799
 30
0.0
 11
10925.46946793409
 21
8421.250780392147
 31
0.0
  0
LINE
  5
1B469
330
19643
100
AcDbEntity
  8
寸法
 62
     0
 48
50.0
370
    -2
100
AcDbLine
 10
9668.54641947995
 20
8481.250780392148
 30
0.0
 11
10941.54641947996
 21
8481.250780392148
 31
0.0
  0
INSERT
  5
1B46A
330
19643
100
AcDbEntity
  8
寸法
 62
     0
 48
50.0
370
    -2
100
AcDbBlockReference
  2
_DOTSMALL
 10
9668.54641947995
 20
8481.250780392148
 30
0.0
 41
100.0
 42
100.0
 43
100.0
 50
180.0
  0
INSERT
  5
1B46B
330
19643
100
AcDbEntity
  8
寸法
 62
     0
 48
50.0
370
    -2
100
AcDbBlockReference
  2
_DOTSMALL
 10
10941.54641947996
 20
8481.250780392148
 30
0.0
 41
100.0
 42
100.0
 43
100.0
  0
MTEXT
  5
1B46C
330
19643
100
AcDbEntity
  8
寸法
 62
     7
 48
50.0
100
AcDbMText
 10
10374.66825862998
 20
8581.26259141577
 30
0.0
 40
120.0
 41
0.0
 71
     5
 72
     1
  1
\A1;1273
  7
STYLE1
 73
     1
 44
1.0
1001
ACAD
1000
MTEXTBEGIN
1070
    73
1070
     1
1070
    44
1040
1.0
1070
    74
1070
     0
1000
MTEXTEND
  0
POINT
  5
1B46D
330
19643
100
AcDbEntity
  8
DEFPOINTS
 62
     0
 48
50.0
100
AcDbPoint
 10
9754.280351315967
 20
8801.214169936805
 30
0.0
  0
POINT
  5
1B46E
330
19643
100
AcDbEntity
  8
DEFPOINTS
 62
     0
 48
50.0
100
AcDbPoint
 10
11027.28035131598
 20
8801.214169936798
 30
0.0
  0
POINT
  5
1B46F
330
19643
100
AcDbEntity
  8
DEFPOINTS
 62
     0
 48
50.0
100
AcDbPoint
 10
10941.54641947996
 20
8481.250780392148
 30
0.0
  0
ENDBLK
  5
1964E
330
19643
100
AcDbEntity
  8
0
 48
50.0
100
AcDbBlockEnd
  0
BLOCK
  5
19659
330
1964F
100
AcDbEntity
  8
0
 48
50.0
100
AcDbBlockBegin
  2
*D15
 70
     1
 10
0.0
 20
0.0
 30
0.0
  3
*D15
  1

  0
LINE
  5
1B45E
330
1964F
100
AcDbEntity
  8
寸法
 62
     0
 48
50.0
370
    -2
100
AcDbLine
 10
8426.78035131596
 20
7891.214169936621
 30
0.0
 11
8426.78035131596
 21
6594.826652873876
 31
0.0
  0
LINE
  5
1B45F
330
1964F
100
AcDbEntity
  8
寸法
 62
     0
 48
50.0
370
    -2
100
AcDbLine
 10
11056.78035131594
 20
7891.214169936785
 30
0.0
 11
11056.78035131594
 21
6594.826652873876
 31
0.0
  0
LINE
  5
1B460
330
1964F
100
AcDbEntity
  8
寸法
 62
     0
 48
50.0
370
    -2
100
AcDbLine
 10
8426.78035131596
 20
6654.826652873875
 30
0.0
 11
11056.78035131594
 21
6654.826652873875
 31
0.0
  0
INSERT
  5
1B461
330
1964F
100
AcDbEntity
  8
寸法
 62
     0
 48
50.0
370
    -2
100
AcDbBlockReference
  2
_DOTSMALL
 10
8426.78035131596
 20
6654.826652873875
 30
0.0
 41
100.0
 42
100.0
 43
100.0
 50
180.0
  0
INSERT
  5
1B462
330
1964F
100
AcDbEntity
  8
寸法
 62
     0
 48
50.0
370
    -2
100
AcDbBlockReference
  2
_DOTSMALL
 10
11056.78035131594
 20
6654.826652873875
 30
0.0
 41
100.0
 42
100.0
 43
100.0
  0
MTEXT
  5
1B463
330
1964F
100
AcDbEntity
  8
寸法
 62
     7
 48
50.0
100
AcDbMText
 10
9759.582139952108
 20
6754.838463897496
 30
0.0
 40
120.0
 41
0.0
 71
     5
 72
     1
  1
\A1;2630
  7
STYLE1
 73
     1
 44
1.0
1001
ACAD
1000
MTEXTBEGIN
1070
    73
1070
     1
1070
    44
1040
1.0
1070
    74
1070
     0
1000
MTEXTEND
  0
POINT
  5
1B464
330
1964F
100
AcDbEntity
  8
DEFPOINTS
 62
     0
 48
50.0
100
AcDbPoint
 10
8426.78035131596
 20
7911.214169936622
 30
0.0
  0
POINT
  5
1B465
330
1964F
100
AcDbEntity
  8
DEFPOINTS
 62
     0
 48
50.0
100
AcDbPoint
 10
11056.78035131594
 20
7911.214169936785
 30
0.0
  0
POINT
  5
1B466
330
1964F
100
AcDbEntity
  8
DEFPOINTS
 62
     0
 48
50.0
100
AcDbPoint
 10
11056.78035131594
 20
6654.826652873875
 30
0.0
  0
ENDBLK
  5
1965A
330
1964F
100
AcDbEntity
  8
0
 48
50.0
100
AcDbBlockEnd
  0
BLOCK
  5
19665
330
1965B
100
AcDbEntity
  8
0
 48
50.0
100
AcDbBlockBegin
  2
*D16
 70
     1
 10
0.0
 20
0.0
 30
0.0
  3
*D16
  1

  0
LINE
  5
1B455
330
1965B
100
AcDbEntity
  8
寸法
 62
     0
 48
50.0
370
    -2
100
AcDbLine
 10
8481.780351315967
 20
9301.214169936701
 30
0.0
 11
8481.780351315967
 21
9641.2141699367
 31
0.0
  0
LINE
  5
1B456
330
1965B
100
AcDbEntity
  8
寸法
 62
     0
 48
50.0
370
    -2
100
AcDbLine
 10
11001.78035131597
 20
9301.214169936795
 30
0.0
 11
11001.78035131597
 21
9641.2141699367
 31
0.0
  0
LINE
  5
1B457
330
1965B
100
AcDbEntity
  8
寸法
 62
     0
 48
50.0
370
    -2
100
AcDbLine
 10
8481.780351315967
 20
9581.2141699367
 30
0.0
 11
11001.78035131597
 21
9581.2141699367
 31
0.0
  0
INSERT
  5
1B458
330
1965B
100
AcDbEntity
  8
寸法
 62
     0
 48
50.0
370
    -2
100
AcDbBlockReference
  2
_DOTSMALL
 10
8481.780351315967
 20
9581.2141699367
 30
0.0
 41
100.0
 42
100.0
 43
100.0
 50
180.0
  0
INSERT
  5
1B459
330
1965B
100
AcDbEntity
  8
寸法
 62
     0
 48
50.0
370
    -2
100
AcDbBlockReference
  2
_DOTSMALL
 10
11001.78035131597
 20
9581.2141699367
 30
0.0
 41
100.0
 42
100.0
 43
100.0
  0
MTEXT
  5
1B45A
330
1965B
100
AcDbEntity
  8
寸法
 62
     7
 48
50.0
100
AcDbMText
 10
9741.780351315965
 20
9681.225980960322
 30
0.0
 40
120.0
 41
0.0
 71
     5
 72
     1
  1
\A1;6X420=2520
  7
STYLE1
 73
     1
 44
1.0
1001
ACAD
1000
MTEXTBEGIN
1070
    73
1070
     1
1070
    44
1040
1.0
1070
    74
1070
     0
1000
MTEXTEND
  0
POINT
  5
1B45B
330
1965B
100
AcDbEntity
  8
DEFPOINTS
 62
     0
 48
50.0
100
AcDbPoint
 10
8481.780351315967
 20
9281.214169936701
 30
0.0
  0
POINT
  5
1B45C
330
1965B
100
AcDbEntity
  8
DEFPOINTS
 62
     0
 48
50.0
100
AcDbPoint
 10
11001.78035131597
 20
9281.214169936795
 30
0.0
  0
POINT
  5
1B45D
330
1965B
100
AcDbEntity
  8
DEFPOINTS
 62
     0
 48
50.0
100
AcDbPoint
 10
11001.78035131597
 20
9581.2141699367
 30
0.0
  0
ENDBLK
  5
19666
330
1965B
100
AcDbEntity
  8
0
 48
50.0
100
AcDbBlockEnd
  0
BLOCK
  5
19673
330
19667
100
AcDbEntity
  8
0
 48
50.0
100
AcDbBlockBegin
  2
*D17
 70
     1
 10
0.0
 20
0.0
 30
0.0
  3
*D17
  1

  0
LINE
  5
1B44A
330
19667
100
AcDbEntity
  8
寸法
 62
     0
 48
50.0
370
    -2
100
AcDbLine
 10
11001.78035131597
 20
9301.214169936795
 30
0.0
 11
11001.78035131597
 21
9641.2141699367
 31
0.0
  0
LINE
  5
1B44B
330
19667
100
AcDbEntity
  8
寸法
 62
     0
 48
50.0
370
    -2
100
AcDbLine
 10
11056.78035131596
 20
9301.214169936795
 30
0.0
 11
11056.78035131596
 21
9641.2141699367
 31
0.0
  0
LINE
  5
1B44C
330
19667
100
AcDbEntity
  8
寸法
 62
     0
 48
50.0
370
    -2
100
AcDbLine
 10
11001.78035131597
 20
9581.2141699367
 30
0.0
 11
10901.78035131597
 21
9581.2141699367
 31
0.0
  0
LINE
  5
1B44D
330
19667
100
AcDbEntity
  8
寸法
 62
     0
 48
50.0
370
    -2
100
AcDbLine
 10
11056.78035131596
 20
9581.2141699367
 30
0.0
 11
11473.75091406444
 21
9581.2141699367
 31
0.0
  0
LINE
  5
1B44E
330
19667
100
AcDbEntity
  8
寸法
 62
     0
 48
50.0
370
    -2
100
AcDbLine
 10
11001.78035131597
 20
9581.2141699367
 30
0.0
 11
11056.78035131596
 21
9581.2141699367
 31
0.0
  0
INSERT
  5
1B44F
330
19667
100
AcDbEntity
  8
寸法
 62
     0
 48
50.0
370
    -2
100
AcDbBlockReference
  2
_DOTSMALL
 10
11001.78035131597
 20
9581.2141699367
 30
0.0
 41
100.0
 42
100.0
 43
100.0
  0
INSERT
  5
1B450
330
19667
100
AcDbEntity
  8
寸法
 62
     0
 48
50.0
370
    -2
100
AcDbBlockReference
  2
_DOTSMALL
 10
11056.78035131596
 20
9581.2141699367
 30
0.0
 41
100.0
 42
100.0
 43
100.0
 50
180.0
  0
MTEXT
  5
1B451
330
19667
100
AcDbEntity
  8
寸法
 62
     7
 48
50.0
100
AcDbMText
 10
11365.2656326902
 20
9681.214169936701
 30
0.0
 40
120.0
 41
0.0
 71
     5
 72
     1
  1
\A1;55
  7
STYLE1
 73
     1
 44
1.0
1001
ACAD
1000
MTEXTBEGIN
1070
    73
1070
     1
1070
    44
1040
1.0
1070
    74
1070
     0
1000
MTEXTEND
  0
POINT
  5
1B452
330
19667
100
AcDbEntity
  8
DEFPOINTS
 62
     0
 48
50.0
100
AcDbPoint
 10
11001.78035131597
 20
9281.214169936795
 30
0.0
  0
POINT
  5
1B453
330
19667
100
AcDbEntity
  8
DEFPOINTS
 62
     0
 48
50.0
100
AcDbPoint
 10
11056.78035131596
 20
9281.214169936795
 30
0.0
  0
POINT
  5
1B454
330
19667
100
AcDbEntity
  8
DEFPOINTS
 62
     0
 48
50.0
100
AcDbPoint
 10
11056.78035131596
 20
9581.2141699367
 30
0.0
  0
ENDBLK
  5
19674
330
19667
100
AcDbEntity
  8
0
 48
50.0
100
AcDbBlockEnd
  0
BLOCK
  5
1967F
330
19675
100
AcDbEntity
  8
0
 48
50.0
100
AcDbBlockBegin
  2
*D18
 70
     1
 10
0.0
 20
0.0
 30
0.0
  3
*D18
  1

  0
LINE
  5
1B441
330
19675
100
AcDbEntity
  8
寸法
 62
     0
 48
50.0
370
    -2
100
AcDbLine
 10
8448.921367467276
 20
8781.214169936747
 30
0.0
 11
8352.46946793403
 21
8421.250780392147
 31
0.0
  0
LINE
  5
1B442
330
19675
100
AcDbEntity
  8
寸法
 62
     0
 48
50.0
370
    -2
100
AcDbLine
 10
9721.921367467345
 20
8781.21416993674
 30
0.0
 11
9625.469467934102
 21
8421.250780392147
 31
0.0
  0
LINE
  5
1B443
330
19675
100
AcDbEntity
  8
寸法
 62
     0
 48
50.0
370
    -2
100
AcDbLine
 10
8368.546419479896
 20
8481.250780392148
 30
0.0
 11
9641.546419479968
 21
8481.250780392148
 31
0.0
  0
INSERT
  5
1B444
330
19675
100
AcDbEntity
  8
寸法
 62
     0
 48
50.0
370
    -2
100
AcDbBlockReference
  2
_DOTSMALL
 10
8368.546419479896
 20
8481.250780392148
 30
0.0
 41
100.0
 42
100.0
 43
100.0
 50
180.0
  0
INSERT
  5
1B445
330
19675
100
AcDbEntity
  8
寸法
 62
     0
 48
50.0
370
    -2
100
AcDbBlockReference
  2
_DOTSMALL
 10
9641.546419479968
 20
8481.250780392148
 30
0.0
 41
100.0
 42
100.0
 43
100.0
  0
MTEXT
  5
1B446
330
19675
100
AcDbEntity
  8
寸法
 62
     7
 48
50.0
100
AcDbMText
 10
9005.046419479933
 20
8581.26259141577
 30
0.0
 40
120.0
 41
0.0
 71
     5
 72
     1
  1
\A1;1273
  7
STYLE1
 73
     1
 44
1.0
1001
ACAD
1000
MTEXTBEGIN
1070
    73
1070
     1
1070
    44
1040
1.0
1070
    74
1070
     0
1000
MTEXTEND
  0
POINT
  5
1B447
330
19675
100
AcDbEntity
  8
DEFPOINTS
 62
     0
 48
50.0
100
AcDbPoint
 10
8454.280351315899
 20
8801.214169936747
 30
0.0
  0
POINT
  5
1B448
330
19675
100
AcDbEntity
  8
DEFPOINTS
 62
     0
 48
50.0
100
AcDbPoint
 10
9727.280351315968
 20
8801.21416993674
 30
0.0
  0
POINT
  5
1B449
330
19675
100
AcDbEntity
  8
DEFPOINTS
 62
     0
 48
50.0
100
AcDbPoint
 10
9641.546419479968
 20
8481.250780392148
 30
0.0
  0
ENDBLK
  5
19680
330
19675
100
AcDbEntity
  8
0
 48
50.0
100
AcDbBlockEnd
  0
BLOCK
  5
1968D
330
19681
100
AcDbEntity
  8
0
 48
50.0
100
AcDbBlockBegin
  2
*D19
 70
     1
 10
0.0
 20
0.0
 30
0.0
  3
*D19
  1

  0
LINE
  5
1B436
330
19681
100
AcDbEntity
  8
寸法
 62
     0
 48
50.0
370
    -2
100
AcDbLine
 10
8426.780351315931
 20
9301.214169936701
 30
0.0
 11
8426.780351315931
 21
9641.2141699367
 31
0.0
  0
LINE
  5
1B437
330
19681
100
AcDbEntity
  8
寸法
 62
     0
 48
50.0
370
    -2
100
AcDbLine
 10
8481.780351315967
 20
9301.214169936701
 30
0.0
 11
8481.780351315967
 21
9641.2141699367
 31
0.0
  0
LINE
  5
1B438
330
19681
100
AcDbEntity
  8
寸法
 62
     0
 48
50.0
370
    -2
100
AcDbLine
 10
8481.780351315967
 20
9581.2141699367
 30
0.0
 11
8581.780351315968
 21
9581.2141699367
 31
0.0
  0
LINE
  5
1B439
330
19681
100
AcDbEntity
  8
寸法
 62
     0
 48
50.0
370
    -2
100
AcDbLine
 10
8426.780351315931
 20
9581.2141699367
 30
0.0
 11
8009.809788567453
 21
9581.2141699367
 31
0.0
  0
LINE
  5
1B43A
330
19681
100
AcDbEntity
  8
寸法
 62
     0
 48
50.0
370
    -2
100
AcDbLine
 10
8481.780351315967
 20
9581.2141699367
 30
0.0
 11
8426.780351315931
 21
9581.2141699367
 31
0.0
  0
INSERT
  5
1B43B
330
19681
100
AcDbEntity
  8
寸法
 62
     0
 48
50.0
370
    -2
100
AcDbBlockReference
  2
_DOTSMALL
 10
8481.780351315967
 20
9581.2141699367
 30
0.0
 41
100.0
 42
100.0
 43
100.0
 50
180.0
  0
INSERT
  5
1B43C
330
19681
100
AcDbEntity
  8
寸法
 62
     0
 48
50.0
370
    -2
100
AcDbBlockReference
  2
_DOTSMALL
 10
8426.780351315931
 20
9581.2141699367
 30
0.0
 41
100.0
 42
100.0
 43
100.0
  0
MTEXT
  5
1B43D
330
19681
100
AcDbEntity
  8
寸法
 62
     7
 48
50.0
100
AcDbMText
 10
8118.295069941693
 20
9681.214169936701
 30
0.0
 40
120.0
 41
0.0
 71
     5
 72
     1
  1
\A1;55
  7
STYLE1
 73
     1
 44
1.0
1001
ACAD
1000
MTEXTBEGIN
1070
    73
1070
     1
1070
    44
1040
1.0
1070
    74
1070
     0
1000
MTEXTEND
  0
POINT
  5
1B43E
330
19681
100
AcDbEntity
  8
DEFPOINTS
 62
     0
 48
50.0
100
AcDbPoint
 10
8426.780351315931
 20
9281.214169936701
 30
0.0
  0
POINT
  5
1B43F
330
19681
100
AcDbEntity
  8
DEFPOINTS
 62
     0
 48
50.0
100
AcDbPoint
 10
8481.780351315967
 20
9281.214169936701
 30
0.0
  0
POINT
  5
1B440
330
19681
100
AcDbEntity
  8
DEFPOINTS
 62
     0
 48
50.0
100
AcDbPoint
 10
8481.780351315967
 20
9581.2141699367
 30
0.0
  0
ENDBLK
  5
1968E
330
19681
100
AcDbEntity
  8
0
 48
50.0
100
AcDbBlockEnd
  0
BLOCK
  5
19699
330
1968F
100
AcDbEntity
  8
0
 48
50.0
100
AcDbBlockBegin
  2
*D20
 70
     1
 10
0.0
 20
0.0
 30
0.0
  3
*D20
  1

  0
LINE
  5
1AD07
330
1968F
100
AcDbEntity
  8
寸法
 62
     0
 48
50.0
370
    -2
100
AcDbLine
 10
8526.780351315958
 20
2640.688379067657
 30
0.0
 11
8526.780351315958
 21
2314.641049767279
 31
0.0
  0
LINE
  5
1AD08
330
1968F
100
AcDbEntity
  8
寸法
 62
     0
 48
50.0
370
    -2
100
AcDbLine
 10
8326.780351315957
 20
2640.688379067657
 30
0.0
 11
8326.780351315957
 21
2314.641049767279
 31
0.0
  0
LINE
  5
1AD09
330
1968F
100
AcDbEntity
  8
寸法
 62
     0
 48
50.0
370
    -2
100
AcDbLine
 10
8526.780351315958
 20
2374.641049767279
 30
0.0
 11
8326.780351315957
 21
2374.641049767279
 31
0.0
  0
INSERT
  5
1AD0A
330
1968F
100
AcDbEntity
  8
寸法
 62
     0
 48
50.0
370
    -2
100
AcDbBlockReference
  2
_DOTSMALL
 10
8526.780351315958
 20
2374.641049767279
 30
0.0
 41
100.0
 42
100.0
 43
100.0
  0
INSERT
  5
1AD0B
330
1968F
100
AcDbEntity
  8
寸法
 62
     0
 48
50.0
370
    -2
100
AcDbBlockReference
  2
_DOTSMALL
 10
8326.780351315957
 20
2374.641049767279
 30
0.0
 41
100.0
 42
100.0
 43
100.0
 50
180.0
  0
MTEXT
  5
1AD0C
330
1968F
100
AcDbEntity
  8
寸法
 62
     7
 48
50.0
100
AcDbMText
 10
8426.780351315956
 20
2474.652860790901
 30
0.0
 40
120.0
 41
0.0
 71
     5
 72
     1
  1
\A1;200
  7
STYLE1
 73
     1
 44
1.0
1001
ACAD
1000
MTEXTBEGIN
1070
    73
1070
     1
1070
    44
1040
1.0
1070
    74
1070
     0
1000
MTEXTEND
  0
POINT
  5
1AD0D
330
1968F
100
AcDbEntity
  8
DEFPOINTS
 62
     0
 48
50.0
100
AcDbPoint
 10
8526.780351315958
 20
2660.688379067657
 30
0.0
  0
POINT
  5
1AD0E
330
1968F
100
AcDbEntity
  8
DEFPOINTS
 62
     0
 48
50.0
100
AcDbPoint
 10
8326.780351315957
 20
2660.688379067657
 30
0.0
  0
POINT
  5
1AD0F
330
1968F
100
AcDbEntity
  8
DEFPOINTS
 62
     0
 48
50.0
100
AcDbPoint
 10
8326.780351315957
 20
2374.641049767279
 30
0.0
  0
ENDBLK
  5
1969A
330
1968F
100
AcDbEntity
  8
0
 48
50.0
100
AcDbBlockEnd
  0
BLOCK
  5
1A75C
330
1A751
100
AcDbEntity
  8
0
 48
50.0
100
AcDbBlockBegin
  2
*D21
 70
     1
 10
0.0
 20
0.0
 30
0.0
  3
*D21
  1

  0
LINE
  5
1ACCD
330
1A751
100
AcDbEntity
  8
寸法
 62
     0
 48
50.0
370
    -2
100
AcDbLine
 10
8351.780351315957
 20
2960.688379067656
 30
0.0
 11
7458.140969386597
 21
2960.688379067656
 31
0.0
  0
LINE
  5
1ACCE
330
1A751
100
AcDbEntity
  8
寸法
 62
     0
 48
50.0
370
    -2
100
AcDbLine
 10
7783.127642157658
 20
2860.688379067657
 30
0.0
 11
7458.140969386597
 21
2860.688379067657
 31
0.0
  0
LINE
  5
1ACCF
330
1A751
100
AcDbEntity
  8
寸法
 62
     0
 48
50.0
370
    -2
100
AcDbLine
 10
7518.140969386599
 20
2960.688379067656
 30
0.0
 11
7518.140969386599
 21
2860.688379067657
 31
0.0
  0
LINE
  5
1ACD0
330
1A751
100
AcDbEntity
  8
寸法
 62
     0
 48
50.0
370
    -2
100
AcDbLine
 10
7518.140969386599
 20
2860.688379067657
 30
0.0
 11
7518.140969386599
 21
2488.593890878677
 31
0.0
  0
INSERT
  5
1ACD1
330
1A751
100
AcDbEntity
  8
寸法
 62
     0
 48
50.0
370
    -2
100
AcDbBlockReference
  2
_DOTSMALL
 10
7518.140969386599
 20
2960.688379067656
 30
0.0
 41
100.0
 42
100.0
 43
100.0
 50
90.0
  0
INSERT
  5
1ACD2
330
1A751
100
AcDbEntity
  8
寸法
 62
     0
 48
50.0
370
    -2
100
AcDbBlockReference
  2
_DOTSMALL
 10
7518.140969386599
 20
2860.688379067657
 30
0.0
 41
100.0
 42
100.0
 43
100.0
 50
270.0
  0
MTEXT
  5
1ACD3
330
1A751
100
AcDbEntity
  8
寸法
 62
     7
 48
50.0
100
AcDbMText
 10
7418.140969386597
 20
2624.641134973166
 30
0.0
 40
120.0
 41
0.0
 71
     5
 72
     1
  1
\A1;100
  7
STYLE1
 11
0.0000000000000001
 21
1.0
 31
0.0
 73
     1
 44
1.0
1001
ACAD
1000
MTEXTBEGIN
1070
    73
1070
     1
1070
    44
1040
1.0
1070
    74
1070
     0
1000
MTEXTEND
  0
POINT
  5
1ACD4
330
1A751
100
AcDbEntity
  8
DEFPOINTS
 62
     0
 48
50.0
100
AcDbPoint
 10
8371.780351315956
 20
2960.688379067656
 30
0.0
  0
POINT
  5
1ACD5
330
1A751
100
AcDbEntity
  8
DEFPOINTS
 62
     0
 48
50.0
100
AcDbPoint
 10
7803.127642157659
 20
2860.688379067657
 30
0.0
  0
POINT
  5
1ACD6
330
1A751
100
AcDbEntity
  8
DEFPOINTS
 62
     0
 48
50.0
100
AcDbPoint
 10
7518.140969386599
 20
2860.688379067657
 30
0.0
  0
ENDBLK
  5
1A75D
330
1A751
100
AcDbEntity
  8
0
 48
50.0
100
AcDbBlockEnd
  0
BLOCK
  5
1A76A
330
1A75E
100
AcDbEntity
  8
0
 48
50.0
100
AcDbBlockBegin
  2
*D22
 70
     1
 10
0.0
 20
0.0
 30
0.0
  3
*D22
  1

  0
LINE
  5
1ACD7
330
1A75E
100
AcDbEntity
  8
寸法
 62
     0
 48
50.0
370
    -2
100
AcDbLine
 10
8406.780351315957
 20
3010.688379067657
 30
0.0
 11
7743.127642157659
 21
3010.688379067657
 31
0.0
  0
LINE
  5
1ACD8
330
1A75E
100
AcDbEntity
  8
寸法
 62
     0
 48
50.0
370
    -2
100
AcDbLine
 10
8351.780351315957
 20
2960.688379067656
 30
0.0
 11
7743.127642157659
 21
2960.688379067656
 31
0.0
  0
LINE
  5
1ACD9
330
1A75E
100
AcDbEntity
  8
寸法
 62
     0
 48
50.0
370
    -2
100
AcDbLine
 10
7803.127642157659
 20
3010.688379067657
 30
0.0
 11
7803.127642157659
 21
3110.688379067657
 31
0.0
  0
LINE
  5
1ACDA
330
1A75E
100
AcDbEntity
  8
寸法
 62
     0
 48
50.0
370
    -2
100
AcDbLine
 10
7803.127642157659
 20
2960.688379067656
 30
0.0
 11
7803.127642157659
 21
2548.593890878677
 31
0.0
  0
LINE
  5
1ACDB
330
1A75E
100
AcDbEntity
  8
寸法
 62
     0
 48
50.0
370
    -2
100
AcDbLine
 10
7803.127642157659
 20
3010.688379067657
 30
0.0
 11
7803.127642157659
 21
2960.688379067656
 31
0.0
  0
INSERT
  5
1ACDC
330
1A75E
100
AcDbEntity
  8
寸法
 62
     0
 48
50.0
370
    -2
100
AcDbBlockReference
  2
_DOTSMALL
 10
7803.127642157659
 20
3010.688379067657
 30
0.0
 41
100.0
 42
100.0
 43
100.0
 50
270.0
  0
INSERT
  5
1ACDD
330
1A75E
100
AcDbEntity
  8
寸法
 62
     0
 48
50.0
370
    -2
100
AcDbBlockReference
  2
_DOTSMALL
 10
7803.127642157659
 20
2960.688379067656
 30
0.0
 41
100.0
 42
100.0
 43
100.0
 50
90.0
  0
MTEXT
  5
1ACDE
330
1A75E
100
AcDbEntity
  8
寸法
 62
     7
 48
50.0
100
AcDbMText
 10
7703.127642157659
 20
2654.641134973167
 30
0.0
 40
120.0
 41
0.0
 71
     5
 72
     1
  1
\A1;50
  7
STYLE1
 11
0.0000000000000001
 21
1.0
 31
0.0
 73
     1
 44
1.0
1001
ACAD
1000
MTEXTBEGIN
1070
    73
1070
     1
1070
    44
1040
1.0
1070
    74
1070
     0
1000
MTEXTEND
  0
POINT
  5
1ACDF
330
1A75E
100
AcDbEntity
  8
DEFPOINTS
 62
     0
 48
50.0
100
AcDbPoint
 10
8426.780351315956
 20
3010.688379067657
 30
0.0
  0
POINT
  5
1ACE0
330
1A75E
100
AcDbEntity
  8
DEFPOINTS
 62
     0
 48
50.0
100
AcDbPoint
 10
8371.780351315956
 20
2960.688379067656
 30
0.0
  0
POINT
  5
1ACE1
330
1A75E
100
AcDbEntity
  8
DEFPOINTS
 62
     0
 48
50.0
100
AcDbPoint
 10
7803.127642157659
 20
2960.688379067656
 30
0.0
  0
ENDBLK
  5
1A76B
330
1A75E
100
AcDbEntity
  8
0
 48
50.0
100
AcDbBlockEnd
  0
BLOCK
  5
1A776
330
1A76C
100
AcDbEntity
  8
0
 48
50.0
100
AcDbBlockBegin
  2
*D23
 70
     1
 10
0.0
 20
0.0
 30
0.0
  3
*D23
  1

  0
LINE
  5
1ACE2
330
1A76C
100
AcDbEntity
  8
寸法
 62
     0
 48
50.0
370
    -2
100
AcDbLine
 10
8406.780351315957
 20
4800.688379067657
 30
0.0
 11
7743.127642157659
 21
4800.688379067657
 31
0.0
  0
LINE
  5
1ACE3
330
1A76C
100
AcDbEntity
  8
寸法
 62
     0
 48
50.0
370
    -2
100
AcDbLine
 10
8406.780351315957
 20
3010.688379067657
 30
0.0
 11
7743.127642157659
 21
3010.688379067657
 31
0.0
  0
LINE
  5
1ACE4
330
1A76C
100
AcDbEntity
  8
寸法
 62
     0
 48
50.0
370
    -2
100
AcDbLine
 10
7803.127642157659
 20
4800.688379067657
 30
0.0
 11
7803.127642157659
 21
3010.688379067657
 31
0.0
  0
INSERT
  5
1ACE5
330
1A76C
100
AcDbEntity
  8
寸法
 62
     0
 48
50.0
370
    -2
100
AcDbBlockReference
  2
_DOTSMALL
 10
7803.127642157659
 20
4800.688379067657
 30
0.0
 41
100.0
 42
100.0
 43
100.0
 50
90.0
  0
INSERT
  5
1ACE6
330
1A76C
100
AcDbEntity
  8
寸法
 62
     0
 48
50.0
370
    -2
100
AcDbBlockReference
  2
_DOTSMALL
 10
7803.127642157659
 20
3010.688379067657
 30
0.0
 41
100.0
 42
100.0
 43
100.0
 50
270.0
  0
MTEXT
  5
1ACE7
330
1A76C
100
AcDbEntity
  8
寸法
 62
     7
 48
50.0
100
AcDbMText
 10
7703.127642157659
 20
3901.142677609615
 30
0.0
 40
120.0
 41
0.0
 71
     5
 72
     1
  1
\A1;1790
  7
STYLE1
 11
0.0000000000000001
 21
1.0
 31
0.0
 73
     1
 44
1.0
1001
ACAD
1000
MTEXTBEGIN
1070
    73
1070
     1
1070
    44
1040
1.0
1070
    74
1070
     0
1000
MTEXTEND
  0
POINT
  5
1ACE8
330
1A76C
100
AcDbEntity
  8
DEFPOINTS
 62
     0
 48
50.0
100
AcDbPoint
 10
8426.780351315956
 20
4800.688379067657
 30
0.0
  0
POINT
  5
1ACE9
330
1A76C
100
AcDbEntity
  8
DEFPOINTS
 62
     0
 48
50.0
100
AcDbPoint
 10
8426.780351315956
 20
3010.688379067657
 30
0.0
  0
POINT
  5
1ACEA
330
1A76C
100
AcDbEntity
  8
DEFPOINTS
 62
     0
 48
50.0
100
AcDbPoint
 10
7803.127642157659
 20
3010.688379067657
 30
0.0
  0
ENDBLK
  5
1A777
330
1A76C
100
AcDbEntity
  8
0
 48
50.0
100
AcDbBlockEnd
  0
BLOCK
  5
1A782
330
1A778
100
AcDbEntity
  8
0
 48
50.0
100
AcDbBlockBegin
  2
*D24
 70
     1
 10
0.0
 20
0.0
 30
0.0
  3
*D24
  1

  0
LINE
  5
1ACEB
330
1A778
100
AcDbEntity
  8
寸法
 62
     0
 48
50.0
370
    -2
100
AcDbLine
 10
8406.780351315957
 20
2960.688379067656
 30
0.0
 11
7458.140969386597
 21
2960.688379067656
 31
0.0
  0
LINE
  5
1ACEC
330
1A778
100
AcDbEntity
  8
寸法
 62
     0
 48
50.0
370
    -2
100
AcDbLine
 10
8346.780351315956
 20
5035.688379067662
 30
0.0
 11
7458.140969386597
 21
5035.688379067662
 31
0.0
  0
LINE
  5
1ACED
330
1A778
100
AcDbEntity
  8
寸法
 62
     0
 48
50.0
370
    -2
100
AcDbLine
 10
7518.140969386599
 20
2960.688379067656
 30
0.0
 11
7518.140969386599
 21
5035.688379067662
 31
0.0
  0
INSERT
  5
1ACEE
330
1A778
100
AcDbEntity
  8
寸法
 62
     0
 48
50.0
370
    -2
100
AcDbBlockReference
  2
_DOTSMALL
 10
7518.140969386599
 20
2960.688379067656
 30
0.0
 41
100.0
 42
100.0
 43
100.0
 50
270.0
  0
INSERT
  5
1ACEF
330
1A778
100
AcDbEntity
  8
寸法
 62
     0
 48
50.0
370
    -2
100
AcDbBlockReference
  2
_DOTSMALL
 10
7518.140969386599
 20
5035.688379067662
 30
0.0
 41
100.0
 42
100.0
 43
100.0
 50
90.0
  0
MTEXT
  5
1ACF0
330
1A778
100
AcDbEntity
  8
寸法
 62
     7
 48
50.0
100
AcDbMText
 10
7418.129158362976
 20
3954.894256560767
 30
0.0
 40
120.0
 41
0.0
 71
     5
 72
     1
  1
\A1;2075
  7
STYLE1
 11
0.0000000000000001
 21
1.0
 31
0.0
 73
     1
 44
1.0
1001
ACAD
1000
MTEXTBEGIN
1070
    73
1070
     1
1070
    44
1040
1.0
1070
    74
1070
     0
1000
MTEXTEND
  0
POINT
  5
1ACF1
330
1A778
100
AcDbEntity
  8
DEFPOINTS
 62
     0
 48
50.0
100
AcDbPoint
 10
8426.780351315956
 20
2960.688379067656
 30
0.0
  0
POINT
  5
1ACF2
330
1A778
100
AcDbEntity
  8
DEFPOINTS
 62
     0
 48
50.0
100
AcDbPoint
 10
8366.780351315957
 20
5035.688379067662
 30
0.0
  0
POINT
  5
1ACF3
330
1A778
100
AcDbEntity
  8
DEFPOINTS
 62
     0
 48
50.0
100
AcDbPoint
 10
7518.140969386599
 20
5035.688379067662
 30
0.0
  0
ENDBLK
  5
1A783
330
1A778
100
AcDbEntity
  8
0
 48
50.0
100
AcDbBlockEnd
  0
BLOCK
  5
1A78F
330
1A784
100
AcDbEntity
  8
0
 48
50.0
100
AcDbBlockBegin
  2
*D25
 70
     1
 10
0.0
 20
0.0
 30
0.0
  3
*D25
  1

  0
LINE
  5
1ACF4
330
1A784
100
AcDbEntity
  8
寸法
 62
     0
 48
50.0
370
    -2
100
AcDbLine
 10
8366.184637607057
 20
5034.986086137318
 30
0.0
 11
7750.250198501785
 21
5052.700236411647
 31
0.0
  0
LINE
  5
1ACF5
330
1A784
100
AcDbEntity
  8
寸法
 62
     0
 48
50.0
370
    -2
100
AcDbLine
 10
8362.131182050433
 20
4894.044362371605
 30
0.0
 11
7746.196742945159
 21
4911.758512645934
 31
0.0
  0
LINE
  5
1ACF6
330
1A784
100
AcDbEntity
  8
寸法
 62
     0
 48
50.0
370
    -2
100
AcDbLine
 10
7806.171944547589
 20
4910.033637940985
 30
0.0
 11
7810.225400104215
 21
5050.975361706699
 31
0.0
  0
LINE
  5
1ACF7
330
1A784
100
AcDbEntity
  8
寸法
 62
     0
 48
50.0
370
    -2
100
AcDbLine
 10
7810.225400104215
 20
5050.975361706699
 30
0.0
 11
7820.5746483339
 21
5410.826571321288
 31
0.0
  0
INSERT
  5
1ACF8
330
1A784
100
AcDbEntity
  8
寸法
 62
     0
 48
50.0
370
    -2
100
AcDbBlockReference
  2
_DOTSMALL
 10
7806.171944547589
 20
4910.033637940985
 30
0.0
 41
100.0
 42
100.0
 43
100.0
 50
268.3526390256379
  0
INSERT
  5
1ACF9
330
1A784
100
AcDbEntity
  8
寸法
 62
     0
 48
50.0
370
    -2
100
AcDbBlockReference
  2
_DOTSMALL
 10
7810.225400104215
 20
5050.975361706699
 30
0.0
 41
100.0
 42
100.0
 43
100.0
 50
88.35263902563784
  0
MTEXT
  5
1ACFA
330
1A784
100
AcDbEntity
  8
寸法
 62
     7
 48
50.0
100
AcDbMText
 10
7716.878750469129
 20
5283.755092357601
 30
0.0
 40
120.0
 41
0.0
 71
     5
 72
     1
  1
\A1;141
  7
STYLE1
 11
0.0287479117491228
 21
0.9995866933738486
 31
0.0
 73
     1
 44
1.0
1001
ACAD
1000
MTEXTBEGIN
1070
    73
1070
     1
1070
    44
1040
1.0
1070
    74
1070
     0
1000
MTEXTEND
  0
POINT
  5
1ACFB
330
1A784
100
AcDbEntity
  8
DEFPOINTS
 62
     0
 48
50.0
100
AcDbPoint
 10
8386.176371474533
 20
5034.411127902336
 30
0.0
  0
POINT
  5
1ACFC
330
1A784
100
AcDbEntity
  8
DEFPOINTS
 62
     0
 48
50.0
100
AcDbPoint
 10
8382.122915917909
 20
4893.469404136622
 30
0.0
  0
POINT
  5
1ACFD
330
1A784
100
AcDbEntity
  8
DEFPOINTS
 62
     0
 48
50.0
100
AcDbPoint
 10
7806.171944547589
 20
4910.033637940985
 30
0.0
  0
ENDBLK
  5
1A790
330
1A784
100
AcDbEntity
  8
0
 48
50.0
100
AcDbBlockEnd
  0
BLOCK
  5
1A79B
330
1A791
100
AcDbEntity
  8
0
 48
50.0
100
AcDbBlockBegin
  2
*D26
 70
     1
 10
0.0
 20
0.0
 30
0.0
  3
*D26
  1

  0
LINE
  5
1ACFE
330
1A791
100
AcDbEntity
  8
寸法
 62
     0
 48
50.0
370
    -2
100
AcDbLine
 10
8854.780351315957
 20
4743.688379067656
 30
0.0
 11
8073.555544844941
 21
4743.688379067656
 31
0.0
  0
LINE
  5
1ACFF
330
1A791
100
AcDbEntity
  8
寸法
 62
     0
 48
50.0
370
    -2
100
AcDbLine
 10
8854.780351315957
 20
3018.688379067656
 30
0.0
 11
8073.555544844941
 21
3018.688379067656
 31
0.0
  0
LINE
  5
1AD00
330
1A791
100
AcDbEntity
  8
寸法
 62
     0
 48
50.0
370
    -2
100
AcDbLine
 10
8133.555544844943
 20
4743.688379067656
 30
0.0
 11
8133.555544844943
 21
3018.688379067656
 31
0.0
  0
INSERT
  5
1AD01
330
1A791
100
AcDbEntity
  8
寸法
 62
     0
 48
50.0
370
    -2
100
AcDbBlockReference
  2
_DOTSMALL
 10
8133.555544844943
 20
4743.688379067656
 30
0.0
 41
100.0
 42
100.0
 43
100.0
 50
90.0
  0
INSERT
  5
1AD02
330
1A791
100
AcDbEntity
  8
寸法
 62
     0
 48
50.0
370
    -2
100
AcDbBlockReference
  2
_DOTSMALL
 10
8133.555544844943
 20
3018.688379067656
 30
0.0
 41
100.0
 42
100.0
 43
100.0
 50
270.0
  0
MTEXT
  5
1AD03
330
1A791
100
AcDbEntity
  8
寸法
 62
     7
 48
50.0
100
AcDbMText
 10
8033.54373382132
 20
3920.616999276617
 30
0.0
 40
120.0
 41
0.0
 71
     5
 72
     1
  1
\A1;有効開口部高サ1725
  7
STYLE1
 11
0.0000000000000001
 21
1.0
 31
0.0
 73
     1
 44
1.0
1001
ACAD
1000
MTEXTBEGIN
1070
    73
1070
     1
1070
    44
1040
1.0
1070
    74
1070
     0
1000
MTEXTEND
  0
POINT
  5
1AD04
330
1A791
100
AcDbEntity
  8
DEFPOINTS
 62
     0
 48
50.0
100
AcDbPoint
 10
8874.780351315958
 20
4743.688379067656
 30
0.0
  0
POINT
  5
1AD05
330
1A791
100
AcDbEntity
  8
DEFPOINTS
 62
     0
 48
50.0
100
AcDbPoint
 10
8874.780351315958
 20
3018.688379067656
 30
0.0
  0
POINT
  5
1AD06
330
1A791
100
AcDbEntity
  8
DEFPOINTS
 62
     0
 48
50.0
100
AcDbPoint
 10
8133.555544844943
 20
3018.688379067656
 30
0.0
  0
ENDBLK
  5
1A79C
330
1A791
100
AcDbEntity
  8
0
 48
50.0
100
AcDbBlockEnd
  0
BLOCK
  5
1AADD
330
1AAD3
100
AcDbEntity
  8
0
 48
50.0
100
AcDbBlockBegin
  2
*D27
 70
     1
 10
0.0
 20
0.0
 30
0.0
  3
*D27
  1

  0
LINE
  5
1ACB1
330
1AAD3
100
AcDbEntity
  8
寸法
 62
     0
 48
50.0
370
    -2
100
AcDbLine
 10
11056.78035131596
 20
5002.499058679311
 30
0.0
 11
11056.78035131596
 21
5494.345832646962
 31
0.0
  0
LINE
  5
1ACB2
330
1AAD3
100
AcDbEntity
  8
寸法
 62
     0
 48
50.0
370
    -2
100
AcDbLine
 10
8426.78035131596
 20
5051.689997190633
 30
0.0
 11
8426.78035131596
 21
5494.345832646962
 31
0.0
  0
LINE
  5
1ACB3
330
1AAD3
100
AcDbEntity
  8
寸法
 62
     0
 48
50.0
370
    -2
100
AcDbLine
 10
11056.78035131596
 20
5434.345832646961
 30
0.0
 11
8426.78035131596
 21
5434.345832646961
 31
0.0
  0
INSERT
  5
1ACB4
330
1AAD3
100
AcDbEntity
  8
寸法
 62
     0
 48
50.0
370
    -2
100
AcDbBlockReference
  2
_DOTSMALL
 10
11056.78035131596
 20
5434.345832646961
 30
0.0
 41
100.0
 42
100.0
 43
100.0
  0
INSERT
  5
1ACB5
330
1AAD3
100
AcDbEntity
  8
寸法
 62
     0
 48
50.0
370
    -2
100
AcDbBlockReference
  2
_DOTSMALL
 10
8426.78035131596
 20
5434.345832646961
 30
0.0
 41
100.0
 42
100.0
 43
100.0
 50
180.0
  0
MTEXT
  5
1ACB6
330
1AAD3
100
AcDbEntity
  8
寸法
 62
     7
 48
50.0
100
AcDbMText
 10
9781.550542345154
 20
5534.357643670584
 30
0.0
 40
120.0
 41
0.0
 71
     5
 72
     1
  1
\A1;柱外寸法2630
  7
STYLE1
 73
     1
 44
1.0
1001
ACAD
1000
MTEXTBEGIN
1070
    73
1070
     1
1070
    44
1040
1.0
1070
    74
1070
     0
1000
MTEXTEND
  0
POINT
  5
1ACB7
330
1AAD3
100
AcDbEntity
  8
DEFPOINTS
 62
     0
 48
50.0
100
AcDbPoint
 10
11056.78035131596
 20
4982.499058679311
 30
0.0
  0
POINT
  5
1ACB8
330
1AAD3
100
AcDbEntity
  8
DEFPOINTS
 62
     0
 48
50.0
100
AcDbPoint
 10
8426.78035131596
 20
5031.689997190633
 30
0.0
  0
POINT
  5
1ACB9
330
1AAD3
100
AcDbEntity
  8
DEFPOINTS
 62
     0
 48
50.0
100
AcDbPoint
 10
8426.78035131596
 20
5434.345832646961
 30
0.0
  0
ENDBLK
  5
1AADE
330
1AAD3
100
AcDbEntity
  8
0
 48
50.0
100
AcDbBlockEnd
  0
BLOCK
  5
1AAEB
330
1AADF
100
AcDbEntity
  8
0
 48
50.0
100
AcDbBlockBegin
  2
*D28
 70
     1
 10
0.0
 20
0.0
 30
0.0
  3
*D28
  1

  0
LINE
  5
1ACA6
330
1AADF
100
AcDbEntity
  8
寸法
 62
     0
 48
50.0
370
    -2
100
AcDbLine
 10
8426.78035131596
 20
5051.689997190633
 30
0.0
 11
8426.78035131596
 21
5494.345832646961
 31
0.0
  0
LINE
  5
1ACA7
330
1AADF
100
AcDbEntity
  8
寸法
 62
     0
 48
50.0
370
    -2
100
AcDbLine
 10
8366.780351315959
 20
5055.688379067661
 30
0.0
 11
8366.780351315959
 21
5494.345832646961
 31
0.0
  0
LINE
  5
1ACA8
330
1AADF
100
AcDbEntity
  8
寸法
 62
     0
 48
50.0
370
    -2
100
AcDbLine
 10
8426.78035131596
 20
5434.345832646961
 30
0.0
 11
8526.780351315959
 21
5434.345832646961
 31
0.0
  0
LINE
  5
1ACA9
330
1AADF
100
AcDbEntity
  8
寸法
 62
     0
 48
50.0
370
    -2
100
AcDbLine
 10
8366.780351315959
 20
5434.345832646961
 30
0.0
 11
7947.504760764778
 21
5434.345832646961
 31
0.0
  0
LINE
  5
1ACAA
330
1AADF
100
AcDbEntity
  8
寸法
 62
     0
 48
50.0
370
    -2
100
AcDbLine
 10
8426.78035131596
 20
5434.345832646961
 30
0.0
 11
8366.780351315959
 21
5434.345832646961
 31
0.0
  0
INSERT
  5
1ACAB
330
1AADF
100
AcDbEntity
  8
寸法
 62
     0
 48
50.0
370
    -2
100
AcDbBlockReference
  2
_DOTSMALL
 10
8426.78035131596
 20
5434.345832646961
 30
0.0
 41
100.0
 42
100.0
 43
100.0
 50
180.0
  0
INSERT
  5
1ACAC
330
1AADF
100
AcDbEntity
  8
寸法
 62
     0
 48
50.0
370
    -2
100
AcDbBlockReference
  2
_DOTSMALL
 10
8366.780351315959
 20
5434.345832646961
 30
0.0
 41
100.0
 42
100.0
 43
100.0
  0
MTEXT
  5
1ACAD
330
1AADF
100
AcDbEntity
  8
寸法
 62
     7
 48
50.0
100
AcDbMText
 10
8057.142556040369
 20
5534.345832646961
 30
0.0
 40
120.0
 41
0.0
 71
     5
 72
     1
  1
\A1;60
  7
STYLE1
 73
     1
 44
1.0
1001
ACAD
1000
MTEXTBEGIN
1070
    73
1070
     1
1070
    44
1040
1.0
1070
    74
1070
     0
1000
MTEXTEND
  0
POINT
  5
1ACAE
330
1AADF
100
AcDbEntity
  8
DEFPOINTS
 62
     0
 48
50.0
100
AcDbPoint
 10
8426.78035131596
 20
5031.689997190633
 30
0.0
  0
POINT
  5
1ACAF
330
1AADF
100
AcDbEntity
  8
DEFPOINTS
 62
     0
 48
50.0
100
AcDbPoint
 10
8366.780351315959
 20
5035.688379067661
 30
0.0
  0
POINT
  5
1ACB0
330
1AADF
100
AcDbEntity
  8
DEFPOINTS
 62
     0
 48
50.0
100
AcDbPoint
 10
8366.780351315959
 20
5434.345832646961
 30
0.0
  0
ENDBLK
  5
1AAEC
330
1AADF
100
AcDbEntity
  8
0
 48
50.0
100
AcDbBlockEnd
  0
BLOCK
  5
1AAF7
330
1AAED
100
AcDbEntity
  8
0
 48
50.0
100
AcDbBlockBegin
  2
*D29
 70
     1
 10
0.0
 20
0.0
 30
0.0
  3
*D29
  1

  0
LINE
  5
1ACBA
330
1AAED
100
AcDbEntity
  8
寸法
 62
     0
 48
50.0
370
    -2
100
AcDbLine
 10
11136.78035131596
 20
5000.688379067658
 30
0.0
 11
11136.78035131596
 21
5714.556519378579
 31
0.0
  0
LINE
  5
1ACBB
330
1AAED
100
AcDbEntity
  8
寸法
 62
     0
 48
50.0
370
    -2
100
AcDbLine
 10
8366.780351315959
 20
5055.688379067661
 30
0.0
 11
8366.780351315959
 21
5714.556519378579
 31
0.0
  0
LINE
  5
1ACBC
330
1AAED
100
AcDbEntity
  8
寸法
 62
     0
 48
50.0
370
    -2
100
AcDbLine
 10
11136.78035131596
 20
5654.556519378579
 30
0.0
 11
8366.780351315959
 21
5654.556519378579
 31
0.0
  0
INSERT
  5
1ACBD
330
1AAED
100
AcDbEntity
  8
寸法
 62
     0
 48
50.0
370
    -2
100
AcDbBlockReference
  2
_DOTSMALL
 10
11136.78035131596
 20
5654.556519378579
 30
0.0
 41
100.0
 42
100.0
 43
100.0
  0
INSERT
  5
1ACBE
330
1AAED
100
AcDbEntity
  8
寸法
 62
     0
 48
50.0
370
    -2
100
AcDbBlockReference
  2
_DOTSMALL
 10
8366.780351315959
 20
5654.556519378579
 30
0.0
 41
100.0
 42
100.0
 43
100.0
 50
180.0
  0
MTEXT
  5
1ACBF
330
1AAED
100
AcDbEntity
  8
寸法
 62
     7
 48
50.0
100
AcDbMText
 10
9770.139276203337
 20
5754.5683304022
 30
0.0
 40
120.0
 41
0.0
 71
     5
 72
     1
  1
\A1;2770
  7
STYLE1
 73
     1
 44
1.0
1001
ACAD
1000
MTEXTBEGIN
1070
    73
1070
     1
1070
    44
1040
1.0
1070
    74
1070
     0
1000
MTEXTEND
  0
POINT
  5
1ACC0
330
1AAED
100
AcDbEntity
  8
DEFPOINTS
 62
     0
 48
50.0
100
AcDbPoint
 10
11136.78035131596
 20
4980.688379067658
 30
0.0
  0
POINT
  5
1ACC1
330
1AAED
100
AcDbEntity
  8
DEFPOINTS
 62
     0
 48
50.0
100
AcDbPoint
 10
8366.780351315959
 20
5035.688379067661
 30
0.0
  0
POINT
  5
1ACC2
330
1AAED
100
AcDbEntity
  8
DEFPOINTS
 62
     0
 48
50.0
100
AcDbPoint
 10
8366.780351315959
 20
5654.556519378579
 30
0.0
  0
ENDBLK
  5
1AAF8
330
1AAED
100
AcDbEntity
  8
0
 48
50.0
100
AcDbBlockEnd
  0
BLOCK
  5
1AB04
330
1AAF9
100
AcDbEntity
  8
0
 48
50.0
100
AcDbBlockBegin
  2
*D30
 70
     1
 10
0.0
 20
0.0
 30
0.0
  3
*D30
  1

  0
LINE
  5
1ACC3
330
1AAF9
100
AcDbEntity
  8
寸法
 62
     0
 48
50.0
370
    -2
100
AcDbLine
 10
11056.78035131596
 20
5002.499058679311
 30
0.0
 11
11056.78035131596
 21
5494.345832646962
 31
0.0
  0
LINE
  5
1ACC4
330
1AAF9
100
AcDbEntity
  8
寸法
 62
     0
 48
50.0
370
    -2
100
AcDbLine
 10
11136.78035131596
 20
5000.688379067658
 30
0.0
 11
11136.78035131596
 21
5494.345832646962
 31
0.0
  0
LINE
  5
1ACC5
330
1AAF9
100
AcDbEntity
  8
寸法
 62
     0
 48
50.0
370
    -2
100
AcDbLine
 10
11056.78035131596
 20
5434.345832646961
 30
0.0
 11
11136.78035131596
 21
5434.345832646961
 31
0.0
  0
LINE
  5
1ACC6
330
1AAF9
100
AcDbEntity
  8
寸法
 62
     0
 48
50.0
370
    -2
100
AcDbLine
 10
11136.78035131596
 20
5434.345832646961
 30
0.0
 11
11448.87483950494
 21
5434.345832646961
 31
0.0
  0
INSERT
  5
1ACC7
330
1AAF9
100
AcDbEntity
  8
寸法
 62
     0
 48
50.0
370
    -2
100
AcDbBlockReference
  2
_DOTSMALL
 10
11056.78035131596
 20
5434.345832646961
 30
0.0
 41
100.0
 42
100.0
 43
100.0
 50
180.0
  0
INSERT
  5
1ACC8
330
1AAF9
100
AcDbEntity
  8
寸法
 62
     0
 48
50.0
370
    -2
100
AcDbBlockReference
  2
_DOTSMALL
 10
11136.78035131596
 20
5434.345832646961
 30
0.0
 41
100.0
 42
100.0
 43
100.0
  0
MTEXT
  5
1ACC9
330
1AAF9
100
AcDbEntity
  8
寸法
 62
     7
 48
50.0
100
AcDbMText
 10
11342.82759541045
 20
5534.345832646962
 30
0.0
 40
120.0
 41
0.0
 71
     5
 72
     1
  1
\A1;80
  7
STYLE1
 73
     1
 44
1.0
1001
ACAD
1000
MTEXTBEGIN
1070
    73
1070
     1
1070
    44
1040
1.0
1070
    74
1070
     0
1000
MTEXTEND
  0
POINT
  5
1ACCA
330
1AAF9
100
AcDbEntity
  8
DEFPOINTS
 62
     0
 48
50.0
100
AcDbPoint
 10
11056.78035131596
 20
4982.499058679311
 30
0.0
  0
POINT
  5
1ACCB
330
1AAF9
100
AcDbEntity
  8
DEFPOINTS
 62
     0
 48
50.0
100
AcDbPoint
 10
11136.78035131596
 20
4980.688379067658
 30
0.0
  0
POINT
  5
1ACCC
330
1AAF9
100
AcDbEntity
  8
DEFPOINTS
 62
     0
 48
50.0
100
AcDbPoint
 10
11136.78035131596
 20
5434.345832646961
 30
0.0
  0
ENDBLK
  5
1AB05
330
1AAF9
100
AcDbEntity
  8
0
 48
50.0
100
AcDbBlockEnd
  0
BLOCK
  5
1AF83
330
1AF79
100
AcDbEntity
  8
0
 48
50.0
100
AcDbBlockBegin
  2
*D31
 70
     1
 10
0.0
 20
0.0
 30
0.0
  3
*D31
  1

  0
LINE
  5
1B42D
330
1AF79
100
AcDbEntity
  8
寸法
 62
     0
 48
50.0
370
    -2
100
AcDbLine
 10
8913.780351315933
 20
7814.214169936654
 30
0.0
 11
8913.780351315933
 21
7138.316156183254
 31
0.0
  0
LINE
  5
1B42E
330
1AF79
100
AcDbEntity
  8
寸法
 62
     0
 48
50.0
370
    -2
100
AcDbLine
 10
10179.78035131593
 20
7814.214169936654
 30
0.0
 11
10179.78035131593
 21
7138.316156183254
 31
0.0
  0
LINE
  5
1B42F
330
1AF79
100
AcDbEntity
  8
寸法
 62
     0
 48
50.0
370
    -2
100
AcDbLine
 10
8933.780351315935
 20
7178.316156183253
 30
0.0
 11
10159.78035131593
 21
7178.316156183253
 31
0.0
  0
INSERT
  5
1B430
330
1AF79
100
AcDbEntity
  8
寸法
 62
     0
 48
50.0
370
    -2
100
AcDbBlockReference
  2
_DOT
 10
8913.780351315933
 20
7178.316156183253
 30
0.0
 41
20.0
 42
20.0
 43
20.0
 50
180.0
  0
INSERT
  5
1B431
330
1AF79
100
AcDbEntity
  8
寸法
 62
     0
 48
50.0
370
    -2
100
AcDbBlockReference
  2
_DOT
 10
10179.78035131593
 20
7178.316156183253
 30
0.0
 41
20.0
 42
20.0
 43
20.0
  0
MTEXT
  5
1B432
330
1AF79
100
AcDbEntity
  8
寸法
 62
     7
 48
50.0
100
AcDbMText
 10
9576.931308018306
 20
7370.327967206875
 30
0.0
 40
120.0
 41
0.0
 71
     5
 72
     1
  1
\A1;有効開口部間口\P1266
  7
STYLE1
 73
     1
 44
1.0
1001
ACAD
1000
MTEXTBEGIN
1070
    73
1070
     1
1070
    44
1040
1.0
1070
    74
1070
     0
1000
MTEXTEND
  0
POINT
  5
1B433
330
1AF79
100
AcDbEntity
  8
DEFPOINTS
 62
     0
 48
50.0
100
AcDbPoint
 10
8913.780351315933
 20
7834.214169936655
 30
0.0
  0
POINT
  5
1B434
330
1AF79
100
AcDbEntity
  8
DEFPOINTS
 62
     0
 48
50.0
100
AcDbPoint
 10
10179.78035131593
 20
7834.214169936655
 30
0.0
  0
POINT
  5
1B435
330
1AF79
100
AcDbEntity
  8
DEFPOINTS
 62
     0
 48
50.0
100
AcDbPoint
 10
10179.78035131593
 20
7178.316156183253
 30
0.0
  0
ENDBLK
  5
1AF84
330
1AF79
100
AcDbEntity
  8
0
 48
50.0
100
AcDbBlockEnd
  0
BLOCK
  5
1B2C6
330
1B2BA
100
AcDbEntity
  8
0
 48
50.0
100
AcDbBlockBegin
  2
*D32
 70
     1
 10
0.0
 20
0.0
 30
0.0
  3
*D32
  1

  0
LINE
  5
1B422
330
1B2BA
100
AcDbEntity
  8
寸法
 62
     0
 48
50.0
370
    -2
100
AcDbLine
 10
8406.78035131596
 20
7911.214169936622
 30
0.0
 11
8092.169105689242
 21
7911.214169936622
 31
0.0
  0
LINE
  5
1B423
330
1B2BA
100
AcDbEntity
  8
寸法
 62
     0
 48
50.0
370
    -2
100
AcDbLine
 10
8854.780351315934
 20
7836.214169936622
 30
0.0
 11
8092.169105689242
 21
7836.214169936622
 31
0.0
  0
LINE
  5
1B424
330
1B2BA
100
AcDbEntity
  8
寸法
 62
     0
 48
50.0
370
    -2
100
AcDbLine
 10
8132.169105689241
 20
7931.21416993662
 30
0.0
 11
8132.169105689241
 21
7951.214169936621
 31
0.0
  0
LINE
  5
1B425
330
1B2BA
100
AcDbEntity
  8
寸法
 62
     0
 48
50.0
370
    -2
100
AcDbLine
 10
8132.169105689241
 20
7816.214169936621
 30
0.0
 11
8132.169105689241
 21
7595.243607188144
 31
0.0
  0
LINE
  5
1B426
330
1B2BA
100
AcDbEntity
  8
寸法
 62
     0
 48
50.0
370
    -2
100
AcDbLine
 10
8132.169105689241
 20
7911.214169936622
 30
0.0
 11
8132.169105689241
 21
7836.214169936622
 31
0.0
  0
INSERT
  5
1B427
330
1B2BA
100
AcDbEntity
  8
寸法
 62
     0
 48
50.0
370
    -2
100
AcDbBlockReference
  2
_DOT
 10
8132.169105689241
 20
7911.214169936622
 30
0.0
 41
20.0
 42
20.0
 43
20.0
 50
270.0
  0
INSERT
  5
1B428
330
1B2BA
100
AcDbEntity
  8
寸法
 62
     0
 48
50.0
370
    -2
100
AcDbBlockReference
  2
_DOT
 10
8132.169105689241
 20
7836.214169936622
 30
0.0
 41
20.0
 42
20.0
 43
20.0
 50
90.0
  0
MTEXT
  5
1B429
330
1B2BA
100
AcDbEntity
  8
寸法
 62
     7
 48
50.0
100
AcDbMText
 10
8040.169105689242
 20
7695.728888562382
 30
0.0
 40
120.0
 41
0.0
 71
     5
 72
     1
  1
\A1;75
  7
STYLE1
 11
0.0000000000000001
 21
1.0
 31
0.0
 73
     1
 44
1.0
1001
ACAD
1000
MTEXTBEGIN
1070
    73
1070
     1
1070
    44
1040
1.0
1070
    74
1070
     0
1000
MTEXTEND
  0
POINT
  5
1B42A
330
1B2BA
100
AcDbEntity
  8
DEFPOINTS
 62
     0
 48
50.0
100
AcDbPoint
 10
8426.78035131596
 20
7911.214169936622
 30
0.0
  0
POINT
  5
1B42B
330
1B2BA
100
AcDbEntity
  8
DEFPOINTS
 62
     0
 48
50.0
100
AcDbPoint
 10
8874.780351315934
 20
7836.214169936622
 30
0.0
  0
POINT
  5
1B42C
330
1B2BA
100
AcDbEntity
  8
DEFPOINTS
 62
     0
 48
50.0
100
AcDbPoint
 10
8132.169105689241
 20
7836.214169936622
 30
0.0
  0
ENDBLK
  5
1B2C7
330
1B2BA
100
AcDbEntity
  8
0
 48
50.0
100
AcDbBlockEnd
  0
BLOCK
  5
1B2D2
330
1B2C8
100
AcDbEntity
  8
0
 48
50.0
100
AcDbBlockBegin
  2
*D33
 70
     1
 10
0.0
 20
0.0
 30
0.0
  3
*D33
  1

  0
LINE
  5
1B419
330
1B2C8
100
AcDbEntity
  8
寸法
 62
     0
 48
50.0
370
    -2
100
AcDbLine
 10
8874.780351315934
 20
7814.214169936654
 30
0.0
 11
8874.780351315934
 21
6854.084454508887
 31
0.0
  0
LINE
  5
1B41A
330
1B2C8
100
AcDbEntity
  8
寸法
 62
     0
 48
50.0
370
    -2
100
AcDbLine
 10
11028.78035131593
 20
7814.214169936654
 30
0.0
 11
11028.78035131593
 21
6854.084454508887
 31
0.0
  0
LINE
  5
1B41B
330
1B2C8
100
AcDbEntity
  8
寸法
 62
     0
 48
50.0
370
    -2
100
AcDbLine
 10
8874.780351315934
 20
6914.084454508888
 30
0.0
 11
11028.78035131593
 21
6914.084454508888
 31
0.0
  0
INSERT
  5
1B41C
330
1B2C8
100
AcDbEntity
  8
寸法
 62
     0
 48
50.0
370
    -2
100
AcDbBlockReference
  2
_DOTSMALL
 10
8874.780351315934
 20
6914.084454508888
 30
0.0
 41
100.0
 42
100.0
 43
100.0
 50
180.0
  0
INSERT
  5
1B41D
330
1B2C8
100
AcDbEntity
  8
寸法
 62
     0
 48
50.0
370
    -2
100
AcDbBlockReference
  2
_DOTSMALL
 10
11028.78035131593
 20
6914.084454508888
 30
0.0
 41
100.0
 42
100.0
 43
100.0
  0
MTEXT
  5
1B41E
330
1B2C8
100
AcDbEntity
  8
寸法
 62
     7
 48
50.0
100
AcDbMText
 10
9973.913108063248
 20
7014.09626553251
 30
0.0
 40
120.0
 41
0.0
 71
     5
 72
     1
  1
\A1;2154
  7
STYLE1
 73
     1
 44
1.0
1001
ACAD
1000
MTEXTBEGIN
1070
    73
1070
     1
1070
    44
1040
1.0
1070
    74
1070
     0
1000
MTEXTEND
  0
POINT
  5
1B41F
330
1B2C8
100
AcDbEntity
  8
DEFPOINTS
 62
     0
 48
50.0
100
AcDbPoint
 10
8874.780351315934
 20
7834.214169936655
 30
0.0
  0
POINT
  5
1B420
330
1B2C8
100
AcDbEntity
  8
DEFPOINTS
 62
     0
 48
50.0
100
AcDbPoint
 10
11028.78035131593
 20
7834.214169936655
 30
0.0
  0
POINT
  5
1B421
330
1B2C8
100
AcDbEntity
  8
DEFPOINTS
 62
     0
 48
50.0
100
AcDbPoint
 10
11028.78035131593
 20
6914.084454508888
 30
0.0
  0
ENDBLK
  5
1B2D3
330
1B2C8
100
AcDbEntity
  8
0
 48
50.0
100
AcDbBlockEnd
  0
ENDSEC
  0
SECTION
  2
ENTITIES
  0
LINE
  5
10B57
330
747D
100
AcDbEntity
  8
補助
  6
PHANTOM
 62
   230
 48
50.0
100
AcDbLine
 10
139.9999999999995
 20
11409.6
 30
0.0
 11
16307.2
 21
11409.6
 31
0.0
  0
LINE
  5
10B59
330
747D
100
AcDbEntity
  8
仕様書枠
  6
Continuous
 48
50.0
100
AcDbLine
 10
13107.2
 20
1200.0
 30
0.0
 11
13107.2
 21
-0.0000000000000729
 31
0.0
  0
LINE
  5
10B5C
330
747D
100
AcDbEntity
  8
仕様書枠
 48
50.0
100
AcDbLine
 10
16307.2
 20
1200.0
 30
0.0
 11
16307.2
 21
-0.0000000000000909
 31
0.0
  0
LINE
  5
10B5D
330
747D
100
AcDbEntity
  8
仕様書枠
 48
50.0
100
AcDbLine
 10
140.0
 20
0.0
 30
0.0
 11
16307.2
 21
-0.0000000000000909
 31
0.0
  0
LINE
  5
10B5E
330
747D
100
AcDbEntity
  8
補助
  6
PHANTOM
 62
   230
 48
50.0
100
AcDbLine
 10
16307.2
 20
11409.6
 30
0.0
 11
16307.2
 21
1200.0
 31
0.0
  0
LINE
  5
10B6C
330
747D
100
AcDbEntity
  8
仕様書枠
 48
50.0
100
AcDbLine
 10
13107.2
 20
1200.0
 30
0.0
 11
16307.2
 21
1200.0
 31
0.0
  0
LINE
  5
10B6D
330
747D
100
AcDbEntity
  8
補助
  6
PHANTOM
 62
   230
 48
50.0
100
AcDbLine
 10
13107.2
 20
11409.6
 30
0.0
 11
13107.2
 21
4800.0
 31
0.0
  0
LINE
  5
10B6F
330
747D
100
AcDbEntity
  8
補助
  6
PHANTOM
 62
   230
 48
50.0
100
AcDbLine
 10
13107.2
 20
4800.0
 30
0.0
 11
16307.2
 21
4800.0
 31
0.0
  0
LINE
  5
10B72
330
747D
100
AcDbEntity
  8
文字
 62
     7
 48
50.0
100
AcDbLine
 10
13187.2
 20
400.0
 30
0.0
 11
16227.2
 21
400.0
 31
0.0
  0
TEXT
  5
10B73
330
747D
100
AcDbEntity
  8
文字
 62
     7
 48
50.0
100
AcDbText
 10
13162.9790565769
 20
895.0906074299405
 30
0.0
 40
200.0
  1
外 形 図
  7
STYLE2
100
AcDbText
  0
TEXT
  5
10B74
330
747D
100
AcDbEntity
  8
文字
 62
     7
 48
50.0
100
AcDbText
 10
13201.43669998441
 20
477.2740661031255
 30
0.0
 40
160.0
  1
機種名
  7
STYLE2
100
AcDbText
  0
TEXT
  5
10B76
330
747D
100
AcDbEntity
  8
文字
 62
     7
 48
50.0
100
AcDbText
 10
13209.4053442172
 20
76.09434707649343
 30
0.0
 40
100.0
  1
○床面積 ： 3.77㎡(1.14坪) 　
  7
STYLE2
100
AcDbText
  0
TEXT
  5
10B79
330
747D
100
AcDbEntity
  8
文字
 62
     7
 48
50.0
100
AcDbText
 10
14524.131837222
 20
1031.557706291228
 30
0.0
 40
100.0
  1
NO.18      <縮尺> S=1/40
  7
STYLE2
100
AcDbText
  0
LINE
  5
10B7B
330
747D
100
AcDbEntity
  8
仕様書枠
 48
50.0
100
AcDbLine
 10
13107.2
 20
800.0
 30
0.0
 11
14251.2
 21
800.0
 31
0.0
  0
LINE
  5
10B88
330
747D
100
AcDbEntity
  8
仕様書枠
  6
Continuous
 48
50.0
100
AcDbLine
 10
14251.2
 20
1200.0
 30
0.0
 11
14251.2
 21
800.0
 31
0.0
  0
TEXT
  5
14D2F
330
747D
100
AcDbEntity
  8
文字
 62
     7
 48
50.0
100
AcDbText
 10
14644.07818602837
 20
876.4448062548634
 30
0.0
 40
100.0
  1
～一般型・多雪地型～
  7
STYLE2
100
AcDbText
  0
DIMENSION
  5
18824
330
747D
100
AcDbEntity
  8
寸法
100
AcDbDimension
  2
*D2
 10
11591.95044707838
 20
4980.688379067658
 30
0.0
 11
11591.95044707838
 21
3942.944706497345
 31
0.0
 70
   160
 71
     5
 42
2020.000000000003
  3
INABA_S40G
100
AcDbAlignedDimension
 13
11056.78035131595
 23
2960.688379067656
 33
0.0
 14
11136.78035131594
 24
4980.688379067658
 34
0.0
 50
90.0
100
AcDbRotatedDimension
1001
ACAD
1000
DSTYLE
1002
{
1070
   174
1070
     0
1070
   272
1070
     1
1070
   288
1070
     0
1070
   341
1005
0
1002
}
  0
LINE
  5
18846
330
747D
100
AcDbEntity
  8
部品1
 48
50.0
100
AcDbLine
 10
5419.6229503754
 20
2960.688379067656
 30
0.0
 11
5419.622950375397
 21
2860.688379067657
 31
0.0
  0
LINE
  5
18847
330
747D
100
AcDbEntity
  8
部品1
 48
50.0
100
AcDbLine
 10
5219.622950375397
 20
2960.688379067656
 30
0.0
 11
5219.622950375397
 21
2860.688379067657
 31
0.0
  0
LINE
  5
18848
330
747D
100
AcDbEntity
  8
部品1
 48
50.0
100
AcDbLine
 10
6081.6229503754
 20
2960.688379067655
 30
0.0
 11
6004.622950375397
 21
2960.688379067656
 31
0.0
  0
LINE
  5
18849
330
747D
100
AcDbEntity
  8
部品1
 48
50.0
100
AcDbLine
 10
6081.6229503754
 20
4785.688379067654
 30
0.0
 11
6081.6229503754
 21
2860.688379067655
 31
0.0
  0
LINE
  5
1884A
330
747D
100
AcDbEntity
  8
部品1
 48
50.0
100
AcDbLine
 10
6004.6229503754
 20
4795.688379067654
 30
0.0
 11
6081.6229503754
 21
4785.688379067654
 31
0.0
  0
LINE
  5
1884B
330
747D
100
AcDbEntity
  8
部品1
100
AcDbLine
 10
4634.622950375393
 20
4800.688379067657
 30
0.0
 11
6004.622950375397
 21
4800.688379067657
 31
0.0
  0
LINE
  5
1884C
330
747D
100
AcDbEntity
  8
部品1
100
AcDbLine
 10
4634.622950375393
 20
3010.688379067657
 30
0.0
 11
6004.6229503754
 21
3010.688379067657
 31
0.0
  0
LINE
  5
1884D
330
747D
100
AcDbEntity
  8
部品1
100
AcDbLine
 10
4634.622950375393
 20
2960.688379067656
 30
0.0
 11
4642.122950375393
 21
2960.688379067656
 31
0.0
  0
LINE
  5
1884E
330
747D
100
AcDbEntity
  8
部品1
100
AcDbLine
 10
4689.622950375393
 20
4800.688379067657
 30
0.0
 11
4689.622950375393
 21
3010.688379067657
 31
0.0
  0
LINE
  5
1884F
330
747D
100
AcDbEntity
  8
部品1
100
AcDbLine
 10
4634.6229503754
 20
4894.68837906766
 30
0.0
 11
4634.622950375393
 21
2860.688379067657
 31
0.0
  0
LINE
  5
18850
330
747D
100
AcDbEntity
  8
部品1
100
AcDbLine
 10
5109.622950375393
 20
4800.688379067657
 30
0.0
 11
5109.622950375393
 21
3010.688379067657
 31
0.0
  0
LINE
  5
18851
330
747D
100
AcDbEntity
  8
部品1
100
AcDbLine
 10
6004.622950375392
 20
4894.688379067662
 30
0.0
 11
6004.622950375397
 21
2860.688379067657
 31
0.0
  0
LINE
  5
18852
330
747D
100
AcDbEntity
  8
部品1
100
AcDbLine
 10
5949.622950375396
 20
4800.688379067657
 30
0.0
 11
5949.622950375396
 21
3010.688379067657
 31
0.0
  0
LINE
  5
18853
330
747D
100
AcDbEntity
  8
部品1
100
AcDbLine
 10
4834.622950375393
 20
2960.688379067656
 30
0.0
 11
4834.622950375393
 21
2860.688379067657
 31
0.0
  0
LINE
  5
18854
330
747D
100
AcDbEntity
  8
部品1
100
AcDbLine
 10
5804.622950375397
 20
2960.688379067656
 30
0.0
 11
5804.622950375397
 21
2860.688379067657
 31
0.0
  0
LINE
  5
18855
330
747D
100
AcDbEntity
  8
破線
  6
HIDDEN
 48
5.0
100
AcDbLine
 10
6012.122950375393
 20
2705.688379067657
 30
0.0
 11
5942.122950375392
 21
2705.688379067657
 31
0.0
  0
LINE
  5
18856
330
747D
100
AcDbEntity
  8
破線
  6
HIDDEN
 48
5.0
100
AcDbLine
 10
5957.122950375393
 20
2855.688379067657
 30
0.0
 11
5942.122950375392
 21
2707.988379067657
 31
0.0
  0
LINE
  5
18857
330
747D
100
AcDbEntity
  8
破線
  6
HIDDEN
 48
5.0
100
AcDbLine
 10
5942.122950375392
 20
2707.988379067657
 30
0.0
 11
5942.122950375392
 21
2705.688379067657
 31
0.0
  0
LINE
  5
18858
330
747D
100
AcDbEntity
  8
破線
  6
HIDDEN
 48
5.0
100
AcDbLine
 10
5997.122950375393
 20
2855.688379067657
 30
0.0
 11
6012.122950375393
 21
2707.988379067657
 31
0.0
  0
LINE
  5
18859
330
747D
100
AcDbEntity
  8
破線
  6
HIDDEN
 48
5.0
100
AcDbLine
 10
6012.122950375393
 20
2707.988379067657
 30
0.0
 11
6012.122950375393
 21
2705.688379067657
 31
0.0
  0
LINE
  5
1885A
330
747D
100
AcDbEntity
  8
破線
  6
HIDDEN
 48
5.0
100
AcDbLine
 10
4627.122950375393
 20
2705.688379067657
 30
0.0
 11
4697.122950375393
 21
2705.688379067657
 31
0.0
  0
LINE
  5
1885B
330
747D
100
AcDbEntity
  8
破線
  6
HIDDEN
 48
5.0
100
AcDbLine
 10
4627.122950375393
 20
2707.988379067656
 30
0.0
 11
4627.122950375393
 21
2705.688379067657
 31
0.0
  0
LINE
  5
1885C
330
747D
100
AcDbEntity
  8
破線
  6
HIDDEN
 48
5.0
100
AcDbLine
 10
4697.122950375393
 20
2707.988379067656
 30
0.0
 11
4697.122950375393
 21
2705.688379067657
 31
0.0
  0
LINE
  5
1885D
330
747D
100
AcDbEntity
  8
破線
  6
HIDDEN
 48
5.0
100
AcDbLine
 10
4642.122950375393
 20
2855.688379067657
 30
0.0
 11
4627.122950375393
 21
2707.988379067656
 31
0.0
  0
LINE
  5
1885E
330
747D
100
AcDbEntity
  8
破線
  6
HIDDEN
 48
5.0
100
AcDbLine
 10
4682.122950375393
 20
2855.688379067657
 30
0.0
 11
4697.122950375393
 21
2707.988379067656
 31
0.0
  0
LINE
  5
1885F
330
747D
100
AcDbEntity
  8
部品1
 48
50.0
100
AcDbLine
 10
4642.122950375393
 20
3000.688379067657
 30
0.0
 11
4642.122950375393
 21
2860.688379067657
 31
0.0
  0
LINE
  5
18860
330
747D
100
AcDbEntity
  8
部品1
 48
50.0
100
AcDbLine
 10
4682.122950375393
 20
3000.688379067657
 30
0.0
 11
4682.122950375393
 21
2860.688379067657
 31
0.0
  0
LINE
  5
18861
330
747D
100
AcDbEntity
  8
部品1
100
AcDbLine
 10
4647.122950375393
 20
3005.688379067656
 30
0.0
 11
4677.122950375393
 21
3005.688379067656
 31
0.0
  0
ARC
  5
18862
330
747D
100
AcDbEntity
  8
部品1
 48
50.0
100
AcDbCircle
 10
4647.122950375393
 20
3000.688379067657
 30
0.0
 40
5.0
100
AcDbArc
 50
90.0
 51
180.0
  0
ARC
  5
18863
330
747D
100
AcDbEntity
  8
部品1
 48
50.0
100
AcDbCircle
 10
4677.122950375393
 20
3000.688379067657
 30
0.0
 40
5.0
100
AcDbArc
 50
0.0
 51
90.0
  0
LINE
  5
18864
330
747D
100
AcDbEntity
  8
部品1
 48
50.0
100
AcDbLine
 10
5957.122950375393
 20
3000.688379067657
 30
0.0
 11
5957.122950375393
 21
2860.688379067657
 31
0.0
  0
LINE
  5
18865
330
747D
100
AcDbEntity
  8
部品1
 48
50.0
100
AcDbLine
 10
5997.122950375393
 20
3000.688379067657
 30
0.0
 11
5997.122950375393
 21
2860.688379067657
 31
0.0
  0
LINE
  5
18866
330
747D
100
AcDbEntity
  8
部品1
100
AcDbLine
 10
5992.122950375392
 20
3005.688379067656
 30
0.0
 11
5962.122950375393
 21
3005.688379067656
 31
0.0
  0
ARC
  5
18867
330
747D
100
AcDbEntity
  8
部品1
 48
50.0
100
AcDbCircle
 10
5962.122950375393
 20
3000.688379067657
 30
0.0
 40
5.0
100
AcDbArc
 50
90.0
 51
180.0
  0
ARC
  5
18868
330
747D
100
AcDbEntity
  8
部品1
 48
50.0
100
AcDbCircle
 10
5992.122950375392
 20
3000.688379067657
 30
0.0
 40
5.0
100
AcDbArc
 50
0.0
 51
90.0
  0
LINE
  5
18869
330
747D
100
AcDbEntity
  8
破線
  6
HIDDEN
 48
5.0
100
AcDbLine
 10
5957.122950375393
 20
2860.688379067657
 30
0.0
 11
5957.122950375393
 21
2855.688379067657
 31
0.0
  0
LINE
  5
1886A
330
747D
100
AcDbEntity
  8
破線
  6
HIDDEN
 48
5.0
100
AcDbLine
 10
5997.122950375393
 20
2860.688379067657
 30
0.0
 11
5997.122950375393
 21
2855.688379067657
 31
0.0
  0
LINE
  5
1886B
330
747D
100
AcDbEntity
  8
破線
  6
HIDDEN
 48
5.0
100
AcDbLine
 10
4642.122950375401
 20
2860.688379067657
 30
0.0
 11
4642.122950375401
 21
2855.688379067657
 31
0.0
  0
LINE
  5
1886C
330
747D
100
AcDbEntity
  8
破線
  6
HIDDEN
 48
5.0
100
AcDbLine
 10
4682.122950375393
 20
2860.688379067657
 30
0.0
 11
4682.122950375393
 21
2855.688379067657
 31
0.0
  0
LINE
  5
1886D
330
747D
100
AcDbEntity
  8
部品1
100
AcDbLine
 10
5997.122950375393
 20
2960.688379067656
 30
0.0
 11
6004.622950375397
 21
2960.688379067656
 31
0.0
  0
LINE
  5
1886E
330
747D
100
AcDbEntity
  8
部品1
100
AcDbLine
 10
4682.122950375393
 20
2960.688379067656
 30
0.0
 11
5957.122950375393
 21
2960.688379067656
 31
0.0
  0
LINE
  5
1886F
330
747D
100
AcDbEntity
  8
細線
 48
50.0
100
AcDbLine
 10
5187.122950375393
 20
4800.688379067657
 30
0.0
 11
5187.122950375393
 21
3010.688379067657
 31
0.0
  0
LINE
  5
18870
330
747D
100
AcDbEntity
  8
細線
 48
50.0
100
AcDbLine
 10
5172.122950375393
 20
4800.688379067657
 30
0.0
 11
5172.122950375393
 21
3010.688379067657
 31
0.0
  0
LINE
  5
18871
330
747D
100
AcDbEntity
  8
細線
 48
50.0
100
AcDbLine
 10
5312.122950375393
 20
4800.688379067657
 30
0.0
 11
5312.122950375393
 21
3010.688379067657
 31
0.0
  0
LINE
  5
18872
330
747D
100
AcDbEntity
  8
細線
 48
50.0
100
AcDbLine
 10
5327.122950375393
 20
4800.688379067657
 30
0.0
 11
5327.122950375393
 21
3010.688379067657
 31
0.0
  0
LINE
  5
18873
330
747D
100
AcDbEntity
  8
細線
 48
50.0
100
AcDbLine
 10
5467.122950375393
 20
4800.688379067657
 30
0.0
 11
5467.122950375393
 21
3010.688379067657
 31
0.0
  0
LINE
  5
18874
330
747D
100
AcDbEntity
  8
細線
 48
50.0
100
AcDbLine
 10
5452.122950375393
 20
4800.688379067657
 30
0.0
 11
5452.122950375393
 21
3010.688379067657
 31
0.0
  0
LINE
  5
18875
330
747D
100
AcDbEntity
  8
細線
 48
50.0
100
AcDbLine
 10
5032.122950375393
 20
4800.688379067657
 30
0.0
 11
5032.122950375393
 21
3010.688379067657
 31
0.0
  0
LINE
  5
18876
330
747D
100
AcDbEntity
  8
細線
 48
50.0
100
AcDbLine
 10
5047.122950375393
 20
4800.688379067657
 30
0.0
 11
5047.122950375393
 21
3010.688379067657
 31
0.0
  0
LINE
  5
18877
330
747D
100
AcDbEntity
  8
細線
 48
50.0
100
AcDbLine
 10
4907.122950375393
 20
4800.688379067657
 30
0.0
 11
4907.122950375393
 21
3010.688379067657
 31
0.0
  0
LINE
  5
18878
330
747D
100
AcDbEntity
  8
細線
 48
50.0
100
AcDbLine
 10
4892.122950375393
 20
4800.688379067657
 30
0.0
 11
4892.122950375393
 21
3010.688379067657
 31
0.0
  0
LINE
  5
18879
330
747D
100
AcDbEntity
  8
細線
 48
50.0
100
AcDbLine
 10
4752.122950375393
 20
4800.688379067657
 30
0.0
 11
4752.122950375393
 21
3010.688379067657
 31
0.0
  0
LINE
  5
1887A
330
747D
100
AcDbEntity
  8
細線
 48
50.0
100
AcDbLine
 10
4767.122950375393
 20
4800.688379067657
 30
0.0
 11
4767.122950375393
 21
3010.688379067657
 31
0.0
  0
LINE
  5
1887B
330
747D
100
AcDbEntity
  8
部品1
100
AcDbLine
 10
5529.622950375393
 20
4800.688379067657
 30
0.0
 11
5529.622950375393
 21
3010.688379067657
 31
0.0
  0
LINE
  5
1887C
330
747D
100
AcDbEntity
  8
細線
 48
50.0
100
AcDbLine
 10
5872.122950375397
 20
4800.688379067657
 30
0.0
 11
5872.122950375397
 21
3010.688379067657
 31
0.0
  0
LINE
  5
1887D
330
747D
100
AcDbEntity
  8
細線
 48
50.0
100
AcDbLine
 10
5887.122950375396
 20
4800.688379067657
 30
0.0
 11
5887.122950375396
 21
3010.688379067657
 31
0.0
  0
LINE
  5
1887E
330
747D
100
AcDbEntity
  8
細線
 48
50.0
100
AcDbLine
 10
5747.122950375397
 20
4800.688379067657
 30
0.0
 11
5747.122950375397
 21
3010.688379067657
 31
0.0
  0
LINE
  5
1887F
330
747D
100
AcDbEntity
  8
細線
 48
50.0
100
AcDbLine
 10
5732.122950375397
 20
4800.688379067657
 30
0.0
 11
5732.122950375397
 21
3010.688379067657
 31
0.0
  0
LINE
  5
18880
330
747D
100
AcDbEntity
  8
細線
 48
50.0
100
AcDbLine
 10
5592.122950375397
 20
4800.688379067657
 30
0.0
 11
5592.122950375397
 21
3010.688379067657
 31
0.0
  0
LINE
  5
18881
330
747D
100
AcDbEntity
  8
細線
 48
50.0
100
AcDbLine
 10
5607.122950375397
 20
4800.688379067657
 30
0.0
 11
5607.122950375397
 21
3010.688379067657
 31
0.0
  0
DIMENSION
  5
18882
330
747D
100
AcDbEntity
  8
寸法
 48
50.0
100
AcDbDimension
  2
*D3
 10
4412.62294712876
 20
2860.688379067657
 30
0.0
 11
4412.622947128759
 21
2760.688379067656
 31
0.0
 70
   160
 71
     5
 42
200.0000000000018
  3
INABA_S40G
100
AcDbAlignedDimension
 13
4562.122950375396
 23
2660.688379067655
 33
0.0
 14
4537.122950375393
 24
2860.688379067657
 34
0.0
 50
90.0
100
AcDbRotatedDimension
1001
ACAD
1000
DSTYLE
1002
{
1070
   174
1070
     0
1070
   272
1070
     1
1070
   288
1070
     0
1070
   341
1005
0
1002
}
  0
LINE
  5
18883
330
747D
100
AcDbEntity
  8
破線
 48
5.0
100
AcDbLine
 10
4762.122950375393
 20
2660.688379067655
 30
0.0
 11
4562.122950375396
 21
2660.688379067655
 31
0.0
  0
LINE
  5
18884
330
747D
100
AcDbEntity
  8
破線
 48
5.0
100
AcDbLine
 10
4762.122950375393
 20
2860.688379067657
 30
0.0
 11
4762.122950375393
 21
2660.688379067655
 31
0.0
  0
LINE
  5
18885
330
747D
100
AcDbEntity
  8
破線
 48
5.0
100
AcDbLine
 10
4562.122950375393
 20
2860.688379067657
 30
0.0
 11
4562.122950375396
 21
2660.688379067655
 31
0.0
  0
DIMENSION
  5
18886
330
747D
100
AcDbEntity
  8
寸法
 48
50.0
100
AcDbDimension
  2
*D4
 10
4562.122950375396
 20
2374.641049767279
 30
0.0
 11
4662.122950375395
 21
2374.641049767279
 31
0.0
 70
   160
 71
     5
 42
199.9999999999963
  3
INABA_S40G
100
AcDbAlignedDimension
 13
4762.122950375393
 23
2660.688379067655
 33
0.0
 14
4562.122950375396
 24
2660.688379067655
 34
0.0
100
AcDbRotatedDimension
  0
LINE
  5
18887
330
747D
100
AcDbEntity
  8
破線
 48
5.0
100
AcDbLine
 10
6077.1229503754
 20
2860.688379067657
 30
0.0
 11
6077.122950375397
 21
2660.688379067655
 31
0.0
  0
LINE
  5
18888
330
747D
100
AcDbEntity
  8
破線
 48
5.0
100
AcDbLine
 10
6077.122950375397
 20
2660.688379067655
 30
0.0
 11
5877.1229503754
 21
2660.688379067655
 31
0.0
  0
LINE
  5
18889
330
747D
100
AcDbEntity
  8
破線
 48
5.0
100
AcDbLine
 10
5877.1229503754
 20
2860.688379067657
 30
0.0
 11
5877.1229503754
 21
2660.688379067655
 31
0.0
  0
TEXT
  5
1888A
330
747D
100
AcDbEntity
  8
文字
 62
     7
 48
50.0
100
AcDbText
 10
13583.11819016569
 20
8550.013745883733
 30
0.0
 40
100.0
  1
棚板
  7
STYLE1
100
AcDbText
  0
TEXT
  5
1888B
330
747D
100
AcDbEntity
  8
文字
 62
     7
 48
50.0
100
AcDbText
 10
15022.63965474516
 20
8550.013745883729
 30
0.0
 40
100.0
  1
F12            0.6
  7
STYLE1
100
AcDbText
  0
TEXT
  5
1888C
330
747D
100
AcDbEntity
  8
文字
 62
     7
 48
50.0
100
AcDbText
 10
15022.63965474515
 20
9740.013745883725
 30
0.0
 40
100.0
  1
F12            1.0
  7
STYLE1
100
AcDbText
  0
TEXT
  5
1888D
330
747D
100
AcDbEntity
  8
文字
 62
     7
 48
50.0
100
AcDbText
 10
13583.11819016569
 20
9740.013745883729
 30
0.0
 40
100.0
  1
母屋中
  7
STYLE1
100
AcDbText
  0
TEXT
  5
1888E
330
747D
100
AcDbEntity
  8
文字
 62
     7
 48
50.0
100
AcDbText
 10
13248.77747366447
 20
8720.013745883729
 30
0.0
 40
100.0
  1
15
  7
STYLE1
100
AcDbText
  0
LINE
  5
1888F
330
747D
100
AcDbEntity
  8
仕様書枠
 48
50.0
100
AcDbLine
 10
16307.19999999999
 20
8009.600000000007
 30
0.0
 11
13127.19999999999
 21
8009.600000000007
 31
0.0
  0
TEXT
  5
18890
330
747D
100
AcDbEntity
  8
文字
 62
     7
 48
50.0
100
AcDbText
 10
13583.11819016569
 20
8720.013745883733
 30
0.0
 40
100.0
  1
扉
  7
STYLE1
100
AcDbText
  0
TEXT
  5
18891
330
747D
100
AcDbEntity
  8
文字
 62
     7
 48
50.0
100
AcDbText
 10
15022.63965474516
 20
8720.013745883729
 30
0.0
 40
100.0
  1
F12            0.8
  7
STYLE1
100
AcDbText
  0
TEXT
  5
18892
330
747D
100
AcDbEntity
  8
文字
 62
     7
 48
50.0
100
AcDbText
 10
13583.11819016568
 20
8890.013745883733
 30
0.0
 40
100.0
  1
正面パネル
  7
STYLE1
100
AcDbText
  0
TEXT
  5
18893
330
747D
100
AcDbEntity
  8
文字
 62
     7
 48
50.0
100
AcDbText
 10
15022.63965474515
 20
8890.013745883729
 30
0.0
 40
100.0
  1
F12            0.7
  7
STYLE1
100
AcDbText
  0
TEXT
  5
18894
330
747D
100
AcDbEntity
  8
文字
 62
     7
 48
50.0
100
AcDbText
 10
15022.63965474517
 20
10590.01374588373
 30
0.0
 40
100.0
  1
F12            1.0
  7
STYLE1
100
AcDbText
  0
TEXT
  5
18895
330
747D
100
AcDbEntity
  8
文字
 62
     7
 48
50.0
100
AcDbText
 10
15022.63965474516
 20
10930.01374588373
 30
0.0
 40
100.0
  1
F12            1.2
  7
STYLE1
100
AcDbText
  0
TEXT
  5
18896
330
747D
100
AcDbEntity
  8
文字
 62
     7
 48
50.0
100
AcDbText
 10
13248.77747366448
 20
8890.013745883729
 30
0.0
 40
100.0
  1
14
  7
STYLE1
100
AcDbText
  0
TEXT
  5
18897
330
747D
100
AcDbEntity
  8
文字
 62
     7
 48
50.0
100
AcDbText
 10
13583.11819016569
 20
10930.01374588373
 30
0.0
 40
100.0
  1
根太
  7
STYLE1
100
AcDbText
  0
TEXT
  5
18898
330
747D
100
AcDbEntity
  8
文字
 62
     7
 48
50.0
100
AcDbText
 10
13583.1181901657
 20
10590.01374588373
 30
0.0
 40
100.0
  1
床パネル
 41
0.9
  7
STYLE1
100
AcDbText
  0
LINE
  5
18899
330
747D
100
AcDbEntity
  8
仕様書枠
 48
50.0
100
AcDbLine
 10
16307.19999999999
 20
9029.6
 30
0.0
 11
13127.2
 21
9029.600000000003
 31
0.0
  0
LINE
  5
1889A
330
747D
100
AcDbEntity
  8
仕様書枠
 48
50.0
100
AcDbLine
 10
13127.2
 20
11409.6
 30
0.0
 11
13127.19999999999
 21
8009.600000000007
 31
0.0
  0
TEXT
  5
1889B
330
747D
100
AcDbEntity
  8
文字
 62
     7
 48
50.0
100
AcDbText
 10
13229.83081656554
 20
8040.013745883737
 30
0.0
 40
100.0
  1
Y10→溶融亜鉛-5％アルミニウム合金めっき鋼板(JIS G 3317)
 41
0.9
  7
STYLE1
100
AcDbText
  0
TEXT
  5
1889C
330
747D
100
AcDbEntity
  8
文字
 62
     7
 48
50.0
100
AcDbText
 10
13229.83081656554
 20
8210.013745883737
 30
0.0
 40
100.0
  1
F12→溶融亜鉛めっき鋼板(JIS G 3302)
  7
STYLE1
100
AcDbText
  0
LINE
  5
1889D
330
747D
100
AcDbEntity
  8
仕様書枠
 48
50.0
100
AcDbLine
 10
16307.19999999999
 20
8179.600000000007
 30
0.0
 11
13127.19999999999
 21
8179.600000000007
 31
0.0
  0
LINE
  5
1889E
330
747D
100
AcDbEntity
  8
仕様書枠
 48
50.0
100
AcDbLine
 10
16307.19999999999
 20
8349.600000000007
 30
0.0
 11
13127.19999999999
 21
8349.600000000007
 31
0.0
  0
TEXT
  5
1889F
330
747D
100
AcDbEntity
  8
文字
 62
     7
 48
50.0
100
AcDbText
 10
15022.63965474515
 20
9570.013745883729
 30
0.0
 40
100.0
  1
F12            0.6
  7
STYLE1
100
AcDbText
  0
TEXT
  5
188A0
330
747D
100
AcDbEntity
  8
文字
 62
     7
 48
50.0
100
AcDbText
 10
15022.63965474517
 20
9910.01374588373
 30
0.0
 40
100.0
  1
Y10            0.5
  7
STYLE1
100
AcDbText
  0
TEXT
  5
188A1
330
747D
100
AcDbEntity
  8
文字
 62
     7
 48
50.0
100
AcDbText
 10
15022.63965474516
 20
10080.01374588373
 30
0.0
 40
100.0
  1
Y10            0.7
  7
STYLE1
100
AcDbText
  0
TEXT
  5
188A2
330
747D
100
AcDbEntity
  8
文字
 62
     7
 48
50.0
100
AcDbText
 10
15022.63965474516
 20
10250.01374588373
 30
0.0
 40
100.0
  1
Y10            0.7
  7
STYLE1
100
AcDbText
  0
TEXT
  5
188A3
330
747D
100
AcDbEntity
  8
文字
 62
     7
 48
50.0
100
AcDbText
 10
15022.63965474516
 20
10420.01374588373
 30
0.0
 40
100.0
  1
Y10            1.0
  7
STYLE1
100
AcDbText
  0
TEXT
  5
188A4
330
747D
100
AcDbEntity
  8
文字
 62
     7
 48
50.0
100
AcDbText
 10
15022.63965474518
 20
10760.01374588373
 30
0.0
 40
100.0
  1
F12            1.0
  7
STYLE1
100
AcDbText
  0
TEXT
  5
188A5
330
747D
100
AcDbEntity
  8
文字
 62
     7
 48
50.0
100
AcDbText
 10
15022.63965474517
 20
11100.01374588373
 30
0.0
 40
100.0
  1
F12            1.2
  7
STYLE1
100
AcDbText
  0
TEXT
  5
188A6
330
747D
100
AcDbEntity
  8
文字
 62
     7
 48
50.0
100
AcDbText
 10
13248.77747366448
 20
9230.013745883729
 30
0.0
 40
100.0
  1
12
  7
STYLE1
100
AcDbText
  0
TEXT
  5
188A7
330
747D
100
AcDbEntity
  8
文字
 62
     7
 48
50.0
100
AcDbText
 10
13248.77747366448
 20
9060.013745883729
 30
0.0
 40
100.0
  1
13
  7
STYLE1
100
AcDbText
  0
LINE
  5
188A8
330
747D
100
AcDbEntity
  8
仕様書枠
 48
50.0
100
AcDbLine
 10
16307.19999999999
 20
8859.6
 30
0.0
 11
13127.2
 21
8859.600000000005
 31
0.0
  0
LINE
  5
188A9
330
747D
100
AcDbEntity
  8
仕様書枠
 48
50.0
100
AcDbLine
 10
16307.19999999999
 20
9199.600000000001
 30
0.0
 11
13127.2
 21
9199.600000000001
 31
0.0
  0
TEXT
  5
188AA
330
747D
100
AcDbEntity
  8
文字
 62
     7
 48
50.0
100
AcDbText
 10
13248.77747366447
 20
9400.013745883729
 30
0.0
 40
100.0
  1
11
  7
STYLE1
100
AcDbText
  0
LINE
  5
188AB
330
747D
100
AcDbEntity
  8
仕様書枠
 48
50.0
100
AcDbLine
 10
16307.2
 20
9879.600000000001
 30
0.0
 11
13127.2
 21
9879.600000000001
 31
0.0
  0
LINE
  5
188AC
330
747D
100
AcDbEntity
  8
仕様書枠
 48
50.0
100
AcDbLine
 10
16307.2
 20
10219.6
 30
0.0
 11
13127.2
 21
10219.6
 31
0.0
  0
LINE
  5
188AD
330
747D
100
AcDbEntity
  8
仕様書枠
 48
50.0
100
AcDbLine
 10
16307.19999999999
 20
9539.6
 30
0.0
 11
13127.2
 21
9539.6
 31
0.0
  0
LINE
  5
188AE
330
747D
100
AcDbEntity
  8
仕様書枠
 48
50.0
100
AcDbLine
 10
16307.19999999999
 20
9369.600000000001
 30
0.0
 11
13127.2
 21
9369.600000000001
 31
0.0
  0
LINE
  5
188AF
330
747D
100
AcDbEntity
  8
仕様書枠
 48
50.0
100
AcDbLine
 10
16307.19999999999
 20
9709.600000000001
 30
0.0
 11
13127.2
 21
9709.600000000001
 31
0.0
  0
TEXT
  5
188B0
330
747D
100
AcDbEntity
  8
文字
 62
     7
 48
50.0
100
AcDbText
 10
13271.19032244792
 20
10250.01374588373
 30
0.0
 40
100.0
  1
6
  7
STYLE1
100
AcDbText
  0
TEXT
  5
188B1
330
747D
100
AcDbEntity
  8
文字
 62
     7
 48
50.0
100
AcDbText
 10
13271.19032244792
 20
10080.01374588373
 30
0.0
 40
100.0
  1
7
  7
STYLE1
100
AcDbText
  0
TEXT
  5
188B2
330
747D
100
AcDbEntity
  8
文字
 62
     7
 48
50.0
100
AcDbText
 10
13271.19032244792
 20
9740.013745883729
 30
0.0
 40
100.0
  1
9
  7
STYLE1
100
AcDbText
  0
TEXT
  5
188B3
330
747D
100
AcDbEntity
  8
文字
 62
     7
 48
50.0
100
AcDbText
 10
13271.19032244792
 20
9910.01374588373
 30
0.0
 40
100.0
  1
8
  7
STYLE1
100
AcDbText
  0
TEXT
  5
188B4
330
747D
100
AcDbEntity
  8
文字
 62
     7
 48
50.0
100
AcDbText
 10
13583.11819016569
 20
10080.01374588373
 30
0.0
 40
100.0
  1
鼻隠シ前後
  7
STYLE1
100
AcDbText
  0
TEXT
  5
188B5
330
747D
100
AcDbEntity
  8
文字
 62
     7
 48
50.0
100
AcDbText
 10
13583.11819016569
 20
9910.01374588373
 30
0.0
 40
100.0
  1
屋根パネル
  7
STYLE1
100
AcDbText
  0
TEXT
  5
188B6
330
747D
100
AcDbEntity
  8
文字
 62
     7
 48
50.0
100
AcDbText
 10
13583.11819016568
 20
9570.013745883729
 30
0.0
 40
100.0
  1
壁パネル
  7
STYLE1
100
AcDbText
  0
TEXT
  5
188B7
330
747D
100
AcDbEntity
  8
文字
 62
     7
 48
50.0
100
AcDbText
 10
13248.77747366447
 20
9570.013745883729
 30
0.0
 40
100.0
  1
10
  7
STYLE1
100
AcDbText
  0
TEXT
  5
188B8
330
747D
100
AcDbEntity
  8
文字
 62
     7
 48
50.0
100
AcDbText
 10
13583.11819016569
 20
10250.01374588373
 30
0.0
 40
100.0
  1
妻板左右
  7
STYLE1
100
AcDbText
  0
TEXT
  5
188B9
330
747D
100
AcDbEntity
  8
文字
 62
     7
 48
50.0
100
AcDbText
 10
13271.19032244792
 20
10420.01374588373
 30
0.0
 40
100.0
  1
5
  7
STYLE1
100
AcDbText
  0
TEXT
  5
188BA
330
747D
100
AcDbEntity
  8
文字
 62
     7
 48
50.0
100
AcDbText
 10
13583.11819016569
 20
10420.01374588373
 30
0.0
 40
100.0
  1
桁前後
  7
STYLE1
100
AcDbText
  0
TEXT
  5
188BB
330
747D
100
AcDbEntity
  8
文字
 62
     7
 48
50.0
100
AcDbText
 10
13583.1181901657
 20
10760.01374588373
 30
0.0
 40
100.0
  1
柱
  7
STYLE1
100
AcDbText
  0
TEXT
  5
188BC
330
747D
100
AcDbEntity
  8
文字
 62
     7
 48
50.0
100
AcDbText
 10
13583.11819016569
 20
11100.01374588373
 30
0.0
 40
100.0
  1
土台枠
  7
STYLE1
100
AcDbText
  0
TEXT
  5
188BD
330
747D
100
AcDbEntity
  8
文字
 62
     7
 48
50.0
100
AcDbText
 10
14859.79774614482
 20
11270.01374588373
 30
0.0
 40
100.0
  1
材料（材質）　　単位mm
  7
STYLE1
100
AcDbText
  0
TEXT
  5
188BE
330
747D
100
AcDbEntity
  8
文字
 62
     7
 48
50.0
100
AcDbText
 10
13732.03840939434
 20
11270.01374588373
 30
0.0
 40
100.0
  1
部　　品　　名
  7
STYLE1
100
AcDbText
  0
TEXT
  5
188BF
330
747D
100
AcDbEntity
  8
文字
 62
     7
 48
50.0
100
AcDbText
 10
13271.19032244792
 20
10760.01374588373
 30
0.0
 40
100.0
  1
3
  7
STYLE1
100
AcDbText
  0
TEXT
  5
188C0
330
747D
100
AcDbEntity
  8
文字
 62
     7
 48
50.0
100
AcDbText
 10
13271.19032244792
 20
10590.01374588373
 30
0.0
 40
100.0
  1
4
  7
STYLE1
100
AcDbText
  0
TEXT
  5
188C1
330
747D
100
AcDbEntity
  8
文字
 62
     7
 48
50.0
100
AcDbText
 10
13271.19032244792
 20
10930.01374588373
 30
0.0
 40
100.0
  1
2
  7
STYLE1
100
AcDbText
  0
TEXT
  5
188C2
330
747D
100
AcDbEntity
  8
文字
 62
     7
 48
50.0
100
AcDbText
 10
13271.19032244792
 20
11100.01374588373
 30
0.0
 40
100.0
  1
1
  7
STYLE1
100
AcDbText
  0
TEXT
  5
188C3
330
747D
100
AcDbEntity
  8
文字
 62
     7
 48
50.0
100
AcDbText
 10
13197.42518560407
 20
11270.01374588373
 30
0.0
 40
100.0
  1
品番
  7
STYLE1
100
AcDbText
  0
LINE
  5
188C4
330
747D
100
AcDbEntity
  8
仕様書枠
 48
50.0
100
AcDbLine
 10
16307.19999999999
 20
10729.6
 30
0.0
 11
13127.2
 21
10729.6
 31
0.0
  0
LINE
  5
188C5
330
747D
100
AcDbEntity
  8
仕様書枠
 48
50.0
100
AcDbLine
 10
16307.19999999999
 20
10389.6
 30
0.0
 11
13127.2
 21
10389.6
 31
0.0
  0
LINE
  5
188C6
330
747D
100
AcDbEntity
  8
仕様書枠
 48
50.0
100
AcDbLine
 10
16307.19999999999
 20
10559.6
 30
0.0
 11
13127.2
 21
10559.6
 31
0.0
  0
LINE
  5
188C7
330
747D
100
AcDbEntity
  8
仕様書枠
 48
50.0
100
AcDbLine
 10
16307.2
 20
11069.6
 30
0.0
 11
13127.2
 21
11069.6
 31
0.0
  0
LINE
  5
188C8
330
747D
100
AcDbEntity
  8
仕様書枠
 48
50.0
100
AcDbLine
 10
16307.2
 20
10899.6
 30
0.0
 11
13127.2
 21
10899.6
 31
0.0
  0
LINE
  5
188C9
330
747D
100
AcDbEntity
  8
仕様書枠
 48
50.0
100
AcDbLine
 10
16307.2
 20
11239.6
 30
0.0
 11
13127.2
 21
11239.6
 31
0.0
  0
LINE
  5
188CA
330
747D
100
AcDbEntity
  8
仕様書枠
 48
50.0
100
AcDbLine
 10
13490.2
 20
11409.6
 30
0.0
 11
13490.20000000001
 21
8349.600000000007
 31
0.0
  0
LINE
  5
188CB
330
747D
100
AcDbEntity
  8
仕様書枠
 48
50.0
100
AcDbLine
 10
14785.2
 20
11409.6
 30
0.0
 11
14785.2
 21
8349.600000000007
 31
0.0
  0
LINE
  5
188CC
330
747D
100
AcDbEntity
  8
仕様書枠
 48
50.0
100
AcDbLine
 10
16307.19999999999
 20
8009.600000000007
 30
0.0
 11
16307.2
 21
11409.6
 31
0.0
  0
LINE
  5
188CD
330
747D
100
AcDbEntity
  8
仕様書枠
 48
50.0
100
AcDbLine
 10
16307.2
 20
11409.6
 30
0.0
 11
13127.2
 21
11409.6
 31
0.0
  0
LINE
  5
188CE
330
747D
100
AcDbEntity
  8
仕様書枠
 48
50.0
100
AcDbLine
 10
16307.2
 20
10049.6
 30
0.0
 11
13127.2
 21
10049.6
 31
0.0
  0
TEXT
  5
188CF
330
747D
100
AcDbEntity
  8
文字
 62
     7
 48
50.0
100
AcDbText
 10
15022.63965474515
 20
8380.013745883726
 30
0.0
 40
100.0
  1
F12            2.3
  7
STYLE1
100
AcDbText
  0
TEXT
  5
188D0
330
747D
100
AcDbEntity
  8
文字
 62
     7
 48
50.0
100
AcDbText
 10
13583.11819016569
 20
8380.013745883728
 30
0.0
 40
100.0
  1
アンカープレート
  7
STYLE1
100
AcDbText
  0
LINE
  5
188D1
330
747D
100
AcDbEntity
  8
仕様書枠
 48
50.0
100
AcDbLine
 10
16307.19999999999
 20
8519.600000000009
 30
0.0
 11
13127.2
 21
8519.600000000009
 31
0.0
  0
LINE
  5
188D2
330
747D
100
AcDbEntity
  8
仕様書枠
 48
50.0
100
AcDbLine
 10
16307.19999999999
 20
8689.600000000007
 30
0.0
 11
13127.2
 21
8689.600000000007
 31
0.0
  0
TEXT
  5
188D3
330
747D
100
AcDbEntity
  8
文字
 62
     7
 48
50.0
100
AcDbText
 10
13583.11819016569
 20
9400.013745883729
 30
0.0
 40
100.0
  1
壁面扉鴨居
  7
STYLE1
100
AcDbText
  0
TEXT
  5
188D4
330
747D
100
AcDbEntity
  8
文字
 62
     7
 48
50.0
100
AcDbText
 10
13583.11819016569
 20
9230.013745883736
 30
0.0
 40
100.0
  1
壁面扉敷居
  7
STYLE1
100
AcDbText
  0
TEXT
  5
188D5
330
747D
100
AcDbEntity
  8
文字
 62
     7
 48
50.0
100
AcDbText
 10
15022.63965474515
 20
9400.013745883729
 30
0.0
 40
100.0
  1
F12            0.7
  7
STYLE1
100
AcDbText
  0
TEXT
  5
188D6
330
747D
100
AcDbEntity
  8
文字
 62
     7
 48
50.0
100
AcDbText
 10
15022.63965474517
 20
9230.013745883729
 30
0.0
 40
100.0
  1
F12            1.0
  7
STYLE1
100
AcDbText
  0
TEXT
  5
188D7
330
747D
100
AcDbEntity
  8
文字
 62
     7
 48
50.0
100
AcDbText
 10
13583.11819016569
 20
9060.013745883736
 30
0.0
 40
100.0
  1
壁面扉枠左右
  7
STYLE1
100
AcDbText
  0
TEXT
  5
188D8
330
747D
100
AcDbEntity
  8
文字
 62
     7
 48
50.0
100
AcDbText
 10
15022.63965474517
 20
9060.013745883729
 30
0.0
 40
100.0
  1
F12            1.0
  7
STYLE1
100
AcDbText
  0
TEXT
  5
188D9
330
747D
100
AcDbEntity
  8
文字
 62
     7
 48
50.0
100
AcDbText
 10
13248.77747366447
 20
8550.013745883729
 30
0.0
 40
100.0
  1
16
  7
STYLE1
100
AcDbText
  0
TEXT
  5
188DA
330
747D
100
AcDbEntity
  8
文字
 62
     7
 48
50.0
100
AcDbText
 10
13248.77747366447
 20
8380.013745883728
 30
0.0
 40
100.0
  1
17
  7
STYLE1
100
AcDbText
  0
TEXT
  5
188DB
330
747D
100
AcDbEntity
  8
部品1
100
AcDbText
 10
3334.679688126085
 20
2896.795282673558
 30
0.0
 40
125.0
  1
▽G.L
  7
STYLE2
100
AcDbText
  0
DIMENSION
  5
188DC
330
747D
100
AcDbEntity
  8
寸法
 48
50.0
100
AcDbDimension
  2
*D5
 10
6054.622950375392
 20
5683.474750401947
 30
0.0
 11
5297.257164174073
 21
5683.474750401947
 31
0.0
 70
   160
 71
     5
 42
1469.999999999993
  3
INABA_S40G
100
AcDbAlignedDimension
 13
4584.6229503754
 23
5035.688379067662
 33
0.0
 14
6054.622950375392
 24
5035.688379067658
 34
0.0
100
AcDbRotatedDimension
  0
DIMENSION
  5
188DD
330
747D
100
AcDbEntity
  8
寸法
 48
50.0
100
AcDbDimension
  2
*D6
 10
4584.6229503754
 20
5440.308638494927
 30
0.0
 11
4271.137669001153
 21
5440.308638494927
 31
0.0
 70
   160
 71
     5
 42
50.0
  3
INABA_S40G
100
AcDbAlignedDimension
 13
4634.6229503754
 23
5035.688379067662
 33
0.0
 14
4584.6229503754
 24
5035.688379067662
 34
0.0
100
AcDbRotatedDimension
1001
ACAD
1000
DSTYLE
1002
{
1002
}
  0
DIMENSION
  5
188DE
330
747D
100
AcDbEntity
  8
寸法
 48
50.0
100
AcDbDimension
  2
*D7
 10
4634.6229503754
 20
5440.308638494927
 30
0.0
 11
5319.622950375396
 21
5440.308638494927
 31
0.0
 70
   160
  1
柱外寸法<>
 71
     5
 42
1369.999999999993
  3
INABA_S40G
100
AcDbAlignedDimension
 13
6004.622950375392
 23
5035.688379067662
 33
0.0
 14
4634.6229503754
 24
5035.688379067662
 34
0.0
100
AcDbRotatedDimension
  0
LINE
  5
188DF
330
747D
100
AcDbEntity
  8
細線
 48
50.0
100
AcDbLine
 10
4617.6229503754
 20
5035.688379067661
 30
0.0
 11
4617.6229503754
 21
4894.68837906766
 31
0.0
  0
ARC
  5
188E0
330
747D
100
AcDbEntity
  8
部品1
100
AcDbCircle
 10
4592.031371481826
 20
5028.68837906766
 30
0.0
 40
7.0
100
AcDbArc
 50
90.0
 51
183.2473427903344
  0
ARC
  5
188E1
330
747D
100
AcDbEntity
  8
部品1
100
AcDbCircle
 10
4605.246694942863
 20
4901.688379067662
 30
0.0
 40
7.0
100
AcDbArc
 50
183.2473427903344
 51
270.0
  0
ARC
  5
188E2
330
747D
100
AcDbEntity
  8
部品1
 48
50.0
100
AcDbCircle
 10
4586.874884732184
 20
5008.355378229346
 30
0.0
 40
0.7
100
AcDbArc
 50
183.2473427904384
 51
262.3418727926361
  0
ARC
  5
188E3
330
747D
100
AcDbEntity
  8
部品1
 48
50.0
100
AcDbCircle
 10
4595.110915257028
 20
4916.155378229343
 30
0.0
 40
0.7
100
AcDbArc
 50
183.2473427903344
 51
262.3418727926361
  0
ARC
  5
188E4
330
747D
100
AcDbEntity
  8
部品1
 48
50.0
100
AcDbCircle
 10
4594.617846148467
 20
4912.488379067657
 30
0.0
 40
3.0
100
AcDbArc
 50
3.247342790334429
 51
82.34187279263609
  0
ARC
  5
188E5
330
747D
100
AcDbEntity
  8
部品1
 48
50.0
100
AcDbCircle
 10
4586.381815623623
 20
5004.688379067662
 30
0.0
 40
3.0
100
AcDbArc
 50
3.247342790334429
 51
82.34187279263609
  0
LINE
  5
188E6
330
747D
100
AcDbEntity
  8
部品1
100
AcDbLine
 10
4589.376998519809
 20
5004.858318522764
 30
0.0
 11
4594.412039247916
 21
4916.115725689818
 31
0.0
  0
LINE
  5
188E7
330
747D
100
AcDbEntity
  8
部品1
100
AcDbLine
 10
4597.613029044652
 20
4912.658318522761
 30
0.0
 11
4598.257934851761
 21
4901.291853672422
 31
0.0
  0
LINE
  5
188E8
330
747D
100
AcDbEntity
  8
部品1
100
AcDbLine
 10
4585.04261139073
 20
5028.291853672421
 30
0.0
 11
4586.17600872308
 21
5008.315725689821
 31
0.0
  0
LINE
  5
188E9
330
747D
100
AcDbEntity
  8
部品1
 48
50.0
100
AcDbLine
 10
6047.21452926896
 20
5035.688379067661
 30
0.0
 11
4592.031371481826
 21
5035.688379067662
 31
0.0
  0
LINE
  5
188EA
330
747D
100
AcDbEntity
  8
部品1
 48
50.0
100
AcDbLine
 10
6033.999205807926
 20
4894.688379067662
 30
0.0
 11
4605.246694942863
 21
4894.68837906766
 31
0.0
  0
LINE
  5
188EB
330
747D
100
AcDbEntity
  8
細線
 48
50.0
100
AcDbLine
 10
6052.583412153952
 20
5007.68837906766
 30
0.0
 11
4586.662488596834
 21
5007.688379067658
 31
0.0
  0
LINE
  5
188EC
330
747D
100
AcDbEntity
  8
細線
 48
50.0
100
AcDbLine
 10
6044.347381629116
 20
4915.488379067659
 30
0.0
 11
4594.898519121663
 21
4915.488379067661
 31
0.0
  0
LINE
  5
188ED
330
747D
100
AcDbEntity
  8
細線
100
AcDbLine
 10
5009.622950375397
 20
4860.188379067654
 30
0.0
 11
5009.622950375393
 21
4837.188379067654
 31
0.0
  0
LINE
  5
188EE
330
747D
100
AcDbEntity
  8
細線
100
AcDbLine
 10
5083.622950375393
 20
4848.188379067654
 30
0.0
 11
5009.622950375397
 21
4848.188379067654
 31
0.0
  0
LINE
  5
188EF
330
747D
100
AcDbEntity
  8
細線
100
AcDbLine
 10
5083.622950375393
 20
4842.188379067654
 30
0.0
 11
5009.622950375397
 21
4842.188379067654
 31
0.0
  0
LINE
  5
188F0
330
747D
100
AcDbEntity
  8
細線
100
AcDbLine
 10
5083.622950375393
 20
4854.188379067655
 30
0.0
 11
5009.622950375397
 21
4854.188379067655
 31
0.0
  0
LINE
  5
188F1
330
747D
100
AcDbEntity
  8
細線
100
AcDbLine
 10
4935.622950375396
 20
4854.188379067655
 30
0.0
 11
5004.622950375397
 21
4854.188379067655
 31
0.0
  0
LINE
  5
188F2
330
747D
100
AcDbEntity
  8
細線
100
AcDbLine
 10
4935.622950375393
 20
4842.188379067654
 30
0.0
 11
5009.622950375397
 21
4842.188379067654
 31
0.0
  0
LINE
  5
188F3
330
747D
100
AcDbEntity
  8
細線
100
AcDbLine
 10
4935.622950375396
 20
4848.188379067654
 30
0.0
 11
5009.622950375397
 21
4848.188379067654
 31
0.0
  0
LINE
  5
188F4
330
747D
100
AcDbEntity
  8
細線
100
AcDbLine
 10
4935.622950375396
 20
4854.188379067655
 30
0.0
 11
5009.622950375397
 21
4854.188379067655
 31
0.0
  0
LINE
  5
188F5
330
747D
100
AcDbEntity
  8
部品1
 48
0.01
100
AcDbLine
 10
5097.622950375397
 20
4866.688379067655
 30
0.0
 11
4921.622950375397
 21
4866.688379067655
 31
0.0
  0
LINE
  5
188F6
330
747D
100
AcDbEntity
  8
部品1
 48
0.01
100
AcDbLine
 10
4919.622950375397
 20
4864.688379067654
 30
0.0
 11
4919.622950375397
 21
4833.188379067655
 31
0.0
  0
LINE
  5
188F7
330
747D
100
AcDbEntity
  8
部品1
 48
0.01
100
AcDbLine
 10
4921.622950375397
 20
4831.188379067654
 30
0.0
 11
5097.622950375392
 21
4831.188379067654
 31
0.0
  0
LINE
  5
188F8
330
747D
100
AcDbEntity
  8
部品1
 48
0.01
100
AcDbLine
 10
5099.622950375393
 20
4833.188379067655
 30
0.0
 11
5099.622950375397
 21
4864.688379067654
 31
0.0
  0
LINE
  5
188F9
330
747D
100
AcDbEntity
  8
細線
100
AcDbLine
 10
4935.622950375396
 20
4860.188379067654
 30
0.0
 11
4935.622950375396
 21
4837.188379067654
 31
0.0
  0
LINE
  5
188FA
330
747D
100
AcDbEntity
  8
細線
100
AcDbLine
 10
5083.622950375397
 20
4837.188379067654
 30
0.0
 11
5083.622950375397
 21
4860.188379067654
 31
0.0
  0
LINE
  5
188FB
330
747D
100
AcDbEntity
  8
細線
100
AcDbLine
 10
5083.622950375397
 20
4860.188379067654
 30
0.0
 11
5009.622950375397
 21
4860.188379067654
 31
0.0
  0
LINE
  5
188FC
330
747D
100
AcDbEntity
  8
細線
100
AcDbLine
 10
4935.622950375396
 20
4837.188379067654
 30
0.0
 11
5009.622950375397
 21
4837.188379067654
 31
0.0
  0
LINE
  5
188FD
330
747D
100
AcDbEntity
  8
細線
100
AcDbLine
 10
5009.622950375397
 20
4860.188379067654
 30
0.0
 11
4935.622950375396
 21
4860.188379067654
 31
0.0
  0
LINE
  5
188FE
330
747D
100
AcDbEntity
  8
細線
100
AcDbLine
 10
5009.622950375393
 20
4837.188379067654
 30
0.0
 11
5083.622950375397
 21
4837.188379067654
 31
0.0
  0
ARC
  5
188FF
330
747D
100
AcDbEntity
  8
部品1
 48
0.01
100
AcDbCircle
 10
4921.622950375397
 20
4864.688379067654
 30
0.0
 40
2.0
100
AcDbArc
 50
90.0
 51
180.0
  0
ARC
  5
18900
330
747D
100
AcDbEntity
  8
部品1
 48
0.01
100
AcDbCircle
 10
4921.622950375397
 20
4833.188379067655
 30
0.0
 40
2.0
100
AcDbArc
 50
180.0
 51
270.0
  0
ARC
  5
18901
330
747D
100
AcDbEntity
  8
部品1
 48
0.01
100
AcDbCircle
 10
5097.622950375397
 20
4864.688379067654
 30
0.0
 40
2.0
100
AcDbArc
 50
0.0
 51
90.0
  0
ARC
  5
18902
330
747D
100
AcDbEntity
  8
部品1
 48
0.01
100
AcDbCircle
 10
5097.622950375392
 20
4833.188379067655
 30
0.0
 40
2.0
100
AcDbArc
 50
270.0
 51
0.0
  0
ARC
  5
18903
330
747D
100
AcDbEntity
  8
部品1
 48
0.01
100
AcDbCircle
 10
5541.622950375397
 20
4864.688379067654
 30
0.0
 40
2.0
100
AcDbArc
 50
90.0
 51
180.0
  0
ARC
  5
18904
330
747D
100
AcDbEntity
  8
部品1
 48
0.01
100
AcDbCircle
 10
5717.622950375396
 20
4864.688379067654
 30
0.0
 40
2.0
100
AcDbArc
 50
0.0
 51
90.0
  0
LINE
  5
18905
330
747D
100
AcDbEntity
  8
細線
100
AcDbLine
 10
5629.622950375397
 20
4837.188379067654
 30
0.0
 11
5555.622950375397
 21
4837.188379067654
 31
0.0
  0
LINE
  5
18906
330
747D
100
AcDbEntity
  8
細線
100
AcDbLine
 10
5629.622950375397
 20
4860.188379067654
 30
0.0
 11
5703.622950375397
 21
4860.188379067654
 31
0.0
  0
LINE
  5
18907
330
747D
100
AcDbEntity
  8
細線
100
AcDbLine
 10
5703.622950375397
 20
4837.188379067654
 30
0.0
 11
5629.622950375397
 21
4837.188379067654
 31
0.0
  0
LINE
  5
18908
330
747D
100
AcDbEntity
  8
細線
100
AcDbLine
 10
5555.622950375397
 20
4860.188379067654
 30
0.0
 11
5629.622950375397
 21
4860.188379067654
 31
0.0
  0
LINE
  5
18909
330
747D
100
AcDbEntity
  8
細線
100
AcDbLine
 10
5555.622950375397
 20
4837.188379067654
 30
0.0
 11
5555.622950375397
 21
4860.188379067654
 31
0.0
  0
LINE
  5
1890A
330
747D
100
AcDbEntity
  8
細線
100
AcDbLine
 10
5703.622950375397
 20
4860.188379067654
 30
0.0
 11
5703.622950375397
 21
4837.188379067654
 31
0.0
  0
LINE
  5
1890B
330
747D
100
AcDbEntity
  8
部品1
 48
0.01
100
AcDbLine
 10
5541.622950375397
 20
4866.688379067655
 30
0.0
 11
5717.622950375396
 21
4866.688379067655
 31
0.0
  0
LINE
  5
1890C
330
747D
100
AcDbEntity
  8
細線
100
AcDbLine
 10
5703.622950375397
 20
4854.188379067655
 30
0.0
 11
5629.622950375397
 21
4854.188379067655
 31
0.0
  0
LINE
  5
1890D
330
747D
100
AcDbEntity
  8
細線
100
AcDbLine
 10
5703.622950375397
 20
4848.188379067654
 30
0.0
 11
5629.622950375397
 21
4848.188379067654
 31
0.0
  0
LINE
  5
1890E
330
747D
100
AcDbEntity
  8
細線
100
AcDbLine
 10
5703.622950375397
 20
4842.188379067654
 30
0.0
 11
5629.622950375397
 21
4842.188379067654
 31
0.0
  0
LINE
  5
1890F
330
747D
100
AcDbEntity
  8
細線
100
AcDbLine
 10
5703.622950375397
 20
4854.188379067655
 30
0.0
 11
5634.622950375397
 21
4854.188379067655
 31
0.0
  0
LINE
  5
18910
330
747D
100
AcDbEntity
  8
細線
100
AcDbLine
 10
5555.622950375397
 20
4854.188379067655
 30
0.0
 11
5629.622950375397
 21
4854.188379067655
 31
0.0
  0
LINE
  5
18911
330
747D
100
AcDbEntity
  8
細線
100
AcDbLine
 10
5555.622950375397
 20
4842.188379067654
 30
0.0
 11
5629.622950375397
 21
4842.188379067654
 31
0.0
  0
LINE
  5
18912
330
747D
100
AcDbEntity
  8
細線
100
AcDbLine
 10
5555.622950375397
 20
4848.188379067654
 30
0.0
 11
5629.622950375397
 21
4848.188379067654
 31
0.0
  0
LINE
  5
18913
330
747D
100
AcDbEntity
  8
細線
100
AcDbLine
 10
5629.622950375397
 20
4860.188379067654
 30
0.0
 11
5629.622950375397
 21
4837.188379067654
 31
0.0
  0
ARC
  5
18914
330
747D
100
AcDbEntity
  8
部品1
 48
0.01
100
AcDbCircle
 10
5541.622950375397
 20
4833.188379067655
 30
0.0
 40
2.0
100
AcDbArc
 50
180.0
 51
270.0
  0
ARC
  5
18915
330
747D
100
AcDbEntity
  8
部品1
 48
0.01
100
AcDbCircle
 10
5717.622950375396
 20
4833.188379067655
 30
0.0
 40
2.0
100
AcDbArc
 50
270.0
 51
0.0
  0
LINE
  5
18916
330
747D
100
AcDbEntity
  8
部品1
 48
0.01
100
AcDbLine
 10
5539.622950375396
 20
4833.188379067655
 30
0.0
 11
5539.622950375396
 21
4864.688379067654
 31
0.0
  0
LINE
  5
18917
330
747D
100
AcDbEntity
  8
部品1
 48
0.01
100
AcDbLine
 10
5717.622950375396
 20
4831.188379067654
 30
0.0
 11
5541.622950375397
 21
4831.188379067654
 31
0.0
  0
LINE
  5
18918
330
747D
100
AcDbEntity
  8
部品1
 48
0.01
100
AcDbLine
 10
5719.622950375397
 20
4864.688379067654
 30
0.0
 11
5719.622950375397
 21
4833.188379067655
 31
0.0
  0
DIMENSION
  5
18919
330
747D
100
AcDbEntity
  8
寸法
 48
50.0
100
AcDbDimension
  2
*D8
 10
6004.622950375392
 20
5440.308638494927
 30
0.0
 11
6368.10823174963
 21
5440.308638494927
 31
0.0
 70
   160
 71
     5
 42
50.0
  3
INABA_S40G
100
AcDbAlignedDimension
 13
6054.622950375392
 23
5035.688379067658
 33
0.0
 14
6004.622950375392
 24
5035.688379067662
 34
0.0
100
AcDbRotatedDimension
  0
LINE
  5
1891A
330
747D
100
AcDbEntity
  8
部品1
100
AcDbLine
 10
6054.203289360059
 20
5028.291853672421
 30
0.0
 11
6053.069892027714
 21
5008.315725689821
 31
0.0
  0
LINE
  5
1891B
330
747D
100
AcDbEntity
  8
細線
 48
50.0
100
AcDbLine
 10
6021.622950375393
 20
5035.688379067661
 30
0.0
 11
6021.622950375393
 21
4894.68837906766
 31
0.0
  0
LINE
  5
1891C
330
747D
100
AcDbEntity
  8
部品1
100
AcDbLine
 10
6041.632871706137
 20
4912.658318522761
 30
0.0
 11
6040.987965899025
 21
4901.291853672422
 31
0.0
  0
LINE
  5
1891D
330
747D
100
AcDbEntity
  8
部品1
100
AcDbLine
 10
6049.868902230981
 20
5004.858318522764
 30
0.0
 11
6044.833861502869
 21
4916.115725689818
 31
0.0
  0
ARC
  5
1891E
330
747D
100
AcDbEntity
  8
部品1
 48
50.0
100
AcDbCircle
 10
6052.864085127167
 20
5004.688379067662
 30
0.0
 40
3.0
100
AcDbArc
 50
97.6581272073639
 51
176.7526572096655
  0
ARC
  5
1891F
330
747D
100
AcDbEntity
  8
部品1
 48
50.0
100
AcDbCircle
 10
6044.628054602322
 20
4912.488379067657
 30
0.0
 40
3.0
100
AcDbArc
 50
97.6581272073639
 51
176.7526572096655
  0
ARC
  5
18920
330
747D
100
AcDbEntity
  8
部品1
 48
50.0
100
AcDbCircle
 10
6044.134985493762
 20
4916.155378229343
 30
0.0
 40
0.7
100
AcDbArc
 50
277.6581272073639
 51
356.7526572096656
  0
ARC
  5
18921
330
747D
100
AcDbEntity
  8
部品1
 48
50.0
100
AcDbCircle
 10
6052.371016018605
 20
5008.355378229346
 30
0.0
 40
0.7
100
AcDbArc
 50
277.6581272073639
 51
356.7526572095615
  0
ARC
  5
18922
330
747D
100
AcDbEntity
  8
部品1
100
AcDbCircle
 10
6033.999205807926
 20
4901.688379067662
 30
0.0
 40
7.0
100
AcDbArc
 50
270.0
 51
356.7526572096656
  0
ARC
  5
18923
330
747D
100
AcDbEntity
  8
部品1
100
AcDbCircle
 10
6047.21452926896
 20
5028.68837906766
 30
0.0
 40
7.0
100
AcDbArc
 50
356.7526572096656
 51
90.0
  0
TEXT
  5
18924
330
747D
100
AcDbEntity
  8
文字
 62
     7
 48
50.0
100
AcDbText
 10
13209.4053442172
 20
228.5435242569015
 30
0.0
 40
100.0
  1
○有効開口寸法 ： 1266×1725(mm)
  7
STYLE2
100
AcDbText
  0
TEXT
  5
18993
330
747D
100
AcDbEntity
  8
文字
 62
     7
 48
50.0
100
AcDbText
 10
14491.96323844892
 20
483.8967129911416
 30
0.0
 40
160.0
  1
ＮＸＮ－３６ＳＢ
  7
STYLE2
100
AcDbText
  0
TEXT
  5
18A94
330
747D
100
AcDbEntity
  8
部品1
100
AcDbText
 10
5027.333718684786
 20
1788.479306874174
 30
0.0
 40
135.0
  1
側面図
  7
STYLE2
100
AcDbText
  0
LINE
  5
18A95
330
747D
100
AcDbEntity
  8
部品1
100
AcDbLine
 10
4937.887617261178
 20
1981.372836092697
 30
0.0
 11
4937.887617261178
 21
1741.480514547165
 31
0.0
  0
LINE
  5
18A96
330
747D
100
AcDbEntity
  8
部品1
100
AcDbLine
 10
4937.887617261178
 20
1741.480514547165
 30
0.0
 11
5701.358283489615
 21
1741.480514547165
 31
0.0
  0
LINE
  5
18A97
330
747D
100
AcDbEntity
  8
部品1
100
AcDbLine
 10
5701.358283489615
 20
1741.480514547165
 30
0.0
 11
5701.358283489615
 21
1981.372836092697
 31
0.0
  0
LINE
  5
18A98
330
747D
100
AcDbEntity
  8
部品1
100
AcDbLine
 10
5701.358283489615
 20
1981.372836092697
 30
0.0
 11
4937.887617261178
 21
1981.372836092697
 31
0.0
  0
LINE
  5
18D64
330
747D
100
AcDbEntity
  8
補助
  6
PHANTOM
 62
   230
 48
50.0
100
AcDbLine
 10
140.0
 20
0.0
 30
0.0
 11
140.0
 21
11409.6
 31
0.0
  0
LINE
  5
192C6
330
747D
100
AcDbEntity
  8
細線
 48
50.0
100
AcDbLine
 10
8824.280351315959
 20
4800.688379067657
 30
0.0
 11
8824.280351315959
 21
3010.688379067657
 31
0.0
  0
LINE
  5
192C7
330
747D
100
AcDbEntity
  8
細線
 48
50.0
100
AcDbLine
 10
8839.280351315958
 20
4800.688379067657
 30
0.0
 11
8839.280351315958
 21
3010.688379067657
 31
0.0
  0
LINE
  5
192C8
330
747D
100
AcDbEntity
  8
細線
 48
50.0
100
AcDbLine
 10
8699.280351315959
 20
4800.688379067657
 30
0.0
 11
8699.280351315959
 21
3010.688379067657
 31
0.0
  0
LINE
  5
192C9
330
747D
100
AcDbEntity
  8
細線
 48
50.0
100
AcDbLine
 10
8684.280351315958
 20
4800.688379067657
 30
0.0
 11
8684.280351315958
 21
3010.688379067657
 31
0.0
  0
LINE
  5
192CA
330
747D
100
AcDbEntity
  8
細線
 48
50.0
100
AcDbLine
 10
8544.280351315958
 20
4800.688379067657
 30
0.0
 11
8544.280351315958
 21
3010.688379067657
 31
0.0
  0
LINE
  5
192CB
330
747D
100
AcDbEntity
  8
細線
 48
50.0
100
AcDbLine
 10
8559.280351315958
 20
4800.688379067657
 30
0.0
 11
8559.280351315958
 21
3010.688379067657
 31
0.0
  0
LINE
  5
1942B
330
747D
100
AcDbEntity
  8
部品1
 48
50.0
100
AcDbLine
 10
9708.780351315956
 20
4743.688379092424
 30
0.0
 11
9708.780351315954
 21
3010.688379067653
 31
0.0
  0
LINE
  5
1942C
330
747D
100
AcDbEntity
  8
部品1
100
AcDbLine
 10
10362.78034162081
 20
4743.688379104807
 30
0.0
 11
10362.78034162081
 21
3018.188379104822
 31
0.0
  0
LINE
  5
1942D
330
747D
100
AcDbEntity
  8
細線
100
AcDbLine
 10
9608.780351315958
 20
4743.688379067656
 30
0.0
 11
9608.780351315955
 21
3010.688379067664
 31
0.0
  0
LINE
  5
1942E
330
747D
100
AcDbEntity
  8
細線
100
AcDbLine
 10
9538.780351315958
 20
4743.688379067656
 30
0.0
 11
9538.780351315955
 21
3010.688379067664
 31
0.0
  0
LINE
  5
1942F
330
747D
100
AcDbEntity
  8
細線
100
AcDbLine
 10
9468.780351315958
 20
4743.688379067656
 30
0.0
 11
9468.780351315954
 21
3010.68837906766
 31
0.0
  0
LINE
  5
19430
330
747D
100
AcDbEntity
  8
細線
100
AcDbLine
 10
9398.780351315958
 20
4743.688379067656
 30
0.0
 11
9398.780351315954
 21
3010.68837906766
 31
0.0
  0
LINE
  5
19431
330
747D
100
AcDbEntity
  8
細線
100
AcDbLine
 10
9328.780351315957
 20
4743.688379067656
 30
0.0
 11
9328.780351315954
 21
3010.68837906766
 31
0.0
  0
LINE
  5
19432
330
747D
100
AcDbEntity
  8
細線
100
AcDbLine
 10
9258.780351315959
 20
4743.688379067656
 30
0.0
 11
9258.780351315953
 21
3010.68837906766
 31
0.0
  0
LINE
  5
19433
330
747D
100
AcDbEntity
  8
部品1
100
AcDbLine
 10
9074.780351315954
 20
4743.688379067656
 30
0.0
 11
9074.780351315958
 21
3010.68837906766
 31
0.0
  0
LINE
  5
19434
330
747D
100
AcDbEntity
  8
部品1
100
AcDbLine
 10
9024.780351315953
 20
4743.688379067656
 30
0.0
 11
9024.780351315959
 21
3010.68837906766
 31
0.0
  0
LINE
  5
19435
330
747D
100
AcDbEntity
  8
細線
100
AcDbLine
 10
9066.780351315953
 20
4743.688379067656
 30
0.0
 11
9066.780351315959
 21
3010.68837906766
 31
0.0
  0
LINE
  5
19436
330
747D
100
AcDbEntity
  8
細線
100
AcDbLine
 10
9032.780351315954
 20
4743.688379067656
 30
0.0
 11
9032.780351315958
 21
3010.68837906766
 31
0.0
  0
LINE
  5
19437
330
747D
100
AcDbEntity
  8
細線
100
AcDbLine
 10
10260.2803610662
 20
4743.688379067656
 30
0.0
 11
10260.2803610662
 21
3018.188379067668
 31
0.0
  0
LINE
  5
19438
330
747D
100
AcDbEntity
  8
細線
100
AcDbLine
 10
10190.2803610662
 20
4743.688379067656
 30
0.0
 11
10190.2803610662
 21
3018.188379067668
 31
0.0
  0
LINE
  5
19439
330
747D
100
AcDbEntity
  8
細線
100
AcDbLine
 10
10120.2803610662
 20
4743.688379067656
 30
0.0
 11
10120.2803610662
 21
3018.188379067668
 31
0.0
  0
LINE
  5
1943A
330
747D
100
AcDbEntity
  8
細線
100
AcDbLine
 10
10050.2803610662
 20
4743.688379067656
 30
0.0
 11
10050.2803610662
 21
3018.188379067668
 31
0.0
  0
LINE
  5
1943B
330
747D
100
AcDbEntity
  8
細線
100
AcDbLine
 10
9980.280361066201
 20
4743.688379067656
 30
0.0
 11
9980.280361066201
 21
3018.188379067668
 31
0.0
  0
LINE
  5
1943C
330
747D
100
AcDbEntity
  8
細線
100
AcDbLine
 10
9910.280361066202
 20
4743.688379067656
 30
0.0
 11
9910.280361066202
 21
3018.188379067668
 31
0.0
  0
LINE
  5
1943D
330
747D
100
AcDbEntity
  8
細線
100
AcDbLine
 10
10835.53035131596
 20
4743.688379067656
 30
0.0
 11
10835.53035131596
 21
3018.188379067675
 31
0.0
  0
LINE
  5
1943E
330
747D
100
AcDbEntity
  8
細線
100
AcDbLine
 10
10765.53035131596
 20
4743.688379067656
 30
0.0
 11
10765.53035131596
 21
3018.188379067675
 31
0.0
  0
LINE
  5
1943F
330
747D
100
AcDbEntity
  8
細線
100
AcDbLine
 10
10695.53035131596
 20
4743.688379067656
 30
0.0
 11
10695.53035131596
 21
3018.188379067675
 31
0.0
  0
LINE
  5
19440
330
747D
100
AcDbEntity
  8
細線
100
AcDbLine
 10
10625.53035131596
 20
4743.688379067656
 30
0.0
 11
10625.53035131596
 21
3018.188379067675
 31
0.0
  0
LINE
  5
19441
330
747D
100
AcDbEntity
  8
細線
100
AcDbLine
 10
10555.53035131596
 20
4743.688379067656
 30
0.0
 11
10555.53035131596
 21
3018.188379067675
 31
0.0
  0
LINE
  5
19442
330
747D
100
AcDbEntity
  8
細線
100
AcDbLine
 10
9188.780351315958
 20
4743.688379067656
 30
0.0
 11
9188.780351315953
 21
3010.68837906766
 31
0.0
  0
LINE
  5
19443
330
747D
100
AcDbEntity
  8
細線
100
AcDbLine
 10
9118.780351315958
 20
4743.688379067656
 30
0.0
 11
9118.780351315955
 21
3010.68837906766
 31
0.0
  0
LINE
  5
19444
330
747D
100
AcDbEntity
  8
細線
100
AcDbLine
 10
9840.280361066202
 20
4743.688379067656
 30
0.0
 11
9840.280361066202
 21
3018.188379067668
 31
0.0
  0
LINE
  5
19445
330
747D
100
AcDbEntity
  8
細線
100
AcDbLine
 10
9770.280361066202
 20
4743.688379067656
 30
0.0
 11
9770.280361066202
 21
3018.188379067668
 31
0.0
  0
LINE
  5
19446
330
747D
100
AcDbEntity
  8
細線
100
AcDbLine
 10
10485.53035131596
 20
4743.688379067656
 30
0.0
 11
10485.53035131596
 21
3018.188379067675
 31
0.0
  0
LINE
  5
19447
330
747D
100
AcDbEntity
  8
部品1
 48
50.0
100
AcDbLine
 10
11028.78035131596
 20
4751.688379067656
 30
0.0
 11
10998.78035131595
 21
4751.688379067656
 31
0.0
  0
LINE
  5
19448
330
747D
100
AcDbEntity
  8
細線
 48
50.0
100
AcDbLine
 10
10976.78035131596
 20
3007.688379067657
 30
0.0
 11
10972.78035131596
 21
3018.188379067657
 31
0.0
  0
LINE
  5
19449
330
747D
100
AcDbEntity
  8
部品1
 48
50.0
100
AcDbLine
 10
10362.78034162082
 20
4743.688379104804
 30
0.0
 11
10362.78034162082
 21
3018.188379104804
 31
0.0
  0
LINE
  5
1944A
330
747D
100
AcDbEntity
  8
部品1
 48
50.0
100
AcDbLine
 10
11028.78035131596
 20
2960.688379067656
 30
0.0
 11
11028.78035131596
 21
4795.688379067656
 31
0.0
  0
LINE
  5
1944B
330
747D
100
AcDbEntity
  8
細線
 48
50.0
100
AcDbLine
 10
10998.78035131595
 20
2960.688379067656
 30
0.0
 11
10998.78035131595
 21
4753.188379067657
 31
0.0
  0
LINE
  5
1944C
330
747D
100
AcDbEntity
  8
部品1
 48
50.0
100
AcDbLine
 10
10989.78035131596
 20
3007.688379067657
 30
0.0
 11
10989.78035131596
 21
4743.688379067656
 31
0.0
  0
LINE
  5
1944D
330
747D
100
AcDbEntity
  8
部品1
 48
50.0
100
AcDbLine
 10
8904.780351315958
 20
4751.688379067656
 30
0.0
 11
8874.780351315958
 21
4751.688379067656
 31
0.0
  0
LINE
  5
1944E
330
747D
100
AcDbEntity
  8
部品1
 48
50.0
100
AcDbLine
 10
8913.780351315958
 20
3010.688379067657
 30
0.0
 11
8913.780351315958
 21
3007.688379067657
 31
0.0
  0
LINE
  5
1944F
330
747D
100
AcDbEntity
  8
部品1
 48
50.0
100
AcDbLine
 10
8904.780351315958
 20
3010.688379067657
 30
0.0
 11
9708.780351315954
 21
3010.688379067653
 31
0.0
  0
LINE
  5
19450
330
747D
100
AcDbEntity
  8
部品1
 48
50.0
100
AcDbLine
 10
9708.780351315956
 20
4743.688379092424
 30
0.0
 11
9708.780351315956
 21
3010.688379092424
 31
0.0
  0
LINE
  5
19451
330
747D
100
AcDbEntity
  8
部品1
 48
50.0
100
AcDbLine
 10
8874.780351315958
 20
4795.688379067656
 30
0.0
 11
8874.780351315958
 21
2960.688379067656
 31
0.0
  0
LINE
  5
19452
330
747D
100
AcDbEntity
  8
細線
 48
50.0
100
AcDbLine
 10
8904.780351315958
 20
4753.188379067657
 30
0.0
 11
8904.780351315958
 21
2960.688379067656
 31
0.0
  0
LINE
  5
19453
330
747D
100
AcDbEntity
  8
部品1
 48
50.0
100
AcDbLine
 10
8904.780351315958
 20
3010.688379067657
 30
0.0
 11
8904.780351315958
 21
4743.688379067656
 31
0.0
  0
LINE
  5
19454
330
747D
100
AcDbEntity
  8
細線
 48
50.0
100
AcDbLine
 10
9708.780351315956
 20
3018.188379067657
 30
0.0
 11
10972.78035131596
 21
3018.188379067657
 31
0.0
  0
LINE
  5
19455
330
747D
100
AcDbEntity
  8
細線
 48
50.0
100
AcDbLine
 10
8904.780351315958
 20
3007.688379067657
 30
0.0
 11
10998.78035131595
 21
3007.688379067657
 31
0.0
  0
LINE
  5
19456
330
747D
100
AcDbEntity
  8
細線
 48
50.0
100
AcDbLine
 10
8904.780351315958
 20
3003.688379067657
 30
0.0
 11
10998.78035131595
 21
3003.688379067657
 31
0.0
  0
LINE
  5
19457
330
747D
100
AcDbEntity
  8
部品1
 48
50.0
100
AcDbLine
 10
8874.780351315958
 20
2960.688379067656
 30
0.0
 11
11028.78035131596
 21
2960.688379067656
 31
0.0
  0
LINE
  5
19458
330
747D
100
AcDbEntity
  8
細線
 48
50.0
100
AcDbLine
 10
10998.78035131595
 20
4753.188379067657
 30
0.0
 11
8904.780351315958
 21
4753.188379067657
 31
0.0
  0
LINE
  5
19459
330
747D
100
AcDbEntity
  8
細線
 48
50.0
100
AcDbLine
 10
10998.78035131595
 20
4743.688379067656
 30
0.0
 11
8904.780351315958
 21
4743.688379067656
 31
0.0
  0
LINE
  5
1945A
330
747D
100
AcDbEntity
  8
細線
 48
50.0
100
AcDbLine
 10
11028.78035131596
 20
4785.688379067656
 30
0.0
 11
8874.780351315958
 21
4785.688379067656
 31
0.0
  0
LINE
  5
1945B
330
747D
100
AcDbEntity
  8
部品1
 48
50.0
100
AcDbLine
 10
11028.78035131596
 20
4795.688379067656
 30
0.0
 11
8874.780351315958
 21
4795.688379067656
 31
0.0
  0
LINE
  5
19475
330
747D
100
AcDbEntity
  8
部品1
 48
50.0
100
AcDbLine
 10
8948.780351315958
 20
3942.188379067657
 30
0.0
 11
9001.780351315957
 21
3942.188379067657
 31
0.0
  0
MTEXT
  5
19479
330
747D
100
AcDbEntity
  8
寸法
 62
     7
 48
50.0
100
AcDbMText
 10
10406.8828884091
 20
8867.448988134105
 30
0.0
 40
96.0
 41
0.0
 71
     5
 72
     1
  1
棚 2段
  7
STYLE1
 73
     1
 44
1.0
1001
ACAD
1000
MTEXTBEGIN
1070
    73
1070
     1
1070
    44
1040
1.0
1070
    74
1070
     0
1000
MTEXTEND
  0
MTEXT
  5
1947A
330
747D
100
AcDbEntity
  8
寸法
 62
     7
 48
50.0
100
AcDbMText
 10
9106.882888409071
 20
8867.448988134082
 30
0.0
 40
96.0
 41
0.0
 71
     5
 72
     1
  1
棚 2段
  7
STYLE1
 73
     1
 44
1.0
1001
ACAD
1000
MTEXTBEGIN
1070
    73
1070
     1
1070
    44
1040
1.0
1070
    74
1070
     0
1000
MTEXTEND
  0
LINE
  5
194E6
330
747D
100
AcDbEntity
  8
部品1
100
AcDbLine
 10
11001.78035131597
 20
9281.214169936795
 30
0.0
 11
11001.78035131597
 21
9253.214169936795
 31
0.0
  0
LINE
  5
194E7
330
747D
100
AcDbEntity
  8
部品1
100
AcDbLine
 10
11001.78035131597
 20
9281.214169936816
 30
0.0
 11
11001.78035131597
 21
9253.214169936816
 31
0.0
  0
LINE
  5
194E8
330
747D
100
AcDbEntity
  8
部品1
100
AcDbLine
 10
11028.78035131596
 20
9226.214169936799
 30
0.0
 11
11056.78035131596
 21
9226.214169936799
 31
0.0
  0
LINE
  5
194E9
330
747D
100
AcDbEntity
  8
部品1
100
AcDbLine
 10
11028.78035131596
 20
8806.214169936799
 30
0.0
 11
11056.78035131596
 21
8806.214169936799
 31
0.0
  0
LINE
  5
194EA
330
747D
100
AcDbEntity
  8
部品1
100
AcDbLine
 10
11028.78035131596
 20
8386.214169936797
 30
0.0
 11
11056.78035131596
 21
8386.214169936797
 31
0.0
  0
DIMENSION
  5
194EB
330
747D
100
AcDbEntity
  8
寸法
100
AcDbDimension
  2
*D9
 10
11756.78035131596
 20
9226.214169936799
 30
0.0
 11
11756.78035131595
 21
9589.699451311036
 31
0.0
 70
   160
 71
     5
 42
54.99999999999636
  3
INABA_S40G
100
AcDbAlignedDimension
 13
11056.78035131596
 23
9281.214169936795
 33
0.0
 14
11056.78035131596
 24
9226.214169936799
 34
0.0
 50
90.0
100
AcDbRotatedDimension
1001
ACAD
1000
DSTYLE
1002
{
1002
}
  0
DIMENSION
  5
194EC
330
747D
100
AcDbEntity
  8
寸法
100
AcDbDimension
  2
*D10
 10
11456.78035131596
 20
8686.397940980063
 30
0.0
 11
11456.78035131596
 21
8911.397940980062
 31
0.0
 70
   160
 71
     5
 42
449.9999999999963
  3
INABA_S40G
100
AcDbAlignedDimension
 13
11028.28035131596
 23
9251.214169936794
 33
0.0
 14
11028.28035131596
 24
8801.214169936798
 34
0.0
 50
90.0
100
AcDbRotatedDimension
1001
ACAD
1000
DSTYLE
1002
{
1002
}
  0
LINE
  5
194ED
330
747D
100
AcDbEntity
  8
部品1
100
AcDbLine
 10
11028.28035131596
 20
9251.214169936794
 30
0.0
 11
11028.28035131596
 21
8801.214169936798
 31
0.0
  0
LINE
  5
194EE
330
747D
100
AcDbEntity
  8
部品1
100
AcDbLine
 10
11028.78035131596
 20
9253.214169936795
 30
0.0
 11
11028.78035131596
 21
8800.714169936671
 31
0.0
  0
LINE
  5
194F0
330
747D
100
AcDbEntity
  8
部品1
 48
50.0
100
AcDbLine
 10
11001.78035131597
 20
7911.214169936771
 30
0.0
 11
11001.78035131597
 21
7939.214169936771
 31
0.0
  0
LINE
  5
194F1
330
747D
100
AcDbEntity
  8
部品1
100
AcDbLine
 10
11028.78035131596
 20
7966.214169936782
 30
0.0
 11
11056.78035131596
 21
7966.214169936782
 31
0.0
  0
LINE
  5
194F2
330
747D
100
AcDbEntity
  8
部品1
100
AcDbLine
 10
11056.78035131594
 20
7966.214169936782
 30
0.0
 11
11056.78035131594
 21
7911.214169936785
 31
0.0
  0
LINE
  5
194F3
330
747D
100
AcDbEntity
  8
部品1
 48
50.0
100
AcDbLine
 10
11000.28035131596
 20
7967.714169936787
 30
0.0
 11
11028.78035131596
 21
7939.214169936786
 31
0.0
  0
LINE
  5
194F4
330
747D
100
AcDbEntity
  8
部品1
100
AcDbLine
 10
11056.78035131594
 20
7911.214169936785
 30
0.0
 11
11005.78035131594
 21
7911.214169936785
 31
0.0
  0
LINE
  5
194F5
330
747D
100
AcDbEntity
  8
部品1
100
AcDbLine
 10
11028.78035131594
 20
7966.214169936782
 30
0.0
 11
11056.78035131594
 21
7966.214169936782
 31
0.0
  0
LINE
  5
194F6
330
747D
100
AcDbEntity
  8
部品1
100
AcDbLine
 10
11056.78035131594
 20
7911.214169936785
 30
0.0
 11
11001.78035131597
 21
7911.214169936771
 31
0.0
  0
DIMENSION
  5
194F7
330
747D
100
AcDbEntity
  8
寸法
100
AcDbDimension
  2
*D11
 10
11756.78035131594
 20
7911.214169936785
 30
0.0
 11
11756.78035131594
 21
7602.728888562534
 31
0.0
 70
   160
 71
     5
 42
54.99999999999636
  3
INABA_S40G
100
AcDbAlignedDimension
 13
11056.78035131594
 23
7966.21416993678
 33
0.0
 14
11056.78035131594
 24
7911.214169936785
 34
0.0
 50
90.0
100
AcDbRotatedDimension
1001
ACAD
1000
DSTYLE
1002
{
1002
}
  0
LINE
  5
194F8
330
747D
100
AcDbEntity
  8
部品1
100
AcDbLine
 10
11028.78035131596
 20
8806.214169936799
 30
0.0
 11
11028.78035131594
 21
7939.214169936786
 31
0.0
  0
LINE
  5
194F9
330
747D
100
AcDbEntity
  8
部品1
100
AcDbLine
 10
11000.28035131596
 20
8801.214169936795
 30
0.0
 11
11000.28035131596
 21
7967.714169936787
 31
0.0
  0
LINE
  5
194FA
330
747D
100
AcDbEntity
  8
部品1
100
AcDbLine
 10
11056.78035131596
 20
9281.214169936795
 30
0.0
 11
11056.78035131594
 21
7911.214169936785
 31
0.0
  0
DIMENSION
  5
194FB
330
747D
100
AcDbEntity
  8
寸法
100
AcDbDimension
  2
*D12
 10
11756.78035131596
 20
7966.21416993678
 30
0.0
 11
11756.78035131595
 21
8596.214169936789
 31
0.0
 70
   160
  1
3X420=<>
 71
     5
 42
1260.000000000016
  3
INABA_S40G
100
AcDbAlignedDimension
 13
11056.78035131596
 23
9226.214169936799
 33
0.0
 14
11056.78035131594
 24
7966.21416993678
 34
0.0
 50
90.0
100
AcDbRotatedDimension
1001
ACAD
1000
DSTYLE
1002
{
1002
}
  0
DIMENSION
  5
194FC
330
747D
100
AcDbEntity
  8
寸法
100
AcDbDimension
  2
*D13
 10
12056.78035131597
 20
7911.214169936785
 30
0.0
 11
12056.78035131596
 21
8596.214169936789
 31
0.0
 70
   160
 71
     5
 42
1370.000000000009
  3
INABA_S40G
100
AcDbAlignedDimension
 13
11056.78035131596
 23
9281.214169936795
 33
0.0
 14
11056.78035131594
 24
7911.214169936785
 34
0.0
 50
90.0
100
AcDbRotatedDimension
1001
ACAD
1000
DSTYLE
1002
{
1002
}
  0
LINE
  5
194FD
330
747D
100
AcDbEntity
  8
部品1
100
AcDbLine
 10
10581.78035131593
 20
9281.214169936667
 30
0.0
 11
10581.78035131593
 21
9253.214169936667
 31
0.0
  0
LINE
  5
194FE
330
747D
100
AcDbEntity
  8
部品1
100
AcDbLine
 10
10161.78035131593
 20
9281.214169936667
 30
0.0
 11
10161.78035131593
 21
9253.214169936667
 31
0.0
  0
LINE
  5
194FF
330
747D
100
AcDbEntity
  8
部品1
100
AcDbLine
 10
9741.780351315931
 20
9281.214169936667
 30
0.0
 11
9741.780351315934
 21
9253.214169936667
 31
0.0
  0
LINE
  5
19500
330
747D
100
AcDbEntity
  8
部品1
100
AcDbLine
 10
9770.780351315968
 20
9271.214169936802
 30
0.0
 11
9776.780351315968
 21
9271.214169936802
 31
0.0
  0
LINE
  5
19501
330
747D
100
AcDbEntity
  8
部品1
100
AcDbLine
 10
9776.780351315968
 20
9271.214169936802
 30
0.0
 11
9776.780351315968
 21
9253.214169936802
 31
0.0
  0
LINE
  5
19502
330
747D
100
AcDbEntity
  8
部品1
100
AcDbLine
 10
9706.780351315968
 20
9271.214169936802
 30
0.0
 11
9712.780351315968
 21
9271.214169936802
 31
0.0
  0
LINE
  5
19503
330
747D
100
AcDbEntity
  8
部品1
100
AcDbLine
 10
9706.780351315968
 20
9271.214169936802
 30
0.0
 11
9706.780351315968
 21
9253.214169936802
 31
0.0
  0
LINE
  5
19504
330
747D
100
AcDbEntity
  8
部品1
100
AcDbLine
 10
9729.280351315967
 20
9245.214169936799
 30
0.0
 11
9754.280351315967
 21
9245.214169936803
 31
0.0
  0
LINE
  5
19505
330
747D
100
AcDbEntity
  8
部品1
100
AcDbLine
 10
9729.280351315967
 20
8801.214169936805
 30
0.0
 11
9754.280351315967
 21
8801.214169936805
 31
0.0
  0
LINE
  5
19506
330
747D
100
AcDbEntity
  8
部品1
 48
50.0
100
AcDbLine
 10
9754.280351315967
 20
9253.214169936805
 30
0.0
 11
9754.280351315967
 21
8801.214169936805
 31
0.0
  0
LINE
  5
19507
330
747D
100
AcDbEntity
  8
部品1
 48
50.0
100
AcDbLine
 10
9729.280351315965
 20
9253.214169936809
 30
0.0
 11
9729.280351315967
 21
8801.214169936805
 31
0.0
  0
LINE
  5
19508
330
747D
100
AcDbEntity
  8
部品1
 48
50.0
100
AcDbLine
 10
9755.280351315967
 20
9251.214169936799
 30
0.0
 11
9755.280351315967
 21
8801.214169936805
 31
0.0
  0
LINE
  5
19509
330
747D
100
AcDbEntity
  8
部品1
 48
50.0
100
AcDbLine
 10
9728.280351315968
 20
9251.214169936803
 30
0.0
 11
9728.280351315968
 21
8801.214169936805
 31
0.0
  0
LINE
  5
1950A
330
747D
100
AcDbEntity
  8
部品1
100
AcDbLine
 10
9321.780351315931
 20
9281.214169936667
 30
0.0
 11
9321.780351315934
 21
9253.214169936667
 31
0.0
  0
LINE
  5
1950B
330
747D
100
AcDbEntity
  8
部品1
100
AcDbLine
 10
8901.780351315931
 20
9281.214169936667
 30
0.0
 11
8901.780351315935
 21
9253.214169936667
 31
0.0
  0
LINE
  5
1950C
330
747D
100
AcDbEntity
  8
部品1
100
AcDbLine
 10
8481.780351315931
 20
9281.214169936667
 30
0.0
 11
8481.780351315935
 21
9253.214169936667
 31
0.0
  0
LINE
  5
1950D
330
747D
100
AcDbEntity
  8
部品1
100
AcDbLine
 10
8481.780351315967
 20
9281.214169936701
 30
0.0
 11
8481.780351315967
 21
9253.2141699367
 31
0.0
  0
LINE
  5
1950E
330
747D
100
AcDbEntity
  8
部品1
100
AcDbLine
 10
8454.780351315934
 20
9226.214169936671
 30
0.0
 11
8426.780351315935
 21
9226.214169936671
 31
0.0
  0
LINE
  5
1950F
330
747D
100
AcDbEntity
  8
部品1
100
AcDbLine
 10
8454.780351315942
 20
8806.214169936671
 30
0.0
 11
8426.780351315942
 21
8806.214169936671
 31
0.0
  0
LINE
  5
19510
330
747D
100
AcDbEntity
  8
部品1
100
AcDbLine
 10
8454.780351315942
 20
8386.214169936669
 30
0.0
 11
8426.780351315942
 21
8386.214169936669
 31
0.0
  0
LINE
  5
19511
330
747D
100
AcDbEntity
  8
部品1
100
AcDbLine
 10
8454.780351315957
 20
8800.714169936671
 30
0.0
 11
8454.780351315967
 21
9253.2141699367
 31
0.0
  0
LINE
  5
19512
330
747D
100
AcDbEntity
  8
部品1
 48
50.0
100
AcDbLine
 10
8455.280351315897
 20
9251.214169936803
 30
0.0
 11
8455.280351315897
 21
8801.214169936805
 31
0.0
  0
LINE
  5
19513
330
747D
100
AcDbEntity
  8
部品1
100
AcDbLine
 10
8455.280351315897
 20
8801.214169936747
 30
0.0
 11
9728.280351315966
 21
8801.214169936805
 31
0.0
  0
LINE
  5
19514
330
747D
100
AcDbEntity
  8
部品1
100
AcDbLine
 10
8455.280351315897
 20
9251.214169936748
 30
0.0
 11
9728.280351315968
 21
9251.214169936806
 31
0.0
  0
LINE
  5
19515
330
747D
100
AcDbEntity
  8
部品1
100
AcDbLine
 10
8454.780351315969
 20
9253.214169936812
 30
0.0
 11
9729.280351315964
 21
9253.214169936816
 31
0.0
  0
LINE
  5
19516
330
747D
100
AcDbEntity
  8
細線
 48
50.0
100
AcDbLine
 10
9728.280351315968
 20
9251.214169936803
 30
0.0
 11
8455.280351315897
 21
8801.214169936747
 31
0.0
  0
LINE
  5
19517
330
747D
100
AcDbEntity
  8
細線
 48
50.0
100
AcDbLine
 10
9728.280351315966
 20
8801.214169936805
 30
0.0
 11
8455.280351315897
 21
9251.214169936748
 31
0.0
  0
LINE
  5
19518
330
747D
100
AcDbEntity
  8
破線
 48
10.0
100
AcDbLine
 10
10976.78035131596
 20
7991.214169936786
 30
0.0
 11
10182.28035131594
 21
7991.214169936608
 31
0.0
  0
LINE
  5
19519
330
747D
100
AcDbEntity
  8
部品1
100
AcDbLine
 10
8901.780351315935
 20
7911.214169936785
 30
0.0
 11
8901.780351315935
 21
7939.214169936786
 31
0.0
  0
LINE
  5
1951A
330
747D
100
AcDbEntity
  8
部品1
 48
50.0
100
AcDbLine
 10
8483.280351315956
 20
7967.714169936764
 30
0.0
 11
8454.780351315957
 21
7939.214169936764
 31
0.0
  0
LINE
  5
1951B
330
747D
100
AcDbEntity
  8
部品1
100
AcDbLine
 10
8481.780351315935
 20
7911.214169936785
 30
0.0
 11
8481.780351315935
 21
7939.214169936786
 31
0.0
  0
LINE
  5
1951C
330
747D
100
AcDbEntity
  8
部品1
100
AcDbLine
 10
8454.780351315942
 20
7966.214169936619
 30
0.0
 11
8426.780351315958
 21
7966.214169936619
 31
0.0
  0
LINE
  5
1951D
330
747D
100
AcDbEntity
  8
部品1
100
AcDbLine
 10
8454.780351315942
 20
7966.214169936654
 30
0.0
 11
8426.780351315958
 21
7966.214169936654
 31
0.0
  0
LINE
  5
1951E
330
747D
100
AcDbEntity
  8
部品1
100
AcDbLine
 10
8454.780351315958
 20
7966.214169936669
 30
0.0
 11
8426.780351315958
 21
7966.214169936669
 31
0.0
  0
LINE
  5
1951F
330
747D
100
AcDbEntity
  8
部品1
100
AcDbLine
 10
8426.780351315958
 20
7966.214169936619
 30
0.0
 11
8426.78035131596
 21
7911.214169936622
 31
0.0
  0
LINE
  5
19520
330
747D
100
AcDbEntity
  8
部品1
100
AcDbLine
 10
8901.780351315935
 20
7911.214169936655
 30
0.0
 11
8426.78035131596
 21
7911.214169936655
 31
0.0
  0
LINE
  5
19521
330
747D
100
AcDbEntity
  8
破線
 48
10.0
100
AcDbLine
 10
9301.280351315945
 20
7991.214169936651
 30
0.0
 11
8506.780351315953
 21
7991.214169936665
 31
0.0
  0
LINE
  5
19522
330
747D
100
AcDbEntity
  8
破線
 48
10.0
100
AcDbLine
 10
10132.28035131594
 20
7991.214169936703
 30
0.0
 11
9351.28035131594
 21
7991.214169936677
 31
0.0
  0
LINE
  5
19523
330
747D
100
AcDbEntity
  8
破線
 48
10.0
100
AcDbLine
 10
10132.28035131594
 20
7967.714169936695
 30
0.0
 11
10132.28035131594
 21
8801.214169936805
 31
0.0
  0
LINE
  5
19524
330
747D
100
AcDbEntity
  8
破線
 48
10.0
100
AcDbLine
 10
10182.28035131594
 20
7967.714169936698
 30
0.0
 11
10182.28035131594
 21
8801.214169936805
 31
0.0
  0
LINE
  5
19525
330
747D
100
AcDbEntity
  8
部品1
100
AcDbLine
 10
8483.280351315944
 20
8801.214169936747
 30
0.0
 11
8483.280351315956
 21
7967.714169936761
 31
0.0
  0
LINE
  5
19526
330
747D
100
AcDbEntity
  8
破線
 48
10.0
100
AcDbLine
 10
9351.28035131594
 20
7967.714169936698
 30
0.0
 11
9351.28035131594
 21
8801.214169936805
 31
0.0
  0
LINE
  5
19527
330
747D
100
AcDbEntity
  8
破線
 48
10.0
100
AcDbLine
 10
9301.280351315945
 20
7967.714169936695
 30
0.0
 11
9301.280351315941
 21
8801.214169936805
 31
0.0
  0
LINE
  5
19528
330
747D
100
AcDbEntity
  8
部品1
100
AcDbLine
 10
8426.780351315931
 20
9281.214169936667
 30
0.0
 11
8426.78035131596
 21
7911.214169936655
 31
0.0
  0
LINE
  5
19529
330
747D
100
AcDbEntity
  8
部品1
100
AcDbLine
 10
8454.780351315942
 20
7939.214169936746
 30
0.0
 11
8454.780351315958
 21
8806.214169936671
 31
0.0
  0
LINE
  5
1952A
330
747D
100
AcDbEntity
  8
破線
 48
10.0
100
AcDbLine
 10
8506.780351315942
 20
8801.214169936798
 30
0.0
 11
8506.780351315956
 21
7991.214169936665
 31
0.0
  0
LINE
  5
1952B
330
747D
100
AcDbEntity
  8
破線
 48
10.0
100
AcDbLine
 10
10976.78035131596
 20
8801.214169936798
 30
0.0
 11
10976.78035131597
 21
7991.214169936782
 31
0.0
  0
LINE
  5
1952C
330
747D
100
AcDbEntity
  8
部品1
 48
50.0
100
AcDbLine
 10
8454.780351315958
 20
7939.214169936768
 30
0.0
 11
11028.78035131598
 21
7939.214169936771
 31
0.0
  0
LINE
  5
1952D
330
747D
100
AcDbEntity
  8
部品1
100
AcDbLine
 10
11000.28035131595
 20
8386.214169936771
 30
0.0
 11
8483.280351315951
 21
8386.214169936669
 31
0.0
  0
LINE
  5
1952E
330
747D
100
AcDbEntity
  8
部品1
100
AcDbLine
 10
9754.280351315967
 20
9253.214169936812
 30
0.0
 11
11028.78035131596
 21
9253.214169936795
 31
0.0
  0
LINE
  5
1952F
330
747D
100
AcDbEntity
  8
細線
 48
50.0
100
AcDbLine
 10
11028.28035131596
 20
8801.214169936798
 30
0.0
 11
9755.280351315967
 21
9251.214169936799
 31
0.0
  0
LINE
  5
19530
330
747D
100
AcDbEntity
  8
部品1
100
AcDbLine
 10
9755.280351315967
 20
8801.214169936805
 30
0.0
 11
11028.28035131596
 21
8801.214169936798
 31
0.0
  0
LINE
  5
19531
330
747D
100
AcDbEntity
  8
部品1
100
AcDbLine
 10
9755.280351315967
 20
9251.214169936803
 30
0.0
 11
11028.28035131596
 21
9251.214169936794
 31
0.0
  0
LINE
  5
19532
330
747D
100
AcDbEntity
  8
細線
 48
50.0
100
AcDbLine
 10
11028.28035131596
 20
9251.214169936794
 30
0.0
 11
9755.280351315967
 21
8801.214169936805
 31
0.0
  0
DIMENSION
  5
19533
330
747D
100
AcDbEntity
  8
寸法
100
AcDbDimension
  2
*D14
 10
10941.54641947996
 20
8481.250780392148
 30
0.0
 11
10374.66825862998
 21
8481.250780392148
 31
0.0
 70
   160
 71
     5
 42
1273.000000000011
  3
INABA_S40G
100
AcDbAlignedDimension
 13
9754.280351315967
 23
8801.214169936805
 33
0.0
 14
11027.28035131598
 24
8801.214169936798
 34
0.0
100
AcDbRotatedDimension
1001
ACAD
1000
DSTYLE
1002
{
1002
}
  0
DIMENSION
  5
19534
330
747D
100
AcDbEntity
  8
寸法
100
AcDbDimension
  2
*D15
 10
11056.78035131594
 20
6654.826652873875
 30
0.0
 11
9759.582139952108
 21
6654.826652873875
 31
0.0
 70
   160
 71
     5
 42
2629.999999999982
  3
INABA_S40G
100
AcDbAlignedDimension
 13
8426.78035131596
 23
7911.214169936622
 33
0.0
 14
11056.78035131594
 24
7911.214169936785
 34
0.0
100
AcDbRotatedDimension
1001
ACAD
1000
DSTYLE
1002
{
1002
}
  0
LINE
  5
19535
330
747D
100
AcDbEntity
  8
部品1
100
AcDbLine
 10
8426.780351315967
 20
9281.214169936701
 30
0.0
 11
11056.78035131596
 21
9281.214169936795
 31
0.0
  0
LINE
  5
19536
330
747D
100
AcDbEntity
  8
部品1
100
AcDbLine
 10
11000.28035131596
 20
7967.714169936787
 30
0.0
 11
8483.28035131586
 21
7967.714169936666
 31
0.0
  0
DIMENSION
  5
19537
330
747D
100
AcDbEntity
  8
寸法
100
AcDbDimension
  2
*D16
 10
11001.78035131597
 20
9581.2141699367
 30
0.0
 11
9741.780351315965
 21
9581.2141699367
 31
0.0
 70
   160
  1
6X420=<>
 71
     5
 42
2520.0
  3
INABA_S40G
100
AcDbAlignedDimension
 13
8481.780351315967
 23
9281.214169936701
 33
0.0
 14
11001.78035131597
 24
9281.214169936795
 34
0.0
100
AcDbRotatedDimension
1001
ACAD
1000
DSTYLE
1002
{
1002
}
  0
DIMENSION
  5
19538
330
747D
100
AcDbEntity
  8
寸法
100
AcDbDimension
  2
*D17
 10
11056.78035131596
 20
9581.2141699367
 30
0.0
 11
11365.2656326902
 21
9581.2141699367
 31
0.0
 70
   160
 71
     5
 42
55.0
  3
INABA_S40G
100
AcDbAlignedDimension
 13
11001.78035131597
 23
9281.214169936795
 33
0.0
 14
11056.78035131596
 24
9281.214169936795
 34
0.0
100
AcDbRotatedDimension
1001
ACAD
1000
DSTYLE
1002
{
1002
}
  0
DIMENSION
  5
19539
330
747D
100
AcDbEntity
  8
寸法
100
AcDbDimension
  2
*D18
 10
9641.546419479968
 20
8481.250780392148
 30
0.0
 11
9005.046419479933
 21
8481.250780392148
 31
0.0
 70
   160
 71
     5
 42
1273.000000000069
  3
INABA_S40G
100
AcDbAlignedDimension
 13
8454.280351315899
 23
8801.214169936747
 33
0.0
 14
9727.280351315968
 24
8801.21416993674
 34
0.0
100
AcDbRotatedDimension
1001
ACAD
1000
DSTYLE
1002
{
1002
}
  0
DIMENSION
  5
1953A
330
747D
100
AcDbEntity
  8
寸法
100
AcDbDimension
  2
*D19
 10
8481.780351315967
 20
9581.2141699367
 30
0.0
 11
8118.295069941693
 21
9581.2141699367
 31
0.0
 70
   160
 71
     5
 42
55.00000000003637
  3
INABA_S40G
100
AcDbAlignedDimension
 13
8426.780351315931
 23
9281.214169936701
 33
0.0
 14
8481.780351315967
 24
9281.214169936701
 34
0.0
100
AcDbRotatedDimension
1001
ACAD
1000
DSTYLE
1002
{
1002
}
  0
LINE
  5
1953B
330
747D
100
AcDbEntity
  8
部品1
 48
50.0
100
AcDbLine
 10
11001.78035131595
 20
4795.688379067654
 30
0.0
 11
11001.78035131595
 21
4800.688379067657
 31
0.0
  0
LINE
  5
1953C
330
747D
100
AcDbEntity
  8
部品1
100
AcDbLine
 10
11028.78035131596
 20
3010.688379067677
 30
0.0
 11
11056.78035131595
 21
3010.688379067677
 31
0.0
  0
LINE
  5
1953D
330
747D
100
AcDbEntity
  8
破線
 48
5.0
100
AcDbLine
 10
11081.78035131595
 20
2705.688379067657
 30
0.0
 11
11061.78035131595
 21
2705.688379067657
 31
0.0
  0
LINE
  5
1953E
330
747D
100
AcDbEntity
  8
破線
 48
5.0
100
AcDbLine
 10
11156.78035131595
 20
2860.688379067657
 30
0.0
 11
11156.78035131595
 21
2660.688379067657
 31
0.0
  0
LINE
  5
1953F
330
747D
100
AcDbEntity
  8
破線
 48
5.0
100
AcDbLine
 10
11061.78035131595
 20
2860.688379067657
 30
0.0
 11
11061.78035131595
 21
2705.688379067657
 31
0.0
  0
LINE
  5
19540
330
747D
100
AcDbEntity
  8
部品1
100
AcDbLine
 10
11061.78035131595
 20
3005.688379067656
 30
0.0
 11
11061.78035131595
 21
2860.688379067657
 31
0.0
  0
LINE
  5
19541
330
747D
100
AcDbEntity
  8
部品1
100
AcDbLine
 10
11056.78035131596
 20
4855.222652455395
 30
0.0
 11
11056.78035131595
 21
2860.688379067657
 31
0.0
  0
LINE
  5
19542
330
747D
100
AcDbEntity
  8
部品1
 48
50.0
100
AcDbLine
 10
8901.780351315958
 20
4795.688379067654
 30
0.0
 11
8901.780351315958
 21
4800.688379067657
 31
0.0
  0
LINE
  5
19543
330
747D
100
AcDbEntity
  8
破線
 48
5.0
100
AcDbLine
 10
10956.78035131595
 20
2860.688379067657
 30
0.0
 11
10956.78035131595
 21
2660.688379067657
 31
0.0
  0
LINE
  5
19544
330
747D
100
AcDbEntity
  8
部品1
100
AcDbLine
 10
10656.78035131595
 20
2960.688379067656
 30
0.0
 11
10656.78035131595
 21
2860.688379067657
 31
0.0
  0
LINE
  5
19545
330
747D
100
AcDbEntity
  8
部品1
 48
50.0
100
AcDbLine
 10
10256.78035131595
 20
2960.688379067656
 30
0.0
 11
10256.78035131595
 21
2860.688379067657
 31
0.0
  0
LINE
  5
19546
330
747D
100
AcDbEntity
  8
部品1
 48
50.0
100
AcDbLine
 10
10056.78035131595
 20
2960.688379067656
 30
0.0
 11
10056.78035131595
 21
2860.688379067657
 31
0.0
  0
LINE
  5
19547
330
747D
100
AcDbEntity
  8
部品1
 48
50.0
100
AcDbLine
 10
9426.780351315956
 20
2960.688379067656
 30
0.0
 11
9426.780351315956
 21
2860.688379067657
 31
0.0
  0
LINE
  5
19548
330
747D
100
AcDbEntity
  8
部品1
 48
50.0
100
AcDbLine
 10
9226.780351315957
 20
2960.688379067656
 30
0.0
 11
9226.780351315957
 21
2860.688379067657
 31
0.0
  0
LINE
  5
19549
330
747D
100
AcDbEntity
  8
部品1
100
AcDbLine
 10
8426.780351315956
 20
3010.688379067677
 30
0.0
 11
8874.780351315958
 21
3010.688379067677
 31
0.0
  0
LINE
  5
1954A
330
747D
100
AcDbEntity
  8
部品1
100
AcDbLine
 10
8826.780351315957
 20
2960.688379067656
 30
0.0
 11
8826.780351315957
 21
2860.688379067657
 31
0.0
  0
LINE
  5
1954B
330
747D
100
AcDbEntity
  8
破線
 48
5.0
100
AcDbLine
 10
8401.780351315956
 20
2705.688379067657
 30
0.0
 11
8421.780351315957
 21
2705.688379067657
 31
0.0
  0
LINE
  5
1954C
330
747D
100
AcDbEntity
  8
破線
 48
5.0
100
AcDbLine
 10
8526.780351315956
 20
2860.688379067657
 30
0.0
 11
8526.780351315956
 21
2660.688379067657
 31
0.0
  0
LINE
  5
1954D
330
747D
100
AcDbEntity
  8
破線
 48
5.0
100
AcDbLine
 10
8421.780351315957
 20
2860.688379067657
 30
0.0
 11
8421.780351315957
 21
2705.688379067657
 31
0.0
  0
LINE
  5
1954E
330
747D
100
AcDbEntity
  8
部品1
100
AcDbLine
 10
8421.780351315957
 20
3005.688379067658
 30
0.0
 11
8421.780351315957
 21
2860.688379067657
 31
0.0
  0
LINE
  5
1954F
330
747D
100
AcDbEntity
  8
部品1
100
AcDbLine
 10
8426.780351315956
 20
4892.830816996535
 30
0.0
 11
8426.780351315956
 21
2860.688379067657
 31
0.0
  0
LINE
  5
19550
330
747D
100
AcDbEntity
  8
部品1
 48
50.0
100
AcDbLine
 10
8481.780351315958
 20
3010.688379067677
 30
0.0
 11
8481.780351315958
 21
4800.688379067657
 31
0.0
  0
LINE
  5
19551
330
747D
100
AcDbEntity
  8
部品1
100
AcDbLine
 10
8426.780351315956
 20
2960.688379067656
 30
0.0
 11
11056.78035131595
 21
2960.688379067656
 31
0.0
  0
LINE
  5
19552
330
747D
100
AcDbEntity
  8
部品1
100
AcDbLine
 10
8426.780351315956
 20
4800.688379067657
 30
0.0
 11
11056.78035131595
 21
4800.688379067657
 31
0.0
  0
LINE
  5
19553
330
747D
100
AcDbEntity
  8
破線
 48
5.0
100
AcDbLine
 10
11156.78035131595
 20
2660.688379067657
 30
0.0
 11
10956.78035131595
 21
2660.688379067657
 31
0.0
  0
LINE
  5
19554
330
747D
100
AcDbEntity
  8
部品1
 48
50.0
100
AcDbLine
 10
8454.780351315958
 20
2960.688379067656
 30
0.0
 11
11028.78035131596
 21
2960.688379067656
 31
0.0
  0
LINE
  5
19555
330
747D
100
AcDbEntity
  8
部品1
 48
50.0
100
AcDbLine
 10
8874.780351315958
 20
2960.688379067656
 30
0.0
 11
11028.78035131596
 21
2960.688379067656
 31
0.0
  0
LINE
  5
19556
330
747D
100
AcDbEntity
  8
部品1
100
AcDbLine
 10
8426.780351315956
 20
4800.688379067657
 30
0.0
 11
11056.78035131595
 21
4800.688379067657
 31
0.0
  0
LINE
  5
19557
330
747D
100
AcDbEntity
  8
破線
 48
5.0
100
AcDbLine
 10
8326.780351315957
 20
2860.688379067657
 30
0.0
 11
8326.780351315957
 21
2660.688379067657
 31
0.0
  0
LINE
  5
19558
330
747D
100
AcDbEntity
  8
破線
 48
5.0
100
AcDbLine
 10
8326.780351315957
 20
2660.688379067657
 30
0.0
 11
8526.780351315958
 21
2660.688379067657
 31
0.0
  0
DIMENSION
  5
19559
330
747D
100
AcDbEntity
  8
寸法
 48
50.0
100
AcDbDimension
  2
*D20
 10
8326.780351315957
 20
2374.641049767279
 30
0.0
 11
8426.780351315956
 21
2374.641049767279
 31
0.0
 70
   160
 71
     5
 42
200.0000000000018
  3
INABA_S40G
100
AcDbAlignedDimension
 13
8526.780351315958
 23
2660.688379067657
 33
0.0
 14
8326.780351315957
 24
2660.688379067657
 34
0.0
100
AcDbRotatedDimension
  0
LINE
  5
1955F
330
747D
100
AcDbEntity
  8
部品1
100
AcDbLine
 10
10123.51568443017
 20
1981.372836092697
 30
0.0
 11
9360.045018201738
 21
1981.372836092697
 31
0.0
  0
LINE
  5
19560
330
747D
100
AcDbEntity
  8
部品1
100
AcDbLine
 10
10123.51568443017
 20
1741.480514547165
 30
0.0
 11
10123.51568443017
 21
1981.372836092697
 31
0.0
  0
LINE
  5
19561
330
747D
100
AcDbEntity
  8
部品1
100
AcDbLine
 10
9360.045018201738
 20
1741.480514547165
 30
0.0
 11
10123.51568443017
 21
1741.480514547165
 31
0.0
  0
LINE
  5
19562
330
747D
100
AcDbEntity
  8
部品1
100
AcDbLine
 10
9360.045018201738
 20
1981.372836092697
 30
0.0
 11
9360.045018201738
 21
1741.480514547165
 31
0.0
  0
LINE
  5
19563
330
747D
100
AcDbEntity
  8
部品1
100
AcDbLine
 10
10123.51568443017
 20
6463.477500943703
 30
0.0
 11
9360.045018201738
 21
6463.477500943703
 31
0.0
  0
LINE
  5
19564
330
747D
100
AcDbEntity
  8
部品1
100
AcDbLine
 10
10123.51568443017
 20
6223.58517939817
 30
0.0
 11
10123.51568443017
 21
6463.477500943703
 31
0.0
  0
LINE
  5
19565
330
747D
100
AcDbEntity
  8
部品1
100
AcDbLine
 10
9360.045018201738
 20
6223.58517939817
 30
0.0
 11
10123.51568443017
 21
6223.58517939817
 31
0.0
  0
LINE
  5
19566
330
747D
100
AcDbEntity
  8
部品1
100
AcDbLine
 10
9360.045018201738
 20
6463.477500943703
 30
0.0
 11
9360.045018201738
 21
6223.58517939817
 31
0.0
  0
TEXT
  5
19567
330
747D
100
AcDbEntity
  8
部品1
100
AcDbText
 10
9449.964628030775
 20
6270.58397172518
 30
0.0
 40
135.0
  1
平面図
  7
STYLE2
100
AcDbText
  0
TEXT
  5
19569
330
747D
100
AcDbEntity
  8
部品1
100
AcDbText
 10
9450.570421939692
 20
1788.479306874174
 30
0.0
 40
135.0
  1
正面図
  7
STYLE2
100
AcDbText
  0
LINE
  5
1956B
330
747D
100
AcDbEntity
  8
Ｇ．Ｌ
100
AcDbLine
 10
3299.366421578059
 20
2860.688379067657
 30
0.0
 11
11706.2929043448
 21
2860.688379067657
 31
0.0
  0
DIMENSION
  5
1A74B
330
747D
100
AcDbEntity
  8
寸法
 48
50.0
100
AcDbDimension
  2
*D26
 10
8133.555544844943
 20
3018.688379067656
 30
0.0
 11
8133.555544844941
 21
3920.616999276617
 31
0.0
 70
   160
  1
有効開口部高サ<>
 71
     5
 42
1725.000000000001
  3
INABA_S40G
100
AcDbAlignedDimension
 13
8874.780351315958
 23
4743.688379067656
 33
0.0
 14
8874.780351315958
 24
3018.688379067656
 34
0.0
 50
90.0
100
AcDbRotatedDimension
  0
DIMENSION
  5
1A74C
330
747D
100
AcDbEntity
  8
寸法
 48
50.0
100
AcDbDimension
  2
*D25
 10
7806.171944547589
 20
4910.033637940985
 30
0.0
 11
7816.837419806515
 21
5280.880301182689
 31
0.0
 70
   161
 71
     5
 42
141.0000000000009
  3
INABA_S40G
100
AcDbAlignedDimension
 13
8386.176371474537
 23
5034.411127902337
 33
0.0
 14
8382.122915917909
 24
4893.469404136622
 34
0.0
1001
ACAD
1000
DSTYLE
1002
{
1070
   174
1070
     0
1070
   272
1070
     1
1070
   288
1070
     0
1070
   341
1005
0
1002
}
  0
DIMENSION
  5
1A74D
330
747D
100
AcDbEntity
  8
寸法
100
AcDbDimension
  2
*D24
 10
7518.140969386599
 20
5035.688379067662
 30
0.0
 11
7518.140969386597
 21
3954.894256560767
 31
0.0
 70
   160
 71
     5
 42
2075.000000000005
  3
INABA_S40G
100
AcDbAlignedDimension
 13
8426.780351315956
 23
2960.688379067656
 33
0.0
 14
8366.780351315957
 24
5035.688379067662
 34
0.0
 50
90.0
100
AcDbRotatedDimension
1001
ACAD
1000
DSTYLE
1002
{
1070
   174
1070
     0
1070
   272
1070
     1
1070
   288
1070
     0
1070
   341
1005
0
1002
}
  0
DIMENSION
  5
1A74E
330
747D
100
AcDbEntity
  8
寸法
100
AcDbDimension
  2
*D23
 10
7803.127642157659
 20
3010.688379067657
 30
0.0
 11
7803.127642157659
 21
3901.142677609615
 31
0.0
 70
   160
 71
     5
 42
1790.0
  3
INABA_S40G
100
AcDbAlignedDimension
 13
8426.780351315956
 23
4800.688379067657
 33
0.0
 14
8426.780351315956
 24
3010.688379067657
 34
0.0
 50
90.0
100
AcDbRotatedDimension
1001
ACAD
1000
DSTYLE
1002
{
1070
   174
1070
     0
1070
   272
1070
     1
1070
   288
1070
     0
1070
   341
1005
0
1002
}
  0
DIMENSION
  5
1A74F
330
747D
100
AcDbEntity
  8
寸法
100
AcDbDimension
  2
*D22
 10
7803.127642157659
 20
2960.688379067656
 30
0.0
 11
7803.127642157659
 21
2654.641134973167
 31
0.0
 70
   160
 71
     5
 42
50.0
  3
INABA_S40G
100
AcDbAlignedDimension
 13
8426.780351315956
 23
3010.688379067657
 33
0.0
 14
8371.780351315956
 24
2960.688379067656
 34
0.0
 50
90.0
100
AcDbRotatedDimension
1001
ACAD
1000
DSTYLE
1002
{
1070
   174
1070
     0
1070
   272
1070
     1
1070
   288
1070
     0
1070
   341
1005
0
1002
}
  0
DIMENSION
  5
1A750
330
747D
100
AcDbEntity
  8
寸法
100
AcDbDimension
  2
*D21
 10
7518.140969386599
 20
2860.688379067657
 30
0.0
 11
7518.140969386597
 21
2624.641134973166
 31
0.0
 70
   160
 71
     5
 42
100.0
  3
INABA_S40G
100
AcDbAlignedDimension
 13
8371.780351315956
 23
2960.688379067656
 33
0.0
 14
7803.127642157659
 24
2860.688379067657
 34
0.0
 50
90.0
100
AcDbRotatedDimension
1001
ACAD
1000
DSTYLE
1002
{
1070
   174
1070
     0
1070
   272
1070
     1
1070
   288
1070
     0
1070
   341
1005
0
1002
}
  0
TEXT
  5
1AAB1
330
747D
100
AcDbEntity
  8
部品1
 48
50.0
100
AcDbText
 10
10093.36135327705
 20
5057.957472005965
 30
0.0
 40
120.0
  1
37
 50
90.0
  7
STYLE1
100
AcDbText
  0
TEXT
  5
1AAB2
330
747D
100
AcDbEntity
  8
部品1
 48
50.0
100
AcDbText
 10
9615.728330611965
 20
5195.458730224247
 30
0.0
 40
120.0
  1
1000
  7
STYLE1
100
AcDbText
  0
LINE
  5
1AAB3
330
747D
100
AcDbEntity
  8
部品1
 48
50.0
100
AcDbLine
 10
9927.460495388238
 20
5159.574708071814
 30
0.0
 11
9927.460495388238
 21
5143.374708071814
 31
0.0
  0
LINE
  5
1AAB4
330
747D
100
AcDbEntity
  8
部品1
 48
50.0
100
AcDbLine
 10
9627.460495388238
 20
5159.574708071814
 30
0.0
 11
9927.460495388238
 21
5159.574708071814
 31
0.0
  0
LINE
  5
1AAB5
330
747D
100
AcDbEntity
  8
部品1
100
AcDbLine
 10
9602.005481745202
 20
5160.892767030675
 30
0.0
 11
9927.460495388238
 21
5143.374708071814
 31
0.0
  0
LINE
  5
1AAB6
330
747D
100
AcDbEntity
  8
部品1
100
AcDbLine
 10
8374.325337672923
 20
5034.406114401924
 30
0.0
 11
11129.39222817743
 21
4979.329176776795
 31
0.0
  0
LINE
  5
1AAB7
330
747D
100
AcDbEntity
  8
部品1
100
AcDbLine
 10
8382.122915917912
 20
4893.469404136624
 30
0.0
 11
11111.44405185581
 21
4854.440978902418
 31
0.0
  0
LINE
  5
1AAB8
330
747D
100
AcDbEntity
  8
細線
 48
50.0
100
AcDbLine
 10
8367.819774416773
 20
5006.705460909019
 30
0.0
 11
11133.45575916194
 21
4951.08125626819
 31
0.0
  0
LINE
  5
1AAB9
330
747D
100
AcDbEntity
  8
細線
 48
50.0
100
AcDbLine
 10
8372.58024965406
 20
4913.843949211154
 30
0.0
 11
11122.5839140847
 21
4874.034630236661
 31
0.0
  0
LINE
  5
1AABA
330
747D
100
AcDbEntity
  8
細線
 48
50.0
100
AcDbLine
 10
8399.780351315959
 20
5033.088055443062
 30
0.0
 11
8394.491249760454
 21
4893.002422815707
 31
0.0
  0
LINE
  5
1AABB
330
747D
100
AcDbEntity
  8
部品1
 48
50.0
100
AcDbLine
 10
8366.964637229067
 20
5027.28192523235
 30
0.0
 11
8367.344897006878
 21
5007.354960785939
 31
0.0
  0
LINE
  5
1AABC
330
747D
100
AcDbEntity
  8
部品1
 48
50.0
100
AcDbLine
 10
8370.413669113125
 20
5003.779679292466
 30
0.0
 11
8372.117570604489
 21
4914.489182585818
 31
0.0
  0
LINE
  5
1AABD
330
747D
100
AcDbEntity
  8
部品1
 48
50.0
100
AcDbLine
 10
8375.186342710732
 20
4910.913901092346
 30
0.0
 11
8375.388295331161
 21
4900.330865699254
 31
0.0
  0
ARC
  5
1AABE
330
747D
100
AcDbEntity
  8
部品1
 48
50.0
100
AcDbCircle
 10
8373.963363057406
 20
5027.415479639778
 30
0.0
 40
7.0
100
AcDbArc
 50
87.03587545282958
 51
181.0932240293151
  0
ARC
  5
1AABF
330
747D
100
AcDbEntity
  8
部品1
 48
50.0
100
AcDbCircle
 10
8382.387021159502
 20
4900.464420106683
 30
0.0
 40
7.0
100
AcDbArc
 50
181.0932240293151
 51
267.8377559869492
  0
ARC
  5
1AAC0
330
747D
100
AcDbEntity
  8
部品1
100
AcDbCircle
 10
8372.186888784302
 20
4910.856663489163
 30
0.0
 40
3.0
100
AcDbArc
 50
1.093224029315139
 51
80.18775403168987
  0
ARC
  5
1AAC1
330
747D
100
AcDbEntity
  8
部品1
100
AcDbCircle
 10
8367.414215186695
 20
5003.722441689283
 30
0.0
 40
3.0
100
AcDbArc
 50
1.093224029315139
 51
80.18775403168987
  0
ARC
  5
1AAC2
330
747D
100
AcDbEntity
  8
部品1
100
AcDbCircle
 10
8368.044769589717
 20
5007.368316226679
 30
0.0
 40
0.7
100
AcDbArc
 50
181.0932240292109
 51
260.1877540314845
  0
ARC
  5
1AAC3
330
747D
100
AcDbEntity
  8
部品1
100
AcDbCircle
 10
8372.817443187328
 20
4914.502538026561
 30
0.0
 40
0.7
100
AcDbArc
 50
181.0932240292109
 51
260.1877540314845
  0
LINE
  5
1AAC4
330
747D
100
AcDbEntity
  8
細線
 48
50.0
100
AcDbLine
 10
11103.74963450965
 20
4979.841801547125
 30
0.0
 11
11099.03266842796
 21
4854.909585612209
 31
0.0
  0
LINE
  5
1AAC5
330
747D
100
AcDbEntity
  8
部品1
 48
50.0
100
AcDbLine
 10
11135.99425412666
 20
4971.629531341876
 30
0.0
 11
11133.96363293569
 21
4951.684490084095
 31
0.0
  0
LINE
  5
1AAC6
330
747D
100
AcDbEntity
  8
部品1
 48
50.0
100
AcDbLine
 10
11130.61106645121
 20
4948.373856011187
 30
0.0
 11
11123.10428718637
 21
4874.641235266175
 31
0.0
  0
LINE
  5
1AAC7
330
747D
100
AcDbEntity
  8
部品1
 48
50.0
100
AcDbLine
 10
11119.75172070189
 20
4871.330601193261
 30
0.0
 11
11118.67215766215
 21
4860.726984199704
 31
0.0
  0
ARC
  5
1AAC8
330
747D
100
AcDbEntity
  8
部品1
 48
50.0
100
AcDbCircle
 10
11129.03025356191
 20
4972.338542014651
 30
0.0
 40
7.0
100
AcDbArc
 50
354.1866997665479
 51
87.03587545282958
  0
ARC
  5
1AAC9
330
747D
100
AcDbEntity
  8
部品1
 48
50.0
100
AcDbCircle
 10
11111.70815709739
 20
4861.435994872477
 30
0.0
 40
7.0
100
AcDbArc
 50
267.8377559869492
 51
354.1866997665479
  0
ARC
  5
1AACA
330
747D
100
AcDbEntity
  8
部品1
100
AcDbCircle
 10
11122.7362923725
 20
4871.026739476359
 30
0.0
 40
3.0
100
AcDbArc
 50
95.09216976420788
 51
174.1866997665479
  0
ARC
  5
1AACB
330
747D
100
AcDbEntity
  8
部品1
100
AcDbCircle
 10
11133.59563812182
 20
4948.069994294285
 30
0.0
 40
3.0
100
AcDbArc
 50
95.09216976420788
 51
174.1866997665479
  0
ARC
  5
1AACC
330
747D
100
AcDbEntity
  8
部品1
100
AcDbCircle
 10
11133.26723287922
 20
4951.755391151373
 30
0.0
 40
0.7
100
AcDbArc
 50
275.0921697642079
 51
354.1866997665479
  0
ARC
  5
1AACD
330
747D
100
AcDbEntity
  8
部品1
100
AcDbCircle
 10
11122.4078871299
 20
4874.71213633345
 30
0.0
 40
0.7
100
AcDbArc
 50
275.0921697642079
 51
354.1866997667579
  0
DIMENSION
  5
1AACF
330
747D
100
AcDbEntity
  8
寸法
 48
50.0
100
AcDbDimension
  2
*D30
 10
11136.78035131596
 20
5434.345832646961
 30
0.0
 11
11342.82759541045
 21
5434.345832646961
 31
0.0
 70
   160
 71
     5
 42
80.0
  3
INABA_S40G
100
AcDbAlignedDimension
 13
11056.78035131596
 23
4982.499058679311
 33
0.0
 14
11136.78035131596
 24
4980.688379067658
 34
0.0
100
AcDbRotatedDimension
1001
ACAD
1000
DSTYLE
1002
{
1070
   174
1070
     0
1070
   272
1070
     1
1070
   288
1070
     0
1070
   341
1005
0
1002
}
  0
DIMENSION
  5
1AAD0
330
747D
100
AcDbEntity
  8
寸法
 48
50.0
100
AcDbDimension
  2
*D29
 10
8366.780351315959
 20
5654.556519378579
 30
0.0
 11
9770.139276203337
 21
5654.556519378579
 31
0.0
 70
   160
 71
     5
 42
2770.0
  3
INABA_S40G
100
AcDbAlignedDimension
 13
11136.78035131596
 23
4980.688379067658
 33
0.0
 14
8366.780351315959
 24
5035.688379067661
 34
0.0
100
AcDbRotatedDimension
1001
ACAD
1000
DSTYLE
1002
{
1070
   174
1070
     0
1070
   272
1070
     1
1070
   288
1070
     0
1070
   341
1005
0
1002
}
  0
DIMENSION
  5
1AAD1
330
747D
100
AcDbEntity
  8
寸法
 48
50.0
100
AcDbDimension
  2
*D27
 10
8426.78035131596
 20
5434.345832646961
 30
0.0
 11
9781.550542345154
 21
5434.345832646961
 31
0.0
 70
   160
  1
柱外寸法<>
 71
     5
 42
2630.0
  3
INABA_S40G
100
AcDbAlignedDimension
 13
11056.78035131596
 23
4982.499058679311
 33
0.0
 14
8426.78035131596
 24
5031.689997190633
 34
0.0
100
AcDbRotatedDimension
1001
ACAD
1000
DSTYLE
1002
{
1070
   174
1070
     0
1070
   272
1070
     1
1070
   288
1070
     0
1070
   341
1005
0
1002
}
  0
DIMENSION
  5
1AAD2
330
747D
100
AcDbEntity
  8
寸法
 48
50.0
100
AcDbDimension
  2
*D28
 10
8366.780351315959
 20
5434.345832646961
 30
0.0
 11
8057.142556040369
 21
5434.345832646961
 31
0.0
 70
   160
 71
     5
 42
60.0
  3
INABA_S40G
100
AcDbAlignedDimension
 13
8426.78035131596
 23
5031.689997190633
 33
0.0
 14
8366.780351315959
 24
5035.688379067661
 34
0.0
100
AcDbRotatedDimension
1001
ACAD
1000
DSTYLE
1002
{
1070
   174
1070
     0
1070
   272
1070
     1
1070
   288
1070
     0
1070
   341
1005
0
1002
}
  0
LINE
  5
1AEBC
330
747D
100
AcDbEntity
  8
寸法
 48
50.0
100
AcDbLine
 10
9336.983357597778
 20
7689.250921505518
 30
0.0
 11
9285.577349687676
 21
7689.250921505518
 31
0.0
  0
LINE
  5
1AEBD
330
747D
100
AcDbEntity
  8
寸法
 48
50.0
100
AcDbLine
 10
9285.577349687676
 20
7689.250921505518
 30
0.0
 11
9285.577349687676
 21
7720.561080157684
 31
0.0
  0
LINE
  5
1AEBE
330
747D
100
AcDbEntity
  8
寸法
 48
50.0
100
AcDbLine
 10
9285.577349687676
 20
7720.561080157684
 30
0.0
 11
9255.816017696252
 21
7720.561080157684
 31
0.0
  0
LINE
  5
1AEBF
330
747D
100
AcDbEntity
  8
寸法
 48
50.0
100
AcDbLine
 10
9255.816017696252
 20
7720.561080157684
 30
0.0
 11
9311.280353642727
 21
7758.140531086294
 31
0.0
  0
LINE
  5
1AEC0
330
747D
100
AcDbEntity
  8
寸法
 48
50.0
100
AcDbLine
 10
9366.744689589202
 20
7720.561080157684
 30
0.0
 11
9311.280353642727
 21
7758.140531086294
 31
0.0
  0
LINE
  5
1AEC1
330
747D
100
AcDbEntity
  8
寸法
 48
50.0
100
AcDbLine
 10
9336.983357597778
 20
7720.561080157684
 30
0.0
 11
9366.744689589202
 21
7720.561080157684
 31
0.0
  0
LINE
  5
1AEC2
330
747D
100
AcDbEntity
  8
寸法
 48
50.0
100
AcDbLine
 10
9336.983357597778
 20
7689.250921505518
 30
0.0
 11
9336.983357597778
 21
7720.561080157684
 31
0.0
  0
LINE
  5
1AEC3
330
747D
100
AcDbEntity
  8
寸法
 48
50.0
100
AcDbLine
 10
9285.577349687676
 20
7689.250921505518
 30
0.0
 11
9336.983357597778
 21
7689.250921505518
 31
0.0
  0
LINE
  5
1AEC4
330
747D
100
AcDbEntity
  8
寸法
 48
50.0
100
AcDbLine
 10
9616.148891874637
 20
7746.396512260341
 30
0.0
 11
9616.148891874637
 21
7692.732877678551
 31
0.0
  0
LINE
  5
1AEC5
330
747D
100
AcDbEntity
  8
寸法
 48
50.0
100
AcDbLine
 10
9705.433110470059
 20
7722.472877990854
 30
0.0
 11
9616.148891874637
 21
7746.396512260341
 31
0.0
  0
LINE
  5
1AEC6
330
747D
100
AcDbEntity
  8
寸法
 48
50.0
100
AcDbLine
 10
9486.281170294333
 20
7722.472877990854
 30
0.0
 11
9705.433110470059
 21
7722.472877990854
 31
0.0
  0
LINE
  5
1AEC7
330
747D
100
AcDbEntity
  8
細線
 48
50.0
100
AcDbLine
 10
10362.78035131594
 20
7887.71428488538
 30
0.0
 11
10989.78035131593
 21
7887.71428488538
 31
0.0
  0
LINE
  5
1AEC8
330
747D
100
AcDbEntity
  8
細線
 48
50.0
100
AcDbLine
 10
9708.780355969524
 20
7854.005516331304
 30
0.0
 11
10989.78035131593
 21
7854.005516331304
 31
0.0
  0
LINE
  5
1AEC9
330
747D
100
AcDbEntity
  8
細線
 48
50.0
100
AcDbLine
 10
9667.780355969528
 20
7883.410424327557
 30
0.0
 11
8913.780351315933
 21
7883.410424327554
 31
0.0
  0
LINE
  5
1AECA
330
747D
100
AcDbEntity
  8
細線
100
AcDbLine
 10
10765.53034189948
 20
7907.214184850388
 30
0.0
 11
10767.86188142128
 21
7912.21418749035
 31
0.0
  0
LINE
  5
1AECB
330
747D
100
AcDbEntity
  8
細線
100
AcDbLine
 10
10835.53035131593
 20
7907.214169936655
 30
0.0
 11
10833.19880483974
 21
7912.214187490336
 31
0.0
  0
LINE
  5
1AECC
330
747D
100
AcDbEntity
  8
細線
100
AcDbLine
 10
10833.19880483974
 20
7912.214187490336
 30
0.0
 11
10767.86188142127
 21
7912.21418749032
 31
0.0
  0
LINE
  5
1AECD
330
747D
100
AcDbEntity
  8
細線
100
AcDbLine
 10
10693.19880483974
 20
7912.214187490336
 30
0.0
 11
10627.86188142127
 21
7912.21418749032
 31
0.0
  0
LINE
  5
1AECE
330
747D
100
AcDbEntity
  8
細線
100
AcDbLine
 10
10695.53035131593
 20
7907.214169936655
 30
0.0
 11
10693.19880483974
 21
7912.214187490336
 31
0.0
  0
LINE
  5
1AECF
330
747D
100
AcDbEntity
  8
細線
100
AcDbLine
 10
10625.53034189948
 20
7907.214184850388
 30
0.0
 11
10627.86188142128
 21
7912.21418749035
 31
0.0
  0
LINE
  5
1AED0
330
747D
100
AcDbEntity
  8
細線
100
AcDbLine
 10
10485.53035131593
 20
7907.214169936655
 30
0.0
 11
10487.86189083774
 21
7912.214172576615
 31
0.0
  0
LINE
  5
1AED1
330
747D
100
AcDbEntity
  8
細線
100
AcDbLine
 10
10555.53036073239
 20
7907.21415502292
 30
0.0
 11
10553.1988142562
 21
7912.214172576601
 31
0.0
  0
LINE
  5
1AED2
330
747D
100
AcDbEntity
  8
細線
100
AcDbLine
 10
10553.19881425621
 20
7912.214172576601
 30
0.0
 11
10487.86189083773
 21
7912.214172576587
 31
0.0
  0
LINE
  5
1AED3
330
747D
100
AcDbEntity
  8
細線
100
AcDbLine
 10
10257.94883550504
 20
7878.214209273983
 30
0.0
 11
10192.61191208656
 21
7878.214209273969
 31
0.0
  0
LINE
  5
1AED4
330
747D
100
AcDbEntity
  8
細線
100
AcDbLine
 10
10260.28038198123
 20
7873.214191720302
 30
0.0
 11
10257.94883550504
 21
7878.214209273983
 31
0.0
  0
LINE
  5
1AED5
330
747D
100
AcDbEntity
  8
細線
100
AcDbLine
 10
10190.28037256477
 20
7873.214206634037
 30
0.0
 11
10192.61191208658
 21
7878.214209273997
 31
0.0
  0
LINE
  5
1AED6
330
747D
100
AcDbEntity
  8
細線
 48
50.0
100
AcDbLine
 10
10031.66373056395
 20
7891.485033089735
 30
0.0
 11
10037.41924814661
 21
7873.214181799248
 31
0.0
  0
LINE
  5
1AED7
330
747D
100
AcDbEntity
  8
細線
 48
50.0
100
AcDbLine
 10
10020.73528208352
 20
7891.485033089735
 30
0.0
 11
10031.66373056395
 21
7891.485033089735
 31
0.0
  0
ARC
  5
1AED8
330
747D
100
AcDbEntity
  8
細線
 48
50.0
100
AcDbCircle
 10
10015.28092602619
 20
7892.985033089735
 30
0.0
 40
5.0
100
AcDbArc
 50
204.6243183521304
 51
335.3756816478695
  0
ARC
  5
1AED9
330
747D
100
AcDbEntity
  8
細線
 48
50.0
100
AcDbCircle
 10
10020.73528208352
 20
7890.485033089736
 30
0.0
 40
1.0
100
AcDbArc
 50
90.0
 51
155.3756816478695
  0
ARC
  5
1AEDA
330
747D
100
AcDbEntity
  8
細線
 48
50.0
100
AcDbCircle
 10
10009.82656996888
 20
7890.485033089736
 30
0.0
 40
1.0
100
AcDbArc
 50
24.62431835213048
 51
90.0
  0
LINE
  5
1AEDB
330
747D
100
AcDbEntity
  8
細線
 48
50.0
100
AcDbLine
 10
9998.898121488448
 20
7891.485033089735
 30
0.0
 11
10009.82656996888
 21
7891.485033089735
 31
0.0
  0
LINE
  5
1AEDC
330
747D
100
AcDbEntity
  8
細線
 48
50.0
100
AcDbLine
 10
9993.142603905781
 20
7873.214181799241
 30
0.0
 11
9998.898121488448
 21
7891.485033089735
 31
0.0
  0
LINE
  5
1AEDD
330
747D
100
AcDbEntity
  8
細線
100
AcDbLine
 10
10050.28037379581
 20
7873.214179165046
 30
0.0
 11
10052.61191331762
 21
7878.214181805006
 31
0.0
  0
LINE
  5
1AEDE
330
747D
100
AcDbEntity
  8
細線
100
AcDbLine
 10
10120.28038321227
 20
7873.214164251312
 30
0.0
 11
10117.94883673608
 21
7878.214181804992
 31
0.0
  0
LINE
  5
1AEDF
330
747D
100
AcDbEntity
  8
細線
100
AcDbLine
 10
10117.94883673608
 20
7878.214181804992
 30
0.0
 11
10052.61191331761
 21
7878.214181804978
 31
0.0
  0
LINE
  5
1AEE0
330
747D
100
AcDbEntity
  8
細線
100
AcDbLine
 10
9977.948808371566
 20
7878.214181799212
 30
0.0
 11
9912.611884953092
 21
7878.214181799198
 31
0.0
  0
LINE
  5
1AEE1
330
747D
100
AcDbEntity
  8
細線
100
AcDbLine
 10
9980.280354847753
 20
7873.214164245531
 30
0.0
 11
9977.948808371566
 21
7878.214181799212
 31
0.0
  0
LINE
  5
1AEE2
330
747D
100
AcDbEntity
  8
細線
100
AcDbLine
 10
9910.280346662338
 20
7873.214181799241
 30
0.0
 11
9912.611884953106
 21
7878.214181799227
 31
0.0
  0
LINE
  5
1AEE3
330
747D
100
AcDbEntity
  8
細線
100
AcDbLine
 10
9770.28038198123
 20
7873.214189986611
 30
0.0
 11
9772.611920271998
 21
7878.214189986596
 31
0.0
  0
LINE
  5
1AEE4
330
747D
100
AcDbEntity
  8
細線
100
AcDbLine
 10
9840.280390166645
 20
7873.214172432901
 30
0.0
 11
9837.948843690458
 21
7878.214189986578
 31
0.0
  0
LINE
  5
1AEE5
330
747D
100
AcDbEntity
  8
細線
100
AcDbLine
 10
9837.948843690458
 20
7878.214189986578
 30
0.0
 11
9772.611920271982
 21
7878.214189986568
 31
0.0
  0
LINE
  5
1AEE6
330
747D
100
AcDbEntity
  8
細線
100
AcDbLine
 10
9398.780347784109
 20
7839.214361667323
 30
0.0
 11
9401.111886074875
 21
7844.214361667309
 31
0.0
  0
LINE
  5
1AEE7
330
747D
100
AcDbEntity
  8
細線
100
AcDbLine
 10
9468.780355969524
 20
7839.21434411361
 30
0.0
 11
9466.448809493337
 21
7844.214361667288
 31
0.0
  0
LINE
  5
1AEE8
330
747D
100
AcDbEntity
  8
細線
100
AcDbLine
 10
9466.448809493337
 20
7844.214361667288
 30
0.0
 11
9401.111886074865
 21
7844.214361667281
 31
0.0
  0
LINE
  5
1AEE9
330
747D
100
AcDbEntity
  8
細線
100
AcDbLine
 10
9606.448809493336
 20
7844.214361667288
 30
0.0
 11
9541.111886074864
 21
7844.214361667281
 31
0.0
  0
LINE
  5
1AEEA
330
747D
100
AcDbEntity
  8
細線
100
AcDbLine
 10
9608.780355969525
 20
7839.21434411361
 30
0.0
 11
9606.448809493336
 21
7844.214361667288
 31
0.0
  0
LINE
  5
1AEEB
330
747D
100
AcDbEntity
  8
細線
100
AcDbLine
 10
9538.780347784108
 20
7839.214361667323
 30
0.0
 11
9541.111886074876
 21
7844.214361667309
 31
0.0
  0
LINE
  5
1AEEC
330
747D
100
AcDbEntity
  8
細線
100
AcDbLine
 10
9326.448809493337
 20
7844.214361667288
 30
0.0
 11
9261.111886074864
 21
7844.214361667276
 31
0.0
  0
LINE
  5
1AEED
330
747D
100
AcDbEntity
  8
細線
100
AcDbLine
 10
9328.780355969524
 20
7839.21434411361
 30
0.0
 11
9326.448809493337
 21
7844.214361667288
 31
0.0
  0
LINE
  5
1AEEE
330
747D
100
AcDbEntity
  8
細線
100
AcDbLine
 10
9258.780347784108
 20
7839.214361667321
 30
0.0
 11
9261.111886074877
 21
7844.214361667306
 31
0.0
  0
LINE
  5
1AEEF
330
747D
100
AcDbEntity
  8
細線
100
AcDbLine
 10
9118.780355969525
 20
7839.214361667323
 30
0.0
 11
9121.111894260293
 21
7844.214361667309
 31
0.0
  0
LINE
  5
1AEF0
330
747D
100
AcDbEntity
  8
細線
100
AcDbLine
 10
9188.78036415494
 20
7839.21434411361
 30
0.0
 11
9186.448817678753
 21
7844.214361667288
 31
0.0
  0
LINE
  5
1AEF1
330
747D
100
AcDbEntity
  8
細線
100
AcDbLine
 10
9186.448817678753
 20
7844.214361667288
 30
0.0
 11
9121.11189426028
 21
7844.214361667281
 31
0.0
  0
ARC
  5
1AEF2
330
747D
100
AcDbEntity
  8
部品1
 48
0.01
100
AcDbCircle
 10
9074.28024471719
 20
7838.21323948225
 30
0.0
 40
0.5
100
AcDbArc
 50
270.0
 51
0.0
  0
LINE
  5
1AEF3
330
747D
100
AcDbEntity
  8
部品1
 48
0.01
100
AcDbLine
 10
9074.780244717189
 20
7839.213239482251
 30
0.0
 11
9074.780244717189
 21
7838.21323948225
 31
0.0
  0
LINE
  5
1AEF4
330
747D
100
AcDbEntity
  8
部品1
 48
0.01
100
AcDbLine
 10
9074.780244717189
 20
7839.213239482251
 30
0.0
 11
9074.780244717189
 21
7838.21323948225
 31
0.0
  0
LINE
  5
1AEF5
330
747D
100
AcDbEntity
  8
部品1
 48
0.01
100
AcDbLine
 10
9074.28024471719
 20
7837.713239482251
 30
0.0
 11
9067.667739287124
 21
7837.713239482251
 31
0.0
  0
ARC
  5
1AEF6
330
747D
100
AcDbEntity
  8
部品1
100
AcDbCircle
 10
9067.736088839906
 20
7838.713239482252
 30
0.0
 40
1.0
100
AcDbArc
 50
160.5287793655778
 51
270.0
  0
ARC
  5
1AEF7
330
747D
100
AcDbEntity
  8
部品1
100
AcDbCircle
 10
9042.280244717188
 20
7847.713239482252
 30
0.0
 40
26.0
100
AcDbArc
 50
340.5287793655779
 51
0.0
  0
LINE
  5
1AEF8
330
747D
100
AcDbEntity
  8
部品1
100
AcDbLine
 10
9068.28024471719
 20
7847.713239482252
 30
0.0
 11
9068.28024471719
 21
7852.713239482252
 31
0.0
  0
ARC
  5
1AEF9
330
747D
100
AcDbEntity
  8
部品1
 48
0.01
100
AcDbCircle
 10
9066.280244717189
 20
7852.713239482252
 30
0.0
 40
2.0
100
AcDbArc
 50
0.0
 51
90.0
  0
ARC
  5
1AEFA
330
747D
100
AcDbEntity
  8
部品1
100
AcDbCircle
 10
9064.671853092379
 20
7851.713239482251
 30
0.0
 40
3.0
100
AcDbArc
 50
90.0
 51
141.6069559807873
  0
LINE
  5
1AEFB
330
747D
100
AcDbEntity
  8
部品1
 48
0.01
100
AcDbLine
 10
9066.280244717189
 20
7854.713239482251
 30
0.0
 11
9064.671853092379
 21
7854.713239482251
 31
0.0
  0
ARC
  5
1AEFC
330
747D
100
AcDbEntity
  8
部品1
100
AcDbCircle
 10
9046.209530502919
 20
7851.013239482255
 30
0.0
 40
3.0
100
AcDbArc
 50
254.0576313943215
 51
270.0
  0
ARC
  5
1AEFD
330
747D
100
AcDbEntity
  8
部品1
100
AcDbCircle
 10
9053.35095893146
 20
7851.013239482255
 30
0.0
 40
3.0
100
AcDbArc
 50
270.0
 51
285.9423686056786
  0
LINE
  5
1AEFE
330
747D
100
AcDbEntity
  8
部品1
100
AcDbLine
 10
9053.35095893146
 20
7848.013239482255
 30
0.0
 11
9046.209530502919
 21
7848.013239482255
 31
0.0
  0
ARC
  5
1AEFF
330
747D
100
AcDbEntity
  8
部品1
100
AcDbCircle
 10
9049.780244717188
 20
7863.513239482255
 30
0.0
 40
16.0
100
AcDbArc
 50
285.9423686056786
 51
321.6069559807873
  0
LINE
  5
1AF00
330
747D
100
AcDbEntity
  8
部品1
 48
0.01
100
AcDbLine
 10
9033.280244717188
 20
7854.713239482251
 30
0.0
 11
9034.888636342
 21
7854.713239482251
 31
0.0
  0
ARC
  5
1AF01
330
747D
100
AcDbEntity
  8
部品1
100
AcDbCircle
 10
9034.888636342
 20
7851.713239482251
 30
0.0
 40
3.0
100
AcDbArc
 50
38.39304401921267
 51
90.0
  0
ARC
  5
1AF02
330
747D
100
AcDbEntity
  8
部品1
100
AcDbCircle
 10
9049.780244717188
 20
7863.513239482255
 30
0.0
 40
16.0
100
AcDbArc
 50
218.3930440192126
 51
254.0576313943215
  0
LINE
  5
1AF03
330
747D
100
AcDbEntity
  8
部品1
100
AcDbLine
 10
9031.280244717189
 20
7847.713239482252
 30
0.0
 11
9031.280244717189
 21
7852.713239482252
 31
0.0
  0
ARC
  5
1AF04
330
747D
100
AcDbEntity
  8
部品1
 48
0.01
100
AcDbCircle
 10
9033.280244717188
 20
7852.713239482252
 30
0.0
 40
2.0
100
AcDbArc
 50
90.0
 51
180.0
  0
ARC
  5
1AF05
330
747D
100
AcDbEntity
  8
部品1
100
AcDbCircle
 10
9057.280244717189
 20
7847.713239482252
 30
0.0
 40
26.0
100
AcDbArc
 50
180.0
 51
199.4712206344221
  0
ARC
  5
1AF06
330
747D
100
AcDbEntity
  8
部品1
 48
0.01
100
AcDbCircle
 10
9025.280244717189
 20
7838.21323948225
 30
0.0
 40
0.5
100
AcDbArc
 50
180.0
 51
270.0
  0
LINE
  5
1AF07
330
747D
100
AcDbEntity
  8
部品1
 48
0.01
100
AcDbLine
 10
9025.280244717189
 20
7837.713239482251
 30
0.0
 11
9031.824400594471
 21
7837.713239482251
 31
0.0
  0
LINE
  5
1AF08
330
747D
100
AcDbEntity
  8
部品1
 48
0.01
100
AcDbLine
 10
9024.78024471719
 20
7839.213239482251
 30
0.0
 11
9024.78024471719
 21
7838.21323948225
 31
0.0
  0
ARC
  5
1AF09
330
747D
100
AcDbEntity
  8
部品1
100
AcDbCircle
 10
9031.824400594471
 20
7838.713239482252
 30
0.0
 40
1.0
100
AcDbArc
 50
270.0
 51
19.47122063442214
  0
LINE
  5
1AF0A
330
747D
100
AcDbEntity
  8
細線
100
AcDbLine
 10
9070.280244717196
 20
7857.213239482255
 30
0.0
 11
9029.280244717197
 21
7857.213239482248
 31
0.0
  0
LINE
  5
1AF0B
330
747D
100
AcDbEntity
  8
細線
100
AcDbLine
 10
9029.280244717197
 20
7857.213239482248
 30
0.0
 11
9029.280244717197
 21
7839.21323948223
 31
0.0
  0
LINE
  5
1AF0C
330
747D
100
AcDbEntity
  8
細線
100
AcDbLine
 10
9070.280244717196
 20
7857.213239482255
 30
0.0
 11
9070.280244717196
 21
7839.21323948223
 31
0.0
  0
LINE
  5
1AF0D
330
747D
100
AcDbEntity
  8
細線
100
AcDbLine
 10
8913.780351315933
 20
7843.214169936655
 30
0.0
 11
8913.780351315933
 21
7839.214169936702
 31
0.0
  0
DIMENSION
  5
1AF0E
330
747D
100
AcDbEntity
  8
寸法
 48
50.0
100
AcDbDimension
  2
*D31
 10
10179.78035131593
 20
7178.316156183253
 30
0.0
 11
9576.931308018306
 21
7178.316156183253
 31
0.0
 70
   160
  1
有効開口部間口\P<>
 71
     5
 42
1266.0
  3
INABA_S40
100
AcDbAlignedDimension
 13
8913.780351315933
 23
7834.214169936655
 33
0.0
 14
10179.78035131593
 24
7834.214169936655
 34
0.0
100
AcDbRotatedDimension
1001
ACAD
1000
DSTYLE
1002
{
1070
    41
1040
0.5
1070
    44
1040
1.0
1070
   147
1040
0.8
1070
   271
1070
     2
1070
   272
1070
     2
1070
   289
1070
     3
1070
   340
1005
F706
1070
   343
1005
183FA
1070
   344
1005
183FA
1002
}
  0
LINE
  5
1AF0F
330
747D
100
AcDbEntity
  8
部品1
100
AcDbLine
 10
11001.78035131593
 20
7911.214169936655
 30
0.0
 11
11028.78035131593
 21
7911.214169936655
 31
0.0
  0
LINE
  5
1AF11
330
747D
100
AcDbEntity
  8
部品1
100
AcDbLine
 10
11028.78035131593
 20
7834.214169936655
 30
0.0
 11
11028.78035131593
 21
7911.214169936655
 31
0.0
  0
LINE
  5
1AF12
330
747D
100
AcDbEntity
  8
部品1
100
AcDbLine
 10
10989.78035131593
 20
7907.214169936655
 30
0.0
 11
11001.78035131593
 21
7907.214169936655
 31
0.0
  0
LINE
  5
1AF13
330
747D
100
AcDbEntity
  8
部品1
100
AcDbLine
 10
10998.78035131593
 20
7843.214169936655
 30
0.0
 11
10998.78035131593
 21
7834.214169936655
 31
0.0
  0
LINE
  5
1AF14
330
747D
100
AcDbEntity
  8
部品1
100
AcDbLine
 10
10989.78035131593
 20
7843.214169936655
 30
0.0
 11
10998.78035131593
 21
7843.214169936655
 31
0.0
  0
LINE
  5
1AF15
330
747D
100
AcDbEntity
  8
部品1
100
AcDbLine
 10
10989.78035131593
 20
7907.214169936655
 30
0.0
 11
10989.78035131593
 21
7843.214169936655
 31
0.0
  0
LINE
  5
1AF16
330
747D
100
AcDbEntity
  8
部品1
100
AcDbLine
 10
11001.78035131593
 20
7938.214169936656
 30
0.0
 11
11001.78035131593
 21
7907.214169936655
 31
0.0
  0
LINE
  5
1AF17
330
747D
100
AcDbEntity
  8
部品1
100
AcDbLine
 10
8913.780351315933
 20
7907.214169936655
 30
0.0
 11
8901.780351315935
 21
7907.214169936655
 31
0.0
  0
LINE
  5
1AF18
330
747D
100
AcDbEntity
  8
部品1
100
AcDbLine
 10
8874.780351315934
 20
7911.214169936655
 30
0.0
 11
8901.780351315935
 21
7911.214169936655
 31
0.0
  0
LINE
  5
1AF19
330
747D
100
AcDbEntity
  8
部品1
100
AcDbLine
 10
8904.780351315933
 20
7843.214169936655
 30
0.0
 11
8904.780351315933
 21
7834.214169936655
 31
0.0
  0
LINE
  5
1AF1A
330
747D
100
AcDbEntity
  8
部品1
100
AcDbLine
 10
8913.780351315933
 20
7843.214169936655
 30
0.0
 11
8904.780351315933
 21
7843.214169936655
 31
0.0
  0
LINE
  5
1AF1B
330
747D
100
AcDbEntity
  8
部品1
100
AcDbLine
 10
8904.780351315933
 20
7834.214169936655
 30
0.0
 11
8874.780351315934
 21
7834.214169936655
 31
0.0
  0
LINE
  5
1AF1C
330
747D
100
AcDbEntity
  8
部品1
100
AcDbLine
 10
8874.780351315934
 20
7834.214169936655
 30
0.0
 11
8874.780351315934
 21
7911.214169936655
 31
0.0
  0
LINE
  5
1AF1D
330
747D
100
AcDbEntity
  8
部品1
100
AcDbLine
 10
8913.780351315933
 20
7907.214169936655
 30
0.0
 11
8913.780351315933
 21
7843.214169936655
 31
0.0
  0
LINE
  5
1AF1E
330
747D
100
AcDbEntity
  8
部品1
100
AcDbLine
 10
8901.780351315935
 20
7938.214169936651
 30
0.0
 11
8901.780351315935
 21
7907.214169936655
 31
0.0
  0
LINE
  5
1AF1F
330
747D
100
AcDbEntity
  8
部品1
100
AcDbLine
 10
8901.780351315935
 20
7938.214169936651
 30
0.0
 11
11001.78035131593
 21
7938.214169936656
 31
0.0
  0
LINE
  5
1AF20
330
747D
100
AcDbEntity
  8
部品1
100
AcDbLine
 10
10998.78035131593
 20
7834.214169936655
 30
0.0
 11
11028.78035131593
 21
7834.214169936655
 31
0.0
  0
LINE
  5
1AF21
330
747D
100
AcDbEntity
  8
部品1
100
AcDbLine
 10
8904.780351315933
 20
7834.214169936655
 30
0.0
 11
11001.78035131593
 21
7834.214169936655
 31
0.0
  0
LINE
  5
1AF22
330
747D
100
AcDbEntity
  8
細線
  6
Continuous
 62
     5
100
AcDbLine
 10
10280.78035131594
 20
7873.214169936651
 30
0.0
 11
10280.78035131594
 21
7873.214169936651
 31
0.0
  0
LINE
  5
1AF23
330
747D
100
AcDbEntity
  8
細線
  6
Continuous
 62
     5
100
AcDbLine
 10
10273.28038663483
 20
7873.214179857709
 30
0.0
 11
10273.28038663483
 21
7873.214179857709
 31
0.0
  0
LINE
  5
1AF24
330
747D
100
AcDbEntity
  8
細線
  6
Continuous
 62
     5
100
AcDbLine
 10
10267.28038663483
 20
7873.214179857709
 30
0.0
 11
10267.28038663483
 21
7873.214179857709
 31
0.0
  0
LINE
  5
1AF25
330
747D
100
AcDbEntity
  8
細線
  6
Continuous
 62
     5
100
AcDbLine
 10
10334.78035131593
 20
7892.214169936652
 30
0.0
 11
10334.78035131593
 21
7892.214169936652
 31
0.0
  0
LINE
  5
1AF26
330
747D
100
AcDbEntity
  8
細線
 48
50.0
100
AcDbLine
 10
8927.780355969527
 20
7859.814344113608
 30
0.0
 11
8927.780355969527
 21
7868.210494521249
 31
0.0
  0
LINE
  5
1AF27
330
747D
100
AcDbEntity
  8
細線
 48
50.0
100
AcDbLine
 10
8927.780355969527
 20
7868.210494521249
 30
0.0
 11
8913.780351315933
 21
7868.210494521246
 31
0.0
  0
LINE
  5
1AF28
330
747D
100
AcDbEntity
  8
細線
 48
50.0
100
AcDbLine
 10
9678.780355969525
 20
7856.364344113607
 30
0.0
 11
9678.780355969525
 21
7861.214344113611
 31
0.0
  0
LINE
  5
1AF29
330
747D
100
AcDbEntity
  8
細線
 48
50.0
100
AcDbLine
 10
9678.780355969525
 20
7861.214344113611
 30
0.0
 11
9693.780355969524
 21
7861.214344113611
 31
0.0
  0
LINE
  5
1AF2A
330
747D
100
AcDbEntity
  8
細線
 48
50.0
100
AcDbLine
 10
9693.780355969524
 20
7861.214344113611
 30
0.0
 11
9693.780355969529
 21
7868.21434411361
 31
0.0
  0
LINE
  5
1AF2B
330
747D
100
AcDbEntity
  8
細線
 48
50.0
100
AcDbLine
 10
9693.780355969529
 20
7868.21434411361
 30
0.0
 11
9708.780355969524
 21
7868.21434411361
 31
0.0
  0
LINE
  5
1AF2C
330
747D
100
AcDbEntity
  8
細線
 48
50.0
100
AcDbLine
 10
9708.780355969524
 20
7868.21434411361
 30
0.0
 11
9708.780355969524
 21
7839.21434411361
 31
0.0
  0
LINE
  5
1AF2D
330
747D
100
AcDbEntity
  8
細線
 48
50.0
100
AcDbLine
 10
8904.780351315933
 20
7839.211678457079
 30
0.0
 11
9118.780355969525
 21
7839.214361667323
 31
0.0
  0
LINE
  5
1AF2E
330
747D
100
AcDbEntity
  8
細線
 48
50.0
100
AcDbLine
 10
9608.780355969525
 20
7839.21434411361
 30
0.0
 11
9708.780355969524
 21
7839.21434411361
 31
0.0
  0
LINE
  5
1AF2F
330
747D
100
AcDbEntity
  8
細線
 48
50.0
100
AcDbLine
 10
9328.780355969524
 20
7839.21434411361
 30
0.0
 11
9398.780355969524
 21
7839.21434411361
 31
0.0
  0
LINE
  5
1AF30
330
747D
100
AcDbEntity
  8
細線
 48
50.0
100
AcDbLine
 10
9341.642320982053
 20
7839.21434411361
 30
0.0
 11
9347.397838564722
 21
7857.485195404104
 31
0.0
  0
LINE
  5
1AF31
330
747D
100
AcDbEntity
  8
細線
 48
50.0
100
AcDbLine
 10
9347.397838564722
 20
7857.485195404104
 30
0.0
 11
9358.326287045155
 21
7857.485195404101
 31
0.0
  0
ARC
  5
1AF32
330
747D
100
AcDbEntity
  8
細線
 48
50.0
100
AcDbCircle
 10
9358.326287045155
 20
7856.485195404101
 30
0.0
 40
1.0
100
AcDbArc
 50
24.62431835213048
 51
90.0
  0
ARC
  5
1AF33
330
747D
100
AcDbEntity
  8
細線
 48
50.0
100
AcDbCircle
 10
9369.234999159788
 20
7856.485195404101
 30
0.0
 40
1.0
100
AcDbArc
 50
90.0
 51
155.3756816478695
  0
ARC
  5
1AF34
330
747D
100
AcDbEntity
  8
細線
 48
50.0
100
AcDbCircle
 10
9363.780643102471
 20
7858.985195404101
 30
0.0
 40
5.0
100
AcDbArc
 50
204.6243183521304
 51
335.3756816478695
  0
LINE
  5
1AF35
330
747D
100
AcDbEntity
  8
細線
 48
50.0
100
AcDbLine
 10
9369.234999159788
 20
7857.485195404101
 30
0.0
 11
9380.163447640221
 21
7857.485195404104
 31
0.0
  0
LINE
  5
1AF36
330
747D
100
AcDbEntity
  8
細線
 48
50.0
100
AcDbLine
 10
9380.163447640221
 20
7857.485195404104
 30
0.0
 11
9385.91896522289
 21
7839.21434411361
 31
0.0
  0
LINE
  5
1AF37
330
747D
100
AcDbEntity
  8
細線
 48
50.0
100
AcDbLine
 10
9678.780355969525
 20
7859.814344113608
 30
0.0
 11
8927.780355969527
 21
7859.814344113608
 31
0.0
  0
LINE
  5
1AF38
330
747D
100
AcDbEntity
  8
細線
 48
50.0
100
AcDbLine
 10
9538.780355969525
 20
7839.21434411361
 30
0.0
 11
9468.780355969524
 21
7839.21434411361
 31
0.0
  0
LINE
  5
1AF39
330
747D
100
AcDbEntity
  8
細線
100
AcDbLine
 10
9258.780355969525
 20
7839.21434411361
 30
0.0
 11
9188.78036415494
 21
7839.21434411361
 31
0.0
  0
LINE
  5
1AF3A
330
747D
100
AcDbEntity
  8
細線
 48
50.0
100
AcDbLine
 10
10332.78034666235
 20
7893.814387971477
 30
0.0
 11
9697.780355969525
 21
7893.814387971473
 31
0.0
  0
LINE
  5
1AF3B
330
747D
100
AcDbEntity
  8
細線
 48
50.0
100
AcDbLine
 10
9697.780355969525
 20
7890.710538379117
 30
0.0
 11
9697.780355969525
 21
7895.210538379116
 31
0.0
  0
LINE
  5
1AF3C
330
747D
100
AcDbEntity
  8
細線
 48
50.0
100
AcDbLine
 10
9697.780355969525
 20
7895.210538379116
 30
0.0
 11
9682.780355969525
 21
7895.210538379116
 31
0.0
  0
LINE
  5
1AF3D
330
747D
100
AcDbEntity
  8
細線
 48
50.0
100
AcDbLine
 10
9682.780355969525
 20
7895.210538379116
 30
0.0
 11
9682.780355969525
 21
7902.210538379117
 31
0.0
  0
LINE
  5
1AF3E
330
747D
100
AcDbEntity
  8
細線
 48
50.0
100
AcDbLine
 10
9682.780355969525
 20
7902.210538379117
 30
0.0
 11
9667.780355969528
 21
7902.210538379113
 31
0.0
  0
LINE
  5
1AF3F
330
747D
100
AcDbEntity
  8
細線
 48
50.0
100
AcDbLine
 10
9667.780355969528
 20
7902.210538379113
 30
0.0
 11
9667.780355969528
 21
7864.610310276002
 31
0.0
  0
LINE
  5
1AF40
330
747D
100
AcDbEntity
  8
細線
 48
50.0
100
AcDbLine
 10
9667.780355969528
 20
7864.610310276002
 30
0.0
 11
9687.7803632707
 21
7864.610351825544
 31
0.0
  0
LINE
  5
1AF41
330
747D
100
AcDbEntity
  8
細線
 48
50.0
100
AcDbLine
 10
9687.780318401758
 20
7873.213813461352
 30
0.0
 11
9687.7803632707
 21
7864.610351825544
 31
0.0
  0
LINE
  5
1AF42
330
747D
100
AcDbEntity
  8
細線
 48
50.0
100
AcDbLine
 10
10332.78034666235
 20
7890.364387971477
 30
0.0
 11
10332.78034666235
 21
7895.214387971475
 31
0.0
  0
LINE
  5
1AF43
330
747D
100
AcDbEntity
  8
細線
 48
50.0
100
AcDbLine
 10
10332.78034666235
 20
7895.214387971475
 30
0.0
 11
10347.78034666234
 21
7895.214387971475
 31
0.0
  0
LINE
  5
1AF44
330
747D
100
AcDbEntity
  8
細線
 48
50.0
100
AcDbLine
 10
10347.78034666234
 20
7895.214387971475
 30
0.0
 11
10347.78035829632
 21
7902.214387971518
 31
0.0
  0
LINE
  5
1AF45
330
747D
100
AcDbEntity
  8
細線
 48
50.0
100
AcDbLine
 10
10347.78035829632
 20
7902.214387971518
 30
0.0
 11
10362.78035646685
 21
7902.214387971518
 31
0.0
  0
LINE
  5
1AF46
330
747D
100
AcDbEntity
  8
細線
 48
50.0
100
AcDbLine
 10
10362.78035646685
 20
7902.214387971518
 30
0.0
 11
10362.78034616503
 21
7873.214181799245
 31
0.0
  0
LINE
  5
1AF47
330
747D
100
AcDbEntity
  8
細線
 48
50.0
100
AcDbLine
 10
10050.28037379581
 20
7873.214189986611
 30
0.0
 11
9980.280625878229
 21
7873.214184549273
 31
0.0
  0
LINE
  5
1AF48
330
747D
100
AcDbEntity
  8
細線
 48
50.0
100
AcDbLine
 10
9687.780318401758
 20
7873.213813461352
 30
0.0
 11
9699.01300775647
 21
7873.213996414499
 31
0.0
  0
ARC
  5
1AF49
330
747D
100
AcDbEntity
  8
細線
 48
50.0
100
AcDbCircle
 10
9705.595300063805
 20
7872.014160328112
 30
0.0
 40
1.8
100
AcDbArc
 50
270.0006665777295
 51
345.0005554812987
  0
LINE
  5
1AF4A
330
747D
100
AcDbEntity
  8
細線
 48
50.0
100
AcDbLine
 10
9707.581733509883
 20
7872.47300078539
 30
0.0
 11
9707.333971067685
 21
7871.548302903284
 31
0.0
  0
LINE
  5
1AF4B
330
747D
100
AcDbEntity
  8
細線
 48
50.0
100
AcDbLine
 10
9705.59532100496
 20
7870.214160328233
 30
0.0
 11
9701.96539358619
 21
7870.214118097752
 31
0.0
  0
ARC
  5
1AF4C
330
747D
100
AcDbEntity
  8
細線
 48
50.0
100
AcDbCircle
 10
9701.965372645039
 20
7872.014118097631
 30
0.0
 40
1.8
100
AcDbArc
 50
195.0010443049394
 51
270.0006665777295
  0
LINE
  5
1AF4D
330
747D
100
AcDbEntity
  8
細線
 48
50.0
100
AcDbLine
 10
9699.97894515278
 20
7872.472833065195
 30
0.0
 11
9700.226714649293
 21
7871.548212126615
 31
0.0
  0
ARC
  5
1AF4E
330
747D
100
AcDbEntity
  8
細線
 48
50.0
100
AcDbCircle
 10
9699.013024044031
 20
7872.213996414633
 30
0.0
 40
1.0
100
AcDbArc
 50
15.00104430493943
 51
90.00093320877969
  0
LINE
  5
1AF4F
330
747D
100
AcDbEntity
  8
細線
 48
50.0
100
AcDbLine
 10
9708.547654864986
 20
7873.214191104904
 30
0.0
 11
9709.489415015891
 21
7873.214197678753
 31
0.0
  0
ARC
  5
1AF50
330
747D
100
AcDbEntity
  8
細線
 48
50.0
100
AcDbCircle
 10
9708.547661845372
 20
7872.214191104929
 30
0.0
 40
1.0
100
AcDbArc
 50
90.0003999466794
 51
165.0005554812987
  0
LINE
  5
1AF51
330
747D
100
AcDbEntity
  8
細線
 48
50.0
100
AcDbLine
 10
10260.28034666234
 20
7873.214181799245
 30
0.0
 11
10362.78034616503
 21
7873.214181799245
 31
0.0
  0
LINE
  5
1AF52
330
747D
100
AcDbEntity
  8
細線
 48
50.0
100
AcDbLine
 10
9770.28038198123
 20
7873.214189986611
 30
0.0
 11
9709.18032075431
 21
7873.214197678753
 31
0.0
  0
LINE
  5
1AF53
330
747D
100
AcDbEntity
  8
細線
 48
50.0
100
AcDbLine
 10
10190.28038198123
 20
7873.214226827695
 30
0.0
 11
10120.28037502684
 21
7873.214181805026
 31
0.0
  0
LINE
  5
1AF54
330
747D
100
AcDbEntity
  8
細線
 48
50.0
100
AcDbLine
 10
9910.280346662338
 20
7873.214181799241
 30
0.0
 11
9840.280329374463
 21
7873.214181799248
 31
0.0
  0
ARC
  5
1AF55
330
747D
100
AcDbEntity
  8
細線
 48
50.0
100
AcDbCircle
 10
10346.98035131594
 20
7906.414169936656
 30
0.0
 40
0.8
100
AcDbArc
 50
359.9997333689499
 51
89.99986668437072
  0
ARC
  5
1AF56
330
747D
100
AcDbEntity
  8
細線
 48
50.0
100
AcDbCircle
 10
10354.58035814104
 20
7906.414181105272
 30
0.0
 40
0.8
100
AcDbArc
 50
90.00014387753465
 51
179.9997333689498
  0
LINE
  5
1AF57
330
747D
100
AcDbEntity
  8
細線
 48
50.0
100
AcDbLine
 10
10346.98035317738
 20
7907.214169936655
 30
0.0
 11
10341.78035131593
 21
7907.214169936655
 31
0.0
  0
ARC
  5
1AF58
330
747D
100
AcDbEntity
  8
細線
 48
50.0
100
AcDbCircle
 10
10348.48035131593
 20
7904.914169936656
 30
0.0
 40
0.7
100
AcDbArc
 50
180.0
 51
270.0
  0
ARC
  5
1AF59
330
747D
100
AcDbEntity
  8
細線
 48
50.0
100
AcDbCircle
 10
10353.08035131593
 20
7904.914169936656
 30
0.0
 40
0.7
100
AcDbArc
 50
270.0
 51
0.0
  0
LINE
  5
1AF5A
330
747D
100
AcDbEntity
  8
細線
 48
50.0
100
AcDbLine
 10
10353.78035131593
 20
7904.914169936656
 30
0.0
 11
10353.78035814105
 21
7906.414184828143
 31
0.0
  0
LINE
  5
1AF5B
330
747D
100
AcDbEntity
  8
細線
 48
50.0
100
AcDbLine
 10
10348.48035131593
 20
7904.214169936655
 30
0.0
 11
10353.08035131593
 21
7904.214169936655
 31
0.0
  0
LINE
  5
1AF5C
330
747D
100
AcDbEntity
  8
細線
 48
50.0
100
AcDbLine
 10
10347.78035131593
 20
7906.414169936656
 30
0.0
 11
10347.78035131593
 21
7904.914169936656
 31
0.0
  0
LINE
  5
1AF5D
330
747D
100
AcDbEntity
  8
細線
 48
50.0
100
AcDbLine
 10
10973.38035131594
 20
7937.214169936655
 30
0.0
 11
10336.78035131593
 21
7937.214169936651
 31
0.0
  0
LINE
  5
1AF5E
330
747D
100
AcDbEntity
  8
細線
 48
50.0
100
AcDbLine
 10
10999.28035131593
 20
7932.214169936658
 30
0.0
 11
10983.38035131594
 21
7932.214169936655
 31
0.0
  0
LINE
  5
1AF5F
330
747D
100
AcDbEntity
  8
細線
 48
50.0
100
AcDbLine
 10
10983.38035131593
 20
7932.214169936655
 30
0.0
 11
10973.38035131594
 21
7937.214169936655
 31
0.0
  0
LINE
  5
1AF60
330
747D
100
AcDbEntity
  8
細線
100
AcDbLine
 10
10584.28035131593
 20
7907.214169936655
 30
0.0
 11
10584.28035131593
 21
7936.514169936654
 31
0.0
  0
LINE
  5
1AF61
330
747D
100
AcDbEntity
  8
細線
100
AcDbLine
 10
10584.28035131593
 20
7936.514169936654
 30
0.0
 11
10604.28035131593
 21
7936.514169936654
 31
0.0
  0
LINE
  5
1AF62
330
747D
100
AcDbEntity
  8
細線
100
AcDbLine
 10
10604.28035131593
 20
7907.214169936655
 30
0.0
 11
10604.28035131593
 21
7936.514169936654
 31
0.0
  0
LINE
  5
1AF63
330
747D
100
AcDbEntity
  8
細線
100
AcDbLine
 10
10765.53035131593
 20
7907.214169936655
 30
0.0
 11
10695.53035131593
 21
7907.214169936655
 31
0.0
  0
LINE
  5
1AF64
330
747D
100
AcDbEntity
  8
細線
 48
50.0
100
AcDbLine
 10
10485.53035131593
 20
7907.214169936655
 30
0.0
 11
10354.57613088877
 21
7907.214169936655
 31
0.0
  0
LINE
  5
1AF65
330
747D
100
AcDbEntity
  8
細線
100
AcDbLine
 10
10625.53035131593
 20
7907.214169936655
 30
0.0
 11
10555.53035131593
 21
7907.214169936655
 31
0.0
  0
LINE
  5
1AF66
330
747D
100
AcDbEntity
  8
細線
 48
50.0
100
AcDbLine
 10
10341.78035131593
 20
7899.214169936655
 30
0.0
 11
10341.78035131593
 21
7907.214169936655
 31
0.0
  0
LINE
  5
1AF67
330
747D
100
AcDbEntity
  8
細線
 48
50.0
100
AcDbLine
 10
10321.78035131593
 20
7899.214169936659
 30
0.0
 11
10341.78035131593
 21
7899.214169936655
 31
0.0
  0
LINE
  5
1AF68
330
747D
100
AcDbEntity
  8
細線
 48
50.0
100
AcDbLine
 10
10336.78035131593
 20
7937.214169936655
 30
0.0
 11
10336.78035131593
 21
7932.214169936655
 31
0.0
  0
LINE
  5
1AF69
330
747D
100
AcDbEntity
  8
細線
 48
50.0
100
AcDbLine
 10
10321.78035131593
 20
7937.214169936651
 30
0.0
 11
10336.78035131593
 21
7937.214169936655
 31
0.0
  0
LINE
  5
1AF6A
330
747D
100
AcDbEntity
  8
細線
 48
50.0
100
AcDbLine
 10
10321.78035131593
 20
7899.214169936659
 30
0.0
 11
10321.78035131593
 21
7937.214169936651
 31
0.0
  0
LINE
  5
1AF6B
330
747D
100
AcDbEntity
  8
細線
100
AcDbLine
 10
10989.78035131593
 20
7907.214169936655
 30
0.0
 11
10835.53035131593
 21
7907.214169936655
 31
0.0
  0
LINE
  5
1AF6C
330
747D
100
AcDbEntity
  8
細線
 48
50.0
100
AcDbLine
 10
10999.28035131593
 20
7932.214169936658
 30
0.0
 11
10999.28035131593
 21
7907.214169936655
 31
0.0
  0
DIMENSION
  5
1B1A8
330
747D
100
AcDbEntity
  8
寸法
100
AcDbDimension
  2
*D32
 10
8132.169105689241
 20
7836.214169936622
 30
0.0
 11
8132.169105689241
 21
7695.728888562382
 31
0.0
 70
   160
 71
     5
 42
75.0
  3
INABA_S40
100
AcDbAlignedDimension
 13
8426.78035131596
 23
7911.214169936622
 33
0.0
 14
8874.780351315934
 24
7836.214169936622
 34
0.0
 50
90.0
100
AcDbRotatedDimension
1001
ACAD
1000
DSTYLE
1002
{
1070
    41
1040
0.5
1070
    44
1040
1.0
1070
   147
1040
0.8
1070
   271
1070
     2
1070
   272
1070
     2
1070
   289
1070
     3
1070
   340
1005
F706
1070
   343
1005
183FA
1070
   344
1005
183FA
1002
}
  0
DIMENSION
  5
1B1A9
330
747D
100
AcDbEntity
  8
寸法
 48
50.0
100
AcDbDimension
  2
*D33
 10
11028.78035131593
 20
6914.084454508888
 30
0.0
 11
9973.913108063248
 21
6914.084454508888
 31
0.0
 70
   160
 71
     5
 42
2154.0
  3
INABA_S40G
100
AcDbAlignedDimension
 13
8874.780351315934
 23
7834.214169936655
 33
0.0
 14
11028.78035131593
 24
7834.214169936655
 34
0.0
100
AcDbRotatedDimension
1001
ACAD
1000
DSTYLE
1002
{
1070
   341
1005
0
1002
}
  0
LWPOLYLINE
  5
1B4DC
330
747D
100
AcDbEntity
  8
部品1
 48
50.0
100
AcDbPolyline
 90
        4
 70
     1
 43
0.0
 10
8973.830351315958
 20
3856.938379067657
 10
8976.730351315959
 20
3856.938379067657
 10
8976.730351315959
 20
3866.438379067657
 10
8973.830351315958
 20
3866.438379067657
  0
CIRCLE
  5
1B4DD
330
747D
100
AcDbEntity
  8
部品1
 48
50.0
100
AcDbCircle
 10
8975.280351315957
 20
3861.688379067657
 30
0.0
 40
9.0
  0
ARC
  5
1B4DE
330
747D
100
AcDbEntity
  8
細線
 48
50.0
100
AcDbCircle
 10
8975.280351315957
 20
3861.688379067657
 30
0.0
 40
4.0
100
AcDbArc
 50
111.2538091853132
 51
248.7461908146868
  0
ARC
  5
1B4DF
330
747D
100
AcDbEntity
  8
細線
 48
50.0
100
AcDbCircle
 10
8975.280351315957
 20
3861.688379067657
 30
0.0
 40
17.5
100
AcDbArc
 50
306.4837370612677
 51
233.5162629387323
  0
LINE
  5
1B4E0
330
747D
100
AcDbEntity
  8
細線
 48
50.0
100
AcDbLine
 10
8985.280351315955
 20
3837.829418486773
 30
0.0
 11
8985.280351315958
 21
3846.813904287016
 31
0.0
  0
LINE
  5
1B4E1
330
747D
100
AcDbEntity
  8
細線
 48
50.0
100
AcDbLine
 10
8965.280351315959
 20
3837.829418486776
 30
0.0
 11
8965.280351315959
 21
3846.813904287012
 31
0.0
  0
ARC
  5
1B4E2
330
747D
100
AcDbEntity
  8
細線
 48
50.0
100
AcDbCircle
 10
8975.280351315957
 20
3861.688379067657
 30
0.0
 40
26.5
100
AcDbArc
 50
249.3326835063939
 51
290.6673164933835
  0
ARC
  5
1B4E3
330
747D
100
AcDbEntity
  8
細線
 48
50.0
100
AcDbCircle
 10
8984.28035131595
 20
3837.829418486773
 30
0.0
 40
1.0
100
AcDbArc
 50
290.6673164936062
 51
359.9999999998958
  0
ARC
  5
1B4E4
330
747D
100
AcDbEntity
  8
細線
 48
50.0
100
AcDbCircle
 10
8966.280351315957
 20
3837.829418486776
 30
0.0
 40
1.0
100
AcDbArc
 50
180.0
 51
249.3326835066164
  0
ARC
  5
1B4E5
330
747D
100
AcDbEntity
  8
細線
 48
50.0
100
AcDbCircle
 10
8964.280351315958
 20
3846.813904287012
 30
0.0
 40
1.0
100
AcDbArc
 50
0.0
 51
53.51626293873231
  0
ARC
  5
1B4E6
330
747D
100
AcDbEntity
  8
細線
 48
50.0
100
AcDbCircle
 10
8986.280351315961
 20
3846.813904287016
 30
0.0
 40
1.0
100
AcDbArc
 50
126.4837370615127
 51
180.0
  0
ARC
  5
1B4E7
330
747D
100
AcDbEntity
  8
細線
 48
50.0
100
AcDbCircle
 10
8975.280351315957
 20
3861.688379067657
 30
0.0
 40
21.5
100
AcDbArc
 50
255.8014401250294
 51
284.1985598749706
  0
ARC
  5
1B4E8
330
747D
100
AcDbEntity
  8
細線
 48
50.0
100
AcDbCircle
 10
8975.280351315957
 20
3861.688379067657
 30
0.0
 40
16.5
100
AcDbArc
 50
251.9694646069326
 51
288.0305353930674
  0
LINE
  5
1B4E9
330
747D
100
AcDbEntity
  8
細線
 48
50.0
100
AcDbLine
 10
8980.780351315958
 20
3841.13600694185
 30
0.0
 11
8980.780351315958
 21
3845.713398629186
 31
0.0
  0
LINE
  5
1B4EA
330
747D
100
AcDbEntity
  8
細線
 48
50.0
100
AcDbLine
 10
8969.780351315959
 20
3841.13600694185
 30
0.0
 11
8969.780351315959
 21
3845.713398629185
 31
0.0
  0
ARC
  5
1B4EB
330
747D
100
AcDbEntity
  8
細線
 48
50.0
100
AcDbCircle
 10
8970.080351315962
 20
3845.713398629185
 30
0.0
 40
0.3
100
AcDbArc
 50
71.96946460693259
 51
180.0
  0
ARC
  5
1B4EC
330
747D
100
AcDbEntity
  8
細線
 48
50.0
100
AcDbCircle
 10
8980.480351315959
 20
3845.713398629186
 30
0.0
 40
0.3
100
AcDbArc
 50
0.0
 51
108.0305353930674
  0
ARC
  5
1B4ED
330
747D
100
AcDbEntity
  8
細線
 48
50.0
100
AcDbCircle
 10
8980.480351315955
 20
3841.13600694185
 30
0.0
 40
0.3
100
AcDbArc
 50
284.1985598747622
 51
0.0000000001042204
  0
ARC
  5
1B4EE
330
747D
100
AcDbEntity
  8
細線
 48
50.0
100
AcDbCircle
 10
8970.080351315962
 20
3841.13600694185
 30
0.0
 40
0.3
100
AcDbArc
 50
180.0
 51
255.8014401248081
  0
CIRCLE
  5
1B4EF
330
747D
100
AcDbEntity
  8
細線
 48
50.0
100
AcDbCircle
 10
8975.280351315957
 20
3861.688379067657
 30
0.0
 40
12.0
  0
ARC
  5
1B4F0
330
747D
100
AcDbEntity
  8
部品1
 48
50.0
100
AcDbCircle
 10
8975.280351315957
 20
3911.688379067657
 30
0.0
 40
8.5
100
AcDbArc
 50
114.315739171091
 51
245.684260828909
  0
CIRCLE
  5
1B4F1
330
747D
100
AcDbEntity
  8
細線
 48
50.0
100
AcDbCircle
 10
8975.280351315957
 20
3911.688379067657
 30
0.0
 40
4.5
  0
LWPOLYLINE
  5
1B4F2
330
747D
100
AcDbEntity
  8
部品1
 48
50.0
100
AcDbPolyline
 90
        2
 70
     0
 43
0.0
 10
8971.780351315958
 20
3930.363228464639
 10
8971.780351315958
 20
3919.434345760072
  0
CIRCLE
  5
1B4F3
330
747D
100
AcDbEntity
  8
部品1
 48
50.0
100
AcDbCircle
 10
8975.280351315957
 20
3911.688379067657
 30
0.0
 40
19.0
  0
LWPOLYLINE
  5
1B4F4
330
747D
100
AcDbEntity
  8
部品1
 48
50.0
100
AcDbPolyline
 90
        2
 70
     0
 43
0.0
 10
8971.780351315958
 20
3903.942412375242
 10
8971.780351315958
 20
3893.013529670674
  0
LWPOLYLINE
  5
1B4F5
330
747D
100
AcDbEntity
  8
部品1
 48
50.0
100
AcDbPolyline
 90
        2
 70
     0
 43
0.0
 10
8978.780351315958
 20
3919.434345760072
 10
8978.780351315958
 20
3930.363228464639
  0
ARC
  5
1B4F6
330
747D
100
AcDbEntity
  8
部品1
 48
50.0
100
AcDbCircle
 10
8975.280351315957
 20
3911.688379067657
 30
0.0
 40
8.5
100
AcDbArc
 50
294.315739171091
 51
65.68426082890896
  0
LWPOLYLINE
  5
1B4F7
330
747D
100
AcDbEntity
  8
部品1
 48
50.0
100
AcDbPolyline
 90
        2
 70
     0
 43
0.0
 10
8978.780351315958
 20
3893.013529670674
 10
8978.780351315958
 20
3903.942412375242
  0
ARC
  5
1B4F8
330
747D
100
AcDbEntity
  8
細線
 48
50.0
100
AcDbCircle
 10
8975.280351315957
 20
3911.688379067657
 30
0.0
 40
16.5
100
AcDbArc
 50
332.0012352654438
 51
27.99876473455621
  0
ARC
  5
1B4F9
330
747D
100
AcDbEntity
  8
細線
 48
50.0
100
AcDbCircle
 10
8975.280351315957
 20
3911.688379067657
 30
0.0
 40
14.0
100
AcDbArc
 50
326.4074436112986
 51
33.59255638870134
  0
LINE
  5
1B4FA
330
747D
100
AcDbEntity
  8
細線
 48
50.0
100
AcDbLine
 10
8960.711549031627
 20
3919.434345760072
 30
0.0
 11
8963.61844752627
 21
3919.434345760072
 31
0.0
  0
LINE
  5
1B4FB
330
747D
100
AcDbEntity
  8
細線
 48
50.0
100
AcDbLine
 10
8960.711549031627
 20
3903.942412375242
 30
0.0
 11
8963.61844752627
 21
3903.942412375242
 31
0.0
  0
LINE
  5
1B4FC
330
747D
100
AcDbEntity
  8
細線
 48
50.0
100
AcDbLine
 10
8986.942255105647
 20
3919.434345760072
 30
0.0
 11
8989.849153600294
 21
3919.434345760072
 31
0.0
  0
LINE
  5
1B4FD
330
747D
100
AcDbEntity
  8
細線
 48
50.0
100
AcDbLine
 10
8986.942255105647
 20
3903.942412375242
 30
0.0
 11
8989.849153600294
 21
3903.942412375242
 31
0.0
  0
ARC
  5
1B4FE
330
747D
100
AcDbEntity
  8
細線
 48
50.0
100
AcDbCircle
 10
8975.280351315957
 20
3911.688379067657
 30
0.0
 40
14.0
100
AcDbArc
 50
146.4074436112986
 51
213.5925563887013
  0
ARC
  5
1B4FF
330
747D
100
AcDbEntity
  8
細線
 48
50.0
100
AcDbCircle
 10
8975.280351315957
 20
3911.688379067657
 30
0.0
 40
16.5
100
AcDbArc
 50
152.0012352654438
 51
207.9987647345562
  0
ARC
  5
1B500
330
747D
100
AcDbEntity
  8
部品1
 48
50.0
100
AcDbCircle
 10
8948.780351315958
 20
3937.188379067657
 30
0.0
 40
5.0
100
AcDbArc
 50
90.0
 51
180.0
  0
ARC
  5
1B501
330
747D
100
AcDbEntity
  8
部品1
 48
50.0
100
AcDbCircle
 10
8948.780351315958
 20
3826.188379067657
 30
0.0
 40
5.0
100
AcDbArc
 50
180.0
 51
270.0
  0
ARC
  5
1B502
330
747D
100
AcDbEntity
  8
部品1
 48
50.0
100
AcDbCircle
 10
9001.780351315957
 20
3826.188379067657
 30
0.0
 40
5.0
100
AcDbArc
 50
270.0
 51
0.0
  0
ARC
  5
1B503
330
747D
100
AcDbEntity
  8
部品1
 48
50.0
100
AcDbCircle
 10
9001.780351315957
 20
3937.188379067657
 30
0.0
 40
5.0
100
AcDbArc
 50
0.0
 51
90.0
  0
LINE
  5
1B505
330
747D
100
AcDbEntity
  8
部品1
 48
50.0
100
AcDbLine
 10
8943.780351315957
 20
3826.188379067657
 30
0.0
 11
8943.780351315957
 21
3937.188379067657
 31
0.0
  0
LINE
  5
1B506
330
747D
100
AcDbEntity
  8
部品1
 48
50.0
100
AcDbLine
 10
9001.780351315957
 20
3821.188379067656
 30
0.0
 11
8948.780351315958
 21
3821.188379067656
 31
0.0
  0
LINE
  5
1B507
330
747D
100
AcDbEntity
  8
部品1
 48
50.0
100
AcDbLine
 10
9006.780351315958
 20
3937.188379067657
 30
0.0
 11
9006.780351315958
 21
3826.188379067657
 31
0.0
  0
ENDSEC
  0
SECTION
  2
OBJECTS
  0
DICTIONARY
  5
7471
330
0
100
AcDbDictionary
281
     1
  3
ACAD_COLOR
350
183EF
  3
ACAD_GROUP
350
7472
  3
ACAD_LAYOUT
350
183F0
  3
ACAD_MATERIAL
350
183EE
  3
ACAD_MLINESTYLE
350
7473
  3
ACAD_PLOTSETTINGS
350
183F1
  3
ACAD_PLOTSTYLENAME
350
183EC
  3
ACDBHEADERROUNDTRIPXREC
350
1B516
  3
AcDbVariableDictionary
350
1B512
  3
CONTENTDICTIONARY
350
E71C
  3
DRAWINGVARIABLESDICT
350
F3B9
  0
DICTIONARY
  5
18589
330
7467
100
AcDbDictionary
280
     1
281
     1
  3
ACAD_LAYERSTATES
360
1858A
  0
DICTIONARY
  5
183EF
102
{ACAD_REACTORS
330
7471
102
}
330
7471
100
AcDbDictionary
281
     1
  0
DICTIONARY
  5
7472
102
{ACAD_REACTORS
330
7471
102
}
330
7471
100
AcDbDictionary
281
     1
  0
DICTIONARY
  5
183F0
102
{ACAD_REACTORS
330
7471
102
}
330
7471
100
AcDbDictionary
281
     1
  3
Model
350
183F2
  3
レイアウト1
350
183F3
  0
DICTIONARY
  5
183EE
102
{ACAD_REACTORS
330
7471
102
}
330
7471
100
AcDbDictionary
281
     1
  0
DICTIONARY
  5
7473
102
{ACAD_REACTORS
330
7471
102
}
330
7471
100
AcDbDictionary
281
     1
  3
STANDARD
350
7480
  0
DICTIONARY
  5
183F1
102
{ACAD_REACTORS
330
7471
102
}
330
7471
100
AcDbDictionary
281
     1
  0
ACDBDICTIONARYWDFLT
  5
183EC
102
{ACAD_REACTORS
330
7471
102
}
330
7471
100
AcDbDictionary
281
     1
  3
Normal
350
183ED
100
AcDbDictionaryWithDefault
340
183ED
  0
DICTIONARY
  5
1B516
102
{ACAD_REACTORS
330
7471
102
}
330
7471
100
AcDbDictionary
281
     1
  3
COLORDICT
350
1B518
  3
MATERIALDICT
350
1B517
  0
DICTIONARY
  5
1B512
102
{ACAD_REACTORS
330
7471
102
}
330
7471
100
AcDbDictionary
281
     1
  3
DIMASSOC
350
1B513
  3
PROJECTNAME
350
1B514
  0
DICTIONARY
  5
E71C
102
{ACAD_REACTORS
330
7471
102
}
330
7471
100
AcDbDictionary
281
     1
  0
DICTIONARY
  5
F3B9
102
{ACAD_REACTORS
330
7471
102
}
330
7471
100
AcDbDictionary
281
     1
1001
DRAWINGVARIABLESXDATA
1000
POLARMODE
1000
1
  0
DICTIONARY
  5
1858A
102
{ACAD_REACTORS
330
18589
102
}
330
18589
100
AcDbDictionary
281
     1
  0
LAYOUT
  5
183F2
102
{ACAD_XDICTIONARY
360
1B519
102
}
102
{ACAD_REACTORS
330
183F0
102
}
330
183F0
100
AcDbPlotSettings
  1

  2
Microsoft Office Document Image Writer
  4

  6

 40
0.0
 41
0.0
 42
0.0
 43
0.0
 44
0.0
 45
0.0
 46
0.0
 47
0.0
 48
0.0
 49
0.0
140
0.0
141
0.0
142
1.0
143
1.0
 70
  1712
 72
     0
 73
     0
 74
     0
  7

 75
     0
147
1.0
148
0.0
149
0.0
100
AcDbLayout
  1
Model
 70
     1
 71
     0
 10
0.0
 20
0.0
 11
12.0
 21
9.0
 12
0.0
 22
0.0
 32
0.0
 14
0.0
 24
0.0
 34
0.0
 15
0.0
 25
0.0
 35
0.0
146
0.0
 13
0.0
 23
0.0
 33
0.0
 16
1.0
 26
0.0
 36
0.0
 17
0.0
 27
1.0
 37
0.0
 76
     0
330
747D
  0
LAYOUT
  5
183F3
102
{ACAD_XDICTIONARY
360
1B51B
102
}
102
{ACAD_REACTORS
330
183F0
102
}
330
183F0
100
AcDbPlotSettings
  1

  2
Microsoft Office Document Image Writer
  4

  6

 40
0.0
 41
0.0
 42
0.0
 43
0.0
 44
0.0
 45
0.0
 46
0.0
 47
0.0
 48
0.0
 49
0.0
140
0.0
141
0.0
142
1.0
143
1.0
 70
   688
 72
     0
 73
     0
 74
     5
  7

 75
    16
147
1.0
148
0.0
149
0.0
100
AcDbLayout
  1
レイアウト1
 70
     0
 71
     1
 10
0.0
 20
0.0
 11
420.0
 21
297.0
 12
0.0
 22
0.0
 32
0.0
 14
1.000000000000000E+20
 24
1.000000000000000E+20
 34
1.000000000000000E+20
 15
-1.000000000000000E+20
 25
-1.000000000000000E+20
 35
-1.000000000000000E+20
146
0.0
 13
0.0
 23
0.0
 33
0.0
 16
1.0
 26
0.0
 36
0.0
 17
0.0
 27
1.0
 37
0.0
 76
     0
330
747A
  0
MLINESTYLE
  5
7480
102
{ACAD_REACTORS
330
7473
102
}
330
7473
100
AcDbMlineStyle
  2
STANDARD
 70
     0
  3

 62
     0
 51
90.0
 52
90.0
 71
     2
 49
0.5
 62
   256
  6
BYLAYER
 49
-0.5
 62
   256
  6
BYLAYER
  0
ACDBPLACEHOLDER
  5
183ED
102
{ACAD_REACTORS
330
183EC
102
}
330
183EC
  0
XRECORD
  5
1B518
102
{ACAD_REACTORS
330
1B516
102
}
330
1B516
100
AcDbXrecord
280
     1
340
183EF
  0
XRECORD
  5
1B517
102
{ACAD_REACTORS
330
1B516
102
}
330
1B516
100
AcDbXrecord
280
     1
340
183EE
  0
DICTIONARYVAR
  5
1B513
102
{ACAD_REACTORS
330
1B512
102
}
330
1B512
100
DictionaryVariables
280
     0
  1
1
  0
DICTIONARYVAR
  5
1B514
102
{ACAD_REACTORS
330
1B512
102
}
330
1B512
100
DictionaryVariables
280
     0
  1

  0
DICTIONARY
  5
1B519
330
183F2
100
AcDbDictionary
280
     1
281
     1
  3
ACAD_XREC_ROUNDTRIP
360
1B51A
  0
DICTIONARY
  5
1B51B
330
183F3
100
AcDbDictionary
280
     1
281
     1
  3
ACAD_XREC_ROUNDTRIP
360
1B51C
  0
XRECORD
  5
1B51A
102
{ACAD_REACTORS
330
1B519
102
}
330
1B519
100
AcDbXrecord
280
     1
102
SHADEPLOT
 70
     0
102
SHADEPLOTRESLEVEL
 70
     2
102
SHADEPLOTCUSTOMDPI
 70
   300
  0
XRECORD
  5
1B51C
102
{ACAD_REACTORS
330
1B51B
102
}
330
1B51B
100
AcDbXrecord
280
     1
102
SHADEPLOT
 70
     0
102
SHADEPLOTRESLEVEL
 70
     2
102
SHADEPLOTCUSTOMDPI
 70
   300
  0
ENDSEC
  0
EOF
