  0
SECTION
  2
HEADER
  9
$ACADVER
  1
AC1015
  9
$ACADMAINTVER
 70
    20
  9
$DWGCODEPAGE
  3
ANSI_932
  9
$INSBASE
 10
0.0
 20
0.0
 30
0.0
  9
$EXTMIN
 10
139.9999999999995
 20
-0.0000000000000909
 30
0.0
  9
$EXTMAX
 10
16307.2
 20
11409.6
 30
0.0
  9
$LIMMIN
 10
-25.79074261211281
 20
-125.8223078213959
  9
$LIMMAX
 10
16471.10331197129
 20
11496.44801950658
  9
$ORTHOMODE
 70
     0
  9
$REGENMODE
 70
     1
  9
$FILLMODE
 70
     1
  9
$QTEXTMODE
 70
     0
  9
$MIRRTEXT
 70
     1
  9
$LTSCALE
 40
20.0
  9
$ATTMODE
 70
     1
  9
$TEXTSIZE
 40
4.0
  9
$TRACEWID
 40
1.0
  9
$TEXTSTYLE
  7
STYLE1
  9
$CLAYER
  8
部品1
  9
$CELTYPE
  6
BYLAYER
  9
$CECOLOR
 62
   256
  9
$CELTSCALE
 40
50.0
  9
$DISPSILH
 70
     0
  9
$DIMSCALE
 40
40.0
  9
$DIMASZ
 40
2.5
  9
$DIMEXO
 40
0.5
  9
$DIMDLI
 40
7.0
  9
$DIMRND
 40
0.0
  9
$DIMDLE
 40
0.0
  9
$DIMEXE
 40
1.5
  9
$DIMTP
 40
0.0
  9
$DIMTM
 40
0.0
  9
$DIMTXT
 40
3.0
  9
$DIMCEN
 40
0.0
  9
$DIMTSZ
 40
0.0
  9
$DIMTOL
 70
     0
  9
$DIMLIM
 70
     0
  9
$DIMTIH
 70
     0
  9
$DIMTOH
 70
     0
  9
$DIMSE1
 70
     0
  9
$DIMSE2
 70
     0
  9
$DIMTAD
 70
     3
  9
$DIMZIN
 70
     8
  9
$DIMBLK
  1

  9
$DIMASO
 70
     1
  9
$DIMSHO
 70
     1
  9
$DIMPOST
  1

  9
$DIMAPOST
  1

  9
$DIMALT
 70
     0
  9
$DIMALTD
 70
     2
  9
$DIMALTF
 40
0.0394
  9
$DIMLFAC
 40
1.0
  9
$DIMTOFL
 70
     1
  9
$DIMTVP
 40
0.0
  9
$DIMTIX
 70
     1
  9
$DIMSOXD
 70
     0
  9
$DIMSAH
 70
     1
  9
$DIMBLK1
  1
DOTSMALL
  9
$DIMBLK2
  1
DOTSMALL
  9
$DIMSTYLE
  2
INABA_S40G
  9
$DIMCLRD
 70
     0
  9
$DIMCLRE
 70
     0
  9
$DIMCLRT
 70
     7
  9
$DIMTFAC
 40
1.0
  9
$DIMGAP
 40
1.0
  9
$DIMJUST
 70
     0
  9
$DIMSD1
 70
     0
  9
$DIMSD2
 70
     0
  9
$DIMTOLJ
 70
     1
  9
$DIMTZIN
 70
     0
  9
$DIMALTZ
 70
     0
  9
$DIMALTTZ
 70
     0
  9
$DIMUPT
 70
     1
  9
$DIMDEC
 70
     1
  9
$DIMTDEC
 70
     4
  9
$DIMALTU
 70
     2
  9
$DIMALTTD
 70
     2
  9
$DIMTXSTY
  7
STYLE1
  9
$DIMAUNIT
 70
     0
  9
$DIMADEC
 70
     0
  9
$DIMALTRND
 40
0.0
  9
$DIMAZIN
 70
     0
  9
$DIMDSEP
 70
    46
  9
$DIMATFIT
 70
     3
  9
$DIMFRAC
 70
     0
  9
$DIMLDRBLK
  1

  9
$DIMLUNIT
 70
     2
  9
$DIMLWD
 70
    -2
  9
$DIMLWE
 70
    -2
  9
$DIMTMOVE
 70
     0
  9
$LUNITS
 70
     2
  9
$LUPREC
 70
     1
  9
$SKETCHINC
 40
1.0
  9
$FILLETRAD
 40
3.0
  9
$AUNITS
 70
     0
  9
$AUPREC
 70
     0
  9
$MENU
  1
acad
  9
$ELEVATION
 40
0.0
  9
$PELEVATION
 40
0.0
  9
$THICKNESS
 40
0.0
  9
$LIMCHECK
 70
     0
  9
$CHAMFERA
 40
0.0
  9
$CHAMFERB
 40
0.0
  9
$CHAMFERC
 40
0.0
  9
$CHAMFERD
 40
0.0
  9
$SKPOLY
 70
     0
  9
$TDCREATE
 40
2451368.612993866
  9
$TDUCREATE
 40
2451368.237993866
  9
$TDUPDATE
 40
2455575.682408854
  9
$TDUUPDATE
 40
2455575.307408854
  9
$TDINDWG
 40
0.5647601968
  9
$TDUSRTIMER
 40
0.5647601968
  9
$USRTIMER
 70
     1
  9
$ANGBASE
 50
0.0
  9
$ANGDIR
 70
     0
  9
$PDMODE
 70
     3
  9
$PDSIZE
 40
2.0
  9
$PLINEWID
 40
0.0
  9
$SPLFRAME
 70
     0
  9
$SPLINETYPE
 70
     6
  9
$SPLINESEGS
 70
     8
  9
$HANDSEED
  5
19171
  9
$SURFTAB1
 70
     6
  9
$SURFTAB2
 70
     6
  9
$SURFTYPE
 70
     6
  9
$SURFU
 70
     6
  9
$SURFV
 70
     6
  9
$UCSBASE
  2

  9
$UCSNAME
  2

  9
$UCSORG
 10
0.0
 20
0.0
 30
0.0
  9
$UCSXDIR
 10
1.0
 20
0.0
 30
0.0
  9
$UCSYDIR
 10
0.0
 20
1.0
 30
0.0
  9
$UCSORTHOREF
  2

  9
$UCSORTHOVIEW
 70
     0
  9
$UCSORGTOP
 10
0.0
 20
0.0
 30
0.0
  9
$UCSORGBOTTOM
 10
0.0
 20
0.0
 30
0.0
  9
$UCSORGLEFT
 10
0.0
 20
0.0
 30
0.0
  9
$UCSORGRIGHT
 10
0.0
 20
0.0
 30
0.0
  9
$UCSORGFRONT
 10
0.0
 20
0.0
 30
0.0
  9
$UCSORGBACK
 10
0.0
 20
0.0
 30
0.0
  9
$PUCSBASE
  2

  9
$PUCSNAME
  2

  9
$PUCSORG
 10
0.0
 20
0.0
 30
0.0
  9
$PUCSXDIR
 10
1.0
 20
0.0
 30
0.0
  9
$PUCSYDIR
 10
0.0
 20
1.0
 30
0.0
  9
$PUCSORTHOREF
  2

  9
$PUCSORTHOVIEW
 70
     0
  9
$PUCSORGTOP
 10
0.0
 20
0.0
 30
0.0
  9
$PUCSORGBOTTOM
 10
0.0
 20
0.0
 30
0.0
  9
$PUCSORGLEFT
 10
0.0
 20
0.0
 30
0.0
  9
$PUCSORGRIGHT
 10
0.0
 20
0.0
 30
0.0
  9
$PUCSORGFRONT
 10
0.0
 20
0.0
 30
0.0
  9
$PUCSORGBACK
 10
0.0
 20
0.0
 30
0.0
  9
$USERI1
 70
     0
  9
$USERI2
 70
     0
  9
$USERI3
 70
     0
  9
$USERI4
 70
     0
  9
$USERI5
 70
     0
  9
$USERR1
 40
0.0
  9
$USERR2
 40
0.0
  9
$USERR3
 40
0.0
  9
$USERR4
 40
0.0
  9
$USERR5
 40
0.0
  9
$WORLDVIEW
 70
     1
  9
$SHADEDGE
 70
     3
  9
$SHADEDIF
 70
    70
  9
$TILEMODE
 70
     1
  9
$MAXACTVP
 70
    16
  9
$PINSBASE
 10
0.0
 20
0.0
 30
0.0
  9
$PLIMCHECK
 70
     0
  9
$PEXTMIN
 10
1.000000000000000E+20
 20
1.000000000000000E+20
 30
1.000000000000000E+20
  9
$PEXTMAX
 10
-1.000000000000000E+20
 20
-1.000000000000000E+20
 30
-1.000000000000000E+20
  9
$PLIMMIN
 10
0.0
 20
0.0
  9
$PLIMMAX
 10
420.0
 20
297.0
  9
$UNITMODE
 70
     0
  9
$VISRETAIN
 70
     0
  9
$PLINEGEN
 70
     0
  9
$PSLTSCALE
 70
     0
  9
$TREEDEPTH
 70
  3020
  9
$CMLSTYLE
  2
STANDARD
  9
$CMLJUST
 70
     0
  9
$CMLSCALE
 40
1.0
  9
$PROXYGRAPHICS
 70
     1
  9
$MEASUREMENT
 70
     1
  9
$CELWEIGHT
370
    -1
  9
$ENDCAPS
280
     0
  9
$JOINSTYLE
280
     0
  9
$LWDISPLAY
290
     0
  9
$INSUNITS
 70
     0
  9
$HYPERLINKBASE
  1

  9
$STYLESHEET
  1
inaba.ctb
  9
$XEDIT
290
     1
  9
$CEPSNTYPE
380
     0
  9
$PSTYLEMODE
290
     1
  9
$FINGERPRINTGUID
  2
{A404CA64-A9B3-4DA4-AB96-E74BC0FB6C22}
  9
$VERSIONGUID
  2
{8E2FCE0A-23A4-451C-927E-7618C4D90B21}
  9
$EXTNAMES
290
     1
  9
$PSVPSCALE
 40
0.0
  9
$OLESTARTUP
290
     0
  0
ENDSEC
  0
SECTION
  2
CLASSES
  0
CLASS
  1
ACDBDICTIONARYWDFLT
  2
AcDbDictionaryWithDefault
  3
ObjectDBX Classes
 90
        0
280
     0
281
     0
  0
CLASS
  1
DICTIONARYVAR
  2
AcDbDictionaryVar
  3
ObjectDBX Classes
 90
        0
280
     0
281
     0
  0
CLASS
  1
ACDBPLACEHOLDER
  2
AcDbPlaceHolder
  3
ObjectDBX Classes
 90
        0
280
     0
281
     0
  0
CLASS
  1
LAYOUT
  2
AcDbLayout
  3
ObjectDBX Classes
 90
        0
280
     0
281
     0
  0
ENDSEC
  0
SECTION
  2
TABLES
  0
TABLE
  2
VPORT
  5
746D
330
0
100
AcDbSymbolTable
 70
     2
  0
VPORT
  5
19169
330
746D
100
AcDbSymbolTableRecord
100
AcDbViewportTableRecord
  2
*Active
 70
     0
 10
0.0
 20
0.0
 11
1.0
 21
1.0
 12
8223.761025238504
 22
5704.608037261908
 13
0.0
 23
0.0
 14
10.0
 24
10.0
 15
10.0
 25
10.0
 16
0.0
 26
0.0
 36
1.0
 17
0.0
 27
0.0
 37
0.0
 40
11495.08541324274
 41
1.525925925925925
 42
50.0
 43
0.0
 44
0.0
 50
0.0
 51
0.0
 71
     0
 72
     0
 73
     1
 74
     0
 75
     0
 76
     0
 77
     0
 78
     0
281
     0
 65
     1
110
0.0
120
0.0
130
0.0
111
1.0
121
0.0
131
0.0
112
0.0
122
1.0
132
0.0
 79
     0
146
0.0
  0
ENDTAB
  0
TABLE
  2
LTYPE
  5
746A
330
0
100
AcDbSymbolTable
 70
     4
  0
LTYPE
  5
7477
330
746A
100
AcDbSymbolTableRecord
100
AcDbLinetypeTableRecord
  2
BYBLOCK
 70
     0
  3

 72
    65
 73
     0
 40
0.0
  0
LTYPE
  5
7478
330
746A
100
AcDbSymbolTableRecord
100
AcDbLinetypeTableRecord
  2
BYLAYER
 70
     0
  3

 72
    65
 73
     0
 40
0.0
  0
LTYPE
  5
7479
330
746A
100
AcDbSymbolTableRecord
100
AcDbLinetypeTableRecord
  2
CONTINUOUS
 70
     0
  3
Solid line
 72
    65
 73
     0
 40
0.0
  0
LTYPE
  5
7816
330
746A
100
AcDbSymbolTableRecord
100
AcDbLinetypeTableRecord
  2
CENTER
 70
     0
  3
____ _ ____ _ ____ _ ____ _ ____ _ ____ _ ____ 
 72
    65
 73
     4
 40
2.0
 49
1.25
 74
     0
 49
-0.25
 74
     0
 49
0.25
 74
     0
 49
-0.25
 74
     0
  0
LTYPE
  5
781A
330
746A
100
AcDbSymbolTableRecord
100
AcDbLinetypeTableRecord
  2
HIDDEN
 70
     0
  3
__ __ __ __ __ __ __ __ __ __ __ __ __ __ __ __
 72
    65
 73
     2
 40
0.375
 49
0.25
 74
     0
 49
-0.125
 74
     0
  0
LTYPE
  5
781B
330
746A
100
AcDbSymbolTableRecord
100
AcDbLinetypeTableRecord
  2
PHANTOM
 70
     0
  3
______  __  __  ______  __  __  ______  __  __ 
 72
    65
 73
     6
 40
2.5
 49
1.25
 74
     0
 49
-0.25
 74
     0
 49
0.25
 74
     0
 49
-0.25
 74
     0
 49
0.25
 74
     0
 49
-0.25
 74
     0
  0
ENDTAB
  0
TABLE
  2
LAYER
  5
7467
102
{ACAD_XDICTIONARY
360
17187
102
}
330
0
100
AcDbSymbolTable
 70
    12
  0
LAYER
  5
7474
330
7467
100
AcDbSymbolTableRecord
100
AcDbLayerTableRecord
  2
0
 70
     0
 62
     7
  6
CONTINUOUS
370
    -3
390
16FEB
  0
LAYER
  5
DEB2
330
7467
100
AcDbSymbolTableRecord
100
AcDbLayerTableRecord
  2
センター
 70
     0
 62
     3
  6
CENTER
370
    -3
390
16FEB
  0
LAYER
  5
DEB3
330
7467
100
AcDbSymbolTableRecord
100
AcDbLayerTableRecord
  2
寸法
 70
     0
 62
     4
  6
CONTINUOUS
370
    -3
390
16FEB
  0
LAYER
  5
DEB4
330
7467
100
AcDbSymbolTableRecord
100
AcDbLayerTableRecord
  2
部品1
 70
     0
 62
     7
  6
CONTINUOUS
370
    -3
390
16FEB
  0
LAYER
  5
DEB5
330
7467
100
AcDbSymbolTableRecord
100
AcDbLayerTableRecord
  2
補助
 70
     0
 62
    -1
  6
CONTINUOUS
370
    -3
390
16FEB
  0
LAYER
  5
DEB6
330
7467
100
AcDbSymbolTableRecord
100
AcDbLayerTableRecord
  2
文字
 70
     0
 62
     7
  6
CONTINUOUS
370
    -3
390
16FEB
  0
LAYER
  5
F255
330
7467
100
AcDbSymbolTableRecord
100
AcDbLayerTableRecord
  2
DEFPOINTS
 70
     0
 62
     7
  6
CONTINUOUS
290
     0
370
    -3
390
16FEB
  0
LAYER
  5
10B54
330
7467
100
AcDbSymbolTableRecord
100
AcDbLayerTableRecord
  2
仕様書枠
 70
     0
 62
   230
  6
CONTINUOUS
370
    -3
390
16FEB
  0
LAYER
  5
11729
330
7467
100
AcDbSymbolTableRecord
100
AcDbLayerTableRecord
  2
Ｇ．Ｌ
 70
     0
 62
    30
  6
CONTINUOUS
370
    -3
390
16FEB
  0
LAYER
  5
1173F
330
7467
100
AcDbSymbolTableRecord
100
AcDbLayerTableRecord
  2
細線
 70
     0
 62
     5
  6
CONTINUOUS
370
    -3
390
16FEB
  0
LAYER
  5
12CC4
330
7467
100
AcDbSymbolTableRecord
100
AcDbLayerTableRecord
  2
想像線
 70
     0
 62
     6
  6
PHANTOM
370
    -3
390
16FEB
  0
LAYER
  5
142E2
330
7467
100
AcDbSymbolTableRecord
100
AcDbLayerTableRecord
  2
破線
 70
     0
 62
     2
  6
HIDDEN
370
    -3
390
16FEB
  0
ENDTAB
  0
TABLE
  2
STYLE
  5
7468
330
0
100
AcDbSymbolTable
 70
     4
  0
STYLE
  5
7475
330
7468
100
AcDbSymbolTableRecord
100
AcDbTextStyleTableRecord
  2
STANDARD
 70
     0
 40
0.0
 41
1.0
 50
0.0
 71
     0
 42
4.0
  3
txt
  4
C:\AutoCAD LT\bigfont.shx
  0
STYLE
  5
F706
330
7468
100
AcDbSymbolTableRecord
100
AcDbTextStyleTableRecord
  2
STYLE1
 70
     0
 40
0.0
 41
1.0
 50
0.0
 71
     0
 42
4.0
  3
isocp.shx
  4
bigfont.shx
  0
STYLE
  5
103BF
330
7468
100
AcDbSymbolTableRecord
100
AcDbTextStyleTableRecord
  2
STYLE2
 70
     0
 40
0.0
 41
1.0
 50
0.0
 71
     0
 42
100.0
  3
MS PGothic.ttf
  4

1001
ACAD
1000
MS PGothic
1071
    32818
  0
STYLE
  5
18ADE
330
7468
100
AcDbSymbolTableRecord
100
AcDbTextStyleTableRecord
  2
STYLE3
 70
     0
 40
0.0
 41
1.0
 50
0.0
 71
     0
 42
100.0
  3
DFPGothic-EB.ttf
  4

1001
ACAD
1000
DFPGothic-EB
1071
    32818
  0
ENDTAB
  0
TABLE
  2
VIEW
  5
746B
330
0
100
AcDbSymbolTable
 70
     0
  0
ENDTAB
  0
TABLE
  2
UCS
  5
746C
330
0
100
AcDbSymbolTable
 70
     0
  0
ENDTAB
  0
TABLE
  2
APPID
  5
746E
330
0
100
AcDbSymbolTable
 70
     6
  0
APPID
  5
7476
330
746E
100
AcDbSymbolTableRecord
100
AcDbRegAppTableRecord
  2
ACAD
 70
     0
  0
APPID
  5
DEA9
330
746E
100
AcDbSymbolTableRecord
100
AcDbRegAppTableRecord
  2
CONTENTBLOCKICON
 70
     0
  0
APPID
  5
DEAA
330
746E
100
AcDbSymbolTableRecord
100
AcDbRegAppTableRecord
  2
CONTENTBLOCKDESCRIPTION
 70
     0
  0
APPID
  5
E71D
330
746E
100
AcDbSymbolTableRecord
100
AcDbRegAppTableRecord
  2
CONTENTTABDATA
 70
     0
  0
APPID
  5
E71E
330
746E
100
AcDbSymbolTableRecord
100
AcDbRegAppTableRecord
  2
CONTENTCURRENTTAB
 70
     0
  0
APPID
  5
F3BA
330
746E
100
AcDbSymbolTableRecord
100
AcDbRegAppTableRecord
  2
DRAWINGVARIABLESXDATA
 70
     0
  0
ENDTAB
  0
TABLE
  2
DIMSTYLE
  5
746F
330
0
100
AcDbSymbolTable
 70
     5
100
AcDbDimStyleTable
 71
     0
  0
DIMSTYLE
105
7484
330
746F
100
AcDbSymbolTableRecord
100
AcDbDimStyleTableRecord
  2
JIS
 70
     0
 41
2.5
 42
1.0
 43
7.0
 44
1.0
 73
     0
 74
     0
 77
     1
 78
     8
140
2.5
141
0.0
143
0.0394
147
0.0
172
     1
174
     1
175
     1
340
7475
  0
DIMSTYLE
105
F71F
102
{ACAD_REACTORS
330
1748C
330
1748D
330
1748E
330
1748F
330
174CB
330
174CC
330
174CD
330
174CE
330
174CF
330
174D0
330
175B6
330
175B7
330
175B8
330
175B9
330
175D3
330
175D4
330
175D8
330
17D27
330
17D35
330
17D36
330
17D37
330
17D38
330
186B0
330
186B7
330
186B8
330
186BD
330
18753
330
18768
330
18E1A
330
18E1B
102
}
330
746F
100
AcDbSymbolTableRecord
100
AcDbDimStyleTableRecord
  2
INABA_S40G
 70
     0
 40
40.0
 41
2.5
 42
0.5
 43
7.0
 44
1.5
 73
     0
 74
     0
 77
     3
 78
     8
140
3.0
141
0.0
143
0.0394
147
1.0
172
     1
173
     1
174
     1
178
     7
271
     1
288
     1
340
F706
341
F770
343
F770
344
F770
  0
DIMSTYLE
105
17186
102
{ACAD_REACTORS
330
18BBA
330
18E18
102
}
330
746F
100
AcDbSymbolTableRecord
100
AcDbDimStyleTableRecord
  2
INABA_S40
 70
     0
 40
40.0
 41
2.5
 42
0.5
 43
7.0
 44
1.5
 73
     0
 74
     0
 77
     3
 78
     8
140
3.0
141
0.0
143
0.0394
147
1.0
172
     1
173
     1
174
     1
175
     1
178
     7
340
7475
  0
DIMSTYLE
105
18ADF
330
746F
100
AcDbSymbolTableRecord
100
AcDbDimStyleTableRecord
  2
INABA_S50G
 70
     0
 41
125.0
 42
25.0
 43
7.0
 44
75.0
 73
     0
 74
     0
 77
     3
 78
     8
140
150.0
141
0.0
143
0.0394
147
25.0
172
     1
173
     1
174
     1
175
     1
178
     7
271
     1
340
F706
341
F770
343
F770
344
F770
  0
DIMSTYLE
105
190EE
330
746F
100
AcDbSymbolTableRecord
100
AcDbDimStyleTableRecord
  2
INABA_S20G
 70
     0
 40
20.0
 41
2.5
 42
0.5
 43
7.0
 44
1.5
 73
     0
 74
     0
 77
     3
 78
     8
140
3.0
141
0.0
143
0.0394
147
1.0
172
     1
173
     1
174
     1
178
     7
271
     1
340
F706
341
F770
343
F770
344
F770
  0
ENDTAB
  0
TABLE
  2
BLOCK_RECORD
  5
7466
330
0
100
AcDbSymbolTable
 70
    34
  0
BLOCK_RECORD
  5
747D
330
7466
100
AcDbSymbolTableRecord
100
AcDbBlockTableRecord
  2
*MODEL_SPACE
340
16FF0
  0
BLOCK_RECORD
  5
747A
330
7466
100
AcDbSymbolTableRecord
100
AcDbBlockTableRecord
  2
*PAPER_SPACE
340
16FF1
  0
BLOCK_RECORD
  5
F770
330
7466
100
AcDbSymbolTableRecord
100
AcDbBlockTableRecord
  2
_DOTSMALL
340
0
102
{BLKREFS
331
18085
331
18086
331
1808E
331
1808F
331
18099
331
1809A
331
180A2
331
180A3
331
180AC
331
180AD
331
180DD
331
180DE
331
180E6
331
180E7
331
180F0
331
180F1
331
180FB
331
180FC
331
18105
331
18106
331
1810E
331
1810F
331
18117
331
18118
331
18A6E
331
18A6F
331
18A77
331
18A78
331
18A80
331
18A81
331
18A8B
331
18A8C
331
18A96
331
18A97
331
18A9F
331
18AA0
331
19060
331
19061
331
19069
331
1906A
331
19088
331
19089
331
19091
331
19092
331
1909C
331
1909D
331
190A5
331
190A6
331
190AE
331
190AF
331
190B7
331
190B8
331
190C0
331
190C1
331
190CB
331
190CC
331
190D4
331
190D5
331
190DF
331
190E0
102
}
  0
BLOCK_RECORD
  5
16FF8
330
7466
100
AcDbSymbolTableRecord
100
AcDbBlockTableRecord
  2
_DOT
340
0
102
{BLKREFS
331
19074
331
19075
331
1907D
331
1907E
102
}
  0
BLOCK_RECORD
  5
1770E
330
7466
100
AcDbSymbolTableRecord
100
AcDbBlockTableRecord
  2
*D2
340
0
  0
BLOCK_RECORD
  5
1771C
330
7466
100
AcDbSymbolTableRecord
100
AcDbBlockTableRecord
  2
*D3
340
0
  0
BLOCK_RECORD
  5
17728
330
7466
100
AcDbSymbolTableRecord
100
AcDbBlockTableRecord
  2
*D4
340
0
  0
BLOCK_RECORD
  5
17736
330
7466
100
AcDbSymbolTableRecord
100
AcDbBlockTableRecord
  2
*D5
340
0
  0
BLOCK_RECORD
  5
1774E
330
7466
100
AcDbSymbolTableRecord
100
AcDbBlockTableRecord
  2
*D6
340
0
  0
BLOCK_RECORD
  5
1775A
330
7466
100
AcDbSymbolTableRecord
100
AcDbBlockTableRecord
  2
*D7
340
0
  0
BLOCK_RECORD
  5
17766
330
7466
100
AcDbSymbolTableRecord
100
AcDbBlockTableRecord
  2
*D8
340
0
  0
BLOCK_RECORD
  5
17772
330
7466
100
AcDbSymbolTableRecord
100
AcDbBlockTableRecord
  2
*D9
340
0
  0
BLOCK_RECORD
  5
17780
330
7466
100
AcDbSymbolTableRecord
100
AcDbBlockTableRecord
  2
*D10
340
0
  0
BLOCK_RECORD
  5
1778C
330
7466
100
AcDbSymbolTableRecord
100
AcDbBlockTableRecord
  2
*D11
340
0
  0
BLOCK_RECORD
  5
177CC
330
7466
100
AcDbSymbolTableRecord
100
AcDbBlockTableRecord
  2
*D12
340
0
  0
BLOCK_RECORD
  5
177D8
330
7466
100
AcDbSymbolTableRecord
100
AcDbBlockTableRecord
  2
*D13
340
0
  0
BLOCK_RECORD
  5
177E4
330
7466
100
AcDbSymbolTableRecord
100
AcDbBlockTableRecord
  2
*D14
340
0
  0
BLOCK_RECORD
  5
177F1
330
7466
100
AcDbSymbolTableRecord
100
AcDbBlockTableRecord
  2
*D15
340
0
  0
BLOCK_RECORD
  5
177FF
330
7466
100
AcDbSymbolTableRecord
100
AcDbBlockTableRecord
  2
*D16
340
0
  0
BLOCK_RECORD
  5
1780C
330
7466
100
AcDbSymbolTableRecord
100
AcDbBlockTableRecord
  2
*D17
340
0
  0
BLOCK_RECORD
  5
17818
330
7466
100
AcDbSymbolTableRecord
100
AcDbBlockTableRecord
  2
*D18
340
0
  0
BLOCK_RECORD
  5
17D81
330
7466
100
AcDbSymbolTableRecord
100
AcDbBlockTableRecord
  2
*D19
340
0
  0
BLOCK_RECORD
  5
17D8E
330
7466
100
AcDbSymbolTableRecord
100
AcDbBlockTableRecord
  2
*D20
340
0
  0
BLOCK_RECORD
  5
17D9A
330
7466
100
AcDbSymbolTableRecord
100
AcDbBlockTableRecord
  2
*D21
340
0
  0
BLOCK_RECORD
  5
17DA8
330
7466
100
AcDbSymbolTableRecord
100
AcDbBlockTableRecord
  2
*D22
340
0
  0
BLOCK_RECORD
  5
17DB4
330
7466
100
AcDbSymbolTableRecord
100
AcDbBlockTableRecord
  2
*D23
340
0
  0
BLOCK_RECORD
  5
187B5
330
7466
100
AcDbSymbolTableRecord
100
AcDbBlockTableRecord
  2
*D24
340
0
  0
BLOCK_RECORD
  5
187C1
330
7466
100
AcDbSymbolTableRecord
100
AcDbBlockTableRecord
  2
*D25
340
0
  0
BLOCK_RECORD
  5
187CF
330
7466
100
AcDbSymbolTableRecord
100
AcDbBlockTableRecord
  2
*D26
340
0
  0
BLOCK_RECORD
  5
187DD
330
7466
100
AcDbSymbolTableRecord
100
AcDbBlockTableRecord
  2
*D27
340
0
  0
BLOCK_RECORD
  5
1889A
330
7466
100
AcDbSymbolTableRecord
100
AcDbBlockTableRecord
  2
*D28
340
0
  0
BLOCK_RECORD
  5
188FE
330
7466
100
AcDbSymbolTableRecord
100
AcDbBlockTableRecord
  2
*D29
340
0
  0
BLOCK_RECORD
  5
18C1F
330
7466
100
AcDbSymbolTableRecord
100
AcDbBlockTableRecord
  2
*D30
340
0
  0
BLOCK_RECORD
  5
18F06
330
7466
100
AcDbSymbolTableRecord
100
AcDbBlockTableRecord
  2
*D31
340
0
  0
BLOCK_RECORD
  5
18F20
330
7466
100
AcDbSymbolTableRecord
100
AcDbBlockTableRecord
  2
*D32
340
0
  0
BLOCK_RECORD
  5
18F2C
330
7466
100
AcDbSymbolTableRecord
100
AcDbBlockTableRecord
  2
*D33
340
0
  0
ENDTAB
  0
ENDSEC
  0
SECTION
  2
BLOCKS
  0
BLOCK
  5
7489
330
747D
100
AcDbEntity
  8
0
100
AcDbBlockBegin
  2
*MODEL_SPACE
 70
     0
 10
0.0
 20
0.0
 30
0.0
  3
*MODEL_SPACE
  1

  0
ENDBLK
  5
748A
330
747D
100
AcDbEntity
  8
0
100
AcDbBlockEnd
  0
BLOCK
  5
7487
330
747A
100
AcDbEntity
 67
     1
  8
0
100
AcDbBlockBegin
  2
*PAPER_SPACE
 70
     0
 10
0.0
 20
0.0
 30
0.0
  3
*PAPER_SPACE
  1

  0
ENDBLK
  5
7488
330
747A
100
AcDbEntity
 67
     1
  8
0
100
AcDbBlockEnd
  0
BLOCK
  5
F771
330
F770
100
AcDbEntity
  8
0
 48
50.0
100
AcDbBlockBegin
  2
_DOTSMALL
 70
     0
 10
0.0
 20
0.0
 30
0.0
  3
_DOTSMALL
  1

  0
LWPOLYLINE
  5
F772
330
F770
100
AcDbEntity
  8
0
  6
ByBlock
 62
     0
 48
50.0
100
AcDbPolyline
 90
        2
 70
     1
 43
0.5
 10
-0.0625
 20
0.0
 42
1.0
 10
0.0625
 20
0.0
 42
1.0
  0
ENDBLK
  5
F776
330
F770
100
AcDbEntity
  8
0
 48
50.0
100
AcDbBlockEnd
  0
BLOCK
  5
16FF9
330
16FF8
100
AcDbEntity
  8
0
 48
50.0
100
AcDbBlockBegin
  2
_DOT
 70
     0
 10
0.0
 20
0.0
 30
0.0
  3
_DOT
  1

  0
LWPOLYLINE
  5
16FFA
330
16FF8
100
AcDbEntity
  8
0
  6
ByBlock
 62
     0
 48
50.0
100
AcDbPolyline
 90
        2
 70
     1
 43
0.5
 10
-0.25
 20
0.0
 42
1.0
 10
0.25
 20
0.0
 42
1.0
  0
LINE
  5
16FFB
330
16FF8
100
AcDbEntity
  8
0
  6
ByBlock
 62
     0
 48
50.0
100
AcDbLine
 10
-0.5
 20
0.0
 30
0.0
 11
-1.0
 21
0.0
 31
0.0
  0
ENDBLK
  5
16FFC
330
16FF8
100
AcDbEntity
  8
0
 48
50.0
100
AcDbBlockEnd
  0
BLOCK
  5
1771A
330
1770E
100
AcDbEntity
  8
0
 48
50.0
100
AcDbBlockBegin
  2
*D2
 70
     1
 10
0.0
 20
0.0
 30
0.0
  3
*D2
  1

  0
LINE
  5
190DA
330
1770E
100
AcDbEntity
  8
寸法
 62
     0
 48
50.0
370
    -2
100
AcDbLine
 10
9376.442792715899
 20
10200.96184312296
 30
0.0
 11
9376.442792715899
 21
10888.38818885737
 31
0.0
  0
LINE
  5
190DB
330
1770E
100
AcDbEntity
  8
寸法
 62
     0
 48
50.0
370
    -2
100
AcDbLine
 10
9431.442792715897
 20
10200.96184312296
 30
0.0
 11
9431.442792715897
 21
10888.38818885737
 31
0.0
  0
LINE
  5
190DC
330
1770E
100
AcDbEntity
  8
寸法
 62
     0
 48
50.0
370
    -2
100
AcDbLine
 10
9431.442792715897
 20
10828.38818885737
 30
0.0
 11
9531.442792715896
 21
10828.38818885737
 31
0.0
  0
LINE
  5
190DD
330
1770E
100
AcDbEntity
  8
寸法
 62
     0
 48
50.0
370
    -2
100
AcDbLine
 10
9376.442792715899
 20
10828.38818885737
 30
0.0
 11
8959.472229967422
 21
10828.38818885737
 31
0.0
  0
LINE
  5
190DE
330
1770E
100
AcDbEntity
  8
寸法
 62
     0
 48
50.0
370
    -2
100
AcDbLine
 10
9431.442792715897
 20
10828.38818885737
 30
0.0
 11
9376.442792715899
 21
10828.38818885737
 31
0.0
  0
INSERT
  5
190DF
330
1770E
100
AcDbEntity
  8
寸法
 62
     0
 48
50.0
370
    -2
100
AcDbBlockReference
  2
_DOTSMALL
 10
9431.442792715897
 20
10828.38818885737
 30
0.0
 41
100.0
 42
100.0
 43
100.0
 50
180.0
  0
INSERT
  5
190E0
330
1770E
100
AcDbEntity
  8
寸法
 62
     0
 48
50.0
370
    -2
100
AcDbBlockReference
  2
_DOTSMALL
 10
9376.442792715899
 20
10828.38818885737
 30
0.0
 41
100.0
 42
100.0
 43
100.0
  0
MTEXT
  5
190E1
330
1770E
100
AcDbEntity
  8
寸法
 62
     7
 48
50.0
100
AcDbMText
 10
9067.957511341662
 20
10928.38818885737
 30
0.0
 40
120.0
 41
0.0
 71
     5
 72
     1
  1
\A1;55
  7
STYLE1
 73
     1
 44
1.0
1001
ACAD
1000
MTEXTBEGIN
1070
    73
1070
     1
1070
    44
1040
1.0
1070
    74
1070
     0
1000
MTEXTEND
  0
POINT
  5
190E2
330
1770E
100
AcDbEntity
  8
DEFPOINTS
 62
     0
 48
50.0
100
AcDbPoint
 10
9376.442792715899
 20
10180.96184312296
 30
0.0
  0
POINT
  5
190E3
330
1770E
100
AcDbEntity
  8
DEFPOINTS
 62
     0
 48
50.0
100
AcDbPoint
 10
9431.442792715897
 20
10180.96184312296
 30
0.0
  0
POINT
  5
190E4
330
1770E
100
AcDbEntity
  8
DEFPOINTS
 62
     0
 48
50.0
100
AcDbPoint
 10
9431.442792715897
 20
10828.38818885737
 30
0.0
  0
ENDBLK
  5
1771B
330
1770E
100
AcDbEntity
  8
0
 48
50.0
100
AcDbBlockEnd
  0
BLOCK
  5
17726
330
1771C
100
AcDbEntity
  8
0
 48
50.0
100
AcDbBlockBegin
  2
*D3
 70
     1
 10
0.0
 20
0.0
 30
0.0
  3
*D3
  1

  0
LINE
  5
190D1
330
1771C
100
AcDbEntity
  8
寸法
 62
     0
 48
50.0
370
    -2
100
AcDbLine
 10
10711.08380886728
 20
10172.46184312296
 30
0.0
 11
10605.14802550115
 21
10567.81956898498
 31
0.0
  0
LINE
  5
190D2
330
1771C
100
AcDbEntity
  8
寸法
 62
     0
 48
50.0
370
    -2
100
AcDbLine
 10
10261.08380886729
 20
10172.46184312296
 30
0.0
 11
10155.14802550115
 21
10567.81956898498
 31
0.0
  0
LINE
  5
190D3
330
1771C
100
AcDbEntity
  8
寸法
 62
     0
 48
50.0
370
    -2
100
AcDbLine
 10
10621.22497704702
 20
10507.81956898498
 30
0.0
 11
10171.22497704702
 21
10507.81956898498
 31
0.0
  0
INSERT
  5
190D4
330
1771C
100
AcDbEntity
  8
寸法
 62
     0
 48
50.0
370
    -2
100
AcDbBlockReference
  2
_DOTSMALL
 10
10621.22497704702
 20
10507.81956898498
 30
0.0
 41
100.0
 42
100.0
 43
100.0
  0
INSERT
  5
190D5
330
1771C
100
AcDbEntity
  8
寸法
 62
     0
 48
50.0
370
    -2
100
AcDbBlockReference
  2
_DOTSMALL
 10
10171.22497704702
 20
10507.81956898498
 30
0.0
 41
100.0
 42
100.0
 43
100.0
 50
180.0
  0
MTEXT
  5
190D6
330
1771C
100
AcDbEntity
  8
寸法
 62
     7
 48
50.0
100
AcDbMText
 10
10396.22497704702
 20
10607.81956898498
 30
0.0
 40
120.0
 41
0.0
 71
     5
 72
     1
  1
\A1;450
  7
STYLE1
 73
     1
 44
1.0
1001
ACAD
1000
MTEXTBEGIN
1070
    73
1070
     1
1070
    44
1040
1.0
1070
    74
1070
     0
1000
MTEXTEND
  0
POINT
  5
190D7
330
1771C
100
AcDbEntity
  8
DEFPOINTS
 62
     0
 48
50.0
100
AcDbPoint
 10
10716.44279271591
 20
10152.46184312296
 30
0.0
  0
POINT
  5
190D8
330
1771C
100
AcDbEntity
  8
DEFPOINTS
 62
     0
 48
50.0
100
AcDbPoint
 10
10266.44279271591
 20
10152.46184312296
 30
0.0
  0
POINT
  5
190D9
330
1771C
100
AcDbEntity
  8
DEFPOINTS
 62
     0
 48
50.0
100
AcDbPoint
 10
10171.22497704702
 20
10507.81956898498
 30
0.0
  0
ENDBLK
  5
17727
330
1771C
100
AcDbEntity
  8
0
 48
50.0
100
AcDbBlockEnd
  0
BLOCK
  5
17734
330
17728
100
AcDbEntity
  8
0
 48
50.0
100
AcDbBlockBegin
  2
*D4
 70
     1
 10
0.0
 20
0.0
 30
0.0
  3
*D4
  1

  0
LINE
  5
190C6
330
17728
100
AcDbEntity
  8
寸法
 62
     0
 48
50.0
370
    -2
100
AcDbLine
 10
10691.44279271591
 20
10200.96184312293
 30
0.0
 11
10691.44279271591
 21
10888.38818885734
 31
0.0
  0
LINE
  5
190C7
330
17728
100
AcDbEntity
  8
寸法
 62
     0
 48
50.0
370
    -2
100
AcDbLine
 10
10746.44279271591
 20
10200.96184312293
 30
0.0
 11
10746.44279271591
 21
10888.38818885734
 31
0.0
  0
LINE
  5
190C8
330
17728
100
AcDbEntity
  8
寸法
 62
     0
 48
50.0
370
    -2
100
AcDbLine
 10
10691.44279271591
 20
10828.38818885734
 30
0.0
 11
10591.44279271591
 21
10828.38818885734
 31
0.0
  0
LINE
  5
190C9
330
17728
100
AcDbEntity
  8
寸法
 62
     0
 48
50.0
370
    -2
100
AcDbLine
 10
10746.44279271591
 20
10828.38818885734
 30
0.0
 11
11232.78954099501
 21
10828.38818885734
 31
0.0
  0
LINE
  5
190CA
330
17728
100
AcDbEntity
  8
寸法
 62
     0
 48
50.0
370
    -2
100
AcDbLine
 10
10691.44279271591
 20
10828.38818885734
 30
0.0
 11
10746.44279271591
 21
10828.38818885734
 31
0.0
  0
INSERT
  5
190CB
330
17728
100
AcDbEntity
  8
寸法
 62
     0
 48
50.0
370
    -2
100
AcDbBlockReference
  2
_DOTSMALL
 10
10691.44279271591
 20
10828.38818885734
 30
0.0
 41
100.0
 42
100.0
 43
100.0
  0
INSERT
  5
190CC
330
17728
100
AcDbEntity
  8
寸法
 62
     0
 48
50.0
370
    -2
100
AcDbBlockReference
  2
_DOTSMALL
 10
10746.44279271591
 20
10828.38818885734
 30
0.0
 41
100.0
 42
100.0
 43
100.0
 50
180.0
  0
MTEXT
  5
190CD
330
17728
100
AcDbEntity
  8
寸法
 62
     7
 48
50.0
100
AcDbMText
 10
11124.30425962077
 20
10928.38818885734
 30
0.0
 40
120.0
 41
0.0
 71
     5
 72
     1
  1
\A1;55
  7
STYLE1
 73
     1
 44
1.0
1001
ACAD
1000
MTEXTBEGIN
1070
    73
1070
     1
1070
    44
1040
1.0
1070
    74
1070
     0
1000
MTEXTEND
  0
POINT
  5
190CE
330
17728
100
AcDbEntity
  8
DEFPOINTS
 62
     0
 48
50.0
100
AcDbPoint
 10
10691.44279271591
 20
10180.96184312293
 30
0.0
  0
POINT
  5
190CF
330
17728
100
AcDbEntity
  8
DEFPOINTS
 62
     0
 48
50.0
100
AcDbPoint
 10
10746.44279271591
 20
10180.96184312293
 30
0.0
  0
POINT
  5
190D0
330
17728
100
AcDbEntity
  8
DEFPOINTS
 62
     0
 48
50.0
100
AcDbPoint
 10
10746.44279271591
 20
10828.38818885734
 30
0.0
  0
ENDBLK
  5
17735
330
17728
100
AcDbEntity
  8
0
 48
50.0
100
AcDbBlockEnd
  0
BLOCK
  5
17740
330
17736
100
AcDbEntity
  8
0
 48
50.0
100
AcDbBlockBegin
  2
*D5
 70
     1
 10
0.0
 20
0.0
 30
0.0
  3
*D5
  1

  0
LINE
  5
190BD
330
17736
100
AcDbEntity
  8
寸法
 62
     0
 48
50.0
370
    -2
100
AcDbLine
 10
9431.442792715897
 20
10200.96184312296
 30
0.0
 11
9431.442792715897
 21
10888.38818885737
 31
0.0
  0
LINE
  5
190BE
330
17736
100
AcDbEntity
  8
寸法
 62
     0
 48
50.0
370
    -2
100
AcDbLine
 10
10691.44279271591
 20
10200.96184312293
 30
0.0
 11
10691.44279271591
 21
10888.38818885737
 31
0.0
  0
LINE
  5
190BF
330
17736
100
AcDbEntity
  8
寸法
 62
     0
 48
50.0
370
    -2
100
AcDbLine
 10
9431.442792715897
 20
10828.38818885737
 30
0.0
 11
10691.44279271591
 21
10828.38818885737
 31
0.0
  0
INSERT
  5
190C0
330
17736
100
AcDbEntity
  8
寸法
 62
     0
 48
50.0
370
    -2
100
AcDbBlockReference
  2
_DOTSMALL
 10
9431.442792715897
 20
10828.38818885737
 30
0.0
 41
100.0
 42
100.0
 43
100.0
 50
180.0
  0
INSERT
  5
190C1
330
17736
100
AcDbEntity
  8
寸法
 62
     0
 48
50.0
370
    -2
100
AcDbBlockReference
  2
_DOTSMALL
 10
10691.44279271591
 20
10828.38818885737
 30
0.0
 41
100.0
 42
100.0
 43
100.0
  0
MTEXT
  5
190C2
330
17736
100
AcDbEntity
  8
寸法
 62
     7
 48
50.0
100
AcDbMText
 10
10061.4427927159
 20
10928.39999988099
 30
0.0
 40
120.0
 41
0.0
 71
     5
 72
     1
  1
\A1;3X420=1260
  7
STYLE1
 73
     1
 44
1.0
1001
ACAD
1000
MTEXTBEGIN
1070
    73
1070
     1
1070
    44
1040
1.0
1070
    74
1070
     0
1000
MTEXTEND
  0
POINT
  5
190C3
330
17736
100
AcDbEntity
  8
DEFPOINTS
 62
     0
 48
50.0
100
AcDbPoint
 10
9431.442792715897
 20
10180.96184312296
 30
0.0
  0
POINT
  5
190C4
330
17736
100
AcDbEntity
  8
DEFPOINTS
 62
     0
 48
50.0
100
AcDbPoint
 10
10691.44279271591
 20
10180.96184312293
 30
0.0
  0
POINT
  5
190C5
330
17736
100
AcDbEntity
  8
DEFPOINTS
 62
     0
 48
50.0
100
AcDbPoint
 10
10691.44279271591
 20
10828.38818885737
 30
0.0
  0
ENDBLK
  5
17741
330
17736
100
AcDbEntity
  8
0
 48
50.0
100
AcDbBlockEnd
  0
BLOCK
  5
17758
330
1774E
100
AcDbEntity
  8
0
 48
50.0
100
AcDbBlockBegin
  2
*D6
 70
     1
 10
0.0
 20
0.0
 30
0.0
  3
*D6
  1

  0
LINE
  5
190B4
330
1774E
100
AcDbEntity
  8
寸法
 62
     0
 48
50.0
370
    -2
100
AcDbLine
 10
10736.44279271591
 20
10147.10285927433
 30
0.0
 11
11188.62600011654
 21
10025.94073402042
 31
0.0
  0
LINE
  5
190B5
330
1774E
100
AcDbEntity
  8
寸法
 62
     0
 48
50.0
370
    -2
100
AcDbLine
 10
10736.44279271591
 20
8874.102859274326
 30
0.0
 11
11188.62600011654
 21
8752.940734020413
 31
0.0
  0
LINE
  5
190B6
330
1774E
100
AcDbEntity
  8
寸法
 62
     0
 48
50.0
370
    -2
100
AcDbLine
 10
11128.62600011654
 20
10042.01768556629
 30
0.0
 11
11128.62600011654
 21
8769.01768556628
 31
0.0
  0
INSERT
  5
190B7
330
1774E
100
AcDbEntity
  8
寸法
 62
     0
 48
50.0
370
    -2
100
AcDbBlockReference
  2
_DOTSMALL
 10
11128.62600011654
 20
10042.01768556629
 30
0.0
 41
100.0
 42
100.0
 43
100.0
 50
90.0
  0
INSERT
  5
190B8
330
1774E
100
AcDbEntity
  8
寸法
 62
     0
 48
50.0
370
    -2
100
AcDbBlockReference
  2
_DOTSMALL
 10
11128.62600011654
 20
8769.01768556628
 30
0.0
 41
100.0
 42
100.0
 43
100.0
 50
270.0
  0
MTEXT
  5
190B9
330
1774E
100
AcDbEntity
  8
寸法
 62
     7
 48
50.0
100
AcDbMText
 10
11028.61418909292
 20
9405.517685566286
 30
0.0
 40
120.0
 41
0.0
 71
     5
 72
     1
  1
\A1;1273
  7
STYLE1
 11
0.0000000000000001
 21
1.0
 31
0.0
 73
     1
 44
1.0
1001
ACAD
1000
MTEXTBEGIN
1070
    73
1070
     1
1070
    44
1040
1.0
1070
    74
1070
     0
1000
MTEXTEND
  0
POINT
  5
190BA
330
1774E
100
AcDbEntity
  8
DEFPOINTS
 62
     0
 48
50.0
100
AcDbPoint
 10
10716.44279271591
 20
10152.46184312296
 30
0.0
  0
POINT
  5
190BB
330
1774E
100
AcDbEntity
  8
DEFPOINTS
 62
     0
 48
50.0
100
AcDbPoint
 10
10716.44279271591
 20
8879.461843122948
 30
0.0
  0
POINT
  5
190BC
330
1774E
100
AcDbEntity
  8
DEFPOINTS
 62
     0
 48
50.0
100
AcDbPoint
 10
11128.62600011654
 20
8769.01768556628
 30
0.0
  0
ENDBLK
  5
17759
330
1774E
100
AcDbEntity
  8
0
 48
50.0
100
AcDbBlockEnd
  0
BLOCK
  5
17764
330
1775A
100
AcDbEntity
  8
0
 48
50.0
100
AcDbBlockBegin
  2
*D7
 70
     1
 10
0.0
 20
0.0
 30
0.0
  3
*D7
  1

  0
LINE
  5
190AB
330
1775A
100
AcDbEntity
  8
寸法
 62
     0
 48
50.0
370
    -2
100
AcDbLine
 10
10736.44279271591
 20
8847.102859274334
 30
0.0
 11
11188.62600011653
 21
8725.940734020422
 31
0.0
  0
LINE
  5
190AC
330
1775A
100
AcDbEntity
  8
寸法
 62
     0
 48
50.0
370
    -2
100
AcDbLine
 10
10736.44279271581
 20
7574.102859274335
 30
0.0
 11
11188.62600011653
 21
7452.940734020393
 31
0.0
  0
LINE
  5
190AD
330
1775A
100
AcDbEntity
  8
寸法
 62
     0
 48
50.0
370
    -2
100
AcDbLine
 10
11128.62600011653
 20
8742.017685566288
 30
0.0
 11
11128.62600011653
 21
7469.01768556626
 31
0.0
  0
INSERT
  5
190AE
330
1775A
100
AcDbEntity
  8
寸法
 62
     0
 48
50.0
370
    -2
100
AcDbBlockReference
  2
_DOTSMALL
 10
11128.62600011653
 20
8742.017685566288
 30
0.0
 41
100.0
 42
100.0
 43
100.0
 50
90.0
  0
INSERT
  5
190AF
330
1775A
100
AcDbEntity
  8
寸法
 62
     0
 48
50.0
370
    -2
100
AcDbBlockReference
  2
_DOTSMALL
 10
11128.62600011653
 20
7469.01768556626
 30
0.0
 41
100.0
 42
100.0
 43
100.0
 50
270.0
  0
MTEXT
  5
190B0
330
1775A
100
AcDbEntity
  8
寸法
 62
     7
 48
50.0
100
AcDbMText
 10
11028.61418909291
 20
8105.517685566274
 30
0.0
 40
120.0
 41
0.0
 71
     5
 72
     1
  1
\A1;1273
  7
STYLE1
 11
0.0000000000000001
 21
1.0
 31
0.0
 73
     1
 44
1.0
1001
ACAD
1000
MTEXTBEGIN
1070
    73
1070
     1
1070
    44
1040
1.0
1070
    74
1070
     0
1000
MTEXTEND
  0
POINT
  5
190B1
330
1775A
100
AcDbEntity
  8
DEFPOINTS
 62
     0
 48
50.0
100
AcDbPoint
 10
10716.44279271591
 20
8852.461843122956
 30
0.0
  0
POINT
  5
190B2
330
1775A
100
AcDbEntity
  8
DEFPOINTS
 62
     0
 48
50.0
100
AcDbPoint
 10
10716.44279271581
 20
7579.461843122956
 30
0.0
  0
POINT
  5
190B3
330
1775A
100
AcDbEntity
  8
DEFPOINTS
 62
     0
 48
50.0
100
AcDbPoint
 10
11128.62600011653
 20
7469.01768556626
 30
0.0
  0
ENDBLK
  5
17765
330
1775A
100
AcDbEntity
  8
0
 48
50.0
100
AcDbBlockEnd
  0
BLOCK
  5
17770
330
17766
100
AcDbEntity
  8
0
 48
50.0
100
AcDbBlockBegin
  2
*D8
 70
     1
 10
0.0
 20
0.0
 30
0.0
  3
*D8
  1

  0
LINE
  5
190A2
330
17766
100
AcDbEntity
  8
寸法
 62
     0
 48
50.0
370
    -2
100
AcDbLine
 10
10766.44279271584
 20
10125.96184312297
 30
0.0
 11
11453.86913845025
 21
10125.96184312297
 31
0.0
  0
LINE
  5
190A3
330
17766
100
AcDbEntity
  8
寸法
 62
     0
 48
50.0
370
    -2
100
AcDbLine
 10
10766.44279271581
 20
7605.961843122952
 30
0.0
 11
11453.86913845025
 21
7605.961843122952
 31
0.0
  0
LINE
  5
190A4
330
17766
100
AcDbEntity
  8
寸法
 62
     0
 48
50.0
370
    -2
100
AcDbLine
 10
11393.86913845025
 20
10125.96184312297
 30
0.0
 11
11393.86913845025
 21
7605.961843122952
 31
0.0
  0
INSERT
  5
190A5
330
17766
100
AcDbEntity
  8
寸法
 62
     0
 48
50.0
370
    -2
100
AcDbBlockReference
  2
_DOTSMALL
 10
11393.86913845025
 20
10125.96184312297
 30
0.0
 41
100.0
 42
100.0
 43
100.0
 50
90.0
  0
INSERT
  5
190A6
330
17766
100
AcDbEntity
  8
寸法
 62
     0
 48
50.0
370
    -2
100
AcDbBlockReference
  2
_DOTSMALL
 10
11393.86913845025
 20
7605.961843122952
 30
0.0
 41
100.0
 42
100.0
 43
100.0
 50
270.0
  0
MTEXT
  5
190A7
330
17766
100
AcDbEntity
  8
寸法
 62
     7
 48
50.0
100
AcDbMText
 10
11293.85732742663
 20
8865.961843122963
 30
0.0
 40
120.0
 41
0.0
 71
     5
 72
     1
  1
\A1;6X420=2520
  7
STYLE1
 11
0.0000000000000001
 21
1.0
 31
0.0
 73
     1
 44
1.0
1001
ACAD
1000
MTEXTBEGIN
1070
    73
1070
     1
1070
    44
1040
1.0
1070
    74
1070
     0
1000
MTEXTEND
  0
POINT
  5
190A8
330
17766
100
AcDbEntity
  8
DEFPOINTS
 62
     0
 48
50.0
100
AcDbPoint
 10
10746.44279271584
 20
10125.96184312297
 30
0.0
  0
POINT
  5
190A9
330
17766
100
AcDbEntity
  8
DEFPOINTS
 62
     0
 48
50.0
100
AcDbPoint
 10
10746.44279271581
 20
7605.961843122952
 30
0.0
  0
POINT
  5
190AA
330
17766
100
AcDbEntity
  8
DEFPOINTS
 62
     0
 48
50.0
100
AcDbPoint
 10
11393.86913845025
 20
7605.961843122952
 30
0.0
  0
ENDBLK
  5
17771
330
17766
100
AcDbEntity
  8
0
 48
50.0
100
AcDbBlockEnd
  0
BLOCK
  5
1777E
330
17772
100
AcDbEntity
  8
0
 48
50.0
100
AcDbBlockBegin
  2
*D9
 70
     1
 10
0.0
 20
0.0
 30
0.0
  3
*D9
  1

  0
LINE
  5
19097
330
17772
100
AcDbEntity
  8
寸法
 62
     0
 48
50.0
370
    -2
100
AcDbLine
 10
10766.44279271584
 20
10180.96184312296
 30
0.0
 11
11453.86913845025
 21
10180.96184312296
 31
0.0
  0
LINE
  5
19098
330
17772
100
AcDbEntity
  8
寸法
 62
     0
 48
50.0
370
    -2
100
AcDbLine
 10
10766.44279271584
 20
10125.96184312297
 30
0.0
 11
11453.86913845025
 21
10125.96184312297
 31
0.0
  0
LINE
  5
19099
330
17772
100
AcDbEntity
  8
寸法
 62
     0
 48
50.0
370
    -2
100
AcDbLine
 10
11393.86913845025
 20
10125.96184312297
 30
0.0
 11
11393.86913845025
 21
10025.96184312297
 31
0.0
  0
LINE
  5
1909A
330
17772
100
AcDbEntity
  8
寸法
 62
     0
 48
50.0
370
    -2
100
AcDbLine
 10
11393.86913845025
 20
10180.96184312296
 30
0.0
 11
11393.86913845025
 21
10597.93240587144
 31
0.0
  0
LINE
  5
1909B
330
17772
100
AcDbEntity
  8
寸法
 62
     0
 48
50.0
370
    -2
100
AcDbLine
 10
11393.86913845025
 20
10125.96184312297
 30
0.0
 11
11393.86913845025
 21
10180.96184312296
 31
0.0
  0
INSERT
  5
1909C
330
17772
100
AcDbEntity
  8
寸法
 62
     0
 48
50.0
370
    -2
100
AcDbBlockReference
  2
_DOTSMALL
 10
11393.86913845025
 20
10125.96184312297
 30
0.0
 41
100.0
 42
100.0
 43
100.0
 50
90.0
  0
INSERT
  5
1909D
330
17772
100
AcDbEntity
  8
寸法
 62
     0
 48
50.0
370
    -2
100
AcDbBlockReference
  2
_DOTSMALL
 10
11393.86913845025
 20
10180.96184312296
 30
0.0
 41
100.0
 42
100.0
 43
100.0
 50
270.0
  0
MTEXT
  5
1909E
330
17772
100
AcDbEntity
  8
寸法
 62
     7
 48
50.0
100
AcDbMText
 10
11293.86913845025
 20
10489.4471244972
 30
0.0
 40
120.0
 41
0.0
 71
     5
 72
     1
  1
\A1;55
  7
STYLE1
 11
0.0000000000000001
 21
1.0
 31
0.0
 73
     1
 44
1.0
1001
ACAD
1000
MTEXTBEGIN
1070
    73
1070
     1
1070
    44
1040
1.0
1070
    74
1070
     0
1000
MTEXTEND
  0
POINT
  5
1909F
330
17772
100
AcDbEntity
  8
DEFPOINTS
 62
     0
 48
50.0
100
AcDbPoint
 10
10746.44279271584
 20
10180.96184312296
 30
0.0
  0
POINT
  5
190A0
330
17772
100
AcDbEntity
  8
DEFPOINTS
 62
     0
 48
50.0
100
AcDbPoint
 10
10746.44279271584
 20
10125.96184312297
 30
0.0
  0
POINT
  5
190A1
330
17772
100
AcDbEntity
  8
DEFPOINTS
 62
     0
 48
50.0
100
AcDbPoint
 10
11393.86913845025
 20
10125.96184312297
 30
0.0
  0
ENDBLK
  5
1777F
330
17772
100
AcDbEntity
  8
0
 48
50.0
100
AcDbBlockEnd
  0
BLOCK
  5
1778A
330
17780
100
AcDbEntity
  8
0
 48
50.0
100
AcDbBlockBegin
  2
*D10
 70
     1
 10
0.0
 20
0.0
 30
0.0
  3
*D10
  1

  0
LINE
  5
1908E
330
17780
100
AcDbEntity
  8
寸法
 62
     0
 48
50.0
370
    -2
100
AcDbLine
 10
10766.44279271584
 20
10180.96184312296
 30
0.0
 11
11722.30766975072
 21
10180.96184312296
 31
0.0
  0
LINE
  5
1908F
330
17780
100
AcDbEntity
  8
寸法
 62
     0
 48
50.0
370
    -2
100
AcDbLine
 10
10766.44279271581
 20
7550.961843122957
 30
0.0
 11
11722.30766975072
 21
7550.961843122957
 31
0.0
  0
LINE
  5
19090
330
17780
100
AcDbEntity
  8
寸法
 62
     0
 48
50.0
370
    -2
100
AcDbLine
 10
11662.30766975072
 20
10180.96184312296
 30
0.0
 11
11662.30766975072
 21
7550.961843122957
 31
0.0
  0
INSERT
  5
19091
330
17780
100
AcDbEntity
  8
寸法
 62
     0
 48
50.0
370
    -2
100
AcDbBlockReference
  2
_DOTSMALL
 10
11662.30766975072
 20
10180.96184312296
 30
0.0
 41
100.0
 42
100.0
 43
100.0
 50
90.0
  0
INSERT
  5
19092
330
17780
100
AcDbEntity
  8
寸法
 62
     0
 48
50.0
370
    -2
100
AcDbBlockReference
  2
_DOTSMALL
 10
11662.30766975072
 20
7550.961843122957
 30
0.0
 41
100.0
 42
100.0
 43
100.0
 50
270.0
  0
MTEXT
  5
19093
330
17780
100
AcDbEntity
  8
寸法
 62
     7
 48
50.0
100
AcDbMText
 10
11562.2958587271
 20
8865.961843122963
 30
0.0
 40
120.0
 41
0.0
 71
     5
 72
     1
  1
\A1;2630
  7
STYLE1
 11
0.0000000000000001
 21
1.0
 31
0.0
 73
     1
 44
1.0
1001
ACAD
1000
MTEXTBEGIN
1070
    73
1070
     1
1070
    44
1040
1.0
1070
    74
1070
     0
1000
MTEXTEND
  0
POINT
  5
19094
330
17780
100
AcDbEntity
  8
DEFPOINTS
 62
     0
 48
50.0
100
AcDbPoint
 10
10746.44279271584
 20
10180.96184312296
 30
0.0
  0
POINT
  5
19095
330
17780
100
AcDbEntity
  8
DEFPOINTS
 62
     0
 48
50.0
100
AcDbPoint
 10
10746.44279271581
 20
7550.961843122957
 30
0.0
  0
POINT
  5
19096
330
17780
100
AcDbEntity
  8
DEFPOINTS
 62
     0
 48
50.0
100
AcDbPoint
 10
11662.30766975072
 20
7550.961843122957
 30
0.0
  0
ENDBLK
  5
1778B
330
17780
100
AcDbEntity
  8
0
 48
50.0
100
AcDbBlockEnd
  0
BLOCK
  5
17798
330
1778C
100
AcDbEntity
  8
0
 48
50.0
100
AcDbBlockBegin
  2
*D11
 70
     1
 10
0.0
 20
0.0
 30
0.0
  3
*D11
  1

  0
LINE
  5
19083
330
1778C
100
AcDbEntity
  8
寸法
 62
     0
 48
50.0
370
    -2
100
AcDbLine
 10
10766.44279271581
 20
7605.961843122952
 30
0.0
 11
11453.86913845022
 21
7605.961843122952
 31
0.0
  0
LINE
  5
19084
330
1778C
100
AcDbEntity
  8
寸法
 62
     0
 48
50.0
370
    -2
100
AcDbLine
 10
10766.44279271581
 20
7550.961843122957
 30
0.0
 11
11453.86913845022
 21
7550.961843122957
 31
0.0
  0
LINE
  5
19085
330
1778C
100
AcDbEntity
  8
寸法
 62
     0
 48
50.0
370
    -2
100
AcDbLine
 10
11393.86913845022
 20
7605.961843122952
 30
0.0
 11
11393.86913845022
 21
7705.961843122953
 31
0.0
  0
LINE
  5
19086
330
1778C
100
AcDbEntity
  8
寸法
 62
     0
 48
50.0
370
    -2
100
AcDbLine
 10
11393.86913845022
 20
7550.961843122957
 30
0.0
 11
11393.86913845022
 21
7133.991280374475
 31
0.0
  0
LINE
  5
19087
330
1778C
100
AcDbEntity
  8
寸法
 62
     0
 48
50.0
370
    -2
100
AcDbLine
 10
11393.86913845022
 20
7605.961843122952
 30
0.0
 11
11393.86913845022
 21
7550.961843122957
 31
0.0
  0
INSERT
  5
19088
330
1778C
100
AcDbEntity
  8
寸法
 62
     0
 48
50.0
370
    -2
100
AcDbBlockReference
  2
_DOTSMALL
 10
11393.86913845022
 20
7605.961843122952
 30
0.0
 41
100.0
 42
100.0
 43
100.0
 50
270.0
  0
INSERT
  5
19089
330
1778C
100
AcDbEntity
  8
寸法
 62
     0
 48
50.0
370
    -2
100
AcDbBlockReference
  2
_DOTSMALL
 10
11393.86913845022
 20
7550.961843122957
 30
0.0
 41
100.0
 42
100.0
 43
100.0
 50
90.0
  0
MTEXT
  5
1908A
330
1778C
100
AcDbEntity
  8
寸法
 62
     7
 48
50.0
100
AcDbMText
 10
11293.86913845022
 20
7242.476561748715
 30
0.0
 40
120.0
 41
0.0
 71
     5
 72
     1
  1
\A1;55
  7
STYLE1
 11
0.0000000000000001
 21
1.0
 31
0.0
 73
     1
 44
1.0
1001
ACAD
1000
MTEXTBEGIN
1070
    73
1070
     1
1070
    44
1040
1.0
1070
    74
1070
     0
1000
MTEXTEND
  0
POINT
  5
1908B
330
1778C
100
AcDbEntity
  8
DEFPOINTS
 62
     0
 48
50.0
100
AcDbPoint
 10
10746.44279271581
 20
7605.961843122952
 30
0.0
  0
POINT
  5
1908C
330
1778C
100
AcDbEntity
  8
DEFPOINTS
 62
     0
 48
50.0
100
AcDbPoint
 10
10746.44279271581
 20
7550.961843122957
 30
0.0
  0
POINT
  5
1908D
330
1778C
100
AcDbEntity
  8
DEFPOINTS
 62
     0
 48
50.0
100
AcDbPoint
 10
11393.86913845022
 20
7550.961843122957
 30
0.0
  0
ENDBLK
  5
17799
330
1778C
100
AcDbEntity
  8
0
 48
50.0
100
AcDbBlockEnd
  0
BLOCK
  5
177D6
330
177CC
100
AcDbEntity
  8
0
 48
50.0
100
AcDbBlockBegin
  2
*D12
 70
     1
 10
0.0
 20
0.0
 30
0.0
  3
*D12
  1

  0
LINE
  5
18114
330
177CC
100
AcDbEntity
  8
寸法
 62
     0
 48
50.0
370
    -2
100
AcDbLine
 10
4634.345763378643
 20
4322.672990367943
 30
0.0
 11
3970.693054220348
 21
4322.672990367943
 31
0.0
  0
LINE
  5
18115
330
177CC
100
AcDbEntity
  8
寸法
 62
     0
 48
50.0
370
    -2
100
AcDbLine
 10
4634.345763378643
 20
2532.672990367944
 30
0.0
 11
3970.693054220347
 21
2532.672990367944
 31
0.0
  0
LINE
  5
18116
330
177CC
100
AcDbEntity
  8
寸法
 62
     0
 48
50.0
370
    -2
100
AcDbLine
 10
4030.693054220347
 20
4322.672990367943
 30
0.0
 11
4030.693054220346
 21
2532.672990367944
 31
0.0
  0
INSERT
  5
18117
330
177CC
100
AcDbEntity
  8
寸法
 62
     0
 48
50.0
370
    -2
100
AcDbBlockReference
  2
_DOTSMALL
 10
4030.693054220347
 20
4322.672990367943
 30
0.0
 41
100.0
 42
100.0
 43
100.0
 50
90.0
  0
INSERT
  5
18118
330
177CC
100
AcDbEntity
  8
寸法
 62
     0
 48
50.0
370
    -2
100
AcDbBlockReference
  2
_DOTSMALL
 10
4030.693054220346
 20
2532.672990367944
 30
0.0
 41
100.0
 42
100.0
 43
100.0
 50
270.0
  0
MTEXT
  5
18119
330
177CC
100
AcDbEntity
  8
寸法
 62
     7
 48
50.0
100
AcDbMText
 10
3930.693054220347
 20
3423.127288909902
 30
0.0
 40
120.0
 41
0.0
 71
     5
 72
     1
  1
\A1;1790
  7
STYLE1
 11
0.0000000000000001
 21
1.0
 31
0.0
 73
     1
 44
1.0
1001
ACAD
1000
MTEXTBEGIN
1070
    73
1070
     1
1070
    44
1040
1.0
1070
    74
1070
     0
1000
MTEXTEND
  0
POINT
  5
1811A
330
177CC
100
AcDbEntity
  8
DEFPOINTS
 62
     0
 48
50.0
100
AcDbPoint
 10
4654.345763378644
 20
4322.672990367943
 30
0.0
  0
POINT
  5
1811B
330
177CC
100
AcDbEntity
  8
DEFPOINTS
 62
     0
 48
50.0
100
AcDbPoint
 10
4654.345763378644
 20
2532.672990367944
 30
0.0
  0
POINT
  5
1811C
330
177CC
100
AcDbEntity
  8
DEFPOINTS
 62
     0
 48
50.0
100
AcDbPoint
 10
4030.693054220346
 20
2532.672990367944
 30
0.0
  0
ENDBLK
  5
177D7
330
177CC
100
AcDbEntity
  8
0
 48
50.0
100
AcDbBlockEnd
  0
BLOCK
  5
177E2
330
177D8
100
AcDbEntity
  8
0
 48
50.0
100
AcDbBlockBegin
  2
*D13
 70
     1
 10
0.0
 20
0.0
 30
0.0
  3
*D13
  1

  0
LINE
  5
1810B
330
177D8
100
AcDbEntity
  8
寸法
 62
     0
 48
50.0
370
    -2
100
AcDbLine
 10
4634.345763378643
 20
2482.672990367944
 30
0.0
 11
3685.706381449286
 21
2482.672990367944
 31
0.0
  0
LINE
  5
1810C
330
177D8
100
AcDbEntity
  8
寸法
 62
     0
 48
50.0
370
    -2
100
AcDbLine
 10
4574.345763378643
 20
4557.672990367949
 30
0.0
 11
3685.706381449286
 21
4557.672990367949
 31
0.0
  0
LINE
  5
1810D
330
177D8
100
AcDbEntity
  8
寸法
 62
     0
 48
50.0
370
    -2
100
AcDbLine
 10
3745.706381449286
 20
2482.672990367944
 30
0.0
 11
3745.706381449287
 21
4557.672990367949
 31
0.0
  0
INSERT
  5
1810E
330
177D8
100
AcDbEntity
  8
寸法
 62
     0
 48
50.0
370
    -2
100
AcDbBlockReference
  2
_DOTSMALL
 10
3745.706381449286
 20
2482.672990367944
 30
0.0
 41
100.0
 42
100.0
 43
100.0
 50
270.0
  0
INSERT
  5
1810F
330
177D8
100
AcDbEntity
  8
寸法
 62
     0
 48
50.0
370
    -2
100
AcDbBlockReference
  2
_DOTSMALL
 10
3745.706381449287
 20
4557.672990367949
 30
0.0
 41
100.0
 42
100.0
 43
100.0
 50
90.0
  0
MTEXT
  5
18110
330
177D8
100
AcDbEntity
  8
寸法
 62
     7
 48
50.0
100
AcDbMText
 10
3645.694570425663
 20
3476.878867861055
 30
0.0
 40
120.0
 41
0.0
 71
     5
 72
     1
  1
\A1;2075
  7
STYLE1
 11
0.0000000000000001
 21
1.0
 31
0.0
 73
     1
 44
1.0
1001
ACAD
1000
MTEXTBEGIN
1070
    73
1070
     1
1070
    44
1040
1.0
1070
    74
1070
     0
1000
MTEXTEND
  0
POINT
  5
18111
330
177D8
100
AcDbEntity
  8
DEFPOINTS
 62
     0
 48
50.0
100
AcDbPoint
 10
4654.345763378644
 20
2482.672990367944
 30
0.0
  0
POINT
  5
18112
330
177D8
100
AcDbEntity
  8
DEFPOINTS
 62
     0
 48
50.0
100
AcDbPoint
 10
4594.345763378643
 20
4557.672990367949
 30
0.0
  0
POINT
  5
18113
330
177D8
100
AcDbEntity
  8
DEFPOINTS
 62
     0
 48
50.0
100
AcDbPoint
 10
3745.706381449287
 20
4557.672990367949
 30
0.0
  0
ENDBLK
  5
177E3
330
177D8
100
AcDbEntity
  8
0
 48
50.0
100
AcDbBlockEnd
  0
BLOCK
  5
177EF
330
177E4
100
AcDbEntity
  8
0
 48
50.0
100
AcDbBlockBegin
  2
*D14
 70
     1
 10
0.0
 20
0.0
 30
0.0
  3
*D14
  1

  0
LINE
  5
18101
330
177E4
100
AcDbEntity
  8
寸法
 62
     0
 48
50.0
370
    -2
100
AcDbLine
 10
4579.345763378643
 20
2482.672990367944
 30
0.0
 11
3685.706381449286
 21
2482.672990367944
 31
0.0
  0
LINE
  5
18102
330
177E4
100
AcDbEntity
  8
寸法
 62
     0
 48
50.0
370
    -2
100
AcDbLine
 10
4010.693054220346
 20
2382.672990367944
 30
0.0
 11
3685.706381449286
 21
2382.672990367944
 31
0.0
  0
LINE
  5
18103
330
177E4
100
AcDbEntity
  8
寸法
 62
     0
 48
50.0
370
    -2
100
AcDbLine
 10
3745.706381449286
 20
2482.672990367944
 30
0.0
 11
3745.706381449286
 21
2382.672990367944
 31
0.0
  0
LINE
  5
18104
330
177E4
100
AcDbEntity
  8
寸法
 62
     0
 48
50.0
370
    -2
100
AcDbLine
 10
3745.706381449286
 20
2382.672990367944
 30
0.0
 11
3745.706381449286
 21
2010.578502178963
 31
0.0
  0
INSERT
  5
18105
330
177E4
100
AcDbEntity
  8
寸法
 62
     0
 48
50.0
370
    -2
100
AcDbBlockReference
  2
_DOTSMALL
 10
3745.706381449286
 20
2482.672990367944
 30
0.0
 41
100.0
 42
100.0
 43
100.0
 50
90.0
  0
INSERT
  5
18106
330
177E4
100
AcDbEntity
  8
寸法
 62
     0
 48
50.0
370
    -2
100
AcDbBlockReference
  2
_DOTSMALL
 10
3745.706381449286
 20
2382.672990367944
 30
0.0
 41
100.0
 42
100.0
 43
100.0
 50
270.0
  0
MTEXT
  5
18107
330
177E4
100
AcDbEntity
  8
寸法
 62
     7
 48
50.0
100
AcDbMText
 10
3645.706381449285
 20
2146.625746273453
 30
0.0
 40
120.0
 41
0.0
 71
     5
 72
     1
  1
\A1;100
  7
STYLE1
 11
0.0000000000000001
 21
1.0
 31
0.0
 73
     1
 44
1.0
1001
ACAD
1000
MTEXTBEGIN
1070
    73
1070
     1
1070
    44
1040
1.0
1070
    74
1070
     0
1000
MTEXTEND
  0
POINT
  5
18108
330
177E4
100
AcDbEntity
  8
DEFPOINTS
 62
     0
 48
50.0
100
AcDbPoint
 10
4599.345763378644
 20
2482.672990367944
 30
0.0
  0
POINT
  5
18109
330
177E4
100
AcDbEntity
  8
DEFPOINTS
 62
     0
 48
50.0
100
AcDbPoint
 10
4030.693054220346
 20
2382.672990367944
 30
0.0
  0
POINT
  5
1810A
330
177E4
100
AcDbEntity
  8
DEFPOINTS
 62
     0
 48
50.0
100
AcDbPoint
 10
3745.706381449286
 20
2382.672990367944
 30
0.0
  0
ENDBLK
  5
177F0
330
177E4
100
AcDbEntity
  8
0
 48
50.0
100
AcDbBlockEnd
  0
BLOCK
  5
177FD
330
177F1
100
AcDbEntity
  8
0
 48
50.0
100
AcDbBlockBegin
  2
*D15
 70
     1
 10
0.0
 20
0.0
 30
0.0
  3
*D15
  1

  0
LINE
  5
180F6
330
177F1
100
AcDbEntity
  8
寸法
 62
     0
 48
50.0
370
    -2
100
AcDbLine
 10
4634.345763378643
 20
2532.672990367944
 30
0.0
 11
3970.693054220347
 21
2532.672990367944
 31
0.0
  0
LINE
  5
180F7
330
177F1
100
AcDbEntity
  8
寸法
 62
     0
 48
50.0
370
    -2
100
AcDbLine
 10
4579.345763378643
 20
2482.672990367944
 30
0.0
 11
3970.693054220347
 21
2482.672990367944
 31
0.0
  0
LINE
  5
180F8
330
177F1
100
AcDbEntity
  8
寸法
 62
     0
 48
50.0
370
    -2
100
AcDbLine
 10
4030.693054220346
 20
2532.672990367944
 30
0.0
 11
4030.693054220346
 21
2632.672990367944
 31
0.0
  0
LINE
  5
180F9
330
177F1
100
AcDbEntity
  8
寸法
 62
     0
 48
50.0
370
    -2
100
AcDbLine
 10
4030.693054220346
 20
2482.672990367944
 30
0.0
 11
4030.693054220346
 21
2070.578502178963
 31
0.0
  0
LINE
  5
180FA
330
177F1
100
AcDbEntity
  8
寸法
 62
     0
 48
50.0
370
    -2
100
AcDbLine
 10
4030.693054220346
 20
2532.672990367944
 30
0.0
 11
4030.693054220346
 21
2482.672990367944
 31
0.0
  0
INSERT
  5
180FB
330
177F1
100
AcDbEntity
  8
寸法
 62
     0
 48
50.0
370
    -2
100
AcDbBlockReference
  2
_DOTSMALL
 10
4030.693054220346
 20
2532.672990367944
 30
0.0
 41
100.0
 42
100.0
 43
100.0
 50
270.0
  0
INSERT
  5
180FC
330
177F1
100
AcDbEntity
  8
寸法
 62
     0
 48
50.0
370
    -2
100
AcDbBlockReference
  2
_DOTSMALL
 10
4030.693054220346
 20
2482.672990367944
 30
0.0
 41
100.0
 42
100.0
 43
100.0
 50
90.0
  0
MTEXT
  5
180FD
330
177F1
100
AcDbEntity
  8
寸法
 62
     7
 48
50.0
100
AcDbMText
 10
3930.693054220347
 20
2176.625746273452
 30
0.0
 40
120.0
 41
0.0
 71
     5
 72
     1
  1
\A1;50
  7
STYLE1
 11
0.0000000000000001
 21
1.0
 31
0.0
 73
     1
 44
1.0
1001
ACAD
1000
MTEXTBEGIN
1070
    73
1070
     1
1070
    44
1040
1.0
1070
    74
1070
     0
1000
MTEXTEND
  0
POINT
  5
180FE
330
177F1
100
AcDbEntity
  8
DEFPOINTS
 62
     0
 48
50.0
100
AcDbPoint
 10
4654.345763378644
 20
2532.672990367944
 30
0.0
  0
POINT
  5
180FF
330
177F1
100
AcDbEntity
  8
DEFPOINTS
 62
     0
 48
50.0
100
AcDbPoint
 10
4599.345763378644
 20
2482.672990367944
 30
0.0
  0
POINT
  5
18100
330
177F1
100
AcDbEntity
  8
DEFPOINTS
 62
     0
 48
50.0
100
AcDbPoint
 10
4030.693054220346
 20
2482.672990367944
 30
0.0
  0
ENDBLK
  5
177FE
330
177F1
100
AcDbEntity
  8
0
 48
50.0
100
AcDbBlockEnd
  0
BLOCK
  5
1780A
330
177FF
100
AcDbEntity
  8
0
 48
50.0
100
AcDbBlockBegin
  2
*D16
 70
     1
 10
0.0
 20
0.0
 30
0.0
  3
*D16
  1

  0
LINE
  5
180EC
330
177FF
100
AcDbEntity
  8
寸法
 62
     0
 48
50.0
370
    -2
100
AcDbLine
 10
4593.750049669746
 20
4556.970697437606
 30
0.0
 11
3977.815610564483
 21
4574.684847711935
 31
0.0
  0
LINE
  5
180ED
330
177FF
100
AcDbEntity
  8
寸法
 62
     0
 48
50.0
370
    -2
100
AcDbLine
 10
4589.696594113119
 20
4416.028973671893
 30
0.0
 11
3973.762155007857
 21
4433.743123946223
 31
0.0
  0
LINE
  5
180EE
330
177FF
100
AcDbEntity
  8
寸法
 62
     0
 48
50.0
370
    -2
100
AcDbLine
 10
4033.737356610287
 20
4432.018249241274
 30
0.0
 11
4037.790812166913
 21
4572.959973006987
 31
0.0
  0
LINE
  5
180EF
330
177FF
100
AcDbEntity
  8
寸法
 62
     0
 48
50.0
370
    -2
100
AcDbLine
 10
4037.790812166913
 20
4572.959973006987
 30
0.0
 11
4048.140060396598
 21
4932.811182621573
 31
0.0
  0
INSERT
  5
180F0
330
177FF
100
AcDbEntity
  8
寸法
 62
     0
 48
50.0
370
    -2
100
AcDbBlockReference
  2
_DOTSMALL
 10
4033.737356610287
 20
4432.018249241274
 30
0.0
 41
100.0
 42
100.0
 43
100.0
 50
268.3526390256378
  0
INSERT
  5
180F1
330
177FF
100
AcDbEntity
  8
寸法
 62
     0
 48
50.0
370
    -2
100
AcDbBlockReference
  2
_DOTSMALL
 10
4037.790812166913
 20
4572.959973006987
 30
0.0
 41
100.0
 42
100.0
 43
100.0
 50
88.35263902563776
  0
MTEXT
  5
180F2
330
177FF
100
AcDbEntity
  8
寸法
 62
     7
 48
50.0
100
AcDbMText
 10
3944.444162531827
 20
4805.739703657886
 30
0.0
 40
120.0
 41
0.0
 71
     5
 72
     1
  1
\A1;141
  7
STYLE1
 11
0.0287479117491237
 21
0.9995866933738488
 31
0.0
 73
     1
 44
1.0
1001
ACAD
1000
MTEXTBEGIN
1070
    73
1070
     1
1070
    44
1040
1.0
1070
    74
1070
     0
1000
MTEXTEND
  0
POINT
  5
180F3
330
177FF
100
AcDbEntity
  8
DEFPOINTS
 62
     0
 48
50.0
100
AcDbPoint
 10
4613.741783537223
 20
4556.395739202623
 30
0.0
  0
POINT
  5
180F4
330
177FF
100
AcDbEntity
  8
DEFPOINTS
 62
     0
 48
50.0
100
AcDbPoint
 10
4609.688327980596
 20
4415.454015436911
 30
0.0
  0
POINT
  5
180F5
330
177FF
100
AcDbEntity
  8
DEFPOINTS
 62
     0
 48
50.0
100
AcDbPoint
 10
4033.737356610287
 20
4432.018249241274
 30
0.0
  0
ENDBLK
  5
1780B
330
177FF
100
AcDbEntity
  8
0
 48
50.0
100
AcDbBlockEnd
  0
BLOCK
  5
17816
330
1780C
100
AcDbEntity
  8
0
 48
50.0
100
AcDbBlockBegin
  2
*D17
 70
     1
 10
0.0
 20
0.0
 30
0.0
  3
*D17
  1

  0
LINE
  5
180E3
330
1780C
100
AcDbEntity
  8
寸法
 62
     0
 48
50.0
370
    -2
100
AcDbLine
 10
4561.845763378648
 20
2182.672990367944
 30
0.0
 11
4372.34576013201
 21
2182.672990367944
 31
0.0
  0
LINE
  5
180E4
330
1780C
100
AcDbEntity
  8
寸法
 62
     0
 48
50.0
370
    -2
100
AcDbLine
 10
4536.845763378644
 20
2382.672990367943
 30
0.0
 11
4372.34576013201
 21
2382.672990367943
 31
0.0
  0
LINE
  5
180E5
330
1780C
100
AcDbEntity
  8
寸法
 62
     0
 48
50.0
370
    -2
100
AcDbLine
 10
4432.345760132011
 20
2182.672990367944
 30
0.0
 11
4432.345760132011
 21
2382.672990367943
 31
0.0
  0
INSERT
  5
180E6
330
1780C
100
AcDbEntity
  8
寸法
 62
     0
 48
50.0
370
    -2
100
AcDbBlockReference
  2
_DOTSMALL
 10
4432.345760132011
 20
2182.672990367944
 30
0.0
 41
100.0
 42
100.0
 43
100.0
 50
270.0
  0
INSERT
  5
180E7
330
1780C
100
AcDbEntity
  8
寸法
 62
     0
 48
50.0
370
    -2
100
AcDbBlockReference
  2
_DOTSMALL
 10
4432.345760132011
 20
2382.672990367943
 30
0.0
 41
100.0
 42
100.0
 43
100.0
 50
90.0
  0
MTEXT
  5
180E8
330
1780C
100
AcDbEntity
  8
寸法
 62
     7
 48
50.0
100
AcDbMText
 10
4332.333949108387
 20
2282.672990367944
 30
0.0
 40
120.0
 41
0.0
 71
     5
 72
     1
  1
\A1;200
  7
STYLE1
 11
0.0000000000000001
 21
1.0
 31
0.0
 73
     1
 44
1.0
1001
ACAD
1000
MTEXTBEGIN
1070
    73
1070
     1
1070
    44
1040
1.0
1070
    74
1070
     0
1000
MTEXTEND
  0
POINT
  5
180E9
330
1780C
100
AcDbEntity
  8
DEFPOINTS
 62
     0
 48
50.0
100
AcDbPoint
 10
4581.845763378647
 20
2182.672990367944
 30
0.0
  0
POINT
  5
180EA
330
1780C
100
AcDbEntity
  8
DEFPOINTS
 62
     0
 48
50.0
100
AcDbPoint
 10
4556.845763378643
 20
2382.672990367943
 30
0.0
  0
POINT
  5
180EB
330
1780C
100
AcDbEntity
  8
DEFPOINTS
 62
     0
 48
50.0
100
AcDbPoint
 10
4432.345760132011
 20
2382.672990367943
 30
0.0
  0
ENDBLK
  5
17817
330
1780C
100
AcDbEntity
  8
0
 48
50.0
100
AcDbBlockEnd
  0
BLOCK
  5
17822
330
17818
100
AcDbEntity
  8
0
 48
50.0
100
AcDbBlockBegin
  2
*D18
 70
     1
 10
0.0
 20
0.0
 30
0.0
  3
*D18
  1

  0
LINE
  5
180DA
330
17818
100
AcDbEntity
  8
寸法
 62
     0
 48
50.0
370
    -2
100
AcDbLine
 10
4781.845763378643
 20
2162.672990367942
 30
0.0
 11
4781.845763378643
 21
1836.625661067565
 31
0.0
  0
LINE
  5
180DB
330
17818
100
AcDbEntity
  8
寸法
 62
     0
 48
50.0
370
    -2
100
AcDbLine
 10
4581.845763378647
 20
2162.672990367943
 30
0.0
 11
4581.845763378647
 21
1836.625661067565
 31
0.0
  0
LINE
  5
180DC
330
17818
100
AcDbEntity
  8
寸法
 62
     0
 48
50.0
370
    -2
100
AcDbLine
 10
4781.845763378643
 20
1896.625661067565
 30
0.0
 11
4581.845763378647
 21
1896.625661067565
 31
0.0
  0
INSERT
  5
180DD
330
17818
100
AcDbEntity
  8
寸法
 62
     0
 48
50.0
370
    -2
100
AcDbBlockReference
  2
_DOTSMALL
 10
4781.845763378643
 20
1896.625661067565
 30
0.0
 41
100.0
 42
100.0
 43
100.0
  0
INSERT
  5
180DE
330
17818
100
AcDbEntity
  8
寸法
 62
     0
 48
50.0
370
    -2
100
AcDbBlockReference
  2
_DOTSMALL
 10
4581.845763378647
 20
1896.625661067565
 30
0.0
 41
100.0
 42
100.0
 43
100.0
 50
180.0
  0
MTEXT
  5
180DF
330
17818
100
AcDbEntity
  8
寸法
 62
     7
 48
50.0
100
AcDbMText
 10
4681.845763378645
 20
1996.637472091187
 30
0.0
 40
120.0
 41
0.0
 71
     5
 72
     1
  1
\A1;200
  7
STYLE1
 73
     1
 44
1.0
1001
ACAD
1000
MTEXTBEGIN
1070
    73
1070
     1
1070
    44
1040
1.0
1070
    74
1070
     0
1000
MTEXTEND
  0
POINT
  5
180E0
330
17818
100
AcDbEntity
  8
DEFPOINTS
 62
     0
 48
50.0
100
AcDbPoint
 10
4781.845763378643
 20
2182.672990367942
 30
0.0
  0
POINT
  5
180E1
330
17818
100
AcDbEntity
  8
DEFPOINTS
 62
     0
 48
50.0
100
AcDbPoint
 10
4581.845763378647
 20
2182.672990367944
 30
0.0
  0
POINT
  5
180E2
330
17818
100
AcDbEntity
  8
DEFPOINTS
 62
     0
 48
50.0
100
AcDbPoint
 10
4581.845763378647
 20
1896.625661067565
 30
0.0
  0
ENDBLK
  5
17823
330
17818
100
AcDbEntity
  8
0
 48
50.0
100
AcDbBlockEnd
  0
BLOCK
  5
17D8C
330
17D81
100
AcDbEntity
  8
0
 48
50.0
100
AcDbBlockBegin
  2
*D19
 70
     1
 10
0.0
 20
0.0
 30
0.0
  3
*D19
  1

  0
LINE
  5
180A8
330
17D81
100
AcDbEntity
  8
寸法
 62
     0
 48
50.0
370
    -2
100
AcDbLine
 10
7284.345763378644
 20
4524.483669979599
 30
0.0
 11
7284.345763378644
 21
5016.33044394725
 31
0.0
  0
LINE
  5
180A9
330
17D81
100
AcDbEntity
  8
寸法
 62
     0
 48
50.0
370
    -2
100
AcDbLine
 10
7364.345763378643
 20
4522.672990367946
 30
0.0
 11
7364.345763378643
 21
5016.33044394725
 31
0.0
  0
LINE
  5
180AA
330
17D81
100
AcDbEntity
  8
寸法
 62
     0
 48
50.0
370
    -2
100
AcDbLine
 10
7284.345763378644
 20
4956.33044394725
 30
0.0
 11
7364.345763378643
 21
4956.33044394725
 31
0.0
  0
LINE
  5
180AB
330
17D81
100
AcDbEntity
  8
寸法
 62
     0
 48
50.0
370
    -2
100
AcDbLine
 10
7364.345763378643
 20
4956.33044394725
 30
0.0
 11
7676.440251567623
 21
4956.33044394725
 31
0.0
  0
INSERT
  5
180AC
330
17D81
100
AcDbEntity
  8
寸法
 62
     0
 48
50.0
370
    -2
100
AcDbBlockReference
  2
_DOTSMALL
 10
7284.345763378644
 20
4956.33044394725
 30
0.0
 41
100.0
 42
100.0
 43
100.0
 50
180.0
  0
INSERT
  5
180AD
330
17D81
100
AcDbEntity
  8
寸法
 62
     0
 48
50.0
370
    -2
100
AcDbBlockReference
  2
_DOTSMALL
 10
7364.345763378643
 20
4956.33044394725
 30
0.0
 41
100.0
 42
100.0
 43
100.0
  0
MTEXT
  5
180AE
330
17D81
100
AcDbEntity
  8
寸法
 62
     7
 48
50.0
100
AcDbMText
 10
7570.393007473135
 20
5056.33044394725
 30
0.0
 40
120.0
 41
0.0
 71
     5
 72
     1
  1
\A1;80
  7
STYLE1
 73
     1
 44
1.0
1001
ACAD
1000
MTEXTBEGIN
1070
    73
1070
     1
1070
    44
1040
1.0
1070
    74
1070
     0
1000
MTEXTEND
  0
POINT
  5
180AF
330
17D81
100
AcDbEntity
  8
DEFPOINTS
 62
     0
 48
50.0
100
AcDbPoint
 10
7284.345763378644
 20
4504.4836699796
 30
0.0
  0
POINT
  5
180B0
330
17D81
100
AcDbEntity
  8
DEFPOINTS
 62
     0
 48
50.0
100
AcDbPoint
 10
7364.345763378643
 20
4502.672990367947
 30
0.0
  0
POINT
  5
180B1
330
17D81
100
AcDbEntity
  8
DEFPOINTS
 62
     0
 48
50.0
100
AcDbPoint
 10
7364.345763378643
 20
4956.33044394725
 30
0.0
  0
ENDBLK
  5
17D8D
330
17D81
100
AcDbEntity
  8
0
 48
50.0
100
AcDbBlockEnd
  0
BLOCK
  5
17D98
330
17D8E
100
AcDbEntity
  8
0
 48
50.0
100
AcDbBlockBegin
  2
*D20
 70
     1
 10
0.0
 20
0.0
 30
0.0
  3
*D20
  1

  0
LINE
  5
1809F
330
17D8E
100
AcDbEntity
  8
寸法
 62
     0
 48
50.0
370
    -2
100
AcDbLine
 10
7364.345763378643
 20
4522.672990367946
 30
0.0
 11
7364.345763378643
 21
5236.541130678867
 31
0.0
  0
LINE
  5
180A0
330
17D8E
100
AcDbEntity
  8
寸法
 62
     0
 48
50.0
370
    -2
100
AcDbLine
 10
4594.345763378643
 20
4577.67299036795
 30
0.0
 11
4594.345763378643
 21
5236.541130678867
 31
0.0
  0
LINE
  5
180A1
330
17D8E
100
AcDbEntity
  8
寸法
 62
     0
 48
50.0
370
    -2
100
AcDbLine
 10
7364.345763378643
 20
5176.541130678868
 30
0.0
 11
4594.345763378643
 21
5176.541130678868
 31
0.0
  0
INSERT
  5
180A2
330
17D8E
100
AcDbEntity
  8
寸法
 62
     0
 48
50.0
370
    -2
100
AcDbBlockReference
  2
_DOTSMALL
 10
7364.345763378643
 20
5176.541130678868
 30
0.0
 41
100.0
 42
100.0
 43
100.0
  0
INSERT
  5
180A3
330
17D8E
100
AcDbEntity
  8
寸法
 62
     0
 48
50.0
370
    -2
100
AcDbBlockReference
  2
_DOTSMALL
 10
4594.345763378643
 20
5176.541130678868
 30
0.0
 41
100.0
 42
100.0
 43
100.0
 50
180.0
  0
MTEXT
  5
180A4
330
17D8E
100
AcDbEntity
  8
寸法
 62
     7
 48
50.0
100
AcDbMText
 10
5997.704688266019
 20
5276.552941702489
 30
0.0
 40
120.0
 41
0.0
 71
     5
 72
     1
  1
\A1;2770
  7
STYLE1
 73
     1
 44
1.0
1001
ACAD
1000
MTEXTBEGIN
1070
    73
1070
     1
1070
    44
1040
1.0
1070
    74
1070
     0
1000
MTEXTEND
  0
POINT
  5
180A5
330
17D8E
100
AcDbEntity
  8
DEFPOINTS
 62
     0
 48
50.0
100
AcDbPoint
 10
7364.345763378643
 20
4502.672990367947
 30
0.0
  0
POINT
  5
180A6
330
17D8E
100
AcDbEntity
  8
DEFPOINTS
 62
     0
 48
50.0
100
AcDbPoint
 10
4594.345763378643
 20
4557.67299036795
 30
0.0
  0
POINT
  5
180A7
330
17D8E
100
AcDbEntity
  8
DEFPOINTS
 62
     0
 48
50.0
100
AcDbPoint
 10
4594.345763378643
 20
5176.541130678868
 30
0.0
  0
ENDBLK
  5
17D99
330
17D8E
100
AcDbEntity
  8
0
 48
50.0
100
AcDbBlockEnd
  0
BLOCK
  5
17DA6
330
17D9A
100
AcDbEntity
  8
0
 48
50.0
100
AcDbBlockBegin
  2
*D21
 70
     1
 10
0.0
 20
0.0
 30
0.0
  3
*D21
  1

  0
LINE
  5
18094
330
17D9A
100
AcDbEntity
  8
寸法
 62
     0
 48
50.0
370
    -2
100
AcDbLine
 10
4654.345763378644
 20
4573.674608490922
 30
0.0
 11
4654.345763378644
 21
5016.33044394725
 31
0.0
  0
LINE
  5
18095
330
17D9A
100
AcDbEntity
  8
寸法
 62
     0
 48
50.0
370
    -2
100
AcDbLine
 10
4594.345763378643
 20
4577.67299036795
 30
0.0
 11
4594.345763378643
 21
5016.33044394725
 31
0.0
  0
LINE
  5
18096
330
17D9A
100
AcDbEntity
  8
寸法
 62
     0
 48
50.0
370
    -2
100
AcDbLine
 10
4654.345763378644
 20
4956.330443947249
 30
0.0
 11
4754.345763378643
 21
4956.330443947249
 31
0.0
  0
LINE
  5
18097
330
17D9A
100
AcDbEntity
  8
寸法
 62
     0
 48
50.0
370
    -2
100
AcDbLine
 10
4594.345763378643
 20
4956.330443947249
 30
0.0
 11
4175.070172827463
 21
4956.330443947249
 31
0.0
  0
LINE
  5
18098
330
17D9A
100
AcDbEntity
  8
寸法
 62
     0
 48
50.0
370
    -2
100
AcDbLine
 10
4654.345763378644
 20
4956.330443947249
 30
0.0
 11
4594.345763378643
 21
4956.330443947249
 31
0.0
  0
INSERT
  5
18099
330
17D9A
100
AcDbEntity
  8
寸法
 62
     0
 48
50.0
370
    -2
100
AcDbBlockReference
  2
_DOTSMALL
 10
4654.345763378644
 20
4956.330443947249
 30
0.0
 41
100.0
 42
100.0
 43
100.0
 50
180.0
  0
INSERT
  5
1809A
330
17D9A
100
AcDbEntity
  8
寸法
 62
     0
 48
50.0
370
    -2
100
AcDbBlockReference
  2
_DOTSMALL
 10
4594.345763378643
 20
4956.330443947249
 30
0.0
 41
100.0
 42
100.0
 43
100.0
  0
MTEXT
  5
1809B
330
17D9A
100
AcDbEntity
  8
寸法
 62
     7
 48
50.0
100
AcDbMText
 10
4284.707968103053
 20
5056.330443947249
 30
0.0
 40
120.0
 41
0.0
 71
     5
 72
     1
  1
\A1;60
  7
STYLE1
 73
     1
 44
1.0
1001
ACAD
1000
MTEXTBEGIN
1070
    73
1070
     1
1070
    44
1040
1.0
1070
    74
1070
     0
1000
MTEXTEND
  0
POINT
  5
1809C
330
17D9A
100
AcDbEntity
  8
DEFPOINTS
 62
     0
 48
50.0
100
AcDbPoint
 10
4654.345763378644
 20
4553.674608490921
 30
0.0
  0
POINT
  5
1809D
330
17D9A
100
AcDbEntity
  8
DEFPOINTS
 62
     0
 48
50.0
100
AcDbPoint
 10
4594.345763378643
 20
4557.67299036795
 30
0.0
  0
POINT
  5
1809E
330
17D9A
100
AcDbEntity
  8
DEFPOINTS
 62
     0
 48
50.0
100
AcDbPoint
 10
4594.345763378643
 20
4956.330443947249
 30
0.0
  0
ENDBLK
  5
17DA7
330
17D9A
100
AcDbEntity
  8
0
 48
50.0
100
AcDbBlockEnd
  0
BLOCK
  5
17DB2
330
17DA8
100
AcDbEntity
  8
0
 48
50.0
100
AcDbBlockBegin
  2
*D22
 70
     1
 10
0.0
 20
0.0
 30
0.0
  3
*D22
  1

  0
LINE
  5
1808B
330
17DA8
100
AcDbEntity
  8
寸法
 62
     0
 48
50.0
370
    -2
100
AcDbLine
 10
7284.345763378644
 20
4524.483669979599
 30
0.0
 11
7284.345763378644
 21
5016.33044394725
 31
0.0
  0
LINE
  5
1808C
330
17DA8
100
AcDbEntity
  8
寸法
 62
     0
 48
50.0
370
    -2
100
AcDbLine
 10
4654.345763378644
 20
4573.674608490922
 30
0.0
 11
4654.345763378644
 21
5016.33044394725
 31
0.0
  0
LINE
  5
1808D
330
17DA8
100
AcDbEntity
  8
寸法
 62
     0
 48
50.0
370
    -2
100
AcDbLine
 10
7284.345763378644
 20
4956.33044394725
 30
0.0
 11
4654.345763378644
 21
4956.33044394725
 31
0.0
  0
INSERT
  5
1808E
330
17DA8
100
AcDbEntity
  8
寸法
 62
     0
 48
50.0
370
    -2
100
AcDbBlockReference
  2
_DOTSMALL
 10
7284.345763378644
 20
4956.33044394725
 30
0.0
 41
100.0
 42
100.0
 43
100.0
  0
INSERT
  5
1808F
330
17DA8
100
AcDbEntity
  8
寸法
 62
     0
 48
50.0
370
    -2
100
AcDbBlockReference
  2
_DOTSMALL
 10
4654.345763378644
 20
4956.33044394725
 30
0.0
 41
100.0
 42
100.0
 43
100.0
 50
180.0
  0
MTEXT
  5
18090
330
17DA8
100
AcDbEntity
  8
寸法
 62
     7
 48
50.0
100
AcDbMText
 10
6009.115954407838
 20
5056.342254970871
 30
0.0
 40
120.0
 41
0.0
 71
     5
 72
     1
  1
\A1;柱外寸法2630
  7
STYLE1
 73
     1
 44
1.0
1001
ACAD
1000
MTEXTBEGIN
1070
    73
1070
     1
1070
    44
1040
1.0
1070
    74
1070
     0
1000
MTEXTEND
  0
POINT
  5
18091
330
17DA8
100
AcDbEntity
  8
DEFPOINTS
 62
     0
 48
50.0
100
AcDbPoint
 10
7284.345763378644
 20
4504.4836699796
 30
0.0
  0
POINT
  5
18092
330
17DA8
100
AcDbEntity
  8
DEFPOINTS
 62
     0
 48
50.0
100
AcDbPoint
 10
4654.345763378644
 20
4553.674608490921
 30
0.0
  0
POINT
  5
18093
330
17DA8
100
AcDbEntity
  8
DEFPOINTS
 62
     0
 48
50.0
100
AcDbPoint
 10
4654.345763378644
 20
4956.33044394725
 30
0.0
  0
ENDBLK
  5
17DB3
330
17DA8
100
AcDbEntity
  8
0
 48
50.0
100
AcDbBlockEnd
  0
BLOCK
  5
17DBE
330
17DB4
100
AcDbEntity
  8
0
 48
50.0
100
AcDbBlockBegin
  2
*D23
 70
     1
 10
0.0
 20
0.0
 30
0.0
  3
*D23
  1

  0
LINE
  5
18082
330
17DB4
100
AcDbEntity
  8
寸法
 62
     0
 48
50.0
370
    -2
100
AcDbLine
 10
7381.345763378647
 20
2482.672990367946
 30
0.0
 11
8049.272921350775
 21
2482.672990367946
 31
0.0
  0
LINE
  5
18083
330
17DB4
100
AcDbEntity
  8
寸法
 62
     0
 48
50.0
370
    -2
100
AcDbLine
 10
7384.345763378644
 20
4502.672990367947
 30
0.0
 11
8049.272921350775
 21
4502.672990367947
 31
0.0
  0
LINE
  5
18084
330
17DB4
100
AcDbEntity
  8
寸法
 62
     0
 48
50.0
370
    -2
100
AcDbLine
 10
7989.272921350776
 20
2482.672990367946
 30
0.0
 11
7989.272921350776
 21
4502.672990367947
 31
0.0
  0
INSERT
  5
18085
330
17DB4
100
AcDbEntity
  8
寸法
 62
     0
 48
50.0
370
    -2
100
AcDbBlockReference
  2
_DOTSMALL
 10
7989.272921350776
 20
2482.672990367946
 30
0.0
 41
100.0
 42
100.0
 43
100.0
 50
270.0
  0
INSERT
  5
18086
330
17DB4
100
AcDbEntity
  8
寸法
 62
     0
 48
50.0
370
    -2
100
AcDbBlockReference
  2
_DOTSMALL
 10
7989.272921350776
 20
4502.672990367947
 30
0.0
 41
100.0
 42
100.0
 43
100.0
 50
90.0
  0
MTEXT
  5
18087
330
17DB4
100
AcDbEntity
  8
寸法
 62
     7
 48
50.0
100
AcDbMText
 10
7889.261110327153
 20
3492.672990367948
 30
0.0
 40
120.0
 41
0.0
 71
     5
 72
     1
  1
\A1;2020
  7
STYLE1
 11
0.0000000000000001
 21
1.0
 31
0.0
 73
     1
 44
1.0
1001
ACAD
1000
MTEXTBEGIN
1070
    73
1070
     1
1070
    44
1040
1.0
1070
    74
1070
     0
1000
MTEXTEND
  0
POINT
  5
18088
330
17DB4
100
AcDbEntity
  8
DEFPOINTS
 62
     0
 48
50.0
100
AcDbPoint
 10
7361.345763378648
 20
2482.672990367946
 30
0.0
  0
POINT
  5
18089
330
17DB4
100
AcDbEntity
  8
DEFPOINTS
 62
     0
 48
50.0
100
AcDbPoint
 10
7364.345763378643
 20
4502.672990367947
 30
0.0
  0
POINT
  5
1808A
330
17DB4
100
AcDbEntity
  8
DEFPOINTS
 62
     0
 48
50.0
100
AcDbPoint
 10
7989.272921350776
 20
4502.672990367947
 30
0.0
  0
ENDBLK
  5
17DBF
330
17DB4
100
AcDbEntity
  8
0
 48
50.0
100
AcDbBlockEnd
  0
BLOCK
  5
187BF
330
187B5
100
AcDbEntity
  8
0
 48
50.0
100
AcDbBlockBegin
  2
*D24
 70
     1
 10
0.0
 20
0.0
 30
0.0
  3
*D24
  1

  0
LINE
  5
18A9C
330
187B5
100
AcDbEntity
  8
寸法
 62
     0
 48
50.0
370
    -2
100
AcDbLine
 10
10746.44279271591
 20
4577.67299036795
 30
0.0
 11
10746.44279271591
 21
5016.766159707419
 31
0.0
  0
LINE
  5
18A9D
330
187B5
100
AcDbEntity
  8
寸法
 62
     0
 48
50.0
370
    -2
100
AcDbLine
 10
9376.44279271589
 20
4577.672990367951
 30
0.0
 11
9376.44279271589
 21
5016.766159707419
 31
0.0
  0
LINE
  5
18A9E
330
187B5
100
AcDbEntity
  8
寸法
 62
     0
 48
50.0
370
    -2
100
AcDbLine
 10
10746.44279271591
 20
4956.766159707418
 30
0.0
 11
9376.44279271589
 21
4956.766159707418
 31
0.0
  0
INSERT
  5
18A9F
330
187B5
100
AcDbEntity
  8
寸法
 62
     0
 48
50.0
370
    -2
100
AcDbBlockReference
  2
_DOTSMALL
 10
10746.44279271591
 20
4956.766159707418
 30
0.0
 41
100.0
 42
100.0
 43
100.0
  0
INSERT
  5
18AA0
330
187B5
100
AcDbEntity
  8
寸法
 62
     0
 48
50.0
370
    -2
100
AcDbBlockReference
  2
_DOTSMALL
 10
9376.44279271589
 20
4956.766159707418
 30
0.0
 41
100.0
 42
100.0
 43
100.0
 50
180.0
  0
MTEXT
  5
18AA1
330
187B5
100
AcDbEntity
  8
寸法
 62
     7
 48
50.0
100
AcDbMText
 10
10061.4427927159
 20
5056.766159707418
 30
0.0
 40
120.0
 41
0.0
 71
     5
 72
     1
  1
\A1;柱外寸法1370
  7
STYLE1
 73
     1
 44
1.0
1001
ACAD
1000
MTEXTBEGIN
1070
    73
1070
     1
1070
    44
1040
1.0
1070
    74
1070
     0
1000
MTEXTEND
  0
POINT
  5
18AA2
330
187B5
100
AcDbEntity
  8
DEFPOINTS
 62
     0
 48
50.0
100
AcDbPoint
 10
10746.44279271591
 20
4557.67299036795
 30
0.0
  0
POINT
  5
18AA3
330
187B5
100
AcDbEntity
  8
DEFPOINTS
 62
     0
 48
50.0
100
AcDbPoint
 10
9376.44279271589
 20
4557.672990367951
 30
0.0
  0
POINT
  5
18AA4
330
187B5
100
AcDbEntity
  8
DEFPOINTS
 62
     0
 48
50.0
100
AcDbPoint
 10
9376.44279271589
 20
4956.766159707418
 30
0.0
  0
ENDBLK
  5
187C0
330
187B5
100
AcDbEntity
  8
0
 48
50.0
100
AcDbBlockEnd
  0
BLOCK
  5
187CD
330
187C1
100
AcDbEntity
  8
0
 48
50.0
100
AcDbBlockBegin
  2
*D25
 70
     1
 10
0.0
 20
0.0
 30
0.0
  3
*D25
  1

  0
LINE
  5
18A91
330
187C1
100
AcDbEntity
  8
寸法
 62
     0
 48
50.0
370
    -2
100
AcDbLine
 10
9376.44279271589
 20
4577.672990367951
 30
0.0
 11
9376.44279271589
 21
5016.766159707419
 31
0.0
  0
LINE
  5
18A92
330
187C1
100
AcDbEntity
  8
寸法
 62
     0
 48
50.0
370
    -2
100
AcDbLine
 10
9326.442792715891
 20
4577.67299036795
 30
0.0
 11
9326.442792715891
 21
5016.766159707419
 31
0.0
  0
LINE
  5
18A93
330
187C1
100
AcDbEntity
  8
寸法
 62
     0
 48
50.0
370
    -2
100
AcDbLine
 10
9376.44279271589
 20
4956.766159707418
 30
0.0
 11
9476.442792715891
 21
4956.766159707418
 31
0.0
  0
LINE
  5
18A94
330
187C1
100
AcDbEntity
  8
寸法
 62
     0
 48
50.0
370
    -2
100
AcDbLine
 10
9326.442792715891
 20
4956.766159707418
 30
0.0
 11
8906.910267247155
 21
4956.766159707418
 31
0.0
  0
LINE
  5
18A95
330
187C1
100
AcDbEntity
  8
寸法
 62
     0
 48
50.0
370
    -2
100
AcDbLine
 10
9376.44279271589
 20
4956.766159707418
 30
0.0
 11
9326.442792715891
 21
4956.766159707418
 31
0.0
  0
INSERT
  5
18A96
330
187C1
100
AcDbEntity
  8
寸法
 62
     0
 48
50.0
370
    -2
100
AcDbBlockReference
  2
_DOTSMALL
 10
9376.44279271589
 20
4956.766159707418
 30
0.0
 41
100.0
 42
100.0
 43
100.0
 50
180.0
  0
INSERT
  5
18A97
330
187C1
100
AcDbEntity
  8
寸法
 62
     0
 48
50.0
370
    -2
100
AcDbBlockReference
  2
_DOTSMALL
 10
9326.442792715891
 20
4956.766159707418
 30
0.0
 41
100.0
 42
100.0
 43
100.0
  0
MTEXT
  5
18A98
330
187C1
100
AcDbEntity
  8
寸法
 62
     7
 48
50.0
100
AcDbMText
 10
9012.957511341644
 20
5056.766159707418
 30
0.0
 40
120.0
 41
0.0
 71
     5
 72
     1
  1
\A1;50
  7
STYLE1
 73
     1
 44
1.0
1001
ACAD
1000
MTEXTBEGIN
1070
    73
1070
     1
1070
    44
1040
1.0
1070
    74
1070
     0
1000
MTEXTEND
  0
POINT
  5
18A99
330
187C1
100
AcDbEntity
  8
DEFPOINTS
 62
     0
 48
50.0
100
AcDbPoint
 10
9376.44279271589
 20
4557.672990367951
 30
0.0
  0
POINT
  5
18A9A
330
187C1
100
AcDbEntity
  8
DEFPOINTS
 62
     0
 48
50.0
100
AcDbPoint
 10
9326.442792715891
 20
4557.67299036795
 30
0.0
  0
POINT
  5
18A9B
330
187C1
100
AcDbEntity
  8
DEFPOINTS
 62
     0
 48
50.0
100
AcDbPoint
 10
9326.442792715891
 20
4956.766159707418
 30
0.0
  0
ENDBLK
  5
187CE
330
187C1
100
AcDbEntity
  8
0
 48
50.0
100
AcDbBlockEnd
  0
BLOCK
  5
187DB
330
187CF
100
AcDbEntity
  8
0
 48
50.0
100
AcDbBlockBegin
  2
*D26
 70
     1
 10
0.0
 20
0.0
 30
0.0
  3
*D26
  1

  0
LINE
  5
18A86
330
187CF
100
AcDbEntity
  8
寸法
 62
     0
 48
50.0
370
    -2
100
AcDbLine
 10
10796.44279271591
 20
4577.672990367948
 30
0.0
 11
10796.44279271591
 21
5016.766159707419
 31
0.0
  0
LINE
  5
18A87
330
187CF
100
AcDbEntity
  8
寸法
 62
     0
 48
50.0
370
    -2
100
AcDbLine
 10
10746.44279271591
 20
4577.67299036795
 30
0.0
 11
10746.44279271591
 21
5016.766159707419
 31
0.0
  0
LINE
  5
18A88
330
187CF
100
AcDbEntity
  8
寸法
 62
     0
 48
50.0
370
    -2
100
AcDbLine
 10
10746.44279271591
 20
4956.766159707418
 30
0.0
 11
10646.44279271591
 21
4956.766159707418
 31
0.0
  0
LINE
  5
18A89
330
187CF
100
AcDbEntity
  8
寸法
 62
     0
 48
50.0
370
    -2
100
AcDbLine
 10
10796.44279271591
 20
4956.766159707418
 30
0.0
 11
11215.97531818463
 21
4956.766159707418
 31
0.0
  0
LINE
  5
18A8A
330
187CF
100
AcDbEntity
  8
寸法
 62
     0
 48
50.0
370
    -2
100
AcDbLine
 10
10746.44279271591
 20
4956.766159707418
 30
0.0
 11
10796.44279271591
 21
4956.766159707418
 31
0.0
  0
INSERT
  5
18A8B
330
187CF
100
AcDbEntity
  8
寸法
 62
     0
 48
50.0
370
    -2
100
AcDbBlockReference
  2
_DOTSMALL
 10
10746.44279271591
 20
4956.766159707418
 30
0.0
 41
100.0
 42
100.0
 43
100.0
  0
INSERT
  5
18A8C
330
187CF
100
AcDbEntity
  8
寸法
 62
     0
 48
50.0
370
    -2
100
AcDbBlockReference
  2
_DOTSMALL
 10
10796.44279271591
 20
4956.766159707418
 30
0.0
 41
100.0
 42
100.0
 43
100.0
 50
180.0
  0
MTEXT
  5
18A8D
330
187CF
100
AcDbEntity
  8
寸法
 62
     7
 48
50.0
100
AcDbMText
 10
11109.92807409014
 20
5056.766159707418
 30
0.0
 40
120.0
 41
0.0
 71
     5
 72
     1
  1
\A1;50
  7
STYLE1
 73
     1
 44
1.0
1001
ACAD
1000
MTEXTBEGIN
1070
    73
1070
     1
1070
    44
1040
1.0
1070
    74
1070
     0
1000
MTEXTEND
  0
POINT
  5
18A8E
330
187CF
100
AcDbEntity
  8
DEFPOINTS
 62
     0
 48
50.0
100
AcDbPoint
 10
10796.44279271591
 20
4557.672990367947
 30
0.0
  0
POINT
  5
18A8F
330
187CF
100
AcDbEntity
  8
DEFPOINTS
 62
     0
 48
50.0
100
AcDbPoint
 10
10746.44279271591
 20
4557.67299036795
 30
0.0
  0
POINT
  5
18A90
330
187CF
100
AcDbEntity
  8
DEFPOINTS
 62
     0
 48
50.0
100
AcDbPoint
 10
10746.44279271591
 20
4956.766159707418
 30
0.0
  0
ENDBLK
  5
187DC
330
187CF
100
AcDbEntity
  8
0
 48
50.0
100
AcDbBlockEnd
  0
BLOCK
  5
187E7
330
187DD
100
AcDbEntity
  8
0
 48
50.0
100
AcDbBlockBegin
  2
*D27
 70
     1
 10
0.0
 20
0.0
 30
0.0
  3
*D27
  1

  0
LINE
  5
18A7D
330
187DD
100
AcDbEntity
  8
寸法
 62
     0
 48
50.0
370
    -2
100
AcDbLine
 10
9326.442792715891
 20
4577.67299036795
 30
0.0
 11
9326.442792715891
 21
5233.292259325864
 31
0.0
  0
LINE
  5
18A7E
330
187DD
100
AcDbEntity
  8
寸法
 62
     0
 48
50.0
370
    -2
100
AcDbLine
 10
10796.44279271591
 20
4577.672990367948
 30
0.0
 11
10796.44279271591
 21
5233.292259325864
 31
0.0
  0
LINE
  5
18A7F
330
187DD
100
AcDbEntity
  8
寸法
 62
     0
 48
50.0
370
    -2
100
AcDbLine
 10
9326.442792715891
 20
5173.292259325863
 30
0.0
 11
10796.44279271591
 21
5173.292259325863
 31
0.0
  0
INSERT
  5
18A80
330
187DD
100
AcDbEntity
  8
寸法
 62
     0
 48
50.0
370
    -2
100
AcDbBlockReference
  2
_DOTSMALL
 10
9326.442792715891
 20
5173.292259325863
 30
0.0
 41
100.0
 42
100.0
 43
100.0
 50
180.0
  0
INSERT
  5
18A81
330
187DD
100
AcDbEntity
  8
寸法
 62
     0
 48
50.0
370
    -2
100
AcDbBlockReference
  2
_DOTSMALL
 10
10796.44279271591
 20
5173.292259325863
 30
0.0
 41
100.0
 42
100.0
 43
100.0
  0
MTEXT
  5
18A82
330
187DD
100
AcDbEntity
  8
寸法
 62
     7
 48
50.0
100
AcDbMText
 10
10061.4427927159
 20
5273.292259325863
 30
0.0
 40
120.0
 41
0.0
 71
     5
 72
     1
  1
\A1;1470
  7
STYLE1
 73
     1
 44
1.0
1001
ACAD
1000
MTEXTBEGIN
1070
    73
1070
     1
1070
    44
1040
1.0
1070
    74
1070
     0
1000
MTEXTEND
  0
POINT
  5
18A83
330
187DD
100
AcDbEntity
  8
DEFPOINTS
 62
     0
 48
50.0
100
AcDbPoint
 10
9326.442792715891
 20
4557.67299036795
 30
0.0
  0
POINT
  5
18A84
330
187DD
100
AcDbEntity
  8
DEFPOINTS
 62
     0
 48
50.0
100
AcDbPoint
 10
10796.44279271591
 20
4557.672990367947
 30
0.0
  0
POINT
  5
18A85
330
187DD
100
AcDbEntity
  8
DEFPOINTS
 62
     0
 48
50.0
100
AcDbPoint
 10
10796.44279271591
 20
5173.292259325863
 30
0.0
  0
ENDBLK
  5
187E8
330
187DD
100
AcDbEntity
  8
0
 48
50.0
100
AcDbBlockEnd
  0
BLOCK
  5
188A4
330
1889A
100
AcDbEntity
  8
0
 48
50.0
100
AcDbBlockBegin
  2
*D28
 70
     1
 10
0.0
 20
0.0
 30
0.0
  3
*D28
  1

  0
LINE
  5
18A74
330
1889A
100
AcDbEntity
  8
寸法
 62
     0
 48
50.0
370
    -2
100
AcDbLine
 10
9384.442792715907
 20
4265.672990367945
 30
0.0
 11
9045.236763503757
 21
4265.672990367945
 31
0.0
  0
LINE
  5
18A75
330
1889A
100
AcDbEntity
  8
寸法
 62
     0
 48
50.0
370
    -2
100
AcDbLine
 10
9384.442792715907
 20
2540.672990367945
 30
0.0
 11
9045.236763503757
 21
2540.672990367946
 31
0.0
  0
LINE
  5
18A76
330
1889A
100
AcDbEntity
  8
寸法
 62
     0
 48
50.0
370
    -2
100
AcDbLine
 10
9105.236763503757
 20
4265.672990367945
 30
0.0
 11
9105.236763503755
 21
2540.672990367946
 31
0.0
  0
INSERT
  5
18A77
330
1889A
100
AcDbEntity
  8
寸法
 62
     0
 48
50.0
370
    -2
100
AcDbBlockReference
  2
_DOTSMALL
 10
9105.236763503757
 20
4265.672990367945
 30
0.0
 41
100.0
 42
100.0
 43
100.0
 50
90.0
  0
INSERT
  5
18A78
330
1889A
100
AcDbEntity
  8
寸法
 62
     0
 48
50.0
370
    -2
100
AcDbBlockReference
  2
_DOTSMALL
 10
9105.236763503755
 20
2540.672990367946
 30
0.0
 41
100.0
 42
100.0
 43
100.0
 50
270.0
  0
MTEXT
  5
18A79
330
1889A
100
AcDbEntity
  8
寸法
 62
     7
 48
50.0
100
AcDbMText
 10
9005.224952480133
 20
3394.30600938547
 30
0.0
 40
120.0
 41
0.0
 71
     5
 72
     1
  1
\A1;有効開口部高サ1725
  7
STYLE1
 11
0.0000000000000001
 21
1.0
 31
0.0
 73
     1
 44
1.0
1001
ACAD
1000
MTEXTBEGIN
1070
    73
1070
     1
1070
    44
1040
1.0
1070
    74
1070
     0
1000
MTEXTEND
  0
POINT
  5
18A7A
330
1889A
100
AcDbEntity
  8
DEFPOINTS
 62
     0
 48
50.0
100
AcDbPoint
 10
9404.442792715906
 20
4265.672990367945
 30
0.0
  0
POINT
  5
18A7B
330
1889A
100
AcDbEntity
  8
DEFPOINTS
 62
     0
 48
50.0
100
AcDbPoint
 10
9404.442792715906
 20
2540.672990367945
 30
0.0
  0
POINT
  5
18A7C
330
1889A
100
AcDbEntity
  8
DEFPOINTS
 62
     0
 48
50.0
100
AcDbPoint
 10
9105.236763503755
 20
2540.672990367946
 30
0.0
  0
ENDBLK
  5
188A5
330
1889A
100
AcDbEntity
  8
0
 48
50.0
100
AcDbBlockEnd
  0
BLOCK
  5
18908
330
188FE
100
AcDbEntity
  8
0
 48
50.0
100
AcDbBlockBegin
  2
*D29
 70
     1
 10
0.0
 20
0.0
 30
0.0
  3
*D29
  1

  0
LINE
  5
18A6B
330
188FE
100
AcDbEntity
  8
寸法
 62
     0
 48
50.0
370
    -2
100
AcDbLine
 10
9466.442792715891
 20
2162.672990367946
 30
0.0
 11
9466.442792715891
 21
1836.625661067568
 31
0.0
  0
LINE
  5
18A6C
330
188FE
100
AcDbEntity
  8
寸法
 62
     0
 48
50.0
370
    -2
100
AcDbLine
 10
9266.442792715888
 20
2162.672990367946
 30
0.0
 11
9266.442792715888
 21
1836.625661067568
 31
0.0
  0
LINE
  5
18A6D
330
188FE
100
AcDbEntity
  8
寸法
 62
     0
 48
50.0
370
    -2
100
AcDbLine
 10
9466.442792715891
 20
1896.625661067568
 30
0.0
 11
9266.442792715888
 21
1896.625661067568
 31
0.0
  0
INSERT
  5
18A6E
330
188FE
100
AcDbEntity
  8
寸法
 62
     0
 48
50.0
370
    -2
100
AcDbBlockReference
  2
_DOTSMALL
 10
9466.442792715891
 20
1896.625661067568
 30
0.0
 41
100.0
 42
100.0
 43
100.0
  0
INSERT
  5
18A6F
330
188FE
100
AcDbEntity
  8
寸法
 62
     0
 48
50.0
370
    -2
100
AcDbBlockReference
  2
_DOTSMALL
 10
9266.442792715888
 20
1896.625661067568
 30
0.0
 41
100.0
 42
100.0
 43
100.0
 50
180.0
  0
MTEXT
  5
18A70
330
188FE
100
AcDbEntity
  8
寸法
 62
     7
 48
50.0
100
AcDbMText
 10
9366.442792715892
 20
1996.63747209119
 30
0.0
 40
120.0
 41
0.0
 71
     5
 72
     1
  1
\A1;200
  7
STYLE1
 73
     1
 44
1.0
1001
ACAD
1000
MTEXTBEGIN
1070
    73
1070
     1
1070
    44
1040
1.0
1070
    74
1070
     0
1000
MTEXTEND
  0
POINT
  5
18A71
330
188FE
100
AcDbEntity
  8
DEFPOINTS
 62
     0
 48
50.0
100
AcDbPoint
 10
9466.442792715891
 20
2182.672990367946
 30
0.0
  0
POINT
  5
18A72
330
188FE
100
AcDbEntity
  8
DEFPOINTS
 62
     0
 48
50.0
100
AcDbPoint
 10
9266.442792715888
 20
2182.672990367946
 30
0.0
  0
POINT
  5
18A73
330
188FE
100
AcDbEntity
  8
DEFPOINTS
 62
     0
 48
50.0
100
AcDbPoint
 10
9266.442792715888
 20
1896.625661067568
 30
0.0
  0
ENDBLK
  5
18909
330
188FE
100
AcDbEntity
  8
0
 48
50.0
100
AcDbBlockEnd
  0
BLOCK
  5
18C29
330
18C1F
100
AcDbEntity
  8
0
 48
50.0
100
AcDbBlockBegin
  2
*D30
 70
     1
 10
0.0
 20
0.0
 30
0.0
  3
*D30
  1

  0
LINE
  5
1907A
330
18C1F
100
AcDbEntity
  8
寸法
 62
     0
 48
50.0
370
    -2
100
AcDbLine
 10
9443.442792715783
 20
7453.961843122939
 30
0.0
 11
9443.442792715783
 21
6809.832468425637
 31
0.0
  0
LINE
  5
1907B
330
18C1F
100
AcDbEntity
  8
寸法
 62
     0
 48
50.0
370
    -2
100
AcDbLine
 10
10117.44279271578
 20
7453.961843122939
 30
0.0
 11
10117.44279271578
 21
6809.832468425637
 31
0.0
  0
LINE
  5
1907C
330
18C1F
100
AcDbEntity
  8
寸法
 62
     0
 48
50.0
370
    -2
100
AcDbLine
 10
9463.442792715783
 20
6849.832468425637
 30
0.0
 11
10097.44279271578
 21
6849.832468425637
 31
0.0
  0
INSERT
  5
1907D
330
18C1F
100
AcDbEntity
  8
寸法
 62
     0
 48
50.0
370
    -2
100
AcDbBlockReference
  2
_DOT
 10
9443.442792715783
 20
6849.832468425637
 30
0.0
 41
20.0
 42
20.0
 43
20.0
 50
180.0
  0
INSERT
  5
1907E
330
18C1F
100
AcDbEntity
  8
寸法
 62
     0
 48
50.0
370
    -2
100
AcDbBlockReference
  2
_DOT
 10
10117.44279271578
 20
6849.832468425637
 30
0.0
 41
20.0
 42
20.0
 43
20.0
  0
MTEXT
  5
1907F
330
18C1F
100
AcDbEntity
  8
寸法
 62
     7
 48
50.0
100
AcDbMText
 10
9780.442792715783
 20
7041.832468425638
 30
0.0
 40
120.0
 41
0.0
 71
     5
 72
     1
  1
\A1;有効開口部間口\P674
  7
STYLE1
 73
     1
 44
1.0
1001
ACAD
1000
MTEXTBEGIN
1070
    73
1070
     1
1070
    44
1040
1.0
1070
    74
1070
     0
1000
MTEXTEND
  0
POINT
  5
19080
330
18C1F
100
AcDbEntity
  8
DEFPOINTS
 62
     0
 48
50.0
100
AcDbPoint
 10
9443.442792715783
 20
7473.961843122939
 30
0.0
  0
POINT
  5
19081
330
18C1F
100
AcDbEntity
  8
DEFPOINTS
 62
     0
 48
50.0
100
AcDbPoint
 10
10117.44279271578
 20
7473.961843122939
 30
0.0
  0
POINT
  5
19082
330
18C1F
100
AcDbEntity
  8
DEFPOINTS
 62
     0
 48
50.0
100
AcDbPoint
 10
10117.44279271578
 20
6849.832468425637
 30
0.0
  0
ENDBLK
  5
18C2A
330
18C1F
100
AcDbEntity
  8
0
 48
50.0
100
AcDbBlockEnd
  0
BLOCK
  5
18F12
330
18F06
100
AcDbEntity
  8
0
 48
50.0
100
AcDbBlockBegin
  2
*D31
 70
     1
 10
0.0
 20
0.0
 30
0.0
  3
*D31
  1

  0
LINE
  5
1906F
330
18F06
100
AcDbEntity
  8
寸法
 62
     0
 48
50.0
370
    -2
100
AcDbLine
 10
9356.442792715736
 20
7550.961843122937
 30
0.0
 11
9041.831547089019
 21
7550.961843122937
 31
0.0
  0
LINE
  5
19070
330
18F06
100
AcDbEntity
  8
寸法
 62
     0
 48
50.0
370
    -2
100
AcDbLine
 10
9384.442792715715
 20
7475.961843122937
 30
0.0
 11
9041.831547089019
 21
7475.961843122937
 31
0.0
  0
LINE
  5
19071
330
18F06
100
AcDbEntity
  8
寸法
 62
     0
 48
50.0
370
    -2
100
AcDbLine
 10
9081.83154708902
 20
7570.961843122937
 30
0.0
 11
9081.83154708902
 21
7590.961843122937
 31
0.0
  0
LINE
  5
19072
330
18F06
100
AcDbEntity
  8
寸法
 62
     0
 48
50.0
370
    -2
100
AcDbLine
 10
9081.83154708902
 20
7455.961843122938
 30
0.0
 11
9081.83154708902
 21
7234.991280374458
 31
0.0
  0
LINE
  5
19073
330
18F06
100
AcDbEntity
  8
寸法
 62
     0
 48
50.0
370
    -2
100
AcDbLine
 10
9081.83154708902
 20
7550.961843122937
 30
0.0
 11
9081.83154708902
 21
7475.961843122937
 31
0.0
  0
INSERT
  5
19074
330
18F06
100
AcDbEntity
  8
寸法
 62
     0
 48
50.0
370
    -2
100
AcDbBlockReference
  2
_DOT
 10
9081.83154708902
 20
7550.961843122937
 30
0.0
 41
20.0
 42
20.0
 43
20.0
 50
270.0
  0
INSERT
  5
19075
330
18F06
100
AcDbEntity
  8
寸法
 62
     0
 48
50.0
370
    -2
100
AcDbBlockReference
  2
_DOT
 10
9081.83154708902
 20
7475.961843122937
 30
0.0
 41
20.0
 42
20.0
 43
20.0
 50
90.0
  0
MTEXT
  5
19076
330
18F06
100
AcDbEntity
  8
寸法
 62
     7
 48
50.0
100
AcDbMText
 10
8989.831547089018
 20
7335.476561748698
 30
0.0
 40
120.0
 41
0.0
 71
     5
 72
     1
  1
\A1;75
  7
STYLE1
 11
0.0000000000000001
 21
1.0
 31
0.0
 73
     1
 44
1.0
1001
ACAD
1000
MTEXTBEGIN
1070
    73
1070
     1
1070
    44
1040
1.0
1070
    74
1070
     0
1000
MTEXTEND
  0
POINT
  5
19077
330
18F06
100
AcDbEntity
  8
DEFPOINTS
 62
     0
 48
50.0
100
AcDbPoint
 10
9376.442792715735
 20
7550.961843122937
 30
0.0
  0
POINT
  5
19078
330
18F06
100
AcDbEntity
  8
DEFPOINTS
 62
     0
 48
50.0
100
AcDbPoint
 10
9404.442792715714
 20
7475.961843122937
 30
0.0
  0
POINT
  5
19079
330
18F06
100
AcDbEntity
  8
DEFPOINTS
 62
     0
 48
50.0
100
AcDbPoint
 10
9081.83154708902
 20
7475.961843122937
 30
0.0
  0
ENDBLK
  5
18F13
330
18F06
100
AcDbEntity
  8
0
 48
50.0
100
AcDbBlockEnd
  0
BLOCK
  5
18F2A
330
18F20
100
AcDbEntity
  8
0
 48
50.0
100
AcDbBlockBegin
  2
*D32
 70
     1
 10
0.0
 20
0.0
 30
0.0
  3
*D32
  1

  0
LINE
  5
19066
330
18F20
100
AcDbEntity
  8
寸法
 62
     0
 48
50.0
370
    -2
100
AcDbLine
 10
9404.442792715714
 20
7453.961843122937
 30
0.0
 11
9404.442792715714
 21
6563.349979118846
 31
0.0
  0
LINE
  5
19067
330
18F20
100
AcDbEntity
  8
寸法
 62
     0
 48
50.0
370
    -2
100
AcDbLine
 10
10718.44279271571
 20
7453.961843122937
 30
0.0
 11
10718.44279271571
 21
6563.349979118846
 31
0.0
  0
LINE
  5
19068
330
18F20
100
AcDbEntity
  8
寸法
 62
     0
 48
50.0
370
    -2
100
AcDbLine
 10
9404.442792715714
 20
6623.349979118846
 30
0.0
 11
10718.44279271571
 21
6623.349979118846
 31
0.0
  0
INSERT
  5
19069
330
18F20
100
AcDbEntity
  8
寸法
 62
     0
 48
50.0
370
    -2
100
AcDbBlockReference
  2
_DOTSMALL
 10
9404.442792715714
 20
6623.349979118846
 30
0.0
 41
100.0
 42
100.0
 43
100.0
 50
180.0
  0
INSERT
  5
1906A
330
18F20
100
AcDbEntity
  8
寸法
 62
     0
 48
50.0
370
    -2
100
AcDbBlockReference
  2
_DOTSMALL
 10
10718.44279271571
 20
6623.349979118846
 30
0.0
 41
100.0
 42
100.0
 43
100.0
  0
MTEXT
  5
1906B
330
18F20
100
AcDbEntity
  8
寸法
 62
     7
 48
50.0
100
AcDbMText
 10
10061.44279271571
 20
6723.349979118847
 30
0.0
 40
120.0
 41
0.0
 71
     5
 72
     1
  1
\A1;1314
  7
STYLE1
 73
     1
 44
1.0
1001
ACAD
1000
MTEXTBEGIN
1070
    73
1070
     1
1070
    44
1040
1.0
1070
    74
1070
     0
1000
MTEXTEND
  0
POINT
  5
1906C
330
18F20
100
AcDbEntity
  8
DEFPOINTS
 62
     0
 48
50.0
100
AcDbPoint
 10
9404.442792715714
 20
7473.961843122937
 30
0.0
  0
POINT
  5
1906D
330
18F20
100
AcDbEntity
  8
DEFPOINTS
 62
     0
 48
50.0
100
AcDbPoint
 10
10718.44279271571
 20
7473.961843122937
 30
0.0
  0
POINT
  5
1906E
330
18F20
100
AcDbEntity
  8
DEFPOINTS
 62
     0
 48
50.0
100
AcDbPoint
 10
10718.44279271571
 20
6623.349979118846
 30
0.0
  0
ENDBLK
  5
18F2B
330
18F20
100
AcDbEntity
  8
0
 48
50.0
100
AcDbBlockEnd
  0
BLOCK
  5
18F36
330
18F2C
100
AcDbEntity
  8
0
 48
50.0
100
AcDbBlockBegin
  2
*D33
 70
     1
 10
0.0
 20
0.0
 30
0.0
  3
*D33
  1

  0
LINE
  5
1905D
330
18F2C
100
AcDbEntity
  8
寸法
 62
     0
 48
50.0
370
    -2
100
AcDbLine
 10
9376.442792715735
 20
7530.961843122952
 30
0.0
 11
9376.442792715735
 21
6329.273015409121
 31
0.0
  0
LINE
  5
1905E
330
18F2C
100
AcDbEntity
  8
寸法
 62
     0
 48
50.0
370
    -2
100
AcDbLine
 10
10746.44279271581
 20
7530.961843122925
 30
0.0
 11
10746.44279271581
 21
6329.273015409121
 31
0.0
  0
LINE
  5
1905F
330
18F2C
100
AcDbEntity
  8
寸法
 62
     0
 48
50.0
370
    -2
100
AcDbLine
 10
9376.442792715735
 20
6389.27301540912
 30
0.0
 11
10746.44279271581
 21
6389.27301540912
 31
0.0
  0
INSERT
  5
19060
330
18F2C
100
AcDbEntity
  8
寸法
 62
     0
 48
50.0
370
    -2
100
AcDbBlockReference
  2
_DOTSMALL
 10
9376.442792715735
 20
6389.27301540912
 30
0.0
 41
100.0
 42
100.0
 43
100.0
 50
180.0
  0
INSERT
  5
19061
330
18F2C
100
AcDbEntity
  8
寸法
 62
     0
 48
50.0
370
    -2
100
AcDbBlockReference
  2
_DOTSMALL
 10
10746.44279271581
 20
6389.27301540912
 30
0.0
 41
100.0
 42
100.0
 43
100.0
  0
MTEXT
  5
19062
330
18F2C
100
AcDbEntity
  8
寸法
 62
     7
 48
50.0
100
AcDbMText
 10
10058.86477747622
 20
6489.273015409121
 30
0.0
 40
120.0
 41
0.0
 71
     5
 72
     1
  1
\A1;1370
  7
STYLE1
 73
     1
 44
1.0
1001
ACAD
1000
MTEXTBEGIN
1070
    73
1070
     1
1070
    44
1040
1.0
1070
    74
1070
     0
1000
MTEXTEND
  0
POINT
  5
19063
330
18F2C
100
AcDbEntity
  8
DEFPOINTS
 62
     0
 48
50.0
100
AcDbPoint
 10
9376.442792715735
 20
7550.961843122952
 30
0.0
  0
POINT
  5
19064
330
18F2C
100
AcDbEntity
  8
DEFPOINTS
 62
     0
 48
50.0
100
AcDbPoint
 10
10746.44279271581
 20
7550.961843122924
 30
0.0
  0
POINT
  5
19065
330
18F2C
100
AcDbEntity
  8
DEFPOINTS
 62
     0
 48
50.0
100
AcDbPoint
 10
10746.44279271581
 20
6389.27301540912
 30
0.0
  0
ENDBLK
  5
18F37
330
18F2C
100
AcDbEntity
  8
0
 48
50.0
100
AcDbBlockEnd
  0
ENDSEC
  0
SECTION
  2
ENTITIES
  0
LINE
  5
10B57
330
747D
100
AcDbEntity
  8
補助
  6
PHANTOM
 62
   230
 48
50.0
100
AcDbLine
 10
139.9999999999995
 20
11409.6
 30
0.0
 11
16307.2
 21
11409.6
 31
0.0
  0
LINE
  5
10B59
330
747D
100
AcDbEntity
  8
仕様書枠
  6
Continuous
 48
50.0
100
AcDbLine
 10
13107.2
 20
1200.0
 30
0.0
 11
13107.2
 21
-0.0000000000000729
 31
0.0
  0
LINE
  5
10B5C
330
747D
100
AcDbEntity
  8
仕様書枠
 48
50.0
100
AcDbLine
 10
16307.2
 20
1200.0
 30
0.0
 11
16307.2
 21
-0.0000000000000909
 31
0.0
  0
LINE
  5
10B5D
330
747D
100
AcDbEntity
  8
仕様書枠
 48
50.0
100
AcDbLine
 10
140.0
 20
0.0
 30
0.0
 11
16307.2
 21
-0.0000000000000909
 31
0.0
  0
LINE
  5
10B5E
330
747D
100
AcDbEntity
  8
補助
  6
PHANTOM
 62
   230
 48
50.0
100
AcDbLine
 10
16307.2
 20
11409.6
 30
0.0
 11
16307.2
 21
1200.0
 31
0.0
  0
LINE
  5
10B6C
330
747D
100
AcDbEntity
  8
仕様書枠
 48
50.0
100
AcDbLine
 10
13107.2
 20
1200.0
 30
0.0
 11
16307.2
 21
1200.0
 31
0.0
  0
LINE
  5
10B6D
330
747D
100
AcDbEntity
  8
補助
  6
PHANTOM
 62
   230
 48
50.0
100
AcDbLine
 10
13107.2
 20
11409.6
 30
0.0
 11
13107.2
 21
4800.0
 31
0.0
  0
LINE
  5
10B6F
330
747D
100
AcDbEntity
  8
補助
  6
PHANTOM
 62
   230
 48
50.0
100
AcDbLine
 10
13107.2
 20
4800.0
 30
0.0
 11
16307.2
 21
4800.0
 31
0.0
  0
LINE
  5
10B72
330
747D
100
AcDbEntity
  8
文字
 62
     7
 48
50.0
100
AcDbLine
 10
13187.2
 20
400.0
 30
0.0
 11
16227.2
 21
400.0
 31
0.0
  0
TEXT
  5
10B73
330
747D
100
AcDbEntity
  8
文字
 62
     7
 48
50.0
100
AcDbText
 10
13162.9790565769
 20
895.0906074299405
 30
0.0
 40
200.0
  1
外 形 図
  7
STYLE2
100
AcDbText
  0
TEXT
  5
10B74
330
747D
100
AcDbEntity
  8
文字
 62
     7
 48
50.0
100
AcDbText
 10
13201.43669998441
 20
477.2740661031255
 30
0.0
 40
160.0
  1
機種名
  7
STYLE2
100
AcDbText
  0
TEXT
  5
10B76
330
747D
100
AcDbEntity
  8
文字
 62
     7
 48
50.0
100
AcDbText
 10
13209.4053442172
 20
76.09434707649343
 30
0.0
 40
100.0
  1
○床面積 ： 3.70㎡(1.12坪) 　
  7
STYLE2
100
AcDbText
  0
TEXT
  5
10B79
330
747D
100
AcDbEntity
  8
文字
 62
     7
 48
50.0
100
AcDbText
 10
14524.131837222
 20
1031.557706291228
 30
0.0
 40
100.0
  1
NO.03      <縮尺> S=1/40
  7
STYLE2
100
AcDbText
  0
LINE
  5
10B7B
330
747D
100
AcDbEntity
  8
仕様書枠
 48
50.0
100
AcDbLine
 10
13107.2
 20
800.0
 30
0.0
 11
14251.2
 21
800.0
 31
0.0
  0
LINE
  5
10B88
330
747D
100
AcDbEntity
  8
仕様書枠
  6
Continuous
 48
50.0
100
AcDbLine
 10
14251.2
 20
1200.0
 30
0.0
 11
14251.2
 21
800.0
 31
0.0
  0
LINE
  5
12765
330
747D
100
AcDbEntity
  8
Ｇ．Ｌ
100
AcDbLine
 10
2782.580223913421
 20
2382.672990367945
 30
0.0
 11
11514.88732774767
 21
2382.672990367945
 31
0.0
  0
TEXT
  5
127AA
330
747D
100
AcDbEntity
  8
部品1
100
AcDbText
 10
2832.926663414299
 20
2418.779893973847
 30
0.0
 40
125.0
  1
▽G.L
  7
STYLE2
100
AcDbText
  0
TEXT
  5
149A1
330
747D
100
AcDbEntity
  8
部品1
100
AcDbText
 10
9770.232863485272
 20
1534.952857704939
 30
0.0
 40
135.0
  1
正面図
  7
STYLE2
100
AcDbText
  0
TEXT
  5
149A3
330
747D
100
AcDbEntity
  8
部品1
100
AcDbText
 10
5687.056531688032
 20
1534.952857704939
 30
0.0
 40
135.0
  1
側面図
  7
STYLE2
100
AcDbText
  0
TEXT
  5
14D2F
330
747D
100
AcDbEntity
  8
文字
 62
     7
 48
50.0
100
AcDbText
 10
14644.07818602837
 20
876.4448062548634
 30
0.0
 40
100.0
  1
～一般型・多雪地型～
  7
STYLE2
100
AcDbText
  0
LINE
  5
16FD2
330
747D
100
AcDbEntity
  8
部品1
100
AcDbLine
 10
9679.707459747318
 20
1727.846386923464
 30
0.0
 11
9679.707459747318
 21
1487.954065377931
 31
0.0
  0
LINE
  5
16FD3
330
747D
100
AcDbEntity
  8
部品1
100
AcDbLine
 10
9679.707459747318
 20
1487.954065377931
 30
0.0
 11
10443.17812597575
 21
1487.954065377931
 31
0.0
  0
LINE
  5
16FD4
330
747D
100
AcDbEntity
  8
部品1
100
AcDbLine
 10
10443.17812597575
 20
1487.954065377931
 30
0.0
 11
10443.17812597575
 21
1727.846386923464
 31
0.0
  0
LINE
  5
16FD5
330
747D
100
AcDbEntity
  8
部品1
100
AcDbLine
 10
10443.17812597575
 20
1727.846386923464
 30
0.0
 11
9679.707459747318
 21
1727.846386923464
 31
0.0
  0
LINE
  5
16FD6
330
747D
100
AcDbEntity
  8
部品1
100
AcDbLine
 10
5597.610430264424
 20
1727.846386923464
 30
0.0
 11
5597.610430264424
 21
1487.954065377931
 31
0.0
  0
LINE
  5
16FD7
330
747D
100
AcDbEntity
  8
部品1
100
AcDbLine
 10
5597.610430264424
 20
1487.954065377931
 30
0.0
 11
6361.081096492863
 21
1487.954065377931
 31
0.0
  0
LINE
  5
16FD8
330
747D
100
AcDbEntity
  8
部品1
100
AcDbLine
 10
6361.081096492863
 20
1487.954065377931
 30
0.0
 11
6361.081096492863
 21
1727.846386923464
 31
0.0
  0
LINE
  5
16FD9
330
747D
100
AcDbEntity
  8
部品1
100
AcDbLine
 10
6361.081096492863
 20
1727.846386923464
 30
0.0
 11
5597.610430264424
 21
1727.846386923464
 31
0.0
  0
LINE
  5
1742E
330
747D
100
AcDbEntity
  8
部品1
100
AcDbLine
 10
7276.845763378644
 20
2482.672990367945
 30
0.0
 11
7284.345763378647
 21
2482.672990367945
 31
0.0
  0
LINE
  5
1745F
330
747D
100
AcDbEntity
  8
部品1
100
AcDbLine
 10
4654.345763378644
 20
2482.672990367945
 30
0.0
 11
4661.845763378644
 21
2482.672990367945
 31
0.0
  0
MTEXT
  5
1747B
330
747D
100
AcDbEntity
  8
寸法
 62
     7
 48
50.0
100
AcDbMText
 10
10335.61053406242
 20
9515.907591375407
 30
0.0
 40
96.0
 41
0.0
 71
     5
 72
     1
  1
棚 2段
  7
STYLE1
 11
0.0000000000000001
 21
1.0
 31
0.0
 73
     1
 44
1.0
1001
ACAD
1000
MTEXTBEGIN
1070
    73
1070
     1
1070
    44
1040
1.0
1070
    74
1070
     0
1000
MTEXTEND
  0
LINE
  5
1747E
330
747D
100
AcDbEntity
  8
部品1
100
AcDbLine
 10
10746.44279271593
 20
9705.961843122954
 30
0.0
 11
10718.44279271593
 21
9705.961843122954
 31
0.0
  0
LINE
  5
1747F
330
747D
100
AcDbEntity
  8
部品1
100
AcDbLine
 10
9404.442792716052
 20
9705.961843123027
 30
0.0
 11
9376.442792716051
 21
9705.961843123027
 31
0.0
  0
TEXT
  5
17480
330
747D
100
AcDbEntity
  8
文字
 62
     7
 48
50.0
100
AcDbText
 10
13209.4053442172
 20
240.9505980484264
 30
0.0
 40
100.0
  1
○有効開口寸法 ： 674×1725(mm)
  7
STYLE2
100
AcDbText
  0
LINE
  5
17481
330
747D
100
AcDbEntity
  8
部品1
100
AcDbLine
 10
10746.44279271578
 20
7605.961843122925
 30
0.0
 11
10718.44279271578
 21
7605.961843122925
 31
0.0
  0
LINE
  5
17482
330
747D
100
AcDbEntity
  8
部品1
100
AcDbLine
 10
10746.44279271578
 20
7550.961843122924
 30
0.0
 11
10691.44279271578
 21
7550.961843122924
 31
0.0
  0
LINE
  5
17483
330
747D
100
AcDbEntity
  8
部品1
100
AcDbLine
 10
10746.44279271591
 20
10125.96184312296
 30
0.0
 11
10718.44279271591
 21
10125.96184312296
 31
0.0
  0
LINE
  5
17484
330
747D
100
AcDbEntity
  8
部品1
100
AcDbLine
 10
10746.44279271593
 20
10125.96184312296
 30
0.0
 11
10718.44279271593
 21
10125.96184312296
 31
0.0
  0
LINE
  5
17485
330
747D
100
AcDbEntity
  8
部品1
100
AcDbLine
 10
10746.44279271591
 20
10180.96184312296
 30
0.0
 11
9376.442792715899
 21
10180.96184312293
 31
0.0
  0
LINE
  5
17486
330
747D
100
AcDbEntity
  8
部品1
100
AcDbLine
 10
10746.44279271593
 20
9285.961843122953
 30
0.0
 11
10718.44279271593
 21
9285.961843122953
 31
0.0
  0
LINE
  5
17487
330
747D
100
AcDbEntity
  8
部品1
100
AcDbLine
 10
10746.44279271593
 20
8865.961843122956
 30
0.0
 11
10718.44279271593
 21
8865.961843122956
 31
0.0
  0
LINE
  5
17488
330
747D
100
AcDbEntity
  8
部品1
100
AcDbLine
 10
10746.44279271593
 20
8025.961843122956
 30
0.0
 11
10718.44279271593
 21
8025.961843122956
 31
0.0
  0
LINE
  5
17489
330
747D
100
AcDbEntity
  8
部品1
100
AcDbLine
 10
10746.44279271581
 20
8025.961843122956
 30
0.0
 11
10718.44279271581
 21
8025.961843122956
 31
0.0
  0
LINE
  5
1748A
330
747D
100
AcDbEntity
  8
部品1
100
AcDbLine
 10
10746.44279271581
 20
8025.961843122956
 30
0.0
 11
10718.44279271581
 21
8025.961843122956
 31
0.0
  0
LINE
  5
1748B
330
747D
100
AcDbEntity
  8
部品1
100
AcDbLine
 10
10746.44279271581
 20
7605.961843122958
 30
0.0
 11
10718.44279271581
 21
7605.961843122958
 31
0.0
  0
DIMENSION
  5
1748C
330
747D
100
AcDbEntity
  8
寸法
100
AcDbDimension
  2
*D2
 10
9431.442792715897
 20
10828.38818885737
 30
0.0
 11
9067.957511341662
 21
10828.38818885737
 31
0.0
 70
   160
 71
     5
 42
54.99999999999636
  3
INABA_S40G
100
AcDbAlignedDimension
 13
9376.442792715899
 23
10180.96184312296
 33
0.0
 14
9431.442792715897
 24
10180.96184312296
 34
0.0
 50
180.0
100
AcDbRotatedDimension
1001
ACAD
1000
DSTYLE
1002
{
1002
}
  0
DIMENSION
  5
1748D
330
747D
100
AcDbEntity
  8
寸法
100
AcDbDimension
  2
*D3
 10
10171.22497704702
 20
10507.81956898498
 30
0.0
 11
10396.22497704702
 21
10607.81956898498
 31
0.0
 70
    32
 71
     5
 42
449.9999999999982
  3
INABA_S40G
100
AcDbAlignedDimension
 13
10716.44279271591
 23
10152.46184312296
 33
0.0
 14
10266.44279271591
 24
10152.46184312296
 34
0.0
 50
180.0
100
AcDbRotatedDimension
1001
ACAD
1000
DSTYLE
1002
{
1002
}
  0
DIMENSION
  5
1748E
330
747D
100
AcDbEntity
  8
寸法
100
AcDbDimension
  2
*D4
 10
10746.44279271591
 20
10828.38818885734
 30
0.0
 11
11124.30425962077
 21
10828.38818885734
 31
0.0
 70
   160
 71
     5
 42
54.99999999999636
  3
INABA_S40G
100
AcDbAlignedDimension
 13
10691.44279271591
 23
10180.96184312293
 33
0.0
 14
10746.44279271591
 24
10180.96184312293
 34
0.0
 50
180.0
100
AcDbRotatedDimension
1001
ACAD
1000
DSTYLE
1002
{
1002
}
  0
DIMENSION
  5
1748F
330
747D
100
AcDbEntity
  8
寸法
100
AcDbDimension
  2
*D5
 10
10691.44279271591
 20
10828.38818885737
 30
0.0
 11
10061.4427927159
 21
10828.38818885737
 31
0.0
 70
   160
  1
3X420=<>
 71
     5
 42
1260.000000000016
  3
INABA_S40G
100
AcDbAlignedDimension
 13
9431.442792715897
 23
10180.96184312296
 33
0.0
 14
10691.44279271591
 24
10180.96184312293
 34
0.0
 50
180.0
100
AcDbRotatedDimension
1001
ACAD
1000
DSTYLE
1002
{
1002
}
  0
LINE
  5
17491
330
747D
100
AcDbEntity
  8
部品1
100
AcDbLine
 10
9404.442792715949
 20
10152.96184312293
 30
0.0
 11
9404.442792715848
 21
7578.961843122931
 31
0.0
  0
LINE
  5
17492
330
747D
100
AcDbEntity
  8
部品1
100
AcDbLine
 10
10266.44279271581
 20
7579.461843122958
 30
0.0
 11
10266.44279271591
 21
8852.461843122956
 31
0.0
  0
LINE
  5
17493
330
747D
100
AcDbEntity
  8
細線
 48
50.0
100
AcDbLine
 10
10716.44279271591
 20
8852.461843122956
 30
0.0
 11
10266.44279271581
 21
7579.461843122958
 31
0.0
  0
LINE
  5
17494
330
747D
100
AcDbEntity
  8
細線
 48
50.0
100
AcDbLine
 10
10266.44279271591
 20
8852.461843122956
 30
0.0
 11
10716.44279271581
 21
7579.461843122958
 31
0.0
  0
LINE
  5
17495
330
747D
100
AcDbEntity
  8
部品1
100
AcDbLine
 10
10716.44279271581
 20
7579.461843122958
 30
0.0
 11
10716.44279271592
 21
8852.461843122956
 31
0.0
  0
LINE
  5
17496
330
747D
100
AcDbEntity
  8
部品1
100
AcDbLine
 10
10718.44279271593
 20
7605.961843122958
 30
0.0
 11
10718.44279271593
 21
8853.461843122955
 31
0.0
  0
LINE
  5
17497
330
747D
100
AcDbEntity
  8
部品1
100
AcDbLine
 10
9376.442792715899
 20
10180.96184312293
 30
0.0
 11
9376.442792715804
 21
7550.96184312295
 31
0.0
  0
LINE
  5
17498
330
747D
100
AcDbEntity
  8
部品1
100
AcDbLine
 10
9404.442792715935
 20
7578.961843122931
 30
0.0
 11
10718.44279271581
 21
7578.961843122957
 31
0.0
  0
LINE
  5
17499
330
747D
100
AcDbEntity
  8
部品1
100
AcDbLine
 10
10718.44279271581
 20
7578.961843122957
 30
0.0
 11
10718.44279271582
 21
8025.961843122956
 31
0.0
  0
LINE
  5
1749A
330
747D
100
AcDbEntity
  8
部品1
 48
50.0
100
AcDbLine
 10
10716.44279271581
 20
7579.461843122958
 30
0.0
 11
10266.44279271581
 21
7579.461843122958
 31
0.0
  0
LINE
  5
1749B
330
747D
100
AcDbEntity
  8
部品1
100
AcDbLine
 10
10691.44279271578
 20
7578.961843122924
 30
0.0
 11
10691.44279271578
 21
7550.961843122924
 31
0.0
  0
LINE
  5
1749C
330
747D
100
AcDbEntity
  8
部品1
100
AcDbLine
 10
10718.44279271591
 20
10152.96184312296
 30
0.0
 11
9404.442792715949
 21
10152.96184312293
 31
0.0
  0
LINE
  5
1749D
330
747D
100
AcDbEntity
  8
部品1
100
AcDbLine
 10
9851.442792715912
 20
10152.96184312296
 30
0.0
 11
9851.442792715912
 21
10180.96184312296
 31
0.0
  0
LINE
  5
1749E
330
747D
100
AcDbEntity
  8
部品1
100
AcDbLine
 10
10266.44279271591
 20
8879.461843122955
 30
0.0
 11
10266.44279271591
 21
10152.46184312296
 31
0.0
  0
LINE
  5
1749F
330
747D
100
AcDbEntity
  8
細線
 48
50.0
100
AcDbLine
 10
10716.44279271591
 20
10152.46184312296
 30
0.0
 11
10266.44279271591
 21
8879.461843122955
 31
0.0
  0
LINE
  5
174A0
330
747D
100
AcDbEntity
  8
細線
 48
50.0
100
AcDbLine
 10
10266.44279271591
 20
10152.46184312296
 30
0.0
 11
10716.44279271591
 21
8879.461843122955
 31
0.0
  0
LINE
  5
174A1
330
747D
100
AcDbEntity
  8
部品1
100
AcDbLine
 10
10716.44279271591
 20
8879.461843122955
 30
0.0
 11
10716.44279271591
 21
10152.46184312296
 31
0.0
  0
LINE
  5
174A2
330
747D
100
AcDbEntity
  8
部品1
100
AcDbLine
 10
10718.44279271592
 20
8878.461843122956
 30
0.0
 11
10718.44279271591
 21
10152.96184312296
 31
0.0
  0
LINE
  5
174A3
330
747D
100
AcDbEntity
  8
部品1
 48
50.0
100
AcDbLine
 10
10716.44279271591
 20
8879.461843122955
 30
0.0
 11
10266.44279271591
 21
8879.461843122955
 31
0.0
  0
LINE
  5
174A4
330
747D
100
AcDbEntity
  8
部品1
 48
50.0
100
AcDbLine
 10
10716.44279271591
 20
8852.461843122956
 30
0.0
 11
10266.44279271591
 21
8852.461843122956
 31
0.0
  0
LINE
  5
174A5
330
747D
100
AcDbEntity
  8
部品1
 48
50.0
100
AcDbLine
 10
10718.44279271592
 20
8878.461843122956
 30
0.0
 11
10266.44279271591
 21
8878.461843122956
 31
0.0
  0
LINE
  5
174A6
330
747D
100
AcDbEntity
  8
部品1
 48
50.0
100
AcDbLine
 10
10718.44279271592
 20
8853.461843122955
 30
0.0
 11
10266.44279271591
 21
8853.461843122955
 31
0.0
  0
LINE
  5
174A7
330
747D
100
AcDbEntity
  8
部品1
100
AcDbLine
 10
10266.44279271591
 20
8853.461843122955
 30
0.0
 11
10266.44279271591
 21
8878.461843122956
 31
0.0
  0
LINE
  5
174A8
330
747D
100
AcDbEntity
  8
部品1
100
AcDbLine
 10
10710.44279271591
 20
8853.461843122955
 30
0.0
 11
10710.44279271591
 21
8878.461843122956
 31
0.0
  0
LINE
  5
174A9
330
747D
100
AcDbEntity
  8
部品1
100
AcDbLine
 10
10736.44279271591
 20
8894.961843122954
 30
0.0
 11
10736.44279271591
 21
8900.961843122955
 31
0.0
  0
LINE
  5
174AA
330
747D
100
AcDbEntity
  8
部品1
100
AcDbLine
 10
10736.44279271591
 20
8900.961843122955
 30
0.0
 11
10718.44279271591
 21
8900.961843122955
 31
0.0
  0
LINE
  5
174AB
330
747D
100
AcDbEntity
  8
部品1
100
AcDbLine
 10
10736.44279271591
 20
8830.961843122954
 30
0.0
 11
10736.44279271591
 21
8836.961843122955
 31
0.0
  0
LINE
  5
174AC
330
747D
100
AcDbEntity
  8
部品1
100
AcDbLine
 10
10736.44279271591
 20
8830.961843122954
 30
0.0
 11
10718.44279271591
 21
8830.961843122954
 31
0.0
  0
LINE
  5
174AD
330
747D
100
AcDbEntity
  8
部品1
100
AcDbLine
 10
10716.44279271591
 20
10152.46184312296
 30
0.0
 11
10266.44279271591
 21
10152.46184312296
 31
0.0
  0
LINE
  5
174AE
330
747D
100
AcDbEntity
  8
部品1
100
AcDbLine
 10
10271.44279271591
 20
10152.96184312296
 30
0.0
 11
10271.44279271591
 21
10180.96184312296
 31
0.0
  0
LINE
  5
174AF
330
747D
100
AcDbEntity
  8
部品1
100
AcDbLine
 10
10691.44279271591
 20
10152.96184312296
 30
0.0
 11
10691.44279271591
 21
10180.96184312296
 31
0.0
  0
LINE
  5
174B0
330
747D
100
AcDbEntity
  8
部品1
100
AcDbLine
 10
10746.44279271581
 20
7550.961843122957
 30
0.0
 11
10746.44279271591
 21
10180.96184312296
 31
0.0
  0
LINE
  5
174B3
330
747D
100
AcDbEntity
  8
部品1
 48
50.0
100
AcDbLine
 10
9851.442792715912
 20
10124.46184312294
 30
0.0
 11
9851.442792715999
 21
7607.461843122942
 31
0.0
  0
LINE
  5
174B4
330
747D
100
AcDbEntity
  8
部品1
100
AcDbLine
 10
9432.942792715946
 20
10124.46184312294
 30
0.0
 11
9432.94279271585
 21
7607.461843122852
 31
0.0
  0
LINE
  5
174B5
330
747D
100
AcDbEntity
  8
破線
 48
10.0
100
AcDbLine
 10
9456.442792715945
 20
10100.96184312294
 30
0.0
 11
9456.442792715916
 21
9310.961843122999
 31
0.0
  0
LINE
  5
174B6
330
747D
100
AcDbEntity
  8
破線
 48
10.0
100
AcDbLine
 10
9456.442792715916
 20
9260.961843123004
 30
0.0
 11
9456.442792715888
 21
8470.961843123001
 31
0.0
  0
LINE
  5
174B7
330
747D
100
AcDbEntity
  8
部品1
100
AcDbLine
 10
10266.44279271591
 20
10124.46184312294
 30
0.0
 11
9432.942792715948
 21
10124.46184312293
 31
0.0
  0
LINE
  5
174B8
330
747D
100
AcDbEntity
  8
破線
 48
10.0
100
AcDbLine
 10
10266.44279271591
 20
10100.96184312295
 30
0.0
 11
9456.442792715945
 21
10100.96184312294
 31
0.0
  0
LINE
  5
174B9
330
747D
100
AcDbEntity
  8
部品1
 48
50.0
100
AcDbLine
 10
9432.942792715946
 20
10124.46184312294
 30
0.0
 11
9404.442792715949
 21
10152.96184312293
 31
0.0
  0
LINE
  5
174BA
330
747D
100
AcDbEntity
  8
部品1
100
AcDbLine
 10
10266.44279271591
 20
7607.461843122935
 30
0.0
 11
9432.942792715946
 21
7607.461843122947
 31
0.0
  0
LINE
  5
174BB
330
747D
100
AcDbEntity
  8
破線
 48
10.0
100
AcDbLine
 10
10266.44279271591
 20
7630.961843122932
 30
0.0
 11
9456.442792715851
 21
7630.961843122946
 31
0.0
  0
LINE
  5
174BC
330
747D
100
AcDbEntity
  8
部品1
 48
50.0
100
AcDbLine
 10
9432.942792715946
 20
7607.461843122947
 30
0.0
 11
9404.442792715949
 21
7578.96184312295
 31
0.0
  0
LINE
  5
174BD
330
747D
100
AcDbEntity
  8
部品1
100
AcDbLine
 10
9404.442792715947
 20
9285.961843123025
 30
0.0
 11
9376.442792715947
 21
9285.961843123025
 31
0.0
  0
LINE
  5
174BE
330
747D
100
AcDbEntity
  8
部品1
100
AcDbLine
 10
9404.442792715927
 20
10125.96184312303
 30
0.0
 11
9376.442792715927
 21
10125.96184312303
 31
0.0
  0
LINE
  5
174BF
330
747D
100
AcDbEntity
  8
部品1
100
AcDbLine
 10
9404.442792715947
 20
10125.96184312303
 30
0.0
 11
9376.442792715947
 21
10125.96184312303
 31
0.0
  0
LINE
  5
174C0
330
747D
100
AcDbEntity
  8
部品1
100
AcDbLine
 10
9404.442792715947
 20
8865.961843123029
 30
0.0
 11
9376.442792715947
 21
8865.961843123029
 31
0.0
  0
LINE
  5
174C1
330
747D
100
AcDbEntity
  8
部品1
100
AcDbLine
 10
9404.442792715947
 20
8025.961843123031
 30
0.0
 11
9376.442792715947
 21
8025.961843123031
 31
0.0
  0
LINE
  5
174C2
330
747D
100
AcDbEntity
  8
部品1
100
AcDbLine
 10
9404.442792715832
 20
8025.961843123031
 30
0.0
 11
9376.442792715831
 21
8025.961843123031
 31
0.0
  0
LINE
  5
174C3
330
747D
100
AcDbEntity
  8
部品1
100
AcDbLine
 10
9404.442792715832
 20
8025.961843123031
 30
0.0
 11
9376.442792715833
 21
8025.961843123031
 31
0.0
  0
LINE
  5
174C4
330
747D
100
AcDbEntity
  8
部品1
100
AcDbLine
 10
9404.4427927158
 20
7605.961843122997
 30
0.0
 11
9376.442792715799
 21
7605.961843122997
 31
0.0
  0
LINE
  5
174C5
330
747D
100
AcDbEntity
  8
部品1
100
AcDbLine
 10
9404.442792715832
 20
7605.96184312303
 30
0.0
 11
9376.442792715833
 21
7605.96184312303
 31
0.0
  0
LINE
  5
174C6
330
747D
100
AcDbEntity
  8
部品1
100
AcDbLine
 10
9431.442792715783
 20
7578.961843122939
 30
0.0
 11
9431.442792715783
 21
7550.96184312294
 31
0.0
  0
LINE
  5
174C7
330
747D
100
AcDbEntity
  8
部品1
100
AcDbLine
 10
9431.442792715913
 20
10152.96184312296
 30
0.0
 11
9431.442792715913
 21
10180.96184312296
 31
0.0
  0
LINE
  5
174C8
330
747D
100
AcDbEntity
  8
部品1
100
AcDbLine
 10
9431.442792715781
 20
7550.96184312295
 30
0.0
 11
9376.442792715771
 21
7550.96184312295
 31
0.0
  0
DIMENSION
  5
174CB
330
747D
100
AcDbEntity
  8
寸法
 48
50.0
100
AcDbDimension
  2
*D6
 10
11128.62600011654
 20
8769.01768556628
 30
0.0
 11
11128.62600011654
 21
9405.517685566286
 31
0.0
 70
   160
 71
     5
 42
1273.000000000011
  3
INABA_S40G
100
AcDbAlignedDimension
 13
10716.44279271591
 23
10152.46184312296
 33
0.0
 14
10716.44279271591
 24
8879.461843122948
 34
0.0
 50
90.0
100
AcDbRotatedDimension
  0
DIMENSION
  5
174CC
330
747D
100
AcDbEntity
  8
寸法
 48
50.0
100
AcDbDimension
  2
*D7
 10
11128.62600011653
 20
7469.01768556626
 30
0.0
 11
11128.62600011653
 21
8105.517685566274
 31
0.0
 70
   160
 71
     5
 42
1272.999999999998
  3
INABA_S40G
100
AcDbAlignedDimension
 13
10716.44279271591
 23
8852.461843122956
 33
0.0
 14
10716.44279271581
 24
7579.461843122956
 34
0.0
 50
90.0
100
AcDbRotatedDimension
  0
DIMENSION
  5
174CD
330
747D
100
AcDbEntity
  8
寸法
100
AcDbDimension
  2
*D8
 10
11393.86913845025
 20
7605.961843122952
 30
0.0
 11
11393.86913845025
 21
8865.961843122963
 31
0.0
 70
   160
  1
6X420=<>
 71
     5
 42
2520.000000000016
  3
INABA_S40G
100
AcDbAlignedDimension
 13
10746.44279271584
 23
10125.96184312297
 33
0.0
 14
10746.44279271581
 24
7605.961843122952
 34
0.0
 50
90.0
100
AcDbRotatedDimension
1001
ACAD
1000
DSTYLE
1002
{
1002
}
  0
DIMENSION
  5
174CE
330
747D
100
AcDbEntity
  8
寸法
100
AcDbDimension
  2
*D9
 10
11393.86913845025
 20
10125.96184312297
 30
0.0
 11
11393.86913845025
 21
10489.4471244972
 31
0.0
 70
   160
 71
     5
 42
54.99999999999636
  3
INABA_S40G
100
AcDbAlignedDimension
 13
10746.44279271584
 23
10180.96184312296
 33
0.0
 14
10746.44279271584
 24
10125.96184312297
 34
0.0
 50
90.0
100
AcDbRotatedDimension
1001
ACAD
1000
DSTYLE
1002
{
1002
}
  0
DIMENSION
  5
174CF
330
747D
100
AcDbEntity
  8
寸法
100
AcDbDimension
  2
*D10
 10
11662.30766975072
 20
7550.961843122957
 30
0.0
 11
11662.30766975072
 21
8865.961843122963
 31
0.0
 70
   160
 71
     5
 42
2630.00000000001
  3
INABA_S40G
100
AcDbAlignedDimension
 13
10746.44279271584
 23
10180.96184312296
 33
0.0
 14
10746.44279271581
 24
7550.961843122957
 34
0.0
 50
90.0
100
AcDbRotatedDimension
1001
ACAD
1000
DSTYLE
1002
{
1002
}
  0
DIMENSION
  5
174D0
330
747D
100
AcDbEntity
  8
寸法
100
AcDbDimension
  2
*D11
 10
11393.86913845022
 20
7550.961843122957
 30
0.0
 11
11393.86913845022
 21
7242.476561748715
 31
0.0
 70
   160
 71
     5
 42
54.99999999999636
  3
INABA_S40G
100
AcDbAlignedDimension
 13
10746.44279271581
 23
7605.961843122952
 33
0.0
 14
10746.44279271581
 24
7550.961843122957
 34
0.0
 50
90.0
100
AcDbRotatedDimension
1001
ACAD
1000
DSTYLE
1002
{
1002
}
  0
LINE
  5
175B5
330
747D
100
AcDbEntity
  8
部品1
100
AcDbLine
 10
4654.345763378644
 20
2482.672990367945
 30
0.0
 11
4661.845763378644
 21
2482.672990367945
 31
0.0
  0
DIMENSION
  5
175B6
330
747D
100
AcDbEntity
  8
寸法
100
AcDbDimension
  2
*D12
 10
4030.693054220346
 20
2532.672990367944
 30
0.0
 11
4030.693054220346
 21
3423.127288909902
 31
0.0
 70
   160
 71
     5
 42
1790.0
  3
INABA_S40G
100
AcDbAlignedDimension
 13
4654.345763378644
 23
4322.672990367943
 33
0.0
 14
4654.345763378644
 24
2532.672990367944
 34
0.0
 50
90.0
100
AcDbRotatedDimension
1001
ACAD
1000
DSTYLE
1002
{
1070
   174
1070
     0
1070
   272
1070
     1
1070
   288
1070
     0
1070
   341
1005
0
1002
}
  0
DIMENSION
  5
175B7
330
747D
100
AcDbEntity
  8
寸法
100
AcDbDimension
  2
*D13
 10
3745.706381449287
 20
4557.672990367949
 30
0.0
 11
3745.706381449285
 21
3476.878867861055
 31
0.0
 70
   160
 71
     5
 42
2075.000000000005
  3
INABA_S40G
100
AcDbAlignedDimension
 13
4654.345763378644
 23
2482.672990367944
 33
0.0
 14
4594.345763378643
 24
4557.672990367949
 34
0.0
 50
90.0
100
AcDbRotatedDimension
1001
ACAD
1000
DSTYLE
1002
{
1070
   174
1070
     0
1070
   272
1070
     1
1070
   288
1070
     0
1070
   341
1005
0
1002
}
  0
DIMENSION
  5
175B8
330
747D
100
AcDbEntity
  8
寸法
100
AcDbDimension
  2
*D14
 10
3745.706381449286
 20
2382.672990367944
 30
0.0
 11
3745.706381449285
 21
2146.625746273452
 31
0.0
 70
   160
 71
     5
 42
100.0
  3
INABA_S40G
100
AcDbAlignedDimension
 13
4599.345763378644
 23
2482.672990367944
 33
0.0
 14
4030.693054220346
 24
2382.672990367944
 34
0.0
 50
90.0
100
AcDbRotatedDimension
1001
ACAD
1000
DSTYLE
1002
{
1070
   174
1070
     0
1070
   272
1070
     1
1070
   288
1070
     0
1070
   341
1005
0
1002
}
  0
DIMENSION
  5
175B9
330
747D
100
AcDbEntity
  8
寸法
100
AcDbDimension
  2
*D15
 10
4030.693054220346
 20
2482.672990367944
 30
0.0
 11
4030.693054220346
 21
2176.625746273452
 31
0.0
 70
   160
 71
     5
 42
50.0
  3
INABA_S40G
100
AcDbAlignedDimension
 13
4654.345763378644
 23
2532.672990367944
 33
0.0
 14
4599.345763378644
 24
2482.672990367944
 34
0.0
 50
90.0
100
AcDbRotatedDimension
1001
ACAD
1000
DSTYLE
1002
{
1070
   174
1070
     0
1070
   272
1070
     1
1070
   288
1070
     0
1070
   341
1005
0
1002
}
  0
LINE
  5
175BA
330
747D
100
AcDbEntity
  8
破線
  6
HIDDEN
 48
5.0
100
AcDbLine
 10
7291.845763378645
 20
2227.672990367945
 30
0.0
 11
7221.845763378644
 21
2227.672990367945
 31
0.0
  0
LINE
  5
175BB
330
747D
100
AcDbEntity
  8
破線
  6
HIDDEN
 48
5.0
100
AcDbLine
 10
7236.845763378643
 20
2377.672990367945
 30
0.0
 11
7221.845763378644
 21
2229.972990367945
 31
0.0
  0
LINE
  5
175BC
330
747D
100
AcDbEntity
  8
破線
  6
HIDDEN
 48
5.0
100
AcDbLine
 10
7221.845763378644
 20
2229.972990367945
 30
0.0
 11
7221.845763378644
 21
2227.672990367945
 31
0.0
  0
LINE
  5
175BD
330
747D
100
AcDbEntity
  8
破線
  6
HIDDEN
 48
5.0
100
AcDbLine
 10
7276.845763378644
 20
2377.672990367945
 30
0.0
 11
7291.845763378645
 21
2229.972990367945
 31
0.0
  0
LINE
  5
175BE
330
747D
100
AcDbEntity
  8
破線
  6
HIDDEN
 48
5.0
100
AcDbLine
 10
7291.845763378645
 20
2229.972990367945
 30
0.0
 11
7291.845763378645
 21
2227.672990367945
 31
0.0
  0
LINE
  5
175BF
330
747D
100
AcDbEntity
  8
破線
  6
HIDDEN
 48
5.0
100
AcDbLine
 10
4646.845763378643
 20
2227.672990367945
 30
0.0
 11
4716.845763378644
 21
2227.672990367945
 31
0.0
  0
LINE
  5
175C0
330
747D
100
AcDbEntity
  8
破線
  6
HIDDEN
 48
5.0
100
AcDbLine
 10
4646.845763378643
 20
2229.972990367945
 30
0.0
 11
4646.845763378643
 21
2227.672990367945
 31
0.0
  0
LINE
  5
175C1
330
747D
100
AcDbEntity
  8
破線
  6
HIDDEN
 48
5.0
100
AcDbLine
 10
4716.845763378644
 20
2229.972990367945
 30
0.0
 11
4716.845763378644
 21
2227.672990367945
 31
0.0
  0
LINE
  5
175C2
330
747D
100
AcDbEntity
  8
破線
  6
HIDDEN
 48
5.0
100
AcDbLine
 10
4661.845763378644
 20
2377.672990367945
 30
0.0
 11
4646.845763378643
 21
2229.972990367945
 31
0.0
  0
LINE
  5
175C3
330
747D
100
AcDbEntity
  8
破線
  6
HIDDEN
 48
5.0
100
AcDbLine
 10
4701.845763378644
 20
2377.672990367945
 30
0.0
 11
4716.845763378644
 21
2229.972990367945
 31
0.0
  0
LINE
  5
175C4
330
747D
100
AcDbEntity
  8
部品1
 48
50.0
100
AcDbLine
 10
4661.845763378644
 20
2522.672990367945
 30
0.0
 11
4661.845763378644
 21
2382.672990367945
 31
0.0
  0
LINE
  5
175C5
330
747D
100
AcDbEntity
  8
部品1
 48
50.0
100
AcDbLine
 10
4701.845763378644
 20
2522.672990367945
 30
0.0
 11
4701.845763378644
 21
2382.672990367945
 31
0.0
  0
LINE
  5
175C6
330
747D
100
AcDbEntity
  8
部品1
100
AcDbLine
 10
4666.845763378644
 20
2527.672990367945
 30
0.0
 11
4696.845763378643
 21
2527.672990367945
 31
0.0
  0
ARC
  5
175C7
330
747D
100
AcDbEntity
  8
部品1
 48
50.0
100
AcDbCircle
 10
4666.845763378644
 20
2522.672990367945
 30
0.0
 40
5.0
100
AcDbArc
 50
90.0
 51
180.0
  0
ARC
  5
175C8
330
747D
100
AcDbEntity
  8
部品1
 48
50.0
100
AcDbCircle
 10
4696.845763378643
 20
2522.672990367945
 30
0.0
 40
5.0
100
AcDbArc
 50
0.0
 51
90.0
  0
LINE
  5
175C9
330
747D
100
AcDbEntity
  8
部品1
 48
50.0
100
AcDbLine
 10
7236.845763378643
 20
2522.672990367945
 30
0.0
 11
7236.845763378643
 21
2382.672990367945
 31
0.0
  0
LINE
  5
175CA
330
747D
100
AcDbEntity
  8
部品1
 48
50.0
100
AcDbLine
 10
7276.845763378644
 20
2522.672990367945
 30
0.0
 11
7276.845763378644
 21
2382.672990367945
 31
0.0
  0
LINE
  5
175CB
330
747D
100
AcDbEntity
  8
部品1
100
AcDbLine
 10
7271.845763378644
 20
2527.672990367945
 30
0.0
 11
7241.845763378645
 21
2527.672990367945
 31
0.0
  0
ARC
  5
175CC
330
747D
100
AcDbEntity
  8
部品1
 48
50.0
100
AcDbCircle
 10
7241.845763378645
 20
2522.672990367945
 30
0.0
 40
5.0
100
AcDbArc
 50
90.0
 51
180.0
  0
ARC
  5
175CD
330
747D
100
AcDbEntity
  8
部品1
 48
50.0
100
AcDbCircle
 10
7271.845763378644
 20
2522.672990367945
 30
0.0
 40
5.0
100
AcDbArc
 50
0.0
 51
90.0
  0
LINE
  5
175CE
330
747D
100
AcDbEntity
  8
破線
  6
HIDDEN
 48
5.0
100
AcDbLine
 10
7236.845763378643
 20
2382.672990367945
 30
0.0
 11
7236.845763378643
 21
2377.672990367945
 31
0.0
  0
LINE
  5
175CF
330
747D
100
AcDbEntity
  8
破線
  6
HIDDEN
 48
5.0
100
AcDbLine
 10
7276.845763378644
 20
2382.672990367945
 30
0.0
 11
7276.845763378644
 21
2377.672990367945
 31
0.0
  0
LINE
  5
175D0
330
747D
100
AcDbEntity
  8
破線
  6
HIDDEN
 48
5.0
100
AcDbLine
 10
4661.845763378651
 20
2382.672990367945
 30
0.0
 11
4661.845763378651
 21
2377.672990367945
 31
0.0
  0
LINE
  5
175D1
330
747D
100
AcDbEntity
  8
破線
  6
HIDDEN
 48
5.0
100
AcDbLine
 10
4701.845763378644
 20
2382.672990367945
 30
0.0
 11
4701.845763378644
 21
2377.672990367945
 31
0.0
  0
LINE
  5
175D2
330
747D
100
AcDbEntity
  8
部品1
100
AcDbLine
 10
7276.845763378644
 20
2482.672990367945
 30
0.0
 11
7284.345763378647
 21
2482.672990367945
 31
0.0
  0
DIMENSION
  5
175D3
330
747D
100
AcDbEntity
  8
寸法
 48
50.0
100
AcDbDimension
  2
*D16
 10
4033.737356610287
 20
4432.018249241274
 30
0.0
 11
4044.402831869212
 21
4802.864912482974
 31
0.0
 70
   161
 71
     5
 42
141.0
  3
INABA_S40G
100
AcDbAlignedDimension
 13
4613.741783537223
 23
4556.395739202623
 33
0.0
 14
4609.688327980597
 24
4415.454015436911
 34
0.0
1001
ACAD
1000
DSTYLE
1002
{
1070
   174
1070
     0
1070
   272
1070
     1
1070
   288
1070
     0
1070
   341
1005
0
1002
}
  0
DIMENSION
  5
175D4
330
747D
100
AcDbEntity
  8
寸法
 48
50.0
100
AcDbDimension
  2
*D17
 10
4432.345760132011
 20
2382.672990367943
 30
0.0
 11
4432.34576013201
 21
2282.672990367944
 31
0.0
 70
   160
 71
     5
 42
200.0
  3
INABA_S40G
100
AcDbAlignedDimension
 13
4581.845763378647
 23
2182.672990367944
 33
0.0
 14
4556.845763378643
 24
2382.672990367943
 34
0.0
 50
90.0
100
AcDbRotatedDimension
1001
ACAD
1000
DSTYLE
1002
{
1070
   174
1070
     0
1070
   272
1070
     1
1070
   288
1070
     0
1070
   341
1005
0
1002
}
  0
LINE
  5
175D5
330
747D
100
AcDbEntity
  8
破線
 48
5.0
100
AcDbLine
 10
4781.845763378643
 20
2182.672990367942
 30
0.0
 11
4581.845763378647
 21
2182.672990367942
 31
0.0
  0
LINE
  5
175D6
330
747D
100
AcDbEntity
  8
破線
 48
5.0
100
AcDbLine
 10
4781.845763378643
 20
2382.672990367945
 30
0.0
 11
4781.845763378643
 21
2182.672990367942
 31
0.0
  0
LINE
  5
175D7
330
747D
100
AcDbEntity
  8
破線
 48
5.0
100
AcDbLine
 10
4581.845763378644
 20
2382.672990367945
 30
0.0
 11
4581.845763378647
 21
2182.672990367942
 31
0.0
  0
DIMENSION
  5
175D8
330
747D
100
AcDbEntity
  8
寸法
 48
50.0
100
AcDbDimension
  2
*D18
 10
4581.845763378647
 20
1896.625661067565
 30
0.0
 11
4681.845763378645
 21
1896.625661067565
 31
0.0
 70
   160
 71
     5
 42
199.9999999999963
  3
INABA_S40G
100
AcDbAlignedDimension
 13
4781.845763378643
 23
2182.672990367942
 33
0.0
 14
4581.845763378647
 24
2182.672990367944
 34
0.0
100
AcDbRotatedDimension
  0
LINE
  5
175D9
330
747D
100
AcDbEntity
  8
破線
 48
5.0
100
AcDbLine
 10
7356.84576337865
 20
2382.672990367945
 30
0.0
 11
7356.845763378648
 21
2182.672990367942
 31
0.0
  0
LINE
  5
175DA
330
747D
100
AcDbEntity
  8
破線
 48
5.0
100
AcDbLine
 10
7356.845763378648
 20
2182.672990367942
 30
0.0
 11
7156.845763378651
 21
2182.672990367946
 31
0.0
  0
LINE
  5
175DB
330
747D
100
AcDbEntity
  8
破線
 48
5.0
100
AcDbLine
 10
7156.845763378651
 20
2382.672990367945
 30
0.0
 11
7156.845763378651
 21
2182.672990367946
 31
0.0
  0
TEXT
  5
175DC
330
747D
100
AcDbEntity
  8
文字
 62
     7
 48
50.0
100
AcDbText
 10
14491.96323844892
 20
483.8967129911416
 30
0.0
 40
160.0
  1
ＮＸＮ－３６ＣＳＡ
  7
STYLE2
100
AcDbText
  0
LINE
  5
17669
330
747D
100
AcDbEntity
  8
部品1
 48
50.0
100
AcDbLine
 10
7284.345763378647
 20
4317.672990367944
 30
0.0
 11
7361.345763378648
 21
4307.672990367945
 31
0.0
  0
LINE
  5
1766A
330
747D
100
AcDbEntity
  8
部品1
 48
50.0
100
AcDbLine
 10
7361.345763378648
 20
4307.672990367945
 30
0.0
 11
7361.345763378648
 21
2382.672990367945
 31
0.0
  0
LINE
  5
1766B
330
747D
100
AcDbEntity
  8
部品1
 48
50.0
100
AcDbLine
 10
7361.345763378648
 20
2482.672990367945
 30
0.0
 11
7276.845763378648
 21
2482.672990367945
 31
0.0
  0
LINE
  5
1766C
330
747D
100
AcDbEntity
  8
部品1
100
AcDbLine
 10
6884.345763378644
 20
2482.672990367945
 30
0.0
 11
6884.345763378644
 21
2382.672990367945
 31
0.0
  0
LINE
  5
1766F
330
747D
100
AcDbEntity
  8
部品1
100
AcDbLine
 10
5054.345763378644
 20
2482.672990367945
 30
0.0
 11
5054.345763378644
 21
2382.672990367945
 31
0.0
  0
TEXT
  5
17670
330
747D
100
AcDbEntity
  8
文字
 62
     7
 48
50.0
100
AcDbText
 10
13583.11819016569
 20
8550.013745883735
 30
0.0
 40
100.0
  1
棚板
  7
STYLE1
100
AcDbText
  0
TEXT
  5
17671
330
747D
100
AcDbEntity
  8
文字
 62
     7
 48
50.0
100
AcDbText
 10
15022.63965474516
 20
8550.013745883731
 30
0.0
 40
100.0
  1
F12            0.6
  7
STYLE1
100
AcDbText
  0
TEXT
  5
17672
330
747D
100
AcDbEntity
  8
文字
 62
     7
 48
50.0
100
AcDbText
 10
15022.63965474515
 20
9740.013745883729
 30
0.0
 40
100.0
  1
F12            1.2
  7
STYLE1
100
AcDbText
  0
TEXT
  5
17673
330
747D
100
AcDbEntity
  8
文字
 62
     7
 48
50.0
100
AcDbText
 10
13583.11819016569
 20
9740.013745883731
 30
0.0
 40
100.0
  1
母屋中
  7
STYLE1
100
AcDbText
  0
TEXT
  5
17674
330
747D
100
AcDbEntity
  8
文字
 62
     7
 48
50.0
100
AcDbText
 10
13248.77747366447
 20
8720.013745883733
 30
0.0
 40
100.0
  1
15
  7
STYLE1
100
AcDbText
  0
LINE
  5
17675
330
747D
100
AcDbEntity
  8
仕様書枠
 48
50.0
100
AcDbLine
 10
16307.19999999999
 20
8009.600000000007
 30
0.0
 11
13127.19999999999
 21
8009.600000000011
 31
0.0
  0
TEXT
  5
17676
330
747D
100
AcDbEntity
  8
文字
 62
     7
 48
50.0
100
AcDbText
 10
13583.11819016569
 20
8720.013745883735
 30
0.0
 40
100.0
  1
扉
  7
STYLE1
100
AcDbText
  0
TEXT
  5
17677
330
747D
100
AcDbEntity
  8
文字
 62
     7
 48
50.0
100
AcDbText
 10
15022.63965474516
 20
8720.013745883731
 30
0.0
 40
100.0
  1
F12            0.8
  7
STYLE1
100
AcDbText
  0
TEXT
  5
17678
330
747D
100
AcDbEntity
  8
文字
 62
     7
 48
50.0
100
AcDbText
 10
13583.11819016568
 20
8890.013745883734
 30
0.0
 40
100.0
  1
正面パネル
  7
STYLE1
100
AcDbText
  0
TEXT
  5
17679
330
747D
100
AcDbEntity
  8
文字
 62
     7
 48
50.0
100
AcDbText
 10
15022.63965474515
 20
8890.013745883731
 30
0.0
 40
100.0
  1
F12            0.7
  7
STYLE1
100
AcDbText
  0
TEXT
  5
1767A
330
747D
100
AcDbEntity
  8
文字
 62
     7
 48
50.0
100
AcDbText
 10
15022.63965474517
 20
10590.01374588373
 30
0.0
 40
100.0
  1
F12            1.0
  7
STYLE1
100
AcDbText
  0
TEXT
  5
1767B
330
747D
100
AcDbEntity
  8
文字
 62
     7
 48
50.0
100
AcDbText
 10
15022.63965474516
 20
10930.01374588373
 30
0.0
 40
100.0
  1
F12            1.2
  7
STYLE1
100
AcDbText
  0
TEXT
  5
1767C
330
747D
100
AcDbEntity
  8
文字
 62
     7
 48
50.0
100
AcDbText
 10
13248.77747366448
 20
8890.013745883731
 30
0.0
 40
100.0
  1
14
  7
STYLE1
100
AcDbText
  0
TEXT
  5
1767D
330
747D
100
AcDbEntity
  8
文字
 62
     7
 48
50.0
100
AcDbText
 10
13583.11819016569
 20
10930.01374588373
 30
0.0
 40
100.0
  1
根太
  7
STYLE1
100
AcDbText
  0
TEXT
  5
1767E
330
747D
100
AcDbEntity
  8
文字
 62
     7
 48
50.0
100
AcDbText
 10
13583.1181901657
 20
10590.01374588373
 30
0.0
 40
100.0
  1
床パネル
 41
0.9
  7
STYLE1
100
AcDbText
  0
LINE
  5
1767F
330
747D
100
AcDbEntity
  8
仕様書枠
 48
50.0
100
AcDbLine
 10
16307.19999999999
 20
9029.600000000003
 30
0.0
 11
13127.2
 21
9029.600000000007
 31
0.0
  0
LINE
  5
17680
330
747D
100
AcDbEntity
  8
仕様書枠
 48
50.0
100
AcDbLine
 10
13127.2
 20
11409.6
 30
0.0
 11
13127.19999999999
 21
8009.600000000011
 31
0.0
  0
TEXT
  5
17681
330
747D
100
AcDbEntity
  8
文字
 62
     7
 48
50.0
100
AcDbText
 10
13229.83081656554
 20
8040.013745883737
 30
0.0
 40
100.0
  1
Y10→溶融亜鉛-5％アルミニウム合金めっき鋼板(JIS G 3317)
 41
0.9
  7
STYLE1
100
AcDbText
  0
TEXT
  5
17682
330
747D
100
AcDbEntity
  8
文字
 62
     7
 48
50.0
100
AcDbText
 10
13229.83081656554
 20
8210.013745883737
 30
0.0
 40
100.0
  1
F12→溶融亜鉛めっき鋼板(JIS G 3302)
  7
STYLE1
100
AcDbText
  0
LINE
  5
17683
330
747D
100
AcDbEntity
  8
仕様書枠
 48
50.0
100
AcDbLine
 10
16307.19999999999
 20
8179.600000000007
 30
0.0
 11
13127.19999999999
 21
8179.600000000009
 31
0.0
  0
LINE
  5
17684
330
747D
100
AcDbEntity
  8
仕様書枠
 48
50.0
100
AcDbLine
 10
16307.19999999999
 20
8349.600000000007
 30
0.0
 11
13127.19999999999
 21
8349.600000000009
 31
0.0
  0
TEXT
  5
17685
330
747D
100
AcDbEntity
  8
文字
 62
     7
 48
50.0
100
AcDbText
 10
15022.63965474515
 20
9570.013745883729
 30
0.0
 40
100.0
  1
F12            0.6
  7
STYLE1
100
AcDbText
  0
TEXT
  5
17686
330
747D
100
AcDbEntity
  8
文字
 62
     7
 48
50.0
100
AcDbText
 10
15022.63965474517
 20
9910.01374588373
 30
0.0
 40
100.0
  1
Y10            0.5
  7
STYLE1
100
AcDbText
  0
TEXT
  5
17687
330
747D
100
AcDbEntity
  8
文字
 62
     7
 48
50.0
100
AcDbText
 10
15022.63965474516
 20
10080.01374588373
 30
0.0
 40
100.0
  1
Y10            0.7
  7
STYLE1
100
AcDbText
  0
TEXT
  5
17688
330
747D
100
AcDbEntity
  8
文字
 62
     7
 48
50.0
100
AcDbText
 10
15022.63965474516
 20
10250.01374588373
 30
0.0
 40
100.0
  1
Y10            0.7
  7
STYLE1
100
AcDbText
  0
TEXT
  5
17689
330
747D
100
AcDbEntity
  8
文字
 62
     7
 48
50.0
100
AcDbText
 10
15022.63965474516
 20
10420.01374588373
 30
0.0
 40
100.0
  1
Y10            1.0
  7
STYLE1
100
AcDbText
  0
TEXT
  5
1768A
330
747D
100
AcDbEntity
  8
文字
 62
     7
 48
50.0
100
AcDbText
 10
15022.63965474518
 20
10760.01374588373
 30
0.0
 40
100.0
  1
F12            1.0
  7
STYLE1
100
AcDbText
  0
TEXT
  5
1768B
330
747D
100
AcDbEntity
  8
文字
 62
     7
 48
50.0
100
AcDbText
 10
15022.63965474517
 20
11100.01374588373
 30
0.0
 40
100.0
  1
F12            1.2
  7
STYLE1
100
AcDbText
  0
TEXT
  5
1768C
330
747D
100
AcDbEntity
  8
文字
 62
     7
 48
50.0
100
AcDbText
 10
13248.77747366448
 20
9230.013745883731
 30
0.0
 40
100.0
  1
12
  7
STYLE1
100
AcDbText
  0
TEXT
  5
1768D
330
747D
100
AcDbEntity
  8
文字
 62
     7
 48
50.0
100
AcDbText
 10
13248.77747366448
 20
9060.013745883731
 30
0.0
 40
100.0
  1
13
  7
STYLE1
100
AcDbText
  0
LINE
  5
1768E
330
747D
100
AcDbEntity
  8
仕様書枠
 48
50.0
100
AcDbLine
 10
16307.19999999999
 20
8859.600000000005
 30
0.0
 11
13127.2
 21
8859.600000000005
 31
0.0
  0
LINE
  5
1768F
330
747D
100
AcDbEntity
  8
仕様書枠
 48
50.0
100
AcDbLine
 10
16307.19999999999
 20
9199.600000000001
 30
0.0
 11
13127.2
 21
9199.600000000003
 31
0.0
  0
TEXT
  5
17690
330
747D
100
AcDbEntity
  8
文字
 62
     7
 48
50.0
100
AcDbText
 10
13248.77747366447
 20
9400.013745883731
 30
0.0
 40
100.0
  1
11
  7
STYLE1
100
AcDbText
  0
LINE
  5
17691
330
747D
100
AcDbEntity
  8
仕様書枠
 48
50.0
100
AcDbLine
 10
16307.2
 20
9879.600000000003
 30
0.0
 11
13127.2
 21
9879.600000000005
 31
0.0
  0
LINE
  5
17692
330
747D
100
AcDbEntity
  8
仕様書枠
 48
50.0
100
AcDbLine
 10
16307.2
 20
10219.6
 30
0.0
 11
13127.2
 21
10219.6
 31
0.0
  0
LINE
  5
17693
330
747D
100
AcDbEntity
  8
仕様書枠
 48
50.0
100
AcDbLine
 10
16307.19999999999
 20
9539.600000000003
 30
0.0
 11
13127.2
 21
9539.600000000005
 31
0.0
  0
LINE
  5
17694
330
747D
100
AcDbEntity
  8
仕様書枠
 48
50.0
100
AcDbLine
 10
16307.19999999999
 20
9369.600000000003
 30
0.0
 11
13127.2
 21
9369.600000000003
 31
0.0
  0
LINE
  5
17695
330
747D
100
AcDbEntity
  8
仕様書枠
 48
50.0
100
AcDbLine
 10
16307.19999999999
 20
9709.600000000001
 30
0.0
 11
13127.2
 21
9709.600000000005
 31
0.0
  0
TEXT
  5
17696
330
747D
100
AcDbEntity
  8
文字
 62
     7
 48
50.0
100
AcDbText
 10
13271.19032244792
 20
10250.01374588373
 30
0.0
 40
100.0
  1
6
  7
STYLE1
100
AcDbText
  0
TEXT
  5
17697
330
747D
100
AcDbEntity
  8
文字
 62
     7
 48
50.0
100
AcDbText
 10
13271.19032244792
 20
10080.01374588373
 30
0.0
 40
100.0
  1
7
  7
STYLE1
100
AcDbText
  0
TEXT
  5
17698
330
747D
100
AcDbEntity
  8
文字
 62
     7
 48
50.0
100
AcDbText
 10
13271.19032244792
 20
9740.013745883732
 30
0.0
 40
100.0
  1
9
  7
STYLE1
100
AcDbText
  0
TEXT
  5
17699
330
747D
100
AcDbEntity
  8
文字
 62
     7
 48
50.0
100
AcDbText
 10
13271.19032244792
 20
9910.013745883732
 30
0.0
 40
100.0
  1
8
  7
STYLE1
100
AcDbText
  0
TEXT
  5
1769A
330
747D
100
AcDbEntity
  8
文字
 62
     7
 48
50.0
100
AcDbText
 10
13583.11819016569
 20
10080.01374588373
 30
0.0
 40
100.0
  1
鼻隠シ前後
  7
STYLE1
100
AcDbText
  0
TEXT
  5
1769B
330
747D
100
AcDbEntity
  8
文字
 62
     7
 48
50.0
100
AcDbText
 10
13583.11819016569
 20
9910.01374588373
 30
0.0
 40
100.0
  1
屋根パネル
  7
STYLE1
100
AcDbText
  0
TEXT
  5
1769C
330
747D
100
AcDbEntity
  8
文字
 62
     7
 48
50.0
100
AcDbText
 10
13583.11819016568
 20
9570.013745883732
 30
0.0
 40
100.0
  1
壁パネル
  7
STYLE1
100
AcDbText
  0
TEXT
  5
1769D
330
747D
100
AcDbEntity
  8
文字
 62
     7
 48
50.0
100
AcDbText
 10
13248.77747366447
 20
9570.013745883731
 30
0.0
 40
100.0
  1
10
  7
STYLE1
100
AcDbText
  0
TEXT
  5
1769E
330
747D
100
AcDbEntity
  8
文字
 62
     7
 48
50.0
100
AcDbText
 10
13583.11819016569
 20
10250.01374588373
 30
0.0
 40
100.0
  1
妻板左右
  7
STYLE1
100
AcDbText
  0
TEXT
  5
1769F
330
747D
100
AcDbEntity
  8
文字
 62
     7
 48
50.0
100
AcDbText
 10
13271.19032244792
 20
10420.01374588373
 30
0.0
 40
100.0
  1
5
  7
STYLE1
100
AcDbText
  0
TEXT
  5
176A0
330
747D
100
AcDbEntity
  8
文字
 62
     7
 48
50.0
100
AcDbText
 10
13583.11819016569
 20
10420.01374588373
 30
0.0
 40
100.0
  1
桁前後
  7
STYLE1
100
AcDbText
  0
TEXT
  5
176A1
330
747D
100
AcDbEntity
  8
文字
 62
     7
 48
50.0
100
AcDbText
 10
13583.1181901657
 20
10760.01374588373
 30
0.0
 40
100.0
  1
柱
  7
STYLE1
100
AcDbText
  0
TEXT
  5
176A2
330
747D
100
AcDbEntity
  8
文字
 62
     7
 48
50.0
100
AcDbText
 10
13583.11819016569
 20
11100.01374588373
 30
0.0
 40
100.0
  1
土台枠
  7
STYLE1
100
AcDbText
  0
TEXT
  5
176A3
330
747D
100
AcDbEntity
  8
文字
 62
     7
 48
50.0
100
AcDbText
 10
14859.79774614482
 20
11270.01374588373
 30
0.0
 40
100.0
  1
材料（材質）　　単位mm
  7
STYLE1
100
AcDbText
  0
TEXT
  5
176A4
330
747D
100
AcDbEntity
  8
文字
 62
     7
 48
50.0
100
AcDbText
 10
13732.03840939434
 20
11270.01374588373
 30
0.0
 40
100.0
  1
部　　品　　名
  7
STYLE1
100
AcDbText
  0
TEXT
  5
176A5
330
747D
100
AcDbEntity
  8
文字
 62
     7
 48
50.0
100
AcDbText
 10
13271.19032244792
 20
10760.01374588373
 30
0.0
 40
100.0
  1
3
  7
STYLE1
100
AcDbText
  0
TEXT
  5
176A6
330
747D
100
AcDbEntity
  8
文字
 62
     7
 48
50.0
100
AcDbText
 10
13271.19032244792
 20
10590.01374588373
 30
0.0
 40
100.0
  1
4
  7
STYLE1
100
AcDbText
  0
TEXT
  5
176A7
330
747D
100
AcDbEntity
  8
文字
 62
     7
 48
50.0
100
AcDbText
 10
13271.19032244792
 20
10930.01374588373
 30
0.0
 40
100.0
  1
2
  7
STYLE1
100
AcDbText
  0
TEXT
  5
176A8
330
747D
100
AcDbEntity
  8
文字
 62
     7
 48
50.0
100
AcDbText
 10
13271.19032244792
 20
11100.01374588373
 30
0.0
 40
100.0
  1
1
  7
STYLE1
100
AcDbText
  0
TEXT
  5
176A9
330
747D
100
AcDbEntity
  8
文字
 62
     7
 48
50.0
100
AcDbText
 10
13197.42518560407
 20
11270.01374588373
 30
0.0
 40
100.0
  1
品番
  7
STYLE1
100
AcDbText
  0
LINE
  5
176AA
330
747D
100
AcDbEntity
  8
仕様書枠
 48
50.0
100
AcDbLine
 10
16307.19999999999
 20
10729.6
 30
0.0
 11
13127.2
 21
10729.6
 31
0.0
  0
LINE
  5
176AB
330
747D
100
AcDbEntity
  8
仕様書枠
 48
50.0
100
AcDbLine
 10
16307.19999999999
 20
10389.6
 30
0.0
 11
13127.2
 21
10389.6
 31
0.0
  0
LINE
  5
176AC
330
747D
100
AcDbEntity
  8
仕様書枠
 48
50.0
100
AcDbLine
 10
16307.19999999999
 20
10559.6
 30
0.0
 11
13127.2
 21
10559.6
 31
0.0
  0
LINE
  5
176AD
330
747D
100
AcDbEntity
  8
仕様書枠
 48
50.0
100
AcDbLine
 10
16307.2
 20
11069.6
 30
0.0
 11
13127.2
 21
11069.6
 31
0.0
  0
LINE
  5
176AE
330
747D
100
AcDbEntity
  8
仕様書枠
 48
50.0
100
AcDbLine
 10
16307.2
 20
10899.6
 30
0.0
 11
13127.2
 21
10899.6
 31
0.0
  0
LINE
  5
176AF
330
747D
100
AcDbEntity
  8
仕様書枠
 48
50.0
100
AcDbLine
 10
16307.2
 20
11239.6
 30
0.0
 11
13127.2
 21
11239.6
 31
0.0
  0
LINE
  5
176B0
330
747D
100
AcDbEntity
  8
仕様書枠
 48
50.0
100
AcDbLine
 10
13490.2
 20
11409.6
 30
0.0
 11
13490.20000000001
 21
8349.600000000009
 31
0.0
  0
LINE
  5
176B1
330
747D
100
AcDbEntity
  8
仕様書枠
 48
50.0
100
AcDbLine
 10
14785.2
 20
11409.6
 30
0.0
 11
14785.2
 21
8349.600000000007
 31
0.0
  0
LINE
  5
176B2
330
747D
100
AcDbEntity
  8
仕様書枠
 48
50.0
100
AcDbLine
 10
16307.19999999999
 20
8009.600000000007
 30
0.0
 11
16307.2
 21
11409.6
 31
0.0
  0
LINE
  5
176B3
330
747D
100
AcDbEntity
  8
仕様書枠
 48
50.0
100
AcDbLine
 10
16307.2
 20
11409.6
 30
0.0
 11
13127.2
 21
11409.6
 31
0.0
  0
LINE
  5
176B4
330
747D
100
AcDbEntity
  8
仕様書枠
 48
50.0
100
AcDbLine
 10
16307.2
 20
10049.6
 30
0.0
 11
13127.2
 21
10049.6
 31
0.0
  0
TEXT
  5
176B5
330
747D
100
AcDbEntity
  8
文字
 62
     7
 48
50.0
100
AcDbText
 10
15022.63965474515
 20
8380.013745883728
 30
0.0
 40
100.0
  1
F12            2.3
  7
STYLE1
100
AcDbText
  0
TEXT
  5
176B6
330
747D
100
AcDbEntity
  8
文字
 62
     7
 48
50.0
100
AcDbText
 10
13583.11819016569
 20
8380.013745883733
 30
0.0
 40
100.0
  1
アンカープレート
  7
STYLE1
100
AcDbText
  0
LINE
  5
176B7
330
747D
100
AcDbEntity
  8
仕様書枠
 48
50.0
100
AcDbLine
 10
16307.19999999999
 20
8519.600000000009
 30
0.0
 11
13127.2
 21
8519.600000000009
 31
0.0
  0
LINE
  5
176B8
330
747D
100
AcDbEntity
  8
仕様書枠
 48
50.0
100
AcDbLine
 10
16307.19999999999
 20
8689.600000000007
 30
0.0
 11
13127.2
 21
8689.600000000011
 31
0.0
  0
TEXT
  5
176B9
330
747D
100
AcDbEntity
  8
文字
 62
     7
 48
50.0
100
AcDbText
 10
13583.11819016569
 20
9400.013745883732
 30
0.0
 40
100.0
  1
壁面扉鴨居
  7
STYLE1
100
AcDbText
  0
TEXT
  5
176BA
330
747D
100
AcDbEntity
  8
文字
 62
     7
 48
50.0
100
AcDbText
 10
13583.11819016569
 20
9230.013745883736
 30
0.0
 40
100.0
  1
壁面扉敷居
  7
STYLE1
100
AcDbText
  0
TEXT
  5
176BB
330
747D
100
AcDbEntity
  8
文字
 62
     7
 48
50.0
100
AcDbText
 10
15022.63965474515
 20
9400.013745883731
 30
0.0
 40
100.0
  1
F12            0.7
  7
STYLE1
100
AcDbText
  0
TEXT
  5
176BC
330
747D
100
AcDbEntity
  8
文字
 62
     7
 48
50.0
100
AcDbText
 10
15022.63965474517
 20
9230.013745883729
 30
0.0
 40
100.0
  1
F12            1.0
  7
STYLE1
100
AcDbText
  0
TEXT
  5
176BD
330
747D
100
AcDbEntity
  8
文字
 62
     7
 48
50.0
100
AcDbText
 10
13583.11819016569
 20
9060.013745883736
 30
0.0
 40
100.0
  1
壁面扉枠左右
  7
STYLE1
100
AcDbText
  0
TEXT
  5
176BE
330
747D
100
AcDbEntity
  8
文字
 62
     7
 48
50.0
100
AcDbText
 10
15022.63965474517
 20
9060.013745883729
 30
0.0
 40
100.0
  1
F12            1.0
  7
STYLE1
100
AcDbText
  0
TEXT
  5
176BF
330
747D
100
AcDbEntity
  8
文字
 62
     7
 48
50.0
100
AcDbText
 10
13248.77747366447
 20
8550.013745883733
 30
0.0
 40
100.0
  1
16
  7
STYLE1
100
AcDbText
  0
TEXT
  5
176C0
330
747D
100
AcDbEntity
  8
文字
 62
     7
 48
50.0
100
AcDbText
 10
13248.77747366447
 20
8380.013745883733
 30
0.0
 40
100.0
  1
17
  7
STYLE1
100
AcDbText
  0
LINE
  5
17984
330
747D
100
AcDbEntity
  8
補助
  6
PHANTOM
 62
   230
 48
50.0
100
AcDbLine
 10
140.0
 20
0.0
 30
0.0
 11
140.0
 21
11409.6
 31
0.0
  0
LINE
  5
17B87
330
747D
100
AcDbEntity
  8
部品1
100
AcDbLine
 10
10746.44279271596
 20
8445.96184312299
 30
0.0
 11
10718.44279271596
 21
8445.96184312299
 31
0.0
  0
LINE
  5
17B88
330
747D
100
AcDbEntity
  8
部品1
100
AcDbLine
 10
10746.44279271596
 20
8445.96184312299
 30
0.0
 11
10718.44279271596
 21
8445.96184312299
 31
0.0
  0
LINE
  5
17B89
330
747D
100
AcDbEntity
  8
部品1
100
AcDbLine
 10
10746.44279271607
 20
8445.96184312299
 30
0.0
 11
10718.44279271607
 21
8445.96184312299
 31
0.0
  0
LINE
  5
17B8A
330
747D
100
AcDbEntity
  8
部品1
100
AcDbLine
 10
9404.442792715981
 20
8445.961843123063
 30
0.0
 11
9376.44279271598
 21
8445.961843123063
 31
0.0
  0
LINE
  5
17B8B
330
747D
100
AcDbEntity
  8
部品1
100
AcDbLine
 10
9404.442792715977
 20
8445.961843123063
 30
0.0
 11
9376.442792715977
 21
8445.961843123063
 31
0.0
  0
LINE
  5
17B8C
330
747D
100
AcDbEntity
  8
部品1
100
AcDbLine
 10
9404.442792716094
 20
8445.961843123063
 30
0.0
 11
9376.442792716094
 21
8445.961843123063
 31
0.0
  0
MTEXT
  5
17B8D
330
747D
100
AcDbEntity
  8
寸法
 62
     7
 48
50.0
100
AcDbMText
 10
10335.61053406237
 20
8215.90759137541
 30
0.0
 40
96.0
 41
0.0
 71
     5
 72
     1
  1
棚 2段
  7
STYLE1
 11
0.0000000000000001
 21
1.0
 31
0.0
 73
     1
 44
1.0
1001
ACAD
1000
MTEXTBEGIN
1070
    73
1070
     1
1070
    44
1040
1.0
1070
    74
1070
     0
1000
MTEXTEND
  0
LINE
  5
17B8E
330
747D
100
AcDbEntity
  8
破線
 48
10.0
100
AcDbLine
 10
9432.942792715897
 20
9260.961843123004
 30
0.0
 11
10266.44279271591
 21
9260.961843123004
 31
0.0
  0
LINE
  5
17B8F
330
747D
100
AcDbEntity
  8
破線
 48
10.0
100
AcDbLine
 10
9432.942792715902
 20
9310.961843122999
 30
0.0
 11
10266.44279271591
 21
9310.961843123003
 31
0.0
  0
LINE
  5
17B90
330
747D
100
AcDbEntity
  8
破線
 48
10.0
100
AcDbLine
 10
9432.942792715897
 20
8420.961843123006
 30
0.0
 11
10266.44279271591
 21
8420.961843123006
 31
0.0
  0
LINE
  5
17B91
330
747D
100
AcDbEntity
  8
破線
 48
10.0
100
AcDbLine
 10
9432.942792715902
 20
8470.961843123001
 30
0.0
 11
10266.44279271591
 21
8470.961843123005
 31
0.0
  0
LINE
  5
17B92
330
747D
100
AcDbEntity
  8
破線
 48
10.0
100
AcDbLine
 10
9456.442792715883
 20
8420.961843123002
 30
0.0
 11
9456.442792715851
 21
7630.961843122946
 31
0.0
  0
LINE
  5
17D19
330
747D
100
AcDbEntity
  8
細線
 48
50.0
100
AcDbLine
 10
7151.845763378651
 20
4322.672990367946
 30
0.0
 11
7151.845763378651
 21
2532.672990367946
 31
0.0
  0
LINE
  5
17D1A
330
747D
100
AcDbEntity
  8
細線
 48
50.0
100
AcDbLine
 10
7166.845763378652
 20
4322.672990367946
 30
0.0
 11
7166.845763378652
 21
2532.672990367946
 31
0.0
  0
LINE
  5
17D1B
330
747D
100
AcDbEntity
  8
細線
 48
50.0
100
AcDbLine
 10
7026.845763378651
 20
4322.672990367946
 30
0.0
 11
7026.845763378651
 21
2532.672990367946
 31
0.0
  0
LINE
  5
17D1C
330
747D
100
AcDbEntity
  8
細線
 48
50.0
100
AcDbLine
 10
7011.845763378651
 20
4322.672990367946
 30
0.0
 11
7011.845763378651
 21
2532.672990367946
 31
0.0
  0
LINE
  5
17D1D
330
747D
100
AcDbEntity
  8
細線
 48
50.0
100
AcDbLine
 10
6871.845763378651
 20
4322.672990367946
 30
0.0
 11
6871.845763378651
 21
2532.672990367946
 31
0.0
  0
LINE
  5
17D1E
330
747D
100
AcDbEntity
  8
細線
 48
50.0
100
AcDbLine
 10
6886.845763378651
 20
4322.672990367946
 30
0.0
 11
6886.845763378651
 21
2532.672990367946
 31
0.0
  0
LINE
  5
17D1F
330
747D
100
AcDbEntity
  8
部品1
100
AcDbLine
 10
5969.345763378644
 20
4322.672990367945
 30
0.0
 11
5969.345763378644
 21
2532.672990367946
 31
0.0
  0
LINE
  5
17D20
330
747D
100
AcDbEntity
  8
細線
 48
50.0
100
AcDbLine
 10
5626.845763378647
 20
4322.672990367945
 30
0.0
 11
5626.845763378647
 21
2532.672990367946
 31
0.0
  0
LINE
  5
17D21
330
747D
100
AcDbEntity
  8
細線
 48
50.0
100
AcDbLine
 10
5611.845763378648
 20
4322.672990367945
 30
0.0
 11
5611.845763378648
 21
2532.672990367946
 31
0.0
  0
LINE
  5
17D22
330
747D
100
AcDbEntity
  8
細線
 48
50.0
100
AcDbLine
 10
5751.845763378647
 20
4322.672990367945
 30
0.0
 11
5751.845763378647
 21
2532.672990367946
 31
0.0
  0
LINE
  5
17D23
330
747D
100
AcDbEntity
  8
細線
 48
50.0
100
AcDbLine
 10
5766.845763378647
 20
4322.672990367945
 30
0.0
 11
5766.845763378647
 21
2532.672990367946
 31
0.0
  0
LINE
  5
17D24
330
747D
100
AcDbEntity
  8
細線
 48
50.0
100
AcDbLine
 10
5906.845763378647
 20
4322.672990367945
 30
0.0
 11
5906.845763378647
 21
2532.672990367946
 31
0.0
  0
LINE
  5
17D25
330
747D
100
AcDbEntity
  8
細線
 48
50.0
100
AcDbLine
 10
5891.845763378647
 20
4322.672990367945
 30
0.0
 11
5891.845763378647
 21
2532.672990367946
 31
0.0
  0
LINE
  5
17D26
330
747D
100
AcDbEntity
  8
部品1
100
AcDbLine
 10
5549.345763378644
 20
4322.672990367945
 30
0.0
 11
5549.345763378644
 21
2532.672990367946
 31
0.0
  0
DIMENSION
  5
17D27
330
747D
100
AcDbEntity
  8
寸法
 48
50.0
100
AcDbDimension
  2
*D19
 10
7364.345763378643
 20
4956.33044394725
 30
0.0
 11
7570.393007473135
 21
4956.33044394725
 31
0.0
 70
   160
 71
     5
 42
80.0
  3
INABA_S40G
100
AcDbAlignedDimension
 13
7284.345763378644
 23
4504.4836699796
 33
0.0
 14
7364.345763378643
 24
4502.672990367947
 34
0.0
100
AcDbRotatedDimension
1001
ACAD
1000
DSTYLE
1002
{
1070
   174
1070
     0
1070
   272
1070
     1
1070
   288
1070
     0
1070
   341
1005
0
1002
}
  0
LINE
  5
17D28
330
747D
100
AcDbEntity
  8
細線
 48
50.0
100
AcDbLine
 10
4786.845763378644
 20
4322.672990367945
 30
0.0
 11
4786.845763378644
 21
2532.672990367946
 31
0.0
  0
LINE
  5
17D29
330
747D
100
AcDbEntity
  8
細線
 48
50.0
100
AcDbLine
 10
4771.845763378643
 20
4322.672990367945
 30
0.0
 11
4771.845763378643
 21
2532.672990367946
 31
0.0
  0
LINE
  5
17D2A
330
747D
100
AcDbEntity
  8
細線
 48
50.0
100
AcDbLine
 10
4911.845763378644
 20
4322.672990367945
 30
0.0
 11
4911.845763378644
 21
2532.672990367946
 31
0.0
  0
LINE
  5
17D2B
330
747D
100
AcDbEntity
  8
細線
 48
50.0
100
AcDbLine
 10
4926.845763378643
 20
4322.672990367945
 30
0.0
 11
4926.845763378643
 21
2532.672990367946
 31
0.0
  0
LINE
  5
17D2C
330
747D
100
AcDbEntity
  8
細線
 48
50.0
100
AcDbLine
 10
5066.845763378644
 20
4322.672990367945
 30
0.0
 11
5066.845763378644
 21
2532.672990367946
 31
0.0
  0
LINE
  5
17D2D
330
747D
100
AcDbEntity
  8
細線
 48
50.0
100
AcDbLine
 10
5051.845763378643
 20
4322.672990367945
 30
0.0
 11
5051.845763378643
 21
2532.672990367946
 31
0.0
  0
LINE
  5
17D2E
330
747D
100
AcDbEntity
  8
細線
 48
50.0
100
AcDbLine
 10
5471.845763378644
 20
4322.672990367945
 30
0.0
 11
5471.845763378644
 21
2532.672990367946
 31
0.0
  0
LINE
  5
17D2F
330
747D
100
AcDbEntity
  8
細線
 48
50.0
100
AcDbLine
 10
5486.845763378644
 20
4322.672990367945
 30
0.0
 11
5486.845763378644
 21
2532.672990367946
 31
0.0
  0
LINE
  5
17D30
330
747D
100
AcDbEntity
  8
細線
 48
50.0
100
AcDbLine
 10
5346.845763378644
 20
4322.672990367945
 30
0.0
 11
5346.845763378644
 21
2532.672990367946
 31
0.0
  0
LINE
  5
17D31
330
747D
100
AcDbEntity
  8
細線
 48
50.0
100
AcDbLine
 10
5331.845763378644
 20
4322.672990367945
 30
0.0
 11
5331.845763378644
 21
2532.672990367946
 31
0.0
  0
LINE
  5
17D32
330
747D
100
AcDbEntity
  8
細線
 48
50.0
100
AcDbLine
 10
5191.845763378644
 20
4322.672990367945
 30
0.0
 11
5191.845763378644
 21
2532.672990367946
 31
0.0
  0
LINE
  5
17D33
330
747D
100
AcDbEntity
  8
細線
 48
50.0
100
AcDbLine
 10
5206.845763378644
 20
4322.672990367945
 30
0.0
 11
5206.845763378644
 21
2532.672990367946
 31
0.0
  0
LINE
  5
17D34
330
747D
100
AcDbEntity
  8
部品1
100
AcDbLine
 10
4654.345763378644
 20
2482.672990367945
 30
0.0
 11
4661.845763378645
 21
2482.672990367945
 31
0.0
  0
DIMENSION
  5
17D35
330
747D
100
AcDbEntity
  8
寸法
 48
50.0
100
AcDbDimension
  2
*D20
 10
4594.345763378643
 20
5176.541130678868
 30
0.0
 11
5997.704688266019
 21
5176.541130678868
 31
0.0
 70
   160
 71
     5
 42
2770.0
  3
INABA_S40G
100
AcDbAlignedDimension
 13
7364.345763378643
 23
4502.672990367947
 33
0.0
 14
4594.345763378643
 24
4557.67299036795
 34
0.0
100
AcDbRotatedDimension
1001
ACAD
1000
DSTYLE
1002
{
1070
   174
1070
     0
1070
   272
1070
     1
1070
   288
1070
     0
1070
   341
1005
0
1002
}
  0
DIMENSION
  5
17D36
330
747D
100
AcDbEntity
  8
寸法
 48
50.0
100
AcDbDimension
  2
*D21
 10
4594.345763378643
 20
4956.330443947249
 30
0.0
 11
4284.707968103053
 21
4956.330443947249
 31
0.0
 70
   160
 71
     5
 42
60.0
  3
INABA_S40G
100
AcDbAlignedDimension
 13
4654.345763378644
 23
4553.674608490921
 33
0.0
 14
4594.345763378643
 24
4557.67299036795
 34
0.0
100
AcDbRotatedDimension
1001
ACAD
1000
DSTYLE
1002
{
1070
   174
1070
     0
1070
   272
1070
     1
1070
   288
1070
     0
1070
   341
1005
0
1002
}
  0
DIMENSION
  5
17D37
330
747D
100
AcDbEntity
  8
寸法
 48
50.0
100
AcDbDimension
  2
*D22
 10
4654.345763378644
 20
4956.33044394725
 30
0.0
 11
6009.115954407838
 21
4956.33044394725
 31
0.0
 70
   160
  1
柱外寸法<>
 71
     5
 42
2630.0
  3
INABA_S40G
100
AcDbAlignedDimension
 13
7284.345763378644
 23
4504.4836699796
 33
0.0
 14
4654.345763378644
 24
4553.674608490921
 34
0.0
100
AcDbRotatedDimension
1001
ACAD
1000
DSTYLE
1002
{
1070
   174
1070
     0
1070
   272
1070
     1
1070
   288
1070
     0
1070
   341
1005
0
1002
}
  0
DIMENSION
  5
17D38
330
747D
100
AcDbEntity
  8
寸法
100
AcDbDimension
  2
*D23
 10
7989.272921350776
 20
4502.672990367947
 30
0.0
 11
7889.261110327153
 21
3492.672990367948
 31
0.0
 70
    32
 71
     5
 42
2020.000000000001
  3
INABA_S40G
100
AcDbAlignedDimension
 13
7361.345763378648
 23
2482.672990367946
 33
0.0
 14
7364.345763378643
 24
4502.672990367947
 34
0.0
 50
90.0
100
AcDbRotatedDimension
1001
ACAD
1000
DSTYLE
1002
{
1070
   174
1070
     0
1070
   272
1070
     1
1070
   288
1070
     0
1070
   341
1005
0
1002
}
  0
LINE
  5
17D39
330
747D
100
AcDbEntity
  8
部品1
100
AcDbLine
 10
7229.345763378647
 20
4322.672990367946
 30
0.0
 11
7229.345763378647
 21
2532.672990367946
 31
0.0
  0
LINE
  5
17D3A
330
747D
100
AcDbEntity
  8
部品1
100
AcDbLine
 10
7284.345763378643
 20
4377.207263755684
 30
0.0
 11
7284.345763378647
 21
2382.672990367946
 31
0.0
  0
LINE
  5
17D3B
330
747D
100
AcDbEntity
  8
部品1
100
AcDbLine
 10
5129.345763378644
 20
4322.672990367945
 30
0.0
 11
5129.345763378644
 21
2532.672990367946
 31
0.0
  0
LINE
  5
17D40
330
747D
100
AcDbEntity
  8
部品1
100
AcDbLine
 10
4654.345763378644
 20
4414.531509810193
 30
0.0
 11
4654.345763378644
 21
2382.672990367945
 31
0.0
  0
LINE
  5
17D41
330
747D
100
AcDbEntity
  8
部品1
100
AcDbLine
 10
4709.345763378643
 20
4322.672990367945
 30
0.0
 11
4709.345763378643
 21
2532.672990367946
 31
0.0
  0
LINE
  5
17D42
330
747D
100
AcDbEntity
  8
部品1
100
AcDbLine
 10
4654.345763378644
 20
2532.672990367946
 30
0.0
 11
7284.345763378647
 21
2532.672990367946
 31
0.0
  0
LINE
  5
17D43
330
747D
100
AcDbEntity
  8
部品1
100
AcDbLine
 10
4654.345763378644
 20
4322.672990367945
 30
0.0
 11
7284.345763378644
 21
4322.672990367945
 31
0.0
  0
LINE
  5
17D44
330
747D
100
AcDbEntity
  8
部品1
100
AcDbLine
 10
6809.345763378644
 20
4322.672990367946
 30
0.0
 11
6809.345763378644
 21
2532.672990367946
 31
0.0
  0
LINE
  5
17D45
330
747D
100
AcDbEntity
  8
細線
 48
50.0
100
AcDbLine
 10
6311.845763378648
 20
4322.672990367945
 30
0.0
 11
6311.845763378648
 21
2532.672990367946
 31
0.0
  0
LINE
  5
17D46
330
747D
100
AcDbEntity
  8
細線
 48
50.0
100
AcDbLine
 10
6326.845763378647
 20
4322.672990367945
 30
0.0
 11
6326.845763378647
 21
2532.672990367946
 31
0.0
  0
LINE
  5
17D47
330
747D
100
AcDbEntity
  8
細線
 48
50.0
100
AcDbLine
 10
6186.845763378648
 20
4322.672990367945
 30
0.0
 11
6186.845763378648
 21
2532.672990367946
 31
0.0
  0
LINE
  5
17D48
330
747D
100
AcDbEntity
  8
細線
 48
50.0
100
AcDbLine
 10
6171.845763378648
 20
4322.672990367945
 30
0.0
 11
6171.845763378648
 21
2532.672990367946
 31
0.0
  0
LINE
  5
17D49
330
747D
100
AcDbEntity
  8
細線
 48
50.0
100
AcDbLine
 10
6031.845763378647
 20
4322.672990367945
 30
0.0
 11
6031.845763378647
 21
2532.672990367946
 31
0.0
  0
LINE
  5
17D4A
330
747D
100
AcDbEntity
  8
細線
 48
50.0
100
AcDbLine
 10
6046.845763378648
 20
4322.672990367945
 30
0.0
 11
6046.845763378648
 21
2532.672990367946
 31
0.0
  0
TEXT
  5
17D4B
330
747D
100
AcDbEntity
  8
部品1
 48
50.0
100
AcDbText
 10
6320.926765339738
 20
4579.942083306252
 30
0.0
 40
120.0
  1
37
 50
90.0
  7
STYLE1
100
AcDbText
  0
TEXT
  5
17D4C
330
747D
100
AcDbEntity
  8
部品1
 48
50.0
100
AcDbText
 10
5843.293742674648
 20
4717.443341524535
 30
0.0
 40
120.0
  1
1000
  7
STYLE1
100
AcDbText
  0
LINE
  5
17D4D
330
747D
100
AcDbEntity
  8
部品1
 48
50.0
100
AcDbLine
 10
6155.025907450921
 20
4681.559319372101
 30
0.0
 11
6155.025907450921
 21
4665.359319372103
 31
0.0
  0
LINE
  5
17D4E
330
747D
100
AcDbEntity
  8
部品1
 48
50.0
100
AcDbLine
 10
5855.025907450921
 20
4681.559319372101
 30
0.0
 11
6155.025907450921
 21
4681.559319372101
 31
0.0
  0
LINE
  5
17D4F
330
747D
100
AcDbEntity
  8
部品1
100
AcDbLine
 10
4601.890749735606
 20
4556.390725702212
 30
0.0
 11
7356.957640240111
 21
4501.313788077085
 31
0.0
  0
LINE
  5
17D50
330
747D
100
AcDbEntity
  8
部品1
100
AcDbLine
 10
4609.688327980597
 20
4415.454015436912
 30
0.0
 11
7339.009463918493
 21
4376.425590202707
 31
0.0
  0
LINE
  5
17D51
330
747D
100
AcDbEntity
  8
細線
 48
50.0
100
AcDbLine
 10
4627.345763378644
 20
4555.07266674335
 30
0.0
 11
4622.056661823136
 21
4414.987034115996
 31
0.0
  0
LINE
  5
17D52
330
747D
100
AcDbEntity
  8
細線
 48
50.0
100
AcDbLine
 10
7331.315046572334
 20
4501.826412847415
 30
0.0
 11
7326.598080490649
 21
4376.894196912497
 31
0.0
  0
LINE
  5
17D53
330
747D
100
AcDbEntity
  8
部品1
 48
50.0
100
AcDbLine
 10
4594.53004929175
 20
4549.266536532638
 30
0.0
 11
4594.910309069563
 21
4529.339572086226
 31
0.0
  0
LINE
  5
17D54
330
747D
100
AcDbEntity
  8
部品1
 48
50.0
100
AcDbLine
 10
4597.979081175808
 20
4525.764290592753
 30
0.0
 11
4599.682982667173
 21
4436.473793886107
 31
0.0
  0
LINE
  5
17D55
330
747D
100
AcDbEntity
  8
細線
 48
50.0
100
AcDbLine
 10
4595.385186479457
 20
4528.690072209307
 30
0.0
 11
7361.021171224631
 21
4473.065867568479
 31
0.0
  0
LINE
  5
17D56
330
747D
100
AcDbEntity
  8
細線
 48
50.0
100
AcDbLine
 10
4600.145661716743
 20
4435.828560511443
 30
0.0
 11
7350.149326147384
 21
4396.01924153695
 31
0.0
  0
LINE
  5
17D57
330
747D
100
AcDbEntity
  8
部品1
 48
50.0
100
AcDbLine
 10
4602.751754773414
 20
4432.898512392635
 30
0.0
 11
4602.953707393846
 21
4422.315476999542
 31
0.0
  0
ARC
  5
17D58
330
747D
100
AcDbEntity
  8
部品1
 48
50.0
100
AcDbCircle
 10
4601.528775120089
 20
4549.400090940065
 30
0.0
 40
7.0
100
AcDbArc
 50
87.03587545293501
 51
181.0932240293156
  0
ARC
  5
17D59
330
747D
100
AcDbEntity
  8
部品1
 48
50.0
100
AcDbCircle
 10
4609.952433222185
 20
4422.449031406971
 30
0.0
 40
7.0
100
AcDbArc
 50
181.0932240293156
 51
267.8377559870533
  0
ARC
  5
17D5A
330
747D
100
AcDbEntity
  8
部品1
100
AcDbCircle
 10
4599.752300846986
 20
4432.841274789452
 30
0.0
 40
3.0
100
AcDbArc
 50
1.093224029315636
 51
80.18775403159162
  0
ARC
  5
17D5B
330
747D
100
AcDbEntity
  8
部品1
100
AcDbCircle
 10
4594.979627249379
 20
4525.70705298957
 30
0.0
 40
3.0
100
AcDbArc
 50
1.093224029315636
 51
80.18775403159162
  0
ARC
  5
17D5C
330
747D
100
AcDbEntity
  8
部品1
100
AcDbCircle
 10
4595.6101816524
 20
4529.352927526968
 30
0.0
 40
0.7
100
AcDbArc
 50
181.0932240292114
 51
260.1877540315916
  0
ARC
  5
17D5D
330
747D
100
AcDbEntity
  8
部品1
100
AcDbCircle
 10
4600.382855250011
 20
4436.48714932685
 30
0.0
 40
0.7
100
AcDbArc
 50
181.0932240292635
 51
260.1877540315916
  0
LINE
  5
17D5E
330
747D
100
AcDbEntity
  8
部品1
 48
50.0
100
AcDbLine
 10
7363.559666189349
 20
4493.614142642164
 30
0.0
 11
7361.529044998379
 21
4473.669101384384
 31
0.0
  0
LINE
  5
17D5F
330
747D
100
AcDbEntity
  8
部品1
 48
50.0
100
AcDbLine
 10
7358.176478513897
 20
4470.358467311475
 30
0.0
 11
7350.66969924906
 21
4396.625846566463
 31
0.0
  0
LINE
  5
17D60
330
747D
100
AcDbEntity
  8
部品1
 48
50.0
100
AcDbLine
 10
7347.317132764574
 20
4393.315212493551
 30
0.0
 11
7346.237569724833
 21
4382.711595499992
 31
0.0
  0
ARC
  5
17D61
330
747D
100
AcDbEntity
  8
部品1
 48
50.0
100
AcDbCircle
 10
7356.595665624593
 20
4494.323153314939
 30
0.0
 40
7.0
100
AcDbArc
 50
354.1866997665013
 51
87.03587545293501
  0
ARC
  5
17D62
330
747D
100
AcDbEntity
  8
部品1
 48
50.0
100
AcDbCircle
 10
7339.273569160077
 20
4383.420606172766
 30
0.0
 40
7.0
100
AcDbArc
 50
267.8377559870533
 51
354.1866997665013
  0
ARC
  5
17D63
330
747D
100
AcDbEntity
  8
部品1
100
AcDbCircle
 10
7350.301704435182
 20
4393.011350776649
 30
0.0
 40
3.0
100
AcDbArc
 50
95.0921697642102
 51
174.1866997665013
  0
ARC
  5
17D64
330
747D
100
AcDbEntity
  8
部品1
100
AcDbCircle
 10
7361.161050184508
 20
4470.054605594572
 30
0.0
 40
3.0
100
AcDbArc
 50
95.092169764314
 51
174.1866997665013
  0
ARC
  5
17D65
330
747D
100
AcDbEntity
  8
部品1
100
AcDbCircle
 10
7360.832644941905
 20
4473.740002451662
 30
0.0
 40
0.7
100
AcDbArc
 50
275.0921697642102
 51
354.1866997665013
  0
ARC
  5
17D66
330
747D
100
AcDbEntity
  8
部品1
100
AcDbCircle
 10
7349.973299192587
 20
4396.696747633739
 30
0.0
 40
0.7
100
AcDbArc
 50
275.0921697642102
 51
354.1866997666569
  0
LINE
  5
17D67
330
747D
100
AcDbEntity
  8
部品1
100
AcDbLine
 10
5829.570893807884
 20
4682.877378330963
 30
0.0
 11
6155.025907450921
 21
4665.359319372103
 31
0.0
  0
LINE
  5
17D68
330
747D
100
AcDbEntity
  8
部品1
100
AcDbLine
 10
6389.34576337864
 20
4322.672990367947
 30
0.0
 11
6389.34576337864
 21
2532.672990367947
 31
0.0
  0
LINE
  5
17D69
330
747D
100
AcDbEntity
  8
細線
 48
50.0
100
AcDbLine
 10
6466.845763378647
 20
4322.672990367947
 30
0.0
 11
6466.845763378647
 21
2532.672990367947
 31
0.0
  0
LINE
  5
17D6A
330
747D
100
AcDbEntity
  8
細線
 48
50.0
100
AcDbLine
 10
6451.845763378648
 20
4322.672990367947
 30
0.0
 11
6451.845763378648
 21
2532.672990367947
 31
0.0
  0
LINE
  5
17D6B
330
747D
100
AcDbEntity
  8
細線
 48
50.0
100
AcDbLine
 10
6591.845763378647
 20
4322.672990367947
 30
0.0
 11
6591.845763378647
 21
2532.672990367947
 31
0.0
  0
LINE
  5
17D6C
330
747D
100
AcDbEntity
  8
細線
 48
50.0
100
AcDbLine
 10
6606.845763378648
 20
4322.672990367947
 30
0.0
 11
6606.845763378648
 21
2532.672990367947
 31
0.0
  0
LINE
  5
17D6D
330
747D
100
AcDbEntity
  8
細線
 48
50.0
100
AcDbLine
 10
6746.845763378647
 20
4322.672990367947
 30
0.0
 11
6746.845763378647
 21
2532.672990367947
 31
0.0
  0
LINE
  5
17D6E
330
747D
100
AcDbEntity
  8
細線
 48
50.0
100
AcDbLine
 10
6731.845763378648
 20
4322.672990367947
 30
0.0
 11
6731.845763378648
 21
2532.672990367947
 31
0.0
  0
LINE
  5
17E52
330
747D
100
AcDbEntity
  8
部品1
100
AcDbLine
 10
7276.845763378644
 20
2482.672990367945
 30
0.0
 11
7284.345763378647
 21
2482.672990367945
 31
0.0
  0
LINE
  5
17E9F
330
747D
100
AcDbEntity
  8
部品1
100
AcDbLine
 10
4701.845763378645
 20
2482.672990367945
 30
0.0
 11
7236.845763378643
 21
2482.672990367945
 31
0.0
  0
LINE
  5
17EA0
330
747D
100
AcDbEntity
  8
部品1
 48
50.0
100
AcDbLine
 10
6484.345763378644
 20
2482.672990367945
 30
0.0
 11
6484.345763378644
 21
2382.672990367945
 31
0.0
  0
LINE
  5
17EA1
330
747D
100
AcDbEntity
  8
部品1
 48
50.0
100
AcDbLine
 10
6284.345763378645
 20
2482.672990367945
 30
0.0
 11
6284.345763378645
 21
2382.672990367945
 31
0.0
  0
LINE
  5
17EA2
330
747D
100
AcDbEntity
  8
部品1
 48
50.0
100
AcDbLine
 10
5654.345763378644
 20
2482.672990367945
 30
0.0
 11
5654.345763378644
 21
2382.672990367945
 31
0.0
  0
LINE
  5
17EA3
330
747D
100
AcDbEntity
  8
部品1
 48
50.0
100
AcDbLine
 10
5454.345763378644
 20
2482.672990367945
 30
0.0
 11
5454.345763378644
 21
2382.672990367945
 31
0.0
  0
LINE
  5
1857D
330
747D
100
AcDbEntity
  8
部品1
 48
50.0
100
AcDbLine
 10
9894.442792715899
 20
4265.672990367945
 30
0.0
 11
9894.442792715896
 21
2532.672990367946
 31
0.0
  0
LINE
  5
1857E
330
747D
100
AcDbEntity
  8
部品1
 48
50.0
100
AcDbLine
 10
10300.44278340871
 20
4265.672990367948
 30
0.0
 11
10300.44278340871
 21
2540.172990367947
 31
0.0
  0
LINE
  5
1857F
330
747D
100
AcDbEntity
  8
細線
100
AcDbLine
 10
10041.9427834087
 20
4265.672990367938
 30
0.0
 11
10041.94278340871
 21
2540.172990367945
 31
0.0
  0
LINE
  5
18580
330
747D
100
AcDbEntity
  8
細線
100
AcDbLine
 10
9971.942783408707
 20
4265.672990367938
 30
0.0
 11
9971.942783408707
 21
2540.172990367945
 31
0.0
  0
LINE
  5
18581
330
747D
100
AcDbEntity
  8
部品1
100
AcDbLine
 10
9604.442792715886
 20
4265.672990367938
 30
0.0
 11
9604.442792715886
 21
2532.672990367944
 31
0.0
  0
LINE
  5
18582
330
747D
100
AcDbEntity
  8
部品1
100
AcDbLine
 10
9554.442792715887
 20
4265.672990367938
 30
0.0
 11
9554.442792715887
 21
2532.672990367944
 31
0.0
  0
LINE
  5
18583
330
747D
100
AcDbEntity
  8
細線
100
AcDbLine
 10
9596.442792715887
 20
4265.672990367938
 30
0.0
 11
9596.442792715887
 21
2532.672990367944
 31
0.0
  0
LINE
  5
18584
330
747D
100
AcDbEntity
  8
細線
100
AcDbLine
 10
9562.442792715888
 20
4265.672990367938
 30
0.0
 11
9562.442792715888
 21
2532.672990367944
 31
0.0
  0
LINE
  5
18585
330
747D
100
AcDbEntity
  8
細線
100
AcDbLine
 10
10579.1927857355
 20
4265.672990367938
 30
0.0
 11
10579.1927857355
 21
2540.172990367953
 31
0.0
  0
LINE
  5
18586
330
747D
100
AcDbEntity
  8
細線
100
AcDbLine
 10
10509.1927857355
 20
4265.672990367938
 30
0.0
 11
10509.19278573551
 21
2540.172990367953
 31
0.0
  0
LINE
  5
18587
330
747D
100
AcDbEntity
  8
細線
100
AcDbLine
 10
10439.1927857355
 20
4265.672990367938
 30
0.0
 11
10439.1927857355
 21
2540.172990367953
 31
0.0
  0
LINE
  5
18588
330
747D
100
AcDbEntity
  8
細線
100
AcDbLine
 10
10369.1927857355
 20
4265.672990367938
 30
0.0
 11
10369.19278573551
 21
2540.172990367953
 31
0.0
  0
LINE
  5
18589
330
747D
100
AcDbEntity
  8
細線
100
AcDbLine
 10
9794.442792715893
 20
4265.672990367941
 30
0.0
 11
9794.442792715893
 21
2532.672990367946
 31
0.0
  0
LINE
  5
1858A
330
747D
100
AcDbEntity
  8
細線
100
AcDbLine
 10
9724.442792715892
 20
4265.672990367941
 30
0.0
 11
9724.442792715892
 21
2532.672990367946
 31
0.0
  0
LINE
  5
1858B
330
747D
100
AcDbEntity
  8
細線
100
AcDbLine
 10
10181.9427834087
 20
4265.672990367938
 30
0.0
 11
10181.94278340871
 21
2540.172990367949
 31
0.0
  0
LINE
  5
1858C
330
747D
100
AcDbEntity
  8
細線
100
AcDbLine
 10
10111.9427834087
 20
4265.672990367938
 30
0.0
 11
10111.9427834087
 21
2540.172990367949
 31
0.0
  0
LINE
  5
1858D
330
747D
100
AcDbEntity
  8
部品1
 48
50.0
100
AcDbLine
 10
9434.44279271589
 20
2532.672990367944
 30
0.0
 11
9434.44279271589
 21
4265.672990367945
 31
0.0
  0
LINE
  5
1858E
330
747D
100
AcDbEntity
  8
細線
 48
50.0
100
AcDbLine
 10
9434.44279271589
 20
4275.172990367945
 30
0.0
 11
9434.44279271589
 21
2482.672990367944
 31
0.0
  0
LINE
  5
1858F
330
747D
100
AcDbEntity
  8
部品1
 48
50.0
100
AcDbLine
 10
9404.44279271589
 20
4317.672990367944
 30
0.0
 11
9404.44279271589
 21
2482.672990367944
 31
0.0
  0
LINE
  5
18590
330
747D
100
AcDbEntity
  8
部品1
 48
50.0
100
AcDbLine
 10
10679.44279271589
 20
2529.672990367944
 30
0.0
 11
10679.44279271589
 21
4265.672990367945
 31
0.0
  0
LINE
  5
18591
330
747D
100
AcDbEntity
  8
細線
 48
50.0
100
AcDbLine
 10
10688.44279271589
 20
2482.672990367944
 30
0.0
 11
10688.44279271589
 21
4275.172990367945
 31
0.0
  0
LINE
  5
18592
330
747D
100
AcDbEntity
  8
部品1
 48
50.0
100
AcDbLine
 10
10718.44279271589
 20
2482.672990367944
 30
0.0
 11
10718.44279271589
 21
4317.672990367944
 31
0.0
  0
LINE
  5
18593
330
747D
100
AcDbEntity
  8
細線
 48
50.0
100
AcDbLine
 10
9434.44279271589
 20
2529.672990367944
 30
0.0
 11
10688.44279271589
 21
2529.672990367944
 31
0.0
  0
LINE
  5
18594
330
747D
100
AcDbEntity
  8
細線
 48
50.0
100
AcDbLine
 10
9434.44279271589
 20
2525.672990367944
 30
0.0
 11
10688.44279271589
 21
2525.672990367944
 31
0.0
  0
LINE
  5
18595
330
747D
100
AcDbEntity
  8
部品1
 48
50.0
100
AcDbLine
 10
9404.44279271589
 20
2482.672990367944
 30
0.0
 11
10718.44279271589
 21
2482.672990367944
 31
0.0
  0
LINE
  5
18596
330
747D
100
AcDbEntity
  8
部品1
 48
50.0
100
AcDbLine
 10
9434.44279271589
 20
2532.672990367944
 30
0.0
 11
9894.442792715896
 21
2532.672990367946
 31
0.0
  0
LINE
  5
18597
330
747D
100
AcDbEntity
  8
部品1
 48
50.0
100
AcDbLine
 10
9443.44279271589
 20
2532.672990367944
 30
0.0
 11
9443.44279271589
 21
2529.672990367944
 31
0.0
  0
LINE
  5
18598
330
747D
100
AcDbEntity
  8
細線
 48
50.0
100
AcDbLine
 10
9894.442792715896
 20
2540.172990367945
 30
0.0
 11
10662.44279271589
 21
2540.172990367944
 31
0.0
  0
LINE
  5
18599
330
747D
100
AcDbEntity
  8
細線
 48
50.0
100
AcDbLine
 10
10666.44279271589
 20
2529.672990367944
 30
0.0
 11
10662.44279271589
 21
2540.172990367944
 31
0.0
  0
LINE
  5
1859A
330
747D
100
AcDbEntity
  8
細線
 48
50.0
100
AcDbLine
 10
10688.44279271589
 20
4275.172990367945
 30
0.0
 11
9434.44279271589
 21
4275.172990367945
 31
0.0
  0
LINE
  5
1859B
330
747D
100
AcDbEntity
  8
細線
 48
50.0
100
AcDbLine
 10
10688.44279271589
 20
4265.672990367945
 30
0.0
 11
9434.44279271589
 21
4265.672990367945
 31
0.0
  0
LINE
  5
1859C
330
747D
100
AcDbEntity
  8
細線
 48
50.0
100
AcDbLine
 10
10718.44279271589
 20
4307.672990367945
 30
0.0
 11
9404.44279271589
 21
4307.672990367945
 31
0.0
  0
LINE
  5
1859D
330
747D
100
AcDbEntity
  8
部品1
 48
50.0
100
AcDbLine
 10
10718.44279271589
 20
4317.672990367944
 30
0.0
 11
9404.44279271589
 21
4317.672990367944
 31
0.0
  0
LINE
  5
1859E
330
747D
100
AcDbEntity
  8
部品1
 48
50.0
100
AcDbLine
 10
9434.44279271589
 20
4273.672990367945
 30
0.0
 11
9404.44279271589
 21
4273.672990367945
 31
0.0
  0
LINE
  5
1859F
330
747D
100
AcDbEntity
  8
部品1
 48
50.0
100
AcDbLine
 10
10718.44279271589
 20
4273.672990367945
 30
0.0
 11
10688.44279271589
 21
4273.672990367945
 31
0.0
  0
LINE
  5
185B9
330
747D
100
AcDbEntity
  8
部品1
 48
50.0
100
AcDbLine
 10
9478.44279271589
 20
3464.172990367934
 30
0.0
 11
9531.442792715891
 21
3464.172990367934
 31
0.0
  0
LINE
  5
1863C
330
747D
100
AcDbEntity
  8
部品1
100
AcDbLine
 10
10546.44279271591
 20
2482.672990367945
 30
0.0
 11
10546.44279271591
 21
2382.672990367945
 31
0.0
  0
LINE
  5
1863D
330
747D
100
AcDbEntity
  8
部品1
 48
50.0
100
AcDbLine
 10
9961.442792715908
 20
2482.672990367945
 30
0.0
 11
9961.442792715908
 21
2382.672990367945
 31
0.0
  0
LINE
  5
1863E
330
747D
100
AcDbEntity
  8
部品1
 48
50.0
100
AcDbLine
 10
10161.44279271591
 20
2482.672990367945
 30
0.0
 11
10161.44279271591
 21
2382.672990367945
 31
0.0
  0
LINE
  5
1863F
330
747D
100
AcDbEntity
  8
部品1
100
AcDbLine
 10
9576.442792715909
 20
2482.672990367945
 30
0.0
 11
9576.442792715909
 21
2382.672990367945
 31
0.0
  0
LINE
  5
18640
330
747D
100
AcDbEntity
  8
部品1
100
AcDbLine
 10
10718.44279271591
 20
2532.672990367946
 30
0.0
 11
10746.44279271591
 21
2532.672990367946
 31
0.0
  0
LINE
  5
18641
330
747D
100
AcDbEntity
  8
部品1
100
AcDbLine
 10
10539.4427927159
 20
4552.672990376414
 30
0.0
 11
10539.4427927159
 21
4455.261922867843
 31
0.0
  0
LINE
  5
18642
330
747D
100
AcDbEntity
  8
部品1
100
AcDbLine
 10
10514.4427927159
 20
4552.672990376414
 30
0.0
 11
10514.44279271591
 21
4455.261922867843
 31
0.0
  0
LINE
  5
18643
330
747D
100
AcDbEntity
  8
部品1
 48
50.0
100
AcDbLine
 10
10512.9427927159
 20
4552.672990376418
 30
0.0
 11
10540.94279271589
 21
4552.672990376418
 31
0.0
  0
LINE
  5
18644
330
747D
100
AcDbEntity
  8
部品1
 48
50.0
100
AcDbLine
 10
10540.94279271589
 20
4552.672990376418
 30
0.0
 11
10551.44279271589
 21
4533.272990376416
 31
0.0
  0
LINE
  5
18645
330
747D
100
AcDbEntity
  8
部品1
 48
50.0
100
AcDbLine
 10
10512.9427927159
 20
4552.672990376418
 30
0.0
 11
10502.4427927159
 21
4533.272990376416
 31
0.0
  0
LINE
  5
18646
330
747D
100
AcDbEntity
  8
部品1
 48
50.0
100
AcDbLine
 10
10439.94279271589
 20
4552.672990376418
 30
0.0
 11
10467.94279271589
 21
4552.672990376418
 31
0.0
  0
LINE
  5
18647
330
747D
100
AcDbEntity
  8
部品1
100
AcDbLine
 10
10441.4427927159
 20
4552.672990376414
 30
0.0
 11
10441.4427927159
 21
4455.261922867843
 31
0.0
  0
LINE
  5
18648
330
747D
100
AcDbEntity
  8
部品1
 48
50.0
100
AcDbLine
 10
10439.94279271589
 20
4552.672990376418
 30
0.0
 11
10429.44279271589
 21
4533.272990376416
 31
0.0
  0
LINE
  5
18649
330
747D
100
AcDbEntity
  8
部品1
100
AcDbLine
 10
10466.4427927159
 20
4552.672990376414
 30
0.0
 11
10466.4427927159
 21
4455.261922867843
 31
0.0
  0
LINE
  5
1864A
330
747D
100
AcDbEntity
  8
部品1
 48
50.0
100
AcDbLine
 10
10467.9427927159
 20
4552.672990376418
 30
0.0
 11
10478.4427927159
 21
4533.272990376416
 31
0.0
  0
LINE
  5
1864B
330
747D
100
AcDbEntity
  8
部品1
100
AcDbLine
 10
10280.4427927159
 20
4552.672990376406
 30
0.0
 11
10280.4427927159
 21
4455.261922867843
 31
0.0
  0
LINE
  5
1864C
330
747D
100
AcDbEntity
  8
部品1
 48
50.0
100
AcDbLine
 10
10283.4427927159
 20
4552.672990376418
 30
0.0
 11
10285.9427927159
 21
4533.272990376416
 31
0.0
  0
LINE
  5
1864D
330
747D
100
AcDbEntity
  8
部品1
100
AcDbLine
 10
10262.4427927159
 20
4552.672990376406
 30
0.0
 11
10262.4427927159
 21
4455.261922867842
 31
0.0
  0
LINE
  5
1864E
330
747D
100
AcDbEntity
  8
部品1
 48
50.0
100
AcDbLine
 10
10244.23145250971
 20
4543.272990376417
 30
0.0
 11
10242.9427927159
 21
4533.272990376416
 31
0.0
  0
LINE
  5
1864F
330
747D
100
AcDbEntity
  8
部品1
 48
50.0
100
AcDbLine
 10
10244.23145250971
 20
4543.272990376417
 30
0.0
 11
10258.23145250971
 21
4543.272990376417
 31
0.0
  0
LINE
  5
18650
330
747D
100
AcDbEntity
  8
部品1
 48
50.0
100
AcDbLine
 10
10259.4427927159
 20
4552.672990376418
 30
0.0
 11
10258.23145250971
 21
4543.272990376417
 31
0.0
  0
LINE
  5
18651
330
747D
100
AcDbEntity
  8
部品1
 48
50.0
100
AcDbLine
 10
10283.4427927159
 20
4552.672990376418
 30
0.0
 11
10259.4427927159
 21
4552.672990376418
 31
0.0
  0
LINE
  5
18652
330
747D
100
AcDbEntity
  8
部品1
100
AcDbLine
 10
10429.44279271589
 20
4533.272990376413
 30
0.0
 11
10285.94279271589
 21
4533.272990376413
 31
0.0
  0
LINE
  5
18653
330
747D
100
AcDbEntity
  8
部品1
100
AcDbLine
 10
10119.4427927159
 20
4552.672990376414
 30
0.0
 11
10119.4427927159
 21
4455.261922867842
 31
0.0
  0
LINE
  5
18654
330
747D
100
AcDbEntity
  8
部品1
 48
50.0
100
AcDbLine
 10
10120.9427927159
 20
4552.672990376418
 30
0.0
 11
10131.4427927159
 21
4533.272990376416
 31
0.0
  0
LINE
  5
18655
330
747D
100
AcDbEntity
  8
部品1
100
AcDbLine
 10
10021.4427927159
 20
4552.672990376414
 30
0.0
 11
10021.4427927159
 21
4455.261922867842
 31
0.0
  0
LINE
  5
18656
330
747D
100
AcDbEntity
  8
部品1
100
AcDbLine
 10
10046.4427927159
 20
4552.672990376414
 30
0.0
 11
10046.4427927159
 21
4455.261922867843
 31
0.0
  0
LINE
  5
18657
330
747D
100
AcDbEntity
  8
部品1
100
AcDbLine
 10
10094.4427927159
 20
4552.672990376414
 30
0.0
 11
10094.4427927159
 21
4455.261922867843
 31
0.0
  0
LINE
  5
18658
330
747D
100
AcDbEntity
  8
部品1
 48
50.0
100
AcDbLine
 10
10019.9427927159
 20
4552.672990376418
 30
0.0
 11
10009.4427927159
 21
4533.272990376416
 31
0.0
  0
LINE
  5
18659
330
747D
100
AcDbEntity
  8
部品1
100
AcDbLine
 10
10082.44279271589
 20
4533.272990376413
 30
0.0
 11
10058.4427927159
 21
4533.272990376413
 31
0.0
  0
LINE
  5
1865A
330
747D
100
AcDbEntity
  8
部品1
 48
50.0
100
AcDbLine
 10
10047.9427927159
 20
4552.672990376418
 30
0.0
 11
10058.4427927159
 21
4533.272990376416
 31
0.0
  0
LINE
  5
1865B
330
747D
100
AcDbEntity
  8
部品1
 48
50.0
100
AcDbLine
 10
10092.94279271589
 20
4552.672990376418
 30
0.0
 11
10082.44279271589
 21
4533.272990376416
 31
0.0
  0
LINE
  5
1865C
330
747D
100
AcDbEntity
  8
部品1
 48
50.0
100
AcDbLine
 10
10019.9427927159
 20
4552.672990376418
 30
0.0
 11
10047.94279271589
 21
4552.672990376418
 31
0.0
  0
LINE
  5
1865D
330
747D
100
AcDbEntity
  8
部品1
 48
50.0
100
AcDbLine
 10
10092.94279271589
 20
4552.672990376418
 30
0.0
 11
10120.94279271589
 21
4552.672990376418
 31
0.0
  0
LINE
  5
1865E
330
747D
100
AcDbEntity
  8
部品1
100
AcDbLine
 10
9860.442792715906
 20
4552.672990376406
 30
0.0
 11
9860.442792715907
 21
4455.261922867843
 31
0.0
  0
LINE
  5
1865F
330
747D
100
AcDbEntity
  8
部品1
100
AcDbLine
 10
9842.442792715907
 20
4552.672990376406
 30
0.0
 11
9842.442792715907
 21
4455.261922867843
 31
0.0
  0
LINE
  5
18660
330
747D
100
AcDbEntity
  8
部品1
 48
50.0
100
AcDbLine
 10
9863.442792715899
 20
4552.672990376418
 30
0.0
 11
9839.442792715898
 21
4552.672990376418
 31
0.0
  0
LINE
  5
18661
330
747D
100
AcDbEntity
  8
部品1
 48
50.0
100
AcDbLine
 10
9839.442792715898
 20
4552.672990376418
 30
0.0
 11
9838.23145250971
 21
4543.272990376417
 31
0.0
  0
LINE
  5
18662
330
747D
100
AcDbEntity
  8
部品1
 48
50.0
100
AcDbLine
 10
9863.442792715899
 20
4552.672990376418
 30
0.0
 11
9865.942792715898
 21
4533.272990376416
 31
0.0
  0
LINE
  5
18663
330
747D
100
AcDbEntity
  8
部品1
100
AcDbLine
 10
10009.44279271589
 20
4533.272990376413
 30
0.0
 11
9865.942792715895
 21
4533.272990376413
 31
0.0
  0
LINE
  5
18664
330
747D
100
AcDbEntity
  8
部品1
100
AcDbLine
 10
10242.9427927159
 20
4533.272990376413
 30
0.0
 11
10131.4427927159
 21
4533.272990376413
 31
0.0
  0
LINE
  5
18665
330
747D
100
AcDbEntity
  8
部品1
100
AcDbLine
 10
10502.44279271589
 20
4533.272990376413
 30
0.0
 11
10478.4427927159
 21
4533.272990376413
 31
0.0
  0
LINE
  5
18666
330
747D
100
AcDbEntity
  8
部品1
100
AcDbLine
 10
9822.942792715899
 20
4533.272990376413
 30
0.0
 11
9711.442792715899
 21
4533.272990376413
 31
0.0
  0
LINE
  5
18667
330
747D
100
AcDbEntity
  8
部品1
100
AcDbLine
 10
9674.442792715906
 20
4552.672990376414
 30
0.0
 11
9674.442792715906
 21
4455.261922867843
 31
0.0
  0
LINE
  5
18668
330
747D
100
AcDbEntity
  8
部品1
100
AcDbLine
 10
9699.442792715906
 20
4552.672990376414
 30
0.0
 11
9699.442792715906
 21
4455.261922867843
 31
0.0
  0
LINE
  5
18669
330
747D
100
AcDbEntity
  8
部品1
 48
50.0
100
AcDbLine
 10
9700.942792715899
 20
4552.672990376418
 30
0.0
 11
9711.442792715899
 21
4533.272990376416
 31
0.0
  0
LINE
  5
1866A
330
747D
100
AcDbEntity
  8
部品1
 48
50.0
100
AcDbLine
 10
9672.942792715899
 20
4552.672990376418
 30
0.0
 11
9700.942792715894
 21
4552.672990376418
 31
0.0
  0
LINE
  5
1866B
330
747D
100
AcDbEntity
  8
部品1
 48
50.0
100
AcDbLine
 10
9824.23145250971
 20
4543.272990376417
 30
0.0
 11
9822.942792715899
 21
4533.272990376416
 31
0.0
  0
LINE
  5
1866C
330
747D
100
AcDbEntity
  8
部品1
100
AcDbLine
 10
9662.442792715895
 20
4533.272990376413
 30
0.0
 11
9638.442792715899
 21
4533.272990376416
 31
0.0
  0
LINE
  5
1866D
330
747D
100
AcDbEntity
  8
部品1
100
AcDbLine
 10
9626.442792715906
 20
4552.672990376414
 30
0.0
 11
9626.442792715907
 21
4455.261922867842
 31
0.0
  0
LINE
  5
1866E
330
747D
100
AcDbEntity
  8
部品1
 48
50.0
100
AcDbLine
 10
9627.942792715899
 20
4552.672990376418
 30
0.0
 11
9638.442792715899
 21
4533.272990376416
 31
0.0
  0
LINE
  5
1866F
330
747D
100
AcDbEntity
  8
部品1
100
AcDbLine
 10
9601.442792715905
 20
4552.672990376414
 30
0.0
 11
9601.442792715904
 21
4455.261922867843
 31
0.0
  0
LINE
  5
18670
330
747D
100
AcDbEntity
  8
部品1
 48
50.0
100
AcDbLine
 10
9599.942792715898
 20
4552.672990376418
 30
0.0
 11
9589.442792715898
 21
4533.272990376416
 31
0.0
  0
LINE
  5
18671
330
747D
100
AcDbEntity
  8
部品1
 48
50.0
100
AcDbLine
 10
9599.942792715898
 20
4552.672990376418
 30
0.0
 11
9627.942792715895
 21
4552.672990376418
 31
0.0
  0
LINE
  5
18672
330
747D
100
AcDbEntity
  8
部品1
 48
50.0
100
AcDbLine
 10
9672.942792715899
 20
4552.672990376418
 30
0.0
 11
9662.442792715898
 21
4533.272990376416
 31
0.0
  0
LINE
  5
18673
330
747D
100
AcDbEntity
  8
部品1
100
AcDbLine
 10
9440.442792715904
 20
4552.672990376406
 30
0.0
 11
9440.442792715904
 21
4455.261922867843
 31
0.0
  0
LINE
  5
18674
330
747D
100
AcDbEntity
  8
部品1
100
AcDbLine
 10
9422.442792715905
 20
4552.672990376418
 30
0.0
 11
9422.442792715907
 21
4455.261922867843
 31
0.0
  0
LINE
  5
18675
330
747D
100
AcDbEntity
  8
部品1
 48
50.0
100
AcDbLine
 10
9443.442792715897
 20
4552.672990376418
 30
0.0
 11
9445.942792715898
 21
4533.272990376416
 31
0.0
  0
LINE
  5
18676
330
747D
100
AcDbEntity
  8
部品1
100
AcDbLine
 10
9402.942792715897
 20
4533.272990376416
 30
0.0
 11
9376.442792715897
 21
4533.272990376416
 31
0.0
  0
LINE
  5
18677
330
747D
100
AcDbEntity
  8
部品1
 48
50.0
100
AcDbLine
 10
9404.23145250971
 20
4543.272990376417
 30
0.0
 11
9418.23145250971
 21
4543.272990376417
 31
0.0
  0
LINE
  5
18678
330
747D
100
AcDbEntity
  8
部品1
 48
50.0
100
AcDbLine
 10
9404.23145250971
 20
4543.272990376417
 30
0.0
 11
9402.942792715897
 21
4533.272990376416
 31
0.0
  0
LINE
  5
18679
330
747D
100
AcDbEntity
  8
部品1
 48
50.0
100
AcDbLine
 10
9419.442792715898
 20
4552.672990376418
 30
0.0
 11
9418.23145250971
 21
4543.272990376417
 31
0.0
  0
LINE
  5
1867A
330
747D
100
AcDbEntity
  8
部品1
 48
50.0
100
AcDbLine
 10
9443.442792715897
 20
4552.672990376418
 30
0.0
 11
9419.442792715898
 21
4552.672990376418
 31
0.0
  0
LINE
  5
1867B
330
747D
100
AcDbEntity
  8
部品1
100
AcDbLine
 10
9589.442792715898
 20
4533.272990376413
 30
0.0
 11
9445.942792715898
 21
4533.272990376416
 31
0.0
  0
LINE
  5
1867C
330
747D
100
AcDbEntity
  8
部品1
 48
50.0
100
AcDbLine
 10
9824.23145250971
 20
4543.272990376417
 30
0.0
 11
9838.23145250971
 21
4543.272990376417
 31
0.0
  0
LINE
  5
1867D
330
747D
100
AcDbEntity
  8
部品1
100
AcDbLine
 10
10772.01063254562
 20
4557.672990376403
 30
0.0
 11
9350.874953096806
 21
4557.672990376418
 31
0.0
  0
LINE
  5
1867E
330
747D
100
AcDbEntity
  8
部品1
100
AcDbLine
 10
10662.94279271589
 20
4533.272990376398
 30
0.0
 11
10551.4427927159
 21
4533.272990376398
 31
0.0
  0
LINE
  5
1867F
330
747D
100
AcDbEntity
  8
部品1
 48
50.0
100
AcDbLine
 10
9371.372164722691
 20
4502.672990367945
 30
0.0
 11
9333.428836533109
 21
4502.672990367945
 31
0.0
  0
ARC
  5
18680
330
747D
100
AcDbEntity
  8
部品1
100
AcDbCircle
 10
9328.401935156184
 20
4475.343107688535
 30
0.0
 40
0.7
100
AcDbArc
 50
183.6186294801312
 51
262.7131594834577
  0
ARC
  5
18681
330
747D
100
AcDbEntity
  8
部品1
100
AcDbCircle
 10
9327.93263903099
 20
4471.672990367944
 30
0.0
 40
3.0
100
AcDbArc
 50
3.61862948013121
 51
90.0
  0
LINE
  5
18682
330
747D
100
AcDbEntity
  8
部品1
100
AcDbLine
 10
9330.926657809795
 20
4471.862335429056
 30
0.0
 11
9335.673750821955
 21
4396.798927174274
 31
0.0
  0
ARC
  5
18683
330
747D
100
AcDbEntity
  8
部品1
100
AcDbCircle
 10
9336.372355203677
 20
4396.843107688535
 30
0.0
 40
0.7
100
AcDbArc
 50
183.6186294801312
 51
262.7131594834577
  0
ARC
  5
18684
330
747D
100
AcDbEntity
  8
部品1
100
AcDbCircle
 10
9335.903059078482
 20
4393.172990367945
 30
0.0
 40
3.0
100
AcDbArc
 50
3.61862948013121
 51
90.0
  0
ARC
  5
18685
330
747D
100
AcDbEntity
  8
部品1
100
AcDbCircle
 10
9346.555447379079
 20
4383.172990367945
 30
0.0
 40
7.0
100
AcDbArc
 50
183.6186294801312
 51
270.0
  0
ARC
  5
18686
330
747D
100
AcDbEntity
  8
部品1
100
AcDbCircle
 10
9333.428836533109
 20
4495.672990367945
 30
0.0
 40
7.0
100
AcDbArc
 50
90.0
 51
183.6186294801312
  0
LINE
  5
18687
330
747D
100
AcDbEntity
  8
部品1
100
AcDbLine
 10
9339.569403561869
 20
4382.731185225355
 30
0.0
 11
9338.897077857287
 21
4393.362335429056
 31
0.0
  0
LINE
  5
18688
330
747D
100
AcDbEntity
  8
部品1
100
AcDbLine
 10
9327.703330774465
 20
4475.298927174274
 30
0.0
 11
9326.442792715898
 21
4495.231185225356
 31
0.0
  0
LINE
  5
18689
330
747D
100
AcDbEntity
  8
部品1
100
AcDbLine
 10
9371.372164722691
 20
4502.672990367945
 30
0.0
 11
9333.428836533109
 21
4502.672990367945
 31
0.0
  0
ARC
  5
1868A
330
747D
100
AcDbEntity
  8
部品1
100
AcDbCircle
 10
9371.372164722691
 20
4497.672990367945
 30
0.0
 40
5.0
100
AcDbArc
 50
0.0
 51
90.0
  0
LINE
  5
1868B
330
747D
100
AcDbEntity
  8
部品1
100
AcDbLine
 10
9376.372164722692
 20
4552.672990384843
 30
0.0
 11
9376.37216472269
 21
4455.268961695275
 31
0.0
  0
LINE
  5
1868C
330
747D
100
AcDbEntity
  8
部品1
100
AcDbLine
 10
10776.33013805272
 20
4376.172990367945
 30
0.0
 11
9346.555447379079
 21
4376.172990367945
 31
0.0
  0
LINE
  5
1868D
330
747D
100
AcDbEntity
  8
部品1
 48
50.0
100
AcDbLine
 10
9326.442792715898
 20
4495.231185225356
 30
0.0
 11
9326.442792715898
 21
4550.231185242254
 31
0.0
  0
ARC
  5
1868E
330
747D
100
AcDbEntity
  8
部品1
100
AcDbCircle
 10
9371.372164722691
 20
4552.672990384843
 30
0.0
 40
5.0
100
AcDbArc
 50
0.0
 51
90.0
  0
LINE
  5
1868F
330
747D
100
AcDbEntity
  8
部品1
100
AcDbLine
 10
9371.372164722691
 20
4557.672990384843
 30
0.0
 11
9333.428836533109
 21
4557.672990384843
 31
0.0
  0
ARC
  5
18690
330
747D
100
AcDbEntity
  8
部品1
100
AcDbCircle
 10
9333.428836533109
 20
4550.672990384843
 30
0.0
 40
7.0
100
AcDbArc
 50
90.0
 51
183.6186294801312
  0
LINE
  5
18691
330
747D
100
AcDbEntity
  8
細線
 48
50.0
100
AcDbLine
 10
10785.53702127483
 20
4396.946232931731
 30
0.0
 11
9336.326384348415
 21
4396.946232931731
 31
0.0
  0
LINE
  5
18692
330
747D
100
AcDbEntity
  8
細線
 48
50.0
100
AcDbLine
 10
9358.931702811615
 20
4502.672990367945
 30
0.0
 11
9358.931702811615
 21
4376.172990367945
 31
0.0
  0
LINE
  5
18693
330
747D
100
AcDbEntity
  8
細線
 48
50.0
100
AcDbLine
 10
9376.37216472269
 20
4474.644823115895
 30
0.0
 11
9328.308923438745
 21
4474.644823115902
 31
0.0
  0
LINE
  5
18694
330
747D
100
AcDbEntity
  8
部品1
100
AcDbLine
 10
10682.44279271589
 20
4552.672990376406
 30
0.0
 11
10682.44279271589
 21
4455.261922867842
 31
0.0
  0
LINE
  5
18695
330
747D
100
AcDbEntity
  8
部品1
100
AcDbLine
 10
10700.44279271589
 20
4552.672990376418
 30
0.0
 11
10700.44279271589
 21
4455.261922867843
 31
0.0
  0
LINE
  5
18696
330
747D
100
AcDbEntity
  8
部品1
 48
50.0
100
AcDbLine
 10
10679.4427927159
 20
4552.672990376418
 30
0.0
 11
10703.4427927159
 21
4552.672990376418
 31
0.0
  0
LINE
  5
18697
330
747D
100
AcDbEntity
  8
部品1
 48
50.0
100
AcDbLine
 10
10751.5134207091
 20
4502.672990367945
 30
0.0
 11
10789.45674889869
 21
4502.672990367945
 31
0.0
  0
ARC
  5
18698
330
747D
100
AcDbEntity
  8
部品1
100
AcDbCircle
 10
10794.48365027561
 20
4475.343107688535
 30
0.0
 40
0.7
100
AcDbArc
 50
277.2868405165423
 51
356.3813705198688
  0
ARC
  5
18699
330
747D
100
AcDbEntity
  8
部品1
100
AcDbCircle
 10
10794.9529464008
 20
4471.672990367944
 30
0.0
 40
3.0
100
AcDbArc
 50
90.0
 51
176.3813705198687
  0
LINE
  5
1869A
330
747D
100
AcDbEntity
  8
部品1
100
AcDbLine
 10
10791.958927622
 20
4471.862335429056
 30
0.0
 11
10787.21183460984
 21
4396.798927174274
 31
0.0
  0
ARC
  5
1869B
330
747D
100
AcDbEntity
  8
部品1
100
AcDbCircle
 10
10786.51323022812
 20
4396.843107688535
 30
0.0
 40
0.7
100
AcDbArc
 50
277.2868405165423
 51
356.3813705198688
  0
ARC
  5
1869C
330
747D
100
AcDbEntity
  8
部品1
100
AcDbCircle
 10
10786.98252635331
 20
4393.172990367945
 30
0.0
 40
3.0
100
AcDbArc
 50
90.0
 51
176.3813705198687
  0
ARC
  5
1869D
330
747D
100
AcDbEntity
  8
部品1
100
AcDbCircle
 10
10776.33013805272
 20
4383.172990367945
 30
0.0
 40
7.0
100
AcDbArc
 50
270.0
 51
356.3813705198688
  0
ARC
  5
1869E
330
747D
100
AcDbEntity
  8
部品1
100
AcDbCircle
 10
10789.45674889869
 20
4495.672990367945
 30
0.0
 40
7.0
100
AcDbArc
 50
356.3813705198688
 51
90.0
  0
LINE
  5
1869F
330
747D
100
AcDbEntity
  8
部品1
100
AcDbLine
 10
10783.31618186993
 20
4382.731185225355
 30
0.0
 11
10783.98850757451
 21
4393.362335429056
 31
0.0
  0
LINE
  5
186A0
330
747D
100
AcDbEntity
  8
部品1
100
AcDbLine
 10
10795.18225465733
 20
4475.298927174274
 30
0.0
 11
10796.4427927159
 21
4495.231185225356
 31
0.0
  0
LINE
  5
186A1
330
747D
100
AcDbEntity
  8
部品1
100
AcDbLine
 10
10751.5134207091
 20
4502.672990367945
 30
0.0
 11
10789.45674889869
 21
4502.672990367945
 31
0.0
  0
ARC
  5
186A2
330
747D
100
AcDbEntity
  8
部品1
100
AcDbCircle
 10
10751.5134207091
 20
4497.672990367945
 30
0.0
 40
5.0
100
AcDbArc
 50
90.0
 51
180.0
  0
LINE
  5
186A3
330
747D
100
AcDbEntity
  8
部品1
100
AcDbLine
 10
10746.5134207091
 20
4552.672990384843
 30
0.0
 11
10746.5134207091
 21
4455.261922867843
 31
0.0
  0
LINE
  5
186A4
330
747D
100
AcDbEntity
  8
部品1
 48
50.0
100
AcDbLine
 10
10796.4427927159
 20
4495.231185225356
 30
0.0
 11
10796.4427927159
 21
4550.231185242254
 31
0.0
  0
ARC
  5
186A5
330
747D
100
AcDbEntity
  8
部品1
100
AcDbCircle
 10
10751.5134207091
 20
4552.672990384843
 30
0.0
 40
5.0
100
AcDbArc
 50
90.0
 51
180.0
  0
LINE
  5
186A6
330
747D
100
AcDbEntity
  8
部品1
100
AcDbLine
 10
10751.5134207091
 20
4557.672990384843
 30
0.0
 11
10789.45674889869
 21
4557.672990384843
 31
0.0
  0
ARC
  5
186A7
330
747D
100
AcDbEntity
  8
部品1
100
AcDbCircle
 10
10789.45674889869
 20
4550.672990384843
 30
0.0
 40
7.0
100
AcDbArc
 50
356.3813705198688
 51
90.0
  0
LINE
  5
186A8
330
747D
100
AcDbEntity
  8
細線
 48
50.0
100
AcDbLine
 10
10763.95388262018
 20
4502.672990367945
 30
0.0
 11
10763.95388262018
 21
4376.172990367945
 31
0.0
  0
LINE
  5
186A9
330
747D
100
AcDbEntity
  8
細線
 48
50.0
100
AcDbLine
 10
10746.5134207091
 20
4474.644823115895
 30
0.0
 11
10794.57666199305
 21
4474.644823115902
 31
0.0
  0
LINE
  5
186AA
330
747D
100
AcDbEntity
  8
部品1
 48
50.0
100
AcDbLine
 10
10679.4427927159
 20
4552.672990376418
 30
0.0
 11
10678.23145250971
 21
4543.272990376417
 31
0.0
  0
LINE
  5
186AB
330
747D
100
AcDbEntity
  8
部品1
 48
50.0
100
AcDbLine
 10
10664.23145250971
 20
4543.272990376417
 30
0.0
 11
10678.23145250971
 21
4543.272990376417
 31
0.0
  0
LINE
  5
186AC
330
747D
100
AcDbEntity
  8
部品1
 48
50.0
100
AcDbLine
 10
10664.23145250971
 20
4543.272990376417
 30
0.0
 11
10662.9427927159
 21
4533.272990376416
 31
0.0
  0
LINE
  5
186AD
330
747D
100
AcDbEntity
  8
部品1
 48
50.0
100
AcDbLine
 10
10703.4427927159
 20
4552.672990376418
 30
0.0
 11
10705.9427927159
 21
4533.272990376416
 31
0.0
  0
LINE
  5
186AE
330
747D
100
AcDbEntity
  8
部品1
100
AcDbLine
 10
10746.5134207091
 20
4533.272990376413
 30
0.0
 11
10705.9427927159
 21
4533.272990376413
 31
0.0
  0
LINE
  5
186AF
330
747D
100
AcDbEntity
  8
部品1
 48
50.0
100
AcDbLine
 10
9358.931702811617
 20
4455.261922867843
 30
0.0
 11
10763.95388262018
 21
4455.261922867842
 31
0.0
  0
DIMENSION
  5
186B0
330
747D
100
AcDbEntity
  8
寸法
 48
50.0
100
AcDbDimension
  2
*D24
 10
9376.44279271589
 20
4956.766159707418
 30
0.0
 11
10061.4427927159
 21
4956.766159707418
 31
0.0
 70
   160
  1
柱外寸法<>
 71
     5
 42
1370.000000000018
  3
INABA_S40G
100
AcDbAlignedDimension
 13
10746.44279271591
 23
4557.67299036795
 33
0.0
 14
9376.44279271589
 24
4557.672990367951
 34
0.0
100
AcDbRotatedDimension
  0
LINE
  5
186B1
330
747D
100
AcDbEntity
  8
破線
 48
5.0
100
AcDbLine
 10
9371.442792715891
 20
2382.672990367945
 30
0.0
 11
9371.442792715891
 21
2227.672990367945
 31
0.0
  0
LINE
  5
186B2
330
747D
100
AcDbEntity
  8
破線
 48
5.0
100
AcDbLine
 10
10751.44279271591
 20
2382.672990367945
 30
0.0
 11
10751.44279271591
 21
2227.672990367945
 31
0.0
  0
LINE
  5
186B3
330
747D
100
AcDbEntity
  8
破線
 48
5.0
100
AcDbLine
 10
9351.442792715891
 20
2227.672990367945
 30
0.0
 11
9371.442792715891
 21
2227.672990367945
 31
0.0
  0
LINE
  5
186B4
330
747D
100
AcDbEntity
  8
部品1
100
AcDbLine
 10
9371.442792715891
 20
2527.672990367947
 30
0.0
 11
9371.442792715891
 21
2382.672990367945
 31
0.0
  0
LINE
  5
186B5
330
747D
100
AcDbEntity
  8
破線
 48
5.0
100
AcDbLine
 10
10771.44279271591
 20
2227.672990367945
 30
0.0
 11
10751.4427927159
 21
2227.672990367945
 31
0.0
  0
LINE
  5
186B6
330
747D
100
AcDbEntity
  8
部品1
100
AcDbLine
 10
10751.44279271591
 20
2527.672990367945
 30
0.0
 11
10751.44279271591
 21
2382.672990367945
 31
0.0
  0
DIMENSION
  5
186B7
330
747D
100
AcDbEntity
  8
寸法
 48
50.0
100
AcDbDimension
  2
*D25
 10
9326.442792715891
 20
4956.766159707418
 30
0.0
 11
9012.957511341644
 21
4956.766159707418
 31
0.0
 70
   160
 71
     5
 42
50.0
  3
INABA_S40G
100
AcDbAlignedDimension
 13
9376.44279271589
 23
4557.672990367951
 33
0.0
 14
9326.442792715891
 24
4557.67299036795
 34
0.0
100
AcDbRotatedDimension
1001
ACAD
1000
DSTYLE
1002
{
1002
}
  0
DIMENSION
  5
186B8
330
747D
100
AcDbEntity
  8
寸法
 48
50.0
100
AcDbDimension
  2
*D26
 10
10746.44279271591
 20
4956.766159707418
 30
0.0
 11
11109.92807409014
 21
4956.766159707418
 31
0.0
 70
   160
 71
     5
 42
50.0
  3
INABA_S40G
100
AcDbAlignedDimension
 13
10796.44279271591
 23
4557.672990367947
 33
0.0
 14
10746.44279271591
 24
4557.67299036795
 34
0.0
100
AcDbRotatedDimension
  0
LINE
  5
186B9
330
747D
100
AcDbEntity
  8
部品1
100
AcDbLine
 10
10746.44279271591
 20
4376.172990367945
 30
0.0
 11
10746.44279271591
 21
2382.672990367945
 31
0.0
  0
LINE
  5
186BA
330
747D
100
AcDbEntity
  8
部品1
100
AcDbLine
 10
9431.442792715889
 20
4322.672990367945
 30
0.0
 11
9431.442792715889
 21
4317.672990367944
 31
0.0
  0
LINE
  5
186BB
330
747D
100
AcDbEntity
  8
部品1
100
AcDbLine
 10
10691.44279271591
 20
4322.672990367945
 30
0.0
 11
10691.44279271591
 21
4317.672990367944
 31
0.0
  0
LINE
  5
186BC
330
747D
100
AcDbEntity
  8
部品1
100
AcDbLine
 10
9376.44279271589
 20
4376.172990367945
 30
0.0
 11
9376.44279271589
 21
2382.672990367945
 31
0.0
  0
DIMENSION
  5
186BD
330
747D
100
AcDbEntity
  8
寸法
 48
50.0
100
AcDbDimension
  2
*D27
 10
10796.44279271591
 20
5173.292259325863
 30
0.0
 11
10061.4427927159
 21
5173.292259325863
 31
0.0
 70
   160
 71
     5
 42
1470.000000000018
  3
INABA_S40G
100
AcDbAlignedDimension
 13
9326.442792715891
 23
4557.67299036795
 33
0.0
 14
10796.44279271591
 24
4557.672990367947
 34
0.0
100
AcDbRotatedDimension
  0
LINE
  5
186BE
330
747D
100
AcDbEntity
  8
部品1
100
AcDbLine
 10
9376.44279271589
 20
4322.672990367945
 30
0.0
 11
10746.44279271591
 21
4322.672990367945
 31
0.0
  0
LINE
  5
186BF
330
747D
100
AcDbEntity
  8
部品1
100
AcDbLine
 10
9376.44279271589
 20
2482.672990367945
 30
0.0
 11
10746.44279271591
 21
2482.672990367945
 31
0.0
  0
LINE
  5
186C0
330
747D
100
AcDbEntity
  8
部品1
100
AcDbLine
 10
9376.44279271589
 20
2532.672990367946
 30
0.0
 11
9404.442792715906
 21
2532.672990367946
 31
0.0
  0
LINE
  5
186C1
330
747D
100
AcDbEntity
  8
破線
 48
5.0
100
AcDbLine
 10
10646.44279271591
 20
2382.672990367945
 30
0.0
 11
10646.44279271591
 21
2182.672990367944
 31
0.0
  0
LINE
  5
186C2
330
747D
100
AcDbEntity
  8
破線
 48
5.0
100
AcDbLine
 10
10846.44279271591
 20
2182.672990367944
 30
0.0
 11
10646.44279271591
 21
2182.672990367944
 31
0.0
  0
LINE
  5
186C3
330
747D
100
AcDbEntity
  8
破線
 48
5.0
100
AcDbLine
 10
10846.44279271591
 20
2382.672990367945
 30
0.0
 11
10846.44279271591
 21
2182.672990367944
 31
0.0
  0
LINE
  5
186C4
330
747D
100
AcDbEntity
  8
破線
 48
5.0
100
AcDbLine
 10
9466.442792715891
 20
2182.672990367946
 30
0.0
 11
9266.442792715894
 21
2182.672990367946
 31
0.0
  0
LINE
  5
186C5
330
747D
100
AcDbEntity
  8
破線
 48
5.0
100
AcDbLine
 10
9466.442792715893
 20
2382.672990367946
 30
0.0
 11
9466.442792715891
 21
2182.672990367946
 31
0.0
  0
LINE
  5
186C6
330
747D
100
AcDbEntity
  8
破線
 48
5.0
100
AcDbLine
 10
9266.442792715892
 20
2382.672990367946
 30
0.0
 11
9266.442792715894
 21
2182.672990367946
 31
0.0
  0
LINE
  5
18752
330
747D
100
AcDbEntity
  8
部品1
 48
50.0
100
AcDbLine
 10
9404.442792715906
 20
2482.672990367945
 30
0.0
 11
10718.44279271591
 21
2482.672990367945
 31
0.0
  0
DIMENSION
  5
18753
330
747D
100
AcDbEntity
  8
寸法
 48
50.0
100
AcDbDimension
  2
*D28
 10
9105.236763503755
 20
2540.672990367946
 30
0.0
 11
9105.236763503755
 21
3394.30600938547
 31
0.0
 70
   160
  1
有効開口部高サ<>
 71
     5
 42
1724.999999999999
  3
INABA_S40G
100
AcDbAlignedDimension
 13
9404.442792715906
 23
4265.672990367945
 33
0.0
 14
9404.442792715906
 24
2540.672990367945
 34
0.0
 50
90.0
100
AcDbRotatedDimension
1001
ACAD
1000
DSTYLE
1002
{
1070
   341
1005
0
1002
}
  0
DIMENSION
  5
18768
330
747D
100
AcDbEntity
  8
寸法
 48
50.0
100
AcDbDimension
  2
*D29
 10
9266.442792715888
 20
1896.625661067568
 30
0.0
 11
9366.442792715892
 21
1896.625661067568
 31
0.0
 70
   160
 71
     5
 42
200.0000000000018
  3
INABA_S40G
100
AcDbAlignedDimension
 13
9466.442792715891
 23
2182.672990367946
 33
0.0
 14
9266.442792715888
 24
2182.672990367946
 34
0.0
100
AcDbRotatedDimension
  0
LINE
  5
18B7D
330
747D
100
AcDbEntity
  8
寸法
 48
50.0
100
AcDbLine
 10
9682.836962070457
 20
7328.998594691802
 30
0.0
 11
9631.430954160352
 21
7328.998594691802
 31
0.0
  0
LINE
  5
18B7E
330
747D
100
AcDbEntity
  8
寸法
 48
50.0
100
AcDbLine
 10
9631.430954160352
 20
7328.998594691802
 30
0.0
 11
9631.430954160352
 21
7360.308753343969
 31
0.0
  0
LINE
  5
18B7F
330
747D
100
AcDbEntity
  8
寸法
 48
50.0
100
AcDbLine
 10
9631.430954160352
 20
7360.308753343969
 30
0.0
 11
9601.669622168929
 21
7360.308753343969
 31
0.0
  0
LINE
  5
18B80
330
747D
100
AcDbEntity
  8
寸法
 48
50.0
100
AcDbLine
 10
9601.669622168929
 20
7360.308753343969
 30
0.0
 11
9657.133958115405
 21
7397.888204272579
 31
0.0
  0
LINE
  5
18B81
330
747D
100
AcDbEntity
  8
寸法
 48
50.0
100
AcDbLine
 10
9712.59829406188
 20
7360.308753343969
 30
0.0
 11
9657.133958115405
 21
7397.888204272579
 31
0.0
  0
LINE
  5
18B82
330
747D
100
AcDbEntity
  8
寸法
 48
50.0
100
AcDbLine
 10
9682.836962070457
 20
7360.308753343969
 30
0.0
 11
9712.59829406188
 21
7360.308753343969
 31
0.0
  0
LINE
  5
18B83
330
747D
100
AcDbEntity
  8
寸法
 48
50.0
100
AcDbLine
 10
9682.836962070457
 20
7328.998594691802
 30
0.0
 11
9682.836962070457
 21
7360.308753343969
 31
0.0
  0
LINE
  5
18B84
330
747D
100
AcDbEntity
  8
寸法
 48
50.0
100
AcDbLine
 10
9631.430954160352
 20
7328.998594691802
 30
0.0
 11
9682.836962070457
 21
7328.998594691802
 31
0.0
  0
LINE
  5
18B85
330
747D
100
AcDbEntity
  8
寸法
 48
50.0
100
AcDbLine
 10
9962.002496347311
 20
7386.144185446624
 30
0.0
 11
9962.002496347311
 21
7332.480550864835
 31
0.0
  0
LINE
  5
18B86
330
747D
100
AcDbEntity
  8
寸法
 48
50.0
100
AcDbLine
 10
10051.28671494273
 20
7362.22055117714
 30
0.0
 11
9962.002496347311
 21
7386.144185446624
 31
0.0
  0
LINE
  5
18B87
330
747D
100
AcDbEntity
  8
寸法
 48
50.0
100
AcDbLine
 10
9832.134774767011
 20
7362.22055117714
 30
0.0
 11
10051.28671494273
 21
7362.22055117714
 31
0.0
  0
LINE
  5
18B88
330
747D
100
AcDbEntity
  8
細線
 48
50.0
100
AcDbLine
 10
10300.44278855952
 20
7527.461958071665
 30
0.0
 11
10679.44279271578
 21
7527.461958071665
 31
0.0
  0
LINE
  5
18B89
330
747D
100
AcDbEntity
  8
細線
 48
50.0
100
AcDbLine
 10
9894.442792715787
 20
7493.753189517589
 30
0.0
 11
10679.44279271578
 21
7493.753189517589
 31
0.0
  0
LINE
  5
18B8A
330
747D
100
AcDbEntity
  8
細線
 48
50.0
100
AcDbLine
 10
9853.442792715787
 20
7523.15809751384
 30
0.0
 11
9443.442792715783
 21
7523.158097513839
 31
0.0
  0
LINE
  5
18B8B
330
747D
100
AcDbEntity
  8
細線
100
AcDbLine
 10
10576.8612392592
 20
7551.96186067662
 30
0.0
 11
10511.52431584073
 21
7551.961860676605
 31
0.0
  0
LINE
  5
18B8C
330
747D
100
AcDbEntity
  8
細線
100
AcDbLine
 10
10579.19278573539
 20
7546.961843122939
 30
0.0
 11
10576.8612392592
 21
7551.96186067662
 31
0.0
  0
LINE
  5
18B8D
330
747D
100
AcDbEntity
  8
細線
100
AcDbLine
 10
10509.19277631894
 20
7546.961858036673
 30
0.0
 11
10511.52431584075
 21
7551.961860676634
 31
0.0
  0
LINE
  5
18B8E
330
747D
100
AcDbEntity
  8
細線
100
AcDbLine
 10
10369.19278573539
 20
7546.961843122939
 30
0.0
 11
10371.52432525721
 21
7551.9618457629
 31
0.0
  0
LINE
  5
18B8F
330
747D
100
AcDbEntity
  8
細線
100
AcDbLine
 10
10439.19279515185
 20
7546.961828209205
 30
0.0
 11
10436.86124867566
 21
7551.961845762886
 31
0.0
  0
LINE
  5
18B90
330
747D
100
AcDbEntity
  8
細線
100
AcDbLine
 10
10436.86124867566
 20
7551.961845762886
 30
0.0
 11
10371.52432525719
 21
7551.961845762871
 31
0.0
  0
LINE
  5
18B91
330
747D
100
AcDbEntity
  8
細線
 48
50.0
100
AcDbLine
 10
10093.32558867984
 20
7531.23270627602
 30
0.0
 11
10099.08110626251
 21
7512.961854985533
 31
0.0
  0
LINE
  5
18B92
330
747D
100
AcDbEntity
  8
細線
 48
50.0
100
AcDbLine
 10
10082.39714019941
 20
7531.23270627602
 30
0.0
 11
10093.32558867984
 21
7531.23270627602
 31
0.0
  0
ARC
  5
18B93
330
747D
100
AcDbEntity
  8
細線
 48
50.0
100
AcDbCircle
 10
10076.94278414209
 20
7532.73270627602
 30
0.0
 40
5.0
100
AcDbArc
 50
204.6243183521304
 51
335.3756816478695
  0
ARC
  5
18B94
330
747D
100
AcDbEntity
  8
細線
 48
50.0
100
AcDbCircle
 10
10082.39714019941
 20
7530.232706276021
 30
0.0
 40
1.0
100
AcDbArc
 50
90.0
 51
155.3756816478695
  0
ARC
  5
18B95
330
747D
100
AcDbEntity
  8
細線
 48
50.0
100
AcDbCircle
 10
10071.48842808477
 20
7530.232706276021
 30
0.0
 40
1.0
100
AcDbArc
 50
24.62431835213048
 51
90.0
  0
LINE
  5
18B96
330
747D
100
AcDbEntity
  8
細線
 48
50.0
100
AcDbLine
 10
10060.55997960434
 20
7531.23270627602
 30
0.0
 11
10071.48842808477
 21
7531.23270627602
 31
0.0
  0
LINE
  5
18B97
330
747D
100
AcDbEntity
  8
細線
 48
50.0
100
AcDbLine
 10
10054.80446202167
 20
7512.961854985526
 30
0.0
 11
10060.55997960434
 21
7531.23270627602
 31
0.0
  0
LINE
  5
18B98
330
747D
100
AcDbEntity
  8
細線
100
AcDbLine
 10
10179.61121053243
 20
7517.96185502372
 30
0.0
 11
10114.27428711395
 21
7517.961855023706
 31
0.0
  0
LINE
  5
18B99
330
747D
100
AcDbEntity
  8
細線
100
AcDbLine
 10
10181.94275700861
 20
7512.96183747004
 30
0.0
 11
10179.61121053242
 21
7517.96185502372
 31
0.0
  0
LINE
  5
18B9A
330
747D
100
AcDbEntity
  8
細線
100
AcDbLine
 10
10111.9427488232
 20
7512.961855023751
 30
0.0
 11
10114.27428711396
 21
7517.961855023735
 31
0.0
  0
LINE
  5
18B9B
330
747D
100
AcDbEntity
  8
細線
100
AcDbLine
 10
9724.442784530369
 20
7478.962034853608
 30
0.0
 11
9726.774322821137
 21
7483.962034853594
 31
0.0
  0
LINE
  5
18B9C
330
747D
100
AcDbEntity
  8
細線
100
AcDbLine
 10
9794.442792715784
 20
7478.962017299895
 30
0.0
 11
9792.111246239599
 21
7483.962034853572
 31
0.0
  0
LINE
  5
18B9D
330
747D
100
AcDbEntity
  8
細線
100
AcDbLine
 10
9792.111246239599
 20
7483.962034853572
 30
0.0
 11
9726.774322821125
 21
7483.962034853565
 31
0.0
  0
ARC
  5
18B9E
330
747D
100
AcDbEntity
  8
部品1
 48
0.01
100
AcDbCircle
 10
9603.942686117038
 20
7477.960912668535
 30
0.0
 40
0.5
100
AcDbArc
 50
270.0
 51
0.0
  0
LINE
  5
18B9F
330
747D
100
AcDbEntity
  8
部品1
 48
0.01
100
AcDbLine
 10
9604.442686117039
 20
7478.960912668537
 30
0.0
 11
9604.442686117039
 21
7477.960912668535
 31
0.0
  0
LINE
  5
18BA0
330
747D
100
AcDbEntity
  8
部品1
 48
0.01
100
AcDbLine
 10
9604.442686117039
 20
7478.960912668537
 30
0.0
 11
9604.442686117039
 21
7477.960912668535
 31
0.0
  0
LINE
  5
18BA1
330
747D
100
AcDbEntity
  8
部品1
 48
0.01
100
AcDbLine
 10
9603.942686117038
 20
7477.460912668536
 30
0.0
 11
9597.330180686975
 21
7477.460912668536
 31
0.0
  0
ARC
  5
18BA2
330
747D
100
AcDbEntity
  8
部品1
100
AcDbCircle
 10
9597.398530239754
 20
7478.460912668535
 30
0.0
 40
1.0
100
AcDbArc
 50
160.5287793655778
 51
270.0
  0
ARC
  5
18BA3
330
747D
100
AcDbEntity
  8
部品1
100
AcDbCircle
 10
9571.942686117038
 20
7487.460912668535
 30
0.0
 40
26.0
100
AcDbArc
 50
340.5287793655779
 51
0.0
  0
LINE
  5
18BA4
330
747D
100
AcDbEntity
  8
部品1
100
AcDbLine
 10
9597.942686117038
 20
7487.460912668535
 30
0.0
 11
9597.942686117038
 21
7492.460912668535
 31
0.0
  0
ARC
  5
18BA5
330
747D
100
AcDbEntity
  8
部品1
 48
0.01
100
AcDbCircle
 10
9595.942686117039
 20
7492.460912668535
 30
0.0
 40
2.0
100
AcDbArc
 50
0.0
 51
90.0
  0
ARC
  5
18BA6
330
747D
100
AcDbEntity
  8
部品1
100
AcDbCircle
 10
9594.334294492226
 20
7491.460912668536
 30
0.0
 40
3.0
100
AcDbArc
 50
90.0
 51
141.6069559807873
  0
LINE
  5
18BA7
330
747D
100
AcDbEntity
  8
部品1
 48
0.01
100
AcDbLine
 10
9595.942686117039
 20
7494.460912668535
 30
0.0
 11
9594.334294492226
 21
7494.460912668535
 31
0.0
  0
ARC
  5
18BA8
330
747D
100
AcDbEntity
  8
部品1
100
AcDbCircle
 10
9575.871971902767
 20
7490.760912668538
 30
0.0
 40
3.0
100
AcDbArc
 50
254.0576313943215
 51
270.0
  0
ARC
  5
18BA9
330
747D
100
AcDbEntity
  8
部品1
100
AcDbCircle
 10
9583.013400331308
 20
7490.760912668538
 30
0.0
 40
3.0
100
AcDbArc
 50
270.0
 51
285.9423686056786
  0
LINE
  5
18BAA
330
747D
100
AcDbEntity
  8
部品1
100
AcDbLine
 10
9583.013400331308
 20
7487.760912668538
 30
0.0
 11
9575.871971902767
 21
7487.760912668538
 31
0.0
  0
ARC
  5
18BAB
330
747D
100
AcDbEntity
  8
部品1
100
AcDbCircle
 10
9579.442686117038
 20
7503.260912668539
 30
0.0
 40
16.0
100
AcDbArc
 50
285.9423686056786
 51
321.6069559807873
  0
LINE
  5
18BAC
330
747D
100
AcDbEntity
  8
部品1
 48
0.01
100
AcDbLine
 10
9562.942686117038
 20
7494.460912668535
 30
0.0
 11
9564.55107774185
 21
7494.460912668535
 31
0.0
  0
ARC
  5
18BAD
330
747D
100
AcDbEntity
  8
部品1
100
AcDbCircle
 10
9564.55107774185
 20
7491.460912668536
 30
0.0
 40
3.0
100
AcDbArc
 50
38.39304401921267
 51
90.0
  0
ARC
  5
18BAE
330
747D
100
AcDbEntity
  8
部品1
100
AcDbCircle
 10
9579.442686117038
 20
7503.260912668539
 30
0.0
 40
16.0
100
AcDbArc
 50
218.3930440192126
 51
254.0576313943215
  0
LINE
  5
18BAF
330
747D
100
AcDbEntity
  8
部品1
100
AcDbLine
 10
9560.942686117037
 20
7487.460912668535
 30
0.0
 11
9560.942686117037
 21
7492.460912668535
 31
0.0
  0
ARC
  5
18BB0
330
747D
100
AcDbEntity
  8
部品1
 48
0.01
100
AcDbCircle
 10
9562.942686117038
 20
7492.460912668535
 30
0.0
 40
2.0
100
AcDbArc
 50
90.0
 51
180.0
  0
ARC
  5
18BB1
330
747D
100
AcDbEntity
  8
部品1
100
AcDbCircle
 10
9586.942686117039
 20
7487.460912668535
 30
0.0
 40
26.0
100
AcDbArc
 50
180.0
 51
199.4712206344221
  0
ARC
  5
18BB2
330
747D
100
AcDbEntity
  8
部品1
 48
0.01
100
AcDbCircle
 10
9554.942686117037
 20
7477.960912668535
 30
0.0
 40
0.5
100
AcDbArc
 50
180.0
 51
270.0
  0
LINE
  5
18BB3
330
747D
100
AcDbEntity
  8
部品1
 48
0.01
100
AcDbLine
 10
9554.942686117037
 20
7477.460912668536
 30
0.0
 11
9561.486841994321
 21
7477.460912668536
 31
0.0
  0
LINE
  5
18BB4
330
747D
100
AcDbEntity
  8
部品1
 48
0.01
100
AcDbLine
 10
9554.442686117038
 20
7478.960912668537
 30
0.0
 11
9554.442686117038
 21
7477.960912668535
 31
0.0
  0
ARC
  5
18BB5
330
747D
100
AcDbEntity
  8
部品1
100
AcDbCircle
 10
9561.486841994321
 20
7478.460912668535
 30
0.0
 40
1.0
100
AcDbArc
 50
270.0
 51
19.47122063442214
  0
LINE
  5
18BB6
330
747D
100
AcDbEntity
  8
細線
100
AcDbLine
 10
9599.942686117044
 20
7496.96091266854
 30
0.0
 11
9558.942686117045
 21
7496.960912668531
 31
0.0
  0
LINE
  5
18BB7
330
747D
100
AcDbEntity
  8
細線
100
AcDbLine
 10
9558.942686117045
 20
7496.960912668531
 30
0.0
 11
9558.942686117045
 21
7478.960912668513
 31
0.0
  0
LINE
  5
18BB8
330
747D
100
AcDbEntity
  8
細線
100
AcDbLine
 10
9599.942686117044
 20
7496.96091266854
 30
0.0
 11
9599.942686117044
 21
7478.960912668513
 31
0.0
  0
LINE
  5
18BB9
330
747D
100
AcDbEntity
  8
細線
100
AcDbLine
 10
9443.442792715783
 20
7482.961843122939
 30
0.0
 11
9443.442792715783
 21
7478.961843122987
 31
0.0
  0
DIMENSION
  5
18BBA
330
747D
100
AcDbEntity
  8
寸法
 48
50.0
100
AcDbDimension
  2
*D30
 10
10117.44279271578
 20
6849.832468425637
 30
0.0
 11
9780.442792715783
 21
6849.832468425637
 31
0.0
 70
   160
  1
有効開口部間口\P<>
 71
     5
 42
674.0
  3
INABA_S40
100
AcDbAlignedDimension
 13
9443.442792715783
 23
7473.961843122939
 33
0.0
 14
10117.44279271578
 24
7473.961843122939
 34
0.0
100
AcDbRotatedDimension
1001
ACAD
1000
DSTYLE
1002
{
1070
    41
1040
0.5
1070
    44
1040
1.0
1070
   147
1040
0.8
1070
   271
1070
     2
1070
   272
1070
     2
1070
   289
1070
     3
1070
   340
1005
F706
1070
   343
1005
16FF8
1070
   344
1005
16FF8
1002
}
  0
LINE
  5
18BBB
330
747D
100
AcDbEntity
  8
部品1
100
AcDbLine
 10
10691.44279271578
 20
7550.96184312294
 30
0.0
 11
10718.44279271578
 21
7550.96184312294
 31
0.0
  0
LINE
  5
18BBD
330
747D
100
AcDbEntity
  8
部品1
100
AcDbLine
 10
10718.44279271578
 20
7473.961843122939
 30
0.0
 11
10718.44279271578
 21
7550.96184312294
 31
0.0
  0
LINE
  5
18BBE
330
747D
100
AcDbEntity
  8
部品1
100
AcDbLine
 10
10679.44279271578
 20
7546.961843122939
 30
0.0
 11
10691.44279271578
 21
7546.961843122939
 31
0.0
  0
LINE
  5
18BBF
330
747D
100
AcDbEntity
  8
部品1
100
AcDbLine
 10
10688.44279271578
 20
7482.961843122939
 30
0.0
 11
10688.44279271578
 21
7473.961843122939
 31
0.0
  0
LINE
  5
18BC0
330
747D
100
AcDbEntity
  8
部品1
100
AcDbLine
 10
10679.44279271578
 20
7482.961843122939
 30
0.0
 11
10688.44279271578
 21
7482.961843122939
 31
0.0
  0
LINE
  5
18BC1
330
747D
100
AcDbEntity
  8
部品1
100
AcDbLine
 10
10679.44279271578
 20
7546.961843122939
 30
0.0
 11
10679.44279271578
 21
7482.961843122939
 31
0.0
  0
LINE
  5
18BC2
330
747D
100
AcDbEntity
  8
部品1
100
AcDbLine
 10
10691.44279271578
 20
7577.961843122939
 30
0.0
 11
10691.44279271578
 21
7546.961843122939
 31
0.0
  0
LINE
  5
18BC3
330
747D
100
AcDbEntity
  8
部品1
100
AcDbLine
 10
9443.442792715783
 20
7546.961843122939
 30
0.0
 11
9431.442792715783
 21
7546.961843122939
 31
0.0
  0
LINE
  5
18BC4
330
747D
100
AcDbEntity
  8
部品1
100
AcDbLine
 10
9404.442792715782
 20
7550.96184312294
 30
0.0
 11
9431.442792715783
 21
7550.96184312294
 31
0.0
  0
LINE
  5
18BC5
330
747D
100
AcDbEntity
  8
部品1
100
AcDbLine
 10
9434.442792715783
 20
7482.961843122939
 30
0.0
 11
9434.442792715783
 21
7473.961843122939
 31
0.0
  0
LINE
  5
18BC6
330
747D
100
AcDbEntity
  8
部品1
100
AcDbLine
 10
9443.442792715783
 20
7482.961843122939
 30
0.0
 11
9434.442792715783
 21
7482.961843122939
 31
0.0
  0
LINE
  5
18BC7
330
747D
100
AcDbEntity
  8
部品1
100
AcDbLine
 10
9434.442792715783
 20
7473.961843122939
 30
0.0
 11
9404.442792715782
 21
7473.961843122939
 31
0.0
  0
LINE
  5
18BC8
330
747D
100
AcDbEntity
  8
部品1
100
AcDbLine
 10
9404.442792715782
 20
7473.961843122939
 30
0.0
 11
9404.442792715782
 21
7550.96184312294
 31
0.0
  0
LINE
  5
18BC9
330
747D
100
AcDbEntity
  8
部品1
100
AcDbLine
 10
9443.442792715783
 20
7546.961843122939
 30
0.0
 11
9443.442792715783
 21
7482.961843122939
 31
0.0
  0
LINE
  5
18BCA
330
747D
100
AcDbEntity
  8
部品1
100
AcDbLine
 10
9431.442792715783
 20
7577.961843122935
 30
0.0
 11
9431.442792715783
 21
7546.961843122939
 31
0.0
  0
LINE
  5
18BCB
330
747D
100
AcDbEntity
  8
部品1
100
AcDbLine
 10
9431.442792715783
 20
7577.961843122935
 30
0.0
 11
10691.44279271578
 21
7577.961843122939
 31
0.0
  0
LINE
  5
18BCC
330
747D
100
AcDbEntity
  8
部品1
100
AcDbLine
 10
9434.442792715783
 20
7473.961843122939
 30
0.0
 11
10718.44279271578
 21
7473.961843122939
 31
0.0
  0
LINE
  5
18BCD
330
747D
100
AcDbEntity
  8
細線
 48
50.0
100
AcDbLine
 10
9457.442797369374
 20
7499.562017299894
 30
0.0
 11
9457.442797369374
 21
7507.958167707532
 31
0.0
  0
LINE
  5
18BCE
330
747D
100
AcDbEntity
  8
細線
 48
50.0
100
AcDbLine
 10
9457.442797369374
 20
7507.958167707532
 30
0.0
 11
9443.442792715783
 21
7507.958167707529
 31
0.0
  0
LINE
  5
18BCF
330
747D
100
AcDbEntity
  8
細線
 48
50.0
100
AcDbLine
 10
9434.442792715783
 20
7478.959351643364
 30
0.0
 11
9724.442792715784
 21
7478.962987769318
 31
0.0
  0
LINE
  5
18BD0
330
747D
100
AcDbEntity
  8
細線
 48
50.0
100
AcDbLine
 10
9794.442792715789
 20
7478.962017299894
 30
0.0
 11
9894.442792715786
 21
7478.962017299895
 31
0.0
  0
LINE
  5
18BD1
330
747D
100
AcDbEntity
  8
細線
 48
50.0
100
AcDbLine
 10
9667.304470595368
 20
7478.962017299895
 30
0.0
 11
9673.059988178039
 21
7497.232868590389
 31
0.0
  0
LINE
  5
18BD2
330
747D
100
AcDbEntity
  8
細線
 48
50.0
100
AcDbLine
 10
9673.059988178039
 20
7497.232868590389
 30
0.0
 11
9683.98843665847
 21
7497.232868590384
 31
0.0
  0
ARC
  5
18BD3
330
747D
100
AcDbEntity
  8
細線
 48
50.0
100
AcDbCircle
 10
9683.98843665847
 20
7496.232868590386
 30
0.0
 40
1.0
100
AcDbArc
 50
24.62431835213048
 51
90.0
  0
ARC
  5
18BD4
330
747D
100
AcDbEntity
  8
細線
 48
50.0
100
AcDbCircle
 10
9694.897148773106
 20
7496.232868590386
 30
0.0
 40
1.0
100
AcDbArc
 50
90.0
 51
155.3756816478695
  0
ARC
  5
18BD5
330
747D
100
AcDbEntity
  8
細線
 48
50.0
100
AcDbCircle
 10
9689.442792715787
 20
7498.732868590384
 30
0.0
 40
5.0
100
AcDbArc
 50
204.6243183521304
 51
335.3756816478695
  0
LINE
  5
18BD6
330
747D
100
AcDbEntity
  8
細線
 48
50.0
100
AcDbLine
 10
9694.897148773106
 20
7497.232868590384
 30
0.0
 11
9705.825597253538
 21
7497.232868590389
 31
0.0
  0
LINE
  5
18BD7
330
747D
100
AcDbEntity
  8
細線
 48
50.0
100
AcDbLine
 10
9705.825597253538
 20
7497.232868590389
 30
0.0
 11
9711.581114836207
 21
7478.962017299895
 31
0.0
  0
LINE
  5
18BD8
330
747D
100
AcDbEntity
  8
細線
 48
50.0
100
AcDbLine
 10
10270.44278390592
 20
7533.562061157756
 30
0.0
 11
9883.442792715783
 21
7533.562061157756
 31
0.0
  0
LINE
  5
18BD9
330
747D
100
AcDbEntity
  8
細線
 48
50.0
100
AcDbLine
 10
10662.54279271579
 20
7576.961843122939
 30
0.0
 11
10274.44278855951
 21
7576.961843122936
 31
0.0
  0
LINE
  5
18BDA
330
747D
100
AcDbEntity
  8
細線
 48
50.0
100
AcDbLine
 10
10688.94279271578
 20
7571.961843122943
 30
0.0
 11
10672.54279271578
 21
7571.961843122939
 31
0.0
  0
LINE
  5
18BDB
330
747D
100
AcDbEntity
  8
細線
 48
50.0
100
AcDbLine
 10
10672.54279271578
 20
7571.961843122939
 30
0.0
 11
10662.54279271579
 21
7576.961843122939
 31
0.0
  0
LINE
  5
18BDC
330
747D
100
AcDbEntity
  8
細線
100
AcDbLine
 10
10464.1927857354
 20
7546.961843122939
 30
0.0
 11
10464.1927857354
 21
7576.261843122939
 31
0.0
  0
LINE
  5
18BDD
330
747D
100
AcDbEntity
  8
細線
100
AcDbLine
 10
10464.1927857354
 20
7576.261843122939
 30
0.0
 11
10484.1927857354
 21
7576.261843122939
 31
0.0
  0
LINE
  5
18BDE
330
747D
100
AcDbEntity
  8
細線
100
AcDbLine
 10
10484.1927857354
 20
7546.961843122939
 30
0.0
 11
10484.1927857354
 21
7576.261843122939
 31
0.0
  0
LINE
  5
18BDF
330
747D
100
AcDbEntity
  8
細線
 48
50.0
100
AcDbLine
 10
10369.19278573539
 20
7546.96184312294
 30
0.0
 11
10292.2385681323
 21
7546.96184312294
 31
0.0
  0
LINE
  5
18BE0
330
747D
100
AcDbEntity
  8
細線
100
AcDbLine
 10
10509.19278573539
 20
7546.961843122939
 30
0.0
 11
10439.19278573539
 21
7546.961843122939
 31
0.0
  0
LINE
  5
18BE1
330
747D
100
AcDbEntity
  8
細線
100
AcDbLine
 10
10679.44279271578
 20
7546.961843122939
 30
0.0
 11
10579.19278573539
 21
7546.96184312294
 31
0.0
  0
LINE
  5
18BE2
330
747D
100
AcDbEntity
  8
細線
 48
50.0
100
AcDbLine
 10
10688.94279271578
 20
7571.961843122943
 30
0.0
 11
10688.94279271578
 21
7546.961843122939
 31
0.0
  0
ARC
  5
18BE3
330
747D
100
AcDbEntity
  8
細線
 48
50.0
100
AcDbCircle
 10
9894.210098591635
 20
7511.961864291214
 30
0.0
 40
1.0
100
AcDbArc
 50
90.0003999466794
 51
165.0005554812987
  0
LINE
  5
18BE4
330
747D
100
AcDbEntity
  8
細線
 48
50.0
100
AcDbLine
 10
9894.210091611249
 20
7512.961864291188
 30
0.0
 11
9895.151851762154
 21
7512.961870865038
 31
0.0
  0
ARC
  5
18BE5
330
747D
100
AcDbEntity
  8
細線
 48
50.0
100
AcDbCircle
 10
9884.675460790294
 20
7511.961669600918
 30
0.0
 40
1.0
100
AcDbArc
 50
15.00104430493943
 51
90.00093320877969
  0
LINE
  5
18BE6
330
747D
100
AcDbEntity
  8
細線
 48
50.0
100
AcDbLine
 10
9885.641381899041
 20
7512.22050625148
 30
0.0
 11
9885.889151395554
 21
7511.295885312899
 31
0.0
  0
ARC
  5
18BE7
330
747D
100
AcDbEntity
  8
細線
 48
50.0
100
AcDbCircle
 10
9887.627809391299
 20
7511.761791283916
 30
0.0
 40
1.8
100
AcDbArc
 50
195.0010443049394
 51
270.0006665777295
  0
LINE
  5
18BE8
330
747D
100
AcDbEntity
  8
細線
 48
50.0
100
AcDbLine
 10
9891.257757751221
 20
7509.961833514516
 30
0.0
 11
9887.627830332453
 21
7509.961791284037
 31
0.0
  0
LINE
  5
18BE9
330
747D
100
AcDbEntity
  8
細線
 48
50.0
100
AcDbLine
 10
9893.244170256146
 20
7512.220673971675
 30
0.0
 11
9892.996407813946
 21
7511.295976089569
 31
0.0
  0
ARC
  5
18BEA
330
747D
100
AcDbEntity
  8
細線
 48
50.0
100
AcDbCircle
 10
9891.257736810064
 20
7511.761833514396
 30
0.0
 40
1.8
100
AcDbArc
 50
270.0006665777295
 51
345.0005554812987
  0
LINE
  5
18BEB
330
747D
100
AcDbEntity
  8
細線
 48
50.0
100
AcDbLine
 10
9873.442755148021
 20
7512.961486647637
 30
0.0
 11
9884.675444502729
 21
7512.961669600783
 31
0.0
  0
LINE
  5
18BEC
330
747D
100
AcDbEntity
  8
細線
 48
50.0
100
AcDbLine
 10
9873.442755148021
 20
7512.961486647637
 30
0.0
 11
9873.442800016961
 21
7504.358025011828
 31
0.0
  0
LINE
  5
18BED
330
747D
100
AcDbEntity
  8
細線
 48
50.0
100
AcDbLine
 10
9853.442792715787
 20
7504.357983462288
 30
0.0
 11
9873.442800016961
 21
7504.358025011828
 31
0.0
  0
LINE
  5
18BEE
330
747D
100
AcDbEntity
  8
細線
 48
50.0
100
AcDbLine
 10
9853.442792715787
 20
7541.958211565398
 30
0.0
 11
9853.442792715787
 21
7504.357983462288
 31
0.0
  0
LINE
  5
18BEF
330
747D
100
AcDbEntity
  8
細線
 48
50.0
100
AcDbLine
 10
9868.442792715786
 20
7541.9582115654
 30
0.0
 11
9853.442792715787
 21
7541.958211565398
 31
0.0
  0
LINE
  5
18BF0
330
747D
100
AcDbEntity
  8
細線
 48
50.0
100
AcDbLine
 10
9868.442792715786
 20
7534.958211565402
 30
0.0
 11
9868.442792715786
 21
7541.9582115654
 31
0.0
  0
LINE
  5
18BF1
330
747D
100
AcDbEntity
  8
細線
 48
50.0
100
AcDbLine
 10
9883.442792715785
 20
7534.958211565402
 30
0.0
 11
9868.442792715786
 21
7534.958211565402
 31
0.0
  0
LINE
  5
18BF2
330
747D
100
AcDbEntity
  8
細線
 48
50.0
100
AcDbLine
 10
9883.442792715785
 20
7530.458211565401
 30
0.0
 11
9883.442792715785
 21
7534.958211565402
 31
0.0
  0
LINE
  5
18BF3
330
747D
100
AcDbEntity
  8
細線
 48
50.0
100
AcDbLine
 10
9894.442792715786
 20
7507.962017299894
 30
0.0
 11
9894.442792715786
 21
7478.962017299895
 31
0.0
  0
LINE
  5
18BF4
330
747D
100
AcDbEntity
  8
細線
 48
50.0
100
AcDbLine
 10
9879.442792715787
 20
7507.962017299894
 30
0.0
 11
9894.442792715786
 21
7507.962017299894
 31
0.0
  0
LINE
  5
18BF5
330
747D
100
AcDbEntity
  8
細線
 48
50.0
100
AcDbLine
 10
9879.442792715785
 20
7500.962017299895
 30
0.0
 11
9879.442792715787
 21
7507.962017299894
 31
0.0
  0
LINE
  5
18BF6
330
747D
100
AcDbEntity
  8
細線
 48
50.0
100
AcDbLine
 10
9864.442792715784
 20
7500.962017299895
 30
0.0
 11
9879.442792715785
 21
7500.962017299895
 31
0.0
  0
LINE
  5
18BF7
330
747D
100
AcDbEntity
  8
細線
 48
50.0
100
AcDbLine
 10
9864.442792715784
 20
7496.112017299893
 30
0.0
 11
9864.442792715784
 21
7500.962017299895
 31
0.0
  0
LINE
  5
18BF8
330
747D
100
AcDbEntity
  8
細線
 48
50.0
100
AcDbLine
 10
9864.442792715784
 20
7499.562017299893
 30
0.0
 11
9457.442797369374
 21
7499.562017299894
 31
0.0
  0
LINE
  5
18BF9
330
747D
100
AcDbEntity
  8
細線
 48
50.0
100
AcDbLine
 10
9971.9427834086
 20
7512.961860316245
 30
0.0
 11
9887.848233385012
 21
7512.961870903261
 31
0.0
  0
LINE
  5
18BFA
330
747D
100
AcDbEntity
  8
細線
 48
50.0
100
AcDbLine
 10
10111.9427488232
 20
7512.961855023751
 30
0.0
 11
10041.94273153532
 21
7512.961855023758
 31
0.0
  0
LINE
  5
18BFB
330
747D
100
AcDbEntity
  8
細線
100
AcDbLine
 10
10039.61124585132
 20
7517.961863211088
 30
0.0
 11
9974.274322432847
 21
7517.961863211076
 31
0.0
  0
LINE
  5
18BFC
330
747D
100
AcDbEntity
  8
細線
100
AcDbLine
 10
10041.94279232751
 20
7512.961845657411
 30
0.0
 11
10039.61124585132
 21
7517.961863211088
 31
0.0
  0
LINE
  5
18BFD
330
747D
100
AcDbEntity
  8
細線
100
AcDbLine
 10
9971.942784142093
 20
7512.961863211121
 30
0.0
 11
9974.274322432862
 21
7517.961863211105
 31
0.0
  0
LINE
  5
18BFE
330
747D
100
AcDbEntity
  8
細線
 48
50.0
100
AcDbLine
 10
10259.44278855951
 20
7538.961843122944
 30
0.0
 11
10259.44278855951
 21
7576.961843122936
 31
0.0
  0
LINE
  5
18BFF
330
747D
100
AcDbEntity
  8
細線
 48
50.0
100
AcDbLine
 10
10259.44278855951
 20
7576.961843122936
 30
0.0
 11
10274.44278855951
 21
7576.961843122939
 31
0.0
  0
LINE
  5
18C00
330
747D
100
AcDbEntity
  8
細線
 48
50.0
100
AcDbLine
 10
10274.44278855951
 20
7576.961843122939
 30
0.0
 11
10274.44278855951
 21
7571.961843122939
 31
0.0
  0
LINE
  5
18C01
330
747D
100
AcDbEntity
  8
細線
 48
50.0
100
AcDbLine
 10
10259.44278855951
 20
7538.961843122944
 30
0.0
 11
10279.44278855951
 21
7538.961843122939
 31
0.0
  0
LINE
  5
18C02
330
747D
100
AcDbEntity
  8
細線
 48
50.0
100
AcDbLine
 10
10279.44278855951
 20
7538.961843122939
 30
0.0
 11
10279.44278855951
 21
7546.961843122939
 31
0.0
  0
LINE
  5
18C03
330
747D
100
AcDbEntity
  8
細線
 48
50.0
100
AcDbLine
 10
10285.44278855951
 20
7546.16184312294
 30
0.0
 11
10285.44278855951
 21
7544.661843122939
 31
0.0
  0
LINE
  5
18C04
330
747D
100
AcDbEntity
  8
細線
 48
50.0
100
AcDbLine
 10
10286.14278855951
 20
7543.961843122939
 30
0.0
 11
10290.74278855951
 21
7543.961843122939
 31
0.0
  0
LINE
  5
18C05
330
747D
100
AcDbEntity
  8
細線
 48
50.0
100
AcDbLine
 10
10291.44278855951
 20
7544.661843122939
 30
0.0
 11
10291.44279538463
 21
7546.161858014428
 31
0.0
  0
ARC
  5
18C06
330
747D
100
AcDbEntity
  8
細線
 48
50.0
100
AcDbCircle
 10
10290.74278855951
 20
7544.661843122939
 30
0.0
 40
0.7
100
AcDbArc
 50
270.0
 51
0.0
  0
ARC
  5
18C07
330
747D
100
AcDbEntity
  8
細線
 48
50.0
100
AcDbCircle
 10
10286.14278855951
 20
7544.661843122939
 30
0.0
 40
0.7
100
AcDbArc
 50
180.0
 51
270.0
  0
LINE
  5
18C08
330
747D
100
AcDbEntity
  8
細線
 48
50.0
100
AcDbLine
 10
10284.64279042096
 20
7546.961843122939
 30
0.0
 11
10279.44278855951
 21
7546.961843122939
 31
0.0
  0
ARC
  5
18C09
330
747D
100
AcDbEntity
  8
細線
 48
50.0
100
AcDbCircle
 10
10292.24279538462
 20
7546.161854291558
 30
0.0
 40
0.8
100
AcDbArc
 50
90.00014387753465
 51
179.9997333689498
  0
ARC
  5
18C0A
330
747D
100
AcDbEntity
  8
細線
 48
50.0
100
AcDbCircle
 10
10284.64278855952
 20
7546.16184312294
 30
0.0
 40
0.8
100
AcDbArc
 50
359.9997333689499
 51
89.99986668437072
  0
LINE
  5
18C0B
330
747D
100
AcDbEntity
  8
細線
 48
50.0
100
AcDbLine
 10
10181.942748841
 20
7512.96185498553
 30
0.0
 11
10300.4427834086
 21
7512.96185498553
 31
0.0
  0
LINE
  5
18C0C
330
747D
100
AcDbEntity
  8
細線
 48
50.0
100
AcDbLine
 10
10300.44279371043
 20
7541.962061157803
 30
0.0
 11
10300.4427834086
 21
7512.96185498553
 31
0.0
  0
LINE
  5
18C0D
330
747D
100
AcDbEntity
  8
細線
 48
50.0
100
AcDbLine
 10
10285.4427955399
 20
7541.962061157803
 30
0.0
 11
10300.44279371043
 21
7541.962061157803
 31
0.0
  0
LINE
  5
18C0E
330
747D
100
AcDbEntity
  8
細線
 48
50.0
100
AcDbLine
 10
10285.44278390592
 20
7534.962061157759
 30
0.0
 11
10285.4427955399
 21
7541.962061157803
 31
0.0
  0
LINE
  5
18C0F
330
747D
100
AcDbEntity
  8
細線
 48
50.0
100
AcDbLine
 10
10270.44278390592
 20
7534.962061157759
 30
0.0
 11
10285.44278390592
 21
7534.962061157759
 31
0.0
  0
LINE
  5
18C10
330
747D
100
AcDbEntity
  8
細線
 48
50.0
100
AcDbLine
 10
10270.44278390592
 20
7530.112061157762
 30
0.0
 11
10270.44278390592
 21
7534.962061157759
 31
0.0
  0
LINE
  5
18C11
330
747D
100
AcDbEntity
  8
細線
  6
Continuous
 62
     5
100
AcDbLine
 10
10272.44278855951
 20
7531.961843122935
 30
0.0
 11
10272.44278855951
 21
7531.961843122935
 31
0.0
  0
LINE
  5
18C12
330
747D
100
AcDbEntity
  8
細線
  6
Continuous
 62
     5
100
AcDbLine
 10
10204.44279786669
 20
7512.961843122936
 30
0.0
 11
10204.44279786669
 21
7512.961843122936
 31
0.0
  0
DIMENSION
  5
18E18
330
747D
100
AcDbEntity
  8
寸法
100
AcDbDimension
  2
*D31
 10
9081.83154708902
 20
7475.961843122937
 30
0.0
 11
9081.831547089016
 21
7335.476561748698
 31
0.0
 70
   160
 71
     5
 42
75.0
  3
INABA_S40
100
AcDbAlignedDimension
 13
9376.442792715735
 23
7550.961843122937
 33
0.0
 14
9404.442792715714
 24
7475.961843122937
 34
0.0
 50
90.0
100
AcDbRotatedDimension
1001
ACAD
1000
DSTYLE
1002
{
1070
    41
1040
0.5
1070
    44
1040
1.0
1070
   147
1040
0.8
1070
   271
1070
     2
1070
   272
1070
     2
1070
   289
1070
     3
1070
   340
1005
F706
1070
   343
1005
16FF8
1070
   344
1005
16FF8
1002
}
  0
DIMENSION
  5
18E1A
330
747D
100
AcDbEntity
  8
寸法
 48
50.0
100
AcDbDimension
  2
*D32
 10
10718.44279271571
 20
6623.349979118846
 30
0.0
 11
10061.44279271571
 21
6623.349979118846
 31
0.0
 70
   160
 71
     5
 42
1314.0
  3
INABA_S40G
100
AcDbAlignedDimension
 13
9404.442792715714
 23
7473.961843122937
 33
0.0
 14
10718.44279271571
 24
7473.961843122937
 34
0.0
100
AcDbRotatedDimension
1001
ACAD
1000
DSTYLE
1002
{
1070
   341
1005
0
1002
}
  0
DIMENSION
  5
18E1B
330
747D
100
AcDbEntity
  8
寸法
100
AcDbDimension
  2
*D33
 10
10746.44279271581
 20
6389.27301540912
 30
0.0
 11
10058.86477747622
 21
6389.27301540912
 31
0.0
 70
   160
 71
     5
 42
1370.000000000078
  3
INABA_S40G
100
AcDbAlignedDimension
 13
9376.442792715735
 23
7550.961843122952
 33
0.0
 14
10746.44279271581
 24
7550.961843122924
 34
0.0
100
AcDbRotatedDimension
1001
ACAD
1000
DSTYLE
1002
{
1002
}
  0
TEXT
  5
18E1C
330
747D
100
AcDbEntity
  8
部品1
100
AcDbText
 10
9769.627069576285
 20
5884.025189130781
 30
0.0
 40
135.0
  1
平面図
  7
STYLE2
100
AcDbText
  0
LINE
  5
18E1D
330
747D
100
AcDbEntity
  8
部品1
100
AcDbLine
 10
9679.707459747248
 20
6076.918718349305
 30
0.0
 11
9679.707459747248
 21
5837.026396803772
 31
0.0
  0
LINE
  5
18E1E
330
747D
100
AcDbEntity
  8
部品1
100
AcDbLine
 10
9679.707459747248
 20
5837.026396803772
 30
0.0
 11
10443.17812597568
 21
5837.026396803772
 31
0.0
  0
LINE
  5
18E1F
330
747D
100
AcDbEntity
  8
部品1
100
AcDbLine
 10
10443.17812597568
 20
5837.026396803772
 30
0.0
 11
10443.17812597568
 21
6076.918718349305
 31
0.0
  0
LINE
  5
18E20
330
747D
100
AcDbEntity
  8
部品1
100
AcDbLine
 10
10443.17812597568
 20
6076.918718349305
 30
0.0
 11
9679.707459747248
 21
6076.918718349305
 31
0.0
  0
LWPOLYLINE
  5
1911F
330
747D
100
AcDbEntity
  8
部品1
 48
50.0
100
AcDbPolyline
 90
        4
 70
     1
 43
0.0
 10
9503.49279271589
 20
3378.922990367934
 10
9506.392792715891
 20
3378.922990367934
 10
9506.392792715891
 20
3388.422990367934
 10
9503.49279271589
 20
3388.422990367934
  0
CIRCLE
  5
19120
330
747D
100
AcDbEntity
  8
部品1
 48
50.0
100
AcDbCircle
 10
9504.94279271589
 20
3383.672990367934
 30
0.0
 40
9.0
  0
ARC
  5
19121
330
747D
100
AcDbEntity
  8
細線
 48
50.0
100
AcDbCircle
 10
9504.94279271589
 20
3383.672990367934
 30
0.0
 40
4.0
100
AcDbArc
 50
111.2538091853132
 51
248.7461908146868
  0
ARC
  5
19122
330
747D
100
AcDbEntity
  8
細線
 48
50.0
100
AcDbCircle
 10
9504.94279271589
 20
3383.672990367934
 30
0.0
 40
17.5
100
AcDbArc
 50
306.4837370612677
 51
233.5162629387323
  0
LINE
  5
19123
330
747D
100
AcDbEntity
  8
細線
 48
50.0
100
AcDbLine
 10
9514.942792715887
 20
3359.814029787052
 30
0.0
 11
9514.94279271589
 21
3368.798515587293
 31
0.0
  0
LINE
  5
19124
330
747D
100
AcDbEntity
  8
細線
 48
50.0
100
AcDbLine
 10
9494.942792715891
 20
3359.814029787053
 30
0.0
 11
9494.942792715891
 21
3368.79851558729
 31
0.0
  0
ARC
  5
19125
330
747D
100
AcDbEntity
  8
細線
 48
50.0
100
AcDbCircle
 10
9504.94279271589
 20
3383.672990367934
 30
0.0
 40
26.5
100
AcDbArc
 50
249.3326835063939
 51
290.6673164933835
  0
ARC
  5
19126
330
747D
100
AcDbEntity
  8
細線
 48
50.0
100
AcDbCircle
 10
9513.942792715884
 20
3359.814029787052
 30
0.0
 40
1.0
100
AcDbArc
 50
290.6673164936062
 51
359.9999999998958
  0
ARC
  5
19127
330
747D
100
AcDbEntity
  8
細線
 48
50.0
100
AcDbCircle
 10
9495.94279271589
 20
3359.814029787053
 30
0.0
 40
1.0
100
AcDbArc
 50
180.0
 51
249.3326835066164
  0
ARC
  5
19128
330
747D
100
AcDbEntity
  8
細線
 48
50.0
100
AcDbCircle
 10
9493.942792715889
 20
3368.79851558729
 30
0.0
 40
1.0
100
AcDbArc
 50
0.0
 51
53.51626293873231
  0
ARC
  5
19129
330
747D
100
AcDbEntity
  8
細線
 48
50.0
100
AcDbCircle
 10
9515.942792715895
 20
3368.798515587293
 30
0.0
 40
1.0
100
AcDbArc
 50
126.4837370615127
 51
180.0
  0
ARC
  5
1912A
330
747D
100
AcDbEntity
  8
細線
 48
50.0
100
AcDbCircle
 10
9504.94279271589
 20
3383.672990367934
 30
0.0
 40
21.5
100
AcDbArc
 50
255.8014401250294
 51
284.1985598749706
  0
ARC
  5
1912B
330
747D
100
AcDbEntity
  8
細線
 48
50.0
100
AcDbCircle
 10
9504.94279271589
 20
3383.672990367934
 30
0.0
 40
16.5
100
AcDbArc
 50
251.9694646069326
 51
288.0305353930674
  0
LINE
  5
1912C
330
747D
100
AcDbEntity
  8
細線
 48
50.0
100
AcDbLine
 10
9510.44279271589
 20
3363.120618242128
 30
0.0
 11
9510.44279271589
 21
3367.698009929465
 31
0.0
  0
LINE
  5
1912D
330
747D
100
AcDbEntity
  8
細線
 48
50.0
100
AcDbLine
 10
9499.442792715891
 20
3363.120618242128
 30
0.0
 11
9499.442792715891
 21
3367.698009929462
 31
0.0
  0
ARC
  5
1912E
330
747D
100
AcDbEntity
  8
細線
 48
50.0
100
AcDbCircle
 10
9499.742792715894
 20
3367.698009929462
 30
0.0
 40
0.3
100
AcDbArc
 50
71.96946460693259
 51
180.0
  0
ARC
  5
1912F
330
747D
100
AcDbEntity
  8
細線
 48
50.0
100
AcDbCircle
 10
9510.142792715891
 20
3367.698009929465
 30
0.0
 40
0.3
100
AcDbArc
 50
0.0
 51
108.0305353930674
  0
ARC
  5
19130
330
747D
100
AcDbEntity
  8
細線
 48
50.0
100
AcDbCircle
 10
9510.142792715887
 20
3363.120618242128
 30
0.0
 40
0.3
100
AcDbArc
 50
284.1985598747622
 51
0.0000000001042204
  0
ARC
  5
19131
330
747D
100
AcDbEntity
  8
細線
 48
50.0
100
AcDbCircle
 10
9499.742792715894
 20
3363.120618242128
 30
0.0
 40
0.3
100
AcDbArc
 50
180.0
 51
255.8014401248081
  0
CIRCLE
  5
19132
330
747D
100
AcDbEntity
  8
細線
 48
50.0
100
AcDbCircle
 10
9504.94279271589
 20
3383.672990367934
 30
0.0
 40
12.0
  0
ARC
  5
19133
330
747D
100
AcDbEntity
  8
部品1
 48
50.0
100
AcDbCircle
 10
9504.94279271589
 20
3433.672990367934
 30
0.0
 40
8.5
100
AcDbArc
 50
114.315739171091
 51
245.684260828909
  0
CIRCLE
  5
19134
330
747D
100
AcDbEntity
  8
細線
 48
50.0
100
AcDbCircle
 10
9504.94279271589
 20
3433.672990367934
 30
0.0
 40
4.5
  0
LWPOLYLINE
  5
19135
330
747D
100
AcDbEntity
  8
部品1
 48
50.0
100
AcDbPolyline
 90
        2
 70
     0
 43
0.0
 10
9501.44279271589
 20
3452.347839764917
 10
9501.44279271589
 20
3441.41895706035
  0
CIRCLE
  5
19136
330
747D
100
AcDbEntity
  8
部品1
 48
50.0
100
AcDbCircle
 10
9504.94279271589
 20
3433.672990367934
 30
0.0
 40
19.0
  0
LWPOLYLINE
  5
19137
330
747D
100
AcDbEntity
  8
部品1
 48
50.0
100
AcDbPolyline
 90
        2
 70
     0
 43
0.0
 10
9501.44279271589
 20
3425.927023675519
 10
9501.44279271589
 20
3414.998140970952
  0
LWPOLYLINE
  5
19138
330
747D
100
AcDbEntity
  8
部品1
 48
50.0
100
AcDbPolyline
 90
        2
 70
     0
 43
0.0
 10
9508.442792715889
 20
3441.41895706035
 10
9508.442792715889
 20
3452.347839764917
  0
ARC
  5
19139
330
747D
100
AcDbEntity
  8
部品1
 48
50.0
100
AcDbCircle
 10
9504.94279271589
 20
3433.672990367934
 30
0.0
 40
8.5
100
AcDbArc
 50
294.315739171091
 51
65.68426082890896
  0
LWPOLYLINE
  5
1913A
330
747D
100
AcDbEntity
  8
部品1
 48
50.0
100
AcDbPolyline
 90
        2
 70
     0
 43
0.0
 10
9508.442792715889
 20
3414.998140970952
 10
9508.442792715889
 20
3425.927023675519
  0
ARC
  5
1913B
330
747D
100
AcDbEntity
  8
細線
 48
50.0
100
AcDbCircle
 10
9504.94279271589
 20
3433.672990367934
 30
0.0
 40
16.5
100
AcDbArc
 50
332.0012352654438
 51
27.99876473455621
  0
ARC
  5
1913C
330
747D
100
AcDbEntity
  8
細線
 48
50.0
100
AcDbCircle
 10
9504.94279271589
 20
3433.672990367934
 30
0.0
 40
14.0
100
AcDbArc
 50
326.4074436112986
 51
33.59255638870134
  0
LINE
  5
1913D
330
747D
100
AcDbEntity
  8
細線
 48
50.0
100
AcDbLine
 10
9490.373990431558
 20
3441.41895706035
 30
0.0
 11
9493.280888926202
 21
3441.41895706035
 31
0.0
  0
LINE
  5
1913E
330
747D
100
AcDbEntity
  8
細線
 48
50.0
100
AcDbLine
 10
9490.373990431558
 20
3425.927023675519
 30
0.0
 11
9493.280888926202
 21
3425.927023675519
 31
0.0
  0
LINE
  5
1913F
330
747D
100
AcDbEntity
  8
細線
 48
50.0
100
AcDbLine
 10
9516.604696505579
 20
3441.41895706035
 30
0.0
 11
9519.511595000226
 21
3441.41895706035
 31
0.0
  0
LINE
  5
19140
330
747D
100
AcDbEntity
  8
細線
 48
50.0
100
AcDbLine
 10
9516.604696505579
 20
3425.927023675519
 30
0.0
 11
9519.511595000226
 21
3425.927023675519
 31
0.0
  0
ARC
  5
19141
330
747D
100
AcDbEntity
  8
細線
 48
50.0
100
AcDbCircle
 10
9504.94279271589
 20
3433.672990367934
 30
0.0
 40
14.0
100
AcDbArc
 50
146.4074436112986
 51
213.5925563887013
  0
ARC
  5
19142
330
747D
100
AcDbEntity
  8
細線
 48
50.0
100
AcDbCircle
 10
9504.94279271589
 20
3433.672990367934
 30
0.0
 40
16.5
100
AcDbArc
 50
152.0012352654438
 51
207.9987647345562
  0
ARC
  5
19143
330
747D
100
AcDbEntity
  8
部品1
 48
50.0
100
AcDbCircle
 10
9478.44279271589
 20
3459.172990367934
 30
0.0
 40
5.0
100
AcDbArc
 50
90.0
 51
180.0
  0
ARC
  5
19144
330
747D
100
AcDbEntity
  8
部品1
 48
50.0
100
AcDbCircle
 10
9478.44279271589
 20
3348.172990367935
 30
0.0
 40
5.0
100
AcDbArc
 50
180.0
 51
270.0
  0
ARC
  5
19145
330
747D
100
AcDbEntity
  8
部品1
 48
50.0
100
AcDbCircle
 10
9531.442792715891
 20
3348.172990367935
 30
0.0
 40
5.0
100
AcDbArc
 50
270.0
 51
0.0
  0
ARC
  5
19146
330
747D
100
AcDbEntity
  8
部品1
 48
50.0
100
AcDbCircle
 10
9531.442792715891
 20
3459.172990367934
 30
0.0
 40
5.0
100
AcDbArc
 50
0.0
 51
90.0
  0
LINE
  5
19148
330
747D
100
AcDbEntity
  8
部品1
 48
50.0
100
AcDbLine
 10
9473.442792715891
 20
3348.172990367935
 30
0.0
 11
9473.442792715891
 21
3459.172990367934
 31
0.0
  0
LINE
  5
19149
330
747D
100
AcDbEntity
  8
部品1
 48
50.0
100
AcDbLine
 10
9531.442792715891
 20
3343.172990367934
 30
0.0
 11
9478.44279271589
 21
3343.172990367934
 31
0.0
  0
LINE
  5
1914A
330
747D
100
AcDbEntity
  8
部品1
 48
50.0
100
AcDbLine
 10
9536.44279271589
 20
3459.172990367934
 30
0.0
 11
9536.44279271589
 21
3348.172990367935
 31
0.0
  0
ENDSEC
  0
SECTION
  2
OBJECTS
  0
DICTIONARY
  5
7471
330
0
100
AcDbDictionary
281
     1
  3
ACAD_COLOR
350
16FED
  3
ACAD_GROUP
350
7472
  3
ACAD_LAYOUT
350
16FEE
  3
ACAD_MATERIAL
350
16FEC
  3
ACAD_MLINESTYLE
350
7473
  3
ACAD_PLOTSETTINGS
350
16FEF
  3
ACAD_PLOTSTYLENAME
350
16FEA
  3
ACDBHEADERROUNDTRIPXREC
350
1916A
  3
AcDbVariableDictionary
350
19166
  3
CONTENTDICTIONARY
350
E71C
  3
DRAWINGVARIABLESDICT
350
F3B9
  0
DICTIONARY
  5
17187
330
7467
100
AcDbDictionary
280
     1
281
     1
  3
ACAD_LAYERSTATES
360
17188
  0
DICTIONARY
  5
16FED
102
{ACAD_REACTORS
330
7471
102
}
330
7471
100
AcDbDictionary
281
     1
  0
DICTIONARY
  5
7472
102
{ACAD_REACTORS
330
7471
102
}
330
7471
100
AcDbDictionary
281
     1
  0
DICTIONARY
  5
16FEE
102
{ACAD_REACTORS
330
7471
102
}
330
7471
100
AcDbDictionary
281
     1
  3
Model
350
16FF0
  3
レイアウト1
350
16FF1
  0
DICTIONARY
  5
16FEC
102
{ACAD_REACTORS
330
7471
102
}
330
7471
100
AcDbDictionary
281
     1
  0
DICTIONARY
  5
7473
102
{ACAD_REACTORS
330
7471
102
}
330
7471
100
AcDbDictionary
281
     1
  3
STANDARD
350
7480
  0
DICTIONARY
  5
16FEF
102
{ACAD_REACTORS
330
7471
102
}
330
7471
100
AcDbDictionary
281
     1
  0
ACDBDICTIONARYWDFLT
  5
16FEA
102
{ACAD_REACTORS
330
7471
102
}
330
7471
100
AcDbDictionary
281
     1
  3
Normal
350
16FEB
100
AcDbDictionaryWithDefault
340
16FEB
  0
DICTIONARY
  5
1916A
102
{ACAD_REACTORS
330
7471
102
}
330
7471
100
AcDbDictionary
281
     1
  3
COLORDICT
350
1916C
  3
MATERIALDICT
350
1916B
  0
DICTIONARY
  5
19166
102
{ACAD_REACTORS
330
7471
102
}
330
7471
100
AcDbDictionary
281
     1
  3
DIMASSOC
350
19167
  3
PROJECTNAME
350
19168
  0
DICTIONARY
  5
E71C
102
{ACAD_REACTORS
330
7471
102
}
330
7471
100
AcDbDictionary
281
     1
  0
DICTIONARY
  5
F3B9
102
{ACAD_REACTORS
330
7471
102
}
330
7471
100
AcDbDictionary
281
     1
1001
DRAWINGVARIABLESXDATA
1000
POLARMODE
1000
1
  0
DICTIONARY
  5
17188
102
{ACAD_REACTORS
330
17187
102
}
330
17187
100
AcDbDictionary
281
     1
  0
LAYOUT
  5
16FF0
102
{ACAD_XDICTIONARY
360
1916D
102
}
102
{ACAD_REACTORS
330
16FEE
102
}
330
16FEE
100
AcDbPlotSettings
  1

  2
クセロPDF
  4
A3
  6

 40
3.174999952316284
 41
3.174999952316284
 42
3.17498779296875
 43
3.17498779296875
 44
419.9466552734374
 45
296.9259948730469
 46
0.0
 47
0.0
 48
3.619013395666115
 49
-4.192117100517862
140
820.022926294543
141
573.2392198881443
142
1.0
143
39.99735023620806
 70
 11952
 72
     1
 73
     0
 74
     2
  7
inaba.ctb
 75
     0
147
0.0250016562120842
148
25.79074261211281
149
125.8223078213959
100
AcDbLayout
  1
Model
 70
     1
 71
     0
 10
0.0
 20
0.0
 11
12.0
 21
9.0
 12
0.0
 22
0.0
 32
0.0
 14
0.0
 24
0.0
 34
0.0
 15
0.0
 25
0.0
 35
0.0
146
0.0
 13
0.0
 23
0.0
 33
0.0
 16
1.0
 26
0.0
 36
0.0
 17
0.0
 27
1.0
 37
0.0
 76
     0
330
747D
  0
LAYOUT
  5
16FF1
102
{ACAD_XDICTIONARY
360
1916F
102
}
102
{ACAD_REACTORS
330
16FEE
102
}
330
16FEE
100
AcDbPlotSettings
  1

  2
Microsoft Office Document Image Writer
  4

  6

 40
0.0
 41
0.0
 42
0.0
 43
0.0
 44
0.0
 45
0.0
 46
0.0
 47
0.0
 48
0.0
 49
0.0
140
0.0
141
0.0
142
1.0
143
1.0
 70
   688
 72
     0
 73
     0
 74
     5
  7

 75
    16
147
1.0
148
0.0
149
0.0
100
AcDbLayout
  1
レイアウト1
 70
     0
 71
     1
 10
0.0
 20
0.0
 11
420.0
 21
297.0
 12
0.0
 22
0.0
 32
0.0
 14
1.000000000000000E+20
 24
1.000000000000000E+20
 34
1.000000000000000E+20
 15
-1.000000000000000E+20
 25
-1.000000000000000E+20
 35
-1.000000000000000E+20
146
0.0
 13
0.0
 23
0.0
 33
0.0
 16
1.0
 26
0.0
 36
0.0
 17
0.0
 27
1.0
 37
0.0
 76
     0
330
747A
  0
MLINESTYLE
  5
7480
102
{ACAD_REACTORS
330
7473
102
}
330
7473
100
AcDbMlineStyle
  2
STANDARD
 70
     0
  3

 62
     0
 51
90.0
 52
90.0
 71
     2
 49
0.5
 62
   256
  6
BYLAYER
 49
-0.5
 62
   256
  6
BYLAYER
  0
ACDBPLACEHOLDER
  5
16FEB
102
{ACAD_REACTORS
330
16FEA
102
}
330
16FEA
  0
XRECORD
  5
1916C
102
{ACAD_REACTORS
330
1916A
102
}
330
1916A
100
AcDbXrecord
280
     1
340
16FED
  0
XRECORD
  5
1916B
102
{ACAD_REACTORS
330
1916A
102
}
330
1916A
100
AcDbXrecord
280
     1
340
16FEC
  0
DICTIONARYVAR
  5
19167
102
{ACAD_REACTORS
330
19166
102
}
330
19166
100
DictionaryVariables
280
     0
  1
1
  0
DICTIONARYVAR
  5
19168
102
{ACAD_REACTORS
330
19166
102
}
330
19166
100
DictionaryVariables
280
     0
  1

  0
DICTIONARY
  5
1916D
330
16FF0
100
AcDbDictionary
280
     1
281
     1
  3
ACAD_XREC_ROUNDTRIP
360
1916E
  0
DICTIONARY
  5
1916F
330
16FF1
100
AcDbDictionary
280
     1
281
     1
  3
ACAD_XREC_ROUNDTRIP
360
19170
  0
XRECORD
  5
1916E
102
{ACAD_REACTORS
330
1916D
102
}
330
1916D
100
AcDbXrecord
280
     1
102
SHADEPLOT
 70
     0
102
SHADEPLOTRESLEVEL
 70
     2
102
SHADEPLOTCUSTOMDPI
 70
   150
  0
XRECORD
  5
19170
102
{ACAD_REACTORS
330
1916F
102
}
330
1916F
100
AcDbXrecord
280
     1
102
SHADEPLOT
 70
     0
102
SHADEPLOTRESLEVEL
 70
     2
102
SHADEPLOTCUSTOMDPI
 70
   300
  0
ENDSEC
  0
EOF
