  0
SECTION
  2
HEADER
  9
$ACADVER
  1
AC1015
  9
$ACADMAINTVER
 70
    20
  9
$DWGCODEPAGE
  3
ANSI_932
  9
$INSBASE
 10
0.0
 20
0.0
 30
0.0
  9
$EXTMIN
 10
139.9999999999995
 20
-0.0000000000000909
 30
0.0
  9
$EXTMAX
 10
16307.2
 20
11409.6
 30
0.0
  9
$LIMMIN
 10
0.0
 20
0.0
  9
$LIMMAX
 10
16800.0
 20
11880.0
  9
$ORTHOMODE
 70
     0
  9
$REGENMODE
 70
     1
  9
$FILLMODE
 70
     1
  9
$QTEXTMODE
 70
     0
  9
$MIRRTEXT
 70
     1
  9
$LTSCALE
 40
20.0
  9
$ATTMODE
 70
     1
  9
$TEXTSIZE
 40
4.0
  9
$TRACEWID
 40
1.0
  9
$TEXTSTYLE
  7
STYLE1
  9
$CLAYER
  8
部品1
  9
$CELTYPE
  6
BYLAYER
  9
$CECOLOR
 62
   256
  9
$CELTSCALE
 40
50.0
  9
$DISPSILH
 70
     0
  9
$DIMSCALE
 40
40.0
  9
$DIMASZ
 40
2.5
  9
$DIMEXO
 40
0.5
  9
$DIMDLI
 40
7.0
  9
$DIMRND
 40
0.0
  9
$DIMDLE
 40
0.0
  9
$DIMEXE
 40
1.5
  9
$DIMTP
 40
0.0
  9
$DIMTM
 40
0.0
  9
$DIMTXT
 40
3.0
  9
$DIMCEN
 40
0.0
  9
$DIMTSZ
 40
0.0
  9
$DIMTOL
 70
     0
  9
$DIMLIM
 70
     0
  9
$DIMTIH
 70
     0
  9
$DIMTOH
 70
     0
  9
$DIMSE1
 70
     0
  9
$DIMSE2
 70
     0
  9
$DIMTAD
 70
     3
  9
$DIMZIN
 70
     8
  9
$DIMBLK
  1

  9
$DIMASO
 70
     1
  9
$DIMSHO
 70
     1
  9
$DIMPOST
  1

  9
$DIMAPOST
  1

  9
$DIMALT
 70
     0
  9
$DIMALTD
 70
     2
  9
$DIMALTF
 40
0.0394
  9
$DIMLFAC
 40
1.0
  9
$DIMTOFL
 70
     1
  9
$DIMTVP
 40
0.0
  9
$DIMTIX
 70
     1
  9
$DIMSOXD
 70
     0
  9
$DIMSAH
 70
     1
  9
$DIMBLK1
  1
DOTSMALL
  9
$DIMBLK2
  1
DOTSMALL
  9
$DIMSTYLE
  2
INABA_S40G
  9
$DIMCLRD
 70
     0
  9
$DIMCLRE
 70
     0
  9
$DIMCLRT
 70
     7
  9
$DIMTFAC
 40
1.0
  9
$DIMGAP
 40
1.0
  9
$DIMJUST
 70
     0
  9
$DIMSD1
 70
     0
  9
$DIMSD2
 70
     0
  9
$DIMTOLJ
 70
     1
  9
$DIMTZIN
 70
     0
  9
$DIMALTZ
 70
     0
  9
$DIMALTTZ
 70
     0
  9
$DIMUPT
 70
     1
  9
$DIMDEC
 70
     1
  9
$DIMTDEC
 70
     4
  9
$DIMALTU
 70
     2
  9
$DIMALTTD
 70
     2
  9
$DIMTXSTY
  7
STYLE1
  9
$DIMAUNIT
 70
     0
  9
$DIMADEC
 70
     0
  9
$DIMALTRND
 40
0.0
  9
$DIMAZIN
 70
     0
  9
$DIMDSEP
 70
    46
  9
$DIMATFIT
 70
     3
  9
$DIMFRAC
 70
     0
  9
$DIMLDRBLK
  1

  9
$DIMLUNIT
 70
     2
  9
$DIMLWD
 70
    -2
  9
$DIMLWE
 70
    -2
  9
$DIMTMOVE
 70
     0
  9
$LUNITS
 70
     2
  9
$LUPREC
 70
     1
  9
$SKETCHINC
 40
1.0
  9
$FILLETRAD
 40
3.0
  9
$AUNITS
 70
     0
  9
$AUPREC
 70
     0
  9
$MENU
  1
acad
  9
$ELEVATION
 40
0.0
  9
$PELEVATION
 40
0.0
  9
$THICKNESS
 40
0.0
  9
$LIMCHECK
 70
     0
  9
$CHAMFERA
 40
0.0
  9
$CHAMFERB
 40
0.0
  9
$CHAMFERC
 40
0.0
  9
$CHAMFERD
 40
0.0
  9
$SKPOLY
 70
     0
  9
$TDCREATE
 40
2451368.612993866
  9
$TDUCREATE
 40
2451368.237993866
  9
$TDUPDATE
 40
2455575.685808554
  9
$TDUUPDATE
 40
2455575.310808554
  9
$TDINDWG
 40
0.6709116667
  9
$TDUSRTIMER
 40
0.6709116667
  9
$USRTIMER
 70
     1
  9
$ANGBASE
 50
0.0
  9
$ANGDIR
 70
     0
  9
$PDMODE
 70
     3
  9
$PDSIZE
 40
2.0
  9
$PLINEWID
 40
0.0
  9
$SPLFRAME
 70
     0
  9
$SPLINETYPE
 70
     6
  9
$SPLINESEGS
 70
     8
  9
$HANDSEED
  5
19F9F
  9
$SURFTAB1
 70
     6
  9
$SURFTAB2
 70
     6
  9
$SURFTYPE
 70
     6
  9
$SURFU
 70
     6
  9
$SURFV
 70
     6
  9
$UCSBASE
  2

  9
$UCSNAME
  2

  9
$UCSORG
 10
0.0
 20
0.0
 30
0.0
  9
$UCSXDIR
 10
1.0
 20
0.0
 30
0.0
  9
$UCSYDIR
 10
0.0
 20
1.0
 30
0.0
  9
$UCSORTHOREF
  2

  9
$UCSORTHOVIEW
 70
     0
  9
$UCSORGTOP
 10
0.0
 20
0.0
 30
0.0
  9
$UCSORGBOTTOM
 10
0.0
 20
0.0
 30
0.0
  9
$UCSORGLEFT
 10
0.0
 20
0.0
 30
0.0
  9
$UCSORGRIGHT
 10
0.0
 20
0.0
 30
0.0
  9
$UCSORGFRONT
 10
0.0
 20
0.0
 30
0.0
  9
$UCSORGBACK
 10
0.0
 20
0.0
 30
0.0
  9
$PUCSBASE
  2

  9
$PUCSNAME
  2

  9
$PUCSORG
 10
0.0
 20
0.0
 30
0.0
  9
$PUCSXDIR
 10
1.0
 20
0.0
 30
0.0
  9
$PUCSYDIR
 10
0.0
 20
1.0
 30
0.0
  9
$PUCSORTHOREF
  2

  9
$PUCSORTHOVIEW
 70
     0
  9
$PUCSORGTOP
 10
0.0
 20
0.0
 30
0.0
  9
$PUCSORGBOTTOM
 10
0.0
 20
0.0
 30
0.0
  9
$PUCSORGLEFT
 10
0.0
 20
0.0
 30
0.0
  9
$PUCSORGRIGHT
 10
0.0
 20
0.0
 30
0.0
  9
$PUCSORGFRONT
 10
0.0
 20
0.0
 30
0.0
  9
$PUCSORGBACK
 10
0.0
 20
0.0
 30
0.0
  9
$USERI1
 70
     0
  9
$USERI2
 70
     0
  9
$USERI3
 70
     0
  9
$USERI4
 70
     0
  9
$USERI5
 70
     0
  9
$USERR1
 40
0.0
  9
$USERR2
 40
0.0
  9
$USERR3
 40
0.0
  9
$USERR4
 40
0.0
  9
$USERR5
 40
0.0
  9
$WORLDVIEW
 70
     1
  9
$SHADEDGE
 70
     3
  9
$SHADEDIF
 70
    70
  9
$TILEMODE
 70
     1
  9
$MAXACTVP
 70
    16
  9
$PINSBASE
 10
0.0
 20
0.0
 30
0.0
  9
$PLIMCHECK
 70
     0
  9
$PEXTMIN
 10
1.000000000000000E+20
 20
1.000000000000000E+20
 30
1.000000000000000E+20
  9
$PEXTMAX
 10
-1.000000000000000E+20
 20
-1.000000000000000E+20
 30
-1.000000000000000E+20
  9
$PLIMMIN
 10
0.0
 20
0.0
  9
$PLIMMAX
 10
420.0
 20
297.0
  9
$UNITMODE
 70
     0
  9
$VISRETAIN
 70
     0
  9
$PLINEGEN
 70
     0
  9
$PSLTSCALE
 70
     0
  9
$TREEDEPTH
 70
  3020
  9
$CMLSTYLE
  2
STANDARD
  9
$CMLJUST
 70
     0
  9
$CMLSCALE
 40
1.0
  9
$PROXYGRAPHICS
 70
     1
  9
$MEASUREMENT
 70
     1
  9
$CELWEIGHT
370
    -1
  9
$ENDCAPS
280
     0
  9
$JOINSTYLE
280
     0
  9
$LWDISPLAY
290
     0
  9
$INSUNITS
 70
     0
  9
$HYPERLINKBASE
  1

  9
$STYLESHEET
  1

  9
$XEDIT
290
     1
  9
$CEPSNTYPE
380
     0
  9
$PSTYLEMODE
290
     1
  9
$FINGERPRINTGUID
  2
{3A635C20-8B4E-4717-B035-15A2A9A5AEF9}
  9
$VERSIONGUID
  2
{DF4645E4-06AC-4F23-8C0B-15DFF036A329}
  9
$EXTNAMES
290
     1
  9
$PSVPSCALE
 40
0.0
  9
$OLESTARTUP
290
     0
  0
ENDSEC
  0
SECTION
  2
CLASSES
  0
CLASS
  1
ACDBDICTIONARYWDFLT
  2
AcDbDictionaryWithDefault
  3
ObjectDBX Classes
 90
        0
280
     0
281
     0
  0
CLASS
  1
DICTIONARYVAR
  2
AcDbDictionaryVar
  3
ObjectDBX Classes
 90
        0
280
     0
281
     0
  0
CLASS
  1
ACDBPLACEHOLDER
  2
AcDbPlaceHolder
  3
ObjectDBX Classes
 90
        0
280
     0
281
     0
  0
CLASS
  1
LAYOUT
  2
AcDbLayout
  3
ObjectDBX Classes
 90
        0
280
     0
281
     0
  0
ENDSEC
  0
SECTION
  2
TABLES
  0
TABLE
  2
VPORT
  5
746D
330
0
100
AcDbSymbolTable
 70
     2
  0
VPORT
  5
19F97
330
746D
100
AcDbSymbolTableRecord
100
AcDbViewportTableRecord
  2
*Active
 70
     0
 10
0.0
 20
0.0
 11
1.0
 21
1.0
 12
8223.761025238502
 22
6348.703162895247
 13
0.0
 23
0.0
 14
10.0
 24
10.0
 15
10.0
 25
10.0
 16
0.0
 26
0.0
 36
1.0
 17
0.0
 27
0.0
 37
0.0
 40
12805.60689082044
 41
1.525925925925925
 42
50.0
 43
0.0
 44
0.0
 50
0.0
 51
0.0
 71
     0
 72
     0
 73
     1
 74
     0
 75
     0
 76
     0
 77
     0
 78
     0
281
     0
 65
     1
110
0.0
120
0.0
130
0.0
111
1.0
121
0.0
131
0.0
112
0.0
122
1.0
132
0.0
 79
     0
146
0.0
  0
ENDTAB
  0
TABLE
  2
LTYPE
  5
746A
330
0
100
AcDbSymbolTable
 70
     4
  0
LTYPE
  5
7477
330
746A
100
AcDbSymbolTableRecord
100
AcDbLinetypeTableRecord
  2
BYBLOCK
 70
     0
  3

 72
    65
 73
     0
 40
0.0
  0
LTYPE
  5
7478
330
746A
100
AcDbSymbolTableRecord
100
AcDbLinetypeTableRecord
  2
BYLAYER
 70
     0
  3

 72
    65
 73
     0
 40
0.0
  0
LTYPE
  5
7479
330
746A
100
AcDbSymbolTableRecord
100
AcDbLinetypeTableRecord
  2
CONTINUOUS
 70
     0
  3
Solid line
 72
    65
 73
     0
 40
0.0
  0
LTYPE
  5
7816
330
746A
100
AcDbSymbolTableRecord
100
AcDbLinetypeTableRecord
  2
CENTER
 70
     0
  3
____ _ ____ _ ____ _ ____ _ ____ _ ____ _ ____ 
 72
    65
 73
     4
 40
2.0
 49
1.25
 74
     0
 49
-0.25
 74
     0
 49
0.25
 74
     0
 49
-0.25
 74
     0
  0
LTYPE
  5
781A
330
746A
100
AcDbSymbolTableRecord
100
AcDbLinetypeTableRecord
  2
HIDDEN
 70
     0
  3
__ __ __ __ __ __ __ __ __ __ __ __ __ __ __ __
 72
    65
 73
     2
 40
0.375
 49
0.25
 74
     0
 49
-0.125
 74
     0
  0
LTYPE
  5
781B
330
746A
100
AcDbSymbolTableRecord
100
AcDbLinetypeTableRecord
  2
PHANTOM
 70
     0
  3
______  __  __  ______  __  __  ______  __  __ 
 72
    65
 73
     6
 40
2.5
 49
1.25
 74
     0
 49
-0.25
 74
     0
 49
0.25
 74
     0
 49
-0.25
 74
     0
 49
0.25
 74
     0
 49
-0.25
 74
     0
  0
ENDTAB
  0
TABLE
  2
LAYER
  5
7467
102
{ACAD_XDICTIONARY
360
17D07
102
}
330
0
100
AcDbSymbolTable
 70
    12
  0
LAYER
  5
7474
330
7467
100
AcDbSymbolTableRecord
100
AcDbLayerTableRecord
  2
0
 70
     0
 62
     7
  6
CONTINUOUS
370
    -3
390
17B78
  0
LAYER
  5
DEB2
330
7467
100
AcDbSymbolTableRecord
100
AcDbLayerTableRecord
  2
センター
 70
     0
 62
     3
  6
CENTER
370
    -3
390
17B78
  0
LAYER
  5
DEB3
330
7467
100
AcDbSymbolTableRecord
100
AcDbLayerTableRecord
  2
寸法
 70
     0
 62
     4
  6
CONTINUOUS
370
    -3
390
17B78
  0
LAYER
  5
DEB4
330
7467
100
AcDbSymbolTableRecord
100
AcDbLayerTableRecord
  2
部品1
 70
     0
 62
     7
  6
CONTINUOUS
370
    -3
390
17B78
  0
LAYER
  5
DEB5
330
7467
100
AcDbSymbolTableRecord
100
AcDbLayerTableRecord
  2
補助
 70
     0
 62
    -1
  6
CONTINUOUS
370
    -3
390
17B78
  0
LAYER
  5
DEB6
330
7467
100
AcDbSymbolTableRecord
100
AcDbLayerTableRecord
  2
文字
 70
     0
 62
     7
  6
CONTINUOUS
370
    -3
390
17B78
  0
LAYER
  5
F255
330
7467
100
AcDbSymbolTableRecord
100
AcDbLayerTableRecord
  2
DEFPOINTS
 70
     0
 62
     7
  6
CONTINUOUS
290
     0
370
    -3
390
17B78
  0
LAYER
  5
10B54
330
7467
100
AcDbSymbolTableRecord
100
AcDbLayerTableRecord
  2
仕様書枠
 70
     0
 62
   230
  6
CONTINUOUS
370
    -3
390
17B78
  0
LAYER
  5
11729
330
7467
100
AcDbSymbolTableRecord
100
AcDbLayerTableRecord
  2
Ｇ．Ｌ
 70
     0
 62
    30
  6
CONTINUOUS
370
    -3
390
17B78
  0
LAYER
  5
1173F
330
7467
100
AcDbSymbolTableRecord
100
AcDbLayerTableRecord
  2
細線
 70
     0
 62
     5
  6
CONTINUOUS
370
    -3
390
17B78
  0
LAYER
  5
12CC4
330
7467
100
AcDbSymbolTableRecord
100
AcDbLayerTableRecord
  2
想像線
 70
     0
 62
     6
  6
PHANTOM
370
    -3
390
17B78
  0
LAYER
  5
142E2
330
7467
100
AcDbSymbolTableRecord
100
AcDbLayerTableRecord
  2
破線
 70
     0
 62
     2
  6
HIDDEN
370
    -3
390
17B78
  0
ENDTAB
  0
TABLE
  2
STYLE
  5
7468
330
0
100
AcDbSymbolTable
 70
     4
  0
STYLE
  5
7475
330
7468
100
AcDbSymbolTableRecord
100
AcDbTextStyleTableRecord
  2
STANDARD
 70
     0
 40
0.0
 41
1.0
 50
0.0
 71
     0
 42
4.0
  3
txt
  4
C:\AutoCAD LT\bigfont.shx
  0
STYLE
  5
F706
330
7468
100
AcDbSymbolTableRecord
100
AcDbTextStyleTableRecord
  2
STYLE1
 70
     0
 40
0.0
 41
1.0
 50
0.0
 71
     0
 42
4.0
  3
isocp.shx
  4
bigfont.shx
  0
STYLE
  5
103BF
330
7468
100
AcDbSymbolTableRecord
100
AcDbTextStyleTableRecord
  2
STYLE2
 70
     0
 40
0.0
 41
1.0
 50
0.0
 71
     0
 42
100.0
  3
MS PGothic.ttf
  4

1001
ACAD
1000
MS PGothic
1071
    32818
  0
STYLE
  5
198F7
330
7468
100
AcDbSymbolTableRecord
100
AcDbTextStyleTableRecord
  2
STYLE3
 70
     0
 40
0.0
 41
1.0
 50
0.0
 71
     0
 42
100.0
  3

  4

1001
ACAD
1000
DFPGothic-EB
1071
    32818
  0
ENDTAB
  0
TABLE
  2
VIEW
  5
746B
330
0
100
AcDbSymbolTable
 70
     0
  0
ENDTAB
  0
TABLE
  2
UCS
  5
746C
330
0
100
AcDbSymbolTable
 70
     0
  0
ENDTAB
  0
TABLE
  2
APPID
  5
746E
330
0
100
AcDbSymbolTable
 70
     6
  0
APPID
  5
7476
330
746E
100
AcDbSymbolTableRecord
100
AcDbRegAppTableRecord
  2
ACAD
 70
     0
  0
APPID
  5
DEA9
330
746E
100
AcDbSymbolTableRecord
100
AcDbRegAppTableRecord
  2
CONTENTBLOCKICON
 70
     0
  0
APPID
  5
DEAA
330
746E
100
AcDbSymbolTableRecord
100
AcDbRegAppTableRecord
  2
CONTENTBLOCKDESCRIPTION
 70
     0
  0
APPID
  5
E71D
330
746E
100
AcDbSymbolTableRecord
100
AcDbRegAppTableRecord
  2
CONTENTTABDATA
 70
     0
  0
APPID
  5
E71E
330
746E
100
AcDbSymbolTableRecord
100
AcDbRegAppTableRecord
  2
CONTENTCURRENTTAB
 70
     0
  0
APPID
  5
F3BA
330
746E
100
AcDbSymbolTableRecord
100
AcDbRegAppTableRecord
  2
DRAWINGVARIABLESXDATA
 70
     0
  0
ENDTAB
  0
TABLE
  2
DIMSTYLE
  5
746F
330
0
100
AcDbSymbolTable
 70
     5
100
AcDbDimStyleTable
 71
     1
340
F71F
  0
DIMSTYLE
105
7484
330
746F
100
AcDbSymbolTableRecord
100
AcDbDimStyleTableRecord
  2
JIS
 70
     0
 41
2.5
 42
1.0
 43
7.0
 44
1.0
 73
     0
 74
     0
 77
     1
 78
     8
140
2.5
141
0.0
143
0.0394
147
0.0
172
     1
174
     1
175
     1
340
7475
  0
DIMSTYLE
105
F71F
102
{ACAD_REACTORS
330
17F7C
330
17FC5
330
17FC6
330
17FC7
330
17FC8
330
17FE6
330
17FE7
330
17FE8
330
17FE9
330
18036
330
180B2
330
18F3F
330
18F43
330
18F64
330
18F69
330
18F71
330
18F72
330
18F73
330
18F74
330
18F78
330
18F96
330
18F98
330
18FA1
330
196B2
330
196B4
330
196B3
330
19732
330
19C50
330
19C57
102
}
330
746F
100
AcDbSymbolTableRecord
100
AcDbDimStyleTableRecord
  2
INABA_S40G
 70
     0
 40
40.0
 41
2.5
 42
0.5
 43
7.0
 44
1.5
 73
     0
 74
     0
 77
     3
 78
     8
140
3.0
141
0.0
143
0.0394
147
1.0
172
     1
173
     1
174
     1
178
     7
271
     1
288
     1
340
F706
341
F770
343
F770
344
F770
  0
DIMSTYLE
105
17D06
102
{ACAD_REACTORS
330
199FA
330
19C56
102
}
330
746F
100
AcDbSymbolTableRecord
100
AcDbDimStyleTableRecord
  2
INABA_S40
 70
     0
 40
40.0
 41
2.5
 42
0.5
 43
7.0
 44
1.5
 73
     0
 74
     0
 77
     3
 78
     8
140
3.0
141
0.0
143
0.0394
147
1.0
172
     1
173
     1
174
     1
175
     1
178
     7
340
7475
  0
DIMSTYLE
105
198F8
330
746F
100
AcDbSymbolTableRecord
100
AcDbDimStyleTableRecord
  2
INABA_S50G
 70
     0
 41
125.0
 42
25.0
 43
7.0
 44
75.0
 73
     0
 74
     0
 77
     3
 78
     8
140
150.0
141
0.0
143
0.0394
147
25.0
172
     1
173
     1
174
     1
175
     1
178
     7
271
     1
340
F706
341
F770
343
F770
344
F770
  0
DIMSTYLE
105
19F2D
330
746F
100
AcDbSymbolTableRecord
100
AcDbDimStyleTableRecord
  2
INABA_S20G
 70
     0
 40
20.0
 41
2.5
 42
0.5
 43
7.0
 44
1.5
 73
     0
 74
     0
 77
     3
 78
     8
140
3.0
141
0.0
143
0.0394
147
1.0
172
     1
173
     1
174
     1
178
     7
271
     1
340
F706
341
F770
343
F770
344
F770
  0
ENDTAB
  0
TABLE
  2
BLOCK_RECORD
  5
7466
330
0
100
AcDbSymbolTable
 70
    33
  0
BLOCK_RECORD
  5
747D
330
7466
100
AcDbSymbolTableRecord
100
AcDbBlockTableRecord
  2
*MODEL_SPACE
340
17B7D
  0
BLOCK_RECORD
  5
747A
330
7466
100
AcDbSymbolTableRecord
100
AcDbBlockTableRecord
  2
*PAPER_SPACE
340
17B7E
  0
BLOCK_RECORD
  5
F770
330
7466
100
AcDbSymbolTableRecord
100
AcDbBlockTableRecord
  2
_DOTSMALL
340
0
102
{BLKREFS
331
197AA
331
197AB
331
197B5
331
197B6
331
197BE
331
197BF
331
197C7
331
197C8
331
1984F
331
19850
331
19858
331
19859
331
19861
331
19862
331
1986A
331
1986B
331
19873
331
19874
331
1987E
331
1987F
331
19887
331
19888
331
19891
331
19892
331
1989A
331
1989B
331
198A3
331
198A4
331
198AE
331
198AF
331
198B8
331
198B9
331
198C1
331
198C2
331
19E9F
331
19EA0
331
19EB3
331
19EB4
331
19EC5
331
19EC6
331
19ECE
331
19ECF
331
19ED9
331
19EDA
331
19EE2
331
19EE3
331
19EEB
331
19EEC
331
19EF6
331
19EF7
331
19EFF
331
19F00
331
19F0A
331
19F0B
331
19F13
331
19F14
331
19F1E
331
19F1F
102
}
  0
BLOCK_RECORD
  5
17B85
330
7466
100
AcDbSymbolTableRecord
100
AcDbBlockTableRecord
  2
_DOT
340
0
102
{BLKREFS
331
19EAA
331
19EAB
331
19EBC
331
19EBD
102
}
  0
BLOCK_RECORD
  5
181EB
330
7466
100
AcDbSymbolTableRecord
100
AcDbBlockTableRecord
  2
*D2
340
0
  0
BLOCK_RECORD
  5
1822B
330
7466
100
AcDbSymbolTableRecord
100
AcDbBlockTableRecord
  2
*D3
340
0
  0
BLOCK_RECORD
  5
18238
330
7466
100
AcDbSymbolTableRecord
100
AcDbBlockTableRecord
  2
*D4
340
0
  0
BLOCK_RECORD
  5
18246
330
7466
100
AcDbSymbolTableRecord
100
AcDbBlockTableRecord
  2
*D5
340
0
  0
BLOCK_RECORD
  5
18252
330
7466
100
AcDbSymbolTableRecord
100
AcDbBlockTableRecord
  2
*D6
340
0
  0
BLOCK_RECORD
  5
1825E
330
7466
100
AcDbSymbolTableRecord
100
AcDbBlockTableRecord
  2
*D7
340
0
  0
BLOCK_RECORD
  5
1826B
330
7466
100
AcDbSymbolTableRecord
100
AcDbBlockTableRecord
  2
*D8
340
0
  0
BLOCK_RECORD
  5
18277
330
7466
100
AcDbSymbolTableRecord
100
AcDbBlockTableRecord
  2
*D9
340
0
  0
BLOCK_RECORD
  5
18285
330
7466
100
AcDbSymbolTableRecord
100
AcDbBlockTableRecord
  2
*D10
340
0
  0
BLOCK_RECORD
  5
18311
330
7466
100
AcDbSymbolTableRecord
100
AcDbBlockTableRecord
  2
*D11
340
0
  0
BLOCK_RECORD
  5
18337
330
7466
100
AcDbSymbolTableRecord
100
AcDbBlockTableRecord
  2
*D12
340
0
  0
BLOCK_RECORD
  5
191AF
330
7466
100
AcDbSymbolTableRecord
100
AcDbBlockTableRecord
  2
*D13
340
0
  0
BLOCK_RECORD
  5
191BB
330
7466
100
AcDbSymbolTableRecord
100
AcDbBlockTableRecord
  2
*D14
340
0
  0
BLOCK_RECORD
  5
191C7
330
7466
100
AcDbSymbolTableRecord
100
AcDbBlockTableRecord
  2
*D15
340
0
  0
BLOCK_RECORD
  5
191D5
330
7466
100
AcDbSymbolTableRecord
100
AcDbBlockTableRecord
  2
*D16
340
0
  0
BLOCK_RECORD
  5
191E1
330
7466
100
AcDbSymbolTableRecord
100
AcDbBlockTableRecord
  2
*D17
340
0
  0
BLOCK_RECORD
  5
191EF
330
7466
100
AcDbSymbolTableRecord
100
AcDbBlockTableRecord
  2
*D18
340
0
  0
BLOCK_RECORD
  5
191FB
330
7466
100
AcDbSymbolTableRecord
100
AcDbBlockTableRecord
  2
*D19
340
0
  0
BLOCK_RECORD
  5
19209
330
7466
100
AcDbSymbolTableRecord
100
AcDbBlockTableRecord
  2
*D20
340
0
  0
BLOCK_RECORD
  5
19221
330
7466
100
AcDbSymbolTableRecord
100
AcDbBlockTableRecord
  2
*D21
340
0
  0
BLOCK_RECORD
  5
1922D
330
7466
100
AcDbSymbolTableRecord
100
AcDbBlockTableRecord
  2
*D22
340
0
  0
BLOCK_RECORD
  5
1923B
330
7466
100
AcDbSymbolTableRecord
100
AcDbBlockTableRecord
  2
*D23
340
0
  0
BLOCK_RECORD
  5
19253
330
7466
100
AcDbSymbolTableRecord
100
AcDbBlockTableRecord
  2
*D24
340
0
  0
BLOCK_RECORD
  5
196EF
330
7466
100
AcDbSymbolTableRecord
100
AcDbBlockTableRecord
  2
*D25
340
0
  0
BLOCK_RECORD
  5
196FB
330
7466
100
AcDbSymbolTableRecord
100
AcDbBlockTableRecord
  2
*D26
340
0
  0
BLOCK_RECORD
  5
19709
330
7466
100
AcDbSymbolTableRecord
100
AcDbBlockTableRecord
  2
*D27
340
0
  0
BLOCK_RECORD
  5
1973D
330
7466
100
AcDbSymbolTableRecord
100
AcDbBlockTableRecord
  2
*D28
340
0
  0
BLOCK_RECORD
  5
19A5E
330
7466
100
AcDbSymbolTableRecord
100
AcDbBlockTableRecord
  2
*D29
340
0
  0
BLOCK_RECORD
  5
19D45
330
7466
100
AcDbSymbolTableRecord
100
AcDbBlockTableRecord
  2
*D30
340
0
  0
BLOCK_RECORD
  5
19D51
330
7466
100
AcDbSymbolTableRecord
100
AcDbBlockTableRecord
  2
*D31
340
0
  0
BLOCK_RECORD
  5
19D5F
330
7466
100
AcDbSymbolTableRecord
100
AcDbBlockTableRecord
  2
*D32
340
0
  0
ENDTAB
  0
ENDSEC
  0
SECTION
  2
BLOCKS
  0
BLOCK
  5
7489
330
747D
100
AcDbEntity
  8
0
100
AcDbBlockBegin
  2
*MODEL_SPACE
 70
     0
 10
0.0
 20
0.0
 30
0.0
  3
*MODEL_SPACE
  1

  0
ENDBLK
  5
748A
330
747D
100
AcDbEntity
  8
0
100
AcDbBlockEnd
  0
BLOCK
  5
7487
330
747A
100
AcDbEntity
 67
     1
  8
0
100
AcDbBlockBegin
  2
*PAPER_SPACE
 70
     0
 10
0.0
 20
0.0
 30
0.0
  3
*PAPER_SPACE
  1

  0
ENDBLK
  5
7488
330
747A
100
AcDbEntity
 67
     1
  8
0
100
AcDbBlockEnd
  0
BLOCK
  5
F771
330
F770
100
AcDbEntity
  8
0
 48
50.0
100
AcDbBlockBegin
  2
_DOTSMALL
 70
     0
 10
0.0
 20
0.0
 30
0.0
  3
_DOTSMALL
  1

  0
LWPOLYLINE
  5
F772
330
F770
100
AcDbEntity
  8
0
  6
ByBlock
 62
     0
 48
50.0
100
AcDbPolyline
 90
        2
 70
     1
 43
0.5
 10
-0.0625
 20
0.0
 42
1.0
 10
0.0625
 20
0.0
 42
1.0
  0
ENDBLK
  5
F776
330
F770
100
AcDbEntity
  8
0
 48
50.0
100
AcDbBlockEnd
  0
BLOCK
  5
17B86
330
17B85
100
AcDbEntity
  8
0
 48
50.0
100
AcDbBlockBegin
  2
_DOT
 70
     0
 10
0.0
 20
0.0
 30
0.0
  3
_DOT
  1

  0
LWPOLYLINE
  5
17B87
330
17B85
100
AcDbEntity
  8
0
  6
ByBlock
 62
     0
 48
50.0
100
AcDbPolyline
 90
        2
 70
     1
 43
0.5
 10
-0.25
 20
0.0
 42
1.0
 10
0.25
 20
0.0
 42
1.0
  0
LINE
  5
17B88
330
17B85
100
AcDbEntity
  8
0
  6
ByBlock
 62
     0
 48
50.0
100
AcDbLine
 10
-0.5
 20
0.0
 30
0.0
 11
-1.0
 21
0.0
 31
0.0
  0
ENDBLK
  5
17B89
330
17B85
100
AcDbEntity
  8
0
 48
50.0
100
AcDbBlockEnd
  0
BLOCK
  5
181F5
330
181EB
100
AcDbEntity
  8
0
 48
50.0
100
AcDbBlockBegin
  2
*D2
 70
     1
 10
0.0
 20
0.0
 30
0.0
  3
*D2
  1

  0
LINE
  5
198BE
330
181EB
100
AcDbEntity
  8
寸法
 62
     0
 48
50.0
370
    -2
100
AcDbLine
 10
10705.76044501076
 20
2831.900975637158
 30
0.0
 11
11280.93054077319
 21
2831.900975637158
 31
0.0
  0
LINE
  5
198BF
330
181EB
100
AcDbEntity
  8
寸法
 62
     0
 48
50.0
370
    -2
100
AcDbLine
 10
10785.76044501075
 20
4851.90097563716
 30
0.0
 11
11280.93054077319
 21
4851.90097563716
 31
0.0
  0
LINE
  5
198C0
330
181EB
100
AcDbEntity
  8
寸法
 62
     0
 48
50.0
370
    -2
100
AcDbLine
 10
11220.93054077319
 20
2831.900975637158
 30
0.0
 11
11220.93054077319
 21
4851.90097563716
 31
0.0
  0
INSERT
  5
198C1
330
181EB
100
AcDbEntity
  8
寸法
 62
     0
 48
50.0
370
    -2
100
AcDbBlockReference
  2
_DOTSMALL
 10
11220.93054077319
 20
2831.900975637158
 30
0.0
 41
100.0
 42
100.0
 43
100.0
 50
270.0
  0
INSERT
  5
198C2
330
181EB
100
AcDbEntity
  8
寸法
 62
     0
 48
50.0
370
    -2
100
AcDbBlockReference
  2
_DOTSMALL
 10
11220.93054077319
 20
4851.90097563716
 30
0.0
 41
100.0
 42
100.0
 43
100.0
 50
90.0
  0
MTEXT
  5
198C3
330
181EB
100
AcDbEntity
  8
寸法
 62
     7
 48
50.0
100
AcDbMText
 10
11120.91872974956
 20
3814.157303066847
 30
0.0
 40
120.0
 41
0.0
 71
     5
 72
     1
  1
\A1;2020
  7
STYLE1
 11
0.0000000000000001
 21
1.0
 31
0.0
 73
     1
 44
1.0
1001
ACAD
1000
MTEXTBEGIN
1070
    73
1070
     1
1070
    44
1040
1.0
1070
    74
1070
     0
1000
MTEXTEND
  0
POINT
  5
198C4
330
181EB
100
AcDbEntity
  8
DEFPOINTS
 62
     0
 48
50.0
100
AcDbPoint
 10
10685.76044501076
 20
2831.900975637158
 30
0.0
  0
POINT
  5
198C5
330
181EB
100
AcDbEntity
  8
DEFPOINTS
 62
     0
 48
50.0
100
AcDbPoint
 10
10765.76044501075
 20
4851.90097563716
 30
0.0
  0
POINT
  5
198C6
330
181EB
100
AcDbEntity
  8
DEFPOINTS
 62
     0
 48
50.0
100
AcDbPoint
 10
11220.93054077319
 20
4851.90097563716
 30
0.0
  0
ENDBLK
  5
181F6
330
181EB
100
AcDbEntity
  8
0
 48
50.0
100
AcDbBlockEnd
  0
BLOCK
  5
18236
330
1822B
100
AcDbEntity
  8
0
 48
50.0
100
AcDbBlockBegin
  2
*D3
 70
     1
 10
0.0
 20
0.0
 30
0.0
  3
*D3
  1

  0
LINE
  5
198B4
330
1822B
100
AcDbEntity
  8
寸法
 62
     0
 48
50.0
370
    -2
100
AcDbLine
 10
8820.760445010765
 20
2831.900975637158
 30
0.0
 11
7927.121063081407
 21
2831.900975637158
 31
0.0
  0
LINE
  5
198B5
330
1822B
100
AcDbEntity
  8
寸法
 62
     0
 48
50.0
370
    -2
100
AcDbLine
 10
8252.107735852467
 20
2731.900975637158
 30
0.0
 11
7927.121063081407
 21
2731.900975637158
 31
0.0
  0
LINE
  5
198B6
330
1822B
100
AcDbEntity
  8
寸法
 62
     0
 48
50.0
370
    -2
100
AcDbLine
 10
7987.121063081406
 20
2831.900975637158
 30
0.0
 11
7987.121063081406
 21
2731.900975637158
 31
0.0
  0
LINE
  5
198B7
330
1822B
100
AcDbEntity
  8
寸法
 62
     0
 48
50.0
370
    -2
100
AcDbLine
 10
7987.121063081406
 20
2731.900975637158
 30
0.0
 11
7987.121063081406
 21
2359.806487448178
 31
0.0
  0
INSERT
  5
198B8
330
1822B
100
AcDbEntity
  8
寸法
 62
     0
 48
50.0
370
    -2
100
AcDbBlockReference
  2
_DOTSMALL
 10
7987.121063081406
 20
2831.900975637158
 30
0.0
 41
100.0
 42
100.0
 43
100.0
 50
90.0
  0
INSERT
  5
198B9
330
1822B
100
AcDbEntity
  8
寸法
 62
     0
 48
50.0
370
    -2
100
AcDbBlockReference
  2
_DOTSMALL
 10
7987.121063081406
 20
2731.900975637158
 30
0.0
 41
100.0
 42
100.0
 43
100.0
 50
270.0
  0
MTEXT
  5
198BA
330
1822B
100
AcDbEntity
  8
寸法
 62
     7
 48
50.0
100
AcDbMText
 10
7887.121063081406
 20
2495.853731542668
 30
0.0
 40
120.0
 41
0.0
 71
     5
 72
     1
  1
\A1;100
  7
STYLE1
 11
0.0000000000000001
 21
1.0
 31
0.0
 73
     1
 44
1.0
1001
ACAD
1000
MTEXTBEGIN
1070
    73
1070
     1
1070
    44
1040
1.0
1070
    74
1070
     0
1000
MTEXTEND
  0
POINT
  5
198BB
330
1822B
100
AcDbEntity
  8
DEFPOINTS
 62
     0
 48
50.0
100
AcDbPoint
 10
8840.760445010765
 20
2831.900975637158
 30
0.0
  0
POINT
  5
198BC
330
1822B
100
AcDbEntity
  8
DEFPOINTS
 62
     0
 48
50.0
100
AcDbPoint
 10
8272.107735852467
 20
2731.900975637158
 30
0.0
  0
POINT
  5
198BD
330
1822B
100
AcDbEntity
  8
DEFPOINTS
 62
     0
 48
50.0
100
AcDbPoint
 10
7987.121063081406
 20
2731.900975637158
 30
0.0
  0
ENDBLK
  5
18237
330
1822B
100
AcDbEntity
  8
0
 48
50.0
100
AcDbBlockEnd
  0
BLOCK
  5
18244
330
18238
100
AcDbEntity
  8
0
 48
50.0
100
AcDbBlockBegin
  2
*D4
 70
     1
 10
0.0
 20
0.0
 30
0.0
  3
*D4
  1

  0
LINE
  5
198A9
330
18238
100
AcDbEntity
  8
寸法
 62
     0
 48
50.0
370
    -2
100
AcDbLine
 10
8875.760445010765
 20
2881.900975637158
 30
0.0
 11
8212.107735852468
 21
2881.900975637158
 31
0.0
  0
LINE
  5
198AA
330
18238
100
AcDbEntity
  8
寸法
 62
     0
 48
50.0
370
    -2
100
AcDbLine
 10
8820.760445010765
 20
2831.900975637158
 30
0.0
 11
8212.107735852468
 21
2831.900975637158
 31
0.0
  0
LINE
  5
198AB
330
18238
100
AcDbEntity
  8
寸法
 62
     0
 48
50.0
370
    -2
100
AcDbLine
 10
8272.107735852467
 20
2881.900975637158
 30
0.0
 11
8272.107735852467
 21
2981.900975637158
 31
0.0
  0
LINE
  5
198AC
330
18238
100
AcDbEntity
  8
寸法
 62
     0
 48
50.0
370
    -2
100
AcDbLine
 10
8272.107735852467
 20
2831.900975637158
 30
0.0
 11
8272.107735852467
 21
2419.806487448178
 31
0.0
  0
LINE
  5
198AD
330
18238
100
AcDbEntity
  8
寸法
 62
     0
 48
50.0
370
    -2
100
AcDbLine
 10
8272.107735852467
 20
2881.900975637158
 30
0.0
 11
8272.107735852467
 21
2831.900975637158
 31
0.0
  0
INSERT
  5
198AE
330
18238
100
AcDbEntity
  8
寸法
 62
     0
 48
50.0
370
    -2
100
AcDbBlockReference
  2
_DOTSMALL
 10
8272.107735852467
 20
2881.900975637158
 30
0.0
 41
100.0
 42
100.0
 43
100.0
 50
270.0
  0
INSERT
  5
198AF
330
18238
100
AcDbEntity
  8
寸法
 62
     0
 48
50.0
370
    -2
100
AcDbBlockReference
  2
_DOTSMALL
 10
8272.107735852467
 20
2831.900975637158
 30
0.0
 41
100.0
 42
100.0
 43
100.0
 50
90.0
  0
MTEXT
  5
198B0
330
18238
100
AcDbEntity
  8
寸法
 62
     7
 48
50.0
100
AcDbMText
 10
8172.107735852467
 20
2525.853731542668
 30
0.0
 40
120.0
 41
0.0
 71
     5
 72
     1
  1
\A1;50
  7
STYLE1
 11
0.0000000000000001
 21
1.0
 31
0.0
 73
     1
 44
1.0
1001
ACAD
1000
MTEXTBEGIN
1070
    73
1070
     1
1070
    44
1040
1.0
1070
    74
1070
     0
1000
MTEXTEND
  0
POINT
  5
198B1
330
18238
100
AcDbEntity
  8
DEFPOINTS
 62
     0
 48
50.0
100
AcDbPoint
 10
8895.760445010765
 20
2881.900975637158
 30
0.0
  0
POINT
  5
198B2
330
18238
100
AcDbEntity
  8
DEFPOINTS
 62
     0
 48
50.0
100
AcDbPoint
 10
8840.760445010765
 20
2831.900975637158
 30
0.0
  0
POINT
  5
198B3
330
18238
100
AcDbEntity
  8
DEFPOINTS
 62
     0
 48
50.0
100
AcDbPoint
 10
8272.107735852467
 20
2831.900975637158
 30
0.0
  0
ENDBLK
  5
18245
330
18238
100
AcDbEntity
  8
0
 48
50.0
100
AcDbBlockEnd
  0
BLOCK
  5
18250
330
18246
100
AcDbEntity
  8
0
 48
50.0
100
AcDbBlockBegin
  2
*D5
 70
     1
 10
0.0
 20
0.0
 30
0.0
  3
*D5
  1

  0
LINE
  5
198A0
330
18246
100
AcDbEntity
  8
寸法
 62
     0
 48
50.0
370
    -2
100
AcDbLine
 10
8875.760445010765
 20
4671.900975637157
 30
0.0
 11
8212.107735852468
 21
4671.900975637157
 31
0.0
  0
LINE
  5
198A1
330
18246
100
AcDbEntity
  8
寸法
 62
     0
 48
50.0
370
    -2
100
AcDbLine
 10
8875.760445010765
 20
2881.900975637158
 30
0.0
 11
8212.107735852468
 21
2881.900975637158
 31
0.0
  0
LINE
  5
198A2
330
18246
100
AcDbEntity
  8
寸法
 62
     0
 48
50.0
370
    -2
100
AcDbLine
 10
8272.10773585247
 20
4671.900975637157
 30
0.0
 11
8272.107735852467
 21
2881.900975637158
 31
0.0
  0
INSERT
  5
198A3
330
18246
100
AcDbEntity
  8
寸法
 62
     0
 48
50.0
370
    -2
100
AcDbBlockReference
  2
_DOTSMALL
 10
8272.10773585247
 20
4671.900975637157
 30
0.0
 41
100.0
 42
100.0
 43
100.0
 50
90.0
  0
INSERT
  5
198A4
330
18246
100
AcDbEntity
  8
寸法
 62
     0
 48
50.0
370
    -2
100
AcDbBlockReference
  2
_DOTSMALL
 10
8272.107735852467
 20
2881.900975637158
 30
0.0
 41
100.0
 42
100.0
 43
100.0
 50
270.0
  0
MTEXT
  5
198A5
330
18246
100
AcDbEntity
  8
寸法
 62
     7
 48
50.0
100
AcDbMText
 10
8172.107735852467
 20
3772.355274179115
 30
0.0
 40
120.0
 41
0.0
 71
     5
 72
     1
  1
\A1;1790
  7
STYLE1
 11
0.0000000000000001
 21
1.0
 31
0.0
 73
     1
 44
1.0
1001
ACAD
1000
MTEXTBEGIN
1070
    73
1070
     1
1070
    44
1040
1.0
1070
    74
1070
     0
1000
MTEXTEND
  0
POINT
  5
198A6
330
18246
100
AcDbEntity
  8
DEFPOINTS
 62
     0
 48
50.0
100
AcDbPoint
 10
8895.760445010765
 20
4671.900975637157
 30
0.0
  0
POINT
  5
198A7
330
18246
100
AcDbEntity
  8
DEFPOINTS
 62
     0
 48
50.0
100
AcDbPoint
 10
8895.760445010765
 20
2881.900975637158
 30
0.0
  0
POINT
  5
198A8
330
18246
100
AcDbEntity
  8
DEFPOINTS
 62
     0
 48
50.0
100
AcDbPoint
 10
8272.107735852467
 20
2881.900975637158
 30
0.0
  0
ENDBLK
  5
18251
330
18246
100
AcDbEntity
  8
0
 48
50.0
100
AcDbBlockEnd
  0
BLOCK
  5
1825C
330
18252
100
AcDbEntity
  8
0
 48
50.0
100
AcDbBlockBegin
  2
*D6
 70
     1
 10
0.0
 20
0.0
 30
0.0
  3
*D6
  1

  0
LINE
  5
19897
330
18252
100
AcDbEntity
  8
寸法
 62
     0
 48
50.0
370
    -2
100
AcDbLine
 10
8875.760445010765
 20
2831.900975637158
 30
0.0
 11
7927.121063081407
 21
2831.900975637158
 31
0.0
  0
LINE
  5
19898
330
18252
100
AcDbEntity
  8
寸法
 62
     0
 48
50.0
370
    -2
100
AcDbLine
 10
8815.760445010765
 20
4906.900975637163
 30
0.0
 11
7927.121063081407
 21
4906.900975637163
 31
0.0
  0
LINE
  5
19899
330
18252
100
AcDbEntity
  8
寸法
 62
     0
 48
50.0
370
    -2
100
AcDbLine
 10
7987.121063081406
 20
2831.900975637158
 30
0.0
 11
7987.121063081406
 21
4906.900975637163
 31
0.0
  0
INSERT
  5
1989A
330
18252
100
AcDbEntity
  8
寸法
 62
     0
 48
50.0
370
    -2
100
AcDbBlockReference
  2
_DOTSMALL
 10
7987.121063081406
 20
2831.900975637158
 30
0.0
 41
100.0
 42
100.0
 43
100.0
 50
270.0
  0
INSERT
  5
1989B
330
18252
100
AcDbEntity
  8
寸法
 62
     0
 48
50.0
370
    -2
100
AcDbBlockReference
  2
_DOTSMALL
 10
7987.121063081406
 20
4906.900975637163
 30
0.0
 41
100.0
 42
100.0
 43
100.0
 50
90.0
  0
MTEXT
  5
1989C
330
18252
100
AcDbEntity
  8
寸法
 62
     7
 48
50.0
100
AcDbMText
 10
7887.109252057785
 20
3826.106853130268
 30
0.0
 40
120.0
 41
0.0
 71
     5
 72
     1
  1
\A1;2075
  7
STYLE1
 11
0.0000000000000001
 21
1.0
 31
0.0
 73
     1
 44
1.0
1001
ACAD
1000
MTEXTBEGIN
1070
    73
1070
     1
1070
    44
1040
1.0
1070
    74
1070
     0
1000
MTEXTEND
  0
POINT
  5
1989D
330
18252
100
AcDbEntity
  8
DEFPOINTS
 62
     0
 48
50.0
100
AcDbPoint
 10
8895.760445010765
 20
2831.900975637158
 30
0.0
  0
POINT
  5
1989E
330
18252
100
AcDbEntity
  8
DEFPOINTS
 62
     0
 48
50.0
100
AcDbPoint
 10
8835.760445010764
 20
4906.900975637163
 30
0.0
  0
POINT
  5
1989F
330
18252
100
AcDbEntity
  8
DEFPOINTS
 62
     0
 48
50.0
100
AcDbPoint
 10
7987.121063081406
 20
4906.900975637163
 30
0.0
  0
ENDBLK
  5
1825D
330
18252
100
AcDbEntity
  8
0
 48
50.0
100
AcDbBlockEnd
  0
BLOCK
  5
18269
330
1825E
100
AcDbEntity
  8
0
 48
50.0
100
AcDbBlockBegin
  2
*D7
 70
     1
 10
0.0
 20
0.0
 30
0.0
  3
*D7
  1

  0
LINE
  5
1988D
330
1825E
100
AcDbEntity
  8
寸法
 62
     0
 48
50.0
370
    -2
100
AcDbLine
 10
10685.76044501077
 20
4873.711655248811
 30
0.0
 11
10685.76044501077
 21
5365.994144976632
 31
0.0
  0
LINE
  5
1988E
330
1825E
100
AcDbEntity
  8
寸法
 62
     0
 48
50.0
370
    -2
100
AcDbLine
 10
10765.76044501077
 20
4871.900975637159
 30
0.0
 11
10765.76044501077
 21
5365.994144976632
 31
0.0
  0
LINE
  5
1988F
330
1825E
100
AcDbEntity
  8
寸法
 62
     0
 48
50.0
370
    -2
100
AcDbLine
 10
10685.76044501077
 20
5305.994144976631
 30
0.0
 11
10765.76044501077
 21
5305.994144976631
 31
0.0
  0
LINE
  5
19890
330
1825E
100
AcDbEntity
  8
寸法
 62
     0
 48
50.0
370
    -2
100
AcDbLine
 10
10765.76044501077
 20
5305.994144976631
 30
0.0
 11
11077.85493319974
 21
5305.994144976631
 31
0.0
  0
INSERT
  5
19891
330
1825E
100
AcDbEntity
  8
寸法
 62
     0
 48
50.0
370
    -2
100
AcDbBlockReference
  2
_DOTSMALL
 10
10685.76044501077
 20
5305.994144976631
 30
0.0
 41
100.0
 42
100.0
 43
100.0
 50
180.0
  0
INSERT
  5
19892
330
1825E
100
AcDbEntity
  8
寸法
 62
     0
 48
50.0
370
    -2
100
AcDbBlockReference
  2
_DOTSMALL
 10
10765.76044501077
 20
5305.994144976631
 30
0.0
 41
100.0
 42
100.0
 43
100.0
  0
MTEXT
  5
19893
330
1825E
100
AcDbEntity
  8
寸法
 62
     7
 48
50.0
100
AcDbMText
 10
10971.80768910525
 20
5405.994144976631
 30
0.0
 40
120.0
 41
0.0
 71
     5
 72
     1
  1
\A1;80
  7
STYLE1
 73
     1
 44
1.0
1001
ACAD
1000
MTEXTBEGIN
1070
    73
1070
     1
1070
    44
1040
1.0
1070
    74
1070
     0
1000
MTEXTEND
  0
POINT
  5
19894
330
1825E
100
AcDbEntity
  8
DEFPOINTS
 62
     0
 48
50.0
100
AcDbPoint
 10
10685.76044501077
 20
4853.711655248812
 30
0.0
  0
POINT
  5
19895
330
1825E
100
AcDbEntity
  8
DEFPOINTS
 62
     0
 48
50.0
100
AcDbPoint
 10
10765.76044501077
 20
4851.900975637159
 30
0.0
  0
POINT
  5
19896
330
1825E
100
AcDbEntity
  8
DEFPOINTS
 62
     0
 48
50.0
100
AcDbPoint
 10
10765.76044501077
 20
5305.994144976631
 30
0.0
  0
ENDBLK
  5
1826A
330
1825E
100
AcDbEntity
  8
0
 48
50.0
100
AcDbBlockEnd
  0
BLOCK
  5
18275
330
1826B
100
AcDbEntity
  8
0
 48
50.0
100
AcDbBlockBegin
  2
*D8
 70
     1
 10
0.0
 20
0.0
 30
0.0
  3
*D8
  1

  0
LINE
  5
19884
330
1826B
100
AcDbEntity
  8
寸法
 62
     0
 48
50.0
370
    -2
100
AcDbLine
 10
10765.76044501077
 20
4871.900975637159
 30
0.0
 11
10765.76044501077
 21
5582.520244595077
 31
0.0
  0
LINE
  5
19885
330
1826B
100
AcDbEntity
  8
寸法
 62
     0
 48
50.0
370
    -2
100
AcDbLine
 10
8835.760445010768
 20
4926.900975637162
 30
0.0
 11
8835.760445010768
 21
5582.520244595077
 31
0.0
  0
LINE
  5
19886
330
1826B
100
AcDbEntity
  8
寸法
 62
     0
 48
50.0
370
    -2
100
AcDbLine
 10
10765.76044501077
 20
5522.520244595076
 30
0.0
 11
8835.760445010768
 21
5522.520244595076
 31
0.0
  0
INSERT
  5
19887
330
1826B
100
AcDbEntity
  8
寸法
 62
     0
 48
50.0
370
    -2
100
AcDbBlockReference
  2
_DOTSMALL
 10
10765.76044501077
 20
5522.520244595076
 30
0.0
 41
100.0
 42
100.0
 43
100.0
  0
INSERT
  5
19888
330
1826B
100
AcDbEntity
  8
寸法
 62
     0
 48
50.0
370
    -2
100
AcDbBlockReference
  2
_DOTSMALL
 10
8835.760445010768
 20
5522.520244595076
 30
0.0
 41
100.0
 42
100.0
 43
100.0
 50
180.0
  0
MTEXT
  5
19889
330
1826B
100
AcDbEntity
  8
寸法
 62
     7
 48
50.0
100
AcDbMText
 10
9741.566196261736
 20
5622.520244595076
 30
0.0
 40
120.0
 41
0.0
 71
     5
 72
     1
  1
\A1;1930
  7
STYLE1
 73
     1
 44
1.0
1001
ACAD
1000
MTEXTBEGIN
1070
    73
1070
     1
1070
    44
1040
1.0
1070
    74
1070
     0
1000
MTEXTEND
  0
POINT
  5
1988A
330
1826B
100
AcDbEntity
  8
DEFPOINTS
 62
     0
 48
50.0
100
AcDbPoint
 10
10765.76044501077
 20
4851.900975637159
 30
0.0
  0
POINT
  5
1988B
330
1826B
100
AcDbEntity
  8
DEFPOINTS
 62
     0
 48
50.0
100
AcDbPoint
 10
8835.760445010768
 20
4906.900975637163
 30
0.0
  0
POINT
  5
1988C
330
1826B
100
AcDbEntity
  8
DEFPOINTS
 62
     0
 48
50.0
100
AcDbPoint
 10
8835.760445010768
 20
5522.520244595076
 30
0.0
  0
ENDBLK
  5
18276
330
1826B
100
AcDbEntity
  8
0
 48
50.0
100
AcDbBlockEnd
  0
BLOCK
  5
18283
330
18277
100
AcDbEntity
  8
0
 48
50.0
100
AcDbBlockBegin
  2
*D9
 70
     1
 10
0.0
 20
0.0
 30
0.0
  3
*D9
  1

  0
LINE
  5
19879
330
18277
100
AcDbEntity
  8
寸法
 62
     0
 48
50.0
370
    -2
100
AcDbLine
 10
8895.760445010768
 20
4922.902593760134
 30
0.0
 11
8895.760445010768
 21
5365.994144976632
 31
0.0
  0
LINE
  5
1987A
330
18277
100
AcDbEntity
  8
寸法
 62
     0
 48
50.0
370
    -2
100
AcDbLine
 10
8835.760445010768
 20
4926.900975637162
 30
0.0
 11
8835.760445010768
 21
5365.994144976632
 31
0.0
  0
LINE
  5
1987B
330
18277
100
AcDbEntity
  8
寸法
 62
     0
 48
50.0
370
    -2
100
AcDbLine
 10
8895.760445010768
 20
5305.994144976631
 30
0.0
 11
8995.760445010768
 21
5305.994144976631
 31
0.0
  0
LINE
  5
1987C
330
18277
100
AcDbEntity
  8
寸法
 62
     0
 48
50.0
370
    -2
100
AcDbLine
 10
8835.760445010768
 20
5305.994144976631
 30
0.0
 11
8416.484854459588
 21
5305.994144976631
 31
0.0
  0
LINE
  5
1987D
330
18277
100
AcDbEntity
  8
寸法
 62
     0
 48
50.0
370
    -2
100
AcDbLine
 10
8895.760445010768
 20
5305.994144976631
 30
0.0
 11
8835.760445010768
 21
5305.994144976631
 31
0.0
  0
INSERT
  5
1987E
330
18277
100
AcDbEntity
  8
寸法
 62
     0
 48
50.0
370
    -2
100
AcDbBlockReference
  2
_DOTSMALL
 10
8895.760445010768
 20
5305.994144976631
 30
0.0
 41
100.0
 42
100.0
 43
100.0
 50
180.0
  0
INSERT
  5
1987F
330
18277
100
AcDbEntity
  8
寸法
 62
     0
 48
50.0
370
    -2
100
AcDbBlockReference
  2
_DOTSMALL
 10
8835.760445010768
 20
5305.994144976631
 30
0.0
 41
100.0
 42
100.0
 43
100.0
  0
MTEXT
  5
19880
330
18277
100
AcDbEntity
  8
寸法
 62
     7
 48
50.0
100
AcDbMText
 10
8526.122649735178
 20
5405.994144976631
 30
0.0
 40
120.0
 41
0.0
 71
     5
 72
     1
  1
\A1;60
  7
STYLE1
 73
     1
 44
1.0
1001
ACAD
1000
MTEXTBEGIN
1070
    73
1070
     1
1070
    44
1040
1.0
1070
    74
1070
     0
1000
MTEXTEND
  0
POINT
  5
19881
330
18277
100
AcDbEntity
  8
DEFPOINTS
 62
     0
 48
50.0
100
AcDbPoint
 10
8895.760445010768
 20
4902.902593760135
 30
0.0
  0
POINT
  5
19882
330
18277
100
AcDbEntity
  8
DEFPOINTS
 62
     0
 48
50.0
100
AcDbPoint
 10
8835.760445010768
 20
4906.900975637163
 30
0.0
  0
POINT
  5
19883
330
18277
100
AcDbEntity
  8
DEFPOINTS
 62
     0
 48
50.0
100
AcDbPoint
 10
8835.760445010768
 20
5305.994144976631
 30
0.0
  0
ENDBLK
  5
18284
330
18277
100
AcDbEntity
  8
0
 48
50.0
100
AcDbBlockEnd
  0
BLOCK
  5
1828F
330
18285
100
AcDbEntity
  8
0
 48
50.0
100
AcDbBlockBegin
  2
*D10
 70
     1
 10
0.0
 20
0.0
 30
0.0
  3
*D10
  1

  0
LINE
  5
19870
330
18285
100
AcDbEntity
  8
寸法
 62
     0
 48
50.0
370
    -2
100
AcDbLine
 10
10685.76044501077
 20
4873.711655248811
 30
0.0
 11
10685.76044501077
 21
5365.994144976632
 31
0.0
  0
LINE
  5
19871
330
18285
100
AcDbEntity
  8
寸法
 62
     0
 48
50.0
370
    -2
100
AcDbLine
 10
8895.760445010768
 20
4922.902593760134
 30
0.0
 11
8895.760445010768
 21
5365.994144976632
 31
0.0
  0
LINE
  5
19872
330
18285
100
AcDbEntity
  8
寸法
 62
     0
 48
50.0
370
    -2
100
AcDbLine
 10
10685.76044501077
 20
5305.994144976631
 30
0.0
 11
8895.760445010768
 21
5305.994144976631
 31
0.0
  0
INSERT
  5
19873
330
18285
100
AcDbEntity
  8
寸法
 62
     0
 48
50.0
370
    -2
100
AcDbBlockReference
  2
_DOTSMALL
 10
10685.76044501077
 20
5305.994144976631
 30
0.0
 41
100.0
 42
100.0
 43
100.0
  0
INSERT
  5
19874
330
18285
100
AcDbEntity
  8
寸法
 62
     0
 48
50.0
370
    -2
100
AcDbBlockReference
  2
_DOTSMALL
 10
8895.760445010768
 20
5305.994144976631
 30
0.0
 41
100.0
 42
100.0
 43
100.0
 50
180.0
  0
MTEXT
  5
19875
330
18285
100
AcDbEntity
  8
寸法
 62
     7
 48
50.0
100
AcDbMText
 10
9805.356093687247
 20
5405.994144976631
 30
0.0
 40
120.0
 41
0.0
 71
     5
 72
     1
  1
\A1;柱外寸法1790
  7
STYLE1
 73
     1
 44
1.0
1001
ACAD
1000
MTEXTBEGIN
1070
    73
1070
     1
1070
    44
1040
1.0
1070
    74
1070
     0
1000
MTEXTEND
  0
POINT
  5
19876
330
18285
100
AcDbEntity
  8
DEFPOINTS
 62
     0
 48
50.0
100
AcDbPoint
 10
10685.76044501077
 20
4853.711655248812
 30
0.0
  0
POINT
  5
19877
330
18285
100
AcDbEntity
  8
DEFPOINTS
 62
     0
 48
50.0
100
AcDbPoint
 10
8895.760445010768
 20
4902.902593760135
 30
0.0
  0
POINT
  5
19878
330
18285
100
AcDbEntity
  8
DEFPOINTS
 62
     0
 48
50.0
100
AcDbPoint
 10
8895.760445010768
 20
5305.994144976631
 30
0.0
  0
ENDBLK
  5
18290
330
18285
100
AcDbEntity
  8
0
 48
50.0
100
AcDbBlockEnd
  0
BLOCK
  5
1831B
330
18311
100
AcDbEntity
  8
0
 48
50.0
100
AcDbBlockBegin
  2
*D11
 70
     1
 10
0.0
 20
0.0
 30
0.0
  3
*D11
  1

  0
LINE
  5
19867
330
18311
100
AcDbEntity
  8
寸法
 62
     0
 48
50.0
370
    -2
100
AcDbLine
 10
8995.760445010766
 20
2511.900975637156
 30
0.0
 11
8995.760445010766
 21
2185.85364633678
 31
0.0
  0
LINE
  5
19868
330
18311
100
AcDbEntity
  8
寸法
 62
     0
 48
50.0
370
    -2
100
AcDbLine
 10
8795.760445010765
 20
2511.900975637156
 30
0.0
 11
8795.760445010765
 21
2185.85364633678
 31
0.0
  0
LINE
  5
19869
330
18311
100
AcDbEntity
  8
寸法
 62
     0
 48
50.0
370
    -2
100
AcDbLine
 10
8995.760445010766
 20
2245.85364633678
 30
0.0
 11
8795.760445010765
 21
2245.85364633678
 31
0.0
  0
INSERT
  5
1986A
330
18311
100
AcDbEntity
  8
寸法
 62
     0
 48
50.0
370
    -2
100
AcDbBlockReference
  2
_DOTSMALL
 10
8995.760445010766
 20
2245.85364633678
 30
0.0
 41
100.0
 42
100.0
 43
100.0
  0
INSERT
  5
1986B
330
18311
100
AcDbEntity
  8
寸法
 62
     0
 48
50.0
370
    -2
100
AcDbBlockReference
  2
_DOTSMALL
 10
8795.760445010765
 20
2245.85364633678
 30
0.0
 41
100.0
 42
100.0
 43
100.0
 50
180.0
  0
MTEXT
  5
1986C
330
18311
100
AcDbEntity
  8
寸法
 62
     7
 48
50.0
100
AcDbMText
 10
8895.760445010765
 20
2345.865457360402
 30
0.0
 40
120.0
 41
0.0
 71
     5
 72
     1
  1
\A1;200
  7
STYLE1
 73
     1
 44
1.0
1001
ACAD
1000
MTEXTBEGIN
1070
    73
1070
     1
1070
    44
1040
1.0
1070
    74
1070
     0
1000
MTEXTEND
  0
POINT
  5
1986D
330
18311
100
AcDbEntity
  8
DEFPOINTS
 62
     0
 48
50.0
100
AcDbPoint
 10
8995.760445010766
 20
2531.900975637156
 30
0.0
  0
POINT
  5
1986E
330
18311
100
AcDbEntity
  8
DEFPOINTS
 62
     0
 48
50.0
100
AcDbPoint
 10
8795.760445010765
 20
2531.900975637156
 30
0.0
  0
POINT
  5
1986F
330
18311
100
AcDbEntity
  8
DEFPOINTS
 62
     0
 48
50.0
100
AcDbPoint
 10
8795.760445010765
 20
2245.85364633678
 30
0.0
  0
ENDBLK
  5
1831C
330
18311
100
AcDbEntity
  8
0
 48
50.0
100
AcDbBlockEnd
  0
BLOCK
  5
18341
330
18337
100
AcDbEntity
  8
0
 48
50.0
100
AcDbBlockBegin
  2
*D12
 70
     1
 10
0.0
 20
0.0
 30
0.0
  3
*D12
  1

  0
LINE
  5
1985E
330
18337
100
AcDbEntity
  8
寸法
 62
     0
 48
50.0
370
    -2
100
AcDbLine
 10
8903.76044501078
 20
4614.900975637158
 30
0.0
 11
8564.554415798632
 21
4614.900975637158
 31
0.0
  0
LINE
  5
1985F
330
18337
100
AcDbEntity
  8
寸法
 62
     0
 48
50.0
370
    -2
100
AcDbLine
 10
8903.76044501078
 20
2889.900975637158
 30
0.0
 11
8564.55441579863
 21
2889.900975637158
 31
0.0
  0
LINE
  5
19860
330
18337
100
AcDbEntity
  8
寸法
 62
     0
 48
50.0
370
    -2
100
AcDbLine
 10
8624.554415798632
 20
4614.900975637158
 30
0.0
 11
8624.55441579863
 21
2889.900975637158
 31
0.0
  0
INSERT
  5
19861
330
18337
100
AcDbEntity
  8
寸法
 62
     0
 48
50.0
370
    -2
100
AcDbBlockReference
  2
_DOTSMALL
 10
8624.554415798632
 20
4614.900975637158
 30
0.0
 41
100.0
 42
100.0
 43
100.0
 50
90.0
  0
INSERT
  5
19862
330
18337
100
AcDbEntity
  8
寸法
 62
     0
 48
50.0
370
    -2
100
AcDbBlockReference
  2
_DOTSMALL
 10
8624.55441579863
 20
2889.900975637158
 30
0.0
 41
100.0
 42
100.0
 43
100.0
 50
270.0
  0
MTEXT
  5
19863
330
18337
100
AcDbEntity
  8
寸法
 62
     7
 48
50.0
100
AcDbMText
 10
8524.542604775009
 20
3743.533994654683
 30
0.0
 40
120.0
 41
0.0
 71
     5
 72
     1
  1
\A1;有効開口部高サ1725
  7
STYLE1
 11
0.0000000000000001
 21
1.0
 31
0.0
 73
     1
 44
1.0
1001
ACAD
1000
MTEXTBEGIN
1070
    73
1070
     1
1070
    44
1040
1.0
1070
    74
1070
     0
1000
MTEXTEND
  0
POINT
  5
19864
330
18337
100
AcDbEntity
  8
DEFPOINTS
 62
     0
 48
50.0
100
AcDbPoint
 10
8923.760445010781
 20
4614.900975637158
 30
0.0
  0
POINT
  5
19865
330
18337
100
AcDbEntity
  8
DEFPOINTS
 62
     0
 48
50.0
100
AcDbPoint
 10
8923.760445010781
 20
2889.900975637158
 30
0.0
  0
POINT
  5
19866
330
18337
100
AcDbEntity
  8
DEFPOINTS
 62
     0
 48
50.0
100
AcDbPoint
 10
8624.55441579863
 20
2889.900975637158
 30
0.0
  0
ENDBLK
  5
18342
330
18337
100
AcDbEntity
  8
0
 48
50.0
100
AcDbBlockEnd
  0
BLOCK
  5
191B9
330
191AF
100
AcDbEntity
  8
0
 48
50.0
100
AcDbBlockBegin
  2
*D13
 70
     1
 10
0.0
 20
0.0
 30
0.0
  3
*D13
  1

  0
LINE
  5
19855
330
191AF
100
AcDbEntity
  8
寸法
 62
     0
 48
50.0
370
    -2
100
AcDbLine
 10
4886.80009891323
 20
2531.900975637157
 30
0.0
 11
4697.300095666594
 21
2531.900975637157
 31
0.0
  0
LINE
  5
19856
330
191AF
100
AcDbEntity
  8
寸法
 62
     0
 48
50.0
370
    -2
100
AcDbLine
 10
4861.800098913227
 20
2731.900975637158
 30
0.0
 11
4697.300095666594
 21
2731.900975637158
 31
0.0
  0
LINE
  5
19857
330
191AF
100
AcDbEntity
  8
寸法
 62
     0
 48
50.0
370
    -2
100
AcDbLine
 10
4757.300095666593
 20
2531.900975637157
 30
0.0
 11
4757.300095666593
 21
2731.900975637158
 31
0.0
  0
INSERT
  5
19858
330
191AF
100
AcDbEntity
  8
寸法
 62
     0
 48
50.0
370
    -2
100
AcDbBlockReference
  2
_DOTSMALL
 10
4757.300095666593
 20
2531.900975637157
 30
0.0
 41
100.0
 42
100.0
 43
100.0
 50
270.0
  0
INSERT
  5
19859
330
191AF
100
AcDbEntity
  8
寸法
 62
     0
 48
50.0
370
    -2
100
AcDbBlockReference
  2
_DOTSMALL
 10
4757.300095666593
 20
2731.900975637158
 30
0.0
 41
100.0
 42
100.0
 43
100.0
 50
90.0
  0
MTEXT
  5
1985A
330
191AF
100
AcDbEntity
  8
寸法
 62
     7
 48
50.0
100
AcDbMText
 10
4657.288284642971
 20
2631.900975637158
 30
0.0
 40
120.0
 41
0.0
 71
     5
 72
     1
  1
\A1;200
  7
STYLE1
 11
0.0000000000000001
 21
1.0
 31
0.0
 73
     1
 44
1.0
1001
ACAD
1000
MTEXTBEGIN
1070
    73
1070
     1
1070
    44
1040
1.0
1070
    74
1070
     0
1000
MTEXTEND
  0
POINT
  5
1985B
330
191AF
100
AcDbEntity
  8
DEFPOINTS
 62
     0
 48
50.0
100
AcDbPoint
 10
4906.80009891323
 20
2531.900975637157
 30
0.0
  0
POINT
  5
1985C
330
191AF
100
AcDbEntity
  8
DEFPOINTS
 62
     0
 48
50.0
100
AcDbPoint
 10
4881.800098913227
 20
2731.900975637158
 30
0.0
  0
POINT
  5
1985D
330
191AF
100
AcDbEntity
  8
DEFPOINTS
 62
     0
 48
50.0
100
AcDbPoint
 10
4757.300095666593
 20
2731.900975637158
 30
0.0
  0
ENDBLK
  5
191BA
330
191AF
100
AcDbEntity
  8
0
 48
50.0
100
AcDbBlockEnd
  0
BLOCK
  5
191C5
330
191BB
100
AcDbEntity
  8
0
 48
50.0
100
AcDbBlockBegin
  2
*D14
 70
     1
 10
0.0
 20
0.0
 30
0.0
  3
*D14
  1

  0
LINE
  5
1984C
330
191BB
100
AcDbEntity
  8
寸法
 62
     0
 48
50.0
370
    -2
100
AcDbLine
 10
5106.800098913227
 20
2511.900975637156
 30
0.0
 11
5106.800098913227
 21
2185.853646336779
 31
0.0
  0
LINE
  5
1984D
330
191BB
100
AcDbEntity
  8
寸法
 62
     0
 48
50.0
370
    -2
100
AcDbLine
 10
4906.80009891323
 20
2511.900975637157
 30
0.0
 11
4906.80009891323
 21
2185.853646336779
 31
0.0
  0
LINE
  5
1984E
330
191BB
100
AcDbEntity
  8
寸法
 62
     0
 48
50.0
370
    -2
100
AcDbLine
 10
5106.800098913227
 20
2245.853646336779
 30
0.0
 11
4906.80009891323
 21
2245.853646336779
 31
0.0
  0
INSERT
  5
1984F
330
191BB
100
AcDbEntity
  8
寸法
 62
     0
 48
50.0
370
    -2
100
AcDbBlockReference
  2
_DOTSMALL
 10
5106.800098913227
 20
2245.853646336779
 30
0.0
 41
100.0
 42
100.0
 43
100.0
  0
INSERT
  5
19850
330
191BB
100
AcDbEntity
  8
寸法
 62
     0
 48
50.0
370
    -2
100
AcDbBlockReference
  2
_DOTSMALL
 10
4906.80009891323
 20
2245.853646336779
 30
0.0
 41
100.0
 42
100.0
 43
100.0
 50
180.0
  0
MTEXT
  5
19851
330
191BB
100
AcDbEntity
  8
寸法
 62
     7
 48
50.0
100
AcDbMText
 10
5006.800098913228
 20
2345.865457360401
 30
0.0
 40
120.0
 41
0.0
 71
     5
 72
     1
  1
\A1;200
  7
STYLE1
 73
     1
 44
1.0
1001
ACAD
1000
MTEXTBEGIN
1070
    73
1070
     1
1070
    44
1040
1.0
1070
    74
1070
     0
1000
MTEXTEND
  0
POINT
  5
19852
330
191BB
100
AcDbEntity
  8
DEFPOINTS
 62
     0
 48
50.0
100
AcDbPoint
 10
5106.800098913227
 20
2531.900975637155
 30
0.0
  0
POINT
  5
19853
330
191BB
100
AcDbEntity
  8
DEFPOINTS
 62
     0
 48
50.0
100
AcDbPoint
 10
4906.80009891323
 20
2531.900975637157
 30
0.0
  0
POINT
  5
19854
330
191BB
100
AcDbEntity
  8
DEFPOINTS
 62
     0
 48
50.0
100
AcDbPoint
 10
4906.80009891323
 20
2245.853646336779
 30
0.0
  0
ENDBLK
  5
191C6
330
191BB
100
AcDbEntity
  8
0
 48
50.0
100
AcDbBlockEnd
  0
BLOCK
  5
191D3
330
191C7
100
AcDbEntity
  8
0
 48
50.0
100
AcDbBlockBegin
  2
*D15
 70
     1
 10
0.0
 20
0.0
 30
0.0
  3
*D15
  1

  0
LINE
  5
19F19
330
191C7
100
AcDbEntity
  8
寸法
 62
     0
 48
50.0
370
    -2
100
AcDbLine
 10
8895.760445010754
 20
9609.104940021129
 30
0.0
 11
8895.760445010754
 21
9945.911966829337
 31
0.0
  0
LINE
  5
19F1A
330
191C7
100
AcDbEntity
  8
寸法
 62
     0
 48
50.0
370
    -2
100
AcDbLine
 10
8950.760445010791
 20
9609.104940021129
 30
0.0
 11
8950.760445010791
 21
9945.911966829337
 31
0.0
  0
LINE
  5
19F1B
330
191C7
100
AcDbEntity
  8
寸法
 62
     0
 48
50.0
370
    -2
100
AcDbLine
 10
8950.760445010791
 20
9885.911966829338
 30
0.0
 11
9050.760445010791
 21
9885.911966829338
 31
0.0
  0
LINE
  5
19F1C
330
191C7
100
AcDbEntity
  8
寸法
 62
     0
 48
50.0
370
    -2
100
AcDbLine
 10
8895.760445010754
 20
9885.911966829338
 30
0.0
 11
8478.789882262274
 21
9885.911966829338
 31
0.0
  0
LINE
  5
19F1D
330
191C7
100
AcDbEntity
  8
寸法
 62
     0
 48
50.0
370
    -2
100
AcDbLine
 10
8950.760445010791
 20
9885.911966829338
 30
0.0
 11
8895.760445010754
 21
9885.911966829338
 31
0.0
  0
INSERT
  5
19F1E
330
191C7
100
AcDbEntity
  8
寸法
 62
     0
 48
50.0
370
    -2
100
AcDbBlockReference
  2
_DOTSMALL
 10
8950.760445010791
 20
9885.911966829338
 30
0.0
 41
100.0
 42
100.0
 43
100.0
 50
180.0
  0
INSERT
  5
19F1F
330
191C7
100
AcDbEntity
  8
寸法
 62
     0
 48
50.0
370
    -2
100
AcDbBlockReference
  2
_DOTSMALL
 10
8895.760445010754
 20
9885.911966829338
 30
0.0
 41
100.0
 42
100.0
 43
100.0
  0
MTEXT
  5
19F20
330
191C7
100
AcDbEntity
  8
寸法
 62
     7
 48
50.0
100
AcDbMText
 10
8587.275163636514
 20
9985.911966829338
 30
0.0
 40
120.0
 41
0.0
 71
     5
 72
     1
  1
\A1;55
  7
STYLE1
 73
     1
 44
1.0
1001
ACAD
1000
MTEXTBEGIN
1070
    73
1070
     1
1070
    44
1040
1.0
1070
    74
1070
     0
1000
MTEXTEND
  0
POINT
  5
19F21
330
191C7
100
AcDbEntity
  8
DEFPOINTS
 62
     0
 48
50.0
100
AcDbPoint
 10
8895.760445010754
 20
9589.104940021128
 30
0.0
  0
POINT
  5
19F22
330
191C7
100
AcDbEntity
  8
DEFPOINTS
 62
     0
 48
50.0
100
AcDbPoint
 10
8950.760445010791
 20
9589.104940021128
 30
0.0
  0
POINT
  5
19F23
330
191C7
100
AcDbEntity
  8
DEFPOINTS
 62
     0
 48
50.0
100
AcDbPoint
 10
8950.760445010791
 20
9885.911966829338
 30
0.0
  0
ENDBLK
  5
191D4
330
191C7
100
AcDbEntity
  8
0
 48
50.0
100
AcDbBlockEnd
  0
BLOCK
  5
191DF
330
191D5
100
AcDbEntity
  8
0
 48
50.0
100
AcDbBlockBegin
  2
*D16
 70
     1
 10
0.0
 20
0.0
 30
0.0
  3
*D16
  1

  0
LINE
  5
19F10
330
191D5
100
AcDbEntity
  8
寸法
 62
     0
 48
50.0
370
    -2
100
AcDbLine
 10
10705.76044501079
 20
9589.104940021224
 30
0.0
 11
11758.29373248484
 21
9589.104940021224
 31
0.0
  0
LINE
  5
19F11
330
191D5
100
AcDbEntity
  8
寸法
 62
     0
 48
50.0
370
    -2
100
AcDbLine
 10
10705.76044501076
 20
7799.104940021215
 30
0.0
 11
11758.29373248484
 21
7799.104940021215
 31
0.0
  0
LINE
  5
19F12
330
191D5
100
AcDbEntity
  8
寸法
 62
     0
 48
50.0
370
    -2
100
AcDbLine
 10
11698.29373248484
 20
9589.104940021224
 30
0.0
 11
11698.29373248484
 21
7799.104940021215
 31
0.0
  0
INSERT
  5
19F13
330
191D5
100
AcDbEntity
  8
寸法
 62
     0
 48
50.0
370
    -2
100
AcDbBlockReference
  2
_DOTSMALL
 10
11698.29373248484
 20
9589.104940021224
 30
0.0
 41
100.0
 42
100.0
 43
100.0
 50
90.0
  0
INSERT
  5
19F14
330
191D5
100
AcDbEntity
  8
寸法
 62
     0
 48
50.0
370
    -2
100
AcDbBlockReference
  2
_DOTSMALL
 10
11698.29373248484
 20
7799.104940021215
 30
0.0
 41
100.0
 42
100.0
 43
100.0
 50
270.0
  0
MTEXT
  5
19F15
330
191D5
100
AcDbEntity
  8
寸法
 62
     7
 48
50.0
100
AcDbMText
 10
11598.29373248483
 20
8694.104940021217
 30
0.0
 40
120.0
 41
0.0
 71
     5
 72
     1
  1
\A1;1790
  7
STYLE1
 11
0.0000000000000001
 21
1.0
 31
0.0
 73
     1
 44
1.0
1001
ACAD
1000
MTEXTBEGIN
1070
    73
1070
     1
1070
    44
1040
1.0
1070
    74
1070
     0
1000
MTEXTEND
  0
POINT
  5
19F16
330
191D5
100
AcDbEntity
  8
DEFPOINTS
 62
     0
 48
50.0
100
AcDbPoint
 10
10685.76044501079
 20
9589.104940021224
 30
0.0
  0
POINT
  5
19F17
330
191D5
100
AcDbEntity
  8
DEFPOINTS
 62
     0
 48
50.0
100
AcDbPoint
 10
10685.76044501076
 20
7799.104940021215
 30
0.0
  0
POINT
  5
19F18
330
191D5
100
AcDbEntity
  8
DEFPOINTS
 62
     0
 48
50.0
100
AcDbPoint
 10
11698.29373248484
 20
7799.104940021215
 30
0.0
  0
ENDBLK
  5
191E0
330
191D5
100
AcDbEntity
  8
0
 48
50.0
100
AcDbBlockEnd
  0
BLOCK
  5
191ED
330
191E1
100
AcDbEntity
  8
0
 48
50.0
100
AcDbBlockBegin
  2
*D17
 70
     1
 10
0.0
 20
0.0
 30
0.0
  3
*D17
  1

  0
LINE
  5
19F05
330
191E1
100
AcDbEntity
  8
寸法
 62
     0
 48
50.0
370
    -2
100
AcDbLine
 10
10705.76044501079
 20
9589.104940021224
 30
0.0
 11
11393.1867907452
 21
9589.104940021224
 31
0.0
  0
LINE
  5
19F06
330
191E1
100
AcDbEntity
  8
寸法
 62
     0
 48
50.0
370
    -2
100
AcDbLine
 10
10705.76044501079
 20
9534.104940021228
 30
0.0
 11
11393.1867907452
 21
9534.104940021228
 31
0.0
  0
LINE
  5
19F07
330
191E1
100
AcDbEntity
  8
寸法
 62
     0
 48
50.0
370
    -2
100
AcDbLine
 10
11333.1867907452
 20
9534.104940021228
 30
0.0
 11
11333.1867907452
 21
9434.104940021226
 31
0.0
  0
LINE
  5
19F08
330
191E1
100
AcDbEntity
  8
寸法
 62
     0
 48
50.0
370
    -2
100
AcDbLine
 10
11333.1867907452
 20
9589.104940021224
 30
0.0
 11
11333.1867907452
 21
10006.0755027697
 31
0.0
  0
LINE
  5
19F09
330
191E1
100
AcDbEntity
  8
寸法
 62
     0
 48
50.0
370
    -2
100
AcDbLine
 10
11333.1867907452
 20
9534.104940021228
 30
0.0
 11
11333.1867907452
 21
9589.104940021224
 31
0.0
  0
INSERT
  5
19F0A
330
191E1
100
AcDbEntity
  8
寸法
 62
     0
 48
50.0
370
    -2
100
AcDbBlockReference
  2
_DOTSMALL
 10
11333.1867907452
 20
9534.104940021228
 30
0.0
 41
100.0
 42
100.0
 43
100.0
 50
90.0
  0
INSERT
  5
19F0B
330
191E1
100
AcDbEntity
  8
寸法
 62
     0
 48
50.0
370
    -2
100
AcDbBlockReference
  2
_DOTSMALL
 10
11333.1867907452
 20
9589.104940021224
 30
0.0
 41
100.0
 42
100.0
 43
100.0
 50
270.0
  0
MTEXT
  5
19F0C
330
191E1
100
AcDbEntity
  8
寸法
 62
     7
 48
50.0
100
AcDbMText
 10
11233.1867907452
 20
9897.590221395464
 30
0.0
 40
120.0
 41
0.0
 71
     5
 72
     1
  1
\A1;55
  7
STYLE1
 11
0.0000000000000001
 21
1.0
 31
0.0
 73
     1
 44
1.0
1001
ACAD
1000
MTEXTBEGIN
1070
    73
1070
     1
1070
    44
1040
1.0
1070
    74
1070
     0
1000
MTEXTEND
  0
POINT
  5
19F0D
330
191E1
100
AcDbEntity
  8
DEFPOINTS
 62
     0
 48
50.0
100
AcDbPoint
 10
10685.76044501079
 20
9589.104940021224
 30
0.0
  0
POINT
  5
19F0E
330
191E1
100
AcDbEntity
  8
DEFPOINTS
 62
     0
 48
50.0
100
AcDbPoint
 10
10685.76044501079
 20
9534.104940021228
 30
0.0
  0
POINT
  5
19F0F
330
191E1
100
AcDbEntity
  8
DEFPOINTS
 62
     0
 48
50.0
100
AcDbPoint
 10
11333.1867907452
 20
9534.104940021228
 30
0.0
  0
ENDBLK
  5
191EE
330
191E1
100
AcDbEntity
  8
0
 48
50.0
100
AcDbBlockEnd
  0
BLOCK
  5
191F9
330
191EF
100
AcDbEntity
  8
0
 48
50.0
100
AcDbBlockBegin
  2
*D18
 70
     1
 10
0.0
 20
0.0
 30
0.0
  3
*D18
  1

  0
LINE
  5
19EFC
330
191EF
100
AcDbEntity
  8
寸法
 62
     0
 48
50.0
370
    -2
100
AcDbLine
 10
10677.26044501079
 20
9553.745956172601
 30
0.0
 11
11072.61817087281
 21
9447.810172806468
 31
0.0
  0
LINE
  5
19EFD
330
191EF
100
AcDbEntity
  8
寸法
 62
     0
 48
50.0
370
    -2
100
AcDbLine
 10
10677.26044501079
 20
9103.745956172602
 30
0.0
 11
11072.61817087281
 21
8997.810172806468
 31
0.0
  0
LINE
  5
19EFE
330
191EF
100
AcDbEntity
  8
寸法
 62
     0
 48
50.0
370
    -2
100
AcDbLine
 10
11012.61817087281
 20
9463.887124352334
 30
0.0
 11
11012.61817087281
 21
9013.887124352335
 31
0.0
  0
INSERT
  5
19EFF
330
191EF
100
AcDbEntity
  8
寸法
 62
     0
 48
50.0
370
    -2
100
AcDbBlockReference
  2
_DOTSMALL
 10
11012.61817087281
 20
9463.887124352334
 30
0.0
 41
100.0
 42
100.0
 43
100.0
 50
90.0
  0
INSERT
  5
19F00
330
191EF
100
AcDbEntity
  8
寸法
 62
     0
 48
50.0
370
    -2
100
AcDbBlockReference
  2
_DOTSMALL
 10
11012.61817087281
 20
9013.887124352335
 30
0.0
 41
100.0
 42
100.0
 43
100.0
 50
270.0
  0
MTEXT
  5
19F01
330
191EF
100
AcDbEntity
  8
寸法
 62
     7
 48
50.0
100
AcDbMText
 10
10912.61817087281
 20
9238.887124352336
 30
0.0
 40
120.0
 41
0.0
 71
     5
 72
     1
  1
\A1;450
  7
STYLE1
 11
0.0000000000000001
 21
1.0
 31
0.0
 73
     1
 44
1.0
1001
ACAD
1000
MTEXTBEGIN
1070
    73
1070
     1
1070
    44
1040
1.0
1070
    74
1070
     0
1000
MTEXTEND
  0
POINT
  5
19F02
330
191EF
100
AcDbEntity
  8
DEFPOINTS
 62
     0
 48
50.0
100
AcDbPoint
 10
10657.26044501079
 20
9559.104940021223
 30
0.0
  0
POINT
  5
19F03
330
191EF
100
AcDbEntity
  8
DEFPOINTS
 62
     0
 48
50.0
100
AcDbPoint
 10
10657.26044501079
 20
9109.104940021225
 30
0.0
  0
POINT
  5
19F04
330
191EF
100
AcDbEntity
  8
DEFPOINTS
 62
     0
 48
50.0
100
AcDbPoint
 10
11012.61817087281
 20
9013.887124352335
 30
0.0
  0
ENDBLK
  5
191FA
330
191EF
100
AcDbEntity
  8
0
 48
50.0
100
AcDbBlockEnd
  0
BLOCK
  5
19207
330
191FB
100
AcDbEntity
  8
0
 48
50.0
100
AcDbBlockBegin
  2
*D19
 70
     1
 10
0.0
 20
0.0
 30
0.0
  3
*D19
  1

  0
LINE
  5
19EF1
330
191FB
100
AcDbEntity
  8
寸法
 62
     0
 48
50.0
370
    -2
100
AcDbLine
 10
10705.76044501076
 20
7854.10494002121
 30
0.0
 11
11393.18679074517
 21
7854.10494002121
 31
0.0
  0
LINE
  5
19EF2
330
191FB
100
AcDbEntity
  8
寸法
 62
     0
 48
50.0
370
    -2
100
AcDbLine
 10
10705.76044501076
 20
7799.104940021215
 30
0.0
 11
11393.18679074517
 21
7799.104940021215
 31
0.0
  0
LINE
  5
19EF3
330
191FB
100
AcDbEntity
  8
寸法
 62
     0
 48
50.0
370
    -2
100
AcDbLine
 10
11333.18679074517
 20
7854.10494002121
 30
0.0
 11
11333.18679074517
 21
7954.10494002121
 31
0.0
  0
LINE
  5
19EF4
330
191FB
100
AcDbEntity
  8
寸法
 62
     0
 48
50.0
370
    -2
100
AcDbLine
 10
11333.18679074517
 20
7799.104940021215
 30
0.0
 11
11333.18679074517
 21
7312.758191742112
 31
0.0
  0
LINE
  5
19EF5
330
191FB
100
AcDbEntity
  8
寸法
 62
     0
 48
50.0
370
    -2
100
AcDbLine
 10
11333.18679074517
 20
7854.10494002121
 30
0.0
 11
11333.18679074517
 21
7799.104940021215
 31
0.0
  0
INSERT
  5
19EF6
330
191FB
100
AcDbEntity
  8
寸法
 62
     0
 48
50.0
370
    -2
100
AcDbBlockReference
  2
_DOTSMALL
 10
11333.18679074517
 20
7854.10494002121
 30
0.0
 41
100.0
 42
100.0
 43
100.0
 50
270.0
  0
INSERT
  5
19EF7
330
191FB
100
AcDbEntity
  8
寸法
 62
     0
 48
50.0
370
    -2
100
AcDbBlockReference
  2
_DOTSMALL
 10
11333.18679074517
 20
7799.104940021215
 30
0.0
 41
100.0
 42
100.0
 43
100.0
 50
90.0
  0
MTEXT
  5
19EF8
330
191FB
100
AcDbEntity
  8
寸法
 62
     7
 48
50.0
100
AcDbMText
 10
11233.18679074517
 20
7421.243473116352
 30
0.0
 40
120.0
 41
0.0
 71
     5
 72
     1
  1
\A1;55
  7
STYLE1
 11
0.0000000000000001
 21
1.0
 31
0.0
 73
     1
 44
1.0
1001
ACAD
1000
MTEXTBEGIN
1070
    73
1070
     1
1070
    44
1040
1.0
1070
    74
1070
     0
1000
MTEXTEND
  0
POINT
  5
19EF9
330
191FB
100
AcDbEntity
  8
DEFPOINTS
 62
     0
 48
50.0
100
AcDbPoint
 10
10685.76044501076
 20
7854.10494002121
 30
0.0
  0
POINT
  5
19EFA
330
191FB
100
AcDbEntity
  8
DEFPOINTS
 62
     0
 48
50.0
100
AcDbPoint
 10
10685.76044501076
 20
7799.104940021215
 30
0.0
  0
POINT
  5
19EFB
330
191FB
100
AcDbEntity
  8
DEFPOINTS
 62
     0
 48
50.0
100
AcDbPoint
 10
11333.18679074517
 20
7799.104940021215
 30
0.0
  0
ENDBLK
  5
19208
330
191FB
100
AcDbEntity
  8
0
 48
50.0
100
AcDbBlockEnd
  0
BLOCK
  5
19213
330
19209
100
AcDbEntity
  8
0
 48
50.0
100
AcDbBlockBegin
  2
*D20
 70
     1
 10
0.0
 20
0.0
 30
0.0
  3
*D20
  1

  0
LINE
  5
19EE8
330
19209
100
AcDbEntity
  8
寸法
 62
     0
 48
50.0
370
    -2
100
AcDbLine
 10
10705.76044501079
 20
9534.104940021228
 30
0.0
 11
11393.1867907452
 21
9534.104940021228
 31
0.0
  0
LINE
  5
19EE9
330
19209
100
AcDbEntity
  8
寸法
 62
     0
 48
50.0
370
    -2
100
AcDbLine
 10
10705.76044501076
 20
7854.10494002121
 30
0.0
 11
11393.1867907452
 21
7854.10494002121
 31
0.0
  0
LINE
  5
19EEA
330
19209
100
AcDbEntity
  8
寸法
 62
     0
 48
50.0
370
    -2
100
AcDbLine
 10
11333.1867907452
 20
9534.104940021228
 30
0.0
 11
11333.1867907452
 21
7854.10494002121
 31
0.0
  0
INSERT
  5
19EEB
330
19209
100
AcDbEntity
  8
寸法
 62
     0
 48
50.0
370
    -2
100
AcDbBlockReference
  2
_DOTSMALL
 10
11333.1867907452
 20
9534.104940021228
 30
0.0
 41
100.0
 42
100.0
 43
100.0
 50
90.0
  0
INSERT
  5
19EEC
330
19209
100
AcDbEntity
  8
寸法
 62
     0
 48
50.0
370
    -2
100
AcDbBlockReference
  2
_DOTSMALL
 10
11333.1867907452
 20
7854.10494002121
 30
0.0
 41
100.0
 42
100.0
 43
100.0
 50
270.0
  0
MTEXT
  5
19EED
330
19209
100
AcDbEntity
  8
寸法
 62
     7
 48
50.0
100
AcDbMText
 10
11233.17497972158
 20
8694.104940021217
 30
0.0
 40
120.0
 41
0.0
 71
     5
 72
     1
  1
\A1;4X420=1680
  7
STYLE1
 11
0.0000000000000001
 21
1.0
 31
0.0
 73
     1
 44
1.0
1001
ACAD
1000
MTEXTBEGIN
1070
    73
1070
     1
1070
    44
1040
1.0
1070
    74
1070
     0
1000
MTEXTEND
  0
POINT
  5
19EEE
330
19209
100
AcDbEntity
  8
DEFPOINTS
 62
     0
 48
50.0
100
AcDbPoint
 10
10685.76044501079
 20
9534.104940021228
 30
0.0
  0
POINT
  5
19EEF
330
19209
100
AcDbEntity
  8
DEFPOINTS
 62
     0
 48
50.0
100
AcDbPoint
 10
10685.76044501076
 20
7854.10494002121
 30
0.0
  0
POINT
  5
19EF0
330
19209
100
AcDbEntity
  8
DEFPOINTS
 62
     0
 48
50.0
100
AcDbPoint
 10
11333.1867907452
 20
7854.10494002121
 30
0.0
  0
ENDBLK
  5
19214
330
19209
100
AcDbEntity
  8
0
 48
50.0
100
AcDbBlockEnd
  0
BLOCK
  5
1922B
330
19221
100
AcDbEntity
  8
0
 48
50.0
100
AcDbBlockBegin
  2
*D21
 70
     1
 10
0.0
 20
0.0
 30
0.0
  3
*D21
  1

  0
LINE
  5
19EDF
330
19221
100
AcDbEntity
  8
寸法
 62
     0
 48
50.0
370
    -2
100
AcDbLine
 10
9798.901461162168
 20
9089.104940021233
 30
0.0
 11
9709.614719908493
 21
8755.882285220259
 31
0.0
  0
LINE
  5
19EE0
330
19221
100
AcDbEntity
  8
寸法
 62
     0
 48
50.0
370
    -2
100
AcDbLine
 10
10651.90146116218
 20
9089.104940021227
 30
0.0
 11
10562.6147199085
 21
8755.882285220259
 31
0.0
  0
LINE
  5
19EE1
330
19221
100
AcDbEntity
  8
寸法
 62
     0
 48
50.0
370
    -2
100
AcDbLine
 10
9725.691671454359
 20
8815.88228522026
 30
0.0
 11
10578.69167145437
 21
8815.88228522026
 31
0.0
  0
INSERT
  5
19EE2
330
19221
100
AcDbEntity
  8
寸法
 62
     0
 48
50.0
370
    -2
100
AcDbBlockReference
  2
_DOTSMALL
 10
9725.691671454359
 20
8815.88228522026
 30
0.0
 41
100.0
 42
100.0
 43
100.0
 50
180.0
  0
INSERT
  5
19EE3
330
19221
100
AcDbEntity
  8
寸法
 62
     0
 48
50.0
370
    -2
100
AcDbBlockReference
  2
_DOTSMALL
 10
10578.69167145437
 20
8815.88228522026
 30
0.0
 41
100.0
 42
100.0
 43
100.0
  0
MTEXT
  5
19EE4
330
19221
100
AcDbEntity
  8
寸法
 62
     7
 48
50.0
100
AcDbMText
 10
10183.60750712905
 20
8915.882285220259
 30
0.0
 40
120.0
 41
0.0
 71
     5
 72
     1
  1
\A1;853
  7
STYLE1
 73
     1
 44
1.0
1001
ACAD
1000
MTEXTBEGIN
1070
    73
1070
     1
1070
    44
1040
1.0
1070
    74
1070
     0
1000
MTEXTEND
  0
POINT
  5
19EE5
330
19221
100
AcDbEntity
  8
DEFPOINTS
 62
     0
 48
50.0
100
AcDbPoint
 10
9804.26044501079
 20
9109.104940021232
 30
0.0
  0
POINT
  5
19EE6
330
19221
100
AcDbEntity
  8
DEFPOINTS
 62
     0
 48
50.0
100
AcDbPoint
 10
10657.2604450108
 20
9109.104940021227
 30
0.0
  0
POINT
  5
19EE7
330
19221
100
AcDbEntity
  8
DEFPOINTS
 62
     0
 48
50.0
100
AcDbPoint
 10
10578.69167145437
 20
8815.88228522026
 30
0.0
  0
ENDBLK
  5
1922C
330
19221
100
AcDbEntity
  8
0
 48
50.0
100
AcDbBlockEnd
  0
BLOCK
  5
19239
330
1922D
100
AcDbEntity
  8
0
 48
50.0
100
AcDbBlockBegin
  2
*D22
 70
     1
 10
0.0
 20
0.0
 30
0.0
  3
*D22
  1

  0
LINE
  5
19ED4
330
1922D
100
AcDbEntity
  8
寸法
 62
     0
 48
50.0
370
    -2
100
AcDbLine
 10
10630.76044501079
 20
9609.104940021223
 30
0.0
 11
10630.76044501079
 21
9945.911966829434
 31
0.0
  0
LINE
  5
19ED5
330
1922D
100
AcDbEntity
  8
寸法
 62
     0
 48
50.0
370
    -2
100
AcDbLine
 10
10685.76044501079
 20
9609.104940021223
 30
0.0
 11
10685.76044501079
 21
9945.911966829434
 31
0.0
  0
LINE
  5
19ED6
330
1922D
100
AcDbEntity
  8
寸法
 62
     0
 48
50.0
370
    -2
100
AcDbLine
 10
10630.76044501079
 20
9885.911966829434
 30
0.0
 11
10530.76044501079
 21
9885.911966829434
 31
0.0
  0
LINE
  5
19ED7
330
1922D
100
AcDbEntity
  8
寸法
 62
     0
 48
50.0
370
    -2
100
AcDbLine
 10
10685.76044501079
 20
9885.911966829434
 30
0.0
 11
11102.73100775927
 21
9885.911966829434
 31
0.0
  0
LINE
  5
19ED8
330
1922D
100
AcDbEntity
  8
寸法
 62
     0
 48
50.0
370
    -2
100
AcDbLine
 10
10630.76044501079
 20
9885.911966829434
 30
0.0
 11
10685.76044501079
 21
9885.911966829434
 31
0.0
  0
INSERT
  5
19ED9
330
1922D
100
AcDbEntity
  8
寸法
 62
     0
 48
50.0
370
    -2
100
AcDbBlockReference
  2
_DOTSMALL
 10
10630.76044501079
 20
9885.911966829434
 30
0.0
 41
100.0
 42
100.0
 43
100.0
  0
INSERT
  5
19EDA
330
1922D
100
AcDbEntity
  8
寸法
 62
     0
 48
50.0
370
    -2
100
AcDbBlockReference
  2
_DOTSMALL
 10
10685.76044501079
 20
9885.911966829434
 30
0.0
 41
100.0
 42
100.0
 43
100.0
 50
180.0
  0
MTEXT
  5
19EDB
330
1922D
100
AcDbEntity
  8
寸法
 62
     7
 48
50.0
100
AcDbMText
 10
10994.24572638503
 20
9985.911966829434
 30
0.0
 40
120.0
 41
0.0
 71
     5
 72
     1
  1
\A1;55
  7
STYLE1
 73
     1
 44
1.0
1001
ACAD
1000
MTEXTBEGIN
1070
    73
1070
     1
1070
    44
1040
1.0
1070
    74
1070
     0
1000
MTEXTEND
  0
POINT
  5
19EDC
330
1922D
100
AcDbEntity
  8
DEFPOINTS
 62
     0
 48
50.0
100
AcDbPoint
 10
10630.76044501079
 20
9589.104940021224
 30
0.0
  0
POINT
  5
19EDD
330
1922D
100
AcDbEntity
  8
DEFPOINTS
 62
     0
 48
50.0
100
AcDbPoint
 10
10685.76044501079
 20
9589.104940021224
 30
0.0
  0
POINT
  5
19EDE
330
1922D
100
AcDbEntity
  8
DEFPOINTS
 62
     0
 48
50.0
100
AcDbPoint
 10
10685.76044501079
 20
9885.911966829434
 30
0.0
  0
ENDBLK
  5
1923A
330
1922D
100
AcDbEntity
  8
0
 48
50.0
100
AcDbBlockEnd
  0
BLOCK
  5
19245
330
1923B
100
AcDbEntity
  8
0
 48
50.0
100
AcDbBlockBegin
  2
*D23
 70
     1
 10
0.0
 20
0.0
 30
0.0
  3
*D23
  1

  0
LINE
  5
19ECB
330
1923B
100
AcDbEntity
  8
寸法
 62
     0
 48
50.0
370
    -2
100
AcDbLine
 10
8950.760445010791
 20
9609.104940021129
 30
0.0
 11
8950.760445010791
 21
9945.911966829454
 31
0.0
  0
LINE
  5
19ECC
330
1923B
100
AcDbEntity
  8
寸法
 62
     0
 48
50.0
370
    -2
100
AcDbLine
 10
10630.76044501079
 20
9609.104940021223
 30
0.0
 11
10630.76044501079
 21
9945.911966829454
 31
0.0
  0
LINE
  5
19ECD
330
1923B
100
AcDbEntity
  8
寸法
 62
     0
 48
50.0
370
    -2
100
AcDbLine
 10
8950.760445010791
 20
9885.911966829453
 30
0.0
 11
10630.76044501079
 21
9885.911966829453
 31
0.0
  0
INSERT
  5
19ECE
330
1923B
100
AcDbEntity
  8
寸法
 62
     0
 48
50.0
370
    -2
100
AcDbBlockReference
  2
_DOTSMALL
 10
8950.760445010791
 20
9885.911966829453
 30
0.0
 41
100.0
 42
100.0
 43
100.0
 50
180.0
  0
INSERT
  5
19ECF
330
1923B
100
AcDbEntity
  8
寸法
 62
     0
 48
50.0
370
    -2
100
AcDbBlockReference
  2
_DOTSMALL
 10
10630.76044501079
 20
9885.911966829453
 30
0.0
 41
100.0
 42
100.0
 43
100.0
  0
MTEXT
  5
19ED0
330
1923B
100
AcDbEntity
  8
寸法
 62
     7
 48
50.0
100
AcDbMText
 10
9790.760445010789
 20
9985.923777853075
 30
0.0
 40
120.0
 41
0.0
 71
     5
 72
     1
  1
\A1;4X420=1680
  7
STYLE1
 73
     1
 44
1.0
1001
ACAD
1000
MTEXTBEGIN
1070
    73
1070
     1
1070
    44
1040
1.0
1070
    74
1070
     0
1000
MTEXTEND
  0
POINT
  5
19ED1
330
1923B
100
AcDbEntity
  8
DEFPOINTS
 62
     0
 48
50.0
100
AcDbPoint
 10
8950.760445010791
 20
9589.104940021128
 30
0.0
  0
POINT
  5
19ED2
330
1923B
100
AcDbEntity
  8
DEFPOINTS
 62
     0
 48
50.0
100
AcDbPoint
 10
10630.76044501079
 20
9589.104940021224
 30
0.0
  0
POINT
  5
19ED3
330
1923B
100
AcDbEntity
  8
DEFPOINTS
 62
     0
 48
50.0
100
AcDbPoint
 10
10630.76044501079
 20
9885.911966829453
 30
0.0
  0
ENDBLK
  5
19246
330
1923B
100
AcDbEntity
  8
0
 48
50.0
100
AcDbBlockEnd
  0
BLOCK
  5
1925D
330
19253
100
AcDbEntity
  8
0
 48
50.0
100
AcDbBlockBegin
  2
*D24
 70
     1
 10
0.0
 20
0.0
 30
0.0
  3
*D24
  1

  0
LINE
  5
19EC2
330
19253
100
AcDbEntity
  8
寸法
 62
     0
 48
50.0
370
    -2
100
AcDbLine
 10
8918.901461162169
 20
9089.104940021128
 30
0.0
 11
8829.614719908491
 21
8755.882285220154
 31
0.0
  0
LINE
  5
19EC3
330
19253
100
AcDbEntity
  8
寸法
 62
     0
 48
50.0
370
    -2
100
AcDbLine
 10
9771.90146116218
 20
9089.104940021121
 30
0.0
 11
9682.614719908505
 21
8755.882285220154
 31
0.0
  0
LINE
  5
19EC4
330
19253
100
AcDbEntity
  8
寸法
 62
     0
 48
50.0
370
    -2
100
AcDbLine
 10
8845.691671454359
 20
8815.882285220153
 30
0.0
 11
9698.691671454371
 21
8815.882285220153
 31
0.0
  0
INSERT
  5
19EC5
330
19253
100
AcDbEntity
  8
寸法
 62
     0
 48
50.0
370
    -2
100
AcDbBlockReference
  2
_DOTSMALL
 10
8845.691671454359
 20
8815.882285220153
 30
0.0
 41
100.0
 42
100.0
 43
100.0
 50
180.0
  0
INSERT
  5
19EC6
330
19253
100
AcDbEntity
  8
寸法
 62
     0
 48
50.0
370
    -2
100
AcDbBlockReference
  2
_DOTSMALL
 10
9698.691671454371
 20
8815.882285220153
 30
0.0
 41
100.0
 42
100.0
 43
100.0
  0
MTEXT
  5
19EC7
330
19253
100
AcDbEntity
  8
寸法
 62
     7
 48
50.0
100
AcDbMText
 10
9303.607507129058
 20
8915.882285220154
 30
0.0
 40
120.0
 41
0.0
 71
     5
 72
     1
  1
\A1;853
  7
STYLE1
 73
     1
 44
1.0
1001
ACAD
1000
MTEXTBEGIN
1070
    73
1070
     1
1070
    44
1040
1.0
1070
    74
1070
     0
1000
MTEXTEND
  0
POINT
  5
19EC8
330
19253
100
AcDbEntity
  8
DEFPOINTS
 62
     0
 48
50.0
100
AcDbPoint
 10
8924.260445010791
 20
9109.104940021127
 30
0.0
  0
POINT
  5
19EC9
330
19253
100
AcDbEntity
  8
DEFPOINTS
 62
     0
 48
50.0
100
AcDbPoint
 10
9777.260445010803
 20
9109.104940021122
 30
0.0
  0
POINT
  5
19ECA
330
19253
100
AcDbEntity
  8
DEFPOINTS
 62
     0
 48
50.0
100
AcDbPoint
 10
9698.691671454371
 20
8815.882285220153
 30
0.0
  0
ENDBLK
  5
1925E
330
19253
100
AcDbEntity
  8
0
 48
50.0
100
AcDbBlockEnd
  0
BLOCK
  5
196F9
330
196EF
100
AcDbEntity
  8
0
 48
50.0
100
AcDbBlockBegin
  2
*D25
 70
     1
 10
0.0
 20
0.0
 30
0.0
  3
*D25
  1

  0
LINE
  5
197C4
330
196EF
100
AcDbEntity
  8
寸法
 62
     0
 48
50.0
370
    -2
100
AcDbLine
 10
6769.300098913223
 20
4926.900975637162
 30
0.0
 11
6769.300098913223
 21
5371.52123506443
 31
0.0
  0
LINE
  5
197C5
330
196EF
100
AcDbEntity
  8
寸法
 62
     0
 48
50.0
370
    -2
100
AcDbLine
 10
4979.300098913232
 20
4926.900975637163
 30
0.0
 11
4979.300098913232
 21
5371.52123506443
 31
0.0
  0
LINE
  5
197C6
330
196EF
100
AcDbEntity
  8
寸法
 62
     0
 48
50.0
370
    -2
100
AcDbLine
 10
6769.300098913223
 20
5311.52123506443
 30
0.0
 11
4979.300098913232
 21
5311.52123506443
 31
0.0
  0
INSERT
  5
197C7
330
196EF
100
AcDbEntity
  8
寸法
 62
     0
 48
50.0
370
    -2
100
AcDbBlockReference
  2
_DOTSMALL
 10
6769.300098913223
 20
5311.52123506443
 30
0.0
 41
100.0
 42
100.0
 43
100.0
  0
INSERT
  5
197C8
330
196EF
100
AcDbEntity
  8
寸法
 62
     0
 48
50.0
370
    -2
100
AcDbBlockReference
  2
_DOTSMALL
 10
4979.300098913232
 20
5311.52123506443
 30
0.0
 41
100.0
 42
100.0
 43
100.0
 50
180.0
  0
MTEXT
  5
197C9
330
196EF
100
AcDbEntity
  8
寸法
 62
     7
 48
50.0
100
AcDbMText
 10
5874.300098913227
 20
5411.52123506443
 30
0.0
 40
120.0
 41
0.0
 71
     5
 72
     1
  1
\A1;柱外寸法1790
  7
STYLE1
 73
     1
 44
1.0
1001
ACAD
1000
MTEXTBEGIN
1070
    73
1070
     1
1070
    44
1040
1.0
1070
    74
1070
     0
1000
MTEXTEND
  0
POINT
  5
197CA
330
196EF
100
AcDbEntity
  8
DEFPOINTS
 62
     0
 48
50.0
100
AcDbPoint
 10
6769.300098913223
 20
4906.900975637163
 30
0.0
  0
POINT
  5
197CB
330
196EF
100
AcDbEntity
  8
DEFPOINTS
 62
     0
 48
50.0
100
AcDbPoint
 10
4979.300098913232
 20
4906.900975637164
 30
0.0
  0
POINT
  5
197CC
330
196EF
100
AcDbEntity
  8
DEFPOINTS
 62
     0
 48
50.0
100
AcDbPoint
 10
4979.300098913232
 20
5311.52123506443
 30
0.0
  0
ENDBLK
  5
196FA
330
196EF
100
AcDbEntity
  8
0
 48
50.0
100
AcDbBlockEnd
  0
BLOCK
  5
19707
330
196FB
100
AcDbEntity
  8
0
 48
50.0
100
AcDbBlockBegin
  2
*D26
 70
     1
 10
0.0
 20
0.0
 30
0.0
  3
*D26
  1

  0
LINE
  5
197B0
330
196FB
100
AcDbEntity
  8
寸法
 62
     0
 48
50.0
370
    -2
100
AcDbLine
 10
4979.300098913232
 20
4926.900975637163
 30
0.0
 11
4979.300098913232
 21
5371.52123506443
 31
0.0
  0
LINE
  5
197B1
330
196FB
100
AcDbEntity
  8
寸法
 62
     0
 48
50.0
370
    -2
100
AcDbLine
 10
4929.300098913232
 20
4926.900975637162
 30
0.0
 11
4929.300098913232
 21
5371.52123506443
 31
0.0
  0
LINE
  5
197B2
330
196FB
100
AcDbEntity
  8
寸法
 62
     0
 48
50.0
370
    -2
100
AcDbLine
 10
4979.300098913232
 20
5311.52123506443
 30
0.0
 11
5079.300098913233
 21
5311.52123506443
 31
0.0
  0
LINE
  5
197B3
330
196FB
100
AcDbEntity
  8
寸法
 62
     0
 48
50.0
370
    -2
100
AcDbLine
 10
4929.300098913232
 20
5311.52123506443
 30
0.0
 11
4509.767573444498
 21
5311.52123506443
 31
0.0
  0
LINE
  5
197B4
330
196FB
100
AcDbEntity
  8
寸法
 62
     0
 48
50.0
370
    -2
100
AcDbLine
 10
4979.300098913232
 20
5311.52123506443
 30
0.0
 11
4929.300098913232
 21
5311.52123506443
 31
0.0
  0
INSERT
  5
197B5
330
196FB
100
AcDbEntity
  8
寸法
 62
     0
 48
50.0
370
    -2
100
AcDbBlockReference
  2
_DOTSMALL
 10
4979.300098913232
 20
5311.52123506443
 30
0.0
 41
100.0
 42
100.0
 43
100.0
 50
180.0
  0
INSERT
  5
197B6
330
196FB
100
AcDbEntity
  8
寸法
 62
     0
 48
50.0
370
    -2
100
AcDbBlockReference
  2
_DOTSMALL
 10
4929.300098913232
 20
5311.52123506443
 30
0.0
 41
100.0
 42
100.0
 43
100.0
  0
MTEXT
  5
197B7
330
196FB
100
AcDbEntity
  8
寸法
 62
     7
 48
50.0
100
AcDbMText
 10
4615.814817538985
 20
5411.52123506443
 30
0.0
 40
120.0
 41
0.0
 71
     5
 72
     1
  1
\A1;50
  7
STYLE1
 73
     1
 44
1.0
1001
ACAD
1000
MTEXTBEGIN
1070
    73
1070
     1
1070
    44
1040
1.0
1070
    74
1070
     0
1000
MTEXTEND
  0
POINT
  5
197B8
330
196FB
100
AcDbEntity
  8
DEFPOINTS
 62
     0
 48
50.0
100
AcDbPoint
 10
4979.300098913232
 20
4906.900975637164
 30
0.0
  0
POINT
  5
197B9
330
196FB
100
AcDbEntity
  8
DEFPOINTS
 62
     0
 48
50.0
100
AcDbPoint
 10
4929.300098913232
 20
4906.900975637163
 30
0.0
  0
POINT
  5
197BA
330
196FB
100
AcDbEntity
  8
DEFPOINTS
 62
     0
 48
50.0
100
AcDbPoint
 10
4929.300098913232
 20
5311.52123506443
 30
0.0
  0
ENDBLK
  5
19708
330
196FB
100
AcDbEntity
  8
0
 48
50.0
100
AcDbBlockEnd
  0
BLOCK
  5
19713
330
19709
100
AcDbEntity
  8
0
 48
50.0
100
AcDbBlockBegin
  2
*D27
 70
     1
 10
0.0
 20
0.0
 30
0.0
  3
*D27
  1

  0
LINE
  5
197BB
330
19709
100
AcDbEntity
  8
寸法
 62
     0
 48
50.0
370
    -2
100
AcDbLine
 10
4929.300098913232
 20
4926.900975637162
 30
0.0
 11
4929.300098913232
 21
5581.115109485881
 31
0.0
  0
LINE
  5
197BC
330
19709
100
AcDbEntity
  8
寸法
 62
     0
 48
50.0
370
    -2
100
AcDbLine
 10
6819.300098913223
 20
4926.90097563716
 30
0.0
 11
6819.300098913223
 21
5581.115109485881
 31
0.0
  0
LINE
  5
197BD
330
19709
100
AcDbEntity
  8
寸法
 62
     0
 48
50.0
370
    -2
100
AcDbLine
 10
4929.300098913232
 20
5521.11510948588
 30
0.0
 11
6819.300098913223
 21
5521.11510948588
 31
0.0
  0
INSERT
  5
197BE
330
19709
100
AcDbEntity
  8
寸法
 62
     0
 48
50.0
370
    -2
100
AcDbBlockReference
  2
_DOTSMALL
 10
4929.300098913232
 20
5521.11510948588
 30
0.0
 41
100.0
 42
100.0
 43
100.0
 50
180.0
  0
INSERT
  5
197BF
330
19709
100
AcDbEntity
  8
寸法
 62
     0
 48
50.0
370
    -2
100
AcDbBlockReference
  2
_DOTSMALL
 10
6819.300098913223
 20
5521.11510948588
 30
0.0
 41
100.0
 42
100.0
 43
100.0
  0
MTEXT
  5
197C0
330
19709
100
AcDbEntity
  8
寸法
 62
     7
 48
50.0
100
AcDbMText
 10
5874.300098913227
 20
5621.115109485881
 30
0.0
 40
120.0
 41
0.0
 71
     5
 72
     1
  1
\A1;1890
  7
STYLE1
 73
     1
 44
1.0
1001
ACAD
1000
MTEXTBEGIN
1070
    73
1070
     1
1070
    44
1040
1.0
1070
    74
1070
     0
1000
MTEXTEND
  0
POINT
  5
197C1
330
19709
100
AcDbEntity
  8
DEFPOINTS
 62
     0
 48
50.0
100
AcDbPoint
 10
4929.300098913232
 20
4906.900975637163
 30
0.0
  0
POINT
  5
197C2
330
19709
100
AcDbEntity
  8
DEFPOINTS
 62
     0
 48
50.0
100
AcDbPoint
 10
6819.300098913223
 20
4906.90097563716
 30
0.0
  0
POINT
  5
197C3
330
19709
100
AcDbEntity
  8
DEFPOINTS
 62
     0
 48
50.0
100
AcDbPoint
 10
6819.300098913223
 20
5521.11510948588
 30
0.0
  0
ENDBLK
  5
19714
330
19709
100
AcDbEntity
  8
0
 48
50.0
100
AcDbBlockEnd
  0
BLOCK
  5
19749
330
1973D
100
AcDbEntity
  8
0
 48
50.0
100
AcDbBlockBegin
  2
*D28
 70
     1
 10
0.0
 20
0.0
 30
0.0
  3
*D28
  1

  0
LINE
  5
197A5
330
1973D
100
AcDbEntity
  8
寸法
 62
     0
 48
50.0
370
    -2
100
AcDbLine
 10
6819.300098913223
 20
4926.90097563716
 30
0.0
 11
6819.300098913223
 21
5371.52123506443
 31
0.0
  0
LINE
  5
197A6
330
1973D
100
AcDbEntity
  8
寸法
 62
     0
 48
50.0
370
    -2
100
AcDbLine
 10
6769.300098913223
 20
4926.900975637162
 30
0.0
 11
6769.300098913223
 21
5371.52123506443
 31
0.0
  0
LINE
  5
197A7
330
1973D
100
AcDbEntity
  8
寸法
 62
     0
 48
50.0
370
    -2
100
AcDbLine
 10
6769.300098913223
 20
5311.52123506443
 30
0.0
 11
6669.300098913223
 21
5311.52123506443
 31
0.0
  0
LINE
  5
197A8
330
1973D
100
AcDbEntity
  8
寸法
 62
     0
 48
50.0
370
    -2
100
AcDbLine
 10
6819.300098913223
 20
5311.52123506443
 30
0.0
 11
7238.832624381948
 21
5311.52123506443
 31
0.0
  0
LINE
  5
197A9
330
1973D
100
AcDbEntity
  8
寸法
 62
     0
 48
50.0
370
    -2
100
AcDbLine
 10
6769.300098913223
 20
5311.52123506443
 30
0.0
 11
6819.300098913223
 21
5311.52123506443
 31
0.0
  0
INSERT
  5
197AA
330
1973D
100
AcDbEntity
  8
寸法
 62
     0
 48
50.0
370
    -2
100
AcDbBlockReference
  2
_DOTSMALL
 10
6769.300098913223
 20
5311.52123506443
 30
0.0
 41
100.0
 42
100.0
 43
100.0
  0
INSERT
  5
197AB
330
1973D
100
AcDbEntity
  8
寸法
 62
     0
 48
50.0
370
    -2
100
AcDbBlockReference
  2
_DOTSMALL
 10
6819.300098913223
 20
5311.52123506443
 30
0.0
 41
100.0
 42
100.0
 43
100.0
 50
180.0
  0
MTEXT
  5
197AC
330
1973D
100
AcDbEntity
  8
寸法
 62
     7
 48
50.0
100
AcDbMText
 10
7132.78538028746
 20
5411.52123506443
 30
0.0
 40
120.0
 41
0.0
 71
     5
 72
     1
  1
\A1;50
  7
STYLE1
 73
     1
 44
1.0
1001
ACAD
1000
MTEXTBEGIN
1070
    73
1070
     1
1070
    44
1040
1.0
1070
    74
1070
     0
1000
MTEXTEND
  0
POINT
  5
197AD
330
1973D
100
AcDbEntity
  8
DEFPOINTS
 62
     0
 48
50.0
100
AcDbPoint
 10
6819.300098913223
 20
4906.90097563716
 30
0.0
  0
POINT
  5
197AE
330
1973D
100
AcDbEntity
  8
DEFPOINTS
 62
     0
 48
50.0
100
AcDbPoint
 10
6769.300098913223
 20
4906.900975637163
 30
0.0
  0
POINT
  5
197AF
330
1973D
100
AcDbEntity
  8
DEFPOINTS
 62
     0
 48
50.0
100
AcDbPoint
 10
6769.300098913223
 20
5311.52123506443
 30
0.0
  0
ENDBLK
  5
1974A
330
1973D
100
AcDbEntity
  8
0
 48
50.0
100
AcDbBlockEnd
  0
BLOCK
  5
19A68
330
19A5E
100
AcDbEntity
  8
0
 48
50.0
100
AcDbBlockBegin
  2
*D29
 70
     1
 10
0.0
 20
0.0
 30
0.0
  3
*D29
  1

  0
LINE
  5
19EB9
330
19A5E
100
AcDbEntity
  8
寸法
 62
     0
 48
50.0
370
    -2
100
AcDbLine
 10
8962.760445010754
 20
7702.104940021055
 30
0.0
 11
8962.760445010754
 21
7057.029921972831
 31
0.0
  0
LINE
  5
19EBA
330
19A5E
100
AcDbEntity
  8
寸法
 62
     0
 48
50.0
370
    -2
100
AcDbLine
 10
9912.760445010754
 20
7702.104940021055
 30
0.0
 11
9912.760445010754
 21
7057.029921972831
 31
0.0
  0
LINE
  5
19EBB
330
19A5E
100
AcDbEntity
  8
寸法
 62
     0
 48
50.0
370
    -2
100
AcDbLine
 10
8982.760445010754
 20
7097.029921972832
 30
0.0
 11
9892.760445010754
 21
7097.029921972832
 31
0.0
  0
INSERT
  5
19EBC
330
19A5E
100
AcDbEntity
  8
寸法
 62
     0
 48
50.0
370
    -2
100
AcDbBlockReference
  2
_DOT
 10
8962.760445010754
 20
7097.029921972832
 30
0.0
 41
20.0
 42
20.0
 43
20.0
 50
180.0
  0
INSERT
  5
19EBD
330
19A5E
100
AcDbEntity
  8
寸法
 62
     0
 48
50.0
370
    -2
100
AcDbBlockReference
  2
_DOT
 10
9912.760445010754
 20
7097.029921972832
 30
0.0
 41
20.0
 42
20.0
 43
20.0
  0
MTEXT
  5
19EBE
330
19A5E
100
AcDbEntity
  8
寸法
 62
     7
 48
50.0
100
AcDbMText
 10
9437.760445010754
 20
7289.029921972832
 30
0.0
 40
120.0
 41
0.0
 71
     5
 72
     1
  1
\A1;有効開口部間口\P950
  7
STYLE1
 73
     1
 44
1.0
1001
ACAD
1000
MTEXTBEGIN
1070
    73
1070
     1
1070
    44
1040
1.0
1070
    74
1070
     0
1000
MTEXTEND
  0
POINT
  5
19EBF
330
19A5E
100
AcDbEntity
  8
DEFPOINTS
 62
     0
 48
50.0
100
AcDbPoint
 10
8962.760445010754
 20
7722.104940021056
 30
0.0
  0
POINT
  5
19EC0
330
19A5E
100
AcDbEntity
  8
DEFPOINTS
 62
     0
 48
50.0
100
AcDbPoint
 10
9912.760445010754
 20
7722.104940021056
 30
0.0
  0
POINT
  5
19EC1
330
19A5E
100
AcDbEntity
  8
DEFPOINTS
 62
     0
 48
50.0
100
AcDbPoint
 10
9912.760445010754
 20
7097.029921972832
 30
0.0
  0
ENDBLK
  5
19A69
330
19A5E
100
AcDbEntity
  8
0
 48
50.0
100
AcDbBlockEnd
  0
BLOCK
  5
19D4F
330
19D45
100
AcDbEntity
  8
0
 48
50.0
100
AcDbBlockBegin
  2
*D30
 70
     1
 10
0.0
 20
0.0
 30
0.0
  3
*D30
  1

  0
LINE
  5
19EB0
330
19D45
100
AcDbEntity
  8
寸法
 62
     0
 48
50.0
370
    -2
100
AcDbLine
 10
8895.760445010784
 20
7779.104940021085
 30
0.0
 11
8895.760445010784
 21
6547.277149276182
 31
0.0
  0
LINE
  5
19EB1
330
19D45
100
AcDbEntity
  8
寸法
 62
     0
 48
50.0
370
    -2
100
AcDbLine
 10
10685.76044501076
 20
7779.104940021214
 30
0.0
 11
10685.76044501076
 21
6547.277149276182
 31
0.0
  0
LINE
  5
19EB2
330
19D45
100
AcDbEntity
  8
寸法
 62
     0
 48
50.0
370
    -2
100
AcDbLine
 10
8895.760445010784
 20
6607.277149276182
 30
0.0
 11
10685.76044501076
 21
6607.277149276182
 31
0.0
  0
INSERT
  5
19EB3
330
19D45
100
AcDbEntity
  8
寸法
 62
     0
 48
50.0
370
    -2
100
AcDbBlockReference
  2
_DOTSMALL
 10
8895.760445010784
 20
6607.277149276182
 30
0.0
 41
100.0
 42
100.0
 43
100.0
 50
180.0
  0
INSERT
  5
19EB4
330
19D45
100
AcDbEntity
  8
寸法
 62
     0
 48
50.0
370
    -2
100
AcDbBlockReference
  2
_DOTSMALL
 10
10685.76044501076
 20
6607.277149276182
 30
0.0
 41
100.0
 42
100.0
 43
100.0
  0
MTEXT
  5
19EB5
330
19D45
100
AcDbEntity
  8
寸法
 62
     7
 48
50.0
100
AcDbMText
 10
9778.907195342137
 20
6707.277149276182
 30
0.0
 40
120.0
 41
0.0
 71
     5
 72
     1
  1
\A1;1790
  7
STYLE1
 73
     1
 44
1.0
1001
ACAD
1000
MTEXTBEGIN
1070
    73
1070
     1
1070
    44
1040
1.0
1070
    74
1070
     0
1000
MTEXTEND
  0
POINT
  5
19EB6
330
19D45
100
AcDbEntity
  8
DEFPOINTS
 62
     0
 48
50.0
100
AcDbPoint
 10
8895.760445010784
 20
7799.104940021085
 30
0.0
  0
POINT
  5
19EB7
330
19D45
100
AcDbEntity
  8
DEFPOINTS
 62
     0
 48
50.0
100
AcDbPoint
 10
10685.76044501076
 20
7799.104940021215
 30
0.0
  0
POINT
  5
19EB8
330
19D45
100
AcDbEntity
  8
DEFPOINTS
 62
     0
 48
50.0
100
AcDbPoint
 10
10685.76044501076
 20
6607.277149276182
 30
0.0
  0
ENDBLK
  5
19D50
330
19D45
100
AcDbEntity
  8
0
 48
50.0
100
AcDbBlockEnd
  0
BLOCK
  5
19D5D
330
19D51
100
AcDbEntity
  8
0
 48
50.0
100
AcDbBlockBegin
  2
*D31
 70
     1
 10
0.0
 20
0.0
 30
0.0
  3
*D31
  1

  0
LINE
  5
19EA5
330
19D51
100
AcDbEntity
  8
寸法
 62
     0
 48
50.0
370
    -2
100
AcDbLine
 10
8875.760445010783
 20
7799.104940021085
 30
0.0
 11
8561.149199384066
 21
7799.104940021085
 31
0.0
  0
LINE
  5
19EA6
330
19D51
100
AcDbEntity
  8
寸法
 62
     0
 48
50.0
370
    -2
100
AcDbLine
 10
8903.76044501076
 20
7724.104940021085
 30
0.0
 11
8561.149199384066
 21
7724.104940021085
 31
0.0
  0
LINE
  5
19EA7
330
19D51
100
AcDbEntity
  8
寸法
 62
     0
 48
50.0
370
    -2
100
AcDbLine
 10
8601.149199384066
 20
7819.104940021086
 30
0.0
 11
8601.149199384066
 21
7839.104940021084
 31
0.0
  0
LINE
  5
19EA8
330
19D51
100
AcDbEntity
  8
寸法
 62
     0
 48
50.0
370
    -2
100
AcDbLine
 10
8601.149199384066
 20
7704.104940021085
 30
0.0
 11
8601.149199384066
 21
7483.134377272607
 31
0.0
  0
LINE
  5
19EA9
330
19D51
100
AcDbEntity
  8
寸法
 62
     0
 48
50.0
370
    -2
100
AcDbLine
 10
8601.149199384066
 20
7799.104940021085
 30
0.0
 11
8601.149199384066
 21
7724.104940021085
 31
0.0
  0
INSERT
  5
19EAA
330
19D51
100
AcDbEntity
  8
寸法
 62
     0
 48
50.0
370
    -2
100
AcDbBlockReference
  2
_DOT
 10
8601.149199384066
 20
7799.104940021085
 30
0.0
 41
20.0
 42
20.0
 43
20.0
 50
270.0
  0
INSERT
  5
19EAB
330
19D51
100
AcDbEntity
  8
寸法
 62
     0
 48
50.0
370
    -2
100
AcDbBlockReference
  2
_DOT
 10
8601.149199384066
 20
7724.104940021085
 30
0.0
 41
20.0
 42
20.0
 43
20.0
 50
90.0
  0
MTEXT
  5
19EAC
330
19D51
100
AcDbEntity
  8
寸法
 62
     7
 48
50.0
100
AcDbMText
 10
8509.149199384065
 20
7583.619658646847
 30
0.0
 40
120.0
 41
0.0
 71
     5
 72
     1
  1
\A1;75
  7
STYLE1
 11
0.0000000000000001
 21
1.0
 31
0.0
 73
     1
 44
1.0
1001
ACAD
1000
MTEXTBEGIN
1070
    73
1070
     1
1070
    44
1040
1.0
1070
    74
1070
     0
1000
MTEXTEND
  0
POINT
  5
19EAD
330
19D51
100
AcDbEntity
  8
DEFPOINTS
 62
     0
 48
50.0
100
AcDbPoint
 10
8895.760445010784
 20
7799.104940021085
 30
0.0
  0
POINT
  5
19EAE
330
19D51
100
AcDbEntity
  8
DEFPOINTS
 62
     0
 48
50.0
100
AcDbPoint
 10
8923.760445010762
 20
7724.104940021085
 30
0.0
  0
POINT
  5
19EAF
330
19D51
100
AcDbEntity
  8
DEFPOINTS
 62
     0
 48
50.0
100
AcDbPoint
 10
8601.149199384066
 20
7724.104940021085
 30
0.0
  0
ENDBLK
  5
19D5E
330
19D51
100
AcDbEntity
  8
0
 48
50.0
100
AcDbBlockEnd
  0
BLOCK
  5
19D69
330
19D5F
100
AcDbEntity
  8
0
 48
50.0
100
AcDbBlockBegin
  2
*D32
 70
     1
 10
0.0
 20
0.0
 30
0.0
  3
*D32
  1

  0
LINE
  5
19E9C
330
19D5F
100
AcDbEntity
  8
寸法
 62
     0
 48
50.0
370
    -2
100
AcDbLine
 10
8923.760445010755
 20
7702.104940021091
 30
0.0
 11
8923.760445010755
 21
6787.03467017031
 31
0.0
  0
LINE
  5
19E9D
330
19D5F
100
AcDbEntity
  8
寸法
 62
     0
 48
50.0
370
    -2
100
AcDbLine
 10
10657.76044501075
 20
7702.104940021088
 30
0.0
 11
10657.76044501075
 21
6787.03467017031
 31
0.0
  0
LINE
  5
19E9E
330
19D5F
100
AcDbEntity
  8
寸法
 62
     0
 48
50.0
370
    -2
100
AcDbLine
 10
8923.760445010755
 20
6847.034670170309
 30
0.0
 11
10657.76044501075
 21
6847.034670170309
 31
0.0
  0
INSERT
  5
19E9F
330
19D5F
100
AcDbEntity
  8
寸法
 62
     0
 48
50.0
370
    -2
100
AcDbBlockReference
  2
_DOTSMALL
 10
8923.760445010755
 20
6847.034670170309
 30
0.0
 41
100.0
 42
100.0
 43
100.0
 50
180.0
  0
INSERT
  5
19EA0
330
19D5F
100
AcDbEntity
  8
寸法
 62
     0
 48
50.0
370
    -2
100
AcDbBlockReference
  2
_DOTSMALL
 10
10657.76044501075
 20
6847.034670170309
 30
0.0
 41
100.0
 42
100.0
 43
100.0
  0
MTEXT
  5
19EA1
330
19D5F
100
AcDbEntity
  8
寸法
 62
     7
 48
50.0
100
AcDbMText
 10
9781.342188962575
 20
6947.034670170309
 30
0.0
 40
120.0
 41
0.0
 71
     5
 72
     1
  1
\A1;1734
  7
STYLE1
 73
     1
 44
1.0
1001
ACAD
1000
MTEXTBEGIN
1070
    73
1070
     1
1070
    44
1040
1.0
1070
    74
1070
     0
1000
MTEXTEND
  0
POINT
  5
19EA2
330
19D5F
100
AcDbEntity
  8
DEFPOINTS
 62
     0
 48
50.0
100
AcDbPoint
 10
8923.760445010755
 20
7722.10494002109
 30
0.0
  0
POINT
  5
19EA3
330
19D5F
100
AcDbEntity
  8
DEFPOINTS
 62
     0
 48
50.0
100
AcDbPoint
 10
10657.76044501075
 20
7722.104940021089
 30
0.0
  0
POINT
  5
19EA4
330
19D5F
100
AcDbEntity
  8
DEFPOINTS
 62
     0
 48
50.0
100
AcDbPoint
 10
10657.76044501075
 20
6847.034670170309
 30
0.0
  0
ENDBLK
  5
19D6A
330
19D5F
100
AcDbEntity
  8
0
 48
50.0
100
AcDbBlockEnd
  0
ENDSEC
  0
SECTION
  2
ENTITIES
  0
LINE
  5
10B57
330
747D
100
AcDbEntity
  8
補助
  6
PHANTOM
 62
   230
 48
50.0
100
AcDbLine
 10
139.9999999999995
 20
11409.6
 30
0.0
 11
16307.2
 21
11409.6
 31
0.0
  0
LINE
  5
10B59
330
747D
100
AcDbEntity
  8
仕様書枠
  6
Continuous
 48
50.0
100
AcDbLine
 10
13107.2
 20
1200.0
 30
0.0
 11
13107.2
 21
-0.0000000000000729
 31
0.0
  0
LINE
  5
10B5C
330
747D
100
AcDbEntity
  8
仕様書枠
 48
50.0
100
AcDbLine
 10
16307.2
 20
1200.0
 30
0.0
 11
16307.2
 21
-0.0000000000000909
 31
0.0
  0
LINE
  5
10B5D
330
747D
100
AcDbEntity
  8
仕様書枠
 48
50.0
100
AcDbLine
 10
140.0
 20
0.0
 30
0.0
 11
16307.2
 21
-0.0000000000000909
 31
0.0
  0
LINE
  5
10B5E
330
747D
100
AcDbEntity
  8
補助
  6
PHANTOM
 62
   230
 48
50.0
100
AcDbLine
 10
16307.2
 20
11409.6
 30
0.0
 11
16307.2
 21
1200.0
 31
0.0
  0
LINE
  5
10B6C
330
747D
100
AcDbEntity
  8
仕様書枠
 48
50.0
100
AcDbLine
 10
13107.2
 20
1200.0
 30
0.0
 11
16307.2
 21
1200.0
 31
0.0
  0
LINE
  5
10B6D
330
747D
100
AcDbEntity
  8
補助
  6
PHANTOM
 62
   230
 48
50.0
100
AcDbLine
 10
13107.2
 20
11409.6
 30
0.0
 11
13107.2
 21
4800.0
 31
0.0
  0
LINE
  5
10B6F
330
747D
100
AcDbEntity
  8
補助
  6
PHANTOM
 62
   230
 48
50.0
100
AcDbLine
 10
13107.2
 20
4800.0
 30
0.0
 11
16307.2
 21
4800.0
 31
0.0
  0
LINE
  5
10B72
330
747D
100
AcDbEntity
  8
文字
 62
     7
 48
50.0
100
AcDbLine
 10
13187.2
 20
400.0
 30
0.0
 11
16227.2
 21
400.0
 31
0.0
  0
TEXT
  5
10B73
330
747D
100
AcDbEntity
  8
文字
 62
     7
 48
50.0
100
AcDbText
 10
13162.9790565769
 20
895.0906074299405
 30
0.0
 40
200.0
  1
外 形 図
  7
STYLE2
100
AcDbText
  0
TEXT
  5
10B74
330
747D
100
AcDbEntity
  8
文字
 62
     7
 48
50.0
100
AcDbText
 10
13201.43669998441
 20
477.2740661031255
 30
0.0
 40
160.0
  1
機種名
  7
STYLE2
100
AcDbText
  0
TEXT
  5
10B76
330
747D
100
AcDbEntity
  8
文字
 62
     7
 48
50.0
100
AcDbText
 10
13209.4053442172
 20
76.09434707649343
 30
0.0
 40
100.0
  1
○床面積 ： 3.33㎡(1.00坪) 　
  7
STYLE2
100
AcDbText
  0
TEXT
  5
10B79
330
747D
100
AcDbEntity
  8
文字
 62
     7
 48
50.0
100
AcDbText
 10
14524.131837222
 20
1031.557706291228
 30
0.0
 40
100.0
  1
NO.06      <縮尺> S=1/40
  7
STYLE2
100
AcDbText
  0
LINE
  5
10B7B
330
747D
100
AcDbEntity
  8
仕様書枠
 48
50.0
100
AcDbLine
 10
13107.2
 20
800.0
 30
0.0
 11
14251.2
 21
800.0
 31
0.0
  0
LINE
  5
10B88
330
747D
100
AcDbEntity
  8
仕様書枠
  6
Continuous
 48
50.0
100
AcDbLine
 10
14251.2
 20
1200.0
 30
0.0
 11
14251.2
 21
800.0
 31
0.0
  0
TEXT
  5
14D2F
330
747D
100
AcDbEntity
  8
文字
 62
     7
 48
50.0
100
AcDbText
 10
14644.07818602837
 20
876.4448062548634
 30
0.0
 40
100.0
  1
～一般型・多雪地型～
  7
STYLE2
100
AcDbText
  0
DIMENSION
  5
17F7C
330
747D
100
AcDbEntity
  8
寸法
100
AcDbDimension
  2
*D2
 10
11220.93054077319
 20
4851.90097563716
 30
0.0
 11
11220.93054077319
 21
3814.157303066846
 31
0.0
 70
   160
 71
     5
 42
2020.000000000003
  3
INABA_S40G
100
AcDbAlignedDimension
 13
10685.76044501076
 23
2831.900975637158
 33
0.0
 14
10765.76044501075
 24
4851.90097563716
 34
0.0
 50
90.0
100
AcDbRotatedDimension
1001
ACAD
1000
DSTYLE
1002
{
1070
   174
1070
     0
1070
   272
1070
     1
1070
   288
1070
     0
1070
   341
1005
0
1002
}
  0
DIMENSION
  5
17FC5
330
747D
100
AcDbEntity
  8
寸法
100
AcDbDimension
  2
*D3
 10
7987.121063081406
 20
2731.900975637158
 30
0.0
 11
7987.121063081406
 21
2495.853731542668
 31
0.0
 70
   160
 71
     5
 42
100.0
  3
INABA_S40G
100
AcDbAlignedDimension
 13
8840.760445010765
 23
2831.900975637158
 33
0.0
 14
8272.107735852467
 24
2731.900975637158
 34
0.0
 50
90.0
100
AcDbRotatedDimension
1001
ACAD
1000
DSTYLE
1002
{
1070
   174
1070
     0
1070
   272
1070
     1
1070
   288
1070
     0
1070
   341
1005
0
1002
}
  0
DIMENSION
  5
17FC6
330
747D
100
AcDbEntity
  8
寸法
100
AcDbDimension
  2
*D4
 10
8272.107735852467
 20
2831.900975637158
 30
0.0
 11
8272.107735852467
 21
2525.853731542668
 31
0.0
 70
   160
 71
     5
 42
50.0
  3
INABA_S40G
100
AcDbAlignedDimension
 13
8895.760445010765
 23
2881.900975637158
 33
0.0
 14
8840.760445010765
 24
2831.900975637158
 34
0.0
 50
90.0
100
AcDbRotatedDimension
1001
ACAD
1000
DSTYLE
1002
{
1070
   174
1070
     0
1070
   272
1070
     1
1070
   288
1070
     0
1070
   341
1005
0
1002
}
  0
DIMENSION
  5
17FC7
330
747D
100
AcDbEntity
  8
寸法
100
AcDbDimension
  2
*D5
 10
8272.107735852467
 20
2881.900975637158
 30
0.0
 11
8272.107735852467
 21
3772.355274179115
 31
0.0
 70
   160
 71
     5
 42
1790.0
  3
INABA_S40G
100
AcDbAlignedDimension
 13
8895.760445010765
 23
4671.900975637157
 33
0.0
 14
8895.760445010765
 24
2881.900975637158
 34
0.0
 50
90.0
100
AcDbRotatedDimension
1001
ACAD
1000
DSTYLE
1002
{
1070
   174
1070
     0
1070
   272
1070
     1
1070
   288
1070
     0
1070
   341
1005
0
1002
}
  0
DIMENSION
  5
17FC8
330
747D
100
AcDbEntity
  8
寸法
100
AcDbDimension
  2
*D6
 10
7987.121063081406
 20
4906.900975637163
 30
0.0
 11
7987.121063081406
 21
3826.106853130268
 31
0.0
 70
   160
 71
     5
 42
2075.000000000005
  3
INABA_S40G
100
AcDbAlignedDimension
 13
8895.760445010765
 23
2831.900975637158
 33
0.0
 14
8835.760445010764
 24
4906.900975637163
 34
0.0
 50
90.0
100
AcDbRotatedDimension
1001
ACAD
1000
DSTYLE
1002
{
1070
   174
1070
     0
1070
   272
1070
     1
1070
   288
1070
     0
1070
   341
1005
0
1002
}
  0
ARC
  5
17FC9
330
747D
100
AcDbEntity
  8
部品1
100
AcDbCircle
 10
10751.3879808247
 20
4745.92473290295
 30
0.0
 40
0.7
100
AcDbArc
 50
275.0921697642102
 51
354.1866997667087
  0
ARC
  5
17FCA
330
747D
100
AcDbEntity
  8
部品1
100
AcDbCircle
 10
10762.24732657402
 20
4822.967987720873
 30
0.0
 40
0.7
100
AcDbArc
 50
275.0921697642102
 51
354.1866997665532
  0
ARC
  5
17FCB
330
747D
100
AcDbEntity
  8
部品1
100
AcDbCircle
 10
10762.57573181663
 20
4819.282590863784
 30
0.0
 40
3.0
100
AcDbArc
 50
95.09216976441896
 51
174.1866997665532
  0
ARC
  5
17FCC
330
747D
100
AcDbEntity
  8
部品1
100
AcDbCircle
 10
10751.7163860673
 20
4742.23933604586
 30
0.0
 40
3.0
100
AcDbArc
 50
95.0921697642102
 51
174.1866997665532
  0
ARC
  5
17FCD
330
747D
100
AcDbEntity
  8
部品1
 48
50.0
100
AcDbCircle
 10
10740.6882507922
 20
4732.648591441978
 30
0.0
 40
7.0
100
AcDbArc
 50
267.8377559869492
 51
354.1866997665532
  0
ARC
  5
17FCE
330
747D
100
AcDbEntity
  8
部品1
 48
50.0
100
AcDbCircle
 10
10758.01034725671
 20
4843.55113858415
 30
0.0
 40
7.0
100
AcDbArc
 50
354.1866997665013
 51
87.03587545303909
  0
LINE
  5
17FCF
330
747D
100
AcDbEntity
  8
部品1
 48
50.0
100
AcDbLine
 10
10748.73181439669
 20
4742.543197762763
 30
0.0
 11
10747.65225135695
 21
4731.939580769204
 31
0.0
  0
LINE
  5
17FD0
330
747D
100
AcDbEntity
  8
部品1
 48
50.0
100
AcDbLine
 10
10759.59116014601
 20
4819.586452580686
 30
0.0
 11
10752.08438088118
 21
4745.853831835675
 31
0.0
  0
LINE
  5
17FD1
330
747D
100
AcDbEntity
  8
部品1
 48
50.0
100
AcDbLine
 10
10764.97434782146
 20
4842.842127911375
 30
0.0
 11
10762.9437266305
 21
4822.897086653597
 31
0.0
  0
LINE
  5
17FD2
330
747D
100
AcDbEntity
  8
細線
 48
50.0
100
AcDbLine
 10
10732.76044501077
 20
4851.867954672454
 30
0.0
 11
10728.01276212276
 21
4726.12218218171
 31
0.0
  0
ARC
  5
17FD3
330
747D
100
AcDbEntity
  8
部品1
100
AcDbCircle
 10
8841.797536882131
 20
4785.715134596062
 30
0.0
 40
0.7
100
AcDbArc
 50
181.0932240292114
 51
260.187754031489
  0
ARC
  5
17FD4
330
747D
100
AcDbEntity
  8
部品1
100
AcDbCircle
 10
8837.024863284524
 20
4878.580912796181
 30
0.0
 40
0.7
100
AcDbArc
 50
181.0932240292114
 51
260.187754031489
  0
ARC
  5
17FD5
330
747D
100
AcDbEntity
  8
部品1
100
AcDbCircle
 10
8836.394308881502
 20
4874.935038258783
 30
0.0
 40
3.0
100
AcDbArc
 50
1.093224029263536
 51
80.18775403148891
  0
ARC
  5
17FD6
330
747D
100
AcDbEntity
  8
部品1
100
AcDbCircle
 10
8841.166982479107
 20
4782.069260058665
 30
0.0
 40
3.0
100
AcDbArc
 50
1.093224029315636
 51
80.18775403148671
  0
ARC
  5
17FD7
330
747D
100
AcDbEntity
  8
部品1
 48
50.0
100
AcDbCircle
 10
8851.36711485431
 20
4771.677016676183
 30
0.0
 40
7.0
100
AcDbArc
 50
181.0932240293156
 51
267.8377559869492
  0
ARC
  5
17FD8
330
747D
100
AcDbEntity
  8
部品1
 48
50.0
100
AcDbCircle
 10
8842.943456752214
 20
4898.62807620928
 30
0.0
 40
7.0
100
AcDbArc
 50
87.03587545303909
 51
181.0932240292635
  0
LINE
  5
17FD9
330
747D
100
AcDbEntity
  8
部品1
 48
50.0
100
AcDbLine
 10
8844.166436405538
 20
4782.126497661848
 30
0.0
 11
8844.368389025971
 21
4771.543462268755
 31
0.0
  0
LINE
  5
17FDA
330
747D
100
AcDbEntity
  8
部品1
 48
50.0
100
AcDbLine
 10
8839.393762807931
 20
4874.992275861966
 30
0.0
 11
8841.097664299297
 21
4785.701779155319
 31
0.0
  0
LINE
  5
17FDB
330
747D
100
AcDbEntity
  8
部品1
 48
50.0
100
AcDbLine
 10
8835.944730923875
 20
4898.49452180185
 30
0.0
 11
8836.324990701688
 21
4878.56755735544
 31
0.0
  0
LINE
  5
17FDC
330
747D
100
AcDbEntity
  8
細線
 48
50.0
100
AcDbLine
 10
8868.760445010769
 20
4904.300652012564
 30
0.0
 11
8863.471343455257
 21
4764.215019385209
 31
0.0
  0
LINE
  5
17FDD
330
747D
100
AcDbEntity
  8
細線
 48
50.0
100
AcDbLine
 10
8841.560343348866
 20
4785.056545780655
 30
0.0
 11
10751.5640077795
 21
4745.247226806163
 31
0.0
  0
LINE
  5
17FDE
330
747D
100
AcDbEntity
  8
細線
 48
50.0
100
AcDbLine
 10
8836.799868111581
 20
4877.91805747852
 30
0.0
 11
10762.43585285675
 21
4822.293852837691
 31
0.0
  0
LINE
  5
17FDF
330
747D
100
AcDbEntity
  8
部品1
100
AcDbLine
 10
8851.103009612721
 20
4764.682000706125
 30
0.0
 11
10740.42414555061
 21
4725.65357547192
 31
0.0
  0
LINE
  5
17FE0
330
747D
100
AcDbEntity
  8
部品1
100
AcDbLine
 10
8843.305431367729
 20
4905.618710971424
 30
0.0
 11
10758.37232187223
 21
4850.541773346296
 31
0.0
  0
LINE
  5
17FE1
330
747D
100
AcDbEntity
  8
部品1
 48
50.0
100
AcDbLine
 10
9640.760445010768
 20
5037.769114738438
 30
0.0
 11
9940.760445010766
 21
5021.569114738439
 31
0.0
  0
TEXT
  5
17FE2
330
747D
100
AcDbEntity
  8
部品1
 48
50.0
100
AcDbText
 10
10117.85329229862
 20
4936.151878672588
 30
0.0
 40
120.0
  1
54
 50
90.0
  7
STYLE1
100
AcDbText
  0
LINE
  5
17FE3
330
747D
100
AcDbEntity
  8
部品1
 48
50.0
100
AcDbLine
 10
9940.760445010766
 20
5037.769114738438
 30
0.0
 11
9940.760445010766
 21
5021.569114738439
 31
0.0
  0
LINE
  5
17FE4
330
747D
100
AcDbEntity
  8
部品1
 48
50.0
100
AcDbLine
 10
9640.760445010768
 20
5037.769114738438
 30
0.0
 11
9940.760445010766
 21
5037.769114738438
 31
0.0
  0
TEXT
  5
17FE5
330
747D
100
AcDbEntity
  8
部品1
 48
50.0
100
AcDbText
 10
9629.028280234493
 20
5073.653136890871
 30
0.0
 40
120.0
  1
1000
  7
STYLE1
100
AcDbText
  0
DIMENSION
  5
17FE6
330
747D
100
AcDbEntity
  8
寸法
 48
50.0
100
AcDbDimension
  2
*D7
 10
10765.76044501077
 20
5305.994144976631
 30
0.0
 11
10971.80768910525
 21
5305.994144976631
 31
0.0
 70
   160
 71
     5
 42
80.0
  3
INABA_S40G
100
AcDbAlignedDimension
 13
10685.76044501077
 23
4853.711655248812
 33
0.0
 14
10765.76044501077
 24
4851.900975637159
 34
0.0
100
AcDbRotatedDimension
1001
ACAD
1000
DSTYLE
1002
{
1070
   174
1070
     0
1070
   272
1070
     1
1070
   288
1070
     0
1070
   341
1005
0
1002
}
  0
DIMENSION
  5
17FE7
330
747D
100
AcDbEntity
  8
寸法
 48
50.0
100
AcDbDimension
  2
*D8
 10
8835.760445010768
 20
5522.520244595076
 30
0.0
 11
9741.566196261736
 21
5522.520244595076
 31
0.0
 70
   160
 71
     5
 42
1930.0
  3
INABA_S40G
100
AcDbAlignedDimension
 13
10765.76044501077
 23
4851.900975637159
 33
0.0
 14
8835.760445010768
 24
4906.900975637163
 34
0.0
100
AcDbRotatedDimension
1001
ACAD
1000
DSTYLE
1002
{
1070
   174
1070
     0
1070
   272
1070
     1
1070
   288
1070
     0
1070
   341
1005
0
1002
}
  0
DIMENSION
  5
17FE8
330
747D
100
AcDbEntity
  8
寸法
 48
50.0
100
AcDbDimension
  2
*D9
 10
8835.760445010768
 20
5305.994144976631
 30
0.0
 11
8526.122649735178
 21
5305.994144976631
 31
0.0
 70
   160
 71
     5
 42
60.0
  3
INABA_S40G
100
AcDbAlignedDimension
 13
8895.760445010768
 23
4902.902593760135
 33
0.0
 14
8835.760445010768
 24
4906.900975637163
 34
0.0
100
AcDbRotatedDimension
1001
ACAD
1000
DSTYLE
1002
{
1070
   174
1070
     0
1070
   272
1070
     1
1070
   288
1070
     0
1070
   341
1005
0
1002
}
  0
DIMENSION
  5
17FE9
330
747D
100
AcDbEntity
  8
寸法
 48
50.0
100
AcDbDimension
  2
*D10
 10
8895.760445010768
 20
5305.994144976631
 30
0.0
 11
9805.356093687247
 21
5305.994144976631
 31
0.0
 70
   160
  1
柱外寸法<>
 71
     5
 42
1790.0
  3
INABA_S40G
100
AcDbAlignedDimension
 13
10685.76044501077
 23
4853.711655248812
 33
0.0
 14
8895.760445010768
 24
4902.902593760135
 34
0.0
100
AcDbRotatedDimension
1001
ACAD
1000
DSTYLE
1002
{
1070
   174
1070
     0
1070
   272
1070
     1
1070
   288
1070
     0
1070
   341
1005
0
1002
}
  0
TEXT
  5
17FEA
330
747D
100
AcDbEntity
  8
文字
 62
     7
 48
50.0
100
AcDbText
 10
13209.4053442172
 20
228.5435242569015
 30
0.0
 40
100.0
  1
○有効開口寸法 ： 950×1725(mm)
  7
STYLE2
100
AcDbText
  0
LINE
  5
17FEB
330
747D
100
AcDbEntity
  8
Ｇ．Ｌ
100
AcDbLine
 10
3809.659847550102
 20
2731.900975637158
 30
0.0
 11
11319.78201877952
 21
2731.900975637158
 31
0.0
  0
LINE
  5
17FED
330
747D
100
AcDbEntity
  8
部品1
100
AcDbLine
 10
8895.760445010765
 20
2831.900975637158
 30
0.0
 11
10685.76044501076
 21
2831.900975637158
 31
0.0
  0
LINE
  5
17FEE
330
747D
100
AcDbEntity
  8
部品1
100
AcDbLine
 10
8895.760445010765
 20
4671.900975637157
 30
0.0
 11
10685.76044501076
 21
4671.900975637157
 31
0.0
  0
LINE
  5
17FEF
330
747D
100
AcDbEntity
  8
部品1
100
AcDbLine
 10
8895.760445010765
 20
4763.759495079404
 30
0.0
 11
8895.760445010765
 21
2731.900975637158
 31
0.0
  0
LINE
  5
17FF0
330
747D
100
AcDbEntity
  8
部品1
100
AcDbLine
 10
10685.76044501077
 20
4726.782784323164
 30
0.0
 11
10685.76044501076
 21
2731.900975637158
 31
0.0
  0
LINE
  5
17FF1
330
747D
100
AcDbEntity
  8
部品1
100
AcDbLine
 10
10285.76044501076
 20
2831.900975637158
 30
0.0
 11
10285.76044501076
 21
2731.900975637158
 31
0.0
  0
LINE
  5
17FF2
330
747D
100
AcDbEntity
  8
部品1
100
AcDbLine
 10
9295.760445010765
 20
2831.900975637158
 30
0.0
 11
9295.760445010765
 21
2731.900975637158
 31
0.0
  0
LINE
  5
17FF3
330
747D
100
AcDbEntity
  8
部品1
 48
50.0
100
AcDbLine
 10
9690.760445010766
 20
2831.900975637158
 30
0.0
 11
9690.760445010766
 21
2731.900975637158
 31
0.0
  0
LINE
  5
17FF4
330
747D
100
AcDbEntity
  8
部品1
 48
50.0
100
AcDbLine
 10
9890.760445010766
 20
2831.900975637158
 30
0.0
 11
9890.760445010766
 21
2731.900975637158
 31
0.0
  0
LINE
  5
17FF5
330
747D
100
AcDbEntity
  8
部品1
100
AcDbLine
 10
10690.76044501076
 20
2876.90097563716
 30
0.0
 11
10690.76044501076
 21
2731.900975637158
 31
0.0
  0
LINE
  5
17FF6
330
747D
100
AcDbEntity
  8
破線
 48
5.0
100
AcDbLine
 10
10785.76044501076
 20
2531.900975637156
 30
0.0
 11
10585.76044501076
 21
2531.900975637156
 31
0.0
  0
LINE
  5
17FF7
330
747D
100
AcDbEntity
  8
破線
 48
5.0
100
AcDbLine
 10
10585.76044501076
 20
2731.900975637158
 30
0.0
 11
10585.76044501076
 21
2531.900975637156
 31
0.0
  0
LINE
  5
17FF8
330
747D
100
AcDbEntity
  8
破線
 48
5.0
100
AcDbLine
 10
10785.76044501076
 20
2731.900975637158
 30
0.0
 11
10785.76044501076
 21
2531.900975637156
 31
0.0
  0
LINE
  5
17FF9
330
747D
100
AcDbEntity
  8
破線
 48
5.0
100
AcDbLine
 10
10710.76044501076
 20
2576.900975637158
 30
0.0
 11
10690.76044501076
 21
2576.900975637158
 31
0.0
  0
LINE
  5
17FFA
330
747D
100
AcDbEntity
  8
部品1
100
AcDbLine
 10
8890.760445010766
 20
2876.90097563716
 30
0.0
 11
8890.760445010766
 21
2731.900975637158
 31
0.0
  0
LINE
  5
17FFB
330
747D
100
AcDbEntity
  8
破線
 48
5.0
100
AcDbLine
 10
8795.760445010765
 20
2531.900975637158
 30
0.0
 11
8995.760445010766
 21
2531.900975637158
 31
0.0
  0
LINE
  5
17FFC
330
747D
100
AcDbEntity
  8
破線
 48
5.0
100
AcDbLine
 10
8795.760445010765
 20
2731.900975637159
 30
0.0
 11
8795.760445010765
 21
2531.900975637158
 31
0.0
  0
LINE
  5
17FFD
330
747D
100
AcDbEntity
  8
破線
 48
5.0
100
AcDbLine
 10
8870.760445010764
 20
2576.90097563716
 30
0.0
 11
8890.760445010768
 21
2576.90097563716
 31
0.0
  0
LINE
  5
17FFE
330
747D
100
AcDbEntity
  8
破線
 48
5.0
100
AcDbLine
 10
8995.760445010764
 20
2731.900975637159
 30
0.0
 11
8995.760445010764
 21
2531.900975637158
 31
0.0
  0
LINE
  5
18034
330
747D
100
AcDbEntity
  8
破線
 48
5.0
100
AcDbLine
 10
10690.76044501076
 20
2731.900975637158
 30
0.0
 11
10690.76044501076
 21
2576.900975637158
 31
0.0
  0
LINE
  5
18035
330
747D
100
AcDbEntity
  8
破線
 48
5.0
100
AcDbLine
 10
8890.760445010766
 20
2731.900975637158
 30
0.0
 11
8890.760445010766
 21
2576.90097563716
 31
0.0
  0
DIMENSION
  5
18036
330
747D
100
AcDbEntity
  8
寸法
 48
50.0
100
AcDbDimension
  2
*D11
 10
8795.760445010765
 20
2245.85364633678
 30
0.0
 11
8895.760445010765
 21
2245.85364633678
 31
0.0
 70
   160
 71
     5
 42
200.0000000000018
  3
INABA_S40G
100
AcDbAlignedDimension
 13
8995.760445010766
 23
2531.900975637156
 33
0.0
 14
8795.760445010765
 24
2531.900975637156
 34
0.0
100
AcDbRotatedDimension
  0
TEXT
  5
18037
330
747D
100
AcDbEntity
  8
部品1
100
AcDbText
 10
9499.550515634499
 20
1849.969183441225
 30
0.0
 40
135.0
  1
正面図
  7
STYLE2
100
AcDbText
  0
LINE
  5
1803A
330
747D
100
AcDbEntity
  8
部品1
100
AcDbLine
 10
8895.760445010765
 20
2881.900975637162
 30
0.0
 11
8923.760445010765
 21
2881.900975637162
 31
0.0
  0
LINE
  5
1804C
330
747D
100
AcDbEntity
  8
部品1
100
AcDbLine
 10
10630.76044501076
 20
4671.900975637157
 30
0.0
 11
10630.76044501076
 21
4666.900975637157
 31
0.0
  0
LINE
  5
1804D
330
747D
100
AcDbEntity
  8
部品1
100
AcDbLine
 10
8950.760445010763
 20
4671.900975637153
 30
0.0
 11
8950.760445010763
 21
4666.900975637157
 31
0.0
  0
LINE
  5
18050
330
747D
100
AcDbEntity
  8
部品1
 48
50.0
100
AcDbLine
 10
8923.760445010765
 20
2831.900975637157
 30
0.0
 11
10657.76044501076
 21
2831.900975637157
 31
0.0
  0
LINE
  5
18051
330
747D
100
AcDbEntity
  8
部品1
100
AcDbLine
 10
10657.76044501076
 20
2881.900975637178
 30
0.0
 11
10685.76044501076
 21
2881.900975637178
 31
0.0
  0
LINE
  5
18056
330
747D
100
AcDbEntity
  8
部品1
100
AcDbLine
 10
9409.025111896545
 20
2042.862712659749
 30
0.0
 11
9409.025111896545
 21
1802.970391114216
 31
0.0
  0
LINE
  5
18057
330
747D
100
AcDbEntity
  8
部品1
100
AcDbLine
 10
9409.025111896545
 20
1802.970391114216
 30
0.0
 11
10172.49577812498
 21
1802.970391114216
 31
0.0
  0
LINE
  5
18058
330
747D
100
AcDbEntity
  8
部品1
100
AcDbLine
 10
10172.49577812498
 20
1802.970391114216
 30
0.0
 11
10172.49577812498
 21
2042.862712659749
 31
0.0
  0
LINE
  5
18059
330
747D
100
AcDbEntity
  8
部品1
100
AcDbLine
 10
10172.49577812498
 20
2042.862712659749
 30
0.0
 11
9409.025111896545
 21
2042.862712659749
 31
0.0
  0
TEXT
  5
1805E
330
747D
100
AcDbEntity
  8
文字
 62
     7
 48
50.0
100
AcDbText
 10
13248.77747366447
 20
8380.013745883728
 30
0.0
 40
100.0
  1
17
  7
STYLE1
100
AcDbText
  0
TEXT
  5
1805F
330
747D
100
AcDbEntity
  8
文字
 62
     7
 48
50.0
100
AcDbText
 10
13248.77747366447
 20
8550.013745883729
 30
0.0
 40
100.0
  1
16
  7
STYLE1
100
AcDbText
  0
TEXT
  5
18060
330
747D
100
AcDbEntity
  8
文字
 62
     7
 48
50.0
100
AcDbText
 10
15022.63965474517
 20
9060.013745883725
 30
0.0
 40
100.0
  1
F12            1.0
  7
STYLE1
100
AcDbText
  0
TEXT
  5
18061
330
747D
100
AcDbEntity
  8
文字
 62
     7
 48
50.0
100
AcDbText
 10
13583.11819016569
 20
9060.013745883733
 30
0.0
 40
100.0
  1
壁面扉枠左右
  7
STYLE1
100
AcDbText
  0
TEXT
  5
18062
330
747D
100
AcDbEntity
  8
文字
 62
     7
 48
50.0
100
AcDbText
 10
15022.63965474517
 20
9230.013745883725
 30
0.0
 40
100.0
  1
F12            1.0
  7
STYLE1
100
AcDbText
  0
TEXT
  5
18063
330
747D
100
AcDbEntity
  8
文字
 62
     7
 48
50.0
100
AcDbText
 10
15022.63965474515
 20
9400.013745883727
 30
0.0
 40
100.0
  1
F12            0.7
  7
STYLE1
100
AcDbText
  0
TEXT
  5
18064
330
747D
100
AcDbEntity
  8
文字
 62
     7
 48
50.0
100
AcDbText
 10
13583.11819016569
 20
9230.013745883733
 30
0.0
 40
100.0
  1
壁面扉敷居
  7
STYLE1
100
AcDbText
  0
TEXT
  5
18065
330
747D
100
AcDbEntity
  8
文字
 62
     7
 48
50.0
100
AcDbText
 10
13583.11819016569
 20
9400.013745883729
 30
0.0
 40
100.0
  1
壁面扉鴨居
  7
STYLE1
100
AcDbText
  0
LINE
  5
18066
330
747D
100
AcDbEntity
  8
仕様書枠
 48
50.0
100
AcDbLine
 10
16307.19999999999
 20
8689.600000000003
 30
0.0
 11
13127.2
 21
8689.600000000005
 31
0.0
  0
LINE
  5
18067
330
747D
100
AcDbEntity
  8
仕様書枠
 48
50.0
100
AcDbLine
 10
16307.19999999999
 20
8519.600000000004
 30
0.0
 11
13127.2
 21
8519.600000000005
 31
0.0
  0
TEXT
  5
18068
330
747D
100
AcDbEntity
  8
文字
 62
     7
 48
50.0
100
AcDbText
 10
13583.11819016569
 20
8380.013745883728
 30
0.0
 40
100.0
  1
アンカープレート
  7
STYLE1
100
AcDbText
  0
TEXT
  5
18069
330
747D
100
AcDbEntity
  8
文字
 62
     7
 48
50.0
100
AcDbText
 10
15022.63965474515
 20
8380.013745883724
 30
0.0
 40
100.0
  1
F12            2.3
  7
STYLE1
100
AcDbText
  0
LINE
  5
1806A
330
747D
100
AcDbEntity
  8
仕様書枠
 48
50.0
100
AcDbLine
 10
16307.2
 20
10049.6
 30
0.0
 11
13127.2
 21
10049.6
 31
0.0
  0
LINE
  5
1806B
330
747D
100
AcDbEntity
  8
仕様書枠
 48
50.0
100
AcDbLine
 10
16307.2
 20
11409.59999999999
 30
0.0
 11
13127.2
 21
11409.6
 31
0.0
  0
LINE
  5
1806C
330
747D
100
AcDbEntity
  8
仕様書枠
 48
50.0
100
AcDbLine
 10
16307.19999999999
 20
8009.600000000004
 30
0.0
 11
16307.2
 21
11409.6
 31
0.0
  0
LINE
  5
1806D
330
747D
100
AcDbEntity
  8
仕様書枠
 48
50.0
100
AcDbLine
 10
14785.2
 20
11409.59999999999
 30
0.0
 11
14785.2
 21
8349.600000000004
 31
0.0
  0
LINE
  5
1806E
330
747D
100
AcDbEntity
  8
仕様書枠
 48
50.0
100
AcDbLine
 10
13490.2
 20
11409.59999999999
 30
0.0
 11
13490.20000000001
 21
8349.600000000007
 31
0.0
  0
LINE
  5
1806F
330
747D
100
AcDbEntity
  8
仕様書枠
 48
50.0
100
AcDbLine
 10
16307.2
 20
11239.59999999999
 30
0.0
 11
13127.2
 21
11239.6
 31
0.0
  0
LINE
  5
18070
330
747D
100
AcDbEntity
  8
仕様書枠
 48
50.0
100
AcDbLine
 10
16307.2
 20
10899.6
 30
0.0
 11
13127.2
 21
10899.6
 31
0.0
  0
LINE
  5
18071
330
747D
100
AcDbEntity
  8
仕様書枠
 48
50.0
100
AcDbLine
 10
16307.2
 20
11069.59999999999
 30
0.0
 11
13127.2
 21
11069.6
 31
0.0
  0
LINE
  5
18072
330
747D
100
AcDbEntity
  8
仕様書枠
 48
50.0
100
AcDbLine
 10
16307.19999999999
 20
10559.6
 30
0.0
 11
13127.2
 21
10559.6
 31
0.0
  0
LINE
  5
18073
330
747D
100
AcDbEntity
  8
仕様書枠
 48
50.0
100
AcDbLine
 10
16307.19999999999
 20
10389.6
 30
0.0
 11
13127.2
 21
10389.6
 31
0.0
  0
LINE
  5
18074
330
747D
100
AcDbEntity
  8
仕様書枠
 48
50.0
100
AcDbLine
 10
16307.19999999999
 20
10729.59999999999
 30
0.0
 11
13127.2
 21
10729.6
 31
0.0
  0
TEXT
  5
18075
330
747D
100
AcDbEntity
  8
文字
 62
     7
 48
50.0
100
AcDbText
 10
13197.42518560407
 20
11270.01374588372
 30
0.0
 40
100.0
  1
品番
  7
STYLE1
100
AcDbText
  0
TEXT
  5
18076
330
747D
100
AcDbEntity
  8
文字
 62
     7
 48
50.0
100
AcDbText
 10
13271.19032244792
 20
11100.01374588373
 30
0.0
 40
100.0
  1
1
  7
STYLE1
100
AcDbText
  0
TEXT
  5
18077
330
747D
100
AcDbEntity
  8
文字
 62
     7
 48
50.0
100
AcDbText
 10
13271.19032244792
 20
10930.01374588373
 30
0.0
 40
100.0
  1
2
  7
STYLE1
100
AcDbText
  0
TEXT
  5
18078
330
747D
100
AcDbEntity
  8
文字
 62
     7
 48
50.0
100
AcDbText
 10
13271.19032244792
 20
10590.01374588373
 30
0.0
 40
100.0
  1
4
  7
STYLE1
100
AcDbText
  0
TEXT
  5
18079
330
747D
100
AcDbEntity
  8
文字
 62
     7
 48
50.0
100
AcDbText
 10
13271.19032244792
 20
10760.01374588373
 30
0.0
 40
100.0
  1
3
  7
STYLE1
100
AcDbText
  0
TEXT
  5
1807A
330
747D
100
AcDbEntity
  8
文字
 62
     7
 48
50.0
100
AcDbText
 10
13732.03840939434
 20
11270.01374588372
 30
0.0
 40
100.0
  1
部　　品　　名
  7
STYLE1
100
AcDbText
  0
TEXT
  5
1807B
330
747D
100
AcDbEntity
  8
文字
 62
     7
 48
50.0
100
AcDbText
 10
14859.79774614482
 20
11270.01374588372
 30
0.0
 40
100.0
  1
材料（材質）　　単位mm
  7
STYLE1
100
AcDbText
  0
TEXT
  5
1807C
330
747D
100
AcDbEntity
  8
文字
 62
     7
 48
50.0
100
AcDbText
 10
13583.11819016569
 20
11100.01374588372
 30
0.0
 40
100.0
  1
土台枠
  7
STYLE1
100
AcDbText
  0
TEXT
  5
1807D
330
747D
100
AcDbEntity
  8
文字
 62
     7
 48
50.0
100
AcDbText
 10
13583.1181901657
 20
10760.01374588372
 30
0.0
 40
100.0
  1
柱
  7
STYLE1
100
AcDbText
  0
TEXT
  5
1807E
330
747D
100
AcDbEntity
  8
文字
 62
     7
 48
50.0
100
AcDbText
 10
13583.11819016569
 20
10420.01374588373
 30
0.0
 40
100.0
  1
桁前後
  7
STYLE1
100
AcDbText
  0
TEXT
  5
1807F
330
747D
100
AcDbEntity
  8
文字
 62
     7
 48
50.0
100
AcDbText
 10
13271.19032244792
 20
10420.01374588372
 30
0.0
 40
100.0
  1
5
  7
STYLE1
100
AcDbText
  0
TEXT
  5
18080
330
747D
100
AcDbEntity
  8
文字
 62
     7
 48
50.0
100
AcDbText
 10
13583.11819016569
 20
10250.01374588373
 30
0.0
 40
100.0
  1
妻板左右
  7
STYLE1
100
AcDbText
  0
TEXT
  5
18081
330
747D
100
AcDbEntity
  8
文字
 62
     7
 48
50.0
100
AcDbText
 10
13248.77747366447
 20
9570.013745883727
 30
0.0
 40
100.0
  1
10
  7
STYLE1
100
AcDbText
  0
TEXT
  5
18082
330
747D
100
AcDbEntity
  8
文字
 62
     7
 48
50.0
100
AcDbText
 10
13583.11819016568
 20
9570.013745883729
 30
0.0
 40
100.0
  1
壁パネル
  7
STYLE1
100
AcDbText
  0
TEXT
  5
18083
330
747D
100
AcDbEntity
  8
文字
 62
     7
 48
50.0
100
AcDbText
 10
13583.11819016569
 20
9910.013745883727
 30
0.0
 40
100.0
  1
屋根パネル
  7
STYLE1
100
AcDbText
  0
TEXT
  5
18084
330
747D
100
AcDbEntity
  8
文字
 62
     7
 48
50.0
100
AcDbText
 10
13583.11819016569
 20
10080.01374588372
 30
0.0
 40
100.0
  1
鼻隠シ前後
  7
STYLE1
100
AcDbText
  0
TEXT
  5
18085
330
747D
100
AcDbEntity
  8
文字
 62
     7
 48
50.0
100
AcDbText
 10
13271.19032244792
 20
9910.01374588373
 30
0.0
 40
100.0
  1
8
  7
STYLE1
100
AcDbText
  0
TEXT
  5
18086
330
747D
100
AcDbEntity
  8
文字
 62
     7
 48
50.0
100
AcDbText
 10
13271.19032244792
 20
9740.013745883729
 30
0.0
 40
100.0
  1
9
  7
STYLE1
100
AcDbText
  0
TEXT
  5
18087
330
747D
100
AcDbEntity
  8
文字
 62
     7
 48
50.0
100
AcDbText
 10
13271.19032244792
 20
10080.01374588373
 30
0.0
 40
100.0
  1
7
  7
STYLE1
100
AcDbText
  0
TEXT
  5
18088
330
747D
100
AcDbEntity
  8
文字
 62
     7
 48
50.0
100
AcDbText
 10
13271.19032244792
 20
10250.01374588373
 30
0.0
 40
100.0
  1
6
  7
STYLE1
100
AcDbText
  0
LINE
  5
18089
330
747D
100
AcDbEntity
  8
仕様書枠
 48
50.0
100
AcDbLine
 10
16307.19999999999
 20
9709.6
 30
0.0
 11
13127.2
 21
9709.600000000001
 31
0.0
  0
LINE
  5
1808A
330
747D
100
AcDbEntity
  8
仕様書枠
 48
50.0
100
AcDbLine
 10
16307.19999999999
 20
9369.599999999998
 30
0.0
 11
13127.2
 21
9369.600000000001
 31
0.0
  0
LINE
  5
1808B
330
747D
100
AcDbEntity
  8
仕様書枠
 48
50.0
100
AcDbLine
 10
16307.19999999999
 20
9539.599999999998
 30
0.0
 11
13127.2
 21
9539.6
 31
0.0
  0
LINE
  5
1808C
330
747D
100
AcDbEntity
  8
仕様書枠
 48
50.0
100
AcDbLine
 10
16307.2
 20
10219.6
 30
0.0
 11
13127.2
 21
10219.6
 31
0.0
  0
LINE
  5
1808D
330
747D
100
AcDbEntity
  8
仕様書枠
 48
50.0
100
AcDbLine
 10
16307.2
 20
9879.599999999999
 30
0.0
 11
13127.2
 21
9879.600000000001
 31
0.0
  0
TEXT
  5
1808E
330
747D
100
AcDbEntity
  8
文字
 62
     7
 48
50.0
100
AcDbText
 10
13248.77747366447
 20
9400.013745883727
 30
0.0
 40
100.0
  1
11
  7
STYLE1
100
AcDbText
  0
LINE
  5
1808F
330
747D
100
AcDbEntity
  8
仕様書枠
 48
50.0
100
AcDbLine
 10
16307.19999999999
 20
9199.599999999998
 30
0.0
 11
13127.2
 21
9199.600000000001
 31
0.0
  0
LINE
  5
18090
330
747D
100
AcDbEntity
  8
仕様書枠
 48
50.0
100
AcDbLine
 10
16307.19999999999
 20
8859.6
 30
0.0
 11
13127.2
 21
8859.600000000002
 31
0.0
  0
TEXT
  5
18091
330
747D
100
AcDbEntity
  8
文字
 62
     7
 48
50.0
100
AcDbText
 10
13248.77747366448
 20
9060.013745883727
 30
0.0
 40
100.0
  1
13
  7
STYLE1
100
AcDbText
  0
TEXT
  5
18092
330
747D
100
AcDbEntity
  8
文字
 62
     7
 48
50.0
100
AcDbText
 10
13248.77747366448
 20
9230.013745883727
 30
0.0
 40
100.0
  1
12
  7
STYLE1
100
AcDbText
  0
TEXT
  5
18093
330
747D
100
AcDbEntity
  8
文字
 62
     7
 48
50.0
100
AcDbText
 10
15022.63965474517
 20
11100.01374588372
 30
0.0
 40
100.0
  1
F12            1.2
  7
STYLE1
100
AcDbText
  0
TEXT
  5
18094
330
747D
100
AcDbEntity
  8
文字
 62
     7
 48
50.0
100
AcDbText
 10
15022.63965474518
 20
10760.01374588372
 30
0.0
 40
100.0
  1
F12            1.0
  7
STYLE1
100
AcDbText
  0
TEXT
  5
18095
330
747D
100
AcDbEntity
  8
文字
 62
     7
 48
50.0
100
AcDbText
 10
15022.63965474516
 20
10420.01374588372
 30
0.0
 40
100.0
  1
Y10            1.0
  7
STYLE1
100
AcDbText
  0
TEXT
  5
18096
330
747D
100
AcDbEntity
  8
文字
 62
     7
 48
50.0
100
AcDbText
 10
15022.63965474516
 20
10250.01374588372
 30
0.0
 40
100.0
  1
Y10            0.7
  7
STYLE1
100
AcDbText
  0
TEXT
  5
18097
330
747D
100
AcDbEntity
  8
文字
 62
     7
 48
50.0
100
AcDbText
 10
15022.63965474516
 20
10080.01374588372
 30
0.0
 40
100.0
  1
Y10            0.7
  7
STYLE1
100
AcDbText
  0
TEXT
  5
18098
330
747D
100
AcDbEntity
  8
文字
 62
     7
 48
50.0
100
AcDbText
 10
15022.63965474517
 20
9910.013745883725
 30
0.0
 40
100.0
  1
Y10            0.5
  7
STYLE1
100
AcDbText
  0
TEXT
  5
18099
330
747D
100
AcDbEntity
  8
文字
 62
     7
 48
50.0
100
AcDbText
 10
15022.63965474515
 20
9570.013745883725
 30
0.0
 40
100.0
  1
F12            0.6
  7
STYLE1
100
AcDbText
  0
LINE
  5
1809A
330
747D
100
AcDbEntity
  8
仕様書枠
 48
50.0
100
AcDbLine
 10
16307.19999999999
 20
8349.600000000004
 30
0.0
 11
13127.19999999999
 21
8349.600000000007
 31
0.0
  0
LINE
  5
1809B
330
747D
100
AcDbEntity
  8
仕様書枠
 48
50.0
100
AcDbLine
 10
16307.19999999999
 20
8179.600000000004
 30
0.0
 11
13127.19999999999
 21
8179.600000000005
 31
0.0
  0
TEXT
  5
1809C
330
747D
100
AcDbEntity
  8
文字
 62
     7
 48
50.0
100
AcDbText
 10
13229.83081656554
 20
8210.013745883733
 30
0.0
 40
100.0
  1
F12→溶融亜鉛めっき鋼板(JIS G 3302)
  7
STYLE1
100
AcDbText
  0
TEXT
  5
1809D
330
747D
100
AcDbEntity
  8
文字
 62
     7
 48
50.0
100
AcDbText
 10
13229.83081656554
 20
8040.013745883731
 30
0.0
 40
100.0
  1
Y10→溶融亜鉛-5％アルミニウム合金めっき鋼板(JIS G 3317)
 41
0.9
  7
STYLE1
100
AcDbText
  0
LINE
  5
1809E
330
747D
100
AcDbEntity
  8
仕様書枠
 48
50.0
100
AcDbLine
 10
13127.2
 20
11409.6
 30
0.0
 11
13127.19999999999
 21
8009.600000000006
 31
0.0
  0
LINE
  5
1809F
330
747D
100
AcDbEntity
  8
仕様書枠
 48
50.0
100
AcDbLine
 10
16307.19999999999
 20
9029.6
 30
0.0
 11
13127.2
 21
9029.600000000002
 31
0.0
  0
TEXT
  5
180A0
330
747D
100
AcDbEntity
  8
文字
 62
     7
 48
50.0
100
AcDbText
 10
13583.1181901657
 20
10590.01374588372
 30
0.0
 40
100.0
  1
床パネル
 41
0.9
  7
STYLE1
100
AcDbText
  0
TEXT
  5
180A1
330
747D
100
AcDbEntity
  8
文字
 62
     7
 48
50.0
100
AcDbText
 10
13583.11819016569
 20
10930.01374588372
 30
0.0
 40
100.0
  1
根太
  7
STYLE1
100
AcDbText
  0
TEXT
  5
180A2
330
747D
100
AcDbEntity
  8
文字
 62
     7
 48
50.0
100
AcDbText
 10
13248.77747366448
 20
8890.013745883727
 30
0.0
 40
100.0
  1
14
  7
STYLE1
100
AcDbText
  0
TEXT
  5
180A3
330
747D
100
AcDbEntity
  8
文字
 62
     7
 48
50.0
100
AcDbText
 10
15022.63965474516
 20
10930.01374588372
 30
0.0
 40
100.0
  1
F12            1.2
  7
STYLE1
100
AcDbText
  0
TEXT
  5
180A4
330
747D
100
AcDbEntity
  8
文字
 62
     7
 48
50.0
100
AcDbText
 10
15022.63965474517
 20
10590.01374588372
 30
0.0
 40
100.0
  1
F12            1.0
  7
STYLE1
100
AcDbText
  0
TEXT
  5
180A5
330
747D
100
AcDbEntity
  8
文字
 62
     7
 48
50.0
100
AcDbText
 10
15022.63965474515
 20
8890.013745883727
 30
0.0
 40
100.0
  1
F12            0.7
  7
STYLE1
100
AcDbText
  0
TEXT
  5
180A6
330
747D
100
AcDbEntity
  8
文字
 62
     7
 48
50.0
100
AcDbText
 10
13583.11819016568
 20
8890.013745883731
 30
0.0
 40
100.0
  1
正面パネル
  7
STYLE1
100
AcDbText
  0
TEXT
  5
180A7
330
747D
100
AcDbEntity
  8
文字
 62
     7
 48
50.0
100
AcDbText
 10
15022.63965474516
 20
8720.013745883727
 30
0.0
 40
100.0
  1
F12            0.8
  7
STYLE1
100
AcDbText
  0
TEXT
  5
180A8
330
747D
100
AcDbEntity
  8
文字
 62
     7
 48
50.0
100
AcDbText
 10
13583.11819016569
 20
8720.013745883731
 30
0.0
 40
100.0
  1
扉
  7
STYLE1
100
AcDbText
  0
LINE
  5
180A9
330
747D
100
AcDbEntity
  8
仕様書枠
 48
50.0
100
AcDbLine
 10
16307.19999999999
 20
8009.600000000004
 30
0.0
 11
13127.19999999999
 21
8009.600000000006
 31
0.0
  0
TEXT
  5
180AA
330
747D
100
AcDbEntity
  8
文字
 62
     7
 48
50.0
100
AcDbText
 10
13248.77747366447
 20
8720.013745883729
 30
0.0
 40
100.0
  1
15
  7
STYLE1
100
AcDbText
  0
TEXT
  5
180AB
330
747D
100
AcDbEntity
  8
文字
 62
     7
 48
50.0
100
AcDbText
 10
13583.11819016569
 20
9740.013745883729
 30
0.0
 40
100.0
  1
母屋中
  7
STYLE1
100
AcDbText
  0
TEXT
  5
180AC
330
747D
100
AcDbEntity
  8
文字
 62
     7
 48
50.0
100
AcDbText
 10
15022.63965474515
 20
9740.013745883723
 30
0.0
 40
100.0
  1
F12            1.0
  7
STYLE1
100
AcDbText
  0
TEXT
  5
180AD
330
747D
100
AcDbEntity
  8
文字
 62
     7
 48
50.0
100
AcDbText
 10
15022.63965474516
 20
8550.013745883727
 30
0.0
 40
100.0
  1
F12            0.6
  7
STYLE1
100
AcDbText
  0
TEXT
  5
180AE
330
747D
100
AcDbEntity
  8
文字
 62
     7
 48
50.0
100
AcDbText
 10
13583.11819016569
 20
8550.013745883731
 30
0.0
 40
100.0
  1
棚板
  7
STYLE1
100
AcDbText
  0
TEXT
  5
180AF
330
747D
100
AcDbEntity
  8
文字
 62
     7
 48
50.0
100
AcDbText
 10
14491.96323844892
 20
483.8967129911416
 30
0.0
 40
160.0
  1
ＮＸＮ－３２ＳＢ
  7
STYLE2
100
AcDbText
  0
DIMENSION
  5
180B2
330
747D
100
AcDbEntity
  8
寸法
 48
50.0
100
AcDbDimension
  2
*D12
 10
8624.55441579863
 20
2889.900975637158
 30
0.0
 11
8624.55441579863
 21
3743.533994654683
 31
0.0
 70
   160
  1
有効開口部高サ<>
 71
     5
 42
1725.0
  3
INABA_S40G
100
AcDbAlignedDimension
 13
8923.760445010781
 23
4614.900975637158
 33
0.0
 14
8923.760445010781
 24
2889.900975637158
 34
0.0
 50
90.0
100
AcDbRotatedDimension
1001
ACAD
1000
DSTYLE
1002
{
1070
   341
1005
0
1002
}
  0
LINE
  5
1816D
330
747D
100
AcDbEntity
  8
部品1
 48
50.0
100
AcDbLine
 10
8997.760445010763
 20
3813.400975637158
 30
0.0
 11
9050.760445010764
 21
3813.400975637158
 31
0.0
  0
LINE
  5
18171
330
747D
100
AcDbEntity
  8
部品1
 48
50.0
100
AcDbLine
 10
10657.76044501076
 20
4622.900975637158
 30
0.0
 11
10627.76044501076
 21
4622.900975637158
 31
0.0
  0
LINE
  5
18172
330
747D
100
AcDbEntity
  8
部品1
 48
50.0
100
AcDbLine
 10
8953.760445010765
 20
4622.900975637158
 30
0.0
 11
8923.760445010762
 21
4622.900975637158
 31
0.0
  0
LINE
  5
18173
330
747D
100
AcDbEntity
  8
細線
 48
50.0
100
AcDbLine
 10
10627.76044501076
 20
4624.400975637158
 30
0.0
 11
8953.760445010765
 21
4624.400975637158
 31
0.0
  0
LINE
  5
18174
330
747D
100
AcDbEntity
  8
細線
 48
50.0
100
AcDbLine
 10
10627.76044501076
 20
4614.900975637158
 30
0.0
 11
8953.760445010765
 21
4614.900975637158
 31
0.0
  0
LINE
  5
18175
330
747D
100
AcDbEntity
  8
細線
 48
50.0
100
AcDbLine
 10
10657.76044501076
 20
4656.900975637157
 30
0.0
 11
8923.760445010762
 21
4656.900975637157
 31
0.0
  0
LINE
  5
18176
330
747D
100
AcDbEntity
  8
部品1
 48
50.0
100
AcDbLine
 10
10657.76044501076
 20
4666.900975637157
 30
0.0
 11
8923.760445010762
 21
4666.900975637157
 31
0.0
  0
LINE
  5
18177
330
747D
100
AcDbEntity
  8
細線
 48
50.0
100
AcDbLine
 10
10605.76044501076
 20
2878.900975637158
 30
0.0
 11
10601.76044501076
 21
2889.400975637158
 31
0.0
  0
LINE
  5
18178
330
747D
100
AcDbEntity
  8
部品1
 48
50.0
100
AcDbLine
 10
8962.760445010765
 20
2881.900975637158
 30
0.0
 11
8962.760445010765
 21
2878.900975637158
 31
0.0
  0
LINE
  5
18179
330
747D
100
AcDbEntity
  8
部品1
 48
50.0
100
AcDbLine
 10
8953.760445010765
 20
2881.900975637158
 30
0.0
 11
9592.260445010769
 21
2881.900975637158
 31
0.0
  0
LINE
  5
1817A
330
747D
100
AcDbEntity
  8
部品1
 48
50.0
100
AcDbLine
 10
8923.760445010762
 20
2831.900975637158
 30
0.0
 11
10657.76044501076
 21
2831.900975637158
 31
0.0
  0
LINE
  5
1817B
330
747D
100
AcDbEntity
  8
細線
 48
50.0
100
AcDbLine
 10
8953.760445010765
 20
2874.900975637158
 30
0.0
 11
10627.76044501076
 21
2874.900975637158
 31
0.0
  0
LINE
  5
1817C
330
747D
100
AcDbEntity
  8
細線
 48
50.0
100
AcDbLine
 10
8953.760445010765
 20
2878.900975637158
 30
0.0
 11
10627.76044501076
 21
2878.900975637158
 31
0.0
  0
LINE
  5
1817D
330
747D
100
AcDbEntity
  8
細線
 48
50.0
100
AcDbLine
 10
9592.260445010769
 20
2889.400975637158
 30
0.0
 11
10601.76044501076
 21
2889.400975637158
 31
0.0
  0
LINE
  5
1817E
330
747D
100
AcDbEntity
  8
部品1
 48
50.0
100
AcDbLine
 10
10657.76044501076
 20
2831.900975637158
 30
0.0
 11
10657.76044501076
 21
4666.900975637157
 31
0.0
  0
LINE
  5
1817F
330
747D
100
AcDbEntity
  8
細線
 48
50.0
100
AcDbLine
 10
10627.76044501076
 20
2831.900975637158
 30
0.0
 11
10627.76044501076
 21
4624.400975637158
 31
0.0
  0
LINE
  5
18180
330
747D
100
AcDbEntity
  8
部品1
 48
50.0
100
AcDbLine
 10
10618.76044501076
 20
2878.900975637158
 30
0.0
 11
10618.76044501076
 21
4614.900975637158
 31
0.0
  0
LINE
  5
18181
330
747D
100
AcDbEntity
  8
部品1
 48
50.0
100
AcDbLine
 10
8953.760445010765
 20
2881.900975637158
 30
0.0
 11
8953.760445010766
 21
4614.900975637158
 31
0.0
  0
LINE
  5
18182
330
747D
100
AcDbEntity
  8
細線
 48
50.0
100
AcDbLine
 10
8953.760445010766
 20
4624.400975637158
 30
0.0
 11
8953.760445010763
 21
2831.900975637158
 31
0.0
  0
LINE
  5
18183
330
747D
100
AcDbEntity
  8
部品1
 48
50.0
100
AcDbLine
 10
8923.760445010762
 20
4666.900975637157
 30
0.0
 11
8923.760445010762
 21
2831.900975637158
 31
0.0
  0
LINE
  5
18184
330
747D
100
AcDbEntity
  8
部品1
 48
50.0
100
AcDbLine
 10
9592.260445010772
 20
4614.900975637158
 30
0.0
 11
9592.260445010769
 21
2881.900975637158
 31
0.0
  0
LINE
  5
18185
330
747D
100
AcDbEntity
  8
部品1
 48
50.0
100
AcDbLine
 10
10084.26044501077
 20
4614.900975637158
 30
0.0
 11
10084.26044501077
 21
2889.400975637158
 31
0.0
  0
LINE
  5
18186
330
747D
100
AcDbEntity
  8
細線
100
AcDbLine
 10
9473.760436825349
 20
4614.900975637151
 30
0.0
 11
9473.760436825349
 21
2881.900975637154
 31
0.0
  0
LINE
  5
18187
330
747D
100
AcDbEntity
  8
細線
100
AcDbLine
 10
9403.760436825349
 20
4614.900975637151
 30
0.0
 11
9403.760436825349
 21
2881.900975637154
 31
0.0
  0
LINE
  5
18188
330
747D
100
AcDbEntity
  8
細線
100
AcDbLine
 10
9333.760436825349
 20
4614.900975637151
 30
0.0
 11
9333.760436825349
 21
2881.900975637154
 31
0.0
  0
LINE
  5
18189
330
747D
100
AcDbEntity
  8
部品1
100
AcDbLine
 10
9123.760445010766
 20
4614.900975637151
 30
0.0
 11
9123.760445010766
 21
2881.900975637158
 31
0.0
  0
LINE
  5
1818A
330
747D
100
AcDbEntity
  8
部品1
100
AcDbLine
 10
9073.760445010767
 20
4614.900975637151
 30
0.0
 11
9073.760445010767
 21
2881.900975637158
 31
0.0
  0
LINE
  5
1818B
330
747D
100
AcDbEntity
  8
細線
100
AcDbLine
 10
9115.760445010767
 20
4614.900975637151
 30
0.0
 11
9115.760445010767
 21
2881.900975637158
 31
0.0
  0
LINE
  5
1818C
330
747D
100
AcDbEntity
  8
細線
100
AcDbLine
 10
9081.760445010766
 20
4614.900975637151
 30
0.0
 11
9081.760445010766
 21
2881.900975637158
 31
0.0
  0
LINE
  5
1818D
330
747D
100
AcDbEntity
  8
細線
100
AcDbLine
 10
9992.760445010766
 20
4614.900975637151
 30
0.0
 11
9992.760445010766
 21
2889.400975637165
 31
0.0
  0
LINE
  5
1818E
330
747D
100
AcDbEntity
  8
細線
100
AcDbLine
 10
9922.760445010766
 20
4614.900975637151
 30
0.0
 11
9922.760445010766
 21
2889.400975637165
 31
0.0
  0
LINE
  5
1818F
330
747D
100
AcDbEntity
  8
細線
100
AcDbLine
 10
9852.760445010765
 20
4614.900975637151
 30
0.0
 11
9852.760445010767
 21
2889.400975637165
 31
0.0
  0
LINE
  5
18190
330
747D
100
AcDbEntity
  8
細線
100
AcDbLine
 10
9782.760445010765
 20
4614.900975637151
 30
0.0
 11
9782.760445010767
 21
2889.400975637165
 31
0.0
  0
LINE
  5
18191
330
747D
100
AcDbEntity
  8
細線
100
AcDbLine
 10
10510.76044501076
 20
4614.90097563714
 30
0.0
 11
10510.76044501076
 21
2889.400975637158
 31
0.0
  0
LINE
  5
18192
330
747D
100
AcDbEntity
  8
細線
100
AcDbLine
 10
10440.76044501076
 20
4614.90097563714
 30
0.0
 11
10440.76044501076
 21
2889.400975637158
 31
0.0
  0
LINE
  5
18193
330
747D
100
AcDbEntity
  8
細線
100
AcDbLine
 10
10370.76044501076
 20
4614.90097563714
 30
0.0
 11
10370.76044501076
 21
2889.400975637158
 31
0.0
  0
LINE
  5
18194
330
747D
100
AcDbEntity
  8
細線
100
AcDbLine
 10
9263.760436825348
 20
4614.900975637151
 30
0.0
 11
9263.760436825348
 21
2881.900975637154
 31
0.0
  0
LINE
  5
18195
330
747D
100
AcDbEntity
  8
細線
100
AcDbLine
 10
9712.760445010765
 20
4614.900975637151
 30
0.0
 11
9712.760445010767
 21
2889.400975637165
 31
0.0
  0
LINE
  5
18196
330
747D
100
AcDbEntity
  8
細線
100
AcDbLine
 10
9642.760445010765
 20
4614.900975637151
 30
0.0
 11
9642.760445010766
 21
2889.400975637165
 31
0.0
  0
LINE
  5
18197
330
747D
100
AcDbEntity
  8
細線
100
AcDbLine
 10
10300.76044501076
 20
4614.90097563714
 30
0.0
 11
10300.76044501076
 21
2889.400975637158
 31
0.0
  0
LINE
  5
18198
330
747D
100
AcDbEntity
  8
細線
100
AcDbLine
 10
10160.76048032966
 20
4614.90097563714
 30
0.0
 11
10160.76048032966
 21
2889.400975637158
 31
0.0
  0
LINE
  5
18199
330
747D
100
AcDbEntity
  8
細線
100
AcDbLine
 10
10230.76048032966
 20
4614.90097563714
 30
0.0
 11
10230.76048032966
 21
2889.400975637158
 31
0.0
  0
LINE
  5
18489
330
747D
100
AcDbEntity
  8
補助
  6
PHANTOM
 62
   230
 48
50.0
100
AcDbLine
 10
140.0
 20
0.0
 30
0.0
 11
140.0
 21
11409.6
 31
0.0
  0
TEXT
  5
18ED6
330
747D
100
AcDbEntity
  8
部品1
100
AcDbText
 10
3964.80081887203
 20
2768.00787924306
 30
0.0
 40
125.0
  1
▽G.L
  7
STYLE2
100
AcDbText
  0
TEXT
  5
18ED7
330
747D
100
AcDbEntity
  8
部品1
100
AcDbText
 10
5582.010867222616
 20
1849.969183441224
 30
0.0
 40
135.0
  1
側面図
  7
STYLE2
100
AcDbText
  0
LINE
  5
18ED8
330
747D
100
AcDbEntity
  8
部品1
100
AcDbLine
 10
5492.564765799008
 20
2042.862712659749
 30
0.0
 11
5492.564765799008
 21
1802.970391114216
 31
0.0
  0
LINE
  5
18ED9
330
747D
100
AcDbEntity
  8
部品1
100
AcDbLine
 10
5492.564765799008
 20
1802.970391114216
 30
0.0
 11
6256.035432027445
 21
1802.970391114216
 31
0.0
  0
LINE
  5
18EDA
330
747D
100
AcDbEntity
  8
部品1
100
AcDbLine
 10
6256.035432027445
 20
1802.970391114216
 30
0.0
 11
6256.035432027445
 21
2042.862712659749
 31
0.0
  0
LINE
  5
18EDB
330
747D
100
AcDbEntity
  8
部品1
100
AcDbLine
 10
6256.035432027445
 20
2042.862712659749
 30
0.0
 11
5492.564765799008
 21
2042.862712659749
 31
0.0
  0
LINE
  5
18EDC
330
747D
100
AcDbEntity
  8
部品1
100
AcDbLine
 10
4979.300098913228
 20
4671.900975637157
 30
0.0
 11
6769.300098913227
 21
4671.900975637157
 31
0.0
  0
LINE
  5
18EDD
330
747D
100
AcDbEntity
  8
部品1
100
AcDbLine
 10
4979.300098913228
 20
2881.900975637158
 30
0.0
 11
6769.30009891323
 21
2881.900975637158
 31
0.0
  0
LINE
  5
18EDE
330
747D
100
AcDbEntity
  8
部品1
100
AcDbLine
 10
4979.300098913228
 20
2831.900975637158
 30
0.0
 11
4986.800098913227
 21
2831.900975637158
 31
0.0
  0
LINE
  5
18EDF
330
747D
100
AcDbEntity
  8
部品1
100
AcDbLine
 10
5034.300098913227
 20
4671.900975637157
 30
0.0
 11
5034.300098913227
 21
2881.900975637158
 31
0.0
  0
LINE
  5
18EE0
330
747D
100
AcDbEntity
  8
部品1
100
AcDbLine
 10
4979.300098913228
 20
4765.900975637161
 30
0.0
 11
4979.300098913228
 21
2731.900975637158
 31
0.0
  0
LINE
  5
18EE5
330
747D
100
AcDbEntity
  8
部品1
100
AcDbLine
 10
5454.300098913227
 20
4671.900975637157
 30
0.0
 11
5454.300098913227
 21
2881.900975637158
 31
0.0
  0
LINE
  5
18EE6
330
747D
100
AcDbEntity
  8
部品1
100
AcDbLine
 10
6769.300098913227
 20
4765.900975637165
 30
0.0
 11
6769.30009891323
 21
2731.900975637158
 31
0.0
  0
LINE
  5
18EE7
330
747D
100
AcDbEntity
  8
部品1
100
AcDbLine
 10
6714.300098913231
 20
4671.900975637157
 30
0.0
 11
6714.300098913231
 21
2881.900975637158
 31
0.0
  0
LINE
  5
18EEC
330
747D
100
AcDbEntity
  8
破線
  6
HIDDEN
 48
5.0
100
AcDbLine
 10
6776.800098913227
 20
2576.900975637158
 30
0.0
 11
6706.800098913227
 21
2576.900975637158
 31
0.0
  0
LINE
  5
18EED
330
747D
100
AcDbEntity
  8
破線
  6
HIDDEN
 48
5.0
100
AcDbLine
 10
6721.800098913226
 20
2726.900975637158
 30
0.0
 11
6706.800098913227
 21
2579.200975637157
 31
0.0
  0
LINE
  5
18EEE
330
747D
100
AcDbEntity
  8
破線
  6
HIDDEN
 48
5.0
100
AcDbLine
 10
6706.800098913227
 20
2579.200975637157
 30
0.0
 11
6706.800098913227
 21
2576.900975637158
 31
0.0
  0
LINE
  5
18EEF
330
747D
100
AcDbEntity
  8
破線
  6
HIDDEN
 48
5.0
100
AcDbLine
 10
6761.800098913226
 20
2726.900975637158
 30
0.0
 11
6776.800098913227
 21
2579.200975637157
 31
0.0
  0
LINE
  5
18EF0
330
747D
100
AcDbEntity
  8
破線
  6
HIDDEN
 48
5.0
100
AcDbLine
 10
6776.800098913227
 20
2579.200975637157
 30
0.0
 11
6776.800098913227
 21
2576.900975637158
 31
0.0
  0
LINE
  5
18EF1
330
747D
100
AcDbEntity
  8
破線
  6
HIDDEN
 48
5.0
100
AcDbLine
 10
4971.800098913227
 20
2576.900975637158
 30
0.0
 11
5041.800098913228
 21
2576.900975637158
 31
0.0
  0
LINE
  5
18EF2
330
747D
100
AcDbEntity
  8
破線
  6
HIDDEN
 48
5.0
100
AcDbLine
 10
4971.800098913227
 20
2579.200975637157
 30
0.0
 11
4971.800098913227
 21
2576.900975637158
 31
0.0
  0
LINE
  5
18EF3
330
747D
100
AcDbEntity
  8
破線
  6
HIDDEN
 48
5.0
100
AcDbLine
 10
5041.800098913228
 20
2579.200975637157
 30
0.0
 11
5041.800098913228
 21
2576.900975637158
 31
0.0
  0
LINE
  5
18EF4
330
747D
100
AcDbEntity
  8
破線
  6
HIDDEN
 48
5.0
100
AcDbLine
 10
4986.800098913227
 20
2726.900975637158
 30
0.0
 11
4971.800098913227
 21
2579.200975637157
 31
0.0
  0
LINE
  5
18EF5
330
747D
100
AcDbEntity
  8
破線
  6
HIDDEN
 48
5.0
100
AcDbLine
 10
5026.800098913227
 20
2726.900975637158
 30
0.0
 11
5041.800098913228
 21
2579.200975637157
 31
0.0
  0
LINE
  5
18EF6
330
747D
100
AcDbEntity
  8
部品1
 48
50.0
100
AcDbLine
 10
4986.800098913227
 20
2871.900975637158
 30
0.0
 11
4986.800098913227
 21
2731.900975637158
 31
0.0
  0
LINE
  5
18EF7
330
747D
100
AcDbEntity
  8
部品1
 48
50.0
100
AcDbLine
 10
5026.800098913227
 20
2871.900975637158
 30
0.0
 11
5026.800098913227
 21
2731.900975637158
 31
0.0
  0
LINE
  5
18EF8
330
747D
100
AcDbEntity
  8
部品1
100
AcDbLine
 10
4991.800098913227
 20
2876.900975637158
 30
0.0
 11
5021.800098913227
 21
2876.900975637158
 31
0.0
  0
ARC
  5
18EF9
330
747D
100
AcDbEntity
  8
部品1
 48
50.0
100
AcDbCircle
 10
4991.800098913227
 20
2871.900975637158
 30
0.0
 40
5.0
100
AcDbArc
 50
90.0
 51
180.0
  0
ARC
  5
18EFA
330
747D
100
AcDbEntity
  8
部品1
 48
50.0
100
AcDbCircle
 10
5021.800098913227
 20
2871.900975637158
 30
0.0
 40
5.0
100
AcDbArc
 50
0.0
 51
90.0
  0
LINE
  5
18EFB
330
747D
100
AcDbEntity
  8
部品1
 48
50.0
100
AcDbLine
 10
6721.800098913226
 20
2871.900975637158
 30
0.0
 11
6721.800098913226
 21
2731.900975637158
 31
0.0
  0
LINE
  5
18EFC
330
747D
100
AcDbEntity
  8
部品1
 48
50.0
100
AcDbLine
 10
6761.800098913226
 20
2871.900975637158
 30
0.0
 11
6761.800098913226
 21
2731.900975637158
 31
0.0
  0
LINE
  5
18EFD
330
747D
100
AcDbEntity
  8
部品1
100
AcDbLine
 10
6756.800098913227
 20
2876.900975637158
 30
0.0
 11
6726.800098913227
 21
2876.900975637158
 31
0.0
  0
ARC
  5
18EFE
330
747D
100
AcDbEntity
  8
部品1
 48
50.0
100
AcDbCircle
 10
6726.800098913227
 20
2871.900975637158
 30
0.0
 40
5.0
100
AcDbArc
 50
90.0
 51
180.0
  0
ARC
  5
18EFF
330
747D
100
AcDbEntity
  8
部品1
 48
50.0
100
AcDbCircle
 10
6756.800098913227
 20
2871.900975637158
 30
0.0
 40
5.0
100
AcDbArc
 50
0.0
 51
90.0
  0
LINE
  5
18F00
330
747D
100
AcDbEntity
  8
破線
  6
HIDDEN
 48
5.0
100
AcDbLine
 10
6721.800098913226
 20
2731.900975637158
 30
0.0
 11
6721.800098913226
 21
2726.900975637158
 31
0.0
  0
LINE
  5
18F01
330
747D
100
AcDbEntity
  8
破線
  6
HIDDEN
 48
5.0
100
AcDbLine
 10
6761.800098913226
 20
2731.900975637158
 30
0.0
 11
6761.800098913226
 21
2726.900975637158
 31
0.0
  0
LINE
  5
18F02
330
747D
100
AcDbEntity
  8
破線
  6
HIDDEN
 48
5.0
100
AcDbLine
 10
4986.800098913234
 20
2731.900975637158
 30
0.0
 11
4986.800098913234
 21
2726.900975637158
 31
0.0
  0
LINE
  5
18F03
330
747D
100
AcDbEntity
  8
破線
  6
HIDDEN
 48
5.0
100
AcDbLine
 10
5026.800098913227
 20
2731.900975637158
 30
0.0
 11
5026.800098913227
 21
2726.900975637158
 31
0.0
  0
LINE
  5
18F04
330
747D
100
AcDbEntity
  8
部品1
100
AcDbLine
 10
6761.800098913226
 20
2831.900975637158
 30
0.0
 11
6769.30009891323
 21
2831.900975637158
 31
0.0
  0
LINE
  5
18F05
330
747D
100
AcDbEntity
  8
部品1
100
AcDbLine
 10
5026.800098913227
 20
2831.900975637158
 30
0.0
 11
6721.800098913226
 21
2831.900975637158
 31
0.0
  0
LINE
  5
18F06
330
747D
100
AcDbEntity
  8
細線
 48
50.0
100
AcDbLine
 10
5531.800098913227
 20
4671.900975637157
 30
0.0
 11
5531.800098913227
 21
2881.900975637158
 31
0.0
  0
LINE
  5
18F07
330
747D
100
AcDbEntity
  8
細線
 48
50.0
100
AcDbLine
 10
5516.800098913227
 20
4671.900975637157
 30
0.0
 11
5516.800098913227
 21
2881.900975637158
 31
0.0
  0
LINE
  5
18F08
330
747D
100
AcDbEntity
  8
細線
 48
50.0
100
AcDbLine
 10
5656.800098913227
 20
4671.900975637157
 30
0.0
 11
5656.800098913227
 21
2881.900975637158
 31
0.0
  0
LINE
  5
18F09
330
747D
100
AcDbEntity
  8
細線
 48
50.0
100
AcDbLine
 10
5671.800098913227
 20
4671.900975637157
 30
0.0
 11
5671.800098913227
 21
2881.900975637158
 31
0.0
  0
LINE
  5
18F0A
330
747D
100
AcDbEntity
  8
細線
 48
50.0
100
AcDbLine
 10
5811.800098913227
 20
4671.900975637157
 30
0.0
 11
5811.800098913227
 21
2881.900975637158
 31
0.0
  0
LINE
  5
18F0B
330
747D
100
AcDbEntity
  8
細線
 48
50.0
100
AcDbLine
 10
5796.800098913227
 20
4671.900975637157
 30
0.0
 11
5796.800098913227
 21
2881.900975637158
 31
0.0
  0
LINE
  5
18F0C
330
747D
100
AcDbEntity
  8
細線
 48
50.0
100
AcDbLine
 10
5376.800098913227
 20
4671.900975637157
 30
0.0
 11
5376.800098913227
 21
2881.900975637158
 31
0.0
  0
LINE
  5
18F0D
330
747D
100
AcDbEntity
  8
細線
 48
50.0
100
AcDbLine
 10
5391.800098913227
 20
4671.900975637157
 30
0.0
 11
5391.800098913227
 21
2881.900975637158
 31
0.0
  0
LINE
  5
18F0E
330
747D
100
AcDbEntity
  8
細線
 48
50.0
100
AcDbLine
 10
5251.800098913227
 20
4671.900975637157
 30
0.0
 11
5251.800098913227
 21
2881.900975637158
 31
0.0
  0
LINE
  5
18F0F
330
747D
100
AcDbEntity
  8
細線
 48
50.0
100
AcDbLine
 10
5236.800098913227
 20
4671.900975637157
 30
0.0
 11
5236.800098913227
 21
2881.900975637158
 31
0.0
  0
LINE
  5
18F10
330
747D
100
AcDbEntity
  8
細線
 48
50.0
100
AcDbLine
 10
5096.800098913227
 20
4671.900975637157
 30
0.0
 11
5096.800098913227
 21
2881.900975637158
 31
0.0
  0
LINE
  5
18F11
330
747D
100
AcDbEntity
  8
細線
 48
50.0
100
AcDbLine
 10
5111.800098913227
 20
4671.900975637157
 30
0.0
 11
5111.800098913227
 21
2881.900975637158
 31
0.0
  0
LINE
  5
18F2F
330
747D
100
AcDbEntity
  8
部品1
100
AcDbLine
 10
5874.300098913227
 20
4671.900975637157
 30
0.0
 11
5874.300098913227
 21
2881.900975637158
 31
0.0
  0
LINE
  5
18F30
330
747D
100
AcDbEntity
  8
細線
 48
50.0
100
AcDbLine
 10
6216.800098913231
 20
4671.900975637157
 30
0.0
 11
6216.800098913231
 21
2881.900975637158
 31
0.0
  0
LINE
  5
18F31
330
747D
100
AcDbEntity
  8
細線
 48
50.0
100
AcDbLine
 10
6231.800098913231
 20
4671.900975637157
 30
0.0
 11
6231.800098913231
 21
2881.900975637158
 31
0.0
  0
LINE
  5
18F32
330
747D
100
AcDbEntity
  8
細線
 48
50.0
100
AcDbLine
 10
6091.800098913231
 20
4671.900975637157
 30
0.0
 11
6091.800098913231
 21
2881.900975637158
 31
0.0
  0
LINE
  5
18F33
330
747D
100
AcDbEntity
  8
細線
 48
50.0
100
AcDbLine
 10
6076.80009891323
 20
4671.900975637157
 30
0.0
 11
6076.80009891323
 21
2881.900975637158
 31
0.0
  0
LINE
  5
18F34
330
747D
100
AcDbEntity
  8
細線
 48
50.0
100
AcDbLine
 10
5936.800098913231
 20
4671.900975637157
 30
0.0
 11
5936.800098913231
 21
2881.900975637158
 31
0.0
  0
LINE
  5
18F35
330
747D
100
AcDbEntity
  8
細線
 48
50.0
100
AcDbLine
 10
5951.80009891323
 20
4671.900975637157
 30
0.0
 11
5951.80009891323
 21
2881.900975637158
 31
0.0
  0
LINE
  5
18F36
330
747D
100
AcDbEntity
  8
部品1
100
AcDbLine
 10
6294.300098913227
 20
4671.900975637157
 30
0.0
 11
6294.300098913227
 21
2881.900975637158
 31
0.0
  0
LINE
  5
18F37
330
747D
100
AcDbEntity
  8
細線
 48
50.0
100
AcDbLine
 10
6371.800098913234
 20
4671.900975637157
 30
0.0
 11
6371.800098913234
 21
2881.900975637158
 31
0.0
  0
LINE
  5
18F38
330
747D
100
AcDbEntity
  8
細線
 48
50.0
100
AcDbLine
 10
6356.800098913234
 20
4671.900975637157
 30
0.0
 11
6356.800098913234
 21
2881.900975637158
 31
0.0
  0
LINE
  5
18F39
330
747D
100
AcDbEntity
  8
細線
 48
50.0
100
AcDbLine
 10
6496.800098913235
 20
4671.900975637157
 30
0.0
 11
6496.800098913235
 21
2881.900975637158
 31
0.0
  0
LINE
  5
18F3A
330
747D
100
AcDbEntity
  8
細線
 48
50.0
100
AcDbLine
 10
6511.800098913234
 20
4671.900975637157
 30
0.0
 11
6511.800098913234
 21
2881.900975637158
 31
0.0
  0
LINE
  5
18F3B
330
747D
100
AcDbEntity
  8
細線
 48
50.0
100
AcDbLine
 10
6651.800098913234
 20
4671.900975637157
 30
0.0
 11
6651.800098913234
 21
2881.900975637158
 31
0.0
  0
LINE
  5
18F3C
330
747D
100
AcDbEntity
  8
細線
 48
50.0
100
AcDbLine
 10
6636.800098913234
 20
4671.900975637157
 30
0.0
 11
6636.800098913234
 21
2881.900975637158
 31
0.0
  0
DIMENSION
  5
18F3F
330
747D
100
AcDbEntity
  8
寸法
 48
50.0
100
AcDbDimension
  2
*D13
 10
4757.300095666593
 20
2731.900975637158
 30
0.0
 11
4757.300095666592
 21
2631.900975637158
 31
0.0
 70
   160
 71
     5
 42
200.0000000000004
  3
INABA_S40G
100
AcDbAlignedDimension
 13
4906.80009891323
 23
2531.900975637157
 33
0.0
 14
4881.800098913227
 24
2731.900975637158
 34
0.0
 50
90.0
100
AcDbRotatedDimension
1001
ACAD
1000
DSTYLE
1002
{
1070
   174
1070
     0
1070
   272
1070
     1
1070
   288
1070
     0
1070
   341
1005
0
1002
}
  0
LINE
  5
18F40
330
747D
100
AcDbEntity
  8
破線
 48
5.0
100
AcDbLine
 10
5106.800098913227
 20
2531.900975637156
 30
0.0
 11
4906.80009891323
 21
2531.900975637156
 31
0.0
  0
LINE
  5
18F41
330
747D
100
AcDbEntity
  8
破線
 48
5.0
100
AcDbLine
 10
5106.800098913227
 20
2731.900975637158
 30
0.0
 11
5106.800098913227
 21
2531.900975637156
 31
0.0
  0
LINE
  5
18F42
330
747D
100
AcDbEntity
  8
破線
 48
5.0
100
AcDbLine
 10
4906.800098913227
 20
2731.900975637158
 30
0.0
 11
4906.80009891323
 21
2531.900975637156
 31
0.0
  0
DIMENSION
  5
18F43
330
747D
100
AcDbEntity
  8
寸法
 48
50.0
100
AcDbDimension
  2
*D14
 10
4906.80009891323
 20
2245.853646336779
 30
0.0
 11
5006.800098913228
 21
2245.853646336779
 31
0.0
 70
   160
 71
     5
 42
199.9999999999963
  3
INABA_S40G
100
AcDbAlignedDimension
 13
5106.800098913227
 23
2531.900975637155
 33
0.0
 14
4906.80009891323
 24
2531.900975637157
 34
0.0
100
AcDbRotatedDimension
  0
LINE
  5
18F44
330
747D
100
AcDbEntity
  8
破線
 48
5.0
100
AcDbLine
 10
6841.800098913234
 20
2731.900975637158
 30
0.0
 11
6841.800098913231
 21
2531.900975637156
 31
0.0
  0
LINE
  5
18F45
330
747D
100
AcDbEntity
  8
破線
 48
5.0
100
AcDbLine
 10
6841.800098913231
 20
2531.900975637156
 30
0.0
 11
6641.800098913233
 21
2531.900975637158
 31
0.0
  0
LINE
  5
18F46
330
747D
100
AcDbEntity
  8
破線
 48
5.0
100
AcDbLine
 10
6641.800098913233
 20
2731.900975637158
 30
0.0
 11
6641.800098913233
 21
2531.900975637158
 31
0.0
  0
LINE
  5
18F47
330
747D
100
AcDbEntity
  8
部品1
 48
50.0
100
AcDbLine
 10
6769.30009891323
 20
4666.900975637158
 30
0.0
 11
6846.300098913231
 21
4656.900975637159
 31
0.0
  0
LINE
  5
18F48
330
747D
100
AcDbEntity
  8
部品1
 48
50.0
100
AcDbLine
 10
6846.300098913231
 20
4656.900975637159
 30
0.0
 11
6846.300098913231
 21
2731.900975637158
 31
0.0
  0
LINE
  5
18F49
330
747D
100
AcDbEntity
  8
部品1
 48
50.0
100
AcDbLine
 10
6846.300098913231
 20
2831.900975637158
 30
0.0
 11
6761.800098913231
 21
2831.900975637158
 31
0.0
  0
LINE
  5
18F4A
330
747D
100
AcDbEntity
  8
部品1
100
AcDbLine
 10
6569.300098913227
 20
2831.900975637158
 30
0.0
 11
6569.300098913227
 21
2731.900975637158
 31
0.0
  0
LINE
  5
18F4B
330
747D
100
AcDbEntity
  8
部品1
 48
50.0
100
AcDbLine
 10
5974.300098913227
 20
2831.900975637158
 30
0.0
 11
5974.300098913227
 21
2731.900975637158
 31
0.0
  0
LINE
  5
18F4C
330
747D
100
AcDbEntity
  8
部品1
 48
50.0
100
AcDbLine
 10
5774.300098913227
 20
2831.900975637158
 30
0.0
 11
5774.300098913227
 21
2731.900975637158
 31
0.0
  0
LINE
  5
18F4D
330
747D
100
AcDbEntity
  8
部品1
100
AcDbLine
 10
5179.300098913227
 20
2831.900975637158
 30
0.0
 11
5179.300098913227
 21
2731.900975637158
 31
0.0
  0
LINE
  5
18F4E
330
747D
100
AcDbEntity
  8
部品1
 48
50.0
100
AcDbLine
 10
10629.26044501077
 20
8274.104940021228
 30
0.0
 11
8952.260445010777
 21
8274.104940021315
 31
0.0
  0
LINE
  5
18F4F
330
747D
100
AcDbEntity
  8
部品1
100
AcDbLine
 10
10657.76044501079
 20
8274.104940021228
 30
0.0
 11
10685.76044501079
 21
8274.104940021228
 31
0.0
  0
LINE
  5
18F50
330
747D
100
AcDbEntity
  8
部品1
100
AcDbLine
 10
8923.760445010769
 20
8274.104940021098
 30
0.0
 11
8895.760445010768
 21
8274.104940021098
 31
0.0
  0
DIMENSION
  5
18F64
330
747D
100
AcDbEntity
  8
寸法
100
AcDbDimension
  2
*D15
 10
8950.760445010791
 20
9885.911966829338
 30
0.0
 11
8587.275163636514
 21
9885.911966829338
 31
0.0
 70
   160
 71
     5
 42
55.00000000003637
  3
INABA_S40G
100
AcDbAlignedDimension
 13
8895.760445010754
 23
9589.104940021128
 33
0.0
 14
8950.760445010791
 24
9589.104940021128
 34
0.0
100
AcDbRotatedDimension
1001
ACAD
1000
DSTYLE
1002
{
1002
}
  0
LINE
  5
18F65
330
747D
100
AcDbEntity
  8
部品1
100
AcDbLine
 10
8950.760445010754
 20
9589.104940021096
 30
0.0
 11
8950.760445010757
 21
9561.104940021095
 31
0.0
  0
LINE
  5
18F66
330
747D
100
AcDbEntity
  8
部品1
100
AcDbLine
 10
8895.760445010754
 20
9589.104940021096
 30
0.0
 11
8895.760445010784
 21
7799.104940021085
 31
0.0
  0
LINE
  5
18F67
330
747D
100
AcDbEntity
  8
部品1
100
AcDbLine
 10
10630.76044501079
 20
9589.104940021224
 30
0.0
 11
10630.76044501079
 21
9561.104940021223
 31
0.0
  0
LINE
  5
18F68
330
747D
100
AcDbEntity
  8
部品1
100
AcDbLine
 10
10630.76044501079
 20
9589.104940021243
 30
0.0
 11
10630.76044501079
 21
9561.104940021243
 31
0.0
  0
DIMENSION
  5
18F69
330
747D
100
AcDbEntity
  8
寸法
100
AcDbDimension
  2
*D16
 10
11698.29373248484
 20
7799.104940021215
 30
0.0
 11
11698.29373248483
 21
8694.104940021217
 31
0.0
 70
   160
 71
     5
 42
1790.000000000008
  3
INABA_S40G
100
AcDbAlignedDimension
 13
10685.76044501079
 23
9589.104940021224
 33
0.0
 14
10685.76044501076
 24
7799.104940021215
 34
0.0
 50
90.0
100
AcDbRotatedDimension
1001
ACAD
1000
DSTYLE
1002
{
1002
}
  0
LINE
  5
18F6A
330
747D
100
AcDbEntity
  8
部品1
100
AcDbLine
 10
10685.76044501079
 20
9589.104940021224
 30
0.0
 11
10685.76044501076
 21
7799.104940021215
 31
0.0
  0
LINE
  5
18F6B
330
747D
100
AcDbEntity
  8
部品1
100
AcDbLine
 10
10210.76044501079
 20
9589.104940021243
 30
0.0
 11
10210.76044501079
 21
9561.104940021243
 31
0.0
  0
LINE
  5
18F6C
330
747D
100
AcDbEntity
  8
部品1
100
AcDbLine
 10
9790.760445010789
 20
9589.104940021243
 30
0.0
 11
9790.760445010789
 21
9561.104940021243
 31
0.0
  0
LINE
  5
18F6D
330
747D
100
AcDbEntity
  8
部品1
100
AcDbLine
 10
9370.760445010791
 20
9589.104940021243
 30
0.0
 11
9370.760445010791
 21
9561.104940021243
 31
0.0
  0
LINE
  5
18F6E
330
747D
100
AcDbEntity
  8
部品1
100
AcDbLine
 10
9370.760445010791
 20
9589.104940021128
 30
0.0
 11
9370.760445010791
 21
9561.104940021127
 31
0.0
  0
LINE
  5
18F6F
330
747D
100
AcDbEntity
  8
部品1
100
AcDbLine
 10
9370.760445010791
 20
9589.104940021128
 30
0.0
 11
9370.760445010791
 21
9561.104940021129
 31
0.0
  0
LINE
  5
18F70
330
747D
100
AcDbEntity
  8
部品1
100
AcDbLine
 10
8950.760445010791
 20
9589.104940021128
 30
0.0
 11
8950.760445010791
 21
9561.104940021129
 31
0.0
  0
DIMENSION
  5
18F71
330
747D
100
AcDbEntity
  8
寸法
100
AcDbDimension
  2
*D17
 10
11333.1867907452
 20
9534.104940021228
 30
0.0
 11
11333.1867907452
 21
9897.590221395464
 31
0.0
 70
   160
 71
     5
 42
54.99999999999636
  3
INABA_S40G
100
AcDbAlignedDimension
 13
10685.76044501079
 23
9589.104940021224
 33
0.0
 14
10685.76044501079
 24
9534.104940021228
 34
0.0
 50
90.0
100
AcDbRotatedDimension
1001
ACAD
1000
DSTYLE
1002
{
1002
}
  0
DIMENSION
  5
18F72
330
747D
100
AcDbEntity
  8
寸法
100
AcDbDimension
  2
*D18
 10
11012.61817087281
 20
9013.887124352335
 30
0.0
 11
10912.61817087281
 21
9238.887124352336
 31
0.0
 70
    32
 71
     5
 42
449.9999999999982
  3
INABA_S40G
100
AcDbAlignedDimension
 13
10657.26044501079
 23
9559.104940021223
 33
0.0
 14
10657.26044501079
 24
9109.104940021225
 34
0.0
 50
90.0
100
AcDbRotatedDimension
1001
ACAD
1000
DSTYLE
1002
{
1002
}
  0
DIMENSION
  5
18F73
330
747D
100
AcDbEntity
  8
寸法
100
AcDbDimension
  2
*D19
 10
11333.18679074517
 20
7799.104940021215
 30
0.0
 11
11333.18679074517
 21
7421.243473116352
 31
0.0
 70
   160
 71
     5
 42
54.99999999999636
  3
INABA_S40G
100
AcDbAlignedDimension
 13
10685.76044501076
 23
7854.10494002121
 33
0.0
 14
10685.76044501076
 24
7799.104940021215
 34
0.0
 50
90.0
100
AcDbRotatedDimension
1001
ACAD
1000
DSTYLE
1002
{
1002
}
  0
DIMENSION
  5
18F74
330
747D
100
AcDbEntity
  8
寸法
100
AcDbDimension
  2
*D20
 10
11333.1867907452
 20
7854.10494002121
 30
0.0
 11
11333.1867907452
 21
8694.104940021217
 31
0.0
 70
   160
  1
4X420=<>
 71
     5
 42
1680.000000000015
  3
INABA_S40G
100
AcDbAlignedDimension
 13
10685.76044501079
 23
9534.104940021228
 33
0.0
 14
10685.76044501076
 24
7854.10494002121
 34
0.0
 50
90.0
100
AcDbRotatedDimension
1001
ACAD
1000
DSTYLE
1002
{
1002
}
  0
LINE
  5
18F77
330
747D
100
AcDbEntity
  8
部品1
100
AcDbLine
 10
8924.260445010791
 20
9109.104940021127
 30
0.0
 11
9777.260445010789
 21
9109.104940021232
 31
0.0
  0
DIMENSION
  5
18F78
330
747D
100
AcDbEntity
  8
寸法
100
AcDbDimension
  2
*D21
 10
10578.69167145437
 20
8815.88228522026
 30
0.0
 11
10183.60750712905
 21
8815.88228522026
 31
0.0
 70
   160
 71
     5
 42
853.0000000000109
  3
INABA_S40G
100
AcDbAlignedDimension
 13
9804.26044501079
 23
9109.104940021232
 33
0.0
 14
10657.2604450108
 24
9109.104940021227
 34
0.0
100
AcDbRotatedDimension
1001
ACAD
1000
DSTYLE
1002
{
1002
}
  0
LINE
  5
18F79
330
747D
100
AcDbEntity
  8
細線
 48
50.0
100
AcDbLine
 10
9777.26044501079
 20
9559.104940021232
 30
0.0
 11
8924.260445010791
 21
9109.104940021127
 31
0.0
  0
LINE
  5
18F7A
330
747D
100
AcDbEntity
  8
細線
 48
50.0
100
AcDbLine
 10
9777.260445010789
 20
9109.104940021232
 30
0.0
 11
8924.260445010791
 21
9559.104940021128
 31
0.0
  0
LINE
  5
18F7B
330
747D
100
AcDbEntity
  8
部品1
100
AcDbLine
 10
8924.260445010791
 20
9559.104940021128
 30
0.0
 11
9777.26044501079
 21
9559.104940021233
 31
0.0
  0
LINE
  5
18F7C
330
747D
100
AcDbEntity
  8
部品1
100
AcDbLine
 10
8923.76044501079
 20
9561.104940021245
 30
0.0
 11
9778.260445010786
 21
9561.104940021243
 31
0.0
  0
LINE
  5
18F7D
330
747D
100
AcDbEntity
  8
部品1
100
AcDbLine
 10
8923.760445010762
 20
7827.104940021053
 30
0.0
 11
8923.76044501079
 21
9561.104940021129
 31
0.0
  0
LINE
  5
18F7E
330
747D
100
AcDbEntity
  8
部品1
100
AcDbLine
 10
8923.760445010769
 20
8694.104940021098
 30
0.0
 11
8895.760445010768
 21
8694.104940021098
 31
0.0
  0
LINE
  5
18F7F
330
747D
100
AcDbEntity
  8
部品1
 48
50.0
100
AcDbLine
 10
8924.260445010791
 20
9559.104940021123
 30
0.0
 11
8924.260445010791
 21
9109.104940021124
 31
0.0
  0
LINE
  5
18F80
330
747D
100
AcDbEntity
  8
部品1
100
AcDbLine
 10
8923.760445010765
 20
9114.104940021098
 30
0.0
 11
8895.760445010765
 21
9114.104940021098
 31
0.0
  0
LINE
  5
18F81
330
747D
100
AcDbEntity
  8
部品1
100
AcDbLine
 10
8923.760445010758
 20
9534.1049400211
 30
0.0
 11
8895.760445010758
 21
9534.1049400211
 31
0.0
  0
LINE
  5
18F82
330
747D
100
AcDbEntity
  8
部品1
100
AcDbLine
 10
10657.76044501079
 20
9561.104940021223
 30
0.0
 11
10657.76044501076
 21
7827.104940021211
 31
0.0
  0
LINE
  5
18F83
330
747D
100
AcDbEntity
  8
部品1
100
AcDbLine
 10
10657.76044501079
 20
8694.104940021226
 30
0.0
 11
10685.76044501079
 21
8694.104940021226
 31
0.0
  0
LINE
  5
18F84
330
747D
100
AcDbEntity
  8
部品1
100
AcDbLine
 10
9804.26044501079
 20
9109.104940021232
 30
0.0
 11
10657.26044501079
 21
9109.104940021225
 31
0.0
  0
LINE
  5
18F85
330
747D
100
AcDbEntity
  8
細線
 48
50.0
100
AcDbLine
 10
10657.26044501079
 20
9559.104940021223
 30
0.0
 11
9804.26044501079
 21
9109.104940021232
 31
0.0
  0
LINE
  5
18F86
330
747D
100
AcDbEntity
  8
細線
 48
50.0
100
AcDbLine
 10
10657.26044501079
 20
9109.104940021225
 30
0.0
 11
9804.26044501079
 21
9559.104940021226
 31
0.0
  0
LINE
  5
18F87
330
747D
100
AcDbEntity
  8
部品1
100
AcDbLine
 10
9804.26044501079
 20
9559.104940021232
 30
0.0
 11
10657.26044501079
 21
9559.104940021223
 31
0.0
  0
LINE
  5
18F88
330
747D
100
AcDbEntity
  8
部品1
100
AcDbLine
 10
9803.26044501079
 20
9561.104940021243
 30
0.0
 11
10657.76044501079
 21
9561.104940021223
 31
0.0
  0
LINE
  5
18F89
330
747D
100
AcDbEntity
  8
部品1
 48
50.0
100
AcDbLine
 10
9804.26044501079
 20
9559.104940021226
 30
0.0
 11
9804.26044501079
 21
9109.104940021232
 31
0.0
  0
LINE
  5
18F8A
330
747D
100
AcDbEntity
  8
部品1
 48
50.0
100
AcDbLine
 10
9777.26044501079
 20
9559.104940021232
 30
0.0
 11
9777.26044501079
 21
9109.104940021232
 31
0.0
  0
LINE
  5
18F8B
330
747D
100
AcDbEntity
  8
部品1
 48
50.0
100
AcDbLine
 10
9803.26044501079
 20
9561.104940021232
 30
0.0
 11
9803.26044501079
 21
9109.104940021232
 31
0.0
  0
LINE
  5
18F8C
330
747D
100
AcDbEntity
  8
部品1
 48
50.0
100
AcDbLine
 10
9778.260445010788
 20
9561.104940021238
 30
0.0
 11
9778.26044501079
 21
9109.104940021232
 31
0.0
  0
LINE
  5
18F8D
330
747D
100
AcDbEntity
  8
部品1
100
AcDbLine
 10
9778.26044501079
 20
9109.104940021232
 30
0.0
 11
9803.26044501079
 21
9109.104940021232
 31
0.0
  0
LINE
  5
18F8E
330
747D
100
AcDbEntity
  8
部品1
100
AcDbLine
 10
9778.26044501079
 20
9553.104940021226
 30
0.0
 11
9803.26044501079
 21
9553.104940021231
 31
0.0
  0
LINE
  5
18F8F
330
747D
100
AcDbEntity
  8
部品1
100
AcDbLine
 10
9819.760445010791
 20
9579.104940021229
 30
0.0
 11
9825.760445010791
 21
9579.104940021229
 31
0.0
  0
LINE
  5
18F90
330
747D
100
AcDbEntity
  8
部品1
100
AcDbLine
 10
9825.760445010791
 20
9579.104940021229
 30
0.0
 11
9825.760445010791
 21
9561.10494002123
 31
0.0
  0
LINE
  5
18F91
330
747D
100
AcDbEntity
  8
部品1
100
AcDbLine
 10
9755.760445010791
 20
9579.104940021229
 30
0.0
 11
9761.760445010791
 21
9579.104940021229
 31
0.0
  0
LINE
  5
18F92
330
747D
100
AcDbEntity
  8
部品1
100
AcDbLine
 10
9755.760445010791
 20
9579.104940021229
 30
0.0
 11
9755.760445010791
 21
9561.10494002123
 31
0.0
  0
LINE
  5
18F93
330
747D
100
AcDbEntity
  8
部品1
100
AcDbLine
 10
10657.26044501079
 20
9559.104940021223
 30
0.0
 11
10657.26044501079
 21
9109.104940021225
 31
0.0
  0
LINE
  5
18F94
330
747D
100
AcDbEntity
  8
部品1
100
AcDbLine
 10
10657.76044501079
 20
9114.104940021226
 30
0.0
 11
10685.76044501079
 21
9114.104940021226
 31
0.0
  0
LINE
  5
18F95
330
747D
100
AcDbEntity
  8
部品1
100
AcDbLine
 10
10657.76044501079
 20
9534.104940021228
 30
0.0
 11
10685.76044501079
 21
9534.104940021228
 31
0.0
  0
DIMENSION
  5
18F96
330
747D
100
AcDbEntity
  8
寸法
100
AcDbDimension
  2
*D22
 10
10685.76044501079
 20
9885.911966829434
 30
0.0
 11
10994.24572638503
 21
9885.911966829434
 31
0.0
 70
   160
 71
     5
 42
55.0
  3
INABA_S40G
100
AcDbAlignedDimension
 13
10630.76044501079
 23
9589.104940021224
 33
0.0
 14
10685.76044501079
 24
9589.104940021224
 34
0.0
100
AcDbRotatedDimension
1001
ACAD
1000
DSTYLE
1002
{
1002
}
  0
LINE
  5
18F97
330
747D
100
AcDbEntity
  8
部品1
100
AcDbLine
 10
8895.760445010791
 20
9589.104940021128
 30
0.0
 11
10685.76044501079
 21
9589.104940021224
 31
0.0
  0
DIMENSION
  5
18F98
330
747D
100
AcDbEntity
  8
寸法
100
AcDbDimension
  2
*D23
 10
10630.76044501079
 20
9885.911966829453
 30
0.0
 11
9790.760445010789
 21
9885.911966829453
 31
0.0
 70
   160
  1
4X420=<>
 71
     5
 42
1680.0
  3
INABA_S40G
100
AcDbAlignedDimension
 13
8950.760445010791
 23
9589.104940021128
 33
0.0
 14
10630.76044501079
 24
9589.104940021224
 34
0.0
100
AcDbRotatedDimension
1001
ACAD
1000
DSTYLE
1002
{
1002
}
  0
LINE
  5
18F9D
330
747D
100
AcDbEntity
  8
部品1
 48
50.0
100
AcDbLine
 10
10629.26044501077
 20
8694.104940021226
 30
0.0
 11
8952.260445010777
 21
8694.104940021315
 31
0.0
  0
LINE
  5
18F9F
330
747D
100
AcDbEntity
  8
破線
 48
10.0
100
AcDbLine
 10
9815.760445010759
 20
7855.604940021165
 30
0.0
 11
9815.760445010761
 21
9109.104940021232
 31
0.0
  0
LINE
  5
18FA0
330
747D
100
AcDbEntity
  8
破線
 48
10.0
100
AcDbLine
 10
9765.760445010762
 20
7855.604940021162
 30
0.0
 11
9765.760445010762
 21
9109.104940021232
 31
0.0
  0
DIMENSION
  5
18FA1
330
747D
100
AcDbEntity
  8
寸法
100
AcDbDimension
  2
*D24
 10
9698.691671454371
 20
8815.882285220153
 30
0.0
 11
9303.607507129058
 21
8815.882285220153
 31
0.0
 70
   160
 71
     5
 42
853.0000000000109
  3
INABA_S40G
100
AcDbAlignedDimension
 13
8924.260445010791
 23
9109.104940021127
 33
0.0
 14
9777.260445010803
 24
9109.104940021122
 34
0.0
100
AcDbRotatedDimension
1001
ACAD
1000
DSTYLE
1002
{
1002
}
  0
LINE
  5
18FA2
330
747D
100
AcDbEntity
  8
部品1
100
AcDbLine
 10
10629.26044501076
 20
7855.604940021208
 30
0.0
 11
8952.260445010681
 21
7855.604940021113
 31
0.0
  0
LINE
  5
18FA3
330
747D
100
AcDbEntity
  8
破線
 48
10.0
100
AcDbLine
 10
10605.76044501076
 20
7879.104940021209
 30
0.0
 11
9815.760445010758
 21
7879.104940021163
 31
0.0
  0
LINE
  5
18FA4
330
747D
100
AcDbEntity
  8
破線
 48
10.0
100
AcDbLine
 10
9765.760445010757
 20
7879.104940021159
 30
0.0
 11
8975.760445010772
 21
7879.104940021112
 31
0.0
  0
LINE
  5
18FA5
330
747D
100
AcDbEntity
  8
部品1
100
AcDbLine
 10
10629.26044501078
 20
9109.104940021225
 30
0.0
 11
10629.26044501076
 21
7855.604940021208
 31
0.0
  0
LINE
  5
18FA6
330
747D
100
AcDbEntity
  8
破線
 48
10.0
100
AcDbLine
 10
10605.76044501078
 20
9109.104940021227
 30
0.0
 11
10605.76044501077
 21
7879.104940021209
 31
0.0
  0
LINE
  5
18FA7
330
747D
100
AcDbEntity
  8
部品1
 48
50.0
100
AcDbLine
 10
10629.26044501076
 20
7855.604940021208
 30
0.0
 11
10657.76044501076
 21
7827.104940021211
 31
0.0
  0
LINE
  5
18FA8
330
747D
100
AcDbEntity
  8
部品1
100
AcDbLine
 10
8952.260445010768
 20
9109.104940021225
 30
0.0
 11
8952.260445010779
 21
7855.604940021213
 31
0.0
  0
LINE
  5
18FA9
330
747D
100
AcDbEntity
  8
破線
 48
10.0
100
AcDbLine
 10
8975.760445010765
 20
9109.104940021227
 30
0.0
 11
8975.760445010779
 21
7879.104940021114
 31
0.0
  0
LINE
  5
18FAA
330
747D
100
AcDbEntity
  8
部品1
 48
50.0
100
AcDbLine
 10
8952.260445010777
 20
7855.604940021208
 30
0.0
 11
8923.760445010776
 21
7827.104940021211
 31
0.0
  0
LINE
  5
18FAB
330
747D
100
AcDbEntity
  8
部品1
100
AcDbLine
 10
10657.76044501079
 20
7854.104940020954
 30
0.0
 11
10685.76044501079
 21
7854.104940020954
 31
0.0
  0
LINE
  5
18FAC
330
747D
100
AcDbEntity
  8
部品1
100
AcDbLine
 10
8923.760445010758
 20
7854.10494002108
 30
0.0
 11
8895.760445010758
 21
7854.10494002108
 31
0.0
  0
LINE
  5
18FAD
330
747D
100
AcDbEntity
  8
部品1
 48
50.0
100
AcDbLine
 10
8895.760445010784
 20
7799.10494002105
 30
0.0
 11
8950.760445010754
 21
7799.104940021056
 31
0.0
  0
LINE
  5
18FAE
330
747D
100
AcDbEntity
  8
部品1
 48
50.0
100
AcDbLine
 10
8923.760445010762
 20
7827.104940021053
 30
0.0
 11
10657.76044501076
 21
7827.104940021211
 31
0.0
  0
LINE
  5
18FAF
330
747D
100
AcDbEntity
  8
部品1
 48
50.0
100
AcDbLine
 10
10630.76044501079
 20
7799.104940021209
 30
0.0
 11
10685.76044501076
 21
7799.104940021215
 31
0.0
  0
LINE
  5
18FB2
330
747D
100
AcDbEntity
  8
部品1
 48
50.0
100
AcDbLine
 10
8950.760445010754
 20
7799.104940021056
 30
0.0
 11
8950.760445010757
 21
7827.104940021053
 31
0.0
  0
LINE
  5
18FB3
330
747D
100
AcDbEntity
  8
部品1
 48
50.0
100
AcDbLine
 10
10630.76044501075
 20
7799.104940021209
 30
0.0
 11
10630.76044501075
 21
7827.104940021209
 31
0.0
  0
MTEXT
  5
18FBF
330
747D
100
AcDbEntity
  8
寸法
 62
     7
 48
50.0
100
AcDbMText
 10
9365.862982103928
 20
9175.339758218486
 30
0.0
 40
96.0
 41
0.0
 71
     5
 72
     1
  1
棚 2段
  7
STYLE1
 73
     1
 44
1.0
1001
ACAD
1000
MTEXTBEGIN
1070
    73
1070
     1
1070
    44
1040
1.0
1070
    74
1070
     0
1000
MTEXTEND
  0
MTEXT
  5
1912F
330
747D
100
AcDbEntity
  8
寸法
 62
     7
 48
50.0
100
AcDbMText
 10
10245.86298210393
 20
9175.339758218534
 30
0.0
 40
96.0
 41
0.0
 71
     5
 72
     1
  1
棚 2段
  7
STYLE1
 73
     1
 44
1.0
1001
ACAD
1000
MTEXTBEGIN
1070
    73
1070
     1
1070
    44
1040
1.0
1070
    74
1070
     0
1000
MTEXTEND
  0
DIMENSION
  5
196B2
330
747D
100
AcDbEntity
  8
寸法
 48
50.0
100
AcDbDimension
  2
*D25
 10
4979.300098913232
 20
5311.52123506443
 30
0.0
 11
5874.300098913227
 21
5311.52123506443
 31
0.0
 70
   160
  1
柱外寸法<>
 71
     5
 42
1789.999999999991
  3
INABA_S40G
100
AcDbAlignedDimension
 13
6769.300098913223
 23
4906.900975637163
 33
0.0
 14
4979.300098913232
 24
4906.900975637164
 34
0.0
100
AcDbRotatedDimension
  0
DIMENSION
  5
196B3
330
747D
100
AcDbEntity
  8
寸法
 48
50.0
100
AcDbDimension
  2
*D27
 10
6819.300098913223
 20
5521.11510948588
 30
0.0
 11
5874.300098913227
 21
5521.11510948588
 31
0.0
 70
   160
 71
     5
 42
1889.999999999991
  3
INABA_S40G
100
AcDbAlignedDimension
 13
4929.300098913232
 23
4906.900975637163
 33
0.0
 14
6819.300098913223
 24
4906.90097563716
 34
0.0
100
AcDbRotatedDimension
  0
DIMENSION
  5
196B4
330
747D
100
AcDbEntity
  8
寸法
 48
50.0
100
AcDbDimension
  2
*D26
 10
4929.300098913232
 20
5311.52123506443
 30
0.0
 11
4615.814817538985
 21
5311.52123506443
 31
0.0
 70
   160
 71
     5
 42
50.0
  3
INABA_S40G
100
AcDbAlignedDimension
 13
4979.300098913232
 23
4906.900975637164
 33
0.0
 14
4929.300098913232
 24
4906.900975637163
 34
0.0
100
AcDbRotatedDimension
1001
ACAD
1000
DSTYLE
1002
{
1002
}
  0
LINE
  5
196B5
330
747D
100
AcDbEntity
  8
細線
 48
50.0
100
AcDbLine
 10
4962.300098913232
 20
4906.900975637161
 30
0.0
 11
4962.300098913232
 21
4765.900975637161
 31
0.0
  0
ARC
  5
196B6
330
747D
100
AcDbEntity
  8
部品1
100
AcDbCircle
 10
4936.708520019662
 20
4899.900975637161
 30
0.0
 40
7.0
100
AcDbArc
 50
90.0
 51
183.2473427903377
  0
ARC
  5
196B7
330
747D
100
AcDbEntity
  8
部品1
100
AcDbCircle
 10
4949.923843480696
 20
4772.900975637162
 30
0.0
 40
7.0
100
AcDbArc
 50
183.2473427903377
 51
270.0
  0
ARC
  5
196B8
330
747D
100
AcDbEntity
  8
部品1
 48
50.0
100
AcDbCircle
 10
4931.55203327002
 20
4879.567974798847
 30
0.0
 40
0.7
100
AcDbArc
 50
183.2473427903897
 51
262.3418727926365
  0
ARC
  5
196B9
330
747D
100
AcDbEntity
  8
部品1
 48
50.0
100
AcDbCircle
 10
4939.788063794861
 20
4787.367974798844
 30
0.0
 40
0.7
100
AcDbArc
 50
183.2473427903116
 51
262.3418727926365
  0
ARC
  5
196BA
330
747D
100
AcDbEntity
  8
部品1
 48
50.0
100
AcDbCircle
 10
4939.294994686299
 20
4783.700975637159
 30
0.0
 40
3.0
100
AcDbArc
 50
3.247342790337682
 51
82.34187279263654
  0
ARC
  5
196BB
330
747D
100
AcDbEntity
  8
部品1
 48
50.0
100
AcDbCircle
 10
4931.058964161459
 20
4875.900975637163
 30
0.0
 40
3.0
100
AcDbArc
 50
3.247342790337682
 51
82.34187279263654
  0
LINE
  5
196BC
330
747D
100
AcDbEntity
  8
部品1
100
AcDbLine
 10
4934.054147057641
 20
4876.070915092265
 30
0.0
 11
4939.089187785752
 21
4787.32832225932
 31
0.0
  0
LINE
  5
196BD
330
747D
100
AcDbEntity
  8
部品1
100
AcDbLine
 10
4942.290177582489
 20
4783.870915092262
 30
0.0
 11
4942.935083389596
 21
4772.504450241922
 31
0.0
  0
LINE
  5
196BE
330
747D
100
AcDbEntity
  8
部品1
100
AcDbLine
 10
4929.719759928566
 20
4899.504450241923
 30
0.0
 11
4930.853157260912
 21
4879.528322259322
 31
0.0
  0
LINE
  5
196BF
330
747D
100
AcDbEntity
  8
部品1
 48
50.0
100
AcDbLine
 10
6811.891677806791
 20
4906.90097563716
 30
0.0
 11
4936.708520019662
 21
4906.900975637164
 31
0.0
  0
LINE
  5
196C0
330
747D
100
AcDbEntity
  8
部品1
 48
50.0
100
AcDbLine
 10
6798.676354345757
 20
4765.900975637165
 30
0.0
 11
4949.923843480696
 21
4765.900975637161
 31
0.0
  0
LINE
  5
196C1
330
747D
100
AcDbEntity
  8
細線
 48
50.0
100
AcDbLine
 10
6817.260560691789
 20
4878.900975637162
 30
0.0
 11
4931.339637134669
 21
4878.90097563716
 31
0.0
  0
LINE
  5
196C2
330
747D
100
AcDbEntity
  8
細線
 48
50.0
100
AcDbLine
 10
6809.024530166943
 20
4786.70097563716
 30
0.0
 11
4939.575667659499
 21
4786.700975637162
 31
0.0
  0
LINE
  5
196C3
330
747D
100
AcDbEntity
  8
細線
100
AcDbLine
 10
5469.300098913228
 20
4731.400975637156
 30
0.0
 11
5469.300098913224
 21
4708.400975637156
 31
0.0
  0
LINE
  5
196C4
330
747D
100
AcDbEntity
  8
細線
100
AcDbLine
 10
5543.300098913224
 20
4719.400975637157
 30
0.0
 11
5469.300098913228
 21
4719.400975637157
 31
0.0
  0
LINE
  5
196C5
330
747D
100
AcDbEntity
  8
細線
100
AcDbLine
 10
5543.300098913224
 20
4713.400975637155
 30
0.0
 11
5469.300098913228
 21
4713.400975637156
 31
0.0
  0
LINE
  5
196C6
330
747D
100
AcDbEntity
  8
細線
100
AcDbLine
 10
5543.300098913224
 20
4725.400975637156
 30
0.0
 11
5469.300098913228
 21
4725.400975637157
 31
0.0
  0
LINE
  5
196C7
330
747D
100
AcDbEntity
  8
細線
100
AcDbLine
 10
5395.300098913228
 20
4725.400975637157
 30
0.0
 11
5464.300098913228
 21
4725.400975637157
 31
0.0
  0
LINE
  5
196C8
330
747D
100
AcDbEntity
  8
細線
100
AcDbLine
 10
5395.300098913224
 20
4713.400975637156
 30
0.0
 11
5469.300098913228
 21
4713.400975637156
 31
0.0
  0
LINE
  5
196C9
330
747D
100
AcDbEntity
  8
細線
100
AcDbLine
 10
5395.300098913228
 20
4719.400975637157
 30
0.0
 11
5469.300098913228
 21
4719.400975637157
 31
0.0
  0
LINE
  5
196CA
330
747D
100
AcDbEntity
  8
細線
100
AcDbLine
 10
5395.300098913228
 20
4725.400975637157
 30
0.0
 11
5469.300098913228
 21
4725.400975637157
 31
0.0
  0
LINE
  5
196CB
330
747D
100
AcDbEntity
  8
部品1
 48
0.01
100
AcDbLine
 10
5557.300098913228
 20
4737.900975637157
 30
0.0
 11
5381.300098913228
 21
4737.900975637157
 31
0.0
  0
LINE
  5
196CC
330
747D
100
AcDbEntity
  8
部品1
 48
0.01
100
AcDbLine
 10
5379.300098913228
 20
4735.900975637156
 30
0.0
 11
5379.300098913228
 21
4704.400975637157
 31
0.0
  0
LINE
  5
196CD
330
747D
100
AcDbEntity
  8
部品1
 48
0.01
100
AcDbLine
 10
5381.300098913228
 20
4702.400975637156
 30
0.0
 11
5557.300098913224
 21
4702.400975637156
 31
0.0
  0
LINE
  5
196CE
330
747D
100
AcDbEntity
  8
部品1
 48
0.01
100
AcDbLine
 10
5559.300098913224
 20
4704.400975637157
 30
0.0
 11
5559.300098913228
 21
4735.900975637156
 31
0.0
  0
LINE
  5
196CF
330
747D
100
AcDbEntity
  8
細線
100
AcDbLine
 10
5395.300098913228
 20
4731.400975637156
 30
0.0
 11
5395.300098913228
 21
4708.400975637156
 31
0.0
  0
LINE
  5
196D0
330
747D
100
AcDbEntity
  8
細線
100
AcDbLine
 10
5543.300098913228
 20
4708.400975637156
 30
0.0
 11
5543.300098913228
 21
4731.400975637156
 31
0.0
  0
LINE
  5
196D1
330
747D
100
AcDbEntity
  8
細線
100
AcDbLine
 10
5543.300098913228
 20
4731.400975637156
 30
0.0
 11
5469.300098913228
 21
4731.400975637156
 31
0.0
  0
LINE
  5
196D2
330
747D
100
AcDbEntity
  8
細線
100
AcDbLine
 10
5395.300098913228
 20
4708.400975637156
 30
0.0
 11
5469.300098913228
 21
4708.400975637156
 31
0.0
  0
LINE
  5
196D3
330
747D
100
AcDbEntity
  8
細線
100
AcDbLine
 10
5469.300098913228
 20
4731.400975637156
 30
0.0
 11
5395.300098913228
 21
4731.400975637156
 31
0.0
  0
LINE
  5
196D4
330
747D
100
AcDbEntity
  8
細線
100
AcDbLine
 10
5469.300098913224
 20
4708.400975637156
 30
0.0
 11
5543.300098913228
 21
4708.400975637156
 31
0.0
  0
ARC
  5
196D5
330
747D
100
AcDbEntity
  8
部品1
 48
0.01
100
AcDbCircle
 10
5381.300098913228
 20
4735.900975637156
 30
0.0
 40
2.0
100
AcDbArc
 50
90.0
 51
180.0
  0
ARC
  5
196D6
330
747D
100
AcDbEntity
  8
部品1
 48
0.01
100
AcDbCircle
 10
5381.300098913228
 20
4704.400975637157
 30
0.0
 40
2.0
100
AcDbArc
 50
180.0
 51
270.0
  0
ARC
  5
196D7
330
747D
100
AcDbEntity
  8
部品1
 48
0.01
100
AcDbCircle
 10
5557.300098913228
 20
4735.900975637156
 30
0.0
 40
2.0
100
AcDbArc
 50
0.0
 51
90.0
  0
ARC
  5
196D8
330
747D
100
AcDbEntity
  8
部品1
 48
0.01
100
AcDbCircle
 10
5557.300098913224
 20
4704.400975637157
 30
0.0
 40
2.0
100
AcDbArc
 50
270.0
 51
0.0
  0
ARC
  5
196D9
330
747D
100
AcDbEntity
  8
部品1
 48
0.01
100
AcDbCircle
 10
6191.300098913227
 20
4735.900975637156
 30
0.0
 40
2.0
100
AcDbArc
 50
90.0
 51
180.0
  0
ARC
  5
196DA
330
747D
100
AcDbEntity
  8
部品1
 48
0.01
100
AcDbCircle
 10
6367.300098913228
 20
4735.900975637156
 30
0.0
 40
2.0
100
AcDbArc
 50
0.0
 51
90.0
  0
LINE
  5
196DB
330
747D
100
AcDbEntity
  8
細線
100
AcDbLine
 10
6279.300098913228
 20
4708.400975637156
 30
0.0
 11
6205.300098913228
 21
4708.400975637156
 31
0.0
  0
LINE
  5
196DC
330
747D
100
AcDbEntity
  8
細線
100
AcDbLine
 10
6279.300098913228
 20
4731.400975637156
 30
0.0
 11
6353.300098913228
 21
4731.400975637156
 31
0.0
  0
LINE
  5
196DD
330
747D
100
AcDbEntity
  8
細線
100
AcDbLine
 10
6353.300098913228
 20
4708.400975637156
 30
0.0
 11
6279.300098913228
 21
4708.400975637156
 31
0.0
  0
LINE
  5
196DE
330
747D
100
AcDbEntity
  8
細線
100
AcDbLine
 10
6205.300098913228
 20
4731.400975637156
 30
0.0
 11
6279.300098913228
 21
4731.400975637156
 31
0.0
  0
LINE
  5
196DF
330
747D
100
AcDbEntity
  8
細線
100
AcDbLine
 10
6205.300098913228
 20
4708.400975637156
 30
0.0
 11
6205.300098913228
 21
4731.400975637156
 31
0.0
  0
LINE
  5
196E0
330
747D
100
AcDbEntity
  8
細線
100
AcDbLine
 10
6353.300098913228
 20
4731.400975637156
 30
0.0
 11
6353.300098913228
 21
4708.400975637156
 31
0.0
  0
LINE
  5
196E1
330
747D
100
AcDbEntity
  8
部品1
 48
0.01
100
AcDbLine
 10
6191.300098913227
 20
4737.900975637157
 30
0.0
 11
6367.300098913228
 21
4737.900975637157
 31
0.0
  0
LINE
  5
196E2
330
747D
100
AcDbEntity
  8
細線
100
AcDbLine
 10
6353.300098913228
 20
4725.400975637157
 30
0.0
 11
6279.300098913228
 21
4725.400975637157
 31
0.0
  0
LINE
  5
196E3
330
747D
100
AcDbEntity
  8
細線
100
AcDbLine
 10
6353.300098913228
 20
4719.400975637157
 30
0.0
 11
6279.300098913228
 21
4719.400975637157
 31
0.0
  0
LINE
  5
196E4
330
747D
100
AcDbEntity
  8
細線
100
AcDbLine
 10
6353.300098913228
 20
4713.400975637156
 30
0.0
 11
6279.300098913228
 21
4713.400975637156
 31
0.0
  0
LINE
  5
196E5
330
747D
100
AcDbEntity
  8
細線
100
AcDbLine
 10
6353.300098913228
 20
4725.400975637157
 30
0.0
 11
6284.300098913227
 21
4725.400975637157
 31
0.0
  0
LINE
  5
196E6
330
747D
100
AcDbEntity
  8
細線
100
AcDbLine
 10
6205.300098913228
 20
4725.400975637156
 30
0.0
 11
6279.300098913228
 21
4725.400975637157
 31
0.0
  0
LINE
  5
196E7
330
747D
100
AcDbEntity
  8
細線
100
AcDbLine
 10
6205.300098913228
 20
4713.400975637155
 30
0.0
 11
6279.300098913228
 21
4713.400975637156
 31
0.0
  0
LINE
  5
196E8
330
747D
100
AcDbEntity
  8
細線
100
AcDbLine
 10
6205.300098913228
 20
4719.400975637157
 30
0.0
 11
6279.300098913228
 21
4719.400975637157
 31
0.0
  0
LINE
  5
196E9
330
747D
100
AcDbEntity
  8
細線
100
AcDbLine
 10
6279.300098913228
 20
4731.400975637156
 30
0.0
 11
6279.300098913228
 21
4708.400975637156
 31
0.0
  0
ARC
  5
196EA
330
747D
100
AcDbEntity
  8
部品1
 48
0.01
100
AcDbCircle
 10
6191.300098913227
 20
4704.400975637157
 30
0.0
 40
2.0
100
AcDbArc
 50
180.0
 51
270.0
  0
ARC
  5
196EB
330
747D
100
AcDbEntity
  8
部品1
 48
0.01
100
AcDbCircle
 10
6367.300098913228
 20
4704.400975637157
 30
0.0
 40
2.0
100
AcDbArc
 50
270.0
 51
0.0
  0
LINE
  5
196EC
330
747D
100
AcDbEntity
  8
部品1
 48
0.01
100
AcDbLine
 10
6189.300098913228
 20
4704.400975637157
 30
0.0
 11
6189.300098913228
 21
4735.900975637156
 31
0.0
  0
LINE
  5
196ED
330
747D
100
AcDbEntity
  8
部品1
 48
0.01
100
AcDbLine
 10
6367.300098913228
 20
4702.400975637156
 30
0.0
 11
6191.300098913227
 21
4702.400975637156
 31
0.0
  0
LINE
  5
196EE
330
747D
100
AcDbEntity
  8
部品1
 48
0.01
100
AcDbLine
 10
6369.300098913228
 20
4735.900975637156
 30
0.0
 11
6369.300098913228
 21
4704.400975637157
 31
0.0
  0
DIMENSION
  5
19732
330
747D
100
AcDbEntity
  8
寸法
 48
50.0
100
AcDbDimension
  2
*D28
 10
6769.300098913223
 20
5311.52123506443
 30
0.0
 11
7132.78538028746
 21
5311.52123506443
 31
0.0
 70
   160
 71
     5
 42
50.0
  3
INABA_S40G
100
AcDbAlignedDimension
 13
6819.300098913223
 23
4906.90097563716
 33
0.0
 14
6769.300098913223
 24
4906.900975637163
 34
0.0
100
AcDbRotatedDimension
  0
LINE
  5
19733
330
747D
100
AcDbEntity
  8
部品1
100
AcDbLine
 10
6818.88043789789
 20
4899.504450241923
 30
0.0
 11
6817.747040565544
 21
4879.528322259322
 31
0.0
  0
LINE
  5
19734
330
747D
100
AcDbEntity
  8
細線
 48
50.0
100
AcDbLine
 10
6786.300098913223
 20
4906.900975637161
 30
0.0
 11
6786.300098913223
 21
4765.900975637161
 31
0.0
  0
LINE
  5
19735
330
747D
100
AcDbEntity
  8
部品1
100
AcDbLine
 10
6806.310020243967
 20
4783.870915092262
 30
0.0
 11
6805.665114436855
 21
4772.504450241922
 31
0.0
  0
LINE
  5
19736
330
747D
100
AcDbEntity
  8
部品1
100
AcDbLine
 10
6814.546050768811
 20
4876.070915092265
 30
0.0
 11
6809.5110100407
 21
4787.32832225932
 31
0.0
  0
ARC
  5
19737
330
747D
100
AcDbEntity
  8
部品1
 48
50.0
100
AcDbCircle
 10
6817.541233664996
 20
4875.900975637163
 30
0.0
 40
3.0
100
AcDbArc
 50
97.65812720736347
 51
176.7526572096623
  0
ARC
  5
19738
330
747D
100
AcDbEntity
  8
部品1
 48
50.0
100
AcDbCircle
 10
6809.305203140152
 20
4783.700975637159
 30
0.0
 40
3.0
100
AcDbArc
 50
97.65812720736347
 51
176.7526572096623
  0
ARC
  5
19739
330
747D
100
AcDbEntity
  8
部品1
 48
50.0
100
AcDbCircle
 10
6808.812134031592
 20
4787.367974798844
 30
0.0
 40
0.7
100
AcDbArc
 50
277.6581272073635
 51
356.7526572096883
  0
ARC
  5
1973A
330
747D
100
AcDbEntity
  8
部品1
 48
50.0
100
AcDbCircle
 10
6817.048164556436
 20
4879.567974798847
 30
0.0
 40
0.7
100
AcDbArc
 50
277.6581272073635
 51
356.7526572096103
  0
ARC
  5
1973B
330
747D
100
AcDbEntity
  8
部品1
100
AcDbCircle
 10
6798.676354345757
 20
4772.900975637162
 30
0.0
 40
7.0
100
AcDbArc
 50
270.0
 51
356.7526572096623
  0
ARC
  5
1973C
330
747D
100
AcDbEntity
  8
部品1
100
AcDbCircle
 10
6811.891677806791
 20
4899.900975637161
 30
0.0
 40
7.0
100
AcDbArc
 50
356.7526572096623
 51
90.0
  0
LINE
  5
199A2
330
747D
100
AcDbEntity
  8
細線
 48
50.0
100
AcDbLine
 10
9473.760445010752
 20
7727.105114198012
 30
0.0
 11
9592.260445010753
 21
7727.105114198012
 31
0.0
  0
LINE
  5
199A3
330
747D
100
AcDbEntity
  8
細線
 48
50.0
100
AcDbLine
 10
9562.260445010755
 20
7744.25511419801
 30
0.0
 11
9562.260445010755
 21
7749.105114198012
 31
0.0
  0
LINE
  5
199A4
330
747D
100
AcDbEntity
  8
細線
 48
50.0
100
AcDbLine
 10
9562.260445010755
 20
7749.105114198012
 30
0.0
 11
9577.260445010756
 21
7749.105114198012
 31
0.0
  0
LINE
  5
199A5
330
747D
100
AcDbEntity
  8
細線
 48
50.0
100
AcDbLine
 10
9577.260445010756
 20
7749.105114198012
 30
0.0
 11
9577.260445010757
 21
7756.105114198013
 31
0.0
  0
LINE
  5
199A6
330
747D
100
AcDbEntity
  8
細線
 48
50.0
100
AcDbLine
 10
9577.260445010757
 20
7756.105114198013
 30
0.0
 11
9592.260445010756
 21
7756.105114198013
 31
0.0
  0
LINE
  5
199A7
330
747D
100
AcDbEntity
  8
細線
 48
50.0
100
AcDbLine
 10
9592.260445010756
 20
7756.105114198013
 30
0.0
 11
9592.260445010756
 21
7727.105114198012
 31
0.0
  0
LINE
  5
199A8
330
747D
100
AcDbEntity
  8
細線
 48
50.0
100
AcDbLine
 10
9581.260445010755
 20
7778.601308463518
 30
0.0
 11
9581.260445010755
 21
7783.101308463518
 31
0.0
  0
LINE
  5
199A9
330
747D
100
AcDbEntity
  8
細線
 48
50.0
100
AcDbLine
 10
9581.260445010755
 20
7783.101308463518
 30
0.0
 11
9566.260445010755
 21
7783.101308463518
 31
0.0
  0
LINE
  5
199AA
330
747D
100
AcDbEntity
  8
細線
 48
50.0
100
AcDbLine
 10
9566.260445010755
 20
7783.101308463518
 30
0.0
 11
9566.260445010755
 21
7790.101308463519
 31
0.0
  0
LINE
  5
199AB
330
747D
100
AcDbEntity
  8
細線
 48
50.0
100
AcDbLine
 10
9566.260445010755
 20
7790.101308463519
 30
0.0
 11
9551.260445010758
 21
7790.101308463516
 31
0.0
  0
LINE
  5
199AC
330
747D
100
AcDbEntity
  8
細線
 48
50.0
100
AcDbLine
 10
9551.260445010758
 20
7790.101308463516
 30
0.0
 11
9551.260445010758
 21
7752.501080360405
 31
0.0
  0
LINE
  5
199AD
330
747D
100
AcDbEntity
  8
細線
 48
50.0
100
AcDbLine
 10
9551.260445010758
 20
7752.501080360405
 30
0.0
 11
9571.260452311932
 21
7752.501121909947
 31
0.0
  0
LINE
  5
199AE
330
747D
100
AcDbEntity
  8
細線
 48
50.0
100
AcDbLine
 10
9571.260407442991
 20
7761.104583545755
 30
0.0
 11
9571.260452311932
 21
7752.501121909947
 31
0.0
  0
LINE
  5
199AF
330
747D
100
AcDbEntity
  8
細線
 48
50.0
100
AcDbLine
 10
9571.260407442991
 20
7761.104583545755
 30
0.0
 11
9582.4930967977
 21
7761.104766498902
 31
0.0
  0
ARC
  5
199B0
330
747D
100
AcDbEntity
  8
細線
 48
50.0
100
AcDbCircle
 10
9589.075389105035
 20
7759.904930412514
 30
0.0
 40
1.8
100
AcDbArc
 50
270.0006665777295
 51
345.0005554812987
  0
LINE
  5
199B1
330
747D
100
AcDbEntity
  8
細線
 48
50.0
100
AcDbLine
 10
9591.061822551116
 20
7760.363770869793
 30
0.0
 11
9590.814060108916
 21
7759.439072987686
 31
0.0
  0
LINE
  5
199B2
330
747D
100
AcDbEntity
  8
細線
 48
50.0
100
AcDbLine
 10
9589.07541004619
 20
7758.104930412635
 30
0.0
 11
9585.445482627424
 21
7758.104888182154
 31
0.0
  0
ARC
  5
199B3
330
747D
100
AcDbEntity
  8
細線
 48
50.0
100
AcDbCircle
 10
9585.445461686269
 20
7759.904888182034
 30
0.0
 40
1.8
100
AcDbArc
 50
195.0010443049394
 51
270.0006665777295
  0
LINE
  5
199B4
330
747D
100
AcDbEntity
  8
細線
 48
50.0
100
AcDbLine
 10
9583.459034194012
 20
7760.363603149598
 30
0.0
 11
9583.706803690523
 21
7759.438982211015
 31
0.0
  0
ARC
  5
199B5
330
747D
100
AcDbEntity
  8
細線
 48
50.0
100
AcDbCircle
 10
9582.493113085263
 20
7760.104766499036
 30
0.0
 40
1.0
100
AcDbArc
 50
15.00104430493943
 51
90.00093320877969
  0
LINE
  5
199B6
330
747D
100
AcDbEntity
  8
細線
 48
50.0
100
AcDbLine
 10
9592.02774390622
 20
7761.104961189307
 30
0.0
 11
9592.969504057125
 21
7761.104967763156
 31
0.0
  0
ARC
  5
199B7
330
747D
100
AcDbEntity
  8
細線
 48
50.0
100
AcDbCircle
 10
9592.027750886604
 20
7760.104961189331
 30
0.0
 40
1.0
100
AcDbArc
 50
90.0003999466794
 51
165.0005554812987
  0
LINE
  5
199B8
330
747D
100
AcDbEntity
  8
細線
 48
50.0
100
AcDbLine
 10
10628.26044501075
 20
7820.10494002106
 30
0.0
 11
10628.26044501075
 21
7795.104940021056
 31
0.0
  0
LINE
  5
199B9
330
747D
100
AcDbEntity
  8
細線
100
AcDbLine
 10
10618.76044501075
 20
7795.104940021056
 30
0.0
 11
10510.76044501075
 21
7795.104940021056
 31
0.0
  0
LINE
  5
199BA
330
747D
100
AcDbEntity
  8
細線
 48
50.0
100
AcDbLine
 10
10043.26045016166
 20
7787.104940021059
 30
0.0
 11
10043.26045016166
 21
7825.104940021052
 31
0.0
  0
LINE
  5
199BB
330
747D
100
AcDbEntity
  8
細線
 48
50.0
100
AcDbLine
 10
10043.26045016166
 20
7825.104940021052
 30
0.0
 11
10058.26045016166
 21
7825.104940021056
 31
0.0
  0
LINE
  5
199BC
330
747D
100
AcDbEntity
  8
細線
 48
50.0
100
AcDbLine
 10
10058.26045016166
 20
7825.104940021056
 30
0.0
 11
10058.26045016166
 21
7820.104940021057
 31
0.0
  0
LINE
  5
199BD
330
747D
100
AcDbEntity
  8
細線
 48
50.0
100
AcDbLine
 10
10043.26045016166
 20
7787.104940021059
 30
0.0
 11
10063.26045016166
 21
7787.104940021056
 31
0.0
  0
LINE
  5
199BE
330
747D
100
AcDbEntity
  8
細線
 48
50.0
100
AcDbLine
 10
10063.26045016166
 20
7787.104940021056
 30
0.0
 11
10063.26045016166
 21
7795.104940021056
 31
0.0
  0
LINE
  5
199BF
330
747D
100
AcDbEntity
  8
細線
100
AcDbLine
 10
10300.76044501075
 20
7795.104940021056
 30
0.0
 11
10230.76044501075
 21
7795.104940021056
 31
0.0
  0
LINE
  5
199C0
330
747D
100
AcDbEntity
  8
細線
 48
50.0
100
AcDbLine
 10
10160.76044501075
 20
7795.104940021055
 30
0.0
 11
10076.0562297345
 21
7795.104940021056
 31
0.0
  0
LINE
  5
199C1
330
747D
100
AcDbEntity
  8
細線
100
AcDbLine
 10
10440.76044501075
 20
7795.104940021056
 30
0.0
 11
10370.76044501075
 21
7795.104940021056
 31
0.0
  0
LINE
  5
199C2
330
747D
100
AcDbEntity
  8
細線
100
AcDbLine
 10
10268.76044501075
 20
7795.104940021055
 30
0.0
 11
10268.76044501075
 21
7824.404940021054
 31
0.0
  0
LINE
  5
199C3
330
747D
100
AcDbEntity
  8
細線
100
AcDbLine
 10
10248.76044501075
 20
7824.404940021054
 30
0.0
 11
10268.76044501075
 21
7824.404940021054
 31
0.0
  0
LINE
  5
199C4
330
747D
100
AcDbEntity
  8
細線
100
AcDbLine
 10
10248.76044501075
 20
7795.104940021055
 30
0.0
 11
10248.76044501075
 21
7824.404940021054
 31
0.0
  0
LINE
  5
199C5
330
747D
100
AcDbEntity
  8
細線
 48
50.0
100
AcDbLine
 10
10612.36044501075
 20
7820.104940021057
 30
0.0
 11
10602.36044501075
 21
7825.104940021057
 31
0.0
  0
LINE
  5
199C6
330
747D
100
AcDbEntity
  8
細線
 48
50.0
100
AcDbLine
 10
10628.26044501075
 20
7820.10494002106
 30
0.0
 11
10612.36044501075
 21
7820.104940021057
 31
0.0
  0
LINE
  5
199C7
330
747D
100
AcDbEntity
  8
細線
 48
50.0
100
AcDbLine
 10
10602.36044501076
 20
7825.104940021055
 30
0.0
 11
10058.26045016166
 21
7825.104940021052
 31
0.0
  0
LINE
  5
199C8
330
747D
100
AcDbEntity
  8
細線
 48
50.0
100
AcDbLine
 10
10069.26045016166
 20
7794.304940021056
 30
0.0
 11
10069.26045016166
 21
7792.804940021056
 31
0.0
  0
LINE
  5
199C9
330
747D
100
AcDbEntity
  8
細線
 48
50.0
100
AcDbLine
 10
10069.96045016166
 20
7792.104940021056
 30
0.0
 11
10074.56045016166
 21
7792.104940021056
 31
0.0
  0
LINE
  5
199CA
330
747D
100
AcDbEntity
  8
細線
 48
50.0
100
AcDbLine
 10
10075.26045016166
 20
7792.804940021056
 30
0.0
 11
10075.26045698677
 21
7794.304954912544
 31
0.0
  0
ARC
  5
199CB
330
747D
100
AcDbEntity
  8
細線
 48
50.0
100
AcDbCircle
 10
10074.56045016166
 20
7792.804940021056
 30
0.0
 40
0.7
100
AcDbArc
 50
270.0
 51
0.0
  0
ARC
  5
199CC
330
747D
100
AcDbEntity
  8
細線
 48
50.0
100
AcDbCircle
 10
10069.96045016166
 20
7792.804940021056
 30
0.0
 40
0.7
100
AcDbArc
 50
180.0
 51
270.0
  0
LINE
  5
199CD
330
747D
100
AcDbEntity
  8
細線
 48
50.0
100
AcDbLine
 10
10068.4604520231
 20
7795.104940021056
 30
0.0
 11
10063.26045016166
 21
7795.104940021056
 31
0.0
  0
ARC
  5
199CE
330
747D
100
AcDbEntity
  8
細線
 48
50.0
100
AcDbCircle
 10
10076.06045698677
 20
7794.304951189673
 30
0.0
 40
0.8
100
AcDbArc
 50
90.00014387753465
 51
179.9997333689498
  0
ARC
  5
199CF
330
747D
100
AcDbEntity
  8
細線
 48
50.0
100
AcDbCircle
 10
10068.46045016167
 20
7794.304940021056
 30
0.0
 40
0.8
100
AcDbArc
 50
359.9997333689499
 51
89.99986668437072
  0
LINE
  5
199D0
330
747D
100
AcDbEntity
  8
細線
 48
50.0
100
AcDbLine
 10
9782.76040969186
 20
7761.104951883642
 30
0.0
 11
9712.760392403986
 21
7761.104951883649
 31
0.0
  0
LINE
  5
199D1
330
747D
100
AcDbEntity
  8
細線
 48
50.0
100
AcDbLine
 10
9642.760445010754
 20
7761.104960071012
 30
0.0
 11
9592.969504057125
 21
7761.104967763156
 31
0.0
  0
LINE
  5
199D2
330
747D
100
AcDbEntity
  8
細線
 48
50.0
100
AcDbLine
 10
9992.760436773991
 20
7761.104951883647
 30
0.0
 11
10084.26044501075
 21
7761.104951883647
 31
0.0
  0
LINE
  5
199D3
330
747D
100
AcDbEntity
  8
細線
 48
50.0
100
AcDbLine
 10
9922.760445010753
 20
7761.10494913364
 30
0.0
 11
9852.760688907753
 21
7761.104954633674
 31
0.0
  0
LINE
  5
199D4
330
747D
100
AcDbEntity
  8
細線
 48
50.0
100
AcDbLine
 10
10084.26045531257
 20
7790.105158055919
 30
0.0
 11
10084.26044501075
 21
7761.104951883647
 31
0.0
  0
LINE
  5
199D5
330
747D
100
AcDbEntity
  8
細線
 48
50.0
100
AcDbLine
 10
10069.26045714205
 20
7790.105158055919
 30
0.0
 11
10084.26045531257
 21
7790.105158055919
 31
0.0
  0
LINE
  5
199D6
330
747D
100
AcDbEntity
  8
細線
 48
50.0
100
AcDbLine
 10
10069.26044550807
 20
7783.105158055876
 30
0.0
 11
10069.26045714205
 21
7790.105158055919
 31
0.0
  0
LINE
  5
199D7
330
747D
100
AcDbEntity
  8
細線
 48
50.0
100
AcDbLine
 10
10054.26044550807
 20
7783.105158055876
 30
0.0
 11
10069.26044550807
 21
7783.105158055876
 31
0.0
  0
LINE
  5
199D8
330
747D
100
AcDbEntity
  8
細線
 48
50.0
100
AcDbLine
 10
10054.26044550807
 20
7778.255158055877
 30
0.0
 11
10054.26044550807
 21
7783.105158055876
 31
0.0
  0
LINE
  5
199D9
330
747D
100
AcDbEntity
  8
細線
 48
50.0
100
AcDbLine
 10
10054.26044550807
 20
7781.705158055878
 30
0.0
 11
9581.260445010755
 21
7781.705158055874
 31
0.0
  0
LINE
  5
199DA
330
747D
100
AcDbEntity
  8
細線
 48
50.0
100
AcDbLine
 10
9562.260445010755
 20
7747.70511419801
 30
0.0
 11
8976.760449664345
 21
7747.70511419801
 31
0.0
  0
LINE
  5
199DB
330
747D
100
AcDbEntity
  8
細線
 48
50.0
100
AcDbLine
 10
9385.143536681447
 20
7745.375965488505
 30
0.0
 11
9390.899054264115
 21
7727.10511419801
 31
0.0
  0
LINE
  5
199DC
330
747D
100
AcDbEntity
  8
細線
 48
50.0
100
AcDbLine
 10
9374.215088201015
 20
7745.3759654885
 30
0.0
 11
9385.143536681447
 21
7745.375965488505
 31
0.0
  0
ARC
  5
199DD
330
747D
100
AcDbEntity
  8
細線
 48
50.0
100
AcDbCircle
 10
9368.760732143696
 20
7746.8759654885
 30
0.0
 40
5.0
100
AcDbArc
 50
204.6243183521304
 51
335.3756816478695
  0
ARC
  5
199DE
330
747D
100
AcDbEntity
  8
細線
 48
50.0
100
AcDbCircle
 10
9374.215088201015
 20
7744.375965488501
 30
0.0
 40
1.0
100
AcDbArc
 50
90.0
 51
155.3756816478695
  0
ARC
  5
199DF
330
747D
100
AcDbEntity
  8
細線
 48
50.0
100
AcDbCircle
 10
9363.306376086381
 20
7744.375965488501
 30
0.0
 40
1.0
100
AcDbArc
 50
24.62431835213048
 51
90.0
  0
LINE
  5
199E0
330
747D
100
AcDbEntity
  8
細線
 48
50.0
100
AcDbLine
 10
9352.377927605948
 20
7745.375965488505
 30
0.0
 11
9363.306376086381
 21
7745.3759654885
 31
0.0
  0
LINE
  5
199E1
330
747D
100
AcDbEntity
  8
細線
 48
50.0
100
AcDbLine
 10
9346.622410023279
 20
7727.10511419801
 30
0.0
 11
9352.377927605948
 21
7745.375965488505
 31
0.0
  0
LINE
  5
199E2
330
747D
100
AcDbEntity
  8
細線
 48
50.0
100
AcDbLine
 10
9333.760445010751
 20
7727.10511419801
 30
0.0
 11
9403.760445010751
 21
7727.10511419801
 31
0.0
  0
LINE
  5
199E3
330
747D
100
AcDbEntity
  8
細線
 48
50.0
100
AcDbLine
 10
8953.760445010754
 20
7727.102448541479
 30
0.0
 11
9263.760998115182
 21
7727.106335441677
 31
0.0
  0
LINE
  5
199E4
330
747D
100
AcDbEntity
  8
細線
 48
50.0
100
AcDbLine
 10
8976.760449664345
 20
7756.10126460565
 30
0.0
 11
8962.760445010754
 21
7756.101264605646
 31
0.0
  0
LINE
  5
199E5
330
747D
100
AcDbEntity
  8
細線
 48
50.0
100
AcDbLine
 10
8976.760449664345
 20
7747.70511419801
 30
0.0
 11
8976.760449664345
 21
7756.10126460565
 31
0.0
  0
LINE
  5
199E6
330
747D
100
AcDbEntity
  8
細線
  6
Continuous
 62
     5
100
AcDbLine
 10
10056.26045016166
 20
7780.104940021053
 30
0.0
 11
10056.26045016166
 21
7780.104940021053
 31
0.0
  0
LINE
  5
199E7
330
747D
100
AcDbEntity
  8
部品1
100
AcDbLine
 10
8953.760445010754
 20
7722.104940021056
 30
0.0
 11
10657.76044501075
 21
7722.104940021054
 31
0.0
  0
LINE
  5
199E8
330
747D
100
AcDbEntity
  8
部品1
100
AcDbLine
 10
10627.76044501075
 20
7722.104940021058
 30
0.0
 11
10657.76044501075
 21
7722.104940021058
 31
0.0
  0
LINE
  5
199E9
330
747D
100
AcDbEntity
  8
部品1
100
AcDbLine
 10
8950.760445010754
 20
7826.104940021052
 30
0.0
 11
10630.76044501075
 21
7826.104940021057
 31
0.0
  0
LINE
  5
199EA
330
747D
100
AcDbEntity
  8
部品1
100
AcDbLine
 10
8950.760445010754
 20
7826.104940021052
 30
0.0
 11
8950.760445010754
 21
7795.104940021056
 31
0.0
  0
LINE
  5
199EB
330
747D
100
AcDbEntity
  8
部品1
100
AcDbLine
 10
8962.760445010754
 20
7795.104940021056
 30
0.0
 11
8962.760445010754
 21
7731.104940021056
 31
0.0
  0
LINE
  5
199EC
330
747D
100
AcDbEntity
  8
部品1
100
AcDbLine
 10
8923.760445010755
 20
7722.104940021056
 30
0.0
 11
8923.760445010755
 21
7799.104940021056
 31
0.0
  0
LINE
  5
199ED
330
747D
100
AcDbEntity
  8
部品1
100
AcDbLine
 10
8953.760445010754
 20
7722.104940021056
 30
0.0
 11
8923.760445010755
 21
7722.104940021056
 31
0.0
  0
LINE
  5
199EE
330
747D
100
AcDbEntity
  8
部品1
100
AcDbLine
 10
8962.760445010754
 20
7731.104940021056
 30
0.0
 11
8953.760445010754
 21
7731.104940021056
 31
0.0
  0
LINE
  5
199EF
330
747D
100
AcDbEntity
  8
部品1
100
AcDbLine
 10
8953.760445010754
 20
7731.104940021056
 30
0.0
 11
8953.760445010754
 21
7722.104940021056
 31
0.0
  0
LINE
  5
199F0
330
747D
100
AcDbEntity
  8
部品1
100
AcDbLine
 10
8923.760445010755
 20
7799.104940021056
 30
0.0
 11
8950.760445010754
 21
7799.104940021056
 31
0.0
  0
LINE
  5
199F1
330
747D
100
AcDbEntity
  8
部品1
100
AcDbLine
 10
8962.760445010754
 20
7795.104940021056
 30
0.0
 11
8950.760445010754
 21
7795.104940021056
 31
0.0
  0
LINE
  5
199F2
330
747D
100
AcDbEntity
  8
部品1
100
AcDbLine
 10
10630.76044501075
 20
7826.104940021057
 30
0.0
 11
10630.76044501075
 21
7795.104940021056
 31
0.0
  0
LINE
  5
199F3
330
747D
100
AcDbEntity
  8
部品1
100
AcDbLine
 10
10618.76044501075
 20
7795.104940021056
 30
0.0
 11
10618.76044501075
 21
7731.104940021056
 31
0.0
  0
LINE
  5
199F4
330
747D
100
AcDbEntity
  8
部品1
100
AcDbLine
 10
10618.76044501075
 20
7731.104940021056
 30
0.0
 11
10627.76044501075
 21
7731.104940021056
 31
0.0
  0
LINE
  5
199F5
330
747D
100
AcDbEntity
  8
部品1
100
AcDbLine
 10
10627.76044501075
 20
7731.104940021056
 30
0.0
 11
10627.76044501075
 21
7722.104940021058
 31
0.0
  0
LINE
  5
199F6
330
747D
100
AcDbEntity
  8
部品1
100
AcDbLine
 10
10618.76044501075
 20
7795.104940021056
 30
0.0
 11
10630.76044501075
 21
7795.104940021056
 31
0.0
  0
LINE
  5
199F7
330
747D
100
AcDbEntity
  8
部品1
100
AcDbLine
 10
10657.76044501075
 20
7722.104940021058
 30
0.0
 11
10657.76044501075
 21
7799.104940021057
 31
0.0
  0
LINE
  5
199F9
330
747D
100
AcDbEntity
  8
部品1
100
AcDbLine
 10
10630.76044501075
 20
7799.104940021057
 30
0.0
 11
10657.76044501075
 21
7799.104940021057
 31
0.0
  0
DIMENSION
  5
199FA
330
747D
100
AcDbEntity
  8
寸法
 48
50.0
100
AcDbDimension
  2
*D29
 10
9912.760445010754
 20
7097.029921972832
 30
0.0
 11
9437.760445010754
 21
7097.029921972832
 31
0.0
 70
   160
  1
有効開口部間口\P<>
 71
     5
 42
950.0
  3
INABA_S40
100
AcDbAlignedDimension
 13
8962.760445010754
 23
7722.104940021056
 33
0.0
 14
9912.760445010754
 24
7722.104940021056
 34
0.0
100
AcDbRotatedDimension
1001
ACAD
1000
DSTYLE
1002
{
1070
    41
1040
0.5
1070
    44
1040
1.0
1070
   147
1040
0.8
1070
   271
1070
     2
1070
   272
1070
     2
1070
   289
1070
     3
1070
   340
1005
F706
1070
   343
1005
17B85
1070
   344
1005
17B85
1002
}
  0
LINE
  5
199FB
330
747D
100
AcDbEntity
  8
細線
100
AcDbLine
 10
8962.760445010754
 20
7731.104940021056
 30
0.0
 11
8962.760445010754
 21
7727.104940021103
 31
0.0
  0
LINE
  5
199FC
330
747D
100
AcDbEntity
  8
細線
100
AcDbLine
 10
9119.260338412017
 20
7745.104009566656
 30
0.0
 11
9119.260338412017
 21
7727.10400956663
 31
0.0
  0
LINE
  5
199FD
330
747D
100
AcDbEntity
  8
細線
100
AcDbLine
 10
9078.260338412016
 20
7745.104009566649
 30
0.0
 11
9078.260338412016
 21
7727.10400956663
 31
0.0
  0
LINE
  5
199FE
330
747D
100
AcDbEntity
  8
細線
100
AcDbLine
 10
9119.260338412017
 20
7745.104009566656
 30
0.0
 11
9078.260338412016
 21
7745.104009566649
 31
0.0
  0
ARC
  5
199FF
330
747D
100
AcDbEntity
  8
部品1
100
AcDbCircle
 10
9080.804494289292
 20
7726.604009566653
 30
0.0
 40
1.0
100
AcDbArc
 50
270.0
 51
19.47122063442214
  0
LINE
  5
19A00
330
747D
100
AcDbEntity
  8
部品1
 48
0.01
100
AcDbLine
 10
9073.760338412009
 20
7727.104009566652
 30
0.0
 11
9073.760338412009
 21
7726.104009566653
 31
0.0
  0
LINE
  5
19A01
330
747D
100
AcDbEntity
  8
部品1
 48
0.01
100
AcDbLine
 10
9074.260338412008
 20
7725.604009566652
 30
0.0
 11
9080.804494289292
 21
7725.604009566652
 31
0.0
  0
ARC
  5
19A02
330
747D
100
AcDbEntity
  8
部品1
 48
0.01
100
AcDbCircle
 10
9074.260338412008
 20
7726.104009566653
 30
0.0
 40
0.5
100
AcDbArc
 50
180.0
 51
270.0
  0
ARC
  5
19A03
330
747D
100
AcDbEntity
  8
部品1
100
AcDbCircle
 10
9106.260338412008
 20
7735.604009566653
 30
0.0
 40
26.0
100
AcDbArc
 50
180.0
 51
199.4712206344221
  0
ARC
  5
19A04
330
747D
100
AcDbEntity
  8
部品1
 48
0.01
100
AcDbCircle
 10
9082.260338412009
 20
7740.604009566652
 30
0.0
 40
2.0
100
AcDbArc
 50
90.0
 51
180.0
  0
LINE
  5
19A05
330
747D
100
AcDbEntity
  8
部品1
100
AcDbLine
 10
9080.260338412008
 20
7735.604009566653
 30
0.0
 11
9080.260338412008
 21
7740.604009566652
 31
0.0
  0
ARC
  5
19A06
330
747D
100
AcDbEntity
  8
部品1
100
AcDbCircle
 10
9098.760338412009
 20
7751.404009566655
 30
0.0
 40
16.0
100
AcDbArc
 50
218.3930440192126
 51
254.0576313943215
  0
ARC
  5
19A07
330
747D
100
AcDbEntity
  8
部品1
100
AcDbCircle
 10
9083.868730036821
 20
7739.604009566652
 30
0.0
 40
3.0
100
AcDbArc
 50
38.39304401921267
 51
90.0
  0
LINE
  5
19A08
330
747D
100
AcDbEntity
  8
部品1
 48
0.01
100
AcDbLine
 10
9082.260338412009
 20
7742.604009566652
 30
0.0
 11
9083.868730036821
 21
7742.604009566652
 31
0.0
  0
ARC
  5
19A09
330
747D
100
AcDbEntity
  8
部品1
100
AcDbCircle
 10
9098.760338412009
 20
7751.404009566655
 30
0.0
 40
16.0
100
AcDbArc
 50
285.9423686056786
 51
321.6069559807873
  0
LINE
  5
19A0A
330
747D
100
AcDbEntity
  8
部品1
100
AcDbLine
 10
9102.331052626279
 20
7735.904009566656
 30
0.0
 11
9095.189624197738
 21
7735.904009566656
 31
0.0
  0
ARC
  5
19A0B
330
747D
100
AcDbEntity
  8
部品1
100
AcDbCircle
 10
9102.331052626279
 20
7738.904009566656
 30
0.0
 40
3.0
100
AcDbArc
 50
270.0
 51
285.9423686056786
  0
ARC
  5
19A0C
330
747D
100
AcDbEntity
  8
部品1
100
AcDbCircle
 10
9095.189624197738
 20
7738.904009566656
 30
0.0
 40
3.0
100
AcDbArc
 50
254.0576313943215
 51
270.0
  0
LINE
  5
19A0D
330
747D
100
AcDbEntity
  8
部品1
 48
0.01
100
AcDbLine
 10
9115.260338412008
 20
7742.604009566652
 30
0.0
 11
9113.651946787197
 21
7742.604009566652
 31
0.0
  0
ARC
  5
19A0E
330
747D
100
AcDbEntity
  8
部品1
100
AcDbCircle
 10
9113.651946787197
 20
7739.604009566652
 30
0.0
 40
3.0
100
AcDbArc
 50
90.0
 51
141.6069559807873
  0
ARC
  5
19A0F
330
747D
100
AcDbEntity
  8
部品1
 48
0.01
100
AcDbCircle
 10
9115.260338412008
 20
7740.604009566652
 30
0.0
 40
2.0
100
AcDbArc
 50
0.0
 51
90.0
  0
LINE
  5
19A10
330
747D
100
AcDbEntity
  8
部品1
100
AcDbLine
 10
9117.260338412007
 20
7735.604009566653
 30
0.0
 11
9117.260338412007
 21
7740.604009566652
 31
0.0
  0
ARC
  5
19A11
330
747D
100
AcDbEntity
  8
部品1
100
AcDbCircle
 10
9091.260338412009
 20
7735.604009566653
 30
0.0
 40
26.0
100
AcDbArc
 50
340.5287793655779
 51
0.0
  0
ARC
  5
19A12
330
747D
100
AcDbEntity
  8
部品1
100
AcDbCircle
 10
9116.716182534725
 20
7726.604009566653
 30
0.0
 40
1.0
100
AcDbArc
 50
160.5287793655778
 51
270.0
  0
LINE
  5
19A13
330
747D
100
AcDbEntity
  8
部品1
 48
0.01
100
AcDbLine
 10
9123.260338412007
 20
7725.604009566652
 30
0.0
 11
9116.647832981945
 21
7725.604009566652
 31
0.0
  0
LINE
  5
19A14
330
747D
100
AcDbEntity
  8
部品1
 48
0.01
100
AcDbLine
 10
9123.76033841201
 20
7727.104009566652
 30
0.0
 11
9123.76033841201
 21
7726.104009566653
 31
0.0
  0
LINE
  5
19A15
330
747D
100
AcDbEntity
  8
部品1
 48
0.01
100
AcDbLine
 10
9123.76033841201
 20
7727.104009566652
 30
0.0
 11
9123.76033841201
 21
7726.104009566653
 31
0.0
  0
ARC
  5
19A16
330
747D
100
AcDbEntity
  8
部品1
 48
0.01
100
AcDbCircle
 10
9123.260338412007
 20
7726.104009566653
 30
0.0
 40
0.5
100
AcDbArc
 50
270.0
 51
0.0
  0
LINE
  5
19A17
330
747D
100
AcDbEntity
  8
細線
100
AcDbLine
 10
9263.760436825336
 20
7727.10513175172
 30
0.0
 11
9266.091975116102
 21
7732.105131751706
 31
0.0
  0
LINE
  5
19A18
330
747D
100
AcDbEntity
  8
細線
100
AcDbLine
 10
9333.760445010751
 20
7727.10511419801
 30
0.0
 11
9331.428898534566
 21
7732.105131751687
 31
0.0
  0
LINE
  5
19A19
330
747D
100
AcDbEntity
  8
細線
100
AcDbLine
 10
9331.428898534566
 20
7732.105131751687
 30
0.0
 11
9266.09197511609
 21
7732.105131751676
 31
0.0
  0
LINE
  5
19A1A
330
747D
100
AcDbEntity
  8
細線
100
AcDbLine
 10
9471.428898534565
 20
7732.105131751687
 30
0.0
 11
9406.09197511609
 21
7732.10513175168
 31
0.0
  0
LINE
  5
19A1B
330
747D
100
AcDbEntity
  8
細線
100
AcDbLine
 10
9473.760445010752
 20
7727.10511419801
 30
0.0
 11
9471.428898534565
 21
7732.105131751687
 31
0.0
  0
LINE
  5
19A1C
330
747D
100
AcDbEntity
  8
細線
100
AcDbLine
 10
9403.760436825335
 20
7727.105131751724
 30
0.0
 11
9406.091975116103
 21
7732.10513175171
 31
0.0
  0
LINE
  5
19A1D
330
747D
100
AcDbEntity
  8
細線
100
AcDbLine
 10
9710.428906719982
 20
7766.10496007098
 30
0.0
 11
9645.091983301506
 21
7766.104960070968
 31
0.0
  0
LINE
  5
19A1E
330
747D
100
AcDbEntity
  8
細線
100
AcDbLine
 10
9712.760453196169
 20
7761.104942517302
 30
0.0
 11
9710.428906719982
 21
7766.10496007098
 31
0.0
  0
LINE
  5
19A1F
330
747D
100
AcDbEntity
  8
細線
100
AcDbLine
 10
9642.760445010754
 20
7761.104960071012
 30
0.0
 11
9645.091983301522
 21
7766.104960070997
 31
0.0
  0
LINE
  5
19A20
330
747D
100
AcDbEntity
  8
細線
100
AcDbLine
 10
9782.76040969186
 20
7761.104951883642
 30
0.0
 11
9785.091947982628
 21
7766.104951883628
 31
0.0
  0
LINE
  5
19A21
330
747D
100
AcDbEntity
  8
細線
100
AcDbLine
 10
9852.760417877277
 20
7761.104934329932
 30
0.0
 11
9850.428871401087
 21
7766.104951883614
 31
0.0
  0
LINE
  5
19A22
330
747D
100
AcDbEntity
  8
細線
100
AcDbLine
 10
9850.42887140109
 20
7766.104951883614
 30
0.0
 11
9785.091947982614
 21
7766.104951883599
 31
0.0
  0
LINE
  5
19A23
330
747D
100
AcDbEntity
  8
細線
100
AcDbLine
 10
9990.428907951024
 20
7766.104931579872
 30
0.0
 11
9925.091984532551
 21
7766.104931579858
 31
0.0
  0
LINE
  5
19A24
330
747D
100
AcDbEntity
  8
細線
100
AcDbLine
 10
9992.760454427212
 20
7761.104914026191
 30
0.0
 11
9990.428907951024
 21
7766.104931579872
 31
0.0
  0
LINE
  5
19A25
330
747D
100
AcDbEntity
  8
細線
100
AcDbLine
 10
9922.760445010753
 20
7761.104928939925
 30
0.0
 11
9925.091984532564
 21
7766.104931579886
 31
0.0
  0
LINE
  5
19A26
330
747D
100
AcDbEntity
  8
細線
 48
50.0
100
AcDbLine
 10
9865.622666935303
 20
7761.104951883642
 30
0.0
 11
9871.378184517972
 21
7779.375803174136
 31
0.0
  0
LINE
  5
19A27
330
747D
100
AcDbEntity
  8
細線
 48
50.0
100
AcDbLine
 10
9871.378184517972
 20
7779.375803174136
 30
0.0
 11
9882.306632998403
 21
7779.375803174136
 31
0.0
  0
ARC
  5
19A28
330
747D
100
AcDbEntity
  8
細線
 48
50.0
100
AcDbCircle
 10
9882.306632998403
 20
7778.375803174137
 30
0.0
 40
1.0
100
AcDbArc
 50
24.62431835213048
 51
90.0
  0
ARC
  5
19A29
330
747D
100
AcDbEntity
  8
細線
 48
50.0
100
AcDbCircle
 10
9893.215345113041
 20
7778.375803174137
 30
0.0
 40
1.0
100
AcDbArc
 50
90.0
 51
155.3756816478695
  0
ARC
  5
19A2A
330
747D
100
AcDbEntity
  8
細線
 48
50.0
100
AcDbCircle
 10
9887.76098905572
 20
7780.875803174136
 30
0.0
 40
5.0
100
AcDbArc
 50
204.6243183521304
 51
335.3756816478695
  0
LINE
  5
19A2B
330
747D
100
AcDbEntity
  8
細線
 48
50.0
100
AcDbLine
 10
9893.215345113041
 20
7779.375803174136
 30
0.0
 11
9904.143793593471
 21
7779.375803174136
 31
0.0
  0
LINE
  5
19A2C
330
747D
100
AcDbEntity
  8
細線
 48
50.0
100
AcDbLine
 10
9904.143793593471
 20
7779.375803174136
 30
0.0
 11
9909.89931117614
 21
7761.104951883649
 31
0.0
  0
LINE
  5
19A2D
330
747D
100
AcDbEntity
  8
細線
100
AcDbLine
 10
10228.42890795102
 20
7800.104942661002
 30
0.0
 11
10163.09198453255
 21
7800.104942660988
 31
0.0
  0
LINE
  5
19A2E
330
747D
100
AcDbEntity
  8
細線
100
AcDbLine
 10
10230.76045442721
 20
7795.104925107321
 30
0.0
 11
10228.42890795102
 21
7800.104942661002
 31
0.0
  0
LINE
  5
19A2F
330
747D
100
AcDbEntity
  8
細線
100
AcDbLine
 10
10160.76044501075
 20
7795.104940021056
 30
0.0
 11
10163.09198453256
 21
7800.104942661016
 31
0.0
  0
LINE
  5
19A30
330
747D
100
AcDbEntity
  8
細線
100
AcDbLine
 10
10300.76043559429
 20
7795.10495493479
 30
0.0
 11
10303.0919751161
 21
7800.104957574752
 31
0.0
  0
LINE
  5
19A31
330
747D
100
AcDbEntity
  8
細線
100
AcDbLine
 10
10370.76044501075
 20
7795.104940021056
 30
0.0
 11
10368.42889853456
 21
7800.104957574737
 31
0.0
  0
LINE
  5
19A32
330
747D
100
AcDbEntity
  8
細線
100
AcDbLine
 10
10368.42889853456
 20
7800.104957574737
 30
0.0
 11
10303.09197511609
 21
7800.104957574721
 31
0.0
  0
LINE
  5
19A33
330
747D
100
AcDbEntity
  8
細線
100
AcDbLine
 10
10508.42889853456
 20
7800.104957574737
 30
0.0
 11
10443.09197511609
 21
7800.104957574721
 31
0.0
  0
LINE
  5
19A34
330
747D
100
AcDbEntity
  8
細線
100
AcDbLine
 10
10510.76044501075
 20
7795.104940021056
 30
0.0
 11
10508.42889853456
 21
7800.104957574737
 31
0.0
  0
LINE
  5
19A35
330
747D
100
AcDbEntity
  8
細線
100
AcDbLine
 10
10440.76043559429
 20
7795.10495493479
 30
0.0
 11
10443.0919751161
 21
7800.104957574752
 31
0.0
  0
LINE
  5
19A36
330
747D
100
AcDbEntity
  8
細線
 48
50.0
100
AcDbLine
 10
9551.260445010758
 20
7771.301194411958
 30
0.0
 11
8962.760445010754
 21
7771.301194411956
 31
0.0
  0
LINE
  5
19A37
330
747D
100
AcDbEntity
  8
細線
 48
50.0
100
AcDbLine
 10
9592.260445010756
 20
7741.896286415706
 30
0.0
 11
10618.76044501075
 21
7741.896286415705
 31
0.0
  0
LINE
  5
19A38
330
747D
100
AcDbEntity
  8
細線
 48
50.0
100
AcDbLine
 10
10084.26045016166
 20
7775.605054969782
 30
0.0
 11
10618.76044501075
 21
7775.605054969782
 31
0.0
  0
LINE
  5
19A39
330
747D
100
AcDbEntity
  8
寸法
 48
50.0
100
AcDbLine
 10
9535.261263989152
 20
7610.363648075256
 30
0.0
 11
9754.413204164876
 21
7610.363648075256
 31
0.0
  0
LINE
  5
19A3A
330
747D
100
AcDbEntity
  8
寸法
 48
50.0
100
AcDbLine
 10
9754.413204164876
 20
7610.363648075256
 30
0.0
 11
9665.128985569454
 21
7634.287282344742
 31
0.0
  0
LINE
  5
19A3B
330
747D
100
AcDbEntity
  8
寸法
 48
50.0
100
AcDbLine
 10
9665.128985569454
 20
7634.287282344742
 30
0.0
 11
9665.128985569454
 21
7580.623647762952
 31
0.0
  0
LINE
  5
19A3C
330
747D
100
AcDbEntity
  8
寸法
 48
50.0
100
AcDbLine
 10
9334.557443382495
 20
7577.141691589919
 30
0.0
 11
9385.9634512926
 21
7577.141691589919
 31
0.0
  0
LINE
  5
19A3D
330
747D
100
AcDbEntity
  8
寸法
 48
50.0
100
AcDbLine
 10
9385.9634512926
 20
7577.141691589919
 30
0.0
 11
9385.9634512926
 21
7608.451850242085
 31
0.0
  0
LINE
  5
19A3E
330
747D
100
AcDbEntity
  8
寸法
 48
50.0
100
AcDbLine
 10
9385.9634512926
 20
7608.451850242085
 30
0.0
 11
9415.724783284023
 21
7608.451850242085
 31
0.0
  0
LINE
  5
19A3F
330
747D
100
AcDbEntity
  8
寸法
 48
50.0
100
AcDbLine
 10
9415.724783284023
 20
7608.451850242085
 30
0.0
 11
9360.260447337546
 21
7646.031301170694
 31
0.0
  0
LINE
  5
19A40
330
747D
100
AcDbEntity
  8
寸法
 48
50.0
100
AcDbLine
 10
9304.796111391071
 20
7608.451850242085
 30
0.0
 11
9360.260447337546
 21
7646.031301170694
 31
0.0
  0
LINE
  5
19A41
330
747D
100
AcDbEntity
  8
寸法
 48
50.0
100
AcDbLine
 10
9334.557443382495
 20
7608.451850242085
 30
0.0
 11
9304.796111391071
 21
7608.451850242085
 31
0.0
  0
LINE
  5
19A42
330
747D
100
AcDbEntity
  8
寸法
 48
50.0
100
AcDbLine
 10
9334.557443382495
 20
7577.141691589919
 30
0.0
 11
9334.557443382495
 21
7608.451850242085
 31
0.0
  0
LINE
  5
19A43
330
747D
100
AcDbEntity
  8
寸法
 48
50.0
100
AcDbLine
 10
9385.9634512926
 20
7577.141691589919
 30
0.0
 11
9334.557443382495
 21
7577.141691589919
 31
0.0
  0
DIMENSION
  5
19C50
330
747D
100
AcDbEntity
  8
寸法
100
AcDbDimension
  2
*D30
 10
10685.76044501076
 20
6607.277149276182
 30
0.0
 11
9778.907195342137
 21
6607.277149276182
 31
0.0
 70
   160
 71
     5
 42
1789.999999999982
  3
INABA_S40G
100
AcDbAlignedDimension
 13
8895.760445010784
 23
7799.104940021085
 33
0.0
 14
10685.76044501076
 24
7799.104940021215
 34
0.0
100
AcDbRotatedDimension
1001
ACAD
1000
DSTYLE
1002
{
1002
}
  0
TEXT
  5
19C51
330
747D
100
AcDbEntity
  8
部品1
100
AcDbText
 10
9498.9447217256
 20
6135.135276415295
 30
0.0
 40
135.0
  1
平面図
  7
STYLE2
100
AcDbText
  0
LINE
  5
19C52
330
747D
100
AcDbEntity
  8
部品1
100
AcDbLine
 10
9409.025111896562
 20
6328.028805633818
 30
0.0
 11
9409.025111896562
 21
6088.136484088286
 31
0.0
  0
LINE
  5
19C53
330
747D
100
AcDbEntity
  8
部品1
100
AcDbLine
 10
9409.025111896562
 20
6088.136484088286
 30
0.0
 11
10172.495778125
 21
6088.136484088286
 31
0.0
  0
LINE
  5
19C54
330
747D
100
AcDbEntity
  8
部品1
100
AcDbLine
 10
10172.495778125
 20
6088.136484088286
 30
0.0
 11
10172.495778125
 21
6328.028805633818
 31
0.0
  0
LINE
  5
19C55
330
747D
100
AcDbEntity
  8
部品1
100
AcDbLine
 10
10172.495778125
 20
6328.028805633818
 30
0.0
 11
9409.025111896562
 21
6328.028805633818
 31
0.0
  0
DIMENSION
  5
19C56
330
747D
100
AcDbEntity
  8
寸法
100
AcDbDimension
  2
*D31
 10
8601.149199384066
 20
7724.104940021085
 30
0.0
 11
8601.149199384066
 21
7583.619658646847
 31
0.0
 70
   160
 71
     5
 42
75.0
  3
INABA_S40
100
AcDbAlignedDimension
 13
8895.760445010784
 23
7799.104940021085
 33
0.0
 14
8923.760445010762
 24
7724.104940021085
 34
0.0
 50
90.0
100
AcDbRotatedDimension
1001
ACAD
1000
DSTYLE
1002
{
1070
    41
1040
0.5
1070
    44
1040
1.0
1070
   147
1040
0.8
1070
   271
1070
     2
1070
   272
1070
     2
1070
   289
1070
     3
1070
   340
1005
F706
1070
   343
1005
17B85
1070
   344
1005
17B85
1002
}
  0
DIMENSION
  5
19C57
330
747D
100
AcDbEntity
  8
寸法
 48
50.0
100
AcDbDimension
  2
*D32
 10
10657.76044501075
 20
6847.034670170309
 30
0.0
 11
9781.342188962575
 21
6847.034670170309
 31
0.0
 70
   160
 71
     5
 42
1734.0
  3
INABA_S40G
100
AcDbAlignedDimension
 13
8923.760445010755
 23
7722.10494002109
 33
0.0
 14
10657.76044501075
 24
7722.104940021089
 34
0.0
100
AcDbRotatedDimension
1001
ACAD
1000
DSTYLE
1002
{
1070
   341
1005
0
1002
}
  0
LWPOLYLINE
  5
19F5E
330
747D
100
AcDbEntity
  8
部品1
 48
50.0
100
AcDbPolyline
 90
        4
 70
     1
 43
0.0
 10
9022.810445010762
 20
3728.150975637158
 10
9025.710445010764
 20
3728.150975637158
 10
9025.710445010764
 20
3737.650975637158
 10
9022.810445010762
 20
3737.650975637158
  0
CIRCLE
  5
19F5F
330
747D
100
AcDbEntity
  8
部品1
 48
50.0
100
AcDbCircle
 10
9024.260445010764
 20
3732.900975637158
 30
0.0
 40
9.0
  0
ARC
  5
19F60
330
747D
100
AcDbEntity
  8
細線
 48
50.0
100
AcDbCircle
 10
9024.260445010764
 20
3732.900975637158
 30
0.0
 40
4.0
100
AcDbArc
 50
111.2538091853132
 51
248.7461908146868
  0
ARC
  5
19F61
330
747D
100
AcDbEntity
  8
細線
 48
50.0
100
AcDbCircle
 10
9024.260445010764
 20
3732.900975637158
 30
0.0
 40
17.5
100
AcDbArc
 50
306.4837370612677
 51
233.5162629387323
  0
LINE
  5
19F62
330
747D
100
AcDbEntity
  8
細線
 48
50.0
100
AcDbLine
 10
9034.26044501076
 20
3709.042015056275
 30
0.0
 11
9034.260445010763
 21
3718.026500856517
 31
0.0
  0
LINE
  5
19F63
330
747D
100
AcDbEntity
  8
細線
 48
50.0
100
AcDbLine
 10
9014.260445010762
 20
3709.042015056277
 30
0.0
 11
9014.260445010762
 21
3718.026500856513
 31
0.0
  0
ARC
  5
19F64
330
747D
100
AcDbEntity
  8
細線
 48
50.0
100
AcDbCircle
 10
9024.260445010764
 20
3732.900975637158
 30
0.0
 40
26.5
100
AcDbArc
 50
249.3326835063939
 51
290.6673164933835
  0
ARC
  5
19F65
330
747D
100
AcDbEntity
  8
細線
 48
50.0
100
AcDbCircle
 10
9033.260445010755
 20
3709.042015056275
 30
0.0
 40
1.0
100
AcDbArc
 50
290.6673164936062
 51
359.9999999998958
  0
ARC
  5
19F66
330
747D
100
AcDbEntity
  8
細線
 48
50.0
100
AcDbCircle
 10
9015.260445010763
 20
3709.042015056277
 30
0.0
 40
1.0
100
AcDbArc
 50
180.0
 51
249.3326835066164
  0
ARC
  5
19F67
330
747D
100
AcDbEntity
  8
細線
 48
50.0
100
AcDbCircle
 10
9013.260445010763
 20
3718.026500856513
 30
0.0
 40
1.0
100
AcDbArc
 50
0.0
 51
53.51626293873231
  0
ARC
  5
19F68
330
747D
100
AcDbEntity
  8
細線
 48
50.0
100
AcDbCircle
 10
9035.260445010766
 20
3718.026500856517
 30
0.0
 40
1.0
100
AcDbArc
 50
126.4837370615127
 51
180.0
  0
ARC
  5
19F69
330
747D
100
AcDbEntity
  8
細線
 48
50.0
100
AcDbCircle
 10
9024.260445010764
 20
3732.900975637158
 30
0.0
 40
21.5
100
AcDbArc
 50
255.8014401250294
 51
284.1985598749706
  0
ARC
  5
19F6A
330
747D
100
AcDbEntity
  8
細線
 48
50.0
100
AcDbCircle
 10
9024.260445010764
 20
3732.900975637158
 30
0.0
 40
16.5
100
AcDbArc
 50
251.9694646069326
 51
288.0305353930674
  0
LINE
  5
19F6B
330
747D
100
AcDbEntity
  8
細線
 48
50.0
100
AcDbLine
 10
9029.760445010763
 20
3712.348603511351
 30
0.0
 11
9029.760445010763
 21
3716.925995198688
 31
0.0
  0
LINE
  5
19F6C
330
747D
100
AcDbEntity
  8
細線
 48
50.0
100
AcDbLine
 10
9018.760445010762
 20
3712.348603511351
 30
0.0
 11
9018.760445010762
 21
3716.925995198686
 31
0.0
  0
ARC
  5
19F6D
330
747D
100
AcDbEntity
  8
細線
 48
50.0
100
AcDbCircle
 10
9019.060445010765
 20
3716.925995198686
 30
0.0
 40
0.3
100
AcDbArc
 50
71.96946460693259
 51
180.0
  0
ARC
  5
19F6E
330
747D
100
AcDbEntity
  8
細線
 48
50.0
100
AcDbCircle
 10
9029.460445010764
 20
3716.925995198688
 30
0.0
 40
0.3
100
AcDbArc
 50
0.0
 51
108.0305353930674
  0
ARC
  5
19F6F
330
747D
100
AcDbEntity
  8
細線
 48
50.0
100
AcDbCircle
 10
9029.46044501076
 20
3712.348603511351
 30
0.0
 40
0.3
100
AcDbArc
 50
284.1985598747622
 51
0.0000000001042204
  0
ARC
  5
19F70
330
747D
100
AcDbEntity
  8
細線
 48
50.0
100
AcDbCircle
 10
9019.060445010765
 20
3712.348603511351
 30
0.0
 40
0.3
100
AcDbArc
 50
180.0
 51
255.8014401248081
  0
CIRCLE
  5
19F71
330
747D
100
AcDbEntity
  8
細線
 48
50.0
100
AcDbCircle
 10
9024.260445010764
 20
3732.900975637158
 30
0.0
 40
12.0
  0
ARC
  5
19F72
330
747D
100
AcDbEntity
  8
部品1
 48
50.0
100
AcDbCircle
 10
9024.260445010764
 20
3782.900975637158
 30
0.0
 40
8.5
100
AcDbArc
 50
114.315739171091
 51
245.684260828909
  0
CIRCLE
  5
19F73
330
747D
100
AcDbEntity
  8
細線
 48
50.0
100
AcDbCircle
 10
9024.260445010764
 20
3782.900975637158
 30
0.0
 40
4.5
  0
LWPOLYLINE
  5
19F74
330
747D
100
AcDbEntity
  8
部品1
 48
50.0
100
AcDbPolyline
 90
        2
 70
     0
 43
0.0
 10
9020.760445010763
 20
3801.575825034141
 10
9020.760445010763
 20
3790.646942329573
  0
CIRCLE
  5
19F75
330
747D
100
AcDbEntity
  8
部品1
 48
50.0
100
AcDbCircle
 10
9024.260445010764
 20
3782.900975637158
 30
0.0
 40
19.0
  0
LWPOLYLINE
  5
19F76
330
747D
100
AcDbEntity
  8
部品1
 48
50.0
100
AcDbPolyline
 90
        2
 70
     0
 43
0.0
 10
9020.760445010763
 20
3775.155008944743
 10
9020.760445010763
 20
3764.226126240175
  0
LWPOLYLINE
  5
19F77
330
747D
100
AcDbEntity
  8
部品1
 48
50.0
100
AcDbPolyline
 90
        2
 70
     0
 43
0.0
 10
9027.760445010763
 20
3790.646942329573
 10
9027.760445010763
 20
3801.575825034141
  0
ARC
  5
19F78
330
747D
100
AcDbEntity
  8
部品1
 48
50.0
100
AcDbCircle
 10
9024.260445010764
 20
3782.900975637158
 30
0.0
 40
8.5
100
AcDbArc
 50
294.315739171091
 51
65.68426082890896
  0
LWPOLYLINE
  5
19F79
330
747D
100
AcDbEntity
  8
部品1
 48
50.0
100
AcDbPolyline
 90
        2
 70
     0
 43
0.0
 10
9027.760445010763
 20
3764.226126240175
 10
9027.760445010763
 20
3775.155008944743
  0
ARC
  5
19F7A
330
747D
100
AcDbEntity
  8
細線
 48
50.0
100
AcDbCircle
 10
9024.260445010764
 20
3782.900975637158
 30
0.0
 40
16.5
100
AcDbArc
 50
332.0012352654438
 51
27.99876473455621
  0
ARC
  5
19F7B
330
747D
100
AcDbEntity
  8
細線
 48
50.0
100
AcDbCircle
 10
9024.260445010764
 20
3782.900975637158
 30
0.0
 40
14.0
100
AcDbArc
 50
326.4074436112986
 51
33.59255638870134
  0
LINE
  5
19F7C
330
747D
100
AcDbEntity
  8
細線
 48
50.0
100
AcDbLine
 10
9009.691642726432
 20
3790.646942329573
 30
0.0
 11
9012.598541221073
 21
3790.646942329573
 31
0.0
  0
LINE
  5
19F7D
330
747D
100
AcDbEntity
  8
細線
 48
50.0
100
AcDbLine
 10
9009.691642726432
 20
3775.155008944743
 30
0.0
 11
9012.598541221073
 21
3775.155008944743
 31
0.0
  0
LINE
  5
19F7E
330
747D
100
AcDbEntity
  8
細線
 48
50.0
100
AcDbLine
 10
9035.922348800452
 20
3790.646942329573
 30
0.0
 11
9038.829247295097
 21
3790.646942329573
 31
0.0
  0
LINE
  5
19F7F
330
747D
100
AcDbEntity
  8
細線
 48
50.0
100
AcDbLine
 10
9035.922348800452
 20
3775.155008944743
 30
0.0
 11
9038.829247295097
 21
3775.155008944743
 31
0.0
  0
ARC
  5
19F80
330
747D
100
AcDbEntity
  8
細線
 48
50.0
100
AcDbCircle
 10
9024.260445010764
 20
3782.900975637158
 30
0.0
 40
14.0
100
AcDbArc
 50
146.4074436112986
 51
213.5925563887013
  0
ARC
  5
19F81
330
747D
100
AcDbEntity
  8
細線
 48
50.0
100
AcDbCircle
 10
9024.260445010764
 20
3782.900975637158
 30
0.0
 40
16.5
100
AcDbArc
 50
152.0012352654438
 51
207.9987647345562
  0
ARC
  5
19F82
330
747D
100
AcDbEntity
  8
部品1
 48
50.0
100
AcDbCircle
 10
8997.760445010763
 20
3808.400975637158
 30
0.0
 40
5.0
100
AcDbArc
 50
90.0
 51
180.0
  0
ARC
  5
19F83
330
747D
100
AcDbEntity
  8
部品1
 48
50.0
100
AcDbCircle
 10
8997.760445010763
 20
3697.400975637158
 30
0.0
 40
5.0
100
AcDbArc
 50
180.0
 51
270.0
  0
ARC
  5
19F84
330
747D
100
AcDbEntity
  8
部品1
 48
50.0
100
AcDbCircle
 10
9050.760445010764
 20
3697.400975637158
 30
0.0
 40
5.0
100
AcDbArc
 50
270.0
 51
0.0
  0
ARC
  5
19F85
330
747D
100
AcDbEntity
  8
部品1
 48
50.0
100
AcDbCircle
 10
9050.760445010764
 20
3808.400975637158
 30
0.0
 40
5.0
100
AcDbArc
 50
0.0
 51
90.0
  0
LINE
  5
19F87
330
747D
100
AcDbEntity
  8
部品1
 48
50.0
100
AcDbLine
 10
8992.760445010764
 20
3697.400975637158
 30
0.0
 11
8992.760445010764
 21
3808.400975637158
 31
0.0
  0
LINE
  5
19F88
330
747D
100
AcDbEntity
  8
部品1
 48
50.0
100
AcDbLine
 10
9050.760445010764
 20
3692.400975637158
 30
0.0
 11
8997.760445010763
 21
3692.400975637158
 31
0.0
  0
LINE
  5
19F89
330
747D
100
AcDbEntity
  8
部品1
 48
50.0
100
AcDbLine
 10
9055.760445010763
 20
3808.400975637158
 30
0.0
 11
9055.760445010763
 21
3697.400975637158
 31
0.0
  0
ENDSEC
  0
SECTION
  2
OBJECTS
  0
DICTIONARY
  5
7471
330
0
100
AcDbDictionary
281
     1
  3
ACAD_COLOR
350
17B7A
  3
ACAD_GROUP
350
7472
  3
ACAD_LAYOUT
350
17B7B
  3
ACAD_MATERIAL
350
17B79
  3
ACAD_MLINESTYLE
350
7473
  3
ACAD_PLOTSETTINGS
350
17B7C
  3
ACAD_PLOTSTYLENAME
350
17B77
  3
ACDBHEADERROUNDTRIPXREC
350
19F98
  3
AcDbVariableDictionary
350
19F94
  3
CONTENTDICTIONARY
350
E71C
  3
DRAWINGVARIABLESDICT
350
F3B9
  0
DICTIONARY
  5
17D07
330
7467
100
AcDbDictionary
280
     1
281
     1
  3
ACAD_LAYERSTATES
360
17D08
  0
DICTIONARY
  5
17B7A
102
{ACAD_REACTORS
330
7471
102
}
330
7471
100
AcDbDictionary
281
     1
  0
DICTIONARY
  5
7472
102
{ACAD_REACTORS
330
7471
102
}
330
7471
100
AcDbDictionary
281
     1
  0
DICTIONARY
  5
17B7B
102
{ACAD_REACTORS
330
7471
102
}
330
7471
100
AcDbDictionary
281
     1
  3
Model
350
17B7D
  3
レイアウト1
350
17B7E
  0
DICTIONARY
  5
17B79
102
{ACAD_REACTORS
330
7471
102
}
330
7471
100
AcDbDictionary
281
     1
  0
DICTIONARY
  5
7473
102
{ACAD_REACTORS
330
7471
102
}
330
7471
100
AcDbDictionary
281
     1
  3
STANDARD
350
7480
  0
DICTIONARY
  5
17B7C
102
{ACAD_REACTORS
330
7471
102
}
330
7471
100
AcDbDictionary
281
     1
  0
ACDBDICTIONARYWDFLT
  5
17B77
102
{ACAD_REACTORS
330
7471
102
}
330
7471
100
AcDbDictionary
281
     1
  3
Normal
350
17B78
100
AcDbDictionaryWithDefault
340
17B78
  0
DICTIONARY
  5
19F98
102
{ACAD_REACTORS
330
7471
102
}
330
7471
100
AcDbDictionary
281
     1
  3
COLORDICT
350
19F9A
  3
MATERIALDICT
350
19F99
  0
DICTIONARY
  5
19F94
102
{ACAD_REACTORS
330
7471
102
}
330
7471
100
AcDbDictionary
281
     1
  3
DIMASSOC
350
19F95
  3
PROJECTNAME
350
19F96
  0
DICTIONARY
  5
E71C
102
{ACAD_REACTORS
330
7471
102
}
330
7471
100
AcDbDictionary
281
     1
  0
DICTIONARY
  5
F3B9
102
{ACAD_REACTORS
330
7471
102
}
330
7471
100
AcDbDictionary
281
     1
1001
DRAWINGVARIABLESXDATA
1000
POLARMODE
1000
1
  0
DICTIONARY
  5
17D08
102
{ACAD_REACTORS
330
17D07
102
}
330
17D07
100
AcDbDictionary
281
     1
  0
LAYOUT
  5
17B7D
102
{ACAD_XDICTIONARY
360
19F9B
102
}
102
{ACAD_REACTORS
330
17B7B
102
}
330
17B7B
100
AcDbPlotSettings
  1

  2
Microsoft Office Document Image Writer
  4

  6

 40
0.0
 41
0.0
 42
0.0
 43
0.0
 44
0.0
 45
0.0
 46
0.0
 47
0.0
 48
0.0
 49
0.0
140
0.0
141
0.0
142
1.0
143
1.0
 70
  1712
 72
     0
 73
     0
 74
     0
  7

 75
     0
147
1.0
148
0.0
149
0.0
100
AcDbLayout
  1
Model
 70
     1
 71
     0
 10
0.0
 20
0.0
 11
12.0
 21
9.0
 12
0.0
 22
0.0
 32
0.0
 14
0.0
 24
0.0
 34
0.0
 15
0.0
 25
0.0
 35
0.0
146
0.0
 13
0.0
 23
0.0
 33
0.0
 16
1.0
 26
0.0
 36
0.0
 17
0.0
 27
1.0
 37
0.0
 76
     0
330
747D
  0
LAYOUT
  5
17B7E
102
{ACAD_XDICTIONARY
360
19F9D
102
}
102
{ACAD_REACTORS
330
17B7B
102
}
330
17B7B
100
AcDbPlotSettings
  1

  2
Microsoft Office Document Image Writer
  4

  6

 40
0.0
 41
0.0
 42
0.0
 43
0.0
 44
0.0
 45
0.0
 46
0.0
 47
0.0
 48
0.0
 49
0.0
140
0.0
141
0.0
142
1.0
143
1.0
 70
   688
 72
     0
 73
     0
 74
     5
  7

 75
    16
147
1.0
148
0.0
149
0.0
100
AcDbLayout
  1
レイアウト1
 70
     0
 71
     1
 10
0.0
 20
0.0
 11
420.0
 21
297.0
 12
0.0
 22
0.0
 32
0.0
 14
1.000000000000000E+20
 24
1.000000000000000E+20
 34
1.000000000000000E+20
 15
-1.000000000000000E+20
 25
-1.000000000000000E+20
 35
-1.000000000000000E+20
146
0.0
 13
0.0
 23
0.0
 33
0.0
 16
1.0
 26
0.0
 36
0.0
 17
0.0
 27
1.0
 37
0.0
 76
     0
330
747A
  0
MLINESTYLE
  5
7480
102
{ACAD_REACTORS
330
7473
102
}
330
7473
100
AcDbMlineStyle
  2
STANDARD
 70
     0
  3

 62
     0
 51
90.0
 52
90.0
 71
     2
 49
0.5
 62
   256
  6
BYLAYER
 49
-0.5
 62
   256
  6
BYLAYER
  0
ACDBPLACEHOLDER
  5
17B78
102
{ACAD_REACTORS
330
17B77
102
}
330
17B77
  0
XRECORD
  5
19F9A
102
{ACAD_REACTORS
330
19F98
102
}
330
19F98
100
AcDbXrecord
280
     1
340
17B7A
  0
XRECORD
  5
19F99
102
{ACAD_REACTORS
330
19F98
102
}
330
19F98
100
AcDbXrecord
280
     1
340
17B79
  0
DICTIONARYVAR
  5
19F95
102
{ACAD_REACTORS
330
19F94
102
}
330
19F94
100
DictionaryVariables
280
     0
  1
1
  0
DICTIONARYVAR
  5
19F96
102
{ACAD_REACTORS
330
19F94
102
}
330
19F94
100
DictionaryVariables
280
     0
  1

  0
DICTIONARY
  5
19F9B
330
17B7D
100
AcDbDictionary
280
     1
281
     1
  3
ACAD_XREC_ROUNDTRIP
360
19F9C
  0
DICTIONARY
  5
19F9D
330
17B7E
100
AcDbDictionary
280
     1
281
     1
  3
ACAD_XREC_ROUNDTRIP
360
19F9E
  0
XRECORD
  5
19F9C
102
{ACAD_REACTORS
330
19F9B
102
}
330
19F9B
100
AcDbXrecord
280
     1
102
SHADEPLOT
 70
     0
102
SHADEPLOTRESLEVEL
 70
     2
102
SHADEPLOTCUSTOMDPI
 70
   300
  0
XRECORD
  5
19F9E
102
{ACAD_REACTORS
330
19F9D
102
}
330
19F9D
100
AcDbXrecord
280
     1
102
SHADEPLOT
 70
     0
102
SHADEPLOTRESLEVEL
 70
     2
102
SHADEPLOTCUSTOMDPI
 70
   300
  0
ENDSEC
  0
EOF
