  0
SECTION
  2
HEADER
  9
$ACADVER
  1
AC1015
  9
$ACADMAINTVER
 70
    20
  9
$DWGCODEPAGE
  3
ANSI_932
  9
$INSBASE
 10
0.0
 20
0.0
 30
0.0
  9
$EXTMIN
 10
139.9999999999995
 20
-0.0000000000000909
 30
0.0
  9
$EXTMAX
 10
16307.2
 20
11409.6
 30
0.0
  9
$LIMMIN
 10
-25.79074261211281
 20
-125.8223078213959
  9
$LIMMAX
 10
16471.10331197129
 20
11496.44801950658
  9
$ORTHOMODE
 70
     0
  9
$REGENMODE
 70
     1
  9
$FILLMODE
 70
     1
  9
$QTEXTMODE
 70
     0
  9
$MIRRTEXT
 70
     1
  9
$LTSCALE
 40
20.0
  9
$ATTMODE
 70
     1
  9
$TEXTSIZE
 40
4.0
  9
$TRACEWID
 40
1.0
  9
$TEXTSTYLE
  7
STYLE1
  9
$CLAYER
  8
寸法
  9
$CELTYPE
  6
BYLAYER
  9
$CECOLOR
 62
   256
  9
$CELTSCALE
 40
50.0
  9
$DISPSILH
 70
     0
  9
$DIMSCALE
 40
40.0
  9
$DIMASZ
 40
2.5
  9
$DIMEXO
 40
0.5
  9
$DIMDLI
 40
7.0
  9
$DIMRND
 40
0.0
  9
$DIMDLE
 40
0.0
  9
$DIMEXE
 40
1.5
  9
$DIMTP
 40
0.0
  9
$DIMTM
 40
0.0
  9
$DIMTXT
 40
3.0
  9
$DIMCEN
 40
0.0
  9
$DIMTSZ
 40
0.0
  9
$DIMTOL
 70
     0
  9
$DIMLIM
 70
     0
  9
$DIMTIH
 70
     0
  9
$DIMTOH
 70
     0
  9
$DIMSE1
 70
     0
  9
$DIMSE2
 70
     0
  9
$DIMTAD
 70
     3
  9
$DIMZIN
 70
     8
  9
$DIMBLK
  1

  9
$DIMASO
 70
     1
  9
$DIMSHO
 70
     1
  9
$DIMPOST
  1

  9
$DIMAPOST
  1

  9
$DIMALT
 70
     0
  9
$DIMALTD
 70
     2
  9
$DIMALTF
 40
0.0394
  9
$DIMLFAC
 40
1.0
  9
$DIMTOFL
 70
     1
  9
$DIMTVP
 40
0.0
  9
$DIMTIX
 70
     1
  9
$DIMSOXD
 70
     0
  9
$DIMSAH
 70
     1
  9
$DIMBLK1
  1
DOTSMALL
  9
$DIMBLK2
  1
DOTSMALL
  9
$DIMSTYLE
  2
INABA_S40G
  9
$DIMCLRD
 70
     0
  9
$DIMCLRE
 70
     0
  9
$DIMCLRT
 70
     7
  9
$DIMTFAC
 40
1.0
  9
$DIMGAP
 40
1.0
  9
$DIMJUST
 70
     0
  9
$DIMSD1
 70
     0
  9
$DIMSD2
 70
     0
  9
$DIMTOLJ
 70
     1
  9
$DIMTZIN
 70
     0
  9
$DIMALTZ
 70
     0
  9
$DIMALTTZ
 70
     0
  9
$DIMUPT
 70
     0
  9
$DIMDEC
 70
     1
  9
$DIMTDEC
 70
     4
  9
$DIMALTU
 70
     2
  9
$DIMALTTD
 70
     2
  9
$DIMTXSTY
  7
STYLE1
  9
$DIMAUNIT
 70
     0
  9
$DIMADEC
 70
     0
  9
$DIMALTRND
 40
0.0
  9
$DIMAZIN
 70
     0
  9
$DIMDSEP
 70
    46
  9
$DIMATFIT
 70
     3
  9
$DIMFRAC
 70
     0
  9
$DIMLDRBLK
  1

  9
$DIMLUNIT
 70
     2
  9
$DIMLWD
 70
    -2
  9
$DIMLWE
 70
    -2
  9
$DIMTMOVE
 70
     0
  9
$LUNITS
 70
     2
  9
$LUPREC
 70
     1
  9
$SKETCHINC
 40
1.0
  9
$FILLETRAD
 40
3.0
  9
$AUNITS
 70
     0
  9
$AUPREC
 70
     0
  9
$MENU
  1
acad
  9
$ELEVATION
 40
0.0
  9
$PELEVATION
 40
0.0
  9
$THICKNESS
 40
0.0
  9
$LIMCHECK
 70
     0
  9
$CHAMFERA
 40
0.0
  9
$CHAMFERB
 40
0.0
  9
$CHAMFERC
 40
0.0
  9
$CHAMFERD
 40
0.0
  9
$SKPOLY
 70
     0
  9
$TDCREATE
 40
2451368.612993866
  9
$TDUCREATE
 40
2451368.237993866
  9
$TDUPDATE
 40
2455575.682716100
  9
$TDUUPDATE
 40
2455575.307716100
  9
$TDINDWG
 40
0.4684175000
  9
$TDUSRTIMER
 40
0.4684175000
  9
$USRTIMER
 70
     1
  9
$ANGBASE
 50
0.0
  9
$ANGDIR
 70
     0
  9
$PDMODE
 70
     3
  9
$PDSIZE
 40
2.0
  9
$PLINEWID
 40
0.0
  9
$SPLFRAME
 70
     0
  9
$SPLINETYPE
 70
     6
  9
$SPLINESEGS
 70
     8
  9
$HANDSEED
  5
186F5
  9
$SURFTAB1
 70
     6
  9
$SURFTAB2
 70
     6
  9
$SURFTYPE
 70
     6
  9
$SURFU
 70
     6
  9
$SURFV
 70
     6
  9
$UCSBASE
  2

  9
$UCSNAME
  2

  9
$UCSORG
 10
0.0
 20
0.0
 30
0.0
  9
$UCSXDIR
 10
1.0
 20
0.0
 30
0.0
  9
$UCSYDIR
 10
0.0
 20
1.0
 30
0.0
  9
$UCSORTHOREF
  2

  9
$UCSORTHOVIEW
 70
     0
  9
$UCSORGTOP
 10
0.0
 20
0.0
 30
0.0
  9
$UCSORGBOTTOM
 10
0.0
 20
0.0
 30
0.0
  9
$UCSORGLEFT
 10
0.0
 20
0.0
 30
0.0
  9
$UCSORGRIGHT
 10
0.0
 20
0.0
 30
0.0
  9
$UCSORGFRONT
 10
0.0
 20
0.0
 30
0.0
  9
$UCSORGBACK
 10
0.0
 20
0.0
 30
0.0
  9
$PUCSBASE
  2

  9
$PUCSNAME
  2

  9
$PUCSORG
 10
0.0
 20
0.0
 30
0.0
  9
$PUCSXDIR
 10
1.0
 20
0.0
 30
0.0
  9
$PUCSYDIR
 10
0.0
 20
1.0
 30
0.0
  9
$PUCSORTHOREF
  2

  9
$PUCSORTHOVIEW
 70
     0
  9
$PUCSORGTOP
 10
0.0
 20
0.0
 30
0.0
  9
$PUCSORGBOTTOM
 10
0.0
 20
0.0
 30
0.0
  9
$PUCSORGLEFT
 10
0.0
 20
0.0
 30
0.0
  9
$PUCSORGRIGHT
 10
0.0
 20
0.0
 30
0.0
  9
$PUCSORGFRONT
 10
0.0
 20
0.0
 30
0.0
  9
$PUCSORGBACK
 10
0.0
 20
0.0
 30
0.0
  9
$USERI1
 70
     0
  9
$USERI2
 70
     0
  9
$USERI3
 70
     0
  9
$USERI4
 70
     0
  9
$USERI5
 70
     0
  9
$USERR1
 40
0.0
  9
$USERR2
 40
0.0
  9
$USERR3
 40
0.0
  9
$USERR4
 40
0.0
  9
$USERR5
 40
0.0
  9
$WORLDVIEW
 70
     1
  9
$SHADEDGE
 70
     3
  9
$SHADEDIF
 70
    70
  9
$TILEMODE
 70
     1
  9
$MAXACTVP
 70
    16
  9
$PINSBASE
 10
0.0
 20
0.0
 30
0.0
  9
$PLIMCHECK
 70
     0
  9
$PEXTMIN
 10
1.000000000000000E+20
 20
1.000000000000000E+20
 30
1.000000000000000E+20
  9
$PEXTMAX
 10
-1.000000000000000E+20
 20
-1.000000000000000E+20
 30
-1.000000000000000E+20
  9
$PLIMMIN
 10
0.0
 20
0.0
  9
$PLIMMAX
 10
420.0
 20
297.0
  9
$UNITMODE
 70
     0
  9
$VISRETAIN
 70
     0
  9
$PLINEGEN
 70
     0
  9
$PSLTSCALE
 70
     0
  9
$TREEDEPTH
 70
  3020
  9
$CMLSTYLE
  2
STANDARD
  9
$CMLJUST
 70
     0
  9
$CMLSCALE
 40
1.0
  9
$PROXYGRAPHICS
 70
     1
  9
$MEASUREMENT
 70
     1
  9
$CELWEIGHT
370
    -1
  9
$ENDCAPS
280
     0
  9
$JOINSTYLE
280
     0
  9
$LWDISPLAY
290
     0
  9
$INSUNITS
 70
     0
  9
$HYPERLINKBASE
  1

  9
$STYLESHEET
  1
inaba.ctb
  9
$XEDIT
290
     1
  9
$CEPSNTYPE
380
     0
  9
$PSTYLEMODE
290
     1
  9
$FINGERPRINTGUID
  2
{B37AA0AE-C039-486A-AD99-E53F66C2F457}
  9
$VERSIONGUID
  2
{3EF1F3B4-62B7-4418-8209-981CD32F9C04}
  9
$EXTNAMES
290
     1
  9
$PSVPSCALE
 40
0.0
  9
$OLESTARTUP
290
     0
  0
ENDSEC
  0
SECTION
  2
CLASSES
  0
CLASS
  1
ACDBDICTIONARYWDFLT
  2
AcDbDictionaryWithDefault
  3
ObjectDBX Classes
 90
        0
280
     0
281
     0
  0
CLASS
  1
DICTIONARYVAR
  2
AcDbDictionaryVar
  3
ObjectDBX Classes
 90
        0
280
     0
281
     0
  0
CLASS
  1
ACDBPLACEHOLDER
  2
AcDbPlaceHolder
  3
ObjectDBX Classes
 90
        0
280
     0
281
     0
  0
CLASS
  1
LAYOUT
  2
AcDbLayout
  3
ObjectDBX Classes
 90
        0
280
     0
281
     0
  0
ENDSEC
  0
SECTION
  2
TABLES
  0
TABLE
  2
VPORT
  5
746D
330
0
100
AcDbSymbolTable
 70
     2
  0
VPORT
  5
186ED
330
746D
100
AcDbSymbolTableRecord
100
AcDbViewportTableRecord
  2
*Active
 70
     0
 10
0.0
 20
0.0
 11
1.0
 21
1.0
 12
8223.761025238504
 22
5704.608037261908
 13
0.0
 23
0.0
 14
10.0
 24
10.0
 15
10.0
 25
10.0
 16
0.0
 26
0.0
 36
1.0
 17
0.0
 27
0.0
 37
0.0
 40
11495.08541324274
 41
1.525925925925925
 42
50.0
 43
0.0
 44
0.0
 50
0.0
 51
0.0
 71
     0
 72
     0
 73
     1
 74
     0
 75
     0
 76
     0
 77
     0
 78
     0
281
     0
 65
     1
110
0.0
120
0.0
130
0.0
111
1.0
121
0.0
131
0.0
112
0.0
122
1.0
132
0.0
 79
     0
146
0.0
  0
ENDTAB
  0
TABLE
  2
LTYPE
  5
746A
330
0
100
AcDbSymbolTable
 70
     4
  0
LTYPE
  5
7477
330
746A
100
AcDbSymbolTableRecord
100
AcDbLinetypeTableRecord
  2
BYBLOCK
 70
     0
  3

 72
    65
 73
     0
 40
0.0
  0
LTYPE
  5
7478
330
746A
100
AcDbSymbolTableRecord
100
AcDbLinetypeTableRecord
  2
BYLAYER
 70
     0
  3

 72
    65
 73
     0
 40
0.0
  0
LTYPE
  5
7479
330
746A
100
AcDbSymbolTableRecord
100
AcDbLinetypeTableRecord
  2
CONTINUOUS
 70
     0
  3
Solid line
 72
    65
 73
     0
 40
0.0
  0
LTYPE
  5
7816
330
746A
100
AcDbSymbolTableRecord
100
AcDbLinetypeTableRecord
  2
CENTER
 70
     0
  3
____ _ ____ _ ____ _ ____ _ ____ _ ____ _ ____ 
 72
    65
 73
     4
 40
2.0
 49
1.25
 74
     0
 49
-0.25
 74
     0
 49
0.25
 74
     0
 49
-0.25
 74
     0
  0
LTYPE
  5
781A
330
746A
100
AcDbSymbolTableRecord
100
AcDbLinetypeTableRecord
  2
HIDDEN
 70
     0
  3
__ __ __ __ __ __ __ __ __ __ __ __ __ __ __ __
 72
    65
 73
     2
 40
0.375
 49
0.25
 74
     0
 49
-0.125
 74
     0
  0
LTYPE
  5
781B
330
746A
100
AcDbSymbolTableRecord
100
AcDbLinetypeTableRecord
  2
PHANTOM
 70
     0
  3
______  __  __  ______  __  __  ______  __  __ 
 72
    65
 73
     6
 40
2.5
 49
1.25
 74
     0
 49
-0.25
 74
     0
 49
0.25
 74
     0
 49
-0.25
 74
     0
 49
0.25
 74
     0
 49
-0.25
 74
     0
  0
ENDTAB
  0
TABLE
  2
LAYER
  5
7467
102
{ACAD_XDICTIONARY
360
16706
102
}
330
0
100
AcDbSymbolTable
 70
    12
  0
LAYER
  5
7474
330
7467
100
AcDbSymbolTableRecord
100
AcDbLayerTableRecord
  2
0
 70
     0
 62
     7
  6
CONTINUOUS
370
    -3
390
16578
  0
LAYER
  5
DEB2
330
7467
100
AcDbSymbolTableRecord
100
AcDbLayerTableRecord
  2
センター
 70
     0
 62
     3
  6
CENTER
370
    -3
390
16578
  0
LAYER
  5
DEB3
330
7467
100
AcDbSymbolTableRecord
100
AcDbLayerTableRecord
  2
寸法
 70
     0
 62
     4
  6
CONTINUOUS
370
    -3
390
16578
  0
LAYER
  5
DEB4
330
7467
100
AcDbSymbolTableRecord
100
AcDbLayerTableRecord
  2
部品1
 70
     0
 62
     7
  6
CONTINUOUS
370
    -3
390
16578
  0
LAYER
  5
DEB5
330
7467
100
AcDbSymbolTableRecord
100
AcDbLayerTableRecord
  2
補助
 70
     0
 62
    -1
  6
CONTINUOUS
370
    -3
390
16578
  0
LAYER
  5
DEB6
330
7467
100
AcDbSymbolTableRecord
100
AcDbLayerTableRecord
  2
文字
 70
     0
 62
     7
  6
CONTINUOUS
370
    -3
390
16578
  0
LAYER
  5
F255
330
7467
100
AcDbSymbolTableRecord
100
AcDbLayerTableRecord
  2
DEFPOINTS
 70
     0
 62
     7
  6
CONTINUOUS
290
     0
370
    -3
390
16578
  0
LAYER
  5
10B54
330
7467
100
AcDbSymbolTableRecord
100
AcDbLayerTableRecord
  2
仕様書枠
 70
     0
 62
   230
  6
CONTINUOUS
370
    -3
390
16578
  0
LAYER
  5
11729
330
7467
100
AcDbSymbolTableRecord
100
AcDbLayerTableRecord
  2
Ｇ．Ｌ
 70
     0
 62
    30
  6
CONTINUOUS
370
    -3
390
16578
  0
LAYER
  5
1173F
330
7467
100
AcDbSymbolTableRecord
100
AcDbLayerTableRecord
  2
細線
 70
     0
 62
     5
  6
CONTINUOUS
370
    -3
390
16578
  0
LAYER
  5
12CC4
330
7467
100
AcDbSymbolTableRecord
100
AcDbLayerTableRecord
  2
想像線
 70
     0
 62
     6
  6
PHANTOM
370
    -3
390
16578
  0
LAYER
  5
142E2
330
7467
100
AcDbSymbolTableRecord
100
AcDbLayerTableRecord
  2
破線
 70
     0
 62
     2
  6
HIDDEN
370
    -3
390
16578
  0
ENDTAB
  0
TABLE
  2
STYLE
  5
7468
330
0
100
AcDbSymbolTable
 70
     4
  0
STYLE
  5
7475
330
7468
100
AcDbSymbolTableRecord
100
AcDbTextStyleTableRecord
  2
STANDARD
 70
     0
 40
0.0
 41
1.0
 50
0.0
 71
     0
 42
4.0
  3
txt
  4
C:\AutoCAD LT\bigfont.shx
  0
STYLE
  5
F706
330
7468
100
AcDbSymbolTableRecord
100
AcDbTextStyleTableRecord
  2
STYLE1
 70
     0
 40
0.0
 41
1.0
 50
0.0
 71
     0
 42
4.0
  3
isocp.shx
  4
bigfont.shx
  0
STYLE
  5
103BF
330
7468
100
AcDbSymbolTableRecord
100
AcDbTextStyleTableRecord
  2
STYLE2
 70
     0
 40
0.0
 41
1.0
 50
0.0
 71
     0
 42
100.0
  3
MS PGothic.ttf
  4

1001
ACAD
1000
MS PGothic
1071
    32818
  0
STYLE
  5
17181
330
7468
100
AcDbSymbolTableRecord
100
AcDbTextStyleTableRecord
  2
STYLE3
 70
     0
 40
0.0
 41
1.0
 50
0.0
 71
     0
 42
100.0
  3
DFPGothic-EB.ttf
  4

1001
ACAD
1000
DFPGothic-EB
1071
    32818
  0
ENDTAB
  0
TABLE
  2
VIEW
  5
746B
330
0
100
AcDbSymbolTable
 70
     0
  0
ENDTAB
  0
TABLE
  2
UCS
  5
746C
330
0
100
AcDbSymbolTable
 70
     0
  0
ENDTAB
  0
TABLE
  2
APPID
  5
746E
330
0
100
AcDbSymbolTable
 70
     6
  0
APPID
  5
7476
330
746E
100
AcDbSymbolTableRecord
100
AcDbRegAppTableRecord
  2
ACAD
 70
     0
  0
APPID
  5
DEA9
330
746E
100
AcDbSymbolTableRecord
100
AcDbRegAppTableRecord
  2
CONTENTBLOCKICON
 70
     0
  0
APPID
  5
DEAA
330
746E
100
AcDbSymbolTableRecord
100
AcDbRegAppTableRecord
  2
CONTENTBLOCKDESCRIPTION
 70
     0
  0
APPID
  5
E71D
330
746E
100
AcDbSymbolTableRecord
100
AcDbRegAppTableRecord
  2
CONTENTTABDATA
 70
     0
  0
APPID
  5
E71E
330
746E
100
AcDbSymbolTableRecord
100
AcDbRegAppTableRecord
  2
CONTENTCURRENTTAB
 70
     0
  0
APPID
  5
F3BA
330
746E
100
AcDbSymbolTableRecord
100
AcDbRegAppTableRecord
  2
DRAWINGVARIABLESXDATA
 70
     0
  0
ENDTAB
  0
TABLE
  2
DIMSTYLE
  5
746F
330
0
100
AcDbSymbolTable
 70
     5
100
AcDbDimStyleTable
 71
     0
  0
DIMSTYLE
105
7484
330
746F
100
AcDbSymbolTableRecord
100
AcDbDimStyleTableRecord
  2
JIS
 70
     0
 41
2.5
 42
1.0
 43
7.0
 44
1.0
 73
     0
 74
     0
 77
     1
 78
     8
140
2.5
141
0.0
143
0.0394
147
0.0
172
     1
174
     1
175
     1
340
7475
  0
DIMSTYLE
105
F71F
102
{ACAD_REACTORS
330
16A3C
330
16A3D
330
16A3E
330
16A3F
330
16A4B
330
16A4E
330
16A4F
330
16A50
330
16A8F
330
16A90
330
16A9D
330
16AA1
330
16ADC
330
16B45
330
16B46
330
16B47
330
16C52
330
16CA4
330
17C25
330
17C27
330
17C3E
330
17C41
330
17C53
330
17C56
330
17C57
330
17C58
330
17C59
330
17C5A
330
18370
330
1846A
102
}
330
746F
100
AcDbSymbolTableRecord
100
AcDbDimStyleTableRecord
  2
INABA_S40G
 70
     0
 40
40.0
 41
2.5
 42
0.5
 43
7.0
 44
1.5
 73
     0
 74
     0
 77
     3
 78
     8
140
3.0
141
0.0
143
0.0394
147
1.0
172
     1
173
     1
174
     1
178
     7
271
     1
340
F706
341
F770
343
F770
344
F770
  0
DIMSTYLE
105
16705
102
{ACAD_REACTORS
330
180DF
330
18371
102
}
330
746F
100
AcDbSymbolTableRecord
100
AcDbDimStyleTableRecord
  2
INABA_S40
 70
     0
 40
40.0
 41
2.5
 42
0.5
 43
7.0
 44
1.5
 73
     0
 74
     0
 77
     3
 78
     8
140
3.0
141
0.0
143
0.0394
147
1.0
172
     1
173
     1
174
     1
175
     1
178
     7
340
7475
  0
DIMSTYLE
105
17182
330
746F
100
AcDbSymbolTableRecord
100
AcDbDimStyleTableRecord
  2
INABA_S50G
 70
     0
 41
125.0
 42
25.0
 43
7.0
 44
75.0
 73
     0
 74
     0
 77
     3
 78
     8
140
150.0
141
0.0
143
0.0394
147
25.0
172
     1
173
     1
174
     1
175
     1
178
     7
271
     1
340
F706
341
F770
343
F770
344
F770
  0
DIMSTYLE
105
18673
330
746F
100
AcDbSymbolTableRecord
100
AcDbDimStyleTableRecord
  2
INABA_S20G
 70
     0
 40
20.0
 41
2.5
 42
0.5
 43
7.0
 44
1.5
 73
     0
 74
     0
 77
     3
 78
     8
140
3.0
141
0.0
143
0.0394
147
1.0
172
     1
173
     1
174
     1
178
     7
271
     1
340
F706
341
F770
343
F770
344
F770
  0
ENDTAB
  0
TABLE
  2
BLOCK_RECORD
  5
7466
330
0
100
AcDbSymbolTable
 70
    34
  0
BLOCK_RECORD
  5
747D
330
7466
100
AcDbSymbolTableRecord
100
AcDbBlockTableRecord
  2
*MODEL_SPACE
340
1657D
  0
BLOCK_RECORD
  5
747A
330
7466
100
AcDbSymbolTableRecord
100
AcDbBlockTableRecord
  2
*PAPER_SPACE
340
1657E
  0
BLOCK_RECORD
  5
F770
330
7466
100
AcDbSymbolTableRecord
100
AcDbBlockTableRecord
  2
_DOTSMALL
340
0
102
{BLKREFS
331
1747B
331
1747C
331
17501
331
17502
331
1750C
331
1750D
331
17515
331
17516
331
17520
331
17521
331
17529
331
1752A
331
17532
331
17533
331
1753C
331
1753D
331
17546
331
17547
331
1754F
331
17550
331
1755A
331
1755B
331
17563
331
17564
331
1756C
331
1756D
331
17588
331
17589
331
17593
331
17594
331
175B9
331
175BA
331
175C3
331
175C4
331
175CC
331
175CD
331
185D3
331
185D4
331
185E7
331
185E8
331
18602
331
18603
331
1860D
331
1860E
331
18618
331
18619
331
18623
331
18624
331
1862C
331
1862D
331
18637
331
18638
331
18640
331
18641
331
18649
331
1864A
331
18652
331
18653
331
18664
331
18665
102
}
  0
BLOCK_RECORD
  5
16629
330
7466
100
AcDbSymbolTableRecord
100
AcDbBlockTableRecord
  2
_DOT
340
0
102
{BLKREFS
331
185DE
331
185DF
331
185F0
331
185F1
102
}
  0
BLOCK_RECORD
  5
16CC6
330
7466
100
AcDbSymbolTableRecord
100
AcDbBlockTableRecord
  2
*D2
340
0
  0
BLOCK_RECORD
  5
16CD4
330
7466
100
AcDbSymbolTableRecord
100
AcDbBlockTableRecord
  2
*D3
340
0
  0
BLOCK_RECORD
  5
16CE1
330
7466
100
AcDbSymbolTableRecord
100
AcDbBlockTableRecord
  2
*D4
340
0
  0
BLOCK_RECORD
  5
16CED
330
7466
100
AcDbSymbolTableRecord
100
AcDbBlockTableRecord
  2
*D5
340
0
  0
BLOCK_RECORD
  5
16CF9
330
7466
100
AcDbSymbolTableRecord
100
AcDbBlockTableRecord
  2
*D6
340
0
  0
BLOCK_RECORD
  5
16D05
330
7466
100
AcDbSymbolTableRecord
100
AcDbBlockTableRecord
  2
*D7
340
0
  0
BLOCK_RECORD
  5
16D11
330
7466
100
AcDbSymbolTableRecord
100
AcDbBlockTableRecord
  2
*D8
340
0
  0
BLOCK_RECORD
  5
16D1F
330
7466
100
AcDbSymbolTableRecord
100
AcDbBlockTableRecord
  2
*D9
340
0
  0
BLOCK_RECORD
  5
16D2B
330
7466
100
AcDbSymbolTableRecord
100
AcDbBlockTableRecord
  2
*D10
340
0
  0
BLOCK_RECORD
  5
16D38
330
7466
100
AcDbSymbolTableRecord
100
AcDbBlockTableRecord
  2
*D11
340
0
  0
BLOCK_RECORD
  5
16D45
330
7466
100
AcDbSymbolTableRecord
100
AcDbBlockTableRecord
  2
*D12
340
0
  0
BLOCK_RECORD
  5
16D51
330
7466
100
AcDbSymbolTableRecord
100
AcDbBlockTableRecord
  2
*D13
340
0
  0
BLOCK_RECORD
  5
16D5D
330
7466
100
AcDbSymbolTableRecord
100
AcDbBlockTableRecord
  2
*D14
340
0
  0
BLOCK_RECORD
  5
16D6B
330
7466
100
AcDbSymbolTableRecord
100
AcDbBlockTableRecord
  2
*D15
340
0
  0
BLOCK_RECORD
  5
16D77
330
7466
100
AcDbSymbolTableRecord
100
AcDbBlockTableRecord
  2
*D16
340
0
  0
BLOCK_RECORD
  5
16D85
330
7466
100
AcDbSymbolTableRecord
100
AcDbBlockTableRecord
  2
*D17
340
0
  0
BLOCK_RECORD
  5
16D9D
330
7466
100
AcDbSymbolTableRecord
100
AcDbBlockTableRecord
  2
*D18
340
0
  0
BLOCK_RECORD
  5
16E35
330
7466
100
AcDbSymbolTableRecord
100
AcDbBlockTableRecord
  2
*D19
340
0
  0
BLOCK_RECORD
  5
17D62
330
7466
100
AcDbSymbolTableRecord
100
AcDbBlockTableRecord
  2
*D20
340
0
  0
BLOCK_RECORD
  5
17D6E
330
7466
100
AcDbSymbolTableRecord
100
AcDbBlockTableRecord
  2
*D21
340
0
  0
BLOCK_RECORD
  5
17D7A
330
7466
100
AcDbSymbolTableRecord
100
AcDbBlockTableRecord
  2
*D22
340
0
  0
BLOCK_RECORD
  5
17D86
330
7466
100
AcDbSymbolTableRecord
100
AcDbBlockTableRecord
  2
*D23
340
0
  0
BLOCK_RECORD
  5
17DA0
330
7466
100
AcDbSymbolTableRecord
100
AcDbBlockTableRecord
  2
*D24
340
0
  0
BLOCK_RECORD
  5
17DAC
330
7466
100
AcDbSymbolTableRecord
100
AcDbBlockTableRecord
  2
*D25
340
0
  0
BLOCK_RECORD
  5
17DBA
330
7466
100
AcDbSymbolTableRecord
100
AcDbBlockTableRecord
  2
*D26
340
0
  0
BLOCK_RECORD
  5
17DC8
330
7466
100
AcDbSymbolTableRecord
100
AcDbBlockTableRecord
  2
*D27
340
0
  0
BLOCK_RECORD
  5
17DD6
330
7466
100
AcDbSymbolTableRecord
100
AcDbBlockTableRecord
  2
*D28
340
0
  0
BLOCK_RECORD
  5
17DE2
330
7466
100
AcDbSymbolTableRecord
100
AcDbBlockTableRecord
  2
*D29
340
0
  0
BLOCK_RECORD
  5
1814A
330
7466
100
AcDbSymbolTableRecord
100
AcDbBlockTableRecord
  2
*D30
340
0
  0
BLOCK_RECORD
  5
18479
330
7466
100
AcDbSymbolTableRecord
100
AcDbBlockTableRecord
  2
*D31
340
0
  0
BLOCK_RECORD
  5
18485
330
7466
100
AcDbSymbolTableRecord
100
AcDbBlockTableRecord
  2
*D32
340
0
  0
BLOCK_RECORD
  5
184D1
330
7466
100
AcDbSymbolTableRecord
100
AcDbBlockTableRecord
  2
*D33
340
0
  0
ENDTAB
  0
ENDSEC
  0
SECTION
  2
BLOCKS
  0
BLOCK
  5
7489
330
747D
100
AcDbEntity
  8
0
100
AcDbBlockBegin
  2
*MODEL_SPACE
 70
     0
 10
0.0
 20
0.0
 30
0.0
  3
*MODEL_SPACE
  1

  0
ENDBLK
  5
748A
330
747D
100
AcDbEntity
  8
0
100
AcDbBlockEnd
  0
BLOCK
  5
7487
330
747A
100
AcDbEntity
 67
     1
  8
0
100
AcDbBlockBegin
  2
*PAPER_SPACE
 70
     0
 10
0.0
 20
0.0
 30
0.0
  3
*PAPER_SPACE
  1

  0
ENDBLK
  5
7488
330
747A
100
AcDbEntity
 67
     1
  8
0
100
AcDbBlockEnd
  0
BLOCK
  5
F771
330
F770
100
AcDbEntity
  8
0
 48
50.0
100
AcDbBlockBegin
  2
_DOTSMALL
 70
     0
 10
0.0
 20
0.0
 30
0.0
  3
_DOTSMALL
  1

  0
LWPOLYLINE
  5
F772
330
F770
100
AcDbEntity
  8
0
  6
ByBlock
 62
     0
 48
50.0
100
AcDbPolyline
 90
        2
 70
     1
 43
0.5
 10
-0.0625
 20
0.0
 42
1.0
 10
0.0625
 20
0.0
 42
1.0
  0
ENDBLK
  5
F776
330
F770
100
AcDbEntity
  8
0
 48
50.0
100
AcDbBlockEnd
  0
BLOCK
  5
1662A
330
16629
100
AcDbEntity
  8
0
 48
50.0
100
AcDbBlockBegin
  2
_DOT
 70
     0
 10
0.0
 20
0.0
 30
0.0
  3
_DOT
  1

  0
LWPOLYLINE
  5
1662B
330
16629
100
AcDbEntity
  8
0
  6
ByBlock
 62
     0
 48
50.0
100
AcDbPolyline
 90
        2
 70
     1
 43
0.5
 10
-0.25
 20
0.0
 42
1.0
 10
0.25
 20
0.0
 42
1.0
  0
LINE
  5
1662C
330
16629
100
AcDbEntity
  8
0
  6
ByBlock
 62
     0
 48
50.0
100
AcDbLine
 10
-0.5
 20
0.0
 30
0.0
 11
-1.0
 21
0.0
 31
0.0
  0
ENDBLK
  5
1662D
330
16629
100
AcDbEntity
  8
0
 48
50.0
100
AcDbBlockEnd
  0
BLOCK
  5
16CD2
330
16CC6
100
AcDbEntity
  8
0
 48
50.0
100
AcDbBlockBegin
  2
*D2
 70
     1
 10
0.0
 20
0.0
 30
0.0
  3
*D2
  1

  0
LINE
  5
1758E
330
16CC6
100
AcDbEntity
  8
寸法
 62
     0
 48
50.0
370
    -2
100
AcDbLine
 10
5510.996748939548
 20
2926.172274673713
 30
0.0
 11
4847.344039781251
 21
2926.172274673714
 31
0.0
  0
LINE
  5
1758F
330
16CC6
100
AcDbEntity
  8
寸法
 62
     0
 48
50.0
370
    -2
100
AcDbLine
 10
5455.996748939547
 20
2876.172274673713
 30
0.0
 11
4847.344039781251
 21
2876.172274673714
 31
0.0
  0
LINE
  5
17590
330
16CC6
100
AcDbEntity
  8
寸法
 62
     0
 48
50.0
370
    -2
100
AcDbLine
 10
4907.344039781251
 20
2926.172274673714
 30
0.0
 11
4907.344039781251
 21
3026.172274673714
 31
0.0
  0
LINE
  5
17591
330
16CC6
100
AcDbEntity
  8
寸法
 62
     0
 48
50.0
370
    -2
100
AcDbLine
 10
4907.344039781251
 20
2876.172274673714
 30
0.0
 11
4907.344039781251
 21
2464.077786484732
 31
0.0
  0
LINE
  5
17592
330
16CC6
100
AcDbEntity
  8
寸法
 62
     0
 48
50.0
370
    -2
100
AcDbLine
 10
4907.344039781251
 20
2926.172274673714
 30
0.0
 11
4907.344039781251
 21
2876.172274673714
 31
0.0
  0
INSERT
  5
17593
330
16CC6
100
AcDbEntity
  8
寸法
 62
     0
 48
50.0
370
    -2
100
AcDbBlockReference
  2
_DOTSMALL
 10
4907.344039781251
 20
2926.172274673714
 30
0.0
 41
100.0
 42
100.0
 43
100.0
 50
270.0
  0
INSERT
  5
17594
330
16CC6
100
AcDbEntity
  8
寸法
 62
     0
 48
50.0
370
    -2
100
AcDbBlockReference
  2
_DOTSMALL
 10
4907.344039781251
 20
2876.172274673714
 30
0.0
 41
100.0
 42
100.0
 43
100.0
 50
90.0
  0
MTEXT
  5
17595
330
16CC6
100
AcDbEntity
  8
寸法
 62
     7
 48
50.0
100
AcDbMText
 10
4807.34403978125
 20
2570.125030579221
 30
0.0
 40
120.0
 41
0.0
 71
     5
 72
     1
  1
\A1;50
  7
STYLE1
 11
0.0000000000000001
 21
1.0
 31
0.0
 73
     1
 44
1.0
1001
ACAD
1000
MTEXTBEGIN
1070
    73
1070
     1
1070
    44
1040
1.0
1070
    74
1070
     0
1000
MTEXTEND
  0
POINT
  5
17596
330
16CC6
100
AcDbEntity
  8
DEFPOINTS
 62
     0
 48
50.0
100
AcDbPoint
 10
5530.996748939547
 20
2926.172274673713
 30
0.0
  0
POINT
  5
17597
330
16CC6
100
AcDbEntity
  8
DEFPOINTS
 62
     0
 48
50.0
100
AcDbPoint
 10
5475.996748939548
 20
2876.172274673713
 30
0.0
  0
POINT
  5
17598
330
16CC6
100
AcDbEntity
  8
DEFPOINTS
 62
     0
 48
50.0
100
AcDbPoint
 10
4907.344039781251
 20
2876.172274673714
 30
0.0
  0
ENDBLK
  5
16CD3
330
16CC6
100
AcDbEntity
  8
0
 48
50.0
100
AcDbBlockEnd
  0
BLOCK
  5
16CDF
330
16CD4
100
AcDbEntity
  8
0
 48
50.0
100
AcDbBlockBegin
  2
*D3
 70
     1
 10
0.0
 20
0.0
 30
0.0
  3
*D3
  1

  0
LINE
  5
17584
330
16CD4
100
AcDbEntity
  8
寸法
 62
     0
 48
50.0
370
    -2
100
AcDbLine
 10
5455.996748939547
 20
2876.172274673713
 30
0.0
 11
4562.357367010189
 21
2876.172274673714
 31
0.0
  0
LINE
  5
17585
330
16CD4
100
AcDbEntity
  8
寸法
 62
     0
 48
50.0
370
    -2
100
AcDbLine
 10
4887.34403978125
 20
2776.172274673713
 30
0.0
 11
4562.357367010189
 21
2776.172274673713
 31
0.0
  0
LINE
  5
17586
330
16CD4
100
AcDbEntity
  8
寸法
 62
     0
 48
50.0
370
    -2
100
AcDbLine
 10
4622.35736701019
 20
2876.172274673714
 30
0.0
 11
4622.35736701019
 21
2776.172274673713
 31
0.0
  0
LINE
  5
17587
330
16CD4
100
AcDbEntity
  8
寸法
 62
     0
 48
50.0
370
    -2
100
AcDbLine
 10
4622.35736701019
 20
2776.172274673713
 30
0.0
 11
4622.35736701019
 21
2404.077786484732
 31
0.0
  0
INSERT
  5
17588
330
16CD4
100
AcDbEntity
  8
寸法
 62
     0
 48
50.0
370
    -2
100
AcDbBlockReference
  2
_DOTSMALL
 10
4622.35736701019
 20
2876.172274673714
 30
0.0
 41
100.0
 42
100.0
 43
100.0
 50
90.0
  0
INSERT
  5
17589
330
16CD4
100
AcDbEntity
  8
寸法
 62
     0
 48
50.0
370
    -2
100
AcDbBlockReference
  2
_DOTSMALL
 10
4622.35736701019
 20
2776.172274673713
 30
0.0
 41
100.0
 42
100.0
 43
100.0
 50
270.0
  0
MTEXT
  5
1758A
330
16CD4
100
AcDbEntity
  8
寸法
 62
     7
 48
50.0
100
AcDbMText
 10
4522.357367010188
 20
2540.125030579221
 30
0.0
 40
120.0
 41
0.0
 71
     5
 72
     1
  1
\A1;100
  7
STYLE1
 11
0.0000000000000001
 21
1.0
 31
0.0
 73
     1
 44
1.0
1001
ACAD
1000
MTEXTBEGIN
1070
    73
1070
     1
1070
    44
1040
1.0
1070
    74
1070
     0
1000
MTEXTEND
  0
POINT
  5
1758B
330
16CD4
100
AcDbEntity
  8
DEFPOINTS
 62
     0
 48
50.0
100
AcDbPoint
 10
5475.996748939548
 20
2876.172274673713
 30
0.0
  0
POINT
  5
1758C
330
16CD4
100
AcDbEntity
  8
DEFPOINTS
 62
     0
 48
50.0
100
AcDbPoint
 10
4907.34403978125
 20
2776.172274673713
 30
0.0
  0
POINT
  5
1758D
330
16CD4
100
AcDbEntity
  8
DEFPOINTS
 62
     0
 48
50.0
100
AcDbPoint
 10
4622.35736701019
 20
2776.172274673713
 30
0.0
  0
ENDBLK
  5
16CE0
330
16CD4
100
AcDbEntity
  8
0
 48
50.0
100
AcDbBlockEnd
  0
BLOCK
  5
16CEB
330
16CE1
100
AcDbEntity
  8
0
 48
50.0
100
AcDbBlockBegin
  2
*D4
 70
     1
 10
0.0
 20
0.0
 30
0.0
  3
*D4
  1

  0
LINE
  5
175C9
330
16CE1
100
AcDbEntity
  8
寸法
 62
     0
 48
50.0
370
    -2
100
AcDbLine
 10
5510.996748939548
 20
2876.172274673713
 30
0.0
 11
4562.35736701019
 21
2876.172274673714
 31
0.0
  0
LINE
  5
175CA
330
16CE1
100
AcDbEntity
  8
寸法
 62
     0
 48
50.0
370
    -2
100
AcDbLine
 10
5450.996748939548
 20
5251.172274673717
 30
0.0
 11
4562.35736701019
 21
5251.172274673717
 31
0.0
  0
LINE
  5
175CB
330
16CE1
100
AcDbEntity
  8
寸法
 62
     0
 48
50.0
370
    -2
100
AcDbLine
 10
4622.357367010191
 20
2876.172274673714
 30
0.0
 11
4622.357367010191
 21
5251.172274673717
 31
0.0
  0
INSERT
  5
175CC
330
16CE1
100
AcDbEntity
  8
寸法
 62
     0
 48
50.0
370
    -2
100
AcDbBlockReference
  2
_DOTSMALL
 10
4622.357367010191
 20
2876.172274673714
 30
0.0
 41
100.0
 42
100.0
 43
100.0
 50
270.0
  0
INSERT
  5
175CD
330
16CE1
100
AcDbEntity
  8
寸法
 62
     0
 48
50.0
370
    -2
100
AcDbBlockReference
  2
_DOTSMALL
 10
4622.357367010191
 20
5251.172274673717
 30
0.0
 41
100.0
 42
100.0
 43
100.0
 50
90.0
  0
MTEXT
  5
175CE
330
16CE1
100
AcDbEntity
  8
寸法
 62
     7
 48
50.0
100
AcDbMText
 10
4522.345555986567
 20
3971.172274673713
 30
0.0
 40
120.0
 41
0.0
 71
     5
 72
     1
  1
\A1;2375
  7
STYLE1
 11
0.0000000000000001
 21
1.0
 31
0.0
 73
     1
 44
1.0
1001
ACAD
1000
MTEXTBEGIN
1070
    73
1070
     1
1070
    44
1040
1.0
1070
    74
1070
     0
1000
MTEXTEND
  0
POINT
  5
175CF
330
16CE1
100
AcDbEntity
  8
DEFPOINTS
 62
     0
 48
50.0
100
AcDbPoint
 10
5530.996748939547
 20
2876.172274673713
 30
0.0
  0
POINT
  5
175D0
330
16CE1
100
AcDbEntity
  8
DEFPOINTS
 62
     0
 48
50.0
100
AcDbPoint
 10
5470.996748939548
 20
5251.172274673717
 30
0.0
  0
POINT
  5
175D1
330
16CE1
100
AcDbEntity
  8
DEFPOINTS
 62
     0
 48
50.0
100
AcDbPoint
 10
4622.357367010191
 20
5251.172274673717
 30
0.0
  0
ENDBLK
  5
16CEC
330
16CE1
100
AcDbEntity
  8
0
 48
50.0
100
AcDbBlockEnd
  0
BLOCK
  5
16CF7
330
16CED
100
AcDbEntity
  8
0
 48
50.0
100
AcDbBlockBegin
  2
*D5
 70
     1
 10
0.0
 20
0.0
 30
0.0
  3
*D5
  1

  0
LINE
  5
175C0
330
16CED
100
AcDbEntity
  8
寸法
 62
     0
 48
50.0
370
    -2
100
AcDbLine
 10
5510.996748939548
 20
5016.172274673714
 30
0.0
 11
4847.344039781251
 21
5016.172274673714
 31
0.0
  0
LINE
  5
175C1
330
16CED
100
AcDbEntity
  8
寸法
 62
     0
 48
50.0
370
    -2
100
AcDbLine
 10
5510.996748939548
 20
2926.172274673713
 30
0.0
 11
4847.344039781251
 21
2926.172274673714
 31
0.0
  0
LINE
  5
175C2
330
16CED
100
AcDbEntity
  8
寸法
 62
     0
 48
50.0
370
    -2
100
AcDbLine
 10
4907.344039781252
 20
5016.172274673714
 30
0.0
 11
4907.344039781252
 21
2926.172274673714
 31
0.0
  0
INSERT
  5
175C3
330
16CED
100
AcDbEntity
  8
寸法
 62
     0
 48
50.0
370
    -2
100
AcDbBlockReference
  2
_DOTSMALL
 10
4907.344039781252
 20
5016.172274673714
 30
0.0
 41
100.0
 42
100.0
 43
100.0
 50
90.0
  0
INSERT
  5
175C4
330
16CED
100
AcDbEntity
  8
寸法
 62
     0
 48
50.0
370
    -2
100
AcDbBlockReference
  2
_DOTSMALL
 10
4907.344039781252
 20
2926.172274673714
 30
0.0
 41
100.0
 42
100.0
 43
100.0
 50
270.0
  0
MTEXT
  5
175C5
330
16CED
100
AcDbEntity
  8
寸法
 62
     7
 48
50.0
100
AcDbMText
 10
4807.33222875763
 20
3971.172274673713
 30
0.0
 40
120.0
 41
0.0
 71
     5
 72
     1
  1
\A1;2090
  7
STYLE1
 11
0.0000000000000001
 21
1.0
 31
0.0
 73
     1
 44
1.0
1001
ACAD
1000
MTEXTBEGIN
1070
    73
1070
     1
1070
    44
1040
1.0
1070
    74
1070
     0
1000
MTEXTEND
  0
POINT
  5
175C6
330
16CED
100
AcDbEntity
  8
DEFPOINTS
 62
     0
 48
50.0
100
AcDbPoint
 10
5530.996748939547
 20
5016.172274673714
 30
0.0
  0
POINT
  5
175C7
330
16CED
100
AcDbEntity
  8
DEFPOINTS
 62
     0
 48
50.0
100
AcDbPoint
 10
5530.996748939547
 20
2926.172274673713
 30
0.0
  0
POINT
  5
175C8
330
16CED
100
AcDbEntity
  8
DEFPOINTS
 62
     0
 48
50.0
100
AcDbPoint
 10
4907.344039781252
 20
2926.172274673714
 30
0.0
  0
ENDBLK
  5
16CF8
330
16CED
100
AcDbEntity
  8
0
 48
50.0
100
AcDbBlockEnd
  0
BLOCK
  5
16D03
330
16CF9
100
AcDbEntity
  8
0
 48
50.0
100
AcDbBlockBegin
  2
*D6
 70
     1
 10
0.0
 20
0.0
 30
0.0
  3
*D6
  1

  0
LINE
  5
17569
330
16CF9
100
AcDbEntity
  8
寸法
 62
     0
 48
50.0
370
    -2
100
AcDbLine
 10
6997.996748939552
 20
2876.172274673713
 30
0.0
 11
7665.923906911676
 21
2876.172274673713
 31
0.0
  0
LINE
  5
1756A
330
16CF9
100
AcDbEntity
  8
寸法
 62
     0
 48
50.0
370
    -2
100
AcDbLine
 10
7000.996748939548
 20
5196.172274673715
 30
0.0
 11
7665.923906911676
 21
5196.172274673715
 31
0.0
  0
LINE
  5
1756B
330
16CF9
100
AcDbEntity
  8
寸法
 62
     0
 48
50.0
370
    -2
100
AcDbLine
 10
7605.923906911676
 20
2876.172274673713
 30
0.0
 11
7605.923906911676
 21
5196.172274673715
 31
0.0
  0
INSERT
  5
1756C
330
16CF9
100
AcDbEntity
  8
寸法
 62
     0
 48
50.0
370
    -2
100
AcDbBlockReference
  2
_DOTSMALL
 10
7605.923906911676
 20
2876.172274673713
 30
0.0
 41
100.0
 42
100.0
 43
100.0
 50
270.0
  0
INSERT
  5
1756D
330
16CF9
100
AcDbEntity
  8
寸法
 62
     0
 48
50.0
370
    -2
100
AcDbBlockReference
  2
_DOTSMALL
 10
7605.923906911676
 20
5196.172274673715
 30
0.0
 41
100.0
 42
100.0
 43
100.0
 50
90.0
  0
MTEXT
  5
1756E
330
16CF9
100
AcDbEntity
  8
寸法
 62
     7
 48
50.0
100
AcDbMText
 10
7505.912095888053
 20
4036.172274673716
 30
0.0
 40
120.0
 41
0.0
 71
     5
 72
     1
  1
\A1;2320
  7
STYLE1
 11
0.0000000000000001
 21
1.0
 31
0.0
 73
     1
 44
1.0
1001
ACAD
1000
MTEXTBEGIN
1070
    73
1070
     1
1070
    44
1040
1.0
1070
    74
1070
     0
1000
MTEXTEND
  0
POINT
  5
1756F
330
16CF9
100
AcDbEntity
  8
DEFPOINTS
 62
     0
 48
50.0
100
AcDbPoint
 10
6977.996748939552
 20
2876.172274673713
 30
0.0
  0
POINT
  5
17570
330
16CF9
100
AcDbEntity
  8
DEFPOINTS
 62
     0
 48
50.0
100
AcDbPoint
 10
6980.996748939547
 20
5196.172274673715
 30
0.0
  0
POINT
  5
17571
330
16CF9
100
AcDbEntity
  8
DEFPOINTS
 62
     0
 48
50.0
100
AcDbPoint
 10
7605.923906911676
 20
5196.172274673715
 30
0.0
  0
ENDBLK
  5
16D04
330
16CF9
100
AcDbEntity
  8
0
 48
50.0
100
AcDbBlockEnd
  0
BLOCK
  5
16D0F
330
16D05
100
AcDbEntity
  8
0
 48
50.0
100
AcDbBlockBegin
  2
*D7
 70
     1
 10
0.0
 20
0.0
 30
0.0
  3
*D7
  1

  0
LINE
  5
17560
330
16D05
100
AcDbEntity
  8
寸法
 62
     0
 48
50.0
370
    -2
100
AcDbLine
 10
6900.996748939547
 20
5217.982954285368
 30
0.0
 11
6900.996748939547
 21
5709.829728253018
 31
0.0
  0
LINE
  5
17561
330
16D05
100
AcDbEntity
  8
寸法
 62
     0
 48
50.0
370
    -2
100
AcDbLine
 10
5530.996748939547
 20
5267.173892796691
 30
0.0
 11
5530.996748939547
 21
5709.829728253018
 31
0.0
  0
LINE
  5
17562
330
16D05
100
AcDbEntity
  8
寸法
 62
     0
 48
50.0
370
    -2
100
AcDbLine
 10
6900.996748939547
 20
5649.829728253019
 30
0.0
 11
5530.996748939547
 21
5649.829728253019
 31
0.0
  0
INSERT
  5
17563
330
16D05
100
AcDbEntity
  8
寸法
 62
     0
 48
50.0
370
    -2
100
AcDbBlockReference
  2
_DOTSMALL
 10
6900.996748939547
 20
5649.829728253019
 30
0.0
 41
100.0
 42
100.0
 43
100.0
  0
INSERT
  5
17564
330
16D05
100
AcDbEntity
  8
寸法
 62
     0
 48
50.0
370
    -2
100
AcDbBlockReference
  2
_DOTSMALL
 10
5530.996748939547
 20
5649.829728253019
 30
0.0
 41
100.0
 42
100.0
 43
100.0
 50
180.0
  0
MTEXT
  5
17565
330
16D05
100
AcDbEntity
  8
寸法
 62
     7
 48
50.0
100
AcDbMText
 10
6180.815781830093
 20
5749.829728253018
 30
0.0
 40
120.0
 41
0.0
 71
     5
 72
     1
  1
\A1;柱外寸法1370
  7
STYLE1
 73
     1
 44
1.0
1001
ACAD
1000
MTEXTBEGIN
1070
    73
1070
     1
1070
    44
1040
1.0
1070
    74
1070
     0
1000
MTEXTEND
  0
POINT
  5
17566
330
16D05
100
AcDbEntity
  8
DEFPOINTS
 62
     0
 48
50.0
100
AcDbPoint
 10
6900.996748939547
 20
5197.982954285368
 30
0.0
  0
POINT
  5
17567
330
16D05
100
AcDbEntity
  8
DEFPOINTS
 62
     0
 48
50.0
100
AcDbPoint
 10
5530.996748939547
 20
5247.173892796691
 30
0.0
  0
POINT
  5
17568
330
16D05
100
AcDbEntity
  8
DEFPOINTS
 62
     0
 48
50.0
100
AcDbPoint
 10
5530.996748939547
 20
5649.829728253019
 30
0.0
  0
ENDBLK
  5
16D10
330
16D05
100
AcDbEntity
  8
0
 48
50.0
100
AcDbBlockEnd
  0
BLOCK
  5
16D1D
330
16D11
100
AcDbEntity
  8
0
 48
50.0
100
AcDbBlockBegin
  2
*D8
 70
     1
 10
0.0
 20
0.0
 30
0.0
  3
*D8
  1

  0
LINE
  5
17555
330
16D11
100
AcDbEntity
  8
寸法
 62
     0
 48
50.0
370
    -2
100
AcDbLine
 10
5530.996748939547
 20
5267.173892796691
 30
0.0
 11
5530.996748939547
 21
5709.829728253018
 31
0.0
  0
LINE
  5
17556
330
16D11
100
AcDbEntity
  8
寸法
 62
     0
 48
50.0
370
    -2
100
AcDbLine
 10
5470.996748939548
 20
5271.172274673719
 30
0.0
 11
5470.996748939548
 21
5709.829728253018
 31
0.0
  0
LINE
  5
17557
330
16D11
100
AcDbEntity
  8
寸法
 62
     0
 48
50.0
370
    -2
100
AcDbLine
 10
5530.996748939547
 20
5649.829728253019
 30
0.0
 11
5630.996748939548
 21
5649.829728253019
 31
0.0
  0
LINE
  5
17558
330
16D11
100
AcDbEntity
  8
寸法
 62
     0
 48
50.0
370
    -2
100
AcDbLine
 10
5470.996748939548
 20
5649.829728253019
 30
0.0
 11
5051.721158388366
 21
5649.829728253019
 31
0.0
  0
LINE
  5
17559
330
16D11
100
AcDbEntity
  8
寸法
 62
     0
 48
50.0
370
    -2
100
AcDbLine
 10
5530.996748939547
 20
5649.829728253019
 30
0.0
 11
5470.996748939548
 21
5649.829728253019
 31
0.0
  0
INSERT
  5
1755A
330
16D11
100
AcDbEntity
  8
寸法
 62
     0
 48
50.0
370
    -2
100
AcDbBlockReference
  2
_DOTSMALL
 10
5530.996748939547
 20
5649.829728253019
 30
0.0
 41
100.0
 42
100.0
 43
100.0
 50
180.0
  0
INSERT
  5
1755B
330
16D11
100
AcDbEntity
  8
寸法
 62
     0
 48
50.0
370
    -2
100
AcDbBlockReference
  2
_DOTSMALL
 10
5470.996748939548
 20
5649.829728253019
 30
0.0
 41
100.0
 42
100.0
 43
100.0
  0
MTEXT
  5
1755C
330
16D11
100
AcDbEntity
  8
寸法
 62
     7
 48
50.0
100
AcDbMText
 10
5161.358953663957
 20
5749.829728253018
 30
0.0
 40
120.0
 41
0.0
 71
     5
 72
     1
  1
\A1;60
  7
STYLE1
 73
     1
 44
1.0
1001
ACAD
1000
MTEXTBEGIN
1070
    73
1070
     1
1070
    44
1040
1.0
1070
    74
1070
     0
1000
MTEXTEND
  0
POINT
  5
1755D
330
16D11
100
AcDbEntity
  8
DEFPOINTS
 62
     0
 48
50.0
100
AcDbPoint
 10
5530.996748939547
 20
5247.173892796691
 30
0.0
  0
POINT
  5
1755E
330
16D11
100
AcDbEntity
  8
DEFPOINTS
 62
     0
 48
50.0
100
AcDbPoint
 10
5470.996748939548
 20
5251.172274673718
 30
0.0
  0
POINT
  5
1755F
330
16D11
100
AcDbEntity
  8
DEFPOINTS
 62
     0
 48
50.0
100
AcDbPoint
 10
5470.996748939548
 20
5649.829728253019
 30
0.0
  0
ENDBLK
  5
16D1E
330
16D11
100
AcDbEntity
  8
0
 48
50.0
100
AcDbBlockEnd
  0
BLOCK
  5
16D29
330
16D1F
100
AcDbEntity
  8
0
 48
50.0
100
AcDbBlockBegin
  2
*D9
 70
     1
 10
0.0
 20
0.0
 30
0.0
  3
*D9
  1

  0
LINE
  5
1754C
330
16D1F
100
AcDbEntity
  8
寸法
 62
     0
 48
50.0
370
    -2
100
AcDbLine
 10
6980.996748939547
 20
5216.172274673716
 30
0.0
 11
6980.996748939547
 21
5918.004049444983
 31
0.0
  0
LINE
  5
1754D
330
16D1F
100
AcDbEntity
  8
寸法
 62
     0
 48
50.0
370
    -2
100
AcDbLine
 10
5470.996748939548
 20
5271.172274673719
 30
0.0
 11
5470.996748939548
 21
5918.004049444983
 31
0.0
  0
LINE
  5
1754E
330
16D1F
100
AcDbEntity
  8
寸法
 62
     0
 48
50.0
370
    -2
100
AcDbLine
 10
6980.996748939547
 20
5858.004049444982
 30
0.0
 11
5470.996748939548
 21
5858.004049444982
 31
0.0
  0
INSERT
  5
1754F
330
16D1F
100
AcDbEntity
  8
寸法
 62
     0
 48
50.0
370
    -2
100
AcDbBlockReference
  2
_DOTSMALL
 10
6980.996748939547
 20
5858.004049444982
 30
0.0
 41
100.0
 42
100.0
 43
100.0
  0
INSERT
  5
17550
330
16D1F
100
AcDbEntity
  8
寸法
 62
     0
 48
50.0
370
    -2
100
AcDbBlockReference
  2
_DOTSMALL
 10
5470.996748939548
 20
5858.004049444982
 30
0.0
 41
100.0
 42
100.0
 43
100.0
 50
180.0
  0
MTEXT
  5
17551
330
16D1F
100
AcDbEntity
  8
寸法
 62
     7
 48
50.0
100
AcDbMText
 10
6198.12157864137
 20
5958.004049444983
 30
0.0
 40
120.0
 41
0.0
 71
     5
 72
     1
  1
\A1;1510
  7
STYLE1
 73
     1
 44
1.0
1001
ACAD
1000
MTEXTBEGIN
1070
    73
1070
     1
1070
    44
1040
1.0
1070
    74
1070
     0
1000
MTEXTEND
  0
POINT
  5
17552
330
16D1F
100
AcDbEntity
  8
DEFPOINTS
 62
     0
 48
50.0
100
AcDbPoint
 10
6980.996748939547
 20
5196.172274673715
 30
0.0
  0
POINT
  5
17553
330
16D1F
100
AcDbEntity
  8
DEFPOINTS
 62
     0
 48
50.0
100
AcDbPoint
 10
5470.996748939548
 20
5251.172274673718
 30
0.0
  0
POINT
  5
17554
330
16D1F
100
AcDbEntity
  8
DEFPOINTS
 62
     0
 48
50.0
100
AcDbPoint
 10
5470.996748939548
 20
5858.004049444982
 30
0.0
  0
ENDBLK
  5
16D2A
330
16D1F
100
AcDbEntity
  8
0
 48
50.0
100
AcDbBlockEnd
  0
BLOCK
  5
16D36
330
16D2B
100
AcDbEntity
  8
0
 48
50.0
100
AcDbBlockBegin
  2
*D10
 70
     1
 10
0.0
 20
0.0
 30
0.0
  3
*D10
  1

  0
LINE
  5
17542
330
16D2B
100
AcDbEntity
  8
寸法
 62
     0
 48
50.0
370
    -2
100
AcDbLine
 10
6900.996748939547
 20
5217.982954285368
 30
0.0
 11
6900.996748939547
 21
5709.829728253018
 31
0.0
  0
LINE
  5
17543
330
16D2B
100
AcDbEntity
  8
寸法
 62
     0
 48
50.0
370
    -2
100
AcDbLine
 10
6980.996748939547
 20
5216.172274673716
 30
0.0
 11
6980.996748939547
 21
5709.829728253018
 31
0.0
  0
LINE
  5
17544
330
16D2B
100
AcDbEntity
  8
寸法
 62
     0
 48
50.0
370
    -2
100
AcDbLine
 10
6900.996748939547
 20
5649.829728253019
 30
0.0
 11
6980.996748939547
 21
5649.829728253019
 31
0.0
  0
LINE
  5
17545
330
16D2B
100
AcDbEntity
  8
寸法
 62
     0
 48
50.0
370
    -2
100
AcDbLine
 10
6980.996748939547
 20
5649.829728253019
 30
0.0
 11
7293.091237128525
 21
5649.829728253019
 31
0.0
  0
INSERT
  5
17546
330
16D2B
100
AcDbEntity
  8
寸法
 62
     0
 48
50.0
370
    -2
100
AcDbBlockReference
  2
_DOTSMALL
 10
6900.996748939547
 20
5649.829728253019
 30
0.0
 41
100.0
 42
100.0
 43
100.0
 50
180.0
  0
INSERT
  5
17547
330
16D2B
100
AcDbEntity
  8
寸法
 62
     0
 48
50.0
370
    -2
100
AcDbBlockReference
  2
_DOTSMALL
 10
6980.996748939547
 20
5649.829728253019
 30
0.0
 41
100.0
 42
100.0
 43
100.0
  0
MTEXT
  5
17548
330
16D2B
100
AcDbEntity
  8
寸法
 62
     7
 48
50.0
100
AcDbMText
 10
7187.043993034037
 20
5749.829728253018
 30
0.0
 40
120.0
 41
0.0
 71
     5
 72
     1
  1
\A1;80
  7
STYLE1
 73
     1
 44
1.0
1001
ACAD
1000
MTEXTBEGIN
1070
    73
1070
     1
1070
    44
1040
1.0
1070
    74
1070
     0
1000
MTEXTEND
  0
POINT
  5
17549
330
16D2B
100
AcDbEntity
  8
DEFPOINTS
 62
     0
 48
50.0
100
AcDbPoint
 10
6900.996748939547
 20
5197.982954285368
 30
0.0
  0
POINT
  5
1754A
330
16D2B
100
AcDbEntity
  8
DEFPOINTS
 62
     0
 48
50.0
100
AcDbPoint
 10
6980.996748939547
 20
5196.172274673715
 30
0.0
  0
POINT
  5
1754B
330
16D2B
100
AcDbEntity
  8
DEFPOINTS
 62
     0
 48
50.0
100
AcDbPoint
 10
6980.996748939547
 20
5649.829728253019
 30
0.0
  0
ENDBLK
  5
16D37
330
16D2B
100
AcDbEntity
  8
0
 48
50.0
100
AcDbBlockEnd
  0
BLOCK
  5
16D43
330
16D38
100
AcDbEntity
  8
0
 48
50.0
100
AcDbBlockBegin
  2
*D11
 70
     1
 10
0.0
 20
0.0
 30
0.0
  3
*D11
  1

  0
LINE
  5
17538
330
16D38
100
AcDbEntity
  8
寸法
 62
     0
 48
50.0
370
    -2
100
AcDbLine
 10
5466.353553627049
 20
5109.707886147191
 30
0.0
 11
4813.45338333303
 21
5134.358917387169
 31
0.0
  0
LINE
  5
17539
330
16D38
100
AcDbEntity
  8
寸法
 62
     0
 48
50.0
370
    -2
100
AcDbLine
 10
5471.673387779003
 20
5250.607493544073
 30
0.0
 11
4818.773217484823
 21
5275.258524784057
 31
0.0
  0
LINE
  5
1753A
330
16D38
100
AcDbEntity
  8
寸法
 62
     0
 48
50.0
370
    -2
100
AcDbLine
 10
4873.410663076386
 20
5132.09515817364
 30
0.0
 11
4878.730497228179
 21
5272.994765570528
 31
0.0
  0
LINE
  5
1753B
330
16D38
100
AcDbEntity
  8
寸法
 62
     0
 48
50.0
370
    -2
100
AcDbLine
 10
4878.730497228179
 20
5272.994765570528
 30
0.0
 11
4892.313052509378
 21
5632.738444031367
 31
0.0
  0
INSERT
  5
1753C
330
16D38
100
AcDbEntity
  8
寸法
 62
     0
 48
50.0
370
    -2
100
AcDbBlockReference
  2
_DOTSMALL
 10
4873.410663076386
 20
5132.09515817364
 30
0.0
 41
100.0
 42
100.0
 43
100.0
 50
267.8377559871574
  0
INSERT
  5
1753D
330
16D38
100
AcDbEntity
  8
寸法
 62
     0
 48
50.0
370
    -2
100
AcDbBlockReference
  2
_DOTSMALL
 10
4878.730497228179
 20
5272.994765570528
 30
0.0
 41
100.0
 42
100.0
 43
100.0
 50
87.83775598715743
  0
MTEXT
  5
1753E
330
16D38
100
AcDbEntity
  8
寸法
 62
     7
 48
50.0
100
AcDbMText
 10
4787.479441307804
 20
5506.603936609976
 30
0.0
 40
120.0
 41
0.0
 71
     5
 72
     1
  1
\A1;141
  7
STYLE1
 11
0.03772932022548
 21
0.9992879957226159
 31
0.0
 73
     1
 44
1.0
1001
ACAD
1000
MTEXTBEGIN
1070
    73
1070
     1
1070
    44
1040
1.0
1070
    74
1070
     0
1000
MTEXTEND
  0
POINT
  5
1753F
330
16D38
100
AcDbEntity
  8
DEFPOINTS
 62
     0
 48
50.0
100
AcDbPoint
 10
5486.339313541501
 20
5108.953299742681
 30
0.0
  0
POINT
  5
17540
330
16D38
100
AcDbEntity
  8
DEFPOINTS
 62
     0
 48
50.0
100
AcDbPoint
 10
5491.659147693455
 20
5249.852907139564
 30
0.0
  0
POINT
  5
17541
330
16D38
100
AcDbEntity
  8
DEFPOINTS
 62
     0
 48
50.0
100
AcDbPoint
 10
4878.730497228179
 20
5272.994765570528
 30
0.0
  0
ENDBLK
  5
16D44
330
16D38
100
AcDbEntity
  8
0
 48
50.0
100
AcDbBlockEnd
  0
BLOCK
  5
16D4F
330
16D45
100
AcDbEntity
  8
0
 48
50.0
100
AcDbBlockBegin
  2
*D12
 70
     1
 10
0.0
 20
0.0
 30
0.0
  3
*D12
  1

  0
LINE
  5
1752F
330
16D45
100
AcDbEntity
  8
寸法
 62
     0
 48
50.0
370
    -2
100
AcDbLine
 10
5438.496748939549
 20
2576.172274673713
 30
0.0
 11
5248.996745692913
 21
2576.172274673713
 31
0.0
  0
LINE
  5
17530
330
16D45
100
AcDbEntity
  8
寸法
 62
     0
 48
50.0
370
    -2
100
AcDbLine
 10
5413.496748939548
 20
2776.172274673714
 30
0.0
 11
5248.996745692913
 21
2776.172274673714
 31
0.0
  0
LINE
  5
17531
330
16D45
100
AcDbEntity
  8
寸法
 62
     0
 48
50.0
370
    -2
100
AcDbLine
 10
5308.996745692912
 20
2576.172274673713
 30
0.0
 11
5308.996745692912
 21
2776.172274673714
 31
0.0
  0
INSERT
  5
17532
330
16D45
100
AcDbEntity
  8
寸法
 62
     0
 48
50.0
370
    -2
100
AcDbBlockReference
  2
_DOTSMALL
 10
5308.996745692912
 20
2576.172274673713
 30
0.0
 41
100.0
 42
100.0
 43
100.0
 50
270.0
  0
INSERT
  5
17533
330
16D45
100
AcDbEntity
  8
寸法
 62
     0
 48
50.0
370
    -2
100
AcDbBlockReference
  2
_DOTSMALL
 10
5308.996745692912
 20
2776.172274673714
 30
0.0
 41
100.0
 42
100.0
 43
100.0
 50
90.0
  0
MTEXT
  5
17534
330
16D45
100
AcDbEntity
  8
寸法
 62
     7
 48
50.0
100
AcDbMText
 10
5208.98493466929
 20
2676.172274673714
 30
0.0
 40
120.0
 41
0.0
 71
     5
 72
     1
  1
\A1;200
  7
STYLE1
 11
0.0000000000000001
 21
1.0
 31
0.0
 73
     1
 44
1.0
1001
ACAD
1000
MTEXTBEGIN
1070
    73
1070
     1
1070
    44
1040
1.0
1070
    74
1070
     0
1000
MTEXTEND
  0
POINT
  5
17535
330
16D45
100
AcDbEntity
  8
DEFPOINTS
 62
     0
 48
50.0
100
AcDbPoint
 10
5458.496748939549
 20
2576.172274673713
 30
0.0
  0
POINT
  5
17536
330
16D45
100
AcDbEntity
  8
DEFPOINTS
 62
     0
 48
50.0
100
AcDbPoint
 10
5433.496748939547
 20
2776.172274673714
 30
0.0
  0
POINT
  5
17537
330
16D45
100
AcDbEntity
  8
DEFPOINTS
 62
     0
 48
50.0
100
AcDbPoint
 10
5308.996745692912
 20
2776.172274673714
 30
0.0
  0
ENDBLK
  5
16D50
330
16D45
100
AcDbEntity
  8
0
 48
50.0
100
AcDbBlockEnd
  0
BLOCK
  5
16D5B
330
16D51
100
AcDbEntity
  8
0
 48
50.0
100
AcDbBlockBegin
  2
*D13
 70
     1
 10
0.0
 20
0.0
 30
0.0
  3
*D13
  1

  0
LINE
  5
17526
330
16D51
100
AcDbEntity
  8
寸法
 62
     0
 48
50.0
370
    -2
100
AcDbLine
 10
5658.496748939546
 20
2556.172274673712
 30
0.0
 11
5658.496748939546
 21
2230.124945373336
 31
0.0
  0
LINE
  5
17527
330
16D51
100
AcDbEntity
  8
寸法
 62
     0
 48
50.0
370
    -2
100
AcDbLine
 10
5458.496748939549
 20
2556.172274673713
 30
0.0
 11
5458.496748939549
 21
2230.124945373336
 31
0.0
  0
LINE
  5
17528
330
16D51
100
AcDbEntity
  8
寸法
 62
     0
 48
50.0
370
    -2
100
AcDbLine
 10
5658.496748939546
 20
2290.124945373336
 30
0.0
 11
5458.496748939549
 21
2290.124945373336
 31
0.0
  0
INSERT
  5
17529
330
16D51
100
AcDbEntity
  8
寸法
 62
     0
 48
50.0
370
    -2
100
AcDbBlockReference
  2
_DOTSMALL
 10
5658.496748939546
 20
2290.124945373336
 30
0.0
 41
100.0
 42
100.0
 43
100.0
  0
INSERT
  5
1752A
330
16D51
100
AcDbEntity
  8
寸法
 62
     0
 48
50.0
370
    -2
100
AcDbBlockReference
  2
_DOTSMALL
 10
5458.496748939549
 20
2290.124945373336
 30
0.0
 41
100.0
 42
100.0
 43
100.0
 50
180.0
  0
MTEXT
  5
1752B
330
16D51
100
AcDbEntity
  8
寸法
 62
     7
 48
50.0
100
AcDbMText
 10
5558.496748939547
 20
2390.136756396958
 30
0.0
 40
120.0
 41
0.0
 71
     5
 72
     1
  1
\A1;200
  7
STYLE1
 73
     1
 44
1.0
1001
ACAD
1000
MTEXTBEGIN
1070
    73
1070
     1
1070
    44
1040
1.0
1070
    74
1070
     0
1000
MTEXTEND
  0
POINT
  5
1752C
330
16D51
100
AcDbEntity
  8
DEFPOINTS
 62
     0
 48
50.0
100
AcDbPoint
 10
5658.496748939546
 20
2576.172274673712
 30
0.0
  0
POINT
  5
1752D
330
16D51
100
AcDbEntity
  8
DEFPOINTS
 62
     0
 48
50.0
100
AcDbPoint
 10
5458.496748939549
 20
2576.172274673713
 30
0.0
  0
POINT
  5
1752E
330
16D51
100
AcDbEntity
  8
DEFPOINTS
 62
     0
 48
50.0
100
AcDbPoint
 10
5458.496748939549
 20
2290.124945373336
 30
0.0
  0
ENDBLK
  5
16D5C
330
16D51
100
AcDbEntity
  8
0
 48
50.0
100
AcDbBlockEnd
  0
BLOCK
  5
16D69
330
16D5D
100
AcDbEntity
  8
0
 48
50.0
100
AcDbBlockBegin
  2
*D14
 70
     1
 10
0.0
 20
0.0
 30
0.0
  3
*D14
  1

  0
LINE
  5
1751B
330
16D5D
100
AcDbEntity
  8
寸法
 62
     0
 48
50.0
370
    -2
100
AcDbLine
 10
10980.01816729979
 20
5271.172274673716
 30
0.0
 11
10980.01816729979
 21
5710.265444013187
 31
0.0
  0
LINE
  5
1751C
330
16D5D
100
AcDbEntity
  8
寸法
 62
     0
 48
50.0
370
    -2
100
AcDbLine
 10
10930.01816729979
 20
5271.17227467372
 30
0.0
 11
10930.01816729979
 21
5710.265444013187
 31
0.0
  0
LINE
  5
1751D
330
16D5D
100
AcDbEntity
  8
寸法
 62
     0
 48
50.0
370
    -2
100
AcDbLine
 10
10930.01816729979
 20
5650.265444013188
 30
0.0
 11
10830.01816729979
 21
5650.265444013188
 31
0.0
  0
LINE
  5
1751E
330
16D5D
100
AcDbEntity
  8
寸法
 62
     0
 48
50.0
370
    -2
100
AcDbLine
 10
10980.01816729979
 20
5650.265444013188
 30
0.0
 11
11399.55069276851
 21
5650.265444013188
 31
0.0
  0
LINE
  5
1751F
330
16D5D
100
AcDbEntity
  8
寸法
 62
     0
 48
50.0
370
    -2
100
AcDbLine
 10
10930.01816729979
 20
5650.265444013188
 30
0.0
 11
10980.01816729979
 21
5650.265444013188
 31
0.0
  0
INSERT
  5
17520
330
16D5D
100
AcDbEntity
  8
寸法
 62
     0
 48
50.0
370
    -2
100
AcDbBlockReference
  2
_DOTSMALL
 10
10930.01816729979
 20
5650.265444013188
 30
0.0
 41
100.0
 42
100.0
 43
100.0
  0
INSERT
  5
17521
330
16D5D
100
AcDbEntity
  8
寸法
 62
     0
 48
50.0
370
    -2
100
AcDbBlockReference
  2
_DOTSMALL
 10
10980.01816729979
 20
5650.265444013188
 30
0.0
 41
100.0
 42
100.0
 43
100.0
 50
180.0
  0
MTEXT
  5
17522
330
16D5D
100
AcDbEntity
  8
寸法
 62
     7
 48
50.0
100
AcDbMText
 10
11293.50344867403
 20
5750.265444013187
 30
0.0
 40
120.0
 41
0.0
 71
     5
 72
     1
  1
\A1;50
  7
STYLE1
 73
     1
 44
1.0
1001
ACAD
1000
MTEXTBEGIN
1070
    73
1070
     1
1070
    44
1040
1.0
1070
    74
1070
     0
1000
MTEXTEND
  0
POINT
  5
17523
330
16D5D
100
AcDbEntity
  8
DEFPOINTS
 62
     0
 48
50.0
100
AcDbPoint
 10
10980.01816729979
 20
5251.172274673717
 30
0.0
  0
POINT
  5
17524
330
16D5D
100
AcDbEntity
  8
DEFPOINTS
 62
     0
 48
50.0
100
AcDbPoint
 10
10930.01816729979
 20
5251.17227467372
 30
0.0
  0
POINT
  5
17525
330
16D5D
100
AcDbEntity
  8
DEFPOINTS
 62
     0
 48
50.0
100
AcDbPoint
 10
10930.01816729979
 20
5650.265444013188
 30
0.0
  0
ENDBLK
  5
16D6A
330
16D5D
100
AcDbEntity
  8
0
 48
50.0
100
AcDbBlockEnd
  0
BLOCK
  5
16D75
330
16D6B
100
AcDbEntity
  8
0
 48
50.0
100
AcDbBlockBegin
  2
*D15
 70
     1
 10
0.0
 20
0.0
 30
0.0
  3
*D15
  1

  0
LINE
  5
17512
330
16D6B
100
AcDbEntity
  8
寸法
 62
     0
 48
50.0
370
    -2
100
AcDbLine
 10
8670.018167299792
 20
5271.17227467372
 30
0.0
 11
8670.018167299792
 21
5926.791543631633
 31
0.0
  0
LINE
  5
17513
330
16D6B
100
AcDbEntity
  8
寸法
 62
     0
 48
50.0
370
    -2
100
AcDbLine
 10
10980.01816729979
 20
5271.172274673716
 30
0.0
 11
10980.01816729979
 21
5926.791543631633
 31
0.0
  0
LINE
  5
17514
330
16D6B
100
AcDbEntity
  8
寸法
 62
     0
 48
50.0
370
    -2
100
AcDbLine
 10
8670.018167299792
 20
5866.791543631633
 30
0.0
 11
10980.01816729979
 21
5866.791543631633
 31
0.0
  0
INSERT
  5
17515
330
16D6B
100
AcDbEntity
  8
寸法
 62
     0
 48
50.0
370
    -2
100
AcDbBlockReference
  2
_DOTSMALL
 10
8670.018167299792
 20
5866.791543631633
 30
0.0
 41
100.0
 42
100.0
 43
100.0
 50
180.0
  0
INSERT
  5
17516
330
16D6B
100
AcDbEntity
  8
寸法
 62
     0
 48
50.0
370
    -2
100
AcDbBlockReference
  2
_DOTSMALL
 10
10980.01816729979
 20
5866.791543631633
 30
0.0
 41
100.0
 42
100.0
 43
100.0
  0
MTEXT
  5
17517
330
16D6B
100
AcDbEntity
  8
寸法
 62
     7
 48
50.0
100
AcDbMText
 10
9825.018167299795
 20
5966.803354655255
 30
0.0
 40
120.0
 41
0.0
 71
     5
 72
     1
  1
\A1;2310
  7
STYLE1
 73
     1
 44
1.0
1001
ACAD
1000
MTEXTBEGIN
1070
    73
1070
     1
1070
    44
1040
1.0
1070
    74
1070
     0
1000
MTEXTEND
  0
POINT
  5
17518
330
16D6B
100
AcDbEntity
  8
DEFPOINTS
 62
     0
 48
50.0
100
AcDbPoint
 10
8670.018167299792
 20
5251.17227467372
 30
0.0
  0
POINT
  5
17519
330
16D6B
100
AcDbEntity
  8
DEFPOINTS
 62
     0
 48
50.0
100
AcDbPoint
 10
10980.01816729979
 20
5251.172274673717
 30
0.0
  0
POINT
  5
1751A
330
16D6B
100
AcDbEntity
  8
DEFPOINTS
 62
     0
 48
50.0
100
AcDbPoint
 10
10980.01816729979
 20
5866.791543631633
 30
0.0
  0
ENDBLK
  5
16D76
330
16D6B
100
AcDbEntity
  8
0
 48
50.0
100
AcDbBlockEnd
  0
BLOCK
  5
16D83
330
16D77
100
AcDbEntity
  8
0
 48
50.0
100
AcDbBlockBegin
  2
*D16
 70
     1
 10
0.0
 20
0.0
 30
0.0
  3
*D16
  1

  0
LINE
  5
17507
330
16D77
100
AcDbEntity
  8
寸法
 62
     0
 48
50.0
370
    -2
100
AcDbLine
 10
8720.018167299793
 20
5271.172274673721
 30
0.0
 11
8720.018167299793
 21
5710.265444013187
 31
0.0
  0
LINE
  5
17508
330
16D77
100
AcDbEntity
  8
寸法
 62
     0
 48
50.0
370
    -2
100
AcDbLine
 10
8670.018167299792
 20
5271.17227467372
 30
0.0
 11
8670.018167299792
 21
5710.265444013187
 31
0.0
  0
LINE
  5
17509
330
16D77
100
AcDbEntity
  8
寸法
 62
     0
 48
50.0
370
    -2
100
AcDbLine
 10
8720.018167299793
 20
5650.265444013188
 30
0.0
 11
8820.018167299792
 21
5650.265444013188
 31
0.0
  0
LINE
  5
1750A
330
16D77
100
AcDbEntity
  8
寸法
 62
     0
 48
50.0
370
    -2
100
AcDbLine
 10
8670.018167299792
 20
5650.265444013188
 30
0.0
 11
8250.48564183106
 21
5650.265444013188
 31
0.0
  0
LINE
  5
1750B
330
16D77
100
AcDbEntity
  8
寸法
 62
     0
 48
50.0
370
    -2
100
AcDbLine
 10
8720.018167299793
 20
5650.265444013188
 30
0.0
 11
8670.018167299792
 21
5650.265444013188
 31
0.0
  0
INSERT
  5
1750C
330
16D77
100
AcDbEntity
  8
寸法
 62
     0
 48
50.0
370
    -2
100
AcDbBlockReference
  2
_DOTSMALL
 10
8720.018167299793
 20
5650.265444013188
 30
0.0
 41
100.0
 42
100.0
 43
100.0
 50
180.0
  0
INSERT
  5
1750D
330
16D77
100
AcDbEntity
  8
寸法
 62
     0
 48
50.0
370
    -2
100
AcDbBlockReference
  2
_DOTSMALL
 10
8670.018167299792
 20
5650.265444013188
 30
0.0
 41
100.0
 42
100.0
 43
100.0
  0
MTEXT
  5
1750E
330
16D77
100
AcDbEntity
  8
寸法
 62
     7
 48
50.0
100
AcDbMText
 10
8356.532885925545
 20
5750.265444013187
 30
0.0
 40
120.0
 41
0.0
 71
     5
 72
     1
  1
\A1;50
  7
STYLE1
 73
     1
 44
1.0
1001
ACAD
1000
MTEXTBEGIN
1070
    73
1070
     1
1070
    44
1040
1.0
1070
    74
1070
     0
1000
MTEXTEND
  0
POINT
  5
1750F
330
16D77
100
AcDbEntity
  8
DEFPOINTS
 62
     0
 48
50.0
100
AcDbPoint
 10
8720.018167299793
 20
5251.17227467372
 30
0.0
  0
POINT
  5
17510
330
16D77
100
AcDbEntity
  8
DEFPOINTS
 62
     0
 48
50.0
100
AcDbPoint
 10
8670.018167299792
 20
5251.17227467372
 30
0.0
  0
POINT
  5
17511
330
16D77
100
AcDbEntity
  8
DEFPOINTS
 62
     0
 48
50.0
100
AcDbPoint
 10
8670.018167299792
 20
5650.265444013188
 30
0.0
  0
ENDBLK
  5
16D84
330
16D77
100
AcDbEntity
  8
0
 48
50.0
100
AcDbBlockEnd
  0
BLOCK
  5
16D8F
330
16D85
100
AcDbEntity
  8
0
 48
50.0
100
AcDbBlockBegin
  2
*D17
 70
     1
 10
0.0
 20
0.0
 30
0.0
  3
*D17
  1

  0
LINE
  5
174FE
330
16D85
100
AcDbEntity
  8
寸法
 62
     0
 48
50.0
370
    -2
100
AcDbLine
 10
10930.01816729979
 20
5271.17227467372
 30
0.0
 11
10930.01816729979
 21
5710.265444013187
 31
0.0
  0
LINE
  5
174FF
330
16D85
100
AcDbEntity
  8
寸法
 62
     0
 48
50.0
370
    -2
100
AcDbLine
 10
8720.018167299793
 20
5271.172274673721
 30
0.0
 11
8720.018167299793
 21
5710.265444013187
 31
0.0
  0
LINE
  5
17500
330
16D85
100
AcDbEntity
  8
寸法
 62
     0
 48
50.0
370
    -2
100
AcDbLine
 10
10930.01816729979
 20
5650.265444013188
 30
0.0
 11
8720.018167299793
 21
5650.265444013188
 31
0.0
  0
INSERT
  5
17501
330
16D85
100
AcDbEntity
  8
寸法
 62
     0
 48
50.0
370
    -2
100
AcDbBlockReference
  2
_DOTSMALL
 10
10930.01816729979
 20
5650.265444013188
 30
0.0
 41
100.0
 42
100.0
 43
100.0
  0
INSERT
  5
17502
330
16D85
100
AcDbEntity
  8
寸法
 62
     0
 48
50.0
370
    -2
100
AcDbBlockReference
  2
_DOTSMALL
 10
8720.018167299793
 20
5650.265444013188
 30
0.0
 41
100.0
 42
100.0
 43
100.0
 50
180.0
  0
MTEXT
  5
17503
330
16D85
100
AcDbEntity
  8
寸法
 62
     7
 48
50.0
100
AcDbMText
 10
9825.018167299795
 20
5750.277255036809
 30
0.0
 40
120.0
 41
0.0
 71
     5
 72
     1
  1
\A1;柱外寸法2210
  7
STYLE1
 73
     1
 44
1.0
1001
ACAD
1000
MTEXTBEGIN
1070
    73
1070
     1
1070
    44
1040
1.0
1070
    74
1070
     0
1000
MTEXTEND
  0
POINT
  5
17504
330
16D85
100
AcDbEntity
  8
DEFPOINTS
 62
     0
 48
50.0
100
AcDbPoint
 10
10930.01816729979
 20
5251.17227467372
 30
0.0
  0
POINT
  5
17505
330
16D85
100
AcDbEntity
  8
DEFPOINTS
 62
     0
 48
50.0
100
AcDbPoint
 10
8720.018167299793
 20
5251.17227467372
 30
0.0
  0
POINT
  5
17506
330
16D85
100
AcDbEntity
  8
DEFPOINTS
 62
     0
 48
50.0
100
AcDbPoint
 10
8720.018167299793
 20
5650.265444013188
 30
0.0
  0
ENDBLK
  5
16D90
330
16D85
100
AcDbEntity
  8
0
 48
50.0
100
AcDbBlockEnd
  0
BLOCK
  5
16DA7
330
16D9D
100
AcDbEntity
  8
0
 48
50.0
100
AcDbBlockBegin
  2
*D18
 70
     1
 10
0.0
 20
0.0
 30
0.0
  3
*D18
  1

  0
LINE
  5
175B6
330
16D9D
100
AcDbEntity
  8
寸法
 62
     0
 48
50.0
370
    -2
100
AcDbLine
 10
8728.018167299794
 20
4959.172274673714
 30
0.0
 11
8333.893644754063
 21
4959.172274673714
 31
0.0
  0
LINE
  5
175B7
330
16D9D
100
AcDbEntity
  8
寸法
 62
     0
 48
50.0
370
    -2
100
AcDbLine
 10
8728.018167299794
 20
2934.172274673713
 30
0.0
 11
8333.893644754061
 21
2934.172274673713
 31
0.0
  0
LINE
  5
175B8
330
16D9D
100
AcDbEntity
  8
寸法
 62
     0
 48
50.0
370
    -2
100
AcDbLine
 10
8393.893644754063
 20
4959.172274673714
 30
0.0
 11
8393.893644754063
 21
2934.172274673713
 31
0.0
  0
INSERT
  5
175B9
330
16D9D
100
AcDbEntity
  8
寸法
 62
     0
 48
50.0
370
    -2
100
AcDbBlockReference
  2
_DOTSMALL
 10
8393.893644754063
 20
4959.172274673714
 30
0.0
 41
100.0
 42
100.0
 43
100.0
 50
90.0
  0
INSERT
  5
175BA
330
16D9D
100
AcDbEntity
  8
寸法
 62
     0
 48
50.0
370
    -2
100
AcDbBlockReference
  2
_DOTSMALL
 10
8393.893644754063
 20
2934.172274673713
 30
0.0
 41
100.0
 42
100.0
 43
100.0
 50
270.0
  0
MTEXT
  5
175BB
330
16D9D
100
AcDbEntity
  8
寸法
 62
     7
 48
50.0
100
AcDbMText
 10
8293.88183373044
 20
3943.947195572255
 30
0.0
 40
120.0
 41
0.0
 71
     5
 72
     1
  1
\A1;有効開口部高サ2025
  7
STYLE1
 11
0.0000000000000001
 21
1.0
 31
0.0
 73
     1
 44
1.0
1001
ACAD
1000
MTEXTBEGIN
1070
    73
1070
     1
1070
    44
1040
1.0
1070
    74
1070
     0
1000
MTEXTEND
  0
POINT
  5
175BC
330
16D9D
100
AcDbEntity
  8
DEFPOINTS
 62
     0
 48
50.0
100
AcDbPoint
 10
8748.018167299793
 20
4959.172274673714
 30
0.0
  0
POINT
  5
175BD
330
16D9D
100
AcDbEntity
  8
DEFPOINTS
 62
     0
 48
50.0
100
AcDbPoint
 10
8748.018167299793
 20
2934.172274673713
 30
0.0
  0
POINT
  5
175BE
330
16D9D
100
AcDbEntity
  8
DEFPOINTS
 62
     0
 48
50.0
100
AcDbPoint
 10
8393.893644754063
 20
2934.172274673713
 30
0.0
  0
ENDBLK
  5
16DA8
330
16D9D
100
AcDbEntity
  8
0
 48
50.0
100
AcDbBlockEnd
  0
BLOCK
  5
16E3F
330
16E35
100
AcDbEntity
  8
0
 48
50.0
100
AcDbBlockBegin
  2
*D19
 70
     1
 10
0.0
 20
0.0
 30
0.0
  3
*D19
  1

  0
LINE
  5
17478
330
16E35
100
AcDbEntity
  8
寸法
 62
     0
 48
50.0
370
    -2
100
AcDbLine
 10
8820.018167299796
 20
2556.172274673714
 30
0.0
 11
8820.018167299796
 21
2230.124945373337
 31
0.0
  0
LINE
  5
17479
330
16E35
100
AcDbEntity
  8
寸法
 62
     0
 48
50.0
370
    -2
100
AcDbLine
 10
8620.018167299793
 20
2556.172274673714
 30
0.0
 11
8620.018167299793
 21
2230.124945373337
 31
0.0
  0
LINE
  5
1747A
330
16E35
100
AcDbEntity
  8
寸法
 62
     0
 48
50.0
370
    -2
100
AcDbLine
 10
8820.018167299796
 20
2290.124945373337
 30
0.0
 11
8620.018167299793
 21
2290.124945373337
 31
0.0
  0
INSERT
  5
1747B
330
16E35
100
AcDbEntity
  8
寸法
 62
     0
 48
50.0
370
    -2
100
AcDbBlockReference
  2
_DOTSMALL
 10
8820.018167299796
 20
2290.124945373337
 30
0.0
 41
100.0
 42
100.0
 43
100.0
  0
INSERT
  5
1747C
330
16E35
100
AcDbEntity
  8
寸法
 62
     0
 48
50.0
370
    -2
100
AcDbBlockReference
  2
_DOTSMALL
 10
8620.018167299793
 20
2290.124945373337
 30
0.0
 41
100.0
 42
100.0
 43
100.0
 50
180.0
  0
MTEXT
  5
1747D
330
16E35
100
AcDbEntity
  8
寸法
 62
     7
 48
50.0
100
AcDbMText
 10
8720.018167299793
 20
2390.136756396959
 30
0.0
 40
120.0
 41
0.0
 71
     5
 72
     1
  1
\A1;200
  7
STYLE1
 73
     1
 44
1.0
1001
ACAD
1000
MTEXTBEGIN
1070
    73
1070
     1
1070
    44
1040
1.0
1070
    74
1070
     0
1000
MTEXTEND
  0
POINT
  5
1747E
330
16E35
100
AcDbEntity
  8
DEFPOINTS
 62
     0
 48
50.0
100
AcDbPoint
 10
8820.018167299796
 20
2576.172274673715
 30
0.0
  0
POINT
  5
1747F
330
16E35
100
AcDbEntity
  8
DEFPOINTS
 62
     0
 48
50.0
100
AcDbPoint
 10
8620.018167299793
 20
2576.172274673715
 30
0.0
  0
POINT
  5
17480
330
16E35
100
AcDbEntity
  8
DEFPOINTS
 62
     0
 48
50.0
100
AcDbPoint
 10
8620.018167299793
 20
2290.124945373337
 30
0.0
  0
ENDBLK
  5
16E40
330
16E35
100
AcDbEntity
  8
0
 48
50.0
100
AcDbBlockEnd
  0
BLOCK
  5
17D6C
330
17D62
100
AcDbEntity
  8
0
 48
50.0
100
AcDbBlockBegin
  2
*D20
 70
     1
 10
0.0
 20
0.0
 30
0.0
  3
*D20
  1

  0
LINE
  5
1864F
330
17D62
100
AcDbEntity
  8
寸法
 62
     0
 48
50.0
370
    -2
100
AcDbLine
 10
10966.27333138269
 20
9731.061913054425
 30
0.0
 11
11653.6996771171
 21
9731.061913054425
 31
0.0
  0
LINE
  5
18650
330
17D62
100
AcDbEntity
  8
寸法
 62
     0
 48
50.0
370
    -2
100
AcDbLine
 10
10966.27333138266
 20
8471.061913054409
 30
0.0
 11
11653.6996771171
 21
8471.061913054409
 31
0.0
  0
LINE
  5
18651
330
17D62
100
AcDbEntity
  8
寸法
 62
     0
 48
50.0
370
    -2
100
AcDbLine
 10
11593.6996771171
 20
9731.061913054425
 30
0.0
 11
11593.6996771171
 21
8471.061913054409
 31
0.0
  0
INSERT
  5
18652
330
17D62
100
AcDbEntity
  8
寸法
 62
     0
 48
50.0
370
    -2
100
AcDbBlockReference
  2
_DOTSMALL
 10
11593.6996771171
 20
9731.061913054425
 30
0.0
 41
100.0
 42
100.0
 43
100.0
 50
90.0
  0
INSERT
  5
18653
330
17D62
100
AcDbEntity
  8
寸法
 62
     0
 48
50.0
370
    -2
100
AcDbBlockReference
  2
_DOTSMALL
 10
11593.6996771171
 20
8471.061913054409
 30
0.0
 41
100.0
 42
100.0
 43
100.0
 50
270.0
  0
MTEXT
  5
18654
330
17D62
100
AcDbEntity
  8
寸法
 62
     7
 48
50.0
100
AcDbMText
 10
11493.68786609348
 20
9101.061913054417
 30
0.0
 40
120.0
 41
0.0
 71
     5
 72
     1
  1
\A1;3X420=1260
  7
STYLE1
 11
0.0000000000000001
 21
1.0
 31
0.0
 73
     1
 44
1.0
1001
ACAD
1000
MTEXTBEGIN
1070
    73
1070
     1
1070
    44
1040
1.0
1070
    74
1070
     0
1000
MTEXTEND
  0
POINT
  5
18655
330
17D62
100
AcDbEntity
  8
DEFPOINTS
 62
     0
 48
50.0
100
AcDbPoint
 10
10946.27333138269
 20
9731.061913054425
 30
0.0
  0
POINT
  5
18656
330
17D62
100
AcDbEntity
  8
DEFPOINTS
 62
     0
 48
50.0
100
AcDbPoint
 10
10946.27333138266
 20
8471.061913054409
 30
0.0
  0
POINT
  5
18657
330
17D62
100
AcDbEntity
  8
DEFPOINTS
 62
     0
 48
50.0
100
AcDbPoint
 10
11593.6996771171
 20
8471.061913054409
 30
0.0
  0
ENDBLK
  5
17D6D
330
17D62
100
AcDbEntity
  8
0
 48
50.0
100
AcDbBlockEnd
  0
BLOCK
  5
17D78
330
17D6E
100
AcDbEntity
  8
0
 48
50.0
100
AcDbBlockBegin
  2
*D21
 70
     1
 10
0.0
 20
0.0
 30
0.0
  3
*D21
  1

  0
LINE
  5
18646
330
17D6E
100
AcDbEntity
  8
寸法
 62
     0
 48
50.0
370
    -2
100
AcDbLine
 10
10937.77333138269
 20
9750.702929205798
 30
0.0
 11
11333.13105724471
 21
9644.767145839665
 31
0.0
  0
LINE
  5
18647
330
17D6E
100
AcDbEntity
  8
寸法
 62
     0
 48
50.0
370
    -2
100
AcDbLine
 10
10937.77333138269
 20
9300.702929205803
 30
0.0
 11
11333.13105724471
 21
9194.767145839668
 31
0.0
  0
LINE
  5
18648
330
17D6E
100
AcDbEntity
  8
寸法
 62
     0
 48
50.0
370
    -2
100
AcDbLine
 10
11273.13105724471
 20
9660.844097385531
 30
0.0
 11
11273.13105724471
 21
9210.844097385534
 31
0.0
  0
INSERT
  5
18649
330
17D6E
100
AcDbEntity
  8
寸法
 62
     0
 48
50.0
370
    -2
100
AcDbBlockReference
  2
_DOTSMALL
 10
11273.13105724471
 20
9660.844097385531
 30
0.0
 41
100.0
 42
100.0
 43
100.0
 50
90.0
  0
INSERT
  5
1864A
330
17D6E
100
AcDbEntity
  8
寸法
 62
     0
 48
50.0
370
    -2
100
AcDbBlockReference
  2
_DOTSMALL
 10
11273.13105724471
 20
9210.844097385534
 30
0.0
 41
100.0
 42
100.0
 43
100.0
 50
270.0
  0
MTEXT
  5
1864B
330
17D6E
100
AcDbEntity
  8
寸法
 62
     7
 48
50.0
100
AcDbMText
 10
11173.13105724471
 20
9435.844097385533
 30
0.0
 40
120.0
 41
0.0
 71
     5
 72
     1
  1
\A1;450
  7
STYLE1
 11
0.0000000000000001
 21
1.0
 31
0.0
 73
     1
 44
1.0
1001
ACAD
1000
MTEXTBEGIN
1070
    73
1070
     1
1070
    44
1040
1.0
1070
    74
1070
     0
1000
MTEXTEND
  0
POINT
  5
1864C
330
17D6E
100
AcDbEntity
  8
DEFPOINTS
 62
     0
 48
50.0
100
AcDbPoint
 10
10917.77333138269
 20
9756.06191305442
 30
0.0
  0
POINT
  5
1864D
330
17D6E
100
AcDbEntity
  8
DEFPOINTS
 62
     0
 48
50.0
100
AcDbPoint
 10
10917.77333138269
 20
9306.061913054424
 30
0.0
  0
POINT
  5
1864E
330
17D6E
100
AcDbEntity
  8
DEFPOINTS
 62
     0
 48
50.0
100
AcDbPoint
 10
11273.13105724471
 20
9210.844097385534
 30
0.0
  0
ENDBLK
  5
17D79
330
17D6E
100
AcDbEntity
  8
0
 48
50.0
100
AcDbBlockEnd
  0
BLOCK
  5
17D84
330
17D7A
100
AcDbEntity
  8
0
 48
50.0
100
AcDbBlockBegin
  2
*D22
 70
     1
 10
0.0
 20
0.0
 30
0.0
  3
*D22
  1

  0
LINE
  5
1863D
330
17D7A
100
AcDbEntity
  8
寸法
 62
     0
 48
50.0
370
    -2
100
AcDbLine
 10
10059.41434753407
 20
9286.06191305443
 30
0.0
 11
9970.127606280392
 21
8952.839258253456
 31
0.0
  0
LINE
  5
1863E
330
17D7A
100
AcDbEntity
  8
寸法
 62
     0
 48
50.0
370
    -2
100
AcDbLine
 10
10912.41434753408
 20
9286.061913054423
 30
0.0
 11
10823.1276062804
 21
8952.839258253456
 31
0.0
  0
LINE
  5
1863F
330
17D7A
100
AcDbEntity
  8
寸法
 62
     0
 48
50.0
370
    -2
100
AcDbLine
 10
9986.20455782626
 20
9012.839258253455
 30
0.0
 11
10839.20455782627
 21
9012.839258253455
 31
0.0
  0
INSERT
  5
18640
330
17D7A
100
AcDbEntity
  8
寸法
 62
     0
 48
50.0
370
    -2
100
AcDbBlockReference
  2
_DOTSMALL
 10
9986.20455782626
 20
9012.839258253455
 30
0.0
 41
100.0
 42
100.0
 43
100.0
 50
180.0
  0
INSERT
  5
18641
330
17D7A
100
AcDbEntity
  8
寸法
 62
     0
 48
50.0
370
    -2
100
AcDbBlockReference
  2
_DOTSMALL
 10
10839.20455782627
 20
9012.839258253455
 30
0.0
 41
100.0
 42
100.0
 43
100.0
  0
MTEXT
  5
18642
330
17D7A
100
AcDbEntity
  8
寸法
 62
     7
 48
50.0
100
AcDbMText
 10
10444.12039350095
 20
9112.839258253456
 30
0.0
 40
120.0
 41
0.0
 71
     5
 72
     1
  1
\A1;853
  7
STYLE1
 73
     1
 44
1.0
1001
ACAD
1000
MTEXTBEGIN
1070
    73
1070
     1
1070
    44
1040
1.0
1070
    74
1070
     0
1000
MTEXTEND
  0
POINT
  5
18643
330
17D7A
100
AcDbEntity
  8
DEFPOINTS
 62
     0
 48
50.0
100
AcDbPoint
 10
10064.77333138269
 20
9306.061913054431
 30
0.0
  0
POINT
  5
18644
330
17D7A
100
AcDbEntity
  8
DEFPOINTS
 62
     0
 48
50.0
100
AcDbPoint
 10
10917.7733313827
 20
9306.061913054424
 30
0.0
  0
POINT
  5
18645
330
17D7A
100
AcDbEntity
  8
DEFPOINTS
 62
     0
 48
50.0
100
AcDbPoint
 10
10839.20455782627
 20
9012.839258253455
 30
0.0
  0
ENDBLK
  5
17D85
330
17D7A
100
AcDbEntity
  8
0
 48
50.0
100
AcDbBlockEnd
  0
BLOCK
  5
17D92
330
17D86
100
AcDbEntity
  8
0
 48
50.0
100
AcDbBlockBegin
  2
*D23
 70
     1
 10
0.0
 20
0.0
 30
0.0
  3
*D23
  1

  0
LINE
  5
18632
330
17D86
100
AcDbEntity
  8
寸法
 62
     0
 48
50.0
370
    -2
100
AcDbLine
 10
10966.27333138266
 20
8471.061913054409
 30
0.0
 11
11653.69967711707
 21
8471.061913054409
 31
0.0
  0
LINE
  5
18633
330
17D86
100
AcDbEntity
  8
寸法
 62
     0
 48
50.0
370
    -2
100
AcDbLine
 10
10966.27333138266
 20
8416.061913054413
 30
0.0
 11
11653.69967711707
 21
8416.061913054413
 31
0.0
  0
LINE
  5
18634
330
17D86
100
AcDbEntity
  8
寸法
 62
     0
 48
50.0
370
    -2
100
AcDbLine
 10
11593.69967711707
 20
8471.061913054409
 30
0.0
 11
11593.69967711707
 21
8571.061913054409
 31
0.0
  0
LINE
  5
18635
330
17D86
100
AcDbEntity
  8
寸法
 62
     0
 48
50.0
370
    -2
100
AcDbLine
 10
11593.69967711707
 20
8416.061913054413
 30
0.0
 11
11593.69967711707
 21
7929.715164775309
 31
0.0
  0
LINE
  5
18636
330
17D86
100
AcDbEntity
  8
寸法
 62
     0
 48
50.0
370
    -2
100
AcDbLine
 10
11593.69967711707
 20
8471.061913054409
 30
0.0
 11
11593.69967711707
 21
8416.061913054413
 31
0.0
  0
INSERT
  5
18637
330
17D86
100
AcDbEntity
  8
寸法
 62
     0
 48
50.0
370
    -2
100
AcDbBlockReference
  2
_DOTSMALL
 10
11593.69967711707
 20
8471.061913054409
 30
0.0
 41
100.0
 42
100.0
 43
100.0
 50
270.0
  0
INSERT
  5
18638
330
17D86
100
AcDbEntity
  8
寸法
 62
     0
 48
50.0
370
    -2
100
AcDbBlockReference
  2
_DOTSMALL
 10
11593.69967711707
 20
8416.061913054413
 30
0.0
 41
100.0
 42
100.0
 43
100.0
 50
90.0
  0
MTEXT
  5
18639
330
17D86
100
AcDbEntity
  8
寸法
 62
     7
 48
50.0
100
AcDbMText
 10
11493.69967711707
 20
8038.20044614955
 30
0.0
 40
120.0
 41
0.0
 71
     5
 72
     1
  1
\A1;55
  7
STYLE1
 11
0.0000000000000001
 21
1.0
 31
0.0
 73
     1
 44
1.0
1001
ACAD
1000
MTEXTBEGIN
1070
    73
1070
     1
1070
    44
1040
1.0
1070
    74
1070
     0
1000
MTEXTEND
  0
POINT
  5
1863A
330
17D86
100
AcDbEntity
  8
DEFPOINTS
 62
     0
 48
50.0
100
AcDbPoint
 10
10946.27333138266
 20
8471.061913054409
 30
0.0
  0
POINT
  5
1863B
330
17D86
100
AcDbEntity
  8
DEFPOINTS
 62
     0
 48
50.0
100
AcDbPoint
 10
10946.27333138266
 20
8416.061913054413
 30
0.0
  0
POINT
  5
1863C
330
17D86
100
AcDbEntity
  8
DEFPOINTS
 62
     0
 48
50.0
100
AcDbPoint
 10
11593.69967711707
 20
8416.061913054413
 30
0.0
  0
ENDBLK
  5
17D93
330
17D86
100
AcDbEntity
  8
0
 48
50.0
100
AcDbBlockEnd
  0
BLOCK
  5
17DAA
330
17DA0
100
AcDbEntity
  8
0
 48
50.0
100
AcDbBlockBegin
  2
*D24
 70
     1
 10
0.0
 20
0.0
 30
0.0
  3
*D24
  1

  0
LINE
  5
18629
330
17DA0
100
AcDbEntity
  8
寸法
 62
     0
 48
50.0
370
    -2
100
AcDbLine
 10
8759.414347534068
 20
9286.061913054325
 30
0.0
 11
8670.12760628042
 21
8952.839258253456
 31
0.0
  0
LINE
  5
1862A
330
17DA0
100
AcDbEntity
  8
寸法
 62
     0
 48
50.0
370
    -2
100
AcDbLine
 10
10032.41434753408
 20
9286.061913054318
 30
0.0
 11
9943.127606280432
 21
8952.839258253456
 31
0.0
  0
LINE
  5
1862B
330
17DA0
100
AcDbEntity
  8
寸法
 62
     0
 48
50.0
370
    -2
100
AcDbLine
 10
8686.204557826288
 20
9012.839258253455
 30
0.0
 11
9959.204557826302
 21
9012.839258253455
 31
0.0
  0
INSERT
  5
1862C
330
17DA0
100
AcDbEntity
  8
寸法
 62
     0
 48
50.0
370
    -2
100
AcDbBlockReference
  2
_DOTSMALL
 10
8686.204557826288
 20
9012.839258253455
 30
0.0
 41
100.0
 42
100.0
 43
100.0
 50
180.0
  0
INSERT
  5
1862D
330
17DA0
100
AcDbEntity
  8
寸法
 62
     0
 48
50.0
370
    -2
100
AcDbBlockReference
  2
_DOTSMALL
 10
9959.204557826302
 20
9012.839258253455
 30
0.0
 41
100.0
 42
100.0
 43
100.0
  0
MTEXT
  5
1862E
330
17DA0
100
AcDbEntity
  8
寸法
 62
     7
 48
50.0
100
AcDbMText
 10
9300.350107959072
 20
9112.851069277077
 30
0.0
 40
120.0
 41
0.0
 71
     5
 72
     1
  1
\A1;1273
  7
STYLE1
 73
     1
 44
1.0
1001
ACAD
1000
MTEXTBEGIN
1070
    73
1070
     1
1070
    44
1040
1.0
1070
    74
1070
     0
1000
MTEXTEND
  0
POINT
  5
1862F
330
17DA0
100
AcDbEntity
  8
DEFPOINTS
 62
     0
 48
50.0
100
AcDbPoint
 10
8764.77333138269
 20
9306.061913054326
 30
0.0
  0
POINT
  5
18630
330
17DA0
100
AcDbEntity
  8
DEFPOINTS
 62
     0
 48
50.0
100
AcDbPoint
 10
10037.7733313827
 20
9306.061913054319
 30
0.0
  0
POINT
  5
18631
330
17DA0
100
AcDbEntity
  8
DEFPOINTS
 62
     0
 48
50.0
100
AcDbPoint
 10
9959.204557826302
 20
9012.839258253455
 30
0.0
  0
ENDBLK
  5
17DAB
330
17DA0
100
AcDbEntity
  8
0
 48
50.0
100
AcDbBlockEnd
  0
BLOCK
  5
17DB8
330
17DAC
100
AcDbEntity
  8
0
 48
50.0
100
AcDbBlockBegin
  2
*D25
 70
     1
 10
0.0
 20
0.0
 30
0.0
  3
*D25
  1

  0
LINE
  5
1861E
330
17DAC
100
AcDbEntity
  8
寸法
 62
     0
 48
50.0
370
    -2
100
AcDbLine
 10
8736.273331382653
 20
9806.061913054326
 30
0.0
 11
8736.273331382653
 21
10149.1075076299
 31
0.0
  0
LINE
  5
1861F
330
17DAC
100
AcDbEntity
  8
寸法
 62
     0
 48
50.0
370
    -2
100
AcDbLine
 10
8791.27333138269
 20
9806.061913054326
 30
0.0
 11
8791.27333138269
 21
10149.1075076299
 31
0.0
  0
LINE
  5
18620
330
17DAC
100
AcDbEntity
  8
寸法
 62
     0
 48
50.0
370
    -2
100
AcDbLine
 10
8791.27333138269
 20
10089.1075076299
 30
0.0
 11
8891.27333138269
 21
10089.1075076299
 31
0.0
  0
LINE
  5
18621
330
17DAC
100
AcDbEntity
  8
寸法
 62
     0
 48
50.0
370
    -2
100
AcDbLine
 10
8736.273331382653
 20
10089.1075076299
 30
0.0
 11
8319.302768634178
 21
10089.1075076299
 31
0.0
  0
LINE
  5
18622
330
17DAC
100
AcDbEntity
  8
寸法
 62
     0
 48
50.0
370
    -2
100
AcDbLine
 10
8791.27333138269
 20
10089.1075076299
 30
0.0
 11
8736.273331382653
 21
10089.1075076299
 31
0.0
  0
INSERT
  5
18623
330
17DAC
100
AcDbEntity
  8
寸法
 62
     0
 48
50.0
370
    -2
100
AcDbBlockReference
  2
_DOTSMALL
 10
8791.27333138269
 20
10089.1075076299
 30
0.0
 41
100.0
 42
100.0
 43
100.0
 50
180.0
  0
INSERT
  5
18624
330
17DAC
100
AcDbEntity
  8
寸法
 62
     0
 48
50.0
370
    -2
100
AcDbBlockReference
  2
_DOTSMALL
 10
8736.273331382653
 20
10089.1075076299
 30
0.0
 41
100.0
 42
100.0
 43
100.0
  0
MTEXT
  5
18625
330
17DAC
100
AcDbEntity
  8
寸法
 62
     7
 48
50.0
100
AcDbMText
 10
8427.788050008414
 20
10189.1075076299
 30
0.0
 40
120.0
 41
0.0
 71
     5
 72
     1
  1
\A1;55
  7
STYLE1
 73
     1
 44
1.0
1001
ACAD
1000
MTEXTBEGIN
1070
    73
1070
     1
1070
    44
1040
1.0
1070
    74
1070
     0
1000
MTEXTEND
  0
POINT
  5
18626
330
17DAC
100
AcDbEntity
  8
DEFPOINTS
 62
     0
 48
50.0
100
AcDbPoint
 10
8736.273331382653
 20
9786.061913054325
 30
0.0
  0
POINT
  5
18627
330
17DAC
100
AcDbEntity
  8
DEFPOINTS
 62
     0
 48
50.0
100
AcDbPoint
 10
8791.27333138269
 20
9786.061913054325
 30
0.0
  0
POINT
  5
18628
330
17DAC
100
AcDbEntity
  8
DEFPOINTS
 62
     0
 48
50.0
100
AcDbPoint
 10
8791.27333138269
 20
10089.1075076299
 30
0.0
  0
ENDBLK
  5
17DB9
330
17DAC
100
AcDbEntity
  8
0
 48
50.0
100
AcDbBlockEnd
  0
BLOCK
  5
17DC6
330
17DBA
100
AcDbEntity
  8
0
 48
50.0
100
AcDbBlockBegin
  2
*D26
 70
     1
 10
0.0
 20
0.0
 30
0.0
  3
*D26
  1

  0
LINE
  5
18613
330
17DBA
100
AcDbEntity
  8
寸法
 62
     0
 48
50.0
370
    -2
100
AcDbLine
 10
10966.27333138269
 20
9786.061913054421
 30
0.0
 11
11653.6996771171
 21
9786.061913054421
 31
0.0
  0
LINE
  5
18614
330
17DBA
100
AcDbEntity
  8
寸法
 62
     0
 48
50.0
370
    -2
100
AcDbLine
 10
10966.27333138269
 20
9731.061913054425
 30
0.0
 11
11653.6996771171
 21
9731.061913054425
 31
0.0
  0
LINE
  5
18615
330
17DBA
100
AcDbEntity
  8
寸法
 62
     0
 48
50.0
370
    -2
100
AcDbLine
 10
11593.6996771171
 20
9731.061913054425
 30
0.0
 11
11593.6996771171
 21
9631.061913054423
 31
0.0
  0
LINE
  5
18616
330
17DBA
100
AcDbEntity
  8
寸法
 62
     0
 48
50.0
370
    -2
100
AcDbLine
 10
11593.6996771171
 20
9786.061913054421
 30
0.0
 11
11593.6996771171
 21
10203.0324758029
 31
0.0
  0
LINE
  5
18617
330
17DBA
100
AcDbEntity
  8
寸法
 62
     0
 48
50.0
370
    -2
100
AcDbLine
 10
11593.6996771171
 20
9731.061913054425
 30
0.0
 11
11593.6996771171
 21
9786.061913054421
 31
0.0
  0
INSERT
  5
18618
330
17DBA
100
AcDbEntity
  8
寸法
 62
     0
 48
50.0
370
    -2
100
AcDbBlockReference
  2
_DOTSMALL
 10
11593.6996771171
 20
9731.061913054425
 30
0.0
 41
100.0
 42
100.0
 43
100.0
 50
90.0
  0
INSERT
  5
18619
330
17DBA
100
AcDbEntity
  8
寸法
 62
     0
 48
50.0
370
    -2
100
AcDbBlockReference
  2
_DOTSMALL
 10
11593.6996771171
 20
9786.061913054421
 30
0.0
 41
100.0
 42
100.0
 43
100.0
 50
270.0
  0
MTEXT
  5
1861A
330
17DBA
100
AcDbEntity
  8
寸法
 62
     7
 48
50.0
100
AcDbMText
 10
11493.6996771171
 20
10094.54719442866
 30
0.0
 40
120.0
 41
0.0
 71
     5
 72
     1
  1
\A1;55
  7
STYLE1
 11
0.0000000000000001
 21
1.0
 31
0.0
 73
     1
 44
1.0
1001
ACAD
1000
MTEXTBEGIN
1070
    73
1070
     1
1070
    44
1040
1.0
1070
    74
1070
     0
1000
MTEXTEND
  0
POINT
  5
1861B
330
17DBA
100
AcDbEntity
  8
DEFPOINTS
 62
     0
 48
50.0
100
AcDbPoint
 10
10946.27333138269
 20
9786.061913054421
 30
0.0
  0
POINT
  5
1861C
330
17DBA
100
AcDbEntity
  8
DEFPOINTS
 62
     0
 48
50.0
100
AcDbPoint
 10
10946.27333138269
 20
9731.061913054425
 30
0.0
  0
POINT
  5
1861D
330
17DBA
100
AcDbEntity
  8
DEFPOINTS
 62
     0
 48
50.0
100
AcDbPoint
 10
11593.6996771171
 20
9731.061913054425
 30
0.0
  0
ENDBLK
  5
17DC7
330
17DBA
100
AcDbEntity
  8
0
 48
50.0
100
AcDbBlockEnd
  0
BLOCK
  5
17DD4
330
17DC8
100
AcDbEntity
  8
0
 48
50.0
100
AcDbBlockBegin
  2
*D27
 70
     1
 10
0.0
 20
0.0
 30
0.0
  3
*D27
  1

  0
LINE
  5
18608
330
17DC8
100
AcDbEntity
  8
寸法
 62
     0
 48
50.0
370
    -2
100
AcDbLine
 10
10891.27333138269
 20
9806.061913054421
 30
0.0
 11
10891.27333138269
 21
10149.10750763
 31
0.0
  0
LINE
  5
18609
330
17DC8
100
AcDbEntity
  8
寸法
 62
     0
 48
50.0
370
    -2
100
AcDbLine
 10
10946.27333138269
 20
9806.061913054421
 30
0.0
 11
10946.27333138269
 21
10149.10750763
 31
0.0
  0
LINE
  5
1860A
330
17DC8
100
AcDbEntity
  8
寸法
 62
     0
 48
50.0
370
    -2
100
AcDbLine
 10
10891.27333138269
 20
10089.10750763
 30
0.0
 11
10791.27333138269
 21
10089.10750763
 31
0.0
  0
LINE
  5
1860B
330
17DC8
100
AcDbEntity
  8
寸法
 62
     0
 48
50.0
370
    -2
100
AcDbLine
 10
10946.27333138269
 20
10089.10750763
 30
0.0
 11
11363.24389413116
 21
10089.10750763
 31
0.0
  0
LINE
  5
1860C
330
17DC8
100
AcDbEntity
  8
寸法
 62
     0
 48
50.0
370
    -2
100
AcDbLine
 10
10891.27333138269
 20
10089.10750763
 30
0.0
 11
10946.27333138269
 21
10089.10750763
 31
0.0
  0
INSERT
  5
1860D
330
17DC8
100
AcDbEntity
  8
寸法
 62
     0
 48
50.0
370
    -2
100
AcDbBlockReference
  2
_DOTSMALL
 10
10891.27333138269
 20
10089.10750763
 30
0.0
 41
100.0
 42
100.0
 43
100.0
  0
INSERT
  5
1860E
330
17DC8
100
AcDbEntity
  8
寸法
 62
     0
 48
50.0
370
    -2
100
AcDbBlockReference
  2
_DOTSMALL
 10
10946.27333138269
 20
10089.10750763
 30
0.0
 41
100.0
 42
100.0
 43
100.0
 50
180.0
  0
MTEXT
  5
1860F
330
17DC8
100
AcDbEntity
  8
寸法
 62
     7
 48
50.0
100
AcDbMText
 10
11254.75861275693
 20
10189.10750763
 30
0.0
 40
120.0
 41
0.0
 71
     5
 72
     1
  1
\A1;55
  7
STYLE1
 73
     1
 44
1.0
1001
ACAD
1000
MTEXTBEGIN
1070
    73
1070
     1
1070
    44
1040
1.0
1070
    74
1070
     0
1000
MTEXTEND
  0
POINT
  5
18610
330
17DC8
100
AcDbEntity
  8
DEFPOINTS
 62
     0
 48
50.0
100
AcDbPoint
 10
10891.27333138269
 20
9786.061913054421
 30
0.0
  0
POINT
  5
18611
330
17DC8
100
AcDbEntity
  8
DEFPOINTS
 62
     0
 48
50.0
100
AcDbPoint
 10
10946.27333138269
 20
9786.061913054421
 30
0.0
  0
POINT
  5
18612
330
17DC8
100
AcDbEntity
  8
DEFPOINTS
 62
     0
 48
50.0
100
AcDbPoint
 10
10946.27333138269
 20
10089.10750763
 30
0.0
  0
ENDBLK
  5
17DD5
330
17DC8
100
AcDbEntity
  8
0
 48
50.0
100
AcDbBlockEnd
  0
BLOCK
  5
17DE0
330
17DD6
100
AcDbEntity
  8
0
 48
50.0
100
AcDbBlockBegin
  2
*D28
 70
     1
 10
0.0
 20
0.0
 30
0.0
  3
*D28
  1

  0
LINE
  5
185FF
330
17DD6
100
AcDbEntity
  8
寸法
 62
     0
 48
50.0
370
    -2
100
AcDbLine
 10
8791.27333138269
 20
9806.061913054326
 30
0.0
 11
8791.27333138269
 21
10149.10750763002
 31
0.0
  0
LINE
  5
18600
330
17DD6
100
AcDbEntity
  8
寸法
 62
     0
 48
50.0
370
    -2
100
AcDbLine
 10
10891.27333138269
 20
9806.061913054421
 30
0.0
 11
10891.27333138269
 21
10149.10750763002
 31
0.0
  0
LINE
  5
18601
330
17DD6
100
AcDbEntity
  8
寸法
 62
     0
 48
50.0
370
    -2
100
AcDbLine
 10
8791.27333138269
 20
10089.10750763002
 30
0.0
 11
10891.27333138269
 21
10089.10750763002
 31
0.0
  0
INSERT
  5
18602
330
17DD6
100
AcDbEntity
  8
寸法
 62
     0
 48
50.0
370
    -2
100
AcDbBlockReference
  2
_DOTSMALL
 10
8791.27333138269
 20
10089.10750763002
 30
0.0
 41
100.0
 42
100.0
 43
100.0
 50
180.0
  0
INSERT
  5
18603
330
17DD6
100
AcDbEntity
  8
寸法
 62
     0
 48
50.0
370
    -2
100
AcDbBlockReference
  2
_DOTSMALL
 10
10891.27333138269
 20
10089.10750763002
 30
0.0
 41
100.0
 42
100.0
 43
100.0
  0
MTEXT
  5
18604
330
17DD6
100
AcDbEntity
  8
寸法
 62
     7
 48
50.0
100
AcDbMText
 10
9841.273331382689
 20
10189.11931865364
 30
0.0
 40
120.0
 41
0.0
 71
     5
 72
     1
  1
\A1;5X420=2100
  7
STYLE1
 73
     1
 44
1.0
1001
ACAD
1000
MTEXTBEGIN
1070
    73
1070
     1
1070
    44
1040
1.0
1070
    74
1070
     0
1000
MTEXTEND
  0
POINT
  5
18605
330
17DD6
100
AcDbEntity
  8
DEFPOINTS
 62
     0
 48
50.0
100
AcDbPoint
 10
8791.27333138269
 20
9786.061913054325
 30
0.0
  0
POINT
  5
18606
330
17DD6
100
AcDbEntity
  8
DEFPOINTS
 62
     0
 48
50.0
100
AcDbPoint
 10
10891.27333138269
 20
9786.061913054421
 30
0.0
  0
POINT
  5
18607
330
17DD6
100
AcDbEntity
  8
DEFPOINTS
 62
     0
 48
50.0
100
AcDbPoint
 10
10891.27333138269
 20
10089.10750763002
 30
0.0
  0
ENDBLK
  5
17DE1
330
17DD6
100
AcDbEntity
  8
0
 48
50.0
100
AcDbBlockEnd
  0
BLOCK
  5
17DEC
330
17DE2
100
AcDbEntity
  8
0
 48
50.0
100
AcDbBlockBegin
  2
*D29
 70
     1
 10
0.0
 20
0.0
 30
0.0
  3
*D29
  1

  0
LINE
  5
18661
330
17DE2
100
AcDbEntity
  8
寸法
 62
     0
 48
50.0
370
    -2
100
AcDbLine
 10
10966.27333138269
 20
9786.061913054421
 30
0.0
 11
11934.44290322316
 21
9786.061913054421
 31
0.0
  0
LINE
  5
18662
330
17DE2
100
AcDbEntity
  8
寸法
 62
     0
 48
50.0
370
    -2
100
AcDbLine
 10
10966.27333138266
 20
8416.061913054413
 30
0.0
 11
11934.44290322316
 21
8416.061913054413
 31
0.0
  0
LINE
  5
18663
330
17DE2
100
AcDbEntity
  8
寸法
 62
     0
 48
50.0
370
    -2
100
AcDbLine
 10
11874.44290322316
 20
9786.061913054421
 30
0.0
 11
11874.44290322316
 21
8416.061913054413
 31
0.0
  0
INSERT
  5
18664
330
17DE2
100
AcDbEntity
  8
寸法
 62
     0
 48
50.0
370
    -2
100
AcDbBlockReference
  2
_DOTSMALL
 10
11874.44290322316
 20
9786.061913054421
 30
0.0
 41
100.0
 42
100.0
 43
100.0
 50
90.0
  0
INSERT
  5
18665
330
17DE2
100
AcDbEntity
  8
寸法
 62
     0
 48
50.0
370
    -2
100
AcDbBlockReference
  2
_DOTSMALL
 10
11874.44290322316
 20
8416.061913054413
 30
0.0
 41
100.0
 42
100.0
 43
100.0
 50
270.0
  0
MTEXT
  5
18666
330
17DE2
100
AcDbEntity
  8
寸法
 62
     7
 48
50.0
100
AcDbMText
 10
11774.44290322315
 20
9105.137118577351
 30
0.0
 40
120.0
 41
0.0
 71
     5
 72
     1
  1
\A1;1370
  7
STYLE1
 11
0.0000000000000001
 21
1.0
 31
0.0
 73
     1
 44
1.0
1001
ACAD
1000
MTEXTBEGIN
1070
    73
1070
     1
1070
    44
1040
1.0
1070
    74
1070
     0
1000
MTEXTEND
  0
POINT
  5
18667
330
17DE2
100
AcDbEntity
  8
DEFPOINTS
 62
     0
 48
50.0
100
AcDbPoint
 10
10946.27333138269
 20
9786.061913054421
 30
0.0
  0
POINT
  5
18668
330
17DE2
100
AcDbEntity
  8
DEFPOINTS
 62
     0
 48
50.0
100
AcDbPoint
 10
10946.27333138266
 20
8416.061913054413
 30
0.0
  0
POINT
  5
18669
330
17DE2
100
AcDbEntity
  8
DEFPOINTS
 62
     0
 48
50.0
100
AcDbPoint
 10
11874.44290322316
 20
8416.061913054413
 30
0.0
  0
ENDBLK
  5
17DED
330
17DE2
100
AcDbEntity
  8
0
 48
50.0
100
AcDbBlockEnd
  0
BLOCK
  5
18154
330
1814A
100
AcDbEntity
  8
0
 48
50.0
100
AcDbBlockBegin
  2
*D30
 70
     1
 10
0.0
 20
0.0
 30
0.0
  3
*D30
  1

  0
LINE
  5
185ED
330
1814A
100
AcDbEntity
  8
寸法
 62
     0
 48
50.0
370
    -2
100
AcDbLine
 10
8803.273331382632
 20
8319.061913054227
 30
0.0
 11
8803.273331382632
 21
7624.676413126457
 31
0.0
  0
LINE
  5
185EE
330
1814A
100
AcDbEntity
  8
寸法
 62
     0
 48
50.0
370
    -2
100
AcDbLine
 10
10069.27333138263
 20
8319.061913054227
 30
0.0
 11
10069.27333138263
 21
7624.676413126457
 31
0.0
  0
LINE
  5
185EF
330
1814A
100
AcDbEntity
  8
寸法
 62
     0
 48
50.0
370
    -2
100
AcDbLine
 10
8823.273331382631
 20
7664.676413126457
 30
0.0
 11
10049.27333138263
 21
7664.676413126457
 31
0.0
  0
INSERT
  5
185F0
330
1814A
100
AcDbEntity
  8
寸法
 62
     0
 48
50.0
370
    -2
100
AcDbBlockReference
  2
_DOT
 10
8803.273331382632
 20
7664.676413126457
 30
0.0
 41
20.0
 42
20.0
 43
20.0
 50
180.0
  0
INSERT
  5
185F1
330
1814A
100
AcDbEntity
  8
寸法
 62
     0
 48
50.0
370
    -2
100
AcDbBlockReference
  2
_DOT
 10
10069.27333138263
 20
7664.676413126457
 30
0.0
 41
20.0
 42
20.0
 43
20.0
  0
MTEXT
  5
185F2
330
1814A
100
AcDbEntity
  8
寸法
 62
     7
 48
50.0
100
AcDbMText
 10
9432.746094920469
 20
7856.688224150079
 30
0.0
 40
120.0
 41
0.0
 71
     5
 72
     1
  1
\A1;有効開口部間口\P1266
  7
STYLE1
 73
     1
 44
1.0
1001
ACAD
1000
MTEXTBEGIN
1070
    73
1070
     1
1070
    44
1040
1.0
1070
    74
1070
     0
1000
MTEXTEND
  0
POINT
  5
185F3
330
1814A
100
AcDbEntity
  8
DEFPOINTS
 62
     0
 48
50.0
100
AcDbPoint
 10
8803.273331382632
 20
8339.061913054228
 30
0.0
  0
POINT
  5
185F4
330
1814A
100
AcDbEntity
  8
DEFPOINTS
 62
     0
 48
50.0
100
AcDbPoint
 10
10069.27333138263
 20
8339.061913054228
 30
0.0
  0
POINT
  5
185F5
330
1814A
100
AcDbEntity
  8
DEFPOINTS
 62
     0
 48
50.0
100
AcDbPoint
 10
10069.27333138263
 20
7664.676413126457
 30
0.0
  0
ENDBLK
  5
18155
330
1814A
100
AcDbEntity
  8
0
 48
50.0
100
AcDbBlockEnd
  0
BLOCK
  5
18483
330
18479
100
AcDbEntity
  8
0
 48
50.0
100
AcDbBlockBegin
  2
*D31
 70
     1
 10
0.0
 20
0.0
 30
0.0
  3
*D31
  1

  0
LINE
  5
185E4
330
18479
100
AcDbEntity
  8
寸法
 62
     0
 48
50.0
370
    -2
100
AcDbLine
 10
8764.273331382632
 20
8319.061913054227
 30
0.0
 11
8764.273331382632
 21
7314.388717533829
 31
0.0
  0
LINE
  5
185E5
330
18479
100
AcDbEntity
  8
寸法
 62
     0
 48
50.0
370
    -2
100
AcDbLine
 10
10918.27333138263
 20
8319.061913054227
 30
0.0
 11
10918.27333138263
 21
7314.388717533829
 31
0.0
  0
LINE
  5
185E6
330
18479
100
AcDbEntity
  8
寸法
 62
     0
 48
50.0
370
    -2
100
AcDbLine
 10
8764.273331382632
 20
7374.38871753383
 30
0.0
 11
10918.27333138263
 21
7374.38871753383
 31
0.0
  0
INSERT
  5
185E7
330
18479
100
AcDbEntity
  8
寸法
 62
     0
 48
50.0
370
    -2
100
AcDbBlockReference
  2
_DOTSMALL
 10
8764.273331382632
 20
7374.38871753383
 30
0.0
 41
100.0
 42
100.0
 43
100.0
 50
180.0
  0
INSERT
  5
185E8
330
18479
100
AcDbEntity
  8
寸法
 62
     0
 48
50.0
370
    -2
100
AcDbBlockReference
  2
_DOTSMALL
 10
10918.27333138263
 20
7374.38871753383
 30
0.0
 41
100.0
 42
100.0
 43
100.0
  0
MTEXT
  5
185E9
330
18479
100
AcDbEntity
  8
寸法
 62
     7
 48
50.0
100
AcDbMText
 10
9841.273331382632
 20
7474.400528557452
 30
0.0
 40
120.0
 41
0.0
 71
     5
 72
     1
  1
\A1;2154
  7
STYLE1
 73
     1
 44
1.0
1001
ACAD
1000
MTEXTBEGIN
1070
    73
1070
     1
1070
    44
1040
1.0
1070
    74
1070
     0
1000
MTEXTEND
  0
POINT
  5
185EA
330
18479
100
AcDbEntity
  8
DEFPOINTS
 62
     0
 48
50.0
100
AcDbPoint
 10
8764.273331382632
 20
8339.061913054228
 30
0.0
  0
POINT
  5
185EB
330
18479
100
AcDbEntity
  8
DEFPOINTS
 62
     0
 48
50.0
100
AcDbPoint
 10
10918.27333138263
 20
8339.061913054228
 30
0.0
  0
POINT
  5
185EC
330
18479
100
AcDbEntity
  8
DEFPOINTS
 62
     0
 48
50.0
100
AcDbPoint
 10
10918.27333138263
 20
7374.38871753383
 30
0.0
  0
ENDBLK
  5
18484
330
18479
100
AcDbEntity
  8
0
 48
50.0
100
AcDbBlockEnd
  0
BLOCK
  5
18491
330
18485
100
AcDbEntity
  8
0
 48
50.0
100
AcDbBlockBegin
  2
*D32
 70
     1
 10
0.0
 20
0.0
 30
0.0
  3
*D32
  1

  0
LINE
  5
185D9
330
18485
100
AcDbEntity
  8
寸法
 62
     0
 48
50.0
370
    -2
100
AcDbLine
 10
8716.273331382684
 20
8416.061913054283
 30
0.0
 11
8401.662085755967
 21
8416.061913054283
 31
0.0
  0
LINE
  5
185DA
330
18485
100
AcDbEntity
  8
寸法
 62
     0
 48
50.0
370
    -2
100
AcDbLine
 10
8744.273331382661
 20
8341.061913054282
 30
0.0
 11
8401.662085755967
 21
8341.061913054282
 31
0.0
  0
LINE
  5
185DB
330
18485
100
AcDbEntity
  8
寸法
 62
     0
 48
50.0
370
    -2
100
AcDbLine
 10
8441.662085755966
 20
8436.061913054281
 30
0.0
 11
8441.662085755966
 21
8456.061913054282
 31
0.0
  0
LINE
  5
185DC
330
18485
100
AcDbEntity
  8
寸法
 62
     0
 48
50.0
370
    -2
100
AcDbLine
 10
8441.662085755966
 20
8321.061913054283
 30
0.0
 11
8441.662085755966
 21
8100.091350305802
 31
0.0
  0
LINE
  5
185DD
330
18485
100
AcDbEntity
  8
寸法
 62
     0
 48
50.0
370
    -2
100
AcDbLine
 10
8441.662085755966
 20
8416.061913054283
 30
0.0
 11
8441.662085755966
 21
8341.061913054282
 31
0.0
  0
INSERT
  5
185DE
330
18485
100
AcDbEntity
  8
寸法
 62
     0
 48
50.0
370
    -2
100
AcDbBlockReference
  2
_DOT
 10
8441.662085755966
 20
8416.061913054283
 30
0.0
 41
20.0
 42
20.0
 43
20.0
 50
270.0
  0
INSERT
  5
185DF
330
18485
100
AcDbEntity
  8
寸法
 62
     0
 48
50.0
370
    -2
100
AcDbBlockReference
  2
_DOT
 10
8441.662085755966
 20
8341.061913054282
 30
0.0
 41
20.0
 42
20.0
 43
20.0
 50
90.0
  0
MTEXT
  5
185E0
330
18485
100
AcDbEntity
  8
寸法
 62
     7
 48
50.0
100
AcDbMText
 10
8349.662085755964
 20
8200.576631680043
 30
0.0
 40
120.0
 41
0.0
 71
     5
 72
     1
  1
\A1;75
  7
STYLE1
 11
0.0000000000000001
 21
1.0
 31
0.0
 73
     1
 44
1.0
1001
ACAD
1000
MTEXTBEGIN
1070
    73
1070
     1
1070
    44
1040
1.0
1070
    74
1070
     0
1000
MTEXTEND
  0
POINT
  5
185E1
330
18485
100
AcDbEntity
  8
DEFPOINTS
 62
     0
 48
50.0
100
AcDbPoint
 10
8736.273331382683
 20
8416.061913054283
 30
0.0
  0
POINT
  5
185E2
330
18485
100
AcDbEntity
  8
DEFPOINTS
 62
     0
 48
50.0
100
AcDbPoint
 10
8764.273331382661
 20
8341.061913054282
 30
0.0
  0
POINT
  5
185E3
330
18485
100
AcDbEntity
  8
DEFPOINTS
 62
     0
 48
50.0
100
AcDbPoint
 10
8441.662085755966
 20
8341.061913054282
 30
0.0
  0
ENDBLK
  5
18492
330
18485
100
AcDbEntity
  8
0
 48
50.0
100
AcDbBlockEnd
  0
BLOCK
  5
184DB
330
184D1
100
AcDbEntity
  8
0
 48
50.0
100
AcDbBlockBegin
  2
*D33
 70
     1
 10
0.0
 20
0.0
 30
0.0
  3
*D33
  1

  0
LINE
  5
185D0
330
184D1
100
AcDbEntity
  8
寸法
 62
     0
 48
50.0
370
    -2
100
AcDbLine
 10
8736.273331382683
 20
8396.06191305425
 30
0.0
 11
8736.273331382683
 21
7052.035587527351
 31
0.0
  0
LINE
  5
185D1
330
184D1
100
AcDbEntity
  8
寸法
 62
     0
 48
50.0
370
    -2
100
AcDbLine
 10
10946.27333138266
 20
8396.061913054376
 30
0.0
 11
10946.27333138266
 21
7052.035587527351
 31
0.0
  0
LINE
  5
185D2
330
184D1
100
AcDbEntity
  8
寸法
 62
     0
 48
50.0
370
    -2
100
AcDbLine
 10
8736.273331382683
 20
7112.03558752735
 30
0.0
 11
10946.27333138266
 21
7112.03558752735
 31
0.0
  0
INSERT
  5
185D3
330
184D1
100
AcDbEntity
  8
寸法
 62
     0
 48
50.0
370
    -2
100
AcDbBlockReference
  2
_DOTSMALL
 10
8736.273331382683
 20
7112.03558752735
 30
0.0
 41
100.0
 42
100.0
 43
100.0
 50
180.0
  0
INSERT
  5
185D4
330
184D1
100
AcDbEntity
  8
寸法
 62
     0
 48
50.0
370
    -2
100
AcDbBlockReference
  2
_DOTSMALL
 10
10946.27333138266
 20
7112.03558752735
 30
0.0
 41
100.0
 42
100.0
 43
100.0
  0
MTEXT
  5
185D5
330
184D1
100
AcDbEntity
  8
寸法
 62
     7
 48
50.0
100
AcDbMText
 10
9839.854762591109
 20
7212.047398550973
 30
0.0
 40
120.0
 41
0.0
 71
     5
 72
     1
  1
\A1;2210
  7
STYLE1
 73
     1
 44
1.0
1001
ACAD
1000
MTEXTBEGIN
1070
    73
1070
     1
1070
    44
1040
1.0
1070
    74
1070
     0
1000
MTEXTEND
  0
POINT
  5
185D6
330
184D1
100
AcDbEntity
  8
DEFPOINTS
 62
     0
 48
50.0
100
AcDbPoint
 10
8736.273331382683
 20
8416.061913054248
 30
0.0
  0
POINT
  5
185D7
330
184D1
100
AcDbEntity
  8
DEFPOINTS
 62
     0
 48
50.0
100
AcDbPoint
 10
10946.27333138266
 20
8416.061913054376
 30
0.0
  0
POINT
  5
185D8
330
184D1
100
AcDbEntity
  8
DEFPOINTS
 62
     0
 48
50.0
100
AcDbPoint
 10
10946.27333138266
 20
7112.03558752735
 30
0.0
  0
ENDBLK
  5
184DC
330
184D1
100
AcDbEntity
  8
0
 48
50.0
100
AcDbBlockEnd
  0
ENDSEC
  0
SECTION
  2
ENTITIES
  0
LINE
  5
10B57
330
747D
100
AcDbEntity
  8
補助
  6
PHANTOM
 62
   230
 48
50.0
100
AcDbLine
 10
139.9999999999995
 20
11409.6
 30
0.0
 11
16307.2
 21
11409.6
 31
0.0
  0
LINE
  5
10B59
330
747D
100
AcDbEntity
  8
仕様書枠
  6
Continuous
 48
50.0
100
AcDbLine
 10
13107.2
 20
1200.0
 30
0.0
 11
13107.2
 21
-0.0000000000000729
 31
0.0
  0
LINE
  5
10B5C
330
747D
100
AcDbEntity
  8
仕様書枠
 48
50.0
100
AcDbLine
 10
16307.2
 20
1200.0
 30
0.0
 11
16307.2
 21
-0.0000000000000909
 31
0.0
  0
LINE
  5
10B5D
330
747D
100
AcDbEntity
  8
仕様書枠
 48
50.0
100
AcDbLine
 10
140.0
 20
0.0
 30
0.0
 11
16307.2
 21
-0.0000000000000909
 31
0.0
  0
LINE
  5
10B5E
330
747D
100
AcDbEntity
  8
補助
  6
PHANTOM
 62
   230
 48
50.0
100
AcDbLine
 10
16307.2
 20
11409.6
 30
0.0
 11
16307.2
 21
1200.0
 31
0.0
  0
LINE
  5
10B6C
330
747D
100
AcDbEntity
  8
仕様書枠
 48
50.0
100
AcDbLine
 10
13107.2
 20
1200.0
 30
0.0
 11
16307.2
 21
1200.0
 31
0.0
  0
LINE
  5
10B6D
330
747D
100
AcDbEntity
  8
補助
  6
PHANTOM
 62
   230
 48
50.0
100
AcDbLine
 10
13107.2
 20
11409.6
 30
0.0
 11
13107.2
 21
4800.0
 31
0.0
  0
LINE
  5
10B6F
330
747D
100
AcDbEntity
  8
補助
  6
PHANTOM
 62
   230
 48
50.0
100
AcDbLine
 10
13107.2
 20
4800.0
 30
0.0
 11
16307.2
 21
4800.0
 31
0.0
  0
LINE
  5
10B72
330
747D
100
AcDbEntity
  8
文字
 62
     7
 48
50.0
100
AcDbLine
 10
13187.2
 20
400.0
 30
0.0
 11
16227.2
 21
400.0
 31
0.0
  0
TEXT
  5
10B73
330
747D
100
AcDbEntity
  8
文字
 62
     7
 48
50.0
100
AcDbText
 10
13162.9790565769
 20
895.0906074299405
 30
0.0
 40
200.0
  1
外 形 図
  7
STYLE2
100
AcDbText
  0
TEXT
  5
10B74
330
747D
100
AcDbEntity
  8
文字
 62
     7
 48
50.0
100
AcDbText
 10
13201.43669998441
 20
477.2740661031255
 30
0.0
 40
160.0
  1
機種名
  7
STYLE2
100
AcDbText
  0
TEXT
  5
10B76
330
747D
100
AcDbEntity
  8
文字
 62
     7
 48
50.0
100
AcDbText
 10
13209.4053442172
 20
76.09434707649343
 30
0.0
 40
100.0
  1
○床面積 ： 3.19㎡(0.97坪) 　
  7
STYLE2
100
AcDbText
  0
TEXT
  5
10B79
330
747D
100
AcDbEntity
  8
文字
 62
     7
 48
50.0
100
AcDbText
 10
14524.131837222
 20
1031.557706291228
 30
0.0
 40
100.0
  1
NO.13      <縮尺> S=1/40
  7
STYLE2
100
AcDbText
  0
LINE
  5
10B7B
330
747D
100
AcDbEntity
  8
仕様書枠
 48
50.0
100
AcDbLine
 10
13107.2
 20
800.0
 30
0.0
 11
14251.2
 21
800.0
 31
0.0
  0
LINE
  5
10B88
330
747D
100
AcDbEntity
  8
仕様書枠
  6
Continuous
 48
50.0
100
AcDbLine
 10
14251.2
 20
1200.0
 30
0.0
 11
14251.2
 21
800.0
 31
0.0
  0
TEXT
  5
154D3
330
747D
100
AcDbEntity
  8
文字
 62
     7
 48
50.0
100
AcDbText
 10
14643.63059855437
 20
863.0097378581719
 30
0.0
 40
100.0
  1
～一般型・多雪地型～
  7
STYLE2
100
AcDbText
  0
TEXT
  5
169E9
330
747D
100
AcDbEntity
  8
文字
 62
     7
 48
50.0
100
AcDbText
 10
13583.11819016569
 20
8550.013745883731
 30
0.0
 40
100.0
  1
棚板
  7
STYLE1
100
AcDbText
  0
TEXT
  5
169EA
330
747D
100
AcDbEntity
  8
文字
 62
     7
 48
50.0
100
AcDbText
 10
15022.63965474516
 20
8550.013745883727
 30
0.0
 40
100.0
  1
F12            0.6
  7
STYLE1
100
AcDbText
  0
TEXT
  5
169EB
330
747D
100
AcDbEntity
  8
文字
 62
     7
 48
50.0
100
AcDbText
 10
13583.11819016569
 20
9740.013745883729
 30
0.0
 40
100.0
  1
母屋中
  7
STYLE1
100
AcDbText
  0
TEXT
  5
169EC
330
747D
100
AcDbEntity
  8
文字
 62
     7
 48
50.0
100
AcDbText
 10
13248.77747366447
 20
8720.013745883729
 30
0.0
 40
100.0
  1
15
  7
STYLE1
100
AcDbText
  0
LINE
  5
169ED
330
747D
100
AcDbEntity
  8
仕様書枠
 48
50.0
100
AcDbLine
 10
16307.19999999999
 20
8009.600000000004
 30
0.0
 11
13127.19999999999
 21
8009.600000000006
 31
0.0
  0
TEXT
  5
169EE
330
747D
100
AcDbEntity
  8
文字
 62
     7
 48
50.0
100
AcDbText
 10
13583.11819016569
 20
8720.013745883731
 30
0.0
 40
100.0
  1
扉
  7
STYLE1
100
AcDbText
  0
TEXT
  5
169EF
330
747D
100
AcDbEntity
  8
文字
 62
     7
 48
50.0
100
AcDbText
 10
15022.63965474516
 20
8720.013745883727
 30
0.0
 40
100.0
  1
F12            0.8
  7
STYLE1
100
AcDbText
  0
TEXT
  5
169F0
330
747D
100
AcDbEntity
  8
文字
 62
     7
 48
50.0
100
AcDbText
 10
13583.11819016568
 20
8890.013745883731
 30
0.0
 40
100.0
  1
正面パネル
  7
STYLE1
100
AcDbText
  0
TEXT
  5
169F1
330
747D
100
AcDbEntity
  8
文字
 62
     7
 48
50.0
100
AcDbText
 10
15022.63965474515
 20
8890.013745883727
 30
0.0
 40
100.0
  1
F12            0.7
  7
STYLE1
100
AcDbText
  0
TEXT
  5
169F2
330
747D
100
AcDbEntity
  8
文字
 62
     7
 48
50.0
100
AcDbText
 10
15022.63965474517
 20
10590.01374588372
 30
0.0
 40
100.0
  1
F12            1.0
  7
STYLE1
100
AcDbText
  0
TEXT
  5
169F3
330
747D
100
AcDbEntity
  8
文字
 62
     7
 48
50.0
100
AcDbText
 10
15022.63965474516
 20
10930.01374588372
 30
0.0
 40
100.0
  1
F12            1.2
  7
STYLE1
100
AcDbText
  0
TEXT
  5
169F4
330
747D
100
AcDbEntity
  8
文字
 62
     7
 48
50.0
100
AcDbText
 10
13248.77747366448
 20
8890.013745883727
 30
0.0
 40
100.0
  1
14
  7
STYLE1
100
AcDbText
  0
TEXT
  5
169F5
330
747D
100
AcDbEntity
  8
文字
 62
     7
 48
50.0
100
AcDbText
 10
13583.11819016569
 20
10930.01374588372
 30
0.0
 40
100.0
  1
根太
  7
STYLE1
100
AcDbText
  0
TEXT
  5
169F6
330
747D
100
AcDbEntity
  8
文字
 62
     7
 48
50.0
100
AcDbText
 10
13583.1181901657
 20
10590.01374588372
 30
0.0
 40
100.0
  1
床パネル
 41
0.9
  7
STYLE1
100
AcDbText
  0
LINE
  5
169F7
330
747D
100
AcDbEntity
  8
仕様書枠
 48
50.0
100
AcDbLine
 10
16307.19999999999
 20
9029.6
 30
0.0
 11
13127.2
 21
9029.600000000002
 31
0.0
  0
LINE
  5
169F8
330
747D
100
AcDbEntity
  8
仕様書枠
 48
50.0
100
AcDbLine
 10
13127.2
 20
11409.6
 30
0.0
 11
13127.19999999999
 21
8009.600000000006
 31
0.0
  0
TEXT
  5
169F9
330
747D
100
AcDbEntity
  8
文字
 62
     7
 48
50.0
100
AcDbText
 10
13229.83081656554
 20
8040.013745883731
 30
0.0
 40
100.0
  1
Y10→溶融亜鉛-5％アルミニウム合金めっき鋼板(JIS G 3317)
 41
0.9
  7
STYLE1
100
AcDbText
  0
TEXT
  5
169FA
330
747D
100
AcDbEntity
  8
文字
 62
     7
 48
50.0
100
AcDbText
 10
13229.83081656554
 20
8210.013745883733
 30
0.0
 40
100.0
  1
F12→溶融亜鉛めっき鋼板(JIS G 3302)
  7
STYLE1
100
AcDbText
  0
LINE
  5
169FB
330
747D
100
AcDbEntity
  8
仕様書枠
 48
50.0
100
AcDbLine
 10
16307.19999999999
 20
8179.600000000004
 30
0.0
 11
13127.19999999999
 21
8179.600000000005
 31
0.0
  0
LINE
  5
169FC
330
747D
100
AcDbEntity
  8
仕様書枠
 48
50.0
100
AcDbLine
 10
16307.19999999999
 20
8349.600000000004
 30
0.0
 11
13127.19999999999
 21
8349.600000000007
 31
0.0
  0
TEXT
  5
169FD
330
747D
100
AcDbEntity
  8
文字
 62
     7
 48
50.0
100
AcDbText
 10
15022.63965474515
 20
9570.013745883725
 30
0.0
 40
100.0
  1
F12            0.7
  7
STYLE1
100
AcDbText
  0
TEXT
  5
169FE
330
747D
100
AcDbEntity
  8
文字
 62
     7
 48
50.0
100
AcDbText
 10
15022.63965474517
 20
9910.013745883725
 30
0.0
 40
100.0
  1
Y10            0.5
  7
STYLE1
100
AcDbText
  0
TEXT
  5
169FF
330
747D
100
AcDbEntity
  8
文字
 62
     7
 48
50.0
100
AcDbText
 10
15022.63965474516
 20
10080.01374588372
 30
0.0
 40
100.0
  1
Y10            0.7
  7
STYLE1
100
AcDbText
  0
TEXT
  5
16A00
330
747D
100
AcDbEntity
  8
文字
 62
     7
 48
50.0
100
AcDbText
 10
15022.63965474516
 20
10250.01374588372
 30
0.0
 40
100.0
  1
Y10            0.7
  7
STYLE1
100
AcDbText
  0
TEXT
  5
16A01
330
747D
100
AcDbEntity
  8
文字
 62
     7
 48
50.0
100
AcDbText
 10
15022.63965474516
 20
10420.01374588372
 30
0.0
 40
100.0
  1
Y10            1.0
  7
STYLE1
100
AcDbText
  0
TEXT
  5
16A02
330
747D
100
AcDbEntity
  8
文字
 62
     7
 48
50.0
100
AcDbText
 10
15022.63965474518
 20
10760.01374588372
 30
0.0
 40
100.0
  1
F12            1.0
  7
STYLE1
100
AcDbText
  0
TEXT
  5
16A03
330
747D
100
AcDbEntity
  8
文字
 62
     7
 48
50.0
100
AcDbText
 10
15022.63965474517
 20
11100.01374588372
 30
0.0
 40
100.0
  1
F12            1.2
  7
STYLE1
100
AcDbText
  0
TEXT
  5
16A04
330
747D
100
AcDbEntity
  8
文字
 62
     7
 48
50.0
100
AcDbText
 10
13248.77747366448
 20
9230.013745883727
 30
0.0
 40
100.0
  1
12
  7
STYLE1
100
AcDbText
  0
TEXT
  5
16A05
330
747D
100
AcDbEntity
  8
文字
 62
     7
 48
50.0
100
AcDbText
 10
13248.77747366448
 20
9060.013745883727
 30
0.0
 40
100.0
  1
13
  7
STYLE1
100
AcDbText
  0
LINE
  5
16A06
330
747D
100
AcDbEntity
  8
仕様書枠
 48
50.0
100
AcDbLine
 10
16307.19999999999
 20
8859.6
 30
0.0
 11
13127.2
 21
8859.600000000002
 31
0.0
  0
LINE
  5
16A07
330
747D
100
AcDbEntity
  8
仕様書枠
 48
50.0
100
AcDbLine
 10
16307.19999999999
 20
9199.599999999998
 30
0.0
 11
13127.2
 21
9199.600000000001
 31
0.0
  0
TEXT
  5
16A08
330
747D
100
AcDbEntity
  8
文字
 62
     7
 48
50.0
100
AcDbText
 10
13248.77747366447
 20
9400.013745883727
 30
0.0
 40
100.0
  1
11
  7
STYLE1
100
AcDbText
  0
LINE
  5
16A09
330
747D
100
AcDbEntity
  8
仕様書枠
 48
50.0
100
AcDbLine
 10
16307.2
 20
9879.599999999999
 30
0.0
 11
13127.2
 21
9879.600000000001
 31
0.0
  0
LINE
  5
16A0A
330
747D
100
AcDbEntity
  8
仕様書枠
 48
50.0
100
AcDbLine
 10
16307.2
 20
10219.6
 30
0.0
 11
13127.2
 21
10219.6
 31
0.0
  0
LINE
  5
16A0B
330
747D
100
AcDbEntity
  8
仕様書枠
 48
50.0
100
AcDbLine
 10
16307.19999999999
 20
9539.599999999998
 30
0.0
 11
13127.2
 21
9539.6
 31
0.0
  0
LINE
  5
16A0C
330
747D
100
AcDbEntity
  8
仕様書枠
 48
50.0
100
AcDbLine
 10
16307.19999999999
 20
9369.599999999998
 30
0.0
 11
13127.2
 21
9369.600000000001
 31
0.0
  0
LINE
  5
16A0D
330
747D
100
AcDbEntity
  8
仕様書枠
 48
50.0
100
AcDbLine
 10
16307.19999999999
 20
9709.6
 30
0.0
 11
13127.2
 21
9709.600000000001
 31
0.0
  0
TEXT
  5
16A0E
330
747D
100
AcDbEntity
  8
文字
 62
     7
 48
50.0
100
AcDbText
 10
13271.19032244792
 20
10250.01374588373
 30
0.0
 40
100.0
  1
6
  7
STYLE1
100
AcDbText
  0
TEXT
  5
16A0F
330
747D
100
AcDbEntity
  8
文字
 62
     7
 48
50.0
100
AcDbText
 10
13271.19032244792
 20
10080.01374588373
 30
0.0
 40
100.0
  1
7
  7
STYLE1
100
AcDbText
  0
TEXT
  5
16A10
330
747D
100
AcDbEntity
  8
文字
 62
     7
 48
50.0
100
AcDbText
 10
13271.19032244792
 20
9740.013745883729
 30
0.0
 40
100.0
  1
9
  7
STYLE1
100
AcDbText
  0
TEXT
  5
16A11
330
747D
100
AcDbEntity
  8
文字
 62
     7
 48
50.0
100
AcDbText
 10
13271.19032244792
 20
9910.01374588373
 30
0.0
 40
100.0
  1
8
  7
STYLE1
100
AcDbText
  0
TEXT
  5
16A12
330
747D
100
AcDbEntity
  8
文字
 62
     7
 48
50.0
100
AcDbText
 10
13583.11819016569
 20
10080.01374588372
 30
0.0
 40
100.0
  1
鼻隠シ前後
  7
STYLE1
100
AcDbText
  0
TEXT
  5
16A13
330
747D
100
AcDbEntity
  8
文字
 62
     7
 48
50.0
100
AcDbText
 10
13583.11819016569
 20
9910.013745883727
 30
0.0
 40
100.0
  1
屋根パネル
  7
STYLE1
100
AcDbText
  0
TEXT
  5
16A14
330
747D
100
AcDbEntity
  8
文字
 62
     7
 48
50.0
100
AcDbText
 10
13583.11819016568
 20
9570.013745883729
 30
0.0
 40
100.0
  1
壁パネル
  7
STYLE1
100
AcDbText
  0
TEXT
  5
16A15
330
747D
100
AcDbEntity
  8
文字
 62
     7
 48
50.0
100
AcDbText
 10
13248.77747366447
 20
9570.013745883727
 30
0.0
 40
100.0
  1
10
  7
STYLE1
100
AcDbText
  0
TEXT
  5
16A16
330
747D
100
AcDbEntity
  8
文字
 62
     7
 48
50.0
100
AcDbText
 10
13583.11819016569
 20
10250.01374588373
 30
0.0
 40
100.0
  1
妻板左右
  7
STYLE1
100
AcDbText
  0
TEXT
  5
16A17
330
747D
100
AcDbEntity
  8
文字
 62
     7
 48
50.0
100
AcDbText
 10
13271.19032244792
 20
10420.01374588372
 30
0.0
 40
100.0
  1
5
  7
STYLE1
100
AcDbText
  0
TEXT
  5
16A18
330
747D
100
AcDbEntity
  8
文字
 62
     7
 48
50.0
100
AcDbText
 10
13583.11819016569
 20
10420.01374588373
 30
0.0
 40
100.0
  1
桁前後
  7
STYLE1
100
AcDbText
  0
TEXT
  5
16A19
330
747D
100
AcDbEntity
  8
文字
 62
     7
 48
50.0
100
AcDbText
 10
13583.1181901657
 20
10760.01374588372
 30
0.0
 40
100.0
  1
柱
  7
STYLE1
100
AcDbText
  0
TEXT
  5
16A1A
330
747D
100
AcDbEntity
  8
文字
 62
     7
 48
50.0
100
AcDbText
 10
13583.11819016569
 20
11100.01374588372
 30
0.0
 40
100.0
  1
土台枠
  7
STYLE1
100
AcDbText
  0
TEXT
  5
16A1B
330
747D
100
AcDbEntity
  8
文字
 62
     7
 48
50.0
100
AcDbText
 10
14859.79774614482
 20
11270.01374588372
 30
0.0
 40
100.0
  1
材料（材質）　　単位mm
  7
STYLE1
100
AcDbText
  0
TEXT
  5
16A1C
330
747D
100
AcDbEntity
  8
文字
 62
     7
 48
50.0
100
AcDbText
 10
13732.03840939434
 20
11270.01374588372
 30
0.0
 40
100.0
  1
部　　品　　名
  7
STYLE1
100
AcDbText
  0
TEXT
  5
16A1D
330
747D
100
AcDbEntity
  8
文字
 62
     7
 48
50.0
100
AcDbText
 10
13271.19032244792
 20
10760.01374588373
 30
0.0
 40
100.0
  1
3
  7
STYLE1
100
AcDbText
  0
TEXT
  5
16A1E
330
747D
100
AcDbEntity
  8
文字
 62
     7
 48
50.0
100
AcDbText
 10
13271.19032244792
 20
10590.01374588373
 30
0.0
 40
100.0
  1
4
  7
STYLE1
100
AcDbText
  0
TEXT
  5
16A1F
330
747D
100
AcDbEntity
  8
文字
 62
     7
 48
50.0
100
AcDbText
 10
13271.19032244792
 20
10930.01374588373
 30
0.0
 40
100.0
  1
2
  7
STYLE1
100
AcDbText
  0
TEXT
  5
16A20
330
747D
100
AcDbEntity
  8
文字
 62
     7
 48
50.0
100
AcDbText
 10
13271.19032244792
 20
11100.01374588373
 30
0.0
 40
100.0
  1
1
  7
STYLE1
100
AcDbText
  0
TEXT
  5
16A21
330
747D
100
AcDbEntity
  8
文字
 62
     7
 48
50.0
100
AcDbText
 10
13197.42518560407
 20
11270.01374588372
 30
0.0
 40
100.0
  1
品番
  7
STYLE1
100
AcDbText
  0
LINE
  5
16A22
330
747D
100
AcDbEntity
  8
仕様書枠
 48
50.0
100
AcDbLine
 10
16307.19999999999
 20
10729.59999999999
 30
0.0
 11
13127.2
 21
10729.6
 31
0.0
  0
LINE
  5
16A23
330
747D
100
AcDbEntity
  8
仕様書枠
 48
50.0
100
AcDbLine
 10
16307.19999999999
 20
10389.6
 30
0.0
 11
13127.2
 21
10389.6
 31
0.0
  0
LINE
  5
16A24
330
747D
100
AcDbEntity
  8
仕様書枠
 48
50.0
100
AcDbLine
 10
16307.19999999999
 20
10559.6
 30
0.0
 11
13127.2
 21
10559.6
 31
0.0
  0
LINE
  5
16A25
330
747D
100
AcDbEntity
  8
仕様書枠
 48
50.0
100
AcDbLine
 10
16307.2
 20
11069.59999999999
 30
0.0
 11
13127.2
 21
11069.6
 31
0.0
  0
LINE
  5
16A26
330
747D
100
AcDbEntity
  8
仕様書枠
 48
50.0
100
AcDbLine
 10
16307.2
 20
10899.6
 30
0.0
 11
13127.2
 21
10899.6
 31
0.0
  0
LINE
  5
16A27
330
747D
100
AcDbEntity
  8
仕様書枠
 48
50.0
100
AcDbLine
 10
16307.2
 20
11239.59999999999
 30
0.0
 11
13127.2
 21
11239.6
 31
0.0
  0
LINE
  5
16A28
330
747D
100
AcDbEntity
  8
仕様書枠
 48
50.0
100
AcDbLine
 10
13490.2
 20
11409.59999999999
 30
0.0
 11
13490.20000000001
 21
8349.600000000007
 31
0.0
  0
LINE
  5
16A29
330
747D
100
AcDbEntity
  8
仕様書枠
 48
50.0
100
AcDbLine
 10
14785.2
 20
11409.59999999999
 30
0.0
 11
14785.2
 21
8349.600000000004
 31
0.0
  0
LINE
  5
16A2A
330
747D
100
AcDbEntity
  8
仕様書枠
 48
50.0
100
AcDbLine
 10
16307.19999999999
 20
8009.600000000004
 30
0.0
 11
16307.2
 21
11409.6
 31
0.0
  0
LINE
  5
16A2B
330
747D
100
AcDbEntity
  8
仕様書枠
 48
50.0
100
AcDbLine
 10
16307.2
 20
11409.59999999999
 30
0.0
 11
13127.2
 21
11409.6
 31
0.0
  0
LINE
  5
16A2C
330
747D
100
AcDbEntity
  8
仕様書枠
 48
50.0
100
AcDbLine
 10
16307.2
 20
10049.6
 30
0.0
 11
13127.2
 21
10049.6
 31
0.0
  0
TEXT
  5
16A2D
330
747D
100
AcDbEntity
  8
文字
 62
     7
 48
50.0
100
AcDbText
 10
15022.63965474515
 20
8380.013745883724
 30
0.0
 40
100.0
  1
F12            2.3
  7
STYLE1
100
AcDbText
  0
TEXT
  5
16A2E
330
747D
100
AcDbEntity
  8
文字
 62
     7
 48
50.0
100
AcDbText
 10
13583.11819016569
 20
8380.013745883728
 30
0.0
 40
100.0
  1
アンカープレート
  7
STYLE1
100
AcDbText
  0
LINE
  5
16A2F
330
747D
100
AcDbEntity
  8
仕様書枠
 48
50.0
100
AcDbLine
 10
16307.19999999999
 20
8519.600000000004
 30
0.0
 11
13127.2
 21
8519.600000000005
 31
0.0
  0
LINE
  5
16A30
330
747D
100
AcDbEntity
  8
仕様書枠
 48
50.0
100
AcDbLine
 10
16307.19999999999
 20
8689.600000000003
 30
0.0
 11
13127.2
 21
8689.600000000005
 31
0.0
  0
TEXT
  5
16A31
330
747D
100
AcDbEntity
  8
文字
 62
     7
 48
50.0
100
AcDbText
 10
13583.11819016569
 20
9400.013745883729
 30
0.0
 40
100.0
  1
壁面扉鴨居
  7
STYLE1
100
AcDbText
  0
TEXT
  5
16A32
330
747D
100
AcDbEntity
  8
文字
 62
     7
 48
50.0
100
AcDbText
 10
13583.11819016569
 20
9230.013745883733
 30
0.0
 40
100.0
  1
壁面扉敷居
  7
STYLE1
100
AcDbText
  0
TEXT
  5
16A33
330
747D
100
AcDbEntity
  8
文字
 62
     7
 48
50.0
100
AcDbText
 10
15022.63965474515
 20
9400.013745883727
 30
0.0
 40
100.0
  1
F12            0.7
  7
STYLE1
100
AcDbText
  0
TEXT
  5
16A34
330
747D
100
AcDbEntity
  8
文字
 62
     7
 48
50.0
100
AcDbText
 10
15022.63965474517
 20
9230.013745883725
 30
0.0
 40
100.0
  1
F12            1.0
  7
STYLE1
100
AcDbText
  0
TEXT
  5
16A35
330
747D
100
AcDbEntity
  8
文字
 62
     7
 48
50.0
100
AcDbText
 10
13583.11819016569
 20
9060.013745883733
 30
0.0
 40
100.0
  1
壁面扉枠左右
  7
STYLE1
100
AcDbText
  0
TEXT
  5
16A36
330
747D
100
AcDbEntity
  8
文字
 62
     7
 48
50.0
100
AcDbText
 10
15022.63965474517
 20
9060.013745883725
 30
0.0
 40
100.0
  1
F12            1.0
  7
STYLE1
100
AcDbText
  0
TEXT
  5
16A37
330
747D
100
AcDbEntity
  8
文字
 62
     7
 48
50.0
100
AcDbText
 10
13248.77747366447
 20
8550.013745883729
 30
0.0
 40
100.0
  1
16
  7
STYLE1
100
AcDbText
  0
TEXT
  5
16A38
330
747D
100
AcDbEntity
  8
文字
 62
     7
 48
50.0
100
AcDbText
 10
13248.77747366447
 20
8380.013745883728
 30
0.0
 40
100.0
  1
17
  7
STYLE1
100
AcDbText
  0
TEXT
  5
16A39
330
747D
100
AcDbEntity
  8
文字
 62
     7
 48
50.0
100
AcDbText
 10
14798.72402257234
 20
9740.013745883725
 30
0.0
 40
100.0
  1
F12(一般型1.0/多雪地型2.3)
  7
STYLE1
100
AcDbText
  0
LINE
  5
16A3A
330
747D
100
AcDbEntity
  8
部品1
 48
50.0
100
AcDbLine
 10
6315.996748939551
 20
2876.172274673714
 30
0.0
 11
6315.99674893955
 21
2776.172274673714
 31
0.0
  0
LINE
  5
16A3B
330
747D
100
AcDbEntity
  8
部品1
 48
50.0
100
AcDbLine
 10
6115.99674893955
 20
2876.172274673714
 30
0.0
 11
6115.99674893955
 21
2776.172274673714
 31
0.0
  0
DIMENSION
  5
16A3C
330
747D
100
AcDbEntity
  8
寸法
100
AcDbDimension
  2
*D2
 10
4907.344039781251
 20
2876.172274673714
 30
0.0
 11
4907.34403978125
 21
2570.125030579221
 31
0.0
 70
   160
 71
     5
 42
50.0
  3
INABA_S40G
100
AcDbAlignedDimension
 13
5530.996748939547
 23
2926.172274673713
 33
0.0
 14
5475.996748939548
 24
2876.172274673713
 34
0.0
 50
90.0
100
AcDbRotatedDimension
1001
ACAD
1000
DSTYLE
1002
{
1070
   174
1070
     0
1070
   272
1070
     1
1070
   288
1070
     0
1070
   341
1005
0
1002
}
  0
DIMENSION
  5
16A3D
330
747D
100
AcDbEntity
  8
寸法
100
AcDbDimension
  2
*D3
 10
4622.35736701019
 20
2776.172274673713
 30
0.0
 11
4622.357367010188
 21
2540.125030579221
 31
0.0
 70
   160
 71
     5
 42
100.0000000000004
  3
INABA_S40G
100
AcDbAlignedDimension
 13
5475.996748939548
 23
2876.172274673713
 33
0.0
 14
4907.34403978125
 24
2776.172274673713
 34
0.0
 50
90.0
100
AcDbRotatedDimension
1001
ACAD
1000
DSTYLE
1002
{
1070
   174
1070
     0
1070
   272
1070
     1
1070
   288
1070
     0
1070
   341
1005
0
1002
}
  0
DIMENSION
  5
16A3E
330
747D
100
AcDbEntity
  8
寸法
100
AcDbDimension
  2
*D4
 10
4622.357367010191
 20
5251.172274673717
 30
0.0
 11
4622.35736701019
 21
3971.172274673713
 31
0.0
 70
   160
 71
     5
 42
2375.000000000004
  3
INABA_S40G
100
AcDbAlignedDimension
 13
5530.996748939547
 23
2876.172274673713
 33
0.0
 14
5470.996748939548
 24
5251.172274673717
 34
0.0
 50
90.0
100
AcDbRotatedDimension
1001
ACAD
1000
DSTYLE
1002
{
1070
   174
1070
     0
1070
   272
1070
     1
1070
   288
1070
     0
1070
   341
1005
0
1002
}
  0
DIMENSION
  5
16A3F
330
747D
100
AcDbEntity
  8
寸法
100
AcDbDimension
  2
*D5
 10
4907.344039781252
 20
2926.172274673714
 30
0.0
 11
4907.344039781251
 21
3971.172274673713
 31
0.0
 70
   160
 71
     5
 42
2089.999999999999
  3
INABA_S40G
100
AcDbAlignedDimension
 13
5530.996748939547
 23
5016.172274673714
 33
0.0
 14
5530.996748939547
 24
2926.172274673713
 34
0.0
 50
90.0
100
AcDbRotatedDimension
1001
ACAD
1000
DSTYLE
1002
{
1070
   174
1070
     0
1070
   272
1070
     1
1070
   288
1070
     0
1070
   341
1005
0
1002
}
  0
LINE
  5
16A40
330
747D
100
AcDbEntity
  8
部品1
 48
50.0
100
AcDbLine
 10
6977.996748939552
 20
2876.172274673713
 30
0.0
 11
6900.996748939549
 21
2876.172274673714
 31
0.0
  0
LINE
  5
16A41
330
747D
100
AcDbEntity
  8
部品1
 48
50.0
100
AcDbLine
 10
6977.996748939552
 20
5001.172274673714
 30
0.0
 11
6977.996748939552
 21
2776.172274673712
 31
0.0
  0
LINE
  5
16A42
330
747D
100
AcDbEntity
  8
部品1
 48
50.0
100
AcDbLine
 10
6900.996748939552
 20
5011.172274673715
 30
0.0
 11
6977.996748939552
 21
5001.172274673714
 31
0.0
  0
LINE
  5
16A43
330
747D
100
AcDbEntity
  8
部品1
100
AcDbLine
 10
5530.996748939546
 20
5016.172274673714
 30
0.0
 11
6900.996748939549
 21
5016.172274673714
 31
0.0
  0
LINE
  5
16A44
330
747D
100
AcDbEntity
  8
部品1
100
AcDbLine
 10
5530.996748939546
 20
2926.172274673714
 30
0.0
 11
6900.996748939552
 21
2926.172274673714
 31
0.0
  0
LINE
  5
16A45
330
747D
100
AcDbEntity
  8
部品1
100
AcDbLine
 10
5530.996748939546
 20
2876.172274673714
 30
0.0
 11
5538.496748939546
 21
2876.172274673714
 31
0.0
  0
LINE
  5
16A46
330
747D
100
AcDbEntity
  8
部品1
100
AcDbLine
 10
5585.996748939546
 20
5016.172274673714
 30
0.0
 11
5585.996748939546
 21
2926.172274673714
 31
0.0
  0
LINE
  5
16A47
330
747D
100
AcDbEntity
  8
部品1
100
AcDbLine
 10
5530.996748939551
 20
5107.749168614157
 30
0.0
 11
5530.996748939546
 21
2776.172274673714
 31
0.0
  0
LINE
  5
16A48
330
747D
100
AcDbEntity
  8
部品1
100
AcDbLine
 10
6005.996748939546
 20
5016.172274673714
 30
0.0
 11
6005.996748939546
 21
2926.172274673714
 31
0.0
  0
LINE
  5
16A49
330
747D
100
AcDbEntity
  8
部品1
100
AcDbLine
 10
6900.996748939546
 20
5070.808855508968
 30
0.0
 11
6900.996748939549
 21
2776.172274673714
 31
0.0
  0
LINE
  5
16A4A
330
747D
100
AcDbEntity
  8
部品1
100
AcDbLine
 10
6845.996748939549
 20
5016.172274673714
 30
0.0
 11
6845.996748939549
 21
2926.172274673714
 31
0.0
  0
DIMENSION
  5
16A4B
330
747D
100
AcDbEntity
  8
寸法
100
AcDbDimension
  2
*D6
 10
7605.923906911676
 20
5196.172274673715
 30
0.0
 11
7505.912095888053
 21
4036.172274673716
 31
0.0
 70
    32
 71
     5
 42
2320.000000000002
  3
INABA_S40G
100
AcDbAlignedDimension
 13
6977.996748939552
 23
2876.172274673713
 33
0.0
 14
6980.996748939547
 24
5196.172274673715
 34
0.0
 50
90.0
100
AcDbRotatedDimension
1001
ACAD
1000
DSTYLE
1002
{
1070
   174
1070
     0
1070
   272
1070
     1
1070
   288
1070
     0
1070
   341
1005
0
1002
}
  0
LINE
  5
16A4C
330
747D
100
AcDbEntity
  8
部品1
100
AcDbLine
 10
5730.996748939546
 20
2876.172274673714
 30
0.0
 11
5730.996748939546
 21
2776.172274673714
 31
0.0
  0
LINE
  5
16A4D
330
747D
100
AcDbEntity
  8
部品1
100
AcDbLine
 10
6700.996748939549
 20
2876.172274673714
 30
0.0
 11
6700.996748939549
 21
2776.172274673714
 31
0.0
  0
DIMENSION
  5
16A4E
330
747D
100
AcDbEntity
  8
寸法
 48
50.0
100
AcDbDimension
  2
*D7
 10
5530.996748939547
 20
5649.829728253019
 30
0.0
 11
6180.815781830093
 21
5649.829728253019
 31
0.0
 70
   160
  1
柱外寸法<>
 71
     5
 42
1370.0
  3
INABA_S40G
100
AcDbAlignedDimension
 13
6900.996748939547
 23
5197.982954285368
 33
0.0
 14
5530.996748939547
 24
5247.173892796691
 34
0.0
100
AcDbRotatedDimension
1001
ACAD
1000
DSTYLE
1002
{
1070
   174
1070
     0
1070
   272
1070
     1
1070
   288
1070
     0
1070
   341
1005
0
1002
}
  0
DIMENSION
  5
16A4F
330
747D
100
AcDbEntity
  8
寸法
 48
50.0
100
AcDbDimension
  2
*D8
 10
5470.996748939548
 20
5649.829728253019
 30
0.0
 11
5161.358953663957
 21
5649.829728253019
 31
0.0
 70
   160
 71
     5
 42
60.0
  3
INABA_S40G
100
AcDbAlignedDimension
 13
5530.996748939547
 23
5247.173892796691
 33
0.0
 14
5470.996748939548
 24
5251.172274673718
 34
0.0
100
AcDbRotatedDimension
1001
ACAD
1000
DSTYLE
1002
{
1070
   174
1070
     0
1070
   272
1070
     1
1070
   288
1070
     0
1070
   341
1005
0
1002
}
  0
DIMENSION
  5
16A50
330
747D
100
AcDbEntity
  8
寸法
 48
50.0
100
AcDbDimension
  2
*D9
 10
5470.996748939548
 20
5858.004049444982
 30
0.0
 11
6198.12157864137
 21
5858.004049444982
 31
0.0
 70
   160
 71
     5
 42
1510.0
  3
INABA_S40G
100
AcDbAlignedDimension
 13
6980.996748939547
 23
5196.172274673715
 33
0.0
 14
5470.996748939548
 24
5251.172274673718
 34
0.0
100
AcDbRotatedDimension
1001
ACAD
1000
DSTYLE
1002
{
1070
   174
1070
     0
1070
   272
1070
     1
1070
   288
1070
     0
1070
   341
1005
0
1002
}
  0
LINE
  5
16A51
330
747D
100
AcDbEntity
  8
破線
  6
HIDDEN
 48
5.0
100
AcDbLine
 10
6908.496748939548
 20
2621.172274673714
 30
0.0
 11
6838.496748939547
 21
2621.172274673714
 31
0.0
  0
LINE
  5
16A52
330
747D
100
AcDbEntity
  8
破線
  6
HIDDEN
 48
5.0
100
AcDbLine
 10
6853.496748939544
 20
2771.172274673714
 30
0.0
 11
6838.496748939547
 21
2623.472274673715
 31
0.0
  0
LINE
  5
16A53
330
747D
100
AcDbEntity
  8
破線
  6
HIDDEN
 48
5.0
100
AcDbLine
 10
6838.496748939547
 20
2623.472274673715
 30
0.0
 11
6838.496748939547
 21
2621.172274673714
 31
0.0
  0
LINE
  5
16A54
330
747D
100
AcDbEntity
  8
破線
  6
HIDDEN
 48
5.0
100
AcDbLine
 10
6893.496748939547
 20
2771.172274673714
 30
0.0
 11
6908.496748939548
 21
2623.472274673715
 31
0.0
  0
LINE
  5
16A55
330
747D
100
AcDbEntity
  8
破線
  6
HIDDEN
 48
5.0
100
AcDbLine
 10
6908.496748939548
 20
2623.472274673715
 30
0.0
 11
6908.496748939548
 21
2621.172274673714
 31
0.0
  0
LINE
  5
16A56
330
747D
100
AcDbEntity
  8
破線
  6
HIDDEN
 48
5.0
100
AcDbLine
 10
5523.496748939544
 20
2621.172274673714
 30
0.0
 11
5593.496748939544
 21
2621.172274673714
 31
0.0
  0
LINE
  5
16A57
330
747D
100
AcDbEntity
  8
破線
  6
HIDDEN
 48
5.0
100
AcDbLine
 10
5523.496748939544
 20
2623.472274673714
 30
0.0
 11
5523.496748939544
 21
2621.172274673714
 31
0.0
  0
LINE
  5
16A58
330
747D
100
AcDbEntity
  8
破線
  6
HIDDEN
 48
5.0
100
AcDbLine
 10
5593.496748939547
 20
2623.472274673714
 30
0.0
 11
5593.496748939544
 21
2621.172274673714
 31
0.0
  0
LINE
  5
16A59
330
747D
100
AcDbEntity
  8
破線
  6
HIDDEN
 48
5.0
100
AcDbLine
 10
5538.496748939548
 20
2771.172274673714
 30
0.0
 11
5523.496748939544
 21
2623.472274673714
 31
0.0
  0
LINE
  5
16A5A
330
747D
100
AcDbEntity
  8
破線
  6
HIDDEN
 48
5.0
100
AcDbLine
 10
5578.496748939548
 20
2771.172274673714
 30
0.0
 11
5593.496748939547
 21
2623.472274673714
 31
0.0
  0
LINE
  5
16A5B
330
747D
100
AcDbEntity
  8
部品1
 48
50.0
100
AcDbLine
 10
5538.496748939544
 20
2916.172274673714
 30
0.0
 11
5538.496748939548
 21
2776.172274673714
 31
0.0
  0
LINE
  5
16A5C
330
747D
100
AcDbEntity
  8
部品1
 48
50.0
100
AcDbLine
 10
5578.496748939548
 20
2916.172274673714
 30
0.0
 11
5578.496748939544
 21
2776.172274673714
 31
0.0
  0
LINE
  5
16A5D
330
747D
100
AcDbEntity
  8
部品1
100
AcDbLine
 10
5543.496748939544
 20
2921.172274673714
 30
0.0
 11
5573.496748939548
 21
2921.172274673714
 31
0.0
  0
ARC
  5
16A5E
330
747D
100
AcDbEntity
  8
部品1
 48
50.0
100
AcDbCircle
 10
5543.496748939544
 20
2916.172274673714
 30
0.0
 40
5.0
100
AcDbArc
 50
90.0
 51
180.0
  0
ARC
  5
16A5F
330
747D
100
AcDbEntity
  8
部品1
 48
50.0
100
AcDbCircle
 10
5573.496748939548
 20
2916.172274673714
 30
0.0
 40
5.0
100
AcDbArc
 50
0.0
 51
90.0
  0
LINE
  5
16A60
330
747D
100
AcDbEntity
  8
部品1
 48
50.0
100
AcDbLine
 10
6853.496748939544
 20
2916.172274673714
 30
0.0
 11
6853.496748939548
 21
2776.172274673714
 31
0.0
  0
LINE
  5
16A61
330
747D
100
AcDbEntity
  8
部品1
 48
50.0
100
AcDbLine
 10
6893.496748939547
 20
2916.172274673714
 30
0.0
 11
6893.496748939544
 21
2776.172274673714
 31
0.0
  0
LINE
  5
16A62
330
747D
100
AcDbEntity
  8
部品1
100
AcDbLine
 10
6888.496748939548
 20
2921.172274673714
 30
0.0
 11
6858.496748939543
 21
2921.172274673714
 31
0.0
  0
ARC
  5
16A63
330
747D
100
AcDbEntity
  8
部品1
 48
50.0
100
AcDbCircle
 10
6858.496748939543
 20
2916.172274673714
 30
0.0
 40
5.0
100
AcDbArc
 50
90.0
 51
180.0
  0
ARC
  5
16A64
330
747D
100
AcDbEntity
  8
部品1
 48
50.0
100
AcDbCircle
 10
6888.496748939548
 20
2916.172274673714
 30
0.0
 40
5.0
100
AcDbArc
 50
0.0
 51
90.0
  0
LINE
  5
16A65
330
747D
100
AcDbEntity
  8
破線
  6
HIDDEN
 48
5.0
100
AcDbLine
 10
6853.496748939548
 20
2776.172274673714
 30
0.0
 11
6853.496748939548
 21
2771.172274673714
 31
0.0
  0
LINE
  5
16A66
330
747D
100
AcDbEntity
  8
破線
  6
HIDDEN
 48
5.0
100
AcDbLine
 10
6893.496748939544
 20
2776.172274673714
 30
0.0
 11
6893.496748939544
 21
2771.172274673714
 31
0.0
  0
LINE
  5
16A67
330
747D
100
AcDbEntity
  8
破線
  6
HIDDEN
 48
5.0
100
AcDbLine
 10
5538.496748939551
 20
2776.172274673714
 30
0.0
 11
5538.496748939551
 21
2771.172274673714
 31
0.0
  0
LINE
  5
16A68
330
747D
100
AcDbEntity
  8
破線
  6
HIDDEN
 48
5.0
100
AcDbLine
 10
5578.496748939548
 20
2776.172274673714
 30
0.0
 11
5578.496748939548
 21
2771.172274673714
 31
0.0
  0
LINE
  5
16A69
330
747D
100
AcDbEntity
  8
部品1
100
AcDbLine
 10
6893.496748939547
 20
2876.172274673714
 30
0.0
 11
6900.996748939549
 21
2876.172274673714
 31
0.0
  0
LINE
  5
16A6A
330
747D
100
AcDbEntity
  8
部品1
100
AcDbLine
 10
5578.496748939548
 20
2876.172274673714
 30
0.0
 11
6853.496748939545
 21
2876.172274673714
 31
0.0
  0
LINE
  5
16A6B
330
747D
100
AcDbEntity
  8
細線
 48
50.0
100
AcDbLine
 10
6083.496748939546
 20
5016.172274673714
 30
0.0
 11
6083.496748939546
 21
2926.172274673714
 31
0.0
  0
LINE
  5
16A6C
330
747D
100
AcDbEntity
  8
細線
 48
50.0
100
AcDbLine
 10
6068.496748939546
 20
5016.172274673714
 30
0.0
 11
6068.496748939546
 21
2926.172274673714
 31
0.0
  0
LINE
  5
16A6D
330
747D
100
AcDbEntity
  8
細線
 48
50.0
100
AcDbLine
 10
6208.496748939546
 20
5016.172274673714
 30
0.0
 11
6208.496748939546
 21
2926.172274673714
 31
0.0
  0
LINE
  5
16A6E
330
747D
100
AcDbEntity
  8
細線
 48
50.0
100
AcDbLine
 10
6223.496748939545
 20
5016.172274673714
 30
0.0
 11
6223.496748939545
 21
2926.172274673714
 31
0.0
  0
LINE
  5
16A6F
330
747D
100
AcDbEntity
  8
細線
 48
50.0
100
AcDbLine
 10
6363.496748939546
 20
5016.172274673714
 30
0.0
 11
6363.496748939546
 21
2926.172274673714
 31
0.0
  0
LINE
  5
16A70
330
747D
100
AcDbEntity
  8
細線
 48
50.0
100
AcDbLine
 10
6348.496748939545
 20
5016.172274673714
 30
0.0
 11
6348.496748939545
 21
2926.172274673714
 31
0.0
  0
LINE
  5
16A71
330
747D
100
AcDbEntity
  8
細線
 48
50.0
100
AcDbLine
 10
5928.496748939545
 20
5016.172274673714
 30
0.0
 11
5928.496748939545
 21
2926.172274673714
 31
0.0
  0
LINE
  5
16A72
330
747D
100
AcDbEntity
  8
細線
 48
50.0
100
AcDbLine
 10
5943.496748939546
 20
5016.172274673714
 30
0.0
 11
5943.496748939546
 21
2926.172274673714
 31
0.0
  0
LINE
  5
16A73
330
747D
100
AcDbEntity
  8
細線
 48
50.0
100
AcDbLine
 10
5803.496748939545
 20
5016.172274673714
 30
0.0
 11
5803.496748939545
 21
2926.172274673714
 31
0.0
  0
LINE
  5
16A74
330
747D
100
AcDbEntity
  8
細線
 48
50.0
100
AcDbLine
 10
5788.496748939546
 20
5016.172274673714
 30
0.0
 11
5788.496748939546
 21
2926.172274673714
 31
0.0
  0
LINE
  5
16A75
330
747D
100
AcDbEntity
  8
細線
 48
50.0
100
AcDbLine
 10
5648.496748939546
 20
5016.172274673714
 30
0.0
 11
5648.496748939546
 21
2926.172274673714
 31
0.0
  0
LINE
  5
16A76
330
747D
100
AcDbEntity
  8
細線
 48
50.0
100
AcDbLine
 10
5663.496748939546
 20
5016.172274673714
 30
0.0
 11
5663.496748939546
 21
2926.172274673714
 31
0.0
  0
LINE
  5
16A77
330
747D
100
AcDbEntity
  8
部品1
100
AcDbLine
 10
5478.541735296509
 20
5249.89001000798
 30
0.0
 11
6973.608625801009
 21
5194.223116001278
 31
0.0
  0
LINE
  5
16A78
330
747D
100
AcDbEntity
  8
部品1
100
AcDbLine
 10
5486.339313541501
 20
5108.953299742681
 30
0.0
 11
6955.66044947939
 21
5069.334918126901
 31
0.0
  0
LINE
  5
16A79
330
747D
100
AcDbEntity
  8
細線
 48
50.0
100
AcDbLine
 10
5503.996748939548
 20
5248.571951049118
 30
0.0
 11
5498.707647384037
 21
5108.486318421764
 31
0.0
  0
LINE
  5
16A7A
330
747D
100
AcDbEntity
  8
細線
 48
50.0
100
AcDbLine
 10
6947.996748939548
 20
5195.549297327436
 30
0.0
 11
6943.249066051547
 21
5069.80352483669
 31
0.0
  0
LINE
  5
16A7B
330
747D
100
AcDbEntity
  8
部品1
 48
50.0
100
AcDbLine
 10
5471.181034852654
 20
5242.765820838407
 30
0.0
 11
5471.561294630467
 21
5222.838856391994
 31
0.0
  0
LINE
  5
16A7C
330
747D
100
AcDbEntity
  8
部品1
 48
50.0
100
AcDbLine
 10
5474.630066736711
 20
5219.263574898523
 30
0.0
 11
5476.333968228076
 21
5129.973078191877
 31
0.0
  0
LINE
  5
16A7D
330
747D
100
AcDbEntity
  8
細線
 48
50.0
100
AcDbLine
 10
5472.03617204036
 20
5222.189356515075
 30
0.0
 11
6977.672156785527
 21
5165.975195492673
 31
0.0
  0
LINE
  5
16A7E
330
747D
100
AcDbEntity
  8
細線
 48
50.0
100
AcDbLine
 10
5476.796647277646
 20
5129.327844817213
 30
0.0
 11
6966.800311708283
 21
5088.928569461145
 31
0.0
  0
LINE
  5
16A7F
330
747D
100
AcDbEntity
  8
部品1
 48
50.0
100
AcDbLine
 10
5479.402740334317
 20
5126.397796698404
 30
0.0
 11
5479.60469295475
 21
5115.814761305312
 31
0.0
  0
ARC
  5
16A80
330
747D
100
AcDbEntity
  8
部品1
 48
50.0
100
AcDbCircle
 10
5478.179760680992
 20
5242.899375245833
 30
0.0
 40
7.0
100
AcDbArc
 50
87.03587545303909
 51
181.0932240292635
  0
ARC
  5
16A81
330
747D
100
AcDbEntity
  8
部品1
 48
50.0
100
AcDbCircle
 10
5486.603418783088
 20
5115.948315712739
 30
0.0
 40
7.0
100
AcDbArc
 50
181.0932240293156
 51
267.8377559869492
  0
ARC
  5
16A82
330
747D
100
AcDbEntity
  8
部品1
100
AcDbCircle
 10
5476.403286407886
 20
5126.340559095221
 30
0.0
 40
3.0
100
AcDbArc
 50
1.093224029315636
 51
80.18775403148449
  0
ARC
  5
16A83
330
747D
100
AcDbEntity
  8
部品1
100
AcDbCircle
 10
5471.63061281028
 20
5219.206337295339
 30
0.0
 40
3.0
100
AcDbArc
 50
1.093224029263536
 51
80.18775403148449
  0
ARC
  5
16A84
330
747D
100
AcDbEntity
  8
部品1
100
AcDbCircle
 10
5472.261167213303
 20
5222.852211832738
 30
0.0
 40
0.7
100
AcDbArc
 50
181.0932240292114
 51
260.1877540314845
  0
ARC
  5
16A85
330
747D
100
AcDbEntity
  8
部品1
100
AcDbCircle
 10
5477.033840810911
 20
5129.986433632617
 30
0.0
 40
0.7
100
AcDbArc
 50
181.0932240292114
 51
260.1877540314845
  0
LINE
  5
16A86
330
747D
100
AcDbEntity
  8
部品1
 48
50.0
100
AcDbLine
 10
6980.210651750247
 20
5186.523470566356
 30
0.0
 11
6978.180030559276
 21
5166.578429308578
 31
0.0
  0
LINE
  5
16A87
330
747D
100
AcDbEntity
  8
部品1
 48
50.0
100
AcDbLine
 10
6974.827464074795
 20
5163.267795235668
 30
0.0
 11
6967.320684809958
 21
5089.535174490657
 31
0.0
  0
LINE
  5
16A88
330
747D
100
AcDbEntity
  8
部品1
 48
50.0
100
AcDbLine
 10
6963.968118325472
 20
5086.224540417745
 30
0.0
 11
6962.888555285733
 21
5075.620923424187
 31
0.0
  0
ARC
  5
16A89
330
747D
100
AcDbEntity
  8
部品1
 48
50.0
100
AcDbCircle
 10
6973.246651185492
 20
5187.232481239132
 30
0.0
 40
7.0
100
AcDbArc
 50
354.1866997665013
 51
87.03587545303909
  0
ARC
  5
16A8A
330
747D
100
AcDbEntity
  8
部品1
 48
50.0
100
AcDbCircle
 10
6955.924554720978
 20
5076.32993409696
 30
0.0
 40
7.0
100
AcDbArc
 50
267.8377559869492
 51
354.1866997665532
  0
ARC
  5
16A8B
330
747D
100
AcDbEntity
  8
部品1
100
AcDbCircle
 10
6966.95268999608
 20
5085.920678700841
 30
0.0
 40
3.0
100
AcDbArc
 50
95.0921697642102
 51
174.1866997665532
  0
ARC
  5
16A8C
330
747D
100
AcDbEntity
  8
部品1
100
AcDbCircle
 10
6977.812035745407
 20
5162.963933518766
 30
0.0
 40
3.0
100
AcDbArc
 50
95.09216976442012
 51
174.1866997665532
  0
ARC
  5
16A8D
330
747D
100
AcDbEntity
  8
部品1
100
AcDbCircle
 10
6977.483630502804
 20
5166.649330375854
 30
0.0
 40
0.7
100
AcDbArc
 50
275.0921697642102
 51
354.1866997665532
  0
ARC
  5
16A8E
330
747D
100
AcDbEntity
  8
部品1
100
AcDbCircle
 10
6966.624284753483
 20
5089.606075557931
 30
0.0
 40
0.7
100
AcDbArc
 50
275.0921697642102
 51
354.1866997667087
  0
DIMENSION
  5
16A8F
330
747D
100
AcDbEntity
  8
寸法
 48
50.0
100
AcDbDimension
  2
*D10
 10
6980.996748939547
 20
5649.829728253019
 30
0.0
 11
7187.043993034037
 21
5649.829728253019
 31
0.0
 70
   160
 71
     5
 42
80.0
  3
INABA_S40G
100
AcDbAlignedDimension
 13
6900.996748939547
 23
5197.982954285368
 33
0.0
 14
6980.996748939547
 24
5196.172274673715
 34
0.0
100
AcDbRotatedDimension
1001
ACAD
1000
DSTYLE
1002
{
1070
   174
1070
     0
1070
   272
1070
     1
1070
   288
1070
     0
1070
   341
1005
0
1002
}
  0
DIMENSION
  5
16A90
330
747D
100
AcDbEntity
  8
寸法
 48
50.0
100
AcDbDimension
  2
*D11
 10
4878.730497228179
 20
5272.994765570528
 30
0.0
 11
4887.408240880066
 21
5502.831004587427
 31
0.0
 70
   160
 71
     5
 42
141.0
  3
INABA_S40G
100
AcDbAlignedDimension
 13
5486.339313541501
 23
5108.953299742681
 33
0.0
 14
5491.659147693455
 24
5249.852907139564
 34
0.0
 50
87.83775598715743
100
AcDbRotatedDimension
1001
ACAD
1000
DSTYLE
1002
{
1070
   174
1070
     0
1070
   272
1070
     1
1070
   288
1070
     0
1070
   341
1005
0
1002
}
  0
LINE
  5
16A91
330
747D
100
AcDbEntity
  8
部品1
 48
50.0
100
AcDbLine
 10
6075.996748939548
 20
5382.040413774994
 30
0.0
 11
6375.996748939548
 21
5382.040413774994
 31
0.0
  0
LINE
  5
16A92
330
747D
100
AcDbEntity
  8
部品1
 48
50.0
100
AcDbLine
 10
6375.996748939548
 20
5382.040413774994
 30
0.0
 11
6375.996748939548
 21
5360.440413774995
 31
0.0
  0
TEXT
  5
16A93
330
747D
100
AcDbEntity
  8
部品1
 48
50.0
100
AcDbText
 10
6064.264584163275
 20
5417.924435927427
 30
0.0
 40
120.0
  1
1000
  7
STYLE1
100
AcDbText
  0
TEXT
  5
16A94
330
747D
100
AcDbEntity
  8
部品1
 48
50.0
100
AcDbText
 10
6553.089596227408
 20
5280.423177709145
 30
0.0
 40
120.0
  1
71
 50
90.0
  7
STYLE1
100
AcDbText
  0
LINE
  5
16A95
330
747D
100
AcDbEntity
  8
部品1
100
AcDbLine
 10
6425.996748939546
 20
5016.172274673714
 30
0.0
 11
6425.996748939546
 21
2926.172274673714
 31
0.0
  0
LINE
  5
16A96
330
747D
100
AcDbEntity
  8
細線
 48
50.0
100
AcDbLine
 10
6768.496748939549
 20
5016.172274673714
 30
0.0
 11
6768.496748939549
 21
2926.172274673714
 31
0.0
  0
LINE
  5
16A97
330
747D
100
AcDbEntity
  8
細線
 48
50.0
100
AcDbLine
 10
6783.496748939549
 20
5016.172274673714
 30
0.0
 11
6783.496748939549
 21
2926.172274673714
 31
0.0
  0
LINE
  5
16A98
330
747D
100
AcDbEntity
  8
細線
 48
50.0
100
AcDbLine
 10
6643.496748939549
 20
5016.172274673714
 30
0.0
 11
6643.496748939549
 21
2926.172274673714
 31
0.0
  0
LINE
  5
16A99
330
747D
100
AcDbEntity
  8
細線
 48
50.0
100
AcDbLine
 10
6628.49674893955
 20
5016.172274673714
 30
0.0
 11
6628.49674893955
 21
2926.172274673714
 31
0.0
  0
LINE
  5
16A9A
330
747D
100
AcDbEntity
  8
細線
 48
50.0
100
AcDbLine
 10
6488.496748939549
 20
5016.172274673714
 30
0.0
 11
6488.496748939549
 21
2926.172274673714
 31
0.0
  0
LINE
  5
16A9B
330
747D
100
AcDbEntity
  8
細線
 48
50.0
100
AcDbLine
 10
6503.49674893955
 20
5016.172274673714
 30
0.0
 11
6503.49674893955
 21
2926.172274673714
 31
0.0
  0
LINE
  5
16A9C
330
747D
100
AcDbEntity
  8
部品1
 48
50.0
100
AcDbLine
 10
6075.996748939548
 20
5382.040413774994
 30
0.0
 11
6375.996748939548
 21
5360.440413774995
 31
0.0
  0
DIMENSION
  5
16A9D
330
747D
100
AcDbEntity
  8
寸法
 48
50.0
100
AcDbDimension
  2
*D12
 10
5308.996745692912
 20
2776.172274673714
 30
0.0
 11
5308.996745692912
 21
2676.172274673714
 31
0.0
 70
   160
 71
     5
 42
200.0000000000009
  3
INABA_S40G
100
AcDbAlignedDimension
 13
5458.496748939549
 23
2576.172274673713
 33
0.0
 14
5433.496748939547
 24
2776.172274673714
 34
0.0
 50
90.0
100
AcDbRotatedDimension
1001
ACAD
1000
DSTYLE
1002
{
1070
   174
1070
     0
1070
   272
1070
     1
1070
   288
1070
     0
1070
   341
1005
0
1002
}
  0
LINE
  5
16A9E
330
747D
100
AcDbEntity
  8
破線
 48
5.0
100
AcDbLine
 10
5658.496748939546
 20
2576.172274673713
 30
0.0
 11
5458.496748939549
 21
2576.172274673713
 31
0.0
  0
LINE
  5
16A9F
330
747D
100
AcDbEntity
  8
破線
 48
5.0
100
AcDbLine
 10
5658.496748939548
 20
2776.172274673714
 30
0.0
 11
5658.496748939546
 21
2576.172274673713
 31
0.0
  0
LINE
  5
16AA0
330
747D
100
AcDbEntity
  8
破線
 48
5.0
100
AcDbLine
 10
5458.496748939547
 20
2776.172274673714
 30
0.0
 11
5458.496748939549
 21
2576.172274673713
 31
0.0
  0
DIMENSION
  5
16AA1
330
747D
100
AcDbEntity
  8
寸法
 48
50.0
100
AcDbDimension
  2
*D13
 10
5458.496748939549
 20
2290.124945373336
 30
0.0
 11
5558.496748939547
 21
2290.124945373336
 31
0.0
 70
   160
 71
     5
 42
199.9999999999963
  3
INABA_S40G
100
AcDbAlignedDimension
 13
5658.496748939546
 23
2576.172274673712
 33
0.0
 14
5458.496748939549
 24
2576.172274673713
 34
0.0
100
AcDbRotatedDimension
  0
LINE
  5
16AA2
330
747D
100
AcDbEntity
  8
破線
 48
5.0
100
AcDbLine
 10
6973.496748939552
 20
2776.172274673714
 30
0.0
 11
6973.49674893955
 21
2576.172274673713
 31
0.0
  0
LINE
  5
16AA3
330
747D
100
AcDbEntity
  8
破線
 48
5.0
100
AcDbLine
 10
6973.49674893955
 20
2576.172274673713
 30
0.0
 11
6773.496748939553
 21
2576.172274673713
 31
0.0
  0
LINE
  5
16AA4
330
747D
100
AcDbEntity
  8
破線
 48
5.0
100
AcDbLine
 10
6773.496748939551
 20
2776.172274673714
 30
0.0
 11
6773.496748939553
 21
2576.172274673713
 31
0.0
  0
LINE
  5
16AA5
330
747D
100
AcDbEntity
  8
部品1
100
AcDbLine
 10
6607.732082053766
 20
1896.856731698755
 30
0.0
 11
5844.261415825327
 21
1896.856731698755
 31
0.0
  0
LINE
  5
16AA6
330
747D
100
AcDbEntity
  8
部品1
100
AcDbLine
 10
6607.732082053766
 20
1656.964410153223
 30
0.0
 11
6607.732082053766
 21
1896.856731698755
 31
0.0
  0
LINE
  5
16AA7
330
747D
100
AcDbEntity
  8
部品1
100
AcDbLine
 10
5844.261415825327
 20
1656.964410153223
 30
0.0
 11
6607.732082053766
 21
1656.964410153223
 31
0.0
  0
LINE
  5
16AA8
330
747D
100
AcDbEntity
  8
部品1
100
AcDbLine
 10
5844.261415825327
 20
1896.856731698755
 30
0.0
 11
5844.261415825327
 21
1656.964410153223
 31
0.0
  0
TEXT
  5
16AA9
330
747D
100
AcDbEntity
  8
部品1
100
AcDbText
 10
5933.707517248935
 20
1703.963202480232
 30
0.0
 40
135.0
  1
側面図
  7
STYLE2
100
AcDbText
  0
TEXT
  5
16AAA
330
747D
100
AcDbEntity
  8
部品1
100
AcDbText
 10
3469.442300797833
 20
2812.279178279616
 30
0.0
 40
125.0
  1
▽G.L
  7
STYLE2
100
AcDbText
  0
MTEXT
  5
16AAB
330
747D
100
AcDbEntity
  8
寸法
 62
     7
 48
50.0
100
AcDbMText
 10
9416.37586847583
 20
9372.296731251683
 30
0.0
 40
96.0
 41
0.0
 71
     5
 72
     1
  1
棚 3段
  7
STYLE1
 73
     1
 44
1.0
1001
ACAD
1000
MTEXTBEGIN
1070
    73
1070
     1
1070
    44
1040
1.0
1070
    74
1070
     0
1000
MTEXTEND
  0
MTEXT
  5
16AAC
330
747D
100
AcDbEntity
  8
寸法
 62
     7
 48
50.0
100
AcDbMText
 10
10506.37586847583
 20
9372.296731251728
 30
0.0
 40
96.0
 41
0.0
 71
     5
 72
     1
  1
棚 3段
  7
STYLE1
 73
     1
 44
1.0
1001
ACAD
1000
MTEXTBEGIN
1070
    73
1070
     1
1070
    44
1040
1.0
1070
    74
1070
     0
1000
MTEXTEND
  0
LINE
  5
16AAD
330
747D
100
AcDbEntity
  8
部品1
100
AcDbLine
 10
10446.01816729979
 20
5246.17227468218
 30
0.0
 11
10446.01816729979
 21
5148.761207173615
 31
0.0
  0
LINE
  5
16AAE
330
747D
100
AcDbEntity
  8
部品1
100
AcDbLine
 10
10464.0181672998
 20
5246.172274682191
 30
0.0
 11
10464.0181672998
 21
5148.761207173615
 31
0.0
  0
LINE
  5
16AAF
330
747D
100
AcDbEntity
  8
部品1
 48
50.0
100
AcDbLine
 10
10443.0181672998
 20
5246.172274682191
 30
0.0
 11
10467.0181672998
 21
5246.172274682191
 31
0.0
  0
LINE
  5
16AB0
330
747D
100
AcDbEntity
  8
部品1
 48
50.0
100
AcDbLine
 10
10443.0181672998
 20
5246.172274682191
 30
0.0
 11
10441.80682709362
 21
5236.772274682189
 31
0.0
  0
LINE
  5
16AB1
330
747D
100
AcDbEntity
  8
部品1
 48
50.0
100
AcDbLine
 10
10427.80682709362
 20
5236.772274682189
 30
0.0
 11
10441.80682709362
 21
5236.772274682189
 31
0.0
  0
LINE
  5
16AB2
330
747D
100
AcDbEntity
  8
部品1
 48
50.0
100
AcDbLine
 10
10427.80682709362
 20
5236.772274682189
 30
0.0
 11
10426.5181672998
 21
5226.77227468219
 31
0.0
  0
LINE
  5
16AB3
330
747D
100
AcDbEntity
  8
部品1
 48
50.0
100
AcDbLine
 10
10467.0181672998
 20
5246.172274682191
 30
0.0
 11
10469.5181672998
 21
5226.77227468219
 31
0.0
  0
LINE
  5
16AB4
330
747D
100
AcDbEntity
  8
部品1
100
AcDbLine
 10
10613.0181672998
 20
5226.77227468219
 30
0.0
 11
10469.5181672998
 21
5226.77227468219
 31
0.0
  0
LINE
  5
16AB5
330
747D
100
AcDbEntity
  8
部品1
100
AcDbLine
 10
10686.0181672998
 20
5226.77227468219
 30
0.0
 11
10662.0181672998
 21
5226.77227468219
 31
0.0
  0
LINE
  5
16AB6
330
747D
100
AcDbEntity
  8
部品1
 48
50.0
100
AcDbLine
 10
10651.5181672998
 20
5246.172274682194
 30
0.0
 11
10662.0181672998
 21
5226.772274682193
 31
0.0
  0
LINE
  5
16AB7
330
747D
100
AcDbEntity
  8
部品1
 48
50.0
100
AcDbLine
 10
10623.5181672998
 20
5246.172274682194
 30
0.0
 11
10613.0181672998
 21
5226.772274682193
 31
0.0
  0
LINE
  5
16AB8
330
747D
100
AcDbEntity
  8
部品1
 48
50.0
100
AcDbLine
 10
10623.5181672998
 20
5246.172274682194
 30
0.0
 11
10651.5181672998
 21
5246.172274682194
 31
0.0
  0
LINE
  5
16AB9
330
747D
100
AcDbEntity
  8
部品1
 48
50.0
100
AcDbLine
 10
10696.5181672998
 20
5246.172274682194
 30
0.0
 11
10686.0181672998
 21
5226.772274682193
 31
0.0
  0
LINE
  5
16ABA
330
747D
100
AcDbEntity
  8
部品1
 48
50.0
100
AcDbLine
 10
10724.5181672998
 20
5246.172274682194
 30
0.0
 11
10735.0181672998
 21
5226.772274682193
 31
0.0
  0
LINE
  5
16ABB
330
747D
100
AcDbEntity
  8
部品1
 48
50.0
100
AcDbLine
 10
10696.5181672998
 20
5246.172274682194
 30
0.0
 11
10724.5181672998
 21
5246.172274682194
 31
0.0
  0
LINE
  5
16ABC
330
747D
100
AcDbEntity
  8
部品1
100
AcDbLine
 10
10650.01816729981
 20
5246.172274682191
 30
0.0
 11
10650.01816729981
 21
5148.761207173619
 31
0.0
  0
LINE
  5
16ABD
330
747D
100
AcDbEntity
  8
部品1
100
AcDbLine
 10
10625.01816729981
 20
5246.172274682191
 30
0.0
 11
10625.01816729981
 21
5148.761207173619
 31
0.0
  0
LINE
  5
16ABE
330
747D
100
AcDbEntity
  8
部品1
100
AcDbLine
 10
10698.01816729981
 20
5246.172274682191
 30
0.0
 11
10698.01816729981
 21
5148.761207173619
 31
0.0
  0
LINE
  5
16ABF
330
747D
100
AcDbEntity
  8
部品1
100
AcDbLine
 10
10723.01816729981
 20
5246.172274682191
 30
0.0
 11
10723.01816729981
 21
5148.761207173619
 31
0.0
  0
LINE
  5
16AC0
330
747D
100
AcDbEntity
  8
部品1
100
AcDbLine
 10
10846.5181672998
 20
5226.772274682175
 30
0.0
 11
10735.01816729981
 21
5226.772274682175
 31
0.0
  0
LINE
  5
16AC1
330
747D
100
AcDbEntity
  8
部品1
100
AcDbLine
 10
10930.08879529299
 20
5226.772274682182
 30
0.0
 11
10889.51816729978
 21
5226.772274682182
 31
0.0
  0
LINE
  5
16AC2
330
747D
100
AcDbEntity
  8
部品1
 48
50.0
100
AcDbLine
 10
10887.01816729978
 20
5246.172274682187
 30
0.0
 11
10889.51816729978
 21
5226.772274682185
 31
0.0
  0
LINE
  5
16AC3
330
747D
100
AcDbEntity
  8
部品1
 48
50.0
100
AcDbLine
 10
10847.8068270936
 20
5236.772274682185
 30
0.0
 11
10846.51816729978
 21
5226.772274682185
 31
0.0
  0
LINE
  5
16AC4
330
747D
100
AcDbEntity
  8
部品1
 48
50.0
100
AcDbLine
 10
10847.8068270936
 20
5236.772274682185
 30
0.0
 11
10861.8068270936
 21
5236.772274682185
 31
0.0
  0
LINE
  5
16AC5
330
747D
100
AcDbEntity
  8
部品1
 48
50.0
100
AcDbLine
 10
10863.01816729978
 20
5246.172274682187
 30
0.0
 11
10861.8068270936
 21
5236.772274682185
 31
0.0
  0
LINE
  5
16AC6
330
747D
100
AcDbEntity
  8
細線
 48
50.0
100
AcDbLine
 10
10930.08879529299
 20
5168.144107421664
 30
0.0
 11
10978.15203657694
 21
5168.144107421671
 31
0.0
  0
LINE
  5
16AC7
330
747D
100
AcDbEntity
  8
細線
 48
50.0
100
AcDbLine
 10
10947.52925720407
 20
5196.172274673714
 30
0.0
 11
10947.52925720406
 21
5069.672274673714
 31
0.0
  0
ARC
  5
16AC8
330
747D
100
AcDbEntity
  8
部品1
100
AcDbCircle
 10
10973.03212348257
 20
5244.172274690612
 30
0.0
 40
7.0
100
AcDbArc
 50
356.3813705198622
 51
90.0
  0
LINE
  5
16AC9
330
747D
100
AcDbEntity
  8
部品1
100
AcDbLine
 10
10935.08879529299
 20
5251.172274690612
 30
0.0
 11
10973.03212348257
 21
5251.172274690612
 31
0.0
  0
ARC
  5
16ACA
330
747D
100
AcDbEntity
  8
部品1
100
AcDbCircle
 10
10935.08879529299
 20
5246.172274690612
 30
0.0
 40
5.0
100
AcDbArc
 50
90.0
 51
180.0
  0
LINE
  5
16ACB
330
747D
100
AcDbEntity
  8
部品1
 48
50.0
100
AcDbLine
 10
10980.01816729978
 20
5188.730469531125
 30
0.0
 11
10980.01816729978
 21
5243.730469548023
 31
0.0
  0
LINE
  5
16ACC
330
747D
100
AcDbEntity
  8
部品1
100
AcDbLine
 10
10930.08879529299
 20
5246.172274690612
 30
0.0
 11
10930.08879529299
 21
5148.761207173611
 31
0.0
  0
ARC
  5
16ACD
330
747D
100
AcDbEntity
  8
部品1
100
AcDbCircle
 10
10935.08879529299
 20
5191.172274673714
 30
0.0
 40
5.0
100
AcDbArc
 50
90.0
 51
180.0
  0
LINE
  5
16ACE
330
747D
100
AcDbEntity
  8
部品1
100
AcDbLine
 10
10935.08879529299
 20
5196.172274673714
 30
0.0
 11
10973.03212348257
 21
5196.172274673714
 31
0.0
  0
LINE
  5
16ACF
330
747D
100
AcDbEntity
  8
部品1
100
AcDbLine
 10
10978.75762924122
 20
5168.798211480043
 30
0.0
 11
10980.01816729978
 21
5188.730469531125
 31
0.0
  0
LINE
  5
16AD0
330
747D
100
AcDbEntity
  8
部品1
100
AcDbLine
 10
10966.89155645381
 20
5076.230469531125
 30
0.0
 11
10967.56388215839
 21
5086.861619734825
 31
0.0
  0
ARC
  5
16AD1
330
747D
100
AcDbEntity
  8
部品1
100
AcDbCircle
 10
10973.03212348257
 20
5189.172274673715
 30
0.0
 40
7.0
100
AcDbArc
 50
356.3813705198622
 51
90.0
  0
ARC
  5
16AD2
330
747D
100
AcDbEntity
  8
部品1
100
AcDbCircle
 10
10959.9055126366
 20
5076.672274673715
 30
0.0
 40
7.0
100
AcDbArc
 50
270.0
 51
356.3813705198622
  0
ARC
  5
16AD3
330
747D
100
AcDbEntity
  8
部品1
100
AcDbCircle
 10
10970.5579009372
 20
5086.672274673714
 30
0.0
 40
3.0
100
AcDbArc
 50
90.0
 51
176.3813705198622
  0
ARC
  5
16AD4
330
747D
100
AcDbEntity
  8
部品1
100
AcDbCircle
 10
10970.088604812
 20
5090.342391994304
 30
0.0
 40
0.7
100
AcDbArc
 50
277.2868405166456
 51
356.3813705198622
  0
LINE
  5
16AD5
330
747D
100
AcDbEntity
  8
部品1
100
AcDbLine
 10
10975.53430220589
 20
5165.361619734825
 30
0.0
 11
10970.78720919373
 21
5090.298211480043
 31
0.0
  0
ARC
  5
16AD6
330
747D
100
AcDbEntity
  8
部品1
100
AcDbCircle
 10
10978.52832098469
 20
5165.172274673714
 30
0.0
 40
3.0
100
AcDbArc
 50
90.0
 51
176.3813705198622
  0
ARC
  5
16AD7
330
747D
100
AcDbEntity
  8
部品1
100
AcDbCircle
 10
10978.05902485949
 20
5168.842391994303
 30
0.0
 40
0.7
100
AcDbArc
 50
277.2868405166456
 51
356.3813705198622
  0
LINE
  5
16AD8
330
747D
100
AcDbEntity
  8
部品1
 48
50.0
100
AcDbLine
 10
10935.08879529299
 20
5196.172274673714
 30
0.0
 11
10973.03212348257
 21
5196.172274673714
 31
0.0
  0
LINE
  5
16AD9
330
747D
100
AcDbEntity
  8
部品1
 48
50.0
100
AcDbLine
 10
10863.01816729978
 20
5246.172274682187
 30
0.0
 11
10887.01816729978
 21
5246.172274682187
 31
0.0
  0
LINE
  5
16ADA
330
747D
100
AcDbEntity
  8
部品1
100
AcDbLine
 10
10884.01816729978
 20
5246.172274682187
 30
0.0
 11
10884.01816729978
 21
5148.761207173611
 31
0.0
  0
LINE
  5
16ADB
330
747D
100
AcDbEntity
  8
部品1
100
AcDbLine
 10
10866.01816729978
 20
5246.172274682177
 30
0.0
 11
10866.01816729978
 21
5148.761207173611
 31
0.0
  0
DIMENSION
  5
16ADC
330
747D
100
AcDbEntity
  8
寸法
 48
50.0
100
AcDbDimension
  2
*D14
 10
10930.01816729979
 20
5650.265444013188
 30
0.0
 11
11293.50344867403
 21
5650.265444013188
 31
0.0
 70
   160
 71
     5
 42
50.0
  3
INABA_S40G
100
AcDbAlignedDimension
 13
10980.01816729979
 23
5251.172274673717
 33
0.0
 14
10930.01816729979
 24
5251.17227467372
 34
0.0
100
AcDbRotatedDimension
  0
LINE
  5
16ADD
330
747D
100
AcDbEntity
  8
部品1
100
AcDbLine
 10
10303.01816729981
 20
5246.172274682187
 30
0.0
 11
10303.01816729981
 21
5148.761207173615
 31
0.0
  0
LINE
  5
16ADE
330
747D
100
AcDbEntity
  8
部品1
100
AcDbLine
 10
10278.01816729981
 20
5246.172274682187
 30
0.0
 11
10278.01816729981
 21
5148.761207173615
 31
0.0
  0
LINE
  5
16ADF
330
747D
100
AcDbEntity
  8
部品1
100
AcDbLine
 10
10205.01816729981
 20
5246.172274682187
 30
0.0
 11
10205.01816729981
 21
5148.761207173615
 31
0.0
  0
LINE
  5
16AE0
330
747D
100
AcDbEntity
  8
部品1
100
AcDbLine
 10
10230.01816729981
 20
5246.172274682187
 30
0.0
 11
10230.01816729981
 21
5148.761207173615
 31
0.0
  0
LINE
  5
16AE1
330
747D
100
AcDbEntity
  8
部品1
100
AcDbLine
 10
10193.0181672998
 20
5226.772274682185
 30
0.0
 11
10049.5181672998
 21
5226.772274682185
 31
0.0
  0
LINE
  5
16AE2
330
747D
100
AcDbEntity
  8
部品1
100
AcDbLine
 10
10426.5181672998
 20
5226.772274682171
 30
0.0
 11
10315.01816729981
 21
5226.772274682171
 31
0.0
  0
LINE
  5
16AE3
330
747D
100
AcDbEntity
  8
部品1
 48
50.0
100
AcDbLine
 10
10276.5181672998
 20
5246.172274682191
 30
0.0
 11
10304.5181672998
 21
5246.172274682191
 31
0.0
  0
LINE
  5
16AE4
330
747D
100
AcDbEntity
  8
部品1
 48
50.0
100
AcDbLine
 10
10304.5181672998
 20
5246.172274682191
 30
0.0
 11
10315.0181672998
 21
5226.77227468219
 31
0.0
  0
LINE
  5
16AE5
330
747D
100
AcDbEntity
  8
部品1
 48
50.0
100
AcDbLine
 10
10276.5181672998
 20
5246.172274682191
 30
0.0
 11
10266.0181672998
 21
5226.77227468219
 31
0.0
  0
LINE
  5
16AE6
330
747D
100
AcDbEntity
  8
部品1
 48
50.0
100
AcDbLine
 10
10203.5181672998
 20
5246.172274682191
 30
0.0
 11
10231.5181672998
 21
5246.172274682191
 31
0.0
  0
LINE
  5
16AE7
330
747D
100
AcDbEntity
  8
部品1
 48
50.0
100
AcDbLine
 10
10203.5181672998
 20
5246.172274682191
 30
0.0
 11
10193.0181672998
 21
5226.77227468219
 31
0.0
  0
LINE
  5
16AE8
330
747D
100
AcDbEntity
  8
部品1
 48
50.0
100
AcDbLine
 10
10231.5181672998
 20
5246.172274682191
 30
0.0
 11
10242.0181672998
 21
5226.77227468219
 31
0.0
  0
LINE
  5
16AE9
330
747D
100
AcDbEntity
  8
部品1
100
AcDbLine
 10
10266.0181672998
 20
5226.772274682185
 30
0.0
 11
10242.0181672998
 21
5226.772274682185
 31
0.0
  0
LINE
  5
16AEA
330
747D
100
AcDbEntity
  8
部品1
 48
50.0
100
AcDbLine
 10
8702.507077395519
 20
5148.761207173611
 30
0.0
 11
10947.52925720407
 21
5148.76120717361
 31
0.0
  0
LINE
  5
16AEB
330
747D
100
AcDbEntity
  8
部品1
 48
50.0
100
AcDbLine
 10
10047.0181672998
 20
5246.172274682187
 30
0.0
 11
10049.5181672998
 21
5226.772274682185
 31
0.0
  0
LINE
  5
16AEC
330
747D
100
AcDbEntity
  8
部品1
 48
50.0
100
AcDbLine
 10
10007.80682709361
 20
5236.772274682185
 30
0.0
 11
10006.5181672998
 21
5226.772274682185
 31
0.0
  0
LINE
  5
16AED
330
747D
100
AcDbEntity
  8
部品1
 48
50.0
100
AcDbLine
 10
10007.80682709361
 20
5236.772274682185
 30
0.0
 11
10021.80682709362
 21
5236.772274682185
 31
0.0
  0
LINE
  5
16AEE
330
747D
100
AcDbEntity
  8
部品1
 48
50.0
100
AcDbLine
 10
10023.0181672998
 20
5246.172274682187
 30
0.0
 11
10021.80682709362
 21
5236.772274682185
 31
0.0
  0
LINE
  5
16AEF
330
747D
100
AcDbEntity
  8
部品1
 48
50.0
100
AcDbLine
 10
10023.0181672998
 20
5246.172274682187
 30
0.0
 11
10047.0181672998
 21
5246.172274682187
 31
0.0
  0
LINE
  5
16AF0
330
747D
100
AcDbEntity
  8
部品1
100
AcDbLine
 10
10044.01816729979
 20
5246.172274682187
 30
0.0
 11
10044.01816729979
 21
5148.761207173611
 31
0.0
  0
LINE
  5
16AF1
330
747D
100
AcDbEntity
  8
部品1
100
AcDbLine
 10
10026.01816729979
 20
5246.172274682177
 30
0.0
 11
10026.01816729979
 21
5148.761207173611
 31
0.0
  0
LINE
  5
16AF2
330
747D
100
AcDbEntity
  8
細線
 48
50.0
100
AcDbLine
 10
8719.947539306593
 20
5168.144107421664
 30
0.0
 11
8671.884298022646
 21
5168.144107421671
 31
0.0
  0
LINE
  5
16AF3
330
747D
100
AcDbEntity
  8
細線
 48
50.0
100
AcDbLine
 10
8702.507077395518
 20
5196.172274673714
 30
0.0
 11
8702.507077395518
 21
5069.672274673714
 31
0.0
  0
LINE
  5
16AF4
330
747D
100
AcDbEntity
  8
細線
 48
50.0
100
AcDbLine
 10
10970.79652497285
 20
5090.4455172375
 30
0.0
 11
8679.90175893232
 21
5090.4455172375
 31
0.0
  0
ARC
  5
16AF5
330
747D
100
AcDbEntity
  8
部品1
100
AcDbCircle
 10
8677.004211117012
 20
5244.172274690612
 30
0.0
 40
7.0
100
AcDbArc
 50
90.0
 51
183.6186294801377
  0
LINE
  5
16AF6
330
747D
100
AcDbEntity
  8
部品1
100
AcDbLine
 10
8714.947539306596
 20
5251.172274690612
 30
0.0
 11
8677.004211117012
 21
5251.172274690612
 31
0.0
  0
ARC
  5
16AF7
330
747D
100
AcDbEntity
  8
部品1
100
AcDbCircle
 10
8714.947539306596
 20
5246.172274690612
 30
0.0
 40
5.0
100
AcDbArc
 50
0.0
 51
90.0
  0
LINE
  5
16AF8
330
747D
100
AcDbEntity
  8
部品1
 48
50.0
100
AcDbLine
 10
8670.018167299801
 20
5188.730469531125
 30
0.0
 11
8670.018167299801
 21
5243.730469548023
 31
0.0
  0
LINE
  5
16AF9
330
747D
100
AcDbEntity
  8
部品1
100
AcDbLine
 10
10959.9055126366
 20
5069.672274673714
 30
0.0
 11
8690.130821962982
 21
5069.672274673714
 31
0.0
  0
LINE
  5
16AFA
330
747D
100
AcDbEntity
  8
部品1
100
AcDbLine
 10
8719.947539306595
 20
5246.172274690612
 30
0.0
 11
8719.947539306593
 21
5148.768246001043
 31
0.0
  0
ARC
  5
16AFB
330
747D
100
AcDbEntity
  8
部品1
100
AcDbCircle
 10
8714.947539306596
 20
5191.172274673714
 30
0.0
 40
5.0
100
AcDbArc
 50
0.0
 51
90.0
  0
LINE
  5
16AFC
330
747D
100
AcDbEntity
  8
部品1
100
AcDbLine
 10
8714.947539306596
 20
5196.172274673714
 30
0.0
 11
8677.004211117012
 21
5196.172274673714
 31
0.0
  0
LINE
  5
16AFD
330
747D
100
AcDbEntity
  8
部品1
100
AcDbLine
 10
8671.278705358366
 20
5168.798211480043
 30
0.0
 11
8670.018167299801
 21
5188.730469531125
 31
0.0
  0
LINE
  5
16AFE
330
747D
100
AcDbEntity
  8
部品1
100
AcDbLine
 10
8683.144778145772
 20
5076.230469531125
 30
0.0
 11
8682.47245244119
 21
5086.861619734825
 31
0.0
  0
ARC
  5
16AFF
330
747D
100
AcDbEntity
  8
部品1
100
AcDbCircle
 10
8677.004211117012
 20
5189.172274673715
 30
0.0
 40
7.0
100
AcDbArc
 50
90.0
 51
183.6186294801377
  0
ARC
  5
16B00
330
747D
100
AcDbEntity
  8
部品1
100
AcDbCircle
 10
8690.130821962982
 20
5076.672274673715
 30
0.0
 40
7.0
100
AcDbArc
 50
183.6186294801377
 51
270.0
  0
ARC
  5
16B01
330
747D
100
AcDbEntity
  8
部品1
100
AcDbCircle
 10
8679.478433662385
 20
5086.672274673714
 30
0.0
 40
3.0
100
AcDbArc
 50
3.618629480137788
 51
90.0
  0
ARC
  5
16B02
330
747D
100
AcDbEntity
  8
部品1
100
AcDbCircle
 10
8679.94772978758
 20
5090.342391994304
 30
0.0
 40
0.7
100
AcDbArc
 50
183.6186294801377
 51
262.7131594833544
  0
LINE
  5
16B03
330
747D
100
AcDbEntity
  8
部品1
100
AcDbLine
 10
8674.502032393698
 20
5165.361619734825
 30
0.0
 11
8679.249125405858
 21
5090.298211480043
 31
0.0
  0
ARC
  5
16B04
330
747D
100
AcDbEntity
  8
部品1
100
AcDbCircle
 10
8671.508013614895
 20
5165.172274673714
 30
0.0
 40
3.0
100
AcDbArc
 50
3.618629480137788
 51
90.0
  0
ARC
  5
16B05
330
747D
100
AcDbEntity
  8
部品1
100
AcDbCircle
 10
8671.977309740089
 20
5168.842391994303
 30
0.0
 40
0.7
100
AcDbArc
 50
183.6186294801377
 51
262.7131594833544
  0
LINE
  5
16B06
330
747D
100
AcDbEntity
  8
部品1
 48
50.0
100
AcDbLine
 10
8714.947539306596
 20
5196.172274673714
 30
0.0
 11
8677.004211117012
 21
5196.172274673714
 31
0.0
  0
LINE
  5
16B07
330
747D
100
AcDbEntity
  8
部品1
100
AcDbLine
 10
10006.5181672998
 20
5226.772274682168
 30
0.0
 11
9895.018167299809
 21
5226.772274682168
 31
0.0
  0
LINE
  5
16B08
330
747D
100
AcDbEntity
  8
部品1
100
AcDbLine
 10
10935.08850463206
 20
5251.172274682163
 30
0.0
 11
8694.450327680709
 21
5251.172274682187
 31
0.0
  0
LINE
  5
16B09
330
747D
100
AcDbEntity
  8
部品1
 48
50.0
100
AcDbLine
 10
9167.806827093611
 20
5236.772274682185
 30
0.0
 11
9181.806827093613
 21
5236.772274682185
 31
0.0
  0
LINE
  5
16B0A
330
747D
100
AcDbEntity
  8
部品1
100
AcDbLine
 10
8933.018167299801
 20
5226.772274682182
 30
0.0
 11
8789.518167299801
 21
5226.772274682185
 31
0.0
  0
LINE
  5
16B0B
330
747D
100
AcDbEntity
  8
部品1
 48
50.0
100
AcDbLine
 10
8787.0181672998
 20
5246.172274682187
 30
0.0
 11
8763.018167299801
 21
5246.172274682187
 31
0.0
  0
LINE
  5
16B0C
330
747D
100
AcDbEntity
  8
部品1
 48
50.0
100
AcDbLine
 10
8763.018167299801
 20
5246.172274682187
 30
0.0
 11
8761.806827093613
 21
5236.772274682185
 31
0.0
  0
LINE
  5
16B0D
330
747D
100
AcDbEntity
  8
部品1
 48
50.0
100
AcDbLine
 10
8747.806827093613
 20
5236.772274682185
 30
0.0
 11
8746.518167299802
 21
5226.772274682185
 31
0.0
  0
LINE
  5
16B0E
330
747D
100
AcDbEntity
  8
部品1
 48
50.0
100
AcDbLine
 10
8747.806827093613
 20
5236.772274682185
 30
0.0
 11
8761.806827093613
 21
5236.772274682185
 31
0.0
  0
LINE
  5
16B0F
330
747D
100
AcDbEntity
  8
部品1
100
AcDbLine
 10
8746.518167299802
 20
5226.772274682185
 30
0.0
 11
8720.018167299802
 21
5226.772274682185
 31
0.0
  0
LINE
  5
16B10
330
747D
100
AcDbEntity
  8
部品1
 48
50.0
100
AcDbLine
 10
8787.0181672998
 20
5246.172274682187
 30
0.0
 11
8789.518167299801
 21
5226.772274682185
 31
0.0
  0
LINE
  5
16B11
330
747D
100
AcDbEntity
  8
部品1
100
AcDbLine
 10
8766.018167299808
 20
5246.172274682187
 30
0.0
 11
8766.01816729981
 21
5148.761207173611
 31
0.0
  0
LINE
  5
16B12
330
747D
100
AcDbEntity
  8
部品1
100
AcDbLine
 10
8784.018167299809
 20
5246.172274682177
 30
0.0
 11
8784.018167299809
 21
5148.761207173611
 31
0.0
  0
LINE
  5
16B13
330
747D
100
AcDbEntity
  8
部品1
 48
50.0
100
AcDbLine
 10
9016.5181672998
 20
5246.172274682187
 30
0.0
 11
9006.018167299801
 21
5226.772274682185
 31
0.0
  0
LINE
  5
16B14
330
747D
100
AcDbEntity
  8
部品1
 48
50.0
100
AcDbLine
 10
8943.518167299801
 20
5246.172274682187
 30
0.0
 11
8971.518167299796
 21
5246.172274682187
 31
0.0
  0
LINE
  5
16B15
330
747D
100
AcDbEntity
  8
部品1
 48
50.0
100
AcDbLine
 10
8943.518167299801
 20
5246.172274682187
 30
0.0
 11
8933.018167299801
 21
5226.772274682185
 31
0.0
  0
LINE
  5
16B16
330
747D
100
AcDbEntity
  8
部品1
100
AcDbLine
 10
8945.018167299808
 20
5246.172274682184
 30
0.0
 11
8945.018167299805
 21
5148.761207173611
 31
0.0
  0
LINE
  5
16B17
330
747D
100
AcDbEntity
  8
部品1
 48
50.0
100
AcDbLine
 10
8971.518167299802
 20
5246.172274682187
 30
0.0
 11
8982.0181672998
 21
5226.772274682185
 31
0.0
  0
LINE
  5
16B18
330
747D
100
AcDbEntity
  8
部品1
100
AcDbLine
 10
8970.018167299809
 20
5246.172274682184
 30
0.0
 11
8970.01816729981
 21
5148.761207173611
 31
0.0
  0
LINE
  5
16B19
330
747D
100
AcDbEntity
  8
部品1
100
AcDbLine
 10
9006.018167299798
 20
5226.772274682182
 30
0.0
 11
8982.0181672998
 21
5226.772274682185
 31
0.0
  0
LINE
  5
16B1A
330
747D
100
AcDbEntity
  8
部品1
 48
50.0
100
AcDbLine
 10
9167.806827093611
 20
5236.772274682185
 30
0.0
 11
9166.5181672998
 21
5226.772274682185
 31
0.0
  0
LINE
  5
16B1B
330
747D
100
AcDbEntity
  8
部品1
 48
50.0
100
AcDbLine
 10
9016.5181672998
 20
5246.172274682187
 30
0.0
 11
9044.518167299797
 21
5246.172274682187
 31
0.0
  0
LINE
  5
16B1C
330
747D
100
AcDbEntity
  8
部品1
 48
50.0
100
AcDbLine
 10
9044.5181672998
 20
5246.172274682187
 30
0.0
 11
9055.018167299801
 21
5226.772274682185
 31
0.0
  0
LINE
  5
16B1D
330
747D
100
AcDbEntity
  8
部品1
100
AcDbLine
 10
9043.018167299807
 20
5246.172274682184
 30
0.0
 11
9043.018167299807
 21
5148.761207173611
 31
0.0
  0
LINE
  5
16B1E
330
747D
100
AcDbEntity
  8
部品1
100
AcDbLine
 10
9018.018167299807
 20
5246.172274682184
 30
0.0
 11
9018.018167299807
 21
5148.761207173611
 31
0.0
  0
LINE
  5
16B1F
330
747D
100
AcDbEntity
  8
部品1
100
AcDbLine
 10
9166.5181672998
 20
5226.772274682182
 30
0.0
 11
9055.018167299801
 21
5226.772274682182
 31
0.0
  0
LINE
  5
16B20
330
747D
100
AcDbEntity
  8
部品1
100
AcDbLine
 10
9846.018167299797
 20
5226.772274682182
 30
0.0
 11
9822.018167299802
 21
5226.772274682182
 31
0.0
  0
LINE
  5
16B21
330
747D
100
AcDbEntity
  8
部品1
100
AcDbLine
 10
9586.5181672998
 20
5226.772274682182
 30
0.0
 11
9475.018167299801
 21
5226.772274682182
 31
0.0
  0
LINE
  5
16B22
330
747D
100
AcDbEntity
  8
部品1
100
AcDbLine
 10
9353.018167299797
 20
5226.772274682182
 30
0.0
 11
9209.518167299796
 21
5226.772274682182
 31
0.0
  0
LINE
  5
16B23
330
747D
100
AcDbEntity
  8
部品1
 48
50.0
100
AcDbLine
 10
9207.0181672998
 20
5246.172274682187
 30
0.0
 11
9209.518167299801
 21
5226.772274682185
 31
0.0
  0
LINE
  5
16B24
330
747D
100
AcDbEntity
  8
部品1
 48
50.0
100
AcDbLine
 10
9183.018167299801
 20
5246.172274682187
 30
0.0
 11
9181.806827093613
 21
5236.772274682185
 31
0.0
  0
LINE
  5
16B25
330
747D
100
AcDbEntity
  8
部品1
 48
50.0
100
AcDbLine
 10
9207.0181672998
 20
5246.172274682187
 30
0.0
 11
9183.018167299801
 21
5246.172274682187
 31
0.0
  0
LINE
  5
16B26
330
747D
100
AcDbEntity
  8
部品1
100
AcDbLine
 10
9186.018167299808
 20
5246.172274682177
 30
0.0
 11
9186.01816729981
 21
5148.761207173611
 31
0.0
  0
LINE
  5
16B27
330
747D
100
AcDbEntity
  8
部品1
100
AcDbLine
 10
9204.018167299807
 20
5246.172274682177
 30
0.0
 11
9204.01816729981
 21
5148.761207173611
 31
0.0
  0
LINE
  5
16B28
330
747D
100
AcDbEntity
  8
部品1
 48
50.0
100
AcDbLine
 10
9436.5181672998
 20
5246.172274682187
 30
0.0
 11
9464.518167299797
 21
5246.172274682187
 31
0.0
  0
LINE
  5
16B29
330
747D
100
AcDbEntity
  8
部品1
 48
50.0
100
AcDbLine
 10
9363.518167299799
 20
5246.172274682187
 30
0.0
 11
9391.518167299798
 21
5246.172274682187
 31
0.0
  0
LINE
  5
16B2A
330
747D
100
AcDbEntity
  8
部品1
 48
50.0
100
AcDbLine
 10
9436.5181672998
 20
5246.172274682187
 30
0.0
 11
9426.018167299799
 21
5226.772274682185
 31
0.0
  0
LINE
  5
16B2B
330
747D
100
AcDbEntity
  8
部品1
 48
50.0
100
AcDbLine
 10
9391.5181672998
 20
5246.172274682187
 30
0.0
 11
9402.0181672998
 21
5226.772274682185
 31
0.0
  0
LINE
  5
16B2C
330
747D
100
AcDbEntity
  8
部品1
100
AcDbLine
 10
9426.018167299798
 20
5226.772274682182
 30
0.0
 11
9402.0181672998
 21
5226.772274682182
 31
0.0
  0
LINE
  5
16B2D
330
747D
100
AcDbEntity
  8
部品1
 48
50.0
100
AcDbLine
 10
9363.518167299799
 20
5246.172274682187
 30
0.0
 11
9353.018167299801
 21
5226.772274682185
 31
0.0
  0
LINE
  5
16B2E
330
747D
100
AcDbEntity
  8
部品1
100
AcDbLine
 10
9438.018167299807
 20
5246.172274682184
 30
0.0
 11
9438.018167299807
 21
5148.761207173611
 31
0.0
  0
LINE
  5
16B2F
330
747D
100
AcDbEntity
  8
部品1
100
AcDbLine
 10
9390.018167299807
 20
5246.172274682184
 30
0.0
 11
9390.018167299807
 21
5148.761207173611
 31
0.0
  0
LINE
  5
16B30
330
747D
100
AcDbEntity
  8
部品1
100
AcDbLine
 10
9365.018167299806
 20
5246.172274682184
 30
0.0
 11
9365.018167299806
 21
5148.761207173611
 31
0.0
  0
LINE
  5
16B31
330
747D
100
AcDbEntity
  8
部品1
 48
50.0
100
AcDbLine
 10
9464.5181672998
 20
5246.172274682187
 30
0.0
 11
9475.018167299801
 21
5226.772274682185
 31
0.0
  0
LINE
  5
16B32
330
747D
100
AcDbEntity
  8
部品1
100
AcDbLine
 10
9463.018167299807
 20
5246.172274682184
 30
0.0
 11
9463.018167299809
 21
5148.761207173611
 31
0.0
  0
LINE
  5
16B33
330
747D
100
AcDbEntity
  8
部品1
100
AcDbLine
 10
9773.018167299797
 20
5226.772274682182
 30
0.0
 11
9629.518167299798
 21
5226.772274682182
 31
0.0
  0
LINE
  5
16B34
330
747D
100
AcDbEntity
  8
部品1
 48
50.0
100
AcDbLine
 10
9627.018167299802
 20
5246.172274682187
 30
0.0
 11
9603.018167299801
 21
5246.172274682187
 31
0.0
  0
LINE
  5
16B35
330
747D
100
AcDbEntity
  8
部品1
 48
50.0
100
AcDbLine
 10
9603.018167299801
 20
5246.172274682187
 30
0.0
 11
9601.806827093612
 21
5236.772274682185
 31
0.0
  0
LINE
  5
16B36
330
747D
100
AcDbEntity
  8
部品1
 48
50.0
100
AcDbLine
 10
9587.806827093613
 20
5236.772274682185
 30
0.0
 11
9601.806827093612
 21
5236.772274682185
 31
0.0
  0
LINE
  5
16B37
330
747D
100
AcDbEntity
  8
部品1
 48
50.0
100
AcDbLine
 10
9587.806827093613
 20
5236.772274682185
 30
0.0
 11
9586.5181672998
 21
5226.772274682185
 31
0.0
  0
LINE
  5
16B38
330
747D
100
AcDbEntity
  8
部品1
100
AcDbLine
 10
9606.018167299808
 20
5246.172274682177
 30
0.0
 11
9606.01816729981
 21
5148.761207173611
 31
0.0
  0
LINE
  5
16B39
330
747D
100
AcDbEntity
  8
部品1
 48
50.0
100
AcDbLine
 10
9627.018167299802
 20
5246.172274682187
 30
0.0
 11
9629.518167299801
 21
5226.772274682185
 31
0.0
  0
LINE
  5
16B3A
330
747D
100
AcDbEntity
  8
部品1
100
AcDbLine
 10
9624.018167299809
 20
5246.172274682177
 30
0.0
 11
9624.01816729981
 21
5148.761207173611
 31
0.0
  0
LINE
  5
16B3B
330
747D
100
AcDbEntity
  8
部品1
 48
50.0
100
AcDbLine
 10
9811.518167299801
 20
5246.172274682187
 30
0.0
 11
9822.018167299802
 21
5226.772274682185
 31
0.0
  0
LINE
  5
16B3C
330
747D
100
AcDbEntity
  8
部品1
100
AcDbLine
 10
9810.018167299809
 20
5246.172274682184
 30
0.0
 11
9810.018167299809
 21
5148.761207173611
 31
0.0
  0
LINE
  5
16B3D
330
747D
100
AcDbEntity
  8
部品1
 48
50.0
100
AcDbLine
 10
9783.518167299801
 20
5246.172274682187
 30
0.0
 11
9773.018167299802
 21
5226.772274682185
 31
0.0
  0
LINE
  5
16B3E
330
747D
100
AcDbEntity
  8
部品1
100
AcDbLine
 10
9785.018167299808
 20
5246.172274682184
 30
0.0
 11
9785.018167299808
 21
5148.761207173611
 31
0.0
  0
LINE
  5
16B3F
330
747D
100
AcDbEntity
  8
部品1
 48
50.0
100
AcDbLine
 10
9783.518167299801
 20
5246.172274682187
 30
0.0
 11
9811.518167299798
 21
5246.172274682187
 31
0.0
  0
LINE
  5
16B40
330
747D
100
AcDbEntity
  8
部品1
 48
50.0
100
AcDbLine
 10
9856.518167299801
 20
5246.172274682187
 30
0.0
 11
9846.018167299801
 21
5226.772274682185
 31
0.0
  0
LINE
  5
16B41
330
747D
100
AcDbEntity
  8
部品1
 48
50.0
100
AcDbLine
 10
9884.518167299802
 20
5246.172274682187
 30
0.0
 11
9895.018167299802
 21
5226.772274682185
 31
0.0
  0
LINE
  5
16B42
330
747D
100
AcDbEntity
  8
部品1
 48
50.0
100
AcDbLine
 10
9856.518167299801
 20
5246.172274682187
 30
0.0
 11
9884.518167299797
 21
5246.172274682187
 31
0.0
  0
LINE
  5
16B43
330
747D
100
AcDbEntity
  8
部品1
100
AcDbLine
 10
9858.018167299809
 20
5246.172274682184
 30
0.0
 11
9858.01816729981
 21
5148.761207173611
 31
0.0
  0
LINE
  5
16B44
330
747D
100
AcDbEntity
  8
部品1
100
AcDbLine
 10
9883.018167299809
 20
5246.172274682184
 30
0.0
 11
9883.018167299809
 21
5148.761207173611
 31
0.0
  0
DIMENSION
  5
16B45
330
747D
100
AcDbEntity
  8
寸法
 48
50.0
100
AcDbDimension
  2
*D15
 10
10980.01816729979
 20
5866.791543631633
 30
0.0
 11
9825.018167299795
 21
5866.791543631633
 31
0.0
 70
   160
 71
     5
 42
2310.0
  3
INABA_S40G
100
AcDbAlignedDimension
 13
8670.018167299792
 23
5251.17227467372
 33
0.0
 14
10980.01816729979
 24
5251.172274673717
 34
0.0
100
AcDbRotatedDimension
  0
DIMENSION
  5
16B46
330
747D
100
AcDbEntity
  8
寸法
 48
50.0
100
AcDbDimension
  2
*D16
 10
8670.018167299792
 20
5650.265444013188
 30
0.0
 11
8356.532885925545
 21
5650.265444013188
 31
0.0
 70
   160
 71
     5
 42
50.0
  3
INABA_S40G
100
AcDbAlignedDimension
 13
8720.018167299793
 23
5251.17227467372
 33
0.0
 14
8670.018167299792
 24
5251.17227467372
 34
0.0
100
AcDbRotatedDimension
1001
ACAD
1000
DSTYLE
1002
{
1002
}
  0
DIMENSION
  5
16B47
330
747D
100
AcDbEntity
  8
寸法
 48
50.0
100
AcDbDimension
  2
*D17
 10
8720.018167299793
 20
5650.265444013188
 30
0.0
 11
9825.018167299795
 21
5650.265444013188
 31
0.0
 70
   160
  1
柱外寸法<>
 71
     5
 42
2210.0
  3
INABA_S40G
100
AcDbAlignedDimension
 13
10930.01816729979
 23
5251.17227467372
 33
0.0
 14
8720.018167299793
 24
5251.17227467372
 34
0.0
100
AcDbRotatedDimension
  0
LINE
  5
16B48
330
747D
100
AcDbEntity
  8
部品1
 48
50.0
100
AcDbLine
 10
9582.018167299791
 20
4959.172274698481
 30
0.0
 11
9582.018167299791
 21
2926.172274673711
 31
0.0
  0
LINE
  5
16B49
330
747D
100
AcDbEntity
  8
部品1
100
AcDbLine
 10
10236.01815760464
 20
4959.172274710866
 30
0.0
 11
10236.01815760465
 21
2933.67227471088
 31
0.0
  0
LINE
  5
16B4A
330
747D
100
AcDbEntity
  8
細線
100
AcDbLine
 10
9482.018167299793
 20
4959.172274673714
 30
0.0
 11
9482.01816729979
 21
2926.172274673721
 31
0.0
  0
LINE
  5
16B4B
330
747D
100
AcDbEntity
  8
細線
100
AcDbLine
 10
9412.018167299793
 20
4959.172274673714
 30
0.0
 11
9412.018167299789
 21
2926.172274673721
 31
0.0
  0
LINE
  5
16B4C
330
747D
100
AcDbEntity
  8
細線
100
AcDbLine
 10
9342.018167299794
 20
4959.172274673714
 30
0.0
 11
9342.018167299789
 21
2926.172274673718
 31
0.0
  0
LINE
  5
16B4D
330
747D
100
AcDbEntity
  8
細線
100
AcDbLine
 10
9272.018167299794
 20
4959.172274673714
 30
0.0
 11
9272.018167299789
 21
2926.172274673718
 31
0.0
  0
LINE
  5
16B4E
330
747D
100
AcDbEntity
  8
細線
100
AcDbLine
 10
9202.018167299794
 20
4959.172274673714
 30
0.0
 11
9202.018167299788
 21
2926.172274673718
 31
0.0
  0
LINE
  5
16B4F
330
747D
100
AcDbEntity
  8
細線
100
AcDbLine
 10
9132.018167299793
 20
4959.172274673714
 30
0.0
 11
9132.01816729979
 21
2926.172274673718
 31
0.0
  0
LINE
  5
16B50
330
747D
100
AcDbEntity
  8
部品1
100
AcDbLine
 10
8948.018167299791
 20
4959.172274673714
 30
0.0
 11
8948.018167299792
 21
2926.172274673718
 31
0.0
  0
LINE
  5
16B51
330
747D
100
AcDbEntity
  8
部品1
100
AcDbLine
 10
8898.01816729979
 20
4959.172274673714
 30
0.0
 11
8898.018167299794
 21
2926.172274673718
 31
0.0
  0
LINE
  5
16B52
330
747D
100
AcDbEntity
  8
細線
100
AcDbLine
 10
8940.01816729979
 20
4959.172274673714
 30
0.0
 11
8940.018167299793
 21
2926.172274673718
 31
0.0
  0
LINE
  5
16B53
330
747D
100
AcDbEntity
  8
細線
100
AcDbLine
 10
8906.018167299789
 20
4959.172274673714
 30
0.0
 11
8906.018167299793
 21
2926.172274673718
 31
0.0
  0
LINE
  5
16B54
330
747D
100
AcDbEntity
  8
細線
100
AcDbLine
 10
10133.51817705003
 20
4959.172274673714
 30
0.0
 11
10133.51817705003
 21
2933.672274673725
 31
0.0
  0
LINE
  5
16B55
330
747D
100
AcDbEntity
  8
細線
100
AcDbLine
 10
10063.51817705003
 20
4959.172274673714
 30
0.0
 11
10063.51817705003
 21
2933.672274673725
 31
0.0
  0
LINE
  5
16B56
330
747D
100
AcDbEntity
  8
細線
100
AcDbLine
 10
9993.518177050034
 20
4959.172274673714
 30
0.0
 11
9993.518177050034
 21
2933.672274673725
 31
0.0
  0
LINE
  5
16B57
330
747D
100
AcDbEntity
  8
細線
100
AcDbLine
 10
9923.518177050034
 20
4959.172274673714
 30
0.0
 11
9923.518177050034
 21
2933.672274673725
 31
0.0
  0
LINE
  5
16B58
330
747D
100
AcDbEntity
  8
細線
100
AcDbLine
 10
9853.518177050034
 20
4959.172274673714
 30
0.0
 11
9853.518177050034
 21
2933.672274673725
 31
0.0
  0
LINE
  5
16B59
330
747D
100
AcDbEntity
  8
細線
100
AcDbLine
 10
9783.518177050035
 20
4959.172274673714
 30
0.0
 11
9783.518177050035
 21
2933.672274673725
 31
0.0
  0
LINE
  5
16B5A
330
747D
100
AcDbEntity
  8
細線
100
AcDbLine
 10
10708.7681672998
 20
4959.172274673714
 30
0.0
 11
10708.7681672998
 21
2933.672274673732
 31
0.0
  0
LINE
  5
16B5B
330
747D
100
AcDbEntity
  8
細線
100
AcDbLine
 10
10638.76816729979
 20
4959.172274673714
 30
0.0
 11
10638.76816729979
 21
2933.672274673732
 31
0.0
  0
LINE
  5
16B5C
330
747D
100
AcDbEntity
  8
細線
100
AcDbLine
 10
10568.7681672998
 20
4959.172274673714
 30
0.0
 11
10568.7681672998
 21
2933.672274673732
 31
0.0
  0
LINE
  5
16B5D
330
747D
100
AcDbEntity
  8
細線
100
AcDbLine
 10
10498.76816729979
 20
4959.172274673714
 30
0.0
 11
10498.76816729979
 21
2933.672274673732
 31
0.0
  0
LINE
  5
16B5E
330
747D
100
AcDbEntity
  8
細線
100
AcDbLine
 10
10428.7681672998
 20
4959.172274673714
 30
0.0
 11
10428.7681672998
 21
2933.672274673732
 31
0.0
  0
LINE
  5
16B5F
330
747D
100
AcDbEntity
  8
細線
100
AcDbLine
 10
9062.018167299793
 20
4959.172274673714
 30
0.0
 11
9062.01816729979
 21
2926.172274673718
 31
0.0
  0
LINE
  5
16B60
330
747D
100
AcDbEntity
  8
細線
100
AcDbLine
 10
8992.018167299795
 20
4959.172274673714
 30
0.0
 11
8992.018167299789
 21
2926.172274673718
 31
0.0
  0
LINE
  5
16B61
330
747D
100
AcDbEntity
  8
細線
100
AcDbLine
 10
9713.518177050035
 20
4959.172274673714
 30
0.0
 11
9713.518177050035
 21
2933.672274673725
 31
0.0
  0
LINE
  5
16B62
330
747D
100
AcDbEntity
  8
細線
100
AcDbLine
 10
9643.518177050035
 20
4959.172274673714
 30
0.0
 11
9643.518177050035
 21
2933.672274673725
 31
0.0
  0
LINE
  5
16B63
330
747D
100
AcDbEntity
  8
細線
100
AcDbLine
 10
10358.76816729979
 20
4959.172274673714
 30
0.0
 11
10358.76816729979
 21
2933.672274673732
 31
0.0
  0
LINE
  5
16B64
330
747D
100
AcDbEntity
  8
部品1
 48
50.0
100
AcDbLine
 10
10902.01816729979
 20
4967.172274673714
 30
0.0
 11
10872.01816729979
 21
4967.172274673714
 31
0.0
  0
LINE
  5
16B65
330
747D
100
AcDbEntity
  8
細線
 48
50.0
100
AcDbLine
 10
10850.01816729979
 20
2923.172274673714
 30
0.0
 11
10846.01816729979
 21
2933.672274673714
 31
0.0
  0
LINE
  5
16B66
330
747D
100
AcDbEntity
  8
部品1
 48
50.0
100
AcDbLine
 10
10236.01815760465
 20
4959.172274710862
 30
0.0
 11
10236.01815760465
 21
2933.672274710862
 31
0.0
  0
LINE
  5
16B67
330
747D
100
AcDbEntity
  8
部品1
 48
50.0
100
AcDbLine
 10
10902.01816729979
 20
2876.172274673714
 30
0.0
 11
10902.01816729979
 21
5011.172274673715
 31
0.0
  0
LINE
  5
16B68
330
747D
100
AcDbEntity
  8
細線
 48
50.0
100
AcDbLine
 10
10872.01816729979
 20
2876.172274673714
 30
0.0
 11
10872.01816729979
 21
4968.672274673714
 31
0.0
  0
LINE
  5
16B69
330
747D
100
AcDbEntity
  8
部品1
 48
50.0
100
AcDbLine
 10
10863.01816729979
 20
2923.172274673714
 30
0.0
 11
10863.01816729979
 21
4959.172274673714
 31
0.0
  0
LINE
  5
16B6A
330
747D
100
AcDbEntity
  8
部品1
 48
50.0
100
AcDbLine
 10
8778.018167299794
 20
4967.172274673714
 30
0.0
 11
8748.018167299793
 21
4967.172274673714
 31
0.0
  0
LINE
  5
16B6B
330
747D
100
AcDbEntity
  8
部品1
 48
50.0
100
AcDbLine
 10
8787.018167299793
 20
2926.172274673714
 30
0.0
 11
8787.018167299793
 21
2923.172274673714
 31
0.0
  0
LINE
  5
16B6C
330
747D
100
AcDbEntity
  8
部品1
 48
50.0
100
AcDbLine
 10
8778.018167299794
 20
2926.172274673714
 30
0.0
 11
9582.018167299791
 21
2926.172274673711
 31
0.0
  0
LINE
  5
16B6D
330
747D
100
AcDbEntity
  8
部品1
 48
50.0
100
AcDbLine
 10
9582.018167299791
 20
4959.172274698481
 30
0.0
 11
9582.018167299791
 21
2926.172274698482
 31
0.0
  0
LINE
  5
16B6E
330
747D
100
AcDbEntity
  8
部品1
 48
50.0
100
AcDbLine
 10
8748.018167299793
 20
5011.172274673715
 30
0.0
 11
8748.018167299793
 21
2876.172274673714
 31
0.0
  0
LINE
  5
16B6F
330
747D
100
AcDbEntity
  8
細線
 48
50.0
100
AcDbLine
 10
8778.018167299794
 20
4968.672274673714
 30
0.0
 11
8778.018167299794
 21
2876.172274673714
 31
0.0
  0
LINE
  5
16B70
330
747D
100
AcDbEntity
  8
部品1
 48
50.0
100
AcDbLine
 10
8778.018167299794
 20
2926.172274673714
 30
0.0
 11
8778.018167299794
 21
4959.172274673714
 31
0.0
  0
LINE
  5
16B71
330
747D
100
AcDbEntity
  8
細線
 48
50.0
100
AcDbLine
 10
9582.018167299791
 20
2933.672274673714
 30
0.0
 11
10846.01816729979
 21
2933.672274673714
 31
0.0
  0
LINE
  5
16B72
330
747D
100
AcDbEntity
  8
細線
 48
50.0
100
AcDbLine
 10
8778.018167299794
 20
2923.172274673714
 30
0.0
 11
10872.01816729979
 21
2923.172274673714
 31
0.0
  0
LINE
  5
16B73
330
747D
100
AcDbEntity
  8
細線
 48
50.0
100
AcDbLine
 10
8778.018167299794
 20
2919.172274673714
 30
0.0
 11
10872.01816729979
 21
2919.172274673714
 31
0.0
  0
LINE
  5
16B74
330
747D
100
AcDbEntity
  8
部品1
 48
50.0
100
AcDbLine
 10
8748.018167299793
 20
2876.172274673714
 30
0.0
 11
10902.01816729979
 21
2876.172274673714
 31
0.0
  0
LINE
  5
16B75
330
747D
100
AcDbEntity
  8
細線
 48
50.0
100
AcDbLine
 10
10872.01816729979
 20
4968.672274673714
 30
0.0
 11
8778.018167299794
 21
4968.672274673714
 31
0.0
  0
LINE
  5
16B76
330
747D
100
AcDbEntity
  8
細線
 48
50.0
100
AcDbLine
 10
10872.01816729979
 20
4959.172274673714
 30
0.0
 11
8778.018167299794
 21
4959.172274673714
 31
0.0
  0
LINE
  5
16B77
330
747D
100
AcDbEntity
  8
細線
 48
50.0
100
AcDbLine
 10
10902.01816729979
 20
5001.172274673714
 30
0.0
 11
8748.018167299793
 21
5001.172274673714
 31
0.0
  0
LINE
  5
16B78
330
747D
100
AcDbEntity
  8
部品1
 48
50.0
100
AcDbLine
 10
10902.01816729979
 20
5011.172274673715
 30
0.0
 11
8748.018167299793
 21
5011.172274673715
 31
0.0
  0
TEXT
  5
16C46
330
747D
100
AcDbEntity
  8
文字
 62
     7
 48
50.0
100
AcDbText
 10
14491.96323844892
 20
483.8967129911416
 30
0.0
 40
160.0
  1
ＮＸＮ－３０ＨＡ
  7
STYLE2
100
AcDbText
  0
LINE
  5
16C47
330
747D
100
AcDbEntity
  8
部品1
100
AcDbLine
 10
10206.75350041401
 20
1896.856731698755
 30
0.0
 11
9443.282834185572
 21
1896.856731698755
 31
0.0
  0
LINE
  5
16C48
330
747D
100
AcDbEntity
  8
部品1
100
AcDbLine
 10
10206.75350041401
 20
1656.964410153223
 30
0.0
 11
10206.75350041401
 21
1896.856731698755
 31
0.0
  0
LINE
  5
16C49
330
747D
100
AcDbEntity
  8
部品1
100
AcDbLine
 10
9443.282834185572
 20
1656.964410153223
 30
0.0
 11
10206.75350041401
 21
1656.964410153223
 31
0.0
  0
LINE
  5
16C4A
330
747D
100
AcDbEntity
  8
部品1
100
AcDbLine
 10
9443.282834185572
 20
1896.856731698755
 30
0.0
 11
9443.282834185572
 21
1656.964410153223
 31
0.0
  0
LINE
  5
16C4F
330
747D
100
AcDbEntity
  8
部品1
100
AcDbLine
 10
10902.01816729979
 20
2926.172274673734
 30
0.0
 11
10930.01816729979
 21
2926.172274673734
 31
0.0
  0
LINE
  5
16C50
330
747D
100
AcDbEntity
  8
部品1
 48
50.0
100
AcDbLine
 10
10875.01816729979
 20
5011.172274673715
 30
0.0
 11
10875.01816729979
 21
5016.172274673714
 31
0.0
  0
LINE
  5
16C51
330
747D
100
AcDbEntity
  8
部品1
 48
50.0
100
AcDbLine
 10
8775.018167299794
 20
5011.172274673715
 30
0.0
 11
8775.018167299794
 21
5016.172274673714
 31
0.0
  0
DIMENSION
  5
16C52
330
747D
100
AcDbEntity
  8
寸法
 48
50.0
100
AcDbDimension
  2
*D18
 10
8393.893644754063
 20
2934.172274673713
 30
0.0
 11
8393.893644754063
 21
3943.947195572255
 31
0.0
 70
   160
  1
有効開口部高サ<>
 71
     5
 42
2025.000000000001
  3
INABA_S40G
100
AcDbAlignedDimension
 13
8748.018167299793
 23
4959.172274673714
 33
0.0
 14
8748.018167299793
 24
2934.172274673713
 34
0.0
 50
90.0
100
AcDbRotatedDimension
  0
LINE
  5
16CA2
330
747D
100
AcDbEntity
  8
部品1
100
AcDbLine
 10
8720.018167299793
 20
2926.172274673718
 30
0.0
 11
8748.018167299793
 21
2926.172274673718
 31
0.0
  0
TEXT
  5
16CA3
330
747D
100
AcDbEntity
  8
部品1
100
AcDbText
 10
9533.808237923526
 20
1703.963202480232
 30
0.0
 40
135.0
  1
正面図
  7
STYLE2
100
AcDbText
  0
DIMENSION
  5
16CA4
330
747D
100
AcDbEntity
  8
寸法
 48
50.0
100
AcDbDimension
  2
*D19
 10
8620.018167299793
 20
2290.124945373337
 30
0.0
 11
8720.018167299793
 21
2290.124945373337
 31
0.0
 70
   160
 71
     5
 42
200.0000000000018
  3
INABA_S40G
100
AcDbAlignedDimension
 13
8820.018167299796
 23
2576.172274673715
 33
0.0
 14
8620.018167299793
 24
2576.172274673715
 34
0.0
100
AcDbRotatedDimension
  0
LINE
  5
16CA5
330
747D
100
AcDbEntity
  8
破線
 48
5.0
100
AcDbLine
 10
8715.018167299794
 20
2776.172274673714
 30
0.0
 11
8715.018167299794
 21
2621.172274673716
 31
0.0
  0
LINE
  5
16CA6
330
747D
100
AcDbEntity
  8
破線
 48
5.0
100
AcDbLine
 10
10935.01816729979
 20
2776.172274673714
 30
0.0
 11
10935.01816729979
 21
2621.172274673714
 31
0.0
  0
LINE
  5
16CA7
330
747D
100
AcDbEntity
  8
破線
 48
5.0
100
AcDbLine
 10
8820.018167299792
 20
2776.172274673716
 30
0.0
 11
8820.018167299792
 21
2576.172274673715
 31
0.0
  0
LINE
  5
16CA8
330
747D
100
AcDbEntity
  8
破線
 48
5.0
100
AcDbLine
 10
8695.018167299792
 20
2621.172274673716
 30
0.0
 11
8715.018167299795
 21
2621.172274673716
 31
0.0
  0
LINE
  5
16CA9
330
747D
100
AcDbEntity
  8
破線
 48
5.0
100
AcDbLine
 10
8620.018167299793
 20
2776.172274673716
 30
0.0
 11
8620.018167299793
 21
2576.172274673715
 31
0.0
  0
LINE
  5
16CAA
330
747D
100
AcDbEntity
  8
破線
 48
5.0
100
AcDbLine
 10
8620.018167299793
 20
2576.172274673715
 30
0.0
 11
8820.018167299796
 21
2576.172274673715
 31
0.0
  0
LINE
  5
16CAB
330
747D
100
AcDbEntity
  8
部品1
100
AcDbLine
 10
8715.018167299794
 20
2921.172274673716
 30
0.0
 11
8715.018167299794
 21
2776.172274673714
 31
0.0
  0
LINE
  5
16CAC
330
747D
100
AcDbEntity
  8
破線
 48
5.0
100
AcDbLine
 10
10955.01816729979
 20
2621.172274673714
 30
0.0
 11
10935.01816729979
 21
2621.172274673714
 31
0.0
  0
LINE
  5
16CAD
330
747D
100
AcDbEntity
  8
破線
 48
5.0
100
AcDbLine
 10
11030.01816729979
 20
2776.172274673714
 30
0.0
 11
11030.01816729979
 21
2576.172274673713
 31
0.0
  0
LINE
  5
16CAE
330
747D
100
AcDbEntity
  8
破線
 48
5.0
100
AcDbLine
 10
10830.01816729979
 20
2776.172274673714
 30
0.0
 11
10830.01816729979
 21
2576.172274673713
 31
0.0
  0
LINE
  5
16CAF
330
747D
100
AcDbEntity
  8
破線
 48
5.0
100
AcDbLine
 10
11030.01816729979
 20
2576.172274673713
 30
0.0
 11
10830.01816729979
 21
2576.172274673713
 31
0.0
  0
LINE
  5
16CB0
330
747D
100
AcDbEntity
  8
部品1
100
AcDbLine
 10
10935.01816729979
 20
2921.172274673716
 30
0.0
 11
10935.01816729979
 21
2776.172274673714
 31
0.0
  0
LINE
  5
16CB3
330
747D
100
AcDbEntity
  8
部品1
100
AcDbLine
 10
9120.018167299793
 20
2876.172274673714
 30
0.0
 11
9120.018167299793
 21
2776.172274673714
 31
0.0
  0
LINE
  5
16CB4
330
747D
100
AcDbEntity
  8
部品1
100
AcDbLine
 10
10530.01816729979
 20
2876.172274673714
 30
0.0
 11
10530.01816729979
 21
2776.172274673714
 31
0.0
  0
LINE
  5
16CB5
330
747D
100
AcDbEntity
  8
部品1
100
AcDbLine
 10
10930.01816729979
 20
5069.672274673714
 30
0.0
 11
10930.01816729979
 21
2776.172274673714
 31
0.0
  0
LINE
  5
16CB6
330
747D
100
AcDbEntity
  8
部品1
100
AcDbLine
 10
8720.018167299793
 20
5069.672274673714
 30
0.0
 11
8720.018167299793
 21
2776.172274673714
 31
0.0
  0
LINE
  5
16CB7
330
747D
100
AcDbEntity
  8
部品1
100
AcDbLine
 10
8720.018167299793
 20
5016.172274673714
 30
0.0
 11
10930.01816729979
 21
5016.172274673714
 31
0.0
  0
LINE
  5
16CB8
330
747D
100
AcDbEntity
  8
部品1
100
AcDbLine
 10
8720.018167299793
 20
2876.172274673714
 30
0.0
 11
10930.01816729979
 21
2876.172274673714
 31
0.0
  0
LINE
  5
16CB9
330
747D
100
AcDbEntity
  8
Ｇ．Ｌ
100
AcDbLine
 10
3285.143629234982
 20
2776.172274673714
 30
0.0
 11
11579.53072032863
 21
2776.172274673714
 31
0.0
  0
TEXT
  5
16CBE
330
747D
100
AcDbEntity
  8
文字
 62
     7
 48
50.0
100
AcDbText
 10
13209.4053442172
 20
228.543524256902
 30
0.0
 40
100.0
  1
○有効開口寸法 ： 1266×2025(mm)
  7
STYLE2
100
AcDbText
  0
LINE
  5
16F62
330
747D
100
AcDbEntity
  8
補助
  6
PHANTOM
 62
   230
 48
50.0
100
AcDbLine
 10
140.0
 20
0.0
 30
0.0
 11
140.0
 21
11409.6
 31
0.0
  0
LINE
  5
171F4
330
747D
100
AcDbEntity
  8
部品1
 48
50.0
100
AcDbLine
 10
8822.018167299793
 20
4007.672274673716
 30
0.0
 11
8875.018167299794
 21
4007.672274673716
 31
0.0
  0
LINE
  5
179ED
330
747D
100
AcDbEntity
  8
部品1
 48
50.0
100
AcDbLine
 10
10071.01816729978
 20
2876.172274673714
 30
0.0
 11
10071.01816729978
 21
2776.172274673714
 31
0.0
  0
LINE
  5
179EE
330
747D
100
AcDbEntity
  8
部品1
 48
50.0
100
AcDbLine
 10
10271.01816729978
 20
2876.172274673714
 30
0.0
 11
10271.01816729978
 21
2776.172274673714
 31
0.0
  0
LINE
  5
179EF
330
747D
100
AcDbEntity
  8
部品1
 48
50.0
100
AcDbLine
 10
9379.018167299784
 20
2876.172274673714
 30
0.0
 11
9379.018167299784
 21
2776.172274673714
 31
0.0
  0
LINE
  5
179F0
330
747D
100
AcDbEntity
  8
部品1
 48
50.0
100
AcDbLine
 10
9579.018167299784
 20
2876.172274673714
 30
0.0
 11
9579.018167299784
 21
2776.172274673714
 31
0.0
  0
LINE
  5
179F1
330
747D
100
AcDbEntity
  8
破線
 48
10.0
100
AcDbLine
 10
9470.773331382709
 20
8496.061913054278
 30
0.0
 11
8816.27333138266
 21
8496.061913054246
 31
0.0
  0
LINE
  5
179F2
330
747D
100
AcDbEntity
  8
破線
 48
10.0
100
AcDbLine
 10
10211.7733313827
 20
8472.561913054311
 30
0.0
 11
10211.77333138271
 21
9306.061913054438
 31
0.0
  0
LINE
  5
179F3
330
747D
100
AcDbEntity
  8
破線
 48
10.0
100
AcDbLine
 10
10161.77333138271
 20
8472.56191305431
 30
0.0
 11
10161.7733313827
 21
9306.061913054442
 31
0.0
  0
LINE
  5
179F4
330
747D
100
AcDbEntity
  8
破線
 48
10.0
100
AcDbLine
 10
9470.773331382709
 20
8472.561913054276
 30
0.0
 11
9470.773331382705
 21
9306.061913054373
 31
0.0
  0
LINE
  5
179F5
330
747D
100
AcDbEntity
  8
破線
 48
10.0
100
AcDbLine
 10
9520.773331382704
 20
8472.561913054278
 30
0.0
 11
9520.773331382709
 21
9306.061913054376
 31
0.0
  0
LINE
  5
17C0F
330
747D
100
AcDbEntity
  8
部品1
 48
50.0
100
AcDbLine
 10
10891.27333138266
 20
8416.061913054408
 30
0.0
 11
10946.27333138266
 21
8416.061913054413
 31
0.0
  0
LINE
  5
17C10
330
747D
100
AcDbEntity
  8
部品1
 48
50.0
100
AcDbLine
 10
10918.27333138266
 20
8444.061913054376
 30
0.0
 11
8764.273331382666
 21
8444.061913054344
 31
0.0
  0
LINE
  5
17C11
330
747D
100
AcDbEntity
  8
部品1
 48
50.0
100
AcDbLine
 10
8736.273331382683
 20
8416.061913054248
 30
0.0
 11
8791.273331382665
 21
8416.061913054253
 31
0.0
  0
LINE
  5
17C12
330
747D
100
AcDbEntity
  8
部品1
100
AcDbLine
 10
10891.27333138266
 20
8444.061913054376
 30
0.0
 11
10891.27333138266
 21
8416.061913054376
 31
0.0
  0
LINE
  5
17C13
330
747D
100
AcDbEntity
  8
部品1
100
AcDbLine
 10
10891.27333138266
 20
8444.061913054355
 30
0.0
 11
10891.27333138266
 21
8416.061913054354
 31
0.0
  0
LINE
  5
17C14
330
747D
100
AcDbEntity
  8
部品1
100
AcDbLine
 10
8791.273331382665
 20
8444.061913054261
 30
0.0
 11
8791.273331382665
 21
8416.06191305426
 31
0.0
  0
LINE
  5
17C15
330
747D
100
AcDbEntity
  8
部品1
100
AcDbLine
 10
8791.273331382628
 20
8444.061913054227
 30
0.0
 11
8791.273331382631
 21
8416.061913054226
 31
0.0
  0
LINE
  5
17C16
330
747D
100
AcDbEntity
  8
部品1
100
AcDbLine
 10
8764.273331382668
 20
8471.061913054297
 30
0.0
 11
8736.273331382667
 21
8471.061913054297
 31
0.0
  0
LINE
  5
17C17
330
747D
100
AcDbEntity
  8
部品1
100
AcDbLine
 10
10918.27333138269
 20
8471.061913054425
 30
0.0
 11
10946.27333138269
 21
8471.061913054425
 31
0.0
  0
LINE
  5
17C18
330
747D
100
AcDbEntity
  8
部品1
100
AcDbLine
 10
10918.27333138269
 20
8891.061913054423
 30
0.0
 11
10946.27333138269
 21
8891.061913054423
 31
0.0
  0
LINE
  5
17C19
330
747D
100
AcDbEntity
  8
部品1
100
AcDbLine
 10
8764.273331382668
 20
8891.061913054297
 30
0.0
 11
8736.273331382667
 21
8891.061913054297
 31
0.0
  0
LINE
  5
17C1A
330
747D
100
AcDbEntity
  8
部品1
 48
50.0
100
AcDbLine
 10
10889.77333138267
 20
8891.061913054423
 30
0.0
 11
8792.773331382674
 21
8891.061913054512
 31
0.0
  0
LINE
  5
17C1B
330
747D
100
AcDbEntity
  8
部品1
100
AcDbLine
 10
9631.273331382692
 20
9786.061913054442
 30
0.0
 11
9631.273331382692
 21
9758.061913054442
 31
0.0
  0
LINE
  5
17C1C
330
747D
100
AcDbEntity
  8
部品1
100
AcDbLine
 10
9631.273331382692
 20
9786.061913054325
 30
0.0
 11
9631.273331382692
 21
9758.061913054326
 31
0.0
  0
LINE
  5
17C1D
330
747D
100
AcDbEntity
  8
部品1
100
AcDbLine
 10
9631.273331382692
 20
9786.061913054325
 30
0.0
 11
9631.273331382692
 21
9758.061913054326
 31
0.0
  0
LINE
  5
17C1E
330
747D
100
AcDbEntity
  8
部品1
100
AcDbLine
 10
10891.27333138269
 20
9786.061913054421
 30
0.0
 11
10891.27333138269
 21
9758.061913054421
 31
0.0
  0
LINE
  5
17C1F
330
747D
100
AcDbEntity
  8
部品1
100
AcDbLine
 10
10891.27333138269
 20
9786.061913054442
 30
0.0
 11
10891.27333138269
 21
9758.061913054442
 31
0.0
  0
LINE
  5
17C20
330
747D
100
AcDbEntity
  8
部品1
100
AcDbLine
 10
10918.27333138269
 20
9731.061913054425
 30
0.0
 11
10946.27333138269
 21
9731.061913054425
 31
0.0
  0
LINE
  5
17C21
330
747D
100
AcDbEntity
  8
部品1
100
AcDbLine
 10
10918.27333138269
 20
9311.061913054423
 30
0.0
 11
10946.27333138269
 21
9311.061913054423
 31
0.0
  0
LINE
  5
17C22
330
747D
100
AcDbEntity
  8
部品1
100
AcDbLine
 10
10917.77333138269
 20
9756.06191305442
 30
0.0
 11
10917.77333138269
 21
9306.061913054424
 31
0.0
  0
LINE
  5
17C23
330
747D
100
AcDbEntity
  8
部品1
 48
50.0
100
AcDbLine
 10
10889.77333138265
 20
8472.561913054342
 30
0.0
 11
10918.27333138265
 21
8444.061913054344
 31
0.0
  0
LINE
  5
17C24
330
747D
100
AcDbEntity
  8
部品1
100
AcDbLine
 10
10946.27333138269
 20
9786.061913054421
 30
0.0
 11
10946.27333138266
 21
8416.061913054413
 31
0.0
  0
DIMENSION
  5
17C25
330
747D
100
AcDbEntity
  8
寸法
100
AcDbDimension
  2
*D20
 10
11593.6996771171
 20
8471.061913054409
 30
0.0
 11
11593.6996771171
 21
9101.061913054417
 31
0.0
 70
   160
  1
3X420=<>
 71
     5
 42
1260.000000000014
  3
INABA_S40G
100
AcDbAlignedDimension
 13
10946.27333138269
 23
9731.061913054425
 33
0.0
 14
10946.27333138266
 24
8471.061913054409
 34
0.0
 50
90.0
100
AcDbRotatedDimension
1001
ACAD
1000
DSTYLE
1002
{
1002
}
  0
LINE
  5
17C26
330
747D
100
AcDbEntity
  8
部品1
100
AcDbLine
 10
10918.27333138269
 20
9758.061913054421
 30
0.0
 11
10918.27333138266
 21
8444.061913054376
 31
0.0
  0
DIMENSION
  5
17C27
330
747D
100
AcDbEntity
  8
寸法
100
AcDbDimension
  2
*D21
 10
11273.13105724471
 20
9210.844097385534
 30
0.0
 11
11173.13105724471
 21
9435.844097385533
 31
0.0
 70
    32
 71
     5
 42
449.9999999999963
  3
INABA_S40G
100
AcDbAlignedDimension
 13
10917.77333138269
 23
9756.06191305442
 33
0.0
 14
10917.77333138269
 24
9306.061913054424
 34
0.0
 50
90.0
100
AcDbRotatedDimension
1001
ACAD
1000
DSTYLE
1002
{
1002
}
  0
LINE
  5
17C28
330
747D
100
AcDbEntity
  8
部品1
100
AcDbLine
 10
10889.77333138268
 20
9306.061913054424
 30
0.0
 11
10889.77333138266
 21
8472.561913054331
 31
0.0
  0
LINE
  5
17C29
330
747D
100
AcDbEntity
  8
破線
 48
10.0
100
AcDbLine
 10
10866.27333138268
 20
9306.061913054424
 30
0.0
 11
10866.27333138267
 21
8496.06191305434
 31
0.0
  0
LINE
  5
17C2A
330
747D
100
AcDbEntity
  8
部品1
100
AcDbLine
 10
10471.27333138269
 20
9786.061913054442
 30
0.0
 11
10471.27333138269
 21
9758.061913054442
 31
0.0
  0
LINE
  5
17C2B
330
747D
100
AcDbEntity
  8
部品1
100
AcDbLine
 10
10051.27333138269
 20
9786.061913054442
 30
0.0
 11
10051.27333138269
 21
9758.061913054442
 31
0.0
  0
LINE
  5
17C2C
330
747D
100
AcDbEntity
  8
部品1
100
AcDbLine
 10
10038.77333138269
 20
9750.061913054423
 30
0.0
 11
10063.77333138269
 21
9750.061913054429
 31
0.0
  0
LINE
  5
17C2D
330
747D
100
AcDbEntity
  8
部品1
100
AcDbLine
 10
10080.27333138269
 20
9776.061913054427
 30
0.0
 11
10086.27333138269
 21
9776.061913054427
 31
0.0
  0
LINE
  5
17C2E
330
747D
100
AcDbEntity
  8
部品1
100
AcDbLine
 10
10086.27333138269
 20
9776.061913054427
 30
0.0
 11
10086.27333138269
 21
9758.061913054428
 31
0.0
  0
LINE
  5
17C2F
330
747D
100
AcDbEntity
  8
部品1
100
AcDbLine
 10
10016.27333138269
 20
9776.061913054427
 30
0.0
 11
10022.27333138269
 21
9776.061913054427
 31
0.0
  0
LINE
  5
17C30
330
747D
100
AcDbEntity
  8
部品1
100
AcDbLine
 10
10016.27333138269
 20
9776.061913054427
 30
0.0
 11
10016.27333138269
 21
9758.061913054428
 31
0.0
  0
LINE
  5
17C31
330
747D
100
AcDbEntity
  8
部品1
100
AcDbLine
 10
10038.77333138269
 20
9306.061913054431
 30
0.0
 11
10063.77333138269
 21
9306.061913054431
 31
0.0
  0
LINE
  5
17C32
330
747D
100
AcDbEntity
  8
部品1
 48
50.0
100
AcDbLine
 10
10063.77333138269
 20
9758.061913054431
 30
0.0
 11
10063.77333138269
 21
9306.061913054431
 31
0.0
  0
LINE
  5
17C33
330
747D
100
AcDbEntity
  8
部品1
 48
50.0
100
AcDbLine
 10
10038.77333138269
 20
9758.061913054435
 30
0.0
 11
10038.77333138269
 21
9306.061913054431
 31
0.0
  0
LINE
  5
17C34
330
747D
100
AcDbEntity
  8
部品1
 48
50.0
100
AcDbLine
 10
10064.77333138269
 20
9756.061913054423
 30
0.0
 11
10064.77333138269
 21
9306.061913054431
 31
0.0
  0
LINE
  5
17C35
330
747D
100
AcDbEntity
  8
部品1
 48
50.0
100
AcDbLine
 10
10037.77333138269
 20
9756.061913054429
 30
0.0
 11
10037.77333138269
 21
9306.061913054431
 31
0.0
  0
LINE
  5
17C36
330
747D
100
AcDbEntity
  8
部品1
100
AcDbLine
 10
9211.27333138269
 20
9786.061913054442
 30
0.0
 11
9211.27333138269
 21
9758.061913054442
 31
0.0
  0
LINE
  5
17C37
330
747D
100
AcDbEntity
  8
部品1
100
AcDbLine
 10
9211.27333138269
 20
9786.061913054325
 30
0.0
 11
9211.27333138269
 21
9758.061913054326
 31
0.0
  0
LINE
  5
17C38
330
747D
100
AcDbEntity
  8
部品1
100
AcDbLine
 10
9211.27333138269
 20
9786.061913054325
 30
0.0
 11
9211.27333138269
 21
9758.061913054326
 31
0.0
  0
LINE
  5
17C39
330
747D
100
AcDbEntity
  8
部品1
100
AcDbLine
 10
10063.77333138269
 20
9758.06191305444
 30
0.0
 11
10918.27333138269
 21
9758.061913054421
 31
0.0
  0
LINE
  5
17C3A
330
747D
100
AcDbEntity
  8
細線
 48
50.0
100
AcDbLine
 10
10917.77333138269
 20
9306.061913054424
 30
0.0
 11
10064.77333138269
 21
9756.061913054423
 31
0.0
  0
LINE
  5
17C3B
330
747D
100
AcDbEntity
  8
部品1
100
AcDbLine
 10
10064.77333138269
 20
9306.061913054431
 30
0.0
 11
10917.77333138269
 21
9306.061913054424
 31
0.0
  0
LINE
  5
17C3C
330
747D
100
AcDbEntity
  8
部品1
100
AcDbLine
 10
10064.77333138269
 20
9756.061913054429
 30
0.0
 11
10917.77333138269
 21
9756.06191305442
 31
0.0
  0
LINE
  5
17C3D
330
747D
100
AcDbEntity
  8
細線
 48
50.0
100
AcDbLine
 10
10917.77333138269
 20
9756.06191305442
 30
0.0
 11
10064.77333138269
 21
9306.061913054431
 31
0.0
  0
DIMENSION
  5
17C3E
330
747D
100
AcDbEntity
  8
寸法
100
AcDbDimension
  2
*D22
 10
10839.20455782627
 20
9012.839258253455
 30
0.0
 11
10444.12039350095
 21
9012.839258253455
 31
0.0
 70
   160
 71
     5
 42
853.0000000000109
  3
INABA_S40G
100
AcDbAlignedDimension
 13
10064.77333138269
 23
9306.061913054431
 33
0.0
 14
10917.7733313827
 24
9306.061913054424
 34
0.0
100
AcDbRotatedDimension
1001
ACAD
1000
DSTYLE
1002
{
1002
}
  0
LINE
  5
17C3F
330
747D
100
AcDbEntity
  8
破線
 48
10.0
100
AcDbLine
 10
10866.27333138265
 20
8496.06191305434
 30
0.0
 11
10211.77333138271
 21
8496.061913054312
 31
0.0
  0
DIMENSION
  5
17C41
330
747D
100
AcDbEntity
  8
寸法
100
AcDbDimension
  2
*D23
 10
11593.69967711707
 20
8416.061913054413
 30
0.0
 11
11593.69967711707
 21
8038.20044614955
 31
0.0
 70
   160
 71
     5
 42
54.99999999999636
  3
INABA_S40G
100
AcDbAlignedDimension
 13
10946.27333138266
 23
8471.061913054409
 33
0.0
 14
10946.27333138266
 24
8416.061913054413
 34
0.0
 50
90.0
100
AcDbRotatedDimension
1001
ACAD
1000
DSTYLE
1002
{
1002
}
  0
LINE
  5
17C42
330
747D
100
AcDbEntity
  8
部品1
100
AcDbLine
 10
8791.273331382653
 20
9786.061913054293
 30
0.0
 11
8791.273331382658
 21
9758.061913054293
 31
0.0
  0
LINE
  5
17C43
330
747D
100
AcDbEntity
  8
部品1
100
AcDbLine
 10
8791.27333138269
 20
9786.061913054325
 30
0.0
 11
8791.27333138269
 21
9758.061913054326
 31
0.0
  0
LINE
  5
17C44
330
747D
100
AcDbEntity
  8
部品1
100
AcDbLine
 10
8764.273331382659
 20
9731.061913054297
 30
0.0
 11
8736.273331382658
 21
9731.061913054297
 31
0.0
  0
LINE
  5
17C45
330
747D
100
AcDbEntity
  8
部品1
100
AcDbLine
 10
8764.273331382666
 20
9311.061913054297
 30
0.0
 11
8736.273331382665
 21
9311.061913054297
 31
0.0
  0
LINE
  5
17C46
330
747D
100
AcDbEntity
  8
部品1
 48
50.0
100
AcDbLine
 10
8764.77333138269
 20
9756.061913054322
 30
0.0
 11
8764.77333138269
 21
9306.061913054321
 31
0.0
  0
LINE
  5
17C47
330
747D
100
AcDbEntity
  8
部品1
 48
50.0
100
AcDbLine
 10
8792.773331382663
 20
8472.561913054342
 30
0.0
 11
8764.273331382666
 21
8444.061913054344
 31
0.0
  0
LINE
  5
17C48
330
747D
100
AcDbEntity
  8
部品1
100
AcDbLine
 10
8736.273331382653
 20
9786.061913054293
 30
0.0
 11
8736.273331382683
 21
8416.061913054283
 31
0.0
  0
LINE
  5
17C49
330
747D
100
AcDbEntity
  8
部品1
100
AcDbLine
 10
8764.273331382666
 20
8444.061913054344
 30
0.0
 11
8764.273331382691
 21
9758.061913054326
 31
0.0
  0
LINE
  5
17C4A
330
747D
100
AcDbEntity
  8
部品1
100
AcDbLine
 10
8792.773331382667
 20
9306.061913054424
 30
0.0
 11
8792.773331382683
 21
8472.561913054361
 31
0.0
  0
LINE
  5
17C4B
330
747D
100
AcDbEntity
  8
破線
 48
10.0
100
AcDbLine
 10
8816.273331382666
 20
9306.061913054424
 30
0.0
 11
8816.27333138268
 21
8496.061913054246
 31
0.0
  0
LINE
  5
17C4D
330
747D
100
AcDbEntity
  8
部品1
100
AcDbLine
 10
8764.273331382691
 20
9758.061913054326
 30
0.0
 11
10038.77333138268
 21
9758.061913054442
 31
0.0
  0
LINE
  5
17C4E
330
747D
100
AcDbEntity
  8
部品1
100
AcDbLine
 10
8736.27333138269
 20
9786.061913054325
 30
0.0
 11
10946.27333138269
 21
9786.061913054421
 31
0.0
  0
LINE
  5
17C4F
330
747D
100
AcDbEntity
  8
部品1
100
AcDbLine
 10
8764.77333138269
 20
9306.061913054326
 30
0.0
 11
10037.77333138269
 21
9306.061913054431
 31
0.0
  0
LINE
  5
17C50
330
747D
100
AcDbEntity
  8
細線
 48
50.0
100
AcDbLine
 10
10037.77333138269
 20
9756.061913054429
 30
0.0
 11
8764.77333138269
 21
9306.061913054326
 31
0.0
  0
LINE
  5
17C51
330
747D
100
AcDbEntity
  8
部品1
100
AcDbLine
 10
8764.77333138269
 20
9756.061913054326
 30
0.0
 11
10037.77333138269
 21
9756.061913054431
 31
0.0
  0
LINE
  5
17C52
330
747D
100
AcDbEntity
  8
細線
 48
50.0
100
AcDbLine
 10
10037.77333138269
 20
9306.061913054431
 30
0.0
 11
8764.77333138269
 21
9756.061913054326
 31
0.0
  0
DIMENSION
  5
17C53
330
747D
100
AcDbEntity
  8
寸法
100
AcDbDimension
  2
*D24
 10
9959.204557826302
 20
9012.839258253455
 30
0.0
 11
9300.350107959072
 21
9012.839258253455
 31
0.0
 70
   160
 71
     5
 42
1273.000000000011
  3
INABA_S40G
100
AcDbAlignedDimension
 13
8764.77333138269
 23
9306.061913054326
 33
0.0
 14
10037.7733313827
 24
9306.061913054319
 34
0.0
100
AcDbRotatedDimension
1001
ACAD
1000
DSTYLE
1002
{
1002
}
  0
LINE
  5
17C54
330
747D
100
AcDbEntity
  8
破線
 48
10.0
100
AcDbLine
 10
10161.77333138271
 20
8496.061913054308
 30
0.0
 11
9520.773331382704
 21
8496.061913054278
 31
0.0
  0
LINE
  5
17C55
330
747D
100
AcDbEntity
  8
部品1
100
AcDbLine
 10
10889.77333138265
 20
8472.561913054342
 30
0.0
 11
8792.773331382568
 21
8472.561913054246
 31
0.0
  0
DIMENSION
  5
17C56
330
747D
100
AcDbEntity
  8
寸法
100
AcDbDimension
  2
*D25
 10
8791.27333138269
 20
10089.1075076299
 30
0.0
 11
8427.788050008414
 21
10089.1075076299
 31
0.0
 70
   160
 71
     5
 42
55.00000000003637
  3
INABA_S40G
100
AcDbAlignedDimension
 13
8736.273331382653
 23
9786.061913054325
 33
0.0
 14
8791.27333138269
 24
9786.061913054325
 34
0.0
100
AcDbRotatedDimension
1001
ACAD
1000
DSTYLE
1002
{
1002
}
  0
DIMENSION
  5
17C57
330
747D
100
AcDbEntity
  8
寸法
100
AcDbDimension
  2
*D26
 10
11593.6996771171
 20
9731.061913054425
 30
0.0
 11
11593.6996771171
 21
10094.54719442866
 31
0.0
 70
   160
 71
     5
 42
54.99999999999636
  3
INABA_S40G
100
AcDbAlignedDimension
 13
10946.27333138269
 23
9786.061913054421
 33
0.0
 14
10946.27333138269
 24
9731.061913054425
 34
0.0
 50
90.0
100
AcDbRotatedDimension
1001
ACAD
1000
DSTYLE
1002
{
1002
}
  0
DIMENSION
  5
17C58
330
747D
100
AcDbEntity
  8
寸法
100
AcDbDimension
  2
*D27
 10
10946.27333138269
 20
10089.10750763
 30
0.0
 11
11254.75861275693
 21
10089.10750763
 31
0.0
 70
   160
 71
     5
 42
55.0
  3
INABA_S40G
100
AcDbAlignedDimension
 13
10891.27333138269
 23
9786.061913054421
 33
0.0
 14
10946.27333138269
 24
9786.061913054421
 34
0.0
100
AcDbRotatedDimension
1001
ACAD
1000
DSTYLE
1002
{
1002
}
  0
DIMENSION
  5
17C59
330
747D
100
AcDbEntity
  8
寸法
100
AcDbDimension
  2
*D28
 10
10891.27333138269
 20
10089.10750763002
 30
0.0
 11
9841.273331382689
 21
10089.10750763002
 31
0.0
 70
   160
  1
5X420=<>
 71
     5
 42
2100.0
  3
INABA_S40G
100
AcDbAlignedDimension
 13
8791.27333138269
 23
9786.061913054325
 33
0.0
 14
10891.27333138269
 24
9786.061913054421
 34
0.0
100
AcDbRotatedDimension
1001
ACAD
1000
DSTYLE
1002
{
1002
}
  0
DIMENSION
  5
17C5A
330
747D
100
AcDbEntity
  8
寸法
100
AcDbDimension
  2
*D29
 10
11874.44290322316
 20
8416.061913054413
 30
0.0
 11
11874.44290322315
 21
9105.137118577351
 31
0.0
 70
   160
 71
     5
 42
1370.000000000007
  3
INABA_S40G
100
AcDbAlignedDimension
 13
10946.27333138269
 23
9786.061913054421
 33
0.0
 14
10946.27333138266
 24
8416.061913054413
 34
0.0
 50
90.0
100
AcDbRotatedDimension
1001
ACAD
1000
DSTYLE
1002
{
1002
}
  0
LINE
  5
1808D
330
747D
100
AcDbEntity
  8
寸法
 48
50.0
100
AcDbLine
 10
9226.476337664477
 20
8194.098664623091
 30
0.0
 11
9175.070329754374
 21
8194.098664623091
 31
0.0
  0
LINE
  5
1808E
330
747D
100
AcDbEntity
  8
寸法
 48
50.0
100
AcDbLine
 10
9175.070329754374
 20
8194.098664623091
 30
0.0
 11
9175.070329754374
 21
8225.408823275257
 31
0.0
  0
LINE
  5
1808F
330
747D
100
AcDbEntity
  8
寸法
 48
50.0
100
AcDbLine
 10
9175.070329754374
 20
8225.408823275257
 30
0.0
 11
9145.308997762951
 21
8225.408823275257
 31
0.0
  0
LINE
  5
18090
330
747D
100
AcDbEntity
  8
寸法
 48
50.0
100
AcDbLine
 10
9145.308997762951
 20
8225.408823275257
 30
0.0
 11
9200.773333709426
 21
8262.988274203866
 31
0.0
  0
LINE
  5
18091
330
747D
100
AcDbEntity
  8
寸法
 48
50.0
100
AcDbLine
 10
9256.237669655901
 20
8225.408823275257
 30
0.0
 11
9200.773333709426
 21
8262.988274203866
 31
0.0
  0
LINE
  5
18092
330
747D
100
AcDbEntity
  8
寸法
 48
50.0
100
AcDbLine
 10
9226.476337664477
 20
8225.408823275257
 30
0.0
 11
9256.237669655901
 21
8225.408823275257
 31
0.0
  0
LINE
  5
18093
330
747D
100
AcDbEntity
  8
寸法
 48
50.0
100
AcDbLine
 10
9226.476337664477
 20
8194.098664623091
 30
0.0
 11
9226.476337664477
 21
8225.408823275257
 31
0.0
  0
LINE
  5
18094
330
747D
100
AcDbEntity
  8
寸法
 48
50.0
100
AcDbLine
 10
9175.070329754374
 20
8194.098664623091
 30
0.0
 11
9226.476337664477
 21
8194.098664623091
 31
0.0
  0
LINE
  5
18095
330
747D
100
AcDbEntity
  8
寸法
 48
50.0
100
AcDbLine
 10
9505.641871941334
 20
8251.244255377912
 30
0.0
 11
9505.641871941334
 21
8197.580620796122
 31
0.0
  0
LINE
  5
18096
330
747D
100
AcDbEntity
  8
寸法
 48
50.0
100
AcDbLine
 10
9594.926090536755
 20
8227.320621108427
 30
0.0
 11
9505.641871941334
 21
8251.244255377912
 31
0.0
  0
LINE
  5
18097
330
747D
100
AcDbEntity
  8
寸法
 48
50.0
100
AcDbLine
 10
9375.77415036103
 20
8227.320621108427
 30
0.0
 11
9594.926090536755
 21
8227.320621108427
 31
0.0
  0
LINE
  5
18098
330
747D
100
AcDbEntity
  8
細線
 48
50.0
100
AcDbLine
 10
10252.27333138263
 20
8392.562028002952
 30
0.0
 11
10879.27333138263
 21
8392.562028002952
 31
0.0
  0
LINE
  5
18099
330
747D
100
AcDbEntity
  8
細線
 48
50.0
100
AcDbLine
 10
9598.273336036221
 20
8358.853259448876
 30
0.0
 11
10879.27333138263
 21
8358.853259448876
 31
0.0
  0
LINE
  5
1809A
330
747D
100
AcDbEntity
  8
細線
 48
50.0
100
AcDbLine
 10
9557.273336036224
 20
8388.25816744513
 30
0.0
 11
8803.273331382632
 21
8388.258167445128
 31
0.0
  0
LINE
  5
1809B
330
747D
100
AcDbEntity
  8
細線
100
AcDbLine
 10
10655.02332196617
 20
8412.061927967961
 30
0.0
 11
10657.35486148798
 21
8417.061930607923
 31
0.0
  0
LINE
  5
1809C
330
747D
100
AcDbEntity
  8
細線
100
AcDbLine
 10
10725.02333138263
 20
8412.061913054229
 30
0.0
 11
10722.69178490644
 21
8417.061930607907
 31
0.0
  0
LINE
  5
1809D
330
747D
100
AcDbEntity
  8
細線
100
AcDbLine
 10
10722.69178490644
 20
8417.061930607907
 30
0.0
 11
10657.35486148797
 21
8417.061930607893
 31
0.0
  0
LINE
  5
1809E
330
747D
100
AcDbEntity
  8
細線
100
AcDbLine
 10
10582.69178490644
 20
8417.061930607907
 30
0.0
 11
10517.35486148797
 21
8417.061930607893
 31
0.0
  0
LINE
  5
1809F
330
747D
100
AcDbEntity
  8
細線
100
AcDbLine
 10
10585.02333138263
 20
8412.061913054229
 30
0.0
 11
10582.69178490644
 21
8417.061930607907
 31
0.0
  0
LINE
  5
180A0
330
747D
100
AcDbEntity
  8
細線
100
AcDbLine
 10
10515.02332196617
 20
8412.061927967961
 30
0.0
 11
10517.35486148798
 21
8417.061930607923
 31
0.0
  0
LINE
  5
180A1
330
747D
100
AcDbEntity
  8
細線
100
AcDbLine
 10
10375.02333138263
 20
8412.061913054229
 30
0.0
 11
10377.35487090444
 21
8417.061915694189
 31
0.0
  0
LINE
  5
180A2
330
747D
100
AcDbEntity
  8
細線
100
AcDbLine
 10
10445.02334079909
 20
8412.061898140493
 30
0.0
 11
10442.6917943229
 21
8417.061915694175
 31
0.0
  0
LINE
  5
180A3
330
747D
100
AcDbEntity
  8
細線
100
AcDbLine
 10
10442.6917943229
 20
8417.061915694175
 30
0.0
 11
10377.35487090443
 21
8417.06191569416
 31
0.0
  0
LINE
  5
180A4
330
747D
100
AcDbEntity
  8
細線
100
AcDbLine
 10
10147.44181557174
 20
8383.061952391555
 30
0.0
 11
10082.10489215326
 21
8383.061952391541
 31
0.0
  0
LINE
  5
180A5
330
747D
100
AcDbEntity
  8
細線
100
AcDbLine
 10
10149.77336204792
 20
8378.061934837875
 30
0.0
 11
10147.44181557174
 21
8383.061952391555
 31
0.0
  0
LINE
  5
180A6
330
747D
100
AcDbEntity
  8
細線
100
AcDbLine
 10
10079.77335263147
 20
8378.061949751609
 30
0.0
 11
10082.10489215328
 21
8383.061952391569
 31
0.0
  0
LINE
  5
180A7
330
747D
100
AcDbEntity
  8
細線
 48
50.0
100
AcDbLine
 10
9921.156710630647
 20
8396.332776207307
 30
0.0
 11
9926.912228213314
 21
8378.061924916821
 31
0.0
  0
LINE
  5
180A8
330
747D
100
AcDbEntity
  8
細線
 48
50.0
100
AcDbLine
 10
9910.228262150218
 20
8396.332776207307
 30
0.0
 11
9921.156710630647
 21
8396.332776207307
 31
0.0
  0
ARC
  5
180A9
330
747D
100
AcDbEntity
  8
細線
 48
50.0
100
AcDbCircle
 10
9904.773906092895
 20
8397.832776207307
 30
0.0
 40
5.0
100
AcDbArc
 50
204.6243183521304
 51
335.3756816478695
  0
ARC
  5
180AA
330
747D
100
AcDbEntity
  8
細線
 48
50.0
100
AcDbCircle
 10
9910.228262150218
 20
8395.332776207308
 30
0.0
 40
1.0
100
AcDbArc
 50
90.0
 51
155.3756816478695
  0
ARC
  5
180AB
330
747D
100
AcDbEntity
  8
細線
 48
50.0
100
AcDbCircle
 10
9899.319550035579
 20
8395.332776207308
 30
0.0
 40
1.0
100
AcDbArc
 50
24.62431835213048
 51
90.0
  0
LINE
  5
180AC
330
747D
100
AcDbEntity
  8
細線
 48
50.0
100
AcDbLine
 10
9888.391101555146
 20
8396.332776207307
 30
0.0
 11
9899.319550035579
 21
8396.332776207307
 31
0.0
  0
LINE
  5
180AD
330
747D
100
AcDbEntity
  8
細線
 48
50.0
100
AcDbLine
 10
9882.635583972479
 20
8378.061924916814
 30
0.0
 11
9888.391101555146
 21
8396.332776207307
 31
0.0
  0
LINE
  5
180AE
330
747D
100
AcDbEntity
  8
細線
100
AcDbLine
 10
9939.773353862511
 20
8378.061922282618
 30
0.0
 11
9942.104893384325
 21
8383.06192492258
 31
0.0
  0
LINE
  5
180AF
330
747D
100
AcDbEntity
  8
細線
100
AcDbLine
 10
10009.77336327897
 20
8378.061907368886
 30
0.0
 11
10007.44181680278
 21
8383.061924922566
 31
0.0
  0
LINE
  5
180B0
330
747D
100
AcDbEntity
  8
細線
100
AcDbLine
 10
10007.44181680278
 20
8383.061924922566
 30
0.0
 11
9942.104893384309
 21
8383.06192492255
 31
0.0
  0
LINE
  5
180B1
330
747D
100
AcDbEntity
  8
細線
100
AcDbLine
 10
9867.441788438263
 20
8383.061924916786
 30
0.0
 11
9802.104865019789
 21
8383.061924916772
 31
0.0
  0
LINE
  5
180B2
330
747D
100
AcDbEntity
  8
細線
100
AcDbLine
 10
9869.773334914452
 20
8378.061907363104
 30
0.0
 11
9867.441788438263
 21
8383.061924916786
 31
0.0
  0
LINE
  5
180B3
330
747D
100
AcDbEntity
  8
細線
100
AcDbLine
 10
9799.773326729036
 20
8378.061924916814
 30
0.0
 11
9802.104865019803
 21
8383.0619249168
 31
0.0
  0
LINE
  5
180B4
330
747D
100
AcDbEntity
  8
細線
100
AcDbLine
 10
9659.773362047928
 20
8378.061933104183
 30
0.0
 11
9662.104900338695
 21
8383.061933104169
 31
0.0
  0
LINE
  5
180B5
330
747D
100
AcDbEntity
  8
細線
100
AcDbLine
 10
9729.773370233344
 20
8378.061915550473
 30
0.0
 11
9727.441823757155
 21
8383.06193310415
 31
0.0
  0
LINE
  5
180B6
330
747D
100
AcDbEntity
  8
細線
100
AcDbLine
 10
9727.441823757155
 20
8383.06193310415
 30
0.0
 11
9662.104900338681
 21
8383.061933104141
 31
0.0
  0
LINE
  5
180B7
330
747D
100
AcDbEntity
  8
細線
100
AcDbLine
 10
9288.273327850806
 20
8344.062104784896
 30
0.0
 11
9290.604866141574
 21
8349.062104784882
 31
0.0
  0
LINE
  5
180B8
330
747D
100
AcDbEntity
  8
細線
100
AcDbLine
 10
9358.273336036221
 20
8344.062087231183
 30
0.0
 11
9355.941789560034
 21
8349.062104784861
 31
0.0
  0
LINE
  5
180B9
330
747D
100
AcDbEntity
  8
細線
100
AcDbLine
 10
9355.941789560034
 20
8349.062104784861
 30
0.0
 11
9290.604866141562
 21
8349.062104784854
 31
0.0
  0
LINE
  5
180BA
330
747D
100
AcDbEntity
  8
細線
100
AcDbLine
 10
9495.941789560035
 20
8349.062104784861
 30
0.0
 11
9430.604866141562
 21
8349.062104784854
 31
0.0
  0
LINE
  5
180BB
330
747D
100
AcDbEntity
  8
細線
100
AcDbLine
 10
9498.273336036222
 20
8344.062087231183
 30
0.0
 11
9495.941789560035
 21
8349.062104784861
 31
0.0
  0
LINE
  5
180BC
330
747D
100
AcDbEntity
  8
細線
100
AcDbLine
 10
9428.273327850806
 20
8344.062104784896
 30
0.0
 11
9430.604866141573
 21
8349.062104784882
 31
0.0
  0
LINE
  5
180BD
330
747D
100
AcDbEntity
  8
細線
100
AcDbLine
 10
9215.941789560034
 20
8349.062104784861
 30
0.0
 11
9150.604866141563
 21
8349.062104784849
 31
0.0
  0
LINE
  5
180BE
330
747D
100
AcDbEntity
  8
細線
100
AcDbLine
 10
9218.273336036222
 20
8344.062087231183
 30
0.0
 11
9215.941789560034
 21
8349.062104784861
 31
0.0
  0
LINE
  5
180BF
330
747D
100
AcDbEntity
  8
細線
100
AcDbLine
 10
9148.273327850807
 20
8344.062104784892
 30
0.0
 11
9150.604866141573
 21
8349.062104784877
 31
0.0
  0
LINE
  5
180C0
330
747D
100
AcDbEntity
  8
細線
100
AcDbLine
 10
9008.273336036221
 20
8344.062104784896
 30
0.0
 11
9010.60487432699
 21
8349.062104784882
 31
0.0
  0
LINE
  5
180C1
330
747D
100
AcDbEntity
  8
細線
100
AcDbLine
 10
9078.273344221639
 20
8344.062087231183
 30
0.0
 11
9075.94179774545
 21
8349.062104784861
 31
0.0
  0
LINE
  5
180C2
330
747D
100
AcDbEntity
  8
細線
100
AcDbLine
 10
9075.94179774545
 20
8349.062104784861
 30
0.0
 11
9010.604874326977
 21
8349.062104784854
 31
0.0
  0
ARC
  5
180C3
330
747D
100
AcDbEntity
  8
部品1
 48
0.01
100
AcDbCircle
 10
8963.773224783887
 20
8343.060982599823
 30
0.0
 40
0.5
100
AcDbArc
 50
270.0
 51
0.0
  0
LINE
  5
180C4
330
747D
100
AcDbEntity
  8
部品1
 48
0.01
100
AcDbLine
 10
8964.273224783886
 20
8344.060982599824
 30
0.0
 11
8964.273224783886
 21
8343.060982599823
 31
0.0
  0
LINE
  5
180C5
330
747D
100
AcDbEntity
  8
部品1
 48
0.01
100
AcDbLine
 10
8964.273224783886
 20
8344.060982599824
 30
0.0
 11
8964.273224783886
 21
8343.060982599823
 31
0.0
  0
LINE
  5
180C6
330
747D
100
AcDbEntity
  8
部品1
 48
0.01
100
AcDbLine
 10
8963.773224783887
 20
8342.560982599824
 30
0.0
 11
8957.160719353822
 21
8342.560982599824
 31
0.0
  0
ARC
  5
180C7
330
747D
100
AcDbEntity
  8
部品1
100
AcDbCircle
 10
8957.229068906604
 20
8343.560982599823
 30
0.0
 40
1.0
100
AcDbArc
 50
160.5287793655778
 51
270.0
  0
ARC
  5
180C8
330
747D
100
AcDbEntity
  8
部品1
100
AcDbCircle
 10
8931.773224783887
 20
8352.560982599824
 30
0.0
 40
26.0
100
AcDbArc
 50
340.5287793655779
 51
0.0
  0
LINE
  5
180C9
330
747D
100
AcDbEntity
  8
部品1
100
AcDbLine
 10
8957.773224783887
 20
8352.560982599824
 30
0.0
 11
8957.773224783887
 21
8357.560982599824
 31
0.0
  0
ARC
  5
180CA
330
747D
100
AcDbEntity
  8
部品1
 48
0.01
100
AcDbCircle
 10
8955.773224783888
 20
8357.560982599824
 30
0.0
 40
2.0
100
AcDbArc
 50
0.0
 51
90.0
  0
ARC
  5
180CB
330
747D
100
AcDbEntity
  8
部品1
100
AcDbCircle
 10
8954.164833159076
 20
8356.560982599823
 30
0.0
 40
3.0
100
AcDbArc
 50
90.0
 51
141.6069559807873
  0
LINE
  5
180CC
330
747D
100
AcDbEntity
  8
部品1
 48
0.01
100
AcDbLine
 10
8955.773224783888
 20
8359.560982599823
 30
0.0
 11
8954.164833159076
 21
8359.560982599823
 31
0.0
  0
ARC
  5
180CD
330
747D
100
AcDbEntity
  8
部品1
100
AcDbCircle
 10
8935.702510569615
 20
8355.860982599827
 30
0.0
 40
3.0
100
AcDbArc
 50
254.0576313943215
 51
270.0
  0
ARC
  5
180CE
330
747D
100
AcDbEntity
  8
部品1
100
AcDbCircle
 10
8942.843938998157
 20
8355.860982599827
 30
0.0
 40
3.0
100
AcDbArc
 50
270.0
 51
285.9423686056786
  0
LINE
  5
180CF
330
747D
100
AcDbEntity
  8
部品1
100
AcDbLine
 10
8942.843938998157
 20
8352.860982599827
 30
0.0
 11
8935.702510569615
 21
8352.860982599827
 31
0.0
  0
ARC
  5
180D0
330
747D
100
AcDbEntity
  8
部品1
100
AcDbCircle
 10
8939.273224783887
 20
8368.360982599826
 30
0.0
 40
16.0
100
AcDbArc
 50
285.9423686056786
 51
321.6069559807873
  0
LINE
  5
180D1
330
747D
100
AcDbEntity
  8
部品1
 48
0.01
100
AcDbLine
 10
8922.773224783886
 20
8359.560982599823
 30
0.0
 11
8924.381616408696
 21
8359.560982599823
 31
0.0
  0
ARC
  5
180D2
330
747D
100
AcDbEntity
  8
部品1
100
AcDbCircle
 10
8924.381616408696
 20
8356.560982599823
 30
0.0
 40
3.0
100
AcDbArc
 50
38.39304401921267
 51
90.0
  0
ARC
  5
180D3
330
747D
100
AcDbEntity
  8
部品1
100
AcDbCircle
 10
8939.273224783887
 20
8368.360982599826
 30
0.0
 40
16.0
100
AcDbArc
 50
218.3930440192126
 51
254.0576313943215
  0
LINE
  5
180D4
330
747D
100
AcDbEntity
  8
部品1
100
AcDbLine
 10
8920.773224783886
 20
8352.560982599824
 30
0.0
 11
8920.773224783886
 21
8357.560982599824
 31
0.0
  0
ARC
  5
180D5
330
747D
100
AcDbEntity
  8
部品1
 48
0.01
100
AcDbCircle
 10
8922.773224783886
 20
8357.560982599824
 30
0.0
 40
2.0
100
AcDbArc
 50
90.0
 51
180.0
  0
ARC
  5
180D6
330
747D
100
AcDbEntity
  8
部品1
100
AcDbCircle
 10
8946.773224783887
 20
8352.560982599824
 30
0.0
 40
26.0
100
AcDbArc
 50
180.0
 51
199.4712206344221
  0
ARC
  5
180D7
330
747D
100
AcDbEntity
  8
部品1
 48
0.01
100
AcDbCircle
 10
8914.773224783887
 20
8343.060982599823
 30
0.0
 40
0.5
100
AcDbArc
 50
180.0
 51
270.0
  0
LINE
  5
180D8
330
747D
100
AcDbEntity
  8
部品1
 48
0.01
100
AcDbLine
 10
8914.773224783887
 20
8342.560982599824
 30
0.0
 11
8921.31738066117
 21
8342.560982599824
 31
0.0
  0
LINE
  5
180D9
330
747D
100
AcDbEntity
  8
部品1
 48
0.01
100
AcDbLine
 10
8914.273224783887
 20
8344.060982599824
 30
0.0
 11
8914.273224783887
 21
8343.060982599823
 31
0.0
  0
ARC
  5
180DA
330
747D
100
AcDbEntity
  8
部品1
100
AcDbCircle
 10
8921.31738066117
 20
8343.560982599823
 30
0.0
 40
1.0
100
AcDbArc
 50
270.0
 51
19.47122063442214
  0
LINE
  5
180DB
330
747D
100
AcDbEntity
  8
細線
100
AcDbLine
 10
8959.773224783894
 20
8362.060982599826
 30
0.0
 11
8918.773224783894
 21
8362.060982599819
 31
0.0
  0
LINE
  5
180DC
330
747D
100
AcDbEntity
  8
細線
100
AcDbLine
 10
8918.773224783894
 20
8362.060982599819
 30
0.0
 11
8918.773224783894
 21
8344.060982599803
 31
0.0
  0
LINE
  5
180DD
330
747D
100
AcDbEntity
  8
細線
100
AcDbLine
 10
8959.773224783894
 20
8362.060982599826
 30
0.0
 11
8959.773224783894
 21
8344.060982599803
 31
0.0
  0
LINE
  5
180DE
330
747D
100
AcDbEntity
  8
細線
100
AcDbLine
 10
8803.273331382632
 20
8348.061913054229
 30
0.0
 11
8803.273331382632
 21
8344.061913054273
 31
0.0
  0
DIMENSION
  5
180DF
330
747D
100
AcDbEntity
  8
寸法
 48
50.0
100
AcDbDimension
  2
*D30
 10
10069.27333138263
 20
7664.676413126457
 30
0.0
 11
9432.746094920469
 21
7664.676413126457
 31
0.0
 70
   160
  1
有効開口部間口\P<>
 71
     5
 42
1266.0
  3
INABA_S40
100
AcDbAlignedDimension
 13
8803.273331382632
 23
8339.061913054228
 33
0.0
 14
10069.27333138263
 24
8339.061913054228
 34
0.0
100
AcDbRotatedDimension
1001
ACAD
1000
DSTYLE
1002
{
1070
    41
1040
0.5
1070
    44
1040
1.0
1070
   147
1040
0.8
1070
   271
1070
     2
1070
   272
1070
     2
1070
   289
1070
     3
1070
   340
1005
F706
1070
   343
1005
16629
1070
   344
1005
16629
1002
}
  0
LINE
  5
180E0
330
747D
100
AcDbEntity
  8
部品1
100
AcDbLine
 10
10891.27333138263
 20
8416.061913054226
 30
0.0
 11
10918.27333138263
 21
8416.061913054226
 31
0.0
  0
LINE
  5
180E2
330
747D
100
AcDbEntity
  8
部品1
100
AcDbLine
 10
10918.27333138263
 20
8339.061913054228
 30
0.0
 11
10918.27333138263
 21
8416.061913054226
 31
0.0
  0
LINE
  5
180E3
330
747D
100
AcDbEntity
  8
部品1
100
AcDbLine
 10
10879.27333138263
 20
8412.061913054229
 30
0.0
 11
10891.27333138263
 21
8412.061913054229
 31
0.0
  0
LINE
  5
180E4
330
747D
100
AcDbEntity
  8
部品1
100
AcDbLine
 10
10888.27333138263
 20
8348.061913054229
 30
0.0
 11
10888.27333138263
 21
8339.061913054228
 31
0.0
  0
LINE
  5
180E5
330
747D
100
AcDbEntity
  8
部品1
100
AcDbLine
 10
10879.27333138263
 20
8348.061913054229
 30
0.0
 11
10888.27333138263
 21
8348.061913054229
 31
0.0
  0
LINE
  5
180E6
330
747D
100
AcDbEntity
  8
部品1
100
AcDbLine
 10
10879.27333138263
 20
8412.061913054229
 30
0.0
 11
10879.27333138263
 21
8348.061913054229
 31
0.0
  0
LINE
  5
180E7
330
747D
100
AcDbEntity
  8
部品1
100
AcDbLine
 10
10891.27333138263
 20
8443.061913054227
 30
0.0
 11
10891.27333138263
 21
8412.061913054229
 31
0.0
  0
LINE
  5
180E8
330
747D
100
AcDbEntity
  8
部品1
100
AcDbLine
 10
8803.273331382632
 20
8412.061913054229
 30
0.0
 11
8791.273331382631
 21
8412.061913054229
 31
0.0
  0
LINE
  5
180E9
330
747D
100
AcDbEntity
  8
部品1
100
AcDbLine
 10
8764.273331382632
 20
8416.061913054226
 30
0.0
 11
8791.273331382631
 21
8416.061913054226
 31
0.0
  0
LINE
  5
180EA
330
747D
100
AcDbEntity
  8
部品1
100
AcDbLine
 10
8794.273331382632
 20
8348.061913054229
 30
0.0
 11
8794.273331382632
 21
8339.061913054228
 31
0.0
  0
LINE
  5
180EB
330
747D
100
AcDbEntity
  8
部品1
100
AcDbLine
 10
8803.273331382632
 20
8348.061913054229
 30
0.0
 11
8794.273331382632
 21
8348.061913054229
 31
0.0
  0
LINE
  5
180EC
330
747D
100
AcDbEntity
  8
部品1
100
AcDbLine
 10
8794.273331382632
 20
8339.061913054228
 30
0.0
 11
8764.273331382632
 21
8339.061913054228
 31
0.0
  0
LINE
  5
180ED
330
747D
100
AcDbEntity
  8
部品1
100
AcDbLine
 10
8764.273331382632
 20
8339.061913054228
 30
0.0
 11
8764.273331382632
 21
8416.061913054226
 31
0.0
  0
LINE
  5
180EE
330
747D
100
AcDbEntity
  8
部品1
100
AcDbLine
 10
8803.273331382632
 20
8412.061913054229
 30
0.0
 11
8803.273331382632
 21
8348.061913054229
 31
0.0
  0
LINE
  5
180EF
330
747D
100
AcDbEntity
  8
部品1
100
AcDbLine
 10
8791.273331382631
 20
8443.061913054224
 30
0.0
 11
8791.273331382631
 21
8412.061913054229
 31
0.0
  0
LINE
  5
180F0
330
747D
100
AcDbEntity
  8
部品1
100
AcDbLine
 10
8791.273331382631
 20
8443.061913054224
 30
0.0
 11
10891.27333138263
 21
8443.061913054227
 31
0.0
  0
LINE
  5
180F1
330
747D
100
AcDbEntity
  8
部品1
100
AcDbLine
 10
10888.27333138263
 20
8339.061913054228
 30
0.0
 11
10918.27333138263
 21
8339.061913054228
 31
0.0
  0
LINE
  5
180F2
330
747D
100
AcDbEntity
  8
部品1
100
AcDbLine
 10
8794.273331382632
 20
8339.061913054228
 30
0.0
 11
10891.27333138263
 21
8339.061913054228
 31
0.0
  0
LINE
  5
180F3
330
747D
100
AcDbEntity
  8
細線
  6
Continuous
 62
     5
100
AcDbLine
 10
10170.27333138263
 20
8378.061913054223
 30
0.0
 11
10170.27333138263
 21
8378.061913054223
 31
0.0
  0
LINE
  5
180F4
330
747D
100
AcDbEntity
  8
細線
  6
Continuous
 62
     5
100
AcDbLine
 10
10162.77336670152
 20
8378.061922975282
 30
0.0
 11
10162.77336670152
 21
8378.061922975282
 31
0.0
  0
LINE
  5
180F5
330
747D
100
AcDbEntity
  8
細線
  6
Continuous
 62
     5
100
AcDbLine
 10
10156.77336670153
 20
8378.061922975282
 30
0.0
 11
10156.77336670153
 21
8378.061922975282
 31
0.0
  0
LINE
  5
180F6
330
747D
100
AcDbEntity
  8
細線
  6
Continuous
 62
     5
100
AcDbLine
 10
10224.27333138263
 20
8397.061913054223
 30
0.0
 11
10224.27333138263
 21
8397.061913054223
 31
0.0
  0
LINE
  5
180F7
330
747D
100
AcDbEntity
  8
細線
 48
50.0
100
AcDbLine
 10
8817.273336036226
 20
8364.662087231181
 30
0.0
 11
8817.273336036226
 21
8373.05823763882
 31
0.0
  0
LINE
  5
180F8
330
747D
100
AcDbEntity
  8
細線
 48
50.0
100
AcDbLine
 10
8817.273336036226
 20
8373.05823763882
 30
0.0
 11
8803.273331382632
 21
8373.058237638817
 31
0.0
  0
LINE
  5
180F9
330
747D
100
AcDbEntity
  8
細線
 48
50.0
100
AcDbLine
 10
9568.273336036222
 20
8361.21208723118
 30
0.0
 11
9568.273336036222
 21
8366.062087231183
 31
0.0
  0
LINE
  5
180FA
330
747D
100
AcDbEntity
  8
細線
 48
50.0
100
AcDbLine
 10
9568.273336036222
 20
8366.062087231183
 30
0.0
 11
9583.273336036223
 21
8366.062087231183
 31
0.0
  0
LINE
  5
180FB
330
747D
100
AcDbEntity
  8
細線
 48
50.0
100
AcDbLine
 10
9583.273336036223
 20
8366.062087231183
 30
0.0
 11
9583.273336036226
 21
8373.062087231183
 31
0.0
  0
LINE
  5
180FC
330
747D
100
AcDbEntity
  8
細線
 48
50.0
100
AcDbLine
 10
9583.273336036226
 20
8373.062087231183
 30
0.0
 11
9598.273336036221
 21
8373.062087231183
 31
0.0
  0
LINE
  5
180FD
330
747D
100
AcDbEntity
  8
細線
 48
50.0
100
AcDbLine
 10
9598.273336036221
 20
8373.062087231183
 30
0.0
 11
9598.273336036221
 21
8344.062087231183
 31
0.0
  0
LINE
  5
180FE
330
747D
100
AcDbEntity
  8
細線
 48
50.0
100
AcDbLine
 10
8794.273331382632
 20
8344.059421574652
 30
0.0
 11
9008.273336036221
 21
8344.062104784896
 31
0.0
  0
LINE
  5
180FF
330
747D
100
AcDbEntity
  8
細線
 48
50.0
100
AcDbLine
 10
9498.273336036222
 20
8344.062087231183
 30
0.0
 11
9598.273336036221
 21
8344.062087231183
 31
0.0
  0
LINE
  5
18100
330
747D
100
AcDbEntity
  8
細線
 48
50.0
100
AcDbLine
 10
9218.273336036222
 20
8344.062087231183
 30
0.0
 11
9288.273336036223
 21
8344.062087231183
 31
0.0
  0
LINE
  5
18101
330
747D
100
AcDbEntity
  8
細線
 48
50.0
100
AcDbLine
 10
9231.13530104875
 20
8344.062087231183
 30
0.0
 11
9236.890818631419
 21
8362.332938521676
 31
0.0
  0
LINE
  5
18102
330
747D
100
AcDbEntity
  8
細線
 48
50.0
100
AcDbLine
 10
9236.890818631419
 20
8362.332938521676
 30
0.0
 11
9247.819267111852
 21
8362.332938521673
 31
0.0
  0
ARC
  5
18103
330
747D
100
AcDbEntity
  8
細線
 48
50.0
100
AcDbCircle
 10
9247.819267111852
 20
8361.332938521673
 30
0.0
 40
1.0
100
AcDbArc
 50
24.62431835213048
 51
90.0
  0
ARC
  5
18104
330
747D
100
AcDbEntity
  8
細線
 48
50.0
100
AcDbCircle
 10
9258.727979226485
 20
8361.332938521673
 30
0.0
 40
1.0
100
AcDbArc
 50
90.0
 51
155.3756816478695
  0
ARC
  5
18105
330
747D
100
AcDbEntity
  8
細線
 48
50.0
100
AcDbCircle
 10
9253.273623169167
 20
8363.832938521673
 30
0.0
 40
5.0
100
AcDbArc
 50
204.6243183521304
 51
335.3756816478695
  0
LINE
  5
18106
330
747D
100
AcDbEntity
  8
細線
 48
50.0
100
AcDbLine
 10
9258.727979226485
 20
8362.332938521673
 30
0.0
 11
9269.656427706919
 21
8362.332938521676
 31
0.0
  0
LINE
  5
18107
330
747D
100
AcDbEntity
  8
細線
 48
50.0
100
AcDbLine
 10
9269.656427706919
 20
8362.332938521676
 30
0.0
 11
9275.411945289587
 21
8344.062087231183
 31
0.0
  0
LINE
  5
18108
330
747D
100
AcDbEntity
  8
細線
 48
50.0
100
AcDbLine
 10
9568.273336036222
 20
8364.662087231181
 30
0.0
 11
8817.273336036226
 21
8364.662087231181
 31
0.0
  0
LINE
  5
18109
330
747D
100
AcDbEntity
  8
細線
 48
50.0
100
AcDbLine
 10
9428.273336036221
 20
8344.062087231183
 30
0.0
 11
9358.273336036221
 21
8344.062087231183
 31
0.0
  0
LINE
  5
1810A
330
747D
100
AcDbEntity
  8
細線
100
AcDbLine
 10
9148.273336036222
 20
8344.062087231183
 30
0.0
 11
9078.273344221639
 21
8344.062087231183
 31
0.0
  0
LINE
  5
1810B
330
747D
100
AcDbEntity
  8
細線
 48
50.0
100
AcDbLine
 10
10222.27332672904
 20
8398.66213108905
 30
0.0
 11
9587.273336036222
 21
8398.662131089045
 31
0.0
  0
LINE
  5
1810C
330
747D
100
AcDbEntity
  8
細線
 48
50.0
100
AcDbLine
 10
9587.273336036222
 20
8395.558281496688
 30
0.0
 11
9587.273336036222
 21
8400.058281496688
 31
0.0
  0
LINE
  5
1810D
330
747D
100
AcDbEntity
  8
細線
 48
50.0
100
AcDbLine
 10
9587.273336036222
 20
8400.058281496688
 30
0.0
 11
9572.273336036221
 21
8400.058281496688
 31
0.0
  0
LINE
  5
1810E
330
747D
100
AcDbEntity
  8
細線
 48
50.0
100
AcDbLine
 10
9572.273336036221
 20
8400.058281496688
 30
0.0
 11
9572.273336036221
 21
8407.05828149669
 31
0.0
  0
LINE
  5
1810F
330
747D
100
AcDbEntity
  8
細線
 48
50.0
100
AcDbLine
 10
9572.273336036221
 20
8407.05828149669
 30
0.0
 11
9557.273336036224
 21
8407.058281496686
 31
0.0
  0
LINE
  5
18110
330
747D
100
AcDbEntity
  8
細線
 48
50.0
100
AcDbLine
 10
9557.273336036224
 20
8407.058281496686
 30
0.0
 11
9557.273336036224
 21
8369.458053393575
 31
0.0
  0
LINE
  5
18111
330
747D
100
AcDbEntity
  8
細線
 48
50.0
100
AcDbLine
 10
9557.273336036224
 20
8369.458053393575
 30
0.0
 11
9577.273343337399
 21
8369.458094943118
 31
0.0
  0
LINE
  5
18112
330
747D
100
AcDbEntity
  8
細線
 48
50.0
100
AcDbLine
 10
9577.273298468455
 20
8378.061556578925
 30
0.0
 11
9577.273343337399
 21
8369.458094943118
 31
0.0
  0
LINE
  5
18113
330
747D
100
AcDbEntity
  8
細線
 48
50.0
100
AcDbLine
 10
10222.27332672904
 20
8395.212131089049
 30
0.0
 11
10222.27332672904
 21
8400.062131089049
 31
0.0
  0
LINE
  5
18114
330
747D
100
AcDbEntity
  8
細線
 48
50.0
100
AcDbLine
 10
10222.27332672904
 20
8400.062131089049
 30
0.0
 11
10237.27332672904
 21
8400.062131089049
 31
0.0
  0
LINE
  5
18115
330
747D
100
AcDbEntity
  8
細線
 48
50.0
100
AcDbLine
 10
10237.27332672904
 20
8400.062131089049
 30
0.0
 11
10237.27333836302
 21
8407.062131089091
 31
0.0
  0
LINE
  5
18116
330
747D
100
AcDbEntity
  8
細線
 48
50.0
100
AcDbLine
 10
10237.27333836302
 20
8407.062131089091
 30
0.0
 11
10252.27333653355
 21
8407.062131089091
 31
0.0
  0
LINE
  5
18117
330
747D
100
AcDbEntity
  8
細線
 48
50.0
100
AcDbLine
 10
10252.27333653355
 20
8407.062131089091
 30
0.0
 11
10252.27332623172
 21
8378.061924916819
 31
0.0
  0
LINE
  5
18118
330
747D
100
AcDbEntity
  8
細線
 48
50.0
100
AcDbLine
 10
9939.773353862511
 20
8378.061933104183
 30
0.0
 11
9869.773605944928
 21
8378.061927666847
 31
0.0
  0
LINE
  5
18119
330
747D
100
AcDbEntity
  8
細線
 48
50.0
100
AcDbLine
 10
9577.273298468455
 20
8378.061556578925
 30
0.0
 11
9588.505987823166
 21
8378.061739532071
 31
0.0
  0
ARC
  5
1811A
330
747D
100
AcDbEntity
  8
細線
 48
50.0
100
AcDbCircle
 10
9595.088280130502
 20
8376.861903445684
 30
0.0
 40
1.8
100
AcDbArc
 50
270.0006665777295
 51
345.0005554812987
  0
LINE
  5
1811B
330
747D
100
AcDbEntity
  8
細線
 48
50.0
100
AcDbLine
 10
9597.074713576581
 20
8377.320743902963
 30
0.0
 11
9596.826951134381
 21
8376.396046020856
 31
0.0
  0
LINE
  5
1811C
330
747D
100
AcDbEntity
  8
細線
 48
50.0
100
AcDbLine
 10
9595.088301071656
 20
8375.061903445805
 30
0.0
 11
9591.458373652889
 21
8375.061861215325
 31
0.0
  0
ARC
  5
1811D
330
747D
100
AcDbEntity
  8
細線
 48
50.0
100
AcDbCircle
 10
9591.458352711736
 20
8376.861861215203
 30
0.0
 40
1.8
100
AcDbArc
 50
195.0010443049394
 51
270.0006665777295
  0
LINE
  5
1811E
330
747D
100
AcDbEntity
  8
細線
 48
50.0
100
AcDbLine
 10
9589.471925219477
 20
8377.320576182768
 30
0.0
 11
9589.71969471599
 21
8376.395955244186
 31
0.0
  0
ARC
  5
1811F
330
747D
100
AcDbEntity
  8
細線
 48
50.0
100
AcDbCircle
 10
9588.506004110728
 20
8377.061739532207
 30
0.0
 40
1.0
100
AcDbArc
 50
15.00104430493943
 51
90.00093320877969
  0
LINE
  5
18120
330
747D
100
AcDbEntity
  8
細線
 48
50.0
100
AcDbLine
 10
9598.040634931683
 20
8378.061934222477
 30
0.0
 11
9598.98239508259
 21
8378.061940796326
 31
0.0
  0
ARC
  5
18121
330
747D
100
AcDbEntity
  8
細線
 48
50.0
100
AcDbCircle
 10
9598.040641912069
 20
8377.061934222501
 30
0.0
 40
1.0
100
AcDbArc
 50
90.0003999466794
 51
165.0005554812987
  0
LINE
  5
18122
330
747D
100
AcDbEntity
  8
細線
 48
50.0
100
AcDbLine
 10
10149.77332672903
 20
8378.061924916819
 30
0.0
 11
10252.27332623172
 21
8378.061924916819
 31
0.0
  0
LINE
  5
18123
330
747D
100
AcDbEntity
  8
細線
 48
50.0
100
AcDbLine
 10
9659.773362047928
 20
8378.061933104183
 30
0.0
 11
9598.673300821007
 21
8378.061940796326
 31
0.0
  0
LINE
  5
18124
330
747D
100
AcDbEntity
  8
細線
 48
50.0
100
AcDbLine
 10
10079.77336204793
 20
8378.061969945267
 30
0.0
 11
10009.77335509354
 21
8378.061924922597
 31
0.0
  0
LINE
  5
18125
330
747D
100
AcDbEntity
  8
細線
 48
50.0
100
AcDbLine
 10
9799.773326729036
 20
8378.061924916814
 30
0.0
 11
9729.77330944116
 21
8378.061924916821
 31
0.0
  0
ARC
  5
18126
330
747D
100
AcDbEntity
  8
細線
 48
50.0
100
AcDbCircle
 10
10236.47333138264
 20
8411.261913054229
 30
0.0
 40
0.8
100
AcDbArc
 50
359.9997333689499
 51
89.99986668437072
  0
ARC
  5
18127
330
747D
100
AcDbEntity
  8
細線
 48
50.0
100
AcDbCircle
 10
10244.07333820773
 20
8411.261924222845
 30
0.0
 40
0.8
100
AcDbArc
 50
90.00014387753465
 51
179.9997333689498
  0
LINE
  5
18128
330
747D
100
AcDbEntity
  8
細線
 48
50.0
100
AcDbLine
 10
10236.47333324408
 20
8412.061913054229
 30
0.0
 11
10231.27333138263
 21
8412.061913054229
 31
0.0
  0
ARC
  5
18129
330
747D
100
AcDbEntity
  8
細線
 48
50.0
100
AcDbCircle
 10
10237.97333138263
 20
8409.761913054229
 30
0.0
 40
0.7
100
AcDbArc
 50
180.0
 51
270.0
  0
ARC
  5
1812A
330
747D
100
AcDbEntity
  8
細線
 48
50.0
100
AcDbCircle
 10
10242.57333138263
 20
8409.761913054229
 30
0.0
 40
0.7
100
AcDbArc
 50
270.0
 51
0.0
  0
LINE
  5
1812B
330
747D
100
AcDbEntity
  8
細線
 48
50.0
100
AcDbLine
 10
10243.27333138263
 20
8409.761913054229
 30
0.0
 11
10243.27333820775
 21
8411.261927945716
 31
0.0
  0
LINE
  5
1812C
330
747D
100
AcDbEntity
  8
細線
 48
50.0
100
AcDbLine
 10
10237.97333138263
 20
8409.061913054229
 30
0.0
 11
10242.57333138263
 21
8409.061913054229
 31
0.0
  0
LINE
  5
1812D
330
747D
100
AcDbEntity
  8
細線
 48
50.0
100
AcDbLine
 10
10237.27333138263
 20
8411.261913054229
 30
0.0
 11
10237.27333138263
 21
8409.761913054229
 31
0.0
  0
LINE
  5
1812E
330
747D
100
AcDbEntity
  8
細線
 48
50.0
100
AcDbLine
 10
10862.87333138264
 20
8442.061913054228
 30
0.0
 11
10226.27333138263
 21
8442.061913054223
 31
0.0
  0
LINE
  5
1812F
330
747D
100
AcDbEntity
  8
細線
 48
50.0
100
AcDbLine
 10
10888.77333138263
 20
8437.061913054231
 30
0.0
 11
10872.87333138263
 21
8437.061913054227
 31
0.0
  0
LINE
  5
18130
330
747D
100
AcDbEntity
  8
細線
 48
50.0
100
AcDbLine
 10
10872.87333138263
 20
8437.061913054227
 30
0.0
 11
10862.87333138264
 21
8442.061913054228
 31
0.0
  0
LINE
  5
18131
330
747D
100
AcDbEntity
  8
細線
100
AcDbLine
 10
10473.77333138263
 20
8412.061913054229
 30
0.0
 11
10473.77333138263
 21
8441.361913054228
 31
0.0
  0
LINE
  5
18132
330
747D
100
AcDbEntity
  8
細線
100
AcDbLine
 10
10473.77333138263
 20
8441.361913054228
 30
0.0
 11
10493.77333138263
 21
8441.361913054228
 31
0.0
  0
LINE
  5
18133
330
747D
100
AcDbEntity
  8
細線
100
AcDbLine
 10
10493.77333138263
 20
8412.061913054229
 30
0.0
 11
10493.77333138263
 21
8441.361913054228
 31
0.0
  0
LINE
  5
18134
330
747D
100
AcDbEntity
  8
細線
100
AcDbLine
 10
10655.02333138263
 20
8412.061913054229
 30
0.0
 11
10585.02333138263
 21
8412.061913054229
 31
0.0
  0
LINE
  5
18135
330
747D
100
AcDbEntity
  8
細線
 48
50.0
100
AcDbLine
 10
10375.02333138263
 20
8412.061913054229
 30
0.0
 11
10244.06911095547
 21
8412.061913054229
 31
0.0
  0
LINE
  5
18136
330
747D
100
AcDbEntity
  8
細線
100
AcDbLine
 10
10515.02333138263
 20
8412.061913054229
 30
0.0
 11
10445.02333138263
 21
8412.061913054229
 31
0.0
  0
LINE
  5
18137
330
747D
100
AcDbEntity
  8
細線
 48
50.0
100
AcDbLine
 10
10231.27333138263
 20
8404.061913054226
 30
0.0
 11
10231.27333138263
 21
8412.061913054229
 31
0.0
  0
LINE
  5
18138
330
747D
100
AcDbEntity
  8
細線
 48
50.0
100
AcDbLine
 10
10211.27333138263
 20
8404.061913054231
 30
0.0
 11
10231.27333138263
 21
8404.061913054226
 31
0.0
  0
LINE
  5
18139
330
747D
100
AcDbEntity
  8
細線
 48
50.0
100
AcDbLine
 10
10226.27333138263
 20
8442.061913054228
 30
0.0
 11
10226.27333138263
 21
8437.061913054227
 31
0.0
  0
LINE
  5
1813A
330
747D
100
AcDbEntity
  8
細線
 48
50.0
100
AcDbLine
 10
10211.27333138263
 20
8442.061913054223
 30
0.0
 11
10226.27333138263
 21
8442.061913054228
 31
0.0
  0
LINE
  5
1813B
330
747D
100
AcDbEntity
  8
細線
 48
50.0
100
AcDbLine
 10
10211.27333138263
 20
8404.061913054231
 30
0.0
 11
10211.27333138263
 21
8442.061913054223
 31
0.0
  0
LINE
  5
1813C
330
747D
100
AcDbEntity
  8
細線
100
AcDbLine
 10
10879.27333138263
 20
8412.061913054229
 30
0.0
 11
10725.02333138263
 21
8412.061913054229
 31
0.0
  0
LINE
  5
1813D
330
747D
100
AcDbEntity
  8
細線
 48
50.0
100
AcDbLine
 10
10888.77333138263
 20
8437.061913054231
 30
0.0
 11
10888.77333138263
 21
8412.061913054229
 31
0.0
  0
DIMENSION
  5
18370
330
747D
100
AcDbEntity
  8
寸法
 48
50.0
100
AcDbDimension
  2
*D31
 10
10918.27333138263
 20
7374.38871753383
 30
0.0
 11
9841.273331382632
 21
7474.400528557452
 31
0.0
 70
    32
 71
     5
 42
2154.0
  3
INABA_S40G
100
AcDbAlignedDimension
 13
8764.273331382632
 23
8339.061913054228
 33
0.0
 14
10918.27333138263
 24
8339.061913054228
 34
0.0
100
AcDbRotatedDimension
1001
ACAD
1000
DSTYLE
1002
{
1070
   341
1005
0
1002
}
  0
DIMENSION
  5
18371
330
747D
100
AcDbEntity
  8
寸法
100
AcDbDimension
  2
*D32
 10
8441.662085755966
 20
8341.061913054282
 30
0.0
 11
8441.662085755964
 21
8200.576631680043
 31
0.0
 70
   160
 71
     5
 42
75.0
  3
INABA_S40
100
AcDbAlignedDimension
 13
8736.273331382683
 23
8416.061913054283
 33
0.0
 14
8764.273331382661
 24
8341.061913054282
 34
0.0
 50
90.0
100
AcDbRotatedDimension
1001
ACAD
1000
DSTYLE
1002
{
1070
    41
1040
0.5
1070
    44
1040
1.0
1070
   147
1040
0.8
1070
   271
1070
     2
1070
   272
1070
     2
1070
   289
1070
     3
1070
   340
1005
F706
1070
   343
1005
16629
1070
   344
1005
16629
1002
}
  0
LINE
  5
18429
330
747D
100
AcDbEntity
  8
部品1
100
AcDbLine
 10
10223.00866449689
 20
6740.559694257481
 30
0.0
 11
9459.53799826846
 21
6740.559694257481
 31
0.0
  0
LINE
  5
1842A
330
747D
100
AcDbEntity
  8
部品1
100
AcDbLine
 10
10223.00866449689
 20
6500.667372711949
 30
0.0
 11
10223.00866449689
 21
6740.559694257481
 31
0.0
  0
LINE
  5
1842B
330
747D
100
AcDbEntity
  8
部品1
100
AcDbLine
 10
9459.53799826846
 20
6500.667372711949
 30
0.0
 11
10223.00866449689
 21
6500.667372711949
 31
0.0
  0
LINE
  5
1842C
330
747D
100
AcDbEntity
  8
部品1
100
AcDbLine
 10
9459.53799826846
 20
6740.559694257481
 30
0.0
 11
9459.53799826846
 21
6500.667372711949
 31
0.0
  0
TEXT
  5
1845E
330
747D
100
AcDbEntity
  8
部品1
100
AcDbText
 10
9549.457608097497
 20
6547.666165038958
 30
0.0
 40
135.0
  1
平面図
  7
STYLE2
100
AcDbText
  0
DIMENSION
  5
1846A
330
747D
100
AcDbEntity
  8
寸法
100
AcDbDimension
  2
*D33
 10
10946.27333138266
 20
7112.03558752735
 30
0.0
 11
9839.854762591109
 21
7112.03558752735
 31
0.0
 70
   160
 71
     5
 42
2209.999999999982
  3
INABA_S40G
100
AcDbAlignedDimension
 13
8736.273331382683
 23
8416.061913054248
 33
0.0
 14
10946.27333138266
 24
8416.061913054376
 34
0.0
100
AcDbRotatedDimension
1001
ACAD
1000
DSTYLE
1002
{
1002
}
  0
LWPOLYLINE
  5
186A4
330
747D
100
AcDbEntity
  8
部品1
 48
50.0
100
AcDbPolyline
 90
        4
 70
     1
 43
0.0
 10
8847.068167299793
 20
3922.422274673716
 10
8849.968167299794
 20
3922.422274673716
 10
8849.968167299794
 20
3931.922274673716
 10
8847.068167299793
 20
3931.922274673716
  0
CIRCLE
  5
186A5
330
747D
100
AcDbEntity
  8
部品1
 48
50.0
100
AcDbCircle
 10
8848.518167299793
 20
3927.172274673716
 30
0.0
 40
9.0
  0
ARC
  5
186A6
330
747D
100
AcDbEntity
  8
細線
 48
50.0
100
AcDbCircle
 10
8848.518167299793
 20
3927.172274673716
 30
0.0
 40
4.0
100
AcDbArc
 50
111.2538091853132
 51
248.7461908146868
  0
ARC
  5
186A7
330
747D
100
AcDbEntity
  8
細線
 48
50.0
100
AcDbCircle
 10
8848.518167299793
 20
3927.172274673716
 30
0.0
 40
17.5
100
AcDbArc
 50
306.4837370612677
 51
233.5162629387323
  0
LINE
  5
186A8
330
747D
100
AcDbEntity
  8
細線
 48
50.0
100
AcDbLine
 10
8858.51816729979
 20
3903.313314092833
 30
0.0
 11
8858.518167299793
 21
3912.297799893075
 31
0.0
  0
LINE
  5
186A9
330
747D
100
AcDbEntity
  8
細線
 48
50.0
100
AcDbLine
 10
8838.518167299794
 20
3903.313314092835
 30
0.0
 11
8838.518167299794
 21
3912.297799893071
 31
0.0
  0
ARC
  5
186AA
330
747D
100
AcDbEntity
  8
細線
 48
50.0
100
AcDbCircle
 10
8848.518167299793
 20
3927.172274673716
 30
0.0
 40
26.5
100
AcDbArc
 50
249.3326835063939
 51
290.6673164933835
  0
ARC
  5
186AB
330
747D
100
AcDbEntity
  8
細線
 48
50.0
100
AcDbCircle
 10
8857.518167299785
 20
3903.313314092833
 30
0.0
 40
1.0
100
AcDbArc
 50
290.6673164936062
 51
359.9999999998958
  0
ARC
  5
186AC
330
747D
100
AcDbEntity
  8
細線
 48
50.0
100
AcDbCircle
 10
8839.518167299793
 20
3903.313314092835
 30
0.0
 40
1.0
100
AcDbArc
 50
180.0
 51
249.3326835066164
  0
ARC
  5
186AD
330
747D
100
AcDbEntity
  8
細線
 48
50.0
100
AcDbCircle
 10
8837.518167299794
 20
3912.297799893071
 30
0.0
 40
1.0
100
AcDbArc
 50
0.0
 51
53.51626293873231
  0
ARC
  5
186AE
330
747D
100
AcDbEntity
  8
細線
 48
50.0
100
AcDbCircle
 10
8859.518167299796
 20
3912.297799893075
 30
0.0
 40
1.0
100
AcDbArc
 50
126.4837370615127
 51
180.0
  0
ARC
  5
186AF
330
747D
100
AcDbEntity
  8
細線
 48
50.0
100
AcDbCircle
 10
8848.518167299793
 20
3927.172274673716
 30
0.0
 40
21.5
100
AcDbArc
 50
255.8014401250294
 51
284.1985598749706
  0
ARC
  5
186B0
330
747D
100
AcDbEntity
  8
細線
 48
50.0
100
AcDbCircle
 10
8848.518167299793
 20
3927.172274673716
 30
0.0
 40
16.5
100
AcDbArc
 50
251.9694646069326
 51
288.0305353930674
  0
LINE
  5
186B1
330
747D
100
AcDbEntity
  8
細線
 48
50.0
100
AcDbLine
 10
8854.018167299793
 20
3906.619902547909
 30
0.0
 11
8854.018167299793
 21
3911.197294235246
 31
0.0
  0
LINE
  5
186B2
330
747D
100
AcDbEntity
  8
細線
 48
50.0
100
AcDbLine
 10
8843.018167299794
 20
3906.619902547909
 30
0.0
 11
8843.018167299794
 21
3911.197294235245
 31
0.0
  0
ARC
  5
186B3
330
747D
100
AcDbEntity
  8
細線
 48
50.0
100
AcDbCircle
 10
8843.318167299797
 20
3911.197294235245
 30
0.0
 40
0.3
100
AcDbArc
 50
71.96946460693259
 51
180.0
  0
ARC
  5
186B4
330
747D
100
AcDbEntity
  8
細線
 48
50.0
100
AcDbCircle
 10
8853.718167299794
 20
3911.197294235246
 30
0.0
 40
0.3
100
AcDbArc
 50
0.0
 51
108.0305353930674
  0
ARC
  5
186B5
330
747D
100
AcDbEntity
  8
細線
 48
50.0
100
AcDbCircle
 10
8853.71816729979
 20
3906.619902547909
 30
0.0
 40
0.3
100
AcDbArc
 50
284.1985598747622
 51
0.0000000001042204
  0
ARC
  5
186B6
330
747D
100
AcDbEntity
  8
細線
 48
50.0
100
AcDbCircle
 10
8843.318167299797
 20
3906.619902547909
 30
0.0
 40
0.3
100
AcDbArc
 50
180.0
 51
255.8014401248081
  0
CIRCLE
  5
186B7
330
747D
100
AcDbEntity
  8
細線
 48
50.0
100
AcDbCircle
 10
8848.518167299793
 20
3927.172274673716
 30
0.0
 40
12.0
  0
ARC
  5
186B8
330
747D
100
AcDbEntity
  8
部品1
 48
50.0
100
AcDbCircle
 10
8848.518167299793
 20
3977.172274673716
 30
0.0
 40
8.5
100
AcDbArc
 50
114.315739171091
 51
245.684260828909
  0
CIRCLE
  5
186B9
330
747D
100
AcDbEntity
  8
細線
 48
50.0
100
AcDbCircle
 10
8848.518167299793
 20
3977.172274673716
 30
0.0
 40
4.5
  0
LWPOLYLINE
  5
186BA
330
747D
100
AcDbEntity
  8
部品1
 48
50.0
100
AcDbPolyline
 90
        2
 70
     0
 43
0.0
 10
8845.018167299793
 20
3995.847124070698
 10
8845.018167299793
 20
3984.918241366131
  0
CIRCLE
  5
186BB
330
747D
100
AcDbEntity
  8
部品1
 48
50.0
100
AcDbCircle
 10
8848.518167299793
 20
3977.172274673716
 30
0.0
 40
19.0
  0
LWPOLYLINE
  5
186BC
330
747D
100
AcDbEntity
  8
部品1
 48
50.0
100
AcDbPolyline
 90
        2
 70
     0
 43
0.0
 10
8845.018167299793
 20
3969.426307981301
 10
8845.018167299793
 20
3958.497425276733
  0
LWPOLYLINE
  5
186BD
330
747D
100
AcDbEntity
  8
部品1
 48
50.0
100
AcDbPolyline
 90
        2
 70
     0
 43
0.0
 10
8852.018167299794
 20
3984.918241366131
 10
8852.018167299794
 20
3995.847124070698
  0
ARC
  5
186BE
330
747D
100
AcDbEntity
  8
部品1
 48
50.0
100
AcDbCircle
 10
8848.518167299793
 20
3977.172274673716
 30
0.0
 40
8.5
100
AcDbArc
 50
294.315739171091
 51
65.68426082890896
  0
LWPOLYLINE
  5
186BF
330
747D
100
AcDbEntity
  8
部品1
 48
50.0
100
AcDbPolyline
 90
        2
 70
     0
 43
0.0
 10
8852.018167299794
 20
3958.497425276733
 10
8852.018167299794
 20
3969.426307981301
  0
ARC
  5
186C0
330
747D
100
AcDbEntity
  8
細線
 48
50.0
100
AcDbCircle
 10
8848.518167299793
 20
3977.172274673716
 30
0.0
 40
16.5
100
AcDbArc
 50
332.0012352654438
 51
27.99876473455621
  0
ARC
  5
186C1
330
747D
100
AcDbEntity
  8
細線
 48
50.0
100
AcDbCircle
 10
8848.518167299793
 20
3977.172274673716
 30
0.0
 40
14.0
100
AcDbArc
 50
326.4074436112986
 51
33.59255638870134
  0
LINE
  5
186C2
330
747D
100
AcDbEntity
  8
細線
 48
50.0
100
AcDbLine
 10
8833.949365015461
 20
3984.918241366131
 30
0.0
 11
8836.856263510105
 21
3984.918241366131
 31
0.0
  0
LINE
  5
186C3
330
747D
100
AcDbEntity
  8
細線
 48
50.0
100
AcDbLine
 10
8833.949365015461
 20
3969.426307981301
 30
0.0
 11
8836.856263510105
 21
3969.426307981301
 31
0.0
  0
LINE
  5
186C4
330
747D
100
AcDbEntity
  8
細線
 48
50.0
100
AcDbLine
 10
8860.180071089482
 20
3984.918241366131
 30
0.0
 11
8863.086969584129
 21
3984.918241366131
 31
0.0
  0
LINE
  5
186C5
330
747D
100
AcDbEntity
  8
細線
 48
50.0
100
AcDbLine
 10
8860.180071089482
 20
3969.426307981301
 30
0.0
 11
8863.086969584129
 21
3969.426307981301
 31
0.0
  0
ARC
  5
186C6
330
747D
100
AcDbEntity
  8
細線
 48
50.0
100
AcDbCircle
 10
8848.518167299793
 20
3977.172274673716
 30
0.0
 40
14.0
100
AcDbArc
 50
146.4074436112986
 51
213.5925563887013
  0
ARC
  5
186C7
330
747D
100
AcDbEntity
  8
細線
 48
50.0
100
AcDbCircle
 10
8848.518167299793
 20
3977.172274673716
 30
0.0
 40
16.5
100
AcDbArc
 50
152.0012352654438
 51
207.9987647345562
  0
ARC
  5
186C8
330
747D
100
AcDbEntity
  8
部品1
 48
50.0
100
AcDbCircle
 10
8822.018167299793
 20
4002.672274673716
 30
0.0
 40
5.0
100
AcDbArc
 50
90.0
 51
180.0
  0
ARC
  5
186C9
330
747D
100
AcDbEntity
  8
部品1
 48
50.0
100
AcDbCircle
 10
8822.018167299793
 20
3891.672274673716
 30
0.0
 40
5.0
100
AcDbArc
 50
180.0
 51
270.0
  0
ARC
  5
186CA
330
747D
100
AcDbEntity
  8
部品1
 48
50.0
100
AcDbCircle
 10
8875.018167299794
 20
3891.672274673716
 30
0.0
 40
5.0
100
AcDbArc
 50
270.0
 51
0.0
  0
ARC
  5
186CB
330
747D
100
AcDbEntity
  8
部品1
 48
50.0
100
AcDbCircle
 10
8875.018167299794
 20
4002.672274673716
 30
0.0
 40
5.0
100
AcDbArc
 50
0.0
 51
90.0
  0
LINE
  5
186CD
330
747D
100
AcDbEntity
  8
部品1
 48
50.0
100
AcDbLine
 10
8817.018167299794
 20
3891.672274673716
 30
0.0
 11
8817.018167299794
 21
4002.672274673716
 31
0.0
  0
LINE
  5
186CE
330
747D
100
AcDbEntity
  8
部品1
 48
50.0
100
AcDbLine
 10
8875.018167299794
 20
3886.672274673716
 30
0.0
 11
8822.018167299793
 21
3886.672274673716
 31
0.0
  0
LINE
  5
186CF
330
747D
100
AcDbEntity
  8
部品1
 48
50.0
100
AcDbLine
 10
8880.018167299793
 20
4002.672274673716
 30
0.0
 11
8880.018167299793
 21
3891.672274673716
 31
0.0
  0
ENDSEC
  0
SECTION
  2
OBJECTS
  0
DICTIONARY
  5
7471
330
0
100
AcDbDictionary
281
     1
  3
ACAD_COLOR
350
1657A
  3
ACAD_GROUP
350
7472
  3
ACAD_LAYOUT
350
1657B
  3
ACAD_MATERIAL
350
16579
  3
ACAD_MLINESTYLE
350
7473
  3
ACAD_PLOTSETTINGS
350
1657C
  3
ACAD_PLOTSTYLENAME
350
16577
  3
ACDBHEADERROUNDTRIPXREC
350
186EE
  3
AcDbVariableDictionary
350
186EA
  3
CONTENTDICTIONARY
350
E71C
  3
DRAWINGVARIABLESDICT
350
F3B9
  0
DICTIONARY
  5
16706
330
7467
100
AcDbDictionary
280
     1
281
     1
  3
ACAD_LAYERSTATES
360
16707
  0
DICTIONARY
  5
1657A
102
{ACAD_REACTORS
330
7471
102
}
330
7471
100
AcDbDictionary
281
     1
  0
DICTIONARY
  5
7472
102
{ACAD_REACTORS
330
7471
102
}
330
7471
100
AcDbDictionary
281
     1
  0
DICTIONARY
  5
1657B
102
{ACAD_REACTORS
330
7471
102
}
330
7471
100
AcDbDictionary
281
     1
  3
Model
350
1657D
  3
レイアウト1
350
1657E
  0
DICTIONARY
  5
16579
102
{ACAD_REACTORS
330
7471
102
}
330
7471
100
AcDbDictionary
281
     1
  0
DICTIONARY
  5
7473
102
{ACAD_REACTORS
330
7471
102
}
330
7471
100
AcDbDictionary
281
     1
  3
STANDARD
350
7480
  0
DICTIONARY
  5
1657C
102
{ACAD_REACTORS
330
7471
102
}
330
7471
100
AcDbDictionary
281
     1
  0
ACDBDICTIONARYWDFLT
  5
16577
102
{ACAD_REACTORS
330
7471
102
}
330
7471
100
AcDbDictionary
281
     1
  3
Normal
350
16578
100
AcDbDictionaryWithDefault
340
16578
  0
DICTIONARY
  5
186EE
102
{ACAD_REACTORS
330
7471
102
}
330
7471
100
AcDbDictionary
281
     1
  3
COLORDICT
350
186F0
  3
MATERIALDICT
350
186EF
  0
DICTIONARY
  5
186EA
102
{ACAD_REACTORS
330
7471
102
}
330
7471
100
AcDbDictionary
281
     1
  3
DIMASSOC
350
186EB
  3
PROJECTNAME
350
186EC
  0
DICTIONARY
  5
E71C
102
{ACAD_REACTORS
330
7471
102
}
330
7471
100
AcDbDictionary
281
     1
  0
DICTIONARY
  5
F3B9
102
{ACAD_REACTORS
330
7471
102
}
330
7471
100
AcDbDictionary
281
     1
1001
DRAWINGVARIABLESXDATA
1000
POLARMODE
1000
1
  0
DICTIONARY
  5
16707
102
{ACAD_REACTORS
330
16706
102
}
330
16706
100
AcDbDictionary
281
     1
  0
LAYOUT
  5
1657D
102
{ACAD_XDICTIONARY
360
186F1
102
}
102
{ACAD_REACTORS
330
1657B
102
}
330
1657B
100
AcDbPlotSettings
  1

  2
クセロPDF
  4
A3
  6

 40
3.174999952316284
 41
3.174999952316284
 42
3.17498779296875
 43
3.17498779296875
 44
419.9466552734374
 45
296.9259948730469
 46
0.0
 47
0.0
 48
3.619013395666115
 49
-4.192117100517862
140
820.022926294543
141
573.2392198881443
142
1.0
143
39.99735023620806
 70
 11952
 72
     1
 73
     0
 74
     2
  7
inaba.ctb
 75
     0
147
0.0250016562120842
148
25.79074261211281
149
125.8223078213959
100
AcDbLayout
  1
Model
 70
     1
 71
     0
 10
0.0
 20
0.0
 11
12.0
 21
9.0
 12
0.0
 22
0.0
 32
0.0
 14
0.0
 24
0.0
 34
0.0
 15
0.0
 25
0.0
 35
0.0
146
0.0
 13
0.0
 23
0.0
 33
0.0
 16
1.0
 26
0.0
 36
0.0
 17
0.0
 27
1.0
 37
0.0
 76
     0
330
747D
  0
LAYOUT
  5
1657E
102
{ACAD_XDICTIONARY
360
186F3
102
}
102
{ACAD_REACTORS
330
1657B
102
}
330
1657B
100
AcDbPlotSettings
  1

  2
Microsoft Office Document Image Writer
  4

  6

 40
0.0
 41
0.0
 42
0.0
 43
0.0
 44
0.0
 45
0.0
 46
0.0
 47
0.0
 48
0.0
 49
0.0
140
0.0
141
0.0
142
1.0
143
1.0
 70
   688
 72
     0
 73
     0
 74
     5
  7

 75
    16
147
1.0
148
0.0
149
0.0
100
AcDbLayout
  1
レイアウト1
 70
     0
 71
     1
 10
0.0
 20
0.0
 11
420.0
 21
297.0
 12
0.0
 22
0.0
 32
0.0
 14
1.000000000000000E+20
 24
1.000000000000000E+20
 34
1.000000000000000E+20
 15
-1.000000000000000E+20
 25
-1.000000000000000E+20
 35
-1.000000000000000E+20
146
0.0
 13
0.0
 23
0.0
 33
0.0
 16
1.0
 26
0.0
 36
0.0
 17
0.0
 27
1.0
 37
0.0
 76
     0
330
747A
  0
MLINESTYLE
  5
7480
102
{ACAD_REACTORS
330
7473
102
}
330
7473
100
AcDbMlineStyle
  2
STANDARD
 70
     0
  3

 62
     0
 51
90.0
 52
90.0
 71
     2
 49
0.5
 62
   256
  6
BYLAYER
 49
-0.5
 62
   256
  6
BYLAYER
  0
ACDBPLACEHOLDER
  5
16578
102
{ACAD_REACTORS
330
16577
102
}
330
16577
  0
XRECORD
  5
186F0
102
{ACAD_REACTORS
330
186EE
102
}
330
186EE
100
AcDbXrecord
280
     1
340
1657A
  0
XRECORD
  5
186EF
102
{ACAD_REACTORS
330
186EE
102
}
330
186EE
100
AcDbXrecord
280
     1
340
16579
  0
DICTIONARYVAR
  5
186EB
102
{ACAD_REACTORS
330
186EA
102
}
330
186EA
100
DictionaryVariables
280
     0
  1
1
  0
DICTIONARYVAR
  5
186EC
102
{ACAD_REACTORS
330
186EA
102
}
330
186EA
100
DictionaryVariables
280
     0
  1

  0
DICTIONARY
  5
186F1
330
1657D
100
AcDbDictionary
280
     1
281
     1
  3
ACAD_XREC_ROUNDTRIP
360
186F2
  0
DICTIONARY
  5
186F3
330
1657E
100
AcDbDictionary
280
     1
281
     1
  3
ACAD_XREC_ROUNDTRIP
360
186F4
  0
XRECORD
  5
186F2
102
{ACAD_REACTORS
330
186F1
102
}
330
186F1
100
AcDbXrecord
280
     1
102
SHADEPLOT
 70
     0
102
SHADEPLOTRESLEVEL
 70
     2
102
SHADEPLOTCUSTOMDPI
 70
   150
  0
XRECORD
  5
186F4
102
{ACAD_REACTORS
330
186F3
102
}
330
186F3
100
AcDbXrecord
280
     1
102
SHADEPLOT
 70
     0
102
SHADEPLOTRESLEVEL
 70
     2
102
SHADEPLOTCUSTOMDPI
 70
   300
  0
ENDSEC
  0
EOF
