  0
SECTION
  2
HEADER
  9
$ACADVER
  1
AC1015
  9
$ACADMAINTVER
 70
    20
  9
$DWGCODEPAGE
  3
ANSI_932
  9
$INSBASE
 10
0.0
 20
0.0
 30
0.0
  9
$EXTMIN
 10
139.9999999999995
 20
-0.0000000000000909
 30
0.0
  9
$EXTMAX
 10
16307.2
 20
11409.6
 30
0.0
  9
$LIMMIN
 10
-25.79074261211281
 20
-125.8223078213959
  9
$LIMMAX
 10
16471.10331197129
 20
11496.44801950658
  9
$ORTHOMODE
 70
     0
  9
$REGENMODE
 70
     1
  9
$FILLMODE
 70
     1
  9
$QTEXTMODE
 70
     0
  9
$MIRRTEXT
 70
     1
  9
$LTSCALE
 40
20.0
  9
$ATTMODE
 70
     1
  9
$TEXTSIZE
 40
4.0
  9
$TRACEWID
 40
1.0
  9
$TEXTSTYLE
  7
STYLE1
  9
$CLAYER
  8
寸法
  9
$CELTYPE
  6
BYLAYER
  9
$CECOLOR
 62
   256
  9
$CELTSCALE
 40
50.0
  9
$DISPSILH
 70
     0
  9
$DIMSCALE
 40
40.0
  9
$DIMASZ
 40
2.5
  9
$DIMEXO
 40
0.5
  9
$DIMDLI
 40
7.0
  9
$DIMRND
 40
0.0
  9
$DIMDLE
 40
0.0
  9
$DIMEXE
 40
1.5
  9
$DIMTP
 40
0.0
  9
$DIMTM
 40
0.0
  9
$DIMTXT
 40
3.0
  9
$DIMCEN
 40
0.0
  9
$DIMTSZ
 40
0.0
  9
$DIMTOL
 70
     0
  9
$DIMLIM
 70
     0
  9
$DIMTIH
 70
     0
  9
$DIMTOH
 70
     0
  9
$DIMSE1
 70
     0
  9
$DIMSE2
 70
     0
  9
$DIMTAD
 70
     3
  9
$DIMZIN
 70
     8
  9
$DIMBLK
  1

  9
$DIMASO
 70
     1
  9
$DIMSHO
 70
     1
  9
$DIMPOST
  1

  9
$DIMAPOST
  1

  9
$DIMALT
 70
     0
  9
$DIMALTD
 70
     2
  9
$DIMALTF
 40
0.0394
  9
$DIMLFAC
 40
1.0
  9
$DIMTOFL
 70
     1
  9
$DIMTVP
 40
0.0
  9
$DIMTIX
 70
     1
  9
$DIMSOXD
 70
     0
  9
$DIMSAH
 70
     1
  9
$DIMBLK1
  1
DOTSMALL
  9
$DIMBLK2
  1
DOTSMALL
  9
$DIMSTYLE
  2
INABA_S40G
  9
$DIMCLRD
 70
     0
  9
$DIMCLRE
 70
     0
  9
$DIMCLRT
 70
     7
  9
$DIMTFAC
 40
1.0
  9
$DIMGAP
 40
1.0
  9
$DIMJUST
 70
     0
  9
$DIMSD1
 70
     0
  9
$DIMSD2
 70
     0
  9
$DIMTOLJ
 70
     1
  9
$DIMTZIN
 70
     0
  9
$DIMALTZ
 70
     0
  9
$DIMALTTZ
 70
     0
  9
$DIMUPT
 70
     1
  9
$DIMDEC
 70
     1
  9
$DIMTDEC
 70
     4
  9
$DIMALTU
 70
     2
  9
$DIMALTTD
 70
     2
  9
$DIMTXSTY
  7
STYLE1
  9
$DIMAUNIT
 70
     0
  9
$DIMADEC
 70
     0
  9
$DIMALTRND
 40
0.0
  9
$DIMAZIN
 70
     0
  9
$DIMDSEP
 70
    46
  9
$DIMATFIT
 70
     3
  9
$DIMFRAC
 70
     0
  9
$DIMLDRBLK
  1

  9
$DIMLUNIT
 70
     2
  9
$DIMLWD
 70
    -2
  9
$DIMLWE
 70
    -2
  9
$DIMTMOVE
 70
     0
  9
$LUNITS
 70
     2
  9
$LUPREC
 70
     1
  9
$SKETCHINC
 40
1.0
  9
$FILLETRAD
 40
3.0
  9
$AUNITS
 70
     0
  9
$AUPREC
 70
     0
  9
$MENU
  1
acad
  9
$ELEVATION
 40
0.0
  9
$PELEVATION
 40
0.0
  9
$THICKNESS
 40
0.0
  9
$LIMCHECK
 70
     0
  9
$CHAMFERA
 40
0.0
  9
$CHAMFERB
 40
0.0
  9
$CHAMFERC
 40
0.0
  9
$CHAMFERD
 40
0.0
  9
$SKPOLY
 70
     0
  9
$TDCREATE
 40
2451368.612993866
  9
$TDUCREATE
 40
2451368.237993866
  9
$TDUPDATE
 40
2455575.682378102
  9
$TDUUPDATE
 40
2455575.307378102
  9
$TDINDWG
 40
0.5196714468
  9
$TDUSRTIMER
 40
0.5196714468
  9
$USRTIMER
 70
     1
  9
$ANGBASE
 50
0.0
  9
$ANGDIR
 70
     0
  9
$PDMODE
 70
     3
  9
$PDSIZE
 40
2.0
  9
$PLINEWID
 40
0.0
  9
$SPLFRAME
 70
     0
  9
$SPLINETYPE
 70
     6
  9
$SPLINESEGS
 70
     8
  9
$HANDSEED
  5
18B9F
  9
$SURFTAB1
 70
     6
  9
$SURFTAB2
 70
     6
  9
$SURFTYPE
 70
     6
  9
$SURFU
 70
     6
  9
$SURFV
 70
     6
  9
$UCSBASE
  2

  9
$UCSNAME
  2

  9
$UCSORG
 10
0.0
 20
0.0
 30
0.0
  9
$UCSXDIR
 10
1.0
 20
0.0
 30
0.0
  9
$UCSYDIR
 10
0.0
 20
1.0
 30
0.0
  9
$UCSORTHOREF
  2

  9
$UCSORTHOVIEW
 70
     0
  9
$UCSORGTOP
 10
0.0
 20
0.0
 30
0.0
  9
$UCSORGBOTTOM
 10
0.0
 20
0.0
 30
0.0
  9
$UCSORGLEFT
 10
0.0
 20
0.0
 30
0.0
  9
$UCSORGRIGHT
 10
0.0
 20
0.0
 30
0.0
  9
$UCSORGFRONT
 10
0.0
 20
0.0
 30
0.0
  9
$UCSORGBACK
 10
0.0
 20
0.0
 30
0.0
  9
$PUCSBASE
  2

  9
$PUCSNAME
  2

  9
$PUCSORG
 10
0.0
 20
0.0
 30
0.0
  9
$PUCSXDIR
 10
1.0
 20
0.0
 30
0.0
  9
$PUCSYDIR
 10
0.0
 20
1.0
 30
0.0
  9
$PUCSORTHOREF
  2

  9
$PUCSORTHOVIEW
 70
     0
  9
$PUCSORGTOP
 10
0.0
 20
0.0
 30
0.0
  9
$PUCSORGBOTTOM
 10
0.0
 20
0.0
 30
0.0
  9
$PUCSORGLEFT
 10
0.0
 20
0.0
 30
0.0
  9
$PUCSORGRIGHT
 10
0.0
 20
0.0
 30
0.0
  9
$PUCSORGFRONT
 10
0.0
 20
0.0
 30
0.0
  9
$PUCSORGBACK
 10
0.0
 20
0.0
 30
0.0
  9
$USERI1
 70
     0
  9
$USERI2
 70
     0
  9
$USERI3
 70
     0
  9
$USERI4
 70
     0
  9
$USERI5
 70
     0
  9
$USERR1
 40
0.0
  9
$USERR2
 40
0.0
  9
$USERR3
 40
0.0
  9
$USERR4
 40
0.0
  9
$USERR5
 40
0.0
  9
$WORLDVIEW
 70
     1
  9
$SHADEDGE
 70
     3
  9
$SHADEDIF
 70
    70
  9
$TILEMODE
 70
     1
  9
$MAXACTVP
 70
    16
  9
$PINSBASE
 10
0.0
 20
0.0
 30
0.0
  9
$PLIMCHECK
 70
     0
  9
$PEXTMIN
 10
1.000000000000000E+20
 20
1.000000000000000E+20
 30
1.000000000000000E+20
  9
$PEXTMAX
 10
-1.000000000000000E+20
 20
-1.000000000000000E+20
 30
-1.000000000000000E+20
  9
$PLIMMIN
 10
0.0
 20
0.0
  9
$PLIMMAX
 10
420.0
 20
297.0
  9
$UNITMODE
 70
     0
  9
$VISRETAIN
 70
     0
  9
$PLINEGEN
 70
     0
  9
$PSLTSCALE
 70
     0
  9
$TREEDEPTH
 70
  3020
  9
$CMLSTYLE
  2
STANDARD
  9
$CMLJUST
 70
     0
  9
$CMLSCALE
 40
1.0
  9
$PROXYGRAPHICS
 70
     1
  9
$MEASUREMENT
 70
     1
  9
$CELWEIGHT
370
    -1
  9
$ENDCAPS
280
     0
  9
$JOINSTYLE
280
     0
  9
$LWDISPLAY
290
     0
  9
$INSUNITS
 70
     0
  9
$HYPERLINKBASE
  1

  9
$STYLESHEET
  1
inaba.ctb
  9
$XEDIT
290
     1
  9
$CEPSNTYPE
380
     0
  9
$PSTYLEMODE
290
     1
  9
$FINGERPRINTGUID
  2
{FA785A85-CA57-4E60-B6DE-D6E39AA3E322}
  9
$VERSIONGUID
  2
{07C8528C-6B9D-44E4-85C6-2066CDFE96D0}
  9
$EXTNAMES
290
     1
  9
$PSVPSCALE
 40
0.0
  9
$OLESTARTUP
290
     0
  0
ENDSEC
  0
SECTION
  2
CLASSES
  0
CLASS
  1
ACDBDICTIONARYWDFLT
  2
AcDbDictionaryWithDefault
  3
ObjectDBX Classes
 90
        0
280
     0
281
     0
  0
CLASS
  1
DICTIONARYVAR
  2
AcDbDictionaryVar
  3
ObjectDBX Classes
 90
        0
280
     0
281
     0
  0
CLASS
  1
ACDBPLACEHOLDER
  2
AcDbPlaceHolder
  3
ObjectDBX Classes
 90
        0
280
     0
281
     0
  0
CLASS
  1
LAYOUT
  2
AcDbLayout
  3
ObjectDBX Classes
 90
        0
280
     0
281
     0
  0
ENDSEC
  0
SECTION
  2
TABLES
  0
TABLE
  2
VPORT
  5
746D
330
0
100
AcDbSymbolTable
 70
     2
  0
VPORT
  5
18B97
330
746D
100
AcDbSymbolTableRecord
100
AcDbViewportTableRecord
  2
*Active
 70
     0
 10
0.0
 20
0.0
 11
1.0
 21
1.0
 12
8223.761025238502
 22
5704.783633610443
 13
0.0
 23
0.0
 14
10.0
 24
10.0
 15
10.0
 25
10.0
 16
0.0
 26
0.0
 36
1.0
 17
0.0
 27
0.0
 37
0.0
 40
11494.75855220512
 41
1.525925925925925
 42
50.0
 43
0.0
 44
0.0
 50
0.0
 51
0.0
 71
     0
 72
     0
 73
     1
 74
     0
 75
     0
 76
     0
 77
     0
 78
     0
281
     0
 65
     1
110
0.0
120
0.0
130
0.0
111
1.0
121
0.0
131
0.0
112
0.0
122
1.0
132
0.0
 79
     0
146
0.0
  0
ENDTAB
  0
TABLE
  2
LTYPE
  5
746A
330
0
100
AcDbSymbolTable
 70
     4
  0
LTYPE
  5
7477
330
746A
100
AcDbSymbolTableRecord
100
AcDbLinetypeTableRecord
  2
BYBLOCK
 70
     0
  3

 72
    65
 73
     0
 40
0.0
  0
LTYPE
  5
7478
330
746A
100
AcDbSymbolTableRecord
100
AcDbLinetypeTableRecord
  2
BYLAYER
 70
     0
  3

 72
    65
 73
     0
 40
0.0
  0
LTYPE
  5
7479
330
746A
100
AcDbSymbolTableRecord
100
AcDbLinetypeTableRecord
  2
CONTINUOUS
 70
     0
  3
Solid line
 72
    65
 73
     0
 40
0.0
  0
LTYPE
  5
7816
330
746A
100
AcDbSymbolTableRecord
100
AcDbLinetypeTableRecord
  2
CENTER
 70
     0
  3
____ _ ____ _ ____ _ ____ _ ____ _ ____ _ ____ 
 72
    65
 73
     4
 40
2.0
 49
1.25
 74
     0
 49
-0.25
 74
     0
 49
0.25
 74
     0
 49
-0.25
 74
     0
  0
LTYPE
  5
781A
330
746A
100
AcDbSymbolTableRecord
100
AcDbLinetypeTableRecord
  2
HIDDEN
 70
     0
  3
__ __ __ __ __ __ __ __ __ __ __ __ __ __ __ __
 72
    65
 73
     2
 40
0.375
 49
0.25
 74
     0
 49
-0.125
 74
     0
  0
LTYPE
  5
781B
330
746A
100
AcDbSymbolTableRecord
100
AcDbLinetypeTableRecord
  2
PHANTOM
 70
     0
  3
______  __  __  ______  __  __  ______  __  __ 
 72
    65
 73
     6
 40
2.5
 49
1.25
 74
     0
 49
-0.25
 74
     0
 49
0.25
 74
     0
 49
-0.25
 74
     0
 49
0.25
 74
     0
 49
-0.25
 74
     0
  0
ENDTAB
  0
TABLE
  2
LAYER
  5
7467
102
{ACAD_XDICTIONARY
360
165FF
102
}
330
0
100
AcDbSymbolTable
 70
    12
  0
LAYER
  5
7474
330
7467
100
AcDbSymbolTableRecord
100
AcDbLayerTableRecord
  2
0
 70
     0
 62
     7
  6
CONTINUOUS
370
    -3
390
16463
  0
LAYER
  5
DEB2
330
7467
100
AcDbSymbolTableRecord
100
AcDbLayerTableRecord
  2
センター
 70
     0
 62
     3
  6
CENTER
370
    -3
390
16463
  0
LAYER
  5
DEB3
330
7467
100
AcDbSymbolTableRecord
100
AcDbLayerTableRecord
  2
寸法
 70
     0
 62
     4
  6
CONTINUOUS
370
    -3
390
16463
  0
LAYER
  5
DEB4
330
7467
100
AcDbSymbolTableRecord
100
AcDbLayerTableRecord
  2
部品1
 70
     0
 62
     7
  6
CONTINUOUS
370
    -3
390
16463
  0
LAYER
  5
DEB5
330
7467
100
AcDbSymbolTableRecord
100
AcDbLayerTableRecord
  2
補助
 70
     0
 62
    -1
  6
CONTINUOUS
370
    -3
390
16463
  0
LAYER
  5
DEB6
330
7467
100
AcDbSymbolTableRecord
100
AcDbLayerTableRecord
  2
文字
 70
     0
 62
     7
  6
CONTINUOUS
370
    -3
390
16463
  0
LAYER
  5
F255
330
7467
100
AcDbSymbolTableRecord
100
AcDbLayerTableRecord
  2
DEFPOINTS
 70
     0
 62
     7
  6
CONTINUOUS
290
     0
370
    -3
390
16463
  0
LAYER
  5
10B54
330
7467
100
AcDbSymbolTableRecord
100
AcDbLayerTableRecord
  2
仕様書枠
 70
     0
 62
   230
  6
CONTINUOUS
370
    -3
390
16463
  0
LAYER
  5
11729
330
7467
100
AcDbSymbolTableRecord
100
AcDbLayerTableRecord
  2
Ｇ．Ｌ
 70
     0
 62
    30
  6
CONTINUOUS
370
    -3
390
16463
  0
LAYER
  5
1173F
330
7467
100
AcDbSymbolTableRecord
100
AcDbLayerTableRecord
  2
細線
 70
     0
 62
     5
  6
CONTINUOUS
370
    -3
390
16463
  0
LAYER
  5
12CC4
330
7467
100
AcDbSymbolTableRecord
100
AcDbLayerTableRecord
  2
想像線
 70
     0
 62
     6
  6
PHANTOM
370
    -3
390
16463
  0
LAYER
  5
142E2
330
7467
100
AcDbSymbolTableRecord
100
AcDbLayerTableRecord
  2
破線
 70
     0
 62
     2
  6
HIDDEN
370
    -3
390
16463
  0
ENDTAB
  0
TABLE
  2
STYLE
  5
7468
330
0
100
AcDbSymbolTable
 70
     4
  0
STYLE
  5
7475
330
7468
100
AcDbSymbolTableRecord
100
AcDbTextStyleTableRecord
  2
STANDARD
 70
     0
 40
0.0
 41
1.0
 50
0.0
 71
     0
 42
4.0
  3
txt
  4
C:\AutoCAD LT\bigfont.shx
  0
STYLE
  5
F706
330
7468
100
AcDbSymbolTableRecord
100
AcDbTextStyleTableRecord
  2
STYLE1
 70
     0
 40
0.0
 41
1.0
 50
0.0
 71
     0
 42
4.0
  3
isocp.shx
  4
bigfont.shx
  0
STYLE
  5
103BF
330
7468
100
AcDbSymbolTableRecord
100
AcDbTextStyleTableRecord
  2
STYLE2
 70
     0
 40
0.0
 41
1.0
 50
0.0
 71
     0
 42
100.0
  3
MS PGothic.ttf
  4

1001
ACAD
1000
MS PGothic
1071
    32818
  0
STYLE
  5
17E61
330
7468
100
AcDbSymbolTableRecord
100
AcDbTextStyleTableRecord
  2
STYLE3
 70
     0
 40
0.0
 41
1.0
 50
0.0
 71
     0
 42
100.0
  3
DFPGothic-EB.ttf
  4

1001
ACAD
1000
DFPGothic-EB
1071
    32818
  0
ENDTAB
  0
TABLE
  2
VIEW
  5
746B
330
0
100
AcDbSymbolTable
 70
     0
  0
ENDTAB
  0
TABLE
  2
UCS
  5
746C
330
0
100
AcDbSymbolTable
 70
     0
  0
ENDTAB
  0
TABLE
  2
APPID
  5
746E
330
0
100
AcDbSymbolTable
 70
     6
  0
APPID
  5
7476
330
746E
100
AcDbSymbolTableRecord
100
AcDbRegAppTableRecord
  2
ACAD
 70
     0
  0
APPID
  5
DEA9
330
746E
100
AcDbSymbolTableRecord
100
AcDbRegAppTableRecord
  2
CONTENTBLOCKICON
 70
     0
  0
APPID
  5
DEAA
330
746E
100
AcDbSymbolTableRecord
100
AcDbRegAppTableRecord
  2
CONTENTBLOCKDESCRIPTION
 70
     0
  0
APPID
  5
E71D
330
746E
100
AcDbSymbolTableRecord
100
AcDbRegAppTableRecord
  2
CONTENTTABDATA
 70
     0
  0
APPID
  5
E71E
330
746E
100
AcDbSymbolTableRecord
100
AcDbRegAppTableRecord
  2
CONTENTCURRENTTAB
 70
     0
  0
APPID
  5
F3BA
330
746E
100
AcDbSymbolTableRecord
100
AcDbRegAppTableRecord
  2
DRAWINGVARIABLESXDATA
 70
     0
  0
ENDTAB
  0
TABLE
  2
DIMSTYLE
  5
746F
330
0
100
AcDbSymbolTable
 70
     5
100
AcDbDimStyleTable
 71
     1
340
F71F
  0
DIMSTYLE
105
7484
330
746F
100
AcDbSymbolTableRecord
100
AcDbDimStyleTableRecord
  2
JIS
 70
     0
 41
2.5
 42
1.0
 43
7.0
 44
1.0
 73
     0
 74
     0
 77
     1
 78
     8
140
2.5
141
0.0
143
0.0394
147
0.0
172
     1
174
     1
175
     1
340
7475
  0
DIMSTYLE
105
F71F
102
{ACAD_REACTORS
330
1698A
330
169E3
330
169E4
330
169E5
330
169E6
330
16AD0
330
16AD1
330
16AD2
330
16AD3
330
16AD4
330
16AD5
330
16B14
330
16B15
330
16B16
330
16B17
330
16984
330
16988
330
17173
330
17181
330
17182
330
17183
330
17184
330
179C4
330
179CB
330
179CC
330
179D1
330
17A67
330
17A7C
330
18A07
330
18A09
330
18A08
102
}
330
746F
100
AcDbSymbolTableRecord
100
AcDbDimStyleTableRecord
  2
INABA_S40G
 70
     0
 40
40.0
 41
2.5
 42
0.5
 43
7.0
 44
1.5
 73
     0
 74
     0
 77
     3
 78
     8
140
3.0
141
0.0
143
0.0394
147
1.0
172
     1
173
     1
174
     1
178
     7
271
     1
288
     1
340
F706
341
F770
343
F770
344
F770
  0
DIMSTYLE
105
165FE
102
{ACAD_REACTORS
330
18A0A
102
}
330
746F
100
AcDbSymbolTableRecord
100
AcDbDimStyleTableRecord
  2
INABA_S40
 70
     0
 40
40.0
 41
2.5
 42
0.5
 43
7.0
 44
1.5
 73
     0
 74
     0
 77
     3
 78
     8
140
3.0
141
0.0
143
0.0394
147
1.0
172
     1
173
     1
174
     1
175
     1
178
     7
340
7475
  0
DIMSTYLE
105
17E62
330
746F
100
AcDbSymbolTableRecord
100
AcDbDimStyleTableRecord
  2
INABA_S50G
 70
     0
 41
125.0
 42
25.0
 43
7.0
 44
75.0
 73
     0
 74
     0
 77
     3
 78
     8
140
150.0
141
0.0
143
0.0394
147
25.0
172
     1
173
     1
174
     1
175
     1
178
     7
271
     1
340
F706
341
F770
343
F770
344
F770
  0
DIMSTYLE
105
18B1D
330
746F
100
AcDbSymbolTableRecord
100
AcDbDimStyleTableRecord
  2
INABA_S20G
 70
     0
 40
20.0
 41
2.5
 42
0.5
 43
7.0
 44
1.5
 73
     0
 74
     0
 77
     3
 78
     8
140
3.0
141
0.0
143
0.0394
147
1.0
172
     1
173
     1
174
     1
178
     7
271
     1
340
F706
341
F770
343
F770
344
F770
  0
ENDTAB
  0
TABLE
  2
BLOCK_RECORD
  5
7466
330
0
100
AcDbSymbolTable
 70
    34
  0
BLOCK_RECORD
  5
747D
330
7466
100
AcDbSymbolTableRecord
100
AcDbBlockTableRecord
  2
*MODEL_SPACE
340
16468
  0
BLOCK_RECORD
  5
747A
330
7466
100
AcDbSymbolTableRecord
100
AcDbBlockTableRecord
  2
*PAPER_SPACE
340
16469
  0
BLOCK_RECORD
  5
F770
330
7466
100
AcDbSymbolTableRecord
100
AcDbBlockTableRecord
  2
_DOTSMALL
340
0
102
{BLKREFS
331
1739A
331
1739B
331
173A3
331
173A4
331
173AE
331
173AF
331
173B7
331
173B8
331
173C1
331
173C2
331
1745B
331
1745C
331
17464
331
17465
331
1746E
331
1746F
331
17479
331
1747A
331
17483
331
17484
331
1748C
331
1748D
331
17495
331
17496
331
17D82
331
17D83
331
17D8B
331
17D8C
331
17D96
331
17D97
331
17DA1
331
17DA2
331
17DAA
331
17DAB
331
17DB3
331
17DB4
331
18A83
331
18A84
331
18A8E
331
18A8F
331
18A97
331
18A98
331
18AA2
331
18AA3
331
18AAB
331
18AAC
331
18AB4
331
18AB5
331
18ABD
331
18ABE
331
18AC6
331
18AC7
331
18AD1
331
18AD2
331
18ADA
331
18ADB
331
18AE5
331
18AE6
331
18AEE
331
18AEF
331
18AF7
331
18AF8
102
}
  0
BLOCK_RECORD
  5
16508
330
7466
100
AcDbSymbolTableRecord
100
AcDbBlockTableRecord
  2
_DOT
340
0
102
{BLKREFS
331
18A68
331
18A69
102
}
  0
BLOCK_RECORD
  5
16B31
330
7466
100
AcDbSymbolTableRecord
100
AcDbBlockTableRecord
  2
*D2
340
0
  0
BLOCK_RECORD
  5
16B7D
330
7466
100
AcDbSymbolTableRecord
100
AcDbBlockTableRecord
  2
*D3
340
0
  0
BLOCK_RECORD
  5
16B8B
330
7466
100
AcDbSymbolTableRecord
100
AcDbBlockTableRecord
  2
*D4
340
0
  0
BLOCK_RECORD
  5
16B98
330
7466
100
AcDbSymbolTableRecord
100
AcDbBlockTableRecord
  2
*D5
340
0
  0
BLOCK_RECORD
  5
16BA4
330
7466
100
AcDbSymbolTableRecord
100
AcDbBlockTableRecord
  2
*D6
340
0
  0
BLOCK_RECORD
  5
16BE2
330
7466
100
AcDbSymbolTableRecord
100
AcDbBlockTableRecord
  2
*D7
340
0
  0
BLOCK_RECORD
  5
16BF0
330
7466
100
AcDbSymbolTableRecord
100
AcDbBlockTableRecord
  2
*D8
340
0
  0
BLOCK_RECORD
  5
16BFC
330
7466
100
AcDbSymbolTableRecord
100
AcDbBlockTableRecord
  2
*D9
340
0
  0
BLOCK_RECORD
  5
16C0A
330
7466
100
AcDbSymbolTableRecord
100
AcDbBlockTableRecord
  2
*D10
340
0
  0
BLOCK_RECORD
  5
16C16
330
7466
100
AcDbSymbolTableRecord
100
AcDbBlockTableRecord
  2
*D11
340
0
  0
BLOCK_RECORD
  5
16C22
330
7466
100
AcDbSymbolTableRecord
100
AcDbBlockTableRecord
  2
*D12
340
0
  0
BLOCK_RECORD
  5
16C3A
330
7466
100
AcDbSymbolTableRecord
100
AcDbBlockTableRecord
  2
*D13
340
0
  0
BLOCK_RECORD
  5
16C46
330
7466
100
AcDbSymbolTableRecord
100
AcDbBlockTableRecord
  2
*D14
340
0
  0
BLOCK_RECORD
  5
16C54
330
7466
100
AcDbSymbolTableRecord
100
AcDbBlockTableRecord
  2
*D15
340
0
  0
BLOCK_RECORD
  5
16C60
330
7466
100
AcDbSymbolTableRecord
100
AcDbBlockTableRecord
  2
*D16
340
0
  0
BLOCK_RECORD
  5
16CA2
330
7466
100
AcDbSymbolTableRecord
100
AcDbBlockTableRecord
  2
*D17
340
0
  0
BLOCK_RECORD
  5
16CAE
330
7466
100
AcDbSymbolTableRecord
100
AcDbBlockTableRecord
  2
*D18
340
0
  0
BLOCK_RECORD
  5
171C7
330
7466
100
AcDbSymbolTableRecord
100
AcDbBlockTableRecord
  2
*D19
340
0
  0
BLOCK_RECORD
  5
171D4
330
7466
100
AcDbSymbolTableRecord
100
AcDbBlockTableRecord
  2
*D20
340
0
  0
BLOCK_RECORD
  5
171E0
330
7466
100
AcDbSymbolTableRecord
100
AcDbBlockTableRecord
  2
*D21
340
0
  0
BLOCK_RECORD
  5
171EE
330
7466
100
AcDbSymbolTableRecord
100
AcDbBlockTableRecord
  2
*D22
340
0
  0
BLOCK_RECORD
  5
171FA
330
7466
100
AcDbSymbolTableRecord
100
AcDbBlockTableRecord
  2
*D23
340
0
  0
BLOCK_RECORD
  5
17AC9
330
7466
100
AcDbSymbolTableRecord
100
AcDbBlockTableRecord
  2
*D24
340
0
  0
BLOCK_RECORD
  5
17AD5
330
7466
100
AcDbSymbolTableRecord
100
AcDbBlockTableRecord
  2
*D25
340
0
  0
BLOCK_RECORD
  5
17AE3
330
7466
100
AcDbSymbolTableRecord
100
AcDbBlockTableRecord
  2
*D26
340
0
  0
BLOCK_RECORD
  5
17AF1
330
7466
100
AcDbSymbolTableRecord
100
AcDbBlockTableRecord
  2
*D27
340
0
  0
BLOCK_RECORD
  5
17BAE
330
7466
100
AcDbSymbolTableRecord
100
AcDbBlockTableRecord
  2
*D28
340
0
  0
BLOCK_RECORD
  5
17C12
330
7466
100
AcDbSymbolTableRecord
100
AcDbBlockTableRecord
  2
*D29
340
0
  0
BLOCK_RECORD
  5
18A0B
330
7466
100
AcDbSymbolTableRecord
100
AcDbBlockTableRecord
  2
*D30
340
0
  0
BLOCK_RECORD
  5
18A19
330
7466
100
AcDbSymbolTableRecord
100
AcDbBlockTableRecord
  2
*D31
340
0
  0
BLOCK_RECORD
  5
18A25
330
7466
100
AcDbSymbolTableRecord
100
AcDbBlockTableRecord
  2
*D32
340
0
  0
BLOCK_RECORD
  5
18A31
330
7466
100
AcDbSymbolTableRecord
100
AcDbBlockTableRecord
  2
*D33
340
0
  0
ENDTAB
  0
ENDSEC
  0
SECTION
  2
BLOCKS
  0
BLOCK
  5
7489
330
747D
100
AcDbEntity
  8
0
100
AcDbBlockBegin
  2
*MODEL_SPACE
 70
     0
 10
0.0
 20
0.0
 30
0.0
  3
*MODEL_SPACE
  1

  0
ENDBLK
  5
748A
330
747D
100
AcDbEntity
  8
0
100
AcDbBlockEnd
  0
BLOCK
  5
7487
330
747A
100
AcDbEntity
 67
     1
  8
0
100
AcDbBlockBegin
  2
*PAPER_SPACE
 70
     0
 10
0.0
 20
0.0
 30
0.0
  3
*PAPER_SPACE
  1

  0
ENDBLK
  5
7488
330
747A
100
AcDbEntity
 67
     1
  8
0
100
AcDbBlockEnd
  0
BLOCK
  5
F771
330
F770
100
AcDbEntity
  8
0
 48
50.0
100
AcDbBlockBegin
  2
_DOTSMALL
 70
     0
 10
0.0
 20
0.0
 30
0.0
  3
_DOTSMALL
  1

  0
LWPOLYLINE
  5
F772
330
F770
100
AcDbEntity
  8
0
  6
ByBlock
 62
     0
 48
50.0
100
AcDbPolyline
 90
        2
 70
     1
 43
0.5
 10
-0.0625
 20
0.0
 42
1.0
 10
0.0625
 20
0.0
 42
1.0
  0
ENDBLK
  5
F776
330
F770
100
AcDbEntity
  8
0
 48
50.0
100
AcDbBlockEnd
  0
BLOCK
  5
16509
330
16508
100
AcDbEntity
  8
0
 48
50.0
100
AcDbBlockBegin
  2
_DOT
 70
     0
 10
0.0
 20
0.0
 30
0.0
  3
_DOT
  1

  0
LWPOLYLINE
  5
1650A
330
16508
100
AcDbEntity
  8
0
  6
ByBlock
 62
     0
 48
50.0
100
AcDbPolyline
 90
        2
 70
     1
 43
0.5
 10
-0.25
 20
0.0
 42
1.0
 10
0.25
 20
0.0
 42
1.0
  0
LINE
  5
1650B
330
16508
100
AcDbEntity
  8
0
  6
ByBlock
 62
     0
 48
50.0
100
AcDbLine
 10
-0.5
 20
0.0
 30
0.0
 11
-1.0
 21
0.0
 31
0.0
  0
ENDBLK
  5
1650C
330
16508
100
AcDbEntity
  8
0
 48
50.0
100
AcDbBlockEnd
  0
BLOCK
  5
16B3C
330
16B31
100
AcDbEntity
  8
0
 48
50.0
100
AcDbBlockBegin
  2
*D2
 70
     1
 10
0.0
 20
0.0
 30
0.0
  3
*D2
  1

  0
LINE
  5
1747F
330
16B31
100
AcDbEntity
  8
寸法
 62
     0
 48
50.0
370
    -2
100
AcDbLine
 10
5056.09640916217
 20
4759.066254407089
 30
0.0
 11
4440.161970056903
 21
4776.780404681418
 31
0.0
  0
LINE
  5
17480
330
16B31
100
AcDbEntity
  8
寸法
 62
     0
 48
50.0
370
    -2
100
AcDbLine
 10
5052.042953605544
 20
4618.124530641376
 30
0.0
 11
4436.108514500276
 21
4635.838680915704
 31
0.0
  0
LINE
  5
17481
330
16B31
100
AcDbEntity
  8
寸法
 62
     0
 48
50.0
370
    -2
100
AcDbLine
 10
4496.083716102706
 20
4634.113806210757
 30
0.0
 11
4500.137171659333
 21
4775.055529976471
 31
0.0
  0
LINE
  5
17482
330
16B31
100
AcDbEntity
  8
寸法
 62
     0
 48
50.0
370
    -2
100
AcDbLine
 10
4500.137171659333
 20
4775.055529976471
 30
0.0
 11
4510.486419889017
 21
5134.906739591055
 31
0.0
  0
INSERT
  5
17483
330
16B31
100
AcDbEntity
  8
寸法
 62
     0
 48
50.0
370
    -2
100
AcDbBlockReference
  2
_DOTSMALL
 10
4496.083716102706
 20
4634.113806210757
 30
0.0
 41
100.0
 42
100.0
 43
100.0
 50
268.3526390256378
  0
INSERT
  5
17484
330
16B31
100
AcDbEntity
  8
寸法
 62
     0
 48
50.0
370
    -2
100
AcDbBlockReference
  2
_DOTSMALL
 10
4500.137171659333
 20
4775.055529976471
 30
0.0
 41
100.0
 42
100.0
 43
100.0
 50
88.35263902563776
  0
MTEXT
  5
17485
330
16B31
100
AcDbEntity
  8
寸法
 62
     7
 48
50.0
100
AcDbMText
 10
4406.790522024246
 20
5007.835260627368
 30
0.0
 40
120.0
 41
0.0
 71
     5
 72
     1
  1
\A1;141
  7
STYLE1
 11
0.0287479117491237
 21
0.9995866933738488
 31
0.0
 73
     1
 44
1.0
1001
ACAD
1000
MTEXTBEGIN
1070
    73
1070
     1
1070
    44
1040
1.0
1070
    74
1070
     0
1000
MTEXTEND
  0
POINT
  5
17486
330
16B31
100
AcDbEntity
  8
DEFPOINTS
 62
     0
 48
50.0
100
AcDbPoint
 10
5076.088143029647
 20
4758.491296172106
 30
0.0
  0
POINT
  5
17487
330
16B31
100
AcDbEntity
  8
DEFPOINTS
 62
     0
 48
50.0
100
AcDbPoint
 10
5072.034687473021
 20
4617.549572406392
 30
0.0
  0
POINT
  5
17488
330
16B31
100
AcDbEntity
  8
DEFPOINTS
 62
     0
 48
50.0
100
AcDbPoint
 10
4496.083716102706
 20
4634.113806210757
 30
0.0
  0
ENDBLK
  5
16B3D
330
16B31
100
AcDbEntity
  8
0
 48
50.0
100
AcDbBlockEnd
  0
BLOCK
  5
16B89
330
16B7D
100
AcDbEntity
  8
0
 48
50.0
100
AcDbBlockBegin
  2
*D3
 70
     1
 10
0.0
 20
0.0
 30
0.0
  3
*D3
  1

  0
LINE
  5
17474
330
16B7D
100
AcDbEntity
  8
寸法
 62
     0
 48
50.0
370
    -2
100
AcDbLine
 10
5096.692122871067
 20
2734.768547337427
 30
0.0
 11
4433.03941371277
 21
2734.768547337427
 31
0.0
  0
LINE
  5
17475
330
16B7D
100
AcDbEntity
  8
寸法
 62
     0
 48
50.0
370
    -2
100
AcDbLine
 10
5041.692122871067
 20
2684.768547337427
 30
0.0
 11
4433.03941371277
 21
2684.768547337427
 31
0.0
  0
LINE
  5
17476
330
16B7D
100
AcDbEntity
  8
寸法
 62
     0
 48
50.0
370
    -2
100
AcDbLine
 10
4493.039413712771
 20
2734.768547337427
 30
0.0
 11
4493.039413712771
 21
2834.768547337427
 31
0.0
  0
LINE
  5
17477
330
16B7D
100
AcDbEntity
  8
寸法
 62
     0
 48
50.0
370
    -2
100
AcDbLine
 10
4493.039413712771
 20
2684.768547337427
 30
0.0
 11
4493.039413712771
 21
2272.674059148446
 31
0.0
  0
LINE
  5
17478
330
16B7D
100
AcDbEntity
  8
寸法
 62
     0
 48
50.0
370
    -2
100
AcDbLine
 10
4493.039413712771
 20
2734.768547337427
 30
0.0
 11
4493.039413712771
 21
2684.768547337427
 31
0.0
  0
INSERT
  5
17479
330
16B7D
100
AcDbEntity
  8
寸法
 62
     0
 48
50.0
370
    -2
100
AcDbBlockReference
  2
_DOTSMALL
 10
4493.039413712771
 20
2734.768547337427
 30
0.0
 41
100.0
 42
100.0
 43
100.0
 50
270.0
  0
INSERT
  5
1747A
330
16B7D
100
AcDbEntity
  8
寸法
 62
     0
 48
50.0
370
    -2
100
AcDbBlockReference
  2
_DOTSMALL
 10
4493.039413712771
 20
2684.768547337427
 30
0.0
 41
100.0
 42
100.0
 43
100.0
 50
90.0
  0
MTEXT
  5
1747B
330
16B7D
100
AcDbEntity
  8
寸法
 62
     7
 48
50.0
100
AcDbMText
 10
4393.039413712769
 20
2378.721303242935
 30
0.0
 40
120.0
 41
0.0
 71
     5
 72
     1
  1
\A1;50
  7
STYLE1
 11
0.0000000000000001
 21
1.0
 31
0.0
 73
     1
 44
1.0
1001
ACAD
1000
MTEXTBEGIN
1070
    73
1070
     1
1070
    44
1040
1.0
1070
    74
1070
     0
1000
MTEXTEND
  0
POINT
  5
1747C
330
16B7D
100
AcDbEntity
  8
DEFPOINTS
 62
     0
 48
50.0
100
AcDbPoint
 10
5116.692122871067
 20
2734.768547337427
 30
0.0
  0
POINT
  5
1747D
330
16B7D
100
AcDbEntity
  8
DEFPOINTS
 62
     0
 48
50.0
100
AcDbPoint
 10
5061.692122871067
 20
2684.768547337427
 30
0.0
  0
POINT
  5
1747E
330
16B7D
100
AcDbEntity
  8
DEFPOINTS
 62
     0
 48
50.0
100
AcDbPoint
 10
4493.039413712771
 20
2684.768547337427
 30
0.0
  0
ENDBLK
  5
16B8A
330
16B7D
100
AcDbEntity
  8
0
 48
50.0
100
AcDbBlockEnd
  0
BLOCK
  5
16B96
330
16B8B
100
AcDbEntity
  8
0
 48
50.0
100
AcDbBlockBegin
  2
*D4
 70
     1
 10
0.0
 20
0.0
 30
0.0
  3
*D4
  1

  0
LINE
  5
1746A
330
16B8B
100
AcDbEntity
  8
寸法
 62
     0
 48
50.0
370
    -2
100
AcDbLine
 10
5041.692122871067
 20
2684.768547337427
 30
0.0
 11
4148.052740941709
 21
2684.768547337427
 31
0.0
  0
LINE
  5
1746B
330
16B8B
100
AcDbEntity
  8
寸法
 62
     0
 48
50.0
370
    -2
100
AcDbLine
 10
4473.039413712769
 20
2584.768547337427
 30
0.0
 11
4148.052740941709
 21
2584.768547337427
 31
0.0
  0
LINE
  5
1746C
330
16B8B
100
AcDbEntity
  8
寸法
 62
     0
 48
50.0
370
    -2
100
AcDbLine
 10
4208.052740941709
 20
2684.768547337427
 30
0.0
 11
4208.052740941709
 21
2584.768547337427
 31
0.0
  0
LINE
  5
1746D
330
16B8B
100
AcDbEntity
  8
寸法
 62
     0
 48
50.0
370
    -2
100
AcDbLine
 10
4208.052740941709
 20
2584.768547337427
 30
0.0
 11
4208.052740941709
 21
2212.674059148446
 31
0.0
  0
INSERT
  5
1746E
330
16B8B
100
AcDbEntity
  8
寸法
 62
     0
 48
50.0
370
    -2
100
AcDbBlockReference
  2
_DOTSMALL
 10
4208.052740941709
 20
2684.768547337427
 30
0.0
 41
100.0
 42
100.0
 43
100.0
 50
90.0
  0
INSERT
  5
1746F
330
16B8B
100
AcDbEntity
  8
寸法
 62
     0
 48
50.0
370
    -2
100
AcDbBlockReference
  2
_DOTSMALL
 10
4208.052740941709
 20
2584.768547337427
 30
0.0
 41
100.0
 42
100.0
 43
100.0
 50
270.0
  0
MTEXT
  5
17470
330
16B8B
100
AcDbEntity
  8
寸法
 62
     7
 48
50.0
100
AcDbMText
 10
4108.052740941707
 20
2348.721303242935
 30
0.0
 40
120.0
 41
0.0
 71
     5
 72
     1
  1
\A1;100
  7
STYLE1
 11
0.0000000000000001
 21
1.0
 31
0.0
 73
     1
 44
1.0
1001
ACAD
1000
MTEXTBEGIN
1070
    73
1070
     1
1070
    44
1040
1.0
1070
    74
1070
     0
1000
MTEXTEND
  0
POINT
  5
17471
330
16B8B
100
AcDbEntity
  8
DEFPOINTS
 62
     0
 48
50.0
100
AcDbPoint
 10
5061.692122871067
 20
2684.768547337427
 30
0.0
  0
POINT
  5
17472
330
16B8B
100
AcDbEntity
  8
DEFPOINTS
 62
     0
 48
50.0
100
AcDbPoint
 10
4493.03941371277
 20
2584.768547337427
 30
0.0
  0
POINT
  5
17473
330
16B8B
100
AcDbEntity
  8
DEFPOINTS
 62
     0
 48
50.0
100
AcDbPoint
 10
4208.052740941709
 20
2584.768547337427
 30
0.0
  0
ENDBLK
  5
16B97
330
16B8B
100
AcDbEntity
  8
0
 48
50.0
100
AcDbBlockEnd
  0
BLOCK
  5
16BA2
330
16B98
100
AcDbEntity
  8
0
 48
50.0
100
AcDbBlockBegin
  2
*D5
 70
     1
 10
0.0
 20
0.0
 30
0.0
  3
*D5
  1

  0
LINE
  5
17461
330
16B98
100
AcDbEntity
  8
寸法
 62
     0
 48
50.0
370
    -2
100
AcDbLine
 10
5096.692122871067
 20
2684.768547337427
 30
0.0
 11
4148.052740941709
 21
2684.768547337427
 31
0.0
  0
LINE
  5
17462
330
16B98
100
AcDbEntity
  8
寸法
 62
     0
 48
50.0
370
    -2
100
AcDbLine
 10
5036.692122871067
 20
4759.768547337431
 30
0.0
 11
4148.052740941709
 21
4759.768547337431
 31
0.0
  0
LINE
  5
17463
330
16B98
100
AcDbEntity
  8
寸法
 62
     0
 48
50.0
370
    -2
100
AcDbLine
 10
4208.052740941709
 20
2684.768547337427
 30
0.0
 11
4208.052740941709
 21
4759.768547337431
 31
0.0
  0
INSERT
  5
17464
330
16B98
100
AcDbEntity
  8
寸法
 62
     0
 48
50.0
370
    -2
100
AcDbBlockReference
  2
_DOTSMALL
 10
4208.052740941709
 20
2684.768547337427
 30
0.0
 41
100.0
 42
100.0
 43
100.0
 50
270.0
  0
INSERT
  5
17465
330
16B98
100
AcDbEntity
  8
寸法
 62
     0
 48
50.0
370
    -2
100
AcDbBlockReference
  2
_DOTSMALL
 10
4208.052740941709
 20
4759.768547337431
 30
0.0
 41
100.0
 42
100.0
 43
100.0
 50
90.0
  0
MTEXT
  5
17466
330
16B98
100
AcDbEntity
  8
寸法
 62
     7
 48
50.0
100
AcDbMText
 10
4108.040929918086
 20
3678.974424830537
 30
0.0
 40
120.0
 41
0.0
 71
     5
 72
     1
  1
\A1;2075
  7
STYLE1
 11
0.0000000000000001
 21
1.0
 31
0.0
 73
     1
 44
1.0
1001
ACAD
1000
MTEXTBEGIN
1070
    73
1070
     1
1070
    44
1040
1.0
1070
    74
1070
     0
1000
MTEXTEND
  0
POINT
  5
17467
330
16B98
100
AcDbEntity
  8
DEFPOINTS
 62
     0
 48
50.0
100
AcDbPoint
 10
5116.692122871067
 20
2684.768547337427
 30
0.0
  0
POINT
  5
17468
330
16B98
100
AcDbEntity
  8
DEFPOINTS
 62
     0
 48
50.0
100
AcDbPoint
 10
5056.692122871067
 20
4759.768547337431
 30
0.0
  0
POINT
  5
17469
330
16B98
100
AcDbEntity
  8
DEFPOINTS
 62
     0
 48
50.0
100
AcDbPoint
 10
4208.052740941709
 20
4759.768547337431
 30
0.0
  0
ENDBLK
  5
16BA3
330
16B98
100
AcDbEntity
  8
0
 48
50.0
100
AcDbBlockEnd
  0
BLOCK
  5
16BAE
330
16BA4
100
AcDbEntity
  8
0
 48
50.0
100
AcDbBlockBegin
  2
*D6
 70
     1
 10
0.0
 20
0.0
 30
0.0
  3
*D6
  1

  0
LINE
  5
17458
330
16BA4
100
AcDbEntity
  8
寸法
 62
     0
 48
50.0
370
    -2
100
AcDbLine
 10
5096.692122871067
 20
4524.768547337426
 30
0.0
 11
4433.03941371277
 21
4524.768547337426
 31
0.0
  0
LINE
  5
17459
330
16BA4
100
AcDbEntity
  8
寸法
 62
     0
 48
50.0
370
    -2
100
AcDbLine
 10
5096.692122871067
 20
2734.768547337427
 30
0.0
 11
4433.03941371277
 21
2734.768547337427
 31
0.0
  0
LINE
  5
1745A
330
16BA4
100
AcDbEntity
  8
寸法
 62
     0
 48
50.0
370
    -2
100
AcDbLine
 10
4493.039413712771
 20
4524.768547337426
 30
0.0
 11
4493.039413712771
 21
2734.768547337427
 31
0.0
  0
INSERT
  5
1745B
330
16BA4
100
AcDbEntity
  8
寸法
 62
     0
 48
50.0
370
    -2
100
AcDbBlockReference
  2
_DOTSMALL
 10
4493.039413712771
 20
4524.768547337426
 30
0.0
 41
100.0
 42
100.0
 43
100.0
 50
90.0
  0
INSERT
  5
1745C
330
16BA4
100
AcDbEntity
  8
寸法
 62
     0
 48
50.0
370
    -2
100
AcDbBlockReference
  2
_DOTSMALL
 10
4493.039413712771
 20
2734.768547337427
 30
0.0
 41
100.0
 42
100.0
 43
100.0
 50
270.0
  0
MTEXT
  5
1745D
330
16BA4
100
AcDbEntity
  8
寸法
 62
     7
 48
50.0
100
AcDbMText
 10
4393.039413712769
 20
3625.222845879385
 30
0.0
 40
120.0
 41
0.0
 71
     5
 72
     1
  1
\A1;1790
  7
STYLE1
 11
0.0000000000000001
 21
1.0
 31
0.0
 73
     1
 44
1.0
1001
ACAD
1000
MTEXTBEGIN
1070
    73
1070
     1
1070
    44
1040
1.0
1070
    74
1070
     0
1000
MTEXTEND
  0
POINT
  5
1745E
330
16BA4
100
AcDbEntity
  8
DEFPOINTS
 62
     0
 48
50.0
100
AcDbPoint
 10
5116.692122871067
 20
4524.768547337426
 30
0.0
  0
POINT
  5
1745F
330
16BA4
100
AcDbEntity
  8
DEFPOINTS
 62
     0
 48
50.0
100
AcDbPoint
 10
5116.692122871067
 20
2734.768547337427
 30
0.0
  0
POINT
  5
17460
330
16BA4
100
AcDbEntity
  8
DEFPOINTS
 62
     0
 48
50.0
100
AcDbPoint
 10
4493.039413712771
 20
2734.768547337427
 30
0.0
  0
ENDBLK
  5
16BAF
330
16BA4
100
AcDbEntity
  8
0
 48
50.0
100
AcDbBlockEnd
  0
BLOCK
  5
16BEE
330
16BE2
100
AcDbEntity
  8
0
 48
50.0
100
AcDbBlockBegin
  2
*D7
 70
     1
 10
0.0
 20
0.0
 30
0.0
  3
*D7
  1

  0
LINE
  5
18AE0
330
16BE2
100
AcDbEntity
  8
寸法
 62
     0
 48
50.0
370
    -2
100
AcDbLine
 10
10818.78915220823
 20
8076.633414508473
 30
0.0
 11
11506.21549794264
 21
8076.633414508473
 31
0.0
  0
LINE
  5
18AE1
330
16BE2
100
AcDbEntity
  8
寸法
 62
     0
 48
50.0
370
    -2
100
AcDbLine
 10
10818.78915220823
 20
8021.633414508476
 30
0.0
 11
11506.21549794264
 21
8021.633414508476
 31
0.0
  0
LINE
  5
18AE2
330
16BE2
100
AcDbEntity
  8
寸法
 62
     0
 48
50.0
370
    -2
100
AcDbLine
 10
11446.21549794264
 20
8076.633414508473
 30
0.0
 11
11446.21549794264
 21
8176.633414508472
 31
0.0
  0
LINE
  5
18AE3
330
16BE2
100
AcDbEntity
  8
寸法
 62
     0
 48
50.0
370
    -2
100
AcDbLine
 10
11446.21549794264
 20
8021.633414508476
 30
0.0
 11
11446.21549794264
 21
7604.662851759996
 31
0.0
  0
LINE
  5
18AE4
330
16BE2
100
AcDbEntity
  8
寸法
 62
     0
 48
50.0
370
    -2
100
AcDbLine
 10
11446.21549794264
 20
8076.633414508473
 30
0.0
 11
11446.21549794264
 21
8021.633414508476
 31
0.0
  0
INSERT
  5
18AE5
330
16BE2
100
AcDbEntity
  8
寸法
 62
     0
 48
50.0
370
    -2
100
AcDbBlockReference
  2
_DOTSMALL
 10
11446.21549794264
 20
8076.633414508473
 30
0.0
 41
100.0
 42
100.0
 43
100.0
 50
270.0
  0
INSERT
  5
18AE6
330
16BE2
100
AcDbEntity
  8
寸法
 62
     0
 48
50.0
370
    -2
100
AcDbBlockReference
  2
_DOTSMALL
 10
11446.21549794264
 20
8021.633414508476
 30
0.0
 41
100.0
 42
100.0
 43
100.0
 50
90.0
  0
MTEXT
  5
18AE7
330
16BE2
100
AcDbEntity
  8
寸法
 62
     7
 48
50.0
100
AcDbMText
 10
11346.21549794264
 20
7713.148133134237
 30
0.0
 40
120.0
 41
0.0
 71
     5
 72
     1
  1
\A1;55
  7
STYLE1
 11
0.0000000000000001
 21
1.0
 31
0.0
 73
     1
 44
1.0
1001
ACAD
1000
MTEXTBEGIN
1070
    73
1070
     1
1070
    44
1040
1.0
1070
    74
1070
     0
1000
MTEXTEND
  0
POINT
  5
18AE8
330
16BE2
100
AcDbEntity
  8
DEFPOINTS
 62
     0
 48
50.0
100
AcDbPoint
 10
10798.78915220823
 20
8076.633414508473
 30
0.0
  0
POINT
  5
18AE9
330
16BE2
100
AcDbEntity
  8
DEFPOINTS
 62
     0
 48
50.0
100
AcDbPoint
 10
10798.78915220823
 20
8021.633414508476
 30
0.0
  0
POINT
  5
18AEA
330
16BE2
100
AcDbEntity
  8
DEFPOINTS
 62
     0
 48
50.0
100
AcDbPoint
 10
11446.21549794264
 20
8021.633414508476
 30
0.0
  0
ENDBLK
  5
16BEF
330
16BE2
100
AcDbEntity
  8
0
 48
50.0
100
AcDbBlockEnd
  0
BLOCK
  5
16BFA
330
16BF0
100
AcDbEntity
  8
0
 48
50.0
100
AcDbBlockBegin
  2
*D8
 70
     1
 10
0.0
 20
0.0
 30
0.0
  3
*D8
  1

  0
LINE
  5
18AD7
330
16BF0
100
AcDbEntity
  8
寸法
 62
     0
 48
50.0
370
    -2
100
AcDbLine
 10
10818.78915220825
 20
10231.63341450848
 30
0.0
 11
11774.65402924314
 21
10231.63341450848
 31
0.0
  0
LINE
  5
18AD8
330
16BF0
100
AcDbEntity
  8
寸法
 62
     0
 48
50.0
370
    -2
100
AcDbLine
 10
10818.78915220823
 20
8021.633414508476
 30
0.0
 11
11774.65402924314
 21
8021.633414508476
 31
0.0
  0
LINE
  5
18AD9
330
16BF0
100
AcDbEntity
  8
寸法
 62
     0
 48
50.0
370
    -2
100
AcDbLine
 10
11714.65402924314
 20
10231.63341450848
 30
0.0
 11
11714.65402924314
 21
8021.633414508476
 31
0.0
  0
INSERT
  5
18ADA
330
16BF0
100
AcDbEntity
  8
寸法
 62
     0
 48
50.0
370
    -2
100
AcDbBlockReference
  2
_DOTSMALL
 10
11714.65402924314
 20
10231.63341450848
 30
0.0
 41
100.0
 42
100.0
 43
100.0
 50
90.0
  0
INSERT
  5
18ADB
330
16BF0
100
AcDbEntity
  8
寸法
 62
     0
 48
50.0
370
    -2
100
AcDbBlockReference
  2
_DOTSMALL
 10
11714.65402924314
 20
8021.633414508476
 30
0.0
 41
100.0
 42
100.0
 43
100.0
 50
270.0
  0
MTEXT
  5
18ADC
330
16BF0
100
AcDbEntity
  8
寸法
 62
     7
 48
50.0
100
AcDbMText
 10
11614.64221821952
 20
9126.633414508482
 30
0.0
 40
120.0
 41
0.0
 71
     5
 72
     1
  1
\A1;2210
  7
STYLE1
 11
0.0000000000000001
 21
1.0
 31
0.0
 73
     1
 44
1.0
1001
ACAD
1000
MTEXTBEGIN
1070
    73
1070
     1
1070
    44
1040
1.0
1070
    74
1070
     0
1000
MTEXTEND
  0
POINT
  5
18ADD
330
16BF0
100
AcDbEntity
  8
DEFPOINTS
 62
     0
 48
50.0
100
AcDbPoint
 10
10798.78915220825
 20
10231.63341450848
 30
0.0
  0
POINT
  5
18ADE
330
16BF0
100
AcDbEntity
  8
DEFPOINTS
 62
     0
 48
50.0
100
AcDbPoint
 10
10798.78915220823
 20
8021.633414508476
 30
0.0
  0
POINT
  5
18ADF
330
16BF0
100
AcDbEntity
  8
DEFPOINTS
 62
     0
 48
50.0
100
AcDbPoint
 10
11714.65402924314
 20
8021.633414508476
 30
0.0
  0
ENDBLK
  5
16BFB
330
16BF0
100
AcDbEntity
  8
0
 48
50.0
100
AcDbBlockEnd
  0
BLOCK
  5
16C08
330
16BFC
100
AcDbEntity
  8
0
 48
50.0
100
AcDbBlockBegin
  2
*D9
 70
     1
 10
0.0
 20
0.0
 30
0.0
  3
*D9
  1

  0
LINE
  5
18ACC
330
16BFC
100
AcDbEntity
  8
寸法
 62
     0
 48
50.0
370
    -2
100
AcDbLine
 10
10818.78915220825
 20
10231.63341450848
 30
0.0
 11
11506.21549794267
 21
10231.63341450848
 31
0.0
  0
LINE
  5
18ACD
330
16BFC
100
AcDbEntity
  8
寸法
 62
     0
 48
50.0
370
    -2
100
AcDbLine
 10
10818.78915220825
 20
10176.63341450849
 30
0.0
 11
11506.21549794267
 21
10176.63341450849
 31
0.0
  0
LINE
  5
18ACE
330
16BFC
100
AcDbEntity
  8
寸法
 62
     0
 48
50.0
370
    -2
100
AcDbLine
 10
11446.21549794267
 20
10176.63341450849
 30
0.0
 11
11446.21549794267
 21
10076.63341450849
 31
0.0
  0
LINE
  5
18ACF
330
16BFC
100
AcDbEntity
  8
寸法
 62
     0
 48
50.0
370
    -2
100
AcDbLine
 10
11446.21549794267
 20
10231.63341450848
 30
0.0
 11
11446.21549794267
 21
10648.60397725696
 31
0.0
  0
LINE
  5
18AD0
330
16BFC
100
AcDbEntity
  8
寸法
 62
     0
 48
50.0
370
    -2
100
AcDbLine
 10
11446.21549794267
 20
10176.63341450849
 30
0.0
 11
11446.21549794267
 21
10231.63341450848
 31
0.0
  0
INSERT
  5
18AD1
330
16BFC
100
AcDbEntity
  8
寸法
 62
     0
 48
50.0
370
    -2
100
AcDbBlockReference
  2
_DOTSMALL
 10
11446.21549794267
 20
10176.63341450849
 30
0.0
 41
100.0
 42
100.0
 43
100.0
 50
90.0
  0
INSERT
  5
18AD2
330
16BFC
100
AcDbEntity
  8
寸法
 62
     0
 48
50.0
370
    -2
100
AcDbBlockReference
  2
_DOTSMALL
 10
11446.21549794267
 20
10231.63341450848
 30
0.0
 41
100.0
 42
100.0
 43
100.0
 50
270.0
  0
MTEXT
  5
18AD3
330
16BFC
100
AcDbEntity
  8
寸法
 62
     7
 48
50.0
100
AcDbMText
 10
11346.21549794266
 20
10540.11869588272
 30
0.0
 40
120.0
 41
0.0
 71
     5
 72
     1
  1
\A1;55
  7
STYLE1
 11
0.0000000000000001
 21
1.0
 31
0.0
 73
     1
 44
1.0
1001
ACAD
1000
MTEXTBEGIN
1070
    73
1070
     1
1070
    44
1040
1.0
1070
    74
1070
     0
1000
MTEXTEND
  0
POINT
  5
18AD4
330
16BFC
100
AcDbEntity
  8
DEFPOINTS
 62
     0
 48
50.0
100
AcDbPoint
 10
10798.78915220825
 20
10231.63341450848
 30
0.0
  0
POINT
  5
18AD5
330
16BFC
100
AcDbEntity
  8
DEFPOINTS
 62
     0
 48
50.0
100
AcDbPoint
 10
10798.78915220825
 20
10176.63341450849
 30
0.0
  0
POINT
  5
18AD6
330
16BFC
100
AcDbEntity
  8
DEFPOINTS
 62
     0
 48
50.0
100
AcDbPoint
 10
11446.21549794267
 20
10176.63341450849
 30
0.0
  0
ENDBLK
  5
16C09
330
16BFC
100
AcDbEntity
  8
0
 48
50.0
100
AcDbBlockEnd
  0
BLOCK
  5
16C14
330
16C0A
100
AcDbEntity
  8
0
 48
50.0
100
AcDbBlockBegin
  2
*D10
 70
     1
 10
0.0
 20
0.0
 30
0.0
  3
*D10
  1

  0
LINE
  5
18AC3
330
16C0A
100
AcDbEntity
  8
寸法
 62
     0
 48
50.0
370
    -2
100
AcDbLine
 10
10818.78915220825
 20
10176.63341450849
 30
0.0
 11
11506.21549794267
 21
10176.63341450849
 31
0.0
  0
LINE
  5
18AC4
330
16C0A
100
AcDbEntity
  8
寸法
 62
     0
 48
50.0
370
    -2
100
AcDbLine
 10
10818.78915220823
 20
8076.633414508473
 30
0.0
 11
11506.21549794267
 21
8076.633414508473
 31
0.0
  0
LINE
  5
18AC5
330
16C0A
100
AcDbEntity
  8
寸法
 62
     0
 48
50.0
370
    -2
100
AcDbLine
 10
11446.21549794267
 20
10176.63341450849
 30
0.0
 11
11446.21549794267
 21
8076.633414508473
 31
0.0
  0
INSERT
  5
18AC6
330
16C0A
100
AcDbEntity
  8
寸法
 62
     0
 48
50.0
370
    -2
100
AcDbBlockReference
  2
_DOTSMALL
 10
11446.21549794267
 20
10176.63341450849
 30
0.0
 41
100.0
 42
100.0
 43
100.0
 50
90.0
  0
INSERT
  5
18AC7
330
16C0A
100
AcDbEntity
  8
寸法
 62
     0
 48
50.0
370
    -2
100
AcDbBlockReference
  2
_DOTSMALL
 10
11446.21549794267
 20
8076.633414508473
 30
0.0
 41
100.0
 42
100.0
 43
100.0
 50
270.0
  0
MTEXT
  5
18AC8
330
16C0A
100
AcDbEntity
  8
寸法
 62
     7
 48
50.0
100
AcDbMText
 10
11346.20368691904
 20
9126.633414508482
 30
0.0
 40
120.0
 41
0.0
 71
     5
 72
     1
  1
\A1;5X420=2100
  7
STYLE1
 11
0.0000000000000001
 21
1.0
 31
0.0
 73
     1
 44
1.0
1001
ACAD
1000
MTEXTBEGIN
1070
    73
1070
     1
1070
    44
1040
1.0
1070
    74
1070
     0
1000
MTEXTEND
  0
POINT
  5
18AC9
330
16C0A
100
AcDbEntity
  8
DEFPOINTS
 62
     0
 48
50.0
100
AcDbPoint
 10
10798.78915220825
 20
10176.63341450849
 30
0.0
  0
POINT
  5
18ACA
330
16C0A
100
AcDbEntity
  8
DEFPOINTS
 62
     0
 48
50.0
100
AcDbPoint
 10
10798.78915220823
 20
8076.633414508473
 30
0.0
  0
POINT
  5
18ACB
330
16C0A
100
AcDbEntity
  8
DEFPOINTS
 62
     0
 48
50.0
100
AcDbPoint
 10
11446.21549794267
 20
8076.633414508473
 30
0.0
  0
ENDBLK
  5
16C15
330
16C0A
100
AcDbEntity
  8
0
 48
50.0
100
AcDbBlockEnd
  0
BLOCK
  5
16C20
330
16C16
100
AcDbEntity
  8
0
 48
50.0
100
AcDbBlockBegin
  2
*D11
 70
     1
 10
0.0
 20
0.0
 30
0.0
  3
*D11
  1

  0
LINE
  5
18ABA
330
16C16
100
AcDbEntity
  8
寸法
 62
     0
 48
50.0
370
    -2
100
AcDbLine
 10
10788.78915220833
 20
8897.774430659854
 30
0.0
 11
11240.97235960895
 21
8776.612305405944
 31
0.0
  0
LINE
  5
18ABB
330
16C16
100
AcDbEntity
  8
寸法
 62
     0
 48
50.0
370
    -2
100
AcDbLine
 10
10788.78915220822
 20
8044.774430659854
 30
0.0
 11
11240.97235960895
 21
7923.612305405914
 31
0.0
  0
LINE
  5
18ABC
330
16C16
100
AcDbEntity
  8
寸法
 62
     0
 48
50.0
370
    -2
100
AcDbLine
 10
11180.97235960895
 20
8792.68925695181
 30
0.0
 11
11180.97235960895
 21
7939.68925695178
 31
0.0
  0
INSERT
  5
18ABD
330
16C16
100
AcDbEntity
  8
寸法
 62
     0
 48
50.0
370
    -2
100
AcDbBlockReference
  2
_DOTSMALL
 10
11180.97235960895
 20
8792.68925695181
 30
0.0
 41
100.0
 42
100.0
 43
100.0
 50
90.0
  0
INSERT
  5
18ABE
330
16C16
100
AcDbEntity
  8
寸法
 62
     0
 48
50.0
370
    -2
100
AcDbBlockReference
  2
_DOTSMALL
 10
11180.97235960895
 20
7939.68925695178
 30
0.0
 41
100.0
 42
100.0
 43
100.0
 50
270.0
  0
MTEXT
  5
18ABF
330
16C16
100
AcDbEntity
  8
寸法
 62
     7
 48
50.0
100
AcDbMText
 10
11080.97235960895
 20
8404.540122312605
 30
0.0
 40
120.0
 41
0.0
 71
     5
 72
     1
  1
\A1;853
  7
STYLE1
 11
0.0000000000000001
 21
1.0
 31
0.0
 73
     1
 44
1.0
1001
ACAD
1000
MTEXTBEGIN
1070
    73
1070
     1
1070
    44
1040
1.0
1070
    74
1070
     0
1000
MTEXTEND
  0
POINT
  5
18AC0
330
16C16
100
AcDbEntity
  8
DEFPOINTS
 62
     0
 48
50.0
100
AcDbPoint
 10
10768.78915220833
 20
8903.133414508477
 30
0.0
  0
POINT
  5
18AC1
330
16C16
100
AcDbEntity
  8
DEFPOINTS
 62
     0
 48
50.0
100
AcDbPoint
 10
10768.78915220822
 20
8050.133414508477
 30
0.0
  0
POINT
  5
18AC2
330
16C16
100
AcDbEntity
  8
DEFPOINTS
 62
     0
 48
50.0
100
AcDbPoint
 10
11180.97235960895
 20
7939.68925695178
 30
0.0
  0
ENDBLK
  5
16C21
330
16C16
100
AcDbEntity
  8
0
 48
50.0
100
AcDbBlockEnd
  0
BLOCK
  5
16C2C
330
16C22
100
AcDbEntity
  8
0
 48
50.0
100
AcDbBlockBegin
  2
*D12
 70
     1
 10
0.0
 20
0.0
 30
0.0
  3
*D12
  1

  0
LINE
  5
18AB1
330
16C22
100
AcDbEntity
  8
寸法
 62
     0
 48
50.0
370
    -2
100
AcDbLine
 10
10788.78915220832
 20
10197.77443065986
 30
0.0
 11
11240.97235960896
 21
10076.61230540594
 31
0.0
  0
LINE
  5
18AB2
330
16C22
100
AcDbEntity
  8
寸法
 62
     0
 48
50.0
370
    -2
100
AcDbLine
 10
10788.78915220833
 20
8924.774430659848
 30
0.0
 11
11240.97235960896
 21
8803.612305405932
 31
0.0
  0
LINE
  5
18AB3
330
16C22
100
AcDbEntity
  8
寸法
 62
     0
 48
50.0
370
    -2
100
AcDbLine
 10
11180.97235960896
 20
10092.68925695181
 30
0.0
 11
11180.97235960896
 21
8819.6892569518
 31
0.0
  0
INSERT
  5
18AB4
330
16C22
100
AcDbEntity
  8
寸法
 62
     0
 48
50.0
370
    -2
100
AcDbBlockReference
  2
_DOTSMALL
 10
11180.97235960896
 20
10092.68925695181
 30
0.0
 41
100.0
 42
100.0
 43
100.0
 50
90.0
  0
INSERT
  5
18AB5
330
16C22
100
AcDbEntity
  8
寸法
 62
     0
 48
50.0
370
    -2
100
AcDbBlockReference
  2
_DOTSMALL
 10
11180.97235960896
 20
8819.6892569518
 30
0.0
 41
100.0
 42
100.0
 43
100.0
 50
270.0
  0
MTEXT
  5
18AB6
330
16C22
100
AcDbEntity
  8
寸法
 62
     7
 48
50.0
100
AcDbMText
 10
11080.96054858533
 20
9456.189256951807
 30
0.0
 40
120.0
 41
0.0
 71
     5
 72
     1
  1
\A1;1273
  7
STYLE1
 11
0.0000000000000001
 21
1.0
 31
0.0
 73
     1
 44
1.0
1001
ACAD
1000
MTEXTBEGIN
1070
    73
1070
     1
1070
    44
1040
1.0
1070
    74
1070
     0
1000
MTEXTEND
  0
POINT
  5
18AB7
330
16C22
100
AcDbEntity
  8
DEFPOINTS
 62
     0
 48
50.0
100
AcDbPoint
 10
10768.78915220832
 20
10203.13341450848
 30
0.0
  0
POINT
  5
18AB8
330
16C22
100
AcDbEntity
  8
DEFPOINTS
 62
     0
 48
50.0
100
AcDbPoint
 10
10768.78915220833
 20
8930.133414508469
 30
0.0
  0
POINT
  5
18AB9
330
16C22
100
AcDbEntity
  8
DEFPOINTS
 62
     0
 48
50.0
100
AcDbPoint
 10
11180.97235960896
 20
8819.6892569518
 30
0.0
  0
ENDBLK
  5
16C2D
330
16C22
100
AcDbEntity
  8
0
 48
50.0
100
AcDbBlockEnd
  0
BLOCK
  5
16C44
330
16C3A
100
AcDbEntity
  8
0
 48
50.0
100
AcDbBlockBegin
  2
*D13
 70
     1
 10
0.0
 20
0.0
 30
0.0
  3
*D13
  1

  0
LINE
  5
18AA8
330
16C3A
100
AcDbEntity
  8
寸法
 62
     0
 48
50.0
370
    -2
100
AcDbLine
 10
9483.789152208315
 20
10251.63341450848
 30
0.0
 11
9483.789152208315
 21
10939.05976024289
 31
0.0
  0
LINE
  5
18AA9
330
16C3A
100
AcDbEntity
  8
寸法
 62
     0
 48
50.0
370
    -2
100
AcDbLine
 10
10743.78915220833
 20
10251.63341450845
 30
0.0
 11
10743.78915220833
 21
10939.05976024289
 31
0.0
  0
LINE
  5
18AAA
330
16C3A
100
AcDbEntity
  8
寸法
 62
     0
 48
50.0
370
    -2
100
AcDbLine
 10
9483.789152208315
 20
10879.05976024289
 30
0.0
 11
10743.78915220833
 21
10879.05976024289
 31
0.0
  0
INSERT
  5
18AAB
330
16C3A
100
AcDbEntity
  8
寸法
 62
     0
 48
50.0
370
    -2
100
AcDbBlockReference
  2
_DOTSMALL
 10
9483.789152208315
 20
10879.05976024289
 30
0.0
 41
100.0
 42
100.0
 43
100.0
 50
180.0
  0
INSERT
  5
18AAC
330
16C3A
100
AcDbEntity
  8
寸法
 62
     0
 48
50.0
370
    -2
100
AcDbBlockReference
  2
_DOTSMALL
 10
10743.78915220833
 20
10879.05976024289
 30
0.0
 41
100.0
 42
100.0
 43
100.0
  0
MTEXT
  5
18AAD
330
16C3A
100
AcDbEntity
  8
寸法
 62
     7
 48
50.0
100
AcDbMText
 10
10113.78915220832
 20
10979.07157126651
 30
0.0
 40
120.0
 41
0.0
 71
     5
 72
     1
  1
\A1;3X420=1260
  7
STYLE1
 73
     1
 44
1.0
1001
ACAD
1000
MTEXTBEGIN
1070
    73
1070
     1
1070
    44
1040
1.0
1070
    74
1070
     0
1000
MTEXTEND
  0
POINT
  5
18AAE
330
16C3A
100
AcDbEntity
  8
DEFPOINTS
 62
     0
 48
50.0
100
AcDbPoint
 10
9483.789152208315
 20
10231.63341450848
 30
0.0
  0
POINT
  5
18AAF
330
16C3A
100
AcDbEntity
  8
DEFPOINTS
 62
     0
 48
50.0
100
AcDbPoint
 10
10743.78915220833
 20
10231.63341450845
 30
0.0
  0
POINT
  5
18AB0
330
16C3A
100
AcDbEntity
  8
DEFPOINTS
 62
     0
 48
50.0
100
AcDbPoint
 10
10743.78915220833
 20
10879.05976024289
 30
0.0
  0
ENDBLK
  5
16C45
330
16C3A
100
AcDbEntity
  8
0
 48
50.0
100
AcDbBlockEnd
  0
BLOCK
  5
16C52
330
16C46
100
AcDbEntity
  8
0
 48
50.0
100
AcDbBlockBegin
  2
*D14
 70
     1
 10
0.0
 20
0.0
 30
0.0
  3
*D14
  1

  0
LINE
  5
18A9D
330
16C46
100
AcDbEntity
  8
寸法
 62
     0
 48
50.0
370
    -2
100
AcDbLine
 10
10743.78915220833
 20
10251.63341450845
 30
0.0
 11
10743.78915220833
 21
10939.05976024286
 31
0.0
  0
LINE
  5
18A9E
330
16C46
100
AcDbEntity
  8
寸法
 62
     0
 48
50.0
370
    -2
100
AcDbLine
 10
10798.78915220833
 20
10251.63341450845
 30
0.0
 11
10798.78915220833
 21
10939.05976024286
 31
0.0
  0
LINE
  5
18A9F
330
16C46
100
AcDbEntity
  8
寸法
 62
     0
 48
50.0
370
    -2
100
AcDbLine
 10
10743.78915220833
 20
10879.05976024286
 30
0.0
 11
10643.78915220833
 21
10879.05976024286
 31
0.0
  0
LINE
  5
18AA0
330
16C46
100
AcDbEntity
  8
寸法
 62
     0
 48
50.0
370
    -2
100
AcDbLine
 10
10798.78915220833
 20
10879.05976024286
 30
0.0
 11
11285.13590048742
 21
10879.05976024286
 31
0.0
  0
LINE
  5
18AA1
330
16C46
100
AcDbEntity
  8
寸法
 62
     0
 48
50.0
370
    -2
100
AcDbLine
 10
10743.78915220833
 20
10879.05976024286
 30
0.0
 11
10798.78915220833
 21
10879.05976024286
 31
0.0
  0
INSERT
  5
18AA2
330
16C46
100
AcDbEntity
  8
寸法
 62
     0
 48
50.0
370
    -2
100
AcDbBlockReference
  2
_DOTSMALL
 10
10743.78915220833
 20
10879.05976024286
 30
0.0
 41
100.0
 42
100.0
 43
100.0
  0
INSERT
  5
18AA3
330
16C46
100
AcDbEntity
  8
寸法
 62
     0
 48
50.0
370
    -2
100
AcDbBlockReference
  2
_DOTSMALL
 10
10798.78915220833
 20
10879.05976024286
 30
0.0
 41
100.0
 42
100.0
 43
100.0
 50
180.0
  0
MTEXT
  5
18AA4
330
16C46
100
AcDbEntity
  8
寸法
 62
     7
 48
50.0
100
AcDbMText
 10
11176.65061911319
 20
10979.05976024286
 30
0.0
 40
120.0
 41
0.0
 71
     5
 72
     1
  1
\A1;55
  7
STYLE1
 73
     1
 44
1.0
1001
ACAD
1000
MTEXTBEGIN
1070
    73
1070
     1
1070
    44
1040
1.0
1070
    74
1070
     0
1000
MTEXTEND
  0
POINT
  5
18AA5
330
16C46
100
AcDbEntity
  8
DEFPOINTS
 62
     0
 48
50.0
100
AcDbPoint
 10
10743.78915220833
 20
10231.63341450845
 30
0.0
  0
POINT
  5
18AA6
330
16C46
100
AcDbEntity
  8
DEFPOINTS
 62
     0
 48
50.0
100
AcDbPoint
 10
10798.78915220833
 20
10231.63341450845
 30
0.0
  0
POINT
  5
18AA7
330
16C46
100
AcDbEntity
  8
DEFPOINTS
 62
     0
 48
50.0
100
AcDbPoint
 10
10798.78915220833
 20
10879.05976024286
 30
0.0
  0
ENDBLK
  5
16C53
330
16C46
100
AcDbEntity
  8
0
 48
50.0
100
AcDbBlockEnd
  0
BLOCK
  5
16C5E
330
16C54
100
AcDbEntity
  8
0
 48
50.0
100
AcDbBlockBegin
  2
*D15
 70
     1
 10
0.0
 20
0.0
 30
0.0
  3
*D15
  1

  0
LINE
  5
18A94
330
16C54
100
AcDbEntity
  8
寸法
 62
     0
 48
50.0
370
    -2
100
AcDbLine
 10
10763.4301683597
 20
10223.13341450848
 30
0.0
 11
10657.49438499357
 21
10618.4911403705
 31
0.0
  0
LINE
  5
18A95
330
16C54
100
AcDbEntity
  8
寸法
 62
     0
 48
50.0
370
    -2
100
AcDbLine
 10
10313.4301683597
 20
10223.13341450848
 30
0.0
 11
10207.49438499357
 21
10618.4911403705
 31
0.0
  0
LINE
  5
18A96
330
16C54
100
AcDbEntity
  8
寸法
 62
     0
 48
50.0
370
    -2
100
AcDbLine
 10
10673.57133653944
 20
10558.4911403705
 30
0.0
 11
10223.57133653944
 21
10558.4911403705
 31
0.0
  0
INSERT
  5
18A97
330
16C54
100
AcDbEntity
  8
寸法
 62
     0
 48
50.0
370
    -2
100
AcDbBlockReference
  2
_DOTSMALL
 10
10673.57133653944
 20
10558.4911403705
 30
0.0
 41
100.0
 42
100.0
 43
100.0
  0
INSERT
  5
18A98
330
16C54
100
AcDbEntity
  8
寸法
 62
     0
 48
50.0
370
    -2
100
AcDbBlockReference
  2
_DOTSMALL
 10
10223.57133653944
 20
10558.4911403705
 30
0.0
 41
100.0
 42
100.0
 43
100.0
 50
180.0
  0
MTEXT
  5
18A99
330
16C54
100
AcDbEntity
  8
寸法
 62
     7
 48
50.0
100
AcDbMText
 10
10448.57133653943
 20
10658.4911403705
 30
0.0
 40
120.0
 41
0.0
 71
     5
 72
     1
  1
\A1;450
  7
STYLE1
 73
     1
 44
1.0
1001
ACAD
1000
MTEXTBEGIN
1070
    73
1070
     1
1070
    44
1040
1.0
1070
    74
1070
     0
1000
MTEXTEND
  0
POINT
  5
18A9A
330
16C54
100
AcDbEntity
  8
DEFPOINTS
 62
     0
 48
50.0
100
AcDbPoint
 10
10768.78915220832
 20
10203.13341450848
 30
0.0
  0
POINT
  5
18A9B
330
16C54
100
AcDbEntity
  8
DEFPOINTS
 62
     0
 48
50.0
100
AcDbPoint
 10
10318.78915220833
 20
10203.13341450848
 30
0.0
  0
POINT
  5
18A9C
330
16C54
100
AcDbEntity
  8
DEFPOINTS
 62
     0
 48
50.0
100
AcDbPoint
 10
10223.57133653944
 20
10558.4911403705
 30
0.0
  0
ENDBLK
  5
16C5F
330
16C54
100
AcDbEntity
  8
0
 48
50.0
100
AcDbBlockEnd
  0
BLOCK
  5
16C6C
330
16C60
100
AcDbEntity
  8
0
 48
50.0
100
AcDbBlockBegin
  2
*D16
 70
     1
 10
0.0
 20
0.0
 30
0.0
  3
*D16
  1

  0
LINE
  5
18A89
330
16C60
100
AcDbEntity
  8
寸法
 62
     0
 48
50.0
370
    -2
100
AcDbLine
 10
9428.789152208317
 20
10251.63341450848
 30
0.0
 11
9428.789152208317
 21
10939.05976024289
 31
0.0
  0
LINE
  5
18A8A
330
16C60
100
AcDbEntity
  8
寸法
 62
     0
 48
50.0
370
    -2
100
AcDbLine
 10
9483.789152208315
 20
10251.63341450848
 30
0.0
 11
9483.789152208315
 21
10939.05976024289
 31
0.0
  0
LINE
  5
18A8B
330
16C60
100
AcDbEntity
  8
寸法
 62
     0
 48
50.0
370
    -2
100
AcDbLine
 10
9483.789152208315
 20
10879.05976024289
 30
0.0
 11
9583.789152208314
 21
10879.05976024289
 31
0.0
  0
LINE
  5
18A8C
330
16C60
100
AcDbEntity
  8
寸法
 62
     0
 48
50.0
370
    -2
100
AcDbLine
 10
9428.789152208317
 20
10879.05976024289
 30
0.0
 11
9011.81858945984
 21
10879.05976024289
 31
0.0
  0
LINE
  5
18A8D
330
16C60
100
AcDbEntity
  8
寸法
 62
     0
 48
50.0
370
    -2
100
AcDbLine
 10
9483.789152208315
 20
10879.05976024289
 30
0.0
 11
9428.789152208317
 21
10879.05976024289
 31
0.0
  0
INSERT
  5
18A8E
330
16C60
100
AcDbEntity
  8
寸法
 62
     0
 48
50.0
370
    -2
100
AcDbBlockReference
  2
_DOTSMALL
 10
9483.789152208315
 20
10879.05976024289
 30
0.0
 41
100.0
 42
100.0
 43
100.0
 50
180.0
  0
INSERT
  5
18A8F
330
16C60
100
AcDbEntity
  8
寸法
 62
     0
 48
50.0
370
    -2
100
AcDbBlockReference
  2
_DOTSMALL
 10
9428.789152208317
 20
10879.05976024289
 30
0.0
 41
100.0
 42
100.0
 43
100.0
  0
MTEXT
  5
18A90
330
16C60
100
AcDbEntity
  8
寸法
 62
     7
 48
50.0
100
AcDbMText
 10
9120.30387083408
 20
10979.05976024289
 30
0.0
 40
120.0
 41
0.0
 71
     5
 72
     1
  1
\A1;55
  7
STYLE1
 73
     1
 44
1.0
1001
ACAD
1000
MTEXTBEGIN
1070
    73
1070
     1
1070
    44
1040
1.0
1070
    74
1070
     0
1000
MTEXTEND
  0
POINT
  5
18A91
330
16C60
100
AcDbEntity
  8
DEFPOINTS
 62
     0
 48
50.0
100
AcDbPoint
 10
9428.789152208317
 20
10231.63341450848
 30
0.0
  0
POINT
  5
18A92
330
16C60
100
AcDbEntity
  8
DEFPOINTS
 62
     0
 48
50.0
100
AcDbPoint
 10
9483.789152208315
 20
10231.63341450848
 30
0.0
  0
POINT
  5
18A93
330
16C60
100
AcDbEntity
  8
DEFPOINTS
 62
     0
 48
50.0
100
AcDbPoint
 10
9483.789152208315
 20
10879.05976024289
 30
0.0
  0
ENDBLK
  5
16C6D
330
16C60
100
AcDbEntity
  8
0
 48
50.0
100
AcDbBlockEnd
  0
BLOCK
  5
16CAC
330
16CA2
100
AcDbEntity
  8
0
 48
50.0
100
AcDbBlockBegin
  2
*D17
 70
     1
 10
0.0
 20
0.0
 30
0.0
  3
*D17
  1

  0
LINE
  5
17492
330
16CA2
100
AcDbEntity
  8
寸法
 62
     0
 48
50.0
370
    -2
100
AcDbLine
 10
5244.192122871067
 20
2364.768547337424
 30
0.0
 11
5244.192122871067
 21
2038.721218037048
 31
0.0
  0
LINE
  5
17493
330
16CA2
100
AcDbEntity
  8
寸法
 62
     0
 48
50.0
370
    -2
100
AcDbLine
 10
5044.192122871071
 20
2364.768547337426
 30
0.0
 11
5044.192122871071
 21
2038.721218037048
 31
0.0
  0
LINE
  5
17494
330
16CA2
100
AcDbEntity
  8
寸法
 62
     0
 48
50.0
370
    -2
100
AcDbLine
 10
5244.192122871067
 20
2098.721218037048
 30
0.0
 11
5044.192122871071
 21
2098.721218037048
 31
0.0
  0
INSERT
  5
17495
330
16CA2
100
AcDbEntity
  8
寸法
 62
     0
 48
50.0
370
    -2
100
AcDbBlockReference
  2
_DOTSMALL
 10
5244.192122871067
 20
2098.721218037048
 30
0.0
 41
100.0
 42
100.0
 43
100.0
  0
INSERT
  5
17496
330
16CA2
100
AcDbEntity
  8
寸法
 62
     0
 48
50.0
370
    -2
100
AcDbBlockReference
  2
_DOTSMALL
 10
5044.192122871071
 20
2098.721218037048
 30
0.0
 41
100.0
 42
100.0
 43
100.0
 50
180.0
  0
MTEXT
  5
17497
330
16CA2
100
AcDbEntity
  8
寸法
 62
     7
 48
50.0
100
AcDbMText
 10
5144.192122871069
 20
2198.733029060671
 30
0.0
 40
120.0
 41
0.0
 71
     5
 72
     1
  1
\A1;200
  7
STYLE1
 73
     1
 44
1.0
1001
ACAD
1000
MTEXTBEGIN
1070
    73
1070
     1
1070
    44
1040
1.0
1070
    74
1070
     0
1000
MTEXTEND
  0
POINT
  5
17498
330
16CA2
100
AcDbEntity
  8
DEFPOINTS
 62
     0
 48
50.0
100
AcDbPoint
 10
5244.192122871067
 20
2384.768547337424
 30
0.0
  0
POINT
  5
17499
330
16CA2
100
AcDbEntity
  8
DEFPOINTS
 62
     0
 48
50.0
100
AcDbPoint
 10
5044.192122871071
 20
2384.768547337426
 30
0.0
  0
POINT
  5
1749A
330
16CA2
100
AcDbEntity
  8
DEFPOINTS
 62
     0
 48
50.0
100
AcDbPoint
 10
5044.192122871071
 20
2098.721218037048
 30
0.0
  0
ENDBLK
  5
16CAD
330
16CA2
100
AcDbEntity
  8
0
 48
50.0
100
AcDbBlockEnd
  0
BLOCK
  5
16CB8
330
16CAE
100
AcDbEntity
  8
0
 48
50.0
100
AcDbBlockBegin
  2
*D18
 70
     1
 10
0.0
 20
0.0
 30
0.0
  3
*D18
  1

  0
LINE
  5
17489
330
16CAE
100
AcDbEntity
  8
寸法
 62
     0
 48
50.0
370
    -2
100
AcDbLine
 10
5024.19212287107
 20
2384.768547337426
 30
0.0
 11
4834.692119624434
 21
2384.768547337426
 31
0.0
  0
LINE
  5
1748A
330
16CAE
100
AcDbEntity
  8
寸法
 62
     0
 48
50.0
370
    -2
100
AcDbLine
 10
4999.192122871067
 20
2584.768547337426
 30
0.0
 11
4834.692119624434
 21
2584.768547337426
 31
0.0
  0
LINE
  5
1748B
330
16CAE
100
AcDbEntity
  8
寸法
 62
     0
 48
50.0
370
    -2
100
AcDbLine
 10
4894.692119624433
 20
2384.768547337426
 30
0.0
 11
4894.692119624433
 21
2584.768547337426
 31
0.0
  0
INSERT
  5
1748C
330
16CAE
100
AcDbEntity
  8
寸法
 62
     0
 48
50.0
370
    -2
100
AcDbBlockReference
  2
_DOTSMALL
 10
4894.692119624433
 20
2384.768547337426
 30
0.0
 41
100.0
 42
100.0
 43
100.0
 50
270.0
  0
INSERT
  5
1748D
330
16CAE
100
AcDbEntity
  8
寸法
 62
     0
 48
50.0
370
    -2
100
AcDbBlockReference
  2
_DOTSMALL
 10
4894.692119624433
 20
2584.768547337426
 30
0.0
 41
100.0
 42
100.0
 43
100.0
 50
90.0
  0
MTEXT
  5
1748E
330
16CAE
100
AcDbEntity
  8
寸法
 62
     7
 48
50.0
100
AcDbMText
 10
4794.680308600812
 20
2484.768547337426
 30
0.0
 40
120.0
 41
0.0
 71
     5
 72
     1
  1
\A1;200
  7
STYLE1
 11
0.0000000000000001
 21
1.0
 31
0.0
 73
     1
 44
1.0
1001
ACAD
1000
MTEXTBEGIN
1070
    73
1070
     1
1070
    44
1040
1.0
1070
    74
1070
     0
1000
MTEXTEND
  0
POINT
  5
1748F
330
16CAE
100
AcDbEntity
  8
DEFPOINTS
 62
     0
 48
50.0
100
AcDbPoint
 10
5044.192122871071
 20
2384.768547337426
 30
0.0
  0
POINT
  5
17490
330
16CAE
100
AcDbEntity
  8
DEFPOINTS
 62
     0
 48
50.0
100
AcDbPoint
 10
5019.192122871067
 20
2584.768547337426
 30
0.0
  0
POINT
  5
17491
330
16CAE
100
AcDbEntity
  8
DEFPOINTS
 62
     0
 48
50.0
100
AcDbPoint
 10
4894.692119624433
 20
2584.768547337426
 30
0.0
  0
ENDBLK
  5
16CB9
330
16CAE
100
AcDbEntity
  8
0
 48
50.0
100
AcDbBlockEnd
  0
BLOCK
  5
171D2
330
171C7
100
AcDbEntity
  8
0
 48
50.0
100
AcDbBlockBegin
  2
*D19
 70
     1
 10
0.0
 20
0.0
 30
0.0
  3
*D19
  1

  0
LINE
  5
173BD
330
171C7
100
AcDbEntity
  8
寸法
 62
     0
 48
50.0
370
    -2
100
AcDbLine
 10
7326.692122871067
 20
4726.57922694908
 30
0.0
 11
7326.692122871067
 21
5218.426000916731
 31
0.0
  0
LINE
  5
173BE
330
171C7
100
AcDbEntity
  8
寸法
 62
     0
 48
50.0
370
    -2
100
AcDbLine
 10
7406.692122871067
 20
4724.768547337427
 30
0.0
 11
7406.692122871067
 21
5218.426000916731
 31
0.0
  0
LINE
  5
173BF
330
171C7
100
AcDbEntity
  8
寸法
 62
     0
 48
50.0
370
    -2
100
AcDbLine
 10
7326.692122871067
 20
5158.426000916731
 30
0.0
 11
7406.692122871067
 21
5158.426000916731
 31
0.0
  0
LINE
  5
173C0
330
171C7
100
AcDbEntity
  8
寸法
 62
     0
 48
50.0
370
    -2
100
AcDbLine
 10
7406.692122871067
 20
5158.426000916731
 30
0.0
 11
7718.786611060045
 21
5158.426000916731
 31
0.0
  0
INSERT
  5
173C1
330
171C7
100
AcDbEntity
  8
寸法
 62
     0
 48
50.0
370
    -2
100
AcDbBlockReference
  2
_DOTSMALL
 10
7326.692122871067
 20
5158.426000916731
 30
0.0
 41
100.0
 42
100.0
 43
100.0
 50
180.0
  0
INSERT
  5
173C2
330
171C7
100
AcDbEntity
  8
寸法
 62
     0
 48
50.0
370
    -2
100
AcDbBlockReference
  2
_DOTSMALL
 10
7406.692122871067
 20
5158.426000916731
 30
0.0
 41
100.0
 42
100.0
 43
100.0
  0
MTEXT
  5
173C3
330
171C7
100
AcDbEntity
  8
寸法
 62
     7
 48
50.0
100
AcDbMText
 10
7612.739366965557
 20
5258.426000916731
 30
0.0
 40
120.0
 41
0.0
 71
     5
 72
     1
  1
\A1;80
  7
STYLE1
 73
     1
 44
1.0
1001
ACAD
1000
MTEXTBEGIN
1070
    73
1070
     1
1070
    44
1040
1.0
1070
    74
1070
     0
1000
MTEXTEND
  0
POINT
  5
173C4
330
171C7
100
AcDbEntity
  8
DEFPOINTS
 62
     0
 48
50.0
100
AcDbPoint
 10
7326.692122871067
 20
4706.57922694908
 30
0.0
  0
POINT
  5
173C5
330
171C7
100
AcDbEntity
  8
DEFPOINTS
 62
     0
 48
50.0
100
AcDbPoint
 10
7406.692122871067
 20
4704.768547337428
 30
0.0
  0
POINT
  5
173C6
330
171C7
100
AcDbEntity
  8
DEFPOINTS
 62
     0
 48
50.0
100
AcDbPoint
 10
7406.692122871067
 20
5158.426000916731
 30
0.0
  0
ENDBLK
  5
171D3
330
171C7
100
AcDbEntity
  8
0
 48
50.0
100
AcDbBlockEnd
  0
BLOCK
  5
171DE
330
171D4
100
AcDbEntity
  8
0
 48
50.0
100
AcDbBlockBegin
  2
*D20
 70
     1
 10
0.0
 20
0.0
 30
0.0
  3
*D20
  1

  0
LINE
  5
173B4
330
171D4
100
AcDbEntity
  8
寸法
 62
     0
 48
50.0
370
    -2
100
AcDbLine
 10
7406.692122871067
 20
4724.768547337427
 30
0.0
 11
7406.692122871067
 21
5437.627834591022
 31
0.0
  0
LINE
  5
173B5
330
171D4
100
AcDbEntity
  8
寸法
 62
     0
 48
50.0
370
    -2
100
AcDbLine
 10
5056.692122871067
 20
4779.768547337432
 30
0.0
 11
5056.692122871067
 21
5437.627834591022
 31
0.0
  0
LINE
  5
173B6
330
171D4
100
AcDbEntity
  8
寸法
 62
     0
 48
50.0
370
    -2
100
AcDbLine
 10
7406.692122871067
 20
5377.627834591022
 30
0.0
 11
5056.692122871067
 21
5377.627834591022
 31
0.0
  0
INSERT
  5
173B7
330
171D4
100
AcDbEntity
  8
寸法
 62
     0
 48
50.0
370
    -2
100
AcDbBlockReference
  2
_DOTSMALL
 10
7406.692122871067
 20
5377.627834591022
 30
0.0
 41
100.0
 42
100.0
 43
100.0
  0
INSERT
  5
173B8
330
171D4
100
AcDbEntity
  8
寸法
 62
     0
 48
50.0
370
    -2
100
AcDbBlockReference
  2
_DOTSMALL
 10
5056.692122871067
 20
5377.627834591022
 30
0.0
 41
100.0
 42
100.0
 43
100.0
 50
180.0
  0
MTEXT
  5
173B9
330
171D4
100
AcDbEntity
  8
寸法
 62
     7
 48
50.0
100
AcDbMText
 10
6291.035976963536
 20
5477.639645614644
 30
0.0
 40
120.0
 41
0.0
 71
     5
 72
     1
  1
\A1;2350
  7
STYLE1
 73
     1
 44
1.0
1001
ACAD
1000
MTEXTBEGIN
1070
    73
1070
     1
1070
    44
1040
1.0
1070
    74
1070
     0
1000
MTEXTEND
  0
POINT
  5
173BA
330
171D4
100
AcDbEntity
  8
DEFPOINTS
 62
     0
 48
50.0
100
AcDbPoint
 10
7406.692122871067
 20
4704.768547337428
 30
0.0
  0
POINT
  5
173BB
330
171D4
100
AcDbEntity
  8
DEFPOINTS
 62
     0
 48
50.0
100
AcDbPoint
 10
5056.692122871067
 20
4759.768547337431
 30
0.0
  0
POINT
  5
173BC
330
171D4
100
AcDbEntity
  8
DEFPOINTS
 62
     0
 48
50.0
100
AcDbPoint
 10
5056.692122871067
 20
5377.627834591022
 30
0.0
  0
ENDBLK
  5
171DF
330
171D4
100
AcDbEntity
  8
0
 48
50.0
100
AcDbBlockEnd
  0
BLOCK
  5
171EC
330
171E0
100
AcDbEntity
  8
0
 48
50.0
100
AcDbBlockBegin
  2
*D21
 70
     1
 10
0.0
 20
0.0
 30
0.0
  3
*D21
  1

  0
LINE
  5
173A9
330
171E0
100
AcDbEntity
  8
寸法
 62
     0
 48
50.0
370
    -2
100
AcDbLine
 10
5116.692122871067
 20
4775.770165460403
 30
0.0
 11
5116.692122871067
 21
5218.426000916731
 31
0.0
  0
LINE
  5
173AA
330
171E0
100
AcDbEntity
  8
寸法
 62
     0
 48
50.0
370
    -2
100
AcDbLine
 10
5056.692122871067
 20
4779.768547337432
 30
0.0
 11
5056.692122871067
 21
5218.426000916731
 31
0.0
  0
LINE
  5
173AB
330
171E0
100
AcDbEntity
  8
寸法
 62
     0
 48
50.0
370
    -2
100
AcDbLine
 10
5116.692122871067
 20
5158.426000916731
 30
0.0
 11
5216.692122871067
 21
5158.426000916731
 31
0.0
  0
LINE
  5
173AC
330
171E0
100
AcDbEntity
  8
寸法
 62
     0
 48
50.0
370
    -2
100
AcDbLine
 10
5056.692122871067
 20
5158.426000916731
 30
0.0
 11
4637.416532319885
 21
5158.426000916731
 31
0.0
  0
LINE
  5
173AD
330
171E0
100
AcDbEntity
  8
寸法
 62
     0
 48
50.0
370
    -2
100
AcDbLine
 10
5116.692122871067
 20
5158.426000916731
 30
0.0
 11
5056.692122871067
 21
5158.426000916731
 31
0.0
  0
INSERT
  5
173AE
330
171E0
100
AcDbEntity
  8
寸法
 62
     0
 48
50.0
370
    -2
100
AcDbBlockReference
  2
_DOTSMALL
 10
5116.692122871067
 20
5158.426000916731
 30
0.0
 41
100.0
 42
100.0
 43
100.0
 50
180.0
  0
INSERT
  5
173AF
330
171E0
100
AcDbEntity
  8
寸法
 62
     0
 48
50.0
370
    -2
100
AcDbBlockReference
  2
_DOTSMALL
 10
5056.692122871067
 20
5158.426000916731
 30
0.0
 41
100.0
 42
100.0
 43
100.0
  0
MTEXT
  5
173B0
330
171E0
100
AcDbEntity
  8
寸法
 62
     7
 48
50.0
100
AcDbMText
 10
4747.054327595477
 20
5258.426000916731
 30
0.0
 40
120.0
 41
0.0
 71
     5
 72
     1
  1
\A1;60
  7
STYLE1
 73
     1
 44
1.0
1001
ACAD
1000
MTEXTBEGIN
1070
    73
1070
     1
1070
    44
1040
1.0
1070
    74
1070
     0
1000
MTEXTEND
  0
POINT
  5
173B1
330
171E0
100
AcDbEntity
  8
DEFPOINTS
 62
     0
 48
50.0
100
AcDbPoint
 10
5116.692122871067
 20
4755.770165460403
 30
0.0
  0
POINT
  5
173B2
330
171E0
100
AcDbEntity
  8
DEFPOINTS
 62
     0
 48
50.0
100
AcDbPoint
 10
5056.692122871067
 20
4759.768547337431
 30
0.0
  0
POINT
  5
173B3
330
171E0
100
AcDbEntity
  8
DEFPOINTS
 62
     0
 48
50.0
100
AcDbPoint
 10
5056.692122871067
 20
5158.426000916731
 30
0.0
  0
ENDBLK
  5
171ED
330
171E0
100
AcDbEntity
  8
0
 48
50.0
100
AcDbBlockEnd
  0
BLOCK
  5
171F8
330
171EE
100
AcDbEntity
  8
0
 48
50.0
100
AcDbBlockBegin
  2
*D22
 70
     1
 10
0.0
 20
0.0
 30
0.0
  3
*D22
  1

  0
LINE
  5
173A0
330
171EE
100
AcDbEntity
  8
寸法
 62
     0
 48
50.0
370
    -2
100
AcDbLine
 10
7326.692122871067
 20
4726.57922694908
 30
0.0
 11
7326.692122871067
 21
5218.426000916731
 31
0.0
  0
LINE
  5
173A1
330
171EE
100
AcDbEntity
  8
寸法
 62
     0
 48
50.0
370
    -2
100
AcDbLine
 10
5116.692122871067
 20
4775.770165460403
 30
0.0
 11
5116.692122871067
 21
5218.426000916731
 31
0.0
  0
LINE
  5
173A2
330
171EE
100
AcDbEntity
  8
寸法
 62
     0
 48
50.0
370
    -2
100
AcDbLine
 10
7326.692122871067
 20
5158.426000916731
 30
0.0
 11
5116.692122871067
 21
5158.426000916731
 31
0.0
  0
INSERT
  5
173A3
330
171EE
100
AcDbEntity
  8
寸法
 62
     0
 48
50.0
370
    -2
100
AcDbBlockReference
  2
_DOTSMALL
 10
7326.692122871067
 20
5158.426000916731
 30
0.0
 41
100.0
 42
100.0
 43
100.0
  0
INSERT
  5
173A4
330
171EE
100
AcDbEntity
  8
寸法
 62
     0
 48
50.0
370
    -2
100
AcDbBlockReference
  2
_DOTSMALL
 10
5116.692122871067
 20
5158.426000916731
 30
0.0
 41
100.0
 42
100.0
 43
100.0
 50
180.0
  0
MTEXT
  5
173A5
330
171EE
100
AcDbEntity
  8
寸法
 62
     7
 48
50.0
100
AcDbMText
 10
6211.336859941581
 20
5258.437811940353
 30
0.0
 40
120.0
 41
0.0
 71
     5
 72
     1
  1
\A1;柱外寸法2210
  7
STYLE1
 73
     1
 44
1.0
1001
ACAD
1000
MTEXTBEGIN
1070
    73
1070
     1
1070
    44
1040
1.0
1070
    74
1070
     0
1000
MTEXTEND
  0
POINT
  5
173A6
330
171EE
100
AcDbEntity
  8
DEFPOINTS
 62
     0
 48
50.0
100
AcDbPoint
 10
7326.692122871067
 20
4706.57922694908
 30
0.0
  0
POINT
  5
173A7
330
171EE
100
AcDbEntity
  8
DEFPOINTS
 62
     0
 48
50.0
100
AcDbPoint
 10
5116.692122871067
 20
4755.770165460403
 30
0.0
  0
POINT
  5
173A8
330
171EE
100
AcDbEntity
  8
DEFPOINTS
 62
     0
 48
50.0
100
AcDbPoint
 10
5116.692122871067
 20
5158.426000916731
 30
0.0
  0
ENDBLK
  5
171F9
330
171EE
100
AcDbEntity
  8
0
 48
50.0
100
AcDbBlockEnd
  0
BLOCK
  5
17204
330
171FA
100
AcDbEntity
  8
0
 48
50.0
100
AcDbBlockBegin
  2
*D23
 70
     1
 10
0.0
 20
0.0
 30
0.0
  3
*D23
  1

  0
LINE
  5
17397
330
171FA
100
AcDbEntity
  8
寸法
 62
     0
 48
50.0
370
    -2
100
AcDbLine
 10
7423.692122871071
 20
2684.768547337426
 30
0.0
 11
7946.798746812657
 21
2684.768547337426
 31
0.0
  0
LINE
  5
17398
330
171FA
100
AcDbEntity
  8
寸法
 62
     0
 48
50.0
370
    -2
100
AcDbLine
 10
7426.692122871067
 20
4704.768547337428
 30
0.0
 11
7946.798746812657
 21
4704.768547337428
 31
0.0
  0
LINE
  5
17399
330
171FA
100
AcDbEntity
  8
寸法
 62
     0
 48
50.0
370
    -2
100
AcDbLine
 10
7886.798746812657
 20
2684.768547337426
 30
0.0
 11
7886.798746812657
 21
4704.768547337428
 31
0.0
  0
INSERT
  5
1739A
330
171FA
100
AcDbEntity
  8
寸法
 62
     0
 48
50.0
370
    -2
100
AcDbBlockReference
  2
_DOTSMALL
 10
7886.798746812657
 20
2684.768547337426
 30
0.0
 41
100.0
 42
100.0
 43
100.0
 50
270.0
  0
INSERT
  5
1739B
330
171FA
100
AcDbEntity
  8
寸法
 62
     0
 48
50.0
370
    -2
100
AcDbBlockReference
  2
_DOTSMALL
 10
7886.798746812657
 20
4704.768547337428
 30
0.0
 41
100.0
 42
100.0
 43
100.0
 50
90.0
  0
MTEXT
  5
1739C
330
171FA
100
AcDbEntity
  8
寸法
 62
     7
 48
50.0
100
AcDbMText
 10
7786.786935789034
 20
3706.821228584363
 30
0.0
 40
120.0
 41
0.0
 71
     5
 72
     1
  1
\A1;2020
  7
STYLE1
 11
0.0000000000000001
 21
1.0
 31
0.0
 73
     1
 44
1.0
1001
ACAD
1000
MTEXTBEGIN
1070
    73
1070
     1
1070
    44
1040
1.0
1070
    74
1070
     0
1000
MTEXTEND
  0
POINT
  5
1739D
330
171FA
100
AcDbEntity
  8
DEFPOINTS
 62
     0
 48
50.0
100
AcDbPoint
 10
7403.692122871071
 20
2684.768547337426
 30
0.0
  0
POINT
  5
1739E
330
171FA
100
AcDbEntity
  8
DEFPOINTS
 62
     0
 48
50.0
100
AcDbPoint
 10
7406.692122871067
 20
4704.768547337428
 30
0.0
  0
POINT
  5
1739F
330
171FA
100
AcDbEntity
  8
DEFPOINTS
 62
     0
 48
50.0
100
AcDbPoint
 10
7886.798746812657
 20
4704.768547337428
 30
0.0
  0
ENDBLK
  5
17205
330
171FA
100
AcDbEntity
  8
0
 48
50.0
100
AcDbBlockEnd
  0
BLOCK
  5
17AD3
330
17AC9
100
AcDbEntity
  8
0
 48
50.0
100
AcDbBlockBegin
  2
*D24
 70
     1
 10
0.0
 20
0.0
 30
0.0
  3
*D24
  1

  0
LINE
  5
17DA7
330
17AC9
100
AcDbEntity
  8
寸法
 62
     0
 48
50.0
370
    -2
100
AcDbLine
 10
10798.78915220834
 20
4779.768547337432
 30
0.0
 11
10798.78915220834
 21
5218.861716676899
 31
0.0
  0
LINE
  5
17DA8
330
17AC9
100
AcDbEntity
  8
寸法
 62
     0
 48
50.0
370
    -2
100
AcDbLine
 10
9428.789152208327
 20
4779.768547337432
 30
0.0
 11
9428.789152208327
 21
5218.861716676899
 31
0.0
  0
LINE
  5
17DA9
330
17AC9
100
AcDbEntity
  8
寸法
 62
     0
 48
50.0
370
    -2
100
AcDbLine
 10
10798.78915220834
 20
5158.861716676899
 30
0.0
 11
9428.789152208327
 21
5158.861716676899
 31
0.0
  0
INSERT
  5
17DAA
330
17AC9
100
AcDbEntity
  8
寸法
 62
     0
 48
50.0
370
    -2
100
AcDbBlockReference
  2
_DOTSMALL
 10
10798.78915220834
 20
5158.861716676899
 30
0.0
 41
100.0
 42
100.0
 43
100.0
  0
INSERT
  5
17DAB
330
17AC9
100
AcDbEntity
  8
寸法
 62
     0
 48
50.0
370
    -2
100
AcDbBlockReference
  2
_DOTSMALL
 10
9428.789152208327
 20
5158.861716676899
 30
0.0
 41
100.0
 42
100.0
 43
100.0
 50
180.0
  0
MTEXT
  5
17DAC
330
17AC9
100
AcDbEntity
  8
寸法
 62
     7
 48
50.0
100
AcDbMText
 10
10113.78915220833
 20
5258.861716676899
 30
0.0
 40
120.0
 41
0.0
 71
     5
 72
     1
  1
\A1;柱外寸法1370
  7
STYLE1
 73
     1
 44
1.0
1001
ACAD
1000
MTEXTBEGIN
1070
    73
1070
     1
1070
    44
1040
1.0
1070
    74
1070
     0
1000
MTEXTEND
  0
POINT
  5
17DAD
330
17AC9
100
AcDbEntity
  8
DEFPOINTS
 62
     0
 48
50.0
100
AcDbPoint
 10
10798.78915220834
 20
4759.768547337432
 30
0.0
  0
POINT
  5
17DAE
330
17AC9
100
AcDbEntity
  8
DEFPOINTS
 62
     0
 48
50.0
100
AcDbPoint
 10
9428.789152208327
 20
4759.768547337432
 30
0.0
  0
POINT
  5
17DAF
330
17AC9
100
AcDbEntity
  8
DEFPOINTS
 62
     0
 48
50.0
100
AcDbPoint
 10
9428.789152208327
 20
5158.861716676899
 30
0.0
  0
ENDBLK
  5
17AD4
330
17AC9
100
AcDbEntity
  8
0
 48
50.0
100
AcDbBlockEnd
  0
BLOCK
  5
17AE1
330
17AD5
100
AcDbEntity
  8
0
 48
50.0
100
AcDbBlockBegin
  2
*D25
 70
     1
 10
0.0
 20
0.0
 30
0.0
  3
*D25
  1

  0
LINE
  5
17D9C
330
17AD5
100
AcDbEntity
  8
寸法
 62
     0
 48
50.0
370
    -2
100
AcDbLine
 10
9428.789152208327
 20
4779.768547337432
 30
0.0
 11
9428.789152208327
 21
5218.861716676899
 31
0.0
  0
LINE
  5
17D9D
330
17AD5
100
AcDbEntity
  8
寸法
 62
     0
 48
50.0
370
    -2
100
AcDbLine
 10
9378.789152208327
 20
4779.768547337432
 30
0.0
 11
9378.789152208327
 21
5218.861716676899
 31
0.0
  0
LINE
  5
17D9E
330
17AD5
100
AcDbEntity
  8
寸法
 62
     0
 48
50.0
370
    -2
100
AcDbLine
 10
9428.789152208327
 20
5158.861716676899
 30
0.0
 11
9528.789152208327
 21
5158.861716676899
 31
0.0
  0
LINE
  5
17D9F
330
17AD5
100
AcDbEntity
  8
寸法
 62
     0
 48
50.0
370
    -2
100
AcDbLine
 10
9378.789152208327
 20
5158.861716676899
 30
0.0
 11
8959.256626739593
 21
5158.861716676899
 31
0.0
  0
LINE
  5
17DA0
330
17AD5
100
AcDbEntity
  8
寸法
 62
     0
 48
50.0
370
    -2
100
AcDbLine
 10
9428.789152208327
 20
5158.861716676899
 30
0.0
 11
9378.789152208327
 21
5158.861716676899
 31
0.0
  0
INSERT
  5
17DA1
330
17AD5
100
AcDbEntity
  8
寸法
 62
     0
 48
50.0
370
    -2
100
AcDbBlockReference
  2
_DOTSMALL
 10
9428.789152208327
 20
5158.861716676899
 30
0.0
 41
100.0
 42
100.0
 43
100.0
 50
180.0
  0
INSERT
  5
17DA2
330
17AD5
100
AcDbEntity
  8
寸法
 62
     0
 48
50.0
370
    -2
100
AcDbBlockReference
  2
_DOTSMALL
 10
9378.789152208327
 20
5158.861716676899
 30
0.0
 41
100.0
 42
100.0
 43
100.0
  0
MTEXT
  5
17DA3
330
17AD5
100
AcDbEntity
  8
寸法
 62
     7
 48
50.0
100
AcDbMText
 10
9065.303870834078
 20
5258.861716676899
 30
0.0
 40
120.0
 41
0.0
 71
     5
 72
     1
  1
\A1;50
  7
STYLE1
 73
     1
 44
1.0
1001
ACAD
1000
MTEXTBEGIN
1070
    73
1070
     1
1070
    44
1040
1.0
1070
    74
1070
     0
1000
MTEXTEND
  0
POINT
  5
17DA4
330
17AD5
100
AcDbEntity
  8
DEFPOINTS
 62
     0
 48
50.0
100
AcDbPoint
 10
9428.789152208327
 20
4759.768547337432
 30
0.0
  0
POINT
  5
17DA5
330
17AD5
100
AcDbEntity
  8
DEFPOINTS
 62
     0
 48
50.0
100
AcDbPoint
 10
9378.789152208327
 20
4759.768547337432
 30
0.0
  0
POINT
  5
17DA6
330
17AD5
100
AcDbEntity
  8
DEFPOINTS
 62
     0
 48
50.0
100
AcDbPoint
 10
9378.789152208327
 20
5158.861716676899
 30
0.0
  0
ENDBLK
  5
17AE2
330
17AD5
100
AcDbEntity
  8
0
 48
50.0
100
AcDbBlockEnd
  0
BLOCK
  5
17AEF
330
17AE3
100
AcDbEntity
  8
0
 48
50.0
100
AcDbBlockBegin
  2
*D26
 70
     1
 10
0.0
 20
0.0
 30
0.0
  3
*D26
  1

  0
LINE
  5
17D91
330
17AE3
100
AcDbEntity
  8
寸法
 62
     0
 48
50.0
370
    -2
100
AcDbLine
 10
10848.78915220834
 20
4779.768547337428
 30
0.0
 11
10848.78915220834
 21
5218.861716676899
 31
0.0
  0
LINE
  5
17D92
330
17AE3
100
AcDbEntity
  8
寸法
 62
     0
 48
50.0
370
    -2
100
AcDbLine
 10
10798.78915220834
 20
4779.768547337432
 30
0.0
 11
10798.78915220834
 21
5218.861716676899
 31
0.0
  0
LINE
  5
17D93
330
17AE3
100
AcDbEntity
  8
寸法
 62
     0
 48
50.0
370
    -2
100
AcDbLine
 10
10798.78915220834
 20
5158.861716676899
 30
0.0
 11
10698.78915220834
 21
5158.861716676899
 31
0.0
  0
LINE
  5
17D94
330
17AE3
100
AcDbEntity
  8
寸法
 62
     0
 48
50.0
370
    -2
100
AcDbLine
 10
10848.78915220834
 20
5158.861716676899
 30
0.0
 11
11268.32167767707
 21
5158.861716676899
 31
0.0
  0
LINE
  5
17D95
330
17AE3
100
AcDbEntity
  8
寸法
 62
     0
 48
50.0
370
    -2
100
AcDbLine
 10
10798.78915220834
 20
5158.861716676899
 30
0.0
 11
10848.78915220834
 21
5158.861716676899
 31
0.0
  0
INSERT
  5
17D96
330
17AE3
100
AcDbEntity
  8
寸法
 62
     0
 48
50.0
370
    -2
100
AcDbBlockReference
  2
_DOTSMALL
 10
10798.78915220834
 20
5158.861716676899
 30
0.0
 41
100.0
 42
100.0
 43
100.0
  0
INSERT
  5
17D97
330
17AE3
100
AcDbEntity
  8
寸法
 62
     0
 48
50.0
370
    -2
100
AcDbBlockReference
  2
_DOTSMALL
 10
10848.78915220834
 20
5158.861716676899
 30
0.0
 41
100.0
 42
100.0
 43
100.0
 50
180.0
  0
MTEXT
  5
17D98
330
17AE3
100
AcDbEntity
  8
寸法
 62
     7
 48
50.0
100
AcDbMText
 10
11162.27443358258
 20
5258.861716676899
 30
0.0
 40
120.0
 41
0.0
 71
     5
 72
     1
  1
\A1;50
  7
STYLE1
 73
     1
 44
1.0
1001
ACAD
1000
MTEXTBEGIN
1070
    73
1070
     1
1070
    44
1040
1.0
1070
    74
1070
     0
1000
MTEXTEND
  0
POINT
  5
17D99
330
17AE3
100
AcDbEntity
  8
DEFPOINTS
 62
     0
 48
50.0
100
AcDbPoint
 10
10848.78915220834
 20
4759.768547337428
 30
0.0
  0
POINT
  5
17D9A
330
17AE3
100
AcDbEntity
  8
DEFPOINTS
 62
     0
 48
50.0
100
AcDbPoint
 10
10798.78915220834
 20
4759.768547337432
 30
0.0
  0
POINT
  5
17D9B
330
17AE3
100
AcDbEntity
  8
DEFPOINTS
 62
     0
 48
50.0
100
AcDbPoint
 10
10798.78915220834
 20
5158.861716676899
 30
0.0
  0
ENDBLK
  5
17AF0
330
17AE3
100
AcDbEntity
  8
0
 48
50.0
100
AcDbBlockEnd
  0
BLOCK
  5
17AFB
330
17AF1
100
AcDbEntity
  8
0
 48
50.0
100
AcDbBlockBegin
  2
*D27
 70
     1
 10
0.0
 20
0.0
 30
0.0
  3
*D27
  1

  0
LINE
  5
17D88
330
17AF1
100
AcDbEntity
  8
寸法
 62
     0
 48
50.0
370
    -2
100
AcDbLine
 10
9378.789152208327
 20
4779.768547337432
 30
0.0
 11
9378.789152208327
 21
5435.387816295343
 31
0.0
  0
LINE
  5
17D89
330
17AF1
100
AcDbEntity
  8
寸法
 62
     0
 48
50.0
370
    -2
100
AcDbLine
 10
10848.78915220834
 20
4779.768547337428
 30
0.0
 11
10848.78915220834
 21
5435.387816295343
 31
0.0
  0
LINE
  5
17D8A
330
17AF1
100
AcDbEntity
  8
寸法
 62
     0
 48
50.0
370
    -2
100
AcDbLine
 10
9378.789152208327
 20
5375.387816295344
 30
0.0
 11
10848.78915220834
 21
5375.387816295344
 31
0.0
  0
INSERT
  5
17D8B
330
17AF1
100
AcDbEntity
  8
寸法
 62
     0
 48
50.0
370
    -2
100
AcDbBlockReference
  2
_DOTSMALL
 10
9378.789152208327
 20
5375.387816295344
 30
0.0
 41
100.0
 42
100.0
 43
100.0
 50
180.0
  0
INSERT
  5
17D8C
330
17AF1
100
AcDbEntity
  8
寸法
 62
     0
 48
50.0
370
    -2
100
AcDbBlockReference
  2
_DOTSMALL
 10
10848.78915220834
 20
5375.387816295344
 30
0.0
 41
100.0
 42
100.0
 43
100.0
  0
MTEXT
  5
17D8D
330
17AF1
100
AcDbEntity
  8
寸法
 62
     7
 48
50.0
100
AcDbMText
 10
10113.78915220833
 20
5475.387816295343
 30
0.0
 40
120.0
 41
0.0
 71
     5
 72
     1
  1
\A1;1470
  7
STYLE1
 73
     1
 44
1.0
1001
ACAD
1000
MTEXTBEGIN
1070
    73
1070
     1
1070
    44
1040
1.0
1070
    74
1070
     0
1000
MTEXTEND
  0
POINT
  5
17D8E
330
17AF1
100
AcDbEntity
  8
DEFPOINTS
 62
     0
 48
50.0
100
AcDbPoint
 10
9378.789152208327
 20
4759.768547337432
 30
0.0
  0
POINT
  5
17D8F
330
17AF1
100
AcDbEntity
  8
DEFPOINTS
 62
     0
 48
50.0
100
AcDbPoint
 10
10848.78915220834
 20
4759.768547337428
 30
0.0
  0
POINT
  5
17D90
330
17AF1
100
AcDbEntity
  8
DEFPOINTS
 62
     0
 48
50.0
100
AcDbPoint
 10
10848.78915220834
 20
5375.387816295344
 30
0.0
  0
ENDBLK
  5
17AFC
330
17AF1
100
AcDbEntity
  8
0
 48
50.0
100
AcDbBlockEnd
  0
BLOCK
  5
17BB8
330
17BAE
100
AcDbEntity
  8
0
 48
50.0
100
AcDbBlockBegin
  2
*D28
 70
     1
 10
0.0
 20
0.0
 30
0.0
  3
*D28
  1

  0
LINE
  5
17D7F
330
17BAE
100
AcDbEntity
  8
寸法
 62
     0
 48
50.0
370
    -2
100
AcDbLine
 10
9436.789152208342
 20
4467.768547337424
 30
0.0
 11
9097.583122996194
 21
4467.768547337424
 31
0.0
  0
LINE
  5
17D80
330
17BAE
100
AcDbEntity
  8
寸法
 62
     0
 48
50.0
370
    -2
100
AcDbLine
 10
9436.789152208342
 20
2742.768547337426
 30
0.0
 11
9097.583122996191
 21
2742.768547337427
 31
0.0
  0
LINE
  5
17D81
330
17BAE
100
AcDbEntity
  8
寸法
 62
     0
 48
50.0
370
    -2
100
AcDbLine
 10
9157.583122996193
 20
4467.768547337424
 30
0.0
 11
9157.583122996191
 21
2742.768547337427
 31
0.0
  0
INSERT
  5
17D82
330
17BAE
100
AcDbEntity
  8
寸法
 62
     0
 48
50.0
370
    -2
100
AcDbBlockReference
  2
_DOTSMALL
 10
9157.583122996193
 20
4467.768547337424
 30
0.0
 41
100.0
 42
100.0
 43
100.0
 50
90.0
  0
INSERT
  5
17D83
330
17BAE
100
AcDbEntity
  8
寸法
 62
     0
 48
50.0
370
    -2
100
AcDbBlockReference
  2
_DOTSMALL
 10
9157.583122996191
 20
2742.768547337427
 30
0.0
 41
100.0
 42
100.0
 43
100.0
 50
270.0
  0
MTEXT
  5
17D84
330
17BAE
100
AcDbEntity
  8
寸法
 62
     7
 48
50.0
100
AcDbMText
 10
9057.571311972571
 20
3596.40156635495
 30
0.0
 40
120.0
 41
0.0
 71
     5
 72
     1
  1
\A1;有効開口部高サ1725
  7
STYLE1
 11
0.0000000000000001
 21
1.0
 31
0.0
 73
     1
 44
1.0
1001
ACAD
1000
MTEXTBEGIN
1070
    73
1070
     1
1070
    44
1040
1.0
1070
    74
1070
     0
1000
MTEXTEND
  0
POINT
  5
17D85
330
17BAE
100
AcDbEntity
  8
DEFPOINTS
 62
     0
 48
50.0
100
AcDbPoint
 10
9456.789152208342
 20
4467.768547337424
 30
0.0
  0
POINT
  5
17D86
330
17BAE
100
AcDbEntity
  8
DEFPOINTS
 62
     0
 48
50.0
100
AcDbPoint
 10
9456.789152208342
 20
2742.768547337426
 30
0.0
  0
POINT
  5
17D87
330
17BAE
100
AcDbEntity
  8
DEFPOINTS
 62
     0
 48
50.0
100
AcDbPoint
 10
9157.583122996191
 20
2742.768547337427
 30
0.0
  0
ENDBLK
  5
17BB9
330
17BAE
100
AcDbEntity
  8
0
 48
50.0
100
AcDbBlockEnd
  0
BLOCK
  5
17C1C
330
17C12
100
AcDbEntity
  8
0
 48
50.0
100
AcDbBlockBegin
  2
*D29
 70
     1
 10
0.0
 20
0.0
 30
0.0
  3
*D29
  1

  0
LINE
  5
17DB0
330
17C12
100
AcDbEntity
  8
寸法
 62
     0
 48
50.0
370
    -2
100
AcDbLine
 10
9518.789152208325
 20
2364.768547337426
 30
0.0
 11
9518.789152208325
 21
2038.721218037049
 31
0.0
  0
LINE
  5
17DB1
330
17C12
100
AcDbEntity
  8
寸法
 62
     0
 48
50.0
370
    -2
100
AcDbLine
 10
9318.789152208324
 20
2364.768547337426
 30
0.0
 11
9318.789152208324
 21
2038.721218037049
 31
0.0
  0
LINE
  5
17DB2
330
17C12
100
AcDbEntity
  8
寸法
 62
     0
 48
50.0
370
    -2
100
AcDbLine
 10
9518.789152208325
 20
2098.721218037049
 30
0.0
 11
9318.789152208324
 21
2098.721218037049
 31
0.0
  0
INSERT
  5
17DB3
330
17C12
100
AcDbEntity
  8
寸法
 62
     0
 48
50.0
370
    -2
100
AcDbBlockReference
  2
_DOTSMALL
 10
9518.789152208325
 20
2098.721218037049
 30
0.0
 41
100.0
 42
100.0
 43
100.0
  0
INSERT
  5
17DB4
330
17C12
100
AcDbEntity
  8
寸法
 62
     0
 48
50.0
370
    -2
100
AcDbBlockReference
  2
_DOTSMALL
 10
9318.789152208324
 20
2098.721218037049
 30
0.0
 41
100.0
 42
100.0
 43
100.0
 50
180.0
  0
MTEXT
  5
17DB5
330
17C12
100
AcDbEntity
  8
寸法
 62
     7
 48
50.0
100
AcDbMText
 10
9418.789152208326
 20
2198.733029060671
 30
0.0
 40
120.0
 41
0.0
 71
     5
 72
     1
  1
\A1;200
  7
STYLE1
 73
     1
 44
1.0
1001
ACAD
1000
MTEXTBEGIN
1070
    73
1070
     1
1070
    44
1040
1.0
1070
    74
1070
     0
1000
MTEXTEND
  0
POINT
  5
17DB6
330
17C12
100
AcDbEntity
  8
DEFPOINTS
 62
     0
 48
50.0
100
AcDbPoint
 10
9518.789152208325
 20
2384.768547337426
 30
0.0
  0
POINT
  5
17DB7
330
17C12
100
AcDbEntity
  8
DEFPOINTS
 62
     0
 48
50.0
100
AcDbPoint
 10
9318.789152208324
 20
2384.768547337426
 30
0.0
  0
POINT
  5
17DB8
330
17C12
100
AcDbEntity
  8
DEFPOINTS
 62
     0
 48
50.0
100
AcDbPoint
 10
9318.789152208324
 20
2098.721218037049
 30
0.0
  0
ENDBLK
  5
17C1D
330
17C12
100
AcDbEntity
  8
0
 48
50.0
100
AcDbBlockEnd
  0
BLOCK
  5
18A17
330
18A0B
100
AcDbEntity
  8
0
 48
50.0
100
AcDbBlockBegin
  2
*D30
 70
     1
 10
0.0
 20
0.0
 30
0.0
  3
*D30
  1

  0
LINE
  5
18A63
330
18A0B
100
AcDbEntity
  8
寸法
 62
     0
 48
50.0
370
    -2
100
AcDbLine
 10
9408.789152208223
 20
8021.633414508459
 30
0.0
 11
9094.177906581506
 21
8021.633414508459
 31
0.0
  0
LINE
  5
18A64
330
18A0B
100
AcDbEntity
  8
寸法
 62
     0
 48
50.0
370
    -2
100
AcDbLine
 10
9436.7891522082
 20
7946.633414508458
 30
0.0
 11
9094.177906581506
 21
7946.633414508458
 31
0.0
  0
LINE
  5
18A65
330
18A0B
100
AcDbEntity
  8
寸法
 62
     0
 48
50.0
370
    -2
100
AcDbLine
 10
9134.177906581506
 20
8041.633414508458
 30
0.0
 11
9134.177906581506
 21
8061.633414508458
 31
0.0
  0
LINE
  5
18A66
330
18A0B
100
AcDbEntity
  8
寸法
 62
     0
 48
50.0
370
    -2
100
AcDbLine
 10
9134.177906581506
 20
7926.633414508458
 30
0.0
 11
9134.177906581506
 21
7705.662851759981
 31
0.0
  0
LINE
  5
18A67
330
18A0B
100
AcDbEntity
  8
寸法
 62
     0
 48
50.0
370
    -2
100
AcDbLine
 10
9134.177906581506
 20
8021.633414508459
 30
0.0
 11
9134.177906581506
 21
7946.633414508458
 31
0.0
  0
INSERT
  5
18A68
330
18A0B
100
AcDbEntity
  8
寸法
 62
     0
 48
50.0
370
    -2
100
AcDbBlockReference
  2
_DOT
 10
9134.177906581506
 20
8021.633414508459
 30
0.0
 41
20.0
 42
20.0
 43
20.0
 50
270.0
  0
INSERT
  5
18A69
330
18A0B
100
AcDbEntity
  8
寸法
 62
     0
 48
50.0
370
    -2
100
AcDbBlockReference
  2
_DOT
 10
9134.177906581506
 20
7946.633414508458
 30
0.0
 41
20.0
 42
20.0
 43
20.0
 50
90.0
  0
MTEXT
  5
18A6A
330
18A0B
100
AcDbEntity
  8
寸法
 62
     7
 48
50.0
100
AcDbMText
 10
9042.177906581505
 20
7806.148133134221
 30
0.0
 40
120.0
 41
0.0
 71
     5
 72
     1
  1
\A1;75
  7
STYLE1
 11
0.0000000000000001
 21
1.0
 31
0.0
 73
     1
 44
1.0
1001
ACAD
1000
MTEXTBEGIN
1070
    73
1070
     1
1070
    44
1040
1.0
1070
    74
1070
     0
1000
MTEXTEND
  0
POINT
  5
18A6B
330
18A0B
100
AcDbEntity
  8
DEFPOINTS
 62
     0
 48
50.0
100
AcDbPoint
 10
9428.789152208223
 20
8021.633414508459
 30
0.0
  0
POINT
  5
18A6C
330
18A0B
100
AcDbEntity
  8
DEFPOINTS
 62
     0
 48
50.0
100
AcDbPoint
 10
9456.7891522082
 20
7946.633414508458
 30
0.0
  0
POINT
  5
18A6D
330
18A0B
100
AcDbEntity
  8
DEFPOINTS
 62
     0
 48
50.0
100
AcDbPoint
 10
9134.177906581506
 20
7946.633414508458
 30
0.0
  0
ENDBLK
  5
18A18
330
18A0B
100
AcDbEntity
  8
0
 48
50.0
100
AcDbBlockEnd
  0
BLOCK
  5
18A23
330
18A19
100
AcDbEntity
  8
0
 48
50.0
100
AcDbBlockBegin
  2
*D31
 70
     1
 10
0.0
 20
0.0
 30
0.0
  3
*D31
  1

  0
LINE
  5
18A80
330
18A19
100
AcDbEntity
  8
寸法
 62
     0
 48
50.0
370
    -2
100
AcDbLine
 10
9428.789152208223
 20
8001.633414508473
 30
0.0
 11
9428.789152208223
 21
6799.944586794642
 31
0.0
  0
LINE
  5
18A81
330
18A19
100
AcDbEntity
  8
寸法
 62
     0
 48
50.0
370
    -2
100
AcDbLine
 10
10798.7891522083
 20
8001.633414508445
 30
0.0
 11
10798.7891522083
 21
6799.944586794642
 31
0.0
  0
LINE
  5
18A82
330
18A19
100
AcDbEntity
  8
寸法
 62
     0
 48
50.0
370
    -2
100
AcDbLine
 10
9428.789152208223
 20
6859.944586794641
 30
0.0
 11
10798.7891522083
 21
6859.944586794641
 31
0.0
  0
INSERT
  5
18A83
330
18A19
100
AcDbEntity
  8
寸法
 62
     0
 48
50.0
370
    -2
100
AcDbBlockReference
  2
_DOTSMALL
 10
9428.789152208223
 20
6859.944586794641
 30
0.0
 41
100.0
 42
100.0
 43
100.0
 50
180.0
  0
INSERT
  5
18A84
330
18A19
100
AcDbEntity
  8
寸法
 62
     0
 48
50.0
370
    -2
100
AcDbBlockReference
  2
_DOTSMALL
 10
10798.7891522083
 20
6859.944586794641
 30
0.0
 41
100.0
 42
100.0
 43
100.0
  0
MTEXT
  5
18A85
330
18A19
100
AcDbEntity
  8
寸法
 62
     7
 48
50.0
100
AcDbMText
 10
10111.21113696871
 20
6959.944586794641
 30
0.0
 40
120.0
 41
0.0
 71
     5
 72
     1
  1
\A1;1370
  7
STYLE1
 73
     1
 44
1.0
1001
ACAD
1000
MTEXTBEGIN
1070
    73
1070
     1
1070
    44
1040
1.0
1070
    74
1070
     0
1000
MTEXTEND
  0
POINT
  5
18A86
330
18A19
100
AcDbEntity
  8
DEFPOINTS
 62
     0
 48
50.0
100
AcDbPoint
 10
9428.789152208223
 20
8021.633414508473
 30
0.0
  0
POINT
  5
18A87
330
18A19
100
AcDbEntity
  8
DEFPOINTS
 62
     0
 48
50.0
100
AcDbPoint
 10
10798.7891522083
 20
8021.633414508446
 30
0.0
  0
POINT
  5
18A88
330
18A19
100
AcDbEntity
  8
DEFPOINTS
 62
     0
 48
50.0
100
AcDbPoint
 10
10798.7891522083
 20
6859.944586794641
 30
0.0
  0
ENDBLK
  5
18A24
330
18A19
100
AcDbEntity
  8
0
 48
50.0
100
AcDbBlockEnd
  0
BLOCK
  5
18A2F
330
18A25
100
AcDbEntity
  8
0
 48
50.0
100
AcDbBlockBegin
  2
*D32
 70
     1
 10
0.0
 20
0.0
 30
0.0
  3
*D32
  1

  0
LINE
  5
18AF4
330
18A25
100
AcDbEntity
  8
寸法
 62
     0
 48
50.0
370
    -2
100
AcDbLine
 10
9456.7891522082
 20
7924.633414508459
 30
0.0
 11
9456.7891522082
 21
7034.021550504367
 31
0.0
  0
LINE
  5
18AF5
330
18A25
100
AcDbEntity
  8
寸法
 62
     0
 48
50.0
370
    -2
100
AcDbLine
 10
10770.7891522082
 20
7924.633414508459
 30
0.0
 11
10770.7891522082
 21
7034.021550504367
 31
0.0
  0
LINE
  5
18AF6
330
18A25
100
AcDbEntity
  8
寸法
 62
     0
 48
50.0
370
    -2
100
AcDbLine
 10
9456.7891522082
 20
7094.021550504367
 30
0.0
 11
10770.7891522082
 21
7094.021550504367
 31
0.0
  0
INSERT
  5
18AF7
330
18A25
100
AcDbEntity
  8
寸法
 62
     0
 48
50.0
370
    -2
100
AcDbBlockReference
  2
_DOTSMALL
 10
9456.7891522082
 20
7094.021550504367
 30
0.0
 41
100.0
 42
100.0
 43
100.0
 50
180.0
  0
INSERT
  5
18AF8
330
18A25
100
AcDbEntity
  8
寸法
 62
     0
 48
50.0
370
    -2
100
AcDbBlockReference
  2
_DOTSMALL
 10
10770.7891522082
 20
7094.021550504367
 30
0.0
 41
100.0
 42
100.0
 43
100.0
  0
MTEXT
  5
18AF9
330
18A25
100
AcDbEntity
  8
寸法
 62
     7
 48
50.0
100
AcDbMText
 10
10113.7891522082
 20
7194.021550504366
 30
0.0
 40
120.0
 41
0.0
 71
     5
 72
     1
  1
\A1;1314
  7
STYLE1
 73
     1
 44
1.0
1001
ACAD
1000
MTEXTBEGIN
1070
    73
1070
     1
1070
    44
1040
1.0
1070
    74
1070
     0
1000
MTEXTEND
  0
POINT
  5
18AFA
330
18A25
100
AcDbEntity
  8
DEFPOINTS
 62
     0
 48
50.0
100
AcDbPoint
 10
9456.7891522082
 20
7944.633414508459
 30
0.0
  0
POINT
  5
18AFB
330
18A25
100
AcDbEntity
  8
DEFPOINTS
 62
     0
 48
50.0
100
AcDbPoint
 10
10770.7891522082
 20
7944.633414508459
 30
0.0
  0
POINT
  5
18AFC
330
18A25
100
AcDbEntity
  8
DEFPOINTS
 62
     0
 48
50.0
100
AcDbPoint
 10
10770.7891522082
 20
7094.021550504367
 30
0.0
  0
ENDBLK
  5
18A30
330
18A25
100
AcDbEntity
  8
0
 48
50.0
100
AcDbBlockEnd
  0
BLOCK
  5
18A3B
330
18A31
100
AcDbEntity
  8
0
 48
50.0
100
AcDbBlockBegin
  2
*D33
 70
     1
 10
0.0
 20
0.0
 30
0.0
  3
*D33
  1

  0
LINE
  5
18AEB
330
18A31
100
AcDbEntity
  8
寸法
 62
     0
 48
50.0
370
    -2
100
AcDbLine
 10
9495.789152208201
 20
7924.633414508459
 30
0.0
 11
9495.789152208201
 21
7260.504039811156
 31
0.0
  0
LINE
  5
18AEC
330
18A31
100
AcDbEntity
  8
寸法
 62
     0
 48
50.0
370
    -2
100
AcDbLine
 10
10169.7891522082
 20
7924.633414508459
 30
0.0
 11
10169.7891522082
 21
7260.504039811156
 31
0.0
  0
LINE
  5
18AED
330
18A31
100
AcDbEntity
  8
寸法
 62
     0
 48
50.0
370
    -2
100
AcDbLine
 10
9495.789152208201
 20
7320.504039811156
 30
0.0
 11
10169.7891522082
 21
7320.504039811156
 31
0.0
  0
INSERT
  5
18AEE
330
18A31
100
AcDbEntity
  8
寸法
 62
     0
 48
50.0
370
    -2
100
AcDbBlockReference
  2
_DOTSMALL
 10
9495.789152208201
 20
7320.504039811156
 30
0.0
 41
100.0
 42
100.0
 43
100.0
 50
180.0
  0
INSERT
  5
18AEF
330
18A31
100
AcDbEntity
  8
寸法
 62
     0
 48
50.0
370
    -2
100
AcDbBlockReference
  2
_DOTSMALL
 10
10169.7891522082
 20
7320.504039811156
 30
0.0
 41
100.0
 42
100.0
 43
100.0
  0
MTEXT
  5
18AF0
330
18A31
100
AcDbEntity
  8
寸法
 62
     7
 48
50.0
100
AcDbMText
 10
9832.789152208201
 20
7520.504039811156
 30
0.0
 40
120.0
 41
0.0
 71
     5
 72
     1
  1
\A1;有効開口部間口\P674
  7
STYLE1
 73
     1
 44
1.0
1001
ACAD
1000
MTEXTBEGIN
1070
    73
1070
     1
1070
    44
1040
1.0
1070
    74
1070
     0
1000
MTEXTEND
  0
POINT
  5
18AF1
330
18A31
100
AcDbEntity
  8
DEFPOINTS
 62
     0
 48
50.0
100
AcDbPoint
 10
9495.789152208201
 20
7944.633414508459
 30
0.0
  0
POINT
  5
18AF2
330
18A31
100
AcDbEntity
  8
DEFPOINTS
 62
     0
 48
50.0
100
AcDbPoint
 10
10169.7891522082
 20
7944.633414508459
 30
0.0
  0
POINT
  5
18AF3
330
18A31
100
AcDbEntity
  8
DEFPOINTS
 62
     0
 48
50.0
100
AcDbPoint
 10
10169.7891522082
 20
7320.504039811156
 30
0.0
  0
ENDBLK
  5
18A3C
330
18A31
100
AcDbEntity
  8
0
 48
50.0
100
AcDbBlockEnd
  0
ENDSEC
  0
SECTION
  2
ENTITIES
  0
LINE
  5
10B57
330
747D
100
AcDbEntity
  8
補助
  6
PHANTOM
 62
   230
 48
50.0
100
AcDbLine
 10
139.9999999999995
 20
11409.6
 30
0.0
 11
16307.2
 21
11409.6
 31
0.0
  0
LINE
  5
10B59
330
747D
100
AcDbEntity
  8
仕様書枠
  6
Continuous
 48
50.0
100
AcDbLine
 10
13107.2
 20
1200.0
 30
0.0
 11
13107.2
 21
-0.0000000000000729
 31
0.0
  0
LINE
  5
10B5C
330
747D
100
AcDbEntity
  8
仕様書枠
 48
50.0
100
AcDbLine
 10
16307.2
 20
1200.0
 30
0.0
 11
16307.2
 21
-0.0000000000000909
 31
0.0
  0
LINE
  5
10B5D
330
747D
100
AcDbEntity
  8
仕様書枠
 48
50.0
100
AcDbLine
 10
140.0
 20
0.0
 30
0.0
 11
16307.2
 21
-0.0000000000000909
 31
0.0
  0
LINE
  5
10B5E
330
747D
100
AcDbEntity
  8
補助
  6
PHANTOM
 62
   230
 48
50.0
100
AcDbLine
 10
16307.2
 20
11409.6
 30
0.0
 11
16307.2
 21
1200.0
 31
0.0
  0
LINE
  5
10B6C
330
747D
100
AcDbEntity
  8
仕様書枠
 48
50.0
100
AcDbLine
 10
13107.2
 20
1200.0
 30
0.0
 11
16307.2
 21
1200.0
 31
0.0
  0
LINE
  5
10B6D
330
747D
100
AcDbEntity
  8
補助
  6
PHANTOM
 62
   230
 48
50.0
100
AcDbLine
 10
13107.2
 20
11409.6
 30
0.0
 11
13107.2
 21
4800.0
 31
0.0
  0
LINE
  5
10B6F
330
747D
100
AcDbEntity
  8
補助
  6
PHANTOM
 62
   230
 48
50.0
100
AcDbLine
 10
13107.2
 20
4800.0
 30
0.0
 11
16307.2
 21
4800.0
 31
0.0
  0
LINE
  5
10B72
330
747D
100
AcDbEntity
  8
文字
 62
     7
 48
50.0
100
AcDbLine
 10
13187.2
 20
400.0
 30
0.0
 11
16227.2
 21
400.0
 31
0.0
  0
TEXT
  5
10B73
330
747D
100
AcDbEntity
  8
文字
 62
     7
 48
50.0
100
AcDbText
 10
13162.9790565769
 20
895.0906074299405
 30
0.0
 40
200.0
  1
外 形 図
  7
STYLE2
100
AcDbText
  0
TEXT
  5
10B74
330
747D
100
AcDbEntity
  8
文字
 62
     7
 48
50.0
100
AcDbText
 10
13201.43669998441
 20
477.2740661031255
 30
0.0
 40
160.0
  1
機種名
  7
STYLE2
100
AcDbText
  0
TEXT
  5
10B76
330
747D
100
AcDbEntity
  8
文字
 62
     7
 48
50.0
100
AcDbText
 10
13209.4053442172
 20
60.27918998376771
 30
0.0
 40
100.0
  1
○床面積 ： 3.13㎡(0.95坪) 　
  7
STYLE2
100
AcDbText
  0
TEXT
  5
10B79
330
747D
100
AcDbEntity
  8
文字
 62
     7
 48
50.0
100
AcDbText
 10
14524.131837222
 20
1031.557706291228
 30
0.0
 40
100.0
  1
NO.02      <縮尺> S=1/40
  7
STYLE2
100
AcDbText
  0
LINE
  5
10B7B
330
747D
100
AcDbEntity
  8
仕様書枠
 48
50.0
100
AcDbLine
 10
13107.2
 20
800.0
 30
0.0
 11
14251.2
 21
800.0
 31
0.0
  0
LINE
  5
10B88
330
747D
100
AcDbEntity
  8
仕様書枠
  6
Continuous
 48
50.0
100
AcDbLine
 10
14251.2
 20
1200.0
 30
0.0
 11
14251.2
 21
800.0
 31
0.0
  0
LINE
  5
12765
330
747D
100
AcDbEntity
  8
Ｇ．Ｌ
100
AcDbLine
 10
3274.975328379856
 20
2584.768547337427
 30
0.0
 11
11469.30045410615
 21
2584.768547337427
 31
0.0
  0
TEXT
  5
127AA
330
747D
100
AcDbEntity
  8
部品1
100
AcDbText
 10
3325.321767880734
 20
2620.875450943329
 30
0.0
 40
125.0
  1
▽G.L
  7
STYLE2
100
AcDbText
  0
TEXT
  5
14D2F
330
747D
100
AcDbEntity
  8
文字
 62
     7
 48
50.0
100
AcDbText
 10
14644.07818602837
 20
876.4448062548634
 30
0.0
 40
100.0
  1
～一般型・多雪地型～
  7
STYLE2
100
AcDbText
  0
TEXT
  5
1689B
330
747D
100
AcDbEntity
  8
文字
 62
     7
 48
50.0
100
AcDbText
 10
13248.77747366447
 20
8380.013745883731
 30
0.0
 40
100.0
  1
17
  7
STYLE1
100
AcDbText
  0
TEXT
  5
1689C
330
747D
100
AcDbEntity
  8
文字
 62
     7
 48
50.0
100
AcDbText
 10
13248.77747366447
 20
8550.013745883731
 30
0.0
 40
100.0
  1
16
  7
STYLE1
100
AcDbText
  0
TEXT
  5
1689D
330
747D
100
AcDbEntity
  8
文字
 62
     7
 48
50.0
100
AcDbText
 10
15022.63965474517
 20
9060.013745883727
 30
0.0
 40
100.0
  1
F12            1.0
  7
STYLE1
100
AcDbText
  0
TEXT
  5
1689E
330
747D
100
AcDbEntity
  8
文字
 62
     7
 48
50.0
100
AcDbText
 10
13583.11819016569
 20
9060.013745883734
 30
0.0
 40
100.0
  1
壁面扉枠左右
  7
STYLE1
100
AcDbText
  0
TEXT
  5
1689F
330
747D
100
AcDbEntity
  8
文字
 62
     7
 48
50.0
100
AcDbText
 10
15022.63965474517
 20
9230.013745883727
 30
0.0
 40
100.0
  1
F12            1.0
  7
STYLE1
100
AcDbText
  0
TEXT
  5
168A0
330
747D
100
AcDbEntity
  8
文字
 62
     7
 48
50.0
100
AcDbText
 10
15022.63965474515
 20
9400.013745883729
 30
0.0
 40
100.0
  1
F12            0.7
  7
STYLE1
100
AcDbText
  0
TEXT
  5
168A1
330
747D
100
AcDbEntity
  8
文字
 62
     7
 48
50.0
100
AcDbText
 10
13583.11819016569
 20
9230.013745883734
 30
0.0
 40
100.0
  1
壁面扉敷居
  7
STYLE1
100
AcDbText
  0
TEXT
  5
168A2
330
747D
100
AcDbEntity
  8
文字
 62
     7
 48
50.0
100
AcDbText
 10
13583.11819016569
 20
9400.013745883731
 30
0.0
 40
100.0
  1
壁面扉鴨居
  7
STYLE1
100
AcDbText
  0
LINE
  5
168A3
330
747D
100
AcDbEntity
  8
仕様書枠
 48
50.0
100
AcDbLine
 10
16307.19999999999
 20
8689.600000000005
 30
0.0
 11
13127.2
 21
8689.600000000007
 31
0.0
  0
LINE
  5
168A4
330
747D
100
AcDbEntity
  8
仕様書枠
 48
50.0
100
AcDbLine
 10
16307.19999999999
 20
8519.600000000005
 30
0.0
 11
13127.2
 21
8519.600000000009
 31
0.0
  0
TEXT
  5
168A5
330
747D
100
AcDbEntity
  8
文字
 62
     7
 48
50.0
100
AcDbText
 10
13583.11819016569
 20
8380.013745883731
 30
0.0
 40
100.0
  1
アンカープレート
  7
STYLE1
100
AcDbText
  0
TEXT
  5
168A6
330
747D
100
AcDbEntity
  8
文字
 62
     7
 48
50.0
100
AcDbText
 10
15022.63965474515
 20
8380.013745883726
 30
0.0
 40
100.0
  1
F12            2.3
  7
STYLE1
100
AcDbText
  0
LINE
  5
168A7
330
747D
100
AcDbEntity
  8
仕様書枠
 48
50.0
100
AcDbLine
 10
16307.2
 20
10049.6
 30
0.0
 11
13127.2
 21
10049.6
 31
0.0
  0
LINE
  5
168A8
330
747D
100
AcDbEntity
  8
仕様書枠
 48
50.0
100
AcDbLine
 10
16307.2
 20
11409.6
 30
0.0
 11
13127.2
 21
11409.6
 31
0.0
  0
LINE
  5
168A9
330
747D
100
AcDbEntity
  8
仕様書枠
 48
50.0
100
AcDbLine
 10
16307.19999999999
 20
8009.600000000006
 30
0.0
 11
16307.2
 21
11409.6
 31
0.0
  0
LINE
  5
168AA
330
747D
100
AcDbEntity
  8
仕様書枠
 48
50.0
100
AcDbLine
 10
14785.2
 20
11409.6
 30
0.0
 11
14785.2
 21
8349.600000000007
 31
0.0
  0
LINE
  5
168AB
330
747D
100
AcDbEntity
  8
仕様書枠
 48
50.0
100
AcDbLine
 10
13490.2
 20
11409.6
 30
0.0
 11
13490.20000000001
 21
8349.600000000007
 31
0.0
  0
LINE
  5
168AC
330
747D
100
AcDbEntity
  8
仕様書枠
 48
50.0
100
AcDbLine
 10
16307.2
 20
11239.6
 30
0.0
 11
13127.2
 21
11239.6
 31
0.0
  0
LINE
  5
168AD
330
747D
100
AcDbEntity
  8
仕様書枠
 48
50.0
100
AcDbLine
 10
16307.2
 20
10899.6
 30
0.0
 11
13127.2
 21
10899.6
 31
0.0
  0
LINE
  5
168AE
330
747D
100
AcDbEntity
  8
仕様書枠
 48
50.0
100
AcDbLine
 10
16307.2
 20
11069.6
 30
0.0
 11
13127.2
 21
11069.6
 31
0.0
  0
LINE
  5
168AF
330
747D
100
AcDbEntity
  8
仕様書枠
 48
50.0
100
AcDbLine
 10
16307.19999999999
 20
10559.6
 30
0.0
 11
13127.2
 21
10559.6
 31
0.0
  0
LINE
  5
168B0
330
747D
100
AcDbEntity
  8
仕様書枠
 48
50.0
100
AcDbLine
 10
16307.19999999999
 20
10389.6
 30
0.0
 11
13127.2
 21
10389.6
 31
0.0
  0
LINE
  5
168B1
330
747D
100
AcDbEntity
  8
仕様書枠
 48
50.0
100
AcDbLine
 10
16307.19999999999
 20
10729.6
 30
0.0
 11
13127.2
 21
10729.6
 31
0.0
  0
TEXT
  5
168B2
330
747D
100
AcDbEntity
  8
文字
 62
     7
 48
50.0
100
AcDbText
 10
13197.42518560407
 20
11270.01374588373
 30
0.0
 40
100.0
  1
品番
  7
STYLE1
100
AcDbText
  0
TEXT
  5
168B3
330
747D
100
AcDbEntity
  8
文字
 62
     7
 48
50.0
100
AcDbText
 10
13271.19032244792
 20
11100.01374588373
 30
0.0
 40
100.0
  1
1
  7
STYLE1
100
AcDbText
  0
TEXT
  5
168B4
330
747D
100
AcDbEntity
  8
文字
 62
     7
 48
50.0
100
AcDbText
 10
13271.19032244792
 20
10930.01374588373
 30
0.0
 40
100.0
  1
2
  7
STYLE1
100
AcDbText
  0
TEXT
  5
168B5
330
747D
100
AcDbEntity
  8
文字
 62
     7
 48
50.0
100
AcDbText
 10
13271.19032244792
 20
10590.01374588373
 30
0.0
 40
100.0
  1
4
  7
STYLE1
100
AcDbText
  0
TEXT
  5
168B6
330
747D
100
AcDbEntity
  8
文字
 62
     7
 48
50.0
100
AcDbText
 10
13271.19032244792
 20
10760.01374588373
 30
0.0
 40
100.0
  1
3
  7
STYLE1
100
AcDbText
  0
TEXT
  5
168B7
330
747D
100
AcDbEntity
  8
文字
 62
     7
 48
50.0
100
AcDbText
 10
13732.03840939434
 20
11270.01374588373
 30
0.0
 40
100.0
  1
部　　品　　名
  7
STYLE1
100
AcDbText
  0
TEXT
  5
168B8
330
747D
100
AcDbEntity
  8
文字
 62
     7
 48
50.0
100
AcDbText
 10
14859.79774614482
 20
11270.01374588373
 30
0.0
 40
100.0
  1
材料（材質）　　単位mm
  7
STYLE1
100
AcDbText
  0
TEXT
  5
168B9
330
747D
100
AcDbEntity
  8
文字
 62
     7
 48
50.0
100
AcDbText
 10
13583.11819016569
 20
11100.01374588373
 30
0.0
 40
100.0
  1
土台枠
  7
STYLE1
100
AcDbText
  0
TEXT
  5
168BA
330
747D
100
AcDbEntity
  8
文字
 62
     7
 48
50.0
100
AcDbText
 10
13583.1181901657
 20
10760.01374588373
 30
0.0
 40
100.0
  1
柱
  7
STYLE1
100
AcDbText
  0
TEXT
  5
168BB
330
747D
100
AcDbEntity
  8
文字
 62
     7
 48
50.0
100
AcDbText
 10
13583.11819016569
 20
10420.01374588373
 30
0.0
 40
100.0
  1
桁前後
  7
STYLE1
100
AcDbText
  0
TEXT
  5
168BC
330
747D
100
AcDbEntity
  8
文字
 62
     7
 48
50.0
100
AcDbText
 10
13271.19032244792
 20
10420.01374588373
 30
0.0
 40
100.0
  1
5
  7
STYLE1
100
AcDbText
  0
TEXT
  5
168BD
330
747D
100
AcDbEntity
  8
文字
 62
     7
 48
50.0
100
AcDbText
 10
13583.11819016569
 20
10250.01374588373
 30
0.0
 40
100.0
  1
妻板左右
  7
STYLE1
100
AcDbText
  0
TEXT
  5
168BE
330
747D
100
AcDbEntity
  8
文字
 62
     7
 48
50.0
100
AcDbText
 10
13248.77747366447
 20
9570.013745883729
 30
0.0
 40
100.0
  1
10
  7
STYLE1
100
AcDbText
  0
TEXT
  5
168BF
330
747D
100
AcDbEntity
  8
文字
 62
     7
 48
50.0
100
AcDbText
 10
13583.11819016568
 20
9570.013745883731
 30
0.0
 40
100.0
  1
壁パネル
  7
STYLE1
100
AcDbText
  0
TEXT
  5
168C0
330
747D
100
AcDbEntity
  8
文字
 62
     7
 48
50.0
100
AcDbText
 10
13583.11819016569
 20
9910.01374588373
 30
0.0
 40
100.0
  1
屋根パネル
  7
STYLE1
100
AcDbText
  0
TEXT
  5
168C1
330
747D
100
AcDbEntity
  8
文字
 62
     7
 48
50.0
100
AcDbText
 10
13583.11819016569
 20
10080.01374588373
 30
0.0
 40
100.0
  1
鼻隠シ前後
  7
STYLE1
100
AcDbText
  0
TEXT
  5
168C2
330
747D
100
AcDbEntity
  8
文字
 62
     7
 48
50.0
100
AcDbText
 10
13271.19032244792
 20
9910.01374588373
 30
0.0
 40
100.0
  1
8
  7
STYLE1
100
AcDbText
  0
TEXT
  5
168C3
330
747D
100
AcDbEntity
  8
文字
 62
     7
 48
50.0
100
AcDbText
 10
13271.19032244792
 20
9740.013745883731
 30
0.0
 40
100.0
  1
9
  7
STYLE1
100
AcDbText
  0
TEXT
  5
168C4
330
747D
100
AcDbEntity
  8
文字
 62
     7
 48
50.0
100
AcDbText
 10
13271.19032244792
 20
10080.01374588373
 30
0.0
 40
100.0
  1
7
  7
STYLE1
100
AcDbText
  0
TEXT
  5
168C5
330
747D
100
AcDbEntity
  8
文字
 62
     7
 48
50.0
100
AcDbText
 10
13271.19032244792
 20
10250.01374588373
 30
0.0
 40
100.0
  1
6
  7
STYLE1
100
AcDbText
  0
LINE
  5
168C6
330
747D
100
AcDbEntity
  8
仕様書枠
 48
50.0
100
AcDbLine
 10
16307.19999999999
 20
9709.600000000001
 30
0.0
 11
13127.2
 21
9709.600000000001
 31
0.0
  0
LINE
  5
168C7
330
747D
100
AcDbEntity
  8
仕様書枠
 48
50.0
100
AcDbLine
 10
16307.19999999999
 20
9369.600000000001
 30
0.0
 11
13127.2
 21
9369.600000000003
 31
0.0
  0
LINE
  5
168C8
330
747D
100
AcDbEntity
  8
仕様書枠
 48
50.0
100
AcDbLine
 10
16307.19999999999
 20
9539.6
 30
0.0
 11
13127.2
 21
9539.600000000003
 31
0.0
  0
LINE
  5
168C9
330
747D
100
AcDbEntity
  8
仕様書枠
 48
50.0
100
AcDbLine
 10
16307.2
 20
10219.6
 30
0.0
 11
13127.2
 21
10219.6
 31
0.0
  0
LINE
  5
168CA
330
747D
100
AcDbEntity
  8
仕様書枠
 48
50.0
100
AcDbLine
 10
16307.2
 20
9879.600000000001
 30
0.0
 11
13127.2
 21
9879.600000000003
 31
0.0
  0
TEXT
  5
168CB
330
747D
100
AcDbEntity
  8
文字
 62
     7
 48
50.0
100
AcDbText
 10
13248.77747366447
 20
9400.013745883729
 30
0.0
 40
100.0
  1
11
  7
STYLE1
100
AcDbText
  0
LINE
  5
168CC
330
747D
100
AcDbEntity
  8
仕様書枠
 48
50.0
100
AcDbLine
 10
16307.19999999999
 20
9199.600000000001
 30
0.0
 11
13127.2
 21
9199.600000000001
 31
0.0
  0
LINE
  5
168CD
330
747D
100
AcDbEntity
  8
仕様書枠
 48
50.0
100
AcDbLine
 10
16307.19999999999
 20
8859.600000000002
 30
0.0
 11
13127.2
 21
8859.600000000005
 31
0.0
  0
TEXT
  5
168CE
330
747D
100
AcDbEntity
  8
文字
 62
     7
 48
50.0
100
AcDbText
 10
13248.77747366448
 20
9060.013745883729
 30
0.0
 40
100.0
  1
13
  7
STYLE1
100
AcDbText
  0
TEXT
  5
168CF
330
747D
100
AcDbEntity
  8
文字
 62
     7
 48
50.0
100
AcDbText
 10
13248.77747366448
 20
9230.013745883729
 30
0.0
 40
100.0
  1
12
  7
STYLE1
100
AcDbText
  0
TEXT
  5
168D0
330
747D
100
AcDbEntity
  8
文字
 62
     7
 48
50.0
100
AcDbText
 10
15022.63965474517
 20
11100.01374588373
 30
0.0
 40
100.0
  1
F12            1.2
  7
STYLE1
100
AcDbText
  0
TEXT
  5
168D1
330
747D
100
AcDbEntity
  8
文字
 62
     7
 48
50.0
100
AcDbText
 10
15022.63965474518
 20
10760.01374588372
 30
0.0
 40
100.0
  1
F12            1.0
  7
STYLE1
100
AcDbText
  0
TEXT
  5
168D2
330
747D
100
AcDbEntity
  8
文字
 62
     7
 48
50.0
100
AcDbText
 10
15022.63965474516
 20
10420.01374588372
 30
0.0
 40
100.0
  1
Y10            1.0
  7
STYLE1
100
AcDbText
  0
TEXT
  5
168D3
330
747D
100
AcDbEntity
  8
文字
 62
     7
 48
50.0
100
AcDbText
 10
15022.63965474516
 20
10250.01374588373
 30
0.0
 40
100.0
  1
Y10            0.7
  7
STYLE1
100
AcDbText
  0
TEXT
  5
168D4
330
747D
100
AcDbEntity
  8
文字
 62
     7
 48
50.0
100
AcDbText
 10
15022.63965474516
 20
10080.01374588372
 30
0.0
 40
100.0
  1
Y10            0.7
  7
STYLE1
100
AcDbText
  0
TEXT
  5
168D5
330
747D
100
AcDbEntity
  8
文字
 62
     7
 48
50.0
100
AcDbText
 10
15022.63965474517
 20
9910.013745883727
 30
0.0
 40
100.0
  1
Y10            0.5
  7
STYLE1
100
AcDbText
  0
TEXT
  5
168D6
330
747D
100
AcDbEntity
  8
文字
 62
     7
 48
50.0
100
AcDbText
 10
15022.63965474515
 20
9570.013745883727
 30
0.0
 40
100.0
  1
F12            0.6
  7
STYLE1
100
AcDbText
  0
LINE
  5
168D7
330
747D
100
AcDbEntity
  8
仕様書枠
 48
50.0
100
AcDbLine
 10
16307.19999999999
 20
8349.600000000007
 30
0.0
 11
13127.19999999999
 21
8349.600000000007
 31
0.0
  0
LINE
  5
168D8
330
747D
100
AcDbEntity
  8
仕様書枠
 48
50.0
100
AcDbLine
 10
16307.19999999999
 20
8179.600000000005
 30
0.0
 11
13127.19999999999
 21
8179.600000000007
 31
0.0
  0
TEXT
  5
168D9
330
747D
100
AcDbEntity
  8
文字
 62
     7
 48
50.0
100
AcDbText
 10
13229.83081656554
 20
8210.013745883735
 30
0.0
 40
100.0
  1
F12→溶融亜鉛めっき鋼板(JIS G 3302)
  7
STYLE1
100
AcDbText
  0
TEXT
  5
168DA
330
747D
100
AcDbEntity
  8
文字
 62
     7
 48
50.0
100
AcDbText
 10
13229.83081656554
 20
8040.013745883735
 30
0.0
 40
100.0
  1
Y10→溶融亜鉛-5％アルミニウム合金めっき鋼板(JIS G 3317)
 41
0.9
  7
STYLE1
100
AcDbText
  0
LINE
  5
168DB
330
747D
100
AcDbEntity
  8
仕様書枠
 48
50.0
100
AcDbLine
 10
13127.2
 20
11409.6
 30
0.0
 11
13127.19999999999
 21
8009.600000000007
 31
0.0
  0
LINE
  5
168DC
330
747D
100
AcDbEntity
  8
仕様書枠
 48
50.0
100
AcDbLine
 10
16307.19999999999
 20
9029.600000000002
 30
0.0
 11
13127.2
 21
9029.600000000003
 31
0.0
  0
TEXT
  5
168DD
330
747D
100
AcDbEntity
  8
文字
 62
     7
 48
50.0
100
AcDbText
 10
13583.1181901657
 20
10590.01374588373
 30
0.0
 40
100.0
  1
床パネル
 41
0.9
  7
STYLE1
100
AcDbText
  0
TEXT
  5
168DE
330
747D
100
AcDbEntity
  8
文字
 62
     7
 48
50.0
100
AcDbText
 10
13583.11819016569
 20
10930.01374588373
 30
0.0
 40
100.0
  1
根太
  7
STYLE1
100
AcDbText
  0
TEXT
  5
168DF
330
747D
100
AcDbEntity
  8
文字
 62
     7
 48
50.0
100
AcDbText
 10
13248.77747366448
 20
8890.013745883729
 30
0.0
 40
100.0
  1
14
  7
STYLE1
100
AcDbText
  0
TEXT
  5
168E0
330
747D
100
AcDbEntity
  8
文字
 62
     7
 48
50.0
100
AcDbText
 10
15022.63965474516
 20
10930.01374588372
 30
0.0
 40
100.0
  1
F12            1.2
  7
STYLE1
100
AcDbText
  0
TEXT
  5
168E1
330
747D
100
AcDbEntity
  8
文字
 62
     7
 48
50.0
100
AcDbText
 10
15022.63965474517
 20
10590.01374588373
 30
0.0
 40
100.0
  1
F12            1.0
  7
STYLE1
100
AcDbText
  0
TEXT
  5
168E2
330
747D
100
AcDbEntity
  8
文字
 62
     7
 48
50.0
100
AcDbText
 10
15022.63965474515
 20
8890.013745883729
 30
0.0
 40
100.0
  1
F12            0.7
  7
STYLE1
100
AcDbText
  0
TEXT
  5
168E3
330
747D
100
AcDbEntity
  8
文字
 62
     7
 48
50.0
100
AcDbText
 10
13583.11819016568
 20
8890.013745883733
 30
0.0
 40
100.0
  1
正面パネル
  7
STYLE1
100
AcDbText
  0
TEXT
  5
168E4
330
747D
100
AcDbEntity
  8
文字
 62
     7
 48
50.0
100
AcDbText
 10
15022.63965474516
 20
8720.013745883729
 30
0.0
 40
100.0
  1
F12            0.8
  7
STYLE1
100
AcDbText
  0
TEXT
  5
168E5
330
747D
100
AcDbEntity
  8
文字
 62
     7
 48
50.0
100
AcDbText
 10
13583.11819016569
 20
8720.013745883733
 30
0.0
 40
100.0
  1
扉
  7
STYLE1
100
AcDbText
  0
LINE
  5
168E6
330
747D
100
AcDbEntity
  8
仕様書枠
 48
50.0
100
AcDbLine
 10
16307.19999999999
 20
8009.600000000006
 30
0.0
 11
13127.19999999999
 21
8009.600000000007
 31
0.0
  0
TEXT
  5
168E7
330
747D
100
AcDbEntity
  8
文字
 62
     7
 48
50.0
100
AcDbText
 10
13248.77747366447
 20
8720.013745883731
 30
0.0
 40
100.0
  1
15
  7
STYLE1
100
AcDbText
  0
TEXT
  5
168E8
330
747D
100
AcDbEntity
  8
文字
 62
     7
 48
50.0
100
AcDbText
 10
13583.11819016569
 20
9740.013745883729
 30
0.0
 40
100.0
  1
母屋中
  7
STYLE1
100
AcDbText
  0
TEXT
  5
168E9
330
747D
100
AcDbEntity
  8
文字
 62
     7
 48
50.0
100
AcDbText
 10
15022.63965474515
 20
9740.013745883725
 30
0.0
 40
100.0
  1
F12            1.0
  7
STYLE1
100
AcDbText
  0
TEXT
  5
168EA
330
747D
100
AcDbEntity
  8
文字
 62
     7
 48
50.0
100
AcDbText
 10
15022.63965474516
 20
8550.013745883729
 30
0.0
 40
100.0
  1
F12            0.6
  7
STYLE1
100
AcDbText
  0
TEXT
  5
168EB
330
747D
100
AcDbEntity
  8
文字
 62
     7
 48
50.0
100
AcDbText
 10
13583.11819016569
 20
8550.013745883733
 30
0.0
 40
100.0
  1
棚板
  7
STYLE1
100
AcDbText
  0
LINE
  5
168EC
330
747D
100
AcDbEntity
  8
部品1
100
AcDbLine
 10
5516.692122871067
 20
2684.768547337427
 30
0.0
 11
5516.692122871067
 21
2584.768547337427
 31
0.0
  0
LINE
  5
168ED
330
747D
100
AcDbEntity
  8
部品1
 48
50.0
100
AcDbLine
 10
6121.692122871067
 20
2684.768547337427
 30
0.0
 11
6121.692122871067
 21
2584.768547337427
 31
0.0
  0
LINE
  5
168EE
330
747D
100
AcDbEntity
  8
部品1
 48
50.0
100
AcDbLine
 10
6321.692122871067
 20
2684.768547337427
 30
0.0
 11
6321.692122871067
 21
2584.768547337427
 31
0.0
  0
LINE
  5
168EF
330
747D
100
AcDbEntity
  8
部品1
100
AcDbLine
 10
6926.692122871067
 20
2684.768547337427
 30
0.0
 11
6926.692122871067
 21
2584.768547337427
 31
0.0
  0
LINE
  5
168F0
330
747D
100
AcDbEntity
  8
部品1
 48
50.0
100
AcDbLine
 10
7403.692122871071
 20
2684.768547337427
 30
0.0
 11
7319.192122871071
 21
2684.768547337427
 31
0.0
  0
LINE
  5
168F1
330
747D
100
AcDbEntity
  8
部品1
 48
50.0
100
AcDbLine
 10
7403.692122871071
 20
4509.768547337428
 30
0.0
 11
7403.692122871071
 21
2584.768547337427
 31
0.0
  0
LINE
  5
168F2
330
747D
100
AcDbEntity
  8
部品1
 48
50.0
100
AcDbLine
 10
7326.692122871071
 20
4519.768547337427
 30
0.0
 11
7403.692122871071
 21
4509.768547337428
 31
0.0
  0
MTEXT
  5
1697E
330
747D
100
AcDbEntity
  8
寸法
 62
     7
 48
50.0
100
AcDbMText
 10
10387.95689355479
 20
8476.579162760929
 30
0.0
 40
96.0
 41
0.0
 71
     5
 72
     1
  1
棚 2段
  7
STYLE1
 11
0.0000000000000001
 21
1.0
 31
0.0
 73
     1
 44
1.0
1001
ACAD
1000
MTEXTBEGIN
1070
    73
1070
     1
1070
    44
1040
1.0
1070
    74
1070
     0
1000
MTEXTEND
  0
TEXT
  5
16980
330
747D
100
AcDbEntity
  8
文字
 62
     7
 48
50.0
100
AcDbText
 10
14491.96323844892
 20
483.8967129911416
 30
0.0
 40
160.0
  1
ＮＸＮ－３０ＣＳＡ
  7
STYLE2
100
AcDbText
  0
LINE
  5
16981
330
747D
100
AcDbEntity
  8
破線
 48
5.0
100
AcDbLine
 10
7199.192122871075
 20
2584.768547337427
 30
0.0
 11
7199.192122871075
 21
2384.768547337427
 31
0.0
  0
LINE
  5
16982
330
747D
100
AcDbEntity
  8
破線
 48
5.0
100
AcDbLine
 10
7399.19212287107
 20
2384.768547337425
 30
0.0
 11
7199.192122871075
 21
2384.768547337427
 31
0.0
  0
LINE
  5
16983
330
747D
100
AcDbEntity
  8
破線
 48
5.0
100
AcDbLine
 10
7399.192122871075
 20
2584.768547337427
 30
0.0
 11
7399.19212287107
 21
2384.768547337425
 31
0.0
  0
DIMENSION
  5
16984
330
747D
100
AcDbEntity
  8
寸法
 48
50.0
100
AcDbDimension
  2
*D17
 10
5044.192122871071
 20
2098.721218037048
 30
0.0
 11
5144.192122871069
 21
2098.721218037048
 31
0.0
 70
   160
 71
     5
 42
199.9999999999963
  3
INABA_S40G
100
AcDbAlignedDimension
 13
5244.192122871067
 23
2384.768547337424
 33
0.0
 14
5044.192122871071
 24
2384.768547337426
 34
0.0
100
AcDbRotatedDimension
  0
LINE
  5
16985
330
747D
100
AcDbEntity
  8
破線
 48
5.0
100
AcDbLine
 10
5044.192122871066
 20
2584.768547337427
 30
0.0
 11
5044.192122871071
 21
2384.768547337425
 31
0.0
  0
LINE
  5
16986
330
747D
100
AcDbEntity
  8
破線
 48
5.0
100
AcDbLine
 10
5244.192122871067
 20
2584.768547337427
 30
0.0
 11
5244.192122871067
 21
2384.768547337425
 31
0.0
  0
LINE
  5
16987
330
747D
100
AcDbEntity
  8
破線
 48
5.0
100
AcDbLine
 10
5244.192122871067
 20
2384.768547337425
 30
0.0
 11
5044.192122871071
 21
2384.768547337425
 31
0.0
  0
DIMENSION
  5
16988
330
747D
100
AcDbEntity
  8
寸法
 48
50.0
100
AcDbDimension
  2
*D18
 10
4894.692119624433
 20
2584.768547337426
 30
0.0
 11
4894.692119624433
 21
2484.768547337426
 31
0.0
 70
   160
 71
     5
 42
200.0
  3
INABA_S40G
100
AcDbAlignedDimension
 13
5044.192122871071
 23
2384.768547337426
 33
0.0
 14
5019.192122871067
 24
2584.768547337426
 34
0.0
 50
90.0
100
AcDbRotatedDimension
1001
ACAD
1000
DSTYLE
1002
{
1070
   174
1070
     0
1070
   272
1070
     1
1070
   288
1070
     0
1070
   341
1005
0
1002
}
  0
DIMENSION
  5
1698A
330
747D
100
AcDbEntity
  8
寸法
 48
50.0
100
AcDbDimension
  2
*D2
 10
4496.083716102706
 20
4634.113806210757
 30
0.0
 11
4506.74919136163
 21
5004.960469452456
 31
0.0
 70
   161
 71
     5
 42
141.0
  3
INABA_S40G
100
AcDbAlignedDimension
 13
5076.088143029647
 23
4758.491296172106
 33
0.0
 14
5072.034687473021
 24
4617.549572406394
 34
0.0
1001
ACAD
1000
DSTYLE
1002
{
1070
   174
1070
     0
1070
   272
1070
     1
1070
   288
1070
     0
1070
   341
1005
0
1002
}
  0
LINE
  5
169C3
330
747D
100
AcDbEntity
  8
部品1
100
AcDbLine
 10
7319.192122871067
 20
2684.768547337427
 30
0.0
 11
7326.692122871071
 21
2684.768547337427
 31
0.0
  0
LINE
  5
169C4
330
747D
100
AcDbEntity
  8
破線
  6
HIDDEN
 48
5.0
100
AcDbLine
 10
5164.192122871067
 20
2584.768547337427
 30
0.0
 11
5164.192122871067
 21
2579.768547337427
 31
0.0
  0
LINE
  5
169C5
330
747D
100
AcDbEntity
  8
破線
  6
HIDDEN
 48
5.0
100
AcDbLine
 10
5124.192122871074
 20
2584.768547337427
 30
0.0
 11
5124.192122871074
 21
2579.768547337427
 31
0.0
  0
LINE
  5
169C6
330
747D
100
AcDbEntity
  8
破線
  6
HIDDEN
 48
5.0
100
AcDbLine
 10
7319.192122871067
 20
2584.768547337427
 30
0.0
 11
7319.192122871067
 21
2579.768547337427
 31
0.0
  0
LINE
  5
169C7
330
747D
100
AcDbEntity
  8
破線
  6
HIDDEN
 48
5.0
100
AcDbLine
 10
7279.192122871068
 20
2584.768547337427
 30
0.0
 11
7279.192122871068
 21
2579.768547337427
 31
0.0
  0
ARC
  5
169C8
330
747D
100
AcDbEntity
  8
部品1
 48
50.0
100
AcDbCircle
 10
7314.192122871067
 20
2724.768547337427
 30
0.0
 40
5.0
100
AcDbArc
 50
0.0
 51
90.0
  0
ARC
  5
169C9
330
747D
100
AcDbEntity
  8
部品1
 48
50.0
100
AcDbCircle
 10
7284.192122871067
 20
2724.768547337427
 30
0.0
 40
5.0
100
AcDbArc
 50
90.0
 51
180.0
  0
LINE
  5
169CA
330
747D
100
AcDbEntity
  8
部品1
100
AcDbLine
 10
7314.192122871067
 20
2729.768547337427
 30
0.0
 11
7284.192122871067
 21
2729.768547337427
 31
0.0
  0
LINE
  5
169CB
330
747D
100
AcDbEntity
  8
部品1
 48
50.0
100
AcDbLine
 10
7319.192122871067
 20
2724.768547337427
 30
0.0
 11
7319.192122871067
 21
2584.768547337427
 31
0.0
  0
LINE
  5
169CC
330
747D
100
AcDbEntity
  8
部品1
 48
50.0
100
AcDbLine
 10
7279.192122871068
 20
2724.768547337427
 30
0.0
 11
7279.192122871068
 21
2584.768547337427
 31
0.0
  0
ARC
  5
169CD
330
747D
100
AcDbEntity
  8
部品1
 48
50.0
100
AcDbCircle
 10
5159.192122871067
 20
2724.768547337427
 30
0.0
 40
5.0
100
AcDbArc
 50
0.0
 51
90.0
  0
ARC
  5
169CE
330
747D
100
AcDbEntity
  8
部品1
 48
50.0
100
AcDbCircle
 10
5129.192122871067
 20
2724.768547337427
 30
0.0
 40
5.0
100
AcDbArc
 50
90.0
 51
180.0
  0
LINE
  5
169CF
330
747D
100
AcDbEntity
  8
部品1
100
AcDbLine
 10
5129.192122871067
 20
2729.768547337427
 30
0.0
 11
5159.192122871067
 21
2729.768547337427
 31
0.0
  0
LINE
  5
169D0
330
747D
100
AcDbEntity
  8
部品1
 48
50.0
100
AcDbLine
 10
5164.192122871067
 20
2724.768547337427
 30
0.0
 11
5164.192122871067
 21
2584.768547337427
 31
0.0
  0
LINE
  5
169D1
330
747D
100
AcDbEntity
  8
部品1
 48
50.0
100
AcDbLine
 10
5124.192122871067
 20
2724.768547337427
 30
0.0
 11
5124.192122871067
 21
2584.768547337427
 31
0.0
  0
LINE
  5
169D2
330
747D
100
AcDbEntity
  8
破線
  6
HIDDEN
 48
5.0
100
AcDbLine
 10
5164.192122871067
 20
2579.768547337427
 30
0.0
 11
5179.192122871067
 21
2432.068547337426
 31
0.0
  0
LINE
  5
169D3
330
747D
100
AcDbEntity
  8
破線
  6
HIDDEN
 48
5.0
100
AcDbLine
 10
5124.192122871067
 20
2579.768547337427
 30
0.0
 11
5109.192122871068
 21
2432.068547337426
 31
0.0
  0
LINE
  5
169D4
330
747D
100
AcDbEntity
  8
破線
  6
HIDDEN
 48
5.0
100
AcDbLine
 10
5179.192122871067
 20
2432.068547337426
 30
0.0
 11
5179.192122871067
 21
2429.768547337427
 31
0.0
  0
LINE
  5
169D5
330
747D
100
AcDbEntity
  8
破線
  6
HIDDEN
 48
5.0
100
AcDbLine
 10
5109.192122871068
 20
2432.068547337426
 30
0.0
 11
5109.192122871068
 21
2429.768547337427
 31
0.0
  0
LINE
  5
169D6
330
747D
100
AcDbEntity
  8
破線
  6
HIDDEN
 48
5.0
100
AcDbLine
 10
5109.192122871068
 20
2429.768547337427
 30
0.0
 11
5179.192122871067
 21
2429.768547337427
 31
0.0
  0
LINE
  5
169D7
330
747D
100
AcDbEntity
  8
破線
  6
HIDDEN
 48
5.0
100
AcDbLine
 10
7334.192122871067
 20
2432.068547337426
 30
0.0
 11
7334.192122871067
 21
2429.768547337427
 31
0.0
  0
LINE
  5
169D8
330
747D
100
AcDbEntity
  8
破線
  6
HIDDEN
 48
5.0
100
AcDbLine
 10
7319.192122871067
 20
2579.768547337427
 30
0.0
 11
7334.192122871067
 21
2432.068547337426
 31
0.0
  0
LINE
  5
169D9
330
747D
100
AcDbEntity
  8
破線
  6
HIDDEN
 48
5.0
100
AcDbLine
 10
7264.192122871067
 20
2432.068547337426
 30
0.0
 11
7264.192122871067
 21
2429.768547337427
 31
0.0
  0
LINE
  5
169DA
330
747D
100
AcDbEntity
  8
破線
  6
HIDDEN
 48
5.0
100
AcDbLine
 10
7279.192122871068
 20
2579.768547337427
 30
0.0
 11
7264.192122871067
 21
2432.068547337426
 31
0.0
  0
LINE
  5
169DB
330
747D
100
AcDbEntity
  8
破線
  6
HIDDEN
 48
5.0
100
AcDbLine
 10
7334.192122871067
 20
2429.768547337427
 30
0.0
 11
7264.192122871067
 21
2429.768547337427
 31
0.0
  0
DIMENSION
  5
169E3
330
747D
100
AcDbEntity
  8
寸法
100
AcDbDimension
  2
*D3
 10
4493.039413712771
 20
2684.768547337427
 30
0.0
 11
4493.03941371277
 21
2378.721303242935
 31
0.0
 70
   160
 71
     5
 42
50.0
  3
INABA_S40G
100
AcDbAlignedDimension
 13
5116.692122871067
 23
2734.768547337427
 33
0.0
 14
5061.692122871067
 24
2684.768547337427
 34
0.0
 50
90.0
100
AcDbRotatedDimension
1001
ACAD
1000
DSTYLE
1002
{
1070
   174
1070
     0
1070
   272
1070
     1
1070
   288
1070
     0
1070
   341
1005
0
1002
}
  0
DIMENSION
  5
169E4
330
747D
100
AcDbEntity
  8
寸法
100
AcDbDimension
  2
*D4
 10
4208.052740941709
 20
2584.768547337427
 30
0.0
 11
4208.052740941708
 21
2348.721303242935
 31
0.0
 70
   160
 71
     5
 42
100.0
  3
INABA_S40G
100
AcDbAlignedDimension
 13
5061.692122871067
 23
2684.768547337427
 33
0.0
 14
4493.03941371277
 24
2584.768547337427
 34
0.0
 50
90.0
100
AcDbRotatedDimension
1001
ACAD
1000
DSTYLE
1002
{
1070
   174
1070
     0
1070
   272
1070
     1
1070
   288
1070
     0
1070
   341
1005
0
1002
}
  0
DIMENSION
  5
169E5
330
747D
100
AcDbEntity
  8
寸法
100
AcDbDimension
  2
*D5
 10
4208.052740941709
 20
4759.768547337431
 30
0.0
 11
4208.052740941708
 21
3678.974424830537
 31
0.0
 70
   160
 71
     5
 42
2075.000000000005
  3
INABA_S40G
100
AcDbAlignedDimension
 13
5116.692122871067
 23
2684.768547337427
 33
0.0
 14
5056.692122871067
 24
4759.768547337431
 34
0.0
 50
90.0
100
AcDbRotatedDimension
1001
ACAD
1000
DSTYLE
1002
{
1070
   174
1070
     0
1070
   272
1070
     1
1070
   288
1070
     0
1070
   341
1005
0
1002
}
  0
DIMENSION
  5
169E6
330
747D
100
AcDbEntity
  8
寸法
100
AcDbDimension
  2
*D6
 10
4493.039413712771
 20
2734.768547337427
 30
0.0
 11
4493.03941371277
 21
3625.222845879385
 31
0.0
 70
   160
 71
     5
 42
1790.0
  3
INABA_S40G
100
AcDbAlignedDimension
 13
5116.692122871067
 23
4524.768547337426
 33
0.0
 14
5116.692122871067
 24
2734.768547337427
 34
0.0
 50
90.0
100
AcDbRotatedDimension
1001
ACAD
1000
DSTYLE
1002
{
1070
   174
1070
     0
1070
   272
1070
     1
1070
   288
1070
     0
1070
   341
1005
0
1002
}
  0
LINE
  5
169E9
330
747D
100
AcDbEntity
  8
部品1
100
AcDbLine
 10
5116.692122871067
 20
2684.768547337427
 30
0.0
 11
5124.192122871067
 21
2684.768547337427
 31
0.0
  0
LINE
  5
16AC3
330
747D
100
AcDbEntity
  8
部品1
100
AcDbLine
 10
6603.427455985287
 20
1895.730284360016
 30
0.0
 11
5839.956789756847
 21
1895.730284360016
 31
0.0
  0
LINE
  5
16AC4
330
747D
100
AcDbEntity
  8
部品1
100
AcDbLine
 10
6603.427455985287
 20
1655.837962814484
 30
0.0
 11
6603.427455985287
 21
1895.730284360016
 31
0.0
  0
LINE
  5
16AC5
330
747D
100
AcDbEntity
  8
部品1
100
AcDbLine
 10
5839.956789756847
 20
1655.837962814484
 30
0.0
 11
6603.427455985287
 21
1655.837962814484
 31
0.0
  0
LINE
  5
16AC6
330
747D
100
AcDbEntity
  8
部品1
100
AcDbLine
 10
5839.956789756847
 20
1895.730284360016
 30
0.0
 11
5839.956789756847
 21
1655.837962814484
 31
0.0
  0
LINE
  5
16AC7
330
747D
100
AcDbEntity
  8
部品1
100
AcDbLine
 10
10495.52448546818
 20
1895.730284360016
 30
0.0
 11
9732.053819239744
 21
1895.730284360016
 31
0.0
  0
LINE
  5
16AC8
330
747D
100
AcDbEntity
  8
部品1
100
AcDbLine
 10
10495.52448546818
 20
1655.837962814484
 30
0.0
 11
10495.52448546818
 21
1895.730284360016
 31
0.0
  0
LINE
  5
16AC9
330
747D
100
AcDbEntity
  8
部品1
100
AcDbLine
 10
9732.053819239744
 20
1655.837962814484
 30
0.0
 11
10495.52448546818
 21
1655.837962814484
 31
0.0
  0
LINE
  5
16ACA
330
747D
100
AcDbEntity
  8
部品1
100
AcDbLine
 10
9732.053819239744
 20
1895.730284360016
 30
0.0
 11
9732.053819239744
 21
1655.837962814484
 31
0.0
  0
DIMENSION
  5
16AD0
330
747D
100
AcDbEntity
  8
寸法
100
AcDbDimension
  2
*D7
 10
11446.21549794264
 20
8021.633414508476
 30
0.0
 11
11446.21549794264
 21
7713.148133134237
 31
0.0
 70
   160
 71
     5
 42
54.99999999999636
  3
INABA_S40G
100
AcDbAlignedDimension
 13
10798.78915220823
 23
8076.633414508473
 33
0.0
 14
10798.78915220823
 24
8021.633414508476
 34
0.0
 50
90.0
100
AcDbRotatedDimension
1001
ACAD
1000
DSTYLE
1002
{
1002
}
  0
DIMENSION
  5
16AD1
330
747D
100
AcDbEntity
  8
寸法
100
AcDbDimension
  2
*D8
 10
11714.65402924314
 20
8021.633414508476
 30
0.0
 11
11714.65402924314
 21
9126.633414508482
 31
0.0
 70
   160
 71
     5
 42
2210.00000000001
  3
INABA_S40G
100
AcDbAlignedDimension
 13
10798.78915220825
 23
10231.63341450848
 33
0.0
 14
10798.78915220823
 24
8021.633414508476
 34
0.0
 50
90.0
100
AcDbRotatedDimension
1001
ACAD
1000
DSTYLE
1002
{
1002
}
  0
DIMENSION
  5
16AD2
330
747D
100
AcDbEntity
  8
寸法
100
AcDbDimension
  2
*D9
 10
11446.21549794267
 20
10176.63341450849
 30
0.0
 11
11446.21549794266
 21
10540.11869588272
 31
0.0
 70
   160
 71
     5
 42
54.99999999999636
  3
INABA_S40G
100
AcDbAlignedDimension
 13
10798.78915220825
 23
10231.63341450848
 33
0.0
 14
10798.78915220825
 24
10176.63341450849
 34
0.0
 50
90.0
100
AcDbRotatedDimension
1001
ACAD
1000
DSTYLE
1002
{
1002
}
  0
DIMENSION
  5
16AD3
330
747D
100
AcDbEntity
  8
寸法
100
AcDbDimension
  2
*D10
 10
11446.21549794267
 20
8076.633414508473
 30
0.0
 11
11446.21549794266
 21
9126.633414508482
 31
0.0
 70
   160
  1
5X420=<>
 71
     5
 42
2100.000000000017
  3
INABA_S40G
100
AcDbAlignedDimension
 13
10798.78915220825
 23
10176.63341450849
 33
0.0
 14
10798.78915220823
 24
8076.633414508473
 34
0.0
 50
90.0
100
AcDbRotatedDimension
1001
ACAD
1000
DSTYLE
1002
{
1002
}
  0
DIMENSION
  5
16AD4
330
747D
100
AcDbEntity
  8
寸法
 48
50.0
100
AcDbDimension
  2
*D11
 10
11180.97235960895
 20
7939.68925695178
 30
0.0
 11
11180.97235960895
 21
8404.540122312605
 31
0.0
 70
   160
 71
     5
 42
852.999999999999
  3
INABA_S40G
100
AcDbAlignedDimension
 13
10768.78915220833
 23
8903.133414508477
 33
0.0
 14
10768.78915220822
 24
8050.133414508477
 34
0.0
 50
90.0
100
AcDbRotatedDimension
  0
DIMENSION
  5
16AD5
330
747D
100
AcDbEntity
  8
寸法
 48
50.0
100
AcDbDimension
  2
*D12
 10
11180.97235960896
 20
8819.6892569518
 30
0.0
 11
11180.97235960896
 21
9456.189256951807
 31
0.0
 70
   160
 71
     5
 42
1273.000000000011
  3
INABA_S40G
100
AcDbAlignedDimension
 13
10768.78915220832
 23
10203.13341450848
 33
0.0
 14
10768.78915220833
 24
8930.133414508469
 34
0.0
 50
90.0
100
AcDbRotatedDimension
  0
LINE
  5
16AD8
330
747D
100
AcDbEntity
  8
部品1
100
AcDbLine
 10
9483.789152208199
 20
8021.633414508471
 30
0.0
 11
9428.789152208187
 21
8021.633414508471
 31
0.0
  0
LINE
  5
16AD9
330
747D
100
AcDbEntity
  8
部品1
100
AcDbLine
 10
9483.789152208329
 20
10203.63341450848
 30
0.0
 11
9483.789152208329
 21
10231.63341450848
 31
0.0
  0
LINE
  5
16ADA
330
747D
100
AcDbEntity
  8
部品1
100
AcDbLine
 10
9483.789152208201
 20
8049.633414508461
 30
0.0
 11
9483.789152208201
 21
8021.63341450846
 31
0.0
  0
LINE
  5
16ADB
330
747D
100
AcDbEntity
  8
部品1
100
AcDbLine
 10
9456.78915220825
 20
8076.633414508551
 30
0.0
 11
9428.789152208251
 21
8076.633414508551
 31
0.0
  0
LINE
  5
16ADC
330
747D
100
AcDbEntity
  8
部品1
100
AcDbLine
 10
9456.789152208218
 20
8076.633414508519
 30
0.0
 11
9428.789152208217
 21
8076.633414508519
 31
0.0
  0
LINE
  5
16ADD
330
747D
100
AcDbEntity
  8
部品1
100
AcDbLine
 10
9456.78915220825
 20
8496.633414508551
 30
0.0
 11
9428.789152208251
 21
8496.633414508551
 31
0.0
  0
LINE
  5
16ADE
330
747D
100
AcDbEntity
  8
部品1
100
AcDbLine
 10
9456.78915220825
 20
8496.633414508551
 30
0.0
 11
9428.789152208249
 21
8496.633414508551
 31
0.0
  0
LINE
  5
16ADF
330
747D
100
AcDbEntity
  8
部品1
100
AcDbLine
 10
9456.789152208363
 20
8496.633414508551
 30
0.0
 11
9428.789152208365
 21
8496.633414508551
 31
0.0
  0
LINE
  5
16AE0
330
747D
100
AcDbEntity
  8
部品1
100
AcDbLine
 10
9456.789152208363
 20
8916.633414508551
 30
0.0
 11
9428.789152208365
 21
8916.633414508551
 31
0.0
  0
LINE
  5
16AE1
330
747D
100
AcDbEntity
  8
部品1
100
AcDbLine
 10
9456.789152208363
 20
10176.63341450855
 30
0.0
 11
9428.789152208365
 21
10176.63341450855
 31
0.0
  0
LINE
  5
16AE2
330
747D
100
AcDbEntity
  8
部品1
100
AcDbLine
 10
9456.789152208344
 20
10176.63341450855
 30
0.0
 11
9428.789152208343
 21
10176.63341450855
 31
0.0
  0
LINE
  5
16AE3
330
747D
100
AcDbEntity
  8
部品1
100
AcDbLine
 10
9456.789152208363
 20
9336.633414508549
 30
0.0
 11
9428.789152208365
 21
9336.633414508549
 31
0.0
  0
LINE
  5
16AE5
330
747D
100
AcDbEntity
  8
部品1
 48
50.0
100
AcDbLine
 10
9485.289152208364
 20
8078.133414508467
 30
0.0
 11
9456.789152208367
 21
8049.633414508472
 31
0.0
  0
LINE
  5
16AE6
330
747D
100
AcDbEntity
  8
破線
 48
10.0
100
AcDbLine
 10
10318.78915220833
 20
8101.633414508453
 30
0.0
 11
9508.789152208269
 21
8101.633414508468
 31
0.0
  0
LINE
  5
16AE7
330
747D
100
AcDbEntity
  8
部品1
100
AcDbLine
 10
10318.78915220833
 20
8078.133414508457
 30
0.0
 11
9485.289152208363
 21
8078.133414508467
 31
0.0
  0
LINE
  5
16AE8
330
747D
100
AcDbEntity
  8
部品1
 48
50.0
100
AcDbLine
 10
9485.289152208364
 20
10175.13341450846
 30
0.0
 11
9456.789152208367
 21
10203.63341450845
 31
0.0
  0
LINE
  5
16AE9
330
747D
100
AcDbEntity
  8
破線
 48
10.0
100
AcDbLine
 10
10318.78915220833
 20
10151.63341450847
 30
0.0
 11
9508.789152208363
 21
10151.63341450846
 31
0.0
  0
LINE
  5
16AEA
330
747D
100
AcDbEntity
  8
部品1
100
AcDbLine
 10
10318.78915220833
 20
10175.13341450847
 30
0.0
 11
9485.289152208366
 21
10175.13341450845
 31
0.0
  0
LINE
  5
16AEB
330
747D
100
AcDbEntity
  8
破線
 48
10.0
100
AcDbLine
 10
9508.789152208327
 20
9101.63341450845
 30
0.0
 11
9508.789152208269
 21
8101.633414508468
 31
0.0
  0
LINE
  5
16AEC
330
747D
100
AcDbEntity
  8
破線
 48
10.0
100
AcDbLine
 10
9508.789152208363
 20
10151.63341450846
 30
0.0
 11
9508.789152208327
 21
9151.633414508447
 31
0.0
  0
LINE
  5
16AED
330
747D
100
AcDbEntity
  8
部品1
100
AcDbLine
 10
9485.289152208364
 20
10175.13341450846
 30
0.0
 11
9485.289152208268
 21
8078.133414508373
 31
0.0
  0
LINE
  5
16AF0
330
747D
100
AcDbEntity
  8
部品1
 48
50.0
100
AcDbLine
 10
9903.789152208331
 20
10175.13341450846
 30
0.0
 11
9903.789152208418
 21
8078.133414508464
 31
0.0
  0
TEXT
  5
16AF1
330
747D
100
AcDbEntity
  8
部品1
100
AcDbText
 10
5929.402891180455
 20
1702.836755141492
 30
0.0
 40
135.0
  1
側面図
  7
STYLE2
100
AcDbText
  0
TEXT
  5
16AF2
330
747D
100
AcDbEntity
  8
部品1
100
AcDbText
 10
9822.579222977699
 20
1702.836755141492
 30
0.0
 40
135.0
  1
正面図
  7
STYLE2
100
AcDbText
  0
LINE
  5
16AF3
330
747D
100
AcDbEntity
  8
部品1
100
AcDbLine
 10
10798.78915220823
 20
8021.633414508478
 30
0.0
 11
10798.78915220833
 21
10231.63341450848
 31
0.0
  0
LINE
  5
16AF4
330
747D
100
AcDbEntity
  8
部品1
100
AcDbLine
 10
10743.78915220833
 20
10203.63341450848
 30
0.0
 11
10743.78915220833
 21
10231.63341450848
 31
0.0
  0
LINE
  5
16AF5
330
747D
100
AcDbEntity
  8
部品1
100
AcDbLine
 10
10323.78915220833
 20
10203.63341450848
 30
0.0
 11
10323.78915220833
 21
10231.63341450848
 31
0.0
  0
LINE
  5
16AF6
330
747D
100
AcDbEntity
  8
部品1
100
AcDbLine
 10
10768.78915220832
 20
10203.13341450848
 30
0.0
 11
10318.78915220833
 21
10203.13341450848
 31
0.0
  0
LINE
  5
16AF7
330
747D
100
AcDbEntity
  8
部品1
100
AcDbLine
 10
10788.78915220833
 20
8881.633414508476
 30
0.0
 11
10770.78915220833
 21
8881.633414508476
 31
0.0
  0
LINE
  5
16AF8
330
747D
100
AcDbEntity
  8
部品1
100
AcDbLine
 10
10788.78915220833
 20
8881.633414508476
 30
0.0
 11
10788.78915220833
 21
8887.633414508476
 31
0.0
  0
LINE
  5
16AF9
330
747D
100
AcDbEntity
  8
部品1
100
AcDbLine
 10
10788.78915220833
 20
8951.633414508476
 30
0.0
 11
10770.78915220833
 21
8951.633414508476
 31
0.0
  0
LINE
  5
16AFA
330
747D
100
AcDbEntity
  8
部品1
100
AcDbLine
 10
10788.78915220833
 20
8945.633414508476
 30
0.0
 11
10788.78915220833
 21
8951.633414508476
 31
0.0
  0
LINE
  5
16AFB
330
747D
100
AcDbEntity
  8
部品1
100
AcDbLine
 10
10762.78915220833
 20
8904.133414508477
 30
0.0
 11
10762.78915220833
 21
8929.133414508475
 31
0.0
  0
LINE
  5
16AFC
330
747D
100
AcDbEntity
  8
部品1
100
AcDbLine
 10
10318.78915220833
 20
8904.133414508477
 30
0.0
 11
10318.78915220833
 21
8929.133414508475
 31
0.0
  0
LINE
  5
16AFD
330
747D
100
AcDbEntity
  8
部品1
 48
50.0
100
AcDbLine
 10
10770.78915220834
 20
8904.133414508477
 30
0.0
 11
10318.78915220833
 21
8904.133414508477
 31
0.0
  0
LINE
  5
16AFE
330
747D
100
AcDbEntity
  8
部品1
 48
50.0
100
AcDbLine
 10
10770.78915220833
 20
8929.133414508475
 30
0.0
 11
10318.78915220833
 21
8929.133414508475
 31
0.0
  0
LINE
  5
16AFF
330
747D
100
AcDbEntity
  8
部品1
 48
50.0
100
AcDbLine
 10
10768.78915220833
 20
8903.133414508477
 30
0.0
 11
10318.78915220833
 21
8903.133414508477
 31
0.0
  0
LINE
  5
16B00
330
747D
100
AcDbEntity
  8
部品1
 48
50.0
100
AcDbLine
 10
10768.78915220833
 20
8930.133414508476
 30
0.0
 11
10318.78915220833
 21
8930.133414508476
 31
0.0
  0
LINE
  5
16B01
330
747D
100
AcDbEntity
  8
部品1
100
AcDbLine
 10
10770.78915220834
 20
8929.133414508475
 30
0.0
 11
10770.78915220832
 21
10203.63341450848
 31
0.0
  0
LINE
  5
16B02
330
747D
100
AcDbEntity
  8
部品1
100
AcDbLine
 10
10768.78915220833
 20
8930.133414508476
 30
0.0
 11
10768.78915220832
 21
10203.13341450848
 31
0.0
  0
LINE
  5
16B03
330
747D
100
AcDbEntity
  8
細線
 48
50.0
100
AcDbLine
 10
10318.78915220833
 20
10203.13341450848
 30
0.0
 11
10768.78915220833
 21
8930.133414508476
 31
0.0
  0
LINE
  5
16B04
330
747D
100
AcDbEntity
  8
細線
 48
50.0
100
AcDbLine
 10
10768.78915220832
 20
10203.13341450848
 30
0.0
 11
10318.78915220833
 21
8930.133414508476
 31
0.0
  0
LINE
  5
16B05
330
747D
100
AcDbEntity
  8
部品1
100
AcDbLine
 10
10318.78915220833
 20
8930.133414508476
 30
0.0
 11
10318.78915220833
 21
10203.13341450848
 31
0.0
  0
LINE
  5
16B06
330
747D
100
AcDbEntity
  8
部品1
100
AcDbLine
 10
9903.789152208331
 20
10203.63341450848
 30
0.0
 11
9903.789152208331
 21
10231.63341450848
 31
0.0
  0
LINE
  5
16B07
330
747D
100
AcDbEntity
  8
部品1
100
AcDbLine
 10
10770.78915220832
 20
10203.63341450848
 30
0.0
 11
9456.789152208367
 21
10203.63341450845
 31
0.0
  0
LINE
  5
16B08
330
747D
100
AcDbEntity
  8
部品1
100
AcDbLine
 10
10743.7891522082
 20
8049.633414508447
 30
0.0
 11
10743.7891522082
 21
8021.633414508446
 31
0.0
  0
LINE
  5
16B09
330
747D
100
AcDbEntity
  8
部品1
 48
50.0
100
AcDbLine
 10
10768.78915220822
 20
8050.133414508477
 30
0.0
 11
10318.78915220823
 21
8050.133414508477
 31
0.0
  0
LINE
  5
16B0A
330
747D
100
AcDbEntity
  8
部品1
100
AcDbLine
 10
10770.78915220823
 20
8049.633414508479
 30
0.0
 11
10770.78915220823
 21
8496.633414508478
 31
0.0
  0
LINE
  5
16B0B
330
747D
100
AcDbEntity
  8
部品1
100
AcDbLine
 10
9456.789152208351
 20
8049.633414508454
 30
0.0
 11
10770.78915220823
 21
8049.633414508479
 31
0.0
  0
LINE
  5
16B0C
330
747D
100
AcDbEntity
  8
部品1
100
AcDbLine
 10
9428.789152208317
 20
10231.63341450845
 30
0.0
 11
9428.789152208223
 21
8021.633414508471
 31
0.0
  0
LINE
  5
16B0D
330
747D
100
AcDbEntity
  8
部品1
100
AcDbLine
 10
10770.78915220835
 20
8076.633414508478
 30
0.0
 11
10770.78915220834
 21
8904.133414508477
 31
0.0
  0
LINE
  5
16B0E
330
747D
100
AcDbEntity
  8
部品1
100
AcDbLine
 10
10768.78915220823
 20
8050.133414508477
 30
0.0
 11
10768.78915220834
 21
8903.133414508477
 31
0.0
  0
LINE
  5
16B0F
330
747D
100
AcDbEntity
  8
細線
 48
50.0
100
AcDbLine
 10
10318.78915220833
 20
8903.133414508477
 30
0.0
 11
10768.78915220823
 21
8050.133414508477
 31
0.0
  0
LINE
  5
16B10
330
747D
100
AcDbEntity
  8
細線
 48
50.0
100
AcDbLine
 10
10768.78915220833
 20
8903.133414508477
 30
0.0
 11
10318.78915220823
 21
8050.133414508477
 31
0.0
  0
LINE
  5
16B11
330
747D
100
AcDbEntity
  8
部品1
100
AcDbLine
 10
10318.78915220823
 20
8050.133414508477
 30
0.0
 11
10318.78915220833
 21
8903.133414508477
 31
0.0
  0
LINE
  5
16B12
330
747D
100
AcDbEntity
  8
部品1
100
AcDbLine
 10
9456.789152208367
 20
10203.63341450845
 30
0.0
 11
9456.789152208266
 21
8049.633414508454
 31
0.0
  0
DIMENSION
  5
16B14
330
747D
100
AcDbEntity
  8
寸法
100
AcDbDimension
  2
*D13
 10
10743.78915220833
 20
10879.05976024289
 30
0.0
 11
10113.78915220832
 21
10879.05976024289
 31
0.0
 70
   160
  1
3X420=<>
 71
     5
 42
1260.000000000016
  3
INABA_S40G
100
AcDbAlignedDimension
 13
9483.789152208315
 23
10231.63341450848
 33
0.0
 14
10743.78915220833
 24
10231.63341450845
 34
0.0
 50
180.0
100
AcDbRotatedDimension
1001
ACAD
1000
DSTYLE
1002
{
1002
}
  0
DIMENSION
  5
16B15
330
747D
100
AcDbEntity
  8
寸法
100
AcDbDimension
  2
*D14
 10
10798.78915220833
 20
10879.05976024286
 30
0.0
 11
11176.65061911319
 21
10879.05976024286
 31
0.0
 70
   160
 71
     5
 42
54.99999999999636
  3
INABA_S40G
100
AcDbAlignedDimension
 13
10743.78915220833
 23
10231.63341450845
 33
0.0
 14
10798.78915220833
 24
10231.63341450845
 34
0.0
 50
180.0
100
AcDbRotatedDimension
1001
ACAD
1000
DSTYLE
1002
{
1002
}
  0
DIMENSION
  5
16B16
330
747D
100
AcDbEntity
  8
寸法
100
AcDbDimension
  2
*D15
 10
10223.57133653944
 20
10558.4911403705
 30
0.0
 11
10448.57133653943
 21
10658.4911403705
 31
0.0
 70
    32
 71
     5
 42
449.9999999999982
  3
INABA_S40G
100
AcDbAlignedDimension
 13
10768.78915220832
 23
10203.13341450848
 33
0.0
 14
10318.78915220833
 24
10203.13341450848
 34
0.0
 50
180.0
100
AcDbRotatedDimension
1001
ACAD
1000
DSTYLE
1002
{
1002
}
  0
DIMENSION
  5
16B17
330
747D
100
AcDbEntity
  8
寸法
100
AcDbDimension
  2
*D16
 10
9483.789152208315
 20
10879.05976024289
 30
0.0
 11
9120.30387083408
 21
10879.05976024289
 31
0.0
 70
   160
 71
     5
 42
54.99999999999636
  3
INABA_S40G
100
AcDbAlignedDimension
 13
9428.789152208317
 23
10231.63341450848
 33
0.0
 14
9483.789152208315
 24
10231.63341450848
 34
0.0
 50
180.0
100
AcDbRotatedDimension
1001
ACAD
1000
DSTYLE
1002
{
1002
}
  0
LINE
  5
16B18
330
747D
100
AcDbEntity
  8
部品1
100
AcDbLine
 10
10798.78915220823
 20
8076.633414508478
 30
0.0
 11
10770.78915220823
 21
8076.633414508478
 31
0.0
  0
LINE
  5
16B19
330
747D
100
AcDbEntity
  8
部品1
100
AcDbLine
 10
10798.78915220823
 20
8496.633414508478
 30
0.0
 11
10770.78915220823
 21
8496.633414508478
 31
0.0
  0
LINE
  5
16B1A
330
747D
100
AcDbEntity
  8
部品1
100
AcDbLine
 10
10798.78915220823
 20
8496.633414508478
 30
0.0
 11
10770.78915220823
 21
8496.633414508478
 31
0.0
  0
LINE
  5
16B1B
330
747D
100
AcDbEntity
  8
部品1
100
AcDbLine
 10
10798.78915220835
 20
8496.633414508478
 30
0.0
 11
10770.78915220834
 21
8496.633414508478
 31
0.0
  0
LINE
  5
16B1C
330
747D
100
AcDbEntity
  8
部品1
100
AcDbLine
 10
10798.78915220835
 20
8916.633414508476
 30
0.0
 11
10770.78915220834
 21
8916.633414508476
 31
0.0
  0
LINE
  5
16B1D
330
747D
100
AcDbEntity
  8
部品1
100
AcDbLine
 10
10798.78915220835
 20
9336.633414508476
 30
0.0
 11
10770.78915220834
 21
9336.633414508476
 31
0.0
  0
LINE
  5
16B1E
330
747D
100
AcDbEntity
  8
部品1
100
AcDbLine
 10
10798.78915220833
 20
10231.63341450848
 30
0.0
 11
9428.789152208317
 21
10231.63341450845
 31
0.0
  0
LINE
  5
16B1F
330
747D
100
AcDbEntity
  8
部品1
100
AcDbLine
 10
10798.78915220835
 20
10176.63341450848
 30
0.0
 11
10770.78915220834
 21
10176.63341450848
 31
0.0
  0
LINE
  5
16B20
330
747D
100
AcDbEntity
  8
部品1
100
AcDbLine
 10
10798.78915220833
 20
10176.63341450848
 30
0.0
 11
10770.78915220832
 21
10176.63341450848
 31
0.0
  0
LINE
  5
16B21
330
747D
100
AcDbEntity
  8
部品1
100
AcDbLine
 10
10798.7891522082
 20
8021.633414508446
 30
0.0
 11
10743.7891522082
 21
8021.633414508446
 31
0.0
  0
LINE
  5
16B22
330
747D
100
AcDbEntity
  8
部品1
100
AcDbLine
 10
10798.7891522082
 20
8076.633414508446
 30
0.0
 11
10770.7891522082
 21
8076.633414508446
 31
0.0
  0
TEXT
  5
16B29
330
747D
100
AcDbEntity
  8
文字
 62
     7
 48
50.0
100
AcDbText
 10
13209.4053442172
 20
228.543524256902
 30
0.0
 40
100.0
  1
○有効開口寸法 ： 674×1725(mm)
  7
STYLE2
100
AcDbText
  0
LINE
  5
16DE6
330
747D
100
AcDbEntity
  8
補助
  6
PHANTOM
 62
   230
 48
50.0
100
AcDbLine
 10
140.0
 20
0.0
 30
0.0
 11
139.9999999999995
 21
11409.6
 31
0.0
  0
LINE
  5
16FE0
330
747D
100
AcDbEntity
  8
部品1
100
AcDbLine
 10
9456.789152208468
 20
9756.633414508549
 30
0.0
 11
9428.789152208468
 21
9756.633414508549
 31
0.0
  0
LINE
  5
16FE2
330
747D
100
AcDbEntity
  8
部品1
100
AcDbLine
 10
10798.78915220835
 20
9756.633414508478
 30
0.0
 11
10770.78915220834
 21
9756.633414508478
 31
0.0
  0
MTEXT
  5
16FEE
330
747D
100
AcDbEntity
  8
寸法
 62
     7
 48
50.0
100
AcDbMText
 10
10387.95689355484
 20
9566.579162760927
 30
0.0
 40
96.0
 41
0.0
 71
     5
 72
     1
  1
棚 2段
  7
STYLE1
 11
0.0000000000000001
 21
1.0
 31
0.0
 73
     1
 44
1.0
1001
ACAD
1000
MTEXTBEGIN
1070
    73
1070
     1
1070
    44
1040
1.0
1070
    74
1070
     0
1000
MTEXTEND
  0
LINE
  5
17165
330
747D
100
AcDbEntity
  8
細線
 48
50.0
100
AcDbLine
 10
7194.192122871074
 20
4524.768547337426
 30
0.0
 11
7194.192122871074
 21
2734.768547337427
 31
0.0
  0
LINE
  5
17166
330
747D
100
AcDbEntity
  8
細線
 48
50.0
100
AcDbLine
 10
7209.192122871074
 20
4524.768547337426
 30
0.0
 11
7209.192122871074
 21
2734.768547337427
 31
0.0
  0
LINE
  5
17167
330
747D
100
AcDbEntity
  8
細線
 48
50.0
100
AcDbLine
 10
7069.192122871074
 20
4524.768547337426
 30
0.0
 11
7069.192122871074
 21
2734.768547337427
 31
0.0
  0
LINE
  5
17168
330
747D
100
AcDbEntity
  8
細線
 48
50.0
100
AcDbLine
 10
7054.192122871075
 20
4524.768547337426
 30
0.0
 11
7054.192122871075
 21
2734.768547337427
 31
0.0
  0
LINE
  5
17169
330
747D
100
AcDbEntity
  8
細線
 48
50.0
100
AcDbLine
 10
6914.192122871074
 20
4524.768547337426
 30
0.0
 11
6914.192122871074
 21
2734.768547337427
 31
0.0
  0
LINE
  5
1716A
330
747D
100
AcDbEntity
  8
細線
 48
50.0
100
AcDbLine
 10
6929.192122871075
 20
4524.768547337426
 30
0.0
 11
6929.192122871075
 21
2734.768547337427
 31
0.0
  0
LINE
  5
1716B
330
747D
100
AcDbEntity
  8
部品1
100
AcDbLine
 10
6431.692122871067
 20
4524.768547337426
 30
0.0
 11
6431.692122871067
 21
2734.768547337427
 31
0.0
  0
LINE
  5
1716C
330
747D
100
AcDbEntity
  8
細線
 48
50.0
100
AcDbLine
 10
6089.192122871071
 20
4524.768547337426
 30
0.0
 11
6089.192122871071
 21
2734.768547337427
 31
0.0
  0
LINE
  5
1716D
330
747D
100
AcDbEntity
  8
細線
 48
50.0
100
AcDbLine
 10
6074.192122871071
 20
4524.768547337426
 30
0.0
 11
6074.192122871071
 21
2734.768547337427
 31
0.0
  0
LINE
  5
1716E
330
747D
100
AcDbEntity
  8
細線
 48
50.0
100
AcDbLine
 10
6214.192122871071
 20
4524.768547337426
 30
0.0
 11
6214.192122871071
 21
2734.768547337427
 31
0.0
  0
LINE
  5
1716F
330
747D
100
AcDbEntity
  8
細線
 48
50.0
100
AcDbLine
 10
6229.19212287107
 20
4524.768547337426
 30
0.0
 11
6229.19212287107
 21
2734.768547337427
 31
0.0
  0
LINE
  5
17170
330
747D
100
AcDbEntity
  8
細線
 48
50.0
100
AcDbLine
 10
6369.192122871071
 20
4524.768547337426
 30
0.0
 11
6369.192122871071
 21
2734.768547337427
 31
0.0
  0
LINE
  5
17171
330
747D
100
AcDbEntity
  8
細線
 48
50.0
100
AcDbLine
 10
6354.19212287107
 20
4524.768547337426
 30
0.0
 11
6354.19212287107
 21
2734.768547337427
 31
0.0
  0
LINE
  5
17172
330
747D
100
AcDbEntity
  8
部品1
100
AcDbLine
 10
6011.692122871068
 20
4524.768547337426
 30
0.0
 11
6011.692122871068
 21
2734.768547337427
 31
0.0
  0
DIMENSION
  5
17173
330
747D
100
AcDbEntity
  8
寸法
 48
50.0
100
AcDbDimension
  2
*D19
 10
7406.692122871067
 20
5158.426000916731
 30
0.0
 11
7612.739366965557
 21
5158.426000916731
 31
0.0
 70
   160
 71
     5
 42
80.0
  3
INABA_S40G
100
AcDbAlignedDimension
 13
7326.692122871067
 23
4706.57922694908
 33
0.0
 14
7406.692122871067
 24
4704.768547337428
 34
0.0
100
AcDbRotatedDimension
1001
ACAD
1000
DSTYLE
1002
{
1070
   174
1070
     0
1070
   272
1070
     1
1070
   288
1070
     0
1070
   341
1005
0
1002
}
  0
LINE
  5
17174
330
747D
100
AcDbEntity
  8
細線
 48
50.0
100
AcDbLine
 10
5249.192122871067
 20
4524.768547337426
 30
0.0
 11
5249.192122871067
 21
2734.768547337427
 31
0.0
  0
LINE
  5
17175
330
747D
100
AcDbEntity
  8
細線
 48
50.0
100
AcDbLine
 10
5234.192122871068
 20
4524.768547337426
 30
0.0
 11
5234.192122871068
 21
2734.768547337427
 31
0.0
  0
LINE
  5
17176
330
747D
100
AcDbEntity
  8
細線
 48
50.0
100
AcDbLine
 10
5374.192122871067
 20
4524.768547337426
 30
0.0
 11
5374.192122871067
 21
2734.768547337427
 31
0.0
  0
LINE
  5
17177
330
747D
100
AcDbEntity
  8
細線
 48
50.0
100
AcDbLine
 10
5389.192122871067
 20
4524.768547337426
 30
0.0
 11
5389.192122871067
 21
2734.768547337427
 31
0.0
  0
LINE
  5
17178
330
747D
100
AcDbEntity
  8
細線
 48
50.0
100
AcDbLine
 10
5529.192122871067
 20
4524.768547337426
 30
0.0
 11
5529.192122871067
 21
2734.768547337427
 31
0.0
  0
LINE
  5
17179
330
747D
100
AcDbEntity
  8
細線
 48
50.0
100
AcDbLine
 10
5514.192122871067
 20
4524.768547337426
 30
0.0
 11
5514.192122871067
 21
2734.768547337427
 31
0.0
  0
LINE
  5
1717A
330
747D
100
AcDbEntity
  8
細線
 48
50.0
100
AcDbLine
 10
5934.192122871067
 20
4524.768547337426
 30
0.0
 11
5934.192122871067
 21
2734.768547337427
 31
0.0
  0
LINE
  5
1717B
330
747D
100
AcDbEntity
  8
細線
 48
50.0
100
AcDbLine
 10
5949.192122871068
 20
4524.768547337426
 30
0.0
 11
5949.192122871068
 21
2734.768547337427
 31
0.0
  0
LINE
  5
1717C
330
747D
100
AcDbEntity
  8
細線
 48
50.0
100
AcDbLine
 10
5809.192122871067
 20
4524.768547337426
 30
0.0
 11
5809.192122871067
 21
2734.768547337427
 31
0.0
  0
LINE
  5
1717D
330
747D
100
AcDbEntity
  8
細線
 48
50.0
100
AcDbLine
 10
5794.192122871066
 20
4524.768547337426
 30
0.0
 11
5794.192122871066
 21
2734.768547337427
 31
0.0
  0
LINE
  5
1717E
330
747D
100
AcDbEntity
  8
細線
 48
50.0
100
AcDbLine
 10
5654.192122871067
 20
4524.768547337426
 30
0.0
 11
5654.192122871067
 21
2734.768547337427
 31
0.0
  0
LINE
  5
1717F
330
747D
100
AcDbEntity
  8
細線
 48
50.0
100
AcDbLine
 10
5669.192122871066
 20
4524.768547337426
 30
0.0
 11
5669.192122871066
 21
2734.768547337427
 31
0.0
  0
LINE
  5
17180
330
747D
100
AcDbEntity
  8
部品1
100
AcDbLine
 10
5116.692122871067
 20
2684.768547337427
 30
0.0
 11
5124.192122871067
 21
2684.768547337427
 31
0.0
  0
DIMENSION
  5
17181
330
747D
100
AcDbEntity
  8
寸法
 48
50.0
100
AcDbDimension
  2
*D20
 10
5056.692122871067
 20
5377.627834591022
 30
0.0
 11
6291.035976963536
 21
5377.627834591022
 31
0.0
 70
   160
 71
     5
 42
2350.0
  3
INABA_S40G
100
AcDbAlignedDimension
 13
7406.692122871067
 23
4704.768547337428
 33
0.0
 14
5056.692122871067
 24
4759.768547337431
 34
0.0
100
AcDbRotatedDimension
1001
ACAD
1000
DSTYLE
1002
{
1070
   174
1070
     0
1070
   272
1070
     1
1070
   288
1070
     0
1070
   341
1005
0
1002
}
  0
DIMENSION
  5
17182
330
747D
100
AcDbEntity
  8
寸法
 48
50.0
100
AcDbDimension
  2
*D21
 10
5056.692122871067
 20
5158.426000916731
 30
0.0
 11
4747.054327595477
 21
5158.426000916731
 31
0.0
 70
   160
 71
     5
 42
60.0
  3
INABA_S40G
100
AcDbAlignedDimension
 13
5116.692122871067
 23
4755.770165460403
 33
0.0
 14
5056.692122871067
 24
4759.768547337431
 34
0.0
100
AcDbRotatedDimension
1001
ACAD
1000
DSTYLE
1002
{
1070
   174
1070
     0
1070
   272
1070
     1
1070
   288
1070
     0
1070
   341
1005
0
1002
}
  0
DIMENSION
  5
17183
330
747D
100
AcDbEntity
  8
寸法
 48
50.0
100
AcDbDimension
  2
*D22
 10
5116.692122871067
 20
5158.426000916731
 30
0.0
 11
6211.336859941581
 21
5158.426000916731
 31
0.0
 70
   160
  1
柱外寸法<>
 71
     5
 42
2210.0
  3
INABA_S40G
100
AcDbAlignedDimension
 13
7326.692122871067
 23
4706.57922694908
 33
0.0
 14
5116.692122871067
 24
4755.770165460403
 34
0.0
100
AcDbRotatedDimension
1001
ACAD
1000
DSTYLE
1002
{
1070
   174
1070
     0
1070
   272
1070
     1
1070
   288
1070
     0
1070
   341
1005
0
1002
}
  0
DIMENSION
  5
17184
330
747D
100
AcDbEntity
  8
寸法
100
AcDbDimension
  2
*D23
 10
7886.798746812657
 20
4704.768547337428
 30
0.0
 11
7886.798746812655
 21
3706.821228584363
 31
0.0
 70
   160
 71
     5
 42
2020.000000000001
  3
INABA_S40G
100
AcDbAlignedDimension
 13
7403.692122871071
 23
2684.768547337426
 33
0.0
 14
7406.692122871067
 24
4704.768547337428
 34
0.0
 50
90.0
100
AcDbRotatedDimension
1001
ACAD
1000
DSTYLE
1002
{
1070
   174
1070
     0
1070
   272
1070
     1
1070
   288
1070
     0
1070
   341
1005
0
1002
}
  0
LINE
  5
17185
330
747D
100
AcDbEntity
  8
部品1
100
AcDbLine
 10
7271.69212287107
 20
4524.768547337426
 30
0.0
 11
7271.69212287107
 21
2734.768547337427
 31
0.0
  0
LINE
  5
17186
330
747D
100
AcDbEntity
  8
部品1
100
AcDbLine
 10
7326.692122871067
 20
4579.444984968648
 30
0.0
 11
7326.692122871071
 21
2584.768547337427
 31
0.0
  0
LINE
  5
17187
330
747D
100
AcDbEntity
  8
部品1
100
AcDbLine
 10
5591.692122871067
 20
4524.768547337426
 30
0.0
 11
5591.692122871067
 21
2734.768547337427
 31
0.0
  0
LINE
  5
1718C
330
747D
100
AcDbEntity
  8
部品1
100
AcDbLine
 10
5116.692122871067
 20
4616.627066779674
 30
0.0
 11
5116.692122871067
 21
2584.768547337427
 31
0.0
  0
LINE
  5
1718D
330
747D
100
AcDbEntity
  8
部品1
100
AcDbLine
 10
5171.692122871068
 20
4524.768547337426
 30
0.0
 11
5171.692122871068
 21
2734.768547337427
 31
0.0
  0
LINE
  5
1718E
330
747D
100
AcDbEntity
  8
部品1
100
AcDbLine
 10
5116.692122871067
 20
2734.768547337427
 30
0.0
 11
7326.692122871071
 21
2734.768547337428
 31
0.0
  0
LINE
  5
1718F
330
747D
100
AcDbEntity
  8
部品1
100
AcDbLine
 10
5116.692122871067
 20
4524.768547337426
 30
0.0
 11
7326.692122871069
 21
4524.768547337426
 31
0.0
  0
LINE
  5
17190
330
747D
100
AcDbEntity
  8
部品1
100
AcDbLine
 10
6851.692122871067
 20
4524.768547337426
 30
0.0
 11
6851.692122871067
 21
2734.768547337427
 31
0.0
  0
LINE
  5
17191
330
747D
100
AcDbEntity
  8
細線
 48
50.0
100
AcDbLine
 10
6774.19212287107
 20
4524.768547337426
 30
0.0
 11
6774.19212287107
 21
2734.768547337427
 31
0.0
  0
LINE
  5
17192
330
747D
100
AcDbEntity
  8
細線
 48
50.0
100
AcDbLine
 10
6789.192122871071
 20
4524.768547337426
 30
0.0
 11
6789.192122871071
 21
2734.768547337427
 31
0.0
  0
LINE
  5
17193
330
747D
100
AcDbEntity
  8
細線
 48
50.0
100
AcDbLine
 10
6649.19212287107
 20
4524.768547337426
 30
0.0
 11
6649.19212287107
 21
2734.768547337427
 31
0.0
  0
LINE
  5
17194
330
747D
100
AcDbEntity
  8
細線
 48
50.0
100
AcDbLine
 10
6634.19212287107
 20
4524.768547337426
 30
0.0
 11
6634.19212287107
 21
2734.768547337427
 31
0.0
  0
LINE
  5
17195
330
747D
100
AcDbEntity
  8
細線
 48
50.0
100
AcDbLine
 10
6494.192122871071
 20
4524.768547337426
 30
0.0
 11
6494.192122871071
 21
2734.768547337427
 31
0.0
  0
LINE
  5
17196
330
747D
100
AcDbEntity
  8
細線
 48
50.0
100
AcDbLine
 10
6509.19212287107
 20
4524.768547337426
 30
0.0
 11
6509.19212287107
 21
2734.768547337427
 31
0.0
  0
TEXT
  5
17197
330
747D
100
AcDbEntity
  8
部品1
 48
50.0
100
AcDbText
 10
6537.592980759884
 20
4788.583734612688
 30
0.0
 40
120.0
  1
44
 50
90.0
  7
STYLE1
100
AcDbText
  0
TEXT
  5
17198
330
747D
100
AcDbEntity
  8
部品1
 48
50.0
100
AcDbText
 10
6059.959958094794
 20
4926.084992830971
 30
0.0
 40
120.0
  1
1000
  7
STYLE1
100
AcDbText
  0
LINE
  5
17199
330
747D
100
AcDbEntity
  8
部品1
 48
50.0
100
AcDbLine
 10
6371.692122871067
 20
4890.200970678538
 30
0.0
 11
6371.692122871067
 21
4874.000970678538
 31
0.0
  0
LINE
  5
1719A
330
747D
100
AcDbEntity
  8
部品1
 48
50.0
100
AcDbLine
 10
6071.692122871067
 20
4890.200970678538
 30
0.0
 11
6371.692122871067
 21
4890.200970678538
 31
0.0
  0
LINE
  5
1719B
330
747D
100
AcDbEntity
  8
部品1
100
AcDbLine
 10
5064.23710922803
 20
4758.486282671693
 30
0.0
 11
7399.303999732532
 21
4703.409345046566
 31
0.0
  0
LINE
  5
1719C
330
747D
100
AcDbEntity
  8
部品1
100
AcDbLine
 10
5072.034687473021
 20
4617.549572406394
 30
0.0
 11
7381.355823410915
 21
4578.521147172188
 31
0.0
  0
LINE
  5
1719D
330
747D
100
AcDbEntity
  8
細線
 48
50.0
100
AcDbLine
 10
5089.692122871067
 20
4757.168223712831
 30
0.0
 11
5084.40302131556
 21
4617.082591085477
 31
0.0
  0
LINE
  5
1719E
330
747D
100
AcDbEntity
  8
細線
 48
50.0
100
AcDbLine
 10
7373.692122871071
 20
4704.735526372723
 30
0.0
 11
7368.944439983072
 21
4578.989753881979
 31
0.0
  0
LINE
  5
1719F
330
747D
100
AcDbEntity
  8
部品1
 48
50.0
100
AcDbLine
 10
5056.876408784173
 20
4751.36209350212
 30
0.0
 11
5057.256668561986
 21
4731.435129055707
 31
0.0
  0
LINE
  5
171A0
330
747D
100
AcDbEntity
  8
部品1
 48
50.0
100
AcDbLine
 10
5060.325440668232
 20
4727.859847562235
 30
0.0
 11
5062.029342159596
 21
4638.569350855589
 31
0.0
  0
LINE
  5
171A1
330
747D
100
AcDbEntity
  8
細線
 48
50.0
100
AcDbLine
 10
5057.731545971881
 20
4730.785629178789
 30
0.0
 11
7403.367530717052
 21
4675.16142453796
 31
0.0
  0
LINE
  5
171A2
330
747D
100
AcDbEntity
  8
細線
 48
50.0
100
AcDbLine
 10
5062.492021209167
 20
4637.924117480925
 30
0.0
 11
7392.495685639805
 21
4598.114798506432
 31
0.0
  0
LINE
  5
171A3
330
747D
100
AcDbEntity
  8
部品1
 48
50.0
100
AcDbLine
 10
5065.098114265839
 20
4634.994069362116
 30
0.0
 11
5065.300066886269
 21
4624.411033969024
 31
0.0
  0
ARC
  5
171A4
330
747D
100
AcDbEntity
  8
部品1
 48
50.0
100
AcDbCircle
 10
5063.875134612514
 20
4751.495647909547
 30
0.0
 40
7.0
100
AcDbArc
 50
87.03587545293636
 51
181.0932240293156
  0
ARC
  5
171A5
330
747D
100
AcDbEntity
  8
部品1
 48
50.0
100
AcDbCircle
 10
5072.29879271461
 20
4624.544588376452
 30
0.0
 40
7.0
100
AcDbArc
 50
181.0932240293156
 51
267.8377559870533
  0
ARC
  5
171A6
330
747D
100
AcDbEntity
  8
部品1
100
AcDbCircle
 10
5062.098660339408
 20
4634.936831758933
 30
0.0
 40
3.0
100
AcDbArc
 50
1.093224029315636
 51
80.18775403158718
  0
ARC
  5
171A7
330
747D
100
AcDbEntity
  8
部品1
100
AcDbCircle
 10
5057.325986741801
 20
4727.802609959052
 30
0.0
 40
3.0
100
AcDbArc
 50
1.093224029315636
 51
80.18775403158718
  0
ARC
  5
171A8
330
747D
100
AcDbEntity
  8
部品1
100
AcDbCircle
 10
5057.956541144824
 20
4731.44848449645
 30
0.0
 40
0.7
100
AcDbArc
 50
181.0932240292114
 51
260.1877540315872
  0
ARC
  5
171A9
330
747D
100
AcDbEntity
  8
部品1
100
AcDbCircle
 10
5062.729214742434
 20
4638.582706296331
 30
0.0
 40
0.7
100
AcDbArc
 50
181.0932240292635
 51
260.1877540315872
  0
LINE
  5
171AA
330
747D
100
AcDbEntity
  8
部品1
 48
50.0
100
AcDbLine
 10
7405.906025681772
 20
4695.709699611645
 30
0.0
 11
7403.875404490801
 21
4675.764658353865
 31
0.0
  0
LINE
  5
171AB
330
747D
100
AcDbEntity
  8
部品1
 48
50.0
100
AcDbLine
 10
7400.52283800632
 20
4672.454024280956
 30
0.0
 11
7393.016058741483
 21
4598.721403535943
 31
0.0
  0
LINE
  5
171AC
330
747D
100
AcDbEntity
  8
部品1
 48
50.0
100
AcDbLine
 10
7389.663492256997
 20
4595.410769463032
 30
0.0
 11
7388.583929217258
 21
4584.807152469473
 31
0.0
  0
ARC
  5
171AD
330
747D
100
AcDbEntity
  8
部品1
 48
50.0
100
AcDbCircle
 10
7398.942025117015
 20
4696.41871028442
 30
0.0
 40
7.0
100
AcDbArc
 50
354.1866997665013
 51
87.03587545293636
  0
ARC
  5
171AE
330
747D
100
AcDbEntity
  8
部品1
 48
50.0
100
AcDbCircle
 10
7381.619928652501
 20
4585.516163142247
 30
0.0
 40
7.0
100
AcDbArc
 50
267.8377559870533
 51
354.1866997665013
  0
ARC
  5
171AF
330
747D
100
AcDbEntity
  8
部品1
100
AcDbCircle
 10
7392.648063927605
 20
4595.106907746129
 30
0.0
 40
3.0
100
AcDbArc
 50
95.09216976420788
 51
174.1866997665013
  0
ARC
  5
171B0
330
747D
100
AcDbEntity
  8
部品1
100
AcDbCircle
 10
7403.507409676932
 20
4672.150162564054
 30
0.0
 40
3.0
100
AcDbArc
 50
95.0921697643163
 51
174.1866997665013
  0
ARC
  5
171B1
330
747D
100
AcDbEntity
  8
部品1
100
AcDbCircle
 10
7403.179004434329
 20
4675.835559421142
 30
0.0
 40
0.7
100
AcDbArc
 50
275.0921697642079
 51
354.1866997665013
  0
ARC
  5
171B2
330
747D
100
AcDbEntity
  8
部品1
100
AcDbCircle
 10
7392.31965868501
 20
4598.792304603219
 30
0.0
 40
0.7
100
AcDbArc
 50
275.0921697642079
 51
354.1866997666569
  0
LINE
  5
171B3
330
747D
100
AcDbEntity
  8
部品1
100
AcDbLine
 10
6046.23710922803
 20
4891.519029637399
 30
0.0
 11
6371.692122871067
 21
4874.000970678538
 31
0.0
  0
LINE
  5
172DB
330
747D
100
AcDbEntity
  8
部品1
100
AcDbLine
 10
5164.192122871067
 20
2684.768547337427
 30
0.0
 11
7279.192122871068
 21
2684.768547337428
 31
0.0
  0
LINE
  5
172DC
330
747D
100
AcDbEntity
  8
部品1
100
AcDbLine
 10
7319.192122871067
 20
2684.768547337428
 30
0.0
 11
7326.692122871071
 21
2684.768547337427
 31
0.0
  0
LINE
  5
17891
330
747D
100
AcDbEntity
  8
部品1
 48
50.0
100
AcDbLine
 10
9946.789152208337
 20
4467.768547337424
 30
0.0
 11
9946.789152208332
 21
2734.768547337426
 31
0.0
  0
LINE
  5
17892
330
747D
100
AcDbEntity
  8
部品1
 48
50.0
100
AcDbLine
 10
10352.78914290115
 20
4467.768547337429
 30
0.0
 11
10352.78914290115
 21
2742.268547337428
 31
0.0
  0
LINE
  5
17893
330
747D
100
AcDbEntity
  8
細線
100
AcDbLine
 10
10094.28914290114
 20
4467.768547337417
 30
0.0
 11
10094.28914290114
 21
2742.268547337426
 31
0.0
  0
LINE
  5
17894
330
747D
100
AcDbEntity
  8
細線
100
AcDbLine
 10
10024.28914290114
 20
4467.768547337417
 30
0.0
 11
10024.28914290114
 21
2742.268547337426
 31
0.0
  0
LINE
  5
17895
330
747D
100
AcDbEntity
  8
部品1
100
AcDbLine
 10
9656.789152208324
 20
4467.768547337417
 30
0.0
 11
9656.789152208324
 21
2734.768547337424
 31
0.0
  0
LINE
  5
17896
330
747D
100
AcDbEntity
  8
部品1
100
AcDbLine
 10
9606.789152208323
 20
4467.768547337417
 30
0.0
 11
9606.789152208323
 21
2734.768547337424
 31
0.0
  0
LINE
  5
17897
330
747D
100
AcDbEntity
  8
細線
100
AcDbLine
 10
9648.789152208323
 20
4467.768547337417
 30
0.0
 11
9648.789152208323
 21
2734.768547337424
 31
0.0
  0
LINE
  5
17898
330
747D
100
AcDbEntity
  8
細線
100
AcDbLine
 10
9614.789152208324
 20
4467.768547337417
 30
0.0
 11
9614.789152208324
 21
2734.768547337424
 31
0.0
  0
LINE
  5
17899
330
747D
100
AcDbEntity
  8
細線
100
AcDbLine
 10
10631.53914522794
 20
4467.768547337417
 30
0.0
 11
10631.53914522794
 21
2742.268547337433
 31
0.0
  0
LINE
  5
1789A
330
747D
100
AcDbEntity
  8
細線
100
AcDbLine
 10
10561.53914522794
 20
4467.768547337417
 30
0.0
 11
10561.53914522794
 21
2742.268547337433
 31
0.0
  0
LINE
  5
1789B
330
747D
100
AcDbEntity
  8
細線
100
AcDbLine
 10
10491.53914522794
 20
4467.768547337417
 30
0.0
 11
10491.53914522794
 21
2742.268547337433
 31
0.0
  0
LINE
  5
1789C
330
747D
100
AcDbEntity
  8
細線
100
AcDbLine
 10
10421.53914522794
 20
4467.768547337417
 30
0.0
 11
10421.53914522794
 21
2742.268547337433
 31
0.0
  0
LINE
  5
1789D
330
747D
100
AcDbEntity
  8
細線
100
AcDbLine
 10
9846.789152208328
 20
4467.768547337421
 30
0.0
 11
9846.789152208328
 21
2734.768547337426
 31
0.0
  0
LINE
  5
1789E
330
747D
100
AcDbEntity
  8
細線
100
AcDbLine
 10
9776.78915220833
 20
4467.768547337421
 30
0.0
 11
9776.78915220833
 21
2734.768547337426
 31
0.0
  0
LINE
  5
1789F
330
747D
100
AcDbEntity
  8
細線
100
AcDbLine
 10
10234.28914290114
 20
4467.768547337417
 30
0.0
 11
10234.28914290114
 21
2742.26854733743
 31
0.0
  0
LINE
  5
178A0
330
747D
100
AcDbEntity
  8
細線
100
AcDbLine
 10
10164.28914290114
 20
4467.768547337417
 30
0.0
 11
10164.28914290114
 21
2742.26854733743
 31
0.0
  0
LINE
  5
178A1
330
747D
100
AcDbEntity
  8
部品1
 48
50.0
100
AcDbLine
 10
9486.789152208327
 20
2734.768547337424
 30
0.0
 11
9486.789152208327
 21
4467.768547337424
 31
0.0
  0
LINE
  5
178A2
330
747D
100
AcDbEntity
  8
細線
 48
50.0
100
AcDbLine
 10
9486.789152208327
 20
4477.268547337425
 30
0.0
 11
9486.789152208327
 21
2684.768547337424
 31
0.0
  0
LINE
  5
178A3
330
747D
100
AcDbEntity
  8
部品1
 48
50.0
100
AcDbLine
 10
9456.789152208328
 20
4519.768547337425
 30
0.0
 11
9456.789152208328
 21
2684.768547337424
 31
0.0
  0
LINE
  5
178A4
330
747D
100
AcDbEntity
  8
部品1
 48
50.0
100
AcDbLine
 10
10731.78915220832
 20
2731.768547337424
 30
0.0
 11
10731.78915220832
 21
4467.768547337424
 31
0.0
  0
LINE
  5
178A5
330
747D
100
AcDbEntity
  8
細線
 48
50.0
100
AcDbLine
 10
10740.78915220832
 20
2684.768547337424
 30
0.0
 11
10740.78915220832
 21
4477.268547337425
 31
0.0
  0
LINE
  5
178A6
330
747D
100
AcDbEntity
  8
部品1
 48
50.0
100
AcDbLine
 10
10770.78915220832
 20
2684.768547337424
 30
0.0
 11
10770.78915220832
 21
4519.768547337425
 31
0.0
  0
LINE
  5
178A7
330
747D
100
AcDbEntity
  8
細線
 48
50.0
100
AcDbLine
 10
9486.789152208327
 20
2731.768547337424
 30
0.0
 11
10740.78915220832
 21
2731.768547337424
 31
0.0
  0
LINE
  5
178A8
330
747D
100
AcDbEntity
  8
細線
 48
50.0
100
AcDbLine
 10
9486.789152208327
 20
2727.768547337424
 30
0.0
 11
10740.78915220832
 21
2727.768547337424
 31
0.0
  0
LINE
  5
178A9
330
747D
100
AcDbEntity
  8
部品1
 48
50.0
100
AcDbLine
 10
9456.789152208328
 20
2684.768547337424
 30
0.0
 11
10770.78915220832
 21
2684.768547337424
 31
0.0
  0
LINE
  5
178AA
330
747D
100
AcDbEntity
  8
部品1
 48
50.0
100
AcDbLine
 10
9486.789152208327
 20
2734.768547337424
 30
0.0
 11
9946.789152208332
 21
2734.768547337426
 31
0.0
  0
LINE
  5
178AB
330
747D
100
AcDbEntity
  8
部品1
 48
50.0
100
AcDbLine
 10
9495.789152208327
 20
2734.768547337424
 30
0.0
 11
9495.789152208327
 21
2731.768547337424
 31
0.0
  0
LINE
  5
178AC
330
747D
100
AcDbEntity
  8
細線
 48
50.0
100
AcDbLine
 10
9946.789152208332
 20
2742.268547337426
 30
0.0
 11
10714.78915220832
 21
2742.268547337424
 31
0.0
  0
LINE
  5
178AD
330
747D
100
AcDbEntity
  8
細線
 48
50.0
100
AcDbLine
 10
10718.78915220833
 20
2731.768547337424
 30
0.0
 11
10714.78915220832
 21
2742.268547337424
 31
0.0
  0
LINE
  5
178AE
330
747D
100
AcDbEntity
  8
細線
 48
50.0
100
AcDbLine
 10
10740.78915220832
 20
4477.268547337425
 30
0.0
 11
9486.789152208327
 21
4477.268547337425
 31
0.0
  0
LINE
  5
178AF
330
747D
100
AcDbEntity
  8
細線
 48
50.0
100
AcDbLine
 10
10740.78915220832
 20
4467.768547337424
 30
0.0
 11
9486.789152208327
 21
4467.768547337424
 31
0.0
  0
LINE
  5
178B0
330
747D
100
AcDbEntity
  8
細線
 48
50.0
100
AcDbLine
 10
10770.78915220832
 20
4509.768547337425
 30
0.0
 11
9456.789152208328
 21
4509.768547337425
 31
0.0
  0
LINE
  5
178B1
330
747D
100
AcDbEntity
  8
部品1
 48
50.0
100
AcDbLine
 10
10770.78915220832
 20
4519.768547337425
 30
0.0
 11
9456.789152208328
 21
4519.768547337425
 31
0.0
  0
LINE
  5
178B2
330
747D
100
AcDbEntity
  8
部品1
 48
50.0
100
AcDbLine
 10
9486.789152208327
 20
4475.768547337425
 30
0.0
 11
9456.789152208328
 21
4475.768547337425
 31
0.0
  0
LINE
  5
178B3
330
747D
100
AcDbEntity
  8
部品1
 48
50.0
100
AcDbLine
 10
10770.78915220832
 20
4475.768547337425
 30
0.0
 11
10740.78915220832
 21
4475.768547337425
 31
0.0
  0
LINE
  5
178CD
330
747D
100
AcDbEntity
  8
部品1
 48
50.0
100
AcDbLine
 10
9530.789152208326
 20
3666.268547337414
 30
0.0
 11
9583.789152208327
 21
3666.268547337414
 31
0.0
  0
LINE
  5
17950
330
747D
100
AcDbEntity
  8
部品1
100
AcDbLine
 10
10598.78915220834
 20
2684.768547337426
 30
0.0
 11
10598.78915220834
 21
2584.768547337426
 31
0.0
  0
LINE
  5
17951
330
747D
100
AcDbEntity
  8
部品1
 48
50.0
100
AcDbLine
 10
10013.78915220834
 20
2684.768547337426
 30
0.0
 11
10013.78915220834
 21
2584.768547337426
 31
0.0
  0
LINE
  5
17952
330
747D
100
AcDbEntity
  8
部品1
 48
50.0
100
AcDbLine
 10
10213.78915220834
 20
2684.768547337426
 30
0.0
 11
10213.78915220834
 21
2584.768547337426
 31
0.0
  0
LINE
  5
17953
330
747D
100
AcDbEntity
  8
部品1
100
AcDbLine
 10
9628.789152208344
 20
2684.768547337426
 30
0.0
 11
9628.789152208344
 21
2584.768547337426
 31
0.0
  0
LINE
  5
17954
330
747D
100
AcDbEntity
  8
部品1
100
AcDbLine
 10
10770.78915220834
 20
2734.768547337427
 30
0.0
 11
10798.78915220834
 21
2734.768547337426
 31
0.0
  0
LINE
  5
17955
330
747D
100
AcDbEntity
  8
部品1
100
AcDbLine
 10
10591.78915220834
 20
4754.768547345894
 30
0.0
 11
10591.78915220834
 21
4657.357479837323
 31
0.0
  0
LINE
  5
17956
330
747D
100
AcDbEntity
  8
部品1
100
AcDbLine
 10
10566.78915220834
 20
4754.768547345894
 30
0.0
 11
10566.78915220834
 21
4657.357479837323
 31
0.0
  0
LINE
  5
17957
330
747D
100
AcDbEntity
  8
部品1
 48
50.0
100
AcDbLine
 10
10565.28915220833
 20
4754.768547345897
 30
0.0
 11
10593.28915220833
 21
4754.768547345897
 31
0.0
  0
LINE
  5
17958
330
747D
100
AcDbEntity
  8
部品1
 48
50.0
100
AcDbLine
 10
10593.28915220833
 20
4754.768547345897
 30
0.0
 11
10603.78915220833
 21
4735.368547345896
 31
0.0
  0
LINE
  5
17959
330
747D
100
AcDbEntity
  8
部品1
 48
50.0
100
AcDbLine
 10
10565.28915220833
 20
4754.768547345897
 30
0.0
 11
10554.78915220833
 21
4735.368547345896
 31
0.0
  0
LINE
  5
1795A
330
747D
100
AcDbEntity
  8
部品1
 48
50.0
100
AcDbLine
 10
10492.28915220833
 20
4754.768547345897
 30
0.0
 11
10520.28915220833
 21
4754.768547345897
 31
0.0
  0
LINE
  5
1795B
330
747D
100
AcDbEntity
  8
部品1
100
AcDbLine
 10
10493.78915220834
 20
4754.768547345894
 30
0.0
 11
10493.78915220834
 21
4657.357479837323
 31
0.0
  0
LINE
  5
1795C
330
747D
100
AcDbEntity
  8
部品1
 48
50.0
100
AcDbLine
 10
10492.28915220833
 20
4754.768547345897
 30
0.0
 11
10481.78915220833
 21
4735.368547345896
 31
0.0
  0
LINE
  5
1795D
330
747D
100
AcDbEntity
  8
部品1
100
AcDbLine
 10
10518.78915220834
 20
4754.768547345894
 30
0.0
 11
10518.78915220834
 21
4657.357479837323
 31
0.0
  0
LINE
  5
1795E
330
747D
100
AcDbEntity
  8
部品1
 48
50.0
100
AcDbLine
 10
10520.28915220833
 20
4754.768547345897
 30
0.0
 11
10530.78915220833
 21
4735.368547345896
 31
0.0
  0
LINE
  5
1795F
330
747D
100
AcDbEntity
  8
部品1
100
AcDbLine
 10
10332.78915220834
 20
4754.768547345887
 30
0.0
 11
10332.78915220834
 21
4657.357479837323
 31
0.0
  0
LINE
  5
17960
330
747D
100
AcDbEntity
  8
部品1
 48
50.0
100
AcDbLine
 10
10335.78915220833
 20
4754.768547345897
 30
0.0
 11
10338.28915220833
 21
4735.368547345896
 31
0.0
  0
LINE
  5
17961
330
747D
100
AcDbEntity
  8
部品1
100
AcDbLine
 10
10314.78915220834
 20
4754.768547345887
 30
0.0
 11
10314.78915220834
 21
4657.357479837322
 31
0.0
  0
LINE
  5
17962
330
747D
100
AcDbEntity
  8
部品1
 48
50.0
100
AcDbLine
 10
10296.57781200214
 20
4745.368547345896
 30
0.0
 11
10295.28915220833
 21
4735.368547345896
 31
0.0
  0
LINE
  5
17963
330
747D
100
AcDbEntity
  8
部品1
 48
50.0
100
AcDbLine
 10
10296.57781200214
 20
4745.368547345896
 30
0.0
 11
10310.57781200214
 21
4745.368547345896
 31
0.0
  0
LINE
  5
17964
330
747D
100
AcDbEntity
  8
部品1
 48
50.0
100
AcDbLine
 10
10311.78915220833
 20
4754.768547345897
 30
0.0
 11
10310.57781200214
 21
4745.368547345896
 31
0.0
  0
LINE
  5
17965
330
747D
100
AcDbEntity
  8
部品1
 48
50.0
100
AcDbLine
 10
10335.78915220833
 20
4754.768547345897
 30
0.0
 11
10311.78915220833
 21
4754.768547345897
 31
0.0
  0
LINE
  5
17966
330
747D
100
AcDbEntity
  8
部品1
100
AcDbLine
 10
10481.78915220833
 20
4735.368547345893
 30
0.0
 11
10338.28915220833
 21
4735.368547345893
 31
0.0
  0
LINE
  5
17967
330
747D
100
AcDbEntity
  8
部品1
100
AcDbLine
 10
10171.78915220834
 20
4754.768547345894
 30
0.0
 11
10171.78915220834
 21
4657.357479837322
 31
0.0
  0
LINE
  5
17968
330
747D
100
AcDbEntity
  8
部品1
 48
50.0
100
AcDbLine
 10
10173.28915220833
 20
4754.768547345897
 30
0.0
 11
10183.78915220833
 21
4735.368547345896
 31
0.0
  0
LINE
  5
17969
330
747D
100
AcDbEntity
  8
部品1
100
AcDbLine
 10
10073.78915220834
 20
4754.768547345894
 30
0.0
 11
10073.78915220834
 21
4657.357479837322
 31
0.0
  0
LINE
  5
1796A
330
747D
100
AcDbEntity
  8
部品1
100
AcDbLine
 10
10098.78915220834
 20
4754.768547345894
 30
0.0
 11
10098.78915220834
 21
4657.357479837323
 31
0.0
  0
LINE
  5
1796B
330
747D
100
AcDbEntity
  8
部品1
100
AcDbLine
 10
10146.78915220834
 20
4754.768547345894
 30
0.0
 11
10146.78915220834
 21
4657.357479837323
 31
0.0
  0
LINE
  5
1796C
330
747D
100
AcDbEntity
  8
部品1
 48
50.0
100
AcDbLine
 10
10072.28915220833
 20
4754.768547345897
 30
0.0
 11
10061.78915220833
 21
4735.368547345896
 31
0.0
  0
LINE
  5
1796D
330
747D
100
AcDbEntity
  8
部品1
100
AcDbLine
 10
10134.78915220833
 20
4735.368547345893
 30
0.0
 11
10110.78915220833
 21
4735.368547345893
 31
0.0
  0
LINE
  5
1796E
330
747D
100
AcDbEntity
  8
部品1
 48
50.0
100
AcDbLine
 10
10100.28915220833
 20
4754.768547345897
 30
0.0
 11
10110.78915220833
 21
4735.368547345896
 31
0.0
  0
LINE
  5
1796F
330
747D
100
AcDbEntity
  8
部品1
 48
50.0
100
AcDbLine
 10
10145.28915220833
 20
4754.768547345897
 30
0.0
 11
10134.78915220833
 21
4735.368547345896
 31
0.0
  0
LINE
  5
17970
330
747D
100
AcDbEntity
  8
部品1
 48
50.0
100
AcDbLine
 10
10072.28915220833
 20
4754.768547345897
 30
0.0
 11
10100.28915220833
 21
4754.768547345897
 31
0.0
  0
LINE
  5
17971
330
747D
100
AcDbEntity
  8
部品1
 48
50.0
100
AcDbLine
 10
10145.28915220833
 20
4754.768547345897
 30
0.0
 11
10173.28915220833
 21
4754.768547345897
 31
0.0
  0
LINE
  5
17972
330
747D
100
AcDbEntity
  8
部品1
100
AcDbLine
 10
9912.789152208342
 20
4754.768547345887
 30
0.0
 11
9912.789152208343
 21
4657.357479837323
 31
0.0
  0
LINE
  5
17973
330
747D
100
AcDbEntity
  8
部品1
100
AcDbLine
 10
9894.789152208341
 20
4754.768547345887
 30
0.0
 11
9894.789152208343
 21
4657.357479837323
 31
0.0
  0
LINE
  5
17974
330
747D
100
AcDbEntity
  8
部品1
 48
50.0
100
AcDbLine
 10
9915.789152208333
 20
4754.768547345897
 30
0.0
 11
9891.789152208334
 21
4754.768547345897
 31
0.0
  0
LINE
  5
17975
330
747D
100
AcDbEntity
  8
部品1
 48
50.0
100
AcDbLine
 10
9891.789152208334
 20
4754.768547345897
 30
0.0
 11
9890.577812002147
 21
4745.368547345896
 31
0.0
  0
LINE
  5
17976
330
747D
100
AcDbEntity
  8
部品1
 48
50.0
100
AcDbLine
 10
9915.789152208333
 20
4754.768547345897
 30
0.0
 11
9918.289152208334
 21
4735.368547345896
 31
0.0
  0
LINE
  5
17977
330
747D
100
AcDbEntity
  8
部品1
100
AcDbLine
 10
10061.78915220833
 20
4735.368547345893
 30
0.0
 11
9918.28915220833
 21
4735.368547345893
 31
0.0
  0
LINE
  5
17978
330
747D
100
AcDbEntity
  8
部品1
100
AcDbLine
 10
10295.28915220833
 20
4735.368547345893
 30
0.0
 11
10183.78915220833
 21
4735.368547345893
 31
0.0
  0
LINE
  5
17979
330
747D
100
AcDbEntity
  8
部品1
100
AcDbLine
 10
10554.78915220833
 20
4735.368547345893
 30
0.0
 11
10530.78915220833
 21
4735.368547345893
 31
0.0
  0
LINE
  5
1797A
330
747D
100
AcDbEntity
  8
部品1
100
AcDbLine
 10
9875.289152208335
 20
4735.368547345893
 30
0.0
 11
9763.789152208333
 21
4735.368547345893
 31
0.0
  0
LINE
  5
1797B
330
747D
100
AcDbEntity
  8
部品1
100
AcDbLine
 10
9726.789152208342
 20
4754.768547345894
 30
0.0
 11
9726.789152208342
 21
4657.357479837323
 31
0.0
  0
LINE
  5
1797C
330
747D
100
AcDbEntity
  8
部品1
100
AcDbLine
 10
9751.789152208342
 20
4754.768547345894
 30
0.0
 11
9751.789152208342
 21
4657.357479837323
 31
0.0
  0
LINE
  5
1797D
330
747D
100
AcDbEntity
  8
部品1
 48
50.0
100
AcDbLine
 10
9753.289152208333
 20
4754.768547345897
 30
0.0
 11
9763.789152208333
 21
4735.368547345896
 31
0.0
  0
LINE
  5
1797E
330
747D
100
AcDbEntity
  8
部品1
 48
50.0
100
AcDbLine
 10
9725.289152208334
 20
4754.768547345897
 30
0.0
 11
9753.289152208331
 21
4754.768547345897
 31
0.0
  0
LINE
  5
1797F
330
747D
100
AcDbEntity
  8
部品1
 48
50.0
100
AcDbLine
 10
9876.577812002146
 20
4745.368547345896
 30
0.0
 11
9875.289152208335
 21
4735.368547345896
 31
0.0
  0
LINE
  5
17980
330
747D
100
AcDbEntity
  8
部品1
100
AcDbLine
 10
9714.78915220833
 20
4735.368547345893
 30
0.0
 11
9690.789152208333
 21
4735.368547345896
 31
0.0
  0
LINE
  5
17981
330
747D
100
AcDbEntity
  8
部品1
100
AcDbLine
 10
9678.789152208342
 20
4754.768547345894
 30
0.0
 11
9678.789152208343
 21
4657.357479837322
 31
0.0
  0
LINE
  5
17982
330
747D
100
AcDbEntity
  8
部品1
 48
50.0
100
AcDbLine
 10
9680.289152208334
 20
4754.768547345897
 30
0.0
 11
9690.789152208333
 21
4735.368547345896
 31
0.0
  0
LINE
  5
17983
330
747D
100
AcDbEntity
  8
部品1
100
AcDbLine
 10
9653.789152208341
 20
4754.768547345894
 30
0.0
 11
9653.789152208339
 21
4657.357479837323
 31
0.0
  0
LINE
  5
17984
330
747D
100
AcDbEntity
  8
部品1
 48
50.0
100
AcDbLine
 10
9652.289152208334
 20
4754.768547345897
 30
0.0
 11
9641.789152208334
 21
4735.368547345896
 31
0.0
  0
LINE
  5
17985
330
747D
100
AcDbEntity
  8
部品1
 48
50.0
100
AcDbLine
 10
9652.289152208334
 20
4754.768547345897
 30
0.0
 11
9680.289152208331
 21
4754.768547345897
 31
0.0
  0
LINE
  5
17986
330
747D
100
AcDbEntity
  8
部品1
 48
50.0
100
AcDbLine
 10
9725.289152208334
 20
4754.768547345897
 30
0.0
 11
9714.789152208334
 21
4735.368547345896
 31
0.0
  0
LINE
  5
17987
330
747D
100
AcDbEntity
  8
部品1
100
AcDbLine
 10
9492.789152208342
 20
4754.768547345887
 30
0.0
 11
9492.789152208342
 21
4657.357479837323
 31
0.0
  0
LINE
  5
17988
330
747D
100
AcDbEntity
  8
部品1
100
AcDbLine
 10
9474.789152208341
 20
4754.768547345897
 30
0.0
 11
9474.789152208343
 21
4657.357479837323
 31
0.0
  0
LINE
  5
17989
330
747D
100
AcDbEntity
  8
部品1
 48
50.0
100
AcDbLine
 10
9495.789152208335
 20
4754.768547345897
 30
0.0
 11
9498.289152208334
 21
4735.368547345896
 31
0.0
  0
LINE
  5
1798A
330
747D
100
AcDbEntity
  8
部品1
100
AcDbLine
 10
9455.289152208335
 20
4735.368547345896
 30
0.0
 11
9428.789152208334
 21
4735.368547345896
 31
0.0
  0
LINE
  5
1798B
330
747D
100
AcDbEntity
  8
部品1
 48
50.0
100
AcDbLine
 10
9456.577812002146
 20
4745.368547345896
 30
0.0
 11
9470.577812002145
 21
4745.368547345896
 31
0.0
  0
LINE
  5
1798C
330
747D
100
AcDbEntity
  8
部品1
 48
50.0
100
AcDbLine
 10
9456.577812002146
 20
4745.368547345896
 30
0.0
 11
9455.289152208335
 21
4735.368547345896
 31
0.0
  0
LINE
  5
1798D
330
747D
100
AcDbEntity
  8
部品1
 48
50.0
100
AcDbLine
 10
9471.789152208334
 20
4754.768547345897
 30
0.0
 11
9470.577812002145
 21
4745.368547345896
 31
0.0
  0
LINE
  5
1798E
330
747D
100
AcDbEntity
  8
部品1
 48
50.0
100
AcDbLine
 10
9495.789152208335
 20
4754.768547345897
 30
0.0
 11
9471.789152208334
 21
4754.768547345897
 31
0.0
  0
LINE
  5
1798F
330
747D
100
AcDbEntity
  8
部品1
100
AcDbLine
 10
9641.789152208334
 20
4735.368547345893
 30
0.0
 11
9498.289152208334
 21
4735.368547345896
 31
0.0
  0
LINE
  5
17990
330
747D
100
AcDbEntity
  8
部品1
 48
50.0
100
AcDbLine
 10
9876.577812002146
 20
4745.368547345896
 30
0.0
 11
9890.577812002147
 21
4745.368547345896
 31
0.0
  0
LINE
  5
17991
330
747D
100
AcDbEntity
  8
部品1
100
AcDbLine
 10
10824.35699203806
 20
4759.768547345883
 30
0.0
 11
9403.221312589241
 21
4759.768547345898
 31
0.0
  0
LINE
  5
17992
330
747D
100
AcDbEntity
  8
部品1
100
AcDbLine
 10
10715.28915220833
 20
4735.368547345878
 30
0.0
 11
10603.78915220834
 21
4735.368547345878
 31
0.0
  0
LINE
  5
17993
330
747D
100
AcDbEntity
  8
部品1
 48
50.0
100
AcDbLine
 10
9423.718524215129
 20
4704.768547337425
 30
0.0
 11
9385.775196025544
 21
4704.768547337425
 31
0.0
  0
ARC
  5
17994
330
747D
100
AcDbEntity
  8
部品1
100
AcDbCircle
 10
9380.748294648622
 20
4677.438664658016
 30
0.0
 40
0.7
100
AcDbArc
 50
183.6186294801345
 51
262.7131594834577
  0
ARC
  5
17995
330
747D
100
AcDbEntity
  8
部品1
100
AcDbCircle
 10
9380.278998523428
 20
4673.768547337425
 30
0.0
 40
3.0
100
AcDbArc
 50
3.6186294801345
 51
90.0
  0
LINE
  5
17996
330
747D
100
AcDbEntity
  8
部品1
100
AcDbLine
 10
9383.273017302233
 20
4673.957892398538
 30
0.0
 11
9388.020110314391
 21
4598.894484143754
 31
0.0
  0
ARC
  5
17997
330
747D
100
AcDbEntity
  8
部品1
100
AcDbCircle
 10
9388.718714696114
 20
4598.938664658016
 30
0.0
 40
0.7
100
AcDbArc
 50
183.6186294801345
 51
262.7131594834577
  0
ARC
  5
17998
330
747D
100
AcDbEntity
  8
部品1
100
AcDbCircle
 10
9388.24941857092
 20
4595.268547337425
 30
0.0
 40
3.0
100
AcDbArc
 50
3.6186294801345
 51
90.0
  0
ARC
  5
17999
330
747D
100
AcDbEntity
  8
部品1
100
AcDbCircle
 10
9398.901806871515
 20
4585.268547337425
 30
0.0
 40
7.0
100
AcDbArc
 50
183.6186294801345
 51
270.0
  0
ARC
  5
1799A
330
747D
100
AcDbEntity
  8
部品1
100
AcDbCircle
 10
9385.775196025544
 20
4697.768547337425
 30
0.0
 40
7.0
100
AcDbArc
 50
90.0
 51
183.6186294801345
  0
LINE
  5
1799B
330
747D
100
AcDbEntity
  8
部品1
100
AcDbLine
 10
9391.915763054305
 20
4584.826742194835
 30
0.0
 11
9391.243437349723
 21
4595.457892398537
 31
0.0
  0
LINE
  5
1799C
330
747D
100
AcDbEntity
  8
部品1
100
AcDbLine
 10
9380.049690266899
 20
4677.394484143754
 30
0.0
 11
9378.789152208334
 21
4697.326742194835
 31
0.0
  0
LINE
  5
1799D
330
747D
100
AcDbEntity
  8
部品1
100
AcDbLine
 10
9423.718524215129
 20
4704.768547337425
 30
0.0
 11
9385.775196025544
 21
4704.768547337425
 31
0.0
  0
ARC
  5
1799E
330
747D
100
AcDbEntity
  8
部品1
100
AcDbCircle
 10
9423.718524215129
 20
4699.768547337424
 30
0.0
 40
5.0
100
AcDbArc
 50
0.0
 51
90.0
  0
LINE
  5
1799F
330
747D
100
AcDbEntity
  8
部品1
100
AcDbLine
 10
9428.718524215128
 20
4754.768547354323
 30
0.0
 11
9428.718524215126
 21
4657.364518664756
 31
0.0
  0
LINE
  5
179A0
330
747D
100
AcDbEntity
  8
部品1
100
AcDbLine
 10
10828.67649754515
 20
4578.268547337425
 30
0.0
 11
9398.901806871515
 21
4578.268547337425
 31
0.0
  0
LINE
  5
179A1
330
747D
100
AcDbEntity
  8
部品1
 48
50.0
100
AcDbLine
 10
9378.789152208334
 20
4697.326742194835
 30
0.0
 11
9378.789152208334
 21
4752.326742211734
 31
0.0
  0
ARC
  5
179A2
330
747D
100
AcDbEntity
  8
部品1
100
AcDbCircle
 10
9423.718524215129
 20
4754.768547354323
 30
0.0
 40
5.0
100
AcDbArc
 50
0.0
 51
90.0
  0
LINE
  5
179A3
330
747D
100
AcDbEntity
  8
部品1
100
AcDbLine
 10
9423.718524215129
 20
4759.768547354323
 30
0.0
 11
9385.775196025544
 21
4759.768547354323
 31
0.0
  0
ARC
  5
179A4
330
747D
100
AcDbEntity
  8
部品1
100
AcDbCircle
 10
9385.775196025544
 20
4752.768547354324
 30
0.0
 40
7.0
100
AcDbArc
 50
90.0
 51
183.6186294801345
  0
LINE
  5
179A5
330
747D
100
AcDbEntity
  8
細線
 48
50.0
100
AcDbLine
 10
10837.88338076727
 20
4599.041789901213
 30
0.0
 11
9388.672743840853
 21
4599.041789901213
 31
0.0
  0
LINE
  5
179A6
330
747D
100
AcDbEntity
  8
細線
 48
50.0
100
AcDbLine
 10
9411.278062304051
 20
4704.768547337425
 30
0.0
 11
9411.278062304051
 21
4578.268547337425
 31
0.0
  0
LINE
  5
179A7
330
747D
100
AcDbEntity
  8
細線
 48
50.0
100
AcDbLine
 10
9428.718524215126
 20
4676.740380085374
 30
0.0
 11
9380.655282931181
 21
4676.740380085382
 31
0.0
  0
LINE
  5
179A8
330
747D
100
AcDbEntity
  8
部品1
100
AcDbLine
 10
10734.78915220833
 20
4754.768547345887
 30
0.0
 11
10734.78915220833
 21
4657.357479837322
 31
0.0
  0
LINE
  5
179A9
330
747D
100
AcDbEntity
  8
部品1
100
AcDbLine
 10
10752.78915220833
 20
4754.768547345897
 30
0.0
 11
10752.78915220833
 21
4657.357479837323
 31
0.0
  0
LINE
  5
179AA
330
747D
100
AcDbEntity
  8
部品1
 48
50.0
100
AcDbLine
 10
10731.78915220833
 20
4754.768547345897
 30
0.0
 11
10755.78915220833
 21
4754.768547345897
 31
0.0
  0
LINE
  5
179AB
330
747D
100
AcDbEntity
  8
部品1
 48
50.0
100
AcDbLine
 10
10803.85978020154
 20
4704.768547337425
 30
0.0
 11
10841.80310839112
 21
4704.768547337425
 31
0.0
  0
ARC
  5
179AC
330
747D
100
AcDbEntity
  8
部品1
100
AcDbCircle
 10
10846.83000976805
 20
4677.438664658016
 30
0.0
 40
0.7
100
AcDbArc
 50
277.2868405165423
 51
356.3813705198655
  0
ARC
  5
179AD
330
747D
100
AcDbEntity
  8
部品1
100
AcDbCircle
 10
10847.29930589324
 20
4673.768547337425
 30
0.0
 40
3.0
100
AcDbArc
 50
90.0
 51
176.3813705198655
  0
LINE
  5
179AE
330
747D
100
AcDbEntity
  8
部品1
100
AcDbLine
 10
10844.30528711444
 20
4673.957892398538
 30
0.0
 11
10839.55819410228
 21
4598.894484143754
 31
0.0
  0
ARC
  5
179AF
330
747D
100
AcDbEntity
  8
部品1
100
AcDbCircle
 10
10838.85958972055
 20
4598.938664658016
 30
0.0
 40
0.7
100
AcDbArc
 50
277.2868405165423
 51
356.3813705198655
  0
ARC
  5
179B0
330
747D
100
AcDbEntity
  8
部品1
100
AcDbCircle
 10
10839.32888584575
 20
4595.268547337425
 30
0.0
 40
3.0
100
AcDbArc
 50
90.0
 51
176.3813705198655
  0
ARC
  5
179B1
330
747D
100
AcDbEntity
  8
部品1
100
AcDbCircle
 10
10828.67649754515
 20
4585.268547337425
 30
0.0
 40
7.0
100
AcDbArc
 50
270.0
 51
356.3813705198655
  0
ARC
  5
179B2
330
747D
100
AcDbEntity
  8
部品1
100
AcDbCircle
 10
10841.80310839112
 20
4697.768547337425
 30
0.0
 40
7.0
100
AcDbArc
 50
356.3813705198655
 51
90.0
  0
LINE
  5
179B3
330
747D
100
AcDbEntity
  8
部品1
100
AcDbLine
 10
10835.66254136236
 20
4584.826742194835
 30
0.0
 11
10836.33486706695
 21
4595.457892398537
 31
0.0
  0
LINE
  5
179B4
330
747D
100
AcDbEntity
  8
部品1
100
AcDbLine
 10
10847.52861414977
 20
4677.394484143754
 30
0.0
 11
10848.78915220833
 21
4697.326742194835
 31
0.0
  0
LINE
  5
179B5
330
747D
100
AcDbEntity
  8
部品1
100
AcDbLine
 10
10803.85978020154
 20
4704.768547337425
 30
0.0
 11
10841.80310839112
 21
4704.768547337425
 31
0.0
  0
ARC
  5
179B6
330
747D
100
AcDbEntity
  8
部品1
100
AcDbCircle
 10
10803.85978020154
 20
4699.768547337424
 30
0.0
 40
5.0
100
AcDbArc
 50
90.0
 51
180.0
  0
LINE
  5
179B7
330
747D
100
AcDbEntity
  8
部品1
100
AcDbLine
 10
10798.85978020154
 20
4754.768547354323
 30
0.0
 11
10798.85978020154
 21
4657.357479837323
 31
0.0
  0
LINE
  5
179B8
330
747D
100
AcDbEntity
  8
部品1
 48
50.0
100
AcDbLine
 10
10848.78915220833
 20
4697.326742194835
 30
0.0
 11
10848.78915220833
 21
4752.326742211734
 31
0.0
  0
ARC
  5
179B9
330
747D
100
AcDbEntity
  8
部品1
100
AcDbCircle
 10
10803.85978020154
 20
4754.768547354323
 30
0.0
 40
5.0
100
AcDbArc
 50
90.0
 51
180.0
  0
LINE
  5
179BA
330
747D
100
AcDbEntity
  8
部品1
100
AcDbLine
 10
10803.85978020154
 20
4759.768547354323
 30
0.0
 11
10841.80310839112
 21
4759.768547354323
 31
0.0
  0
ARC
  5
179BB
330
747D
100
AcDbEntity
  8
部品1
100
AcDbCircle
 10
10841.80310839112
 20
4752.768547354324
 30
0.0
 40
7.0
100
AcDbArc
 50
356.3813705198655
 51
90.0
  0
LINE
  5
179BC
330
747D
100
AcDbEntity
  8
細線
 48
50.0
100
AcDbLine
 10
10816.30024211262
 20
4704.768547337425
 30
0.0
 11
10816.30024211262
 21
4578.268547337425
 31
0.0
  0
LINE
  5
179BD
330
747D
100
AcDbEntity
  8
細線
 48
50.0
100
AcDbLine
 10
10798.85978020154
 20
4676.740380085374
 30
0.0
 11
10846.92302148549
 21
4676.740380085382
 31
0.0
  0
LINE
  5
179BE
330
747D
100
AcDbEntity
  8
部品1
 48
50.0
100
AcDbLine
 10
10731.78915220833
 20
4754.768547345897
 30
0.0
 11
10730.57781200215
 21
4745.368547345896
 31
0.0
  0
LINE
  5
179BF
330
747D
100
AcDbEntity
  8
部品1
 48
50.0
100
AcDbLine
 10
10716.57781200215
 20
4745.368547345896
 30
0.0
 11
10730.57781200215
 21
4745.368547345896
 31
0.0
  0
LINE
  5
179C0
330
747D
100
AcDbEntity
  8
部品1
 48
50.0
100
AcDbLine
 10
10716.57781200215
 20
4745.368547345896
 30
0.0
 11
10715.28915220833
 21
4735.368547345896
 31
0.0
  0
LINE
  5
179C1
330
747D
100
AcDbEntity
  8
部品1
 48
50.0
100
AcDbLine
 10
10755.78915220833
 20
4754.768547345897
 30
0.0
 11
10758.28915220833
 21
4735.368547345896
 31
0.0
  0
LINE
  5
179C2
330
747D
100
AcDbEntity
  8
部品1
100
AcDbLine
 10
10798.85978020154
 20
4735.368547345893
 30
0.0
 11
10758.28915220833
 21
4735.368547345893
 31
0.0
  0
LINE
  5
179C3
330
747D
100
AcDbEntity
  8
部品1
 48
50.0
100
AcDbLine
 10
9411.278062304052
 20
4657.357479837323
 30
0.0
 11
10816.30024211262
 21
4657.357479837322
 31
0.0
  0
DIMENSION
  5
179C4
330
747D
100
AcDbEntity
  8
寸法
 48
50.0
100
AcDbDimension
  2
*D24
 10
9428.789152208327
 20
5158.861716676899
 30
0.0
 11
10113.78915220833
 21
5158.861716676899
 31
0.0
 70
   160
  1
柱外寸法<>
 71
     5
 42
1370.000000000018
  3
INABA_S40G
100
AcDbAlignedDimension
 13
10798.78915220834
 23
4759.768547337432
 33
0.0
 14
9428.789152208327
 24
4759.768547337432
 34
0.0
100
AcDbRotatedDimension
  0
LINE
  5
179C5
330
747D
100
AcDbEntity
  8
破線
 48
5.0
100
AcDbLine
 10
9423.789152208327
 20
2584.768547337426
 30
0.0
 11
9423.789152208327
 21
2429.768547337426
 31
0.0
  0
LINE
  5
179C6
330
747D
100
AcDbEntity
  8
破線
 48
5.0
100
AcDbLine
 10
10803.78915220834
 20
2584.768547337426
 30
0.0
 11
10803.78915220834
 21
2429.768547337426
 31
0.0
  0
LINE
  5
179C7
330
747D
100
AcDbEntity
  8
破線
 48
5.0
100
AcDbLine
 10
9403.789152208327
 20
2429.768547337426
 30
0.0
 11
9423.789152208327
 21
2429.768547337426
 31
0.0
  0
LINE
  5
179C8
330
747D
100
AcDbEntity
  8
部品1
100
AcDbLine
 10
9423.789152208327
 20
2729.768547337428
 30
0.0
 11
9423.789152208327
 21
2584.768547337426
 31
0.0
  0
LINE
  5
179C9
330
747D
100
AcDbEntity
  8
破線
 48
5.0
100
AcDbLine
 10
10823.78915220834
 20
2429.768547337426
 30
0.0
 11
10803.78915220834
 21
2429.768547337426
 31
0.0
  0
LINE
  5
179CA
330
747D
100
AcDbEntity
  8
部品1
100
AcDbLine
 10
10803.78915220834
 20
2729.768547337426
 30
0.0
 11
10803.78915220834
 21
2584.768547337426
 31
0.0
  0
DIMENSION
  5
179CB
330
747D
100
AcDbEntity
  8
寸法
 48
50.0
100
AcDbDimension
  2
*D25
 10
9378.789152208327
 20
5158.861716676899
 30
0.0
 11
9065.303870834078
 21
5158.861716676899
 31
0.0
 70
   160
 71
     5
 42
50.0
  3
INABA_S40G
100
AcDbAlignedDimension
 13
9428.789152208327
 23
4759.768547337432
 33
0.0
 14
9378.789152208327
 24
4759.768547337432
 34
0.0
100
AcDbRotatedDimension
1001
ACAD
1000
DSTYLE
1002
{
1002
}
  0
DIMENSION
  5
179CC
330
747D
100
AcDbEntity
  8
寸法
 48
50.0
100
AcDbDimension
  2
*D26
 10
10798.78915220834
 20
5158.861716676899
 30
0.0
 11
11162.27443358258
 21
5158.861716676899
 31
0.0
 70
   160
 71
     5
 42
50.0
  3
INABA_S40G
100
AcDbAlignedDimension
 13
10848.78915220834
 23
4759.768547337428
 33
0.0
 14
10798.78915220834
 24
4759.768547337432
 34
0.0
100
AcDbRotatedDimension
  0
LINE
  5
179CD
330
747D
100
AcDbEntity
  8
部品1
100
AcDbLine
 10
10798.78915220834
 20
4578.268547337425
 30
0.0
 11
10798.78915220834
 21
2584.768547337426
 31
0.0
  0
LINE
  5
179CE
330
747D
100
AcDbEntity
  8
部品1
100
AcDbLine
 10
9483.789152208327
 20
4524.768547337425
 30
0.0
 11
9483.789152208327
 21
4519.768547337425
 31
0.0
  0
LINE
  5
179CF
330
747D
100
AcDbEntity
  8
部品1
100
AcDbLine
 10
10743.78915220834
 20
4524.768547337425
 30
0.0
 11
10743.78915220834
 21
4519.768547337425
 31
0.0
  0
LINE
  5
179D0
330
747D
100
AcDbEntity
  8
部品1
100
AcDbLine
 10
9428.789152208327
 20
4578.268547337425
 30
0.0
 11
9428.789152208327
 21
2584.768547337426
 31
0.0
  0
DIMENSION
  5
179D1
330
747D
100
AcDbEntity
  8
寸法
 48
50.0
100
AcDbDimension
  2
*D27
 10
10848.78915220834
 20
5375.387816295344
 30
0.0
 11
10113.78915220833
 21
5375.387816295344
 31
0.0
 70
   160
 71
     5
 42
1470.000000000018
  3
INABA_S40G
100
AcDbAlignedDimension
 13
9378.789152208327
 23
4759.768547337432
 33
0.0
 14
10848.78915220834
 24
4759.768547337428
 34
0.0
100
AcDbRotatedDimension
  0
LINE
  5
179D2
330
747D
100
AcDbEntity
  8
部品1
100
AcDbLine
 10
9428.789152208327
 20
4524.768547337425
 30
0.0
 11
10798.78915220834
 21
4524.768547337425
 31
0.0
  0
LINE
  5
179D3
330
747D
100
AcDbEntity
  8
部品1
100
AcDbLine
 10
9428.789152208327
 20
2684.768547337426
 30
0.0
 11
10798.78915220834
 21
2684.768547337426
 31
0.0
  0
LINE
  5
179D4
330
747D
100
AcDbEntity
  8
部品1
100
AcDbLine
 10
9428.789152208327
 20
2734.768547337426
 30
0.0
 11
9456.789152208342
 21
2734.768547337427
 31
0.0
  0
LINE
  5
179D5
330
747D
100
AcDbEntity
  8
破線
 48
5.0
100
AcDbLine
 10
10698.78915220834
 20
2584.768547337426
 30
0.0
 11
10698.78915220834
 21
2384.768547337425
 31
0.0
  0
LINE
  5
179D6
330
747D
100
AcDbEntity
  8
破線
 48
5.0
100
AcDbLine
 10
10898.78915220834
 20
2384.768547337424
 30
0.0
 11
10698.78915220834
 21
2384.768547337425
 31
0.0
  0
LINE
  5
179D7
330
747D
100
AcDbEntity
  8
破線
 48
5.0
100
AcDbLine
 10
10898.78915220834
 20
2584.768547337426
 30
0.0
 11
10898.78915220834
 21
2384.768547337424
 31
0.0
  0
LINE
  5
179D8
330
747D
100
AcDbEntity
  8
破線
 48
5.0
100
AcDbLine
 10
9518.789152208325
 20
2384.768547337426
 30
0.0
 11
9318.78915220833
 21
2384.768547337426
 31
0.0
  0
LINE
  5
179D9
330
747D
100
AcDbEntity
  8
破線
 48
5.0
100
AcDbLine
 10
9518.789152208329
 20
2584.768547337427
 30
0.0
 11
9518.789152208325
 21
2384.768547337426
 31
0.0
  0
LINE
  5
179DA
330
747D
100
AcDbEntity
  8
破線
 48
5.0
100
AcDbLine
 10
9318.78915220833
 20
2584.768547337427
 30
0.0
 11
9318.78915220833
 21
2384.768547337426
 31
0.0
  0
LINE
  5
17A66
330
747D
100
AcDbEntity
  8
部品1
 48
50.0
100
AcDbLine
 10
9456.789152208342
 20
2684.768547337426
 30
0.0
 11
10770.78915220834
 21
2684.768547337426
 31
0.0
  0
DIMENSION
  5
17A67
330
747D
100
AcDbEntity
  8
寸法
 48
50.0
100
AcDbDimension
  2
*D28
 10
9157.583122996191
 20
2742.768547337427
 30
0.0
 11
9157.583122996191
 21
3596.40156635495
 31
0.0
 70
   160
  1
有効開口部高サ<>
 71
     5
 42
1724.999999999998
  3
INABA_S40G
100
AcDbAlignedDimension
 13
9456.789152208342
 23
4467.768547337424
 33
0.0
 14
9456.789152208342
 24
2742.768547337426
 34
0.0
 50
90.0
100
AcDbRotatedDimension
1001
ACAD
1000
DSTYLE
1002
{
1070
   341
1005
0
1002
}
  0
DIMENSION
  5
17A7C
330
747D
100
AcDbEntity
  8
寸法
 48
50.0
100
AcDbDimension
  2
*D29
 10
9318.789152208324
 20
2098.721218037049
 30
0.0
 11
9418.789152208326
 21
2098.721218037049
 31
0.0
 70
   160
 71
     5
 42
200.0000000000018
  3
INABA_S40G
100
AcDbAlignedDimension
 13
9518.789152208325
 23
2384.768547337426
 33
0.0
 14
9318.789152208324
 24
2384.768547337426
 34
0.0
100
AcDbRotatedDimension
  0
LINE
  5
17F00
330
747D
100
AcDbEntity
  8
寸法
 48
50.0
100
AcDbLine
 10
9735.183321562875
 20
7799.670166077324
 30
0.0
 11
9683.77731365277
 21
7799.670166077324
 31
0.0
  0
LINE
  5
17F01
330
747D
100
AcDbEntity
  8
寸法
 48
50.0
100
AcDbLine
 10
9683.77731365277
 20
7799.670166077324
 30
0.0
 11
9683.77731365277
 21
7830.980324729489
 31
0.0
  0
LINE
  5
17F02
330
747D
100
AcDbEntity
  8
寸法
 48
50.0
100
AcDbLine
 10
9683.77731365277
 20
7830.980324729489
 30
0.0
 11
9654.015981661347
 21
7830.980324729489
 31
0.0
  0
LINE
  5
17F03
330
747D
100
AcDbEntity
  8
寸法
 48
50.0
100
AcDbLine
 10
9654.015981661347
 20
7830.980324729489
 30
0.0
 11
9709.480317607823
 21
7868.559775658098
 31
0.0
  0
LINE
  5
17F04
330
747D
100
AcDbEntity
  8
寸法
 48
50.0
100
AcDbLine
 10
9764.944653554298
 20
7830.980324729489
 30
0.0
 11
9709.480317607823
 21
7868.559775658098
 31
0.0
  0
LINE
  5
17F05
330
747D
100
AcDbEntity
  8
寸法
 48
50.0
100
AcDbLine
 10
9735.183321562875
 20
7830.980324729489
 30
0.0
 11
9764.944653554298
 21
7830.980324729489
 31
0.0
  0
LINE
  5
17F06
330
747D
100
AcDbEntity
  8
寸法
 48
50.0
100
AcDbLine
 10
9735.183321562875
 20
7799.670166077324
 30
0.0
 11
9735.183321562875
 21
7830.980324729489
 31
0.0
  0
LINE
  5
17F07
330
747D
100
AcDbEntity
  8
寸法
 48
50.0
100
AcDbLine
 10
9683.77731365277
 20
7799.670166077324
 30
0.0
 11
9735.183321562875
 21
7799.670166077324
 31
0.0
  0
LINE
  5
17F08
330
747D
100
AcDbEntity
  8
寸法
 48
50.0
100
AcDbLine
 10
10014.34885583973
 20
7856.815756832145
 30
0.0
 11
10014.34885583973
 21
7803.152122250356
 31
0.0
  0
LINE
  5
17F09
330
747D
100
AcDbEntity
  8
寸法
 48
50.0
100
AcDbLine
 10
10103.63307443515
 20
7832.89212256266
 30
0.0
 11
10014.34885583973
 21
7856.815756832145
 31
0.0
  0
LINE
  5
17F0A
330
747D
100
AcDbEntity
  8
寸法
 48
50.0
100
AcDbLine
 10
9884.481134259429
 20
7832.89212256266
 30
0.0
 11
10103.63307443515
 21
7832.89212256266
 31
0.0
  0
LINE
  5
17F0B
330
747D
100
AcDbEntity
  8
細線
 48
50.0
100
AcDbLine
 10
10352.78914805193
 20
7998.133529457184
 30
0.0
 11
10731.7891522082
 21
7998.133529457184
 31
0.0
  0
LINE
  5
17F0C
330
747D
100
AcDbEntity
  8
細線
 48
50.0
100
AcDbLine
 10
9946.789152208204
 20
7964.42476090311
 30
0.0
 11
10731.7891522082
 21
7964.42476090311
 31
0.0
  0
LINE
  5
17F0D
330
747D
100
AcDbEntity
  8
細線
 48
50.0
100
AcDbLine
 10
9905.789152208205
 20
7993.829668899362
 30
0.0
 11
9495.789152208201
 21
7993.82966889936
 31
0.0
  0
LINE
  5
17F0E
330
747D
100
AcDbEntity
  8
細線
100
AcDbLine
 10
10629.20759875162
 20
8022.633432062141
 30
0.0
 11
10563.87067533315
 21
8022.633432062127
 31
0.0
  0
LINE
  5
17F0F
330
747D
100
AcDbEntity
  8
細線
100
AcDbLine
 10
10631.53914522781
 20
8017.633414508461
 30
0.0
 11
10629.20759875162
 21
8022.633432062141
 31
0.0
  0
LINE
  5
17F10
330
747D
100
AcDbEntity
  8
細線
100
AcDbLine
 10
10561.53913581135
 20
8017.633429422195
 30
0.0
 11
10563.87067533316
 21
8022.633432062155
 31
0.0
  0
LINE
  5
17F11
330
747D
100
AcDbEntity
  8
細線
100
AcDbLine
 10
10421.53914522781
 20
8017.633414508461
 30
0.0
 11
10423.87068474962
 21
8022.633417148421
 31
0.0
  0
LINE
  5
17F12
330
747D
100
AcDbEntity
  8
細線
100
AcDbLine
 10
10491.53915464427
 20
8017.633399594727
 30
0.0
 11
10489.20760816808
 21
8022.633417148407
 31
0.0
  0
LINE
  5
17F13
330
747D
100
AcDbEntity
  8
細線
100
AcDbLine
 10
10489.20760816808
 20
8022.633417148407
 30
0.0
 11
10423.87068474961
 21
8022.633417148393
 31
0.0
  0
LINE
  5
17F14
330
747D
100
AcDbEntity
  8
細線
 48
50.0
100
AcDbLine
 10
10145.67194817226
 20
8001.904277661543
 30
0.0
 11
10151.42746575493
 21
7983.633426371055
 31
0.0
  0
LINE
  5
17F15
330
747D
100
AcDbEntity
  8
細線
 48
50.0
100
AcDbLine
 10
10134.74349969183
 20
8001.904277661543
 30
0.0
 11
10145.67194817226
 21
8001.904277661543
 31
0.0
  0
ARC
  5
17F16
330
747D
100
AcDbEntity
  8
細線
 48
50.0
100
AcDbCircle
 10
10129.28914363451
 20
8003.404277661543
 30
0.0
 40
5.0
100
AcDbArc
 50
204.6243183521304
 51
335.3756816478695
  0
ARC
  5
17F17
330
747D
100
AcDbEntity
  8
細線
 48
50.0
100
AcDbCircle
 10
10134.74349969183
 20
8000.904277661543
 30
0.0
 40
1.0
100
AcDbArc
 50
90.0
 51
155.3756816478695
  0
ARC
  5
17F18
330
747D
100
AcDbEntity
  8
細線
 48
50.0
100
AcDbCircle
 10
10123.83478757719
 20
8000.904277661543
 30
0.0
 40
1.0
100
AcDbArc
 50
24.62431835213048
 51
90.0
  0
LINE
  5
17F19
330
747D
100
AcDbEntity
  8
細線
 48
50.0
100
AcDbLine
 10
10112.90633909676
 20
8001.904277661543
 30
0.0
 11
10123.83478757719
 21
8001.904277661543
 31
0.0
  0
LINE
  5
17F1A
330
747D
100
AcDbEntity
  8
細線
 48
50.0
100
AcDbLine
 10
10107.15082151409
 20
7983.633426371048
 30
0.0
 11
10112.90633909676
 21
8001.904277661543
 31
0.0
  0
LINE
  5
17F1B
330
747D
100
AcDbEntity
  8
細線
100
AcDbLine
 10
10231.95757002484
 20
7988.633426409243
 30
0.0
 11
10166.62064660637
 21
7988.633426409227
 31
0.0
  0
LINE
  5
17F1C
330
747D
100
AcDbEntity
  8
細線
100
AcDbLine
 10
10234.28911650103
 20
7983.633408855562
 30
0.0
 11
10231.95757002484
 21
7988.633426409243
 31
0.0
  0
LINE
  5
17F1D
330
747D
100
AcDbEntity
  8
細線
100
AcDbLine
 10
10164.28910831562
 20
7983.633426409271
 30
0.0
 11
10166.62064660638
 21
7988.633426409257
 31
0.0
  0
LINE
  5
17F1E
330
747D
100
AcDbEntity
  8
細線
100
AcDbLine
 10
9776.789144022787
 20
7949.633606239129
 30
0.0
 11
9779.120682313555
 21
7954.633606239115
 31
0.0
  0
LINE
  5
17F1F
330
747D
100
AcDbEntity
  8
細線
100
AcDbLine
 10
9846.789152208202
 20
7949.633588685415
 30
0.0
 11
9844.457605732017
 21
7954.633606239093
 31
0.0
  0
LINE
  5
17F20
330
747D
100
AcDbEntity
  8
細線
100
AcDbLine
 10
9844.457605732017
 20
7954.633606239093
 30
0.0
 11
9779.120682313543
 21
7954.633606239086
 31
0.0
  0
ARC
  5
17F21
330
747D
100
AcDbEntity
  8
部品1
 48
0.01
100
AcDbCircle
 10
9656.289045609456
 20
7948.632484054056
 30
0.0
 40
0.5
100
AcDbArc
 50
270.0
 51
0.0
  0
LINE
  5
17F22
330
747D
100
AcDbEntity
  8
部品1
 48
0.01
100
AcDbLine
 10
9656.789045609457
 20
7949.632484054056
 30
0.0
 11
9656.789045609457
 21
7948.632484054056
 31
0.0
  0
LINE
  5
17F23
330
747D
100
AcDbEntity
  8
部品1
 48
0.01
100
AcDbLine
 10
9656.789045609457
 20
7949.632484054056
 30
0.0
 11
9656.789045609457
 21
7948.632484054056
 31
0.0
  0
LINE
  5
17F24
330
747D
100
AcDbEntity
  8
部品1
 48
0.01
100
AcDbLine
 10
9656.289045609456
 20
7948.132484054056
 30
0.0
 11
9649.676540179394
 21
7948.132484054056
 31
0.0
  0
ARC
  5
17F25
330
747D
100
AcDbEntity
  8
部品1
100
AcDbCircle
 10
9649.744889732172
 20
7949.132484054057
 30
0.0
 40
1.0
100
AcDbArc
 50
160.5287793655778
 51
270.0
  0
ARC
  5
17F26
330
747D
100
AcDbEntity
  8
部品1
100
AcDbCircle
 10
9624.289045609456
 20
7958.132484054056
 30
0.0
 40
26.0
100
AcDbArc
 50
340.5287793655779
 51
0.0
  0
LINE
  5
17F27
330
747D
100
AcDbEntity
  8
部品1
100
AcDbLine
 10
9650.289045609456
 20
7958.132484054056
 30
0.0
 11
9650.289045609456
 21
7963.132484054057
 31
0.0
  0
ARC
  5
17F28
330
747D
100
AcDbEntity
  8
部品1
 48
0.01
100
AcDbCircle
 10
9648.289045609455
 20
7963.132484054057
 30
0.0
 40
2.0
100
AcDbArc
 50
0.0
 51
90.0
  0
ARC
  5
17F29
330
747D
100
AcDbEntity
  8
部品1
100
AcDbCircle
 10
9646.680653984645
 20
7962.132484054056
 30
0.0
 40
3.0
100
AcDbArc
 50
90.0
 51
141.6069559807873
  0
LINE
  5
17F2A
330
747D
100
AcDbEntity
  8
部品1
 48
0.01
100
AcDbLine
 10
9648.289045609455
 20
7965.132484054056
 30
0.0
 11
9646.680653984645
 21
7965.132484054056
 31
0.0
  0
ARC
  5
17F2B
330
747D
100
AcDbEntity
  8
部品1
100
AcDbCircle
 10
9628.218331395185
 20
7961.432484054059
 30
0.0
 40
3.0
100
AcDbArc
 50
254.0576313943215
 51
270.0
  0
ARC
  5
17F2C
330
747D
100
AcDbEntity
  8
部品1
100
AcDbCircle
 10
9635.359759823728
 20
7961.432484054059
 30
0.0
 40
3.0
100
AcDbArc
 50
270.0
 51
285.9423686056786
  0
LINE
  5
17F2D
330
747D
100
AcDbEntity
  8
部品1
100
AcDbLine
 10
9635.359759823728
 20
7958.432484054059
 30
0.0
 11
9628.218331395185
 21
7958.432484054059
 31
0.0
  0
ARC
  5
17F2E
330
747D
100
AcDbEntity
  8
部品1
100
AcDbCircle
 10
9631.789045609457
 20
7973.932484054059
 30
0.0
 40
16.0
100
AcDbArc
 50
285.9423686056786
 51
321.6069559807873
  0
LINE
  5
17F2F
330
747D
100
AcDbEntity
  8
部品1
 48
0.01
100
AcDbLine
 10
9615.289045609456
 20
7965.132484054056
 30
0.0
 11
9616.897437234268
 21
7965.132484054056
 31
0.0
  0
ARC
  5
17F30
330
747D
100
AcDbEntity
  8
部品1
100
AcDbCircle
 10
9616.897437234268
 20
7962.132484054056
 30
0.0
 40
3.0
100
AcDbArc
 50
38.39304401921267
 51
90.0
  0
ARC
  5
17F31
330
747D
100
AcDbEntity
  8
部品1
100
AcDbCircle
 10
9631.789045609457
 20
7973.932484054059
 30
0.0
 40
16.0
100
AcDbArc
 50
218.3930440192126
 51
254.0576313943215
  0
LINE
  5
17F32
330
747D
100
AcDbEntity
  8
部品1
100
AcDbLine
 10
9613.289045609455
 20
7958.132484054056
 30
0.0
 11
9613.289045609455
 21
7963.132484054057
 31
0.0
  0
ARC
  5
17F33
330
747D
100
AcDbEntity
  8
部品1
 48
0.01
100
AcDbCircle
 10
9615.289045609456
 20
7963.132484054057
 30
0.0
 40
2.0
100
AcDbArc
 50
90.0
 51
180.0
  0
ARC
  5
17F34
330
747D
100
AcDbEntity
  8
部品1
100
AcDbCircle
 10
9639.289045609457
 20
7958.132484054056
 30
0.0
 40
26.0
100
AcDbArc
 50
180.0
 51
199.4712206344221
  0
ARC
  5
17F35
330
747D
100
AcDbEntity
  8
部品1
 48
0.01
100
AcDbCircle
 10
9607.289045609455
 20
7948.632484054056
 30
0.0
 40
0.5
100
AcDbArc
 50
180.0
 51
270.0
  0
LINE
  5
17F36
330
747D
100
AcDbEntity
  8
部品1
 48
0.01
100
AcDbLine
 10
9607.289045609455
 20
7948.132484054056
 30
0.0
 11
9613.833201486739
 21
7948.132484054056
 31
0.0
  0
LINE
  5
17F37
330
747D
100
AcDbEntity
  8
部品1
 48
0.01
100
AcDbLine
 10
9606.789045609456
 20
7949.632484054056
 30
0.0
 11
9606.789045609456
 21
7948.632484054056
 31
0.0
  0
ARC
  5
17F38
330
747D
100
AcDbEntity
  8
部品1
100
AcDbCircle
 10
9613.833201486739
 20
7949.132484054057
 30
0.0
 40
1.0
100
AcDbArc
 50
270.0
 51
19.47122063442214
  0
LINE
  5
17F39
330
747D
100
AcDbEntity
  8
細線
100
AcDbLine
 10
9652.289045609464
 20
7967.63248405406
 30
0.0
 11
9611.289045609463
 21
7967.632484054053
 31
0.0
  0
LINE
  5
17F3A
330
747D
100
AcDbEntity
  8
細線
100
AcDbLine
 10
9611.289045609463
 20
7967.632484054053
 30
0.0
 11
9611.289045609463
 21
7949.632484054035
 31
0.0
  0
LINE
  5
17F3B
330
747D
100
AcDbEntity
  8
細線
100
AcDbLine
 10
9652.289045609464
 20
7967.63248405406
 30
0.0
 11
9652.289045609464
 21
7949.632484054035
 31
0.0
  0
LINE
  5
17F3C
330
747D
100
AcDbEntity
  8
細線
100
AcDbLine
 10
9495.789152208201
 20
7953.633414508461
 30
0.0
 11
9495.789152208201
 21
7949.633414508507
 31
0.0
  0
LINE
  5
17F3E
330
747D
100
AcDbEntity
  8
部品1
100
AcDbLine
 10
10743.7891522082
 20
8021.63341450846
 30
0.0
 11
10770.7891522082
 21
8021.63341450846
 31
0.0
  0
LINE
  5
17F40
330
747D
100
AcDbEntity
  8
部品1
100
AcDbLine
 10
10770.7891522082
 20
7944.63341450846
 30
0.0
 11
10770.7891522082
 21
8021.63341450846
 31
0.0
  0
LINE
  5
17F41
330
747D
100
AcDbEntity
  8
部品1
100
AcDbLine
 10
10731.7891522082
 20
8017.633414508461
 30
0.0
 11
10743.7891522082
 21
8017.633414508461
 31
0.0
  0
LINE
  5
17F42
330
747D
100
AcDbEntity
  8
部品1
100
AcDbLine
 10
10740.7891522082
 20
7953.633414508461
 30
0.0
 11
10740.7891522082
 21
7944.63341450846
 31
0.0
  0
LINE
  5
17F43
330
747D
100
AcDbEntity
  8
部品1
100
AcDbLine
 10
10731.7891522082
 20
7953.633414508461
 30
0.0
 11
10740.7891522082
 21
7953.633414508461
 31
0.0
  0
LINE
  5
17F44
330
747D
100
AcDbEntity
  8
部品1
100
AcDbLine
 10
10731.7891522082
 20
8017.633414508461
 30
0.0
 11
10731.7891522082
 21
7953.633414508461
 31
0.0
  0
LINE
  5
17F45
330
747D
100
AcDbEntity
  8
部品1
100
AcDbLine
 10
10743.7891522082
 20
8048.63341450846
 30
0.0
 11
10743.7891522082
 21
8017.633414508461
 31
0.0
  0
LINE
  5
17F46
330
747D
100
AcDbEntity
  8
部品1
100
AcDbLine
 10
9495.789152208201
 20
8017.633414508461
 30
0.0
 11
9483.789152208201
 21
8017.633414508461
 31
0.0
  0
LINE
  5
17F47
330
747D
100
AcDbEntity
  8
部品1
100
AcDbLine
 10
9456.7891522082
 20
8021.63341450846
 30
0.0
 11
9483.789152208201
 21
8021.63341450846
 31
0.0
  0
LINE
  5
17F48
330
747D
100
AcDbEntity
  8
部品1
100
AcDbLine
 10
9486.789152208201
 20
7953.633414508461
 30
0.0
 11
9486.789152208201
 21
7944.63341450846
 31
0.0
  0
LINE
  5
17F49
330
747D
100
AcDbEntity
  8
部品1
100
AcDbLine
 10
9495.789152208201
 20
7953.633414508461
 30
0.0
 11
9486.789152208201
 21
7953.633414508461
 31
0.0
  0
LINE
  5
17F4A
330
747D
100
AcDbEntity
  8
部品1
100
AcDbLine
 10
9486.789152208201
 20
7944.63341450846
 30
0.0
 11
9456.7891522082
 21
7944.63341450846
 31
0.0
  0
LINE
  5
17F4B
330
747D
100
AcDbEntity
  8
部品1
100
AcDbLine
 10
9456.7891522082
 20
7944.63341450846
 30
0.0
 11
9456.7891522082
 21
8021.63341450846
 31
0.0
  0
LINE
  5
17F4C
330
747D
100
AcDbEntity
  8
部品1
100
AcDbLine
 10
9495.789152208201
 20
8017.633414508461
 30
0.0
 11
9495.789152208201
 21
7953.633414508461
 31
0.0
  0
LINE
  5
17F4D
330
747D
100
AcDbEntity
  8
部品1
100
AcDbLine
 10
9483.789152208201
 20
8048.633414508456
 30
0.0
 11
9483.789152208201
 21
8017.633414508461
 31
0.0
  0
LINE
  5
17F4E
330
747D
100
AcDbEntity
  8
部品1
100
AcDbLine
 10
9483.789152208201
 20
8048.633414508456
 30
0.0
 11
10743.7891522082
 21
8048.63341450846
 31
0.0
  0
LINE
  5
17F4F
330
747D
100
AcDbEntity
  8
部品1
100
AcDbLine
 10
9486.789152208201
 20
7944.63341450846
 30
0.0
 11
10770.7891522082
 21
7944.633414508459
 31
0.0
  0
LINE
  5
17F50
330
747D
100
AcDbEntity
  8
細線
 48
50.0
100
AcDbLine
 10
9509.789156861792
 20
7970.233588685414
 30
0.0
 11
9509.789156861792
 21
7978.629739093054
 31
0.0
  0
LINE
  5
17F51
330
747D
100
AcDbEntity
  8
細線
 48
50.0
100
AcDbLine
 10
9509.789156861792
 20
7978.629739093054
 30
0.0
 11
9495.789152208201
 21
7978.62973909305
 31
0.0
  0
LINE
  5
17F52
330
747D
100
AcDbEntity
  8
細線
 48
50.0
100
AcDbLine
 10
9486.789152208201
 20
7949.630923028884
 30
0.0
 11
9776.789152208202
 21
7949.634559154837
 31
0.0
  0
LINE
  5
17F53
330
747D
100
AcDbEntity
  8
細線
 48
50.0
100
AcDbLine
 10
9846.789152208208
 20
7949.633588685414
 30
0.0
 11
9946.789152208204
 21
7949.633588685415
 31
0.0
  0
LINE
  5
17F54
330
747D
100
AcDbEntity
  8
細線
 48
50.0
100
AcDbLine
 10
9719.650830087786
 20
7949.633588685415
 30
0.0
 11
9725.406347670457
 21
7967.904439975909
 31
0.0
  0
LINE
  5
17F55
330
747D
100
AcDbEntity
  8
細線
 48
50.0
100
AcDbLine
 10
9725.406347670457
 20
7967.904439975909
 30
0.0
 11
9736.334796150888
 21
7967.904439975907
 31
0.0
  0
ARC
  5
17F56
330
747D
100
AcDbEntity
  8
細線
 48
50.0
100
AcDbCircle
 10
9736.334796150888
 20
7966.904439975905
 30
0.0
 40
1.0
100
AcDbArc
 50
24.62431835213048
 51
90.0
  0
ARC
  5
17F57
330
747D
100
AcDbEntity
  8
細線
 48
50.0
100
AcDbCircle
 10
9747.243508265524
 20
7966.904439975905
 30
0.0
 40
1.0
100
AcDbArc
 50
90.0
 51
155.3756816478695
  0
ARC
  5
17F58
330
747D
100
AcDbEntity
  8
細線
 48
50.0
100
AcDbCircle
 10
9741.789152208205
 20
7969.404439975907
 30
0.0
 40
5.0
100
AcDbArc
 50
204.6243183521304
 51
335.3756816478695
  0
LINE
  5
17F59
330
747D
100
AcDbEntity
  8
細線
 48
50.0
100
AcDbLine
 10
9747.243508265524
 20
7967.904439975907
 30
0.0
 11
9758.171956745956
 21
7967.904439975909
 31
0.0
  0
LINE
  5
17F5A
330
747D
100
AcDbEntity
  8
細線
 48
50.0
100
AcDbLine
 10
9758.171956745956
 20
7967.904439975909
 30
0.0
 11
9763.927474328625
 21
7949.633588685415
 31
0.0
  0
LINE
  5
17F5B
330
747D
100
AcDbEntity
  8
細線
 48
50.0
100
AcDbLine
 10
10322.78914339834
 20
8004.233632543277
 30
0.0
 11
9935.789152208201
 21
8004.233632543277
 31
0.0
  0
LINE
  5
17F5C
330
747D
100
AcDbEntity
  8
細線
 48
50.0
100
AcDbLine
 10
10714.8891522082
 20
8047.633414508458
 30
0.0
 11
10326.78914805193
 21
8047.633414508457
 31
0.0
  0
LINE
  5
17F5D
330
747D
100
AcDbEntity
  8
細線
 48
50.0
100
AcDbLine
 10
10741.2891522082
 20
8042.633414508463
 30
0.0
 11
10724.8891522082
 21
8042.633414508461
 31
0.0
  0
LINE
  5
17F5E
330
747D
100
AcDbEntity
  8
細線
 48
50.0
100
AcDbLine
 10
10724.8891522082
 20
8042.633414508461
 30
0.0
 11
10714.8891522082
 21
8047.63341450846
 31
0.0
  0
LINE
  5
17F5F
330
747D
100
AcDbEntity
  8
細線
100
AcDbLine
 10
10516.53914522781
 20
8017.633414508461
 30
0.0
 11
10516.53914522781
 21
8046.93341450846
 31
0.0
  0
LINE
  5
17F60
330
747D
100
AcDbEntity
  8
細線
100
AcDbLine
 10
10516.53914522781
 20
8046.93341450846
 30
0.0
 11
10536.53914522781
 21
8046.93341450846
 31
0.0
  0
LINE
  5
17F61
330
747D
100
AcDbEntity
  8
細線
100
AcDbLine
 10
10536.53914522781
 20
8017.633414508461
 30
0.0
 11
10536.53914522781
 21
8046.93341450846
 31
0.0
  0
LINE
  5
17F62
330
747D
100
AcDbEntity
  8
細線
 48
50.0
100
AcDbLine
 10
10421.53914522781
 20
8017.633414508463
 30
0.0
 11
10344.58492762472
 21
8017.633414508463
 31
0.0
  0
LINE
  5
17F63
330
747D
100
AcDbEntity
  8
細線
100
AcDbLine
 10
10561.53914522781
 20
8017.633414508461
 30
0.0
 11
10491.53914522781
 21
8017.633414508461
 31
0.0
  0
LINE
  5
17F64
330
747D
100
AcDbEntity
  8
細線
100
AcDbLine
 10
10731.7891522082
 20
8017.633414508461
 30
0.0
 11
10631.53914522781
 21
8017.633414508463
 31
0.0
  0
LINE
  5
17F65
330
747D
100
AcDbEntity
  8
細線
 48
50.0
100
AcDbLine
 10
10741.2891522082
 20
8042.633414508463
 30
0.0
 11
10741.2891522082
 21
8017.633414508461
 31
0.0
  0
ARC
  5
17F66
330
747D
100
AcDbEntity
  8
細線
 48
50.0
100
AcDbCircle
 10
9946.556458084051
 20
7982.633435676735
 30
0.0
 40
1.0
100
AcDbArc
 50
90.0003999466794
 51
165.0005554812987
  0
LINE
  5
17F67
330
747D
100
AcDbEntity
  8
細線
 48
50.0
100
AcDbLine
 10
9946.556451103667
 20
7983.63343567671
 30
0.0
 11
9947.498211254572
 21
7983.633442250559
 31
0.0
  0
ARC
  5
17F68
330
747D
100
AcDbEntity
  8
細線
 48
50.0
100
AcDbCircle
 10
9937.021820282712
 20
7982.633240986439
 30
0.0
 40
1.0
100
AcDbArc
 50
15.00104430493943
 51
90.00093320877969
  0
LINE
  5
17F69
330
747D
100
AcDbEntity
  8
細線
 48
50.0
100
AcDbLine
 10
9937.987741391459
 20
7982.892077637001
 30
0.0
 11
9938.23551088797
 21
7981.967456698419
 31
0.0
  0
ARC
  5
17F6A
330
747D
100
AcDbEntity
  8
細線
 48
50.0
100
AcDbCircle
 10
9939.974168883717
 20
7982.433362669437
 30
0.0
 40
1.8
100
AcDbArc
 50
195.0010443049394
 51
270.0006665777295
  0
LINE
  5
17F6B
330
747D
100
AcDbEntity
  8
細線
 48
50.0
100
AcDbLine
 10
9943.604117243637
 20
7980.633404900038
 30
0.0
 11
9939.974189824871
 21
7980.633362669557
 31
0.0
  0
LINE
  5
17F6C
330
747D
100
AcDbEntity
  8
細線
 48
50.0
100
AcDbLine
 10
9945.590529748564
 20
7982.892245357196
 30
0.0
 11
9945.342767306364
 21
7981.96754747509
 31
0.0
  0
ARC
  5
17F6D
330
747D
100
AcDbEntity
  8
細線
 48
50.0
100
AcDbCircle
 10
9943.604096302482
 20
7982.433404899918
 30
0.0
 40
1.8
100
AcDbArc
 50
270.0006665777295
 51
345.0005554812987
  0
LINE
  5
17F6E
330
747D
100
AcDbEntity
  8
細線
 48
50.0
100
AcDbLine
 10
9925.789114640439
 20
7983.633058033158
 30
0.0
 11
9937.021803995147
 21
7983.633240986304
 31
0.0
  0
LINE
  5
17F6F
330
747D
100
AcDbEntity
  8
細線
 48
50.0
100
AcDbLine
 10
9925.789114640439
 20
7983.633058033158
 30
0.0
 11
9925.789159509379
 21
7975.02959639735
 31
0.0
  0
LINE
  5
17F70
330
747D
100
AcDbEntity
  8
細線
 48
50.0
100
AcDbLine
 10
9905.789152208205
 20
7975.029554847807
 30
0.0
 11
9925.789159509379
 21
7975.02959639735
 31
0.0
  0
LINE
  5
17F71
330
747D
100
AcDbEntity
  8
細線
 48
50.0
100
AcDbLine
 10
9905.789152208205
 20
8012.629782950918
 30
0.0
 11
9905.789152208205
 21
7975.029554847807
 31
0.0
  0
LINE
  5
17F72
330
747D
100
AcDbEntity
  8
細線
 48
50.0
100
AcDbLine
 10
9920.789152208204
 20
8012.629782950922
 30
0.0
 11
9905.789152208205
 21
8012.629782950918
 31
0.0
  0
LINE
  5
17F73
330
747D
100
AcDbEntity
  8
細線
 48
50.0
100
AcDbLine
 10
9920.789152208204
 20
8005.629782950922
 30
0.0
 11
9920.789152208204
 21
8012.629782950922
 31
0.0
  0
LINE
  5
17F74
330
747D
100
AcDbEntity
  8
細線
 48
50.0
100
AcDbLine
 10
9935.789152208203
 20
8005.629782950922
 30
0.0
 11
9920.789152208204
 21
8005.629782950922
 31
0.0
  0
LINE
  5
17F75
330
747D
100
AcDbEntity
  8
細線
 48
50.0
100
AcDbLine
 10
9935.789152208203
 20
8001.129782950922
 30
0.0
 11
9935.789152208203
 21
8005.629782950922
 31
0.0
  0
LINE
  5
17F76
330
747D
100
AcDbEntity
  8
細線
 48
50.0
100
AcDbLine
 10
9946.789152208204
 20
7978.633588685416
 30
0.0
 11
9946.789152208204
 21
7949.633588685415
 31
0.0
  0
LINE
  5
17F77
330
747D
100
AcDbEntity
  8
細線
 48
50.0
100
AcDbLine
 10
9931.789152208205
 20
7978.633588685416
 30
0.0
 11
9946.789152208204
 21
7978.633588685416
 31
0.0
  0
LINE
  5
17F78
330
747D
100
AcDbEntity
  8
細線
 48
50.0
100
AcDbLine
 10
9931.789152208203
 20
7971.633588685415
 30
0.0
 11
9931.789152208205
 21
7978.633588685416
 31
0.0
  0
LINE
  5
17F79
330
747D
100
AcDbEntity
  8
細線
 48
50.0
100
AcDbLine
 10
9916.789152208203
 20
7971.633588685415
 30
0.0
 11
9931.789152208203
 21
7971.633588685415
 31
0.0
  0
LINE
  5
17F7A
330
747D
100
AcDbEntity
  8
細線
 48
50.0
100
AcDbLine
 10
9916.789152208203
 20
7966.783588685413
 30
0.0
 11
9916.789152208203
 21
7971.633588685415
 31
0.0
  0
LINE
  5
17F7B
330
747D
100
AcDbEntity
  8
細線
 48
50.0
100
AcDbLine
 10
9916.789152208203
 20
7970.233588685413
 30
0.0
 11
9509.789156861792
 21
7970.233588685414
 31
0.0
  0
LINE
  5
17F7C
330
747D
100
AcDbEntity
  8
細線
 48
50.0
100
AcDbLine
 10
10024.28914290101
 20
7983.633431701766
 30
0.0
 11
9940.19459287743
 21
7983.633442288781
 31
0.0
  0
LINE
  5
17F7D
330
747D
100
AcDbEntity
  8
細線
 48
50.0
100
AcDbLine
 10
10164.28910831562
 20
7983.633426409271
 30
0.0
 11
10094.28909102774
 21
7983.633426409278
 31
0.0
  0
LINE
  5
17F7E
330
747D
100
AcDbEntity
  8
細線
100
AcDbLine
 10
10091.95760534373
 20
7988.633434596607
 30
0.0
 11
10026.62068192526
 21
7988.633434596597
 31
0.0
  0
LINE
  5
17F7F
330
747D
100
AcDbEntity
  8
細線
100
AcDbLine
 10
10094.28915181992
 20
7983.633417042931
 30
0.0
 11
10091.95760534373
 21
7988.633434596607
 31
0.0
  0
LINE
  5
17F80
330
747D
100
AcDbEntity
  8
細線
100
AcDbLine
 10
10024.28914363451
 20
7983.63343459664
 30
0.0
 11
10026.62068192528
 21
7988.633434596626
 31
0.0
  0
LINE
  5
17F81
330
747D
100
AcDbEntity
  8
細線
 48
50.0
100
AcDbLine
 10
10311.78914805193
 20
8009.633414508463
 30
0.0
 11
10311.78914805193
 21
8047.633414508457
 31
0.0
  0
LINE
  5
17F82
330
747D
100
AcDbEntity
  8
細線
 48
50.0
100
AcDbLine
 10
10311.78914805193
 20
8047.633414508457
 30
0.0
 11
10326.78914805193
 21
8047.63341450846
 31
0.0
  0
LINE
  5
17F83
330
747D
100
AcDbEntity
  8
細線
 48
50.0
100
AcDbLine
 10
10326.78914805193
 20
8047.63341450846
 30
0.0
 11
10326.78914805193
 21
8042.633414508461
 31
0.0
  0
LINE
  5
17F84
330
747D
100
AcDbEntity
  8
細線
 48
50.0
100
AcDbLine
 10
10311.78914805193
 20
8009.633414508463
 30
0.0
 11
10331.78914805193
 21
8009.63341450846
 31
0.0
  0
LINE
  5
17F85
330
747D
100
AcDbEntity
  8
細線
 48
50.0
100
AcDbLine
 10
10331.78914805193
 20
8009.63341450846
 30
0.0
 11
10331.78914805193
 21
8017.633414508461
 31
0.0
  0
LINE
  5
17F86
330
747D
100
AcDbEntity
  8
細線
 48
50.0
100
AcDbLine
 10
10337.78914805193
 20
8016.833414508461
 30
0.0
 11
10337.78914805193
 21
8015.333414508461
 31
0.0
  0
LINE
  5
17F87
330
747D
100
AcDbEntity
  8
細線
 48
50.0
100
AcDbLine
 10
10338.48914805193
 20
8014.633414508461
 30
0.0
 11
10343.08914805193
 21
8014.633414508461
 31
0.0
  0
LINE
  5
17F88
330
747D
100
AcDbEntity
  8
細線
 48
50.0
100
AcDbLine
 10
10343.78914805193
 20
8015.333414508461
 30
0.0
 11
10343.78915487704
 21
8016.83342939995
 31
0.0
  0
ARC
  5
17F89
330
747D
100
AcDbEntity
  8
細線
 48
50.0
100
AcDbCircle
 10
10343.08914805193
 20
8015.333414508461
 30
0.0
 40
0.7
100
AcDbArc
 50
270.0
 51
0.0
  0
ARC
  5
17F8A
330
747D
100
AcDbEntity
  8
細線
 48
50.0
100
AcDbCircle
 10
10338.48914805193
 20
8015.333414508461
 30
0.0
 40
0.7
100
AcDbArc
 50
180.0
 51
270.0
  0
LINE
  5
17F8B
330
747D
100
AcDbEntity
  8
細線
 48
50.0
100
AcDbLine
 10
10336.98914991337
 20
8017.633414508461
 30
0.0
 11
10331.78914805193
 21
8017.633414508461
 31
0.0
  0
ARC
  5
17F8C
330
747D
100
AcDbEntity
  8
細線
 48
50.0
100
AcDbCircle
 10
10344.58915487703
 20
8016.833425677077
 30
0.0
 40
0.8
100
AcDbArc
 50
90.00014387753465
 51
179.9997333689498
  0
ARC
  5
17F8D
330
747D
100
AcDbEntity
  8
細線
 48
50.0
100
AcDbCircle
 10
10336.98914805194
 20
8016.833414508461
 30
0.0
 40
0.8
100
AcDbArc
 50
359.9997333689499
 51
89.99986668437072
  0
LINE
  5
17F8E
330
747D
100
AcDbEntity
  8
細線
 48
50.0
100
AcDbLine
 10
10234.28910833342
 20
7983.633426371048
 30
0.0
 11
10352.78914290102
 21
7983.633426371048
 31
0.0
  0
LINE
  5
17F8F
330
747D
100
AcDbEntity
  8
細線
 48
50.0
100
AcDbLine
 10
10352.78915320284
 20
8012.633632543325
 30
0.0
 11
10352.78914290102
 21
7983.633426371051
 31
0.0
  0
LINE
  5
17F90
330
747D
100
AcDbEntity
  8
細線
 48
50.0
100
AcDbLine
 10
10337.78915503231
 20
8012.633632543325
 30
0.0
 11
10352.78915320284
 21
8012.633632543325
 31
0.0
  0
LINE
  5
17F91
330
747D
100
AcDbEntity
  8
細線
 48
50.0
100
AcDbLine
 10
10337.78914339834
 20
8005.633632543281
 30
0.0
 11
10337.78915503231
 21
8012.633632543325
 31
0.0
  0
LINE
  5
17F92
330
747D
100
AcDbEntity
  8
細線
 48
50.0
100
AcDbLine
 10
10322.78914339834
 20
8005.633632543281
 30
0.0
 11
10337.78914339834
 21
8005.633632543281
 31
0.0
  0
LINE
  5
17F93
330
747D
100
AcDbEntity
  8
細線
 48
50.0
100
AcDbLine
 10
10322.78914339834
 20
8000.783632543281
 30
0.0
 11
10322.78914339834
 21
8005.633632543281
 31
0.0
  0
LINE
  5
17F94
330
747D
100
AcDbEntity
  8
細線
  6
Continuous
 62
     5
100
AcDbLine
 10
10324.78914805193
 20
8002.633414508457
 30
0.0
 11
10324.78914805193
 21
8002.633414508457
 31
0.0
  0
LINE
  5
17F95
330
747D
100
AcDbEntity
  8
細線
  6
Continuous
 62
     5
100
AcDbLine
 10
10256.78915735911
 20
7983.633414508457
 30
0.0
 11
10256.78915735911
 21
7983.633414508457
 31
0.0
  0
LINE
  5
18659
330
747D
100
AcDbEntity
  8
部品1
100
AcDbLine
 10
10495.52448546817
 20
6547.590289734826
 30
0.0
 11
9732.053819239736
 21
6547.590289734826
 31
0.0
  0
LINE
  5
1865A
330
747D
100
AcDbEntity
  8
部品1
100
AcDbLine
 10
10495.52448546817
 20
6307.697968189294
 30
0.0
 11
10495.52448546817
 21
6547.590289734826
 31
0.0
  0
LINE
  5
1865B
330
747D
100
AcDbEntity
  8
部品1
100
AcDbLine
 10
9732.053819239736
 20
6307.697968189294
 30
0.0
 11
10495.52448546817
 21
6307.697968189294
 31
0.0
  0
LINE
  5
1865C
330
747D
100
AcDbEntity
  8
部品1
100
AcDbLine
 10
9732.053819239736
 20
6547.590289734826
 30
0.0
 11
9732.053819239736
 21
6307.697968189294
 31
0.0
  0
TEXT
  5
186A0
330
747D
100
AcDbEntity
  8
部品1
100
AcDbText
 10
9821.973429068773
 20
6354.696760516302
 30
0.0
 40
135.0
  1
平面図
  7
STYLE2
100
AcDbText
  0
DIMENSION
  5
18A07
330
747D
100
AcDbEntity
  8
寸法
100
AcDbDimension
  2
*D31
 10
10798.7891522083
 20
6859.944586794641
 30
0.0
 11
10111.21113696871
 21
6859.944586794641
 31
0.0
 70
   160
 71
     5
 42
1370.000000000078
  3
INABA_S40G
100
AcDbAlignedDimension
 13
9428.789152208223
 23
8021.633414508473
 33
0.0
 14
10798.7891522083
 24
8021.633414508446
 34
0.0
100
AcDbRotatedDimension
1001
ACAD
1000
DSTYLE
1002
{
1002
}
  0
DIMENSION
  5
18A08
330
747D
100
AcDbEntity
  8
寸法
 48
50.0
100
AcDbDimension
  2
*D32
 10
10770.7891522082
 20
7094.021550504367
 30
0.0
 11
10113.7891522082
 21
7094.021550504367
 31
0.0
 70
   160
 71
     5
 42
1314.0
  3
INABA_S40G
100
AcDbAlignedDimension
 13
9456.7891522082
 23
7944.633414508459
 33
0.0
 14
10770.7891522082
 24
7944.633414508459
 34
0.0
100
AcDbRotatedDimension
1001
ACAD
1000
DSTYLE
1002
{
1070
   341
1005
0
1002
}
  0
DIMENSION
  5
18A09
330
747D
100
AcDbEntity
  8
寸法
 48
50.0
100
AcDbDimension
  2
*D33
 10
10169.7891522082
 20
7320.504039811156
 30
0.0
 11
9832.789152208201
 21
7320.504039811156
 31
0.0
 70
   160
  1
有効開口部間口\P<>
 71
     5
 42
674.0
  3
INABA_S40G
100
AcDbAlignedDimension
 13
9495.789152208201
 23
7944.633414508459
 33
0.0
 14
10169.7891522082
 24
7944.633414508459
 34
0.0
100
AcDbRotatedDimension
1001
ACAD
1000
DSTYLE
1002
{
1070
   341
1005
0
1002
}
  0
DIMENSION
  5
18A0A
330
747D
100
AcDbEntity
  8
寸法
100
AcDbDimension
  2
*D30
 10
9134.177906581506
 20
7946.633414508458
 30
0.0
 11
9134.177906581504
 21
7806.148133134221
 31
0.0
 70
   160
 71
     5
 42
75.0
  3
INABA_S40
100
AcDbAlignedDimension
 13
9428.789152208223
 23
8021.633414508459
 33
0.0
 14
9456.7891522082
 24
7946.633414508458
 34
0.0
 50
90.0
100
AcDbRotatedDimension
1001
ACAD
1000
DSTYLE
1002
{
1070
    41
1040
0.5
1070
    44
1040
1.0
1070
   147
1040
0.8
1070
   271
1070
     2
1070
   272
1070
     2
1070
   289
1070
     3
1070
   340
1005
F706
1070
   343
1005
16508
1070
   344
1005
16508
1002
}
  0
LINE
  5
18B10
330
747D
100
AcDbEntity
  8
破線
 48
10.0
100
AcDbLine
 10
9485.289152208427
 20
8756.13341450847
 30
0.0
 11
10318.78915220832
 21
8756.13341450847
 31
0.0
  0
LINE
  5
18B11
330
747D
100
AcDbEntity
  8
破線
 48
10.0
100
AcDbLine
 10
9485.289152208425
 20
8806.133414508467
 30
0.0
 11
10318.78915220832
 21
8806.133414508467
 31
0.0
  0
LINE
  5
18B12
330
747D
100
AcDbEntity
  8
破線
 48
10.0
100
AcDbLine
 10
9485.289152208393
 20
9497.133414508468
 30
0.0
 11
10318.78915220833
 21
9497.133414508471
 31
0.0
  0
LINE
  5
18B13
330
747D
100
AcDbEntity
  8
破線
 48
10.0
100
AcDbLine
 10
9485.289152208393
 20
9447.133414508471
 30
0.0
 11
10318.78915220833
 21
9447.133414508469
 31
0.0
  0
LWPOLYLINE
  5
18B4E
330
747D
100
AcDbEntity
  8
部品1
 48
50.0
100
AcDbPolyline
 90
        4
 70
     1
 43
0.0
 10
9555.839152208326
 20
3581.018547337414
 10
9558.739152208328
 20
3581.018547337414
 10
9558.739152208328
 20
3590.518547337414
 10
9555.839152208326
 20
3590.518547337414
  0
CIRCLE
  5
18B4F
330
747D
100
AcDbEntity
  8
部品1
 48
50.0
100
AcDbCircle
 10
9557.289152208326
 20
3585.768547337414
 30
0.0
 40
9.0
  0
ARC
  5
18B50
330
747D
100
AcDbEntity
  8
細線
 48
50.0
100
AcDbCircle
 10
9557.289152208326
 20
3585.768547337414
 30
0.0
 40
4.0
100
AcDbArc
 50
111.2538091853132
 51
248.7461908146868
  0
ARC
  5
18B51
330
747D
100
AcDbEntity
  8
細線
 48
50.0
100
AcDbCircle
 10
9557.289152208326
 20
3585.768547337414
 30
0.0
 40
17.5
100
AcDbArc
 50
306.4837370612677
 51
233.5162629387323
  0
LINE
  5
18B52
330
747D
100
AcDbEntity
  8
細線
 48
50.0
100
AcDbLine
 10
9567.289152208322
 20
3561.909586756531
 30
0.0
 11
9567.289152208326
 21
3570.894072556773
 31
0.0
  0
LINE
  5
18B53
330
747D
100
AcDbEntity
  8
細線
 48
50.0
100
AcDbLine
 10
9547.289152208326
 20
3561.909586756533
 30
0.0
 11
9547.289152208326
 21
3570.894072556769
 31
0.0
  0
ARC
  5
18B54
330
747D
100
AcDbEntity
  8
細線
 48
50.0
100
AcDbCircle
 10
9557.289152208326
 20
3585.768547337414
 30
0.0
 40
26.5
100
AcDbArc
 50
249.3326835063939
 51
290.6673164933835
  0
ARC
  5
18B55
330
747D
100
AcDbEntity
  8
細線
 48
50.0
100
AcDbCircle
 10
9566.289152208319
 20
3561.909586756531
 30
0.0
 40
1.0
100
AcDbArc
 50
290.6673164936062
 51
359.9999999998958
  0
ARC
  5
18B56
330
747D
100
AcDbEntity
  8
細線
 48
50.0
100
AcDbCircle
 10
9548.289152208326
 20
3561.909586756533
 30
0.0
 40
1.0
100
AcDbArc
 50
180.0
 51
249.3326835066164
  0
ARC
  5
18B57
330
747D
100
AcDbEntity
  8
細線
 48
50.0
100
AcDbCircle
 10
9546.289152208327
 20
3570.894072556769
 30
0.0
 40
1.0
100
AcDbArc
 50
0.0
 51
53.51626293873231
  0
ARC
  5
18B58
330
747D
100
AcDbEntity
  8
細線
 48
50.0
100
AcDbCircle
 10
9568.289152208331
 20
3570.894072556773
 30
0.0
 40
1.0
100
AcDbArc
 50
126.4837370615127
 51
180.0
  0
ARC
  5
18B59
330
747D
100
AcDbEntity
  8
細線
 48
50.0
100
AcDbCircle
 10
9557.289152208326
 20
3585.768547337414
 30
0.0
 40
21.5
100
AcDbArc
 50
255.8014401250294
 51
284.1985598749706
  0
ARC
  5
18B5A
330
747D
100
AcDbEntity
  8
細線
 48
50.0
100
AcDbCircle
 10
9557.289152208326
 20
3585.768547337414
 30
0.0
 40
16.5
100
AcDbArc
 50
251.9694646069326
 51
288.0305353930674
  0
LINE
  5
18B5B
330
747D
100
AcDbEntity
  8
細線
 48
50.0
100
AcDbLine
 10
9562.789152208326
 20
3565.216175211607
 30
0.0
 11
9562.789152208326
 21
3569.793566898944
 31
0.0
  0
LINE
  5
18B5C
330
747D
100
AcDbEntity
  8
細線
 48
50.0
100
AcDbLine
 10
9551.789152208327
 20
3565.216175211607
 30
0.0
 11
9551.789152208327
 21
3569.793566898943
 31
0.0
  0
ARC
  5
18B5D
330
747D
100
AcDbEntity
  8
細線
 48
50.0
100
AcDbCircle
 10
9552.089152208329
 20
3569.793566898943
 30
0.0
 40
0.3
100
AcDbArc
 50
71.96946460693259
 51
180.0
  0
ARC
  5
18B5E
330
747D
100
AcDbEntity
  8
細線
 48
50.0
100
AcDbCircle
 10
9562.489152208327
 20
3569.793566898944
 30
0.0
 40
0.3
100
AcDbArc
 50
0.0
 51
108.0305353930674
  0
ARC
  5
18B5F
330
747D
100
AcDbEntity
  8
細線
 48
50.0
100
AcDbCircle
 10
9562.489152208323
 20
3565.216175211607
 30
0.0
 40
0.3
100
AcDbArc
 50
284.1985598747622
 51
0.0000000001042204
  0
ARC
  5
18B60
330
747D
100
AcDbEntity
  8
細線
 48
50.0
100
AcDbCircle
 10
9552.089152208329
 20
3565.216175211607
 30
0.0
 40
0.3
100
AcDbArc
 50
180.0
 51
255.8014401248081
  0
CIRCLE
  5
18B61
330
747D
100
AcDbEntity
  8
細線
 48
50.0
100
AcDbCircle
 10
9557.289152208326
 20
3585.768547337414
 30
0.0
 40
12.0
  0
ARC
  5
18B62
330
747D
100
AcDbEntity
  8
部品1
 48
50.0
100
AcDbCircle
 10
9557.289152208326
 20
3635.768547337414
 30
0.0
 40
8.5
100
AcDbArc
 50
114.315739171091
 51
245.684260828909
  0
CIRCLE
  5
18B63
330
747D
100
AcDbEntity
  8
細線
 48
50.0
100
AcDbCircle
 10
9557.289152208326
 20
3635.768547337414
 30
0.0
 40
4.5
  0
LWPOLYLINE
  5
18B64
330
747D
100
AcDbEntity
  8
部品1
 48
50.0
100
AcDbPolyline
 90
        2
 70
     0
 43
0.0
 10
9553.789152208327
 20
3654.443396734397
 10
9553.789152208327
 20
3643.514514029829
  0
CIRCLE
  5
18B65
330
747D
100
AcDbEntity
  8
部品1
 48
50.0
100
AcDbCircle
 10
9557.289152208326
 20
3635.768547337414
 30
0.0
 40
19.0
  0
LWPOLYLINE
  5
18B66
330
747D
100
AcDbEntity
  8
部品1
 48
50.0
100
AcDbPolyline
 90
        2
 70
     0
 43
0.0
 10
9553.789152208327
 20
3628.022580644999
 10
9553.789152208327
 20
3617.093697940432
  0
LWPOLYLINE
  5
18B67
330
747D
100
AcDbEntity
  8
部品1
 48
50.0
100
AcDbPolyline
 90
        2
 70
     0
 43
0.0
 10
9560.789152208327
 20
3643.514514029829
 10
9560.789152208327
 20
3654.443396734397
  0
ARC
  5
18B68
330
747D
100
AcDbEntity
  8
部品1
 48
50.0
100
AcDbCircle
 10
9557.289152208326
 20
3635.768547337414
 30
0.0
 40
8.5
100
AcDbArc
 50
294.315739171091
 51
65.68426082890896
  0
LWPOLYLINE
  5
18B69
330
747D
100
AcDbEntity
  8
部品1
 48
50.0
100
AcDbPolyline
 90
        2
 70
     0
 43
0.0
 10
9560.789152208327
 20
3617.093697940432
 10
9560.789152208327
 20
3628.022580644999
  0
ARC
  5
18B6A
330
747D
100
AcDbEntity
  8
細線
 48
50.0
100
AcDbCircle
 10
9557.289152208326
 20
3635.768547337414
 30
0.0
 40
16.5
100
AcDbArc
 50
332.0012352654438
 51
27.99876473455621
  0
ARC
  5
18B6B
330
747D
100
AcDbEntity
  8
細線
 48
50.0
100
AcDbCircle
 10
9557.289152208326
 20
3635.768547337414
 30
0.0
 40
14.0
100
AcDbArc
 50
326.4074436112986
 51
33.59255638870134
  0
LINE
  5
18B6C
330
747D
100
AcDbEntity
  8
細線
 48
50.0
100
AcDbLine
 10
9542.720349923994
 20
3643.514514029829
 30
0.0
 11
9545.627248418638
 21
3643.514514029829
 31
0.0
  0
LINE
  5
18B6D
330
747D
100
AcDbEntity
  8
細線
 48
50.0
100
AcDbLine
 10
9542.720349923994
 20
3628.022580644999
 30
0.0
 11
9545.627248418638
 21
3628.022580644999
 31
0.0
  0
LINE
  5
18B6E
330
747D
100
AcDbEntity
  8
細線
 48
50.0
100
AcDbLine
 10
9568.951055998015
 20
3643.514514029829
 30
0.0
 11
9571.857954492662
 21
3643.514514029829
 31
0.0
  0
LINE
  5
18B6F
330
747D
100
AcDbEntity
  8
細線
 48
50.0
100
AcDbLine
 10
9568.951055998015
 20
3628.022580644999
 30
0.0
 11
9571.857954492662
 21
3628.022580644999
 31
0.0
  0
ARC
  5
18B70
330
747D
100
AcDbEntity
  8
細線
 48
50.0
100
AcDbCircle
 10
9557.289152208326
 20
3635.768547337414
 30
0.0
 40
14.0
100
AcDbArc
 50
146.4074436112986
 51
213.5925563887013
  0
ARC
  5
18B71
330
747D
100
AcDbEntity
  8
細線
 48
50.0
100
AcDbCircle
 10
9557.289152208326
 20
3635.768547337414
 30
0.0
 40
16.5
100
AcDbArc
 50
152.0012352654438
 51
207.9987647345562
  0
ARC
  5
18B72
330
747D
100
AcDbEntity
  8
部品1
 48
50.0
100
AcDbCircle
 10
9530.789152208326
 20
3661.268547337414
 30
0.0
 40
5.0
100
AcDbArc
 50
90.0
 51
180.0
  0
ARC
  5
18B73
330
747D
100
AcDbEntity
  8
部品1
 48
50.0
100
AcDbCircle
 10
9530.789152208326
 20
3550.268547337414
 30
0.0
 40
5.0
100
AcDbArc
 50
180.0
 51
270.0
  0
ARC
  5
18B74
330
747D
100
AcDbEntity
  8
部品1
 48
50.0
100
AcDbCircle
 10
9583.789152208327
 20
3550.268547337414
 30
0.0
 40
5.0
100
AcDbArc
 50
270.0
 51
0.0
  0
ARC
  5
18B75
330
747D
100
AcDbEntity
  8
部品1
 48
50.0
100
AcDbCircle
 10
9583.789152208327
 20
3661.268547337414
 30
0.0
 40
5.0
100
AcDbArc
 50
0.0
 51
90.0
  0
LINE
  5
18B77
330
747D
100
AcDbEntity
  8
部品1
 48
50.0
100
AcDbLine
 10
9525.789152208327
 20
3550.268547337414
 30
0.0
 11
9525.789152208327
 21
3661.268547337414
 31
0.0
  0
LINE
  5
18B78
330
747D
100
AcDbEntity
  8
部品1
 48
50.0
100
AcDbLine
 10
9583.789152208327
 20
3545.268547337414
 30
0.0
 11
9530.789152208326
 21
3545.268547337414
 31
0.0
  0
LINE
  5
18B79
330
747D
100
AcDbEntity
  8
部品1
 48
50.0
100
AcDbLine
 10
9588.789152208326
 20
3661.268547337414
 30
0.0
 11
9588.789152208326
 21
3550.268547337414
 31
0.0
  0
ENDSEC
  0
SECTION
  2
OBJECTS
  0
DICTIONARY
  5
7471
330
0
100
AcDbDictionary
281
     1
  3
ACAD_COLOR
350
16465
  3
ACAD_GROUP
350
7472
  3
ACAD_LAYOUT
350
16466
  3
ACAD_MATERIAL
350
16464
  3
ACAD_MLINESTYLE
350
7473
  3
ACAD_PLOTSETTINGS
350
16467
  3
ACAD_PLOTSTYLENAME
350
16462
  3
ACDBHEADERROUNDTRIPXREC
350
18B98
  3
AcDbVariableDictionary
350
18B94
  3
CONTENTDICTIONARY
350
E71C
  3
DRAWINGVARIABLESDICT
350
F3B9
  0
DICTIONARY
  5
165FF
330
7467
100
AcDbDictionary
280
     1
281
     1
  3
ACAD_LAYERSTATES
360
16600
  0
DICTIONARY
  5
16465
102
{ACAD_REACTORS
330
7471
102
}
330
7471
100
AcDbDictionary
281
     1
  0
DICTIONARY
  5
7472
102
{ACAD_REACTORS
330
7471
102
}
330
7471
100
AcDbDictionary
281
     1
  0
DICTIONARY
  5
16466
102
{ACAD_REACTORS
330
7471
102
}
330
7471
100
AcDbDictionary
281
     1
  3
Model
350
16468
  3
レイアウト1
350
16469
  0
DICTIONARY
  5
16464
102
{ACAD_REACTORS
330
7471
102
}
330
7471
100
AcDbDictionary
281
     1
  0
DICTIONARY
  5
7473
102
{ACAD_REACTORS
330
7471
102
}
330
7471
100
AcDbDictionary
281
     1
  3
STANDARD
350
7480
  0
DICTIONARY
  5
16467
102
{ACAD_REACTORS
330
7471
102
}
330
7471
100
AcDbDictionary
281
     1
  0
ACDBDICTIONARYWDFLT
  5
16462
102
{ACAD_REACTORS
330
7471
102
}
330
7471
100
AcDbDictionary
281
     1
  3
Normal
350
16463
100
AcDbDictionaryWithDefault
340
16463
  0
DICTIONARY
  5
18B98
102
{ACAD_REACTORS
330
7471
102
}
330
7471
100
AcDbDictionary
281
     1
  3
COLORDICT
350
18B9A
  3
MATERIALDICT
350
18B99
  0
DICTIONARY
  5
18B94
102
{ACAD_REACTORS
330
7471
102
}
330
7471
100
AcDbDictionary
281
     1
  3
DIMASSOC
350
18B95
  3
PROJECTNAME
350
18B96
  0
DICTIONARY
  5
E71C
102
{ACAD_REACTORS
330
7471
102
}
330
7471
100
AcDbDictionary
281
     1
  0
DICTIONARY
  5
F3B9
102
{ACAD_REACTORS
330
7471
102
}
330
7471
100
AcDbDictionary
281
     1
1001
DRAWINGVARIABLESXDATA
1000
POLARMODE
1000
1
  0
DICTIONARY
  5
16600
102
{ACAD_REACTORS
330
165FF
102
}
330
165FF
100
AcDbDictionary
281
     1
  0
LAYOUT
  5
16468
102
{ACAD_XDICTIONARY
360
18B9B
102
}
102
{ACAD_REACTORS
330
16466
102
}
330
16466
100
AcDbPlotSettings
  1

  2
クセロPDF
  4
A3
  6

 40
3.174999952316284
 41
3.174999952316284
 42
3.17498779296875
 43
3.17498779296875
 44
419.9466552734374
 45
296.9259948730469
 46
0.0
 47
0.0
 48
3.619013395666115
 49
-4.192117100517862
140
820.022926294543
141
573.2392198881443
142
1.0
143
39.99735023620806
 70
 11952
 72
     1
 73
     0
 74
     2
  7
inaba.ctb
 75
     0
147
0.0250016562120842
148
25.79074261211281
149
125.8223078213959
100
AcDbLayout
  1
Model
 70
     1
 71
     0
 10
0.0
 20
0.0
 11
12.0
 21
9.0
 12
0.0
 22
0.0
 32
0.0
 14
0.0
 24
0.0
 34
0.0
 15
0.0
 25
0.0
 35
0.0
146
0.0
 13
0.0
 23
0.0
 33
0.0
 16
1.0
 26
0.0
 36
0.0
 17
0.0
 27
1.0
 37
0.0
 76
     0
330
747D
  0
LAYOUT
  5
16469
102
{ACAD_XDICTIONARY
360
18B9D
102
}
102
{ACAD_REACTORS
330
16466
102
}
330
16466
100
AcDbPlotSettings
  1

  2
Microsoft Office Document Image Writer
  4

  6

 40
0.0
 41
0.0
 42
0.0
 43
0.0
 44
0.0
 45
0.0
 46
0.0
 47
0.0
 48
0.0
 49
0.0
140
0.0
141
0.0
142
1.0
143
1.0
 70
   688
 72
     0
 73
     0
 74
     5
  7

 75
    16
147
1.0
148
0.0
149
0.0
100
AcDbLayout
  1
レイアウト1
 70
     0
 71
     1
 10
0.0
 20
0.0
 11
420.0
 21
297.0
 12
0.0
 22
0.0
 32
0.0
 14
1.000000000000000E+20
 24
1.000000000000000E+20
 34
1.000000000000000E+20
 15
-1.000000000000000E+20
 25
-1.000000000000000E+20
 35
-1.000000000000000E+20
146
0.0
 13
0.0
 23
0.0
 33
0.0
 16
1.0
 26
0.0
 36
0.0
 17
0.0
 27
1.0
 37
0.0
 76
     0
330
747A
  0
MLINESTYLE
  5
7480
102
{ACAD_REACTORS
330
7473
102
}
330
7473
100
AcDbMlineStyle
  2
STANDARD
 70
     0
  3

 62
     0
 51
90.0
 52
90.0
 71
     2
 49
0.5
 62
   256
  6
BYLAYER
 49
-0.5
 62
   256
  6
BYLAYER
  0
ACDBPLACEHOLDER
  5
16463
102
{ACAD_REACTORS
330
16462
102
}
330
16462
  0
XRECORD
  5
18B9A
102
{ACAD_REACTORS
330
18B98
102
}
330
18B98
100
AcDbXrecord
280
     1
340
16465
  0
XRECORD
  5
18B99
102
{ACAD_REACTORS
330
18B98
102
}
330
18B98
100
AcDbXrecord
280
     1
340
16464
  0
DICTIONARYVAR
  5
18B95
102
{ACAD_REACTORS
330
18B94
102
}
330
18B94
100
DictionaryVariables
280
     0
  1
1
  0
DICTIONARYVAR
  5
18B96
102
{ACAD_REACTORS
330
18B94
102
}
330
18B94
100
DictionaryVariables
280
     0
  1

  0
DICTIONARY
  5
18B9B
330
16468
100
AcDbDictionary
280
     1
281
     1
  3
ACAD_XREC_ROUNDTRIP
360
18B9C
  0
DICTIONARY
  5
18B9D
330
16469
100
AcDbDictionary
280
     1
281
     1
  3
ACAD_XREC_ROUNDTRIP
360
18B9E
  0
XRECORD
  5
18B9C
102
{ACAD_REACTORS
330
18B9B
102
}
330
18B9B
100
AcDbXrecord
280
     1
102
SHADEPLOT
 70
     0
102
SHADEPLOTRESLEVEL
 70
     2
102
SHADEPLOTCUSTOMDPI
 70
   150
  0
XRECORD
  5
18B9E
102
{ACAD_REACTORS
330
18B9D
102
}
330
18B9D
100
AcDbXrecord
280
     1
102
SHADEPLOT
 70
     0
102
SHADEPLOTRESLEVEL
 70
     2
102
SHADEPLOTCUSTOMDPI
 70
   300
  0
ENDSEC
  0
EOF
