  0
SECTION
  2
HEADER
  9
$ACADVER
  1
AC1015
  9
$ACADMAINTVER
 70
    20
  9
$DWGCODEPAGE
  3
ANSI_932
  9
$INSBASE
 10
0.0
 20
0.0
 30
0.0
  9
$EXTMIN
 10
139.9999999999995
 20
-0.0000000000000909
 30
0.0
  9
$EXTMAX
 10
16307.2
 20
11409.6
 30
0.0
  9
$LIMMIN
 10
-25.79074261211281
 20
-125.8223078213959
  9
$LIMMAX
 10
16471.10331197129
 20
11496.44801950658
  9
$ORTHOMODE
 70
     0
  9
$REGENMODE
 70
     1
  9
$FILLMODE
 70
     1
  9
$QTEXTMODE
 70
     0
  9
$MIRRTEXT
 70
     1
  9
$LTSCALE
 40
20.0
  9
$ATTMODE
 70
     1
  9
$TEXTSIZE
 40
4.0
  9
$TRACEWID
 40
1.0
  9
$TEXTSTYLE
  7
STYLE1
  9
$CLAYER
  8
寸法
  9
$CELTYPE
  6
BYLAYER
  9
$CECOLOR
 62
   256
  9
$CELTSCALE
 40
50.0
  9
$DISPSILH
 70
     0
  9
$DIMSCALE
 40
40.0
  9
$DIMASZ
 40
2.5
  9
$DIMEXO
 40
0.5
  9
$DIMDLI
 40
7.0
  9
$DIMRND
 40
0.0
  9
$DIMDLE
 40
0.0
  9
$DIMEXE
 40
1.5
  9
$DIMTP
 40
0.0
  9
$DIMTM
 40
0.0
  9
$DIMTXT
 40
3.0
  9
$DIMCEN
 40
0.0
  9
$DIMTSZ
 40
0.0
  9
$DIMTOL
 70
     0
  9
$DIMLIM
 70
     0
  9
$DIMTIH
 70
     0
  9
$DIMTOH
 70
     0
  9
$DIMSE1
 70
     0
  9
$DIMSE2
 70
     0
  9
$DIMTAD
 70
     3
  9
$DIMZIN
 70
     8
  9
$DIMBLK
  1

  9
$DIMASO
 70
     1
  9
$DIMSHO
 70
     1
  9
$DIMPOST
  1

  9
$DIMAPOST
  1

  9
$DIMALT
 70
     0
  9
$DIMALTD
 70
     2
  9
$DIMALTF
 40
0.0394
  9
$DIMLFAC
 40
1.0
  9
$DIMTOFL
 70
     1
  9
$DIMTVP
 40
0.0
  9
$DIMTIX
 70
     1
  9
$DIMSOXD
 70
     0
  9
$DIMSAH
 70
     1
  9
$DIMBLK1
  1
DOTSMALL
  9
$DIMBLK2
  1
DOTSMALL
  9
$DIMSTYLE
  2
INABA_S40G
  9
$DIMCLRD
 70
     0
  9
$DIMCLRE
 70
     0
  9
$DIMCLRT
 70
     7
  9
$DIMTFAC
 40
1.0
  9
$DIMGAP
 40
1.0
  9
$DIMJUST
 70
     0
  9
$DIMSD1
 70
     0
  9
$DIMSD2
 70
     0
  9
$DIMTOLJ
 70
     1
  9
$DIMTZIN
 70
     0
  9
$DIMALTZ
 70
     0
  9
$DIMALTTZ
 70
     0
  9
$DIMUPT
 70
     1
  9
$DIMDEC
 70
     1
  9
$DIMTDEC
 70
     4
  9
$DIMALTU
 70
     2
  9
$DIMALTTD
 70
     2
  9
$DIMTXSTY
  7
STYLE1
  9
$DIMAUNIT
 70
     0
  9
$DIMADEC
 70
     0
  9
$DIMALTRND
 40
0.0
  9
$DIMAZIN
 70
     0
  9
$DIMDSEP
 70
    46
  9
$DIMATFIT
 70
     3
  9
$DIMFRAC
 70
     0
  9
$DIMLDRBLK
  1

  9
$DIMLUNIT
 70
     2
  9
$DIMLWD
 70
    -2
  9
$DIMLWE
 70
    -2
  9
$DIMTMOVE
 70
     0
  9
$LUNITS
 70
     2
  9
$LUPREC
 70
     1
  9
$SKETCHINC
 40
1.0
  9
$FILLETRAD
 40
3.0
  9
$AUNITS
 70
     0
  9
$AUPREC
 70
     0
  9
$MENU
  1
acad
  9
$ELEVATION
 40
0.0
  9
$PELEVATION
 40
0.0
  9
$THICKNESS
 40
0.0
  9
$LIMCHECK
 70
     0
  9
$CHAMFERA
 40
0.0
  9
$CHAMFERB
 40
0.0
  9
$CHAMFERC
 40
0.0
  9
$CHAMFERD
 40
0.0
  9
$SKPOLY
 70
     0
  9
$TDCREATE
 40
2451368.612993866
  9
$TDUCREATE
 40
2451368.237993866
  9
$TDUPDATE
 40
2455575.682440313
  9
$TDUUPDATE
 40
2455575.307440313
  9
$TDINDWG
 40
0.5574625347
  9
$TDUSRTIMER
 40
0.5574625347
  9
$USRTIMER
 70
     1
  9
$ANGBASE
 50
0.0
  9
$ANGDIR
 70
     0
  9
$PDMODE
 70
     3
  9
$PDSIZE
 40
2.0
  9
$PLINEWID
 40
0.0
  9
$SPLFRAME
 70
     0
  9
$SPLINETYPE
 70
     6
  9
$SPLINESEGS
 70
     8
  9
$HANDSEED
  5
17037
  9
$SURFTAB1
 70
     6
  9
$SURFTAB2
 70
     6
  9
$SURFTYPE
 70
     6
  9
$SURFU
 70
     6
  9
$SURFV
 70
     6
  9
$UCSBASE
  2

  9
$UCSNAME
  2

  9
$UCSORG
 10
0.0
 20
0.0
 30
0.0
  9
$UCSXDIR
 10
1.0
 20
0.0
 30
0.0
  9
$UCSYDIR
 10
0.0
 20
1.0
 30
0.0
  9
$UCSORTHOREF
  2

  9
$UCSORTHOVIEW
 70
     0
  9
$UCSORGTOP
 10
0.0
 20
0.0
 30
0.0
  9
$UCSORGBOTTOM
 10
0.0
 20
0.0
 30
0.0
  9
$UCSORGLEFT
 10
0.0
 20
0.0
 30
0.0
  9
$UCSORGRIGHT
 10
0.0
 20
0.0
 30
0.0
  9
$UCSORGFRONT
 10
0.0
 20
0.0
 30
0.0
  9
$UCSORGBACK
 10
0.0
 20
0.0
 30
0.0
  9
$PUCSBASE
  2

  9
$PUCSNAME
  2

  9
$PUCSORG
 10
0.0
 20
0.0
 30
0.0
  9
$PUCSXDIR
 10
1.0
 20
0.0
 30
0.0
  9
$PUCSYDIR
 10
0.0
 20
1.0
 30
0.0
  9
$PUCSORTHOREF
  2

  9
$PUCSORTHOVIEW
 70
     0
  9
$PUCSORGTOP
 10
0.0
 20
0.0
 30
0.0
  9
$PUCSORGBOTTOM
 10
0.0
 20
0.0
 30
0.0
  9
$PUCSORGLEFT
 10
0.0
 20
0.0
 30
0.0
  9
$PUCSORGRIGHT
 10
0.0
 20
0.0
 30
0.0
  9
$PUCSORGFRONT
 10
0.0
 20
0.0
 30
0.0
  9
$PUCSORGBACK
 10
0.0
 20
0.0
 30
0.0
  9
$USERI1
 70
     0
  9
$USERI2
 70
     0
  9
$USERI3
 70
     0
  9
$USERI4
 70
     0
  9
$USERI5
 70
     0
  9
$USERR1
 40
0.0
  9
$USERR2
 40
0.0
  9
$USERR3
 40
0.0
  9
$USERR4
 40
0.0
  9
$USERR5
 40
0.0
  9
$WORLDVIEW
 70
     1
  9
$SHADEDGE
 70
     3
  9
$SHADEDIF
 70
    70
  9
$TILEMODE
 70
     1
  9
$MAXACTVP
 70
    16
  9
$PINSBASE
 10
0.0
 20
0.0
 30
0.0
  9
$PLIMCHECK
 70
     0
  9
$PEXTMIN
 10
29.06606628894805
 20
20.36233246326446
 30
0.0
  9
$PEXTMAX
 10
261.5945966005325
 20
183.2609921693802
 30
0.0
  9
$PLIMMIN
 10
-3.17498779296875
 20
-3.174999952316284
  9
$PLIMMAX
 10
293.8356628417969
 20
206.7983276844024
  9
$UNITMODE
 70
     0
  9
$VISRETAIN
 70
     0
  9
$PLINEGEN
 70
     0
  9
$PSLTSCALE
 70
     0
  9
$TREEDEPTH
 70
  3020
  9
$CMLSTYLE
  2
STANDARD
  9
$CMLJUST
 70
     0
  9
$CMLSCALE
 40
1.0
  9
$PROXYGRAPHICS
 70
     1
  9
$MEASUREMENT
 70
     1
  9
$CELWEIGHT
370
    -1
  9
$ENDCAPS
280
     0
  9
$JOINSTYLE
280
     0
  9
$LWDISPLAY
290
     0
  9
$INSUNITS
 70
     0
  9
$HYPERLINKBASE
  1

  9
$STYLESHEET
  1
inaba.ctb
  9
$XEDIT
290
     1
  9
$CEPSNTYPE
380
     0
  9
$PSTYLEMODE
290
     1
  9
$FINGERPRINTGUID
  2
{4031D9D4-4CB9-4989-8A71-2A4657F1E75D}
  9
$VERSIONGUID
  2
{5E03A254-F5C4-4338-90C1-370CBE700275}
  9
$EXTNAMES
290
     1
  9
$PSVPSCALE
 40
0.0
  9
$OLESTARTUP
290
     0
  0
ENDSEC
  0
SECTION
  2
CLASSES
  0
CLASS
  1
ACDBDICTIONARYWDFLT
  2
AcDbDictionaryWithDefault
  3
ObjectDBX Classes
 90
        0
280
     0
281
     0
  0
CLASS
  1
DICTIONARYVAR
  2
AcDbDictionaryVar
  3
ObjectDBX Classes
 90
        0
280
     0
281
     0
  0
CLASS
  1
ACDBPLACEHOLDER
  2
AcDbPlaceHolder
  3
ObjectDBX Classes
 90
        0
280
     0
281
     0
  0
CLASS
  1
LAYOUT
  2
AcDbLayout
  3
ObjectDBX Classes
 90
        0
280
     0
281
     0
  0
ENDSEC
  0
SECTION
  2
TABLES
  0
TABLE
  2
VPORT
  5
746D
330
0
100
AcDbSymbolTable
 70
     2
  0
VPORT
  5
1702B
330
746D
100
AcDbSymbolTableRecord
100
AcDbViewportTableRecord
  2
*Active
 70
     0
 10
0.0
 20
0.0
 11
1.0
 21
1.0
 12
8222.47928695576
 22
5685.120443076844
 13
0.0
 23
0.0
 14
10.0
 24
10.0
 15
10.0
 25
10.0
 16
0.0
 26
0.0
 36
1.0
 17
0.0
 27
0.0
 37
0.0
 40
11709.66521111281
 41
1.525925925925925
 42
50.0
 43
0.0
 44
0.0
 50
0.0
 51
0.0
 71
     0
 72
     0
 73
     1
 74
     0
 75
     0
 76
     0
 77
     0
 78
     0
281
     0
 65
     1
110
0.0
120
0.0
130
0.0
111
1.0
121
0.0
131
0.0
112
0.0
122
1.0
132
0.0
 79
     0
146
0.0
  0
ENDTAB
  0
TABLE
  2
LTYPE
  5
746A
330
0
100
AcDbSymbolTable
 70
     4
  0
LTYPE
  5
7477
330
746A
100
AcDbSymbolTableRecord
100
AcDbLinetypeTableRecord
  2
BYBLOCK
 70
     0
  3

 72
    65
 73
     0
 40
0.0
  0
LTYPE
  5
7478
330
746A
100
AcDbSymbolTableRecord
100
AcDbLinetypeTableRecord
  2
BYLAYER
 70
     0
  3

 72
    65
 73
     0
 40
0.0
  0
LTYPE
  5
7479
330
746A
100
AcDbSymbolTableRecord
100
AcDbLinetypeTableRecord
  2
CONTINUOUS
 70
     0
  3
Solid line
 72
    65
 73
     0
 40
0.0
  0
LTYPE
  5
7816
330
746A
100
AcDbSymbolTableRecord
100
AcDbLinetypeTableRecord
  2
CENTER
 70
     0
  3
____ _ ____ _ ____ _ ____ _ ____ _ ____ _ ____ 
 72
    65
 73
     4
 40
2.0
 49
1.25
 74
     0
 49
-0.25
 74
     0
 49
0.25
 74
     0
 49
-0.25
 74
     0
  0
LTYPE
  5
781A
330
746A
100
AcDbSymbolTableRecord
100
AcDbLinetypeTableRecord
  2
HIDDEN
 70
     0
  3
__ __ __ __ __ __ __ __ __ __ __ __ __ __ __ __
 72
    65
 73
     2
 40
0.375
 49
0.25
 74
     0
 49
-0.125
 74
     0
  0
LTYPE
  5
781B
330
746A
100
AcDbSymbolTableRecord
100
AcDbLinetypeTableRecord
  2
PHANTOM
 70
     0
  3
______  __  __  ______  __  __  ______  __  __ 
 72
    65
 73
     6
 40
2.5
 49
1.25
 74
     0
 49
-0.25
 74
     0
 49
0.25
 74
     0
 49
-0.25
 74
     0
 49
0.25
 74
     0
 49
-0.25
 74
     0
  0
ENDTAB
  0
TABLE
  2
LAYER
  5
7467
102
{ACAD_XDICTIONARY
360
157DF
102
}
330
0
100
AcDbSymbolTable
 70
    12
  0
LAYER
  5
7474
330
7467
100
AcDbSymbolTableRecord
100
AcDbLayerTableRecord
  2
0
 70
     0
 62
     7
  6
CONTINUOUS
370
    -3
390
15643
  0
LAYER
  5
DEB2
330
7467
100
AcDbSymbolTableRecord
100
AcDbLayerTableRecord
  2
センター
 70
     0
 62
     3
  6
CENTER
370
    -3
390
15643
  0
LAYER
  5
DEB3
330
7467
100
AcDbSymbolTableRecord
100
AcDbLayerTableRecord
  2
寸法
 70
     0
 62
     4
  6
CONTINUOUS
370
    -3
390
15643
  0
LAYER
  5
DEB4
330
7467
100
AcDbSymbolTableRecord
100
AcDbLayerTableRecord
  2
部品1
 70
     0
 62
     7
  6
CONTINUOUS
370
    -3
390
15643
  0
LAYER
  5
DEB5
330
7467
100
AcDbSymbolTableRecord
100
AcDbLayerTableRecord
  2
補助
 70
     0
 62
    -1
  6
CONTINUOUS
370
    -3
390
15643
  0
LAYER
  5
DEB6
330
7467
100
AcDbSymbolTableRecord
100
AcDbLayerTableRecord
  2
文字
 70
     0
 62
     7
  6
CONTINUOUS
370
    -3
390
15643
  0
LAYER
  5
F255
330
7467
100
AcDbSymbolTableRecord
100
AcDbLayerTableRecord
  2
DEFPOINTS
 70
     0
 62
     7
  6
CONTINUOUS
290
     0
370
    -3
390
15643
  0
LAYER
  5
10B54
330
7467
100
AcDbSymbolTableRecord
100
AcDbLayerTableRecord
  2
仕様書枠
 70
     0
 62
   230
  6
CONTINUOUS
370
    -3
390
15643
  0
LAYER
  5
11729
330
7467
100
AcDbSymbolTableRecord
100
AcDbLayerTableRecord
  2
Ｇ．Ｌ
 70
     0
 62
    30
  6
CONTINUOUS
370
    -3
390
15643
  0
LAYER
  5
1173F
330
7467
100
AcDbSymbolTableRecord
100
AcDbLayerTableRecord
  2
細線
 70
     0
 62
     5
  6
CONTINUOUS
370
    -3
390
15643
  0
LAYER
  5
12CC4
330
7467
100
AcDbSymbolTableRecord
100
AcDbLayerTableRecord
  2
想像線
 70
     0
 62
     6
  6
PHANTOM
370
    -3
390
15643
  0
LAYER
  5
142E2
330
7467
100
AcDbSymbolTableRecord
100
AcDbLayerTableRecord
  2
破線
 70
     0
 62
     2
  6
HIDDEN
370
    -3
390
15643
  0
ENDTAB
  0
TABLE
  2
STYLE
  5
7468
330
0
100
AcDbSymbolTable
 70
     4
  0
STYLE
  5
7475
330
7468
100
AcDbSymbolTableRecord
100
AcDbTextStyleTableRecord
  2
STANDARD
 70
     0
 40
0.0
 41
1.0
 50
0.0
 71
     0
 42
4.0
  3
txt
  4
C:\AutoCAD LT\bigfont.shx
  0
STYLE
  5
F706
330
7468
100
AcDbSymbolTableRecord
100
AcDbTextStyleTableRecord
  2
STYLE1
 70
     0
 40
0.0
 41
1.0
 50
0.0
 71
     0
 42
4.0
  3
isocp.shx
  4
bigfont.shx
  0
STYLE
  5
103BF
330
7468
100
AcDbSymbolTableRecord
100
AcDbTextStyleTableRecord
  2
STYLE2
 70
     0
 40
0.0
 41
1.0
 50
0.0
 71
     0
 42
100.0
  3
MS PGothic.ttf
  4

1001
ACAD
1000
MS PGothic
1071
    32818
  0
STYLE
  5
16182
330
7468
100
AcDbSymbolTableRecord
100
AcDbTextStyleTableRecord
  2
STYLE3
 70
     0
 40
0.0
 41
1.0
 50
0.0
 71
     0
 42
100.0
  3
DFPGothic-EB.ttf
  4

1001
ACAD
1000
DFPGothic-EB
1071
    32818
  0
ENDTAB
  0
TABLE
  2
VIEW
  5
746B
330
0
100
AcDbSymbolTable
 70
     0
  0
ENDTAB
  0
TABLE
  2
UCS
  5
746C
330
0
100
AcDbSymbolTable
 70
     0
  0
ENDTAB
  0
TABLE
  2
APPID
  5
746E
330
0
100
AcDbSymbolTable
 70
     6
  0
APPID
  5
7476
330
746E
100
AcDbSymbolTableRecord
100
AcDbRegAppTableRecord
  2
ACAD
 70
     0
  0
APPID
  5
DEA9
330
746E
100
AcDbSymbolTableRecord
100
AcDbRegAppTableRecord
  2
CONTENTBLOCKICON
 70
     0
  0
APPID
  5
DEAA
330
746E
100
AcDbSymbolTableRecord
100
AcDbRegAppTableRecord
  2
CONTENTBLOCKDESCRIPTION
 70
     0
  0
APPID
  5
E71D
330
746E
100
AcDbSymbolTableRecord
100
AcDbRegAppTableRecord
  2
CONTENTTABDATA
 70
     0
  0
APPID
  5
E71E
330
746E
100
AcDbSymbolTableRecord
100
AcDbRegAppTableRecord
  2
CONTENTCURRENTTAB
 70
     0
  0
APPID
  5
F3BA
330
746E
100
AcDbSymbolTableRecord
100
AcDbRegAppTableRecord
  2
DRAWINGVARIABLESXDATA
 70
     0
  0
ENDTAB
  0
TABLE
  2
DIMSTYLE
  5
746F
330
0
100
AcDbSymbolTable
 70
     5
100
AcDbDimStyleTable
 71
     1
340
F71F
  0
DIMSTYLE
105
7484
330
746F
100
AcDbSymbolTableRecord
100
AcDbDimStyleTableRecord
  2
JIS
 70
     0
 41
2.5
 42
1.0
 43
7.0
 44
1.0
 73
     0
 74
     0
 77
     1
 78
     8
140
2.5
141
0.0
143
0.0394
147
0.0
172
     1
174
     1
175
     1
340
7475
  0
DIMSTYLE
105
F71F
102
{ACAD_REACTORS
330
146C0
330
14BF1
330
14521
330
14526
330
1452E
330
1452F
330
14530
330
14531
330
14532
330
1453F
330
14587
330
14589
330
16077
330
16007
330
16005
330
16004
330
160E9
330
16691
330
16692
330
16693
330
16696
330
1663E
330
16642
330
1664F
330
16650
330
167D3
330
167D2
330
167D1
330
167D0
330
16F71
102
}
330
746F
100
AcDbSymbolTableRecord
100
AcDbDimStyleTableRecord
  2
INABA_S40G
 70
     0
 40
40.0
 41
2.5
 42
0.5
 43
7.0
 44
1.5
 73
     0
 74
     0
 77
     3
 78
     8
140
3.0
141
0.0
143
0.0394
147
1.0
172
     1
173
     1
174
     1
178
     7
271
     1
288
     1
340
F706
341
F770
343
F770
344
F770
  0
DIMSTYLE
105
157DE
102
{ACAD_REACTORS
330
16A5B
330
16CAD
102
}
330
746F
100
AcDbSymbolTableRecord
100
AcDbDimStyleTableRecord
  2
INABA_S40
 70
     0
 40
40.0
 41
2.5
 42
0.5
 43
7.0
 44
1.5
 73
     0
 74
     0
 77
     3
 78
     8
140
3.0
141
0.0
143
0.0394
147
1.0
172
     1
173
     1
174
     1
175
     1
178
     7
340
7475
  0
DIMSTYLE
105
16183
330
746F
100
AcDbSymbolTableRecord
100
AcDbDimStyleTableRecord
  2
INABA_S50G
 70
     0
 41
125.0
 42
25.0
 43
7.0
 44
75.0
 73
     0
 74
     0
 77
     3
 78
     8
140
150.0
141
0.0
143
0.0394
147
25.0
172
     1
173
     1
174
     1
175
     1
178
     7
271
     1
340
F706
341
F770
343
F770
344
F770
  0
DIMSTYLE
105
16FAB
330
746F
100
AcDbSymbolTableRecord
100
AcDbDimStyleTableRecord
  2
INABA_S20G
 70
     0
 40
20.0
 41
2.5
 42
0.5
 43
7.0
 44
1.5
 73
     0
 74
     0
 77
     3
 78
     8
140
3.0
141
0.0
143
0.0394
147
1.0
172
     1
173
     1
174
     1
178
     7
271
     1
340
F706
341
F770
343
F770
344
F770
  0
ENDTAB
  0
TABLE
  2
BLOCK_RECORD
  5
7466
330
0
100
AcDbSymbolTable
 70
    48
  0
BLOCK_RECORD
  5
747D
330
7466
100
AcDbSymbolTableRecord
100
AcDbBlockTableRecord
  2
*MODEL_SPACE
340
15648
  0
BLOCK_RECORD
  5
747A
330
7466
100
AcDbSymbolTableRecord
100
AcDbBlockTableRecord
  2
*PAPER_SPACE
340
15649
  0
BLOCK_RECORD
  5
F770
330
7466
100
AcDbSymbolTableRecord
100
AcDbBlockTableRecord
  2
_DOTSMALL
340
0
102
{BLKREFS
331
1540E
331
1540F
331
160BB
331
160BC
331
160DA
331
160DB
331
16118
331
16119
331
16141
331
16142
331
1614A
331
1614B
331
164A4
331
164A5
331
164B0
331
164B1
331
16498
331
16499
331
1648B
331
1648C
331
1647E
331
1647F
331
16472
331
16473
331
16464
331
16465
331
16458
331
16459
331
16428
331
16429
331
1641A
331
1641B
331
16434
331
16435
331
16440
331
16441
331
1644C
331
1644D
331
16836
331
16837
331
16840
331
16841
331
16849
331
1684A
331
16852
331
16853
331
1685B
331
1685C
331
16864
331
16865
331
1686F
331
16870
331
16878
331
16879
331
16882
331
16883
331
1688C
331
1688D
331
16895
331
16896
331
1689E
331
1689F
331
16F00
331
16F01
331
16F09
331
16F0A
331
16F14
331
16F15
331
16F1D
331
16F1E
331
16F26
331
16F27
331
16F31
331
16F32
331
16F3A
331
16F3B
331
16F45
331
16F46
331
16F59
331
16F5A
331
16F6B
331
16F6C
331
16F76
331
16F77
331
16F99
331
16F9A
102
}
  0
BLOCK_RECORD
  5
1458A
330
7466
100
AcDbSymbolTableRecord
100
AcDbBlockTableRecord
  2
*D1
340
0
  0
BLOCK_RECORD
  5
14598
330
7466
100
AcDbSymbolTableRecord
100
AcDbBlockTableRecord
  2
*D2
340
0
  0
BLOCK_RECORD
  5
145A4
330
7466
100
AcDbSymbolTableRecord
100
AcDbBlockTableRecord
  2
*D3
340
0
  0
BLOCK_RECORD
  5
145B2
330
7466
100
AcDbSymbolTableRecord
100
AcDbBlockTableRecord
  2
*D4
340
0
  0
BLOCK_RECORD
  5
145BE
330
7466
100
AcDbSymbolTableRecord
100
AcDbBlockTableRecord
  2
*D5
340
0
  0
BLOCK_RECORD
  5
145CC
330
7466
100
AcDbSymbolTableRecord
100
AcDbBlockTableRecord
  2
*D6
340
0
  0
BLOCK_RECORD
  5
145D8
330
7466
100
AcDbSymbolTableRecord
100
AcDbBlockTableRecord
  2
*D7
340
0
  0
BLOCK_RECORD
  5
145FC
330
7466
100
AcDbSymbolTableRecord
100
AcDbBlockTableRecord
  2
*D8
340
0
  0
BLOCK_RECORD
  5
14608
330
7466
100
AcDbSymbolTableRecord
100
AcDbBlockTableRecord
  2
*D9
340
0
  0
BLOCK_RECORD
  5
14616
330
7466
100
AcDbSymbolTableRecord
100
AcDbBlockTableRecord
  2
*D10
340
0
  0
BLOCK_RECORD
  5
146B4
330
7466
100
AcDbSymbolTableRecord
100
AcDbBlockTableRecord
  2
*D11
340
0
  0
BLOCK_RECORD
  5
14BF2
330
7466
100
AcDbSymbolTableRecord
100
AcDbBlockTableRecord
  2
*D12
340
0
  0
BLOCK_RECORD
  5
15650
330
7466
100
AcDbSymbolTableRecord
100
AcDbBlockTableRecord
  2
_DOT
340
0
102
{BLKREFS
331
16EEE
331
16EEF
331
16EF7
331
16EF8
102
}
  0
BLOCK_RECORD
  5
16078
330
7466
100
AcDbSymbolTableRecord
100
AcDbBlockTableRecord
  2
*D14
340
0
  0
BLOCK_RECORD
  5
16084
330
7466
100
AcDbSymbolTableRecord
100
AcDbBlockTableRecord
  2
*D15
340
0
  0
BLOCK_RECORD
  5
1609E
330
7466
100
AcDbSymbolTableRecord
100
AcDbBlockTableRecord
  2
*D16
340
0
  0
BLOCK_RECORD
  5
160AC
330
7466
100
AcDbSymbolTableRecord
100
AcDbBlockTableRecord
  2
*D17
340
0
  0
BLOCK_RECORD
  5
16105
330
7466
100
AcDbSymbolTableRecord
100
AcDbBlockTableRecord
  2
*D18
340
0
  0
BLOCK_RECORD
  5
16414
330
7466
100
AcDbSymbolTableRecord
100
AcDbBlockTableRecord
  2
*D19
340
0
  0
BLOCK_RECORD
  5
16421
330
7466
100
AcDbSymbolTableRecord
100
AcDbBlockTableRecord
  2
*D20
340
0
  0
BLOCK_RECORD
  5
1642F
330
7466
100
AcDbSymbolTableRecord
100
AcDbBlockTableRecord
  2
*D21
340
0
  0
BLOCK_RECORD
  5
1643B
330
7466
100
AcDbSymbolTableRecord
100
AcDbBlockTableRecord
  2
*D22
340
0
  0
BLOCK_RECORD
  5
16447
330
7466
100
AcDbSymbolTableRecord
100
AcDbBlockTableRecord
  2
*D23
340
0
  0
BLOCK_RECORD
  5
16453
330
7466
100
AcDbSymbolTableRecord
100
AcDbBlockTableRecord
  2
*D24
340
0
  0
BLOCK_RECORD
  5
1645F
330
7466
100
AcDbSymbolTableRecord
100
AcDbBlockTableRecord
  2
*D25
340
0
  0
BLOCK_RECORD
  5
1646B
330
7466
100
AcDbSymbolTableRecord
100
AcDbBlockTableRecord
  2
*D26
340
0
  0
BLOCK_RECORD
  5
16479
330
7466
100
AcDbSymbolTableRecord
100
AcDbBlockTableRecord
  2
*D27
340
0
  0
BLOCK_RECORD
  5
16485
330
7466
100
AcDbSymbolTableRecord
100
AcDbBlockTableRecord
  2
*D28
340
0
  0
BLOCK_RECORD
  5
16492
330
7466
100
AcDbSymbolTableRecord
100
AcDbBlockTableRecord
  2
*D29
340
0
  0
BLOCK_RECORD
  5
1649F
330
7466
100
AcDbSymbolTableRecord
100
AcDbBlockTableRecord
  2
*D30
340
0
  0
BLOCK_RECORD
  5
164AB
330
7466
100
AcDbSymbolTableRecord
100
AcDbBlockTableRecord
  2
*D31
340
0
  0
BLOCK_RECORD
  5
164B7
330
7466
100
AcDbSymbolTableRecord
100
AcDbBlockTableRecord
  2
A$C15200730
340
0
  0
BLOCK_RECORD
  5
166A5
330
7466
100
AcDbSymbolTableRecord
100
AcDbBlockTableRecord
  2
*D33
340
0
  0
BLOCK_RECORD
  5
166B1
330
7466
100
AcDbSymbolTableRecord
100
AcDbBlockTableRecord
  2
*D34
340
0
  0
BLOCK_RECORD
  5
166BF
330
7466
100
AcDbSymbolTableRecord
100
AcDbBlockTableRecord
  2
*D35
340
0
  0
BLOCK_RECORD
  5
166CB
330
7466
100
AcDbSymbolTableRecord
100
AcDbBlockTableRecord
  2
*D36
340
0
  0
BLOCK_RECORD
  5
16716
330
7466
100
AcDbSymbolTableRecord
100
AcDbBlockTableRecord
  2
*D37
340
0
  0
BLOCK_RECORD
  5
16722
330
7466
100
AcDbSymbolTableRecord
100
AcDbBlockTableRecord
  2
*D38
340
0
  0
BLOCK_RECORD
  5
1672E
330
7466
100
AcDbSymbolTableRecord
100
AcDbBlockTableRecord
  2
*D39
340
0
  0
BLOCK_RECORD
  5
1673B
330
7466
100
AcDbSymbolTableRecord
100
AcDbBlockTableRecord
  2
*D40
340
0
  0
BLOCK_RECORD
  5
167D4
330
7466
100
AcDbSymbolTableRecord
100
AcDbBlockTableRecord
  2
*D41
340
0
  0
BLOCK_RECORD
  5
167E2
330
7466
100
AcDbSymbolTableRecord
100
AcDbBlockTableRecord
  2
*D42
340
0
  0
BLOCK_RECORD
  5
167EF
330
7466
100
AcDbSymbolTableRecord
100
AcDbBlockTableRecord
  2
*D43
340
0
  0
BLOCK_RECORD
  5
167FB
330
7466
100
AcDbSymbolTableRecord
100
AcDbBlockTableRecord
  2
*D44
340
0
  0
BLOCK_RECORD
  5
16ABF
330
7466
100
AcDbSymbolTableRecord
100
AcDbBlockTableRecord
  2
*D45
340
0
  0
BLOCK_RECORD
  5
16D9B
330
7466
100
AcDbSymbolTableRecord
100
AcDbBlockTableRecord
  2
*D46
340
0
  0
BLOCK_RECORD
  5
16F72
330
7466
100
AcDbSymbolTableRecord
100
AcDbBlockTableRecord
  2
*D47
340
0
  0
ENDTAB
  0
ENDSEC
  0
SECTION
  2
BLOCKS
  0
BLOCK
  5
7489
330
747D
100
AcDbEntity
  8
0
100
AcDbBlockBegin
  2
*MODEL_SPACE
 70
     0
 10
0.0
 20
0.0
 30
0.0
  3
*MODEL_SPACE
  1

  0
ENDBLK
  5
748A
330
747D
100
AcDbEntity
  8
0
100
AcDbBlockEnd
  0
BLOCK
  5
7487
330
747A
100
AcDbEntity
 67
     1
  8
0
100
AcDbBlockBegin
  2
*PAPER_SPACE
 70
     0
 10
0.0
 20
0.0
 30
0.0
  3
*PAPER_SPACE
  1

  0
ENDBLK
  5
7488
330
747A
100
AcDbEntity
 67
     1
  8
0
100
AcDbBlockEnd
  0
BLOCK
  5
F771
330
F770
100
AcDbEntity
  8
0
 48
50.0
100
AcDbBlockBegin
  2
_DOTSMALL
 70
     0
 10
0.0
 20
0.0
 30
0.0
  3
_DOTSMALL
  1

  0
LWPOLYLINE
  5
F772
330
F770
100
AcDbEntity
  8
0
  6
ByBlock
 62
     0
 48
50.0
100
AcDbPolyline
 90
        2
 70
     1
 43
0.5
 10
-0.0625
 20
0.0
 42
1.0
 10
0.0625
 20
0.0
 42
1.0
  0
ENDBLK
  5
F776
330
F770
100
AcDbEntity
  8
0
 48
50.0
100
AcDbBlockEnd
  0
BLOCK
  5
1561E
330
1458A
100
AcDbEntity
  8
0
 48
50.0
100
AcDbBlockBegin
  2
*D1
 70
     1
 10
0.0
 20
0.0
 30
0.0
  3
*D1
  1

  0
LINE
  5
16F54
330
1458A
100
AcDbEntity
  8
寸法
 62
     0
 48
50.0
370
    -2
100
AcDbLine
 10
8861.257109428605
 20
9293.353880529677
 30
0.0
 11
8861.257109428605
 21
9630.160907337886
 31
0.0
  0
LINE
  5
16F55
330
1458A
100
AcDbEntity
  8
寸法
 62
     0
 48
50.0
370
    -2
100
AcDbLine
 10
8916.25710942864
 20
9293.353880529677
 30
0.0
 11
8916.25710942864
 21
9630.160907337886
 31
0.0
  0
LINE
  5
16F56
330
1458A
100
AcDbEntity
  8
寸法
 62
     0
 48
50.0
370
    -2
100
AcDbLine
 10
8916.25710942864
 20
9570.160907337886
 30
0.0
 11
9016.257109428639
 21
9570.160907337886
 31
0.0
  0
LINE
  5
16F57
330
1458A
100
AcDbEntity
  8
寸法
 62
     0
 48
50.0
370
    -2
100
AcDbLine
 10
8861.257109428605
 20
9570.160907337886
 30
0.0
 11
8444.286546680126
 21
9570.160907337886
 31
0.0
  0
LINE
  5
16F58
330
1458A
100
AcDbEntity
  8
寸法
 62
     0
 48
50.0
370
    -2
100
AcDbLine
 10
8916.25710942864
 20
9570.160907337886
 30
0.0
 11
8861.257109428605
 21
9570.160907337886
 31
0.0
  0
INSERT
  5
16F59
330
1458A
100
AcDbEntity
  8
寸法
 62
     0
 48
50.0
370
    -2
100
AcDbBlockReference
  2
_DOTSMALL
 10
8916.25710942864
 20
9570.160907337886
 30
0.0
 41
100.0
 42
100.0
 43
100.0
 50
180.0
  0
INSERT
  5
16F5A
330
1458A
100
AcDbEntity
  8
寸法
 62
     0
 48
50.0
370
    -2
100
AcDbBlockReference
  2
_DOTSMALL
 10
8861.257109428605
 20
9570.160907337886
 30
0.0
 41
100.0
 42
100.0
 43
100.0
  0
MTEXT
  5
16F5B
330
1458A
100
AcDbEntity
  8
寸法
 62
     7
 48
50.0
100
AcDbMText
 10
8552.771828054366
 20
9670.160907337887
 30
0.0
 40
120.0
 41
0.0
 71
     5
 72
     1
  1
\A1;55
  7
STYLE1
 73
     1
 44
1.0
1001
ACAD
1000
MTEXTBEGIN
1070
    73
1070
     1
1070
    44
1040
1.0
1070
    74
1070
     0
1000
MTEXTEND
  0
POINT
  5
16F5C
330
1458A
100
AcDbEntity
  8
DEFPOINTS
 62
     0
 48
50.0
100
AcDbPoint
 10
8861.257109428605
 20
9273.353880529677
 30
0.0
  0
POINT
  5
16F5D
330
1458A
100
AcDbEntity
  8
DEFPOINTS
 62
     0
 48
50.0
100
AcDbPoint
 10
8916.25710942864
 20
9273.353880529677
 30
0.0
  0
POINT
  5
16F5E
330
1458A
100
AcDbEntity
  8
DEFPOINTS
 62
     0
 48
50.0
100
AcDbPoint
 10
8916.25710942864
 20
9570.160907337886
 30
0.0
  0
ENDBLK
  5
1562A
330
1458A
100
AcDbEntity
  8
0
 48
50.0
100
AcDbBlockEnd
  0
BLOCK
  5
15480
330
14598
100
AcDbEntity
  8
0
 48
50.0
100
AcDbBlockBegin
  2
*D2
 70
     1
 10
0.0
 20
0.0
 30
0.0
  3
*D2
  1

  0
LINE
  5
16F96
330
14598
100
AcDbEntity
  8
寸法
 62
     0
 48
50.0
370
    -2
100
AcDbLine
 10
10671.25710942864
 20
9273.353880529773
 30
0.0
 11
11652.54644104718
 21
9273.353880529773
 31
0.0
  0
LINE
  5
16F97
330
14598
100
AcDbEntity
  8
寸法
 62
     0
 48
50.0
370
    -2
100
AcDbLine
 10
10671.25710942861
 20
7903.353880529763
 30
0.0
 11
11652.54644104718
 21
7903.353880529763
 31
0.0
  0
LINE
  5
16F98
330
14598
100
AcDbEntity
  8
寸法
 62
     0
 48
50.0
370
    -2
100
AcDbLine
 10
11592.54644104718
 20
9273.353880529773
 30
0.0
 11
11592.54644104718
 21
7903.353880529763
 31
0.0
  0
INSERT
  5
16F99
330
14598
100
AcDbEntity
  8
寸法
 62
     0
 48
50.0
370
    -2
100
AcDbBlockReference
  2
_DOTSMALL
 10
11592.54644104718
 20
9273.353880529773
 30
0.0
 41
100.0
 42
100.0
 43
100.0
 50
90.0
  0
INSERT
  5
16F9A
330
14598
100
AcDbEntity
  8
寸法
 62
     0
 48
50.0
370
    -2
100
AcDbBlockReference
  2
_DOTSMALL
 10
11592.54644104718
 20
7903.353880529763
 30
0.0
 41
100.0
 42
100.0
 43
100.0
 50
270.0
  0
MTEXT
  5
16F9B
330
14598
100
AcDbEntity
  8
寸法
 62
     7
 48
50.0
100
AcDbMText
 10
11492.54644104717
 20
8583.105232921377
 30
0.0
 40
120.0
 41
0.0
 71
     5
 72
     1
  1
\A1;1370
  7
STYLE1
 11
0.0000000000000001
 21
1.0
 31
0.0
 73
     1
 44
1.0
1001
ACAD
1000
MTEXTBEGIN
1070
    73
1070
     1
1070
    44
1040
1.0
1070
    74
1070
     0
1000
MTEXTEND
  0
POINT
  5
16F9C
330
14598
100
AcDbEntity
  8
DEFPOINTS
 62
     0
 48
50.0
100
AcDbPoint
 10
10651.25710942864
 20
9273.353880529773
 30
0.0
  0
POINT
  5
16F9D
330
14598
100
AcDbEntity
  8
DEFPOINTS
 62
     0
 48
50.0
100
AcDbPoint
 10
10651.25710942861
 20
7903.353880529763
 30
0.0
  0
POINT
  5
16F9E
330
14598
100
AcDbEntity
  8
DEFPOINTS
 62
     0
 48
50.0
100
AcDbPoint
 10
11592.54644104718
 20
7903.353880529763
 30
0.0
  0
ENDBLK
  5
1548A
330
14598
100
AcDbEntity
  8
0
 48
50.0
100
AcDbBlockEnd
  0
BLOCK
  5
15473
330
145A4
100
AcDbEntity
  8
0
 48
50.0
100
AcDbBlockBegin
  2
*D3
 70
     1
 10
0.0
 20
0.0
 30
0.0
  3
*D3
  1

  0
LINE
  5
16F40
330
145A4
100
AcDbEntity
  8
寸法
 62
     0
 48
50.0
370
    -2
100
AcDbLine
 10
10671.25710942864
 20
9273.353880529773
 30
0.0
 11
11358.68345516305
 21
9273.353880529773
 31
0.0
  0
LINE
  5
16F41
330
145A4
100
AcDbEntity
  8
寸法
 62
     0
 48
50.0
370
    -2
100
AcDbLine
 10
10671.25710942864
 20
9218.353880529775
 30
0.0
 11
11358.68345516305
 21
9218.353880529775
 31
0.0
  0
LINE
  5
16F42
330
145A4
100
AcDbEntity
  8
寸法
 62
     0
 48
50.0
370
    -2
100
AcDbLine
 10
11298.68345516305
 20
9218.353880529775
 30
0.0
 11
11298.68345516305
 21
9118.353880529776
 31
0.0
  0
LINE
  5
16F43
330
145A4
100
AcDbEntity
  8
寸法
 62
     0
 48
50.0
370
    -2
100
AcDbLine
 10
11298.68345516305
 20
9273.353880529773
 30
0.0
 11
11298.68345516305
 21
9690.32444327825
 31
0.0
  0
LINE
  5
16F44
330
145A4
100
AcDbEntity
  8
寸法
 62
     0
 48
50.0
370
    -2
100
AcDbLine
 10
11298.68345516305
 20
9218.353880529775
 30
0.0
 11
11298.68345516305
 21
9273.353880529773
 31
0.0
  0
INSERT
  5
16F45
330
145A4
100
AcDbEntity
  8
寸法
 62
     0
 48
50.0
370
    -2
100
AcDbBlockReference
  2
_DOTSMALL
 10
11298.68345516305
 20
9218.353880529775
 30
0.0
 41
100.0
 42
100.0
 43
100.0
 50
90.0
  0
INSERT
  5
16F46
330
145A4
100
AcDbEntity
  8
寸法
 62
     0
 48
50.0
370
    -2
100
AcDbBlockReference
  2
_DOTSMALL
 10
11298.68345516305
 20
9273.353880529773
 30
0.0
 41
100.0
 42
100.0
 43
100.0
 50
270.0
  0
MTEXT
  5
16F47
330
145A4
100
AcDbEntity
  8
寸法
 62
     7
 48
50.0
100
AcDbMText
 10
11198.68345516305
 20
9581.839161904012
 30
0.0
 40
120.0
 41
0.0
 71
     5
 72
     1
  1
\A1;55
  7
STYLE1
 11
0.0000000000000001
 21
1.0
 31
0.0
 73
     1
 44
1.0
1001
ACAD
1000
MTEXTBEGIN
1070
    73
1070
     1
1070
    44
1040
1.0
1070
    74
1070
     0
1000
MTEXTEND
  0
POINT
  5
16F48
330
145A4
100
AcDbEntity
  8
DEFPOINTS
 62
     0
 48
50.0
100
AcDbPoint
 10
10651.25710942864
 20
9273.353880529773
 30
0.0
  0
POINT
  5
16F49
330
145A4
100
AcDbEntity
  8
DEFPOINTS
 62
     0
 48
50.0
100
AcDbPoint
 10
10651.25710942864
 20
9218.353880529775
 30
0.0
  0
POINT
  5
16F4A
330
145A4
100
AcDbEntity
  8
DEFPOINTS
 62
     0
 48
50.0
100
AcDbPoint
 10
11298.68345516305
 20
9218.353880529775
 30
0.0
  0
ENDBLK
  5
1547F
330
145A4
100
AcDbEntity
  8
0
 48
50.0
100
AcDbBlockEnd
  0
BLOCK
  5
15468
330
145B2
100
AcDbEntity
  8
0
 48
50.0
100
AcDbBlockBegin
  2
*D4
 70
     1
 10
0.0
 20
0.0
 30
0.0
  3
*D4
  1

  0
LINE
  5
16F37
330
145B2
100
AcDbEntity
  8
寸法
 62
     0
 48
50.0
370
    -2
100
AcDbLine
 10
10642.75710942864
 20
9237.994896681149
 30
0.0
 11
11038.11483529066
 21
9132.059113315015
 31
0.0
  0
LINE
  5
16F38
330
145B2
100
AcDbEntity
  8
寸法
 62
     0
 48
50.0
370
    -2
100
AcDbLine
 10
10642.75710942864
 20
8787.994896681151
 30
0.0
 11
11038.11483529066
 21
8682.059113315018
 31
0.0
  0
LINE
  5
16F39
330
145B2
100
AcDbEntity
  8
寸法
 62
     0
 48
50.0
370
    -2
100
AcDbLine
 10
10978.11483529066
 20
9148.136064860883
 30
0.0
 11
10978.11483529066
 21
8698.136064860884
 31
0.0
  0
INSERT
  5
16F3A
330
145B2
100
AcDbEntity
  8
寸法
 62
     0
 48
50.0
370
    -2
100
AcDbBlockReference
  2
_DOTSMALL
 10
10978.11483529066
 20
9148.136064860883
 30
0.0
 41
100.0
 42
100.0
 43
100.0
 50
90.0
  0
INSERT
  5
16F3B
330
145B2
100
AcDbEntity
  8
寸法
 62
     0
 48
50.0
370
    -2
100
AcDbBlockReference
  2
_DOTSMALL
 10
10978.11483529066
 20
8698.136064860884
 30
0.0
 41
100.0
 42
100.0
 43
100.0
 50
270.0
  0
MTEXT
  5
16F3C
330
145B2
100
AcDbEntity
  8
寸法
 62
     7
 48
50.0
100
AcDbMText
 10
10878.11483529066
 20
8923.136064860885
 30
0.0
 40
120.0
 41
0.0
 71
     5
 72
     1
  1
\A1;450
  7
STYLE1
 11
0.0000000000000001
 21
1.0
 31
0.0
 73
     1
 44
1.0
1001
ACAD
1000
MTEXTBEGIN
1070
    73
1070
     1
1070
    44
1040
1.0
1070
    74
1070
     0
1000
MTEXTEND
  0
POINT
  5
16F3D
330
145B2
100
AcDbEntity
  8
DEFPOINTS
 62
     0
 48
50.0
100
AcDbPoint
 10
10622.75710942864
 20
9243.353880529772
 30
0.0
  0
POINT
  5
16F3E
330
145B2
100
AcDbEntity
  8
DEFPOINTS
 62
     0
 48
50.0
100
AcDbPoint
 10
10622.75710942864
 20
8793.353880529775
 30
0.0
  0
POINT
  5
16F3F
330
145B2
100
AcDbEntity
  8
DEFPOINTS
 62
     0
 48
50.0
100
AcDbPoint
 10
10978.11483529066
 20
8698.136064860884
 30
0.0
  0
ENDBLK
  5
15472
330
145B2
100
AcDbEntity
  8
0
 48
50.0
100
AcDbBlockEnd
  0
BLOCK
  5
1545B
330
145BE
100
AcDbEntity
  8
0
 48
50.0
100
AcDbBlockBegin
  2
*D5
 70
     1
 10
0.0
 20
0.0
 30
0.0
  3
*D5
  1

  0
LINE
  5
16F2C
330
145BE
100
AcDbEntity
  8
寸法
 62
     0
 48
50.0
370
    -2
100
AcDbLine
 10
10671.25710942861
 20
7958.35388052976
 30
0.0
 11
11358.68345516302
 21
7958.35388052976
 31
0.0
  0
LINE
  5
16F2D
330
145BE
100
AcDbEntity
  8
寸法
 62
     0
 48
50.0
370
    -2
100
AcDbLine
 10
10671.25710942861
 20
7903.353880529763
 30
0.0
 11
11358.68345516302
 21
7903.353880529763
 31
0.0
  0
LINE
  5
16F2E
330
145BE
100
AcDbEntity
  8
寸法
 62
     0
 48
50.0
370
    -2
100
AcDbLine
 10
11298.68345516302
 20
7958.35388052976
 30
0.0
 11
11298.68345516302
 21
8058.353880529759
 31
0.0
  0
LINE
  5
16F2F
330
145BE
100
AcDbEntity
  8
寸法
 62
     0
 48
50.0
370
    -2
100
AcDbLine
 10
11298.68345516302
 20
7903.353880529763
 30
0.0
 11
11298.68345516302
 21
7417.007132250661
 31
0.0
  0
LINE
  5
16F30
330
145BE
100
AcDbEntity
  8
寸法
 62
     0
 48
50.0
370
    -2
100
AcDbLine
 10
11298.68345516302
 20
7958.35388052976
 30
0.0
 11
11298.68345516302
 21
7903.353880529763
 31
0.0
  0
INSERT
  5
16F31
330
145BE
100
AcDbEntity
  8
寸法
 62
     0
 48
50.0
370
    -2
100
AcDbBlockReference
  2
_DOTSMALL
 10
11298.68345516302
 20
7958.35388052976
 30
0.0
 41
100.0
 42
100.0
 43
100.0
 50
270.0
  0
INSERT
  5
16F32
330
145BE
100
AcDbEntity
  8
寸法
 62
     0
 48
50.0
370
    -2
100
AcDbBlockReference
  2
_DOTSMALL
 10
11298.68345516302
 20
7903.353880529763
 30
0.0
 41
100.0
 42
100.0
 43
100.0
 50
90.0
  0
MTEXT
  5
16F33
330
145BE
100
AcDbEntity
  8
寸法
 62
     7
 48
50.0
100
AcDbMText
 10
11198.68345516302
 20
7525.492413624902
 30
0.0
 40
120.0
 41
0.0
 71
     5
 72
     1
  1
\A1;55
  7
STYLE1
 11
0.0000000000000001
 21
1.0
 31
0.0
 73
     1
 44
1.0
1001
ACAD
1000
MTEXTBEGIN
1070
    73
1070
     1
1070
    44
1040
1.0
1070
    74
1070
     0
1000
MTEXTEND
  0
POINT
  5
16F34
330
145BE
100
AcDbEntity
  8
DEFPOINTS
 62
     0
 48
50.0
100
AcDbPoint
 10
10651.25710942861
 20
7958.35388052976
 30
0.0
  0
POINT
  5
16F35
330
145BE
100
AcDbEntity
  8
DEFPOINTS
 62
     0
 48
50.0
100
AcDbPoint
 10
10651.25710942861
 20
7903.353880529763
 30
0.0
  0
POINT
  5
16F36
330
145BE
100
AcDbEntity
  8
DEFPOINTS
 62
     0
 48
50.0
100
AcDbPoint
 10
11298.68345516302
 20
7903.353880529763
 30
0.0
  0
ENDBLK
  5
15467
330
145BE
100
AcDbEntity
  8
0
 48
50.0
100
AcDbBlockEnd
  0
BLOCK
  5
15450
330
145CC
100
AcDbEntity
  8
0
 48
50.0
100
AcDbBlockBegin
  2
*D6
 70
     1
 10
0.0
 20
0.0
 30
0.0
  3
*D6
  1

  0
LINE
  5
16F23
330
145CC
100
AcDbEntity
  8
寸法
 62
     0
 48
50.0
370
    -2
100
AcDbLine
 10
10671.25710942864
 20
9218.353880529775
 30
0.0
 11
11358.68345516305
 21
9218.353880529775
 31
0.0
  0
LINE
  5
16F24
330
145CC
100
AcDbEntity
  8
寸法
 62
     0
 48
50.0
370
    -2
100
AcDbLine
 10
10671.25710942861
 20
7958.35388052976
 30
0.0
 11
11358.68345516305
 21
7958.35388052976
 31
0.0
  0
LINE
  5
16F25
330
145CC
100
AcDbEntity
  8
寸法
 62
     0
 48
50.0
370
    -2
100
AcDbLine
 10
11298.68345516305
 20
9218.353880529775
 30
0.0
 11
11298.68345516305
 21
7958.35388052976
 31
0.0
  0
INSERT
  5
16F26
330
145CC
100
AcDbEntity
  8
寸法
 62
     0
 48
50.0
370
    -2
100
AcDbBlockReference
  2
_DOTSMALL
 10
11298.68345516305
 20
9218.353880529775
 30
0.0
 41
100.0
 42
100.0
 43
100.0
 50
90.0
  0
INSERT
  5
16F27
330
145CC
100
AcDbEntity
  8
寸法
 62
     0
 48
50.0
370
    -2
100
AcDbBlockReference
  2
_DOTSMALL
 10
11298.68345516305
 20
7958.35388052976
 30
0.0
 41
100.0
 42
100.0
 43
100.0
 50
270.0
  0
MTEXT
  5
16F28
330
145CC
100
AcDbEntity
  8
寸法
 62
     7
 48
50.0
100
AcDbMText
 10
11198.67164413943
 20
8588.353880529769
 30
0.0
 40
120.0
 41
0.0
 71
     5
 72
     1
  1
\A1;3X420=1260
  7
STYLE1
 11
0.0000000000000001
 21
1.0
 31
0.0
 73
     1
 44
1.0
1001
ACAD
1000
MTEXTBEGIN
1070
    73
1070
     1
1070
    44
1040
1.0
1070
    74
1070
     0
1000
MTEXTEND
  0
POINT
  5
16F29
330
145CC
100
AcDbEntity
  8
DEFPOINTS
 62
     0
 48
50.0
100
AcDbPoint
 10
10651.25710942864
 20
9218.353880529775
 30
0.0
  0
POINT
  5
16F2A
330
145CC
100
AcDbEntity
  8
DEFPOINTS
 62
     0
 48
50.0
100
AcDbPoint
 10
10651.25710942861
 20
7958.35388052976
 30
0.0
  0
POINT
  5
16F2B
330
145CC
100
AcDbEntity
  8
DEFPOINTS
 62
     0
 48
50.0
100
AcDbPoint
 10
11298.68345516305
 20
7958.35388052976
 30
0.0
  0
ENDBLK
  5
1545A
330
145CC
100
AcDbEntity
  8
0
 48
50.0
100
AcDbBlockEnd
  0
BLOCK
  5
155AE
330
145D8
100
AcDbEntity
  8
0
 48
50.0
100
AcDbBlockBegin
  2
*D7
 70
     1
 10
0.0
 20
0.0
 30
0.0
  3
*D7
  1

  0
LINE
  5
16F68
330
145D8
100
AcDbEntity
  8
寸法
 62
     0
 48
50.0
370
    -2
100
AcDbLine
 10
8861.257109428633
 20
7883.3538805296
 30
0.0
 11
8861.257109428633
 21
6651.526089784697
 31
0.0
  0
LINE
  5
16F69
330
145D8
100
AcDbEntity
  8
寸法
 62
     0
 48
50.0
370
    -2
100
AcDbLine
 10
10651.25710942861
 20
7883.353880529728
 30
0.0
 11
10651.25710942861
 21
6651.526089784697
 31
0.0
  0
LINE
  5
16F6A
330
145D8
100
AcDbEntity
  8
寸法
 62
     0
 48
50.0
370
    -2
100
AcDbLine
 10
8861.257109428633
 20
6711.526089784697
 30
0.0
 11
10651.25710942861
 21
6711.526089784697
 31
0.0
  0
INSERT
  5
16F6B
330
145D8
100
AcDbEntity
  8
寸法
 62
     0
 48
50.0
370
    -2
100
AcDbBlockReference
  2
_DOTSMALL
 10
8861.257109428633
 20
6711.526089784697
 30
0.0
 41
100.0
 42
100.0
 43
100.0
 50
180.0
  0
INSERT
  5
16F6C
330
145D8
100
AcDbEntity
  8
寸法
 62
     0
 48
50.0
370
    -2
100
AcDbBlockReference
  2
_DOTSMALL
 10
10651.25710942861
 20
6711.526089784697
 30
0.0
 41
100.0
 42
100.0
 43
100.0
  0
MTEXT
  5
16F6D
330
145D8
100
AcDbEntity
  8
寸法
 62
     7
 48
50.0
100
AcDbMText
 10
9744.403859759987
 20
6811.526089784696
 30
0.0
 40
120.0
 41
0.0
 71
     5
 72
     1
  1
\A1;1790
  7
STYLE1
 73
     1
 44
1.0
1001
ACAD
1000
MTEXTBEGIN
1070
    73
1070
     1
1070
    44
1040
1.0
1070
    74
1070
     0
1000
MTEXTEND
  0
POINT
  5
16F6E
330
145D8
100
AcDbEntity
  8
DEFPOINTS
 62
     0
 48
50.0
100
AcDbPoint
 10
8861.257109428633
 20
7903.353880529599
 30
0.0
  0
POINT
  5
16F6F
330
145D8
100
AcDbEntity
  8
DEFPOINTS
 62
     0
 48
50.0
100
AcDbPoint
 10
10651.25710942861
 20
7903.353880529728
 30
0.0
  0
POINT
  5
16F70
330
145D8
100
AcDbEntity
  8
DEFPOINTS
 62
     0
 48
50.0
100
AcDbPoint
 10
10651.25710942861
 20
6711.526089784697
 30
0.0
  0
ENDBLK
  5
155B8
330
145D8
100
AcDbEntity
  8
0
 48
50.0
100
AcDbBlockEnd
  0
BLOCK
  5
15496
330
145FC
100
AcDbEntity
  8
0
 48
50.0
100
AcDbBlockBegin
  2
*D8
 70
     1
 10
0.0
 20
0.0
 30
0.0
  3
*D8
  1

  0
LINE
  5
16F1A
330
145FC
100
AcDbEntity
  8
寸法
 62
     0
 48
50.0
370
    -2
100
AcDbLine
 10
9764.398125580017
 20
8773.35388052978
 30
0.0
 11
9675.111384326342
 21
8440.131225728809
 31
0.0
  0
LINE
  5
16F1B
330
145FC
100
AcDbEntity
  8
寸法
 62
     0
 48
50.0
370
    -2
100
AcDbLine
 10
10617.39812558003
 20
8773.353880529775
 30
0.0
 11
10528.11138432635
 21
8440.131225728809
 31
0.0
  0
LINE
  5
16F1C
330
145FC
100
AcDbEntity
  8
寸法
 62
     0
 48
50.0
370
    -2
100
AcDbLine
 10
9691.188335872208
 20
8500.131225728807
 30
0.0
 11
10544.18833587222
 21
8500.131225728807
 31
0.0
  0
INSERT
  5
16F1D
330
145FC
100
AcDbEntity
  8
寸法
 62
     0
 48
50.0
370
    -2
100
AcDbBlockReference
  2
_DOTSMALL
 10
9691.188335872208
 20
8500.131225728807
 30
0.0
 41
100.0
 42
100.0
 43
100.0
 50
180.0
  0
INSERT
  5
16F1E
330
145FC
100
AcDbEntity
  8
寸法
 62
     0
 48
50.0
370
    -2
100
AcDbBlockReference
  2
_DOTSMALL
 10
10544.18833587222
 20
8500.131225728807
 30
0.0
 41
100.0
 42
100.0
 43
100.0
  0
MTEXT
  5
16F1F
330
145FC
100
AcDbEntity
  8
寸法
 62
     7
 48
50.0
100
AcDbMText
 10
10149.1041715469
 20
8600.131225728807
 30
0.0
 40
120.0
 41
0.0
 71
     5
 72
     1
  1
\A1;853
  7
STYLE1
 73
     1
 44
1.0
1001
ACAD
1000
MTEXTBEGIN
1070
    73
1070
     1
1070
    44
1040
1.0
1070
    74
1070
     0
1000
MTEXTEND
  0
POINT
  5
16F20
330
145FC
100
AcDbEntity
  8
DEFPOINTS
 62
     0
 48
50.0
100
AcDbPoint
 10
9769.75710942864
 20
8793.353880529782
 30
0.0
  0
POINT
  5
16F21
330
145FC
100
AcDbEntity
  8
DEFPOINTS
 62
     0
 48
50.0
100
AcDbPoint
 10
10622.75710942865
 20
8793.353880529776
 30
0.0
  0
POINT
  5
16F22
330
145FC
100
AcDbEntity
  8
DEFPOINTS
 62
     0
 48
50.0
100
AcDbPoint
 10
10544.18833587222
 20
8500.131225728807
 30
0.0
  0
ENDBLK
  5
154A0
330
145FC
100
AcDbEntity
  8
0
 48
50.0
100
AcDbBlockEnd
  0
BLOCK
  5
15606
330
14608
100
AcDbEntity
  8
0
 48
50.0
100
AcDbBlockBegin
  2
*D9
 70
     1
 10
0.0
 20
0.0
 30
0.0
  3
*D9
  1

  0
LINE
  5
16F0F
330
14608
100
AcDbEntity
  8
寸法
 62
     0
 48
50.0
370
    -2
100
AcDbLine
 10
10596.25710942864
 20
9293.353880529773
 30
0.0
 11
10596.25710942864
 21
9630.160907337982
 31
0.0
  0
LINE
  5
16F10
330
14608
100
AcDbEntity
  8
寸法
 62
     0
 48
50.0
370
    -2
100
AcDbLine
 10
10651.25710942864
 20
9293.353880529773
 30
0.0
 11
10651.25710942864
 21
9630.160907337982
 31
0.0
  0
LINE
  5
16F11
330
14608
100
AcDbEntity
  8
寸法
 62
     0
 48
50.0
370
    -2
100
AcDbLine
 10
10596.25710942864
 20
9570.160907337983
 30
0.0
 11
10496.25710942864
 21
9570.160907337983
 31
0.0
  0
LINE
  5
16F12
330
14608
100
AcDbEntity
  8
寸法
 62
     0
 48
50.0
370
    -2
100
AcDbLine
 10
10651.25710942864
 20
9570.160907337983
 30
0.0
 11
11068.22767217711
 21
9570.160907337983
 31
0.0
  0
LINE
  5
16F13
330
14608
100
AcDbEntity
  8
寸法
 62
     0
 48
50.0
370
    -2
100
AcDbLine
 10
10596.25710942864
 20
9570.160907337983
 30
0.0
 11
10651.25710942864
 21
9570.160907337983
 31
0.0
  0
INSERT
  5
16F14
330
14608
100
AcDbEntity
  8
寸法
 62
     0
 48
50.0
370
    -2
100
AcDbBlockReference
  2
_DOTSMALL
 10
10596.25710942864
 20
9570.160907337983
 30
0.0
 41
100.0
 42
100.0
 43
100.0
  0
INSERT
  5
16F15
330
14608
100
AcDbEntity
  8
寸法
 62
     0
 48
50.0
370
    -2
100
AcDbBlockReference
  2
_DOTSMALL
 10
10651.25710942864
 20
9570.160907337983
 30
0.0
 41
100.0
 42
100.0
 43
100.0
 50
180.0
  0
MTEXT
  5
16F16
330
14608
100
AcDbEntity
  8
寸法
 62
     7
 48
50.0
100
AcDbMText
 10
10959.74239080288
 20
9670.160907337983
 30
0.0
 40
120.0
 41
0.0
 71
     5
 72
     1
  1
\A1;55
  7
STYLE1
 73
     1
 44
1.0
1001
ACAD
1000
MTEXTBEGIN
1070
    73
1070
     1
1070
    44
1040
1.0
1070
    74
1070
     0
1000
MTEXTEND
  0
POINT
  5
16F17
330
14608
100
AcDbEntity
  8
DEFPOINTS
 62
     0
 48
50.0
100
AcDbPoint
 10
10596.25710942864
 20
9273.353880529773
 30
0.0
  0
POINT
  5
16F18
330
14608
100
AcDbEntity
  8
DEFPOINTS
 62
     0
 48
50.0
100
AcDbPoint
 10
10651.25710942864
 20
9273.353880529773
 30
0.0
  0
POINT
  5
16F19
330
14608
100
AcDbEntity
  8
DEFPOINTS
 62
     0
 48
50.0
100
AcDbPoint
 10
10651.25710942864
 20
9570.160907337983
 30
0.0
  0
ENDBLK
  5
15612
330
14608
100
AcDbEntity
  8
0
 48
50.0
100
AcDbBlockEnd
  0
BLOCK
  5
15613
330
14616
100
AcDbEntity
  8
0
 48
50.0
100
AcDbBlockBegin
  2
*D10
 70
     1
 10
0.0
 20
0.0
 30
0.0
  3
*D10
  1

  0
LINE
  5
16F06
330
14616
100
AcDbEntity
  8
寸法
 62
     0
 48
50.0
370
    -2
100
AcDbLine
 10
8916.25710942864
 20
9293.353880529677
 30
0.0
 11
8916.25710942864
 21
9630.160907338002
 31
0.0
  0
LINE
  5
16F07
330
14616
100
AcDbEntity
  8
寸法
 62
     0
 48
50.0
370
    -2
100
AcDbLine
 10
10596.25710942864
 20
9293.353880529773
 30
0.0
 11
10596.25710942864
 21
9630.160907338002
 31
0.0
  0
LINE
  5
16F08
330
14616
100
AcDbEntity
  8
寸法
 62
     0
 48
50.0
370
    -2
100
AcDbLine
 10
8916.25710942864
 20
9570.160907338003
 30
0.0
 11
10596.25710942864
 21
9570.160907338003
 31
0.0
  0
INSERT
  5
16F09
330
14616
100
AcDbEntity
  8
寸法
 62
     0
 48
50.0
370
    -2
100
AcDbBlockReference
  2
_DOTSMALL
 10
8916.25710942864
 20
9570.160907338003
 30
0.0
 41
100.0
 42
100.0
 43
100.0
 50
180.0
  0
INSERT
  5
16F0A
330
14616
100
AcDbEntity
  8
寸法
 62
     0
 48
50.0
370
    -2
100
AcDbBlockReference
  2
_DOTSMALL
 10
10596.25710942864
 20
9570.160907338003
 30
0.0
 41
100.0
 42
100.0
 43
100.0
  0
MTEXT
  5
16F0B
330
14616
100
AcDbEntity
  8
寸法
 62
     7
 48
50.0
100
AcDbMText
 10
9756.257109428638
 20
9670.172718361625
 30
0.0
 40
120.0
 41
0.0
 71
     5
 72
     1
  1
\A1;4X420=1680
  7
STYLE1
 73
     1
 44
1.0
1001
ACAD
1000
MTEXTBEGIN
1070
    73
1070
     1
1070
    44
1040
1.0
1070
    74
1070
     0
1000
MTEXTEND
  0
POINT
  5
16F0C
330
14616
100
AcDbEntity
  8
DEFPOINTS
 62
     0
 48
50.0
100
AcDbPoint
 10
8916.25710942864
 20
9273.353880529677
 30
0.0
  0
POINT
  5
16F0D
330
14616
100
AcDbEntity
  8
DEFPOINTS
 62
     0
 48
50.0
100
AcDbPoint
 10
10596.25710942864
 20
9273.353880529773
 30
0.0
  0
POINT
  5
16F0E
330
14616
100
AcDbEntity
  8
DEFPOINTS
 62
     0
 48
50.0
100
AcDbPoint
 10
10596.25710942864
 20
9570.160907338003
 30
0.0
  0
ENDBLK
  5
1561D
330
14616
100
AcDbEntity
  8
0
 48
50.0
100
AcDbBlockEnd
  0
BLOCK
  5
1540A
330
146B4
100
AcDbEntity
  8
0
 48
50.0
100
AcDbBlockBegin
  2
*D11
 70
     1
 10
0.0
 20
0.0
 30
0.0
  3
*D11
  1

  0
LINE
  5
1540B
330
146B4
100
AcDbEntity
  8
0
  6
ByBlock
 62
     0
 48
50.0
100
AcDbLine
 10
8961.257109428634
 20
2377.93159871326
 30
0.0
 11
8961.257109428634
 21
2051.884269412884
 31
0.0
  0
LINE
  5
1540C
330
146B4
100
AcDbEntity
  8
0
  6
ByBlock
 62
     0
 48
50.0
100
AcDbLine
 10
8761.257109428632
 20
2377.93159871326
 30
0.0
 11
8761.257109428632
 21
2051.884269412884
 31
0.0
  0
LINE
  5
1540D
330
146B4
100
AcDbEntity
  8
0
  6
ByBlock
 62
     0
 48
50.0
100
AcDbLine
 10
8961.257109428634
 20
2111.884269412883
 30
0.0
 11
8761.257109428632
 21
2111.884269412883
 31
0.0
  0
INSERT
  5
1540E
330
146B4
100
AcDbEntity
  8
0
  6
ByBlock
 62
     0
 48
50.0
100
AcDbBlockReference
  2
_DOTSMALL
 10
8961.257109428634
 20
2111.884269412883
 30
0.0
 41
100.0
 42
100.0
 43
100.0
  0
INSERT
  5
1540F
330
146B4
100
AcDbEntity
  8
0
  6
ByBlock
 62
     0
 48
50.0
100
AcDbBlockReference
  2
_DOTSMALL
 10
8761.257109428632
 20
2111.884269412883
 30
0.0
 41
100.0
 42
100.0
 43
100.0
 50
180.0
  0
MTEXT
  5
15410
330
146B4
100
AcDbEntity
  8
0
  6
ByBlock
 62
     7
 48
50.0
100
AcDbMText
 10
8861.257109428633
 20
2211.896080436506
 30
0.0
 40
120.0
 41
0.0
 71
     5
 72
     1
  1
\A1;200
  7
STYLE1
 73
     1
 44
1.0
1001
ACAD
1000
MTEXTBEGIN
1070
    73
1070
     1
1070
    44
1040
1.0
1070
    74
1070
     0
1000
MTEXTEND
  0
POINT
  5
15411
330
146B4
100
AcDbEntity
  8
DEFPOINTS
  6
ByBlock
 62
     0
 48
50.0
100
AcDbPoint
 10
8961.257109428634
 20
2397.931598713261
 30
0.0
  0
POINT
  5
15412
330
146B4
100
AcDbEntity
  8
DEFPOINTS
  6
ByBlock
 62
     0
 48
50.0
100
AcDbPoint
 10
8761.257109428632
 20
2397.931598713261
 30
0.0
  0
POINT
  5
15413
330
146B4
100
AcDbEntity
  8
DEFPOINTS
  6
ByBlock
 62
     0
 48
50.0
100
AcDbPoint
 10
8761.257109428632
 20
2111.884269412883
 30
0.0
  0
ENDBLK
  5
15414
330
146B4
100
AcDbEntity
  8
0
 48
50.0
100
AcDbBlockEnd
  0
BLOCK
  5
1548B
330
14BF2
100
AcDbEntity
  8
0
 48
50.0
100
AcDbBlockBegin
  2
*D12
 70
     1
 10
0.0
 20
0.0
 30
0.0
  3
*D12
  1

  0
LINE
  5
16EFD
330
14BF2
100
AcDbEntity
  8
寸法
 62
     0
 48
50.0
370
    -2
100
AcDbLine
 10
8884.398125580018
 20
8773.353880529676
 30
0.0
 11
8795.111384326341
 21
8440.131225728704
 31
0.0
  0
LINE
  5
16EFE
330
14BF2
100
AcDbEntity
  8
寸法
 62
     0
 48
50.0
370
    -2
100
AcDbLine
 10
9737.398125580028
 20
8773.35388052967
 30
0.0
 11
9648.111384326355
 21
8440.131225728704
 31
0.0
  0
LINE
  5
16EFF
330
14BF2
100
AcDbEntity
  8
寸法
 62
     0
 48
50.0
370
    -2
100
AcDbLine
 10
8811.188335872207
 20
8500.131225728702
 30
0.0
 11
9664.188335872221
 21
8500.131225728702
 31
0.0
  0
INSERT
  5
16F00
330
14BF2
100
AcDbEntity
  8
寸法
 62
     0
 48
50.0
370
    -2
100
AcDbBlockReference
  2
_DOTSMALL
 10
8811.188335872207
 20
8500.131225728702
 30
0.0
 41
100.0
 42
100.0
 43
100.0
 50
180.0
  0
INSERT
  5
16F01
330
14BF2
100
AcDbEntity
  8
寸法
 62
     0
 48
50.0
370
    -2
100
AcDbBlockReference
  2
_DOTSMALL
 10
9664.188335872221
 20
8500.131225728702
 30
0.0
 41
100.0
 42
100.0
 43
100.0
  0
MTEXT
  5
16F02
330
14BF2
100
AcDbEntity
  8
寸法
 62
     7
 48
50.0
100
AcDbMText
 10
9269.104171546906
 20
8600.131225728702
 30
0.0
 40
120.0
 41
0.0
 71
     5
 72
     1
  1
\A1;853
  7
STYLE1
 73
     1
 44
1.0
1001
ACAD
1000
MTEXTBEGIN
1070
    73
1070
     1
1070
    44
1040
1.0
1070
    74
1070
     0
1000
MTEXTEND
  0
POINT
  5
16F03
330
14BF2
100
AcDbEntity
  8
DEFPOINTS
 62
     0
 48
50.0
100
AcDbPoint
 10
8889.757109428639
 20
8793.353880529677
 30
0.0
  0
POINT
  5
16F04
330
14BF2
100
AcDbEntity
  8
DEFPOINTS
 62
     0
 48
50.0
100
AcDbPoint
 10
9742.757109428652
 20
8793.35388052967
 30
0.0
  0
POINT
  5
16F05
330
14BF2
100
AcDbEntity
  8
DEFPOINTS
 62
     0
 48
50.0
100
AcDbPoint
 10
9664.188335872221
 20
8500.131225728702
 30
0.0
  0
ENDBLK
  5
15495
330
14BF2
100
AcDbEntity
  8
0
 48
50.0
100
AcDbBlockEnd
  0
BLOCK
  5
15651
330
15650
100
AcDbEntity
  8
0
 48
50.0
100
AcDbBlockBegin
  2
_DOT
 70
     0
 10
0.0
 20
0.0
 30
0.0
  3
_DOT
  1

  0
LWPOLYLINE
  5
15652
330
15650
100
AcDbEntity
  8
0
  6
ByBlock
 62
     0
 48
50.0
100
AcDbPolyline
 90
        2
 70
     1
 43
0.5
 10
-0.25
 20
0.0
 42
1.0
 10
0.25
 20
0.0
 42
1.0
  0
LINE
  5
15653
330
15650
100
AcDbEntity
  8
0
  6
ByBlock
 62
     0
 48
50.0
100
AcDbLine
 10
-0.5
 20
0.0
 30
0.0
 11
-1.0
 21
0.0
 31
0.0
  0
ENDBLK
  5
15654
330
15650
100
AcDbEntity
  8
0
 48
50.0
100
AcDbBlockEnd
  0
BLOCK
  5
16082
330
16078
100
AcDbEntity
  8
0
 48
50.0
100
AcDbBlockBegin
  2
*D14
 70
     1
 10
0.0
 20
0.0
 30
0.0
  3
*D14
  1

  0
LINE
  5
160B8
330
16078
100
AcDbEntity
  8
寸法
 62
     0
 48
50.0
370
    -2
100
AcDbLine
 10
8869.25710942865
 20
4480.931598713261
 30
0.0
 11
8530.0510802165
 21
4480.931598713261
 31
0.0
  0
LINE
  5
160B9
330
16078
100
AcDbEntity
  8
寸法
 62
     0
 48
50.0
370
    -2
100
AcDbLine
 10
8869.25710942865
 20
2755.931598713261
 30
0.0
 11
8530.051080216498
 21
2755.931598713261
 31
0.0
  0
LINE
  5
160BA
330
16078
100
AcDbEntity
  8
寸法
 62
     0
 48
50.0
370
    -2
100
AcDbLine
 10
8590.051080216499
 20
4480.931598713261
 30
0.0
 11
8590.051080216497
 21
2755.931598713261
 31
0.0
  0
INSERT
  5
160BB
330
16078
100
AcDbEntity
  8
寸法
 62
     0
 48
50.0
370
    -2
100
AcDbBlockReference
  2
_DOTSMALL
 10
8590.051080216499
 20
4480.931598713261
 30
0.0
 41
100.0
 42
100.0
 43
100.0
 50
90.0
  0
INSERT
  5
160BC
330
16078
100
AcDbEntity
  8
寸法
 62
     0
 48
50.0
370
    -2
100
AcDbBlockReference
  2
_DOTSMALL
 10
8590.051080216497
 20
2755.931598713261
 30
0.0
 41
100.0
 42
100.0
 43
100.0
 50
270.0
  0
MTEXT
  5
160BD
330
16078
100
AcDbEntity
  8
寸法
 62
     7
 48
50.0
100
AcDbMText
 10
8490.039269192875
 20
3609.564617730786
 30
0.0
 40
120.0
 41
0.0
 71
     5
 72
     1
  1
\A1;有効開口部高サ1725
  7
STYLE1
 11
0.0000000000000001
 21
1.0
 31
0.0
 73
     1
 44
1.0
1001
ACAD
1000
MTEXTBEGIN
1070
    73
1070
     1
1070
    44
1040
1.0
1070
    74
1070
     0
1000
MTEXTEND
  0
POINT
  5
160BE
330
16078
100
AcDbEntity
  8
DEFPOINTS
 62
     0
 48
50.0
100
AcDbPoint
 10
8889.257109428648
 20
4480.931598713261
 30
0.0
  0
POINT
  5
160BF
330
16078
100
AcDbEntity
  8
DEFPOINTS
 62
     0
 48
50.0
100
AcDbPoint
 10
8889.257109428648
 20
2755.931598713261
 30
0.0
  0
POINT
  5
160C0
330
16078
100
AcDbEntity
  8
DEFPOINTS
 62
     0
 48
50.0
100
AcDbPoint
 10
8590.051080216497
 20
2755.931598713261
 30
0.0
  0
ENDBLK
  5
16083
330
16078
100
AcDbEntity
  8
0
 48
50.0
100
AcDbBlockEnd
  0
BLOCK
  5
1608E
330
16084
100
AcDbEntity
  8
0
 48
50.0
100
AcDbBlockBegin
  2
*D15
 70
     1
 10
0.0
 20
0.0
 30
0.0
  3
*D15
  1

  0
LINE
  5
1613E
330
16084
100
AcDbEntity
  8
寸法
 62
     0
 48
50.0
370
    -2
100
AcDbLine
 10
8811.257109428632
 20
4792.931598713266
 30
0.0
 11
8811.257109428632
 21
5448.55086767118
 31
0.0
  0
LINE
  5
1613F
330
16084
100
AcDbEntity
  8
寸法
 62
     0
 48
50.0
370
    -2
100
AcDbLine
 10
10701.25710942863
 20
4792.931598713264
 30
0.0
 11
10701.25710942863
 21
5448.55086767118
 31
0.0
  0
LINE
  5
16140
330
16084
100
AcDbEntity
  8
寸法
 62
     0
 48
50.0
370
    -2
100
AcDbLine
 10
8811.257109428632
 20
5388.55086767118
 30
0.0
 11
10701.25710942863
 21
5388.55086767118
 31
0.0
  0
INSERT
  5
16141
330
16084
100
AcDbEntity
  8
寸法
 62
     0
 48
50.0
370
    -2
100
AcDbBlockReference
  2
_DOTSMALL
 10
8811.257109428632
 20
5388.55086767118
 30
0.0
 41
100.0
 42
100.0
 43
100.0
 50
180.0
  0
INSERT
  5
16142
330
16084
100
AcDbEntity
  8
寸法
 62
     0
 48
50.0
370
    -2
100
AcDbBlockReference
  2
_DOTSMALL
 10
10701.25710942863
 20
5388.55086767118
 30
0.0
 41
100.0
 42
100.0
 43
100.0
  0
MTEXT
  5
16143
330
16084
100
AcDbEntity
  8
寸法
 62
     7
 48
50.0
100
AcDbMText
 10
9756.257109428633
 20
5488.55086767118
 30
0.0
 40
120.0
 41
0.0
 71
     5
 72
     1
  1
\A1;1890
  7
STYLE1
 73
     1
 44
1.0
1001
ACAD
1000
MTEXTBEGIN
1070
    73
1070
     1
1070
    44
1040
1.0
1070
    74
1070
     0
1000
MTEXTEND
  0
POINT
  5
16144
330
16084
100
AcDbEntity
  8
DEFPOINTS
 62
     0
 48
50.0
100
AcDbPoint
 10
8811.257109428632
 20
4772.931598713267
 30
0.0
  0
POINT
  5
16145
330
16084
100
AcDbEntity
  8
DEFPOINTS
 62
     0
 48
50.0
100
AcDbPoint
 10
10701.25710942863
 20
4772.931598713264
 30
0.0
  0
POINT
  5
16146
330
16084
100
AcDbEntity
  8
DEFPOINTS
 62
     0
 48
50.0
100
AcDbPoint
 10
10701.25710942863
 20
5388.55086767118
 30
0.0
  0
ENDBLK
  5
1608F
330
16084
100
AcDbEntity
  8
0
 48
50.0
100
AcDbBlockEnd
  0
BLOCK
  5
160AA
330
1609E
100
AcDbEntity
  8
0
 48
50.0
100
AcDbBlockBegin
  2
*D16
 70
     1
 10
0.0
 20
0.0
 30
0.0
  3
*D16
  1

  0
LINE
  5
160D5
330
1609E
100
AcDbEntity
  8
寸法
 62
     0
 48
50.0
370
    -2
100
AcDbLine
 10
8861.257109428633
 20
4792.931598713267
 30
0.0
 11
8861.257109428633
 21
5232.024768052735
 31
0.0
  0
LINE
  5
160D6
330
1609E
100
AcDbEntity
  8
寸法
 62
     0
 48
50.0
370
    -2
100
AcDbLine
 10
8811.257109428632
 20
4792.931598713266
 30
0.0
 11
8811.257109428632
 21
5232.024768052735
 31
0.0
  0
LINE
  5
160D7
330
1609E
100
AcDbEntity
  8
寸法
 62
     0
 48
50.0
370
    -2
100
AcDbLine
 10
8861.257109428633
 20
5172.024768052734
 30
0.0
 11
8961.257109428633
 21
5172.024768052734
 31
0.0
  0
LINE
  5
160D8
330
1609E
100
AcDbEntity
  8
寸法
 62
     0
 48
50.0
370
    -2
100
AcDbLine
 10
8811.257109428632
 20
5172.024768052734
 30
0.0
 11
8391.724583959897
 21
5172.024768052734
 31
0.0
  0
LINE
  5
160D9
330
1609E
100
AcDbEntity
  8
寸法
 62
     0
 48
50.0
370
    -2
100
AcDbLine
 10
8861.257109428633
 20
5172.024768052734
 30
0.0
 11
8811.257109428632
 21
5172.024768052734
 31
0.0
  0
INSERT
  5
160DA
330
1609E
100
AcDbEntity
  8
寸法
 62
     0
 48
50.0
370
    -2
100
AcDbBlockReference
  2
_DOTSMALL
 10
8861.257109428633
 20
5172.024768052734
 30
0.0
 41
100.0
 42
100.0
 43
100.0
 50
180.0
  0
INSERT
  5
160DB
330
1609E
100
AcDbEntity
  8
寸法
 62
     0
 48
50.0
370
    -2
100
AcDbBlockReference
  2
_DOTSMALL
 10
8811.257109428632
 20
5172.024768052734
 30
0.0
 41
100.0
 42
100.0
 43
100.0
  0
MTEXT
  5
160DC
330
1609E
100
AcDbEntity
  8
寸法
 62
     7
 48
50.0
100
AcDbMText
 10
8497.771828054386
 20
5272.024768052734
 30
0.0
 40
120.0
 41
0.0
 71
     5
 72
     1
  1
\A1;50
  7
STYLE1
 73
     1
 44
1.0
1001
ACAD
1000
MTEXTBEGIN
1070
    73
1070
     1
1070
    44
1040
1.0
1070
    74
1070
     0
1000
MTEXTEND
  0
POINT
  5
160DD
330
1609E
100
AcDbEntity
  8
DEFPOINTS
 62
     0
 48
50.0
100
AcDbPoint
 10
8861.257109428633
 20
4772.931598713268
 30
0.0
  0
POINT
  5
160DE
330
1609E
100
AcDbEntity
  8
DEFPOINTS
 62
     0
 48
50.0
100
AcDbPoint
 10
8811.257109428632
 20
4772.931598713267
 30
0.0
  0
POINT
  5
160DF
330
1609E
100
AcDbEntity
  8
DEFPOINTS
 62
     0
 48
50.0
100
AcDbPoint
 10
8811.257109428632
 20
5172.024768052734
 30
0.0
  0
ENDBLK
  5
160AB
330
1609E
100
AcDbEntity
  8
0
 48
50.0
100
AcDbBlockEnd
  0
BLOCK
  5
160B6
330
160AC
100
AcDbEntity
  8
0
 48
50.0
100
AcDbBlockBegin
  2
*D17
 70
     1
 10
0.0
 20
0.0
 30
0.0
  3
*D17
  1

  0
LINE
  5
16147
330
160AC
100
AcDbEntity
  8
寸法
 62
     0
 48
50.0
370
    -2
100
AcDbLine
 10
10651.25710942863
 20
4792.931598713266
 30
0.0
 11
10651.25710942863
 21
5232.024768052735
 31
0.0
  0
LINE
  5
16148
330
160AC
100
AcDbEntity
  8
寸法
 62
     0
 48
50.0
370
    -2
100
AcDbLine
 10
8861.257109428633
 20
4792.931598713267
 30
0.0
 11
8861.257109428633
 21
5232.024768052735
 31
0.0
  0
LINE
  5
16149
330
160AC
100
AcDbEntity
  8
寸法
 62
     0
 48
50.0
370
    -2
100
AcDbLine
 10
10651.25710942863
 20
5172.024768052734
 30
0.0
 11
8861.257109428633
 21
5172.024768052734
 31
0.0
  0
INSERT
  5
1614A
330
160AC
100
AcDbEntity
  8
寸法
 62
     0
 48
50.0
370
    -2
100
AcDbBlockReference
  2
_DOTSMALL
 10
10651.25710942863
 20
5172.024768052734
 30
0.0
 41
100.0
 42
100.0
 43
100.0
  0
INSERT
  5
1614B
330
160AC
100
AcDbEntity
  8
寸法
 62
     0
 48
50.0
370
    -2
100
AcDbBlockReference
  2
_DOTSMALL
 10
8861.257109428633
 20
5172.024768052734
 30
0.0
 41
100.0
 42
100.0
 43
100.0
 50
180.0
  0
MTEXT
  5
1614C
330
160AC
100
AcDbEntity
  8
寸法
 62
     7
 48
50.0
100
AcDbMText
 10
9756.257109428633
 20
5272.024768052734
 30
0.0
 40
120.0
 41
0.0
 71
     5
 72
     1
  1
\A1;柱外寸法1790
  7
STYLE1
 73
     1
 44
1.0
1001
ACAD
1000
MTEXTBEGIN
1070
    73
1070
     1
1070
    44
1040
1.0
1070
    74
1070
     0
1000
MTEXTEND
  0
POINT
  5
1614D
330
160AC
100
AcDbEntity
  8
DEFPOINTS
 62
     0
 48
50.0
100
AcDbPoint
 10
10651.25710942863
 20
4772.931598713267
 30
0.0
  0
POINT
  5
1614E
330
160AC
100
AcDbEntity
  8
DEFPOINTS
 62
     0
 48
50.0
100
AcDbPoint
 10
8861.257109428633
 20
4772.931598713268
 30
0.0
  0
POINT
  5
1614F
330
160AC
100
AcDbEntity
  8
DEFPOINTS
 62
     0
 48
50.0
100
AcDbPoint
 10
8861.257109428633
 20
5172.024768052734
 30
0.0
  0
ENDBLK
  5
160B7
330
160AC
100
AcDbEntity
  8
0
 48
50.0
100
AcDbBlockEnd
  0
BLOCK
  5
16111
330
16105
100
AcDbEntity
  8
0
 48
50.0
100
AcDbBlockBegin
  2
*D18
 70
     1
 10
0.0
 20
0.0
 30
0.0
  3
*D18
  1

  0
LINE
  5
16113
330
16105
100
AcDbEntity
  8
寸法
 62
     0
 48
50.0
370
    -2
100
AcDbLine
 10
10701.25710942863
 20
4792.931598713264
 30
0.0
 11
10701.25710942863
 21
5232.024768052735
 31
0.0
  0
LINE
  5
16114
330
16105
100
AcDbEntity
  8
寸法
 62
     0
 48
50.0
370
    -2
100
AcDbLine
 10
10651.25710942863
 20
4792.931598713266
 30
0.0
 11
10651.25710942863
 21
5232.024768052735
 31
0.0
  0
LINE
  5
16115
330
16105
100
AcDbEntity
  8
寸法
 62
     0
 48
50.0
370
    -2
100
AcDbLine
 10
10651.25710942863
 20
5172.024768052734
 30
0.0
 11
10551.25710942863
 21
5172.024768052734
 31
0.0
  0
LINE
  5
16116
330
16105
100
AcDbEntity
  8
寸法
 62
     0
 48
50.0
370
    -2
100
AcDbLine
 10
10701.25710942863
 20
5172.024768052734
 30
0.0
 11
11120.78963489735
 21
5172.024768052734
 31
0.0
  0
LINE
  5
16117
330
16105
100
AcDbEntity
  8
寸法
 62
     0
 48
50.0
370
    -2
100
AcDbLine
 10
10651.25710942863
 20
5172.024768052734
 30
0.0
 11
10701.25710942863
 21
5172.024768052734
 31
0.0
  0
INSERT
  5
16118
330
16105
100
AcDbEntity
  8
寸法
 62
     0
 48
50.0
370
    -2
100
AcDbBlockReference
  2
_DOTSMALL
 10
10651.25710942863
 20
5172.024768052734
 30
0.0
 41
100.0
 42
100.0
 43
100.0
  0
INSERT
  5
16119
330
16105
100
AcDbEntity
  8
寸法
 62
     0
 48
50.0
370
    -2
100
AcDbBlockReference
  2
_DOTSMALL
 10
10701.25710942863
 20
5172.024768052734
 30
0.0
 41
100.0
 42
100.0
 43
100.0
 50
180.0
  0
MTEXT
  5
1611A
330
16105
100
AcDbEntity
  8
寸法
 62
     7
 48
50.0
100
AcDbMText
 10
11014.74239080287
 20
5272.024768052734
 30
0.0
 40
120.0
 41
0.0
 71
     5
 72
     1
  1
\A1;50
  7
STYLE1
 73
     1
 44
1.0
1001
ACAD
1000
MTEXTBEGIN
1070
    73
1070
     1
1070
    44
1040
1.0
1070
    74
1070
     0
1000
MTEXTEND
  0
POINT
  5
1611B
330
16105
100
AcDbEntity
  8
DEFPOINTS
 62
     0
 48
50.0
100
AcDbPoint
 10
10701.25710942863
 20
4772.931598713264
 30
0.0
  0
POINT
  5
1611C
330
16105
100
AcDbEntity
  8
DEFPOINTS
 62
     0
 48
50.0
100
AcDbPoint
 10
10651.25710942863
 20
4772.931598713267
 30
0.0
  0
POINT
  5
1611D
330
16105
100
AcDbEntity
  8
DEFPOINTS
 62
     0
 48
50.0
100
AcDbPoint
 10
10651.25710942863
 20
5172.024768052734
 30
0.0
  0
ENDBLK
  5
16112
330
16105
100
AcDbEntity
  8
0
 48
50.0
100
AcDbBlockEnd
  0
BLOCK
  5
16415
330
16414
100
AcDbEntity
  8
0
 48
50.0
100
AcDbBlockBegin
  2
*D19
 70
     1
 10
0.0
 20
0.0
 30
0.0
  3
*D19
  1

  0
LINE
  5
16416
330
16414
100
AcDbEntity
  8
寸法
 62
     0
 48
50.0
370
    -2
100
AcDbLine
 10
9280.693956914474
 20
3100.0
 30
0.0
 11
8151.943827731216
 21
3100.0
 31
0.0
  0
LINE
  5
16417
330
16414
100
AcDbEntity
  8
寸法
 62
     0
 48
50.0
370
    -2
100
AcDbLine
 10
8279.192881019342
 20
3000.0
 30
0.0
 11
8151.943827731216
 21
3000.0
 31
0.0
  0
LINE
  5
16418
330
16414
100
AcDbEntity
  8
寸法
 62
     0
 48
50.0
370
    -2
100
AcDbLine
 10
8211.943827731214
 20
3100.0
 30
0.0
 11
8211.943827731214
 21
3000.0
 31
0.0
  0
LINE
  5
16419
330
16414
100
AcDbEntity
  8
寸法
 62
     0
 48
50.0
370
    -2
100
AcDbLine
 10
8211.943827731214
 20
3000.0
 30
0.0
 11
8211.943827731214
 21
2627.905511811024
 31
0.0
  0
INSERT
  5
1641A
330
16414
100
AcDbEntity
  8
寸法
 62
     0
 48
50.0
370
    -2
100
AcDbBlockReference
  2
_DOTSMALL
 10
8211.943827731214
 20
3100.0
 30
0.0
 41
100.0
 42
100.0
 43
100.0
 50
90.0
  0
INSERT
  5
1641B
330
16414
100
AcDbEntity
  8
寸法
 62
     0
 48
50.0
370
    -2
100
AcDbBlockReference
  2
_DOTSMALL
 10
8211.943827731214
 20
3000.0
 30
0.0
 41
100.0
 42
100.0
 43
100.0
 50
270.0
  0
MTEXT
  5
1641C
330
16414
100
AcDbEntity
  8
寸法
 62
     7
 48
50.0
100
AcDbMText
 10
8111.943827731215
 20
2763.952755905513
 30
0.0
 40
120.0
 41
0.0
 71
     5
 72
     1
  1
\A1;100
  7
STYLE1
 11
0.0000000000000001
 21
1.0
 31
0.0
 73
     1
 44
1.0
1001
ACAD
1000
MTEXTBEGIN
1070
    73
1070
     1
1070
    44
1040
1.0
1070
    74
1070
     0
1000
MTEXTEND
  0
POINT
  5
1641D
330
16414
100
AcDbEntity
  8
DEFPOINTS
 62
     0
 48
50.0
100
AcDbPoint
 10
9300.693956914475
 20
3100.0
 30
0.0
  0
POINT
  5
1641E
330
16414
100
AcDbEntity
  8
DEFPOINTS
 62
     0
 48
50.0
100
AcDbPoint
 10
8299.192881019342
 20
3000.0
 30
0.0
  0
POINT
  5
1641F
330
16414
100
AcDbEntity
  8
DEFPOINTS
 62
     0
 48
50.0
100
AcDbPoint
 10
8211.943827731214
 20
3000.0
 30
0.0
  0
ENDBLK
  5
16420
330
16414
100
AcDbEntity
  8
0
 48
50.0
100
AcDbBlockEnd
  0
BLOCK
  5
16422
330
16421
100
AcDbEntity
  8
0
 48
50.0
100
AcDbBlockBegin
  2
*D20
 70
     1
 10
0.0
 20
0.0
 30
0.0
  3
*D20
  1

  0
LINE
  5
16423
330
16421
100
AcDbEntity
  8
寸法
 62
     0
 48
50.0
370
    -2
100
AcDbLine
 10
9335.693956914473
 20
3150.0
 30
0.0
 11
8451.943827731215
 21
3150.0
 31
0.0
  0
LINE
  5
16424
330
16421
100
AcDbEntity
  8
寸法
 62
     0
 48
50.0
370
    -2
100
AcDbLine
 10
9280.693956914474
 20
3100.0
 30
0.0
 11
8451.943827731215
 21
3100.0
 31
0.0
  0
LINE
  5
16425
330
16421
100
AcDbEntity
  8
寸法
 62
     0
 48
50.0
370
    -2
100
AcDbLine
 10
8511.943827731213
 20
3150.0
 30
0.0
 11
8511.943827731213
 21
3250.000000000001
 31
0.0
  0
LINE
  5
16426
330
16421
100
AcDbEntity
  8
寸法
 62
     0
 48
50.0
370
    -2
100
AcDbLine
 10
8511.943827731213
 20
3100.0
 30
0.0
 11
8511.943827731213
 21
2687.905511811024
 31
0.0
  0
LINE
  5
16427
330
16421
100
AcDbEntity
  8
寸法
 62
     0
 48
50.0
370
    -2
100
AcDbLine
 10
8511.943827731213
 20
3150.0
 30
0.0
 11
8511.943827731213
 21
3100.0
 31
0.0
  0
INSERT
  5
16428
330
16421
100
AcDbEntity
  8
寸法
 62
     0
 48
50.0
370
    -2
100
AcDbBlockReference
  2
_DOTSMALL
 10
8511.943827731213
 20
3150.0
 30
0.0
 41
100.0
 42
100.0
 43
100.0
 50
270.0
  0
INSERT
  5
16429
330
16421
100
AcDbEntity
  8
寸法
 62
     0
 48
50.0
370
    -2
100
AcDbBlockReference
  2
_DOTSMALL
 10
8511.943827731213
 20
3100.0
 30
0.0
 41
100.0
 42
100.0
 43
100.0
 50
90.0
  0
MTEXT
  5
1642A
330
16421
100
AcDbEntity
  8
寸法
 62
     7
 48
50.0
100
AcDbMText
 10
8411.943827731214
 20
2793.952755905514
 30
0.0
 40
120.0
 41
0.0
 71
     5
 72
     1
  1
\A1;50
  7
STYLE1
 11
0.0000000000000001
 21
1.0
 31
0.0
 73
     1
 44
1.0
1001
ACAD
1000
MTEXTBEGIN
1070
    73
1070
     1
1070
    44
1040
1.0
1070
    74
1070
     0
1000
MTEXTEND
  0
POINT
  5
1642B
330
16421
100
AcDbEntity
  8
DEFPOINTS
 62
     0
 48
50.0
100
AcDbPoint
 10
9355.693956914475
 20
3150.0
 30
0.0
  0
POINT
  5
1642C
330
16421
100
AcDbEntity
  8
DEFPOINTS
 62
     0
 48
50.0
100
AcDbPoint
 10
9300.693956914475
 20
3100.0
 30
0.0
  0
POINT
  5
1642D
330
16421
100
AcDbEntity
  8
DEFPOINTS
 62
     0
 48
50.0
100
AcDbPoint
 10
8511.943827731213
 20
3100.0
 30
0.0
  0
ENDBLK
  5
1642E
330
16421
100
AcDbEntity
  8
0
 48
50.0
100
AcDbBlockEnd
  0
BLOCK
  5
16430
330
1642F
100
AcDbEntity
  8
0
 48
50.0
100
AcDbBlockBegin
  2
*D21
 70
     1
 10
0.0
 20
0.0
 30
0.0
  3
*D21
  1

  0
LINE
  5
16431
330
1642F
100
AcDbEntity
  8
寸法
 62
     0
 48
50.0
370
    -2
100
AcDbLine
 10
9335.693956914473
 20
3100.0
 30
0.0
 11
8151.943827731214
 21
3100.0
 31
0.0
  0
LINE
  5
16432
330
1642F
100
AcDbEntity
  8
寸法
 62
     0
 48
50.0
370
    -2
100
AcDbLine
 10
9275.693956914476
 20
5175.000000000005
 30
0.0
 11
8151.943827731214
 21
5175.000000000005
 31
0.0
  0
LINE
  5
16433
330
1642F
100
AcDbEntity
  8
寸法
 62
     0
 48
50.0
370
    -2
100
AcDbLine
 10
8211.943827731213
 20
3100.0
 30
0.0
 11
8211.943827731214
 21
5175.000000000005
 31
0.0
  0
INSERT
  5
16434
330
1642F
100
AcDbEntity
  8
寸法
 62
     0
 48
50.0
370
    -2
100
AcDbBlockReference
  2
_DOTSMALL
 10
8211.943827731213
 20
3100.0
 30
0.0
 41
100.0
 42
100.0
 43
100.0
 50
270.0
  0
INSERT
  5
16435
330
1642F
100
AcDbEntity
  8
寸法
 62
     0
 48
50.0
370
    -2
100
AcDbBlockReference
  2
_DOTSMALL
 10
8211.943827731214
 20
5175.000000000005
 30
0.0
 41
100.0
 42
100.0
 43
100.0
 50
90.0
  0
MTEXT
  5
16436
330
1642F
100
AcDbEntity
  8
寸法
 62
     7
 48
50.0
100
AcDbMText
 10
8111.932016707591
 20
4137.500000000003
 30
0.0
 40
120.0
 41
0.0
 71
     5
 72
     1
  1
\A1;2075
  7
STYLE1
 11
0.0000000000000001
 21
1.0
 31
0.0
 73
     1
 44
1.0
1001
ACAD
1000
MTEXTBEGIN
1070
    73
1070
     1
1070
    44
1040
1.0
1070
    74
1070
     0
1000
MTEXTEND
  0
POINT
  5
16437
330
1642F
100
AcDbEntity
  8
DEFPOINTS
 62
     0
 48
50.0
100
AcDbPoint
 10
9355.693956914475
 20
3100.0
 30
0.0
  0
POINT
  5
16438
330
1642F
100
AcDbEntity
  8
DEFPOINTS
 62
     0
 48
50.0
100
AcDbPoint
 10
9295.693956914476
 20
5175.000000000005
 30
0.0
  0
POINT
  5
16439
330
1642F
100
AcDbEntity
  8
DEFPOINTS
 62
     0
 48
50.0
100
AcDbPoint
 10
8211.943827731214
 20
5175.000000000005
 30
0.0
  0
ENDBLK
  5
1643A
330
1642F
100
AcDbEntity
  8
0
 48
50.0
100
AcDbBlockEnd
  0
BLOCK
  5
1643C
330
1643B
100
AcDbEntity
  8
0
 48
50.0
100
AcDbBlockBegin
  2
*D22
 70
     1
 10
0.0
 20
0.0
 30
0.0
  3
*D22
  1

  0
LINE
  5
1643D
330
1643B
100
AcDbEntity
  8
寸法
 62
     0
 48
50.0
370
    -2
100
AcDbLine
 10
9335.693956914473
 20
4940.0
 30
0.0
 11
8451.943827731216
 21
4940.0
 31
0.0
  0
LINE
  5
1643E
330
1643B
100
AcDbEntity
  8
寸法
 62
     0
 48
50.0
370
    -2
100
AcDbLine
 10
9335.693956914473
 20
3150.0
 30
0.0
 11
8451.943827731215
 21
3150.0
 31
0.0
  0
LINE
  5
1643F
330
1643B
100
AcDbEntity
  8
寸法
 62
     0
 48
50.0
370
    -2
100
AcDbLine
 10
8511.943827731217
 20
4940.0
 30
0.0
 11
8511.943827731213
 21
3150.0
 31
0.0
  0
INSERT
  5
16440
330
1643B
100
AcDbEntity
  8
寸法
 62
     0
 48
50.0
370
    -2
100
AcDbBlockReference
  2
_DOTSMALL
 10
8511.943827731217
 20
4940.0
 30
0.0
 41
100.0
 42
100.0
 43
100.0
 50
90.0
  0
INSERT
  5
16441
330
1643B
100
AcDbEntity
  8
寸法
 62
     0
 48
50.0
370
    -2
100
AcDbBlockReference
  2
_DOTSMALL
 10
8511.943827731213
 20
3150.0
 30
0.0
 41
100.0
 42
100.0
 43
100.0
 50
270.0
  0
MTEXT
  5
16442
330
1643B
100
AcDbEntity
  8
寸法
 62
     7
 48
50.0
100
AcDbMText
 10
8411.943827731214
 20
4045.000000000001
 30
0.0
 40
120.0
 41
0.0
 71
     5
 72
     1
  1
\A1;1790
  7
STYLE1
 11
0.0000000000000001
 21
1.0
 31
0.0
 73
     1
 44
1.0
1001
ACAD
1000
MTEXTBEGIN
1070
    73
1070
     1
1070
    44
1040
1.0
1070
    74
1070
     0
1000
MTEXTEND
  0
POINT
  5
16443
330
1643B
100
AcDbEntity
  8
DEFPOINTS
 62
     0
 48
50.0
100
AcDbPoint
 10
9355.693956914475
 20
4940.0
 30
0.0
  0
POINT
  5
16444
330
1643B
100
AcDbEntity
  8
DEFPOINTS
 62
     0
 48
50.0
100
AcDbPoint
 10
9355.693956914475
 20
3150.0
 30
0.0
  0
POINT
  5
16445
330
1643B
100
AcDbEntity
  8
DEFPOINTS
 62
     0
 48
50.0
100
AcDbPoint
 10
8511.943827731213
 20
3150.0
 30
0.0
  0
ENDBLK
  5
16446
330
1643B
100
AcDbEntity
  8
0
 48
50.0
100
AcDbBlockEnd
  0
BLOCK
  5
16448
330
16447
100
AcDbEntity
  8
0
 48
50.0
100
AcDbBlockBegin
  2
*D23
 70
     1
 10
0.0
 20
0.0
 30
0.0
  3
*D23
  1

  0
LINE
  5
16449
330
16447
100
AcDbEntity
  8
寸法
 62
     0
 48
50.0
370
    -2
100
AcDbLine
 10
9335.693956914473
 20
4932.0
 30
0.0
 11
8750.785315517221
 21
4932.0
 31
0.0
  0
LINE
  5
1644A
330
16447
100
AcDbEntity
  8
寸法
 62
     0
 48
50.0
370
    -2
100
AcDbLine
 10
9335.693956914473
 20
3162.0
 30
0.0
 11
8750.785315517219
 21
3162.000000000001
 31
0.0
  0
LINE
  5
1644B
330
16447
100
AcDbEntity
  8
寸法
 62
     0
 48
50.0
370
    -2
100
AcDbLine
 10
8810.785315517222
 20
4932.0
 30
0.0
 11
8810.78531551722
 21
3162.000000000001
 31
0.0
  0
INSERT
  5
1644C
330
16447
100
AcDbEntity
  8
寸法
 62
     0
 48
50.0
370
    -2
100
AcDbBlockReference
  2
_DOTSMALL
 10
8810.785315517222
 20
4932.0
 30
0.0
 41
100.0
 42
100.0
 43
100.0
 50
90.0
  0
INSERT
  5
1644D
330
16447
100
AcDbEntity
  8
寸法
 62
     0
 48
50.0
370
    -2
100
AcDbBlockReference
  2
_DOTSMALL
 10
8810.78531551722
 20
3162.000000000001
 30
0.0
 41
100.0
 42
100.0
 43
100.0
 50
270.0
  0
MTEXT
  5
1644E
330
16447
100
AcDbEntity
  8
寸法
 62
     7
 48
50.0
100
AcDbMText
 10
8710.785315517219
 20
4047.000000000001
 30
0.0
 40
120.0
 41
0.0
 71
     5
 72
     1
  1
\A1;有効開口部高サ1770
  7
STYLE1
 11
0.0000000000000001
 21
1.0
 31
0.0
 73
     1
 44
1.0
1001
ACAD
1000
MTEXTBEGIN
1070
    73
1070
     1
1070
    44
1040
1.0
1070
    74
1070
     0
1000
MTEXTEND
  0
POINT
  5
1644F
330
16447
100
AcDbEntity
  8
DEFPOINTS
 62
     0
 48
50.0
100
AcDbPoint
 10
9355.693956914475
 20
4932.0
 30
0.0
  0
POINT
  5
16450
330
16447
100
AcDbEntity
  8
DEFPOINTS
 62
     0
 48
50.0
100
AcDbPoint
 10
9355.693956914475
 20
3162.0
 30
0.0
  0
POINT
  5
16451
330
16447
100
AcDbEntity
  8
DEFPOINTS
 62
     0
 48
50.0
100
AcDbPoint
 10
8810.78531551722
 20
3162.000000000001
 30
0.0
  0
ENDBLK
  5
16452
330
16447
100
AcDbEntity
  8
0
 48
50.0
100
AcDbBlockEnd
  0
BLOCK
  5
16454
330
16453
100
AcDbEntity
  8
0
 48
50.0
100
AcDbBlockBegin
  2
*D24
 70
     1
 10
0.0
 20
0.0
 30
0.0
  3
*D24
  1

  0
LINE
  5
16455
330
16453
100
AcDbEntity
  8
寸法
 62
     0
 48
50.0
370
    -2
100
AcDbLine
 10
10745.69395691448
 20
3100.0
 30
0.0
 11
11490.6211148866
 21
3100.0
 31
0.0
  0
LINE
  5
16456
330
16453
100
AcDbEntity
  8
寸法
 62
     0
 48
50.0
370
    -2
100
AcDbLine
 10
10825.69395691447
 20
5120.0
 30
0.0
 11
11490.6211148866
 21
5120.0
 31
0.0
  0
LINE
  5
16457
330
16453
100
AcDbEntity
  8
寸法
 62
     0
 48
50.0
370
    -2
100
AcDbLine
 10
11430.6211148866
 20
3100.0
 30
0.0
 11
11430.6211148866
 21
5120.0
 31
0.0
  0
INSERT
  5
16458
330
16453
100
AcDbEntity
  8
寸法
 62
     0
 48
50.0
370
    -2
100
AcDbBlockReference
  2
_DOTSMALL
 10
11430.6211148866
 20
3100.0
 30
0.0
 41
100.0
 42
100.0
 43
100.0
 50
270.0
  0
INSERT
  5
16459
330
16453
100
AcDbEntity
  8
寸法
 62
     0
 48
50.0
370
    -2
100
AcDbBlockReference
  2
_DOTSMALL
 10
11430.6211148866
 20
5120.0
 30
0.0
 41
100.0
 42
100.0
 43
100.0
 50
90.0
  0
MTEXT
  5
1645A
330
16453
100
AcDbEntity
  8
寸法
 62
     7
 48
50.0
100
AcDbMText
 10
11330.60930386298
 20
4110.000000000002
 30
0.0
 40
120.0
 41
0.0
 71
     5
 72
     1
  1
\A1;2020
  7
STYLE1
 11
0.0000000000000001
 21
1.0
 31
0.0
 73
     1
 44
1.0
1001
ACAD
1000
MTEXTBEGIN
1070
    73
1070
     1
1070
    44
1040
1.0
1070
    74
1070
     0
1000
MTEXTEND
  0
POINT
  5
1645B
330
16453
100
AcDbEntity
  8
DEFPOINTS
 62
     0
 48
50.0
100
AcDbPoint
 10
10725.69395691448
 20
3100.0
 30
0.0
  0
POINT
  5
1645C
330
16453
100
AcDbEntity
  8
DEFPOINTS
 62
     0
 48
50.0
100
AcDbPoint
 10
10805.69395691447
 20
5120.0
 30
0.0
  0
POINT
  5
1645D
330
16453
100
AcDbEntity
  8
DEFPOINTS
 62
     0
 48
50.0
100
AcDbPoint
 10
11430.6211148866
 20
5120.0
 30
0.0
  0
ENDBLK
  5
1645E
330
16453
100
AcDbEntity
  8
0
 48
50.0
100
AcDbBlockEnd
  0
BLOCK
  5
16460
330
1645F
100
AcDbEntity
  8
0
 48
50.0
100
AcDbBlockBegin
  2
*D25
 70
     1
 10
0.0
 20
0.0
 30
0.0
  3
*D25
  1

  0
LINE
  5
16461
330
1645F
100
AcDbEntity
  8
寸法
 62
     0
 48
50.0
370
    -2
100
AcDbLine
 10
10725.69395691447
 20
5141.810679611654
 30
0.0
 11
10725.69395691447
 21
5633.657453579304
 31
0.0
  0
LINE
  5
16462
330
1645F
100
AcDbEntity
  8
寸法
 62
     0
 48
50.0
370
    -2
100
AcDbLine
 10
9355.693956914477
 20
5191.001618122976
 30
0.0
 11
9355.693956914477
 21
5633.657453579304
 31
0.0
  0
LINE
  5
16463
330
1645F
100
AcDbEntity
  8
寸法
 62
     0
 48
50.0
370
    -2
100
AcDbLine
 10
10725.69395691447
 20
5573.657453579304
 30
0.0
 11
9355.693956914477
 21
5573.657453579304
 31
0.0
  0
INSERT
  5
16464
330
1645F
100
AcDbEntity
  8
寸法
 62
     0
 48
50.0
370
    -2
100
AcDbBlockReference
  2
_DOTSMALL
 10
10725.69395691447
 20
5573.657453579304
 30
0.0
 41
100.0
 42
100.0
 43
100.0
  0
INSERT
  5
16465
330
1645F
100
AcDbEntity
  8
寸法
 62
     0
 48
50.0
370
    -2
100
AcDbBlockReference
  2
_DOTSMALL
 10
9355.693956914477
 20
5573.657453579304
 30
0.0
 41
100.0
 42
100.0
 43
100.0
 50
180.0
  0
MTEXT
  5
16466
330
1645F
100
AcDbEntity
  8
寸法
 62
     7
 48
50.0
100
AcDbMText
 10
10005.51298980502
 20
5673.657453579305
 30
0.0
 40
120.0
 41
0.0
 71
     5
 72
     1
  1
\A1;柱外寸法1370
  7
STYLE1
 73
     1
 44
1.0
1001
ACAD
1000
MTEXTBEGIN
1070
    73
1070
     1
1070
    44
1040
1.0
1070
    74
1070
     0
1000
MTEXTEND
  0
POINT
  5
16467
330
1645F
100
AcDbEntity
  8
DEFPOINTS
 62
     0
 48
50.0
100
AcDbPoint
 10
10725.69395691447
 20
5121.810679611654
 30
0.0
  0
POINT
  5
16468
330
1645F
100
AcDbEntity
  8
DEFPOINTS
 62
     0
 48
50.0
100
AcDbPoint
 10
9355.693956914477
 20
5171.001618122977
 30
0.0
  0
POINT
  5
16469
330
1645F
100
AcDbEntity
  8
DEFPOINTS
 62
     0
 48
50.0
100
AcDbPoint
 10
9355.693956914477
 20
5573.657453579304
 30
0.0
  0
ENDBLK
  5
1646A
330
1645F
100
AcDbEntity
  8
0
 48
50.0
100
AcDbBlockEnd
  0
BLOCK
  5
1646C
330
1646B
100
AcDbEntity
  8
0
 48
50.0
100
AcDbBlockBegin
  2
*D26
 70
     1
 10
0.0
 20
0.0
 30
0.0
  3
*D26
  1

  0
LINE
  5
1646D
330
1646B
100
AcDbEntity
  8
寸法
 62
     0
 48
50.0
370
    -2
100
AcDbLine
 10
9355.693956914477
 20
5191.001618122976
 30
0.0
 11
9355.693956914477
 21
5633.657453579304
 31
0.0
  0
LINE
  5
1646E
330
1646B
100
AcDbEntity
  8
寸法
 62
     0
 48
50.0
370
    -2
100
AcDbLine
 10
9295.693956914476
 20
5195.000000000004
 30
0.0
 11
9295.693956914476
 21
5633.657453579304
 31
0.0
  0
LINE
  5
1646F
330
1646B
100
AcDbEntity
  8
寸法
 62
     0
 48
50.0
370
    -2
100
AcDbLine
 10
9355.693956914477
 20
5573.657453579304
 30
0.0
 11
9455.693956914476
 21
5573.657453579304
 31
0.0
  0
LINE
  5
16470
330
1646B
100
AcDbEntity
  8
寸法
 62
     0
 48
50.0
370
    -2
100
AcDbLine
 10
9295.693956914476
 20
5573.657453579304
 30
0.0
 11
8876.418366363296
 21
5573.657453579304
 31
0.0
  0
LINE
  5
16471
330
1646B
100
AcDbEntity
  8
寸法
 62
     0
 48
50.0
370
    -2
100
AcDbLine
 10
9355.693956914477
 20
5573.657453579304
 30
0.0
 11
9295.693956914476
 21
5573.657453579304
 31
0.0
  0
INSERT
  5
16472
330
1646B
100
AcDbEntity
  8
寸法
 62
     0
 48
50.0
370
    -2
100
AcDbBlockReference
  2
_DOTSMALL
 10
9355.693956914477
 20
5573.657453579304
 30
0.0
 41
100.0
 42
100.0
 43
100.0
 50
180.0
  0
INSERT
  5
16473
330
1646B
100
AcDbEntity
  8
寸法
 62
     0
 48
50.0
370
    -2
100
AcDbBlockReference
  2
_DOTSMALL
 10
9295.693956914476
 20
5573.657453579304
 30
0.0
 41
100.0
 42
100.0
 43
100.0
  0
MTEXT
  5
16474
330
1646B
100
AcDbEntity
  8
寸法
 62
     7
 48
50.0
100
AcDbMText
 10
8986.056161638886
 20
5673.657453579305
 30
0.0
 40
120.0
 41
0.0
 71
     5
 72
     1
  1
\A1;60
  7
STYLE1
 73
     1
 44
1.0
1001
ACAD
1000
MTEXTBEGIN
1070
    73
1070
     1
1070
    44
1040
1.0
1070
    74
1070
     0
1000
MTEXTEND
  0
POINT
  5
16475
330
1646B
100
AcDbEntity
  8
DEFPOINTS
 62
     0
 48
50.0
100
AcDbPoint
 10
9355.693956914477
 20
5171.001618122977
 30
0.0
  0
POINT
  5
16476
330
1646B
100
AcDbEntity
  8
DEFPOINTS
 62
     0
 48
50.0
100
AcDbPoint
 10
9295.693956914476
 20
5175.000000000005
 30
0.0
  0
POINT
  5
16477
330
1646B
100
AcDbEntity
  8
DEFPOINTS
 62
     0
 48
50.0
100
AcDbPoint
 10
9295.693956914476
 20
5573.657453579304
 30
0.0
  0
ENDBLK
  5
16478
330
1646B
100
AcDbEntity
  8
0
 48
50.0
100
AcDbBlockEnd
  0
BLOCK
  5
1647A
330
16479
100
AcDbEntity
  8
0
 48
50.0
100
AcDbBlockBegin
  2
*D27
 70
     1
 10
0.0
 20
0.0
 30
0.0
  3
*D27
  1

  0
LINE
  5
1647B
330
16479
100
AcDbEntity
  8
寸法
 62
     0
 48
50.0
370
    -2
100
AcDbLine
 10
10805.69395691447
 20
5140.000000000001
 30
0.0
 11
10805.69395691447
 21
5841.831774771268
 31
0.0
  0
LINE
  5
1647C
330
16479
100
AcDbEntity
  8
寸法
 62
     0
 48
50.0
370
    -2
100
AcDbLine
 10
9295.693956914476
 20
5195.000000000004
 30
0.0
 11
9295.693956914476
 21
5841.831774771268
 31
0.0
  0
LINE
  5
1647D
330
16479
100
AcDbEntity
  8
寸法
 62
     0
 48
50.0
370
    -2
100
AcDbLine
 10
10805.69395691447
 20
5781.831774771268
 30
0.0
 11
9295.693956914476
 21
5781.831774771268
 31
0.0
  0
INSERT
  5
1647E
330
16479
100
AcDbEntity
  8
寸法
 62
     0
 48
50.0
370
    -2
100
AcDbBlockReference
  2
_DOTSMALL
 10
10805.69395691447
 20
5781.831774771268
 30
0.0
 41
100.0
 42
100.0
 43
100.0
  0
INSERT
  5
1647F
330
16479
100
AcDbEntity
  8
寸法
 62
     0
 48
50.0
370
    -2
100
AcDbBlockReference
  2
_DOTSMALL
 10
9295.693956914476
 20
5781.831774771268
 30
0.0
 41
100.0
 42
100.0
 43
100.0
 50
180.0
  0
MTEXT
  5
16480
330
16479
100
AcDbEntity
  8
寸法
 62
     7
 48
50.0
100
AcDbMText
 10
10022.8187866163
 20
5881.831774771268
 30
0.0
 40
120.0
 41
0.0
 71
     5
 72
     1
  1
\A1;1510
  7
STYLE1
 73
     1
 44
1.0
1001
ACAD
1000
MTEXTBEGIN
1070
    73
1070
     1
1070
    44
1040
1.0
1070
    74
1070
     0
1000
MTEXTEND
  0
POINT
  5
16481
330
16479
100
AcDbEntity
  8
DEFPOINTS
 62
     0
 48
50.0
100
AcDbPoint
 10
10805.69395691447
 20
5120.0
 30
0.0
  0
POINT
  5
16482
330
16479
100
AcDbEntity
  8
DEFPOINTS
 62
     0
 48
50.0
100
AcDbPoint
 10
9295.693956914476
 20
5175.000000000005
 30
0.0
  0
POINT
  5
16483
330
16479
100
AcDbEntity
  8
DEFPOINTS
 62
     0
 48
50.0
100
AcDbPoint
 10
9295.693956914476
 20
5781.831774771268
 30
0.0
  0
ENDBLK
  5
16484
330
16479
100
AcDbEntity
  8
0
 48
50.0
100
AcDbBlockEnd
  0
BLOCK
  5
16486
330
16485
100
AcDbEntity
  8
0
 48
50.0
100
AcDbBlockBegin
  2
*D28
 70
     1
 10
0.0
 20
0.0
 30
0.0
  3
*D28
  1

  0
LINE
  5
16487
330
16485
100
AcDbEntity
  8
寸法
 62
     0
 48
50.0
370
    -2
100
AcDbLine
 10
10725.69395691447
 20
5141.810679611654
 30
0.0
 11
10725.69395691447
 21
5633.657453579304
 31
0.0
  0
LINE
  5
16488
330
16485
100
AcDbEntity
  8
寸法
 62
     0
 48
50.0
370
    -2
100
AcDbLine
 10
10805.69395691447
 20
5140.000000000001
 30
0.0
 11
10805.69395691447
 21
5633.657453579304
 31
0.0
  0
LINE
  5
16489
330
16485
100
AcDbEntity
  8
寸法
 62
     0
 48
50.0
370
    -2
100
AcDbLine
 10
10725.69395691447
 20
5573.657453579304
 30
0.0
 11
10805.69395691447
 21
5573.657453579304
 31
0.0
  0
LINE
  5
1648A
330
16485
100
AcDbEntity
  8
寸法
 62
     0
 48
50.0
370
    -2
100
AcDbLine
 10
10805.69395691447
 20
5573.657453579304
 30
0.0
 11
11117.78844510345
 21
5573.657453579304
 31
0.0
  0
INSERT
  5
1648B
330
16485
100
AcDbEntity
  8
寸法
 62
     0
 48
50.0
370
    -2
100
AcDbBlockReference
  2
_DOTSMALL
 10
10725.69395691447
 20
5573.657453579304
 30
0.0
 41
100.0
 42
100.0
 43
100.0
 50
180.0
  0
INSERT
  5
1648C
330
16485
100
AcDbEntity
  8
寸法
 62
     0
 48
50.0
370
    -2
100
AcDbBlockReference
  2
_DOTSMALL
 10
10805.69395691447
 20
5573.657453579304
 30
0.0
 41
100.0
 42
100.0
 43
100.0
  0
MTEXT
  5
1648D
330
16485
100
AcDbEntity
  8
寸法
 62
     7
 48
50.0
100
AcDbMText
 10
11011.74120100896
 20
5673.657453579305
 30
0.0
 40
120.0
 41
0.0
 71
     5
 72
     1
  1
\A1;80
  7
STYLE1
 73
     1
 44
1.0
1001
ACAD
1000
MTEXTBEGIN
1070
    73
1070
     1
1070
    44
1040
1.0
1070
    74
1070
     0
1000
MTEXTEND
  0
POINT
  5
1648E
330
16485
100
AcDbEntity
  8
DEFPOINTS
 62
     0
 48
50.0
100
AcDbPoint
 10
10725.69395691447
 20
5121.810679611654
 30
0.0
  0
POINT
  5
1648F
330
16485
100
AcDbEntity
  8
DEFPOINTS
 62
     0
 48
50.0
100
AcDbPoint
 10
10805.69395691447
 20
5120.0
 30
0.0
  0
POINT
  5
16490
330
16485
100
AcDbEntity
  8
DEFPOINTS
 62
     0
 48
50.0
100
AcDbPoint
 10
10805.69395691447
 20
5573.657453579304
 30
0.0
  0
ENDBLK
  5
16491
330
16485
100
AcDbEntity
  8
0
 48
50.0
100
AcDbBlockEnd
  0
BLOCK
  5
16493
330
16492
100
AcDbEntity
  8
0
 48
50.0
100
AcDbBlockBegin
  2
*D29
 70
     1
 10
0.0
 20
0.0
 30
0.0
  3
*D29
  1

  0
LINE
  5
16494
330
16492
100
AcDbEntity
  8
寸法
 62
     0
 48
50.0
370
    -2
100
AcDbLine
 10
9291.050761601976
 20
5033.535611473499
 30
0.0
 11
8638.150591307564
 21
5058.186642714234
 31
0.0
  0
LINE
  5
16495
330
16492
100
AcDbEntity
  8
寸法
 62
     0
 48
50.0
370
    -2
100
AcDbLine
 10
9296.370595753931
 20
5174.435218870382
 30
0.0
 11
8643.470425459517
 21
5199.086250111117
 31
0.0
  0
LINE
  5
16496
330
16492
100
AcDbEntity
  8
寸法
 62
     0
 48
50.0
370
    -2
100
AcDbLine
 10
8698.107871050918
 20
5055.922883500637
 30
0.0
 11
8703.427705202869
 21
5196.82249089752
 31
0.0
  0
LINE
  5
16497
330
16492
100
AcDbEntity
  8
寸法
 62
     0
 48
50.0
370
    -2
100
AcDbLine
 10
8703.427705202869
 20
5196.82249089752
 30
0.0
 11
8717.010260484453
 21
5556.566169357646
 31
0.0
  0
INSERT
  5
16498
330
16492
100
AcDbEntity
  8
寸法
 62
     0
 48
50.0
370
    -2
100
AcDbBlockReference
  2
_DOTSMALL
 10
8698.107871050918
 20
5055.922883500637
 30
0.0
 41
100.0
 42
100.0
 43
100.0
 50
267.8377559870924
  0
INSERT
  5
16499
330
16492
100
AcDbEntity
  8
寸法
 62
     0
 48
50.0
370
    -2
100
AcDbBlockReference
  2
_DOTSMALL
 10
8703.427705202869
 20
5196.82249089752
 30
0.0
 41
100.0
 42
100.0
 43
100.0
 50
87.83775598709235
  0
MTEXT
  5
1649A
330
16492
100
AcDbEntity
  8
寸法
 62
     7
 48
50.0
100
AcDbMText
 10
8612.176649282734
 20
5430.431661936374
 30
0.0
 40
120.0
 41
0.0
 71
     5
 72
     1
  1
\A1;141
  7
STYLE1
 11
0.0377293202266152
 21
0.9992879957225731
 31
0.0
 73
     1
 44
1.0
1001
ACAD
1000
MTEXTBEGIN
1070
    73
1070
     1
1070
    44
1040
1.0
1070
    74
1070
     0
1000
MTEXTEND
  0
POINT
  5
1649B
330
16492
100
AcDbEntity
  8
DEFPOINTS
 62
     0
 48
50.0
100
AcDbPoint
 10
9311.036521516426
 20
5032.781025068967
 30
0.0
  0
POINT
  5
1649C
330
16492
100
AcDbEntity
  8
DEFPOINTS
 62
     0
 48
50.0
100
AcDbPoint
 10
9316.35635566838
 20
5173.680632465849
 30
0.0
  0
POINT
  5
1649D
330
16492
100
AcDbEntity
  8
DEFPOINTS
 62
     0
 48
50.0
100
AcDbPoint
 10
8703.427705202869
 20
5196.82249089752
 30
0.0
  0
ENDBLK
  5
1649E
330
16492
100
AcDbEntity
  8
0
 48
50.0
100
AcDbBlockEnd
  0
BLOCK
  5
164A0
330
1649F
100
AcDbEntity
  8
0
 48
50.0
100
AcDbBlockBegin
  2
*D30
 70
     1
 10
0.0
 20
0.0
 30
0.0
  3
*D30
  1

  0
LINE
  5
164A1
330
1649F
100
AcDbEntity
  8
寸法
 62
     0
 48
50.0
370
    -2
100
AcDbLine
 10
9483.193956914474
 20
2779.999999999998
 30
0.0
 11
9483.193956914474
 21
2453.952670699622
 31
0.0
  0
LINE
  5
164A2
330
1649F
100
AcDbEntity
  8
寸法
 62
     0
 48
50.0
370
    -2
100
AcDbLine
 10
9283.193956914479
 20
2779.999999999999
 30
0.0
 11
9283.193956914479
 21
2453.952670699622
 31
0.0
  0
LINE
  5
164A3
330
1649F
100
AcDbEntity
  8
寸法
 62
     0
 48
50.0
370
    -2
100
AcDbLine
 10
9483.193956914474
 20
2513.952670699622
 30
0.0
 11
9283.193956914479
 21
2513.952670699622
 31
0.0
  0
INSERT
  5
164A4
330
1649F
100
AcDbEntity
  8
寸法
 62
     0
 48
50.0
370
    -2
100
AcDbBlockReference
  2
_DOTSMALL
 10
9483.193956914474
 20
2513.952670699622
 30
0.0
 41
100.0
 42
100.0
 43
100.0
  0
INSERT
  5
164A5
330
1649F
100
AcDbEntity
  8
寸法
 62
     0
 48
50.0
370
    -2
100
AcDbBlockReference
  2
_DOTSMALL
 10
9283.193956914479
 20
2513.952670699622
 30
0.0
 41
100.0
 42
100.0
 43
100.0
 50
180.0
  0
MTEXT
  5
164A6
330
1649F
100
AcDbEntity
  8
寸法
 62
     7
 48
50.0
100
AcDbMText
 10
9383.193956914476
 20
2613.964481723244
 30
0.0
 40
120.0
 41
0.0
 71
     5
 72
     1
  1
\A1;200
  7
STYLE1
 73
     1
 44
1.0
1001
ACAD
1000
MTEXTBEGIN
1070
    73
1070
     1
1070
    44
1040
1.0
1070
    74
1070
     0
1000
MTEXTEND
  0
POINT
  5
164A7
330
1649F
100
AcDbEntity
  8
DEFPOINTS
 62
     0
 48
50.0
100
AcDbPoint
 10
9483.193956914474
 20
2799.999999999998
 30
0.0
  0
POINT
  5
164A8
330
1649F
100
AcDbEntity
  8
DEFPOINTS
 62
     0
 48
50.0
100
AcDbPoint
 10
9283.193956914479
 20
2799.999999999999
 30
0.0
  0
POINT
  5
164A9
330
1649F
100
AcDbEntity
  8
DEFPOINTS
 62
     0
 48
50.0
100
AcDbPoint
 10
9283.193956914479
 20
2513.952670699622
 30
0.0
  0
ENDBLK
  5
164AA
330
1649F
100
AcDbEntity
  8
0
 48
50.0
100
AcDbBlockEnd
  0
BLOCK
  5
164AC
330
164AB
100
AcDbEntity
  8
0
 48
50.0
100
AcDbBlockBegin
  2
*D31
 70
     1
 10
0.0
 20
0.0
 30
0.0
  3
*D31
  1

  0
LINE
  5
164AD
330
164AB
100
AcDbEntity
  8
寸法
 62
     0
 48
50.0
370
    -2
100
AcDbLine
 10
9263.193956914477
 20
2799.999999999999
 30
0.0
 11
9073.69395366784
 21
2799.999999999999
 31
0.0
  0
LINE
  5
164AE
330
164AB
100
AcDbEntity
  8
寸法
 62
     0
 48
50.0
370
    -2
100
AcDbLine
 10
9238.193956914477
 20
3000.0
 30
0.0
 11
9073.69395366784
 21
3000.0
 31
0.0
  0
LINE
  5
164AF
330
164AB
100
AcDbEntity
  8
寸法
 62
     0
 48
50.0
370
    -2
100
AcDbLine
 10
9133.69395366784
 20
2799.999999999999
 30
0.0
 11
9133.69395366784
 21
3000.0
 31
0.0
  0
INSERT
  5
164B0
330
164AB
100
AcDbEntity
  8
寸法
 62
     0
 48
50.0
370
    -2
100
AcDbBlockReference
  2
_DOTSMALL
 10
9133.69395366784
 20
2799.999999999999
 30
0.0
 41
100.0
 42
100.0
 43
100.0
 50
270.0
  0
INSERT
  5
164B1
330
164AB
100
AcDbEntity
  8
寸法
 62
     0
 48
50.0
370
    -2
100
AcDbBlockReference
  2
_DOTSMALL
 10
9133.69395366784
 20
3000.0
 30
0.0
 41
100.0
 42
100.0
 43
100.0
 50
90.0
  0
MTEXT
  5
164B2
330
164AB
100
AcDbEntity
  8
寸法
 62
     7
 48
50.0
100
AcDbMText
 10
9033.682142644218
 20
2900.000000000001
 30
0.0
 40
120.0
 41
0.0
 71
     5
 72
     1
  1
\A1;200
  7
STYLE1
 11
0.0000000000000001
 21
1.0
 31
0.0
 73
     1
 44
1.0
1001
ACAD
1000
MTEXTBEGIN
1070
    73
1070
     1
1070
    44
1040
1.0
1070
    74
1070
     0
1000
MTEXTEND
  0
POINT
  5
164B3
330
164AB
100
AcDbEntity
  8
DEFPOINTS
 62
     0
 48
50.0
100
AcDbPoint
 10
9283.193956914479
 20
2799.999999999999
 30
0.0
  0
POINT
  5
164B4
330
164AB
100
AcDbEntity
  8
DEFPOINTS
 62
     0
 48
50.0
100
AcDbPoint
 10
9258.193956914476
 20
3000.0
 30
0.0
  0
POINT
  5
164B5
330
164AB
100
AcDbEntity
  8
DEFPOINTS
 62
     0
 48
50.0
100
AcDbPoint
 10
9133.69395366784
 20
3000.0
 30
0.0
  0
ENDBLK
  5
164B6
330
164AB
100
AcDbEntity
  8
0
 48
50.0
100
AcDbBlockEnd
  0
BLOCK
  5
16522
330
164B7
100
AcDbEntity
  8
0
 48
50.0
100
AcDbBlockBegin
  2
A$C15200730
 70
     0
 10
0.0
 20
0.0
 30
0.0
  3
A$C15200730
  1

  0
LINE
  5
164B8
330
164B7
100
AcDbEntity
  8
破線
 48
5.0
100
AcDbLine
 10
5703.829457576407
 20
1032.779131306583
 30
0.0
 11
5703.829457576408
 21
832.7791313065818
 31
0.0
  0
LINE
  5
164B9
330
164B7
100
AcDbEntity
  8
破線
 48
5.0
100
AcDbLine
 10
5903.829457576405
 20
832.7791313065809
 30
0.0
 11
5703.829457576408
 21
832.7791313065818
 31
0.0
  0
LINE
  5
164BA
330
164B7
100
AcDbEntity
  8
破線
 48
5.0
100
AcDbLine
 10
5903.829457576406
 20
1032.779131306583
 30
0.0
 11
5903.829457576405
 21
832.7791313065809
 31
0.0
  0
DIMENSION
  5
164BB
330
164B7
100
AcDbEntity
  8
寸法
 48
50.0
100
AcDbDimension
  2
*D30
 10
4388.829457576405
 20
546.7318020062044
 30
0.0
 11
4488.829457576403
 21
546.7318020062044
 31
0.0
 12
-4894.364499338073
 22
-1967.220868693417
 32
0.0
 70
   128
 71
     5
 42
199.9999999999963
  3
INABA_S40G
100
AcDbAlignedDimension
 13
4588.829457576401
 23
832.7791313065803
 33
0.0
 14
4388.829457576405
 24
832.7791313065812
 34
0.0
100
AcDbRotatedDimension
  0
LINE
  5
164BC
330
164B7
100
AcDbEntity
  8
破線
 48
5.0
100
AcDbLine
 10
4388.829457576402
 20
1032.779131306582
 30
0.0
 11
4388.829457576405
 21
832.7791313065812
 31
0.0
  0
LINE
  5
164BD
330
164B7
100
AcDbEntity
  8
破線
 48
5.0
100
AcDbLine
 10
4588.829457576403
 20
1032.779131306582
 30
0.0
 11
4588.829457576401
 21
832.7791313065803
 31
0.0
  0
LINE
  5
164BE
330
164B7
100
AcDbEntity
  8
破線
 48
5.0
100
AcDbLine
 10
4588.829457576401
 20
832.7791313065803
 30
0.0
 11
4388.829457576405
 21
832.7791313065812
 31
0.0
  0
DIMENSION
  5
164BF
330
164B7
100
AcDbEntity
  8
寸法
 48
50.0
100
AcDbDimension
  2
*D31
 10
4239.329454329767
 20
1032.779131306583
 30
0.0
 11
4239.329454329767
 21
932.7791313065835
 31
0.0
 12
-4894.364499338073
 22
-1967.220868693417
 32
0.0
 70
   128
 71
     5
 42
200.0000000000009
  3
INABA_S40G
100
AcDbAlignedDimension
 13
4388.829457576405
 23
832.7791313065812
 33
0.0
 14
4363.829457576403
 24
1032.779131306582
 34
0.0
 50
90.0
100
AcDbRotatedDimension
1001
ACAD
1000
DSTYLE
1002
{
1070
   174
1070
     0
1070
   272
1070
     1
1070
   288
1070
     0
1070
   341
1005
0
1002
}
  0
LINE
  5
164C0
330
164B7
100
AcDbEntity
  8
部品1
 48
50.0
100
AcDbLine
 10
5006.329457576403
 20
3338.647270407863
 30
0.0
 11
5306.329457576403
 21
3317.047270407863
 31
0.0
  0
LINE
  5
164C1
330
164B7
100
AcDbEntity
  8
細線
 48
50.0
100
AcDbLine
 10
5433.829457576405
 20
2972.779131306583
 30
0.0
 11
5433.829457576405
 21
1182.779131306582
 31
0.0
  0
LINE
  5
164C2
330
164B7
100
AcDbEntity
  8
細線
 48
50.0
100
AcDbLine
 10
5418.829457576404
 20
2972.779131306583
 30
0.0
 11
5418.829457576404
 21
1182.779131306582
 31
0.0
  0
LINE
  5
164C3
330
164B7
100
AcDbEntity
  8
細線
 48
50.0
100
AcDbLine
 10
5558.829457576405
 20
2972.779131306583
 30
0.0
 11
5558.829457576405
 21
1182.779131306582
 31
0.0
  0
LINE
  5
164C4
330
164B7
100
AcDbEntity
  8
細線
 48
50.0
100
AcDbLine
 10
5573.829457576405
 20
2972.779131306583
 30
0.0
 11
5573.829457576405
 21
1182.779131306582
 31
0.0
  0
LINE
  5
164C5
330
164B7
100
AcDbEntity
  8
細線
 48
50.0
100
AcDbLine
 10
5713.829457576405
 20
2972.779131306583
 30
0.0
 11
5713.829457576405
 21
1182.779131306582
 31
0.0
  0
LINE
  5
164C6
330
164B7
100
AcDbEntity
  8
細線
 48
50.0
100
AcDbLine
 10
5698.829457576405
 20
2972.779131306583
 30
0.0
 11
5698.829457576405
 21
1182.779131306582
 31
0.0
  0
LINE
  5
164C7
330
164B7
100
AcDbEntity
  8
部品1
100
AcDbLine
 10
5356.329457576401
 20
2972.779131306583
 30
0.0
 11
5356.329457576401
 21
1182.779131306582
 31
0.0
  0
TEXT
  5
164C8
330
164B7
100
AcDbEntity
  8
部品1
 48
50.0
100
AcDbText
 10
5483.422304864263
 20
3237.030034342013
 30
0.0
 40
120.0
  1
71
 50
90.0
  7
STYLE1
100
AcDbText
  0
TEXT
  5
164C9
330
164B7
100
AcDbEntity
  8
部品1
 48
50.0
100
AcDbText
 10
4994.59729280013
 20
3374.531292560296
 30
0.0
 40
120.0
  1
1000
  7
STYLE1
100
AcDbText
  0
LINE
  5
164CA
330
164B7
100
AcDbEntity
  8
部品1
 48
50.0
100
AcDbLine
 10
5306.329457576403
 20
3338.647270407863
 30
0.0
 11
5306.329457576403
 21
3317.047270407863
 31
0.0
  0
LINE
  5
164CB
330
164B7
100
AcDbEntity
  8
部品1
 48
50.0
100
AcDbLine
 10
5006.329457576403
 20
3338.647270407863
 30
0.0
 11
5306.329457576403
 21
3338.647270407863
 31
0.0
  0
DIMENSION
  5
164CC
330
164B7
100
AcDbEntity
  8
寸法
 48
50.0
100
AcDbDimension
  2
*D29
 10
3809.063205864797
 20
3229.601622204103
 30
0.0
 11
3817.740949516918
 21
3459.437861220297
 31
0.0
 12
-4894.364499338073
 22
-1967.220868693417
 32
0.0
 70
   128
 71
     5
 42
141.0
  3
INABA_S40G
100
AcDbAlignedDimension
 13
4416.672022178356
 23
3065.56015637555
 33
0.0
 14
4421.99185633031
 24
3206.459763772433
 34
0.0
 50
87.83775598710535
100
AcDbRotatedDimension
1001
ACAD
1000
DSTYLE
1002
{
1070
   174
1070
     0
1070
   272
1070
     1
1070
   288
1070
     0
1070
   341
1005
0
1002
}
  0
DIMENSION
  5
164CD
330
164B7
100
AcDbEntity
  8
寸法
 48
50.0
100
AcDbDimension
  2
*D28
 10
5911.329457576403
 20
3606.436584885887
 30
0.0
 11
6117.376701670892
 21
3606.436584885887
 31
0.0
 12
-4894.364499338073
 22
-1967.220868693417
 32
0.0
 70
   128
 71
     5
 42
80.0
  3
INABA_S40G
100
AcDbAlignedDimension
 13
5831.329457576403
 23
3154.589810918237
 33
0.0
 14
5911.329457576403
 24
3152.779131306584
 34
0.0
100
AcDbRotatedDimension
1001
ACAD
1000
DSTYLE
1002
{
1070
   174
1070
     0
1070
   272
1070
     1
1070
   288
1070
     0
1070
   341
1005
0
1002
}
  0
ARC
  5
164CE
330
164B7
100
AcDbEntity
  8
部品1
100
AcDbCircle
 10
5896.956993390339
 20
3046.212932190801
 30
0.0
 40
0.7
100
AcDbArc
 50
275.0921697642621
 51
354.1866997666905
  0
ARC
  5
164CF
330
164B7
100
AcDbEntity
  8
部品1
100
AcDbCircle
 10
5907.816339139659
 20
3123.256187008724
 30
0.0
 40
0.7
100
AcDbArc
 50
275.0921697642621
 51
354.186699766535
  0
ARC
  5
164D0
330
164B7
100
AcDbEntity
  8
部品1
100
AcDbCircle
 10
5908.144744382262
 20
3119.570790151634
 30
0.0
 40
3.0
100
AcDbArc
 50
95.09216976431515
 51
174.1866997665349
  0
ARC
  5
164D1
330
164B7
100
AcDbEntity
  8
部品1
100
AcDbCircle
 10
5897.285398632935
 20
3042.52753533371
 30
0.0
 40
3.0
100
AcDbArc
 50
95.0921697642102
 51
174.1866997665349
  0
ARC
  5
164D2
330
164B7
100
AcDbEntity
  8
部品1
 48
50.0
100
AcDbCircle
 10
5886.257263357833
 20
3032.936790729829
 30
0.0
 40
7.0
100
AcDbArc
 50
267.8377559870533
 51
354.186699766535
  0
ARC
  5
164D3
330
164B7
100
AcDbEntity
  8
部品1
 48
50.0
100
AcDbCircle
 10
5903.579359822348
 20
3143.839337872001
 30
0.0
 40
7.0
100
AcDbArc
 50
354.186699766522
 51
87.03587545293569
  0
LINE
  5
164D4
330
164B7
100
AcDbEntity
  8
部品1
 48
50.0
100
AcDbLine
 10
5894.300826962328
 20
3042.831397050614
 30
0.0
 11
5893.221263922587
 21
3032.227780057055
 31
0.0
  0
LINE
  5
164D5
330
164B7
100
AcDbEntity
  8
部品1
 48
50.0
100
AcDbLine
 10
5905.16017271165
 20
3119.874651868538
 30
0.0
 11
5897.653393446813
 21
3046.142031123525
 31
0.0
  0
LINE
  5
164D6
330
164B7
100
AcDbEntity
  8
部品1
 48
50.0
100
AcDbLine
 10
5910.543360387102
 20
3143.130327199227
 30
0.0
 11
5908.512739196132
 21
3123.185285941447
 31
0.0
  0
ARC
  5
164D7
330
164B7
100
AcDbEntity
  8
部品1
100
AcDbCircle
 10
4407.366549447766
 20
3086.593290265487
 30
0.0
 40
0.7
100
AcDbArc
 50
181.0932240292244
 51
260.1877540315916
  0
ARC
  5
164D8
330
164B7
100
AcDbEntity
  8
部品1
100
AcDbCircle
 10
4402.593875850158
 20
3179.459068465606
 30
0.0
 40
0.7
100
AcDbArc
 50
181.0932240292244
 51
260.1877540315916
  0
ARC
  5
164D9
330
164B7
100
AcDbEntity
  8
部品1
100
AcDbCircle
 10
4401.963321447136
 20
3175.813193928208
 30
0.0
 40
3.0
100
AcDbArc
 50
1.093224029276561
 51
80.18775403159162
  0
ARC
  5
164DA
330
164B7
100
AcDbEntity
  8
部品1
100
AcDbCircle
 10
4406.735995044741
 20
3082.947415728089
 30
0.0
 40
3.0
100
AcDbArc
 50
1.093224029289586
 51
80.18775403153805
  0
ARC
  5
164DB
330
164B7
100
AcDbEntity
  8
部品1
 48
50.0
100
AcDbCircle
 10
4416.936127419943
 20
3072.555172345608
 30
0.0
 40
7.0
100
AcDbArc
 50
181.0932240292896
 51
267.8377559870533
  0
ARC
  5
164DC
330
164B7
100
AcDbEntity
  8
部品1
 48
50.0
100
AcDbCircle
 10
4408.512469317847
 20
3199.506231878703
 30
0.0
 40
7.0
100
AcDbArc
 50
87.03587545293569
 51
181.0932240292765
  0
LINE
  5
164DD
330
164B7
100
AcDbEntity
  8
部品1
 48
50.0
100
AcDbLine
 10
4409.735448971172
 20
3083.004653331272
 30
0.0
 11
4409.937401591605
 21
3072.42161793818
 31
0.0
  0
LINE
  5
164DE
330
164B7
100
AcDbEntity
  8
細線
 48
50.0
100
AcDbLine
 10
4407.129355914501
 20
3085.934701450081
 30
0.0
 11
5897.133020345138
 21
3045.535426094013
 31
0.0
  0
LINE
  5
164DF
330
164B7
100
AcDbEntity
  8
細線
 48
50.0
100
AcDbLine
 10
4402.368880677214
 20
3178.796213147945
 30
0.0
 11
5908.004865422383
 21
3122.582052125542
 31
0.0
  0
LINE
  5
164E0
330
164B7
100
AcDbEntity
  8
部品1
 48
50.0
100
AcDbLine
 10
4404.962775373565
 20
3175.870431531392
 30
0.0
 11
4406.666676864932
 21
3086.579934824745
 31
0.0
  0
LINE
  5
164E1
330
164B7
100
AcDbEntity
  8
部品1
 48
50.0
100
AcDbLine
 10
4401.513743489509
 20
3199.372677471276
 30
0.0
 11
4401.894003267321
 21
3179.445713024864
 31
0.0
  0
LINE
  5
164E2
330
164B7
100
AcDbEntity
  8
細線
 48
50.0
100
AcDbLine
 10
5878.329457576403
 20
3152.156153960305
 30
0.0
 11
5873.581774688402
 21
3026.41038146956
 31
0.0
  0
LINE
  5
164E3
330
164B7
100
AcDbEntity
  8
細線
 48
50.0
100
AcDbLine
 10
4434.329457576403
 20
3205.178807681988
 30
0.0
 11
4429.040356020892
 21
3065.093175054633
 31
0.0
  0
LINE
  5
164E4
330
164B7
100
AcDbEntity
  8
部品1
100
AcDbLine
 10
4416.672022178356
 20
3065.56015637555
 30
0.0
 11
5885.993158116246
 21
3025.94177475977
 31
0.0
  0
LINE
  5
164E5
330
164B7
100
AcDbEntity
  8
部品1
100
AcDbLine
 10
4408.874443933364
 20
3206.49686664085
 30
0.0
 11
5903.941334437864
 21
3150.829972634148
 31
0.0
  0
LINE
  5
164E6
330
164B7
100
AcDbEntity
  8
細線
 48
50.0
100
AcDbLine
 10
4593.829457576401
 20
2972.779131306583
 30
0.0
 11
4593.829457576401
 21
1182.779131306582
 31
0.0
  0
LINE
  5
164E7
330
164B7
100
AcDbEntity
  8
細線
 48
50.0
100
AcDbLine
 10
4578.829457576401
 20
2972.779131306583
 30
0.0
 11
4578.829457576401
 21
1182.779131306582
 31
0.0
  0
LINE
  5
164E8
330
164B7
100
AcDbEntity
  8
細線
 48
50.0
100
AcDbLine
 10
4718.829457576401
 20
2972.779131306583
 30
0.0
 11
4718.829457576401
 21
1182.779131306582
 31
0.0
  0
LINE
  5
164E9
330
164B7
100
AcDbEntity
  8
細線
 48
50.0
100
AcDbLine
 10
4733.8294575764
 20
2972.779131306583
 30
0.0
 11
4733.8294575764
 21
1182.779131306582
 31
0.0
  0
LINE
  5
164EA
330
164B7
100
AcDbEntity
  8
細線
 48
50.0
100
AcDbLine
 10
4873.829457576402
 20
2972.779131306583
 30
0.0
 11
4873.829457576402
 21
1182.779131306582
 31
0.0
  0
LINE
  5
164EB
330
164B7
100
AcDbEntity
  8
細線
 48
50.0
100
AcDbLine
 10
4858.829457576401
 20
2972.779131306583
 30
0.0
 11
4858.829457576401
 21
1182.779131306582
 31
0.0
  0
LINE
  5
164EC
330
164B7
100
AcDbEntity
  8
細線
 48
50.0
100
AcDbLine
 10
5278.829457576401
 20
2972.779131306583
 30
0.0
 11
5278.829457576401
 21
1182.779131306582
 31
0.0
  0
LINE
  5
164ED
330
164B7
100
AcDbEntity
  8
細線
 48
50.0
100
AcDbLine
 10
5293.829457576401
 20
2972.779131306583
 30
0.0
 11
5293.829457576401
 21
1182.779131306582
 31
0.0
  0
LINE
  5
164EE
330
164B7
100
AcDbEntity
  8
細線
 48
50.0
100
AcDbLine
 10
5153.829457576401
 20
2972.779131306583
 30
0.0
 11
5153.829457576401
 21
1182.779131306582
 31
0.0
  0
LINE
  5
164EF
330
164B7
100
AcDbEntity
  8
細線
 48
50.0
100
AcDbLine
 10
5138.829457576401
 20
2972.779131306583
 30
0.0
 11
5138.829457576401
 21
1182.779131306582
 31
0.0
  0
LINE
  5
164F0
330
164B7
100
AcDbEntity
  8
細線
 48
50.0
100
AcDbLine
 10
4998.829457576402
 20
2972.779131306583
 30
0.0
 11
4998.829457576402
 21
1182.779131306582
 31
0.0
  0
LINE
  5
164F1
330
164B7
100
AcDbEntity
  8
細線
 48
50.0
100
AcDbLine
 10
5013.829457576401
 20
2972.779131306583
 30
0.0
 11
5013.829457576401
 21
1182.779131306582
 31
0.0
  0
LWPOLYLINE
  5
164F2
330
164B7
100
AcDbEntity
  8
部品1
100
AcDbPolyline
 90
        4
 70
     1
 43
0.0
 10
4774.594124462182
 20
239.8923213939856
 10
4774.594124462182
 20
-0.0000001515468284
 10
5538.064790690622
 20
-0.0000001515468284
 10
5538.064790690622
 20
239.8923213939856
  0
TEXT
  5
164F3
330
164B7
100
AcDbEntity
  8
部品1
100
AcDbText
 10
4864.040225885791
 20
46.99879217546231
 30
0.0
 40
135.0
  1
側面図
  7
STYLE2
100
AcDbText
  0
LINE
  5
164F4
330
164B7
100
AcDbEntity
  8
部品1
100
AcDbLine
 10
4508.829457576402
 20
1132.779131306583
 30
0.0
 11
5783.829457576401
 21
1132.779131306582
 31
0.0
  0
LINE
  5
164F5
330
164B7
100
AcDbEntity
  8
部品1
100
AcDbLine
 10
5823.829457576403
 20
1132.779131306582
 30
0.0
 11
5831.329457576405
 21
1132.779131306582
 31
0.0
  0
LINE
  5
164F6
330
164B7
100
AcDbEntity
  8
破線
  6
HIDDEN
 48
5.0
100
AcDbLine
 10
4508.829457576402
 20
1032.779131306582
 30
0.0
 11
4508.829457576402
 21
1027.779131306582
 31
0.0
  0
LINE
  5
164F7
330
164B7
100
AcDbEntity
  8
破線
  6
HIDDEN
 48
5.0
100
AcDbLine
 10
4468.829457576407
 20
1032.779131306582
 30
0.0
 11
4468.829457576407
 21
1027.779131306583
 31
0.0
  0
LINE
  5
164F8
330
164B7
100
AcDbEntity
  8
破線
  6
HIDDEN
 48
5.0
100
AcDbLine
 10
5823.829457576399
 20
1032.779131306583
 30
0.0
 11
5823.829457576399
 21
1027.779131306583
 31
0.0
  0
LINE
  5
164F9
330
164B7
100
AcDbEntity
  8
破線
  6
HIDDEN
 48
5.0
100
AcDbLine
 10
5783.829457576403
 20
1032.779131306583
 30
0.0
 11
5783.829457576403
 21
1027.779131306583
 31
0.0
  0
ARC
  5
164FA
330
164B7
100
AcDbEntity
  8
部品1
 48
50.0
100
AcDbCircle
 10
5818.829457576403
 20
1172.779131306582
 30
0.0
 40
5.0
100
AcDbArc
 50
0.0
 51
90.0
  0
ARC
  5
164FB
330
164B7
100
AcDbEntity
  8
部品1
 48
50.0
100
AcDbCircle
 10
5788.829457576399
 20
1172.779131306582
 30
0.0
 40
5.0
100
AcDbArc
 50
90.0
 51
180.0
  0
LINE
  5
164FC
330
164B7
100
AcDbEntity
  8
部品1
100
AcDbLine
 10
5818.829457576403
 20
1177.779131306583
 30
0.0
 11
5788.829457576399
 21
1177.779131306583
 31
0.0
  0
LINE
  5
164FD
330
164B7
100
AcDbEntity
  8
部品1
 48
50.0
100
AcDbLine
 10
5823.829457576403
 20
1172.779131306582
 30
0.0
 11
5823.829457576399
 21
1032.779131306583
 31
0.0
  0
LINE
  5
164FE
330
164B7
100
AcDbEntity
  8
部品1
 48
50.0
100
AcDbLine
 10
5783.829457576399
 20
1172.779131306582
 30
0.0
 11
5783.829457576403
 21
1032.779131306583
 31
0.0
  0
ARC
  5
164FF
330
164B7
100
AcDbEntity
  8
部品1
 48
50.0
100
AcDbCircle
 10
4503.829457576403
 20
1172.779131306582
 30
0.0
 40
5.0
100
AcDbArc
 50
0.0
 51
90.0
  0
ARC
  5
16500
330
164B7
100
AcDbEntity
  8
部品1
 48
50.0
100
AcDbCircle
 10
4473.829457576399
 20
1172.779131306583
 30
0.0
 40
5.0
100
AcDbArc
 50
90.0
 51
180.0
  0
LINE
  5
16501
330
164B7
100
AcDbEntity
  8
部品1
100
AcDbLine
 10
4473.829457576399
 20
1177.779131306583
 30
0.0
 11
4503.829457576403
 21
1177.779131306582
 31
0.0
  0
LINE
  5
16502
330
164B7
100
AcDbEntity
  8
部品1
 48
50.0
100
AcDbLine
 10
4508.829457576402
 20
1172.779131306582
 30
0.0
 11
4508.829457576399
 21
1032.779131306582
 31
0.0
  0
LINE
  5
16503
330
164B7
100
AcDbEntity
  8
部品1
 48
50.0
100
AcDbLine
 10
4468.8294575764
 20
1172.779131306583
 30
0.0
 11
4468.829457576403
 21
1032.779131306582
 31
0.0
  0
LINE
  5
16504
330
164B7
100
AcDbEntity
  8
破線
  6
HIDDEN
 48
5.0
100
AcDbLine
 10
4508.829457576402
 20
1027.779131306582
 30
0.0
 11
4523.829457576403
 21
880.0791313065824
 31
0.0
  0
LINE
  5
16505
330
164B7
100
AcDbEntity
  8
破線
  6
HIDDEN
 48
5.0
100
AcDbLine
 10
4468.829457576403
 20
1027.779131306583
 30
0.0
 11
4453.829457576399
 21
880.0791313065824
 31
0.0
  0
LINE
  5
16506
330
164B7
100
AcDbEntity
  8
破線
  6
HIDDEN
 48
5.0
100
AcDbLine
 10
4523.829457576403
 20
880.0791313065824
 30
0.0
 11
4523.829457576399
 21
877.7791313065822
 31
0.0
  0
LINE
  5
16507
330
164B7
100
AcDbEntity
  8
破線
  6
HIDDEN
 48
5.0
100
AcDbLine
 10
4453.829457576399
 20
880.0791313065824
 30
0.0
 11
4453.829457576399
 21
877.7791313065822
 31
0.0
  0
LINE
  5
16508
330
164B7
100
AcDbEntity
  8
破線
  6
HIDDEN
 48
5.0
100
AcDbLine
 10
4453.829457576399
 20
877.7791313065822
 30
0.0
 11
4523.829457576399
 21
877.7791313065822
 31
0.0
  0
LINE
  5
16509
330
164B7
100
AcDbEntity
  8
破線
  6
HIDDEN
 48
5.0
100
AcDbLine
 10
5838.829457576403
 20
880.0791313065829
 30
0.0
 11
5838.829457576403
 21
877.7791313065828
 31
0.0
  0
LINE
  5
1650A
330
164B7
100
AcDbEntity
  8
破線
  6
HIDDEN
 48
5.0
100
AcDbLine
 10
5823.829457576403
 20
1027.779131306583
 30
0.0
 11
5838.829457576403
 21
880.0791313065829
 31
0.0
  0
LINE
  5
1650B
330
164B7
100
AcDbEntity
  8
破線
  6
HIDDEN
 48
5.0
100
AcDbLine
 10
5768.829457576403
 20
880.0791313065829
 30
0.0
 11
5768.829457576403
 21
877.7791313065828
 31
0.0
  0
LINE
  5
1650C
330
164B7
100
AcDbEntity
  8
破線
  6
HIDDEN
 48
5.0
100
AcDbLine
 10
5783.829457576399
 20
1027.779131306583
 30
0.0
 11
5768.829457576403
 21
880.0791313065829
 31
0.0
  0
LINE
  5
1650D
330
164B7
100
AcDbEntity
  8
破線
  6
HIDDEN
 48
5.0
100
AcDbLine
 10
5838.829457576403
 20
877.7791313065828
 30
0.0
 11
5768.829457576403
 21
877.7791313065828
 31
0.0
  0
DIMENSION
  5
1650E
330
164B7
100
AcDbEntity
  8
寸法
 48
50.0
100
AcDbDimension
  2
*D27
 10
4401.329457576403
 20
3814.610906077851
 30
0.0
 11
5128.454287278226
 21
3814.610906077851
 31
0.0
 12
-4894.364499338073
 22
-1967.220868693417
 32
0.0
 70
   128
 71
     5
 42
1510.0
  3
INABA_S40G
100
AcDbAlignedDimension
 13
5911.329457576403
 23
3152.779131306584
 33
0.0
 14
4401.329457576403
 24
3207.779131306587
 34
0.0
100
AcDbRotatedDimension
1001
ACAD
1000
DSTYLE
1002
{
1070
   174
1070
     0
1070
   272
1070
     1
1070
   288
1070
     0
1070
   341
1005
0
1002
}
  0
DIMENSION
  5
1650F
330
164B7
100
AcDbEntity
  8
寸法
 48
50.0
100
AcDbDimension
  2
*D26
 10
4401.329457576403
 20
3606.436584885887
 30
0.0
 11
4091.691662300813
 21
3606.436584885887
 31
0.0
 12
-4894.364499338073
 22
-1967.220868693417
 32
0.0
 70
   128
 71
     5
 42
60.0
  3
INABA_S40G
100
AcDbAlignedDimension
 13
4461.329457576403
 23
3203.780749429559
 33
0.0
 14
4401.329457576403
 24
3207.779131306587
 34
0.0
100
AcDbRotatedDimension
1001
ACAD
1000
DSTYLE
1002
{
1070
   174
1070
     0
1070
   272
1070
     1
1070
   288
1070
     0
1070
   341
1005
0
1002
}
  0
DIMENSION
  5
16510
330
164B7
100
AcDbEntity
  8
寸法
 48
50.0
100
AcDbDimension
  2
*D25
 10
4461.329457576403
 20
3606.436584885887
 30
0.0
 11
5111.148490466948
 21
3606.436584885887
 31
0.0
 12
-4894.364499338073
 22
-1967.220868693417
 32
0.0
 70
   128
  1
柱外寸法<>
 71
     5
 42
1370.0
  3
INABA_S40G
100
AcDbAlignedDimension
 13
5831.329457576403
 23
3154.589810918237
 33
0.0
 14
4461.329457576403
 24
3203.780749429559
 34
0.0
100
AcDbRotatedDimension
1001
ACAD
1000
DSTYLE
1002
{
1070
   174
1070
     0
1070
   272
1070
     1
1070
   288
1070
     0
1070
   341
1005
0
1002
}
  0
LINE
  5
16511
330
164B7
100
AcDbEntity
  8
部品1
100
AcDbLine
 10
5631.329457576405
 20
1132.779131306582
 30
0.0
 11
5631.329457576405
 21
1032.779131306583
 31
0.0
  0
LINE
  5
16512
330
164B7
100
AcDbEntity
  8
部品1
100
AcDbLine
 10
4661.329457576401
 20
1132.779131306582
 30
0.0
 11
4661.329457576401
 21
1032.779131306583
 31
0.0
  0
DIMENSION
  5
16513
330
164B7
100
AcDbEntity
  8
寸法
100
AcDbDimension
  2
*D24
 10
6536.256615548531
 20
3152.779131306584
 30
0.0
 11
6436.244804524908
 21
2142.779131306585
 31
0.0
 12
-4894.364499338073
 22
-1967.220868693417
 32
0.0
 71
     5
 42
2020.000000000001
  3
INABA_S40G
100
AcDbAlignedDimension
 13
5831.329457576405
 23
1132.779131306582
 33
0.0
 14
5911.329457576403
 24
3152.779131306584
 34
0.0
 50
90.0
100
AcDbRotatedDimension
1001
ACAD
1000
DSTYLE
1002
{
1070
   174
1070
     0
1070
   272
1070
     1
1070
   288
1070
     0
1070
   341
1005
0
1002
}
  0
LINE
  5
16514
330
164B7
100
AcDbEntity
  8
部品1
100
AcDbLine
 10
5776.329457576405
 20
2972.779131306583
 30
0.0
 11
5776.329457576405
 21
1182.779131306582
 31
0.0
  0
LINE
  5
16515
330
164B7
100
AcDbEntity
  8
部品1
100
AcDbLine
 10
5831.329457576401
 20
3027.415712141836
 30
0.0
 11
5831.329457576405
 21
1032.779131306583
 31
0.0
  0
LINE
  5
16516
330
164B7
100
AcDbEntity
  8
部品1
100
AcDbLine
 10
4936.329457576402
 20
2972.779131306583
 30
0.0
 11
4936.329457576402
 21
1182.779131306582
 31
0.0
  0
DIMENSION
  5
16517
330
164B7
100
AcDbEntity
  8
寸法
100
AcDbDimension
  2
*D20
 10
3617.579328393142
 20
1132.779131306583
 30
0.0
 11
3617.579328393142
 21
826.7318872120963
 31
0.0
 12
-4894.364499338073
 22
-1967.220868693417
 32
0.0
 70
   128
 71
     5
 42
50.0
  3
INABA_S40G
100
AcDbAlignedDimension
 13
4461.329457576401
 23
1182.779131306582
 33
0.0
 14
4406.329457576401
 24
1132.779131306582
 34
0.0
 50
90.0
100
AcDbRotatedDimension
1001
ACAD
1000
DSTYLE
1002
{
1070
   174
1070
     0
1070
   272
1070
     1
1070
   288
1070
     0
1070
   341
1005
0
1002
}
  0
DIMENSION
  5
16518
330
164B7
100
AcDbEntity
  8
寸法
100
AcDbDimension
  2
*D19
 10
3317.579328393142
 20
1032.779131306583
 30
0.0
 11
3317.579328393142
 21
796.7318872120959
 31
0.0
 12
-4894.364499338073
 22
-1967.220868693417
 32
0.0
 70
   128
 71
     5
 42
100.0000000000004
  3
INABA_S40G
100
AcDbAlignedDimension
 13
4406.329457576401
 23
1132.779131306582
 33
0.0
 14
3404.828381681269
 24
1032.779131306583
 34
0.0
 50
90.0
100
AcDbRotatedDimension
1001
ACAD
1000
DSTYLE
1002
{
1070
   174
1070
     0
1070
   272
1070
     1
1070
   288
1070
     0
1070
   341
1005
0
1002
}
  0
DIMENSION
  5
16519
330
164B7
100
AcDbEntity
  8
寸法
100
AcDbDimension
  2
*D21
 10
3317.579328393142
 20
3207.779131306587
 30
0.0
 11
3217.567517369519
 21
2170.279131306586
 31
0.0
 12
-4894.364499338073
 22
-1967.220868693417
 32
0.0
 71
     5
 42
2075.000000000004
  3
INABA_S40G
100
AcDbAlignedDimension
 13
4461.329457576401
 23
1132.779131306582
 33
0.0
 14
4401.329457576403
 24
3207.779131306587
 34
0.0
 50
90.0
100
AcDbRotatedDimension
1001
ACAD
1000
DSTYLE
1002
{
1070
   174
1070
     0
1070
   272
1070
     1
1070
   288
1070
     0
1070
   341
1005
0
1002
}
  0
DIMENSION
  5
1651A
330
164B7
100
AcDbEntity
  8
寸法
100
AcDbDimension
  2
*D22
 10
3617.579328393142
 20
1182.779131306583
 30
0.0
 11
3517.579328393142
 21
2077.779131306584
 31
0.0
 12
-4894.364499338073
 22
-1967.220868693417
 32
0.0
 71
     5
 42
1789.999999999999
  3
INABA_S40G
100
AcDbAlignedDimension
 13
4461.329457576401
 23
2972.779131306583
 33
0.0
 14
4461.329457576401
 24
1182.779131306582
 34
0.0
 50
90.0
100
AcDbRotatedDimension
1001
ACAD
1000
DSTYLE
1002
{
1070
   174
1070
     0
1070
   272
1070
     1
1070
   288
1070
     0
1070
   341
1005
0
1002
}
  0
DIMENSION
  5
1651B
330
164B7
100
AcDbEntity
  8
寸法
100
AcDbDimension
  2
*D23
 10
3916.420816179146
 20
1194.779131306583
 30
0.0
 11
3816.420816179146
 21
2079.779131306584
 31
0.0
 12
-4894.364499338073
 22
-1967.220868693417
 32
0.0
  1
有効開口部高サ<>
 71
     5
 42
1769.999999999999
  3
INABA_S40G
100
AcDbAlignedDimension
 13
4461.329457576401
 23
2964.779131306583
 33
0.0
 14
4461.329457576401
 24
1194.779131306582
 34
0.0
 50
90.0
100
AcDbRotatedDimension
1001
ACAD
1000
DSTYLE
1002
{
1070
   174
1070
     0
1070
   272
1070
     1
1070
   288
1070
     0
1070
   341
1005
0
1002
}
  0
LINE
  5
1651C
330
164B7
100
AcDbEntity
  8
部品1
100
AcDbLine
 10
4461.329457576407
 20
3064.356025247025
 30
0.0
 11
4461.329457576401
 21
1032.779131306583
 31
0.0
  0
LINE
  5
1651D
330
164B7
100
AcDbEntity
  8
部品1
100
AcDbLine
 10
4516.329457576401
 20
2972.779131306583
 30
0.0
 11
4516.329457576401
 21
1182.779131306582
 31
0.0
  0
LINE
  5
1651E
330
164B7
100
AcDbEntity
  8
部品1
100
AcDbLine
 10
4461.329457576401
 20
1132.779131306582
 30
0.0
 11
4468.829457576401
 21
1132.779131306582
 31
0.0
  0
LINE
  5
1651F
330
164B7
100
AcDbEntity
  8
部品1
100
AcDbLine
 10
4461.329457576401
 20
1182.779131306582
 30
0.0
 11
5831.329457576407
 21
1182.779131306583
 31
0.0
  0
LINE
  5
16520
330
164B7
100
AcDbEntity
  8
部品1
100
AcDbLine
 10
4461.329457576401
 20
2972.779131306583
 30
0.0
 11
5831.329457576405
 21
2972.779131306583
 31
0.0
  0
LINE
  5
16521
330
164B7
100
AcDbEntity
  8
Ｇ．Ｌ
100
AcDbLine
 10
-0.0000216482731048
 20
1032.779131306583
 30
0.0
 11
6487.41852683084
 21
1032.779131306583
 31
0.0
  0
ENDBLK
  5
16523
330
164B7
100
AcDbEntity
  8
0
 48
50.0
100
AcDbBlockEnd
  0
BLOCK
  5
166AF
330
166A5
100
AcDbEntity
  8
0
 48
50.0
100
AcDbBlockBegin
  2
*D33
 70
     1
 10
0.0
 20
0.0
 30
0.0
  3
*D33
  1

  0
LINE
  5
16875
330
166A5
100
AcDbEntity
  8
寸法
 62
     0
 48
50.0
370
    -2
100
AcDbLine
 10
7122.235691068387
 20
4737.931598713262
 30
0.0
 11
7122.235691068387
 21
5439.763373484529
 31
0.0
  0
LINE
  5
16876
330
166A5
100
AcDbEntity
  8
寸法
 62
     0
 48
50.0
370
    -2
100
AcDbLine
 10
5612.235691068387
 20
4792.931598713265
 30
0.0
 11
5612.235691068387
 21
5439.763373484529
 31
0.0
  0
LINE
  5
16877
330
166A5
100
AcDbEntity
  8
寸法
 62
     0
 48
50.0
370
    -2
100
AcDbLine
 10
7122.235691068387
 20
5379.76337348453
 30
0.0
 11
5612.235691068387
 21
5379.76337348453
 31
0.0
  0
INSERT
  5
16878
330
166A5
100
AcDbEntity
  8
寸法
 62
     0
 48
50.0
370
    -2
100
AcDbBlockReference
  2
_DOTSMALL
 10
7122.235691068387
 20
5379.76337348453
 30
0.0
 41
100.0
 42
100.0
 43
100.0
  0
INSERT
  5
16879
330
166A5
100
AcDbEntity
  8
寸法
 62
     0
 48
50.0
370
    -2
100
AcDbBlockReference
  2
_DOTSMALL
 10
5612.235691068387
 20
5379.76337348453
 30
0.0
 41
100.0
 42
100.0
 43
100.0
 50
180.0
  0
MTEXT
  5
1687A
330
166A5
100
AcDbEntity
  8
寸法
 62
     7
 48
50.0
100
AcDbMText
 10
6339.36052077021
 20
5479.76337348453
 30
0.0
 40
120.0
 41
0.0
 71
     5
 72
     1
  1
\A1;1510
  7
STYLE1
 73
     1
 44
1.0
1001
ACAD
1000
MTEXTBEGIN
1070
    73
1070
     1
1070
    44
1040
1.0
1070
    74
1070
     0
1000
MTEXTEND
  0
POINT
  5
1687B
330
166A5
100
AcDbEntity
  8
DEFPOINTS
 62
     0
 48
50.0
100
AcDbPoint
 10
7122.235691068387
 20
4717.931598713263
 30
0.0
  0
POINT
  5
1687C
330
166A5
100
AcDbEntity
  8
DEFPOINTS
 62
     0
 48
50.0
100
AcDbPoint
 10
5612.235691068387
 20
4772.931598713266
 30
0.0
  0
POINT
  5
1687D
330
166A5
100
AcDbEntity
  8
DEFPOINTS
 62
     0
 48
50.0
100
AcDbPoint
 10
5612.235691068387
 20
5379.76337348453
 30
0.0
  0
ENDBLK
  5
166B0
330
166A5
100
AcDbEntity
  8
0
 48
50.0
100
AcDbBlockEnd
  0
BLOCK
  5
166BD
330
166B1
100
AcDbEntity
  8
0
 48
50.0
100
AcDbBlockBegin
  2
*D34
 70
     1
 10
0.0
 20
0.0
 30
0.0
  3
*D34
  1

  0
LINE
  5
1686A
330
166B1
100
AcDbEntity
  8
寸法
 62
     0
 48
50.0
370
    -2
100
AcDbLine
 10
5672.235691068387
 20
4788.933216836237
 30
0.0
 11
5672.235691068387
 21
5231.589052292566
 31
0.0
  0
LINE
  5
1686B
330
166B1
100
AcDbEntity
  8
寸法
 62
     0
 48
50.0
370
    -2
100
AcDbLine
 10
5612.235691068387
 20
4792.931598713265
 30
0.0
 11
5612.235691068387
 21
5231.589052292566
 31
0.0
  0
LINE
  5
1686C
330
166B1
100
AcDbEntity
  8
寸法
 62
     0
 48
50.0
370
    -2
100
AcDbLine
 10
5672.235691068387
 20
5171.589052292565
 30
0.0
 11
5772.235691068386
 21
5171.589052292565
 31
0.0
  0
LINE
  5
1686D
330
166B1
100
AcDbEntity
  8
寸法
 62
     0
 48
50.0
370
    -2
100
AcDbLine
 10
5612.235691068387
 20
5171.589052292565
 30
0.0
 11
5192.960100517205
 21
5171.589052292565
 31
0.0
  0
LINE
  5
1686E
330
166B1
100
AcDbEntity
  8
寸法
 62
     0
 48
50.0
370
    -2
100
AcDbLine
 10
5672.235691068387
 20
5171.589052292565
 30
0.0
 11
5612.235691068387
 21
5171.589052292565
 31
0.0
  0
INSERT
  5
1686F
330
166B1
100
AcDbEntity
  8
寸法
 62
     0
 48
50.0
370
    -2
100
AcDbBlockReference
  2
_DOTSMALL
 10
5672.235691068387
 20
5171.589052292565
 30
0.0
 41
100.0
 42
100.0
 43
100.0
 50
180.0
  0
INSERT
  5
16870
330
166B1
100
AcDbEntity
  8
寸法
 62
     0
 48
50.0
370
    -2
100
AcDbBlockReference
  2
_DOTSMALL
 10
5612.235691068387
 20
5171.589052292565
 30
0.0
 41
100.0
 42
100.0
 43
100.0
  0
MTEXT
  5
16871
330
166B1
100
AcDbEntity
  8
寸法
 62
     7
 48
50.0
100
AcDbMText
 10
5302.597895792796
 20
5271.589052292565
 30
0.0
 40
120.0
 41
0.0
 71
     5
 72
     1
  1
\A1;60
  7
STYLE1
 73
     1
 44
1.0
1001
ACAD
1000
MTEXTBEGIN
1070
    73
1070
     1
1070
    44
1040
1.0
1070
    74
1070
     0
1000
MTEXTEND
  0
POINT
  5
16872
330
166B1
100
AcDbEntity
  8
DEFPOINTS
 62
     0
 48
50.0
100
AcDbPoint
 10
5672.235691068387
 20
4768.933216836238
 30
0.0
  0
POINT
  5
16873
330
166B1
100
AcDbEntity
  8
DEFPOINTS
 62
     0
 48
50.0
100
AcDbPoint
 10
5612.235691068387
 20
4772.931598713266
 30
0.0
  0
POINT
  5
16874
330
166B1
100
AcDbEntity
  8
DEFPOINTS
 62
     0
 48
50.0
100
AcDbPoint
 10
5612.235691068387
 20
5171.589052292565
 30
0.0
  0
ENDBLK
  5
166BE
330
166B1
100
AcDbEntity
  8
0
 48
50.0
100
AcDbBlockEnd
  0
BLOCK
  5
166C9
330
166BF
100
AcDbEntity
  8
0
 48
50.0
100
AcDbBlockBegin
  2
*D35
 70
     1
 10
0.0
 20
0.0
 30
0.0
  3
*D35
  1

  0
LINE
  5
16861
330
166BF
100
AcDbEntity
  8
寸法
 62
     0
 48
50.0
370
    -2
100
AcDbLine
 10
7042.235691068388
 20
4739.742278324914
 30
0.0
 11
7042.235691068388
 21
5231.589052292566
 31
0.0
  0
LINE
  5
16862
330
166BF
100
AcDbEntity
  8
寸法
 62
     0
 48
50.0
370
    -2
100
AcDbLine
 10
5672.235691068387
 20
4788.933216836237
 30
0.0
 11
5672.235691068387
 21
5231.589052292566
 31
0.0
  0
LINE
  5
16863
330
166BF
100
AcDbEntity
  8
寸法
 62
     0
 48
50.0
370
    -2
100
AcDbLine
 10
7042.235691068388
 20
5171.589052292565
 30
0.0
 11
5672.235691068387
 21
5171.589052292565
 31
0.0
  0
INSERT
  5
16864
330
166BF
100
AcDbEntity
  8
寸法
 62
     0
 48
50.0
370
    -2
100
AcDbBlockReference
  2
_DOTSMALL
 10
7042.235691068388
 20
5171.589052292565
 30
0.0
 41
100.0
 42
100.0
 43
100.0
  0
INSERT
  5
16865
330
166BF
100
AcDbEntity
  8
寸法
 62
     0
 48
50.0
370
    -2
100
AcDbBlockReference
  2
_DOTSMALL
 10
5672.235691068387
 20
5171.589052292565
 30
0.0
 41
100.0
 42
100.0
 43
100.0
 50
180.0
  0
MTEXT
  5
16866
330
166BF
100
AcDbEntity
  8
寸法
 62
     7
 48
50.0
100
AcDbMText
 10
6322.054723958932
 20
5271.589052292565
 30
0.0
 40
120.0
 41
0.0
 71
     5
 72
     1
  1
\A1;柱外寸法1370
  7
STYLE1
 73
     1
 44
1.0
1001
ACAD
1000
MTEXTBEGIN
1070
    73
1070
     1
1070
    44
1040
1.0
1070
    74
1070
     0
1000
MTEXTEND
  0
POINT
  5
16867
330
166BF
100
AcDbEntity
  8
DEFPOINTS
 62
     0
 48
50.0
100
AcDbPoint
 10
7042.235691068388
 20
4719.742278324915
 30
0.0
  0
POINT
  5
16868
330
166BF
100
AcDbEntity
  8
DEFPOINTS
 62
     0
 48
50.0
100
AcDbPoint
 10
5672.235691068387
 20
4768.933216836238
 30
0.0
  0
POINT
  5
16869
330
166BF
100
AcDbEntity
  8
DEFPOINTS
 62
     0
 48
50.0
100
AcDbPoint
 10
5672.235691068387
 20
5171.589052292565
 30
0.0
  0
ENDBLK
  5
166CA
330
166BF
100
AcDbEntity
  8
0
 48
50.0
100
AcDbBlockEnd
  0
BLOCK
  5
166D5
330
166CB
100
AcDbEntity
  8
0
 48
50.0
100
AcDbBlockBegin
  2
*D36
 70
     1
 10
0.0
 20
0.0
 30
0.0
  3
*D36
  1

  0
LINE
  5
16858
330
166CB
100
AcDbEntity
  8
寸法
 62
     0
 48
50.0
370
    -2
100
AcDbLine
 10
7139.23569106839
 20
2697.931598713261
 30
0.0
 11
7807.162849040515
 21
2697.93159871326
 31
0.0
  0
LINE
  5
16859
330
166CB
100
AcDbEntity
  8
寸法
 62
     0
 48
50.0
370
    -2
100
AcDbLine
 10
7142.235691068387
 20
4717.931598713263
 30
0.0
 11
7807.162849040515
 21
4717.931598713263
 31
0.0
  0
LINE
  5
1685A
330
166CB
100
AcDbEntity
  8
寸法
 62
     0
 48
50.0
370
    -2
100
AcDbLine
 10
7747.162849040515
 20
2697.93159871326
 30
0.0
 11
7747.162849040515
 21
4717.931598713263
 31
0.0
  0
INSERT
  5
1685B
330
166CB
100
AcDbEntity
  8
寸法
 62
     0
 48
50.0
370
    -2
100
AcDbBlockReference
  2
_DOTSMALL
 10
7747.162849040515
 20
2697.93159871326
 30
0.0
 41
100.0
 42
100.0
 43
100.0
 50
270.0
  0
INSERT
  5
1685C
330
166CB
100
AcDbEntity
  8
寸法
 62
     0
 48
50.0
370
    -2
100
AcDbBlockReference
  2
_DOTSMALL
 10
7747.162849040515
 20
4717.931598713263
 30
0.0
 41
100.0
 42
100.0
 43
100.0
 50
90.0
  0
MTEXT
  5
1685D
330
166CB
100
AcDbEntity
  8
寸法
 62
     7
 48
50.0
100
AcDbMText
 10
7647.151038016892
 20
3707.931598713263
 30
0.0
 40
120.0
 41
0.0
 71
     5
 72
     1
  1
\A1;2020
  7
STYLE1
 11
0.0000000000000001
 21
1.0
 31
0.0
 73
     1
 44
1.0
1001
ACAD
1000
MTEXTBEGIN
1070
    73
1070
     1
1070
    44
1040
1.0
1070
    74
1070
     0
1000
MTEXTEND
  0
POINT
  5
1685E
330
166CB
100
AcDbEntity
  8
DEFPOINTS
 62
     0
 48
50.0
100
AcDbPoint
 10
7119.235691068389
 20
2697.931598713261
 30
0.0
  0
POINT
  5
1685F
330
166CB
100
AcDbEntity
  8
DEFPOINTS
 62
     0
 48
50.0
100
AcDbPoint
 10
7122.235691068387
 20
4717.931598713263
 30
0.0
  0
POINT
  5
16860
330
166CB
100
AcDbEntity
  8
DEFPOINTS
 62
     0
 48
50.0
100
AcDbPoint
 10
7747.162849040515
 20
4717.931598713263
 30
0.0
  0
ENDBLK
  5
166D6
330
166CB
100
AcDbEntity
  8
0
 48
50.0
100
AcDbBlockEnd
  0
BLOCK
  5
16720
330
16716
100
AcDbEntity
  8
0
 48
50.0
100
AcDbBlockBegin
  2
*D37
 70
     1
 10
0.0
 20
0.0
 30
0.0
  3
*D37
  1

  0
LINE
  5
1689B
330
16716
100
AcDbEntity
  8
寸法
 62
     0
 48
50.0
370
    -2
100
AcDbLine
 10
5799.735691068384
 20
2377.931598713259
 30
0.0
 11
5799.735691068384
 21
2051.884269412883
 31
0.0
  0
LINE
  5
1689C
330
16716
100
AcDbEntity
  8
寸法
 62
     0
 48
50.0
370
    -2
100
AcDbLine
 10
5599.735691068389
 20
2377.93159871326
 30
0.0
 11
5599.735691068389
 21
2051.884269412883
 31
0.0
  0
LINE
  5
1689D
330
16716
100
AcDbEntity
  8
寸法
 62
     0
 48
50.0
370
    -2
100
AcDbLine
 10
5799.735691068384
 20
2111.884269412883
 30
0.0
 11
5599.735691068389
 21
2111.884269412883
 31
0.0
  0
INSERT
  5
1689E
330
16716
100
AcDbEntity
  8
寸法
 62
     0
 48
50.0
370
    -2
100
AcDbBlockReference
  2
_DOTSMALL
 10
5799.735691068384
 20
2111.884269412883
 30
0.0
 41
100.0
 42
100.0
 43
100.0
  0
INSERT
  5
1689F
330
16716
100
AcDbEntity
  8
寸法
 62
     0
 48
50.0
370
    -2
100
AcDbBlockReference
  2
_DOTSMALL
 10
5599.735691068389
 20
2111.884269412883
 30
0.0
 41
100.0
 42
100.0
 43
100.0
 50
180.0
  0
MTEXT
  5
168A0
330
16716
100
AcDbEntity
  8
寸法
 62
     7
 48
50.0
100
AcDbMText
 10
5699.735691068386
 20
2211.896080436505
 30
0.0
 40
120.0
 41
0.0
 71
     5
 72
     1
  1
\A1;200
  7
STYLE1
 73
     1
 44
1.0
1001
ACAD
1000
MTEXTBEGIN
1070
    73
1070
     1
1070
    44
1040
1.0
1070
    74
1070
     0
1000
MTEXTEND
  0
POINT
  5
168A1
330
16716
100
AcDbEntity
  8
DEFPOINTS
 62
     0
 48
50.0
100
AcDbPoint
 10
5799.735691068384
 20
2397.931598713259
 30
0.0
  0
POINT
  5
168A2
330
16716
100
AcDbEntity
  8
DEFPOINTS
 62
     0
 48
50.0
100
AcDbPoint
 10
5599.735691068389
 20
2397.93159871326
 30
0.0
  0
POINT
  5
168A3
330
16716
100
AcDbEntity
  8
DEFPOINTS
 62
     0
 48
50.0
100
AcDbPoint
 10
5599.735691068389
 20
2111.884269412883
 30
0.0
  0
ENDBLK
  5
16721
330
16716
100
AcDbEntity
  8
0
 48
50.0
100
AcDbBlockEnd
  0
BLOCK
  5
1672C
330
16722
100
AcDbEntity
  8
0
 48
50.0
100
AcDbBlockBegin
  2
*D38
 70
     1
 10
0.0
 20
0.0
 30
0.0
  3
*D38
  1

  0
LINE
  5
16892
330
16722
100
AcDbEntity
  8
寸法
 62
     0
 48
50.0
370
    -2
100
AcDbLine
 10
5579.735691068389
 20
2397.93159871326
 30
0.0
 11
5390.235687821752
 21
2397.93159871326
 31
0.0
  0
LINE
  5
16893
330
16722
100
AcDbEntity
  8
寸法
 62
     0
 48
50.0
370
    -2
100
AcDbLine
 10
5554.735691068387
 20
2597.931598713261
 30
0.0
 11
5390.235687821752
 21
2597.931598713261
 31
0.0
  0
LINE
  5
16894
330
16722
100
AcDbEntity
  8
寸法
 62
     0
 48
50.0
370
    -2
100
AcDbLine
 10
5450.235687821752
 20
2397.93159871326
 30
0.0
 11
5450.235687821752
 21
2597.931598713261
 31
0.0
  0
INSERT
  5
16895
330
16722
100
AcDbEntity
  8
寸法
 62
     0
 48
50.0
370
    -2
100
AcDbBlockReference
  2
_DOTSMALL
 10
5450.235687821752
 20
2397.93159871326
 30
0.0
 41
100.0
 42
100.0
 43
100.0
 50
270.0
  0
INSERT
  5
16896
330
16722
100
AcDbEntity
  8
寸法
 62
     0
 48
50.0
370
    -2
100
AcDbBlockReference
  2
_DOTSMALL
 10
5450.235687821752
 20
2597.931598713261
 30
0.0
 41
100.0
 42
100.0
 43
100.0
 50
90.0
  0
MTEXT
  5
16897
330
16722
100
AcDbEntity
  8
寸法
 62
     7
 48
50.0
100
AcDbMText
 10
5350.223876798128
 20
2497.931598713261
 30
0.0
 40
120.0
 41
0.0
 71
     5
 72
     1
  1
\A1;200
  7
STYLE1
 11
0.0000000000000001
 21
1.0
 31
0.0
 73
     1
 44
1.0
1001
ACAD
1000
MTEXTBEGIN
1070
    73
1070
     1
1070
    44
1040
1.0
1070
    74
1070
     0
1000
MTEXTEND
  0
POINT
  5
16898
330
16722
100
AcDbEntity
  8
DEFPOINTS
 62
     0
 48
50.0
100
AcDbPoint
 10
5599.735691068389
 20
2397.93159871326
 30
0.0
  0
POINT
  5
16899
330
16722
100
AcDbEntity
  8
DEFPOINTS
 62
     0
 48
50.0
100
AcDbPoint
 10
5574.735691068386
 20
2597.931598713261
 30
0.0
  0
POINT
  5
1689A
330
16722
100
AcDbEntity
  8
DEFPOINTS
 62
     0
 48
50.0
100
AcDbPoint
 10
5450.235687821752
 20
2597.931598713261
 30
0.0
  0
ENDBLK
  5
1672D
330
16722
100
AcDbEntity
  8
0
 48
50.0
100
AcDbBlockEnd
  0
BLOCK
  5
16739
330
1672E
100
AcDbEntity
  8
0
 48
50.0
100
AcDbBlockBegin
  2
*D39
 70
     1
 10
0.0
 20
0.0
 30
0.0
  3
*D39
  1

  0
LINE
  5
16888
330
1672E
100
AcDbEntity
  8
寸法
 62
     0
 48
50.0
370
    -2
100
AcDbLine
 10
5607.592495755888
 20
4631.467210186756
 30
0.0
 11
4954.69232546155
 21
4656.118241427339
 31
0.0
  0
LINE
  5
16889
330
1672E
100
AcDbEntity
  8
寸法
 62
     0
 48
50.0
370
    -2
100
AcDbLine
 10
5612.912329907843
 20
4772.366817583639
 30
0.0
 11
4960.012159613471
 21
4797.017848824224
 31
0.0
  0
LINE
  5
1688A
330
1672E
100
AcDbEntity
  8
寸法
 62
     0
 48
50.0
370
    -2
100
AcDbLine
 10
5014.649605204905
 20
4653.854482213757
 30
0.0
 11
5019.969439356827
 21
4794.75408961064
 31
0.0
  0
LINE
  5
1688B
330
1672E
100
AcDbEntity
  8
寸法
 62
     0
 48
50.0
370
    -2
100
AcDbLine
 10
5019.969439356827
 20
4794.75408961064
 30
0.0
 11
5033.55199463833
 21
5154.49776807091
 31
0.0
  0
INSERT
  5
1688C
330
1672E
100
AcDbEntity
  8
寸法
 62
     0
 48
50.0
370
    -2
100
AcDbBlockReference
  2
_DOTSMALL
 10
5014.649605204905
 20
4653.854482213757
 30
0.0
 41
100.0
 42
100.0
 43
100.0
 50
267.8377559871054
  0
INSERT
  5
1688D
330
1672E
100
AcDbEntity
  8
寸法
 62
     0
 48
50.0
370
    -2
100
AcDbBlockReference
  2
_DOTSMALL
 10
5019.969439356827
 20
4794.75408961064
 30
0.0
 41
100.0
 42
100.0
 43
100.0
 50
87.83775598710546
  0
MTEXT
  5
1688E
330
1672E
100
AcDbEntity
  8
寸法
 62
     7
 48
50.0
100
AcDbMText
 10
4928.718383436643
 20
5028.363260649614
 30
0.0
 40
120.0
 41
0.0
 71
     5
 72
     1
  1
\A1;141
  7
STYLE1
 11
0.0377293202263869
 21
0.9992879957225818
 31
0.0
 73
     1
 44
1.0
1001
ACAD
1000
MTEXTBEGIN
1070
    73
1070
     1
1070
    44
1040
1.0
1070
    74
1070
     0
1000
MTEXTEND
  0
POINT
  5
1688F
330
1672E
100
AcDbEntity
  8
DEFPOINTS
 62
     0
 48
50.0
100
AcDbPoint
 10
5627.578255670339
 20
4630.712623782229
 30
0.0
  0
POINT
  5
16890
330
1672E
100
AcDbEntity
  8
DEFPOINTS
 62
     0
 48
50.0
100
AcDbPoint
 10
5632.898089822295
 20
4771.612231179111
 30
0.0
  0
POINT
  5
16891
330
1672E
100
AcDbEntity
  8
DEFPOINTS
 62
     0
 48
50.0
100
AcDbPoint
 10
5019.969439356827
 20
4794.75408961064
 30
0.0
  0
ENDBLK
  5
1673A
330
1672E
100
AcDbEntity
  8
0
 48
50.0
100
AcDbBlockEnd
  0
BLOCK
  5
16746
330
1673B
100
AcDbEntity
  8
0
 48
50.0
100
AcDbBlockBegin
  2
*D40
 70
     1
 10
0.0
 20
0.0
 30
0.0
  3
*D40
  1

  0
LINE
  5
1687E
330
1673B
100
AcDbEntity
  8
寸法
 62
     0
 48
50.0
370
    -2
100
AcDbLine
 10
7042.235691068388
 20
4739.742278324914
 30
0.0
 11
7042.235691068388
 21
5231.589052292566
 31
0.0
  0
LINE
  5
1687F
330
1673B
100
AcDbEntity
  8
寸法
 62
     0
 48
50.0
370
    -2
100
AcDbLine
 10
7122.235691068387
 20
4737.931598713262
 30
0.0
 11
7122.235691068387
 21
5231.589052292566
 31
0.0
  0
LINE
  5
16880
330
1673B
100
AcDbEntity
  8
寸法
 62
     0
 48
50.0
370
    -2
100
AcDbLine
 10
7042.235691068388
 20
5171.589052292565
 30
0.0
 11
7122.235691068387
 21
5171.589052292565
 31
0.0
  0
LINE
  5
16881
330
1673B
100
AcDbEntity
  8
寸法
 62
     0
 48
50.0
370
    -2
100
AcDbLine
 10
7122.235691068387
 20
5171.589052292565
 30
0.0
 11
7434.330179257362
 21
5171.589052292565
 31
0.0
  0
INSERT
  5
16882
330
1673B
100
AcDbEntity
  8
寸法
 62
     0
 48
50.0
370
    -2
100
AcDbBlockReference
  2
_DOTSMALL
 10
7042.235691068388
 20
5171.589052292565
 30
0.0
 41
100.0
 42
100.0
 43
100.0
 50
180.0
  0
INSERT
  5
16883
330
1673B
100
AcDbEntity
  8
寸法
 62
     0
 48
50.0
370
    -2
100
AcDbBlockReference
  2
_DOTSMALL
 10
7122.235691068387
 20
5171.589052292565
 30
0.0
 41
100.0
 42
100.0
 43
100.0
  0
MTEXT
  5
16884
330
1673B
100
AcDbEntity
  8
寸法
 62
     7
 48
50.0
100
AcDbMText
 10
7328.282935162874
 20
5271.589052292565
 30
0.0
 40
120.0
 41
0.0
 71
     5
 72
     1
  1
\A1;80
  7
STYLE1
 73
     1
 44
1.0
1001
ACAD
1000
MTEXTBEGIN
1070
    73
1070
     1
1070
    44
1040
1.0
1070
    74
1070
     0
1000
MTEXTEND
  0
POINT
  5
16885
330
1673B
100
AcDbEntity
  8
DEFPOINTS
 62
     0
 48
50.0
100
AcDbPoint
 10
7042.235691068388
 20
4719.742278324915
 30
0.0
  0
POINT
  5
16886
330
1673B
100
AcDbEntity
  8
DEFPOINTS
 62
     0
 48
50.0
100
AcDbPoint
 10
7122.235691068387
 20
4717.931598713263
 30
0.0
  0
POINT
  5
16887
330
1673B
100
AcDbEntity
  8
DEFPOINTS
 62
     0
 48
50.0
100
AcDbPoint
 10
7122.235691068387
 20
5171.589052292565
 30
0.0
  0
ENDBLK
  5
16747
330
1673B
100
AcDbEntity
  8
0
 48
50.0
100
AcDbBlockEnd
  0
BLOCK
  5
167E0
330
167D4
100
AcDbEntity
  8
0
 48
50.0
100
AcDbBlockBegin
  2
*D41
 70
     1
 10
0.0
 20
0.0
 30
0.0
  3
*D41
  1

  0
LINE
  5
16831
330
167D4
100
AcDbEntity
  8
寸法
 62
     0
 48
50.0
370
    -2
100
AcDbLine
 10
5652.235691068387
 20
2747.931598713261
 30
0.0
 11
4988.58298191009
 21
2747.931598713261
 31
0.0
  0
LINE
  5
16832
330
167D4
100
AcDbEntity
  8
寸法
 62
     0
 48
50.0
370
    -2
100
AcDbLine
 10
5597.235691068386
 20
2697.931598713261
 30
0.0
 11
4988.58298191009
 21
2697.931598713261
 31
0.0
  0
LINE
  5
16833
330
167D4
100
AcDbEntity
  8
寸法
 62
     0
 48
50.0
370
    -2
100
AcDbLine
 10
5048.58298191009
 20
2747.931598713261
 30
0.0
 11
5048.58298191009
 21
2847.931598713261
 31
0.0
  0
LINE
  5
16834
330
167D4
100
AcDbEntity
  8
寸法
 62
     0
 48
50.0
370
    -2
100
AcDbLine
 10
5048.58298191009
 20
2697.931598713261
 30
0.0
 11
5048.58298191009
 21
2285.83711052428
 31
0.0
  0
LINE
  5
16835
330
167D4
100
AcDbEntity
  8
寸法
 62
     0
 48
50.0
370
    -2
100
AcDbLine
 10
5048.58298191009
 20
2747.931598713261
 30
0.0
 11
5048.58298191009
 21
2697.931598713261
 31
0.0
  0
INSERT
  5
16836
330
167D4
100
AcDbEntity
  8
寸法
 62
     0
 48
50.0
370
    -2
100
AcDbBlockReference
  2
_DOTSMALL
 10
5048.58298191009
 20
2747.931598713261
 30
0.0
 41
100.0
 42
100.0
 43
100.0
 50
270.0
  0
INSERT
  5
16837
330
167D4
100
AcDbEntity
  8
寸法
 62
     0
 48
50.0
370
    -2
100
AcDbBlockReference
  2
_DOTSMALL
 10
5048.58298191009
 20
2697.931598713261
 30
0.0
 41
100.0
 42
100.0
 43
100.0
 50
90.0
  0
MTEXT
  5
16838
330
167D4
100
AcDbEntity
  8
寸法
 62
     7
 48
50.0
100
AcDbMText
 10
4948.582981910089
 20
2391.884354618768
 30
0.0
 40
120.0
 41
0.0
 71
     5
 72
     1
  1
\A1;50
  7
STYLE1
 11
0.0000000000000001
 21
1.0
 31
0.0
 73
     1
 44
1.0
1001
ACAD
1000
MTEXTBEGIN
1070
    73
1070
     1
1070
    44
1040
1.0
1070
    74
1070
     0
1000
MTEXTEND
  0
POINT
  5
16839
330
167D4
100
AcDbEntity
  8
DEFPOINTS
 62
     0
 48
50.0
100
AcDbPoint
 10
5672.235691068387
 20
2747.931598713261
 30
0.0
  0
POINT
  5
1683A
330
167D4
100
AcDbEntity
  8
DEFPOINTS
 62
     0
 48
50.0
100
AcDbPoint
 10
5617.235691068387
 20
2697.931598713261
 30
0.0
  0
POINT
  5
1683B
330
167D4
100
AcDbEntity
  8
DEFPOINTS
 62
     0
 48
50.0
100
AcDbPoint
 10
5048.58298191009
 20
2697.931598713261
 30
0.0
  0
ENDBLK
  5
167E1
330
167D4
100
AcDbEntity
  8
0
 48
50.0
100
AcDbBlockEnd
  0
BLOCK
  5
167ED
330
167E2
100
AcDbEntity
  8
0
 48
50.0
100
AcDbBlockBegin
  2
*D42
 70
     1
 10
0.0
 20
0.0
 30
0.0
  3
*D42
  1

  0
LINE
  5
1683C
330
167E2
100
AcDbEntity
  8
寸法
 62
     0
 48
50.0
370
    -2
100
AcDbLine
 10
5597.235691068386
 20
2697.931598713261
 30
0.0
 11
4703.596309139029
 21
2697.931598713261
 31
0.0
  0
LINE
  5
1683D
330
167E2
100
AcDbEntity
  8
寸法
 62
     0
 48
50.0
370
    -2
100
AcDbLine
 10
5028.582981910089
 20
2597.931598713261
 30
0.0
 11
4703.596309139029
 21
2597.931598713261
 31
0.0
  0
LINE
  5
1683E
330
167E2
100
AcDbEntity
  8
寸法
 62
     0
 48
50.0
370
    -2
100
AcDbLine
 10
4763.596309139028
 20
2697.931598713261
 30
0.0
 11
4763.596309139028
 21
2597.931598713261
 31
0.0
  0
LINE
  5
1683F
330
167E2
100
AcDbEntity
  8
寸法
 62
     0
 48
50.0
370
    -2
100
AcDbLine
 10
4763.596309139028
 20
2597.931598713261
 30
0.0
 11
4763.596309139028
 21
2225.837110524279
 31
0.0
  0
INSERT
  5
16840
330
167E2
100
AcDbEntity
  8
寸法
 62
     0
 48
50.0
370
    -2
100
AcDbBlockReference
  2
_DOTSMALL
 10
4763.596309139028
 20
2697.931598713261
 30
0.0
 41
100.0
 42
100.0
 43
100.0
 50
90.0
  0
INSERT
  5
16841
330
167E2
100
AcDbEntity
  8
寸法
 62
     0
 48
50.0
370
    -2
100
AcDbBlockReference
  2
_DOTSMALL
 10
4763.596309139028
 20
2597.931598713261
 30
0.0
 41
100.0
 42
100.0
 43
100.0
 50
270.0
  0
MTEXT
  5
16842
330
167E2
100
AcDbEntity
  8
寸法
 62
     7
 48
50.0
100
AcDbMText
 10
4663.596309139028
 20
2361.884354618768
 30
0.0
 40
120.0
 41
0.0
 71
     5
 72
     1
  1
\A1;100
  7
STYLE1
 11
0.0000000000000001
 21
1.0
 31
0.0
 73
     1
 44
1.0
1001
ACAD
1000
MTEXTBEGIN
1070
    73
1070
     1
1070
    44
1040
1.0
1070
    74
1070
     0
1000
MTEXTEND
  0
POINT
  5
16843
330
167E2
100
AcDbEntity
  8
DEFPOINTS
 62
     0
 48
50.0
100
AcDbPoint
 10
5617.235691068387
 20
2697.931598713261
 30
0.0
  0
POINT
  5
16844
330
167E2
100
AcDbEntity
  8
DEFPOINTS
 62
     0
 48
50.0
100
AcDbPoint
 10
5048.582981910089
 20
2597.931598713261
 30
0.0
  0
POINT
  5
16845
330
167E2
100
AcDbEntity
  8
DEFPOINTS
 62
     0
 48
50.0
100
AcDbPoint
 10
4763.596309139028
 20
2597.931598713261
 30
0.0
  0
ENDBLK
  5
167EE
330
167E2
100
AcDbEntity
  8
0
 48
50.0
100
AcDbBlockEnd
  0
BLOCK
  5
167F9
330
167EF
100
AcDbEntity
  8
0
 48
50.0
100
AcDbBlockBegin
  2
*D43
 70
     1
 10
0.0
 20
0.0
 30
0.0
  3
*D43
  1

  0
LINE
  5
16846
330
167EF
100
AcDbEntity
  8
寸法
 62
     0
 48
50.0
370
    -2
100
AcDbLine
 10
5652.235691068387
 20
2697.931598713261
 30
0.0
 11
4703.596309139029
 21
2697.931598713261
 31
0.0
  0
LINE
  5
16847
330
167EF
100
AcDbEntity
  8
寸法
 62
     0
 48
50.0
370
    -2
100
AcDbLine
 10
5592.235691068387
 20
4772.931598713265
 30
0.0
 11
4703.596309139029
 21
4772.931598713265
 31
0.0
  0
LINE
  5
16848
330
167EF
100
AcDbEntity
  8
寸法
 62
     0
 48
50.0
370
    -2
100
AcDbLine
 10
4763.596309139028
 20
2697.931598713261
 30
0.0
 11
4763.596309139028
 21
4772.931598713265
 31
0.0
  0
INSERT
  5
16849
330
167EF
100
AcDbEntity
  8
寸法
 62
     0
 48
50.0
370
    -2
100
AcDbBlockReference
  2
_DOTSMALL
 10
4763.596309139028
 20
2697.931598713261
 30
0.0
 41
100.0
 42
100.0
 43
100.0
 50
270.0
  0
INSERT
  5
1684A
330
167EF
100
AcDbEntity
  8
寸法
 62
     0
 48
50.0
370
    -2
100
AcDbBlockReference
  2
_DOTSMALL
 10
4763.596309139028
 20
4772.931598713265
 30
0.0
 41
100.0
 42
100.0
 43
100.0
 50
90.0
  0
MTEXT
  5
1684B
330
167EF
100
AcDbEntity
  8
寸法
 62
     7
 48
50.0
100
AcDbMText
 10
4663.584498115405
 20
3692.137476206371
 30
0.0
 40
120.0
 41
0.0
 71
     5
 72
     1
  1
\A1;2075
  7
STYLE1
 11
0.0000000000000001
 21
1.0
 31
0.0
 73
     1
 44
1.0
1001
ACAD
1000
MTEXTBEGIN
1070
    73
1070
     1
1070
    44
1040
1.0
1070
    74
1070
     0
1000
MTEXTEND
  0
POINT
  5
1684C
330
167EF
100
AcDbEntity
  8
DEFPOINTS
 62
     0
 48
50.0
100
AcDbPoint
 10
5672.235691068387
 20
2697.931598713261
 30
0.0
  0
POINT
  5
1684D
330
167EF
100
AcDbEntity
  8
DEFPOINTS
 62
     0
 48
50.0
100
AcDbPoint
 10
5612.235691068387
 20
4772.931598713265
 30
0.0
  0
POINT
  5
1684E
330
167EF
100
AcDbEntity
  8
DEFPOINTS
 62
     0
 48
50.0
100
AcDbPoint
 10
4763.596309139028
 20
4772.931598713265
 30
0.0
  0
ENDBLK
  5
167FA
330
167EF
100
AcDbEntity
  8
0
 48
50.0
100
AcDbBlockEnd
  0
BLOCK
  5
16805
330
167FB
100
AcDbEntity
  8
0
 48
50.0
100
AcDbBlockBegin
  2
*D44
 70
     1
 10
0.0
 20
0.0
 30
0.0
  3
*D44
  1

  0
LINE
  5
1684F
330
167FB
100
AcDbEntity
  8
寸法
 62
     0
 48
50.0
370
    -2
100
AcDbLine
 10
5652.235691068387
 20
4537.93159871326
 30
0.0
 11
4988.58298191009
 21
4537.93159871326
 31
0.0
  0
LINE
  5
16850
330
167FB
100
AcDbEntity
  8
寸法
 62
     0
 48
50.0
370
    -2
100
AcDbLine
 10
5652.235691068387
 20
2747.931598713261
 30
0.0
 11
4988.58298191009
 21
2747.931598713261
 31
0.0
  0
LINE
  5
16851
330
167FB
100
AcDbEntity
  8
寸法
 62
     0
 48
50.0
370
    -2
100
AcDbLine
 10
5048.58298191009
 20
4537.93159871326
 30
0.0
 11
5048.58298191009
 21
2747.931598713261
 31
0.0
  0
INSERT
  5
16852
330
167FB
100
AcDbEntity
  8
寸法
 62
     0
 48
50.0
370
    -2
100
AcDbBlockReference
  2
_DOTSMALL
 10
5048.58298191009
 20
4537.93159871326
 30
0.0
 41
100.0
 42
100.0
 43
100.0
 50
90.0
  0
INSERT
  5
16853
330
167FB
100
AcDbEntity
  8
寸法
 62
     0
 48
50.0
370
    -2
100
AcDbBlockReference
  2
_DOTSMALL
 10
5048.58298191009
 20
2747.931598713261
 30
0.0
 41
100.0
 42
100.0
 43
100.0
 50
270.0
  0
MTEXT
  5
16854
330
167FB
100
AcDbEntity
  8
寸法
 62
     7
 48
50.0
100
AcDbMText
 10
4948.582981910089
 20
3638.385897255218
 30
0.0
 40
120.0
 41
0.0
 71
     5
 72
     1
  1
\A1;1790
  7
STYLE1
 11
0.0000000000000001
 21
1.0
 31
0.0
 73
     1
 44
1.0
1001
ACAD
1000
MTEXTBEGIN
1070
    73
1070
     1
1070
    44
1040
1.0
1070
    74
1070
     0
1000
MTEXTEND
  0
POINT
  5
16855
330
167FB
100
AcDbEntity
  8
DEFPOINTS
 62
     0
 48
50.0
100
AcDbPoint
 10
5672.235691068387
 20
4537.93159871326
 30
0.0
  0
POINT
  5
16856
330
167FB
100
AcDbEntity
  8
DEFPOINTS
 62
     0
 48
50.0
100
AcDbPoint
 10
5672.235691068387
 20
2747.931598713261
 30
0.0
  0
POINT
  5
16857
330
167FB
100
AcDbEntity
  8
DEFPOINTS
 62
     0
 48
50.0
100
AcDbPoint
 10
5048.58298191009
 20
2747.931598713261
 30
0.0
  0
ENDBLK
  5
16806
330
167FB
100
AcDbEntity
  8
0
 48
50.0
100
AcDbBlockEnd
  0
BLOCK
  5
16AC9
330
16ABF
100
AcDbEntity
  8
0
 48
50.0
100
AcDbBlockBegin
  2
*D45
 70
     1
 10
0.0
 20
0.0
 30
0.0
  3
*D45
  1

  0
LINE
  5
16EF4
330
16ABF
100
AcDbEntity
  8
寸法
 62
     0
 48
50.0
370
    -2
100
AcDbLine
 10
8928.257109428603
 20
7806.353880529605
 30
0.0
 11
8928.257109428603
 21
7161.27886248138
 31
0.0
  0
LINE
  5
16EF5
330
16ABF
100
AcDbEntity
  8
寸法
 62
     0
 48
50.0
370
    -2
100
AcDbLine
 10
9878.257109428602
 20
7806.353880529605
 30
0.0
 11
9878.257109428602
 21
7161.27886248138
 31
0.0
  0
LINE
  5
16EF6
330
16ABF
100
AcDbEntity
  8
寸法
 62
     0
 48
50.0
370
    -2
100
AcDbLine
 10
8948.257109428602
 20
7201.27886248138
 30
0.0
 11
9858.257109428604
 21
7201.27886248138
 31
0.0
  0
INSERT
  5
16EF7
330
16ABF
100
AcDbEntity
  8
寸法
 62
     0
 48
50.0
370
    -2
100
AcDbBlockReference
  2
_DOT
 10
8928.257109428603
 20
7201.27886248138
 30
0.0
 41
20.0
 42
20.0
 43
20.0
 50
180.0
  0
INSERT
  5
16EF8
330
16ABF
100
AcDbEntity
  8
寸法
 62
     0
 48
50.0
370
    -2
100
AcDbBlockReference
  2
_DOT
 10
9878.257109428602
 20
7201.27886248138
 30
0.0
 41
20.0
 42
20.0
 43
20.0
  0
MTEXT
  5
16EF9
330
16ABF
100
AcDbEntity
  8
寸法
 62
     7
 48
50.0
100
AcDbMText
 10
9403.257109428603
 20
7393.27886248138
 30
0.0
 40
120.0
 41
0.0
 71
     5
 72
     1
  1
\A1;有効開口部間口\P950
  7
STYLE1
 73
     1
 44
1.0
1001
ACAD
1000
MTEXTBEGIN
1070
    73
1070
     1
1070
    44
1040
1.0
1070
    74
1070
     0
1000
MTEXTEND
  0
POINT
  5
16EFA
330
16ABF
100
AcDbEntity
  8
DEFPOINTS
 62
     0
 48
50.0
100
AcDbPoint
 10
8928.257109428603
 20
7826.353880529605
 30
0.0
  0
POINT
  5
16EFB
330
16ABF
100
AcDbEntity
  8
DEFPOINTS
 62
     0
 48
50.0
100
AcDbPoint
 10
9878.257109428602
 20
7826.353880529605
 30
0.0
  0
POINT
  5
16EFC
330
16ABF
100
AcDbEntity
  8
DEFPOINTS
 62
     0
 48
50.0
100
AcDbPoint
 10
9878.257109428602
 20
7201.27886248138
 30
0.0
  0
ENDBLK
  5
16ACA
330
16ABF
100
AcDbEntity
  8
0
 48
50.0
100
AcDbBlockEnd
  0
BLOCK
  5
16DA7
330
16D9B
100
AcDbEntity
  8
0
 48
50.0
100
AcDbBlockBegin
  2
*D46
 70
     1
 10
0.0
 20
0.0
 30
0.0
  3
*D46
  1

  0
LINE
  5
16EE9
330
16D9B
100
AcDbEntity
  8
寸法
 62
     0
 48
50.0
370
    -2
100
AcDbLine
 10
8841.257109428632
 20
7903.353880529599
 30
0.0
 11
8526.645863801915
 21
7903.353880529599
 31
0.0
  0
LINE
  5
16EEA
330
16D9B
100
AcDbEntity
  8
寸法
 62
     0
 48
50.0
370
    -2
100
AcDbLine
 10
8869.257109428611
 20
7828.353880529599
 30
0.0
 11
8526.645863801915
 21
7828.353880529599
 31
0.0
  0
LINE
  5
16EEB
330
16D9B
100
AcDbEntity
  8
寸法
 62
     0
 48
50.0
370
    -2
100
AcDbLine
 10
8566.645863801916
 20
7923.353880529599
 30
0.0
 11
8566.645863801916
 21
7943.353880529599
 31
0.0
  0
LINE
  5
16EEC
330
16D9B
100
AcDbEntity
  8
寸法
 62
     0
 48
50.0
370
    -2
100
AcDbLine
 10
8566.645863801916
 20
7808.3538805296
 30
0.0
 11
8566.645863801916
 21
7587.383317781121
 31
0.0
  0
LINE
  5
16EED
330
16D9B
100
AcDbEntity
  8
寸法
 62
     0
 48
50.0
370
    -2
100
AcDbLine
 10
8566.645863801916
 20
7903.353880529599
 30
0.0
 11
8566.645863801916
 21
7828.353880529599
 31
0.0
  0
INSERT
  5
16EEE
330
16D9B
100
AcDbEntity
  8
寸法
 62
     0
 48
50.0
370
    -2
100
AcDbBlockReference
  2
_DOT
 10
8566.645863801916
 20
7903.353880529599
 30
0.0
 41
20.0
 42
20.0
 43
20.0
 50
270.0
  0
INSERT
  5
16EEF
330
16D9B
100
AcDbEntity
  8
寸法
 62
     0
 48
50.0
370
    -2
100
AcDbBlockReference
  2
_DOT
 10
8566.645863801916
 20
7828.353880529599
 30
0.0
 41
20.0
 42
20.0
 43
20.0
 50
90.0
  0
MTEXT
  5
16EF0
330
16D9B
100
AcDbEntity
  8
寸法
 62
     7
 48
50.0
100
AcDbMText
 10
8474.645863801914
 20
7687.868599155361
 30
0.0
 40
120.0
 41
0.0
 71
     5
 72
     1
  1
\A1;75
  7
STYLE1
 11
0.0000000000000001
 21
1.0
 31
0.0
 73
     1
 44
1.0
1001
ACAD
1000
MTEXTBEGIN
1070
    73
1070
     1
1070
    44
1040
1.0
1070
    74
1070
     0
1000
MTEXTEND
  0
POINT
  5
16EF1
330
16D9B
100
AcDbEntity
  8
DEFPOINTS
 62
     0
 48
50.0
100
AcDbPoint
 10
8861.257109428633
 20
7903.353880529599
 30
0.0
  0
POINT
  5
16EF2
330
16D9B
100
AcDbEntity
  8
DEFPOINTS
 62
     0
 48
50.0
100
AcDbPoint
 10
8889.25710942861
 20
7828.353880529599
 30
0.0
  0
POINT
  5
16EF3
330
16D9B
100
AcDbEntity
  8
DEFPOINTS
 62
     0
 48
50.0
100
AcDbPoint
 10
8566.645863801916
 20
7828.353880529599
 30
0.0
  0
ENDBLK
  5
16DA8
330
16D9B
100
AcDbEntity
  8
0
 48
50.0
100
AcDbBlockEnd
  0
BLOCK
  5
16F7C
330
16F72
100
AcDbEntity
  8
0
 48
50.0
100
AcDbBlockBegin
  2
*D47
 70
     1
 10
0.0
 20
0.0
 30
0.0
  3
*D47
  1

  0
LINE
  5
16F73
330
16F72
100
AcDbEntity
  8
寸法
 62
     0
 48
50.0
370
    -2
100
AcDbLine
 10
8889.257109428603
 20
7806.353880529605
 30
0.0
 11
8889.257109428603
 21
6891.283610678823
 31
0.0
  0
LINE
  5
16F74
330
16F72
100
AcDbEntity
  8
寸法
 62
     0
 48
50.0
370
    -2
100
AcDbLine
 10
10623.2571094286
 20
7806.353880529603
 30
0.0
 11
10623.2571094286
 21
6891.283610678823
 31
0.0
  0
LINE
  5
16F75
330
16F72
100
AcDbEntity
  8
寸法
 62
     0
 48
50.0
370
    -2
100
AcDbLine
 10
8889.257109428603
 20
6951.283610678824
 30
0.0
 11
10623.2571094286
 21
6951.283610678824
 31
0.0
  0
INSERT
  5
16F76
330
16F72
100
AcDbEntity
  8
寸法
 62
     0
 48
50.0
370
    -2
100
AcDbBlockReference
  2
_DOTSMALL
 10
8889.257109428603
 20
6951.283610678824
 30
0.0
 41
100.0
 42
100.0
 43
100.0
 50
180.0
  0
INSERT
  5
16F77
330
16F72
100
AcDbEntity
  8
寸法
 62
     0
 48
50.0
370
    -2
100
AcDbBlockReference
  2
_DOTSMALL
 10
10623.2571094286
 20
6951.283610678824
 30
0.0
 41
100.0
 42
100.0
 43
100.0
  0
MTEXT
  5
16F78
330
16F72
100
AcDbEntity
  8
寸法
 62
     7
 48
50.0
100
AcDbMText
 10
9746.838853380424
 20
7051.283610678824
 30
0.0
 40
120.0
 41
0.0
 71
     5
 72
     1
  1
\A1;1734
  7
STYLE1
 73
     1
 44
1.0
1001
ACAD
1000
MTEXTBEGIN
1070
    73
1070
     1
1070
    44
1040
1.0
1070
    74
1070
     0
1000
MTEXTEND
  0
POINT
  5
16F79
330
16F72
100
AcDbEntity
  8
DEFPOINTS
 62
     0
 48
50.0
100
AcDbPoint
 10
8889.257109428603
 20
7826.353880529605
 30
0.0
  0
POINT
  5
16F7A
330
16F72
100
AcDbEntity
  8
DEFPOINTS
 62
     0
 48
50.0
100
AcDbPoint
 10
10623.2571094286
 20
7826.353880529604
 30
0.0
  0
POINT
  5
16F7B
330
16F72
100
AcDbEntity
  8
DEFPOINTS
 62
     0
 48
50.0
100
AcDbPoint
 10
10623.2571094286
 20
6951.283610678824
 30
0.0
  0
ENDBLK
  5
16F7D
330
16F72
100
AcDbEntity
  8
0
 48
50.0
100
AcDbBlockEnd
  0
ENDSEC
  0
SECTION
  2
ENTITIES
  0
LINE
  5
10B57
330
747D
100
AcDbEntity
  8
補助
  6
PHANTOM
 62
   230
 48
50.0
100
AcDbLine
 10
139.9999999999995
 20
11409.6
 30
0.0
 11
16307.2
 21
11409.6
 31
0.0
  0
LINE
  5
10B59
330
747D
100
AcDbEntity
  8
仕様書枠
  6
Continuous
 48
50.0
100
AcDbLine
 10
13107.2
 20
1200.0
 30
0.0
 11
13107.2
 21
-0.0000000000000729
 31
0.0
  0
LINE
  5
10B5C
330
747D
100
AcDbEntity
  8
仕様書枠
 48
50.0
100
AcDbLine
 10
16307.2
 20
1200.0
 30
0.0
 11
16307.2
 21
-0.0000000000000909
 31
0.0
  0
LINE
  5
10B5D
330
747D
100
AcDbEntity
  8
仕様書枠
 48
50.0
100
AcDbLine
 10
140.0
 20
0.0
 30
0.0
 11
16307.2
 21
-0.0000000000000909
 31
0.0
  0
LINE
  5
10B5E
330
747D
100
AcDbEntity
  8
補助
  6
PHANTOM
 62
   230
 48
50.0
100
AcDbLine
 10
16307.2
 20
11409.6
 30
0.0
 11
16307.2
 21
1200.0
 31
0.0
  0
LINE
  5
10B6C
330
747D
100
AcDbEntity
  8
仕様書枠
 48
50.0
100
AcDbLine
 10
13107.2
 20
1200.0
 30
0.0
 11
16307.2
 21
1200.0
 31
0.0
  0
LINE
  5
10B6D
330
747D
100
AcDbEntity
  8
補助
  6
PHANTOM
 62
   230
 48
50.0
100
AcDbLine
 10
13107.2
 20
11409.6
 30
0.0
 11
13107.2
 21
4800.0
 31
0.0
  0
LINE
  5
10B6F
330
747D
100
AcDbEntity
  8
補助
  6
PHANTOM
 62
   230
 48
50.0
100
AcDbLine
 10
13107.2
 20
4800.0
 30
0.0
 11
16307.2
 21
4800.0
 31
0.0
  0
LINE
  5
10B72
330
747D
100
AcDbEntity
  8
文字
 62
     7
 48
50.0
100
AcDbLine
 10
13187.2
 20
400.0
 30
0.0
 11
16227.2
 21
400.0
 31
0.0
  0
TEXT
  5
10B73
330
747D
100
AcDbEntity
  8
文字
 62
     7
 48
50.0
100
AcDbText
 10
13162.9790565769
 20
895.0906074299405
 30
0.0
 40
200.0
  1
外 形 図
  7
STYLE2
100
AcDbText
  0
TEXT
  5
10B74
330
747D
100
AcDbEntity
  8
文字
 62
     7
 48
50.0
100
AcDbText
 10
13201.43669998441
 20
477.2740661031255
 30
0.0
 40
160.0
  1
機種名
  7
STYLE2
100
AcDbText
  0
TEXT
  5
10B75
330
747D
100
AcDbEntity
  8
文字
 62
     7
 48
50.0
100
AcDbText
 10
13209.4053442172
 20
228.5435242569016
 30
0.0
 40
100.0
  1
○有効開口寸法 ： 950×1725(mm)
  7
STYLE2
100
AcDbText
  0
TEXT
  5
10B76
330
747D
100
AcDbEntity
  8
文字
 62
     7
 48
50.0
100
AcDbText
 10
13209.4053442172
 20
76.09434707649343
 30
0.0
 40
100.0
  1
○床面積 ： 2.59㎡(0.78坪) 　
  7
STYLE2
100
AcDbText
  0
TEXT
  5
10B79
330
747D
100
AcDbEntity
  8
文字
 62
     7
 48
50.0
100
AcDbText
 10
14524.131837222
 20
1031.557706291228
 30
0.0
 40
100.0
  1
NO.04      <縮尺> S=1/40
  7
STYLE2
100
AcDbText
  0
LINE
  5
10B7B
330
747D
100
AcDbEntity
  8
仕様書枠
 48
50.0
100
AcDbLine
 10
13107.2
 20
800.0
 30
0.0
 11
14251.2
 21
800.0
 31
0.0
  0
LINE
  5
10B88
330
747D
100
AcDbEntity
  8
仕様書枠
  6
Continuous
 48
50.0
100
AcDbLine
 10
14251.2
 20
1200.0
 30
0.0
 11
14251.2
 21
800.0
 31
0.0
  0
LINE
  5
12765
330
747D
100
AcDbEntity
  8
Ｇ．Ｌ
100
AcDbLine
 10
3620.891592103733
 20
2597.931598713262
 30
0.0
 11
11285.27868319738
 21
2597.931598713262
 31
0.0
  0
TEXT
  5
127AA
330
747D
100
AcDbEntity
  8
部品1
100
AcDbText
 10
3610.681242926672
 20
2634.038502319163
 30
0.0
 40
125.0
  1
▽G.L
  7
STYLE2
100
AcDbText
  0
LINE
  5
13BE8
330
747D
100
AcDbEntity
  8
部品1
100
AcDbLine
 10
8861.257109428633
 20
2697.931598713262
 30
0.0
 11
10651.25710942863
 21
2697.931598713262
 31
0.0
  0
LINE
  5
13BE9
330
747D
100
AcDbEntity
  8
部品1
100
AcDbLine
 10
8861.257109428633
 20
4537.931598713261
 30
0.0
 11
10651.25710942863
 21
4537.931598713261
 31
0.0
  0
LINE
  5
13C1F
330
747D
100
AcDbEntity
  8
部品1
100
AcDbLine
 10
8861.257109428633
 20
4591.431598713263
 30
0.0
 11
8861.257109428633
 21
2597.931598713262
 31
0.0
  0
LINE
  5
13D18
330
747D
100
AcDbEntity
  8
部品1
100
AcDbLine
 10
10651.25710942863
 20
4591.431598713262
 30
0.0
 11
10651.25710942863
 21
2597.931598713262
 31
0.0
  0
LINE
  5
13E0C
330
747D
100
AcDbEntity
  8
部品1
100
AcDbLine
 10
10251.25710942863
 20
2697.931598713261
 30
0.0
 11
10251.25710942863
 21
2597.931598713262
 31
0.0
  0
LINE
  5
13E0D
330
747D
100
AcDbEntity
  8
部品1
100
AcDbLine
 10
9261.257109428632
 20
2697.931598713261
 30
0.0
 11
9261.257109428632
 21
2597.931598713262
 31
0.0
  0
LINE
  5
1426B
330
747D
100
AcDbEntity
  8
部品1
 48
50.0
100
AcDbLine
 10
9656.257109428633
 20
2697.931598713262
 30
0.0
 11
9656.257109428633
 21
2597.931598713262
 31
0.0
  0
LINE
  5
1426C
330
747D
100
AcDbEntity
  8
部品1
 48
50.0
100
AcDbLine
 10
9856.257109428632
 20
2697.931598713262
 30
0.0
 11
9856.257109428632
 21
2597.931598713262
 31
0.0
  0
LINE
  5
14517
330
747D
100
AcDbEntity
  8
部品1
100
AcDbLine
 10
10656.25710942863
 20
2742.931598713262
 30
0.0
 11
10656.25710942863
 21
2597.931598713262
 31
0.0
  0
LINE
  5
14518
330
747D
100
AcDbEntity
  8
破線
 48
5.0
100
AcDbLine
 10
10751.25710942863
 20
2397.931598713261
 30
0.0
 11
10551.25710942863
 21
2397.931598713261
 31
0.0
  0
LINE
  5
14519
330
747D
100
AcDbEntity
  8
破線
 48
5.0
100
AcDbLine
 10
10551.25710942863
 20
2597.931598713262
 30
0.0
 11
10551.25710942863
 21
2397.931598713261
 31
0.0
  0
LINE
  5
1451A
330
747D
100
AcDbEntity
  8
破線
 48
5.0
100
AcDbLine
 10
10751.25710942863
 20
2597.931598713262
 30
0.0
 11
10751.25710942863
 21
2397.931598713261
 31
0.0
  0
LINE
  5
1451B
330
747D
100
AcDbEntity
  8
破線
 48
5.0
100
AcDbLine
 10
10676.25710942863
 20
2442.931598713262
 30
0.0
 11
10656.25710942863
 21
2442.931598713262
 31
0.0
  0
LINE
  5
1451C
330
747D
100
AcDbEntity
  8
部品1
100
AcDbLine
 10
8856.257109428632
 20
2742.931598713263
 30
0.0
 11
8856.257109428632
 21
2597.931598713262
 31
0.0
  0
LINE
  5
1451D
330
747D
100
AcDbEntity
  8
破線
 48
5.0
100
AcDbLine
 10
8761.257109428632
 20
2397.931598713261
 30
0.0
 11
8961.257109428634
 21
2397.931598713261
 31
0.0
  0
LINE
  5
1451E
330
747D
100
AcDbEntity
  8
破線
 48
5.0
100
AcDbLine
 10
8761.257109428632
 20
2597.931598713262
 30
0.0
 11
8761.257109428632
 21
2397.931598713261
 31
0.0
  0
LINE
  5
1451F
330
747D
100
AcDbEntity
  8
破線
 48
5.0
100
AcDbLine
 10
8836.257109428633
 20
2442.931598713262
 30
0.0
 11
8856.257109428634
 21
2442.931598713262
 31
0.0
  0
LINE
  5
14520
330
747D
100
AcDbEntity
  8
破線
 48
5.0
100
AcDbLine
 10
8961.257109428633
 20
2597.931598713262
 30
0.0
 11
8961.257109428633
 21
2397.931598713261
 31
0.0
  0
DIMENSION
  5
14521
330
747D
100
AcDbEntity
  8
寸法
100
AcDbDimension
  2
*D1
 10
8916.25710942864
 20
9570.160907337886
 30
0.0
 11
8552.771828054366
 21
9570.160907337886
 31
0.0
 70
   160
 71
     5
 42
55.00000000003637
  3
INABA_S40G
100
AcDbAlignedDimension
 13
8861.257109428605
 23
9273.353880529677
 33
0.0
 14
8916.25710942864
 24
9273.353880529677
 34
0.0
100
AcDbRotatedDimension
1001
ACAD
1000
DSTYLE
1002
{
1002
}
  0
LINE
  5
14522
330
747D
100
AcDbEntity
  8
部品1
100
AcDbLine
 10
8916.257109428604
 20
9273.353880529645
 30
0.0
 11
8916.257109428606
 21
9245.353880529645
 31
0.0
  0
LINE
  5
14523
330
747D
100
AcDbEntity
  8
部品1
100
AcDbLine
 10
8861.257109428605
 20
9273.353880529645
 30
0.0
 11
8861.257109428633
 21
7903.353880529635
 31
0.0
  0
LINE
  5
14524
330
747D
100
AcDbEntity
  8
部品1
100
AcDbLine
 10
10596.25710942864
 20
9273.353880529773
 30
0.0
 11
10596.25710942864
 21
9245.353880529773
 31
0.0
  0
LINE
  5
14525
330
747D
100
AcDbEntity
  8
部品1
100
AcDbLine
 10
10596.25710942864
 20
9273.353880529793
 30
0.0
 11
10596.25710942864
 21
9245.353880529792
 31
0.0
  0
DIMENSION
  5
14526
330
747D
100
AcDbEntity
  8
寸法
100
AcDbDimension
  2
*D2
 10
11592.54644104718
 20
7903.353880529763
 30
0.0
 11
11592.54644104717
 21
8583.105232921377
 31
0.0
 70
   160
 71
     5
 42
1370.000000000008
  3
INABA_S40G
100
AcDbAlignedDimension
 13
10651.25710942864
 23
9273.353880529773
 33
0.0
 14
10651.25710942861
 24
7903.353880529763
 34
0.0
 50
90.0
100
AcDbRotatedDimension
1001
ACAD
1000
DSTYLE
1002
{
1002
}
  0
LINE
  5
14527
330
747D
100
AcDbEntity
  8
部品1
100
AcDbLine
 10
10651.25710942864
 20
9273.353880529773
 30
0.0
 11
10651.25710942861
 21
7903.353880529763
 31
0.0
  0
LINE
  5
14528
330
747D
100
AcDbEntity
  8
部品1
100
AcDbLine
 10
10176.25710942864
 20
9273.353880529793
 30
0.0
 11
10176.25710942864
 21
9245.353880529792
 31
0.0
  0
LINE
  5
14529
330
747D
100
AcDbEntity
  8
部品1
100
AcDbLine
 10
9756.25710942864
 20
9273.353880529793
 30
0.0
 11
9756.25710942864
 21
9245.353880529792
 31
0.0
  0
LINE
  5
1452A
330
747D
100
AcDbEntity
  8
部品1
100
AcDbLine
 10
9336.25710942864
 20
9273.353880529793
 30
0.0
 11
9336.25710942864
 21
9245.353880529792
 31
0.0
  0
LINE
  5
1452B
330
747D
100
AcDbEntity
  8
部品1
100
AcDbLine
 10
9336.25710942864
 20
9273.353880529676
 30
0.0
 11
9336.25710942864
 21
9245.353880529675
 31
0.0
  0
LINE
  5
1452C
330
747D
100
AcDbEntity
  8
部品1
100
AcDbLine
 10
9336.25710942864
 20
9273.353880529677
 30
0.0
 11
9336.25710942864
 21
9245.353880529677
 31
0.0
  0
LINE
  5
1452D
330
747D
100
AcDbEntity
  8
部品1
100
AcDbLine
 10
8916.25710942864
 20
9273.353880529677
 30
0.0
 11
8916.25710942864
 21
9245.353880529677
 31
0.0
  0
DIMENSION
  5
1452E
330
747D
100
AcDbEntity
  8
寸法
100
AcDbDimension
  2
*D3
 10
11298.68345516305
 20
9218.353880529775
 30
0.0
 11
11298.68345516305
 21
9581.839161904012
 31
0.0
 70
   160
 71
     5
 42
54.99999999999636
  3
INABA_S40G
100
AcDbAlignedDimension
 13
10651.25710942864
 23
9273.353880529773
 33
0.0
 14
10651.25710942864
 24
9218.353880529775
 34
0.0
 50
90.0
100
AcDbRotatedDimension
1001
ACAD
1000
DSTYLE
1002
{
1002
}
  0
DIMENSION
  5
1452F
330
747D
100
AcDbEntity
  8
寸法
100
AcDbDimension
  2
*D4
 10
10978.11483529066
 20
8698.136064860884
 30
0.0
 11
10878.11483529066
 21
8923.136064860885
 31
0.0
 70
    32
 71
     5
 42
449.9999999999982
  3
INABA_S40G
100
AcDbAlignedDimension
 13
10622.75710942864
 23
9243.353880529772
 33
0.0
 14
10622.75710942864
 24
8793.353880529775
 34
0.0
 50
90.0
100
AcDbRotatedDimension
1001
ACAD
1000
DSTYLE
1002
{
1002
}
  0
DIMENSION
  5
14530
330
747D
100
AcDbEntity
  8
寸法
100
AcDbDimension
  2
*D5
 10
11298.68345516302
 20
7903.353880529763
 30
0.0
 11
11298.68345516302
 21
7525.492413624902
 31
0.0
 70
   160
 71
     5
 42
54.99999999999636
  3
INABA_S40G
100
AcDbAlignedDimension
 13
10651.25710942861
 23
7958.35388052976
 33
0.0
 14
10651.25710942861
 24
7903.353880529763
 34
0.0
 50
90.0
100
AcDbRotatedDimension
1001
ACAD
1000
DSTYLE
1002
{
1002
}
  0
DIMENSION
  5
14531
330
747D
100
AcDbEntity
  8
寸法
100
AcDbDimension
  2
*D6
 10
11298.68345516305
 20
7958.35388052976
 30
0.0
 11
11298.68345516305
 21
8588.353880529769
 31
0.0
 70
   160
  1
3X420=<>
 71
     5
 42
1260.000000000015
  3
INABA_S40G
100
AcDbAlignedDimension
 13
10651.25710942864
 23
9218.353880529775
 33
0.0
 14
10651.25710942861
 24
7958.35388052976
 34
0.0
 50
90.0
100
AcDbRotatedDimension
1001
ACAD
1000
DSTYLE
1002
{
1002
}
  0
DIMENSION
  5
14532
330
747D
100
AcDbEntity
  8
寸法
100
AcDbDimension
  2
*D7
 10
10651.25710942861
 20
6711.526089784697
 30
0.0
 11
9744.403859759987
 21
6711.526089784697
 31
0.0
 70
   160
 71
     5
 42
1789.999999999982
  3
INABA_S40G
100
AcDbAlignedDimension
 13
8861.257109428633
 23
7903.353880529599
 33
0.0
 14
10651.25710942861
 24
7903.353880529728
 34
0.0
100
AcDbRotatedDimension
1001
ACAD
1000
DSTYLE
1002
{
1002
}
  0
TEXT
  5
14535
330
747D
100
AcDbEntity
  8
部品1
100
AcDbText
 10
9464.44138614345
 20
6239.384216923809
 30
0.0
 40
135.0
  1
平面図
  7
STYLE2
100
AcDbText
  0
LINE
  5
1453E
330
747D
100
AcDbEntity
  8
部品1
100
AcDbLine
 10
8889.757109428639
 20
8793.353880529677
 30
0.0
 11
9742.757109428637
 21
8793.353880529782
 31
0.0
  0
DIMENSION
  5
1453F
330
747D
100
AcDbEntity
  8
寸法
100
AcDbDimension
  2
*D8
 10
10544.18833587222
 20
8500.131225728807
 30
0.0
 11
10149.1041715469
 21
8500.131225728807
 31
0.0
 70
   160
 71
     5
 42
853.0000000000109
  3
INABA_S40G
100
AcDbAlignedDimension
 13
9769.75710942864
 23
8793.353880529782
 33
0.0
 14
10622.75710942865
 24
8793.353880529776
 34
0.0
100
AcDbRotatedDimension
1001
ACAD
1000
DSTYLE
1002
{
1002
}
  0
LINE
  5
14540
330
747D
100
AcDbEntity
  8
細線
 48
50.0
100
AcDbLine
 10
9742.757109428639
 20
9243.353880529779
 30
0.0
 11
8889.757109428639
 21
8793.353880529677
 31
0.0
  0
LINE
  5
14541
330
747D
100
AcDbEntity
  8
細線
 48
50.0
100
AcDbLine
 10
9742.757109428637
 20
8793.353880529782
 30
0.0
 11
8889.757109428638
 21
9243.353880529678
 31
0.0
  0
LINE
  5
14542
330
747D
100
AcDbEntity
  8
部品1
100
AcDbLine
 10
8889.757109428638
 20
9243.353880529678
 30
0.0
 11
9742.757109428639
 21
9243.353880529783
 31
0.0
  0
LINE
  5
14543
330
747D
100
AcDbEntity
  8
部品1
100
AcDbLine
 10
8889.257109428639
 20
9245.353880529794
 30
0.0
 11
9743.757109428635
 21
9245.353880529792
 31
0.0
  0
LINE
  5
14546
330
747D
100
AcDbEntity
  8
部品1
100
AcDbLine
 10
8889.257109428612
 20
7931.353880529602
 30
0.0
 11
8889.257109428639
 21
9245.353880529677
 31
0.0
  0
LINE
  5
14558
330
747D
100
AcDbEntity
  8
部品1
100
AcDbLine
 10
8889.257109428617
 20
8378.353880529648
 30
0.0
 11
8861.257109428619
 21
8378.353880529648
 31
0.0
  0
LINE
  5
1455E
330
747D
100
AcDbEntity
  8
部品1
 48
50.0
100
AcDbLine
 10
8889.757109428638
 20
9243.353880529673
 30
0.0
 11
8889.757109428639
 21
8793.353880529673
 31
0.0
  0
LINE
  5
1455F
330
747D
100
AcDbEntity
  8
部品1
100
AcDbLine
 10
8889.257109428614
 20
8798.353880529646
 30
0.0
 11
8861.257109428613
 21
8798.353880529646
 31
0.0
  0
LINE
  5
14560
330
747D
100
AcDbEntity
  8
部品1
100
AcDbLine
 10
8889.257109428607
 20
9218.353880529649
 30
0.0
 11
8861.257109428606
 21
9218.353880529649
 31
0.0
  0
LINE
  5
14562
330
747D
100
AcDbEntity
  8
部品1
100
AcDbLine
 10
10623.25710942864
 20
9245.353880529773
 30
0.0
 11
10623.25710942861
 21
7931.353880529759
 31
0.0
  0
LINE
  5
14574
330
747D
100
AcDbEntity
  8
部品1
100
AcDbLine
 10
10623.25710942864
 20
8378.353880529777
 30
0.0
 11
10651.25710942864
 21
8378.353880529777
 31
0.0
  0
LINE
  5
14575
330
747D
100
AcDbEntity
  8
部品1
100
AcDbLine
 10
9769.757109428638
 20
8793.353880529782
 30
0.0
 11
10622.75710942864
 21
8793.353880529775
 31
0.0
  0
LINE
  5
14576
330
747D
100
AcDbEntity
  8
細線
 48
50.0
100
AcDbLine
 10
10622.75710942864
 20
9243.353880529772
 30
0.0
 11
9769.757109428638
 21
8793.353880529782
 31
0.0
  0
LINE
  5
14577
330
747D
100
AcDbEntity
  8
細線
 48
50.0
100
AcDbLine
 10
10622.75710942864
 20
8793.353880529775
 30
0.0
 11
9769.75710942864
 21
9243.353880529776
 31
0.0
  0
LINE
  5
14578
330
747D
100
AcDbEntity
  8
部品1
100
AcDbLine
 10
9769.75710942864
 20
9243.353880529779
 30
0.0
 11
10622.75710942864
 21
9243.353880529772
 31
0.0
  0
LINE
  5
14579
330
747D
100
AcDbEntity
  8
部品1
100
AcDbLine
 10
9768.757109428641
 20
9245.353880529791
 30
0.0
 11
10623.25710942864
 21
9245.353880529773
 31
0.0
  0
LINE
  5
1457A
330
747D
100
AcDbEntity
  8
部品1
 48
50.0
100
AcDbLine
 10
9769.75710942864
 20
9243.353880529776
 30
0.0
 11
9769.75710942864
 21
8793.353880529782
 31
0.0
  0
LINE
  5
1457B
330
747D
100
AcDbEntity
  8
部品1
 48
50.0
100
AcDbLine
 10
9742.757109428639
 20
9243.353880529779
 30
0.0
 11
9742.757109428639
 21
8793.353880529782
 31
0.0
  0
LINE
  5
1457C
330
747D
100
AcDbEntity
  8
部品1
 48
50.0
100
AcDbLine
 10
9768.757109428641
 20
9245.353880529782
 30
0.0
 11
9768.757109428641
 21
8793.353880529782
 31
0.0
  0
LINE
  5
1457D
330
747D
100
AcDbEntity
  8
部品1
 48
50.0
100
AcDbLine
 10
9743.757109428639
 20
9245.353880529787
 30
0.0
 11
9743.75710942864
 21
8793.353880529782
 31
0.0
  0
LINE
  5
1457E
330
747D
100
AcDbEntity
  8
部品1
100
AcDbLine
 10
9743.75710942864
 20
8793.353880529782
 30
0.0
 11
9768.757109428641
 21
8793.353880529782
 31
0.0
  0
LINE
  5
1457F
330
747D
100
AcDbEntity
  8
部品1
100
AcDbLine
 10
9743.75710942864
 20
9237.353880529775
 30
0.0
 11
9768.757109428641
 21
9237.353880529779
 31
0.0
  0
LINE
  5
14580
330
747D
100
AcDbEntity
  8
部品1
100
AcDbLine
 10
9785.257109428641
 20
9263.353880529779
 30
0.0
 11
9791.25710942864
 21
9263.353880529779
 31
0.0
  0
LINE
  5
14581
330
747D
100
AcDbEntity
  8
部品1
100
AcDbLine
 10
9791.25710942864
 20
9263.353880529779
 30
0.0
 11
9791.25710942864
 21
9245.35388052978
 31
0.0
  0
LINE
  5
14582
330
747D
100
AcDbEntity
  8
部品1
100
AcDbLine
 10
9721.257109428641
 20
9263.353880529779
 30
0.0
 11
9727.25710942864
 21
9263.353880529779
 31
0.0
  0
LINE
  5
14583
330
747D
100
AcDbEntity
  8
部品1
100
AcDbLine
 10
9721.257109428641
 20
9263.353880529779
 30
0.0
 11
9721.257109428641
 21
9245.35388052978
 31
0.0
  0
LINE
  5
14584
330
747D
100
AcDbEntity
  8
部品1
100
AcDbLine
 10
10622.75710942864
 20
9243.353880529772
 30
0.0
 11
10622.75710942864
 21
8793.353880529775
 31
0.0
  0
LINE
  5
14585
330
747D
100
AcDbEntity
  8
部品1
100
AcDbLine
 10
10623.25710942864
 20
8798.353880529775
 30
0.0
 11
10651.25710942864
 21
8798.353880529775
 31
0.0
  0
LINE
  5
14586
330
747D
100
AcDbEntity
  8
部品1
100
AcDbLine
 10
10623.25710942864
 20
9218.353880529775
 30
0.0
 11
10651.25710942864
 21
9218.353880529775
 31
0.0
  0
DIMENSION
  5
14587
330
747D
100
AcDbEntity
  8
寸法
100
AcDbDimension
  2
*D9
 10
10651.25710942864
 20
9570.160907337983
 30
0.0
 11
10959.74239080288
 21
9570.160907337983
 31
0.0
 70
   160
 71
     5
 42
55.0
  3
INABA_S40G
100
AcDbAlignedDimension
 13
10596.25710942864
 23
9273.353880529773
 33
0.0
 14
10651.25710942864
 24
9273.353880529773
 34
0.0
100
AcDbRotatedDimension
1001
ACAD
1000
DSTYLE
1002
{
1002
}
  0
LINE
  5
14588
330
747D
100
AcDbEntity
  8
部品1
100
AcDbLine
 10
8861.25710942864
 20
9273.353880529677
 30
0.0
 11
10651.25710942864
 21
9273.353880529773
 31
0.0
  0
DIMENSION
  5
14589
330
747D
100
AcDbEntity
  8
寸法
100
AcDbDimension
  2
*D10
 10
10596.25710942864
 20
9570.160907338003
 30
0.0
 11
9756.257109428638
 21
9570.160907338003
 31
0.0
 70
   160
  1
4X420=<>
 71
     5
 42
1680.0
  3
INABA_S40G
100
AcDbAlignedDimension
 13
8916.25710942864
 23
9273.353880529677
 33
0.0
 14
10596.25710942864
 24
9273.353880529773
 34
0.0
100
AcDbRotatedDimension
1001
ACAD
1000
DSTYLE
1002
{
1002
}
  0
LINE
  5
146B2
330
747D
100
AcDbEntity
  8
破線
 48
5.0
100
AcDbLine
 10
10656.25710942863
 20
2597.931598713262
 30
0.0
 11
10656.25710942863
 21
2442.931598713262
 31
0.0
  0
LINE
  5
146B3
330
747D
100
AcDbEntity
  8
破線
 48
5.0
100
AcDbLine
 10
8856.257109428632
 20
2597.931598713262
 30
0.0
 11
8856.257109428632
 21
2442.931598713262
 31
0.0
  0
DIMENSION
  5
146C0
330
747D
100
AcDbEntity
  8
寸法
 48
50.0
100
AcDbDimension
  2
*D11
 10
8761.257109428632
 20
2111.884269412883
 30
0.0
 11
8861.257109428633
 21
2111.884269412883
 31
0.0
 70
   160
 71
     5
 42
-1.0
  3
INABA_S40G
100
AcDbAlignedDimension
 13
8961.257109428634
 23
2397.931598713261
 33
0.0
 14
8761.257109428632
 24
2397.931598713261
 34
0.0
100
AcDbRotatedDimension
  0
TEXT
  5
149A1
330
747D
100
AcDbEntity
  8
部品1
100
AcDbText
 10
9465.047180052366
 20
1525.722526519778
 30
0.0
 40
135.0
  1
正面図
  7
STYLE2
100
AcDbText
  0
TEXT
  5
149A3
330
747D
100
AcDbEntity
  8
部品1
100
AcDbText
 10
6074.946459377773
 20
1525.722526519778
 30
0.0
 40
135.0
  1
側面図
  7
STYLE2
100
AcDbText
  0
LINE
  5
149A5
330
747D
100
AcDbEntity
  8
部品1
 48
50.0
100
AcDbLine
 10
10594.75710942862
 20
8378.353880529777
 30
0.0
 11
8917.757109428624
 21
8378.353880529862
 31
0.0
  0
LINE
  5
149E3
330
747D
100
AcDbEntity
  8
部品1
100
AcDbLine
 10
8861.257109428633
 20
2747.931598713265
 30
0.0
 11
8889.257109428632
 21
2747.931598713265
 31
0.0
  0
LINE
  5
14AC7
330
747D
100
AcDbEntity
  8
破線
 48
10.0
100
AcDbLine
 10
9781.257109428608
 20
7959.853880529713
 30
0.0
 11
9781.257109428612
 21
8793.353880529782
 31
0.0
  0
LINE
  5
14AC8
330
747D
100
AcDbEntity
  8
破線
 48
10.0
100
AcDbLine
 10
9731.257109428613
 20
7959.853880529711
 30
0.0
 11
9731.257109428611
 21
8793.353880529782
 31
0.0
  0
DIMENSION
  5
14BF1
330
747D
100
AcDbEntity
  8
寸法
100
AcDbDimension
  2
*D12
 10
9664.188335872221
 20
8500.131225728702
 30
0.0
 11
9269.104171546906
 21
8500.131225728702
 31
0.0
 70
   160
 71
     5
 42
853.0000000000109
  3
INABA_S40G
100
AcDbAlignedDimension
 13
8889.757109428639
 23
8793.353880529677
 33
0.0
 14
9742.757109428652
 24
8793.35388052967
 34
0.0
100
AcDbRotatedDimension
1001
ACAD
1000
DSTYLE
1002
{
1002
}
  0
LINE
  5
14C0C
330
747D
100
AcDbEntity
  8
部品1
100
AcDbLine
 10
10594.75710942861
 20
7959.853880529758
 30
0.0
 11
8917.757109428531
 21
7959.853880529663
 31
0.0
  0
LINE
  5
14C0D
330
747D
100
AcDbEntity
  8
破線
 48
10.0
100
AcDbLine
 10
10571.25710942861
 20
7983.353880529758
 30
0.0
 11
9781.257109428608
 21
7983.353880529712
 31
0.0
  0
LINE
  5
14C0E
330
747D
100
AcDbEntity
  8
破線
 48
10.0
100
AcDbLine
 10
9731.257109428607
 20
7983.353880529708
 30
0.0
 11
8941.257109428622
 21
7983.353880529661
 31
0.0
  0
LINE
  5
14C1E
330
747D
100
AcDbEntity
  8
部品1
100
AcDbLine
 10
10594.75710942863
 20
8793.353880529775
 30
0.0
 11
10594.75710942861
 21
7959.853880529758
 31
0.0
  0
LINE
  5
14C1F
330
747D
100
AcDbEntity
  8
破線
 48
10.0
100
AcDbLine
 10
10571.25710942863
 20
8793.353880529776
 30
0.0
 11
10571.25710942862
 21
7983.353880529758
 31
0.0
  0
LINE
  5
14C20
330
747D
100
AcDbEntity
  8
部品1
 48
50.0
100
AcDbLine
 10
10594.75710942861
 20
7959.853880529758
 30
0.0
 11
10623.25710942861
 21
7931.353880529759
 31
0.0
  0
LINE
  5
14C31
330
747D
100
AcDbEntity
  8
部品1
100
AcDbLine
 10
8917.757109428617
 20
8793.353880529775
 30
0.0
 11
8917.757109428629
 21
7959.85388052976
 31
0.0
  0
LINE
  5
14C32
330
747D
100
AcDbEntity
  8
破線
 48
10.0
100
AcDbLine
 10
8941.257109428613
 20
8793.353880529776
 30
0.0
 11
8941.257109428629
 21
7983.353880529662
 31
0.0
  0
LINE
  5
14C33
330
747D
100
AcDbEntity
  8
部品1
 48
50.0
100
AcDbLine
 10
8917.757109428626
 20
7959.853880529758
 30
0.0
 11
8889.257109428626
 21
7931.353880529759
 31
0.0
  0
TEXT
  5
14D2F
330
747D
100
AcDbEntity
  8
文字
 62
     7
 48
50.0
100
AcDbText
 10
14644.07818602837
 20
876.4448062548634
 30
0.0
 40
100.0
  1
～一般型・多雪地型～
  7
STYLE2
100
AcDbText
  0
LINE
  5
15046
330
747D
100
AcDbEntity
  8
部品1
100
AcDbLine
 10
10623.25710942864
 20
7958.353880529504
 30
0.0
 11
10651.25710942864
 21
7958.353880529504
 31
0.0
  0
LINE
  5
15047
330
747D
100
AcDbEntity
  8
部品1
100
AcDbLine
 10
8889.257109428607
 20
7958.35388052963
 30
0.0
 11
8861.257109428606
 21
7958.35388052963
 31
0.0
  0
LINE
  5
15048
330
747D
100
AcDbEntity
  8
部品1
 48
50.0
100
AcDbLine
 10
8861.257109428633
 20
7903.353880529599
 30
0.0
 11
8916.257109428604
 21
7903.353880529604
 31
0.0
  0
LINE
  5
15049
330
747D
100
AcDbEntity
  8
部品1
 48
50.0
100
AcDbLine
 10
8889.25710942861
 20
7931.3538805296
 30
0.0
 11
10623.25710942861
 21
7931.353880529759
 31
0.0
  0
LINE
  5
1504A
330
747D
100
AcDbEntity
  8
部品1
 48
50.0
100
AcDbLine
 10
10596.25710942864
 20
7903.353880529758
 30
0.0
 11
10651.25710942861
 21
7903.353880529763
 31
0.0
  0
LINE
  5
1504E
330
747D
100
AcDbEntity
  8
部品1
100
AcDbLine
 10
10596.25710942863
 20
4537.931598713261
 30
0.0
 11
10596.25710942863
 21
4532.931598713261
 31
0.0
  0
LINE
  5
1504F
330
747D
100
AcDbEntity
  8
部品1
100
AcDbLine
 10
8916.257109428631
 20
4537.931598713257
 30
0.0
 11
8916.257109428631
 21
4532.931598713261
 31
0.0
  0
LINE
  5
1513D
330
747D
100
AcDbEntity
  8
部品1
 48
50.0
100
AcDbLine
 10
8916.257109428604
 20
7903.353880529604
 30
0.0
 11
8916.257109428606
 21
7931.353880529602
 31
0.0
  0
LINE
  5
15199
330
747D
100
AcDbEntity
  8
部品1
 48
50.0
100
AcDbLine
 10
10596.2571094286
 20
7903.353880529758
 30
0.0
 11
10596.2571094286
 21
7931.353880529757
 31
0.0
  0
LINE
  5
151AF
330
747D
100
AcDbEntity
  8
部品1
 48
50.0
100
AcDbLine
 10
8889.257109428632
 20
2697.931598713261
 30
0.0
 11
10623.25710942863
 21
2697.931598713261
 31
0.0
  0
LINE
  5
152B7
330
747D
100
AcDbEntity
  8
部品1
100
AcDbLine
 10
10623.25710942863
 20
2747.931598713281
 30
0.0
 11
10651.25710942863
 21
2747.931598713281
 31
0.0
  0
LINE
  5
155F3
330
747D
100
AcDbEntity
  8
部品1
100
AcDbLine
 10
9374.521776314413
 20
6432.277746142332
 30
0.0
 11
9374.521776314413
 21
6192.385424596801
 31
0.0
  0
LINE
  5
155F4
330
747D
100
AcDbEntity
  8
部品1
100
AcDbLine
 10
9374.521776314413
 20
6192.385424596801
 30
0.0
 11
10137.99244254285
 21
6192.385424596801
 31
0.0
  0
LINE
  5
155F5
330
747D
100
AcDbEntity
  8
部品1
100
AcDbLine
 10
10137.99244254285
 20
6192.385424596801
 30
0.0
 11
10137.99244254285
 21
6432.277746142332
 31
0.0
  0
LINE
  5
155F6
330
747D
100
AcDbEntity
  8
部品1
100
AcDbLine
 10
10137.99244254285
 20
6432.277746142332
 30
0.0
 11
9374.521776314413
 21
6432.277746142332
 31
0.0
  0
LINE
  5
155F7
330
747D
100
AcDbEntity
  8
部品1
100
AcDbLine
 10
9374.521776314413
 20
1718.616055738302
 30
0.0
 11
9374.521776314413
 21
1478.723734192769
 31
0.0
  0
LINE
  5
155F8
330
747D
100
AcDbEntity
  8
部品1
100
AcDbLine
 10
9374.521776314413
 20
1478.723734192769
 30
0.0
 11
10137.99244254285
 21
1478.723734192769
 31
0.0
  0
LINE
  5
155F9
330
747D
100
AcDbEntity
  8
部品1
100
AcDbLine
 10
10137.99244254285
 20
1478.723734192769
 30
0.0
 11
10137.99244254285
 21
1718.616055738302
 31
0.0
  0
LINE
  5
155FA
330
747D
100
AcDbEntity
  8
部品1
100
AcDbLine
 10
10137.99244254285
 20
1718.616055738302
 30
0.0
 11
9374.521776314413
 21
1718.616055738302
 31
0.0
  0
LINE
  5
155FB
330
747D
100
AcDbEntity
  8
部品1
100
AcDbLine
 10
5985.500357954166
 20
1718.616055738302
 30
0.0
 11
5985.500357954166
 21
1478.723734192769
 31
0.0
  0
LINE
  5
155FC
330
747D
100
AcDbEntity
  8
部品1
100
AcDbLine
 10
5985.500357954166
 20
1478.723734192769
 30
0.0
 11
6748.971024182605
 21
1478.723734192769
 31
0.0
  0
LINE
  5
155FD
330
747D
100
AcDbEntity
  8
部品1
100
AcDbLine
 10
6748.971024182605
 20
1478.723734192769
 30
0.0
 11
6748.971024182605
 21
1718.616055738302
 31
0.0
  0
LINE
  5
155FE
330
747D
100
AcDbEntity
  8
部品1
100
AcDbLine
 10
6748.971024182605
 20
1718.616055738302
 30
0.0
 11
5985.500357954166
 21
1718.616055738302
 31
0.0
  0
TEXT
  5
15C43
330
747D
100
AcDbEntity
  8
文字
 62
     7
 48
50.0
100
AcDbText
 10
13248.77747366447
 20
8380.013745883733
 30
0.0
 40
100.0
  1
17
  7
STYLE1
100
AcDbText
  0
TEXT
  5
15C44
330
747D
100
AcDbEntity
  8
文字
 62
     7
 48
50.0
100
AcDbText
 10
13248.77747366447
 20
8550.013745883733
 30
0.0
 40
100.0
  1
16
  7
STYLE1
100
AcDbText
  0
TEXT
  5
15C45
330
747D
100
AcDbEntity
  8
文字
 62
     7
 48
50.0
100
AcDbText
 10
15022.63965474517
 20
9060.013745883729
 30
0.0
 40
100.0
  1
F12            1.0
  7
STYLE1
100
AcDbText
  0
TEXT
  5
15C46
330
747D
100
AcDbEntity
  8
文字
 62
     7
 48
50.0
100
AcDbText
 10
13583.11819016569
 20
9060.013745883736
 30
0.0
 40
100.0
  1
壁面扉枠左右
  7
STYLE1
100
AcDbText
  0
TEXT
  5
15C47
330
747D
100
AcDbEntity
  8
文字
 62
     7
 48
50.0
100
AcDbText
 10
15022.63965474517
 20
9230.013745883729
 30
0.0
 40
100.0
  1
F12            1.0
  7
STYLE1
100
AcDbText
  0
TEXT
  5
15C48
330
747D
100
AcDbEntity
  8
文字
 62
     7
 48
50.0
100
AcDbText
 10
15022.63965474515
 20
9400.013745883731
 30
0.0
 40
100.0
  1
F12            0.7
  7
STYLE1
100
AcDbText
  0
TEXT
  5
15C49
330
747D
100
AcDbEntity
  8
文字
 62
     7
 48
50.0
100
AcDbText
 10
13583.11819016569
 20
9230.013745883736
 30
0.0
 40
100.0
  1
壁面扉敷居
  7
STYLE1
100
AcDbText
  0
TEXT
  5
15C4A
330
747D
100
AcDbEntity
  8
文字
 62
     7
 48
50.0
100
AcDbText
 10
13583.11819016569
 20
9400.013745883732
 30
0.0
 40
100.0
  1
壁面扉鴨居
  7
STYLE1
100
AcDbText
  0
LINE
  5
15C4B
330
747D
100
AcDbEntity
  8
仕様書枠
 48
50.0
100
AcDbLine
 10
16307.19999999999
 20
8689.600000000007
 30
0.0
 11
13127.2
 21
8689.600000000011
 31
0.0
  0
LINE
  5
15C4C
330
747D
100
AcDbEntity
  8
仕様書枠
 48
50.0
100
AcDbLine
 10
16307.19999999999
 20
8519.600000000009
 30
0.0
 11
13127.2
 21
8519.600000000009
 31
0.0
  0
TEXT
  5
15C4D
330
747D
100
AcDbEntity
  8
文字
 62
     7
 48
50.0
100
AcDbText
 10
13583.11819016569
 20
8380.013745883733
 30
0.0
 40
100.0
  1
アンカープレート
  7
STYLE1
100
AcDbText
  0
TEXT
  5
15C4E
330
747D
100
AcDbEntity
  8
文字
 62
     7
 48
50.0
100
AcDbText
 10
15022.63965474515
 20
8380.013745883728
 30
0.0
 40
100.0
  1
F12            2.3
  7
STYLE1
100
AcDbText
  0
LINE
  5
15C4F
330
747D
100
AcDbEntity
  8
仕様書枠
 48
50.0
100
AcDbLine
 10
16307.2
 20
10049.6
 30
0.0
 11
13127.2
 21
10049.6
 31
0.0
  0
LINE
  5
15C50
330
747D
100
AcDbEntity
  8
仕様書枠
 48
50.0
100
AcDbLine
 10
16307.2
 20
11409.6
 30
0.0
 11
13127.2
 21
11409.6
 31
0.0
  0
LINE
  5
15C51
330
747D
100
AcDbEntity
  8
仕様書枠
 48
50.0
100
AcDbLine
 10
16307.19999999999
 20
8009.600000000007
 30
0.0
 11
16307.2
 21
11409.6
 31
0.0
  0
LINE
  5
15C52
330
747D
100
AcDbEntity
  8
仕様書枠
 48
50.0
100
AcDbLine
 10
14785.2
 20
11409.6
 30
0.0
 11
14785.2
 21
8349.600000000007
 31
0.0
  0
LINE
  5
15C53
330
747D
100
AcDbEntity
  8
仕様書枠
 48
50.0
100
AcDbLine
 10
13490.2
 20
11409.6
 30
0.0
 11
13490.20000000001
 21
8349.600000000009
 31
0.0
  0
LINE
  5
15C54
330
747D
100
AcDbEntity
  8
仕様書枠
 48
50.0
100
AcDbLine
 10
16307.2
 20
11239.6
 30
0.0
 11
13127.2
 21
11239.6
 31
0.0
  0
LINE
  5
15C55
330
747D
100
AcDbEntity
  8
仕様書枠
 48
50.0
100
AcDbLine
 10
16307.2
 20
10899.6
 30
0.0
 11
13127.2
 21
10899.6
 31
0.0
  0
LINE
  5
15C56
330
747D
100
AcDbEntity
  8
仕様書枠
 48
50.0
100
AcDbLine
 10
16307.2
 20
11069.6
 30
0.0
 11
13127.2
 21
11069.6
 31
0.0
  0
LINE
  5
15C57
330
747D
100
AcDbEntity
  8
仕様書枠
 48
50.0
100
AcDbLine
 10
16307.19999999999
 20
10559.6
 30
0.0
 11
13127.2
 21
10559.6
 31
0.0
  0
LINE
  5
15C58
330
747D
100
AcDbEntity
  8
仕様書枠
 48
50.0
100
AcDbLine
 10
16307.19999999999
 20
10389.6
 30
0.0
 11
13127.2
 21
10389.6
 31
0.0
  0
LINE
  5
15C59
330
747D
100
AcDbEntity
  8
仕様書枠
 48
50.0
100
AcDbLine
 10
16307.19999999999
 20
10729.6
 30
0.0
 11
13127.2
 21
10729.6
 31
0.0
  0
TEXT
  5
15C5A
330
747D
100
AcDbEntity
  8
文字
 62
     7
 48
50.0
100
AcDbText
 10
13197.42518560407
 20
11270.01374588373
 30
0.0
 40
100.0
  1
品番
  7
STYLE1
100
AcDbText
  0
TEXT
  5
15C5B
330
747D
100
AcDbEntity
  8
文字
 62
     7
 48
50.0
100
AcDbText
 10
13271.19032244792
 20
11100.01374588373
 30
0.0
 40
100.0
  1
1
  7
STYLE1
100
AcDbText
  0
TEXT
  5
15C5C
330
747D
100
AcDbEntity
  8
文字
 62
     7
 48
50.0
100
AcDbText
 10
13271.19032244792
 20
10930.01374588373
 30
0.0
 40
100.0
  1
2
  7
STYLE1
100
AcDbText
  0
TEXT
  5
15C5D
330
747D
100
AcDbEntity
  8
文字
 62
     7
 48
50.0
100
AcDbText
 10
13271.19032244792
 20
10590.01374588373
 30
0.0
 40
100.0
  1
4
  7
STYLE1
100
AcDbText
  0
TEXT
  5
15C5E
330
747D
100
AcDbEntity
  8
文字
 62
     7
 48
50.0
100
AcDbText
 10
13271.19032244792
 20
10760.01374588373
 30
0.0
 40
100.0
  1
3
  7
STYLE1
100
AcDbText
  0
TEXT
  5
15C5F
330
747D
100
AcDbEntity
  8
文字
 62
     7
 48
50.0
100
AcDbText
 10
13732.03840939434
 20
11270.01374588373
 30
0.0
 40
100.0
  1
部　　品　　名
  7
STYLE1
100
AcDbText
  0
TEXT
  5
15C60
330
747D
100
AcDbEntity
  8
文字
 62
     7
 48
50.0
100
AcDbText
 10
14859.79774614482
 20
11270.01374588373
 30
0.0
 40
100.0
  1
材料（材質）　　単位mm
  7
STYLE1
100
AcDbText
  0
TEXT
  5
15C61
330
747D
100
AcDbEntity
  8
文字
 62
     7
 48
50.0
100
AcDbText
 10
13583.11819016569
 20
11100.01374588373
 30
0.0
 40
100.0
  1
土台枠
  7
STYLE1
100
AcDbText
  0
TEXT
  5
15C62
330
747D
100
AcDbEntity
  8
文字
 62
     7
 48
50.0
100
AcDbText
 10
13583.1181901657
 20
10760.01374588373
 30
0.0
 40
100.0
  1
柱
  7
STYLE1
100
AcDbText
  0
TEXT
  5
15C63
330
747D
100
AcDbEntity
  8
文字
 62
     7
 48
50.0
100
AcDbText
 10
13583.11819016569
 20
10420.01374588373
 30
0.0
 40
100.0
  1
桁前後
  7
STYLE1
100
AcDbText
  0
TEXT
  5
15C64
330
747D
100
AcDbEntity
  8
文字
 62
     7
 48
50.0
100
AcDbText
 10
13271.19032244792
 20
10420.01374588373
 30
0.0
 40
100.0
  1
5
  7
STYLE1
100
AcDbText
  0
TEXT
  5
15C65
330
747D
100
AcDbEntity
  8
文字
 62
     7
 48
50.0
100
AcDbText
 10
13583.11819016569
 20
10250.01374588373
 30
0.0
 40
100.0
  1
妻板左右
  7
STYLE1
100
AcDbText
  0
TEXT
  5
15C66
330
747D
100
AcDbEntity
  8
文字
 62
     7
 48
50.0
100
AcDbText
 10
13248.77747366447
 20
9570.013745883731
 30
0.0
 40
100.0
  1
10
  7
STYLE1
100
AcDbText
  0
TEXT
  5
15C67
330
747D
100
AcDbEntity
  8
文字
 62
     7
 48
50.0
100
AcDbText
 10
13583.11819016568
 20
9570.013745883732
 30
0.0
 40
100.0
  1
壁パネル
  7
STYLE1
100
AcDbText
  0
TEXT
  5
15C68
330
747D
100
AcDbEntity
  8
文字
 62
     7
 48
50.0
100
AcDbText
 10
13583.11819016569
 20
9910.01374588373
 30
0.0
 40
100.0
  1
屋根パネル
  7
STYLE1
100
AcDbText
  0
TEXT
  5
15C69
330
747D
100
AcDbEntity
  8
文字
 62
     7
 48
50.0
100
AcDbText
 10
13583.11819016569
 20
10080.01374588373
 30
0.0
 40
100.0
  1
鼻隠シ前後
  7
STYLE1
100
AcDbText
  0
TEXT
  5
15C6A
330
747D
100
AcDbEntity
  8
文字
 62
     7
 48
50.0
100
AcDbText
 10
13271.19032244792
 20
9910.013745883732
 30
0.0
 40
100.0
  1
8
  7
STYLE1
100
AcDbText
  0
TEXT
  5
15C6B
330
747D
100
AcDbEntity
  8
文字
 62
     7
 48
50.0
100
AcDbText
 10
13271.19032244792
 20
9740.013745883732
 30
0.0
 40
100.0
  1
9
  7
STYLE1
100
AcDbText
  0
TEXT
  5
15C6C
330
747D
100
AcDbEntity
  8
文字
 62
     7
 48
50.0
100
AcDbText
 10
13271.19032244792
 20
10080.01374588373
 30
0.0
 40
100.0
  1
7
  7
STYLE1
100
AcDbText
  0
TEXT
  5
15C6D
330
747D
100
AcDbEntity
  8
文字
 62
     7
 48
50.0
100
AcDbText
 10
13271.19032244792
 20
10250.01374588373
 30
0.0
 40
100.0
  1
6
  7
STYLE1
100
AcDbText
  0
LINE
  5
15C6E
330
747D
100
AcDbEntity
  8
仕様書枠
 48
50.0
100
AcDbLine
 10
16307.19999999999
 20
9709.600000000001
 30
0.0
 11
13127.2
 21
9709.600000000005
 31
0.0
  0
LINE
  5
15C6F
330
747D
100
AcDbEntity
  8
仕様書枠
 48
50.0
100
AcDbLine
 10
16307.19999999999
 20
9369.600000000003
 30
0.0
 11
13127.2
 21
9369.600000000003
 31
0.0
  0
LINE
  5
15C70
330
747D
100
AcDbEntity
  8
仕様書枠
 48
50.0
100
AcDbLine
 10
16307.19999999999
 20
9539.600000000003
 30
0.0
 11
13127.2
 21
9539.600000000005
 31
0.0
  0
LINE
  5
15C71
330
747D
100
AcDbEntity
  8
仕様書枠
 48
50.0
100
AcDbLine
 10
16307.2
 20
10219.6
 30
0.0
 11
13127.2
 21
10219.6
 31
0.0
  0
LINE
  5
15C72
330
747D
100
AcDbEntity
  8
仕様書枠
 48
50.0
100
AcDbLine
 10
16307.2
 20
9879.600000000003
 30
0.0
 11
13127.2
 21
9879.600000000005
 31
0.0
  0
TEXT
  5
15C73
330
747D
100
AcDbEntity
  8
文字
 62
     7
 48
50.0
100
AcDbText
 10
13248.77747366447
 20
9400.013745883731
 30
0.0
 40
100.0
  1
11
  7
STYLE1
100
AcDbText
  0
LINE
  5
15C74
330
747D
100
AcDbEntity
  8
仕様書枠
 48
50.0
100
AcDbLine
 10
16307.19999999999
 20
9199.600000000001
 30
0.0
 11
13127.2
 21
9199.600000000003
 31
0.0
  0
LINE
  5
15C75
330
747D
100
AcDbEntity
  8
仕様書枠
 48
50.0
100
AcDbLine
 10
16307.19999999999
 20
8859.600000000005
 30
0.0
 11
13127.2
 21
8859.600000000005
 31
0.0
  0
TEXT
  5
15C76
330
747D
100
AcDbEntity
  8
文字
 62
     7
 48
50.0
100
AcDbText
 10
13248.77747366448
 20
9060.013745883731
 30
0.0
 40
100.0
  1
13
  7
STYLE1
100
AcDbText
  0
TEXT
  5
15C77
330
747D
100
AcDbEntity
  8
文字
 62
     7
 48
50.0
100
AcDbText
 10
13248.77747366448
 20
9230.013745883731
 30
0.0
 40
100.0
  1
12
  7
STYLE1
100
AcDbText
  0
TEXT
  5
15C78
330
747D
100
AcDbEntity
  8
文字
 62
     7
 48
50.0
100
AcDbText
 10
15022.63965474517
 20
11100.01374588373
 30
0.0
 40
100.0
  1
F12            1.2
  7
STYLE1
100
AcDbText
  0
TEXT
  5
15C79
330
747D
100
AcDbEntity
  8
文字
 62
     7
 48
50.0
100
AcDbText
 10
15022.63965474518
 20
10760.01374588373
 30
0.0
 40
100.0
  1
F12            1.0
  7
STYLE1
100
AcDbText
  0
TEXT
  5
15C7A
330
747D
100
AcDbEntity
  8
文字
 62
     7
 48
50.0
100
AcDbText
 10
15022.63965474516
 20
10420.01374588373
 30
0.0
 40
100.0
  1
Y10            1.0
  7
STYLE1
100
AcDbText
  0
TEXT
  5
15C7B
330
747D
100
AcDbEntity
  8
文字
 62
     7
 48
50.0
100
AcDbText
 10
15022.63965474516
 20
10250.01374588373
 30
0.0
 40
100.0
  1
Y10            0.7
  7
STYLE1
100
AcDbText
  0
TEXT
  5
15C7C
330
747D
100
AcDbEntity
  8
文字
 62
     7
 48
50.0
100
AcDbText
 10
15022.63965474516
 20
10080.01374588373
 30
0.0
 40
100.0
  1
Y10            0.7
  7
STYLE1
100
AcDbText
  0
TEXT
  5
15C7D
330
747D
100
AcDbEntity
  8
文字
 62
     7
 48
50.0
100
AcDbText
 10
15022.63965474517
 20
9910.01374588373
 30
0.0
 40
100.0
  1
Y10            0.5
  7
STYLE1
100
AcDbText
  0
TEXT
  5
15C7E
330
747D
100
AcDbEntity
  8
文字
 62
     7
 48
50.0
100
AcDbText
 10
15022.63965474515
 20
9570.013745883729
 30
0.0
 40
100.0
  1
F12            0.6
  7
STYLE1
100
AcDbText
  0
LINE
  5
15C7F
330
747D
100
AcDbEntity
  8
仕様書枠
 48
50.0
100
AcDbLine
 10
16307.19999999999
 20
8349.600000000007
 30
0.0
 11
13127.19999999999
 21
8349.600000000009
 31
0.0
  0
LINE
  5
15C80
330
747D
100
AcDbEntity
  8
仕様書枠
 48
50.0
100
AcDbLine
 10
16307.19999999999
 20
8179.600000000007
 30
0.0
 11
13127.19999999999
 21
8179.600000000009
 31
0.0
  0
TEXT
  5
15C81
330
747D
100
AcDbEntity
  8
文字
 62
     7
 48
50.0
100
AcDbText
 10
13229.83081656554
 20
8210.013745883737
 30
0.0
 40
100.0
  1
F12→溶融亜鉛めっき鋼板(JIS G 3302)
  7
STYLE1
100
AcDbText
  0
TEXT
  5
15C82
330
747D
100
AcDbEntity
  8
文字
 62
     7
 48
50.0
100
AcDbText
 10
13229.83081656554
 20
8040.013745883737
 30
0.0
 40
100.0
  1
Y10→溶融亜鉛-5％アルミニウム合金めっき鋼板(JIS G 3317)
 41
0.9
  7
STYLE1
100
AcDbText
  0
LINE
  5
15C83
330
747D
100
AcDbEntity
  8
仕様書枠
 48
50.0
100
AcDbLine
 10
13127.2
 20
11409.6
 30
0.0
 11
13127.19999999999
 21
8009.600000000011
 31
0.0
  0
LINE
  5
15C84
330
747D
100
AcDbEntity
  8
仕様書枠
 48
50.0
100
AcDbLine
 10
16307.19999999999
 20
9029.600000000003
 30
0.0
 11
13127.2
 21
9029.600000000007
 31
0.0
  0
TEXT
  5
15C85
330
747D
100
AcDbEntity
  8
文字
 62
     7
 48
50.0
100
AcDbText
 10
13583.1181901657
 20
10590.01374588373
 30
0.0
 40
100.0
  1
床パネル
 41
0.9
  7
STYLE1
100
AcDbText
  0
TEXT
  5
15C86
330
747D
100
AcDbEntity
  8
文字
 62
     7
 48
50.0
100
AcDbText
 10
13583.11819016569
 20
10930.01374588373
 30
0.0
 40
100.0
  1
根太
  7
STYLE1
100
AcDbText
  0
TEXT
  5
15C87
330
747D
100
AcDbEntity
  8
文字
 62
     7
 48
50.0
100
AcDbText
 10
13248.77747366448
 20
8890.013745883731
 30
0.0
 40
100.0
  1
14
  7
STYLE1
100
AcDbText
  0
TEXT
  5
15C88
330
747D
100
AcDbEntity
  8
文字
 62
     7
 48
50.0
100
AcDbText
 10
15022.63965474516
 20
10930.01374588373
 30
0.0
 40
100.0
  1
F12            1.2
  7
STYLE1
100
AcDbText
  0
TEXT
  5
15C89
330
747D
100
AcDbEntity
  8
文字
 62
     7
 48
50.0
100
AcDbText
 10
15022.63965474517
 20
10590.01374588373
 30
0.0
 40
100.0
  1
F12            1.0
  7
STYLE1
100
AcDbText
  0
TEXT
  5
15C8A
330
747D
100
AcDbEntity
  8
文字
 62
     7
 48
50.0
100
AcDbText
 10
15022.63965474515
 20
8890.013745883731
 30
0.0
 40
100.0
  1
F12            0.7
  7
STYLE1
100
AcDbText
  0
TEXT
  5
15C8B
330
747D
100
AcDbEntity
  8
文字
 62
     7
 48
50.0
100
AcDbText
 10
13583.11819016568
 20
8890.013745883734
 30
0.0
 40
100.0
  1
正面パネル
  7
STYLE1
100
AcDbText
  0
TEXT
  5
15C8C
330
747D
100
AcDbEntity
  8
文字
 62
     7
 48
50.0
100
AcDbText
 10
15022.63965474516
 20
8720.013745883731
 30
0.0
 40
100.0
  1
F12            0.8
  7
STYLE1
100
AcDbText
  0
TEXT
  5
15C8D
330
747D
100
AcDbEntity
  8
文字
 62
     7
 48
50.0
100
AcDbText
 10
13583.11819016569
 20
8720.013745883735
 30
0.0
 40
100.0
  1
扉
  7
STYLE1
100
AcDbText
  0
LINE
  5
15C8E
330
747D
100
AcDbEntity
  8
仕様書枠
 48
50.0
100
AcDbLine
 10
16307.19999999999
 20
8009.600000000007
 30
0.0
 11
13127.19999999999
 21
8009.600000000011
 31
0.0
  0
TEXT
  5
15C8F
330
747D
100
AcDbEntity
  8
文字
 62
     7
 48
50.0
100
AcDbText
 10
13248.77747366447
 20
8720.013745883733
 30
0.0
 40
100.0
  1
15
  7
STYLE1
100
AcDbText
  0
TEXT
  5
15C90
330
747D
100
AcDbEntity
  8
文字
 62
     7
 48
50.0
100
AcDbText
 10
13583.11819016569
 20
9740.013745883731
 30
0.0
 40
100.0
  1
母屋中
  7
STYLE1
100
AcDbText
  0
TEXT
  5
15C91
330
747D
100
AcDbEntity
  8
文字
 62
     7
 48
50.0
100
AcDbText
 10
15022.63965474515
 20
9740.013745883729
 30
0.0
 40
100.0
  1
F12            1.0
  7
STYLE1
100
AcDbText
  0
TEXT
  5
15C92
330
747D
100
AcDbEntity
  8
文字
 62
     7
 48
50.0
100
AcDbText
 10
15022.63965474516
 20
8550.013745883731
 30
0.0
 40
100.0
  1
F12            0.6
  7
STYLE1
100
AcDbText
  0
TEXT
  5
15C93
330
747D
100
AcDbEntity
  8
文字
 62
     7
 48
50.0
100
AcDbText
 10
13583.11819016569
 20
8550.013745883735
 30
0.0
 40
100.0
  1
棚板
  7
STYLE1
100
AcDbText
  0
TEXT
  5
15C99
330
747D
100
AcDbEntity
  8
文字
 62
     7
 48
50.0
100
AcDbText
 10
14491.96323844892
 20
483.8967129911416
 30
0.0
 40
160.0
  1
ＮＸＮ－２５ＳＡ
  7
STYLE2
100
AcDbText
  0
MTEXT
  5
15D34
330
747D
100
AcDbEntity
  8
寸法
 62
     7
 48
50.0
100
AcDbMText
 10
9331.359646521775
 20
8859.588698727035
 30
0.0
 40
96.0
 41
0.0
 71
     5
 72
     1
  1
棚 2段
  7
STYLE1
 73
     1
 44
1.0
1001
ACAD
1000
MTEXTBEGIN
1070
    73
1070
     1
1070
    44
1040
1.0
1070
    74
1070
     0
1000
MTEXTEND
  0
DIMENSION
  5
16004
330
747D
100
AcDbEntity
  8
寸法
 48
50.0
100
AcDbDimension
  2
*D17
 10
8861.257109428633
 20
5172.024768052734
 30
0.0
 11
9756.257109428633
 21
5172.024768052734
 31
0.0
 70
   160
  1
柱外寸法<>
 71
     5
 42
1790.0
  3
INABA_S40G
100
AcDbAlignedDimension
 13
10651.25710942863
 23
4772.931598713267
 33
0.0
 14
8861.257109428633
 24
4772.931598713268
 34
0.0
100
AcDbRotatedDimension
  0
DIMENSION
  5
16005
330
747D
100
AcDbEntity
  8
寸法
 48
50.0
100
AcDbDimension
  2
*D16
 10
8811.257109428632
 20
5172.024768052734
 30
0.0
 11
8497.771828054386
 21
5172.024768052734
 31
0.0
 70
   160
 71
     5
 42
50.0
  3
INABA_S40G
100
AcDbAlignedDimension
 13
8861.257109428633
 23
4772.931598713268
 33
0.0
 14
8811.257109428632
 24
4772.931598713267
 34
0.0
100
AcDbRotatedDimension
1001
ACAD
1000
DSTYLE
1002
{
1002
}
  0
DIMENSION
  5
16007
330
747D
100
AcDbEntity
  8
寸法
 48
50.0
100
AcDbDimension
  2
*D15
 10
10701.25710942863
 20
5388.55086767118
 30
0.0
 11
9756.257109428633
 21
5388.55086767118
 31
0.0
 70
   160
 71
     5
 42
1890.0
  3
INABA_S40G
100
AcDbAlignedDimension
 13
8811.257109428632
 23
4772.931598713267
 33
0.0
 14
10701.25710942863
 24
4772.931598713264
 34
0.0
100
AcDbRotatedDimension
  0
LINE
  5
16008
330
747D
100
AcDbEntity
  8
部品1
100
AcDbLine
 10
10024.25710942864
 20
4767.93159872173
 30
0.0
 11
10024.25710942865
 21
4670.520531213159
 31
0.0
  0
LINE
  5
16009
330
747D
100
AcDbEntity
  8
部品1
100
AcDbLine
 10
9999.257109428647
 20
4767.93159872173
 30
0.0
 11
9999.257109428649
 21
4670.520531213159
 31
0.0
  0
LINE
  5
1600A
330
747D
100
AcDbEntity
  8
部品1
 48
50.0
100
AcDbLine
 10
9997.75710942864
 20
4767.931598721734
 30
0.0
 11
10025.75710942863
 21
4767.931598721734
 31
0.0
  0
LINE
  5
1600B
330
747D
100
AcDbEntity
  8
部品1
 48
50.0
100
AcDbLine
 10
10025.75710942864
 20
4767.931598721734
 30
0.0
 11
10036.25710942864
 21
4748.531598721732
 31
0.0
  0
LINE
  5
1600C
330
747D
100
AcDbEntity
  8
部品1
 48
50.0
100
AcDbLine
 10
9997.75710942864
 20
4767.931598721734
 30
0.0
 11
9987.257109428639
 21
4748.531598721732
 31
0.0
  0
LINE
  5
1600D
330
747D
100
AcDbEntity
  8
部品1
 48
50.0
100
AcDbLine
 10
9924.757109428639
 20
4767.931598721734
 30
0.0
 11
9952.757109428636
 21
4767.931598721734
 31
0.0
  0
LINE
  5
1600E
330
747D
100
AcDbEntity
  8
部品1
100
AcDbLine
 10
9926.257109428647
 20
4767.93159872173
 30
0.0
 11
9926.257109428647
 21
4670.520531213159
 31
0.0
  0
LINE
  5
1600F
330
747D
100
AcDbEntity
  8
部品1
 48
50.0
100
AcDbLine
 10
9924.757109428639
 20
4767.931598721734
 30
0.0
 11
9914.257109428639
 21
4748.531598721732
 31
0.0
  0
LINE
  5
16010
330
747D
100
AcDbEntity
  8
部品1
100
AcDbLine
 10
9951.257109428647
 20
4767.93159872173
 30
0.0
 11
9951.257109428647
 21
4670.520531213159
 31
0.0
  0
LINE
  5
16011
330
747D
100
AcDbEntity
  8
部品1
 48
50.0
100
AcDbLine
 10
9952.75710942864
 20
4767.931598721734
 30
0.0
 11
9963.257109428639
 21
4748.531598721732
 31
0.0
  0
LINE
  5
16012
330
747D
100
AcDbEntity
  8
部品1
100
AcDbLine
 10
9765.257109428647
 20
4767.931598721723
 30
0.0
 11
9765.257109428649
 21
4670.520531213159
 31
0.0
  0
LINE
  5
16013
330
747D
100
AcDbEntity
  8
部品1
 48
50.0
100
AcDbLine
 10
9768.25710942864
 20
4767.931598721734
 30
0.0
 11
9770.75710942864
 21
4748.531598721732
 31
0.0
  0
LINE
  5
16014
330
747D
100
AcDbEntity
  8
部品1
100
AcDbLine
 10
9747.257109428646
 20
4767.931598721723
 30
0.0
 11
9747.25710942865
 21
4670.520531213158
 31
0.0
  0
LINE
  5
16015
330
747D
100
AcDbEntity
  8
部品1
 48
50.0
100
AcDbLine
 10
9729.045769222452
 20
4758.531598721733
 30
0.0
 11
9727.75710942864
 21
4748.531598721732
 31
0.0
  0
LINE
  5
16016
330
747D
100
AcDbEntity
  8
部品1
 48
50.0
100
AcDbLine
 10
9729.045769222452
 20
4758.531598721733
 30
0.0
 11
9743.045769222453
 21
4758.531598721733
 31
0.0
  0
LINE
  5
16017
330
747D
100
AcDbEntity
  8
部品1
 48
50.0
100
AcDbLine
 10
9744.257109428639
 20
4767.931598721734
 30
0.0
 11
9743.045769222453
 21
4758.531598721733
 31
0.0
  0
LINE
  5
16018
330
747D
100
AcDbEntity
  8
部品1
 48
50.0
100
AcDbLine
 10
9768.25710942864
 20
4767.931598721734
 30
0.0
 11
9744.257109428639
 21
4767.931598721734
 31
0.0
  0
LINE
  5
16019
330
747D
100
AcDbEntity
  8
部品1
100
AcDbLine
 10
9914.257109428637
 20
4748.531598721728
 30
0.0
 11
9770.757109428636
 21
4748.531598721728
 31
0.0
  0
LINE
  5
1601A
330
747D
100
AcDbEntity
  8
部品1
100
AcDbLine
 10
9604.257109428647
 20
4767.93159872173
 30
0.0
 11
9604.257109428649
 21
4670.520531213158
 31
0.0
  0
LINE
  5
1601B
330
747D
100
AcDbEntity
  8
部品1
 48
50.0
100
AcDbLine
 10
9605.75710942864
 20
4767.931598721734
 30
0.0
 11
9616.257109428639
 21
4748.531598721732
 31
0.0
  0
LINE
  5
1601C
330
747D
100
AcDbEntity
  8
部品1
100
AcDbLine
 10
9506.257109428647
 20
4767.93159872173
 30
0.0
 11
9506.257109428647
 21
4670.520531213158
 31
0.0
  0
LINE
  5
1601D
330
747D
100
AcDbEntity
  8
部品1
100
AcDbLine
 10
9531.257109428647
 20
4767.93159872173
 30
0.0
 11
9531.257109428647
 21
4670.520531213159
 31
0.0
  0
LINE
  5
1601E
330
747D
100
AcDbEntity
  8
部品1
100
AcDbLine
 10
9579.257109428647
 20
4767.93159872173
 30
0.0
 11
9579.257109428647
 21
4670.520531213159
 31
0.0
  0
LINE
  5
1601F
330
747D
100
AcDbEntity
  8
部品1
 48
50.0
100
AcDbLine
 10
9504.75710942864
 20
4767.931598721734
 30
0.0
 11
9494.257109428639
 21
4748.531598721732
 31
0.0
  0
LINE
  5
16020
330
747D
100
AcDbEntity
  8
部品1
100
AcDbLine
 10
9567.257109428636
 20
4748.531598721728
 30
0.0
 11
9543.25710942864
 21
4748.531598721728
 31
0.0
  0
LINE
  5
16021
330
747D
100
AcDbEntity
  8
部品1
 48
50.0
100
AcDbLine
 10
9532.75710942864
 20
4767.931598721734
 30
0.0
 11
9543.25710942864
 21
4748.531598721732
 31
0.0
  0
LINE
  5
16022
330
747D
100
AcDbEntity
  8
部品1
 48
50.0
100
AcDbLine
 10
9577.75710942864
 20
4767.931598721734
 30
0.0
 11
9567.25710942864
 21
4748.531598721732
 31
0.0
  0
LINE
  5
16023
330
747D
100
AcDbEntity
  8
部品1
 48
50.0
100
AcDbLine
 10
9504.75710942864
 20
4767.931598721734
 30
0.0
 11
9532.757109428635
 21
4767.931598721734
 31
0.0
  0
LINE
  5
16024
330
747D
100
AcDbEntity
  8
部品1
 48
50.0
100
AcDbLine
 10
9577.75710942864
 20
4767.931598721734
 30
0.0
 11
9605.757109428637
 21
4767.931598721734
 31
0.0
  0
LINE
  5
16025
330
747D
100
AcDbEntity
  8
部品1
100
AcDbLine
 10
9345.257109428647
 20
4767.931598721723
 30
0.0
 11
9345.257109428649
 21
4670.520531213159
 31
0.0
  0
LINE
  5
16026
330
747D
100
AcDbEntity
  8
部品1
100
AcDbLine
 10
9327.257109428648
 20
4767.931598721723
 30
0.0
 11
9327.257109428648
 21
4670.520531213159
 31
0.0
  0
LINE
  5
16027
330
747D
100
AcDbEntity
  8
部品1
 48
50.0
100
AcDbLine
 10
9348.25710942864
 20
4767.931598721734
 30
0.0
 11
9324.257109428639
 21
4767.931598721734
 31
0.0
  0
LINE
  5
16028
330
747D
100
AcDbEntity
  8
部品1
 48
50.0
100
AcDbLine
 10
9324.257109428639
 20
4767.931598721734
 30
0.0
 11
9323.045769222451
 21
4758.531598721733
 31
0.0
  0
LINE
  5
16029
330
747D
100
AcDbEntity
  8
部品1
 48
50.0
100
AcDbLine
 10
9348.25710942864
 20
4767.931598721734
 30
0.0
 11
9350.75710942864
 21
4748.531598721732
 31
0.0
  0
LINE
  5
1602A
330
747D
100
AcDbEntity
  8
部品1
100
AcDbLine
 10
9494.257109428636
 20
4748.531598721728
 30
0.0
 11
9350.757109428636
 21
4748.531598721728
 31
0.0
  0
LINE
  5
1602B
330
747D
100
AcDbEntity
  8
部品1
100
AcDbLine
 10
9727.75710942864
 20
4748.531598721728
 30
0.0
 11
9616.257109428639
 21
4748.531598721728
 31
0.0
  0
LINE
  5
1602C
330
747D
100
AcDbEntity
  8
部品1
100
AcDbLine
 10
9987.257109428636
 20
4748.531598721728
 30
0.0
 11
9963.257109428639
 21
4748.531598721728
 31
0.0
  0
LINE
  5
1602D
330
747D
100
AcDbEntity
  8
部品1
100
AcDbLine
 10
9307.75710942864
 20
4748.531598721728
 30
0.0
 11
9196.257109428641
 21
4748.531598721728
 31
0.0
  0
LINE
  5
1602E
330
747D
100
AcDbEntity
  8
部品1
100
AcDbLine
 10
9159.257109428647
 20
4767.93159872173
 30
0.0
 11
9159.257109428647
 21
4670.520531213159
 31
0.0
  0
LINE
  5
1602F
330
747D
100
AcDbEntity
  8
部品1
100
AcDbLine
 10
9184.257109428648
 20
4767.93159872173
 30
0.0
 11
9184.257109428648
 21
4670.520531213159
 31
0.0
  0
LINE
  5
16030
330
747D
100
AcDbEntity
  8
部品1
 48
50.0
100
AcDbLine
 10
9185.75710942864
 20
4767.931598721734
 30
0.0
 11
9196.257109428641
 21
4748.531598721732
 31
0.0
  0
LINE
  5
16031
330
747D
100
AcDbEntity
  8
部品1
 48
50.0
100
AcDbLine
 10
9157.75710942864
 20
4767.931598721734
 30
0.0
 11
9185.757109428635
 21
4767.931598721734
 31
0.0
  0
LINE
  5
16032
330
747D
100
AcDbEntity
  8
部品1
 48
50.0
100
AcDbLine
 10
9309.045769222452
 20
4758.531598721733
 30
0.0
 11
9307.75710942864
 21
4748.531598721732
 31
0.0
  0
LINE
  5
16033
330
747D
100
AcDbEntity
  8
部品1
100
AcDbLine
 10
9147.257109428636
 20
4748.531598721728
 30
0.0
 11
9123.25710942864
 21
4748.531598721732
 31
0.0
  0
LINE
  5
16034
330
747D
100
AcDbEntity
  8
部品1
100
AcDbLine
 10
9111.257109428647
 20
4767.93159872173
 30
0.0
 11
9111.257109428649
 21
4670.520531213158
 31
0.0
  0
LINE
  5
16035
330
747D
100
AcDbEntity
  8
部品1
 48
50.0
100
AcDbLine
 10
9112.75710942864
 20
4767.931598721734
 30
0.0
 11
9123.25710942864
 21
4748.531598721732
 31
0.0
  0
LINE
  5
16036
330
747D
100
AcDbEntity
  8
部品1
100
AcDbLine
 10
9086.257109428647
 20
4767.93159872173
 30
0.0
 11
9086.257109428645
 21
4670.520531213159
 31
0.0
  0
LINE
  5
16037
330
747D
100
AcDbEntity
  8
部品1
 48
50.0
100
AcDbLine
 10
9084.75710942864
 20
4767.931598721734
 30
0.0
 11
9074.257109428639
 21
4748.531598721732
 31
0.0
  0
LINE
  5
16038
330
747D
100
AcDbEntity
  8
部品1
 48
50.0
100
AcDbLine
 10
9084.75710942864
 20
4767.931598721734
 30
0.0
 11
9112.757109428637
 21
4767.931598721734
 31
0.0
  0
LINE
  5
16039
330
747D
100
AcDbEntity
  8
部品1
 48
50.0
100
AcDbLine
 10
9157.75710942864
 20
4767.931598721734
 30
0.0
 11
9147.25710942864
 21
4748.531598721732
 31
0.0
  0
LINE
  5
1603A
330
747D
100
AcDbEntity
  8
部品1
100
AcDbLine
 10
8925.257109428647
 20
4767.931598721723
 30
0.0
 11
8925.257109428647
 21
4670.520531213159
 31
0.0
  0
LINE
  5
1603B
330
747D
100
AcDbEntity
  8
部品1
100
AcDbLine
 10
8907.257109428647
 20
4767.931598721734
 30
0.0
 11
8907.257109428648
 21
4670.520531213159
 31
0.0
  0
LINE
  5
1603C
330
747D
100
AcDbEntity
  8
部品1
 48
50.0
100
AcDbLine
 10
8928.25710942864
 20
4767.931598721734
 30
0.0
 11
8930.75710942864
 21
4748.531598721732
 31
0.0
  0
LINE
  5
1603D
330
747D
100
AcDbEntity
  8
部品1
100
AcDbLine
 10
8887.757109428639
 20
4748.531598721732
 30
0.0
 11
8861.25710942864
 21
4748.531598721732
 31
0.0
  0
LINE
  5
1603E
330
747D
100
AcDbEntity
  8
部品1
 48
50.0
100
AcDbLine
 10
8889.045769222452
 20
4758.531598721733
 30
0.0
 11
8903.045769222451
 21
4758.531598721733
 31
0.0
  0
LINE
  5
1603F
330
747D
100
AcDbEntity
  8
部品1
 48
50.0
100
AcDbLine
 10
8889.045769222452
 20
4758.531598721733
 30
0.0
 11
8887.757109428639
 21
4748.531598721732
 31
0.0
  0
LINE
  5
16040
330
747D
100
AcDbEntity
  8
部品1
 48
50.0
100
AcDbLine
 10
8904.257109428639
 20
4767.931598721734
 30
0.0
 11
8903.045769222451
 21
4758.531598721733
 31
0.0
  0
LINE
  5
16041
330
747D
100
AcDbEntity
  8
部品1
 48
50.0
100
AcDbLine
 10
8928.25710942864
 20
4767.931598721734
 30
0.0
 11
8904.257109428639
 21
4767.931598721734
 31
0.0
  0
LINE
  5
16042
330
747D
100
AcDbEntity
  8
部品1
100
AcDbLine
 10
9074.257109428639
 20
4748.531598721728
 30
0.0
 11
8930.75710942864
 21
4748.531598721732
 31
0.0
  0
LINE
  5
16043
330
747D
100
AcDbEntity
  8
部品1
 48
50.0
100
AcDbLine
 10
9309.045769222452
 20
4758.531598721733
 30
0.0
 11
9323.045769222451
 21
4758.531598721733
 31
0.0
  0
LINE
  5
16044
330
747D
100
AcDbEntity
  8
部品1
100
AcDbLine
 10
10656.32744682177
 20
4772.931598721714
 30
0.0
 11
8835.689269809547
 21
4772.931598721734
 31
0.0
  0
LINE
  5
16045
330
747D
100
AcDbEntity
  8
部品1
100
AcDbLine
 10
10147.75710942863
 20
4748.531598721714
 30
0.0
 11
10036.25710942865
 21
4748.531598721714
 31
0.0
  0
LINE
  5
16046
330
747D
100
AcDbEntity
  8
部品1
 48
50.0
100
AcDbLine
 10
8856.186481435434
 20
4717.931598713261
 30
0.0
 11
8818.24315324585
 21
4717.931598713261
 31
0.0
  0
ARC
  5
16047
330
747D
100
AcDbEntity
  8
部品1
100
AcDbCircle
 10
8813.216251868928
 20
4690.60171603385
 30
0.0
 40
0.7
100
AcDbArc
 50
183.6186294801377
 51
262.7131594833552
  0
ARC
  5
16048
330
747D
100
AcDbEntity
  8
部品1
100
AcDbCircle
 10
8812.746955743731
 20
4686.931598713261
 30
0.0
 40
3.0
100
AcDbArc
 50
3.618629480137788
 51
90.0
  0
LINE
  5
16049
330
747D
100
AcDbEntity
  8
部品1
100
AcDbLine
 10
8815.740974522539
 20
4687.120943774373
 30
0.0
 11
8820.488067534698
 21
4612.05753551959
 31
0.0
  0
ARC
  5
1604A
330
747D
100
AcDbEntity
  8
部品1
100
AcDbCircle
 10
8821.18667191642
 20
4612.10171603385
 30
0.0
 40
0.7
100
AcDbArc
 50
183.6186294801377
 51
262.7131594833552
  0
ARC
  5
1604B
330
747D
100
AcDbEntity
  8
部品1
100
AcDbCircle
 10
8820.717375791224
 20
4608.431598713261
 30
0.0
 40
3.0
100
AcDbArc
 50
3.618629480137788
 51
90.0
  0
ARC
  5
1604C
330
747D
100
AcDbEntity
  8
部品1
100
AcDbCircle
 10
8831.369764091823
 20
4598.43159871326
 30
0.0
 40
7.0
100
AcDbArc
 50
183.6186294801377
 51
270.0
  0
ARC
  5
1604D
330
747D
100
AcDbEntity
  8
部品1
100
AcDbCircle
 10
8818.24315324585
 20
4710.931598713261
 30
0.0
 40
7.0
100
AcDbArc
 50
90.0
 51
183.6186294801377
  0
LINE
  5
1604E
330
747D
100
AcDbEntity
  8
部品1
100
AcDbLine
 10
8824.38372027461
 20
4597.989793570672
 30
0.0
 11
8823.711394570031
 21
4608.620943774372
 31
0.0
  0
LINE
  5
1604F
330
747D
100
AcDbEntity
  8
部品1
100
AcDbLine
 10
8812.517647487206
 20
4690.55753551959
 30
0.0
 11
8811.257109428639
 21
4710.489793570672
 31
0.0
  0
LINE
  5
16050
330
747D
100
AcDbEntity
  8
部品1
100
AcDbLine
 10
8856.186481435434
 20
4717.931598713261
 30
0.0
 11
8818.24315324585
 21
4717.931598713261
 31
0.0
  0
ARC
  5
16051
330
747D
100
AcDbEntity
  8
部品1
100
AcDbCircle
 10
8856.186481435434
 20
4712.931598713261
 30
0.0
 40
5.0
100
AcDbArc
 50
0.0
 51
90.0
  0
LINE
  5
16052
330
747D
100
AcDbEntity
  8
部品1
100
AcDbLine
 10
8861.186481435435
 20
4767.93159873016
 30
0.0
 11
8861.186481435431
 21
4670.527570040592
 31
0.0
  0
LINE
  5
16053
330
747D
100
AcDbEntity
  8
部品1
100
AcDbLine
 10
10681.14445476544
 20
4591.431598713262
 30
0.0
 11
8831.369764091823
 21
4591.431598713262
 31
0.0
  0
LINE
  5
16054
330
747D
100
AcDbEntity
  8
部品1
 48
50.0
100
AcDbLine
 10
8811.257109428639
 20
4710.489793570672
 30
0.0
 11
8811.257109428639
 21
4765.489793587571
 31
0.0
  0
ARC
  5
16055
330
747D
100
AcDbEntity
  8
部品1
100
AcDbCircle
 10
8856.186481435434
 20
4767.93159873016
 30
0.0
 40
5.0
100
AcDbArc
 50
0.0
 51
90.0
  0
LINE
  5
16056
330
747D
100
AcDbEntity
  8
部品1
100
AcDbLine
 10
8856.186481435434
 20
4772.931598730159
 30
0.0
 11
8818.24315324585
 21
4772.931598730159
 31
0.0
  0
ARC
  5
16057
330
747D
100
AcDbEntity
  8
部品1
100
AcDbCircle
 10
8818.24315324585
 20
4765.931598730159
 30
0.0
 40
7.0
100
AcDbArc
 50
90.0
 51
183.6186294801377
  0
LINE
  5
16058
330
747D
100
AcDbEntity
  8
細線
 48
50.0
100
AcDbLine
 10
10692.03546710169
 20
4612.204841277047
 30
0.0
 11
8821.140701061159
 21
4612.204841277047
 31
0.0
  0
LINE
  5
16059
330
747D
100
AcDbEntity
  8
細線
 48
50.0
100
AcDbLine
 10
8843.746019524358
 20
4717.931598713261
 30
0.0
 11
8843.746019524358
 21
4591.431598713262
 31
0.0
  0
LINE
  5
1605A
330
747D
100
AcDbEntity
  8
細線
 48
50.0
100
AcDbLine
 10
8861.186481435431
 20
4689.90343146121
 30
0.0
 11
8813.123240151487
 21
4689.903431461218
 31
0.0
  0
LINE
  5
1605B
330
747D
100
AcDbEntity
  8
部品1
100
AcDbLine
 10
10167.25710942863
 20
4767.931598721723
 30
0.0
 11
10167.25710942863
 21
4670.520531213158
 31
0.0
  0
LINE
  5
1605C
330
747D
100
AcDbEntity
  8
部品1
100
AcDbLine
 10
10185.25710942863
 20
4767.931598721734
 30
0.0
 11
10185.25710942863
 21
4670.520531213159
 31
0.0
  0
LINE
  5
1605D
330
747D
100
AcDbEntity
  8
部品1
 48
50.0
100
AcDbLine
 10
10164.25710942864
 20
4767.931598721734
 30
0.0
 11
10188.25710942864
 21
4767.931598721734
 31
0.0
  0
LINE
  5
16071
330
747D
100
AcDbEntity
  8
部品1
 48
50.0
100
AcDbLine
 10
10164.25710942864
 20
4767.931598721734
 30
0.0
 11
10163.04576922245
 21
4758.531598721733
 31
0.0
  0
LINE
  5
16072
330
747D
100
AcDbEntity
  8
部品1
 48
50.0
100
AcDbLine
 10
10149.04576922245
 20
4758.531598721733
 30
0.0
 11
10163.04576922245
 21
4758.531598721733
 31
0.0
  0
LINE
  5
16073
330
747D
100
AcDbEntity
  8
部品1
 48
50.0
100
AcDbLine
 10
10149.04576922245
 20
4758.531598721733
 30
0.0
 11
10147.75710942864
 21
4748.531598721732
 31
0.0
  0
LINE
  5
16074
330
747D
100
AcDbEntity
  8
部品1
 48
50.0
100
AcDbLine
 10
10188.25710942864
 20
4767.931598721734
 30
0.0
 11
10190.75710942864
 21
4748.531598721732
 31
0.0
  0
LINE
  5
16076
330
747D
100
AcDbEntity
  8
部品1
 48
50.0
100
AcDbLine
 10
8843.746019524358
 20
4670.520531213159
 30
0.0
 11
10668.7681993329
 21
4670.520531213158
 31
0.0
  0
DIMENSION
  5
16077
330
747D
100
AcDbEntity
  8
寸法
 48
50.0
100
AcDbDimension
  2
*D14
 10
8590.051080216497
 20
2755.931598713261
 30
0.0
 11
8590.051080216497
 21
3609.564617730786
 31
0.0
 70
   160
  1
有効開口部高サ<>
 71
     5
 42
1725.0
  3
INABA_S40G
100
AcDbAlignedDimension
 13
8889.257109428648
 23
4480.931598713261
 33
0.0
 14
8889.257109428648
 24
2755.931598713261
 34
0.0
 50
90.0
100
AcDbRotatedDimension
1001
ACAD
1000
DSTYLE
1002
{
1070
   341
1005
0
1002
}
  0
DIMENSION
  5
160E9
330
747D
100
AcDbEntity
  8
寸法
 48
50.0
100
AcDbDimension
  2
*D18
 10
10651.25710942863
 20
5172.024768052734
 30
0.0
 11
11014.74239080287
 21
5172.024768052734
 31
0.0
 70
   160
 71
     5
 42
50.0
  3
INABA_S40G
100
AcDbAlignedDimension
 13
10701.25710942863
 23
4772.931598713264
 33
0.0
 14
10651.25710942863
 24
4772.931598713267
 34
0.0
100
AcDbRotatedDimension
  0
LINE
  5
160EA
330
747D
100
AcDbEntity
  8
部品1
100
AcDbLine
 10
10587.25710942861
 20
4767.931598721723
 30
0.0
 11
10587.25710942861
 21
4670.520531213158
 31
0.0
  0
LINE
  5
160EB
330
747D
100
AcDbEntity
  8
部品1
100
AcDbLine
 10
10605.25710942861
 20
4767.931598721734
 30
0.0
 11
10605.25710942861
 21
4670.520531213159
 31
0.0
  0
LINE
  5
160EC
330
747D
100
AcDbEntity
  8
部品1
 48
50.0
100
AcDbLine
 10
10584.25710942862
 20
4767.931598721734
 30
0.0
 11
10608.25710942862
 21
4767.931598721734
 31
0.0
  0
LINE
  5
160ED
330
747D
100
AcDbEntity
  8
部品1
 48
50.0
100
AcDbLine
 10
10656.32773742183
 20
4717.931598713261
 30
0.0
 11
10694.27106561141
 21
4717.931598713261
 31
0.0
  0
ARC
  5
160EE
330
747D
100
AcDbEntity
  8
部品1
100
AcDbCircle
 10
10699.29796698833
 20
4690.60171603385
 30
0.0
 40
0.7
100
AcDbArc
 50
277.2868405166448
 51
356.3813705198622
  0
ARC
  5
160EF
330
747D
100
AcDbEntity
  8
部品1
100
AcDbCircle
 10
10699.76726311353
 20
4686.931598713261
 30
0.0
 40
3.0
100
AcDbArc
 50
90.0
 51
176.3813705198622
  0
LINE
  5
160F0
330
747D
100
AcDbEntity
  8
部品1
100
AcDbLine
 10
10696.77324433472
 20
4687.120943774373
 30
0.0
 11
10692.02615132256
 21
4612.05753551959
 31
0.0
  0
ARC
  5
160F1
330
747D
100
AcDbEntity
  8
部品1
100
AcDbCircle
 10
10691.32754694084
 20
4612.10171603385
 30
0.0
 40
0.7
100
AcDbArc
 50
277.2868405166448
 51
356.3813705198622
  0
ARC
  5
160F2
330
747D
100
AcDbEntity
  8
部品1
100
AcDbCircle
 10
10691.79684306604
 20
4608.431598713261
 30
0.0
 40
3.0
100
AcDbArc
 50
90.0
 51
176.3813705198622
  0
ARC
  5
160F3
330
747D
100
AcDbEntity
  8
部品1
100
AcDbCircle
 10
10681.14445476544
 20
4598.43159871326
 30
0.0
 40
7.0
100
AcDbArc
 50
270.0
 51
356.3813705198622
  0
ARC
  5
160F4
330
747D
100
AcDbEntity
  8
部品1
100
AcDbCircle
 10
10694.27106561141
 20
4710.931598713261
 30
0.0
 40
7.0
100
AcDbArc
 50
356.3813705198622
 51
90.0
  0
LINE
  5
160F5
330
747D
100
AcDbEntity
  8
部品1
100
AcDbLine
 10
10688.13049858265
 20
4597.989793570672
 30
0.0
 11
10688.80282428723
 21
4608.620943774372
 31
0.0
  0
LINE
  5
160F6
330
747D
100
AcDbEntity
  8
部品1
100
AcDbLine
 10
10699.99657137006
 20
4690.55753551959
 30
0.0
 11
10701.25710942862
 21
4710.489793570672
 31
0.0
  0
LINE
  5
160F7
330
747D
100
AcDbEntity
  8
部品1
100
AcDbLine
 10
10656.32773742183
 20
4717.931598713261
 30
0.0
 11
10694.27106561141
 21
4717.931598713261
 31
0.0
  0
ARC
  5
160F8
330
747D
100
AcDbEntity
  8
部品1
100
AcDbCircle
 10
10656.32773742183
 20
4712.931598713261
 30
0.0
 40
5.0
100
AcDbArc
 50
90.0
 51
180.0
  0
LINE
  5
160F9
330
747D
100
AcDbEntity
  8
部品1
100
AcDbLine
 10
10651.32773742183
 20
4767.93159873016
 30
0.0
 11
10651.32773742183
 21
4670.520531213159
 31
0.0
  0
LINE
  5
160FA
330
747D
100
AcDbEntity
  8
部品1
 48
50.0
100
AcDbLine
 10
10701.25710942862
 20
4710.489793570672
 30
0.0
 11
10701.25710942862
 21
4765.489793587571
 31
0.0
  0
ARC
  5
160FB
330
747D
100
AcDbEntity
  8
部品1
100
AcDbCircle
 10
10656.32773742183
 20
4767.93159873016
 30
0.0
 40
5.0
100
AcDbArc
 50
90.0
 51
180.0
  0
LINE
  5
160FC
330
747D
100
AcDbEntity
  8
部品1
100
AcDbLine
 10
10656.32773742183
 20
4772.931598730159
 30
0.0
 11
10694.27106561141
 21
4772.931598730159
 31
0.0
  0
ARC
  5
160FD
330
747D
100
AcDbEntity
  8
部品1
100
AcDbCircle
 10
10694.27106561141
 20
4765.931598730159
 30
0.0
 40
7.0
100
AcDbArc
 50
356.3813705198622
 51
90.0
  0
LINE
  5
160FE
330
747D
100
AcDbEntity
  8
細線
 48
50.0
100
AcDbLine
 10
10668.7681993329
 20
4717.931598713261
 30
0.0
 11
10668.7681993329
 21
4591.431598713262
 31
0.0
  0
LINE
  5
160FF
330
747D
100
AcDbEntity
  8
細線
 48
50.0
100
AcDbLine
 10
10651.32773742183
 20
4689.90343146121
 30
0.0
 11
10699.39097870577
 21
4689.903431461218
 31
0.0
  0
LINE
  5
16100
330
747D
100
AcDbEntity
  8
部品1
 48
50.0
100
AcDbLine
 10
10584.25710942862
 20
4767.931598721734
 30
0.0
 11
10583.04576922243
 21
4758.531598721733
 31
0.0
  0
LINE
  5
16101
330
747D
100
AcDbEntity
  8
部品1
 48
50.0
100
AcDbLine
 10
10569.04576922244
 20
4758.531598721733
 30
0.0
 11
10583.04576922243
 21
4758.531598721733
 31
0.0
  0
LINE
  5
16102
330
747D
100
AcDbEntity
  8
部品1
 48
50.0
100
AcDbLine
 10
10569.04576922244
 20
4758.531598721733
 30
0.0
 11
10567.75710942862
 21
4748.531598721732
 31
0.0
  0
LINE
  5
16103
330
747D
100
AcDbEntity
  8
部品1
 48
50.0
100
AcDbLine
 10
10608.25710942862
 20
4767.931598721734
 30
0.0
 11
10610.75710942862
 21
4748.531598721732
 31
0.0
  0
LINE
  5
16104
330
747D
100
AcDbEntity
  8
部品1
100
AcDbLine
 10
10651.32773742183
 20
4748.531598721728
 30
0.0
 11
10610.75710942862
 21
4748.531598721728
 31
0.0
  0
LINE
  5
16130
330
747D
100
AcDbEntity
  8
部品1
100
AcDbLine
 10
10407.25710942864
 20
4748.531598721732
 30
0.0
 11
10383.25710942864
 21
4748.531598721732
 31
0.0
  0
LINE
  5
16131
330
747D
100
AcDbEntity
  8
部品1
 48
50.0
100
AcDbLine
 10
10372.75710942864
 20
4767.931598721737
 30
0.0
 11
10383.25710942864
 21
4748.531598721736
 31
0.0
  0
LINE
  5
16132
330
747D
100
AcDbEntity
  8
部品1
 48
50.0
100
AcDbLine
 10
10344.75710942864
 20
4767.931598721737
 30
0.0
 11
10334.25710942864
 21
4748.531598721736
 31
0.0
  0
LINE
  5
16133
330
747D
100
AcDbEntity
  8
部品1
 48
50.0
100
AcDbLine
 10
10344.75710942864
 20
4767.931598721737
 30
0.0
 11
10372.75710942864
 21
4767.931598721737
 31
0.0
  0
LINE
  5
16134
330
747D
100
AcDbEntity
  8
部品1
 48
50.0
100
AcDbLine
 10
10417.75710942864
 20
4767.931598721737
 30
0.0
 11
10407.25710942864
 21
4748.531598721736
 31
0.0
  0
LINE
  5
16135
330
747D
100
AcDbEntity
  8
部品1
 48
50.0
100
AcDbLine
 10
10445.75710942864
 20
4767.931598721737
 30
0.0
 11
10456.25710942864
 21
4748.531598721736
 31
0.0
  0
LINE
  5
16136
330
747D
100
AcDbEntity
  8
部品1
 48
50.0
100
AcDbLine
 10
10417.75710942864
 20
4767.931598721737
 30
0.0
 11
10445.75710942863
 21
4767.931598721737
 31
0.0
  0
LINE
  5
16137
330
747D
100
AcDbEntity
  8
部品1
100
AcDbLine
 10
10567.75710942863
 20
4748.531598721718
 30
0.0
 11
10456.25710942865
 21
4748.531598721718
 31
0.0
  0
LINE
  5
16138
330
747D
100
AcDbEntity
  8
部品1
100
AcDbLine
 10
10334.25710942863
 20
4748.531598721732
 30
0.0
 11
10190.75710942864
 21
4748.531598721732
 31
0.0
  0
LINE
  5
16139
330
747D
100
AcDbEntity
  8
部品1
100
AcDbLine
 10
10371.25710942865
 20
4767.931598721734
 30
0.0
 11
10371.25710942865
 21
4670.520531213163
 31
0.0
  0
LINE
  5
1613A
330
747D
100
AcDbEntity
  8
部品1
100
AcDbLine
 10
10346.25710942865
 20
4767.931598721734
 30
0.0
 11
10346.25710942865
 21
4670.520531213163
 31
0.0
  0
LINE
  5
1613B
330
747D
100
AcDbEntity
  8
部品1
100
AcDbLine
 10
10419.25710942865
 20
4767.931598721734
 30
0.0
 11
10419.25710942865
 21
4670.520531213163
 31
0.0
  0
LINE
  5
1613C
330
747D
100
AcDbEntity
  8
部品1
100
AcDbLine
 10
10444.25710942865
 20
4767.931598721734
 30
0.0
 11
10444.25710942865
 21
4670.520531213163
 31
0.0
  0
LINE
  5
16332
330
747D
100
AcDbEntity
  8
部品1
 48
50.0
100
AcDbLine
 10
8963.25710942863
 20
3679.431598713261
 30
0.0
 11
9016.257109428631
 21
3679.431598713261
 31
0.0
  0
LINE
  5
16337
330
747D
100
AcDbEntity
  8
部品1
 48
50.0
100
AcDbLine
 10
10623.25710942863
 20
4488.931598713261
 30
0.0
 11
10593.25710942863
 21
4488.931598713261
 31
0.0
  0
LINE
  5
16339
330
747D
100
AcDbEntity
  8
部品1
 48
50.0
100
AcDbLine
 10
8919.257109428633
 20
4488.931598713261
 30
0.0
 11
8889.257109428632
 21
4488.931598713261
 31
0.0
  0
LINE
  5
1633B
330
747D
100
AcDbEntity
  8
細線
 48
50.0
100
AcDbLine
 10
10593.25710942863
 20
4490.431598713261
 30
0.0
 11
8919.257109428633
 21
4490.431598713261
 31
0.0
  0
LINE
  5
1633C
330
747D
100
AcDbEntity
  8
細線
 48
50.0
100
AcDbLine
 10
10593.25710942863
 20
4480.931598713261
 30
0.0
 11
8919.257109428633
 21
4480.931598713261
 31
0.0
  0
LINE
  5
1633D
330
747D
100
AcDbEntity
  8
細線
 48
50.0
100
AcDbLine
 10
10623.25710942863
 20
4522.931598713261
 30
0.0
 11
8889.257109428632
 21
4522.931598713261
 31
0.0
  0
LINE
  5
1633E
330
747D
100
AcDbEntity
  8
部品1
 48
50.0
100
AcDbLine
 10
10623.25710942863
 20
4532.931598713261
 30
0.0
 11
8889.257109428632
 21
4532.931598713261
 31
0.0
  0
LINE
  5
1633F
330
747D
100
AcDbEntity
  8
細線
 48
50.0
100
AcDbLine
 10
10571.25710942863
 20
2744.931598713261
 30
0.0
 11
10567.25710942863
 21
2755.431598713262
 31
0.0
  0
LINE
  5
16340
330
747D
100
AcDbEntity
  8
部品1
 48
50.0
100
AcDbLine
 10
8928.257109428633
 20
2747.931598713261
 30
0.0
 11
8928.257109428633
 21
2744.931598713261
 31
0.0
  0
LINE
  5
16341
330
747D
100
AcDbEntity
  8
部品1
 48
50.0
100
AcDbLine
 10
8919.257109428633
 20
2747.931598713261
 30
0.0
 11
9557.757109428635
 21
2747.931598713261
 31
0.0
  0
LINE
  5
16342
330
747D
100
AcDbEntity
  8
部品1
 48
50.0
100
AcDbLine
 10
8889.257109428632
 20
2697.931598713262
 30
0.0
 11
10623.25710942863
 21
2697.931598713262
 31
0.0
  0
LINE
  5
16343
330
747D
100
AcDbEntity
  8
細線
 48
50.0
100
AcDbLine
 10
8919.257109428633
 20
2740.931598713262
 30
0.0
 11
10593.25710942863
 21
2740.931598713262
 31
0.0
  0
LINE
  5
16344
330
747D
100
AcDbEntity
  8
細線
 48
50.0
100
AcDbLine
 10
8919.257109428633
 20
2744.931598713261
 30
0.0
 11
10593.25710942863
 21
2744.931598713261
 31
0.0
  0
LINE
  5
16345
330
747D
100
AcDbEntity
  8
細線
 48
50.0
100
AcDbLine
 10
9557.757109428635
 20
2755.431598713262
 30
0.0
 11
10567.25710942863
 21
2755.431598713262
 31
0.0
  0
LINE
  5
16346
330
747D
100
AcDbEntity
  8
部品1
 48
50.0
100
AcDbLine
 10
10623.25710942863
 20
2697.931598713262
 30
0.0
 11
10623.25710942863
 21
4532.931598713261
 31
0.0
  0
LINE
  5
16347
330
747D
100
AcDbEntity
  8
細線
 48
50.0
100
AcDbLine
 10
10593.25710942863
 20
2697.931598713262
 30
0.0
 11
10593.25710942863
 21
4490.431598713261
 31
0.0
  0
LINE
  5
16348
330
747D
100
AcDbEntity
  8
部品1
 48
50.0
100
AcDbLine
 10
10584.25710942863
 20
2744.931598713261
 30
0.0
 11
10584.25710942863
 21
4480.931598713261
 31
0.0
  0
LINE
  5
16349
330
747D
100
AcDbEntity
  8
部品1
 48
50.0
100
AcDbLine
 10
8919.257109428633
 20
2747.931598713261
 30
0.0
 11
8919.257109428633
 21
4480.931598713261
 31
0.0
  0
LINE
  5
1634A
330
747D
100
AcDbEntity
  8
細線
 48
50.0
100
AcDbLine
 10
8919.257109428633
 20
4490.431598713261
 30
0.0
 11
8919.257109428631
 21
2697.931598713262
 31
0.0
  0
LINE
  5
1634B
330
747D
100
AcDbEntity
  8
部品1
 48
50.0
100
AcDbLine
 10
8889.257109428632
 20
4532.931598713261
 30
0.0
 11
8889.257109428632
 21
2697.931598713262
 31
0.0
  0
LINE
  5
1634D
330
747D
100
AcDbEntity
  8
部品1
 48
50.0
100
AcDbLine
 10
9557.75710942864
 20
4480.931598713261
 30
0.0
 11
9557.757109428635
 21
2747.931598713261
 31
0.0
  0
LINE
  5
1634E
330
747D
100
AcDbEntity
  8
部品1
 48
50.0
100
AcDbLine
 10
10049.75710942863
 20
4480.931598713261
 30
0.0
 11
10049.75710942863
 21
2755.431598713262
 31
0.0
  0
LINE
  5
1634F
330
747D
100
AcDbEntity
  8
細線
100
AcDbLine
 10
9439.257101243217
 20
4480.931598713254
 30
0.0
 11
9439.257101243217
 21
2747.931598713258
 31
0.0
  0
LINE
  5
16350
330
747D
100
AcDbEntity
  8
細線
100
AcDbLine
 10
9369.257101243217
 20
4480.931598713254
 30
0.0
 11
9369.257101243217
 21
2747.931598713258
 31
0.0
  0
LINE
  5
16351
330
747D
100
AcDbEntity
  8
細線
100
AcDbLine
 10
9299.257101243217
 20
4480.931598713254
 30
0.0
 11
9299.257101243217
 21
2747.931598713258
 31
0.0
  0
LINE
  5
16352
330
747D
100
AcDbEntity
  8
部品1
100
AcDbLine
 10
9089.257109428634
 20
4480.931598713254
 30
0.0
 11
9089.257109428634
 21
2747.931598713261
 31
0.0
  0
LINE
  5
16353
330
747D
100
AcDbEntity
  8
部品1
100
AcDbLine
 10
9039.257109428634
 20
4480.931598713254
 30
0.0
 11
9039.257109428634
 21
2747.931598713261
 31
0.0
  0
LINE
  5
16354
330
747D
100
AcDbEntity
  8
細線
100
AcDbLine
 10
9081.257109428634
 20
4480.931598713254
 30
0.0
 11
9081.257109428634
 21
2747.931598713261
 31
0.0
  0
LINE
  5
16355
330
747D
100
AcDbEntity
  8
細線
100
AcDbLine
 10
9047.257109428633
 20
4480.931598713254
 30
0.0
 11
9047.257109428633
 21
2747.931598713261
 31
0.0
  0
LINE
  5
16356
330
747D
100
AcDbEntity
  8
細線
100
AcDbLine
 10
9958.257109428632
 20
4480.931598713254
 30
0.0
 11
9958.257109428634
 21
2755.431598713269
 31
0.0
  0
LINE
  5
16357
330
747D
100
AcDbEntity
  8
細線
100
AcDbLine
 10
9888.257109428632
 20
4480.931598713254
 30
0.0
 11
9888.257109428636
 21
2755.431598713269
 31
0.0
  0
LINE
  5
16358
330
747D
100
AcDbEntity
  8
細線
100
AcDbLine
 10
9818.257109428634
 20
4480.931598713254
 30
0.0
 11
9818.257109428635
 21
2755.431598713269
 31
0.0
  0
LINE
  5
16359
330
747D
100
AcDbEntity
  8
細線
100
AcDbLine
 10
9748.257109428633
 20
4480.931598713254
 30
0.0
 11
9748.257109428635
 21
2755.431598713269
 31
0.0
  0
LINE
  5
1635A
330
747D
100
AcDbEntity
  8
細線
100
AcDbLine
 10
10476.25710942863
 20
4480.931598713243
 30
0.0
 11
10476.25710942863
 21
2755.431598713262
 31
0.0
  0
LINE
  5
1635B
330
747D
100
AcDbEntity
  8
細線
100
AcDbLine
 10
10406.25710942863
 20
4480.931598713243
 30
0.0
 11
10406.25710942863
 21
2755.431598713262
 31
0.0
  0
LINE
  5
1635C
330
747D
100
AcDbEntity
  8
細線
100
AcDbLine
 10
10336.25710942863
 20
4480.931598713243
 30
0.0
 11
10336.25710942863
 21
2755.431598713262
 31
0.0
  0
LINE
  5
1635D
330
747D
100
AcDbEntity
  8
細線
100
AcDbLine
 10
9229.257101243216
 20
4480.931598713254
 30
0.0
 11
9229.257101243216
 21
2747.931598713258
 31
0.0
  0
LINE
  5
1635E
330
747D
100
AcDbEntity
  8
細線
100
AcDbLine
 10
9678.257109428633
 20
4480.931598713254
 30
0.0
 11
9678.257109428635
 21
2755.431598713269
 31
0.0
  0
LINE
  5
1635F
330
747D
100
AcDbEntity
  8
細線
100
AcDbLine
 10
9608.257109428633
 20
4480.931598713254
 30
0.0
 11
9608.257109428635
 21
2755.431598713269
 31
0.0
  0
LINE
  5
16360
330
747D
100
AcDbEntity
  8
細線
100
AcDbLine
 10
10266.25710942863
 20
4480.931598713243
 30
0.0
 11
10266.25710942863
 21
2755.431598713262
 31
0.0
  0
LINE
  5
16361
330
747D
100
AcDbEntity
  8
細線
100
AcDbLine
 10
10126.25714474753
 20
4480.931598713243
 30
0.0
 11
10126.25714474753
 21
2755.431598713262
 31
0.0
  0
LINE
  5
16362
330
747D
100
AcDbEntity
  8
細線
100
AcDbLine
 10
10196.25714474752
 20
4480.931598713243
 30
0.0
 11
10196.25714474752
 21
2755.431598713262
 31
0.0
  0
LINE
  5
16413
330
747D
100
AcDbEntity
  8
補助
  6
PHANTOM
 62
   230
 48
50.0
100
AcDbLine
 10
140.0
 20
0.0
 30
0.0
 11
140.0
 21
11409.6
 31
0.0
  0
LINE
  5
1663B
330
747D
100
AcDbEntity
  8
破線
 48
5.0
100
AcDbLine
 10
6914.735691068391
 20
2597.931598713262
 30
0.0
 11
6914.735691068393
 21
2397.931598713261
 31
0.0
  0
LINE
  5
1663C
330
747D
100
AcDbEntity
  8
破線
 48
5.0
100
AcDbLine
 10
7114.735691068388
 20
2397.93159871326
 30
0.0
 11
6914.735691068393
 21
2397.931598713261
 31
0.0
  0
LINE
  5
1663D
330
747D
100
AcDbEntity
  8
破線
 48
5.0
100
AcDbLine
 10
7114.735691068391
 20
2597.931598713262
 30
0.0
 11
7114.735691068388
 21
2397.93159871326
 31
0.0
  0
DIMENSION
  5
1663E
330
747D
100
AcDbEntity
  8
寸法
 48
50.0
100
AcDbDimension
  2
*D37
 10
5599.735691068389
 20
2111.884269412883
 30
0.0
 11
5699.735691068386
 21
2111.884269412883
 31
0.0
 70
   160
 71
     5
 42
199.9999999999963
  3
INABA_S40G
100
AcDbAlignedDimension
 13
5799.735691068384
 23
2397.931598713259
 33
0.0
 14
5599.735691068389
 24
2397.93159871326
 34
0.0
100
AcDbRotatedDimension
  0
LINE
  5
1663F
330
747D
100
AcDbEntity
  8
破線
 48
5.0
100
AcDbLine
 10
5599.735691068387
 20
2597.931598713261
 30
0.0
 11
5599.735691068389
 21
2397.93159871326
 31
0.0
  0
LINE
  5
16640
330
747D
100
AcDbEntity
  8
破線
 48
5.0
100
AcDbLine
 10
5799.735691068387
 20
2597.931598713261
 30
0.0
 11
5799.735691068384
 21
2397.931598713259
 31
0.0
  0
LINE
  5
16641
330
747D
100
AcDbEntity
  8
破線
 48
5.0
100
AcDbLine
 10
5799.735691068384
 20
2397.931598713259
 30
0.0
 11
5599.735691068389
 21
2397.93159871326
 31
0.0
  0
DIMENSION
  5
16642
330
747D
100
AcDbEntity
  8
寸法
 48
50.0
100
AcDbDimension
  2
*D38
 10
5450.235687821752
 20
2597.931598713261
 30
0.0
 11
5450.23568782175
 21
2497.931598713261
 31
0.0
 70
   160
 71
     5
 42
200.0000000000009
  3
INABA_S40G
100
AcDbAlignedDimension
 13
5599.735691068389
 23
2397.93159871326
 33
0.0
 14
5574.735691068386
 24
2597.931598713261
 34
0.0
 50
90.0
100
AcDbRotatedDimension
1001
ACAD
1000
DSTYLE
1002
{
1070
   174
1070
     0
1070
   272
1070
     1
1070
   288
1070
     0
1070
   341
1005
0
1002
}
  0
LINE
  5
16643
330
747D
100
AcDbEntity
  8
部品1
 48
50.0
100
AcDbLine
 10
6217.235691068387
 20
4903.799737814541
 30
0.0
 11
6517.235691068387
 21
4882.199737814541
 31
0.0
  0
LINE
  5
16644
330
747D
100
AcDbEntity
  8
細線
 48
50.0
100
AcDbLine
 10
6644.735691068388
 20
4537.931598713261
 30
0.0
 11
6644.735691068388
 21
2747.931598713261
 31
0.0
  0
LINE
  5
16645
330
747D
100
AcDbEntity
  8
細線
 48
50.0
100
AcDbLine
 10
6629.735691068389
 20
4537.931598713261
 30
0.0
 11
6629.735691068389
 21
2747.931598713261
 31
0.0
  0
LINE
  5
16646
330
747D
100
AcDbEntity
  8
細線
 48
50.0
100
AcDbLine
 10
6769.735691068388
 20
4537.931598713261
 30
0.0
 11
6769.735691068388
 21
2747.931598713261
 31
0.0
  0
LINE
  5
16647
330
747D
100
AcDbEntity
  8
細線
 48
50.0
100
AcDbLine
 10
6784.735691068388
 20
4537.931598713261
 30
0.0
 11
6784.735691068388
 21
2747.931598713261
 31
0.0
  0
LINE
  5
16648
330
747D
100
AcDbEntity
  8
細線
 48
50.0
100
AcDbLine
 10
6924.735691068389
 20
4537.931598713261
 30
0.0
 11
6924.735691068389
 21
2747.931598713261
 31
0.0
  0
LINE
  5
16649
330
747D
100
AcDbEntity
  8
細線
 48
50.0
100
AcDbLine
 10
6909.735691068388
 20
4537.931598713261
 30
0.0
 11
6909.735691068388
 21
2747.931598713261
 31
0.0
  0
LINE
  5
1664A
330
747D
100
AcDbEntity
  8
部品1
100
AcDbLine
 10
6567.235691068384
 20
4537.931598713261
 30
0.0
 11
6567.235691068384
 21
2747.931598713261
 31
0.0
  0
TEXT
  5
1664B
330
747D
100
AcDbEntity
  8
部品1
 48
50.0
100
AcDbText
 10
6694.328538356247
 20
4802.182501748692
 30
0.0
 40
120.0
  1
71
 50
90.0
  7
STYLE1
100
AcDbText
  0
TEXT
  5
1664C
330
747D
100
AcDbEntity
  8
部品1
 48
50.0
100
AcDbText
 10
6205.503526292114
 20
4939.683759966975
 30
0.0
 40
120.0
  1
1000
  7
STYLE1
100
AcDbText
  0
LINE
  5
1664D
330
747D
100
AcDbEntity
  8
部品1
 48
50.0
100
AcDbLine
 10
6517.235691068387
 20
4903.799737814541
 30
0.0
 11
6517.235691068387
 21
4882.199737814541
 31
0.0
  0
LINE
  5
1664E
330
747D
100
AcDbEntity
  8
部品1
 48
50.0
100
AcDbLine
 10
6217.235691068387
 20
4903.799737814541
 30
0.0
 11
6517.235691068387
 21
4903.799737814541
 31
0.0
  0
DIMENSION
  5
1664F
330
747D
100
AcDbEntity
  8
寸法
 48
50.0
100
AcDbDimension
  2
*D39
 10
5019.969439356827
 20
4794.75408961064
 30
0.0
 11
5028.647183008901
 21
5024.590328626975
 31
0.0
 70
   160
 71
     5
 42
140.9999999999991
  3
INABA_S40G
100
AcDbAlignedDimension
 13
5627.578255670339
 23
4630.712623782229
 33
0.0
 14
5632.898089822294
 24
4771.612231179111
 34
0.0
 50
87.83775598710546
100
AcDbRotatedDimension
1001
ACAD
1000
DSTYLE
1002
{
1070
   174
1070
     0
1070
   272
1070
     1
1070
   288
1070
     0
1070
   341
1005
0
1002
}
  0
DIMENSION
  5
16650
330
747D
100
AcDbEntity
  8
寸法
 48
50.0
100
AcDbDimension
  2
*D40
 10
7122.235691068387
 20
5171.589052292565
 30
0.0
 11
7328.282935162874
 21
5171.589052292565
 31
0.0
 70
   160
 71
     5
 42
80.0
  3
INABA_S40G
100
AcDbAlignedDimension
 13
7042.235691068388
 23
4719.742278324915
 33
0.0
 14
7122.235691068387
 24
4717.931598713263
 34
0.0
100
AcDbRotatedDimension
1001
ACAD
1000
DSTYLE
1002
{
1070
   174
1070
     0
1070
   272
1070
     1
1070
   288
1070
     0
1070
   341
1005
0
1002
}
  0
ARC
  5
16651
330
747D
100
AcDbEntity
  8
部品1
100
AcDbCircle
 10
7107.863226882322
 20
4611.365399597479
 30
0.0
 40
0.7
100
AcDbArc
 50
275.0921697642644
 51
354.1866997667061
  0
ARC
  5
16652
330
747D
100
AcDbEntity
  8
部品1
100
AcDbCircle
 10
7118.722572631643
 20
4688.408654415402
 30
0.0
 40
0.7
100
AcDbArc
 50
275.0921697642644
 51
354.1866997665479
  0
ARC
  5
16653
330
747D
100
AcDbEntity
  8
部品1
100
AcDbCircle
 10
7119.050977874245
 20
4684.723257558313
 30
0.0
 40
3.0
100
AcDbArc
 50
95.0921697643163
 51
174.1866997665479
  0
ARC
  5
16654
330
747D
100
AcDbEntity
  8
部品1
100
AcDbCircle
 10
7108.19163212492
 20
4607.680002740389
 30
0.0
 40
3.0
100
AcDbArc
 50
95.09216976420788
 51
174.1866997665479
  0
ARC
  5
16655
330
747D
100
AcDbEntity
  8
部品1
 48
50.0
100
AcDbCircle
 10
7097.163496849816
 20
4598.089258136506
 30
0.0
 40
7.0
100
AcDbArc
 50
267.8377559870533
 51
354.1866997665479
  0
ARC
  5
16656
330
747D
100
AcDbEntity
  8
部品1
 48
50.0
100
AcDbCircle
 10
7114.485593314332
 20
4708.99180527868
 30
0.0
 40
7.0
100
AcDbArc
 50
354.1866997664961
 51
87.03587545293636
  0
LINE
  5
16657
330
747D
100
AcDbEntity
  8
部品1
 48
50.0
100
AcDbLine
 10
7105.207060454311
 20
4607.983864457292
 30
0.0
 11
7104.12749741457
 21
4597.380247463733
 31
0.0
  0
LINE
  5
16658
330
747D
100
AcDbEntity
  8
部品1
 48
50.0
100
AcDbLine
 10
7116.066406203635
 20
4685.027119275216
 30
0.0
 11
7108.559626938798
 21
4611.294498530203
 31
0.0
  0
LINE
  5
16659
330
747D
100
AcDbEntity
  8
部品1
 48
50.0
100
AcDbLine
 10
7121.449593879086
 20
4708.282794605906
 30
0.0
 11
7119.418972688116
 21
4688.337753348124
 31
0.0
  0
ARC
  5
1665A
330
747D
100
AcDbEntity
  8
部品1
100
AcDbCircle
 10
5618.27278293975
 20
4651.745757672165
 30
0.0
 40
0.7
100
AcDbArc
 50
181.0932240292109
 51
260.1877540315872
  0
ARC
  5
1665B
330
747D
100
AcDbEntity
  8
部品1
100
AcDbCircle
 10
5613.500109342141
 20
4744.611535872285
 30
0.0
 40
0.7
100
AcDbArc
 50
181.0932240292109
 51
260.1877540315872
  0
ARC
  5
1665C
330
747D
100
AcDbEntity
  8
部品1
100
AcDbCircle
 10
5612.86955493912
 20
4740.965661334887
 30
0.0
 40
3.0
100
AcDbArc
 50
1.093224029263039
 51
80.18775403158718
  0
ARC
  5
1665D
330
747D
100
AcDbEntity
  8
部品1
100
AcDbCircle
 10
5617.642228536724
 20
4648.099883134768
 30
0.0
 40
3.0
100
AcDbArc
 50
1.093224029315139
 51
80.18775403153583
  0
ARC
  5
1665E
330
747D
100
AcDbEntity
  8
部品1
 48
50.0
100
AcDbCircle
 10
5627.842360911927
 20
4637.707639752287
 30
0.0
 40
7.0
100
AcDbArc
 50
181.0932240293151
 51
267.8377559870533
  0
ARC
  5
1665F
330
747D
100
AcDbEntity
  8
部品1
 48
50.0
100
AcDbCircle
 10
5619.418702809831
 20
4764.658699285382
 30
0.0
 40
7.0
100
AcDbArc
 50
87.03587545293636
 51
181.093224029263
  0
LINE
  5
16660
330
747D
100
AcDbEntity
  8
部品1
 48
50.0
100
AcDbLine
 10
5620.641682463156
 20
4648.157120737951
 30
0.0
 11
5620.843635083589
 21
4637.574085344859
 31
0.0
  0
LINE
  5
16661
330
747D
100
AcDbEntity
  8
細線
 48
50.0
100
AcDbLine
 10
5618.035589406485
 20
4651.08716885676
 30
0.0
 11
7108.039253837121
 21
4610.687893500691
 31
0.0
  0
LINE
  5
16662
330
747D
100
AcDbEntity
  8
細線
 48
50.0
100
AcDbLine
 10
5613.275114169199
 20
4743.948680554622
 30
0.0
 11
7118.911098914367
 21
4687.73451953222
 31
0.0
  0
LINE
  5
16663
330
747D
100
AcDbEntity
  8
部品1
 48
50.0
100
AcDbLine
 10
5615.86900886555
 20
4741.02289893807
 30
0.0
 11
5617.572910356916
 21
4651.732402231423
 31
0.0
  0
LINE
  5
16664
330
747D
100
AcDbEntity
  8
部品1
 48
50.0
100
AcDbLine
 10
5612.419976981493
 20
4764.525144877954
 30
0.0
 11
5612.800236759305
 21
4744.598180431542
 31
0.0
  0
LINE
  5
16665
330
747D
100
AcDbEntity
  8
細線
 48
50.0
100
AcDbLine
 10
7089.235691068387
 20
4717.308621366983
 30
0.0
 11
7084.488008180386
 21
4591.562848876239
 31
0.0
  0
LINE
  5
16666
330
747D
100
AcDbEntity
  8
細線
 48
50.0
100
AcDbLine
 10
5645.235691068386
 20
4770.331275088666
 30
0.0
 11
5639.946589512876
 21
4630.245642461312
 31
0.0
  0
LINE
  5
16667
330
747D
100
AcDbEntity
  8
部品1
100
AcDbLine
 10
5627.578255670339
 20
4630.712623782229
 30
0.0
 11
7096.899391608229
 21
4591.094242166448
 31
0.0
  0
LINE
  5
16668
330
747D
100
AcDbEntity
  8
部品1
100
AcDbLine
 10
5619.780677425348
 20
4771.649334047528
 30
0.0
 11
7114.847567929849
 21
4715.982440040826
 31
0.0
  0
LINE
  5
16669
330
747D
100
AcDbEntity
  8
細線
 48
50.0
100
AcDbLine
 10
5804.735691068384
 20
4537.931598713261
 30
0.0
 11
5804.735691068384
 21
2747.931598713261
 31
0.0
  0
LINE
  5
1666A
330
747D
100
AcDbEntity
  8
細線
 48
50.0
100
AcDbLine
 10
5789.735691068385
 20
4537.931598713261
 30
0.0
 11
5789.735691068385
 21
2747.931598713261
 31
0.0
  0
LINE
  5
1666B
330
747D
100
AcDbEntity
  8
細線
 48
50.0
100
AcDbLine
 10
5929.735691068384
 20
4537.931598713261
 30
0.0
 11
5929.735691068384
 21
2747.931598713261
 31
0.0
  0
LINE
  5
1666C
330
747D
100
AcDbEntity
  8
細線
 48
50.0
100
AcDbLine
 10
5944.735691068385
 20
4537.931598713261
 30
0.0
 11
5944.735691068385
 21
2747.931598713261
 31
0.0
  0
LINE
  5
1666D
330
747D
100
AcDbEntity
  8
細線
 48
50.0
100
AcDbLine
 10
6084.735691068384
 20
4537.931598713261
 30
0.0
 11
6084.735691068384
 21
2747.931598713261
 31
0.0
  0
LINE
  5
1666E
330
747D
100
AcDbEntity
  8
細線
 48
50.0
100
AcDbLine
 10
6069.735691068385
 20
4537.931598713261
 30
0.0
 11
6069.735691068385
 21
2747.931598713261
 31
0.0
  0
LINE
  5
1666F
330
747D
100
AcDbEntity
  8
細線
 48
50.0
100
AcDbLine
 10
6489.735691068386
 20
4537.931598713261
 30
0.0
 11
6489.735691068386
 21
2747.931598713261
 31
0.0
  0
LINE
  5
16670
330
747D
100
AcDbEntity
  8
細線
 48
50.0
100
AcDbLine
 10
6504.735691068384
 20
4537.931598713261
 30
0.0
 11
6504.735691068384
 21
2747.931598713261
 31
0.0
  0
LINE
  5
16671
330
747D
100
AcDbEntity
  8
細線
 48
50.0
100
AcDbLine
 10
6364.735691068385
 20
4537.931598713261
 30
0.0
 11
6364.735691068385
 21
2747.931598713261
 31
0.0
  0
LINE
  5
16672
330
747D
100
AcDbEntity
  8
細線
 48
50.0
100
AcDbLine
 10
6349.735691068385
 20
4537.931598713261
 30
0.0
 11
6349.735691068385
 21
2747.931598713261
 31
0.0
  0
LINE
  5
16673
330
747D
100
AcDbEntity
  8
細線
 48
50.0
100
AcDbLine
 10
6209.735691068384
 20
4537.931598713261
 30
0.0
 11
6209.735691068384
 21
2747.931598713261
 31
0.0
  0
LINE
  5
16674
330
747D
100
AcDbEntity
  8
細線
 48
50.0
100
AcDbLine
 10
6224.735691068385
 20
4537.931598713261
 30
0.0
 11
6224.735691068385
 21
2747.931598713261
 31
0.0
  0
LINE
  5
16677
330
747D
100
AcDbEntity
  8
部品1
100
AcDbLine
 10
5719.735691068386
 20
2697.931598713262
 30
0.0
 11
6994.735691068385
 21
2697.931598713262
 31
0.0
  0
LINE
  5
16678
330
747D
100
AcDbEntity
  8
部品1
100
AcDbLine
 10
7034.735691068387
 20
2697.931598713262
 30
0.0
 11
7042.235691068388
 21
2697.931598713262
 31
0.0
  0
LINE
  5
16679
330
747D
100
AcDbEntity
  8
破線
  6
HIDDEN
 48
5.0
100
AcDbLine
 10
5719.735691068386
 20
2597.931598713261
 30
0.0
 11
5719.735691068386
 21
2592.931598713261
 31
0.0
  0
LINE
  5
1667A
330
747D
100
AcDbEntity
  8
破線
  6
HIDDEN
 48
5.0
100
AcDbLine
 10
5679.73569106839
 20
2597.931598713261
 30
0.0
 11
5679.73569106839
 21
2592.931598713262
 31
0.0
  0
LINE
  5
1667B
330
747D
100
AcDbEntity
  8
破線
  6
HIDDEN
 48
5.0
100
AcDbLine
 10
7034.735691068383
 20
2597.931598713262
 30
0.0
 11
7034.735691068383
 21
2592.931598713262
 31
0.0
  0
LINE
  5
1667C
330
747D
100
AcDbEntity
  8
破線
  6
HIDDEN
 48
5.0
100
AcDbLine
 10
6994.735691068386
 20
2597.931598713262
 30
0.0
 11
6994.735691068386
 21
2592.931598713262
 31
0.0
  0
ARC
  5
1667D
330
747D
100
AcDbEntity
  8
部品1
 48
50.0
100
AcDbCircle
 10
7029.735691068387
 20
2737.931598713262
 30
0.0
 40
5.0
100
AcDbArc
 50
0.0
 51
90.0
  0
ARC
  5
1667E
330
747D
100
AcDbEntity
  8
部品1
 48
50.0
100
AcDbCircle
 10
6999.735691068384
 20
2737.931598713262
 30
0.0
 40
5.0
100
AcDbArc
 50
90.0
 51
180.0
  0
LINE
  5
1667F
330
747D
100
AcDbEntity
  8
部品1
100
AcDbLine
 10
7029.735691068387
 20
2742.931598713262
 30
0.0
 11
6999.735691068384
 21
2742.931598713262
 31
0.0
  0
LINE
  5
16680
330
747D
100
AcDbEntity
  8
部品1
 48
50.0
100
AcDbLine
 10
7034.735691068387
 20
2737.931598713262
 30
0.0
 11
7034.735691068383
 21
2597.931598713262
 31
0.0
  0
LINE
  5
16681
330
747D
100
AcDbEntity
  8
部品1
 48
50.0
100
AcDbLine
 10
6994.735691068384
 20
2737.931598713262
 30
0.0
 11
6994.735691068386
 21
2597.931598713262
 31
0.0
  0
ARC
  5
16682
330
747D
100
AcDbEntity
  8
部品1
 48
50.0
100
AcDbCircle
 10
5714.735691068387
 20
2737.931598713261
 30
0.0
 40
5.0
100
AcDbArc
 50
0.0
 51
90.0
  0
ARC
  5
16683
330
747D
100
AcDbEntity
  8
部品1
 48
50.0
100
AcDbCircle
 10
5684.735691068382
 20
2737.931598713262
 30
0.0
 40
5.0
100
AcDbArc
 50
90.0
 51
180.0
  0
LINE
  5
16684
330
747D
100
AcDbEntity
  8
部品1
100
AcDbLine
 10
5684.735691068382
 20
2742.931598713262
 30
0.0
 11
5714.735691068387
 21
2742.931598713261
 31
0.0
  0
LINE
  5
16685
330
747D
100
AcDbEntity
  8
部品1
 48
50.0
100
AcDbLine
 10
5719.735691068386
 20
2737.931598713261
 30
0.0
 11
5719.735691068382
 21
2597.931598713261
 31
0.0
  0
LINE
  5
16686
330
747D
100
AcDbEntity
  8
部品1
 48
50.0
100
AcDbLine
 10
5679.735691068383
 20
2737.931598713262
 30
0.0
 11
5679.735691068387
 21
2597.931598713261
 31
0.0
  0
LINE
  5
16687
330
747D
100
AcDbEntity
  8
破線
  6
HIDDEN
 48
5.0
100
AcDbLine
 10
5719.735691068386
 20
2592.931598713261
 30
0.0
 11
5734.735691068387
 21
2445.231598713261
 31
0.0
  0
LINE
  5
16688
330
747D
100
AcDbEntity
  8
破線
  6
HIDDEN
 48
5.0
100
AcDbLine
 10
5679.735691068387
 20
2592.931598713262
 30
0.0
 11
5664.735691068383
 21
2445.231598713261
 31
0.0
  0
LINE
  5
16689
330
747D
100
AcDbEntity
  8
破線
  6
HIDDEN
 48
5.0
100
AcDbLine
 10
5734.735691068387
 20
2445.231598713261
 30
0.0
 11
5734.735691068383
 21
2442.931598713261
 31
0.0
  0
LINE
  5
1668A
330
747D
100
AcDbEntity
  8
破線
  6
HIDDEN
 48
5.0
100
AcDbLine
 10
5664.735691068383
 20
2445.231598713261
 30
0.0
 11
5664.735691068383
 21
2442.931598713261
 31
0.0
  0
LINE
  5
1668B
330
747D
100
AcDbEntity
  8
破線
  6
HIDDEN
 48
5.0
100
AcDbLine
 10
5664.735691068383
 20
2442.931598713261
 30
0.0
 11
5734.735691068383
 21
2442.931598713261
 31
0.0
  0
LINE
  5
1668C
330
747D
100
AcDbEntity
  8
破線
  6
HIDDEN
 48
5.0
100
AcDbLine
 10
7049.735691068386
 20
2445.231598713262
 30
0.0
 11
7049.735691068386
 21
2442.931598713262
 31
0.0
  0
LINE
  5
1668D
330
747D
100
AcDbEntity
  8
破線
  6
HIDDEN
 48
5.0
100
AcDbLine
 10
7034.735691068387
 20
2592.931598713262
 30
0.0
 11
7049.735691068386
 21
2445.231598713262
 31
0.0
  0
LINE
  5
1668E
330
747D
100
AcDbEntity
  8
破線
  6
HIDDEN
 48
5.0
100
AcDbLine
 10
6979.735691068388
 20
2445.231598713262
 30
0.0
 11
6979.735691068388
 21
2442.931598713262
 31
0.0
  0
LINE
  5
1668F
330
747D
100
AcDbEntity
  8
破線
  6
HIDDEN
 48
5.0
100
AcDbLine
 10
6994.735691068384
 20
2592.931598713262
 30
0.0
 11
6979.735691068388
 21
2445.231598713262
 31
0.0
  0
LINE
  5
16690
330
747D
100
AcDbEntity
  8
破線
  6
HIDDEN
 48
5.0
100
AcDbLine
 10
7049.735691068386
 20
2442.931598713262
 30
0.0
 11
6979.735691068388
 21
2442.931598713262
 31
0.0
  0
DIMENSION
  5
16691
330
747D
100
AcDbEntity
  8
寸法
 48
50.0
100
AcDbDimension
  2
*D33
 10
5612.235691068387
 20
5379.76337348453
 30
0.0
 11
6339.36052077021
 21
5379.76337348453
 31
0.0
 70
   160
 71
     5
 42
1510.0
  3
INABA_S40G
100
AcDbAlignedDimension
 13
7122.235691068387
 23
4717.931598713263
 33
0.0
 14
5612.235691068387
 24
4772.931598713266
 34
0.0
100
AcDbRotatedDimension
1001
ACAD
1000
DSTYLE
1002
{
1070
   174
1070
     0
1070
   272
1070
     1
1070
   288
1070
     0
1070
   341
1005
0
1002
}
  0
DIMENSION
  5
16692
330
747D
100
AcDbEntity
  8
寸法
 48
50.0
100
AcDbDimension
  2
*D34
 10
5612.235691068387
 20
5171.589052292565
 30
0.0
 11
5302.597895792796
 21
5171.589052292565
 31
0.0
 70
   160
 71
     5
 42
60.0
  3
INABA_S40G
100
AcDbAlignedDimension
 13
5672.235691068387
 23
4768.933216836238
 33
0.0
 14
5612.235691068387
 24
4772.931598713266
 34
0.0
100
AcDbRotatedDimension
1001
ACAD
1000
DSTYLE
1002
{
1070
   174
1070
     0
1070
   272
1070
     1
1070
   288
1070
     0
1070
   341
1005
0
1002
}
  0
DIMENSION
  5
16693
330
747D
100
AcDbEntity
  8
寸法
 48
50.0
100
AcDbDimension
  2
*D35
 10
5672.235691068387
 20
5171.589052292565
 30
0.0
 11
6322.054723958932
 21
5171.589052292565
 31
0.0
 70
   160
  1
柱外寸法<>
 71
     5
 42
1370.0
  3
INABA_S40G
100
AcDbAlignedDimension
 13
7042.235691068388
 23
4719.742278324915
 33
0.0
 14
5672.235691068387
 24
4768.933216836238
 34
0.0
100
AcDbRotatedDimension
1001
ACAD
1000
DSTYLE
1002
{
1070
   174
1070
     0
1070
   272
1070
     1
1070
   288
1070
     0
1070
   341
1005
0
1002
}
  0
LINE
  5
16694
330
747D
100
AcDbEntity
  8
部品1
100
AcDbLine
 10
6842.235691068388
 20
2697.931598713262
 30
0.0
 11
6842.235691068388
 21
2597.931598713262
 31
0.0
  0
LINE
  5
16695
330
747D
100
AcDbEntity
  8
部品1
100
AcDbLine
 10
5872.235691068385
 20
2697.931598713262
 30
0.0
 11
5872.235691068385
 21
2597.931598713262
 31
0.0
  0
DIMENSION
  5
16696
330
747D
100
AcDbEntity
  8
寸法
100
AcDbDimension
  2
*D36
 10
7747.162849040515
 20
4717.931598713263
 30
0.0
 11
7647.151038016892
 21
3707.931598713263
 31
0.0
 70
    32
 71
     5
 42
2020.000000000003
  3
INABA_S40G
100
AcDbAlignedDimension
 13
7119.235691068389
 23
2697.931598713261
 33
0.0
 14
7122.235691068387
 24
4717.931598713263
 34
0.0
 50
90.0
100
AcDbRotatedDimension
1001
ACAD
1000
DSTYLE
1002
{
1070
   174
1070
     0
1070
   272
1070
     1
1070
   288
1070
     0
1070
   341
1005
0
1002
}
  0
LINE
  5
16697
330
747D
100
AcDbEntity
  8
部品1
100
AcDbLine
 10
6987.235691068389
 20
4537.931598713261
 30
0.0
 11
6987.235691068389
 21
2747.931598713261
 31
0.0
  0
LINE
  5
16698
330
747D
100
AcDbEntity
  8
部品1
100
AcDbLine
 10
7042.235691068384
 20
4592.568179548514
 30
0.0
 11
7042.235691068388
 21
2597.931598713262
 31
0.0
  0
LINE
  5
16699
330
747D
100
AcDbEntity
  8
部品1
100
AcDbLine
 10
6147.235691068384
 20
4537.931598713261
 30
0.0
 11
6147.235691068384
 21
2747.931598713261
 31
0.0
  0
LINE
  5
1669F
330
747D
100
AcDbEntity
  8
部品1
100
AcDbLine
 10
5672.23569106839
 20
4629.508492653704
 30
0.0
 11
5672.235691068385
 21
2597.931598713262
 31
0.0
  0
LINE
  5
166A0
330
747D
100
AcDbEntity
  8
部品1
100
AcDbLine
 10
5727.235691068385
 20
4537.931598713261
 30
0.0
 11
5727.235691068385
 21
2747.931598713261
 31
0.0
  0
LINE
  5
166A1
330
747D
100
AcDbEntity
  8
部品1
100
AcDbLine
 10
5672.235691068385
 20
2697.931598713262
 30
0.0
 11
5679.735691068384
 21
2697.931598713261
 31
0.0
  0
LINE
  5
166A2
330
747D
100
AcDbEntity
  8
部品1
100
AcDbLine
 10
5672.235691068385
 20
2747.931598713261
 30
0.0
 11
7042.23569106839
 21
2747.931598713262
 31
0.0
  0
LINE
  5
166A3
330
747D
100
AcDbEntity
  8
部品1
100
AcDbLine
 10
5672.235691068385
 20
4537.931598713261
 30
0.0
 11
7042.235691068388
 21
4537.931598713261
 31
0.0
  0
LINE
  5
167C4
330
747D
100
AcDbEntity
  8
部品1
 48
50.0
100
AcDbLine
 10
7042.23569106839
 20
4532.93159871326
 30
0.0
 11
7119.235691068389
 21
4522.931598713261
 31
0.0
  0
LINE
  5
167C5
330
747D
100
AcDbEntity
  8
部品1
 48
50.0
100
AcDbLine
 10
7119.235691068389
 20
4522.931598713261
 30
0.0
 11
7119.235691068389
 21
2597.931598713261
 31
0.0
  0
LINE
  5
167C6
330
747D
100
AcDbEntity
  8
部品1
 48
50.0
100
AcDbLine
 10
7119.235691068389
 20
2697.931598713261
 30
0.0
 11
7042.235691068388
 21
2697.931598713261
 31
0.0
  0
DIMENSION
  5
167D0
330
747D
100
AcDbEntity
  8
寸法
100
AcDbDimension
  2
*D44
 10
5048.58298191009
 20
2747.931598713261
 30
0.0
 11
5048.582981910089
 21
3638.385897255218
 31
0.0
 70
   160
 71
     5
 42
1789.999999999999
  3
INABA_S40G
100
AcDbAlignedDimension
 13
5672.235691068387
 23
4537.93159871326
 33
0.0
 14
5672.235691068387
 24
2747.931598713261
 34
0.0
 50
90.0
100
AcDbRotatedDimension
1001
ACAD
1000
DSTYLE
1002
{
1070
   174
1070
     0
1070
   272
1070
     1
1070
   288
1070
     0
1070
   341
1005
0
1002
}
  0
DIMENSION
  5
167D1
330
747D
100
AcDbEntity
  8
寸法
100
AcDbDimension
  2
*D43
 10
4763.596309139028
 20
4772.931598713265
 30
0.0
 11
4763.596309139027
 21
3692.137476206371
 31
0.0
 70
   160
 71
     5
 42
2075.000000000004
  3
INABA_S40G
100
AcDbAlignedDimension
 13
5672.235691068387
 23
2697.931598713261
 33
0.0
 14
5612.235691068387
 24
4772.931598713265
 34
0.0
 50
90.0
100
AcDbRotatedDimension
1001
ACAD
1000
DSTYLE
1002
{
1070
   174
1070
     0
1070
   272
1070
     1
1070
   288
1070
     0
1070
   341
1005
0
1002
}
  0
DIMENSION
  5
167D2
330
747D
100
AcDbEntity
  8
寸法
100
AcDbDimension
  2
*D42
 10
4763.596309139028
 20
2597.931598713261
 30
0.0
 11
4763.596309139027
 21
2361.884354618768
 31
0.0
 70
   160
 71
     5
 42
100.0000000000004
  3
INABA_S40G
100
AcDbAlignedDimension
 13
5617.235691068387
 23
2697.931598713261
 33
0.0
 14
5048.582981910089
 24
2597.931598713261
 34
0.0
 50
90.0
100
AcDbRotatedDimension
1001
ACAD
1000
DSTYLE
1002
{
1070
   174
1070
     0
1070
   272
1070
     1
1070
   288
1070
     0
1070
   341
1005
0
1002
}
  0
DIMENSION
  5
167D3
330
747D
100
AcDbEntity
  8
寸法
100
AcDbDimension
  2
*D41
 10
5048.58298191009
 20
2697.931598713261
 30
0.0
 11
5048.582981910089
 21
2391.884354618768
 31
0.0
 70
   160
 71
     5
 42
50.0
  3
INABA_S40G
100
AcDbAlignedDimension
 13
5672.235691068387
 23
2747.931598713261
 33
0.0
 14
5617.235691068387
 24
2697.931598713261
 34
0.0
 50
90.0
100
AcDbRotatedDimension
1001
ACAD
1000
DSTYLE
1002
{
1070
   174
1070
     0
1070
   272
1070
     1
1070
   288
1070
     0
1070
   341
1005
0
1002
}
  0
LINE
  5
1682E
330
747D
100
AcDbEntity
  8
部品1
 48
50.0
100
AcDbLine
 10
6257.235691068388
 20
2697.931598713262
 30
0.0
 11
6257.235691068388
 21
2597.931598713262
 31
0.0
  0
LINE
  5
1682F
330
747D
100
AcDbEntity
  8
部品1
 48
50.0
100
AcDbLine
 10
6457.23569106839
 20
2697.931598713262
 30
0.0
 11
6457.235691068388
 21
2597.931598713262
 31
0.0
  0
MTEXT
  5
168A7
330
747D
100
AcDbEntity
  8
寸法
 62
     7
 48
50.0
100
AcDbMText
 10
10211.35964652177
 20
8859.588698727083
 30
0.0
 40
96.0
 41
0.0
 71
     5
 72
     1
  1
棚 2段
  7
STYLE1
 73
     1
 44
1.0
1001
ACAD
1000
MTEXTBEGIN
1070
    73
1070
     1
1070
    44
1040
1.0
1070
    74
1070
     0
1000
MTEXTEND
  0
LINE
  5
16A03
330
747D
100
AcDbEntity
  8
細線
 48
50.0
100
AcDbLine
 10
9439.2571094286
 20
7831.35405470656
 30
0.0
 11
9557.757109428601
 21
7831.35405470656
 31
0.0
  0
LINE
  5
16A04
330
747D
100
AcDbEntity
  8
細線
 48
50.0
100
AcDbLine
 10
9527.757109428604
 20
7848.504054706559
 30
0.0
 11
9527.757109428604
 21
7853.354054706561
 31
0.0
  0
LINE
  5
16A05
330
747D
100
AcDbEntity
  8
細線
 48
50.0
100
AcDbLine
 10
9527.757109428604
 20
7853.354054706561
 30
0.0
 11
9542.757109428604
 21
7853.354054706561
 31
0.0
  0
LINE
  5
16A06
330
747D
100
AcDbEntity
  8
細線
 48
50.0
100
AcDbLine
 10
9542.757109428604
 20
7853.354054706561
 30
0.0
 11
9542.757109428606
 21
7860.354054706562
 31
0.0
  0
LINE
  5
16A07
330
747D
100
AcDbEntity
  8
細線
 48
50.0
100
AcDbLine
 10
9542.757109428606
 20
7860.354054706562
 30
0.0
 11
9557.757109428605
 21
7860.354054706562
 31
0.0
  0
LINE
  5
16A08
330
747D
100
AcDbEntity
  8
細線
 48
50.0
100
AcDbLine
 10
9557.757109428605
 20
7860.354054706562
 30
0.0
 11
9557.757109428605
 21
7831.354054706562
 31
0.0
  0
LINE
  5
16A09
330
747D
100
AcDbEntity
  8
細線
 48
50.0
100
AcDbLine
 10
9546.757109428606
 20
7882.850248972068
 30
0.0
 11
9546.757109428606
 21
7887.350248972068
 31
0.0
  0
LINE
  5
16A0A
330
747D
100
AcDbEntity
  8
細線
 48
50.0
100
AcDbLine
 10
9546.757109428606
 20
7887.350248972068
 30
0.0
 11
9531.757109428605
 21
7887.350248972068
 31
0.0
  0
LINE
  5
16A0B
330
747D
100
AcDbEntity
  8
細線
 48
50.0
100
AcDbLine
 10
9531.757109428605
 20
7887.350248972068
 30
0.0
 11
9531.757109428605
 21
7894.350248972067
 31
0.0
  0
LINE
  5
16A0C
330
747D
100
AcDbEntity
  8
細線
 48
50.0
100
AcDbLine
 10
9531.757109428605
 20
7894.350248972067
 30
0.0
 11
9516.757109428608
 21
7894.350248972064
 31
0.0
  0
LINE
  5
16A0D
330
747D
100
AcDbEntity
  8
細線
 48
50.0
100
AcDbLine
 10
9516.757109428608
 20
7894.350248972064
 30
0.0
 11
9516.757109428608
 21
7856.750020868954
 31
0.0
  0
LINE
  5
16A0E
330
747D
100
AcDbEntity
  8
細線
 48
50.0
100
AcDbLine
 10
9516.757109428608
 20
7856.750020868954
 30
0.0
 11
9536.757116729781
 21
7856.750062418495
 31
0.0
  0
LINE
  5
16A0F
330
747D
100
AcDbEntity
  8
細線
 48
50.0
100
AcDbLine
 10
9536.75707186084
 20
7865.353524054303
 30
0.0
 11
9536.757116729781
 21
7856.750062418495
 31
0.0
  0
LINE
  5
16A10
330
747D
100
AcDbEntity
  8
細線
 48
50.0
100
AcDbLine
 10
9536.75707186084
 20
7865.353524054303
 30
0.0
 11
9547.98976121555
 21
7865.35370700745
 31
0.0
  0
ARC
  5
16A11
330
747D
100
AcDbEntity
  8
細線
 48
50.0
100
AcDbCircle
 10
9554.572053522885
 20
7864.153870921062
 30
0.0
 40
1.8
100
AcDbArc
 50
270.0006665777295
 51
345.0005554812987
  0
LINE
  5
16A12
330
747D
100
AcDbEntity
  8
細線
 48
50.0
100
AcDbLine
 10
9556.558486968965
 20
7864.612711378342
 30
0.0
 11
9556.310724526765
 21
7863.688013496235
 31
0.0
  0
LINE
  5
16A13
330
747D
100
AcDbEntity
  8
細線
 48
50.0
100
AcDbLine
 10
9554.57207446404
 20
7862.353870921184
 30
0.0
 11
9550.942147045272
 21
7862.353828690704
 31
0.0
  0
ARC
  5
16A14
330
747D
100
AcDbEntity
  8
細線
 48
50.0
100
AcDbCircle
 10
9550.94212610412
 20
7864.153828690582
 30
0.0
 40
1.8
100
AcDbArc
 50
195.0010443049394
 51
270.0006665777295
  0
LINE
  5
16A15
330
747D
100
AcDbEntity
  8
細線
 48
50.0
100
AcDbLine
 10
9548.955698611861
 20
7864.612543658147
 30
0.0
 11
9549.203468108373
 21
7863.687922719565
 31
0.0
  0
ARC
  5
16A16
330
747D
100
AcDbEntity
  8
細線
 48
50.0
100
AcDbCircle
 10
9547.989777503113
 20
7864.353707007585
 30
0.0
 40
1.0
100
AcDbArc
 50
15.00104430493943
 51
90.00093320877969
  0
LINE
  5
16A17
330
747D
100
AcDbEntity
  8
細線
 48
50.0
100
AcDbLine
 10
9557.524408324068
 20
7865.353901697855
 30
0.0
 11
9558.466168474973
 21
7865.353908271704
 31
0.0
  0
ARC
  5
16A18
330
747D
100
AcDbEntity
  8
細線
 48
50.0
100
AcDbCircle
 10
9557.524415304454
 20
7864.353901697881
 30
0.0
 40
1.0
100
AcDbArc
 50
90.0003999466794
 51
165.0005554812987
  0
LINE
  5
16A19
330
747D
100
AcDbEntity
  8
細線
 48
50.0
100
AcDbLine
 10
10593.7571094286
 20
7924.35388052961
 30
0.0
 11
10593.7571094286
 21
7899.353880529606
 31
0.0
  0
LINE
  5
16A1A
330
747D
100
AcDbEntity
  8
細線
100
AcDbLine
 10
10584.2571094286
 20
7899.353880529606
 30
0.0
 11
10476.2571094286
 21
7899.353880529606
 31
0.0
  0
LINE
  5
16A1B
330
747D
100
AcDbEntity
  8
細線
 48
50.0
100
AcDbLine
 10
10008.75711457951
 20
7891.353880529608
 30
0.0
 11
10008.75711457951
 21
7929.353880529601
 31
0.0
  0
LINE
  5
16A1C
330
747D
100
AcDbEntity
  8
細線
 48
50.0
100
AcDbLine
 10
10008.75711457951
 20
7929.353880529601
 30
0.0
 11
10023.75711457951
 21
7929.353880529605
 31
0.0
  0
LINE
  5
16A1D
330
747D
100
AcDbEntity
  8
細線
 48
50.0
100
AcDbLine
 10
10023.75711457951
 20
7929.353880529605
 30
0.0
 11
10023.75711457951
 21
7924.353880529605
 31
0.0
  0
LINE
  5
16A1E
330
747D
100
AcDbEntity
  8
細線
 48
50.0
100
AcDbLine
 10
10008.75711457951
 20
7891.353880529608
 30
0.0
 11
10028.75711457951
 21
7891.353880529606
 31
0.0
  0
LINE
  5
16A1F
330
747D
100
AcDbEntity
  8
細線
 48
50.0
100
AcDbLine
 10
10028.75711457951
 20
7891.353880529606
 30
0.0
 11
10028.75711457951
 21
7899.353880529606
 31
0.0
  0
LINE
  5
16A20
330
747D
100
AcDbEntity
  8
細線
100
AcDbLine
 10
10266.2571094286
 20
7899.353880529606
 30
0.0
 11
10196.2571094286
 21
7899.353880529606
 31
0.0
  0
LINE
  5
16A21
330
747D
100
AcDbEntity
  8
細線
 48
50.0
100
AcDbLine
 10
10126.2571094286
 20
7899.353880529604
 30
0.0
 11
10041.55289415235
 21
7899.353880529606
 31
0.0
  0
LINE
  5
16A22
330
747D
100
AcDbEntity
  8
細線
100
AcDbLine
 10
10406.2571094286
 20
7899.353880529606
 30
0.0
 11
10336.2571094286
 21
7899.353880529606
 31
0.0
  0
LINE
  5
16A23
330
747D
100
AcDbEntity
  8
細線
100
AcDbLine
 10
10234.2571094286
 20
7899.353880529604
 30
0.0
 11
10234.2571094286
 21
7928.653880529603
 31
0.0
  0
LINE
  5
16A24
330
747D
100
AcDbEntity
  8
細線
100
AcDbLine
 10
10214.2571094286
 20
7928.653880529603
 30
0.0
 11
10234.2571094286
 21
7928.653880529603
 31
0.0
  0
LINE
  5
16A25
330
747D
100
AcDbEntity
  8
細線
100
AcDbLine
 10
10214.2571094286
 20
7899.353880529604
 30
0.0
 11
10214.2571094286
 21
7928.653880529603
 31
0.0
  0
LINE
  5
16A26
330
747D
100
AcDbEntity
  8
細線
 48
50.0
100
AcDbLine
 10
10577.8571094286
 20
7924.353880529605
 30
0.0
 11
10567.8571094286
 21
7929.353880529605
 31
0.0
  0
LINE
  5
16A27
330
747D
100
AcDbEntity
  8
細線
 48
50.0
100
AcDbLine
 10
10593.7571094286
 20
7924.35388052961
 30
0.0
 11
10577.8571094286
 21
7924.353880529605
 31
0.0
  0
LINE
  5
16A28
330
747D
100
AcDbEntity
  8
細線
 48
50.0
100
AcDbLine
 10
10567.85710942861
 20
7929.353880529603
 30
0.0
 11
10023.75711457951
 21
7929.353880529601
 31
0.0
  0
LINE
  5
16A29
330
747D
100
AcDbEntity
  8
細線
 48
50.0
100
AcDbLine
 10
10034.75711457951
 20
7898.553880529606
 30
0.0
 11
10034.75711457951
 21
7897.053880529606
 31
0.0
  0
LINE
  5
16A2A
330
747D
100
AcDbEntity
  8
細線
 48
50.0
100
AcDbLine
 10
10035.45711457951
 20
7896.353880529606
 30
0.0
 11
10040.05711457951
 21
7896.353880529606
 31
0.0
  0
LINE
  5
16A2B
330
747D
100
AcDbEntity
  8
細線
 48
50.0
100
AcDbLine
 10
10040.75711457951
 20
7897.053880529606
 30
0.0
 11
10040.75712140462
 21
7898.553895421094
 31
0.0
  0
ARC
  5
16A2C
330
747D
100
AcDbEntity
  8
細線
 48
50.0
100
AcDbCircle
 10
10040.05711457951
 20
7897.053880529606
 30
0.0
 40
0.7
100
AcDbArc
 50
270.0
 51
0.0
  0
ARC
  5
16A2D
330
747D
100
AcDbEntity
  8
細線
 48
50.0
100
AcDbCircle
 10
10035.45711457951
 20
7897.053880529606
 30
0.0
 40
0.7
100
AcDbArc
 50
180.0
 51
270.0
  0
LINE
  5
16A2E
330
747D
100
AcDbEntity
  8
細線
 48
50.0
100
AcDbLine
 10
10033.95711644095
 20
7899.353880529606
 30
0.0
 11
10028.75711457951
 21
7899.353880529606
 31
0.0
  0
ARC
  5
16A2F
330
747D
100
AcDbEntity
  8
細線
 48
50.0
100
AcDbCircle
 10
10041.55712140462
 20
7898.553891698222
 30
0.0
 40
0.8
100
AcDbArc
 50
90.00014387753465
 51
179.9997333689498
  0
ARC
  5
16A30
330
747D
100
AcDbEntity
  8
細線
 48
50.0
100
AcDbCircle
 10
10033.95711457952
 20
7898.553880529606
 30
0.0
 40
0.8
100
AcDbArc
 50
359.9997333689499
 51
89.99986668437072
  0
LINE
  5
16A31
330
747D
100
AcDbEntity
  8
細線
 48
50.0
100
AcDbLine
 10
9748.25707410971
 20
7865.353892392191
 30
0.0
 11
9678.257056821834
 21
7865.353892392199
 31
0.0
  0
LINE
  5
16A32
330
747D
100
AcDbEntity
  8
細線
 48
50.0
100
AcDbLine
 10
9608.257109428604
 20
7865.35390057956
 30
0.0
 11
9558.466168474973
 21
7865.353908271704
 31
0.0
  0
LINE
  5
16A33
330
747D
100
AcDbEntity
  8
細線
 48
50.0
100
AcDbLine
 10
9958.25710119184
 20
7865.353892392196
 30
0.0
 11
10049.7571094286
 21
7865.353892392196
 31
0.0
  0
LINE
  5
16A34
330
747D
100
AcDbEntity
  8
細線
 48
50.0
100
AcDbLine
 10
9888.257109428604
 20
7865.353889642189
 30
0.0
 11
9818.257353325602
 21
7865.353895142224
 31
0.0
  0
LINE
  5
16A35
330
747D
100
AcDbEntity
  8
細線
 48
50.0
100
AcDbLine
 10
10049.75711973042
 20
7894.354098564469
 30
0.0
 11
10049.7571094286
 21
7865.353892392196
 31
0.0
  0
LINE
  5
16A36
330
747D
100
AcDbEntity
  8
細線
 48
50.0
100
AcDbLine
 10
10034.75712155989
 20
7894.354098564469
 30
0.0
 11
10049.75711973042
 21
7894.354098564469
 31
0.0
  0
LINE
  5
16A37
330
747D
100
AcDbEntity
  8
細線
 48
50.0
100
AcDbLine
 10
10034.75710992592
 20
7887.354098564426
 30
0.0
 11
10034.75712155989
 21
7894.354098564469
 31
0.0
  0
LINE
  5
16A38
330
747D
100
AcDbEntity
  8
細線
 48
50.0
100
AcDbLine
 10
10019.75710992592
 20
7887.354098564426
 30
0.0
 11
10034.75710992592
 21
7887.354098564426
 31
0.0
  0
LINE
  5
16A39
330
747D
100
AcDbEntity
  8
細線
 48
50.0
100
AcDbLine
 10
10019.75710992592
 20
7882.504098564426
 30
0.0
 11
10019.75710992592
 21
7887.354098564426
 31
0.0
  0
LINE
  5
16A3A
330
747D
100
AcDbEntity
  8
細線
 48
50.0
100
AcDbLine
 10
10019.75710992592
 20
7885.954098564427
 30
0.0
 11
9546.757109428606
 21
7885.954098564423
 31
0.0
  0
LINE
  5
16A3B
330
747D
100
AcDbEntity
  8
細線
 48
50.0
100
AcDbLine
 10
9527.757109428604
 20
7851.954054706559
 30
0.0
 11
8942.257114082194
 21
7851.954054706559
 31
0.0
  0
LINE
  5
16A3C
330
747D
100
AcDbEntity
  8
細線
 48
50.0
100
AcDbLine
 10
9350.640201099297
 20
7849.624905997053
 30
0.0
 11
9356.395718681966
 21
7831.35405470656
 31
0.0
  0
LINE
  5
16A3D
330
747D
100
AcDbEntity
  8
細線
 48
50.0
100
AcDbLine
 10
9339.711752618866
 20
7849.62490599705
 30
0.0
 11
9350.640201099297
 21
7849.624905997053
 31
0.0
  0
ARC
  5
16A3E
330
747D
100
AcDbEntity
  8
細線
 48
50.0
100
AcDbCircle
 10
9334.257396561547
 20
7851.12490599705
 30
0.0
 40
5.0
100
AcDbArc
 50
204.6243183521304
 51
335.3756816478695
  0
ARC
  5
16A3F
330
747D
100
AcDbEntity
  8
細線
 48
50.0
100
AcDbCircle
 10
9339.711752618866
 20
7848.62490599705
 30
0.0
 40
1.0
100
AcDbArc
 50
90.0
 51
155.3756816478695
  0
ARC
  5
16A40
330
747D
100
AcDbEntity
  8
細線
 48
50.0
100
AcDbCircle
 10
9328.803040504231
 20
7848.62490599705
 30
0.0
 40
1.0
100
AcDbArc
 50
24.62431835213048
 51
90.0
  0
LINE
  5
16A41
330
747D
100
AcDbEntity
  8
細線
 48
50.0
100
AcDbLine
 10
9317.874592023798
 20
7849.624905997053
 30
0.0
 11
9328.803040504231
 21
7849.62490599705
 31
0.0
  0
LINE
  5
16A42
330
747D
100
AcDbEntity
  8
細線
 48
50.0
100
AcDbLine
 10
9312.119074441129
 20
7831.35405470656
 30
0.0
 11
9317.874592023798
 21
7849.624905997053
 31
0.0
  0
LINE
  5
16A43
330
747D
100
AcDbEntity
  8
細線
 48
50.0
100
AcDbLine
 10
9299.257109428602
 20
7831.35405470656
 30
0.0
 11
9369.2571094286
 21
7831.35405470656
 31
0.0
  0
LINE
  5
16A44
330
747D
100
AcDbEntity
  8
細線
 48
50.0
100
AcDbLine
 10
8919.257109428604
 20
7831.351389050029
 30
0.0
 11
9229.257662533031
 21
7831.355275950226
 31
0.0
  0
LINE
  5
16A45
330
747D
100
AcDbEntity
  8
細線
 48
50.0
100
AcDbLine
 10
8942.257114082194
 20
7860.350205114198
 30
0.0
 11
8928.257109428603
 21
7860.350205114194
 31
0.0
  0
LINE
  5
16A46
330
747D
100
AcDbEntity
  8
細線
 48
50.0
100
AcDbLine
 10
8942.257114082194
 20
7851.954054706559
 30
0.0
 11
8942.257114082194
 21
7860.350205114198
 31
0.0
  0
LINE
  5
16A47
330
747D
100
AcDbEntity
  8
細線
  6
Continuous
 62
     5
100
AcDbLine
 10
10021.75711457951
 20
7884.353880529601
 30
0.0
 11
10021.75711457951
 21
7884.353880529601
 31
0.0
  0
LINE
  5
16A48
330
747D
100
AcDbEntity
  8
部品1
100
AcDbLine
 10
8919.257109428604
 20
7826.353880529605
 30
0.0
 11
10623.2571094286
 21
7826.353880529604
 31
0.0
  0
LINE
  5
16A49
330
747D
100
AcDbEntity
  8
部品1
100
AcDbLine
 10
10593.2571094286
 20
7826.353880529606
 30
0.0
 11
10623.2571094286
 21
7826.353880529606
 31
0.0
  0
LINE
  5
16A4A
330
747D
100
AcDbEntity
  8
部品1
100
AcDbLine
 10
8916.257109428604
 20
7930.353880529601
 30
0.0
 11
10596.2571094286
 21
7930.353880529604
 31
0.0
  0
LINE
  5
16A4B
330
747D
100
AcDbEntity
  8
部品1
100
AcDbLine
 10
8916.257109428604
 20
7930.353880529601
 30
0.0
 11
8916.257109428604
 21
7899.353880529606
 31
0.0
  0
LINE
  5
16A4C
330
747D
100
AcDbEntity
  8
部品1
100
AcDbLine
 10
8928.257109428603
 20
7899.353880529606
 30
0.0
 11
8928.257109428603
 21
7835.353880529606
 31
0.0
  0
LINE
  5
16A4D
330
747D
100
AcDbEntity
  8
部品1
100
AcDbLine
 10
8889.257109428603
 20
7826.353880529605
 30
0.0
 11
8889.257109428603
 21
7903.353880529604
 31
0.0
  0
LINE
  5
16A4E
330
747D
100
AcDbEntity
  8
部品1
100
AcDbLine
 10
8919.257109428604
 20
7826.353880529605
 30
0.0
 11
8889.257109428603
 21
7826.353880529605
 31
0.0
  0
LINE
  5
16A4F
330
747D
100
AcDbEntity
  8
部品1
100
AcDbLine
 10
8928.257109428603
 20
7835.353880529606
 30
0.0
 11
8919.257109428604
 21
7835.353880529606
 31
0.0
  0
LINE
  5
16A50
330
747D
100
AcDbEntity
  8
部品1
100
AcDbLine
 10
8919.257109428604
 20
7835.353880529606
 30
0.0
 11
8919.257109428604
 21
7826.353880529605
 31
0.0
  0
LINE
  5
16A51
330
747D
100
AcDbEntity
  8
部品1
100
AcDbLine
 10
8889.257109428603
 20
7903.353880529604
 30
0.0
 11
8916.257109428604
 21
7903.353880529604
 31
0.0
  0
LINE
  5
16A52
330
747D
100
AcDbEntity
  8
部品1
100
AcDbLine
 10
8928.257109428603
 20
7899.353880529606
 30
0.0
 11
8916.257109428604
 21
7899.353880529606
 31
0.0
  0
LINE
  5
16A53
330
747D
100
AcDbEntity
  8
部品1
100
AcDbLine
 10
10596.2571094286
 20
7930.353880529605
 30
0.0
 11
10596.2571094286
 21
7899.353880529606
 31
0.0
  0
LINE
  5
16A54
330
747D
100
AcDbEntity
  8
部品1
100
AcDbLine
 10
10584.2571094286
 20
7899.353880529606
 30
0.0
 11
10584.2571094286
 21
7835.353880529606
 31
0.0
  0
LINE
  5
16A55
330
747D
100
AcDbEntity
  8
部品1
100
AcDbLine
 10
10584.2571094286
 20
7835.353880529606
 30
0.0
 11
10593.2571094286
 21
7835.353880529606
 31
0.0
  0
LINE
  5
16A56
330
747D
100
AcDbEntity
  8
部品1
100
AcDbLine
 10
10593.2571094286
 20
7835.353880529606
 30
0.0
 11
10593.2571094286
 21
7826.353880529606
 31
0.0
  0
LINE
  5
16A57
330
747D
100
AcDbEntity
  8
部品1
100
AcDbLine
 10
10584.2571094286
 20
7899.353880529606
 30
0.0
 11
10596.2571094286
 21
7899.353880529606
 31
0.0
  0
LINE
  5
16A58
330
747D
100
AcDbEntity
  8
部品1
100
AcDbLine
 10
10623.2571094286
 20
7826.353880529606
 30
0.0
 11
10623.2571094286
 21
7903.353880529606
 31
0.0
  0
LINE
  5
16A5A
330
747D
100
AcDbEntity
  8
部品1
100
AcDbLine
 10
10596.2571094286
 20
7903.353880529606
 30
0.0
 11
10623.2571094286
 21
7903.353880529606
 31
0.0
  0
DIMENSION
  5
16A5B
330
747D
100
AcDbEntity
  8
寸法
 48
50.0
100
AcDbDimension
  2
*D45
 10
9878.257109428602
 20
7201.27886248138
 30
0.0
 11
9403.257109428603
 21
7201.27886248138
 31
0.0
 70
   160
  1
有効開口部間口\P<>
 71
     5
 42
950.0
  3
INABA_S40
100
AcDbAlignedDimension
 13
8928.257109428603
 23
7826.353880529605
 33
0.0
 14
9878.257109428602
 24
7826.353880529605
 34
0.0
100
AcDbRotatedDimension
1001
ACAD
1000
DSTYLE
1002
{
1070
    41
1040
0.5
1070
    44
1040
1.0
1070
   147
1040
0.8
1070
   271
1070
     2
1070
   272
1070
     2
1070
   289
1070
     3
1070
   340
1005
F706
1070
   343
1005
15650
1070
   344
1005
15650
1002
}
  0
LINE
  5
16A5C
330
747D
100
AcDbEntity
  8
細線
100
AcDbLine
 10
8928.257109428603
 20
7835.353880529606
 30
0.0
 11
8928.257109428603
 21
7831.353880529651
 31
0.0
  0
LINE
  5
16A5D
330
747D
100
AcDbEntity
  8
細線
100
AcDbLine
 10
9084.757002829865
 20
7849.352950075204
 30
0.0
 11
9084.757002829865
 21
7831.35295007518
 31
0.0
  0
LINE
  5
16A5E
330
747D
100
AcDbEntity
  8
細線
100
AcDbLine
 10
9043.757002829865
 20
7849.352950075197
 30
0.0
 11
9043.757002829865
 21
7831.35295007518
 31
0.0
  0
LINE
  5
16A5F
330
747D
100
AcDbEntity
  8
細線
100
AcDbLine
 10
9084.757002829865
 20
7849.352950075204
 30
0.0
 11
9043.757002829865
 21
7849.352950075197
 31
0.0
  0
ARC
  5
16A60
330
747D
100
AcDbEntity
  8
部品1
100
AcDbCircle
 10
9046.301158707143
 20
7830.852950075201
 30
0.0
 40
1.0
100
AcDbArc
 50
270.0
 51
19.47122063442214
  0
LINE
  5
16A61
330
747D
100
AcDbEntity
  8
部品1
 48
0.01
100
AcDbLine
 10
9039.257002829858
 20
7831.352950075201
 30
0.0
 11
9039.257002829858
 21
7830.352950075201
 31
0.0
  0
LINE
  5
16A62
330
747D
100
AcDbEntity
  8
部品1
 48
0.01
100
AcDbLine
 10
9039.757002829857
 20
7829.852950075201
 30
0.0
 11
9046.301158707143
 21
7829.852950075201
 31
0.0
  0
ARC
  5
16A63
330
747D
100
AcDbEntity
  8
部品1
 48
0.01
100
AcDbCircle
 10
9039.757002829857
 20
7830.352950075201
 30
0.0
 40
0.5
100
AcDbArc
 50
180.0
 51
270.0
  0
ARC
  5
16A64
330
747D
100
AcDbEntity
  8
部品1
100
AcDbCircle
 10
9071.757002829858
 20
7839.852950075202
 30
0.0
 40
26.0
100
AcDbArc
 50
180.0
 51
199.4712206344221
  0
ARC
  5
16A65
330
747D
100
AcDbEntity
  8
部品1
 48
0.01
100
AcDbCircle
 10
9047.757002829859
 20
7844.852950075202
 30
0.0
 40
2.0
100
AcDbArc
 50
90.0
 51
180.0
  0
LINE
  5
16A66
330
747D
100
AcDbEntity
  8
部品1
100
AcDbLine
 10
9045.757002829857
 20
7839.852950075202
 30
0.0
 11
9045.757002829857
 21
7844.852950075202
 31
0.0
  0
ARC
  5
16A67
330
747D
100
AcDbEntity
  8
部品1
100
AcDbCircle
 10
9064.257002829858
 20
7855.652950075203
 30
0.0
 40
16.0
100
AcDbArc
 50
218.3930440192126
 51
254.0576313943215
  0
ARC
  5
16A68
330
747D
100
AcDbEntity
  8
部品1
100
AcDbCircle
 10
9049.365394454669
 20
7843.852950075201
 30
0.0
 40
3.0
100
AcDbArc
 50
38.39304401921267
 51
90.0
  0
LINE
  5
16A69
330
747D
100
AcDbEntity
  8
部品1
 48
0.01
100
AcDbLine
 10
9047.757002829859
 20
7846.852950075201
 30
0.0
 11
9049.365394454669
 21
7846.852950075201
 31
0.0
  0
ARC
  5
16A6A
330
747D
100
AcDbEntity
  8
部品1
100
AcDbCircle
 10
9064.257002829858
 20
7855.652950075203
 30
0.0
 40
16.0
100
AcDbArc
 50
285.9423686056786
 51
321.6069559807873
  0
LINE
  5
16A6B
330
747D
100
AcDbEntity
  8
部品1
100
AcDbLine
 10
9067.82771704413
 20
7840.152950075204
 30
0.0
 11
9060.686288615587
 21
7840.152950075204
 31
0.0
  0
ARC
  5
16A6C
330
747D
100
AcDbEntity
  8
部品1
100
AcDbCircle
 10
9067.82771704413
 20
7843.152950075204
 30
0.0
 40
3.0
100
AcDbArc
 50
270.0
 51
285.9423686056786
  0
ARC
  5
16A6D
330
747D
100
AcDbEntity
  8
部品1
100
AcDbCircle
 10
9060.686288615587
 20
7843.152950075204
 30
0.0
 40
3.0
100
AcDbArc
 50
254.0576313943215
 51
270.0
  0
LINE
  5
16A6E
330
747D
100
AcDbEntity
  8
部品1
 48
0.01
100
AcDbLine
 10
9080.757002829859
 20
7846.852950075201
 30
0.0
 11
9079.148611205047
 21
7846.852950075201
 31
0.0
  0
ARC
  5
16A6F
330
747D
100
AcDbEntity
  8
部品1
100
AcDbCircle
 10
9079.148611205047
 20
7843.852950075201
 30
0.0
 40
3.0
100
AcDbArc
 50
90.0
 51
141.6069559807873
  0
ARC
  5
16A70
330
747D
100
AcDbEntity
  8
部品1
 48
0.01
100
AcDbCircle
 10
9080.757002829859
 20
7844.852950075202
 30
0.0
 40
2.0
100
AcDbArc
 50
0.0
 51
90.0
  0
LINE
  5
16A71
330
747D
100
AcDbEntity
  8
部品1
100
AcDbLine
 10
9082.757002829858
 20
7839.852950075202
 30
0.0
 11
9082.757002829858
 21
7844.852950075202
 31
0.0
  0
ARC
  5
16A72
330
747D
100
AcDbEntity
  8
部品1
100
AcDbCircle
 10
9056.757002829858
 20
7839.852950075202
 30
0.0
 40
26.0
100
AcDbArc
 50
340.5287793655779
 51
0.0
  0
ARC
  5
16A73
330
747D
100
AcDbEntity
  8
部品1
100
AcDbCircle
 10
9082.212846952574
 20
7830.852950075201
 30
0.0
 40
1.0
100
AcDbArc
 50
160.5287793655778
 51
270.0
  0
LINE
  5
16A74
330
747D
100
AcDbEntity
  8
部品1
 48
0.01
100
AcDbLine
 10
9088.757002829858
 20
7829.852950075201
 30
0.0
 11
9082.144497399795
 21
7829.852950075201
 31
0.0
  0
LINE
  5
16A75
330
747D
100
AcDbEntity
  8
部品1
 48
0.01
100
AcDbLine
 10
9089.257002829858
 20
7831.352950075201
 30
0.0
 11
9089.257002829858
 21
7830.352950075201
 31
0.0
  0
LINE
  5
16A76
330
747D
100
AcDbEntity
  8
部品1
 48
0.01
100
AcDbLine
 10
9089.257002829858
 20
7831.352950075201
 30
0.0
 11
9089.257002829858
 21
7830.352950075201
 31
0.0
  0
ARC
  5
16A77
330
747D
100
AcDbEntity
  8
部品1
 48
0.01
100
AcDbCircle
 10
9088.757002829858
 20
7830.352950075201
 30
0.0
 40
0.5
100
AcDbArc
 50
270.0
 51
0.0
  0
LINE
  5
16A78
330
747D
100
AcDbEntity
  8
細線
100
AcDbLine
 10
9229.257101243184
 20
7831.354072260269
 30
0.0
 11
9231.588639533953
 21
7836.354072260255
 31
0.0
  0
LINE
  5
16A79
330
747D
100
AcDbEntity
  8
細線
100
AcDbLine
 10
9299.257109428602
 20
7831.35405470656
 30
0.0
 11
9296.925562952415
 21
7836.354072260236
 31
0.0
  0
LINE
  5
16A7A
330
747D
100
AcDbEntity
  8
細線
100
AcDbLine
 10
9296.925562952415
 20
7836.354072260236
 30
0.0
 11
9231.58863953394
 21
7836.354072260225
 31
0.0
  0
LINE
  5
16A7B
330
747D
100
AcDbEntity
  8
細線
100
AcDbLine
 10
9436.925562952415
 20
7836.354072260236
 30
0.0
 11
9371.588639533941
 21
7836.354072260229
 31
0.0
  0
LINE
  5
16A7C
330
747D
100
AcDbEntity
  8
細線
100
AcDbLine
 10
9439.2571094286
 20
7831.35405470656
 30
0.0
 11
9436.925562952415
 21
7836.354072260236
 31
0.0
  0
LINE
  5
16A7D
330
747D
100
AcDbEntity
  8
細線
100
AcDbLine
 10
9369.257101243185
 20
7831.354072260272
 30
0.0
 11
9371.588639533953
 21
7836.354072260258
 31
0.0
  0
LINE
  5
16A7E
330
747D
100
AcDbEntity
  8
細線
100
AcDbLine
 10
9675.925571137831
 20
7870.353900579527
 30
0.0
 11
9610.588647719357
 21
7870.353900579518
 31
0.0
  0
LINE
  5
16A7F
330
747D
100
AcDbEntity
  8
細線
100
AcDbLine
 10
9678.25711761402
 20
7865.353883025851
 30
0.0
 11
9675.925571137831
 21
7870.353900579527
 31
0.0
  0
LINE
  5
16A80
330
747D
100
AcDbEntity
  8
細線
100
AcDbLine
 10
9608.257109428604
 20
7865.35390057956
 30
0.0
 11
9610.588647719371
 21
7870.353900579546
 31
0.0
  0
LINE
  5
16A81
330
747D
100
AcDbEntity
  8
細線
100
AcDbLine
 10
9748.25707410971
 20
7865.353892392191
 30
0.0
 11
9750.588612400477
 21
7870.353892392177
 31
0.0
  0
LINE
  5
16A82
330
747D
100
AcDbEntity
  8
細線
100
AcDbLine
 10
9818.257082295126
 20
7865.353874838482
 30
0.0
 11
9815.925535818937
 21
7870.353892392163
 31
0.0
  0
LINE
  5
16A83
330
747D
100
AcDbEntity
  8
細線
100
AcDbLine
 10
9815.925535818939
 20
7870.353892392163
 30
0.0
 11
9750.588612400463
 21
7870.353892392149
 31
0.0
  0
LINE
  5
16A84
330
747D
100
AcDbEntity
  8
細線
100
AcDbLine
 10
9955.925572368874
 20
7870.353872088421
 30
0.0
 11
9890.588648950402
 21
7870.353872088407
 31
0.0
  0
LINE
  5
16A85
330
747D
100
AcDbEntity
  8
細線
100
AcDbLine
 10
9958.257118845063
 20
7865.35385453474
 30
0.0
 11
9955.925572368874
 21
7870.353872088421
 31
0.0
  0
LINE
  5
16A86
330
747D
100
AcDbEntity
  8
細線
100
AcDbLine
 10
9888.257109428604
 20
7865.353869448473
 30
0.0
 11
9890.588648950414
 21
7870.353872088435
 31
0.0
  0
LINE
  5
16A87
330
747D
100
AcDbEntity
  8
細線
 48
50.0
100
AcDbLine
 10
9831.119331353153
 20
7865.353892392191
 30
0.0
 11
9836.874848935821
 21
7883.624743682685
 31
0.0
  0
LINE
  5
16A88
330
747D
100
AcDbEntity
  8
細線
 48
50.0
100
AcDbLine
 10
9836.874848935821
 20
7883.624743682685
 30
0.0
 11
9847.803297416254
 21
7883.624743682685
 31
0.0
  0
ARC
  5
16A89
330
747D
100
AcDbEntity
  8
細線
 48
50.0
100
AcDbCircle
 10
9847.803297416254
 20
7882.624743682685
 30
0.0
 40
1.0
100
AcDbArc
 50
24.62431835213048
 51
90.0
  0
ARC
  5
16A8A
330
747D
100
AcDbEntity
  8
細線
 48
50.0
100
AcDbCircle
 10
9858.71200953089
 20
7882.624743682685
 30
0.0
 40
1.0
100
AcDbArc
 50
90.0
 51
155.3756816478695
  0
ARC
  5
16A8B
330
747D
100
AcDbEntity
  8
細線
 48
50.0
100
AcDbCircle
 10
9853.257653473571
 20
7885.124743682685
 30
0.0
 40
5.0
100
AcDbArc
 50
204.6243183521304
 51
335.3756816478695
  0
LINE
  5
16A8C
330
747D
100
AcDbEntity
  8
細線
 48
50.0
100
AcDbLine
 10
9858.71200953089
 20
7883.624743682685
 30
0.0
 11
9869.640458011319
 21
7883.624743682685
 31
0.0
  0
LINE
  5
16A8D
330
747D
100
AcDbEntity
  8
細線
 48
50.0
100
AcDbLine
 10
9869.640458011319
 20
7883.624743682685
 30
0.0
 11
9875.395975593988
 21
7865.353892392199
 31
0.0
  0
LINE
  5
16A8E
330
747D
100
AcDbEntity
  8
細線
100
AcDbLine
 10
10193.92557236887
 20
7904.353883169552
 30
0.0
 11
10128.5886489504
 21
7904.353883169537
 31
0.0
  0
LINE
  5
16A8F
330
747D
100
AcDbEntity
  8
細線
100
AcDbLine
 10
10196.25711884506
 20
7899.353865615871
 30
0.0
 11
10193.92557236887
 21
7904.353883169552
 31
0.0
  0
LINE
  5
16A90
330
747D
100
AcDbEntity
  8
細線
100
AcDbLine
 10
10126.2571094286
 20
7899.353880529606
 30
0.0
 11
10128.58864895041
 21
7904.353883169566
 31
0.0
  0
LINE
  5
16A91
330
747D
100
AcDbEntity
  8
細線
100
AcDbLine
 10
10266.25710001214
 20
7899.353895443339
 30
0.0
 11
10268.58863953395
 21
7904.3538980833
 31
0.0
  0
LINE
  5
16A92
330
747D
100
AcDbEntity
  8
細線
100
AcDbLine
 10
10336.2571094286
 20
7899.353880529606
 30
0.0
 11
10333.92556295241
 21
7904.353898083285
 31
0.0
  0
LINE
  5
16A93
330
747D
100
AcDbEntity
  8
細線
100
AcDbLine
 10
10333.92556295241
 20
7904.353898083285
 30
0.0
 11
10268.58863953394
 21
7904.353898083271
 31
0.0
  0
LINE
  5
16A94
330
747D
100
AcDbEntity
  8
細線
100
AcDbLine
 10
10473.92556295241
 20
7904.353898083285
 30
0.0
 11
10408.58863953394
 21
7904.353898083271
 31
0.0
  0
LINE
  5
16A95
330
747D
100
AcDbEntity
  8
細線
100
AcDbLine
 10
10476.2571094286
 20
7899.353880529606
 30
0.0
 11
10473.92556295241
 21
7904.353898083285
 31
0.0
  0
LINE
  5
16A96
330
747D
100
AcDbEntity
  8
細線
100
AcDbLine
 10
10406.25710001214
 20
7899.353895443339
 30
0.0
 11
10408.58863953395
 21
7904.3538980833
 31
0.0
  0
LINE
  5
16A97
330
747D
100
AcDbEntity
  8
細線
 48
50.0
100
AcDbLine
 10
9516.757109428608
 20
7875.550134920508
 30
0.0
 11
8928.257109428603
 21
7875.550134920505
 31
0.0
  0
LINE
  5
16A98
330
747D
100
AcDbEntity
  8
細線
 48
50.0
100
AcDbLine
 10
9557.757109428605
 20
7846.145226924256
 30
0.0
 11
10584.2571094286
 21
7846.145226924254
 31
0.0
  0
LINE
  5
16A99
330
747D
100
AcDbEntity
  8
細線
 48
50.0
100
AcDbLine
 10
10049.75711457951
 20
7879.853995478331
 30
0.0
 11
10584.2571094286
 21
7879.853995478331
 31
0.0
  0
LINE
  5
16A9A
330
747D
100
AcDbEntity
  8
寸法
 48
50.0
100
AcDbLine
 10
9500.757928407002
 20
7714.612588583804
 30
0.0
 11
9719.909868582725
 21
7714.612588583804
 31
0.0
  0
LINE
  5
16A9B
330
747D
100
AcDbEntity
  8
寸法
 48
50.0
100
AcDbLine
 10
9719.909868582725
 20
7714.612588583804
 30
0.0
 11
9630.625649987303
 21
7738.536222853291
 31
0.0
  0
LINE
  5
16A9C
330
747D
100
AcDbEntity
  8
寸法
 48
50.0
100
AcDbLine
 10
9630.625649987303
 20
7738.536222853291
 30
0.0
 11
9630.625649987303
 21
7684.872588271502
 31
0.0
  0
LINE
  5
16A9D
330
747D
100
AcDbEntity
  8
寸法
 48
50.0
100
AcDbLine
 10
9300.054107800345
 20
7681.390632098469
 30
0.0
 11
9351.460115710448
 21
7681.390632098469
 31
0.0
  0
LINE
  5
16A9E
330
747D
100
AcDbEntity
  8
寸法
 48
50.0
100
AcDbLine
 10
9351.460115710448
 20
7681.390632098469
 30
0.0
 11
9351.460115710448
 21
7712.700790750634
 31
0.0
  0
LINE
  5
16A9F
330
747D
100
AcDbEntity
  8
寸法
 48
50.0
100
AcDbLine
 10
9351.460115710448
 20
7712.700790750634
 30
0.0
 11
9381.221447701872
 21
7712.700790750634
 31
0.0
  0
LINE
  5
16AA0
330
747D
100
AcDbEntity
  8
寸法
 48
50.0
100
AcDbLine
 10
9381.221447701872
 20
7712.700790750634
 30
0.0
 11
9325.757111755397
 21
7750.280241679243
 31
0.0
  0
LINE
  5
16AA1
330
747D
100
AcDbEntity
  8
寸法
 48
50.0
100
AcDbLine
 10
9270.292775808922
 20
7712.700790750634
 30
0.0
 11
9325.757111755397
 21
7750.280241679243
 31
0.0
  0
LINE
  5
16AA2
330
747D
100
AcDbEntity
  8
寸法
 48
50.0
100
AcDbLine
 10
9300.054107800345
 20
7712.700790750634
 30
0.0
 11
9270.292775808922
 21
7712.700790750634
 31
0.0
  0
LINE
  5
16AA3
330
747D
100
AcDbEntity
  8
寸法
 48
50.0
100
AcDbLine
 10
9300.054107800345
 20
7681.390632098469
 30
0.0
 11
9300.054107800345
 21
7712.700790750634
 31
0.0
  0
LINE
  5
16AA4
330
747D
100
AcDbEntity
  8
寸法
 48
50.0
100
AcDbLine
 10
9351.460115710448
 20
7681.390632098469
 30
0.0
 11
9300.054107800345
 21
7681.390632098469
 31
0.0
  0
DIMENSION
  5
16CAD
330
747D
100
AcDbEntity
  8
寸法
100
AcDbDimension
  2
*D46
 10
8566.645863801916
 20
7828.353880529599
 30
0.0
 11
8566.645863801914
 21
7687.868599155361
 31
0.0
 70
   160
 71
     5
 42
75.0
  3
INABA_S40
100
AcDbAlignedDimension
 13
8861.257109428633
 23
7903.353880529599
 33
0.0
 14
8889.25710942861
 24
7828.353880529599
 34
0.0
 50
90.0
100
AcDbRotatedDimension
1001
ACAD
1000
DSTYLE
1002
{
1070
    41
1040
0.5
1070
    44
1040
1.0
1070
   147
1040
0.8
1070
   271
1070
     2
1070
   272
1070
     2
1070
   289
1070
     3
1070
   340
1005
F706
1070
   343
1005
15650
1070
   344
1005
15650
1002
}
  0
DIMENSION
  5
16F71
330
747D
100
AcDbEntity
  8
寸法
 48
50.0
100
AcDbDimension
  2
*D47
 10
10623.2571094286
 20
6951.283610678824
 30
0.0
 11
9746.838853380424
 21
6951.283610678824
 31
0.0
 70
   160
 71
     5
 42
1734.0
  3
INABA_S40G
100
AcDbAlignedDimension
 13
8889.257109428603
 23
7826.353880529605
 33
0.0
 14
10623.2571094286
 24
7826.353880529604
 34
0.0
100
AcDbRotatedDimension
1001
ACAD
1000
DSTYLE
1002
{
1070
   341
1005
0
1002
}
  0
LWPOLYLINE
  5
16FDC
330
747D
100
AcDbEntity
  8
部品1
 48
50.0
100
AcDbPolyline
 90
        4
 70
     1
 43
0.0
 10
8988.30710942863
 20
3594.181598713261
 10
8991.207109428632
 20
3594.181598713261
 10
8991.207109428632
 20
3603.681598713261
 10
8988.30710942863
 20
3603.681598713261
  0
CIRCLE
  5
16FDD
330
747D
100
AcDbEntity
  8
部品1
 48
50.0
100
AcDbCircle
 10
8989.75710942863
 20
3598.931598713261
 30
0.0
 40
9.0
  0
ARC
  5
16FDE
330
747D
100
AcDbEntity
  8
細線
 48
50.0
100
AcDbCircle
 10
8989.75710942863
 20
3598.931598713261
 30
0.0
 40
4.0
100
AcDbArc
 50
111.2538091853132
 51
248.7461908146868
  0
ARC
  5
16FDF
330
747D
100
AcDbEntity
  8
細線
 48
50.0
100
AcDbCircle
 10
8989.75710942863
 20
3598.931598713261
 30
0.0
 40
17.5
100
AcDbArc
 50
306.4837370612677
 51
233.5162629387323
  0
LINE
  5
16FE0
330
747D
100
AcDbEntity
  8
細線
 48
50.0
100
AcDbLine
 10
8999.757109428626
 20
3575.072638132379
 30
0.0
 11
8999.75710942863
 21
3584.05712393262
 31
0.0
  0
LINE
  5
16FE1
330
747D
100
AcDbEntity
  8
細線
 48
50.0
100
AcDbLine
 10
8979.75710942863
 20
3575.07263813238
 30
0.0
 11
8979.75710942863
 21
3584.057123932617
 31
0.0
  0
ARC
  5
16FE2
330
747D
100
AcDbEntity
  8
細線
 48
50.0
100
AcDbCircle
 10
8989.75710942863
 20
3598.931598713261
 30
0.0
 40
26.5
100
AcDbArc
 50
249.3326835063939
 51
290.6673164933835
  0
ARC
  5
16FE3
330
747D
100
AcDbEntity
  8
細線
 48
50.0
100
AcDbCircle
 10
8998.757109428623
 20
3575.072638132379
 30
0.0
 40
1.0
100
AcDbArc
 50
290.6673164936062
 51
359.9999999998958
  0
ARC
  5
16FE4
330
747D
100
AcDbEntity
  8
細線
 48
50.0
100
AcDbCircle
 10
8980.75710942863
 20
3575.07263813238
 30
0.0
 40
1.0
100
AcDbArc
 50
180.0
 51
249.3326835066164
  0
ARC
  5
16FE5
330
747D
100
AcDbEntity
  8
細線
 48
50.0
100
AcDbCircle
 10
8978.757109428631
 20
3584.057123932617
 30
0.0
 40
1.0
100
AcDbArc
 50
0.0
 51
53.51626293873231
  0
ARC
  5
16FE6
330
747D
100
AcDbEntity
  8
細線
 48
50.0
100
AcDbCircle
 10
9000.757109428635
 20
3584.05712393262
 30
0.0
 40
1.0
100
AcDbArc
 50
126.4837370615127
 51
180.0
  0
ARC
  5
16FE7
330
747D
100
AcDbEntity
  8
細線
 48
50.0
100
AcDbCircle
 10
8989.75710942863
 20
3598.931598713261
 30
0.0
 40
21.5
100
AcDbArc
 50
255.8014401250294
 51
284.1985598749706
  0
ARC
  5
16FE8
330
747D
100
AcDbEntity
  8
細線
 48
50.0
100
AcDbCircle
 10
8989.75710942863
 20
3598.931598713261
 30
0.0
 40
16.5
100
AcDbArc
 50
251.9694646069326
 51
288.0305353930674
  0
LINE
  5
16FE9
330
747D
100
AcDbEntity
  8
細線
 48
50.0
100
AcDbLine
 10
8995.257109428631
 20
3578.379226587454
 30
0.0
 11
8995.257109428631
 21
3582.956618274791
 31
0.0
  0
LINE
  5
16FEA
330
747D
100
AcDbEntity
  8
細線
 48
50.0
100
AcDbLine
 10
8984.25710942863
 20
3578.379226587454
 30
0.0
 11
8984.25710942863
 21
3582.95661827479
 31
0.0
  0
ARC
  5
16FEB
330
747D
100
AcDbEntity
  8
細線
 48
50.0
100
AcDbCircle
 10
8984.557109428633
 20
3582.95661827479
 30
0.0
 40
0.3
100
AcDbArc
 50
71.96946460693259
 51
180.0
  0
ARC
  5
16FEC
330
747D
100
AcDbEntity
  8
細線
 48
50.0
100
AcDbCircle
 10
8994.95710942863
 20
3582.956618274791
 30
0.0
 40
0.3
100
AcDbArc
 50
0.0
 51
108.0305353930674
  0
ARC
  5
16FED
330
747D
100
AcDbEntity
  8
細線
 48
50.0
100
AcDbCircle
 10
8994.957109428627
 20
3578.379226587454
 30
0.0
 40
0.3
100
AcDbArc
 50
284.1985598747622
 51
0.0000000001042204
  0
ARC
  5
16FEE
330
747D
100
AcDbEntity
  8
細線
 48
50.0
100
AcDbCircle
 10
8984.557109428633
 20
3578.379226587454
 30
0.0
 40
0.3
100
AcDbArc
 50
180.0
 51
255.8014401248081
  0
CIRCLE
  5
16FEF
330
747D
100
AcDbEntity
  8
細線
 48
50.0
100
AcDbCircle
 10
8989.75710942863
 20
3598.931598713261
 30
0.0
 40
12.0
  0
ARC
  5
16FF0
330
747D
100
AcDbEntity
  8
部品1
 48
50.0
100
AcDbCircle
 10
8989.75710942863
 20
3648.931598713261
 30
0.0
 40
8.5
100
AcDbArc
 50
114.315739171091
 51
245.684260828909
  0
CIRCLE
  5
16FF1
330
747D
100
AcDbEntity
  8
細線
 48
50.0
100
AcDbCircle
 10
8989.75710942863
 20
3648.931598713261
 30
0.0
 40
4.5
  0
LWPOLYLINE
  5
16FF2
330
747D
100
AcDbEntity
  8
部品1
 48
50.0
100
AcDbPolyline
 90
        2
 70
     0
 43
0.0
 10
8986.257109428631
 20
3667.606448110245
 10
8986.257109428631
 20
3656.677565405676
  0
CIRCLE
  5
16FF3
330
747D
100
AcDbEntity
  8
部品1
 48
50.0
100
AcDbCircle
 10
8989.75710942863
 20
3648.931598713261
 30
0.0
 40
19.0
  0
LWPOLYLINE
  5
16FF4
330
747D
100
AcDbEntity
  8
部品1
 48
50.0
100
AcDbPolyline
 90
        2
 70
     0
 43
0.0
 10
8986.257109428631
 20
3641.185632020846
 10
8986.257109428631
 20
3630.256749316279
  0
LWPOLYLINE
  5
16FF5
330
747D
100
AcDbEntity
  8
部品1
 48
50.0
100
AcDbPolyline
 90
        2
 70
     0
 43
0.0
 10
8993.257109428631
 20
3656.677565405676
 10
8993.257109428631
 20
3667.606448110245
  0
ARC
  5
16FF6
330
747D
100
AcDbEntity
  8
部品1
 48
50.0
100
AcDbCircle
 10
8989.75710942863
 20
3648.931598713261
 30
0.0
 40
8.5
100
AcDbArc
 50
294.315739171091
 51
65.68426082890896
  0
LWPOLYLINE
  5
16FF7
330
747D
100
AcDbEntity
  8
部品1
 48
50.0
100
AcDbPolyline
 90
        2
 70
     0
 43
0.0
 10
8993.257109428631
 20
3630.256749316279
 10
8993.257109428631
 20
3641.185632020846
  0
ARC
  5
16FF8
330
747D
100
AcDbEntity
  8
細線
 48
50.0
100
AcDbCircle
 10
8989.75710942863
 20
3648.931598713261
 30
0.0
 40
16.5
100
AcDbArc
 50
332.0012352654438
 51
27.99876473455621
  0
ARC
  5
16FF9
330
747D
100
AcDbEntity
  8
細線
 48
50.0
100
AcDbCircle
 10
8989.75710942863
 20
3648.931598713261
 30
0.0
 40
14.0
100
AcDbArc
 50
326.4074436112986
 51
33.59255638870134
  0
LINE
  5
16FFA
330
747D
100
AcDbEntity
  8
細線
 48
50.0
100
AcDbLine
 10
8975.188307144298
 20
3656.677565405676
 30
0.0
 11
8978.095205638942
 21
3656.677565405676
 31
0.0
  0
LINE
  5
16FFB
330
747D
100
AcDbEntity
  8
細線
 48
50.0
100
AcDbLine
 10
8975.188307144298
 20
3641.185632020846
 30
0.0
 11
8978.095205638942
 21
3641.185632020846
 31
0.0
  0
LINE
  5
16FFC
330
747D
100
AcDbEntity
  8
細線
 48
50.0
100
AcDbLine
 10
9001.41901321832
 20
3656.677565405676
 30
0.0
 11
9004.325911712966
 21
3656.677565405676
 31
0.0
  0
LINE
  5
16FFD
330
747D
100
AcDbEntity
  8
細線
 48
50.0
100
AcDbLine
 10
9001.41901321832
 20
3641.185632020846
 30
0.0
 11
9004.325911712966
 21
3641.185632020846
 31
0.0
  0
ARC
  5
16FFE
330
747D
100
AcDbEntity
  8
細線
 48
50.0
100
AcDbCircle
 10
8989.75710942863
 20
3648.931598713261
 30
0.0
 40
14.0
100
AcDbArc
 50
146.4074436112986
 51
213.5925563887013
  0
ARC
  5
16FFF
330
747D
100
AcDbEntity
  8
細線
 48
50.0
100
AcDbCircle
 10
8989.75710942863
 20
3648.931598713261
 30
0.0
 40
16.5
100
AcDbArc
 50
152.0012352654438
 51
207.9987647345562
  0
ARC
  5
17000
330
747D
100
AcDbEntity
  8
部品1
 48
50.0
100
AcDbCircle
 10
8963.25710942863
 20
3674.431598713262
 30
0.0
 40
5.0
100
AcDbArc
 50
90.0
 51
180.0
  0
ARC
  5
17001
330
747D
100
AcDbEntity
  8
部品1
 48
50.0
100
AcDbCircle
 10
8963.25710942863
 20
3563.431598713262
 30
0.0
 40
5.0
100
AcDbArc
 50
180.0
 51
270.0
  0
ARC
  5
17002
330
747D
100
AcDbEntity
  8
部品1
 48
50.0
100
AcDbCircle
 10
9016.257109428631
 20
3563.431598713262
 30
0.0
 40
5.0
100
AcDbArc
 50
270.0
 51
0.0
  0
ARC
  5
17003
330
747D
100
AcDbEntity
  8
部品1
 48
50.0
100
AcDbCircle
 10
9016.257109428631
 20
3674.431598713262
 30
0.0
 40
5.0
100
AcDbArc
 50
0.0
 51
90.0
  0
LINE
  5
17005
330
747D
100
AcDbEntity
  8
部品1
 48
50.0
100
AcDbLine
 10
8958.257109428631
 20
3563.431598713262
 30
0.0
 11
8958.257109428631
 21
3674.431598713262
 31
0.0
  0
LINE
  5
17006
330
747D
100
AcDbEntity
  8
部品1
 48
50.0
100
AcDbLine
 10
9016.257109428631
 20
3558.431598713261
 30
0.0
 11
8963.25710942863
 21
3558.431598713261
 31
0.0
  0
LINE
  5
17007
330
747D
100
AcDbEntity
  8
部品1
 48
50.0
100
AcDbLine
 10
9021.25710942863
 20
3674.431598713262
 30
0.0
 11
9021.25710942863
 21
3563.431598713262
 31
0.0
  0
VIEWPORT
  5
16527
102
{ACAD_XDICTIONARY
360
17033
102
}
330
747A
100
AcDbEntity
 67
     1
  8
0
 48
50.0
100
AcDbViewport
 10
145.330337524414
 20
101.8116638660431
 30
0.0
 40
403.9882999079692
 41
221.3468828837077
 68
     1
 69
     1
 12
145.330337524414
 22
101.8116638660431
 13
0.0
 23
0.0
 14
10.0
 24
10.0
 15
10.0
 25
10.0
 16
0.0
 26
0.0
 36
1.0
 17
0.0
 27
0.0
 37
0.0
 42
50.0
 43
0.0
 44
0.0
 45
221.3468828837077
 50
0.0
 51
0.0
 72
     0
 90
    32800
  1

281
     0
 71
     1
 74
     0
110
0.0
120
0.0
130
0.0
111
1.0
121
0.0
131
0.0
112
0.0
122
1.0
132
0.0
 79
     0
146
0.0
  0
VIEWPORT
  5
16529
102
{ACAD_XDICTIONARY
360
17035
102
}
330
747A
100
AcDbEntity
 67
     1
  8
0
 48
50.0
100
AcDbViewport
 10
145.3303314447403
 20
101.8116623163223
 30
0.0
 40
232.5285303115845
 41
162.8986597061157
 68
     2
 69
     2
 12
1134.765974142687
 22
1406.118915390205
 13
0.0
 23
0.0
 14
10.0
 24
10.0
 15
10.0
 25
10.0
 16
0.0
 26
0.0
 36
1.0
 17
0.0
 27
0.0
 37
0.0
 42
50.0
 43
0.0
 44
0.0
 45
27265.98310237542
 50
0.0
 51
0.0
 72
     0
 90
    32768
  1

281
     0
 71
     1
 74
     0
110
0.0
120
0.0
130
0.0
111
1.0
121
0.0
131
0.0
112
0.0
122
1.0
132
0.0
 79
     0
146
0.0
  0
ENDSEC
  0
SECTION
  2
OBJECTS
  0
DICTIONARY
  5
7471
330
0
100
AcDbDictionary
281
     1
  3
ACAD_COLOR
350
15645
  3
ACAD_GROUP
350
7472
  3
ACAD_LAYOUT
350
15646
  3
ACAD_MATERIAL
350
15644
  3
ACAD_MLINESTYLE
350
7473
  3
ACAD_PLOTSETTINGS
350
15647
  3
ACAD_PLOTSTYLENAME
350
15642
  3
ACDBHEADERROUNDTRIPXREC
350
1702C
  3
AcDbVariableDictionary
350
17028
  3
CONTENTDICTIONARY
350
E71C
  3
DRAWINGVARIABLESDICT
350
F3B9
  0
DICTIONARY
  5
157DF
330
7467
100
AcDbDictionary
280
     1
281
     1
  3
ACAD_LAYERSTATES
360
157E0
  0
DICTIONARY
  5
17033
330
16527
100
AcDbDictionary
280
     1
281
     1
  3
ACAD_XREC_ROUNDTRIP
360
17034
  0
DICTIONARY
  5
17035
330
16529
100
AcDbDictionary
280
     1
281
     1
  3
ACAD_XREC_ROUNDTRIP
360
17036
  0
DICTIONARY
  5
15645
102
{ACAD_REACTORS
330
7471
102
}
330
7471
100
AcDbDictionary
281
     1
  0
DICTIONARY
  5
7472
102
{ACAD_REACTORS
330
7471
102
}
330
7471
100
AcDbDictionary
281
     1
  0
DICTIONARY
  5
15646
102
{ACAD_REACTORS
330
7471
102
}
330
7471
100
AcDbDictionary
281
     1
  3
Model
350
15648
  3
レイアウト1
350
15649
  0
DICTIONARY
  5
15644
102
{ACAD_REACTORS
330
7471
102
}
330
7471
100
AcDbDictionary
281
     1
  0
DICTIONARY
  5
7473
102
{ACAD_REACTORS
330
7471
102
}
330
7471
100
AcDbDictionary
281
     1
  3
STANDARD
350
7480
  0
DICTIONARY
  5
15647
102
{ACAD_REACTORS
330
7471
102
}
330
7471
100
AcDbDictionary
281
     1
  0
ACDBDICTIONARYWDFLT
  5
15642
102
{ACAD_REACTORS
330
7471
102
}
330
7471
100
AcDbDictionary
281
     1
  3
Normal
350
15643
100
AcDbDictionaryWithDefault
340
15643
  0
DICTIONARY
  5
1702C
102
{ACAD_REACTORS
330
7471
102
}
330
7471
100
AcDbDictionary
281
     1
  3
COLORDICT
350
1702E
  3
MATERIALDICT
350
1702D
  0
DICTIONARY
  5
17028
102
{ACAD_REACTORS
330
7471
102
}
330
7471
100
AcDbDictionary
281
     1
  3
DIMASSOC
350
17029
  3
PROJECTNAME
350
1702A
  0
DICTIONARY
  5
E71C
102
{ACAD_REACTORS
330
7471
102
}
330
7471
100
AcDbDictionary
281
     1
  0
DICTIONARY
  5
F3B9
102
{ACAD_REACTORS
330
7471
102
}
330
7471
100
AcDbDictionary
281
     1
1001
DRAWINGVARIABLESXDATA
1000
POLARMODE
1000
1
  0
DICTIONARY
  5
157E0
102
{ACAD_REACTORS
330
157DF
102
}
330
157DF
100
AcDbDictionary
281
     1
  0
XRECORD
  5
17034
102
{ACAD_REACTORS
330
17033
102
}
330
17033
100
AcDbXrecord
280
     1
102
SHADEPLOT
 70
     0
  0
XRECORD
  5
17036
102
{ACAD_REACTORS
330
17035
102
}
330
17035
100
AcDbXrecord
280
     1
102
SHADEPLOT
 70
     0
  0
LAYOUT
  5
15648
102
{ACAD_XDICTIONARY
360
1702F
102
}
102
{ACAD_REACTORS
330
15646
102
}
330
15646
100
AcDbPlotSettings
  1

  2
クセロPDF
  4
A3
  6

 40
3.174999952316284
 41
3.174999952316284
 42
3.17498779296875
 43
3.17498779296875
 44
419.9466552734374
 45
296.9259948730469
 46
0.0
 47
0.0
 48
3.619013395666115
 49
-4.192117100517862
140
820.022926294543
141
573.2392198881443
142
1.0
143
39.99735023620806
 70
 11952
 72
     1
 73
     0
 74
     2
  7
inaba.ctb
 75
     0
147
0.0250016562120842
148
25.79074261211281
149
125.8223078213959
100
AcDbLayout
  1
Model
 70
     1
 71
     0
 10
0.0
 20
0.0
 11
12.0
 21
9.0
 12
0.0
 22
0.0
 32
0.0
 14
0.0
 24
0.0
 34
0.0
 15
0.0
 25
0.0
 35
0.0
146
0.0
 13
0.0
 23
0.0
 33
0.0
 16
1.0
 26
0.0
 36
0.0
 17
0.0
 27
1.0
 37
0.0
 76
     0
330
747D
  0
LAYOUT
  5
15649
102
{ACAD_XDICTIONARY
360
17031
102
}
102
{ACAD_REACTORS
330
15646
102
}
330
15646
100
AcDbPlotSettings
  1

  2
Microsoft Office Document Image Writer
  4
A4
  6

 40
3.174999952316284
 41
3.174999952316284
 42
3.175003051757812
 43
3.17498779296875
 44
209.9733276367187
 45
297.0106506347656
 46
0.0
 47
0.0
 48
0.0
 49
0.0
140
0.0
141
0.0
142
1.0
143
1.0
 70
   688
 72
     1
 73
     1
 74
     5
  7

 75
    16
147
1.0
148
0.0
149
0.0
100
AcDbLayout
  1
レイアウト1
 70
     0
 71
     1
 10
-3.17498779296875
 20
-3.174999952316284
 11
293.8356628417969
 21
206.7983276844024
 12
0.0
 22
0.0
 32
0.0
 14
29.06606628894805
 24
20.36233246326446
 34
0.0
 15
261.5945966005325
 25
183.2609921693802
 35
0.0
146
0.0
 13
0.0
 23
0.0
 33
0.0
 16
1.0
 26
0.0
 36
0.0
 17
0.0
 27
1.0
 37
0.0
 76
     0
330
747A
331
16527
  0
MLINESTYLE
  5
7480
102
{ACAD_REACTORS
330
7473
102
}
330
7473
100
AcDbMlineStyle
  2
STANDARD
 70
     0
  3

 62
     0
 51
90.0
 52
90.0
 71
     2
 49
0.5
 62
   256
  6
BYLAYER
 49
-0.5
 62
   256
  6
BYLAYER
  0
ACDBPLACEHOLDER
  5
15643
102
{ACAD_REACTORS
330
15642
102
}
330
15642
  0
XRECORD
  5
1702E
102
{ACAD_REACTORS
330
1702C
102
}
330
1702C
100
AcDbXrecord
280
     1
340
15645
  0
XRECORD
  5
1702D
102
{ACAD_REACTORS
330
1702C
102
}
330
1702C
100
AcDbXrecord
280
     1
340
15644
  0
DICTIONARYVAR
  5
17029
102
{ACAD_REACTORS
330
17028
102
}
330
17028
100
DictionaryVariables
280
     0
  1
1
  0
DICTIONARYVAR
  5
1702A
102
{ACAD_REACTORS
330
17028
102
}
330
17028
100
DictionaryVariables
280
     0
  1

  0
DICTIONARY
  5
1702F
330
15648
100
AcDbDictionary
280
     1
281
     1
  3
ACAD_XREC_ROUNDTRIP
360
17030
  0
DICTIONARY
  5
17031
330
15649
100
AcDbDictionary
280
     1
281
     1
  3
ACAD_XREC_ROUNDTRIP
360
17032
  0
XRECORD
  5
17030
102
{ACAD_REACTORS
330
1702F
102
}
330
1702F
100
AcDbXrecord
280
     1
102
SHADEPLOT
 70
     0
102
SHADEPLOTRESLEVEL
 70
     2
102
SHADEPLOTCUSTOMDPI
 70
   150
  0
XRECORD
  5
17032
102
{ACAD_REACTORS
330
17031
102
}
330
17031
100
AcDbXrecord
280
     1
102
SHADEPLOT
 70
     0
102
SHADEPLOTRESLEVEL
 70
     2
102
SHADEPLOTCUSTOMDPI
 70
   300
  0
ENDSEC
  0
EOF
