  0
SECTION
  2
HEADER
  9
$ACADVER
  1
AC1015
  9
$ACADMAINTVER
 70
    20
  9
$DWGCODEPAGE
  3
ANSI_932
  9
$INSBASE
 10
0.0
 20
0.0
 30
0.0
  9
$EXTMIN
 10
139.9999999999995
 20
-0.0000000000000909
 30
0.0
  9
$EXTMAX
 10
16307.2
 20
11409.6
 30
0.0
  9
$LIMMIN
 10
0.0
 20
0.0
  9
$LIMMAX
 10
16800.0
 20
11880.0
  9
$ORTHOMODE
 70
     0
  9
$REGENMODE
 70
     1
  9
$FILLMODE
 70
     1
  9
$QTEXTMODE
 70
     0
  9
$MIRRTEXT
 70
     1
  9
$LTSCALE
 40
20.0
  9
$ATTMODE
 70
     1
  9
$TEXTSIZE
 40
4.0
  9
$TRACEWID
 40
1.0
  9
$TEXTSTYLE
  7
STYLE1
  9
$CLAYER
  8
部品1
  9
$CELTYPE
  6
BYLAYER
  9
$CECOLOR
 62
   256
  9
$CELTSCALE
 40
50.0
  9
$DISPSILH
 70
     0
  9
$DIMSCALE
 40
40.0
  9
$DIMASZ
 40
2.5
  9
$DIMEXO
 40
0.5
  9
$DIMDLI
 40
7.0
  9
$DIMRND
 40
0.0
  9
$DIMDLE
 40
0.0
  9
$DIMEXE
 40
1.5
  9
$DIMTP
 40
0.0
  9
$DIMTM
 40
0.0
  9
$DIMTXT
 40
3.0
  9
$DIMCEN
 40
0.0
  9
$DIMTSZ
 40
0.0
  9
$DIMTOL
 70
     0
  9
$DIMLIM
 70
     0
  9
$DIMTIH
 70
     0
  9
$DIMTOH
 70
     0
  9
$DIMSE1
 70
     0
  9
$DIMSE2
 70
     0
  9
$DIMTAD
 70
     3
  9
$DIMZIN
 70
     8
  9
$DIMBLK
  1

  9
$DIMASO
 70
     1
  9
$DIMSHO
 70
     1
  9
$DIMPOST
  1

  9
$DIMAPOST
  1

  9
$DIMALT
 70
     0
  9
$DIMALTD
 70
     2
  9
$DIMALTF
 40
0.0394
  9
$DIMLFAC
 40
1.0
  9
$DIMTOFL
 70
     1
  9
$DIMTVP
 40
0.0
  9
$DIMTIX
 70
     1
  9
$DIMSOXD
 70
     0
  9
$DIMSAH
 70
     1
  9
$DIMBLK1
  1
DOTSMALL
  9
$DIMBLK2
  1
DOTSMALL
  9
$DIMSTYLE
  2
INABA_S40G
  9
$DIMCLRD
 70
     0
  9
$DIMCLRE
 70
     0
  9
$DIMCLRT
 70
     7
  9
$DIMTFAC
 40
1.0
  9
$DIMGAP
 40
1.0
  9
$DIMJUST
 70
     0
  9
$DIMSD1
 70
     0
  9
$DIMSD2
 70
     0
  9
$DIMTOLJ
 70
     1
  9
$DIMTZIN
 70
     0
  9
$DIMALTZ
 70
     0
  9
$DIMALTTZ
 70
     0
  9
$DIMUPT
 70
     1
  9
$DIMDEC
 70
     1
  9
$DIMTDEC
 70
     4
  9
$DIMALTU
 70
     2
  9
$DIMALTTD
 70
     2
  9
$DIMTXSTY
  7
STYLE1
  9
$DIMAUNIT
 70
     0
  9
$DIMADEC
 70
     0
  9
$DIMALTRND
 40
0.0
  9
$DIMAZIN
 70
     0
  9
$DIMDSEP
 70
    46
  9
$DIMATFIT
 70
     3
  9
$DIMFRAC
 70
     0
  9
$DIMLDRBLK
  1

  9
$DIMLUNIT
 70
     2
  9
$DIMLWD
 70
    -2
  9
$DIMLWE
 70
    -2
  9
$DIMTMOVE
 70
     0
  9
$LUNITS
 70
     2
  9
$LUPREC
 70
     1
  9
$SKETCHINC
 40
1.0
  9
$FILLETRAD
 40
3.0
  9
$AUNITS
 70
     0
  9
$AUPREC
 70
     0
  9
$MENU
  1
acad
  9
$ELEVATION
 40
0.0
  9
$PELEVATION
 40
0.0
  9
$THICKNESS
 40
0.0
  9
$LIMCHECK
 70
     0
  9
$CHAMFERA
 40
0.0
  9
$CHAMFERB
 40
0.0
  9
$CHAMFERC
 40
0.0
  9
$CHAMFERD
 40
0.0
  9
$SKPOLY
 70
     0
  9
$TDCREATE
 40
2451368.612993866
  9
$TDUCREATE
 40
2451368.237993866
  9
$TDUPDATE
 40
2455575.685777986
  9
$TDUUPDATE
 40
2455575.310777986
  9
$TDINDWG
 40
0.6478501505
  9
$TDUSRTIMER
 40
0.6478501505
  9
$USRTIMER
 70
     1
  9
$ANGBASE
 50
0.0
  9
$ANGDIR
 70
     0
  9
$PDMODE
 70
     3
  9
$PDSIZE
 40
2.0
  9
$PLINEWID
 40
0.0
  9
$SPLFRAME
 70
     0
  9
$SPLINETYPE
 70
     6
  9
$SPLINESEGS
 70
     8
  9
$HANDSEED
  5
189E7
  9
$SURFTAB1
 70
     6
  9
$SURFTAB2
 70
     6
  9
$SURFTYPE
 70
     6
  9
$SURFU
 70
     6
  9
$SURFV
 70
     6
  9
$UCSBASE
  2

  9
$UCSNAME
  2

  9
$UCSORG
 10
0.0
 20
0.0
 30
0.0
  9
$UCSXDIR
 10
1.0
 20
0.0
 30
0.0
  9
$UCSYDIR
 10
0.0
 20
1.0
 30
0.0
  9
$UCSORTHOREF
  2

  9
$UCSORTHOVIEW
 70
     0
  9
$UCSORGTOP
 10
0.0
 20
0.0
 30
0.0
  9
$UCSORGBOTTOM
 10
0.0
 20
0.0
 30
0.0
  9
$UCSORGLEFT
 10
0.0
 20
0.0
 30
0.0
  9
$UCSORGRIGHT
 10
0.0
 20
0.0
 30
0.0
  9
$UCSORGFRONT
 10
0.0
 20
0.0
 30
0.0
  9
$UCSORGBACK
 10
0.0
 20
0.0
 30
0.0
  9
$PUCSBASE
  2

  9
$PUCSNAME
  2

  9
$PUCSORG
 10
0.0
 20
0.0
 30
0.0
  9
$PUCSXDIR
 10
1.0
 20
0.0
 30
0.0
  9
$PUCSYDIR
 10
0.0
 20
1.0
 30
0.0
  9
$PUCSORTHOREF
  2

  9
$PUCSORTHOVIEW
 70
     0
  9
$PUCSORGTOP
 10
0.0
 20
0.0
 30
0.0
  9
$PUCSORGBOTTOM
 10
0.0
 20
0.0
 30
0.0
  9
$PUCSORGLEFT
 10
0.0
 20
0.0
 30
0.0
  9
$PUCSORGRIGHT
 10
0.0
 20
0.0
 30
0.0
  9
$PUCSORGFRONT
 10
0.0
 20
0.0
 30
0.0
  9
$PUCSORGBACK
 10
0.0
 20
0.0
 30
0.0
  9
$USERI1
 70
     0
  9
$USERI2
 70
     0
  9
$USERI3
 70
     0
  9
$USERI4
 70
     0
  9
$USERI5
 70
     0
  9
$USERR1
 40
0.0
  9
$USERR2
 40
0.0
  9
$USERR3
 40
0.0
  9
$USERR4
 40
0.0
  9
$USERR5
 40
0.0
  9
$WORLDVIEW
 70
     1
  9
$SHADEDGE
 70
     3
  9
$SHADEDIF
 70
    70
  9
$TILEMODE
 70
     1
  9
$MAXACTVP
 70
    16
  9
$PINSBASE
 10
0.0
 20
0.0
 30
0.0
  9
$PLIMCHECK
 70
     0
  9
$PEXTMIN
 10
1.000000000000000E+20
 20
1.000000000000000E+20
 30
1.000000000000000E+20
  9
$PEXTMAX
 10
-1.000000000000000E+20
 20
-1.000000000000000E+20
 30
-1.000000000000000E+20
  9
$PLIMMIN
 10
0.0
 20
0.0
  9
$PLIMMAX
 10
420.0
 20
297.0
  9
$UNITMODE
 70
     0
  9
$VISRETAIN
 70
     0
  9
$PLINEGEN
 70
     0
  9
$PSLTSCALE
 70
     0
  9
$TREEDEPTH
 70
  3020
  9
$CMLSTYLE
  2
STANDARD
  9
$CMLJUST
 70
     0
  9
$CMLSCALE
 40
1.0
  9
$PROXYGRAPHICS
 70
     1
  9
$MEASUREMENT
 70
     1
  9
$CELWEIGHT
370
    -1
  9
$ENDCAPS
280
     0
  9
$JOINSTYLE
280
     0
  9
$LWDISPLAY
290
     0
  9
$INSUNITS
 70
     0
  9
$HYPERLINKBASE
  1

  9
$STYLESHEET
  1

  9
$XEDIT
290
     1
  9
$CEPSNTYPE
380
     0
  9
$PSTYLEMODE
290
     1
  9
$FINGERPRINTGUID
  2
{CFC90315-83A1-48AC-866D-69B918B56759}
  9
$VERSIONGUID
  2
{550282A7-7585-487B-BD5F-1956DF204EF6}
  9
$EXTNAMES
290
     1
  9
$PSVPSCALE
 40
0.0
  9
$OLESTARTUP
290
     0
  0
ENDSEC
  0
SECTION
  2
CLASSES
  0
CLASS
  1
ACDBDICTIONARYWDFLT
  2
AcDbDictionaryWithDefault
  3
ObjectDBX Classes
 90
        0
280
     0
281
     0
  0
CLASS
  1
DICTIONARYVAR
  2
AcDbDictionaryVar
  3
ObjectDBX Classes
 90
        0
280
     0
281
     0
  0
CLASS
  1
ACDBPLACEHOLDER
  2
AcDbPlaceHolder
  3
ObjectDBX Classes
 90
        0
280
     0
281
     0
  0
CLASS
  1
LAYOUT
  2
AcDbLayout
  3
ObjectDBX Classes
 90
        0
280
     0
281
     0
  0
ENDSEC
  0
SECTION
  2
TABLES
  0
TABLE
  2
VPORT
  5
746D
330
0
100
AcDbSymbolTable
 70
     2
  0
VPORT
  5
189DF
330
746D
100
AcDbSymbolTableRecord
100
AcDbViewportTableRecord
  2
*Active
 70
     0
 10
0.0
 20
0.0
 11
1.0
 21
1.0
 12
8223.761025238502
 22
6348.703162895247
 13
0.0
 23
0.0
 14
10.0
 24
10.0
 15
10.0
 25
10.0
 16
0.0
 26
0.0
 36
1.0
 17
0.0
 27
0.0
 37
0.0
 40
12805.60689082044
 41
1.525925925925925
 42
50.0
 43
0.0
 44
0.0
 50
0.0
 51
0.0
 71
     0
 72
     0
 73
     1
 74
     0
 75
     0
 76
     0
 77
     0
 78
     0
281
     0
 65
     1
110
0.0
120
0.0
130
0.0
111
1.0
121
0.0
131
0.0
112
0.0
122
1.0
132
0.0
 79
     0
146
0.0
  0
ENDTAB
  0
TABLE
  2
LTYPE
  5
746A
330
0
100
AcDbSymbolTable
 70
     4
  0
LTYPE
  5
7477
330
746A
100
AcDbSymbolTableRecord
100
AcDbLinetypeTableRecord
  2
BYBLOCK
 70
     0
  3

 72
    65
 73
     0
 40
0.0
  0
LTYPE
  5
7478
330
746A
100
AcDbSymbolTableRecord
100
AcDbLinetypeTableRecord
  2
BYLAYER
 70
     0
  3

 72
    65
 73
     0
 40
0.0
  0
LTYPE
  5
7479
330
746A
100
AcDbSymbolTableRecord
100
AcDbLinetypeTableRecord
  2
CONTINUOUS
 70
     0
  3
Solid line
 72
    65
 73
     0
 40
0.0
  0
LTYPE
  5
7816
330
746A
100
AcDbSymbolTableRecord
100
AcDbLinetypeTableRecord
  2
CENTER
 70
     0
  3
____ _ ____ _ ____ _ ____ _ ____ _ ____ _ ____ 
 72
    65
 73
     4
 40
2.0
 49
1.25
 74
     0
 49
-0.25
 74
     0
 49
0.25
 74
     0
 49
-0.25
 74
     0
  0
LTYPE
  5
781A
330
746A
100
AcDbSymbolTableRecord
100
AcDbLinetypeTableRecord
  2
HIDDEN
 70
     0
  3
__ __ __ __ __ __ __ __ __ __ __ __ __ __ __ __
 72
    65
 73
     2
 40
0.375
 49
0.25
 74
     0
 49
-0.125
 74
     0
  0
LTYPE
  5
781B
330
746A
100
AcDbSymbolTableRecord
100
AcDbLinetypeTableRecord
  2
PHANTOM
 70
     0
  3
______  __  __  ______  __  __  ______  __  __ 
 72
    65
 73
     6
 40
2.5
 49
1.25
 74
     0
 49
-0.25
 74
     0
 49
0.25
 74
     0
 49
-0.25
 74
     0
 49
0.25
 74
     0
 49
-0.25
 74
     0
  0
ENDTAB
  0
TABLE
  2
LAYER
  5
7467
102
{ACAD_XDICTIONARY
360
176F8
102
}
330
0
100
AcDbSymbolTable
 70
    12
  0
LAYER
  5
7474
330
7467
100
AcDbSymbolTableRecord
100
AcDbLayerTableRecord
  2
0
 70
     0
 62
     7
  6
CONTINUOUS
370
    -3
390
17569
  0
LAYER
  5
DEB2
330
7467
100
AcDbSymbolTableRecord
100
AcDbLayerTableRecord
  2
センター
 70
     0
 62
     3
  6
CENTER
370
    -3
390
17569
  0
LAYER
  5
DEB3
330
7467
100
AcDbSymbolTableRecord
100
AcDbLayerTableRecord
  2
寸法
 70
     0
 62
     4
  6
CONTINUOUS
370
    -3
390
17569
  0
LAYER
  5
DEB4
330
7467
100
AcDbSymbolTableRecord
100
AcDbLayerTableRecord
  2
部品1
 70
     0
 62
     7
  6
CONTINUOUS
370
    -3
390
17569
  0
LAYER
  5
DEB5
330
7467
100
AcDbSymbolTableRecord
100
AcDbLayerTableRecord
  2
補助
 70
     0
 62
    -1
  6
CONTINUOUS
370
    -3
390
17569
  0
LAYER
  5
DEB6
330
7467
100
AcDbSymbolTableRecord
100
AcDbLayerTableRecord
  2
文字
 70
     0
 62
     7
  6
CONTINUOUS
370
    -3
390
17569
  0
LAYER
  5
F255
330
7467
100
AcDbSymbolTableRecord
100
AcDbLayerTableRecord
  2
DEFPOINTS
 70
     0
 62
     7
  6
CONTINUOUS
290
     0
370
    -3
390
17569
  0
LAYER
  5
10B54
330
7467
100
AcDbSymbolTableRecord
100
AcDbLayerTableRecord
  2
仕様書枠
 70
     0
 62
   230
  6
CONTINUOUS
370
    -3
390
17569
  0
LAYER
  5
11729
330
7467
100
AcDbSymbolTableRecord
100
AcDbLayerTableRecord
  2
Ｇ．Ｌ
 70
     0
 62
    30
  6
CONTINUOUS
370
    -3
390
17569
  0
LAYER
  5
1173F
330
7467
100
AcDbSymbolTableRecord
100
AcDbLayerTableRecord
  2
細線
 70
     0
 62
     5
  6
CONTINUOUS
370
    -3
390
17569
  0
LAYER
  5
12CC4
330
7467
100
AcDbSymbolTableRecord
100
AcDbLayerTableRecord
  2
想像線
 70
     0
 62
     6
  6
PHANTOM
370
    -3
390
17569
  0
LAYER
  5
142E2
330
7467
100
AcDbSymbolTableRecord
100
AcDbLayerTableRecord
  2
破線
 70
     0
 62
     2
  6
HIDDEN
370
    -3
390
17569
  0
ENDTAB
  0
TABLE
  2
STYLE
  5
7468
330
0
100
AcDbSymbolTable
 70
     4
  0
STYLE
  5
7475
330
7468
100
AcDbSymbolTableRecord
100
AcDbTextStyleTableRecord
  2
STANDARD
 70
     0
 40
0.0
 41
1.0
 50
0.0
 71
     0
 42
4.0
  3
txt
  4
C:\AutoCAD LT\bigfont.shx
  0
STYLE
  5
F706
330
7468
100
AcDbSymbolTableRecord
100
AcDbTextStyleTableRecord
  2
STYLE1
 70
     0
 40
0.0
 41
1.0
 50
0.0
 71
     0
 42
4.0
  3
isocp.shx
  4
bigfont.shx
  0
STYLE
  5
103BF
330
7468
100
AcDbSymbolTableRecord
100
AcDbTextStyleTableRecord
  2
STYLE2
 70
     0
 40
0.0
 41
1.0
 50
0.0
 71
     0
 42
100.0
  3
MS PGothic.ttf
  4

1001
ACAD
1000
MS PGothic
1071
    32818
  0
STYLE
  5
180D2
330
7468
100
AcDbSymbolTableRecord
100
AcDbTextStyleTableRecord
  2
STYLE3
 70
     0
 40
0.0
 41
1.0
 50
0.0
 71
     0
 42
100.0
  3

  4

1001
ACAD
1000
DFPGothic-EB
1071
    32818
  0
ENDTAB
  0
TABLE
  2
VIEW
  5
746B
330
0
100
AcDbSymbolTable
 70
     0
  0
ENDTAB
  0
TABLE
  2
UCS
  5
746C
330
0
100
AcDbSymbolTable
 70
     0
  0
ENDTAB
  0
TABLE
  2
APPID
  5
746E
330
0
100
AcDbSymbolTable
 70
     6
  0
APPID
  5
7476
330
746E
100
AcDbSymbolTableRecord
100
AcDbRegAppTableRecord
  2
ACAD
 70
     0
  0
APPID
  5
DEA9
330
746E
100
AcDbSymbolTableRecord
100
AcDbRegAppTableRecord
  2
CONTENTBLOCKICON
 70
     0
  0
APPID
  5
DEAA
330
746E
100
AcDbSymbolTableRecord
100
AcDbRegAppTableRecord
  2
CONTENTBLOCKDESCRIPTION
 70
     0
  0
APPID
  5
E71D
330
746E
100
AcDbSymbolTableRecord
100
AcDbRegAppTableRecord
  2
CONTENTTABDATA
 70
     0
  0
APPID
  5
E71E
330
746E
100
AcDbSymbolTableRecord
100
AcDbRegAppTableRecord
  2
CONTENTCURRENTTAB
 70
     0
  0
APPID
  5
F3BA
330
746E
100
AcDbSymbolTableRecord
100
AcDbRegAppTableRecord
  2
DRAWINGVARIABLESXDATA
 70
     0
  0
ENDTAB
  0
TABLE
  2
DIMSTYLE
  5
746F
330
0
100
AcDbSymbolTable
 70
     5
100
AcDbDimStyleTable
 71
     0
  0
DIMSTYLE
105
7484
330
746F
100
AcDbSymbolTableRecord
100
AcDbDimStyleTableRecord
  2
JIS
 70
     0
 41
2.5
 42
1.0
 43
7.0
 44
1.0
 73
     0
 74
     0
 77
     1
 78
     8
140
2.5
141
0.0
143
0.0394
147
0.0
172
     1
174
     1
175
     1
340
7475
  0
DIMSTYLE
105
F71F
102
{ACAD_REACTORS
330
1796D
330
17978
330
179B3
330
179B4
330
179B5
330
179B6
330
179B7
330
179B8
330
179B9
330
179D7
330
179D8
330
179D9
330
179DA
330
179F0
330
179F5
330
179FD
330
179FE
330
179FF
330
17A00
330
17A04
330
17A22
330
17A24
330
17A27
330
17A2E
330
17AA3
330
17B8E
330
17B92
330
1863B
330
18642
102
}
330
746F
100
AcDbSymbolTableRecord
100
AcDbDimStyleTableRecord
  2
INABA_S40G
 70
     0
 40
40.0
 41
2.5
 42
0.5
 43
7.0
 44
1.5
 73
     0
 74
     0
 77
     3
 78
     8
140
3.0
141
0.0
143
0.0394
147
1.0
172
     1
173
     1
174
     1
178
     7
271
     1
288
     1
340
F706
341
F770
343
F770
344
F770
  0
DIMSTYLE
105
176F7
102
{ACAD_REACTORS
330
183E5
330
18641
102
}
330
746F
100
AcDbSymbolTableRecord
100
AcDbDimStyleTableRecord
  2
INABA_S40
 70
     0
 40
40.0
 41
2.5
 42
0.5
 43
7.0
 44
1.5
 73
     0
 74
     0
 77
     3
 78
     8
140
3.0
141
0.0
143
0.0394
147
1.0
172
     1
173
     1
174
     1
175
     1
178
     7
340
7475
  0
DIMSTYLE
105
180D3
330
746F
100
AcDbSymbolTableRecord
100
AcDbDimStyleTableRecord
  2
INABA_S50G
 70
     0
 41
125.0
 42
25.0
 43
7.0
 44
75.0
 73
     0
 74
     0
 77
     3
 78
     8
140
150.0
141
0.0
143
0.0394
147
25.0
172
     1
173
     1
174
     1
175
     1
178
     7
271
     1
340
F706
341
F770
343
F770
344
F770
  0
DIMSTYLE
105
18975
330
746F
100
AcDbSymbolTableRecord
100
AcDbDimStyleTableRecord
  2
INABA_S20G
 70
     0
 40
20.0
 41
2.5
 42
0.5
 43
7.0
 44
1.5
 73
     0
 74
     0
 77
     3
 78
     8
140
3.0
141
0.0
143
0.0394
147
1.0
172
     1
173
     1
174
     1
178
     7
271
     1
340
F706
341
F770
343
F770
344
F770
  0
ENDTAB
  0
TABLE
  2
BLOCK_RECORD
  5
7466
330
0
100
AcDbSymbolTable
 70
    33
  0
BLOCK_RECORD
  5
747D
330
7466
100
AcDbSymbolTableRecord
100
AcDbBlockTableRecord
  2
*MODEL_SPACE
340
1756E
  0
BLOCK_RECORD
  5
747A
330
7466
100
AcDbSymbolTableRecord
100
AcDbBlockTableRecord
  2
*PAPER_SPACE
340
1756F
  0
BLOCK_RECORD
  5
F770
330
7466
100
AcDbSymbolTableRecord
100
AcDbBlockTableRecord
  2
_DOTSMALL
340
0
102
{BLKREFS
331
18196
331
18197
331
1819F
331
181A0
331
181B1
331
181B2
331
181CE
331
181CF
331
18239
331
1823A
331
18244
331
18245
331
1824D
331
1824E
331
18257
331
18258
331
18260
331
18261
331
18269
331
1826A
331
18274
331
18275
331
1827E
331
1827F
331
18287
331
18288
331
18292
331
18293
331
1829B
331
1829C
331
182A6
331
182A7
331
182AF
331
182B0
331
1888A
331
1888B
331
1889E
331
1889F
331
188B0
331
188B1
331
188B9
331
188BA
331
188C4
331
188C5
331
188CD
331
188CE
331
188D6
331
188D7
331
188E1
331
188E2
331
188EA
331
188EB
331
188F5
331
188F6
331
188FE
331
188FF
331
18909
331
1890A
102
}
  0
BLOCK_RECORD
  5
17576
330
7466
100
AcDbSymbolTableRecord
100
AcDbBlockTableRecord
  2
_DOT
340
0
102
{BLKREFS
331
18895
331
18896
331
188A7
331
188A8
102
}
  0
BLOCK_RECORD
  5
17BDC
330
7466
100
AcDbSymbolTableRecord
100
AcDbBlockTableRecord
  2
*D2
340
0
  0
BLOCK_RECORD
  5
17BE8
330
7466
100
AcDbSymbolTableRecord
100
AcDbBlockTableRecord
  2
*D3
340
0
  0
BLOCK_RECORD
  5
17BF6
330
7466
100
AcDbSymbolTableRecord
100
AcDbBlockTableRecord
  2
*D4
340
0
  0
BLOCK_RECORD
  5
17C02
330
7466
100
AcDbSymbolTableRecord
100
AcDbBlockTableRecord
  2
*D5
340
0
  0
BLOCK_RECORD
  5
17C10
330
7466
100
AcDbSymbolTableRecord
100
AcDbBlockTableRecord
  2
*D6
340
0
  0
BLOCK_RECORD
  5
17C1C
330
7466
100
AcDbSymbolTableRecord
100
AcDbBlockTableRecord
  2
*D7
340
0
  0
BLOCK_RECORD
  5
17C29
330
7466
100
AcDbSymbolTableRecord
100
AcDbBlockTableRecord
  2
*D8
340
0
  0
BLOCK_RECORD
  5
17C37
330
7466
100
AcDbSymbolTableRecord
100
AcDbBlockTableRecord
  2
*D9
340
0
  0
BLOCK_RECORD
  5
17C43
330
7466
100
AcDbSymbolTableRecord
100
AcDbBlockTableRecord
  2
*D10
340
0
  0
BLOCK_RECORD
  5
17C4F
330
7466
100
AcDbSymbolTableRecord
100
AcDbBlockTableRecord
  2
*D11
340
0
  0
BLOCK_RECORD
  5
17C5C
330
7466
100
AcDbSymbolTableRecord
100
AcDbBlockTableRecord
  2
*D12
340
0
  0
BLOCK_RECORD
  5
17C68
330
7466
100
AcDbSymbolTableRecord
100
AcDbBlockTableRecord
  2
*D13
340
0
  0
BLOCK_RECORD
  5
17C76
330
7466
100
AcDbSymbolTableRecord
100
AcDbBlockTableRecord
  2
*D14
340
0
  0
BLOCK_RECORD
  5
17C82
330
7466
100
AcDbSymbolTableRecord
100
AcDbBlockTableRecord
  2
*D15
340
0
  0
BLOCK_RECORD
  5
17C90
330
7466
100
AcDbSymbolTableRecord
100
AcDbBlockTableRecord
  2
*D16
340
0
  0
BLOCK_RECORD
  5
17C9C
330
7466
100
AcDbSymbolTableRecord
100
AcDbBlockTableRecord
  2
*D17
340
0
  0
BLOCK_RECORD
  5
17CAA
330
7466
100
AcDbSymbolTableRecord
100
AcDbBlockTableRecord
  2
*D18
340
0
  0
BLOCK_RECORD
  5
17CB6
330
7466
100
AcDbSymbolTableRecord
100
AcDbBlockTableRecord
  2
*D19
340
0
  0
BLOCK_RECORD
  5
17CC4
330
7466
100
AcDbSymbolTableRecord
100
AcDbBlockTableRecord
  2
*D20
340
0
  0
BLOCK_RECORD
  5
17CDC
330
7466
100
AcDbSymbolTableRecord
100
AcDbBlockTableRecord
  2
*D21
340
0
  0
BLOCK_RECORD
  5
17CE8
330
7466
100
AcDbSymbolTableRecord
100
AcDbBlockTableRecord
  2
*D22
340
0
  0
BLOCK_RECORD
  5
17CF6
330
7466
100
AcDbSymbolTableRecord
100
AcDbBlockTableRecord
  2
*D23
340
0
  0
BLOCK_RECORD
  5
17D02
330
7466
100
AcDbSymbolTableRecord
100
AcDbBlockTableRecord
  2
*D24
340
0
  0
BLOCK_RECORD
  5
17D0E
330
7466
100
AcDbSymbolTableRecord
100
AcDbBlockTableRecord
  2
*D25
340
0
  0
BLOCK_RECORD
  5
17D28
330
7466
100
AcDbSymbolTableRecord
100
AcDbBlockTableRecord
  2
*D26
340
0
  0
BLOCK_RECORD
  5
17D40
330
7466
100
AcDbSymbolTableRecord
100
AcDbBlockTableRecord
  2
*D27
340
0
  0
BLOCK_RECORD
  5
17D4C
330
7466
100
AcDbSymbolTableRecord
100
AcDbBlockTableRecord
  2
*D28
340
0
  0
BLOCK_RECORD
  5
18449
330
7466
100
AcDbSymbolTableRecord
100
AcDbBlockTableRecord
  2
*D29
340
0
  0
BLOCK_RECORD
  5
18730
330
7466
100
AcDbSymbolTableRecord
100
AcDbBlockTableRecord
  2
*D30
340
0
  0
BLOCK_RECORD
  5
1873C
330
7466
100
AcDbSymbolTableRecord
100
AcDbBlockTableRecord
  2
*D31
340
0
  0
BLOCK_RECORD
  5
1874A
330
7466
100
AcDbSymbolTableRecord
100
AcDbBlockTableRecord
  2
*D32
340
0
  0
ENDTAB
  0
ENDSEC
  0
SECTION
  2
BLOCKS
  0
BLOCK
  5
7489
330
747D
100
AcDbEntity
  8
0
100
AcDbBlockBegin
  2
*MODEL_SPACE
 70
     0
 10
0.0
 20
0.0
 30
0.0
  3
*MODEL_SPACE
  1

  0
ENDBLK
  5
748A
330
747D
100
AcDbEntity
  8
0
100
AcDbBlockEnd
  0
BLOCK
  5
7487
330
747A
100
AcDbEntity
 67
     1
  8
0
100
AcDbBlockBegin
  2
*PAPER_SPACE
 70
     0
 10
0.0
 20
0.0
 30
0.0
  3
*PAPER_SPACE
  1

  0
ENDBLK
  5
7488
330
747A
100
AcDbEntity
 67
     1
  8
0
100
AcDbBlockEnd
  0
BLOCK
  5
F771
330
F770
100
AcDbEntity
  8
0
 48
50.0
100
AcDbBlockBegin
  2
_DOTSMALL
 70
     0
 10
0.0
 20
0.0
 30
0.0
  3
_DOTSMALL
  1

  0
LWPOLYLINE
  5
F772
330
F770
100
AcDbEntity
  8
0
  6
ByBlock
 62
     0
 48
50.0
100
AcDbPolyline
 90
        2
 70
     1
 43
0.5
 10
-0.0625
 20
0.0
 42
1.0
 10
0.0625
 20
0.0
 42
1.0
  0
ENDBLK
  5
F776
330
F770
100
AcDbEntity
  8
0
 48
50.0
100
AcDbBlockEnd
  0
BLOCK
  5
17577
330
17576
100
AcDbEntity
  8
0
 48
50.0
100
AcDbBlockBegin
  2
_DOT
 70
     0
 10
0.0
 20
0.0
 30
0.0
  3
_DOT
  1

  0
LWPOLYLINE
  5
17578
330
17576
100
AcDbEntity
  8
0
  6
ByBlock
 62
     0
 48
50.0
100
AcDbPolyline
 90
        2
 70
     1
 43
0.5
 10
-0.25
 20
0.0
 42
1.0
 10
0.25
 20
0.0
 42
1.0
  0
LINE
  5
17579
330
17576
100
AcDbEntity
  8
0
  6
ByBlock
 62
     0
 48
50.0
100
AcDbLine
 10
-0.5
 20
0.0
 30
0.0
 11
-1.0
 21
0.0
 31
0.0
  0
ENDBLK
  5
1757A
330
17576
100
AcDbEntity
  8
0
 48
50.0
100
AcDbBlockEnd
  0
BLOCK
  5
17BE6
330
17BDC
100
AcDbEntity
  8
0
 48
50.0
100
AcDbBlockBegin
  2
*D2
 70
     1
 10
0.0
 20
0.0
 30
0.0
  3
*D2
  1

  0
LINE
  5
182AC
330
17BDC
100
AcDbEntity
  8
寸法
 62
     0
 48
50.0
370
    -2
100
AcDbLine
 10
10490.97696527401
 20
2587.510589766162
 30
0.0
 11
11071.14765455416
 21
2587.510589766162
 31
0.0
  0
LINE
  5
182AD
330
17BDC
100
AcDbEntity
  8
寸法
 62
     0
 48
50.0
370
    -2
100
AcDbLine
 10
10570.97696527399
 20
4907.510589766164
 30
0.0
 11
11071.14765455416
 21
4907.510589766164
 31
0.0
  0
LINE
  5
182AE
330
17BDC
100
AcDbEntity
  8
寸法
 62
     0
 48
50.0
370
    -2
100
AcDbLine
 10
11011.14765455416
 20
2587.510589766162
 30
0.0
 11
11011.14765455416
 21
4907.510589766164
 31
0.0
  0
INSERT
  5
182AF
330
17BDC
100
AcDbEntity
  8
寸法
 62
     0
 48
50.0
370
    -2
100
AcDbBlockReference
  2
_DOTSMALL
 10
11011.14765455416
 20
2587.510589766162
 30
0.0
 41
100.0
 42
100.0
 43
100.0
 50
270.0
  0
INSERT
  5
182B0
330
17BDC
100
AcDbEntity
  8
寸法
 62
     0
 48
50.0
370
    -2
100
AcDbBlockReference
  2
_DOTSMALL
 10
11011.14765455416
 20
4907.510589766164
 30
0.0
 41
100.0
 42
100.0
 43
100.0
 50
90.0
  0
MTEXT
  5
182B1
330
17BDC
100
AcDbEntity
  8
寸法
 62
     7
 48
50.0
100
AcDbMText
 10
10911.13584353053
 20
3737.791747659198
 30
0.0
 40
120.0
 41
0.0
 71
     5
 72
     1
  1
\A1;2320
  7
STYLE1
 11
0.0000000000000001
 21
1.0
 31
0.0
 73
     1
 44
1.0
1001
ACAD
1000
MTEXTBEGIN
1070
    73
1070
     1
1070
    44
1040
1.0
1070
    74
1070
     0
1000
MTEXTEND
  0
POINT
  5
182B2
330
17BDC
100
AcDbEntity
  8
DEFPOINTS
 62
     0
 48
50.0
100
AcDbPoint
 10
10470.97696527401
 20
2587.510589766162
 30
0.0
  0
POINT
  5
182B3
330
17BDC
100
AcDbEntity
  8
DEFPOINTS
 62
     0
 48
50.0
100
AcDbPoint
 10
10550.97696527399
 20
4907.510589766164
 30
0.0
  0
POINT
  5
182B4
330
17BDC
100
AcDbEntity
  8
DEFPOINTS
 62
     0
 48
50.0
100
AcDbPoint
 10
11011.14765455416
 20
4907.510589766164
 30
0.0
  0
ENDBLK
  5
17BE7
330
17BDC
100
AcDbEntity
  8
0
 48
50.0
100
AcDbBlockEnd
  0
BLOCK
  5
17BF4
330
17BE8
100
AcDbEntity
  8
0
 48
50.0
100
AcDbBlockBegin
  2
*D3
 70
     1
 10
0.0
 20
0.0
 30
0.0
  3
*D3
  1

  0
LINE
  5
182A1
330
17BE8
100
AcDbEntity
  8
寸法
 62
     0
 48
50.0
370
    -2
100
AcDbLine
 10
6282.692548249448
 20
4982.510589766164
 30
0.0
 11
6282.692548249448
 21
5427.130849193433
 31
0.0
  0
LINE
  5
182A2
330
17BE8
100
AcDbEntity
  8
寸法
 62
     0
 48
50.0
370
    -2
100
AcDbLine
 10
6232.692548249448
 20
4982.510589766167
 30
0.0
 11
6232.692548249448
 21
5427.130849193433
 31
0.0
  0
LINE
  5
182A3
330
17BE8
100
AcDbEntity
  8
寸法
 62
     0
 48
50.0
370
    -2
100
AcDbLine
 10
6232.692548249448
 20
5367.130849193433
 30
0.0
 11
6132.692548249448
 21
5367.130849193433
 31
0.0
  0
LINE
  5
182A4
330
17BE8
100
AcDbEntity
  8
寸法
 62
     0
 48
50.0
370
    -2
100
AcDbLine
 10
6282.692548249448
 20
5367.130849193433
 30
0.0
 11
6702.225073718172
 21
5367.130849193433
 31
0.0
  0
LINE
  5
182A5
330
17BE8
100
AcDbEntity
  8
寸法
 62
     0
 48
50.0
370
    -2
100
AcDbLine
 10
6232.692548249448
 20
5367.130849193433
 30
0.0
 11
6282.692548249448
 21
5367.130849193433
 31
0.0
  0
INSERT
  5
182A6
330
17BE8
100
AcDbEntity
  8
寸法
 62
     0
 48
50.0
370
    -2
100
AcDbBlockReference
  2
_DOTSMALL
 10
6232.692548249448
 20
5367.130849193433
 30
0.0
 41
100.0
 42
100.0
 43
100.0
  0
INSERT
  5
182A7
330
17BE8
100
AcDbEntity
  8
寸法
 62
     0
 48
50.0
370
    -2
100
AcDbBlockReference
  2
_DOTSMALL
 10
6282.692548249448
 20
5367.130849193433
 30
0.0
 41
100.0
 42
100.0
 43
100.0
 50
180.0
  0
MTEXT
  5
182A8
330
17BE8
100
AcDbEntity
  8
寸法
 62
     7
 48
50.0
100
AcDbMText
 10
6596.177829623684
 20
5467.130849193433
 30
0.0
 40
120.0
 41
0.0
 71
     5
 72
     1
  1
\A1;50
  7
STYLE1
 73
     1
 44
1.0
1001
ACAD
1000
MTEXTBEGIN
1070
    73
1070
     1
1070
    44
1040
1.0
1070
    74
1070
     0
1000
MTEXTEND
  0
POINT
  5
182A9
330
17BE8
100
AcDbEntity
  8
DEFPOINTS
 62
     0
 48
50.0
100
AcDbPoint
 10
6282.692548249448
 20
4962.510589766163
 30
0.0
  0
POINT
  5
182AA
330
17BE8
100
AcDbEntity
  8
DEFPOINTS
 62
     0
 48
50.0
100
AcDbPoint
 10
6232.692548249448
 20
4962.510589766166
 30
0.0
  0
POINT
  5
182AB
330
17BE8
100
AcDbEntity
  8
DEFPOINTS
 62
     0
 48
50.0
100
AcDbPoint
 10
6232.692548249448
 20
5367.130849193433
 30
0.0
  0
ENDBLK
  5
17BF5
330
17BE8
100
AcDbEntity
  8
0
 48
50.0
100
AcDbBlockEnd
  0
BLOCK
  5
17C00
330
17BF6
100
AcDbEntity
  8
0
 48
50.0
100
AcDbBlockBegin
  2
*D4
 70
     1
 10
0.0
 20
0.0
 30
0.0
  3
*D4
  1

  0
LINE
  5
18298
330
17BF6
100
AcDbEntity
  8
寸法
 62
     0
 48
50.0
370
    -2
100
AcDbLine
 10
6232.692548249448
 20
4982.510589766167
 30
0.0
 11
6232.692548249448
 21
5427.130849193433
 31
0.0
  0
LINE
  5
18299
330
17BF6
100
AcDbEntity
  8
寸法
 62
     0
 48
50.0
370
    -2
100
AcDbLine
 10
4862.692548249453
 20
4982.510589766167
 30
0.0
 11
4862.692548249453
 21
5427.130849193433
 31
0.0
  0
LINE
  5
1829A
330
17BF6
100
AcDbEntity
  8
寸法
 62
     0
 48
50.0
370
    -2
100
AcDbLine
 10
6232.692548249448
 20
5367.130849193433
 30
0.0
 11
4862.692548249453
 21
5367.130849193433
 31
0.0
  0
INSERT
  5
1829B
330
17BF6
100
AcDbEntity
  8
寸法
 62
     0
 48
50.0
370
    -2
100
AcDbBlockReference
  2
_DOTSMALL
 10
6232.692548249448
 20
5367.130849193433
 30
0.0
 41
100.0
 42
100.0
 43
100.0
  0
INSERT
  5
1829C
330
17BF6
100
AcDbEntity
  8
寸法
 62
     0
 48
50.0
370
    -2
100
AcDbBlockReference
  2
_DOTSMALL
 10
4862.692548249453
 20
5367.130849193433
 30
0.0
 41
100.0
 42
100.0
 43
100.0
 50
180.0
  0
MTEXT
  5
1829D
330
17BF6
100
AcDbEntity
  8
寸法
 62
     7
 48
50.0
100
AcDbMText
 10
5547.692548249451
 20
5467.130849193433
 30
0.0
 40
120.0
 41
0.0
 71
     5
 72
     1
  1
\A1;柱外寸法1370
  7
STYLE1
 73
     1
 44
1.0
1001
ACAD
1000
MTEXTBEGIN
1070
    73
1070
     1
1070
    44
1040
1.0
1070
    74
1070
     0
1000
MTEXTEND
  0
POINT
  5
1829E
330
17BF6
100
AcDbEntity
  8
DEFPOINTS
 62
     0
 48
50.0
100
AcDbPoint
 10
6232.692548249448
 20
4962.510589766166
 30
0.0
  0
POINT
  5
1829F
330
17BF6
100
AcDbEntity
  8
DEFPOINTS
 62
     0
 48
50.0
100
AcDbPoint
 10
4862.692548249453
 20
4962.510589766167
 30
0.0
  0
POINT
  5
182A0
330
17BF6
100
AcDbEntity
  8
DEFPOINTS
 62
     0
 48
50.0
100
AcDbPoint
 10
4862.692548249453
 20
5367.130849193433
 30
0.0
  0
ENDBLK
  5
17C01
330
17BF6
100
AcDbEntity
  8
0
 48
50.0
100
AcDbBlockEnd
  0
BLOCK
  5
17C0E
330
17C02
100
AcDbEntity
  8
0
 48
50.0
100
AcDbBlockBegin
  2
*D5
 70
     1
 10
0.0
 20
0.0
 30
0.0
  3
*D5
  1

  0
LINE
  5
1828D
330
17C02
100
AcDbEntity
  8
寸法
 62
     0
 48
50.0
370
    -2
100
AcDbLine
 10
4862.692548249453
 20
4982.510589766167
 30
0.0
 11
4862.692548249453
 21
5427.130849193433
 31
0.0
  0
LINE
  5
1828E
330
17C02
100
AcDbEntity
  8
寸法
 62
     0
 48
50.0
370
    -2
100
AcDbLine
 10
4812.692548249454
 20
4982.510589766167
 30
0.0
 11
4812.692548249454
 21
5427.130849193433
 31
0.0
  0
LINE
  5
1828F
330
17C02
100
AcDbEntity
  8
寸法
 62
     0
 48
50.0
370
    -2
100
AcDbLine
 10
4862.692548249453
 20
5367.130849193433
 30
0.0
 11
4962.692548249453
 21
5367.130849193433
 31
0.0
  0
LINE
  5
18290
330
17C02
100
AcDbEntity
  8
寸法
 62
     0
 48
50.0
370
    -2
100
AcDbLine
 10
4812.692548249454
 20
5367.130849193433
 30
0.0
 11
4393.160022780718
 21
5367.130849193433
 31
0.0
  0
LINE
  5
18291
330
17C02
100
AcDbEntity
  8
寸法
 62
     0
 48
50.0
370
    -2
100
AcDbLine
 10
4862.692548249453
 20
5367.130849193433
 30
0.0
 11
4812.692548249454
 21
5367.130849193433
 31
0.0
  0
INSERT
  5
18292
330
17C02
100
AcDbEntity
  8
寸法
 62
     0
 48
50.0
370
    -2
100
AcDbBlockReference
  2
_DOTSMALL
 10
4862.692548249453
 20
5367.130849193433
 30
0.0
 41
100.0
 42
100.0
 43
100.0
 50
180.0
  0
INSERT
  5
18293
330
17C02
100
AcDbEntity
  8
寸法
 62
     0
 48
50.0
370
    -2
100
AcDbBlockReference
  2
_DOTSMALL
 10
4812.692548249454
 20
5367.130849193433
 30
0.0
 41
100.0
 42
100.0
 43
100.0
  0
MTEXT
  5
18294
330
17C02
100
AcDbEntity
  8
寸法
 62
     7
 48
50.0
100
AcDbMText
 10
4499.207266875206
 20
5467.130849193433
 30
0.0
 40
120.0
 41
0.0
 71
     5
 72
     1
  1
\A1;50
  7
STYLE1
 73
     1
 44
1.0
1001
ACAD
1000
MTEXTBEGIN
1070
    73
1070
     1
1070
    44
1040
1.0
1070
    74
1070
     0
1000
MTEXTEND
  0
POINT
  5
18295
330
17C02
100
AcDbEntity
  8
DEFPOINTS
 62
     0
 48
50.0
100
AcDbPoint
 10
4862.692548249453
 20
4962.510589766167
 30
0.0
  0
POINT
  5
18296
330
17C02
100
AcDbEntity
  8
DEFPOINTS
 62
     0
 48
50.0
100
AcDbPoint
 10
4812.692548249454
 20
4962.510589766166
 30
0.0
  0
POINT
  5
18297
330
17C02
100
AcDbEntity
  8
DEFPOINTS
 62
     0
 48
50.0
100
AcDbPoint
 10
4812.692548249454
 20
5367.130849193433
 30
0.0
  0
ENDBLK
  5
17C0F
330
17C02
100
AcDbEntity
  8
0
 48
50.0
100
AcDbBlockEnd
  0
BLOCK
  5
17C1A
330
17C10
100
AcDbEntity
  8
0
 48
50.0
100
AcDbBlockBegin
  2
*D6
 70
     1
 10
0.0
 20
0.0
 30
0.0
  3
*D6
  1

  0
LINE
  5
18284
330
17C10
100
AcDbEntity
  8
寸法
 62
     0
 48
50.0
370
    -2
100
AcDbLine
 10
4812.692548249454
 20
4982.510589766167
 30
0.0
 11
4812.692548249454
 21
5636.724723614884
 31
0.0
  0
LINE
  5
18285
330
17C10
100
AcDbEntity
  8
寸法
 62
     0
 48
50.0
370
    -2
100
AcDbLine
 10
6282.692548249448
 20
4982.510589766164
 30
0.0
 11
6282.692548249448
 21
5636.724723614884
 31
0.0
  0
LINE
  5
18286
330
17C10
100
AcDbEntity
  8
寸法
 62
     0
 48
50.0
370
    -2
100
AcDbLine
 10
4812.692548249454
 20
5576.724723614884
 30
0.0
 11
6282.692548249448
 21
5576.724723614884
 31
0.0
  0
INSERT
  5
18287
330
17C10
100
AcDbEntity
  8
寸法
 62
     0
 48
50.0
370
    -2
100
AcDbBlockReference
  2
_DOTSMALL
 10
4812.692548249454
 20
5576.724723614884
 30
0.0
 41
100.0
 42
100.0
 43
100.0
 50
180.0
  0
INSERT
  5
18288
330
17C10
100
AcDbEntity
  8
寸法
 62
     0
 48
50.0
370
    -2
100
AcDbBlockReference
  2
_DOTSMALL
 10
6282.692548249448
 20
5576.724723614884
 30
0.0
 41
100.0
 42
100.0
 43
100.0
  0
MTEXT
  5
18289
330
17C10
100
AcDbEntity
  8
寸法
 62
     7
 48
50.0
100
AcDbMText
 10
5547.692548249451
 20
5676.724723614884
 30
0.0
 40
120.0
 41
0.0
 71
     5
 72
     1
  1
\A1;1470
  7
STYLE1
 73
     1
 44
1.0
1001
ACAD
1000
MTEXTBEGIN
1070
    73
1070
     1
1070
    44
1040
1.0
1070
    74
1070
     0
1000
MTEXTEND
  0
POINT
  5
1828A
330
17C10
100
AcDbEntity
  8
DEFPOINTS
 62
     0
 48
50.0
100
AcDbPoint
 10
4812.692548249454
 20
4962.510589766166
 30
0.0
  0
POINT
  5
1828B
330
17C10
100
AcDbEntity
  8
DEFPOINTS
 62
     0
 48
50.0
100
AcDbPoint
 10
6282.692548249448
 20
4962.510589766163
 30
0.0
  0
POINT
  5
1828C
330
17C10
100
AcDbEntity
  8
DEFPOINTS
 62
     0
 48
50.0
100
AcDbPoint
 10
6282.692548249448
 20
5576.724723614884
 30
0.0
  0
ENDBLK
  5
17C1B
330
17C10
100
AcDbEntity
  8
0
 48
50.0
100
AcDbBlockEnd
  0
BLOCK
  5
17C27
330
17C1C
100
AcDbEntity
  8
0
 48
50.0
100
AcDbBlockBegin
  2
*D7
 70
     1
 10
0.0
 20
0.0
 30
0.0
  3
*D7
  1

  0
LINE
  5
1827A
330
17C1C
100
AcDbEntity
  8
寸法
 62
     0
 48
50.0
370
    -2
100
AcDbLine
 10
8605.97696527401
 20
2587.510589766162
 30
0.0
 11
7712.337583344653
 21
2587.510589766162
 31
0.0
  0
LINE
  5
1827B
330
17C1C
100
AcDbEntity
  8
寸法
 62
     0
 48
50.0
370
    -2
100
AcDbLine
 10
8037.324256115713
 20
2487.510589766162
 30
0.0
 11
7712.337583344653
 21
2487.510589766162
 31
0.0
  0
LINE
  5
1827C
330
17C1C
100
AcDbEntity
  8
寸法
 62
     0
 48
50.0
370
    -2
100
AcDbLine
 10
7772.337583344652
 20
2587.510589766162
 30
0.0
 11
7772.337583344652
 21
2487.510589766162
 31
0.0
  0
LINE
  5
1827D
330
17C1C
100
AcDbEntity
  8
寸法
 62
     0
 48
50.0
370
    -2
100
AcDbLine
 10
7772.337583344652
 20
2487.510589766162
 30
0.0
 11
7772.337583344652
 21
2115.416101577181
 31
0.0
  0
INSERT
  5
1827E
330
17C1C
100
AcDbEntity
  8
寸法
 62
     0
 48
50.0
370
    -2
100
AcDbBlockReference
  2
_DOTSMALL
 10
7772.337583344652
 20
2587.510589766162
 30
0.0
 41
100.0
 42
100.0
 43
100.0
 50
90.0
  0
INSERT
  5
1827F
330
17C1C
100
AcDbEntity
  8
寸法
 62
     0
 48
50.0
370
    -2
100
AcDbBlockReference
  2
_DOTSMALL
 10
7772.337583344652
 20
2487.510589766162
 30
0.0
 41
100.0
 42
100.0
 43
100.0
 50
270.0
  0
MTEXT
  5
18280
330
17C1C
100
AcDbEntity
  8
寸法
 62
     7
 48
50.0
100
AcDbMText
 10
7672.337583344653
 20
2251.463345671671
 30
0.0
 40
120.0
 41
0.0
 71
     5
 72
     1
  1
\A1;100
  7
STYLE1
 11
0.0000000000000001
 21
1.0
 31
0.0
 73
     1
 44
1.0
1001
ACAD
1000
MTEXTBEGIN
1070
    73
1070
     1
1070
    44
1040
1.0
1070
    74
1070
     0
1000
MTEXTEND
  0
POINT
  5
18281
330
17C1C
100
AcDbEntity
  8
DEFPOINTS
 62
     0
 48
50.0
100
AcDbPoint
 10
8625.976965274011
 20
2587.510589766162
 30
0.0
  0
POINT
  5
18282
330
17C1C
100
AcDbEntity
  8
DEFPOINTS
 62
     0
 48
50.0
100
AcDbPoint
 10
8057.324256115713
 20
2487.510589766162
 30
0.0
  0
POINT
  5
18283
330
17C1C
100
AcDbEntity
  8
DEFPOINTS
 62
     0
 48
50.0
100
AcDbPoint
 10
7772.337583344652
 20
2487.510589766162
 30
0.0
  0
ENDBLK
  5
17C28
330
17C1C
100
AcDbEntity
  8
0
 48
50.0
100
AcDbBlockEnd
  0
BLOCK
  5
17C35
330
17C29
100
AcDbEntity
  8
0
 48
50.0
100
AcDbBlockBegin
  2
*D8
 70
     1
 10
0.0
 20
0.0
 30
0.0
  3
*D8
  1

  0
LINE
  5
1826F
330
17C29
100
AcDbEntity
  8
寸法
 62
     0
 48
50.0
370
    -2
100
AcDbLine
 10
8660.976965274011
 20
2637.510589766162
 30
0.0
 11
7997.324256115714
 21
2637.510589766162
 31
0.0
  0
LINE
  5
18270
330
17C29
100
AcDbEntity
  8
寸法
 62
     0
 48
50.0
370
    -2
100
AcDbLine
 10
8605.97696527401
 20
2587.510589766162
 30
0.0
 11
7997.324256115714
 21
2587.510589766162
 31
0.0
  0
LINE
  5
18271
330
17C29
100
AcDbEntity
  8
寸法
 62
     0
 48
50.0
370
    -2
100
AcDbLine
 10
8057.324256115714
 20
2637.510589766162
 30
0.0
 11
8057.324256115714
 21
2737.510589766162
 31
0.0
  0
LINE
  5
18272
330
17C29
100
AcDbEntity
  8
寸法
 62
     0
 48
50.0
370
    -2
100
AcDbLine
 10
8057.324256115714
 20
2587.510589766162
 30
0.0
 11
8057.324256115714
 21
2175.416101577182
 31
0.0
  0
LINE
  5
18273
330
17C29
100
AcDbEntity
  8
寸法
 62
     0
 48
50.0
370
    -2
100
AcDbLine
 10
8057.324256115714
 20
2637.510589766162
 30
0.0
 11
8057.324256115714
 21
2587.510589766162
 31
0.0
  0
INSERT
  5
18274
330
17C29
100
AcDbEntity
  8
寸法
 62
     0
 48
50.0
370
    -2
100
AcDbBlockReference
  2
_DOTSMALL
 10
8057.324256115714
 20
2637.510589766162
 30
0.0
 41
100.0
 42
100.0
 43
100.0
 50
270.0
  0
INSERT
  5
18275
330
17C29
100
AcDbEntity
  8
寸法
 62
     0
 48
50.0
370
    -2
100
AcDbBlockReference
  2
_DOTSMALL
 10
8057.324256115714
 20
2587.510589766162
 30
0.0
 41
100.0
 42
100.0
 43
100.0
 50
90.0
  0
MTEXT
  5
18276
330
17C29
100
AcDbEntity
  8
寸法
 62
     7
 48
50.0
100
AcDbMText
 10
7957.324256115713
 20
2281.463345671671
 30
0.0
 40
120.0
 41
0.0
 71
     5
 72
     1
  1
\A1;50
  7
STYLE1
 11
0.0000000000000001
 21
1.0
 31
0.0
 73
     1
 44
1.0
1001
ACAD
1000
MTEXTBEGIN
1070
    73
1070
     1
1070
    44
1040
1.0
1070
    74
1070
     0
1000
MTEXTEND
  0
POINT
  5
18277
330
17C29
100
AcDbEntity
  8
DEFPOINTS
 62
     0
 48
50.0
100
AcDbPoint
 10
8680.976965274011
 20
2637.510589766162
 30
0.0
  0
POINT
  5
18278
330
17C29
100
AcDbEntity
  8
DEFPOINTS
 62
     0
 48
50.0
100
AcDbPoint
 10
8625.976965274011
 20
2587.510589766162
 30
0.0
  0
POINT
  5
18279
330
17C29
100
AcDbEntity
  8
DEFPOINTS
 62
     0
 48
50.0
100
AcDbPoint
 10
8057.324256115714
 20
2587.510589766162
 30
0.0
  0
ENDBLK
  5
17C36
330
17C29
100
AcDbEntity
  8
0
 48
50.0
100
AcDbBlockEnd
  0
BLOCK
  5
17C41
330
17C37
100
AcDbEntity
  8
0
 48
50.0
100
AcDbBlockBegin
  2
*D9
 70
     1
 10
0.0
 20
0.0
 30
0.0
  3
*D9
  1

  0
LINE
  5
18266
330
17C37
100
AcDbEntity
  8
寸法
 62
     0
 48
50.0
370
    -2
100
AcDbLine
 10
8660.976965274011
 20
4727.510589766161
 30
0.0
 11
7997.324256115714
 21
4727.510589766161
 31
0.0
  0
LINE
  5
18267
330
17C37
100
AcDbEntity
  8
寸法
 62
     0
 48
50.0
370
    -2
100
AcDbLine
 10
8660.976965274011
 20
2637.510589766162
 30
0.0
 11
7997.324256115714
 21
2637.510589766162
 31
0.0
  0
LINE
  5
18268
330
17C37
100
AcDbEntity
  8
寸法
 62
     0
 48
50.0
370
    -2
100
AcDbLine
 10
8057.324256115714
 20
4727.510589766161
 30
0.0
 11
8057.324256115714
 21
2637.510589766162
 31
0.0
  0
INSERT
  5
18269
330
17C37
100
AcDbEntity
  8
寸法
 62
     0
 48
50.0
370
    -2
100
AcDbBlockReference
  2
_DOTSMALL
 10
8057.324256115714
 20
4727.510589766161
 30
0.0
 41
100.0
 42
100.0
 43
100.0
 50
90.0
  0
INSERT
  5
1826A
330
17C37
100
AcDbEntity
  8
寸法
 62
     0
 48
50.0
370
    -2
100
AcDbBlockReference
  2
_DOTSMALL
 10
8057.324256115714
 20
2637.510589766162
 30
0.0
 41
100.0
 42
100.0
 43
100.0
 50
270.0
  0
MTEXT
  5
1826B
330
17C37
100
AcDbEntity
  8
寸法
 62
     7
 48
50.0
100
AcDbMText
 10
7957.312445092092
 20
3682.510589766162
 30
0.0
 40
120.0
 41
0.0
 71
     5
 72
     1
  1
\A1;2090
  7
STYLE1
 11
0.0000000000000001
 21
1.0
 31
0.0
 73
     1
 44
1.0
1001
ACAD
1000
MTEXTBEGIN
1070
    73
1070
     1
1070
    44
1040
1.0
1070
    74
1070
     0
1000
MTEXTEND
  0
POINT
  5
1826C
330
17C37
100
AcDbEntity
  8
DEFPOINTS
 62
     0
 48
50.0
100
AcDbPoint
 10
8680.976965274011
 20
4727.510589766161
 30
0.0
  0
POINT
  5
1826D
330
17C37
100
AcDbEntity
  8
DEFPOINTS
 62
     0
 48
50.0
100
AcDbPoint
 10
8680.976965274011
 20
2637.510589766162
 30
0.0
  0
POINT
  5
1826E
330
17C37
100
AcDbEntity
  8
DEFPOINTS
 62
     0
 48
50.0
100
AcDbPoint
 10
8057.324256115714
 20
2637.510589766162
 30
0.0
  0
ENDBLK
  5
17C42
330
17C37
100
AcDbEntity
  8
0
 48
50.0
100
AcDbBlockEnd
  0
BLOCK
  5
17C4D
330
17C43
100
AcDbEntity
  8
0
 48
50.0
100
AcDbBlockBegin
  2
*D10
 70
     1
 10
0.0
 20
0.0
 30
0.0
  3
*D10
  1

  0
LINE
  5
1825D
330
17C43
100
AcDbEntity
  8
寸法
 62
     0
 48
50.0
370
    -2
100
AcDbLine
 10
8660.976965274011
 20
2587.510589766162
 30
0.0
 11
7712.337583344653
 21
2587.510589766162
 31
0.0
  0
LINE
  5
1825E
330
17C43
100
AcDbEntity
  8
寸法
 62
     0
 48
50.0
370
    -2
100
AcDbLine
 10
8600.976965274011
 20
4962.510589766166
 30
0.0
 11
7712.337583344653
 21
4962.510589766166
 31
0.0
  0
LINE
  5
1825F
330
17C43
100
AcDbEntity
  8
寸法
 62
     0
 48
50.0
370
    -2
100
AcDbLine
 10
7772.337583344652
 20
2587.510589766162
 30
0.0
 11
7772.337583344652
 21
4962.510589766166
 31
0.0
  0
INSERT
  5
18260
330
17C43
100
AcDbEntity
  8
寸法
 62
     0
 48
50.0
370
    -2
100
AcDbBlockReference
  2
_DOTSMALL
 10
7772.337583344652
 20
2587.510589766162
 30
0.0
 41
100.0
 42
100.0
 43
100.0
 50
270.0
  0
INSERT
  5
18261
330
17C43
100
AcDbEntity
  8
寸法
 62
     0
 48
50.0
370
    -2
100
AcDbBlockReference
  2
_DOTSMALL
 10
7772.337583344652
 20
4962.510589766166
 30
0.0
 41
100.0
 42
100.0
 43
100.0
 50
90.0
  0
MTEXT
  5
18262
330
17C43
100
AcDbEntity
  8
寸法
 62
     7
 48
50.0
100
AcDbMText
 10
7672.32577232103
 20
3682.510589766162
 30
0.0
 40
120.0
 41
0.0
 71
     5
 72
     1
  1
\A1;2375
  7
STYLE1
 11
0.0000000000000001
 21
1.0
 31
0.0
 73
     1
 44
1.0
1001
ACAD
1000
MTEXTBEGIN
1070
    73
1070
     1
1070
    44
1040
1.0
1070
    74
1070
     0
1000
MTEXTEND
  0
POINT
  5
18263
330
17C43
100
AcDbEntity
  8
DEFPOINTS
 62
     0
 48
50.0
100
AcDbPoint
 10
8680.976965274011
 20
2587.510589766162
 30
0.0
  0
POINT
  5
18264
330
17C43
100
AcDbEntity
  8
DEFPOINTS
 62
     0
 48
50.0
100
AcDbPoint
 10
8620.97696527401
 20
4962.510589766166
 30
0.0
  0
POINT
  5
18265
330
17C43
100
AcDbEntity
  8
DEFPOINTS
 62
     0
 48
50.0
100
AcDbPoint
 10
7772.337583344652
 20
4962.510589766166
 30
0.0
  0
ENDBLK
  5
17C4E
330
17C43
100
AcDbEntity
  8
0
 48
50.0
100
AcDbBlockEnd
  0
BLOCK
  5
17C5A
330
17C4F
100
AcDbEntity
  8
0
 48
50.0
100
AcDbBlockBegin
  2
*D11
 70
     1
 10
0.0
 20
0.0
 30
0.0
  3
*D11
  1

  0
LINE
  5
18253
330
17C4F
100
AcDbEntity
  8
寸法
 62
     0
 48
50.0
370
    -2
100
AcDbLine
 10
10470.97696527401
 20
4929.321269377815
 30
0.0
 11
10470.97696527401
 21
5421.603759105635
 31
0.0
  0
LINE
  5
18254
330
17C4F
100
AcDbEntity
  8
寸法
 62
     0
 48
50.0
370
    -2
100
AcDbLine
 10
10550.97696527401
 20
4927.510589766162
 30
0.0
 11
10550.97696527401
 21
5421.603759105635
 31
0.0
  0
LINE
  5
18255
330
17C4F
100
AcDbEntity
  8
寸法
 62
     0
 48
50.0
370
    -2
100
AcDbLine
 10
10470.97696527401
 20
5361.603759105634
 30
0.0
 11
10550.97696527401
 21
5361.603759105634
 31
0.0
  0
LINE
  5
18256
330
17C4F
100
AcDbEntity
  8
寸法
 62
     0
 48
50.0
370
    -2
100
AcDbLine
 10
10550.97696527401
 20
5361.603759105634
 30
0.0
 11
10863.07145346299
 21
5361.603759105634
 31
0.0
  0
INSERT
  5
18257
330
17C4F
100
AcDbEntity
  8
寸法
 62
     0
 48
50.0
370
    -2
100
AcDbBlockReference
  2
_DOTSMALL
 10
10470.97696527401
 20
5361.603759105634
 30
0.0
 41
100.0
 42
100.0
 43
100.0
 50
180.0
  0
INSERT
  5
18258
330
17C4F
100
AcDbEntity
  8
寸法
 62
     0
 48
50.0
370
    -2
100
AcDbBlockReference
  2
_DOTSMALL
 10
10550.97696527401
 20
5361.603759105634
 30
0.0
 41
100.0
 42
100.0
 43
100.0
  0
MTEXT
  5
18259
330
17C4F
100
AcDbEntity
  8
寸法
 62
     7
 48
50.0
100
AcDbMText
 10
10757.0242093685
 20
5461.603759105635
 30
0.0
 40
120.0
 41
0.0
 71
     5
 72
     1
  1
\A1;80
  7
STYLE1
 73
     1
 44
1.0
1001
ACAD
1000
MTEXTBEGIN
1070
    73
1070
     1
1070
    44
1040
1.0
1070
    74
1070
     0
1000
MTEXTEND
  0
POINT
  5
1825A
330
17C4F
100
AcDbEntity
  8
DEFPOINTS
 62
     0
 48
50.0
100
AcDbPoint
 10
10470.97696527401
 20
4909.321269377815
 30
0.0
  0
POINT
  5
1825B
330
17C4F
100
AcDbEntity
  8
DEFPOINTS
 62
     0
 48
50.0
100
AcDbPoint
 10
10550.97696527401
 20
4907.510589766162
 30
0.0
  0
POINT
  5
1825C
330
17C4F
100
AcDbEntity
  8
DEFPOINTS
 62
     0
 48
50.0
100
AcDbPoint
 10
10550.97696527401
 20
5361.603759105634
 30
0.0
  0
ENDBLK
  5
17C5B
330
17C4F
100
AcDbEntity
  8
0
 48
50.0
100
AcDbBlockEnd
  0
BLOCK
  5
17C66
330
17C5C
100
AcDbEntity
  8
0
 48
50.0
100
AcDbBlockBegin
  2
*D12
 70
     1
 10
0.0
 20
0.0
 30
0.0
  3
*D12
  1

  0
LINE
  5
1824A
330
17C5C
100
AcDbEntity
  8
寸法
 62
     0
 48
50.0
370
    -2
100
AcDbLine
 10
10550.97696527401
 20
4927.510589766162
 30
0.0
 11
10550.97696527401
 21
5638.12985872408
 31
0.0
  0
LINE
  5
1824B
330
17C5C
100
AcDbEntity
  8
寸法
 62
     0
 48
50.0
370
    -2
100
AcDbLine
 10
8620.976965274016
 20
4982.510589766167
 30
0.0
 11
8620.976965274016
 21
5638.12985872408
 31
0.0
  0
LINE
  5
1824C
330
17C5C
100
AcDbEntity
  8
寸法
 62
     0
 48
50.0
370
    -2
100
AcDbLine
 10
10550.97696527401
 20
5578.129858724079
 30
0.0
 11
8620.976965274016
 21
5578.129858724079
 31
0.0
  0
INSERT
  5
1824D
330
17C5C
100
AcDbEntity
  8
寸法
 62
     0
 48
50.0
370
    -2
100
AcDbBlockReference
  2
_DOTSMALL
 10
10550.97696527401
 20
5578.129858724079
 30
0.0
 41
100.0
 42
100.0
 43
100.0
  0
INSERT
  5
1824E
330
17C5C
100
AcDbEntity
  8
寸法
 62
     0
 48
50.0
370
    -2
100
AcDbBlockReference
  2
_DOTSMALL
 10
8620.976965274016
 20
5578.129858724079
 30
0.0
 41
100.0
 42
100.0
 43
100.0
 50
180.0
  0
MTEXT
  5
1824F
330
17C5C
100
AcDbEntity
  8
寸法
 62
     7
 48
50.0
100
AcDbMText
 10
9526.782716524982
 20
5678.12985872408
 30
0.0
 40
120.0
 41
0.0
 71
     5
 72
     1
  1
\A1;1930
  7
STYLE1
 73
     1
 44
1.0
1001
ACAD
1000
MTEXTBEGIN
1070
    73
1070
     1
1070
    44
1040
1.0
1070
    74
1070
     0
1000
MTEXTEND
  0
POINT
  5
18250
330
17C5C
100
AcDbEntity
  8
DEFPOINTS
 62
     0
 48
50.0
100
AcDbPoint
 10
10550.97696527401
 20
4907.510589766162
 30
0.0
  0
POINT
  5
18251
330
17C5C
100
AcDbEntity
  8
DEFPOINTS
 62
     0
 48
50.0
100
AcDbPoint
 10
8620.976965274016
 20
4962.510589766166
 30
0.0
  0
POINT
  5
18252
330
17C5C
100
AcDbEntity
  8
DEFPOINTS
 62
     0
 48
50.0
100
AcDbPoint
 10
8620.976965274016
 20
5578.129858724079
 30
0.0
  0
ENDBLK
  5
17C67
330
17C5C
100
AcDbEntity
  8
0
 48
50.0
100
AcDbBlockEnd
  0
BLOCK
  5
17C74
330
17C68
100
AcDbEntity
  8
0
 48
50.0
100
AcDbBlockBegin
  2
*D13
 70
     1
 10
0.0
 20
0.0
 30
0.0
  3
*D13
  1

  0
LINE
  5
1823F
330
17C68
100
AcDbEntity
  8
寸法
 62
     0
 48
50.0
370
    -2
100
AcDbLine
 10
8680.976965274014
 20
4978.512207889139
 30
0.0
 11
8680.976965274014
 21
5421.603759105635
 31
0.0
  0
LINE
  5
18240
330
17C68
100
AcDbEntity
  8
寸法
 62
     0
 48
50.0
370
    -2
100
AcDbLine
 10
8620.976965274016
 20
4982.510589766167
 30
0.0
 11
8620.976965274016
 21
5421.603759105635
 31
0.0
  0
LINE
  5
18241
330
17C68
100
AcDbEntity
  8
寸法
 62
     0
 48
50.0
370
    -2
100
AcDbLine
 10
8680.976965274014
 20
5361.603759105634
 30
0.0
 11
8780.976965274014
 21
5361.603759105634
 31
0.0
  0
LINE
  5
18242
330
17C68
100
AcDbEntity
  8
寸法
 62
     0
 48
50.0
370
    -2
100
AcDbLine
 10
8620.976965274016
 20
5361.603759105634
 30
0.0
 11
8201.701374722835
 21
5361.603759105634
 31
0.0
  0
LINE
  5
18243
330
17C68
100
AcDbEntity
  8
寸法
 62
     0
 48
50.0
370
    -2
100
AcDbLine
 10
8680.976965274014
 20
5361.603759105634
 30
0.0
 11
8620.976965274016
 21
5361.603759105634
 31
0.0
  0
INSERT
  5
18244
330
17C68
100
AcDbEntity
  8
寸法
 62
     0
 48
50.0
370
    -2
100
AcDbBlockReference
  2
_DOTSMALL
 10
8680.976965274014
 20
5361.603759105634
 30
0.0
 41
100.0
 42
100.0
 43
100.0
 50
180.0
  0
INSERT
  5
18245
330
17C68
100
AcDbEntity
  8
寸法
 62
     0
 48
50.0
370
    -2
100
AcDbBlockReference
  2
_DOTSMALL
 10
8620.976965274016
 20
5361.603759105634
 30
0.0
 41
100.0
 42
100.0
 43
100.0
  0
MTEXT
  5
18246
330
17C68
100
AcDbEntity
  8
寸法
 62
     7
 48
50.0
100
AcDbMText
 10
8311.339169998424
 20
5461.603759105635
 30
0.0
 40
120.0
 41
0.0
 71
     5
 72
     1
  1
\A1;60
  7
STYLE1
 73
     1
 44
1.0
1001
ACAD
1000
MTEXTBEGIN
1070
    73
1070
     1
1070
    44
1040
1.0
1070
    74
1070
     0
1000
MTEXTEND
  0
POINT
  5
18247
330
17C68
100
AcDbEntity
  8
DEFPOINTS
 62
     0
 48
50.0
100
AcDbPoint
 10
8680.976965274014
 20
4958.512207889138
 30
0.0
  0
POINT
  5
18248
330
17C68
100
AcDbEntity
  8
DEFPOINTS
 62
     0
 48
50.0
100
AcDbPoint
 10
8620.976965274016
 20
4962.510589766166
 30
0.0
  0
POINT
  5
18249
330
17C68
100
AcDbEntity
  8
DEFPOINTS
 62
     0
 48
50.0
100
AcDbPoint
 10
8620.976965274016
 20
5361.603759105634
 30
0.0
  0
ENDBLK
  5
17C75
330
17C68
100
AcDbEntity
  8
0
 48
50.0
100
AcDbBlockEnd
  0
BLOCK
  5
17C80
330
17C76
100
AcDbEntity
  8
0
 48
50.0
100
AcDbBlockBegin
  2
*D14
 70
     1
 10
0.0
 20
0.0
 30
0.0
  3
*D14
  1

  0
LINE
  5
18236
330
17C76
100
AcDbEntity
  8
寸法
 62
     0
 48
50.0
370
    -2
100
AcDbLine
 10
10470.97696527401
 20
4929.321269377815
 30
0.0
 11
10470.97696527401
 21
5421.603759105635
 31
0.0
  0
LINE
  5
18237
330
17C76
100
AcDbEntity
  8
寸法
 62
     0
 48
50.0
370
    -2
100
AcDbLine
 10
8680.976965274014
 20
4978.512207889139
 30
0.0
 11
8680.976965274014
 21
5421.603759105635
 31
0.0
  0
LINE
  5
18238
330
17C76
100
AcDbEntity
  8
寸法
 62
     0
 48
50.0
370
    -2
100
AcDbLine
 10
10470.97696527401
 20
5361.603759105634
 30
0.0
 11
8680.976965274014
 21
5361.603759105634
 31
0.0
  0
INSERT
  5
18239
330
17C76
100
AcDbEntity
  8
寸法
 62
     0
 48
50.0
370
    -2
100
AcDbBlockReference
  2
_DOTSMALL
 10
10470.97696527401
 20
5361.603759105634
 30
0.0
 41
100.0
 42
100.0
 43
100.0
  0
INSERT
  5
1823A
330
17C76
100
AcDbEntity
  8
寸法
 62
     0
 48
50.0
370
    -2
100
AcDbBlockReference
  2
_DOTSMALL
 10
8680.976965274014
 20
5361.603759105634
 30
0.0
 41
100.0
 42
100.0
 43
100.0
 50
180.0
  0
MTEXT
  5
1823B
330
17C76
100
AcDbEntity
  8
寸法
 62
     7
 48
50.0
100
AcDbMText
 10
9590.572613950493
 20
5461.603759105635
 30
0.0
 40
120.0
 41
0.0
 71
     5
 72
     1
  1
\A1;柱外寸法1790
  7
STYLE1
 73
     1
 44
1.0
1001
ACAD
1000
MTEXTBEGIN
1070
    73
1070
     1
1070
    44
1040
1.0
1070
    74
1070
     0
1000
MTEXTEND
  0
POINT
  5
1823C
330
17C76
100
AcDbEntity
  8
DEFPOINTS
 62
     0
 48
50.0
100
AcDbPoint
 10
10470.97696527401
 20
4909.321269377815
 30
0.0
  0
POINT
  5
1823D
330
17C76
100
AcDbEntity
  8
DEFPOINTS
 62
     0
 48
50.0
100
AcDbPoint
 10
8680.976965274014
 20
4958.512207889138
 30
0.0
  0
POINT
  5
1823E
330
17C76
100
AcDbEntity
  8
DEFPOINTS
 62
     0
 48
50.0
100
AcDbPoint
 10
8680.976965274014
 20
5361.603759105634
 30
0.0
  0
ENDBLK
  5
17C81
330
17C76
100
AcDbEntity
  8
0
 48
50.0
100
AcDbBlockEnd
  0
BLOCK
  5
17C8E
330
17C82
100
AcDbEntity
  8
0
 48
50.0
100
AcDbBlockBegin
  2
*D15
 70
     1
 10
0.0
 20
0.0
 30
0.0
  3
*D15
  1

  0
LINE
  5
18904
330
17C82
100
AcDbEntity
  8
寸法
 62
     0
 48
50.0
370
    -2
100
AcDbLine
 10
8680.976965273982
 20
9253.681980414652
 30
0.0
 11
8680.976965273982
 21
9590.489007222862
 31
0.0
  0
LINE
  5
18905
330
17C82
100
AcDbEntity
  8
寸法
 62
     0
 48
50.0
370
    -2
100
AcDbLine
 10
8735.976965274018
 20
9253.681980414652
 30
0.0
 11
8735.976965274018
 21
9590.489007222862
 31
0.0
  0
LINE
  5
18906
330
17C82
100
AcDbEntity
  8
寸法
 62
     0
 48
50.0
370
    -2
100
AcDbLine
 10
8735.976965274018
 20
9530.489007222861
 30
0.0
 11
8835.976965274019
 21
9530.489007222861
 31
0.0
  0
LINE
  5
18907
330
17C82
100
AcDbEntity
  8
寸法
 62
     0
 48
50.0
370
    -2
100
AcDbLine
 10
8680.976965273982
 20
9530.489007222861
 30
0.0
 11
8264.006402525506
 21
9530.489007222861
 31
0.0
  0
LINE
  5
18908
330
17C82
100
AcDbEntity
  8
寸法
 62
     0
 48
50.0
370
    -2
100
AcDbLine
 10
8735.976965274018
 20
9530.489007222861
 30
0.0
 11
8680.976965273982
 21
9530.489007222861
 31
0.0
  0
INSERT
  5
18909
330
17C82
100
AcDbEntity
  8
寸法
 62
     0
 48
50.0
370
    -2
100
AcDbBlockReference
  2
_DOTSMALL
 10
8735.976965274018
 20
9530.489007222861
 30
0.0
 41
100.0
 42
100.0
 43
100.0
 50
180.0
  0
INSERT
  5
1890A
330
17C82
100
AcDbEntity
  8
寸法
 62
     0
 48
50.0
370
    -2
100
AcDbBlockReference
  2
_DOTSMALL
 10
8680.976965273982
 20
9530.489007222861
 30
0.0
 41
100.0
 42
100.0
 43
100.0
  0
MTEXT
  5
1890B
330
17C82
100
AcDbEntity
  8
寸法
 62
     7
 48
50.0
100
AcDbMText
 10
8372.491683899744
 20
9630.489007222863
 30
0.0
 40
120.0
 41
0.0
 71
     5
 72
     1
  1
\A1;55
  7
STYLE1
 73
     1
 44
1.0
1001
ACAD
1000
MTEXTBEGIN
1070
    73
1070
     1
1070
    44
1040
1.0
1070
    74
1070
     0
1000
MTEXTEND
  0
POINT
  5
1890C
330
17C82
100
AcDbEntity
  8
DEFPOINTS
 62
     0
 48
50.0
100
AcDbPoint
 10
8680.976965273982
 20
9233.681980414653
 30
0.0
  0
POINT
  5
1890D
330
17C82
100
AcDbEntity
  8
DEFPOINTS
 62
     0
 48
50.0
100
AcDbPoint
 10
8735.976965274018
 20
9233.681980414653
 30
0.0
  0
POINT
  5
1890E
330
17C82
100
AcDbEntity
  8
DEFPOINTS
 62
     0
 48
50.0
100
AcDbPoint
 10
8735.976965274018
 20
9530.489007222861
 30
0.0
  0
ENDBLK
  5
17C8F
330
17C82
100
AcDbEntity
  8
0
 48
50.0
100
AcDbBlockEnd
  0
BLOCK
  5
17C9A
330
17C90
100
AcDbEntity
  8
0
 48
50.0
100
AcDbBlockBegin
  2
*D16
 70
     1
 10
0.0
 20
0.0
 30
0.0
  3
*D16
  1

  0
LINE
  5
188FB
330
17C90
100
AcDbEntity
  8
寸法
 62
     0
 48
50.0
370
    -2
100
AcDbLine
 10
10490.97696527402
 20
9233.681980414747
 30
0.0
 11
11543.51025274806
 21
9233.681980414747
 31
0.0
  0
LINE
  5
188FC
330
17C90
100
AcDbEntity
  8
寸法
 62
     0
 48
50.0
370
    -2
100
AcDbLine
 10
10490.97696527399
 20
7863.681980414738
 30
0.0
 11
11543.51025274806
 21
7863.681980414738
 31
0.0
  0
LINE
  5
188FD
330
17C90
100
AcDbEntity
  8
寸法
 62
     0
 48
50.0
370
    -2
100
AcDbLine
 10
11483.51025274806
 20
9233.681980414747
 30
0.0
 11
11483.51025274806
 21
7863.681980414738
 31
0.0
  0
INSERT
  5
188FE
330
17C90
100
AcDbEntity
  8
寸法
 62
     0
 48
50.0
370
    -2
100
AcDbBlockReference
  2
_DOTSMALL
 10
11483.51025274806
 20
9233.681980414747
 30
0.0
 41
100.0
 42
100.0
 43
100.0
 50
90.0
  0
INSERT
  5
188FF
330
17C90
100
AcDbEntity
  8
寸法
 62
     0
 48
50.0
370
    -2
100
AcDbBlockReference
  2
_DOTSMALL
 10
11483.51025274806
 20
7863.681980414738
 30
0.0
 41
100.0
 42
100.0
 43
100.0
 50
270.0
  0
MTEXT
  5
18900
330
17C90
100
AcDbEntity
  8
寸法
 62
     7
 48
50.0
100
AcDbMText
 10
11383.51025274806
 20
8548.681980414743
 30
0.0
 40
120.0
 41
0.0
 71
     5
 72
     1
  1
\A1;1370
  7
STYLE1
 11
0.0000000000000001
 21
1.0
 31
0.0
 73
     1
 44
1.0
1001
ACAD
1000
MTEXTBEGIN
1070
    73
1070
     1
1070
    44
1040
1.0
1070
    74
1070
     0
1000
MTEXTEND
  0
POINT
  5
18901
330
17C90
100
AcDbEntity
  8
DEFPOINTS
 62
     0
 48
50.0
100
AcDbPoint
 10
10470.97696527402
 20
9233.681980414747
 30
0.0
  0
POINT
  5
18902
330
17C90
100
AcDbEntity
  8
DEFPOINTS
 62
     0
 48
50.0
100
AcDbPoint
 10
10470.97696527399
 20
7863.681980414738
 30
0.0
  0
POINT
  5
18903
330
17C90
100
AcDbEntity
  8
DEFPOINTS
 62
     0
 48
50.0
100
AcDbPoint
 10
11483.51025274806
 20
7863.681980414738
 30
0.0
  0
ENDBLK
  5
17C9B
330
17C90
100
AcDbEntity
  8
0
 48
50.0
100
AcDbBlockEnd
  0
BLOCK
  5
17CA8
330
17C9C
100
AcDbEntity
  8
0
 48
50.0
100
AcDbBlockBegin
  2
*D17
 70
     1
 10
0.0
 20
0.0
 30
0.0
  3
*D17
  1

  0
LINE
  5
188F0
330
17C9C
100
AcDbEntity
  8
寸法
 62
     0
 48
50.0
370
    -2
100
AcDbLine
 10
10490.97696527402
 20
9233.681980414747
 30
0.0
 11
11178.40331100843
 21
9233.681980414747
 31
0.0
  0
LINE
  5
188F1
330
17C9C
100
AcDbEntity
  8
寸法
 62
     0
 48
50.0
370
    -2
100
AcDbLine
 10
10490.97696527402
 20
9178.681980414751
 30
0.0
 11
11178.40331100843
 21
9178.681980414751
 31
0.0
  0
LINE
  5
188F2
330
17C9C
100
AcDbEntity
  8
寸法
 62
     0
 48
50.0
370
    -2
100
AcDbLine
 10
11118.40331100843
 20
9178.681980414751
 30
0.0
 11
11118.40331100843
 21
9078.681980414751
 31
0.0
  0
LINE
  5
188F3
330
17C9C
100
AcDbEntity
  8
寸法
 62
     0
 48
50.0
370
    -2
100
AcDbLine
 10
11118.40331100843
 20
9233.681980414747
 30
0.0
 11
11118.40331100843
 21
9650.652543163225
 31
0.0
  0
LINE
  5
188F4
330
17C9C
100
AcDbEntity
  8
寸法
 62
     0
 48
50.0
370
    -2
100
AcDbLine
 10
11118.40331100843
 20
9178.681980414751
 30
0.0
 11
11118.40331100843
 21
9233.681980414747
 31
0.0
  0
INSERT
  5
188F5
330
17C9C
100
AcDbEntity
  8
寸法
 62
     0
 48
50.0
370
    -2
100
AcDbBlockReference
  2
_DOTSMALL
 10
11118.40331100843
 20
9178.681980414751
 30
0.0
 41
100.0
 42
100.0
 43
100.0
 50
90.0
  0
INSERT
  5
188F6
330
17C9C
100
AcDbEntity
  8
寸法
 62
     0
 48
50.0
370
    -2
100
AcDbBlockReference
  2
_DOTSMALL
 10
11118.40331100843
 20
9233.681980414747
 30
0.0
 41
100.0
 42
100.0
 43
100.0
 50
270.0
  0
MTEXT
  5
188F7
330
17C9C
100
AcDbEntity
  8
寸法
 62
     7
 48
50.0
100
AcDbMText
 10
11018.40331100843
 20
9542.167261788987
 30
0.0
 40
120.0
 41
0.0
 71
     5
 72
     1
  1
\A1;55
  7
STYLE1
 11
0.0000000000000001
 21
1.0
 31
0.0
 73
     1
 44
1.0
1001
ACAD
1000
MTEXTBEGIN
1070
    73
1070
     1
1070
    44
1040
1.0
1070
    74
1070
     0
1000
MTEXTEND
  0
POINT
  5
188F8
330
17C9C
100
AcDbEntity
  8
DEFPOINTS
 62
     0
 48
50.0
100
AcDbPoint
 10
10470.97696527402
 20
9233.681980414747
 30
0.0
  0
POINT
  5
188F9
330
17C9C
100
AcDbEntity
  8
DEFPOINTS
 62
     0
 48
50.0
100
AcDbPoint
 10
10470.97696527402
 20
9178.681980414751
 30
0.0
  0
POINT
  5
188FA
330
17C9C
100
AcDbEntity
  8
DEFPOINTS
 62
     0
 48
50.0
100
AcDbPoint
 10
11118.40331100843
 20
9178.681980414751
 30
0.0
  0
ENDBLK
  5
17CA9
330
17C9C
100
AcDbEntity
  8
0
 48
50.0
100
AcDbBlockEnd
  0
BLOCK
  5
17CB4
330
17CAA
100
AcDbEntity
  8
0
 48
50.0
100
AcDbBlockBegin
  2
*D18
 70
     1
 10
0.0
 20
0.0
 30
0.0
  3
*D18
  1

  0
LINE
  5
188E7
330
17CAA
100
AcDbEntity
  8
寸法
 62
     0
 48
50.0
370
    -2
100
AcDbLine
 10
10462.47696527402
 20
9198.322996566124
 30
0.0
 11
10857.83469113604
 21
9092.387213199991
 31
0.0
  0
LINE
  5
188E8
330
17CAA
100
AcDbEntity
  8
寸法
 62
     0
 48
50.0
370
    -2
100
AcDbLine
 10
10462.47696527402
 20
8748.322996566127
 30
0.0
 11
10857.83469113604
 21
8642.387213199993
 31
0.0
  0
LINE
  5
188E9
330
17CAA
100
AcDbEntity
  8
寸法
 62
     0
 48
50.0
370
    -2
100
AcDbLine
 10
10797.83469113604
 20
9108.464164745859
 30
0.0
 11
10797.83469113604
 21
8658.46416474586
 31
0.0
  0
INSERT
  5
188EA
330
17CAA
100
AcDbEntity
  8
寸法
 62
     0
 48
50.0
370
    -2
100
AcDbBlockReference
  2
_DOTSMALL
 10
10797.83469113604
 20
9108.464164745859
 30
0.0
 41
100.0
 42
100.0
 43
100.0
 50
90.0
  0
INSERT
  5
188EB
330
17CAA
100
AcDbEntity
  8
寸法
 62
     0
 48
50.0
370
    -2
100
AcDbBlockReference
  2
_DOTSMALL
 10
10797.83469113604
 20
8658.46416474586
 30
0.0
 41
100.0
 42
100.0
 43
100.0
 50
270.0
  0
MTEXT
  5
188EC
330
17CAA
100
AcDbEntity
  8
寸法
 62
     7
 48
50.0
100
AcDbMText
 10
10697.83469113604
 20
8883.464164745859
 30
0.0
 40
120.0
 41
0.0
 71
     5
 72
     1
  1
\A1;450
  7
STYLE1
 11
0.0000000000000001
 21
1.0
 31
0.0
 73
     1
 44
1.0
1001
ACAD
1000
MTEXTBEGIN
1070
    73
1070
     1
1070
    44
1040
1.0
1070
    74
1070
     0
1000
MTEXTEND
  0
POINT
  5
188ED
330
17CAA
100
AcDbEntity
  8
DEFPOINTS
 62
     0
 48
50.0
100
AcDbPoint
 10
10442.47696527402
 20
9203.681980414748
 30
0.0
  0
POINT
  5
188EE
330
17CAA
100
AcDbEntity
  8
DEFPOINTS
 62
     0
 48
50.0
100
AcDbPoint
 10
10442.47696527402
 20
8753.68198041475
 30
0.0
  0
POINT
  5
188EF
330
17CAA
100
AcDbEntity
  8
DEFPOINTS
 62
     0
 48
50.0
100
AcDbPoint
 10
10797.83469113604
 20
8658.46416474586
 30
0.0
  0
ENDBLK
  5
17CB5
330
17CAA
100
AcDbEntity
  8
0
 48
50.0
100
AcDbBlockEnd
  0
BLOCK
  5
17CC2
330
17CB6
100
AcDbEntity
  8
0
 48
50.0
100
AcDbBlockBegin
  2
*D19
 70
     1
 10
0.0
 20
0.0
 30
0.0
  3
*D19
  1

  0
LINE
  5
188DC
330
17CB6
100
AcDbEntity
  8
寸法
 62
     0
 48
50.0
370
    -2
100
AcDbLine
 10
10490.97696527399
 20
7918.681980414735
 30
0.0
 11
11178.4033110084
 21
7918.681980414735
 31
0.0
  0
LINE
  5
188DD
330
17CB6
100
AcDbEntity
  8
寸法
 62
     0
 48
50.0
370
    -2
100
AcDbLine
 10
10490.97696527399
 20
7863.681980414738
 30
0.0
 11
11178.4033110084
 21
7863.681980414738
 31
0.0
  0
LINE
  5
188DE
330
17CB6
100
AcDbEntity
  8
寸法
 62
     0
 48
50.0
370
    -2
100
AcDbLine
 10
11118.4033110084
 20
7918.681980414735
 30
0.0
 11
11118.4033110084
 21
8018.681980414735
 31
0.0
  0
LINE
  5
188DF
330
17CB6
100
AcDbEntity
  8
寸法
 62
     0
 48
50.0
370
    -2
100
AcDbLine
 10
11118.4033110084
 20
7863.681980414738
 30
0.0
 11
11118.4033110084
 21
7377.335232135635
 31
0.0
  0
LINE
  5
188E0
330
17CB6
100
AcDbEntity
  8
寸法
 62
     0
 48
50.0
370
    -2
100
AcDbLine
 10
11118.4033110084
 20
7918.681980414735
 30
0.0
 11
11118.4033110084
 21
7863.681980414738
 31
0.0
  0
INSERT
  5
188E1
330
17CB6
100
AcDbEntity
  8
寸法
 62
     0
 48
50.0
370
    -2
100
AcDbBlockReference
  2
_DOTSMALL
 10
11118.4033110084
 20
7918.681980414735
 30
0.0
 41
100.0
 42
100.0
 43
100.0
 50
270.0
  0
INSERT
  5
188E2
330
17CB6
100
AcDbEntity
  8
寸法
 62
     0
 48
50.0
370
    -2
100
AcDbBlockReference
  2
_DOTSMALL
 10
11118.4033110084
 20
7863.681980414738
 30
0.0
 41
100.0
 42
100.0
 43
100.0
 50
90.0
  0
MTEXT
  5
188E3
330
17CB6
100
AcDbEntity
  8
寸法
 62
     7
 48
50.0
100
AcDbMText
 10
11018.4033110084
 20
7485.820513509877
 30
0.0
 40
120.0
 41
0.0
 71
     5
 72
     1
  1
\A1;55
  7
STYLE1
 11
0.0000000000000001
 21
1.0
 31
0.0
 73
     1
 44
1.0
1001
ACAD
1000
MTEXTBEGIN
1070
    73
1070
     1
1070
    44
1040
1.0
1070
    74
1070
     0
1000
MTEXTEND
  0
POINT
  5
188E4
330
17CB6
100
AcDbEntity
  8
DEFPOINTS
 62
     0
 48
50.0
100
AcDbPoint
 10
10470.97696527399
 20
7918.681980414735
 30
0.0
  0
POINT
  5
188E5
330
17CB6
100
AcDbEntity
  8
DEFPOINTS
 62
     0
 48
50.0
100
AcDbPoint
 10
10470.97696527399
 20
7863.681980414738
 30
0.0
  0
POINT
  5
188E6
330
17CB6
100
AcDbEntity
  8
DEFPOINTS
 62
     0
 48
50.0
100
AcDbPoint
 10
11118.4033110084
 20
7863.681980414738
 30
0.0
  0
ENDBLK
  5
17CC3
330
17CB6
100
AcDbEntity
  8
0
 48
50.0
100
AcDbBlockEnd
  0
BLOCK
  5
17CCE
330
17CC4
100
AcDbEntity
  8
0
 48
50.0
100
AcDbBlockBegin
  2
*D20
 70
     1
 10
0.0
 20
0.0
 30
0.0
  3
*D20
  1

  0
LINE
  5
188D3
330
17CC4
100
AcDbEntity
  8
寸法
 62
     0
 48
50.0
370
    -2
100
AcDbLine
 10
10490.97696527402
 20
9178.681980414751
 30
0.0
 11
11178.40331100843
 21
9178.681980414751
 31
0.0
  0
LINE
  5
188D4
330
17CC4
100
AcDbEntity
  8
寸法
 62
     0
 48
50.0
370
    -2
100
AcDbLine
 10
10490.97696527399
 20
7918.681980414735
 30
0.0
 11
11178.40331100843
 21
7918.681980414735
 31
0.0
  0
LINE
  5
188D5
330
17CC4
100
AcDbEntity
  8
寸法
 62
     0
 48
50.0
370
    -2
100
AcDbLine
 10
11118.40331100843
 20
9178.681980414751
 30
0.0
 11
11118.40331100843
 21
7918.681980414735
 31
0.0
  0
INSERT
  5
188D6
330
17CC4
100
AcDbEntity
  8
寸法
 62
     0
 48
50.0
370
    -2
100
AcDbBlockReference
  2
_DOTSMALL
 10
11118.40331100843
 20
9178.681980414751
 30
0.0
 41
100.0
 42
100.0
 43
100.0
 50
90.0
  0
INSERT
  5
188D7
330
17CC4
100
AcDbEntity
  8
寸法
 62
     0
 48
50.0
370
    -2
100
AcDbBlockReference
  2
_DOTSMALL
 10
11118.40331100843
 20
7918.681980414735
 30
0.0
 41
100.0
 42
100.0
 43
100.0
 50
270.0
  0
MTEXT
  5
188D8
330
17CC4
100
AcDbEntity
  8
寸法
 62
     7
 48
50.0
100
AcDbMText
 10
11018.3914999848
 20
8548.681980414743
 30
0.0
 40
120.0
 41
0.0
 71
     5
 72
     1
  1
\A1;3X420=1260
  7
STYLE1
 11
0.0000000000000001
 21
1.0
 31
0.0
 73
     1
 44
1.0
1001
ACAD
1000
MTEXTBEGIN
1070
    73
1070
     1
1070
    44
1040
1.0
1070
    74
1070
     0
1000
MTEXTEND
  0
POINT
  5
188D9
330
17CC4
100
AcDbEntity
  8
DEFPOINTS
 62
     0
 48
50.0
100
AcDbPoint
 10
10470.97696527402
 20
9178.681980414751
 30
0.0
  0
POINT
  5
188DA
330
17CC4
100
AcDbEntity
  8
DEFPOINTS
 62
     0
 48
50.0
100
AcDbPoint
 10
10470.97696527399
 20
7918.681980414735
 30
0.0
  0
POINT
  5
188DB
330
17CC4
100
AcDbEntity
  8
DEFPOINTS
 62
     0
 48
50.0
100
AcDbPoint
 10
11118.40331100843
 20
7918.681980414735
 30
0.0
  0
ENDBLK
  5
17CCF
330
17CC4
100
AcDbEntity
  8
0
 48
50.0
100
AcDbBlockEnd
  0
BLOCK
  5
17CE6
330
17CDC
100
AcDbEntity
  8
0
 48
50.0
100
AcDbBlockBegin
  2
*D21
 70
     1
 10
0.0
 20
0.0
 30
0.0
  3
*D21
  1

  0
LINE
  5
188CA
330
17CDC
100
AcDbEntity
  8
寸法
 62
     0
 48
50.0
370
    -2
100
AcDbLine
 10
9584.117981425396
 20
8733.681980414756
 30
0.0
 11
9494.831240171718
 21
8400.459325613784
 31
0.0
  0
LINE
  5
188CB
330
17CDC
100
AcDbEntity
  8
寸法
 62
     0
 48
50.0
370
    -2
100
AcDbLine
 10
10437.11798142541
 20
8733.68198041475
 30
0.0
 11
10347.83124017173
 21
8400.459325613784
 31
0.0
  0
LINE
  5
188CC
330
17CDC
100
AcDbEntity
  8
寸法
 62
     0
 48
50.0
370
    -2
100
AcDbLine
 10
9510.908191717588
 20
8460.459325613783
 30
0.0
 11
10363.9081917176
 21
8460.459325613783
 31
0.0
  0
INSERT
  5
188CD
330
17CDC
100
AcDbEntity
  8
寸法
 62
     0
 48
50.0
370
    -2
100
AcDbBlockReference
  2
_DOTSMALL
 10
9510.908191717588
 20
8460.459325613783
 30
0.0
 41
100.0
 42
100.0
 43
100.0
 50
180.0
  0
INSERT
  5
188CE
330
17CDC
100
AcDbEntity
  8
寸法
 62
     0
 48
50.0
370
    -2
100
AcDbBlockReference
  2
_DOTSMALL
 10
10363.9081917176
 20
8460.459325613783
 30
0.0
 41
100.0
 42
100.0
 43
100.0
  0
MTEXT
  5
188CF
330
17CDC
100
AcDbEntity
  8
寸法
 62
     7
 48
50.0
100
AcDbMText
 10
9968.824027392287
 20
8560.459325613782
 30
0.0
 40
120.0
 41
0.0
 71
     5
 72
     1
  1
\A1;853
  7
STYLE1
 73
     1
 44
1.0
1001
ACAD
1000
MTEXTBEGIN
1070
    73
1070
     1
1070
    44
1040
1.0
1070
    74
1070
     0
1000
MTEXTEND
  0
POINT
  5
188D0
330
17CDC
100
AcDbEntity
  8
DEFPOINTS
 62
     0
 48
50.0
100
AcDbPoint
 10
9589.476965274018
 20
8753.681980414757
 30
0.0
  0
POINT
  5
188D1
330
17CDC
100
AcDbEntity
  8
DEFPOINTS
 62
     0
 48
50.0
100
AcDbPoint
 10
10442.47696527403
 20
8753.681980414752
 30
0.0
  0
POINT
  5
188D2
330
17CDC
100
AcDbEntity
  8
DEFPOINTS
 62
     0
 48
50.0
100
AcDbPoint
 10
10363.9081917176
 20
8460.459325613783
 30
0.0
  0
ENDBLK
  5
17CE7
330
17CDC
100
AcDbEntity
  8
0
 48
50.0
100
AcDbBlockEnd
  0
BLOCK
  5
17CF4
330
17CE8
100
AcDbEntity
  8
0
 48
50.0
100
AcDbBlockBegin
  2
*D22
 70
     1
 10
0.0
 20
0.0
 30
0.0
  3
*D22
  1

  0
LINE
  5
188BF
330
17CE8
100
AcDbEntity
  8
寸法
 62
     0
 48
50.0
370
    -2
100
AcDbLine
 10
10415.97696527402
 20
9253.681980414746
 30
0.0
 11
10415.97696527402
 21
9590.489007222958
 31
0.0
  0
LINE
  5
188C0
330
17CE8
100
AcDbEntity
  8
寸法
 62
     0
 48
50.0
370
    -2
100
AcDbLine
 10
10470.97696527402
 20
9253.681980414746
 30
0.0
 11
10470.97696527402
 21
9590.489007222958
 31
0.0
  0
LINE
  5
188C1
330
17CE8
100
AcDbEntity
  8
寸法
 62
     0
 48
50.0
370
    -2
100
AcDbLine
 10
10415.97696527402
 20
9530.489007222957
 30
0.0
 11
10315.97696527402
 21
9530.489007222957
 31
0.0
  0
LINE
  5
188C2
330
17CE8
100
AcDbEntity
  8
寸法
 62
     0
 48
50.0
370
    -2
100
AcDbLine
 10
10470.97696527402
 20
9530.489007222957
 30
0.0
 11
10887.94752802249
 21
9530.489007222957
 31
0.0
  0
LINE
  5
188C3
330
17CE8
100
AcDbEntity
  8
寸法
 62
     0
 48
50.0
370
    -2
100
AcDbLine
 10
10415.97696527402
 20
9530.489007222957
 30
0.0
 11
10470.97696527402
 21
9530.489007222957
 31
0.0
  0
INSERT
  5
188C4
330
17CE8
100
AcDbEntity
  8
寸法
 62
     0
 48
50.0
370
    -2
100
AcDbBlockReference
  2
_DOTSMALL
 10
10415.97696527402
 20
9530.489007222957
 30
0.0
 41
100.0
 42
100.0
 43
100.0
  0
INSERT
  5
188C5
330
17CE8
100
AcDbEntity
  8
寸法
 62
     0
 48
50.0
370
    -2
100
AcDbBlockReference
  2
_DOTSMALL
 10
10470.97696527402
 20
9530.489007222957
 30
0.0
 41
100.0
 42
100.0
 43
100.0
 50
180.0
  0
MTEXT
  5
188C6
330
17CE8
100
AcDbEntity
  8
寸法
 62
     7
 48
50.0
100
AcDbMText
 10
10779.46224664825
 20
9630.489007222957
 30
0.0
 40
120.0
 41
0.0
 71
     5
 72
     1
  1
\A1;55
  7
STYLE1
 73
     1
 44
1.0
1001
ACAD
1000
MTEXTBEGIN
1070
    73
1070
     1
1070
    44
1040
1.0
1070
    74
1070
     0
1000
MTEXTEND
  0
POINT
  5
188C7
330
17CE8
100
AcDbEntity
  8
DEFPOINTS
 62
     0
 48
50.0
100
AcDbPoint
 10
10415.97696527402
 20
9233.681980414747
 30
0.0
  0
POINT
  5
188C8
330
17CE8
100
AcDbEntity
  8
DEFPOINTS
 62
     0
 48
50.0
100
AcDbPoint
 10
10470.97696527402
 20
9233.681980414747
 30
0.0
  0
POINT
  5
188C9
330
17CE8
100
AcDbEntity
  8
DEFPOINTS
 62
     0
 48
50.0
100
AcDbPoint
 10
10470.97696527402
 20
9530.489007222957
 30
0.0
  0
ENDBLK
  5
17CF5
330
17CE8
100
AcDbEntity
  8
0
 48
50.0
100
AcDbBlockEnd
  0
BLOCK
  5
17D00
330
17CF6
100
AcDbEntity
  8
0
 48
50.0
100
AcDbBlockBegin
  2
*D23
 70
     1
 10
0.0
 20
0.0
 30
0.0
  3
*D23
  1

  0
LINE
  5
188B6
330
17CF6
100
AcDbEntity
  8
寸法
 62
     0
 48
50.0
370
    -2
100
AcDbLine
 10
8735.976965274018
 20
9253.681980414652
 30
0.0
 11
8735.976965274018
 21
9590.489007222977
 31
0.0
  0
LINE
  5
188B7
330
17CF6
100
AcDbEntity
  8
寸法
 62
     0
 48
50.0
370
    -2
100
AcDbLine
 10
10415.97696527402
 20
9253.681980414746
 30
0.0
 11
10415.97696527402
 21
9590.489007222977
 31
0.0
  0
LINE
  5
188B8
330
17CF6
100
AcDbEntity
  8
寸法
 62
     0
 48
50.0
370
    -2
100
AcDbLine
 10
8735.976965274018
 20
9530.489007222978
 30
0.0
 11
10415.97696527402
 21
9530.489007222978
 31
0.0
  0
INSERT
  5
188B9
330
17CF6
100
AcDbEntity
  8
寸法
 62
     0
 48
50.0
370
    -2
100
AcDbBlockReference
  2
_DOTSMALL
 10
8735.976965274018
 20
9530.489007222978
 30
0.0
 41
100.0
 42
100.0
 43
100.0
 50
180.0
  0
INSERT
  5
188BA
330
17CF6
100
AcDbEntity
  8
寸法
 62
     0
 48
50.0
370
    -2
100
AcDbBlockReference
  2
_DOTSMALL
 10
10415.97696527402
 20
9530.489007222978
 30
0.0
 41
100.0
 42
100.0
 43
100.0
  0
MTEXT
  5
188BB
330
17CF6
100
AcDbEntity
  8
寸法
 62
     7
 48
50.0
100
AcDbMText
 10
9575.976965274016
 20
9630.5008182466
 30
0.0
 40
120.0
 41
0.0
 71
     5
 72
     1
  1
\A1;4X420=1680
  7
STYLE1
 73
     1
 44
1.0
1001
ACAD
1000
MTEXTBEGIN
1070
    73
1070
     1
1070
    44
1040
1.0
1070
    74
1070
     0
1000
MTEXTEND
  0
POINT
  5
188BC
330
17CF6
100
AcDbEntity
  8
DEFPOINTS
 62
     0
 48
50.0
100
AcDbPoint
 10
8735.976965274018
 20
9233.681980414653
 30
0.0
  0
POINT
  5
188BD
330
17CF6
100
AcDbEntity
  8
DEFPOINTS
 62
     0
 48
50.0
100
AcDbPoint
 10
10415.97696527402
 20
9233.681980414747
 30
0.0
  0
POINT
  5
188BE
330
17CF6
100
AcDbEntity
  8
DEFPOINTS
 62
     0
 48
50.0
100
AcDbPoint
 10
10415.97696527402
 20
9530.489007222978
 30
0.0
  0
ENDBLK
  5
17D01
330
17CF6
100
AcDbEntity
  8
0
 48
50.0
100
AcDbBlockEnd
  0
BLOCK
  5
17D0C
330
17D02
100
AcDbEntity
  8
0
 48
50.0
100
AcDbBlockBegin
  2
*D24
 70
     1
 10
0.0
 20
0.0
 30
0.0
  3
*D24
  1

  0
LINE
  5
181CB
330
17D02
100
AcDbEntity
  8
寸法
 62
     0
 48
50.0
370
    -2
100
AcDbLine
 10
8780.976965274012
 20
2267.51058976616
 30
0.0
 11
8780.976965274012
 21
1941.463260465783
 31
0.0
  0
LINE
  5
181CC
330
17D02
100
AcDbEntity
  8
寸法
 62
     0
 48
50.0
370
    -2
100
AcDbLine
 10
8580.976965274009
 20
2267.51058976616
 30
0.0
 11
8580.976965274009
 21
1941.463260465783
 31
0.0
  0
LINE
  5
181CD
330
17D02
100
AcDbEntity
  8
寸法
 62
     0
 48
50.0
370
    -2
100
AcDbLine
 10
8780.976965274012
 20
2001.463260465784
 30
0.0
 11
8580.976965274009
 21
2001.463260465784
 31
0.0
  0
INSERT
  5
181CE
330
17D02
100
AcDbEntity
  8
寸法
 62
     0
 48
50.0
370
    -2
100
AcDbBlockReference
  2
_DOTSMALL
 10
8780.976965274012
 20
2001.463260465784
 30
0.0
 41
100.0
 42
100.0
 43
100.0
  0
INSERT
  5
181CF
330
17D02
100
AcDbEntity
  8
寸法
 62
     0
 48
50.0
370
    -2
100
AcDbBlockReference
  2
_DOTSMALL
 10
8580.976965274009
 20
2001.463260465784
 30
0.0
 41
100.0
 42
100.0
 43
100.0
 50
180.0
  0
MTEXT
  5
181D0
330
17D02
100
AcDbEntity
  8
寸法
 62
     7
 48
50.0
100
AcDbMText
 10
8680.976965274011
 20
2101.475071489406
 30
0.0
 40
120.0
 41
0.0
 71
     5
 72
     1
  1
\A1;200
  7
STYLE1
 73
     1
 44
1.0
1001
ACAD
1000
MTEXTBEGIN
1070
    73
1070
     1
1070
    44
1040
1.0
1070
    74
1070
     0
1000
MTEXTEND
  0
POINT
  5
181D1
330
17D02
100
AcDbEntity
  8
DEFPOINTS
 62
     0
 48
50.0
100
AcDbPoint
 10
8780.976965274012
 20
2287.51058976616
 30
0.0
  0
POINT
  5
181D2
330
17D02
100
AcDbEntity
  8
DEFPOINTS
 62
     0
 48
50.0
100
AcDbPoint
 10
8580.976965274009
 20
2287.51058976616
 30
0.0
  0
POINT
  5
181D3
330
17D02
100
AcDbEntity
  8
DEFPOINTS
 62
     0
 48
50.0
100
AcDbPoint
 10
8580.976965274009
 20
2001.463260465784
 30
0.0
  0
ENDBLK
  5
17D0D
330
17D02
100
AcDbEntity
  8
0
 48
50.0
100
AcDbBlockEnd
  0
BLOCK
  5
17D18
330
17D0E
100
AcDbEntity
  8
0
 48
50.0
100
AcDbBlockBegin
  2
*D25
 70
     1
 10
0.0
 20
0.0
 30
0.0
  3
*D25
  1

  0
LINE
  5
188AD
330
17D0E
100
AcDbEntity
  8
寸法
 62
     0
 48
50.0
370
    -2
100
AcDbLine
 10
8704.117981425396
 20
8733.681980414651
 30
0.0
 11
8614.831240171719
 21
8400.459325613677
 31
0.0
  0
LINE
  5
188AE
330
17D0E
100
AcDbEntity
  8
寸法
 62
     0
 48
50.0
370
    -2
100
AcDbLine
 10
9557.117981425406
 20
8733.681980414646
 30
0.0
 11
9467.831240171731
 21
8400.459325613677
 31
0.0
  0
LINE
  5
188AF
330
17D0E
100
AcDbEntity
  8
寸法
 62
     0
 48
50.0
370
    -2
100
AcDbLine
 10
8630.908191717585
 20
8460.459325613678
 30
0.0
 11
9483.908191717599
 21
8460.459325613678
 31
0.0
  0
INSERT
  5
188B0
330
17D0E
100
AcDbEntity
  8
寸法
 62
     0
 48
50.0
370
    -2
100
AcDbBlockReference
  2
_DOTSMALL
 10
8630.908191717585
 20
8460.459325613678
 30
0.0
 41
100.0
 42
100.0
 43
100.0
 50
180.0
  0
INSERT
  5
188B1
330
17D0E
100
AcDbEntity
  8
寸法
 62
     0
 48
50.0
370
    -2
100
AcDbBlockReference
  2
_DOTSMALL
 10
9483.908191717599
 20
8460.459325613678
 30
0.0
 41
100.0
 42
100.0
 43
100.0
  0
MTEXT
  5
188B2
330
17D0E
100
AcDbEntity
  8
寸法
 62
     7
 48
50.0
100
AcDbMText
 10
9088.824027392286
 20
8560.459325613678
 30
0.0
 40
120.0
 41
0.0
 71
     5
 72
     1
  1
\A1;853
  7
STYLE1
 73
     1
 44
1.0
1001
ACAD
1000
MTEXTBEGIN
1070
    73
1070
     1
1070
    44
1040
1.0
1070
    74
1070
     0
1000
MTEXTEND
  0
POINT
  5
188B3
330
17D0E
100
AcDbEntity
  8
DEFPOINTS
 62
     0
 48
50.0
100
AcDbPoint
 10
8709.476965274019
 20
8753.681980414651
 30
0.0
  0
POINT
  5
188B4
330
17D0E
100
AcDbEntity
  8
DEFPOINTS
 62
     0
 48
50.0
100
AcDbPoint
 10
9562.476965274028
 20
8753.681980414645
 30
0.0
  0
POINT
  5
188B5
330
17D0E
100
AcDbEntity
  8
DEFPOINTS
 62
     0
 48
50.0
100
AcDbPoint
 10
9483.908191717599
 20
8460.459325613678
 30
0.0
  0
ENDBLK
  5
17D19
330
17D0E
100
AcDbEntity
  8
0
 48
50.0
100
AcDbBlockEnd
  0
BLOCK
  5
17D32
330
17D28
100
AcDbEntity
  8
0
 48
50.0
100
AcDbBlockBegin
  2
*D26
 70
     1
 10
0.0
 20
0.0
 30
0.0
  3
*D26
  1

  0
LINE
  5
181AE
330
17D28
100
AcDbEntity
  8
寸法
 62
     0
 48
50.0
370
    -2
100
AcDbLine
 10
8688.976965274028
 20
4670.510589766162
 30
0.0
 11
8300.962219637682
 21
4670.510589766162
 31
0.0
  0
LINE
  5
181AF
330
17D28
100
AcDbEntity
  8
寸法
 62
     0
 48
50.0
370
    -2
100
AcDbLine
 10
8688.976965274028
 20
2645.510589766161
 30
0.0
 11
8300.96221963768
 21
2645.510589766161
 31
0.0
  0
LINE
  5
181B0
330
17D28
100
AcDbEntity
  8
寸法
 62
     0
 48
50.0
370
    -2
100
AcDbLine
 10
8360.962219637682
 20
4670.510589766162
 30
0.0
 11
8360.962219637681
 21
2645.510589766161
 31
0.0
  0
INSERT
  5
181B1
330
17D28
100
AcDbEntity
  8
寸法
 62
     0
 48
50.0
370
    -2
100
AcDbBlockReference
  2
_DOTSMALL
 10
8360.962219637682
 20
4670.510589766162
 30
0.0
 41
100.0
 42
100.0
 43
100.0
 50
90.0
  0
INSERT
  5
181B2
330
17D28
100
AcDbEntity
  8
寸法
 62
     0
 48
50.0
370
    -2
100
AcDbBlockReference
  2
_DOTSMALL
 10
8360.962219637681
 20
2645.510589766161
 30
0.0
 41
100.0
 42
100.0
 43
100.0
 50
270.0
  0
MTEXT
  5
181B3
330
17D28
100
AcDbEntity
  8
寸法
 62
     7
 48
50.0
100
AcDbMText
 10
8260.950408614059
 20
3655.102551191849
 30
0.0
 40
120.0
 41
0.0
 71
     5
 72
     1
  1
\A1;有効開口部高サ2025
  7
STYLE1
 11
0.0000000000000001
 21
1.0
 31
0.0
 73
     1
 44
1.0
1001
ACAD
1000
MTEXTBEGIN
1070
    73
1070
     1
1070
    44
1040
1.0
1070
    74
1070
     0
1000
MTEXTEND
  0
POINT
  5
181B4
330
17D28
100
AcDbEntity
  8
DEFPOINTS
 62
     0
 48
50.0
100
AcDbPoint
 10
8708.976965274027
 20
4670.510589766162
 30
0.0
  0
POINT
  5
181B5
330
17D28
100
AcDbEntity
  8
DEFPOINTS
 62
     0
 48
50.0
100
AcDbPoint
 10
8708.976965274027
 20
2645.510589766161
 30
0.0
  0
POINT
  5
181B6
330
17D28
100
AcDbEntity
  8
DEFPOINTS
 62
     0
 48
50.0
100
AcDbPoint
 10
8360.962219637681
 20
2645.510589766161
 30
0.0
  0
ENDBLK
  5
17D33
330
17D28
100
AcDbEntity
  8
0
 48
50.0
100
AcDbBlockEnd
  0
BLOCK
  5
17D4A
330
17D40
100
AcDbEntity
  8
0
 48
50.0
100
AcDbBlockBegin
  2
*D27
 70
     1
 10
0.0
 20
0.0
 30
0.0
  3
*D27
  1

  0
LINE
  5
1819C
330
17D40
100
AcDbEntity
  8
寸法
 62
     0
 48
50.0
370
    -2
100
AcDbLine
 10
4990.192548249448
 20
2267.51058976616
 30
0.0
 11
4990.192548249448
 21
1941.463260465783
 31
0.0
  0
LINE
  5
1819D
330
17D40
100
AcDbEntity
  8
寸法
 62
     0
 48
50.0
370
    -2
100
AcDbLine
 10
4790.192548249452
 20
2267.51058976616
 30
0.0
 11
4790.192548249452
 21
1941.463260465783
 31
0.0
  0
LINE
  5
1819E
330
17D40
100
AcDbEntity
  8
寸法
 62
     0
 48
50.0
370
    -2
100
AcDbLine
 10
4990.192548249448
 20
2001.463260465784
 30
0.0
 11
4790.192548249452
 21
2001.463260465784
 31
0.0
  0
INSERT
  5
1819F
330
17D40
100
AcDbEntity
  8
寸法
 62
     0
 48
50.0
370
    -2
100
AcDbBlockReference
  2
_DOTSMALL
 10
4990.192548249448
 20
2001.463260465784
 30
0.0
 41
100.0
 42
100.0
 43
100.0
  0
INSERT
  5
181A0
330
17D40
100
AcDbEntity
  8
寸法
 62
     0
 48
50.0
370
    -2
100
AcDbBlockReference
  2
_DOTSMALL
 10
4790.192548249452
 20
2001.463260465784
 30
0.0
 41
100.0
 42
100.0
 43
100.0
 50
180.0
  0
MTEXT
  5
181A1
330
17D40
100
AcDbEntity
  8
寸法
 62
     7
 48
50.0
100
AcDbMText
 10
4890.19254824945
 20
2101.475071489406
 30
0.0
 40
120.0
 41
0.0
 71
     5
 72
     1
  1
\A1;200
  7
STYLE1
 73
     1
 44
1.0
1001
ACAD
1000
MTEXTBEGIN
1070
    73
1070
     1
1070
    44
1040
1.0
1070
    74
1070
     0
1000
MTEXTEND
  0
POINT
  5
181A2
330
17D40
100
AcDbEntity
  8
DEFPOINTS
 62
     0
 48
50.0
100
AcDbPoint
 10
4990.192548249448
 20
2287.51058976616
 30
0.0
  0
POINT
  5
181A3
330
17D40
100
AcDbEntity
  8
DEFPOINTS
 62
     0
 48
50.0
100
AcDbPoint
 10
4790.192548249452
 20
2287.51058976616
 30
0.0
  0
POINT
  5
181A4
330
17D40
100
AcDbEntity
  8
DEFPOINTS
 62
     0
 48
50.0
100
AcDbPoint
 10
4790.192548249452
 20
2001.463260465784
 30
0.0
  0
ENDBLK
  5
17D4B
330
17D40
100
AcDbEntity
  8
0
 48
50.0
100
AcDbBlockEnd
  0
BLOCK
  5
17D56
330
17D4C
100
AcDbEntity
  8
0
 48
50.0
100
AcDbBlockBegin
  2
*D28
 70
     1
 10
0.0
 20
0.0
 30
0.0
  3
*D28
  1

  0
LINE
  5
18193
330
17D4C
100
AcDbEntity
  8
寸法
 62
     0
 48
50.0
370
    -2
100
AcDbLine
 10
4770.192548249451
 20
2287.51058976616
 30
0.0
 11
4580.692545002814
 21
2287.51058976616
 31
0.0
  0
LINE
  5
18194
330
17D4C
100
AcDbEntity
  8
寸法
 62
     0
 48
50.0
370
    -2
100
AcDbLine
 10
4745.19254824945
 20
2487.510589766162
 30
0.0
 11
4580.692545002814
 21
2487.510589766162
 31
0.0
  0
LINE
  5
18195
330
17D4C
100
AcDbEntity
  8
寸法
 62
     0
 48
50.0
370
    -2
100
AcDbLine
 10
4640.692545002814
 20
2287.51058976616
 30
0.0
 11
4640.692545002814
 21
2487.510589766162
 31
0.0
  0
INSERT
  5
18196
330
17D4C
100
AcDbEntity
  8
寸法
 62
     0
 48
50.0
370
    -2
100
AcDbBlockReference
  2
_DOTSMALL
 10
4640.692545002814
 20
2287.51058976616
 30
0.0
 41
100.0
 42
100.0
 43
100.0
 50
270.0
  0
INSERT
  5
18197
330
17D4C
100
AcDbEntity
  8
寸法
 62
     0
 48
50.0
370
    -2
100
AcDbBlockReference
  2
_DOTSMALL
 10
4640.692545002814
 20
2487.510589766162
 30
0.0
 41
100.0
 42
100.0
 43
100.0
 50
90.0
  0
MTEXT
  5
18198
330
17D4C
100
AcDbEntity
  8
寸法
 62
     7
 48
50.0
100
AcDbMText
 10
4540.680733979193
 20
2387.510589766161
 30
0.0
 40
120.0
 41
0.0
 71
     5
 72
     1
  1
\A1;200
  7
STYLE1
 11
0.0000000000000001
 21
1.0
 31
0.0
 73
     1
 44
1.0
1001
ACAD
1000
MTEXTBEGIN
1070
    73
1070
     1
1070
    44
1040
1.0
1070
    74
1070
     0
1000
MTEXTEND
  0
POINT
  5
18199
330
17D4C
100
AcDbEntity
  8
DEFPOINTS
 62
     0
 48
50.0
100
AcDbPoint
 10
4790.192548249452
 20
2287.51058976616
 30
0.0
  0
POINT
  5
1819A
330
17D4C
100
AcDbEntity
  8
DEFPOINTS
 62
     0
 48
50.0
100
AcDbPoint
 10
4765.19254824945
 20
2487.510589766162
 30
0.0
  0
POINT
  5
1819B
330
17D4C
100
AcDbEntity
  8
DEFPOINTS
 62
     0
 48
50.0
100
AcDbPoint
 10
4640.692545002814
 20
2487.510589766162
 30
0.0
  0
ENDBLK
  5
17D57
330
17D4C
100
AcDbEntity
  8
0
 48
50.0
100
AcDbBlockEnd
  0
BLOCK
  5
18453
330
18449
100
AcDbEntity
  8
0
 48
50.0
100
AcDbBlockBegin
  2
*D29
 70
     1
 10
0.0
 20
0.0
 30
0.0
  3
*D29
  1

  0
LINE
  5
188A4
330
18449
100
AcDbEntity
  8
寸法
 62
     0
 48
50.0
370
    -2
100
AcDbLine
 10
8747.976965273982
 20
7766.68198041458
 30
0.0
 11
8747.976965273982
 21
7121.606962366356
 31
0.0
  0
LINE
  5
188A5
330
18449
100
AcDbEntity
  8
寸法
 62
     0
 48
50.0
370
    -2
100
AcDbLine
 10
9697.976965273982
 20
7766.68198041458
 30
0.0
 11
9697.976965273982
 21
7121.606962366356
 31
0.0
  0
LINE
  5
188A6
330
18449
100
AcDbEntity
  8
寸法
 62
     0
 48
50.0
370
    -2
100
AcDbLine
 10
8767.976965273982
 20
7161.606962366355
 30
0.0
 11
9677.976965273982
 21
7161.606962366355
 31
0.0
  0
INSERT
  5
188A7
330
18449
100
AcDbEntity
  8
寸法
 62
     0
 48
50.0
370
    -2
100
AcDbBlockReference
  2
_DOT
 10
8747.976965273982
 20
7161.606962366355
 30
0.0
 41
20.0
 42
20.0
 43
20.0
 50
180.0
  0
INSERT
  5
188A8
330
18449
100
AcDbEntity
  8
寸法
 62
     0
 48
50.0
370
    -2
100
AcDbBlockReference
  2
_DOT
 10
9697.976965273982
 20
7161.606962366355
 30
0.0
 41
20.0
 42
20.0
 43
20.0
  0
MTEXT
  5
188A9
330
18449
100
AcDbEntity
  8
寸法
 62
     7
 48
50.0
100
AcDbMText
 10
9222.976965273982
 20
7353.606962366355
 30
0.0
 40
120.0
 41
0.0
 71
     5
 72
     1
  1
\A1;有効開口部間口\P950
  7
STYLE1
 73
     1
 44
1.0
1001
ACAD
1000
MTEXTBEGIN
1070
    73
1070
     1
1070
    44
1040
1.0
1070
    74
1070
     0
1000
MTEXTEND
  0
POINT
  5
188AA
330
18449
100
AcDbEntity
  8
DEFPOINTS
 62
     0
 48
50.0
100
AcDbPoint
 10
8747.976965273982
 20
7786.681980414581
 30
0.0
  0
POINT
  5
188AB
330
18449
100
AcDbEntity
  8
DEFPOINTS
 62
     0
 48
50.0
100
AcDbPoint
 10
9697.976965273982
 20
7786.681980414581
 30
0.0
  0
POINT
  5
188AC
330
18449
100
AcDbEntity
  8
DEFPOINTS
 62
     0
 48
50.0
100
AcDbPoint
 10
9697.976965273982
 20
7161.606962366355
 30
0.0
  0
ENDBLK
  5
18454
330
18449
100
AcDbEntity
  8
0
 48
50.0
100
AcDbBlockEnd
  0
BLOCK
  5
1873A
330
18730
100
AcDbEntity
  8
0
 48
50.0
100
AcDbBlockBegin
  2
*D30
 70
     1
 10
0.0
 20
0.0
 30
0.0
  3
*D30
  1

  0
LINE
  5
1889B
330
18730
100
AcDbEntity
  8
寸法
 62
     0
 48
50.0
370
    -2
100
AcDbLine
 10
8680.976965274011
 20
7843.68198041461
 30
0.0
 11
8680.976965274011
 21
6611.854189669706
 31
0.0
  0
LINE
  5
1889C
330
18730
100
AcDbEntity
  8
寸法
 62
     0
 48
50.0
370
    -2
100
AcDbLine
 10
10470.97696527399
 20
7843.681980414737
 30
0.0
 11
10470.97696527399
 21
6611.854189669706
 31
0.0
  0
LINE
  5
1889D
330
18730
100
AcDbEntity
  8
寸法
 62
     0
 48
50.0
370
    -2
100
AcDbLine
 10
8680.976965274011
 20
6671.854189669706
 30
0.0
 11
10470.97696527399
 21
6671.854189669706
 31
0.0
  0
INSERT
  5
1889E
330
18730
100
AcDbEntity
  8
寸法
 62
     0
 48
50.0
370
    -2
100
AcDbBlockReference
  2
_DOTSMALL
 10
8680.976965274011
 20
6671.854189669706
 30
0.0
 41
100.0
 42
100.0
 43
100.0
 50
180.0
  0
INSERT
  5
1889F
330
18730
100
AcDbEntity
  8
寸法
 62
     0
 48
50.0
370
    -2
100
AcDbBlockReference
  2
_DOTSMALL
 10
10470.97696527399
 20
6671.854189669706
 30
0.0
 41
100.0
 42
100.0
 43
100.0
  0
MTEXT
  5
188A0
330
18730
100
AcDbEntity
  8
寸法
 62
     7
 48
50.0
100
AcDbMText
 10
9564.123715605365
 20
6771.854189669706
 30
0.0
 40
120.0
 41
0.0
 71
     5
 72
     1
  1
\A1;1790
  7
STYLE1
 73
     1
 44
1.0
1001
ACAD
1000
MTEXTBEGIN
1070
    73
1070
     1
1070
    44
1040
1.0
1070
    74
1070
     0
1000
MTEXTEND
  0
POINT
  5
188A1
330
18730
100
AcDbEntity
  8
DEFPOINTS
 62
     0
 48
50.0
100
AcDbPoint
 10
8680.976965274011
 20
7863.681980414608
 30
0.0
  0
POINT
  5
188A2
330
18730
100
AcDbEntity
  8
DEFPOINTS
 62
     0
 48
50.0
100
AcDbPoint
 10
10470.97696527399
 20
7863.681980414738
 30
0.0
  0
POINT
  5
188A3
330
18730
100
AcDbEntity
  8
DEFPOINTS
 62
     0
 48
50.0
100
AcDbPoint
 10
10470.97696527399
 20
6671.854189669706
 30
0.0
  0
ENDBLK
  5
1873B
330
18730
100
AcDbEntity
  8
0
 48
50.0
100
AcDbBlockEnd
  0
BLOCK
  5
18748
330
1873C
100
AcDbEntity
  8
0
 48
50.0
100
AcDbBlockBegin
  2
*D31
 70
     1
 10
0.0
 20
0.0
 30
0.0
  3
*D31
  1

  0
LINE
  5
18890
330
1873C
100
AcDbEntity
  8
寸法
 62
     0
 48
50.0
370
    -2
100
AcDbLine
 10
8660.976965274011
 20
7863.681980414608
 30
0.0
 11
8346.365719647293
 21
7863.681980414608
 31
0.0
  0
LINE
  5
18891
330
1873C
100
AcDbEntity
  8
寸法
 62
     0
 48
50.0
370
    -2
100
AcDbLine
 10
8688.976965273988
 20
7788.681980414608
 30
0.0
 11
8346.365719647293
 21
7788.681980414608
 31
0.0
  0
LINE
  5
18892
330
1873C
100
AcDbEntity
  8
寸法
 62
     0
 48
50.0
370
    -2
100
AcDbLine
 10
8386.365719647294
 20
7883.681980414609
 30
0.0
 11
8386.365719647294
 21
7903.681980414609
 31
0.0
  0
LINE
  5
18893
330
1873C
100
AcDbEntity
  8
寸法
 62
     0
 48
50.0
370
    -2
100
AcDbLine
 10
8386.365719647294
 20
7768.681980414609
 30
0.0
 11
8386.365719647294
 21
7547.71141766613
 31
0.0
  0
LINE
  5
18894
330
1873C
100
AcDbEntity
  8
寸法
 62
     0
 48
50.0
370
    -2
100
AcDbLine
 10
8386.365719647294
 20
7863.681980414608
 30
0.0
 11
8386.365719647294
 21
7788.681980414608
 31
0.0
  0
INSERT
  5
18895
330
1873C
100
AcDbEntity
  8
寸法
 62
     0
 48
50.0
370
    -2
100
AcDbBlockReference
  2
_DOT
 10
8386.365719647294
 20
7863.681980414608
 30
0.0
 41
20.0
 42
20.0
 43
20.0
 50
270.0
  0
INSERT
  5
18896
330
1873C
100
AcDbEntity
  8
寸法
 62
     0
 48
50.0
370
    -2
100
AcDbBlockReference
  2
_DOT
 10
8386.365719647294
 20
7788.681980414608
 30
0.0
 41
20.0
 42
20.0
 43
20.0
 50
90.0
  0
MTEXT
  5
18897
330
1873C
100
AcDbEntity
  8
寸法
 62
     7
 48
50.0
100
AcDbMText
 10
8294.365719647293
 20
7648.19669904037
 30
0.0
 40
120.0
 41
0.0
 71
     5
 72
     1
  1
\A1;75
  7
STYLE1
 11
0.0000000000000001
 21
1.0
 31
0.0
 73
     1
 44
1.0
1001
ACAD
1000
MTEXTBEGIN
1070
    73
1070
     1
1070
    44
1040
1.0
1070
    74
1070
     0
1000
MTEXTEND
  0
POINT
  5
18898
330
1873C
100
AcDbEntity
  8
DEFPOINTS
 62
     0
 48
50.0
100
AcDbPoint
 10
8680.976965274011
 20
7863.681980414608
 30
0.0
  0
POINT
  5
18899
330
1873C
100
AcDbEntity
  8
DEFPOINTS
 62
     0
 48
50.0
100
AcDbPoint
 10
8708.976965273988
 20
7788.681980414608
 30
0.0
  0
POINT
  5
1889A
330
1873C
100
AcDbEntity
  8
DEFPOINTS
 62
     0
 48
50.0
100
AcDbPoint
 10
8386.365719647294
 20
7788.681980414608
 30
0.0
  0
ENDBLK
  5
18749
330
1873C
100
AcDbEntity
  8
0
 48
50.0
100
AcDbBlockEnd
  0
BLOCK
  5
18754
330
1874A
100
AcDbEntity
  8
0
 48
50.0
100
AcDbBlockBegin
  2
*D32
 70
     1
 10
0.0
 20
0.0
 30
0.0
  3
*D32
  1

  0
LINE
  5
18887
330
1874A
100
AcDbEntity
  8
寸法
 62
     0
 48
50.0
370
    -2
100
AcDbLine
 10
8708.976965273981
 20
7766.681980414614
 30
0.0
 11
8708.976965273981
 21
6851.611710563833
 31
0.0
  0
LINE
  5
18888
330
1874A
100
AcDbEntity
  8
寸法
 62
     0
 48
50.0
370
    -2
100
AcDbLine
 10
10442.97696527398
 20
7766.681980414613
 30
0.0
 11
10442.97696527398
 21
6851.611710563833
 31
0.0
  0
LINE
  5
18889
330
1874A
100
AcDbEntity
  8
寸法
 62
     0
 48
50.0
370
    -2
100
AcDbLine
 10
8708.976965273981
 20
6911.611710563834
 30
0.0
 11
10442.97696527398
 21
6911.611710563834
 31
0.0
  0
INSERT
  5
1888A
330
1874A
100
AcDbEntity
  8
寸法
 62
     0
 48
50.0
370
    -2
100
AcDbBlockReference
  2
_DOTSMALL
 10
8708.976965273981
 20
6911.611710563834
 30
0.0
 41
100.0
 42
100.0
 43
100.0
 50
180.0
  0
INSERT
  5
1888B
330
1874A
100
AcDbEntity
  8
寸法
 62
     0
 48
50.0
370
    -2
100
AcDbBlockReference
  2
_DOTSMALL
 10
10442.97696527398
 20
6911.611710563834
 30
0.0
 41
100.0
 42
100.0
 43
100.0
  0
MTEXT
  5
1888C
330
1874A
100
AcDbEntity
  8
寸法
 62
     7
 48
50.0
100
AcDbMText
 10
9566.558709225803
 20
7011.611710563833
 30
0.0
 40
120.0
 41
0.0
 71
     5
 72
     1
  1
\A1;1734
  7
STYLE1
 73
     1
 44
1.0
1001
ACAD
1000
MTEXTBEGIN
1070
    73
1070
     1
1070
    44
1040
1.0
1070
    74
1070
     0
1000
MTEXTEND
  0
POINT
  5
1888D
330
1874A
100
AcDbEntity
  8
DEFPOINTS
 62
     0
 48
50.0
100
AcDbPoint
 10
8708.976965273981
 20
7786.681980414615
 30
0.0
  0
POINT
  5
1888E
330
1874A
100
AcDbEntity
  8
DEFPOINTS
 62
     0
 48
50.0
100
AcDbPoint
 10
10442.97696527398
 20
7786.681980414613
 30
0.0
  0
POINT
  5
1888F
330
1874A
100
AcDbEntity
  8
DEFPOINTS
 62
     0
 48
50.0
100
AcDbPoint
 10
10442.97696527398
 20
6911.611710563834
 30
0.0
  0
ENDBLK
  5
18755
330
1874A
100
AcDbEntity
  8
0
 48
50.0
100
AcDbBlockEnd
  0
ENDSEC
  0
SECTION
  2
ENTITIES
  0
LINE
  5
10B57
330
747D
100
AcDbEntity
  8
補助
  6
PHANTOM
 62
   230
 48
50.0
100
AcDbLine
 10
139.9999999999995
 20
11409.6
 30
0.0
 11
16307.2
 21
11409.6
 31
0.0
  0
LINE
  5
10B59
330
747D
100
AcDbEntity
  8
仕様書枠
  6
Continuous
 48
50.0
100
AcDbLine
 10
13107.2
 20
1200.0
 30
0.0
 11
13107.2
 21
-0.0000000000000729
 31
0.0
  0
LINE
  5
10B5C
330
747D
100
AcDbEntity
  8
仕様書枠
 48
50.0
100
AcDbLine
 10
16307.2
 20
1200.0
 30
0.0
 11
16307.2
 21
-0.0000000000000909
 31
0.0
  0
LINE
  5
10B5D
330
747D
100
AcDbEntity
  8
仕様書枠
 48
50.0
100
AcDbLine
 10
140.0
 20
0.0
 30
0.0
 11
16307.2
 21
-0.0000000000000909
 31
0.0
  0
LINE
  5
10B5E
330
747D
100
AcDbEntity
  8
補助
  6
PHANTOM
 62
   230
 48
50.0
100
AcDbLine
 10
16307.2
 20
11409.6
 30
0.0
 11
16307.2
 21
1200.0
 31
0.0
  0
LINE
  5
10B6C
330
747D
100
AcDbEntity
  8
仕様書枠
 48
50.0
100
AcDbLine
 10
13107.2
 20
1200.0
 30
0.0
 11
16307.2
 21
1200.0
 31
0.0
  0
LINE
  5
10B6D
330
747D
100
AcDbEntity
  8
補助
  6
PHANTOM
 62
   230
 48
50.0
100
AcDbLine
 10
13107.2
 20
11409.6
 30
0.0
 11
13107.2
 21
4800.0
 31
0.0
  0
LINE
  5
10B6F
330
747D
100
AcDbEntity
  8
補助
  6
PHANTOM
 62
   230
 48
50.0
100
AcDbLine
 10
13107.2
 20
4800.0
 30
0.0
 11
16307.2
 21
4800.0
 31
0.0
  0
LINE
  5
10B72
330
747D
100
AcDbEntity
  8
文字
 62
     7
 48
50.0
100
AcDbLine
 10
13187.2
 20
400.0
 30
0.0
 11
16227.2
 21
400.0
 31
0.0
  0
TEXT
  5
10B73
330
747D
100
AcDbEntity
  8
文字
 62
     7
 48
50.0
100
AcDbText
 10
13162.9790565769
 20
895.0906074299405
 30
0.0
 40
200.0
  1
外 形 図
  7
STYLE2
100
AcDbText
  0
TEXT
  5
10B74
330
747D
100
AcDbEntity
  8
文字
 62
     7
 48
50.0
100
AcDbText
 10
13201.43669998441
 20
477.2740661031255
 30
0.0
 40
160.0
  1
機種名
  7
STYLE2
100
AcDbText
  0
TEXT
  5
10B76
330
747D
100
AcDbEntity
  8
文字
 62
     7
 48
50.0
100
AcDbText
 10
13209.4053442172
 20
76.09434707649343
 30
0.0
 40
100.0
  1
○床面積 ： 2.59㎡(0.78坪) 　
  7
STYLE2
100
AcDbText
  0
TEXT
  5
10B79
330
747D
100
AcDbEntity
  8
文字
 62
     7
 48
50.0
100
AcDbText
 10
14524.131837222
 20
1031.557706291228
 30
0.0
 40
100.0
  1
NO.05      <縮尺> S=1/40
  7
STYLE2
100
AcDbText
  0
LINE
  5
10B7B
330
747D
100
AcDbEntity
  8
仕様書枠
 48
50.0
100
AcDbLine
 10
13107.2
 20
800.0
 30
0.0
 11
14251.2
 21
800.0
 31
0.0
  0
LINE
  5
10B88
330
747D
100
AcDbEntity
  8
仕様書枠
  6
Continuous
 48
50.0
100
AcDbLine
 10
14251.2
 20
1200.0
 30
0.0
 11
14251.2
 21
800.0
 31
0.0
  0
TEXT
  5
14D2F
330
747D
100
AcDbEntity
  8
文字
 62
     7
 48
50.0
100
AcDbText
 10
14644.07818602837
 20
876.4448062548634
 30
0.0
 40
100.0
  1
～一般型・多雪地型～
  7
STYLE2
100
AcDbText
  0
DIMENSION
  5
1796D
330
747D
100
AcDbEntity
  8
寸法
100
AcDbDimension
  2
*D2
 10
11011.14765455416
 20
4907.510589766164
 30
0.0
 11
11011.14765455416
 21
3737.791747659198
 31
0.0
 70
   160
 71
     5
 42
2320.000000000002
  3
INABA_S40G
100
AcDbAlignedDimension
 13
10470.97696527401
 23
2587.510589766162
 33
0.0
 14
10550.97696527399
 24
4907.510589766164
 34
0.0
 50
90.0
100
AcDbRotatedDimension
1001
ACAD
1000
DSTYLE
1002
{
1070
   174
1070
     0
1070
   272
1070
     1
1070
   288
1070
     0
1070
   341
1005
0
1002
}
  0
ARC
  5
1796E
330
747D
100
AcDbEntity
  8
部品1
100
AcDbCircle
 10
6275.284127143016
 20
4955.510589766165
 30
0.0
 40
7.0
100
AcDbArc
 50
356.7526572096623
 51
90.0
  0
ARC
  5
1796F
330
747D
100
AcDbEntity
  8
部品1
100
AcDbCircle
 10
6262.068803681981
 20
4828.510589766167
 30
0.0
 40
7.0
100
AcDbArc
 50
270.0
 51
356.7526572096623
  0
ARC
  5
17970
330
747D
100
AcDbEntity
  8
部品1
 48
50.0
100
AcDbCircle
 10
6280.440613892661
 20
4935.17758892785
 30
0.0
 40
0.7
100
AcDbArc
 50
277.6581272073652
 51
356.7526572096103
  0
ARC
  5
17971
330
747D
100
AcDbEntity
  8
部品1
 48
50.0
100
AcDbCircle
 10
6272.204583367816
 20
4842.977588927848
 30
0.0
 40
0.7
100
AcDbArc
 50
277.6581272073652
 51
356.7526572096883
  0
ARC
  5
17972
330
747D
100
AcDbEntity
  8
部品1
 48
50.0
100
AcDbCircle
 10
6272.697652476377
 20
4839.310589766163
 30
0.0
 40
3.0
100
AcDbArc
 50
97.65812720736519
 51
176.7526572096623
  0
ARC
  5
17973
330
747D
100
AcDbEntity
  8
部品1
 48
50.0
100
AcDbCircle
 10
6280.933683001222
 20
4931.510589766167
 30
0.0
 40
3.0
100
AcDbArc
 50
97.65812720736519
 51
176.7526572096623
  0
LINE
  5
17974
330
747D
100
AcDbEntity
  8
部品1
100
AcDbLine
 10
6277.938500105036
 20
4931.680529221268
 30
0.0
 11
6272.903459376925
 21
4842.937936388324
 31
0.0
  0
LINE
  5
17975
330
747D
100
AcDbEntity
  8
部品1
100
AcDbLine
 10
6269.702469580192
 20
4839.480529221265
 30
0.0
 11
6269.05756377308
 21
4828.114064370925
 31
0.0
  0
LINE
  5
17976
330
747D
100
AcDbEntity
  8
細線
 48
50.0
100
AcDbLine
 10
6249.692548249448
 20
4962.510589766165
 30
0.0
 11
6249.692548249448
 21
4821.510589766165
 31
0.0
  0
LINE
  5
17977
330
747D
100
AcDbEntity
  8
部品1
100
AcDbLine
 10
6282.272887234114
 20
4955.114064370926
 30
0.0
 11
6281.139489901768
 21
4935.137936388326
 31
0.0
  0
DIMENSION
  5
17978
330
747D
100
AcDbEntity
  8
寸法
 48
50.0
100
AcDbDimension
  2
*D3
 10
6232.692548249448
 20
5367.130849193433
 30
0.0
 11
6596.177829623684
 21
5367.130849193433
 31
0.0
 70
   160
 71
     5
 42
50.0
  3
INABA_S40G
100
AcDbAlignedDimension
 13
6282.692548249448
 23
4962.510589766163
 33
0.0
 14
6232.692548249448
 24
4962.510589766166
 34
0.0
100
AcDbRotatedDimension
  0
LINE
  5
17979
330
747D
100
AcDbEntity
  8
部品1
 48
0.01
100
AcDbLine
 10
5947.692548249452
 20
4791.51058976616
 30
0.0
 11
5947.692548249452
 21
4760.01058976616
 31
0.0
  0
LINE
  5
1797A
330
747D
100
AcDbEntity
  8
部品1
 48
0.01
100
AcDbLine
 10
5945.692548249452
 20
4758.01058976616
 30
0.0
 11
5769.692548249452
 21
4758.01058976616
 31
0.0
  0
LINE
  5
1797B
330
747D
100
AcDbEntity
  8
部品1
 48
0.01
100
AcDbLine
 10
5767.692548249452
 20
4760.01058976616
 30
0.0
 11
5767.692548249452
 21
4791.51058976616
 31
0.0
  0
ARC
  5
1797C
330
747D
100
AcDbEntity
  8
部品1
 48
0.01
100
AcDbCircle
 10
5945.692548249452
 20
4760.01058976616
 30
0.0
 40
2.0
100
AcDbArc
 50
270.0
 51
0.0
  0
ARC
  5
1797D
330
747D
100
AcDbEntity
  8
部品1
 48
0.01
100
AcDbCircle
 10
5769.692548249452
 20
4760.01058976616
 30
0.0
 40
2.0
100
AcDbArc
 50
180.0
 51
270.0
  0
LINE
  5
1797E
330
747D
100
AcDbEntity
  8
細線
100
AcDbLine
 10
5857.692548249452
 20
4787.01058976616
 30
0.0
 11
5857.692548249452
 21
4764.010589766161
 31
0.0
  0
LINE
  5
1797F
330
747D
100
AcDbEntity
  8
細線
100
AcDbLine
 10
5783.692548249451
 20
4775.01058976616
 30
0.0
 11
5857.692548249452
 21
4775.01058976616
 31
0.0
  0
LINE
  5
17980
330
747D
100
AcDbEntity
  8
細線
100
AcDbLine
 10
5783.692548249451
 20
4769.01058976616
 30
0.0
 11
5857.692548249452
 21
4769.01058976616
 31
0.0
  0
LINE
  5
17981
330
747D
100
AcDbEntity
  8
細線
100
AcDbLine
 10
5783.692548249451
 20
4781.01058976616
 30
0.0
 11
5857.692548249452
 21
4781.01058976616
 31
0.0
  0
LINE
  5
17982
330
747D
100
AcDbEntity
  8
細線
100
AcDbLine
 10
5931.692548249452
 20
4781.01058976616
 30
0.0
 11
5862.692548249452
 21
4781.01058976616
 31
0.0
  0
LINE
  5
17983
330
747D
100
AcDbEntity
  8
細線
100
AcDbLine
 10
5931.692548249452
 20
4769.01058976616
 30
0.0
 11
5857.692548249452
 21
4769.01058976616
 31
0.0
  0
LINE
  5
17984
330
747D
100
AcDbEntity
  8
細線
100
AcDbLine
 10
5931.692548249452
 20
4775.01058976616
 30
0.0
 11
5857.692548249452
 21
4775.01058976616
 31
0.0
  0
LINE
  5
17985
330
747D
100
AcDbEntity
  8
細線
100
AcDbLine
 10
5931.692548249452
 20
4781.01058976616
 30
0.0
 11
5857.692548249452
 21
4781.01058976616
 31
0.0
  0
LINE
  5
17986
330
747D
100
AcDbEntity
  8
部品1
 48
0.01
100
AcDbLine
 10
5769.692548249452
 20
4793.51058976616
 30
0.0
 11
5945.692548249452
 21
4793.51058976616
 31
0.0
  0
LINE
  5
17987
330
747D
100
AcDbEntity
  8
細線
100
AcDbLine
 10
5931.692548249452
 20
4787.01058976616
 30
0.0
 11
5931.692548249452
 21
4764.010589766161
 31
0.0
  0
LINE
  5
17988
330
747D
100
AcDbEntity
  8
細線
100
AcDbLine
 10
5783.692548249451
 20
4764.010589766161
 30
0.0
 11
5783.692548249451
 21
4787.01058976616
 31
0.0
  0
LINE
  5
17989
330
747D
100
AcDbEntity
  8
細線
100
AcDbLine
 10
5783.692548249451
 20
4787.01058976616
 30
0.0
 11
5857.692548249452
 21
4787.01058976616
 31
0.0
  0
LINE
  5
1798A
330
747D
100
AcDbEntity
  8
細線
100
AcDbLine
 10
5931.692548249452
 20
4764.010589766161
 30
0.0
 11
5857.692548249452
 21
4764.010589766161
 31
0.0
  0
LINE
  5
1798B
330
747D
100
AcDbEntity
  8
細線
100
AcDbLine
 10
5857.692548249452
 20
4787.01058976616
 30
0.0
 11
5931.692548249452
 21
4787.01058976616
 31
0.0
  0
LINE
  5
1798C
330
747D
100
AcDbEntity
  8
細線
100
AcDbLine
 10
5857.692548249452
 20
4764.010589766161
 30
0.0
 11
5783.692548249451
 21
4764.010589766161
 31
0.0
  0
ARC
  5
1798D
330
747D
100
AcDbEntity
  8
部品1
 48
0.01
100
AcDbCircle
 10
5945.692548249452
 20
4791.51058976616
 30
0.0
 40
2.0
100
AcDbArc
 50
0.0
 51
90.0
  0
ARC
  5
1798E
330
747D
100
AcDbEntity
  8
部品1
 48
0.01
100
AcDbCircle
 10
5769.692548249452
 20
4791.51058976616
 30
0.0
 40
2.0
100
AcDbArc
 50
90.0
 51
180.0
  0
ARC
  5
1798F
330
747D
100
AcDbEntity
  8
部品1
 48
0.01
100
AcDbCircle
 10
5325.692548249448
 20
4760.01058976616
 30
0.0
 40
2.0
100
AcDbArc
 50
270.0
 51
0.0
  0
ARC
  5
17990
330
747D
100
AcDbEntity
  8
部品1
 48
0.01
100
AcDbCircle
 10
5325.692548249452
 20
4791.51058976616
 30
0.0
 40
2.0
100
AcDbArc
 50
0.0
 51
90.0
  0
ARC
  5
17991
330
747D
100
AcDbEntity
  8
部品1
 48
0.01
100
AcDbCircle
 10
5149.692548249451
 20
4760.01058976616
 30
0.0
 40
2.0
100
AcDbArc
 50
180.0
 51
270.0
  0
ARC
  5
17992
330
747D
100
AcDbEntity
  8
部品1
 48
0.01
100
AcDbCircle
 10
5149.692548249451
 20
4791.51058976616
 30
0.0
 40
2.0
100
AcDbArc
 50
90.0
 51
180.0
  0
LINE
  5
17993
330
747D
100
AcDbEntity
  8
細線
100
AcDbLine
 10
5237.692548249448
 20
4764.010589766161
 30
0.0
 11
5311.692548249451
 21
4764.010589766161
 31
0.0
  0
LINE
  5
17994
330
747D
100
AcDbEntity
  8
細線
100
AcDbLine
 10
5237.692548249452
 20
4787.01058976616
 30
0.0
 11
5163.692548249452
 21
4787.01058976616
 31
0.0
  0
LINE
  5
17995
330
747D
100
AcDbEntity
  8
細線
100
AcDbLine
 10
5163.692548249452
 20
4764.010589766161
 30
0.0
 11
5237.692548249452
 21
4764.010589766161
 31
0.0
  0
LINE
  5
17996
330
747D
100
AcDbEntity
  8
細線
100
AcDbLine
 10
5311.692548249451
 20
4787.01058976616
 30
0.0
 11
5237.692548249452
 21
4787.01058976616
 31
0.0
  0
LINE
  5
17997
330
747D
100
AcDbEntity
  8
細線
100
AcDbLine
 10
5311.692548249451
 20
4764.010589766161
 30
0.0
 11
5311.692548249451
 21
4787.01058976616
 31
0.0
  0
LINE
  5
17998
330
747D
100
AcDbEntity
  8
細線
100
AcDbLine
 10
5163.692548249452
 20
4787.01058976616
 30
0.0
 11
5163.692548249452
 21
4764.010589766161
 31
0.0
  0
LINE
  5
17999
330
747D
100
AcDbEntity
  8
部品1
 48
0.01
100
AcDbLine
 10
5327.692548249448
 20
4760.01058976616
 30
0.0
 11
5327.692548249451
 21
4791.51058976616
 31
0.0
  0
LINE
  5
1799A
330
747D
100
AcDbEntity
  8
部品1
 48
0.01
100
AcDbLine
 10
5149.692548249451
 20
4758.01058976616
 30
0.0
 11
5325.692548249448
 21
4758.01058976616
 31
0.0
  0
LINE
  5
1799B
330
747D
100
AcDbEntity
  8
部品1
 48
0.01
100
AcDbLine
 10
5147.692548249452
 20
4791.51058976616
 30
0.0
 11
5147.692548249452
 21
4760.01058976616
 31
0.0
  0
LINE
  5
1799C
330
747D
100
AcDbEntity
  8
部品1
 48
0.01
100
AcDbLine
 10
5325.692548249452
 20
4793.51058976616
 30
0.0
 11
5149.692548249451
 21
4793.51058976616
 31
0.0
  0
LINE
  5
1799D
330
747D
100
AcDbEntity
  8
細線
100
AcDbLine
 10
5163.692548249452
 20
4781.01058976616
 30
0.0
 11
5237.692548249452
 21
4781.01058976616
 31
0.0
  0
LINE
  5
1799E
330
747D
100
AcDbEntity
  8
細線
100
AcDbLine
 10
5163.692548249452
 20
4775.01058976616
 30
0.0
 11
5237.692548249452
 21
4775.01058976616
 31
0.0
  0
LINE
  5
1799F
330
747D
100
AcDbEntity
  8
細線
100
AcDbLine
 10
5163.692548249448
 20
4769.01058976616
 30
0.0
 11
5237.692548249452
 21
4769.01058976616
 31
0.0
  0
LINE
  5
179A0
330
747D
100
AcDbEntity
  8
細線
100
AcDbLine
 10
5163.692548249452
 20
4781.01058976616
 30
0.0
 11
5232.692548249452
 21
4781.01058976616
 31
0.0
  0
LINE
  5
179A1
330
747D
100
AcDbEntity
  8
細線
100
AcDbLine
 10
5311.692548249448
 20
4781.01058976616
 30
0.0
 11
5237.692548249452
 21
4781.01058976616
 31
0.0
  0
LINE
  5
179A2
330
747D
100
AcDbEntity
  8
細線
100
AcDbLine
 10
5311.692548249448
 20
4769.01058976616
 30
0.0
 11
5237.692548249452
 21
4769.01058976616
 31
0.0
  0
LINE
  5
179A3
330
747D
100
AcDbEntity
  8
細線
100
AcDbLine
 10
5311.692548249448
 20
4775.01058976616
 30
0.0
 11
5237.692548249452
 21
4775.01058976616
 31
0.0
  0
LINE
  5
179A4
330
747D
100
AcDbEntity
  8
細線
100
AcDbLine
 10
5237.692548249452
 20
4787.01058976616
 30
0.0
 11
5237.692548249448
 21
4764.010589766161
 31
0.0
  0
LINE
  5
179A5
330
747D
100
AcDbEntity
  8
細線
 48
50.0
100
AcDbLine
 10
6272.416979503169
 20
4842.310589766164
 30
0.0
 11
4822.968116995721
 21
4842.310589766166
 31
0.0
  0
LINE
  5
179A6
330
747D
100
AcDbEntity
  8
細線
 48
50.0
100
AcDbLine
 10
6280.653010028007
 20
4934.510589766166
 30
0.0
 11
4814.732086470891
 21
4934.510589766163
 31
0.0
  0
LINE
  5
179A7
330
747D
100
AcDbEntity
  8
部品1
 48
50.0
100
AcDbLine
 10
6262.068803681981
 20
4821.510589766167
 30
0.0
 11
4833.316292816917
 21
4821.510589766165
 31
0.0
  0
LINE
  5
179A8
330
747D
100
AcDbEntity
  8
部品1
 48
50.0
100
AcDbLine
 10
6275.284127143016
 20
4962.510589766165
 30
0.0
 11
4820.100969355883
 21
4962.510589766167
 31
0.0
  0
LINE
  5
179A9
330
747D
100
AcDbEntity
  8
部品1
100
AcDbLine
 10
4813.112209264787
 20
4955.114064370926
 30
0.0
 11
4814.245606597133
 21
4935.137936388326
 31
0.0
  0
LINE
  5
179AA
330
747D
100
AcDbEntity
  8
部品1
100
AcDbLine
 10
4825.682626918709
 20
4839.480529221265
 30
0.0
 11
4826.327532725818
 21
4828.114064370925
 31
0.0
  0
LINE
  5
179AB
330
747D
100
AcDbEntity
  8
部品1
100
AcDbLine
 10
4817.446596393862
 20
4931.680529221268
 30
0.0
 11
4822.481637121973
 21
4842.937936388324
 31
0.0
  0
ARC
  5
179AC
330
747D
100
AcDbEntity
  8
部品1
 48
50.0
100
AcDbCircle
 10
4814.45141349768
 20
4931.510589766167
 30
0.0
 40
3.0
100
AcDbArc
 50
3.247342790337682
 51
82.3418727926348
  0
ARC
  5
179AD
330
747D
100
AcDbEntity
  8
部品1
 48
50.0
100
AcDbCircle
 10
4822.68744402252
 20
4839.310589766163
 30
0.0
 40
3.0
100
AcDbArc
 50
3.247342790337682
 51
82.3418727926348
  0
ARC
  5
179AE
330
747D
100
AcDbEntity
  8
部品1
 48
50.0
100
AcDbCircle
 10
4823.180513131081
 20
4842.977588927848
 30
0.0
 40
0.7
100
AcDbArc
 50
183.2473427903116
 51
262.3418727926349
  0
ARC
  5
179AF
330
747D
100
AcDbEntity
  8
部品1
 48
50.0
100
AcDbCircle
 10
4814.94448260624
 20
4935.17758892785
 30
0.0
 40
0.7
100
AcDbArc
 50
183.2473427903897
 51
262.3418727926349
  0
ARC
  5
179B0
330
747D
100
AcDbEntity
  8
部品1
100
AcDbCircle
 10
4833.316292816917
 20
4828.510589766167
 30
0.0
 40
7.0
100
AcDbArc
 50
183.2473427903377
 51
270.0
  0
ARC
  5
179B1
330
747D
100
AcDbEntity
  8
部品1
100
AcDbCircle
 10
4820.100969355883
 20
4955.510589766165
 30
0.0
 40
7.0
100
AcDbArc
 50
90.0
 51
183.2473427903377
  0
LINE
  5
179B2
330
747D
100
AcDbEntity
  8
細線
 48
50.0
100
AcDbLine
 10
4845.692548249453
 20
4962.510589766165
 30
0.0
 11
4845.692548249453
 21
4821.510589766165
 31
0.0
  0
DIMENSION
  5
179B3
330
747D
100
AcDbEntity
  8
寸法
 48
50.0
100
AcDbDimension
  2
*D4
 10
4862.692548249453
 20
5367.130849193433
 30
0.0
 11
5547.692548249451
 21
5367.130849193433
 31
0.0
 70
   160
  1
柱外寸法<>
 71
     5
 42
1369.999999999994
  3
INABA_S40G
100
AcDbAlignedDimension
 13
6232.692548249448
 23
4962.510589766166
 33
0.0
 14
4862.692548249453
 24
4962.510589766167
 34
0.0
100
AcDbRotatedDimension
  0
DIMENSION
  5
179B4
330
747D
100
AcDbEntity
  8
寸法
 48
50.0
100
AcDbDimension
  2
*D5
 10
4812.692548249454
 20
5367.130849193433
 30
0.0
 11
4499.207266875206
 21
5367.130849193433
 31
0.0
 70
   160
 71
     5
 42
50.0
  3
INABA_S40G
100
AcDbAlignedDimension
 13
4862.692548249453
 23
4962.510589766167
 33
0.0
 14
4812.692548249454
 24
4962.510589766166
 34
0.0
100
AcDbRotatedDimension
1001
ACAD
1000
DSTYLE
1002
{
1002
}
  0
DIMENSION
  5
179B5
330
747D
100
AcDbEntity
  8
寸法
 48
50.0
100
AcDbDimension
  2
*D6
 10
6282.692548249448
 20
5576.724723614884
 30
0.0
 11
5547.692548249451
 21
5576.724723614884
 31
0.0
 70
   160
 71
     5
 42
1469.999999999994
  3
INABA_S40G
100
AcDbAlignedDimension
 13
4812.692548249454
 23
4962.510589766166
 33
0.0
 14
6282.692548249448
 24
4962.510589766163
 34
0.0
100
AcDbRotatedDimension
  0
DIMENSION
  5
179B6
330
747D
100
AcDbEntity
  8
寸法
100
AcDbDimension
  2
*D7
 10
7772.337583344652
 20
2487.510589766162
 30
0.0
 11
7772.337583344652
 21
2251.463345671671
 31
0.0
 70
   160
 71
     5
 42
100.0
  3
INABA_S40G
100
AcDbAlignedDimension
 13
8625.976965274011
 23
2587.510589766162
 33
0.0
 14
8057.324256115713
 24
2487.510589766162
 34
0.0
 50
90.0
100
AcDbRotatedDimension
1001
ACAD
1000
DSTYLE
1002
{
1070
   174
1070
     0
1070
   272
1070
     1
1070
   288
1070
     0
1070
   341
1005
0
1002
}
  0
DIMENSION
  5
179B7
330
747D
100
AcDbEntity
  8
寸法
100
AcDbDimension
  2
*D8
 10
8057.324256115714
 20
2587.510589766162
 30
0.0
 11
8057.324256115713
 21
2281.463345671671
 31
0.0
 70
   160
 71
     5
 42
50.0
  3
INABA_S40G
100
AcDbAlignedDimension
 13
8680.976965274011
 23
2637.510589766162
 33
0.0
 14
8625.976965274011
 24
2587.510589766162
 34
0.0
 50
90.0
100
AcDbRotatedDimension
1001
ACAD
1000
DSTYLE
1002
{
1070
   174
1070
     0
1070
   272
1070
     1
1070
   288
1070
     0
1070
   341
1005
0
1002
}
  0
DIMENSION
  5
179B8
330
747D
100
AcDbEntity
  8
寸法
100
AcDbDimension
  2
*D9
 10
8057.324256115714
 20
2637.510589766162
 30
0.0
 11
8057.324256115713
 21
3682.510589766162
 31
0.0
 70
   160
 71
     5
 42
2090.0
  3
INABA_S40G
100
AcDbAlignedDimension
 13
8680.976965274011
 23
4727.510589766161
 33
0.0
 14
8680.976965274011
 24
2637.510589766162
 34
0.0
 50
90.0
100
AcDbRotatedDimension
1001
ACAD
1000
DSTYLE
1002
{
1070
   174
1070
     0
1070
   272
1070
     1
1070
   288
1070
     0
1070
   341
1005
0
1002
}
  0
DIMENSION
  5
179B9
330
747D
100
AcDbEntity
  8
寸法
100
AcDbDimension
  2
*D10
 10
7772.337583344652
 20
4962.510589766166
 30
0.0
 11
7772.337583344652
 21
3682.510589766162
 31
0.0
 70
   160
 71
     5
 42
2375.000000000005
  3
INABA_S40G
100
AcDbAlignedDimension
 13
8680.976965274011
 23
2587.510589766162
 33
0.0
 14
8620.97696527401
 24
4962.510589766166
 34
0.0
 50
90.0
100
AcDbRotatedDimension
1001
ACAD
1000
DSTYLE
1002
{
1070
   174
1070
     0
1070
   272
1070
     1
1070
   288
1070
     0
1070
   341
1005
0
1002
}
  0
ARC
  5
179BA
330
747D
100
AcDbEntity
  8
部品1
100
AcDbCircle
 10
10536.60450108795
 20
4801.534347031954
 30
0.0
 40
0.7
100
AcDbArc
 50
275.0921697642102
 51
354.1866997667087
  0
ARC
  5
179BB
330
747D
100
AcDbEntity
  8
部品1
100
AcDbCircle
 10
10547.46384683727
 20
4878.577601849876
 30
0.0
 40
0.7
100
AcDbArc
 50
275.0921697642102
 51
354.1866997665532
  0
ARC
  5
179BC
330
747D
100
AcDbEntity
  8
部品1
100
AcDbCircle
 10
10547.79225207987
 20
4874.892204992788
 30
0.0
 40
3.0
100
AcDbArc
 50
95.09216976441781
 51
174.1866997665532
  0
ARC
  5
179BD
330
747D
100
AcDbEntity
  8
部品1
100
AcDbCircle
 10
10536.93290633054
 20
4797.848950174864
 30
0.0
 40
3.0
100
AcDbArc
 50
95.0921697642102
 51
174.1866997665532
  0
ARC
  5
179BE
330
747D
100
AcDbEntity
  8
部品1
 48
50.0
100
AcDbCircle
 10
10525.90477105544
 20
4788.258205570982
 30
0.0
 40
7.0
100
AcDbArc
 50
267.8377559869492
 51
354.1866997665532
  0
ARC
  5
179BF
330
747D
100
AcDbEntity
  8
部品1
 48
50.0
100
AcDbCircle
 10
10543.22686751996
 20
4899.160752713155
 30
0.0
 40
7.0
100
AcDbArc
 50
354.1866997665013
 51
87.03587545303909
  0
LINE
  5
179C0
330
747D
100
AcDbEntity
  8
部品1
 48
50.0
100
AcDbLine
 10
10533.94833465994
 20
4798.152811891767
 30
0.0
 11
10532.8687716202
 21
4787.549194898208
 31
0.0
  0
LINE
  5
179C1
330
747D
100
AcDbEntity
  8
部品1
 48
50.0
100
AcDbLine
 10
10544.80768040926
 20
4875.19606670969
 30
0.0
 11
10537.30090114442
 21
4801.463445964678
 31
0.0
  0
LINE
  5
179C2
330
747D
100
AcDbEntity
  8
部品1
 48
50.0
100
AcDbLine
 10
10550.19086808471
 20
4898.451742040379
 30
0.0
 11
10548.16024689374
 21
4878.5067007826
 31
0.0
  0
LINE
  5
179C3
330
747D
100
AcDbEntity
  8
細線
 48
50.0
100
AcDbLine
 10
10517.97696527401
 20
4907.477568801458
 30
0.0
 11
10513.22928238601
 21
4781.731796310713
 31
0.0
  0
ARC
  5
179C4
330
747D
100
AcDbEntity
  8
部品1
100
AcDbCircle
 10
8627.014057145379
 20
4841.324748725067
 30
0.0
 40
0.7
100
AcDbArc
 50
181.0932240292114
 51
260.187754031489
  0
ARC
  5
179C5
330
747D
100
AcDbEntity
  8
部品1
100
AcDbCircle
 10
8622.24138354777
 20
4934.190526925184
 30
0.0
 40
0.7
100
AcDbArc
 50
181.0932240292114
 51
260.187754031489
  0
ARC
  5
179C6
330
747D
100
AcDbEntity
  8
部品1
100
AcDbCircle
 10
8621.610829144747
 20
4930.544652387787
 30
0.0
 40
3.0
100
AcDbArc
 50
1.093224029263536
 51
80.18775403148891
  0
ARC
  5
179C7
330
747D
100
AcDbEntity
  8
部品1
100
AcDbCircle
 10
8626.383502742353
 20
4837.678874187668
 30
0.0
 40
3.0
100
AcDbArc
 50
1.093224029315636
 51
80.18775403148449
  0
ARC
  5
179C8
330
747D
100
AcDbEntity
  8
部品1
 48
50.0
100
AcDbCircle
 10
8636.583635117554
 20
4827.286630805187
 30
0.0
 40
7.0
100
AcDbArc
 50
181.0932240293156
 51
267.8377559869492
  0
ARC
  5
179C9
330
747D
100
AcDbEntity
  8
部品1
 48
50.0
100
AcDbCircle
 10
8628.159977015458
 20
4954.237690338283
 30
0.0
 40
7.0
100
AcDbArc
 50
87.03587545303909
 51
181.0932240292635
  0
LINE
  5
179CA
330
747D
100
AcDbEntity
  8
部品1
 48
50.0
100
AcDbLine
 10
8629.382956668782
 20
4837.736111790851
 30
0.0
 11
8629.584909289217
 21
4827.153076397759
 31
0.0
  0
LINE
  5
179CB
330
747D
100
AcDbEntity
  8
部品1
 48
50.0
100
AcDbLine
 10
8624.610283071177
 20
4930.60188999097
 30
0.0
 11
8626.314184562543
 21
4841.311393284322
 31
0.0
  0
LINE
  5
179CC
330
747D
100
AcDbEntity
  8
部品1
 48
50.0
100
AcDbLine
 10
8621.161251187121
 20
4954.104135930855
 30
0.0
 11
8621.541510964933
 21
4934.177171484443
 31
0.0
  0
LINE
  5
179CD
330
747D
100
AcDbEntity
  8
細線
 48
50.0
100
AcDbLine
 10
8653.976965274015
 20
4959.910266141567
 30
0.0
 11
8648.687863718505
 21
4819.824633514212
 31
0.0
  0
LINE
  5
179CE
330
747D
100
AcDbEntity
  8
細線
 48
50.0
100
AcDbLine
 10
8626.776863612112
 20
4840.666159909659
 30
0.0
 11
10536.78052804275
 21
4800.856840935167
 31
0.0
  0
LINE
  5
179CF
330
747D
100
AcDbEntity
  8
細線
 48
50.0
100
AcDbLine
 10
8622.016388374827
 20
4933.527671607524
 30
0.0
 11
10547.65237311999
 21
4877.903466966694
 31
0.0
  0
LINE
  5
179D0
330
747D
100
AcDbEntity
  8
部品1
100
AcDbLine
 10
8636.319529875967
 20
4820.291614835128
 30
0.0
 11
10525.64066581386
 21
4781.263189600923
 31
0.0
  0
LINE
  5
179D1
330
747D
100
AcDbEntity
  8
部品1
100
AcDbLine
 10
8628.521951630975
 20
4961.228325100428
 30
0.0
 11
10543.58884213547
 21
4906.151387475301
 31
0.0
  0
LINE
  5
179D2
330
747D
100
AcDbEntity
  8
部品1
 48
50.0
100
AcDbLine
 10
9425.976965274013
 20
5093.378728867441
 30
0.0
 11
9725.976965274014
 21
5077.178728867442
 31
0.0
  0
TEXT
  5
179D3
330
747D
100
AcDbEntity
  8
部品1
 48
50.0
100
AcDbText
 10
9903.069812561874
 20
4991.761492801592
 30
0.0
 40
120.0
  1
54
 50
90.0
  7
STYLE1
100
AcDbText
  0
LINE
  5
179D4
330
747D
100
AcDbEntity
  8
部品1
 48
50.0
100
AcDbLine
 10
9725.976965274014
 20
5093.378728867441
 30
0.0
 11
9725.976965274014
 21
5077.178728867442
 31
0.0
  0
LINE
  5
179D5
330
747D
100
AcDbEntity
  8
部品1
 48
50.0
100
AcDbLine
 10
9425.976965274013
 20
5093.378728867441
 30
0.0
 11
9725.976965274014
 21
5093.378728867441
 31
0.0
  0
TEXT
  5
179D6
330
747D
100
AcDbEntity
  8
部品1
 48
50.0
100
AcDbText
 10
9414.244800497739
 20
5129.262751019875
 30
0.0
 40
120.0
  1
1000
  7
STYLE1
100
AcDbText
  0
DIMENSION
  5
179D7
330
747D
100
AcDbEntity
  8
寸法
 48
50.0
100
AcDbDimension
  2
*D11
 10
10550.97696527401
 20
5361.603759105634
 30
0.0
 11
10757.0242093685
 21
5361.603759105634
 31
0.0
 70
   160
 71
     5
 42
80.0
  3
INABA_S40G
100
AcDbAlignedDimension
 13
10470.97696527401
 23
4909.321269377815
 33
0.0
 14
10550.97696527401
 24
4907.510589766162
 34
0.0
100
AcDbRotatedDimension
1001
ACAD
1000
DSTYLE
1002
{
1070
   174
1070
     0
1070
   272
1070
     1
1070
   288
1070
     0
1070
   341
1005
0
1002
}
  0
DIMENSION
  5
179D8
330
747D
100
AcDbEntity
  8
寸法
 48
50.0
100
AcDbDimension
  2
*D12
 10
8620.976965274016
 20
5578.129858724079
 30
0.0
 11
9526.782716524982
 21
5578.129858724079
 31
0.0
 70
   160
 71
     5
 42
1930.0
  3
INABA_S40G
100
AcDbAlignedDimension
 13
10550.97696527401
 23
4907.510589766162
 33
0.0
 14
8620.976965274016
 24
4962.510589766166
 34
0.0
100
AcDbRotatedDimension
1001
ACAD
1000
DSTYLE
1002
{
1070
   174
1070
     0
1070
   272
1070
     1
1070
   288
1070
     0
1070
   341
1005
0
1002
}
  0
DIMENSION
  5
179D9
330
747D
100
AcDbEntity
  8
寸法
 48
50.0
100
AcDbDimension
  2
*D13
 10
8620.976965274016
 20
5361.603759105634
 30
0.0
 11
8311.339169998424
 21
5361.603759105634
 31
0.0
 70
   160
 71
     5
 42
60.0
  3
INABA_S40G
100
AcDbAlignedDimension
 13
8680.976965274014
 23
4958.512207889138
 33
0.0
 14
8620.976965274016
 24
4962.510589766166
 34
0.0
100
AcDbRotatedDimension
1001
ACAD
1000
DSTYLE
1002
{
1070
   174
1070
     0
1070
   272
1070
     1
1070
   288
1070
     0
1070
   341
1005
0
1002
}
  0
DIMENSION
  5
179DA
330
747D
100
AcDbEntity
  8
寸法
 48
50.0
100
AcDbDimension
  2
*D14
 10
8680.976965274014
 20
5361.603759105634
 30
0.0
 11
9590.572613950493
 21
5361.603759105634
 31
0.0
 70
   160
  1
柱外寸法<>
 71
     5
 42
1790.0
  3
INABA_S40G
100
AcDbAlignedDimension
 13
10470.97696527401
 23
4909.321269377815
 33
0.0
 14
8680.976965274014
 24
4958.512207889138
 34
0.0
100
AcDbRotatedDimension
1001
ACAD
1000
DSTYLE
1002
{
1070
   174
1070
     0
1070
   272
1070
     1
1070
   288
1070
     0
1070
   341
1005
0
1002
}
  0
TEXT
  5
179DB
330
747D
100
AcDbEntity
  8
文字
 62
     7
 48
50.0
100
AcDbText
 10
13209.4053442172
 20
228.5435242569015
 30
0.0
 40
100.0
  1
○有効開口寸法 ： 950×2025(mm)
  7
STYLE2
100
AcDbText
  0
LINE
  5
179DC
330
747D
100
AcDbEntity
  8
Ｇ．Ｌ
100
AcDbLine
 10
3440.611447949112
 20
2487.510589766162
 30
0.0
 11
11104.99853904276
 21
2487.510589766162
 31
0.0
  0
TEXT
  5
179DD
330
747D
100
AcDbEntity
  8
部品1
100
AcDbText
 10
3523.592998682111
 20
2523.617493372063
 30
0.0
 40
125.0
  1
▽G.L
  7
STYLE2
100
AcDbText
  0
LINE
  5
179DE
330
747D
100
AcDbEntity
  8
部品1
100
AcDbLine
 10
8680.976965274011
 20
2587.510589766162
 30
0.0
 11
10470.97696527401
 21
2587.510589766162
 31
0.0
  0
LINE
  5
179DF
330
747D
100
AcDbEntity
  8
部品1
100
AcDbLine
 10
8680.976965274011
 20
4727.510589766161
 30
0.0
 11
10470.97696527401
 21
4727.510589766161
 31
0.0
  0
LINE
  5
179E0
330
747D
100
AcDbEntity
  8
部品1
100
AcDbLine
 10
8680.976965274011
 20
4819.369109208408
 30
0.0
 11
8680.976965274011
 21
2487.510589766162
 31
0.0
  0
LINE
  5
179E1
330
747D
100
AcDbEntity
  8
部品1
100
AcDbLine
 10
10470.97696527401
 20
4782.392398452168
 30
0.0
 11
10470.97696527401
 21
2487.510589766162
 31
0.0
  0
LINE
  5
179E2
330
747D
100
AcDbEntity
  8
部品1
100
AcDbLine
 10
10070.97696527401
 20
2587.510589766162
 30
0.0
 11
10070.97696527401
 21
2487.510589766162
 31
0.0
  0
LINE
  5
179E3
330
747D
100
AcDbEntity
  8
部品1
100
AcDbLine
 10
9080.976965274009
 20
2587.510589766162
 30
0.0
 11
9080.976965274009
 21
2487.510589766162
 31
0.0
  0
LINE
  5
179E4
330
747D
100
AcDbEntity
  8
部品1
 48
50.0
100
AcDbLine
 10
9475.976965274011
 20
2587.510589766162
 30
0.0
 11
9475.976965274011
 21
2487.510589766162
 31
0.0
  0
LINE
  5
179E5
330
747D
100
AcDbEntity
  8
部品1
 48
50.0
100
AcDbLine
 10
9675.97696527401
 20
2587.510589766162
 30
0.0
 11
9675.97696527401
 21
2487.510589766162
 31
0.0
  0
LINE
  5
179E6
330
747D
100
AcDbEntity
  8
部品1
100
AcDbLine
 10
10475.97696527401
 20
2632.510589766163
 30
0.0
 11
10475.97696527401
 21
2487.510589766162
 31
0.0
  0
LINE
  5
179E7
330
747D
100
AcDbEntity
  8
破線
 48
5.0
100
AcDbLine
 10
10570.97696527401
 20
2287.51058976616
 30
0.0
 11
10370.97696527401
 21
2287.51058976616
 31
0.0
  0
LINE
  5
179E8
330
747D
100
AcDbEntity
  8
破線
 48
5.0
100
AcDbLine
 10
10370.97696527401
 20
2487.510589766162
 30
0.0
 11
10370.97696527401
 21
2287.51058976616
 31
0.0
  0
LINE
  5
179E9
330
747D
100
AcDbEntity
  8
破線
 48
5.0
100
AcDbLine
 10
10570.97696527401
 20
2487.510589766162
 30
0.0
 11
10570.97696527401
 21
2287.51058976616
 31
0.0
  0
LINE
  5
179EA
330
747D
100
AcDbEntity
  8
破線
 48
5.0
100
AcDbLine
 10
10495.97696527401
 20
2332.510589766162
 30
0.0
 11
10475.97696527401
 21
2332.510589766162
 31
0.0
  0
LINE
  5
179EB
330
747D
100
AcDbEntity
  8
部品1
100
AcDbLine
 10
8675.97696527401
 20
2632.510589766163
 30
0.0
 11
8675.97696527401
 21
2487.510589766162
 31
0.0
  0
LINE
  5
179EC
330
747D
100
AcDbEntity
  8
破線
 48
5.0
100
AcDbLine
 10
8580.976965274009
 20
2287.510589766162
 30
0.0
 11
8780.976965274012
 21
2287.510589766162
 31
0.0
  0
LINE
  5
179ED
330
747D
100
AcDbEntity
  8
破線
 48
5.0
100
AcDbLine
 10
8580.976965274009
 20
2487.510589766163
 30
0.0
 11
8580.976965274009
 21
2287.510589766162
 31
0.0
  0
LINE
  5
179EE
330
747D
100
AcDbEntity
  8
破線
 48
5.0
100
AcDbLine
 10
8655.97696527401
 20
2332.510589766163
 30
0.0
 11
8675.976965274013
 21
2332.510589766163
 31
0.0
  0
LINE
  5
179EF
330
747D
100
AcDbEntity
  8
破線
 48
5.0
100
AcDbLine
 10
8780.97696527401
 20
2487.510589766163
 30
0.0
 11
8780.97696527401
 21
2287.510589766162
 31
0.0
  0
DIMENSION
  5
179F0
330
747D
100
AcDbEntity
  8
寸法
100
AcDbDimension
  2
*D15
 10
8735.976965274018
 20
9530.489007222861
 30
0.0
 11
8372.491683899744
 21
9530.489007222861
 31
0.0
 70
   160
 71
     5
 42
55.00000000003637
  3
INABA_S40G
100
AcDbAlignedDimension
 13
8680.976965273982
 23
9233.681980414653
 33
0.0
 14
8735.976965274018
 24
9233.681980414653
 34
0.0
100
AcDbRotatedDimension
1001
ACAD
1000
DSTYLE
1002
{
1002
}
  0
LINE
  5
179F1
330
747D
100
AcDbEntity
  8
部品1
100
AcDbLine
 10
8735.976965273982
 20
9233.681980414621
 30
0.0
 11
8735.976965273986
 21
9205.68198041462
 31
0.0
  0
LINE
  5
179F2
330
747D
100
AcDbEntity
  8
部品1
100
AcDbLine
 10
8680.976965273982
 20
9233.681980414621
 30
0.0
 11
8680.976965274011
 21
7863.681980414608
 31
0.0
  0
LINE
  5
179F3
330
747D
100
AcDbEntity
  8
部品1
100
AcDbLine
 10
10415.97696527402
 20
9233.681980414747
 30
0.0
 11
10415.97696527402
 21
9205.681980414748
 31
0.0
  0
LINE
  5
179F4
330
747D
100
AcDbEntity
  8
部品1
100
AcDbLine
 10
10415.97696527402
 20
9233.681980414768
 30
0.0
 11
10415.97696527402
 21
9205.681980414768
 31
0.0
  0
DIMENSION
  5
179F5
330
747D
100
AcDbEntity
  8
寸法
100
AcDbDimension
  2
*D16
 10
11483.51025274806
 20
7863.681980414738
 30
0.0
 11
11483.51025274806
 21
8548.681980414743
 31
0.0
 70
   160
 71
     5
 42
1370.000000000008
  3
INABA_S40G
100
AcDbAlignedDimension
 13
10470.97696527402
 23
9233.681980414747
 33
0.0
 14
10470.97696527399
 24
7863.681980414738
 34
0.0
 50
90.0
100
AcDbRotatedDimension
1001
ACAD
1000
DSTYLE
1002
{
1002
}
  0
LINE
  5
179F6
330
747D
100
AcDbEntity
  8
部品1
100
AcDbLine
 10
10470.97696527402
 20
9233.681980414747
 30
0.0
 11
10470.97696527399
 21
7863.681980414738
 31
0.0
  0
LINE
  5
179F7
330
747D
100
AcDbEntity
  8
部品1
100
AcDbLine
 10
9995.976965274017
 20
9233.681980414768
 30
0.0
 11
9995.976965274017
 21
9205.681980414768
 31
0.0
  0
LINE
  5
179F8
330
747D
100
AcDbEntity
  8
部品1
100
AcDbLine
 10
9575.976965274017
 20
9233.681980414768
 30
0.0
 11
9575.976965274017
 21
9205.681980414768
 31
0.0
  0
LINE
  5
179F9
330
747D
100
AcDbEntity
  8
部品1
100
AcDbLine
 10
9155.976965274019
 20
9233.681980414768
 30
0.0
 11
9155.976965274019
 21
9205.681980414768
 31
0.0
  0
LINE
  5
179FA
330
747D
100
AcDbEntity
  8
部品1
100
AcDbLine
 10
9155.976965274019
 20
9233.681980414651
 30
0.0
 11
9155.976965274019
 21
9205.681980414651
 31
0.0
  0
LINE
  5
179FB
330
747D
100
AcDbEntity
  8
部品1
100
AcDbLine
 10
9155.976965274019
 20
9233.681980414653
 30
0.0
 11
9155.976965274019
 21
9205.681980414652
 31
0.0
  0
LINE
  5
179FC
330
747D
100
AcDbEntity
  8
部品1
100
AcDbLine
 10
8735.976965274018
 20
9233.681980414653
 30
0.0
 11
8735.976965274018
 21
9205.681980414652
 31
0.0
  0
DIMENSION
  5
179FD
330
747D
100
AcDbEntity
  8
寸法
100
AcDbDimension
  2
*D17
 10
11118.40331100843
 20
9178.681980414751
 30
0.0
 11
11118.40331100843
 21
9542.167261788987
 31
0.0
 70
   160
 71
     5
 42
54.99999999999636
  3
INABA_S40G
100
AcDbAlignedDimension
 13
10470.97696527402
 23
9233.681980414747
 33
0.0
 14
10470.97696527402
 24
9178.681980414751
 34
0.0
 50
90.0
100
AcDbRotatedDimension
1001
ACAD
1000
DSTYLE
1002
{
1002
}
  0
DIMENSION
  5
179FE
330
747D
100
AcDbEntity
  8
寸法
100
AcDbDimension
  2
*D18
 10
10797.83469113604
 20
8658.46416474586
 30
0.0
 11
10697.83469113604
 21
8883.464164745859
 31
0.0
 70
    32
 71
     5
 42
449.9999999999982
  3
INABA_S40G
100
AcDbAlignedDimension
 13
10442.47696527402
 23
9203.681980414748
 33
0.0
 14
10442.47696527402
 24
8753.68198041475
 34
0.0
 50
90.0
100
AcDbRotatedDimension
1001
ACAD
1000
DSTYLE
1002
{
1002
}
  0
DIMENSION
  5
179FF
330
747D
100
AcDbEntity
  8
寸法
100
AcDbDimension
  2
*D19
 10
11118.4033110084
 20
7863.681980414738
 30
0.0
 11
11118.4033110084
 21
7485.820513509877
 31
0.0
 70
   160
 71
     5
 42
54.99999999999636
  3
INABA_S40G
100
AcDbAlignedDimension
 13
10470.97696527399
 23
7918.681980414735
 33
0.0
 14
10470.97696527399
 24
7863.681980414738
 34
0.0
 50
90.0
100
AcDbRotatedDimension
1001
ACAD
1000
DSTYLE
1002
{
1002
}
  0
DIMENSION
  5
17A00
330
747D
100
AcDbEntity
  8
寸法
100
AcDbDimension
  2
*D20
 10
11118.40331100843
 20
7918.681980414735
 30
0.0
 11
11118.40331100843
 21
8548.681980414743
 31
0.0
 70
   160
  1
3X420=<>
 71
     5
 42
1260.000000000015
  3
INABA_S40G
100
AcDbAlignedDimension
 13
10470.97696527402
 23
9178.681980414751
 33
0.0
 14
10470.97696527399
 24
7918.681980414735
 34
0.0
 50
90.0
100
AcDbRotatedDimension
1001
ACAD
1000
DSTYLE
1002
{
1002
}
  0
LINE
  5
17A03
330
747D
100
AcDbEntity
  8
部品1
100
AcDbLine
 10
8709.476965274019
 20
8753.681980414651
 30
0.0
 11
9562.476965274015
 21
8753.681980414757
 31
0.0
  0
DIMENSION
  5
17A04
330
747D
100
AcDbEntity
  8
寸法
100
AcDbDimension
  2
*D21
 10
10363.9081917176
 20
8460.459325613783
 30
0.0
 11
9968.824027392287
 21
8460.459325613783
 31
0.0
 70
   160
 71
     5
 42
853.0000000000109
  3
INABA_S40G
100
AcDbAlignedDimension
 13
9589.476965274018
 23
8753.681980414757
 33
0.0
 14
10442.47696527403
 24
8753.681980414752
 34
0.0
100
AcDbRotatedDimension
1001
ACAD
1000
DSTYLE
1002
{
1002
}
  0
LINE
  5
17A05
330
747D
100
AcDbEntity
  8
細線
 48
50.0
100
AcDbLine
 10
9562.476965274019
 20
9203.681980414755
 30
0.0
 11
8709.476965274019
 21
8753.681980414651
 31
0.0
  0
LINE
  5
17A06
330
747D
100
AcDbEntity
  8
細線
 48
50.0
100
AcDbLine
 10
9562.476965274015
 20
8753.681980414757
 30
0.0
 11
8709.476965274017
 21
9203.681980414653
 31
0.0
  0
LINE
  5
17A07
330
747D
100
AcDbEntity
  8
部品1
100
AcDbLine
 10
8709.476965274017
 20
9203.681980414653
 30
0.0
 11
9562.476965274019
 21
9203.681980414758
 31
0.0
  0
LINE
  5
17A08
330
747D
100
AcDbEntity
  8
部品1
100
AcDbLine
 10
8708.976965274016
 20
9205.68198041477
 30
0.0
 11
9563.476965274015
 21
9205.681980414768
 31
0.0
  0
LINE
  5
17A09
330
747D
100
AcDbEntity
  8
部品1
100
AcDbLine
 10
8708.97696527399
 20
7891.681980414576
 30
0.0
 11
8708.976965274016
 21
9205.681980414652
 31
0.0
  0
LINE
  5
17A0A
330
747D
100
AcDbEntity
  8
部品1
100
AcDbLine
 10
8708.976965273995
 20
8338.681980414621
 30
0.0
 11
8680.976965273996
 21
8338.681980414621
 31
0.0
  0
LINE
  5
17A0B
330
747D
100
AcDbEntity
  8
部品1
 48
50.0
100
AcDbLine
 10
8709.476965274017
 20
9203.681980414648
 30
0.0
 11
8709.476965274019
 21
8753.681980414649
 31
0.0
  0
LINE
  5
17A0C
330
747D
100
AcDbEntity
  8
部品1
100
AcDbLine
 10
8708.976965273993
 20
8758.681980414621
 30
0.0
 11
8680.976965273993
 21
8758.681980414621
 31
0.0
  0
LINE
  5
17A0D
330
747D
100
AcDbEntity
  8
部品1
100
AcDbLine
 10
8708.976965273985
 20
9178.681980414623
 30
0.0
 11
8680.976965273986
 21
9178.681980414623
 31
0.0
  0
LINE
  5
17A0E
330
747D
100
AcDbEntity
  8
部品1
100
AcDbLine
 10
10442.97696527402
 20
9205.681980414748
 30
0.0
 11
10442.97696527399
 21
7891.681980414735
 31
0.0
  0
LINE
  5
17A0F
330
747D
100
AcDbEntity
  8
部品1
100
AcDbLine
 10
10442.97696527402
 20
8338.681980414751
 30
0.0
 11
10470.97696527402
 21
8338.681980414751
 31
0.0
  0
LINE
  5
17A10
330
747D
100
AcDbEntity
  8
部品1
100
AcDbLine
 10
9589.476965274016
 20
8753.681980414757
 30
0.0
 11
10442.47696527402
 21
8753.68198041475
 31
0.0
  0
LINE
  5
17A11
330
747D
100
AcDbEntity
  8
細線
 48
50.0
100
AcDbLine
 10
10442.47696527402
 20
9203.681980414748
 30
0.0
 11
9589.476965274016
 21
8753.681980414757
 31
0.0
  0
LINE
  5
17A12
330
747D
100
AcDbEntity
  8
細線
 48
50.0
100
AcDbLine
 10
10442.47696527402
 20
8753.68198041475
 30
0.0
 11
9589.476965274018
 21
9203.681980414751
 31
0.0
  0
LINE
  5
17A13
330
747D
100
AcDbEntity
  8
部品1
100
AcDbLine
 10
9589.476965274018
 20
9203.681980414755
 30
0.0
 11
10442.47696527402
 21
9203.681980414748
 31
0.0
  0
LINE
  5
17A14
330
747D
100
AcDbEntity
  8
部品1
100
AcDbLine
 10
9588.476965274017
 20
9205.681980414764
 30
0.0
 11
10442.97696527402
 21
9205.681980414748
 31
0.0
  0
LINE
  5
17A15
330
747D
100
AcDbEntity
  8
部品1
 48
50.0
100
AcDbLine
 10
9589.476965274018
 20
9203.681980414751
 30
0.0
 11
9589.476965274018
 21
8753.681980414757
 31
0.0
  0
LINE
  5
17A16
330
747D
100
AcDbEntity
  8
部品1
 48
50.0
100
AcDbLine
 10
9562.476965274019
 20
9203.681980414755
 30
0.0
 11
9562.476965274019
 21
8753.681980414757
 31
0.0
  0
LINE
  5
17A17
330
747D
100
AcDbEntity
  8
部品1
 48
50.0
100
AcDbLine
 10
9588.476965274017
 20
9205.681980414757
 30
0.0
 11
9588.476965274017
 21
8753.681980414757
 31
0.0
  0
LINE
  5
17A18
330
747D
100
AcDbEntity
  8
部品1
 48
50.0
100
AcDbLine
 10
9563.476965274016
 20
9205.681980414762
 30
0.0
 11
9563.476965274018
 21
8753.681980414757
 31
0.0
  0
LINE
  5
17A19
330
747D
100
AcDbEntity
  8
部品1
100
AcDbLine
 10
9563.476965274018
 20
8753.681980414757
 30
0.0
 11
9588.476965274017
 21
8753.681980414757
 31
0.0
  0
LINE
  5
17A1A
330
747D
100
AcDbEntity
  8
部品1
100
AcDbLine
 10
9563.476965274018
 20
9197.681980414751
 30
0.0
 11
9588.476965274017
 21
9197.681980414754
 31
0.0
  0
LINE
  5
17A1B
330
747D
100
AcDbEntity
  8
部品1
100
AcDbLine
 10
9604.976965274019
 20
9223.681980414754
 30
0.0
 11
9610.976965274019
 21
9223.681980414754
 31
0.0
  0
LINE
  5
17A1C
330
747D
100
AcDbEntity
  8
部品1
100
AcDbLine
 10
9610.976965274019
 20
9223.681980414754
 30
0.0
 11
9610.976965274019
 21
9205.681980414755
 31
0.0
  0
LINE
  5
17A1D
330
747D
100
AcDbEntity
  8
部品1
100
AcDbLine
 10
9540.976965274017
 20
9223.681980414754
 30
0.0
 11
9546.976965274017
 21
9223.681980414754
 31
0.0
  0
LINE
  5
17A1E
330
747D
100
AcDbEntity
  8
部品1
100
AcDbLine
 10
9540.976965274017
 20
9223.681980414754
 30
0.0
 11
9540.976965274017
 21
9205.681980414755
 31
0.0
  0
LINE
  5
17A1F
330
747D
100
AcDbEntity
  8
部品1
100
AcDbLine
 10
10442.47696527402
 20
9203.681980414748
 30
0.0
 11
10442.47696527402
 21
8753.68198041475
 31
0.0
  0
LINE
  5
17A20
330
747D
100
AcDbEntity
  8
部品1
100
AcDbLine
 10
10442.97696527402
 20
8758.681980414751
 30
0.0
 11
10470.97696527402
 21
8758.681980414751
 31
0.0
  0
LINE
  5
17A21
330
747D
100
AcDbEntity
  8
部品1
100
AcDbLine
 10
10442.97696527402
 20
9178.681980414751
 30
0.0
 11
10470.97696527402
 21
9178.681980414751
 31
0.0
  0
DIMENSION
  5
17A22
330
747D
100
AcDbEntity
  8
寸法
100
AcDbDimension
  2
*D22
 10
10470.97696527402
 20
9530.489007222957
 30
0.0
 11
10779.46224664825
 21
9530.489007222957
 31
0.0
 70
   160
 71
     5
 42
55.0
  3
INABA_S40G
100
AcDbAlignedDimension
 13
10415.97696527402
 23
9233.681980414747
 33
0.0
 14
10470.97696527402
 24
9233.681980414747
 34
0.0
100
AcDbRotatedDimension
1001
ACAD
1000
DSTYLE
1002
{
1002
}
  0
LINE
  5
17A23
330
747D
100
AcDbEntity
  8
部品1
100
AcDbLine
 10
8680.976965274018
 20
9233.681980414653
 30
0.0
 11
10470.97696527402
 21
9233.681980414747
 31
0.0
  0
DIMENSION
  5
17A24
330
747D
100
AcDbEntity
  8
寸法
100
AcDbDimension
  2
*D23
 10
10415.97696527402
 20
9530.489007222978
 30
0.0
 11
9575.976965274016
 21
9530.489007222978
 31
0.0
 70
   160
  1
4X420=<>
 71
     5
 42
1680.0
  3
INABA_S40G
100
AcDbAlignedDimension
 13
8735.976965274018
 23
9233.681980414653
 33
0.0
 14
10415.97696527402
 24
9233.681980414747
 34
0.0
100
AcDbRotatedDimension
1001
ACAD
1000
DSTYLE
1002
{
1002
}
  0
LINE
  5
17A25
330
747D
100
AcDbEntity
  8
破線
 48
5.0
100
AcDbLine
 10
10475.97696527401
 20
2487.510589766162
 30
0.0
 11
10475.97696527401
 21
2332.510589766162
 31
0.0
  0
LINE
  5
17A26
330
747D
100
AcDbEntity
  8
破線
 48
5.0
100
AcDbLine
 10
8675.97696527401
 20
2487.510589766162
 30
0.0
 11
8675.97696527401
 21
2332.510589766163
 31
0.0
  0
DIMENSION
  5
17A27
330
747D
100
AcDbEntity
  8
寸法
 48
50.0
100
AcDbDimension
  2
*D24
 10
8580.976965274009
 20
2001.463260465784
 30
0.0
 11
8680.976965274011
 21
2001.463260465784
 31
0.0
 70
   160
 71
     5
 42
200.0000000000018
  3
INABA_S40G
100
AcDbAlignedDimension
 13
8780.976965274012
 23
2287.51058976616
 33
0.0
 14
8580.976965274009
 24
2287.51058976616
 34
0.0
100
AcDbRotatedDimension
  0
TEXT
  5
17A28
330
747D
100
AcDbEntity
  8
部品1
100
AcDbText
 10
9284.767035897745
 20
1415.30151757268
 30
0.0
 40
135.0
  1
正面図
  7
STYLE2
100
AcDbText
  0
TEXT
  5
17A29
330
747D
100
AcDbEntity
  8
部品1
100
AcDbText
 10
5265.403316558837
 20
1415.30151757268
 30
0.0
 40
135.0
  1
側面図
  7
STYLE2
100
AcDbText
  0
LINE
  5
17A2A
330
747D
100
AcDbEntity
  8
部品1
 48
50.0
100
AcDbLine
 10
10414.476965274
 20
8338.681980414751
 30
0.0
 11
8737.476965274002
 21
8338.681980414838
 31
0.0
  0
LINE
  5
17A2B
330
747D
100
AcDbEntity
  8
部品1
100
AcDbLine
 10
8680.976965274011
 20
2637.510589766165
 30
0.0
 11
8708.976965274009
 21
2637.510589766165
 31
0.0
  0
LINE
  5
17A2C
330
747D
100
AcDbEntity
  8
破線
 48
10.0
100
AcDbLine
 10
9600.976965273988
 20
7920.181980414689
 30
0.0
 11
9600.976965273989
 21
8753.681980414757
 31
0.0
  0
LINE
  5
17A2D
330
747D
100
AcDbEntity
  8
破線
 48
10.0
100
AcDbLine
 10
9550.97696527399
 20
7920.181980414685
 30
0.0
 11
9550.976965273989
 21
8753.681980414757
 31
0.0
  0
DIMENSION
  5
17A2E
330
747D
100
AcDbEntity
  8
寸法
100
AcDbDimension
  2
*D25
 10
9483.908191717599
 20
8460.459325613678
 30
0.0
 11
9088.824027392286
 21
8460.459325613678
 31
0.0
 70
   160
 71
     5
 42
853.0000000000109
  3
INABA_S40G
100
AcDbAlignedDimension
 13
8709.476965274019
 23
8753.681980414651
 33
0.0
 14
9562.476965274028
 24
8753.681980414645
 34
0.0
100
AcDbRotatedDimension
1001
ACAD
1000
DSTYLE
1002
{
1002
}
  0
LINE
  5
17A2F
330
747D
100
AcDbEntity
  8
部品1
100
AcDbLine
 10
10414.47696527399
 20
7920.181980414733
 30
0.0
 11
8737.476965273909
 21
7920.181980414638
 31
0.0
  0
LINE
  5
17A30
330
747D
100
AcDbEntity
  8
破線
 48
10.0
100
AcDbLine
 10
10390.97696527399
 20
7943.681980414734
 30
0.0
 11
9600.976965273986
 21
7943.681980414687
 31
0.0
  0
LINE
  5
17A31
330
747D
100
AcDbEntity
  8
破線
 48
10.0
100
AcDbLine
 10
9550.976965273985
 20
7943.681980414684
 30
0.0
 11
8760.976965274
 21
7943.681980414637
 31
0.0
  0
LINE
  5
17A32
330
747D
100
AcDbEntity
  8
部品1
100
AcDbLine
 10
10414.47696527401
 20
8753.68198041475
 30
0.0
 11
10414.47696527399
 21
7920.181980414733
 31
0.0
  0
LINE
  5
17A33
330
747D
100
AcDbEntity
  8
破線
 48
10.0
100
AcDbLine
 10
10390.97696527401
 20
8753.681980414752
 30
0.0
 11
10390.976965274
 21
7943.681980414734
 31
0.0
  0
LINE
  5
17A34
330
747D
100
AcDbEntity
  8
部品1
 48
50.0
100
AcDbLine
 10
10414.47696527399
 20
7920.181980414733
 30
0.0
 11
10442.97696527399
 21
7891.681980414735
 31
0.0
  0
LINE
  5
17A35
330
747D
100
AcDbEntity
  8
部品1
100
AcDbLine
 10
8737.476965273994
 20
8753.68198041475
 30
0.0
 11
8737.476965274007
 21
7920.181980414736
 31
0.0
  0
LINE
  5
17A36
330
747D
100
AcDbEntity
  8
破線
 48
10.0
100
AcDbLine
 10
8760.976965273993
 20
8753.681980414752
 30
0.0
 11
8760.976965274007
 21
7943.681980414638
 31
0.0
  0
LINE
  5
17A37
330
747D
100
AcDbEntity
  8
部品1
 48
50.0
100
AcDbLine
 10
8737.476965274003
 20
7920.181980414733
 30
0.0
 11
8708.976965274006
 21
7891.681980414735
 31
0.0
  0
LINE
  5
17A38
330
747D
100
AcDbEntity
  8
部品1
100
AcDbLine
 10
10442.97696527402
 20
7918.681980414477
 30
0.0
 11
10470.97696527402
 21
7918.681980414477
 31
0.0
  0
LINE
  5
17A39
330
747D
100
AcDbEntity
  8
部品1
100
AcDbLine
 10
8708.976965273985
 20
7918.681980414605
 30
0.0
 11
8680.976965273986
 21
7918.681980414605
 31
0.0
  0
LINE
  5
17A3A
330
747D
100
AcDbEntity
  8
部品1
 48
50.0
100
AcDbLine
 10
8680.976965274011
 20
7863.681980414575
 30
0.0
 11
8735.976965273982
 21
7863.68198041458
 31
0.0
  0
LINE
  5
17A3B
330
747D
100
AcDbEntity
  8
部品1
 48
50.0
100
AcDbLine
 10
8708.976965273988
 20
7891.681980414574
 30
0.0
 11
10442.97696527399
 21
7891.681980414735
 31
0.0
  0
LINE
  5
17A3C
330
747D
100
AcDbEntity
  8
部品1
 48
50.0
100
AcDbLine
 10
10415.97696527402
 20
7863.681980414735
 30
0.0
 11
10470.97696527399
 21
7863.681980414738
 31
0.0
  0
LINE
  5
17A3D
330
747D
100
AcDbEntity
  8
部品1
100
AcDbLine
 10
10415.97696527401
 20
4727.510589766161
 30
0.0
 11
10415.97696527401
 21
4722.510589766161
 31
0.0
  0
LINE
  5
17A3E
330
747D
100
AcDbEntity
  8
部品1
100
AcDbLine
 10
8735.976965274009
 20
4727.510589766156
 30
0.0
 11
8735.976965274009
 21
4722.510589766161
 31
0.0
  0
LINE
  5
17A3F
330
747D
100
AcDbEntity
  8
部品1
 48
50.0
100
AcDbLine
 10
8735.976965273982
 20
7863.68198041458
 30
0.0
 11
8735.976965273986
 21
7891.681980414579
 31
0.0
  0
LINE
  5
17A40
330
747D
100
AcDbEntity
  8
部品1
 48
50.0
100
AcDbLine
 10
10415.97696527398
 20
7863.681980414735
 30
0.0
 11
10415.97696527398
 21
7891.68198041473
 31
0.0
  0
LINE
  5
17A41
330
747D
100
AcDbEntity
  8
部品1
 48
50.0
100
AcDbLine
 10
8708.976965274009
 20
2587.510589766161
 30
0.0
 11
10442.97696527401
 21
2587.510589766161
 31
0.0
  0
LINE
  5
17A42
330
747D
100
AcDbEntity
  8
部品1
100
AcDbLine
 10
10442.97696527401
 20
2637.510589766181
 30
0.0
 11
10470.97696527401
 21
2637.510589766181
 31
0.0
  0
LINE
  5
17A47
330
747D
100
AcDbEntity
  8
部品1
100
AcDbLine
 10
9194.241632159791
 20
1608.195046791203
 30
0.0
 11
9194.241632159791
 21
1368.30272524567
 31
0.0
  0
LINE
  5
17A48
330
747D
100
AcDbEntity
  8
部品1
100
AcDbLine
 10
9194.241632159791
 20
1368.30272524567
 30
0.0
 11
9957.71229838823
 21
1368.30272524567
 31
0.0
  0
LINE
  5
17A49
330
747D
100
AcDbEntity
  8
部品1
100
AcDbLine
 10
9957.71229838823
 20
1368.30272524567
 30
0.0
 11
9957.71229838823
 21
1608.195046791203
 31
0.0
  0
LINE
  5
17A4A
330
747D
100
AcDbEntity
  8
部品1
100
AcDbLine
 10
9957.71229838823
 20
1608.195046791203
 30
0.0
 11
9194.241632159791
 21
1608.195046791203
 31
0.0
  0
LINE
  5
17A4B
330
747D
100
AcDbEntity
  8
部品1
100
AcDbLine
 10
5175.957215135229
 20
1608.195046791203
 30
0.0
 11
5175.957215135229
 21
1368.30272524567
 31
0.0
  0
LINE
  5
17A4C
330
747D
100
AcDbEntity
  8
部品1
100
AcDbLine
 10
5175.957215135229
 20
1368.30272524567
 30
0.0
 11
5939.427881363668
 21
1368.30272524567
 31
0.0
  0
LINE
  5
17A4D
330
747D
100
AcDbEntity
  8
部品1
100
AcDbLine
 10
5939.427881363668
 20
1368.30272524567
 30
0.0
 11
5939.427881363668
 21
1608.195046791203
 31
0.0
  0
LINE
  5
17A4E
330
747D
100
AcDbEntity
  8
部品1
100
AcDbLine
 10
5939.427881363668
 20
1608.195046791203
 30
0.0
 11
5175.957215135229
 21
1608.195046791203
 31
0.0
  0
TEXT
  5
17A4F
330
747D
100
AcDbEntity
  8
文字
 62
     7
 48
50.0
100
AcDbText
 10
13248.77747366447
 20
8380.013745883728
 30
0.0
 40
100.0
  1
17
  7
STYLE1
100
AcDbText
  0
TEXT
  5
17A50
330
747D
100
AcDbEntity
  8
文字
 62
     7
 48
50.0
100
AcDbText
 10
13248.77747366447
 20
8550.013745883729
 30
0.0
 40
100.0
  1
16
  7
STYLE1
100
AcDbText
  0
TEXT
  5
17A51
330
747D
100
AcDbEntity
  8
文字
 62
     7
 48
50.0
100
AcDbText
 10
15022.63965474517
 20
9060.013745883725
 30
0.0
 40
100.0
  1
F12            1.0
  7
STYLE1
100
AcDbText
  0
TEXT
  5
17A52
330
747D
100
AcDbEntity
  8
文字
 62
     7
 48
50.0
100
AcDbText
 10
13583.11819016569
 20
9060.013745883733
 30
0.0
 40
100.0
  1
壁面扉枠左右
  7
STYLE1
100
AcDbText
  0
TEXT
  5
17A53
330
747D
100
AcDbEntity
  8
文字
 62
     7
 48
50.0
100
AcDbText
 10
15022.63965474517
 20
9230.013745883725
 30
0.0
 40
100.0
  1
F12            1.0
  7
STYLE1
100
AcDbText
  0
TEXT
  5
17A54
330
747D
100
AcDbEntity
  8
文字
 62
     7
 48
50.0
100
AcDbText
 10
15022.63965474515
 20
9400.013745883727
 30
0.0
 40
100.0
  1
F12            0.7
  7
STYLE1
100
AcDbText
  0
TEXT
  5
17A55
330
747D
100
AcDbEntity
  8
文字
 62
     7
 48
50.0
100
AcDbText
 10
13583.11819016569
 20
9230.013745883733
 30
0.0
 40
100.0
  1
壁面扉敷居
  7
STYLE1
100
AcDbText
  0
TEXT
  5
17A56
330
747D
100
AcDbEntity
  8
文字
 62
     7
 48
50.0
100
AcDbText
 10
13583.11819016569
 20
9400.013745883729
 30
0.0
 40
100.0
  1
壁面扉鴨居
  7
STYLE1
100
AcDbText
  0
LINE
  5
17A57
330
747D
100
AcDbEntity
  8
仕様書枠
 48
50.0
100
AcDbLine
 10
16307.19999999999
 20
8689.600000000003
 30
0.0
 11
13127.2
 21
8689.600000000005
 31
0.0
  0
LINE
  5
17A58
330
747D
100
AcDbEntity
  8
仕様書枠
 48
50.0
100
AcDbLine
 10
16307.19999999999
 20
8519.600000000004
 30
0.0
 11
13127.2
 21
8519.600000000005
 31
0.0
  0
TEXT
  5
17A59
330
747D
100
AcDbEntity
  8
文字
 62
     7
 48
50.0
100
AcDbText
 10
13583.11819016569
 20
8380.013745883728
 30
0.0
 40
100.0
  1
アンカープレート
  7
STYLE1
100
AcDbText
  0
TEXT
  5
17A5A
330
747D
100
AcDbEntity
  8
文字
 62
     7
 48
50.0
100
AcDbText
 10
15022.63965474515
 20
8380.013745883724
 30
0.0
 40
100.0
  1
F12            2.3
  7
STYLE1
100
AcDbText
  0
LINE
  5
17A5B
330
747D
100
AcDbEntity
  8
仕様書枠
 48
50.0
100
AcDbLine
 10
16307.2
 20
10049.6
 30
0.0
 11
13127.2
 21
10049.6
 31
0.0
  0
LINE
  5
17A5C
330
747D
100
AcDbEntity
  8
仕様書枠
 48
50.0
100
AcDbLine
 10
16307.2
 20
11409.59999999999
 30
0.0
 11
13127.2
 21
11409.6
 31
0.0
  0
LINE
  5
17A5D
330
747D
100
AcDbEntity
  8
仕様書枠
 48
50.0
100
AcDbLine
 10
16307.19999999999
 20
8009.600000000004
 30
0.0
 11
16307.2
 21
11409.6
 31
0.0
  0
LINE
  5
17A5E
330
747D
100
AcDbEntity
  8
仕様書枠
 48
50.0
100
AcDbLine
 10
14785.2
 20
11409.59999999999
 30
0.0
 11
14785.2
 21
8349.600000000004
 31
0.0
  0
LINE
  5
17A5F
330
747D
100
AcDbEntity
  8
仕様書枠
 48
50.0
100
AcDbLine
 10
13490.2
 20
11409.59999999999
 30
0.0
 11
13490.20000000001
 21
8349.600000000007
 31
0.0
  0
LINE
  5
17A60
330
747D
100
AcDbEntity
  8
仕様書枠
 48
50.0
100
AcDbLine
 10
16307.2
 20
11239.59999999999
 30
0.0
 11
13127.2
 21
11239.6
 31
0.0
  0
LINE
  5
17A61
330
747D
100
AcDbEntity
  8
仕様書枠
 48
50.0
100
AcDbLine
 10
16307.2
 20
10899.6
 30
0.0
 11
13127.2
 21
10899.6
 31
0.0
  0
LINE
  5
17A62
330
747D
100
AcDbEntity
  8
仕様書枠
 48
50.0
100
AcDbLine
 10
16307.2
 20
11069.59999999999
 30
0.0
 11
13127.2
 21
11069.6
 31
0.0
  0
LINE
  5
17A63
330
747D
100
AcDbEntity
  8
仕様書枠
 48
50.0
100
AcDbLine
 10
16307.19999999999
 20
10559.6
 30
0.0
 11
13127.2
 21
10559.6
 31
0.0
  0
LINE
  5
17A64
330
747D
100
AcDbEntity
  8
仕様書枠
 48
50.0
100
AcDbLine
 10
16307.19999999999
 20
10389.6
 30
0.0
 11
13127.2
 21
10389.6
 31
0.0
  0
LINE
  5
17A65
330
747D
100
AcDbEntity
  8
仕様書枠
 48
50.0
100
AcDbLine
 10
16307.19999999999
 20
10729.59999999999
 30
0.0
 11
13127.2
 21
10729.6
 31
0.0
  0
TEXT
  5
17A66
330
747D
100
AcDbEntity
  8
文字
 62
     7
 48
50.0
100
AcDbText
 10
13197.42518560407
 20
11270.01374588372
 30
0.0
 40
100.0
  1
品番
  7
STYLE1
100
AcDbText
  0
TEXT
  5
17A67
330
747D
100
AcDbEntity
  8
文字
 62
     7
 48
50.0
100
AcDbText
 10
13271.19032244792
 20
11100.01374588373
 30
0.0
 40
100.0
  1
1
  7
STYLE1
100
AcDbText
  0
TEXT
  5
17A68
330
747D
100
AcDbEntity
  8
文字
 62
     7
 48
50.0
100
AcDbText
 10
13271.19032244792
 20
10930.01374588373
 30
0.0
 40
100.0
  1
2
  7
STYLE1
100
AcDbText
  0
TEXT
  5
17A69
330
747D
100
AcDbEntity
  8
文字
 62
     7
 48
50.0
100
AcDbText
 10
13271.19032244792
 20
10590.01374588373
 30
0.0
 40
100.0
  1
4
  7
STYLE1
100
AcDbText
  0
TEXT
  5
17A6A
330
747D
100
AcDbEntity
  8
文字
 62
     7
 48
50.0
100
AcDbText
 10
13271.19032244792
 20
10760.01374588373
 30
0.0
 40
100.0
  1
3
  7
STYLE1
100
AcDbText
  0
TEXT
  5
17A6B
330
747D
100
AcDbEntity
  8
文字
 62
     7
 48
50.0
100
AcDbText
 10
13732.03840939434
 20
11270.01374588372
 30
0.0
 40
100.0
  1
部　　品　　名
  7
STYLE1
100
AcDbText
  0
TEXT
  5
17A6C
330
747D
100
AcDbEntity
  8
文字
 62
     7
 48
50.0
100
AcDbText
 10
14859.79774614482
 20
11270.01374588372
 30
0.0
 40
100.0
  1
材料（材質）　　単位mm
  7
STYLE1
100
AcDbText
  0
TEXT
  5
17A6D
330
747D
100
AcDbEntity
  8
文字
 62
     7
 48
50.0
100
AcDbText
 10
13583.11819016569
 20
11100.01374588372
 30
0.0
 40
100.0
  1
土台枠
  7
STYLE1
100
AcDbText
  0
TEXT
  5
17A6E
330
747D
100
AcDbEntity
  8
文字
 62
     7
 48
50.0
100
AcDbText
 10
13583.1181901657
 20
10760.01374588372
 30
0.0
 40
100.0
  1
柱
  7
STYLE1
100
AcDbText
  0
TEXT
  5
17A6F
330
747D
100
AcDbEntity
  8
文字
 62
     7
 48
50.0
100
AcDbText
 10
13583.11819016569
 20
10420.01374588373
 30
0.0
 40
100.0
  1
桁前後
  7
STYLE1
100
AcDbText
  0
TEXT
  5
17A70
330
747D
100
AcDbEntity
  8
文字
 62
     7
 48
50.0
100
AcDbText
 10
13271.19032244792
 20
10420.01374588372
 30
0.0
 40
100.0
  1
5
  7
STYLE1
100
AcDbText
  0
TEXT
  5
17A71
330
747D
100
AcDbEntity
  8
文字
 62
     7
 48
50.0
100
AcDbText
 10
13583.11819016569
 20
10250.01374588373
 30
0.0
 40
100.0
  1
妻板左右
  7
STYLE1
100
AcDbText
  0
TEXT
  5
17A72
330
747D
100
AcDbEntity
  8
文字
 62
     7
 48
50.0
100
AcDbText
 10
13248.77747366447
 20
9570.013745883727
 30
0.0
 40
100.0
  1
10
  7
STYLE1
100
AcDbText
  0
TEXT
  5
17A73
330
747D
100
AcDbEntity
  8
文字
 62
     7
 48
50.0
100
AcDbText
 10
13583.11819016568
 20
9570.013745883729
 30
0.0
 40
100.0
  1
壁パネル
  7
STYLE1
100
AcDbText
  0
TEXT
  5
17A74
330
747D
100
AcDbEntity
  8
文字
 62
     7
 48
50.0
100
AcDbText
 10
13583.11819016569
 20
9910.013745883727
 30
0.0
 40
100.0
  1
屋根パネル
  7
STYLE1
100
AcDbText
  0
TEXT
  5
17A75
330
747D
100
AcDbEntity
  8
文字
 62
     7
 48
50.0
100
AcDbText
 10
13583.11819016569
 20
10080.01374588372
 30
0.0
 40
100.0
  1
鼻隠シ前後
  7
STYLE1
100
AcDbText
  0
TEXT
  5
17A76
330
747D
100
AcDbEntity
  8
文字
 62
     7
 48
50.0
100
AcDbText
 10
13271.19032244792
 20
9910.01374588373
 30
0.0
 40
100.0
  1
8
  7
STYLE1
100
AcDbText
  0
TEXT
  5
17A77
330
747D
100
AcDbEntity
  8
文字
 62
     7
 48
50.0
100
AcDbText
 10
13271.19032244792
 20
9740.013745883729
 30
0.0
 40
100.0
  1
9
  7
STYLE1
100
AcDbText
  0
TEXT
  5
17A78
330
747D
100
AcDbEntity
  8
文字
 62
     7
 48
50.0
100
AcDbText
 10
13271.19032244792
 20
10080.01374588373
 30
0.0
 40
100.0
  1
7
  7
STYLE1
100
AcDbText
  0
TEXT
  5
17A79
330
747D
100
AcDbEntity
  8
文字
 62
     7
 48
50.0
100
AcDbText
 10
13271.19032244792
 20
10250.01374588373
 30
0.0
 40
100.0
  1
6
  7
STYLE1
100
AcDbText
  0
LINE
  5
17A7A
330
747D
100
AcDbEntity
  8
仕様書枠
 48
50.0
100
AcDbLine
 10
16307.19999999999
 20
9709.6
 30
0.0
 11
13127.2
 21
9709.600000000001
 31
0.0
  0
LINE
  5
17A7B
330
747D
100
AcDbEntity
  8
仕様書枠
 48
50.0
100
AcDbLine
 10
16307.19999999999
 20
9369.599999999998
 30
0.0
 11
13127.2
 21
9369.600000000001
 31
0.0
  0
LINE
  5
17A7C
330
747D
100
AcDbEntity
  8
仕様書枠
 48
50.0
100
AcDbLine
 10
16307.19999999999
 20
9539.599999999998
 30
0.0
 11
13127.2
 21
9539.6
 31
0.0
  0
LINE
  5
17A7D
330
747D
100
AcDbEntity
  8
仕様書枠
 48
50.0
100
AcDbLine
 10
16307.2
 20
10219.6
 30
0.0
 11
13127.2
 21
10219.6
 31
0.0
  0
LINE
  5
17A7E
330
747D
100
AcDbEntity
  8
仕様書枠
 48
50.0
100
AcDbLine
 10
16307.2
 20
9879.599999999999
 30
0.0
 11
13127.2
 21
9879.600000000001
 31
0.0
  0
TEXT
  5
17A7F
330
747D
100
AcDbEntity
  8
文字
 62
     7
 48
50.0
100
AcDbText
 10
13248.77747366447
 20
9400.013745883727
 30
0.0
 40
100.0
  1
11
  7
STYLE1
100
AcDbText
  0
LINE
  5
17A80
330
747D
100
AcDbEntity
  8
仕様書枠
 48
50.0
100
AcDbLine
 10
16307.19999999999
 20
9199.599999999998
 30
0.0
 11
13127.2
 21
9199.600000000001
 31
0.0
  0
LINE
  5
17A81
330
747D
100
AcDbEntity
  8
仕様書枠
 48
50.0
100
AcDbLine
 10
16307.19999999999
 20
8859.6
 30
0.0
 11
13127.2
 21
8859.600000000002
 31
0.0
  0
TEXT
  5
17A82
330
747D
100
AcDbEntity
  8
文字
 62
     7
 48
50.0
100
AcDbText
 10
13248.77747366448
 20
9060.013745883727
 30
0.0
 40
100.0
  1
13
  7
STYLE1
100
AcDbText
  0
TEXT
  5
17A83
330
747D
100
AcDbEntity
  8
文字
 62
     7
 48
50.0
100
AcDbText
 10
13248.77747366448
 20
9230.013745883727
 30
0.0
 40
100.0
  1
12
  7
STYLE1
100
AcDbText
  0
TEXT
  5
17A84
330
747D
100
AcDbEntity
  8
文字
 62
     7
 48
50.0
100
AcDbText
 10
15022.63965474517
 20
11100.01374588372
 30
0.0
 40
100.0
  1
F12            1.2
  7
STYLE1
100
AcDbText
  0
TEXT
  5
17A85
330
747D
100
AcDbEntity
  8
文字
 62
     7
 48
50.0
100
AcDbText
 10
15022.63965474518
 20
10760.01374588372
 30
0.0
 40
100.0
  1
F12            1.0
  7
STYLE1
100
AcDbText
  0
TEXT
  5
17A86
330
747D
100
AcDbEntity
  8
文字
 62
     7
 48
50.0
100
AcDbText
 10
15022.63965474516
 20
10420.01374588372
 30
0.0
 40
100.0
  1
Y10            1.0
  7
STYLE1
100
AcDbText
  0
TEXT
  5
17A87
330
747D
100
AcDbEntity
  8
文字
 62
     7
 48
50.0
100
AcDbText
 10
15022.63965474516
 20
10250.01374588372
 30
0.0
 40
100.0
  1
Y10            0.7
  7
STYLE1
100
AcDbText
  0
TEXT
  5
17A88
330
747D
100
AcDbEntity
  8
文字
 62
     7
 48
50.0
100
AcDbText
 10
15022.63965474516
 20
10080.01374588372
 30
0.0
 40
100.0
  1
Y10            0.7
  7
STYLE1
100
AcDbText
  0
TEXT
  5
17A89
330
747D
100
AcDbEntity
  8
文字
 62
     7
 48
50.0
100
AcDbText
 10
15022.63965474517
 20
9910.013745883725
 30
0.0
 40
100.0
  1
Y10            0.5
  7
STYLE1
100
AcDbText
  0
TEXT
  5
17A8A
330
747D
100
AcDbEntity
  8
文字
 62
     7
 48
50.0
100
AcDbText
 10
15022.63965474515
 20
9570.013745883725
 30
0.0
 40
100.0
  1
F12            0.7
  7
STYLE1
100
AcDbText
  0
LINE
  5
17A8B
330
747D
100
AcDbEntity
  8
仕様書枠
 48
50.0
100
AcDbLine
 10
16307.19999999999
 20
8349.600000000004
 30
0.0
 11
13127.19999999999
 21
8349.600000000007
 31
0.0
  0
LINE
  5
17A8C
330
747D
100
AcDbEntity
  8
仕様書枠
 48
50.0
100
AcDbLine
 10
16307.19999999999
 20
8179.600000000004
 30
0.0
 11
13127.19999999999
 21
8179.600000000005
 31
0.0
  0
TEXT
  5
17A8D
330
747D
100
AcDbEntity
  8
文字
 62
     7
 48
50.0
100
AcDbText
 10
13229.83081656554
 20
8210.013745883733
 30
0.0
 40
100.0
  1
F12→溶融亜鉛めっき鋼板(JIS G 3302)
  7
STYLE1
100
AcDbText
  0
TEXT
  5
17A8E
330
747D
100
AcDbEntity
  8
文字
 62
     7
 48
50.0
100
AcDbText
 10
13229.83081656554
 20
8040.013745883731
 30
0.0
 40
100.0
  1
Y10→溶融亜鉛-5％アルミニウム合金めっき鋼板(JIS G 3317)
 41
0.9
  7
STYLE1
100
AcDbText
  0
LINE
  5
17A8F
330
747D
100
AcDbEntity
  8
仕様書枠
 48
50.0
100
AcDbLine
 10
13127.2
 20
11409.6
 30
0.0
 11
13127.19999999999
 21
8009.600000000006
 31
0.0
  0
LINE
  5
17A90
330
747D
100
AcDbEntity
  8
仕様書枠
 48
50.0
100
AcDbLine
 10
16307.19999999999
 20
9029.6
 30
0.0
 11
13127.2
 21
9029.600000000002
 31
0.0
  0
TEXT
  5
17A91
330
747D
100
AcDbEntity
  8
文字
 62
     7
 48
50.0
100
AcDbText
 10
13583.1181901657
 20
10590.01374588372
 30
0.0
 40
100.0
  1
床パネル
 41
0.9
  7
STYLE1
100
AcDbText
  0
TEXT
  5
17A92
330
747D
100
AcDbEntity
  8
文字
 62
     7
 48
50.0
100
AcDbText
 10
13583.11819016569
 20
10930.01374588372
 30
0.0
 40
100.0
  1
根太
  7
STYLE1
100
AcDbText
  0
TEXT
  5
17A93
330
747D
100
AcDbEntity
  8
文字
 62
     7
 48
50.0
100
AcDbText
 10
13248.77747366448
 20
8890.013745883727
 30
0.0
 40
100.0
  1
14
  7
STYLE1
100
AcDbText
  0
TEXT
  5
17A94
330
747D
100
AcDbEntity
  8
文字
 62
     7
 48
50.0
100
AcDbText
 10
15022.63965474516
 20
10930.01374588372
 30
0.0
 40
100.0
  1
F12            1.2
  7
STYLE1
100
AcDbText
  0
TEXT
  5
17A95
330
747D
100
AcDbEntity
  8
文字
 62
     7
 48
50.0
100
AcDbText
 10
15022.63965474517
 20
10590.01374588372
 30
0.0
 40
100.0
  1
F12            1.0
  7
STYLE1
100
AcDbText
  0
TEXT
  5
17A96
330
747D
100
AcDbEntity
  8
文字
 62
     7
 48
50.0
100
AcDbText
 10
15022.63965474515
 20
8890.013745883727
 30
0.0
 40
100.0
  1
F12            0.7
  7
STYLE1
100
AcDbText
  0
TEXT
  5
17A97
330
747D
100
AcDbEntity
  8
文字
 62
     7
 48
50.0
100
AcDbText
 10
13583.11819016568
 20
8890.013745883731
 30
0.0
 40
100.0
  1
正面パネル
  7
STYLE1
100
AcDbText
  0
TEXT
  5
17A98
330
747D
100
AcDbEntity
  8
文字
 62
     7
 48
50.0
100
AcDbText
 10
15022.63965474516
 20
8720.013745883727
 30
0.0
 40
100.0
  1
F12            0.8
  7
STYLE1
100
AcDbText
  0
TEXT
  5
17A99
330
747D
100
AcDbEntity
  8
文字
 62
     7
 48
50.0
100
AcDbText
 10
13583.11819016569
 20
8720.013745883731
 30
0.0
 40
100.0
  1
扉
  7
STYLE1
100
AcDbText
  0
LINE
  5
17A9A
330
747D
100
AcDbEntity
  8
仕様書枠
 48
50.0
100
AcDbLine
 10
16307.19999999999
 20
8009.600000000004
 30
0.0
 11
13127.19999999999
 21
8009.600000000006
 31
0.0
  0
TEXT
  5
17A9B
330
747D
100
AcDbEntity
  8
文字
 62
     7
 48
50.0
100
AcDbText
 10
13248.77747366447
 20
8720.013745883729
 30
0.0
 40
100.0
  1
15
  7
STYLE1
100
AcDbText
  0
TEXT
  5
17A9C
330
747D
100
AcDbEntity
  8
文字
 62
     7
 48
50.0
100
AcDbText
 10
13583.11819016569
 20
9740.013745883729
 30
0.0
 40
100.0
  1
母屋中
  7
STYLE1
100
AcDbText
  0
TEXT
  5
17A9D
330
747D
100
AcDbEntity
  8
文字
 62
     7
 48
50.0
100
AcDbText
 10
15022.63965474515
 20
9740.013745883723
 30
0.0
 40
100.0
  1
F12            1.0
  7
STYLE1
100
AcDbText
  0
TEXT
  5
17A9E
330
747D
100
AcDbEntity
  8
文字
 62
     7
 48
50.0
100
AcDbText
 10
15022.63965474516
 20
8550.013745883727
 30
0.0
 40
100.0
  1
F12            0.6
  7
STYLE1
100
AcDbText
  0
TEXT
  5
17A9F
330
747D
100
AcDbEntity
  8
文字
 62
     7
 48
50.0
100
AcDbText
 10
13583.11819016569
 20
8550.013745883731
 30
0.0
 40
100.0
  1
棚板
  7
STYLE1
100
AcDbText
  0
TEXT
  5
17AA0
330
747D
100
AcDbEntity
  8
文字
 62
     7
 48
50.0
100
AcDbText
 10
14491.96323844892
 20
483.8967129911416
 30
0.0
 40
160.0
  1
ＮＸＮ－２５ＨＢ
  7
STYLE2
100
AcDbText
  0
DIMENSION
  5
17AA3
330
747D
100
AcDbEntity
  8
寸法
 48
50.0
100
AcDbDimension
  2
*D26
 10
8360.962219637681
 20
2645.510589766161
 30
0.0
 11
8360.962219637681
 21
3655.102551191849
 31
0.0
 70
   160
  1
有効開口部高サ<>
 71
     5
 42
2025.0
  3
INABA_S40G
100
AcDbAlignedDimension
 13
8708.976965274027
 23
4670.510589766162
 33
0.0
 14
8708.976965274027
 24
2645.510589766161
 34
0.0
 50
90.0
100
AcDbRotatedDimension
1001
ACAD
1000
DSTYLE
1002
{
1070
   341
1005
0
1002
}
  0
LINE
  5
17B62
330
747D
100
AcDbEntity
  8
部品1
 48
50.0
100
AcDbLine
 10
10442.97696527401
 20
4678.510589766161
 30
0.0
 11
10412.97696527401
 21
4678.510589766161
 31
0.0
  0
LINE
  5
17B63
330
747D
100
AcDbEntity
  8
部品1
 48
50.0
100
AcDbLine
 10
8738.976965274011
 20
4678.510589766161
 30
0.0
 11
8708.976965274009
 21
4678.510589766161
 31
0.0
  0
LINE
  5
17B64
330
747D
100
AcDbEntity
  8
細線
 48
50.0
100
AcDbLine
 10
10412.97696527401
 20
4680.010589766161
 30
0.0
 11
8738.976965274011
 21
4680.010589766161
 31
0.0
  0
LINE
  5
17B65
330
747D
100
AcDbEntity
  8
細線
 48
50.0
100
AcDbLine
 10
10412.97696527401
 20
4670.510589766162
 30
0.0
 11
8738.976965274011
 21
4670.510589766162
 31
0.0
  0
LINE
  5
17B66
330
747D
100
AcDbEntity
  8
細線
 48
50.0
100
AcDbLine
 10
10442.97696527401
 20
4712.510589766162
 30
0.0
 11
8708.976965274009
 21
4712.510589766162
 31
0.0
  0
LINE
  5
17B67
330
747D
100
AcDbEntity
  8
部品1
 48
50.0
100
AcDbLine
 10
10442.97696527401
 20
4722.510589766161
 30
0.0
 11
8708.976965274009
 21
4722.510589766161
 31
0.0
  0
LINE
  5
17B68
330
747D
100
AcDbEntity
  8
細線
 48
50.0
100
AcDbLine
 10
10390.97696527401
 20
2634.510589766162
 30
0.0
 11
10386.97696527401
 21
2645.010589766162
 31
0.0
  0
LINE
  5
17B69
330
747D
100
AcDbEntity
  8
部品1
 48
50.0
100
AcDbLine
 10
8747.976965274011
 20
2637.510589766162
 30
0.0
 11
8747.976965274011
 21
2634.510589766162
 31
0.0
  0
LINE
  5
17B6A
330
747D
100
AcDbEntity
  8
部品1
 48
50.0
100
AcDbLine
 10
8738.976965274011
 20
2637.510589766162
 30
0.0
 11
9377.476965274015
 21
2637.510589766162
 31
0.0
  0
LINE
  5
17B6B
330
747D
100
AcDbEntity
  8
部品1
 48
50.0
100
AcDbLine
 10
8708.976965274009
 20
2587.510589766162
 30
0.0
 11
10442.97696527401
 21
2587.510589766162
 31
0.0
  0
LINE
  5
17B6C
330
747D
100
AcDbEntity
  8
細線
 48
50.0
100
AcDbLine
 10
8738.976965274011
 20
2630.510589766162
 30
0.0
 11
10412.97696527401
 21
2630.510589766162
 31
0.0
  0
LINE
  5
17B6D
330
747D
100
AcDbEntity
  8
細線
 48
50.0
100
AcDbLine
 10
8738.976965274011
 20
2634.510589766162
 30
0.0
 11
10412.97696527401
 21
2634.510589766162
 31
0.0
  0
LINE
  5
17B6E
330
747D
100
AcDbEntity
  8
細線
 48
50.0
100
AcDbLine
 10
9377.476965274015
 20
2645.010589766162
 30
0.0
 11
10386.97696527401
 21
2645.010589766162
 31
0.0
  0
LINE
  5
17B6F
330
747D
100
AcDbEntity
  8
部品1
 48
50.0
100
AcDbLine
 10
10442.97696527401
 20
2587.510589766162
 30
0.0
 11
10442.97696527401
 21
4722.510589766161
 31
0.0
  0
LINE
  5
17B70
330
747D
100
AcDbEntity
  8
細線
 48
50.0
100
AcDbLine
 10
10412.97696527401
 20
2587.510589766162
 30
0.0
 11
10412.97696527401
 21
4680.010589766161
 31
0.0
  0
LINE
  5
17B71
330
747D
100
AcDbEntity
  8
部品1
 48
50.0
100
AcDbLine
 10
10403.97696527401
 20
2634.510589766162
 30
0.0
 11
10403.97696527401
 21
4670.510589766162
 31
0.0
  0
LINE
  5
17B72
330
747D
100
AcDbEntity
  8
部品1
 48
50.0
100
AcDbLine
 10
8738.976965274011
 20
2637.510589766162
 30
0.0
 11
8738.976965274012
 21
4670.510589766162
 31
0.0
  0
LINE
  5
17B73
330
747D
100
AcDbEntity
  8
細線
 48
50.0
100
AcDbLine
 10
8738.976965274012
 20
4680.010589766161
 30
0.0
 11
8738.976965274009
 21
2587.510589766162
 31
0.0
  0
LINE
  5
17B74
330
747D
100
AcDbEntity
  8
部品1
 48
50.0
100
AcDbLine
 10
8708.976965274009
 20
4722.510589766161
 30
0.0
 11
8708.976965274009
 21
2587.510589766162
 31
0.0
  0
LINE
  5
17B75
330
747D
100
AcDbEntity
  8
部品1
 48
50.0
100
AcDbLine
 10
9377.476965274018
 20
4670.510589766162
 30
0.0
 11
9377.476965274015
 21
2637.510589766162
 31
0.0
  0
LINE
  5
17B76
330
747D
100
AcDbEntity
  8
部品1
 48
50.0
100
AcDbLine
 10
9869.476965274015
 20
4670.510589766162
 30
0.0
 11
9869.476965274015
 21
2645.010589766162
 31
0.0
  0
LINE
  5
17B77
330
747D
100
AcDbEntity
  8
細線
100
AcDbLine
 10
9258.976957088595
 20
4670.510589766155
 30
0.0
 11
9258.976957088595
 21
2637.510589766158
 31
0.0
  0
LINE
  5
17B78
330
747D
100
AcDbEntity
  8
細線
100
AcDbLine
 10
9188.976957088595
 20
4670.510589766155
 30
0.0
 11
9188.976957088595
 21
2637.510589766158
 31
0.0
  0
LINE
  5
17B79
330
747D
100
AcDbEntity
  8
細線
100
AcDbLine
 10
9118.976957088595
 20
4670.510589766155
 30
0.0
 11
9118.976957088595
 21
2637.510589766158
 31
0.0
  0
LINE
  5
17B7A
330
747D
100
AcDbEntity
  8
部品1
100
AcDbLine
 10
8908.976965274012
 20
4670.510589766155
 30
0.0
 11
8908.976965274012
 21
2637.510589766162
 31
0.0
  0
LINE
  5
17B7B
330
747D
100
AcDbEntity
  8
部品1
100
AcDbLine
 10
8858.976965274013
 20
4670.510589766155
 30
0.0
 11
8858.976965274013
 21
2637.510589766162
 31
0.0
  0
LINE
  5
17B7C
330
747D
100
AcDbEntity
  8
細線
100
AcDbLine
 10
8900.976965274013
 20
4670.510589766155
 30
0.0
 11
8900.976965274013
 21
2637.510589766162
 31
0.0
  0
LINE
  5
17B7D
330
747D
100
AcDbEntity
  8
細線
100
AcDbLine
 10
8866.976965274012
 20
4670.510589766155
 30
0.0
 11
8866.976965274012
 21
2637.510589766162
 31
0.0
  0
LINE
  5
17B7E
330
747D
100
AcDbEntity
  8
細線
100
AcDbLine
 10
9777.976965274012
 20
4670.510589766155
 30
0.0
 11
9777.976965274014
 21
2645.010589766169
 31
0.0
  0
LINE
  5
17B7F
330
747D
100
AcDbEntity
  8
細線
100
AcDbLine
 10
9707.976965274012
 20
4670.510589766155
 30
0.0
 11
9707.976965274013
 21
2645.010589766169
 31
0.0
  0
LINE
  5
17B80
330
747D
100
AcDbEntity
  8
細線
100
AcDbLine
 10
9637.976965274011
 20
4670.510589766155
 30
0.0
 11
9637.976965274013
 21
2645.010589766169
 31
0.0
  0
LINE
  5
17B81
330
747D
100
AcDbEntity
  8
細線
100
AcDbLine
 10
9567.976965274011
 20
4670.510589766155
 30
0.0
 11
9567.976965274011
 21
2645.010589766169
 31
0.0
  0
LINE
  5
17B82
330
747D
100
AcDbEntity
  8
細線
100
AcDbLine
 10
10295.97696527401
 20
4670.510589766143
 30
0.0
 11
10295.97696527401
 21
2645.010589766162
 31
0.0
  0
LINE
  5
17B83
330
747D
100
AcDbEntity
  8
細線
100
AcDbLine
 10
10225.97696527401
 20
4670.510589766143
 30
0.0
 11
10225.97696527401
 21
2645.010589766162
 31
0.0
  0
LINE
  5
17B84
330
747D
100
AcDbEntity
  8
細線
100
AcDbLine
 10
10155.97696527401
 20
4670.510589766143
 30
0.0
 11
10155.97696527401
 21
2645.010589766162
 31
0.0
  0
LINE
  5
17B85
330
747D
100
AcDbEntity
  8
細線
100
AcDbLine
 10
9048.976957088596
 20
4670.510589766155
 30
0.0
 11
9048.976957088596
 21
2637.510589766158
 31
0.0
  0
LINE
  5
17B86
330
747D
100
AcDbEntity
  8
細線
100
AcDbLine
 10
9497.976965274011
 20
4670.510589766155
 30
0.0
 11
9497.976965274013
 21
2645.010589766169
 31
0.0
  0
LINE
  5
17B87
330
747D
100
AcDbEntity
  8
細線
100
AcDbLine
 10
9427.976965274011
 20
4670.510589766155
 30
0.0
 11
9427.976965274012
 21
2645.010589766169
 31
0.0
  0
LINE
  5
17B88
330
747D
100
AcDbEntity
  8
細線
100
AcDbLine
 10
10085.97696527401
 20
4670.510589766143
 30
0.0
 11
10085.97696527401
 21
2645.010589766162
 31
0.0
  0
LINE
  5
17B89
330
747D
100
AcDbEntity
  8
細線
100
AcDbLine
 10
9945.977000592906
 20
4670.510589766143
 30
0.0
 11
9945.977000592906
 21
2645.010589766162
 31
0.0
  0
LINE
  5
17B8A
330
747D
100
AcDbEntity
  8
細線
100
AcDbLine
 10
10015.9770005929
 20
4670.510589766143
 30
0.0
 11
10015.9770005929
 21
2645.010589766162
 31
0.0
  0
LINE
  5
17B8B
330
747D
100
AcDbEntity
  8
破線
 48
5.0
100
AcDbLine
 10
6105.192548249454
 20
2487.510589766162
 30
0.0
 11
6105.192548249455
 21
2287.51058976616
 31
0.0
  0
LINE
  5
17B8C
330
747D
100
AcDbEntity
  8
破線
 48
5.0
100
AcDbLine
 10
6305.192548249451
 20
2287.51058976616
 30
0.0
 11
6105.192548249455
 21
2287.51058976616
 31
0.0
  0
LINE
  5
17B8D
330
747D
100
AcDbEntity
  8
破線
 48
5.0
100
AcDbLine
 10
6305.192548249454
 20
2487.510589766162
 30
0.0
 11
6305.192548249451
 21
2287.51058976616
 31
0.0
  0
DIMENSION
  5
17B8E
330
747D
100
AcDbEntity
  8
寸法
 48
50.0
100
AcDbDimension
  2
*D27
 10
4790.192548249452
 20
2001.463260465784
 30
0.0
 11
4890.19254824945
 21
2001.463260465784
 31
0.0
 70
   160
 71
     5
 42
199.9999999999963
  3
INABA_S40G
100
AcDbAlignedDimension
 13
4990.192548249448
 23
2287.51058976616
 33
0.0
 14
4790.192548249452
 24
2287.51058976616
 34
0.0
100
AcDbRotatedDimension
  0
LINE
  5
17B8F
330
747D
100
AcDbEntity
  8
破線
 48
5.0
100
AcDbLine
 10
4790.192548249449
 20
2487.510589766162
 30
0.0
 11
4790.192548249452
 21
2287.51058976616
 31
0.0
  0
LINE
  5
17B90
330
747D
100
AcDbEntity
  8
破線
 48
5.0
100
AcDbLine
 10
4990.192548249449
 20
2487.510589766162
 30
0.0
 11
4990.192548249448
 21
2287.51058976616
 31
0.0
  0
LINE
  5
17B91
330
747D
100
AcDbEntity
  8
破線
 48
5.0
100
AcDbLine
 10
4990.192548249448
 20
2287.51058976616
 30
0.0
 11
4790.192548249452
 21
2287.51058976616
 31
0.0
  0
DIMENSION
  5
17B92
330
747D
100
AcDbEntity
  8
寸法
 48
50.0
100
AcDbDimension
  2
*D28
 10
4640.692545002814
 20
2487.510589766162
 30
0.0
 11
4640.692545002814
 21
2387.510589766161
 31
0.0
 70
   160
 71
     5
 42
200.0000000000018
  3
INABA_S40G
100
AcDbAlignedDimension
 13
4790.192548249452
 23
2287.51058976616
 33
0.0
 14
4765.19254824945
 24
2487.510589766162
 34
0.0
 50
90.0
100
AcDbRotatedDimension
1001
ACAD
1000
DSTYLE
1002
{
1070
   174
1070
     0
1070
   272
1070
     1
1070
   288
1070
     0
1070
   341
1005
0
1002
}
  0
LINE
  5
17B93
330
747D
100
AcDbEntity
  8
細線
 48
50.0
100
AcDbLine
 10
5835.192548249452
 20
4727.510589766161
 30
0.0
 11
5835.192548249452
 21
2637.510589766162
 31
0.0
  0
LINE
  5
17B94
330
747D
100
AcDbEntity
  8
細線
 48
50.0
100
AcDbLine
 10
5820.192548249451
 20
4727.510589766161
 30
0.0
 11
5820.192548249451
 21
2637.510589766162
 31
0.0
  0
LINE
  5
17B95
330
747D
100
AcDbEntity
  8
細線
 48
50.0
100
AcDbLine
 10
5960.192548249452
 20
4727.510589766161
 30
0.0
 11
5960.192548249452
 21
2637.510589766162
 31
0.0
  0
LINE
  5
17B96
330
747D
100
AcDbEntity
  8
細線
 48
50.0
100
AcDbLine
 10
5975.192548249452
 20
4727.510589766161
 30
0.0
 11
5975.192548249452
 21
2637.510589766162
 31
0.0
  0
LINE
  5
17B97
330
747D
100
AcDbEntity
  8
細線
 48
50.0
100
AcDbLine
 10
6115.192548249452
 20
4727.510589766161
 30
0.0
 11
6115.192548249452
 21
2637.510589766162
 31
0.0
  0
LINE
  5
17B98
330
747D
100
AcDbEntity
  8
細線
 48
50.0
100
AcDbLine
 10
6100.192548249452
 20
4727.510589766161
 30
0.0
 11
6100.192548249452
 21
2637.510589766162
 31
0.0
  0
LINE
  5
17B99
330
747D
100
AcDbEntity
  8
部品1
100
AcDbLine
 10
5757.692548249448
 20
4727.510589766161
 30
0.0
 11
5757.692548249448
 21
2637.510589766162
 31
0.0
  0
LINE
  5
17B9A
330
747D
100
AcDbEntity
  8
細線
 48
50.0
100
AcDbLine
 10
4995.192548249448
 20
4727.510589766161
 30
0.0
 11
4995.192548249448
 21
2637.510589766162
 31
0.0
  0
LINE
  5
17B9B
330
747D
100
AcDbEntity
  8
細線
 48
50.0
100
AcDbLine
 10
4980.192548249448
 20
4727.510589766161
 30
0.0
 11
4980.192548249448
 21
2637.510589766162
 31
0.0
  0
LINE
  5
17B9C
330
747D
100
AcDbEntity
  8
細線
 48
50.0
100
AcDbLine
 10
5120.192548249448
 20
4727.510589766161
 30
0.0
 11
5120.192548249448
 21
2637.510589766162
 31
0.0
  0
LINE
  5
17B9D
330
747D
100
AcDbEntity
  8
細線
 48
50.0
100
AcDbLine
 10
5135.192548249448
 20
4727.510589766161
 30
0.0
 11
5135.192548249448
 21
2637.510589766162
 31
0.0
  0
LINE
  5
17B9E
330
747D
100
AcDbEntity
  8
細線
 48
50.0
100
AcDbLine
 10
5275.192548249448
 20
4727.510589766161
 30
0.0
 11
5275.192548249448
 21
2637.510589766162
 31
0.0
  0
LINE
  5
17B9F
330
747D
100
AcDbEntity
  8
細線
 48
50.0
100
AcDbLine
 10
5260.192548249448
 20
4727.510589766161
 30
0.0
 11
5260.192548249448
 21
2637.510589766162
 31
0.0
  0
LINE
  5
17BA0
330
747D
100
AcDbEntity
  8
細線
 48
50.0
100
AcDbLine
 10
5680.192548249448
 20
4727.510589766161
 30
0.0
 11
5680.192548249448
 21
2637.510589766162
 31
0.0
  0
LINE
  5
17BA1
330
747D
100
AcDbEntity
  8
細線
 48
50.0
100
AcDbLine
 10
5695.192548249448
 20
4727.510589766161
 30
0.0
 11
5695.192548249448
 21
2637.510589766162
 31
0.0
  0
LINE
  5
17BA2
330
747D
100
AcDbEntity
  8
細線
 48
50.0
100
AcDbLine
 10
5555.192548249448
 20
4727.510589766161
 30
0.0
 11
5555.192548249448
 21
2637.510589766162
 31
0.0
  0
LINE
  5
17BA3
330
747D
100
AcDbEntity
  8
細線
 48
50.0
100
AcDbLine
 10
5540.192548249448
 20
4727.510589766161
 30
0.0
 11
5540.192548249448
 21
2637.510589766162
 31
0.0
  0
LINE
  5
17BA4
330
747D
100
AcDbEntity
  8
細線
 48
50.0
100
AcDbLine
 10
5400.192548249448
 20
4727.510589766161
 30
0.0
 11
5400.192548249448
 21
2637.510589766162
 31
0.0
  0
LINE
  5
17BA5
330
747D
100
AcDbEntity
  8
細線
 48
50.0
100
AcDbLine
 10
5415.192548249448
 20
4727.510589766161
 30
0.0
 11
5415.192548249448
 21
2637.510589766162
 31
0.0
  0
LINE
  5
17BA6
330
747D
100
AcDbEntity
  8
部品1
100
AcDbLine
 10
4910.19254824945
 20
2587.510589766162
 30
0.0
 11
6185.192548249448
 21
2587.510589766162
 31
0.0
  0
LINE
  5
17BA7
330
747D
100
AcDbEntity
  8
部品1
100
AcDbLine
 10
6225.19254824945
 20
2587.510589766162
 30
0.0
 11
6232.692548249452
 21
2587.510589766162
 31
0.0
  0
LINE
  5
17BA8
330
747D
100
AcDbEntity
  8
破線
  6
HIDDEN
 48
5.0
100
AcDbLine
 10
4910.19254824945
 20
2487.510589766162
 30
0.0
 11
4910.19254824945
 21
2482.510589766162
 31
0.0
  0
LINE
  5
17BA9
330
747D
100
AcDbEntity
  8
破線
  6
HIDDEN
 48
5.0
100
AcDbLine
 10
4870.192548249454
 20
2487.510589766162
 30
0.0
 11
4870.192548249454
 21
2482.510589766162
 31
0.0
  0
LINE
  5
17BAA
330
747D
100
AcDbEntity
  8
破線
  6
HIDDEN
 48
5.0
100
AcDbLine
 10
6225.192548249446
 20
2487.510589766162
 30
0.0
 11
6225.192548249446
 21
2482.510589766162
 31
0.0
  0
LINE
  5
17BAB
330
747D
100
AcDbEntity
  8
破線
  6
HIDDEN
 48
5.0
100
AcDbLine
 10
6185.19254824945
 20
2487.510589766162
 30
0.0
 11
6185.19254824945
 21
2482.510589766162
 31
0.0
  0
ARC
  5
17BAC
330
747D
100
AcDbEntity
  8
部品1
 48
50.0
100
AcDbCircle
 10
6220.19254824945
 20
2627.510589766162
 30
0.0
 40
5.0
100
AcDbArc
 50
0.0
 51
90.0
  0
ARC
  5
17BAD
330
747D
100
AcDbEntity
  8
部品1
 48
50.0
100
AcDbCircle
 10
6190.192548249446
 20
2627.510589766162
 30
0.0
 40
5.0
100
AcDbArc
 50
90.0
 51
180.0
  0
LINE
  5
17BAE
330
747D
100
AcDbEntity
  8
部品1
100
AcDbLine
 10
6220.19254824945
 20
2632.510589766162
 30
0.0
 11
6190.192548249446
 21
2632.510589766162
 31
0.0
  0
LINE
  5
17BAF
330
747D
100
AcDbEntity
  8
部品1
 48
50.0
100
AcDbLine
 10
6225.19254824945
 20
2627.510589766162
 30
0.0
 11
6225.192548249446
 21
2487.510589766162
 31
0.0
  0
LINE
  5
17BB0
330
747D
100
AcDbEntity
  8
部品1
 48
50.0
100
AcDbLine
 10
6185.192548249446
 20
2627.510589766162
 30
0.0
 11
6185.19254824945
 21
2487.510589766162
 31
0.0
  0
ARC
  5
17BB1
330
747D
100
AcDbEntity
  8
部品1
 48
50.0
100
AcDbCircle
 10
4905.192548249449
 20
2627.510589766162
 30
0.0
 40
5.0
100
AcDbArc
 50
0.0
 51
90.0
  0
ARC
  5
17BB2
330
747D
100
AcDbEntity
  8
部品1
 48
50.0
100
AcDbCircle
 10
4875.192548249446
 20
2627.510589766162
 30
0.0
 40
5.0
100
AcDbArc
 50
90.0
 51
180.0
  0
LINE
  5
17BB3
330
747D
100
AcDbEntity
  8
部品1
100
AcDbLine
 10
4875.192548249446
 20
2632.510589766162
 30
0.0
 11
4905.192548249449
 21
2632.510589766162
 31
0.0
  0
LINE
  5
17BB4
330
747D
100
AcDbEntity
  8
部品1
 48
50.0
100
AcDbLine
 10
4910.19254824945
 20
2627.510589766162
 30
0.0
 11
4910.192548249447
 21
2487.510589766162
 31
0.0
  0
LINE
  5
17BB5
330
747D
100
AcDbEntity
  8
部品1
 48
50.0
100
AcDbLine
 10
4870.192548249446
 20
2627.510589766162
 30
0.0
 11
4870.19254824945
 21
2487.510589766162
 31
0.0
  0
LINE
  5
17BB6
330
747D
100
AcDbEntity
  8
破線
  6
HIDDEN
 48
5.0
100
AcDbLine
 10
4910.19254824945
 20
2482.510589766162
 30
0.0
 11
4925.19254824945
 21
2334.810589766161
 31
0.0
  0
LINE
  5
17BB7
330
747D
100
AcDbEntity
  8
破線
  6
HIDDEN
 48
5.0
100
AcDbLine
 10
4870.19254824945
 20
2482.510589766162
 30
0.0
 11
4855.192548249446
 21
2334.810589766161
 31
0.0
  0
LINE
  5
17BB8
330
747D
100
AcDbEntity
  8
破線
  6
HIDDEN
 48
5.0
100
AcDbLine
 10
4925.19254824945
 20
2334.810589766161
 30
0.0
 11
4925.192548249446
 21
2332.510589766162
 31
0.0
  0
LINE
  5
17BB9
330
747D
100
AcDbEntity
  8
破線
  6
HIDDEN
 48
5.0
100
AcDbLine
 10
4855.192548249446
 20
2334.810589766161
 30
0.0
 11
4855.192548249446
 21
2332.510589766162
 31
0.0
  0
LINE
  5
17BBA
330
747D
100
AcDbEntity
  8
破線
  6
HIDDEN
 48
5.0
100
AcDbLine
 10
4855.192548249446
 20
2332.510589766162
 30
0.0
 11
4925.192548249446
 21
2332.510589766162
 31
0.0
  0
LINE
  5
17BBB
330
747D
100
AcDbEntity
  8
破線
  6
HIDDEN
 48
5.0
100
AcDbLine
 10
6240.192548249449
 20
2334.810589766163
 30
0.0
 11
6240.192548249449
 21
2332.510589766162
 31
0.0
  0
LINE
  5
17BBC
330
747D
100
AcDbEntity
  8
破線
  6
HIDDEN
 48
5.0
100
AcDbLine
 10
6225.19254824945
 20
2482.510589766162
 30
0.0
 11
6240.192548249449
 21
2334.810589766163
 31
0.0
  0
LINE
  5
17BBD
330
747D
100
AcDbEntity
  8
破線
  6
HIDDEN
 48
5.0
100
AcDbLine
 10
6170.19254824945
 20
2334.810589766163
 30
0.0
 11
6170.19254824945
 21
2332.510589766162
 31
0.0
  0
LINE
  5
17BBE
330
747D
100
AcDbEntity
  8
破線
  6
HIDDEN
 48
5.0
100
AcDbLine
 10
6185.192548249446
 20
2482.510589766162
 30
0.0
 11
6170.19254824945
 21
2334.810589766163
 31
0.0
  0
LINE
  5
17BBF
330
747D
100
AcDbEntity
  8
破線
  6
HIDDEN
 48
5.0
100
AcDbLine
 10
6240.192548249449
 20
2332.510589766162
 30
0.0
 11
6170.19254824945
 21
2332.510589766162
 31
0.0
  0
LINE
  5
17BC0
330
747D
100
AcDbEntity
  8
部品1
100
AcDbLine
 10
6032.692548249452
 20
2587.510589766162
 30
0.0
 11
6032.692548249452
 21
2487.510589766162
 31
0.0
  0
LINE
  5
17BC1
330
747D
100
AcDbEntity
  8
部品1
100
AcDbLine
 10
5062.692548249447
 20
2587.510589766162
 30
0.0
 11
5062.692548249447
 21
2487.510589766162
 31
0.0
  0
LINE
  5
17BC2
330
747D
100
AcDbEntity
  8
部品1
100
AcDbLine
 10
6177.692548249452
 20
4727.510589766161
 30
0.0
 11
6177.692548249452
 21
2637.510589766162
 31
0.0
  0
LINE
  5
17BC3
330
747D
100
AcDbEntity
  8
部品1
100
AcDbLine
 10
6232.692548249448
 20
4821.510589766167
 30
0.0
 11
6232.692548249452
 21
2487.510589766162
 31
0.0
  0
LINE
  5
17BC4
330
747D
100
AcDbEntity
  8
部品1
100
AcDbLine
 10
5337.692548249448
 20
4727.510589766161
 30
0.0
 11
5337.692548249448
 21
2637.510589766162
 31
0.0
  0
LINE
  5
17BC5
330
747D
100
AcDbEntity
  8
部品1
100
AcDbLine
 10
4862.692548249453
 20
4821.510589766165
 30
0.0
 11
4862.692548249448
 21
2487.510589766162
 31
0.0
  0
LINE
  5
17BC6
330
747D
100
AcDbEntity
  8
部品1
100
AcDbLine
 10
4917.692548249448
 20
4727.510589766161
 30
0.0
 11
4917.692548249448
 21
2637.510589766162
 31
0.0
  0
LINE
  5
17BC7
330
747D
100
AcDbEntity
  8
部品1
100
AcDbLine
 10
4862.692548249448
 20
2587.510589766162
 30
0.0
 11
4870.192548249448
 21
2587.510589766162
 31
0.0
  0
LINE
  5
17BC8
330
747D
100
AcDbEntity
  8
部品1
100
AcDbLine
 10
4862.692548249448
 20
2637.510589766162
 30
0.0
 11
6232.692548249453
 21
2637.510589766162
 31
0.0
  0
LINE
  5
17BC9
330
747D
100
AcDbEntity
  8
部品1
100
AcDbLine
 10
4862.692548249448
 20
4727.510589766161
 30
0.0
 11
6232.692548249452
 21
4727.510589766161
 31
0.0
  0
LINE
  5
17BCA
330
747D
100
AcDbEntity
  8
部品1
 48
50.0
100
AcDbLine
 10
6232.692548249453
 20
4722.51058976616
 30
0.0
 11
6309.692548249453
 21
4712.51058976616
 31
0.0
  0
LINE
  5
17BCB
330
747D
100
AcDbEntity
  8
部品1
 48
50.0
100
AcDbLine
 10
6309.692548249453
 20
4712.51058976616
 30
0.0
 11
6309.692548249453
 21
2487.510589766161
 31
0.0
  0
LINE
  5
17BCC
330
747D
100
AcDbEntity
  8
部品1
 48
50.0
100
AcDbLine
 10
6309.692548249453
 20
2587.510589766161
 30
0.0
 11
6232.692548249452
 21
2587.510589766162
 31
0.0
  0
LINE
  5
17BCD
330
747D
100
AcDbEntity
  8
部品1
 48
50.0
100
AcDbLine
 10
5447.692548249452
 20
2587.510589766162
 30
0.0
 11
5447.692548249452
 21
2487.510589766162
 31
0.0
  0
LINE
  5
17BCE
330
747D
100
AcDbEntity
  8
部品1
 48
50.0
100
AcDbLine
 10
5647.692548249453
 20
2587.510589766162
 30
0.0
 11
5647.692548249452
 21
2487.510589766162
 31
0.0
  0
MTEXT
  5
17BCF
330
747D
100
AcDbEntity
  8
寸法
 62
     7
 48
50.0
100
AcDbMText
 10
10031.07950236715
 20
8819.916798612057
 30
0.0
 40
96.0
 41
0.0
 71
     5
 72
     1
  1
棚 3段
  7
STYLE1
 73
     1
 44
1.0
1001
ACAD
1000
MTEXTBEGIN
1070
    73
1070
     1
1070
    44
1040
1.0
1070
    74
1070
     0
1000
MTEXTEND
  0
LINE
  5
17E7A
330
747D
100
AcDbEntity
  8
補助
  6
PHANTOM
 62
   230
 48
50.0
100
AcDbLine
 10
140.0
 20
0.0
 30
0.0
 11
139.9999999999995
 21
11409.6
 31
0.0
  0
LINE
  5
18145
330
747D
100
AcDbEntity
  8
部品1
 48
50.0
100
AcDbLine
 10
8782.976965274011
 20
3719.010589766162
 30
0.0
 11
8835.976965274012
 21
3719.010589766162
 31
0.0
  0
MTEXT
  5
18192
330
747D
100
AcDbEntity
  8
寸法
 62
     7
 48
50.0
100
AcDbMText
 10
9151.079502367153
 20
8819.916798612011
 30
0.0
 40
96.0
 41
0.0
 71
     5
 72
     1
  1
棚 3段
  7
STYLE1
 73
     1
 44
1.0
1001
ACAD
1000
MTEXTBEGIN
1070
    73
1070
     1
1070
    44
1040
1.0
1070
    74
1070
     0
1000
MTEXTEND
  0
LINE
  5
1838D
330
747D
100
AcDbEntity
  8
細線
 48
50.0
100
AcDbLine
 10
9258.97696527398
 20
7791.682154591535
 30
0.0
 11
9377.476965273979
 21
7791.682154591535
 31
0.0
  0
LINE
  5
1838E
330
747D
100
AcDbEntity
  8
細線
 48
50.0
100
AcDbLine
 10
9347.476965273983
 20
7808.832154591534
 30
0.0
 11
9347.476965273983
 21
7813.682154591536
 31
0.0
  0
LINE
  5
1838F
330
747D
100
AcDbEntity
  8
細線
 48
50.0
100
AcDbLine
 10
9347.476965273983
 20
7813.682154591536
 30
0.0
 11
9362.476965273982
 21
7813.682154591536
 31
0.0
  0
LINE
  5
18390
330
747D
100
AcDbEntity
  8
細線
 48
50.0
100
AcDbLine
 10
9362.476965273982
 20
7813.682154591536
 30
0.0
 11
9362.476965273986
 21
7820.682154591536
 31
0.0
  0
LINE
  5
18391
330
747D
100
AcDbEntity
  8
細線
 48
50.0
100
AcDbLine
 10
9362.476965273986
 20
7820.682154591536
 30
0.0
 11
9377.476965273983
 21
7820.682154591536
 31
0.0
  0
LINE
  5
18392
330
747D
100
AcDbEntity
  8
細線
 48
50.0
100
AcDbLine
 10
9377.476965273983
 20
7820.682154591536
 30
0.0
 11
9377.476965273983
 21
7791.682154591537
 31
0.0
  0
LINE
  5
18393
330
747D
100
AcDbEntity
  8
細線
 48
50.0
100
AcDbLine
 10
9366.476965273983
 20
7843.178348857043
 30
0.0
 11
9366.476965273983
 21
7847.678348857043
 31
0.0
  0
LINE
  5
18394
330
747D
100
AcDbEntity
  8
細線
 48
50.0
100
AcDbLine
 10
9366.476965273983
 20
7847.678348857043
 30
0.0
 11
9351.476965273983
 21
7847.678348857043
 31
0.0
  0
LINE
  5
18395
330
747D
100
AcDbEntity
  8
細線
 48
50.0
100
AcDbLine
 10
9351.476965273983
 20
7847.678348857043
 30
0.0
 11
9351.476965273983
 21
7854.678348857042
 31
0.0
  0
LINE
  5
18396
330
747D
100
AcDbEntity
  8
細線
 48
50.0
100
AcDbLine
 10
9351.476965273983
 20
7854.678348857042
 30
0.0
 11
9336.476965273986
 21
7854.678348857039
 31
0.0
  0
LINE
  5
18397
330
747D
100
AcDbEntity
  8
細線
 48
50.0
100
AcDbLine
 10
9336.476965273986
 20
7854.678348857039
 30
0.0
 11
9336.476965273986
 21
7817.078120753929
 31
0.0
  0
LINE
  5
18398
330
747D
100
AcDbEntity
  8
細線
 48
50.0
100
AcDbLine
 10
9336.476965273986
 20
7817.078120753929
 30
0.0
 11
9356.476972575158
 21
7817.07816230347
 31
0.0
  0
LINE
  5
18399
330
747D
100
AcDbEntity
  8
細線
 48
50.0
100
AcDbLine
 10
9356.476927706218
 20
7825.681623939279
 30
0.0
 11
9356.476972575158
 21
7817.07816230347
 31
0.0
  0
LINE
  5
1839A
330
747D
100
AcDbEntity
  8
細線
 48
50.0
100
AcDbLine
 10
9356.476927706218
 20
7825.681623939279
 30
0.0
 11
9367.709617060928
 21
7825.681806892425
 31
0.0
  0
ARC
  5
1839B
330
747D
100
AcDbEntity
  8
細線
 48
50.0
100
AcDbCircle
 10
9374.291909368263
 20
7824.481970806037
 30
0.0
 40
1.8
100
AcDbArc
 50
270.0006665777295
 51
345.0005554812987
  0
LINE
  5
1839C
330
747D
100
AcDbEntity
  8
細線
 48
50.0
100
AcDbLine
 10
9376.278342814343
 20
7824.940811263316
 30
0.0
 11
9376.030580372143
 21
7824.016113381209
 31
0.0
  0
LINE
  5
1839D
330
747D
100
AcDbEntity
  8
細線
 48
50.0
100
AcDbLine
 10
9374.291930309418
 20
7822.681970806158
 30
0.0
 11
9370.662002890652
 21
7822.681928575679
 31
0.0
  0
ARC
  5
1839E
330
747D
100
AcDbEntity
  8
細線
 48
50.0
100
AcDbCircle
 10
9370.661981949497
 20
7824.481928575558
 30
0.0
 40
1.8
100
AcDbArc
 50
195.0010443049394
 51
270.0006665777295
  0
LINE
  5
1839F
330
747D
100
AcDbEntity
  8
細線
 48
50.0
100
AcDbLine
 10
9368.675554457238
 20
7824.940643543122
 30
0.0
 11
9368.923323953751
 21
7824.01602260454
 31
0.0
  0
ARC
  5
183A0
330
747D
100
AcDbEntity
  8
細線
 48
50.0
100
AcDbCircle
 10
9367.709633348491
 20
7824.681806892559
 30
0.0
 40
1.0
100
AcDbArc
 50
15.00104430493943
 51
90.00093320877969
  0
LINE
  5
183A1
330
747D
100
AcDbEntity
  8
細線
 48
50.0
100
AcDbLine
 10
9377.244264169446
 20
7825.68200158283
 30
0.0
 11
9378.186024320353
 21
7825.68200815668
 31
0.0
  0
ARC
  5
183A2
330
747D
100
AcDbEntity
  8
細線
 48
50.0
100
AcDbCircle
 10
9377.244271149832
 20
7824.682001582856
 30
0.0
 40
1.0
100
AcDbArc
 50
90.0003999466794
 51
165.0005554812987
  0
LINE
  5
183A3
330
747D
100
AcDbEntity
  8
細線
 48
50.0
100
AcDbLine
 10
10413.47696527398
 20
7884.681980414585
 30
0.0
 11
10413.47696527398
 21
7859.681980414581
 31
0.0
  0
LINE
  5
183A4
330
747D
100
AcDbEntity
  8
細線
100
AcDbLine
 10
10403.97696527398
 20
7859.681980414579
 30
0.0
 11
10295.97696527398
 21
7859.681980414579
 31
0.0
  0
LINE
  5
183A5
330
747D
100
AcDbEntity
  8
細線
 48
50.0
100
AcDbLine
 10
9828.476970424889
 20
7851.681980414584
 30
0.0
 11
9828.47697042489
 21
7889.681980414576
 31
0.0
  0
LINE
  5
183A6
330
747D
100
AcDbEntity
  8
細線
 48
50.0
100
AcDbLine
 10
9828.47697042489
 20
7889.681980414576
 30
0.0
 11
9843.476970424891
 21
7889.681980414581
 31
0.0
  0
LINE
  5
183A7
330
747D
100
AcDbEntity
  8
細線
 48
50.0
100
AcDbLine
 10
9843.476970424891
 20
7889.681980414581
 30
0.0
 11
9843.476970424891
 21
7884.68198041458
 31
0.0
  0
LINE
  5
183A8
330
747D
100
AcDbEntity
  8
細線
 48
50.0
100
AcDbLine
 10
9828.476970424889
 20
7851.681980414584
 30
0.0
 11
9848.47697042489
 21
7851.681980414579
 31
0.0
  0
LINE
  5
183A9
330
747D
100
AcDbEntity
  8
細線
 48
50.0
100
AcDbLine
 10
9848.47697042489
 20
7851.681980414579
 30
0.0
 11
9848.47697042489
 21
7859.681980414579
 31
0.0
  0
LINE
  5
183AA
330
747D
100
AcDbEntity
  8
細線
100
AcDbLine
 10
10085.97696527398
 20
7859.681980414579
 30
0.0
 11
10015.97696527398
 21
7859.681980414579
 31
0.0
  0
LINE
  5
183AB
330
747D
100
AcDbEntity
  8
細線
 48
50.0
100
AcDbLine
 10
9945.976965273983
 20
7859.681980414579
 30
0.0
 11
9861.272749997731
 21
7859.681980414579
 31
0.0
  0
LINE
  5
183AC
330
747D
100
AcDbEntity
  8
細線
100
AcDbLine
 10
10225.97696527398
 20
7859.681980414579
 30
0.0
 11
10155.97696527398
 21
7859.681980414579
 31
0.0
  0
LINE
  5
183AD
330
747D
100
AcDbEntity
  8
細線
100
AcDbLine
 10
10053.97696527398
 20
7859.681980414579
 30
0.0
 11
10053.97696527398
 21
7888.981980414579
 31
0.0
  0
LINE
  5
183AE
330
747D
100
AcDbEntity
  8
細線
100
AcDbLine
 10
10033.97696527398
 20
7888.981980414579
 30
0.0
 11
10053.97696527398
 21
7888.981980414579
 31
0.0
  0
LINE
  5
183AF
330
747D
100
AcDbEntity
  8
細線
100
AcDbLine
 10
10033.97696527398
 20
7859.681980414579
 30
0.0
 11
10033.97696527398
 21
7888.981980414579
 31
0.0
  0
LINE
  5
183B0
330
747D
100
AcDbEntity
  8
細線
 48
50.0
100
AcDbLine
 10
10397.57696527398
 20
7884.681980414581
 30
0.0
 11
10387.57696527398
 21
7889.681980414581
 31
0.0
  0
LINE
  5
183B1
330
747D
100
AcDbEntity
  8
細線
 48
50.0
100
AcDbLine
 10
10413.47696527398
 20
7884.681980414585
 30
0.0
 11
10397.57696527398
 21
7884.681980414581
 31
0.0
  0
LINE
  5
183B2
330
747D
100
AcDbEntity
  8
細線
 48
50.0
100
AcDbLine
 10
10387.57696527399
 20
7889.681980414578
 30
0.0
 11
9843.476970424891
 21
7889.681980414576
 31
0.0
  0
LINE
  5
183B3
330
747D
100
AcDbEntity
  8
細線
 48
50.0
100
AcDbLine
 10
9854.47697042489
 20
7858.881980414581
 30
0.0
 11
9854.47697042489
 21
7857.381980414581
 31
0.0
  0
LINE
  5
183B4
330
747D
100
AcDbEntity
  8
細線
 48
50.0
100
AcDbLine
 10
9855.17697042489
 20
7856.681980414579
 30
0.0
 11
9859.776970424888
 21
7856.681980414579
 31
0.0
  0
LINE
  5
183B5
330
747D
100
AcDbEntity
  8
細線
 48
50.0
100
AcDbLine
 10
9860.47697042489
 20
7857.381980414581
 30
0.0
 11
9860.476977250005
 21
7858.881995306068
 31
0.0
  0
ARC
  5
183B6
330
747D
100
AcDbEntity
  8
細線
 48
50.0
100
AcDbCircle
 10
9859.776970424888
 20
7857.381980414581
 30
0.0
 40
0.7
100
AcDbArc
 50
270.0
 51
0.0
  0
ARC
  5
183B7
330
747D
100
AcDbEntity
  8
細線
 48
50.0
100
AcDbCircle
 10
9855.17697042489
 20
7857.381980414581
 30
0.0
 40
0.7
100
AcDbArc
 50
180.0
 51
270.0
  0
LINE
  5
183B8
330
747D
100
AcDbEntity
  8
細線
 48
50.0
100
AcDbLine
 10
9853.676972286335
 20
7859.681980414579
 30
0.0
 11
9848.47697042489
 21
7859.681980414579
 31
0.0
  0
ARC
  5
183B9
330
747D
100
AcDbEntity
  8
細線
 48
50.0
100
AcDbCircle
 10
9861.276977249996
 20
7858.881991583198
 30
0.0
 40
0.8
100
AcDbArc
 50
90.00014387753465
 51
179.9997333689498
  0
ARC
  5
183BA
330
747D
100
AcDbEntity
  8
細線
 48
50.0
100
AcDbCircle
 10
9853.676970424899
 20
7858.881980414581
 30
0.0
 40
0.8
100
AcDbArc
 50
359.9997333689499
 51
89.99986668437072
  0
LINE
  5
183BB
330
747D
100
AcDbEntity
  8
細線
 48
50.0
100
AcDbLine
 10
9567.976929955088
 20
7825.681992277167
 30
0.0
 11
9497.976912667212
 21
7825.681992277174
 31
0.0
  0
LINE
  5
183BC
330
747D
100
AcDbEntity
  8
細線
 48
50.0
100
AcDbLine
 10
9427.976965273982
 20
7825.682000464536
 30
0.0
 11
9378.186024320353
 21
7825.68200815668
 31
0.0
  0
LINE
  5
183BD
330
747D
100
AcDbEntity
  8
細線
 48
50.0
100
AcDbLine
 10
9777.976957037219
 20
7825.68199227717
 30
0.0
 11
9869.476965273982
 21
7825.68199227717
 31
0.0
  0
LINE
  5
183BE
330
747D
100
AcDbEntity
  8
細線
 48
50.0
100
AcDbLine
 10
9707.976965273982
 20
7825.681989527165
 30
0.0
 11
9637.977209170982
 21
7825.681995027199
 31
0.0
  0
LINE
  5
183BF
330
747D
100
AcDbEntity
  8
細線
 48
50.0
100
AcDbLine
 10
9869.476975575805
 20
7854.682198449444
 30
0.0
 11
9869.476965273982
 21
7825.68199227717
 31
0.0
  0
LINE
  5
183C0
330
747D
100
AcDbEntity
  8
細線
 48
50.0
100
AcDbLine
 10
9854.476977405276
 20
7854.682198449444
 30
0.0
 11
9869.476975575805
 21
7854.682198449444
 31
0.0
  0
LINE
  5
183C1
330
747D
100
AcDbEntity
  8
細線
 48
50.0
100
AcDbLine
 10
9854.476965771299
 20
7847.682198449399
 30
0.0
 11
9854.476977405276
 21
7854.682198449444
 31
0.0
  0
LINE
  5
183C2
330
747D
100
AcDbEntity
  8
細線
 48
50.0
100
AcDbLine
 10
9839.476965771302
 20
7847.682198449399
 30
0.0
 11
9854.476965771299
 21
7847.682198449399
 31
0.0
  0
LINE
  5
183C3
330
747D
100
AcDbEntity
  8
細線
 48
50.0
100
AcDbLine
 10
9839.476965771302
 20
7842.832198449402
 30
0.0
 11
9839.476965771302
 21
7847.682198449399
 31
0.0
  0
LINE
  5
183C4
330
747D
100
AcDbEntity
  8
細線
 48
50.0
100
AcDbLine
 10
9839.476965771302
 20
7846.282198449403
 30
0.0
 11
9366.476965273983
 21
7846.282198449397
 31
0.0
  0
LINE
  5
183C5
330
747D
100
AcDbEntity
  8
細線
 48
50.0
100
AcDbLine
 10
9347.476965273983
 20
7812.282154591534
 30
0.0
 11
8761.976969927573
 21
7812.282154591534
 31
0.0
  0
LINE
  5
183C6
330
747D
100
AcDbEntity
  8
細線
 48
50.0
100
AcDbLine
 10
9170.360056944675
 20
7809.953005882028
 30
0.0
 11
9176.115574527344
 21
7791.682154591534
 31
0.0
  0
LINE
  5
183C7
330
747D
100
AcDbEntity
  8
細線
 48
50.0
100
AcDbLine
 10
9159.431608464243
 20
7809.953005882025
 30
0.0
 11
9170.360056944675
 21
7809.953005882028
 31
0.0
  0
ARC
  5
183C8
330
747D
100
AcDbEntity
  8
細線
 48
50.0
100
AcDbCircle
 10
9153.977252406924
 20
7811.453005882025
 30
0.0
 40
5.0
100
AcDbArc
 50
204.6243183521304
 51
335.3756816478695
  0
ARC
  5
183C9
330
747D
100
AcDbEntity
  8
細線
 48
50.0
100
AcDbCircle
 10
9159.431608464243
 20
7808.953005882024
 30
0.0
 40
1.0
100
AcDbArc
 50
90.0
 51
155.3756816478695
  0
ARC
  5
183CA
330
747D
100
AcDbEntity
  8
細線
 48
50.0
100
AcDbCircle
 10
9148.522896349609
 20
7808.953005882024
 30
0.0
 40
1.0
100
AcDbArc
 50
24.62431835213048
 51
90.0
  0
LINE
  5
183CB
330
747D
100
AcDbEntity
  8
細線
 48
50.0
100
AcDbLine
 10
9137.594447869176
 20
7809.953005882028
 30
0.0
 11
9148.522896349609
 21
7809.953005882025
 31
0.0
  0
LINE
  5
183CC
330
747D
100
AcDbEntity
  8
細線
 48
50.0
100
AcDbLine
 10
9131.838930286507
 20
7791.682154591534
 30
0.0
 11
9137.594447869176
 21
7809.953005882028
 31
0.0
  0
LINE
  5
183CD
330
747D
100
AcDbEntity
  8
細線
 48
50.0
100
AcDbLine
 10
9118.976965273979
 20
7791.682154591534
 30
0.0
 11
9188.97696527398
 21
7791.682154591534
 31
0.0
  0
LINE
  5
183CE
330
747D
100
AcDbEntity
  8
細線
 48
50.0
100
AcDbLine
 10
8738.976965273982
 20
7791.679488935004
 30
0.0
 11
9048.977518378409
 21
7791.683375835201
 31
0.0
  0
LINE
  5
183CF
330
747D
100
AcDbEntity
  8
細線
 48
50.0
100
AcDbLine
 10
8761.976969927573
 20
7820.678304999174
 30
0.0
 11
8747.976965273982
 21
7820.678304999169
 31
0.0
  0
LINE
  5
183D0
330
747D
100
AcDbEntity
  8
細線
 48
50.0
100
AcDbLine
 10
8761.976969927573
 20
7812.282154591534
 30
0.0
 11
8761.976969927573
 21
7820.678304999174
 31
0.0
  0
LINE
  5
183D1
330
747D
100
AcDbEntity
  8
細線
  6
Continuous
 62
     5
100
AcDbLine
 10
9841.476970424892
 20
7844.681980414576
 30
0.0
 11
9841.476970424892
 21
7844.681980414576
 31
0.0
  0
LINE
  5
183D2
330
747D
100
AcDbEntity
  8
部品1
100
AcDbLine
 10
8738.976965273982
 20
7786.681980414581
 30
0.0
 11
10442.97696527398
 21
7786.681980414577
 31
0.0
  0
LINE
  5
183D3
330
747D
100
AcDbEntity
  8
部品1
100
AcDbLine
 10
10412.97696527398
 20
7786.681980414581
 30
0.0
 11
10442.97696527398
 21
7786.681980414581
 31
0.0
  0
LINE
  5
183D4
330
747D
100
AcDbEntity
  8
部品1
100
AcDbLine
 10
8735.976965273982
 20
7890.681980414576
 30
0.0
 11
10415.97696527398
 21
7890.68198041458
 31
0.0
  0
LINE
  5
183D5
330
747D
100
AcDbEntity
  8
部品1
100
AcDbLine
 10
8735.976965273982
 20
7890.681980414576
 30
0.0
 11
8735.976965273982
 21
7859.681980414579
 31
0.0
  0
LINE
  5
183D6
330
747D
100
AcDbEntity
  8
部品1
100
AcDbLine
 10
8747.976965273982
 20
7859.681980414579
 30
0.0
 11
8747.976965273982
 21
7795.681980414579
 31
0.0
  0
LINE
  5
183D7
330
747D
100
AcDbEntity
  8
部品1
100
AcDbLine
 10
8708.976965273981
 20
7786.681980414581
 30
0.0
 11
8708.976965273981
 21
7863.68198041458
 31
0.0
  0
LINE
  5
183D8
330
747D
100
AcDbEntity
  8
部品1
100
AcDbLine
 10
8738.976965273982
 20
7786.681980414581
 30
0.0
 11
8708.976965273981
 21
7786.681980414581
 31
0.0
  0
LINE
  5
183D9
330
747D
100
AcDbEntity
  8
部品1
100
AcDbLine
 10
8747.976965273982
 20
7795.681980414579
 30
0.0
 11
8738.976965273982
 21
7795.681980414579
 31
0.0
  0
LINE
  5
183DA
330
747D
100
AcDbEntity
  8
部品1
100
AcDbLine
 10
8738.976965273982
 20
7795.681980414579
 30
0.0
 11
8738.976965273982
 21
7786.681980414581
 31
0.0
  0
LINE
  5
183DB
330
747D
100
AcDbEntity
  8
部品1
100
AcDbLine
 10
8708.976965273981
 20
7863.68198041458
 30
0.0
 11
8735.976965273982
 21
7863.68198041458
 31
0.0
  0
LINE
  5
183DC
330
747D
100
AcDbEntity
  8
部品1
100
AcDbLine
 10
8747.976965273982
 20
7859.681980414579
 30
0.0
 11
8735.976965273982
 21
7859.681980414579
 31
0.0
  0
LINE
  5
183DD
330
747D
100
AcDbEntity
  8
部品1
100
AcDbLine
 10
10415.97696527398
 20
7890.681980414581
 30
0.0
 11
10415.97696527398
 21
7859.681980414581
 31
0.0
  0
LINE
  5
183DE
330
747D
100
AcDbEntity
  8
部品1
100
AcDbLine
 10
10403.97696527398
 20
7859.681980414581
 30
0.0
 11
10403.97696527398
 21
7795.681980414581
 31
0.0
  0
LINE
  5
183DF
330
747D
100
AcDbEntity
  8
部品1
100
AcDbLine
 10
10403.97696527398
 20
7795.681980414581
 30
0.0
 11
10412.97696527398
 21
7795.681980414581
 31
0.0
  0
LINE
  5
183E0
330
747D
100
AcDbEntity
  8
部品1
100
AcDbLine
 10
10412.97696527398
 20
7795.681980414581
 30
0.0
 11
10412.97696527398
 21
7786.681980414581
 31
0.0
  0
LINE
  5
183E1
330
747D
100
AcDbEntity
  8
部品1
100
AcDbLine
 10
10403.97696527398
 20
7859.681980414581
 30
0.0
 11
10415.97696527398
 21
7859.681980414581
 31
0.0
  0
LINE
  5
183E2
330
747D
100
AcDbEntity
  8
部品1
100
AcDbLine
 10
10442.97696527398
 20
7786.681980414581
 30
0.0
 11
10442.97696527398
 21
7863.681980414582
 31
0.0
  0
LINE
  5
183E4
330
747D
100
AcDbEntity
  8
部品1
100
AcDbLine
 10
10415.97696527398
 20
7863.681980414582
 30
0.0
 11
10442.97696527398
 21
7863.681980414582
 31
0.0
  0
DIMENSION
  5
183E5
330
747D
100
AcDbEntity
  8
寸法
 48
50.0
100
AcDbDimension
  2
*D29
 10
9697.976965273982
 20
7161.606962366355
 30
0.0
 11
9222.976965273982
 21
7161.606962366355
 31
0.0
 70
   160
  1
有効開口部間口\P<>
 71
     5
 42
950.0
  3
INABA_S40
100
AcDbAlignedDimension
 13
8747.976965273982
 23
7786.681980414581
 33
0.0
 14
9697.976965273982
 24
7786.681980414581
 34
0.0
100
AcDbRotatedDimension
1001
ACAD
1000
DSTYLE
1002
{
1070
    41
1040
0.5
1070
    44
1040
1.0
1070
   147
1040
0.8
1070
   271
1070
     2
1070
   272
1070
     2
1070
   289
1070
     3
1070
   340
1005
F706
1070
   343
1005
17576
1070
   344
1005
17576
1002
}
  0
LINE
  5
183E6
330
747D
100
AcDbEntity
  8
細線
100
AcDbLine
 10
8747.976965273982
 20
7795.681980414579
 30
0.0
 11
8747.976965273982
 21
7791.681980414627
 31
0.0
  0
LINE
  5
183E7
330
747D
100
AcDbEntity
  8
細線
100
AcDbLine
 10
8904.476858675243
 20
7809.68104996018
 30
0.0
 11
8904.476858675243
 21
7791.681049960153
 31
0.0
  0
LINE
  5
183E8
330
747D
100
AcDbEntity
  8
細線
100
AcDbLine
 10
8863.476858675243
 20
7809.681049960173
 30
0.0
 11
8863.476858675243
 21
7791.681049960153
 31
0.0
  0
LINE
  5
183E9
330
747D
100
AcDbEntity
  8
細線
100
AcDbLine
 10
8904.476858675243
 20
7809.68104996018
 30
0.0
 11
8863.476858675243
 21
7809.681049960173
 31
0.0
  0
ARC
  5
183EA
330
747D
100
AcDbEntity
  8
部品1
100
AcDbCircle
 10
8866.02101455252
 20
7791.181049960176
 30
0.0
 40
1.0
100
AcDbArc
 50
270.0
 51
19.47122063442214
  0
LINE
  5
183EB
330
747D
100
AcDbEntity
  8
部品1
 48
0.01
100
AcDbLine
 10
8858.976858675235
 20
7791.681049960176
 30
0.0
 11
8858.976858675235
 21
7790.681049960176
 31
0.0
  0
LINE
  5
183EC
330
747D
100
AcDbEntity
  8
部品1
 48
0.01
100
AcDbLine
 10
8859.476858675236
 20
7790.181049960176
 30
0.0
 11
8866.02101455252
 21
7790.181049960176
 31
0.0
  0
ARC
  5
183ED
330
747D
100
AcDbEntity
  8
部品1
 48
0.01
100
AcDbCircle
 10
8859.476858675236
 20
7790.681049960176
 30
0.0
 40
0.5
100
AcDbArc
 50
180.0
 51
270.0
  0
ARC
  5
183EE
330
747D
100
AcDbEntity
  8
部品1
100
AcDbCircle
 10
8891.476858675236
 20
7800.181049960176
 30
0.0
 40
26.0
100
AcDbArc
 50
180.0
 51
199.4712206344221
  0
ARC
  5
183EF
330
747D
100
AcDbEntity
  8
部品1
 48
0.01
100
AcDbCircle
 10
8867.476858675237
 20
7805.181049960175
 30
0.0
 40
2.0
100
AcDbArc
 50
90.0
 51
180.0
  0
LINE
  5
183F0
330
747D
100
AcDbEntity
  8
部品1
100
AcDbLine
 10
8865.476858675236
 20
7800.181049960176
 30
0.0
 11
8865.476858675236
 21
7805.181049960175
 31
0.0
  0
ARC
  5
183F1
330
747D
100
AcDbEntity
  8
部品1
100
AcDbCircle
 10
8883.976858675236
 20
7815.981049960178
 30
0.0
 40
16.0
100
AcDbArc
 50
218.3930440192126
 51
254.0576313943215
  0
ARC
  5
183F2
330
747D
100
AcDbEntity
  8
部品1
100
AcDbCircle
 10
8869.085250300049
 20
7804.181049960177
 30
0.0
 40
3.0
100
AcDbArc
 50
38.39304401921267
 51
90.0
  0
LINE
  5
183F3
330
747D
100
AcDbEntity
  8
部品1
 48
0.01
100
AcDbLine
 10
8867.476858675237
 20
7807.181049960177
 30
0.0
 11
8869.085250300049
 21
7807.181049960177
 31
0.0
  0
ARC
  5
183F4
330
747D
100
AcDbEntity
  8
部品1
100
AcDbCircle
 10
8883.976858675236
 20
7815.981049960178
 30
0.0
 40
16.0
100
AcDbArc
 50
285.9423686056786
 51
321.6069559807873
  0
LINE
  5
183F5
330
747D
100
AcDbEntity
  8
部品1
100
AcDbLine
 10
8887.547572889507
 20
7800.481049960179
 30
0.0
 11
8880.406144460966
 21
7800.481049960179
 31
0.0
  0
ARC
  5
183F6
330
747D
100
AcDbEntity
  8
部品1
100
AcDbCircle
 10
8887.547572889507
 20
7803.481049960179
 30
0.0
 40
3.0
100
AcDbArc
 50
270.0
 51
285.9423686056786
  0
ARC
  5
183F7
330
747D
100
AcDbEntity
  8
部品1
100
AcDbCircle
 10
8880.406144460966
 20
7803.481049960179
 30
0.0
 40
3.0
100
AcDbArc
 50
254.0576313943215
 51
270.0
  0
LINE
  5
183F8
330
747D
100
AcDbEntity
  8
部品1
 48
0.01
100
AcDbLine
 10
8900.476858675236
 20
7807.181049960177
 30
0.0
 11
8898.868467050425
 21
7807.181049960177
 31
0.0
  0
ARC
  5
183F9
330
747D
100
AcDbEntity
  8
部品1
100
AcDbCircle
 10
8898.868467050425
 20
7804.181049960177
 30
0.0
 40
3.0
100
AcDbArc
 50
90.0
 51
141.6069559807873
  0
ARC
  5
183FA
330
747D
100
AcDbEntity
  8
部品1
 48
0.01
100
AcDbCircle
 10
8900.476858675236
 20
7805.181049960175
 30
0.0
 40
2.0
100
AcDbArc
 50
0.0
 51
90.0
  0
LINE
  5
183FB
330
747D
100
AcDbEntity
  8
部品1
100
AcDbLine
 10
8902.476858675235
 20
7800.181049960176
 30
0.0
 11
8902.476858675235
 21
7805.181049960175
 31
0.0
  0
ARC
  5
183FC
330
747D
100
AcDbEntity
  8
部品1
100
AcDbCircle
 10
8876.476858675237
 20
7800.181049960176
 30
0.0
 40
26.0
100
AcDbArc
 50
340.5287793655779
 51
0.0
  0
ARC
  5
183FD
330
747D
100
AcDbEntity
  8
部品1
100
AcDbCircle
 10
8901.932702797953
 20
7791.181049960176
 30
0.0
 40
1.0
100
AcDbArc
 50
160.5287793655778
 51
270.0
  0
LINE
  5
183FE
330
747D
100
AcDbEntity
  8
部品1
 48
0.01
100
AcDbLine
 10
8908.476858675236
 20
7790.181049960176
 30
0.0
 11
8901.864353245173
 21
7790.181049960176
 31
0.0
  0
LINE
  5
183FF
330
747D
100
AcDbEntity
  8
部品1
 48
0.01
100
AcDbLine
 10
8908.976858675236
 20
7791.681049960176
 30
0.0
 11
8908.976858675236
 21
7790.681049960176
 31
0.0
  0
LINE
  5
18400
330
747D
100
AcDbEntity
  8
部品1
 48
0.01
100
AcDbLine
 10
8908.976858675236
 20
7791.681049960176
 30
0.0
 11
8908.976858675236
 21
7790.681049960176
 31
0.0
  0
ARC
  5
18401
330
747D
100
AcDbEntity
  8
部品1
 48
0.01
100
AcDbCircle
 10
8908.476858675236
 20
7790.681049960176
 30
0.0
 40
0.5
100
AcDbArc
 50
270.0
 51
0.0
  0
LINE
  5
18402
330
747D
100
AcDbEntity
  8
細線
100
AcDbLine
 10
9048.976957088564
 20
7791.682172145245
 30
0.0
 11
9051.308495379331
 21
7796.682172145231
 31
0.0
  0
LINE
  5
18403
330
747D
100
AcDbEntity
  8
細線
100
AcDbLine
 10
9118.976965273979
 20
7791.682154591534
 30
0.0
 11
9116.645418797792
 21
7796.682172145212
 31
0.0
  0
LINE
  5
18404
330
747D
100
AcDbEntity
  8
細線
100
AcDbLine
 10
9116.645418797792
 20
7796.682172145212
 30
0.0
 11
9051.308495379318
 21
7796.6821721452
 31
0.0
  0
LINE
  5
18405
330
747D
100
AcDbEntity
  8
細線
100
AcDbLine
 10
9256.645418797793
 20
7796.682172145212
 30
0.0
 11
9191.308495379319
 21
7796.682172145205
 31
0.0
  0
LINE
  5
18406
330
747D
100
AcDbEntity
  8
細線
100
AcDbLine
 10
9258.97696527398
 20
7791.682154591534
 30
0.0
 11
9256.645418797793
 21
7796.682172145212
 31
0.0
  0
LINE
  5
18407
330
747D
100
AcDbEntity
  8
細線
100
AcDbLine
 10
9188.976957088563
 20
7791.682172145248
 30
0.0
 11
9191.308495379331
 21
7796.682172145233
 31
0.0
  0
LINE
  5
18408
330
747D
100
AcDbEntity
  8
細線
100
AcDbLine
 10
9495.645426983207
 20
7830.682000464503
 30
0.0
 11
9430.308503564734
 21
7830.682000464491
 31
0.0
  0
LINE
  5
18409
330
747D
100
AcDbEntity
  8
細線
100
AcDbLine
 10
9497.976973459397
 20
7825.681982910826
 30
0.0
 11
9495.645426983207
 21
7830.682000464503
 31
0.0
  0
LINE
  5
1840A
330
747D
100
AcDbEntity
  8
細線
100
AcDbLine
 10
9427.976965273982
 20
7825.682000464536
 30
0.0
 11
9430.30850356475
 21
7830.682000464522
 31
0.0
  0
LINE
  5
1840B
330
747D
100
AcDbEntity
  8
細線
100
AcDbLine
 10
9567.976929955088
 20
7825.681992277167
 30
0.0
 11
9570.308468245855
 21
7830.681992277153
 31
0.0
  0
LINE
  5
1840C
330
747D
100
AcDbEntity
  8
細線
100
AcDbLine
 10
9637.976938140504
 20
7825.681974723457
 30
0.0
 11
9635.645391664315
 21
7830.681992277138
 31
0.0
  0
LINE
  5
1840D
330
747D
100
AcDbEntity
  8
細線
100
AcDbLine
 10
9635.645391664318
 20
7830.681992277138
 30
0.0
 11
9570.308468245841
 21
7830.681992277122
 31
0.0
  0
LINE
  5
1840E
330
747D
100
AcDbEntity
  8
細線
100
AcDbLine
 10
9775.645428214252
 20
7830.681971973397
 30
0.0
 11
9710.308504795779
 21
7830.681971973381
 31
0.0
  0
LINE
  5
1840F
330
747D
100
AcDbEntity
  8
細線
100
AcDbLine
 10
9777.976974690441
 20
7825.681954419716
 30
0.0
 11
9775.645428214252
 21
7830.681971973397
 31
0.0
  0
LINE
  5
18410
330
747D
100
AcDbEntity
  8
細線
100
AcDbLine
 10
9707.976965273982
 20
7825.681969333449
 30
0.0
 11
9710.308504795792
 21
7830.681971973411
 31
0.0
  0
LINE
  5
18411
330
747D
100
AcDbEntity
  8
細線
 48
50.0
100
AcDbLine
 10
9650.839187198531
 20
7825.681992277167
 30
0.0
 11
9656.594704781198
 21
7843.95284356766
 31
0.0
  0
LINE
  5
18412
330
747D
100
AcDbEntity
  8
細線
 48
50.0
100
AcDbLine
 10
9656.594704781198
 20
7843.95284356766
 30
0.0
 11
9667.523153261631
 21
7843.95284356766
 31
0.0
  0
ARC
  5
18413
330
747D
100
AcDbEntity
  8
細線
 48
50.0
100
AcDbCircle
 10
9667.523153261631
 20
7842.95284356766
 30
0.0
 40
1.0
100
AcDbArc
 50
24.62431835213048
 51
90.0
  0
ARC
  5
18414
330
747D
100
AcDbEntity
  8
細線
 48
50.0
100
AcDbCircle
 10
9678.431865376268
 20
7842.95284356766
 30
0.0
 40
1.0
100
AcDbArc
 50
90.0
 51
155.3756816478695
  0
ARC
  5
18415
330
747D
100
AcDbEntity
  8
細線
 48
50.0
100
AcDbCircle
 10
9672.977509318949
 20
7845.45284356766
 30
0.0
 40
5.0
100
AcDbArc
 50
204.6243183521304
 51
335.3756816478695
  0
LINE
  5
18416
330
747D
100
AcDbEntity
  8
細線
 48
50.0
100
AcDbLine
 10
9678.431865376268
 20
7843.95284356766
 30
0.0
 11
9689.360313856697
 21
7843.95284356766
 31
0.0
  0
LINE
  5
18417
330
747D
100
AcDbEntity
  8
細線
 48
50.0
100
AcDbLine
 10
9689.360313856697
 20
7843.95284356766
 30
0.0
 11
9695.115831439366
 21
7825.681992277174
 31
0.0
  0
LINE
  5
18418
330
747D
100
AcDbEntity
  8
細線
100
AcDbLine
 10
10013.64542821425
 20
7864.681983054527
 30
0.0
 11
9948.308504795777
 21
7864.681983054513
 31
0.0
  0
LINE
  5
18419
330
747D
100
AcDbEntity
  8
細線
100
AcDbLine
 10
10015.97697469044
 20
7859.681965500846
 30
0.0
 11
10013.64542821425
 21
7864.681983054527
 31
0.0
  0
LINE
  5
1841A
330
747D
100
AcDbEntity
  8
細線
100
AcDbLine
 10
9945.976965273983
 20
7859.681980414579
 30
0.0
 11
9948.308504795793
 21
7864.681983054541
 31
0.0
  0
LINE
  5
1841B
330
747D
100
AcDbEntity
  8
細線
100
AcDbLine
 10
10085.97695585752
 20
7859.681995328315
 30
0.0
 11
10088.30849537933
 21
7864.681997968275
 31
0.0
  0
LINE
  5
1841C
330
747D
100
AcDbEntity
  8
細線
100
AcDbLine
 10
10155.97696527398
 20
7859.681980414579
 30
0.0
 11
10153.64541879779
 21
7864.68199796826
 31
0.0
  0
LINE
  5
1841D
330
747D
100
AcDbEntity
  8
細線
100
AcDbLine
 10
10153.64541879779
 20
7864.68199796826
 30
0.0
 11
10088.30849537932
 21
7864.681997968246
 31
0.0
  0
LINE
  5
1841E
330
747D
100
AcDbEntity
  8
細線
100
AcDbLine
 10
10293.64541879779
 20
7864.68199796826
 30
0.0
 11
10228.30849537932
 21
7864.681997968246
 31
0.0
  0
LINE
  5
1841F
330
747D
100
AcDbEntity
  8
細線
100
AcDbLine
 10
10295.97696527398
 20
7859.681980414579
 30
0.0
 11
10293.64541879779
 21
7864.68199796826
 31
0.0
  0
LINE
  5
18420
330
747D
100
AcDbEntity
  8
細線
100
AcDbLine
 10
10225.97695585752
 20
7859.681995328315
 30
0.0
 11
10228.30849537933
 21
7864.681997968275
 31
0.0
  0
LINE
  5
18421
330
747D
100
AcDbEntity
  8
細線
 48
50.0
100
AcDbLine
 10
9336.476965273986
 20
7835.878234805483
 30
0.0
 11
8747.976965273982
 21
7835.878234805479
 31
0.0
  0
LINE
  5
18422
330
747D
100
AcDbEntity
  8
細線
 48
50.0
100
AcDbLine
 10
9377.476965273983
 20
7806.473326809231
 30
0.0
 11
10403.97696527398
 21
7806.473326809229
 31
0.0
  0
LINE
  5
18423
330
747D
100
AcDbEntity
  8
細線
 48
50.0
100
AcDbLine
 10
9869.476970424893
 20
7840.182095363305
 30
0.0
 11
10403.97696527398
 21
7840.182095363307
 31
0.0
  0
LINE
  5
18424
330
747D
100
AcDbEntity
  8
寸法
 48
50.0
100
AcDbLine
 10
9320.47778425238
 20
7674.94068846878
 30
0.0
 11
9539.629724428102
 21
7674.94068846878
 31
0.0
  0
LINE
  5
18425
330
747D
100
AcDbEntity
  8
寸法
 48
50.0
100
AcDbLine
 10
9539.629724428102
 20
7674.94068846878
 30
0.0
 11
9450.345505832682
 21
7698.864322738265
 31
0.0
  0
LINE
  5
18426
330
747D
100
AcDbEntity
  8
寸法
 48
50.0
100
AcDbLine
 10
9450.345505832682
 20
7698.864322738265
 30
0.0
 11
9450.345505832682
 21
7645.200688156475
 31
0.0
  0
LINE
  5
18427
330
747D
100
AcDbEntity
  8
寸法
 48
50.0
100
AcDbLine
 10
9119.773963645723
 20
7641.718731983442
 30
0.0
 11
9171.179971555828
 21
7641.718731983442
 31
0.0
  0
LINE
  5
18428
330
747D
100
AcDbEntity
  8
寸法
 48
50.0
100
AcDbLine
 10
9171.179971555828
 20
7641.718731983442
 30
0.0
 11
9171.179971555828
 21
7673.02889063561
 31
0.0
  0
LINE
  5
18429
330
747D
100
AcDbEntity
  8
寸法
 48
50.0
100
AcDbLine
 10
9171.179971555828
 20
7673.02889063561
 30
0.0
 11
9200.941303547251
 21
7673.02889063561
 31
0.0
  0
LINE
  5
1842A
330
747D
100
AcDbEntity
  8
寸法
 48
50.0
100
AcDbLine
 10
9200.941303547251
 20
7673.02889063561
 30
0.0
 11
9145.476967600774
 21
7710.608341564219
 31
0.0
  0
LINE
  5
1842B
330
747D
100
AcDbEntity
  8
寸法
 48
50.0
100
AcDbLine
 10
9090.0126316543
 20
7673.02889063561
 30
0.0
 11
9145.476967600774
 21
7710.608341564219
 31
0.0
  0
LINE
  5
1842C
330
747D
100
AcDbEntity
  8
寸法
 48
50.0
100
AcDbLine
 10
9119.773963645723
 20
7673.02889063561
 30
0.0
 11
9090.0126316543
 21
7673.02889063561
 31
0.0
  0
LINE
  5
1842D
330
747D
100
AcDbEntity
  8
寸法
 48
50.0
100
AcDbLine
 10
9119.773963645723
 20
7641.718731983442
 30
0.0
 11
9119.773963645723
 21
7673.02889063561
 31
0.0
  0
LINE
  5
1842E
330
747D
100
AcDbEntity
  8
寸法
 48
50.0
100
AcDbLine
 10
9171.179971555828
 20
7641.718731983442
 30
0.0
 11
9119.773963645723
 21
7641.718731983442
 31
0.0
  0
DIMENSION
  5
1863B
330
747D
100
AcDbEntity
  8
寸法
100
AcDbDimension
  2
*D30
 10
10470.97696527399
 20
6671.854189669706
 30
0.0
 11
9564.123715605365
 21
6671.854189669706
 31
0.0
 70
   160
 71
     5
 42
1789.999999999982
  3
INABA_S40G
100
AcDbAlignedDimension
 13
8680.976965274011
 23
7863.681980414608
 33
0.0
 14
10470.97696527399
 24
7863.681980414738
 34
0.0
100
AcDbRotatedDimension
1001
ACAD
1000
DSTYLE
1002
{
1002
}
  0
TEXT
  5
1863C
330
747D
100
AcDbEntity
  8
部品1
100
AcDbText
 10
9284.161241988828
 20
6199.712316808819
 30
0.0
 40
135.0
  1
平面図
  7
STYLE2
100
AcDbText
  0
LINE
  5
1863D
330
747D
100
AcDbEntity
  8
部品1
100
AcDbLine
 10
9194.241632159791
 20
6392.605846027342
 30
0.0
 11
9194.241632159791
 21
6152.713524481811
 31
0.0
  0
LINE
  5
1863E
330
747D
100
AcDbEntity
  8
部品1
100
AcDbLine
 10
9194.241632159791
 20
6152.713524481811
 30
0.0
 11
9957.71229838823
 21
6152.713524481811
 31
0.0
  0
LINE
  5
1863F
330
747D
100
AcDbEntity
  8
部品1
100
AcDbLine
 10
9957.71229838823
 20
6152.713524481811
 30
0.0
 11
9957.71229838823
 21
6392.605846027342
 31
0.0
  0
LINE
  5
18640
330
747D
100
AcDbEntity
  8
部品1
100
AcDbLine
 10
9957.71229838823
 20
6392.605846027342
 30
0.0
 11
9194.241632159791
 21
6392.605846027342
 31
0.0
  0
DIMENSION
  5
18641
330
747D
100
AcDbEntity
  8
寸法
100
AcDbDimension
  2
*D31
 10
8386.365719647294
 20
7788.681980414608
 30
0.0
 11
8386.365719647292
 21
7648.19669904037
 31
0.0
 70
   160
 71
     5
 42
75.0
  3
INABA_S40
100
AcDbAlignedDimension
 13
8680.976965274011
 23
7863.681980414608
 33
0.0
 14
8708.976965273988
 24
7788.681980414608
 34
0.0
 50
90.0
100
AcDbRotatedDimension
1001
ACAD
1000
DSTYLE
1002
{
1070
    41
1040
0.5
1070
    44
1040
1.0
1070
   147
1040
0.8
1070
   271
1070
     2
1070
   272
1070
     2
1070
   289
1070
     3
1070
   340
1005
F706
1070
   343
1005
17576
1070
   344
1005
17576
1002
}
  0
DIMENSION
  5
18642
330
747D
100
AcDbEntity
  8
寸法
 48
50.0
100
AcDbDimension
  2
*D32
 10
10442.97696527398
 20
6911.611710563834
 30
0.0
 11
9566.558709225803
 21
6911.611710563834
 31
0.0
 70
   160
 71
     5
 42
1734.0
  3
INABA_S40G
100
AcDbAlignedDimension
 13
8708.976965273981
 23
7786.681980414615
 33
0.0
 14
10442.97696527398
 24
7786.681980414613
 34
0.0
100
AcDbRotatedDimension
1001
ACAD
1000
DSTYLE
1002
{
1070
   341
1005
0
1002
}
  0
LWPOLYLINE
  5
189A6
330
747D
100
AcDbEntity
  8
部品1
 48
50.0
100
AcDbPolyline
 90
        4
 70
     1
 43
0.0
 10
8808.026965274009
 20
3633.760589766163
 10
8810.926965274012
 20
3633.760589766163
 10
8810.926965274012
 20
3643.260589766163
 10
8808.026965274009
 20
3643.260589766163
  0
CIRCLE
  5
189A7
330
747D
100
AcDbEntity
  8
部品1
 48
50.0
100
AcDbCircle
 10
8809.476965274011
 20
3638.510589766163
 30
0.0
 40
9.0
  0
ARC
  5
189A8
330
747D
100
AcDbEntity
  8
細線
 48
50.0
100
AcDbCircle
 10
8809.476965274011
 20
3638.510589766163
 30
0.0
 40
4.0
100
AcDbArc
 50
111.2538091853132
 51
248.7461908146868
  0
ARC
  5
189A9
330
747D
100
AcDbEntity
  8
細線
 48
50.0
100
AcDbCircle
 10
8809.476965274011
 20
3638.510589766163
 30
0.0
 40
17.5
100
AcDbArc
 50
306.4837370612677
 51
233.5162629387323
  0
LINE
  5
189AA
330
747D
100
AcDbEntity
  8
細線
 48
50.0
100
AcDbLine
 10
8819.476965274008
 20
3614.65162918528
 30
0.0
 11
8819.476965274011
 21
3623.636114985521
 31
0.0
  0
LINE
  5
189AB
330
747D
100
AcDbEntity
  8
細線
 48
50.0
100
AcDbLine
 10
8799.47696527401
 20
3614.651629185281
 30
0.0
 11
8799.47696527401
 21
3623.636114985518
 31
0.0
  0
ARC
  5
189AC
330
747D
100
AcDbEntity
  8
細線
 48
50.0
100
AcDbCircle
 10
8809.476965274011
 20
3638.510589766163
 30
0.0
 40
26.5
100
AcDbArc
 50
249.3326835063939
 51
290.6673164933835
  0
ARC
  5
189AD
330
747D
100
AcDbEntity
  8
細線
 48
50.0
100
AcDbCircle
 10
8818.476965274003
 20
3614.65162918528
 30
0.0
 40
1.0
100
AcDbArc
 50
290.6673164936062
 51
359.9999999998958
  0
ARC
  5
189AE
330
747D
100
AcDbEntity
  8
細線
 48
50.0
100
AcDbCircle
 10
8800.476965274011
 20
3614.651629185281
 30
0.0
 40
1.0
100
AcDbArc
 50
180.0
 51
249.3326835066164
  0
ARC
  5
189AF
330
747D
100
AcDbEntity
  8
細線
 48
50.0
100
AcDbCircle
 10
8798.47696527401
 20
3623.636114985518
 30
0.0
 40
1.0
100
AcDbArc
 50
0.0
 51
53.51626293873231
  0
ARC
  5
189B0
330
747D
100
AcDbEntity
  8
細線
 48
50.0
100
AcDbCircle
 10
8820.476965274014
 20
3623.636114985521
 30
0.0
 40
1.0
100
AcDbArc
 50
126.4837370615127
 51
180.0
  0
ARC
  5
189B1
330
747D
100
AcDbEntity
  8
細線
 48
50.0
100
AcDbCircle
 10
8809.476965274011
 20
3638.510589766163
 30
0.0
 40
21.5
100
AcDbArc
 50
255.8014401250294
 51
284.1985598749706
  0
ARC
  5
189B2
330
747D
100
AcDbEntity
  8
細線
 48
50.0
100
AcDbCircle
 10
8809.476965274011
 20
3638.510589766163
 30
0.0
 40
16.5
100
AcDbArc
 50
251.9694646069326
 51
288.0305353930674
  0
LINE
  5
189B3
330
747D
100
AcDbEntity
  8
細線
 48
50.0
100
AcDbLine
 10
8814.976965274011
 20
3617.958217640356
 30
0.0
 11
8814.976965274011
 21
3622.535609327692
 31
0.0
  0
LINE
  5
189B4
330
747D
100
AcDbEntity
  8
細線
 48
50.0
100
AcDbLine
 10
8803.97696527401
 20
3617.958217640356
 30
0.0
 11
8803.97696527401
 21
3622.535609327691
 31
0.0
  0
ARC
  5
189B5
330
747D
100
AcDbEntity
  8
細線
 48
50.0
100
AcDbCircle
 10
8804.276965274013
 20
3622.535609327691
 30
0.0
 40
0.3
100
AcDbArc
 50
71.96946460693259
 51
180.0
  0
ARC
  5
189B6
330
747D
100
AcDbEntity
  8
細線
 48
50.0
100
AcDbCircle
 10
8814.676965274012
 20
3622.535609327692
 30
0.0
 40
0.3
100
AcDbArc
 50
0.0
 51
108.0305353930674
  0
ARC
  5
189B7
330
747D
100
AcDbEntity
  8
細線
 48
50.0
100
AcDbCircle
 10
8814.676965274008
 20
3617.958217640356
 30
0.0
 40
0.3
100
AcDbArc
 50
284.1985598747622
 51
0.0000000001042204
  0
ARC
  5
189B8
330
747D
100
AcDbEntity
  8
細線
 48
50.0
100
AcDbCircle
 10
8804.276965274013
 20
3617.958217640356
 30
0.0
 40
0.3
100
AcDbArc
 50
180.0
 51
255.8014401248081
  0
CIRCLE
  5
189B9
330
747D
100
AcDbEntity
  8
細線
 48
50.0
100
AcDbCircle
 10
8809.476965274011
 20
3638.510589766163
 30
0.0
 40
12.0
  0
ARC
  5
189BA
330
747D
100
AcDbEntity
  8
部品1
 48
50.0
100
AcDbCircle
 10
8809.476965274011
 20
3688.510589766162
 30
0.0
 40
8.5
100
AcDbArc
 50
114.315739171091
 51
245.684260828909
  0
CIRCLE
  5
189BB
330
747D
100
AcDbEntity
  8
細線
 48
50.0
100
AcDbCircle
 10
8809.476965274011
 20
3688.510589766162
 30
0.0
 40
4.5
  0
LWPOLYLINE
  5
189BC
330
747D
100
AcDbEntity
  8
部品1
 48
50.0
100
AcDbPolyline
 90
        2
 70
     0
 43
0.0
 10
8805.976965274011
 20
3707.185439163146
 10
8805.976965274011
 20
3696.256556458577
  0
CIRCLE
  5
189BD
330
747D
100
AcDbEntity
  8
部品1
 48
50.0
100
AcDbCircle
 10
8809.476965274011
 20
3688.510589766162
 30
0.0
 40
19.0
  0
LWPOLYLINE
  5
189BE
330
747D
100
AcDbEntity
  8
部品1
 48
50.0
100
AcDbPolyline
 90
        2
 70
     0
 43
0.0
 10
8805.976965274011
 20
3680.764623073748
 10
8805.976965274011
 20
3669.83574036918
  0
LWPOLYLINE
  5
189BF
330
747D
100
AcDbEntity
  8
部品1
 48
50.0
100
AcDbPolyline
 90
        2
 70
     0
 43
0.0
 10
8812.97696527401
 20
3696.256556458577
 10
8812.97696527401
 20
3707.185439163146
  0
ARC
  5
189C0
330
747D
100
AcDbEntity
  8
部品1
 48
50.0
100
AcDbCircle
 10
8809.476965274011
 20
3688.510589766162
 30
0.0
 40
8.5
100
AcDbArc
 50
294.315739171091
 51
65.68426082890896
  0
LWPOLYLINE
  5
189C1
330
747D
100
AcDbEntity
  8
部品1
 48
50.0
100
AcDbPolyline
 90
        2
 70
     0
 43
0.0
 10
8812.97696527401
 20
3669.83574036918
 10
8812.97696527401
 20
3680.764623073748
  0
ARC
  5
189C2
330
747D
100
AcDbEntity
  8
細線
 48
50.0
100
AcDbCircle
 10
8809.476965274011
 20
3688.510589766162
 30
0.0
 40
16.5
100
AcDbArc
 50
332.0012352654438
 51
27.99876473455621
  0
ARC
  5
189C3
330
747D
100
AcDbEntity
  8
細線
 48
50.0
100
AcDbCircle
 10
8809.476965274011
 20
3688.510589766162
 30
0.0
 40
14.0
100
AcDbArc
 50
326.4074436112986
 51
33.59255638870134
  0
LINE
  5
189C4
330
747D
100
AcDbEntity
  8
細線
 48
50.0
100
AcDbLine
 10
8794.908162989679
 20
3696.256556458577
 30
0.0
 11
8797.815061484321
 21
3696.256556458577
 31
0.0
  0
LINE
  5
189C5
330
747D
100
AcDbEntity
  8
細線
 48
50.0
100
AcDbLine
 10
8794.908162989679
 20
3680.764623073748
 30
0.0
 11
8797.815061484321
 21
3680.764623073748
 31
0.0
  0
LINE
  5
189C6
330
747D
100
AcDbEntity
  8
細線
 48
50.0
100
AcDbLine
 10
8821.1388690637
 20
3696.256556458577
 30
0.0
 11
8824.045767558345
 21
3696.256556458577
 31
0.0
  0
LINE
  5
189C7
330
747D
100
AcDbEntity
  8
細線
 48
50.0
100
AcDbLine
 10
8821.1388690637
 20
3680.764623073748
 30
0.0
 11
8824.045767558345
 21
3680.764623073748
 31
0.0
  0
ARC
  5
189C8
330
747D
100
AcDbEntity
  8
細線
 48
50.0
100
AcDbCircle
 10
8809.476965274011
 20
3688.510589766162
 30
0.0
 40
14.0
100
AcDbArc
 50
146.4074436112986
 51
213.5925563887013
  0
ARC
  5
189C9
330
747D
100
AcDbEntity
  8
細線
 48
50.0
100
AcDbCircle
 10
8809.476965274011
 20
3688.510589766162
 30
0.0
 40
16.5
100
AcDbArc
 50
152.0012352654438
 51
207.9987647345562
  0
ARC
  5
189CA
330
747D
100
AcDbEntity
  8
部品1
 48
50.0
100
AcDbCircle
 10
8782.976965274011
 20
3714.010589766163
 30
0.0
 40
5.0
100
AcDbArc
 50
90.0
 51
180.0
  0
ARC
  5
189CB
330
747D
100
AcDbEntity
  8
部品1
 48
50.0
100
AcDbCircle
 10
8782.976965274011
 20
3603.010589766163
 30
0.0
 40
5.0
100
AcDbArc
 50
180.0
 51
270.0
  0
ARC
  5
189CC
330
747D
100
AcDbEntity
  8
部品1
 48
50.0
100
AcDbCircle
 10
8835.976965274012
 20
3603.010589766163
 30
0.0
 40
5.0
100
AcDbArc
 50
270.0
 51
0.0
  0
ARC
  5
189CD
330
747D
100
AcDbEntity
  8
部品1
 48
50.0
100
AcDbCircle
 10
8835.976965274012
 20
3714.010589766163
 30
0.0
 40
5.0
100
AcDbArc
 50
0.0
 51
90.0
  0
LINE
  5
189CF
330
747D
100
AcDbEntity
  8
部品1
 48
50.0
100
AcDbLine
 10
8777.976965274012
 20
3603.010589766163
 30
0.0
 11
8777.976965274012
 21
3714.010589766163
 31
0.0
  0
LINE
  5
189D0
330
747D
100
AcDbEntity
  8
部品1
 48
50.0
100
AcDbLine
 10
8835.976965274012
 20
3598.010589766162
 30
0.0
 11
8782.976965274011
 21
3598.010589766162
 31
0.0
  0
LINE
  5
189D1
330
747D
100
AcDbEntity
  8
部品1
 48
50.0
100
AcDbLine
 10
8840.976965274011
 20
3714.010589766163
 30
0.0
 11
8840.976965274011
 21
3603.010589766163
 31
0.0
  0
ENDSEC
  0
SECTION
  2
OBJECTS
  0
DICTIONARY
  5
7471
330
0
100
AcDbDictionary
281
     1
  3
ACAD_COLOR
350
1756B
  3
ACAD_GROUP
350
7472
  3
ACAD_LAYOUT
350
1756C
  3
ACAD_MATERIAL
350
1756A
  3
ACAD_MLINESTYLE
350
7473
  3
ACAD_PLOTSETTINGS
350
1756D
  3
ACAD_PLOTSTYLENAME
350
17568
  3
ACDBHEADERROUNDTRIPXREC
350
189E0
  3
AcDbVariableDictionary
350
189DC
  3
CONTENTDICTIONARY
350
E71C
  3
DRAWINGVARIABLESDICT
350
F3B9
  0
DICTIONARY
  5
176F8
330
7467
100
AcDbDictionary
280
     1
281
     1
  3
ACAD_LAYERSTATES
360
176F9
  0
DICTIONARY
  5
1756B
102
{ACAD_REACTORS
330
7471
102
}
330
7471
100
AcDbDictionary
281
     1
  0
DICTIONARY
  5
7472
102
{ACAD_REACTORS
330
7471
102
}
330
7471
100
AcDbDictionary
281
     1
  0
DICTIONARY
  5
1756C
102
{ACAD_REACTORS
330
7471
102
}
330
7471
100
AcDbDictionary
281
     1
  3
Model
350
1756E
  3
レイアウト1
350
1756F
  0
DICTIONARY
  5
1756A
102
{ACAD_REACTORS
330
7471
102
}
330
7471
100
AcDbDictionary
281
     1
  0
DICTIONARY
  5
7473
102
{ACAD_REACTORS
330
7471
102
}
330
7471
100
AcDbDictionary
281
     1
  3
STANDARD
350
7480
  0
DICTIONARY
  5
1756D
102
{ACAD_REACTORS
330
7471
102
}
330
7471
100
AcDbDictionary
281
     1
  0
ACDBDICTIONARYWDFLT
  5
17568
102
{ACAD_REACTORS
330
7471
102
}
330
7471
100
AcDbDictionary
281
     1
  3
Normal
350
17569
100
AcDbDictionaryWithDefault
340
17569
  0
DICTIONARY
  5
189E0
102
{ACAD_REACTORS
330
7471
102
}
330
7471
100
AcDbDictionary
281
     1
  3
COLORDICT
350
189E2
  3
MATERIALDICT
350
189E1
  0
DICTIONARY
  5
189DC
102
{ACAD_REACTORS
330
7471
102
}
330
7471
100
AcDbDictionary
281
     1
  3
DIMASSOC
350
189DD
  3
PROJECTNAME
350
189DE
  0
DICTIONARY
  5
E71C
102
{ACAD_REACTORS
330
7471
102
}
330
7471
100
AcDbDictionary
281
     1
  0
DICTIONARY
  5
F3B9
102
{ACAD_REACTORS
330
7471
102
}
330
7471
100
AcDbDictionary
281
     1
1001
DRAWINGVARIABLESXDATA
1000
POLARMODE
1000
1
  0
DICTIONARY
  5
176F9
102
{ACAD_REACTORS
330
176F8
102
}
330
176F8
100
AcDbDictionary
281
     1
  0
LAYOUT
  5
1756E
102
{ACAD_XDICTIONARY
360
189E3
102
}
102
{ACAD_REACTORS
330
1756C
102
}
330
1756C
100
AcDbPlotSettings
  1

  2
Microsoft Office Document Image Writer
  4

  6

 40
0.0
 41
0.0
 42
0.0
 43
0.0
 44
0.0
 45
0.0
 46
0.0
 47
0.0
 48
0.0
 49
0.0
140
0.0
141
0.0
142
1.0
143
1.0
 70
  1712
 72
     0
 73
     0
 74
     0
  7

 75
     0
147
1.0
148
0.0
149
0.0
100
AcDbLayout
  1
Model
 70
     1
 71
     0
 10
0.0
 20
0.0
 11
12.0
 21
9.0
 12
0.0
 22
0.0
 32
0.0
 14
0.0
 24
0.0
 34
0.0
 15
0.0
 25
0.0
 35
0.0
146
0.0
 13
0.0
 23
0.0
 33
0.0
 16
1.0
 26
0.0
 36
0.0
 17
0.0
 27
1.0
 37
0.0
 76
     0
330
747D
  0
LAYOUT
  5
1756F
102
{ACAD_XDICTIONARY
360
189E5
102
}
102
{ACAD_REACTORS
330
1756C
102
}
330
1756C
100
AcDbPlotSettings
  1

  2
Microsoft Office Document Image Writer
  4

  6

 40
0.0
 41
0.0
 42
0.0
 43
0.0
 44
0.0
 45
0.0
 46
0.0
 47
0.0
 48
0.0
 49
0.0
140
0.0
141
0.0
142
1.0
143
1.0
 70
   688
 72
     0
 73
     0
 74
     5
  7

 75
    16
147
1.0
148
0.0
149
0.0
100
AcDbLayout
  1
レイアウト1
 70
     0
 71
     1
 10
0.0
 20
0.0
 11
420.0
 21
297.0
 12
0.0
 22
0.0
 32
0.0
 14
1.000000000000000E+20
 24
1.000000000000000E+20
 34
1.000000000000000E+20
 15
-1.000000000000000E+20
 25
-1.000000000000000E+20
 35
-1.000000000000000E+20
146
0.0
 13
0.0
 23
0.0
 33
0.0
 16
1.0
 26
0.0
 36
0.0
 17
0.0
 27
1.0
 37
0.0
 76
     0
330
747A
  0
MLINESTYLE
  5
7480
102
{ACAD_REACTORS
330
7473
102
}
330
7473
100
AcDbMlineStyle
  2
STANDARD
 70
     0
  3

 62
     0
 51
90.0
 52
90.0
 71
     2
 49
0.5
 62
   256
  6
BYLAYER
 49
-0.5
 62
   256
  6
BYLAYER
  0
ACDBPLACEHOLDER
  5
17569
102
{ACAD_REACTORS
330
17568
102
}
330
17568
  0
XRECORD
  5
189E2
102
{ACAD_REACTORS
330
189E0
102
}
330
189E0
100
AcDbXrecord
280
     1
340
1756B
  0
XRECORD
  5
189E1
102
{ACAD_REACTORS
330
189E0
102
}
330
189E0
100
AcDbXrecord
280
     1
340
1756A
  0
DICTIONARYVAR
  5
189DD
102
{ACAD_REACTORS
330
189DC
102
}
330
189DC
100
DictionaryVariables
280
     0
  1
1
  0
DICTIONARYVAR
  5
189DE
102
{ACAD_REACTORS
330
189DC
102
}
330
189DC
100
DictionaryVariables
280
     0
  1

  0
DICTIONARY
  5
189E3
330
1756E
100
AcDbDictionary
280
     1
281
     1
  3
ACAD_XREC_ROUNDTRIP
360
189E4
  0
DICTIONARY
  5
189E5
330
1756F
100
AcDbDictionary
280
     1
281
     1
  3
ACAD_XREC_ROUNDTRIP
360
189E6
  0
XRECORD
  5
189E4
102
{ACAD_REACTORS
330
189E3
102
}
330
189E3
100
AcDbXrecord
280
     1
102
SHADEPLOT
 70
     0
102
SHADEPLOTRESLEVEL
 70
     2
102
SHADEPLOTCUSTOMDPI
 70
   300
  0
XRECORD
  5
189E6
102
{ACAD_REACTORS
330
189E5
102
}
330
189E5
100
AcDbXrecord
280
     1
102
SHADEPLOT
 70
     0
102
SHADEPLOTRESLEVEL
 70
     2
102
SHADEPLOTCUSTOMDPI
 70
   300
  0
ENDSEC
  0
EOF
