  0
SECTION
  2
HEADER
  9
$ACADVER
  1
AC1015
  9
$ACADMAINTVER
 70
    20
  9
$DWGCODEPAGE
  3
ANSI_932
  9
$INSBASE
 10
0.0
 20
0.0
 30
0.0
  9
$EXTMIN
 10
139.9999999999995
 20
-0.0000000000000909
 30
0.0
  9
$EXTMAX
 10
16307.2
 20
11409.6
 30
0.0
  9
$LIMMIN
 10
0.0
 20
0.0
  9
$LIMMAX
 10
16800.0
 20
11880.0
  9
$ORTHOMODE
 70
     0
  9
$REGENMODE
 70
     1
  9
$FILLMODE
 70
     1
  9
$QTEXTMODE
 70
     0
  9
$MIRRTEXT
 70
     1
  9
$LTSCALE
 40
20.0
  9
$ATTMODE
 70
     1
  9
$TEXTSIZE
 40
4.0
  9
$TRACEWID
 40
1.0
  9
$TEXTSTYLE
  7
STYLE1
  9
$CLAYER
  8
寸法
  9
$CELTYPE
  6
BYLAYER
  9
$CECOLOR
 62
   256
  9
$CELTSCALE
 40
50.0
  9
$DISPSILH
 70
     0
  9
$DIMSCALE
 40
40.0
  9
$DIMASZ
 40
2.5
  9
$DIMEXO
 40
0.5
  9
$DIMDLI
 40
7.0
  9
$DIMRND
 40
0.0
  9
$DIMDLE
 40
0.0
  9
$DIMEXE
 40
1.5
  9
$DIMTP
 40
0.0
  9
$DIMTM
 40
0.0
  9
$DIMTXT
 40
3.0
  9
$DIMCEN
 40
0.0
  9
$DIMTSZ
 40
0.0
  9
$DIMTOL
 70
     0
  9
$DIMLIM
 70
     0
  9
$DIMTIH
 70
     0
  9
$DIMTOH
 70
     0
  9
$DIMSE1
 70
     0
  9
$DIMSE2
 70
     0
  9
$DIMTAD
 70
     3
  9
$DIMZIN
 70
     8
  9
$DIMBLK
  1

  9
$DIMASO
 70
     1
  9
$DIMSHO
 70
     1
  9
$DIMPOST
  1

  9
$DIMAPOST
  1

  9
$DIMALT
 70
     0
  9
$DIMALTD
 70
     2
  9
$DIMALTF
 40
0.0394
  9
$DIMLFAC
 40
1.0
  9
$DIMTOFL
 70
     1
  9
$DIMTVP
 40
0.0
  9
$DIMTIX
 70
     1
  9
$DIMSOXD
 70
     0
  9
$DIMSAH
 70
     1
  9
$DIMBLK1
  1
DOTSMALL
  9
$DIMBLK2
  1
DOTSMALL
  9
$DIMSTYLE
  2
INABA_S40G
  9
$DIMCLRD
 70
     0
  9
$DIMCLRE
 70
     0
  9
$DIMCLRT
 70
     7
  9
$DIMTFAC
 40
1.0
  9
$DIMGAP
 40
1.0
  9
$DIMJUST
 70
     0
  9
$DIMSD1
 70
     0
  9
$DIMSD2
 70
     0
  9
$DIMTOLJ
 70
     1
  9
$DIMTZIN
 70
     0
  9
$DIMALTZ
 70
     0
  9
$DIMALTTZ
 70
     0
  9
$DIMUPT
 70
     1
  9
$DIMDEC
 70
     1
  9
$DIMTDEC
 70
     4
  9
$DIMALTU
 70
     2
  9
$DIMALTTD
 70
     2
  9
$DIMTXSTY
  7
STYLE1
  9
$DIMAUNIT
 70
     0
  9
$DIMADEC
 70
     0
  9
$DIMALTRND
 40
0.0
  9
$DIMAZIN
 70
     0
  9
$DIMDSEP
 70
    46
  9
$DIMATFIT
 70
     3
  9
$DIMFRAC
 70
     0
  9
$DIMLDRBLK
  1

  9
$DIMLUNIT
 70
     2
  9
$DIMLWD
 70
    -2
  9
$DIMLWE
 70
    -2
  9
$DIMTMOVE
 70
     0
  9
$LUNITS
 70
     2
  9
$LUPREC
 70
     1
  9
$SKETCHINC
 40
1.0
  9
$FILLETRAD
 40
3.0
  9
$AUNITS
 70
     0
  9
$AUPREC
 70
     0
  9
$MENU
  1
acad
  9
$ELEVATION
 40
0.0
  9
$PELEVATION
 40
0.0
  9
$THICKNESS
 40
0.0
  9
$LIMCHECK
 70
     0
  9
$CHAMFERA
 40
0.0
  9
$CHAMFERB
 40
0.0
  9
$CHAMFERC
 40
0.0
  9
$CHAMFERD
 40
0.0
  9
$SKPOLY
 70
     0
  9
$TDCREATE
 40
2451368.612993866
  9
$TDUCREATE
 40
2451368.237993866
  9
$TDUPDATE
 40
2455575.685658994
  9
$TDUUPDATE
 40
2455575.310658993
  9
$TDINDWG
 40
0.6820864120
  9
$TDUSRTIMER
 40
0.6820864120
  9
$USRTIMER
 70
     1
  9
$ANGBASE
 50
0.0
  9
$ANGDIR
 70
     0
  9
$PDMODE
 70
     3
  9
$PDSIZE
 40
2.0
  9
$PLINEWID
 40
0.0
  9
$SPLFRAME
 70
     0
  9
$SPLINETYPE
 70
     6
  9
$SPLINESEGS
 70
     8
  9
$HANDSEED
  5
17D11
  9
$SURFTAB1
 70
     6
  9
$SURFTAB2
 70
     6
  9
$SURFTYPE
 70
     6
  9
$SURFU
 70
     6
  9
$SURFV
 70
     6
  9
$UCSBASE
  2

  9
$UCSNAME
  2

  9
$UCSORG
 10
0.0
 20
0.0
 30
0.0
  9
$UCSXDIR
 10
1.0
 20
0.0
 30
0.0
  9
$UCSYDIR
 10
0.0
 20
1.0
 30
0.0
  9
$UCSORTHOREF
  2

  9
$UCSORTHOVIEW
 70
     0
  9
$UCSORGTOP
 10
0.0
 20
0.0
 30
0.0
  9
$UCSORGBOTTOM
 10
0.0
 20
0.0
 30
0.0
  9
$UCSORGLEFT
 10
0.0
 20
0.0
 30
0.0
  9
$UCSORGRIGHT
 10
0.0
 20
0.0
 30
0.0
  9
$UCSORGFRONT
 10
0.0
 20
0.0
 30
0.0
  9
$UCSORGBACK
 10
0.0
 20
0.0
 30
0.0
  9
$PUCSBASE
  2

  9
$PUCSNAME
  2

  9
$PUCSORG
 10
0.0
 20
0.0
 30
0.0
  9
$PUCSXDIR
 10
1.0
 20
0.0
 30
0.0
  9
$PUCSYDIR
 10
0.0
 20
1.0
 30
0.0
  9
$PUCSORTHOREF
  2

  9
$PUCSORTHOVIEW
 70
     0
  9
$PUCSORGTOP
 10
0.0
 20
0.0
 30
0.0
  9
$PUCSORGBOTTOM
 10
0.0
 20
0.0
 30
0.0
  9
$PUCSORGLEFT
 10
0.0
 20
0.0
 30
0.0
  9
$PUCSORGRIGHT
 10
0.0
 20
0.0
 30
0.0
  9
$PUCSORGFRONT
 10
0.0
 20
0.0
 30
0.0
  9
$PUCSORGBACK
 10
0.0
 20
0.0
 30
0.0
  9
$USERI1
 70
     0
  9
$USERI2
 70
     0
  9
$USERI3
 70
     0
  9
$USERI4
 70
     0
  9
$USERI5
 70
     0
  9
$USERR1
 40
0.0
  9
$USERR2
 40
0.0
  9
$USERR3
 40
0.0
  9
$USERR4
 40
0.0
  9
$USERR5
 40
0.0
  9
$WORLDVIEW
 70
     1
  9
$SHADEDGE
 70
     3
  9
$SHADEDIF
 70
    70
  9
$TILEMODE
 70
     1
  9
$MAXACTVP
 70
    16
  9
$PINSBASE
 10
0.0
 20
0.0
 30
0.0
  9
$PLIMCHECK
 70
     0
  9
$PEXTMIN
 10
1.000000000000000E+20
 20
1.000000000000000E+20
 30
1.000000000000000E+20
  9
$PEXTMAX
 10
-1.000000000000000E+20
 20
-1.000000000000000E+20
 30
-1.000000000000000E+20
  9
$PLIMMIN
 10
0.0
 20
0.0
  9
$PLIMMAX
 10
420.0
 20
297.0
  9
$UNITMODE
 70
     0
  9
$VISRETAIN
 70
     0
  9
$PLINEGEN
 70
     0
  9
$PSLTSCALE
 70
     0
  9
$TREEDEPTH
 70
  3020
  9
$CMLSTYLE
  2
STANDARD
  9
$CMLJUST
 70
     0
  9
$CMLSCALE
 40
1.0
  9
$PROXYGRAPHICS
 70
     1
  9
$MEASUREMENT
 70
     1
  9
$CELWEIGHT
370
    -1
  9
$ENDCAPS
280
     0
  9
$JOINSTYLE
280
     0
  9
$LWDISPLAY
290
     0
  9
$INSUNITS
 70
     0
  9
$HYPERLINKBASE
  1

  9
$STYLESHEET
  1

  9
$XEDIT
290
     1
  9
$CEPSNTYPE
380
     0
  9
$PSTYLEMODE
290
     1
  9
$FINGERPRINTGUID
  2
{C213C047-8589-46F8-ABA9-46AD9349BF18}
  9
$VERSIONGUID
  2
{516E21F9-D6CF-408B-BE8A-83C0EBD4460E}
  9
$EXTNAMES
290
     1
  9
$PSVPSCALE
 40
0.0
  9
$OLESTARTUP
290
     0
  0
ENDSEC
  0
SECTION
  2
CLASSES
  0
CLASS
  1
ACDBDICTIONARYWDFLT
  2
AcDbDictionaryWithDefault
  3
ObjectDBX Classes
 90
        0
280
     0
281
     0
  0
CLASS
  1
DICTIONARYVAR
  2
AcDbDictionaryVar
  3
ObjectDBX Classes
 90
        0
280
     0
281
     0
  0
CLASS
  1
ACDBPLACEHOLDER
  2
AcDbPlaceHolder
  3
ObjectDBX Classes
 90
        0
280
     0
281
     0
  0
CLASS
  1
LAYOUT
  2
AcDbLayout
  3
ObjectDBX Classes
 90
        0
280
     0
281
     0
  0
ENDSEC
  0
SECTION
  2
TABLES
  0
TABLE
  2
VPORT
  5
746D
330
0
100
AcDbSymbolTable
 70
     2
  0
VPORT
  5
17D09
330
746D
100
AcDbSymbolTableRecord
100
AcDbViewportTableRecord
  2
*Active
 70
     0
 10
0.0
 20
0.0
 11
1.0
 21
1.0
 12
8223.761025238502
 22
6348.703162895247
 13
0.0
 23
0.0
 14
10.0
 24
10.0
 15
10.0
 25
10.0
 16
0.0
 26
0.0
 36
1.0
 17
0.0
 27
0.0
 37
0.0
 40
12805.60689082044
 41
1.525925925925925
 42
50.0
 43
0.0
 44
0.0
 50
0.0
 51
0.0
 71
     0
 72
     0
 73
     1
 74
     0
 75
     0
 76
     0
 77
     0
 78
     0
281
     0
 65
     1
110
0.0
120
0.0
130
0.0
111
1.0
121
0.0
131
0.0
112
0.0
122
1.0
132
0.0
 79
     0
146
0.0
  0
ENDTAB
  0
TABLE
  2
LTYPE
  5
746A
330
0
100
AcDbSymbolTable
 70
     4
  0
LTYPE
  5
7477
330
746A
100
AcDbSymbolTableRecord
100
AcDbLinetypeTableRecord
  2
BYBLOCK
 70
     0
  3

 72
    65
 73
     0
 40
0.0
  0
LTYPE
  5
7478
330
746A
100
AcDbSymbolTableRecord
100
AcDbLinetypeTableRecord
  2
BYLAYER
 70
     0
  3

 72
    65
 73
     0
 40
0.0
  0
LTYPE
  5
7479
330
746A
100
AcDbSymbolTableRecord
100
AcDbLinetypeTableRecord
  2
CONTINUOUS
 70
     0
  3
Solid line
 72
    65
 73
     0
 40
0.0
  0
LTYPE
  5
7816
330
746A
100
AcDbSymbolTableRecord
100
AcDbLinetypeTableRecord
  2
CENTER
 70
     0
  3
____ _ ____ _ ____ _ ____ _ ____ _ ____ _ ____ 
 72
    65
 73
     4
 40
2.0
 49
1.25
 74
     0
 49
-0.25
 74
     0
 49
0.25
 74
     0
 49
-0.25
 74
     0
  0
LTYPE
  5
781A
330
746A
100
AcDbSymbolTableRecord
100
AcDbLinetypeTableRecord
  2
HIDDEN
 70
     0
  3
__ __ __ __ __ __ __ __ __ __ __ __ __ __ __ __
 72
    65
 73
     2
 40
0.375
 49
0.25
 74
     0
 49
-0.125
 74
     0
  0
LTYPE
  5
781B
330
746A
100
AcDbSymbolTableRecord
100
AcDbLinetypeTableRecord
  2
PHANTOM
 70
     0
  3
______  __  __  ______  __  __  ______  __  __ 
 72
    65
 73
     6
 40
2.5
 49
1.25
 74
     0
 49
-0.25
 74
     0
 49
0.25
 74
     0
 49
-0.25
 74
     0
 49
0.25
 74
     0
 49
-0.25
 74
     0
  0
ENDTAB
  0
TABLE
  2
LAYER
  5
7467
102
{ACAD_XDICTIONARY
360
165BE
102
}
330
0
100
AcDbSymbolTable
 70
    12
  0
LAYER
  5
7474
330
7467
100
AcDbSymbolTableRecord
100
AcDbLayerTableRecord
  2
0
 70
     0
 62
     7
  6
CONTINUOUS
370
    -3
390
16422
  0
LAYER
  5
DEB2
330
7467
100
AcDbSymbolTableRecord
100
AcDbLayerTableRecord
  2
センター
 70
     0
 62
     3
  6
CENTER
370
    -3
390
16422
  0
LAYER
  5
DEB3
330
7467
100
AcDbSymbolTableRecord
100
AcDbLayerTableRecord
  2
寸法
 70
     0
 62
     4
  6
CONTINUOUS
370
    -3
390
16422
  0
LAYER
  5
DEB4
330
7467
100
AcDbSymbolTableRecord
100
AcDbLayerTableRecord
  2
部品1
 70
     0
 62
     7
  6
CONTINUOUS
370
    -3
390
16422
  0
LAYER
  5
DEB5
330
7467
100
AcDbSymbolTableRecord
100
AcDbLayerTableRecord
  2
補助
 70
     0
 62
    -1
  6
CONTINUOUS
370
    -3
390
16422
  0
LAYER
  5
DEB6
330
7467
100
AcDbSymbolTableRecord
100
AcDbLayerTableRecord
  2
文字
 70
     0
 62
     7
  6
CONTINUOUS
370
    -3
390
16422
  0
LAYER
  5
F255
330
7467
100
AcDbSymbolTableRecord
100
AcDbLayerTableRecord
  2
DEFPOINTS
 70
     0
 62
     7
  6
CONTINUOUS
290
     0
370
    -3
390
16422
  0
LAYER
  5
10B54
330
7467
100
AcDbSymbolTableRecord
100
AcDbLayerTableRecord
  2
仕様書枠
 70
     0
 62
   230
  6
CONTINUOUS
370
    -3
390
16422
  0
LAYER
  5
11729
330
7467
100
AcDbSymbolTableRecord
100
AcDbLayerTableRecord
  2
Ｇ．Ｌ
 70
     0
 62
    30
  6
CONTINUOUS
370
    -3
390
16422
  0
LAYER
  5
1173F
330
7467
100
AcDbSymbolTableRecord
100
AcDbLayerTableRecord
  2
細線
 70
     0
 62
     5
  6
CONTINUOUS
370
    -3
390
16422
  0
LAYER
  5
12CC4
330
7467
100
AcDbSymbolTableRecord
100
AcDbLayerTableRecord
  2
想像線
 70
     0
 62
     6
  6
PHANTOM
370
    -3
390
16422
  0
LAYER
  5
142E2
330
7467
100
AcDbSymbolTableRecord
100
AcDbLayerTableRecord
  2
破線
 70
     0
 62
     2
  6
HIDDEN
370
    -3
390
16422
  0
ENDTAB
  0
TABLE
  2
STYLE
  5
7468
330
0
100
AcDbSymbolTable
 70
     4
  0
STYLE
  5
7475
330
7468
100
AcDbSymbolTableRecord
100
AcDbTextStyleTableRecord
  2
STANDARD
 70
     0
 40
0.0
 41
1.0
 50
0.0
 71
     0
 42
4.0
  3
txt
  4
C:\AutoCAD LT\bigfont.shx
  0
STYLE
  5
F706
330
7468
100
AcDbSymbolTableRecord
100
AcDbTextStyleTableRecord
  2
STYLE1
 70
     0
 40
0.0
 41
1.0
 50
0.0
 71
     0
 42
4.0
  3
isocp.shx
  4
bigfont.shx
  0
STYLE
  5
103BF
330
7468
100
AcDbSymbolTableRecord
100
AcDbTextStyleTableRecord
  2
STYLE2
 70
     0
 40
0.0
 41
1.0
 50
0.0
 71
     0
 42
100.0
  3
MS PGothic.ttf
  4

1001
ACAD
1000
MS PGothic
1071
    32818
  0
STYLE
  5
17693
330
7468
100
AcDbSymbolTableRecord
100
AcDbTextStyleTableRecord
  2
STYLE3
 70
     0
 40
0.0
 41
1.0
 50
0.0
 71
     0
 42
100.0
  3

  4

1001
ACAD
1000
DFPGothic-EB
1071
    32818
  0
ENDTAB
  0
TABLE
  2
VIEW
  5
746B
330
0
100
AcDbSymbolTable
 70
     0
  0
ENDTAB
  0
TABLE
  2
UCS
  5
746C
330
0
100
AcDbSymbolTable
 70
     0
  0
ENDTAB
  0
TABLE
  2
APPID
  5
746E
330
0
100
AcDbSymbolTable
 70
     6
  0
APPID
  5
7476
330
746E
100
AcDbSymbolTableRecord
100
AcDbRegAppTableRecord
  2
ACAD
 70
     0
  0
APPID
  5
DEA9
330
746E
100
AcDbSymbolTableRecord
100
AcDbRegAppTableRecord
  2
CONTENTBLOCKICON
 70
     0
  0
APPID
  5
DEAA
330
746E
100
AcDbSymbolTableRecord
100
AcDbRegAppTableRecord
  2
CONTENTBLOCKDESCRIPTION
 70
     0
  0
APPID
  5
E71D
330
746E
100
AcDbSymbolTableRecord
100
AcDbRegAppTableRecord
  2
CONTENTTABDATA
 70
     0
  0
APPID
  5
E71E
330
746E
100
AcDbSymbolTableRecord
100
AcDbRegAppTableRecord
  2
CONTENTCURRENTTAB
 70
     0
  0
APPID
  5
F3BA
330
746E
100
AcDbSymbolTableRecord
100
AcDbRegAppTableRecord
  2
DRAWINGVARIABLESXDATA
 70
     0
  0
ENDTAB
  0
TABLE
  2
DIMSTYLE
  5
746F
330
0
100
AcDbSymbolTable
 70
     5
100
AcDbDimStyleTable
 71
     1
340
F71F
  0
DIMSTYLE
105
7484
330
746F
100
AcDbSymbolTableRecord
100
AcDbDimStyleTableRecord
  2
JIS
 70
     0
 41
2.5
 42
1.0
 43
7.0
 44
1.0
 73
     0
 74
     0
 77
     1
 78
     8
140
2.5
141
0.0
143
0.0394
147
0.0
172
     1
174
     1
175
     1
340
7475
  0
DIMSTYLE
105
F71F
102
{ACAD_REACTORS
330
169FC
330
16A00
330
16A57
330
16A5B
330
16A5C
330
16A5D
330
16A5E
330
16A83
330
16A91
330
16A92
330
16A93
330
16A94
330
16A95
330
16A96
330
16A98
330
16AD5
330
16AD6
330
16AD7
330
16AD8
330
17163
330
171BE
330
171BF
330
171C0
330
17420
330
1741F
330
1741E
330
1741D
330
179CB
330
17A68
102
}
330
746F
100
AcDbSymbolTableRecord
100
AcDbDimStyleTableRecord
  2
INABA_S40G
 70
     0
 40
40.0
 41
2.5
 42
0.5
 43
7.0
 44
1.5
 73
     0
 74
     0
 77
     3
 78
     8
140
3.0
141
0.0
143
0.0394
147
1.0
172
     1
173
     1
174
     1
178
     7
271
     1
288
     1
340
F706
341
F770
343
F770
344
F770
  0
DIMSTYLE
105
165BD
102
{ACAD_REACTORS
330
1776F
330
17A63
102
}
330
746F
100
AcDbSymbolTableRecord
100
AcDbDimStyleTableRecord
  2
INABA_S40
 70
     0
 40
40.0
 41
2.5
 42
0.5
 43
7.0
 44
1.5
 73
     0
 74
     0
 77
     3
 78
     8
140
3.0
141
0.0
143
0.0394
147
1.0
172
     1
173
     1
174
     1
175
     1
178
     7
340
7475
  0
DIMSTYLE
105
17694
330
746F
100
AcDbSymbolTableRecord
100
AcDbDimStyleTableRecord
  2
INABA_S50G
 70
     0
 41
125.0
 42
25.0
 43
7.0
 44
75.0
 73
     0
 74
     0
 77
     3
 78
     8
140
150.0
141
0.0
143
0.0394
147
25.0
172
     1
173
     1
174
     1
175
     1
178
     7
271
     1
340
F706
341
F770
343
F770
344
F770
  0
DIMSTYLE
105
17C9F
330
746F
100
AcDbSymbolTableRecord
100
AcDbDimStyleTableRecord
  2
INABA_S20G
 70
     0
 40
20.0
 41
2.5
 42
0.5
 43
7.0
 44
1.5
 73
     0
 74
     0
 77
     3
 78
     8
140
3.0
141
0.0
143
0.0394
147
1.0
172
     1
173
     1
174
     1
178
     7
271
     1
340
F706
341
F770
343
F770
344
F770
  0
ENDTAB
  0
TABLE
  2
BLOCK_RECORD
  5
7466
330
0
100
AcDbSymbolTable
 70
    33
  0
BLOCK_RECORD
  5
747D
330
7466
100
AcDbSymbolTableRecord
100
AcDbBlockTableRecord
  2
*MODEL_SPACE
340
16427
  0
BLOCK_RECORD
  5
747A
330
7466
100
AcDbSymbolTableRecord
100
AcDbBlockTableRecord
  2
*PAPER_SPACE
340
16428
  0
BLOCK_RECORD
  5
F770
330
7466
100
AcDbSymbolTableRecord
100
AcDbBlockTableRecord
  2
_DOTSMALL
340
0
102
{BLKREFS
331
17531
331
17532
331
1753C
331
1753D
331
17545
331
17546
331
1754F
331
17550
331
17580
331
17581
331
175CC
331
175CD
331
175E9
331
175EA
331
175F2
331
175F3
331
175FC
331
175FD
331
17607
331
17608
331
17610
331
17611
331
17619
331
1761A
331
17622
331
17623
331
1763F
331
17640
331
1764A
331
1764B
331
17655
331
17656
331
1765E
331
1765F
331
17C11
331
17C12
331
17C25
331
17C26
331
17C39
331
17C3A
331
17C42
331
17C43
331
17C4D
331
17C4E
331
17C56
331
17C57
331
17C5F
331
17C60
331
17C68
331
17C69
331
17C71
331
17C72
331
17C7C
331
17C7D
331
17C85
331
17C86
331
17C90
331
17C91
102
}
  0
BLOCK_RECORD
  5
164C7
330
7466
100
AcDbSymbolTableRecord
100
AcDbBlockTableRecord
  2
_DOT
340
0
102
{BLKREFS
331
17C1C
331
17C1D
331
17C2E
331
17C2F
102
}
  0
BLOCK_RECORD
  5
16B26
330
7466
100
AcDbSymbolTableRecord
100
AcDbBlockTableRecord
  2
*D2
340
0
  0
BLOCK_RECORD
  5
16B32
330
7466
100
AcDbSymbolTableRecord
100
AcDbBlockTableRecord
  2
*D3
340
0
  0
BLOCK_RECORD
  5
16B7E
330
7466
100
AcDbSymbolTableRecord
100
AcDbBlockTableRecord
  2
*D4
340
0
  0
BLOCK_RECORD
  5
16B8A
330
7466
100
AcDbSymbolTableRecord
100
AcDbBlockTableRecord
  2
*D5
340
0
  0
BLOCK_RECORD
  5
16B98
330
7466
100
AcDbSymbolTableRecord
100
AcDbBlockTableRecord
  2
*D6
340
0
  0
BLOCK_RECORD
  5
16BA5
330
7466
100
AcDbSymbolTableRecord
100
AcDbBlockTableRecord
  2
*D7
340
0
  0
BLOCK_RECORD
  5
16BB1
330
7466
100
AcDbSymbolTableRecord
100
AcDbBlockTableRecord
  2
*D8
340
0
  0
BLOCK_RECORD
  5
16BD7
330
7466
100
AcDbSymbolTableRecord
100
AcDbBlockTableRecord
  2
*D9
340
0
  0
BLOCK_RECORD
  5
16BEF
330
7466
100
AcDbSymbolTableRecord
100
AcDbBlockTableRecord
  2
*D10
340
0
  0
BLOCK_RECORD
  5
16BFD
330
7466
100
AcDbSymbolTableRecord
100
AcDbBlockTableRecord
  2
*D11
340
0
  0
BLOCK_RECORD
  5
16C09
330
7466
100
AcDbSymbolTableRecord
100
AcDbBlockTableRecord
  2
*D12
340
0
  0
BLOCK_RECORD
  5
16C17
330
7466
100
AcDbSymbolTableRecord
100
AcDbBlockTableRecord
  2
*D13
340
0
  0
BLOCK_RECORD
  5
16C23
330
7466
100
AcDbSymbolTableRecord
100
AcDbBlockTableRecord
  2
*D14
340
0
  0
BLOCK_RECORD
  5
16C2F
330
7466
100
AcDbSymbolTableRecord
100
AcDbBlockTableRecord
  2
*D15
340
0
  0
BLOCK_RECORD
  5
16C3B
330
7466
100
AcDbSymbolTableRecord
100
AcDbBlockTableRecord
  2
*D16
340
0
  0
BLOCK_RECORD
  5
16C47
330
7466
100
AcDbSymbolTableRecord
100
AcDbBlockTableRecord
  2
*D17
340
0
  0
BLOCK_RECORD
  5
16C53
330
7466
100
AcDbSymbolTableRecord
100
AcDbBlockTableRecord
  2
*D18
340
0
  0
BLOCK_RECORD
  5
16C61
330
7466
100
AcDbSymbolTableRecord
100
AcDbBlockTableRecord
  2
*D19
340
0
  0
BLOCK_RECORD
  5
16C6D
330
7466
100
AcDbSymbolTableRecord
100
AcDbBlockTableRecord
  2
*D20
340
0
  0
BLOCK_RECORD
  5
17204
330
7466
100
AcDbSymbolTableRecord
100
AcDbBlockTableRecord
  2
*D21
340
0
  0
BLOCK_RECORD
  5
17245
330
7466
100
AcDbSymbolTableRecord
100
AcDbBlockTableRecord
  2
*D22
340
0
  0
BLOCK_RECORD
  5
17251
330
7466
100
AcDbSymbolTableRecord
100
AcDbBlockTableRecord
  2
*D23
340
0
  0
BLOCK_RECORD
  5
1725F
330
7466
100
AcDbSymbolTableRecord
100
AcDbBlockTableRecord
  2
*D24
340
0
  0
BLOCK_RECORD
  5
17465
330
7466
100
AcDbSymbolTableRecord
100
AcDbBlockTableRecord
  2
*D25
340
0
  0
BLOCK_RECORD
  5
17471
330
7466
100
AcDbSymbolTableRecord
100
AcDbBlockTableRecord
  2
*D26
340
0
  0
BLOCK_RECORD
  5
1747F
330
7466
100
AcDbSymbolTableRecord
100
AcDbBlockTableRecord
  2
*D27
340
0
  0
BLOCK_RECORD
  5
1748D
330
7466
100
AcDbSymbolTableRecord
100
AcDbBlockTableRecord
  2
*D28
340
0
  0
BLOCK_RECORD
  5
177D4
330
7466
100
AcDbSymbolTableRecord
100
AcDbBlockTableRecord
  2
*D29
340
0
  0
BLOCK_RECORD
  5
17AB7
330
7466
100
AcDbSymbolTableRecord
100
AcDbBlockTableRecord
  2
*D30
340
0
  0
BLOCK_RECORD
  5
17ACF
330
7466
100
AcDbSymbolTableRecord
100
AcDbBlockTableRecord
  2
*D31
340
0
  0
BLOCK_RECORD
  5
17ADD
330
7466
100
AcDbSymbolTableRecord
100
AcDbBlockTableRecord
  2
*D32
340
0
  0
ENDTAB
  0
ENDSEC
  0
SECTION
  2
BLOCKS
  0
BLOCK
  5
7489
330
747D
100
AcDbEntity
  8
0
100
AcDbBlockBegin
  2
*MODEL_SPACE
 70
     0
 10
0.0
 20
0.0
 30
0.0
  3
*MODEL_SPACE
  1

  0
ENDBLK
  5
748A
330
747D
100
AcDbEntity
  8
0
100
AcDbBlockEnd
  0
BLOCK
  5
7487
330
747A
100
AcDbEntity
 67
     1
  8
0
100
AcDbBlockBegin
  2
*PAPER_SPACE
 70
     0
 10
0.0
 20
0.0
 30
0.0
  3
*PAPER_SPACE
  1

  0
ENDBLK
  5
7488
330
747A
100
AcDbEntity
 67
     1
  8
0
100
AcDbBlockEnd
  0
BLOCK
  5
F771
330
F770
100
AcDbEntity
  8
0
 48
50.0
100
AcDbBlockBegin
  2
_DOTSMALL
 70
     0
 10
0.0
 20
0.0
 30
0.0
  3
_DOTSMALL
  1

  0
LWPOLYLINE
  5
F772
330
F770
100
AcDbEntity
  8
0
  6
ByBlock
 62
     0
 48
50.0
100
AcDbPolyline
 90
        2
 70
     1
 43
0.5
 10
-0.0625
 20
0.0
 42
1.0
 10
0.0625
 20
0.0
 42
1.0
  0
ENDBLK
  5
F776
330
F770
100
AcDbEntity
  8
0
 48
50.0
100
AcDbBlockEnd
  0
BLOCK
  5
164C8
330
164C7
100
AcDbEntity
  8
0
 48
50.0
100
AcDbBlockBegin
  2
_DOT
 70
     0
 10
0.0
 20
0.0
 30
0.0
  3
_DOT
  1

  0
LWPOLYLINE
  5
164C9
330
164C7
100
AcDbEntity
  8
0
  6
ByBlock
 62
     0
 48
50.0
100
AcDbPolyline
 90
        2
 70
     1
 43
0.5
 10
-0.25
 20
0.0
 42
1.0
 10
0.25
 20
0.0
 42
1.0
  0
LINE
  5
164CA
330
164C7
100
AcDbEntity
  8
0
  6
ByBlock
 62
     0
 48
50.0
100
AcDbLine
 10
-0.5
 20
0.0
 30
0.0
 11
-1.0
 21
0.0
 31
0.0
  0
ENDBLK
  5
164CB
330
164C7
100
AcDbEntity
  8
0
 48
50.0
100
AcDbBlockEnd
  0
BLOCK
  5
16B30
330
16B26
100
AcDbEntity
  8
0
 48
50.0
100
AcDbBlockBegin
  2
*D2
 70
     1
 10
0.0
 20
0.0
 30
0.0
  3
*D2
  1

  0
LINE
  5
1761F
330
16B26
100
AcDbEntity
  8
寸法
 62
     0
 48
50.0
370
    -2
100
AcDbLine
 10
5048.925393906032
 20
2148.911759145213
 30
0.0
 11
5048.925393906032
 21
1822.864429844836
 31
0.0
  0
LINE
  5
17620
330
16B26
100
AcDbEntity
  8
寸法
 62
     0
 48
50.0
370
    -2
100
AcDbLine
 10
4848.925393906036
 20
2148.911759145214
 30
0.0
 11
4848.925393906036
 21
1822.864429844836
 31
0.0
  0
LINE
  5
17621
330
16B26
100
AcDbEntity
  8
寸法
 62
     0
 48
50.0
370
    -2
100
AcDbLine
 10
5048.925393906032
 20
1882.864429844836
 30
0.0
 11
4848.925393906036
 21
1882.864429844836
 31
0.0
  0
INSERT
  5
17622
330
16B26
100
AcDbEntity
  8
寸法
 62
     0
 48
50.0
370
    -2
100
AcDbBlockReference
  2
_DOTSMALL
 10
5048.925393906032
 20
1882.864429844836
 30
0.0
 41
100.0
 42
100.0
 43
100.0
  0
INSERT
  5
17623
330
16B26
100
AcDbEntity
  8
寸法
 62
     0
 48
50.0
370
    -2
100
AcDbBlockReference
  2
_DOTSMALL
 10
4848.925393906036
 20
1882.864429844836
 30
0.0
 41
100.0
 42
100.0
 43
100.0
 50
180.0
  0
MTEXT
  5
17624
330
16B26
100
AcDbEntity
  8
寸法
 62
     7
 48
50.0
100
AcDbMText
 10
4948.925393906034
 20
1982.876240868459
 30
0.0
 40
120.0
 41
0.0
 71
     5
 72
     1
  1
\A1;200
  7
STYLE1
 73
     1
 44
1.0
1001
ACAD
1000
MTEXTBEGIN
1070
    73
1070
     1
1070
    44
1040
1.0
1070
    74
1070
     0
1000
MTEXTEND
  0
POINT
  5
17625
330
16B26
100
AcDbEntity
  8
DEFPOINTS
 62
     0
 48
50.0
100
AcDbPoint
 10
5048.925393906032
 20
2168.911759145213
 30
0.0
  0
POINT
  5
17626
330
16B26
100
AcDbEntity
  8
DEFPOINTS
 62
     0
 48
50.0
100
AcDbPoint
 10
4848.925393906036
 20
2168.911759145214
 30
0.0
  0
POINT
  5
17627
330
16B26
100
AcDbEntity
  8
DEFPOINTS
 62
     0
 48
50.0
100
AcDbPoint
 10
4848.925393906036
 20
1882.864429844836
 30
0.0
  0
ENDBLK
  5
16B31
330
16B26
100
AcDbEntity
  8
0
 48
50.0
100
AcDbBlockEnd
  0
BLOCK
  5
16B3C
330
16B32
100
AcDbEntity
  8
0
 48
50.0
100
AcDbBlockBegin
  2
*D3
 70
     1
 10
0.0
 20
0.0
 30
0.0
  3
*D3
  1

  0
LINE
  5
17616
330
16B32
100
AcDbEntity
  8
寸法
 62
     0
 48
50.0
370
    -2
100
AcDbLine
 10
4828.925393906036
 20
2168.911759145214
 30
0.0
 11
4639.4253906594
 21
2168.911759145214
 31
0.0
  0
LINE
  5
17617
330
16B32
100
AcDbEntity
  8
寸法
 62
     0
 48
50.0
370
    -2
100
AcDbLine
 10
4803.925393906033
 20
2368.911759145214
 30
0.0
 11
4639.4253906594
 21
2368.911759145214
 31
0.0
  0
LINE
  5
17618
330
16B32
100
AcDbEntity
  8
寸法
 62
     0
 48
50.0
370
    -2
100
AcDbLine
 10
4699.425390659399
 20
2168.911759145214
 30
0.0
 11
4699.425390659399
 21
2368.911759145214
 31
0.0
  0
INSERT
  5
17619
330
16B32
100
AcDbEntity
  8
寸法
 62
     0
 48
50.0
370
    -2
100
AcDbBlockReference
  2
_DOTSMALL
 10
4699.425390659399
 20
2168.911759145214
 30
0.0
 41
100.0
 42
100.0
 43
100.0
 50
270.0
  0
INSERT
  5
1761A
330
16B32
100
AcDbEntity
  8
寸法
 62
     0
 48
50.0
370
    -2
100
AcDbBlockReference
  2
_DOTSMALL
 10
4699.425390659399
 20
2368.911759145214
 30
0.0
 41
100.0
 42
100.0
 43
100.0
 50
90.0
  0
MTEXT
  5
1761B
330
16B32
100
AcDbEntity
  8
寸法
 62
     7
 48
50.0
100
AcDbMText
 10
4599.413579635776
 20
2268.911759145215
 30
0.0
 40
120.0
 41
0.0
 71
     5
 72
     1
  1
\A1;200
  7
STYLE1
 11
0.0000000000000001
 21
1.0
 31
0.0
 73
     1
 44
1.0
1001
ACAD
1000
MTEXTBEGIN
1070
    73
1070
     1
1070
    44
1040
1.0
1070
    74
1070
     0
1000
MTEXTEND
  0
POINT
  5
1761C
330
16B32
100
AcDbEntity
  8
DEFPOINTS
 62
     0
 48
50.0
100
AcDbPoint
 10
4848.925393906036
 20
2168.911759145214
 30
0.0
  0
POINT
  5
1761D
330
16B32
100
AcDbEntity
  8
DEFPOINTS
 62
     0
 48
50.0
100
AcDbPoint
 10
4823.925393906033
 20
2368.911759145214
 30
0.0
  0
POINT
  5
1761E
330
16B32
100
AcDbEntity
  8
DEFPOINTS
 62
     0
 48
50.0
100
AcDbPoint
 10
4699.425390659399
 20
2368.911759145214
 30
0.0
  0
ENDBLK
  5
16B3D
330
16B32
100
AcDbEntity
  8
0
 48
50.0
100
AcDbBlockEnd
  0
BLOCK
  5
16B88
330
16B7E
100
AcDbEntity
  8
0
 48
50.0
100
AcDbBlockBegin
  2
*D4
 70
     1
 10
0.0
 20
0.0
 30
0.0
  3
*D4
  1

  0
LINE
  5
1760D
330
16B7E
100
AcDbEntity
  8
寸法
 62
     0
 48
50.0
370
    -2
100
AcDbLine
 10
10227.88574000359
 20
2468.911759145215
 30
0.0
 11
10803.05583576601
 21
2468.911759145215
 31
0.0
  0
LINE
  5
1760E
330
16B7E
100
AcDbEntity
  8
寸法
 62
     0
 48
50.0
370
    -2
100
AcDbLine
 10
10307.88574000357
 20
4488.911759145216
 30
0.0
 11
10803.05583576601
 21
4488.911759145216
 31
0.0
  0
LINE
  5
1760F
330
16B7E
100
AcDbEntity
  8
寸法
 62
     0
 48
50.0
370
    -2
100
AcDbLine
 10
10743.05583576601
 20
2468.911759145215
 30
0.0
 11
10743.05583576601
 21
4488.911759145216
 31
0.0
  0
INSERT
  5
17610
330
16B7E
100
AcDbEntity
  8
寸法
 62
     0
 48
50.0
370
    -2
100
AcDbBlockReference
  2
_DOTSMALL
 10
10743.05583576601
 20
2468.911759145215
 30
0.0
 41
100.0
 42
100.0
 43
100.0
 50
270.0
  0
INSERT
  5
17611
330
16B7E
100
AcDbEntity
  8
寸法
 62
     0
 48
50.0
370
    -2
100
AcDbBlockReference
  2
_DOTSMALL
 10
10743.05583576601
 20
4488.911759145216
 30
0.0
 41
100.0
 42
100.0
 43
100.0
 50
90.0
  0
MTEXT
  5
17612
330
16B7E
100
AcDbEntity
  8
寸法
 62
     7
 48
50.0
100
AcDbMText
 10
10643.04402474239
 20
3451.168086574904
 30
0.0
 40
120.0
 41
0.0
 71
     5
 72
     1
  1
\A1;2020
  7
STYLE1
 11
0.0000000000000001
 21
1.0
 31
0.0
 73
     1
 44
1.0
1001
ACAD
1000
MTEXTBEGIN
1070
    73
1070
     1
1070
    44
1040
1.0
1070
    74
1070
     0
1000
MTEXTEND
  0
POINT
  5
17613
330
16B7E
100
AcDbEntity
  8
DEFPOINTS
 62
     0
 48
50.0
100
AcDbPoint
 10
10207.88574000359
 20
2468.911759145215
 30
0.0
  0
POINT
  5
17614
330
16B7E
100
AcDbEntity
  8
DEFPOINTS
 62
     0
 48
50.0
100
AcDbPoint
 10
10287.88574000357
 20
4488.911759145216
 30
0.0
  0
POINT
  5
17615
330
16B7E
100
AcDbEntity
  8
DEFPOINTS
 62
     0
 48
50.0
100
AcDbPoint
 10
10743.05583576601
 20
4488.911759145216
 30
0.0
  0
ENDBLK
  5
16B89
330
16B7E
100
AcDbEntity
  8
0
 48
50.0
100
AcDbBlockEnd
  0
BLOCK
  5
16B96
330
16B8A
100
AcDbEntity
  8
0
 48
50.0
100
AcDbBlockBegin
  2
*D5
 70
     1
 10
0.0
 20
0.0
 30
0.0
  3
*D5
  1

  0
LINE
  5
17602
330
16B8A
100
AcDbEntity
  8
寸法
 62
     0
 48
50.0
370
    -2
100
AcDbLine
 10
8817.885740003571
 20
2518.911759145215
 30
0.0
 11
8154.233030845274
 21
2518.911759145215
 31
0.0
  0
LINE
  5
17603
330
16B8A
100
AcDbEntity
  8
寸法
 62
     0
 48
50.0
370
    -2
100
AcDbLine
 10
8762.88574000357
 20
2468.911759145215
 30
0.0
 11
8154.233030845274
 21
2468.911759145215
 31
0.0
  0
LINE
  5
17604
330
16B8A
100
AcDbEntity
  8
寸法
 62
     0
 48
50.0
370
    -2
100
AcDbLine
 10
8214.233030845273
 20
2518.911759145215
 30
0.0
 11
8214.233030845273
 21
2618.911759145215
 31
0.0
  0
LINE
  5
17605
330
16B8A
100
AcDbEntity
  8
寸法
 62
     0
 48
50.0
370
    -2
100
AcDbLine
 10
8214.233030845273
 20
2468.911759145215
 30
0.0
 11
8214.233030845273
 21
2056.817270956235
 31
0.0
  0
LINE
  5
17606
330
16B8A
100
AcDbEntity
  8
寸法
 62
     0
 48
50.0
370
    -2
100
AcDbLine
 10
8214.233030845273
 20
2518.911759145215
 30
0.0
 11
8214.233030845273
 21
2468.911759145215
 31
0.0
  0
INSERT
  5
17607
330
16B8A
100
AcDbEntity
  8
寸法
 62
     0
 48
50.0
370
    -2
100
AcDbBlockReference
  2
_DOTSMALL
 10
8214.233030845273
 20
2518.911759145215
 30
0.0
 41
100.0
 42
100.0
 43
100.0
 50
270.0
  0
INSERT
  5
17608
330
16B8A
100
AcDbEntity
  8
寸法
 62
     0
 48
50.0
370
    -2
100
AcDbBlockReference
  2
_DOTSMALL
 10
8214.233030845273
 20
2468.911759145215
 30
0.0
 41
100.0
 42
100.0
 43
100.0
 50
90.0
  0
MTEXT
  5
17609
330
16B8A
100
AcDbEntity
  8
寸法
 62
     7
 48
50.0
100
AcDbMText
 10
8114.233030845273
 20
2162.864515050725
 30
0.0
 40
120.0
 41
0.0
 71
     5
 72
     1
  1
\A1;50
  7
STYLE1
 11
0.0000000000000001
 21
1.0
 31
0.0
 73
     1
 44
1.0
1001
ACAD
1000
MTEXTBEGIN
1070
    73
1070
     1
1070
    44
1040
1.0
1070
    74
1070
     0
1000
MTEXTEND
  0
POINT
  5
1760A
330
16B8A
100
AcDbEntity
  8
DEFPOINTS
 62
     0
 48
50.0
100
AcDbPoint
 10
8837.885740003569
 20
2518.911759145215
 30
0.0
  0
POINT
  5
1760B
330
16B8A
100
AcDbEntity
  8
DEFPOINTS
 62
     0
 48
50.0
100
AcDbPoint
 10
8782.885740003569
 20
2468.911759145215
 30
0.0
  0
POINT
  5
1760C
330
16B8A
100
AcDbEntity
  8
DEFPOINTS
 62
     0
 48
50.0
100
AcDbPoint
 10
8214.233030845273
 20
2468.911759145215
 30
0.0
  0
ENDBLK
  5
16B97
330
16B8A
100
AcDbEntity
  8
0
 48
50.0
100
AcDbBlockEnd
  0
BLOCK
  5
16BA3
330
16B98
100
AcDbEntity
  8
0
 48
50.0
100
AcDbBlockBegin
  2
*D6
 70
     1
 10
0.0
 20
0.0
 30
0.0
  3
*D6
  1

  0
LINE
  5
175F8
330
16B98
100
AcDbEntity
  8
寸法
 62
     0
 48
50.0
370
    -2
100
AcDbLine
 10
8762.88574000357
 20
2468.911759145215
 30
0.0
 11
7869.246358074213
 21
2468.911759145215
 31
0.0
  0
LINE
  5
175F9
330
16B98
100
AcDbEntity
  8
寸法
 62
     0
 48
50.0
370
    -2
100
AcDbLine
 10
8194.233030845273
 20
2368.911759145215
 30
0.0
 11
7869.246358074213
 21
2368.911759145215
 31
0.0
  0
LINE
  5
175FA
330
16B98
100
AcDbEntity
  8
寸法
 62
     0
 48
50.0
370
    -2
100
AcDbLine
 10
7929.246358074212
 20
2468.911759145215
 30
0.0
 11
7929.246358074212
 21
2368.911759145215
 31
0.0
  0
LINE
  5
175FB
330
16B98
100
AcDbEntity
  8
寸法
 62
     0
 48
50.0
370
    -2
100
AcDbLine
 10
7929.246358074212
 20
2368.911759145215
 30
0.0
 11
7929.246358074212
 21
1996.817270956234
 31
0.0
  0
INSERT
  5
175FC
330
16B98
100
AcDbEntity
  8
寸法
 62
     0
 48
50.0
370
    -2
100
AcDbBlockReference
  2
_DOTSMALL
 10
7929.246358074212
 20
2468.911759145215
 30
0.0
 41
100.0
 42
100.0
 43
100.0
 50
90.0
  0
INSERT
  5
175FD
330
16B98
100
AcDbEntity
  8
寸法
 62
     0
 48
50.0
370
    -2
100
AcDbBlockReference
  2
_DOTSMALL
 10
7929.246358074212
 20
2368.911759145215
 30
0.0
 41
100.0
 42
100.0
 43
100.0
 50
270.0
  0
MTEXT
  5
175FE
330
16B98
100
AcDbEntity
  8
寸法
 62
     7
 48
50.0
100
AcDbMText
 10
7829.246358074212
 20
2132.864515050724
 30
0.0
 40
120.0
 41
0.0
 71
     5
 72
     1
  1
\A1;100
  7
STYLE1
 11
0.0000000000000001
 21
1.0
 31
0.0
 73
     1
 44
1.0
1001
ACAD
1000
MTEXTBEGIN
1070
    73
1070
     1
1070
    44
1040
1.0
1070
    74
1070
     0
1000
MTEXTEND
  0
POINT
  5
175FF
330
16B98
100
AcDbEntity
  8
DEFPOINTS
 62
     0
 48
50.0
100
AcDbPoint
 10
8782.885740003569
 20
2468.911759145215
 30
0.0
  0
POINT
  5
17600
330
16B98
100
AcDbEntity
  8
DEFPOINTS
 62
     0
 48
50.0
100
AcDbPoint
 10
8214.233030845273
 20
2368.911759145215
 30
0.0
  0
POINT
  5
17601
330
16B98
100
AcDbEntity
  8
DEFPOINTS
 62
     0
 48
50.0
100
AcDbPoint
 10
7929.246358074212
 20
2368.911759145215
 30
0.0
  0
ENDBLK
  5
16BA4
330
16B98
100
AcDbEntity
  8
0
 48
50.0
100
AcDbBlockEnd
  0
BLOCK
  5
16BAF
330
16BA5
100
AcDbEntity
  8
0
 48
50.0
100
AcDbBlockBegin
  2
*D7
 70
     1
 10
0.0
 20
0.0
 30
0.0
  3
*D7
  1

  0
LINE
  5
175EF
330
16BA5
100
AcDbEntity
  8
寸法
 62
     0
 48
50.0
370
    -2
100
AcDbLine
 10
8817.885740003571
 20
2468.911759145215
 30
0.0
 11
7869.246358074213
 21
2468.911759145215
 31
0.0
  0
LINE
  5
175F0
330
16BA5
100
AcDbEntity
  8
寸法
 62
     0
 48
50.0
370
    -2
100
AcDbLine
 10
8757.885740003571
 20
4543.91175914522
 30
0.0
 11
7869.246358074213
 21
4543.91175914522
 31
0.0
  0
LINE
  5
175F1
330
16BA5
100
AcDbEntity
  8
寸法
 62
     0
 48
50.0
370
    -2
100
AcDbLine
 10
7929.246358074212
 20
2468.911759145215
 30
0.0
 11
7929.246358074212
 21
4543.91175914522
 31
0.0
  0
INSERT
  5
175F2
330
16BA5
100
AcDbEntity
  8
寸法
 62
     0
 48
50.0
370
    -2
100
AcDbBlockReference
  2
_DOTSMALL
 10
7929.246358074212
 20
2468.911759145215
 30
0.0
 41
100.0
 42
100.0
 43
100.0
 50
270.0
  0
INSERT
  5
175F3
330
16BA5
100
AcDbEntity
  8
寸法
 62
     0
 48
50.0
370
    -2
100
AcDbBlockReference
  2
_DOTSMALL
 10
7929.246358074212
 20
4543.91175914522
 30
0.0
 41
100.0
 42
100.0
 43
100.0
 50
90.0
  0
MTEXT
  5
175F4
330
16BA5
100
AcDbEntity
  8
寸法
 62
     7
 48
50.0
100
AcDbMText
 10
7829.234547050589
 20
3463.117636638325
 30
0.0
 40
120.0
 41
0.0
 71
     5
 72
     1
  1
\A1;2075
  7
STYLE1
 11
0.0000000000000001
 21
1.0
 31
0.0
 73
     1
 44
1.0
1001
ACAD
1000
MTEXTBEGIN
1070
    73
1070
     1
1070
    44
1040
1.0
1070
    74
1070
     0
1000
MTEXTEND
  0
POINT
  5
175F5
330
16BA5
100
AcDbEntity
  8
DEFPOINTS
 62
     0
 48
50.0
100
AcDbPoint
 10
8837.885740003569
 20
2468.911759145215
 30
0.0
  0
POINT
  5
175F6
330
16BA5
100
AcDbEntity
  8
DEFPOINTS
 62
     0
 48
50.0
100
AcDbPoint
 10
8777.88574000357
 20
4543.91175914522
 30
0.0
  0
POINT
  5
175F7
330
16BA5
100
AcDbEntity
  8
DEFPOINTS
 62
     0
 48
50.0
100
AcDbPoint
 10
7929.246358074212
 20
4543.91175914522
 30
0.0
  0
ENDBLK
  5
16BB0
330
16BA5
100
AcDbEntity
  8
0
 48
50.0
100
AcDbBlockEnd
  0
BLOCK
  5
16BBB
330
16BB1
100
AcDbEntity
  8
0
 48
50.0
100
AcDbBlockBegin
  2
*D8
 70
     1
 10
0.0
 20
0.0
 30
0.0
  3
*D8
  1

  0
LINE
  5
175E6
330
16BB1
100
AcDbEntity
  8
寸法
 62
     0
 48
50.0
370
    -2
100
AcDbLine
 10
8817.885740003571
 20
4308.911759145215
 30
0.0
 11
8154.233030845274
 21
4308.911759145215
 31
0.0
  0
LINE
  5
175E7
330
16BB1
100
AcDbEntity
  8
寸法
 62
     0
 48
50.0
370
    -2
100
AcDbLine
 10
8817.885740003571
 20
2518.911759145215
 30
0.0
 11
8154.233030845274
 21
2518.911759145215
 31
0.0
  0
LINE
  5
175E8
330
16BB1
100
AcDbEntity
  8
寸法
 62
     0
 48
50.0
370
    -2
100
AcDbLine
 10
8214.233030845274
 20
4308.911759145215
 30
0.0
 11
8214.233030845273
 21
2518.911759145215
 31
0.0
  0
INSERT
  5
175E9
330
16BB1
100
AcDbEntity
  8
寸法
 62
     0
 48
50.0
370
    -2
100
AcDbBlockReference
  2
_DOTSMALL
 10
8214.233030845274
 20
4308.911759145215
 30
0.0
 41
100.0
 42
100.0
 43
100.0
 50
90.0
  0
INSERT
  5
175EA
330
16BB1
100
AcDbEntity
  8
寸法
 62
     0
 48
50.0
370
    -2
100
AcDbBlockReference
  2
_DOTSMALL
 10
8214.233030845273
 20
2518.911759145215
 30
0.0
 41
100.0
 42
100.0
 43
100.0
 50
270.0
  0
MTEXT
  5
175EB
330
16BB1
100
AcDbEntity
  8
寸法
 62
     7
 48
50.0
100
AcDbMText
 10
8114.233030845273
 20
3409.366057687173
 30
0.0
 40
120.0
 41
0.0
 71
     5
 72
     1
  1
\A1;1790
  7
STYLE1
 11
0.0000000000000001
 21
1.0
 31
0.0
 73
     1
 44
1.0
1001
ACAD
1000
MTEXTBEGIN
1070
    73
1070
     1
1070
    44
1040
1.0
1070
    74
1070
     0
1000
MTEXTEND
  0
POINT
  5
175EC
330
16BB1
100
AcDbEntity
  8
DEFPOINTS
 62
     0
 48
50.0
100
AcDbPoint
 10
8837.885740003569
 20
4308.911759145215
 30
0.0
  0
POINT
  5
175ED
330
16BB1
100
AcDbEntity
  8
DEFPOINTS
 62
     0
 48
50.0
100
AcDbPoint
 10
8837.885740003569
 20
2518.911759145215
 30
0.0
  0
POINT
  5
175EE
330
16BB1
100
AcDbEntity
  8
DEFPOINTS
 62
     0
 48
50.0
100
AcDbPoint
 10
8214.233030845273
 20
2518.911759145215
 30
0.0
  0
ENDBLK
  5
16BBC
330
16BB1
100
AcDbEntity
  8
0
 48
50.0
100
AcDbBlockEnd
  0
BLOCK
  5
16BE1
330
16BD7
100
AcDbEntity
  8
0
 48
50.0
100
AcDbBlockBegin
  2
*D9
 70
     1
 10
0.0
 20
0.0
 30
0.0
  3
*D9
  1

  0
LINE
  5
175C9
330
16BD7
100
AcDbEntity
  8
寸法
 62
     0
 48
50.0
370
    -2
100
AcDbLine
 10
8845.885740003586
 20
4251.911759145214
 30
0.0
 11
8506.679710791436
 21
4251.911759145214
 31
0.0
  0
LINE
  5
175CA
330
16BD7
100
AcDbEntity
  8
寸法
 62
     0
 48
50.0
370
    -2
100
AcDbLine
 10
8845.885740003586
 20
2526.911759145215
 30
0.0
 11
8506.679710791436
 21
2526.911759145215
 31
0.0
  0
LINE
  5
175CB
330
16BD7
100
AcDbEntity
  8
寸法
 62
     0
 48
50.0
370
    -2
100
AcDbLine
 10
8566.679710791438
 20
4251.911759145214
 30
0.0
 11
8566.679710791435
 21
2526.911759145215
 31
0.0
  0
INSERT
  5
175CC
330
16BD7
100
AcDbEntity
  8
寸法
 62
     0
 48
50.0
370
    -2
100
AcDbBlockReference
  2
_DOTSMALL
 10
8566.679710791438
 20
4251.911759145214
 30
0.0
 41
100.0
 42
100.0
 43
100.0
 50
90.0
  0
INSERT
  5
175CD
330
16BD7
100
AcDbEntity
  8
寸法
 62
     0
 48
50.0
370
    -2
100
AcDbBlockReference
  2
_DOTSMALL
 10
8566.679710791435
 20
2526.911759145215
 30
0.0
 41
100.0
 42
100.0
 43
100.0
 50
270.0
  0
MTEXT
  5
175CE
330
16BD7
100
AcDbEntity
  8
寸法
 62
     7
 48
50.0
100
AcDbMText
 10
8466.667899767813
 20
3380.54477816274
 30
0.0
 40
120.0
 41
0.0
 71
     5
 72
     1
  1
\A1;有効開口部高サ1725
  7
STYLE1
 11
0.0000000000000001
 21
1.0
 31
0.0
 73
     1
 44
1.0
1001
ACAD
1000
MTEXTBEGIN
1070
    73
1070
     1
1070
    44
1040
1.0
1070
    74
1070
     0
1000
MTEXTEND
  0
POINT
  5
175CF
330
16BD7
100
AcDbEntity
  8
DEFPOINTS
 62
     0
 48
50.0
100
AcDbPoint
 10
8865.885740003587
 20
4251.911759145214
 30
0.0
  0
POINT
  5
175D0
330
16BD7
100
AcDbEntity
  8
DEFPOINTS
 62
     0
 48
50.0
100
AcDbPoint
 10
8865.885740003587
 20
2526.911759145215
 30
0.0
  0
POINT
  5
175D1
330
16BD7
100
AcDbEntity
  8
DEFPOINTS
 62
     0
 48
50.0
100
AcDbPoint
 10
8566.679710791435
 20
2526.911759145215
 30
0.0
  0
ENDBLK
  5
16BE2
330
16BD7
100
AcDbEntity
  8
0
 48
50.0
100
AcDbBlockEnd
  0
BLOCK
  5
16BFB
330
16BEF
100
AcDbEntity
  8
0
 48
50.0
100
AcDbBlockBegin
  2
*D10
 70
     1
 10
0.0
 20
0.0
 30
0.0
  3
*D10
  1

  0
LINE
  5
17C8B
330
16BEF
100
AcDbEntity
  8
寸法
 62
     0
 48
50.0
370
    -2
100
AcDbLine
 10
10227.88574000349
 20
7494.396791057427
 30
0.0
 11
10915.3120857379
 21
7494.396791057427
 31
0.0
  0
LINE
  5
17C8C
330
16BEF
100
AcDbEntity
  8
寸法
 62
     0
 48
50.0
370
    -2
100
AcDbLine
 10
10227.88574000349
 20
7439.396791057432
 30
0.0
 11
10915.3120857379
 21
7439.39679105743
 31
0.0
  0
LINE
  5
17C8D
330
16BEF
100
AcDbEntity
  8
寸法
 62
     0
 48
50.0
370
    -2
100
AcDbLine
 10
10855.3120857379
 20
7494.396791057427
 30
0.0
 11
10855.3120857379
 21
7594.396791057427
 31
0.0
  0
LINE
  5
17C8E
330
16BEF
100
AcDbEntity
  8
寸法
 62
     0
 48
50.0
370
    -2
100
AcDbLine
 10
10855.3120857379
 20
7439.39679105743
 30
0.0
 11
10855.3120857379
 21
7022.42622830895
 31
0.0
  0
LINE
  5
17C8F
330
16BEF
100
AcDbEntity
  8
寸法
 62
     0
 48
50.0
370
    -2
100
AcDbLine
 10
10855.3120857379
 20
7494.396791057427
 30
0.0
 11
10855.3120857379
 21
7439.39679105743
 31
0.0
  0
INSERT
  5
17C90
330
16BEF
100
AcDbEntity
  8
寸法
 62
     0
 48
50.0
370
    -2
100
AcDbBlockReference
  2
_DOTSMALL
 10
10855.3120857379
 20
7494.396791057427
 30
0.0
 41
100.0
 42
100.0
 43
100.0
 50
270.0
  0
INSERT
  5
17C91
330
16BEF
100
AcDbEntity
  8
寸法
 62
     0
 48
50.0
370
    -2
100
AcDbBlockReference
  2
_DOTSMALL
 10
10855.3120857379
 20
7439.39679105743
 30
0.0
 41
100.0
 42
100.0
 43
100.0
 50
90.0
  0
MTEXT
  5
17C92
330
16BEF
100
AcDbEntity
  8
寸法
 62
     7
 48
50.0
100
AcDbMText
 10
10755.3120857379
 20
7130.911509683191
 30
0.0
 40
120.0
 41
0.0
 71
     5
 72
     1
  1
\A1;55
  7
STYLE1
 11
0.0000000000000001
 21
1.0
 31
0.0
 73
     1
 44
1.0
1001
ACAD
1000
MTEXTBEGIN
1070
    73
1070
     1
1070
    44
1040
1.0
1070
    74
1070
     0
1000
MTEXTEND
  0
POINT
  5
17C93
330
16BEF
100
AcDbEntity
  8
DEFPOINTS
 62
     0
 48
50.0
100
AcDbPoint
 10
10207.88574000349
 20
7494.396791057427
 30
0.0
  0
POINT
  5
17C94
330
16BEF
100
AcDbEntity
  8
DEFPOINTS
 62
     0
 48
50.0
100
AcDbPoint
 10
10207.88574000349
 20
7439.396791057432
 30
0.0
  0
POINT
  5
17C95
330
16BEF
100
AcDbEntity
  8
DEFPOINTS
 62
     0
 48
50.0
100
AcDbPoint
 10
10855.3120857379
 20
7439.39679105743
 30
0.0
  0
ENDBLK
  5
16BFC
330
16BEF
100
AcDbEntity
  8
0
 48
50.0
100
AcDbBlockEnd
  0
BLOCK
  5
16C07
330
16BFD
100
AcDbEntity
  8
0
 48
50.0
100
AcDbBlockBegin
  2
*D11
 70
     1
 10
0.0
 20
0.0
 30
0.0
  3
*D11
  1

  0
LINE
  5
17C82
330
16BFD
100
AcDbEntity
  8
寸法
 62
     0
 48
50.0
370
    -2
100
AcDbLine
 10
10227.88574000352
 20
9229.396791057441
 30
0.0
 11
11183.7506170384
 21
9229.396791057441
 31
0.0
  0
LINE
  5
17C83
330
16BFD
100
AcDbEntity
  8
寸法
 62
     0
 48
50.0
370
    -2
100
AcDbLine
 10
10227.88574000349
 20
7439.396791057432
 30
0.0
 11
11183.7506170384
 21
7439.39679105743
 31
0.0
  0
LINE
  5
17C84
330
16BFD
100
AcDbEntity
  8
寸法
 62
     0
 48
50.0
370
    -2
100
AcDbLine
 10
11123.7506170384
 20
9229.396791057441
 30
0.0
 11
11123.7506170384
 21
7439.39679105743
 31
0.0
  0
INSERT
  5
17C85
330
16BFD
100
AcDbEntity
  8
寸法
 62
     0
 48
50.0
370
    -2
100
AcDbBlockReference
  2
_DOTSMALL
 10
11123.7506170384
 20
9229.396791057441
 30
0.0
 41
100.0
 42
100.0
 43
100.0
 50
90.0
  0
INSERT
  5
17C86
330
16BFD
100
AcDbEntity
  8
寸法
 62
     0
 48
50.0
370
    -2
100
AcDbBlockReference
  2
_DOTSMALL
 10
11123.7506170384
 20
7439.39679105743
 30
0.0
 41
100.0
 42
100.0
 43
100.0
 50
270.0
  0
MTEXT
  5
17C87
330
16BFD
100
AcDbEntity
  8
寸法
 62
     7
 48
50.0
100
AcDbMText
 10
11023.7506170384
 20
8334.396791057434
 30
0.0
 40
120.0
 41
0.0
 71
     5
 72
     1
  1
\A1;1790
  7
STYLE1
 11
0.0000000000000001
 21
1.0
 31
0.0
 73
     1
 44
1.0
1001
ACAD
1000
MTEXTBEGIN
1070
    73
1070
     1
1070
    44
1040
1.0
1070
    74
1070
     0
1000
MTEXTEND
  0
POINT
  5
17C88
330
16BFD
100
AcDbEntity
  8
DEFPOINTS
 62
     0
 48
50.0
100
AcDbPoint
 10
10207.88574000352
 20
9229.396791057441
 30
0.0
  0
POINT
  5
17C89
330
16BFD
100
AcDbEntity
  8
DEFPOINTS
 62
     0
 48
50.0
100
AcDbPoint
 10
10207.88574000349
 20
7439.396791057432
 30
0.0
  0
POINT
  5
17C8A
330
16BFD
100
AcDbEntity
  8
DEFPOINTS
 62
     0
 48
50.0
100
AcDbPoint
 10
11123.7506170384
 20
7439.39679105743
 30
0.0
  0
ENDBLK
  5
16C08
330
16BFD
100
AcDbEntity
  8
0
 48
50.0
100
AcDbBlockEnd
  0
BLOCK
  5
16C15
330
16C09
100
AcDbEntity
  8
0
 48
50.0
100
AcDbBlockBegin
  2
*D12
 70
     1
 10
0.0
 20
0.0
 30
0.0
  3
*D12
  1

  0
LINE
  5
17C77
330
16C09
100
AcDbEntity
  8
寸法
 62
     0
 48
50.0
370
    -2
100
AcDbLine
 10
10227.88574000352
 20
9229.396791057441
 30
0.0
 11
10915.31208573793
 21
9229.396791057441
 31
0.0
  0
LINE
  5
17C78
330
16C09
100
AcDbEntity
  8
寸法
 62
     0
 48
50.0
370
    -2
100
AcDbLine
 10
10227.88574000352
 20
9174.396791057445
 30
0.0
 11
10915.31208573793
 21
9174.396791057445
 31
0.0
  0
LINE
  5
17C79
330
16C09
100
AcDbEntity
  8
寸法
 62
     0
 48
50.0
370
    -2
100
AcDbLine
 10
10855.31208573793
 20
9174.396791057445
 30
0.0
 11
10855.31208573793
 21
9074.396791057445
 31
0.0
  0
LINE
  5
17C7A
330
16C09
100
AcDbEntity
  8
寸法
 62
     0
 48
50.0
370
    -2
100
AcDbLine
 10
10855.31208573793
 20
9229.396791057441
 30
0.0
 11
10855.31208573793
 21
9646.367353805919
 31
0.0
  0
LINE
  5
17C7B
330
16C09
100
AcDbEntity
  8
寸法
 62
     0
 48
50.0
370
    -2
100
AcDbLine
 10
10855.31208573793
 20
9174.396791057445
 30
0.0
 11
10855.31208573793
 21
9229.396791057441
 31
0.0
  0
INSERT
  5
17C7C
330
16C09
100
AcDbEntity
  8
寸法
 62
     0
 48
50.0
370
    -2
100
AcDbBlockReference
  2
_DOTSMALL
 10
10855.31208573793
 20
9174.396791057445
 30
0.0
 41
100.0
 42
100.0
 43
100.0
 50
90.0
  0
INSERT
  5
17C7D
330
16C09
100
AcDbEntity
  8
寸法
 62
     0
 48
50.0
370
    -2
100
AcDbBlockReference
  2
_DOTSMALL
 10
10855.31208573793
 20
9229.396791057441
 30
0.0
 41
100.0
 42
100.0
 43
100.0
 50
270.0
  0
MTEXT
  5
17C7E
330
16C09
100
AcDbEntity
  8
寸法
 62
     7
 48
50.0
100
AcDbMText
 10
10755.31208573793
 20
9537.882072431681
 30
0.0
 40
120.0
 41
0.0
 71
     5
 72
     1
  1
\A1;55
  7
STYLE1
 11
0.0000000000000001
 21
1.0
 31
0.0
 73
     1
 44
1.0
1001
ACAD
1000
MTEXTBEGIN
1070
    73
1070
     1
1070
    44
1040
1.0
1070
    74
1070
     0
1000
MTEXTEND
  0
POINT
  5
17C7F
330
16C09
100
AcDbEntity
  8
DEFPOINTS
 62
     0
 48
50.0
100
AcDbPoint
 10
10207.88574000352
 20
9229.396791057441
 30
0.0
  0
POINT
  5
17C80
330
16C09
100
AcDbEntity
  8
DEFPOINTS
 62
     0
 48
50.0
100
AcDbPoint
 10
10207.88574000352
 20
9174.396791057445
 30
0.0
  0
POINT
  5
17C81
330
16C09
100
AcDbEntity
  8
DEFPOINTS
 62
     0
 48
50.0
100
AcDbPoint
 10
10855.31208573793
 20
9174.396791057445
 30
0.0
  0
ENDBLK
  5
16C16
330
16C09
100
AcDbEntity
  8
0
 48
50.0
100
AcDbBlockEnd
  0
BLOCK
  5
16C21
330
16C17
100
AcDbEntity
  8
0
 48
50.0
100
AcDbBlockBegin
  2
*D13
 70
     1
 10
0.0
 20
0.0
 30
0.0
  3
*D13
  1

  0
LINE
  5
17C6E
330
16C17
100
AcDbEntity
  8
寸法
 62
     0
 48
50.0
370
    -2
100
AcDbLine
 10
10227.88574000352
 20
9174.396791057445
 30
0.0
 11
10915.31208573793
 21
9174.396791057445
 31
0.0
  0
LINE
  5
17C6F
330
16C17
100
AcDbEntity
  8
寸法
 62
     0
 48
50.0
370
    -2
100
AcDbLine
 10
10227.88574000349
 20
7494.396791057427
 30
0.0
 11
10915.31208573793
 21
7494.396791057427
 31
0.0
  0
LINE
  5
17C70
330
16C17
100
AcDbEntity
  8
寸法
 62
     0
 48
50.0
370
    -2
100
AcDbLine
 10
10855.31208573793
 20
9174.396791057445
 30
0.0
 11
10855.31208573793
 21
7494.396791057427
 31
0.0
  0
INSERT
  5
17C71
330
16C17
100
AcDbEntity
  8
寸法
 62
     0
 48
50.0
370
    -2
100
AcDbBlockReference
  2
_DOTSMALL
 10
10855.31208573793
 20
9174.396791057445
 30
0.0
 41
100.0
 42
100.0
 43
100.0
 50
90.0
  0
INSERT
  5
17C72
330
16C17
100
AcDbEntity
  8
寸法
 62
     0
 48
50.0
370
    -2
100
AcDbBlockReference
  2
_DOTSMALL
 10
10855.31208573793
 20
7494.396791057427
 30
0.0
 41
100.0
 42
100.0
 43
100.0
 50
270.0
  0
MTEXT
  5
17C73
330
16C17
100
AcDbEntity
  8
寸法
 62
     7
 48
50.0
100
AcDbMText
 10
10755.30027471431
 20
8334.396791057434
 30
0.0
 40
120.0
 41
0.0
 71
     5
 72
     1
  1
\A1;4X420=1680
  7
STYLE1
 11
0.0000000000000001
 21
1.0
 31
0.0
 73
     1
 44
1.0
1001
ACAD
1000
MTEXTBEGIN
1070
    73
1070
     1
1070
    44
1040
1.0
1070
    74
1070
     0
1000
MTEXTEND
  0
POINT
  5
17C74
330
16C17
100
AcDbEntity
  8
DEFPOINTS
 62
     0
 48
50.0
100
AcDbPoint
 10
10207.88574000352
 20
9174.396791057445
 30
0.0
  0
POINT
  5
17C75
330
16C17
100
AcDbEntity
  8
DEFPOINTS
 62
     0
 48
50.0
100
AcDbPoint
 10
10207.88574000349
 20
7494.396791057427
 30
0.0
  0
POINT
  5
17C76
330
16C17
100
AcDbEntity
  8
DEFPOINTS
 62
     0
 48
50.0
100
AcDbPoint
 10
10855.31208573793
 20
7494.396791057427
 30
0.0
  0
ENDBLK
  5
16C22
330
16C17
100
AcDbEntity
  8
0
 48
50.0
100
AcDbBlockEnd
  0
BLOCK
  5
16C2D
330
16C23
100
AcDbEntity
  8
0
 48
50.0
100
AcDbBlockBegin
  2
*D14
 70
     1
 10
0.0
 20
0.0
 30
0.0
  3
*D14
  1

  0
LINE
  5
17C65
330
16C23
100
AcDbEntity
  8
寸法
 62
     0
 48
50.0
370
    -2
100
AcDbLine
 10
10197.88574000359
 20
8315.537807208809
 30
0.0
 11
10650.06894740422
 21
8194.375681954896
 31
0.0
  0
LINE
  5
17C66
330
16C23
100
AcDbEntity
  8
寸法
 62
     0
 48
50.0
370
    -2
100
AcDbLine
 10
10197.88574000349
 20
7462.537807208808
 30
0.0
 11
10650.06894740422
 21
7341.375681954867
 31
0.0
  0
LINE
  5
17C67
330
16C23
100
AcDbEntity
  8
寸法
 62
     0
 48
50.0
370
    -2
100
AcDbLine
 10
10590.06894740422
 20
8210.452633500763
 30
0.0
 11
10590.06894740422
 21
7357.452633500734
 31
0.0
  0
INSERT
  5
17C68
330
16C23
100
AcDbEntity
  8
寸法
 62
     0
 48
50.0
370
    -2
100
AcDbBlockReference
  2
_DOTSMALL
 10
10590.06894740422
 20
8210.452633500763
 30
0.0
 41
100.0
 42
100.0
 43
100.0
 50
90.0
  0
INSERT
  5
17C69
330
16C23
100
AcDbEntity
  8
寸法
 62
     0
 48
50.0
370
    -2
100
AcDbBlockReference
  2
_DOTSMALL
 10
10590.06894740422
 20
7357.452633500734
 30
0.0
 41
100.0
 42
100.0
 43
100.0
 50
270.0
  0
MTEXT
  5
17C6A
330
16C23
100
AcDbEntity
  8
寸法
 62
     7
 48
50.0
100
AcDbMText
 10
10490.06894740421
 20
7822.303498861559
 30
0.0
 40
120.0
 41
0.0
 71
     5
 72
     1
  1
\A1;853
  7
STYLE1
 11
0.0000000000000001
 21
1.0
 31
0.0
 73
     1
 44
1.0
1001
ACAD
1000
MTEXTBEGIN
1070
    73
1070
     1
1070
    44
1040
1.0
1070
    74
1070
     0
1000
MTEXTEND
  0
POINT
  5
17C6B
330
16C23
100
AcDbEntity
  8
DEFPOINTS
 62
     0
 48
50.0
100
AcDbPoint
 10
10177.88574000359
 20
8320.89679105743
 30
0.0
  0
POINT
  5
17C6C
330
16C23
100
AcDbEntity
  8
DEFPOINTS
 62
     0
 48
50.0
100
AcDbPoint
 10
10177.88574000349
 20
7467.896791057431
 30
0.0
  0
POINT
  5
17C6D
330
16C23
100
AcDbEntity
  8
DEFPOINTS
 62
     0
 48
50.0
100
AcDbPoint
 10
10590.06894740422
 20
7357.452633500734
 30
0.0
  0
ENDBLK
  5
16C2E
330
16C23
100
AcDbEntity
  8
0
 48
50.0
100
AcDbBlockEnd
  0
BLOCK
  5
16C39
330
16C2F
100
AcDbEntity
  8
0
 48
50.0
100
AcDbBlockBegin
  2
*D15
 70
     1
 10
0.0
 20
0.0
 30
0.0
  3
*D15
  1

  0
LINE
  5
17C5C
330
16C2F
100
AcDbEntity
  8
寸法
 62
     0
 48
50.0
370
    -2
100
AcDbLine
 10
10197.88574000359
 20
9195.537807208813
 30
0.0
 11
10650.06894740422
 21
9074.375681954895
 31
0.0
  0
LINE
  5
17C5D
330
16C2F
100
AcDbEntity
  8
寸法
 62
     0
 48
50.0
370
    -2
100
AcDbLine
 10
10197.88574000359
 20
8342.537807208801
 30
0.0
 11
10650.06894740422
 21
8221.375681954887
 31
0.0
  0
LINE
  5
17C5E
330
16C2F
100
AcDbEntity
  8
寸法
 62
     0
 48
50.0
370
    -2
100
AcDbLine
 10
10590.06894740422
 20
9090.452633500765
 30
0.0
 11
10590.06894740422
 21
8237.452633500756
 31
0.0
  0
INSERT
  5
17C5F
330
16C2F
100
AcDbEntity
  8
寸法
 62
     0
 48
50.0
370
    -2
100
AcDbBlockReference
  2
_DOTSMALL
 10
10590.06894740422
 20
9090.452633500765
 30
0.0
 41
100.0
 42
100.0
 43
100.0
 50
90.0
  0
INSERT
  5
17C60
330
16C2F
100
AcDbEntity
  8
寸法
 62
     0
 48
50.0
370
    -2
100
AcDbBlockReference
  2
_DOTSMALL
 10
10590.06894740422
 20
8237.452633500756
 30
0.0
 41
100.0
 42
100.0
 43
100.0
 50
270.0
  0
MTEXT
  5
17C61
330
16C2F
100
AcDbEntity
  8
寸法
 62
     7
 48
50.0
100
AcDbMText
 10
10490.06894740422
 20
8668.053498861571
 30
0.0
 40
120.0
 41
0.0
 71
     5
 72
     1
  1
\A1;853
  7
STYLE1
 11
0.0000000000000001
 21
1.0
 31
0.0
 73
     1
 44
1.0
1001
ACAD
1000
MTEXTBEGIN
1070
    73
1070
     1
1070
    44
1040
1.0
1070
    74
1070
     0
1000
MTEXTEND
  0
POINT
  5
17C62
330
16C2F
100
AcDbEntity
  8
DEFPOINTS
 62
     0
 48
50.0
100
AcDbPoint
 10
10177.88574000359
 20
9200.896791057434
 30
0.0
  0
POINT
  5
17C63
330
16C2F
100
AcDbEntity
  8
DEFPOINTS
 62
     0
 48
50.0
100
AcDbPoint
 10
10177.88574000359
 20
8347.896791057422
 30
0.0
  0
POINT
  5
17C64
330
16C2F
100
AcDbEntity
  8
DEFPOINTS
 62
     0
 48
50.0
100
AcDbPoint
 10
10590.06894740422
 20
8237.452633500756
 30
0.0
  0
ENDBLK
  5
16C3A
330
16C2F
100
AcDbEntity
  8
0
 48
50.0
100
AcDbBlockEnd
  0
BLOCK
  5
16C45
330
16C3B
100
AcDbEntity
  8
0
 48
50.0
100
AcDbBlockBegin
  2
*D16
 70
     1
 10
0.0
 20
0.0
 30
0.0
  3
*D16
  1

  0
LINE
  5
1757D
330
16C3B
100
AcDbEntity
  8
寸法
 62
     0
 48
50.0
370
    -2
100
AcDbLine
 10
8927.885740003571
 20
2148.911759145215
 30
0.0
 11
8927.885740003571
 21
1822.864429844838
 31
0.0
  0
LINE
  5
1757E
330
16C3B
100
AcDbEntity
  8
寸法
 62
     0
 48
50.0
370
    -2
100
AcDbLine
 10
8727.88574000357
 20
2148.911759145215
 30
0.0
 11
8727.88574000357
 21
1822.864429844838
 31
0.0
  0
LINE
  5
1757F
330
16C3B
100
AcDbEntity
  8
寸法
 62
     0
 48
50.0
370
    -2
100
AcDbLine
 10
8927.885740003571
 20
1882.864429844838
 30
0.0
 11
8727.88574000357
 21
1882.864429844838
 31
0.0
  0
INSERT
  5
17580
330
16C3B
100
AcDbEntity
  8
寸法
 62
     0
 48
50.0
370
    -2
100
AcDbBlockReference
  2
_DOTSMALL
 10
8927.885740003571
 20
1882.864429844838
 30
0.0
 41
100.0
 42
100.0
 43
100.0
  0
INSERT
  5
17581
330
16C3B
100
AcDbEntity
  8
寸法
 62
     0
 48
50.0
370
    -2
100
AcDbBlockReference
  2
_DOTSMALL
 10
8727.88574000357
 20
1882.864429844838
 30
0.0
 41
100.0
 42
100.0
 43
100.0
 50
180.0
  0
MTEXT
  5
17582
330
16C3B
100
AcDbEntity
  8
寸法
 62
     7
 48
50.0
100
AcDbMText
 10
8827.885740003571
 20
1982.87624086846
 30
0.0
 40
120.0
 41
0.0
 71
     5
 72
     1
  1
\A1;200
  7
STYLE1
 73
     1
 44
1.0
1001
ACAD
1000
MTEXTBEGIN
1070
    73
1070
     1
1070
    44
1040
1.0
1070
    74
1070
     0
1000
MTEXTEND
  0
POINT
  5
17583
330
16C3B
100
AcDbEntity
  8
DEFPOINTS
 62
     0
 48
50.0
100
AcDbPoint
 10
8927.885740003571
 20
2168.911759145215
 30
0.0
  0
POINT
  5
17584
330
16C3B
100
AcDbEntity
  8
DEFPOINTS
 62
     0
 48
50.0
100
AcDbPoint
 10
8727.88574000357
 20
2168.911759145215
 30
0.0
  0
POINT
  5
17585
330
16C3B
100
AcDbEntity
  8
DEFPOINTS
 62
     0
 48
50.0
100
AcDbPoint
 10
8727.88574000357
 20
1882.864429844838
 30
0.0
  0
ENDBLK
  5
16C46
330
16C3B
100
AcDbEntity
  8
0
 48
50.0
100
AcDbBlockEnd
  0
BLOCK
  5
16C51
330
16C47
100
AcDbEntity
  8
0
 48
50.0
100
AcDbBlockBegin
  2
*D17
 70
     1
 10
0.0
 20
0.0
 30
0.0
  3
*D17
  1

  0
LINE
  5
17C53
330
16C47
100
AcDbEntity
  8
寸法
 62
     0
 48
50.0
370
    -2
100
AcDbLine
 10
8892.885740003576
 20
9249.396791057433
 30
0.0
 11
8892.885740003576
 21
9936.823136791844
 31
0.0
  0
LINE
  5
17C54
330
16C47
100
AcDbEntity
  8
寸法
 62
     0
 48
50.0
370
    -2
100
AcDbLine
 10
10152.88574000359
 20
9249.396791057408
 30
0.0
 11
10152.88574000359
 21
9936.823136791844
 31
0.0
  0
LINE
  5
17C55
330
16C47
100
AcDbEntity
  8
寸法
 62
     0
 48
50.0
370
    -2
100
AcDbLine
 10
8892.885740003576
 20
9876.823136791843
 30
0.0
 11
10152.88574000359
 21
9876.823136791843
 31
0.0
  0
INSERT
  5
17C56
330
16C47
100
AcDbEntity
  8
寸法
 62
     0
 48
50.0
370
    -2
100
AcDbBlockReference
  2
_DOTSMALL
 10
8892.885740003576
 20
9876.823136791843
 30
0.0
 41
100.0
 42
100.0
 43
100.0
 50
180.0
  0
INSERT
  5
17C57
330
16C47
100
AcDbEntity
  8
寸法
 62
     0
 48
50.0
370
    -2
100
AcDbBlockReference
  2
_DOTSMALL
 10
10152.88574000359
 20
9876.823136791843
 30
0.0
 41
100.0
 42
100.0
 43
100.0
  0
MTEXT
  5
17C58
330
16C47
100
AcDbEntity
  8
寸法
 62
     7
 48
50.0
100
AcDbMText
 10
9522.885740003586
 20
9976.834947815465
 30
0.0
 40
120.0
 41
0.0
 71
     5
 72
     1
  1
\A1;3X420=1260
  7
STYLE1
 73
     1
 44
1.0
1001
ACAD
1000
MTEXTBEGIN
1070
    73
1070
     1
1070
    44
1040
1.0
1070
    74
1070
     0
1000
MTEXTEND
  0
POINT
  5
17C59
330
16C47
100
AcDbEntity
  8
DEFPOINTS
 62
     0
 48
50.0
100
AcDbPoint
 10
8892.885740003576
 20
9229.396791057434
 30
0.0
  0
POINT
  5
17C5A
330
16C47
100
AcDbEntity
  8
DEFPOINTS
 62
     0
 48
50.0
100
AcDbPoint
 10
10152.88574000359
 20
9229.396791057409
 30
0.0
  0
POINT
  5
17C5B
330
16C47
100
AcDbEntity
  8
DEFPOINTS
 62
     0
 48
50.0
100
AcDbPoint
 10
10152.88574000359
 20
9876.823136791843
 30
0.0
  0
ENDBLK
  5
16C52
330
16C47
100
AcDbEntity
  8
0
 48
50.0
100
AcDbBlockEnd
  0
BLOCK
  5
16C5F
330
16C53
100
AcDbEntity
  8
0
 48
50.0
100
AcDbBlockBegin
  2
*D18
 70
     1
 10
0.0
 20
0.0
 30
0.0
  3
*D18
  1

  0
LINE
  5
17C48
330
16C53
100
AcDbEntity
  8
寸法
 62
     0
 48
50.0
370
    -2
100
AcDbLine
 10
10152.88574000359
 20
9249.396791057408
 30
0.0
 11
10152.88574000359
 21
9936.823136791819
 31
0.0
  0
LINE
  5
17C49
330
16C53
100
AcDbEntity
  8
寸法
 62
     0
 48
50.0
370
    -2
100
AcDbLine
 10
10207.88574000359
 20
9249.396791057408
 30
0.0
 11
10207.88574000359
 21
9936.823136791819
 31
0.0
  0
LINE
  5
17C4A
330
16C53
100
AcDbEntity
  8
寸法
 62
     0
 48
50.0
370
    -2
100
AcDbLine
 10
10152.88574000359
 20
9876.823136791818
 30
0.0
 11
10052.88574000359
 21
9876.823136791818
 31
0.0
  0
LINE
  5
17C4B
330
16C53
100
AcDbEntity
  8
寸法
 62
     0
 48
50.0
370
    -2
100
AcDbLine
 10
10207.88574000359
 20
9876.823136791818
 30
0.0
 11
10694.23248828269
 21
9876.823136791818
 31
0.0
  0
LINE
  5
17C4C
330
16C53
100
AcDbEntity
  8
寸法
 62
     0
 48
50.0
370
    -2
100
AcDbLine
 10
10152.88574000359
 20
9876.823136791818
 30
0.0
 11
10207.88574000359
 21
9876.823136791818
 31
0.0
  0
INSERT
  5
17C4D
330
16C53
100
AcDbEntity
  8
寸法
 62
     0
 48
50.0
370
    -2
100
AcDbBlockReference
  2
_DOTSMALL
 10
10152.88574000359
 20
9876.823136791818
 30
0.0
 41
100.0
 42
100.0
 43
100.0
  0
INSERT
  5
17C4E
330
16C53
100
AcDbEntity
  8
寸法
 62
     0
 48
50.0
370
    -2
100
AcDbBlockReference
  2
_DOTSMALL
 10
10207.88574000359
 20
9876.823136791818
 30
0.0
 41
100.0
 42
100.0
 43
100.0
 50
180.0
  0
MTEXT
  5
17C4F
330
16C53
100
AcDbEntity
  8
寸法
 62
     7
 48
50.0
100
AcDbMText
 10
10585.74720690845
 20
9976.823136791818
 30
0.0
 40
120.0
 41
0.0
 71
     5
 72
     1
  1
\A1;55
  7
STYLE1
 73
     1
 44
1.0
1001
ACAD
1000
MTEXTBEGIN
1070
    73
1070
     1
1070
    44
1040
1.0
1070
    74
1070
     0
1000
MTEXTEND
  0
POINT
  5
17C50
330
16C53
100
AcDbEntity
  8
DEFPOINTS
 62
     0
 48
50.0
100
AcDbPoint
 10
10152.88574000359
 20
9229.396791057409
 30
0.0
  0
POINT
  5
17C51
330
16C53
100
AcDbEntity
  8
DEFPOINTS
 62
     0
 48
50.0
100
AcDbPoint
 10
10207.88574000359
 20
9229.396791057409
 30
0.0
  0
POINT
  5
17C52
330
16C53
100
AcDbEntity
  8
DEFPOINTS
 62
     0
 48
50.0
100
AcDbPoint
 10
10207.88574000359
 20
9876.823136791818
 30
0.0
  0
ENDBLK
  5
16C60
330
16C53
100
AcDbEntity
  8
0
 48
50.0
100
AcDbBlockEnd
  0
BLOCK
  5
16C6B
330
16C61
100
AcDbEntity
  8
0
 48
50.0
100
AcDbBlockBegin
  2
*D19
 70
     1
 10
0.0
 20
0.0
 30
0.0
  3
*D19
  1

  0
LINE
  5
17C3F
330
16C61
100
AcDbEntity
  8
寸法
 62
     0
 48
50.0
370
    -2
100
AcDbLine
 10
10172.52675615496
 20
9220.896791057434
 30
0.0
 11
10066.59097278883
 21
9616.254516919459
 31
0.0
  0
LINE
  5
17C40
330
16C61
100
AcDbEntity
  8
寸法
 62
     0
 48
50.0
370
    -2
100
AcDbLine
 10
9722.526756154969
 20
9220.896791057434
 30
0.0
 11
9616.590972788834
 21
9616.254516919459
 31
0.0
  0
LINE
  5
17C41
330
16C61
100
AcDbEntity
  8
寸法
 62
     0
 48
50.0
370
    -2
100
AcDbLine
 10
10082.6679243347
 20
9556.254516919457
 30
0.0
 11
9632.667924334702
 21
9556.254516919457
 31
0.0
  0
INSERT
  5
17C42
330
16C61
100
AcDbEntity
  8
寸法
 62
     0
 48
50.0
370
    -2
100
AcDbBlockReference
  2
_DOTSMALL
 10
10082.6679243347
 20
9556.254516919457
 30
0.0
 41
100.0
 42
100.0
 43
100.0
  0
INSERT
  5
17C43
330
16C61
100
AcDbEntity
  8
寸法
 62
     0
 48
50.0
370
    -2
100
AcDbBlockReference
  2
_DOTSMALL
 10
9632.667924334702
 20
9556.254516919457
 30
0.0
 41
100.0
 42
100.0
 43
100.0
 50
180.0
  0
MTEXT
  5
17C44
330
16C61
100
AcDbEntity
  8
寸法
 62
     7
 48
50.0
100
AcDbMText
 10
9857.667924334698
 20
9656.254516919458
 30
0.0
 40
120.0
 41
0.0
 71
     5
 72
     1
  1
\A1;450
  7
STYLE1
 73
     1
 44
1.0
1001
ACAD
1000
MTEXTBEGIN
1070
    73
1070
     1
1070
    44
1040
1.0
1070
    74
1070
     0
1000
MTEXTEND
  0
POINT
  5
17C45
330
16C61
100
AcDbEntity
  8
DEFPOINTS
 62
     0
 48
50.0
100
AcDbPoint
 10
10177.88574000359
 20
9200.896791057434
 30
0.0
  0
POINT
  5
17C46
330
16C61
100
AcDbEntity
  8
DEFPOINTS
 62
     0
 48
50.0
100
AcDbPoint
 10
9727.885740003591
 20
9200.896791057434
 30
0.0
  0
POINT
  5
17C47
330
16C61
100
AcDbEntity
  8
DEFPOINTS
 62
     0
 48
50.0
100
AcDbPoint
 10
9632.667924334702
 20
9556.254516919457
 30
0.0
  0
ENDBLK
  5
16C6C
330
16C61
100
AcDbEntity
  8
0
 48
50.0
100
AcDbBlockEnd
  0
BLOCK
  5
16C79
330
16C6D
100
AcDbEntity
  8
0
 48
50.0
100
AcDbBlockBegin
  2
*D20
 70
     1
 10
0.0
 20
0.0
 30
0.0
  3
*D20
  1

  0
LINE
  5
17C34
330
16C6D
100
AcDbEntity
  8
寸法
 62
     0
 48
50.0
370
    -2
100
AcDbLine
 10
8837.88574000358
 20
9249.396791057433
 30
0.0
 11
8837.88574000358
 21
9936.823136791844
 31
0.0
  0
LINE
  5
17C35
330
16C6D
100
AcDbEntity
  8
寸法
 62
     0
 48
50.0
370
    -2
100
AcDbLine
 10
8892.885740003576
 20
9249.396791057433
 30
0.0
 11
8892.885740003576
 21
9936.823136791844
 31
0.0
  0
LINE
  5
17C36
330
16C6D
100
AcDbEntity
  8
寸法
 62
     0
 48
50.0
370
    -2
100
AcDbLine
 10
8892.885740003576
 20
9876.823136791843
 30
0.0
 11
8992.885740003577
 21
9876.823136791843
 31
0.0
  0
LINE
  5
17C37
330
16C6D
100
AcDbEntity
  8
寸法
 62
     0
 48
50.0
370
    -2
100
AcDbLine
 10
8837.88574000358
 20
9876.823136791843
 30
0.0
 11
8420.915177255103
 21
9876.823136791843
 31
0.0
  0
LINE
  5
17C38
330
16C6D
100
AcDbEntity
  8
寸法
 62
     0
 48
50.0
370
    -2
100
AcDbLine
 10
8892.885740003576
 20
9876.823136791843
 30
0.0
 11
8837.88574000358
 21
9876.823136791843
 31
0.0
  0
INSERT
  5
17C39
330
16C6D
100
AcDbEntity
  8
寸法
 62
     0
 48
50.0
370
    -2
100
AcDbBlockReference
  2
_DOTSMALL
 10
8892.885740003576
 20
9876.823136791843
 30
0.0
 41
100.0
 42
100.0
 43
100.0
 50
180.0
  0
INSERT
  5
17C3A
330
16C6D
100
AcDbEntity
  8
寸法
 62
     0
 48
50.0
370
    -2
100
AcDbBlockReference
  2
_DOTSMALL
 10
8837.88574000358
 20
9876.823136791843
 30
0.0
 41
100.0
 42
100.0
 43
100.0
  0
MTEXT
  5
17C3B
330
16C6D
100
AcDbEntity
  8
寸法
 62
     7
 48
50.0
100
AcDbMText
 10
8529.400458629341
 20
9976.823136791843
 30
0.0
 40
120.0
 41
0.0
 71
     5
 72
     1
  1
\A1;55
  7
STYLE1
 73
     1
 44
1.0
1001
ACAD
1000
MTEXTBEGIN
1070
    73
1070
     1
1070
    44
1040
1.0
1070
    74
1070
     0
1000
MTEXTEND
  0
POINT
  5
17C3C
330
16C6D
100
AcDbEntity
  8
DEFPOINTS
 62
     0
 48
50.0
100
AcDbPoint
 10
8837.88574000358
 20
9229.396791057434
 30
0.0
  0
POINT
  5
17C3D
330
16C6D
100
AcDbEntity
  8
DEFPOINTS
 62
     0
 48
50.0
100
AcDbPoint
 10
8892.885740003576
 20
9229.396791057434
 30
0.0
  0
POINT
  5
17C3E
330
16C6D
100
AcDbEntity
  8
DEFPOINTS
 62
     0
 48
50.0
100
AcDbPoint
 10
8892.885740003576
 20
9876.823136791843
 30
0.0
  0
ENDBLK
  5
16C7A
330
16C6D
100
AcDbEntity
  8
0
 48
50.0
100
AcDbBlockEnd
  0
BLOCK
  5
1720F
330
17204
100
AcDbEntity
  8
0
 48
50.0
100
AcDbBlockBegin
  2
*D21
 70
     1
 10
0.0
 20
0.0
 30
0.0
  3
*D21
  1

  0
LINE
  5
1754B
330
17204
100
AcDbEntity
  8
寸法
 62
     0
 48
50.0
370
    -2
100
AcDbLine
 10
10207.88574000357
 20
4510.722438756869
 30
0.0
 11
10207.88574000357
 21
5002.56921272452
 31
0.0
  0
LINE
  5
1754C
330
17204
100
AcDbEntity
  8
寸法
 62
     0
 48
50.0
370
    -2
100
AcDbLine
 10
10287.88574000357
 20
4508.911759145217
 30
0.0
 11
10287.88574000357
 21
5002.56921272452
 31
0.0
  0
LINE
  5
1754D
330
17204
100
AcDbEntity
  8
寸法
 62
     0
 48
50.0
370
    -2
100
AcDbLine
 10
10207.88574000357
 20
4942.569212724521
 30
0.0
 11
10287.88574000357
 21
4942.569212724521
 31
0.0
  0
LINE
  5
1754E
330
17204
100
AcDbEntity
  8
寸法
 62
     0
 48
50.0
370
    -2
100
AcDbLine
 10
10287.88574000357
 20
4942.569212724521
 30
0.0
 11
10599.98022819255
 21
4942.569212724521
 31
0.0
  0
INSERT
  5
1754F
330
17204
100
AcDbEntity
  8
寸法
 62
     0
 48
50.0
370
    -2
100
AcDbBlockReference
  2
_DOTSMALL
 10
10207.88574000357
 20
4942.569212724521
 30
0.0
 41
100.0
 42
100.0
 43
100.0
 50
180.0
  0
INSERT
  5
17550
330
17204
100
AcDbEntity
  8
寸法
 62
     0
 48
50.0
370
    -2
100
AcDbBlockReference
  2
_DOTSMALL
 10
10287.88574000357
 20
4942.569212724521
 30
0.0
 41
100.0
 42
100.0
 43
100.0
  0
MTEXT
  5
17551
330
17204
100
AcDbEntity
  8
寸法
 62
     7
 48
50.0
100
AcDbMText
 10
10493.93298409806
 20
5042.56921272452
 30
0.0
 40
120.0
 41
0.0
 71
     5
 72
     1
  1
\A1;80
  7
STYLE1
 73
     1
 44
1.0
1001
ACAD
1000
MTEXTBEGIN
1070
    73
1070
     1
1070
    44
1040
1.0
1070
    74
1070
     0
1000
MTEXTEND
  0
POINT
  5
17552
330
17204
100
AcDbEntity
  8
DEFPOINTS
 62
     0
 48
50.0
100
AcDbPoint
 10
10207.88574000357
 20
4490.722438756869
 30
0.0
  0
POINT
  5
17553
330
17204
100
AcDbEntity
  8
DEFPOINTS
 62
     0
 48
50.0
100
AcDbPoint
 10
10287.88574000357
 20
4488.911759145216
 30
0.0
  0
POINT
  5
17554
330
17204
100
AcDbEntity
  8
DEFPOINTS
 62
     0
 48
50.0
100
AcDbPoint
 10
10287.88574000357
 20
4942.569212724521
 30
0.0
  0
ENDBLK
  5
17210
330
17204
100
AcDbEntity
  8
0
 48
50.0
100
AcDbBlockEnd
  0
BLOCK
  5
1724F
330
17245
100
AcDbEntity
  8
0
 48
50.0
100
AcDbBlockBegin
  2
*D22
 70
     1
 10
0.0
 20
0.0
 30
0.0
  3
*D22
  1

  0
LINE
  5
17542
330
17245
100
AcDbEntity
  8
寸法
 62
     0
 48
50.0
370
    -2
100
AcDbLine
 10
10287.88574000357
 20
4508.911759145217
 30
0.0
 11
10287.88574000357
 21
5210.743533916485
 31
0.0
  0
LINE
  5
17543
330
17245
100
AcDbEntity
  8
寸法
 62
     0
 48
50.0
370
    -2
100
AcDbLine
 10
8777.885740003572
 20
4563.91175914522
 30
0.0
 11
8777.885740003572
 21
5210.743533916485
 31
0.0
  0
LINE
  5
17544
330
17245
100
AcDbEntity
  8
寸法
 62
     0
 48
50.0
370
    -2
100
AcDbLine
 10
10287.88574000357
 20
5150.743533916484
 30
0.0
 11
8777.885740003572
 21
5150.743533916484
 31
0.0
  0
INSERT
  5
17545
330
17245
100
AcDbEntity
  8
寸法
 62
     0
 48
50.0
370
    -2
100
AcDbBlockReference
  2
_DOTSMALL
 10
10287.88574000357
 20
5150.743533916484
 30
0.0
 41
100.0
 42
100.0
 43
100.0
  0
INSERT
  5
17546
330
17245
100
AcDbEntity
  8
寸法
 62
     0
 48
50.0
370
    -2
100
AcDbBlockReference
  2
_DOTSMALL
 10
8777.885740003572
 20
5150.743533916484
 30
0.0
 41
100.0
 42
100.0
 43
100.0
 50
180.0
  0
MTEXT
  5
17547
330
17245
100
AcDbEntity
  8
寸法
 62
     7
 48
50.0
100
AcDbMText
 10
9505.010569705396
 20
5250.743533916484
 30
0.0
 40
120.0
 41
0.0
 71
     5
 72
     1
  1
\A1;1510
  7
STYLE1
 73
     1
 44
1.0
1001
ACAD
1000
MTEXTBEGIN
1070
    73
1070
     1
1070
    44
1040
1.0
1070
    74
1070
     0
1000
MTEXTEND
  0
POINT
  5
17548
330
17245
100
AcDbEntity
  8
DEFPOINTS
 62
     0
 48
50.0
100
AcDbPoint
 10
10287.88574000357
 20
4488.911759145216
 30
0.0
  0
POINT
  5
17549
330
17245
100
AcDbEntity
  8
DEFPOINTS
 62
     0
 48
50.0
100
AcDbPoint
 10
8777.885740003572
 20
4543.91175914522
 30
0.0
  0
POINT
  5
1754A
330
17245
100
AcDbEntity
  8
DEFPOINTS
 62
     0
 48
50.0
100
AcDbPoint
 10
8777.885740003572
 20
5150.743533916484
 30
0.0
  0
ENDBLK
  5
17250
330
17245
100
AcDbEntity
  8
0
 48
50.0
100
AcDbBlockEnd
  0
BLOCK
  5
1725D
330
17251
100
AcDbEntity
  8
0
 48
50.0
100
AcDbBlockBegin
  2
*D23
 70
     1
 10
0.0
 20
0.0
 30
0.0
  3
*D23
  1

  0
LINE
  5
17537
330
17251
100
AcDbEntity
  8
寸法
 62
     0
 48
50.0
370
    -2
100
AcDbLine
 10
8837.885740003573
 20
4559.913377268192
 30
0.0
 11
8837.885740003573
 21
5002.56921272452
 31
0.0
  0
LINE
  5
17538
330
17251
100
AcDbEntity
  8
寸法
 62
     0
 48
50.0
370
    -2
100
AcDbLine
 10
8777.885740003572
 20
4563.91175914522
 30
0.0
 11
8777.885740003572
 21
5002.56921272452
 31
0.0
  0
LINE
  5
17539
330
17251
100
AcDbEntity
  8
寸法
 62
     0
 48
50.0
370
    -2
100
AcDbLine
 10
8837.885740003573
 20
4942.569212724521
 30
0.0
 11
8937.885740003572
 21
4942.569212724521
 31
0.0
  0
LINE
  5
1753A
330
17251
100
AcDbEntity
  8
寸法
 62
     0
 48
50.0
370
    -2
100
AcDbLine
 10
8777.885740003572
 20
4942.569212724521
 30
0.0
 11
8358.610149452392
 21
4942.569212724521
 31
0.0
  0
LINE
  5
1753B
330
17251
100
AcDbEntity
  8
寸法
 62
     0
 48
50.0
370
    -2
100
AcDbLine
 10
8837.885740003573
 20
4942.569212724521
 30
0.0
 11
8777.885740003572
 21
4942.569212724521
 31
0.0
  0
INSERT
  5
1753C
330
17251
100
AcDbEntity
  8
寸法
 62
     0
 48
50.0
370
    -2
100
AcDbBlockReference
  2
_DOTSMALL
 10
8837.885740003573
 20
4942.569212724521
 30
0.0
 41
100.0
 42
100.0
 43
100.0
 50
180.0
  0
INSERT
  5
1753D
330
17251
100
AcDbEntity
  8
寸法
 62
     0
 48
50.0
370
    -2
100
AcDbBlockReference
  2
_DOTSMALL
 10
8777.885740003572
 20
4942.569212724521
 30
0.0
 41
100.0
 42
100.0
 43
100.0
  0
MTEXT
  5
1753E
330
17251
100
AcDbEntity
  8
寸法
 62
     7
 48
50.0
100
AcDbMText
 10
8468.247944727982
 20
5042.56921272452
 30
0.0
 40
120.0
 41
0.0
 71
     5
 72
     1
  1
\A1;60
  7
STYLE1
 73
     1
 44
1.0
1001
ACAD
1000
MTEXTBEGIN
1070
    73
1070
     1
1070
    44
1040
1.0
1070
    74
1070
     0
1000
MTEXTEND
  0
POINT
  5
1753F
330
17251
100
AcDbEntity
  8
DEFPOINTS
 62
     0
 48
50.0
100
AcDbPoint
 10
8837.885740003573
 20
4539.913377268192
 30
0.0
  0
POINT
  5
17540
330
17251
100
AcDbEntity
  8
DEFPOINTS
 62
     0
 48
50.0
100
AcDbPoint
 10
8777.885740003572
 20
4543.91175914522
 30
0.0
  0
POINT
  5
17541
330
17251
100
AcDbEntity
  8
DEFPOINTS
 62
     0
 48
50.0
100
AcDbPoint
 10
8777.885740003572
 20
4942.569212724521
 30
0.0
  0
ENDBLK
  5
1725E
330
17251
100
AcDbEntity
  8
0
 48
50.0
100
AcDbBlockEnd
  0
BLOCK
  5
17269
330
1725F
100
AcDbEntity
  8
0
 48
50.0
100
AcDbBlockBegin
  2
*D24
 70
     1
 10
0.0
 20
0.0
 30
0.0
  3
*D24
  1

  0
LINE
  5
1752E
330
1725F
100
AcDbEntity
  8
寸法
 62
     0
 48
50.0
370
    -2
100
AcDbLine
 10
10207.88574000357
 20
4510.722438756869
 30
0.0
 11
10207.88574000357
 21
5002.56921272452
 31
0.0
  0
LINE
  5
1752F
330
1725F
100
AcDbEntity
  8
寸法
 62
     0
 48
50.0
370
    -2
100
AcDbLine
 10
8837.885740003573
 20
4559.913377268192
 30
0.0
 11
8837.885740003573
 21
5002.56921272452
 31
0.0
  0
LINE
  5
17530
330
1725F
100
AcDbEntity
  8
寸法
 62
     0
 48
50.0
370
    -2
100
AcDbLine
 10
10207.88574000357
 20
4942.569212724521
 30
0.0
 11
8837.885740003573
 21
4942.569212724521
 31
0.0
  0
INSERT
  5
17531
330
1725F
100
AcDbEntity
  8
寸法
 62
     0
 48
50.0
370
    -2
100
AcDbBlockReference
  2
_DOTSMALL
 10
10207.88574000357
 20
4942.569212724521
 30
0.0
 41
100.0
 42
100.0
 43
100.0
  0
INSERT
  5
17532
330
1725F
100
AcDbEntity
  8
寸法
 62
     0
 48
50.0
370
    -2
100
AcDbBlockReference
  2
_DOTSMALL
 10
8837.885740003573
 20
4942.569212724521
 30
0.0
 41
100.0
 42
100.0
 43
100.0
 50
180.0
  0
MTEXT
  5
17533
330
1725F
100
AcDbEntity
  8
寸法
 62
     7
 48
50.0
100
AcDbMText
 10
9487.704772894117
 20
5042.56921272452
 30
0.0
 40
120.0
 41
0.0
 71
     5
 72
     1
  1
\A1;柱外寸法1370
  7
STYLE1
 73
     1
 44
1.0
1001
ACAD
1000
MTEXTBEGIN
1070
    73
1070
     1
1070
    44
1040
1.0
1070
    74
1070
     0
1000
MTEXTEND
  0
POINT
  5
17534
330
1725F
100
AcDbEntity
  8
DEFPOINTS
 62
     0
 48
50.0
100
AcDbPoint
 10
10207.88574000357
 20
4490.722438756869
 30
0.0
  0
POINT
  5
17535
330
1725F
100
AcDbEntity
  8
DEFPOINTS
 62
     0
 48
50.0
100
AcDbPoint
 10
8837.885740003573
 20
4539.913377268192
 30
0.0
  0
POINT
  5
17536
330
1725F
100
AcDbEntity
  8
DEFPOINTS
 62
     0
 48
50.0
100
AcDbPoint
 10
8837.885740003573
 20
4942.569212724521
 30
0.0
  0
ENDBLK
  5
1726A
330
1725F
100
AcDbEntity
  8
0
 48
50.0
100
AcDbBlockEnd
  0
BLOCK
  5
1746F
330
17465
100
AcDbEntity
  8
0
 48
50.0
100
AcDbBlockBegin
  2
*D25
 70
     1
 10
0.0
 20
0.0
 30
0.0
  3
*D25
  1

  0
LINE
  5
1763C
330
17465
100
AcDbEntity
  8
寸法
 62
     0
 48
50.0
370
    -2
100
AcDbLine
 10
6711.425393906033
 20
4563.91175914522
 30
0.0
 11
6711.425393906033
 21
5008.532018572488
 31
0.0
  0
LINE
  5
1763D
330
17465
100
AcDbEntity
  8
寸法
 62
     0
 48
50.0
370
    -2
100
AcDbLine
 10
4921.425393906033
 20
4563.911759145221
 30
0.0
 11
4921.425393906033
 21
5008.532018572488
 31
0.0
  0
LINE
  5
1763E
330
17465
100
AcDbEntity
  8
寸法
 62
     0
 48
50.0
370
    -2
100
AcDbLine
 10
6711.425393906033
 20
4948.532018572488
 30
0.0
 11
4921.425393906033
 21
4948.532018572488
 31
0.0
  0
INSERT
  5
1763F
330
17465
100
AcDbEntity
  8
寸法
 62
     0
 48
50.0
370
    -2
100
AcDbBlockReference
  2
_DOTSMALL
 10
6711.425393906033
 20
4948.532018572488
 30
0.0
 41
100.0
 42
100.0
 43
100.0
  0
INSERT
  5
17640
330
17465
100
AcDbEntity
  8
寸法
 62
     0
 48
50.0
370
    -2
100
AcDbBlockReference
  2
_DOTSMALL
 10
4921.425393906033
 20
4948.532018572488
 30
0.0
 41
100.0
 42
100.0
 43
100.0
 50
180.0
  0
MTEXT
  5
17641
330
17465
100
AcDbEntity
  8
寸法
 62
     7
 48
50.0
100
AcDbMText
 10
5790.606232837646
 20
5048.532018572488
 30
0.0
 40
120.0
 41
0.0
 71
     5
 72
     1
  1
\A1;柱外寸法1790
  7
STYLE1
 73
     1
 44
1.0
1001
ACAD
1000
MTEXTBEGIN
1070
    73
1070
     1
1070
    44
1040
1.0
1070
    74
1070
     0
1000
MTEXTEND
  0
POINT
  5
17642
330
17465
100
AcDbEntity
  8
DEFPOINTS
 62
     0
 48
50.0
100
AcDbPoint
 10
6711.425393906033
 20
4543.91175914522
 30
0.0
  0
POINT
  5
17643
330
17465
100
AcDbEntity
  8
DEFPOINTS
 62
     0
 48
50.0
100
AcDbPoint
 10
4921.425393906033
 20
4543.911759145221
 30
0.0
  0
POINT
  5
17644
330
17465
100
AcDbEntity
  8
DEFPOINTS
 62
     0
 48
50.0
100
AcDbPoint
 10
4921.425393906033
 20
4948.532018572488
 30
0.0
  0
ENDBLK
  5
17470
330
17465
100
AcDbEntity
  8
0
 48
50.0
100
AcDbBlockEnd
  0
BLOCK
  5
1747D
330
17471
100
AcDbEntity
  8
0
 48
50.0
100
AcDbBlockBegin
  2
*D26
 70
     1
 10
0.0
 20
0.0
 30
0.0
  3
*D26
  1

  0
LINE
  5
17645
330
17471
100
AcDbEntity
  8
寸法
 62
     0
 48
50.0
370
    -2
100
AcDbLine
 10
4921.425393906033
 20
4563.911759145221
 30
0.0
 11
4921.425393906033
 21
5008.532018572488
 31
0.0
  0
LINE
  5
17646
330
17471
100
AcDbEntity
  8
寸法
 62
     0
 48
50.0
370
    -2
100
AcDbLine
 10
4871.425393906033
 20
4563.91175914522
 30
0.0
 11
4871.425393906033
 21
5008.532018572488
 31
0.0
  0
LINE
  5
17647
330
17471
100
AcDbEntity
  8
寸法
 62
     0
 48
50.0
370
    -2
100
AcDbLine
 10
4921.425393906033
 20
4948.532018572488
 30
0.0
 11
5021.425393906032
 21
4948.532018572488
 31
0.0
  0
LINE
  5
17648
330
17471
100
AcDbEntity
  8
寸法
 62
     0
 48
50.0
370
    -2
100
AcDbLine
 10
4871.425393906033
 20
4948.532018572488
 30
0.0
 11
4451.892868437298
 21
4948.532018572488
 31
0.0
  0
LINE
  5
17649
330
17471
100
AcDbEntity
  8
寸法
 62
     0
 48
50.0
370
    -2
100
AcDbLine
 10
4921.425393906033
 20
4948.532018572488
 30
0.0
 11
4871.425393906033
 21
4948.532018572488
 31
0.0
  0
INSERT
  5
1764A
330
17471
100
AcDbEntity
  8
寸法
 62
     0
 48
50.0
370
    -2
100
AcDbBlockReference
  2
_DOTSMALL
 10
4921.425393906033
 20
4948.532018572488
 30
0.0
 41
100.0
 42
100.0
 43
100.0
 50
180.0
  0
INSERT
  5
1764B
330
17471
100
AcDbEntity
  8
寸法
 62
     0
 48
50.0
370
    -2
100
AcDbBlockReference
  2
_DOTSMALL
 10
4871.425393906033
 20
4948.532018572488
 30
0.0
 41
100.0
 42
100.0
 43
100.0
  0
MTEXT
  5
1764C
330
17471
100
AcDbEntity
  8
寸法
 62
     7
 48
50.0
100
AcDbMText
 10
4557.940112531785
 20
5048.532018572488
 30
0.0
 40
120.0
 41
0.0
 71
     5
 72
     1
  1
\A1;50
  7
STYLE1
 73
     1
 44
1.0
1001
ACAD
1000
MTEXTBEGIN
1070
    73
1070
     1
1070
    44
1040
1.0
1070
    74
1070
     0
1000
MTEXTEND
  0
POINT
  5
1764D
330
17471
100
AcDbEntity
  8
DEFPOINTS
 62
     0
 48
50.0
100
AcDbPoint
 10
4921.425393906033
 20
4543.911759145221
 30
0.0
  0
POINT
  5
1764E
330
17471
100
AcDbEntity
  8
DEFPOINTS
 62
     0
 48
50.0
100
AcDbPoint
 10
4871.425393906033
 20
4543.91175914522
 30
0.0
  0
POINT
  5
1764F
330
17471
100
AcDbEntity
  8
DEFPOINTS
 62
     0
 48
50.0
100
AcDbPoint
 10
4871.425393906033
 20
4948.532018572488
 30
0.0
  0
ENDBLK
  5
1747E
330
17471
100
AcDbEntity
  8
0
 48
50.0
100
AcDbBlockEnd
  0
BLOCK
  5
1748B
330
1747F
100
AcDbEntity
  8
0
 48
50.0
100
AcDbBlockBegin
  2
*D27
 70
     1
 10
0.0
 20
0.0
 30
0.0
  3
*D27
  1

  0
LINE
  5
17650
330
1747F
100
AcDbEntity
  8
寸法
 62
     0
 48
50.0
370
    -2
100
AcDbLine
 10
6761.425393906032
 20
4563.911759145217
 30
0.0
 11
6761.425393906032
 21
5008.532018572488
 31
0.0
  0
LINE
  5
17651
330
1747F
100
AcDbEntity
  8
寸法
 62
     0
 48
50.0
370
    -2
100
AcDbLine
 10
6711.425393906033
 20
4563.91175914522
 30
0.0
 11
6711.425393906033
 21
5008.532018572488
 31
0.0
  0
LINE
  5
17652
330
1747F
100
AcDbEntity
  8
寸法
 62
     0
 48
50.0
370
    -2
100
AcDbLine
 10
6711.425393906033
 20
4948.532018572488
 30
0.0
 11
6611.425393906033
 21
4948.532018572488
 31
0.0
  0
LINE
  5
17653
330
1747F
100
AcDbEntity
  8
寸法
 62
     0
 48
50.0
370
    -2
100
AcDbLine
 10
6761.425393906032
 20
4948.532018572488
 30
0.0
 11
7180.957919374758
 21
4948.532018572488
 31
0.0
  0
LINE
  5
17654
330
1747F
100
AcDbEntity
  8
寸法
 62
     0
 48
50.0
370
    -2
100
AcDbLine
 10
6711.425393906033
 20
4948.532018572488
 30
0.0
 11
6761.425393906032
 21
4948.532018572488
 31
0.0
  0
INSERT
  5
17655
330
1747F
100
AcDbEntity
  8
寸法
 62
     0
 48
50.0
370
    -2
100
AcDbBlockReference
  2
_DOTSMALL
 10
6711.425393906033
 20
4948.532018572488
 30
0.0
 41
100.0
 42
100.0
 43
100.0
  0
INSERT
  5
17656
330
1747F
100
AcDbEntity
  8
寸法
 62
     0
 48
50.0
370
    -2
100
AcDbBlockReference
  2
_DOTSMALL
 10
6761.425393906032
 20
4948.532018572488
 30
0.0
 41
100.0
 42
100.0
 43
100.0
 50
180.0
  0
MTEXT
  5
17657
330
1747F
100
AcDbEntity
  8
寸法
 62
     7
 48
50.0
100
AcDbMText
 10
7074.91067528027
 20
5048.532018572488
 30
0.0
 40
120.0
 41
0.0
 71
     5
 72
     1
  1
\A1;50
  7
STYLE1
 73
     1
 44
1.0
1001
ACAD
1000
MTEXTBEGIN
1070
    73
1070
     1
1070
    44
1040
1.0
1070
    74
1070
     0
1000
MTEXTEND
  0
POINT
  5
17658
330
1747F
100
AcDbEntity
  8
DEFPOINTS
 62
     0
 48
50.0
100
AcDbPoint
 10
6761.425393906032
 20
4543.911759145218
 30
0.0
  0
POINT
  5
17659
330
1747F
100
AcDbEntity
  8
DEFPOINTS
 62
     0
 48
50.0
100
AcDbPoint
 10
6711.425393906033
 20
4543.91175914522
 30
0.0
  0
POINT
  5
1765A
330
1747F
100
AcDbEntity
  8
DEFPOINTS
 62
     0
 48
50.0
100
AcDbPoint
 10
6711.425393906033
 20
4948.532018572488
 30
0.0
  0
ENDBLK
  5
1748C
330
1747F
100
AcDbEntity
  8
0
 48
50.0
100
AcDbBlockEnd
  0
BLOCK
  5
17497
330
1748D
100
AcDbEntity
  8
0
 48
50.0
100
AcDbBlockBegin
  2
*D28
 70
     1
 10
0.0
 20
0.0
 30
0.0
  3
*D28
  1

  0
LINE
  5
1765B
330
1748D
100
AcDbEntity
  8
寸法
 62
     0
 48
50.0
370
    -2
100
AcDbLine
 10
4871.425393906033
 20
4563.91175914522
 30
0.0
 11
4871.425393906033
 21
5218.125892993938
 31
0.0
  0
LINE
  5
1765C
330
1748D
100
AcDbEntity
  8
寸法
 62
     0
 48
50.0
370
    -2
100
AcDbLine
 10
6761.425393906032
 20
4563.911759145217
 30
0.0
 11
6761.425393906032
 21
5218.125892993938
 31
0.0
  0
LINE
  5
1765D
330
1748D
100
AcDbEntity
  8
寸法
 62
     0
 48
50.0
370
    -2
100
AcDbLine
 10
4871.425393906033
 20
5158.125892993939
 30
0.0
 11
6761.425393906032
 21
5158.125892993939
 31
0.0
  0
INSERT
  5
1765E
330
1748D
100
AcDbEntity
  8
寸法
 62
     0
 48
50.0
370
    -2
100
AcDbBlockReference
  2
_DOTSMALL
 10
4871.425393906033
 20
5158.125892993939
 30
0.0
 41
100.0
 42
100.0
 43
100.0
 50
180.0
  0
INSERT
  5
1765F
330
1748D
100
AcDbEntity
  8
寸法
 62
     0
 48
50.0
370
    -2
100
AcDbBlockReference
  2
_DOTSMALL
 10
6761.425393906032
 20
5158.125892993939
 30
0.0
 41
100.0
 42
100.0
 43
100.0
  0
MTEXT
  5
17660
330
1748D
100
AcDbEntity
  8
寸法
 62
     7
 48
50.0
100
AcDbMText
 10
5816.42539390603
 20
5258.125892993938
 30
0.0
 40
120.0
 41
0.0
 71
     5
 72
     1
  1
\A1;1890
  7
STYLE1
 73
     1
 44
1.0
1001
ACAD
1000
MTEXTBEGIN
1070
    73
1070
     1
1070
    44
1040
1.0
1070
    74
1070
     0
1000
MTEXTEND
  0
POINT
  5
17661
330
1748D
100
AcDbEntity
  8
DEFPOINTS
 62
     0
 48
50.0
100
AcDbPoint
 10
4871.425393906033
 20
4543.91175914522
 30
0.0
  0
POINT
  5
17662
330
1748D
100
AcDbEntity
  8
DEFPOINTS
 62
     0
 48
50.0
100
AcDbPoint
 10
6761.425393906032
 20
4543.911759145218
 30
0.0
  0
POINT
  5
17663
330
1748D
100
AcDbEntity
  8
DEFPOINTS
 62
     0
 48
50.0
100
AcDbPoint
 10
6761.425393906032
 20
5158.125892993939
 30
0.0
  0
ENDBLK
  5
17498
330
1748D
100
AcDbEntity
  8
0
 48
50.0
100
AcDbBlockEnd
  0
BLOCK
  5
177DE
330
177D4
100
AcDbEntity
  8
0
 48
50.0
100
AcDbBlockBegin
  2
*D29
 70
     1
 10
0.0
 20
0.0
 30
0.0
  3
*D29
  1

  0
LINE
  5
17C2B
330
177D4
100
AcDbEntity
  8
寸法
 62
     0
 48
50.0
370
    -2
100
AcDbLine
 10
8904.885740003463
 20
7342.396791057424
 30
0.0
 11
8904.885740003463
 21
6698.267416360121
 31
0.0
  0
LINE
  5
17C2C
330
177D4
100
AcDbEntity
  8
寸法
 62
     0
 48
50.0
370
    -2
100
AcDbLine
 10
9578.885740003462
 20
7342.396791057424
 30
0.0
 11
9578.885740003462
 21
6698.267416360121
 31
0.0
  0
LINE
  5
17C2D
330
177D4
100
AcDbEntity
  8
寸法
 62
     0
 48
50.0
370
    -2
100
AcDbLine
 10
8924.88574000346
 20
6738.267416360122
 30
0.0
 11
9558.885740003461
 21
6738.267416360122
 31
0.0
  0
INSERT
  5
17C2E
330
177D4
100
AcDbEntity
  8
寸法
 62
     0
 48
50.0
370
    -2
100
AcDbBlockReference
  2
_DOT
 10
8904.885740003463
 20
6738.267416360122
 30
0.0
 41
20.0
 42
20.0
 43
20.0
 50
180.0
  0
INSERT
  5
17C2F
330
177D4
100
AcDbEntity
  8
寸法
 62
     0
 48
50.0
370
    -2
100
AcDbBlockReference
  2
_DOT
 10
9578.885740003462
 20
6738.267416360122
 30
0.0
 41
20.0
 42
20.0
 43
20.0
  0
MTEXT
  5
17C30
330
177D4
100
AcDbEntity
  8
寸法
 62
     7
 48
50.0
100
AcDbMText
 10
9241.885740003461
 20
6930.267416360123
 30
0.0
 40
120.0
 41
0.0
 71
     5
 72
     1
  1
\A1;有効開口部間口\P674
  7
STYLE1
 73
     1
 44
1.0
1001
ACAD
1000
MTEXTBEGIN
1070
    73
1070
     1
1070
    44
1040
1.0
1070
    74
1070
     0
1000
MTEXTEND
  0
POINT
  5
17C31
330
177D4
100
AcDbEntity
  8
DEFPOINTS
 62
     0
 48
50.0
100
AcDbPoint
 10
8904.885740003463
 20
7362.396791057425
 30
0.0
  0
POINT
  5
17C32
330
177D4
100
AcDbEntity
  8
DEFPOINTS
 62
     0
 48
50.0
100
AcDbPoint
 10
9578.885740003462
 20
7362.396791057425
 30
0.0
  0
POINT
  5
17C33
330
177D4
100
AcDbEntity
  8
DEFPOINTS
 62
     0
 48
50.0
100
AcDbPoint
 10
9578.885740003462
 20
6738.267416360122
 30
0.0
  0
ENDBLK
  5
177DF
330
177D4
100
AcDbEntity
  8
0
 48
50.0
100
AcDbBlockEnd
  0
BLOCK
  5
17AC1
330
17AB7
100
AcDbEntity
  8
0
 48
50.0
100
AcDbBlockBegin
  2
*D30
 70
     1
 10
0.0
 20
0.0
 30
0.0
  3
*D30
  1

  0
LINE
  5
17C22
330
17AB7
100
AcDbEntity
  8
寸法
 62
     0
 48
50.0
370
    -2
100
AcDbLine
 10
8865.885740003394
 20
7342.396791057412
 30
0.0
 11
8865.885740003394
 21
6451.784927053321
 31
0.0
  0
LINE
  5
17C23
330
17AB7
100
AcDbEntity
  8
寸法
 62
     0
 48
50.0
370
    -2
100
AcDbLine
 10
10179.88574000339
 20
7342.396791057412
 30
0.0
 11
10179.88574000339
 21
6451.784927053321
 31
0.0
  0
LINE
  5
17C24
330
17AB7
100
AcDbEntity
  8
寸法
 62
     0
 48
50.0
370
    -2
100
AcDbLine
 10
8865.885740003394
 20
6511.784927053321
 30
0.0
 11
10179.88574000339
 21
6511.784927053321
 31
0.0
  0
INSERT
  5
17C25
330
17AB7
100
AcDbEntity
  8
寸法
 62
     0
 48
50.0
370
    -2
100
AcDbBlockReference
  2
_DOTSMALL
 10
8865.885740003394
 20
6511.784927053321
 30
0.0
 41
100.0
 42
100.0
 43
100.0
 50
180.0
  0
INSERT
  5
17C26
330
17AB7
100
AcDbEntity
  8
寸法
 62
     0
 48
50.0
370
    -2
100
AcDbBlockReference
  2
_DOTSMALL
 10
10179.88574000339
 20
6511.784927053321
 30
0.0
 41
100.0
 42
100.0
 43
100.0
  0
MTEXT
  5
17C27
330
17AB7
100
AcDbEntity
  8
寸法
 62
     7
 48
50.0
100
AcDbMText
 10
9522.885740003394
 20
6611.784927053321
 30
0.0
 40
120.0
 41
0.0
 71
     5
 72
     1
  1
\A1;1314
  7
STYLE1
 73
     1
 44
1.0
1001
ACAD
1000
MTEXTBEGIN
1070
    73
1070
     1
1070
    44
1040
1.0
1070
    74
1070
     0
1000
MTEXTEND
  0
POINT
  5
17C28
330
17AB7
100
AcDbEntity
  8
DEFPOINTS
 62
     0
 48
50.0
100
AcDbPoint
 10
8865.885740003394
 20
7362.396791057412
 30
0.0
  0
POINT
  5
17C29
330
17AB7
100
AcDbEntity
  8
DEFPOINTS
 62
     0
 48
50.0
100
AcDbPoint
 10
10179.88574000339
 20
7362.396791057412
 30
0.0
  0
POINT
  5
17C2A
330
17AB7
100
AcDbEntity
  8
DEFPOINTS
 62
     0
 48
50.0
100
AcDbPoint
 10
10179.88574000339
 20
6511.784927053321
 30
0.0
  0
ENDBLK
  5
17AC2
330
17AB7
100
AcDbEntity
  8
0
 48
50.0
100
AcDbBlockEnd
  0
BLOCK
  5
17ADB
330
17ACF
100
AcDbEntity
  8
0
 48
50.0
100
AcDbBlockBegin
  2
*D31
 70
     1
 10
0.0
 20
0.0
 30
0.0
  3
*D31
  1

  0
LINE
  5
17C17
330
17ACF
100
AcDbEntity
  8
寸法
 62
     0
 48
50.0
370
    -2
100
AcDbLine
 10
8817.885740003417
 20
7439.396791057411
 30
0.0
 11
8503.2744943767
 21
7439.396791057411
 31
0.0
  0
LINE
  5
17C18
330
17ACF
100
AcDbEntity
  8
寸法
 62
     0
 48
50.0
370
    -2
100
AcDbLine
 10
8845.885740003394
 20
7364.396791057412
 30
0.0
 11
8503.2744943767
 21
7364.396791057412
 31
0.0
  0
LINE
  5
17C19
330
17ACF
100
AcDbEntity
  8
寸法
 62
     0
 48
50.0
370
    -2
100
AcDbLine
 10
8543.274494376699
 20
7459.396791057412
 30
0.0
 11
8543.274494376699
 21
7479.396791057412
 31
0.0
  0
LINE
  5
17C1A
330
17ACF
100
AcDbEntity
  8
寸法
 62
     0
 48
50.0
370
    -2
100
AcDbLine
 10
8543.274494376699
 20
7344.396791057412
 30
0.0
 11
8543.274494376699
 21
7123.426228308933
 31
0.0
  0
LINE
  5
17C1B
330
17ACF
100
AcDbEntity
  8
寸法
 62
     0
 48
50.0
370
    -2
100
AcDbLine
 10
8543.274494376699
 20
7439.396791057411
 30
0.0
 11
8543.274494376699
 21
7364.396791057412
 31
0.0
  0
INSERT
  5
17C1C
330
17ACF
100
AcDbEntity
  8
寸法
 62
     0
 48
50.0
370
    -2
100
AcDbBlockReference
  2
_DOT
 10
8543.274494376699
 20
7439.396791057411
 30
0.0
 41
20.0
 42
20.0
 43
20.0
 50
270.0
  0
INSERT
  5
17C1D
330
17ACF
100
AcDbEntity
  8
寸法
 62
     0
 48
50.0
370
    -2
100
AcDbBlockReference
  2
_DOT
 10
8543.274494376699
 20
7364.396791057412
 30
0.0
 41
20.0
 42
20.0
 43
20.0
 50
90.0
  0
MTEXT
  5
17C1E
330
17ACF
100
AcDbEntity
  8
寸法
 62
     7
 48
50.0
100
AcDbMText
 10
8451.274494376697
 20
7223.911509683174
 30
0.0
 40
120.0
 41
0.0
 71
     5
 72
     1
  1
\A1;75
  7
STYLE1
 11
0.0000000000000001
 21
1.0
 31
0.0
 73
     1
 44
1.0
1001
ACAD
1000
MTEXTBEGIN
1070
    73
1070
     1
1070
    44
1040
1.0
1070
    74
1070
     0
1000
MTEXTEND
  0
POINT
  5
17C1F
330
17ACF
100
AcDbEntity
  8
DEFPOINTS
 62
     0
 48
50.0
100
AcDbPoint
 10
8837.885740003416
 20
7439.396791057411
 30
0.0
  0
POINT
  5
17C20
330
17ACF
100
AcDbEntity
  8
DEFPOINTS
 62
     0
 48
50.0
100
AcDbPoint
 10
8865.885740003394
 20
7364.396791057412
 30
0.0
  0
POINT
  5
17C21
330
17ACF
100
AcDbEntity
  8
DEFPOINTS
 62
     0
 48
50.0
100
AcDbPoint
 10
8543.274494376699
 20
7364.396791057412
 30
0.0
  0
ENDBLK
  5
17ADC
330
17ACF
100
AcDbEntity
  8
0
 48
50.0
100
AcDbBlockEnd
  0
BLOCK
  5
17AE7
330
17ADD
100
AcDbEntity
  8
0
 48
50.0
100
AcDbBlockBegin
  2
*D32
 70
     1
 10
0.0
 20
0.0
 30
0.0
  3
*D32
  1

  0
LINE
  5
17C0E
330
17ADD
100
AcDbEntity
  8
寸法
 62
     0
 48
50.0
370
    -2
100
AcDbLine
 10
8837.885740003416
 20
7419.396791057427
 30
0.0
 11
8837.885740003416
 21
6217.707963343595
 31
0.0
  0
LINE
  5
17C0F
330
17ADD
100
AcDbEntity
  8
寸法
 62
     0
 48
50.0
370
    -2
100
AcDbLine
 10
10207.88574000349
 20
7419.396791057399
 30
0.0
 11
10207.88574000349
 21
6217.707963343595
 31
0.0
  0
LINE
  5
17C10
330
17ADD
100
AcDbEntity
  8
寸法
 62
     0
 48
50.0
370
    -2
100
AcDbLine
 10
8837.885740003416
 20
6277.707963343595
 30
0.0
 11
10207.88574000349
 21
6277.707963343595
 31
0.0
  0
INSERT
  5
17C11
330
17ADD
100
AcDbEntity
  8
寸法
 62
     0
 48
50.0
370
    -2
100
AcDbBlockReference
  2
_DOTSMALL
 10
8837.885740003416
 20
6277.707963343595
 30
0.0
 41
100.0
 42
100.0
 43
100.0
 50
180.0
  0
INSERT
  5
17C12
330
17ADD
100
AcDbEntity
  8
寸法
 62
     0
 48
50.0
370
    -2
100
AcDbBlockReference
  2
_DOTSMALL
 10
10207.88574000349
 20
6277.707963343595
 30
0.0
 41
100.0
 42
100.0
 43
100.0
  0
MTEXT
  5
17C13
330
17ADD
100
AcDbEntity
  8
寸法
 62
     7
 48
50.0
100
AcDbMText
 10
9520.307724763904
 20
6377.707963343596
 30
0.0
 40
120.0
 41
0.0
 71
     5
 72
     1
  1
\A1;1370
  7
STYLE1
 73
     1
 44
1.0
1001
ACAD
1000
MTEXTBEGIN
1070
    73
1070
     1
1070
    44
1040
1.0
1070
    74
1070
     0
1000
MTEXTEND
  0
POINT
  5
17C14
330
17ADD
100
AcDbEntity
  8
DEFPOINTS
 62
     0
 48
50.0
100
AcDbPoint
 10
8837.885740003416
 20
7439.396791057426
 30
0.0
  0
POINT
  5
17C15
330
17ADD
100
AcDbEntity
  8
DEFPOINTS
 62
     0
 48
50.0
100
AcDbPoint
 10
10207.88574000349
 20
7439.396791057399
 30
0.0
  0
POINT
  5
17C16
330
17ADD
100
AcDbEntity
  8
DEFPOINTS
 62
     0
 48
50.0
100
AcDbPoint
 10
10207.88574000349
 20
6277.707963343595
 30
0.0
  0
ENDBLK
  5
17AE8
330
17ADD
100
AcDbEntity
  8
0
 48
50.0
100
AcDbBlockEnd
  0
ENDSEC
  0
SECTION
  2
ENTITIES
  0
LINE
  5
10B57
330
747D
100
AcDbEntity
  8
補助
  6
PHANTOM
 62
   230
 48
50.0
100
AcDbLine
 10
139.9999999999995
 20
11409.6
 30
0.0
 11
16307.2
 21
11409.6
 31
0.0
  0
LINE
  5
10B59
330
747D
100
AcDbEntity
  8
仕様書枠
  6
Continuous
 48
50.0
100
AcDbLine
 10
13107.2
 20
1200.0
 30
0.0
 11
13107.2
 21
-0.0000000000000729
 31
0.0
  0
LINE
  5
10B5C
330
747D
100
AcDbEntity
  8
仕様書枠
 48
50.0
100
AcDbLine
 10
16307.2
 20
1200.0
 30
0.0
 11
16307.2
 21
-0.0000000000000909
 31
0.0
  0
LINE
  5
10B5D
330
747D
100
AcDbEntity
  8
仕様書枠
 48
50.0
100
AcDbLine
 10
140.0
 20
0.0
 30
0.0
 11
16307.2
 21
-0.0000000000000909
 31
0.0
  0
LINE
  5
10B5E
330
747D
100
AcDbEntity
  8
補助
  6
PHANTOM
 62
   230
 48
50.0
100
AcDbLine
 10
16307.2
 20
11409.6
 30
0.0
 11
16307.2
 21
1200.0
 31
0.0
  0
LINE
  5
10B6C
330
747D
100
AcDbEntity
  8
仕様書枠
 48
50.0
100
AcDbLine
 10
13107.2
 20
1200.0
 30
0.0
 11
16307.2
 21
1200.0
 31
0.0
  0
LINE
  5
10B6D
330
747D
100
AcDbEntity
  8
補助
  6
PHANTOM
 62
   230
 48
50.0
100
AcDbLine
 10
13107.2
 20
11409.6
 30
0.0
 11
13107.2
 21
4800.0
 31
0.0
  0
LINE
  5
10B6F
330
747D
100
AcDbEntity
  8
補助
  6
PHANTOM
 62
   230
 48
50.0
100
AcDbLine
 10
13107.2
 20
4800.0
 30
0.0
 11
16307.2
 21
4800.0
 31
0.0
  0
LINE
  5
10B72
330
747D
100
AcDbEntity
  8
文字
 62
     7
 48
50.0
100
AcDbLine
 10
13187.2
 20
400.0
 30
0.0
 11
16227.2
 21
400.0
 31
0.0
  0
TEXT
  5
10B73
330
747D
100
AcDbEntity
  8
文字
 62
     7
 48
50.0
100
AcDbText
 10
13162.9790565769
 20
895.0906074299405
 30
0.0
 40
200.0
  1
外 形 図
  7
STYLE2
100
AcDbText
  0
TEXT
  5
10B74
330
747D
100
AcDbEntity
  8
文字
 62
     7
 48
50.0
100
AcDbText
 10
13201.43669998441
 20
477.2740661031255
 30
0.0
 40
160.0
  1
機種名
  7
STYLE2
100
AcDbText
  0
TEXT
  5
10B76
330
747D
100
AcDbEntity
  8
文字
 62
     7
 48
50.0
100
AcDbText
 10
13209.4053442172
 20
76.09434707649343
 30
0.0
 40
100.0
  1
○床面積 ： 2.55㎡(0.77坪) 　
  7
STYLE2
100
AcDbText
  0
TEXT
  5
10B79
330
747D
100
AcDbEntity
  8
文字
 62
     7
 48
50.0
100
AcDbText
 10
14524.131837222
 20
1031.557706291228
 30
0.0
 40
100.0
  1
NO.01      <縮尺> S=1/40
  7
STYLE2
100
AcDbText
  0
LINE
  5
10B7B
330
747D
100
AcDbEntity
  8
仕様書枠
 48
50.0
100
AcDbLine
 10
13107.2
 20
800.0
 30
0.0
 11
14251.2
 21
800.0
 31
0.0
  0
LINE
  5
10B88
330
747D
100
AcDbEntity
  8
仕様書枠
  6
Continuous
 48
50.0
100
AcDbLine
 10
14251.2
 20
1200.0
 30
0.0
 11
14251.2
 21
800.0
 31
0.0
  0
TEXT
  5
14D2F
330
747D
100
AcDbEntity
  8
文字
 62
     7
 48
50.0
100
AcDbText
 10
14644.07818602837
 20
876.4448062548634
 30
0.0
 40
100.0
  1
～一般型・多雪地型～
  7
STYLE2
100
AcDbText
  0
LINE
  5
1685B
330
747D
100
AcDbEntity
  8
部品1
 48
50.0
100
AcDbLine
 10
9355.885740003579
 20
4251.911759145215
 30
0.0
 11
9355.885740003577
 21
2518.911759145215
 31
0.0
  0
LINE
  5
1685C
330
747D
100
AcDbEntity
  8
部品1
 48
50.0
100
AcDbLine
 10
9761.885730696395
 20
4251.911759145219
 30
0.0
 11
9761.885730696395
 21
2526.411759145217
 31
0.0
  0
LINE
  5
1685D
330
747D
100
AcDbEntity
  8
細線
100
AcDbLine
 10
9503.385730696384
 20
4251.911759145208
 30
0.0
 11
9503.385730696388
 21
2526.411759145215
 31
0.0
  0
LINE
  5
1685E
330
747D
100
AcDbEntity
  8
細線
100
AcDbLine
 10
9433.385730696384
 20
4251.911759145208
 30
0.0
 11
9433.385730696384
 21
2526.411759145215
 31
0.0
  0
LINE
  5
1685F
330
747D
100
AcDbEntity
  8
部品1
100
AcDbLine
 10
9065.885740003567
 20
4251.911759145208
 30
0.0
 11
9065.885740003567
 21
2518.911759145213
 31
0.0
  0
LINE
  5
16860
330
747D
100
AcDbEntity
  8
部品1
100
AcDbLine
 10
9015.885740003566
 20
4251.911759145208
 30
0.0
 11
9015.885740003566
 21
2518.911759145213
 31
0.0
  0
LINE
  5
16861
330
747D
100
AcDbEntity
  8
細線
100
AcDbLine
 10
9057.885740003568
 20
4251.911759145208
 30
0.0
 11
9057.885740003568
 21
2518.911759145213
 31
0.0
  0
LINE
  5
16862
330
747D
100
AcDbEntity
  8
細線
100
AcDbLine
 10
9023.885740003567
 20
4251.911759145208
 30
0.0
 11
9023.885740003567
 21
2518.911759145213
 31
0.0
  0
LINE
  5
16863
330
747D
100
AcDbEntity
  8
細線
100
AcDbLine
 10
10040.63573302318
 20
4251.911759145208
 30
0.0
 11
10040.63573302319
 21
2526.411759145223
 31
0.0
  0
LINE
  5
16864
330
747D
100
AcDbEntity
  8
細線
100
AcDbLine
 10
9970.635733023186
 20
4251.911759145208
 30
0.0
 11
9970.635733023188
 21
2526.411759145223
 31
0.0
  0
LINE
  5
16865
330
747D
100
AcDbEntity
  8
細線
100
AcDbLine
 10
9900.635733023186
 20
4251.911759145208
 30
0.0
 11
9900.635733023188
 21
2526.411759145223
 31
0.0
  0
LINE
  5
16866
330
747D
100
AcDbEntity
  8
細線
100
AcDbLine
 10
9830.635733023186
 20
4251.911759145208
 30
0.0
 11
9830.635733023187
 21
2526.411759145223
 31
0.0
  0
LINE
  5
16867
330
747D
100
AcDbEntity
  8
細線
100
AcDbLine
 10
9255.885740003572
 20
4251.911759145212
 30
0.0
 11
9255.885740003572
 21
2518.911759145215
 31
0.0
  0
LINE
  5
16868
330
747D
100
AcDbEntity
  8
細線
100
AcDbLine
 10
9185.885740003572
 20
4251.911759145212
 30
0.0
 11
9185.885740003572
 21
2518.911759145215
 31
0.0
  0
LINE
  5
16869
330
747D
100
AcDbEntity
  8
細線
100
AcDbLine
 10
9643.385730696387
 20
4251.911759145208
 30
0.0
 11
9643.385730696387
 21
2526.411759145219
 31
0.0
  0
LINE
  5
1686A
330
747D
100
AcDbEntity
  8
細線
100
AcDbLine
 10
9573.385730696385
 20
4251.911759145208
 30
0.0
 11
9573.385730696386
 21
2526.411759145219
 31
0.0
  0
LINE
  5
1686B
330
747D
100
AcDbEntity
  8
部品1
 48
50.0
100
AcDbLine
 10
8895.885740003571
 20
2518.911759145213
 30
0.0
 11
8895.885740003571
 21
4251.911759145215
 31
0.0
  0
LINE
  5
1686C
330
747D
100
AcDbEntity
  8
細線
 48
50.0
100
AcDbLine
 10
8895.885740003571
 20
4261.411759145215
 30
0.0
 11
8895.885740003571
 21
2468.911759145213
 31
0.0
  0
LINE
  5
1686D
330
747D
100
AcDbEntity
  8
部品1
 48
50.0
100
AcDbLine
 10
8865.885740003569
 20
4303.911759145216
 30
0.0
 11
8865.885740003569
 21
2468.911759145213
 31
0.0
  0
LINE
  5
1686E
330
747D
100
AcDbEntity
  8
部品1
 48
50.0
100
AcDbLine
 10
10140.88574000357
 20
2515.911759145213
 30
0.0
 11
10140.88574000357
 21
4251.911759145215
 31
0.0
  0
LINE
  5
1686F
330
747D
100
AcDbEntity
  8
細線
 48
50.0
100
AcDbLine
 10
10149.88574000357
 20
2468.911759145213
 30
0.0
 11
10149.88574000357
 21
4261.411759145215
 31
0.0
  0
LINE
  5
16870
330
747D
100
AcDbEntity
  8
部品1
 48
50.0
100
AcDbLine
 10
10179.88574000357
 20
2468.911759145213
 30
0.0
 11
10179.88574000357
 21
4303.911759145216
 31
0.0
  0
LINE
  5
16871
330
747D
100
AcDbEntity
  8
細線
 48
50.0
100
AcDbLine
 10
8895.885740003571
 20
2515.911759145213
 30
0.0
 11
10149.88574000357
 21
2515.911759145213
 31
0.0
  0
LINE
  5
16872
330
747D
100
AcDbEntity
  8
細線
 48
50.0
100
AcDbLine
 10
8895.885740003571
 20
2511.911759145213
 30
0.0
 11
10149.88574000357
 21
2511.911759145213
 31
0.0
  0
LINE
  5
16873
330
747D
100
AcDbEntity
  8
部品1
 48
50.0
100
AcDbLine
 10
8865.885740003569
 20
2468.911759145213
 30
0.0
 11
10179.88574000357
 21
2468.911759145213
 31
0.0
  0
LINE
  5
16874
330
747D
100
AcDbEntity
  8
部品1
 48
50.0
100
AcDbLine
 10
8895.885740003571
 20
2518.911759145213
 30
0.0
 11
9355.885740003577
 21
2518.911759145215
 31
0.0
  0
LINE
  5
16875
330
747D
100
AcDbEntity
  8
部品1
 48
50.0
100
AcDbLine
 10
8904.885740003569
 20
2518.911759145213
 30
0.0
 11
8904.885740003569
 21
2515.911759145213
 31
0.0
  0
LINE
  5
16876
330
747D
100
AcDbEntity
  8
細線
 48
50.0
100
AcDbLine
 10
9355.885740003577
 20
2526.411759145215
 30
0.0
 11
10123.88574000357
 21
2526.411759145214
 31
0.0
  0
LINE
  5
16877
330
747D
100
AcDbEntity
  8
細線
 48
50.0
100
AcDbLine
 10
10127.88574000357
 20
2515.911759145213
 30
0.0
 11
10123.88574000357
 21
2526.411759145214
 31
0.0
  0
LINE
  5
16878
330
747D
100
AcDbEntity
  8
細線
 48
50.0
100
AcDbLine
 10
10149.88574000357
 20
4261.411759145215
 30
0.0
 11
8895.885740003571
 21
4261.411759145215
 31
0.0
  0
LINE
  5
16879
330
747D
100
AcDbEntity
  8
細線
 48
50.0
100
AcDbLine
 10
10149.88574000357
 20
4251.911759145215
 30
0.0
 11
8895.885740003571
 21
4251.911759145215
 31
0.0
  0
LINE
  5
1687A
330
747D
100
AcDbEntity
  8
細線
 48
50.0
100
AcDbLine
 10
10179.88574000357
 20
4293.911759145216
 30
0.0
 11
8865.885740003569
 21
4293.911759145216
 31
0.0
  0
LINE
  5
1687B
330
747D
100
AcDbEntity
  8
部品1
 48
50.0
100
AcDbLine
 10
10179.88574000357
 20
4303.911759145216
 30
0.0
 11
8865.885740003569
 21
4303.911759145216
 31
0.0
  0
LINE
  5
1687C
330
747D
100
AcDbEntity
  8
部品1
 48
50.0
100
AcDbLine
 10
8895.885740003571
 20
4259.911759145216
 30
0.0
 11
8865.885740003569
 21
4259.911759145216
 31
0.0
  0
LINE
  5
1687D
330
747D
100
AcDbEntity
  8
部品1
 48
50.0
100
AcDbLine
 10
10179.88574000357
 20
4259.911759145216
 30
0.0
 11
10149.88574000357
 21
4259.911759145216
 31
0.0
  0
LINE
  5
16897
330
747D
100
AcDbEntity
  8
部品1
 48
50.0
100
AcDbLine
 10
8939.885740003571
 20
3450.411759145205
 30
0.0
 11
8992.88574000357
 21
3450.411759145205
 31
0.0
  0
TEXT
  5
16913
330
747D
100
AcDbEntity
  8
文字
 62
     7
 48
50.0
100
AcDbText
 10
13248.77747366447
 20
8380.013745883728
 30
0.0
 40
100.0
  1
17
  7
STYLE1
100
AcDbText
  0
TEXT
  5
16914
330
747D
100
AcDbEntity
  8
文字
 62
     7
 48
50.0
100
AcDbText
 10
13248.77747366447
 20
8550.013745883729
 30
0.0
 40
100.0
  1
16
  7
STYLE1
100
AcDbText
  0
TEXT
  5
16915
330
747D
100
AcDbEntity
  8
文字
 62
     7
 48
50.0
100
AcDbText
 10
15022.63965474517
 20
9060.013745883725
 30
0.0
 40
100.0
  1
F12            1.0
  7
STYLE1
100
AcDbText
  0
TEXT
  5
16916
330
747D
100
AcDbEntity
  8
文字
 62
     7
 48
50.0
100
AcDbText
 10
13583.11819016569
 20
9060.013745883733
 30
0.0
 40
100.0
  1
壁面扉枠左右
  7
STYLE1
100
AcDbText
  0
TEXT
  5
16917
330
747D
100
AcDbEntity
  8
文字
 62
     7
 48
50.0
100
AcDbText
 10
15022.63965474517
 20
9230.013745883725
 30
0.0
 40
100.0
  1
F12            1.0
  7
STYLE1
100
AcDbText
  0
TEXT
  5
16918
330
747D
100
AcDbEntity
  8
文字
 62
     7
 48
50.0
100
AcDbText
 10
15022.63965474515
 20
9400.013745883727
 30
0.0
 40
100.0
  1
F12            0.7
  7
STYLE1
100
AcDbText
  0
TEXT
  5
16919
330
747D
100
AcDbEntity
  8
文字
 62
     7
 48
50.0
100
AcDbText
 10
13583.11819016569
 20
9230.013745883733
 30
0.0
 40
100.0
  1
壁面扉敷居
  7
STYLE1
100
AcDbText
  0
TEXT
  5
1691A
330
747D
100
AcDbEntity
  8
文字
 62
     7
 48
50.0
100
AcDbText
 10
13583.11819016569
 20
9400.013745883729
 30
0.0
 40
100.0
  1
壁面扉鴨居
  7
STYLE1
100
AcDbText
  0
LINE
  5
1691B
330
747D
100
AcDbEntity
  8
仕様書枠
 48
50.0
100
AcDbLine
 10
16307.19999999999
 20
8689.600000000003
 30
0.0
 11
13127.2
 21
8689.600000000005
 31
0.0
  0
LINE
  5
1691C
330
747D
100
AcDbEntity
  8
仕様書枠
 48
50.0
100
AcDbLine
 10
16307.19999999999
 20
8519.600000000004
 30
0.0
 11
13127.2
 21
8519.600000000005
 31
0.0
  0
TEXT
  5
1691D
330
747D
100
AcDbEntity
  8
文字
 62
     7
 48
50.0
100
AcDbText
 10
13583.11819016569
 20
8380.013745883728
 30
0.0
 40
100.0
  1
アンカープレート
  7
STYLE1
100
AcDbText
  0
TEXT
  5
1691E
330
747D
100
AcDbEntity
  8
文字
 62
     7
 48
50.0
100
AcDbText
 10
15022.63965474515
 20
8380.013745883724
 30
0.0
 40
100.0
  1
F12            2.3
  7
STYLE1
100
AcDbText
  0
LINE
  5
1691F
330
747D
100
AcDbEntity
  8
仕様書枠
 48
50.0
100
AcDbLine
 10
16307.2
 20
10049.6
 30
0.0
 11
13127.2
 21
10049.6
 31
0.0
  0
LINE
  5
16920
330
747D
100
AcDbEntity
  8
仕様書枠
 48
50.0
100
AcDbLine
 10
16307.2
 20
11409.6
 30
0.0
 11
13127.2
 21
11409.6
 31
0.0
  0
LINE
  5
16921
330
747D
100
AcDbEntity
  8
仕様書枠
 48
50.0
100
AcDbLine
 10
16307.19999999999
 20
8009.600000000004
 30
0.0
 11
16307.2
 21
11409.6
 31
0.0
  0
LINE
  5
16922
330
747D
100
AcDbEntity
  8
仕様書枠
 48
50.0
100
AcDbLine
 10
14785.2
 20
11409.59999999999
 30
0.0
 11
14785.2
 21
8349.600000000004
 31
0.0
  0
LINE
  5
16923
330
747D
100
AcDbEntity
  8
仕様書枠
 48
50.0
100
AcDbLine
 10
13490.2
 20
11409.6
 30
0.0
 11
13490.20000000001
 21
8349.600000000007
 31
0.0
  0
LINE
  5
16924
330
747D
100
AcDbEntity
  8
仕様書枠
 48
50.0
100
AcDbLine
 10
16307.2
 20
11239.6
 30
0.0
 11
13127.2
 21
11239.6
 31
0.0
  0
LINE
  5
16925
330
747D
100
AcDbEntity
  8
仕様書枠
 48
50.0
100
AcDbLine
 10
16307.2
 20
10899.6
 30
0.0
 11
13127.2
 21
10899.6
 31
0.0
  0
LINE
  5
16926
330
747D
100
AcDbEntity
  8
仕様書枠
 48
50.0
100
AcDbLine
 10
16307.2
 20
11069.6
 30
0.0
 11
13127.2
 21
11069.6
 31
0.0
  0
LINE
  5
16927
330
747D
100
AcDbEntity
  8
仕様書枠
 48
50.0
100
AcDbLine
 10
16307.19999999999
 20
10559.6
 30
0.0
 11
13127.2
 21
10559.6
 31
0.0
  0
LINE
  5
16928
330
747D
100
AcDbEntity
  8
仕様書枠
 48
50.0
100
AcDbLine
 10
16307.19999999999
 20
10389.6
 30
0.0
 11
13127.2
 21
10389.6
 31
0.0
  0
LINE
  5
16929
330
747D
100
AcDbEntity
  8
仕様書枠
 48
50.0
100
AcDbLine
 10
16307.19999999999
 20
10729.6
 30
0.0
 11
13127.2
 21
10729.6
 31
0.0
  0
TEXT
  5
1692A
330
747D
100
AcDbEntity
  8
文字
 62
     7
 48
50.0
100
AcDbText
 10
13197.42518560407
 20
11270.01374588372
 30
0.0
 40
100.0
  1
品番
  7
STYLE1
100
AcDbText
  0
TEXT
  5
1692B
330
747D
100
AcDbEntity
  8
文字
 62
     7
 48
50.0
100
AcDbText
 10
13271.19032244792
 20
11100.01374588373
 30
0.0
 40
100.0
  1
1
  7
STYLE1
100
AcDbText
  0
TEXT
  5
1692C
330
747D
100
AcDbEntity
  8
文字
 62
     7
 48
50.0
100
AcDbText
 10
13271.19032244792
 20
10930.01374588373
 30
0.0
 40
100.0
  1
2
  7
STYLE1
100
AcDbText
  0
TEXT
  5
1692D
330
747D
100
AcDbEntity
  8
文字
 62
     7
 48
50.0
100
AcDbText
 10
13271.19032244792
 20
10590.01374588373
 30
0.0
 40
100.0
  1
4
  7
STYLE1
100
AcDbText
  0
TEXT
  5
1692E
330
747D
100
AcDbEntity
  8
文字
 62
     7
 48
50.0
100
AcDbText
 10
13271.19032244792
 20
10760.01374588373
 30
0.0
 40
100.0
  1
3
  7
STYLE1
100
AcDbText
  0
TEXT
  5
1692F
330
747D
100
AcDbEntity
  8
文字
 62
     7
 48
50.0
100
AcDbText
 10
13732.03840939434
 20
11270.01374588372
 30
0.0
 40
100.0
  1
部　　品　　名
  7
STYLE1
100
AcDbText
  0
TEXT
  5
16930
330
747D
100
AcDbEntity
  8
文字
 62
     7
 48
50.0
100
AcDbText
 10
14859.79774614482
 20
11270.01374588372
 30
0.0
 40
100.0
  1
材料（材質）　　単位mm
  7
STYLE1
100
AcDbText
  0
TEXT
  5
16931
330
747D
100
AcDbEntity
  8
文字
 62
     7
 48
50.0
100
AcDbText
 10
13583.11819016569
 20
11100.01374588373
 30
0.0
 40
100.0
  1
土台枠
  7
STYLE1
100
AcDbText
  0
TEXT
  5
16932
330
747D
100
AcDbEntity
  8
文字
 62
     7
 48
50.0
100
AcDbText
 10
13583.1181901657
 20
10760.01374588372
 30
0.0
 40
100.0
  1
柱
  7
STYLE1
100
AcDbText
  0
TEXT
  5
16933
330
747D
100
AcDbEntity
  8
文字
 62
     7
 48
50.0
100
AcDbText
 10
13583.11819016569
 20
10420.01374588373
 30
0.0
 40
100.0
  1
桁前後
  7
STYLE1
100
AcDbText
  0
TEXT
  5
16934
330
747D
100
AcDbEntity
  8
文字
 62
     7
 48
50.0
100
AcDbText
 10
13271.19032244792
 20
10420.01374588372
 30
0.0
 40
100.0
  1
5
  7
STYLE1
100
AcDbText
  0
TEXT
  5
16935
330
747D
100
AcDbEntity
  8
文字
 62
     7
 48
50.0
100
AcDbText
 10
13583.11819016569
 20
10250.01374588373
 30
0.0
 40
100.0
  1
妻板左右
  7
STYLE1
100
AcDbText
  0
TEXT
  5
16936
330
747D
100
AcDbEntity
  8
文字
 62
     7
 48
50.0
100
AcDbText
 10
13248.77747366447
 20
9570.013745883727
 30
0.0
 40
100.0
  1
10
  7
STYLE1
100
AcDbText
  0
TEXT
  5
16937
330
747D
100
AcDbEntity
  8
文字
 62
     7
 48
50.0
100
AcDbText
 10
13583.11819016568
 20
9570.013745883729
 30
0.0
 40
100.0
  1
壁パネル
  7
STYLE1
100
AcDbText
  0
TEXT
  5
16938
330
747D
100
AcDbEntity
  8
文字
 62
     7
 48
50.0
100
AcDbText
 10
13583.11819016569
 20
9910.013745883727
 30
0.0
 40
100.0
  1
屋根パネル
  7
STYLE1
100
AcDbText
  0
TEXT
  5
16939
330
747D
100
AcDbEntity
  8
文字
 62
     7
 48
50.0
100
AcDbText
 10
13583.11819016569
 20
10080.01374588372
 30
0.0
 40
100.0
  1
鼻隠シ前後
  7
STYLE1
100
AcDbText
  0
TEXT
  5
1693A
330
747D
100
AcDbEntity
  8
文字
 62
     7
 48
50.0
100
AcDbText
 10
13271.19032244792
 20
9910.01374588373
 30
0.0
 40
100.0
  1
8
  7
STYLE1
100
AcDbText
  0
TEXT
  5
1693B
330
747D
100
AcDbEntity
  8
文字
 62
     7
 48
50.0
100
AcDbText
 10
13271.19032244792
 20
9740.013745883729
 30
0.0
 40
100.0
  1
9
  7
STYLE1
100
AcDbText
  0
TEXT
  5
1693C
330
747D
100
AcDbEntity
  8
文字
 62
     7
 48
50.0
100
AcDbText
 10
13271.19032244792
 20
10080.01374588373
 30
0.0
 40
100.0
  1
7
  7
STYLE1
100
AcDbText
  0
TEXT
  5
1693D
330
747D
100
AcDbEntity
  8
文字
 62
     7
 48
50.0
100
AcDbText
 10
13271.19032244792
 20
10250.01374588373
 30
0.0
 40
100.0
  1
6
  7
STYLE1
100
AcDbText
  0
LINE
  5
1693E
330
747D
100
AcDbEntity
  8
仕様書枠
 48
50.0
100
AcDbLine
 10
16307.19999999999
 20
9709.6
 30
0.0
 11
13127.2
 21
9709.600000000001
 31
0.0
  0
LINE
  5
1693F
330
747D
100
AcDbEntity
  8
仕様書枠
 48
50.0
100
AcDbLine
 10
16307.19999999999
 20
9369.599999999998
 30
0.0
 11
13127.2
 21
9369.600000000001
 31
0.0
  0
LINE
  5
16940
330
747D
100
AcDbEntity
  8
仕様書枠
 48
50.0
100
AcDbLine
 10
16307.19999999999
 20
9539.599999999998
 30
0.0
 11
13127.2
 21
9539.6
 31
0.0
  0
LINE
  5
16941
330
747D
100
AcDbEntity
  8
仕様書枠
 48
50.0
100
AcDbLine
 10
16307.2
 20
10219.6
 30
0.0
 11
13127.2
 21
10219.6
 31
0.0
  0
LINE
  5
16942
330
747D
100
AcDbEntity
  8
仕様書枠
 48
50.0
100
AcDbLine
 10
16307.2
 20
9879.599999999999
 30
0.0
 11
13127.2
 21
9879.600000000001
 31
0.0
  0
TEXT
  5
16943
330
747D
100
AcDbEntity
  8
文字
 62
     7
 48
50.0
100
AcDbText
 10
13248.77747366447
 20
9400.013745883727
 30
0.0
 40
100.0
  1
11
  7
STYLE1
100
AcDbText
  0
LINE
  5
16944
330
747D
100
AcDbEntity
  8
仕様書枠
 48
50.0
100
AcDbLine
 10
16307.19999999999
 20
9199.599999999998
 30
0.0
 11
13127.2
 21
9199.600000000001
 31
0.0
  0
LINE
  5
16945
330
747D
100
AcDbEntity
  8
仕様書枠
 48
50.0
100
AcDbLine
 10
16307.19999999999
 20
8859.6
 30
0.0
 11
13127.2
 21
8859.600000000002
 31
0.0
  0
TEXT
  5
16946
330
747D
100
AcDbEntity
  8
文字
 62
     7
 48
50.0
100
AcDbText
 10
13248.77747366448
 20
9060.013745883727
 30
0.0
 40
100.0
  1
13
  7
STYLE1
100
AcDbText
  0
TEXT
  5
16947
330
747D
100
AcDbEntity
  8
文字
 62
     7
 48
50.0
100
AcDbText
 10
13248.77747366448
 20
9230.013745883727
 30
0.0
 40
100.0
  1
12
  7
STYLE1
100
AcDbText
  0
TEXT
  5
16948
330
747D
100
AcDbEntity
  8
文字
 62
     7
 48
50.0
100
AcDbText
 10
15022.63965474517
 20
11100.01374588372
 30
0.0
 40
100.0
  1
F12            1.2
  7
STYLE1
100
AcDbText
  0
TEXT
  5
16949
330
747D
100
AcDbEntity
  8
文字
 62
     7
 48
50.0
100
AcDbText
 10
15022.63965474518
 20
10760.01374588372
 30
0.0
 40
100.0
  1
F12            1.0
  7
STYLE1
100
AcDbText
  0
TEXT
  5
1694A
330
747D
100
AcDbEntity
  8
文字
 62
     7
 48
50.0
100
AcDbText
 10
15022.63965474516
 20
10420.01374588372
 30
0.0
 40
100.0
  1
Y10            1.0
  7
STYLE1
100
AcDbText
  0
TEXT
  5
1694B
330
747D
100
AcDbEntity
  8
文字
 62
     7
 48
50.0
100
AcDbText
 10
15022.63965474516
 20
10250.01374588372
 30
0.0
 40
100.0
  1
Y10            0.7
  7
STYLE1
100
AcDbText
  0
TEXT
  5
1694C
330
747D
100
AcDbEntity
  8
文字
 62
     7
 48
50.0
100
AcDbText
 10
15022.63965474516
 20
10080.01374588372
 30
0.0
 40
100.0
  1
Y10            0.7
  7
STYLE1
100
AcDbText
  0
TEXT
  5
1694D
330
747D
100
AcDbEntity
  8
文字
 62
     7
 48
50.0
100
AcDbText
 10
15022.63965474517
 20
9910.013745883725
 30
0.0
 40
100.0
  1
Y10            0.5
  7
STYLE1
100
AcDbText
  0
TEXT
  5
1694E
330
747D
100
AcDbEntity
  8
文字
 62
     7
 48
50.0
100
AcDbText
 10
15022.63965474515
 20
9570.013745883725
 30
0.0
 40
100.0
  1
F12            0.6
  7
STYLE1
100
AcDbText
  0
LINE
  5
1694F
330
747D
100
AcDbEntity
  8
仕様書枠
 48
50.0
100
AcDbLine
 10
16307.19999999999
 20
8349.600000000004
 30
0.0
 11
13127.19999999999
 21
8349.600000000007
 31
0.0
  0
LINE
  5
16950
330
747D
100
AcDbEntity
  8
仕様書枠
 48
50.0
100
AcDbLine
 10
16307.19999999999
 20
8179.600000000004
 30
0.0
 11
13127.19999999999
 21
8179.600000000005
 31
0.0
  0
TEXT
  5
16951
330
747D
100
AcDbEntity
  8
文字
 62
     7
 48
50.0
100
AcDbText
 10
13229.83081656554
 20
8210.013745883733
 30
0.0
 40
100.0
  1
F12→溶融亜鉛めっき鋼板(JIS G 3302)
  7
STYLE1
100
AcDbText
  0
TEXT
  5
16952
330
747D
100
AcDbEntity
  8
文字
 62
     7
 48
50.0
100
AcDbText
 10
13229.83081656554
 20
8040.013745883731
 30
0.0
 40
100.0
  1
Y10→溶融亜鉛-5％アルミニウム合金めっき鋼板(JIS G 3317)
 41
0.9
  7
STYLE1
100
AcDbText
  0
LINE
  5
16953
330
747D
100
AcDbEntity
  8
仕様書枠
 48
50.0
100
AcDbLine
 10
13127.2
 20
11409.6
 30
0.0
 11
13127.19999999999
 21
8009.600000000006
 31
0.0
  0
LINE
  5
16954
330
747D
100
AcDbEntity
  8
仕様書枠
 48
50.0
100
AcDbLine
 10
16307.19999999999
 20
9029.6
 30
0.0
 11
13127.2
 21
9029.600000000002
 31
0.0
  0
TEXT
  5
16955
330
747D
100
AcDbEntity
  8
文字
 62
     7
 48
50.0
100
AcDbText
 10
13583.1181901657
 20
10590.01374588373
 30
0.0
 40
100.0
  1
床パネル
 41
0.9
  7
STYLE1
100
AcDbText
  0
TEXT
  5
16956
330
747D
100
AcDbEntity
  8
文字
 62
     7
 48
50.0
100
AcDbText
 10
13583.11819016569
 20
10930.01374588372
 30
0.0
 40
100.0
  1
根太
  7
STYLE1
100
AcDbText
  0
TEXT
  5
16957
330
747D
100
AcDbEntity
  8
文字
 62
     7
 48
50.0
100
AcDbText
 10
13248.77747366448
 20
8890.013745883727
 30
0.0
 40
100.0
  1
14
  7
STYLE1
100
AcDbText
  0
TEXT
  5
16958
330
747D
100
AcDbEntity
  8
文字
 62
     7
 48
50.0
100
AcDbText
 10
15022.63965474516
 20
10930.01374588372
 30
0.0
 40
100.0
  1
F12            1.2
  7
STYLE1
100
AcDbText
  0
TEXT
  5
16959
330
747D
100
AcDbEntity
  8
文字
 62
     7
 48
50.0
100
AcDbText
 10
15022.63965474517
 20
10590.01374588372
 30
0.0
 40
100.0
  1
F12            1.0
  7
STYLE1
100
AcDbText
  0
TEXT
  5
1695A
330
747D
100
AcDbEntity
  8
文字
 62
     7
 48
50.0
100
AcDbText
 10
15022.63965474515
 20
8890.013745883727
 30
0.0
 40
100.0
  1
F12            0.7
  7
STYLE1
100
AcDbText
  0
TEXT
  5
1695B
330
747D
100
AcDbEntity
  8
文字
 62
     7
 48
50.0
100
AcDbText
 10
13583.11819016568
 20
8890.013745883731
 30
0.0
 40
100.0
  1
正面パネル
  7
STYLE1
100
AcDbText
  0
TEXT
  5
1695C
330
747D
100
AcDbEntity
  8
文字
 62
     7
 48
50.0
100
AcDbText
 10
15022.63965474516
 20
8720.013745883727
 30
0.0
 40
100.0
  1
F12            0.8
  7
STYLE1
100
AcDbText
  0
TEXT
  5
1695D
330
747D
100
AcDbEntity
  8
文字
 62
     7
 48
50.0
100
AcDbText
 10
13583.11819016569
 20
8720.013745883731
 30
0.0
 40
100.0
  1
扉
  7
STYLE1
100
AcDbText
  0
LINE
  5
1695E
330
747D
100
AcDbEntity
  8
仕様書枠
 48
50.0
100
AcDbLine
 10
16307.19999999999
 20
8009.600000000004
 30
0.0
 11
13127.19999999999
 21
8009.600000000006
 31
0.0
  0
TEXT
  5
1695F
330
747D
100
AcDbEntity
  8
文字
 62
     7
 48
50.0
100
AcDbText
 10
13248.77747366447
 20
8720.013745883729
 30
0.0
 40
100.0
  1
15
  7
STYLE1
100
AcDbText
  0
TEXT
  5
16960
330
747D
100
AcDbEntity
  8
文字
 62
     7
 48
50.0
100
AcDbText
 10
13583.11819016569
 20
9740.013745883729
 30
0.0
 40
100.0
  1
母屋中
  7
STYLE1
100
AcDbText
  0
TEXT
  5
16961
330
747D
100
AcDbEntity
  8
文字
 62
     7
 48
50.0
100
AcDbText
 10
15022.63965474515
 20
9740.013745883723
 30
0.0
 40
100.0
  1
F12            1.0
  7
STYLE1
100
AcDbText
  0
TEXT
  5
16962
330
747D
100
AcDbEntity
  8
文字
 62
     7
 48
50.0
100
AcDbText
 10
15022.63965474516
 20
8550.013745883727
 30
0.0
 40
100.0
  1
F12            0.6
  7
STYLE1
100
AcDbText
  0
TEXT
  5
16963
330
747D
100
AcDbEntity
  8
文字
 62
     7
 48
50.0
100
AcDbText
 10
13583.11819016569
 20
8550.013745883731
 30
0.0
 40
100.0
  1
棚板
  7
STYLE1
100
AcDbText
  0
LINE
  5
16964
330
747D
100
AcDbEntity
  8
部品1
100
AcDbLine
 10
5321.425393906032
 20
2468.911759145215
 30
0.0
 11
5321.425393906032
 21
2368.911759145215
 31
0.0
  0
LINE
  5
16965
330
747D
100
AcDbEntity
  8
部品1
 48
50.0
100
AcDbLine
 10
5716.425393906033
 20
2468.911759145215
 30
0.0
 11
5716.425393906033
 21
2368.911759145215
 31
0.0
  0
LINE
  5
16966
330
747D
100
AcDbEntity
  8
部品1
 48
50.0
100
AcDbLine
 10
5916.425393906033
 20
2468.911759145215
 30
0.0
 11
5916.425393906033
 21
2368.911759145215
 31
0.0
  0
LINE
  5
16967
330
747D
100
AcDbEntity
  8
部品1
100
AcDbLine
 10
6311.425393906032
 20
2468.911759145215
 30
0.0
 11
6311.425393906032
 21
2368.911759145215
 31
0.0
  0
LINE
  5
16968
330
747D
100
AcDbEntity
  8
部品1
 48
50.0
100
AcDbLine
 10
6788.425393906035
 20
2468.911759145215
 30
0.0
 11
6703.925393906036
 21
2468.911759145215
 31
0.0
  0
LINE
  5
16969
330
747D
100
AcDbEntity
  8
部品1
 48
50.0
100
AcDbLine
 10
6788.425393906035
 20
4293.911759145216
 30
0.0
 11
6788.425393906035
 21
2368.911759145215
 31
0.0
  0
LINE
  5
1696A
330
747D
100
AcDbEntity
  8
部品1
 48
50.0
100
AcDbLine
 10
6711.425393906036
 20
4303.911759145216
 30
0.0
 11
6788.425393906035
 21
4293.911759145216
 31
0.0
  0
LINE
  5
1696B
330
747D
100
AcDbEntity
  8
部品1
100
AcDbLine
 10
10007.88574000359
 20
2468.911759145215
 30
0.0
 11
10007.88574000359
 21
2368.911759145215
 31
0.0
  0
LINE
  5
1696C
330
747D
100
AcDbEntity
  8
部品1
 48
50.0
100
AcDbLine
 10
9422.885740003589
 20
2468.911759145215
 30
0.0
 11
9422.885740003589
 21
2368.911759145215
 31
0.0
  0
LINE
  5
1696D
330
747D
100
AcDbEntity
  8
部品1
 48
50.0
100
AcDbLine
 10
9622.885740003589
 20
2468.911759145215
 30
0.0
 11
9622.885740003589
 21
2368.911759145215
 31
0.0
  0
LINE
  5
1696E
330
747D
100
AcDbEntity
  8
部品1
100
AcDbLine
 10
9037.885740003588
 20
2468.911759145215
 30
0.0
 11
9037.885740003588
 21
2368.911759145215
 31
0.0
  0
LINE
  5
1696F
330
747D
100
AcDbEntity
  8
部品1
100
AcDbLine
 10
10179.88574000359
 20
2518.911759145216
 30
0.0
 11
10207.88574000359
 21
2518.911759145215
 31
0.0
  0
LINE
  5
169E0
330
747D
100
AcDbEntity
  8
破線
 48
5.0
100
AcDbLine
 10
8832.88574000357
 20
2368.911759145215
 30
0.0
 11
8832.88574000357
 21
2213.911759145215
 31
0.0
  0
LINE
  5
169E1
330
747D
100
AcDbEntity
  8
破線
 48
5.0
100
AcDbLine
 10
10212.88574000359
 20
2368.911759145215
 30
0.0
 11
10212.88574000359
 21
2213.911759145215
 31
0.0
  0
LINE
  5
169E2
330
747D
100
AcDbEntity
  8
破線
 48
5.0
100
AcDbLine
 10
8812.88574000357
 20
2213.911759145215
 30
0.0
 11
8832.88574000357
 21
2213.911759145215
 31
0.0
  0
LINE
  5
169E3
330
747D
100
AcDbEntity
  8
部品1
100
AcDbLine
 10
8832.88574000357
 20
2513.911759145217
 30
0.0
 11
8832.88574000357
 21
2368.911759145215
 31
0.0
  0
LINE
  5
169E4
330
747D
100
AcDbEntity
  8
破線
 48
5.0
100
AcDbLine
 10
10232.88574000359
 20
2213.911759145215
 30
0.0
 11
10212.88574000358
 21
2213.911759145215
 31
0.0
  0
LINE
  5
169E5
330
747D
100
AcDbEntity
  8
部品1
100
AcDbLine
 10
10212.88574000359
 20
2513.911759145215
 30
0.0
 11
10212.88574000359
 21
2368.911759145215
 31
0.0
  0
LINE
  5
169E8
330
747D
100
AcDbEntity
  8
部品1
100
AcDbLine
 10
10207.88574000359
 20
4363.548339980469
 30
0.0
 11
10207.88574000359
 21
2368.911759145215
 31
0.0
  0
LINE
  5
169E9
330
747D
100
AcDbEntity
  8
部品1
100
AcDbLine
 10
8892.885740003571
 20
4308.911759145216
 30
0.0
 11
8892.885740003571
 21
4303.911759145216
 31
0.0
  0
LINE
  5
169EA
330
747D
100
AcDbEntity
  8
部品1
100
AcDbLine
 10
10152.88574000359
 20
4308.911759145216
 30
0.0
 11
10152.88574000359
 21
4303.911759145216
 31
0.0
  0
LINE
  5
169EB
330
747D
100
AcDbEntity
  8
部品1
100
AcDbLine
 10
8837.885740003569
 20
4400.488653085659
 30
0.0
 11
8837.885740003569
 21
2368.911759145215
 31
0.0
  0
LINE
  5
169ED
330
747D
100
AcDbEntity
  8
部品1
100
AcDbLine
 10
8837.885740003569
 20
4308.911759145216
 30
0.0
 11
10207.88574000359
 21
4308.911759145216
 31
0.0
  0
LINE
  5
169EE
330
747D
100
AcDbEntity
  8
部品1
100
AcDbLine
 10
8837.885740003569
 20
2468.911759145215
 30
0.0
 11
10207.88574000359
 21
2468.911759145215
 31
0.0
  0
LINE
  5
169EF
330
747D
100
AcDbEntity
  8
部品1
100
AcDbLine
 10
8837.885740003569
 20
2518.911759145215
 30
0.0
 11
8865.885740003587
 21
2518.911759145216
 31
0.0
  0
LINE
  5
169F0
330
747D
100
AcDbEntity
  8
破線
 48
5.0
100
AcDbLine
 10
10107.88574000359
 20
2368.911759145215
 30
0.0
 11
10107.88574000359
 21
2168.911759145214
 31
0.0
  0
LINE
  5
169F1
330
747D
100
AcDbEntity
  8
破線
 48
5.0
100
AcDbLine
 10
10307.88574000359
 20
2168.911759145213
 30
0.0
 11
10107.88574000359
 21
2168.911759145214
 31
0.0
  0
LINE
  5
169F2
330
747D
100
AcDbEntity
  8
破線
 48
5.0
100
AcDbLine
 10
10307.88574000359
 20
2368.911759145215
 30
0.0
 11
10307.88574000359
 21
2168.911759145213
 31
0.0
  0
LINE
  5
169F3
330
747D
100
AcDbEntity
  8
破線
 48
5.0
100
AcDbLine
 10
8927.885740003571
 20
2168.911759145215
 30
0.0
 11
8727.885740003575
 21
2168.911759145215
 31
0.0
  0
LINE
  5
169F4
330
747D
100
AcDbEntity
  8
破線
 48
5.0
100
AcDbLine
 10
8927.885740003572
 20
2368.911759145216
 30
0.0
 11
8927.885740003571
 21
2168.911759145215
 31
0.0
  0
LINE
  5
169F5
330
747D
100
AcDbEntity
  8
破線
 48
5.0
100
AcDbLine
 10
8727.885740003571
 20
2368.911759145216
 30
0.0
 11
8727.885740003575
 21
2168.911759145215
 31
0.0
  0
MTEXT
  5
169F6
330
747D
100
AcDbEntity
  8
寸法
 62
     7
 48
50.0
100
AcDbMText
 10
9797.053481350058
 20
7894.342539309882
 30
0.0
 40
96.0
 41
0.0
 71
     5
 72
     1
  1
棚 2段
  7
STYLE1
 11
0.0000000000000001
 21
1.0
 31
0.0
 73
     1
 44
1.0
1001
ACAD
1000
MTEXTBEGIN
1070
    73
1070
     1
1070
    44
1040
1.0
1070
    74
1070
     0
1000
MTEXTEND
  0
MTEXT
  5
169F7
330
747D
100
AcDbEntity
  8
寸法
 62
     7
 48
50.0
100
AcDbMText
 10
9797.053481350106
 20
8774.342539309882
 30
0.0
 40
96.0
 41
0.0
 71
     5
 72
     1
  1
棚 2段
  7
STYLE1
 11
0.0000000000000001
 21
1.0
 31
0.0
 73
     1
 44
1.0
1001
ACAD
1000
MTEXTBEGIN
1070
    73
1070
     1
1070
    44
1040
1.0
1070
    74
1070
     0
1000
MTEXTEND
  0
TEXT
  5
169F8
330
747D
100
AcDbEntity
  8
文字
 62
     7
 48
50.0
100
AcDbText
 10
14491.96323844892
 20
483.8967129911416
 30
0.0
 40
160.0
  1
ＮＸＮ－２５ＣＳＢ
  7
STYLE2
100
AcDbText
  0
LINE
  5
169F9
330
747D
100
AcDbEntity
  8
破線
 48
5.0
100
AcDbLine
 10
6583.92539390604
 20
2368.911759145215
 30
0.0
 11
6583.92539390604
 21
2168.911759145215
 31
0.0
  0
LINE
  5
169FA
330
747D
100
AcDbEntity
  8
破線
 48
5.0
100
AcDbLine
 10
6783.925393906037
 20
2168.911759145213
 30
0.0
 11
6583.92539390604
 21
2168.911759145215
 31
0.0
  0
LINE
  5
169FB
330
747D
100
AcDbEntity
  8
破線
 48
5.0
100
AcDbLine
 10
6783.92539390604
 20
2368.911759145215
 30
0.0
 11
6783.925393906037
 21
2168.911759145213
 31
0.0
  0
DIMENSION
  5
169FC
330
747D
100
AcDbEntity
  8
寸法
 48
50.0
100
AcDbDimension
  2
*D2
 10
4848.925393906036
 20
1882.864429844836
 30
0.0
 11
4948.925393906034
 21
1882.864429844836
 31
0.0
 70
   160
 71
     5
 42
199.9999999999963
  3
INABA_S40G
100
AcDbAlignedDimension
 13
5048.925393906032
 23
2168.911759145213
 33
0.0
 14
4848.925393906036
 24
2168.911759145214
 34
0.0
100
AcDbRotatedDimension
  0
LINE
  5
169FD
330
747D
100
AcDbEntity
  8
破線
 48
5.0
100
AcDbLine
 10
4848.925393906032
 20
2368.911759145215
 30
0.0
 11
4848.925393906036
 21
2168.911759145213
 31
0.0
  0
LINE
  5
169FE
330
747D
100
AcDbEntity
  8
破線
 48
5.0
100
AcDbLine
 10
5048.925393906032
 20
2368.911759145215
 30
0.0
 11
5048.925393906032
 21
2168.911759145213
 31
0.0
  0
LINE
  5
169FF
330
747D
100
AcDbEntity
  8
破線
 48
5.0
100
AcDbLine
 10
5048.925393906032
 20
2168.911759145213
 30
0.0
 11
4848.925393906036
 21
2168.911759145213
 31
0.0
  0
DIMENSION
  5
16A00
330
747D
100
AcDbEntity
  8
寸法
 48
50.0
100
AcDbDimension
  2
*D3
 10
4699.425390659399
 20
2368.911759145214
 30
0.0
 11
4699.425390659398
 21
2268.911759145215
 31
0.0
 70
   160
 71
     5
 42
200.0000000000009
  3
INABA_S40G
100
AcDbAlignedDimension
 13
4848.925393906036
 23
2168.911759145214
 33
0.0
 14
4823.925393906033
 24
2368.911759145214
 34
0.0
 50
90.0
100
AcDbRotatedDimension
1001
ACAD
1000
DSTYLE
1002
{
1070
   174
1070
     0
1070
   272
1070
     1
1070
   288
1070
     0
1070
   341
1005
0
1002
}
  0
LINE
  5
16A03
330
747D
100
AcDbEntity
  8
細線
 48
50.0
100
AcDbLine
 10
6578.92539390604
 20
4308.911759145216
 30
0.0
 11
6578.92539390604
 21
2518.911759145215
 31
0.0
  0
LINE
  5
16A04
330
747D
100
AcDbEntity
  8
細線
 48
50.0
100
AcDbLine
 10
6593.92539390604
 20
4308.911759145216
 30
0.0
 11
6593.92539390604
 21
2518.911759145215
 31
0.0
  0
LINE
  5
16A05
330
747D
100
AcDbEntity
  8
細線
 48
50.0
100
AcDbLine
 10
6453.92539390604
 20
4308.911759145216
 30
0.0
 11
6453.92539390604
 21
2518.911759145215
 31
0.0
  0
LINE
  5
16A06
330
747D
100
AcDbEntity
  8
細線
 48
50.0
100
AcDbLine
 10
6438.925393906039
 20
4308.911759145216
 30
0.0
 11
6438.925393906039
 21
2518.911759145215
 31
0.0
  0
LINE
  5
16A07
330
747D
100
AcDbEntity
  8
細線
 48
50.0
100
AcDbLine
 10
6298.92539390604
 20
4308.911759145216
 30
0.0
 11
6298.92539390604
 21
2518.911759145215
 31
0.0
  0
LINE
  5
16A08
330
747D
100
AcDbEntity
  8
細線
 48
50.0
100
AcDbLine
 10
6313.92539390604
 20
4308.911759145216
 30
0.0
 11
6313.92539390604
 21
2518.911759145215
 31
0.0
  0
LINE
  5
16A09
330
747D
100
AcDbEntity
  8
部品1
100
AcDbLine
 10
6236.425393906032
 20
4308.911759145216
 30
0.0
 11
6236.425393906032
 21
2518.911759145215
 31
0.0
  0
LINE
  5
16A0A
330
747D
100
AcDbEntity
  8
細線
 48
50.0
100
AcDbLine
 10
5893.925393906036
 20
4308.911759145216
 30
0.0
 11
5893.925393906036
 21
2518.911759145215
 31
0.0
  0
LINE
  5
16A0B
330
747D
100
AcDbEntity
  8
細線
 48
50.0
100
AcDbLine
 10
5878.925393906037
 20
4308.911759145216
 30
0.0
 11
5878.925393906037
 21
2518.911759145215
 31
0.0
  0
LINE
  5
16A0C
330
747D
100
AcDbEntity
  8
細線
 48
50.0
100
AcDbLine
 10
6018.925393906036
 20
4308.911759145216
 30
0.0
 11
6018.925393906036
 21
2518.911759145215
 31
0.0
  0
LINE
  5
16A0D
330
747D
100
AcDbEntity
  8
細線
 48
50.0
100
AcDbLine
 10
6033.925393906036
 20
4308.911759145216
 30
0.0
 11
6033.925393906036
 21
2518.911759145215
 31
0.0
  0
LINE
  5
16A0E
330
747D
100
AcDbEntity
  8
細線
 48
50.0
100
AcDbLine
 10
6173.925393906036
 20
4308.911759145216
 30
0.0
 11
6173.925393906036
 21
2518.911759145215
 31
0.0
  0
LINE
  5
16A0F
330
747D
100
AcDbEntity
  8
細線
 48
50.0
100
AcDbLine
 10
6158.925393906036
 20
4308.911759145216
 30
0.0
 11
6158.925393906036
 21
2518.911759145215
 31
0.0
  0
LINE
  5
16A10
330
747D
100
AcDbEntity
  8
部品1
100
AcDbLine
 10
5816.425393906033
 20
4308.911759145216
 30
0.0
 11
5816.425393906033
 21
2518.911759145215
 31
0.0
  0
LINE
  5
16A2E
330
747D
100
AcDbEntity
  8
細線
 48
50.0
100
AcDbLine
 10
5053.925393906033
 20
4308.911759145216
 30
0.0
 11
5053.925393906033
 21
2518.911759145215
 31
0.0
  0
LINE
  5
16A2F
330
747D
100
AcDbEntity
  8
細線
 48
50.0
100
AcDbLine
 10
5038.925393906033
 20
4308.911759145216
 30
0.0
 11
5038.925393906033
 21
2518.911759145215
 31
0.0
  0
LINE
  5
16A30
330
747D
100
AcDbEntity
  8
細線
 48
50.0
100
AcDbLine
 10
5178.925393906033
 20
4308.911759145216
 30
0.0
 11
5178.925393906033
 21
2518.911759145215
 31
0.0
  0
LINE
  5
16A31
330
747D
100
AcDbEntity
  8
細線
 48
50.0
100
AcDbLine
 10
5193.925393906033
 20
4308.911759145216
 30
0.0
 11
5193.925393906033
 21
2518.911759145215
 31
0.0
  0
LINE
  5
16A32
330
747D
100
AcDbEntity
  8
細線
 48
50.0
100
AcDbLine
 10
5333.925393906032
 20
4308.911759145216
 30
0.0
 11
5333.925393906032
 21
2518.911759145215
 31
0.0
  0
LINE
  5
16A33
330
747D
100
AcDbEntity
  8
細線
 48
50.0
100
AcDbLine
 10
5318.925393906033
 20
4308.911759145216
 30
0.0
 11
5318.925393906033
 21
2518.911759145215
 31
0.0
  0
LINE
  5
16A34
330
747D
100
AcDbEntity
  8
細線
 48
50.0
100
AcDbLine
 10
5738.925393906033
 20
4308.911759145216
 30
0.0
 11
5738.925393906033
 21
2518.911759145215
 31
0.0
  0
LINE
  5
16A35
330
747D
100
AcDbEntity
  8
細線
 48
50.0
100
AcDbLine
 10
5753.925393906033
 20
4308.911759145216
 30
0.0
 11
5753.925393906033
 21
2518.911759145215
 31
0.0
  0
LINE
  5
16A36
330
747D
100
AcDbEntity
  8
細線
 48
50.0
100
AcDbLine
 10
5613.925393906033
 20
4308.911759145216
 30
0.0
 11
5613.925393906033
 21
2518.911759145215
 31
0.0
  0
LINE
  5
16A37
330
747D
100
AcDbEntity
  8
細線
 48
50.0
100
AcDbLine
 10
5598.925393906032
 20
4308.911759145216
 30
0.0
 11
5598.925393906032
 21
2518.911759145215
 31
0.0
  0
LINE
  5
16A38
330
747D
100
AcDbEntity
  8
細線
 48
50.0
100
AcDbLine
 10
5458.925393906032
 20
4308.911759145216
 30
0.0
 11
5458.925393906032
 21
2518.911759145215
 31
0.0
  0
LINE
  5
16A39
330
747D
100
AcDbEntity
  8
細線
 48
50.0
100
AcDbLine
 10
5473.925393906032
 20
4308.911759145216
 30
0.0
 11
5473.925393906032
 21
2518.911759145215
 31
0.0
  0
LINE
  5
16A3A
330
747D
100
AcDbEntity
  8
部品1
100
AcDbLine
 10
4968.925393906033
 20
2468.911759145215
 30
0.0
 11
6663.925393906033
 21
2468.911759145215
 31
0.0
  0
LINE
  5
16A3B
330
747D
100
AcDbEntity
  8
部品1
100
AcDbLine
 10
6703.925393906033
 20
2468.911759145215
 30
0.0
 11
6711.425393906036
 21
2468.911759145215
 31
0.0
  0
LINE
  5
16A3C
330
747D
100
AcDbEntity
  8
破線
  6
HIDDEN
 48
5.0
100
AcDbLine
 10
4968.925393906033
 20
2368.911759145215
 30
0.0
 11
4968.925393906033
 21
2363.911759145215
 31
0.0
  0
LINE
  5
16A3D
330
747D
100
AcDbEntity
  8
破線
  6
HIDDEN
 48
5.0
100
AcDbLine
 10
4928.92539390604
 20
2368.911759145215
 30
0.0
 11
4928.92539390604
 21
2363.911759145215
 31
0.0
  0
LINE
  5
16A3E
330
747D
100
AcDbEntity
  8
破線
  6
HIDDEN
 48
5.0
100
AcDbLine
 10
6703.925393906033
 20
2368.911759145215
 30
0.0
 11
6703.925393906033
 21
2363.911759145215
 31
0.0
  0
LINE
  5
16A3F
330
747D
100
AcDbEntity
  8
破線
  6
HIDDEN
 48
5.0
100
AcDbLine
 10
6663.925393906033
 20
2368.911759145215
 30
0.0
 11
6663.925393906033
 21
2363.911759145215
 31
0.0
  0
ARC
  5
16A40
330
747D
100
AcDbEntity
  8
部品1
 48
50.0
100
AcDbCircle
 10
6698.925393906034
 20
2508.911759145215
 30
0.0
 40
5.0
100
AcDbArc
 50
0.0
 51
90.0
  0
ARC
  5
16A41
330
747D
100
AcDbEntity
  8
部品1
 48
50.0
100
AcDbCircle
 10
6668.925393906032
 20
2508.911759145215
 30
0.0
 40
5.0
100
AcDbArc
 50
90.0
 51
180.0
  0
LINE
  5
16A42
330
747D
100
AcDbEntity
  8
部品1
100
AcDbLine
 10
6698.925393906034
 20
2513.911759145215
 30
0.0
 11
6668.925393906032
 21
2513.911759145215
 31
0.0
  0
LINE
  5
16A43
330
747D
100
AcDbEntity
  8
部品1
 48
50.0
100
AcDbLine
 10
6703.925393906033
 20
2508.911759145215
 30
0.0
 11
6703.925393906033
 21
2368.911759145215
 31
0.0
  0
LINE
  5
16A44
330
747D
100
AcDbEntity
  8
部品1
 48
50.0
100
AcDbLine
 10
6663.925393906033
 20
2508.911759145215
 30
0.0
 11
6663.925393906033
 21
2368.911759145215
 31
0.0
  0
ARC
  5
16A45
330
747D
100
AcDbEntity
  8
部品1
 48
50.0
100
AcDbCircle
 10
4963.925393906032
 20
2508.911759145215
 30
0.0
 40
5.0
100
AcDbArc
 50
0.0
 51
90.0
  0
ARC
  5
16A46
330
747D
100
AcDbEntity
  8
部品1
 48
50.0
100
AcDbCircle
 10
4933.925393906033
 20
2508.911759145215
 30
0.0
 40
5.0
100
AcDbArc
 50
90.0
 51
180.0
  0
LINE
  5
16A47
330
747D
100
AcDbEntity
  8
部品1
100
AcDbLine
 10
4933.925393906033
 20
2513.911759145215
 30
0.0
 11
4963.925393906032
 21
2513.911759145215
 31
0.0
  0
LINE
  5
16A48
330
747D
100
AcDbEntity
  8
部品1
 48
50.0
100
AcDbLine
 10
4968.925393906033
 20
2508.911759145215
 30
0.0
 11
4968.925393906033
 21
2368.911759145215
 31
0.0
  0
LINE
  5
16A49
330
747D
100
AcDbEntity
  8
部品1
 48
50.0
100
AcDbLine
 10
4928.925393906033
 20
2508.911759145215
 30
0.0
 11
4928.925393906033
 21
2368.911759145215
 31
0.0
  0
LINE
  5
16A4A
330
747D
100
AcDbEntity
  8
破線
  6
HIDDEN
 48
5.0
100
AcDbLine
 10
4968.925393906033
 20
2363.911759145215
 30
0.0
 11
4983.925393906033
 21
2216.211759145215
 31
0.0
  0
LINE
  5
16A4B
330
747D
100
AcDbEntity
  8
破線
  6
HIDDEN
 48
5.0
100
AcDbLine
 10
4928.925393906033
 20
2363.911759145215
 30
0.0
 11
4913.925393906033
 21
2216.211759145215
 31
0.0
  0
LINE
  5
16A4C
330
747D
100
AcDbEntity
  8
破線
  6
HIDDEN
 48
5.0
100
AcDbLine
 10
4983.925393906033
 20
2216.211759145215
 30
0.0
 11
4983.925393906033
 21
2213.911759145215
 31
0.0
  0
LINE
  5
16A4D
330
747D
100
AcDbEntity
  8
破線
  6
HIDDEN
 48
5.0
100
AcDbLine
 10
4913.925393906033
 20
2216.211759145215
 30
0.0
 11
4913.925393906033
 21
2213.911759145215
 31
0.0
  0
LINE
  5
16A4E
330
747D
100
AcDbEntity
  8
破線
  6
HIDDEN
 48
5.0
100
AcDbLine
 10
4913.925393906033
 20
2213.911759145215
 30
0.0
 11
4983.925393906033
 21
2213.911759145215
 31
0.0
  0
LINE
  5
16A4F
330
747D
100
AcDbEntity
  8
破線
  6
HIDDEN
 48
5.0
100
AcDbLine
 10
6718.925393906032
 20
2216.211759145215
 30
0.0
 11
6718.925393906032
 21
2213.911759145215
 31
0.0
  0
LINE
  5
16A50
330
747D
100
AcDbEntity
  8
破線
  6
HIDDEN
 48
5.0
100
AcDbLine
 10
6703.925393906033
 20
2363.911759145215
 30
0.0
 11
6718.925393906032
 21
2216.211759145215
 31
0.0
  0
LINE
  5
16A51
330
747D
100
AcDbEntity
  8
破線
  6
HIDDEN
 48
5.0
100
AcDbLine
 10
6648.925393906033
 20
2216.211759145215
 30
0.0
 11
6648.925393906033
 21
2213.911759145215
 31
0.0
  0
LINE
  5
16A52
330
747D
100
AcDbEntity
  8
破線
  6
HIDDEN
 48
5.0
100
AcDbLine
 10
6663.925393906033
 20
2363.911759145215
 30
0.0
 11
6648.925393906033
 21
2216.211759145215
 31
0.0
  0
LINE
  5
16A53
330
747D
100
AcDbEntity
  8
破線
  6
HIDDEN
 48
5.0
100
AcDbLine
 10
6718.925393906032
 20
2213.911759145215
 30
0.0
 11
6648.925393906033
 21
2213.911759145215
 31
0.0
  0
DIMENSION
  5
16A57
330
747D
100
AcDbEntity
  8
寸法
100
AcDbDimension
  2
*D4
 10
10743.05583576601
 20
4488.911759145216
 30
0.0
 11
10743.05583576601
 21
3451.168086574904
 31
0.0
 70
   160
 71
     5
 42
2020.000000000003
  3
INABA_S40G
100
AcDbAlignedDimension
 13
10207.88574000359
 23
2468.911759145215
 33
0.0
 14
10287.88574000357
 24
4488.911759145216
 34
0.0
 50
90.0
100
AcDbRotatedDimension
1001
ACAD
1000
DSTYLE
1002
{
1070
   174
1070
     0
1070
   272
1070
     1
1070
   288
1070
     0
1070
   341
1005
0
1002
}
  0
LINE
  5
16A58
330
747D
100
AcDbEntity
  8
部品1
100
AcDbLine
 10
6656.425393906037
 20
4308.911759145216
 30
0.0
 11
6656.425393906037
 21
2518.911759145215
 31
0.0
  0
LINE
  5
16A59
330
747D
100
AcDbEntity
  8
部品1
100
AcDbLine
 10
6711.425393906033
 20
4402.91175914522
 30
0.0
 11
6711.425393906036
 21
2368.911759145215
 31
0.0
  0
LINE
  5
16A5A
330
747D
100
AcDbEntity
  8
部品1
100
AcDbLine
 10
5396.425393906032
 20
4308.911759145216
 30
0.0
 11
5396.425393906032
 21
2518.911759145215
 31
0.0
  0
DIMENSION
  5
16A5B
330
747D
100
AcDbEntity
  8
寸法
100
AcDbDimension
  2
*D5
 10
8214.233030845273
 20
2468.911759145215
 30
0.0
 11
8214.233030845273
 21
2162.864515050725
 31
0.0
 70
   160
 71
     5
 42
50.0
  3
INABA_S40G
100
AcDbAlignedDimension
 13
8837.885740003569
 23
2518.911759145215
 33
0.0
 14
8782.885740003569
 24
2468.911759145215
 34
0.0
 50
90.0
100
AcDbRotatedDimension
1001
ACAD
1000
DSTYLE
1002
{
1070
   174
1070
     0
1070
   272
1070
     1
1070
   288
1070
     0
1070
   341
1005
0
1002
}
  0
DIMENSION
  5
16A5C
330
747D
100
AcDbEntity
  8
寸法
100
AcDbDimension
  2
*D6
 10
7929.246358074212
 20
2368.911759145215
 30
0.0
 11
7929.246358074212
 21
2132.864515050724
 31
0.0
 70
   160
 71
     5
 42
100.0
  3
INABA_S40G
100
AcDbAlignedDimension
 13
8782.885740003569
 23
2468.911759145215
 33
0.0
 14
8214.233030845273
 24
2368.911759145215
 34
0.0
 50
90.0
100
AcDbRotatedDimension
1001
ACAD
1000
DSTYLE
1002
{
1070
   174
1070
     0
1070
   272
1070
     1
1070
   288
1070
     0
1070
   341
1005
0
1002
}
  0
DIMENSION
  5
16A5D
330
747D
100
AcDbEntity
  8
寸法
100
AcDbDimension
  2
*D7
 10
7929.246358074212
 20
4543.91175914522
 30
0.0
 11
7929.246358074212
 21
3463.117636638325
 31
0.0
 70
   160
 71
     5
 42
2075.000000000005
  3
INABA_S40G
100
AcDbAlignedDimension
 13
8837.885740003569
 23
2468.911759145215
 33
0.0
 14
8777.88574000357
 24
4543.91175914522
 34
0.0
 50
90.0
100
AcDbRotatedDimension
1001
ACAD
1000
DSTYLE
1002
{
1070
   174
1070
     0
1070
   272
1070
     1
1070
   288
1070
     0
1070
   341
1005
0
1002
}
  0
DIMENSION
  5
16A5E
330
747D
100
AcDbEntity
  8
寸法
100
AcDbDimension
  2
*D8
 10
8214.233030845273
 20
2518.911759145215
 30
0.0
 11
8214.233030845273
 21
3409.366057687173
 31
0.0
 70
   160
 71
     5
 42
1790.0
  3
INABA_S40G
100
AcDbAlignedDimension
 13
8837.885740003569
 23
4308.911759145215
 33
0.0
 14
8837.885740003569
 24
2518.911759145215
 34
0.0
 50
90.0
100
AcDbRotatedDimension
1001
ACAD
1000
DSTYLE
1002
{
1070
   174
1070
     0
1070
   272
1070
     1
1070
   288
1070
     0
1070
   341
1005
0
1002
}
  0
LINE
  5
16A5F
330
747D
100
AcDbEntity
  8
部品1
100
AcDbLine
 10
4921.425393906033
 20
4402.911759145218
 30
0.0
 11
4921.425393906033
 21
2368.911759145215
 31
0.0
  0
LINE
  5
16A60
330
747D
100
AcDbEntity
  8
部品1
100
AcDbLine
 10
4976.425393906033
 20
4308.911759145216
 30
0.0
 11
4976.425393906033
 21
2518.911759145215
 31
0.0
  0
LINE
  5
16A61
330
747D
100
AcDbEntity
  8
部品1
100
AcDbLine
 10
4921.425393906033
 20
2468.911759145215
 30
0.0
 11
4928.925393906033
 21
2468.911759145215
 31
0.0
  0
LINE
  5
16A62
330
747D
100
AcDbEntity
  8
部品1
100
AcDbLine
 10
4921.425393906033
 20
2518.911759145215
 30
0.0
 11
6711.425393906036
 21
2518.911759145215
 31
0.0
  0
LINE
  5
16A63
330
747D
100
AcDbEntity
  8
部品1
100
AcDbLine
 10
4921.425393906033
 20
4308.911759145216
 30
0.0
 11
6711.425393906033
 21
4308.911759145216
 31
0.0
  0
LINE
  5
16A82
330
747D
100
AcDbEntity
  8
部品1
 48
50.0
100
AcDbLine
 10
8865.885740003587
 20
2468.911759145215
 30
0.0
 11
10179.88574000359
 21
2468.911759145215
 31
0.0
  0
DIMENSION
  5
16A83
330
747D
100
AcDbEntity
  8
寸法
 48
50.0
100
AcDbDimension
  2
*D9
 10
8566.679710791435
 20
2526.911759145215
 30
0.0
 11
8566.679710791435
 21
3380.54477816274
 31
0.0
 70
   160
  1
有効開口部高サ<>
 71
     5
 42
1725.0
  3
INABA_S40G
100
AcDbAlignedDimension
 13
8865.885740003587
 23
4251.911759145214
 33
0.0
 14
8865.885740003587
 24
2526.911759145215
 34
0.0
 50
90.0
100
AcDbRotatedDimension
1001
ACAD
1000
DSTYLE
1002
{
1070
   341
1005
0
1002
}
  0
LINE
  5
16A84
330
747D
100
AcDbEntity
  8
部品1
100
AcDbLine
 10
6198.160727020251
 20
1679.873496167806
 30
0.0
 11
5434.690060791812
 21
1679.873496167806
 31
0.0
  0
LINE
  5
16A85
330
747D
100
AcDbEntity
  8
部品1
100
AcDbLine
 10
6198.160727020251
 20
1439.981174622273
 30
0.0
 11
6198.160727020251
 21
1679.873496167806
 31
0.0
  0
LINE
  5
16A86
330
747D
100
AcDbEntity
  8
部品1
100
AcDbLine
 10
5434.690060791812
 20
1439.981174622273
 30
0.0
 11
6198.160727020251
 21
1439.981174622273
 31
0.0
  0
LINE
  5
16A87
330
747D
100
AcDbEntity
  8
部品1
100
AcDbLine
 10
5434.690060791812
 20
1679.873496167806
 30
0.0
 11
5434.690060791812
 21
1439.981174622273
 31
0.0
  0
LINE
  5
16A88
330
747D
100
AcDbEntity
  8
部品1
100
AcDbLine
 10
9904.621073263434
 20
1679.873496167806
 30
0.0
 11
9141.150407034997
 21
1679.873496167806
 31
0.0
  0
LINE
  5
16A89
330
747D
100
AcDbEntity
  8
部品1
100
AcDbLine
 10
9904.621073263434
 20
1439.981174622273
 30
0.0
 11
9904.621073263434
 21
1679.873496167806
 31
0.0
  0
LINE
  5
16A8A
330
747D
100
AcDbEntity
  8
部品1
100
AcDbLine
 10
9141.150407034997
 20
1439.981174622273
 30
0.0
 11
9904.621073263434
 21
1439.981174622273
 31
0.0
  0
LINE
  5
16A8B
330
747D
100
AcDbEntity
  8
部品1
100
AcDbLine
 10
9141.150407034997
 20
1679.873496167806
 30
0.0
 11
9141.150407034997
 21
1439.981174622273
 31
0.0
  0
DIMENSION
  5
16A91
330
747D
100
AcDbEntity
  8
寸法
100
AcDbDimension
  2
*D10
 10
10855.3120857379
 20
7439.39679105743
 30
0.0
 11
10855.3120857379
 21
7130.911509683191
 31
0.0
 70
   160
 71
     5
 42
54.99999999999636
  3
INABA_S40G
100
AcDbAlignedDimension
 13
10207.88574000349
 23
7494.396791057427
 33
0.0
 14
10207.88574000349
 24
7439.396791057432
 34
0.0
 50
90.0
100
AcDbRotatedDimension
1001
ACAD
1000
DSTYLE
1002
{
1002
}
  0
DIMENSION
  5
16A92
330
747D
100
AcDbEntity
  8
寸法
100
AcDbDimension
  2
*D11
 10
11123.7506170384
 20
7439.39679105743
 30
0.0
 11
11123.7506170384
 21
8334.396791057434
 31
0.0
 70
   160
 71
     5
 42
1790.00000000001
  3
INABA_S40G
100
AcDbAlignedDimension
 13
10207.88574000352
 23
9229.396791057441
 33
0.0
 14
10207.88574000349
 24
7439.396791057432
 34
0.0
 50
90.0
100
AcDbRotatedDimension
1001
ACAD
1000
DSTYLE
1002
{
1002
}
  0
DIMENSION
  5
16A93
330
747D
100
AcDbEntity
  8
寸法
100
AcDbDimension
  2
*D12
 10
10855.31208573793
 20
9174.396791057445
 30
0.0
 11
10855.31208573793
 21
9537.882072431681
 31
0.0
 70
   160
 71
     5
 42
54.99999999999636
  3
INABA_S40G
100
AcDbAlignedDimension
 13
10207.88574000352
 23
9229.396791057441
 33
0.0
 14
10207.88574000352
 24
9174.396791057445
 34
0.0
 50
90.0
100
AcDbRotatedDimension
1001
ACAD
1000
DSTYLE
1002
{
1002
}
  0
DIMENSION
  5
16A94
330
747D
100
AcDbEntity
  8
寸法
100
AcDbDimension
  2
*D13
 10
10855.31208573793
 20
7494.396791057427
 30
0.0
 11
10855.31208573793
 21
8334.396791057434
 31
0.0
 70
   160
  1
4X420=<>
 71
     5
 42
1680.000000000017
  3
INABA_S40G
100
AcDbAlignedDimension
 13
10207.88574000352
 23
9174.396791057445
 33
0.0
 14
10207.88574000349
 24
7494.396791057427
 34
0.0
 50
90.0
100
AcDbRotatedDimension
1001
ACAD
1000
DSTYLE
1002
{
1002
}
  0
DIMENSION
  5
16A95
330
747D
100
AcDbEntity
  8
寸法
 48
50.0
100
AcDbDimension
  2
*D14
 10
10590.06894740422
 20
7357.452633500734
 30
0.0
 11
10590.06894740421
 21
7822.303498861559
 31
0.0
 70
   160
 71
     5
 42
852.999999999999
  3
INABA_S40G
100
AcDbAlignedDimension
 13
10177.88574000359
 23
8320.89679105743
 33
0.0
 14
10177.88574000349
 24
7467.896791057431
 34
0.0
 50
90.0
100
AcDbRotatedDimension
  0
DIMENSION
  5
16A96
330
747D
100
AcDbEntity
  8
寸法
 48
50.0
100
AcDbDimension
  2
*D15
 10
10590.06894740422
 20
8237.452633500756
 30
0.0
 11
10590.06894740422
 21
8668.053498861571
 31
0.0
 70
   160
 71
     5
 42
853.0000000000109
  3
INABA_S40G
100
AcDbAlignedDimension
 13
10177.88574000359
 23
9200.896791057434
 33
0.0
 14
10177.88574000359
 24
8347.896791057422
 34
0.0
 50
90.0
100
AcDbRotatedDimension
  0
DIMENSION
  5
16A98
330
747D
100
AcDbEntity
  8
寸法
 48
50.0
100
AcDbDimension
  2
*D16
 10
8727.88574000357
 20
1882.864429844838
 30
0.0
 11
8827.885740003571
 21
1882.864429844838
 31
0.0
 70
   160
 71
     5
 42
200.0000000000018
  3
INABA_S40G
100
AcDbAlignedDimension
 13
8927.885740003571
 23
2168.911759145215
 33
0.0
 14
8727.88574000357
 24
2168.911759145215
 34
0.0
100
AcDbRotatedDimension
  0
LINE
  5
16A99
330
747D
100
AcDbEntity
  8
部品1
100
AcDbLine
 10
8892.885740003462
 20
7439.396791057425
 30
0.0
 11
8837.88574000345
 21
7439.396791057425
 31
0.0
  0
LINE
  5
16A9A
330
747D
100
AcDbEntity
  8
部品1
100
AcDbLine
 10
8892.885740003592
 20
9201.396791057439
 30
0.0
 11
8892.885740003592
 21
9229.396791057437
 31
0.0
  0
LINE
  5
16A9B
330
747D
100
AcDbEntity
  8
部品1
100
AcDbLine
 10
8892.885740003462
 20
7467.396791057414
 30
0.0
 11
8892.885740003462
 21
7439.396791057413
 31
0.0
  0
LINE
  5
16A9C
330
747D
100
AcDbEntity
  8
部品1
100
AcDbLine
 10
8865.885740003511
 20
7494.396791057505
 30
0.0
 11
8837.885740003512
 21
7494.396791057505
 31
0.0
  0
LINE
  5
16A9D
330
747D
100
AcDbEntity
  8
部品1
100
AcDbLine
 10
8865.885740003479
 20
7494.396791057472
 30
0.0
 11
8837.885740003478
 21
7494.396791057472
 31
0.0
  0
LINE
  5
16A9E
330
747D
100
AcDbEntity
  8
部品1
100
AcDbLine
 10
8865.885740003511
 20
7914.396791057504
 30
0.0
 11
8837.885740003512
 21
7914.396791057504
 31
0.0
  0
LINE
  5
16A9F
330
747D
100
AcDbEntity
  8
部品1
100
AcDbLine
 10
8865.885740003511
 20
7914.396791057504
 30
0.0
 11
8837.88574000351
 21
7914.396791057504
 31
0.0
  0
LINE
  5
16AA0
330
747D
100
AcDbEntity
  8
部品1
100
AcDbLine
 10
8865.885740003626
 20
7914.396791057504
 30
0.0
 11
8837.885740003626
 21
7914.396791057504
 31
0.0
  0
LINE
  5
16AA1
330
747D
100
AcDbEntity
  8
部品1
100
AcDbLine
 10
8865.885740003626
 20
8334.396791057503
 30
0.0
 11
8837.885740003626
 21
8334.396791057503
 31
0.0
  0
LINE
  5
16AA2
330
747D
100
AcDbEntity
  8
部品1
100
AcDbLine
 10
8865.885740003626
 20
9174.396791057507
 30
0.0
 11
8837.885740003626
 21
9174.396791057507
 31
0.0
  0
LINE
  5
16AA3
330
747D
100
AcDbEntity
  8
部品1
100
AcDbLine
 10
8865.885740003607
 20
9174.396791057507
 30
0.0
 11
8837.885740003606
 21
9174.396791057507
 31
0.0
  0
LINE
  5
16AA4
330
747D
100
AcDbEntity
  8
部品1
100
AcDbLine
 10
8865.885740003626
 20
8754.396791057503
 30
0.0
 11
8837.885740003626
 21
8754.396791057503
 31
0.0
  0
LINE
  5
16AA6
330
747D
100
AcDbEntity
  8
部品1
 48
50.0
100
AcDbLine
 10
8894.385740003626
 20
7495.896791057422
 30
0.0
 11
8865.885740003628
 21
7467.396791057424
 31
0.0
  0
LINE
  5
16AA7
330
747D
100
AcDbEntity
  8
破線
 48
10.0
100
AcDbLine
 10
9727.885740003593
 20
7519.396791057407
 30
0.0
 11
8917.885740003532
 21
7519.396791057421
 31
0.0
  0
LINE
  5
16AA8
330
747D
100
AcDbEntity
  8
部品1
100
AcDbLine
 10
9727.885740003591
 20
7495.89679105741
 30
0.0
 11
8894.385740003626
 21
7495.896791057422
 31
0.0
  0
LINE
  5
16AA9
330
747D
100
AcDbEntity
  8
部品1
 48
50.0
100
AcDbLine
 10
8894.385740003626
 20
9172.896791057413
 30
0.0
 11
8865.885740003628
 21
9201.396791057408
 31
0.0
  0
LINE
  5
16AAA
330
747D
100
AcDbEntity
  8
破線
 48
10.0
100
AcDbLine
 10
9727.885740003593
 20
9149.396791057426
 30
0.0
 11
8917.885740003624
 21
9149.396791057412
 31
0.0
  0
LINE
  5
16AAB
330
747D
100
AcDbEntity
  8
部品1
100
AcDbLine
 10
9727.885740003591
 20
9172.896791057423
 30
0.0
 11
8894.385740003629
 21
9172.896791057409
 31
0.0
  0
LINE
  5
16AAC
330
747D
100
AcDbEntity
  8
破線
 48
10.0
100
AcDbLine
 10
8917.885740003578
 20
8309.396791057405
 30
0.0
 11
8917.885740003532
 21
7519.396791057421
 31
0.0
  0
LINE
  5
16AAD
330
747D
100
AcDbEntity
  8
破線
 48
10.0
100
AcDbLine
 10
8917.885740003624
 20
9149.396791057412
 30
0.0
 11
8917.885740003582
 21
8359.396791057404
 31
0.0
  0
LINE
  5
16AAE
330
747D
100
AcDbEntity
  8
部品1
100
AcDbLine
 10
8894.385740003626
 20
9172.896791057413
 30
0.0
 11
8894.38574000353
 21
7495.896791057326
 31
0.0
  0
LINE
  5
16AAF
330
747D
100
AcDbEntity
  8
破線
 48
10.0
100
AcDbLine
 10
8894.385740003578
 20
8309.396791057405
 30
0.0
 11
9727.885740003598
 21
8309.396791057405
 31
0.0
  0
LINE
  5
16AB0
330
747D
100
AcDbEntity
  8
破線
 48
10.0
100
AcDbLine
 10
8894.385740003581
 20
8359.396791057401
 30
0.0
 11
9727.885740003598
 21
8359.396791057404
 31
0.0
  0
LINE
  5
16AB1
330
747D
100
AcDbEntity
  8
部品1
 48
50.0
100
AcDbLine
 10
9312.885740003592
 20
9172.896791057416
 30
0.0
 11
9312.885740003679
 21
7495.896791057417
 31
0.0
  0
TEXT
  5
16AB2
330
747D
100
AcDbEntity
  8
部品1
100
AcDbText
 10
5524.13616221542
 20
1486.979966949281
 30
0.0
 40
135.0
  1
側面図
  7
STYLE2
100
AcDbText
  0
TEXT
  5
16AB3
330
747D
100
AcDbEntity
  8
部品1
100
AcDbText
 10
9231.675810772951
 20
1486.979966949281
 30
0.0
 40
135.0
  1
正面図
  7
STYLE2
100
AcDbText
  0
LINE
  5
16AB4
330
747D
100
AcDbEntity
  8
部品1
100
AcDbLine
 10
10207.88574000349
 20
7439.396791057432
 30
0.0
 11
10207.88574000359
 21
9229.396791057434
 31
0.0
  0
LINE
  5
16AB5
330
747D
100
AcDbEntity
  8
部品1
100
AcDbLine
 10
10152.88574000359
 20
9201.396791057433
 30
0.0
 11
10152.88574000359
 21
9229.396791057434
 31
0.0
  0
LINE
  5
16AB6
330
747D
100
AcDbEntity
  8
部品1
100
AcDbLine
 10
9732.885740003593
 20
9201.396791057433
 30
0.0
 11
9732.885740003593
 21
9229.396791057434
 31
0.0
  0
LINE
  5
16AB7
330
747D
100
AcDbEntity
  8
部品1
100
AcDbLine
 10
10177.88574000359
 20
9200.896791057434
 30
0.0
 11
9727.885740003591
 21
9200.896791057434
 31
0.0
  0
LINE
  5
16AB8
330
747D
100
AcDbEntity
  8
部品1
100
AcDbLine
 10
10197.88574000359
 20
8299.39679105743
 30
0.0
 11
10179.88574000359
 21
8299.39679105743
 31
0.0
  0
LINE
  5
16AB9
330
747D
100
AcDbEntity
  8
部品1
100
AcDbLine
 10
10197.88574000359
 20
8299.39679105743
 30
0.0
 11
10197.88574000359
 21
8305.396791057431
 31
0.0
  0
LINE
  5
16ABA
330
747D
100
AcDbEntity
  8
部品1
100
AcDbLine
 10
10197.88574000359
 20
8369.396791057431
 30
0.0
 11
10179.88574000359
 21
8369.396791057431
 31
0.0
  0
LINE
  5
16ABB
330
747D
100
AcDbEntity
  8
部品1
100
AcDbLine
 10
10197.88574000359
 20
8363.39679105743
 30
0.0
 11
10197.88574000359
 21
8369.396791057431
 31
0.0
  0
LINE
  5
16ABC
330
747D
100
AcDbEntity
  8
部品1
100
AcDbLine
 10
10171.88574000359
 20
8321.896791057431
 30
0.0
 11
10171.88574000359
 21
8346.89679105743
 31
0.0
  0
LINE
  5
16ABD
330
747D
100
AcDbEntity
  8
部品1
100
AcDbLine
 10
9727.885740003598
 20
8321.896791057431
 30
0.0
 11
9727.885740003598
 21
8346.89679105743
 31
0.0
  0
LINE
  5
16ABE
330
747D
100
AcDbEntity
  8
部品1
 48
50.0
100
AcDbLine
 10
10179.8857400036
 20
8321.896791057431
 30
0.0
 11
9727.885740003598
 21
8321.896791057431
 31
0.0
  0
LINE
  5
16ABF
330
747D
100
AcDbEntity
  8
部品1
 48
50.0
100
AcDbLine
 10
10179.8857400036
 20
8346.89679105743
 30
0.0
 11
9727.885740003598
 21
8346.89679105743
 31
0.0
  0
LINE
  5
16AC0
330
747D
100
AcDbEntity
  8
部品1
 48
50.0
100
AcDbLine
 10
10177.88574000359
 20
8320.89679105743
 30
0.0
 11
9727.885740003598
 21
8320.89679105743
 31
0.0
  0
LINE
  5
16AC1
330
747D
100
AcDbEntity
  8
部品1
 48
50.0
100
AcDbLine
 10
10177.88574000359
 20
8347.896791057429
 30
0.0
 11
9727.885740003598
 21
8347.896791057429
 31
0.0
  0
LINE
  5
16AC2
330
747D
100
AcDbEntity
  8
部品1
100
AcDbLine
 10
10179.8857400036
 20
8346.89679105743
 30
0.0
 11
10179.88574000359
 21
9201.396791057433
 31
0.0
  0
LINE
  5
16AC3
330
747D
100
AcDbEntity
  8
部品1
100
AcDbLine
 10
10177.88574000359
 20
8347.896791057429
 30
0.0
 11
10177.88574000359
 21
9200.896791057434
 31
0.0
  0
LINE
  5
16AC4
330
747D
100
AcDbEntity
  8
細線
 48
50.0
100
AcDbLine
 10
9727.885740003591
 20
9200.896791057434
 30
0.0
 11
10177.88574000359
 21
8347.896791057429
 31
0.0
  0
LINE
  5
16AC5
330
747D
100
AcDbEntity
  8
細線
 48
50.0
100
AcDbLine
 10
10177.88574000359
 20
9200.896791057434
 30
0.0
 11
9727.885740003598
 21
8347.896791057429
 31
0.0
  0
LINE
  5
16AC6
330
747D
100
AcDbEntity
  8
部品1
100
AcDbLine
 10
9727.885740003598
 20
8347.896791057429
 30
0.0
 11
9727.885740003591
 21
9200.896791057434
 31
0.0
  0
LINE
  5
16AC7
330
747D
100
AcDbEntity
  8
部品1
100
AcDbLine
 10
9312.885740003592
 20
9201.396791057439
 30
0.0
 11
9312.885740003592
 21
9229.396791057437
 31
0.0
  0
LINE
  5
16AC8
330
747D
100
AcDbEntity
  8
部品1
100
AcDbLine
 10
10179.88574000359
 20
9201.396791057433
 30
0.0
 11
8865.885740003628
 21
9201.396791057408
 31
0.0
  0
LINE
  5
16AC9
330
747D
100
AcDbEntity
  8
部品1
100
AcDbLine
 10
10152.88574000346
 20
7467.396791057399
 30
0.0
 11
10152.88574000346
 21
7439.396791057399
 31
0.0
  0
LINE
  5
16ACA
330
747D
100
AcDbEntity
  8
部品1
 48
50.0
100
AcDbLine
 10
10177.88574000349
 20
7467.896791057431
 30
0.0
 11
9727.885740003491
 21
7467.896791057431
 31
0.0
  0
LINE
  5
16ACB
330
747D
100
AcDbEntity
  8
部品1
100
AcDbLine
 10
10179.88574000349
 20
7467.396791057431
 30
0.0
 11
10179.8857400035
 21
7914.396791057431
 31
0.0
  0
LINE
  5
16ACC
330
747D
100
AcDbEntity
  8
部品1
100
AcDbLine
 10
8865.885740003614
 20
7467.396791057407
 30
0.0
 11
10179.88574000349
 21
7467.396791057431
 31
0.0
  0
LINE
  5
16ACD
330
747D
100
AcDbEntity
  8
部品1
100
AcDbLine
 10
8837.88574000358
 20
9229.396791057409
 30
0.0
 11
8837.885740003484
 21
7439.396791057425
 31
0.0
  0
LINE
  5
16ACE
330
747D
100
AcDbEntity
  8
部品1
100
AcDbLine
 10
10179.88574000361
 20
7494.396791057432
 30
0.0
 11
10179.88574000361
 21
8321.896791057431
 31
0.0
  0
LINE
  5
16ACF
330
747D
100
AcDbEntity
  8
部品1
100
AcDbLine
 10
10177.88574000349
 20
7467.896791057431
 30
0.0
 11
10177.8857400036
 21
8320.89679105743
 31
0.0
  0
LINE
  5
16AD0
330
747D
100
AcDbEntity
  8
細線
 48
50.0
100
AcDbLine
 10
9727.885740003598
 20
8320.89679105743
 30
0.0
 11
10177.88574000349
 21
7467.896791057431
 31
0.0
  0
LINE
  5
16AD1
330
747D
100
AcDbEntity
  8
細線
 48
50.0
100
AcDbLine
 10
10177.88574000359
 20
8320.89679105743
 30
0.0
 11
9727.885740003493
 21
7467.896791057431
 31
0.0
  0
LINE
  5
16AD2
330
747D
100
AcDbEntity
  8
部品1
100
AcDbLine
 10
9727.885740003493
 20
7467.896791057431
 30
0.0
 11
9727.885740003598
 21
8320.89679105743
 31
0.0
  0
LINE
  5
16AD3
330
747D
100
AcDbEntity
  8
部品1
100
AcDbLine
 10
8865.885740003628
 20
9201.396791057408
 30
0.0
 11
8865.885740003529
 21
7467.396791057407
 31
0.0
  0
DIMENSION
  5
16AD5
330
747D
100
AcDbEntity
  8
寸法
100
AcDbDimension
  2
*D17
 10
10152.88574000359
 20
9876.823136791843
 30
0.0
 11
9522.885740003586
 21
9876.823136791843
 31
0.0
 70
   160
  1
3X420=<>
 71
     5
 42
1260.000000000016
  3
INABA_S40G
100
AcDbAlignedDimension
 13
8892.885740003576
 23
9229.396791057434
 33
0.0
 14
10152.88574000359
 24
9229.396791057409
 34
0.0
 50
180.0
100
AcDbRotatedDimension
1001
ACAD
1000
DSTYLE
1002
{
1002
}
  0
DIMENSION
  5
16AD6
330
747D
100
AcDbEntity
  8
寸法
100
AcDbDimension
  2
*D18
 10
10207.88574000359
 20
9876.823136791818
 30
0.0
 11
10585.74720690845
 21
9876.823136791818
 31
0.0
 70
   160
 71
     5
 42
54.99999999999636
  3
INABA_S40G
100
AcDbAlignedDimension
 13
10152.88574000359
 23
9229.396791057409
 33
0.0
 14
10207.88574000359
 24
9229.396791057409
 34
0.0
 50
180.0
100
AcDbRotatedDimension
1001
ACAD
1000
DSTYLE
1002
{
1002
}
  0
DIMENSION
  5
16AD7
330
747D
100
AcDbEntity
  8
寸法
100
AcDbDimension
  2
*D19
 10
9632.667924334702
 20
9556.254516919457
 30
0.0
 11
9857.667924334698
 21
9656.254516919458
 31
0.0
 70
    32
 71
     5
 42
449.9999999999982
  3
INABA_S40G
100
AcDbAlignedDimension
 13
10177.88574000359
 23
9200.896791057434
 33
0.0
 14
9727.885740003591
 24
9200.896791057434
 34
0.0
 50
180.0
100
AcDbRotatedDimension
1001
ACAD
1000
DSTYLE
1002
{
1002
}
  0
DIMENSION
  5
16AD8
330
747D
100
AcDbEntity
  8
寸法
100
AcDbDimension
  2
*D20
 10
8892.885740003576
 20
9876.823136791843
 30
0.0
 11
8529.400458629341
 21
9876.823136791843
 31
0.0
 70
   160
 71
     5
 42
54.99999999999636
  3
INABA_S40G
100
AcDbAlignedDimension
 13
8837.88574000358
 23
9229.396791057434
 33
0.0
 14
8892.885740003576
 24
9229.396791057434
 34
0.0
 50
180.0
100
AcDbRotatedDimension
1001
ACAD
1000
DSTYLE
1002
{
1002
}
  0
LINE
  5
16AD9
330
747D
100
AcDbEntity
  8
部品1
100
AcDbLine
 10
10207.88574000349
 20
7494.396791057432
 30
0.0
 11
10179.88574000349
 21
7494.396791057432
 31
0.0
  0
LINE
  5
16ADA
330
747D
100
AcDbEntity
  8
部品1
100
AcDbLine
 10
10207.88574000349
 20
7914.396791057431
 30
0.0
 11
10179.88574000349
 21
7914.396791057431
 31
0.0
  0
LINE
  5
16ADB
330
747D
100
AcDbEntity
  8
部品1
100
AcDbLine
 10
10207.88574000349
 20
7914.396791057431
 30
0.0
 11
10179.88574000349
 21
7914.396791057431
 31
0.0
  0
LINE
  5
16ADC
330
747D
100
AcDbEntity
  8
部品1
100
AcDbLine
 10
10207.88574000361
 20
7914.396791057431
 30
0.0
 11
10179.88574000361
 21
7914.396791057431
 31
0.0
  0
LINE
  5
16ADD
330
747D
100
AcDbEntity
  8
部品1
100
AcDbLine
 10
10207.88574000361
 20
8334.396791057431
 30
0.0
 11
10179.88574000361
 21
8334.396791057431
 31
0.0
  0
LINE
  5
16ADE
330
747D
100
AcDbEntity
  8
部品1
100
AcDbLine
 10
10207.88574000361
 20
8754.39679105743
 30
0.0
 11
10179.88574000361
 21
8754.39679105743
 31
0.0
  0
LINE
  5
16ADF
330
747D
100
AcDbEntity
  8
部品1
100
AcDbLine
 10
10207.88574000359
 20
9229.396791057434
 30
0.0
 11
8837.88574000358
 21
9229.396791057409
 31
0.0
  0
LINE
  5
16AE0
330
747D
100
AcDbEntity
  8
部品1
100
AcDbLine
 10
10207.88574000361
 20
9174.396791057434
 30
0.0
 11
10179.88574000361
 21
9174.396791057434
 31
0.0
  0
LINE
  5
16AE1
330
747D
100
AcDbEntity
  8
部品1
100
AcDbLine
 10
10207.88574000359
 20
9174.396791057434
 30
0.0
 11
10179.88574000359
 21
9174.396791057434
 31
0.0
  0
LINE
  5
16AE2
330
747D
100
AcDbEntity
  8
部品1
100
AcDbLine
 10
10207.88574000346
 20
7439.396791057399
 30
0.0
 11
10152.88574000346
 21
7439.396791057399
 31
0.0
  0
LINE
  5
16AE3
330
747D
100
AcDbEntity
  8
部品1
100
AcDbLine
 10
10207.88574000346
 20
7494.396791057399
 30
0.0
 11
10179.88574000346
 21
7494.396791057399
 31
0.0
  0
TEXT
  5
16AE4
330
747D
100
AcDbEntity
  8
部品1
100
AcDbText
 10
3891.183074505913
 20
2405.018662751117
 30
0.0
 40
125.0
  1
▽G.L
  7
STYLE2
100
AcDbText
  0
LINE
  5
16AE5
330
747D
100
AcDbEntity
  8
Ｇ．Ｌ
100
AcDbLine
 10
3840.941641130264
 20
2368.911759145215
 30
0.0
 11
10770.7695701594
 21
2368.911759145215
 31
0.0
  0
TEXT
  5
16AEA
330
747D
100
AcDbEntity
  8
文字
 62
     7
 48
50.0
100
AcDbText
 10
13209.4053442172
 20
228.5435242569015
 30
0.0
 40
100.0
  1
○有効開口寸法 ： 674×1725(mm)
  7
STYLE2
100
AcDbText
  0
LINE
  5
16ED3
330
747D
100
AcDbEntity
  8
補助
  6
PHANTOM
 62
   230
 48
50.0
100
AcDbLine
 10
140.0
 20
0.0
 30
0.0
 11
139.9999999999995
 21
11409.6
 31
0.0
  0
LINE
  5
170DB
330
747D
100
AcDbEntity
  8
部品1
 48
50.0
100
AcDbLine
 10
9382.885740003573
 20
4674.779898246495
 30
0.0
 11
9682.885740003573
 21
4653.179898246496
 31
0.0
  0
TEXT
  5
1712A
330
747D
100
AcDbEntity
  8
部品1
 48
50.0
100
AcDbText
 10
9371.1535752273
 20
4710.663920398928
 30
0.0
 40
120.0
  1
1000
  7
STYLE1
100
AcDbText
  0
LINE
  5
1712B
330
747D
100
AcDbEntity
  8
部品1
 48
50.0
100
AcDbLine
 10
9682.885740003573
 20
4674.779898246495
 30
0.0
 11
9682.885740003573
 21
4653.179898246496
 31
0.0
  0
LINE
  5
1712C
330
747D
100
AcDbEntity
  8
部品1
 48
50.0
100
AcDbLine
 10
9382.885740003573
 20
4674.779898246495
 30
0.0
 11
9682.885740003573
 21
4674.779898246495
 31
0.0
  0
DIMENSION
  5
17163
330
747D
100
AcDbEntity
  8
寸法
 48
50.0
100
AcDbDimension
  2
*D21
 10
10287.88574000357
 20
4942.569212724521
 30
0.0
 11
10493.93298409806
 21
4942.569212724521
 31
0.0
 70
   160
 71
     5
 42
80.0
  3
INABA_S40G
100
AcDbAlignedDimension
 13
10207.88574000357
 23
4490.722438756869
 33
0.0
 14
10287.88574000357
 24
4488.911759145216
 34
0.0
100
AcDbRotatedDimension
1001
ACAD
1000
DSTYLE
1002
{
1070
   174
1070
     0
1070
   272
1070
     1
1070
   288
1070
     0
1070
   341
1005
0
1002
}
  0
ARC
  5
17164
330
747D
100
AcDbEntity
  8
部品1
100
AcDbCircle
 10
10273.5132758175
 20
4382.345560029434
 30
0.0
 40
0.7
100
AcDbArc
 50
275.0921697642102
 51
354.1866997666828
  0
ARC
  5
17165
330
747D
100
AcDbEntity
  8
部品1
100
AcDbCircle
 10
10284.37262156683
 20
4459.388814847357
 30
0.0
 40
0.7
100
AcDbArc
 50
275.0921697642102
 51
354.1866997665273
  0
ARC
  5
17166
330
747D
100
AcDbEntity
  8
部品1
100
AcDbCircle
 10
10284.70102680943
 20
4455.703417990267
 30
0.0
 40
3.0
100
AcDbArc
 50
95.092169764314
 51
174.1866997665272
  0
ARC
  5
17167
330
747D
100
AcDbEntity
  8
部品1
100
AcDbCircle
 10
10273.8416810601
 20
4378.660163172344
 30
0.0
 40
3.0
100
AcDbArc
 50
95.0921697642102
 51
174.1866997665272
  0
ARC
  5
17168
330
747D
100
AcDbEntity
  8
部品1
 48
50.0
100
AcDbCircle
 10
10262.813545785
 20
4369.069418568461
 30
0.0
 40
7.0
100
AcDbArc
 50
267.8377559870533
 51
354.1866997665273
  0
ARC
  5
17169
330
747D
100
AcDbEntity
  8
部品1
 48
50.0
100
AcDbCircle
 10
10280.13564224951
 20
4479.971965710634
 30
0.0
 40
7.0
100
AcDbArc
 50
354.1866997665273
 51
87.03587545293501
  0
LINE
  5
1716A
330
747D
100
AcDbEntity
  8
部品1
 48
50.0
100
AcDbLine
 10
10270.85710938949
 20
4378.964024889246
 30
0.0
 11
10269.77754634975
 21
4368.360407895687
 31
0.0
  0
LINE
  5
1716B
330
747D
100
AcDbEntity
  8
部品1
 48
50.0
100
AcDbLine
 10
10281.71645513882
 20
4456.00727970717
 30
0.0
 11
10274.20967587398
 21
4382.274658962159
 31
0.0
  0
LINE
  5
1716C
330
747D
100
AcDbEntity
  8
部品1
 48
50.0
100
AcDbLine
 10
10287.09964281427
 20
4479.262955037859
 30
0.0
 11
10285.0690216233
 21
4459.317913780079
 31
0.0
  0
ARC
  5
1716D
330
747D
100
AcDbEntity
  8
部品1
100
AcDbCircle
 10
8783.922831874937
 20
4422.725918104119
 30
0.0
 40
0.7
100
AcDbArc
 50
181.0932240292375
 51
260.1877540315916
  0
ARC
  5
1716E
330
747D
100
AcDbEntity
  8
部品1
100
AcDbCircle
 10
8779.150158277328
 20
4515.591696304239
 30
0.0
 40
0.7
100
AcDbArc
 50
181.0932240292375
 51
260.1877540315916
  0
ARC
  5
1716F
330
747D
100
AcDbEntity
  8
部品1
100
AcDbCircle
 10
8778.519603874306
 20
4511.945821766842
 30
0.0
 40
3.0
100
AcDbArc
 50
1.093224029289586
 51
80.18775403159162
  0
ARC
  5
17170
330
747D
100
AcDbEntity
  8
部品1
100
AcDbCircle
 10
8783.292277471911
 20
4419.080043566722
 30
0.0
 40
3.0
100
AcDbArc
 50
1.093224029289586
 51
80.18775403148891
  0
ARC
  5
17171
330
747D
100
AcDbEntity
  8
部品1
 48
50.0
100
AcDbCircle
 10
8793.492409847113
 20
4408.687800184242
 30
0.0
 40
7.0
100
AcDbArc
 50
181.0932240292895
 51
267.8377559870533
  0
ARC
  5
17172
330
747D
100
AcDbEntity
  8
部品1
 48
50.0
100
AcDbCircle
 10
8785.068751745017
 20
4535.638859717336
 30
0.0
 40
7.0
100
AcDbArc
 50
87.03587545293501
 51
181.0932240292895
  0
LINE
  5
17173
330
747D
100
AcDbEntity
  8
部品1
 48
50.0
100
AcDbLine
 10
8786.291731398341
 20
4419.137281169906
 30
0.0
 11
8786.493684018775
 21
4408.554245776813
 31
0.0
  0
LINE
  5
17174
330
747D
100
AcDbEntity
  8
細線
 48
50.0
100
AcDbLine
 10
8783.685638341671
 20
4422.067329288714
 30
0.0
 11
10273.68930277231
 21
4381.668053932646
 31
0.0
  0
LINE
  5
17175
330
747D
100
AcDbEntity
  8
細線
 48
50.0
100
AcDbLine
 10
8778.925163104384
 20
4514.928840986577
 30
0.0
 11
10284.56114784955
 21
4458.714679964175
 31
0.0
  0
LINE
  5
17176
330
747D
100
AcDbEntity
  8
部品1
 48
50.0
100
AcDbLine
 10
8781.519057800734
 20
4512.003059370025
 30
0.0
 11
8783.222959292102
 21
4422.712562663377
 31
0.0
  0
LINE
  5
17177
330
747D
100
AcDbEntity
  8
部品1
 48
50.0
100
AcDbLine
 10
8778.070025916679
 20
4535.505305309909
 30
0.0
 11
8778.450285694491
 21
4515.578340863497
 31
0.0
  0
LINE
  5
17178
330
747D
100
AcDbEntity
  8
細線
 48
50.0
100
AcDbLine
 10
10254.88574000357
 20
4488.288781798938
 30
0.0
 11
10250.13805711557
 21
4362.543009308192
 31
0.0
  0
LINE
  5
17179
330
747D
100
AcDbEntity
  8
細線
 48
50.0
100
AcDbLine
 10
8810.885740003572
 20
4541.311435520621
 30
0.0
 11
8805.596638448061
 21
4401.225802893266
 31
0.0
  0
LINE
  5
1717A
330
747D
100
AcDbEntity
  8
部品1
100
AcDbLine
 10
8793.228304605525
 20
4401.692784214183
 30
0.0
 11
10262.54944054341
 21
4362.074402598403
 31
0.0
  0
LINE
  5
1717B
330
747D
100
AcDbEntity
  8
部品1
100
AcDbLine
 10
8785.430726360534
 20
4542.629494479482
 30
0.0
 11
10280.49761686503
 21
4486.96260047278
 31
0.0
  0
DIMENSION
  5
171BE
330
747D
100
AcDbEntity
  8
寸法
 48
50.0
100
AcDbDimension
  2
*D22
 10
8777.885740003572
 20
5150.743533916484
 30
0.0
 11
9505.010569705396
 21
5150.743533916484
 31
0.0
 70
   160
 71
     5
 42
1510.0
  3
INABA_S40G
100
AcDbAlignedDimension
 13
10287.88574000357
 23
4488.911759145216
 33
0.0
 14
8777.885740003572
 24
4543.91175914522
 34
0.0
100
AcDbRotatedDimension
1001
ACAD
1000
DSTYLE
1002
{
1070
   174
1070
     0
1070
   272
1070
     1
1070
   288
1070
     0
1070
   341
1005
0
1002
}
  0
DIMENSION
  5
171BF
330
747D
100
AcDbEntity
  8
寸法
 48
50.0
100
AcDbDimension
  2
*D23
 10
8777.885740003572
 20
4942.569212724521
 30
0.0
 11
8468.247944727982
 21
4942.569212724521
 31
0.0
 70
   160
 71
     5
 42
60.0
  3
INABA_S40G
100
AcDbAlignedDimension
 13
8837.885740003573
 23
4539.913377268192
 33
0.0
 14
8777.885740003572
 24
4543.91175914522
 34
0.0
100
AcDbRotatedDimension
1001
ACAD
1000
DSTYLE
1002
{
1070
   174
1070
     0
1070
   272
1070
     1
1070
   288
1070
     0
1070
   341
1005
0
1002
}
  0
DIMENSION
  5
171C0
330
747D
100
AcDbEntity
  8
寸法
 48
50.0
100
AcDbDimension
  2
*D24
 10
8837.885740003573
 20
4942.569212724521
 30
0.0
 11
9487.704772894117
 21
4942.569212724521
 31
0.0
 70
   160
  1
柱外寸法<>
 71
     5
 42
1370.0
  3
INABA_S40G
100
AcDbAlignedDimension
 13
10207.88574000357
 23
4490.722438756869
 33
0.0
 14
8837.885740003573
 24
4539.913377268192
 34
0.0
100
AcDbRotatedDimension
1001
ACAD
1000
DSTYLE
1002
{
1070
   174
1070
     0
1070
   272
1070
     1
1070
   288
1070
     0
1070
   341
1005
0
1002
}
  0
DIMENSION
  5
1741D
330
747D
100
AcDbEntity
  8
寸法
 48
50.0
100
AcDbDimension
  2
*D28
 10
6761.425393906032
 20
5158.125892993939
 30
0.0
 11
5816.42539390603
 21
5158.125892993939
 31
0.0
 70
   160
 71
     5
 42
1889.999999999999
  3
INABA_S40G
100
AcDbAlignedDimension
 13
4871.425393906033
 23
4543.91175914522
 33
0.0
 14
6761.425393906032
 24
4543.911759145218
 34
0.0
100
AcDbRotatedDimension
  0
DIMENSION
  5
1741E
330
747D
100
AcDbEntity
  8
寸法
 48
50.0
100
AcDbDimension
  2
*D27
 10
6711.425393906033
 20
4948.532018572488
 30
0.0
 11
7074.91067528027
 21
4948.532018572488
 31
0.0
 70
   160
 71
     5
 42
49.99999999999909
  3
INABA_S40G
100
AcDbAlignedDimension
 13
6761.425393906032
 23
4543.911759145218
 33
0.0
 14
6711.425393906033
 24
4543.91175914522
 34
0.0
100
AcDbRotatedDimension
  0
DIMENSION
  5
1741F
330
747D
100
AcDbEntity
  8
寸法
 48
50.0
100
AcDbDimension
  2
*D26
 10
4871.425393906033
 20
4948.532018572488
 30
0.0
 11
4557.940112531785
 21
4948.532018572488
 31
0.0
 70
   160
 71
     5
 42
50.0
  3
INABA_S40G
100
AcDbAlignedDimension
 13
4921.425393906033
 23
4543.911759145221
 33
0.0
 14
4871.425393906033
 24
4543.91175914522
 34
0.0
100
AcDbRotatedDimension
1001
ACAD
1000
DSTYLE
1002
{
1002
}
  0
DIMENSION
  5
17420
330
747D
100
AcDbEntity
  8
寸法
 48
50.0
100
AcDbDimension
  2
*D25
 10
4921.425393906033
 20
4948.532018572488
 30
0.0
 11
5790.606232837646
 21
4948.532018572488
 31
0.0
 70
   160
  1
柱外寸法<>
 71
     5
 42
1790.0
  3
INABA_S40G
100
AcDbAlignedDimension
 13
6711.425393906033
 23
4543.91175914522
 33
0.0
 14
4921.425393906033
 24
4543.911759145221
 34
0.0
100
AcDbRotatedDimension
  0
LINE
  5
17421
330
747D
100
AcDbEntity
  8
部品1
 48
50.0
100
AcDbLine
 10
6754.0169727996
 20
4543.91175914522
 30
0.0
 11
4878.833815012463
 21
4543.91175914522
 31
0.0
  0
LINE
  5
17422
330
747D
100
AcDbEntity
  8
部品1
 48
50.0
100
AcDbLine
 10
6740.801649338568
 20
4402.91175914522
 30
0.0
 11
4892.049138473495
 21
4402.91175914522
 31
0.0
  0
LINE
  5
17423
330
747D
100
AcDbEntity
  8
細線
 48
50.0
100
AcDbLine
 10
6759.385855684591
 20
4515.911759145219
 30
0.0
 11
4873.464932127472
 21
4515.911759145218
 31
0.0
  0
LINE
  5
17424
330
747D
100
AcDbEntity
  8
細線
 48
50.0
100
AcDbLine
 10
6751.149825159754
 20
4423.711759145218
 30
0.0
 11
4881.700962652299
 21
4423.71175914522
 31
0.0
  0
LINE
  5
17425
330
747D
100
AcDbEntity
  8
部品1
100
AcDbLine
 10
6761.005732890699
 20
4536.515233749979
 30
0.0
 11
6759.872335558353
 21
4516.539105767381
 31
0.0
  0
LINE
  5
17426
330
747D
100
AcDbEntity
  8
細線
 48
50.0
100
AcDbLine
 10
6728.425393906032
 20
4543.91175914522
 30
0.0
 11
6728.425393906032
 21
4402.91175914522
 31
0.0
  0
LINE
  5
17427
330
747D
100
AcDbEntity
  8
細線
 48
50.0
100
AcDbLine
 10
4904.425393906032
 20
4543.91175914522
 30
0.0
 11
4904.425393906032
 21
4402.91175914522
 31
0.0
  0
LINE
  5
17428
330
747D
100
AcDbEntity
  8
部品1
100
AcDbLine
 10
6748.435315236775
 20
4420.881698600321
 30
0.0
 11
6747.790409429666
 21
4409.515233749981
 31
0.0
  0
LINE
  5
17429
330
747D
100
AcDbEntity
  8
部品1
100
AcDbLine
 10
6756.671345761621
 20
4513.081698600323
 30
0.0
 11
6751.63630503351
 21
4424.339105767379
 31
0.0
  0
ARC
  5
1742A
330
747D
100
AcDbEntity
  8
部品1
 48
50.0
100
AcDbCircle
 10
6759.666528657806
 20
4512.911759145221
 30
0.0
 40
3.0
100
AcDbArc
 50
97.65812720736519
 51
176.7526572096682
  0
ARC
  5
1742B
330
747D
100
AcDbEntity
  8
部品1
 48
50.0
100
AcDbCircle
 10
6751.430498132963
 20
4420.711759145218
 30
0.0
 40
3.0
100
AcDbArc
 50
97.65812720736519
 51
176.7526572096682
  0
ARC
  5
1742C
330
747D
100
AcDbEntity
  8
部品1
 48
50.0
100
AcDbCircle
 10
6750.937429024403
 20
4424.378758306903
 30
0.0
 40
0.7
100
AcDbArc
 50
277.6581272073652
 51
356.7526572096942
  0
ARC
  5
1742D
330
747D
100
AcDbEntity
  8
部品1
 48
50.0
100
AcDbCircle
 10
6759.173459549244
 20
4516.578758306905
 30
0.0
 40
0.7
100
AcDbArc
 50
277.6581272073652
 51
356.7526572096162
  0
ARC
  5
1742E
330
747D
100
AcDbEntity
  8
部品1
100
AcDbCircle
 10
6740.801649338568
 20
4409.91175914522
 30
0.0
 40
7.0
100
AcDbArc
 50
270.0
 51
356.7526572096682
  0
ARC
  5
1742F
330
747D
100
AcDbEntity
  8
部品1
100
AcDbCircle
 10
6754.0169727996
 20
4536.911759145219
 30
0.0
 40
7.0
100
AcDbArc
 50
356.7526572096682
 51
90.0
  0
ARC
  5
17430
330
747D
100
AcDbEntity
  8
部品1
100
AcDbCircle
 10
4878.833815012463
 20
4536.911759145219
 30
0.0
 40
7.0
100
AcDbArc
 50
90.0
 51
183.2473427903317
  0
ARC
  5
17431
330
747D
100
AcDbEntity
  8
部品1
100
AcDbCircle
 10
4892.049138473495
 20
4409.91175914522
 30
0.0
 40
7.0
100
AcDbArc
 50
183.2473427903317
 51
270.0
  0
ARC
  5
17432
330
747D
100
AcDbEntity
  8
部品1
 48
50.0
100
AcDbCircle
 10
4873.67732826282
 20
4516.578758306905
 30
0.0
 40
0.7
100
AcDbArc
 50
183.2473427903838
 51
262.3418727926349
  0
ARC
  5
17433
330
747D
100
AcDbEntity
  8
部品1
 48
50.0
100
AcDbCircle
 10
4881.91335878766
 20
4424.378758306903
 30
0.0
 40
0.7
100
AcDbArc
 50
183.2473427903057
 51
262.3418727926349
  0
ARC
  5
17434
330
747D
100
AcDbEntity
  8
部品1
 48
50.0
100
AcDbCircle
 10
4881.420289679099
 20
4420.711759145218
 30
0.0
 40
3.0
100
AcDbArc
 50
3.247342790331777
 51
82.3418727926348
  0
ARC
  5
17435
330
747D
100
AcDbEntity
  8
部品1
 48
50.0
100
AcDbCircle
 10
4873.184259154257
 20
4512.911759145221
 30
0.0
 40
3.0
100
AcDbArc
 50
3.247342790331777
 51
82.3418727926348
  0
LINE
  5
17436
330
747D
100
AcDbEntity
  8
部品1
100
AcDbLine
 10
4876.179442050442
 20
4513.081698600323
 30
0.0
 11
4881.214482778553
 21
4424.339105767379
 31
0.0
  0
LINE
  5
17437
330
747D
100
AcDbEntity
  8
部品1
100
AcDbLine
 10
4884.415472575288
 20
4420.881698600321
 30
0.0
 11
4885.060378382397
 21
4409.515233749981
 31
0.0
  0
LINE
  5
17438
330
747D
100
AcDbEntity
  8
部品1
100
AcDbLine
 10
4871.845054921365
 20
4536.515233749979
 30
0.0
 11
4872.978452253712
 21
4516.539105767381
 31
0.0
  0
ARC
  5
17439
330
747D
100
AcDbEntity
  8
部品1
 48
0.01
100
AcDbCircle
 10
6133.425393906032
 20
4372.911759145215
 30
0.0
 40
2.0
100
AcDbArc
 50
90.0
 51
180.0
  0
ARC
  5
1743A
330
747D
100
AcDbEntity
  8
部品1
 48
0.01
100
AcDbCircle
 10
6309.425393906032
 20
4372.911759145215
 30
0.0
 40
2.0
100
AcDbArc
 50
0.0
 51
90.0
  0
LINE
  5
1743B
330
747D
100
AcDbEntity
  8
細線
100
AcDbLine
 10
6221.425393906033
 20
4345.411759145215
 30
0.0
 11
6147.425393906032
 21
4345.411759145215
 31
0.0
  0
LINE
  5
1743C
330
747D
100
AcDbEntity
  8
細線
100
AcDbLine
 10
6221.425393906032
 20
4368.411759145215
 30
0.0
 11
6295.425393906032
 21
4368.411759145215
 31
0.0
  0
LINE
  5
1743D
330
747D
100
AcDbEntity
  8
細線
100
AcDbLine
 10
6295.425393906032
 20
4345.411759145215
 30
0.0
 11
6221.425393906032
 21
4345.411759145215
 31
0.0
  0
LINE
  5
1743E
330
747D
100
AcDbEntity
  8
細線
100
AcDbLine
 10
6147.425393906032
 20
4368.411759145215
 30
0.0
 11
6221.425393906032
 21
4368.411759145215
 31
0.0
  0
LINE
  5
1743F
330
747D
100
AcDbEntity
  8
細線
100
AcDbLine
 10
6147.425393906032
 20
4345.411759145215
 30
0.0
 11
6147.425393906032
 21
4368.411759145215
 31
0.0
  0
LINE
  5
17440
330
747D
100
AcDbEntity
  8
細線
100
AcDbLine
 10
6295.425393906032
 20
4368.411759145215
 30
0.0
 11
6295.425393906032
 21
4345.411759145215
 31
0.0
  0
LINE
  5
17441
330
747D
100
AcDbEntity
  8
部品1
 48
0.01
100
AcDbLine
 10
6133.425393906032
 20
4374.911759145215
 30
0.0
 11
6309.425393906032
 21
4374.911759145215
 31
0.0
  0
LINE
  5
17442
330
747D
100
AcDbEntity
  8
細線
100
AcDbLine
 10
6295.425393906032
 20
4362.411759145214
 30
0.0
 11
6221.425393906032
 21
4362.411759145214
 31
0.0
  0
LINE
  5
17443
330
747D
100
AcDbEntity
  8
細線
100
AcDbLine
 10
6295.425393906032
 20
4356.411759145215
 30
0.0
 11
6221.425393906032
 21
4356.411759145215
 31
0.0
  0
LINE
  5
17444
330
747D
100
AcDbEntity
  8
細線
100
AcDbLine
 10
6295.425393906032
 20
4350.411759145215
 30
0.0
 11
6221.425393906032
 21
4350.411759145215
 31
0.0
  0
LINE
  5
17445
330
747D
100
AcDbEntity
  8
細線
100
AcDbLine
 10
6295.425393906032
 20
4362.411759145214
 30
0.0
 11
6226.425393906032
 21
4362.411759145214
 31
0.0
  0
LINE
  5
17446
330
747D
100
AcDbEntity
  8
細線
100
AcDbLine
 10
6147.425393906033
 20
4362.411759145214
 30
0.0
 11
6221.425393906032
 21
4362.411759145214
 31
0.0
  0
LINE
  5
17447
330
747D
100
AcDbEntity
  8
細線
100
AcDbLine
 10
6147.425393906033
 20
4350.411759145214
 30
0.0
 11
6221.425393906032
 21
4350.411759145215
 31
0.0
  0
LINE
  5
17448
330
747D
100
AcDbEntity
  8
細線
100
AcDbLine
 10
6147.425393906033
 20
4356.411759145215
 30
0.0
 11
6221.425393906032
 21
4356.411759145215
 31
0.0
  0
LINE
  5
17449
330
747D
100
AcDbEntity
  8
細線
100
AcDbLine
 10
6221.425393906032
 20
4368.411759145215
 30
0.0
 11
6221.425393906033
 21
4345.411759145215
 31
0.0
  0
ARC
  5
1744A
330
747D
100
AcDbEntity
  8
部品1
 48
0.01
100
AcDbCircle
 10
6133.425393906033
 20
4341.411759145215
 30
0.0
 40
2.0
100
AcDbArc
 50
180.0
 51
270.0
  0
ARC
  5
1744B
330
747D
100
AcDbEntity
  8
部品1
 48
0.01
100
AcDbCircle
 10
6309.425393906032
 20
4341.411759145215
 30
0.0
 40
2.0
100
AcDbArc
 50
270.0
 51
0.0
  0
LINE
  5
1744C
330
747D
100
AcDbEntity
  8
部品1
 48
0.01
100
AcDbLine
 10
6131.425393906033
 20
4341.411759145215
 30
0.0
 11
6131.425393906032
 21
4372.911759145215
 31
0.0
  0
LINE
  5
1744D
330
747D
100
AcDbEntity
  8
部品1
 48
0.01
100
AcDbLine
 10
6309.425393906032
 20
4339.411759145215
 30
0.0
 11
6133.425393906033
 21
4339.411759145215
 31
0.0
  0
LINE
  5
1744E
330
747D
100
AcDbEntity
  8
部品1
 48
0.01
100
AcDbLine
 10
6311.425393906032
 20
4372.911759145215
 30
0.0
 11
6311.425393906032
 21
4341.411759145215
 31
0.0
  0
LINE
  5
1744F
330
747D
100
AcDbEntity
  8
細線
100
AcDbLine
 10
5411.425393906032
 20
4368.411759145215
 30
0.0
 11
5411.425393906031
 21
4345.411759145215
 31
0.0
  0
LINE
  5
17450
330
747D
100
AcDbEntity
  8
細線
100
AcDbLine
 10
5485.42539390603
 20
4356.411759145215
 30
0.0
 11
5411.425393906032
 21
4356.411759145215
 31
0.0
  0
LINE
  5
17451
330
747D
100
AcDbEntity
  8
細線
100
AcDbLine
 10
5485.42539390603
 20
4350.411759145214
 30
0.0
 11
5411.425393906032
 21
4350.411759145215
 31
0.0
  0
LINE
  5
17452
330
747D
100
AcDbEntity
  8
細線
100
AcDbLine
 10
5485.42539390603
 20
4362.411759145214
 30
0.0
 11
5411.425393906032
 21
4362.411759145214
 31
0.0
  0
LINE
  5
17453
330
747D
100
AcDbEntity
  8
細線
100
AcDbLine
 10
5337.425393906033
 20
4362.411759145214
 30
0.0
 11
5406.425393906033
 21
4362.411759145214
 31
0.0
  0
LINE
  5
17454
330
747D
100
AcDbEntity
  8
細線
100
AcDbLine
 10
5337.42539390603
 20
4350.411759145215
 30
0.0
 11
5411.425393906032
 21
4350.411759145215
 31
0.0
  0
LINE
  5
17455
330
747D
100
AcDbEntity
  8
細線
100
AcDbLine
 10
5337.425393906033
 20
4356.411759145215
 30
0.0
 11
5411.425393906032
 21
4356.411759145215
 31
0.0
  0
LINE
  5
17456
330
747D
100
AcDbEntity
  8
細線
100
AcDbLine
 10
5337.425393906033
 20
4362.411759145214
 30
0.0
 11
5411.425393906032
 21
4362.411759145214
 31
0.0
  0
LINE
  5
17457
330
747D
100
AcDbEntity
  8
部品1
 48
0.01
100
AcDbLine
 10
5499.425393906033
 20
4374.911759145215
 30
0.0
 11
5323.425393906033
 21
4374.911759145215
 31
0.0
  0
LINE
  5
17458
330
747D
100
AcDbEntity
  8
部品1
 48
0.01
100
AcDbLine
 10
5321.425393906032
 20
4372.911759145215
 30
0.0
 11
5321.425393906032
 21
4341.411759145215
 31
0.0
  0
LINE
  5
17459
330
747D
100
AcDbEntity
  8
部品1
 48
0.01
100
AcDbLine
 10
5323.425393906033
 20
4339.411759145215
 30
0.0
 11
5499.42539390603
 21
4339.411759145215
 31
0.0
  0
LINE
  5
1745A
330
747D
100
AcDbEntity
  8
部品1
 48
0.01
100
AcDbLine
 10
5501.425393906031
 20
4341.411759145215
 30
0.0
 11
5501.425393906032
 21
4372.911759145215
 31
0.0
  0
LINE
  5
1745B
330
747D
100
AcDbEntity
  8
細線
100
AcDbLine
 10
5337.425393906033
 20
4368.411759145215
 30
0.0
 11
5337.425393906033
 21
4345.411759145215
 31
0.0
  0
LINE
  5
1745C
330
747D
100
AcDbEntity
  8
細線
100
AcDbLine
 10
5485.425393906033
 20
4345.411759145215
 30
0.0
 11
5485.425393906033
 21
4368.411759145215
 31
0.0
  0
LINE
  5
1745D
330
747D
100
AcDbEntity
  8
細線
100
AcDbLine
 10
5485.425393906033
 20
4368.411759145215
 30
0.0
 11
5411.425393906032
 21
4368.411759145215
 31
0.0
  0
LINE
  5
1745E
330
747D
100
AcDbEntity
  8
細線
100
AcDbLine
 10
5337.425393906033
 20
4345.411759145215
 30
0.0
 11
5411.425393906032
 21
4345.411759145215
 31
0.0
  0
LINE
  5
1745F
330
747D
100
AcDbEntity
  8
細線
100
AcDbLine
 10
5411.425393906032
 20
4368.411759145215
 30
0.0
 11
5337.425393906033
 21
4368.411759145215
 31
0.0
  0
LINE
  5
17460
330
747D
100
AcDbEntity
  8
細線
100
AcDbLine
 10
5411.425393906031
 20
4345.411759145215
 30
0.0
 11
5485.425393906033
 21
4345.411759145215
 31
0.0
  0
ARC
  5
17461
330
747D
100
AcDbEntity
  8
部品1
 48
0.01
100
AcDbCircle
 10
5323.425393906033
 20
4372.911759145215
 30
0.0
 40
2.0
100
AcDbArc
 50
90.0
 51
180.0
  0
ARC
  5
17462
330
747D
100
AcDbEntity
  8
部品1
 48
0.01
100
AcDbCircle
 10
5323.425393906033
 20
4341.411759145215
 30
0.0
 40
2.0
100
AcDbArc
 50
180.0
 51
270.0
  0
ARC
  5
17463
330
747D
100
AcDbEntity
  8
部品1
 48
0.01
100
AcDbCircle
 10
5499.425393906033
 20
4372.911759145215
 30
0.0
 40
2.0
100
AcDbArc
 50
0.0
 51
90.0
  0
ARC
  5
17464
330
747D
100
AcDbEntity
  8
部品1
 48
0.01
100
AcDbCircle
 10
5499.42539390603
 20
4341.411759145215
 30
0.0
 40
2.0
100
AcDbArc
 50
270.0
 51
0.0
  0
LINE
  5
17732
330
747D
100
AcDbEntity
  8
寸法
 48
50.0
100
AcDbLine
 10
9144.279909358134
 20
7217.433542626288
 30
0.0
 11
9092.873901448031
 21
7217.433542626288
 31
0.0
  0
LINE
  5
17733
330
747D
100
AcDbEntity
  8
寸法
 48
50.0
100
AcDbLine
 10
9092.873901448031
 20
7217.433542626288
 30
0.0
 11
9092.873901448031
 21
7248.743701278454
 31
0.0
  0
LINE
  5
17734
330
747D
100
AcDbEntity
  8
寸法
 48
50.0
100
AcDbLine
 10
9092.873901448031
 20
7248.743701278454
 30
0.0
 11
9063.112569456608
 21
7248.743701278454
 31
0.0
  0
LINE
  5
17735
330
747D
100
AcDbEntity
  8
寸法
 48
50.0
100
AcDbLine
 10
9063.112569456608
 20
7248.743701278454
 30
0.0
 11
9118.576905403083
 21
7286.323152207064
 31
0.0
  0
LINE
  5
17736
330
747D
100
AcDbEntity
  8
寸法
 48
50.0
100
AcDbLine
 10
9174.041241349558
 20
7248.743701278454
 30
0.0
 11
9118.576905403083
 21
7286.323152207064
 31
0.0
  0
LINE
  5
17737
330
747D
100
AcDbEntity
  8
寸法
 48
50.0
100
AcDbLine
 10
9144.279909358134
 20
7248.743701278454
 30
0.0
 11
9174.041241349558
 21
7248.743701278454
 31
0.0
  0
LINE
  5
17738
330
747D
100
AcDbEntity
  8
寸法
 48
50.0
100
AcDbLine
 10
9144.279909358134
 20
7217.433542626288
 30
0.0
 11
9144.279909358134
 21
7248.743701278454
 31
0.0
  0
LINE
  5
17739
330
747D
100
AcDbEntity
  8
寸法
 48
50.0
100
AcDbLine
 10
9092.873901448031
 20
7217.433542626288
 30
0.0
 11
9144.279909358134
 21
7217.433542626288
 31
0.0
  0
LINE
  5
1773A
330
747D
100
AcDbEntity
  8
寸法
 48
50.0
100
AcDbLine
 10
9423.445443634989
 20
7274.579133381109
 30
0.0
 11
9423.445443634989
 21
7220.91549879932
 31
0.0
  0
LINE
  5
1773B
330
747D
100
AcDbEntity
  8
寸法
 48
50.0
100
AcDbLine
 10
9512.729662230411
 20
7250.655499111624
 30
0.0
 11
9423.445443634989
 21
7274.579133381109
 31
0.0
  0
LINE
  5
1773C
330
747D
100
AcDbEntity
  8
寸法
 48
50.0
100
AcDbLine
 10
9293.577722054688
 20
7250.655499111624
 30
0.0
 11
9512.729662230411
 21
7250.655499111624
 31
0.0
  0
LINE
  5
1773D
330
747D
100
AcDbEntity
  8
細線
 48
50.0
100
AcDbLine
 10
9761.885735847195
 20
7415.89690600615
 30
0.0
 11
10140.88574000346
 21
7415.89690600615
 31
0.0
  0
LINE
  5
1773E
330
747D
100
AcDbEntity
  8
細線
 48
50.0
100
AcDbLine
 10
9355.885740003465
 20
7382.188137452074
 30
0.0
 11
10140.88574000346
 21
7382.188137452074
 31
0.0
  0
LINE
  5
1773F
330
747D
100
AcDbEntity
  8
細線
 48
50.0
100
AcDbLine
 10
9314.885740003466
 20
7411.593045448324
 30
0.0
 11
8904.885740003463
 21
7411.593045448324
 31
0.0
  0
LINE
  5
17740
330
747D
100
AcDbEntity
  8
細線
100
AcDbLine
 10
10038.30418654688
 20
7440.396808611104
 30
0.0
 11
9972.967263128412
 21
7440.39680861109
 31
0.0
  0
LINE
  5
17741
330
747D
100
AcDbEntity
  8
細線
100
AcDbLine
 10
10040.63573302307
 20
7435.396791057425
 30
0.0
 11
10038.30418654688
 21
7440.396808611104
 31
0.0
  0
LINE
  5
17742
330
747D
100
AcDbEntity
  8
細線
100
AcDbLine
 10
9970.635723606617
 20
7435.396805971159
 30
0.0
 11
9972.967263128424
 21
7440.39680861112
 31
0.0
  0
LINE
  5
17743
330
747D
100
AcDbEntity
  8
細線
100
AcDbLine
 10
9830.635733023076
 20
7435.396791057425
 30
0.0
 11
9832.967272544886
 21
7440.396793697385
 31
0.0
  0
LINE
  5
17744
330
747D
100
AcDbEntity
  8
細線
100
AcDbLine
 10
9900.635742439533
 20
7435.39677614369
 30
0.0
 11
9898.304195963342
 21
7440.396793697371
 31
0.0
  0
LINE
  5
17745
330
747D
100
AcDbEntity
  8
細線
100
AcDbLine
 10
9898.304195963346
 20
7440.396793697371
 30
0.0
 11
9832.967272544872
 21
7440.396793697357
 31
0.0
  0
LINE
  5
17746
330
747D
100
AcDbEntity
  8
細線
 48
50.0
100
AcDbLine
 10
9554.76853596752
 20
7419.667654210506
 30
0.0
 11
9560.524053550189
 21
7401.39680292002
 31
0.0
  0
LINE
  5
17747
330
747D
100
AcDbEntity
  8
細線
 48
50.0
100
AcDbLine
 10
9543.840087487089
 20
7419.667654210506
 30
0.0
 11
9554.76853596752
 21
7419.667654210506
 31
0.0
  0
ARC
  5
17748
330
747D
100
AcDbEntity
  8
細線
 48
50.0
100
AcDbCircle
 10
9538.385731429771
 20
7421.167654210506
 30
0.0
 40
5.0
100
AcDbArc
 50
204.6243183521304
 51
335.3756816478695
  0
ARC
  5
17749
330
747D
100
AcDbEntity
  8
細線
 48
50.0
100
AcDbCircle
 10
9543.840087487089
 20
7418.667654210506
 30
0.0
 40
1.0
100
AcDbArc
 50
90.0
 51
155.3756816478695
  0
ARC
  5
1774A
330
747D
100
AcDbEntity
  8
細線
 48
50.0
100
AcDbCircle
 10
9532.931375372454
 20
7418.667654210506
 30
0.0
 40
1.0
100
AcDbArc
 50
24.62431835213048
 51
90.0
  0
LINE
  5
1774B
330
747D
100
AcDbEntity
  8
細線
 48
50.0
100
AcDbLine
 10
9522.002926892021
 20
7419.667654210506
 30
0.0
 11
9532.931375372454
 21
7419.667654210506
 31
0.0
  0
LINE
  5
1774C
330
747D
100
AcDbEntity
  8
細線
 48
50.0
100
AcDbLine
 10
9516.247409309354
 20
7401.396802920013
 30
0.0
 11
9522.002926892021
 21
7419.667654210506
 31
0.0
  0
LINE
  5
1774D
330
747D
100
AcDbEntity
  8
細線
100
AcDbLine
 10
9641.054157820107
 20
7406.396802958207
 30
0.0
 11
9575.717234401631
 21
7406.396802958191
 31
0.0
  0
LINE
  5
1774E
330
747D
100
AcDbEntity
  8
細線
100
AcDbLine
 10
9643.385704296294
 20
7401.396785404526
 30
0.0
 11
9641.054157820105
 21
7406.396802958207
 31
0.0
  0
LINE
  5
1774F
330
747D
100
AcDbEntity
  8
細線
100
AcDbLine
 10
9573.385696110879
 20
7401.396802958235
 30
0.0
 11
9575.717234401645
 21
7406.396802958221
 31
0.0
  0
LINE
  5
17750
330
747D
100
AcDbEntity
  8
細線
100
AcDbLine
 10
9185.885731818046
 20
7367.396982788093
 30
0.0
 11
9188.217270108815
 21
7372.396982788079
 31
0.0
  0
LINE
  5
17751
330
747D
100
AcDbEntity
  8
細線
100
AcDbLine
 10
9255.885740003462
 20
7367.39696523438
 30
0.0
 11
9253.554193527277
 21
7372.396982788058
 31
0.0
  0
LINE
  5
17752
330
747D
100
AcDbEntity
  8
細線
100
AcDbLine
 10
9253.554193527277
 20
7372.396982788058
 30
0.0
 11
9188.217270108802
 21
7372.396982788051
 31
0.0
  0
ARC
  5
17753
330
747D
100
AcDbEntity
  8
部品1
 48
0.01
100
AcDbCircle
 10
9065.385633404716
 20
7366.39586060302
 30
0.0
 40
0.5
100
AcDbArc
 50
270.0
 51
0.0
  0
LINE
  5
17754
330
747D
100
AcDbEntity
  8
部品1
 48
0.01
100
AcDbLine
 10
9065.885633404716
 20
7367.395860603021
 30
0.0
 11
9065.885633404716
 21
7366.39586060302
 31
0.0
  0
LINE
  5
17755
330
747D
100
AcDbEntity
  8
部品1
 48
0.01
100
AcDbLine
 10
9065.885633404716
 20
7367.395860603021
 30
0.0
 11
9065.885633404716
 21
7366.39586060302
 31
0.0
  0
LINE
  5
17756
330
747D
100
AcDbEntity
  8
部品1
 48
0.01
100
AcDbLine
 10
9065.385633404716
 20
7365.895860603021
 30
0.0
 11
9058.773127974653
 21
7365.895860603021
 31
0.0
  0
ARC
  5
17757
330
747D
100
AcDbEntity
  8
部品1
100
AcDbCircle
 10
9058.841477527433
 20
7366.895860603022
 30
0.0
 40
1.0
100
AcDbArc
 50
160.5287793655778
 51
270.0
  0
ARC
  5
17758
330
747D
100
AcDbEntity
  8
部品1
100
AcDbCircle
 10
9033.385633404716
 20
7375.89586060302
 30
0.0
 40
26.0
100
AcDbArc
 50
340.5287793655779
 51
0.0
  0
LINE
  5
17759
330
747D
100
AcDbEntity
  8
部品1
100
AcDbLine
 10
9059.385633404716
 20
7375.89586060302
 30
0.0
 11
9059.385633404716
 21
7380.895860603022
 31
0.0
  0
ARC
  5
1775A
330
747D
100
AcDbEntity
  8
部品1
 48
0.01
100
AcDbCircle
 10
9057.385633404717
 20
7380.895860603022
 30
0.0
 40
2.0
100
AcDbArc
 50
0.0
 51
90.0
  0
ARC
  5
1775B
330
747D
100
AcDbEntity
  8
部品1
100
AcDbCircle
 10
9055.777241779905
 20
7379.895860603021
 30
0.0
 40
3.0
100
AcDbArc
 50
90.0
 51
141.6069559807873
  0
LINE
  5
1775C
330
747D
100
AcDbEntity
  8
部品1
 48
0.01
100
AcDbLine
 10
9057.385633404717
 20
7382.895860603021
 30
0.0
 11
9055.777241779905
 21
7382.895860603021
 31
0.0
  0
ARC
  5
1775D
330
747D
100
AcDbEntity
  8
部品1
100
AcDbCircle
 10
9037.314919190444
 20
7379.195860603023
 30
0.0
 40
3.0
100
AcDbArc
 50
254.0576313943215
 51
270.0
  0
ARC
  5
1775E
330
747D
100
AcDbEntity
  8
部品1
100
AcDbCircle
 10
9044.456347618988
 20
7379.195860603023
 30
0.0
 40
3.0
100
AcDbArc
 50
270.0
 51
285.9423686056786
  0
LINE
  5
1775F
330
747D
100
AcDbEntity
  8
部品1
100
AcDbLine
 10
9044.456347618988
 20
7376.195860603023
 30
0.0
 11
9037.314919190444
 21
7376.195860603023
 31
0.0
  0
ARC
  5
17760
330
747D
100
AcDbEntity
  8
部品1
100
AcDbCircle
 10
9040.885633404716
 20
7391.695860603023
 30
0.0
 40
16.0
100
AcDbArc
 50
285.9423686056786
 51
321.6069559807873
  0
LINE
  5
17761
330
747D
100
AcDbEntity
  8
部品1
 48
0.01
100
AcDbLine
 10
9024.385633404717
 20
7382.895860603021
 30
0.0
 11
9025.994025029527
 21
7382.895860603021
 31
0.0
  0
ARC
  5
17762
330
747D
100
AcDbEntity
  8
部品1
100
AcDbCircle
 10
9025.994025029527
 20
7379.895860603021
 30
0.0
 40
3.0
100
AcDbArc
 50
38.39304401921267
 51
90.0
  0
ARC
  5
17763
330
747D
100
AcDbEntity
  8
部品1
100
AcDbCircle
 10
9040.885633404716
 20
7391.695860603023
 30
0.0
 40
16.0
100
AcDbArc
 50
218.3930440192126
 51
254.0576313943215
  0
LINE
  5
17764
330
747D
100
AcDbEntity
  8
部品1
100
AcDbLine
 10
9022.385633404715
 20
7375.89586060302
 30
0.0
 11
9022.385633404715
 21
7380.895860603022
 31
0.0
  0
ARC
  5
17765
330
747D
100
AcDbEntity
  8
部品1
 48
0.01
100
AcDbCircle
 10
9024.385633404717
 20
7380.895860603022
 30
0.0
 40
2.0
100
AcDbArc
 50
90.0
 51
180.0
  0
ARC
  5
17766
330
747D
100
AcDbEntity
  8
部品1
100
AcDbCircle
 10
9048.385633404716
 20
7375.89586060302
 30
0.0
 40
26.0
100
AcDbArc
 50
180.0
 51
199.4712206344221
  0
ARC
  5
17767
330
747D
100
AcDbEntity
  8
部品1
 48
0.01
100
AcDbCircle
 10
9016.385633404716
 20
7366.39586060302
 30
0.0
 40
0.5
100
AcDbArc
 50
180.0
 51
270.0
  0
LINE
  5
17768
330
747D
100
AcDbEntity
  8
部品1
 48
0.01
100
AcDbLine
 10
9016.385633404716
 20
7365.895860603021
 30
0.0
 11
9022.929789282001
 21
7365.895860603021
 31
0.0
  0
LINE
  5
17769
330
747D
100
AcDbEntity
  8
部品1
 48
0.01
100
AcDbLine
 10
9015.885633404716
 20
7367.395860603021
 30
0.0
 11
9015.885633404716
 21
7366.39586060302
 31
0.0
  0
ARC
  5
1776A
330
747D
100
AcDbEntity
  8
部品1
100
AcDbCircle
 10
9022.929789282001
 20
7366.895860603022
 30
0.0
 40
1.0
100
AcDbArc
 50
270.0
 51
19.47122063442214
  0
LINE
  5
1776B
330
747D
100
AcDbEntity
  8
細線
100
AcDbLine
 10
9061.385633404723
 20
7385.395860603025
 30
0.0
 11
9020.385633404723
 21
7385.395860603018
 31
0.0
  0
LINE
  5
1776C
330
747D
100
AcDbEntity
  8
細線
100
AcDbLine
 10
9020.385633404723
 20
7385.395860603018
 30
0.0
 11
9020.385633404723
 21
7367.395860603
 31
0.0
  0
LINE
  5
1776D
330
747D
100
AcDbEntity
  8
細線
100
AcDbLine
 10
9061.385633404723
 20
7385.395860603025
 30
0.0
 11
9061.385633404723
 21
7367.395860603
 31
0.0
  0
LINE
  5
1776E
330
747D
100
AcDbEntity
  8
細線
100
AcDbLine
 10
8904.885740003463
 20
7371.396791057425
 30
0.0
 11
8904.885740003463
 21
7367.396791057472
 31
0.0
  0
DIMENSION
  5
1776F
330
747D
100
AcDbEntity
  8
寸法
 48
50.0
100
AcDbDimension
  2
*D29
 10
9578.885740003462
 20
6738.267416360122
 30
0.0
 11
9241.885740003461
 21
6738.267416360122
 31
0.0
 70
   160
  1
有効開口部間口\P<>
 71
     5
 42
674.0
  3
INABA_S40
100
AcDbAlignedDimension
 13
8904.885740003463
 23
7362.396791057425
 33
0.0
 14
9578.885740003462
 24
7362.396791057425
 34
0.0
100
AcDbRotatedDimension
1001
ACAD
1000
DSTYLE
1002
{
1070
    41
1040
0.5
1070
    44
1040
1.0
1070
   147
1040
0.8
1070
   271
1070
     2
1070
   272
1070
     2
1070
   289
1070
     3
1070
   340
1005
F706
1070
   343
1005
164C7
1070
   344
1005
164C7
1002
}
  0
LINE
  5
17770
330
747D
100
AcDbEntity
  8
部品1
100
AcDbLine
 10
10152.88574000346
 20
7439.396791057425
 30
0.0
 11
10179.88574000346
 21
7439.396791057425
 31
0.0
  0
LINE
  5
17772
330
747D
100
AcDbEntity
  8
部品1
100
AcDbLine
 10
10179.88574000346
 20
7362.396791057425
 30
0.0
 11
10179.88574000346
 21
7439.396791057425
 31
0.0
  0
LINE
  5
17773
330
747D
100
AcDbEntity
  8
部品1
100
AcDbLine
 10
10140.88574000346
 20
7435.396791057425
 30
0.0
 11
10152.88574000346
 21
7435.396791057425
 31
0.0
  0
LINE
  5
17774
330
747D
100
AcDbEntity
  8
部品1
100
AcDbLine
 10
10149.88574000346
 20
7371.396791057425
 30
0.0
 11
10149.88574000346
 21
7362.396791057425
 31
0.0
  0
LINE
  5
17775
330
747D
100
AcDbEntity
  8
部品1
100
AcDbLine
 10
10140.88574000346
 20
7371.396791057425
 30
0.0
 11
10149.88574000346
 21
7371.396791057425
 31
0.0
  0
LINE
  5
17776
330
747D
100
AcDbEntity
  8
部品1
100
AcDbLine
 10
10140.88574000346
 20
7435.396791057425
 30
0.0
 11
10140.88574000346
 21
7371.396791057425
 31
0.0
  0
LINE
  5
17777
330
747D
100
AcDbEntity
  8
部品1
100
AcDbLine
 10
10152.88574000346
 20
7466.396791057424
 30
0.0
 11
10152.88574000346
 21
7435.396791057425
 31
0.0
  0
LINE
  5
17778
330
747D
100
AcDbEntity
  8
部品1
100
AcDbLine
 10
8904.885740003463
 20
7435.396791057425
 30
0.0
 11
8892.885740003462
 21
7435.396791057425
 31
0.0
  0
LINE
  5
17779
330
747D
100
AcDbEntity
  8
部品1
100
AcDbLine
 10
8865.885740003461
 20
7439.396791057425
 30
0.0
 11
8892.885740003462
 21
7439.396791057425
 31
0.0
  0
LINE
  5
1777A
330
747D
100
AcDbEntity
  8
部品1
100
AcDbLine
 10
8895.885740003462
 20
7371.396791057425
 30
0.0
 11
8895.885740003462
 21
7362.396791057425
 31
0.0
  0
LINE
  5
1777B
330
747D
100
AcDbEntity
  8
部品1
100
AcDbLine
 10
8904.885740003463
 20
7371.396791057425
 30
0.0
 11
8895.885740003462
 21
7371.396791057425
 31
0.0
  0
LINE
  5
1777C
330
747D
100
AcDbEntity
  8
部品1
100
AcDbLine
 10
8895.885740003462
 20
7362.396791057425
 30
0.0
 11
8865.885740003461
 21
7362.396791057425
 31
0.0
  0
LINE
  5
1777D
330
747D
100
AcDbEntity
  8
部品1
100
AcDbLine
 10
8865.885740003461
 20
7362.396791057425
 30
0.0
 11
8865.885740003461
 21
7439.396791057425
 31
0.0
  0
LINE
  5
1777E
330
747D
100
AcDbEntity
  8
部品1
100
AcDbLine
 10
8904.885740003463
 20
7435.396791057425
 30
0.0
 11
8904.885740003463
 21
7371.396791057425
 31
0.0
  0
LINE
  5
1777F
330
747D
100
AcDbEntity
  8
部品1
100
AcDbLine
 10
8892.885740003462
 20
7466.396791057421
 30
0.0
 11
8892.885740003462
 21
7435.396791057425
 31
0.0
  0
LINE
  5
17780
330
747D
100
AcDbEntity
  8
部品1
100
AcDbLine
 10
8892.885740003462
 20
7466.396791057421
 30
0.0
 11
10152.88574000346
 21
7466.396791057424
 31
0.0
  0
LINE
  5
17781
330
747D
100
AcDbEntity
  8
部品1
100
AcDbLine
 10
8895.885740003462
 20
7362.396791057425
 30
0.0
 11
10179.88574000346
 21
7362.396791057424
 31
0.0
  0
LINE
  5
17782
330
747D
100
AcDbEntity
  8
細線
 48
50.0
100
AcDbLine
 10
8918.885744657051
 20
7387.996965234378
 30
0.0
 11
8918.885744657051
 21
7396.393115642019
 31
0.0
  0
LINE
  5
17783
330
747D
100
AcDbEntity
  8
細線
 48
50.0
100
AcDbLine
 10
8918.885744657051
 20
7396.393115642019
 30
0.0
 11
8904.885740003463
 21
7396.393115642014
 31
0.0
  0
LINE
  5
17784
330
747D
100
AcDbEntity
  8
細線
 48
50.0
100
AcDbLine
 10
8895.885740003462
 20
7367.394299577849
 30
0.0
 11
9185.885740003461
 21
7367.397935703802
 31
0.0
  0
LINE
  5
17785
330
747D
100
AcDbEntity
  8
細線
 48
50.0
100
AcDbLine
 10
9255.885740003467
 20
7367.39696523438
 30
0.0
 11
9355.885740003463
 21
7367.39696523438
 31
0.0
  0
LINE
  5
17786
330
747D
100
AcDbEntity
  8
細線
 48
50.0
100
AcDbLine
 10
9128.747417883047
 20
7367.39696523438
 30
0.0
 11
9134.502935465716
 21
7385.667816524874
 31
0.0
  0
LINE
  5
17787
330
747D
100
AcDbEntity
  8
細線
 48
50.0
100
AcDbLine
 10
9134.502935465716
 20
7385.667816524874
 30
0.0
 11
9145.431383946149
 21
7385.667816524871
 31
0.0
  0
ARC
  5
17788
330
747D
100
AcDbEntity
  8
細線
 48
50.0
100
AcDbCircle
 10
9145.431383946149
 20
7384.667816524871
 30
0.0
 40
1.0
100
AcDbArc
 50
24.62431835213048
 51
90.0
  0
ARC
  5
17789
330
747D
100
AcDbEntity
  8
細線
 48
50.0
100
AcDbCircle
 10
9156.340096060784
 20
7384.667816524871
 30
0.0
 40
1.0
100
AcDbArc
 50
90.0
 51
155.3756816478695
  0
ARC
  5
1778A
330
747D
100
AcDbEntity
  8
細線
 48
50.0
100
AcDbCircle
 10
9150.885740003465
 20
7387.167816524871
 30
0.0
 40
5.0
100
AcDbArc
 50
204.6243183521304
 51
335.3756816478695
  0
LINE
  5
1778B
330
747D
100
AcDbEntity
  8
細線
 48
50.0
100
AcDbLine
 10
9156.340096060784
 20
7385.667816524871
 30
0.0
 11
9167.268544541215
 21
7385.667816524874
 31
0.0
  0
LINE
  5
1778C
330
747D
100
AcDbEntity
  8
細線
 48
50.0
100
AcDbLine
 10
9167.268544541215
 20
7385.667816524874
 30
0.0
 11
9173.024062123884
 21
7367.39696523438
 31
0.0
  0
LINE
  5
1778D
330
747D
100
AcDbEntity
  8
細線
 48
50.0
100
AcDbLine
 10
9731.885731193605
 20
7421.997009092243
 30
0.0
 11
9344.88574000346
 21
7421.997009092241
 31
0.0
  0
LINE
  5
1778E
330
747D
100
AcDbEntity
  8
細線
 48
50.0
100
AcDbLine
 10
10123.98574000346
 20
7465.396791057424
 30
0.0
 11
9735.885735847192
 21
7465.396791057421
 31
0.0
  0
LINE
  5
1778F
330
747D
100
AcDbEntity
  8
細線
 48
50.0
100
AcDbLine
 10
10150.38574000346
 20
7460.396791057428
 30
0.0
 11
10133.98574000346
 21
7460.396791057426
 31
0.0
  0
LINE
  5
17790
330
747D
100
AcDbEntity
  8
細線
 48
50.0
100
AcDbLine
 10
10133.98574000346
 20
7460.396791057426
 30
0.0
 11
10123.98574000346
 21
7465.396791057425
 31
0.0
  0
LINE
  5
17791
330
747D
100
AcDbEntity
  8
細線
100
AcDbLine
 10
9925.635733023076
 20
7435.396791057425
 30
0.0
 11
9925.635733023076
 21
7464.696791057424
 31
0.0
  0
LINE
  5
17792
330
747D
100
AcDbEntity
  8
細線
100
AcDbLine
 10
9925.635733023076
 20
7464.696791057424
 30
0.0
 11
9945.635733023074
 21
7464.696791057424
 31
0.0
  0
LINE
  5
17793
330
747D
100
AcDbEntity
  8
細線
100
AcDbLine
 10
9945.635733023074
 20
7435.396791057425
 30
0.0
 11
9945.635733023074
 21
7464.696791057424
 31
0.0
  0
LINE
  5
17794
330
747D
100
AcDbEntity
  8
細線
 48
50.0
100
AcDbLine
 10
9830.635733023072
 20
7435.396791057425
 30
0.0
 11
9753.681515419977
 21
7435.396791057425
 31
0.0
  0
LINE
  5
17795
330
747D
100
AcDbEntity
  8
細線
100
AcDbLine
 10
9970.635733023074
 20
7435.396791057425
 30
0.0
 11
9900.635733023076
 21
7435.396791057425
 31
0.0
  0
LINE
  5
17796
330
747D
100
AcDbEntity
  8
細線
100
AcDbLine
 10
10140.88574000346
 20
7435.396791057425
 30
0.0
 11
10040.63573302307
 21
7435.396791057425
 31
0.0
  0
LINE
  5
17797
330
747D
100
AcDbEntity
  8
細線
 48
50.0
100
AcDbLine
 10
10150.38574000346
 20
7460.396791057428
 30
0.0
 11
10150.38574000346
 21
7435.396791057425
 31
0.0
  0
ARC
  5
17798
330
747D
100
AcDbEntity
  8
細線
 48
50.0
100
AcDbCircle
 10
9355.653045879313
 20
7400.396812225699
 30
0.0
 40
1.0
100
AcDbArc
 50
90.0003999466794
 51
165.0005554812987
  0
LINE
  5
17799
330
747D
100
AcDbEntity
  8
細線
 48
50.0
100
AcDbLine
 10
9355.653038898926
 20
7401.396812225674
 30
0.0
 11
9356.594799049831
 21
7401.396818799523
 31
0.0
  0
ARC
  5
1779A
330
747D
100
AcDbEntity
  8
細線
 48
50.0
100
AcDbCircle
 10
9346.118408077972
 20
7400.396617535403
 30
0.0
 40
1.0
100
AcDbArc
 50
15.00104430493943
 51
90.00093320877969
  0
LINE
  5
1779B
330
747D
100
AcDbEntity
  8
細線
 48
50.0
100
AcDbLine
 10
9347.084329186719
 20
7400.655454185965
 30
0.0
 11
9347.332098683232
 21
7399.730833247383
 31
0.0
  0
ARC
  5
1779C
330
747D
100
AcDbEntity
  8
細線
 48
50.0
100
AcDbCircle
 10
9349.070756678976
 20
7400.196739218401
 30
0.0
 40
1.8
100
AcDbArc
 50
195.0010443049394
 51
270.0006665777295
  0
LINE
  5
1779D
330
747D
100
AcDbEntity
  8
細線
 48
50.0
100
AcDbLine
 10
9352.700705038898
 20
7398.396781449003
 30
0.0
 11
9349.070777620131
 21
7398.396739218522
 31
0.0
  0
LINE
  5
1779E
330
747D
100
AcDbEntity
  8
細線
 48
50.0
100
AcDbLine
 10
9354.687117543823
 20
7400.65562190616
 30
0.0
 11
9354.439355101623
 21
7399.730924024054
 31
0.0
  0
ARC
  5
1779F
330
747D
100
AcDbEntity
  8
細線
 48
50.0
100
AcDbCircle
 10
9352.700684097744
 20
7400.196781448882
 30
0.0
 40
1.8
100
AcDbArc
 50
270.0006665777295
 51
345.0005554812987
  0
LINE
  5
177A0
330
747D
100
AcDbEntity
  8
細線
 48
50.0
100
AcDbLine
 10
9334.885702435698
 20
7401.396434582122
 30
0.0
 11
9346.118391790408
 21
7401.396617535269
 31
0.0
  0
LINE
  5
177A1
330
747D
100
AcDbEntity
  8
細線
 48
50.0
100
AcDbLine
 10
9334.885702435698
 20
7401.396434582122
 30
0.0
 11
9334.885747304639
 21
7392.792972946314
 31
0.0
  0
LINE
  5
177A2
330
747D
100
AcDbEntity
  8
細線
 48
50.0
100
AcDbLine
 10
9314.885740003466
 20
7392.792931396773
 30
0.0
 11
9334.885747304639
 21
7392.792972946314
 31
0.0
  0
LINE
  5
177A3
330
747D
100
AcDbEntity
  8
細線
 48
50.0
100
AcDbLine
 10
9314.885740003466
 20
7430.393159499883
 30
0.0
 11
9314.885740003466
 21
7392.792931396773
 31
0.0
  0
LINE
  5
177A4
330
747D
100
AcDbEntity
  8
細線
 48
50.0
100
AcDbLine
 10
9329.885740003463
 20
7430.393159499887
 30
0.0
 11
9314.885740003466
 21
7430.393159499883
 31
0.0
  0
LINE
  5
177A5
330
747D
100
AcDbEntity
  8
細線
 48
50.0
100
AcDbLine
 10
9329.885740003463
 20
7423.393159499886
 30
0.0
 11
9329.885740003463
 21
7430.393159499887
 31
0.0
  0
LINE
  5
177A6
330
747D
100
AcDbEntity
  8
細線
 48
50.0
100
AcDbLine
 10
9344.885740003462
 20
7423.393159499886
 30
0.0
 11
9329.885740003463
 21
7423.393159499886
 31
0.0
  0
LINE
  5
177A7
330
747D
100
AcDbEntity
  8
細線
 48
50.0
100
AcDbLine
 10
9344.885740003462
 20
7418.893159499886
 30
0.0
 11
9344.885740003462
 21
7423.393159499886
 31
0.0
  0
LINE
  5
177A8
330
747D
100
AcDbEntity
  8
細線
 48
50.0
100
AcDbLine
 10
9355.885740003463
 20
7396.39696523438
 30
0.0
 11
9355.885740003463
 21
7367.39696523438
 31
0.0
  0
LINE
  5
177A9
330
747D
100
AcDbEntity
  8
細線
 48
50.0
100
AcDbLine
 10
9340.885740003464
 20
7396.39696523438
 30
0.0
 11
9355.885740003463
 21
7396.39696523438
 31
0.0
  0
LINE
  5
177AA
330
747D
100
AcDbEntity
  8
細線
 48
50.0
100
AcDbLine
 10
9340.885740003463
 20
7389.39696523438
 30
0.0
 11
9340.885740003464
 21
7396.39696523438
 31
0.0
  0
LINE
  5
177AB
330
747D
100
AcDbEntity
  8
細線
 48
50.0
100
AcDbLine
 10
9325.885740003462
 20
7389.39696523438
 30
0.0
 11
9340.885740003463
 21
7389.39696523438
 31
0.0
  0
LINE
  5
177AC
330
747D
100
AcDbEntity
  8
細線
 48
50.0
100
AcDbLine
 10
9325.885740003462
 20
7384.546965234378
 30
0.0
 11
9325.885740003462
 21
7389.39696523438
 31
0.0
  0
LINE
  5
177AD
330
747D
100
AcDbEntity
  8
細線
 48
50.0
100
AcDbLine
 10
9325.885740003462
 20
7387.996965234377
 30
0.0
 11
8918.885744657051
 21
7387.996965234378
 31
0.0
  0
LINE
  5
177AE
330
747D
100
AcDbEntity
  8
細線
 48
50.0
100
AcDbLine
 10
9433.385730696278
 20
7401.39680825073
 30
0.0
 11
9349.29118067269
 21
7401.396818837746
 31
0.0
  0
LINE
  5
177AF
330
747D
100
AcDbEntity
  8
細線
 48
50.0
100
AcDbLine
 10
9573.385696110879
 20
7401.396802958235
 30
0.0
 11
9503.385678823002
 21
7401.396802958243
 31
0.0
  0
LINE
  5
177B0
330
747D
100
AcDbEntity
  8
細線
100
AcDbLine
 10
9501.054193138998
 20
7406.396811145572
 30
0.0
 11
9435.717269720525
 21
7406.396811145562
 31
0.0
  0
LINE
  5
177B1
330
747D
100
AcDbEntity
  8
細線
100
AcDbLine
 10
9503.385739615188
 20
7401.396793591896
 30
0.0
 11
9501.054193138998
 21
7406.396811145572
 31
0.0
  0
LINE
  5
177B2
330
747D
100
AcDbEntity
  8
細線
100
AcDbLine
 10
9433.385731429771
 20
7401.396811145605
 30
0.0
 11
9435.717269720539
 21
7406.39681114559
 31
0.0
  0
LINE
  5
177B3
330
747D
100
AcDbEntity
  8
細線
 48
50.0
100
AcDbLine
 10
9720.88573584719
 20
7427.396791057429
 30
0.0
 11
9720.885735847193
 21
7465.396791057421
 31
0.0
  0
LINE
  5
177B4
330
747D
100
AcDbEntity
  8
細線
 48
50.0
100
AcDbLine
 10
9720.885735847193
 20
7465.396791057421
 30
0.0
 11
9735.885735847192
 21
7465.396791057425
 31
0.0
  0
LINE
  5
177B5
330
747D
100
AcDbEntity
  8
細線
 48
50.0
100
AcDbLine
 10
9735.885735847192
 20
7465.396791057425
 30
0.0
 11
9735.885735847192
 21
7460.396791057426
 31
0.0
  0
LINE
  5
177B6
330
747D
100
AcDbEntity
  8
細線
 48
50.0
100
AcDbLine
 10
9720.88573584719
 20
7427.396791057429
 30
0.0
 11
9740.885735847193
 21
7427.396791057424
 31
0.0
  0
LINE
  5
177B7
330
747D
100
AcDbEntity
  8
細線
 48
50.0
100
AcDbLine
 10
9740.885735847193
 20
7427.396791057424
 30
0.0
 11
9740.885735847193
 21
7435.396791057425
 31
0.0
  0
LINE
  5
177B8
330
747D
100
AcDbEntity
  8
細線
 48
50.0
100
AcDbLine
 10
9746.885735847193
 20
7434.596791057426
 30
0.0
 11
9746.885735847193
 21
7433.096791057426
 31
0.0
  0
LINE
  5
177B9
330
747D
100
AcDbEntity
  8
細線
 48
50.0
100
AcDbLine
 10
9747.585735847192
 20
7432.396791057425
 30
0.0
 11
9752.185735847191
 21
7432.396791057425
 31
0.0
  0
LINE
  5
177BA
330
747D
100
AcDbEntity
  8
細線
 48
50.0
100
AcDbLine
 10
9752.885735847193
 20
7433.096791057426
 30
0.0
 11
9752.885742672306
 21
7434.596805948913
 31
0.0
  0
ARC
  5
177BB
330
747D
100
AcDbEntity
  8
細線
 48
50.0
100
AcDbCircle
 10
9752.185735847191
 20
7433.096791057426
 30
0.0
 40
0.7
100
AcDbArc
 50
270.0
 51
0.0
  0
ARC
  5
177BC
330
747D
100
AcDbEntity
  8
細線
 48
50.0
100
AcDbCircle
 10
9747.585735847192
 20
7433.096791057426
 30
0.0
 40
0.7
100
AcDbArc
 50
180.0
 51
270.0
  0
LINE
  5
177BD
330
747D
100
AcDbEntity
  8
細線
 48
50.0
100
AcDbLine
 10
9746.085737708636
 20
7435.396791057425
 30
0.0
 11
9740.885735847193
 21
7435.396791057425
 31
0.0
  0
ARC
  5
177BE
330
747D
100
AcDbEntity
  8
細線
 48
50.0
100
AcDbCircle
 10
9753.685742672299
 20
7434.596802226042
 30
0.0
 40
0.8
100
AcDbArc
 50
90.00014387753465
 51
179.9997333689498
  0
ARC
  5
177BF
330
747D
100
AcDbEntity
  8
細線
 48
50.0
100
AcDbCircle
 10
9746.085735847202
 20
7434.596791057426
 30
0.0
 40
0.8
100
AcDbArc
 50
359.9997333689499
 51
89.99986668437072
  0
LINE
  5
177C0
330
747D
100
AcDbEntity
  8
細線
 48
50.0
100
AcDbLine
 10
9643.385696128683
 20
7401.396802920015
 30
0.0
 11
9761.885730696285
 21
7401.396802920015
 31
0.0
  0
LINE
  5
177C1
330
747D
100
AcDbEntity
  8
細線
 48
50.0
100
AcDbLine
 10
9761.885740998106
 20
7430.397009092288
 30
0.0
 11
9761.885730696285
 21
7401.396802920015
 31
0.0
  0
LINE
  5
177C2
330
747D
100
AcDbEntity
  8
細線
 48
50.0
100
AcDbLine
 10
9746.885742827577
 20
7430.397009092288
 30
0.0
 11
9761.885740998106
 21
7430.397009092288
 31
0.0
  0
LINE
  5
177C3
330
747D
100
AcDbEntity
  8
細線
 48
50.0
100
AcDbLine
 10
9746.8857311936
 20
7423.397009092245
 30
0.0
 11
9746.885742827577
 21
7430.397009092288
 31
0.0
  0
LINE
  5
177C4
330
747D
100
AcDbEntity
  8
細線
 48
50.0
100
AcDbLine
 10
9731.885731193603
 20
7423.397009092245
 30
0.0
 11
9746.8857311936
 21
7423.397009092245
 31
0.0
  0
LINE
  5
177C5
330
747D
100
AcDbEntity
  8
細線
 48
50.0
100
AcDbLine
 10
9731.885731193603
 20
7418.547009092247
 30
0.0
 11
9731.885731193603
 21
7423.397009092245
 31
0.0
  0
LINE
  5
177C6
330
747D
100
AcDbEntity
  8
細線
  6
Continuous
 62
     5
100
AcDbLine
 10
9733.885735847195
 20
7420.39679105742
 30
0.0
 11
9733.885735847195
 21
7420.39679105742
 31
0.0
  0
LINE
  5
177C7
330
747D
100
AcDbEntity
  8
細線
  6
Continuous
 62
     5
100
AcDbLine
 10
9665.885745154373
 20
7401.396791057421
 30
0.0
 11
9665.885745154373
 21
7401.396791057421
 31
0.0
  0
DIMENSION
  5
179CB
330
747D
100
AcDbEntity
  8
寸法
 48
50.0
100
AcDbDimension
  2
*D30
 10
10179.88574000339
 20
6511.784927053321
 30
0.0
 11
9522.885740003394
 21
6511.784927053321
 31
0.0
 70
   160
 71
     5
 42
1314.0
  3
INABA_S40G
100
AcDbAlignedDimension
 13
8865.885740003394
 23
7362.396791057412
 33
0.0
 14
10179.88574000339
 24
7362.396791057412
 34
0.0
100
AcDbRotatedDimension
1001
ACAD
1000
DSTYLE
1002
{
1070
   341
1005
0
1002
}
  0
DIMENSION
  5
17A63
330
747D
100
AcDbEntity
  8
寸法
100
AcDbDimension
  2
*D31
 10
8543.274494376699
 20
7364.396791057412
 30
0.0
 11
8543.274494376698
 21
7223.911509683174
 31
0.0
 70
   160
 71
     5
 42
75.0
  3
INABA_S40
100
AcDbAlignedDimension
 13
8837.885740003416
 23
7439.396791057411
 33
0.0
 14
8865.885740003394
 24
7364.396791057412
 34
0.0
 50
90.0
100
AcDbRotatedDimension
1001
ACAD
1000
DSTYLE
1002
{
1070
    41
1040
0.5
1070
    44
1040
1.0
1070
   147
1040
0.8
1070
   271
1070
     2
1070
   272
1070
     2
1070
   289
1070
     3
1070
   340
1005
F706
1070
   343
1005
164C7
1070
   344
1005
164C7
1002
}
  0
LINE
  5
17A64
330
747D
100
AcDbEntity
  8
部品1
100
AcDbLine
 10
9904.621073263367
 20
5965.353666283779
 30
0.0
 11
9141.150407034928
 21
5965.353666283779
 31
0.0
  0
LINE
  5
17A65
330
747D
100
AcDbEntity
  8
部品1
100
AcDbLine
 10
9904.621073263367
 20
5725.461344738247
 30
0.0
 11
9904.621073263367
 21
5965.353666283779
 31
0.0
  0
LINE
  5
17A66
330
747D
100
AcDbEntity
  8
部品1
100
AcDbLine
 10
9141.150407034928
 20
5725.461344738247
 30
0.0
 11
9904.621073263367
 21
5725.461344738247
 31
0.0
  0
LINE
  5
17A67
330
747D
100
AcDbEntity
  8
部品1
100
AcDbLine
 10
9141.150407034928
 20
5965.353666283779
 30
0.0
 11
9141.150407034928
 21
5725.461344738247
 31
0.0
  0
DIMENSION
  5
17A68
330
747D
100
AcDbEntity
  8
寸法
100
AcDbDimension
  2
*D32
 10
10207.88574000349
 20
6277.707963343595
 30
0.0
 11
9520.307724763904
 21
6277.707963343595
 31
0.0
 70
   160
 71
     5
 42
1370.000000000078
  3
INABA_S40G
100
AcDbAlignedDimension
 13
8837.885740003416
 23
7439.396791057426
 33
0.0
 14
10207.88574000349
 24
7439.396791057399
 34
0.0
100
AcDbRotatedDimension
1001
ACAD
1000
DSTYLE
1002
{
1002
}
  0
TEXT
  5
17AA7
330
747D
100
AcDbEntity
  8
部品1
100
AcDbText
 10
9231.070016863965
 20
5772.460137065256
 30
0.0
 40
135.0
  1
平面図
  7
STYLE2
100
AcDbText
  0
LWPOLYLINE
  5
17CD0
330
747D
100
AcDbEntity
  8
部品1
 48
50.0
100
AcDbPolyline
 90
        4
 70
     1
 43
0.0
 10
8964.93574000357
 20
3365.161759145205
 10
8967.83574000357
 20
3365.161759145205
 10
8967.83574000357
 20
3374.661759145205
 10
8964.93574000357
 20
3374.661759145205
  0
CIRCLE
  5
17CD1
330
747D
100
AcDbEntity
  8
部品1
 48
50.0
100
AcDbCircle
 10
8966.385740003572
 20
3369.911759145205
 30
0.0
 40
9.0
  0
ARC
  5
17CD2
330
747D
100
AcDbEntity
  8
細線
 48
50.0
100
AcDbCircle
 10
8966.385740003572
 20
3369.911759145205
 30
0.0
 40
4.0
100
AcDbArc
 50
111.2538091853132
 51
248.7461908146868
  0
ARC
  5
17CD3
330
747D
100
AcDbEntity
  8
細線
 48
50.0
100
AcDbCircle
 10
8966.385740003572
 20
3369.911759145205
 30
0.0
 40
17.5
100
AcDbArc
 50
306.4837370612677
 51
233.5162629387323
  0
LINE
  5
17CD4
330
747D
100
AcDbEntity
  8
細線
 48
50.0
100
AcDbLine
 10
8976.385740003568
 20
3346.052798564322
 30
0.0
 11
8976.38574000357
 21
3355.037284364564
 31
0.0
  0
LINE
  5
17CD5
330
747D
100
AcDbEntity
  8
細線
 48
50.0
100
AcDbLine
 10
8956.38574000357
 20
3346.052798564324
 30
0.0
 11
8956.38574000357
 21
3355.037284364561
 31
0.0
  0
ARC
  5
17CD6
330
747D
100
AcDbEntity
  8
細線
 48
50.0
100
AcDbCircle
 10
8966.385740003572
 20
3369.911759145205
 30
0.0
 40
26.5
100
AcDbArc
 50
249.3326835063939
 51
290.6673164933835
  0
ARC
  5
17CD7
330
747D
100
AcDbEntity
  8
細線
 48
50.0
100
AcDbCircle
 10
8975.385740003563
 20
3346.052798564322
 30
0.0
 40
1.0
100
AcDbArc
 50
290.6673164936062
 51
359.9999999998958
  0
ARC
  5
17CD8
330
747D
100
AcDbEntity
  8
細線
 48
50.0
100
AcDbCircle
 10
8957.385740003571
 20
3346.052798564324
 30
0.0
 40
1.0
100
AcDbArc
 50
180.0
 51
249.3326835066164
  0
ARC
  5
17CD9
330
747D
100
AcDbEntity
  8
細線
 48
50.0
100
AcDbCircle
 10
8955.385740003571
 20
3355.037284364561
 30
0.0
 40
1.0
100
AcDbArc
 50
0.0
 51
53.51626293873231
  0
ARC
  5
17CDA
330
747D
100
AcDbEntity
  8
細線
 48
50.0
100
AcDbCircle
 10
8977.385740003574
 20
3355.037284364564
 30
0.0
 40
1.0
100
AcDbArc
 50
126.4837370615127
 51
180.0
  0
ARC
  5
17CDB
330
747D
100
AcDbEntity
  8
細線
 48
50.0
100
AcDbCircle
 10
8966.385740003572
 20
3369.911759145205
 30
0.0
 40
21.5
100
AcDbArc
 50
255.8014401250294
 51
284.1985598749706
  0
ARC
  5
17CDC
330
747D
100
AcDbEntity
  8
細線
 48
50.0
100
AcDbCircle
 10
8966.385740003572
 20
3369.911759145205
 30
0.0
 40
16.5
100
AcDbArc
 50
251.9694646069326
 51
288.0305353930674
  0
LINE
  5
17CDD
330
747D
100
AcDbEntity
  8
細線
 48
50.0
100
AcDbLine
 10
8971.885740003569
 20
3349.359387019398
 30
0.0
 11
8971.885740003569
 21
3353.936778706735
 31
0.0
  0
LINE
  5
17CDE
330
747D
100
AcDbEntity
  8
細線
 48
50.0
100
AcDbLine
 10
8960.88574000357
 20
3349.359387019398
 30
0.0
 11
8960.88574000357
 21
3353.936778706734
 31
0.0
  0
ARC
  5
17CDF
330
747D
100
AcDbEntity
  8
細線
 48
50.0
100
AcDbCircle
 10
8961.185740003573
 20
3353.936778706734
 30
0.0
 40
0.3
100
AcDbArc
 50
71.96946460693259
 51
180.0
  0
ARC
  5
17CE0
330
747D
100
AcDbEntity
  8
細線
 48
50.0
100
AcDbCircle
 10
8971.585740003572
 20
3353.936778706735
 30
0.0
 40
0.3
100
AcDbArc
 50
0.0
 51
108.0305353930674
  0
ARC
  5
17CE1
330
747D
100
AcDbEntity
  8
細線
 48
50.0
100
AcDbCircle
 10
8971.585740003567
 20
3349.359387019398
 30
0.0
 40
0.3
100
AcDbArc
 50
284.1985598747622
 51
0.0000000001042204
  0
ARC
  5
17CE2
330
747D
100
AcDbEntity
  8
細線
 48
50.0
100
AcDbCircle
 10
8961.185740003573
 20
3349.359387019398
 30
0.0
 40
0.3
100
AcDbArc
 50
180.0
 51
255.8014401248081
  0
CIRCLE
  5
17CE3
330
747D
100
AcDbEntity
  8
細線
 48
50.0
100
AcDbCircle
 10
8966.385740003572
 20
3369.911759145205
 30
0.0
 40
12.0
  0
ARC
  5
17CE4
330
747D
100
AcDbEntity
  8
部品1
 48
50.0
100
AcDbCircle
 10
8966.385740003572
 20
3419.911759145205
 30
0.0
 40
8.5
100
AcDbArc
 50
114.315739171091
 51
245.684260828909
  0
CIRCLE
  5
17CE5
330
747D
100
AcDbEntity
  8
細線
 48
50.0
100
AcDbCircle
 10
8966.385740003572
 20
3419.911759145205
 30
0.0
 40
4.5
  0
LWPOLYLINE
  5
17CE6
330
747D
100
AcDbEntity
  8
部品1
 48
50.0
100
AcDbPolyline
 90
        2
 70
     0
 43
0.0
 10
8962.885740003569
 20
3438.586608542188
 10
8962.885740003569
 20
3427.65772583762
  0
CIRCLE
  5
17CE7
330
747D
100
AcDbEntity
  8
部品1
 48
50.0
100
AcDbCircle
 10
8966.385740003572
 20
3419.911759145205
 30
0.0
 40
19.0
  0
LWPOLYLINE
  5
17CE8
330
747D
100
AcDbEntity
  8
部品1
 48
50.0
100
AcDbPolyline
 90
        2
 70
     0
 43
0.0
 10
8962.885740003569
 20
3412.16579245279
 10
8962.885740003569
 20
3401.236909748222
  0
LWPOLYLINE
  5
17CE9
330
747D
100
AcDbEntity
  8
部品1
 48
50.0
100
AcDbPolyline
 90
        2
 70
     0
 43
0.0
 10
8969.88574000357
 20
3427.65772583762
 10
8969.88574000357
 20
3438.586608542188
  0
ARC
  5
17CEA
330
747D
100
AcDbEntity
  8
部品1
 48
50.0
100
AcDbCircle
 10
8966.385740003572
 20
3419.911759145205
 30
0.0
 40
8.5
100
AcDbArc
 50
294.315739171091
 51
65.68426082890896
  0
LWPOLYLINE
  5
17CEB
330
747D
100
AcDbEntity
  8
部品1
 48
50.0
100
AcDbPolyline
 90
        2
 70
     0
 43
0.0
 10
8969.88574000357
 20
3401.236909748222
 10
8969.88574000357
 20
3412.16579245279
  0
ARC
  5
17CEC
330
747D
100
AcDbEntity
  8
細線
 48
50.0
100
AcDbCircle
 10
8966.385740003572
 20
3419.911759145205
 30
0.0
 40
16.5
100
AcDbArc
 50
332.0012352654438
 51
27.99876473455621
  0
ARC
  5
17CED
330
747D
100
AcDbEntity
  8
細線
 48
50.0
100
AcDbCircle
 10
8966.385740003572
 20
3419.911759145205
 30
0.0
 40
14.0
100
AcDbArc
 50
326.4074436112986
 51
33.59255638870134
  0
LINE
  5
17CEE
330
747D
100
AcDbEntity
  8
細線
 48
50.0
100
AcDbLine
 10
8951.81693771924
 20
3427.65772583762
 30
0.0
 11
8954.723836213881
 21
3427.65772583762
 31
0.0
  0
LINE
  5
17CEF
330
747D
100
AcDbEntity
  8
細線
 48
50.0
100
AcDbLine
 10
8951.81693771924
 20
3412.16579245279
 30
0.0
 11
8954.723836213881
 21
3412.16579245279
 31
0.0
  0
LINE
  5
17CF0
330
747D
100
AcDbEntity
  8
細線
 48
50.0
100
AcDbLine
 10
8978.047643793258
 20
3427.65772583762
 30
0.0
 11
8980.954542287905
 21
3427.65772583762
 31
0.0
  0
LINE
  5
17CF1
330
747D
100
AcDbEntity
  8
細線
 48
50.0
100
AcDbLine
 10
8978.047643793258
 20
3412.16579245279
 30
0.0
 11
8980.954542287905
 21
3412.16579245279
 31
0.0
  0
ARC
  5
17CF2
330
747D
100
AcDbEntity
  8
細線
 48
50.0
100
AcDbCircle
 10
8966.385740003572
 20
3419.911759145205
 30
0.0
 40
14.0
100
AcDbArc
 50
146.4074436112986
 51
213.5925563887013
  0
ARC
  5
17CF3
330
747D
100
AcDbEntity
  8
細線
 48
50.0
100
AcDbCircle
 10
8966.385740003572
 20
3419.911759145205
 30
0.0
 40
16.5
100
AcDbArc
 50
152.0012352654438
 51
207.9987647345562
  0
ARC
  5
17CF4
330
747D
100
AcDbEntity
  8
部品1
 48
50.0
100
AcDbCircle
 10
8939.885740003571
 20
3445.411759145205
 30
0.0
 40
5.0
100
AcDbArc
 50
90.0
 51
180.0
  0
ARC
  5
17CF5
330
747D
100
AcDbEntity
  8
部品1
 48
50.0
100
AcDbCircle
 10
8939.885740003571
 20
3334.411759145205
 30
0.0
 40
5.0
100
AcDbArc
 50
180.0
 51
270.0
  0
ARC
  5
17CF6
330
747D
100
AcDbEntity
  8
部品1
 48
50.0
100
AcDbCircle
 10
8992.88574000357
 20
3334.411759145205
 30
0.0
 40
5.0
100
AcDbArc
 50
270.0
 51
0.0
  0
ARC
  5
17CF7
330
747D
100
AcDbEntity
  8
部品1
 48
50.0
100
AcDbCircle
 10
8992.88574000357
 20
3445.411759145205
 30
0.0
 40
5.0
100
AcDbArc
 50
0.0
 51
90.0
  0
LINE
  5
17CF9
330
747D
100
AcDbEntity
  8
部品1
 48
50.0
100
AcDbLine
 10
8934.88574000357
 20
3334.411759145205
 30
0.0
 11
8934.88574000357
 21
3445.411759145205
 31
0.0
  0
LINE
  5
17CFA
330
747D
100
AcDbEntity
  8
部品1
 48
50.0
100
AcDbLine
 10
8992.88574000357
 20
3329.411759145205
 30
0.0
 11
8939.885740003571
 21
3329.411759145205
 31
0.0
  0
LINE
  5
17CFB
330
747D
100
AcDbEntity
  8
部品1
 48
50.0
100
AcDbLine
 10
8997.885740003571
 20
3445.411759145205
 30
0.0
 11
8997.885740003571
 21
3334.411759145205
 31
0.0
  0
ENDSEC
  0
SECTION
  2
OBJECTS
  0
DICTIONARY
  5
7471
330
0
100
AcDbDictionary
281
     1
  3
ACAD_COLOR
350
16424
  3
ACAD_GROUP
350
7472
  3
ACAD_LAYOUT
350
16425
  3
ACAD_MATERIAL
350
16423
  3
ACAD_MLINESTYLE
350
7473
  3
ACAD_PLOTSETTINGS
350
16426
  3
ACAD_PLOTSTYLENAME
350
16421
  3
ACDBHEADERROUNDTRIPXREC
350
17D0A
  3
AcDbVariableDictionary
350
17D06
  3
CONTENTDICTIONARY
350
E71C
  3
DRAWINGVARIABLESDICT
350
F3B9
  0
DICTIONARY
  5
165BE
330
7467
100
AcDbDictionary
280
     1
281
     1
  3
ACAD_LAYERSTATES
360
165BF
  0
DICTIONARY
  5
16424
102
{ACAD_REACTORS
330
7471
102
}
330
7471
100
AcDbDictionary
281
     1
  0
DICTIONARY
  5
7472
102
{ACAD_REACTORS
330
7471
102
}
330
7471
100
AcDbDictionary
281
     1
  0
DICTIONARY
  5
16425
102
{ACAD_REACTORS
330
7471
102
}
330
7471
100
AcDbDictionary
281
     1
  3
Model
350
16427
  3
レイアウト1
350
16428
  0
DICTIONARY
  5
16423
102
{ACAD_REACTORS
330
7471
102
}
330
7471
100
AcDbDictionary
281
     1
  0
DICTIONARY
  5
7473
102
{ACAD_REACTORS
330
7471
102
}
330
7471
100
AcDbDictionary
281
     1
  3
STANDARD
350
7480
  0
DICTIONARY
  5
16426
102
{ACAD_REACTORS
330
7471
102
}
330
7471
100
AcDbDictionary
281
     1
  0
ACDBDICTIONARYWDFLT
  5
16421
102
{ACAD_REACTORS
330
7471
102
}
330
7471
100
AcDbDictionary
281
     1
  3
Normal
350
16422
100
AcDbDictionaryWithDefault
340
16422
  0
DICTIONARY
  5
17D0A
102
{ACAD_REACTORS
330
7471
102
}
330
7471
100
AcDbDictionary
281
     1
  3
COLORDICT
350
17D0C
  3
MATERIALDICT
350
17D0B
  0
DICTIONARY
  5
17D06
102
{ACAD_REACTORS
330
7471
102
}
330
7471
100
AcDbDictionary
281
     1
  3
DIMASSOC
350
17D07
  3
PROJECTNAME
350
17D08
  0
DICTIONARY
  5
E71C
102
{ACAD_REACTORS
330
7471
102
}
330
7471
100
AcDbDictionary
281
     1
  0
DICTIONARY
  5
F3B9
102
{ACAD_REACTORS
330
7471
102
}
330
7471
100
AcDbDictionary
281
     1
1001
DRAWINGVARIABLESXDATA
1000
POLARMODE
1000
1
  0
DICTIONARY
  5
165BF
102
{ACAD_REACTORS
330
165BE
102
}
330
165BE
100
AcDbDictionary
281
     1
  0
LAYOUT
  5
16427
102
{ACAD_XDICTIONARY
360
17D0D
102
}
102
{ACAD_REACTORS
330
16425
102
}
330
16425
100
AcDbPlotSettings
  1

  2
Microsoft Office Document Image Writer
  4

  6

 40
0.0
 41
0.0
 42
0.0
 43
0.0
 44
0.0
 45
0.0
 46
0.0
 47
0.0
 48
0.0
 49
0.0
140
0.0
141
0.0
142
1.0
143
1.0
 70
  1712
 72
     0
 73
     0
 74
     0
  7

 75
     0
147
1.0
148
0.0
149
0.0
100
AcDbLayout
  1
Model
 70
     1
 71
     0
 10
0.0
 20
0.0
 11
12.0
 21
9.0
 12
0.0
 22
0.0
 32
0.0
 14
0.0
 24
0.0
 34
0.0
 15
0.0
 25
0.0
 35
0.0
146
0.0
 13
0.0
 23
0.0
 33
0.0
 16
1.0
 26
0.0
 36
0.0
 17
0.0
 27
1.0
 37
0.0
 76
     0
330
747D
  0
LAYOUT
  5
16428
102
{ACAD_XDICTIONARY
360
17D0F
102
}
102
{ACAD_REACTORS
330
16425
102
}
330
16425
100
AcDbPlotSettings
  1

  2
Microsoft Office Document Image Writer
  4

  6

 40
0.0
 41
0.0
 42
0.0
 43
0.0
 44
0.0
 45
0.0
 46
0.0
 47
0.0
 48
0.0
 49
0.0
140
0.0
141
0.0
142
1.0
143
1.0
 70
   688
 72
     0
 73
     0
 74
     5
  7

 75
    16
147
1.0
148
0.0
149
0.0
100
AcDbLayout
  1
レイアウト1
 70
     0
 71
     1
 10
0.0
 20
0.0
 11
420.0
 21
297.0
 12
0.0
 22
0.0
 32
0.0
 14
1.000000000000000E+20
 24
1.000000000000000E+20
 34
1.000000000000000E+20
 15
-1.000000000000000E+20
 25
-1.000000000000000E+20
 35
-1.000000000000000E+20
146
0.0
 13
0.0
 23
0.0
 33
0.0
 16
1.0
 26
0.0
 36
0.0
 17
0.0
 27
1.0
 37
0.0
 76
     0
330
747A
  0
MLINESTYLE
  5
7480
102
{ACAD_REACTORS
330
7473
102
}
330
7473
100
AcDbMlineStyle
  2
STANDARD
 70
     0
  3

 62
     0
 51
90.0
 52
90.0
 71
     2
 49
0.5
 62
   256
  6
BYLAYER
 49
-0.5
 62
   256
  6
BYLAYER
  0
ACDBPLACEHOLDER
  5
16422
102
{ACAD_REACTORS
330
16421
102
}
330
16421
  0
XRECORD
  5
17D0C
102
{ACAD_REACTORS
330
17D0A
102
}
330
17D0A
100
AcDbXrecord
280
     1
340
16424
  0
XRECORD
  5
17D0B
102
{ACAD_REACTORS
330
17D0A
102
}
330
17D0A
100
AcDbXrecord
280
     1
340
16423
  0
DICTIONARYVAR
  5
17D07
102
{ACAD_REACTORS
330
17D06
102
}
330
17D06
100
DictionaryVariables
280
     0
  1
1
  0
DICTIONARYVAR
  5
17D08
102
{ACAD_REACTORS
330
17D06
102
}
330
17D06
100
DictionaryVariables
280
     0
  1

  0
DICTIONARY
  5
17D0D
330
16427
100
AcDbDictionary
280
     1
281
     1
  3
ACAD_XREC_ROUNDTRIP
360
17D0E
  0
DICTIONARY
  5
17D0F
330
16428
100
AcDbDictionary
280
     1
281
     1
  3
ACAD_XREC_ROUNDTRIP
360
17D10
  0
XRECORD
  5
17D0E
102
{ACAD_REACTORS
330
17D0D
102
}
330
17D0D
100
AcDbXrecord
280
     1
102
SHADEPLOT
 70
     0
102
SHADEPLOTRESLEVEL
 70
     2
102
SHADEPLOTCUSTOMDPI
 70
   300
  0
XRECORD
  5
17D10
102
{ACAD_REACTORS
330
17D0F
102
}
330
17D0F
100
AcDbXrecord
280
     1
102
SHADEPLOT
 70
     0
102
SHADEPLOTRESLEVEL
 70
     2
102
SHADEPLOTCUSTOMDPI
 70
   300
  0
ENDSEC
  0
EOF
