  0
SECTION
  2
HEADER
  9
$ACADVER
  1
AC1015
  9
$ACADMAINTVER
 70
    20
  9
$DWGCODEPAGE
  3
ANSI_932
  9
$INSBASE
 10
0.0
 20
0.0
 30
0.0
  9
$EXTMIN
 10
139.9999999999995
 20
-0.0000000000000909
 30
0.0
  9
$EXTMAX
 10
16307.2
 20
11409.6
 30
0.0
  9
$LIMMIN
 10
0.0
 20
0.0
  9
$LIMMAX
 10
16800.0
 20
11880.0
  9
$ORTHOMODE
 70
     0
  9
$REGENMODE
 70
     1
  9
$FILLMODE
 70
     1
  9
$QTEXTMODE
 70
     0
  9
$MIRRTEXT
 70
     1
  9
$LTSCALE
 40
20.0
  9
$ATTMODE
 70
     1
  9
$TEXTSIZE
 40
4.0
  9
$TRACEWID
 40
1.0
  9
$TEXTSTYLE
  7
STYLE1
  9
$CLAYER
  8
寸法
  9
$CELTYPE
  6
BYLAYER
  9
$CECOLOR
 62
   256
  9
$CELTSCALE
 40
50.0
  9
$DISPSILH
 70
     0
  9
$DIMSCALE
 40
40.0
  9
$DIMASZ
 40
2.5
  9
$DIMEXO
 40
0.5
  9
$DIMDLI
 40
7.0
  9
$DIMRND
 40
0.0
  9
$DIMDLE
 40
0.0
  9
$DIMEXE
 40
1.5
  9
$DIMTP
 40
0.0
  9
$DIMTM
 40
0.0
  9
$DIMTXT
 40
3.0
  9
$DIMCEN
 40
0.0
  9
$DIMTSZ
 40
0.0
  9
$DIMTOL
 70
     0
  9
$DIMLIM
 70
     0
  9
$DIMTIH
 70
     0
  9
$DIMTOH
 70
     0
  9
$DIMSE1
 70
     0
  9
$DIMSE2
 70
     0
  9
$DIMTAD
 70
     3
  9
$DIMZIN
 70
     8
  9
$DIMBLK
  1

  9
$DIMASO
 70
     1
  9
$DIMSHO
 70
     1
  9
$DIMPOST
  1

  9
$DIMAPOST
  1

  9
$DIMALT
 70
     0
  9
$DIMALTD
 70
     2
  9
$DIMALTF
 40
0.0394
  9
$DIMLFAC
 40
1.0
  9
$DIMTOFL
 70
     1
  9
$DIMTVP
 40
0.0
  9
$DIMTIX
 70
     1
  9
$DIMSOXD
 70
     0
  9
$DIMSAH
 70
     1
  9
$DIMBLK1
  1
DOTSMALL
  9
$DIMBLK2
  1
DOTSMALL
  9
$DIMSTYLE
  2
INABA_S40G
  9
$DIMCLRD
 70
     0
  9
$DIMCLRE
 70
     0
  9
$DIMCLRT
 70
     7
  9
$DIMTFAC
 40
1.0
  9
$DIMGAP
 40
1.0
  9
$DIMJUST
 70
     0
  9
$DIMSD1
 70
     0
  9
$DIMSD2
 70
     0
  9
$DIMTOLJ
 70
     1
  9
$DIMTZIN
 70
     0
  9
$DIMALTZ
 70
     0
  9
$DIMALTTZ
 70
     0
  9
$DIMUPT
 70
     1
  9
$DIMDEC
 70
     1
  9
$DIMTDEC
 70
     4
  9
$DIMALTU
 70
     2
  9
$DIMALTTD
 70
     2
  9
$DIMTXSTY
  7
STYLE1
  9
$DIMAUNIT
 70
     0
  9
$DIMADEC
 70
     0
  9
$DIMALTRND
 40
0.0
  9
$DIMAZIN
 70
     0
  9
$DIMDSEP
 70
    46
  9
$DIMATFIT
 70
     3
  9
$DIMFRAC
 70
     0
  9
$DIMLDRBLK
  1

  9
$DIMLUNIT
 70
     2
  9
$DIMLWD
 70
    -2
  9
$DIMLWE
 70
    -2
  9
$DIMTMOVE
 70
     0
  9
$LUNITS
 70
     2
  9
$LUPREC
 70
     1
  9
$SKETCHINC
 40
1.0
  9
$FILLETRAD
 40
3.0
  9
$AUNITS
 70
     0
  9
$AUPREC
 70
     0
  9
$MENU
  1
acad
  9
$ELEVATION
 40
0.0
  9
$PELEVATION
 40
0.0
  9
$THICKNESS
 40
0.0
  9
$LIMCHECK
 70
     0
  9
$CHAMFERA
 40
0.0
  9
$CHAMFERB
 40
0.0
  9
$CHAMFERC
 40
0.0
  9
$CHAMFERD
 40
0.0
  9
$SKPOLY
 70
     0
  9
$TDCREATE
 40
2451368.612993866
  9
$TDUCREATE
 40
2451368.237993866
  9
$TDUPDATE
 40
2455575.682347546
  9
$TDUUPDATE
 40
2455575.307347547
  9
$TDINDWG
 40
0.5529973032
  9
$TDUSRTIMER
 40
0.5529973032
  9
$USRTIMER
 70
     1
  9
$ANGBASE
 50
0.0
  9
$ANGDIR
 70
     0
  9
$PDMODE
 70
     3
  9
$PDSIZE
 40
2.0
  9
$PLINEWID
 40
0.0
  9
$SPLFRAME
 70
     0
  9
$SPLINETYPE
 70
     6
  9
$SPLINESEGS
 70
     8
  9
$HANDSEED
  5
17A4A
  9
$SURFTAB1
 70
     6
  9
$SURFTAB2
 70
     6
  9
$SURFTYPE
 70
     6
  9
$SURFU
 70
     6
  9
$SURFV
 70
     6
  9
$UCSBASE
  2

  9
$UCSNAME
  2

  9
$UCSORG
 10
0.0
 20
0.0
 30
0.0
  9
$UCSXDIR
 10
1.0
 20
0.0
 30
0.0
  9
$UCSYDIR
 10
0.0
 20
1.0
 30
0.0
  9
$UCSORTHOREF
  2

  9
$UCSORTHOVIEW
 70
     0
  9
$UCSORGTOP
 10
0.0
 20
0.0
 30
0.0
  9
$UCSORGBOTTOM
 10
0.0
 20
0.0
 30
0.0
  9
$UCSORGLEFT
 10
0.0
 20
0.0
 30
0.0
  9
$UCSORGRIGHT
 10
0.0
 20
0.0
 30
0.0
  9
$UCSORGFRONT
 10
0.0
 20
0.0
 30
0.0
  9
$UCSORGBACK
 10
0.0
 20
0.0
 30
0.0
  9
$PUCSBASE
  2

  9
$PUCSNAME
  2

  9
$PUCSORG
 10
0.0
 20
0.0
 30
0.0
  9
$PUCSXDIR
 10
1.0
 20
0.0
 30
0.0
  9
$PUCSYDIR
 10
0.0
 20
1.0
 30
0.0
  9
$PUCSORTHOREF
  2

  9
$PUCSORTHOVIEW
 70
     0
  9
$PUCSORGTOP
 10
0.0
 20
0.0
 30
0.0
  9
$PUCSORGBOTTOM
 10
0.0
 20
0.0
 30
0.0
  9
$PUCSORGLEFT
 10
0.0
 20
0.0
 30
0.0
  9
$PUCSORGRIGHT
 10
0.0
 20
0.0
 30
0.0
  9
$PUCSORGFRONT
 10
0.0
 20
0.0
 30
0.0
  9
$PUCSORGBACK
 10
0.0
 20
0.0
 30
0.0
  9
$USERI1
 70
     0
  9
$USERI2
 70
     0
  9
$USERI3
 70
     0
  9
$USERI4
 70
     0
  9
$USERI5
 70
     0
  9
$USERR1
 40
0.0
  9
$USERR2
 40
0.0
  9
$USERR3
 40
0.0
  9
$USERR4
 40
0.0
  9
$USERR5
 40
0.0
  9
$WORLDVIEW
 70
     1
  9
$SHADEDGE
 70
     3
  9
$SHADEDIF
 70
    70
  9
$TILEMODE
 70
     1
  9
$MAXACTVP
 70
    16
  9
$PINSBASE
 10
0.0
 20
0.0
 30
0.0
  9
$PLIMCHECK
 70
     0
  9
$PEXTMIN
 10
1.000000000000000E+20
 20
1.000000000000000E+20
 30
1.000000000000000E+20
  9
$PEXTMAX
 10
-1.000000000000000E+20
 20
-1.000000000000000E+20
 30
-1.000000000000000E+20
  9
$PLIMMIN
 10
0.0
 20
0.0
  9
$PLIMMAX
 10
420.0
 20
297.0
  9
$UNITMODE
 70
     0
  9
$VISRETAIN
 70
     0
  9
$PLINEGEN
 70
     0
  9
$PSLTSCALE
 70
     0
  9
$TREEDEPTH
 70
  3020
  9
$CMLSTYLE
  2
STANDARD
  9
$CMLJUST
 70
     0
  9
$CMLSCALE
 40
1.0
  9
$PROXYGRAPHICS
 70
     1
  9
$MEASUREMENT
 70
     1
  9
$CELWEIGHT
370
    -1
  9
$ENDCAPS
280
     0
  9
$JOINSTYLE
280
     0
  9
$LWDISPLAY
290
     0
  9
$INSUNITS
 70
     0
  9
$HYPERLINKBASE
  1

  9
$STYLESHEET
  1

  9
$XEDIT
290
     1
  9
$CEPSNTYPE
380
     0
  9
$PSTYLEMODE
290
     1
  9
$FINGERPRINTGUID
  2
{8B28D53A-31EC-48F2-886D-BC72E669D0EB}
  9
$VERSIONGUID
  2
{19AF4EAA-94D4-41A4-ABE2-5F4DCB3AC2AF}
  9
$EXTNAMES
290
     1
  9
$PSVPSCALE
 40
0.0
  9
$OLESTARTUP
290
     0
  0
ENDSEC
  0
SECTION
  2
CLASSES
  0
CLASS
  1
ACDBDICTIONARYWDFLT
  2
AcDbDictionaryWithDefault
  3
ObjectDBX Classes
 90
        0
280
     0
281
     0
  0
CLASS
  1
DICTIONARYVAR
  2
AcDbDictionaryVar
  3
ObjectDBX Classes
 90
        0
280
     0
281
     0
  0
CLASS
  1
ACDBPLACEHOLDER
  2
AcDbPlaceHolder
  3
ObjectDBX Classes
 90
        0
280
     0
281
     0
  0
CLASS
  1
LAYOUT
  2
AcDbLayout
  3
ObjectDBX Classes
 90
        0
280
     0
281
     0
  0
ENDSEC
  0
SECTION
  2
TABLES
  0
TABLE
  2
VPORT
  5
746D
330
0
100
AcDbSymbolTable
 70
     2
  0
VPORT
  5
17A40
330
746D
100
AcDbSymbolTableRecord
100
AcDbViewportTableRecord
  2
*Active
 70
     0
 10
0.0
 20
0.0
 11
1.0
 21
1.0
 12
8223.761025238502
 22
6348.703162895247
 13
0.0
 23
0.0
 14
10.0
 24
10.0
 15
10.0
 25
10.0
 16
0.0
 26
0.0
 36
1.0
 17
0.0
 27
0.0
 37
0.0
 40
12805.60689082044
 41
1.525925925925925
 42
50.0
 43
0.0
 44
0.0
 50
0.0
 51
0.0
 71
     0
 72
     0
 73
     1
 74
     0
 75
     0
 76
     0
 77
     0
 78
     0
281
     0
 65
     1
110
0.0
120
0.0
130
0.0
111
1.0
121
0.0
131
0.0
112
0.0
122
1.0
132
0.0
 79
     0
146
0.0
  0
ENDTAB
  0
TABLE
  2
LTYPE
  5
746A
330
0
100
AcDbSymbolTable
 70
     4
  0
LTYPE
  5
7477
330
746A
100
AcDbSymbolTableRecord
100
AcDbLinetypeTableRecord
  2
BYBLOCK
 70
     0
  3

 72
    65
 73
     0
 40
0.0
  0
LTYPE
  5
7478
330
746A
100
AcDbSymbolTableRecord
100
AcDbLinetypeTableRecord
  2
BYLAYER
 70
     0
  3

 72
    65
 73
     0
 40
0.0
  0
LTYPE
  5
7479
330
746A
100
AcDbSymbolTableRecord
100
AcDbLinetypeTableRecord
  2
CONTINUOUS
 70
     0
  3
Solid line
 72
    65
 73
     0
 40
0.0
  0
LTYPE
  5
7816
330
746A
100
AcDbSymbolTableRecord
100
AcDbLinetypeTableRecord
  2
CENTER
 70
     0
  3
____ _ ____ _ ____ _ ____ _ ____ _ ____ _ ____ 
 72
    65
 73
     4
 40
2.0
 49
1.25
 74
     0
 49
-0.25
 74
     0
 49
0.25
 74
     0
 49
-0.25
 74
     0
  0
LTYPE
  5
781A
330
746A
100
AcDbSymbolTableRecord
100
AcDbLinetypeTableRecord
  2
HIDDEN
 70
     0
  3
__ __ __ __ __ __ __ __ __ __ __ __ __ __ __ __
 72
    65
 73
     2
 40
0.375
 49
0.25
 74
     0
 49
-0.125
 74
     0
  0
LTYPE
  5
781B
330
746A
100
AcDbSymbolTableRecord
100
AcDbLinetypeTableRecord
  2
PHANTOM
 70
     0
  3
______  __  __  ______  __  __  ______  __  __ 
 72
    65
 73
     6
 40
2.5
 49
1.25
 74
     0
 49
-0.25
 74
     0
 49
0.25
 74
     0
 49
-0.25
 74
     0
 49
0.25
 74
     0
 49
-0.25
 74
     0
  0
ENDTAB
  0
TABLE
  2
LAYER
  5
7467
102
{ACAD_XDICTIONARY
360
15DFA
102
}
330
0
100
AcDbSymbolTable
 70
    13
  0
LAYER
  5
7474
330
7467
100
AcDbSymbolTableRecord
100
AcDbLayerTableRecord
  2
0
 70
     0
 62
     7
  6
CONTINUOUS
370
    -3
390
15D9B
  0
LAYER
  5
DEB2
330
7467
100
AcDbSymbolTableRecord
100
AcDbLayerTableRecord
  2
センター
 70
     0
 62
     3
  6
CENTER
370
    -3
390
15D9B
  0
LAYER
  5
DEB3
330
7467
100
AcDbSymbolTableRecord
100
AcDbLayerTableRecord
  2
寸法
 70
     0
 62
     4
  6
CONTINUOUS
370
    -3
390
15D9B
  0
LAYER
  5
DEB4
330
7467
100
AcDbSymbolTableRecord
100
AcDbLayerTableRecord
  2
部品1
 70
     0
 62
     7
  6
CONTINUOUS
370
    -3
390
15D9B
  0
LAYER
  5
DEB5
330
7467
100
AcDbSymbolTableRecord
100
AcDbLayerTableRecord
  2
補助
 70
     0
 62
    -1
  6
CONTINUOUS
370
    -3
390
15D9B
  0
LAYER
  5
DEB6
330
7467
100
AcDbSymbolTableRecord
100
AcDbLayerTableRecord
  2
文字
 70
     0
 62
     7
  6
CONTINUOUS
370
    -3
390
15D9B
  0
LAYER
  5
F255
330
7467
100
AcDbSymbolTableRecord
100
AcDbLayerTableRecord
  2
DEFPOINTS
 70
     0
 62
     7
  6
CONTINUOUS
290
     0
370
    -3
390
15D9B
  0
LAYER
  5
10B54
330
7467
100
AcDbSymbolTableRecord
100
AcDbLayerTableRecord
  2
仕様書枠
 70
     0
 62
   230
  6
CONTINUOUS
370
    -3
390
15D9B
  0
LAYER
  5
11729
330
7467
100
AcDbSymbolTableRecord
100
AcDbLayerTableRecord
  2
Ｇ．Ｌ
 70
     0
 62
    30
  6
CONTINUOUS
370
    -3
390
15D9B
  0
LAYER
  5
1173F
330
7467
100
AcDbSymbolTableRecord
100
AcDbLayerTableRecord
  2
細線
 70
     0
 62
     5
  6
CONTINUOUS
370
    -3
390
15D9B
  0
LAYER
  5
12CC4
330
7467
100
AcDbSymbolTableRecord
100
AcDbLayerTableRecord
  2
想像線
 70
     0
 62
     6
  6
PHANTOM
370
    -3
390
15D9B
  0
LAYER
  5
142E2
330
7467
100
AcDbSymbolTableRecord
100
AcDbLayerTableRecord
  2
破線
 70
     0
 62
     2
  6
HIDDEN
370
    -3
390
15D9B
  0
LAYER
  5
171B4
330
7467
100
AcDbSymbolTableRecord
100
AcDbLayerTableRecord
  2
点線
 70
     0
 62
     2
  6
HIDDEN
370
    -3
390
15D9B
  0
ENDTAB
  0
TABLE
  2
STYLE
  5
7468
330
0
100
AcDbSymbolTable
 70
     4
  0
STYLE
  5
7475
330
7468
100
AcDbSymbolTableRecord
100
AcDbTextStyleTableRecord
  2
STANDARD
 70
     0
 40
0.0
 41
1.0
 50
0.0
 71
     0
 42
4.0
  3
txt
  4
C:\AutoCAD LT\bigfont.shx
  0
STYLE
  5
F706
330
7468
100
AcDbSymbolTableRecord
100
AcDbTextStyleTableRecord
  2
STYLE1
 70
     0
 40
0.0
 41
1.0
 50
0.0
 71
     0
 42
4.0
  3
isocp.shx
  4
bigfont.shx
  0
STYLE
  5
103BF
330
7468
100
AcDbSymbolTableRecord
100
AcDbTextStyleTableRecord
  2
STYLE2
 70
     0
 40
0.0
 41
1.0
 50
0.0
 71
     0
 42
100.0
  3
MS PGothic.ttf
  4

1001
ACAD
1000
MS PGothic
1071
    32818
  0
STYLE
  5
15DF7
330
7468
100
AcDbSymbolTableRecord
100
AcDbTextStyleTableRecord
  2
STYLE3
 70
     0
 40
0.0
 41
1.0
 50
0.0
 71
     0
 42
100.0
  3

  4

1001
ACAD
1000
DFPGothic-EB
1071
    32818
  0
ENDTAB
  0
TABLE
  2
VIEW
  5
746B
330
0
100
AcDbSymbolTable
 70
     0
  0
ENDTAB
  0
TABLE
  2
UCS
  5
746C
330
0
100
AcDbSymbolTable
 70
     0
  0
ENDTAB
  0
TABLE
  2
APPID
  5
746E
330
0
100
AcDbSymbolTable
 70
     6
  0
APPID
  5
7476
330
746E
100
AcDbSymbolTableRecord
100
AcDbRegAppTableRecord
  2
ACAD
 70
     0
  0
APPID
  5
DEA9
330
746E
100
AcDbSymbolTableRecord
100
AcDbRegAppTableRecord
  2
CONTENTBLOCKICON
 70
     0
  0
APPID
  5
DEAA
330
746E
100
AcDbSymbolTableRecord
100
AcDbRegAppTableRecord
  2
CONTENTBLOCKDESCRIPTION
 70
     0
  0
APPID
  5
E71D
330
746E
100
AcDbSymbolTableRecord
100
AcDbRegAppTableRecord
  2
CONTENTTABDATA
 70
     0
  0
APPID
  5
E71E
330
746E
100
AcDbSymbolTableRecord
100
AcDbRegAppTableRecord
  2
CONTENTCURRENTTAB
 70
     0
  0
APPID
  5
F3BA
330
746E
100
AcDbSymbolTableRecord
100
AcDbRegAppTableRecord
  2
DRAWINGVARIABLESXDATA
 70
     0
  0
ENDTAB
  0
TABLE
  2
DIMSTYLE
  5
746F
330
0
100
AcDbSymbolTable
 70
     5
100
AcDbDimStyleTable
 71
     1
340
F71F
  0
DIMSTYLE
105
7484
330
746F
100
AcDbSymbolTableRecord
100
AcDbDimStyleTableRecord
  2
JIS
 70
     0
 41
2.5
 42
1.0
 43
7.0
 44
1.0
 73
     0
 74
     0
 77
     1
 78
     8
140
2.5
141
0.0
143
0.0394
147
0.0
172
     1
174
     1
175
     1
340
7475
  0
DIMSTYLE
105
F71F
102
{ACAD_REACTORS
330
15330
330
15A35
330
15A36
330
15A37
330
15A38
330
15A39
330
15A3A
330
15D37
330
1452E
330
1452F
330
14530
330
14531
330
16478
330
1648D
330
1648F
330
16493
330
1642B
330
1642C
330
1642D
330
1642E
330
16432
330
16435
330
16436
330
16437
330
15F11
330
16C95
330
16C9C
330
16C9D
330
16CA4
330
17905
102
}
330
746F
100
AcDbSymbolTableRecord
100
AcDbDimStyleTableRecord
  2
INABA_S40G
 70
     0
 40
40.0
 41
2.5
 42
0.5
 43
7.0
 44
1.5
 73
     0
 74
     0
 77
     3
 78
     8
140
3.0
141
0.0
143
0.0394
147
1.0
172
     1
173
     1
174
     1
178
     7
271
     1
288
     1
340
F706
341
F770
343
F770
344
F770
  0
DIMSTYLE
105
15DF8
330
746F
100
AcDbSymbolTableRecord
100
AcDbDimStyleTableRecord
  2
INABA_S50G
 70
     0
 41
125.0
 42
25.0
 43
7.0
 44
75.0
 73
     0
 74
     0
 77
     3
 78
     8
140
150.0
141
0.0
143
0.0394
147
25.0
172
     1
173
     1
174
     1
175
     1
178
     7
271
     1
340
F706
341
F770
343
F770
344
F770
  0
DIMSTYLE
105
15DF9
102
{ACAD_REACTORS
330
15F65
330
1783D
102
}
330
746F
100
AcDbSymbolTableRecord
100
AcDbDimStyleTableRecord
  2
INABA_S40
 70
     0
 40
40.0
 41
2.5
 42
0.5
 43
7.0
 44
1.5
 73
     0
 74
     0
 77
     3
 78
     8
140
3.0
141
0.0
143
0.0394
147
1.0
172
     1
173
     1
174
     1
175
     1
178
     7
340
7475
  0
DIMSTYLE
105
179D4
330
746F
100
AcDbSymbolTableRecord
100
AcDbDimStyleTableRecord
  2
INABA_S20G
 70
     0
 40
20.0
 41
2.5
 42
0.5
 43
7.0
 44
1.5
 73
     0
 74
     0
 77
     3
 78
     8
140
3.0
141
0.0
143
0.0394
147
1.0
172
     1
173
     1
174
     1
178
     7
271
     1
340
F706
341
F770
343
F770
344
F770
  0
ENDTAB
  0
TABLE
  2
BLOCK_RECORD
  5
7466
330
0
100
AcDbSymbolTable
 70
    34
  0
BLOCK_RECORD
  5
747D
330
7466
100
AcDbSymbolTableRecord
100
AcDbBlockTableRecord
  2
*MODEL_SPACE
340
15DA0
  0
BLOCK_RECORD
  5
747A
330
7466
100
AcDbSymbolTableRecord
100
AcDbBlockTableRecord
  2
*PAPER_SPACE
340
15DA1
  0
BLOCK_RECORD
  5
F770
330
7466
100
AcDbSymbolTableRecord
100
AcDbBlockTableRecord
  2
_DOTSMALL
340
0
102
{BLKREFS
331
16FAE
331
16FAF
331
16FB7
331
16FB8
331
16FC1
331
16FC2
331
16FCC
331
16FCD
331
16FD7
331
16FD8
331
16FE1
331
16FE2
331
16FEA
331
16FEB
331
16FF3
331
16FF4
331
16FFD
331
16FFE
331
17006
331
17007
331
1700F
331
17010
331
17018
331
17019
331
17054
331
17055
331
1705D
331
1705E
331
17067
331
17068
331
17071
331
17072
331
1707C
331
1707D
331
17088
331
17089
331
1793D
331
1793E
331
17946
331
17947
331
17951
331
17952
331
1795A
331
1795B
331
17963
331
17964
331
1796C
331
1796D
331
17975
331
17976
331
17980
331
17981
331
17989
331
1798A
331
17994
331
17995
331
179A6
331
179A7
331
179C2
331
179C3
102
}
  0
BLOCK_RECORD
  5
145A4
330
7466
100
AcDbSymbolTableRecord
100
AcDbBlockTableRecord
  2
*D1
340
0
  0
BLOCK_RECORD
  5
145B2
330
7466
100
AcDbSymbolTableRecord
100
AcDbBlockTableRecord
  2
*D2
340
0
  0
BLOCK_RECORD
  5
145BE
330
7466
100
AcDbSymbolTableRecord
100
AcDbBlockTableRecord
  2
*D3
340
0
  0
BLOCK_RECORD
  5
145CC
330
7466
100
AcDbSymbolTableRecord
100
AcDbBlockTableRecord
  2
*D4
340
0
  0
BLOCK_RECORD
  5
1538D
330
7466
100
AcDbSymbolTableRecord
100
AcDbBlockTableRecord
  2
*D5
340
0
  0
BLOCK_RECORD
  5
15A3B
330
7466
100
AcDbSymbolTableRecord
100
AcDbBlockTableRecord
  2
*D6
340
0
  0
BLOCK_RECORD
  5
15A47
330
7466
100
AcDbSymbolTableRecord
100
AcDbBlockTableRecord
  2
*D7
340
0
  0
BLOCK_RECORD
  5
15A53
330
7466
100
AcDbSymbolTableRecord
100
AcDbBlockTableRecord
  2
*D8
340
0
  0
BLOCK_RECORD
  5
15A5F
330
7466
100
AcDbSymbolTableRecord
100
AcDbBlockTableRecord
  2
*D9
340
0
  0
BLOCK_RECORD
  5
15A6D
330
7466
100
AcDbSymbolTableRecord
100
AcDbBlockTableRecord
  2
*D10
340
0
  0
BLOCK_RECORD
  5
15A79
330
7466
100
AcDbSymbolTableRecord
100
AcDbBlockTableRecord
  2
*D11
340
0
  0
BLOCK_RECORD
  5
15D4E
330
7466
100
AcDbSymbolTableRecord
100
AcDbBlockTableRecord
  2
*D12
340
0
  0
BLOCK_RECORD
  5
15DA8
330
7466
100
AcDbSymbolTableRecord
100
AcDbBlockTableRecord
  2
_DOT
340
0
102
{BLKREFS
331
1791E
331
1791F
331
17929
331
1792A
102
}
  0
BLOCK_RECORD
  5
15FE1
330
7466
100
AcDbSymbolTableRecord
100
AcDbBlockTableRecord
  2
*D14
340
0
  0
BLOCK_RECORD
  5
15FF9
330
7466
100
AcDbSymbolTableRecord
100
AcDbBlockTableRecord
  2
*D15
340
0
  0
BLOCK_RECORD
  5
16622
330
7466
100
AcDbSymbolTableRecord
100
AcDbBlockTableRecord
  2
*D16
340
0
  0
BLOCK_RECORD
  5
1662F
330
7466
100
AcDbSymbolTableRecord
100
AcDbBlockTableRecord
  2
*D17
340
0
  0
BLOCK_RECORD
  5
1663C
330
7466
100
AcDbSymbolTableRecord
100
AcDbBlockTableRecord
  2
*D18
340
0
  0
BLOCK_RECORD
  5
16648
330
7466
100
AcDbSymbolTableRecord
100
AcDbBlockTableRecord
  2
*D19
340
0
  0
BLOCK_RECORD
  5
16738
330
7466
100
AcDbSymbolTableRecord
100
AcDbBlockTableRecord
  2
*D20
340
0
  0
BLOCK_RECORD
  5
16744
330
7466
100
AcDbSymbolTableRecord
100
AcDbBlockTableRecord
  2
*D21
340
0
  0
BLOCK_RECORD
  5
16750
330
7466
100
AcDbSymbolTableRecord
100
AcDbBlockTableRecord
  2
*D22
340
0
  0
BLOCK_RECORD
  5
1675D
330
7466
100
AcDbSymbolTableRecord
100
AcDbBlockTableRecord
  2
*D23
340
0
  0
BLOCK_RECORD
  5
1676B
330
7466
100
AcDbSymbolTableRecord
100
AcDbBlockTableRecord
  2
*D24
340
0
  0
BLOCK_RECORD
  5
16777
330
7466
100
AcDbSymbolTableRecord
100
AcDbBlockTableRecord
  2
*D25
340
0
  0
BLOCK_RECORD
  5
16783
330
7466
100
AcDbSymbolTableRecord
100
AcDbBlockTableRecord
  2
*D26
340
0
  0
BLOCK_RECORD
  5
16791
330
7466
100
AcDbSymbolTableRecord
100
AcDbBlockTableRecord
  2
*D27
340
0
  0
BLOCK_RECORD
  5
16CAA
330
7466
100
AcDbSymbolTableRecord
100
AcDbBlockTableRecord
  2
*D28
340
0
  0
BLOCK_RECORD
  5
16CB6
330
7466
100
AcDbSymbolTableRecord
100
AcDbBlockTableRecord
  2
*D29
340
0
  0
BLOCK_RECORD
  5
16CC4
330
7466
100
AcDbSymbolTableRecord
100
AcDbBlockTableRecord
  2
*D30
340
0
  0
BLOCK_RECORD
  5
16CD2
330
7466
100
AcDbSymbolTableRecord
100
AcDbBlockTableRecord
  2
*D31
340
0
  0
BLOCK_RECORD
  5
178A2
330
7466
100
AcDbSymbolTableRecord
100
AcDbBlockTableRecord
  2
*D32
340
0
  0
BLOCK_RECORD
  5
17906
330
7466
100
AcDbSymbolTableRecord
100
AcDbBlockTableRecord
  2
*D33
340
0
  0
ENDTAB
  0
ENDSEC
  0
SECTION
  2
BLOCKS
  0
BLOCK
  5
7489
330
747D
100
AcDbEntity
  8
0
100
AcDbBlockBegin
  2
*MODEL_SPACE
 70
     0
 10
0.0
 20
0.0
 30
0.0
  3
*MODEL_SPACE
  1

  0
ENDBLK
  5
748A
330
747D
100
AcDbEntity
  8
0
100
AcDbBlockEnd
  0
BLOCK
  5
7487
330
747A
100
AcDbEntity
 67
     1
  8
0
100
AcDbBlockBegin
  2
*PAPER_SPACE
 70
     0
 10
0.0
 20
0.0
 30
0.0
  3
*PAPER_SPACE
  1

  0
ENDBLK
  5
7488
330
747A
100
AcDbEntity
 67
     1
  8
0
100
AcDbBlockEnd
  0
BLOCK
  5
F771
330
F770
100
AcDbEntity
  8
0
 48
50.0
100
AcDbBlockBegin
  2
_DOTSMALL
 70
     0
 10
0.0
 20
0.0
 30
0.0
  3
_DOTSMALL
  1

  0
LWPOLYLINE
  5
F772
330
F770
100
AcDbEntity
  8
0
  6
ByBlock
 62
     0
 48
50.0
100
AcDbPolyline
 90
        2
 70
     1
 43
0.5
 10
-0.0625
 20
0.0
 42
1.0
 10
0.0625
 20
0.0
 42
1.0
  0
ENDBLK
  5
F776
330
F770
100
AcDbEntity
  8
0
 48
50.0
100
AcDbBlockEnd
  0
BLOCK
  5
15B29
330
145A4
100
AcDbEntity
  8
0
 48
50.0
100
AcDbBlockBegin
  2
*D1
 70
     1
 10
0.0
 20
0.0
 30
0.0
  3
*D1
  1

  0
LINE
  5
1798F
330
145A4
100
AcDbEntity
  8
寸法
 62
     0
 48
50.0
370
    -2
100
AcDbLine
 10
9098.334605198937
 20
9875.697547085435
 30
0.0
 11
9098.334605198937
 21
10563.12389281984
 31
0.0
  0
LINE
  5
17990
330
145A4
100
AcDbEntity
  8
寸法
 62
     0
 48
50.0
370
    -2
100
AcDbLine
 10
9153.334605198933
 20
9875.697547085435
 30
0.0
 11
9153.334605198933
 21
10563.12389281984
 31
0.0
  0
LINE
  5
17991
330
145A4
100
AcDbEntity
  8
寸法
 62
     0
 48
50.0
370
    -2
100
AcDbLine
 10
9153.334605198933
 20
10503.12389281984
 30
0.0
 11
9253.334605198935
 21
10503.12389281984
 31
0.0
  0
LINE
  5
17992
330
145A4
100
AcDbEntity
  8
寸法
 62
     0
 48
50.0
370
    -2
100
AcDbLine
 10
9098.334605198937
 20
10503.12389281984
 30
0.0
 11
8681.364042450461
 21
10503.12389281984
 31
0.0
  0
LINE
  5
17993
330
145A4
100
AcDbEntity
  8
寸法
 62
     0
 48
50.0
370
    -2
100
AcDbLine
 10
9153.334605198933
 20
10503.12389281984
 30
0.0
 11
9098.334605198937
 21
10503.12389281984
 31
0.0
  0
INSERT
  5
17994
330
145A4
100
AcDbEntity
  8
寸法
 62
     0
 48
50.0
370
    -2
100
AcDbBlockReference
  2
_DOTSMALL
 10
9153.334605198933
 20
10503.12389281984
 30
0.0
 41
100.0
 42
100.0
 43
100.0
 50
180.0
  0
INSERT
  5
17995
330
145A4
100
AcDbEntity
  8
寸法
 62
     0
 48
50.0
370
    -2
100
AcDbBlockReference
  2
_DOTSMALL
 10
9098.334605198937
 20
10503.12389281984
 30
0.0
 41
100.0
 42
100.0
 43
100.0
  0
MTEXT
  5
17996
330
145A4
100
AcDbEntity
  8
寸法
 62
     7
 48
50.0
100
AcDbMText
 10
8789.8493238247
 20
10603.12389281984
 30
0.0
 40
120.0
 41
0.0
 71
     5
 72
     1
  1
\A1;55
  7
STYLE1
 73
     1
 44
1.0
1001
ACAD
1000
MTEXTBEGIN
1070
    73
1070
     1
1070
    44
1040
1.0
1070
    74
1070
     0
1000
MTEXTEND
  0
POINT
  5
17997
330
145A4
100
AcDbEntity
  8
DEFPOINTS
 62
     0
 48
50.0
100
AcDbPoint
 10
9098.334605198937
 20
9855.697547085433
 30
0.0
  0
POINT
  5
17998
330
145A4
100
AcDbEntity
  8
DEFPOINTS
 62
     0
 48
50.0
100
AcDbPoint
 10
9153.334605198933
 20
9855.697547085433
 30
0.0
  0
POINT
  5
17999
330
145A4
100
AcDbEntity
  8
DEFPOINTS
 62
     0
 48
50.0
100
AcDbPoint
 10
9153.334605198933
 20
10503.12389281984
 30
0.0
  0
ENDBLK
  5
15B35
330
145A4
100
AcDbEntity
  8
0
 48
50.0
100
AcDbBlockEnd
  0
BLOCK
  5
15B9F
330
145B2
100
AcDbEntity
  8
0
 48
50.0
100
AcDbBlockBegin
  2
*D2
 70
     1
 10
0.0
 20
0.0
 30
0.0
  3
*D2
  1

  0
LINE
  5
17986
330
145B2
100
AcDbEntity
  8
寸法
 62
     0
 48
50.0
370
    -2
100
AcDbLine
 10
10432.97562135032
 20
9847.197547085436
 30
0.0
 11
10327.03983798419
 21
10242.55527294746
 31
0.0
  0
LINE
  5
17987
330
145B2
100
AcDbEntity
  8
寸法
 62
     0
 48
50.0
370
    -2
100
AcDbLine
 10
9982.975621350327
 20
9847.197547085436
 30
0.0
 11
9877.039837984192
 21
10242.55527294746
 31
0.0
  0
LINE
  5
17988
330
145B2
100
AcDbEntity
  8
寸法
 62
     0
 48
50.0
370
    -2
100
AcDbLine
 10
10343.11678953006
 20
10182.55527294746
 30
0.0
 11
9893.11678953006
 21
10182.55527294746
 31
0.0
  0
INSERT
  5
17989
330
145B2
100
AcDbEntity
  8
寸法
 62
     0
 48
50.0
370
    -2
100
AcDbBlockReference
  2
_DOTSMALL
 10
10343.11678953006
 20
10182.55527294746
 30
0.0
 41
100.0
 42
100.0
 43
100.0
  0
INSERT
  5
1798A
330
145B2
100
AcDbEntity
  8
寸法
 62
     0
 48
50.0
370
    -2
100
AcDbBlockReference
  2
_DOTSMALL
 10
9893.11678953006
 20
10182.55527294746
 30
0.0
 41
100.0
 42
100.0
 43
100.0
 50
180.0
  0
MTEXT
  5
1798B
330
145B2
100
AcDbEntity
  8
寸法
 62
     7
 48
50.0
100
AcDbMText
 10
10118.11678953006
 20
10282.55527294746
 30
0.0
 40
120.0
 41
0.0
 71
     5
 72
     1
  1
\A1;450
  7
STYLE1
 73
     1
 44
1.0
1001
ACAD
1000
MTEXTBEGIN
1070
    73
1070
     1
1070
    44
1040
1.0
1070
    74
1070
     0
1000
MTEXTEND
  0
POINT
  5
1798C
330
145B2
100
AcDbEntity
  8
DEFPOINTS
 62
     0
 48
50.0
100
AcDbPoint
 10
10438.33460519894
 20
9827.197547085434
 30
0.0
  0
POINT
  5
1798D
330
145B2
100
AcDbEntity
  8
DEFPOINTS
 62
     0
 48
50.0
100
AcDbPoint
 10
9988.33460519895
 20
9827.197547085434
 30
0.0
  0
POINT
  5
1798E
330
145B2
100
AcDbEntity
  8
DEFPOINTS
 62
     0
 48
50.0
100
AcDbPoint
 10
9893.11678953006
 20
10182.55527294746
 30
0.0
  0
ENDBLK
  5
15BA9
330
145B2
100
AcDbEntity
  8
0
 48
50.0
100
AcDbBlockEnd
  0
BLOCK
  5
15B1C
330
145BE
100
AcDbEntity
  8
0
 48
50.0
100
AcDbBlockBegin
  2
*D3
 70
     1
 10
0.0
 20
0.0
 30
0.0
  3
*D3
  1

  0
LINE
  5
1797B
330
145BE
100
AcDbEntity
  8
寸法
 62
     0
 48
50.0
370
    -2
100
AcDbLine
 10
10413.33460519895
 20
9875.697547085408
 30
0.0
 11
10413.33460519895
 21
10563.12389281982
 31
0.0
  0
LINE
  5
1797C
330
145BE
100
AcDbEntity
  8
寸法
 62
     0
 48
50.0
370
    -2
100
AcDbLine
 10
10468.33460519895
 20
9875.697547085408
 30
0.0
 11
10468.33460519895
 21
10563.12389281982
 31
0.0
  0
LINE
  5
1797D
330
145BE
100
AcDbEntity
  8
寸法
 62
     0
 48
50.0
370
    -2
100
AcDbLine
 10
10413.33460519895
 20
10503.12389281982
 30
0.0
 11
10313.33460519895
 21
10503.12389281982
 31
0.0
  0
LINE
  5
1797E
330
145BE
100
AcDbEntity
  8
寸法
 62
     0
 48
50.0
370
    -2
100
AcDbLine
 10
10468.33460519895
 20
10503.12389281982
 30
0.0
 11
10954.68135347804
 21
10503.12389281982
 31
0.0
  0
LINE
  5
1797F
330
145BE
100
AcDbEntity
  8
寸法
 62
     0
 48
50.0
370
    -2
100
AcDbLine
 10
10413.33460519895
 20
10503.12389281982
 30
0.0
 11
10468.33460519895
 21
10503.12389281982
 31
0.0
  0
INSERT
  5
17980
330
145BE
100
AcDbEntity
  8
寸法
 62
     0
 48
50.0
370
    -2
100
AcDbBlockReference
  2
_DOTSMALL
 10
10413.33460519895
 20
10503.12389281982
 30
0.0
 41
100.0
 42
100.0
 43
100.0
  0
INSERT
  5
17981
330
145BE
100
AcDbEntity
  8
寸法
 62
     0
 48
50.0
370
    -2
100
AcDbBlockReference
  2
_DOTSMALL
 10
10468.33460519895
 20
10503.12389281982
 30
0.0
 41
100.0
 42
100.0
 43
100.0
 50
180.0
  0
MTEXT
  5
17982
330
145BE
100
AcDbEntity
  8
寸法
 62
     7
 48
50.0
100
AcDbMText
 10
10846.19607210381
 20
10603.12389281982
 30
0.0
 40
120.0
 41
0.0
 71
     5
 72
     1
  1
\A1;55
  7
STYLE1
 73
     1
 44
1.0
1001
ACAD
1000
MTEXTBEGIN
1070
    73
1070
     1
1070
    44
1040
1.0
1070
    74
1070
     0
1000
MTEXTEND
  0
POINT
  5
17983
330
145BE
100
AcDbEntity
  8
DEFPOINTS
 62
     0
 48
50.0
100
AcDbPoint
 10
10413.33460519895
 20
9855.697547085409
 30
0.0
  0
POINT
  5
17984
330
145BE
100
AcDbEntity
  8
DEFPOINTS
 62
     0
 48
50.0
100
AcDbPoint
 10
10468.33460519895
 20
9855.697547085409
 30
0.0
  0
POINT
  5
17985
330
145BE
100
AcDbEntity
  8
DEFPOINTS
 62
     0
 48
50.0
100
AcDbPoint
 10
10468.33460519895
 20
10503.12389281982
 30
0.0
  0
ENDBLK
  5
15B28
330
145BE
100
AcDbEntity
  8
0
 48
50.0
100
AcDbBlockEnd
  0
BLOCK
  5
15B11
330
145CC
100
AcDbEntity
  8
0
 48
50.0
100
AcDbBlockBegin
  2
*D4
 70
     1
 10
0.0
 20
0.0
 30
0.0
  3
*D4
  1

  0
LINE
  5
17972
330
145CC
100
AcDbEntity
  8
寸法
 62
     0
 48
50.0
370
    -2
100
AcDbLine
 10
9153.334605198933
 20
9875.697547085435
 30
0.0
 11
9153.334605198933
 21
10563.12389281984
 31
0.0
  0
LINE
  5
17973
330
145CC
100
AcDbEntity
  8
寸法
 62
     0
 48
50.0
370
    -2
100
AcDbLine
 10
10413.33460519895
 20
9875.697547085408
 30
0.0
 11
10413.33460519895
 21
10563.12389281984
 31
0.0
  0
LINE
  5
17974
330
145CC
100
AcDbEntity
  8
寸法
 62
     0
 48
50.0
370
    -2
100
AcDbLine
 10
9153.334605198933
 20
10503.12389281984
 30
0.0
 11
10413.33460519895
 21
10503.12389281984
 31
0.0
  0
INSERT
  5
17975
330
145CC
100
AcDbEntity
  8
寸法
 62
     0
 48
50.0
370
    -2
100
AcDbBlockReference
  2
_DOTSMALL
 10
9153.334605198933
 20
10503.12389281984
 30
0.0
 41
100.0
 42
100.0
 43
100.0
 50
180.0
  0
INSERT
  5
17976
330
145CC
100
AcDbEntity
  8
寸法
 62
     0
 48
50.0
370
    -2
100
AcDbBlockReference
  2
_DOTSMALL
 10
10413.33460519895
 20
10503.12389281984
 30
0.0
 41
100.0
 42
100.0
 43
100.0
  0
MTEXT
  5
17977
330
145CC
100
AcDbEntity
  8
寸法
 62
     7
 48
50.0
100
AcDbMText
 10
9783.334605198945
 20
10603.13570384346
 30
0.0
 40
120.0
 41
0.0
 71
     5
 72
     1
  1
\A1;3X420=1260
  7
STYLE1
 73
     1
 44
1.0
1001
ACAD
1000
MTEXTBEGIN
1070
    73
1070
     1
1070
    44
1040
1.0
1070
    74
1070
     0
1000
MTEXTEND
  0
POINT
  5
17978
330
145CC
100
AcDbEntity
  8
DEFPOINTS
 62
     0
 48
50.0
100
AcDbPoint
 10
9153.334605198933
 20
9855.697547085433
 30
0.0
  0
POINT
  5
17979
330
145CC
100
AcDbEntity
  8
DEFPOINTS
 62
     0
 48
50.0
100
AcDbPoint
 10
10413.33460519895
 20
9855.697547085409
 30
0.0
  0
POINT
  5
1797A
330
145CC
100
AcDbEntity
  8
DEFPOINTS
 62
     0
 48
50.0
100
AcDbPoint
 10
10413.33460519895
 20
10503.12389281984
 30
0.0
  0
ENDBLK
  5
15B1B
330
145CC
100
AcDbEntity
  8
0
 48
50.0
100
AcDbBlockEnd
  0
BLOCK
  5
15C34
330
1538D
100
AcDbEntity
  8
0
 48
50.0
100
AcDbBlockBegin
  2
*D5
 70
     1
 10
0.0
 20
0.0
 30
0.0
  3
*D5
  1

  0
LINE
  5
1705A
330
1538D
100
AcDbEntity
  8
寸法
 62
     0
 48
50.0
370
    -2
100
AcDbLine
 10
9188.334605198928
 20
2364.768547337427
 30
0.0
 11
9188.334605198928
 21
2038.72121803705
 31
0.0
  0
LINE
  5
1705B
330
1538D
100
AcDbEntity
  8
寸法
 62
     0
 48
50.0
370
    -2
100
AcDbLine
 10
8988.334605198927
 20
2364.768547337427
 30
0.0
 11
8988.334605198927
 21
2038.72121803705
 31
0.0
  0
LINE
  5
1705C
330
1538D
100
AcDbEntity
  8
寸法
 62
     0
 48
50.0
370
    -2
100
AcDbLine
 10
9188.334605198928
 20
2098.72121803705
 30
0.0
 11
8988.334605198927
 21
2098.72121803705
 31
0.0
  0
INSERT
  5
1705D
330
1538D
100
AcDbEntity
  8
寸法
 62
     0
 48
50.0
370
    -2
100
AcDbBlockReference
  2
_DOTSMALL
 10
9188.334605198928
 20
2098.72121803705
 30
0.0
 41
100.0
 42
100.0
 43
100.0
  0
INSERT
  5
1705E
330
1538D
100
AcDbEntity
  8
寸法
 62
     0
 48
50.0
370
    -2
100
AcDbBlockReference
  2
_DOTSMALL
 10
8988.334605198927
 20
2098.72121803705
 30
0.0
 41
100.0
 42
100.0
 43
100.0
 50
180.0
  0
MTEXT
  5
1705F
330
1538D
100
AcDbEntity
  8
寸法
 62
     7
 48
50.0
100
AcDbMText
 10
9088.334605198928
 20
2198.733029060672
 30
0.0
 40
120.0
 41
0.0
 71
     5
 72
     1
  1
\A1;200
  7
STYLE1
 73
     1
 44
1.0
1001
ACAD
1000
MTEXTBEGIN
1070
    73
1070
     1
1070
    44
1040
1.0
1070
    74
1070
     0
1000
MTEXTEND
  0
POINT
  5
17060
330
1538D
100
AcDbEntity
  8
DEFPOINTS
 62
     0
 48
50.0
100
AcDbPoint
 10
9188.334605198928
 20
2384.768547337427
 30
0.0
  0
POINT
  5
17061
330
1538D
100
AcDbEntity
  8
DEFPOINTS
 62
     0
 48
50.0
100
AcDbPoint
 10
8988.334605198927
 20
2384.768547337427
 30
0.0
  0
POINT
  5
17062
330
1538D
100
AcDbEntity
  8
DEFPOINTS
 62
     0
 48
50.0
100
AcDbPoint
 10
8988.334605198927
 20
2098.72121803705
 30
0.0
  0
ENDBLK
  5
15C3E
330
1538D
100
AcDbEntity
  8
0
 48
50.0
100
AcDbBlockEnd
  0
BLOCK
  5
15CD4
330
15A3B
100
AcDbEntity
  8
0
 48
50.0
100
AcDbBlockBegin
  2
*D6
 70
     1
 10
0.0
 20
0.0
 30
0.0
  3
*D6
  1

  0
LINE
  5
17969
330
15A3B
100
AcDbEntity
  8
寸法
 62
     0
 48
50.0
370
    -2
100
AcDbLine
 10
10458.33460519894
 20
9821.838563236813
 30
0.0
 11
10910.51781259958
 21
9700.676437982897
 31
0.0
  0
LINE
  5
1796A
330
15A3B
100
AcDbEntity
  8
寸法
 62
     0
 48
50.0
370
    -2
100
AcDbLine
 10
10458.33460519895
 20
8968.838563236801
 30
0.0
 11
10910.51781259958
 21
8847.676437982888
 31
0.0
  0
LINE
  5
1796B
330
15A3B
100
AcDbEntity
  8
寸法
 62
     0
 48
50.0
370
    -2
100
AcDbLine
 10
10850.51781259958
 20
9716.753389528765
 30
0.0
 11
10850.51781259958
 21
8863.753389528756
 31
0.0
  0
INSERT
  5
1796C
330
15A3B
100
AcDbEntity
  8
寸法
 62
     0
 48
50.0
370
    -2
100
AcDbBlockReference
  2
_DOTSMALL
 10
10850.51781259958
 20
9716.753389528765
 30
0.0
 41
100.0
 42
100.0
 43
100.0
 50
90.0
  0
INSERT
  5
1796D
330
15A3B
100
AcDbEntity
  8
寸法
 62
     0
 48
50.0
370
    -2
100
AcDbBlockReference
  2
_DOTSMALL
 10
10850.51781259958
 20
8863.753389528756
 30
0.0
 41
100.0
 42
100.0
 43
100.0
 50
270.0
  0
MTEXT
  5
1796E
330
15A3B
100
AcDbEntity
  8
寸法
 62
     7
 48
50.0
100
AcDbMText
 10
10750.51781259957
 20
9294.354254889571
 30
0.0
 40
120.0
 41
0.0
 71
     5
 72
     1
  1
\A1;853
  7
STYLE1
 11
0.0000000000000001
 21
1.0
 31
0.0
 73
     1
 44
1.0
1001
ACAD
1000
MTEXTBEGIN
1070
    73
1070
     1
1070
    44
1040
1.0
1070
    74
1070
     0
1000
MTEXTEND
  0
POINT
  5
1796F
330
15A3B
100
AcDbEntity
  8
DEFPOINTS
 62
     0
 48
50.0
100
AcDbPoint
 10
10438.33460519894
 20
9827.197547085434
 30
0.0
  0
POINT
  5
17970
330
15A3B
100
AcDbEntity
  8
DEFPOINTS
 62
     0
 48
50.0
100
AcDbPoint
 10
10438.33460519895
 20
8974.197547085422
 30
0.0
  0
POINT
  5
17971
330
15A3B
100
AcDbEntity
  8
DEFPOINTS
 62
     0
 48
50.0
100
AcDbPoint
 10
10850.51781259958
 20
8863.753389528756
 30
0.0
  0
ENDBLK
  5
15CDE
330
15A3B
100
AcDbEntity
  8
0
 48
50.0
100
AcDbBlockEnd
  0
BLOCK
  5
15B71
330
15A47
100
AcDbEntity
  8
0
 48
50.0
100
AcDbBlockBegin
  2
*D7
 70
     1
 10
0.0
 20
0.0
 30
0.0
  3
*D7
  1

  0
LINE
  5
17960
330
15A47
100
AcDbEntity
  8
寸法
 62
     0
 48
50.0
370
    -2
100
AcDbLine
 10
10458.33460519895
 20
8941.838563236808
 30
0.0
 11
10910.51781259957
 21
8820.676437982896
 31
0.0
  0
LINE
  5
17961
330
15A47
100
AcDbEntity
  8
寸法
 62
     0
 48
50.0
370
    -2
100
AcDbLine
 10
10458.33460519884
 20
8088.83856323681
 30
0.0
 11
10910.51781259957
 21
7967.676437982868
 31
0.0
  0
LINE
  5
17962
330
15A47
100
AcDbEntity
  8
寸法
 62
     0
 48
50.0
370
    -2
100
AcDbLine
 10
10850.51781259957
 20
8836.753389528764
 30
0.0
 11
10850.51781259957
 21
7983.753389528735
 31
0.0
  0
INSERT
  5
17963
330
15A47
100
AcDbEntity
  8
寸法
 62
     0
 48
50.0
370
    -2
100
AcDbBlockReference
  2
_DOTSMALL
 10
10850.51781259957
 20
8836.753389528764
 30
0.0
 41
100.0
 42
100.0
 43
100.0
 50
90.0
  0
INSERT
  5
17964
330
15A47
100
AcDbEntity
  8
寸法
 62
     0
 48
50.0
370
    -2
100
AcDbBlockReference
  2
_DOTSMALL
 10
10850.51781259957
 20
7983.753389528735
 30
0.0
 41
100.0
 42
100.0
 43
100.0
 50
270.0
  0
MTEXT
  5
17965
330
15A47
100
AcDbEntity
  8
寸法
 62
     7
 48
50.0
100
AcDbMText
 10
10750.51781259957
 20
8448.604254889561
 30
0.0
 40
120.0
 41
0.0
 71
     5
 72
     1
  1
\A1;853
  7
STYLE1
 11
0.0000000000000001
 21
1.0
 31
0.0
 73
     1
 44
1.0
1001
ACAD
1000
MTEXTBEGIN
1070
    73
1070
     1
1070
    44
1040
1.0
1070
    74
1070
     0
1000
MTEXTEND
  0
POINT
  5
17966
330
15A47
100
AcDbEntity
  8
DEFPOINTS
 62
     0
 48
50.0
100
AcDbPoint
 10
10438.33460519895
 20
8947.19754708543
 30
0.0
  0
POINT
  5
17967
330
15A47
100
AcDbEntity
  8
DEFPOINTS
 62
     0
 48
50.0
100
AcDbPoint
 10
10438.33460519884
 20
8094.197547085432
 30
0.0
  0
POINT
  5
17968
330
15A47
100
AcDbEntity
  8
DEFPOINTS
 62
     0
 48
50.0
100
AcDbPoint
 10
10850.51781259957
 20
7983.753389528735
 30
0.0
  0
ENDBLK
  5
15B7B
330
15A47
100
AcDbEntity
  8
0
 48
50.0
100
AcDbBlockEnd
  0
BLOCK
  5
15B66
330
15A53
100
AcDbEntity
  8
0
 48
50.0
100
AcDbBlockBegin
  2
*D8
 70
     1
 10
0.0
 20
0.0
 30
0.0
  3
*D8
  1

  0
LINE
  5
17957
330
15A53
100
AcDbEntity
  8
寸法
 62
     0
 48
50.0
370
    -2
100
AcDbLine
 10
10488.33460519887
 20
9800.697547085446
 30
0.0
 11
11175.76095093329
 21
9800.697547085446
 31
0.0
  0
LINE
  5
17958
330
15A53
100
AcDbEntity
  8
寸法
 62
     0
 48
50.0
370
    -2
100
AcDbLine
 10
10488.33460519885
 20
8120.697547085427
 30
0.0
 11
11175.76095093329
 21
8120.697547085427
 31
0.0
  0
LINE
  5
17959
330
15A53
100
AcDbEntity
  8
寸法
 62
     0
 48
50.0
370
    -2
100
AcDbLine
 10
11115.76095093329
 20
9800.697547085446
 30
0.0
 11
11115.76095093329
 21
8120.697547085427
 31
0.0
  0
INSERT
  5
1795A
330
15A53
100
AcDbEntity
  8
寸法
 62
     0
 48
50.0
370
    -2
100
AcDbBlockReference
  2
_DOTSMALL
 10
11115.76095093329
 20
9800.697547085446
 30
0.0
 41
100.0
 42
100.0
 43
100.0
 50
90.0
  0
INSERT
  5
1795B
330
15A53
100
AcDbEntity
  8
寸法
 62
     0
 48
50.0
370
    -2
100
AcDbBlockReference
  2
_DOTSMALL
 10
11115.76095093329
 20
8120.697547085427
 30
0.0
 41
100.0
 42
100.0
 43
100.0
 50
270.0
  0
MTEXT
  5
1795C
330
15A53
100
AcDbEntity
  8
寸法
 62
     7
 48
50.0
100
AcDbMText
 10
11015.74913990966
 20
8960.697547085434
 30
0.0
 40
120.0
 41
0.0
 71
     5
 72
     1
  1
\A1;4X420=1680
  7
STYLE1
 11
0.0000000000000001
 21
1.0
 31
0.0
 73
     1
 44
1.0
1001
ACAD
1000
MTEXTBEGIN
1070
    73
1070
     1
1070
    44
1040
1.0
1070
    74
1070
     0
1000
MTEXTEND
  0
POINT
  5
1795D
330
15A53
100
AcDbEntity
  8
DEFPOINTS
 62
     0
 48
50.0
100
AcDbPoint
 10
10468.33460519887
 20
9800.697547085446
 30
0.0
  0
POINT
  5
1795E
330
15A53
100
AcDbEntity
  8
DEFPOINTS
 62
     0
 48
50.0
100
AcDbPoint
 10
10468.33460519885
 20
8120.697547085427
 30
0.0
  0
POINT
  5
1795F
330
15A53
100
AcDbEntity
  8
DEFPOINTS
 62
     0
 48
50.0
100
AcDbPoint
 10
11115.76095093329
 20
8120.697547085427
 30
0.0
  0
ENDBLK
  5
15B70
330
15A53
100
AcDbEntity
  8
0
 48
50.0
100
AcDbBlockEnd
  0
BLOCK
  5
15B59
330
15A5F
100
AcDbEntity
  8
0
 48
50.0
100
AcDbBlockBegin
  2
*D9
 70
     1
 10
0.0
 20
0.0
 30
0.0
  3
*D9
  1

  0
LINE
  5
1794C
330
15A5F
100
AcDbEntity
  8
寸法
 62
     0
 48
50.0
370
    -2
100
AcDbLine
 10
10488.33460519887
 20
9855.697547085441
 30
0.0
 11
11175.76095093329
 21
9855.697547085441
 31
0.0
  0
LINE
  5
1794D
330
15A5F
100
AcDbEntity
  8
寸法
 62
     0
 48
50.0
370
    -2
100
AcDbLine
 10
10488.33460519887
 20
9800.697547085446
 30
0.0
 11
11175.76095093329
 21
9800.697547085446
 31
0.0
  0
LINE
  5
1794E
330
15A5F
100
AcDbEntity
  8
寸法
 62
     0
 48
50.0
370
    -2
100
AcDbLine
 10
11115.76095093329
 20
9800.697547085446
 30
0.0
 11
11115.76095093329
 21
9700.697547085447
 31
0.0
  0
LINE
  5
1794F
330
15A5F
100
AcDbEntity
  8
寸法
 62
     0
 48
50.0
370
    -2
100
AcDbLine
 10
11115.76095093329
 20
9855.697547085441
 30
0.0
 11
11115.76095093329
 21
10272.66810983392
 31
0.0
  0
LINE
  5
17950
330
15A5F
100
AcDbEntity
  8
寸法
 62
     0
 48
50.0
370
    -2
100
AcDbLine
 10
11115.76095093329
 20
9800.697547085446
 30
0.0
 11
11115.76095093329
 21
9855.697547085441
 31
0.0
  0
INSERT
  5
17951
330
15A5F
100
AcDbEntity
  8
寸法
 62
     0
 48
50.0
370
    -2
100
AcDbBlockReference
  2
_DOTSMALL
 10
11115.76095093329
 20
9800.697547085446
 30
0.0
 41
100.0
 42
100.0
 43
100.0
 50
90.0
  0
INSERT
  5
17952
330
15A5F
100
AcDbEntity
  8
寸法
 62
     0
 48
50.0
370
    -2
100
AcDbBlockReference
  2
_DOTSMALL
 10
11115.76095093329
 20
9855.697547085441
 30
0.0
 41
100.0
 42
100.0
 43
100.0
 50
270.0
  0
MTEXT
  5
17953
330
15A5F
100
AcDbEntity
  8
寸法
 62
     7
 48
50.0
100
AcDbMText
 10
11015.76095093328
 20
10164.18282845968
 30
0.0
 40
120.0
 41
0.0
 71
     5
 72
     1
  1
\A1;55
  7
STYLE1
 11
0.0000000000000001
 21
1.0
 31
0.0
 73
     1
 44
1.0
1001
ACAD
1000
MTEXTBEGIN
1070
    73
1070
     1
1070
    44
1040
1.0
1070
    74
1070
     0
1000
MTEXTEND
  0
POINT
  5
17954
330
15A5F
100
AcDbEntity
  8
DEFPOINTS
 62
     0
 48
50.0
100
AcDbPoint
 10
10468.33460519887
 20
9855.697547085441
 30
0.0
  0
POINT
  5
17955
330
15A5F
100
AcDbEntity
  8
DEFPOINTS
 62
     0
 48
50.0
100
AcDbPoint
 10
10468.33460519887
 20
9800.697547085446
 30
0.0
  0
POINT
  5
17956
330
15A5F
100
AcDbEntity
  8
DEFPOINTS
 62
     0
 48
50.0
100
AcDbPoint
 10
11115.76095093329
 20
9800.697547085446
 30
0.0
  0
ENDBLK
  5
15B65
330
15A5F
100
AcDbEntity
  8
0
 48
50.0
100
AcDbBlockEnd
  0
BLOCK
  5
15B4E
330
15A6D
100
AcDbEntity
  8
0
 48
50.0
100
AcDbBlockBegin
  2
*D10
 70
     1
 10
0.0
 20
0.0
 30
0.0
  3
*D10
  1

  0
LINE
  5
17943
330
15A6D
100
AcDbEntity
  8
寸法
 62
     0
 48
50.0
370
    -2
100
AcDbLine
 10
10488.33460519887
 20
9855.697547085441
 30
0.0
 11
11444.19948223376
 21
9855.697547085441
 31
0.0
  0
LINE
  5
17944
330
15A6D
100
AcDbEntity
  8
寸法
 62
     0
 48
50.0
370
    -2
100
AcDbLine
 10
10488.33460519885
 20
8065.697547085433
 30
0.0
 11
11444.19948223376
 21
8065.697547085433
 31
0.0
  0
LINE
  5
17945
330
15A6D
100
AcDbEntity
  8
寸法
 62
     0
 48
50.0
370
    -2
100
AcDbLine
 10
11384.19948223376
 20
9855.697547085441
 30
0.0
 11
11384.19948223376
 21
8065.697547085433
 31
0.0
  0
INSERT
  5
17946
330
15A6D
100
AcDbEntity
  8
寸法
 62
     0
 48
50.0
370
    -2
100
AcDbBlockReference
  2
_DOTSMALL
 10
11384.19948223376
 20
9855.697547085441
 30
0.0
 41
100.0
 42
100.0
 43
100.0
 50
90.0
  0
INSERT
  5
17947
330
15A6D
100
AcDbEntity
  8
寸法
 62
     0
 48
50.0
370
    -2
100
AcDbBlockReference
  2
_DOTSMALL
 10
11384.19948223376
 20
8065.697547085433
 30
0.0
 41
100.0
 42
100.0
 43
100.0
 50
270.0
  0
MTEXT
  5
17948
330
15A6D
100
AcDbEntity
  8
寸法
 62
     7
 48
50.0
100
AcDbMText
 10
11284.19948223376
 20
8960.697547085434
 30
0.0
 40
120.0
 41
0.0
 71
     5
 72
     1
  1
\A1;1790
  7
STYLE1
 11
0.0000000000000001
 21
1.0
 31
0.0
 73
     1
 44
1.0
1001
ACAD
1000
MTEXTBEGIN
1070
    73
1070
     1
1070
    44
1040
1.0
1070
    74
1070
     0
1000
MTEXTEND
  0
POINT
  5
17949
330
15A6D
100
AcDbEntity
  8
DEFPOINTS
 62
     0
 48
50.0
100
AcDbPoint
 10
10468.33460519887
 20
9855.697547085441
 30
0.0
  0
POINT
  5
1794A
330
15A6D
100
AcDbEntity
  8
DEFPOINTS
 62
     0
 48
50.0
100
AcDbPoint
 10
10468.33460519885
 20
8065.697547085433
 30
0.0
  0
POINT
  5
1794B
330
15A6D
100
AcDbEntity
  8
DEFPOINTS
 62
     0
 48
50.0
100
AcDbPoint
 10
11384.19948223376
 20
8065.697547085433
 30
0.0
  0
ENDBLK
  5
15B58
330
15A6D
100
AcDbEntity
  8
0
 48
50.0
100
AcDbBlockEnd
  0
BLOCK
  5
15B41
330
15A79
100
AcDbEntity
  8
0
 48
50.0
100
AcDbBlockBegin
  2
*D11
 70
     1
 10
0.0
 20
0.0
 30
0.0
  3
*D11
  1

  0
LINE
  5
17938
330
15A79
100
AcDbEntity
  8
寸法
 62
     0
 48
50.0
370
    -2
100
AcDbLine
 10
10488.33460519885
 20
8120.697547085427
 30
0.0
 11
11175.76095093326
 21
8120.697547085427
 31
0.0
  0
LINE
  5
17939
330
15A79
100
AcDbEntity
  8
寸法
 62
     0
 48
50.0
370
    -2
100
AcDbLine
 10
10488.33460519885
 20
8065.697547085433
 30
0.0
 11
11175.76095093326
 21
8065.697547085433
 31
0.0
  0
LINE
  5
1793A
330
15A79
100
AcDbEntity
  8
寸法
 62
     0
 48
50.0
370
    -2
100
AcDbLine
 10
11115.76095093326
 20
8120.697547085427
 30
0.0
 11
11115.76095093326
 21
8220.697547085428
 31
0.0
  0
LINE
  5
1793B
330
15A79
100
AcDbEntity
  8
寸法
 62
     0
 48
50.0
370
    -2
100
AcDbLine
 10
11115.76095093326
 20
8065.697547085433
 30
0.0
 11
11115.76095093326
 21
7648.726984336952
 31
0.0
  0
LINE
  5
1793C
330
15A79
100
AcDbEntity
  8
寸法
 62
     0
 48
50.0
370
    -2
100
AcDbLine
 10
11115.76095093326
 20
8120.697547085427
 30
0.0
 11
11115.76095093326
 21
8065.697547085433
 31
0.0
  0
INSERT
  5
1793D
330
15A79
100
AcDbEntity
  8
寸法
 62
     0
 48
50.0
370
    -2
100
AcDbBlockReference
  2
_DOTSMALL
 10
11115.76095093326
 20
8120.697547085427
 30
0.0
 41
100.0
 42
100.0
 43
100.0
 50
270.0
  0
INSERT
  5
1793E
330
15A79
100
AcDbEntity
  8
寸法
 62
     0
 48
50.0
370
    -2
100
AcDbBlockReference
  2
_DOTSMALL
 10
11115.76095093326
 20
8065.697547085433
 30
0.0
 41
100.0
 42
100.0
 43
100.0
 50
90.0
  0
MTEXT
  5
1793F
330
15A79
100
AcDbEntity
  8
寸法
 62
     7
 48
50.0
100
AcDbMText
 10
11015.76095093326
 20
7757.212265711193
 30
0.0
 40
120.0
 41
0.0
 71
     5
 72
     1
  1
\A1;55
  7
STYLE1
 11
0.0000000000000001
 21
1.0
 31
0.0
 73
     1
 44
1.0
1001
ACAD
1000
MTEXTBEGIN
1070
    73
1070
     1
1070
    44
1040
1.0
1070
    74
1070
     0
1000
MTEXTEND
  0
POINT
  5
17940
330
15A79
100
AcDbEntity
  8
DEFPOINTS
 62
     0
 48
50.0
100
AcDbPoint
 10
10468.33460519885
 20
8120.697547085427
 30
0.0
  0
POINT
  5
17941
330
15A79
100
AcDbEntity
  8
DEFPOINTS
 62
     0
 48
50.0
100
AcDbPoint
 10
10468.33460519885
 20
8065.697547085433
 30
0.0
  0
POINT
  5
17942
330
15A79
100
AcDbEntity
  8
DEFPOINTS
 62
     0
 48
50.0
100
AcDbPoint
 10
11115.76095093326
 20
8065.697547085433
 30
0.0
  0
ENDBLK
  5
15B4D
330
15A79
100
AcDbEntity
  8
0
 48
50.0
100
AcDbBlockEnd
  0
BLOCK
  5
15D65
330
15D4E
100
AcDbEntity
  8
0
 48
50.0
100
AcDbBlockBegin
  2
*D12
 70
     1
 10
0.0
 20
0.0
 30
0.0
  3
*D12
  1

  0
LINE
  5
179A3
330
15D4E
100
AcDbEntity
  8
寸法
 62
     0
 48
50.0
370
    -2
100
AcDbLine
 10
9098.334605198843
 20
8045.697547085426
 30
0.0
 11
9098.334605198843
 21
6844.008719371595
 31
0.0
  0
LINE
  5
179A4
330
15D4E
100
AcDbEntity
  8
寸法
 62
     0
 48
50.0
370
    -2
100
AcDbLine
 10
10468.33460519892
 20
8045.697547085399
 30
0.0
 11
10468.33460519892
 21
6844.008719371595
 31
0.0
  0
LINE
  5
179A5
330
15D4E
100
AcDbEntity
  8
寸法
 62
     0
 48
50.0
370
    -2
100
AcDbLine
 10
9098.334605198843
 20
6904.008719371596
 30
0.0
 11
10468.33460519892
 21
6904.008719371596
 31
0.0
  0
INSERT
  5
179A6
330
15D4E
100
AcDbEntity
  8
寸法
 62
     0
 48
50.0
370
    -2
100
AcDbBlockReference
  2
_DOTSMALL
 10
9098.334605198843
 20
6904.008719371596
 30
0.0
 41
100.0
 42
100.0
 43
100.0
 50
180.0
  0
INSERT
  5
179A7
330
15D4E
100
AcDbEntity
  8
寸法
 62
     0
 48
50.0
370
    -2
100
AcDbBlockReference
  2
_DOTSMALL
 10
10468.33460519892
 20
6904.008719371596
 30
0.0
 41
100.0
 42
100.0
 43
100.0
  0
MTEXT
  5
179A8
330
15D4E
100
AcDbEntity
  8
寸法
 62
     7
 48
50.0
100
AcDbMText
 10
9780.756589959333
 20
7004.008719371596
 30
0.0
 40
120.0
 41
0.0
 71
     5
 72
     1
  1
\A1;1370
  7
STYLE1
 73
     1
 44
1.0
1001
ACAD
1000
MTEXTBEGIN
1070
    73
1070
     1
1070
    44
1040
1.0
1070
    74
1070
     0
1000
MTEXTEND
  0
POINT
  5
179A9
330
15D4E
100
AcDbEntity
  8
DEFPOINTS
 62
     0
 48
50.0
100
AcDbPoint
 10
9098.334605198843
 20
8065.697547085425
 30
0.0
  0
POINT
  5
179AA
330
15D4E
100
AcDbEntity
  8
DEFPOINTS
 62
     0
 48
50.0
100
AcDbPoint
 10
10468.33460519892
 20
8065.697547085399
 30
0.0
  0
POINT
  5
179AB
330
15D4E
100
AcDbEntity
  8
DEFPOINTS
 62
     0
 48
50.0
100
AcDbPoint
 10
10468.33460519892
 20
6904.008719371596
 30
0.0
  0
ENDBLK
  5
15D6F
330
15D4E
100
AcDbEntity
  8
0
 48
50.0
100
AcDbBlockEnd
  0
BLOCK
  5
15DA9
330
15DA8
100
AcDbEntity
  8
0
 48
50.0
100
AcDbBlockBegin
  2
_DOT
 70
     0
 10
0.0
 20
0.0
 30
0.0
  3
_DOT
  1

  0
LWPOLYLINE
  5
15DAA
330
15DA8
100
AcDbEntity
  8
0
  6
ByBlock
 62
     0
 48
50.0
100
AcDbPolyline
 90
        2
 70
     1
 43
0.5
 10
-0.25
 20
0.0
 42
1.0
 10
0.25
 20
0.0
 42
1.0
  0
LINE
  5
15DAB
330
15DA8
100
AcDbEntity
  8
0
  6
ByBlock
 62
     0
 48
50.0
100
AcDbLine
 10
-0.5
 20
0.0
 30
0.0
 11
-1.0
 21
0.0
 31
0.0
  0
ENDBLK
  5
15DAC
330
15DA8
100
AcDbEntity
  8
0
 48
50.0
100
AcDbBlockEnd
  0
BLOCK
  5
15FEB
330
15FE1
100
AcDbEntity
  8
0
 48
50.0
100
AcDbBlockBegin
  2
*D14
 70
     1
 10
0.0
 20
0.0
 30
0.0
  3
*D14
  1

  0
LINE
  5
17051
330
15FE1
100
AcDbEntity
  8
寸法
 62
     0
 48
50.0
370
    -2
100
AcDbLine
 10
9106.334605198945
 20
4467.768547337427
 30
0.0
 11
8767.128575986795
 21
4467.768547337427
 31
0.0
  0
LINE
  5
17052
330
15FE1
100
AcDbEntity
  8
寸法
 62
     0
 48
50.0
370
    -2
100
AcDbLine
 10
9106.334605198945
 20
2742.768547337427
 30
0.0
 11
8767.128575986793
 21
2742.768547337427
 31
0.0
  0
LINE
  5
17053
330
15FE1
100
AcDbEntity
  8
寸法
 62
     0
 48
50.0
370
    -2
100
AcDbLine
 10
8827.128575986796
 20
4467.768547337427
 30
0.0
 11
8827.128575986794
 21
2742.768547337427
 31
0.0
  0
INSERT
  5
17054
330
15FE1
100
AcDbEntity
  8
寸法
 62
     0
 48
50.0
370
    -2
100
AcDbBlockReference
  2
_DOTSMALL
 10
8827.128575986796
 20
4467.768547337427
 30
0.0
 41
100.0
 42
100.0
 43
100.0
 50
90.0
  0
INSERT
  5
17055
330
15FE1
100
AcDbEntity
  8
寸法
 62
     0
 48
50.0
370
    -2
100
AcDbBlockReference
  2
_DOTSMALL
 10
8827.128575986794
 20
2742.768547337427
 30
0.0
 41
100.0
 42
100.0
 43
100.0
 50
270.0
  0
MTEXT
  5
17056
330
15FE1
100
AcDbEntity
  8
寸法
 62
     7
 48
50.0
100
AcDbMText
 10
8727.116764963172
 20
3596.401566354952
 30
0.0
 40
120.0
 41
0.0
 71
     5
 72
     1
  1
\A1;有効開口部高サ1725
  7
STYLE1
 11
0.0000000000000001
 21
1.0
 31
0.0
 73
     1
 44
1.0
1001
ACAD
1000
MTEXTBEGIN
1070
    73
1070
     1
1070
    44
1040
1.0
1070
    74
1070
     0
1000
MTEXTEND
  0
POINT
  5
17057
330
15FE1
100
AcDbEntity
  8
DEFPOINTS
 62
     0
 48
50.0
100
AcDbPoint
 10
9126.334605198945
 20
4467.768547337427
 30
0.0
  0
POINT
  5
17058
330
15FE1
100
AcDbEntity
  8
DEFPOINTS
 62
     0
 48
50.0
100
AcDbPoint
 10
9126.334605198945
 20
2742.768547337427
 30
0.0
  0
POINT
  5
17059
330
15FE1
100
AcDbEntity
  8
DEFPOINTS
 62
     0
 48
50.0
100
AcDbPoint
 10
8827.128575986794
 20
2742.768547337427
 30
0.0
  0
ENDBLK
  5
15FEC
330
15FE1
100
AcDbEntity
  8
0
 48
50.0
100
AcDbBlockEnd
  0
BLOCK
  5
16005
330
15FF9
100
AcDbEntity
  8
0
 48
50.0
100
AcDbBlockBegin
  2
*D15
 70
     1
 10
0.0
 20
0.0
 30
0.0
  3
*D15
  1

  0
LINE
  5
17924
330
15FF9
100
AcDbEntity
  8
寸法
 62
     0
 48
50.0
370
    -2
100
AcDbLine
 10
9078.334605198843
 20
8065.697547085413
 30
0.0
 11
8763.723359572127
 21
8065.697547085413
 31
0.0
  0
LINE
  5
17925
330
15FF9
100
AcDbEntity
  8
寸法
 62
     0
 48
50.0
370
    -2
100
AcDbLine
 10
9106.334605198821
 20
7990.697547085414
 30
0.0
 11
8763.723359572127
 21
7990.697547085414
 31
0.0
  0
LINE
  5
17926
330
15FF9
100
AcDbEntity
  8
寸法
 62
     0
 48
50.0
370
    -2
100
AcDbLine
 10
8803.723359572126
 20
8085.697547085414
 30
0.0
 11
8803.723359572126
 21
8105.697547085412
 31
0.0
  0
LINE
  5
17927
330
15FF9
100
AcDbEntity
  8
寸法
 62
     0
 48
50.0
370
    -2
100
AcDbLine
 10
8803.723359572126
 20
7970.697547085413
 30
0.0
 11
8803.723359572126
 21
7749.726984336937
 31
0.0
  0
LINE
  5
17928
330
15FF9
100
AcDbEntity
  8
寸法
 62
     0
 48
50.0
370
    -2
100
AcDbLine
 10
8803.723359572126
 20
8065.697547085413
 30
0.0
 11
8803.723359572126
 21
7990.697547085414
 31
0.0
  0
INSERT
  5
17929
330
15FF9
100
AcDbEntity
  8
寸法
 62
     0
 48
50.0
370
    -2
100
AcDbBlockReference
  2
_DOT
 10
8803.723359572126
 20
8065.697547085413
 30
0.0
 41
20.0
 42
20.0
 43
20.0
 50
270.0
  0
INSERT
  5
1792A
330
15FF9
100
AcDbEntity
  8
寸法
 62
     0
 48
50.0
370
    -2
100
AcDbBlockReference
  2
_DOT
 10
8803.723359572126
 20
7990.697547085414
 30
0.0
 41
20.0
 42
20.0
 43
20.0
 50
90.0
  0
MTEXT
  5
1792B
330
15FF9
100
AcDbEntity
  8
寸法
 62
     7
 48
50.0
100
AcDbMText
 10
8711.723359572124
 20
7850.212265711175
 30
0.0
 40
120.0
 41
0.0
 71
     5
 72
     1
  1
\A1;75
  7
STYLE1
 11
0.0000000000000001
 21
1.0
 31
0.0
 73
     1
 44
1.0
1001
ACAD
1000
MTEXTBEGIN
1070
    73
1070
     1
1070
    44
1040
1.0
1070
    74
1070
     0
1000
MTEXTEND
  0
POINT
  5
1792C
330
15FF9
100
AcDbEntity
  8
DEFPOINTS
 62
     0
 48
50.0
100
AcDbPoint
 10
9098.334605198843
 20
8065.697547085413
 30
0.0
  0
POINT
  5
1792D
330
15FF9
100
AcDbEntity
  8
DEFPOINTS
 62
     0
 48
50.0
100
AcDbPoint
 10
9126.33460519882
 20
7990.697547085414
 30
0.0
  0
POINT
  5
1792E
330
15FF9
100
AcDbEntity
  8
DEFPOINTS
 62
     0
 48
50.0
100
AcDbPoint
 10
8803.723359572126
 20
7990.697547085414
 30
0.0
  0
ENDBLK
  5
16006
330
15FF9
100
AcDbEntity
  8
0
 48
50.0
100
AcDbBlockEnd
  0
BLOCK
  5
1662D
330
16622
100
AcDbEntity
  8
0
 48
50.0
100
AcDbBlockBegin
  2
*D16
 70
     1
 10
0.0
 20
0.0
 30
0.0
  3
*D16
  1

  0
LINE
  5
16FF9
330
16622
100
AcDbEntity
  8
寸法
 62
     0
 48
50.0
370
    -2
100
AcDbLine
 10
6971.87425910139
 20
4726.57922694908
 30
0.0
 11
6971.87425910139
 21
5218.426000916731
 31
0.0
  0
LINE
  5
16FFA
330
16622
100
AcDbEntity
  8
寸法
 62
     0
 48
50.0
370
    -2
100
AcDbLine
 10
7051.87425910139
 20
4724.768547337427
 30
0.0
 11
7051.87425910139
 21
5218.426000916731
 31
0.0
  0
LINE
  5
16FFB
330
16622
100
AcDbEntity
  8
寸法
 62
     0
 48
50.0
370
    -2
100
AcDbLine
 10
6971.87425910139
 20
5158.426000916731
 30
0.0
 11
7051.87425910139
 21
5158.426000916731
 31
0.0
  0
LINE
  5
16FFC
330
16622
100
AcDbEntity
  8
寸法
 62
     0
 48
50.0
370
    -2
100
AcDbLine
 10
7051.87425910139
 20
5158.426000916731
 30
0.0
 11
7363.968747290368
 21
5158.426000916731
 31
0.0
  0
INSERT
  5
16FFD
330
16622
100
AcDbEntity
  8
寸法
 62
     0
 48
50.0
370
    -2
100
AcDbBlockReference
  2
_DOTSMALL
 10
6971.87425910139
 20
5158.426000916731
 30
0.0
 41
100.0
 42
100.0
 43
100.0
 50
180.0
  0
INSERT
  5
16FFE
330
16622
100
AcDbEntity
  8
寸法
 62
     0
 48
50.0
370
    -2
100
AcDbBlockReference
  2
_DOTSMALL
 10
7051.87425910139
 20
5158.426000916731
 30
0.0
 41
100.0
 42
100.0
 43
100.0
  0
MTEXT
  5
16FFF
330
16622
100
AcDbEntity
  8
寸法
 62
     7
 48
50.0
100
AcDbMText
 10
7257.921503195881
 20
5258.426000916731
 30
0.0
 40
120.0
 41
0.0
 71
     5
 72
     1
  1
\A1;80
  7
STYLE1
 73
     1
 44
1.0
1001
ACAD
1000
MTEXTBEGIN
1070
    73
1070
     1
1070
    44
1040
1.0
1070
    74
1070
     0
1000
MTEXTEND
  0
POINT
  5
17000
330
16622
100
AcDbEntity
  8
DEFPOINTS
 62
     0
 48
50.0
100
AcDbPoint
 10
6971.87425910139
 20
4706.57922694908
 30
0.0
  0
POINT
  5
17001
330
16622
100
AcDbEntity
  8
DEFPOINTS
 62
     0
 48
50.0
100
AcDbPoint
 10
7051.87425910139
 20
4704.768547337428
 30
0.0
  0
POINT
  5
17002
330
16622
100
AcDbEntity
  8
DEFPOINTS
 62
     0
 48
50.0
100
AcDbPoint
 10
7051.87425910139
 20
5158.426000916731
 30
0.0
  0
ENDBLK
  5
1662E
330
16622
100
AcDbEntity
  8
0
 48
50.0
100
AcDbBlockEnd
  0
BLOCK
  5
1663A
330
1662F
100
AcDbEntity
  8
0
 48
50.0
100
AcDbBlockBegin
  2
*D17
 70
     1
 10
0.0
 20
0.0
 30
0.0
  3
*D17
  1

  0
LINE
  5
16FBD
330
1662F
100
AcDbEntity
  8
寸法
 62
     0
 48
50.0
370
    -2
100
AcDbLine
 10
5121.278545392494
 20
4759.066254407089
 30
0.0
 11
4505.344106287222
 21
4776.780404681418
 31
0.0
  0
LINE
  5
16FBE
330
1662F
100
AcDbEntity
  8
寸法
 62
     0
 48
50.0
370
    -2
100
AcDbLine
 10
5117.225089835867
 20
4618.124530641376
 30
0.0
 11
4501.290650730596
 21
4635.838680915704
 31
0.0
  0
LINE
  5
16FBF
330
1662F
100
AcDbEntity
  8
寸法
 62
     0
 48
50.0
370
    -2
100
AcDbLine
 10
4561.265852333027
 20
4634.113806210757
 30
0.0
 11
4565.319307889654
 21
4775.055529976471
 31
0.0
  0
LINE
  5
16FC0
330
1662F
100
AcDbEntity
  8
寸法
 62
     0
 48
50.0
370
    -2
100
AcDbLine
 10
4565.319307889654
 20
4775.055529976471
 30
0.0
 11
4575.668556119338
 21
5134.906739591055
 31
0.0
  0
INSERT
  5
16FC1
330
1662F
100
AcDbEntity
  8
寸法
 62
     0
 48
50.0
370
    -2
100
AcDbBlockReference
  2
_DOTSMALL
 10
4561.265852333027
 20
4634.113806210757
 30
0.0
 41
100.0
 42
100.0
 43
100.0
 50
268.3526390256378
  0
INSERT
  5
16FC2
330
1662F
100
AcDbEntity
  8
寸法
 62
     0
 48
50.0
370
    -2
100
AcDbBlockReference
  2
_DOTSMALL
 10
4565.319307889654
 20
4775.055529976471
 30
0.0
 41
100.0
 42
100.0
 43
100.0
 50
88.35263902563776
  0
MTEXT
  5
16FC3
330
1662F
100
AcDbEntity
  8
寸法
 62
     7
 48
50.0
100
AcDbMText
 10
4471.972658254567
 20
5007.835260627368
 30
0.0
 40
120.0
 41
0.0
 71
     5
 72
     1
  1
\A1;141
  7
STYLE1
 11
0.0287479117491237
 21
0.9995866933738488
 31
0.0
 73
     1
 44
1.0
1001
ACAD
1000
MTEXTBEGIN
1070
    73
1070
     1
1070
    44
1040
1.0
1070
    74
1070
     0
1000
MTEXTEND
  0
POINT
  5
16FC4
330
1662F
100
AcDbEntity
  8
DEFPOINTS
 62
     0
 48
50.0
100
AcDbPoint
 10
5141.27027925997
 20
4758.491296172106
 30
0.0
  0
POINT
  5
16FC5
330
1662F
100
AcDbEntity
  8
DEFPOINTS
 62
     0
 48
50.0
100
AcDbPoint
 10
5137.216823703344
 20
4617.549572406392
 30
0.0
  0
POINT
  5
16FC6
330
1662F
100
AcDbEntity
  8
DEFPOINTS
 62
     0
 48
50.0
100
AcDbPoint
 10
4561.265852333027
 20
4634.113806210757
 30
0.0
  0
ENDBLK
  5
1663B
330
1662F
100
AcDbEntity
  8
0
 48
50.0
100
AcDbBlockEnd
  0
BLOCK
  5
16646
330
1663C
100
AcDbEntity
  8
0
 48
50.0
100
AcDbBlockBegin
  2
*D18
 70
     1
 10
0.0
 20
0.0
 30
0.0
  3
*D18
  1

  0
LINE
  5
16FB4
330
1663C
100
AcDbEntity
  8
寸法
 62
     0
 48
50.0
370
    -2
100
AcDbLine
 10
5089.374259101394
 20
2384.768547337426
 30
0.0
 11
4899.874255854758
 21
2384.768547337426
 31
0.0
  0
LINE
  5
16FB5
330
1663C
100
AcDbEntity
  8
寸法
 62
     0
 48
50.0
370
    -2
100
AcDbLine
 10
5064.37425910139
 20
2584.768547337426
 30
0.0
 11
4899.874255854758
 21
2584.768547337426
 31
0.0
  0
LINE
  5
16FB6
330
1663C
100
AcDbEntity
  8
寸法
 62
     0
 48
50.0
370
    -2
100
AcDbLine
 10
4959.874255854757
 20
2384.768547337426
 30
0.0
 11
4959.874255854757
 21
2584.768547337426
 31
0.0
  0
INSERT
  5
16FB7
330
1663C
100
AcDbEntity
  8
寸法
 62
     0
 48
50.0
370
    -2
100
AcDbBlockReference
  2
_DOTSMALL
 10
4959.874255854757
 20
2384.768547337426
 30
0.0
 41
100.0
 42
100.0
 43
100.0
 50
270.0
  0
INSERT
  5
16FB8
330
1663C
100
AcDbEntity
  8
寸法
 62
     0
 48
50.0
370
    -2
100
AcDbBlockReference
  2
_DOTSMALL
 10
4959.874255854757
 20
2584.768547337426
 30
0.0
 41
100.0
 42
100.0
 43
100.0
 50
90.0
  0
MTEXT
  5
16FB9
330
1663C
100
AcDbEntity
  8
寸法
 62
     7
 48
50.0
100
AcDbMText
 10
4859.862444831135
 20
2484.768547337426
 30
0.0
 40
120.0
 41
0.0
 71
     5
 72
     1
  1
\A1;200
  7
STYLE1
 11
0.0000000000000001
 21
1.0
 31
0.0
 73
     1
 44
1.0
1001
ACAD
1000
MTEXTBEGIN
1070
    73
1070
     1
1070
    44
1040
1.0
1070
    74
1070
     0
1000
MTEXTEND
  0
POINT
  5
16FBA
330
1663C
100
AcDbEntity
  8
DEFPOINTS
 62
     0
 48
50.0
100
AcDbPoint
 10
5109.374259101394
 20
2384.768547337426
 30
0.0
  0
POINT
  5
16FBB
330
1663C
100
AcDbEntity
  8
DEFPOINTS
 62
     0
 48
50.0
100
AcDbPoint
 10
5084.374259101391
 20
2584.768547337426
 30
0.0
  0
POINT
  5
16FBC
330
1663C
100
AcDbEntity
  8
DEFPOINTS
 62
     0
 48
50.0
100
AcDbPoint
 10
4959.874255854757
 20
2584.768547337426
 30
0.0
  0
ENDBLK
  5
16647
330
1663C
100
AcDbEntity
  8
0
 48
50.0
100
AcDbBlockEnd
  0
BLOCK
  5
16652
330
16648
100
AcDbEntity
  8
0
 48
50.0
100
AcDbBlockBegin
  2
*D19
 70
     1
 10
0.0
 20
0.0
 30
0.0
  3
*D19
  1

  0
LINE
  5
16FAB
330
16648
100
AcDbEntity
  8
寸法
 62
     0
 48
50.0
370
    -2
100
AcDbLine
 10
5309.374259101391
 20
2364.768547337424
 30
0.0
 11
5309.374259101391
 21
2038.721218037048
 31
0.0
  0
LINE
  5
16FAC
330
16648
100
AcDbEntity
  8
寸法
 62
     0
 48
50.0
370
    -2
100
AcDbLine
 10
5109.374259101394
 20
2364.768547337425
 30
0.0
 11
5109.374259101394
 21
2038.721218037048
 31
0.0
  0
LINE
  5
16FAD
330
16648
100
AcDbEntity
  8
寸法
 62
     0
 48
50.0
370
    -2
100
AcDbLine
 10
5309.374259101391
 20
2098.721218037049
 30
0.0
 11
5109.374259101394
 21
2098.721218037049
 31
0.0
  0
INSERT
  5
16FAE
330
16648
100
AcDbEntity
  8
寸法
 62
     0
 48
50.0
370
    -2
100
AcDbBlockReference
  2
_DOTSMALL
 10
5309.374259101391
 20
2098.721218037049
 30
0.0
 41
100.0
 42
100.0
 43
100.0
  0
INSERT
  5
16FAF
330
16648
100
AcDbEntity
  8
寸法
 62
     0
 48
50.0
370
    -2
100
AcDbBlockReference
  2
_DOTSMALL
 10
5109.374259101394
 20
2098.721218037049
 30
0.0
 41
100.0
 42
100.0
 43
100.0
 50
180.0
  0
MTEXT
  5
16FB0
330
16648
100
AcDbEntity
  8
寸法
 62
     7
 48
50.0
100
AcDbMText
 10
5209.374259101393
 20
2198.733029060671
 30
0.0
 40
120.0
 41
0.0
 71
     5
 72
     1
  1
\A1;200
  7
STYLE1
 73
     1
 44
1.0
1001
ACAD
1000
MTEXTBEGIN
1070
    73
1070
     1
1070
    44
1040
1.0
1070
    74
1070
     0
1000
MTEXTEND
  0
POINT
  5
16FB1
330
16648
100
AcDbEntity
  8
DEFPOINTS
 62
     0
 48
50.0
100
AcDbPoint
 10
5309.374259101391
 20
2384.768547337424
 30
0.0
  0
POINT
  5
16FB2
330
16648
100
AcDbEntity
  8
DEFPOINTS
 62
     0
 48
50.0
100
AcDbPoint
 10
5109.374259101394
 20
2384.768547337426
 30
0.0
  0
POINT
  5
16FB3
330
16648
100
AcDbEntity
  8
DEFPOINTS
 62
     0
 48
50.0
100
AcDbPoint
 10
5109.374259101394
 20
2098.721218037049
 30
0.0
  0
ENDBLK
  5
16653
330
16648
100
AcDbEntity
  8
0
 48
50.0
100
AcDbBlockEnd
  0
BLOCK
  5
16742
330
16738
100
AcDbEntity
  8
0
 48
50.0
100
AcDbBlockBegin
  2
*D20
 70
     1
 10
0.0
 20
0.0
 30
0.0
  3
*D20
  1

  0
LINE
  5
16FF0
330
16738
100
AcDbEntity
  8
寸法
 62
     0
 48
50.0
370
    -2
100
AcDbLine
 10
5161.874259101391
 20
4524.768547337426
 30
0.0
 11
4498.221549943094
 21
4524.768547337426
 31
0.0
  0
LINE
  5
16FF1
330
16738
100
AcDbEntity
  8
寸法
 62
     0
 48
50.0
370
    -2
100
AcDbLine
 10
5161.874259101391
 20
2734.768547337427
 30
0.0
 11
4498.221549943094
 21
2734.768547337428
 31
0.0
  0
LINE
  5
16FF2
330
16738
100
AcDbEntity
  8
寸法
 62
     0
 48
50.0
370
    -2
100
AcDbLine
 10
4558.221549943094
 20
4524.768547337426
 30
0.0
 11
4558.221549943094
 21
2734.768547337428
 31
0.0
  0
INSERT
  5
16FF3
330
16738
100
AcDbEntity
  8
寸法
 62
     0
 48
50.0
370
    -2
100
AcDbBlockReference
  2
_DOTSMALL
 10
4558.221549943094
 20
4524.768547337426
 30
0.0
 41
100.0
 42
100.0
 43
100.0
 50
90.0
  0
INSERT
  5
16FF4
330
16738
100
AcDbEntity
  8
寸法
 62
     0
 48
50.0
370
    -2
100
AcDbBlockReference
  2
_DOTSMALL
 10
4558.221549943094
 20
2734.768547337428
 30
0.0
 41
100.0
 42
100.0
 43
100.0
 50
270.0
  0
MTEXT
  5
16FF5
330
16738
100
AcDbEntity
  8
寸法
 62
     7
 48
50.0
100
AcDbMText
 10
4458.221549943092
 20
3625.222845879385
 30
0.0
 40
120.0
 41
0.0
 71
     5
 72
     1
  1
\A1;1790
  7
STYLE1
 11
0.0000000000000001
 21
1.0
 31
0.0
 73
     1
 44
1.0
1001
ACAD
1000
MTEXTBEGIN
1070
    73
1070
     1
1070
    44
1040
1.0
1070
    74
1070
     0
1000
MTEXTEND
  0
POINT
  5
16FF6
330
16738
100
AcDbEntity
  8
DEFPOINTS
 62
     0
 48
50.0
100
AcDbPoint
 10
5181.874259101391
 20
4524.768547337426
 30
0.0
  0
POINT
  5
16FF7
330
16738
100
AcDbEntity
  8
DEFPOINTS
 62
     0
 48
50.0
100
AcDbPoint
 10
5181.874259101391
 20
2734.768547337427
 30
0.0
  0
POINT
  5
16FF8
330
16738
100
AcDbEntity
  8
DEFPOINTS
 62
     0
 48
50.0
100
AcDbPoint
 10
4558.221549943094
 20
2734.768547337428
 30
0.0
  0
ENDBLK
  5
16743
330
16738
100
AcDbEntity
  8
0
 48
50.0
100
AcDbBlockEnd
  0
BLOCK
  5
1674E
330
16744
100
AcDbEntity
  8
0
 48
50.0
100
AcDbBlockBegin
  2
*D21
 70
     1
 10
0.0
 20
0.0
 30
0.0
  3
*D21
  1

  0
LINE
  5
16FE7
330
16744
100
AcDbEntity
  8
寸法
 62
     0
 48
50.0
370
    -2
100
AcDbLine
 10
5161.874259101391
 20
2684.768547337427
 30
0.0
 11
4213.234877172032
 21
2684.768547337427
 31
0.0
  0
LINE
  5
16FE8
330
16744
100
AcDbEntity
  8
寸法
 62
     0
 48
50.0
370
    -2
100
AcDbLine
 10
5101.87425910139
 20
4759.768547337431
 30
0.0
 11
4213.234877172032
 21
4759.768547337431
 31
0.0
  0
LINE
  5
16FE9
330
16744
100
AcDbEntity
  8
寸法
 62
     0
 48
50.0
370
    -2
100
AcDbLine
 10
4273.234877172032
 20
2684.768547337427
 30
0.0
 11
4273.234877172032
 21
4759.768547337431
 31
0.0
  0
INSERT
  5
16FEA
330
16744
100
AcDbEntity
  8
寸法
 62
     0
 48
50.0
370
    -2
100
AcDbBlockReference
  2
_DOTSMALL
 10
4273.234877172032
 20
2684.768547337427
 30
0.0
 41
100.0
 42
100.0
 43
100.0
 50
270.0
  0
INSERT
  5
16FEB
330
16744
100
AcDbEntity
  8
寸法
 62
     0
 48
50.0
370
    -2
100
AcDbBlockReference
  2
_DOTSMALL
 10
4273.234877172032
 20
4759.768547337431
 30
0.0
 41
100.0
 42
100.0
 43
100.0
 50
90.0
  0
MTEXT
  5
16FEC
330
16744
100
AcDbEntity
  8
寸法
 62
     7
 48
50.0
100
AcDbMText
 10
4173.22306614841
 20
3678.974424830537
 30
0.0
 40
120.0
 41
0.0
 71
     5
 72
     1
  1
\A1;2075
  7
STYLE1
 11
0.0000000000000001
 21
1.0
 31
0.0
 73
     1
 44
1.0
1001
ACAD
1000
MTEXTBEGIN
1070
    73
1070
     1
1070
    44
1040
1.0
1070
    74
1070
     0
1000
MTEXTEND
  0
POINT
  5
16FED
330
16744
100
AcDbEntity
  8
DEFPOINTS
 62
     0
 48
50.0
100
AcDbPoint
 10
5181.874259101391
 20
2684.768547337427
 30
0.0
  0
POINT
  5
16FEE
330
16744
100
AcDbEntity
  8
DEFPOINTS
 62
     0
 48
50.0
100
AcDbPoint
 10
5121.874259101391
 20
4759.768547337431
 30
0.0
  0
POINT
  5
16FEF
330
16744
100
AcDbEntity
  8
DEFPOINTS
 62
     0
 48
50.0
100
AcDbPoint
 10
4273.234877172032
 20
4759.768547337431
 30
0.0
  0
ENDBLK
  5
1674F
330
16744
100
AcDbEntity
  8
0
 48
50.0
100
AcDbBlockEnd
  0
BLOCK
  5
1675B
330
16750
100
AcDbEntity
  8
0
 48
50.0
100
AcDbBlockBegin
  2
*D22
 70
     1
 10
0.0
 20
0.0
 30
0.0
  3
*D22
  1

  0
LINE
  5
16FDD
330
16750
100
AcDbEntity
  8
寸法
 62
     0
 48
50.0
370
    -2
100
AcDbLine
 10
5106.874259101391
 20
2684.768547337427
 30
0.0
 11
4213.234877172032
 21
2684.768547337427
 31
0.0
  0
LINE
  5
16FDE
330
16750
100
AcDbEntity
  8
寸法
 62
     0
 48
50.0
370
    -2
100
AcDbLine
 10
4538.221549943093
 20
2584.768547337427
 30
0.0
 11
4213.234877172032
 21
2584.768547337427
 31
0.0
  0
LINE
  5
16FDF
330
16750
100
AcDbEntity
  8
寸法
 62
     0
 48
50.0
370
    -2
100
AcDbLine
 10
4273.234877172032
 20
2684.768547337427
 30
0.0
 11
4273.234877172032
 21
2584.768547337427
 31
0.0
  0
LINE
  5
16FE0
330
16750
100
AcDbEntity
  8
寸法
 62
     0
 48
50.0
370
    -2
100
AcDbLine
 10
4273.234877172032
 20
2584.768547337427
 30
0.0
 11
4273.234877172032
 21
2212.674059148448
 31
0.0
  0
INSERT
  5
16FE1
330
16750
100
AcDbEntity
  8
寸法
 62
     0
 48
50.0
370
    -2
100
AcDbBlockReference
  2
_DOTSMALL
 10
4273.234877172032
 20
2684.768547337427
 30
0.0
 41
100.0
 42
100.0
 43
100.0
 50
90.0
  0
INSERT
  5
16FE2
330
16750
100
AcDbEntity
  8
寸法
 62
     0
 48
50.0
370
    -2
100
AcDbBlockReference
  2
_DOTSMALL
 10
4273.234877172032
 20
2584.768547337427
 30
0.0
 41
100.0
 42
100.0
 43
100.0
 50
270.0
  0
MTEXT
  5
16FE3
330
16750
100
AcDbEntity
  8
寸法
 62
     7
 48
50.0
100
AcDbMText
 10
4173.234877172031
 20
2348.721303242937
 30
0.0
 40
120.0
 41
0.0
 71
     5
 72
     1
  1
\A1;100
  7
STYLE1
 11
0.0000000000000001
 21
1.0
 31
0.0
 73
     1
 44
1.0
1001
ACAD
1000
MTEXTBEGIN
1070
    73
1070
     1
1070
    44
1040
1.0
1070
    74
1070
     0
1000
MTEXTEND
  0
POINT
  5
16FE4
330
16750
100
AcDbEntity
  8
DEFPOINTS
 62
     0
 48
50.0
100
AcDbPoint
 10
5126.87425910139
 20
2684.768547337427
 30
0.0
  0
POINT
  5
16FE5
330
16750
100
AcDbEntity
  8
DEFPOINTS
 62
     0
 48
50.0
100
AcDbPoint
 10
4558.221549943093
 20
2584.768547337427
 30
0.0
  0
POINT
  5
16FE6
330
16750
100
AcDbEntity
  8
DEFPOINTS
 62
     0
 48
50.0
100
AcDbPoint
 10
4273.234877172032
 20
2584.768547337427
 30
0.0
  0
ENDBLK
  5
1675C
330
16750
100
AcDbEntity
  8
0
 48
50.0
100
AcDbBlockEnd
  0
BLOCK
  5
16769
330
1675D
100
AcDbEntity
  8
0
 48
50.0
100
AcDbBlockBegin
  2
*D23
 70
     1
 10
0.0
 20
0.0
 30
0.0
  3
*D23
  1

  0
LINE
  5
16FD2
330
1675D
100
AcDbEntity
  8
寸法
 62
     0
 48
50.0
370
    -2
100
AcDbLine
 10
5161.874259101391
 20
2734.768547337427
 30
0.0
 11
4498.221549943094
 21
2734.768547337428
 31
0.0
  0
LINE
  5
16FD3
330
1675D
100
AcDbEntity
  8
寸法
 62
     0
 48
50.0
370
    -2
100
AcDbLine
 10
5106.874259101391
 20
2684.768547337427
 30
0.0
 11
4498.221549943094
 21
2684.768547337427
 31
0.0
  0
LINE
  5
16FD4
330
1675D
100
AcDbEntity
  8
寸法
 62
     0
 48
50.0
370
    -2
100
AcDbLine
 10
4558.221549943094
 20
2734.768547337428
 30
0.0
 11
4558.221549943094
 21
2834.768547337427
 31
0.0
  0
LINE
  5
16FD5
330
1675D
100
AcDbEntity
  8
寸法
 62
     0
 48
50.0
370
    -2
100
AcDbLine
 10
4558.221549943094
 20
2684.768547337427
 30
0.0
 11
4558.221549943094
 21
2272.674059148448
 31
0.0
  0
LINE
  5
16FD6
330
1675D
100
AcDbEntity
  8
寸法
 62
     0
 48
50.0
370
    -2
100
AcDbLine
 10
4558.221549943094
 20
2734.768547337428
 30
0.0
 11
4558.221549943094
 21
2684.768547337427
 31
0.0
  0
INSERT
  5
16FD7
330
1675D
100
AcDbEntity
  8
寸法
 62
     0
 48
50.0
370
    -2
100
AcDbBlockReference
  2
_DOTSMALL
 10
4558.221549943094
 20
2734.768547337428
 30
0.0
 41
100.0
 42
100.0
 43
100.0
 50
270.0
  0
INSERT
  5
16FD8
330
1675D
100
AcDbEntity
  8
寸法
 62
     0
 48
50.0
370
    -2
100
AcDbBlockReference
  2
_DOTSMALL
 10
4558.221549943094
 20
2684.768547337427
 30
0.0
 41
100.0
 42
100.0
 43
100.0
 50
90.0
  0
MTEXT
  5
16FD9
330
1675D
100
AcDbEntity
  8
寸法
 62
     7
 48
50.0
100
AcDbMText
 10
4458.221549943092
 20
2378.721303242937
 30
0.0
 40
120.0
 41
0.0
 71
     5
 72
     1
  1
\A1;50
  7
STYLE1
 11
0.0000000000000001
 21
1.0
 31
0.0
 73
     1
 44
1.0
1001
ACAD
1000
MTEXTBEGIN
1070
    73
1070
     1
1070
    44
1040
1.0
1070
    74
1070
     0
1000
MTEXTEND
  0
POINT
  5
16FDA
330
1675D
100
AcDbEntity
  8
DEFPOINTS
 62
     0
 48
50.0
100
AcDbPoint
 10
5181.874259101391
 20
2734.768547337427
 30
0.0
  0
POINT
  5
16FDB
330
1675D
100
AcDbEntity
  8
DEFPOINTS
 62
     0
 48
50.0
100
AcDbPoint
 10
5126.87425910139
 20
2684.768547337427
 30
0.0
  0
POINT
  5
16FDC
330
1675D
100
AcDbEntity
  8
DEFPOINTS
 62
     0
 48
50.0
100
AcDbPoint
 10
4558.221549943094
 20
2684.768547337427
 30
0.0
  0
ENDBLK
  5
1676A
330
1675D
100
AcDbEntity
  8
0
 48
50.0
100
AcDbBlockEnd
  0
BLOCK
  5
16775
330
1676B
100
AcDbEntity
  8
0
 48
50.0
100
AcDbBlockBegin
  2
*D24
 70
     1
 10
0.0
 20
0.0
 30
0.0
  3
*D24
  1

  0
LINE
  5
17015
330
1676B
100
AcDbEntity
  8
寸法
 62
     0
 48
50.0
370
    -2
100
AcDbLine
 10
7068.874259101395
 20
2684.768547337427
 30
0.0
 11
7644.044354863819
 21
2684.768547337426
 31
0.0
  0
LINE
  5
17016
330
1676B
100
AcDbEntity
  8
寸法
 62
     0
 48
50.0
370
    -2
100
AcDbLine
 10
7071.874259101391
 20
4704.768547337428
 30
0.0
 11
7644.044354863819
 21
4704.768547337428
 31
0.0
  0
LINE
  5
17017
330
1676B
100
AcDbEntity
  8
寸法
 62
     0
 48
50.0
370
    -2
100
AcDbLine
 10
7584.044354863819
 20
2684.768547337426
 30
0.0
 11
7584.044354863819
 21
4704.768547337428
 31
0.0
  0
INSERT
  5
17018
330
1676B
100
AcDbEntity
  8
寸法
 62
     0
 48
50.0
370
    -2
100
AcDbBlockReference
  2
_DOTSMALL
 10
7584.044354863819
 20
2684.768547337426
 30
0.0
 41
100.0
 42
100.0
 43
100.0
 50
270.0
  0
INSERT
  5
17019
330
1676B
100
AcDbEntity
  8
寸法
 62
     0
 48
50.0
370
    -2
100
AcDbBlockReference
  2
_DOTSMALL
 10
7584.044354863819
 20
4704.768547337428
 30
0.0
 41
100.0
 42
100.0
 43
100.0
 50
90.0
  0
MTEXT
  5
1701A
330
1676B
100
AcDbEntity
  8
寸法
 62
     7
 48
50.0
100
AcDbMText
 10
7484.032543840196
 20
3667.024874767115
 30
0.0
 40
120.0
 41
0.0
 71
     5
 72
     1
  1
\A1;2020
  7
STYLE1
 11
0.0000000000000001
 21
1.0
 31
0.0
 73
     1
 44
1.0
1001
ACAD
1000
MTEXTBEGIN
1070
    73
1070
     1
1070
    44
1040
1.0
1070
    74
1070
     0
1000
MTEXTEND
  0
POINT
  5
1701B
330
1676B
100
AcDbEntity
  8
DEFPOINTS
 62
     0
 48
50.0
100
AcDbPoint
 10
7048.874259101395
 20
2684.768547337427
 30
0.0
  0
POINT
  5
1701C
330
1676B
100
AcDbEntity
  8
DEFPOINTS
 62
     0
 48
50.0
100
AcDbPoint
 10
7051.87425910139
 20
4704.768547337428
 30
0.0
  0
POINT
  5
1701D
330
1676B
100
AcDbEntity
  8
DEFPOINTS
 62
     0
 48
50.0
100
AcDbPoint
 10
7584.044354863819
 20
4704.768547337428
 30
0.0
  0
ENDBLK
  5
16776
330
1676B
100
AcDbEntity
  8
0
 48
50.0
100
AcDbBlockEnd
  0
BLOCK
  5
16781
330
16777
100
AcDbEntity
  8
0
 48
50.0
100
AcDbBlockBegin
  2
*D25
 70
     1
 10
0.0
 20
0.0
 30
0.0
  3
*D25
  1

  0
LINE
  5
1700C
330
16777
100
AcDbEntity
  8
寸法
 62
     0
 48
50.0
370
    -2
100
AcDbLine
 10
6971.87425910139
 20
4726.57922694908
 30
0.0
 11
6971.87425910139
 21
5218.8617166769
 31
0.0
  0
LINE
  5
1700D
330
16777
100
AcDbEntity
  8
寸法
 62
     0
 48
50.0
370
    -2
100
AcDbLine
 10
5181.874259101391
 20
4775.770165460403
 30
0.0
 11
5181.874259101391
 21
5218.8617166769
 31
0.0
  0
LINE
  5
1700E
330
16777
100
AcDbEntity
  8
寸法
 62
     0
 48
50.0
370
    -2
100
AcDbLine
 10
6971.87425910139
 20
5158.861716676899
 30
0.0
 11
5181.874259101391
 21
5158.861716676899
 31
0.0
  0
INSERT
  5
1700F
330
16777
100
AcDbEntity
  8
寸法
 62
     0
 48
50.0
370
    -2
100
AcDbBlockReference
  2
_DOTSMALL
 10
6971.87425910139
 20
5158.861716676899
 30
0.0
 41
100.0
 42
100.0
 43
100.0
  0
INSERT
  5
17010
330
16777
100
AcDbEntity
  8
寸法
 62
     0
 48
50.0
370
    -2
100
AcDbBlockReference
  2
_DOTSMALL
 10
5181.874259101391
 20
5158.861716676899
 30
0.0
 41
100.0
 42
100.0
 43
100.0
 50
180.0
  0
MTEXT
  5
17011
330
16777
100
AcDbEntity
  8
寸法
 62
     7
 48
50.0
100
AcDbMText
 10
6091.469907777871
 20
5258.8617166769
 30
0.0
 40
120.0
 41
0.0
 71
     5
 72
     1
  1
\A1;柱外寸法1790
  7
STYLE1
 73
     1
 44
1.0
1001
ACAD
1000
MTEXTBEGIN
1070
    73
1070
     1
1070
    44
1040
1.0
1070
    74
1070
     0
1000
MTEXTEND
  0
POINT
  5
17012
330
16777
100
AcDbEntity
  8
DEFPOINTS
 62
     0
 48
50.0
100
AcDbPoint
 10
6971.87425910139
 20
4706.57922694908
 30
0.0
  0
POINT
  5
17013
330
16777
100
AcDbEntity
  8
DEFPOINTS
 62
     0
 48
50.0
100
AcDbPoint
 10
5181.874259101391
 20
4755.770165460403
 30
0.0
  0
POINT
  5
17014
330
16777
100
AcDbEntity
  8
DEFPOINTS
 62
     0
 48
50.0
100
AcDbPoint
 10
5181.874259101391
 20
5158.861716676899
 30
0.0
  0
ENDBLK
  5
16782
330
16777
100
AcDbEntity
  8
0
 48
50.0
100
AcDbBlockEnd
  0
BLOCK
  5
1678F
330
16783
100
AcDbEntity
  8
0
 48
50.0
100
AcDbBlockBegin
  2
*D26
 70
     1
 10
0.0
 20
0.0
 30
0.0
  3
*D26
  1

  0
LINE
  5
16FC7
330
16783
100
AcDbEntity
  8
寸法
 62
     0
 48
50.0
370
    -2
100
AcDbLine
 10
5181.874259101391
 20
4775.770165460403
 30
0.0
 11
5181.874259101391
 21
5218.426000916731
 31
0.0
  0
LINE
  5
16FC8
330
16783
100
AcDbEntity
  8
寸法
 62
     0
 48
50.0
370
    -2
100
AcDbLine
 10
5121.874259101391
 20
4779.768547337432
 30
0.0
 11
5121.874259101391
 21
5218.426000916731
 31
0.0
  0
LINE
  5
16FC9
330
16783
100
AcDbEntity
  8
寸法
 62
     0
 48
50.0
370
    -2
100
AcDbLine
 10
5181.874259101391
 20
5158.426000916731
 30
0.0
 11
5281.874259101391
 21
5158.426000916731
 31
0.0
  0
LINE
  5
16FCA
330
16783
100
AcDbEntity
  8
寸法
 62
     0
 48
50.0
370
    -2
100
AcDbLine
 10
5121.874259101391
 20
5158.426000916731
 30
0.0
 11
4702.598668550209
 21
5158.426000916731
 31
0.0
  0
LINE
  5
16FCB
330
16783
100
AcDbEntity
  8
寸法
 62
     0
 48
50.0
370
    -2
100
AcDbLine
 10
5181.874259101391
 20
5158.426000916731
 30
0.0
 11
5121.874259101391
 21
5158.426000916731
 31
0.0
  0
INSERT
  5
16FCC
330
16783
100
AcDbEntity
  8
寸法
 62
     0
 48
50.0
370
    -2
100
AcDbBlockReference
  2
_DOTSMALL
 10
5181.874259101391
 20
5158.426000916731
 30
0.0
 41
100.0
 42
100.0
 43
100.0
 50
180.0
  0
INSERT
  5
16FCD
330
16783
100
AcDbEntity
  8
寸法
 62
     0
 48
50.0
370
    -2
100
AcDbBlockReference
  2
_DOTSMALL
 10
5121.874259101391
 20
5158.426000916731
 30
0.0
 41
100.0
 42
100.0
 43
100.0
  0
MTEXT
  5
16FCE
330
16783
100
AcDbEntity
  8
寸法
 62
     7
 48
50.0
100
AcDbMText
 10
4812.236463825801
 20
5258.426000916731
 30
0.0
 40
120.0
 41
0.0
 71
     5
 72
     1
  1
\A1;60
  7
STYLE1
 73
     1
 44
1.0
1001
ACAD
1000
MTEXTBEGIN
1070
    73
1070
     1
1070
    44
1040
1.0
1070
    74
1070
     0
1000
MTEXTEND
  0
POINT
  5
16FCF
330
16783
100
AcDbEntity
  8
DEFPOINTS
 62
     0
 48
50.0
100
AcDbPoint
 10
5181.874259101391
 20
4755.770165460403
 30
0.0
  0
POINT
  5
16FD0
330
16783
100
AcDbEntity
  8
DEFPOINTS
 62
     0
 48
50.0
100
AcDbPoint
 10
5121.874259101391
 20
4759.768547337431
 30
0.0
  0
POINT
  5
16FD1
330
16783
100
AcDbEntity
  8
DEFPOINTS
 62
     0
 48
50.0
100
AcDbPoint
 10
5121.874259101391
 20
5158.426000916731
 30
0.0
  0
ENDBLK
  5
16790
330
16783
100
AcDbEntity
  8
0
 48
50.0
100
AcDbBlockEnd
  0
BLOCK
  5
1679B
330
16791
100
AcDbEntity
  8
0
 48
50.0
100
AcDbBlockBegin
  2
*D27
 70
     1
 10
0.0
 20
0.0
 30
0.0
  3
*D27
  1

  0
LINE
  5
17003
330
16791
100
AcDbEntity
  8
寸法
 62
     0
 48
50.0
370
    -2
100
AcDbLine
 10
7051.87425910139
 20
4724.768547337427
 30
0.0
 11
7051.87425910139
 21
5435.387816295345
 31
0.0
  0
LINE
  5
17004
330
16791
100
AcDbEntity
  8
寸法
 62
     0
 48
50.0
370
    -2
100
AcDbLine
 10
5121.874259101391
 20
4779.768547337432
 30
0.0
 11
5121.874259101391
 21
5435.387816295345
 31
0.0
  0
LINE
  5
17005
330
16791
100
AcDbEntity
  8
寸法
 62
     0
 48
50.0
370
    -2
100
AcDbLine
 10
7051.87425910139
 20
5375.387816295345
 30
0.0
 11
5121.874259101391
 21
5375.387816295345
 31
0.0
  0
INSERT
  5
17006
330
16791
100
AcDbEntity
  8
寸法
 62
     0
 48
50.0
370
    -2
100
AcDbBlockReference
  2
_DOTSMALL
 10
7051.87425910139
 20
5375.387816295345
 30
0.0
 41
100.0
 42
100.0
 43
100.0
  0
INSERT
  5
17007
330
16791
100
AcDbEntity
  8
寸法
 62
     0
 48
50.0
370
    -2
100
AcDbBlockReference
  2
_DOTSMALL
 10
5121.874259101391
 20
5375.387816295345
 30
0.0
 41
100.0
 42
100.0
 43
100.0
 50
180.0
  0
MTEXT
  5
17008
330
16791
100
AcDbEntity
  8
寸法
 62
     7
 48
50.0
100
AcDbMText
 10
6027.68001035236
 20
5475.387816295345
 30
0.0
 40
120.0
 41
0.0
 71
     5
 72
     1
  1
\A1;1930
  7
STYLE1
 73
     1
 44
1.0
1001
ACAD
1000
MTEXTBEGIN
1070
    73
1070
     1
1070
    44
1040
1.0
1070
    74
1070
     0
1000
MTEXTEND
  0
POINT
  5
17009
330
16791
100
AcDbEntity
  8
DEFPOINTS
 62
     0
 48
50.0
100
AcDbPoint
 10
7051.87425910139
 20
4704.768547337428
 30
0.0
  0
POINT
  5
1700A
330
16791
100
AcDbEntity
  8
DEFPOINTS
 62
     0
 48
50.0
100
AcDbPoint
 10
5121.874259101391
 20
4759.768547337431
 30
0.0
  0
POINT
  5
1700B
330
16791
100
AcDbEntity
  8
DEFPOINTS
 62
     0
 48
50.0
100
AcDbPoint
 10
5121.874259101391
 20
5375.387816295345
 30
0.0
  0
ENDBLK
  5
1679C
330
16791
100
AcDbEntity
  8
0
 48
50.0
100
AcDbBlockEnd
  0
BLOCK
  5
16CB4
330
16CAA
100
AcDbEntity
  8
0
 48
50.0
100
AcDbBlockBegin
  2
*D28
 70
     1
 10
0.0
 20
0.0
 30
0.0
  3
*D28
  1

  0
LINE
  5
17064
330
16CAA
100
AcDbEntity
  8
寸法
 62
     0
 48
50.0
370
    -2
100
AcDbLine
 10
9048.334605198929
 20
4779.768547337432
 30
0.0
 11
9048.334605198929
 21
5435.387816295345
 31
0.0
  0
LINE
  5
17065
330
16CAA
100
AcDbEntity
  8
寸法
 62
     0
 48
50.0
370
    -2
100
AcDbLine
 10
10518.33460519894
 20
4779.768547337429
 30
0.0
 11
10518.33460519894
 21
5435.387816295345
 31
0.0
  0
LINE
  5
17066
330
16CAA
100
AcDbEntity
  8
寸法
 62
     0
 48
50.0
370
    -2
100
AcDbLine
 10
9048.334605198929
 20
5375.387816295345
 30
0.0
 11
10518.33460519894
 21
5375.387816295345
 31
0.0
  0
INSERT
  5
17067
330
16CAA
100
AcDbEntity
  8
寸法
 62
     0
 48
50.0
370
    -2
100
AcDbBlockReference
  2
_DOTSMALL
 10
9048.334605198929
 20
5375.387816295345
 30
0.0
 41
100.0
 42
100.0
 43
100.0
 50
180.0
  0
INSERT
  5
17068
330
16CAA
100
AcDbEntity
  8
寸法
 62
     0
 48
50.0
370
    -2
100
AcDbBlockReference
  2
_DOTSMALL
 10
10518.33460519894
 20
5375.387816295345
 30
0.0
 41
100.0
 42
100.0
 43
100.0
  0
MTEXT
  5
17069
330
16CAA
100
AcDbEntity
  8
寸法
 62
     7
 48
50.0
100
AcDbMText
 10
9783.334605198938
 20
5475.387816295345
 30
0.0
 40
120.0
 41
0.0
 71
     5
 72
     1
  1
\A1;1470
  7
STYLE1
 73
     1
 44
1.0
1001
ACAD
1000
MTEXTBEGIN
1070
    73
1070
     1
1070
    44
1040
1.0
1070
    74
1070
     0
1000
MTEXTEND
  0
POINT
  5
1706A
330
16CAA
100
AcDbEntity
  8
DEFPOINTS
 62
     0
 48
50.0
100
AcDbPoint
 10
9048.334605198929
 20
4759.768547337432
 30
0.0
  0
POINT
  5
1706B
330
16CAA
100
AcDbEntity
  8
DEFPOINTS
 62
     0
 48
50.0
100
AcDbPoint
 10
10518.33460519894
 20
4759.768547337429
 30
0.0
  0
POINT
  5
1706C
330
16CAA
100
AcDbEntity
  8
DEFPOINTS
 62
     0
 48
50.0
100
AcDbPoint
 10
10518.33460519894
 20
5375.387816295345
 30
0.0
  0
ENDBLK
  5
16CB5
330
16CAA
100
AcDbEntity
  8
0
 48
50.0
100
AcDbBlockEnd
  0
BLOCK
  5
16CC2
330
16CB6
100
AcDbEntity
  8
0
 48
50.0
100
AcDbBlockBegin
  2
*D29
 70
     1
 10
0.0
 20
0.0
 30
0.0
  3
*D29
  1

  0
LINE
  5
17077
330
16CB6
100
AcDbEntity
  8
寸法
 62
     0
 48
50.0
370
    -2
100
AcDbLine
 10
10518.33460519894
 20
4779.768547337429
 30
0.0
 11
10518.33460519894
 21
5218.8617166769
 31
0.0
  0
LINE
  5
17078
330
16CB6
100
AcDbEntity
  8
寸法
 62
     0
 48
50.0
370
    -2
100
AcDbLine
 10
10468.33460519895
 20
4779.768547337432
 30
0.0
 11
10468.33460519895
 21
5218.8617166769
 31
0.0
  0
LINE
  5
17079
330
16CB6
100
AcDbEntity
  8
寸法
 62
     0
 48
50.0
370
    -2
100
AcDbLine
 10
10468.33460519895
 20
5158.861716676899
 30
0.0
 11
10368.33460519895
 21
5158.861716676899
 31
0.0
  0
LINE
  5
1707A
330
16CB6
100
AcDbEntity
  8
寸法
 62
     0
 48
50.0
370
    -2
100
AcDbLine
 10
10518.33460519894
 20
5158.861716676899
 30
0.0
 11
10937.86713066767
 21
5158.861716676899
 31
0.0
  0
LINE
  5
1707B
330
16CB6
100
AcDbEntity
  8
寸法
 62
     0
 48
50.0
370
    -2
100
AcDbLine
 10
10468.33460519895
 20
5158.861716676899
 30
0.0
 11
10518.33460519894
 21
5158.861716676899
 31
0.0
  0
INSERT
  5
1707C
330
16CB6
100
AcDbEntity
  8
寸法
 62
     0
 48
50.0
370
    -2
100
AcDbBlockReference
  2
_DOTSMALL
 10
10468.33460519895
 20
5158.861716676899
 30
0.0
 41
100.0
 42
100.0
 43
100.0
  0
INSERT
  5
1707D
330
16CB6
100
AcDbEntity
  8
寸法
 62
     0
 48
50.0
370
    -2
100
AcDbBlockReference
  2
_DOTSMALL
 10
10518.33460519894
 20
5158.861716676899
 30
0.0
 41
100.0
 42
100.0
 43
100.0
 50
180.0
  0
MTEXT
  5
1707E
330
16CB6
100
AcDbEntity
  8
寸法
 62
     7
 48
50.0
100
AcDbMText
 10
10831.81988657318
 20
5258.8617166769
 30
0.0
 40
120.0
 41
0.0
 71
     5
 72
     1
  1
\A1;50
  7
STYLE1
 73
     1
 44
1.0
1001
ACAD
1000
MTEXTBEGIN
1070
    73
1070
     1
1070
    44
1040
1.0
1070
    74
1070
     0
1000
MTEXTEND
  0
POINT
  5
1707F
330
16CB6
100
AcDbEntity
  8
DEFPOINTS
 62
     0
 48
50.0
100
AcDbPoint
 10
10518.33460519894
 20
4759.768547337429
 30
0.0
  0
POINT
  5
17080
330
16CB6
100
AcDbEntity
  8
DEFPOINTS
 62
     0
 48
50.0
100
AcDbPoint
 10
10468.33460519895
 20
4759.768547337432
 30
0.0
  0
POINT
  5
17081
330
16CB6
100
AcDbEntity
  8
DEFPOINTS
 62
     0
 48
50.0
100
AcDbPoint
 10
10468.33460519895
 20
5158.861716676899
 30
0.0
  0
ENDBLK
  5
16CC3
330
16CB6
100
AcDbEntity
  8
0
 48
50.0
100
AcDbBlockEnd
  0
BLOCK
  5
16CD0
330
16CC4
100
AcDbEntity
  8
0
 48
50.0
100
AcDbBlockBegin
  2
*D30
 70
     1
 10
0.0
 20
0.0
 30
0.0
  3
*D30
  1

  0
LINE
  5
17083
330
16CC4
100
AcDbEntity
  8
寸法
 62
     0
 48
50.0
370
    -2
100
AcDbLine
 10
9098.334605198928
 20
4779.768547337432
 30
0.0
 11
9098.334605198928
 21
5218.8617166769
 31
0.0
  0
LINE
  5
17084
330
16CC4
100
AcDbEntity
  8
寸法
 62
     0
 48
50.0
370
    -2
100
AcDbLine
 10
9048.334605198929
 20
4779.768547337432
 30
0.0
 11
9048.334605198929
 21
5218.8617166769
 31
0.0
  0
LINE
  5
17085
330
16CC4
100
AcDbEntity
  8
寸法
 62
     0
 48
50.0
370
    -2
100
AcDbLine
 10
9098.334605198928
 20
5158.861716676899
 30
0.0
 11
9198.334605198928
 21
5158.861716676899
 31
0.0
  0
LINE
  5
17086
330
16CC4
100
AcDbEntity
  8
寸法
 62
     0
 48
50.0
370
    -2
100
AcDbLine
 10
9048.334605198929
 20
5158.861716676899
 30
0.0
 11
8628.802079730194
 21
5158.861716676899
 31
0.0
  0
LINE
  5
17087
330
16CC4
100
AcDbEntity
  8
寸法
 62
     0
 48
50.0
370
    -2
100
AcDbLine
 10
9098.334605198928
 20
5158.861716676899
 30
0.0
 11
9048.334605198929
 21
5158.861716676899
 31
0.0
  0
INSERT
  5
17088
330
16CC4
100
AcDbEntity
  8
寸法
 62
     0
 48
50.0
370
    -2
100
AcDbBlockReference
  2
_DOTSMALL
 10
9098.334605198928
 20
5158.861716676899
 30
0.0
 41
100.0
 42
100.0
 43
100.0
 50
180.0
  0
INSERT
  5
17089
330
16CC4
100
AcDbEntity
  8
寸法
 62
     0
 48
50.0
370
    -2
100
AcDbBlockReference
  2
_DOTSMALL
 10
9048.334605198929
 20
5158.861716676899
 30
0.0
 41
100.0
 42
100.0
 43
100.0
  0
MTEXT
  5
1708A
330
16CC4
100
AcDbEntity
  8
寸法
 62
     7
 48
50.0
100
AcDbMText
 10
8734.849323824681
 20
5258.8617166769
 30
0.0
 40
120.0
 41
0.0
 71
     5
 72
     1
  1
\A1;50
  7
STYLE1
 73
     1
 44
1.0
1001
ACAD
1000
MTEXTBEGIN
1070
    73
1070
     1
1070
    44
1040
1.0
1070
    74
1070
     0
1000
MTEXTEND
  0
POINT
  5
1708B
330
16CC4
100
AcDbEntity
  8
DEFPOINTS
 62
     0
 48
50.0
100
AcDbPoint
 10
9098.334605198928
 20
4759.768547337433
 30
0.0
  0
POINT
  5
1708C
330
16CC4
100
AcDbEntity
  8
DEFPOINTS
 62
     0
 48
50.0
100
AcDbPoint
 10
9048.334605198929
 20
4759.768547337432
 30
0.0
  0
POINT
  5
1708D
330
16CC4
100
AcDbEntity
  8
DEFPOINTS
 62
     0
 48
50.0
100
AcDbPoint
 10
9048.334605198929
 20
5158.861716676899
 30
0.0
  0
ENDBLK
  5
16CD1
330
16CC4
100
AcDbEntity
  8
0
 48
50.0
100
AcDbBlockEnd
  0
BLOCK
  5
16CDC
330
16CD2
100
AcDbEntity
  8
0
 48
50.0
100
AcDbBlockBegin
  2
*D31
 70
     1
 10
0.0
 20
0.0
 30
0.0
  3
*D31
  1

  0
LINE
  5
1706E
330
16CD2
100
AcDbEntity
  8
寸法
 62
     0
 48
50.0
370
    -2
100
AcDbLine
 10
10468.33460519895
 20
4779.768547337432
 30
0.0
 11
10468.33460519895
 21
5218.8617166769
 31
0.0
  0
LINE
  5
1706F
330
16CD2
100
AcDbEntity
  8
寸法
 62
     0
 48
50.0
370
    -2
100
AcDbLine
 10
9098.334605198928
 20
4779.768547337432
 30
0.0
 11
9098.334605198928
 21
5218.8617166769
 31
0.0
  0
LINE
  5
17070
330
16CD2
100
AcDbEntity
  8
寸法
 62
     0
 48
50.0
370
    -2
100
AcDbLine
 10
10468.33460519895
 20
5158.861716676899
 30
0.0
 11
9098.334605198928
 21
5158.861716676899
 31
0.0
  0
INSERT
  5
17071
330
16CD2
100
AcDbEntity
  8
寸法
 62
     0
 48
50.0
370
    -2
100
AcDbBlockReference
  2
_DOTSMALL
 10
10468.33460519895
 20
5158.861716676899
 30
0.0
 41
100.0
 42
100.0
 43
100.0
  0
INSERT
  5
17072
330
16CD2
100
AcDbEntity
  8
寸法
 62
     0
 48
50.0
370
    -2
100
AcDbBlockReference
  2
_DOTSMALL
 10
9098.334605198928
 20
5158.861716676899
 30
0.0
 41
100.0
 42
100.0
 43
100.0
 50
180.0
  0
MTEXT
  5
17073
330
16CD2
100
AcDbEntity
  8
寸法
 62
     7
 48
50.0
100
AcDbMText
 10
9783.334605198936
 20
5258.8617166769
 30
0.0
 40
120.0
 41
0.0
 71
     5
 72
     1
  1
\A1;柱外寸法1370
  7
STYLE1
 73
     1
 44
1.0
1001
ACAD
1000
MTEXTBEGIN
1070
    73
1070
     1
1070
    44
1040
1.0
1070
    74
1070
     0
1000
MTEXTEND
  0
POINT
  5
17074
330
16CD2
100
AcDbEntity
  8
DEFPOINTS
 62
     0
 48
50.0
100
AcDbPoint
 10
10468.33460519895
 20
4759.768547337432
 30
0.0
  0
POINT
  5
17075
330
16CD2
100
AcDbEntity
  8
DEFPOINTS
 62
     0
 48
50.0
100
AcDbPoint
 10
9098.334605198928
 20
4759.768547337433
 30
0.0
  0
POINT
  5
17076
330
16CD2
100
AcDbEntity
  8
DEFPOINTS
 62
     0
 48
50.0
100
AcDbPoint
 10
9098.334605198928
 20
5158.861716676899
 30
0.0
  0
ENDBLK
  5
16CDD
330
16CD2
100
AcDbEntity
  8
0
 48
50.0
100
AcDbBlockEnd
  0
BLOCK
  5
178AC
330
178A2
100
AcDbEntity
  8
0
 48
50.0
100
AcDbBlockBegin
  2
*D32
 70
     1
 10
0.0
 20
0.0
 30
0.0
  3
*D32
  1

  0
LINE
  5
1791B
330
178A2
100
AcDbEntity
  8
寸法
 62
     0
 48
50.0
370
    -2
100
AcDbLine
 10
9165.33460519882
 20
7968.697547085414
 30
0.0
 11
9165.33460519882
 21
7324.568172388111
 31
0.0
  0
LINE
  5
1791C
330
178A2
100
AcDbEntity
  8
寸法
 62
     0
 48
50.0
370
    -2
100
AcDbLine
 10
9839.334605198821
 20
7968.697547085414
 30
0.0
 11
9839.334605198821
 21
7324.568172388111
 31
0.0
  0
LINE
  5
1791D
330
178A2
100
AcDbEntity
  8
寸法
 62
     0
 48
50.0
370
    -2
100
AcDbLine
 10
9185.334605198821
 20
7364.568172388111
 30
0.0
 11
9819.334605198822
 21
7364.568172388111
 31
0.0
  0
INSERT
  5
1791E
330
178A2
100
AcDbEntity
  8
寸法
 62
     0
 48
50.0
370
    -2
100
AcDbBlockReference
  2
_DOT
 10
9165.33460519882
 20
7364.568172388111
 30
0.0
 41
20.0
 42
20.0
 43
20.0
 50
180.0
  0
INSERT
  5
1791F
330
178A2
100
AcDbEntity
  8
寸法
 62
     0
 48
50.0
370
    -2
100
AcDbBlockReference
  2
_DOT
 10
9839.334605198821
 20
7364.568172388111
 30
0.0
 41
20.0
 42
20.0
 43
20.0
  0
MTEXT
  5
17920
330
178A2
100
AcDbEntity
  8
寸法
 62
     7
 48
50.0
100
AcDbMText
 10
9502.334605198822
 20
7556.568172388111
 30
0.0
 40
120.0
 41
0.0
 71
     5
 72
     1
  1
\A1;有効開口部間口\P674
  7
STYLE1
 73
     1
 44
1.0
1001
ACAD
1000
MTEXTBEGIN
1070
    73
1070
     1
1070
    44
1040
1.0
1070
    74
1070
     0
1000
MTEXTEND
  0
POINT
  5
17921
330
178A2
100
AcDbEntity
  8
DEFPOINTS
 62
     0
 48
50.0
100
AcDbPoint
 10
9165.33460519882
 20
7988.697547085414
 30
0.0
  0
POINT
  5
17922
330
178A2
100
AcDbEntity
  8
DEFPOINTS
 62
     0
 48
50.0
100
AcDbPoint
 10
9839.334605198821
 20
7988.697547085414
 30
0.0
  0
POINT
  5
17923
330
178A2
100
AcDbEntity
  8
DEFPOINTS
 62
     0
 48
50.0
100
AcDbPoint
 10
9839.334605198821
 20
7364.568172388111
 30
0.0
  0
ENDBLK
  5
178AD
330
178A2
100
AcDbEntity
  8
0
 48
50.0
100
AcDbBlockEnd
  0
BLOCK
  5
17910
330
17906
100
AcDbEntity
  8
0
 48
50.0
100
AcDbBlockBegin
  2
*D33
 70
     1
 10
0.0
 20
0.0
 30
0.0
  3
*D33
  1

  0
LINE
  5
179BF
330
17906
100
AcDbEntity
  8
寸法
 62
     0
 48
50.0
370
    -2
100
AcDbLine
 10
9126.33460519882
 20
7968.697547085414
 30
0.0
 11
9126.33460519882
 21
7078.085683081321
 31
0.0
  0
LINE
  5
179C0
330
17906
100
AcDbEntity
  8
寸法
 62
     0
 48
50.0
370
    -2
100
AcDbLine
 10
10440.33460519882
 20
7968.697547085414
 30
0.0
 11
10440.33460519882
 21
7078.085683081321
 31
0.0
  0
LINE
  5
179C1
330
17906
100
AcDbEntity
  8
寸法
 62
     0
 48
50.0
370
    -2
100
AcDbLine
 10
9126.33460519882
 20
7138.085683081321
 30
0.0
 11
10440.33460519882
 21
7138.085683081321
 31
0.0
  0
INSERT
  5
179C2
330
17906
100
AcDbEntity
  8
寸法
 62
     0
 48
50.0
370
    -2
100
AcDbBlockReference
  2
_DOTSMALL
 10
9126.33460519882
 20
7138.085683081321
 30
0.0
 41
100.0
 42
100.0
 43
100.0
 50
180.0
  0
INSERT
  5
179C3
330
17906
100
AcDbEntity
  8
寸法
 62
     0
 48
50.0
370
    -2
100
AcDbBlockReference
  2
_DOTSMALL
 10
10440.33460519882
 20
7138.085683081321
 30
0.0
 41
100.0
 42
100.0
 43
100.0
  0
MTEXT
  5
179C4
330
17906
100
AcDbEntity
  8
寸法
 62
     7
 48
50.0
100
AcDbMText
 10
9783.334605198822
 20
7238.085683081322
 30
0.0
 40
120.0
 41
0.0
 71
     5
 72
     1
  1
\A1;1314
  7
STYLE1
 73
     1
 44
1.0
1001
ACAD
1000
MTEXTBEGIN
1070
    73
1070
     1
1070
    44
1040
1.0
1070
    74
1070
     0
1000
MTEXTEND
  0
POINT
  5
179C5
330
17906
100
AcDbEntity
  8
DEFPOINTS
 62
     0
 48
50.0
100
AcDbPoint
 10
9126.33460519882
 20
7988.697547085414
 30
0.0
  0
POINT
  5
179C6
330
17906
100
AcDbEntity
  8
DEFPOINTS
 62
     0
 48
50.0
100
AcDbPoint
 10
10440.33460519882
 20
7988.697547085414
 30
0.0
  0
POINT
  5
179C7
330
17906
100
AcDbEntity
  8
DEFPOINTS
 62
     0
 48
50.0
100
AcDbPoint
 10
10440.33460519882
 20
7138.085683081321
 30
0.0
  0
ENDBLK
  5
17911
330
17906
100
AcDbEntity
  8
0
 48
50.0
100
AcDbBlockEnd
  0
ENDSEC
  0
SECTION
  2
ENTITIES
  0
LINE
  5
10B57
330
747D
100
AcDbEntity
  8
補助
  6
PHANTOM
 62
   230
 48
50.0
100
AcDbLine
 10
139.9999999999995
 20
11409.6
 30
0.0
 11
16307.2
 21
11409.6
 31
0.0
  0
LINE
  5
10B59
330
747D
100
AcDbEntity
  8
仕様書枠
  6
Continuous
 48
50.0
100
AcDbLine
 10
13107.2
 20
1200.0
 30
0.0
 11
13107.2
 21
-0.0000000000000729
 31
0.0
  0
LINE
  5
10B5C
330
747D
100
AcDbEntity
  8
仕様書枠
 48
50.0
100
AcDbLine
 10
16307.2
 20
1200.0
 30
0.0
 11
16307.2
 21
-0.0000000000000909
 31
0.0
  0
LINE
  5
10B5D
330
747D
100
AcDbEntity
  8
仕様書枠
 48
50.0
100
AcDbLine
 10
140.0
 20
0.0
 30
0.0
 11
16307.2
 21
-0.0000000000000909
 31
0.0
  0
LINE
  5
10B5E
330
747D
100
AcDbEntity
  8
補助
  6
PHANTOM
 62
   230
 48
50.0
100
AcDbLine
 10
16307.2
 20
11409.6
 30
0.0
 11
16307.2
 21
1200.0
 31
0.0
  0
LINE
  5
10B6C
330
747D
100
AcDbEntity
  8
仕様書枠
 48
50.0
100
AcDbLine
 10
13107.2
 20
1200.0
 30
0.0
 11
16307.2
 21
1200.0
 31
0.0
  0
LINE
  5
10B6D
330
747D
100
AcDbEntity
  8
補助
  6
PHANTOM
 62
   230
 48
50.0
100
AcDbLine
 10
13107.2
 20
11409.6
 30
0.0
 11
13107.2
 21
4800.0
 31
0.0
  0
LINE
  5
10B6F
330
747D
100
AcDbEntity
  8
補助
  6
PHANTOM
 62
   230
 48
50.0
100
AcDbLine
 10
13107.2
 20
4800.0
 30
0.0
 11
16307.2
 21
4800.0
 31
0.0
  0
LINE
  5
10B72
330
747D
100
AcDbEntity
  8
文字
 62
     7
 48
50.0
100
AcDbLine
 10
13187.2
 20
400.0
 30
0.0
 11
16227.2
 21
400.0
 31
0.0
  0
TEXT
  5
10B73
330
747D
100
AcDbEntity
  8
文字
 62
     7
 48
50.0
100
AcDbText
 10
13162.9790565769
 20
895.0906074299405
 30
0.0
 40
200.0
  1
外 形 図
  7
STYLE2
100
AcDbText
  0
TEXT
  5
10B74
330
747D
100
AcDbEntity
  8
文字
 62
     7
 48
50.0
100
AcDbText
 10
13201.43669998441
 20
477.2740661031255
 30
0.0
 40
160.0
  1
機種名
  7
STYLE2
100
AcDbText
  0
TEXT
  5
10B75
330
747D
100
AcDbEntity
  8
文字
 62
     7
 48
50.0
100
AcDbText
 10
13209.4053442172
 20
228.5435242569016
 30
0.0
 40
100.0
  1
○有効開口寸法 ： 674×1725(mm)
  7
STYLE2
100
AcDbText
  0
TEXT
  5
10B76
330
747D
100
AcDbEntity
  8
文字
 62
     7
 48
50.0
100
AcDbText
 10
13209.4053442172
 20
76.09434707649343
 30
0.0
 40
100.0
  1
○床面積 ： 2.55㎡(0.77坪) 　
  7
STYLE2
100
AcDbText
  0
TEXT
  5
10B79
330
747D
100
AcDbEntity
  8
文字
 62
     7
 48
50.0
100
AcDbText
 10
14524.131837222
 20
1031.557706291228
 30
0.0
 40
100.0
  1
NO.01      <縮尺> S=1/40
  7
STYLE2
100
AcDbText
  0
LINE
  5
10B7B
330
747D
100
AcDbEntity
  8
仕様書枠
 48
50.0
100
AcDbLine
 10
13107.2
 20
800.0
 30
0.0
 11
14251.2
 21
800.0
 31
0.0
  0
LINE
  5
10B88
330
747D
100
AcDbEntity
  8
仕様書枠
  6
Continuous
 48
50.0
100
AcDbLine
 10
14251.2
 20
1200.0
 30
0.0
 11
14251.2
 21
800.0
 31
0.0
  0
LINE
  5
12765
330
747D
100
AcDbEntity
  8
Ｇ．Ｌ
100
AcDbLine
 10
3250.95977802934
 20
2584.768547337427
 30
0.0
 11
11031.21843535475
 21
2584.768547337427
 31
0.0
  0
TEXT
  5
127AA
330
747D
100
AcDbEntity
  8
部品1
100
AcDbText
 10
3301.306217530218
 20
2620.875450943329
 30
0.0
 40
125.0
  1
▽G.L
  7
STYLE2
100
AcDbText
  0
LINE
  5
14522
330
747D
100
AcDbEntity
  8
部品1
100
AcDbLine
 10
10468.33460519882
 20
8120.697547085399
 30
0.0
 11
10440.33460519882
 21
8120.697547085399
 31
0.0
  0
LINE
  5
14523
330
747D
100
AcDbEntity
  8
部品1
100
AcDbLine
 10
10468.33460519882
 20
8065.697547085399
 30
0.0
 11
10413.33460519882
 21
8065.697547085399
 31
0.0
  0
LINE
  5
14524
330
747D
100
AcDbEntity
  8
部品1
100
AcDbLine
 10
10468.33460519895
 20
9800.697547085434
 30
0.0
 11
10440.33460519894
 21
9800.697547085434
 31
0.0
  0
LINE
  5
14525
330
747D
100
AcDbEntity
  8
部品1
100
AcDbLine
 10
10468.33460519897
 20
9800.697547085434
 30
0.0
 11
10440.33460519896
 21
9800.697547085434
 31
0.0
  0
LINE
  5
14527
330
747D
100
AcDbEntity
  8
部品1
100
AcDbLine
 10
10468.33460519895
 20
9855.697547085433
 30
0.0
 11
9098.334605198937
 21
9855.697547085409
 31
0.0
  0
LINE
  5
14528
330
747D
100
AcDbEntity
  8
部品1
100
AcDbLine
 10
10468.33460519897
 20
9380.69754708543
 30
0.0
 11
10440.33460519896
 21
9380.69754708543
 31
0.0
  0
LINE
  5
14529
330
747D
100
AcDbEntity
  8
部品1
100
AcDbLine
 10
10468.33460519897
 20
8960.69754708543
 30
0.0
 11
10440.33460519896
 21
8960.69754708543
 31
0.0
  0
LINE
  5
1452A
330
747D
100
AcDbEntity
  8
部品1
100
AcDbLine
 10
10468.33460519897
 20
8540.69754708543
 30
0.0
 11
10440.33460519896
 21
8540.69754708543
 31
0.0
  0
LINE
  5
1452B
330
747D
100
AcDbEntity
  8
部品1
100
AcDbLine
 10
10468.33460519885
 20
8540.69754708543
 30
0.0
 11
10440.33460519885
 21
8540.69754708543
 31
0.0
  0
LINE
  5
1452C
330
747D
100
AcDbEntity
  8
部品1
100
AcDbLine
 10
10468.33460519885
 20
8540.69754708543
 30
0.0
 11
10440.33460519885
 21
8540.69754708543
 31
0.0
  0
LINE
  5
1452D
330
747D
100
AcDbEntity
  8
部品1
100
AcDbLine
 10
10468.33460519885
 20
8120.697547085432
 30
0.0
 11
10440.33460519885
 21
8120.697547085432
 31
0.0
  0
DIMENSION
  5
1452E
330
747D
100
AcDbEntity
  8
寸法
100
AcDbDimension
  2
*D1
 10
9153.334605198933
 20
10503.12389281984
 30
0.0
 11
8789.8493238247
 21
10503.12389281984
 31
0.0
 70
   160
 71
     5
 42
54.99999999999636
  3
INABA_S40G
100
AcDbAlignedDimension
 13
9098.334605198937
 23
9855.697547085433
 33
0.0
 14
9153.334605198933
 24
9855.697547085433
 34
0.0
 50
180.0
100
AcDbRotatedDimension
1001
ACAD
1000
DSTYLE
1002
{
1002
}
  0
DIMENSION
  5
1452F
330
747D
100
AcDbEntity
  8
寸法
100
AcDbDimension
  2
*D2
 10
9893.11678953006
 20
10182.55527294746
 30
0.0
 11
10118.11678953006
 21
10282.55527294746
 31
0.0
 70
    32
 71
     5
 42
449.9999999999982
  3
INABA_S40G
100
AcDbAlignedDimension
 13
10438.33460519894
 23
9827.197547085434
 33
0.0
 14
9988.33460519895
 24
9827.197547085434
 34
0.0
 50
180.0
100
AcDbRotatedDimension
1001
ACAD
1000
DSTYLE
1002
{
1002
}
  0
DIMENSION
  5
14530
330
747D
100
AcDbEntity
  8
寸法
100
AcDbDimension
  2
*D3
 10
10468.33460519895
 20
10503.12389281982
 30
0.0
 11
10846.19607210381
 21
10503.12389281982
 31
0.0
 70
   160
 71
     5
 42
54.99999999999636
  3
INABA_S40G
100
AcDbAlignedDimension
 13
10413.33460519895
 23
9855.697547085409
 33
0.0
 14
10468.33460519895
 24
9855.697547085409
 34
0.0
 50
180.0
100
AcDbRotatedDimension
1001
ACAD
1000
DSTYLE
1002
{
1002
}
  0
DIMENSION
  5
14531
330
747D
100
AcDbEntity
  8
寸法
100
AcDbDimension
  2
*D4
 10
10413.33460519895
 20
10503.12389281984
 30
0.0
 11
9783.334605198945
 21
10503.12389281984
 31
0.0
 70
   160
  1
3X420=<>
 71
     5
 42
1260.000000000016
  3
INABA_S40G
100
AcDbAlignedDimension
 13
9153.334605198933
 23
9855.697547085433
 33
0.0
 14
10413.33460519895
 24
9855.697547085409
 34
0.0
 50
180.0
100
AcDbRotatedDimension
1001
ACAD
1000
DSTYLE
1002
{
1002
}
  0
TEXT
  5
14535
330
747D
100
AcDbEntity
  8
部品1
100
AcDbText
 10
9491.518882059393
 20
6398.760893093257
 30
0.0
 40
135.0
  1
平面図
  7
STYLE2
100
AcDbText
  0
LINE
  5
14538
330
747D
100
AcDbEntity
  8
部品1
100
AcDbLine
 10
9126.334605198987
 20
9827.697547085408
 30
0.0
 11
9126.334605198886
 21
8093.697547085406
 31
0.0
  0
LINE
  5
1453E
330
747D
100
AcDbEntity
  8
部品1
100
AcDbLine
 10
9988.334605198851
 20
8094.197547085434
 30
0.0
 11
9988.334605198957
 21
8947.19754708543
 31
0.0
  0
LINE
  5
14540
330
747D
100
AcDbEntity
  8
細線
 48
50.0
100
AcDbLine
 10
10438.33460519895
 20
8947.19754708543
 30
0.0
 11
9988.334605198851
 21
8094.197547085432
 31
0.0
  0
LINE
  5
14541
330
747D
100
AcDbEntity
  8
細線
 48
50.0
100
AcDbLine
 10
9988.334605198957
 20
8947.19754708543
 30
0.0
 11
10438.33460519885
 21
8094.197547085432
 31
0.0
  0
LINE
  5
14542
330
747D
100
AcDbEntity
  8
部品1
100
AcDbLine
 10
10438.33460519885
 20
8094.197547085432
 30
0.0
 11
10438.33460519896
 21
8947.19754708543
 31
0.0
  0
LINE
  5
14543
330
747D
100
AcDbEntity
  8
部品1
100
AcDbLine
 10
10440.33460519897
 20
8120.697547085432
 30
0.0
 11
10440.33460519896
 21
8948.197547085431
 31
0.0
  0
LINE
  5
14544
330
747D
100
AcDbEntity
  8
部品1
100
AcDbLine
 10
9098.334605198937
 20
9855.697547085409
 30
0.0
 11
9098.334605198843
 21
8065.697547085425
 31
0.0
  0
LINE
  5
14546
330
747D
100
AcDbEntity
  8
部品1
100
AcDbLine
 10
9126.334605198973
 20
8093.697547085408
 30
0.0
 11
10440.33460519885
 21
8093.697547085431
 31
0.0
  0
LINE
  5
1455D
330
747D
100
AcDbEntity
  8
部品1
100
AcDbLine
 10
10440.33460519885
 20
8093.697547085431
 30
0.0
 11
10440.33460519885
 21
8540.69754708543
 31
0.0
  0
LINE
  5
1455E
330
747D
100
AcDbEntity
  8
部品1
 48
50.0
100
AcDbLine
 10
10438.33460519884
 20
8094.197547085432
 30
0.0
 11
9988.334605198849
 21
8094.197547085432
 31
0.0
  0
LINE
  5
14560
330
747D
100
AcDbEntity
  8
部品1
100
AcDbLine
 10
10413.33460519882
 20
8093.697547085399
 30
0.0
 11
10413.33460519882
 21
8065.697547085399
 31
0.0
  0
LINE
  5
14562
330
747D
100
AcDbEntity
  8
部品1
100
AcDbLine
 10
10440.33460519894
 20
9827.697547085435
 30
0.0
 11
9126.334605198987
 21
9827.697547085408
 31
0.0
  0
LINE
  5
14574
330
747D
100
AcDbEntity
  8
部品1
100
AcDbLine
 10
9573.334605198949
 20
9827.697547085438
 30
0.0
 11
9573.334605198949
 21
9855.697547085439
 31
0.0
  0
LINE
  5
14575
330
747D
100
AcDbEntity
  8
部品1
100
AcDbLine
 10
9988.334605198957
 20
8974.197547085429
 30
0.0
 11
9988.33460519895
 21
9827.197547085434
 31
0.0
  0
LINE
  5
14576
330
747D
100
AcDbEntity
  8
細線
 48
50.0
100
AcDbLine
 10
10438.33460519894
 20
9827.197547085434
 30
0.0
 11
9988.334605198957
 21
8974.197547085429
 31
0.0
  0
LINE
  5
14577
330
747D
100
AcDbEntity
  8
細線
 48
50.0
100
AcDbLine
 10
9988.33460519895
 20
9827.197547085434
 30
0.0
 11
10438.33460519895
 21
8974.197547085429
 31
0.0
  0
LINE
  5
14578
330
747D
100
AcDbEntity
  8
部品1
100
AcDbLine
 10
10438.33460519895
 20
8974.197547085429
 30
0.0
 11
10438.33460519894
 21
9827.197547085434
 31
0.0
  0
LINE
  5
14579
330
747D
100
AcDbEntity
  8
部品1
100
AcDbLine
 10
10440.33460519896
 20
8973.197547085431
 30
0.0
 11
10440.33460519894
 21
9827.697547085435
 31
0.0
  0
LINE
  5
1457A
330
747D
100
AcDbEntity
  8
部品1
 48
50.0
100
AcDbLine
 10
10438.33460519895
 20
8974.197547085429
 30
0.0
 11
9988.334605198957
 21
8974.197547085429
 31
0.0
  0
LINE
  5
1457B
330
747D
100
AcDbEntity
  8
部品1
 48
50.0
100
AcDbLine
 10
10438.33460519895
 20
8947.19754708543
 30
0.0
 11
9988.334605198957
 21
8947.19754708543
 31
0.0
  0
LINE
  5
1457C
330
747D
100
AcDbEntity
  8
部品1
 48
50.0
100
AcDbLine
 10
10440.33460519895
 20
8973.197547085431
 30
0.0
 11
9988.334605198957
 21
8973.197547085431
 31
0.0
  0
LINE
  5
1457D
330
747D
100
AcDbEntity
  8
部品1
 48
50.0
100
AcDbLine
 10
10440.33460519896
 20
8948.197547085431
 30
0.0
 11
9988.334605198957
 21
8948.197547085431
 31
0.0
  0
LINE
  5
1457E
330
747D
100
AcDbEntity
  8
部品1
100
AcDbLine
 10
9988.334605198957
 20
8948.197547085431
 30
0.0
 11
9988.334605198957
 21
8973.197547085431
 31
0.0
  0
LINE
  5
1457F
330
747D
100
AcDbEntity
  8
部品1
100
AcDbLine
 10
10432.33460519895
 20
8948.197547085431
 30
0.0
 11
10432.33460519895
 21
8973.197547085431
 31
0.0
  0
LINE
  5
14580
330
747D
100
AcDbEntity
  8
部品1
100
AcDbLine
 10
10458.33460519895
 20
8989.69754708543
 30
0.0
 11
10458.33460519895
 21
8995.697547085431
 31
0.0
  0
LINE
  5
14581
330
747D
100
AcDbEntity
  8
部品1
100
AcDbLine
 10
10458.33460519895
 20
8995.697547085431
 30
0.0
 11
10440.33460519895
 21
8995.697547085431
 31
0.0
  0
LINE
  5
14582
330
747D
100
AcDbEntity
  8
部品1
100
AcDbLine
 10
10458.33460519895
 20
8925.69754708543
 30
0.0
 11
10458.33460519895
 21
8931.69754708543
 31
0.0
  0
LINE
  5
14583
330
747D
100
AcDbEntity
  8
部品1
100
AcDbLine
 10
10458.33460519895
 20
8925.69754708543
 30
0.0
 11
10440.33460519895
 21
8925.69754708543
 31
0.0
  0
LINE
  5
14584
330
747D
100
AcDbEntity
  8
部品1
100
AcDbLine
 10
10438.33460519894
 20
9827.197547085434
 30
0.0
 11
9988.33460519895
 21
9827.197547085434
 31
0.0
  0
LINE
  5
14585
330
747D
100
AcDbEntity
  8
部品1
100
AcDbLine
 10
9993.334605198951
 20
9827.697547085435
 30
0.0
 11
9993.334605198951
 21
9855.697547085433
 31
0.0
  0
LINE
  5
14586
330
747D
100
AcDbEntity
  8
部品1
100
AcDbLine
 10
10413.33460519895
 20
9827.697547085435
 30
0.0
 11
10413.33460519895
 21
9855.697547085433
 31
0.0
  0
LINE
  5
14588
330
747D
100
AcDbEntity
  8
部品1
100
AcDbLine
 10
10468.33460519885
 20
8065.697547085433
 30
0.0
 11
10468.33460519895
 21
9855.697547085433
 31
0.0
  0
TEXT
  5
149A1
330
747D
100
AcDbEntity
  8
部品1
100
AcDbText
 10
9492.124675968309
 20
1702.836755141493
 30
0.0
 40
135.0
  1
正面図
  7
STYLE2
100
AcDbText
  0
TEXT
  5
149A3
330
747D
100
AcDbEntity
  8
部品1
100
AcDbText
 10
5784.585027410778
 20
1702.836755141493
 30
0.0
 40
135.0
  1
側面図
  7
STYLE2
100
AcDbText
  0
LINE
  5
149A5
330
747D
100
AcDbEntity
  8
部品1
 48
50.0
100
AcDbLine
 10
9573.334605198949
 20
9799.197547085416
 30
0.0
 11
9573.334605199038
 21
8122.197547085418
 31
0.0
  0
LINE
  5
14AC7
330
747D
100
AcDbEntity
  8
破線
 48
10.0
100
AcDbLine
 10
9154.83460519894
 20
8985.697547085401
 30
0.0
 11
9988.334605198957
 21
8985.697547085406
 31
0.0
  0
LINE
  5
14AC8
330
747D
100
AcDbEntity
  8
破線
 48
10.0
100
AcDbLine
 10
9154.834605198935
 20
8935.697547085405
 30
0.0
 11
9988.334605198957
 21
8935.697547085405
 31
0.0
  0
LINE
  5
14C0C
330
747D
100
AcDbEntity
  8
部品1
100
AcDbLine
 10
9154.834605198985
 20
9799.197547085412
 30
0.0
 11
9154.834605198889
 21
8122.197547085326
 31
0.0
  0
LINE
  5
14C0D
330
747D
100
AcDbEntity
  8
破線
 48
10.0
100
AcDbLine
 10
9178.334605198982
 20
9775.697547085414
 30
0.0
 11
9178.334605198939
 21
8985.697547085406
 31
0.0
  0
LINE
  5
14C0E
330
747D
100
AcDbEntity
  8
破線
 48
10.0
100
AcDbLine
 10
9178.334605198935
 20
8935.697547085405
 30
0.0
 11
9178.334605198889
 21
8145.69754708542
 31
0.0
  0
LINE
  5
14C1E
330
747D
100
AcDbEntity
  8
部品1
100
AcDbLine
 10
9988.33460519895
 20
9799.197547085423
 30
0.0
 11
9154.834605198987
 21
9799.197547085409
 31
0.0
  0
LINE
  5
14C1F
330
747D
100
AcDbEntity
  8
破線
 48
10.0
100
AcDbLine
 10
9988.33460519895
 20
9775.697547085428
 30
0.0
 11
9178.334605198982
 21
9775.697547085414
 31
0.0
  0
LINE
  5
14C20
330
747D
100
AcDbEntity
  8
部品1
 48
50.0
100
AcDbLine
 10
9154.834605198985
 20
9799.197547085412
 30
0.0
 11
9126.334605198987
 21
9827.697547085408
 31
0.0
  0
LINE
  5
14C31
330
747D
100
AcDbEntity
  8
部品1
100
AcDbLine
 10
9988.33460519895
 20
8122.197547085409
 30
0.0
 11
9154.834605198983
 21
8122.197547085422
 31
0.0
  0
LINE
  5
14C32
330
747D
100
AcDbEntity
  8
破線
 48
10.0
100
AcDbLine
 10
9988.33460519895
 20
8145.697547085408
 30
0.0
 11
9178.334605198889
 21
8145.69754708542
 31
0.0
  0
LINE
  5
14C33
330
747D
100
AcDbEntity
  8
部品1
 48
50.0
100
AcDbLine
 10
9154.834605198985
 20
8122.197547085422
 30
0.0
 11
9126.334605198987
 21
8093.697547085424
 31
0.0
  0
TEXT
  5
14D2F
330
747D
100
AcDbEntity
  8
文字
 62
     7
 48
50.0
100
AcDbText
 10
14644.07818602837
 20
876.4448062548634
 30
0.0
 40
100.0
  1
～一般型・多雪地型～
  7
STYLE2
100
AcDbText
  0
LINE
  5
14E0E
330
747D
100
AcDbEntity
  8
部品1
100
AcDbLine
 10
9126.334605198984
 20
9380.697547085503
 30
0.0
 11
9098.334605198985
 21
9380.697547085503
 31
0.0
  0
LINE
  5
14E0F
330
747D
100
AcDbEntity
  8
部品1
100
AcDbLine
 10
9126.334605198964
 20
9800.697547085507
 30
0.0
 11
9098.334605198964
 21
9800.697547085507
 31
0.0
  0
LINE
  5
14E10
330
747D
100
AcDbEntity
  8
部品1
100
AcDbLine
 10
9126.334605198984
 20
9800.697547085507
 30
0.0
 11
9098.334605198985
 21
9800.697547085507
 31
0.0
  0
LINE
  5
14E11
330
747D
100
AcDbEntity
  8
部品1
100
AcDbLine
 10
9126.334605198984
 20
8960.697547085503
 30
0.0
 11
9098.334605198985
 21
8960.697547085503
 31
0.0
  0
LINE
  5
14E12
330
747D
100
AcDbEntity
  8
部品1
100
AcDbLine
 10
9126.334605198984
 20
8540.697547085503
 30
0.0
 11
9098.334605198985
 21
8540.697547085503
 31
0.0
  0
LINE
  5
14E13
330
747D
100
AcDbEntity
  8
部品1
100
AcDbLine
 10
9126.334605198868
 20
8540.697547085503
 30
0.0
 11
9098.33460519887
 21
8540.697547085503
 31
0.0
  0
LINE
  5
14E14
330
747D
100
AcDbEntity
  8
部品1
100
AcDbLine
 10
9126.33460519887
 20
8540.697547085503
 30
0.0
 11
9098.33460519887
 21
8540.697547085503
 31
0.0
  0
LINE
  5
14E15
330
747D
100
AcDbEntity
  8
部品1
100
AcDbLine
 10
9126.334605198838
 20
8120.697547085471
 30
0.0
 11
9098.334605198838
 21
8120.697547085471
 31
0.0
  0
LINE
  5
14E16
330
747D
100
AcDbEntity
  8
部品1
100
AcDbLine
 10
9126.33460519887
 20
8120.697547085503
 30
0.0
 11
9098.33460519887
 21
8120.697547085503
 31
0.0
  0
LINE
  5
14E18
330
747D
100
AcDbEntity
  8
部品1
100
AcDbLine
 10
9153.334605198821
 20
8093.697547085414
 30
0.0
 11
9153.334605198821
 21
8065.697547085413
 31
0.0
  0
LINE
  5
14E19
330
747D
100
AcDbEntity
  8
部品1
100
AcDbLine
 10
9153.334605198949
 20
9827.697547085438
 30
0.0
 11
9153.334605198949
 21
9855.697547085439
 31
0.0
  0
LINE
  5
15248
330
747D
100
AcDbEntity
  8
部品1
100
AcDbLine
 10
9153.33460519882
 20
8065.697547085425
 30
0.0
 11
9098.334605198807
 21
8065.697547085425
 31
0.0
  0
DIMENSION
  5
15330
330
747D
100
AcDbEntity
  8
寸法
 48
50.0
100
AcDbDimension
  2
*D5
 10
8988.334605198927
 20
2098.72121803705
 30
0.0
 11
9088.334605198928
 21
2098.72121803705
 31
0.0
 70
   160
 71
     5
 42
200.0000000000018
  3
INABA_S40G
100
AcDbAlignedDimension
 13
9188.334605198928
 23
2384.768547337427
 33
0.0
 14
8988.334605198927
 24
2384.768547337427
 34
0.0
100
AcDbRotatedDimension
  0
DIMENSION
  5
15A35
330
747D
100
AcDbEntity
  8
寸法
 48
50.0
100
AcDbDimension
  2
*D6
 10
10850.51781259958
 20
8863.753389528756
 30
0.0
 11
10850.51781259957
 21
9294.354254889571
 31
0.0
 70
   160
 71
     5
 42
853.0000000000109
  3
INABA_S40G
100
AcDbAlignedDimension
 13
10438.33460519894
 23
9827.197547085434
 33
0.0
 14
10438.33460519895
 24
8974.197547085422
 34
0.0
 50
90.0
100
AcDbRotatedDimension
  0
DIMENSION
  5
15A36
330
747D
100
AcDbEntity
  8
寸法
 48
50.0
100
AcDbDimension
  2
*D7
 10
10850.51781259957
 20
7983.753389528735
 30
0.0
 11
10850.51781259957
 21
8448.604254889561
 31
0.0
 70
   160
 71
     5
 42
852.9999999999981
  3
INABA_S40G
100
AcDbAlignedDimension
 13
10438.33460519895
 23
8947.19754708543
 33
0.0
 14
10438.33460519884
 24
8094.197547085432
 34
0.0
 50
90.0
100
AcDbRotatedDimension
  0
DIMENSION
  5
15A37
330
747D
100
AcDbEntity
  8
寸法
100
AcDbDimension
  2
*D8
 10
11115.76095093329
 20
8120.697547085427
 30
0.0
 11
11115.76095093328
 21
8960.697547085434
 31
0.0
 70
   160
  1
4X420=<>
 71
     5
 42
1680.000000000016
  3
INABA_S40G
100
AcDbAlignedDimension
 13
10468.33460519887
 23
9800.697547085446
 33
0.0
 14
10468.33460519885
 24
8120.697547085427
 34
0.0
 50
90.0
100
AcDbRotatedDimension
1001
ACAD
1000
DSTYLE
1002
{
1002
}
  0
DIMENSION
  5
15A38
330
747D
100
AcDbEntity
  8
寸法
100
AcDbDimension
  2
*D9
 10
11115.76095093329
 20
9800.697547085446
 30
0.0
 11
11115.76095093328
 21
10164.18282845968
 31
0.0
 70
   160
 71
     5
 42
54.99999999999636
  3
INABA_S40G
100
AcDbAlignedDimension
 13
10468.33460519887
 23
9855.697547085441
 33
0.0
 14
10468.33460519887
 24
9800.697547085446
 34
0.0
 50
90.0
100
AcDbRotatedDimension
1001
ACAD
1000
DSTYLE
1002
{
1002
}
  0
DIMENSION
  5
15A39
330
747D
100
AcDbEntity
  8
寸法
100
AcDbDimension
  2
*D10
 10
11384.19948223376
 20
8065.697547085433
 30
0.0
 11
11384.19948223376
 21
8960.697547085434
 31
0.0
 70
   160
 71
     5
 42
1790.000000000009
  3
INABA_S40G
100
AcDbAlignedDimension
 13
10468.33460519887
 23
9855.697547085441
 33
0.0
 14
10468.33460519885
 24
8065.697547085433
 34
0.0
 50
90.0
100
AcDbRotatedDimension
1001
ACAD
1000
DSTYLE
1002
{
1002
}
  0
DIMENSION
  5
15A3A
330
747D
100
AcDbEntity
  8
寸法
100
AcDbDimension
  2
*D11
 10
11115.76095093326
 20
8065.697547085433
 30
0.0
 11
11115.76095093326
 21
7757.212265711193
 31
0.0
 70
   160
 71
     5
 42
54.99999999999636
  3
INABA_S40G
100
AcDbAlignedDimension
 13
10468.33460519885
 23
8120.697547085427
 33
0.0
 14
10468.33460519885
 24
8065.697547085433
 34
0.0
 50
90.0
100
AcDbRotatedDimension
1001
ACAD
1000
DSTYLE
1002
{
1002
}
  0
DIMENSION
  5
15D37
330
747D
100
AcDbEntity
  8
寸法
100
AcDbDimension
  2
*D12
 10
10468.33460519892
 20
6904.008719371596
 30
0.0
 11
9780.756589959333
 21
6904.008719371596
 31
0.0
 70
   160
 71
     5
 42
1370.000000000078
  3
INABA_S40G
100
AcDbAlignedDimension
 13
9098.334605198843
 23
8065.697547085425
 33
0.0
 14
10468.33460519892
 24
8065.697547085399
 34
0.0
100
AcDbRotatedDimension
1001
ACAD
1000
DSTYLE
1002
{
1002
}
  0
LINE
  5
15D77
330
747D
100
AcDbEntity
  8
部品1
100
AcDbLine
 10
9401.599272230354
 20
6591.65442231178
 30
0.0
 11
9401.599272230354
 21
6351.762100766247
 31
0.0
  0
LINE
  5
15D78
330
747D
100
AcDbEntity
  8
部品1
100
AcDbLine
 10
9401.599272230354
 20
6351.762100766247
 30
0.0
 11
10165.06993845879
 21
6351.762100766247
 31
0.0
  0
LINE
  5
15D79
330
747D
100
AcDbEntity
  8
部品1
100
AcDbLine
 10
10165.06993845879
 20
6351.762100766247
 30
0.0
 11
10165.06993845879
 21
6591.65442231178
 31
0.0
  0
LINE
  5
15D7A
330
747D
100
AcDbEntity
  8
部品1
100
AcDbLine
 10
10165.06993845879
 20
6591.65442231178
 30
0.0
 11
9401.599272230354
 21
6591.65442231178
 31
0.0
  0
LINE
  5
15D7B
330
747D
100
AcDbEntity
  8
部品1
100
AcDbLine
 10
9401.599272230354
 20
1895.730284360017
 30
0.0
 11
9401.599272230354
 21
1655.837962814485
 31
0.0
  0
LINE
  5
15D7C
330
747D
100
AcDbEntity
  8
部品1
100
AcDbLine
 10
9401.599272230354
 20
1655.837962814485
 30
0.0
 11
10165.06993845879
 21
1655.837962814485
 31
0.0
  0
LINE
  5
15D7D
330
747D
100
AcDbEntity
  8
部品1
100
AcDbLine
 10
10165.06993845879
 20
1655.837962814485
 30
0.0
 11
10165.06993845879
 21
1895.730284360017
 31
0.0
  0
LINE
  5
15D7E
330
747D
100
AcDbEntity
  8
部品1
100
AcDbLine
 10
10165.06993845879
 20
1895.730284360017
 30
0.0
 11
9401.599272230354
 21
1895.730284360017
 31
0.0
  0
LINE
  5
15D7F
330
747D
100
AcDbEntity
  8
部品1
100
AcDbLine
 10
5695.13892598717
 20
1895.730284360017
 30
0.0
 11
5695.13892598717
 21
1655.837962814485
 31
0.0
  0
LINE
  5
15D80
330
747D
100
AcDbEntity
  8
部品1
100
AcDbLine
 10
5695.13892598717
 20
1655.837962814485
 30
0.0
 11
6458.609592215609
 21
1655.837962814485
 31
0.0
  0
LINE
  5
15D81
330
747D
100
AcDbEntity
  8
部品1
100
AcDbLine
 10
6458.609592215609
 20
1655.837962814485
 30
0.0
 11
6458.609592215609
 21
1895.730284360017
 31
0.0
  0
LINE
  5
15D82
330
747D
100
AcDbEntity
  8
部品1
100
AcDbLine
 10
6458.609592215609
 20
1895.730284360017
 30
0.0
 11
5695.13892598717
 21
1895.730284360017
 31
0.0
  0
DIMENSION
  5
15F11
330
747D
100
AcDbEntity
  8
寸法
 48
50.0
100
AcDbDimension
  2
*D14
 10
8827.128575986794
 20
2742.768547337427
 30
0.0
 11
8827.128575986794
 21
3596.401566354952
 31
0.0
 70
   160
  1
有効開口部高サ<>
 71
     5
 42
1725.0
  3
INABA_S40G
100
AcDbAlignedDimension
 13
9126.334605198945
 23
4467.768547337427
 33
0.0
 14
9126.334605198945
 24
2742.768547337427
 34
0.0
 50
90.0
100
AcDbRotatedDimension
1001
ACAD
1000
DSTYLE
1002
{
1070
   341
1005
0
1002
}
  0
LINE
  5
15F19
330
747D
100
AcDbEntity
  8
部品1
 48
50.0
100
AcDbLine
 10
9126.334605198945
 20
2684.768547337427
 30
0.0
 11
10440.33460519894
 21
2684.768547337427
 31
0.0
  0
DIMENSION
  5
15F65
330
747D
100
AcDbEntity
  8
寸法
100
AcDbDimension
  2
*D15
 10
8803.723359572126
 20
7990.697547085414
 30
0.0
 11
8803.723359572124
 21
7850.212265711175
 31
0.0
 70
   160
 71
     5
 42
75.0
  3
INABA_S40
100
AcDbAlignedDimension
 13
9098.334605198843
 23
8065.697547085413
 33
0.0
 14
9126.33460519882
 24
7990.697547085414
 34
0.0
 50
90.0
100
AcDbRotatedDimension
1001
ACAD
1000
DSTYLE
1002
{
1070
    41
1040
0.5
1070
    44
1040
1.0
1070
   147
1040
0.8
1070
   271
1070
     2
1070
   272
1070
     2
1070
   289
1070
     3
1070
   340
1005
F706
1070
   343
1005
15DA8
1070
   344
1005
15DA8
1002
}
  0
LINE
  5
16425
330
747D
100
AcDbEntity
  8
部品1
100
AcDbLine
 10
5181.874259101391
 20
4524.768547337426
 30
0.0
 11
6971.87425910139
 21
4524.768547337426
 31
0.0
  0
LINE
  5
16426
330
747D
100
AcDbEntity
  8
部品1
100
AcDbLine
 10
5181.874259101391
 20
2734.768547337427
 30
0.0
 11
6971.874259101395
 21
2734.768547337427
 31
0.0
  0
LINE
  5
16427
330
747D
100
AcDbEntity
  8
部品1
100
AcDbLine
 10
5181.874259101391
 20
2684.768547337427
 30
0.0
 11
5189.37425910139
 21
2684.768547337427
 31
0.0
  0
LINE
  5
16428
330
747D
100
AcDbEntity
  8
部品1
100
AcDbLine
 10
5236.874259101391
 20
4524.768547337426
 30
0.0
 11
5236.874259101391
 21
2734.768547337427
 31
0.0
  0
LINE
  5
16429
330
747D
100
AcDbEntity
  8
部品1
100
AcDbLine
 10
5181.874259101391
 20
4616.627066779675
 30
0.0
 11
5181.874259101391
 21
2584.768547337427
 31
0.0
  0
DIMENSION
  5
1642B
330
747D
100
AcDbEntity
  8
寸法
100
AcDbDimension
  2
*D20
 10
4558.221549943094
 20
2734.768547337428
 30
0.0
 11
4558.221549943093
 21
3625.222845879385
 31
0.0
 70
   160
 71
     5
 42
1789.999999999999
  3
INABA_S40G
100
AcDbAlignedDimension
 13
5181.874259101391
 23
4524.768547337426
 33
0.0
 14
5181.874259101391
 24
2734.768547337427
 34
0.0
 50
90.0
100
AcDbRotatedDimension
1001
ACAD
1000
DSTYLE
1002
{
1070
   174
1070
     0
1070
   272
1070
     1
1070
   288
1070
     0
1070
   341
1005
0
1002
}
  0
DIMENSION
  5
1642C
330
747D
100
AcDbEntity
  8
寸法
100
AcDbDimension
  2
*D21
 10
4273.234877172032
 20
4759.768547337431
 30
0.0
 11
4273.234877172032
 21
3678.974424830537
 31
0.0
 70
   160
 71
     5
 42
2075.000000000004
  3
INABA_S40G
100
AcDbAlignedDimension
 13
5181.874259101391
 23
2684.768547337427
 33
0.0
 14
5121.874259101391
 24
4759.768547337431
 34
0.0
 50
90.0
100
AcDbRotatedDimension
1001
ACAD
1000
DSTYLE
1002
{
1070
   174
1070
     0
1070
   272
1070
     1
1070
   288
1070
     0
1070
   341
1005
0
1002
}
  0
DIMENSION
  5
1642D
330
747D
100
AcDbEntity
  8
寸法
100
AcDbDimension
  2
*D22
 10
4273.234877172032
 20
2584.768547337427
 30
0.0
 11
4273.234877172032
 21
2348.721303242937
 31
0.0
 70
   160
 71
     5
 42
100.0000000000004
  3
INABA_S40G
100
AcDbAlignedDimension
 13
5126.87425910139
 23
2684.768547337427
 33
0.0
 14
4558.221549943093
 24
2584.768547337427
 34
0.0
 50
90.0
100
AcDbRotatedDimension
1001
ACAD
1000
DSTYLE
1002
{
1070
   174
1070
     0
1070
   272
1070
     1
1070
   288
1070
     0
1070
   341
1005
0
1002
}
  0
DIMENSION
  5
1642E
330
747D
100
AcDbEntity
  8
寸法
100
AcDbDimension
  2
*D23
 10
4558.221549943094
 20
2684.768547337427
 30
0.0
 11
4558.221549943093
 21
2378.721303242937
 31
0.0
 70
   160
 71
     5
 42
50.0
  3
INABA_S40G
100
AcDbAlignedDimension
 13
5181.874259101391
 23
2734.768547337427
 33
0.0
 14
5126.87425910139
 24
2684.768547337427
 34
0.0
 50
90.0
100
AcDbRotatedDimension
1001
ACAD
1000
DSTYLE
1002
{
1070
   174
1070
     0
1070
   272
1070
     1
1070
   288
1070
     0
1070
   341
1005
0
1002
}
  0
LINE
  5
1642F
330
747D
100
AcDbEntity
  8
部品1
100
AcDbLine
 10
5656.874259101391
 20
4524.768547337426
 30
0.0
 11
5656.874259101391
 21
2734.768547337427
 31
0.0
  0
LINE
  5
16430
330
747D
100
AcDbEntity
  8
部品1
100
AcDbLine
 10
6971.87425910139
 20
4579.650356023433
 30
0.0
 11
6971.874259101395
 21
2584.768547337427
 31
0.0
  0
LINE
  5
16431
330
747D
100
AcDbEntity
  8
部品1
100
AcDbLine
 10
6916.874259101394
 20
4524.768547337426
 30
0.0
 11
6916.874259101394
 21
2734.768547337427
 31
0.0
  0
DIMENSION
  5
16432
330
747D
100
AcDbEntity
  8
寸法
100
AcDbDimension
  2
*D24
 10
7584.044354863819
 20
4704.768547337428
 30
0.0
 11
7584.044354863817
 21
3667.024874767115
 31
0.0
 70
   160
 71
     5
 42
2020.000000000001
  3
INABA_S40G
100
AcDbAlignedDimension
 13
7048.874259101395
 23
2684.768547337427
 33
0.0
 14
7051.87425910139
 24
4704.768547337428
 34
0.0
 50
90.0
100
AcDbRotatedDimension
1001
ACAD
1000
DSTYLE
1002
{
1070
   174
1070
     0
1070
   272
1070
     1
1070
   288
1070
     0
1070
   341
1005
0
1002
}
  0
DIMENSION
  5
16435
330
747D
100
AcDbEntity
  8
寸法
 48
50.0
100
AcDbDimension
  2
*D25
 10
5181.874259101391
 20
5158.861716676899
 30
0.0
 11
6091.469907777871
 21
5158.861716676899
 31
0.0
 70
   160
  1
柱外寸法<>
 71
     5
 42
1790.0
  3
INABA_S40G
100
AcDbAlignedDimension
 13
6971.87425910139
 23
4706.57922694908
 33
0.0
 14
5181.874259101391
 24
4755.770165460403
 34
0.0
100
AcDbRotatedDimension
1001
ACAD
1000
DSTYLE
1002
{
1070
   174
1070
     0
1070
   272
1070
     1
1070
   288
1070
     0
1070
   341
1005
0
1002
}
  0
DIMENSION
  5
16436
330
747D
100
AcDbEntity
  8
寸法
 48
50.0
100
AcDbDimension
  2
*D26
 10
5121.874259101391
 20
5158.426000916731
 30
0.0
 11
4812.236463825801
 21
5158.426000916731
 31
0.0
 70
   160
 71
     5
 42
60.0
  3
INABA_S40G
100
AcDbAlignedDimension
 13
5181.874259101391
 23
4755.770165460403
 33
0.0
 14
5121.874259101391
 24
4759.768547337431
 34
0.0
100
AcDbRotatedDimension
1001
ACAD
1000
DSTYLE
1002
{
1070
   174
1070
     0
1070
   272
1070
     1
1070
   288
1070
     0
1070
   341
1005
0
1002
}
  0
DIMENSION
  5
16437
330
747D
100
AcDbEntity
  8
寸法
 48
50.0
100
AcDbDimension
  2
*D27
 10
5121.874259101391
 20
5375.387816295345
 30
0.0
 11
6027.68001035236
 21
5375.387816295345
 31
0.0
 70
   160
 71
     5
 42
1930.0
  3
INABA_S40G
100
AcDbAlignedDimension
 13
7051.87425910139
 23
4704.768547337428
 33
0.0
 14
5121.874259101391
 24
4759.768547337431
 34
0.0
100
AcDbRotatedDimension
1001
ACAD
1000
DSTYLE
1002
{
1070
   174
1070
     0
1070
   272
1070
     1
1070
   288
1070
     0
1070
   341
1005
0
1002
}
  0
LINE
  5
16438
330
747D
100
AcDbEntity
  8
破線
  6
HIDDEN
 48
5.0
100
AcDbLine
 10
6979.37425910139
 20
2429.768547337427
 30
0.0
 11
6909.37425910139
 21
2429.768547337427
 31
0.0
  0
LINE
  5
16439
330
747D
100
AcDbEntity
  8
破線
  6
HIDDEN
 48
5.0
100
AcDbLine
 10
6924.374259101391
 20
2579.768547337427
 30
0.0
 11
6909.37425910139
 21
2432.068547337426
 31
0.0
  0
LINE
  5
1643A
330
747D
100
AcDbEntity
  8
破線
  6
HIDDEN
 48
5.0
100
AcDbLine
 10
6909.37425910139
 20
2432.068547337426
 30
0.0
 11
6909.37425910139
 21
2429.768547337427
 31
0.0
  0
LINE
  5
1643B
330
747D
100
AcDbEntity
  8
破線
  6
HIDDEN
 48
5.0
100
AcDbLine
 10
6964.37425910139
 20
2579.768547337427
 30
0.0
 11
6979.37425910139
 21
2432.068547337426
 31
0.0
  0
LINE
  5
1643C
330
747D
100
AcDbEntity
  8
破線
  6
HIDDEN
 48
5.0
100
AcDbLine
 10
6979.37425910139
 20
2432.068547337426
 30
0.0
 11
6979.37425910139
 21
2429.768547337427
 31
0.0
  0
LINE
  5
1643D
330
747D
100
AcDbEntity
  8
破線
  6
HIDDEN
 48
5.0
100
AcDbLine
 10
5174.374259101391
 20
2429.768547337427
 30
0.0
 11
5244.374259101391
 21
2429.768547337427
 31
0.0
  0
LINE
  5
1643E
330
747D
100
AcDbEntity
  8
破線
  6
HIDDEN
 48
5.0
100
AcDbLine
 10
5174.374259101391
 20
2432.068547337426
 30
0.0
 11
5174.374259101391
 21
2429.768547337427
 31
0.0
  0
LINE
  5
1643F
330
747D
100
AcDbEntity
  8
破線
  6
HIDDEN
 48
5.0
100
AcDbLine
 10
5244.374259101391
 20
2432.068547337426
 30
0.0
 11
5244.374259101391
 21
2429.768547337427
 31
0.0
  0
LINE
  5
16440
330
747D
100
AcDbEntity
  8
破線
  6
HIDDEN
 48
5.0
100
AcDbLine
 10
5189.37425910139
 20
2579.768547337427
 30
0.0
 11
5174.374259101391
 21
2432.068547337426
 31
0.0
  0
LINE
  5
16441
330
747D
100
AcDbEntity
  8
破線
  6
HIDDEN
 48
5.0
100
AcDbLine
 10
5229.37425910139
 20
2579.768547337427
 30
0.0
 11
5244.374259101391
 21
2432.068547337426
 31
0.0
  0
LINE
  5
16442
330
747D
100
AcDbEntity
  8
部品1
 48
50.0
100
AcDbLine
 10
5189.37425910139
 20
2724.768547337427
 30
0.0
 11
5189.37425910139
 21
2584.768547337427
 31
0.0
  0
LINE
  5
16443
330
747D
100
AcDbEntity
  8
部品1
 48
50.0
100
AcDbLine
 10
5229.37425910139
 20
2724.768547337427
 30
0.0
 11
5229.37425910139
 21
2584.768547337427
 31
0.0
  0
LINE
  5
16444
330
747D
100
AcDbEntity
  8
部品1
100
AcDbLine
 10
5194.37425910139
 20
2729.768547337427
 30
0.0
 11
5224.374259101391
 21
2729.768547337427
 31
0.0
  0
ARC
  5
16445
330
747D
100
AcDbEntity
  8
部品1
 48
50.0
100
AcDbCircle
 10
5194.37425910139
 20
2724.768547337427
 30
0.0
 40
5.0
100
AcDbArc
 50
90.0
 51
180.0
  0
ARC
  5
16446
330
747D
100
AcDbEntity
  8
部品1
 48
50.0
100
AcDbCircle
 10
5224.374259101391
 20
2724.768547337427
 30
0.0
 40
5.0
100
AcDbArc
 50
0.0
 51
90.0
  0
LINE
  5
16447
330
747D
100
AcDbEntity
  8
部品1
 48
50.0
100
AcDbLine
 10
6924.374259101391
 20
2724.768547337427
 30
0.0
 11
6924.374259101391
 21
2584.768547337427
 31
0.0
  0
LINE
  5
16448
330
747D
100
AcDbEntity
  8
部品1
 48
50.0
100
AcDbLine
 10
6964.37425910139
 20
2724.768547337427
 30
0.0
 11
6964.37425910139
 21
2584.768547337427
 31
0.0
  0
LINE
  5
16449
330
747D
100
AcDbEntity
  8
部品1
100
AcDbLine
 10
6959.374259101391
 20
2729.768547337427
 30
0.0
 11
6929.374259101391
 21
2729.768547337427
 31
0.0
  0
ARC
  5
1644A
330
747D
100
AcDbEntity
  8
部品1
 48
50.0
100
AcDbCircle
 10
6929.374259101391
 20
2724.768547337427
 30
0.0
 40
5.0
100
AcDbArc
 50
90.0
 51
180.0
  0
ARC
  5
1644B
330
747D
100
AcDbEntity
  8
部品1
 48
50.0
100
AcDbCircle
 10
6959.374259101391
 20
2724.768547337427
 30
0.0
 40
5.0
100
AcDbArc
 50
0.0
 51
90.0
  0
LINE
  5
1644C
330
747D
100
AcDbEntity
  8
破線
  6
HIDDEN
 48
5.0
100
AcDbLine
 10
6924.374259101391
 20
2584.768547337427
 30
0.0
 11
6924.374259101391
 21
2579.768547337427
 31
0.0
  0
LINE
  5
1644D
330
747D
100
AcDbEntity
  8
破線
  6
HIDDEN
 48
5.0
100
AcDbLine
 10
6964.37425910139
 20
2584.768547337427
 30
0.0
 11
6964.37425910139
 21
2579.768547337427
 31
0.0
  0
LINE
  5
1644E
330
747D
100
AcDbEntity
  8
破線
  6
HIDDEN
 48
5.0
100
AcDbLine
 10
5189.374259101398
 20
2584.768547337427
 30
0.0
 11
5189.374259101398
 21
2579.768547337427
 31
0.0
  0
LINE
  5
1644F
330
747D
100
AcDbEntity
  8
破線
  6
HIDDEN
 48
5.0
100
AcDbLine
 10
5229.37425910139
 20
2584.768547337427
 30
0.0
 11
5229.37425910139
 21
2579.768547337427
 31
0.0
  0
LINE
  5
16450
330
747D
100
AcDbEntity
  8
部品1
100
AcDbLine
 10
6964.37425910139
 20
2684.768547337427
 30
0.0
 11
6971.874259101395
 21
2684.768547337427
 31
0.0
  0
LINE
  5
16451
330
747D
100
AcDbEntity
  8
部品1
100
AcDbLine
 10
5229.37425910139
 20
2684.768547337427
 30
0.0
 11
6924.374259101391
 21
2684.768547337427
 31
0.0
  0
LINE
  5
16454
330
747D
100
AcDbEntity
  8
細線
 48
50.0
100
AcDbLine
 10
5734.37425910139
 20
4524.768547337426
 30
0.0
 11
5734.37425910139
 21
2734.768547337427
 31
0.0
  0
LINE
  5
16455
330
747D
100
AcDbEntity
  8
細線
 48
50.0
100
AcDbLine
 10
5719.374259101391
 20
4524.768547337426
 30
0.0
 11
5719.374259101391
 21
2734.768547337427
 31
0.0
  0
LINE
  5
16456
330
747D
100
AcDbEntity
  8
細線
 48
50.0
100
AcDbLine
 10
5859.37425910139
 20
4524.768547337426
 30
0.0
 11
5859.37425910139
 21
2734.768547337427
 31
0.0
  0
LINE
  5
16457
330
747D
100
AcDbEntity
  8
細線
 48
50.0
100
AcDbLine
 10
5874.37425910139
 20
4524.768547337426
 30
0.0
 11
5874.37425910139
 21
2734.768547337427
 31
0.0
  0
LINE
  5
16458
330
747D
100
AcDbEntity
  8
細線
 48
50.0
100
AcDbLine
 10
6014.374259101391
 20
4524.768547337426
 30
0.0
 11
6014.374259101391
 21
2734.768547337427
 31
0.0
  0
LINE
  5
16459
330
747D
100
AcDbEntity
  8
細線
 48
50.0
100
AcDbLine
 10
5999.37425910139
 20
4524.768547337426
 30
0.0
 11
5999.37425910139
 21
2734.768547337427
 31
0.0
  0
LINE
  5
1645A
330
747D
100
AcDbEntity
  8
細線
 48
50.0
100
AcDbLine
 10
5579.374259101391
 20
4524.768547337426
 30
0.0
 11
5579.374259101391
 21
2734.768547337427
 31
0.0
  0
LINE
  5
1645B
330
747D
100
AcDbEntity
  8
細線
 48
50.0
100
AcDbLine
 10
5594.374259101391
 20
4524.768547337426
 30
0.0
 11
5594.374259101391
 21
2734.768547337427
 31
0.0
  0
LINE
  5
1645C
330
747D
100
AcDbEntity
  8
細線
 48
50.0
100
AcDbLine
 10
5454.374259101391
 20
4524.768547337426
 30
0.0
 11
5454.374259101391
 21
2734.768547337427
 31
0.0
  0
LINE
  5
1645D
330
747D
100
AcDbEntity
  8
細線
 48
50.0
100
AcDbLine
 10
5439.37425910139
 20
4524.768547337426
 30
0.0
 11
5439.37425910139
 21
2734.768547337427
 31
0.0
  0
LINE
  5
1645E
330
747D
100
AcDbEntity
  8
細線
 48
50.0
100
AcDbLine
 10
5299.374259101391
 20
4524.768547337426
 30
0.0
 11
5299.374259101391
 21
2734.768547337427
 31
0.0
  0
LINE
  5
1645F
330
747D
100
AcDbEntity
  8
細線
 48
50.0
100
AcDbLine
 10
5314.37425910139
 20
4524.768547337426
 30
0.0
 11
5314.37425910139
 21
2734.768547337427
 31
0.0
  0
LINE
  5
16460
330
747D
100
AcDbEntity
  8
部品1
100
AcDbLine
 10
5129.419245458354
 20
4758.486282671693
 30
0.0
 11
7044.486135962852
 21
4703.409345046567
 31
0.0
  0
LINE
  5
16461
330
747D
100
AcDbEntity
  8
部品1
100
AcDbLine
 10
5137.216823703344
 20
4617.549572406394
 30
0.0
 11
7026.537959641235
 21
4578.521147172189
 31
0.0
  0
LINE
  5
16462
330
747D
100
AcDbEntity
  8
細線
 48
50.0
100
AcDbLine
 10
5154.87425910139
 20
4757.16822371283
 30
0.0
 11
5149.585157545883
 21
4617.082591085477
 31
0.0
  0
LINE
  5
16463
330
747D
100
AcDbEntity
  8
細線
 48
50.0
100
AcDbLine
 10
7018.874259101391
 20
4704.735526372723
 30
0.0
 11
7014.126576213391
 21
4578.989753881979
 31
0.0
  0
LINE
  5
16464
330
747D
100
AcDbEntity
  8
部品1
 48
50.0
100
AcDbLine
 10
5122.058545014497
 20
4751.36209350212
 30
0.0
 11
5122.438804792309
 21
4731.435129055706
 31
0.0
  0
LINE
  5
16465
330
747D
100
AcDbEntity
  8
部品1
 48
50.0
100
AcDbLine
 10
5125.507576898556
 20
4727.859847562235
 30
0.0
 11
5127.21147838992
 21
4638.569350855589
 31
0.0
  0
LINE
  5
16466
330
747D
100
AcDbEntity
  8
細線
 48
50.0
100
AcDbLine
 10
5122.913682202205
 20
4730.785629178788
 30
0.0
 11
7048.549666947372
 21
4675.161424537961
 31
0.0
  0
LINE
  5
16467
330
747D
100
AcDbEntity
  8
細線
 48
50.0
100
AcDbLine
 10
5127.674157439491
 20
4637.924117480926
 30
0.0
 11
7037.677821870126
 21
4598.114798506432
 31
0.0
  0
LINE
  5
16468
330
747D
100
AcDbEntity
  8
部品1
 48
50.0
100
AcDbLine
 10
5130.280250496162
 20
4634.994069362116
 30
0.0
 11
5130.482203116593
 21
4624.411033969024
 31
0.0
  0
ARC
  5
16469
330
747D
100
AcDbEntity
  8
部品1
 48
50.0
100
AcDbCircle
 10
5129.057270842837
 20
4751.495647909546
 30
0.0
 40
7.0
100
AcDbArc
 50
87.03587545283127
 51
181.0932240292895
  0
ARC
  5
1646A
330
747D
100
AcDbEntity
  8
部品1
 48
50.0
100
AcDbCircle
 10
5137.480928944933
 20
4624.544588376452
 30
0.0
 40
7.0
100
AcDbArc
 50
181.0932240292895
 51
267.837755986949
  0
ARC
  5
1646B
330
747D
100
AcDbEntity
  8
部品1
100
AcDbCircle
 10
5127.280796569732
 20
4634.936831758933
 30
0.0
 40
3.0
100
AcDbArc
 50
1.093224029289586
 51
80.18775403148559
  0
ARC
  5
1646C
330
747D
100
AcDbEntity
  8
部品1
100
AcDbCircle
 10
5122.508122972125
 20
4727.802609959052
 30
0.0
 40
3.0
100
AcDbArc
 50
1.093224029289586
 51
80.18775403169431
  0
ARC
  5
1646D
330
747D
100
AcDbEntity
  8
部品1
100
AcDbCircle
 10
5123.138677375147
 20
4731.448484496451
 30
0.0
 40
0.7
100
AcDbArc
 50
181.0932240292375
 51
260.187754031489
  0
ARC
  5
1646E
330
747D
100
AcDbEntity
  8
部品1
100
AcDbCircle
 10
5127.911350972758
 20
4638.58270629633
 30
0.0
 40
0.7
100
AcDbArc
 50
181.0932240292375
 51
260.187754031489
  0
LINE
  5
1646F
330
747D
100
AcDbEntity
  8
部品1
 48
50.0
100
AcDbLine
 10
7051.088161912092
 20
4695.709699611646
 30
0.0
 11
7049.057540721122
 21
4675.764658353865
 31
0.0
  0
LINE
  5
16470
330
747D
100
AcDbEntity
  8
部品1
 48
50.0
100
AcDbLine
 10
7045.704974236639
 20
4672.454024280957
 30
0.0
 11
7038.198194971802
 21
4598.721403535943
 31
0.0
  0
LINE
  5
16471
330
747D
100
AcDbEntity
  8
部品1
 48
50.0
100
AcDbLine
 10
7034.845628487317
 20
4595.410769463032
 30
0.0
 11
7033.766065447577
 21
4584.807152469472
 31
0.0
  0
ARC
  5
16472
330
747D
100
AcDbEntity
  8
部品1
 48
50.0
100
AcDbCircle
 10
7044.124161347337
 20
4696.41871028442
 30
0.0
 40
7.0
100
AcDbArc
 50
354.1866997665337
 51
87.03587545283127
  0
ARC
  5
16473
330
747D
100
AcDbEntity
  8
部品1
 48
50.0
100
AcDbCircle
 10
7026.802064882821
 20
4585.516163142246
 30
0.0
 40
7.0
100
AcDbArc
 50
267.837755986949
 51
354.1866997665337
  0
ARC
  5
16474
330
747D
100
AcDbEntity
  8
部品1
100
AcDbCircle
 10
7037.830200157926
 20
4595.10690774613
 30
0.0
 40
3.0
100
AcDbArc
 50
95.0921697642102
 51
174.1866997665305
  0
ARC
  5
16475
330
747D
100
AcDbEntity
  8
部品1
100
AcDbCircle
 10
7048.689545907251
 20
4672.150162564054
 30
0.0
 40
3.0
100
AcDbArc
 50
95.09216976421106
 51
174.1866997665305
  0
ARC
  5
16476
330
747D
100
AcDbEntity
  8
部品1
100
AcDbCircle
 10
7048.361140664649
 20
4675.835559421144
 30
0.0
 40
0.7
100
AcDbArc
 50
275.0921697642102
 51
354.1866997665337
  0
ARC
  5
16477
330
747D
100
AcDbEntity
  8
部品1
100
AcDbCircle
 10
7037.50179491533
 20
4598.79230460322
 30
0.0
 40
0.7
100
AcDbArc
 50
275.0921697642102
 51
354.186699766686
  0
DIMENSION
  5
16478
330
747D
100
AcDbEntity
  8
寸法
 48
50.0
100
AcDbDimension
  2
*D16
 10
7051.87425910139
 20
5158.426000916731
 30
0.0
 11
7257.921503195881
 21
5158.426000916731
 31
0.0
 70
   160
 71
     5
 42
80.0
  3
INABA_S40G
100
AcDbAlignedDimension
 13
6971.87425910139
 23
4706.57922694908
 33
0.0
 14
7051.87425910139
 24
4704.768547337428
 34
0.0
100
AcDbRotatedDimension
1001
ACAD
1000
DSTYLE
1002
{
1070
   174
1070
     0
1070
   272
1070
     1
1070
   288
1070
     0
1070
   341
1005
0
1002
}
  0
LINE
  5
16479
330
747D
100
AcDbEntity
  8
部品1
 48
50.0
100
AcDbLine
 10
5926.87425910139
 20
4890.636686438707
 30
0.0
 11
6226.874259101391
 21
4890.636686438707
 31
0.0
  0
LINE
  5
1647A
330
747D
100
AcDbEntity
  8
部品1
 48
50.0
100
AcDbLine
 10
6226.874259101391
 20
4890.636686438707
 30
0.0
 11
6226.874259101391
 21
4874.436686438707
 31
0.0
  0
TEXT
  5
1647B
330
747D
100
AcDbEntity
  8
部品1
 48
50.0
100
AcDbText
 10
5915.142094325118
 20
4926.52070859114
 30
0.0
 40
120.0
  1
1000
  7
STYLE1
100
AcDbText
  0
TEXT
  5
1647C
330
747D
100
AcDbEntity
  8
部品1
 48
50.0
100
AcDbText
 10
6403.96710638925
 20
4789.019450372857
 30
0.0
 40
120.0
  1
54
 50
90.0
  7
STYLE1
100
AcDbText
  0
LINE
  5
1647D
330
747D
100
AcDbEntity
  8
部品1
100
AcDbLine
 10
6076.874259101391
 20
4524.768547337426
 30
0.0
 11
6076.874259101391
 21
2734.768547337427
 31
0.0
  0
LINE
  5
1647E
330
747D
100
AcDbEntity
  8
細線
 48
50.0
100
AcDbLine
 10
6419.374259101394
 20
4524.768547337426
 30
0.0
 11
6419.374259101394
 21
2734.768547337427
 31
0.0
  0
LINE
  5
1647F
330
747D
100
AcDbEntity
  8
細線
 48
50.0
100
AcDbLine
 10
6434.374259101395
 20
4524.768547337426
 30
0.0
 11
6434.374259101395
 21
2734.768547337427
 31
0.0
  0
LINE
  5
16480
330
747D
100
AcDbEntity
  8
細線
 48
50.0
100
AcDbLine
 10
6294.374259101394
 20
4524.768547337426
 30
0.0
 11
6294.374259101394
 21
2734.768547337427
 31
0.0
  0
LINE
  5
16481
330
747D
100
AcDbEntity
  8
細線
 48
50.0
100
AcDbLine
 10
6279.374259101395
 20
4524.768547337426
 30
0.0
 11
6279.374259101395
 21
2734.768547337427
 31
0.0
  0
LINE
  5
16482
330
747D
100
AcDbEntity
  8
細線
 48
50.0
100
AcDbLine
 10
6139.374259101394
 20
4524.768547337426
 30
0.0
 11
6139.374259101394
 21
2734.768547337427
 31
0.0
  0
LINE
  5
16483
330
747D
100
AcDbEntity
  8
細線
 48
50.0
100
AcDbLine
 10
6154.374259101395
 20
4524.768547337426
 30
0.0
 11
6154.374259101395
 21
2734.768547337427
 31
0.0
  0
LINE
  5
16484
330
747D
100
AcDbEntity
  8
部品1
100
AcDbLine
 10
6496.874259101391
 20
4524.768547337426
 30
0.0
 11
6496.874259101391
 21
2734.768547337427
 31
0.0
  0
LINE
  5
16485
330
747D
100
AcDbEntity
  8
細線
 48
50.0
100
AcDbLine
 10
6574.374259101398
 20
4524.768547337426
 30
0.0
 11
6574.374259101398
 21
2734.768547337427
 31
0.0
  0
LINE
  5
16486
330
747D
100
AcDbEntity
  8
細線
 48
50.0
100
AcDbLine
 10
6559.374259101398
 20
4524.768547337426
 30
0.0
 11
6559.374259101398
 21
2734.768547337427
 31
0.0
  0
LINE
  5
16487
330
747D
100
AcDbEntity
  8
細線
 48
50.0
100
AcDbLine
 10
6699.374259101398
 20
4524.768547337426
 30
0.0
 11
6699.374259101398
 21
2734.768547337427
 31
0.0
  0
LINE
  5
16488
330
747D
100
AcDbEntity
  8
細線
 48
50.0
100
AcDbLine
 10
6714.374259101397
 20
4524.768547337426
 30
0.0
 11
6714.374259101397
 21
2734.768547337427
 31
0.0
  0
LINE
  5
16489
330
747D
100
AcDbEntity
  8
細線
 48
50.0
100
AcDbLine
 10
6854.374259101398
 20
4524.768547337426
 30
0.0
 11
6854.374259101398
 21
2734.768547337427
 31
0.0
  0
LINE
  5
1648A
330
747D
100
AcDbEntity
  8
細線
 48
50.0
100
AcDbLine
 10
6839.374259101397
 20
4524.768547337426
 30
0.0
 11
6839.374259101397
 21
2734.768547337427
 31
0.0
  0
DIMENSION
  5
1648D
330
747D
100
AcDbEntity
  8
寸法
 48
50.0
100
AcDbDimension
  2
*D17
 10
4561.265852333027
 20
4634.113806210757
 30
0.0
 11
4571.931327591952
 21
5004.960469452456
 31
0.0
 70
   161
 71
     5
 42
141.0
  3
INABA_S40G
100
AcDbAlignedDimension
 13
5141.27027925997
 23
4758.491296172106
 33
0.0
 14
5137.216823703344
 24
4617.549572406394
 34
0.0
1001
ACAD
1000
DSTYLE
1002
{
1070
   174
1070
     0
1070
   272
1070
     1
1070
   288
1070
     0
1070
   341
1005
0
1002
}
  0
LINE
  5
1648E
330
747D
100
AcDbEntity
  8
部品1
 48
50.0
100
AcDbLine
 10
5926.87425910139
 20
4890.636686438707
 30
0.0
 11
6226.874259101391
 21
4874.436686438707
 31
0.0
  0
DIMENSION
  5
1648F
330
747D
100
AcDbEntity
  8
寸法
 48
50.0
100
AcDbDimension
  2
*D18
 10
4959.874255854757
 20
2584.768547337426
 30
0.0
 11
4959.874255854757
 21
2484.768547337426
 31
0.0
 70
   160
 71
     5
 42
200.0000000000009
  3
INABA_S40G
100
AcDbAlignedDimension
 13
5109.374259101394
 23
2384.768547337426
 33
0.0
 14
5084.374259101391
 24
2584.768547337426
 34
0.0
 50
90.0
100
AcDbRotatedDimension
1001
ACAD
1000
DSTYLE
1002
{
1070
   174
1070
     0
1070
   272
1070
     1
1070
   288
1070
     0
1070
   341
1005
0
1002
}
  0
LINE
  5
16490
330
747D
100
AcDbEntity
  8
破線
 48
5.0
100
AcDbLine
 10
5309.374259101391
 20
2384.768547337425
 30
0.0
 11
5109.374259101394
 21
2384.768547337425
 31
0.0
  0
LINE
  5
16491
330
747D
100
AcDbEntity
  8
破線
 48
5.0
100
AcDbLine
 10
5309.374259101391
 20
2584.768547337427
 30
0.0
 11
5309.374259101391
 21
2384.768547337425
 31
0.0
  0
LINE
  5
16492
330
747D
100
AcDbEntity
  8
破線
 48
5.0
100
AcDbLine
 10
5109.37425910139
 20
2584.768547337427
 30
0.0
 11
5109.374259101394
 21
2384.768547337425
 31
0.0
  0
DIMENSION
  5
16493
330
747D
100
AcDbEntity
  8
寸法
 48
50.0
100
AcDbDimension
  2
*D19
 10
5109.374259101394
 20
2098.721218037049
 30
0.0
 11
5209.374259101393
 21
2098.721218037049
 31
0.0
 70
   160
 71
     5
 42
199.9999999999963
  3
INABA_S40G
100
AcDbAlignedDimension
 13
5309.374259101391
 23
2384.768547337424
 33
0.0
 14
5109.374259101394
 24
2384.768547337426
 34
0.0
100
AcDbRotatedDimension
  0
LINE
  5
16494
330
747D
100
AcDbEntity
  8
破線
 48
5.0
100
AcDbLine
 10
7044.374259101399
 20
2584.768547337427
 30
0.0
 11
7044.374259101394
 21
2384.768547337425
 31
0.0
  0
LINE
  5
16495
330
747D
100
AcDbEntity
  8
破線
 48
5.0
100
AcDbLine
 10
7044.374259101394
 20
2384.768547337425
 30
0.0
 11
6844.374259101399
 21
2384.768547337427
 31
0.0
  0
LINE
  5
16496
330
747D
100
AcDbEntity
  8
破線
 48
5.0
100
AcDbLine
 10
6844.374259101399
 20
2584.768547337427
 30
0.0
 11
6844.374259101399
 21
2384.768547337427
 31
0.0
  0
TEXT
  5
1656B
330
747D
100
AcDbEntity
  8
文字
 62
     7
 48
50.0
100
AcDbText
 10
14491.96323844892
 20
483.8967129911411
 30
0.0
 40
160.0
  1
ＮＸＮ－２５ＣＳＡ
  7
STYLE2
100
AcDbText
  0
MTEXT
  5
16ABC
330
747D
100
AcDbEntity
  8
寸法
 62
     7
 48
50.0
100
AcDbMText
 10
10057.50234654546
 20
9400.643295337884
 30
0.0
 40
96.0
 41
0.0
 71
     5
 72
     1
  1
棚 2段
  7
STYLE1
 11
0.0000000000000001
 21
1.0
 31
0.0
 73
     1
 44
1.0
1001
ACAD
1000
MTEXTBEGIN
1070
    73
1070
     1
1070
    44
1040
1.0
1070
    74
1070
     0
1000
MTEXTEND
  0
MTEXT
  5
16ABD
330
747D
100
AcDbEntity
  8
寸法
 62
     7
 48
50.0
100
AcDbMText
 10
10057.50234654541
 20
8520.643295337881
 30
0.0
 40
96.0
 41
0.0
 71
     5
 72
     1
  1
棚 2段
  7
STYLE1
 11
0.0000000000000001
 21
1.0
 31
0.0
 73
     1
 44
1.0
1001
ACAD
1000
MTEXTBEGIN
1070
    73
1070
     1
1070
    44
1040
1.0
1070
    74
1070
     0
1000
MTEXTEND
  0
LINE
  5
16BD0
330
747D
100
AcDbEntity
  8
破線
 48
5.0
100
AcDbLine
 10
8988.334605198931
 20
2584.768547337428
 30
0.0
 11
8988.334605198932
 21
2384.768547337427
 31
0.0
  0
LINE
  5
16BD1
330
747D
100
AcDbEntity
  8
破線
 48
5.0
100
AcDbLine
 10
9188.33460519893
 20
2584.768547337428
 30
0.0
 11
9188.334605198928
 21
2384.768547337427
 31
0.0
  0
LINE
  5
16BD2
330
747D
100
AcDbEntity
  8
破線
 48
5.0
100
AcDbLine
 10
9188.334605198928
 20
2384.768547337427
 30
0.0
 11
8988.334605198932
 21
2384.768547337427
 31
0.0
  0
LINE
  5
16BD3
330
747D
100
AcDbEntity
  8
破線
 48
5.0
100
AcDbLine
 10
10568.33460519895
 20
2584.768547337427
 30
0.0
 11
10568.33460519895
 21
2384.768547337425
 31
0.0
  0
LINE
  5
16BD4
330
747D
100
AcDbEntity
  8
破線
 48
5.0
100
AcDbLine
 10
10568.33460519895
 20
2384.768547337425
 30
0.0
 11
10368.33460519895
 21
2384.768547337426
 31
0.0
  0
LINE
  5
16BD5
330
747D
100
AcDbEntity
  8
破線
 48
5.0
100
AcDbLine
 10
10368.33460519895
 20
2584.768547337427
 30
0.0
 11
10368.33460519895
 21
2384.768547337426
 31
0.0
  0
LINE
  5
16C7D
330
747D
100
AcDbEntity
  8
部品1
100
AcDbLine
 10
9098.334605198928
 20
2734.768547337427
 30
0.0
 11
9126.334605198945
 21
2734.768547337428
 31
0.0
  0
LINE
  5
16C93
330
747D
100
AcDbEntity
  8
部品1
100
AcDbLine
 10
9098.334605198928
 20
2684.768547337427
 30
0.0
 11
10468.33460519895
 21
2684.768547337427
 31
0.0
  0
LINE
  5
16C94
330
747D
100
AcDbEntity
  8
部品1
100
AcDbLine
 10
9098.334605198928
 20
4524.768547337426
 30
0.0
 11
10468.33460519895
 21
4524.768547337426
 31
0.0
  0
DIMENSION
  5
16C95
330
747D
100
AcDbEntity
  8
寸法
 48
50.0
100
AcDbDimension
  2
*D28
 10
10518.33460519894
 20
5375.387816295345
 30
0.0
 11
9783.334605198938
 21
5375.387816295345
 31
0.0
 70
   160
 71
     5
 42
1470.000000000018
  3
INABA_S40G
100
AcDbAlignedDimension
 13
9048.334605198929
 23
4759.768547337432
 33
0.0
 14
10518.33460519894
 24
4759.768547337429
 34
0.0
100
AcDbRotatedDimension
  0
LINE
  5
16C96
330
747D
100
AcDbEntity
  8
部品1
100
AcDbLine
 10
9098.334605198928
 20
4578.268547337426
 30
0.0
 11
9098.334605198928
 21
2584.768547337427
 31
0.0
  0
LINE
  5
16C97
330
747D
100
AcDbEntity
  8
部品1
100
AcDbLine
 10
10413.33460519894
 20
4524.768547337426
 30
0.0
 11
10413.33460519895
 21
4519.768547337426
 31
0.0
  0
LINE
  5
16C98
330
747D
100
AcDbEntity
  8
部品1
100
AcDbLine
 10
9153.334605198928
 20
4524.768547337426
 30
0.0
 11
9153.334605198928
 21
4519.768547337426
 31
0.0
  0
LINE
  5
16C99
330
747D
100
AcDbEntity
  8
部品1
100
AcDbLine
 10
10468.33460519895
 20
4578.268547337426
 30
0.0
 11
10468.33460519895
 21
2584.768547337427
 31
0.0
  0
DIMENSION
  5
16C9C
330
747D
100
AcDbEntity
  8
寸法
 48
50.0
100
AcDbDimension
  2
*D29
 10
10468.33460519895
 20
5158.861716676899
 30
0.0
 11
10831.81988657318
 21
5158.861716676899
 31
0.0
 70
   160
 71
     5
 42
50.0
  3
INABA_S40G
100
AcDbAlignedDimension
 13
10518.33460519894
 23
4759.768547337429
 33
0.0
 14
10468.33460519895
 24
4759.768547337432
 34
0.0
100
AcDbRotatedDimension
  0
DIMENSION
  5
16C9D
330
747D
100
AcDbEntity
  8
寸法
 48
50.0
100
AcDbDimension
  2
*D30
 10
9048.334605198929
 20
5158.861716676899
 30
0.0
 11
8734.849323824681
 21
5158.861716676899
 31
0.0
 70
   160
 71
     5
 42
50.0
  3
INABA_S40G
100
AcDbAlignedDimension
 13
9098.334605198928
 23
4759.768547337433
 33
0.0
 14
9048.334605198929
 24
4759.768547337432
 34
0.0
100
AcDbRotatedDimension
1001
ACAD
1000
DSTYLE
1002
{
1002
}
  0
LINE
  5
16C9E
330
747D
100
AcDbEntity
  8
部品1
100
AcDbLine
 10
10473.33460519894
 20
2729.768547337427
 30
0.0
 11
10473.33460519894
 21
2584.768547337427
 31
0.0
  0
LINE
  5
16C9F
330
747D
100
AcDbEntity
  8
破線
 48
5.0
100
AcDbLine
 10
10493.33460519894
 20
2429.768547337427
 30
0.0
 11
10473.33460519894
 21
2429.768547337427
 31
0.0
  0
LINE
  5
16CA0
330
747D
100
AcDbEntity
  8
部品1
100
AcDbLine
 10
9093.334605198929
 20
2729.768547337429
 30
0.0
 11
9093.334605198929
 21
2584.768547337427
 31
0.0
  0
LINE
  5
16CA1
330
747D
100
AcDbEntity
  8
破線
 48
5.0
100
AcDbLine
 10
9073.334605198928
 20
2429.768547337427
 30
0.0
 11
9093.334605198929
 21
2429.768547337427
 31
0.0
  0
LINE
  5
16CA2
330
747D
100
AcDbEntity
  8
破線
 48
5.0
100
AcDbLine
 10
10473.33460519894
 20
2584.768547337427
 30
0.0
 11
10473.33460519894
 21
2429.768547337427
 31
0.0
  0
LINE
  5
16CA3
330
747D
100
AcDbEntity
  8
破線
 48
5.0
100
AcDbLine
 10
9093.334605198929
 20
2584.768547337427
 30
0.0
 11
9093.334605198929
 21
2429.768547337427
 31
0.0
  0
DIMENSION
  5
16CA4
330
747D
100
AcDbEntity
  8
寸法
 48
50.0
100
AcDbDimension
  2
*D31
 10
9098.334605198928
 20
5158.861716676899
 30
0.0
 11
9783.334605198936
 21
5158.861716676899
 31
0.0
 70
   160
  1
柱外寸法<>
 71
     5
 42
1370.000000000018
  3
INABA_S40G
100
AcDbAlignedDimension
 13
10468.33460519895
 23
4759.768547337432
 33
0.0
 14
9098.334605198928
 24
4759.768547337433
 34
0.0
100
AcDbRotatedDimension
  0
LINE
  5
16E50
330
747D
100
AcDbEntity
  8
部品1
 48
50.0
100
AcDbLine
 10
9080.823515294655
 20
4657.357479837325
 30
0.0
 11
10485.84569510322
 21
4657.357479837323
 31
0.0
  0
LINE
  5
16E52
330
747D
100
AcDbEntity
  8
部品1
100
AcDbLine
 10
10468.40523319214
 20
4735.368547345895
 30
0.0
 11
10427.83460519893
 21
4735.368547345895
 31
0.0
  0
LINE
  5
16E53
330
747D
100
AcDbEntity
  8
部品1
 48
50.0
100
AcDbLine
 10
10425.33460519893
 20
4754.768547345899
 30
0.0
 11
10427.83460519894
 21
4735.368547345898
 31
0.0
  0
LINE
  5
16E54
330
747D
100
AcDbEntity
  8
部品1
 48
50.0
100
AcDbLine
 10
10386.12326499275
 20
4745.368547345898
 30
0.0
 11
10384.83460519894
 21
4735.368547345898
 31
0.0
  0
LINE
  5
16E55
330
747D
100
AcDbEntity
  8
部品1
 48
50.0
100
AcDbLine
 10
10386.12326499275
 20
4745.368547345898
 30
0.0
 11
10400.12326499275
 21
4745.368547345898
 31
0.0
  0
LINE
  5
16E56
330
747D
100
AcDbEntity
  8
部品1
 48
50.0
100
AcDbLine
 10
10401.33460519893
 20
4754.768547345899
 30
0.0
 11
10400.12326499275
 21
4745.368547345898
 31
0.0
  0
LINE
  5
16E57
330
747D
100
AcDbEntity
  8
細線
 48
50.0
100
AcDbLine
 10
10468.40523319214
 20
4676.740380085376
 30
0.0
 11
10516.46847447609
 21
4676.740380085383
 31
0.0
  0
LINE
  5
16E58
330
747D
100
AcDbEntity
  8
細線
 48
50.0
100
AcDbLine
 10
10485.84569510322
 20
4704.768547337426
 30
0.0
 11
10485.84569510322
 21
4578.268547337426
 31
0.0
  0
ARC
  5
16E59
330
747D
100
AcDbEntity
  8
部品1
100
AcDbCircle
 10
10511.34856138173
 20
4752.768547354325
 30
0.0
 40
7.0
100
AcDbArc
 50
356.3813705198688
 51
90.0
  0
LINE
  5
16E5A
330
747D
100
AcDbEntity
  8
部品1
100
AcDbLine
 10
10473.40523319214
 20
4759.768547354325
 30
0.0
 11
10511.34856138173
 21
4759.768547354325
 31
0.0
  0
ARC
  5
16E5B
330
747D
100
AcDbEntity
  8
部品1
100
AcDbCircle
 10
10473.40523319214
 20
4754.768547354325
 30
0.0
 40
5.0
100
AcDbArc
 50
90.0
 51
180.0
  0
LINE
  5
16E5C
330
747D
100
AcDbEntity
  8
部品1
 48
50.0
100
AcDbLine
 10
10518.33460519894
 20
4697.326742194838
 30
0.0
 11
10518.33460519894
 21
4752.326742211736
 31
0.0
  0
LINE
  5
16E5D
330
747D
100
AcDbEntity
  8
部品1
100
AcDbLine
 10
10468.40523319214
 20
4754.768547354325
 30
0.0
 11
10468.40523319214
 21
4657.357479837325
 31
0.0
  0
ARC
  5
16E5E
330
747D
100
AcDbEntity
  8
部品1
100
AcDbCircle
 10
10473.40523319214
 20
4699.768547337426
 30
0.0
 40
5.0
100
AcDbArc
 50
90.0
 51
180.0
  0
LINE
  5
16E5F
330
747D
100
AcDbEntity
  8
部品1
100
AcDbLine
 10
10473.40523319214
 20
4704.768547337426
 30
0.0
 11
10511.34856138173
 21
4704.768547337426
 31
0.0
  0
LINE
  5
16E60
330
747D
100
AcDbEntity
  8
部品1
100
AcDbLine
 10
10517.07406714037
 20
4677.394484143756
 30
0.0
 11
10518.33460519894
 21
4697.326742194838
 31
0.0
  0
LINE
  5
16E61
330
747D
100
AcDbEntity
  8
部品1
100
AcDbLine
 10
10505.20799435296
 20
4584.826742194837
 30
0.0
 11
10505.88032005755
 21
4595.457892398537
 31
0.0
  0
ARC
  5
16E62
330
747D
100
AcDbEntity
  8
部品1
100
AcDbCircle
 10
10511.34856138173
 20
4697.768547337426
 30
0.0
 40
7.0
100
AcDbArc
 50
356.3813705198688
 51
90.0
  0
ARC
  5
16E63
330
747D
100
AcDbEntity
  8
部品1
100
AcDbCircle
 10
10498.22195053575
 20
4585.268547337427
 30
0.0
 40
7.0
100
AcDbArc
 50
270.0
 51
356.3813705198688
  0
ARC
  5
16E64
330
747D
100
AcDbEntity
  8
部品1
100
AcDbCircle
 10
10508.87433883635
 20
4595.268547337426
 30
0.0
 40
3.0
100
AcDbArc
 50
90.0
 51
176.3813705198687
  0
ARC
  5
16E65
330
747D
100
AcDbEntity
  8
部品1
100
AcDbCircle
 10
10508.40504271115
 20
4598.938664658016
 30
0.0
 40
0.7
100
AcDbArc
 50
277.2868405165423
 51
356.3813705198688
  0
LINE
  5
16E66
330
747D
100
AcDbEntity
  8
部品1
100
AcDbLine
 10
10513.85074010504
 20
4673.957892398538
 30
0.0
 11
10509.10364709288
 21
4598.894484143755
 31
0.0
  0
ARC
  5
16E67
330
747D
100
AcDbEntity
  8
部品1
100
AcDbCircle
 10
10516.84475888384
 20
4673.768547337426
 30
0.0
 40
3.0
100
AcDbArc
 50
90.0
 51
176.3813705198687
  0
ARC
  5
16E68
330
747D
100
AcDbEntity
  8
部品1
100
AcDbCircle
 10
10516.37546275865
 20
4677.438664658016
 30
0.0
 40
0.7
100
AcDbArc
 50
277.2868405165423
 51
356.3813705198688
  0
LINE
  5
16E69
330
747D
100
AcDbEntity
  8
部品1
 48
50.0
100
AcDbLine
 10
10473.40523319214
 20
4704.768547337426
 30
0.0
 11
10511.34856138173
 21
4704.768547337426
 31
0.0
  0
LINE
  5
16E6A
330
747D
100
AcDbEntity
  8
部品1
 48
50.0
100
AcDbLine
 10
10401.33460519893
 20
4754.768547345899
 30
0.0
 11
10425.33460519893
 21
4754.768547345899
 31
0.0
  0
LINE
  5
16E6B
330
747D
100
AcDbEntity
  8
部品1
100
AcDbLine
 10
10422.33460519893
 20
4754.768547345899
 30
0.0
 11
10422.33460519893
 21
4657.357479837325
 31
0.0
  0
LINE
  5
16E6C
330
747D
100
AcDbEntity
  8
部品1
100
AcDbLine
 10
10404.33460519893
 20
4754.768547345888
 30
0.0
 11
10404.33460519893
 21
4657.357479837323
 31
0.0
  0
LINE
  5
16E6D
330
747D
100
AcDbEntity
  8
細線
 48
50.0
100
AcDbLine
 10
9098.263977205728
 20
4676.740380085376
 30
0.0
 11
9050.200735921782
 21
4676.740380085383
 31
0.0
  0
LINE
  5
16E6E
330
747D
100
AcDbEntity
  8
細線
 48
50.0
100
AcDbLine
 10
9080.823515294651
 20
4704.768547337426
 30
0.0
 11
9080.823515294651
 21
4578.268547337426
 31
0.0
  0
LINE
  5
16E6F
330
747D
100
AcDbEntity
  8
細線
 48
50.0
100
AcDbLine
 10
10507.42883375787
 20
4599.041789901213
 30
0.0
 11
9058.218196831454
 21
4599.041789901213
 31
0.0
  0
ARC
  5
16E70
330
747D
100
AcDbEntity
  8
部品1
100
AcDbCircle
 10
9055.320649016147
 20
4752.768547354325
 30
0.0
 40
7.0
100
AcDbArc
 50
90.0
 51
183.6186294801312
  0
LINE
  5
16E71
330
747D
100
AcDbEntity
  8
部品1
100
AcDbLine
 10
9093.263977205729
 20
4759.768547354325
 30
0.0
 11
9055.320649016147
 21
4759.768547354325
 31
0.0
  0
ARC
  5
16E72
330
747D
100
AcDbEntity
  8
部品1
100
AcDbCircle
 10
9093.263977205729
 20
4754.768547354325
 30
0.0
 40
5.0
100
AcDbArc
 50
0.0
 51
90.0
  0
LINE
  5
16E73
330
747D
100
AcDbEntity
  8
部品1
 48
50.0
100
AcDbLine
 10
9048.334605198936
 20
4697.326742194838
 30
0.0
 11
9048.334605198936
 21
4752.326742211736
 31
0.0
  0
LINE
  5
16E74
330
747D
100
AcDbEntity
  8
部品1
100
AcDbLine
 10
10498.22195053575
 20
4578.268547337426
 30
0.0
 11
9068.447259862118
 21
4578.268547337426
 31
0.0
  0
LINE
  5
16E75
330
747D
100
AcDbEntity
  8
部品1
100
AcDbLine
 10
9098.26397720573
 20
4754.768547354325
 30
0.0
 11
9098.263977205728
 21
4657.364518664757
 31
0.0
  0
ARC
  5
16E76
330
747D
100
AcDbEntity
  8
部品1
100
AcDbCircle
 10
9093.263977205729
 20
4699.768547337426
 30
0.0
 40
5.0
100
AcDbArc
 50
0.0
 51
90.0
  0
LINE
  5
16E77
330
747D
100
AcDbEntity
  8
部品1
100
AcDbLine
 10
9093.263977205729
 20
4704.768547337426
 30
0.0
 11
9055.320649016147
 21
4704.768547337426
 31
0.0
  0
LINE
  5
16E78
330
747D
100
AcDbEntity
  8
部品1
100
AcDbLine
 10
9049.595143257503
 20
4677.394484143756
 30
0.0
 11
9048.334605198936
 21
4697.326742194838
 31
0.0
  0
LINE
  5
16E79
330
747D
100
AcDbEntity
  8
部品1
100
AcDbLine
 10
9061.461216044907
 20
4584.826742194837
 30
0.0
 11
9060.788890340324
 21
4595.457892398537
 31
0.0
  0
ARC
  5
16E7A
330
747D
100
AcDbEntity
  8
部品1
100
AcDbCircle
 10
9055.320649016147
 20
4697.768547337426
 30
0.0
 40
7.0
100
AcDbArc
 50
90.0
 51
183.6186294801312
  0
ARC
  5
16E7B
330
747D
100
AcDbEntity
  8
部品1
100
AcDbCircle
 10
9068.447259862118
 20
4585.268547337427
 30
0.0
 40
7.0
100
AcDbArc
 50
183.6186294801312
 51
270.0
  0
ARC
  5
16E7C
330
747D
100
AcDbEntity
  8
部品1
100
AcDbCircle
 10
9057.794871561521
 20
4595.268547337426
 30
0.0
 40
3.0
100
AcDbArc
 50
3.61862948013121
 51
90.0
  0
ARC
  5
16E7D
330
747D
100
AcDbEntity
  8
部品1
100
AcDbCircle
 10
9058.264167686715
 20
4598.938664658016
 30
0.0
 40
0.7
100
AcDbArc
 50
183.6186294801312
 51
262.7131594834577
  0
LINE
  5
16E7E
330
747D
100
AcDbEntity
  8
部品1
100
AcDbLine
 10
9052.818470292834
 20
4673.957892398538
 30
0.0
 11
9057.565563304994
 21
4598.894484143755
 31
0.0
  0
ARC
  5
16E7F
330
747D
100
AcDbEntity
  8
部品1
100
AcDbCircle
 10
9049.824451514028
 20
4673.768547337426
 30
0.0
 40
3.0
100
AcDbArc
 50
3.61862948013121
 51
90.0
  0
ARC
  5
16E80
330
747D
100
AcDbEntity
  8
部品1
100
AcDbCircle
 10
9050.293747639223
 20
4677.438664658016
 30
0.0
 40
0.7
100
AcDbArc
 50
183.6186294801312
 51
262.7131594834577
  0
LINE
  5
16E81
330
747D
100
AcDbEntity
  8
部品1
 48
50.0
100
AcDbLine
 10
9093.263977205729
 20
4704.768547337426
 30
0.0
 11
9055.320649016147
 21
4704.768547337426
 31
0.0
  0
LINE
  5
16E82
330
747D
100
AcDbEntity
  8
部品1
100
AcDbLine
 10
10384.83460519893
 20
4735.36854734588
 30
0.0
 11
10273.33460519894
 21
4735.36854734588
 31
0.0
  0
LINE
  5
16E83
330
747D
100
AcDbEntity
  8
部品1
100
AcDbLine
 10
10493.90244502866
 20
4759.768547345885
 30
0.0
 11
9072.766765579842
 21
4759.768547345899
 31
0.0
  0
LINE
  5
16E84
330
747D
100
AcDbEntity
  8
部品1
 48
50.0
100
AcDbLine
 10
9546.123264992749
 20
4745.368547345898
 30
0.0
 11
9560.123264992748
 21
4745.368547345898
 31
0.0
  0
LINE
  5
16E85
330
747D
100
AcDbEntity
  8
部品1
100
AcDbLine
 10
9311.334605198934
 20
4735.368547345895
 30
0.0
 11
9167.834605198935
 21
4735.368547345898
 31
0.0
  0
LINE
  5
16E86
330
747D
100
AcDbEntity
  8
部品1
 48
50.0
100
AcDbLine
 10
9165.334605198935
 20
4754.768547345899
 30
0.0
 11
9141.334605198936
 21
4754.768547345899
 31
0.0
  0
LINE
  5
16E87
330
747D
100
AcDbEntity
  8
部品1
 48
50.0
100
AcDbLine
 10
9141.334605198936
 20
4754.768547345899
 30
0.0
 11
9140.123264992748
 21
4745.368547345898
 31
0.0
  0
LINE
  5
16E88
330
747D
100
AcDbEntity
  8
部品1
 48
50.0
100
AcDbLine
 10
9126.123264992747
 20
4745.368547345898
 30
0.0
 11
9124.834605198936
 21
4735.368547345898
 31
0.0
  0
LINE
  5
16E89
330
747D
100
AcDbEntity
  8
部品1
 48
50.0
100
AcDbLine
 10
9126.123264992747
 20
4745.368547345898
 30
0.0
 11
9140.123264992748
 21
4745.368547345898
 31
0.0
  0
LINE
  5
16E8A
330
747D
100
AcDbEntity
  8
部品1
100
AcDbLine
 10
9124.834605198936
 20
4735.368547345898
 30
0.0
 11
9098.334605198935
 21
4735.368547345898
 31
0.0
  0
LINE
  5
16E8B
330
747D
100
AcDbEntity
  8
部品1
 48
50.0
100
AcDbLine
 10
9165.334605198935
 20
4754.768547345899
 30
0.0
 11
9167.834605198935
 21
4735.368547345898
 31
0.0
  0
LINE
  5
16E8C
330
747D
100
AcDbEntity
  8
部品1
100
AcDbLine
 10
9144.334605198944
 20
4754.768547345899
 30
0.0
 11
9144.334605198945
 21
4657.357479837325
 31
0.0
  0
LINE
  5
16E8D
330
747D
100
AcDbEntity
  8
部品1
100
AcDbLine
 10
9162.334605198942
 20
4754.768547345888
 30
0.0
 11
9162.334605198942
 21
4657.357479837325
 31
0.0
  0
LINE
  5
16E8E
330
747D
100
AcDbEntity
  8
部品1
 48
50.0
100
AcDbLine
 10
9394.834605198935
 20
4754.768547345899
 30
0.0
 11
9384.334605198935
 21
4735.368547345898
 31
0.0
  0
LINE
  5
16E8F
330
747D
100
AcDbEntity
  8
部品1
 48
50.0
100
AcDbLine
 10
9321.834605198935
 20
4754.768547345899
 30
0.0
 11
9349.834605198932
 21
4754.768547345899
 31
0.0
  0
LINE
  5
16E90
330
747D
100
AcDbEntity
  8
部品1
 48
50.0
100
AcDbLine
 10
9321.834605198935
 20
4754.768547345899
 30
0.0
 11
9311.334605198934
 21
4735.368547345898
 31
0.0
  0
LINE
  5
16E91
330
747D
100
AcDbEntity
  8
部品1
100
AcDbLine
 10
9323.334605198942
 20
4754.768547345896
 30
0.0
 11
9323.334605198942
 21
4657.357479837325
 31
0.0
  0
LINE
  5
16E92
330
747D
100
AcDbEntity
  8
部品1
 48
50.0
100
AcDbLine
 10
9349.834605198935
 20
4754.768547345899
 30
0.0
 11
9360.334605198936
 21
4735.368547345898
 31
0.0
  0
LINE
  5
16E93
330
747D
100
AcDbEntity
  8
部品1
100
AcDbLine
 10
9348.334605198942
 20
4754.768547345896
 30
0.0
 11
9348.334605198944
 21
4657.357479837323
 31
0.0
  0
LINE
  5
16E94
330
747D
100
AcDbEntity
  8
部品1
100
AcDbLine
 10
9384.334605198931
 20
4735.368547345895
 30
0.0
 11
9360.334605198936
 21
4735.368547345898
 31
0.0
  0
LINE
  5
16E95
330
747D
100
AcDbEntity
  8
部品1
 48
50.0
100
AcDbLine
 10
9546.123264992749
 20
4745.368547345898
 30
0.0
 11
9544.834605198936
 21
4735.368547345898
 31
0.0
  0
LINE
  5
16E96
330
747D
100
AcDbEntity
  8
部品1
 48
50.0
100
AcDbLine
 10
9394.834605198935
 20
4754.768547345899
 30
0.0
 11
9422.834605198932
 21
4754.768547345899
 31
0.0
  0
LINE
  5
16E97
330
747D
100
AcDbEntity
  8
部品1
 48
50.0
100
AcDbLine
 10
9422.834605198936
 20
4754.768547345899
 30
0.0
 11
9433.334605198934
 21
4735.368547345898
 31
0.0
  0
LINE
  5
16E98
330
747D
100
AcDbEntity
  8
部品1
100
AcDbLine
 10
9421.334605198943
 20
4754.768547345896
 30
0.0
 11
9421.334605198943
 21
4657.357479837325
 31
0.0
  0
LINE
  5
16E99
330
747D
100
AcDbEntity
  8
部品1
100
AcDbLine
 10
9396.334605198942
 20
4754.768547345896
 30
0.0
 11
9396.334605198942
 21
4657.357479837325
 31
0.0
  0
LINE
  5
16E9A
330
747D
100
AcDbEntity
  8
部品1
100
AcDbLine
 10
9544.834605198936
 20
4735.368547345895
 30
0.0
 11
9433.334605198934
 21
4735.368547345895
 31
0.0
  0
LINE
  5
16E9B
330
747D
100
AcDbEntity
  8
部品1
100
AcDbLine
 10
10224.33460519893
 20
4735.368547345895
 30
0.0
 11
10200.33460519893
 21
4735.368547345895
 31
0.0
  0
LINE
  5
16E9C
330
747D
100
AcDbEntity
  8
部品1
100
AcDbLine
 10
9964.834605198937
 20
4735.368547345895
 30
0.0
 11
9853.334605198936
 21
4735.368547345895
 31
0.0
  0
LINE
  5
16E9D
330
747D
100
AcDbEntity
  8
部品1
100
AcDbLine
 10
9731.334605198933
 20
4735.368547345895
 30
0.0
 11
9587.834605198933
 21
4735.368547345895
 31
0.0
  0
LINE
  5
16E9E
330
747D
100
AcDbEntity
  8
部品1
 48
50.0
100
AcDbLine
 10
9585.334605198935
 20
4754.768547345899
 30
0.0
 11
9587.834605198935
 21
4735.368547345898
 31
0.0
  0
LINE
  5
16E9F
330
747D
100
AcDbEntity
  8
部品1
 48
50.0
100
AcDbLine
 10
9561.334605198934
 20
4754.768547345899
 30
0.0
 11
9560.123264992748
 21
4745.368547345898
 31
0.0
  0
LINE
  5
16EA0
330
747D
100
AcDbEntity
  8
部品1
 48
50.0
100
AcDbLine
 10
9585.334605198935
 20
4754.768547345899
 30
0.0
 11
9561.334605198934
 21
4754.768547345899
 31
0.0
  0
LINE
  5
16EA1
330
747D
100
AcDbEntity
  8
部品1
100
AcDbLine
 10
9564.334605198942
 20
4754.768547345888
 30
0.0
 11
9564.334605198945
 21
4657.357479837325
 31
0.0
  0
LINE
  5
16EA2
330
747D
100
AcDbEntity
  8
部品1
100
AcDbLine
 10
9582.334605198942
 20
4754.768547345888
 30
0.0
 11
9582.334605198944
 21
4657.357479837325
 31
0.0
  0
LINE
  5
16EA3
330
747D
100
AcDbEntity
  8
部品1
 48
50.0
100
AcDbLine
 10
9814.834605198937
 20
4754.768547345899
 30
0.0
 11
9842.834605198932
 21
4754.768547345899
 31
0.0
  0
LINE
  5
16EA4
330
747D
100
AcDbEntity
  8
部品1
 48
50.0
100
AcDbLine
 10
9741.834605198937
 20
4754.768547345899
 30
0.0
 11
9769.834605198932
 21
4754.768547345899
 31
0.0
  0
LINE
  5
16EA5
330
747D
100
AcDbEntity
  8
部品1
 48
50.0
100
AcDbLine
 10
9814.834605198937
 20
4754.768547345899
 30
0.0
 11
9804.334605198937
 21
4735.368547345898
 31
0.0
  0
LINE
  5
16EA6
330
747D
100
AcDbEntity
  8
部品1
 48
50.0
100
AcDbLine
 10
9769.834605198937
 20
4754.768547345899
 30
0.0
 11
9780.334605198937
 21
4735.368547345898
 31
0.0
  0
LINE
  5
16EA7
330
747D
100
AcDbEntity
  8
部品1
100
AcDbLine
 10
9804.334605198931
 20
4735.368547345895
 30
0.0
 11
9780.334605198937
 21
4735.368547345895
 31
0.0
  0
LINE
  5
16EA8
330
747D
100
AcDbEntity
  8
部品1
 48
50.0
100
AcDbLine
 10
9741.834605198937
 20
4754.768547345899
 30
0.0
 11
9731.334605198936
 21
4735.368547345898
 31
0.0
  0
LINE
  5
16EA9
330
747D
100
AcDbEntity
  8
部品1
100
AcDbLine
 10
9816.334605198944
 20
4754.768547345896
 30
0.0
 11
9816.334605198944
 21
4657.357479837325
 31
0.0
  0
LINE
  5
16EAA
330
747D
100
AcDbEntity
  8
部品1
100
AcDbLine
 10
9768.334605198944
 20
4754.768547345896
 30
0.0
 11
9768.334605198944
 21
4657.357479837325
 31
0.0
  0
LINE
  5
16EAB
330
747D
100
AcDbEntity
  8
部品1
100
AcDbLine
 10
9743.334605198944
 20
4754.768547345896
 30
0.0
 11
9743.334605198944
 21
4657.357479837323
 31
0.0
  0
LINE
  5
16EAC
330
747D
100
AcDbEntity
  8
部品1
 48
50.0
100
AcDbLine
 10
9842.834605198937
 20
4754.768547345899
 30
0.0
 11
9853.334605198936
 21
4735.368547345898
 31
0.0
  0
LINE
  5
16EAD
330
747D
100
AcDbEntity
  8
部品1
100
AcDbLine
 10
9841.334605198944
 20
4754.768547345896
 30
0.0
 11
9841.334605198944
 21
4657.357479837323
 31
0.0
  0
LINE
  5
16EAE
330
747D
100
AcDbEntity
  8
部品1
100
AcDbLine
 10
10151.33460519893
 20
4735.368547345895
 30
0.0
 11
10007.83460519893
 21
4735.368547345895
 31
0.0
  0
LINE
  5
16EAF
330
747D
100
AcDbEntity
  8
部品1
 48
50.0
100
AcDbLine
 10
10005.33460519893
 20
4754.768547345899
 30
0.0
 11
9981.334605198936
 21
4754.768547345899
 31
0.0
  0
LINE
  5
16EB0
330
747D
100
AcDbEntity
  8
部品1
 48
50.0
100
AcDbLine
 10
9981.334605198936
 20
4754.768547345899
 30
0.0
 11
9980.123264992748
 21
4745.368547345898
 31
0.0
  0
LINE
  5
16EB1
330
747D
100
AcDbEntity
  8
部品1
 48
50.0
100
AcDbLine
 10
9966.123264992749
 20
4745.368547345898
 30
0.0
 11
9980.123264992748
 21
4745.368547345898
 31
0.0
  0
LINE
  5
16EB2
330
747D
100
AcDbEntity
  8
部品1
 48
50.0
100
AcDbLine
 10
9966.123264992749
 20
4745.368547345898
 30
0.0
 11
9964.834605198937
 21
4735.368547345898
 31
0.0
  0
LINE
  5
16EB3
330
747D
100
AcDbEntity
  8
部品1
100
AcDbLine
 10
9984.334605198943
 20
4754.768547345888
 30
0.0
 11
9984.334605198945
 21
4657.357479837323
 31
0.0
  0
LINE
  5
16EB4
330
747D
100
AcDbEntity
  8
部品1
 48
50.0
100
AcDbLine
 10
10005.33460519893
 20
4754.768547345899
 30
0.0
 11
10007.83460519893
 21
4735.368547345898
 31
0.0
  0
LINE
  5
16EB5
330
747D
100
AcDbEntity
  8
部品1
100
AcDbLine
 10
10002.33460519894
 20
4754.768547345888
 30
0.0
 11
10002.33460519894
 21
4657.357479837325
 31
0.0
  0
LINE
  5
16EB6
330
747D
100
AcDbEntity
  8
部品1
 48
50.0
100
AcDbLine
 10
10189.83460519893
 20
4754.768547345899
 30
0.0
 11
10200.33460519893
 21
4735.368547345898
 31
0.0
  0
LINE
  5
16EB7
330
747D
100
AcDbEntity
  8
部品1
100
AcDbLine
 10
10188.33460519894
 20
4754.768547345896
 30
0.0
 11
10188.33460519894
 21
4657.357479837325
 31
0.0
  0
LINE
  5
16EB8
330
747D
100
AcDbEntity
  8
部品1
 48
50.0
100
AcDbLine
 10
10161.83460519893
 20
4754.768547345899
 30
0.0
 11
10151.33460519893
 21
4735.368547345898
 31
0.0
  0
LINE
  5
16EB9
330
747D
100
AcDbEntity
  8
部品1
100
AcDbLine
 10
10163.33460519894
 20
4754.768547345896
 30
0.0
 11
10163.33460519894
 21
4657.357479837325
 31
0.0
  0
LINE
  5
16EBA
330
747D
100
AcDbEntity
  8
部品1
 48
50.0
100
AcDbLine
 10
10161.83460519893
 20
4754.768547345899
 30
0.0
 11
10189.83460519893
 21
4754.768547345899
 31
0.0
  0
LINE
  5
16EBB
330
747D
100
AcDbEntity
  8
部品1
 48
50.0
100
AcDbLine
 10
10234.83460519893
 20
4754.768547345899
 30
0.0
 11
10224.33460519893
 21
4735.368547345898
 31
0.0
  0
LINE
  5
16EBC
330
747D
100
AcDbEntity
  8
部品1
 48
50.0
100
AcDbLine
 10
10262.83460519893
 20
4754.768547345899
 30
0.0
 11
10273.33460519893
 21
4735.368547345898
 31
0.0
  0
LINE
  5
16EBD
330
747D
100
AcDbEntity
  8
部品1
 48
50.0
100
AcDbLine
 10
10234.83460519893
 20
4754.768547345899
 30
0.0
 11
10262.83460519893
 21
4754.768547345899
 31
0.0
  0
LINE
  5
16EBE
330
747D
100
AcDbEntity
  8
部品1
100
AcDbLine
 10
10236.33460519894
 20
4754.768547345896
 30
0.0
 11
10236.33460519894
 21
4657.357479837325
 31
0.0
  0
LINE
  5
16EBF
330
747D
100
AcDbEntity
  8
部品1
100
AcDbLine
 10
10261.33460519894
 20
4754.768547345896
 30
0.0
 11
10261.33460519894
 21
4657.357479837325
 31
0.0
  0
LINE
  5
16F31
330
747D
100
AcDbEntity
  8
部品1
100
AcDbLine
 10
10440.33460519894
 20
2734.768547337428
 30
0.0
 11
10468.33460519895
 21
2734.768547337427
 31
0.0
  0
LINE
  5
16F32
330
747D
100
AcDbEntity
  8
部品1
100
AcDbLine
 10
9298.334605198947
 20
2684.768547337427
 30
0.0
 11
9298.334605198947
 21
2584.768547337427
 31
0.0
  0
LINE
  5
16F33
330
747D
100
AcDbEntity
  8
部品1
 48
50.0
100
AcDbLine
 10
9883.334605198946
 20
2684.768547337427
 30
0.0
 11
9883.334605198946
 21
2584.768547337427
 31
0.0
  0
LINE
  5
16F34
330
747D
100
AcDbEntity
  8
部品1
 48
50.0
100
AcDbLine
 10
9683.334605198947
 20
2684.768547337427
 30
0.0
 11
9683.334605198947
 21
2584.768547337427
 31
0.0
  0
LINE
  5
16F35
330
747D
100
AcDbEntity
  8
部品1
100
AcDbLine
 10
10268.33460519894
 20
2684.768547337427
 30
0.0
 11
10268.33460519894
 21
2584.768547337427
 31
0.0
  0
LINE
  5
16F36
330
747D
100
AcDbEntity
  8
部品1
 48
50.0
100
AcDbLine
 10
6971.874259101395
 20
4519.768547337427
 30
0.0
 11
7048.874259101395
 21
4509.768547337428
 31
0.0
  0
LINE
  5
16F37
330
747D
100
AcDbEntity
  8
部品1
 48
50.0
100
AcDbLine
 10
7048.874259101395
 20
4509.768547337428
 30
0.0
 11
7048.874259101395
 21
2584.768547337427
 31
0.0
  0
LINE
  5
16F38
330
747D
100
AcDbEntity
  8
部品1
 48
50.0
100
AcDbLine
 10
7048.874259101395
 20
2684.768547337427
 30
0.0
 11
6964.374259101394
 21
2684.768547337427
 31
0.0
  0
LINE
  5
16F63
330
747D
100
AcDbEntity
  8
部品1
100
AcDbLine
 10
6571.874259101391
 20
2684.768547337427
 30
0.0
 11
6571.874259101391
 21
2584.768547337427
 31
0.0
  0
LINE
  5
16F64
330
747D
100
AcDbEntity
  8
部品1
 48
50.0
100
AcDbLine
 10
6176.874259101391
 20
2684.768547337427
 30
0.0
 11
6176.874259101391
 21
2584.768547337427
 31
0.0
  0
LINE
  5
16F65
330
747D
100
AcDbEntity
  8
部品1
 48
50.0
100
AcDbLine
 10
5976.87425910139
 20
2684.768547337427
 30
0.0
 11
5976.87425910139
 21
2584.768547337427
 31
0.0
  0
LINE
  5
16F66
330
747D
100
AcDbEntity
  8
部品1
100
AcDbLine
 10
5581.874259101391
 20
2684.768547337427
 30
0.0
 11
5581.874259101391
 21
2584.768547337427
 31
0.0
  0
LINE
  5
17090
330
747D
100
AcDbEntity
  8
補助
  6
PHANTOM
 62
   230
 48
50.0
100
AcDbLine
 10
140.0
 20
0.0
 30
0.0
 11
139.9999999999995
 21
11409.6
 31
0.0
  0
TEXT
  5
170E8
330
747D
100
AcDbEntity
  8
文字
 62
     7
 48
50.0
100
AcDbText
 10
13583.11819016569
 20
8550.013745883731
 30
0.0
 40
100.0
  1
棚板
  7
STYLE1
100
AcDbText
  0
TEXT
  5
170E9
330
747D
100
AcDbEntity
  8
文字
 62
     7
 48
50.0
100
AcDbText
 10
15022.63965474516
 20
8550.013745883727
 30
0.0
 40
100.0
  1
F12            0.6
  7
STYLE1
100
AcDbText
  0
TEXT
  5
170EA
330
747D
100
AcDbEntity
  8
文字
 62
     7
 48
50.0
100
AcDbText
 10
15022.63965474515
 20
9740.013745883723
 30
0.0
 40
100.0
  1
F12            1.0
  7
STYLE1
100
AcDbText
  0
TEXT
  5
170EB
330
747D
100
AcDbEntity
  8
文字
 62
     7
 48
50.0
100
AcDbText
 10
13583.11819016569
 20
9740.013745883729
 30
0.0
 40
100.0
  1
母屋中
  7
STYLE1
100
AcDbText
  0
TEXT
  5
170EC
330
747D
100
AcDbEntity
  8
文字
 62
     7
 48
50.0
100
AcDbText
 10
13248.77747366447
 20
8720.013745883729
 30
0.0
 40
100.0
  1
15
  7
STYLE1
100
AcDbText
  0
LINE
  5
170ED
330
747D
100
AcDbEntity
  8
仕様書枠
 48
50.0
100
AcDbLine
 10
16307.19999999999
 20
8009.600000000004
 30
0.0
 11
13127.19999999999
 21
8009.600000000006
 31
0.0
  0
TEXT
  5
170EE
330
747D
100
AcDbEntity
  8
文字
 62
     7
 48
50.0
100
AcDbText
 10
13583.11819016569
 20
8720.013745883731
 30
0.0
 40
100.0
  1
扉
  7
STYLE1
100
AcDbText
  0
TEXT
  5
170EF
330
747D
100
AcDbEntity
  8
文字
 62
     7
 48
50.0
100
AcDbText
 10
15022.63965474516
 20
8720.013745883727
 30
0.0
 40
100.0
  1
F12            0.8
  7
STYLE1
100
AcDbText
  0
TEXT
  5
170F0
330
747D
100
AcDbEntity
  8
文字
 62
     7
 48
50.0
100
AcDbText
 10
13583.11819016568
 20
8890.013745883731
 30
0.0
 40
100.0
  1
正面パネル
  7
STYLE1
100
AcDbText
  0
TEXT
  5
170F1
330
747D
100
AcDbEntity
  8
文字
 62
     7
 48
50.0
100
AcDbText
 10
15022.63965474515
 20
8890.013745883727
 30
0.0
 40
100.0
  1
F12            0.7
  7
STYLE1
100
AcDbText
  0
TEXT
  5
170F2
330
747D
100
AcDbEntity
  8
文字
 62
     7
 48
50.0
100
AcDbText
 10
15022.63965474517
 20
10590.01374588372
 30
0.0
 40
100.0
  1
F12            1.0
  7
STYLE1
100
AcDbText
  0
TEXT
  5
170F3
330
747D
100
AcDbEntity
  8
文字
 62
     7
 48
50.0
100
AcDbText
 10
15022.63965474516
 20
10930.01374588372
 30
0.0
 40
100.0
  1
F12            1.2
  7
STYLE1
100
AcDbText
  0
TEXT
  5
170F4
330
747D
100
AcDbEntity
  8
文字
 62
     7
 48
50.0
100
AcDbText
 10
13248.77747366448
 20
8890.013745883727
 30
0.0
 40
100.0
  1
14
  7
STYLE1
100
AcDbText
  0
TEXT
  5
170F5
330
747D
100
AcDbEntity
  8
文字
 62
     7
 48
50.0
100
AcDbText
 10
13583.11819016569
 20
10930.01374588372
 30
0.0
 40
100.0
  1
根太
  7
STYLE1
100
AcDbText
  0
TEXT
  5
170F6
330
747D
100
AcDbEntity
  8
文字
 62
     7
 48
50.0
100
AcDbText
 10
13583.1181901657
 20
10590.01374588373
 30
0.0
 40
100.0
  1
床パネル
 41
0.9
  7
STYLE1
100
AcDbText
  0
LINE
  5
170F7
330
747D
100
AcDbEntity
  8
仕様書枠
 48
50.0
100
AcDbLine
 10
16307.19999999999
 20
9029.6
 30
0.0
 11
13127.2
 21
9029.600000000002
 31
0.0
  0
LINE
  5
170F8
330
747D
100
AcDbEntity
  8
仕様書枠
 48
50.0
100
AcDbLine
 10
13127.2
 20
11409.6
 30
0.0
 11
13127.19999999999
 21
8009.600000000006
 31
0.0
  0
TEXT
  5
170F9
330
747D
100
AcDbEntity
  8
文字
 62
     7
 48
50.0
100
AcDbText
 10
13229.83081656554
 20
8040.013745883731
 30
0.0
 40
100.0
  1
Y10→溶融亜鉛-5％アルミニウム合金めっき鋼板(JIS G 3317)
 41
0.9
  7
STYLE1
100
AcDbText
  0
TEXT
  5
170FA
330
747D
100
AcDbEntity
  8
文字
 62
     7
 48
50.0
100
AcDbText
 10
13229.83081656554
 20
8210.013745883733
 30
0.0
 40
100.0
  1
F12→溶融亜鉛めっき鋼板(JIS G 3302)
  7
STYLE1
100
AcDbText
  0
LINE
  5
170FB
330
747D
100
AcDbEntity
  8
仕様書枠
 48
50.0
100
AcDbLine
 10
16307.19999999999
 20
8179.600000000004
 30
0.0
 11
13127.19999999999
 21
8179.600000000005
 31
0.0
  0
LINE
  5
170FC
330
747D
100
AcDbEntity
  8
仕様書枠
 48
50.0
100
AcDbLine
 10
16307.19999999999
 20
8349.600000000004
 30
0.0
 11
13127.19999999999
 21
8349.600000000007
 31
0.0
  0
TEXT
  5
170FD
330
747D
100
AcDbEntity
  8
文字
 62
     7
 48
50.0
100
AcDbText
 10
15022.63965474515
 20
9570.013745883725
 30
0.0
 40
100.0
  1
F12            0.6
  7
STYLE1
100
AcDbText
  0
TEXT
  5
170FE
330
747D
100
AcDbEntity
  8
文字
 62
     7
 48
50.0
100
AcDbText
 10
15022.63965474517
 20
9910.013745883725
 30
0.0
 40
100.0
  1
Y10            0.5
  7
STYLE1
100
AcDbText
  0
TEXT
  5
170FF
330
747D
100
AcDbEntity
  8
文字
 62
     7
 48
50.0
100
AcDbText
 10
15022.63965474516
 20
10080.01374588372
 30
0.0
 40
100.0
  1
Y10            0.7
  7
STYLE1
100
AcDbText
  0
TEXT
  5
17100
330
747D
100
AcDbEntity
  8
文字
 62
     7
 48
50.0
100
AcDbText
 10
15022.63965474516
 20
10250.01374588372
 30
0.0
 40
100.0
  1
Y10            0.7
  7
STYLE1
100
AcDbText
  0
TEXT
  5
17101
330
747D
100
AcDbEntity
  8
文字
 62
     7
 48
50.0
100
AcDbText
 10
15022.63965474516
 20
10420.01374588372
 30
0.0
 40
100.0
  1
Y10            1.0
  7
STYLE1
100
AcDbText
  0
TEXT
  5
17102
330
747D
100
AcDbEntity
  8
文字
 62
     7
 48
50.0
100
AcDbText
 10
15022.63965474518
 20
10760.01374588372
 30
0.0
 40
100.0
  1
F12            1.0
  7
STYLE1
100
AcDbText
  0
TEXT
  5
17103
330
747D
100
AcDbEntity
  8
文字
 62
     7
 48
50.0
100
AcDbText
 10
15022.63965474517
 20
11100.01374588372
 30
0.0
 40
100.0
  1
F12            1.2
  7
STYLE1
100
AcDbText
  0
TEXT
  5
17104
330
747D
100
AcDbEntity
  8
文字
 62
     7
 48
50.0
100
AcDbText
 10
13248.77747366448
 20
9230.013745883727
 30
0.0
 40
100.0
  1
12
  7
STYLE1
100
AcDbText
  0
TEXT
  5
17105
330
747D
100
AcDbEntity
  8
文字
 62
     7
 48
50.0
100
AcDbText
 10
13248.77747366448
 20
9060.013745883727
 30
0.0
 40
100.0
  1
13
  7
STYLE1
100
AcDbText
  0
LINE
  5
17106
330
747D
100
AcDbEntity
  8
仕様書枠
 48
50.0
100
AcDbLine
 10
16307.19999999999
 20
8859.6
 30
0.0
 11
13127.2
 21
8859.600000000002
 31
0.0
  0
LINE
  5
17107
330
747D
100
AcDbEntity
  8
仕様書枠
 48
50.0
100
AcDbLine
 10
16307.19999999999
 20
9199.599999999998
 30
0.0
 11
13127.2
 21
9199.600000000001
 31
0.0
  0
TEXT
  5
17108
330
747D
100
AcDbEntity
  8
文字
 62
     7
 48
50.0
100
AcDbText
 10
13248.77747366447
 20
9400.013745883727
 30
0.0
 40
100.0
  1
11
  7
STYLE1
100
AcDbText
  0
LINE
  5
17109
330
747D
100
AcDbEntity
  8
仕様書枠
 48
50.0
100
AcDbLine
 10
16307.2
 20
9879.599999999999
 30
0.0
 11
13127.2
 21
9879.600000000001
 31
0.0
  0
LINE
  5
1710A
330
747D
100
AcDbEntity
  8
仕様書枠
 48
50.0
100
AcDbLine
 10
16307.2
 20
10219.6
 30
0.0
 11
13127.2
 21
10219.6
 31
0.0
  0
LINE
  5
1710B
330
747D
100
AcDbEntity
  8
仕様書枠
 48
50.0
100
AcDbLine
 10
16307.19999999999
 20
9539.599999999998
 30
0.0
 11
13127.2
 21
9539.6
 31
0.0
  0
LINE
  5
1710C
330
747D
100
AcDbEntity
  8
仕様書枠
 48
50.0
100
AcDbLine
 10
16307.19999999999
 20
9369.599999999998
 30
0.0
 11
13127.2
 21
9369.600000000001
 31
0.0
  0
LINE
  5
1710D
330
747D
100
AcDbEntity
  8
仕様書枠
 48
50.0
100
AcDbLine
 10
16307.19999999999
 20
9709.6
 30
0.0
 11
13127.2
 21
9709.600000000001
 31
0.0
  0
TEXT
  5
1710E
330
747D
100
AcDbEntity
  8
文字
 62
     7
 48
50.0
100
AcDbText
 10
13271.19032244792
 20
10250.01374588373
 30
0.0
 40
100.0
  1
6
  7
STYLE1
100
AcDbText
  0
TEXT
  5
1710F
330
747D
100
AcDbEntity
  8
文字
 62
     7
 48
50.0
100
AcDbText
 10
13271.19032244792
 20
10080.01374588373
 30
0.0
 40
100.0
  1
7
  7
STYLE1
100
AcDbText
  0
TEXT
  5
17110
330
747D
100
AcDbEntity
  8
文字
 62
     7
 48
50.0
100
AcDbText
 10
13271.19032244792
 20
9740.013745883729
 30
0.0
 40
100.0
  1
9
  7
STYLE1
100
AcDbText
  0
TEXT
  5
17111
330
747D
100
AcDbEntity
  8
文字
 62
     7
 48
50.0
100
AcDbText
 10
13271.19032244792
 20
9910.01374588373
 30
0.0
 40
100.0
  1
8
  7
STYLE1
100
AcDbText
  0
TEXT
  5
17112
330
747D
100
AcDbEntity
  8
文字
 62
     7
 48
50.0
100
AcDbText
 10
13583.11819016569
 20
10080.01374588372
 30
0.0
 40
100.0
  1
鼻隠シ前後
  7
STYLE1
100
AcDbText
  0
TEXT
  5
17113
330
747D
100
AcDbEntity
  8
文字
 62
     7
 48
50.0
100
AcDbText
 10
13583.11819016569
 20
9910.013745883727
 30
0.0
 40
100.0
  1
屋根パネル
  7
STYLE1
100
AcDbText
  0
TEXT
  5
17114
330
747D
100
AcDbEntity
  8
文字
 62
     7
 48
50.0
100
AcDbText
 10
13583.11819016568
 20
9570.013745883729
 30
0.0
 40
100.0
  1
壁パネル
  7
STYLE1
100
AcDbText
  0
TEXT
  5
17115
330
747D
100
AcDbEntity
  8
文字
 62
     7
 48
50.0
100
AcDbText
 10
13248.77747366447
 20
9570.013745883727
 30
0.0
 40
100.0
  1
10
  7
STYLE1
100
AcDbText
  0
TEXT
  5
17116
330
747D
100
AcDbEntity
  8
文字
 62
     7
 48
50.0
100
AcDbText
 10
13583.11819016569
 20
10250.01374588373
 30
0.0
 40
100.0
  1
妻板左右
  7
STYLE1
100
AcDbText
  0
TEXT
  5
17117
330
747D
100
AcDbEntity
  8
文字
 62
     7
 48
50.0
100
AcDbText
 10
13271.19032244792
 20
10420.01374588372
 30
0.0
 40
100.0
  1
5
  7
STYLE1
100
AcDbText
  0
TEXT
  5
17118
330
747D
100
AcDbEntity
  8
文字
 62
     7
 48
50.0
100
AcDbText
 10
13583.11819016569
 20
10420.01374588373
 30
0.0
 40
100.0
  1
桁前後
  7
STYLE1
100
AcDbText
  0
TEXT
  5
17119
330
747D
100
AcDbEntity
  8
文字
 62
     7
 48
50.0
100
AcDbText
 10
13583.1181901657
 20
10760.01374588372
 30
0.0
 40
100.0
  1
柱
  7
STYLE1
100
AcDbText
  0
TEXT
  5
1711A
330
747D
100
AcDbEntity
  8
文字
 62
     7
 48
50.0
100
AcDbText
 10
13583.11819016569
 20
11100.01374588373
 30
0.0
 40
100.0
  1
土台枠
  7
STYLE1
100
AcDbText
  0
TEXT
  5
1711B
330
747D
100
AcDbEntity
  8
文字
 62
     7
 48
50.0
100
AcDbText
 10
14859.79774614482
 20
11270.01374588372
 30
0.0
 40
100.0
  1
材料（材質）　　単位mm
  7
STYLE1
100
AcDbText
  0
TEXT
  5
1711C
330
747D
100
AcDbEntity
  8
文字
 62
     7
 48
50.0
100
AcDbText
 10
13732.03840939434
 20
11270.01374588372
 30
0.0
 40
100.0
  1
部　　品　　名
  7
STYLE1
100
AcDbText
  0
TEXT
  5
1711D
330
747D
100
AcDbEntity
  8
文字
 62
     7
 48
50.0
100
AcDbText
 10
13271.19032244792
 20
10760.01374588373
 30
0.0
 40
100.0
  1
3
  7
STYLE1
100
AcDbText
  0
TEXT
  5
1711E
330
747D
100
AcDbEntity
  8
文字
 62
     7
 48
50.0
100
AcDbText
 10
13271.19032244792
 20
10590.01374588373
 30
0.0
 40
100.0
  1
4
  7
STYLE1
100
AcDbText
  0
TEXT
  5
1711F
330
747D
100
AcDbEntity
  8
文字
 62
     7
 48
50.0
100
AcDbText
 10
13271.19032244792
 20
10930.01374588373
 30
0.0
 40
100.0
  1
2
  7
STYLE1
100
AcDbText
  0
TEXT
  5
17120
330
747D
100
AcDbEntity
  8
文字
 62
     7
 48
50.0
100
AcDbText
 10
13271.19032244792
 20
11100.01374588373
 30
0.0
 40
100.0
  1
1
  7
STYLE1
100
AcDbText
  0
TEXT
  5
17121
330
747D
100
AcDbEntity
  8
文字
 62
     7
 48
50.0
100
AcDbText
 10
13197.42518560407
 20
11270.01374588372
 30
0.0
 40
100.0
  1
品番
  7
STYLE1
100
AcDbText
  0
LINE
  5
17122
330
747D
100
AcDbEntity
  8
仕様書枠
 48
50.0
100
AcDbLine
 10
16307.19999999999
 20
10729.6
 30
0.0
 11
13127.2
 21
10729.6
 31
0.0
  0
LINE
  5
17123
330
747D
100
AcDbEntity
  8
仕様書枠
 48
50.0
100
AcDbLine
 10
16307.19999999999
 20
10389.6
 30
0.0
 11
13127.2
 21
10389.6
 31
0.0
  0
LINE
  5
17124
330
747D
100
AcDbEntity
  8
仕様書枠
 48
50.0
100
AcDbLine
 10
16307.19999999999
 20
10559.6
 30
0.0
 11
13127.2
 21
10559.6
 31
0.0
  0
LINE
  5
17125
330
747D
100
AcDbEntity
  8
仕様書枠
 48
50.0
100
AcDbLine
 10
16307.2
 20
11069.6
 30
0.0
 11
13127.2
 21
11069.6
 31
0.0
  0
LINE
  5
17126
330
747D
100
AcDbEntity
  8
仕様書枠
 48
50.0
100
AcDbLine
 10
16307.2
 20
10899.6
 30
0.0
 11
13127.2
 21
10899.6
 31
0.0
  0
LINE
  5
17127
330
747D
100
AcDbEntity
  8
仕様書枠
 48
50.0
100
AcDbLine
 10
16307.2
 20
11239.6
 30
0.0
 11
13127.2
 21
11239.6
 31
0.0
  0
LINE
  5
17128
330
747D
100
AcDbEntity
  8
仕様書枠
 48
50.0
100
AcDbLine
 10
13490.2
 20
11409.6
 30
0.0
 11
13490.20000000001
 21
8349.600000000007
 31
0.0
  0
LINE
  5
17129
330
747D
100
AcDbEntity
  8
仕様書枠
 48
50.0
100
AcDbLine
 10
14785.2
 20
11409.59999999999
 30
0.0
 11
14785.2
 21
8349.600000000004
 31
0.0
  0
LINE
  5
1712A
330
747D
100
AcDbEntity
  8
仕様書枠
 48
50.0
100
AcDbLine
 10
16307.19999999999
 20
8009.600000000004
 30
0.0
 11
16307.2
 21
11409.6
 31
0.0
  0
LINE
  5
1712B
330
747D
100
AcDbEntity
  8
仕様書枠
 48
50.0
100
AcDbLine
 10
16307.2
 20
11409.6
 30
0.0
 11
13127.2
 21
11409.6
 31
0.0
  0
LINE
  5
1712C
330
747D
100
AcDbEntity
  8
仕様書枠
 48
50.0
100
AcDbLine
 10
16307.2
 20
10049.6
 30
0.0
 11
13127.2
 21
10049.6
 31
0.0
  0
TEXT
  5
1712D
330
747D
100
AcDbEntity
  8
文字
 62
     7
 48
50.0
100
AcDbText
 10
15022.63965474515
 20
8380.013745883724
 30
0.0
 40
100.0
  1
F12            2.3
  7
STYLE1
100
AcDbText
  0
TEXT
  5
1712E
330
747D
100
AcDbEntity
  8
文字
 62
     7
 48
50.0
100
AcDbText
 10
13583.11819016569
 20
8380.013745883728
 30
0.0
 40
100.0
  1
アンカープレート
  7
STYLE1
100
AcDbText
  0
LINE
  5
1712F
330
747D
100
AcDbEntity
  8
仕様書枠
 48
50.0
100
AcDbLine
 10
16307.19999999999
 20
8519.600000000004
 30
0.0
 11
13127.2
 21
8519.600000000005
 31
0.0
  0
LINE
  5
17130
330
747D
100
AcDbEntity
  8
仕様書枠
 48
50.0
100
AcDbLine
 10
16307.19999999999
 20
8689.600000000003
 30
0.0
 11
13127.2
 21
8689.600000000005
 31
0.0
  0
TEXT
  5
17131
330
747D
100
AcDbEntity
  8
文字
 62
     7
 48
50.0
100
AcDbText
 10
13583.11819016569
 20
9400.013745883729
 30
0.0
 40
100.0
  1
壁面扉鴨居
  7
STYLE1
100
AcDbText
  0
TEXT
  5
17132
330
747D
100
AcDbEntity
  8
文字
 62
     7
 48
50.0
100
AcDbText
 10
13583.11819016569
 20
9230.013745883733
 30
0.0
 40
100.0
  1
壁面扉敷居
  7
STYLE1
100
AcDbText
  0
TEXT
  5
17133
330
747D
100
AcDbEntity
  8
文字
 62
     7
 48
50.0
100
AcDbText
 10
15022.63965474515
 20
9400.013745883727
 30
0.0
 40
100.0
  1
F12            0.7
  7
STYLE1
100
AcDbText
  0
TEXT
  5
17134
330
747D
100
AcDbEntity
  8
文字
 62
     7
 48
50.0
100
AcDbText
 10
15022.63965474517
 20
9230.013745883725
 30
0.0
 40
100.0
  1
F12            1.0
  7
STYLE1
100
AcDbText
  0
TEXT
  5
17135
330
747D
100
AcDbEntity
  8
文字
 62
     7
 48
50.0
100
AcDbText
 10
13583.11819016569
 20
9060.013745883733
 30
0.0
 40
100.0
  1
壁面扉枠左右
  7
STYLE1
100
AcDbText
  0
TEXT
  5
17136
330
747D
100
AcDbEntity
  8
文字
 62
     7
 48
50.0
100
AcDbText
 10
15022.63965474517
 20
9060.013745883725
 30
0.0
 40
100.0
  1
F12            1.0
  7
STYLE1
100
AcDbText
  0
TEXT
  5
17137
330
747D
100
AcDbEntity
  8
文字
 62
     7
 48
50.0
100
AcDbText
 10
13248.77747366447
 20
8550.013745883729
 30
0.0
 40
100.0
  1
16
  7
STYLE1
100
AcDbText
  0
TEXT
  5
17138
330
747D
100
AcDbEntity
  8
文字
 62
     7
 48
50.0
100
AcDbText
 10
13248.77747366447
 20
8380.013745883728
 30
0.0
 40
100.0
  1
17
  7
STYLE1
100
AcDbText
  0
LINE
  5
176D1
330
747D
100
AcDbEntity
  8
部品1
 48
50.0
100
AcDbLine
 10
9200.334605198928
 20
3666.268547337416
 30
0.0
 11
9253.334605198928
 21
3666.268547337416
 31
0.0
  0
LINE
  5
176EC
330
747D
100
AcDbEntity
  8
部品1
 48
50.0
100
AcDbLine
 10
10440.33460519893
 20
4475.768547337426
 30
0.0
 11
10410.33460519893
 21
4475.768547337426
 31
0.0
  0
LINE
  5
176EE
330
747D
100
AcDbEntity
  8
部品1
 48
50.0
100
AcDbLine
 10
9156.334605198928
 20
4475.768547337426
 30
0.0
 11
9126.334605198929
 21
4475.768547337426
 31
0.0
  0
LINE
  5
176EF
330
747D
100
AcDbEntity
  8
部品1
 48
50.0
100
AcDbLine
 10
10440.33460519893
 20
4519.768547337426
 30
0.0
 11
9126.334605198929
 21
4519.768547337426
 31
0.0
  0
LINE
  5
176F0
330
747D
100
AcDbEntity
  8
細線
 48
50.0
100
AcDbLine
 10
10440.33460519893
 20
4509.768547337427
 30
0.0
 11
9126.334605198929
 21
4509.768547337427
 31
0.0
  0
LINE
  5
176F1
330
747D
100
AcDbEntity
  8
細線
 48
50.0
100
AcDbLine
 10
10410.33460519893
 20
4467.768547337427
 30
0.0
 11
9156.334605198928
 21
4467.768547337427
 31
0.0
  0
LINE
  5
176F2
330
747D
100
AcDbEntity
  8
細線
 48
50.0
100
AcDbLine
 10
10410.33460519893
 20
4477.268547337426
 30
0.0
 11
9156.334605198928
 21
4477.268547337426
 31
0.0
  0
LINE
  5
176F4
330
747D
100
AcDbEntity
  8
細線
 48
50.0
100
AcDbLine
 10
10388.33460519893
 20
2731.768547337425
 30
0.0
 11
10384.33460519893
 21
2742.268547337425
 31
0.0
  0
LINE
  5
176F5
330
747D
100
AcDbEntity
  8
細線
 48
50.0
100
AcDbLine
 10
9616.334605198934
 20
2742.268547337427
 30
0.0
 11
10384.33460519893
 21
2742.268547337425
 31
0.0
  0
LINE
  5
176F6
330
747D
100
AcDbEntity
  8
部品1
 48
50.0
100
AcDbLine
 10
9165.334605198928
 20
2734.768547337425
 30
0.0
 11
9165.334605198928
 21
2731.768547337425
 31
0.0
  0
LINE
  5
176F7
330
747D
100
AcDbEntity
  8
部品1
 48
50.0
100
AcDbLine
 10
9156.334605198928
 20
2734.768547337425
 30
0.0
 11
9616.334605198934
 21
2734.768547337427
 31
0.0
  0
LINE
  5
176F8
330
747D
100
AcDbEntity
  8
部品1
 48
50.0
100
AcDbLine
 10
9126.334605198929
 20
2684.768547337425
 30
0.0
 11
10440.33460519893
 21
2684.768547337425
 31
0.0
  0
LINE
  5
176F9
330
747D
100
AcDbEntity
  8
細線
 48
50.0
100
AcDbLine
 10
9156.334605198928
 20
2727.768547337425
 30
0.0
 11
10410.33460519893
 21
2727.768547337425
 31
0.0
  0
LINE
  5
176FA
330
747D
100
AcDbEntity
  8
細線
 48
50.0
100
AcDbLine
 10
9156.334605198928
 20
2731.768547337425
 30
0.0
 11
10410.33460519893
 21
2731.768547337425
 31
0.0
  0
LINE
  5
176FB
330
747D
100
AcDbEntity
  8
部品1
 48
50.0
100
AcDbLine
 10
10440.33460519893
 20
2684.768547337425
 30
0.0
 11
10440.33460519893
 21
4519.768547337426
 31
0.0
  0
LINE
  5
176FC
330
747D
100
AcDbEntity
  8
細線
 48
50.0
100
AcDbLine
 10
10410.33460519893
 20
2684.768547337425
 30
0.0
 11
10410.33460519893
 21
4477.268547337426
 31
0.0
  0
LINE
  5
176FD
330
747D
100
AcDbEntity
  8
部品1
 48
50.0
100
AcDbLine
 10
10401.33460519893
 20
2731.768547337425
 30
0.0
 11
10401.33460519893
 21
4467.768547337427
 31
0.0
  0
LINE
  5
176FF
330
747D
100
AcDbEntity
  8
部品1
 48
50.0
100
AcDbLine
 10
9126.334605198929
 20
4519.768547337426
 30
0.0
 11
9126.334605198929
 21
2684.768547337425
 31
0.0
  0
LINE
  5
17700
330
747D
100
AcDbEntity
  8
細線
 48
50.0
100
AcDbLine
 10
9156.334605198928
 20
4477.268547337426
 30
0.0
 11
9156.334605198928
 21
2684.768547337425
 31
0.0
  0
LINE
  5
17701
330
747D
100
AcDbEntity
  8
部品1
 48
50.0
100
AcDbLine
 10
9156.334605198928
 20
2734.768547337425
 30
0.0
 11
9156.334605198928
 21
4467.768547337427
 31
0.0
  0
LINE
  5
17702
330
747D
100
AcDbEntity
  8
細線
100
AcDbLine
 10
9833.834595891744
 20
4467.76854733742
 30
0.0
 11
9833.834595891746
 21
2742.268547337431
 31
0.0
  0
LINE
  5
17703
330
747D
100
AcDbEntity
  8
細線
100
AcDbLine
 10
9903.834595891744
 20
4467.76854733742
 30
0.0
 11
9903.834595891746
 21
2742.268547337431
 31
0.0
  0
LINE
  5
17704
330
747D
100
AcDbEntity
  8
細線
100
AcDbLine
 10
9446.334605198931
 20
4467.768547337423
 30
0.0
 11
9446.334605198931
 21
2734.768547337427
 31
0.0
  0
LINE
  5
17705
330
747D
100
AcDbEntity
  8
細線
100
AcDbLine
 10
9516.334605198931
 20
4467.768547337423
 30
0.0
 11
9516.334605198931
 21
2734.768547337427
 31
0.0
  0
LINE
  5
17706
330
747D
100
AcDbEntity
  8
細線
100
AcDbLine
 10
10091.08459821854
 20
4467.76854733742
 30
0.0
 11
10091.08459821854
 21
2742.268547337434
 31
0.0
  0
LINE
  5
17707
330
747D
100
AcDbEntity
  8
細線
100
AcDbLine
 10
10161.08459821854
 20
4467.76854733742
 30
0.0
 11
10161.08459821854
 21
2742.268547337434
 31
0.0
  0
LINE
  5
17708
330
747D
100
AcDbEntity
  8
細線
100
AcDbLine
 10
10231.08459821854
 20
4467.76854733742
 30
0.0
 11
10231.08459821854
 21
2742.268547337434
 31
0.0
  0
LINE
  5
17709
330
747D
100
AcDbEntity
  8
細線
100
AcDbLine
 10
10301.08459821854
 20
4467.76854733742
 30
0.0
 11
10301.08459821854
 21
2742.268547337434
 31
0.0
  0
LINE
  5
1770A
330
747D
100
AcDbEntity
  8
細線
100
AcDbLine
 10
9284.334605198925
 20
4467.76854733742
 30
0.0
 11
9284.334605198925
 21
2734.768547337425
 31
0.0
  0
LINE
  5
1770B
330
747D
100
AcDbEntity
  8
細線
100
AcDbLine
 10
9318.334605198925
 20
4467.76854733742
 30
0.0
 11
9318.334605198925
 21
2734.768547337425
 31
0.0
  0
LINE
  5
1770C
330
747D
100
AcDbEntity
  8
部品1
100
AcDbLine
 10
9276.334605198924
 20
4467.76854733742
 30
0.0
 11
9276.334605198924
 21
2734.768547337425
 31
0.0
  0
LINE
  5
1770D
330
747D
100
AcDbEntity
  8
部品1
100
AcDbLine
 10
9326.334605198924
 20
4467.76854733742
 30
0.0
 11
9326.334605198924
 21
2734.768547337425
 31
0.0
  0
LINE
  5
1770E
330
747D
100
AcDbEntity
  8
細線
100
AcDbLine
 10
9693.834595891743
 20
4467.76854733742
 30
0.0
 11
9693.834595891743
 21
2742.268547337427
 31
0.0
  0
LINE
  5
1770F
330
747D
100
AcDbEntity
  8
細線
100
AcDbLine
 10
9763.834595891744
 20
4467.76854733742
 30
0.0
 11
9763.834595891745
 21
2742.268547337427
 31
0.0
  0
LINE
  5
17710
330
747D
100
AcDbEntity
  8
部品1
 48
50.0
100
AcDbLine
 10
10022.33459589175
 20
4467.76854733743
 30
0.0
 11
10022.33459589175
 21
2742.268547337429
 31
0.0
  0
LINE
  5
17711
330
747D
100
AcDbEntity
  8
部品1
 48
50.0
100
AcDbLine
 10
9616.334605198938
 20
4467.768547337427
 30
0.0
 11
9616.334605198934
 21
2734.768547337427
 31
0.0
  0
LINE
  5
17800
330
747D
100
AcDbEntity
  8
寸法
 48
50.0
100
AcDbLine
 10
9404.728774553495
 20
7843.734298654275
 30
0.0
 11
9353.32276664339
 21
7843.734298654275
 31
0.0
  0
LINE
  5
17801
330
747D
100
AcDbEntity
  8
寸法
 48
50.0
100
AcDbLine
 10
9353.32276664339
 20
7843.734298654275
 30
0.0
 11
9353.32276664339
 21
7875.044457306443
 31
0.0
  0
LINE
  5
17802
330
747D
100
AcDbEntity
  8
寸法
 48
50.0
100
AcDbLine
 10
9353.32276664339
 20
7875.044457306443
 30
0.0
 11
9323.561434651967
 21
7875.044457306443
 31
0.0
  0
LINE
  5
17803
330
747D
100
AcDbEntity
  8
寸法
 48
50.0
100
AcDbLine
 10
9323.561434651967
 20
7875.044457306443
 30
0.0
 11
9379.025770598444
 21
7912.623908235052
 31
0.0
  0
LINE
  5
17804
330
747D
100
AcDbEntity
  8
寸法
 48
50.0
100
AcDbLine
 10
9434.490106544918
 20
7875.044457306443
 30
0.0
 11
9379.025770598444
 21
7912.623908235052
 31
0.0
  0
LINE
  5
17805
330
747D
100
AcDbEntity
  8
寸法
 48
50.0
100
AcDbLine
 10
9404.728774553495
 20
7875.044457306443
 30
0.0
 11
9434.490106544918
 21
7875.044457306443
 31
0.0
  0
LINE
  5
17806
330
747D
100
AcDbEntity
  8
寸法
 48
50.0
100
AcDbLine
 10
9404.728774553495
 20
7843.734298654275
 30
0.0
 11
9404.728774553495
 21
7875.044457306443
 31
0.0
  0
LINE
  5
17807
330
747D
100
AcDbEntity
  8
寸法
 48
50.0
100
AcDbLine
 10
9353.32276664339
 20
7843.734298654275
 30
0.0
 11
9404.728774553495
 21
7843.734298654275
 31
0.0
  0
LINE
  5
17808
330
747D
100
AcDbEntity
  8
寸法
 48
50.0
100
AcDbLine
 10
9683.89430883035
 20
7900.879889409099
 30
0.0
 11
9683.89430883035
 21
7847.216254827309
 31
0.0
  0
LINE
  5
17809
330
747D
100
AcDbEntity
  8
寸法
 48
50.0
100
AcDbLine
 10
9773.178527425772
 20
7876.956255139614
 30
0.0
 11
9683.89430883035
 21
7900.879889409099
 31
0.0
  0
LINE
  5
1780A
330
747D
100
AcDbEntity
  8
寸法
 48
50.0
100
AcDbLine
 10
9554.026587250048
 20
7876.956255139614
 30
0.0
 11
9773.178527425772
 21
7876.956255139614
 31
0.0
  0
LINE
  5
1780B
330
747D
100
AcDbEntity
  8
細線
 48
50.0
100
AcDbLine
 10
10022.33460104255
 20
8042.197662034139
 30
0.0
 11
10401.33460519882
 21
8042.197662034139
 31
0.0
  0
LINE
  5
1780C
330
747D
100
AcDbEntity
  8
細線
 48
50.0
100
AcDbLine
 10
9616.334605198824
 20
8008.488893480063
 30
0.0
 11
10401.33460519882
 21
8008.488893480063
 31
0.0
  0
LINE
  5
1780D
330
747D
100
AcDbEntity
  8
細線
 48
50.0
100
AcDbLine
 10
9575.334605198824
 20
8037.893801476313
 30
0.0
 11
9165.33460519882
 21
8037.893801476313
 31
0.0
  0
LINE
  5
1780E
330
747D
100
AcDbEntity
  8
細線
100
AcDbLine
 10
10298.75305174224
 20
8066.697564639094
 30
0.0
 11
10233.41612832377
 21
8066.697564639079
 31
0.0
  0
LINE
  5
1780F
330
747D
100
AcDbEntity
  8
細線
100
AcDbLine
 10
10301.08459821843
 20
8061.697547085413
 30
0.0
 11
10298.75305174224
 21
8066.697564639094
 31
0.0
  0
LINE
  5
17810
330
747D
100
AcDbEntity
  8
細線
100
AcDbLine
 10
10231.08458880197
 20
8061.697561999148
 30
0.0
 11
10233.41612832378
 21
8066.697564639108
 31
0.0
  0
LINE
  5
17811
330
747D
100
AcDbEntity
  8
細線
100
AcDbLine
 10
10091.08459821843
 20
8061.697547085413
 30
0.0
 11
10093.41613774024
 21
8066.697549725374
 31
0.0
  0
LINE
  5
17812
330
747D
100
AcDbEntity
  8
細線
100
AcDbLine
 10
10161.08460763489
 20
8061.697532171679
 30
0.0
 11
10158.7530611587
 21
8066.697549725359
 31
0.0
  0
LINE
  5
17813
330
747D
100
AcDbEntity
  8
細線
100
AcDbLine
 10
10158.7530611587
 20
8066.697549725359
 30
0.0
 11
10093.41613774023
 21
8066.697549725345
 31
0.0
  0
LINE
  5
17814
330
747D
100
AcDbEntity
  8
細線
 48
50.0
100
AcDbLine
 10
9815.217401162881
 20
8045.968410238494
 30
0.0
 11
9820.97291874555
 21
8027.697558948009
 31
0.0
  0
LINE
  5
17815
330
747D
100
AcDbEntity
  8
細線
 48
50.0
100
AcDbLine
 10
9804.288952682449
 20
8045.968410238494
 30
0.0
 11
9815.217401162881
 21
8045.968410238494
 31
0.0
  0
ARC
  5
17816
330
747D
100
AcDbEntity
  8
細線
 48
50.0
100
AcDbCircle
 10
9798.834596625132
 20
8047.468410238494
 30
0.0
 40
5.0
100
AcDbArc
 50
204.6243183521304
 51
335.3756816478695
  0
ARC
  5
17817
330
747D
100
AcDbEntity
  8
細線
 48
50.0
100
AcDbCircle
 10
9804.288952682449
 20
8044.968410238494
 30
0.0
 40
1.0
100
AcDbArc
 50
90.0
 51
155.3756816478695
  0
ARC
  5
17818
330
747D
100
AcDbEntity
  8
細線
 48
50.0
100
AcDbCircle
 10
9793.380240567813
 20
8044.968410238494
 30
0.0
 40
1.0
100
AcDbArc
 50
24.62431835213048
 51
90.0
  0
LINE
  5
17819
330
747D
100
AcDbEntity
  8
細線
 48
50.0
100
AcDbLine
 10
9782.45179208738
 20
8045.968410238494
 30
0.0
 11
9793.380240567813
 21
8045.968410238494
 31
0.0
  0
LINE
  5
1781A
330
747D
100
AcDbEntity
  8
細線
 48
50.0
100
AcDbLine
 10
9776.696274504715
 20
8027.697558948
 30
0.0
 11
9782.45179208738
 21
8045.968410238494
 31
0.0
  0
LINE
  5
1781B
330
747D
100
AcDbEntity
  8
細線
100
AcDbLine
 10
9901.503023015466
 20
8032.697558986194
 30
0.0
 11
9836.166099596992
 21
8032.69755898618
 31
0.0
  0
LINE
  5
1781C
330
747D
100
AcDbEntity
  8
細線
100
AcDbLine
 10
9903.834569491653
 20
8027.697541432514
 30
0.0
 11
9901.503023015465
 21
8032.697558986194
 31
0.0
  0
LINE
  5
1781D
330
747D
100
AcDbEntity
  8
細線
100
AcDbLine
 10
9833.834561306238
 20
8027.697558986224
 30
0.0
 11
9836.166099597006
 21
8032.69755898621
 31
0.0
  0
LINE
  5
1781E
330
747D
100
AcDbEntity
  8
細線
100
AcDbLine
 10
9446.334597013407
 20
7993.697738816083
 30
0.0
 11
9448.666135304176
 21
7998.697738816068
 31
0.0
  0
LINE
  5
1781F
330
747D
100
AcDbEntity
  8
細線
100
AcDbLine
 10
9516.334605198823
 20
7993.697721262368
 30
0.0
 11
9514.003058722636
 21
7998.697738816045
 31
0.0
  0
LINE
  5
17820
330
747D
100
AcDbEntity
  8
細線
100
AcDbLine
 10
9514.003058722636
 20
7998.697738816045
 30
0.0
 11
9448.666135304163
 21
7998.697738816038
 31
0.0
  0
ARC
  5
17821
330
747D
100
AcDbEntity
  8
部品1
 48
0.01
100
AcDbCircle
 10
9325.834498600077
 20
7992.696616631009
 30
0.0
 40
0.5
100
AcDbArc
 50
270.0
 51
0.0
  0
LINE
  5
17822
330
747D
100
AcDbEntity
  8
部品1
 48
0.01
100
AcDbLine
 10
9326.334498600076
 20
7993.69661663101
 30
0.0
 11
9326.334498600076
 21
7992.696616631009
 31
0.0
  0
LINE
  5
17823
330
747D
100
AcDbEntity
  8
部品1
 48
0.01
100
AcDbLine
 10
9326.334498600076
 20
7993.69661663101
 30
0.0
 11
9326.334498600076
 21
7992.696616631009
 31
0.0
  0
LINE
  5
17824
330
747D
100
AcDbEntity
  8
部品1
 48
0.01
100
AcDbLine
 10
9325.834498600077
 20
7992.19661663101
 30
0.0
 11
9319.221993170014
 21
7992.19661663101
 31
0.0
  0
ARC
  5
17825
330
747D
100
AcDbEntity
  8
部品1
100
AcDbCircle
 10
9319.290342722792
 20
7993.196616631009
 30
0.0
 40
1.0
100
AcDbArc
 50
160.5287793655778
 51
270.0
  0
ARC
  5
17826
330
747D
100
AcDbEntity
  8
部品1
100
AcDbCircle
 10
9293.834498600075
 20
8002.196616631009
 30
0.0
 40
26.0
100
AcDbArc
 50
340.5287793655779
 51
0.0
  0
LINE
  5
17827
330
747D
100
AcDbEntity
  8
部品1
100
AcDbLine
 10
9319.834498600076
 20
8002.196616631009
 30
0.0
 11
9319.834498600076
 21
8007.196616631009
 31
0.0
  0
ARC
  5
17828
330
747D
100
AcDbEntity
  8
部品1
 48
0.01
100
AcDbCircle
 10
9317.834498600076
 20
8007.196616631009
 30
0.0
 40
2.0
100
AcDbArc
 50
0.0
 51
90.0
  0
ARC
  5
17829
330
747D
100
AcDbEntity
  8
部品1
100
AcDbCircle
 10
9316.226106975264
 20
8006.19661663101
 30
0.0
 40
3.0
100
AcDbArc
 50
90.0
 51
141.6069559807873
  0
LINE
  5
1782A
330
747D
100
AcDbEntity
  8
部品1
 48
0.01
100
AcDbLine
 10
9317.834498600076
 20
8009.19661663101
 30
0.0
 11
9316.226106975264
 21
8009.19661663101
 31
0.0
  0
ARC
  5
1782B
330
747D
100
AcDbEntity
  8
部品1
100
AcDbCircle
 10
9297.763784385805
 20
8005.496616631011
 30
0.0
 40
3.0
100
AcDbArc
 50
254.0576313943215
 51
270.0
  0
ARC
  5
1782C
330
747D
100
AcDbEntity
  8
部品1
100
AcDbCircle
 10
9304.905212814347
 20
8005.496616631011
 30
0.0
 40
3.0
100
AcDbArc
 50
270.0
 51
285.9423686056786
  0
LINE
  5
1782D
330
747D
100
AcDbEntity
  8
部品1
100
AcDbLine
 10
9304.905212814347
 20
8002.496616631011
 30
0.0
 11
9297.763784385805
 21
8002.496616631011
 31
0.0
  0
ARC
  5
1782E
330
747D
100
AcDbEntity
  8
部品1
100
AcDbCircle
 10
9301.334498600075
 20
8017.996616631013
 30
0.0
 40
16.0
100
AcDbArc
 50
285.9423686056786
 51
321.6069559807873
  0
LINE
  5
1782F
330
747D
100
AcDbEntity
  8
部品1
 48
0.01
100
AcDbLine
 10
9284.834498600075
 20
8009.19661663101
 30
0.0
 11
9286.442890224888
 21
8009.19661663101
 31
0.0
  0
ARC
  5
17830
330
747D
100
AcDbEntity
  8
部品1
100
AcDbCircle
 10
9286.442890224888
 20
8006.19661663101
 30
0.0
 40
3.0
100
AcDbArc
 50
38.39304401921267
 51
90.0
  0
ARC
  5
17831
330
747D
100
AcDbEntity
  8
部品1
100
AcDbCircle
 10
9301.334498600075
 20
8017.996616631013
 30
0.0
 40
16.0
100
AcDbArc
 50
218.3930440192126
 51
254.0576313943215
  0
LINE
  5
17832
330
747D
100
AcDbEntity
  8
部品1
100
AcDbLine
 10
9282.834498600076
 20
8002.196616631009
 30
0.0
 11
9282.834498600076
 21
8007.196616631009
 31
0.0
  0
ARC
  5
17833
330
747D
100
AcDbEntity
  8
部品1
 48
0.01
100
AcDbCircle
 10
9284.834498600075
 20
8007.196616631009
 30
0.0
 40
2.0
100
AcDbArc
 50
90.0
 51
180.0
  0
ARC
  5
17834
330
747D
100
AcDbEntity
  8
部品1
100
AcDbCircle
 10
9308.834498600075
 20
8002.196616631009
 30
0.0
 40
26.0
100
AcDbArc
 50
180.0
 51
199.4712206344221
  0
ARC
  5
17835
330
747D
100
AcDbEntity
  8
部品1
 48
0.01
100
AcDbCircle
 10
9276.834498600075
 20
7992.696616631009
 30
0.0
 40
0.5
100
AcDbArc
 50
180.0
 51
270.0
  0
LINE
  5
17836
330
747D
100
AcDbEntity
  8
部品1
 48
0.01
100
AcDbLine
 10
9276.834498600075
 20
7992.19661663101
 30
0.0
 11
9283.378654477358
 21
7992.19661663101
 31
0.0
  0
LINE
  5
17837
330
747D
100
AcDbEntity
  8
部品1
 48
0.01
100
AcDbLine
 10
9276.334498600077
 20
7993.69661663101
 30
0.0
 11
9276.334498600077
 21
7992.696616631009
 31
0.0
  0
ARC
  5
17838
330
747D
100
AcDbEntity
  8
部品1
100
AcDbCircle
 10
9283.378654477358
 20
7993.196616631009
 30
0.0
 40
1.0
100
AcDbArc
 50
270.0
 51
19.47122063442214
  0
LINE
  5
17839
330
747D
100
AcDbEntity
  8
細線
100
AcDbLine
 10
9321.834498600082
 20
8011.696616631013
 30
0.0
 11
9280.834498600084
 21
8011.696616631006
 31
0.0
  0
LINE
  5
1783A
330
747D
100
AcDbEntity
  8
細線
100
AcDbLine
 10
9280.834498600084
 20
8011.696616631006
 30
0.0
 11
9280.834498600084
 21
7993.696616630987
 31
0.0
  0
LINE
  5
1783B
330
747D
100
AcDbEntity
  8
細線
100
AcDbLine
 10
9321.834498600082
 20
8011.696616631013
 30
0.0
 11
9321.834498600082
 21
7993.696616630987
 31
0.0
  0
LINE
  5
1783C
330
747D
100
AcDbEntity
  8
細線
100
AcDbLine
 10
9165.33460519882
 20
7997.697547085413
 30
0.0
 11
9165.33460519882
 21
7993.69754708546
 31
0.0
  0
DIMENSION
  5
1783D
330
747D
100
AcDbEntity
  8
寸法
 48
50.0
100
AcDbDimension
  2
*D32
 10
9839.334605198821
 20
7364.568172388111
 30
0.0
 11
9502.334605198822
 21
7364.568172388111
 31
0.0
 70
   160
  1
有効開口部間口\P<>
 71
     5
 42
674.0
  3
INABA_S40
100
AcDbAlignedDimension
 13
9165.33460519882
 23
7988.697547085414
 33
0.0
 14
9839.334605198821
 24
7988.697547085414
 34
0.0
100
AcDbRotatedDimension
1001
ACAD
1000
DSTYLE
1002
{
1070
    41
1040
0.5
1070
    44
1040
1.0
1070
   147
1040
0.8
1070
   271
1070
     2
1070
   272
1070
     2
1070
   289
1070
     3
1070
   340
1005
F706
1070
   343
1005
15DA8
1070
   344
1005
15DA8
1002
}
  0
LINE
  5
1783E
330
747D
100
AcDbEntity
  8
部品1
100
AcDbLine
 10
10413.33460519882
 20
8065.697547085413
 30
0.0
 11
10440.33460519882
 21
8065.697547085413
 31
0.0
  0
LINE
  5
17840
330
747D
100
AcDbEntity
  8
部品1
100
AcDbLine
 10
10440.33460519882
 20
7988.697547085414
 30
0.0
 11
10440.33460519882
 21
8065.697547085413
 31
0.0
  0
LINE
  5
17841
330
747D
100
AcDbEntity
  8
部品1
100
AcDbLine
 10
10401.33460519882
 20
8061.697547085413
 30
0.0
 11
10413.33460519882
 21
8061.697547085413
 31
0.0
  0
LINE
  5
17842
330
747D
100
AcDbEntity
  8
部品1
100
AcDbLine
 10
10410.33460519882
 20
7997.697547085413
 30
0.0
 11
10410.33460519882
 21
7988.697547085414
 31
0.0
  0
LINE
  5
17843
330
747D
100
AcDbEntity
  8
部品1
100
AcDbLine
 10
10401.33460519882
 20
7997.697547085413
 30
0.0
 11
10410.33460519882
 21
7997.697547085413
 31
0.0
  0
LINE
  5
17844
330
747D
100
AcDbEntity
  8
部品1
100
AcDbLine
 10
10401.33460519882
 20
8061.697547085413
 30
0.0
 11
10401.33460519882
 21
7997.697547085413
 31
0.0
  0
LINE
  5
17845
330
747D
100
AcDbEntity
  8
部品1
100
AcDbLine
 10
10413.33460519882
 20
8092.697547085412
 30
0.0
 11
10413.33460519882
 21
8061.697547085413
 31
0.0
  0
LINE
  5
17846
330
747D
100
AcDbEntity
  8
部品1
100
AcDbLine
 10
9165.33460519882
 20
8061.697547085413
 30
0.0
 11
9153.334605198821
 21
8061.697547085413
 31
0.0
  0
LINE
  5
17847
330
747D
100
AcDbEntity
  8
部品1
100
AcDbLine
 10
9126.33460519882
 20
8065.697547085413
 30
0.0
 11
9153.334605198821
 21
8065.697547085413
 31
0.0
  0
LINE
  5
17848
330
747D
100
AcDbEntity
  8
部品1
100
AcDbLine
 10
9156.33460519882
 20
7997.697547085413
 30
0.0
 11
9156.33460519882
 21
7988.697547085414
 31
0.0
  0
LINE
  5
17849
330
747D
100
AcDbEntity
  8
部品1
100
AcDbLine
 10
9165.33460519882
 20
7997.697547085413
 30
0.0
 11
9156.33460519882
 21
7997.697547085413
 31
0.0
  0
LINE
  5
1784A
330
747D
100
AcDbEntity
  8
部品1
100
AcDbLine
 10
9156.33460519882
 20
7988.697547085414
 30
0.0
 11
9126.33460519882
 21
7988.697547085414
 31
0.0
  0
LINE
  5
1784B
330
747D
100
AcDbEntity
  8
部品1
100
AcDbLine
 10
9126.33460519882
 20
7988.697547085414
 30
0.0
 11
9126.33460519882
 21
8065.697547085413
 31
0.0
  0
LINE
  5
1784C
330
747D
100
AcDbEntity
  8
部品1
100
AcDbLine
 10
9165.33460519882
 20
8061.697547085413
 30
0.0
 11
9165.33460519882
 21
7997.697547085413
 31
0.0
  0
LINE
  5
1784D
330
747D
100
AcDbEntity
  8
部品1
100
AcDbLine
 10
9153.334605198821
 20
8092.697547085411
 30
0.0
 11
9153.334605198821
 21
8061.697547085413
 31
0.0
  0
LINE
  5
1784E
330
747D
100
AcDbEntity
  8
部品1
100
AcDbLine
 10
9153.334605198821
 20
8092.697547085411
 30
0.0
 11
10413.33460519882
 21
8092.697547085412
 31
0.0
  0
LINE
  5
1784F
330
747D
100
AcDbEntity
  8
部品1
100
AcDbLine
 10
9156.33460519882
 20
7988.697547085414
 30
0.0
 11
10440.33460519882
 21
7988.697547085412
 31
0.0
  0
LINE
  5
17850
330
747D
100
AcDbEntity
  8
細線
 48
50.0
100
AcDbLine
 10
9179.334609852412
 20
8014.297721262368
 30
0.0
 11
9179.334609852412
 21
8022.693871670007
 31
0.0
  0
LINE
  5
17851
330
747D
100
AcDbEntity
  8
細線
 48
50.0
100
AcDbLine
 10
9179.334609852412
 20
8022.693871670007
 30
0.0
 11
9165.33460519882
 21
8022.693871670004
 31
0.0
  0
LINE
  5
17852
330
747D
100
AcDbEntity
  8
細線
 48
50.0
100
AcDbLine
 10
9156.33460519882
 20
7993.695055605837
 30
0.0
 11
9446.334605198821
 21
7993.698691731791
 31
0.0
  0
LINE
  5
17853
330
747D
100
AcDbEntity
  8
細線
 48
50.0
100
AcDbLine
 10
9516.334605198826
 20
7993.697721262368
 30
0.0
 11
9616.334605198822
 21
7993.697721262368
 31
0.0
  0
LINE
  5
17854
330
747D
100
AcDbEntity
  8
細線
 48
50.0
100
AcDbLine
 10
9389.196283078407
 20
7993.697721262368
 30
0.0
 11
9394.951800661075
 21
8011.968572552863
 31
0.0
  0
LINE
  5
17855
330
747D
100
AcDbEntity
  8
細線
 48
50.0
100
AcDbLine
 10
9394.951800661075
 20
8011.968572552863
 30
0.0
 11
9405.880249141508
 21
8011.968572552857
 31
0.0
  0
ARC
  5
17856
330
747D
100
AcDbEntity
  8
細線
 48
50.0
100
AcDbCircle
 10
9405.880249141508
 20
8010.96857255286
 30
0.0
 40
1.0
100
AcDbArc
 50
24.62431835213048
 51
90.0
  0
ARC
  5
17857
330
747D
100
AcDbEntity
  8
細線
 48
50.0
100
AcDbCircle
 10
9416.788961256143
 20
8010.96857255286
 30
0.0
 40
1.0
100
AcDbArc
 50
90.0
 51
155.3756816478695
  0
ARC
  5
17858
330
747D
100
AcDbEntity
  8
細線
 48
50.0
100
AcDbCircle
 10
9411.334605198824
 20
8013.468572552858
 30
0.0
 40
5.0
100
AcDbArc
 50
204.6243183521304
 51
335.3756816478695
  0
LINE
  5
17859
330
747D
100
AcDbEntity
  8
細線
 48
50.0
100
AcDbLine
 10
9416.788961256143
 20
8011.968572552857
 30
0.0
 11
9427.717409736576
 21
8011.968572552863
 31
0.0
  0
LINE
  5
1785A
330
747D
100
AcDbEntity
  8
細線
 48
50.0
100
AcDbLine
 10
9427.717409736576
 20
8011.968572552863
 30
0.0
 11
9433.472927319245
 21
7993.697721262368
 31
0.0
  0
LINE
  5
1785B
330
747D
100
AcDbEntity
  8
細線
 48
50.0
100
AcDbLine
 10
9992.334596388964
 20
8048.29776512023
 30
0.0
 11
9605.334605198821
 21
8048.29776512023
 31
0.0
  0
LINE
  5
1785C
330
747D
100
AcDbEntity
  8
細線
 48
50.0
100
AcDbLine
 10
10384.43460519882
 20
8091.697547085413
 30
0.0
 11
9996.334601042553
 21
8091.697547085409
 31
0.0
  0
LINE
  5
1785D
330
747D
100
AcDbEntity
  8
細線
 48
50.0
100
AcDbLine
 10
10410.83460519882
 20
8086.697547085417
 30
0.0
 11
10394.43460519882
 21
8086.697547085412
 31
0.0
  0
LINE
  5
1785E
330
747D
100
AcDbEntity
  8
細線
 48
50.0
100
AcDbLine
 10
10394.43460519882
 20
8086.697547085412
 30
0.0
 11
10384.43460519882
 21
8091.697547085413
 31
0.0
  0
LINE
  5
1785F
330
747D
100
AcDbEntity
  8
細線
100
AcDbLine
 10
10186.08459821843
 20
8061.697547085413
 30
0.0
 11
10186.08459821843
 21
8090.997547085413
 31
0.0
  0
LINE
  5
17860
330
747D
100
AcDbEntity
  8
細線
100
AcDbLine
 10
10186.08459821843
 20
8090.997547085413
 30
0.0
 11
10206.08459821843
 21
8090.997547085413
 31
0.0
  0
LINE
  5
17861
330
747D
100
AcDbEntity
  8
細線
100
AcDbLine
 10
10206.08459821843
 20
8061.697547085413
 30
0.0
 11
10206.08459821843
 21
8090.997547085413
 31
0.0
  0
LINE
  5
17862
330
747D
100
AcDbEntity
  8
細線
 48
50.0
100
AcDbLine
 10
10091.08459821843
 20
8061.697547085413
 30
0.0
 11
10014.13038061534
 21
8061.697547085413
 31
0.0
  0
LINE
  5
17863
330
747D
100
AcDbEntity
  8
細線
100
AcDbLine
 10
10231.08459821843
 20
8061.697547085413
 30
0.0
 11
10161.08459821843
 21
8061.697547085413
 31
0.0
  0
LINE
  5
17864
330
747D
100
AcDbEntity
  8
細線
100
AcDbLine
 10
10401.33460519882
 20
8061.697547085413
 30
0.0
 11
10301.08459821843
 21
8061.697547085413
 31
0.0
  0
LINE
  5
17865
330
747D
100
AcDbEntity
  8
細線
 48
50.0
100
AcDbLine
 10
10410.83460519882
 20
8086.697547085417
 30
0.0
 11
10410.83460519882
 21
8061.697547085413
 31
0.0
  0
ARC
  5
17866
330
747D
100
AcDbEntity
  8
細線
 48
50.0
100
AcDbCircle
 10
9616.101911074672
 20
8026.697568253688
 30
0.0
 40
1.0
100
AcDbArc
 50
90.0003999466794
 51
165.0005554812987
  0
LINE
  5
17867
330
747D
100
AcDbEntity
  8
細線
 48
50.0
100
AcDbLine
 10
9616.101904094286
 20
8027.697568253662
 30
0.0
 11
9617.043664245192
 21
8027.697574827511
 31
0.0
  0
ARC
  5
17868
330
747D
100
AcDbEntity
  8
細線
 48
50.0
100
AcDbCircle
 10
9606.567273273332
 20
8026.697373563392
 30
0.0
 40
1.0
100
AcDbArc
 50
15.00104430493943
 51
90.00093320877969
  0
LINE
  5
17869
330
747D
100
AcDbEntity
  8
細線
 48
50.0
100
AcDbLine
 10
9607.533194382078
 20
8026.956210213954
 30
0.0
 11
9607.780963878591
 21
8026.031589275373
 31
0.0
  0
ARC
  5
1786A
330
747D
100
AcDbEntity
  8
細線
 48
50.0
100
AcDbCircle
 10
9609.519621874337
 20
8026.49749524639
 30
0.0
 40
1.8
100
AcDbArc
 50
195.0010443049394
 51
270.0006665777295
  0
LINE
  5
1786B
330
747D
100
AcDbEntity
  8
細線
 48
50.0
100
AcDbLine
 10
9613.149570234259
 20
8024.697537476992
 30
0.0
 11
9609.519642815492
 21
8024.697495246511
 31
0.0
  0
LINE
  5
1786C
330
747D
100
AcDbEntity
  8
細線
 48
50.0
100
AcDbLine
 10
9615.135982739182
 20
8026.956377934149
 30
0.0
 11
9614.888220296984
 21
8026.031680052042
 31
0.0
  0
ARC
  5
1786D
330
747D
100
AcDbEntity
  8
細線
 48
50.0
100
AcDbCircle
 10
9613.149549293103
 20
8026.497537476869
 30
0.0
 40
1.8
100
AcDbArc
 50
270.0006665777295
 51
345.0005554812987
  0
LINE
  5
1786E
330
747D
100
AcDbEntity
  8
細線
 48
50.0
100
AcDbLine
 10
9595.334567631059
 20
8027.69719061011
 30
0.0
 11
9606.567256985767
 21
8027.697373563258
 31
0.0
  0
LINE
  5
1786F
330
747D
100
AcDbEntity
  8
細線
 48
50.0
100
AcDbLine
 10
9595.334567631059
 20
8027.69719061011
 30
0.0
 11
9595.3346125
 21
8019.093728974302
 31
0.0
  0
LINE
  5
17870
330
747D
100
AcDbEntity
  8
細線
 48
50.0
100
AcDbLine
 10
9575.334605198824
 20
8019.093687424762
 30
0.0
 11
9595.3346125
 21
8019.093728974302
 31
0.0
  0
LINE
  5
17871
330
747D
100
AcDbEntity
  8
細線
 48
50.0
100
AcDbLine
 10
9575.334605198824
 20
8056.693915527871
 30
0.0
 11
9575.334605198824
 21
8019.093687424762
 31
0.0
  0
LINE
  5
17872
330
747D
100
AcDbEntity
  8
細線
 48
50.0
100
AcDbLine
 10
9590.334605198824
 20
8056.693915527874
 30
0.0
 11
9575.334605198824
 21
8056.693915527871
 31
0.0
  0
LINE
  5
17873
330
747D
100
AcDbEntity
  8
細線
 48
50.0
100
AcDbLine
 10
9590.334605198824
 20
8049.693915527875
 30
0.0
 11
9590.334605198824
 21
8056.693915527874
 31
0.0
  0
LINE
  5
17874
330
747D
100
AcDbEntity
  8
細線
 48
50.0
100
AcDbLine
 10
9605.334605198823
 20
8049.693915527875
 30
0.0
 11
9590.334605198824
 21
8049.693915527875
 31
0.0
  0
LINE
  5
17875
330
747D
100
AcDbEntity
  8
細線
 48
50.0
100
AcDbLine
 10
9605.334605198823
 20
8045.193915527875
 30
0.0
 11
9605.334605198823
 21
8049.693915527875
 31
0.0
  0
LINE
  5
17876
330
747D
100
AcDbEntity
  8
細線
 48
50.0
100
AcDbLine
 10
9616.334605198822
 20
8022.697721262369
 30
0.0
 11
9616.334605198822
 21
7993.697721262368
 31
0.0
  0
LINE
  5
17877
330
747D
100
AcDbEntity
  8
細線
 48
50.0
100
AcDbLine
 10
9601.334605198825
 20
8022.697721262369
 30
0.0
 11
9616.334605198822
 21
8022.697721262369
 31
0.0
  0
LINE
  5
17878
330
747D
100
AcDbEntity
  8
細線
 48
50.0
100
AcDbLine
 10
9601.334605198823
 20
8015.697721262368
 30
0.0
 11
9601.334605198825
 21
8022.697721262369
 31
0.0
  0
LINE
  5
17879
330
747D
100
AcDbEntity
  8
細線
 48
50.0
100
AcDbLine
 10
9586.334605198823
 20
8015.697721262368
 30
0.0
 11
9601.334605198823
 21
8015.697721262368
 31
0.0
  0
LINE
  5
1787A
330
747D
100
AcDbEntity
  8
細線
 48
50.0
100
AcDbLine
 10
9586.334605198823
 20
8010.847721262367
 30
0.0
 11
9586.334605198823
 21
8015.697721262368
 31
0.0
  0
LINE
  5
1787B
330
747D
100
AcDbEntity
  8
細線
 48
50.0
100
AcDbLine
 10
9586.334605198821
 20
8014.297721262366
 30
0.0
 11
9179.334609852412
 21
8014.297721262368
 31
0.0
  0
LINE
  5
1787C
330
747D
100
AcDbEntity
  8
細線
 48
50.0
100
AcDbLine
 10
9693.834595891637
 20
8027.697564278719
 30
0.0
 11
9609.740045868051
 21
8027.697574865735
 31
0.0
  0
LINE
  5
1787D
330
747D
100
AcDbEntity
  8
細線
 48
50.0
100
AcDbLine
 10
9833.834561306238
 20
8027.697558986224
 30
0.0
 11
9763.834544018363
 21
8027.697558986231
 31
0.0
  0
LINE
  5
1787E
330
747D
100
AcDbEntity
  8
細線
100
AcDbLine
 10
9761.503058334358
 20
8032.697567173562
 30
0.0
 11
9696.166134915884
 21
8032.697567173549
 31
0.0
  0
LINE
  5
1787F
330
747D
100
AcDbEntity
  8
細線
100
AcDbLine
 10
9763.834604810547
 20
8027.697549619885
 30
0.0
 11
9761.503058334358
 21
8032.697567173562
 31
0.0
  0
LINE
  5
17880
330
747D
100
AcDbEntity
  8
細線
100
AcDbLine
 10
9693.83459662513
 20
8027.697567173595
 30
0.0
 11
9696.166134915898
 21
8032.697567173579
 31
0.0
  0
LINE
  5
17881
330
747D
100
AcDbEntity
  8
細線
 48
50.0
100
AcDbLine
 10
9981.334601042551
 20
8053.697547085418
 30
0.0
 11
9981.334601042552
 21
8091.697547085409
 31
0.0
  0
LINE
  5
17882
330
747D
100
AcDbEntity
  8
細線
 48
50.0
100
AcDbLine
 10
9981.334601042552
 20
8091.697547085409
 30
0.0
 11
9996.334601042553
 21
8091.697547085413
 31
0.0
  0
LINE
  5
17883
330
747D
100
AcDbEntity
  8
細線
 48
50.0
100
AcDbLine
 10
9996.334601042553
 20
8091.697547085413
 30
0.0
 11
9996.334601042553
 21
8086.697547085412
 31
0.0
  0
LINE
  5
17884
330
747D
100
AcDbEntity
  8
細線
 48
50.0
100
AcDbLine
 10
9981.334601042551
 20
8053.697547085418
 30
0.0
 11
10001.33460104255
 21
8053.697547085413
 31
0.0
  0
LINE
  5
17885
330
747D
100
AcDbEntity
  8
細線
 48
50.0
100
AcDbLine
 10
10001.33460104255
 20
8053.697547085413
 30
0.0
 11
10001.33460104255
 21
8061.697547085413
 31
0.0
  0
LINE
  5
17886
330
747D
100
AcDbEntity
  8
細線
 48
50.0
100
AcDbLine
 10
10007.33460104255
 20
8060.897547085414
 30
0.0
 11
10007.33460104255
 21
8059.397547085415
 31
0.0
  0
LINE
  5
17887
330
747D
100
AcDbEntity
  8
細線
 48
50.0
100
AcDbLine
 10
10008.03460104255
 20
8058.697547085413
 30
0.0
 11
10012.63460104255
 21
8058.697547085413
 31
0.0
  0
LINE
  5
17888
330
747D
100
AcDbEntity
  8
細線
 48
50.0
100
AcDbLine
 10
10013.33460104255
 20
8059.397547085415
 30
0.0
 11
10013.33460786766
 21
8060.897561976901
 31
0.0
  0
ARC
  5
17889
330
747D
100
AcDbEntity
  8
細線
 48
50.0
100
AcDbCircle
 10
10012.63460104255
 20
8059.397547085415
 30
0.0
 40
0.7
100
AcDbArc
 50
270.0
 51
0.0
  0
ARC
  5
1788A
330
747D
100
AcDbEntity
  8
細線
 48
50.0
100
AcDbCircle
 10
10008.03460104255
 20
8059.397547085415
 30
0.0
 40
0.7
100
AcDbArc
 50
180.0
 51
270.0
  0
LINE
  5
1788B
330
747D
100
AcDbEntity
  8
細線
 48
50.0
100
AcDbLine
 10
10006.53460290399
 20
8061.697547085413
 30
0.0
 11
10001.33460104255
 21
8061.697547085413
 31
0.0
  0
ARC
  5
1788C
330
747D
100
AcDbEntity
  8
細線
 48
50.0
100
AcDbCircle
 10
10014.13460786765
 20
8060.897558254032
 30
0.0
 40
0.8
100
AcDbArc
 50
90.00014387753465
 51
179.9997333689498
  0
ARC
  5
1788D
330
747D
100
AcDbEntity
  8
細線
 48
50.0
100
AcDbCircle
 10
10006.53460104256
 20
8060.897547085414
 30
0.0
 40
0.8
100
AcDbArc
 50
359.9997333689499
 51
89.99986668437072
  0
LINE
  5
1788E
330
747D
100
AcDbEntity
  8
細線
 48
50.0
100
AcDbLine
 10
9903.834561324044
 20
8027.697558948004
 30
0.0
 11
10022.33459589164
 21
8027.697558948004
 31
0.0
  0
LINE
  5
1788F
330
747D
100
AcDbEntity
  8
細線
 48
50.0
100
AcDbLine
 10
10022.33460619346
 20
8056.697765120278
 30
0.0
 11
10022.33459589164
 21
8027.697558948004
 31
0.0
  0
LINE
  5
17890
330
747D
100
AcDbEntity
  8
細線
 48
50.0
100
AcDbLine
 10
10007.33460802293
 20
8056.697765120278
 30
0.0
 11
10022.33460619346
 21
8056.697765120278
 31
0.0
  0
LINE
  5
17891
330
747D
100
AcDbEntity
  8
細線
 48
50.0
100
AcDbLine
 10
10007.33459638896
 20
8049.697765120233
 30
0.0
 11
10007.33460802293
 21
8056.697765120278
 31
0.0
  0
LINE
  5
17892
330
747D
100
AcDbEntity
  8
細線
 48
50.0
100
AcDbLine
 10
9992.334596388964
 20
8049.697765120233
 30
0.0
 11
10007.33459638896
 21
8049.697765120233
 31
0.0
  0
LINE
  5
17893
330
747D
100
AcDbEntity
  8
細線
 48
50.0
100
AcDbLine
 10
9992.334596388964
 20
8044.847765120236
 30
0.0
 11
9992.334596388964
 21
8049.697765120233
 31
0.0
  0
LINE
  5
17894
330
747D
100
AcDbEntity
  8
細線
  6
Continuous
 62
     5
100
AcDbLine
 10
9994.334601042554
 20
8046.697547085409
 30
0.0
 11
9994.334601042554
 21
8046.697547085409
 31
0.0
  0
LINE
  5
17895
330
747D
100
AcDbEntity
  8
細線
  6
Continuous
 62
     5
100
AcDbLine
 10
9926.334610349732
 20
8027.697547085409
 30
0.0
 11
9926.334610349732
 21
8027.697547085409
 31
0.0
  0
DIMENSION
  5
17905
330
747D
100
AcDbEntity
  8
寸法
 48
50.0
100
AcDbDimension
  2
*D33
 10
10440.33460519882
 20
7138.085683081321
 30
0.0
 11
9783.334605198822
 21
7138.085683081321
 31
0.0
 70
   160
 71
     5
 42
1314.0
  3
INABA_S40G
100
AcDbAlignedDimension
 13
9126.33460519882
 23
7988.697547085414
 33
0.0
 14
10440.33460519882
 24
7988.697547085414
 34
0.0
100
AcDbRotatedDimension
1001
ACAD
1000
DSTYLE
1002
{
1070
   341
1005
0
1002
}
  0
LWPOLYLINE
  5
17A05
330
747D
100
AcDbEntity
  8
部品1
 48
50.0
100
AcDbPolyline
 90
        4
 70
     1
 43
0.0
 10
9225.384605198927
 20
3581.018547337416
 10
9228.284605198929
 20
3581.018547337416
 10
9228.284605198929
 20
3590.518547337416
 10
9225.384605198927
 20
3590.518547337416
  0
CIRCLE
  5
17A06
330
747D
100
AcDbEntity
  8
部品1
 48
50.0
100
AcDbCircle
 10
9226.834605198929
 20
3585.768547337416
 30
0.0
 40
9.0
  0
ARC
  5
17A07
330
747D
100
AcDbEntity
  8
細線
 48
50.0
100
AcDbCircle
 10
9226.834605198929
 20
3585.768547337416
 30
0.0
 40
4.0
100
AcDbArc
 50
111.2538091853132
 51
248.7461908146868
  0
ARC
  5
17A08
330
747D
100
AcDbEntity
  8
細線
 48
50.0
100
AcDbCircle
 10
9226.834605198929
 20
3585.768547337416
 30
0.0
 40
17.5
100
AcDbArc
 50
306.4837370612677
 51
233.5162629387323
  0
LINE
  5
17A09
330
747D
100
AcDbEntity
  8
細線
 48
50.0
100
AcDbLine
 10
9236.834605198925
 20
3561.909586756533
 30
0.0
 11
9236.834605198929
 21
3570.894072556774
 31
0.0
  0
LINE
  5
17A0A
330
747D
100
AcDbEntity
  8
細線
 48
50.0
100
AcDbLine
 10
9216.834605198929
 20
3561.909586756535
 30
0.0
 11
9216.834605198929
 21
3570.894072556771
 31
0.0
  0
ARC
  5
17A0B
330
747D
100
AcDbEntity
  8
細線
 48
50.0
100
AcDbCircle
 10
9226.834605198929
 20
3585.768547337416
 30
0.0
 40
26.5
100
AcDbArc
 50
249.3326835063939
 51
290.6673164933835
  0
ARC
  5
17A0C
330
747D
100
AcDbEntity
  8
細線
 48
50.0
100
AcDbCircle
 10
9235.834605198922
 20
3561.909586756533
 30
0.0
 40
1.0
100
AcDbArc
 50
290.6673164936062
 51
359.9999999998958
  0
ARC
  5
17A0D
330
747D
100
AcDbEntity
  8
細線
 48
50.0
100
AcDbCircle
 10
9217.834605198929
 20
3561.909586756535
 30
0.0
 40
1.0
100
AcDbArc
 50
180.0
 51
249.3326835066164
  0
ARC
  5
17A0E
330
747D
100
AcDbEntity
  8
細線
 48
50.0
100
AcDbCircle
 10
9215.834605198928
 20
3570.894072556771
 30
0.0
 40
1.0
100
AcDbArc
 50
0.0
 51
53.51626293873231
  0
ARC
  5
17A0F
330
747D
100
AcDbEntity
  8
細線
 48
50.0
100
AcDbCircle
 10
9237.834605198932
 20
3570.894072556774
 30
0.0
 40
1.0
100
AcDbArc
 50
126.4837370615127
 51
180.0
  0
ARC
  5
17A10
330
747D
100
AcDbEntity
  8
細線
 48
50.0
100
AcDbCircle
 10
9226.834605198929
 20
3585.768547337416
 30
0.0
 40
21.5
100
AcDbArc
 50
255.8014401250294
 51
284.1985598749706
  0
ARC
  5
17A11
330
747D
100
AcDbEntity
  8
細線
 48
50.0
100
AcDbCircle
 10
9226.834605198929
 20
3585.768547337416
 30
0.0
 40
16.5
100
AcDbArc
 50
251.9694646069326
 51
288.0305353930674
  0
LINE
  5
17A12
330
747D
100
AcDbEntity
  8
細線
 48
50.0
100
AcDbLine
 10
9232.334605198929
 20
3565.21617521161
 30
0.0
 11
9232.334605198929
 21
3569.793566898946
 31
0.0
  0
LINE
  5
17A13
330
747D
100
AcDbEntity
  8
細線
 48
50.0
100
AcDbLine
 10
9221.334605198929
 20
3565.21617521161
 30
0.0
 11
9221.334605198929
 21
3569.793566898944
 31
0.0
  0
ARC
  5
17A14
330
747D
100
AcDbEntity
  8
細線
 48
50.0
100
AcDbCircle
 10
9221.634605198932
 20
3569.793566898944
 30
0.0
 40
0.3
100
AcDbArc
 50
71.96946460693259
 51
180.0
  0
ARC
  5
17A15
330
747D
100
AcDbEntity
  8
細線
 48
50.0
100
AcDbCircle
 10
9232.034605198929
 20
3569.793566898946
 30
0.0
 40
0.3
100
AcDbArc
 50
0.0
 51
108.0305353930674
  0
ARC
  5
17A16
330
747D
100
AcDbEntity
  8
細線
 48
50.0
100
AcDbCircle
 10
9232.034605198926
 20
3565.21617521161
 30
0.0
 40
0.3
100
AcDbArc
 50
284.1985598747622
 51
0.0000000001042204
  0
ARC
  5
17A17
330
747D
100
AcDbEntity
  8
細線
 48
50.0
100
AcDbCircle
 10
9221.634605198932
 20
3565.21617521161
 30
0.0
 40
0.3
100
AcDbArc
 50
180.0
 51
255.8014401248081
  0
CIRCLE
  5
17A18
330
747D
100
AcDbEntity
  8
細線
 48
50.0
100
AcDbCircle
 10
9226.834605198929
 20
3585.768547337416
 30
0.0
 40
12.0
  0
ARC
  5
17A19
330
747D
100
AcDbEntity
  8
部品1
 48
50.0
100
AcDbCircle
 10
9226.834605198929
 20
3635.768547337416
 30
0.0
 40
8.5
100
AcDbArc
 50
114.315739171091
 51
245.684260828909
  0
CIRCLE
  5
17A1A
330
747D
100
AcDbEntity
  8
細線
 48
50.0
100
AcDbCircle
 10
9226.834605198929
 20
3635.768547337416
 30
0.0
 40
4.5
  0
LWPOLYLINE
  5
17A1B
330
747D
100
AcDbEntity
  8
部品1
 48
50.0
100
AcDbPolyline
 90
        2
 70
     0
 43
0.0
 10
9223.334605198928
 20
3654.443396734399
 10
9223.334605198928
 20
3643.514514029831
  0
CIRCLE
  5
17A1C
330
747D
100
AcDbEntity
  8
部品1
 48
50.0
100
AcDbCircle
 10
9226.834605198929
 20
3635.768547337416
 30
0.0
 40
19.0
  0
LWPOLYLINE
  5
17A1D
330
747D
100
AcDbEntity
  8
部品1
 48
50.0
100
AcDbPolyline
 90
        2
 70
     0
 43
0.0
 10
9223.334605198928
 20
3628.022580645001
 10
9223.334605198928
 20
3617.093697940433
  0
LWPOLYLINE
  5
17A1E
330
747D
100
AcDbEntity
  8
部品1
 48
50.0
100
AcDbPolyline
 90
        2
 70
     0
 43
0.0
 10
9230.334605198928
 20
3643.514514029831
 10
9230.334605198928
 20
3654.443396734399
  0
ARC
  5
17A1F
330
747D
100
AcDbEntity
  8
部品1
 48
50.0
100
AcDbCircle
 10
9226.834605198929
 20
3635.768547337416
 30
0.0
 40
8.5
100
AcDbArc
 50
294.315739171091
 51
65.68426082890896
  0
LWPOLYLINE
  5
17A20
330
747D
100
AcDbEntity
  8
部品1
 48
50.0
100
AcDbPolyline
 90
        2
 70
     0
 43
0.0
 10
9230.334605198928
 20
3617.093697940433
 10
9230.334605198928
 20
3628.022580645001
  0
ARC
  5
17A21
330
747D
100
AcDbEntity
  8
細線
 48
50.0
100
AcDbCircle
 10
9226.834605198929
 20
3635.768547337416
 30
0.0
 40
16.5
100
AcDbArc
 50
332.0012352654438
 51
27.99876473455621
  0
ARC
  5
17A22
330
747D
100
AcDbEntity
  8
細線
 48
50.0
100
AcDbCircle
 10
9226.834605198929
 20
3635.768547337416
 30
0.0
 40
14.0
100
AcDbArc
 50
326.4074436112986
 51
33.59255638870134
  0
LINE
  5
17A23
330
747D
100
AcDbEntity
  8
細線
 48
50.0
100
AcDbLine
 10
9212.265802914597
 20
3643.514514029831
 30
0.0
 11
9215.17270140924
 21
3643.514514029831
 31
0.0
  0
LINE
  5
17A24
330
747D
100
AcDbEntity
  8
細線
 48
50.0
100
AcDbLine
 10
9212.265802914597
 20
3628.022580645001
 30
0.0
 11
9215.17270140924
 21
3628.022580645001
 31
0.0
  0
LINE
  5
17A25
330
747D
100
AcDbEntity
  8
細線
 48
50.0
100
AcDbLine
 10
9238.496508988617
 20
3643.514514029831
 30
0.0
 11
9241.403407483264
 21
3643.514514029831
 31
0.0
  0
LINE
  5
17A26
330
747D
100
AcDbEntity
  8
細線
 48
50.0
100
AcDbLine
 10
9238.496508988617
 20
3628.022580645001
 30
0.0
 11
9241.403407483264
 21
3628.022580645001
 31
0.0
  0
ARC
  5
17A27
330
747D
100
AcDbEntity
  8
細線
 48
50.0
100
AcDbCircle
 10
9226.834605198929
 20
3635.768547337416
 30
0.0
 40
14.0
100
AcDbArc
 50
146.4074436112986
 51
213.5925563887013
  0
ARC
  5
17A28
330
747D
100
AcDbEntity
  8
細線
 48
50.0
100
AcDbCircle
 10
9226.834605198929
 20
3635.768547337416
 30
0.0
 40
16.5
100
AcDbArc
 50
152.0012352654438
 51
207.9987647345562
  0
ARC
  5
17A29
330
747D
100
AcDbEntity
  8
部品1
 48
50.0
100
AcDbCircle
 10
9200.334605198928
 20
3661.268547337416
 30
0.0
 40
5.0
100
AcDbArc
 50
90.0
 51
180.0
  0
ARC
  5
17A2A
330
747D
100
AcDbEntity
  8
部品1
 48
50.0
100
AcDbCircle
 10
9200.334605198928
 20
3550.268547337416
 30
0.0
 40
5.0
100
AcDbArc
 50
180.0
 51
270.0
  0
ARC
  5
17A2B
330
747D
100
AcDbEntity
  8
部品1
 48
50.0
100
AcDbCircle
 10
9253.334605198928
 20
3550.268547337416
 30
0.0
 40
5.0
100
AcDbArc
 50
270.0
 51
0.0
  0
ARC
  5
17A2C
330
747D
100
AcDbEntity
  8
部品1
 48
50.0
100
AcDbCircle
 10
9253.334605198928
 20
3661.268547337416
 30
0.0
 40
5.0
100
AcDbArc
 50
0.0
 51
90.0
  0
LINE
  5
17A2E
330
747D
100
AcDbEntity
  8
部品1
 48
50.0
100
AcDbLine
 10
9195.334605198928
 20
3550.268547337416
 30
0.0
 11
9195.334605198928
 21
3661.268547337416
 31
0.0
  0
LINE
  5
17A2F
330
747D
100
AcDbEntity
  8
部品1
 48
50.0
100
AcDbLine
 10
9253.334605198928
 20
3545.268547337416
 30
0.0
 11
9200.334605198928
 21
3545.268547337416
 31
0.0
  0
LINE
  5
17A30
330
747D
100
AcDbEntity
  8
部品1
 48
50.0
100
AcDbLine
 10
9258.334605198928
 20
3661.268547337416
 30
0.0
 11
9258.334605198928
 21
3550.268547337416
 31
0.0
  0
VIEWPORT
  5
15C90
102
{ACAD_XDICTIONARY
360
17A44
102
}
330
747A
100
AcDbEntity
 67
     1
  8
0
 48
50.0
100
AcDbViewport
 10
253.0459866220736
 20
148.5
 30
0.0
 40
506.0919732441472
 41
297.0
 68
     1
 69
     1
 12
253.0459866220736
 22
148.5
 13
0.0
 23
0.0
 14
10.0
 24
10.0
 15
10.0
 25
10.0
 16
0.0
 26
0.0
 36
1.0
 17
0.0
 27
0.0
 37
0.0
 42
50.0
 43
0.0
 44
0.0
 45
297.0
 50
0.0
 51
0.0
 72
     0
 90
    32800
  1

281
     0
 71
     1
 74
     0
110
0.0
120
0.0
130
0.0
111
1.0
121
0.0
131
0.0
112
0.0
122
1.0
132
0.0
 79
     0
146
0.0
  0
ENDSEC
  0
SECTION
  2
OBJECTS
  0
DICTIONARY
  5
7471
330
0
100
AcDbDictionary
281
     1
  3
ACAD_COLOR
350
15D9D
  3
ACAD_GROUP
350
7472
  3
ACAD_LAYOUT
350
15D9E
  3
ACAD_MATERIAL
350
15D9C
  3
ACAD_MLINESTYLE
350
7473
  3
ACAD_PLOTSETTINGS
350
15D9F
  3
ACAD_PLOTSTYLENAME
350
15D9A
  3
ACDBHEADERROUNDTRIPXREC
350
17A41
  3
AcDbVariableDictionary
350
17A3D
  3
CONTENTDICTIONARY
350
E71C
  3
DRAWINGVARIABLESDICT
350
F3B9
  0
DICTIONARY
  5
15DFA
330
7467
100
AcDbDictionary
280
     1
281
     1
  3
ACAD_LAYERSTATES
360
15DFB
  0
DICTIONARY
  5
17A44
330
15C90
100
AcDbDictionary
280
     1
281
     1
  3
ACAD_XREC_ROUNDTRIP
360
17A45
  0
DICTIONARY
  5
15D9D
102
{ACAD_REACTORS
330
7471
102
}
330
7471
100
AcDbDictionary
281
     1
  0
DICTIONARY
  5
7472
102
{ACAD_REACTORS
330
7471
102
}
330
7471
100
AcDbDictionary
281
     1
  0
DICTIONARY
  5
15D9E
102
{ACAD_REACTORS
330
7471
102
}
330
7471
100
AcDbDictionary
281
     1
  3
Model
350
15DA0
  3
レイアウト1
350
15DA1
  0
DICTIONARY
  5
15D9C
102
{ACAD_REACTORS
330
7471
102
}
330
7471
100
AcDbDictionary
281
     1
  0
DICTIONARY
  5
7473
102
{ACAD_REACTORS
330
7471
102
}
330
7471
100
AcDbDictionary
281
     1
  3
STANDARD
350
7480
  0
DICTIONARY
  5
15D9F
102
{ACAD_REACTORS
330
7471
102
}
330
7471
100
AcDbDictionary
281
     1
  0
ACDBDICTIONARYWDFLT
  5
15D9A
102
{ACAD_REACTORS
330
7471
102
}
330
7471
100
AcDbDictionary
281
     1
  3
Normal
350
15D9B
100
AcDbDictionaryWithDefault
340
15D9B
  0
DICTIONARY
  5
17A41
102
{ACAD_REACTORS
330
7471
102
}
330
7471
100
AcDbDictionary
281
     1
  3
COLORDICT
350
17A43
  3
MATERIALDICT
350
17A42
  0
DICTIONARY
  5
17A3D
102
{ACAD_REACTORS
330
7471
102
}
330
7471
100
AcDbDictionary
281
     1
  3
DIMASSOC
350
17A3E
  3
PROJECTNAME
350
17A3F
  0
DICTIONARY
  5
E71C
102
{ACAD_REACTORS
330
7471
102
}
330
7471
100
AcDbDictionary
281
     1
  0
DICTIONARY
  5
F3B9
102
{ACAD_REACTORS
330
7471
102
}
330
7471
100
AcDbDictionary
281
     1
1001
DRAWINGVARIABLESXDATA
1000
POLARMODE
1000
1
  0
DICTIONARY
  5
15DFB
102
{ACAD_REACTORS
330
15DFA
102
}
330
15DFA
100
AcDbDictionary
281
     1
  0
XRECORD
  5
17A45
102
{ACAD_REACTORS
330
17A44
102
}
330
17A44
100
AcDbXrecord
280
     1
102
SHADEPLOT
 70
     0
  0
LAYOUT
  5
15DA0
102
{ACAD_XDICTIONARY
360
17A46
102
}
102
{ACAD_REACTORS
330
15D9E
102
}
330
15D9E
100
AcDbPlotSettings
  1

  2
Microsoft Office Document Image Writer
  4

  6

 40
0.0
 41
0.0
 42
0.0
 43
0.0
 44
0.0
 45
0.0
 46
0.0
 47
0.0
 48
0.0
 49
0.0
140
0.0
141
0.0
142
1.0
143
1.0
 70
  1712
 72
     0
 73
     0
 74
     0
  7

 75
     0
147
1.0
148
0.0
149
0.0
100
AcDbLayout
  1
Model
 70
     1
 71
     0
 10
0.0
 20
0.0
 11
12.0
 21
9.0
 12
0.0
 22
0.0
 32
0.0
 14
0.0
 24
0.0
 34
0.0
 15
0.0
 25
0.0
 35
0.0
146
0.0
 13
0.0
 23
0.0
 33
0.0
 16
1.0
 26
0.0
 36
0.0
 17
0.0
 27
1.0
 37
0.0
 76
     0
330
747D
  0
LAYOUT
  5
15DA1
102
{ACAD_XDICTIONARY
360
17A48
102
}
102
{ACAD_REACTORS
330
15D9E
102
}
330
15D9E
100
AcDbPlotSettings
  1

  2
Microsoft Office Document Image Writer
  4

  6

 40
0.0
 41
0.0
 42
0.0
 43
0.0
 44
0.0
 45
0.0
 46
0.0
 47
0.0
 48
0.0
 49
0.0
140
0.0
141
0.0
142
1.0
143
1.0
 70
   688
 72
     0
 73
     0
 74
     5
  7

 75
    16
147
1.0
148
0.0
149
0.0
100
AcDbLayout
  1
レイアウト1
 70
     0
 71
     1
 10
0.0
 20
0.0
 11
420.0
 21
297.0
 12
0.0
 22
0.0
 32
0.0
 14
1.000000000000000E+20
 24
1.000000000000000E+20
 34
1.000000000000000E+20
 15
-1.000000000000000E+20
 25
-1.000000000000000E+20
 35
-1.000000000000000E+20
146
0.0
 13
0.0
 23
0.0
 33
0.0
 16
1.0
 26
0.0
 36
0.0
 17
0.0
 27
1.0
 37
0.0
 76
     0
330
747A
331
15C90
  0
MLINESTYLE
  5
7480
102
{ACAD_REACTORS
330
7473
102
}
330
7473
100
AcDbMlineStyle
  2
STANDARD
 70
     0
  3

 62
     0
 51
90.0
 52
90.0
 71
     2
 49
0.5
 62
   256
  6
BYLAYER
 49
-0.5
 62
   256
  6
BYLAYER
  0
ACDBPLACEHOLDER
  5
15D9B
102
{ACAD_REACTORS
330
15D9A
102
}
330
15D9A
  0
XRECORD
  5
17A43
102
{ACAD_REACTORS
330
17A41
102
}
330
17A41
100
AcDbXrecord
280
     1
340
15D9D
  0
XRECORD
  5
17A42
102
{ACAD_REACTORS
330
17A41
102
}
330
17A41
100
AcDbXrecord
280
     1
340
15D9C
  0
DICTIONARYVAR
  5
17A3E
102
{ACAD_REACTORS
330
17A3D
102
}
330
17A3D
100
DictionaryVariables
280
     0
  1
1
  0
DICTIONARYVAR
  5
17A3F
102
{ACAD_REACTORS
330
17A3D
102
}
330
17A3D
100
DictionaryVariables
280
     0
  1

  0
DICTIONARY
  5
17A46
330
15DA0
100
AcDbDictionary
280
     1
281
     1
  3
ACAD_XREC_ROUNDTRIP
360
17A47
  0
DICTIONARY
  5
17A48
330
15DA1
100
AcDbDictionary
280
     1
281
     1
  3
ACAD_XREC_ROUNDTRIP
360
17A49
  0
XRECORD
  5
17A47
102
{ACAD_REACTORS
330
17A46
102
}
330
17A46
100
AcDbXrecord
280
     1
102
SHADEPLOT
 70
     0
102
SHADEPLOTRESLEVEL
 70
     2
102
SHADEPLOTCUSTOMDPI
 70
   300
  0
XRECORD
  5
17A49
102
{ACAD_REACTORS
330
17A48
102
}
330
17A48
100
AcDbXrecord
280
     1
102
SHADEPLOT
 70
     0
102
SHADEPLOTRESLEVEL
 70
     2
102
SHADEPLOTCUSTOMDPI
 70
   300
  0
ENDSEC
  0
EOF
