  0
SECTION
  2
HEADER
  9
$ACADVER
  1
AC1015
  9
$ACADMAINTVER
 70
    20
  9
$DWGCODEPAGE
  3
ANSI_932
  9
$INSBASE
 10
0.0
 20
0.0
 30
0.0
  9
$EXTMIN
 10
139.9999999999995
 20
-0.0000000000000909
 30
0.0
  9
$EXTMAX
 10
16307.2
 20
11409.6
 30
0.0
  9
$LIMMIN
 10
0.0
 20
0.0
  9
$LIMMAX
 10
16800.0
 20
11880.0
  9
$ORTHOMODE
 70
     0
  9
$REGENMODE
 70
     1
  9
$FILLMODE
 70
     1
  9
$QTEXTMODE
 70
     0
  9
$MIRRTEXT
 70
     1
  9
$LTSCALE
 40
20.0
  9
$ATTMODE
 70
     1
  9
$TEXTSIZE
 40
4.0
  9
$TRACEWID
 40
1.0
  9
$TEXTSTYLE
  7
STYLE1
  9
$CLAYER
  8
細線
  9
$CELTYPE
  6
BYLAYER
  9
$CECOLOR
 62
   256
  9
$CELTSCALE
 40
50.0
  9
$DISPSILH
 70
     0
  9
$DIMSCALE
 40
40.0
  9
$DIMASZ
 40
2.5
  9
$DIMEXO
 40
0.5
  9
$DIMDLI
 40
7.0
  9
$DIMRND
 40
0.0
  9
$DIMDLE
 40
0.0
  9
$DIMEXE
 40
1.5
  9
$DIMTP
 40
0.0
  9
$DIMTM
 40
0.0
  9
$DIMTXT
 40
3.0
  9
$DIMCEN
 40
0.0
  9
$DIMTSZ
 40
0.0
  9
$DIMTOL
 70
     0
  9
$DIMLIM
 70
     0
  9
$DIMTIH
 70
     0
  9
$DIMTOH
 70
     0
  9
$DIMSE1
 70
     0
  9
$DIMSE2
 70
     0
  9
$DIMTAD
 70
     3
  9
$DIMZIN
 70
     8
  9
$DIMBLK
  1

  9
$DIMASO
 70
     1
  9
$DIMSHO
 70
     1
  9
$DIMPOST
  1

  9
$DIMAPOST
  1

  9
$DIMALT
 70
     0
  9
$DIMALTD
 70
     2
  9
$DIMALTF
 40
0.0394
  9
$DIMLFAC
 40
1.0
  9
$DIMTOFL
 70
     1
  9
$DIMTVP
 40
0.0
  9
$DIMTIX
 70
     1
  9
$DIMSOXD
 70
     0
  9
$DIMSAH
 70
     1
  9
$DIMBLK1
  1
DOTSMALL
  9
$DIMBLK2
  1
DOTSMALL
  9
$DIMSTYLE
  2
INABA_S40G
  9
$DIMCLRD
 70
     0
  9
$DIMCLRE
 70
     0
  9
$DIMCLRT
 70
     7
  9
$DIMTFAC
 40
1.0
  9
$DIMGAP
 40
1.0
  9
$DIMJUST
 70
     0
  9
$DIMSD1
 70
     0
  9
$DIMSD2
 70
     0
  9
$DIMTOLJ
 70
     1
  9
$DIMTZIN
 70
     0
  9
$DIMALTZ
 70
     0
  9
$DIMALTTZ
 70
     0
  9
$DIMUPT
 70
     0
  9
$DIMDEC
 70
     1
  9
$DIMTDEC
 70
     4
  9
$DIMALTU
 70
     2
  9
$DIMALTTD
 70
     2
  9
$DIMTXSTY
  7
STYLE1
  9
$DIMAUNIT
 70
     0
  9
$DIMADEC
 70
     0
  9
$DIMALTRND
 40
0.0
  9
$DIMAZIN
 70
     0
  9
$DIMDSEP
 70
    46
  9
$DIMATFIT
 70
     3
  9
$DIMFRAC
 70
     0
  9
$DIMLDRBLK
  1

  9
$DIMLUNIT
 70
     2
  9
$DIMLWD
 70
    -2
  9
$DIMLWE
 70
    -2
  9
$DIMTMOVE
 70
     0
  9
$LUNITS
 70
     2
  9
$LUPREC
 70
     1
  9
$SKETCHINC
 40
1.0
  9
$FILLETRAD
 40
3.0
  9
$AUNITS
 70
     0
  9
$AUPREC
 70
     0
  9
$MENU
  1
acad
  9
$ELEVATION
 40
0.0
  9
$PELEVATION
 40
0.0
  9
$THICKNESS
 40
0.0
  9
$LIMCHECK
 70
     0
  9
$CHAMFERA
 40
0.0
  9
$CHAMFERB
 40
0.0
  9
$CHAMFERC
 40
0.0
  9
$CHAMFERD
 40
0.0
  9
$SKPOLY
 70
     0
  9
$TDCREATE
 40
2451368.612993866
  9
$TDUCREATE
 40
2451368.237993866
  9
$TDUPDATE
 40
2455826.641235706
  9
$TDUUPDATE
 40
2455826.266235706
  9
$TDINDWG
 40
0.8248695255
  9
$TDUSRTIMER
 40
0.8248695255
  9
$USRTIMER
 70
     1
  9
$ANGBASE
 50
0.0
  9
$ANGDIR
 70
     0
  9
$PDMODE
 70
     3
  9
$PDSIZE
 40
2.0
  9
$PLINEWID
 40
0.0
  9
$SPLFRAME
 70
     0
  9
$SPLINETYPE
 70
     6
  9
$SPLINESEGS
 70
     8
  9
$HANDSEED
  5
2646F
  9
$SURFTAB1
 70
     6
  9
$SURFTAB2
 70
     6
  9
$SURFTYPE
 70
     6
  9
$SURFU
 70
     6
  9
$SURFV
 70
     6
  9
$UCSBASE
  2

  9
$UCSNAME
  2

  9
$UCSORG
 10
0.0
 20
0.0
 30
0.0
  9
$UCSXDIR
 10
1.0
 20
0.0
 30
0.0
  9
$UCSYDIR
 10
0.0
 20
1.0
 30
0.0
  9
$UCSORTHOREF
  2

  9
$UCSORTHOVIEW
 70
     0
  9
$UCSORGTOP
 10
0.0
 20
0.0
 30
0.0
  9
$UCSORGBOTTOM
 10
0.0
 20
0.0
 30
0.0
  9
$UCSORGLEFT
 10
0.0
 20
0.0
 30
0.0
  9
$UCSORGRIGHT
 10
0.0
 20
0.0
 30
0.0
  9
$UCSORGFRONT
 10
0.0
 20
0.0
 30
0.0
  9
$UCSORGBACK
 10
0.0
 20
0.0
 30
0.0
  9
$PUCSBASE
  2

  9
$PUCSNAME
  2

  9
$PUCSORG
 10
0.0
 20
0.0
 30
0.0
  9
$PUCSXDIR
 10
1.0
 20
0.0
 30
0.0
  9
$PUCSYDIR
 10
0.0
 20
1.0
 30
0.0
  9
$PUCSORTHOREF
  2

  9
$PUCSORTHOVIEW
 70
     0
  9
$PUCSORGTOP
 10
0.0
 20
0.0
 30
0.0
  9
$PUCSORGBOTTOM
 10
0.0
 20
0.0
 30
0.0
  9
$PUCSORGLEFT
 10
0.0
 20
0.0
 30
0.0
  9
$PUCSORGRIGHT
 10
0.0
 20
0.0
 30
0.0
  9
$PUCSORGFRONT
 10
0.0
 20
0.0
 30
0.0
  9
$PUCSORGBACK
 10
0.0
 20
0.0
 30
0.0
  9
$USERI1
 70
     0
  9
$USERI2
 70
     0
  9
$USERI3
 70
     0
  9
$USERI4
 70
     0
  9
$USERI5
 70
     0
  9
$USERR1
 40
0.0
  9
$USERR2
 40
0.0
  9
$USERR3
 40
0.0
  9
$USERR4
 40
0.0
  9
$USERR5
 40
0.0
  9
$WORLDVIEW
 70
     1
  9
$SHADEDGE
 70
     3
  9
$SHADEDIF
 70
    70
  9
$TILEMODE
 70
     1
  9
$MAXACTVP
 70
    16
  9
$PINSBASE
 10
0.0
 20
0.0
 30
0.0
  9
$PLIMCHECK
 70
     0
  9
$PEXTMIN
 10
1.000000000000000E+20
 20
1.000000000000000E+20
 30
1.000000000000000E+20
  9
$PEXTMAX
 10
-1.000000000000000E+20
 20
-1.000000000000000E+20
 30
-1.000000000000000E+20
  9
$PLIMMIN
 10
0.0
 20
0.0
  9
$PLIMMAX
 10
420.0
 20
297.0
  9
$UNITMODE
 70
     0
  9
$VISRETAIN
 70
     0
  9
$PLINEGEN
 70
     0
  9
$PSLTSCALE
 70
     0
  9
$TREEDEPTH
 70
  3020
  9
$CMLSTYLE
  2
STANDARD
  9
$CMLJUST
 70
     0
  9
$CMLSCALE
 40
1.0
  9
$PROXYGRAPHICS
 70
     1
  9
$MEASUREMENT
 70
     1
  9
$CELWEIGHT
370
    -1
  9
$ENDCAPS
280
     0
  9
$JOINSTYLE
280
     0
  9
$LWDISPLAY
290
     0
  9
$INSUNITS
 70
     0
  9
$HYPERLINKBASE
  1

  9
$STYLESHEET
  1

  9
$XEDIT
290
     1
  9
$CEPSNTYPE
380
     0
  9
$PSTYLEMODE
290
     1
  9
$FINGERPRINTGUID
  2
{5EAC461A-2277-4BF8-9AB0-99C43BB394F0}
  9
$VERSIONGUID
  2
{FDEE789B-F0E0-49D5-977B-A22388BADE87}
  9
$EXTNAMES
290
     1
  9
$PSVPSCALE
 40
0.0
  9
$OLESTARTUP
290
     0
  0
ENDSEC
  0
SECTION
  2
CLASSES
  0
CLASS
  1
ACDBDICTIONARYWDFLT
  2
AcDbDictionaryWithDefault
  3
ObjectDBX Classes
 90
        0
280
     0
281
     0
  0
CLASS
  1
DICTIONARYVAR
  2
AcDbDictionaryVar
  3
ObjectDBX Classes
 90
        0
280
     0
281
     0
  0
CLASS
  1
ACDBPLACEHOLDER
  2
AcDbPlaceHolder
  3
ObjectDBX Classes
 90
        0
280
     0
281
     0
  0
CLASS
  1
LAYOUT
  2
AcDbLayout
  3
ObjectDBX Classes
 90
        0
280
     0
281
     0
  0
ENDSEC
  0
SECTION
  2
TABLES
  0
TABLE
  2
VPORT
  5
746D
330
0
100
AcDbSymbolTable
 70
     2
  0
VPORT
  5
26467
330
746D
100
AcDbSymbolTableRecord
100
AcDbViewportTableRecord
  2
*Active
 70
     0
 10
0.0
 20
0.0
 11
1.0
 21
1.0
 12
8223.761025238502
 22
6090.068341029435
 13
0.0
 23
0.0
 14
10.0
 24
10.0
 15
10.0
 25
10.0
 16
0.0
 26
0.0
 36
1.0
 17
0.0
 27
0.0
 37
0.0
 40
11645.35924781441
 41
1.522222222222222
 42
50.0
 43
0.0
 44
0.0
 50
0.0
 51
0.0
 71
     0
 72
     0
 73
     1
 74
     0
 75
     0
 76
     0
 77
     0
 78
     0
281
     0
 65
     1
110
0.0
120
0.0
130
0.0
111
1.0
121
0.0
131
0.0
112
0.0
122
1.0
132
0.0
 79
     0
146
0.0
  0
ENDTAB
  0
TABLE
  2
LTYPE
  5
746A
330
0
100
AcDbSymbolTable
 70
     5
  0
LTYPE
  5
7477
330
746A
100
AcDbSymbolTableRecord
100
AcDbLinetypeTableRecord
  2
BYBLOCK
 70
     0
  3

 72
    65
 73
     0
 40
0.0
  0
LTYPE
  5
7478
330
746A
100
AcDbSymbolTableRecord
100
AcDbLinetypeTableRecord
  2
BYLAYER
 70
     0
  3

 72
    65
 73
     0
 40
0.0
  0
LTYPE
  5
7479
330
746A
100
AcDbSymbolTableRecord
100
AcDbLinetypeTableRecord
  2
CONTINUOUS
 70
     0
  3
Solid line
 72
    65
 73
     0
 40
0.0
  0
LTYPE
  5
7816
330
746A
100
AcDbSymbolTableRecord
100
AcDbLinetypeTableRecord
  2
CENTER
 70
     0
  3
____ _ ____ _ ____ _ ____ _ ____ _ ____ _ ____ 
 72
    65
 73
     4
 40
2.0
 49
1.25
 74
     0
 49
-0.25
 74
     0
 49
0.25
 74
     0
 49
-0.25
 74
     0
  0
LTYPE
  5
781A
330
746A
100
AcDbSymbolTableRecord
100
AcDbLinetypeTableRecord
  2
HIDDEN
 70
     0
  3
__ __ __ __ __ __ __ __ __ __ __ __ __ __ __ __
 72
    65
 73
     2
 40
0.375
 49
0.25
 74
     0
 49
-0.125
 74
     0
  0
LTYPE
  5
781B
330
746A
100
AcDbSymbolTableRecord
100
AcDbLinetypeTableRecord
  2
PHANTOM
 70
     0
  3
______  __  __  ______  __  __  ______  __  __ 
 72
    65
 73
     6
 40
2.5
 49
1.25
 74
     0
 49
-0.25
 74
     0
 49
0.25
 74
     0
 49
-0.25
 74
     0
 49
0.25
 74
     0
 49
-0.25
 74
     0
  0
LTYPE
  5
12CC3
330
746A
100
AcDbSymbolTableRecord
100
AcDbLinetypeTableRecord
  2
HIDDENX2
 70
     0
  3
Hidden (2x) ____ ____ ____ ____ ____ ____ ____
 72
    65
 73
     2
 40
19.05
 49
12.7
 74
     0
 49
-6.349999999999999
 74
     0
  0
ENDTAB
  0
TABLE
  2
LAYER
  5
7467
102
{ACAD_XDICTIONARY
360
1758F
102
}
330
0
100
AcDbSymbolTable
 70
    12
  0
LAYER
  5
7474
330
7467
100
AcDbSymbolTableRecord
100
AcDbLayerTableRecord
  2
0
 70
     0
 62
     7
  6
CONTINUOUS
370
    -3
390
173D0
  0
LAYER
  5
DEB2
330
7467
100
AcDbSymbolTableRecord
100
AcDbLayerTableRecord
  2
センター
 70
     0
 62
     3
  6
CENTER
370
    -3
390
173D0
  0
LAYER
  5
DEB3
330
7467
100
AcDbSymbolTableRecord
100
AcDbLayerTableRecord
  2
寸法
 70
     0
 62
     4
  6
CONTINUOUS
370
    -3
390
173D0
  0
LAYER
  5
DEB4
330
7467
100
AcDbSymbolTableRecord
100
AcDbLayerTableRecord
  2
部品1
 70
     0
 62
     7
  6
CONTINUOUS
370
    -3
390
173D0
  0
LAYER
  5
DEB5
330
7467
100
AcDbSymbolTableRecord
100
AcDbLayerTableRecord
  2
補助
 70
     0
 62
    -1
  6
CONTINUOUS
370
    -3
390
173D0
  0
LAYER
  5
DEB6
330
7467
100
AcDbSymbolTableRecord
100
AcDbLayerTableRecord
  2
文字
 70
     0
 62
     7
  6
CONTINUOUS
370
    -3
390
173D0
  0
LAYER
  5
F255
330
7467
100
AcDbSymbolTableRecord
100
AcDbLayerTableRecord
  2
DEFPOINTS
 70
     0
 62
     7
  6
CONTINUOUS
290
     0
370
    -3
390
173D0
  0
LAYER
  5
10B54
330
7467
100
AcDbSymbolTableRecord
100
AcDbLayerTableRecord
  2
仕様書枠
 70
     0
 62
   230
  6
CONTINUOUS
370
    -3
390
173D0
  0
LAYER
  5
11729
330
7467
100
AcDbSymbolTableRecord
100
AcDbLayerTableRecord
  2
Ｇ．Ｌ
 70
     0
 62
    30
  6
CONTINUOUS
370
    -3
390
173D0
  0
LAYER
  5
1173F
330
7467
100
AcDbSymbolTableRecord
100
AcDbLayerTableRecord
  2
細線
 70
     0
 62
     5
  6
CONTINUOUS
370
    -3
390
173D0
  0
LAYER
  5
12CC4
330
7467
100
AcDbSymbolTableRecord
100
AcDbLayerTableRecord
  2
想像線
 70
     0
 62
     6
  6
PHANTOM
370
    -3
390
173D0
  0
LAYER
  5
142E2
330
7467
100
AcDbSymbolTableRecord
100
AcDbLayerTableRecord
  2
破線
 70
     0
 62
     2
  6
HIDDEN
370
    -3
390
173D0
  0
ENDTAB
  0
TABLE
  2
STYLE
  5
7468
330
0
100
AcDbSymbolTable
 70
     7
  0
STYLE
  5
7475
330
7468
100
AcDbSymbolTableRecord
100
AcDbTextStyleTableRecord
  2
STANDARD
 70
     0
 40
0.0
 41
1.0
 50
0.0
 71
     0
 42
4.0
  3
txt
  4
C:\AutoCAD LT\bigfont.shx
  0
STYLE
  5
763C
330
7468
100
AcDbSymbolTableRecord
100
AcDbTextStyleTableRecord
  2
MSMINCHO
 70
     0
 40
0.0
 41
1.0
 50
0.0
 71
     0
 42
1.199999999999999
  3
C:\AutoCAD LT\msminch2.TTF
  4

  0
STYLE
  5
F706
330
7468
100
AcDbSymbolTableRecord
100
AcDbTextStyleTableRecord
  2
STYLE1
 70
     0
 40
0.0
 41
1.0
 50
0.0
 71
     0
 42
4.0
  3
isocp.shx
  4
bigfont.shx
  0
STYLE
  5
103BF
330
7468
100
AcDbSymbolTableRecord
100
AcDbTextStyleTableRecord
  2
STYLE2
 70
     0
 40
0.0
 41
1.0
 50
0.0
 71
     0
 42
100.0
  3
MS PGothic.ttf
  4

1001
ACAD
1000
MS PGothic
1071
    32818
  0
STYLE
  5
10BAA
330
7468
100
AcDbSymbolTableRecord
100
AcDbTextStyleTableRecord
  2
STYLE3
 70
     0
 40
0.0
 41
1.0
 50
0.0
 71
     0
 42
100.0
  3

  4

1001
ACAD
1000
DFPGothic-EB
1071
    32818
  0
STYLE
  5
11A15
330
7468
100
AcDbSymbolTableRecord
100
AcDbTextStyleTableRecord
  2
MSGOTHIC
 70
     0
 40
0.0
 41
1.0
 50
0.0
 71
     0
 42
3.5
  3
msgothi2.ttf
  4

  0
STYLE
  5
13E96
330
7468
100
AcDbSymbolTableRecord
100
AcDbTextStyleTableRecord
  2
MSPゴシック
 70
     0
 40
0.0
 41
1.0
 50
0.0
 71
     0
 42
4.0
  3
MS PGothic.ttf
  4

1001
ACAD
1000
MS PGothic
1071
    32818
  0
ENDTAB
  0
TABLE
  2
VIEW
  5
746B
330
0
100
AcDbSymbolTable
 70
     0
  0
ENDTAB
  0
TABLE
  2
UCS
  5
746C
330
0
100
AcDbSymbolTable
 70
     0
  0
ENDTAB
  0
TABLE
  2
APPID
  5
746E
330
0
100
AcDbSymbolTable
 70
     6
  0
APPID
  5
7476
330
746E
100
AcDbSymbolTableRecord
100
AcDbRegAppTableRecord
  2
ACAD
 70
     0
  0
APPID
  5
DEA9
330
746E
100
AcDbSymbolTableRecord
100
AcDbRegAppTableRecord
  2
CONTENTBLOCKICON
 70
     0
  0
APPID
  5
DEAA
330
746E
100
AcDbSymbolTableRecord
100
AcDbRegAppTableRecord
  2
CONTENTBLOCKDESCRIPTION
 70
     0
  0
APPID
  5
E71D
330
746E
100
AcDbSymbolTableRecord
100
AcDbRegAppTableRecord
  2
CONTENTTABDATA
 70
     0
  0
APPID
  5
E71E
330
746E
100
AcDbSymbolTableRecord
100
AcDbRegAppTableRecord
  2
CONTENTCURRENTTAB
 70
     0
  0
APPID
  5
F3BA
330
746E
100
AcDbSymbolTableRecord
100
AcDbRegAppTableRecord
  2
DRAWINGVARIABLESXDATA
 70
     0
  0
ENDTAB
  0
TABLE
  2
DIMSTYLE
  5
746F
330
0
100
AcDbSymbolTable
 70
     6
100
AcDbDimStyleTable
 71
     1
340
F71F
  0
DIMSTYLE
105
7484
330
746F
100
AcDbSymbolTableRecord
100
AcDbDimStyleTableRecord
  2
JIS
 70
     0
 41
2.5
 42
1.0
 43
7.0
 44
1.0
 73
     0
 74
     0
 77
     1
 78
     8
140
2.5
141
0.0
143
0.0394
147
0.0
172
     1
174
     1
175
     1
340
7475
  0
DIMSTYLE
105
F236
330
746F
100
AcDbSymbolTableRecord
100
AcDbDimStyleTableRecord
  2
INABA_S40
 70
     0
 40
40.0
 41
2.5
 42
0.5
 43
7.0
 44
1.5
 73
     0
 74
     0
 77
     3
 78
     8
140
3.0
141
0.0
143
0.0394
147
1.0
172
     1
173
     1
174
     1
175
     1
178
     7
289
     0
340
7475
341
DEAC
343
DEAC
344
DEAC
  0
DIMSTYLE
105
F71F
102
{ACAD_REACTORS
330
24EF5
330
24EF9
330
24EF7
330
24EF0
330
24EFC
330
24F52
330
24F3E
330
24F3D
330
24F0E
330
24EFB
330
24EF2
330
24EEE
330
24EED
330
24EEC
330
25205
330
24F3F
330
24F21
330
24F16
330
24F0D
330
24F0C
330
24F05
330
24F04
330
24F00
330
24EFF
330
25949
330
2594B
330
25D7E
330
25D83
330
26299
330
2629A
330
262A2
330
262A9
330
262AC
330
2630C
102
}
330
746F
100
AcDbSymbolTableRecord
100
AcDbDimStyleTableRecord
  2
INABA_S40G
 70
     0
 40
40.0
 41
2.5
 42
0.5
 43
7.0
 44
1.5
 73
     0
 74
     0
 77
     3
 78
     8
140
3.0
141
0.0
143
0.0394
147
1.0
172
     1
173
     1
174
     1
178
     7
271
     1
340
F706
341
F770
343
F770
344
F770
  0
DIMSTYLE
105
142E3
330
746F
100
AcDbSymbolTableRecord
100
AcDbDimStyleTableRecord
  2
INABA_S1
 70
     0
 40
0.0
 41
2.5
 42
0.5
 43
7.0
 44
1.5
 73
     0
 74
     0
 77
     3
 78
     8
140
3.0
141
0.0
143
0.0394
146
0.5
147
0.5
172
     1
173
     1
176
   256
177
   256
178
     7
271
     2
272
     2
284
     8
288
     1
340
7475
341
DEAC
343
DEAC
344
DEAC
  0
DIMSTYLE
105
14463
330
746F
100
AcDbSymbolTableRecord
100
AcDbDimStyleTableRecord
  2
INABA_S30G
 70
     0
 40
30.0
 41
2.5
 42
0.5
 43
7.0
 44
1.5
 73
     0
 74
     0
 77
     3
 78
     8
140
3.0
141
0.0
143
0.0394
147
1.0
172
     1
173
     1
174
     1
175
     1
178
     7
271
     1
340
F706
341
F770
343
F770
344
F770
  0
DIMSTYLE
105
1758E
330
746F
100
AcDbSymbolTableRecord
100
AcDbDimStyleTableRecord
  2
INABA_S50G
 70
     0
 41
125.0
 42
25.0
 43
7.0
 44
75.0
 73
     0
 74
     0
 77
     3
 78
     8
140
150.0
141
0.0
143
0.0394
147
25.0
172
     1
173
     1
174
     1
175
     1
178
     7
271
     1
340
F706
341
F770
343
F770
344
F770
  0
ENDTAB
  0
TABLE
  2
BLOCK_RECORD
  5
7466
330
0
100
AcDbSymbolTable
 70
    53
  0
BLOCK_RECORD
  5
747D
330
7466
100
AcDbSymbolTableRecord
100
AcDbBlockTableRecord
  2
*MODEL_SPACE
340
173D5
  0
BLOCK_RECORD
  5
747A
330
7466
100
AcDbSymbolTableRecord
100
AcDbBlockTableRecord
  2
*PAPER_SPACE
340
173D6
  0
BLOCK_RECORD
  5
DEAC
330
7466
100
AcDbSymbolTableRecord
100
AcDbBlockTableRecord
  2
_OPEN
340
0
  0
BLOCK_RECORD
  5
F770
330
7466
100
AcDbSymbolTableRecord
100
AcDbBlockTableRecord
  2
_DOTSMALL
340
0
102
{BLKREFS
331
18C65
331
18C66
331
18C59
331
18C5A
331
18C4D
331
18C4E
331
18C41
331
18C42
331
18C35
331
18C36
331
18C29
331
18C2A
331
18C1D
331
18C1E
331
18C0F
331
18C10
331
18C03
331
18C04
331
18BF5
331
18BF6
331
18BE7
331
18BE8
331
18BD9
331
18BDA
331
18BCD
331
18BCE
331
25655
331
25656
331
2565E
331
2565F
331
25669
331
2566A
331
25673
331
25674
331
25690
331
25691
331
25699
331
2569A
331
256A2
331
256A3
331
256AB
331
256AC
331
256BD
331
256BE
331
256C7
331
256C8
331
256D1
331
256D2
331
256F1
331
256F2
331
25704
331
25705
331
2572B
331
2572C
331
25734
331
25735
331
2573D
331
2573E
331
25748
331
25749
331
25753
331
25754
331
25776
331
25777
331
2578C
331
2578D
331
26015
331
26016
331
260C7
331
260C8
331
260D1
331
260D2
331
260DB
331
260DC
331
260E5
331
260E6
331
260EF
331
260F0
331
260F9
331
260FA
331
26103
331
26104
331
26416
331
26417
331
26425
331
26426
331
2642E
331
2642F
331
26437
331
26438
331
26440
331
26441
331
26449
331
2644A
102
}
  0
BLOCK_RECORD
  5
164B4
330
7466
100
AcDbSymbolTableRecord
100
AcDbBlockTableRecord
  2
_DOT
340
0
102
{BLKREFS
331
18C73
331
18C74
102
}
  0
BLOCK_RECORD
  5
18BC8
330
7466
100
AcDbSymbolTableRecord
100
AcDbBlockTableRecord
  2
*D3
340
0
  0
BLOCK_RECORD
  5
18BD4
330
7466
100
AcDbSymbolTableRecord
100
AcDbBlockTableRecord
  2
*D4
340
0
  0
BLOCK_RECORD
  5
18BE0
330
7466
100
AcDbSymbolTableRecord
100
AcDbBlockTableRecord
  2
*D5
340
0
  0
BLOCK_RECORD
  5
18BEE
330
7466
100
AcDbSymbolTableRecord
100
AcDbBlockTableRecord
  2
*D6
340
0
  0
BLOCK_RECORD
  5
18BFC
330
7466
100
AcDbSymbolTableRecord
100
AcDbBlockTableRecord
  2
*D7
340
0
  0
BLOCK_RECORD
  5
18C0A
330
7466
100
AcDbSymbolTableRecord
100
AcDbBlockTableRecord
  2
*D8
340
0
  0
BLOCK_RECORD
  5
18C16
330
7466
100
AcDbSymbolTableRecord
100
AcDbBlockTableRecord
  2
*D9
340
0
  0
BLOCK_RECORD
  5
18C24
330
7466
100
AcDbSymbolTableRecord
100
AcDbBlockTableRecord
  2
*D10
340
0
  0
BLOCK_RECORD
  5
18C30
330
7466
100
AcDbSymbolTableRecord
100
AcDbBlockTableRecord
  2
*D11
340
0
  0
BLOCK_RECORD
  5
18C3C
330
7466
100
AcDbSymbolTableRecord
100
AcDbBlockTableRecord
  2
*D12
340
0
  0
BLOCK_RECORD
  5
18C48
330
7466
100
AcDbSymbolTableRecord
100
AcDbBlockTableRecord
  2
*D13
340
0
  0
BLOCK_RECORD
  5
18C54
330
7466
100
AcDbSymbolTableRecord
100
AcDbBlockTableRecord
  2
*D14
340
0
  0
BLOCK_RECORD
  5
18C60
330
7466
100
AcDbSymbolTableRecord
100
AcDbBlockTableRecord
  2
*D15
340
0
  0
BLOCK_RECORD
  5
18C6C
330
7466
100
AcDbSymbolTableRecord
100
AcDbBlockTableRecord
  2
*D16
340
0
  0
BLOCK_RECORD
  5
18C7A
330
7466
100
AcDbSymbolTableRecord
100
AcDbBlockTableRecord
  2
A$C3B1A506B
340
0
  0
BLOCK_RECORD
  5
1C4CA
330
7466
100
AcDbSymbolTableRecord
100
AcDbBlockTableRecord
  2
_NONE
340
0
  0
BLOCK_RECORD
  5
24F58
330
7466
100
AcDbSymbolTableRecord
100
AcDbBlockTableRecord
  2
*D19
340
0
  0
BLOCK_RECORD
  5
24F65
330
7466
100
AcDbSymbolTableRecord
100
AcDbBlockTableRecord
  2
*D20
340
0
  0
BLOCK_RECORD
  5
24F72
330
7466
100
AcDbSymbolTableRecord
100
AcDbBlockTableRecord
  2
*D21
340
0
  0
BLOCK_RECORD
  5
24F7D
330
7466
100
AcDbSymbolTableRecord
100
AcDbBlockTableRecord
  2
*D22
340
0
  0
BLOCK_RECORD
  5
24F89
330
7466
100
AcDbSymbolTableRecord
100
AcDbBlockTableRecord
  2
*D23
340
0
  0
BLOCK_RECORD
  5
24F94
330
7466
100
AcDbSymbolTableRecord
100
AcDbBlockTableRecord
  2
*D24
340
0
  0
BLOCK_RECORD
  5
24FA1
330
7466
100
AcDbSymbolTableRecord
100
AcDbBlockTableRecord
  2
*D25
340
0
  0
BLOCK_RECORD
  5
24FAE
330
7466
100
AcDbSymbolTableRecord
100
AcDbBlockTableRecord
  2
*D26
340
0
  0
BLOCK_RECORD
  5
24FBB
330
7466
100
AcDbSymbolTableRecord
100
AcDbBlockTableRecord
  2
*D27
340
0
  0
BLOCK_RECORD
  5
24FC6
330
7466
100
AcDbSymbolTableRecord
100
AcDbBlockTableRecord
  2
*D28
340
0
  0
BLOCK_RECORD
  5
24FD3
330
7466
100
AcDbSymbolTableRecord
100
AcDbBlockTableRecord
  2
*D29
340
0
  0
BLOCK_RECORD
  5
24FDF
330
7466
100
AcDbSymbolTableRecord
100
AcDbBlockTableRecord
  2
*D30
340
0
  0
BLOCK_RECORD
  5
24FEA
330
7466
100
AcDbSymbolTableRecord
100
AcDbBlockTableRecord
  2
*D31
340
0
  0
BLOCK_RECORD
  5
24FF7
330
7466
100
AcDbSymbolTableRecord
100
AcDbBlockTableRecord
  2
*D32
340
0
  0
BLOCK_RECORD
  5
25001
330
7466
100
AcDbSymbolTableRecord
100
AcDbBlockTableRecord
  2
*D33
340
0
  0
BLOCK_RECORD
  5
2500D
330
7466
100
AcDbSymbolTableRecord
100
AcDbBlockTableRecord
  2
*D34
340
0
  0
BLOCK_RECORD
  5
2501A
330
7466
100
AcDbSymbolTableRecord
100
AcDbBlockTableRecord
  2
*D35
340
0
  0
BLOCK_RECORD
  5
25027
330
7466
100
AcDbSymbolTableRecord
100
AcDbBlockTableRecord
  2
*D36
340
0
  0
BLOCK_RECORD
  5
2503F
330
7466
100
AcDbSymbolTableRecord
100
AcDbBlockTableRecord
  2
*D37
340
0
  0
BLOCK_RECORD
  5
25058
330
7466
100
AcDbSymbolTableRecord
100
AcDbBlockTableRecord
  2
*D38
340
0
  0
BLOCK_RECORD
  5
25064
330
7466
100
AcDbSymbolTableRecord
100
AcDbBlockTableRecord
  2
*D39
340
0
  0
BLOCK_RECORD
  5
25070
330
7466
100
AcDbSymbolTableRecord
100
AcDbBlockTableRecord
  2
*D40
340
0
  0
BLOCK_RECORD
  5
25095
330
7466
100
AcDbSymbolTableRecord
100
AcDbBlockTableRecord
  2
*D41
340
0
  0
BLOCK_RECORD
  5
25206
330
7466
100
AcDbSymbolTableRecord
100
AcDbBlockTableRecord
  2
*D42
340
0
  0
BLOCK_RECORD
  5
259A9
330
7466
100
AcDbSymbolTableRecord
100
AcDbBlockTableRecord
  2
*D43
340
0
  0
BLOCK_RECORD
  5
259B6
330
7466
100
AcDbSymbolTableRecord
100
AcDbBlockTableRecord
  2
*D44
340
0
  0
BLOCK_RECORD
  5
25DDF
330
7466
100
AcDbSymbolTableRecord
100
AcDbBlockTableRecord
  2
*D45
340
0
  0
BLOCK_RECORD
  5
25DEB
330
7466
100
AcDbSymbolTableRecord
100
AcDbBlockTableRecord
  2
*D46
340
0
  0
BLOCK_RECORD
  5
263C6
330
7466
100
AcDbSymbolTableRecord
100
AcDbBlockTableRecord
  2
*D47
340
0
  0
BLOCK_RECORD
  5
263D2
330
7466
100
AcDbSymbolTableRecord
100
AcDbBlockTableRecord
  2
*D48
340
0
  0
BLOCK_RECORD
  5
263E3
330
7466
100
AcDbSymbolTableRecord
100
AcDbBlockTableRecord
  2
*D49
340
0
  0
BLOCK_RECORD
  5
263EF
330
7466
100
AcDbSymbolTableRecord
100
AcDbBlockTableRecord
  2
*D50
340
0
  0
BLOCK_RECORD
  5
263FB
330
7466
100
AcDbSymbolTableRecord
100
AcDbBlockTableRecord
  2
*D51
340
0
  0
BLOCK_RECORD
  5
26407
330
7466
100
AcDbSymbolTableRecord
100
AcDbBlockTableRecord
  2
*D52
340
0
  0
ENDTAB
  0
ENDSEC
  0
SECTION
  2
BLOCKS
  0
BLOCK
  5
7489
330
747D
100
AcDbEntity
  8
0
100
AcDbBlockBegin
  2
*MODEL_SPACE
 70
     0
 10
0.0
 20
0.0
 30
0.0
  3
*MODEL_SPACE
  1

  0
ENDBLK
  5
748A
330
747D
100
AcDbEntity
  8
0
100
AcDbBlockEnd
  0
BLOCK
  5
7487
330
747A
100
AcDbEntity
 67
     1
  8
0
100
AcDbBlockBegin
  2
*PAPER_SPACE
 70
     0
 10
0.0
 20
0.0
 30
0.0
  3
*PAPER_SPACE
  1

  0
ENDBLK
  5
7488
330
747A
100
AcDbEntity
 67
     1
  8
0
100
AcDbBlockEnd
  0
BLOCK
  5
DEAD
330
DEAC
100
AcDbEntity
  8
0
100
AcDbBlockBegin
  2
_OPEN
 70
     0
 10
0.0
 20
0.0
 30
0.0
  3
_OPEN
  1

  0
LINE
  5
DEAE
330
DEAC
100
AcDbEntity
  8
0
  6
ByBlock
 62
     0
100
AcDbLine
 10
-1.0
 20
0.1666666666666666
 30
0.0
 11
0.0
 21
0.0
 31
0.0
  0
LINE
  5
DEAF
330
DEAC
100
AcDbEntity
  8
0
  6
ByBlock
 62
     0
100
AcDbLine
 10
0.0
 20
0.0
 30
0.0
 11
-1.0
 21
-0.1666666666666666
 31
0.0
  0
LINE
  5
DEB0
330
DEAC
100
AcDbEntity
  8
0
  6
ByBlock
 62
     0
100
AcDbLine
 10
0.0
 20
0.0
 30
0.0
 11
-1.0
 21
0.0
 31
0.0
  0
ENDBLK
  5
DEB1
330
DEAC
100
AcDbEntity
  8
0
100
AcDbBlockEnd
  0
BLOCK
  5
F771
330
F770
100
AcDbEntity
  8
0
 48
50.0
100
AcDbBlockBegin
  2
_DOTSMALL
 70
     0
 10
0.0
 20
0.0
 30
0.0
  3
_DOTSMALL
  1

  0
LWPOLYLINE
  5
F772
330
F770
100
AcDbEntity
  8
0
  6
ByBlock
 62
     0
 48
50.0
100
AcDbPolyline
 90
        2
 70
     1
 43
0.5
 10
-0.0625
 20
0.0
 42
1.0
 10
0.0625
 20
0.0
 42
1.0
  0
ENDBLK
  5
F776
330
F770
100
AcDbEntity
  8
0
 48
50.0
100
AcDbBlockEnd
  0
BLOCK
  5
164BA
330
164B4
100
AcDbEntity
  8
0
 48
50.0
100
AcDbBlockBegin
  2
_DOT
 70
     0
 10
0.0
 20
0.0
 30
0.0
  3
_DOT
  1

  0
LWPOLYLINE
  5
164B5
330
164B4
100
AcDbEntity
  8
0
  6
ByBlock
 62
     0
 48
50.0
100
AcDbPolyline
 90
        2
 70
     1
 43
0.5
 10
-0.25
 20
0.0
 42
1.0
 10
0.25
 20
0.0
 42
1.0
  0
LINE
  5
164B9
330
164B4
100
AcDbEntity
  8
0
  6
ByBlock
 62
     0
 48
50.0
100
AcDbLine
 10
-0.5
 20
0.0
 30
0.0
 11
-1.0
 21
0.0
 31
0.0
  0
ENDBLK
  5
164BB
330
164B4
100
AcDbEntity
  8
0
 48
50.0
100
AcDbBlockEnd
  0
BLOCK
  5
18BC9
330
18BC8
100
AcDbEntity
  8
0
 48
50.0
100
AcDbBlockBegin
  2
*D3
 70
     1
 10
0.0
 20
0.0
 30
0.0
  3
*D3
  1

  0
LINE
  5
18BCA
330
18BC8
100
AcDbEntity
  8
寸法
 62
     0
 48
50.0
370
    -2
100
AcDbLine
 10
7649.896575106999
 20
9636.123139034717
 30
0.0
 11
8702.429862581047
 21
9636.123139034717
 31
0.0
  0
LINE
  5
18BCB
330
18BC8
100
AcDbEntity
  8
寸法
 62
     0
 48
50.0
370
    -2
100
AcDbLine
 10
7649.896575106973
 20
7846.123139034709
 30
0.0
 11
8702.429862581047
 21
7846.123139034709
 31
0.0
  0
LINE
  5
18BCC
330
18BC8
100
AcDbEntity
  8
寸法
 62
     0
 48
50.0
370
    -2
100
AcDbLine
 10
8642.429862581046
 20
9636.123139034717
 30
0.0
 11
8642.429862581046
 21
7846.123139034709
 31
0.0
  0
INSERT
  5
18BCD
330
18BC8
100
AcDbEntity
  8
寸法
 62
     0
 48
50.0
370
    -2
100
AcDbBlockReference
  2
_DOTSMALL
 10
8642.429862581046
 20
9636.123139034717
 30
0.0
 41
100.0
 42
100.0
 43
100.0
 50
90.0
  0
INSERT
  5
18BCE
330
18BC8
100
AcDbEntity
  8
寸法
 62
     0
 48
50.0
370
    -2
100
AcDbBlockReference
  2
_DOTSMALL
 10
8642.429862581046
 20
7846.123139034709
 30
0.0
 41
100.0
 42
100.0
 43
100.0
 50
270.0
  0
MTEXT
  5
18BCF
330
18BC8
100
AcDbEntity
  8
寸法
 62
     7
 48
50.0
100
AcDbMText
 10
8542.429862581045
 20
8741.123139034712
 30
0.0
 40
120.0
 41
0.0
 71
     5
 72
     1
  1
\A1;1790
  7
STYLE1
 11
0.0000000000000001
 21
1.0
 31
0.0
 73
     1
 44
1.0
1001
ACAD
1000
MTEXTBEGIN
1070
    73
1070
     1
1070
    44
1040
1.0
1070
    74
1070
     0
1000
MTEXTEND
  0
POINT
  5
18BD0
330
18BC8
100
AcDbEntity
  8
DEFPOINTS
 62
     0
 48
50.0
100
AcDbPoint
 10
7629.896575106998
 20
9636.123139034717
 30
0.0
  0
POINT
  5
18BD1
330
18BC8
100
AcDbEntity
  8
DEFPOINTS
 62
     0
 48
50.0
100
AcDbPoint
 10
7629.896575106974
 20
7846.123139034709
 30
0.0
  0
POINT
  5
18BD2
330
18BC8
100
AcDbEntity
  8
DEFPOINTS
 62
     0
 48
50.0
100
AcDbPoint
 10
8642.429862581046
 20
7846.123139034709
 30
0.0
  0
ENDBLK
  5
18BD3
330
18BC8
100
AcDbEntity
  8
0
 48
50.0
100
AcDbBlockEnd
  0
BLOCK
  5
18BD5
330
18BD4
100
AcDbEntity
  8
0
 48
50.0
100
AcDbBlockBegin
  2
*D4
 70
     1
 10
0.0
 20
0.0
 30
0.0
  3
*D4
  1

  0
LINE
  5
18BD6
330
18BD4
100
AcDbEntity
  8
寸法
 62
     0
 48
50.0
370
    -2
100
AcDbLine
 10
4214.896575106998
 20
9656.123139034622
 30
0.0
 11
4214.896575106998
 21
10211.93135865972
 31
0.0
  0
LINE
  5
18BD7
330
18BD4
100
AcDbEntity
  8
寸法
 62
     0
 48
50.0
370
    -2
100
AcDbLine
 10
7574.896575106999
 20
9656.123139034718
 30
0.0
 11
7574.896575106999
 21
10211.93135865972
 31
0.0
  0
LINE
  5
18BD8
330
18BD4
100
AcDbEntity
  8
寸法
 62
     0
 48
50.0
370
    -2
100
AcDbLine
 10
4214.896575106998
 20
10151.93135865972
 30
0.0
 11
7574.896575106999
 21
10151.93135865972
 31
0.0
  0
INSERT
  5
18BD9
330
18BD4
100
AcDbEntity
  8
寸法
 62
     0
 48
50.0
370
    -2
100
AcDbBlockReference
  2
_DOTSMALL
 10
4214.896575106998
 20
10151.93135865972
 30
0.0
 41
100.0
 42
100.0
 43
100.0
 50
180.0
  0
INSERT
  5
18BDA
330
18BD4
100
AcDbEntity
  8
寸法
 62
     0
 48
50.0
370
    -2
100
AcDbBlockReference
  2
_DOTSMALL
 10
7574.896575106999
 20
10151.93135865972
 30
0.0
 41
100.0
 42
100.0
 43
100.0
  0
MTEXT
  5
18BDB
330
18BD4
100
AcDbEntity
  8
寸法
 62
     7
 48
50.0
100
AcDbMText
 10
5894.896575106997
 20
10251.94316968334
 30
0.0
 40
120.0
 41
0.0
 71
     5
 72
     1
  1
\A1;8X420=3360
  7
STYLE1
 73
     1
 44
1.0
1001
ACAD
1000
MTEXTBEGIN
1070
    73
1070
     1
1070
    44
1040
1.0
1070
    74
1070
     0
1000
MTEXTEND
  0
POINT
  5
18BDC
330
18BD4
100
AcDbEntity
  8
DEFPOINTS
 62
     0
 48
50.0
100
AcDbPoint
 10
4214.896575106998
 20
9636.123139034623
 30
0.0
  0
POINT
  5
18BDD
330
18BD4
100
AcDbEntity
  8
DEFPOINTS
 62
     0
 48
50.0
100
AcDbPoint
 10
7574.896575106999
 20
9636.123139034717
 30
0.0
  0
POINT
  5
18BDE
330
18BD4
100
AcDbEntity
  8
DEFPOINTS
 62
     0
 48
50.0
100
AcDbPoint
 10
7574.896575106999
 20
10151.93135865972
 30
0.0
  0
ENDBLK
  5
18BDF
330
18BD4
100
AcDbEntity
  8
0
 48
50.0
100
AcDbBlockEnd
  0
BLOCK
  5
18BE1
330
18BE0
100
AcDbEntity
  8
0
 48
50.0
100
AcDbBlockBegin
  2
*D5
 70
     1
 10
0.0
 20
0.0
 30
0.0
  3
*D5
  1

  0
LINE
  5
18BE2
330
18BE0
100
AcDbEntity
  8
寸法
 62
     0
 48
50.0
370
    -2
100
AcDbLine
 10
7574.896575106999
 20
9656.123139034718
 30
0.0
 11
7574.896575106999
 21
10211.9313586597
 31
0.0
  0
LINE
  5
18BE3
330
18BE0
100
AcDbEntity
  8
寸法
 62
     0
 48
50.0
370
    -2
100
AcDbLine
 10
7629.896575106998
 20
9656.123139034718
 30
0.0
 11
7629.896575106998
 21
10211.9313586597
 31
0.0
  0
LINE
  5
18BE4
330
18BE0
100
AcDbEntity
  8
寸法
 62
     0
 48
50.0
370
    -2
100
AcDbLine
 10
7574.896575106999
 20
10151.9313586597
 30
0.0
 11
7474.896575106999
 21
10151.9313586597
 31
0.0
  0
LINE
  5
18BE5
330
18BE0
100
AcDbEntity
  8
寸法
 62
     0
 48
50.0
370
    -2
100
AcDbLine
 10
7629.896575106998
 20
10151.9313586597
 30
0.0
 11
8046.867137855477
 21
10151.9313586597
 31
0.0
  0
LINE
  5
18BE6
330
18BE0
100
AcDbEntity
  8
寸法
 62
     0
 48
50.0
370
    -2
100
AcDbLine
 10
7574.896575106999
 20
10151.9313586597
 30
0.0
 11
7629.896575106998
 21
10151.9313586597
 31
0.0
  0
INSERT
  5
18BE7
330
18BE0
100
AcDbEntity
  8
寸法
 62
     0
 48
50.0
370
    -2
100
AcDbBlockReference
  2
_DOTSMALL
 10
7574.896575106999
 20
10151.9313586597
 30
0.0
 41
100.0
 42
100.0
 43
100.0
  0
INSERT
  5
18BE8
330
18BE0
100
AcDbEntity
  8
寸法
 62
     0
 48
50.0
370
    -2
100
AcDbBlockReference
  2
_DOTSMALL
 10
7629.896575106998
 20
10151.9313586597
 30
0.0
 41
100.0
 42
100.0
 43
100.0
 50
180.0
  0
MTEXT
  5
18BE9
330
18BE0
100
AcDbEntity
  8
寸法
 62
     7
 48
50.0
100
AcDbMText
 10
7938.381856481237
 20
10251.9313586597
 30
0.0
 40
120.0
 41
0.0
 71
     5
 72
     1
  1
\A1;55
  7
STYLE1
 73
     1
 44
1.0
1001
ACAD
1000
MTEXTBEGIN
1070
    73
1070
     1
1070
    44
1040
1.0
1070
    74
1070
     0
1000
MTEXTEND
  0
POINT
  5
18BEA
330
18BE0
100
AcDbEntity
  8
DEFPOINTS
 62
     0
 48
50.0
100
AcDbPoint
 10
7574.896575106999
 20
9636.123139034717
 30
0.0
  0
POINT
  5
18BEB
330
18BE0
100
AcDbEntity
  8
DEFPOINTS
 62
     0
 48
50.0
100
AcDbPoint
 10
7629.896575106998
 20
9636.123139034717
 30
0.0
  0
POINT
  5
18BEC
330
18BE0
100
AcDbEntity
  8
DEFPOINTS
 62
     0
 48
50.0
100
AcDbPoint
 10
7629.896575106998
 20
10151.9313586597
 30
0.0
  0
ENDBLK
  5
18BED
330
18BE0
100
AcDbEntity
  8
0
 48
50.0
100
AcDbBlockEnd
  0
BLOCK
  5
18BEF
330
18BEE
100
AcDbEntity
  8
0
 48
50.0
100
AcDbBlockBegin
  2
*D6
 70
     1
 10
0.0
 20
0.0
 30
0.0
  3
*D6
  1

  0
LINE
  5
18BF0
330
18BEE
100
AcDbEntity
  8
寸法
 62
     0
 48
50.0
370
    -2
100
AcDbLine
 10
7649.896575106999
 20
9636.123139034717
 30
0.0
 11
8337.32292084141
 21
9636.123139034717
 31
0.0
  0
LINE
  5
18BF1
330
18BEE
100
AcDbEntity
  8
寸法
 62
     0
 48
50.0
370
    -2
100
AcDbLine
 10
7649.896575106999
 20
9581.123139034721
 30
0.0
 11
8337.32292084141
 21
9581.123139034721
 31
0.0
  0
LINE
  5
18BF2
330
18BEE
100
AcDbEntity
  8
寸法
 62
     0
 48
50.0
370
    -2
100
AcDbLine
 10
8277.322920841411
 20
9581.123139034721
 30
0.0
 11
8277.322920841411
 21
9481.123139034719
 31
0.0
  0
LINE
  5
18BF3
330
18BEE
100
AcDbEntity
  8
寸法
 62
     0
 48
50.0
370
    -2
100
AcDbLine
 10
8277.322920841411
 20
9636.123139034717
 30
0.0
 11
8277.322920841411
 21
10053.09370178319
 31
0.0
  0
LINE
  5
18BF4
330
18BEE
100
AcDbEntity
  8
寸法
 62
     0
 48
50.0
370
    -2
100
AcDbLine
 10
8277.322920841411
 20
9581.123139034721
 30
0.0
 11
8277.322920841411
 21
9636.123139034717
 31
0.0
  0
INSERT
  5
18BF5
330
18BEE
100
AcDbEntity
  8
寸法
 62
     0
 48
50.0
370
    -2
100
AcDbBlockReference
  2
_DOTSMALL
 10
8277.322920841411
 20
9581.123139034721
 30
0.0
 41
100.0
 42
100.0
 43
100.0
 50
90.0
  0
INSERT
  5
18BF6
330
18BEE
100
AcDbEntity
  8
寸法
 62
     0
 48
50.0
370
    -2
100
AcDbBlockReference
  2
_DOTSMALL
 10
8277.322920841411
 20
9636.123139034717
 30
0.0
 41
100.0
 42
100.0
 43
100.0
 50
270.0
  0
MTEXT
  5
18BF7
330
18BEE
100
AcDbEntity
  8
寸法
 62
     7
 48
50.0
100
AcDbMText
 10
8177.32292084141
 20
9944.608420408957
 30
0.0
 40
120.0
 41
0.0
 71
     5
 72
     1
  1
\A1;55
  7
STYLE1
 11
0.0000000000000001
 21
1.0
 31
0.0
 73
     1
 44
1.0
1001
ACAD
1000
MTEXTBEGIN
1070
    73
1070
     1
1070
    44
1040
1.0
1070
    74
1070
     0
1000
MTEXTEND
  0
POINT
  5
18BF8
330
18BEE
100
AcDbEntity
  8
DEFPOINTS
 62
     0
 48
50.0
100
AcDbPoint
 10
7629.896575106998
 20
9636.123139034717
 30
0.0
  0
POINT
  5
18BF9
330
18BEE
100
AcDbEntity
  8
DEFPOINTS
 62
     0
 48
50.0
100
AcDbPoint
 10
7629.896575106998
 20
9581.123139034721
 30
0.0
  0
POINT
  5
18BFA
330
18BEE
100
AcDbEntity
  8
DEFPOINTS
 62
     0
 48
50.0
100
AcDbPoint
 10
8277.322920841411
 20
9581.123139034721
 30
0.0
  0
ENDBLK
  5
18BFB
330
18BEE
100
AcDbEntity
  8
0
 48
50.0
100
AcDbBlockEnd
  0
BLOCK
  5
18BFD
330
18BFC
100
AcDbEntity
  8
0
 48
50.0
100
AcDbBlockBegin
  2
*D7
 70
     1
 10
0.0
 20
0.0
 30
0.0
  3
*D7
  1

  0
LINE
  5
18BFE
330
18BFC
100
AcDbEntity
  8
寸法
 62
     0
 48
50.0
370
    -2
100
AcDbLine
 10
4159.896575106963
 20
9656.123139034622
 30
0.0
 11
4159.896575106963
 21
10211.9313586596
 31
0.0
  0
LINE
  5
18BFF
330
18BFC
100
AcDbEntity
  8
寸法
 62
     0
 48
50.0
370
    -2
100
AcDbLine
 10
4214.896575106998
 20
9656.123139034622
 30
0.0
 11
4214.896575106998
 21
10211.9313586596
 31
0.0
  0
LINE
  5
18C00
330
18BFC
100
AcDbEntity
  8
寸法
 62
     0
 48
50.0
370
    -2
100
AcDbLine
 10
4214.896575106998
 20
10151.9313586596
 30
0.0
 11
4314.896575106998
 21
10151.9313586596
 31
0.0
  0
LINE
  5
18C01
330
18BFC
100
AcDbEntity
  8
寸法
 62
     0
 48
50.0
370
    -2
100
AcDbLine
 10
4159.896575106963
 20
10151.9313586596
 30
0.0
 11
3742.926012358486
 21
10151.9313586596
 31
0.0
  0
LINE
  5
18C02
330
18BFC
100
AcDbEntity
  8
寸法
 62
     0
 48
50.0
370
    -2
100
AcDbLine
 10
4214.896575106998
 20
10151.9313586596
 30
0.0
 11
4159.896575106963
 21
10151.9313586596
 31
0.0
  0
INSERT
  5
18C03
330
18BFC
100
AcDbEntity
  8
寸法
 62
     0
 48
50.0
370
    -2
100
AcDbBlockReference
  2
_DOTSMALL
 10
4214.896575106998
 20
10151.9313586596
 30
0.0
 41
100.0
 42
100.0
 43
100.0
 50
180.0
  0
INSERT
  5
18C04
330
18BFC
100
AcDbEntity
  8
寸法
 62
     0
 48
50.0
370
    -2
100
AcDbBlockReference
  2
_DOTSMALL
 10
4159.896575106963
 20
10151.9313586596
 30
0.0
 41
100.0
 42
100.0
 43
100.0
  0
MTEXT
  5
18C05
330
18BFC
100
AcDbEntity
  8
寸法
 62
     7
 48
50.0
100
AcDbMText
 10
3851.411293732725
 20
10251.9313586596
 30
0.0
 40
120.0
 41
0.0
 71
     5
 72
     1
  1
\A1;55
  7
STYLE1
 73
     1
 44
1.0
1001
ACAD
1000
MTEXTBEGIN
1070
    73
1070
     1
1070
    44
1040
1.0
1070
    74
1070
     0
1000
MTEXTEND
  0
POINT
  5
18C06
330
18BFC
100
AcDbEntity
  8
DEFPOINTS
 62
     0
 48
50.0
100
AcDbPoint
 10
4159.896575106963
 20
9636.123139034623
 30
0.0
  0
POINT
  5
18C07
330
18BFC
100
AcDbEntity
  8
DEFPOINTS
 62
     0
 48
50.0
100
AcDbPoint
 10
4214.896575106998
 20
9636.123139034623
 30
0.0
  0
POINT
  5
18C08
330
18BFC
100
AcDbEntity
  8
DEFPOINTS
 62
     0
 48
50.0
100
AcDbPoint
 10
4214.896575106998
 20
10151.9313586596
 30
0.0
  0
ENDBLK
  5
18C09
330
18BFC
100
AcDbEntity
  8
0
 48
50.0
100
AcDbBlockEnd
  0
BLOCK
  5
18C0B
330
18C0A
100
AcDbEntity
  8
0
 48
50.0
100
AcDbBlockBegin
  2
*D8
 70
     1
 10
0.0
 20
0.0
 30
0.0
  3
*D8
  1

  0
LINE
  5
18C0C
330
18C0A
100
AcDbEntity
  8
寸法
 62
     0
 48
50.0
370
    -2
100
AcDbLine
 10
4159.896575106992
 20
7826.123139034546
 30
0.0
 11
4159.896575106992
 21
6804.372203245664
 31
0.0
  0
LINE
  5
18C0D
330
18C0A
100
AcDbEntity
  8
寸法
 62
     0
 48
50.0
370
    -2
100
AcDbLine
 10
7629.896575106974
 20
7826.123139034674
 30
0.0
 11
7629.896575106974
 21
6804.372203245664
 31
0.0
  0
LINE
  5
18C0E
330
18C0A
100
AcDbEntity
  8
寸法
 62
     0
 48
50.0
370
    -2
100
AcDbLine
 10
4159.896575106992
 20
6864.372203245665
 30
0.0
 11
7629.896575106974
 21
6864.372203245665
 31
0.0
  0
INSERT
  5
18C0F
330
18C0A
100
AcDbEntity
  8
寸法
 62
     0
 48
50.0
370
    -2
100
AcDbBlockReference
  2
_DOTSMALL
 10
4159.896575106992
 20
6864.372203245665
 30
0.0
 41
100.0
 42
100.0
 43
100.0
 50
180.0
  0
INSERT
  5
18C10
330
18C0A
100
AcDbEntity
  8
寸法
 62
     0
 48
50.0
370
    -2
100
AcDbBlockReference
  2
_DOTSMALL
 10
7629.896575106974
 20
6864.372203245665
 30
0.0
 41
100.0
 42
100.0
 43
100.0
  0
MTEXT
  5
18C11
330
18C0A
100
AcDbEntity
  8
寸法
 62
     7
 48
50.0
100
AcDbMText
 10
5911.12376113973
 20
6964.372203245665
 30
0.0
 40
120.0
 41
0.0
 71
     5
 72
     1
  1
\A1;3470
  7
STYLE1
 73
     1
 44
1.0
1001
ACAD
1000
MTEXTBEGIN
1070
    73
1070
     1
1070
    44
1040
1.0
1070
    74
1070
     0
1000
MTEXTEND
  0
POINT
  5
18C12
330
18C0A
100
AcDbEntity
  8
DEFPOINTS
 62
     0
 48
50.0
100
AcDbPoint
 10
4159.896575106992
 20
7846.123139034546
 30
0.0
  0
POINT
  5
18C13
330
18C0A
100
AcDbEntity
  8
DEFPOINTS
 62
     0
 48
50.0
100
AcDbPoint
 10
7629.896575106974
 20
7846.123139034673
 30
0.0
  0
POINT
  5
18C14
330
18C0A
100
AcDbEntity
  8
DEFPOINTS
 62
     0
 48
50.0
100
AcDbPoint
 10
7629.896575106974
 20
6864.372203245665
 30
0.0
  0
ENDBLK
  5
18C15
330
18C0A
100
AcDbEntity
  8
0
 48
50.0
100
AcDbBlockEnd
  0
BLOCK
  5
18C17
330
18C16
100
AcDbEntity
  8
0
 48
50.0
100
AcDbBlockBegin
  2
*D9
 70
     1
 10
0.0
 20
0.0
 30
0.0
  3
*D9
  1

  0
LINE
  5
18C18
330
18C16
100
AcDbEntity
  8
寸法
 62
     0
 48
50.0
370
    -2
100
AcDbLine
 10
7649.896575106973
 20
7901.123139034706
 30
0.0
 11
8337.322920841385
 21
7901.123139034706
 31
0.0
  0
LINE
  5
18C19
330
18C16
100
AcDbEntity
  8
寸法
 62
     0
 48
50.0
370
    -2
100
AcDbLine
 10
7649.896575106973
 20
7846.123139034709
 30
0.0
 11
8337.322920841385
 21
7846.123139034709
 31
0.0
  0
LINE
  5
18C1A
330
18C16
100
AcDbEntity
  8
寸法
 62
     0
 48
50.0
370
    -2
100
AcDbLine
 10
8277.322920841385
 20
7901.123139034706
 30
0.0
 11
8277.322920841385
 21
8001.123139034707
 31
0.0
  0
LINE
  5
18C1B
330
18C16
100
AcDbEntity
  8
寸法
 62
     0
 48
50.0
370
    -2
100
AcDbLine
 10
8277.322920841385
 20
7846.123139034709
 30
0.0
 11
8277.322920841385
 21
7429.152576286229
 31
0.0
  0
LINE
  5
18C1C
330
18C16
100
AcDbEntity
  8
寸法
 62
     0
 48
50.0
370
    -2
100
AcDbLine
 10
8277.322920841385
 20
7901.123139034706
 30
0.0
 11
8277.322920841385
 21
7846.123139034709
 31
0.0
  0
INSERT
  5
18C1D
330
18C16
100
AcDbEntity
  8
寸法
 62
     0
 48
50.0
370
    -2
100
AcDbBlockReference
  2
_DOTSMALL
 10
8277.322920841385
 20
7901.123139034706
 30
0.0
 41
100.0
 42
100.0
 43
100.0
 50
270.0
  0
INSERT
  5
18C1E
330
18C16
100
AcDbEntity
  8
寸法
 62
     0
 48
50.0
370
    -2
100
AcDbBlockReference
  2
_DOTSMALL
 10
8277.322920841385
 20
7846.123139034709
 30
0.0
 41
100.0
 42
100.0
 43
100.0
 50
90.0
  0
MTEXT
  5
18C1F
330
18C16
100
AcDbEntity
  8
寸法
 62
     7
 48
50.0
100
AcDbMText
 10
8177.322920841383
 20
7537.637857660469
 30
0.0
 40
120.0
 41
0.0
 71
     5
 72
     1
  1
\A1;55
  7
STYLE1
 11
0.0000000000000001
 21
1.0
 31
0.0
 73
     1
 44
1.0
1001
ACAD
1000
MTEXTBEGIN
1070
    73
1070
     1
1070
    44
1040
1.0
1070
    74
1070
     0
1000
MTEXTEND
  0
POINT
  5
18C20
330
18C16
100
AcDbEntity
  8
DEFPOINTS
 62
     0
 48
50.0
100
AcDbPoint
 10
7629.896575106974
 20
7901.123139034706
 30
0.0
  0
POINT
  5
18C21
330
18C16
100
AcDbEntity
  8
DEFPOINTS
 62
     0
 48
50.0
100
AcDbPoint
 10
7629.896575106974
 20
7846.123139034709
 30
0.0
  0
POINT
  5
18C22
330
18C16
100
AcDbEntity
  8
DEFPOINTS
 62
     0
 48
50.0
100
AcDbPoint
 10
8277.322920841385
 20
7846.123139034709
 30
0.0
  0
ENDBLK
  5
18C23
330
18C16
100
AcDbEntity
  8
0
 48
50.0
100
AcDbBlockEnd
  0
BLOCK
  5
18C25
330
18C24
100
AcDbEntity
  8
0
 48
50.0
100
AcDbBlockBegin
  2
*D10
 70
     1
 10
0.0
 20
0.0
 30
0.0
  3
*D10
  1

  0
LINE
  5
18C26
330
18C24
100
AcDbEntity
  8
寸法
 62
     0
 48
50.0
370
    -2
100
AcDbLine
 10
6533.037591258376
 20
9136.123139034728
 30
0.0
 11
6465.083950562664
 21
8882.516699399049
 31
0.0
  0
LINE
  5
18C27
330
18C24
100
AcDbEntity
  8
寸法
 62
     0
 48
50.0
370
    -2
100
AcDbLine
 10
7596.037591258388
 20
9136.123139034721
 30
0.0
 11
7528.083950562677
 21
8882.516699399049
 31
0.0
  0
LINE
  5
18C28
330
18C24
100
AcDbEntity
  8
寸法
 62
     0
 48
50.0
370
    -2
100
AcDbLine
 10
6481.160902108531
 20
8942.51669939905
 30
0.0
 11
7544.160902108544
 21
8942.51669939905
 31
0.0
  0
INSERT
  5
18C29
330
18C24
100
AcDbEntity
  8
寸法
 62
     0
 48
50.0
370
    -2
100
AcDbBlockReference
  2
_DOTSMALL
 10
6481.160902108531
 20
8942.51669939905
 30
0.0
 41
100.0
 42
100.0
 43
100.0
 50
180.0
  0
INSERT
  5
18C2A
330
18C24
100
AcDbEntity
  8
寸法
 62
     0
 48
50.0
370
    -2
100
AcDbBlockReference
  2
_DOTSMALL
 10
7544.160902108544
 20
8942.51669939905
 30
0.0
 41
100.0
 42
100.0
 43
100.0
  0
MTEXT
  5
18C2B
330
18C24
100
AcDbEntity
  8
寸法
 62
     7
 48
50.0
100
AcDbMText
 10
7061.28653022935
 20
9042.516699399049
 30
0.0
 40
120.0
 41
0.0
 71
     5
 72
     1
  1
\A1;1063
  7
STYLE1
 73
     1
 44
1.0
1001
ACAD
1000
MTEXTBEGIN
1070
    73
1070
     1
1070
    44
1040
1.0
1070
    74
1070
     0
1000
MTEXTEND
  0
POINT
  5
18C2C
330
18C24
100
AcDbEntity
  8
DEFPOINTS
 62
     0
 48
50.0
100
AcDbPoint
 10
6538.396575106998
 20
9156.123139034727
 30
0.0
  0
POINT
  5
18C2D
330
18C24
100
AcDbEntity
  8
DEFPOINTS
 62
     0
 48
50.0
100
AcDbPoint
 10
7601.39657510701
 20
9156.12313903472
 30
0.0
  0
POINT
  5
18C2E
330
18C24
100
AcDbEntity
  8
DEFPOINTS
 62
     0
 48
50.0
100
AcDbPoint
 10
7544.160902108544
 20
8942.51669939905
 30
0.0
  0
ENDBLK
  5
18C2F
330
18C24
100
AcDbEntity
  8
0
 48
50.0
100
AcDbBlockEnd
  0
BLOCK
  5
18C31
330
18C30
100
AcDbEntity
  8
0
 48
50.0
100
AcDbBlockBegin
  2
*D11
 70
     1
 10
0.0
 20
0.0
 30
0.0
  3
*D11
  1

  0
LINE
  5
18C32
330
18C30
100
AcDbEntity
  8
寸法
 62
     0
 48
50.0
370
    -2
100
AcDbLine
 10
7621.396575106999
 20
9600.764155186094
 30
0.0
 11
8016.754300969024
 21
9494.828371819961
 31
0.0
  0
LINE
  5
18C33
330
18C30
100
AcDbEntity
  8
寸法
 62
     0
 48
50.0
370
    -2
100
AcDbLine
 10
7621.396575106999
 20
9150.764155186099
 30
0.0
 11
8016.754300969024
 21
9044.828371819964
 31
0.0
  0
LINE
  5
18C34
330
18C30
100
AcDbEntity
  8
寸法
 62
     0
 48
50.0
370
    -2
100
AcDbLine
 10
7956.754300969024
 20
9510.905323365827
 30
0.0
 11
7956.754300969024
 21
9060.90532336583
 31
0.0
  0
INSERT
  5
18C35
330
18C30
100
AcDbEntity
  8
寸法
 62
     0
 48
50.0
370
    -2
100
AcDbBlockReference
  2
_DOTSMALL
 10
7956.754300969024
 20
9510.905323365827
 30
0.0
 41
100.0
 42
100.0
 43
100.0
 50
90.0
  0
INSERT
  5
18C36
330
18C30
100
AcDbEntity
  8
寸法
 62
     0
 48
50.0
370
    -2
100
AcDbBlockReference
  2
_DOTSMALL
 10
7956.754300969024
 20
9060.90532336583
 30
0.0
 41
100.0
 42
100.0
 43
100.0
 50
270.0
  0
MTEXT
  5
18C37
330
18C30
100
AcDbEntity
  8
寸法
 62
     7
 48
50.0
100
AcDbMText
 10
7856.754300969022
 20
9285.905323365829
 30
0.0
 40
120.0
 41
0.0
 71
     5
 72
     1
  1
\A1;450
  7
STYLE1
 11
0.0000000000000001
 21
1.0
 31
0.0
 73
     1
 44
1.0
1001
ACAD
1000
MTEXTBEGIN
1070
    73
1070
     1
1070
    44
1040
1.0
1070
    74
1070
     0
1000
MTEXTEND
  0
POINT
  5
18C38
330
18C30
100
AcDbEntity
  8
DEFPOINTS
 62
     0
 48
50.0
100
AcDbPoint
 10
7601.396575106999
 20
9606.123139034718
 30
0.0
  0
POINT
  5
18C39
330
18C30
100
AcDbEntity
  8
DEFPOINTS
 62
     0
 48
50.0
100
AcDbPoint
 10
7601.396575106999
 20
9156.12313903472
 30
0.0
  0
POINT
  5
18C3A
330
18C30
100
AcDbEntity
  8
DEFPOINTS
 62
     0
 48
50.0
100
AcDbPoint
 10
7956.754300969024
 20
9060.90532336583
 30
0.0
  0
ENDBLK
  5
18C3B
330
18C30
100
AcDbEntity
  8
0
 48
50.0
100
AcDbBlockEnd
  0
BLOCK
  5
18C3D
330
18C3C
100
AcDbEntity
  8
0
 48
50.0
100
AcDbBlockBegin
  2
*D12
 70
     1
 10
0.0
 20
0.0
 30
0.0
  3
*D12
  1

  0
LINE
  5
18C3E
330
18C3C
100
AcDbEntity
  8
寸法
 62
     0
 48
50.0
370
    -2
100
AcDbLine
 10
7649.896575106999
 20
9581.123139034721
 30
0.0
 11
8337.32292084141
 21
9581.123139034721
 31
0.0
  0
LINE
  5
18C3F
330
18C3C
100
AcDbEntity
  8
寸法
 62
     0
 48
50.0
370
    -2
100
AcDbLine
 10
7649.896575106973
 20
7901.123139034706
 30
0.0
 11
8337.32292084141
 21
7901.123139034706
 31
0.0
  0
LINE
  5
18C40
330
18C3C
100
AcDbEntity
  8
寸法
 62
     0
 48
50.0
370
    -2
100
AcDbLine
 10
8277.322920841411
 20
9581.123139034721
 30
0.0
 11
8277.322920841411
 21
7901.123139034706
 31
0.0
  0
INSERT
  5
18C41
330
18C3C
100
AcDbEntity
  8
寸法
 62
     0
 48
50.0
370
    -2
100
AcDbBlockReference
  2
_DOTSMALL
 10
8277.322920841411
 20
9581.123139034721
 30
0.0
 41
100.0
 42
100.0
 43
100.0
 50
90.0
  0
INSERT
  5
18C42
330
18C3C
100
AcDbEntity
  8
寸法
 62
     0
 48
50.0
370
    -2
100
AcDbBlockReference
  2
_DOTSMALL
 10
8277.322920841411
 20
7901.123139034706
 30
0.0
 41
100.0
 42
100.0
 43
100.0
 50
270.0
  0
MTEXT
  5
18C43
330
18C3C
100
AcDbEntity
  8
寸法
 62
     7
 48
50.0
100
AcDbMText
 10
8177.311109817788
 20
8741.123139034712
 30
0.0
 40
120.0
 41
0.0
 71
     5
 72
     1
  1
\A1;4X420=1680
  7
STYLE1
 11
0.0000000000000001
 21
1.0
 31
0.0
 73
     1
 44
1.0
1001
ACAD
1000
MTEXTBEGIN
1070
    73
1070
     1
1070
    44
1040
1.0
1070
    74
1070
     0
1000
MTEXTEND
  0
POINT
  5
18C44
330
18C3C
100
AcDbEntity
  8
DEFPOINTS
 62
     0
 48
50.0
100
AcDbPoint
 10
7629.896575106998
 20
9581.123139034721
 30
0.0
  0
POINT
  5
18C45
330
18C3C
100
AcDbEntity
  8
DEFPOINTS
 62
     0
 48
50.0
100
AcDbPoint
 10
7629.896575106974
 20
7901.123139034706
 30
0.0
  0
POINT
  5
18C46
330
18C3C
100
AcDbEntity
  8
DEFPOINTS
 62
     0
 48
50.0
100
AcDbPoint
 10
8277.322920841411
 20
7901.123139034706
 30
0.0
  0
ENDBLK
  5
18C47
330
18C3C
100
AcDbEntity
  8
0
 48
50.0
100
AcDbBlockEnd
  0
BLOCK
  5
18C49
330
18C48
100
AcDbEntity
  8
0
 48
50.0
100
AcDbBlockBegin
  2
*D13
 70
     1
 10
0.0
 20
0.0
 30
0.0
  3
*D13
  1

  0
LINE
  5
18C4A
330
18C48
100
AcDbEntity
  8
寸法
 62
     0
 48
50.0
370
    -2
100
AcDbLine
 10
4183.037591258377
 20
9136.123139034619
 30
0.0
 11
4115.083950562663
 21
8882.516699398941
 31
0.0
  0
LINE
  5
18C4B
330
18C48
100
AcDbEntity
  8
寸法
 62
     0
 48
50.0
370
    -2
100
AcDbLine
 10
5246.037591258307
 20
9136.123139034671
 30
0.0
 11
5178.08395056258
 21
8882.516699398941
 31
0.0
  0
LINE
  5
18C4C
330
18C48
100
AcDbEntity
  8
寸法
 62
     0
 48
50.0
370
    -2
100
AcDbLine
 10
4131.160902108532
 20
8942.516699398941
 30
0.0
 11
5194.160902108448
 21
8942.516699398941
 31
0.0
  0
INSERT
  5
18C4D
330
18C48
100
AcDbEntity
  8
寸法
 62
     0
 48
50.0
370
    -2
100
AcDbBlockReference
  2
_DOTSMALL
 10
4131.160902108532
 20
8942.516699398941
 30
0.0
 41
100.0
 42
100.0
 43
100.0
 50
180.0
  0
INSERT
  5
18C4E
330
18C48
100
AcDbEntity
  8
寸法
 62
     0
 48
50.0
370
    -2
100
AcDbBlockReference
  2
_DOTSMALL
 10
5194.160902108448
 20
8942.516699398941
 30
0.0
 41
100.0
 42
100.0
 43
100.0
  0
MTEXT
  5
18C4F
330
18C48
100
AcDbEntity
  8
寸法
 62
     7
 48
50.0
100
AcDbMText
 10
4658.986452655306
 20
9042.516699398941
 30
0.0
 40
120.0
 41
0.0
 71
     5
 72
     1
  1
\A1;1063
  7
STYLE1
 73
     1
 44
1.0
1001
ACAD
1000
MTEXTBEGIN
1070
    73
1070
     1
1070
    44
1040
1.0
1070
    74
1070
     0
1000
MTEXTEND
  0
POINT
  5
18C50
330
18C48
100
AcDbEntity
  8
DEFPOINTS
 62
     0
 48
50.0
100
AcDbPoint
 10
4188.396575106999
 20
9156.123139034617
 30
0.0
  0
POINT
  5
18C51
330
18C48
100
AcDbEntity
  8
DEFPOINTS
 62
     0
 48
50.0
100
AcDbPoint
 10
5251.396575106929
 20
9156.123139034672
 30
0.0
  0
POINT
  5
18C52
330
18C48
100
AcDbEntity
  8
DEFPOINTS
 62
     0
 48
50.0
100
AcDbPoint
 10
5194.160902108448
 20
8942.516699398941
 30
0.0
  0
ENDBLK
  5
18C53
330
18C48
100
AcDbEntity
  8
0
 48
50.0
100
AcDbBlockEnd
  0
BLOCK
  5
18C55
330
18C54
100
AcDbEntity
  8
0
 48
50.0
100
AcDbBlockBegin
  2
*D14
 70
     1
 10
0.0
 20
0.0
 30
0.0
  3
*D14
  1

  0
LINE
  5
18C56
330
18C54
100
AcDbEntity
  8
寸法
 62
     0
 48
50.0
370
    -2
100
AcDbLine
 10
5274.037591258307
 20
9136.123139034669
 30
0.0
 11
5206.08395056258
 21
8882.516699398941
 31
0.0
  0
LINE
  5
18C57
330
18C54
100
AcDbEntity
  8
寸法
 62
     0
 48
50.0
370
    -2
100
AcDbLine
 10
6505.037591258377
 20
9136.123139034662
 30
0.0
 11
6437.083950562653
 21
8882.516699398941
 31
0.0
  0
LINE
  5
18C58
330
18C54
100
AcDbEntity
  8
寸法
 62
     0
 48
50.0
370
    -2
100
AcDbLine
 10
5222.160902108448
 20
8942.516699398941
 30
0.0
 11
6453.16090210852
 21
8942.516699398941
 31
0.0
  0
INSERT
  5
18C59
330
18C54
100
AcDbEntity
  8
寸法
 62
     0
 48
50.0
370
    -2
100
AcDbBlockReference
  2
_DOTSMALL
 10
5222.160902108448
 20
8942.516699398941
 30
0.0
 41
100.0
 42
100.0
 43
100.0
 50
180.0
  0
INSERT
  5
18C5A
330
18C54
100
AcDbEntity
  8
寸法
 62
     0
 48
50.0
370
    -2
100
AcDbBlockReference
  2
_DOTSMALL
 10
6453.16090210852
 20
8942.516699398941
 30
0.0
 41
100.0
 42
100.0
 43
100.0
  0
MTEXT
  5
18C5B
330
18C54
100
AcDbEntity
  8
寸法
 62
     7
 48
50.0
100
AcDbMText
 10
6081.244808320626
 20
9042.528510422561
 30
0.0
 40
120.0
 41
0.0
 71
     5
 72
     1
  1
\A1;1231
  7
STYLE1
 73
     1
 44
1.0
1001
ACAD
1000
MTEXTBEGIN
1070
    73
1070
     1
1070
    44
1040
1.0
1070
    74
1070
     0
1000
MTEXTEND
  0
POINT
  5
18C5C
330
18C54
100
AcDbEntity
  8
DEFPOINTS
 62
     0
 48
50.0
100
AcDbPoint
 10
5279.396575106929
 20
9156.123139034669
 30
0.0
  0
POINT
  5
18C5D
330
18C54
100
AcDbEntity
  8
DEFPOINTS
 62
     0
 48
50.0
100
AcDbPoint
 10
6510.396575106999
 20
9156.123139034662
 30
0.0
  0
POINT
  5
18C5E
330
18C54
100
AcDbEntity
  8
DEFPOINTS
 62
     0
 48
50.0
100
AcDbPoint
 10
6453.16090210852
 20
8942.516699398941
 30
0.0
  0
ENDBLK
  5
18C5F
330
18C54
100
AcDbEntity
  8
0
 48
50.0
100
AcDbBlockEnd
  0
BLOCK
  5
18C61
330
18C60
100
AcDbEntity
  8
0
 48
50.0
100
AcDbBlockBegin
  2
*D15
 70
     1
 10
0.0
 20
0.0
 30
0.0
  3
*D15
  1

  0
LINE
  5
18C62
330
18C60
100
AcDbEntity
  8
寸法
 62
     0
 48
50.0
370
    -2
100
AcDbLine
 10
5065.896575106966
 20
7749.123139034579
 30
0.0
 11
5065.896575106966
 21
7099.952920982538
 31
0.0
  0
LINE
  5
18C63
330
18C60
100
AcDbEntity
  8
寸法
 62
     0
 48
50.0
370
    -2
100
AcDbLine
 10
6331.896575106966
 20
7749.123139034579
 30
0.0
 11
6331.896575106966
 21
7099.952920982538
 31
0.0
  0
LINE
  5
18C64
330
18C60
100
AcDbEntity
  8
寸法
 62
     0
 48
50.0
370
    -2
100
AcDbLine
 10
5065.896575106966
 20
7159.952920982537
 30
0.0
 11
6331.896575106966
 21
7159.952920982537
 31
0.0
  0
INSERT
  5
18C65
330
18C60
100
AcDbEntity
  8
寸法
 62
     0
 48
50.0
370
    -2
100
AcDbBlockReference
  2
_DOTSMALL
 10
5065.896575106966
 20
7159.952920982537
 30
0.0
 41
100.0
 42
100.0
 43
100.0
 50
180.0
  0
INSERT
  5
18C66
330
18C60
100
AcDbEntity
  8
寸法
 62
     0
 48
50.0
370
    -2
100
AcDbBlockReference
  2
_DOTSMALL
 10
6331.896575106966
 20
7159.952920982537
 30
0.0
 41
100.0
 42
100.0
 43
100.0
  0
MTEXT
  5
18C67
330
18C60
100
AcDbEntity
  8
寸法
 62
     7
 48
50.0
100
AcDbMText
 10
5711.986008735934
 20
7359.964732006159
 30
0.0
 40
120.0
 41
0.0
 71
     5
 72
     1
  1
\A1;有効開口部間口\P1266
  7
STYLE1
 73
     1
 44
1.0
1001
ACAD
1000
MTEXTBEGIN
1070
    73
1070
     1
1070
    44
1040
1.0
1070
    74
1070
     0
1000
MTEXTEND
  0
POINT
  5
18C68
330
18C60
100
AcDbEntity
  8
DEFPOINTS
 62
     0
 48
50.0
100
AcDbPoint
 10
5065.896575106966
 20
7769.123139034579
 30
0.0
  0
POINT
  5
18C69
330
18C60
100
AcDbEntity
  8
DEFPOINTS
 62
     0
 48
50.0
100
AcDbPoint
 10
6331.896575106966
 20
7769.123139034579
 30
0.0
  0
POINT
  5
18C6A
330
18C60
100
AcDbEntity
  8
DEFPOINTS
 62
     0
 48
50.0
100
AcDbPoint
 10
6331.896575106966
 20
7159.952920982537
 30
0.0
  0
ENDBLK
  5
18C6B
330
18C60
100
AcDbEntity
  8
0
 48
50.0
100
AcDbBlockEnd
  0
BLOCK
  5
18C6D
330
18C6C
100
AcDbEntity
  8
0
 48
50.0
100
AcDbBlockBegin
  2
*D16
 70
     1
 10
0.0
 20
0.0
 30
0.0
  3
*D16
  1

  0
LINE
  5
18C6E
330
18C6C
100
AcDbEntity
  8
寸法
 62
     0
 48
50.0
370
    -2
100
AcDbLine
 10
7200.896575106966
 20
7846.123139034578
 30
0.0
 11
7457.192158500191
 21
7846.123139034578
 31
0.0
  0
LINE
  5
18C6F
330
18C6C
100
AcDbEntity
  8
寸法
 62
     0
 48
50.0
370
    -2
100
AcDbLine
 10
7199.896575106966
 20
7769.123139034579
 30
0.0
 11
7457.192158500191
 21
7769.123139034579
 31
0.0
  0
LINE
  5
18C70
330
18C6C
100
AcDbEntity
  8
寸法
 62
     0
 48
50.0
370
    -2
100
AcDbLine
 10
7417.192158500192
 20
7866.123139034579
 30
0.0
 11
7417.192158500192
 21
7886.123139034578
 31
0.0
  0
LINE
  5
18C71
330
18C6C
100
AcDbEntity
  8
寸法
 62
     0
 48
50.0
370
    -2
100
AcDbLine
 10
7417.192158500192
 20
7749.123139034579
 30
0.0
 11
7417.192158500192
 21
7533.123139034573
 31
0.0
  0
LINE
  5
18C72
330
18C6C
100
AcDbEntity
  8
寸法
 62
     0
 48
50.0
370
    -2
100
AcDbLine
 10
7417.192158500192
 20
7846.123139034578
 30
0.0
 11
7417.192158500192
 21
7769.123139034579
 31
0.0
  0
INSERT
  5
18C73
330
18C6C
100
AcDbEntity
  8
寸法
 62
     0
 48
50.0
370
    -2
100
AcDbBlockReference
  2
_DOT
 10
7417.192158500192
 20
7846.123139034578
 30
0.0
 41
20.0
 42
20.0
 43
20.0
 50
270.0
  0
INSERT
  5
18C74
330
18C6C
100
AcDbEntity
  8
寸法
 62
     0
 48
50.0
370
    -2
100
AcDbBlockReference
  2
_DOT
 10
7417.192158500192
 20
7769.123139034579
 30
0.0
 41
20.0
 42
20.0
 43
20.0
 50
90.0
  0
MTEXT
  5
18C75
330
18C6C
100
AcDbEntity
  8
寸法
 62
     7
 48
50.0
100
AcDbMText
 10
7325.192158500191
 20
7631.123139034575
 30
0.0
 40
120.0
 41
0.0
 71
     5
 72
     1
  1
\A1;77
  7
STYLE1
 11
0.0000000000000001
 21
1.0
 31
0.0
 73
     1
 44
1.0
1001
ACAD
1000
MTEXTBEGIN
1070
    73
1070
     1
1070
    44
1040
1.0
1070
    74
1070
     0
1000
MTEXTEND
  0
POINT
  5
18C76
330
18C6C
100
AcDbEntity
  8
DEFPOINTS
 62
     0
 48
50.0
100
AcDbPoint
 10
7180.896575106967
 20
7846.123139034578
 30
0.0
  0
POINT
  5
18C77
330
18C6C
100
AcDbEntity
  8
DEFPOINTS
 62
     0
 48
50.0
100
AcDbPoint
 10
7179.896575106965
 20
7769.123139034579
 30
0.0
  0
POINT
  5
18C78
330
18C6C
100
AcDbEntity
  8
DEFPOINTS
 62
     0
 48
50.0
100
AcDbPoint
 10
7417.192158500192
 20
7769.123139034579
 30
0.0
  0
ENDBLK
  5
18C79
330
18C6C
100
AcDbEntity
  8
0
 48
50.0
100
AcDbBlockEnd
  0
BLOCK
  5
18DA0
330
18C7A
100
AcDbEntity
  8
0
 48
50.0
100
AcDbBlockBegin
  2
A$C3B1A506B
 70
     0
 10
0.0
 20
0.0
 30
0.0
  3
A$C3B1A506B
  1

  0
MTEXT
  5
18C7B
330
18C7A
100
AcDbEntity
  8
寸法
 62
     7
 48
50.0
100
AcDbMText
 10
3342.250386887194
 20
2778.329429134012
 30
0.0
 40
96.0
 41
0.0
 71
     5
 72
     1
  1
棚 2段
  7
STYLE1
 73
     1
 44
1.0
1001
ACAD
1000
MTEXTBEGIN
1070
    73
1070
     1
1070
    44
1040
1.0
1070
    74
1070
     0
1000
MTEXTEND
  0
MTEXT
  5
18C7C
330
18C7A
100
AcDbEntity
  8
寸法
 62
     7
 48
50.0
100
AcDbMText
 10
2167.25038688716
 20
2778.329429133986
 30
0.0
 40
96.0
 41
0.0
 71
     5
 72
     1
  1
棚 2段
  7
STYLE1
 73
     1
 44
1.0
1001
ACAD
1000
MTEXTBEGIN
1070
    73
1070
     1
1070
    44
1040
1.0
1070
    74
1070
     0
1000
MTEXTEND
  0
MTEXT
  5
18C7D
330
18C7A
100
AcDbEntity
  8
寸法
 62
     7
 48
50.0
100
AcDbMText
 10
992.2503868871608
 20
2778.329429133935
 30
0.0
 40
96.0
 41
0.0
 71
     5
 72
     1
  1
棚 2段
  7
STYLE1
 73
     1
 44
1.0
1001
ACAD
1000
MTEXTBEGIN
1070
    73
1070
     1
1070
    44
1040
1.0
1070
    74
1070
     0
1000
MTEXTEND
  0
LINE
  5
18C7E
330
18C7A
100
AcDbEntity
  8
細線
 48
50.0
100
AcDbLine
 10
2771.970589276527
 20
1368.994384123192
 30
0.0
 11
3398.970589276523
 21
1368.994384123192
 31
0.0
  0
LINE
  5
18C7F
330
18C7A
100
AcDbEntity
  8
細線
 48
50.0
100
AcDbLine
 10
2117.970593930113
 20
1335.285615569113
 30
0.0
 11
3398.970589276523
 21
1335.285615569113
 31
0.0
  0
LINE
  5
18C80
330
18C7A
100
AcDbEntity
  8
細線
 48
50.0
100
AcDbLine
 10
2076.970593930115
 20
1364.690523565368
 30
0.0
 11
1322.970589276523
 21
1364.690523565367
 31
0.0
  0
LINE
  5
18C81
330
18C7A
100
AcDbEntity
  8
細線
100
AcDbLine
 10
3170.720579860066
 20
1388.494284088199
 30
0.0
 11
3173.052119381877
 21
1393.494286728162
 31
0.0
  0
LINE
  5
18C82
330
18C7A
100
AcDbEntity
  8
細線
100
AcDbLine
 10
3240.720589276525
 20
1388.494269174465
 30
0.0
 11
3238.389042800336
 21
1393.494286728144
 31
0.0
  0
LINE
  5
18C83
330
18C7A
100
AcDbEntity
  8
細線
100
AcDbLine
 10
3238.389042800336
 20
1393.494286728144
 30
0.0
 11
3173.052119381862
 21
1393.494286728133
 31
0.0
  0
LINE
  5
18C84
330
18C7A
100
AcDbEntity
  8
細線
100
AcDbLine
 10
3098.389042800336
 20
1393.494286728144
 30
0.0
 11
3033.052119381862
 21
1393.494286728133
 31
0.0
  0
LINE
  5
18C85
330
18C7A
100
AcDbEntity
  8
細線
100
AcDbLine
 10
3100.720589276523
 20
1388.494269174465
 30
0.0
 11
3098.389042800336
 21
1393.494286728144
 31
0.0
  0
LINE
  5
18C86
330
18C7A
100
AcDbEntity
  8
細線
100
AcDbLine
 10
3030.720579860066
 20
1388.494284088199
 30
0.0
 11
3033.052119381875
 21
1393.494286728162
 31
0.0
  0
LINE
  5
18C87
330
18C7A
100
AcDbEntity
  8
細線
100
AcDbLine
 10
2890.720589276525
 20
1388.494269174465
 30
0.0
 11
2893.052128798336
 21
1393.494271814428
 31
0.0
  0
LINE
  5
18C88
330
18C7A
100
AcDbEntity
  8
細線
100
AcDbLine
 10
2960.720598692984
 20
1388.494254260731
 30
0.0
 11
2958.389052216793
 21
1393.49427181441
 31
0.0
  0
LINE
  5
18C89
330
18C7A
100
AcDbEntity
  8
細線
100
AcDbLine
 10
2958.389052216795
 20
1393.49427181441
 30
0.0
 11
2893.052128798321
 21
1393.494271814399
 31
0.0
  0
LINE
  5
18C8A
330
18C7A
100
AcDbEntity
  8
細線
100
AcDbLine
 10
2667.139038146739
 20
1359.494298590735
 30
0.0
 11
2601.802114728263
 21
1359.494298590724
 31
0.0
  0
LINE
  5
18C8B
330
18C7A
100
AcDbEntity
  8
細線
100
AcDbLine
 10
2669.470584622926
 20
1354.494281037055
 30
0.0
 11
2667.139038146737
 21
1359.494298590735
 31
0.0
  0
LINE
  5
18C8C
330
18C7A
100
AcDbEntity
  8
細線
100
AcDbLine
 10
2599.470575206469
 20
1354.49429595079
 30
0.0
 11
2601.802114728278
 21
1359.494298590752
 31
0.0
  0
LINE
  5
18C8D
330
18C7A
100
AcDbEntity
  8
細線
 48
50.0
100
AcDbLine
 10
2440.853968524536
 20
1372.765132327548
 30
0.0
 11
2446.609486107205
 21
1354.494281037057
 31
0.0
  0
LINE
  5
18C8E
330
18C7A
100
AcDbEntity
  8
細線
 48
50.0
100
AcDbLine
 10
2429.925520044106
 20
1372.765132327546
 30
0.0
 11
2440.853968524536
 21
1372.765132327548
 31
0.0
  0
ARC
  5
18C8F
330
18C7A
100
AcDbEntity
  8
細線
 48
50.0
100
AcDbCircle
 10
2424.471163986787
 20
1374.265132327546
 30
0.0
 40
5.0
100
AcDbArc
 50
204.6243183520723
 51
335.3756816479278
  0
ARC
  5
18C90
330
18C7A
100
AcDbEntity
  8
細線
 48
50.0
100
AcDbCircle
 10
2429.925520044106
 20
1371.765132327546
 30
0.0
 40
1.0
100
AcDbArc
 50
90.0
 51
155.3756816479277
  0
ARC
  5
18C91
330
18C7A
100
AcDbEntity
  8
細線
 48
50.0
100
AcDbCircle
 10
2419.016807929469
 20
1371.765132327546
 30
0.0
 40
1.0
100
AcDbArc
 50
24.62431835207225
 51
90.0
  0
LINE
  5
18C92
330
18C7A
100
AcDbEntity
  8
細線
 48
50.0
100
AcDbLine
 10
2408.088359449037
 20
1372.765132327548
 30
0.0
 11
2419.016807929469
 21
1372.765132327546
 31
0.0
  0
LINE
  5
18C93
330
18C7A
100
AcDbEntity
  8
細線
 48
50.0
100
AcDbLine
 10
2402.33284186637
 20
1354.494281037054
 30
0.0
 11
2408.088359449037
 21
1372.765132327548
 31
0.0
  0
LINE
  5
18C94
330
18C7A
100
AcDbEntity
  8
細線
100
AcDbLine
 10
2458.070304175992
 20
1354.494278397076
 30
0.0
 11
2460.401843697802
 21
1359.494281037039
 31
0.0
  0
LINE
  5
18C95
330
18C7A
100
AcDbEntity
  8
細線
100
AcDbLine
 10
2528.070313592451
 20
1354.494263483342
 30
0.0
 11
2525.738767116262
 21
1359.494281037021
 31
0.0
  0
LINE
  5
18C96
330
18C7A
100
AcDbEntity
  8
細線
100
AcDbLine
 10
2525.738767116262
 20
1359.494281037021
 30
0.0
 11
2460.40184369779
 21
1359.49428103701
 31
0.0
  0
LINE
  5
18C97
330
18C7A
100
AcDbEntity
  8
細線
100
AcDbLine
 10
2387.139046332155
 20
1359.494281037021
 30
0.0
 11
2321.80212291368
 21
1359.49428103701
 31
0.0
  0
LINE
  5
18C98
330
18C7A
100
AcDbEntity
  8
細線
100
AcDbLine
 10
2389.470592808342
 20
1354.494263483342
 30
0.0
 11
2387.139046332153
 21
1359.494281037021
 31
0.0
  0
LINE
  5
18C99
330
18C7A
100
AcDbEntity
  8
細線
100
AcDbLine
 10
2319.470584622926
 20
1354.494281037054
 30
0.0
 11
2321.802122913694
 21
1359.494281037039
 31
0.0
  0
LINE
  5
18C9A
330
18C7A
100
AcDbEntity
  8
細線
100
AcDbLine
 10
2179.47061994182
 20
1354.494289224422
 30
0.0
 11
2181.802158232587
 21
1359.494289224407
 31
0.0
  0
LINE
  5
18C9B
330
18C7A
100
AcDbEntity
  8
細線
100
AcDbLine
 10
2249.470628127236
 20
1354.49427167071
 30
0.0
 11
2247.139081651047
 21
1359.494289224389
 31
0.0
  0
LINE
  5
18C9C
330
18C7A
100
AcDbEntity
  8
細線
100
AcDbLine
 10
2247.139081651047
 20
1359.494289224389
 30
0.0
 11
2181.802158232573
 21
1359.494289224378
 31
0.0
  0
LINE
  5
18C9D
330
18C7A
100
AcDbEntity
  8
細線
100
AcDbLine
 10
1807.970585744697
 20
1320.494460905133
 30
0.0
 11
1810.302124035464
 21
1325.494460905118
 31
0.0
  0
LINE
  5
18C9E
330
18C7A
100
AcDbEntity
  8
細線
100
AcDbLine
 10
1877.970593930113
 20
1320.494443351421
 30
0.0
 11
1875.639047453926
 21
1325.4944609051
 31
0.0
  0
LINE
  5
18C9F
330
18C7A
100
AcDbEntity
  8
細線
100
AcDbLine
 10
1875.639047453926
 20
1325.4944609051
 30
0.0
 11
1810.302124035452
 21
1325.494460905089
 31
0.0
  0
LINE
  5
18CA0
330
18C7A
100
AcDbEntity
  8
細線
100
AcDbLine
 10
2015.639047453926
 20
1325.4944609051
 30
0.0
 11
1950.302124035452
 21
1325.494460905089
 31
0.0
  0
LINE
  5
18CA1
330
18C7A
100
AcDbEntity
  8
細線
100
AcDbLine
 10
2017.970593930113
 20
1320.494443351421
 30
0.0
 11
2015.639047453924
 21
1325.4944609051
 31
0.0
  0
LINE
  5
18CA2
330
18C7A
100
AcDbEntity
  8
細線
100
AcDbLine
 10
1947.970585744697
 20
1320.494460905133
 30
0.0
 11
1950.302124035465
 21
1325.494460905118
 31
0.0
  0
LINE
  5
18CA3
330
18C7A
100
AcDbEntity
  8
細線
100
AcDbLine
 10
1735.639047453926
 20
1325.494460905098
 30
0.0
 11
1670.302124035454
 21
1325.494460905087
 31
0.0
  0
LINE
  5
18CA4
330
18C7A
100
AcDbEntity
  8
細線
100
AcDbLine
 10
1737.970593930113
 20
1320.494443351419
 30
0.0
 11
1735.639047453926
 21
1325.494460905098
 31
0.0
  0
LINE
  5
18CA5
330
18C7A
100
AcDbEntity
  8
細線
100
AcDbLine
 10
1667.970585744697
 20
1320.494460905131
 30
0.0
 11
1670.302124035465
 21
1325.494460905116
 31
0.0
  0
LINE
  5
18CA6
330
18C7A
100
AcDbEntity
  8
細線
100
AcDbLine
 10
1527.970593930113
 20
1320.494460905133
 30
0.0
 11
1530.302132220881
 21
1325.494460905118
 31
0.0
  0
LINE
  5
18CA7
330
18C7A
100
AcDbEntity
  8
細線
100
AcDbLine
 10
1597.970602115529
 20
1320.494443351421
 30
0.0
 11
1595.639055639342
 21
1325.4944609051
 31
0.0
  0
LINE
  5
18CA8
330
18C7A
100
AcDbEntity
  8
細線
100
AcDbLine
 10
1595.639055639342
 20
1325.4944609051
 30
0.0
 11
1530.302132220869
 21
1325.494460905089
 31
0.0
  0
ARC
  5
18CA9
330
18C7A
100
AcDbEntity
  8
部品1
 48
0.01
100
AcDbCircle
 10
1483.470482677778
 20
1319.493338720063
 30
0.0
 40
0.5
100
AcDbArc
 50
270.0
 51
0.0
  0
LINE
  5
18CAA
330
18C7A
100
AcDbEntity
  8
部品1
 48
0.01
100
AcDbLine
 10
1483.970482677778
 20
1320.493338720063
 30
0.0
 11
1483.970482677778
 21
1319.493338720063
 31
0.0
  0
LINE
  5
18CAB
330
18C7A
100
AcDbEntity
  8
部品1
 48
0.01
100
AcDbLine
 10
1483.970482677778
 20
1320.493338720063
 30
0.0
 11
1483.970482677778
 21
1319.493338720063
 31
0.0
  0
LINE
  5
18CAC
330
18C7A
100
AcDbEntity
  8
部品1
 48
0.01
100
AcDbLine
 10
1483.470482677778
 20
1318.993338720063
 30
0.0
 11
1476.857977247713
 21
1318.993338720062
 31
0.0
  0
ARC
  5
18CAD
330
18C7A
100
AcDbEntity
  8
部品1
100
AcDbCircle
 10
1476.926326800494
 20
1319.993338720062
 30
0.0
 40
1.0
100
AcDbArc
 50
160.5287793655865
 51
270.0
  0
ARC
  5
18CAE
330
18C7A
100
AcDbEntity
  8
部品1
100
AcDbCircle
 10
1451.470482677778
 20
1328.993338720062
 30
0.0
 40
26.0
100
AcDbArc
 50
340.5287793655865
 51
0.0
  0
LINE
  5
18CAF
330
18C7A
100
AcDbEntity
  8
部品1
100
AcDbLine
 10
1477.470482677778
 20
1328.993338720062
 30
0.0
 11
1477.470482677778
 21
1333.993338720061
 31
0.0
  0
ARC
  5
18CB0
330
18C7A
100
AcDbEntity
  8
部品1
 48
0.01
100
AcDbCircle
 10
1475.470482677778
 20
1333.993338720061
 30
0.0
 40
2.0
100
AcDbArc
 50
0.0
 51
90.0
  0
ARC
  5
18CB1
330
18C7A
100
AcDbEntity
  8
部品1
100
AcDbCircle
 10
1473.862091052968
 20
1332.993338720062
 30
0.0
 40
3.0
100
AcDbArc
 50
90.0
 51
141.6069559808035
  0
LINE
  5
18CB2
330
18C7A
100
AcDbEntity
  8
部品1
 48
0.01
100
AcDbLine
 10
1475.470482677778
 20
1335.993338720062
 30
0.0
 11
1473.862091052968
 21
1335.993338720062
 31
0.0
  0
ARC
  5
18CB3
330
18C7A
100
AcDbEntity
  8
部品1
100
AcDbCircle
 10
1455.399768463507
 20
1332.293338720065
 30
0.0
 40
3.0
100
AcDbArc
 50
254.0576313943215
 51
270.0
  0
ARC
  5
18CB4
330
18C7A
100
AcDbEntity
  8
部品1
100
AcDbCircle
 10
1462.541196892049
 20
1332.293338720065
 30
0.0
 40
3.0
100
AcDbArc
 50
270.0
 51
285.9423686056786
  0
LINE
  5
18CB5
330
18C7A
100
AcDbEntity
  8
部品1
100
AcDbLine
 10
1462.541196892049
 20
1329.293338720064
 30
0.0
 11
1455.399768463507
 21
1329.293338720064
 31
0.0
  0
ARC
  5
18CB6
330
18C7A
100
AcDbEntity
  8
部品1
100
AcDbCircle
 10
1458.970482677778
 20
1344.793338720065
 30
0.0
 40
16.0
100
AcDbArc
 50
285.9423686056786
 51
321.6069559808035
  0
LINE
  5
18CB7
330
18C7A
100
AcDbEntity
  8
部品1
 48
0.01
100
AcDbLine
 10
1442.470482677778
 20
1335.993338720062
 30
0.0
 11
1444.078874302588
 21
1335.993338720062
 31
0.0
  0
ARC
  5
18CB8
330
18C7A
100
AcDbEntity
  8
部品1
100
AcDbCircle
 10
1444.078874302588
 20
1332.993338720062
 30
0.0
 40
3.0
100
AcDbArc
 50
38.39304401919648
 51
90.0
  0
ARC
  5
18CB9
330
18C7A
100
AcDbEntity
  8
部品1
100
AcDbCircle
 10
1458.970482677778
 20
1344.793338720065
 30
0.0
 40
16.0
100
AcDbArc
 50
218.3930440191965
 51
254.0576313943215
  0
LINE
  5
18CBA
330
18C7A
100
AcDbEntity
  8
部品1
100
AcDbLine
 10
1440.470482677778
 20
1328.993338720062
 30
0.0
 11
1440.470482677778
 21
1333.993338720061
 31
0.0
  0
ARC
  5
18CBB
330
18C7A
100
AcDbEntity
  8
部品1
 48
0.01
100
AcDbCircle
 10
1442.470482677778
 20
1333.993338720061
 30
0.0
 40
2.0
100
AcDbArc
 50
90.0
 51
180.0
  0
ARC
  5
18CBC
330
18C7A
100
AcDbEntity
  8
部品1
100
AcDbCircle
 10
1466.470482677778
 20
1328.993338720062
 30
0.0
 40
26.0
100
AcDbArc
 50
180.0
 51
199.4712206344134
  0
ARC
  5
18CBD
330
18C7A
100
AcDbEntity
  8
部品1
 48
0.01
100
AcDbCircle
 10
1434.470482677778
 20
1319.493338720063
 30
0.0
 40
0.5
100
AcDbArc
 50
180.0
 51
270.0
  0
LINE
  5
18CBE
330
18C7A
100
AcDbEntity
  8
部品1
 48
0.01
100
AcDbLine
 10
1434.470482677778
 20
1318.993338720063
 30
0.0
 11
1441.014638555061
 21
1318.993338720062
 31
0.0
  0
LINE
  5
18CBF
330
18C7A
100
AcDbEntity
  8
部品1
 48
0.01
100
AcDbLine
 10
1433.970482677778
 20
1320.493338720063
 30
0.0
 11
1433.970482677778
 21
1319.493338720063
 31
0.0
  0
ARC
  5
18CC0
330
18C7A
100
AcDbEntity
  8
部品1
100
AcDbCircle
 10
1441.014638555061
 20
1319.993338720062
 30
0.0
 40
1.0
100
AcDbArc
 50
270.0
 51
19.47122063441346
  0
LINE
  5
18CC1
330
18C7A
100
AcDbEntity
  8
細線
100
AcDbLine
 10
1479.470482677785
 20
1338.493338720065
 30
0.0
 11
1438.470482677785
 21
1338.493338720058
 31
0.0
  0
LINE
  5
18CC2
330
18C7A
100
AcDbEntity
  8
細線
100
AcDbLine
 10
1438.470482677785
 20
1338.493338720058
 30
0.0
 11
1438.470482677785
 21
1320.49333872004
 31
0.0
  0
LINE
  5
18CC3
330
18C7A
100
AcDbEntity
  8
細線
100
AcDbLine
 10
1479.470482677785
 20
1338.493338720065
 30
0.0
 11
1479.470482677785
 21
1320.49333872004
 31
0.0
  0
LINE
  5
18CC4
330
18C7A
100
AcDbEntity
  8
細線
100
AcDbLine
 10
1322.970589276523
 20
1324.494269174465
 30
0.0
 11
1322.970589276523
 21
1320.494269174513
 31
0.0
  0
LINE
  5
18CC5
330
18C7A
100
AcDbEntity
  8
寸法
 48
50.0
100
AcDbLine
 10
1746.17359555837
 20
1170.531020743327
 30
0.0
 11
1694.767587648266
 21
1170.531020743327
 31
0.0
  0
LINE
  5
18CC6
330
18C7A
100
AcDbEntity
  8
寸法
 48
50.0
100
AcDbLine
 10
1694.767587648266
 20
1170.531020743327
 30
0.0
 11
1694.767587648266
 21
1201.841179395494
 31
0.0
  0
LINE
  5
18CC7
330
18C7A
100
AcDbEntity
  8
寸法
 48
50.0
100
AcDbLine
 10
1694.767587648266
 20
1201.841179395494
 30
0.0
 11
1665.006255656843
 21
1201.841179395494
 31
0.0
  0
LINE
  5
18CC8
330
18C7A
100
AcDbEntity
  8
寸法
 48
50.0
100
AcDbLine
 10
1665.006255656843
 20
1201.841179395494
 30
0.0
 11
1720.470591603318
 21
1239.420630324105
 31
0.0
  0
LINE
  5
18CC9
330
18C7A
100
AcDbEntity
  8
寸法
 48
50.0
100
AcDbLine
 10
1775.934927549793
 20
1201.841179395494
 30
0.0
 11
1720.470591603318
 21
1239.420630324105
 31
0.0
  0
LINE
  5
18CCA
330
18C7A
100
AcDbEntity
  8
寸法
 48
50.0
100
AcDbLine
 10
1746.17359555837
 20
1201.841179395494
 30
0.0
 11
1775.934927549793
 21
1201.841179395494
 31
0.0
  0
LINE
  5
18CCB
330
18C7A
100
AcDbEntity
  8
寸法
 48
50.0
100
AcDbLine
 10
1746.17359555837
 20
1170.531020743327
 30
0.0
 11
1746.17359555837
 21
1201.841179395494
 31
0.0
  0
LINE
  5
18CCC
330
18C7A
100
AcDbEntity
  8
寸法
 48
50.0
100
AcDbLine
 10
1694.767587648266
 20
1170.531020743327
 30
0.0
 11
1746.17359555837
 21
1170.531020743327
 31
0.0
  0
LINE
  5
18CCD
330
18C7A
100
AcDbEntity
  8
寸法
 48
50.0
100
AcDbLine
 10
2025.339129835225
 20
1227.676611498152
 30
0.0
 11
2025.339129835225
 21
1174.01297691636
 31
0.0
  0
LINE
  5
18CCE
330
18C7A
100
AcDbEntity
  8
寸法
 48
50.0
100
AcDbLine
 10
2114.623348430647
 20
1203.752977228664
 30
0.0
 11
2025.339129835225
 21
1227.676611498152
 31
0.0
  0
LINE
  5
18CCF
330
18C7A
100
AcDbEntity
  8
寸法
 48
50.0
100
AcDbLine
 10
1895.471408254923
 20
1203.752977228664
 30
0.0
 11
2114.623348430647
 21
1203.752977228664
 31
0.0
  0
DIMENSION
  5
18CD0
330
18C7A
100
AcDbEntity
  8
寸法
 48
50.0
100
AcDbDimension
  2
*D15
 10
2588.970589276523
 20
706.3240511224249
 30
0.0
 11
1969.060022905491
 21
706.3240511224249
 31
0.0
 12
-3742.925985830444
 22
-6453.628869860112
 32
0.0
 70
   128
  1
有効開口部間口\P<>
 71
     5
 42
1266.0
  3
INABA_S40G
100
AcDbAlignedDimension
 13
1322.970589276523
 23
1315.494269174465
 33
0.0
 14
2588.970589276523
 24
1315.494269174465
 34
0.0
100
AcDbRotatedDimension
1001
ACAD
1000
DSTYLE
1002
{
1070
   341
1005
0
1002
}
  0
LINE
  5
18CD1
330
18C7A
100
AcDbEntity
  8
部品1
100
AcDbLine
 10
3409.970589276524
 20
1392.494269174465
 30
0.0
 11
3437.970589276523
 21
1392.494269174465
 31
0.0
  0
DIMENSION
  5
18CD2
330
18C7A
100
AcDbEntity
  8
寸法
100
AcDbDimension
  2
*D16
 10
3674.266172669749
 20
1315.494269174465
 30
0.0
 11
3674.266172669748
 21
1177.494269174462
 31
0.0
 12
-3742.925985830444
 22
-6453.628869860112
 32
0.0
 70
   128
 71
     5
 42
77.0
  3
INABA_S40
100
AcDbAlignedDimension
 13
3437.970589276523
 23
1392.494269174465
 33
0.0
 14
3436.970589276523
 24
1315.494269174465
 34
0.0
 50
90.0
100
AcDbRotatedDimension
1001
ACAD
1000
DSTYLE
1002
{
1070
    41
1040
0.5
1070
    44
1040
1.0
1070
   147
1040
0.8
1070
   271
1070
     2
1070
   272
1070
     2
1070
   289
1070
     3
1070
   340
1005
F706
1070
   343
1005
164B4
1070
   344
1005
164B4
1002
}
  0
LINE
  5
18CD3
330
18C7A
100
AcDbEntity
  8
部品1
100
AcDbLine
 10
3437.970589276523
 20
1315.494269174465
 30
0.0
 11
3437.970589276523
 21
1392.494269174465
 31
0.0
  0
LINE
  5
18CD4
330
18C7A
100
AcDbEntity
  8
部品1
100
AcDbLine
 10
3398.970589276523
 20
1388.494269174465
 30
0.0
 11
3409.970589276524
 21
1388.494269174465
 31
0.0
  0
LINE
  5
18CD5
330
18C7A
100
AcDbEntity
  8
部品1
100
AcDbLine
 10
3407.970589276523
 20
1324.494269174465
 30
0.0
 11
3407.970589276523
 21
1315.494269174465
 31
0.0
  0
LINE
  5
18CD6
330
18C7A
100
AcDbEntity
  8
部品1
100
AcDbLine
 10
3398.970589276523
 20
1324.494269174465
 30
0.0
 11
3407.970589276523
 21
1324.494269174465
 31
0.0
  0
LINE
  5
18CD7
330
18C7A
100
AcDbEntity
  8
部品1
100
AcDbLine
 10
3398.970589276523
 20
1388.494269174465
 30
0.0
 11
3398.970589276523
 21
1324.494269174465
 31
0.0
  0
LINE
  5
18CD8
330
18C7A
100
AcDbEntity
  8
部品1
100
AcDbLine
 10
3409.970589276524
 20
1419.494269174465
 30
0.0
 11
3409.970589276524
 21
1388.494269174465
 31
0.0
  0
LINE
  5
18CD9
330
18C7A
100
AcDbEntity
  8
部品1
100
AcDbLine
 10
1322.970589276523
 20
1388.494269174465
 30
0.0
 11
1311.970589276523
 21
1388.494269174465
 31
0.0
  0
LINE
  5
18CDA
330
18C7A
100
AcDbEntity
  8
部品1
100
AcDbLine
 10
1283.970589276523
 20
1392.494269174465
 30
0.0
 11
1311.970589276523
 21
1392.494269174465
 31
0.0
  0
LINE
  5
18CDB
330
18C7A
100
AcDbEntity
  8
部品1
100
AcDbLine
 10
1313.970589276523
 20
1324.494269174465
 30
0.0
 11
1313.970589276523
 21
1315.494269174465
 31
0.0
  0
LINE
  5
18CDC
330
18C7A
100
AcDbEntity
  8
部品1
100
AcDbLine
 10
1322.970589276523
 20
1324.494269174465
 30
0.0
 11
1313.970589276523
 21
1324.494269174465
 31
0.0
  0
LINE
  5
18CDD
330
18C7A
100
AcDbEntity
  8
部品1
100
AcDbLine
 10
1313.970589276523
 20
1315.494269174465
 30
0.0
 11
1283.970589276523
 21
1315.494269174465
 31
0.0
  0
LINE
  5
18CDE
330
18C7A
100
AcDbEntity
  8
部品1
100
AcDbLine
 10
1283.970589276523
 20
1315.494269174465
 30
0.0
 11
1283.970589276523
 21
1392.494269174465
 31
0.0
  0
LINE
  5
18CDF
330
18C7A
100
AcDbEntity
  8
部品1
100
AcDbLine
 10
1322.970589276523
 20
1388.494269174465
 30
0.0
 11
1322.970589276523
 21
1324.494269174465
 31
0.0
  0
LINE
  5
18CE0
330
18C7A
100
AcDbEntity
  8
部品1
100
AcDbLine
 10
1311.970589276523
 20
1419.494269174462
 30
0.0
 11
1311.970589276523
 21
1388.494269174465
 31
0.0
  0
LINE
  5
18CE1
330
18C7A
100
AcDbEntity
  8
部品1
100
AcDbLine
 10
1311.970589276523
 20
1419.494269174462
 30
0.0
 11
3409.970589276524
 21
1419.494269174465
 31
0.0
  0
LINE
  5
18CE2
330
18C7A
100
AcDbEntity
  8
部品1
100
AcDbLine
 10
3407.970589276523
 20
1315.494269174465
 30
0.0
 11
3437.970589276523
 21
1315.494269174465
 31
0.0
  0
LINE
  5
18CE3
330
18C7A
100
AcDbEntity
  8
部品1
100
AcDbLine
 10
1313.970589276523
 20
1315.494269174465
 30
0.0
 11
3410.970589276523
 21
1315.494269174465
 31
0.0
  0
LINE
  5
18CE4
330
18C7A
100
AcDbEntity
  8
細線
  6
Continuous
 62
     5
100
AcDbLine
 10
2689.970589276527
 20
1354.494269174462
 30
0.0
 11
2689.970589276527
 21
1354.494269174462
 31
0.0
  0
LINE
  5
18CE5
330
18C7A
100
AcDbEntity
  8
細線
  6
Continuous
 62
     5
100
AcDbLine
 10
2682.470589276527
 20
1354.494269174462
 30
0.0
 11
2682.470589276527
 21
1354.494269174462
 31
0.0
  0
LINE
  5
18CE6
330
18C7A
100
AcDbEntity
  8
細線
  6
Continuous
 62
     5
100
AcDbLine
 10
2676.470589276527
 20
1354.494269174462
 30
0.0
 11
2676.470589276527
 21
1354.494269174462
 31
0.0
  0
LINE
  5
18CE7
330
18C7A
100
AcDbEntity
  8
細線
  6
Continuous
 62
     5
100
AcDbLine
 10
2743.970589276527
 20
1373.494269174462
 30
0.0
 11
2743.970589276527
 21
1373.494269174462
 31
0.0
  0
LINE
  5
18CE8
330
18C7A
100
AcDbEntity
  8
細線
 48
50.0
100
AcDbLine
 10
1336.970593930116
 20
1341.094443351418
 30
0.0
 11
1336.970593930113
 21
1349.490593759059
 31
0.0
  0
LINE
  5
18CE9
330
18C7A
100
AcDbEntity
  8
細線
 48
50.0
100
AcDbLine
 10
1336.970593930113
 20
1349.490593759059
 30
0.0
 11
1322.970589276523
 21
1349.490593759057
 31
0.0
  0
LINE
  5
18CEA
330
18C7A
100
AcDbEntity
  8
細線
 48
50.0
100
AcDbLine
 10
2087.970593930113
 20
1337.644443351419
 30
0.0
 11
2087.970593930113
 21
1342.494443351421
 31
0.0
  0
LINE
  5
18CEB
330
18C7A
100
AcDbEntity
  8
細線
 48
50.0
100
AcDbLine
 10
2087.970593930113
 20
1342.494443351421
 30
0.0
 11
2102.970593930113
 21
1342.494443351421
 31
0.0
  0
LINE
  5
18CEC
330
18C7A
100
AcDbEntity
  8
細線
 48
50.0
100
AcDbLine
 10
2102.970593930113
 20
1342.494443351421
 30
0.0
 11
2102.970593930115
 21
1349.494443351419
 31
0.0
  0
LINE
  5
18CED
330
18C7A
100
AcDbEntity
  8
細線
 48
50.0
100
AcDbLine
 10
2102.970593930115
 20
1349.494443351419
 30
0.0
 11
2117.970593930113
 21
1349.494443351419
 31
0.0
  0
LINE
  5
18CEE
330
18C7A
100
AcDbEntity
  8
細線
 48
50.0
100
AcDbLine
 10
2117.970593930113
 20
1349.494443351419
 30
0.0
 11
2117.970593930113
 21
1320.494443351421
 31
0.0
  0
LINE
  5
18CEF
330
18C7A
100
AcDbEntity
  8
細線
 48
50.0
100
AcDbLine
 10
1313.970589276523
 20
1320.491777694889
 30
0.0
 11
1527.970593930113
 21
1320.494460905133
 31
0.0
  0
LINE
  5
18CF0
330
18C7A
100
AcDbEntity
  8
細線
 48
50.0
100
AcDbLine
 10
2017.970593930113
 20
1320.494443351421
 30
0.0
 11
2117.970593930113
 21
1320.494443351421
 31
0.0
  0
LINE
  5
18CF1
330
18C7A
100
AcDbEntity
  8
細線
 48
50.0
100
AcDbLine
 10
1737.970593930113
 20
1320.494443351419
 30
0.0
 11
1807.970593930113
 21
1320.494443351423
 31
0.0
  0
LINE
  5
18CF2
330
18C7A
100
AcDbEntity
  8
細線
 48
50.0
100
AcDbLine
 10
1750.832558942642
 20
1320.494443351419
 30
0.0
 11
1756.588076525309
 21
1338.765294641913
 31
0.0
  0
LINE
  5
18CF3
330
18C7A
100
AcDbEntity
  8
細線
 48
50.0
100
AcDbLine
 10
1756.588076525309
 20
1338.765294641913
 30
0.0
 11
1767.516525005743
 21
1338.765294641911
 31
0.0
  0
ARC
  5
18CF4
330
18C7A
100
AcDbEntity
  8
細線
 48
50.0
100
AcDbCircle
 10
1767.516525005743
 20
1337.765294641911
 30
0.0
 40
1.0
100
AcDbArc
 50
24.62431835207225
 51
90.0
  0
ARC
  5
18CF5
330
18C7A
100
AcDbEntity
  8
細線
 48
50.0
100
AcDbCircle
 10
1778.425237120377
 20
1337.765294641911
 30
0.0
 40
1.0
100
AcDbArc
 50
90.0
 51
155.3756816479277
  0
ARC
  5
18CF6
330
18C7A
100
AcDbEntity
  8
細線
 48
50.0
100
AcDbCircle
 10
1772.970881063058
 20
1340.265294641911
 30
0.0
 40
5.0
100
AcDbArc
 50
204.6243183520723
 51
335.3756816479278
  0
LINE
  5
18CF7
330
18C7A
100
AcDbEntity
  8
細線
 48
50.0
100
AcDbLine
 10
1778.425237120377
 20
1338.765294641911
 30
0.0
 11
1789.35368560081
 21
1338.765294641913
 31
0.0
  0
LINE
  5
18CF8
330
18C7A
100
AcDbEntity
  8
細線
 48
50.0
100
AcDbLine
 10
1789.35368560081
 20
1338.765294641913
 30
0.0
 11
1795.109203183478
 21
1320.494443351423
 31
0.0
  0
LINE
  5
18CF9
330
18C7A
100
AcDbEntity
  8
細線
 48
50.0
100
AcDbLine
 10
2087.970593930113
 20
1341.094443351419
 30
0.0
 11
1336.970593930116
 21
1341.094443351418
 31
0.0
  0
LINE
  5
18CFA
330
18C7A
100
AcDbEntity
  8
細線
 48
50.0
100
AcDbLine
 10
1947.970593930113
 20
1320.494443351421
 30
0.0
 11
1877.970593930113
 21
1320.494443351421
 31
0.0
  0
LINE
  5
18CFB
330
18C7A
100
AcDbEntity
  8
細線
100
AcDbLine
 10
1667.970593930113
 20
1320.494443351421
 30
0.0
 11
1597.970602115529
 21
1320.494443351421
 31
0.0
  0
LINE
  5
18CFC
330
18C7A
100
AcDbEntity
  8
細線
 48
50.0
100
AcDbLine
 10
2741.970584622936
 20
1375.094487209288
 30
0.0
 11
2106.970593930113
 21
1375.094487209284
 31
0.0
  0
LINE
  5
18CFD
330
18C7A
100
AcDbEntity
  8
細線
 48
50.0
100
AcDbLine
 10
2106.970593930113
 20
1371.990637616925
 30
0.0
 11
2106.970593930113
 21
1376.490637616925
 31
0.0
  0
LINE
  5
18CFE
330
18C7A
100
AcDbEntity
  8
細線
 48
50.0
100
AcDbLine
 10
2106.970593930113
 20
1376.490637616925
 30
0.0
 11
2091.970593930113
 21
1376.490637616925
 31
0.0
  0
LINE
  5
18CFF
330
18C7A
100
AcDbEntity
  8
細線
 48
50.0
100
AcDbLine
 10
2091.970593930113
 20
1376.490637616925
 30
0.0
 11
2091.970593930113
 21
1383.490637616927
 31
0.0
  0
LINE
  5
18D00
330
18C7A
100
AcDbEntity
  8
細線
 48
50.0
100
AcDbLine
 10
2091.970593930113
 20
1383.490637616927
 30
0.0
 11
2076.970593930115
 21
1383.490637616924
 31
0.0
  0
LINE
  5
18D01
330
18C7A
100
AcDbEntity
  8
細線
 48
50.0
100
AcDbLine
 10
2076.970593930115
 20
1383.490637616924
 30
0.0
 11
2076.970593930115
 21
1345.890409513813
 31
0.0
  0
LINE
  5
18D02
330
18C7A
100
AcDbEntity
  8
細線
 48
50.0
100
AcDbLine
 10
2076.970593930115
 20
1345.890409513813
 30
0.0
 11
2096.970601231289
 21
1345.890451063353
 31
0.0
  0
LINE
  5
18D03
330
18C7A
100
AcDbEntity
  8
細線
 48
50.0
100
AcDbLine
 10
2096.970556362348
 20
1354.493912699161
 30
0.0
 11
2096.970601231289
 21
1345.890451063353
 31
0.0
  0
LINE
  5
18D04
330
18C7A
100
AcDbEntity
  8
細線
 48
50.0
100
AcDbLine
 10
2741.970584622936
 20
1371.644487209287
 30
0.0
 11
2741.970584622936
 21
1376.494487209284
 31
0.0
  0
LINE
  5
18D05
330
18C7A
100
AcDbEntity
  8
細線
 48
50.0
100
AcDbLine
 10
2741.970584622936
 20
1376.494487209284
 30
0.0
 11
2756.970584622934
 21
1376.494487209285
 31
0.0
  0
LINE
  5
18D06
330
18C7A
100
AcDbEntity
  8
細線
 48
50.0
100
AcDbLine
 10
2756.970584622934
 20
1376.494487209285
 30
0.0
 11
2756.970596256909
 21
1383.494487209331
 31
0.0
  0
LINE
  5
18D07
330
18C7A
100
AcDbEntity
  8
細線
 48
50.0
100
AcDbLine
 10
2756.970596256909
 20
1383.494487209331
 30
0.0
 11
2771.970594427439
 21
1383.494487209329
 31
0.0
  0
LINE
  5
18D08
330
18C7A
100
AcDbEntity
  8
細線
 48
50.0
100
AcDbLine
 10
2771.970594427439
 20
1383.494487209329
 30
0.0
 11
2771.970584125617
 21
1354.494281037055
 31
0.0
  0
LINE
  5
18D09
330
18C7A
100
AcDbEntity
  8
細線
 48
50.0
100
AcDbLine
 10
2458.070304175992
 20
1354.494278397076
 30
0.0
 11
2389.470863838818
 21
1354.494283787084
 31
0.0
  0
LINE
  5
18D0A
330
18C7A
100
AcDbEntity
  8
細線
 48
50.0
100
AcDbLine
 10
2096.970556362348
 20
1354.493912699161
 30
0.0
 11
2108.203245717057
 21
1354.494095652309
 31
0.0
  0
ARC
  5
18D0B
330
18C7A
100
AcDbEntity
  8
細線
 48
50.0
100
AcDbCircle
 10
2114.785538024393
 20
1353.294259565922
 30
0.0
 40
1.8
100
AcDbArc
 50
270.0006665777295
 51
345.000555481349
  0
LINE
  5
18D0C
330
18C7A
100
AcDbEntity
  8
細線
 48
50.0
100
AcDbLine
 10
2116.771971470473
 20
1353.753100023201
 30
0.0
 11
2116.524209028273
 21
1352.828402141094
 31
0.0
  0
LINE
  5
18D0D
330
18C7A
100
AcDbEntity
  8
細線
 48
50.0
100
AcDbLine
 10
2114.785558965548
 20
1351.494259566043
 30
0.0
 11
2111.155631546781
 21
1351.494217335563
 31
0.0
  0
ARC
  5
18D0E
330
18C7A
100
AcDbEntity
  8
細線
 48
50.0
100
AcDbCircle
 10
2111.155610605627
 20
1353.29421733544
 30
0.0
 40
1.8
100
AcDbArc
 50
195.0010443049965
 51
270.0006665777295
  0
LINE
  5
18D0F
330
18C7A
100
AcDbEntity
  8
細線
 48
50.0
100
AcDbLine
 10
2109.169183113368
 20
1353.752932303007
 30
0.0
 11
2109.416952609882
 21
1352.828311364425
 31
0.0
  0
ARC
  5
18D10
330
18C7A
100
AcDbEntity
  8
細線
 48
50.0
100
AcDbCircle
 10
2108.203262004622
 20
1353.494095652444
 30
0.0
 40
1.0
100
AcDbArc
 50
15.00104430499651
 51
90.00093320877969
  0
LINE
  5
18D11
330
18C7A
100
AcDbEntity
  8
細線
 48
50.0
100
AcDbLine
 10
2117.737892825577
 20
1354.494290342714
 30
0.0
 11
2118.679652976481
 21
1354.494296916564
 31
0.0
  0
ARC
  5
18D12
330
18C7A
100
AcDbEntity
  8
細線
 48
50.0
100
AcDbCircle
 10
2117.737899805961
 20
1353.49429034274
 30
0.0
 40
1.0
100
AcDbArc
 50
90.0003999466794
 51
165.000555481349
  0
LINE
  5
18D13
330
18C7A
100
AcDbEntity
  8
細線
 48
50.0
100
AcDbLine
 10
2669.470584622926
 20
1354.494281037055
 30
0.0
 11
2771.970584125617
 21
1354.494281037055
 31
0.0
  0
LINE
  5
18D14
330
18C7A
100
AcDbEntity
  8
細線
 48
50.0
100
AcDbLine
 10
2179.47061994182
 20
1354.494289224422
 30
0.0
 11
2118.370558714898
 21
1354.494296916564
 31
0.0
  0
LINE
  5
18D15
330
18C7A
100
AcDbEntity
  8
細線
 48
50.0
100
AcDbLine
 10
2599.470584622926
 20
1354.494281037057
 30
0.0
 11
2529.470584622926
 21
1354.494281037055
 31
0.0
  0
LINE
  5
18D16
330
18C7A
100
AcDbEntity
  8
細線
 48
50.0
100
AcDbLine
 10
2319.470584622926
 20
1354.494281037054
 30
0.0
 11
2249.470567335051
 21
1354.494281037057
 31
0.0
  0
ARC
  5
18D17
330
18C7A
100
AcDbEntity
  8
細線
 48
50.0
100
AcDbCircle
 10
2756.170589276533
 20
1387.694269174466
 30
0.0
 40
0.8
100
AcDbArc
 50
359.9997333689499
 51
89.99986668437072
  0
ARC
  5
18D18
330
18C7A
100
AcDbEntity
  8
細線
 48
50.0
100
AcDbCircle
 10
2763.770596101631
 20
1387.694280343081
 30
0.0
 40
0.8
100
AcDbArc
 50
90.00014387753465
 51
179.9997333689498
  0
LINE
  5
18D19
330
18C7A
100
AcDbEntity
  8
細線
 48
50.0
100
AcDbLine
 10
2756.170591137969
 20
1388.494269174465
 30
0.0
 11
2750.970589276525
 21
1388.494269174465
 31
0.0
  0
ARC
  5
18D1A
330
18C7A
100
AcDbEntity
  8
細線
 48
50.0
100
AcDbCircle
 10
2757.670589276524
 20
1386.194269174464
 30
0.0
 40
0.7
100
AcDbArc
 50
180.0
 51
270.0
  0
ARC
  5
18D1B
330
18C7A
100
AcDbEntity
  8
細線
 48
50.0
100
AcDbCircle
 10
2762.270589276524
 20
1386.194269174464
 30
0.0
 40
0.7
100
AcDbArc
 50
270.0
 51
0.0
  0
LINE
  5
18D1C
330
18C7A
100
AcDbEntity
  8
細線
 48
50.0
100
AcDbLine
 10
2762.970589276525
 20
1386.194269174464
 30
0.0
 11
2762.970596101639
 21
1387.694284065954
 31
0.0
  0
LINE
  5
18D1D
330
18C7A
100
AcDbEntity
  8
細線
 48
50.0
100
AcDbLine
 10
2757.670589276524
 20
1385.494269174465
 30
0.0
 11
2762.270589276524
 21
1385.494269174465
 31
0.0
  0
LINE
  5
18D1E
330
18C7A
100
AcDbEntity
  8
細線
 48
50.0
100
AcDbLine
 10
2756.970589276525
 20
1387.694269174466
 30
0.0
 11
2756.970589276525
 21
1386.194269174464
 31
0.0
  0
LINE
  5
18D1F
330
18C7A
100
AcDbEntity
  8
細線
 48
50.0
100
AcDbLine
 10
3382.570589276527
 20
1418.494269174465
 30
0.0
 11
2745.970589276525
 21
1418.494269174463
 31
0.0
  0
LINE
  5
18D20
330
18C7A
100
AcDbEntity
  8
細線
 48
50.0
100
AcDbLine
 10
3408.470589276525
 20
1413.494269174467
 30
0.0
 11
3392.570589276527
 21
1413.494269174465
 31
0.0
  0
LINE
  5
18D21
330
18C7A
100
AcDbEntity
  8
細線
 48
50.0
100
AcDbLine
 10
3392.570589276526
 20
1413.494269174465
 30
0.0
 11
3382.570589276527
 21
1418.494269174465
 31
0.0
  0
LINE
  5
18D22
330
18C7A
100
AcDbEntity
  8
細線
100
AcDbLine
 10
2993.470589276525
 20
1388.494269174465
 30
0.0
 11
2993.470589276525
 21
1417.794269174464
 31
0.0
  0
LINE
  5
18D23
330
18C7A
100
AcDbEntity
  8
細線
100
AcDbLine
 10
2993.470589276525
 20
1417.794269174464
 30
0.0
 11
3013.470589276525
 21
1417.794269174464
 31
0.0
  0
LINE
  5
18D24
330
18C7A
100
AcDbEntity
  8
細線
100
AcDbLine
 10
3013.470589276525
 20
1388.494269174465
 30
0.0
 11
3013.470589276525
 21
1417.794269174464
 31
0.0
  0
LINE
  5
18D25
330
18C7A
100
AcDbEntity
  8
細線
100
AcDbLine
 10
3170.720589276524
 20
1388.494269174465
 30
0.0
 11
3100.720589276523
 21
1388.494269174465
 31
0.0
  0
LINE
  5
18D26
330
18C7A
100
AcDbEntity
  8
細線
 48
50.0
100
AcDbLine
 10
2890.720589276525
 20
1388.494269174465
 30
0.0
 11
2763.766368849365
 21
1388.494269174465
 31
0.0
  0
LINE
  5
18D27
330
18C7A
100
AcDbEntity
  8
細線
100
AcDbLine
 10
3030.720589276525
 20
1388.494269174465
 30
0.0
 11
2960.720589276525
 21
1388.494269174465
 31
0.0
  0
LINE
  5
18D28
330
18C7A
100
AcDbEntity
  8
細線
 48
50.0
100
AcDbLine
 10
2750.970589276525
 20
1380.494269174465
 30
0.0
 11
2750.970589276525
 21
1388.494269174465
 31
0.0
  0
LINE
  5
18D29
330
18C7A
100
AcDbEntity
  8
細線
 48
50.0
100
AcDbLine
 10
2730.970589276524
 20
1380.494269174467
 30
0.0
 11
2750.970589276525
 21
1380.494269174465
 31
0.0
  0
LINE
  5
18D2A
330
18C7A
100
AcDbEntity
  8
細線
 48
50.0
100
AcDbLine
 10
2745.970589276525
 20
1418.494269174465
 30
0.0
 11
2745.970589276525
 21
1413.494269174465
 31
0.0
  0
LINE
  5
18D2B
330
18C7A
100
AcDbEntity
  8
細線
 48
50.0
100
AcDbLine
 10
2730.970589276525
 20
1418.494269174463
 30
0.0
 11
2745.970589276525
 21
1418.494269174465
 31
0.0
  0
LINE
  5
18D2C
330
18C7A
100
AcDbEntity
  8
細線
 48
50.0
100
AcDbLine
 10
2730.970589276524
 20
1380.494269174467
 30
0.0
 11
2730.970589276525
 21
1418.494269174463
 31
0.0
  0
LINE
  5
18D2D
330
18C7A
100
AcDbEntity
  8
細線
100
AcDbLine
 10
3398.970589276523
 20
1388.494269174465
 30
0.0
 11
3240.720589276525
 21
1388.494269174465
 31
0.0
  0
LINE
  5
18D2E
330
18C7A
100
AcDbEntity
  8
細線
 48
50.0
100
AcDbLine
 10
3408.470589276525
 20
1413.494269174467
 30
0.0
 11
3408.470589276524
 21
1388.494269174465
 31
0.0
  0
TEXT
  5
18D2F
330
18C7A
100
AcDbEntity
  8
部品1
100
AcDbText
 10
1860.154865991392
 20
46.99880823813145
 30
0.0
 40
135.0
  1
平面図
  7
STYLE2
100
AcDbText
  0
LWPOLYLINE
  5
18D30
330
18C7A
100
AcDbEntity
  8
部品1
100
AcDbPolyline
 90
        4
 70
     1
 43
0.0
 10
1770.23525616235
 20
239.8923374566548
 10
1770.23525616235
 20
0.0000159111223184
 10
2533.705922390791
 20
0.0000159111223184
 10
2533.705922390791
 20
239.8923374566548
  0
LINE
  5
18D31
330
18C7A
100
AcDbEntity
  8
部品1
100
AcDbLine
 10
1534.470589276487
 20
3154.494269174626
 30
0.0
 11
2769.470589276552
 21
3154.494269174626
 31
0.0
  0
LINE
  5
18D32
330
18C7A
100
AcDbEntity
  8
部品1
 48
50.0
100
AcDbLine
 10
1311.970589276523
 20
1420.494269174462
 30
0.0
 11
3411.970589276523
 21
1420.494269174465
 31
0.0
  0
LINE
  5
18D33
330
18C7A
100
AcDbEntity
  8
部品1
 48
50.0
100
AcDbLine
 10
471.9705892765232
 20
1392.494269174465
 30
0.0
 11
1311.970589276523
 21
1392.494269174465
 31
0.0
  0
DIMENSION
  5
18D34
330
18C7A
100
AcDbEntity
  8
寸法
100
AcDbDimension
  2
*D14
 10
2710.234916278077
 20
2488.887829538828
 30
0.0
 11
2338.318822490183
 21
2488.887829538828
 31
0.0
 12
-3742.925985830444
 22
-6453.628869860112
 32
0.0
 70
   128
 71
     5
 42
1231.00000000007
  3
INABA_S40G
100
AcDbAlignedDimension
 13
1536.470589276486
 23
2702.494269174557
 33
0.0
 14
2767.470589276556
 24
2702.494269174549
 34
0.0
100
AcDbRotatedDimension
1001
ACAD
1000
DSTYLE
1002
{
1002
}
  0
LINE
  5
18D35
330
18C7A
100
AcDbEntity
  8
部品1
100
AcDbLine
 10
1536.470589276487
 20
2702.494269174557
 30
0.0
 11
2767.470589276554
 21
2702.494269174615
 31
0.0
  0
LINE
  5
18D36
330
18C7A
100
AcDbEntity
  8
部品1
100
AcDbLine
 10
1536.470589276487
 20
3152.494269174557
 30
0.0
 11
2767.470589276556
 21
3152.494269174615
 31
0.0
  0
LINE
  5
18D37
330
18C7A
100
AcDbEntity
  8
細線
 48
50.0
100
AcDbLine
 10
1508.470589276487
 20
3152.494269174558
 30
0.0
 11
445.4705892765559
 21
2702.494269174509
 31
0.0
  0
LINE
  5
18D38
330
18C7A
100
AcDbEntity
  8
細線
 48
50.0
100
AcDbLine
 10
1508.470589276487
 20
2702.494269174558
 30
0.0
 11
445.4705892765542
 21
3152.494269174509
 31
0.0
  0
LINE
  5
18D39
330
18C7A
100
AcDbEntity
  8
部品1
100
AcDbLine
 10
1556.970589276487
 20
3172.494269174611
 30
0.0
 11
1556.970589276487
 21
3154.494269174611
 31
0.0
  0
LINE
  5
18D3A
330
18C7A
100
AcDbEntity
  8
部品1
100
AcDbLine
 10
1556.970589276487
 20
3172.494269174611
 30
0.0
 11
1550.970589276487
 21
3172.494269174611
 31
0.0
  0
LINE
  5
18D3B
330
18C7A
100
AcDbEntity
  8
部品1
100
AcDbLine
 10
1534.470589276487
 20
3146.494269174608
 30
0.0
 11
1509.470589276487
 21
3146.494269174611
 31
0.0
  0
LINE
  5
18D3C
330
18C7A
100
AcDbEntity
  8
部品1
100
AcDbLine
 10
1486.970589276487
 20
3172.494269174611
 30
0.0
 11
1486.970589276487
 21
3154.494269174611
 31
0.0
  0
LINE
  5
18D3D
330
18C7A
100
AcDbEntity
  8
部品1
100
AcDbLine
 10
1492.970589276487
 20
3172.494269174611
 30
0.0
 11
1486.970589276487
 21
3172.494269174611
 31
0.0
  0
LINE
  5
18D3E
330
18C7A
100
AcDbEntity
  8
部品1
100
AcDbLine
 10
1534.470589276487
 20
2702.494269174615
 30
0.0
 11
1509.470589276487
 21
2702.494269174615
 31
0.0
  0
LINE
  5
18D3F
330
18C7A
100
AcDbEntity
  8
部品1
 48
50.0
100
AcDbLine
 10
1536.470589276487
 20
3152.494269174611
 30
0.0
 11
1536.470589276487
 21
2702.494269174615
 31
0.0
  0
LINE
  5
18D40
330
18C7A
100
AcDbEntity
  8
部品1
 48
50.0
100
AcDbLine
 10
1508.470589276487
 20
3152.494269174607
 30
0.0
 11
1508.470589276487
 21
2702.494269174615
 31
0.0
  0
LINE
  5
18D41
330
18C7A
100
AcDbEntity
  8
部品1
 48
50.0
100
AcDbLine
 10
1534.470589276487
 20
3154.494269174618
 30
0.0
 11
1534.470589276487
 21
2702.494269174615
 31
0.0
  0
LINE
  5
18D42
330
18C7A
100
AcDbEntity
  8
部品1
 48
50.0
100
AcDbLine
 10
1509.470589276487
 20
3154.494269174615
 30
0.0
 11
1509.470589276487
 21
2702.494269174615
 31
0.0
  0
LINE
  5
18D43
330
18C7A
100
AcDbEntity
  8
部品1
100
AcDbLine
 10
3411.970589276556
 20
1392.494269174582
 30
0.0
 11
3411.970589276556
 21
1420.494269174596
 31
0.0
  0
LINE
  5
18D44
330
18C7A
100
AcDbEntity
  8
部品1
100
AcDbLine
 10
1311.970589276523
 20
1392.494269174596
 30
0.0
 11
1311.970589276523
 21
1420.494269174596
 31
0.0
  0
LINE
  5
18D45
330
18C7A
100
AcDbEntity
  8
部品1
100
AcDbLine
 10
891.9705892765232
 20
1392.494269174596
 30
0.0
 11
891.9705892765232
 21
1420.494269174596
 31
0.0
  0
LINE
  5
18D46
330
18C7A
100
AcDbEntity
  8
部品1
100
AcDbLine
 10
3411.97058927652
 20
3182.494269174477
 30
0.0
 11
3411.970589276523
 21
3154.494269174477
 31
0.0
  0
LINE
  5
18D47
330
18C7A
100
AcDbEntity
  8
部品1
100
AcDbLine
 10
2571.97058927652
 20
3182.494269174477
 30
0.0
 11
2571.970589276523
 21
3154.494269174477
 31
0.0
  0
LINE
  5
18D48
330
18C7A
100
AcDbEntity
  8
部品1
100
AcDbLine
 10
2991.97058927652
 20
3182.494269174477
 30
0.0
 11
2991.970589276523
 21
3154.494269174477
 31
0.0
  0
LINE
  5
18D49
330
18C7A
100
AcDbEntity
  8
部品1
100
AcDbLine
 10
2151.970589276519
 20
3182.494269174477
 30
0.0
 11
2151.970589276523
 21
3154.494269174477
 31
0.0
  0
LINE
  5
18D4A
330
18C7A
100
AcDbEntity
  8
部品1
100
AcDbLine
 10
1731.970589276519
 20
3182.494269174477
 30
0.0
 11
1731.970589276523
 21
3154.494269174477
 31
0.0
  0
LINE
  5
18D4B
330
18C7A
100
AcDbEntity
  8
部品1
100
AcDbLine
 10
1311.970589276519
 20
3182.494269174477
 30
0.0
 11
1311.970589276523
 21
3154.494269174477
 31
0.0
  0
LINE
  5
18D4C
330
18C7A
100
AcDbEntity
  8
部品1
100
AcDbLine
 10
891.9705892765195
 20
3182.494269174477
 30
0.0
 11
891.9705892765232
 21
3154.494269174477
 31
0.0
  0
LINE
  5
18D4D
330
18C7A
100
AcDbEntity
  8
部品1
100
AcDbLine
 10
471.9705892765232
 20
1392.494269174596
 30
0.0
 11
471.9705892765232
 21
1420.494269174596
 31
0.0
  0
LINE
  5
18D4E
330
18C7A
100
AcDbEntity
  8
部品1
100
AcDbLine
 10
444.9705892765305
 20
1420.494269174558
 30
0.0
 11
3858.970589276556
 21
1420.494269174596
 31
0.0
  0
LINE
  5
18D4F
330
18C7A
100
AcDbEntity
  8
部品1
100
AcDbLine
 10
3831.970589276556
 20
1392.494269174596
 30
0.0
 11
3831.970589276556
 21
1420.494269174596
 31
0.0
  0
LINE
  5
18D50
330
18C7A
100
AcDbEntity
  8
部品1
100
AcDbLine
 10
3858.970589276556
 20
1447.494269174593
 30
0.0
 11
3886.970589276556
 21
1447.494269174593
 31
0.0
  0
LINE
  5
18D51
330
18C7A
100
AcDbEntity
  8
部品1
100
AcDbLine
 10
3858.970589276556
 20
1867.494269174607
 30
0.0
 11
3886.970589276556
 21
1867.494269174607
 31
0.0
  0
LINE
  5
18D52
330
18C7A
100
AcDbEntity
  8
部品1
100
AcDbLine
 10
444.9705892765305
 20
1867.49426917448
 30
0.0
 11
416.9705892765305
 21
1867.49426917448
 31
0.0
  0
LINE
  5
18D53
330
18C7A
100
AcDbEntity
  8
部品1
100
AcDbLine
 10
3830.470589276541
 20
1867.49426917458
 30
0.0
 11
473.4705892765396
 21
1867.49426917448
 31
0.0
  0
LINE
  5
18D54
330
18C7A
100
AcDbEntity
  8
部品1
100
AcDbLine
 10
3830.470589276541
 20
2287.49426917458
 30
0.0
 11
473.4705892765396
 21
2287.49426917448
 31
0.0
  0
LINE
  5
18D55
330
18C7A
100
AcDbEntity
  8
部品1
100
AcDbLine
 10
444.9705892765305
 20
2287.49426917448
 30
0.0
 11
416.9705892765305
 21
2287.49426917448
 31
0.0
  0
LINE
  5
18D56
330
18C7A
100
AcDbEntity
  8
部品1
100
AcDbLine
 10
3858.970589276556
 20
2287.494269174608
 30
0.0
 11
3886.970589276556
 21
2287.494269174608
 31
0.0
  0
LINE
  5
18D57
330
18C7A
100
AcDbEntity
  8
部品1
 48
50.0
100
AcDbLine
 10
2151.970589276551
 20
2702.494269174586
 30
0.0
 11
2151.970589276581
 21
1448.994269174494
 31
0.0
  0
LINE
  5
18D58
330
18C7A
100
AcDbEntity
  8
破線
 48
10.0
100
AcDbLine
 10
2959.470589276535
 20
1472.494269174522
 30
0.0
 11
2176.970589276532
 21
1472.494269174505
 31
0.0
  0
LINE
  5
18D59
330
18C7A
100
AcDbEntity
  8
破線
 48
10.0
100
AcDbLine
 10
3009.47058927653
 20
1448.994269174509
 30
0.0
 11
3009.47058927653
 21
2702.494269174615
 31
0.0
  0
LINE
  5
18D5A
330
18C7A
100
AcDbEntity
  8
破線
 48
10.0
100
AcDbLine
 10
2959.470589276535
 20
1448.994269174505
 30
0.0
 11
2959.470589276531
 21
2702.494269174615
 31
0.0
  0
LINE
  5
18D5B
330
18C7A
100
AcDbEntity
  8
破線
 48
10.0
100
AcDbLine
 10
1344.47058927653
 20
1448.994269174509
 30
0.0
 11
1344.47058927653
 21
2702.494269174615
 31
0.0
  0
LINE
  5
18D5C
330
18C7A
100
AcDbEntity
  8
破線
 48
10.0
100
AcDbLine
 10
1294.470589276534
 20
1448.994269174505
 30
0.0
 11
1294.47058927653
 21
2702.494269174615
 31
0.0
  0
DIMENSION
  5
18D5D
330
18C7A
100
AcDbEntity
  8
寸法
100
AcDbDimension
  2
*D13
 10
1451.234916278005
 20
2488.887829538828
 30
0.0
 11
916.0604668248634
 21
2488.887829538828
 31
0.0
 12
-3742.925985830444
 22
-6453.628869860112
 32
0.0
 70
   128
 71
     5
 42
1062.99999999993
  3
INABA_S40G
100
AcDbAlignedDimension
 13
445.4705892765559
 23
2702.494269174505
 33
0.0
 14
1508.470589276486
 24
2702.494269174558
 34
0.0
100
AcDbRotatedDimension
1001
ACAD
1000
DSTYLE
1002
{
1002
}
  0
LINE
  5
18D5E
330
18C7A
100
AcDbEntity
  8
破線
 48
10.0
100
AcDbLine
 10
1294.470589276534
 20
1472.494269174469
 30
0.0
 11
496.9705892765414
 21
1472.494269174476
 31
0.0
  0
LINE
  5
18D5F
330
18C7A
100
AcDbEntity
  8
部品1
100
AcDbLine
 10
3831.970589276556
 20
3182.494269174604
 30
0.0
 11
3831.970589276556
 21
3154.494269174604
 31
0.0
  0
LINE
  5
18D60
330
18C7A
100
AcDbEntity
  8
部品1
100
AcDbLine
 10
3831.970589276556
 20
3182.494269174626
 30
0.0
 11
3831.970589276556
 21
3154.494269174626
 31
0.0
  0
LINE
  5
18D61
330
18C7A
100
AcDbEntity
  8
部品1
100
AcDbLine
 10
3858.970589276556
 20
3127.494269174607
 30
0.0
 11
3886.970589276556
 21
3127.494269174607
 31
0.0
  0
LINE
  5
18D62
330
18C7A
100
AcDbEntity
  8
部品1
100
AcDbLine
 10
3858.970589276556
 20
2707.494269174608
 30
0.0
 11
3886.970589276556
 21
2707.494269174608
 31
0.0
  0
LINE
  5
18D63
330
18C7A
100
AcDbEntity
  8
部品1
100
AcDbLine
 10
3858.470589276556
 20
3152.494269174604
 30
0.0
 11
3858.470589276556
 21
2702.494269174608
 31
0.0
  0
LINE
  5
18D64
330
18C7A
100
AcDbEntity
  8
部品1
100
AcDbLine
 10
3886.970589276533
 20
1447.494269174593
 30
0.0
 11
3886.970589276531
 21
1392.494269174596
 31
0.0
  0
LINE
  5
18D65
330
18C7A
100
AcDbEntity
  8
部品1
 48
50.0
100
AcDbLine
 10
3830.470589276556
 20
1448.994269174596
 30
0.0
 11
3858.970589276554
 21
1420.494269174596
 31
0.0
  0
LINE
  5
18D66
330
18C7A
100
AcDbEntity
  8
部品1
100
AcDbLine
 10
3886.970589276531
 20
1392.494269174596
 30
0.0
 11
3835.970589276531
 21
1392.494269174596
 31
0.0
  0
LINE
  5
18D67
330
18C7A
100
AcDbEntity
  8
部品1
100
AcDbLine
 10
3858.970589276533
 20
1447.494269174593
 30
0.0
 11
3886.970589276531
 21
1447.494269174593
 31
0.0
  0
LINE
  5
18D68
330
18C7A
100
AcDbEntity
  8
部品1
100
AcDbLine
 10
3886.970589276556
 20
3182.494269174604
 30
0.0
 11
3886.970589276531
 21
1392.494269174596
 31
0.0
  0
DIMENSION
  5
18D69
330
18C7A
100
AcDbEntity
  8
寸法
100
AcDbDimension
  2
*D12
 10
4534.396935010967
 20
1447.494269174593
 30
0.0
 11
4534.396935010965
 21
2287.4942691746
 31
0.0
 12
-3742.925985830444
 22
-6453.628869860112
 32
0.0
 70
   128
  1
4X420=<>
 71
     5
 42
1680.000000000014
  3
INABA_S40G
100
AcDbAlignedDimension
 13
3886.970589276556
 23
3127.494269174607
 33
0.0
 14
3886.970589276531
 24
1447.494269174593
 34
0.0
 50
90.0
100
AcDbRotatedDimension
1001
ACAD
1000
DSTYLE
1002
{
1002
}
  0
LINE
  5
18D6A
330
18C7A
100
AcDbEntity
  8
部品1
100
AcDbLine
 10
3858.970589276556
 20
3154.494269174604
 30
0.0
 11
3858.970589276534
 21
1420.494269174596
 31
0.0
  0
DIMENSION
  5
18D6B
330
18C7A
100
AcDbEntity
  8
寸法
100
AcDbDimension
  2
*D11
 10
4213.82831513858
 20
2607.276453505718
 30
0.0
 11
4113.828315138579
 21
2832.276453505718
 31
0.0
 12
-3742.925985830444
 22
-6453.628869860112
 32
0.0
 71
     5
 42
449.9999999999963
  3
INABA_S40G
100
AcDbAlignedDimension
 13
3858.470589276556
 23
3152.494269174604
 33
0.0
 14
3858.470589276556
 24
2702.494269174608
 34
0.0
 50
90.0
100
AcDbRotatedDimension
1001
ACAD
1000
DSTYLE
1002
{
1002
}
  0
LINE
  5
18D6C
330
18C7A
100
AcDbEntity
  8
部品1
100
AcDbLine
 10
3830.470589276547
 20
2702.494269174608
 30
0.0
 11
3830.470589276556
 21
1448.994269174596
 31
0.0
  0
LINE
  5
18D6D
330
18C7A
100
AcDbEntity
  8
破線
 48
10.0
100
AcDbLine
 10
3806.970589276549
 20
2702.494269174608
 30
0.0
 11
3806.970589276558
 21
1472.494269174593
 31
0.0
  0
LINE
  5
18D6E
330
18C7A
100
AcDbEntity
  8
部品1
100
AcDbLine
 10
2769.470589276556
 20
3146.494269174608
 30
0.0
 11
2794.470589276556
 21
3146.494269174611
 31
0.0
  0
LINE
  5
18D6F
330
18C7A
100
AcDbEntity
  8
部品1
100
AcDbLine
 10
2810.970589276556
 20
3172.494269174611
 30
0.0
 11
2816.970589276556
 21
3172.494269174611
 31
0.0
  0
LINE
  5
18D70
330
18C7A
100
AcDbEntity
  8
部品1
100
AcDbLine
 10
2816.970589276556
 20
3172.494269174611
 30
0.0
 11
2816.970589276556
 21
3154.494269174611
 31
0.0
  0
LINE
  5
18D71
330
18C7A
100
AcDbEntity
  8
部品1
100
AcDbLine
 10
2746.970589276556
 20
3172.494269174611
 30
0.0
 11
2752.970589276556
 21
3172.494269174611
 31
0.0
  0
LINE
  5
18D72
330
18C7A
100
AcDbEntity
  8
部品1
100
AcDbLine
 10
2746.970589276556
 20
3172.494269174611
 30
0.0
 11
2746.970589276556
 21
3154.494269174611
 31
0.0
  0
LINE
  5
18D73
330
18C7A
100
AcDbEntity
  8
部品1
100
AcDbLine
 10
2769.470589276556
 20
2702.494269174615
 30
0.0
 11
2794.470589276556
 21
2702.494269174615
 31
0.0
  0
LINE
  5
18D74
330
18C7A
100
AcDbEntity
  8
部品1
 48
50.0
100
AcDbLine
 10
2794.470589276556
 20
3154.494269174615
 30
0.0
 11
2794.470589276556
 21
2702.494269174615
 31
0.0
  0
LINE
  5
18D75
330
18C7A
100
AcDbEntity
  8
部品1
 48
50.0
100
AcDbLine
 10
2769.470589276554
 20
3154.494269174618
 30
0.0
 11
2769.470589276556
 21
2702.494269174615
 31
0.0
  0
LINE
  5
18D76
330
18C7A
100
AcDbEntity
  8
部品1
 48
50.0
100
AcDbLine
 10
2795.470589276556
 20
3152.494269174607
 30
0.0
 11
2795.470589276556
 21
2702.494269174615
 31
0.0
  0
LINE
  5
18D77
330
18C7A
100
AcDbEntity
  8
部品1
 48
50.0
100
AcDbLine
 10
2767.470589276556
 20
3152.494269174611
 30
0.0
 11
2767.470589276556
 21
2702.494269174615
 31
0.0
  0
LINE
  5
18D78
330
18C7A
100
AcDbEntity
  8
破線
 48
10.0
100
AcDbLine
 10
2176.97058927653
 20
1448.994269174509
 30
0.0
 11
2176.97058927653
 21
2702.494269174588
 31
0.0
  0
LINE
  5
18D79
330
18C7A
100
AcDbEntity
  8
破線
 48
10.0
100
AcDbLine
 10
2126.970589276534
 20
1448.994269174505
 30
0.0
 11
2126.970589276531
 21
2702.494269174586
 31
0.0
  0
LINE
  5
18D7A
330
18C7A
100
AcDbEntity
  8
部品1
100
AcDbLine
 10
2794.470589276556
 20
3154.494269174622
 30
0.0
 11
3858.970589276556
 21
3154.494269174604
 31
0.0
  0
LINE
  5
18D7B
330
18C7A
100
AcDbEntity
  8
細線
 48
50.0
100
AcDbLine
 10
3858.470589276556
 20
2702.494269174608
 30
0.0
 11
2795.470589276556
 21
3152.494269174607
 31
0.0
  0
LINE
  5
18D7C
330
18C7A
100
AcDbEntity
  8
部品1
100
AcDbLine
 10
2795.470589276555
 20
2702.494269174615
 30
0.0
 11
3858.470589276556
 21
2702.494269174608
 31
0.0
  0
LINE
  5
18D7D
330
18C7A
100
AcDbEntity
  8
部品1
100
AcDbLine
 10
2795.470589276556
 20
3152.494269174611
 30
0.0
 11
3858.470589276556
 21
3152.494269174604
 31
0.0
  0
LINE
  5
18D7E
330
18C7A
100
AcDbEntity
  8
細線
 48
50.0
100
AcDbLine
 10
3858.470589276556
 20
3152.494269174604
 30
0.0
 11
2795.470589276555
 21
2702.494269174615
 31
0.0
  0
DIMENSION
  5
18D7F
330
18C7A
100
AcDbEntity
  8
寸法
100
AcDbDimension
  2
*D10
 10
3801.234916278101
 20
2488.887829538937
 30
0.0
 11
3318.360544398907
 21
2488.887829538937
 31
0.0
 12
-3742.925985830444
 22
-6453.628869860112
 32
0.0
 70
   128
 71
     5
 42
1063.000000000012
  3
INABA_S40G
100
AcDbAlignedDimension
 13
2795.470589276555
 23
2702.494269174615
 33
0.0
 14
3858.470589276567
 24
2702.494269174608
 34
0.0
100
AcDbRotatedDimension
1001
ACAD
1000
DSTYLE
1002
{
1002
}
  0
LINE
  5
18D80
330
18C7A
100
AcDbEntity
  8
破線
 48
10.0
100
AcDbLine
 10
3806.970589276556
 20
1472.494269174594
 30
0.0
 11
3009.47058927653
 21
1472.494269174523
 31
0.0
  0
DIMENSION
  5
18D81
330
18C7A
100
AcDbEntity
  8
寸法
100
AcDbDimension
  2
*D9
 10
4534.396935010941
 20
1392.494269174596
 30
0.0
 11
4534.39693501094
 21
1084.008987800356
 31
0.0
 12
-3742.925985830444
 22
-6453.628869860112
 32
0.0
 70
   128
 71
     5
 42
54.99999999999636
  3
INABA_S40G
100
AcDbAlignedDimension
 13
3886.970589276531
 23
1447.494269174593
 33
0.0
 14
3886.970589276531
 24
1392.494269174596
 34
0.0
 50
90.0
100
AcDbRotatedDimension
1001
ACAD
1000
DSTYLE
1002
{
1002
}
  0
LINE
  5
18D82
330
18C7A
100
AcDbEntity
  8
部品1
100
AcDbLine
 10
471.9705892765196
 20
3182.494269174477
 30
0.0
 11
471.9705892765232
 21
3154.494269174477
 31
0.0
  0
LINE
  5
18D83
330
18C7A
100
AcDbEntity
  8
部品1
100
AcDbLine
 10
471.9705892765559
 20
3182.494269174509
 30
0.0
 11
471.9705892765559
 21
3154.494269174509
 31
0.0
  0
LINE
  5
18D84
330
18C7A
100
AcDbEntity
  8
部品1
100
AcDbLine
 10
444.9705892765232
 20
3127.49426917448
 30
0.0
 11
416.9705892765232
 21
3127.49426917448
 31
0.0
  0
LINE
  5
18D85
330
18C7A
100
AcDbEntity
  8
部品1
100
AcDbLine
 10
444.9705892765305
 20
2707.49426917448
 30
0.0
 11
416.9705892765305
 21
2707.49426917448
 31
0.0
  0
LINE
  5
18D86
330
18C7A
100
AcDbEntity
  8
部品1
 48
50.0
100
AcDbLine
 10
445.4705892765542
 20
3152.494269174506
 30
0.0
 11
445.4705892765559
 21
2702.494269174505
 31
0.0
  0
LINE
  5
18D87
330
18C7A
100
AcDbEntity
  8
部品1
 48
50.0
100
AcDbLine
 10
473.470589276545
 20
1448.994269174573
 30
0.0
 11
444.970589276545
 21
1420.494269174574
 31
0.0
  0
LINE
  5
18D88
330
18C7A
100
AcDbEntity
  8
部品1
100
AcDbLine
 10
471.9705892765232
 20
1392.494269174465
 30
0.0
 11
416.9705892765486
 21
1392.494269174465
 31
0.0
  0
LINE
  5
18D89
330
18C7A
100
AcDbEntity
  8
部品1
100
AcDbLine
 10
444.9705892765305
 20
1447.494269174429
 30
0.0
 11
416.9705892765469
 21
1447.494269174429
 31
0.0
  0
LINE
  5
18D8A
330
18C7A
100
AcDbEntity
  8
部品1
100
AcDbLine
 10
444.9705892765305
 20
1447.494269174465
 30
0.0
 11
416.9705892765469
 21
1447.494269174465
 31
0.0
  0
LINE
  5
18D8B
330
18C7A
100
AcDbEntity
  8
部品1
100
AcDbLine
 10
444.9705892765469
 20
1447.49426917448
 30
0.0
 11
416.9705892765469
 21
1447.49426917448
 31
0.0
  0
LINE
  5
18D8C
330
18C7A
100
AcDbEntity
  8
部品1
100
AcDbLine
 10
416.9705892765469
 20
1447.494269174429
 30
0.0
 11
416.9705892765486
 21
1392.494269174433
 31
0.0
  0
LINE
  5
18D8D
330
18C7A
100
AcDbEntity
  8
部品1
100
AcDbLine
 10
416.9705892765196
 20
3182.494269174477
 30
0.0
 11
416.9705892765486
 21
1392.494269174465
 31
0.0
  0
LINE
  5
18D8E
330
18C7A
100
AcDbEntity
  8
部品1
100
AcDbLine
 10
444.9705892765305
 20
1420.494269174556
 30
0.0
 11
444.9705892765559
 21
3154.494269174509
 31
0.0
  0
LINE
  5
18D8F
330
18C7A
100
AcDbEntity
  8
部品1
100
AcDbLine
 10
473.4705892765323
 20
2702.494269174608
 30
0.0
 11
473.470589276545
 21
1448.994269174571
 31
0.0
  0
LINE
  5
18D90
330
18C7A
100
AcDbEntity
  8
破線
 48
10.0
100
AcDbLine
 10
496.9705892765305
 20
2702.494269174608
 30
0.0
 11
496.9705892765451
 21
1472.494269174476
 31
0.0
  0
DIMENSION
  5
18D91
330
18C7A
100
AcDbEntity
  8
寸法
100
AcDbDimension
  2
*D8
 10
3886.970589276531
 20
410.7433333855515
 30
0.0
 11
2168.197775309287
 21
410.7433333855515
 31
0.0
 12
-3742.925985830444
 22
-6453.628869860112
 32
0.0
 70
   128
 71
     5
 42
3469.999999999982
  3
INABA_S40G
100
AcDbAlignedDimension
 13
416.9705892765486
 23
1392.494269174433
 33
0.0
 14
3886.970589276531
 24
1392.49426917456
 34
0.0
100
AcDbRotatedDimension
1001
ACAD
1000
DSTYLE
1002
{
1070
   341
1005
0
1002
}
  0
LINE
  5
18D92
330
18C7A
100
AcDbEntity
  8
部品1
100
AcDbLine
 10
444.9705892765559
 20
3154.494269174624
 30
0.0
 11
1509.470589276487
 21
3154.494269174626
 31
0.0
  0
LINE
  5
18D93
330
18C7A
100
AcDbEntity
  8
部品1
100
AcDbLine
 10
3886.970589276531
 20
1392.494269174596
 30
0.0
 11
3411.970589276556
 21
1392.494269174582
 31
0.0
  0
LINE
  5
18D94
330
18C7A
100
AcDbEntity
  8
部品1
100
AcDbLine
 10
416.9705892765559
 20
3182.494269174509
 30
0.0
 11
3886.970589276556
 21
3182.494269174604
 31
0.0
  0
LINE
  5
18D95
330
18C7A
100
AcDbEntity
  8
部品1
100
AcDbLine
 10
445.4705892765559
 20
2702.494269174509
 30
0.0
 11
1508.470589276487
 21
2702.494269174558
 31
0.0
  0
LINE
  5
18D96
330
18C7A
100
AcDbEntity
  8
細線
 48
50.0
100
AcDbLine
 10
2767.470589276556
 20
3152.494269174611
 30
0.0
 11
1536.470589276487
 21
2702.494269174558
 31
0.0
  0
LINE
  5
18D97
330
18C7A
100
AcDbEntity
  8
部品1
100
AcDbLine
 10
445.4705892765542
 20
3152.494269174509
 30
0.0
 11
1508.470589276485
 21
3152.494269174558
 31
0.0
  0
LINE
  5
18D98
330
18C7A
100
AcDbEntity
  8
細線
 48
50.0
100
AcDbLine
 10
2767.470589276554
 20
2702.494269174615
 30
0.0
 11
1536.470589276485
 21
3152.494269174558
 31
0.0
  0
LINE
  5
18D99
330
18C7A
100
AcDbEntity
  8
破線
 48
10.0
100
AcDbLine
 10
2126.970589276534
 20
1472.494269174502
 30
0.0
 11
1344.47058927653
 21
1472.494269174473
 31
0.0
  0
LINE
  5
18D9A
330
18C7A
100
AcDbEntity
  8
部品1
100
AcDbLine
 10
3830.470589276556
 20
1448.994269174596
 30
0.0
 11
473.4705892764487
 21
1448.994269174476
 31
0.0
  0
DIMENSION
  5
18D9B
330
18C7A
100
AcDbEntity
  8
寸法
100
AcDbDimension
  2
*D7
 10
471.970589276555
 20
3698.302488799491
 30
0.0
 11
108.4853079022819
 21
3698.302488799491
 31
0.0
 12
-3742.925985830444
 22
-6453.628869860112
 32
0.0
 70
   128
 71
     5
 42
55.00000000003456
  3
INABA_S40G
100
AcDbAlignedDimension
 13
416.9705892765205
 23
3182.494269174509
 33
0.0
 14
471.970589276555
 24
3182.494269174509
 34
0.0
100
AcDbRotatedDimension
1001
ACAD
1000
DSTYLE
1002
{
1002
}
  0
DIMENSION
  5
18D9C
330
18C7A
100
AcDbEntity
  8
寸法
100
AcDbDimension
  2
*D6
 10
4534.396935010967
 20
3127.494269174607
 30
0.0
 11
4534.396935010965
 21
3490.979550548844
 31
0.0
 12
-3742.925985830444
 22
-6453.628869860112
 32
0.0
 70
   128
 71
     5
 42
54.99999999999636
  3
INABA_S40G
100
AcDbAlignedDimension
 13
3886.970589276556
 23
3182.494269174604
 33
0.0
 14
3886.970589276556
 24
3127.494269174607
 34
0.0
 50
90.0
100
AcDbRotatedDimension
1001
ACAD
1000
DSTYLE
1002
{
1002
}
  0
DIMENSION
  5
18D9D
330
18C7A
100
AcDbEntity
  8
寸法
100
AcDbDimension
  2
*D5
 10
3886.970589276556
 20
3698.302488799589
 30
0.0
 11
4195.455870650794
 21
3698.302488799589
 31
0.0
 12
-3742.925985830444
 22
-6453.628869860112
 32
0.0
 70
   128
 71
     5
 42
55.0
  3
INABA_S40G
100
AcDbAlignedDimension
 13
3831.970589276556
 23
3182.494269174604
 33
0.0
 14
3886.970589276556
 24
3182.494269174604
 34
0.0
100
AcDbRotatedDimension
1001
ACAD
1000
DSTYLE
1002
{
1002
}
  0
DIMENSION
  5
18D9E
330
18C7A
100
AcDbEntity
  8
寸法
100
AcDbDimension
  2
*D4
 10
3831.970589276556
 20
3698.302488799607
 30
0.0
 11
2151.970589276555
 21
3698.302488799607
 31
0.0
 12
-3742.925985830444
 22
-6453.628869860112
 32
0.0
 70
   128
  1
8X420=<>
 71
     5
 42
3360.000000000001
  3
INABA_S40G
100
AcDbAlignedDimension
 13
471.970589276555
 23
3182.494269174509
 33
0.0
 14
3831.970589276556
 24
3182.494269174604
 34
0.0
100
AcDbRotatedDimension
1001
ACAD
1000
DSTYLE
1002
{
1002
}
  0
DIMENSION
  5
18D9F
330
18C7A
100
AcDbEntity
  8
寸法
100
AcDbDimension
  2
*D3
 10
4899.503876750603
 20
1392.494269174596
 30
0.0
 11
4899.503876750601
 21
2287.4942691746
 31
0.0
 12
-3742.925985830444
 22
-6453.628869860112
 32
0.0
 70
   128
 71
     5
 42
1790.000000000007
  3
INABA_S40G
100
AcDbAlignedDimension
 13
3886.970589276556
 23
3182.494269174604
 33
0.0
 14
3886.970589276531
 24
1392.494269174596
 34
0.0
 50
90.0
100
AcDbRotatedDimension
1001
ACAD
1000
DSTYLE
1002
{
1002
}
  0
ENDBLK
  5
18DA1
330
18C7A
100
AcDbEntity
  8
0
 48
50.0
100
AcDbBlockEnd
  0
BLOCK
  5
1C4CB
330
1C4CA
100
AcDbEntity
  8
0
 48
50.0
100
AcDbBlockBegin
  2
_NONE
 70
     0
 10
0.0
 20
0.0
 30
0.0
  3
_NONE
  1

  0
CIRCLE
  5
1C4CC
330
1C4CA
100
AcDbEntity
  8
0
  6
ByBlock
 62
     0
 48
50.0
100
AcDbCircle
 10
0.0
 20
0.0
 30
0.0
 40
0.25
  0
ENDBLK
  5
1C4CD
330
1C4CA
100
AcDbEntity
  8
0
 48
50.0
100
AcDbBlockEnd
  0
BLOCK
  5
24F63
330
24F58
100
AcDbEntity
  8
0
 48
50.0
100
AcDbBlockBegin
  2
*D19
 70
     1
 10
0.0
 20
0.0
 30
0.0
  3
*D19
  1

  0
LINE
  5
2574E
330
24F58
100
AcDbEntity
  8
寸法
 62
     0
 48
50.0
370
    -2
100
AcDbLine
 10
9543.600000000001
 20
8196.907777930208
 30
0.0
 11
9543.600000000001
 21
9195.12809998913
 31
0.0
  0
LINE
  5
2574F
330
24F58
100
AcDbEntity
  8
寸法
 62
     0
 48
50.0
370
    -2
100
AcDbLine
 10
9593.6
 20
8942.667404472295
 30
0.0
 11
9593.6
 21
9195.12809998913
 31
0.0
  0
LINE
  5
25750
330
24F58
100
AcDbEntity
  8
寸法
 62
     0
 48
50.0
370
    -2
100
AcDbLine
 10
9543.600000000001
 20
9135.128099989129
 30
0.0
 11
9443.600000000001
 21
9135.128099989129
 31
0.0
  0
LINE
  5
25751
330
24F58
100
AcDbEntity
  8
寸法
 62
     0
 48
50.0
370
    -2
100
AcDbLine
 10
9593.6
 20
9135.128099989129
 30
0.0
 11
9925.949242404918
 21
9135.128099989129
 31
0.0
  0
LINE
  5
25752
330
24F58
100
AcDbEntity
  8
寸法
 62
     0
 48
50.0
370
    -2
100
AcDbLine
 10
9543.600000000001
 20
9135.128099989129
 30
0.0
 11
9593.6
 21
9135.128099989129
 31
0.0
  0
INSERT
  5
25753
330
24F58
100
AcDbEntity
  8
寸法
 62
     0
 48
50.0
370
    -2
100
AcDbBlockReference
  2
_DOTSMALL
 10
9543.600000000001
 20
9135.128099989129
 30
0.0
 41
100.0
 42
100.0
 43
100.0
  0
INSERT
  5
25754
330
24F58
100
AcDbEntity
  8
寸法
 62
     0
 48
50.0
370
    -2
100
AcDbBlockReference
  2
_DOTSMALL
 10
9593.6
 20
9135.128099989129
 30
0.0
 41
100.0
 42
100.0
 43
100.0
 50
180.0
  0
MTEXT
  5
25755
330
24F58
100
AcDbEntity
  8
寸法
 62
     7
 48
50.0
100
AcDbMText
 10
9859.774621202461
 20
9235.128099989131
 30
0.0
 40
120.0
 41
0.0
 71
     5
 72
     1
  1
\A1;a
  7
STYLE1
 73
     1
 44
1.0
1001
ACAD
1000
MTEXTBEGIN
1070
    73
1070
     1
1070
    44
1040
1.0
1070
    74
1070
     0
1000
MTEXTEND
  0
POINT
  5
25756
330
24F58
100
AcDbEntity
  8
DEFPOINTS
 62
     0
 48
50.0
100
AcDbPoint
 10
9543.600000000001
 20
8176.907777930209
 30
0.0
  0
POINT
  5
25757
330
24F58
100
AcDbEntity
  8
DEFPOINTS
 62
     0
 48
50.0
100
AcDbPoint
 10
9593.6
 20
8922.667404472296
 30
0.0
  0
POINT
  5
25758
330
24F58
100
AcDbEntity
  8
DEFPOINTS
 62
     0
 48
50.0
100
AcDbPoint
 10
9593.6
 20
9135.128099989129
 30
0.0
  0
ENDBLK
  5
24F64
330
24F58
100
AcDbEntity
  8
0
 48
50.0
100
AcDbBlockEnd
  0
BLOCK
  5
24F70
330
24F65
100
AcDbEntity
  8
0
 48
50.0
100
AcDbBlockBegin
  2
*D20
 70
     1
 10
0.0
 20
0.0
 30
0.0
  3
*D20
  1

  0
LINE
  5
25743
330
24F65
100
AcDbEntity
  8
寸法
 62
     0
 48
50.0
370
    -2
100
AcDbLine
 10
6853.6
 20
8942.667404472286
 30
0.0
 11
6853.6
 21
9195.12809998913
 31
0.0
  0
LINE
  5
25744
330
24F65
100
AcDbEntity
  8
寸法
 62
     0
 48
50.0
370
    -2
100
AcDbLine
 10
6903.6
 20
8196.907777930208
 30
0.0
 11
6903.6
 21
9195.12809998913
 31
0.0
  0
LINE
  5
25745
330
24F65
100
AcDbEntity
  8
寸法
 62
     0
 48
50.0
370
    -2
100
AcDbLine
 10
6903.6
 20
9135.128099989129
 30
0.0
 11
7003.6
 21
9135.128099989129
 31
0.0
  0
LINE
  5
25746
330
24F65
100
AcDbEntity
  8
寸法
 62
     0
 48
50.0
370
    -2
100
AcDbLine
 10
6853.6
 20
9135.128099989129
 30
0.0
 11
6521.250757595083
 21
9135.128099989129
 31
0.0
  0
LINE
  5
25747
330
24F65
100
AcDbEntity
  8
寸法
 62
     0
 48
50.0
370
    -2
100
AcDbLine
 10
6903.6
 20
9135.128099989129
 30
0.0
 11
6853.6
 21
9135.128099989129
 31
0.0
  0
INSERT
  5
25748
330
24F65
100
AcDbEntity
  8
寸法
 62
     0
 48
50.0
370
    -2
100
AcDbBlockReference
  2
_DOTSMALL
 10
6903.6
 20
9135.128099989129
 30
0.0
 41
100.0
 42
100.0
 43
100.0
 50
180.0
  0
INSERT
  5
25749
330
24F65
100
AcDbEntity
  8
寸法
 62
     0
 48
50.0
370
    -2
100
AcDbBlockReference
  2
_DOTSMALL
 10
6853.6
 20
9135.128099989129
 30
0.0
 41
100.0
 42
100.0
 43
100.0
  0
MTEXT
  5
2574A
330
24F65
100
AcDbEntity
  8
寸法
 62
     7
 48
50.0
100
AcDbMText
 10
6587.425378797542
 20
9235.128099989131
 30
0.0
 40
120.0
 41
0.0
 71
     5
 72
     1
  1
\A1;a
  7
STYLE1
 73
     1
 44
1.0
1001
ACAD
1000
MTEXTBEGIN
1070
    73
1070
     1
1070
    44
1040
1.0
1070
    74
1070
     0
1000
MTEXTEND
  0
POINT
  5
2574B
330
24F65
100
AcDbEntity
  8
DEFPOINTS
 62
     0
 48
50.0
100
AcDbPoint
 10
6853.6
 20
8922.667404472289
 30
0.0
  0
POINT
  5
2574C
330
24F65
100
AcDbEntity
  8
DEFPOINTS
 62
     0
 48
50.0
100
AcDbPoint
 10
6903.6
 20
8176.907777930209
 30
0.0
  0
POINT
  5
2574D
330
24F65
100
AcDbEntity
  8
DEFPOINTS
 62
     0
 48
50.0
100
AcDbPoint
 10
6903.6
 20
9135.128099989129
 30
0.0
  0
ENDBLK
  5
24F71
330
24F65
100
AcDbEntity
  8
0
 48
50.0
100
AcDbBlockEnd
  0
BLOCK
  5
24F7B
330
24F72
100
AcDbEntity
  8
0
 48
50.0
100
AcDbBlockBegin
  2
*D21
 70
     1
 10
0.0
 20
0.0
 30
0.0
  3
*D21
  1

  0
LINE
  5
2573A
330
24F72
100
AcDbEntity
  8
寸法
 62
     0
 48
50.0
370
    -2
100
AcDbLine
 10
6903.6
 20
8196.907777930208
 30
0.0
 11
6903.6
 21
9195.12809998913
 31
0.0
  0
LINE
  5
2573B
330
24F72
100
AcDbEntity
  8
寸法
 62
     0
 48
50.0
370
    -2
100
AcDbLine
 10
9543.600000000001
 20
8196.907777930208
 30
0.0
 11
9543.600000000001
 21
9195.12809998913
 31
0.0
  0
LINE
  5
2573C
330
24F72
100
AcDbEntity
  8
寸法
 62
     0
 48
50.0
370
    -2
100
AcDbLine
 10
6903.6
 20
9135.128099989129
 30
0.0
 11
9543.600000000001
 21
9135.128099989129
 31
0.0
  0
INSERT
  5
2573D
330
24F72
100
AcDbEntity
  8
寸法
 62
     0
 48
50.0
370
    -2
100
AcDbBlockReference
  2
_DOTSMALL
 10
6903.6
 20
9135.128099989129
 30
0.0
 41
100.0
 42
100.0
 43
100.0
 50
180.0
  0
INSERT
  5
2573E
330
24F72
100
AcDbEntity
  8
寸法
 62
     0
 48
50.0
370
    -2
100
AcDbBlockReference
  2
_DOTSMALL
 10
9543.600000000001
 20
9135.128099989129
 30
0.0
 41
100.0
 42
100.0
 43
100.0
  0
MTEXT
  5
2573F
330
24F72
100
AcDbEntity
  8
寸法
 62
     7
 48
50.0
100
AcDbMText
 10
8223.600000000001
 20
9235.139911012751
 30
0.0
 40
120.0
 41
0.0
 71
     5
 72
     1
  1
\A1;2640
  7
STYLE1
 73
     1
 44
1.0
1001
ACAD
1000
MTEXTBEGIN
1070
    73
1070
     1
1070
    44
1040
1.0
1070
    74
1070
     0
1000
MTEXTEND
  0
POINT
  5
25740
330
24F72
100
AcDbEntity
  8
DEFPOINTS
 62
     0
 48
50.0
100
AcDbPoint
 10
6903.6
 20
8176.907777930209
 30
0.0
  0
POINT
  5
25741
330
24F72
100
AcDbEntity
  8
DEFPOINTS
 62
     0
 48
50.0
100
AcDbPoint
 10
9543.600000000001
 20
8176.907777930209
 30
0.0
  0
POINT
  5
25742
330
24F72
100
AcDbEntity
  8
DEFPOINTS
 62
     0
 48
50.0
100
AcDbPoint
 10
9543.600000000001
 20
9135.128099989129
 30
0.0
  0
ENDBLK
  5
24F7C
330
24F72
100
AcDbEntity
  8
0
 48
50.0
100
AcDbBlockEnd
  0
BLOCK
  5
24F87
330
24F7D
100
AcDbEntity
  8
0
 48
50.0
100
AcDbBlockBegin
  2
*D22
 70
     1
 10
0.0
 20
0.0
 30
0.0
  3
*D22
  1

  0
LINE
  5
25731
330
24F7D
100
AcDbEntity
  8
寸法
 62
     0
 48
50.0
370
    -2
100
AcDbLine
 10
7356.599999999964
 20
5441.907777930222
 30
0.0
 11
7356.599999999964
 21
4772.748662820254
 31
0.0
  0
LINE
  5
25732
330
24F7D
100
AcDbEntity
  8
寸法
 62
     0
 48
50.0
370
    -2
100
AcDbLine
 10
6903.599999999965
 20
5516.907777930204
 30
0.0
 11
6903.599999999965
 21
4772.748662820254
 31
0.0
  0
LINE
  5
25733
330
24F7D
100
AcDbEntity
  8
寸法
 62
     0
 48
50.0
370
    -2
100
AcDbLine
 10
7356.599999999964
 20
4832.748662820255
 30
0.0
 11
6903.599999999965
 21
4832.748662820255
 31
0.0
  0
INSERT
  5
25734
330
24F7D
100
AcDbEntity
  8
寸法
 62
     0
 48
50.0
370
    -2
100
AcDbBlockReference
  2
_DOTSMALL
 10
7356.599999999964
 20
4832.748662820255
 30
0.0
 41
100.0
 42
100.0
 43
100.0
  0
INSERT
  5
25735
330
24F7D
100
AcDbEntity
  8
寸法
 62
     0
 48
50.0
370
    -2
100
AcDbBlockReference
  2
_DOTSMALL
 10
6903.599999999965
 20
4832.748662820255
 30
0.0
 41
100.0
 42
100.0
 43
100.0
 50
180.0
  0
MTEXT
  5
25736
330
24F7D
100
AcDbEntity
  8
寸法
 62
     7
 48
50.0
100
AcDbMText
 10
7130.099999999965
 20
4932.748662820255
 30
0.0
 40
120.0
 41
0.0
 71
     5
 72
     1
  1
\A1;453
  7
STYLE1
 73
     1
 44
1.0
1001
ACAD
1000
MTEXTBEGIN
1070
    73
1070
     1
1070
    44
1040
1.0
1070
    74
1070
     0
1000
MTEXTEND
  0
POINT
  5
25737
330
24F7D
100
AcDbEntity
  8
DEFPOINTS
 62
     0
 48
50.0
100
AcDbPoint
 10
7356.599999999964
 20
5461.907777930222
 30
0.0
  0
POINT
  5
25738
330
24F7D
100
AcDbEntity
  8
DEFPOINTS
 62
     0
 48
50.0
100
AcDbPoint
 10
6903.599999999965
 20
5536.907777930204
 30
0.0
  0
POINT
  5
25739
330
24F7D
100
AcDbEntity
  8
DEFPOINTS
 62
     0
 48
50.0
100
AcDbPoint
 10
6903.599999999965
 20
4832.748662820255
 30
0.0
  0
ENDBLK
  5
24F88
330
24F7D
100
AcDbEntity
  8
0
 48
50.0
100
AcDbBlockEnd
  0
BLOCK
  5
24F92
330
24F89
100
AcDbEntity
  8
0
 48
50.0
100
AcDbBlockBegin
  2
*D23
 70
     1
 10
0.0
 20
0.0
 30
0.0
  3
*D23
  1

  0
LINE
  5
25728
330
24F89
100
AcDbEntity
  8
寸法
 62
     0
 48
50.0
370
    -2
100
AcDbLine
 10
9420.6
 20
8123.907777930208
 30
0.0
 11
9420.6
 21
8982.667404472293
 31
0.0
  0
LINE
  5
25729
330
24F89
100
AcDbEntity
  8
寸法
 62
     0
 48
50.0
370
    -2
100
AcDbLine
 10
7026.600000000001
 20
8123.907777930208
 30
0.0
 11
7026.600000000001
 21
8982.667404472293
 31
0.0
  0
LINE
  5
2572A
330
24F89
100
AcDbEntity
  8
寸法
 62
     0
 48
50.0
370
    -2
100
AcDbLine
 10
9420.6
 20
8922.66740447229
 30
0.0
 11
7026.600000000001
 21
8922.66740447229
 31
0.0
  0
INSERT
  5
2572B
330
24F89
100
AcDbEntity
  8
寸法
 62
     0
 48
50.0
370
    -2
100
AcDbBlockReference
  2
_DOTSMALL
 10
9420.6
 20
8922.66740447229
 30
0.0
 41
100.0
 42
100.0
 43
100.0
  0
INSERT
  5
2572C
330
24F89
100
AcDbEntity
  8
寸法
 62
     0
 48
50.0
370
    -2
100
AcDbBlockReference
  2
_DOTSMALL
 10
7026.600000000001
 20
8922.66740447229
 30
0.0
 41
100.0
 42
100.0
 43
100.0
 50
180.0
  0
MTEXT
  5
2572D
330
24F89
100
AcDbEntity
  8
寸法
 62
     7
 48
50.0
100
AcDbMText
 10
8223.600000000001
 20
9022.679215495912
 30
0.0
 40
120.0
 41
0.0
 71
     5
 72
     1
  1
\A1;2394
  7
STYLE1
 73
     1
 44
1.0
1001
ACAD
1000
MTEXTBEGIN
1070
    73
1070
     1
1070
    44
1040
1.0
1070
    74
1070
     0
1000
MTEXTEND
  0
POINT
  5
2572E
330
24F89
100
AcDbEntity
  8
DEFPOINTS
 62
     0
 48
50.0
100
AcDbPoint
 10
9420.6
 20
8103.907777930208
 30
0.0
  0
POINT
  5
2572F
330
24F89
100
AcDbEntity
  8
DEFPOINTS
 62
     0
 48
50.0
100
AcDbPoint
 10
7026.600000000001
 20
8103.907777930208
 30
0.0
  0
POINT
  5
25730
330
24F89
100
AcDbEntity
  8
DEFPOINTS
 62
     0
 48
50.0
100
AcDbPoint
 10
7026.600000000001
 20
8922.66740447229
 30
0.0
  0
ENDBLK
  5
24F93
330
24F89
100
AcDbEntity
  8
0
 48
50.0
100
AcDbBlockEnd
  0
BLOCK
  5
24F9F
330
24F94
100
AcDbEntity
  8
0
 48
50.0
100
AcDbBlockBegin
  2
*D24
 70
     1
 10
0.0
 20
0.0
 30
0.0
  3
*D24
  1

  0
LINE
  5
260CD
330
24F94
100
AcDbEntity
  8
寸法
 62
     0
 48
50.0
370
    -2
100
AcDbLine
 10
7153.6
 20
8056.907777930211
 30
0.0
 11
7410.307249876098
 21
8056.907777930211
 31
0.0
  0
LINE
  5
260CE
330
24F94
100
AcDbEntity
  8
寸法
 62
     0
 48
50.0
370
    -2
100
AcDbLine
 10
7153.6
 20
7946.907777930204
 30
0.0
 11
7410.307249876098
 21
7946.907777930204
 31
0.0
  0
LINE
  5
260CF
330
24F94
100
AcDbEntity
  8
寸法
 62
     0
 48
50.0
370
    -2
100
AcDbLine
 10
7350.307249876099
 20
8056.907777930211
 30
0.0
 11
7350.307249876099
 21
7946.907777930204
 31
0.0
  0
LINE
  5
260D0
330
24F94
100
AcDbEntity
  8
寸法
 62
     0
 48
50.0
370
    -2
100
AcDbLine
 10
7350.307249876099
 20
7946.907777930204
 30
0.0
 11
7350.307249876099
 21
7482.801478717603
 31
0.0
  0
INSERT
  5
260D1
330
24F94
100
AcDbEntity
  8
寸法
 62
     0
 48
50.0
370
    -2
100
AcDbBlockReference
  2
_DOTSMALL
 10
7350.307249876099
 20
8056.907777930211
 30
0.0
 41
100.0
 42
100.0
 43
100.0
 50
90.0
  0
INSERT
  5
260D2
330
24F94
100
AcDbEntity
  8
寸法
 62
     0
 48
50.0
370
    -2
100
AcDbBlockReference
  2
_DOTSMALL
 10
7350.307249876099
 20
7946.907777930204
 30
0.0
 41
100.0
 42
100.0
 43
100.0
 50
270.0
  0
MTEXT
  5
260D3
330
24F94
100
AcDbEntity
  8
寸法
 62
     7
 48
50.0
100
AcDbMText
 10
7250.307249876097
 20
7606.848722812093
 30
0.0
 40
120.0
 41
0.0
 71
     5
 72
     1
  1
\A1;110
  7
STYLE1
 11
0.0000000000000001
 21
1.0
 31
0.0
 73
     1
 44
1.0
1001
ACAD
1000
MTEXTBEGIN
1070
    73
1070
     1
1070
    44
1040
1.0
1070
    74
1070
     0
1000
MTEXTEND
  0
POINT
  5
260D4
330
24F94
100
AcDbEntity
  8
DEFPOINTS
 62
     0
 48
50.0
100
AcDbPoint
 10
7133.6
 20
8056.907777930211
 30
0.0
  0
POINT
  5
260D5
330
24F94
100
AcDbEntity
  8
DEFPOINTS
 62
     0
 48
50.0
100
AcDbPoint
 10
7133.6
 20
7946.907777930204
 30
0.0
  0
POINT
  5
260D6
330
24F94
100
AcDbEntity
  8
DEFPOINTS
 62
     0
 48
50.0
100
AcDbPoint
 10
7350.307249876099
 20
7946.907777930204
 30
0.0
  0
ENDBLK
  5
24FA0
330
24F94
100
AcDbEntity
  8
0
 48
50.0
100
AcDbBlockEnd
  0
BLOCK
  5
24FAC
330
24FA1
100
AcDbEntity
  8
0
 48
50.0
100
AcDbBlockBegin
  2
*D25
 70
     1
 10
0.0
 20
0.0
 30
0.0
  3
*D25
  1

  0
LINE
  5
260E1
330
24FA1
100
AcDbEntity
  8
寸法
 62
     0
 48
50.0
370
    -2
100
AcDbLine
 10
7153.6
 20
5656.907777930215
 30
0.0
 11
7312.197085004765
 21
5656.907777930215
 31
0.0
  0
LINE
  5
260E2
330
24FA1
100
AcDbEntity
  8
寸法
 62
     0
 48
50.0
370
    -2
100
AcDbLine
 10
7153.6
 20
5536.907777930208
 30
0.0
 11
7312.197085004765
 21
5536.907777930208
 31
0.0
  0
LINE
  5
260E3
330
24FA1
100
AcDbEntity
  8
寸法
 62
     0
 48
50.0
370
    -2
100
AcDbLine
 10
7252.197085004765
 20
5656.907777930215
 30
0.0
 11
7252.197085004765
 21
5536.907777930208
 31
0.0
  0
LINE
  5
260E4
330
24FA1
100
AcDbEntity
  8
寸法
 62
     0
 48
50.0
370
    -2
100
AcDbLine
 10
7252.197085004765
 20
5536.907777930208
 30
0.0
 11
7252.197085004765
 21
5130.801478717608
 31
0.0
  0
INSERT
  5
260E5
330
24FA1
100
AcDbEntity
  8
寸法
 62
     0
 48
50.0
370
    -2
100
AcDbBlockReference
  2
_DOTSMALL
 10
7252.197085004765
 20
5656.907777930215
 30
0.0
 41
100.0
 42
100.0
 43
100.0
 50
90.0
  0
INSERT
  5
260E6
330
24FA1
100
AcDbEntity
  8
寸法
 62
     0
 48
50.0
370
    -2
100
AcDbBlockReference
  2
_DOTSMALL
 10
7252.197085004765
 20
5536.907777930208
 30
0.0
 41
100.0
 42
100.0
 43
100.0
 50
270.0
  0
MTEXT
  5
260E7
330
24FA1
100
AcDbEntity
  8
寸法
 62
     7
 48
50.0
100
AcDbMText
 10
7152.185273981142
 20
5266.848722812097
 30
0.0
 40
120.0
 41
0.0
 71
     5
 72
     1
  1
\A1;120
  7
STYLE1
 11
0.0000000000000001
 21
1.0
 31
0.0
 73
     1
 44
1.0
1001
ACAD
1000
MTEXTBEGIN
1070
    73
1070
     1
1070
    44
1040
1.0
1070
    74
1070
     0
1000
MTEXTEND
  0
POINT
  5
260E8
330
24FA1
100
AcDbEntity
  8
DEFPOINTS
 62
     0
 48
50.0
100
AcDbPoint
 10
7133.6
 20
5656.907777930215
 30
0.0
  0
POINT
  5
260E9
330
24FA1
100
AcDbEntity
  8
DEFPOINTS
 62
     0
 48
50.0
100
AcDbPoint
 10
7133.6
 20
5536.907777930208
 30
0.0
  0
POINT
  5
260EA
330
24FA1
100
AcDbEntity
  8
DEFPOINTS
 62
     0
 48
50.0
100
AcDbPoint
 10
7252.197085004765
 20
5536.907777930208
 30
0.0
  0
ENDBLK
  5
24FAD
330
24FA1
100
AcDbEntity
  8
0
 48
50.0
100
AcDbBlockEnd
  0
BLOCK
  5
24FB9
330
24FAE
100
AcDbEntity
  8
0
 48
50.0
100
AcDbBlockBegin
  2
*D26
 70
     1
 10
0.0
 20
0.0
 30
0.0
  3
*D26
  1

  0
LINE
  5
260D7
330
24FAE
100
AcDbEntity
  8
寸法
 62
     0
 48
50.0
370
    -2
100
AcDbLine
 10
7153.6
 20
5656.907777930212
 30
0.0
 11
7312.197085004765
 21
5656.907777930212
 31
0.0
  0
LINE
  5
260D8
330
24FAE
100
AcDbEntity
  8
寸法
 62
     0
 48
50.0
370
    -2
100
AcDbLine
 10
7153.6
 20
5766.907777930211
 30
0.0
 11
7312.197085004765
 21
5766.907777930211
 31
0.0
  0
LINE
  5
260D9
330
24FAE
100
AcDbEntity
  8
寸法
 62
     0
 48
50.0
370
    -2
100
AcDbLine
 10
7252.197085004765
 20
5656.907777930212
 30
0.0
 11
7252.197085004765
 21
5766.907777930211
 31
0.0
  0
LINE
  5
260DA
330
24FAE
100
AcDbEntity
  8
寸法
 62
     0
 48
50.0
370
    -2
100
AcDbLine
 10
7252.197085004765
 20
5766.907777930211
 30
0.0
 11
7252.197085004765
 21
6231.014077142809
 31
0.0
  0
INSERT
  5
260DB
330
24FAE
100
AcDbEntity
  8
寸法
 62
     0
 48
50.0
370
    -2
100
AcDbBlockReference
  2
_DOTSMALL
 10
7252.197085004765
 20
5656.907777930212
 30
0.0
 41
100.0
 42
100.0
 43
100.0
 50
270.0
  0
INSERT
  5
260DC
330
24FAE
100
AcDbEntity
  8
寸法
 62
     0
 48
50.0
370
    -2
100
AcDbBlockReference
  2
_DOTSMALL
 10
7252.197085004765
 20
5766.907777930211
 30
0.0
 41
100.0
 42
100.0
 43
100.0
 50
90.0
  0
MTEXT
  5
260DD
330
24FAE
100
AcDbEntity
  8
寸法
 62
     7
 48
50.0
100
AcDbMText
 10
7152.197085004764
 20
6106.966833048324
 30
0.0
 40
120.0
 41
0.0
 71
     5
 72
     1
  1
\A1;110
  7
STYLE1
 11
0.0000000000000001
 21
1.0
 31
0.0
 73
     1
 44
1.0
1001
ACAD
1000
MTEXTBEGIN
1070
    73
1070
     1
1070
    44
1040
1.0
1070
    74
1070
     0
1000
MTEXTEND
  0
POINT
  5
260DE
330
24FAE
100
AcDbEntity
  8
DEFPOINTS
 62
     0
 48
50.0
100
AcDbPoint
 10
7133.6
 20
5656.907777930212
 30
0.0
  0
POINT
  5
260DF
330
24FAE
100
AcDbEntity
  8
DEFPOINTS
 62
     0
 48
50.0
100
AcDbPoint
 10
7133.6
 20
5766.907777930211
 30
0.0
  0
POINT
  5
260E0
330
24FAE
100
AcDbEntity
  8
DEFPOINTS
 62
     0
 48
50.0
100
AcDbPoint
 10
7252.197085004765
 20
5766.907777930211
 30
0.0
  0
ENDBLK
  5
24FBA
330
24FAE
100
AcDbEntity
  8
0
 48
50.0
100
AcDbBlockEnd
  0
BLOCK
  5
24FC4
330
24FBB
100
AcDbEntity
  8
0
 48
50.0
100
AcDbBlockBegin
  2
*D27
 70
     1
 10
0.0
 20
0.0
 30
0.0
  3
*D27
  1

  0
LINE
  5
25701
330
24FBB
100
AcDbEntity
  8
寸法
 62
     0
 48
50.0
370
    -2
100
AcDbLine
 10
7808.6
 20
7521.907777930208
 30
0.0
 11
7808.6
 21
8763.817543578536
 31
0.0
  0
LINE
  5
25702
330
24FBB
100
AcDbEntity
  8
寸法
 62
     0
 48
50.0
370
    -2
100
AcDbLine
 10
6903.6
 20
8196.907777930208
 30
0.0
 11
6903.6
 21
8763.817543578536
 31
0.0
  0
LINE
  5
25703
330
24FBB
100
AcDbEntity
  8
寸法
 62
     0
 48
50.0
370
    -2
100
AcDbLine
 10
7808.6
 20
8703.817543578535
 30
0.0
 11
6903.6
 21
8703.817543578535
 31
0.0
  0
INSERT
  5
25704
330
24FBB
100
AcDbEntity
  8
寸法
 62
     0
 48
50.0
370
    -2
100
AcDbBlockReference
  2
_DOTSMALL
 10
7808.6
 20
8703.817543578535
 30
0.0
 41
100.0
 42
100.0
 43
100.0
  0
INSERT
  5
25705
330
24FBB
100
AcDbEntity
  8
寸法
 62
     0
 48
50.0
370
    -2
100
AcDbBlockReference
  2
_DOTSMALL
 10
6903.6
 20
8703.817543578535
 30
0.0
 41
100.0
 42
100.0
 43
100.0
 50
180.0
  0
MTEXT
  5
25706
330
24FBB
100
AcDbEntity
  8
寸法
 62
     7
 48
50.0
100
AcDbMText
 10
7356.100000000001
 20
8803.817543578537
 30
0.0
 40
120.0
 41
0.0
 71
     5
 72
     1
  1
\A1;905
  7
STYLE1
 73
     1
 44
1.0
1001
ACAD
1000
MTEXTBEGIN
1070
    73
1070
     1
1070
    44
1040
1.0
1070
    74
1070
     0
1000
MTEXTEND
  0
POINT
  5
25707
330
24FBB
100
AcDbEntity
  8
DEFPOINTS
 62
     0
 48
50.0
100
AcDbPoint
 10
7808.6
 20
7501.907777930208
 30
0.0
  0
POINT
  5
25708
330
24FBB
100
AcDbEntity
  8
DEFPOINTS
 62
     0
 48
50.0
100
AcDbPoint
 10
6903.6
 20
8176.907777930209
 30
0.0
  0
POINT
  5
25709
330
24FBB
100
AcDbEntity
  8
DEFPOINTS
 62
     0
 48
50.0
100
AcDbPoint
 10
6903.6
 20
8703.817543578535
 30
0.0
  0
ENDBLK
  5
24FC5
330
24FBB
100
AcDbEntity
  8
0
 48
50.0
100
AcDbBlockEnd
  0
BLOCK
  5
24FD1
330
24FC6
100
AcDbEntity
  8
0
 48
50.0
100
AcDbBlockBegin
  2
*D28
 70
     1
 10
0.0
 20
0.0
 30
0.0
  3
*D28
  1

  0
LINE
  5
260C3
330
24FC6
100
AcDbEntity
  8
寸法
 62
     0
 48
50.0
370
    -2
100
AcDbLine
 10
7153.6
 20
8056.907777930208
 30
0.0
 11
7410.307249876098
 21
8056.907777930208
 31
0.0
  0
LINE
  5
260C4
330
24FC6
100
AcDbEntity
  8
寸法
 62
     0
 48
50.0
370
    -2
100
AcDbLine
 10
7153.6
 20
8176.907777930209
 30
0.0
 11
7410.307249876098
 21
8176.907777930209
 31
0.0
  0
LINE
  5
260C5
330
24FC6
100
AcDbEntity
  8
寸法
 62
     0
 48
50.0
370
    -2
100
AcDbLine
 10
7350.307249876099
 20
8056.907777930208
 30
0.0
 11
7350.307249876099
 21
8176.907777930209
 31
0.0
  0
LINE
  5
260C6
330
24FC6
100
AcDbEntity
  8
寸法
 62
     0
 48
50.0
370
    -2
100
AcDbLine
 10
7350.307249876099
 20
8176.907777930209
 30
0.0
 11
7350.307249876099
 21
8591.03856529758
 31
0.0
  0
INSERT
  5
260C7
330
24FC6
100
AcDbEntity
  8
寸法
 62
     0
 48
50.0
370
    -2
100
AcDbBlockReference
  2
_DOTSMALL
 10
7350.307249876099
 20
8056.907777930208
 30
0.0
 41
100.0
 42
100.0
 43
100.0
 50
270.0
  0
INSERT
  5
260C8
330
24FC6
100
AcDbEntity
  8
寸法
 62
     0
 48
50.0
370
    -2
100
AcDbBlockReference
  2
_DOTSMALL
 10
7350.307249876099
 20
8176.907777930209
 30
0.0
 41
100.0
 42
100.0
 43
100.0
 50
90.0
  0
MTEXT
  5
260C9
330
24FC6
100
AcDbEntity
  8
寸法
 62
     7
 48
50.0
100
AcDbMText
 10
7250.295438852475
 20
8454.991321203094
 30
0.0
 40
120.0
 41
0.0
 71
     5
 72
     1
  1
\A1;120
  7
STYLE1
 11
0.0000000000000001
 21
1.0
 31
0.0
 73
     1
 44
1.0
1001
ACAD
1000
MTEXTBEGIN
1070
    73
1070
     1
1070
    44
1040
1.0
1070
    74
1070
     0
1000
MTEXTEND
  0
POINT
  5
260CA
330
24FC6
100
AcDbEntity
  8
DEFPOINTS
 62
     0
 48
50.0
100
AcDbPoint
 10
7133.6
 20
8056.907777930208
 30
0.0
  0
POINT
  5
260CB
330
24FC6
100
AcDbEntity
  8
DEFPOINTS
 62
     0
 48
50.0
100
AcDbPoint
 10
7133.6
 20
8176.907777930209
 30
0.0
  0
POINT
  5
260CC
330
24FC6
100
AcDbEntity
  8
DEFPOINTS
 62
     0
 48
50.0
100
AcDbPoint
 10
7350.307249876099
 20
8176.907777930209
 30
0.0
  0
ENDBLK
  5
24FD2
330
24FC6
100
AcDbEntity
  8
0
 48
50.0
100
AcDbBlockEnd
  0
BLOCK
  5
24FDD
330
24FD3
100
AcDbEntity
  8
0
 48
50.0
100
AcDbBlockBegin
  2
*D29
 70
     1
 10
0.0
 20
0.0
 30
0.0
  3
*D29
  1

  0
LINE
  5
2565B
330
24FD3
100
AcDbEntity
  8
寸法
 62
     0
 48
50.0
370
    -2
100
AcDbLine
 10
6956.6
 20
8053.907777930207
 30
0.0
 11
5795.002973219973
 21
8053.907777930209
 31
0.0
  0
LINE
  5
2565C
330
24FD3
100
AcDbEntity
  8
寸法
 62
     0
 48
50.0
370
    -2
100
AcDbLine
 10
6956.600000000007
 20
5659.907777930207
 30
0.0
 11
5795.002973219972
 21
5659.907777930209
 31
0.0
  0
LINE
  5
2565D
330
24FD3
100
AcDbEntity
  8
寸法
 62
     0
 48
50.0
370
    -2
100
AcDbLine
 10
5855.002973219973
 20
8053.907777930209
 30
0.0
 11
5855.002973219971
 21
5659.907777930209
 31
0.0
  0
INSERT
  5
2565E
330
24FD3
100
AcDbEntity
  8
寸法
 62
     0
 48
50.0
370
    -2
100
AcDbBlockReference
  2
_DOTSMALL
 10
5855.002973219973
 20
8053.907777930209
 30
0.0
 41
100.0
 42
100.0
 43
100.0
 50
90.0
  0
INSERT
  5
2565F
330
24FD3
100
AcDbEntity
  8
寸法
 62
     0
 48
50.0
370
    -2
100
AcDbBlockReference
  2
_DOTSMALL
 10
5855.002973219971
 20
5659.907777930209
 30
0.0
 41
100.0
 42
100.0
 43
100.0
 50
270.0
  0
MTEXT
  5
25660
330
24FD3
100
AcDbEntity
  8
寸法
 62
     7
 48
50.0
100
AcDbMText
 10
5754.99116219635
 20
6891.907777930206
 30
0.0
 40
120.0
 41
0.0
 71
     5
 72
     1
  1
\A1;2394
  7
STYLE1
 11
0.0000000000000001
 21
1.0
 31
0.0
 73
     1
 44
1.0
1001
ACAD
1000
MTEXTBEGIN
1070
    73
1070
     1
1070
    44
1040
1.0
1070
    74
1070
     0
1000
MTEXTEND
  0
POINT
  5
25661
330
24FD3
100
AcDbEntity
  8
DEFPOINTS
 62
     0
 48
50.0
100
AcDbPoint
 10
6976.600000000001
 20
8053.907777930207
 30
0.0
  0
POINT
  5
25662
330
24FD3
100
AcDbEntity
  8
DEFPOINTS
 62
     0
 48
50.0
100
AcDbPoint
 10
6976.600000000008
 20
5659.907777930207
 30
0.0
  0
POINT
  5
25663
330
24FD3
100
AcDbEntity
  8
DEFPOINTS
 62
     0
 48
50.0
100
AcDbPoint
 10
5855.002973219971
 20
5659.907777930209
 30
0.0
  0
ENDBLK
  5
24FDE
330
24FD3
100
AcDbEntity
  8
0
 48
50.0
100
AcDbBlockEnd
  0
BLOCK
  5
24FE8
330
24FDF
100
AcDbEntity
  8
0
 48
50.0
100
AcDbBlockBegin
  2
*D30
 70
     1
 10
0.0
 20
0.0
 30
0.0
  3
*D30
  1

  0
LINE
  5
25652
330
24FDF
100
AcDbEntity
  8
寸法
 62
     0
 48
50.0
370
    -2
100
AcDbLine
 10
6883.6
 20
5536.907777930208
 30
0.0
 11
5543.059876500573
 21
5536.907777930209
 31
0.0
  0
LINE
  5
25653
330
24FDF
100
AcDbEntity
  8
寸法
 62
     0
 48
50.0
370
    -2
100
AcDbLine
 10
6883.6
 20
8176.907777930209
 30
0.0
 11
5543.059876500574
 21
8176.907777930209
 31
0.0
  0
LINE
  5
25654
330
24FDF
100
AcDbEntity
  8
寸法
 62
     0
 48
50.0
370
    -2
100
AcDbLine
 10
5603.059876500573
 20
5536.907777930209
 30
0.0
 11
5603.059876500574
 21
8176.907777930209
 31
0.0
  0
INSERT
  5
25655
330
24FDF
100
AcDbEntity
  8
寸法
 62
     0
 48
50.0
370
    -2
100
AcDbBlockReference
  2
_DOTSMALL
 10
5603.059876500573
 20
5536.907777930209
 30
0.0
 41
100.0
 42
100.0
 43
100.0
 50
270.0
  0
INSERT
  5
25656
330
24FDF
100
AcDbEntity
  8
寸法
 62
     0
 48
50.0
370
    -2
100
AcDbBlockReference
  2
_DOTSMALL
 10
5603.059876500574
 20
8176.907777930209
 30
0.0
 41
100.0
 42
100.0
 43
100.0
 50
90.0
  0
MTEXT
  5
25657
330
24FDF
100
AcDbEntity
  8
寸法
 62
     7
 48
50.0
100
AcDbMText
 10
5503.048065476951
 20
6821.90777793021
 30
0.0
 40
120.0
 41
0.0
 71
     5
 72
     1
  1
\A1;2640
  7
STYLE1
 11
0.0000000000000001
 21
1.0
 31
0.0
 73
     1
 44
1.0
1001
ACAD
1000
MTEXTBEGIN
1070
    73
1070
     1
1070
    44
1040
1.0
1070
    74
1070
     0
1000
MTEXTEND
  0
POINT
  5
25658
330
24FDF
100
AcDbEntity
  8
DEFPOINTS
 62
     0
 48
50.0
100
AcDbPoint
 10
6903.6
 20
5536.907777930208
 30
0.0
  0
POINT
  5
25659
330
24FDF
100
AcDbEntity
  8
DEFPOINTS
 62
     0
 48
50.0
100
AcDbPoint
 10
6903.6
 20
8176.907777930209
 30
0.0
  0
POINT
  5
2565A
330
24FDF
100
AcDbEntity
  8
DEFPOINTS
 62
     0
 48
50.0
100
AcDbPoint
 10
5603.059876500574
 20
8176.907777930209
 30
0.0
  0
ENDBLK
  5
24FE9
330
24FDF
100
AcDbEntity
  8
0
 48
50.0
100
AcDbBlockEnd
  0
BLOCK
  5
24FF5
330
24FEA
100
AcDbEntity
  8
0
 48
50.0
100
AcDbBlockBegin
  2
*D31
 70
     1
 10
0.0
 20
0.0
 30
0.0
  3
*D31
  1

  0
LINE
  5
256ED
330
24FEA
100
AcDbEntity
  8
寸法
 62
     0
 48
50.0
370
    -2
100
AcDbLine
 10
6956.600000000007
 20
5659.907777930207
 30
0.0
 11
5795.002973219972
 21
5659.907777930209
 31
0.0
  0
LINE
  5
256EE
330
24FEA
100
AcDbEntity
  8
寸法
 62
     0
 48
50.0
370
    -2
100
AcDbLine
 10
6883.6
 20
5536.907777930208
 30
0.0
 11
5795.002973219972
 21
5536.907777930209
 31
0.0
  0
LINE
  5
256EF
330
24FEA
100
AcDbEntity
  8
寸法
 62
     0
 48
50.0
370
    -2
100
AcDbLine
 10
5855.002973219971
 20
5659.907777930209
 30
0.0
 11
5855.002973219971
 21
5536.907777930209
 31
0.0
  0
LINE
  5
256F0
330
24FEA
100
AcDbEntity
  8
寸法
 62
     0
 48
50.0
370
    -2
100
AcDbLine
 10
5855.002973219971
 20
5536.907777930209
 30
0.0
 11
5855.002973219971
 21
5125.31589483817
 31
0.0
  0
INSERT
  5
256F1
330
24FEA
100
AcDbEntity
  8
寸法
 62
     0
 48
50.0
370
    -2
100
AcDbBlockReference
  2
_DOTSMALL
 10
5855.002973219971
 20
5659.907777930209
 30
0.0
 41
100.0
 42
100.0
 43
100.0
 50
90.0
  0
INSERT
  5
256F2
330
24FEA
100
AcDbEntity
  8
寸法
 62
     0
 48
50.0
370
    -2
100
AcDbBlockReference
  2
_DOTSMALL
 10
5855.002973219971
 20
5536.907777930209
 30
0.0
 41
100.0
 42
100.0
 43
100.0
 50
270.0
  0
MTEXT
  5
256F3
330
24FEA
100
AcDbEntity
  8
寸法
 62
     7
 48
50.0
100
AcDbMText
 10
5754.99116219635
 20
5263.80117621241
 30
0.0
 40
120.0
 41
0.0
 71
     5
 72
     1
  1
\A1;123
  7
STYLE1
 11
0.0000000000000001
 21
1.0
 31
0.0
 73
     1
 44
1.0
1001
ACAD
1000
MTEXTBEGIN
1070
    73
1070
     1
1070
    44
1040
1.0
1070
    74
1070
     0
1000
MTEXTEND
  0
POINT
  5
256F4
330
24FEA
100
AcDbEntity
  8
DEFPOINTS
 62
     0
 48
50.0
100
AcDbPoint
 10
6976.600000000008
 20
5659.907777930207
 30
0.0
  0
POINT
  5
256F5
330
24FEA
100
AcDbEntity
  8
DEFPOINTS
 62
     0
 48
50.0
100
AcDbPoint
 10
6903.6
 20
5536.907777930208
 30
0.0
  0
POINT
  5
256F6
330
24FEA
100
AcDbEntity
  8
DEFPOINTS
 62
     0
 48
50.0
100
AcDbPoint
 10
5855.002973219971
 20
5536.907777930209
 30
0.0
  0
ENDBLK
  5
24FF6
330
24FEA
100
AcDbEntity
  8
0
 48
50.0
100
AcDbBlockEnd
  0
BLOCK
  5
24FFF
330
24FF7
100
AcDbEntity
  8
0
 48
50.0
100
AcDbBlockBegin
  2
*D32
 70
     1
 10
0.0
 20
0.0
 30
0.0
  3
*D32
  1

  0
LINE
  5
25787
330
24FF7
100
AcDbEntity
  8
寸法
 62
     0
 48
50.0
370
    -2
100
AcDbLine
 10
5835.002973219972
 20
5461.907777930225
 30
0.0
 11
5543.059876500575
 21
5461.907777930225
 31
0.0
  0
LINE
  5
25788
330
24FF7
100
AcDbEntity
  8
寸法
 62
     0
 48
50.0
370
    -2
100
AcDbLine
 10
6883.6
 20
5536.907777930208
 30
0.0
 11
5543.059876500575
 21
5536.907777930209
 31
0.0
  0
LINE
  5
25789
330
24FF7
100
AcDbEntity
  8
寸法
 62
     0
 48
50.0
370
    -2
100
AcDbLine
 10
5603.059876500576
 20
5461.907777930225
 30
0.0
 11
5603.059876500576
 21
5361.907777930225
 31
0.0
  0
LINE
  5
2578A
330
24FF7
100
AcDbEntity
  8
寸法
 62
     0
 48
50.0
370
    -2
100
AcDbLine
 10
5603.059876500576
 20
5536.907777930209
 30
0.0
 11
5603.059876500576
 21
5636.907777930209
 31
0.0
  0
LINE
  5
2578B
330
24FF7
100
AcDbEntity
  8
寸法
 62
     0
 48
50.0
370
    -2
100
AcDbLine
 10
5603.059876500576
 20
5461.907777930225
 30
0.0
 11
5603.059876500576
 21
5536.907777930209
 31
0.0
  0
INSERT
  5
2578C
330
24FF7
100
AcDbEntity
  8
寸法
 62
     0
 48
50.0
370
    -2
100
AcDbBlockReference
  2
_DOTSMALL
 10
5603.059876500576
 20
5461.907777930225
 30
0.0
 41
100.0
 42
100.0
 43
100.0
 50
90.0
  0
INSERT
  5
2578D
330
24FF7
100
AcDbEntity
  8
寸法
 62
     0
 48
50.0
370
    -2
100
AcDbBlockReference
  2
_DOTSMALL
 10
5603.059876500576
 20
5536.907777930209
 30
0.0
 41
100.0
 42
100.0
 43
100.0
 50
270.0
  0
MTEXT
  5
2578E
330
24FF7
100
AcDbEntity
  8
寸法
 62
     7
 48
50.0
100
AcDbMText
 10
5503.059876500574
 20
5499.407777930218
 30
0.0
 40
120.0
 41
0.0
 71
     5
 72
     1
  1
\A1;c
  7
STYLE1
 11
0.0000000000000001
 21
1.0
 31
0.0
 73
     1
 44
1.0
1001
ACAD
1000
MTEXTBEGIN
1070
    73
1070
     1
1070
    44
1040
1.0
1070
    74
1070
     0
1000
MTEXTEND
  0
POINT
  5
2578F
330
24FF7
100
AcDbEntity
  8
DEFPOINTS
 62
     0
 48
50.0
100
AcDbPoint
 10
5855.002973219971
 20
5461.907777930225
 30
0.0
  0
POINT
  5
25790
330
24FF7
100
AcDbEntity
  8
DEFPOINTS
 62
     0
 48
50.0
100
AcDbPoint
 10
6903.6
 20
5536.907777930208
 30
0.0
  0
POINT
  5
25791
330
24FF7
100
AcDbEntity
  8
DEFPOINTS
 62
     0
 48
50.0
100
AcDbPoint
 10
5603.059876500576
 20
5536.907777930209
 30
0.0
  0
ENDBLK
  5
25000
330
24FF7
100
AcDbEntity
  8
0
 48
50.0
100
AcDbBlockEnd
  0
BLOCK
  5
2500B
330
25001
100
AcDbEntity
  8
0
 48
50.0
100
AcDbBlockBegin
  2
*D33
 70
     1
 10
0.0
 20
0.0
 30
0.0
  3
*D33
  1

  0
LINE
  5
25771
330
25001
100
AcDbEntity
  8
寸法
 62
     0
 48
50.0
370
    -2
100
AcDbLine
 10
6883.6
 20
8176.907777930209
 30
0.0
 11
5543.059876500575
 21
8176.907777930209
 31
0.0
  0
LINE
  5
25772
330
25001
100
AcDbEntity
  8
寸法
 62
     0
 48
50.0
370
    -2
100
AcDbLine
 10
5835.002973219972
 20
8231.907777930208
 30
0.0
 11
5543.059876500575
 21
8231.907777930208
 31
0.0
  0
LINE
  5
25773
330
25001
100
AcDbEntity
  8
寸法
 62
     0
 48
50.0
370
    -2
100
AcDbLine
 10
5603.059876500576
 20
8176.907777930209
 30
0.0
 11
5603.059876500576
 21
8076.907777930209
 31
0.0
  0
LINE
  5
25774
330
25001
100
AcDbEntity
  8
寸法
 62
     0
 48
50.0
370
    -2
100
AcDbLine
 10
5603.059876500576
 20
8231.907777930208
 30
0.0
 11
5603.059876500576
 21
8331.907777930208
 31
0.0
  0
LINE
  5
25775
330
25001
100
AcDbEntity
  8
寸法
 62
     0
 48
50.0
370
    -2
100
AcDbLine
 10
5603.059876500576
 20
8176.907777930209
 30
0.0
 11
5603.059876500576
 21
8231.907777930208
 31
0.0
  0
INSERT
  5
25776
330
25001
100
AcDbEntity
  8
寸法
 62
     0
 48
50.0
370
    -2
100
AcDbBlockReference
  2
_DOTSMALL
 10
5603.059876500576
 20
8176.907777930209
 30
0.0
 41
100.0
 42
100.0
 43
100.0
 50
90.0
  0
INSERT
  5
25777
330
25001
100
AcDbEntity
  8
寸法
 62
     0
 48
50.0
370
    -2
100
AcDbBlockReference
  2
_DOTSMALL
 10
5603.059876500576
 20
8231.907777930208
 30
0.0
 41
100.0
 42
100.0
 43
100.0
 50
270.0
  0
MTEXT
  5
25778
330
25001
100
AcDbEntity
  8
寸法
 62
     7
 48
50.0
100
AcDbMText
 10
5503.059876500574
 20
8204.40777793021
 30
0.0
 40
120.0
 41
0.0
 71
     5
 72
     1
  1
\A1;b
  7
STYLE1
 11
0.0000000000000001
 21
1.0
 31
0.0
 73
     1
 44
1.0
1001
ACAD
1000
MTEXTBEGIN
1070
    73
1070
     1
1070
    44
1040
1.0
1070
    74
1070
     0
1000
MTEXTEND
  0
POINT
  5
25779
330
25001
100
AcDbEntity
  8
DEFPOINTS
 62
     0
 48
50.0
100
AcDbPoint
 10
6903.6
 20
8176.907777930209
 30
0.0
  0
POINT
  5
2577A
330
25001
100
AcDbEntity
  8
DEFPOINTS
 62
     0
 48
50.0
100
AcDbPoint
 10
5855.002973219971
 20
8231.907777930208
 30
0.0
  0
POINT
  5
2577B
330
25001
100
AcDbEntity
  8
DEFPOINTS
 62
     0
 48
50.0
100
AcDbPoint
 10
5603.059876500576
 20
8231.907777930208
 30
0.0
  0
ENDBLK
  5
2500C
330
25001
100
AcDbEntity
  8
0
 48
50.0
100
AcDbBlockEnd
  0
BLOCK
  5
25018
330
2500D
100
AcDbEntity
  8
0
 48
50.0
100
AcDbBlockBegin
  2
*D34
 70
     1
 10
0.0
 20
0.0
 30
0.0
  3
*D34
  1

  0
LINE
  5
256CD
330
2500D
100
AcDbEntity
  8
寸法
 62
     0
 48
50.0
370
    -2
100
AcDbLine
 10
6883.6
 20
8176.907777930209
 30
0.0
 11
5795.002973219972
 21
8176.907777930209
 31
0.0
  0
LINE
  5
256CE
330
2500D
100
AcDbEntity
  8
寸法
 62
     0
 48
50.0
370
    -2
100
AcDbLine
 10
6956.6
 20
8053.907777930207
 30
0.0
 11
5795.002973219972
 21
8053.907777930209
 31
0.0
  0
LINE
  5
256CF
330
2500D
100
AcDbEntity
  8
寸法
 62
     0
 48
50.0
370
    -2
100
AcDbLine
 10
5855.002973219971
 20
8053.907777930209
 30
0.0
 11
5855.002973219971
 21
8176.907777930209
 31
0.0
  0
LINE
  5
256D0
330
2500D
100
AcDbEntity
  8
寸法
 62
     0
 48
50.0
370
    -2
100
AcDbLine
 10
5855.002973219971
 20
8176.907777930209
 30
0.0
 11
5855.002973219971
 21
8628.499661022242
 31
0.0
  0
INSERT
  5
256D1
330
2500D
100
AcDbEntity
  8
寸法
 62
     0
 48
50.0
370
    -2
100
AcDbBlockReference
  2
_DOTSMALL
 10
5855.002973219971
 20
8053.907777930209
 30
0.0
 41
100.0
 42
100.0
 43
100.0
 50
270.0
  0
INSERT
  5
256D2
330
2500D
100
AcDbEntity
  8
寸法
 62
     0
 48
50.0
370
    -2
100
AcDbBlockReference
  2
_DOTSMALL
 10
5855.002973219971
 20
8176.907777930209
 30
0.0
 41
100.0
 42
100.0
 43
100.0
 50
90.0
  0
MTEXT
  5
256D3
330
2500D
100
AcDbEntity
  8
寸法
 62
     7
 48
50.0
100
AcDbMText
 10
5754.99116219635
 20
8490.014379648007
 30
0.0
 40
120.0
 41
0.0
 71
     5
 72
     1
  1
\A1;123
  7
STYLE1
 11
0.0000000000000001
 21
1.0
 31
0.0
 73
     1
 44
1.0
1001
ACAD
1000
MTEXTBEGIN
1070
    73
1070
     1
1070
    44
1040
1.0
1070
    74
1070
     0
1000
MTEXTEND
  0
POINT
  5
256D4
330
2500D
100
AcDbEntity
  8
DEFPOINTS
 62
     0
 48
50.0
100
AcDbPoint
 10
6903.6
 20
8176.907777930209
 30
0.0
  0
POINT
  5
256D5
330
2500D
100
AcDbEntity
  8
DEFPOINTS
 62
     0
 48
50.0
100
AcDbPoint
 10
6976.600000000001
 20
8053.907777930207
 30
0.0
  0
POINT
  5
256D6
330
2500D
100
AcDbEntity
  8
DEFPOINTS
 62
     0
 48
50.0
100
AcDbPoint
 10
5855.002973219971
 20
8053.907777930209
 30
0.0
  0
ENDBLK
  5
25019
330
2500D
100
AcDbEntity
  8
0
 48
50.0
100
AcDbBlockEnd
  0
BLOCK
  5
25025
330
2501A
100
AcDbEntity
  8
0
 48
50.0
100
AcDbBlockBegin
  2
*D35
 70
     1
 10
0.0
 20
0.0
 30
0.0
  3
*D35
  1

  0
LINE
  5
256C3
330
2501A
100
AcDbEntity
  8
寸法
 62
     0
 48
50.0
370
    -2
100
AcDbLine
 10
7026.600000000001
 20
8123.907777930208
 30
0.0
 11
7026.600000000001
 21
8982.667404472293
 31
0.0
  0
LINE
  5
256C4
330
2501A
100
AcDbEntity
  8
寸法
 62
     0
 48
50.0
370
    -2
100
AcDbLine
 10
6903.6
 20
8196.907777930208
 30
0.0
 11
6903.6
 21
8982.667404472293
 31
0.0
  0
LINE
  5
256C5
330
2501A
100
AcDbEntity
  8
寸法
 62
     0
 48
50.0
370
    -2
100
AcDbLine
 10
7026.600000000001
 20
8922.66740447229
 30
0.0
 11
6903.6
 21
8922.66740447229
 31
0.0
  0
LINE
  5
256C6
330
2501A
100
AcDbEntity
  8
寸法
 62
     0
 48
50.0
370
    -2
100
AcDbLine
 10
6903.6
 20
8922.66740447229
 30
0.0
 11
6492.008116907964
 21
8922.66740447229
 31
0.0
  0
INSERT
  5
256C7
330
2501A
100
AcDbEntity
  8
寸法
 62
     0
 48
50.0
370
    -2
100
AcDbBlockReference
  2
_DOTSMALL
 10
7026.600000000001
 20
8922.66740447229
 30
0.0
 41
100.0
 42
100.0
 43
100.0
  0
INSERT
  5
256C8
330
2501A
100
AcDbEntity
  8
寸法
 62
     0
 48
50.0
370
    -2
100
AcDbBlockReference
  2
_DOTSMALL
 10
6903.6
 20
8922.66740447229
 30
0.0
 41
100.0
 42
100.0
 43
100.0
 50
180.0
  0
MTEXT
  5
256C9
330
2501A
100
AcDbEntity
  8
寸法
 62
     7
 48
50.0
100
AcDbMText
 10
6630.493398282202
 20
9022.679215495912
 30
0.0
 40
120.0
 41
0.0
 71
     5
 72
     1
  1
\A1;123
  7
STYLE1
 73
     1
 44
1.0
1001
ACAD
1000
MTEXTBEGIN
1070
    73
1070
     1
1070
    44
1040
1.0
1070
    74
1070
     0
1000
MTEXTEND
  0
POINT
  5
256CA
330
2501A
100
AcDbEntity
  8
DEFPOINTS
 62
     0
 48
50.0
100
AcDbPoint
 10
7026.600000000001
 20
8103.907777930208
 30
0.0
  0
POINT
  5
256CB
330
2501A
100
AcDbEntity
  8
DEFPOINTS
 62
     0
 48
50.0
100
AcDbPoint
 10
6903.6
 20
8176.907777930209
 30
0.0
  0
POINT
  5
256CC
330
2501A
100
AcDbEntity
  8
DEFPOINTS
 62
     0
 48
50.0
100
AcDbPoint
 10
6903.6
 20
8922.66740447229
 30
0.0
  0
ENDBLK
  5
25026
330
2501A
100
AcDbEntity
  8
0
 48
50.0
100
AcDbBlockEnd
  0
BLOCK
  5
25031
330
25027
100
AcDbEntity
  8
0
 48
50.0
100
AcDbBlockBegin
  2
*D36
 70
     1
 10
0.0
 20
0.0
 30
0.0
  3
*D36
  1

  0
LINE
  5
256BA
330
25027
100
AcDbEntity
  8
寸法
 62
     0
 48
50.0
370
    -2
100
AcDbLine
 10
7688.600000000002
 20
7301.907777930208
 30
0.0
 11
6111.82307490516
 21
7301.907777930209
 31
0.0
  0
LINE
  5
256BB
330
25027
100
AcDbEntity
  8
寸法
 62
     0
 48
50.0
370
    -2
100
AcDbLine
 10
7688.600000000002
 20
6411.907777930207
 30
0.0
 11
6111.82307490516
 21
6411.907777930209
 31
0.0
  0
LINE
  5
256BC
330
25027
100
AcDbEntity
  8
寸法
 62
     0
 48
50.0
370
    -2
100
AcDbLine
 10
6171.82307490516
 20
7301.907777930208
 30
0.0
 11
6171.82307490516
 21
6411.907777930207
 31
0.0
  0
INSERT
  5
256BD
330
25027
100
AcDbEntity
  8
寸法
 62
     0
 48
50.0
370
    -2
100
AcDbBlockReference
  2
_DOTSMALL
 10
6171.82307490516
 20
7301.907777930208
 30
0.0
 41
100.0
 42
100.0
 43
100.0
 50
90.0
  0
INSERT
  5
256BE
330
25027
100
AcDbEntity
  8
寸法
 62
     0
 48
50.0
370
    -2
100
AcDbBlockReference
  2
_DOTSMALL
 10
6171.82307490516
 20
6411.907777930207
 30
0.0
 41
100.0
 42
100.0
 43
100.0
 50
270.0
  0
MTEXT
  5
256BF
330
25027
100
AcDbEntity
  8
寸法
 62
     7
 48
50.0
100
AcDbMText
 10
6071.823074905158
 20
6856.90777793021
 30
0.0
 40
120.0
 41
0.0
 71
     5
 72
     1
  1
\A1;890
  7
STYLE1
 11
0.0000000000000001
 21
1.0
 31
0.0
 73
     1
 44
1.0
1001
ACAD
1000
MTEXTBEGIN
1070
    73
1070
     1
1070
    44
1040
1.0
1070
    74
1070
     0
1000
MTEXTEND
  0
POINT
  5
256C0
330
25027
100
AcDbEntity
  8
DEFPOINTS
 62
     0
 48
50.0
100
AcDbPoint
 10
7708.600000000003
 20
7301.907777930208
 30
0.0
  0
POINT
  5
256C1
330
25027
100
AcDbEntity
  8
DEFPOINTS
 62
     0
 48
50.0
100
AcDbPoint
 10
7708.600000000003
 20
6411.907777930207
 30
0.0
  0
POINT
  5
256C2
330
25027
100
AcDbEntity
  8
DEFPOINTS
 62
     0
 48
50.0
100
AcDbPoint
 10
6171.82307490516
 20
6411.907777930207
 30
0.0
  0
ENDBLK
  5
25032
330
25027
100
AcDbEntity
  8
0
 48
50.0
100
AcDbBlockEnd
  0
BLOCK
  5
25049
330
2503F
100
AcDbEntity
  8
0
 48
50.0
100
AcDbBlockBegin
  2
*D37
 70
     1
 10
0.0
 20
0.0
 30
0.0
  3
*D37
  1

  0
LINE
  5
256A8
330
2503F
100
AcDbEntity
  8
寸法
 62
     0
 48
50.0
370
    -2
100
AcDbLine
 10
6883.599999999964
 20
5536.907777930215
 30
0.0
 11
6111.823074905159
 21
5536.907777930216
 31
0.0
  0
LINE
  5
256A9
330
2503F
100
AcDbEntity
  8
寸法
 62
     0
 48
50.0
370
    -2
100
AcDbLine
 10
7688.600000000002
 20
6411.907777930207
 30
0.0
 11
6111.82307490516
 21
6411.907777930209
 31
0.0
  0
LINE
  5
256AA
330
2503F
100
AcDbEntity
  8
寸法
 62
     0
 48
50.0
370
    -2
100
AcDbLine
 10
6171.823074905159
 20
5536.907777930215
 30
0.0
 11
6171.82307490516
 21
6411.907777930207
 31
0.0
  0
INSERT
  5
256AB
330
2503F
100
AcDbEntity
  8
寸法
 62
     0
 48
50.0
370
    -2
100
AcDbBlockReference
  2
_DOTSMALL
 10
6171.823074905159
 20
5536.907777930215
 30
0.0
 41
100.0
 42
100.0
 43
100.0
 50
270.0
  0
INSERT
  5
256AC
330
2503F
100
AcDbEntity
  8
寸法
 62
     0
 48
50.0
370
    -2
100
AcDbBlockReference
  2
_DOTSMALL
 10
6171.82307490516
 20
6411.907777930207
 30
0.0
 41
100.0
 42
100.0
 43
100.0
 50
90.0
  0
MTEXT
  5
256AD
330
2503F
100
AcDbEntity
  8
寸法
 62
     7
 48
50.0
100
AcDbMText
 10
6071.823074905158
 20
5974.407777930213
 30
0.0
 40
120.0
 41
0.0
 71
     5
 72
     1
  1
\A1;875
  7
STYLE1
 11
0.0000000000000001
 21
1.0
 31
0.0
 73
     1
 44
1.0
1001
ACAD
1000
MTEXTBEGIN
1070
    73
1070
     1
1070
    44
1040
1.0
1070
    74
1070
     0
1000
MTEXTEND
  0
POINT
  5
256AE
330
2503F
100
AcDbEntity
  8
DEFPOINTS
 62
     0
 48
50.0
100
AcDbPoint
 10
6903.599999999965
 20
5536.907777930215
 30
0.0
  0
POINT
  5
256AF
330
2503F
100
AcDbEntity
  8
DEFPOINTS
 62
     0
 48
50.0
100
AcDbPoint
 10
7708.600000000003
 20
6411.907777930207
 30
0.0
  0
POINT
  5
256B0
330
2503F
100
AcDbEntity
  8
DEFPOINTS
 62
     0
 48
50.0
100
AcDbPoint
 10
6171.82307490516
 20
6411.907777930207
 30
0.0
  0
ENDBLK
  5
2504A
330
2503F
100
AcDbEntity
  8
0
 48
50.0
100
AcDbBlockEnd
  0
BLOCK
  5
25062
330
25058
100
AcDbEntity
  8
0
 48
50.0
100
AcDbBlockBegin
  2
*D38
 70
     1
 10
0.0
 20
0.0
 30
0.0
  3
*D38
  1

  0
LINE
  5
2569F
330
25058
100
AcDbEntity
  8
寸法
 62
     0
 48
50.0
370
    -2
100
AcDbLine
 10
9543.600000000001
 20
8196.907777930208
 30
0.0
 11
9543.600000000001
 21
8763.817543578536
 31
0.0
  0
LINE
  5
256A0
330
25058
100
AcDbEntity
  8
寸法
 62
     0
 48
50.0
370
    -2
100
AcDbLine
 10
8638.600000000002
 20
7521.907777930208
 30
0.0
 11
8638.600000000002
 21
8763.817543578536
 31
0.0
  0
LINE
  5
256A1
330
25058
100
AcDbEntity
  8
寸法
 62
     0
 48
50.0
370
    -2
100
AcDbLine
 10
9543.600000000001
 20
8703.817543578535
 30
0.0
 11
8638.600000000002
 21
8703.817543578535
 31
0.0
  0
INSERT
  5
256A2
330
25058
100
AcDbEntity
  8
寸法
 62
     0
 48
50.0
370
    -2
100
AcDbBlockReference
  2
_DOTSMALL
 10
9543.600000000001
 20
8703.817543578535
 30
0.0
 41
100.0
 42
100.0
 43
100.0
  0
INSERT
  5
256A3
330
25058
100
AcDbEntity
  8
寸法
 62
     0
 48
50.0
370
    -2
100
AcDbBlockReference
  2
_DOTSMALL
 10
8638.600000000002
 20
8703.817543578535
 30
0.0
 41
100.0
 42
100.0
 43
100.0
 50
180.0
  0
MTEXT
  5
256A4
330
25058
100
AcDbEntity
  8
寸法
 62
     7
 48
50.0
100
AcDbMText
 10
9114.51852200628
 20
8803.817543578537
 30
0.0
 40
120.0
 41
0.0
 71
     5
 72
     1
  1
\A1;905
  7
STYLE1
 73
     1
 44
1.0
1001
ACAD
1000
MTEXTBEGIN
1070
    73
1070
     1
1070
    44
1040
1.0
1070
    74
1070
     0
1000
MTEXTEND
  0
POINT
  5
256A5
330
25058
100
AcDbEntity
  8
DEFPOINTS
 62
     0
 48
50.0
100
AcDbPoint
 10
9543.600000000001
 20
8176.907777930209
 30
0.0
  0
POINT
  5
256A6
330
25058
100
AcDbEntity
  8
DEFPOINTS
 62
     0
 48
50.0
100
AcDbPoint
 10
8638.600000000002
 20
7501.907777930208
 30
0.0
  0
POINT
  5
256A7
330
25058
100
AcDbEntity
  8
DEFPOINTS
 62
     0
 48
50.0
100
AcDbPoint
 10
8638.600000000002
 20
8703.817543578535
 30
0.0
  0
ENDBLK
  5
25063
330
25058
100
AcDbEntity
  8
0
 48
50.0
100
AcDbBlockEnd
  0
BLOCK
  5
2506E
330
25064
100
AcDbEntity
  8
0
 48
50.0
100
AcDbBlockBegin
  2
*D39
 70
     1
 10
0.0
 20
0.0
 30
0.0
  3
*D39
  1

  0
LINE
  5
25696
330
25064
100
AcDbEntity
  8
寸法
 62
     0
 48
50.0
370
    -2
100
AcDbLine
 10
8638.600000000002
 20
7521.907777930208
 30
0.0
 11
8638.600000000002
 21
8763.817543578536
 31
0.0
  0
LINE
  5
25697
330
25064
100
AcDbEntity
  8
寸法
 62
     0
 48
50.0
370
    -2
100
AcDbLine
 10
7808.6
 20
7521.907777930208
 30
0.0
 11
7808.6
 21
8763.817543578536
 31
0.0
  0
LINE
  5
25698
330
25064
100
AcDbEntity
  8
寸法
 62
     0
 48
50.0
370
    -2
100
AcDbLine
 10
8638.600000000002
 20
8703.817543578535
 30
0.0
 11
7808.6
 21
8703.817543578535
 31
0.0
  0
INSERT
  5
25699
330
25064
100
AcDbEntity
  8
寸法
 62
     0
 48
50.0
370
    -2
100
AcDbBlockReference
  2
_DOTSMALL
 10
8638.600000000002
 20
8703.817543578535
 30
0.0
 41
100.0
 42
100.0
 43
100.0
  0
INSERT
  5
2569A
330
25064
100
AcDbEntity
  8
寸法
 62
     0
 48
50.0
370
    -2
100
AcDbBlockReference
  2
_DOTSMALL
 10
7808.6
 20
8703.817543578535
 30
0.0
 41
100.0
 42
100.0
 43
100.0
 50
180.0
  0
MTEXT
  5
2569B
330
25064
100
AcDbEntity
  8
寸法
 62
     7
 48
50.0
100
AcDbMText
 10
8223.600000000001
 20
8803.817543578537
 30
0.0
 40
120.0
 41
0.0
 71
     5
 72
     1
  1
\A1;830
  7
STYLE1
 73
     1
 44
1.0
1001
ACAD
1000
MTEXTBEGIN
1070
    73
1070
     1
1070
    44
1040
1.0
1070
    74
1070
     0
1000
MTEXTEND
  0
POINT
  5
2569C
330
25064
100
AcDbEntity
  8
DEFPOINTS
 62
     0
 48
50.0
100
AcDbPoint
 10
8638.600000000002
 20
7501.907777930208
 30
0.0
  0
POINT
  5
2569D
330
25064
100
AcDbEntity
  8
DEFPOINTS
 62
     0
 48
50.0
100
AcDbPoint
 10
7808.6
 20
7501.907777930208
 30
0.0
  0
POINT
  5
2569E
330
25064
100
AcDbEntity
  8
DEFPOINTS
 62
     0
 48
50.0
100
AcDbPoint
 10
7808.6
 20
8703.817543578535
 30
0.0
  0
ENDBLK
  5
2506F
330
25064
100
AcDbEntity
  8
0
 48
50.0
100
AcDbBlockEnd
  0
BLOCK
  5
25079
330
25070
100
AcDbEntity
  8
0
 48
50.0
100
AcDbBlockBegin
  2
*D40
 70
     1
 10
0.0
 20
0.0
 30
0.0
  3
*D40
  1

  0
LINE
  5
2568D
330
25070
100
AcDbEntity
  8
寸法
 62
     0
 48
50.0
370
    -2
100
AcDbLine
 10
7688.600000000002
 20
7301.907777930208
 30
0.0
 11
6111.82307490516
 21
7301.907777930209
 31
0.0
  0
LINE
  5
2568E
330
25070
100
AcDbEntity
  8
寸法
 62
     0
 48
50.0
370
    -2
100
AcDbLine
 10
6883.6
 20
8176.907777930209
 30
0.0
 11
6111.82307490516
 21
8176.90777793021
 31
0.0
  0
LINE
  5
2568F
330
25070
100
AcDbEntity
  8
寸法
 62
     0
 48
50.0
370
    -2
100
AcDbLine
 10
6171.82307490516
 20
7301.907777930208
 30
0.0
 11
6171.82307490516
 21
8176.907777930209
 31
0.0
  0
INSERT
  5
25690
330
25070
100
AcDbEntity
  8
寸法
 62
     0
 48
50.0
370
    -2
100
AcDbBlockReference
  2
_DOTSMALL
 10
6171.82307490516
 20
7301.907777930208
 30
0.0
 41
100.0
 42
100.0
 43
100.0
 50
270.0
  0
INSERT
  5
25691
330
25070
100
AcDbEntity
  8
寸法
 62
     0
 48
50.0
370
    -2
100
AcDbBlockReference
  2
_DOTSMALL
 10
6171.82307490516
 20
8176.907777930209
 30
0.0
 41
100.0
 42
100.0
 43
100.0
 50
90.0
  0
MTEXT
  5
25692
330
25070
100
AcDbEntity
  8
寸法
 62
     7
 48
50.0
100
AcDbMText
 10
6071.823074905159
 20
7739.40777793021
 30
0.0
 40
120.0
 41
0.0
 71
     5
 72
     1
  1
\A1;875
  7
STYLE1
 11
0.0000000000000001
 21
1.0
 31
0.0
 73
     1
 44
1.0
1001
ACAD
1000
MTEXTBEGIN
1070
    73
1070
     1
1070
    44
1040
1.0
1070
    74
1070
     0
1000
MTEXTEND
  0
POINT
  5
25693
330
25070
100
AcDbEntity
  8
DEFPOINTS
 62
     0
 48
50.0
100
AcDbPoint
 10
7708.600000000003
 20
7301.907777930208
 30
0.0
  0
POINT
  5
25694
330
25070
100
AcDbEntity
  8
DEFPOINTS
 62
     0
 48
50.0
100
AcDbPoint
 10
6903.6
 20
8176.907777930209
 30
0.0
  0
POINT
  5
25695
330
25070
100
AcDbEntity
  8
DEFPOINTS
 62
     0
 48
50.0
100
AcDbPoint
 10
6171.82307490516
 20
8176.907777930209
 30
0.0
  0
ENDBLK
  5
2507A
330
25070
100
AcDbEntity
  8
0
 48
50.0
100
AcDbBlockEnd
  0
BLOCK
  5
250A0
330
25095
100
AcDbEntity
  8
0
 48
50.0
100
AcDbBlockBegin
  2
*D41
 70
     1
 10
0.0
 20
0.0
 30
0.0
  3
*D41
  1

  0
LINE
  5
2566F
330
25095
100
AcDbEntity
  8
寸法
 62
     0
 48
50.0
370
    -2
100
AcDbLine
 10
9543.600000000001
 20
8196.907777930208
 30
0.0
 11
9543.600000000001
 21
8982.667404472293
 31
0.0
  0
LINE
  5
25670
330
25095
100
AcDbEntity
  8
寸法
 62
     0
 48
50.0
370
    -2
100
AcDbLine
 10
9420.6
 20
8123.907777930208
 30
0.0
 11
9420.6
 21
8982.667404472293
 31
0.0
  0
LINE
  5
25671
330
25095
100
AcDbEntity
  8
寸法
 62
     0
 48
50.0
370
    -2
100
AcDbLine
 10
9420.6
 20
8922.66740447229
 30
0.0
 11
9543.600000000001
 21
8922.66740447229
 31
0.0
  0
LINE
  5
25672
330
25095
100
AcDbEntity
  8
寸法
 62
     0
 48
50.0
370
    -2
100
AcDbLine
 10
9543.600000000001
 20
8922.66740447229
 30
0.0
 11
9955.191883092037
 21
8922.66740447229
 31
0.0
  0
INSERT
  5
25673
330
25095
100
AcDbEntity
  8
寸法
 62
     0
 48
50.0
370
    -2
100
AcDbBlockReference
  2
_DOTSMALL
 10
9420.6
 20
8922.66740447229
 30
0.0
 41
100.0
 42
100.0
 43
100.0
 50
180.0
  0
INSERT
  5
25674
330
25095
100
AcDbEntity
  8
寸法
 62
     0
 48
50.0
370
    -2
100
AcDbBlockReference
  2
_DOTSMALL
 10
9543.600000000001
 20
8922.66740447229
 30
0.0
 41
100.0
 42
100.0
 43
100.0
  0
MTEXT
  5
25675
330
25095
100
AcDbEntity
  8
寸法
 62
     7
 48
50.0
100
AcDbMText
 10
9816.706601717799
 20
9022.679215495912
 30
0.0
 40
120.0
 41
0.0
 71
     5
 72
     1
  1
\A1;123
  7
STYLE1
 73
     1
 44
1.0
1001
ACAD
1000
MTEXTBEGIN
1070
    73
1070
     1
1070
    44
1040
1.0
1070
    74
1070
     0
1000
MTEXTEND
  0
POINT
  5
25676
330
25095
100
AcDbEntity
  8
DEFPOINTS
 62
     0
 48
50.0
100
AcDbPoint
 10
9543.600000000001
 20
8176.907777930209
 30
0.0
  0
POINT
  5
25677
330
25095
100
AcDbEntity
  8
DEFPOINTS
 62
     0
 48
50.0
100
AcDbPoint
 10
9420.6
 20
8103.907777930208
 30
0.0
  0
POINT
  5
25678
330
25095
100
AcDbEntity
  8
DEFPOINTS
 62
     0
 48
50.0
100
AcDbPoint
 10
9420.6
 20
8922.66740447229
 30
0.0
  0
ENDBLK
  5
250A1
330
25095
100
AcDbEntity
  8
0
 48
50.0
100
AcDbBlockEnd
  0
BLOCK
  5
25211
330
25206
100
AcDbEntity
  8
0
 48
50.0
100
AcDbBlockBegin
  2
*D42
 70
     1
 10
0.0
 20
0.0
 30
0.0
  3
*D42
  1

  0
LINE
  5
25664
330
25206
100
AcDbEntity
  8
寸法
 62
     0
 48
50.0
370
    -2
100
AcDbLine
 10
7336.599999999925
 20
5461.907777930225
 30
0.0
 11
6429.234728016389
 21
5461.907777930225
 31
0.0
  0
LINE
  5
25665
330
25206
100
AcDbEntity
  8
寸法
 62
     0
 48
50.0
370
    -2
100
AcDbLine
 10
6883.599999999964
 20
5536.907777930204
 30
0.0
 11
6429.234728016389
 21
5536.907777930204
 31
0.0
  0
LINE
  5
25666
330
25206
100
AcDbEntity
  8
寸法
 62
     0
 48
50.0
370
    -2
100
AcDbLine
 10
6489.234728016389
 20
5536.907777930204
 30
0.0
 11
6489.234728016389
 21
5636.907777930204
 31
0.0
  0
LINE
  5
25667
330
25206
100
AcDbEntity
  8
寸法
 62
     0
 48
50.0
370
    -2
100
AcDbLine
 10
6489.234728016389
 20
5461.907777930225
 30
0.0
 11
6489.234728016389
 21
4594.937215181746
 31
0.0
  0
LINE
  5
25668
330
25206
100
AcDbEntity
  8
寸法
 62
     0
 48
50.0
370
    -2
100
AcDbLine
 10
6489.234728016389
 20
5536.907777930204
 30
0.0
 11
6489.234728016389
 21
5461.907777930225
 31
0.0
  0
INSERT
  5
25669
330
25206
100
AcDbEntity
  8
寸法
 62
     0
 48
50.0
370
    -2
100
AcDbBlockReference
  2
_DOTSMALL
 10
6489.234728016389
 20
5536.907777930204
 30
0.0
 41
100.0
 42
100.0
 43
100.0
 50
270.0
  0
INSERT
  5
2566A
330
25206
100
AcDbEntity
  8
寸法
 62
     0
 48
50.0
370
    -2
100
AcDbBlockReference
  2
_DOTSMALL
 10
6489.234728016389
 20
5461.907777930225
 30
0.0
 41
100.0
 42
100.0
 43
100.0
 50
90.0
  0
MTEXT
  5
2566B
330
25206
100
AcDbEntity
  8
寸法
 62
     7
 48
50.0
100
AcDbMText
 10
6389.234728016389
 20
4928.422496555987
 30
0.0
 40
120.0
 41
0.0
 71
     5
 72
     1
  1
\A1;扉の出75
  7
STYLE1
 11
0.0000000000000001
 21
1.0
 31
0.0
 73
     1
 44
1.0
1001
ACAD
1000
MTEXTBEGIN
1070
    73
1070
     1
1070
    44
1040
1.0
1070
    74
1070
     0
1000
MTEXTEND
  0
POINT
  5
2566C
330
25206
100
AcDbEntity
  8
DEFPOINTS
 62
     0
 48
50.0
100
AcDbPoint
 10
7356.599999999923
 20
5461.907777930225
 30
0.0
  0
POINT
  5
2566D
330
25206
100
AcDbEntity
  8
DEFPOINTS
 62
     0
 48
50.0
100
AcDbPoint
 10
6903.599999999965
 20
5536.907777930204
 30
0.0
  0
POINT
  5
2566E
330
25206
100
AcDbEntity
  8
DEFPOINTS
 62
     0
 48
50.0
100
AcDbPoint
 10
6489.234728016389
 20
5536.907777930204
 30
0.0
  0
ENDBLK
  5
25212
330
25206
100
AcDbEntity
  8
0
 48
50.0
100
AcDbBlockEnd
  0
BLOCK
  5
259B4
330
259A9
100
AcDbEntity
  8
0
 48
50.0
100
AcDbBlockBegin
  2
*D43
 70
     1
 10
0.0
 20
0.0
 30
0.0
  3
*D43
  1

  0
LINE
  5
260F5
330
259A9
100
AcDbEntity
  8
寸法
 62
     0
 48
50.0
370
    -2
100
AcDbLine
 10
9543.600000000001
 20
7926.907777930209
 30
0.0
 11
9543.600000000001
 21
7659.199110429836
 31
0.0
  0
LINE
  5
260F6
330
259A9
100
AcDbEntity
  8
寸法
 62
     0
 48
50.0
370
    -2
100
AcDbLine
 10
9423.6
 20
7926.907777930208
 30
0.0
 11
9423.6
 21
7659.199110429836
 31
0.0
  0
LINE
  5
260F7
330
259A9
100
AcDbEntity
  8
寸法
 62
     0
 48
50.0
370
    -2
100
AcDbLine
 10
9423.6
 20
7719.199110429837
 30
0.0
 11
9543.600000000001
 21
7719.199110429837
 31
0.0
  0
LINE
  5
260F8
330
259A9
100
AcDbEntity
  8
寸法
 62
     0
 48
50.0
370
    -2
100
AcDbLine
 10
9543.600000000001
 20
7719.199110429837
 30
0.0
 11
9949.7062992126
 21
7719.199110429837
 31
0.0
  0
INSERT
  5
260F9
330
259A9
100
AcDbEntity
  8
寸法
 62
     0
 48
50.0
370
    -2
100
AcDbBlockReference
  2
_DOTSMALL
 10
9423.6
 20
7719.199110429837
 30
0.0
 41
100.0
 42
100.0
 43
100.0
 50
180.0
  0
INSERT
  5
260FA
330
259A9
100
AcDbEntity
  8
寸法
 62
     0
 48
50.0
370
    -2
100
AcDbBlockReference
  2
_DOTSMALL
 10
9543.600000000001
 20
7719.199110429837
 30
0.0
 41
100.0
 42
100.0
 43
100.0
  0
MTEXT
  5
260FB
330
259A9
100
AcDbEntity
  8
寸法
 62
     7
 48
50.0
100
AcDbMText
 10
9813.659055118112
 20
7819.210921453458
 30
0.0
 40
120.0
 41
0.0
 71
     5
 72
     1
  1
\A1;120
  7
STYLE1
 73
     1
 44
1.0
1001
ACAD
1000
MTEXTBEGIN
1070
    73
1070
     1
1070
    44
1040
1.0
1070
    74
1070
     0
1000
MTEXTEND
  0
POINT
  5
260FC
330
259A9
100
AcDbEntity
  8
DEFPOINTS
 62
     0
 48
50.0
100
AcDbPoint
 10
9543.600000000001
 20
7946.90777793021
 30
0.0
  0
POINT
  5
260FD
330
259A9
100
AcDbEntity
  8
DEFPOINTS
 62
     0
 48
50.0
100
AcDbPoint
 10
9423.6
 20
7946.907777930208
 30
0.0
  0
POINT
  5
260FE
330
259A9
100
AcDbEntity
  8
DEFPOINTS
 62
     0
 48
50.0
100
AcDbPoint
 10
9423.6
 20
7719.199110429837
 30
0.0
  0
ENDBLK
  5
259B5
330
259A9
100
AcDbEntity
  8
0
 48
50.0
100
AcDbBlockEnd
  0
BLOCK
  5
259C1
330
259B6
100
AcDbEntity
  8
0
 48
50.0
100
AcDbBlockBegin
  2
*D44
 70
     1
 10
0.0
 20
0.0
 30
0.0
  3
*D44
  1

  0
LINE
  5
260FF
330
259B6
100
AcDbEntity
  8
寸法
 62
     0
 48
50.0
370
    -2
100
AcDbLine
 10
9423.6
 20
7716.192374468668
 30
0.0
 11
9423.6
 21
7659.199110429836
 31
0.0
  0
LINE
  5
26100
330
259B6
100
AcDbEntity
  8
寸法
 62
     0
 48
50.0
370
    -2
100
AcDbLine
 10
9313.6
 20
7926.907777930208
 30
0.0
 11
9313.6
 21
7659.199110429836
 31
0.0
  0
LINE
  5
26101
330
259B6
100
AcDbEntity
  8
寸法
 62
     0
 48
50.0
370
    -2
100
AcDbLine
 10
9423.6
 20
7719.199110429837
 30
0.0
 11
9313.6
 21
7719.199110429837
 31
0.0
  0
LINE
  5
26102
330
259B6
100
AcDbEntity
  8
寸法
 62
     0
 48
50.0
370
    -2
100
AcDbLine
 10
9313.6
 20
7719.199110429837
 30
0.0
 11
8919.493700787402
 21
7719.199110429837
 31
0.0
  0
INSERT
  5
26103
330
259B6
100
AcDbEntity
  8
寸法
 62
     0
 48
50.0
370
    -2
100
AcDbBlockReference
  2
_DOTSMALL
 10
9423.6
 20
7719.199110429837
 30
0.0
 41
100.0
 42
100.0
 43
100.0
  0
INSERT
  5
26104
330
259B6
100
AcDbEntity
  8
寸法
 62
     0
 48
50.0
370
    -2
100
AcDbBlockReference
  2
_DOTSMALL
 10
9313.6
 20
7719.199110429837
 30
0.0
 41
100.0
 42
100.0
 43
100.0
 50
180.0
  0
MTEXT
  5
26105
330
259B6
100
AcDbEntity
  8
寸法
 62
     7
 48
50.0
100
AcDbMText
 10
9043.54094488189
 20
7819.199110429837
 30
0.0
 40
120.0
 41
0.0
 71
     5
 72
     1
  1
\A1;110
  7
STYLE1
 73
     1
 44
1.0
1001
ACAD
1000
MTEXTBEGIN
1070
    73
1070
     1
1070
    44
1040
1.0
1070
    74
1070
     0
1000
MTEXTEND
  0
POINT
  5
26106
330
259B6
100
AcDbEntity
  8
DEFPOINTS
 62
     0
 48
50.0
100
AcDbPoint
 10
9423.6
 20
7736.192374468668
 30
0.0
  0
POINT
  5
26107
330
259B6
100
AcDbEntity
  8
DEFPOINTS
 62
     0
 48
50.0
100
AcDbPoint
 10
9313.6
 20
7946.907777930208
 30
0.0
  0
POINT
  5
26108
330
259B6
100
AcDbEntity
  8
DEFPOINTS
 62
     0
 48
50.0
100
AcDbPoint
 10
9313.6
 20
7719.199110429837
 30
0.0
  0
ENDBLK
  5
259C2
330
259B6
100
AcDbEntity
  8
0
 48
50.0
100
AcDbBlockEnd
  0
BLOCK
  5
25DE9
330
25DDF
100
AcDbEntity
  8
0
 48
50.0
100
AcDbBlockBegin
  2
*D45
 70
     1
 10
0.0
 20
0.0
 30
0.0
  3
*D45
  1

  0
LINE
  5
26012
330
25DDF
100
AcDbEntity
  8
寸法
 62
     0
 48
50.0
370
    -2
100
AcDbLine
 10
9543.599999999964
 20
5441.907777930239
 30
0.0
 11
9543.599999999964
 21
4772.748662820268
 31
0.0
  0
LINE
  5
26013
330
25DDF
100
AcDbEntity
  8
寸法
 62
     0
 48
50.0
370
    -2
100
AcDbLine
 10
7356.599999999964
 20
5441.907777930236
 30
0.0
 11
7356.599999999964
 21
4772.748662820268
 31
0.0
  0
LINE
  5
26014
330
25DDF
100
AcDbEntity
  8
寸法
 62
     0
 48
50.0
370
    -2
100
AcDbLine
 10
9543.599999999964
 20
4832.748662820268
 30
0.0
 11
7356.599999999964
 21
4832.748662820268
 31
0.0
  0
INSERT
  5
26015
330
25DDF
100
AcDbEntity
  8
寸法
 62
     0
 48
50.0
370
    -2
100
AcDbBlockReference
  2
_DOTSMALL
 10
9543.599999999964
 20
4832.748662820268
 30
0.0
 41
100.0
 42
100.0
 43
100.0
  0
INSERT
  5
26016
330
25DDF
100
AcDbEntity
  8
寸法
 62
     0
 48
50.0
370
    -2
100
AcDbBlockReference
  2
_DOTSMALL
 10
7356.599999999964
 20
4832.748662820268
 30
0.0
 41
100.0
 42
100.0
 43
100.0
 50
180.0
  0
MTEXT
  5
26017
330
25DDF
100
AcDbEntity
  8
寸法
 62
     7
 48
50.0
100
AcDbMText
 10
8450.099999999963
 20
4932.760473843891
 30
0.0
 40
120.0
 41
0.0
 71
     5
 72
     1
  1
\A1;扉の幅 2187
  7
STYLE1
 73
     1
 44
1.0
1001
ACAD
1000
MTEXTBEGIN
1070
    73
1070
     1
1070
    44
1040
1.0
1070
    74
1070
     0
1000
MTEXTEND
  0
POINT
  5
26018
330
25DDF
100
AcDbEntity
  8
DEFPOINTS
 62
     0
 48
50.0
100
AcDbPoint
 10
9543.599999999964
 20
5461.90777793024
 30
0.0
  0
POINT
  5
26019
330
25DDF
100
AcDbEntity
  8
DEFPOINTS
 62
     0
 48
50.0
100
AcDbPoint
 10
7356.599999999964
 20
5461.907777930235
 30
0.0
  0
POINT
  5
2601A
330
25DDF
100
AcDbEntity
  8
DEFPOINTS
 62
     0
 48
50.0
100
AcDbPoint
 10
7356.599999999964
 20
4832.748662820268
 30
0.0
  0
ENDBLK
  5
25DEA
330
25DDF
100
AcDbEntity
  8
0
 48
50.0
100
AcDbBlockEnd
  0
BLOCK
  5
25DF6
330
25DEB
100
AcDbEntity
  8
0
 48
50.0
100
AcDbBlockBegin
  2
*D46
 70
     1
 10
0.0
 20
0.0
 30
0.0
  3
*D46
  1

  0
LINE
  5
260EB
330
25DEB
100
AcDbEntity
  8
寸法
 62
     0
 48
50.0
370
    -2
100
AcDbLine
 10
7376.599999999964
 20
5461.907777930235
 30
0.0
 11
7685.743526793875
 21
5461.907777930235
 31
0.0
  0
LINE
  5
260EC
330
25DEB
100
AcDbEntity
  8
寸法
 62
     0
 48
50.0
370
    -2
100
AcDbLine
 10
7376.599999999964
 20
5656.907777930213
 30
0.0
 11
7685.743526793875
 21
5656.907777930213
 31
0.0
  0
LINE
  5
260ED
330
25DEB
100
AcDbEntity
  8
寸法
 62
     0
 48
50.0
370
    -2
100
AcDbLine
 10
7625.743526793876
 20
5656.907777930213
 30
0.0
 11
7625.743526793876
 21
5461.907777930235
 31
0.0
  0
LINE
  5
260EE
330
25DEB
100
AcDbEntity
  8
寸法
 62
     0
 48
50.0
370
    -2
100
AcDbLine
 10
7625.743526793876
 20
5461.907777930235
 30
0.0
 11
7625.743526793876
 21
5084.517895522445
 31
0.0
  0
INSERT
  5
260EF
330
25DEB
100
AcDbEntity
  8
寸法
 62
     0
 48
50.0
370
    -2
100
AcDbBlockReference
  2
_DOTSMALL
 10
7625.743526793876
 20
5656.907777930213
 30
0.0
 41
100.0
 42
100.0
 43
100.0
 50
90.0
  0
INSERT
  5
260F0
330
25DEB
100
AcDbEntity
  8
寸法
 62
     0
 48
50.0
370
    -2
100
AcDbBlockReference
  2
_DOTSMALL
 10
7625.743526793876
 20
5461.907777930235
 30
0.0
 41
100.0
 42
100.0
 43
100.0
 50
270.0
  0
MTEXT
  5
260F1
330
25DEB
100
AcDbEntity
  8
寸法
 62
     7
 48
50.0
100
AcDbMText
 10
7525.743526793874
 20
5223.212836726342
 30
0.0
 40
120.0
 41
0.0
 71
     5
 72
     1
  1
\A1;195
  7
STYLE1
 11
0.0000000000000001
 21
1.0
 31
0.0
 73
     1
 44
1.0
1001
ACAD
1000
MTEXTBEGIN
1070
    73
1070
     1
1070
    44
1040
1.0
1070
    74
1070
     0
1000
MTEXTEND
  0
POINT
  5
260F2
330
25DEB
100
AcDbEntity
  8
DEFPOINTS
 62
     0
 48
50.0
100
AcDbPoint
 10
7356.599999999964
 20
5461.907777930235
 30
0.0
  0
POINT
  5
260F3
330
25DEB
100
AcDbEntity
  8
DEFPOINTS
 62
     0
 48
50.0
100
AcDbPoint
 10
7356.599999999964
 20
5656.907777930213
 30
0.0
  0
POINT
  5
260F4
330
25DEB
100
AcDbEntity
  8
DEFPOINTS
 62
     0
 48
50.0
100
AcDbPoint
 10
7625.743526793876
 20
5656.907777930213
 30
0.0
  0
ENDBLK
  5
25DF7
330
25DEB
100
AcDbEntity
  8
0
 48
50.0
100
AcDbBlockEnd
  0
BLOCK
  5
263D0
330
263C6
100
AcDbEntity
  8
0
 48
50.0
100
AcDbBlockBegin
  2
*D47
 70
     1
 10
0.0
 20
0.0
 30
0.0
  3
*D47
  1

  0
LINE
  5
26413
330
263C6
100
AcDbEntity
  8
寸法
 62
     0
 48
50.0
370
    -2
100
AcDbLine
 10
8144.580078288642
 20
2159.977071324944
 30
0.0
 11
8686.448678057486
 21
2159.977071324944
 31
0.0
  0
LINE
  5
26414
330
263C6
100
AcDbEntity
  8
寸法
 62
     0
 48
50.0
370
    -2
100
AcDbLine
 10
8144.580078288642
 20
1835.977071324943
 30
0.0
 11
8686.448678057486
 21
1835.977071324943
 31
0.0
  0
LINE
  5
26415
330
263C6
100
AcDbEntity
  8
寸法
 62
     0
 48
50.0
370
    -2
100
AcDbLine
 10
8626.448678057483
 20
2159.977071324944
 30
0.0
 11
8626.448678057483
 21
1835.977071324943
 31
0.0
  0
INSERT
  5
26416
330
263C6
100
AcDbEntity
  8
寸法
 62
     0
 48
50.0
370
    -2
100
AcDbBlockReference
  2
_DOTSMALL
 10
8626.448678057483
 20
2159.977071324944
 30
0.0
 41
100.0
 42
100.0
 43
100.0
 50
90.0
  0
INSERT
  5
26417
330
263C6
100
AcDbEntity
  8
寸法
 62
     0
 48
50.0
370
    -2
100
AcDbBlockReference
  2
_DOTSMALL
 10
8626.448678057483
 20
1835.977071324943
 30
0.0
 41
100.0
 42
100.0
 43
100.0
 50
270.0
  0
MTEXT
  5
26418
330
263C6
100
AcDbEntity
  8
寸法
 62
     7
 48
50.0
100
AcDbMText
 10
8526.448678057484
 20
1997.977071324944
 30
0.0
 40
120.0
 41
0.0
 71
     5
 72
     1
  1
\A1;180
  7
STYLE1
 11
0.0000000000000001
 21
1.0
 31
0.0
 73
     1
 44
1.0
1001
ACAD
1000
MTEXTBEGIN
1070
    73
1070
     1
1070
    44
1040
1.0
1070
    74
1070
     0
1000
MTEXTEND
  0
POINT
  5
26419
330
263C6
100
AcDbEntity
  8
DEFPOINTS
 62
     0
 48
50.0
100
AcDbPoint
 10
8124.580078288643
 20
2159.977071324944
 30
0.0
  0
POINT
  5
2641A
330
263C6
100
AcDbEntity
  8
DEFPOINTS
 62
     0
 48
50.0
100
AcDbPoint
 10
8124.580078288643
 20
1835.977071324943
 30
0.0
  0
POINT
  5
2641B
330
263C6
100
AcDbEntity
  8
DEFPOINTS
 62
     0
 48
50.0
100
AcDbPoint
 10
8626.448678057483
 20
1835.977071324943
 30
0.0
  0
ENDBLK
  5
263D1
330
263C6
100
AcDbEntity
  8
0
 48
50.0
100
AcDbBlockEnd
  0
BLOCK
  5
263E1
330
263D2
100
AcDbEntity
  8
0
 48
50.0
100
AcDbBlockBegin
  2
*D48
 70
     1
 10
0.0
 20
0.0
 30
0.0
  3
*D48
  1

  0
LINE
  5
2641C
330
263D2
100
AcDbEntity
  8
寸法
 62
     0
 48
50.0
370
    -2
100
AcDbLine
 10
7957.380078288643
 20
2212.737071324945
 30
0.0
 11
8686.448678057486
 21
2212.737071324945
 31
0.0
  0
LINE
  5
2641D
330
263D2
100
AcDbEntity
  8
寸法
 62
     0
 48
50.0
370
    -2
100
AcDbLine
 10
8144.580078288642
 20
2159.977071324944
 30
0.0
 11
8686.448678057486
 21
2159.977071324944
 31
0.0
  0
LINE
  5
2641E
330
263D2
100
AcDbEntity
  8
寸法
 62
     0
 48
50.0
370
    -2
100
AcDbLine
 10
8626.448678057483
 20
2212.737071324945
 30
0.0
 11
8626.448678057483
 21
2312.737071324945
 31
0.0
  0
LINE
  5
2641F
330
263D2
100
AcDbEntity
  8
寸法
 62
     0
 48
50.0
370
    -2
100
AcDbLine
 10
8626.448678057483
 20
2159.977071324944
 30
0.0
 11
8626.448678057483
 21
2059.977071324944
 31
0.0
  0
LINE
  5
26420
330
263D2
100
AcDbEntity
  8
寸法
 62
     0
 48
50.0
370
    -2
100
AcDbLine
 10
8626.448678057483
 20
2186.357071324944
 30
0.0
 11
8902.503344176512
 21
2174.853113720731
 31
0.0
  0
LINE
  5
26421
330
263D2
100
AcDbEntity
  8
寸法
 62
     0
 48
50.0
370
    -2
100
AcDbLine
 10
8902.503344176512
 20
2174.853113720731
 30
0.0
 11
8902.503344176512
 21
1642.835306877765
 31
0.0
  0
MTEXT
  5
26422
330
263D2
100
AcDbEntity
  8
寸法
 62
     7
 48
50.0
100
AcDbMText
 10
8802.49153315289
 20
1908.844210299249
 30
0.0
 40
120.0
 41
0.0
 71
     5
 72
     1
  1
\A1;20～25
  7
STYLE1
 11
0.0000000000000001
 21
1.0
 31
0.0
 73
     1
 44
1.0
1001
ACAD
1000
MTEXTBEGIN
1070
    73
1070
     1
1070
    44
1040
1.0
1070
    74
1070
     0
1000
MTEXTEND
  0
LINE
  5
26423
330
263D2
100
AcDbEntity
  8
寸法
 62
     0
 48
50.0
370
    -2
100
AcDbLine
 10
8626.448678057483
 20
2212.737071324945
 30
0.0
 11
8626.448678057483
 21
2159.977071324944
 31
0.0
  0
LINE
  5
26424
330
263D2
100
AcDbEntity
  8
寸法
 62
     0
 48
50.0
370
    -2
100
AcDbLine
 10
8626.448678057483
 20
2212.737071324945
 30
0.0
 11
8626.448678057483
 21
2159.977071324944
 31
0.0
  0
INSERT
  5
26425
330
263D2
100
AcDbEntity
  8
寸法
 62
     0
 48
50.0
370
    -2
100
AcDbBlockReference
  2
_DOTSMALL
 10
8626.448678057483
 20
2212.737071324945
 30
0.0
 41
100.0
 42
100.0
 43
100.0
 50
270.0
  0
INSERT
  5
26426
330
263D2
100
AcDbEntity
  8
寸法
 62
     0
 48
50.0
370
    -2
100
AcDbBlockReference
  2
_DOTSMALL
 10
8626.448678057483
 20
2159.977071324944
 30
0.0
 41
100.0
 42
100.0
 43
100.0
 50
90.0
  0
POINT
  5
26427
330
263D2
100
AcDbEntity
  8
DEFPOINTS
 62
     0
 48
50.0
100
AcDbPoint
 10
7937.380078288644
 20
2212.737071324945
 30
0.0
  0
POINT
  5
26428
330
263D2
100
AcDbEntity
  8
DEFPOINTS
 62
     0
 48
50.0
100
AcDbPoint
 10
8124.580078288643
 20
2159.977071324944
 30
0.0
  0
POINT
  5
26429
330
263D2
100
AcDbEntity
  8
DEFPOINTS
 62
     0
 48
50.0
100
AcDbPoint
 10
8626.448678057483
 20
2159.977071324944
 30
0.0
  0
ENDBLK
  5
263E2
330
263D2
100
AcDbEntity
  8
0
 48
50.0
100
AcDbBlockEnd
  0
BLOCK
  5
263ED
330
263E3
100
AcDbEntity
  8
0
 48
50.0
100
AcDbBlockBegin
  2
*D49
 70
     1
 10
0.0
 20
0.0
 30
0.0
  3
*D49
  1

  0
LINE
  5
2642A
330
263E3
100
AcDbEntity
  8
寸法
 62
     0
 48
50.0
370
    -2
100
AcDbLine
 10
5862.540765111447
 20
1615.977071324943
 30
0.0
 11
5680.120451378988
 21
1615.977071324943
 31
0.0
  0
LINE
  5
2642B
330
263E3
100
AcDbEntity
  8
寸法
 62
     0
 48
50.0
370
    -2
100
AcDbLine
 10
5782.540765111451
 20
1375.977071324943
 30
0.0
 11
5680.120451378988
 21
1375.977071324943
 31
0.0
  0
LINE
  5
2642C
330
263E3
100
AcDbEntity
  8
寸法
 62
     0
 48
50.0
370
    -2
100
AcDbLine
 10
5740.120451378988
 20
1615.977071324943
 30
0.0
 11
5740.120451378988
 21
1375.977071324943
 31
0.0
  0
MTEXT
  5
2642D
330
263E3
100
AcDbEntity
  8
寸法
 62
     7
 48
50.0
100
AcDbMText
 10
5640.120451378987
 20
1495.977071324944
 30
0.0
 40
120.0
 41
0.0
 71
     5
 72
     1
  1
\A1;150
  7
STYLE1
 11
0.0000000000000001
 21
1.0
 31
0.0
 73
     1
 44
1.0
1001
ACAD
1000
MTEXTBEGIN
1070
    73
1070
     1
1070
    44
1040
1.0
1070
    74
1070
     0
1000
MTEXTEND
  0
INSERT
  5
2642E
330
263E3
100
AcDbEntity
  8
寸法
 62
     0
 48
50.0
370
    -2
100
AcDbBlockReference
  2
_DOTSMALL
 10
5740.120451378988
 20
1615.977071324943
 30
0.0
 41
100.0
 42
100.0
 43
100.0
 50
90.0
  0
INSERT
  5
2642F
330
263E3
100
AcDbEntity
  8
寸法
 62
     0
 48
50.0
370
    -2
100
AcDbBlockReference
  2
_DOTSMALL
 10
5740.120451378988
 20
1375.977071324943
 30
0.0
 41
100.0
 42
100.0
 43
100.0
 50
270.0
  0
POINT
  5
26430
330
263E3
100
AcDbEntity
  8
DEFPOINTS
 62
     0
 48
50.0
100
AcDbPoint
 10
5882.540765111447
 20
1615.977071324943
 30
0.0
  0
POINT
  5
26431
330
263E3
100
AcDbEntity
  8
DEFPOINTS
 62
     0
 48
50.0
100
AcDbPoint
 10
5802.540765111452
 20
1375.977071324943
 30
0.0
  0
POINT
  5
26432
330
263E3
100
AcDbEntity
  8
DEFPOINTS
 62
     0
 48
50.0
100
AcDbPoint
 10
5740.120451378988
 20
1375.977071324943
 30
0.0
  0
ENDBLK
  5
263EE
330
263E3
100
AcDbEntity
  8
0
 48
50.0
100
AcDbBlockEnd
  0
BLOCK
  5
263F9
330
263EF
100
AcDbEntity
  8
0
 48
50.0
100
AcDbBlockBegin
  2
*D50
 70
     1
 10
0.0
 20
0.0
 30
0.0
  3
*D50
  1

  0
LINE
  5
26433
330
263EF
100
AcDbEntity
  8
寸法
 62
     0
 48
50.0
370
    -2
100
AcDbLine
 10
5990.540765111447
 20
2159.977071324944
 30
0.0
 11
5215.503526549707
 21
2159.977071324944
 31
0.0
  0
LINE
  5
26434
330
263EF
100
AcDbEntity
  8
寸法
 62
     0
 48
50.0
370
    -2
100
AcDbLine
 10
5782.540765111451
 20
1375.977071324943
 30
0.0
 11
5215.503526549706
 21
1375.977071324944
 31
0.0
  0
LINE
  5
26435
330
263EF
100
AcDbEntity
  8
寸法
 62
     0
 48
50.0
370
    -2
100
AcDbLine
 10
5275.503526549707
 20
2159.977071324944
 30
0.0
 11
5275.503526549706
 21
1375.977071324944
 31
0.0
  0
MTEXT
  5
26436
330
263EF
100
AcDbEntity
  8
寸法
 62
     7
 48
50.0
100
AcDbMText
 10
5175.503526549707
 20
1747.517220980944
 30
0.0
 40
120.0
 41
0.0
 71
     5
 72
     1
  1
\A1;540
  7
STYLE1
 11
0.0000000000000001
 21
1.0
 31
0.0
 73
     1
 44
1.0
1001
ACAD
1000
MTEXTBEGIN
1070
    73
1070
     1
1070
    44
1040
1.0
1070
    74
1070
     0
1000
MTEXTEND
  0
INSERT
  5
26437
330
263EF
100
AcDbEntity
  8
寸法
 62
     0
 48
50.0
370
    -2
100
AcDbBlockReference
  2
_DOTSMALL
 10
5275.503526549707
 20
2159.977071324944
 30
0.0
 41
100.0
 42
100.0
 43
100.0
 50
90.0
  0
INSERT
  5
26438
330
263EF
100
AcDbEntity
  8
寸法
 62
     0
 48
50.0
370
    -2
100
AcDbBlockReference
  2
_DOTSMALL
 10
5275.503526549706
 20
1375.977071324944
 30
0.0
 41
100.0
 42
100.0
 43
100.0
 50
270.0
  0
POINT
  5
26439
330
263EF
100
AcDbEntity
  8
DEFPOINTS
 62
     0
 48
50.0
100
AcDbPoint
 10
6010.540765111447
 20
2159.977071324944
 30
0.0
  0
POINT
  5
2643A
330
263EF
100
AcDbEntity
  8
DEFPOINTS
 62
     0
 48
50.0
100
AcDbPoint
 10
5802.540765111452
 20
1375.977071324943
 30
0.0
  0
POINT
  5
2643B
330
263EF
100
AcDbEntity
  8
DEFPOINTS
 62
     0
 48
50.0
100
AcDbPoint
 10
5275.503526549706
 20
1375.977071324944
 30
0.0
  0
ENDBLK
  5
263FA
330
263EF
100
AcDbEntity
  8
0
 48
50.0
100
AcDbBlockEnd
  0
BLOCK
  5
26405
330
263FB
100
AcDbEntity
  8
0
 48
50.0
100
AcDbBlockBegin
  2
*D51
 70
     1
 10
0.0
 20
0.0
 30
0.0
  3
*D51
  1

  0
LINE
  5
2643C
330
263FB
100
AcDbEntity
  8
寸法
 62
     0
 48
50.0
370
    -2
100
AcDbLine
 10
5882.540765111447
 20
1227.977071324943
 30
0.0
 11
5882.540765111447
 21
777.5474333197835
 31
0.0
  0
LINE
  5
2643D
330
263FB
100
AcDbEntity
  8
寸法
 62
     0
 48
50.0
370
    -2
100
AcDbLine
 10
6330.540765111448
 20
1227.977071324943
 30
0.0
 11
6330.540765111448
 21
777.5474333197835
 31
0.0
  0
LINE
  5
2643E
330
263FB
100
AcDbEntity
  8
寸法
 62
     0
 48
50.0
370
    -2
100
AcDbLine
 10
5882.540765111447
 20
837.5474333197836
 30
0.0
 11
6330.540765111448
 21
837.5474333197836
 31
0.0
  0
MTEXT
  5
2643F
330
263FB
100
AcDbEntity
  8
寸法
 62
     7
 48
50.0
100
AcDbMText
 10
6086.444006433224
 20
937.5474333197836
 30
0.0
 40
120.0
 41
0.0
 71
     5
 72
     1
  1
\A1;300
  7
STYLE1
 73
     1
 44
1.0
1001
ACAD
1000
MTEXTBEGIN
1070
    73
1070
     1
1070
    44
1040
1.0
1070
    74
1070
     0
1000
MTEXTEND
  0
INSERT
  5
26440
330
263FB
100
AcDbEntity
  8
寸法
 62
     0
 48
50.0
370
    -2
100
AcDbBlockReference
  2
_DOTSMALL
 10
5882.540765111447
 20
837.5474333197836
 30
0.0
 41
100.0
 42
100.0
 43
100.0
 50
180.0
  0
INSERT
  5
26441
330
263FB
100
AcDbEntity
  8
寸法
 62
     0
 48
50.0
370
    -2
100
AcDbBlockReference
  2
_DOTSMALL
 10
6330.540765111448
 20
837.5474333197836
 30
0.0
 41
100.0
 42
100.0
 43
100.0
  0
POINT
  5
26442
330
263FB
100
AcDbEntity
  8
DEFPOINTS
 62
     0
 48
50.0
100
AcDbPoint
 10
5882.540765111447
 20
1247.977071324944
 30
0.0
  0
POINT
  5
26443
330
263FB
100
AcDbEntity
  8
DEFPOINTS
 62
     0
 48
50.0
100
AcDbPoint
 10
6330.540765111448
 20
1247.977071324944
 30
0.0
  0
POINT
  5
26444
330
263FB
100
AcDbEntity
  8
DEFPOINTS
 62
     0
 48
50.0
100
AcDbPoint
 10
6330.540765111448
 20
837.5474333197836
 30
0.0
  0
ENDBLK
  5
26406
330
263FB
100
AcDbEntity
  8
0
 48
50.0
100
AcDbBlockEnd
  0
BLOCK
  5
26411
330
26407
100
AcDbEntity
  8
0
 48
50.0
100
AcDbBlockBegin
  2
*D52
 70
     1
 10
0.0
 20
0.0
 30
0.0
  3
*D52
  1

  0
LINE
  5
26445
330
26407
100
AcDbEntity
  8
寸法
 62
     0
 48
50.0
370
    -2
100
AcDbLine
 10
6202.540765111447
 20
2179.977071324944
 30
0.0
 11
6202.540765111447
 21
2539.977071324944
 31
0.0
  0
LINE
  5
26446
330
26407
100
AcDbEntity
  8
寸法
 62
     0
 48
50.0
370
    -2
100
AcDbLine
 10
6010.540765111447
 20
2179.977071324944
 30
0.0
 11
6010.540765111447
 21
2539.977071324944
 31
0.0
  0
LINE
  5
26447
330
26407
100
AcDbEntity
  8
寸法
 62
     0
 48
50.0
370
    -2
100
AcDbLine
 10
6202.540765111447
 20
2479.977071324944
 30
0.0
 11
6010.540765111447
 21
2479.977071324944
 31
0.0
  0
MTEXT
  5
26448
330
26407
100
AcDbEntity
  8
寸法
 62
     7
 48
50.0
100
AcDbMText
 10
6117.767095456645
 20
2779.656690264946
 30
0.0
 40
120.0
 41
0.0
 71
     5
 72
     1
  1
\A1;120\P195
  7
STYLE1
 73
     1
 44
1.0
1001
ACAD
1000
MTEXTBEGIN
1070
    73
1070
     1
1070
    44
1040
1.0
1070
    74
1070
     0
1000
MTEXTEND
  0
INSERT
  5
26449
330
26407
100
AcDbEntity
  8
寸法
 62
     0
 48
50.0
370
    -2
100
AcDbBlockReference
  2
_DOTSMALL
 10
6202.540765111447
 20
2479.977071324944
 30
0.0
 41
100.0
 42
100.0
 43
100.0
  0
INSERT
  5
2644A
330
26407
100
AcDbEntity
  8
寸法
 62
     0
 48
50.0
370
    -2
100
AcDbBlockReference
  2
_DOTSMALL
 10
6010.540765111447
 20
2479.977071324944
 30
0.0
 41
100.0
 42
100.0
 43
100.0
 50
180.0
  0
POINT
  5
2644B
330
26407
100
AcDbEntity
  8
DEFPOINTS
 62
     0
 48
50.0
100
AcDbPoint
 10
6202.540765111447
 20
2159.977071324944
 30
0.0
  0
POINT
  5
2644C
330
26407
100
AcDbEntity
  8
DEFPOINTS
 62
     0
 48
50.0
100
AcDbPoint
 10
6010.540765111447
 20
2159.977071324944
 30
0.0
  0
POINT
  5
2644D
330
26407
100
AcDbEntity
  8
DEFPOINTS
 62
     0
 48
50.0
100
AcDbPoint
 10
6010.540765111447
 20
2479.977071324944
 30
0.0
  0
ENDBLK
  5
26412
330
26407
100
AcDbEntity
  8
0
 48
50.0
100
AcDbBlockEnd
  0
ENDSEC
  0
SECTION
  2
ENTITIES
  0
MTEXT
  5
763F
330
747D
100
AcDbEntity
  8
0
100
AcDbMText
 10
302.846345836809
 20
280.1983726409901
 30
0.0
 40
3.5
 41
5.323721266742722
 71
     1
 72
     5
  1

  7
MSMINCHO
 73
     1
 44
1.0
1001
ACAD
1000
MTEXTBEGIN
1070
    73
1070
     1
1070
    44
1040
1.0
1070
    74
1070
     0
1000
MTEXTEND
  0
LINE
  5
10B57
330
747D
100
AcDbEntity
  8
補助
  6
PHANTOM
 62
   230
 48
50.0
100
AcDbLine
 10
139.9999999999995
 20
11409.6
 30
0.0
 11
16307.2
 21
11409.6
 31
0.0
  0
LINE
  5
10B59
330
747D
100
AcDbEntity
  8
仕様書枠
  6
Continuous
 48
50.0
100
AcDbLine
 10
13107.2
 20
1200.0
 30
0.0
 11
13107.2
 21
-0.0000000000000729
 31
0.0
  0
LINE
  5
10B5D
330
747D
100
AcDbEntity
  8
仕様書枠
 48
50.0
100
AcDbLine
 10
140.0
 20
0.0
 30
0.0
 11
16307.2
 21
-0.0000000000000909
 31
0.0
  0
LINE
  5
10B5E
330
747D
100
AcDbEntity
  8
補助
  6
PHANTOM
 62
   230
 48
50.0
100
AcDbLine
 10
16307.2
 20
11409.6
 30
0.0
 11
16307.2
 21
1200.0
 31
0.0
  0
LINE
  5
10B6C
330
747D
100
AcDbEntity
  8
仕様書枠
 48
50.0
100
AcDbLine
 10
13107.2
 20
1200.0
 30
0.0
 11
16307.2
 21
1200.0
 31
0.0
  0
TEXT
  5
10B73
330
747D
100
AcDbEntity
  8
文字
 62
     7
 48
50.0
100
AcDbText
 10
13162.9790565769
 20
895.0906074299405
 30
0.0
 40
200.0
  1
基 礎 図
  7
STYLE2
100
AcDbText
  0
LINE
  5
10B7B
330
747D
100
AcDbEntity
  8
仕様書枠
 48
50.0
100
AcDbLine
 10
13107.2
 20
800.0
 30
0.0
 11
14251.2
 21
800.0
 31
0.0
  0
LINE
  5
10B88
330
747D
100
AcDbEntity
  8
仕様書枠
  6
Continuous
 48
50.0
100
AcDbLine
 10
14251.2
 20
1200.0
 30
0.0
 11
14251.2
 21
800.0
 31
0.0
  0
LINE
  5
16462
330
747D
100
AcDbEntity
  8
仕様書枠
 48
50.0
100
AcDbLine
 10
16307.2
 20
1200.0
 30
0.0
 11
16307.2
 21
-0.0000000000000909
 31
0.0
  0
LINE
  5
1903B
330
747D
100
AcDbEntity
  8
補助
  6
PHANTOM
 62
   230
 48
50.0
100
AcDbLine
 10
140.0
 20
0.0
 30
0.0
 11
139.9999999999995
 21
11409.6
 31
0.0
  0
TEXT
  5
1C7A1
330
747D
100
AcDbEntity
  8
文字
 62
     7
 48
50.0
100
AcDbText
 10
13188.16259899338
 20
79.80631269190417
 30
0.0
 40
80.0
  1
※布基礎には換気口を設けてください。
  7
STYLE2
100
AcDbText
  0
TEXT
  5
1C7E7
330
747D
100
AcDbEntity
  8
文字
 62
     7
 48
50.0
100
AcDbText
 10
13188.16259899338
 20
246.7109242801889
 30
0.0
 40
80.0
  1
※寒冷地等は地域の実情に合わせた基礎にして下さい。
  7
STYLE2
100
AcDbText
  0
TEXT
  5
1C7E8
330
747D
100
AcDbEntity
  8
文字
 62
     7
 48
50.0
100
AcDbText
 10
14393.85525645384
 20
499.5983841039506
 30
0.0
 40
160.0
  1
ＮＸＮ－７０ＳＡ/ＨＡ
  7
STYLE2
100
AcDbText
  0
TEXT
  5
1C7E9
330
747D
100
AcDbEntity
  8
文字
 62
     7
 48
50.0
100
AcDbText
 10
14641.2525855784
 20
871.1744590657927
 30
0.0
 40
100.0
  1
～一般型・多雪地型～
  7
STYLE2
100
AcDbText
  0
TEXT
  5
1C7EC
330
747D
100
AcDbEntity
  8
文字
 62
     7
 48
50.0
100
AcDbText
 10
14524.131837222
 20
1031.557706291229
 30
0.0
 40
100.0
  1
　    <縮尺> S=1/40
  7
STYLE2
100
AcDbText
  0
TEXT
  5
1C7ED
330
747D
100
AcDbEntity
  8
文字
 62
     7
 48
50.0
100
AcDbText
 10
13201.43669998441
 20
477.2740661031257
 30
0.0
 40
160.0
  1
機種名
  7
STYLE2
100
AcDbText
  0
LINE
  5
1C7EF
330
747D
100
AcDbEntity
  8
文字
 62
     7
 48
50.0
100
AcDbLine
 10
13187.2
 20
400.0
 30
0.0
 11
16227.2
 21
400.0
 31
0.0
  0
DIMENSION
  5
24EEC
330
747D
100
AcDbEntity
  8
寸法
 48
50.0
100
AcDbDimension
  2
*D19
 10
9593.6
 20
9135.128099989129
 30
0.0
 11
9859.774621202461
 21
9135.128099989129
 31
0.0
 70
   160
  1
a
 71
     5
 42
50.0
  3
INABA_S40G
100
AcDbAlignedDimension
 13
9543.600000000001
 23
8176.907777930209
 33
0.0
 14
9593.6
 24
8922.667404472296
 34
0.0
100
AcDbRotatedDimension
1001
ACAD
1000
DSTYLE
1002
{
1070
   174
1070
     0
1070
   272
1070
     1
1070
   341
1005
0
1002
}
  0
DIMENSION
  5
24EED
330
747D
100
AcDbEntity
  8
寸法
 48
50.0
100
AcDbDimension
  2
*D20
 10
6903.6
 20
9135.128099989129
 30
0.0
 11
6587.425378797542
 21
9135.128099989129
 31
0.0
 70
   160
  1
a
 71
     5
 42
50.0
  3
INABA_S40G
100
AcDbAlignedDimension
 13
6853.6
 23
8922.667404472289
 33
0.0
 14
6903.6
 24
8176.907777930209
 34
0.0
100
AcDbRotatedDimension
1001
ACAD
1000
DSTYLE
1002
{
1070
   174
1070
     0
1070
   272
1070
     1
1070
   341
1005
0
1002
}
  0
DIMENSION
  5
24EEE
330
747D
100
AcDbEntity
  8
寸法
 48
50.0
100
AcDbDimension
  2
*D21
 10
9543.600000000001
 20
9135.128099989129
 30
0.0
 11
8223.600000000001
 21
9235.139911012751
 31
0.0
 70
    32
 71
     5
 42
2640.0
  3
INABA_S40G
100
AcDbAlignedDimension
 13
6903.6
 23
8176.907777930209
 33
0.0
 14
9543.600000000001
 24
8176.907777930209
 34
0.0
100
AcDbRotatedDimension
1001
ACAD
1000
DSTYLE
1002
{
1070
   174
1070
     0
1070
   272
1070
     1
1070
   341
1005
0
1002
}
  0
LINE
  5
24EEF
330
747D
100
AcDbEntity
  8
部品1
 48
50.0
100
AcDbLine
 10
6903.599999999965
 20
5536.907777930204
 30
0.0
 11
7356.599999999964
 21
5536.907777930204
 31
0.0
  0
DIMENSION
  5
24EF0
330
747D
100
AcDbEntity
  8
寸法
 48
50.0
100
AcDbDimension
  2
*D22
 10
6903.599999999965
 20
4832.748662820255
 30
0.0
 11
7130.099999999965
 21
4932.748662820255
 31
0.0
 70
    32
 71
     5
 42
453.0
  3
INABA_S40G
100
AcDbAlignedDimension
 13
7356.599999999964
 23
5461.907777930222
 33
0.0
 14
6903.599999999965
 24
5536.907777930204
 34
0.0
100
AcDbRotatedDimension
1001
ACAD
1000
DSTYLE
1002
{
1070
   174
1070
     0
1070
   272
1070
     1
1070
   341
1005
0
1002
}
  0
LINE
  5
24EF1
330
747D
100
AcDbEntity
  8
部品1
 48
50.0
100
AcDbLine
 10
7302.928907166848
 20
8176.907777930203
 30
0.0
 11
6903.6
 21
8176.907777930209
 31
0.0
  0
DIMENSION
  5
24EF2
330
747D
100
AcDbEntity
  8
寸法
 48
50.0
100
AcDbDimension
  2
*D23
 10
7026.600000000001
 20
8922.66740447229
 30
0.0
 11
8223.600000000001
 21
9022.679215495912
 31
0.0
 70
    32
 71
     5
 42
2394.0
  3
INABA_S40G
100
AcDbAlignedDimension
 13
9420.6
 23
8103.907777930208
 33
0.0
 14
7026.600000000001
 24
8103.907777930208
 34
0.0
100
AcDbRotatedDimension
1001
ACAD
1000
DSTYLE
1002
{
1070
   174
1070
     0
1070
   272
1070
     1
1070
   341
1005
0
1002
}
  0
LINE
  5
24EF3
102
{ACAD_REACTORS
330
2605F
102
}
330
747D
100
AcDbEntity
  8
部品1
 48
50.0
100
AcDbLine
 10
9543.600000000001
 20
8176.907777930209
 30
0.0
 11
6903.6
 21
8176.907777930209
 31
0.0
  0
DIMENSION
  5
24EF5
330
747D
100
AcDbEntity
  8
寸法
 48
50.0
100
AcDbDimension
  2
*D24
 10
7350.307249876099
 20
7946.907777930204
 30
0.0
 11
7350.307249876097
 21
7606.848722812093
 31
0.0
 70
   160
 71
     5
 42
110.0000000000072
  3
INABA_S40G
100
AcDbAlignedDimension
 13
7133.6
 23
8056.907777930211
 33
0.0
 14
7133.6
 24
7946.907777930204
 34
0.0
 50
90.0
100
AcDbRotatedDimension
1001
ACAD
1000
DSTYLE
1002
{
1070
   174
1070
     0
1070
   272
1070
     1
1070
   341
1005
0
1002
}
  0
DIMENSION
  5
24EF7
330
747D
100
AcDbEntity
  8
寸法
 48
50.0
100
AcDbDimension
  2
*D25
 10
7252.197085004765
 20
5536.907777930208
 30
0.0
 11
7252.197085004763
 21
5266.848722812097
 31
0.0
 70
   160
 71
     5
 42
120.0000000000073
  3
INABA_S40G
100
AcDbAlignedDimension
 13
7133.6
 23
5656.907777930215
 33
0.0
 14
7133.6
 24
5536.907777930208
 34
0.0
 50
90.0
100
AcDbRotatedDimension
1001
ACAD
1000
DSTYLE
1002
{
1070
   174
1070
     0
1070
   272
1070
     1
1070
   341
1005
0
1002
}
  0
DIMENSION
  5
24EF9
330
747D
100
AcDbEntity
  8
寸法
 48
50.0
100
AcDbDimension
  2
*D26
 10
7252.197085004765
 20
5766.907777930211
 30
0.0
 11
7252.197085004763
 21
6106.966833048324
 31
0.0
 70
   160
 71
     5
 42
110.0
  3
INABA_S40G
100
AcDbAlignedDimension
 13
7133.6
 23
5656.907777930212
 33
0.0
 14
7133.6
 24
5766.907777930211
 34
0.0
 50
90.0
100
AcDbRotatedDimension
1001
ACAD
1000
DSTYLE
1002
{
1070
   174
1070
     0
1070
   272
1070
     1
1070
   341
1005
0
1002
}
  0
DIMENSION
  5
24EFB
330
747D
100
AcDbEntity
  8
寸法
 48
50.0
100
AcDbDimension
  2
*D27
 10
6903.6
 20
8703.817543578535
 30
0.0
 11
7356.100000000001
 21
8803.817543578537
 31
0.0
 70
    32
 71
     5
 42
905.0
  3
INABA_S40G
100
AcDbAlignedDimension
 13
7808.6
 23
7501.907777930208
 33
0.0
 14
6903.6
 24
8176.907777930209
 34
0.0
100
AcDbRotatedDimension
1001
ACAD
1000
DSTYLE
1002
{
1070
   174
1070
     0
1070
   272
1070
     1
1070
   341
1005
0
1002
}
  0
DIMENSION
  5
24EFC
330
747D
100
AcDbEntity
  8
寸法
 48
50.0
100
AcDbDimension
  2
*D28
 10
7350.307249876099
 20
8176.907777930209
 30
0.0
 11
7350.307249876097
 21
8454.991321203094
 31
0.0
 70
   160
 71
     5
 42
120.0
  3
INABA_S40G
100
AcDbAlignedDimension
 13
7133.6
 23
8056.907777930208
 33
0.0
 14
7133.6
 24
8176.907777930209
 34
0.0
 50
90.0
100
AcDbRotatedDimension
1001
ACAD
1000
DSTYLE
1002
{
1070
   174
1070
     0
1070
   272
1070
     1
1070
   341
1005
0
1002
}
  0
DIMENSION
  5
24EFF
330
747D
100
AcDbEntity
  8
寸法
 48
50.0
100
AcDbDimension
  2
*D29
 10
5855.002973219971
 20
5659.907777930209
 30
0.0
 11
5855.002973219971
 21
6891.907777930206
 31
0.0
 70
   160
 71
     5
 42
2394.0
  3
INABA_S40G
100
AcDbAlignedDimension
 13
6976.600000000001
 23
8053.907777930207
 33
0.0
 14
6976.600000000008
 24
5659.907777930207
 34
0.0
 50
90.0
100
AcDbRotatedDimension
1001
ACAD
1000
DSTYLE
1002
{
1070
   174
1070
     0
1070
   272
1070
     1
1070
   341
1005
0
1002
}
  0
DIMENSION
  5
24F00
330
747D
100
AcDbEntity
  8
寸法
 48
50.0
100
AcDbDimension
  2
*D30
 10
5603.059876500574
 20
8176.907777930209
 30
0.0
 11
5603.059876500573
 21
6821.90777793021
 31
0.0
 70
   160
 71
     5
 42
2640.0
  3
INABA_S40G
100
AcDbAlignedDimension
 13
6903.6
 23
5536.907777930208
 33
0.0
 14
6903.6
 24
8176.907777930209
 34
0.0
 50
90.0
100
AcDbRotatedDimension
1001
ACAD
1000
DSTYLE
1002
{
1070
   174
1070
     0
1070
   272
1070
     1
1070
   341
1005
0
1002
}
  0
LINE
  5
24F02
102
{ACAD_REACTORS
330
26080
102
}
330
747D
100
AcDbEntity
  8
部品1
 48
50.0
100
AcDbLine
 10
6903.6
 20
5536.907777930208
 30
0.0
 11
6903.6
 21
8176.907777930209
 31
0.0
  0
LINE
  5
24F03
330
747D
100
AcDbEntity
  8
センター
 48
2.0
100
AcDbLine
 10
7026.600000000008
 20
5709.907777930208
 30
0.0
 11
7026.600000000008
 21
5609.907777930208
 31
0.0
  0
DIMENSION
  5
24F04
330
747D
100
AcDbEntity
  8
寸法
 48
50.0
100
AcDbDimension
  2
*D31
 10
5855.002973219971
 20
5536.907777930209
 30
0.0
 11
5855.002973219971
 21
5263.80117621241
 31
0.0
 70
   160
 71
     5
 42
123.0
  3
INABA_S40G
100
AcDbAlignedDimension
 13
6976.600000000008
 23
5659.907777930207
 33
0.0
 14
6903.6
 24
5536.907777930208
 34
0.0
 50
90.0
100
AcDbRotatedDimension
1001
ACAD
1000
DSTYLE
1002
{
1070
   174
1070
     0
1070
   272
1070
     1
1070
   341
1005
0
1002
}
  0
DIMENSION
  5
24F05
330
747D
100
AcDbEntity
  8
寸法
 48
50.0
100
AcDbDimension
  2
*D32
 10
5603.059876500576
 20
5536.907777930209
 30
0.0
 11
5603.059876500574
 21
5499.407777930218
 31
0.0
 70
   160
  1
c
 71
     5
 42
74.99999999998363
  3
INABA_S40G
100
AcDbAlignedDimension
 13
5855.002973219971
 23
5461.907777930225
 33
0.0
 14
6903.6
 24
5536.907777930208
 34
0.0
 50
90.0
100
AcDbRotatedDimension
1001
ACAD
1000
DSTYLE
1002
{
1070
   174
1070
     0
1070
   272
1070
     1
1070
   341
1005
0
1002
}
  0
LINE
  5
24F06
330
747D
100
AcDbEntity
  8
センター
 48
2.0
100
AcDbLine
 10
6976.600000000008
 20
5659.907777930207
 30
0.0
 11
7076.600000000007
 21
5659.907777930207
 31
0.0
  0
CIRCLE
  5
24F07
330
747D
100
AcDbEntity
  8
部品1
 48
50.0
100
AcDbCircle
 10
7026.600000000008
 20
5659.907777930207
 30
0.0
 40
35.0
  0
LINE
  5
24F08
330
747D
100
AcDbEntity
  8
部品1
 48
50.0
100
AcDbLine
 10
7133.6
 20
5766.907777930211
 30
0.0
 11
7023.6
 21
5766.907777930208
 31
0.0
  0
LINE
  5
24F09
330
747D
100
AcDbEntity
  8
部品1
 48
50.0
100
AcDbLine
 10
7133.6
 20
5656.907777930212
 30
0.0
 11
7133.6
 21
5766.907777930211
 31
0.0
  0
LINE
  5
24F0A
102
{ACAD_REACTORS
330
26080
102
}
330
747D
100
AcDbEntity
  8
部品1
 48
50.0
100
AcDbLine
 10
7023.6
 20
6756.907777930216
 30
0.0
 11
6903.6
 21
6756.907777930218
 31
0.0
  0
LINE
  5
24F0B
102
{ACAD_REACTORS
330
26080
102
}
330
747D
100
AcDbEntity
  8
部品1
 48
50.0
100
AcDbLine
 10
7023.6
 20
6956.907777930216
 30
0.0
 11
6903.6
 21
6956.907777930218
 31
0.0
  0
DIMENSION
  5
24F0C
330
747D
100
AcDbEntity
  8
寸法
 48
50.0
100
AcDbDimension
  2
*D33
 10
5603.059876500576
 20
8231.907777930208
 30
0.0
 11
5603.059876500574
 21
8204.40777793021
 31
0.0
 70
   160
  1
b
 71
     5
 42
55.0
  3
INABA_S40G
100
AcDbAlignedDimension
 13
6903.6
 23
8176.907777930209
 33
0.0
 14
5855.002973219971
 24
8231.907777930208
 34
0.0
 50
90.0
100
AcDbRotatedDimension
1001
ACAD
1000
DSTYLE
1002
{
1070
   174
1070
     0
1070
   272
1070
     1
1070
   341
1005
0
1002
}
  0
DIMENSION
  5
24F0D
330
747D
100
AcDbEntity
  8
寸法
 48
50.0
100
AcDbDimension
  2
*D34
 10
5855.002973219971
 20
8053.907777930209
 30
0.0
 11
5855.002973219971
 21
8490.014379648007
 31
0.0
 70
   160
 71
     5
 42
123.0
  3
INABA_S40G
100
AcDbAlignedDimension
 13
6903.6
 23
8176.907777930209
 33
0.0
 14
6976.600000000001
 24
8053.907777930207
 34
0.0
 50
90.0
100
AcDbRotatedDimension
1001
ACAD
1000
DSTYLE
1002
{
1070
   174
1070
     0
1070
   272
1070
     1
1070
   341
1005
0
1002
}
  0
DIMENSION
  5
24F0E
330
747D
100
AcDbEntity
  8
寸法
 48
50.0
100
AcDbDimension
  2
*D35
 10
6903.6
 20
8922.66740447229
 30
0.0
 11
6630.493398282202
 21
8922.66740447229
 31
0.0
 70
   160
 71
     5
 42
123.0
  3
INABA_S40G
100
AcDbAlignedDimension
 13
7026.600000000001
 23
8103.907777930208
 33
0.0
 14
6903.6
 24
8176.907777930209
 34
0.0
100
AcDbRotatedDimension
1001
ACAD
1000
DSTYLE
1002
{
1070
   174
1070
     0
1070
   272
1070
     1
1070
   341
1005
0
1002
}
  0
LINE
  5
24F0F
330
747D
100
AcDbEntity
  8
センター
 48
2.0
100
AcDbLine
 10
6976.600000000001
 20
8053.907777930207
 30
0.0
 11
7076.6
 21
8053.907777930207
 31
0.0
  0
CIRCLE
  5
24F10
330
747D
100
AcDbEntity
  8
部品1
 48
50.0
100
AcDbCircle
 10
7026.600000000001
 20
8053.907777930207
 30
0.0
 40
35.0
  0
LINE
  5
24F11
330
747D
100
AcDbEntity
  8
部品1
 48
50.0
100
AcDbLine
 10
7133.6
 20
7946.907777930204
 30
0.0
 11
7133.6
 21
8056.907777930209
 31
0.0
  0
LINE
  5
24F12
330
747D
100
AcDbEntity
  8
部品1
 48
50.0
100
AcDbLine
 10
7133.6
 20
7946.907777930204
 30
0.0
 11
7023.6
 21
7946.907777930208
 31
0.0
  0
LINE
  5
24F13
330
747D
100
AcDbEntity
  8
センター
 48
2.0
100
AcDbLine
 10
7026.600000000001
 20
8103.907777930208
 30
0.0
 11
7026.600000000001
 21
8003.907777930207
 31
0.0
  0
DIMENSION
  5
24F16
330
747D
100
AcDbEntity
  8
寸法
 48
50.0
100
AcDbDimension
  2
*D36
 10
6171.82307490516
 20
6411.907777930207
 30
0.0
 11
6071.823074905158
 21
6856.90777793021
 31
0.0
 70
    32
 71
     5
 42
890.0
  3
INABA_S40G
100
AcDbAlignedDimension
 13
7708.600000000003
 23
7301.907777930208
 33
0.0
 14
7708.600000000003
 24
6411.907777930207
 34
0.0
 50
90.0
100
AcDbRotatedDimension
1001
ACAD
1000
DSTYLE
1002
{
1070
   174
1070
     0
1070
   272
1070
     1
1070
   341
1005
0
1002
}
  0
LINE
  5
24F18
102
{ACAD_REACTORS
330
260C2
102
}
330
747D
100
AcDbEntity
  8
部品1
 48
50.0
100
AcDbLine
 10
9543.600000000001
 20
5536.907777930226
 30
0.0
 11
9543.600000000001
 21
8176.907777930209
 31
0.0
  0
LINE
  5
24F19
330
747D
100
AcDbEntity
  8
想像線
 48
10.0
100
AcDbLine
 10
9593.6
 20
8231.907777930212
 30
0.0
 11
9593.6
 21
5461.907777930212
 31
0.0
  0
LINE
  5
24F1C
102
{ACAD_REACTORS
330
260A1
102
}
330
747D
100
AcDbEntity
  8
部品1
 48
50.0
100
AcDbLine
 10
9543.599999999964
 20
5461.907777930225
 30
0.0
 11
7356.599999999964
 21
5461.907777930206
 31
0.0
  0
LINE
  5
24F1E
102
{ACAD_REACTORS
330
260A1
102
}
330
747D
100
AcDbEntity
  8
部品1
 48
50.0
100
AcDbLine
 10
8323.600000000014
 20
5461.907777930218
 30
0.0
 11
8323.600000000018
 21
5656.907777930217
 31
0.0
  0
LINE
  5
24F1F
102
{ACAD_REACTORS
330
260A1
102
}
330
747D
100
AcDbEntity
  8
部品1
 48
50.0
100
AcDbLine
 10
8123.600000000015
 20
5461.907777930218
 30
0.0
 11
8123.600000000021
 21
5656.907777930217
 31
0.0
  0
DIMENSION
  5
24F21
330
747D
100
AcDbEntity
  8
寸法
 48
50.0
100
AcDbDimension
  2
*D37
 10
6171.82307490516
 20
6411.907777930207
 30
0.0
 11
6071.823074905158
 21
5974.407777930213
 31
0.0
 70
    32
 71
     5
 42
874.9999999999927
  3
INABA_S40G
100
AcDbAlignedDimension
 13
6903.599999999965
 23
5536.907777930215
 33
0.0
 14
7708.600000000003
 24
6411.907777930207
 34
0.0
 50
90.0
100
AcDbRotatedDimension
1001
ACAD
1000
DSTYLE
1002
{
1070
   174
1070
     0
1070
   272
1070
     1
1070
   341
1005
0
1002
}
  0
LINE
  5
24F24
330
747D
100
AcDbEntity
  8
部品1
 48
50.0
100
AcDbLine
 10
7356.599999999964
 20
5461.907777930222
 30
0.0
 11
7356.599999999964
 21
5536.907777930206
 31
0.0
  0
LINE
  5
24F27
330
747D
100
AcDbEntity
  8
部品1
 48
50.0
100
AcDbLine
 10
7908.599999999999
 20
6211.907777930208
 30
0.0
 11
7908.599999999999
 21
6611.907777930207
 31
0.0
  0
LINE
  5
24F28
330
747D
100
AcDbEntity
  8
部品1
 48
50.0
100
AcDbLine
 10
7708.6
 20
6211.907777930208
 30
0.0
 11
7708.6
 21
6611.907777930207
 31
0.0
  0
LINE
  5
24F29
330
747D
100
AcDbEntity
  8
部品1
 48
50.0
100
AcDbLine
 10
7908.599999999999
 20
6211.907777930208
 30
0.0
 11
7708.6
 21
6211.907777930208
 31
0.0
  0
LINE
  5
24F2A
330
747D
100
AcDbEntity
  8
センター
 48
2.0
100
AcDbLine
 10
7758.6
 20
6411.907777930207
 30
0.0
 11
7858.6
 21
6411.907777930207
 31
0.0
  0
LINE
  5
24F2B
330
747D
100
AcDbEntity
  8
センター
 48
2.0
100
AcDbLine
 10
7808.6
 20
6461.907777930207
 30
0.0
 11
7808.6
 21
6361.907777930208
 31
0.0
  0
LINE
  5
24F2C
330
747D
100
AcDbEntity
  8
部品1
 48
50.0
100
AcDbLine
 10
7908.599999999999
 20
6611.907777930207
 30
0.0
 11
7708.6
 21
6611.907777930207
 31
0.0
  0
LINE
  5
24F2D
330
747D
100
AcDbEntity
  8
部品1
 48
50.0
100
AcDbLine
 10
8738.600000000001
 20
6211.907777930208
 30
0.0
 11
8738.600000000001
 21
6611.907777930207
 31
0.0
  0
LINE
  5
24F2E
330
747D
100
AcDbEntity
  8
部品1
 48
50.0
100
AcDbLine
 10
8538.6
 20
6211.907777930208
 30
0.0
 11
8538.6
 21
6611.907777930207
 31
0.0
  0
LINE
  5
24F2F
330
747D
100
AcDbEntity
  8
部品1
 48
50.0
100
AcDbLine
 10
8738.600000000001
 20
6211.907777930208
 30
0.0
 11
8538.6
 21
6211.907777930208
 31
0.0
  0
LINE
  5
24F30
330
747D
100
AcDbEntity
  8
センター
 48
2.0
100
AcDbLine
 10
8588.600000000001
 20
6411.907777930207
 30
0.0
 11
8688.6
 21
6411.907777930207
 31
0.0
  0
LINE
  5
24F31
330
747D
100
AcDbEntity
  8
センター
 48
2.0
100
AcDbLine
 10
8638.600000000002
 20
6461.907777930207
 30
0.0
 11
8638.600000000002
 21
6361.907777930208
 31
0.0
  0
LINE
  5
24F32
330
747D
100
AcDbEntity
  8
部品1
 48
50.0
100
AcDbLine
 10
8738.600000000001
 20
6611.907777930207
 30
0.0
 11
8538.6
 21
6611.907777930207
 31
0.0
  0
LINE
  5
24F33
330
747D
100
AcDbEntity
  8
センター
 48
2.0
100
AcDbLine
 10
9420.600000000007
 20
5709.907777930208
 30
0.0
 11
9420.600000000007
 21
5609.907777930208
 31
0.0
  0
LINE
  5
24F35
330
747D
100
AcDbEntity
  8
部品1
 48
50.0
100
AcDbLine
 10
9543.599999999964
 20
5461.907777930226
 30
0.0
 11
9543.599999999964
 21
5536.907777930222
 31
0.0
  0
LINE
  5
24F36
330
747D
100
AcDbEntity
  8
センター
 48
2.0
100
AcDbLine
 10
9370.600000000008
 20
5659.907777930207
 30
0.0
 11
9470.600000000008
 21
5659.907777930207
 31
0.0
  0
LINE
  5
24F37
330
747D
100
AcDbEntity
  8
部品1
 48
50.0
100
AcDbLine
 10
9423.6
 20
5766.907777930226
 30
0.0
 11
9313.6
 21
5766.907777930226
 31
0.0
  0
CIRCLE
  5
24F38
330
747D
100
AcDbEntity
  8
部品1
 48
50.0
100
AcDbCircle
 10
9420.600000000007
 20
5659.907777930207
 30
0.0
 40
35.0
  0
LINE
  5
24F39
330
747D
100
AcDbEntity
  8
部品1
 48
50.0
100
AcDbLine
 10
9313.6
 20
5656.907777930222
 30
0.0
 11
9313.6
 21
5766.907777930226
 31
0.0
  0
LINE
  5
24F3A
102
{ACAD_REACTORS
330
260C2
102
}
330
747D
100
AcDbEntity
  8
部品1
 48
50.0
100
AcDbLine
 10
9543.600000000001
 20
6756.907777930218
 30
0.0
 11
9423.6
 21
6756.907777930218
 31
0.0
  0
DIMENSION
  5
24F3D
330
747D
100
AcDbEntity
  8
寸法
 48
50.0
100
AcDbDimension
  2
*D38
 10
8638.600000000002
 20
8703.817543578535
 30
0.0
 11
9114.51852200628
 21
8703.817543578535
 31
0.0
 70
   160
 71
     5
 42
905.0
  3
INABA_S40G
100
AcDbAlignedDimension
 13
9543.600000000001
 23
8176.907777930209
 33
0.0
 14
8638.600000000002
 24
7501.907777930208
 34
0.0
100
AcDbRotatedDimension
1001
ACAD
1000
DSTYLE
1002
{
1070
   174
1070
     0
1070
   272
1070
     1
1070
   341
1005
0
1002
}
  0
DIMENSION
  5
24F3E
330
747D
100
AcDbEntity
  8
寸法
 48
50.0
100
AcDbDimension
  2
*D39
 10
7808.6
 20
8703.817543578535
 30
0.0
 11
8223.600000000001
 21
8803.817543578537
 31
0.0
 70
    32
 71
     5
 42
830.0
  3
INABA_S40G
100
AcDbAlignedDimension
 13
8638.600000000002
 23
7501.907777930208
 33
0.0
 14
7808.6
 24
7501.907777930208
 34
0.0
100
AcDbRotatedDimension
1001
ACAD
1000
DSTYLE
1002
{
1070
   174
1070
     0
1070
   272
1070
     1
1070
   341
1005
0
1002
}
  0
DIMENSION
  5
24F3F
330
747D
100
AcDbEntity
  8
寸法
 48
50.0
100
AcDbDimension
  2
*D40
 10
6171.82307490516
 20
8176.907777930209
 30
0.0
 11
6071.823074905159
 21
7739.40777793021
 31
0.0
 70
    32
 71
     5
 42
875.0000000000017
  3
INABA_S40G
100
AcDbAlignedDimension
 13
7708.600000000003
 23
7301.907777930208
 33
0.0
 14
6903.6
 24
8176.907777930209
 34
0.0
 50
90.0
100
AcDbRotatedDimension
1001
ACAD
1000
DSTYLE
1002
{
1070
   174
1070
     0
1070
   272
1070
     1
1070
   341
1005
0
1002
}
  0
LINE
  5
24F40
330
747D
100
AcDbEntity
  8
部品1
 48
50.0
100
AcDbLine
 10
7908.599999999999
 20
7101.907777930207
 30
0.0
 11
7908.599999999999
 21
7501.907777930208
 31
0.0
  0
LINE
  5
24F41
330
747D
100
AcDbEntity
  8
部品1
 48
50.0
100
AcDbLine
 10
7708.6
 20
7101.907777930207
 30
0.0
 11
7708.6
 21
7501.907777930208
 31
0.0
  0
LINE
  5
24F42
330
747D
100
AcDbEntity
  8
部品1
 48
50.0
100
AcDbLine
 10
7908.599999999999
 20
7101.907777930207
 30
0.0
 11
7708.6
 21
7101.907777930207
 31
0.0
  0
LINE
  5
24F43
330
747D
100
AcDbEntity
  8
センター
 48
2.0
100
AcDbLine
 10
7758.6
 20
7301.907777930208
 30
0.0
 11
7858.6
 21
7301.907777930208
 31
0.0
  0
LINE
  5
24F44
330
747D
100
AcDbEntity
  8
センター
 48
2.0
100
AcDbLine
 10
7808.6
 20
7351.907777930207
 30
0.0
 11
7808.6
 21
7251.907777930208
 31
0.0
  0
LINE
  5
24F45
330
747D
100
AcDbEntity
  8
部品1
 48
50.0
100
AcDbLine
 10
7908.599999999999
 20
7501.907777930208
 30
0.0
 11
7708.6
 21
7501.907777930208
 31
0.0
  0
LINE
  5
24F46
330
747D
100
AcDbEntity
  8
部品1
 48
50.0
100
AcDbLine
 10
8738.600000000001
 20
7101.907777930207
 30
0.0
 11
8738.600000000001
 21
7501.907777930208
 31
0.0
  0
LINE
  5
24F47
330
747D
100
AcDbEntity
  8
部品1
 48
50.0
100
AcDbLine
 10
8538.6
 20
7101.907777930207
 30
0.0
 11
8538.6
 21
7501.907777930208
 31
0.0
  0
LINE
  5
24F48
330
747D
100
AcDbEntity
  8
部品1
 48
50.0
100
AcDbLine
 10
8738.600000000001
 20
7101.907777930207
 30
0.0
 11
8538.6
 21
7101.907777930207
 31
0.0
  0
LINE
  5
24F49
330
747D
100
AcDbEntity
  8
センター
 48
2.0
100
AcDbLine
 10
8588.600000000001
 20
7301.907777930208
 30
0.0
 11
8688.6
 21
7301.907777930208
 31
0.0
  0
LINE
  5
24F4A
330
747D
100
AcDbEntity
  8
センター
 48
2.0
100
AcDbLine
 10
8638.600000000002
 20
7351.907777930207
 30
0.0
 11
8638.600000000002
 21
7251.907777930208
 31
0.0
  0
LINE
  5
24F4B
330
747D
100
AcDbEntity
  8
部品1
 48
50.0
100
AcDbLine
 10
8738.600000000001
 20
7501.907777930208
 30
0.0
 11
8538.6
 21
7501.907777930208
 31
0.0
  0
LINE
  5
24F4D
102
{ACAD_REACTORS
330
2605F
102
}
330
747D
100
AcDbEntity
  8
部品1
 48
50.0
100
AcDbLine
 10
8123.599999999999
 20
8056.907777930208
 30
0.0
 11
8123.600000000001
 21
8176.907777930209
 31
0.0
  0
LINE
  5
24F4E
102
{ACAD_REACTORS
330
2605F
102
}
330
747D
100
AcDbEntity
  8
部品1
 48
50.0
100
AcDbLine
 10
8323.599999999998
 20
8056.907777930208
 30
0.0
 11
8323.6
 21
8176.907777930209
 31
0.0
  0
LINE
  5
24F51
102
{ACAD_REACTORS
330
260C2
102
}
330
747D
100
AcDbEntity
  8
部品1
 48
50.0
100
AcDbLine
 10
9543.600000000001
 20
6956.907777930218
 30
0.0
 11
9423.6
 21
6956.907777930218
 31
0.0
  0
DIMENSION
  5
24F52
330
747D
100
AcDbEntity
  8
寸法
 48
50.0
100
AcDbDimension
  2
*D41
 10
9420.6
 20
8922.66740447229
 30
0.0
 11
9816.706601717799
 21
8922.66740447229
 31
0.0
 70
   160
 71
     5
 42
123.0
  3
INABA_S40G
100
AcDbAlignedDimension
 13
9543.600000000001
 23
8176.907777930209
 33
0.0
 14
9420.6
 24
8103.907777930208
 34
0.0
100
AcDbRotatedDimension
1001
ACAD
1000
DSTYLE
1002
{
1070
   174
1070
     0
1070
   272
1070
     1
1070
   341
1005
0
1002
}
  0
LINE
  5
24F53
330
747D
100
AcDbEntity
  8
センター
 48
2.0
100
AcDbLine
 10
9370.600000000001
 20
8053.907777930207
 30
0.0
 11
9470.600000000001
 21
8053.907777930207
 31
0.0
  0
LINE
  5
24F54
330
747D
100
AcDbEntity
  8
部品1
 48
50.0
100
AcDbLine
 10
9423.6
 20
7946.907777930208
 30
0.0
 11
9313.6
 21
7946.907777930208
 31
0.0
  0
LINE
  5
24F55
330
747D
100
AcDbEntity
  8
部品1
 48
50.0
100
AcDbLine
 10
9313.6
 20
7946.907777930208
 30
0.0
 11
9313.6
 21
8056.907777930208
 31
0.0
  0
CIRCLE
  5
24F56
330
747D
100
AcDbEntity
  8
部品1
 48
50.0
100
AcDbCircle
 10
9420.6
 20
8053.907777930207
 30
0.0
 40
35.0
  0
LINE
  5
24F57
330
747D
100
AcDbEntity
  8
センター
 48
2.0
100
AcDbLine
 10
9420.6
 20
8103.907777930208
 30
0.0
 11
9420.6
 21
8003.907777930207
 31
0.0
  0
DIMENSION
  5
25205
330
747D
100
AcDbEntity
  8
寸法
 48
50.0
100
AcDbDimension
  2
*D42
 10
6489.234728016389
 20
5536.907777930204
 30
0.0
 11
6489.234728016389
 21
4928.422496555987
 31
0.0
 70
   160
  1
扉の出<>
 71
     5
 42
74.99999999997999
  3
INABA_S40G
100
AcDbAlignedDimension
 13
7356.599999999923
 23
5461.907777930225
 33
0.0
 14
6903.599999999965
 24
5536.907777930204
 34
0.0
 50
90.0
100
AcDbRotatedDimension
1001
ACAD
1000
DSTYLE
1002
{
1070
   174
1070
     0
1070
   272
1070
     1
1070
   341
1005
0
1002
}
  0
MTEXT
  5
25540
102
{ACAD_REACTORS
330
25541
102
}
330
747D
100
AcDbEntity
  8
部品1
 62
     7
 48
50.0
100
AcDbMText
 10
10738.99523070989
 20
8427.880272274158
 30
0.0
 40
120.0
 41
0.0
 71
     6
 72
     1
  1
アンカーボルト
  7
STYLE1
 73
     1
 44
1.0
1001
ACAD
1000
MTEXTBEGIN
1070
    73
1070
     1
1070
    44
1040
1.0
1070
    74
1070
     0
1000
MTEXTEND
  0
LEADER
  5
25541
330
747D
100
AcDbEntity
  8
寸法
 48
50.0
100
AcDbLeader
  3
INABA_S50G
 73
     0
 74
     0
 75
     1
 40
120.0
 41
994.3492424049171
 76
     3
 10
9420.680085757009
 20
8053.921501126415
 30
0.0
 10
9594.645988304973
 20
8342.880272274157
 30
0.0
 10
9719.645988304973
 20
8342.880272274157
 30
0.0
340
25540
1001
ACAD
1000
DSTYLE
1002
{
1070
   341
1005
0
1070
    40
1040
1.0
1070
   343
1005
0
1070
   344
1005
0
1002
}
  0
MTEXT
  5
25542
102
{ACAD_REACTORS
330
25543
102
}
330
747D
100
AcDbEntity
  8
部品1
 62
     7
 48
50.0
100
AcDbMText
 10
10570.46907400128
 20
6716.651411151049
 30
0.0
 40
120.0
 41
0.0
 71
     6
 72
     1
  1
\A1;床下換気口
  7
STYLE1
 73
     1
 44
1.0
1001
ACAD
1000
MTEXTBEGIN
1070
    73
1070
     1
1070
    44
1040
1.0
1070
    74
1070
     0
1000
MTEXTEND
  0
LEADER
  5
25543
330
747D
100
AcDbEntity
  8
寸法
 48
50.0
100
AcDbLeader
  3
INABA_S50G
 73
     0
 74
     0
 75
     1
 40
120.0
 41
720.0000000000001
 76
     3
 10
9543.695499614996
 20
6892.665324718882
 30
0.0
 10
9700.469074001279
 20
6631.65141115105
 30
0.0
 10
9825.469074001279
 20
6631.65141115105
 30
0.0
340
25542
1001
ACAD
1000
DSTYLE
1002
{
1070
   341
1005
0
1070
    40
1040
1.0
1070
   343
1005
0
1070
   344
1005
0
1002
}
  0
TEXT
  5
25544
330
747D
100
AcDbEntity
  8
部品1
 48
50.0
100
AcDbText
 10
9892.430138461167
 20
5305.286749861089
 30
0.0
 40
80.0
  1
(a=45,b=55,c=75)
  7
STYLE1
100
AcDbText
  0
TEXT
  5
25545
330
747D
100
AcDbEntity
  8
部品1
 48
50.0
100
AcDbText
 10
9733.851129706863
 20
5412.131970729845
 30
0.0
 40
80.0
  1
※a,b,cは屋根の出幅です。
  7
STYLE1
100
AcDbText
  0
MTEXT
  5
25546
102
{ACAD_REACTORS
330
25547
102
}
330
747D
100
AcDbEntity
  8
部品1
 62
     7
 48
50.0
100
AcDbMText
 10
10531.63832569547
 20
5591.44265766292
 30
0.0
 40
120.0
 41
0.0
 71
     6
 72
     1
  1
\A1;屋根の外寸
  7
STYLE1
 73
     1
 44
1.0
1001
ACAD
1000
MTEXTBEGIN
1070
    73
1070
     1
1070
    44
1040
1.0
1070
    74
1070
     0
1000
MTEXTEND
  0
LEADER
  5
25547
330
747D
100
AcDbEntity
  8
寸法
 48
50.0
100
AcDbLeader
  3
INABA_S50G
 73
     0
 74
     0
 75
     1
 40
120.0
 41
672.0
 76
     3
 10
9593.698313503429
 20
5765.332001126495
 30
0.0
 10
9709.638325695472
 20
5506.442657662919
 30
0.0
 10
9834.638325695472
 20
5506.442657662919
 30
0.0
340
25546
1001
ACAD
1000
DSTYLE
1002
{
1070
   341
1005
0
1070
    40
1040
1.0
1070
   343
1005
0
1070
   344
1005
0
1002
}
  0
LWPOLYLINE
  5
25939
330
747D
100
AcDbEntity
  8
寸法
 48
50.0
100
AcDbPolyline
 90
        3
 70
     0
 43
0.0
 10
8571.30121388956
 20
7028.22746208063
 10
8532.638137382852
 20
6880.517371308084
 10
8268.333180452888
 20
6880.517371308082
1001
ACAD
1000
DSTYLE
1002
{
1070
   341
1005
0
1070
   343
1005
0
1070
   344
1005
0
1002
}
  0
SOLID
  5
2593A
330
747D
100
AcDbEntity
  8
寸法
 48
50.0
100
AcDbTrace
 10
8551.146860309694
 20
7033.502858706047
 30
0.0
 11
8602.953593642068
 21
7149.153583559834
 31
0.0
 12
8591.455567469427
 22
7022.952065455213
 32
0.0
 13
8591.455567469427
 23
7022.952065455213
 33
0.0
1001
ACAD
1000
DSTYLE
1002
{
1070
   341
1005
0
1070
   343
1005
0
1070
   344
1005
0
1002
}
  0
MTEXT
  5
2593B
330
747D
100
AcDbEntity
  8
部品1
 62
     7
 48
50.0
100
AcDbMText
 10
8436.1912284328
 20
6971.307068355793
 30
0.0
 40
120.0
 41
0.0
 71
     6
 72
     1
  1
CB
  7
STYLE1
 73
     1
 44
1.0
1001
ACAD
1000
MTEXTBEGIN
1070
    73
1070
     1
1070
    44
1040
1.0
1070
    74
1070
     0
1000
MTEXTEND
  0
DIMENSION
  5
25949
330
747D
100
AcDbEntity
  8
寸法
 48
50.0
100
AcDbDimension
  2
*D43
 10
9423.6
 20
7719.199110429837
 30
0.0
 11
9813.659055118112
 21
7719.199110429837
 31
0.0
 70
   160
 71
     5
 42
120.0
  3
INABA_S40G
100
AcDbAlignedDimension
 13
9543.600000000001
 23
7946.90777793021
 33
0.0
 14
9423.6
 24
7946.907777930208
 34
0.0
100
AcDbRotatedDimension
1001
ACAD
1000
DSTYLE
1002
{
1070
   174
1070
     0
1070
   272
1070
     1
1070
   341
1005
0
1002
}
  0
DIMENSION
  5
2594B
330
747D
100
AcDbEntity
  8
寸法
 48
50.0
100
AcDbDimension
  2
*D44
 10
9313.6
 20
7719.199110429837
 30
0.0
 11
9043.54094488189
 21
7719.199110429837
 31
0.0
 70
   160
 71
     5
 42
110.0
  3
INABA_S40G
100
AcDbAlignedDimension
 13
9423.6
 23
7736.192374468668
 33
0.0
 14
9313.6
 24
7946.907777930208
 34
0.0
100
AcDbRotatedDimension
1001
ACAD
1000
DSTYLE
1002
{
1070
   174
1070
     0
1070
   272
1070
     1
1070
   341
1005
0
1002
}
  0
LINE
  5
25D7C
330
747D
100
AcDbEntity
  8
想像線
 48
10.0
100
AcDbLine
 10
8797.790201497061
 20
5461.907777930218
 30
0.0
 11
9593.6
 21
5461.907777930225
 31
0.0
  0
DIMENSION
  5
25D7E
330
747D
100
AcDbEntity
  8
寸法
 48
50.0
100
AcDbDimension
  2
*D45
 10
7356.599999999964
 20
4832.748662820268
 30
0.0
 11
8450.099999999963
 21
4932.760473843891
 31
0.0
 70
    32
  1
扉の幅 <>
 71
     5
 42
2187.0
  3
INABA_S40G
100
AcDbAlignedDimension
 13
9543.599999999964
 23
5461.90777793024
 33
0.0
 14
7356.599999999964
 24
5461.907777930235
 34
0.0
100
AcDbRotatedDimension
1001
ACAD
1000
DSTYLE
1002
{
1070
   341
1005
0
1002
}
  0
TEXT
  5
25D7F
330
747D
100
AcDbEntity
  8
寸法
 62
     7
100
AcDbText
 10
7703.709332915214
 20
4378.079265415337
 30
0.0
 40
120.0
  1
扉位置 (2187x75)
  7
STYLE1
100
AcDbText
  0
SOLID
  5
25D80
330
747D
100
AcDbEntity
  8
寸法
 48
50.0
100
AcDbTrace
 10
-7911.194632554845
 20
5336.316749025334
 30
0.0
 11
-7928.103838224834
 21
5461.907777930219
 31
0.0
 12
-7871.376418081368
 22
5348.589519994242
 32
0.0
 13
-7871.376418081368
 23
5348.589519994242
 33
0.0
210
0.0
220
0.0
230
-1.0
1001
ACAD
1000
DSTYLE
1002
{
1070
   341
1005
0
1070
    40
1040
1.0
1070
   343
1005
0
1070
   344
1005
0
1002
}
  0
LWPOLYLINE
  5
25D81
330
747D
100
AcDbEntity
  8
寸法
 48
50.0
100
AcDbPolyline
 90
        3
 70
     0
 43
0.0
 10
-7928.103838224834
 20
5461.907777930219
 10
-7587.09337372246
 20
4355.811317867018
 10
-10401.1577866541
 20
4355.811317867018
210
0.0
220
0.0
230
-1.0
1001
ACAD
1000
DSTYLE
1002
{
1070
   341
1005
0
1070
    40
1040
1.0
1070
   343
1005
0
1070
   344
1005
0
1002
}
  0
TEXT
  5
25D82
330
747D
100
AcDbEntity
  8
寸法
 62
     7
100
AcDbText
 10
7703.709332915214
 20
4206.475502532011
 30
0.0
 40
120.0
  1
扉の位置に合わせた基礎形状として下さい。
  7
STYLE1
100
AcDbText
  0
DIMENSION
  5
25D83
330
747D
100
AcDbEntity
  8
寸法
 48
50.0
100
AcDbDimension
  2
*D46
 10
7625.743526793876
 20
5656.907777930213
 30
0.0
 11
7625.743526793875
 21
5223.212836726342
 31
0.0
 70
   160
 71
     5
 42
194.9999999999763
  3
INABA_S40G
100
AcDbAlignedDimension
 13
7356.599999999964
 23
5461.907777930235
 33
0.0
 14
7356.599999999964
 24
5656.907777930213
 34
0.0
 50
270.0
100
AcDbRotatedDimension
1001
ACAD
1000
DSTYLE
1002
{
1070
   341
1005
0
1002
}
  0
LINE
  5
25D84
330
747D
100
AcDbEntity
  8
想像線
 48
10.0
100
AcDbLine
 10
8797.790201497058
 20
8231.907777930212
 30
0.0
 11
9593.6
 21
8231.907777930212
 31
0.0
  0
LINE
  5
2603B
102
{ACAD_REACTORS
330
260C2
102
}
330
747D
100
AcDbEntity
  8
部品1
 48
50.0
100
AcDbLine
 10
9423.6
 20
5766.90777793023
 30
0.0
 11
9423.6
 21
7946.907777930208
 31
0.0
  0
LINE
  5
2603C
102
{ACAD_REACTORS
330
2605F
102
}
330
747D
100
AcDbEntity
  8
部品1
 48
50.0
100
AcDbLine
 10
9313.6
 20
8056.907777930208
 30
0.0
 11
7133.6
 21
8056.907777930208
 31
0.0
  0
LINE
  5
2603D
102
{ACAD_REACTORS
330
26080
102
}
330
747D
100
AcDbEntity
  8
部品1
 48
50.0
100
AcDbLine
 10
7023.6
 20
5766.907777930208
 30
0.0
 11
7023.6
 21
7946.907777930204
 31
0.0
  0
LINE
  5
2603E
102
{ACAD_REACTORS
330
260A1
102
}
330
747D
100
AcDbEntity
  8
部品1
 48
50.0
100
AcDbLine
 10
9313.6
 20
5656.907777930222
 30
0.0
 11
7133.6
 21
5656.907777930212
 31
0.0
  0
HATCH
  5
2605F
330
747D
100
AcDbEntity
  8
細線
 48
50.0
100
AcDbHatch
 10
0.0
 20
0.0
 30
0.0
210
0.0
220
0.0
230
1.0
  2
LINE
 70
     0
 71
     1
 91
        1
 92
        7
 72
     0
 73
     1
 93
        4
 10
8323.6
 20
8176.907777930207
 10
8123.600000000001
 20
8176.907777930207
 10
8123.599999999999
 20
8056.907777930209
 10
8323.599999999997
 20
8056.907777930208
 97
        4
330
24EF3
330
24F4D
330
2603C
330
24F4E
 75
     0
 76
     1
 52
45.0
 41
10.0
 77
     0
 78
     1
 53
45.0
 43
0.0
 44
0.0
 45
-22.45064030267288
 46
22.45064030267288
 79
     0
 47
5.79682228402352
 98
        1
 10
8193.200020711593
 20
8110.498903992436
  0
HATCH
  5
26080
330
747D
100
AcDbEntity
  8
細線
 48
50.0
100
AcDbHatch
 10
0.0
 20
0.0
 30
0.0
210
0.0
220
0.0
230
1.0
  2
LINE
 70
     0
 71
     1
 91
        1
 92
        7
 72
     0
 73
     1
 93
        4
 10
7023.600000000001
 20
6956.907777930215
 10
6903.6
 20
6956.907777930218
 10
6903.6
 20
6756.907777930216
 10
7023.6
 20
6756.907777930215
 97
        4
330
24F0B
330
24F02
330
24F0A
330
2603D
 75
     0
 76
     1
 52
45.0
 41
10.0
 77
     0
 78
     1
 53
45.0
 43
0.0
 44
0.0
 45
-22.45064030267288
 46
22.45064030267288
 79
     0
 47
5.79682228402352
 98
        1
 10
6952.102261437234
 20
6835.198009193158
  0
HATCH
  5
260A1
330
747D
100
AcDbEntity
  8
細線
 48
50.0
100
AcDbHatch
 10
0.0
 20
0.0
 30
0.0
210
0.0
220
0.0
230
1.0
  2
LINE
 70
     0
 71
     1
 91
        1
 92
        7
 72
     0
 73
     1
 93
        4
 10
8323.60000000002
 20
5656.907777930219
 10
8123.600000000019
 20
5656.907777930218
 10
8123.600000000015
 20
5461.907777930213
 10
8323.600000000014
 20
5461.907777930215
 97
        4
330
2603E
330
24F1F
330
24F1C
330
24F1E
 75
     0
 76
     1
 52
45.0
 41
10.0
 77
     0
 78
     1
 53
45.0
 43
0.0
 44
0.0
 45
-22.45064030267288
 46
22.45064030267288
 79
     0
 47
5.79682228402352
 98
        1
 10
8233.796652577774
 20
5507.725691382798
  0
HATCH
  5
260C2
330
747D
100
AcDbEntity
  8
細線
 48
50.0
100
AcDbHatch
 10
0.0
 20
0.0
 30
0.0
210
0.0
220
0.0
230
1.0
  2
LINE
 70
     0
 71
     1
 91
        1
 92
        7
 72
     0
 73
     1
 93
        4
 10
9543.600000000001
 20
6956.907777930218
 10
9423.6
 20
6956.907777930216
 10
9423.599999999998
 20
6756.907777930216
 10
9543.600000000001
 20
6756.907777930218
 97
        4
330
24F51
330
2603B
330
24F3A
330
24F18
 75
     0
 76
     1
 52
45.0
 41
10.0
 77
     0
 78
     1
 53
45.0
 43
0.0
 44
0.0
 45
-22.45064030267288
 46
22.45064030267288
 79
     0
 47
5.79682228402352
 98
        1
 10
9457.495855338057
 20
6875.775740578923
  0
LINE
  5
26290
330
747D
100
AcDbEntity
  8
部品1
100
AcDbLine
 10
11010.85751168844
 20
3480.948691101789
 30
0.0
 11
4939.872326302182
 21
3480.948691101788
 31
0.0
  0
LINE
  5
26291
330
747D
100
AcDbEntity
  8
部品1
100
AcDbLine
 10
11010.85751168843
 20
3240.948691101787
 30
0.0
 11
4939.872326302186
 21
3240.948691101787
 31
0.0
  0
LINE
  5
26292
330
747D
100
AcDbEntity
  8
部品1
100
AcDbLine
 10
4939.872326302189
 20
516.6417215171414
 30
0.0
 11
11010.85751168843
 21
516.6417215171414
 31
0.0
  0
LEADER
  5
26293
330
747D
100
AcDbEntity
  8
寸法
 48
50.0
100
AcDbLeader
  3
INABA_S50G
 73
     0
 74
     0
 75
     1
 40
102.2727272727273
 41
680.0000000000001
 76
     3
 10
7947.980078288641
 20
2558.852352434087
 30
0.0
 10
7982.334049402
 20
2969.305163540628
 30
0.0
 10
8107.334049402
 20
2969.305163540628
 30
0.0
340
26294
1001
ACAD
1000
DSTYLE
1002
{
1070
   341
1005
0
1070
    40
1040
1.0
1070
   343
1005
0
1070
   344
1005
0
1002
}
  0
MTEXT
  5
26294
102
{ACAD_REACTORS
330
26293
102
}
330
747D
100
AcDbEntity
  8
部品1
 62
     7
 48
50.0
100
AcDbMText
 10
8132.334049402
 20
3045.441527176992
 30
0.0
 40
80.0
 41
0.8
 71
     4
 72
     1
  1
\A1;ナット(市販品)
  7
STYLE2
 73
     1
 44
1.0
1001
ACAD
1000
MTEXTBEGIN
1070
    73
1070
     1
1070
    44
1040
1.0
1070
    74
1070
     0
1000
MTEXTEND
  0
LEADER
  5
26295
330
747D
100
AcDbEntity
  8
寸法
 48
50.0
100
AcDbLeader
  3
INABA_S50G
 73
     0
 74
     0
 75
     1
 40
102.2727272727273
 41
906.8181818181818
 76
     3
 10
7971.980078288641
 20
2429.100359769224
 30
0.0
 10
8013.85166865748
 20
2784.33608077584
 30
0.0
 10
8138.85166865748
 20
2784.33608077584
 30
0.0
340
26296
1001
ACAD
1000
DSTYLE
1002
{
1070
   341
1005
0
1070
    40
1040
1.0
1070
   343
1005
0
1070
   344
1005
0
1002
}
  0
MTEXT
  5
26296
102
{ACAD_REACTORS
330
26295
102
}
330
747D
100
AcDbEntity
  8
部品1
 62
     7
 48
50.0
100
AcDbMText
 10
8163.85166865748
 20
2860.472444412204
 30
0.0
 40
80.0
 41
0.8
 71
     4
 72
     1
  1
\A1;ワッシャー(市販品)
  7
STYLE2
 73
     1
 44
1.0
1001
ACAD
1000
MTEXTBEGIN
1070
    73
1070
     1
1070
    44
1040
1.0
1070
    74
1070
     0
1000
MTEXTEND
  0
LWPOLYLINE
  5
26297
330
747D
100
AcDbEntity
  8
部品1
 48
50.0
100
AcDbPolyline
 90
        2
 70
     0
 43
8.0
 10
8124.580078288643
 20
1919.977071324944
 10
8418.282541688027
 20
1919.977071324944
  0
TEXT
  5
26298
330
747D
100
AcDbEntity
  8
部品1
 48
50.0
100
AcDbText
 10
8128.93366257307
 20
2515.855752087144
 30
0.0
 40
80.0
  1
基礎ボルト(市販品)
  7
STYLE2
100
AcDbText
  0
DIMENSION
  5
26299
330
747D
100
AcDbEntity
  8
寸法
 48
50.0
100
AcDbDimension
  2
*D47
 10
8626.448678057483
 20
1835.977071324943
 30
0.0
 11
8526.448678057484
 21
1997.977071324944
 31
0.0
 70
    32
  1
180
 71
     5
 42
324.0000000000009
  3
INABA_S40G
100
AcDbAlignedDimension
 13
8124.580078288643
 23
2159.977071324944
 33
0.0
 14
8124.580078288643
 24
1835.977071324943
 34
0.0
 50
90.0
100
AcDbRotatedDimension
1001
ACAD
1000
DSTYLE
1002
{
1070
   174
1070
     0
1070
   272
1070
     1
1070
   279
1070
     1
1070
   288
1070
     0
1070
   341
1005
0
1002
}
  0
DIMENSION
  5
2629A
330
747D
100
AcDbEntity
  8
寸法
 48
50.0
100
AcDbDimension
  2
*D48
 10
8626.448678057483
 20
2159.977071324944
 30
0.0
 11
8902.503344176512
 21
2134.853113720732
 31
0.0
 70
   160
  1
20～25
 71
     5
 42
52.76000000000113
  3
INABA_S40G
100
AcDbAlignedDimension
 13
7937.380078288644
 23
2212.737071324945
 33
0.0
 14
8124.580078288643
 24
2159.977071324944
 34
0.0
 50
90.0
100
AcDbRotatedDimension
1001
ACAD
1000
DSTYLE
1002
{
1070
   174
1070
     0
1070
   272
1070
     1
1070
   279
1070
     1
1070
   288
1070
     0
1070
   341
1005
0
1002
}
  0
MTEXT
  5
2629B
102
{ACAD_REACTORS
330
2629C
102
}
330
747D
100
AcDbEntity
  8
部品1
 62
     7
 48
50.0
100
AcDbMText
 10
8133.524540707959
 20
2424.360397478174
 30
0.0
 40
80.0
 41
0.8
 71
     4
 72
     1
  1
M10X160
  7
STYLE2
 73
     1
 44
1.0
1001
ACAD
1000
MTEXTBEGIN
1070
    73
1070
     1
1070
    44
1040
1.0
1070
    74
1070
     0
1000
MTEXTEND
  0
LEADER
  5
2629C
330
747D
100
AcDbEntity
  8
寸法
 48
50.0
100
AcDbLeader
  3
INABA_S50G
 73
     0
 74
     0
 75
     1
 40
80.0
 41
435.0
 76
     3
 10
7940.980078288642
 20
2209.137071324944
 30
0.0
 10
7983.52454070796
 20
2359.360397478174
 30
0.0
 10
8108.524540707959
 20
2359.360397478174
 30
0.0
340
2629B
1001
ACAD
1000
DSTYLE
1002
{
1070
   341
1005
0
1070
    40
1040
1.0
1070
   343
1005
0
1070
   344
1005
0
1002
}
  0
LINE
  5
2629D
330
747D
100
AcDbEntity
  8
部品1
100
AcDbLine
 10
4939.872326302185
 20
3480.948691101789
 30
0.0
 11
4939.872326302186
 21
516.6417215171414
 31
0.0
  0
LEADER
  5
2629E
330
747D
100
AcDbEntity
  8
寸法
 48
50.0
100
AcDbLeader
  3
INABA_S50G
 73
     0
 75
     1
 40
113.1818181818182
 41
608.6363636363635
 76
     3
 10
7900.716828426692
 20
2109.492744683223
 30
0.0
 10
7766.912999735345
 20
2960.8718270397
 30
0.0
 10
7641.912999735345
 20
2960.8718270397
 30
0.0
340
2629F
1001
ACAD
1000
DSTYLE
1002
{
1070
   341
1005
0
1070
    40
1040
1.0
1070
   343
1005
0
1070
   344
1005
0
1002
}
  0
MTEXT
  5
2629F
102
{ACAD_REACTORS
330
2629E
102
}
330
747D
100
AcDbEntity
  8
寸法
 62
     7
 48
50.0
100
AcDbMText
 10
7616.912999735345
 20
3042.462736130609
 30
0.0
 40
80.0
 41
0.8
 71
     6
 72
     1
  1
\A1;φ70スリーブ
  7
STYLE2
 73
     1
 44
1.0
1001
ACAD
1000
MTEXTBEGIN
1070
    73
1070
     1
1070
    44
1040
1.0
1070
    74
1070
     0
1000
MTEXTEND
  0
LWPOLYLINE
  5
262A0
330
747D
100
AcDbEntity
  8
部品1
 48
50.0
100
AcDbPolyline
 90
        2
 70
     0
 43
8.0
 10
5596.400863278491
 20
1919.977071324944
 10
6010.540765111447
 20
1919.977071324944
  0
TEXT
  5
262A1
330
747D
100
AcDbEntity
  8
部品1
 48
50.0
100
AcDbText
 10
5596.400863278491
 20
1931.216063608199
 30
0.0
 40
80.0
  1
▽G.L
  7
STYLE2
100
AcDbText
  0
DIMENSION
  5
262A2
330
747D
100
AcDbEntity
  8
寸法
 48
50.0
100
AcDbDimension
  2
*D49
 10
5740.120451378988
 20
1375.977071324943
 30
0.0
 11
5740.120451378988
 21
1495.977071324944
 31
0.0
 70
   160
  1
150
 71
     5
 42
240.0
  3
INABA_S40G
100
AcDbAlignedDimension
 13
5882.540765111447
 23
1615.977071324943
 33
0.0
 14
5802.540765111452
 24
1375.977071324943
 34
0.0
 50
90.0
100
AcDbRotatedDimension
1001
ACAD
1000
DSTYLE
1002
{
1070
   174
1070
     0
1070
   272
1070
     1
1070
   279
1070
     1
1070
   288
1070
     0
1070
   341
1005
0
1002
}
  0
LEADER
  5
262A3
330
747D
100
AcDbEntity
  8
寸法
 48
50.0
100
AcDbLeader
  3
INABA_S50G
 71
     0
 73
     0
 75
     1
 40
100.0
 41
225.0
 76
     3
 10
5978.443717463591
 20
1495.977071324944
 30
0.0
 10
5856.605738916254
 20
1232.454377706507
 30
0.0
 10
5731.605738916254
 20
1232.454377706507
 30
0.0
1001
ACAD
1000
DSTYLE
1002
{
1070
    40
1040
1.0
1070
   272
1070
     1
1070
   279
1070
     1
1070
   341
1005
0
1002
}
  0
LEADER
  5
262A4
330
747D
100
AcDbEntity
  8
寸法
 48
50.0
100
AcDbLeader
  3
INABA_S50G
 71
     0
 73
     0
 75
     1
 40
100.0
 41
222.7272727272727
 76
     3
 10
6106.540765111447
 20
1495.977071324944
 30
0.0
 10
5884.728466473688
 20
1052.138225167064
 30
0.0
 10
5759.728466473688
 20
1052.138225167064
 30
0.0
1001
ACAD
1000
DSTYLE
1002
{
1070
    40
1040
1.0
1070
   272
1070
     1
1070
   279
1070
     1
1070
   341
1005
0
1002
}
  0
MTEXT
  5
262A5
102
{ACAD_REACTORS
330
262A6
102
}
330
747D
100
AcDbEntity
  8
寸法
 62
     7
 48
50.0
100
AcDbMText
 10
5921.290710888643
 20
1761.2776741424
 30
0.0
 40
80.0
 41
0.8
 71
     6
 72
     1
  1
\A1;D10@300
  7
STYLE2
 73
     1
 44
1.0
1001
ACAD
1000
MTEXTBEGIN
1070
    73
1070
     1
1070
    44
1040
1.0
1070
    74
1070
     0
1000
MTEXTEND
  0
LEADER
  5
262A6
330
747D
100
AcDbEntity
  8
寸法
 48
50.0
100
AcDbLeader
  3
INABA_S50G
 71
     0
 73
     0
 75
     1
 40
100.0
 41
540.3409090909091
 76
     3
 10
6114.540765111447
 20
1918.104286022067
 30
0.0
 10
6056.558528582749
 20
1696.633957481262
 30
0.0
 10
5931.558528582749
 20
1696.633957481262
 30
0.0
213
-9.732182305893367
223
-4.643716661138569
233
0.0
1001
ACAD
1000
DSTYLE
1002
{
1070
    40
1040
1.0
1070
   272
1070
     1
1070
   279
1070
     1
1070
   341
1005
0
1002
}
  0
LEADER
  5
262A7
330
747D
100
AcDbEntity
  8
寸法
 48
50.0
100
AcDbLeader
  3
INABA_S50G
 71
     0
 73
     0
 75
     1
 40
130.1136363636363
 41
651.1363636363636
 76
     3
 10
6090.540765111447
 20
2159.977071324944
 30
0.0
 10
5978.116184947431
 20
2300.447836781532
 30
0.0
 10
5853.116184947431
 20
2300.447836781532
 30
0.0
1001
ACAD
1000
DSTYLE
1002
{
1070
    40
1040
1.0
1070
   272
1070
     1
1070
   279
1070
     1
1070
   341
1005
0
1002
}
  0
MTEXT
  5
262A8
102
{ACAD_REACTORS
330
262A7
102
}
330
747D
100
AcDbEntity
  8
寸法
 62
     7
 48
50.0
100
AcDbMText
 10
5790.442285628174
 20
2372.493291326986
 30
0.0
 40
80.0
 41
0.8
 71
     6
 72
     1
  1
\A1;金コテ押エ
  7
STYLE2
 73
     1
 44
1.0
1001
ACAD
1000
MTEXTBEGIN
1070
    73
1070
     1
1070
    44
1040
1.0
1070
    74
1070
     0
1000
MTEXTEND
  0
DIMENSION
  5
262A9
330
747D
100
AcDbEntity
  8
寸法
 48
50.0
100
AcDbDimension
  2
*D50
 10
5275.503526549706
 20
1375.977071324944
 30
0.0
 11
5275.503526549707
 21
1747.517220980944
 31
0.0
 70
   160
  1
540
 71
     5
 42
784.0
  3
INABA_S40G
100
AcDbAlignedDimension
 13
6010.540765111447
 23
2159.977071324944
 33
0.0
 14
5802.540765111452
 24
1375.977071324943
 34
0.0
 50
90.0
100
AcDbRotatedDimension
1001
ACAD
1000
DSTYLE
1002
{
1070
   174
1070
     0
1070
   272
1070
     1
1070
   279
1070
     1
1070
   288
1070
     0
1070
   341
1005
0
1002
}
  0
MTEXT
  5
262AA
102
{ACAD_REACTORS
330
262A4
102
}
330
747D
100
AcDbEntity
  8
寸法
 62
     7
 48
50.0
100
AcDbMText
 10
5739.728466473688
 20
1112.138225167064
 30
0.0
 40
80.0
 41
0.8
 71
     6
 72
     1
  1
D13
  7
STYLE2
 73
     1
 44
1.0
1001
ACAD
1000
MTEXTBEGIN
1070
    73
1070
     1
1070
    44
1040
1.0
1070
    74
1070
     0
1000
MTEXTEND
  0
MTEXT
  5
262AB
102
{ACAD_REACTORS
330
262A3
102
}
330
747D
100
AcDbEntity
  8
寸法
 62
     7
 48
50.0
100
AcDbMText
 10
5711.605738916254
 20
1292.454377706507
 30
0.0
 40
80.0
 41
0.8
 71
     6
 72
     1
  1
D10
  7
STYLE2
 73
     1
 44
1.0
1001
ACAD
1000
MTEXTBEGIN
1070
    73
1070
     1
1070
    44
1040
1.0
1070
    74
1070
     0
1000
MTEXTEND
  0
DIMENSION
  5
262AC
330
747D
100
AcDbEntity
  8
寸法
 48
50.0
100
AcDbDimension
  2
*D51
 10
6330.540765111448
 20
837.5474333197836
 30
0.0
 11
6086.444006433224
 21
837.5474333197836
 31
0.0
 70
   160
  1
300
 71
     5
 42
448.0
  3
INABA_S40G
100
AcDbAlignedDimension
 13
5882.540765111447
 23
1247.977071324944
 33
0.0
 14
6330.540765111448
 24
1247.977071324944
 34
0.0
100
AcDbRotatedDimension
1001
ACAD
1000
DSTYLE
1002
{
1070
   174
1070
     0
1070
   272
1070
     1
1070
   279
1070
     1
1070
   288
1070
     0
1070
   341
1005
0
1002
}
  0
MTEXT
  5
262AD
102
{ACAD_REACTORS
330
262AE
102
}
330
747D
100
AcDbEntity
  8
寸法
 62
     7
 48
50.0
100
AcDbMText
 10
7643.556005943704
 20
2681.778464223095
 30
0.0
 40
80.0
 41
0.8
 71
     6
 72
     1
  1
アンカープレート {\fArial|b0|i0|c0|p32;U}
  7
STYLE2
 73
     1
 44
1.0
1001
ACAD
1000
MTEXTBEGIN
1070
    73
1070
     1
1070
    44
1040
1.0
1070
    74
1070
     0
1000
MTEXTEND
  0
LEADER
  5
262AE
330
747D
100
AcDbEntity
  8
寸法
 48
50.0
100
AcDbLeader
  3
INABA_S50G
 73
     0
 75
     1
 40
106.3636363636363
 41
903.5235024184547
 76
     3
 10
7841.980078288641
 20
2229.537071324945
 30
0.0
 10
7793.556005943703
 20
2603.596646041277
 30
0.0
 10
7668.556005943703
 20
2603.596646041277
 30
0.0
340
262AD
1001
ACAD
1000
DSTYLE
1002
{
1070
   341
1005
0
1070
    40
1040
1.0
1070
   343
1005
0
1070
   344
1005
0
1002
}
  0
LINE
  5
262AF
330
747D
100
AcDbEntity
  8
細線
 48
50.0
100
AcDbLine
 10
6130.540765111448
 20
1998.349963992774
 30
0.0
 11
6202.540765111448
 21
2070.349963992774
 31
0.0
  0
ARC
  5
262B0
330
747D
100
AcDbEntity
  8
部品1
 48
50.0
100
AcDbCircle
 10
6106.540765111448
 20
2020.231500719189
 30
0.0
 40
24.0
100
AcDbArc
 50
0.0
 51
180.0
  0
CIRCLE
  5
262B1
330
747D
100
AcDbEntity
  8
部品1
 48
50.0
100
AcDbCircle
 10
6106.540765111448
 20
2020.231500719189
 30
0.0
 40
8.0
  0
LINE
  5
262B2
330
747D
100
AcDbEntity
  8
部品1
 48
50.0
100
AcDbLine
 10
6010.540765111448
 20
1615.977071324943
 30
0.0
 11
6010.540765111448
 21
2159.977071324944
 31
0.0
  0
LINE
  5
262B3
330
747D
100
AcDbEntity
  8
部品1
 48
50.0
100
AcDbLine
 10
6202.540765111448
 20
2159.977071324944
 30
0.0
 11
6202.540765111448
 21
1615.977071324943
 31
0.0
  0
MTEXT
  5
262B4
102
{ACAD_REACTORS
330
262B9
102
}
330
747D
100
AcDbEntity
  8
寸法
 62
     7
 48
50.0
100
AcDbMText
 10
6285.426702138842
 20
2021.244632623872
 30
0.0
 40
80.0
 41
0.8
 71
     4
 72
     1
  1
D13
  7
STYLE2
 73
     1
 44
1.0
1001
ACAD
1000
MTEXTBEGIN
1070
    73
1070
     1
1070
    44
1040
1.0
1070
    74
1070
     0
1000
MTEXTEND
  0
LEADER
  5
262B5
330
747D
100
AcDbEntity
  8
寸法
 48
50.0
100
AcDbLeader
  3
INABA_S50G
 71
     0
 73
     0
 74
     0
 75
     1
 40
100.0
 41
225.0
 76
     3
 10
6234.443717463591
 20
1495.977071324944
 30
0.0
 10
6288.868424918132
 20
1400.580002381971
 30
0.0
 10
6413.868424918132
 20
1400.580002381971
 30
0.0
1001
ACAD
1000
DSTYLE
1002
{
1070
    40
1040
1.0
1070
   272
1070
     1
1070
   279
1070
     1
1070
   341
1005
0
1002
}
  0
LEADER
  5
262B6
330
747D
100
AcDbEntity
  8
寸法
 48
50.0
100
AcDbLeader
  3
INABA_S50G
 71
     0
 73
     0
 74
     0
 75
     1
 40
100.0
 41
540.3409090909091
 76
     3
 10
6180.485934124622
 20
1479.236540911418
 30
0.0
 10
6299.279220972699
 20
1137.605722916521
 30
0.0
 10
6424.279220972699
 20
1137.605722916521
 30
0.0
213
0.0
223
-1.022262676269383
233
0.0
1001
ACAD
1000
DSTYLE
1002
{
1070
    40
1040
1.0
1070
   272
1070
     1
1070
   279
1070
     1
1070
   341
1005
0
1002
}
  0
MTEXT
  5
262B7
102
{ACAD_REACTORS
330
262B5
102
}
330
747D
100
AcDbEntity
  8
寸法
 62
     7
 48
50.0
100
AcDbMText
 10
6433.868424918133
 20
1460.580002381971
 30
0.0
 40
80.0
 41
0.8
 71
     4
 72
     1
  1
D10
  7
STYLE2
 73
     1
 44
1.0
1001
ACAD
1000
MTEXTBEGIN
1070
    73
1070
     1
1070
    44
1040
1.0
1070
    74
1070
     0
1000
MTEXTEND
  0
LWPOLYLINE
  5
262B8
330
747D
100
AcDbEntity
  8
部品1
 48
50.0
100
AcDbPolyline
 90
        2
 70
     0
 43
8.0
 10
6202.540765111447
 20
1919.977071324944
 10
6616.680666944406
 20
1919.977071324944
  0
LEADER
  5
262B9
330
747D
100
AcDbEntity
  8
寸法
 48
50.0
100
AcDbLeader
  3
INABA_S50G
 71
     0
 73
     0
 74
     0
 75
     1
 40
100.0
 41
222.7272727272727
 76
     3
 10
6106.540765111447
 20
2020.231500719189
 30
0.0
 10
6140.426702138842
 20
1961.244632623871
 30
0.0
 10
6265.426702138842
 20
1961.244632623871
 30
0.0
1001
ACAD
1000
DSTYLE
1002
{
1070
    40
1040
1.0
1070
   272
1070
     1
1070
   279
1070
     1
1070
   341
1005
0
1002
}
  0
LINE
  5
262BA
330
747D
100
AcDbEntity
  8
細線
 48
50.0
100
AcDbLine
 10
5882.540765111441
 20
1534.823817087114
 30
0.0
 11
5963.694019349276
 21
1615.977071324943
 31
0.0
  0
LINE
  5
262BB
330
747D
100
AcDbEntity
  8
細線
 48
50.0
100
AcDbLine
 10
6090.406612588852
 20
1554.104286022066
 30
0.0
 11
6114.540765111454
 21
1578.238438544665
 31
0.0
  0
LINE
  5
262BC
330
747D
100
AcDbEntity
  8
細線
 48
50.0
100
AcDbLine
 10
5997.33862952852
 20
1487.977071324944
 30
0.0
 11
6114.540765111448
 21
1605.179206907869
 31
0.0
  0
LINE
  5
262BD
330
747D
100
AcDbEntity
  8
部品1
 48
50.0
100
AcDbLine
 10
5882.540765111448
 20
1375.977071324943
 30
0.0
 11
5882.540765111448
 21
1615.977071324943
 31
0.0
  0
LINE
  5
262BE
330
747D
100
AcDbEntity
  8
細線
 48
50.0
100
AcDbLine
 10
6239.805544797392
 20
1487.977071324944
 30
0.0
 11
6330.540765111448
 21
1578.712291639003
 31
0.0
  0
LINE
  5
262BF
330
747D
100
AcDbEntity
  8
細線
 48
50.0
100
AcDbLine
 10
6212.864776434176
 20
1487.977071324944
 30
0.0
 11
6330.540765111448
 21
1605.653060002209
 31
0.0
  0
LINE
  5
262C0
330
747D
100
AcDbEntity
  8
部品1
 48
50.0
100
AcDbLine
 10
6330.540765111448
 20
1615.977071324943
 30
0.0
 11
6330.540765111448
 21
1375.977071324943
 31
0.0
  0
LINE
  5
262C1
330
747D
100
AcDbEntity
  8
部品1
 48
50.0
100
AcDbLine
 10
6130.540765111454
 20
1495.977071324944
 30
0.0
 11
6130.540765111448
 21
2020.231500719189
 31
0.0
  0
LINE
  5
262C2
330
747D
100
AcDbEntity
  8
部品1
 48
50.0
100
AcDbLine
 10
6114.540765111454
 20
1495.977071324944
 30
0.0
 11
6114.540765111441
 21
2020.231500719189
 31
0.0
  0
LINE
  5
262C3
330
747D
100
AcDbEntity
  8
細線
 48
50.0
100
AcDbLine
 10
6098.540765111448
 20
1535.297670181455
 30
0.0
 11
6114.540765111454
 21
1551.297670181455
 31
0.0
  0
LINE
  5
262C4
330
747D
100
AcDbEntity
  8
細線
 48
50.0
100
AcDbLine
 10
6087.723604607462
 20
1247.977071324944
 30
0.0
 11
6122.021101238646
 21
1375.977071324943
 31
0.0
  0
LINE
  5
262C5
330
747D
100
AcDbEntity
  8
部品1
 48
50.0
100
AcDbLine
 10
6410.540765111452
 20
1247.977071324944
 30
0.0
 11
5802.540765111451
 21
1247.977071324944
 31
0.0
  0
LINE
  5
262C6
330
747D
100
AcDbEntity
  8
部品1
 48
50.0
100
AcDbLine
 10
5938.540765111448
 20
1471.977071324944
 30
0.0
 11
6274.540765111448
 21
1471.977071324944
 31
0.0
  0
LINE
  5
262C7
330
747D
100
AcDbEntity
  8
部品1
 48
50.0
100
AcDbLine
 10
5938.540765111448
 20
1487.977071324944
 30
0.0
 11
6274.540765111448
 21
1487.977071324944
 31
0.0
  0
LINE
  5
262C8
330
747D
100
AcDbEntity
  8
部品1
 48
50.0
100
AcDbLine
 10
6410.540765111452
 20
1375.977071324943
 30
0.0
 11
5802.540765111451
 21
1375.977071324943
 31
0.0
  0
CIRCLE
  5
262C9
330
747D
100
AcDbEntity
  8
部品1
 48
50.0
100
AcDbCircle
 10
6106.540765111448
 20
1495.977071324944
 30
0.0
 40
8.0
  0
LINE
  5
262CA
330
747D
100
AcDbEntity
  8
細線
 48
50.0
100
AcDbLine
 10
6100.864776434182
 20
1375.977071324943
 30
0.0
 11
6196.864776434182
 21
1471.977071324944
 31
0.0
  0
LINE
  5
262CB
330
747D
100
AcDbEntity
  8
細線
 48
50.0
100
AcDbLine
 10
5929.947514712964
 20
1247.977071324944
 30
0.0
 11
5964.245011344147
 21
1375.977071324943
 31
0.0
  0
LINE
  5
262CC
330
747D
100
AcDbEntity
  8
細線
 48
50.0
100
AcDbLine
 10
6008.83555966021
 20
1247.977071324942
 30
0.0
 11
6043.133056291392
 21
1375.977071324942
 31
0.0
  0
LINE
  5
262CD
330
747D
100
AcDbEntity
  8
細線
 48
50.0
100
AcDbLine
 10
5851.059469765706
 20
1247.977071324942
 30
0.0
 11
5885.356966396889
 21
1375.977071324942
 31
0.0
  0
LINE
  5
262CE
330
747D
100
AcDbEntity
  8
部品1
 48
50.0
100
AcDbLine
 10
5802.540765111451
 20
1247.977071324944
 30
0.0
 11
5802.540765111451
 21
1375.977071324943
 31
0.0
  0
LINE
  5
262CF
330
747D
100
AcDbEntity
  8
細線
 48
50.0
100
AcDbLine
 10
5936.37829533131
 20
1271.977071324944
 30
0.0
 11
5942.809075949658
 21
1247.977071324944
 31
0.0
  0
LINE
  5
262D0
330
747D
100
AcDbEntity
  8
細線
 48
50.0
100
AcDbLine
 10
5857.49025038406
 20
1271.977071324944
 30
0.0
 11
5863.921031002405
 21
1247.977071324944
 31
0.0
  0
LINE
  5
262D1
330
747D
100
AcDbEntity
  8
細線
 48
50.0
100
AcDbLine
 10
6094.154385225816
 20
1271.977071324944
 30
0.0
 11
6100.585165844162
 21
1247.977071324944
 31
0.0
  0
LINE
  5
262D2
330
747D
100
AcDbEntity
  8
細線
 48
50.0
100
AcDbLine
 10
6015.266340278563
 20
1271.977071324944
 30
0.0
 11
6021.697120896909
 21
1247.977071324944
 31
0.0
  0
LINE
  5
262D3
330
747D
100
AcDbEntity
  8
細線
 48
50.0
100
AcDbLine
 10
5912.279397891731
 20
1375.977071324943
 30
0.0
 11
6008.279397891731
 21
1471.977071324944
 31
0.0
  0
LINE
  5
262D4
330
747D
100
AcDbEntity
  8
細線
 48
50.0
100
AcDbLine
 10
5885.338629528521
 20
1375.977071324943
 30
0.0
 11
5981.338629528521
 21
1471.977071324944
 31
0.0
  0
LINE
  5
262D5
330
747D
100
AcDbEntity
  8
部品1
 48
50.0
100
AcDbLine
 10
5938.540765111448
 20
1487.977071324944
 30
0.0
 11
5938.540765111448
 21
1471.977071324944
 31
0.0
  0
LINE
  5
262D6
330
747D
100
AcDbEntity
  8
細線
 48
50.0
100
AcDbLine
 10
5878.926185778549
 20
1351.977071324943
 30
0.0
 11
5872.495405160201
 21
1375.977071324943
 31
0.0
  0
LINE
  5
262D7
330
747D
100
AcDbEntity
  8
細線
 48
50.0
100
AcDbLine
 10
5802.540765111448
 20
1361.316992290724
 30
0.0
 11
5806.468921449644
 21
1375.977071324943
 31
0.0
  0
LINE
  5
262D8
330
747D
100
AcDbEntity
  8
部品1
 48
50.0
100
AcDbLine
 10
6098.540765111448
 20
1554.104286022066
 30
0.0
 11
6082.540765111448
 21
1554.104286022066
 31
0.0
  0
CIRCLE
  5
262D9
330
747D
100
AcDbEntity
  8
部品1
 48
50.0
100
AcDbCircle
 10
5978.540765111448
 20
1495.977071324944
 30
0.0
 40
8.0
  0
LINE
  5
262DA
330
747D
100
AcDbEntity
  8
細線
 48
50.0
100
AcDbLine
 10
6051.220166254937
 20
1487.977071324944
 30
0.0
 11
6082.540765111448
 21
1519.297670181455
 31
0.0
  0
ARC
  5
262DB
330
747D
100
AcDbEntity
  8
部品1
 48
50.0
100
AcDbCircle
 10
6106.540765111448
 20
1495.977071324944
 30
0.0
 40
24.0
100
AcDbArc
 50
180.0
 51
199.4712206344897
  0
LINE
  5
262DC
330
747D
100
AcDbEntity
  8
細線
 48
50.0
100
AcDbLine
 10
5957.8142307258
 20
1351.977071324943
 30
0.0
 11
5951.383450107453
 21
1375.977071324943
 31
0.0
  0
LINE
  5
262DD
330
747D
100
AcDbEntity
  8
細線
 48
50.0
100
AcDbLine
 10
6036.702275673052
 20
1351.977071324943
 30
0.0
 11
6030.271495054706
 21
1375.977071324943
 31
0.0
  0
LINE
  5
262DE
330
747D
100
AcDbEntity
  8
細線
 48
50.0
100
AcDbLine
 10
5939.220166254937
 20
1375.977071324943
 30
0.0
 11
6035.220166254937
 21
1471.977071324944
 31
0.0
  0
LINE
  5
262DF
330
747D
100
AcDbEntity
  8
部品1
 48
50.0
100
AcDbLine
 10
6082.540765111448
 20
1554.104286022066
 30
0.0
 11
6082.540765111448
 21
1495.977071324944
 31
0.0
  0
LINE
  5
262E0
330
747D
100
AcDbEntity
  8
細線
 48
50.0
100
AcDbLine
 10
6024.279397891731
 20
1487.977071324944
 30
0.0
 11
6082.540765111448
 21
1546.238438544662
 31
0.0
  0
LINE
  5
262E1
330
747D
100
AcDbEntity
  8
部品1
 48
50.0
100
AcDbLine
 10
6098.540765111448
 20
1554.104286022066
 30
0.0
 11
6098.540765111448
 21
1495.977071324944
 31
0.0
  0
LINE
  5
262E2
330
747D
100
AcDbEntity
  8
部品1
 48
50.0
100
AcDbLine
 10
6410.540765111452
 20
1375.977071324943
 30
0.0
 11
6410.540765111452
 21
1247.977071324944
 31
0.0
  0
LINE
  5
262E3
330
747D
100
AcDbEntity
  8
細線
 48
50.0
100
AcDbLine
 10
6324.387739449202
 20
1247.977071324944
 30
0.0
 11
6358.685236080386
 21
1375.977071324942
 31
0.0
  0
LINE
  5
262E4
330
747D
100
AcDbEntity
  8
細線
 48
50.0
100
AcDbLine
 10
6166.611649554708
 20
1247.977071324944
 30
0.0
 11
6200.909146185894
 21
1375.977071324942
 31
0.0
  0
LINE
  5
262E5
330
747D
100
AcDbEntity
  8
細線
 48
50.0
100
AcDbLine
 10
6245.499694501956
 20
1247.977071324942
 30
0.0
 11
6279.797191133141
 21
1375.977071324942
 31
0.0
  0
LINE
  5
262E6
330
747D
100
AcDbEntity
  8
細線
 48
50.0
100
AcDbLine
 10
6251.930475120307
 20
1271.977071324944
 30
0.0
 11
6258.361255738654
 21
1247.977071324944
 31
0.0
  0
LINE
  5
262E7
330
747D
100
AcDbEntity
  8
細線
 48
50.0
100
AcDbLine
 10
6173.042430173061
 20
1271.977071324944
 30
0.0
 11
6179.473210791407
 21
1247.977071324944
 31
0.0
  0
LINE
  5
262E8
330
747D
100
AcDbEntity
  8
細線
 48
50.0
100
AcDbLine
 10
6330.818520067554
 20
1271.977071324944
 30
0.0
 11
6337.249300685901
 21
1247.977071324944
 31
0.0
  0
LINE
  5
262E9
330
747D
100
AcDbEntity
  8
細線
 48
50.0
100
AcDbLine
 10
6409.706565014801
 20
1271.977071324944
 30
0.0
 11
6410.540765111448
 21
1268.863794180579
 31
0.0
  0
LINE
  5
262EA
330
747D
100
AcDbEntity
  8
細線
 48
50.0
100
AcDbLine
 10
6403.27578439645
 20
1247.977071324942
 30
0.0
 11
6410.540765111448
 21
1275.090348469332
 31
0.0
  0
LINE
  5
262EB
330
747D
100
AcDbEntity
  8
細線
 48
50.0
100
AcDbLine
 10
6266.746313160595
 20
1487.977071324944
 30
0.0
 11
6330.540765111448
 21
1551.771523275794
 31
0.0
  0
CIRCLE
  5
262EC
330
747D
100
AcDbEntity
  8
部品1
 48
50.0
100
AcDbCircle
 10
6234.540765111448
 20
1495.977071324944
 30
0.0
 40
8.0
  0
ARC
  5
262ED
330
747D
100
AcDbEntity
  8
部品1
 48
50.0
100
AcDbCircle
 10
6106.540765111448
 20
1495.977071324944
 30
0.0
 40
24.0
100
AcDbArc
 50
340.5287793655103
 51
0.0
  0
LINE
  5
262EE
330
747D
100
AcDbEntity
  8
細線
 48
50.0
100
AcDbLine
 10
6115.590320620305
 20
1351.977071324943
 30
0.0
 11
6109.159540001957
 21
1375.977071324943
 31
0.0
  0
LINE
  5
262EF
330
747D
100
AcDbEntity
  8
細線
 48
50.0
100
AcDbLine
 10
6194.47836556755
 20
1351.977071324943
 30
0.0
 11
6188.047584949204
 21
1375.977071324943
 31
0.0
  0
LINE
  5
262F0
330
747D
100
AcDbEntity
  8
細線
 48
50.0
100
AcDbLine
 10
6127.805544797392
 20
1375.977071324943
 30
0.0
 11
6223.805544797392
 21
1471.977071324944
 31
0.0
  0
LINE
  5
262F1
330
747D
100
AcDbEntity
  8
細線
 48
50.0
100
AcDbLine
 10
6154.746313160596
 20
1375.977071324943
 30
0.0
 11
6250.747201005733
 21
1471.977959170082
 31
0.0
  0
LINE
  5
262F2
330
747D
100
AcDbEntity
  8
部品1
 48
50.0
100
AcDbLine
 10
6274.540765111448
 20
1487.977071324944
 30
0.0
 11
6274.540765111448
 21
1471.977071324944
 31
0.0
  0
LINE
  5
262F3
330
747D
100
AcDbEntity
  8
細線
 48
50.0
100
AcDbLine
 10
6352.254455462043
 20
1351.977071324943
 30
0.0
 11
6345.823674843695
 21
1375.977071324943
 31
0.0
  0
LINE
  5
262F4
330
747D
100
AcDbEntity
  8
細線
 48
50.0
100
AcDbLine
 10
6316.390923339842
 20
1375.977071324943
 30
0.0
 11
6330.540765111448
 21
1390.12691309655
 31
0.0
  0
LINE
  5
262F5
330
747D
100
AcDbEntity
  8
細線
 48
50.0
100
AcDbLine
 10
6273.366410514796
 20
1351.977071324943
 30
0.0
 11
6266.935629896449
 21
1375.977071324943
 31
0.0
  0
LINE
  5
262F6
330
747D
100
AcDbEntity
  8
細線
 48
50.0
100
AcDbLine
 10
6010.540765111448
 20
1689.764585450322
 30
0.0
 11
6114.540765111454
 21
1793.764585450324
 31
0.0
  0
LINE
  5
262F7
330
747D
100
AcDbEntity
  8
細線
 48
50.0
100
AcDbLine
 10
6010.540765111448
 20
1716.705353813529
 30
0.0
 11
6114.540765111448
 21
1820.70535381353
 31
0.0
  0
LINE
  5
262F8
330
747D
100
AcDbEntity
  8
細線
 48
50.0
100
AcDbLine
 10
6010.540765111448
 20
1662.823817087114
 30
0.0
 11
6114.540765111454
 21
1766.823817087114
 31
0.0
  0
LINE
  5
262F9
330
747D
100
AcDbEntity
  8
細線
 48
50.0
100
AcDbLine
 10
6098.540765111448
 20
1966.349963992774
 30
0.0
 11
6114.540765111448
 21
1982.349963992774
 31
0.0
  0
LINE
  5
262FA
330
747D
100
AcDbEntity
  8
細線
 48
50.0
100
AcDbLine
 10
6098.540765111448
 20
1993.290732355981
 30
0.0
 11
6114.540765111448
 21
2009.290732355981
 31
0.0
  0
LINE
  5
262FB
330
747D
100
AcDbEntity
  8
部品1
 48
50.0
100
AcDbLine
 10
5882.540765111448
 20
1615.977071324943
 30
0.0
 11
6010.540765111448
 21
1615.977071324943
 31
0.0
  0
LINE
  5
262FC
330
747D
100
AcDbEntity
  8
細線
 48
50.0
100
AcDbLine
 10
5882.540765111441
 20
1561.764585450319
 30
0.0
 11
5936.753250986073
 21
1615.977071324943
 31
0.0
  0
LINE
  5
262FD
330
747D
100
AcDbEntity
  8
細線
 48
50.0
100
AcDbLine
 10
5882.540765111441
 20
1588.705353813529
 30
0.0
 11
5909.812482622863
 21
1615.977071324943
 31
0.0
  0
LINE
  5
262FE
330
747D
100
AcDbEntity
  8
部品1
 48
50.0
100
AcDbLine
 10
6098.540765111448
 20
1962.104286022066
 30
0.0
 11
6082.540765111448
 21
1962.10428602207
 31
0.0
  0
LINE
  5
262FF
330
747D
100
AcDbEntity
  8
細線
 48
50.0
100
AcDbLine
 10
6010.540765111448
 20
1878.349963992774
 30
0.0
 11
6094.295087140742
 21
1962.104286022066
 31
0.0
  0
LINE
  5
26300
330
747D
100
AcDbEntity
  8
細線
 48
50.0
100
AcDbLine
 10
6010.540765111448
 20
1905.290732355981
 30
0.0
 11
6082.540765111448
 21
1977.290732355981
 31
0.0
  0
LINE
  5
26301
330
747D
100
AcDbEntity
  8
部品1
 48
50.0
100
AcDbLine
 10
6082.540765111448
 20
1962.10428602207
 30
0.0
 11
6082.540765111448
 21
2020.231500719189
 31
0.0
  0
LINE
  5
26302
330
747D
100
AcDbEntity
  8
細線
 48
50.0
100
AcDbLine
 10
6010.540765111448
 20
1932.231500719189
 30
0.0
 11
6082.540765111448
 21
2004.231500719189
 31
0.0
  0
LINE
  5
26303
330
747D
100
AcDbEntity
  8
部品1
 48
50.0
100
AcDbLine
 10
6098.540765111448
 20
1962.104286022066
 30
0.0
 11
6098.540765111448
 21
2020.231500719189
 31
0.0
  0
LINE
  5
26304
330
747D
100
AcDbEntity
  8
細線
 48
50.0
100
AcDbLine
 10
6130.540765111454
 20
1782.823817087114
 30
0.0
 11
6202.540765111441
 21
1854.823817087114
 31
0.0
  0
LINE
  5
26305
330
747D
100
AcDbEntity
  8
部品1
 48
50.0
100
AcDbLine
 10
6202.540765111448
 20
1615.977071324943
 30
0.0
 11
6330.540765111448
 21
1615.977071324943
 31
0.0
  0
LINE
  5
26306
330
747D
100
AcDbEntity
  8
細線
 48
50.0
100
AcDbLine
 10
6130.540765111454
 20
1594.238438544665
 30
0.0
 11
6202.540765111441
 21
1666.238438544659
 31
0.0
  0
LINE
  5
26307
330
747D
100
AcDbEntity
  8
細線
 48
50.0
100
AcDbLine
 10
6130.540765111454
 20
1621.179206907873
 30
0.0
 11
6202.540765111441
 21
1693.179206907869
 31
0.0
  0
LINE
  5
26308
330
747D
100
AcDbEntity
  8
細線
 48
50.0
100
AcDbLine
 10
6130.540765111454
 20
1567.297670181455
 30
0.0
 11
6202.540765111441
 21
1639.297670181455
 31
0.0
  0
LINE
  5
26309
330
747D
100
AcDbEntity
  8
細線
 48
50.0
100
AcDbLine
 10
6130.540765111448
 20
1836.70535381353
 30
0.0
 11
6202.540765111448
 21
1908.70535381353
 31
0.0
  0
LINE
  5
2630A
330
747D
100
AcDbEntity
  8
細線
 48
50.0
100
AcDbLine
 10
6130.540765111454
 20
1809.764585450324
 30
0.0
 11
6202.540765111441
 21
1881.764585450319
 31
0.0
  0
MTEXT
  5
2630B
102
{ACAD_REACTORS
330
262B6
102
}
330
747D
100
AcDbEntity
  8
寸法
 62
     7
 48
50.0
100
AcDbMText
 10
6444.279220972699
 20
1198.62798559279
 30
0.0
 40
80.0
 41
0.8
 71
     4
 72
     1
  1
\A1;D10@300
  7
STYLE2
 73
     1
 44
1.0
1001
ACAD
1000
MTEXTBEGIN
1070
    73
1070
     1
1070
    44
1040
1.0
1070
    74
1070
     0
1000
MTEXTEND
  0
DIMENSION
  5
2630C
330
747D
100
AcDbEntity
  8
寸法
 48
50.0
100
AcDbDimension
  2
*D52
 10
6010.540765111447
 20
2479.977071324944
 30
0.0
 11
6117.767095456645
 21
2579.644879241324
 31
0.0
 70
   160
  1
120\P195
 71
     5
 42
192.0
  3
INABA_S40G
100
AcDbAlignedDimension
 13
6202.540765111447
 23
2159.977071324944
 33
0.0
 14
6010.540765111447
 24
2159.977071324944
 34
0.0
100
AcDbRotatedDimension
1001
ACAD
1000
DSTYLE
1002
{
1070
   174
1070
     0
1070
   272
1070
     1
1070
   279
1070
     1
1070
   288
1070
     0
1070
   341
1005
0
1002
}
  0
LINE
  5
2630D
330
747D
100
AcDbEntity
  8
部品1
 48
50.0
100
AcDbLine
 10
6010.540765111448
 20
2159.977071324944
 30
0.0
 11
6202.540765111448
 21
2159.977071324944
 31
0.0
  0
LINE
  5
2630E
330
747D
100
AcDbEntity
  8
細線
 48
50.0
100
AcDbLine
 10
6010.540765111448
 20
2120.816879261642
 30
0.0
 11
6049.700957174753
 21
2159.977071324944
 31
0.0
  0
LINE
  5
2630F
330
747D
100
AcDbEntity
  8
細線
 48
50.0
100
AcDbLine
 10
6010.540765111448
 20
2093.876110898434
 30
0.0
 11
6076.641725537957
 21
2159.977071324944
 31
0.0
  0
LINE
  5
26310
330
747D
100
AcDbEntity
  8
細線
 48
50.0
100
AcDbLine
 10
6010.540765111448
 20
2147.757647624849
 30
0.0
 11
6022.760188811543
 21
2159.977071324944
 31
0.0
  0
LINE
  5
26311
330
747D
100
AcDbEntity
  8
細線
 48
50.0
100
AcDbLine
 10
6130.093472377435
 20
2024.843439621966
 30
0.0
 11
6202.540765111448
 21
2097.290732355981
 31
0.0
  0
LINE
  5
26312
330
747D
100
AcDbEntity
  8
細線
 48
50.0
100
AcDbLine
 10
6119.033187613919
 20
2040.72392322166
 30
0.0
 11
6202.540765111448
 21
2124.231500719189
 31
0.0
  0
LINE
  5
26313
330
747D
100
AcDbEntity
  8
細線
 48
50.0
100
AcDbLine
 10
7994.980078288643
 20
2001.105353813532
 30
0.0
 11
8124.580078288643
 21
2130.705353813531
 31
0.0
  0
LINE
  5
26314
330
747D
100
AcDbEntity
  8
部品1
100
AcDbLine
 10
8124.580078288641
 20
1615.977071324943
 30
0.0
 11
8124.580078288643
 21
2159.977071324944
 31
0.0
  0
LINE
  5
26315
330
747D
100
AcDbEntity
  8
部品1
 48
50.0
100
AcDbLine
 10
7710.580078288642
 20
1615.977071324943
 30
0.0
 11
7710.580078288642
 21
2159.977071324944
 31
0.0
  0
LINE
  5
26316
330
747D
100
AcDbEntity
  8
細線
 48
50.0
100
AcDbLine
 10
7710.580078288642
 20
1932.231500719189
 30
0.0
 11
7868.980078288642
 21
2090.631500719186
 31
0.0
  0
LINE
  5
26317
330
747D
100
AcDbEntity
  8
細線
 48
50.0
100
AcDbLine
 10
7710.580078288642
 20
1905.290732355981
 30
0.0
 11
7868.980078288642
 21
2063.690732355979
 31
0.0
  0
LINE
  5
26318
330
747D
100
AcDbEntity
  8
細線
 48
50.0
100
AcDbLine
 10
7710.580078288642
 20
1878.349963992774
 30
0.0
 11
7868.980078288638
 21
2036.749963992766
 31
0.0
  0
TEXT
  5
26319
330
747D
100
AcDbEntity
  8
部品1
 48
50.0
100
AcDbText
 10
7296.440176455686
 20
1931.216063608199
 30
0.0
 40
80.0
  1
▽G.L
  7
STYLE2
100
AcDbText
  0
LINE
  5
2631A
330
747D
100
AcDbEntity
  8
部品1
100
AcDbLine
 10
7940.980078288642
 20
1934.977071324944
 30
0.0
 11
7940.980078288638
 21
2209.137071324944
 31
0.0
  0
LINE
  5
2631B
330
747D
100
AcDbEntity
  8
部品1
100
AcDbLine
 10
7922.980078288642
 20
1934.977071324944
 30
0.0
 11
7922.980078288638
 21
2209.137071324944
 31
0.0
  0
LINE
  5
2631C
330
747D
100
AcDbEntity
  8
細線
 48
50.0
100
AcDbLine
 10
7994.980078288643
 20
1947.223817087102
 30
0.0
 11
8124.580078288643
 21
2076.823817087094
 31
0.0
  0
LINE
  5
2631D
330
747D
100
AcDbEntity
  8
細線
 48
50.0
100
AcDbLine
 10
7994.980078288643
 20
1974.164585450315
 30
0.0
 11
8124.580078288643
 21
2103.764585450312
 31
0.0
  0
LINE
  5
2631E
330
747D
100
AcDbEntity
  8
部品1
100
AcDbLine
 10
7994.980078288641
 20
1835.977071324943
 30
0.0
 11
7994.980078288641
 21
2159.977071324944
 31
0.0
  0
LINE
  5
2631F
330
747D
100
AcDbEntity
  8
部品1
100
AcDbLine
 10
7868.980078288636
 20
1835.977071324943
 30
0.0
 11
7868.980078288642
 21
2159.977071324944
 31
0.0
  0
LINE
  5
26320
330
747D
100
AcDbEntity
  8
細線
 48
50.0
100
AcDbLine
 10
7710.580078288642
 20
1689.764585450322
 30
0.0
 11
7868.980078288633
 21
1848.16458545031
 31
0.0
  0
LINE
  5
26321
330
747D
100
AcDbEntity
  8
細線
 48
50.0
100
AcDbLine
 10
7710.580078288642
 20
1662.823817087114
 30
0.0
 11
7883.733332526478
 21
1835.977071324942
 31
0.0
  0
LINE
  5
26322
330
747D
100
AcDbEntity
  8
細線
 48
50.0
100
AcDbLine
 10
7710.580078288642
 20
1716.705353813529
 30
0.0
 11
7868.980078288633
 21
1875.105353813525
 31
0.0
  0
LINE
  5
26323
330
747D
100
AcDbEntity
  8
細線
 48
50.0
100
AcDbLine
 10
7639.259479432131
 20
1375.977071324943
 30
0.0
 11
8124.580078288643
 21
1861.297670181451
 31
0.0
  0
LINE
  5
26324
330
747D
100
AcDbEntity
  8
細線
 48
50.0
100
AcDbLine
 10
7612.318711068926
 20
1375.977071324943
 30
0.0
 11
8124.580078288643
 21
1888.238438544657
 31
0.0
  0
LINE
  5
26325
330
747D
100
AcDbEntity
  8
細線
 48
50.0
100
AcDbLine
 10
7585.377942705716
 20
1375.977071324943
 30
0.0
 11
8124.580078288641
 21
1915.179206907869
 31
0.0
  0
LINE
  5
26326
330
747D
100
AcDbEntity
  8
部品1
 48
50.0
100
AcDbLine
 10
8332.580078288643
 20
1375.977071324943
 30
0.0
 11
7502.580078288644
 21
1375.977071324943
 31
0.0
  0
LINE
  5
26327
330
747D
100
AcDbEntity
  8
部品1
 48
50.0
100
AcDbLine
 10
8332.580078288643
 20
1247.977071324944
 30
0.0
 11
7502.580078288644
 21
1247.977071324944
 31
0.0
  0
LINE
  5
26328
330
747D
100
AcDbEntity
  8
細線
 48
50.0
100
AcDbLine
 10
7582.580078288636
 20
1534.823817087114
 30
0.0
 11
7663.73333252647
 21
1615.977071324943
 31
0.0
  0
LINE
  5
26329
330
747D
100
AcDbEntity
  8
部品1
 48
50.0
100
AcDbLine
 10
7582.580078288642
 20
1375.977071324943
 30
0.0
 11
7582.580078288642
 21
1615.977071324943
 31
0.0
  0
LINE
  5
2632A
330
747D
100
AcDbEntity
  8
細線
 48
50.0
100
AcDbLine
 10
7629.98682789016
 20
1247.977071324944
 30
0.0
 11
7664.284324521341
 21
1375.977071324943
 31
0.0
  0
LINE
  5
2632B
330
747D
100
AcDbEntity
  8
部品1
 48
50.0
100
AcDbLine
 10
7502.580078288644
 20
1247.977071324944
 30
0.0
 11
7502.580078288644
 21
1375.977071324943
 31
0.0
  0
LINE
  5
2632C
330
747D
100
AcDbEntity
  8
細線
 48
50.0
100
AcDbLine
 10
7551.0987829429
 20
1247.977071324942
 30
0.0
 11
7585.396279574084
 21
1375.977071324942
 31
0.0
  0
LINE
  5
2632D
330
747D
100
AcDbEntity
  8
細線
 48
50.0
100
AcDbLine
 10
7708.874872837405
 20
1247.977071324942
 30
0.0
 11
7743.172369468585
 21
1375.977071324942
 31
0.0
  0
LINE
  5
2632E
330
747D
100
AcDbEntity
  8
細線
 48
50.0
100
AcDbLine
 10
7557.529563561253
 20
1271.977071324944
 30
0.0
 11
7563.960344179598
 21
1247.977071324944
 31
0.0
  0
LINE
  5
2632F
330
747D
100
AcDbEntity
  8
細線
 48
50.0
100
AcDbLine
 10
7715.305653455757
 20
1271.977071324944
 30
0.0
 11
7721.736434074104
 21
1247.977071324944
 31
0.0
  0
LINE
  5
26330
330
747D
100
AcDbEntity
  8
細線
 48
50.0
100
AcDbLine
 10
7636.417608508506
 20
1271.977071324944
 30
0.0
 11
7642.848389126851
 21
1247.977071324944
 31
0.0
  0
LINE
  5
26331
330
747D
100
AcDbEntity
  8
細線
 48
50.0
100
AcDbLine
 10
7502.580078288642
 20
1361.316992290724
 30
0.0
 11
7506.508234626837
 21
1375.977071324943
 31
0.0
  0
LINE
  5
26332
330
747D
100
AcDbEntity
  8
細線
 48
50.0
100
AcDbLine
 10
7578.965498955742
 20
1351.977071324943
 30
0.0
 11
7572.534718337395
 21
1375.977071324943
 31
0.0
  0
LINE
  5
26333
330
747D
100
AcDbEntity
  8
細線
 48
50.0
100
AcDbLine
 10
7736.741588850247
 20
1351.977071324943
 30
0.0
 11
7730.3108082319
 21
1375.977071324943
 31
0.0
  0
LINE
  5
26334
330
747D
100
AcDbEntity
  8
細線
 48
50.0
100
AcDbLine
 10
7657.853543902994
 20
1351.977071324943
 30
0.0
 11
7651.422763284648
 21
1375.977071324943
 31
0.0
  0
LWPOLYLINE
  5
26335
330
747D
100
AcDbEntity
  8
部品1
 48
50.0
100
AcDbPolyline
 90
        2
 70
     0
 43
8.0
 10
7296.440176455686
 20
1919.977071324944
 10
7710.580078288642
 20
1919.977071324944
  0
LINE
  5
26336
330
747D
100
AcDbEntity
  8
細線
 48
50.0
100
AcDbLine
 10
7582.580078288636
 20
1561.764585450319
 30
0.0
 11
7636.792564163267
 21
1615.977071324943
 31
0.0
  0
LINE
  5
26337
330
747D
100
AcDbEntity
  8
部品1
 48
50.0
100
AcDbLine
 10
7582.580078288642
 20
1615.977071324943
 30
0.0
 11
7710.580078288642
 21
1615.977071324943
 31
0.0
  0
LINE
  5
26338
330
747D
100
AcDbEntity
  8
細線
 48
50.0
100
AcDbLine
 10
7582.580078288636
 20
1588.705353813529
 30
0.0
 11
7609.851795800055
 21
1615.977071324943
 31
0.0
  0
LINE
  5
26339
330
747D
100
AcDbEntity
  8
細線
 48
50.0
100
AcDbLine
 10
7827.844857974586
 20
1375.977071324943
 30
0.0
 11
8124.580078288643
 21
1672.712291638996
 31
0.0
  0
LINE
  5
2633A
330
747D
100
AcDbEntity
  8
細線
 48
50.0
100
AcDbLine
 10
7854.785626337791
 20
1375.977071324943
 30
0.0
 11
8124.580078288643
 21
1645.771523275801
 31
0.0
  0
LINE
  5
2633B
330
747D
100
AcDbEntity
  8
細線
 48
50.0
100
AcDbLine
 10
7800.904089611377
 20
1375.977071324943
 30
0.0
 11
8124.580078288641
 21
1699.65306000221
 31
0.0
  0
LINE
  5
2633C
330
747D
100
AcDbEntity
  8
細線
 48
50.0
100
AcDbLine
 10
8016.430236517036
 20
1375.977071324943
 30
0.0
 11
8252.580078288641
 21
1612.126913096552
 31
0.0
  0
LINE
  5
2633D
330
747D
100
AcDbEntity
  8
細線
 48
50.0
100
AcDbLine
 10
8043.371004880247
 20
1375.977071324943
 30
0.0
 11
8252.580078288641
 21
1585.186144733337
 31
0.0
  0
LINE
  5
2633E
330
747D
100
AcDbEntity
  8
部品1
 48
50.0
100
AcDbLine
 10
8252.580078288641
 20
1615.977071324943
 30
0.0
 11
8252.580078288641
 21
1375.977071324943
 31
0.0
  0
LINE
  5
2633F
330
747D
100
AcDbEntity
  8
細線
 48
50.0
100
AcDbLine
 10
8070.311773243451
 20
1375.977071324943
 30
0.0
 11
8252.580078288641
 21
1558.24537637014
 31
0.0
  0
LINE
  5
26340
330
747D
100
AcDbEntity
  8
細線
 48
50.0
100
AcDbLine
 10
7945.539007679151
 20
1247.977071324942
 30
0.0
 11
7979.836504310333
 21
1375.977071324942
 31
0.0
  0
LINE
  5
26341
330
747D
100
AcDbEntity
  8
細線
 48
50.0
100
AcDbLine
 10
7787.762917784657
 20
1247.977071324944
 30
0.0
 11
7822.060414415838
 21
1375.977071324943
 31
0.0
  0
LINE
  5
26342
330
747D
100
AcDbEntity
  8
細線
 48
50.0
100
AcDbLine
 10
7866.650962731903
 20
1247.977071324944
 30
0.0
 11
7900.948459363087
 21
1375.977071324942
 31
0.0
  0
LINE
  5
26343
330
747D
100
AcDbEntity
  8
細線
 48
50.0
100
AcDbLine
 10
8024.427052626393
 20
1247.977071324944
 30
0.0
 11
8058.724549257581
 21
1375.977071324942
 31
0.0
  0
LINE
  5
26344
330
747D
100
AcDbEntity
  8
細線
 48
50.0
100
AcDbLine
 10
7873.081743350256
 20
1271.977071324944
 30
0.0
 11
7879.512523968603
 21
1247.977071324944
 31
0.0
  0
LINE
  5
26345
330
747D
100
AcDbEntity
  8
細線
 48
50.0
100
AcDbLine
 10
7794.19369840301
 20
1271.977071324944
 30
0.0
 11
7800.624479021357
 21
1247.977071324944
 31
0.0
  0
LINE
  5
26346
330
747D
100
AcDbEntity
  8
細線
 48
50.0
100
AcDbLine
 10
8030.857833244747
 20
1271.977071324944
 30
0.0
 11
8037.288613863093
 21
1247.977071324944
 31
0.0
  0
LINE
  5
26347
330
747D
100
AcDbEntity
  8
細線
 48
50.0
100
AcDbLine
 10
7951.969788297502
 20
1271.977071324944
 30
0.0
 11
7958.400568915847
 21
1247.977071324944
 31
0.0
  0
LINE
  5
26348
330
747D
100
AcDbEntity
  8
細線
 48
50.0
100
AcDbLine
 10
7894.517678744745
 20
1351.977071324943
 30
0.0
 11
7888.086898126397
 21
1375.977071324943
 31
0.0
  0
LINE
  5
26349
330
747D
100
AcDbEntity
  8
細線
 48
50.0
100
AcDbLine
 10
7815.629633797498
 20
1351.977071324943
 30
0.0
 11
7809.19885317915
 21
1375.977071324943
 31
0.0
  0
LINE
  5
2634A
330
747D
100
AcDbEntity
  8
細線
 48
50.0
100
AcDbLine
 10
7973.405723691991
 20
1351.977071324943
 30
0.0
 11
7966.974943073644
 21
1375.977071324943
 31
0.0
  0
LINE
  5
2634B
330
747D
100
AcDbEntity
  8
細線
 48
50.0
100
AcDbLine
 10
8052.293768639236
 20
1351.977071324943
 30
0.0
 11
8045.862988020891
 21
1375.977071324943
 31
0.0
  0
LINE
  5
2634C
330
747D
100
AcDbEntity
  8
部品1
 48
50.0
100
AcDbLine
 10
8332.580078288643
 20
1375.977071324943
 30
0.0
 11
8332.580078288643
 21
1247.977071324944
 31
0.0
  0
LINE
  5
2634D
330
747D
100
AcDbEntity
  8
細線
 48
50.0
100
AcDbLine
 10
8261.091187468137
 20
1247.977071324942
 30
0.0
 11
8295.388684099322
 21
1375.977071324941
 31
0.0
  0
LINE
  5
2634E
330
747D
100
AcDbEntity
  8
細線
 48
50.0
100
AcDbLine
 10
8103.315097573643
 20
1247.977071324942
 30
0.0
 11
8137.612594204815
 21
1375.977071324943
 31
0.0
  0
LINE
  5
2634F
330
747D
100
AcDbEntity
  8
細線
 48
50.0
100
AcDbLine
 10
8182.203142520892
 20
1247.977071324941
 30
0.0
 11
8216.500639152076
 21
1375.977071324941
 31
0.0
  0
LINE
  5
26350
330
747D
100
AcDbEntity
  8
細線
 48
50.0
100
AcDbLine
 10
8109.745878191992
 20
1271.977071324944
 30
0.0
 11
8116.176658810349
 21
1247.977071324944
 31
0.0
  0
LINE
  5
26351
330
747D
100
AcDbEntity
  8
細線
 48
50.0
100
AcDbLine
 10
8188.63392313924
 20
1271.977071324942
 30
0.0
 11
8195.064703757587
 21
1247.977071324942
 31
0.0
  0
LINE
  5
26352
330
747D
100
AcDbEntity
  8
細線
 48
50.0
100
AcDbLine
 10
8267.521968086487
 20
1271.977071324942
 30
0.0
 11
8273.952748704836
 21
1247.977071324942
 31
0.0
  0
LINE
  5
26353
330
747D
100
AcDbEntity
  8
細線
 48
50.0
100
AcDbLine
 10
8131.181813586474
 20
1351.977071324943
 30
0.0
 11
8124.751032968127
 21
1375.977071324943
 31
0.0
  0
LINE
  5
26354
330
747D
100
AcDbEntity
  8
細線
 48
50.0
100
AcDbLine
 10
8210.069858533731
 20
1351.977071324942
 30
0.0
 11
8203.639077915385
 21
1375.977071324942
 31
0.0
  0
LINE
  5
26355
330
747D
100
AcDbEntity
  8
細線
 48
50.0
100
AcDbLine
 10
8288.957903480975
 20
1351.977071324942
 30
0.0
 11
8282.52712286263
 21
1375.977071324942
 31
0.0
  0
LINE
  5
26356
330
747D
100
AcDbEntity
  8
部品1
100
AcDbLine
 10
7994.980078288641
 20
1835.977071324942
 30
0.0
 11
7868.980078288636
 21
1835.977071324942
 31
0.0
  0
LINE
  5
26357
330
747D
100
AcDbEntity
  8
部品1
100
AcDbLine
 10
7976.980078288642
 20
1916.977071324944
 30
0.0
 11
7976.980078288642
 21
1934.977071324944
 31
0.0
  0
ARC
  5
26358
330
747D
100
AcDbEntity
  8
部品1
100
AcDbCircle
 10
7940.980078288642
 20
1934.977071324944
 30
0.0
 40
18.0
100
AcDbArc
 50
180.0
 51
270.0
  0
LINE
  5
26359
330
747D
100
AcDbEntity
  8
部品1
100
AcDbLine
 10
7940.980078288642
 20
1916.977071324944
 30
0.0
 11
7976.980078288642
 21
1916.977071324944
 31
0.0
  0
LINE
  5
2635A
330
747D
100
AcDbEntity
  8
部品1
100
AcDbLine
 10
7940.980078288642
 20
1934.977071324944
 30
0.0
 11
7976.980078288642
 21
1934.977071324944
 31
0.0
  0
LINE
  5
2635B
330
747D
100
AcDbEntity
  8
部品1
 48
50.0
100
AcDbLine
 10
8124.580078288643
 20
1615.977071324943
 30
0.0
 11
8252.580078288641
 21
1615.977071324943
 31
0.0
  0
LINE
  5
2635C
330
747D
100
AcDbEntity
  8
部品1
100
AcDbLine
 10
7730.380078288643
 20
2249.977071324944
 30
0.0
 11
7768.180078288643
 21
2249.977071324944
 31
0.0
  0
LINE
  5
2635D
330
747D
100
AcDbEntity
  8
細線
 48
50.0
100
AcDbLine
 10
7710.580078288642
 20
2120.816879261642
 30
0.0
 11
7749.740270351947
 21
2159.977071324944
 31
0.0
  0
LINE
  5
2635E
330
747D
100
AcDbEntity
  8
細線
 48
50.0
100
AcDbLine
 10
7710.580078288642
 20
2093.876110898434
 30
0.0
 11
7776.681038715152
 21
2159.977071324944
 31
0.0
  0
LINE
  5
2635F
330
747D
100
AcDbEntity
  8
部品1
 48
50.0
100
AcDbLine
 10
7710.580078288642
 20
2159.977071324944
 30
0.0
 11
8124.580078288643
 21
2159.977071324944
 31
0.0
  0
TEXT
  5
26360
330
747D
100
AcDbEntity
  8
部品1
 48
50.0
100
AcDbText
 10
7284.133981709151
 20
2490.53759242542
 30
0.0
 40
80.0
  1
※(別売)
  7
STYLE2
100
AcDbText
  0
LINE
  5
26361
330
747D
100
AcDbEntity
  8
部品1
100
AcDbLine
 10
7727.680078288642
 20
2239.177071324943
 30
0.0
 11
7727.680078288642
 21
2247.277071324944
 31
0.0
  0
ARC
  5
26362
330
747D
100
AcDbEntity
  8
部品1
100
AcDbCircle
 10
7730.380078288643
 20
2247.277071324944
 30
0.0
 40
2.7
100
AcDbArc
 50
90.0
 51
180.0
  0
ARC
  5
26363
330
747D
100
AcDbEntity
  8
部品1
100
AcDbCircle
 10
7719.580078288642
 20
2234.368975027652
 30
0.0
 40
2.7
100
AcDbArc
 50
104.0362434679059
 51
180.0
  0
LINE
  5
26364
330
747D
100
AcDbEntity
  8
部品1
100
AcDbLine
 10
7718.925232101042
 20
2236.988359778043
 30
0.0
 11
7727.680078288642
 21
2239.177071324943
 31
0.0
  0
ARC
  5
26365
330
747D
100
AcDbEntity
  8
部品1
100
AcDbCircle
 10
7719.580078288642
 20
2172.237071324944
 30
0.0
 40
2.7
100
AcDbArc
 50
180.0
 51
270.0
  0
LINE
  5
26366
330
747D
100
AcDbEntity
  8
細線
 48
50.0
100
AcDbLine
 10
7710.580078288642
 20
2147.757647624849
 30
0.0
 11
7722.799501988737
 21
2159.977071324944
 31
0.0
  0
LINE
  5
26367
330
747D
100
AcDbEntity
  8
部品1
100
AcDbLine
 10
7719.580078288642
 20
2169.537071324944
 30
0.0
 11
7731.280078288637
 21
2169.537071324944
 31
0.0
  0
LINE
  5
26368
330
747D
100
AcDbEntity
  8
部品1
100
AcDbLine
 10
7716.880078288643
 20
2172.237071324944
 30
0.0
 11
7716.880078288643
 21
2234.368975027652
 31
0.0
  0
LINE
  5
26369
330
747D
100
AcDbEntity
  8
部品1
100
AcDbLine
 10
7875.540078288636
 20
2169.537071324944
 30
0.0
 11
8076.880078288636
 21
2169.537071324944
 31
0.0
  0
LINE
  5
2636A
330
747D
100
AcDbEntity
  8
部品1
100
AcDbLine
 10
7768.180078288643
 20
2249.977071324944
 30
0.0
 11
7768.180078288643
 21
2258.077071324944
 31
0.0
  0
LINE
  5
2636B
330
747D
100
AcDbEntity
  8
部品1
100
AcDbLine
 10
7818.580078288642
 20
2268.87707132494
 30
0.0
 11
7818.580078288642
 21
2217.577071324944
 31
0.0
  0
LINE
  5
2636C
330
747D
100
AcDbEntity
  8
部品1
100
AcDbLine
 10
7841.980078288641
 20
2229.537071324944
 30
0.0
 11
7870.140078288641
 21
2229.537071324944
 31
0.0
  0
ARC
  5
2636D
330
747D
100
AcDbEntity
  8
部品1
100
AcDbCircle
 10
7841.980078288641
 20
2226.837071324944
 30
0.0
 40
2.7
100
AcDbArc
 50
90.0
 51
180.0
  0
ARC
  5
2636E
330
747D
100
AcDbEntity
  8
部品1
100
AcDbCircle
 10
7870.140078288641
 20
2226.837071324944
 30
0.0
 40
2.7
100
AcDbArc
 50
0.0
 51
90.0
  0
LINE
  5
2636F
330
747D
100
AcDbEntity
  8
部品1
100
AcDbLine
 10
7860.880078288643
 20
2214.877071324943
 30
0.0
 11
7860.880078288643
 21
2172.237071324944
 31
0.0
  0
LINE
  5
26370
330
747D
100
AcDbEntity
  8
部品1
100
AcDbLine
 10
7846.480078288641
 20
2169.537071324944
 30
0.0
 11
7858.180078288642
 21
2169.537071324944
 31
0.0
  0
ARC
  5
26371
330
747D
100
AcDbEntity
  8
部品1
100
AcDbCircle
 10
7875.540078288636
 20
2172.237071324944
 30
0.0
 40
2.7
100
AcDbArc
 50
180.0
 51
270.0
  0
ARC
  5
26372
330
747D
100
AcDbEntity
  8
部品1
100
AcDbCircle
 10
7858.180078288642
 20
2172.237071324944
 30
0.0
 40
2.7
100
AcDbArc
 50
270.0
 51
0.0
  0
LINE
  5
26373
330
747D
100
AcDbEntity
  8
部品1
100
AcDbLine
 10
7818.580078288642
 20
2217.577071324944
 30
0.0
 11
7858.180078288642
 21
2217.577071324944
 31
0.0
  0
ARC
  5
26374
330
747D
100
AcDbEntity
  8
部品1
100
AcDbCircle
 10
7858.180078288642
 20
2214.877071324943
 30
0.0
 40
2.7
100
AcDbArc
 50
0.0
 51
90.0
  0
LINE
  5
26375
330
747D
100
AcDbEntity
  8
部品1
100
AcDbLine
 10
7872.840078288643
 20
2226.837071324944
 30
0.0
 11
7872.840078288638
 21
2172.237071324944
 31
0.0
  0
LINE
  5
26376
330
747D
100
AcDbEntity
  8
部品1
100
AcDbLine
 10
7839.280078288641
 20
2226.837071324944
 30
0.0
 11
7839.280078288641
 21
2209.737071324944
 31
0.0
  0
LINE
  5
26377
330
747D
100
AcDbEntity
  8
細線
100
AcDbLine
 10
7937.380078288644
 20
2169.537071324944
 30
0.0
 11
7937.380078288644
 21
2212.737071324944
 31
0.0
  0
LINE
  5
26378
330
747D
100
AcDbEntity
  8
細線
100
AcDbLine
 10
7926.580078288644
 20
2169.537071324944
 30
0.0
 11
7926.580078288641
 21
2212.737071324944
 31
0.0
  0
LINE
  5
26379
330
747D
100
AcDbEntity
  8
部品1
100
AcDbLine
 10
7922.980078288642
 20
2209.137071324944
 30
0.0
 11
7940.980078288642
 21
2209.137071324944
 31
0.0
  0
LINE
  5
2637A
330
747D
100
AcDbEntity
  8
部品1
100
AcDbLine
 10
7926.580078288641
 20
2212.737071324944
 30
0.0
 11
7937.380078288644
 21
2212.737071324944
 31
0.0
  0
ELLIPSE
  5
2637B
330
747D
100
AcDbEntity
  8
部品1
 48
50.0
100
AcDbEllipse
 10
7931.980078288642
 20
2429.100359769216
 30
0.0
 11
40.0
 21
0.0
 31
0.0
210
0.0
220
0.0
230
1.0
 40
0.4
 41
0.0
 42
6.283185307179586
  0
ELLIPSE
  5
2637C
330
747D
100
AcDbEntity
  8
部品1
 48
50.0
100
AcDbEllipse
 10
7931.980078288642
 20
2419.500359769217
 30
0.0
 11
40.0
 21
0.0
 31
0.0
210
0.0
220
0.0
230
1.0
 40
0.4
 41
3.141592653589793
 42
6.283185307179586
  0
LINE
  5
2637D
330
747D
100
AcDbEntity
  8
部品1
 48
50.0
100
AcDbLine
 10
7891.980078288641
 20
2429.100359769216
 30
0.0
 11
7891.980078288641
 21
2419.500359769216
 31
0.0
  0
ARC
  5
2637E
330
747D
100
AcDbEntity
  8
部品1
100
AcDbCircle
 10
7815.880078288643
 20
2268.87707132494
 30
0.0
 40
2.7
100
AcDbArc
 50
0.0
 51
90.0
  0
ARC
  5
2637F
330
747D
100
AcDbEntity
  8
部品1
100
AcDbCircle
 10
7773.580078288642
 20
2268.877071324943
 30
0.0
 40
2.7
100
AcDbArc
 50
90.0
 51
180.0
  0
LINE
  5
26380
330
747D
100
AcDbEntity
  8
部品1
100
AcDbLine
 10
7770.880078288643
 20
2260.777071324944
 30
0.0
 11
7770.880078288643
 21
2260.777071324944
 31
0.0
  0
LINE
  5
26381
330
747D
100
AcDbEntity
  8
部品1
100
AcDbLine
 10
7770.880078288643
 20
2260.777071324944
 30
0.0
 11
7770.880078288643
 21
2268.877071324943
 31
0.0
  0
LINE
  5
26382
330
747D
100
AcDbEntity
  8
部品1
100
AcDbLine
 10
7773.580078288642
 20
2271.577071324944
 30
0.0
 11
7815.880078288643
 21
2271.577071324941
 31
0.0
  0
ARC
  5
26383
330
747D
100
AcDbEntity
  8
部品1
100
AcDbCircle
 10
7770.880078288643
 20
2258.077071324944
 30
0.0
 40
2.7
100
AcDbArc
 50
90.0
 51
180.0
  0
ELLIPSE
  5
26384
330
747D
100
AcDbEntity
  8
部品1
 48
50.0
100
AcDbEllipse
 10
7931.980078288642
 20
2429.100359769216
 30
0.0
 11
18.4
 21
0.0
 31
0.0
210
0.0
220
0.0
230
1.0
 40
0.3478260869565217
 41
0.0
 42
6.283185307179586
  0
LINE
  5
26385
330
747D
100
AcDbEntity
  8
部品1
 48
50.0
100
AcDbLine
 10
7971.980078288641
 20
2419.500359769216
 30
0.0
 11
7971.980078288641
 21
2429.100359769216
 31
0.0
  0
LINE
  5
26386
330
747D
100
AcDbEntity
  8
部品1
 48
50.0
100
AcDbLine
 10
7899.980078288641
 20
2550.852352434086
 30
0.0
 11
7915.980078288642
 21
2542.852352434087
 31
0.0
  0
LINE
  5
26387
330
747D
100
AcDbEntity
  8
部品1
 48
50.0
100
AcDbLine
 10
7899.980078288641
 20
2518.852352434086
 30
0.0
 11
7915.980078288642
 21
2510.852352434087
 31
0.0
  0
LINE
  5
26388
330
747D
100
AcDbEntity
  8
部品1
 48
50.0
100
AcDbLine
 10
7899.980078288641
 20
2550.852352434086
 30
0.0
 11
7915.980078288642
 21
2558.852352434087
 31
0.0
  0
LINE
  5
26389
330
747D
100
AcDbEntity
  8
部品1
 48
50.0
100
AcDbLine
 10
7899.980078288641
 20
2518.852352434086
 30
0.0
 11
7899.980078288641
 21
2550.852352434086
 31
0.0
  0
LINE
  5
2638A
330
747D
100
AcDbEntity
  8
部品1
 48
50.0
100
AcDbLine
 10
7915.980078288642
 20
2558.852352434087
 30
0.0
 11
7947.980078288641
 21
2558.852352434087
 31
0.0
  0
ELLIPSE
  5
2638B
330
747D
100
AcDbEntity
  8
細線
 48
50.0
100
AcDbEllipse
 10
7931.980078288642
 20
2550.852352434086
 30
0.0
 11
14.76670786606846
 21
0.0
 31
0.0
210
0.0
220
0.0
230
1.0
 40
0.2071254069489396
 41
0.0
 42
6.283185307179586
  0
LINE
  5
2638C
330
747D
100
AcDbEntity
  8
部品1
 48
50.0
100
AcDbLine
 10
7915.980078288642
 20
2510.852352434087
 30
0.0
 11
7947.980078288641
 21
2510.852352434087
 31
0.0
  0
LINE
  5
2638D
330
747D
100
AcDbEntity
  8
部品1
 48
50.0
100
AcDbLine
 10
7947.980078288641
 20
2510.852352434087
 30
0.0
 11
7963.980078288641
 21
2518.852352434086
 31
0.0
  0
LINE
  5
2638E
330
747D
100
AcDbEntity
  8
部品1
 48
50.0
100
AcDbLine
 10
7915.980078288642
 20
2542.852352434087
 30
0.0
 11
7947.980078288641
 21
2542.852352434087
 31
0.0
  0
LINE
  5
2638F
330
747D
100
AcDbEntity
  8
部品1
 48
50.0
100
AcDbLine
 10
7947.980078288641
 20
2542.852352434087
 30
0.0
 11
7963.980078288641
 21
2550.852352434086
 31
0.0
  0
LINE
  5
26390
330
747D
100
AcDbEntity
  8
細線
 48
50.0
100
AcDbLine
 10
7947.980078288641
 20
2510.852352434087
 30
0.0
 11
7947.980078288641
 21
2542.852352434087
 31
0.0
  0
LINE
  5
26391
330
747D
100
AcDbEntity
  8
部品1
 48
50.0
100
AcDbLine
 10
7963.980078288641
 20
2518.852352434086
 30
0.0
 11
7963.980078288641
 21
2550.852352434086
 31
0.0
  0
LINE
  5
26392
330
747D
100
AcDbEntity
  8
細線
 48
50.0
100
AcDbLine
 10
7915.980078288642
 20
2510.852352434087
 30
0.0
 11
7915.980078288642
 21
2542.852352434087
 31
0.0
  0
LINE
  5
26393
330
747D
100
AcDbEntity
  8
部品1
 48
50.0
100
AcDbLine
 10
7947.980078288641
 20
2558.852352434087
 30
0.0
 11
7963.980078288641
 21
2550.852352434086
 31
0.0
  0
TEXT
  5
26394
330
747D
100
AcDbEntity
  8
部品1
100
AcDbText
 10
7632.752327480571
 20
3301.396759150361
 30
0.0
 40
120.0
  1
基礎詳細
  7
STYLE2
100
AcDbText
  0
LINE
  5
26395
330
747D
100
AcDbEntity
  8
部品1
100
AcDbLine
 10
11010.85751168843
 20
516.6417215171414
 30
0.0
 11
11010.85751168844
 21
3480.948691101789
 31
0.0
  0
LINE
  5
26396
330
747D
100
AcDbEntity
  8
細線
100
AcDbLine
 10
10018.74934426818
 20
1919.977071324943
 30
0.0
 11
9824.116010591399
 21
2114.610405001727
 31
0.0
  0
LINE
  5
26397
330
747D
100
AcDbEntity
  8
部品1
100
AcDbLine
 10
9824.116010591399
 20
2159.977071324944
 30
0.0
 11
10304.1160105914
 21
2159.977071324944
 31
0.0
  0
LINE
  5
26398
330
747D
100
AcDbEntity
  8
細線
 48
50.0
100
AcDbLine
 10
9958.186895034657
 20
1700.278155671593
 30
0.0
 11
9992.484391665843
 21
1828.278155671593
 31
0.0
  0
LINE
  5
26399
330
747D
100
AcDbEntity
  8
部品1
100
AcDbLine
 10
9704.116010591398
 20
1700.27815567159
 30
0.0
 11
10424.1160105914
 21
1700.278155671593
 31
0.0
  0
LINE
  5
2639A
330
747D
100
AcDbEntity
  8
部品1
100
AcDbLine
 10
9704.116010591398
 20
1828.278155671593
 30
0.0
 11
10424.1160105914
 21
1828.278155671596
 31
0.0
  0
LINE
  5
2639B
330
747D
100
AcDbEntity
  8
細線
100
AcDbLine
 10
9885.034656084641
 20
1828.278155671593
 30
0.0
 11
9976.733571737987
 21
1919.977071324943
 31
0.0
  0
LWPOLYLINE
  5
2639C
330
747D
100
AcDbEntity
  8
部品1
 48
50.0
100
AcDbPolyline
 90
        2
 70
     0
 43
12.0
 10
9439.50474849101
 20
1919.977071324943
 10
10640.59705162264
 20
1919.977071324943
  0
LINE
  5
2639D
330
747D
100
AcDbEntity
  8
細線
100
AcDbLine
 10
9967.837656022751
 20
1919.977071324943
 30
0.0
 11
9824.116010591399
 21
2063.698716756297
 31
0.0
  0
TEXT
  5
2639E
330
747D
100
AcDbEntity
  8
部品1
 48
50.0
100
AcDbText
 10
9059.997923832895
 20
1653.177330687635
 30
0.0
 40
80.0
  1
ボルトの出
 50
90.0
  7
STYLE2
100
AcDbText
  0
LINE
  5
2639F
330
747D
100
AcDbEntity
  8
部品1
100
AcDbLine
 10
9824.116010591399
 20
1919.977071324943
 30
0.0
 11
9824.116010591399
 21
2159.977071324944
 31
0.0
  0
LINE
  5
263A0
330
747D
100
AcDbEntity
  8
細線
 48
50.0
100
AcDbLine
 10
9800.41080514016
 20
1700.278155671593
 30
0.0
 11
9834.708301771343
 21
1828.278155671593
 31
0.0
  0
LINE
  5
263A1
330
747D
100
AcDbEntity
  8
細線
 48
50.0
100
AcDbLine
 10
9879.298850087408
 20
1700.278155671593
 30
0.0
 11
9913.596346718595
 21
1828.278155671593
 31
0.0
  0
LINE
  5
263A2
330
747D
100
AcDbEntity
  8
細線
 48
50.0
100
AcDbLine
 10
9721.522760192911
 20
1700.278155671593
 30
0.0
 11
9755.820256824096
 21
1828.278155671593
 31
0.0
  0
LINE
  5
263A3
330
747D
100
AcDbEntity
  8
部品1
100
AcDbLine
 10
9704.116010591398
 20
1700.27815567159
 30
0.0
 11
9704.116010591398
 21
1919.977071324943
 31
0.0
  0
LINE
  5
263A4
330
747D
100
AcDbEntity
  8
細線
 48
50.0
100
AcDbLine
 10
9806.84158575851
 20
1724.278155671593
 30
0.0
 11
9813.27236637686
 21
1700.278155671593
 31
0.0
  0
LINE
  5
263A5
330
747D
100
AcDbEntity
  8
細線
 48
50.0
100
AcDbLine
 10
9727.953540811261
 20
1724.278155671593
 30
0.0
 11
9734.384321429608
 21
1700.278155671593
 31
0.0
  0
LINE
  5
263A6
330
747D
100
AcDbEntity
  8
細線
 48
50.0
100
AcDbLine
 10
9885.729630705762
 20
1724.278155671593
 30
0.0
 11
9892.160411324109
 21
1700.278155671593
 31
0.0
  0
LINE
  5
263A7
330
747D
100
AcDbEntity
  8
細線
 48
50.0
100
AcDbLine
 10
9964.617675653009
 20
1724.278155671593
 30
0.0
 11
9971.048456271358
 21
1700.278155671593
 31
0.0
  0
LINE
  5
263A8
330
747D
100
AcDbEntity
  8
細線
 48
50.0
100
AcDbLine
 10
9749.389476205749
 20
1804.278155671594
 30
0.0
 11
9742.9586955874
 21
1828.278155671593
 31
0.0
  0
LINE
  5
263A9
330
747D
100
AcDbEntity
  8
細線
 48
50.0
100
AcDbLine
 10
9907.165566100253
 20
1804.278155671594
 30
0.0
 11
9900.734785481906
 21
1828.278155671593
 31
0.0
  0
LINE
  5
263AA
330
747D
100
AcDbEntity
  8
細線
 48
50.0
100
AcDbLine
 10
9828.277521152999
 20
1804.278155671594
 30
0.0
 11
9821.846740534653
 21
1828.278155671593
 31
0.0
  0
LINE
  5
263AB
330
747D
100
AcDbEntity
  8
細線
100
AcDbLine
 10
9817.152405090729
 20
1828.278155671593
 30
0.0
 11
9908.851320744076
 21
1919.977071324943
 31
0.0
  0
LINE
  5
263AC
330
747D
100
AcDbEntity
  8
細線
100
AcDbLine
 10
9851.093530587684
 20
1828.278155671593
 30
0.0
 11
9942.79244624103
 21
1919.977071324943
 31
0.0
  0
LINE
  5
263AD
330
747D
100
AcDbEntity
  8
細線
100
AcDbLine
 10
10239.36665999839
 20
1919.977071324943
 30
0.0
 11
9999.366659998388
 21
2159.977071324944
 31
0.0
  0
LINE
  5
263AE
330
747D
100
AcDbEntity
  8
細線
100
AcDbLine
 10
10290.27834824381
 20
1919.977071324945
 30
0.0
 11
10050.27834824382
 21
2159.977071324944
 31
0.0
  0
LINE
  5
263AF
330
747D
100
AcDbEntity
  8
部品1
100
AcDbLine
 10
10304.1160105914
 20
2159.977071324944
 30
0.0
 11
10304.1160105914
 21
1919.977071324943
 31
0.0
  0
LINE
  5
263B0
330
747D
100
AcDbEntity
  8
細線
 48
50.0
100
AcDbLine
 10
10273.73907482364
 20
1700.278155671591
 30
0.0
 11
10308.03657145483
 21
1828.278155671591
 31
0.0
  0
LINE
  5
263B1
330
747D
100
AcDbEntity
  8
細線
100
AcDbLine
 10
10245.03465608464
 20
1828.278155671595
 30
0.0
 11
10336.73357173798
 21
1919.977071324943
 31
0.0
  0
LINE
  5
263B2
330
747D
100
AcDbEntity
  8
細線
 48
50.0
100
AcDbLine
 10
10194.85102987639
 20
1700.278155671593
 30
0.0
 11
10229.14852650757
 21
1828.278155671593
 31
0.0
  0
LINE
  5
263B3
330
747D
100
AcDbEntity
  8
細線
 48
50.0
100
AcDbLine
 10
10037.0749399819
 20
1700.278155671593
 30
0.0
 11
10071.37243661309
 21
1828.278155671593
 31
0.0
  0
LINE
  5
263B4
330
747D
100
AcDbEntity
  8
細線
 48
50.0
100
AcDbLine
 10
10115.96298492915
 20
1700.278155671593
 30
0.0
 11
10150.26048156033
 21
1828.278155671593
 31
0.0
  0
LINE
  5
263B5
330
747D
100
AcDbEntity
  8
細線
 48
50.0
100
AcDbLine
 10
10122.3937655475
 20
1724.278155671593
 30
0.0
 11
10128.82454616585
 21
1700.278155671593
 31
0.0
  0
LINE
  5
263B6
330
747D
100
AcDbEntity
  8
細線
 48
50.0
100
AcDbLine
 10
10043.50572060025
 20
1724.278155671593
 30
0.0
 11
10049.9365012186
 21
1700.278155671593
 31
0.0
  0
LINE
  5
263B7
330
747D
100
AcDbEntity
  8
細線
 48
50.0
100
AcDbLine
 10
10201.28181049475
 20
1724.278155671593
 30
0.0
 11
10207.7125911131
 21
1700.278155671593
 31
0.0
  0
LINE
  5
263B8
330
747D
100
AcDbEntity
  8
細線
 48
50.0
100
AcDbLine
 10
10280.16985544199
 20
1724.278155671592
 30
0.0
 11
10286.60063606034
 21
1700.278155671593
 31
0.0
  0
LINE
  5
263B9
330
747D
100
AcDbEntity
  8
細線
 48
50.0
100
AcDbLine
 10
10143.82970094199
 20
1804.278155671594
 30
0.0
 11
10137.39892032364
 21
1828.278155671593
 31
0.0
  0
LINE
  5
263BA
330
747D
100
AcDbEntity
  8
細線
 48
50.0
100
AcDbLine
 10
10064.94165599474
 20
1804.278155671594
 30
0.0
 11
10058.5108753764
 21
1828.278155671593
 31
0.0
  0
LINE
  5
263BB
330
747D
100
AcDbEntity
  8
細線
 48
50.0
100
AcDbLine
 10
9986.053611047497
 20
1804.278155671594
 30
0.0
 11
9979.62283042915
 21
1828.278155671593
 31
0.0
  0
LINE
  5
263BC
330
747D
100
AcDbEntity
  8
細線
100
AcDbLine
 10
10211.09353058769
 20
1828.278155671595
 30
0.0
 11
10302.79244624103
 21
1919.977071324943
 31
0.0
  0
LINE
  5
263BD
330
747D
100
AcDbEntity
  8
細線
 48
50.0
100
AcDbLine
 10
10222.71774588923
 20
1804.278155671594
 30
0.0
 11
10216.28696527088
 21
1828.278155671593
 31
0.0
  0
LINE
  5
263BE
330
747D
100
AcDbEntity
  8
細線
100
AcDbLine
 10
10177.15240509073
 20
1828.278155671595
 30
0.0
 11
10268.85132074407
 21
1919.977071324943
 31
0.0
  0
LINE
  5
263BF
330
747D
100
AcDbEntity
  8
細線
 48
50.0
100
AcDbLine
 10
10301.60579083648
 20
1804.278155671592
 30
0.0
 11
10295.17501021814
 21
1828.278155671593
 31
0.0
  0
LINE
  5
263C0
330
747D
100
AcDbEntity
  8
細線
 48
50.0
100
AcDbLine
 10
10352.62711977089
 20
1700.278155671593
 30
0.0
 11
10386.92461640208
 21
1828.278155671591
 31
0.0
  0
LINE
  5
263C1
330
747D
100
AcDbEntity
  8
部品1
100
AcDbLine
 10
10424.1160105914
 20
1919.977071324943
 30
0.0
 11
10424.1160105914
 21
1700.278155671593
 31
0.0
  0
LINE
  5
263C2
330
747D
100
AcDbEntity
  8
細線
 48
50.0
100
AcDbLine
 10
10359.05790038924
 20
1724.278155671592
 30
0.0
 11
10365.48868100759
 21
1700.278155671593
 31
0.0
  0
LINE
  5
263C3
330
747D
100
AcDbEntity
  8
細線
 48
50.0
100
AcDbLine
 10
10380.49383578373
 20
1804.278155671592
 30
0.0
 11
10374.06305516538
 21
1828.278155671593
 31
0.0
  0
LEADER
  5
263C4
330
747D
100
AcDbEntity
  8
寸法
 48
50.0
100
AcDbLeader
  3
INABA_S50G
 73
     0
 74
     0
 75
     1
 40
120.0
 41
185.591883092037
 76
     3
 10
10234.84042220732
 20
2159.977071324944
 30
0.0
 10
10267.97862884097
 20
2332.123392006081
 30
0.0
 10
10392.97862884096
 20
2332.123392006081
 30
0.0
340
263C5
1001
ACAD
1000
DSTYLE
1002
{
1070
    40
1040
1.0
1002
}
  0
MTEXT
  5
263C5
102
{ACAD_REACTORS
330
263C4
102
}
330
747D
100
AcDbEntity
  8
寸法
 62
     7
 48
50.0
100
AcDbMText
 10
10417.97862884096
 20
2417.123392006081
 30
0.0
 40
120.0
 41
0.8
 71
     4
 72
     1
  1
\A1;C.B
  7
STYLE1
 73
     1
 44
1.0
1001
ACAD
1000
MTEXTBEGIN
1070
    73
1070
     1
1070
    44
1040
1.0
1070
    74
1070
     0
1000
MTEXTEND
  0
ENDSEC
  0
SECTION
  2
OBJECTS
  0
DICTIONARY
  5
7471
330
0
100
AcDbDictionary
281
     1
  3
ACAD_COLOR
350
173D2
  3
ACAD_GROUP
350
7472
  3
ACAD_LAYOUT
350
173D3
  3
ACAD_MATERIAL
350
173D1
  3
ACAD_MLINESTYLE
350
7473
  3
ACAD_PLOTSETTINGS
350
173D4
  3
ACAD_PLOTSTYLENAME
350
173CF
  3
ACDBHEADERROUNDTRIPXREC
350
26468
  3
AcDbVariableDictionary
350
26464
  3
CONTENTDICTIONARY
350
E71C
  3
DRAWINGVARIABLESDICT
350
F3B9
  0
DICTIONARY
  5
1758F
330
7467
100
AcDbDictionary
280
     1
281
     1
  3
ACAD_LAYERSTATES
360
17590
  0
DICTIONARY
  5
173D2
102
{ACAD_REACTORS
330
7471
102
}
330
7471
100
AcDbDictionary
281
     1
  0
DICTIONARY
  5
7472
102
{ACAD_REACTORS
330
7471
102
}
330
7471
100
AcDbDictionary
281
     1
  3
*A1
350
1D2A9
  0
DICTIONARY
  5
173D3
102
{ACAD_REACTORS
330
7471
102
}
330
7471
100
AcDbDictionary
281
     1
  3
Model
350
173D5
  3
レイアウト1
350
173D6
  0
DICTIONARY
  5
173D1
102
{ACAD_REACTORS
330
7471
102
}
330
7471
100
AcDbDictionary
281
     1
  0
DICTIONARY
  5
7473
102
{ACAD_REACTORS
330
7471
102
}
330
7471
100
AcDbDictionary
281
     1
  3
STANDARD
350
7480
  0
DICTIONARY
  5
173D4
102
{ACAD_REACTORS
330
7471
102
}
330
7471
100
AcDbDictionary
281
     1
  0
ACDBDICTIONARYWDFLT
  5
173CF
102
{ACAD_REACTORS
330
7471
102
}
330
7471
100
AcDbDictionary
281
     1
  3
Normal
350
173D0
100
AcDbDictionaryWithDefault
340
173D0
  0
DICTIONARY
  5
26468
102
{ACAD_REACTORS
330
7471
102
}
330
7471
100
AcDbDictionary
281
     1
  3
COLORDICT
350
2646A
  3
MATERIALDICT
350
26469
  0
DICTIONARY
  5
26464
102
{ACAD_REACTORS
330
7471
102
}
330
7471
100
AcDbDictionary
281
     1
  3
DIMASSOC
350
26465
  3
PROJECTNAME
350
26466
  0
DICTIONARY
  5
E71C
102
{ACAD_REACTORS
330
7471
102
}
330
7471
100
AcDbDictionary
281
     1
  0
DICTIONARY
  5
F3B9
102
{ACAD_REACTORS
330
7471
102
}
330
7471
100
AcDbDictionary
281
     1
1001
DRAWINGVARIABLESXDATA
1000
POLARMODE
1000
1
  0
DICTIONARY
  5
17590
102
{ACAD_REACTORS
330
1758F
102
}
330
1758F
100
AcDbDictionary
281
     1
  0
GROUP
  5
1D2A9
102
{ACAD_REACTORS
330
7472
102
}
330
7472
100
AcDbGroup
300

 70
     1
 71
     1
  0
LAYOUT
  5
173D5
102
{ACAD_XDICTIONARY
360
2646B
102
}
102
{ACAD_REACTORS
330
173D3
102
}
330
173D3
100
AcDbPlotSettings
  1

  2
Microsoft Office Document Image Writer
  4

  6

 40
0.0
 41
0.0
 42
0.0
 43
0.0
 44
0.0
 45
0.0
 46
0.0
 47
0.0
 48
0.0
 49
0.0
140
0.0
141
0.0
142
1.0
143
1.0
 70
  1712
 72
     0
 73
     0
 74
     0
  7

 75
     0
147
1.0
148
0.0
149
0.0
100
AcDbLayout
  1
Model
 70
     1
 71
     0
 10
0.0
 20
0.0
 11
12.0
 21
9.0
 12
0.0
 22
0.0
 32
0.0
 14
0.0
 24
0.0
 34
0.0
 15
0.0
 25
0.0
 35
0.0
146
0.0
 13
0.0
 23
0.0
 33
0.0
 16
1.0
 26
0.0
 36
0.0
 17
0.0
 27
1.0
 37
0.0
 76
     0
330
747D
  0
LAYOUT
  5
173D6
102
{ACAD_XDICTIONARY
360
2646D
102
}
102
{ACAD_REACTORS
330
173D3
102
}
330
173D3
100
AcDbPlotSettings
  1

  2
Microsoft Office Document Image Writer
  4

  6

 40
0.0
 41
0.0
 42
0.0
 43
0.0
 44
0.0
 45
0.0
 46
0.0
 47
0.0
 48
0.0
 49
0.0
140
0.0
141
0.0
142
1.0
143
1.0
 70
   688
 72
     0
 73
     0
 74
     5
  7

 75
    16
147
1.0
148
0.0
149
0.0
100
AcDbLayout
  1
レイアウト1
 70
     0
 71
     1
 10
0.0
 20
0.0
 11
420.0
 21
297.0
 12
0.0
 22
0.0
 32
0.0
 14
1.000000000000000E+20
 24
1.000000000000000E+20
 34
1.000000000000000E+20
 15
-1.000000000000000E+20
 25
-1.000000000000000E+20
 35
-1.000000000000000E+20
146
0.0
 13
0.0
 23
0.0
 33
0.0
 16
1.0
 26
0.0
 36
0.0
 17
0.0
 27
1.0
 37
0.0
 76
     0
330
747A
  0
MLINESTYLE
  5
7480
102
{ACAD_REACTORS
330
7473
102
}
330
7473
100
AcDbMlineStyle
  2
STANDARD
 70
     0
  3

 62
     0
 51
90.0
 52
90.0
 71
     2
 49
0.5
 62
   256
  6
BYLAYER
 49
-0.5
 62
   256
  6
BYLAYER
  0
ACDBPLACEHOLDER
  5
173D0
102
{ACAD_REACTORS
330
173CF
102
}
330
173CF
  0
XRECORD
  5
2646A
102
{ACAD_REACTORS
330
26468
102
}
330
26468
100
AcDbXrecord
280
     1
340
173D2
  0
XRECORD
  5
26469
102
{ACAD_REACTORS
330
26468
102
}
330
26468
100
AcDbXrecord
280
     1
340
173D1
  0
DICTIONARYVAR
  5
26465
102
{ACAD_REACTORS
330
26464
102
}
330
26464
100
DictionaryVariables
280
     0
  1
1
  0
DICTIONARYVAR
  5
26466
102
{ACAD_REACTORS
330
26464
102
}
330
26464
100
DictionaryVariables
280
     0
  1

  0
DICTIONARY
  5
2646B
330
173D5
100
AcDbDictionary
280
     1
281
     1
  3
ACAD_XREC_ROUNDTRIP
360
2646C
  0
DICTIONARY
  5
2646D
330
173D6
100
AcDbDictionary
280
     1
281
     1
  3
ACAD_XREC_ROUNDTRIP
360
2646E
  0
XRECORD
  5
2646C
102
{ACAD_REACTORS
330
2646B
102
}
330
2646B
100
AcDbXrecord
280
     1
102
SHADEPLOT
 70
     0
102
SHADEPLOTRESLEVEL
 70
     2
102
SHADEPLOTCUSTOMDPI
 70
   300
  0
XRECORD
  5
2646E
102
{ACAD_REACTORS
330
2646D
102
}
330
2646D
100
AcDbXrecord
280
     1
102
SHADEPLOT
 70
     0
102
SHADEPLOTRESLEVEL
 70
     2
102
SHADEPLOTCUSTOMDPI
 70
   300
  0
ENDSEC
  0
EOF
