  0
SECTION
  2
HEADER
  9
$ACADVER
  1
AC1015
  9
$ACADMAINTVER
 70
    20
  9
$DWGCODEPAGE
  3
ANSI_932
  9
$INSBASE
 10
0.0
 20
0.0
 30
0.0
  9
$EXTMIN
 10
139.9999999999995
 20
-0.0000000000000909
 30
0.0
  9
$EXTMAX
 10
16307.2
 20
11409.6
 30
0.0
  9
$LIMMIN
 10
0.0
 20
0.0
  9
$LIMMAX
 10
16800.0
 20
11880.0
  9
$ORTHOMODE
 70
     0
  9
$REGENMODE
 70
     1
  9
$FILLMODE
 70
     1
  9
$QTEXTMODE
 70
     0
  9
$MIRRTEXT
 70
     1
  9
$LTSCALE
 40
20.0
  9
$ATTMODE
 70
     1
  9
$TEXTSIZE
 40
100.0
  9
$TRACEWID
 40
1.0
  9
$TEXTSTYLE
  7
STYLE2
  9
$CLAYER
  8
部品1
  9
$CELTYPE
  6
BYLAYER
  9
$CECOLOR
 62
   256
  9
$CELTSCALE
 40
50.0
  9
$DISPSILH
 70
     0
  9
$DIMSCALE
 40
40.0
  9
$DIMASZ
 40
2.5
  9
$DIMEXO
 40
0.5
  9
$DIMDLI
 40
7.0
  9
$DIMRND
 40
0.0
  9
$DIMDLE
 40
0.0
  9
$DIMEXE
 40
1.5
  9
$DIMTP
 40
0.0
  9
$DIMTM
 40
0.0
  9
$DIMTXT
 40
3.0
  9
$DIMCEN
 40
0.0
  9
$DIMTSZ
 40
0.0
  9
$DIMTOL
 70
     0
  9
$DIMLIM
 70
     0
  9
$DIMTIH
 70
     0
  9
$DIMTOH
 70
     0
  9
$DIMSE1
 70
     0
  9
$DIMSE2
 70
     0
  9
$DIMTAD
 70
     3
  9
$DIMZIN
 70
     8
  9
$DIMBLK
  1

  9
$DIMASO
 70
     1
  9
$DIMSHO
 70
     1
  9
$DIMPOST
  1

  9
$DIMAPOST
  1

  9
$DIMALT
 70
     0
  9
$DIMALTD
 70
     2
  9
$DIMALTF
 40
0.0394
  9
$DIMLFAC
 40
1.0
  9
$DIMTOFL
 70
     1
  9
$DIMTVP
 40
0.0
  9
$DIMTIX
 70
     1
  9
$DIMSOXD
 70
     0
  9
$DIMSAH
 70
     1
  9
$DIMBLK1
  1
DOTSMALL
  9
$DIMBLK2
  1
DOTSMALL
  9
$DIMSTYLE
  2
INABA_S40G
  9
$DIMCLRD
 70
     0
  9
$DIMCLRE
 70
     0
  9
$DIMCLRT
 70
     7
  9
$DIMTFAC
 40
1.0
  9
$DIMGAP
 40
1.0
  9
$DIMJUST
 70
     0
  9
$DIMSD1
 70
     0
  9
$DIMSD2
 70
     0
  9
$DIMTOLJ
 70
     1
  9
$DIMTZIN
 70
     0
  9
$DIMALTZ
 70
     0
  9
$DIMALTTZ
 70
     0
  9
$DIMUPT
 70
     1
  9
$DIMDEC
 70
     1
  9
$DIMTDEC
 70
     4
  9
$DIMALTU
 70
     2
  9
$DIMALTTD
 70
     2
  9
$DIMTXSTY
  7
STYLE1
  9
$DIMAUNIT
 70
     0
  9
$DIMADEC
 70
     0
  9
$DIMALTRND
 40
0.0
  9
$DIMAZIN
 70
     0
  9
$DIMDSEP
 70
    46
  9
$DIMATFIT
 70
     3
  9
$DIMFRAC
 70
     0
  9
$DIMLDRBLK
  1
DOTSMALL
  9
$DIMLUNIT
 70
     2
  9
$DIMLWD
 70
    -2
  9
$DIMLWE
 70
    -2
  9
$DIMTMOVE
 70
     0
  9
$LUNITS
 70
     2
  9
$LUPREC
 70
     1
  9
$SKETCHINC
 40
1.0
  9
$FILLETRAD
 40
2.299999999999999
  9
$AUNITS
 70
     0
  9
$AUPREC
 70
     0
  9
$MENU
  1
acad
  9
$ELEVATION
 40
0.0
  9
$PELEVATION
 40
0.0
  9
$THICKNESS
 40
0.0
  9
$LIMCHECK
 70
     0
  9
$CHAMFERA
 40
3.0
  9
$CHAMFERB
 40
3.0
  9
$CHAMFERC
 40
0.0
  9
$CHAMFERD
 40
0.0
  9
$SKPOLY
 70
     0
  9
$TDCREATE
 40
2451368.612993866
  9
$TDUCREATE
 40
2451368.237993866
  9
$TDUPDATE
 40
2455826.654128137
  9
$TDUUPDATE
 40
2455826.279128137
  9
$TDINDWG
 40
1.7421414236
  9
$TDUSRTIMER
 40
1.7421414236
  9
$USRTIMER
 70
     1
  9
$ANGBASE
 50
0.0
  9
$ANGDIR
 70
     0
  9
$PDMODE
 70
     3
  9
$PDSIZE
 40
2.0
  9
$PLINEWID
 40
0.0
  9
$SPLFRAME
 70
     0
  9
$SPLINETYPE
 70
     6
  9
$SPLINESEGS
 70
     8
  9
$HANDSEED
  5
22107
  9
$SURFTAB1
 70
     6
  9
$SURFTAB2
 70
     6
  9
$SURFTYPE
 70
     6
  9
$SURFU
 70
     6
  9
$SURFV
 70
     6
  9
$UCSBASE
  2

  9
$UCSNAME
  2

  9
$UCSORG
 10
0.0
 20
0.0
 30
0.0
  9
$UCSXDIR
 10
1.0
 20
0.0
 30
0.0
  9
$UCSYDIR
 10
0.0
 20
1.0
 30
0.0
  9
$UCSORTHOREF
  2

  9
$UCSORTHOVIEW
 70
     0
  9
$UCSORGTOP
 10
0.0
 20
0.0
 30
0.0
  9
$UCSORGBOTTOM
 10
0.0
 20
0.0
 30
0.0
  9
$UCSORGLEFT
 10
0.0
 20
0.0
 30
0.0
  9
$UCSORGRIGHT
 10
0.0
 20
0.0
 30
0.0
  9
$UCSORGFRONT
 10
0.0
 20
0.0
 30
0.0
  9
$UCSORGBACK
 10
0.0
 20
0.0
 30
0.0
  9
$PUCSBASE
  2

  9
$PUCSNAME
  2

  9
$PUCSORG
 10
0.0
 20
0.0
 30
0.0
  9
$PUCSXDIR
 10
1.0
 20
0.0
 30
0.0
  9
$PUCSYDIR
 10
0.0
 20
1.0
 30
0.0
  9
$PUCSORTHOREF
  2

  9
$PUCSORTHOVIEW
 70
     0
  9
$PUCSORGTOP
 10
0.0
 20
0.0
 30
0.0
  9
$PUCSORGBOTTOM
 10
0.0
 20
0.0
 30
0.0
  9
$PUCSORGLEFT
 10
0.0
 20
0.0
 30
0.0
  9
$PUCSORGRIGHT
 10
0.0
 20
0.0
 30
0.0
  9
$PUCSORGFRONT
 10
0.0
 20
0.0
 30
0.0
  9
$PUCSORGBACK
 10
0.0
 20
0.0
 30
0.0
  9
$USERI1
 70
     0
  9
$USERI2
 70
     0
  9
$USERI3
 70
     0
  9
$USERI4
 70
     0
  9
$USERI5
 70
     0
  9
$USERR1
 40
0.0
  9
$USERR2
 40
0.0
  9
$USERR3
 40
0.0
  9
$USERR4
 40
0.0
  9
$USERR5
 40
0.0
  9
$WORLDVIEW
 70
     1
  9
$SHADEDGE
 70
     3
  9
$SHADEDIF
 70
    70
  9
$TILEMODE
 70
     1
  9
$MAXACTVP
 70
    16
  9
$PINSBASE
 10
0.0
 20
0.0
 30
0.0
  9
$PLIMCHECK
 70
     0
  9
$PEXTMIN
 10
1.000000000000000E+20
 20
1.000000000000000E+20
 30
1.000000000000000E+20
  9
$PEXTMAX
 10
-1.000000000000000E+20
 20
-1.000000000000000E+20
 30
-1.000000000000000E+20
  9
$PLIMMIN
 10
0.0
 20
0.0
  9
$PLIMMAX
 10
420.0
 20
297.0
  9
$UNITMODE
 70
     0
  9
$VISRETAIN
 70
     0
  9
$PLINEGEN
 70
     0
  9
$PSLTSCALE
 70
     0
  9
$TREEDEPTH
 70
  3020
  9
$CMLSTYLE
  2
STANDARD
  9
$CMLJUST
 70
     0
  9
$CMLSCALE
 40
1.0
  9
$PROXYGRAPHICS
 70
     1
  9
$MEASUREMENT
 70
     1
  9
$CELWEIGHT
370
    -1
  9
$ENDCAPS
280
     0
  9
$JOINSTYLE
280
     0
  9
$LWDISPLAY
290
     0
  9
$INSUNITS
 70
     0
  9
$HYPERLINKBASE
  1

  9
$STYLESHEET
  1
inaba.ctb
  9
$XEDIT
290
     1
  9
$CEPSNTYPE
380
     0
  9
$PSTYLEMODE
290
     1
  9
$FINGERPRINTGUID
  2
{3B57B35E-7D77-4BBF-81B7-6C583B9EB24C}
  9
$VERSIONGUID
  2
{96FAA313-D47A-489A-8335-885CEC543EC2}
  9
$EXTNAMES
290
     1
  9
$PSVPSCALE
 40
0.0
  9
$OLESTARTUP
290
     0
  0
ENDSEC
  0
SECTION
  2
CLASSES
  0
CLASS
  1
ACDBDICTIONARYWDFLT
  2
AcDbDictionaryWithDefault
  3
ObjectDBX Classes
 90
        0
280
     0
281
     0
  0
CLASS
  1
DICTIONARYVAR
  2
AcDbDictionaryVar
  3
ObjectDBX Classes
 90
        0
280
     0
281
     0
  0
CLASS
  1
ACDBPLACEHOLDER
  2
AcDbPlaceHolder
  3
ObjectDBX Classes
 90
        0
280
     0
281
     0
  0
CLASS
  1
LAYOUT
  2
AcDbLayout
  3
ObjectDBX Classes
 90
        0
280
     0
281
     0
  0
ENDSEC
  0
SECTION
  2
TABLES
  0
TABLE
  2
VPORT
  5
746D
330
0
100
AcDbSymbolTable
 70
     2
  0
VPORT
  5
220FF
330
746D
100
AcDbSymbolTableRecord
100
AcDbViewportTableRecord
  2
*Active
 70
     0
 10
0.0
 20
0.0
 11
1.0
 21
1.0
 12
8280.020040298451
 22
5755.550896379407
 13
0.0
 23
0.0
 14
10.0
 24
10.0
 15
10.0
 25
10.0
 16
0.0
 26
0.0
 36
1.0
 17
0.0
 27
0.0
 37
0.0
 40
11598.63434527172
 41
1.522222222222221
 42
50.0
 43
0.0
 44
0.0
 50
0.0
 51
0.0
 71
     0
 72
     0
 73
     1
 74
     0
 75
     0
 76
     0
 77
     0
 78
     0
281
     0
 65
     1
110
0.0
120
0.0
130
0.0
111
1.0
121
0.0
131
0.0
112
0.0
122
1.0
132
0.0
 79
     0
146
0.0
  0
ENDTAB
  0
TABLE
  2
LTYPE
  5
746A
330
0
100
AcDbSymbolTable
 70
     3
  0
LTYPE
  5
7477
330
746A
100
AcDbSymbolTableRecord
100
AcDbLinetypeTableRecord
  2
BYBLOCK
 70
     0
  3

 72
    65
 73
     0
 40
0.0
  0
LTYPE
  5
7478
330
746A
100
AcDbSymbolTableRecord
100
AcDbLinetypeTableRecord
  2
BYLAYER
 70
     0
  3

 72
    65
 73
     0
 40
0.0
  0
LTYPE
  5
7479
330
746A
100
AcDbSymbolTableRecord
100
AcDbLinetypeTableRecord
  2
CONTINUOUS
 70
     0
  3
Solid line
 72
    65
 73
     0
 40
0.0
  0
LTYPE
  5
7816
330
746A
100
AcDbSymbolTableRecord
100
AcDbLinetypeTableRecord
  2
CENTER
 70
     0
  3
____ _ ____ _ ____ _ ____ _ ____ _ ____ _ ____ 
 72
    65
 73
     4
 40
2.0
 49
1.25
 74
     0
 49
-0.25
 74
     0
 49
0.25
 74
     0
 49
-0.25
 74
     0
  0
LTYPE
  5
781B
330
746A
100
AcDbSymbolTableRecord
100
AcDbLinetypeTableRecord
  2
PHANTOM
 70
     0
  3
______  __  __  ______  __  __  ______  __  __ 
 72
    65
 73
     6
 40
2.5
 49
1.25
 74
     0
 49
-0.25
 74
     0
 49
0.25
 74
     0
 49
-0.25
 74
     0
 49
0.25
 74
     0
 49
-0.25
 74
     0
  0
ENDTAB
  0
TABLE
  2
LAYER
  5
7467
102
{ACAD_XDICTIONARY
360
20F93
102
}
330
0
100
AcDbSymbolTable
 70
    10
  0
LAYER
  5
7474
330
7467
100
AcDbSymbolTableRecord
100
AcDbLayerTableRecord
  2
0
 70
     0
 62
     7
  6
CONTINUOUS
370
    -3
390
159AE
  0
LAYER
  5
DEB2
330
7467
100
AcDbSymbolTableRecord
100
AcDbLayerTableRecord
  2
センター
 70
     0
 62
     3
  6
CENTER
370
    -3
390
159AE
  0
LAYER
  5
DEB3
330
7467
100
AcDbSymbolTableRecord
100
AcDbLayerTableRecord
  2
寸法
 70
     0
 62
     4
  6
CONTINUOUS
370
    -3
390
159AE
  0
LAYER
  5
DEB4
330
7467
100
AcDbSymbolTableRecord
100
AcDbLayerTableRecord
  2
部品1
 70
     0
 62
     7
  6
CONTINUOUS
370
    -3
390
159AE
  0
LAYER
  5
DEB5
330
7467
100
AcDbSymbolTableRecord
100
AcDbLayerTableRecord
  2
補助
 70
     0
 62
    -1
  6
CONTINUOUS
370
    -3
390
159AE
  0
LAYER
  5
DEB6
330
7467
100
AcDbSymbolTableRecord
100
AcDbLayerTableRecord
  2
文字
 70
     0
 62
     7
  6
CONTINUOUS
370
    -3
390
159AE
  0
LAYER
  5
F255
330
7467
100
AcDbSymbolTableRecord
100
AcDbLayerTableRecord
  2
DEFPOINTS
 70
     0
 62
     7
  6
CONTINUOUS
290
     0
370
    -3
390
159AE
  0
LAYER
  5
10B54
330
7467
100
AcDbSymbolTableRecord
100
AcDbLayerTableRecord
  2
仕様書枠
 70
     0
 62
   230
  6
CONTINUOUS
370
    -3
390
159AE
  0
LAYER
  5
1173F
330
7467
100
AcDbSymbolTableRecord
100
AcDbLayerTableRecord
  2
細線
 70
     0
 62
     5
  6
CONTINUOUS
370
    -3
390
159AE
  0
LAYER
  5
12CC4
330
7467
100
AcDbSymbolTableRecord
100
AcDbLayerTableRecord
  2
想像線
 70
     0
 62
     6
  6
PHANTOM
370
    -3
390
159AE
  0
ENDTAB
  0
TABLE
  2
STYLE
  5
7468
330
0
100
AcDbSymbolTable
 70
     3
  0
STYLE
  5
7475
330
7468
100
AcDbSymbolTableRecord
100
AcDbTextStyleTableRecord
  2
STANDARD
 70
     0
 40
0.0
 41
1.0
 50
0.0
 71
     0
 42
4.0
  3
txt
  4
C:\AutoCAD LT\bigfont.shx
  0
STYLE
  5
F706
330
7468
100
AcDbSymbolTableRecord
100
AcDbTextStyleTableRecord
  2
STYLE1
 70
     0
 40
0.0
 41
1.0
 50
0.0
 71
     0
 42
100.0
  3
isocp.shx
  4
bigfont.shx
  0
STYLE
  5
103BF
330
7468
100
AcDbSymbolTableRecord
100
AcDbTextStyleTableRecord
  2
STYLE2
 70
     0
 40
0.0
 41
1.0
 50
0.0
 71
     0
 42
100.0
  3
MS PGothic.ttf
  4

1001
ACAD
1000
MS PGothic
1071
    32818
  0
ENDTAB
  0
TABLE
  2
VIEW
  5
746B
330
0
100
AcDbSymbolTable
 70
     0
  0
ENDTAB
  0
TABLE
  2
UCS
  5
746C
330
0
100
AcDbSymbolTable
 70
     0
  0
ENDTAB
  0
TABLE
  2
APPID
  5
746E
330
0
100
AcDbSymbolTable
 70
     6
  0
APPID
  5
7476
330
746E
100
AcDbSymbolTableRecord
100
AcDbRegAppTableRecord
  2
ACAD
 70
     0
  0
APPID
  5
DEA9
330
746E
100
AcDbSymbolTableRecord
100
AcDbRegAppTableRecord
  2
CONTENTBLOCKICON
 70
     0
  0
APPID
  5
DEAA
330
746E
100
AcDbSymbolTableRecord
100
AcDbRegAppTableRecord
  2
CONTENTBLOCKDESCRIPTION
 70
     0
  0
APPID
  5
E71D
330
746E
100
AcDbSymbolTableRecord
100
AcDbRegAppTableRecord
  2
CONTENTTABDATA
 70
     0
  0
APPID
  5
E71E
330
746E
100
AcDbSymbolTableRecord
100
AcDbRegAppTableRecord
  2
CONTENTCURRENTTAB
 70
     0
  0
APPID
  5
F3BA
330
746E
100
AcDbSymbolTableRecord
100
AcDbRegAppTableRecord
  2
DRAWINGVARIABLESXDATA
 70
     0
  0
ENDTAB
  0
TABLE
  2
DIMSTYLE
  5
746F
330
0
100
AcDbSymbolTable
 70
     1
100
AcDbDimStyleTable
 71
     1
340
F71F
  0
DIMSTYLE
105
F71F
102
{ACAD_REACTORS
330
211F3
330
2115A
330
21154
330
21152
330
2113D
330
210FB
330
210FA
330
210F9
330
210EC
330
210EB
330
210E8
330
210E7
330
210E5
330
210E4
330
210E1
330
210DE
330
210DC
330
210DB
330
210D8
330
20ED3
330
20E9C
330
20E34
330
20D50
330
1FEC1
330
1FE4B
330
1F249
330
1F248
330
1F11C
330
1E98B
330
1E96D
330
1E701
330
1D959
330
1D947
330
1D946
330
1D93F
330
1D93E
330
1D934
330
1D933
330
1D92D
330
1D92C
330
1D929
330
1D927
330
1D926
330
1D925
330
1D920
330
1D91D
330
1D91C
330
1D91B
102
}
330
746F
100
AcDbSymbolTableRecord
100
AcDbDimStyleTableRecord
  2
INABA_S40G
 70
     0
 40
40.0
 41
2.5
 42
0.5
 43
7.0
 44
1.5
 73
     0
 74
     0
 77
     3
 78
     8
140
3.0
141
0.0
143
0.0394
147
1.0
172
     1
173
     1
174
     1
178
     7
271
     1
288
     1
340
F706
341
F770
343
F770
344
F770
  0
ENDTAB
  0
TABLE
  2
BLOCK_RECORD
  5
7466
330
0
100
AcDbSymbolTable
 70
    32
  0
BLOCK_RECORD
  5
747D
330
7466
100
AcDbSymbolTableRecord
100
AcDbBlockTableRecord
  2
*MODEL_SPACE
340
159B3
  0
BLOCK_RECORD
  5
747A
330
7466
100
AcDbSymbolTableRecord
100
AcDbBlockTableRecord
  2
*PAPER_SPACE
340
159B4
  0
BLOCK_RECORD
  5
F770
330
7466
100
AcDbSymbolTableRecord
100
AcDbBlockTableRecord
  2
_DOTSMALL
340
0
102
{BLKREFS
331
21F7A
331
21F7B
331
21F82
331
21F83
331
21F8C
331
21F8D
331
21F95
331
21F96
331
21F9E
331
21F9F
331
21FBC
331
21FBD
331
21FC5
331
21FC6
331
21FCD
331
21FCE
331
21FD6
331
21FD7
331
21FDF
331
21FE0
331
21FE9
331
21FEA
331
21FF2
331
21FF3
331
21FFA
331
21FFB
331
22005
331
22006
331
2200F
331
22010
331
2201A
331
2201B
331
22023
331
22024
331
2202E
331
2202F
331
22037
331
22038
331
22042
331
22043
331
2204C
331
2204D
331
22055
331
22056
331
2205E
331
2205F
331
22069
331
2206A
331
22072
331
22073
331
2207A
331
2207B
331
22083
331
22084
331
220B3
331
220B4
331
220C9
331
220CA
331
220D3
331
220D4
331
220DC
331
220DD
102
}
  0
BLOCK_RECORD
  5
1DA44
330
7466
100
AcDbSymbolTableRecord
100
AcDbBlockTableRecord
  2
*D1
340
0
  0
BLOCK_RECORD
  5
1DA51
330
7466
100
AcDbSymbolTableRecord
100
AcDbBlockTableRecord
  2
*D2
340
0
  0
BLOCK_RECORD
  5
1DA5E
330
7466
100
AcDbSymbolTableRecord
100
AcDbBlockTableRecord
  2
*D3
340
0
  0
BLOCK_RECORD
  5
1DA69
330
7466
100
AcDbSymbolTableRecord
100
AcDbBlockTableRecord
  2
*D4
340
0
  0
BLOCK_RECORD
  5
1DA74
330
7466
100
AcDbSymbolTableRecord
100
AcDbBlockTableRecord
  2
*D5
340
0
  0
BLOCK_RECORD
  5
1DA81
330
7466
100
AcDbSymbolTableRecord
100
AcDbBlockTableRecord
  2
*D6
340
0
  0
BLOCK_RECORD
  5
1DA8E
330
7466
100
AcDbSymbolTableRecord
100
AcDbBlockTableRecord
  2
*D7
340
0
  0
BLOCK_RECORD
  5
1DA9A
330
7466
100
AcDbSymbolTableRecord
100
AcDbBlockTableRecord
  2
*D8
340
0
  0
BLOCK_RECORD
  5
1DAA5
330
7466
100
AcDbSymbolTableRecord
100
AcDbBlockTableRecord
  2
*D9
340
0
  0
BLOCK_RECORD
  5
1DAB2
330
7466
100
AcDbSymbolTableRecord
100
AcDbBlockTableRecord
  2
*D10
340
0
  0
BLOCK_RECORD
  5
1DABE
330
7466
100
AcDbSymbolTableRecord
100
AcDbBlockTableRecord
  2
*D11
340
0
  0
BLOCK_RECORD
  5
1DACB
330
7466
100
AcDbSymbolTableRecord
100
AcDbBlockTableRecord
  2
*D12
340
0
  0
BLOCK_RECORD
  5
1DAD9
330
7466
100
AcDbSymbolTableRecord
100
AcDbBlockTableRecord
  2
*D13
340
0
  0
BLOCK_RECORD
  5
1DAE6
330
7466
100
AcDbSymbolTableRecord
100
AcDbBlockTableRecord
  2
*D14
340
0
  0
BLOCK_RECORD
  5
1DB00
330
7466
100
AcDbSymbolTableRecord
100
AcDbBlockTableRecord
  2
*D15
340
0
  0
BLOCK_RECORD
  5
1DB1A
330
7466
100
AcDbSymbolTableRecord
100
AcDbBlockTableRecord
  2
*D16
340
0
  0
BLOCK_RECORD
  5
1E9D0
330
7466
100
AcDbSymbolTableRecord
100
AcDbBlockTableRecord
  2
*D17
340
0
  0
BLOCK_RECORD
  5
1EA32
330
7466
100
AcDbSymbolTableRecord
100
AcDbBlockTableRecord
  2
*D18
340
0
  0
BLOCK_RECORD
  5
1F24A
330
7466
100
AcDbSymbolTableRecord
100
AcDbBlockTableRecord
  2
*D19
340
0
  0
BLOCK_RECORD
  5
1F255
330
7466
100
AcDbSymbolTableRecord
100
AcDbBlockTableRecord
  2
*D20
340
0
  0
BLOCK_RECORD
  5
1FE4C
330
7466
100
AcDbSymbolTableRecord
100
AcDbBlockTableRecord
  2
*D21
340
0
  0
BLOCK_RECORD
  5
20D51
330
7466
100
AcDbSymbolTableRecord
100
AcDbBlockTableRecord
  2
*D22
340
0
  0
BLOCK_RECORD
  5
20E35
330
7466
100
AcDbSymbolTableRecord
100
AcDbBlockTableRecord
  2
*D23
340
0
  0
BLOCK_RECORD
  5
20E9D
330
7466
100
AcDbSymbolTableRecord
100
AcDbBlockTableRecord
  2
*D24
340
0
  0
BLOCK_RECORD
  5
20ED4
330
7466
100
AcDbSymbolTableRecord
100
AcDbBlockTableRecord
  2
*D25
340
0
  0
BLOCK_RECORD
  5
21203
330
7466
100
AcDbSymbolTableRecord
100
AcDbBlockTableRecord
  2
*D26
340
0
  0
BLOCK_RECORD
  5
2120E
330
7466
100
AcDbSymbolTableRecord
100
AcDbBlockTableRecord
  2
*D27
340
0
  0
BLOCK_RECORD
  5
2121C
330
7466
100
AcDbSymbolTableRecord
100
AcDbBlockTableRecord
  2
*D28
340
0
  0
BLOCK_RECORD
  5
21228
330
7466
100
AcDbSymbolTableRecord
100
AcDbBlockTableRecord
  2
*D29
340
0
  0
BLOCK_RECORD
  5
21234
330
7466
100
AcDbSymbolTableRecord
100
AcDbBlockTableRecord
  2
*D30
340
0
  0
BLOCK_RECORD
  5
21240
330
7466
100
AcDbSymbolTableRecord
100
AcDbBlockTableRecord
  2
*D31
340
0
  0
ENDTAB
  0
ENDSEC
  0
SECTION
  2
BLOCKS
  0
BLOCK
  5
7489
330
747D
100
AcDbEntity
  8
0
100
AcDbBlockBegin
  2
*MODEL_SPACE
 70
     0
 10
0.0
 20
0.0
 30
0.0
  3
*MODEL_SPACE
  1

  0
ENDBLK
  5
748A
330
747D
100
AcDbEntity
  8
0
100
AcDbBlockEnd
  0
BLOCK
  5
7487
330
747A
100
AcDbEntity
 67
     1
  8
0
100
AcDbBlockBegin
  2
*PAPER_SPACE
 70
     0
 10
0.0
 20
0.0
 30
0.0
  3
*PAPER_SPACE
  1

  0
ENDBLK
  5
7488
330
747A
100
AcDbEntity
 67
     1
  8
0
100
AcDbBlockEnd
  0
BLOCK
  5
F771
330
F770
100
AcDbEntity
  8
0
 48
50.0
100
AcDbBlockBegin
  2
_DOTSMALL
 70
     0
 10
0.0
 20
0.0
 30
0.0
  3
_DOTSMALL
  1

  0
LWPOLYLINE
  5
F772
330
F770
100
AcDbEntity
  8
0
  6
ByBlock
 62
     0
 48
50.0
100
AcDbPolyline
 90
        2
 70
     1
 43
0.5
 10
-0.0625
 20
0.0
 42
1.0
 10
0.0625
 20
0.0
 42
1.0
  0
ENDBLK
  5
F776
330
F770
100
AcDbEntity
  8
0
 48
50.0
100
AcDbBlockEnd
  0
BLOCK
  5
1DA4F
330
1DA44
100
AcDbEntity
  8
0
 48
50.0
100
AcDbBlockBegin
  2
*D1
 70
     1
 10
0.0
 20
0.0
 30
0.0
  3
*D1
  1

  0
LINE
  5
220CE
330
1DA44
100
AcDbEntity
  8
寸法
 62
     0
 48
50.0
370
    -2
100
AcDbLine
 10
6729.2130112739
 20
5472.919036112859
 30
0.0
 11
6985.920261149995
 21
5472.919036112859
 31
0.0
  0
LINE
  5
220CF
330
1DA44
100
AcDbEntity
  8
寸法
 62
     0
 48
50.0
370
    -2
100
AcDbLine
 10
6729.213011273897
 20
5602.919036112863
 30
0.0
 11
6985.920261149995
 21
5602.919036112863
 31
0.0
  0
LINE
  5
220D0
330
1DA44
100
AcDbEntity
  8
寸法
 62
     0
 48
50.0
370
    -2
100
AcDbLine
 10
6925.920261149996
 20
5472.919036112859
 30
0.0
 11
6925.920261149996
 21
5602.919036112863
 31
0.0
  0
LINE
  5
220D1
330
1DA44
100
AcDbEntity
  8
寸法
 62
     0
 48
50.0
370
    -2
100
AcDbLine
 10
6925.920261149996
 20
5975.01352430184
 30
0.0
 11
6925.920261149996
 21
5602.919036112863
 31
0.0
  0
MTEXT
  5
220D2
330
1DA44
100
AcDbEntity
  8
寸法
 62
     7
 48
50.0
100
AcDbMText
 10
6825.920261149994
 20
5838.966280207354
 30
0.0
 40
120.0
 41
0.0
 71
     5
 72
     1
  1
\A1;130
  7
STYLE1
 11
0.0000000000000001
 21
1.0
 31
0.0
 73
     1
 44
1.0
1001
ACAD
1000
MTEXTBEGIN
1070
    73
1070
     1
1070
    44
1040
1.0
1070
    74
1070
     0
1000
MTEXTEND
  0
INSERT
  5
220D3
330
1DA44
100
AcDbEntity
  8
寸法
 62
     0
 48
50.0
370
    -2
100
AcDbBlockReference
  2
_DOTSMALL
 10
6925.920261149996
 20
5472.919036112859
 30
0.0
 41
100.0
 42
100.0
 43
100.0
 50
270.0
  0
INSERT
  5
220D4
330
1DA44
100
AcDbEntity
  8
寸法
 62
     0
 48
50.0
370
    -2
100
AcDbBlockReference
  2
_DOTSMALL
 10
6925.920261149996
 20
5602.919036112863
 30
0.0
 41
100.0
 42
100.0
 43
100.0
 50
90.0
  0
POINT
  5
220D5
330
1DA44
100
AcDbEntity
  8
DEFPOINTS
 62
     0
 48
50.0
100
AcDbPoint
 10
6709.2130112739
 20
5472.919036112859
 30
0.0
  0
POINT
  5
220D6
330
1DA44
100
AcDbEntity
  8
DEFPOINTS
 62
     0
 48
50.0
100
AcDbPoint
 10
6709.213011273897
 20
5602.919036112863
 30
0.0
  0
POINT
  5
220D7
330
1DA44
100
AcDbEntity
  8
DEFPOINTS
 62
     0
 48
50.0
100
AcDbPoint
 10
6925.920261149996
 20
5602.919036112863
 30
0.0
  0
ENDBLK
  5
1DA50
330
1DA44
100
AcDbEntity
  8
0
 48
50.0
100
AcDbBlockEnd
  0
BLOCK
  5
1DA5C
330
1DA51
100
AcDbEntity
  8
0
 48
50.0
100
AcDbBlockBegin
  2
*D2
 70
     1
 10
0.0
 20
0.0
 30
0.0
  3
*D2
  1

  0
LINE
  5
220C4
330
1DA51
100
AcDbEntity
  8
寸法
 62
     0
 48
50.0
370
    -2
100
AcDbLine
 10
6729.2130112739
 20
5472.919036112862
 30
0.0
 11
6985.920261149995
 21
5472.919036112862
 31
0.0
  0
LINE
  5
220C5
330
1DA51
100
AcDbEntity
  8
寸法
 62
     0
 48
50.0
370
    -2
100
AcDbLine
 10
6729.213011273897
 20
5302.919036112861
 30
0.0
 11
6985.920261149995
 21
5302.919036112861
 31
0.0
  0
LINE
  5
220C6
330
1DA51
100
AcDbEntity
  8
寸法
 62
     0
 48
50.0
370
    -2
100
AcDbLine
 10
6925.920261149996
 20
5472.919036112862
 30
0.0
 11
6925.920261149996
 21
5302.919036112861
 31
0.0
  0
LINE
  5
220C7
330
1DA51
100
AcDbEntity
  8
寸法
 62
     0
 48
50.0
370
    -2
100
AcDbLine
 10
6925.920261149996
 20
4930.614888094228
 30
0.0
 11
6925.920261149996
 21
5302.919036112861
 31
0.0
  0
MTEXT
  5
220C8
330
1DA51
100
AcDbEntity
  8
寸法
 62
     7
 48
50.0
100
AcDbMText
 10
6825.920261149994
 20
5066.662132188719
 30
0.0
 40
120.0
 41
0.0
 71
     5
 72
     1
  1
\A1;170
  7
STYLE1
 11
0.0000000000000001
 21
1.0
 31
0.0
 73
     1
 44
1.0
1001
ACAD
1000
MTEXTBEGIN
1070
    73
1070
     1
1070
    44
1040
1.0
1070
    74
1070
     0
1000
MTEXTEND
  0
INSERT
  5
220C9
330
1DA51
100
AcDbEntity
  8
寸法
 62
     0
 48
50.0
370
    -2
100
AcDbBlockReference
  2
_DOTSMALL
 10
6925.920261149996
 20
5472.919036112862
 30
0.0
 41
100.0
 42
100.0
 43
100.0
 50
90.0
  0
INSERT
  5
220CA
330
1DA51
100
AcDbEntity
  8
寸法
 62
     0
 48
50.0
370
    -2
100
AcDbBlockReference
  2
_DOTSMALL
 10
6925.920261149996
 20
5302.919036112861
 30
0.0
 41
100.0
 42
100.0
 43
100.0
 50
270.0
  0
POINT
  5
220CB
330
1DA51
100
AcDbEntity
  8
DEFPOINTS
 62
     0
 48
50.0
100
AcDbPoint
 10
6709.2130112739
 20
5472.919036112862
 30
0.0
  0
POINT
  5
220CC
330
1DA51
100
AcDbEntity
  8
DEFPOINTS
 62
     0
 48
50.0
100
AcDbPoint
 10
6709.213011273897
 20
5302.919036112861
 30
0.0
  0
POINT
  5
220CD
330
1DA51
100
AcDbEntity
  8
DEFPOINTS
 62
     0
 48
50.0
100
AcDbPoint
 10
6925.920261149996
 20
5302.919036112861
 30
0.0
  0
ENDBLK
  5
1DA5D
330
1DA51
100
AcDbEntity
  8
0
 48
50.0
100
AcDbBlockEnd
  0
BLOCK
  5
1DA67
330
1DA5E
100
AcDbEntity
  8
0
 48
50.0
100
AcDbBlockBegin
  2
*D3
 70
     1
 10
0.0
 20
0.0
 30
0.0
  3
*D3
  1

  0
LINE
  5
22080
330
1DA5E
100
AcDbEntity
  8
寸法
 62
     0
 48
50.0
370
    -2
100
AcDbLine
 10
9416.213011273896
 20
7469.91903611286
 30
0.0
 11
9416.213011273896
 21
8336.250847072712
 31
0.0
  0
LINE
  5
22081
330
1DA5E
100
AcDbEntity
  8
寸法
 62
     0
 48
50.0
370
    -2
100
AcDbLine
 10
6602.213011273896
 20
7469.91903611286
 30
0.0
 11
6602.213011273896
 21
8336.250847072712
 31
0.0
  0
LINE
  5
22082
330
1DA5E
100
AcDbEntity
  8
寸法
 62
     0
 48
50.0
370
    -2
100
AcDbLine
 10
9416.213011273896
 20
8276.250847072711
 30
0.0
 11
6602.213011273896
 21
8276.250847072711
 31
0.0
  0
INSERT
  5
22083
330
1DA5E
100
AcDbEntity
  8
寸法
 62
     0
 48
50.0
370
    -2
100
AcDbBlockReference
  2
_DOTSMALL
 10
9416.213011273896
 20
8276.250847072711
 30
0.0
 41
100.0
 42
100.0
 43
100.0
  0
INSERT
  5
22084
330
1DA5E
100
AcDbEntity
  8
寸法
 62
     0
 48
50.0
370
    -2
100
AcDbBlockReference
  2
_DOTSMALL
 10
6602.213011273896
 20
8276.250847072711
 30
0.0
 41
100.0
 42
100.0
 43
100.0
 50
180.0
  0
MTEXT
  5
22085
330
1DA5E
100
AcDbEntity
  8
寸法
 62
     7
 48
50.0
100
AcDbMText
 10
8009.213011273896
 20
8376.262658096333
 30
0.0
 40
120.0
 41
0.0
 71
     5
 72
     1
  1
\A1;2814
  7
STYLE1
 73
     1
 44
1.0
1001
ACAD
1000
MTEXTBEGIN
1070
    73
1070
     1
1070
    44
1040
1.0
1070
    74
1070
     0
1000
MTEXTEND
  0
POINT
  5
22086
330
1DA5E
100
AcDbEntity
  8
DEFPOINTS
 62
     0
 48
50.0
100
AcDbPoint
 10
9416.213011273896
 20
7449.919036112861
 30
0.0
  0
POINT
  5
22087
330
1DA5E
100
AcDbEntity
  8
DEFPOINTS
 62
     0
 48
50.0
100
AcDbPoint
 10
6602.213011273896
 20
7449.919036112861
 30
0.0
  0
POINT
  5
22088
330
1DA5E
100
AcDbEntity
  8
DEFPOINTS
 62
     0
 48
50.0
100
AcDbPoint
 10
6602.213011273896
 20
8276.250847072711
 30
0.0
  0
ENDBLK
  5
1DA68
330
1DA5E
100
AcDbEntity
  8
0
 48
50.0
100
AcDbBlockEnd
  0
BLOCK
  5
1DA72
330
1DA69
100
AcDbEntity
  8
0
 48
50.0
100
AcDbBlockBegin
  2
*D4
 70
     1
 10
0.0
 20
0.0
 30
0.0
  3
*D4
  1

  0
LINE
  5
22077
330
1DA69
100
AcDbEntity
  8
寸法
 62
     0
 48
50.0
370
    -2
100
AcDbLine
 10
6479.213011273895
 20
7542.919036112859
 30
0.0
 11
6479.213011273895
 21
8548.711542589549
 31
0.0
  0
LINE
  5
22078
330
1DA69
100
AcDbEntity
  8
寸法
 62
     0
 48
50.0
370
    -2
100
AcDbLine
 10
9539.213011273897
 20
7542.919036112862
 30
0.0
 11
9539.213011273897
 21
8548.711542589549
 31
0.0
  0
LINE
  5
22079
330
1DA69
100
AcDbEntity
  8
寸法
 62
     0
 48
50.0
370
    -2
100
AcDbLine
 10
6479.213011273895
 20
8488.711542589548
 30
0.0
 11
9539.213011273897
 21
8488.711542589548
 31
0.0
  0
INSERT
  5
2207A
330
1DA69
100
AcDbEntity
  8
寸法
 62
     0
 48
50.0
370
    -2
100
AcDbBlockReference
  2
_DOTSMALL
 10
6479.213011273895
 20
8488.711542589548
 30
0.0
 41
100.0
 42
100.0
 43
100.0
 50
180.0
  0
INSERT
  5
2207B
330
1DA69
100
AcDbEntity
  8
寸法
 62
     0
 48
50.0
370
    -2
100
AcDbBlockReference
  2
_DOTSMALL
 10
9539.213011273897
 20
8488.711542589548
 30
0.0
 41
100.0
 42
100.0
 43
100.0
  0
MTEXT
  5
2207C
330
1DA69
100
AcDbEntity
  8
寸法
 62
     7
 48
50.0
100
AcDbMText
 10
8009.213011273896
 20
8588.711542589548
 30
0.0
 40
120.0
 41
0.0
 71
     5
 72
     1
  1
\A1;3060
  7
STYLE1
 73
     1
 44
1.0
1001
ACAD
1000
MTEXTBEGIN
1070
    73
1070
     1
1070
    44
1040
1.0
1070
    74
1070
     0
1000
MTEXTEND
  0
POINT
  5
2207D
330
1DA69
100
AcDbEntity
  8
DEFPOINTS
 62
     0
 48
50.0
100
AcDbPoint
 10
6479.213011273895
 20
7522.919036112859
 30
0.0
  0
POINT
  5
2207E
330
1DA69
100
AcDbEntity
  8
DEFPOINTS
 62
     0
 48
50.0
100
AcDbPoint
 10
9539.213011273897
 20
7522.919036112861
 30
0.0
  0
POINT
  5
2207F
330
1DA69
100
AcDbEntity
  8
DEFPOINTS
 62
     0
 48
50.0
100
AcDbPoint
 10
9539.213011273897
 20
8488.711542589548
 30
0.0
  0
ENDBLK
  5
1DA73
330
1DA69
100
AcDbEntity
  8
0
 48
50.0
100
AcDbBlockEnd
  0
BLOCK
  5
1DA7F
330
1DA74
100
AcDbEntity
  8
0
 48
50.0
100
AcDbBlockBegin
  2
*D5
 70
     1
 10
0.0
 20
0.0
 30
0.0
  3
*D5
  1

  0
LINE
  5
2206E
330
1DA74
100
AcDbEntity
  8
寸法
 62
     0
 48
50.0
370
    -2
100
AcDbLine
 10
6602.213011273896
 20
7469.91903611286
 30
0.0
 11
6602.213011273896
 21
8336.250847072712
 31
0.0
  0
LINE
  5
2206F
330
1DA74
100
AcDbEntity
  8
寸法
 62
     0
 48
50.0
370
    -2
100
AcDbLine
 10
6479.213011273895
 20
7542.919036112859
 30
0.0
 11
6479.213011273895
 21
8336.250847072712
 31
0.0
  0
LINE
  5
22070
330
1DA74
100
AcDbEntity
  8
寸法
 62
     0
 48
50.0
370
    -2
100
AcDbLine
 10
6602.213011273896
 20
8276.250847072711
 30
0.0
 11
6479.213011273895
 21
8276.250847072711
 31
0.0
  0
MTEXT
  5
22071
330
1DA74
100
AcDbEntity
  8
寸法
 62
     7
 48
50.0
100
AcDbMText
 10
6240.727729899656
 20
8376.262658096333
 30
0.0
 40
120.0
 41
0.0
 71
     5
 72
     1
  1
\A1;123
  7
STYLE1
 73
     1
 44
1.0
1001
ACAD
1000
MTEXTBEGIN
1070
    73
1070
     1
1070
    44
1040
1.0
1070
    74
1070
     0
1000
MTEXTEND
  0
INSERT
  5
22072
330
1DA74
100
AcDbEntity
  8
寸法
 62
     0
 48
50.0
370
    -2
100
AcDbBlockReference
  2
_DOTSMALL
 10
6602.213011273896
 20
8276.250847072711
 30
0.0
 41
100.0
 42
100.0
 43
100.0
  0
INSERT
  5
22073
330
1DA74
100
AcDbEntity
  8
寸法
 62
     0
 48
50.0
370
    -2
100
AcDbBlockReference
  2
_DOTSMALL
 10
6479.213011273895
 20
8276.250847072711
 30
0.0
 41
100.0
 42
100.0
 43
100.0
 50
180.0
  0
POINT
  5
22074
330
1DA74
100
AcDbEntity
  8
DEFPOINTS
 62
     0
 48
50.0
100
AcDbPoint
 10
6602.213011273896
 20
7449.919036112861
 30
0.0
  0
POINT
  5
22075
330
1DA74
100
AcDbEntity
  8
DEFPOINTS
 62
     0
 48
50.0
100
AcDbPoint
 10
6479.213011273895
 20
7522.919036112859
 30
0.0
  0
POINT
  5
22076
330
1DA74
100
AcDbEntity
  8
DEFPOINTS
 62
     0
 48
50.0
100
AcDbPoint
 10
6479.213011273895
 20
8276.250847072711
 30
0.0
  0
ENDBLK
  5
1DA80
330
1DA74
100
AcDbEntity
  8
0
 48
50.0
100
AcDbBlockEnd
  0
BLOCK
  5
1DA8C
330
1DA81
100
AcDbEntity
  8
0
 48
50.0
100
AcDbBlockBegin
  2
*D6
 70
     1
 10
0.0
 20
0.0
 30
0.0
  3
*D6
  1

  0
LINE
  5
22063
330
1DA81
100
AcDbEntity
  8
寸法
 62
     0
 48
50.0
370
    -2
100
AcDbLine
 10
6434.213011273893
 20
8296.250847072711
 30
0.0
 11
6434.213011273893
 21
8548.711542589549
 31
0.0
  0
LINE
  5
22064
330
1DA81
100
AcDbEntity
  8
寸法
 62
     0
 48
50.0
370
    -2
100
AcDbLine
 10
6479.213011273896
 20
7691.190236682782
 30
0.0
 11
6479.213011273896
 21
8548.711542589549
 31
0.0
  0
LINE
  5
22065
330
1DA81
100
AcDbEntity
  8
寸法
 62
     0
 48
50.0
370
    -2
100
AcDbLine
 10
6434.213011273893
 20
8488.71154258955
 30
0.0
 11
6334.213011273892
 21
8488.71154258955
 31
0.0
  0
LINE
  5
22066
330
1DA81
100
AcDbEntity
  8
寸法
 62
     0
 48
50.0
370
    -2
100
AcDbLine
 10
6479.213011273896
 20
8488.71154258955
 30
0.0
 11
6579.213011273896
 21
8488.71154258955
 31
0.0
  0
MTEXT
  5
22067
330
1DA81
100
AcDbEntity
  8
寸法
 62
     7
 48
50.0
100
AcDbMText
 10
6456.713011273894
 20
8588.71154258955
 30
0.0
 40
120.0
 41
0.0
 71
     5
 72
     1
  1
\A1;a
  7
STYLE1
 73
     1
 44
1.0
1001
ACAD
1000
MTEXTBEGIN
1070
    73
1070
     1
1070
    44
1040
1.0
1070
    74
1070
     0
1000
MTEXTEND
  0
LINE
  5
22068
330
1DA81
100
AcDbEntity
  8
寸法
 62
     0
 48
50.0
370
    -2
100
AcDbLine
 10
6434.213011273893
 20
8488.71154258955
 30
0.0
 11
6479.213011273896
 21
8488.71154258955
 31
0.0
  0
INSERT
  5
22069
330
1DA81
100
AcDbEntity
  8
寸法
 62
     0
 48
50.0
370
    -2
100
AcDbBlockReference
  2
_DOTSMALL
 10
6434.213011273893
 20
8488.71154258955
 30
0.0
 41
100.0
 42
100.0
 43
100.0
  0
INSERT
  5
2206A
330
1DA81
100
AcDbEntity
  8
寸法
 62
     0
 48
50.0
370
    -2
100
AcDbBlockReference
  2
_DOTSMALL
 10
6479.213011273896
 20
8488.71154258955
 30
0.0
 41
100.0
 42
100.0
 43
100.0
 50
180.0
  0
POINT
  5
2206B
330
1DA81
100
AcDbEntity
  8
DEFPOINTS
 62
     0
 48
50.0
100
AcDbPoint
 10
6434.213011273893
 20
8276.250847072711
 30
0.0
  0
POINT
  5
2206C
330
1DA81
100
AcDbEntity
  8
DEFPOINTS
 62
     0
 48
50.0
100
AcDbPoint
 10
6479.213011273896
 20
7671.190236682781
 30
0.0
  0
POINT
  5
2206D
330
1DA81
100
AcDbEntity
  8
DEFPOINTS
 62
     0
 48
50.0
100
AcDbPoint
 10
6479.213011273896
 20
8488.71154258955
 30
0.0
  0
ENDBLK
  5
1DA8D
330
1DA81
100
AcDbEntity
  8
0
 48
50.0
100
AcDbBlockEnd
  0
BLOCK
  5
1DA98
330
1DA8E
100
AcDbEntity
  8
0
 48
50.0
100
AcDbBlockBegin
  2
*D7
 70
     1
 10
0.0
 20
0.0
 30
0.0
  3
*D7
  1

  0
LINE
  5
2205A
330
1DA8E
100
AcDbEntity
  8
寸法
 62
     0
 48
50.0
370
    -2
100
AcDbLine
 10
6532.213011273896
 20
7399.919036112861
 30
0.0
 11
5923.270745260076
 21
7399.919036112861
 31
0.0
  0
LINE
  5
2205B
330
1DA8E
100
AcDbEntity
  8
寸法
 62
     0
 48
50.0
370
    -2
100
AcDbLine
 10
6532.213011273904
 20
5500.919036112861
 30
0.0
 11
5923.270745260076
 21
5500.919036112862
 31
0.0
  0
LINE
  5
2205C
330
1DA8E
100
AcDbEntity
  8
寸法
 62
     0
 48
50.0
370
    -2
100
AcDbLine
 10
5983.270745260076
 20
7399.919036112861
 30
0.0
 11
5983.270745260075
 21
5500.919036112862
 31
0.0
  0
MTEXT
  5
2205D
330
1DA8E
100
AcDbEntity
  8
寸法
 62
     7
 48
50.0
100
AcDbMText
 10
5883.270745260074
 20
6412.919036112862
 30
0.0
 40
120.0
 41
0.0
 71
     5
 72
     1
  1
\A1;1899
  7
STYLE1
 11
0.0000000000000001
 21
1.0
 31
0.0
 73
     1
 44
1.0
1001
ACAD
1000
MTEXTBEGIN
1070
    73
1070
     1
1070
    44
1040
1.0
1070
    74
1070
     0
1000
MTEXTEND
  0
INSERT
  5
2205E
330
1DA8E
100
AcDbEntity
  8
寸法
 62
     0
 48
50.0
370
    -2
100
AcDbBlockReference
  2
_DOTSMALL
 10
5983.270745260076
 20
7399.919036112861
 30
0.0
 41
100.0
 42
100.0
 43
100.0
 50
90.0
  0
INSERT
  5
2205F
330
1DA8E
100
AcDbEntity
  8
寸法
 62
     0
 48
50.0
370
    -2
100
AcDbBlockReference
  2
_DOTSMALL
 10
5983.270745260075
 20
5500.919036112862
 30
0.0
 41
100.0
 42
100.0
 43
100.0
 50
270.0
  0
POINT
  5
22060
330
1DA8E
100
AcDbEntity
  8
DEFPOINTS
 62
     0
 48
50.0
100
AcDbPoint
 10
6552.213011273896
 20
7399.919036112861
 30
0.0
  0
POINT
  5
22061
330
1DA8E
100
AcDbEntity
  8
DEFPOINTS
 62
     0
 48
50.0
100
AcDbPoint
 10
6552.213011273905
 20
5500.919036112861
 30
0.0
  0
POINT
  5
22062
330
1DA8E
100
AcDbEntity
  8
DEFPOINTS
 62
     0
 48
50.0
100
AcDbPoint
 10
5983.270745260075
 20
5500.919036112862
 30
0.0
  0
ENDBLK
  5
1DA99
330
1DA8E
100
AcDbEntity
  8
0
 48
50.0
100
AcDbBlockEnd
  0
BLOCK
  5
1DAA3
330
1DA9A
100
AcDbEntity
  8
0
 48
50.0
100
AcDbBlockBegin
  2
*D8
 70
     1
 10
0.0
 20
0.0
 30
0.0
  3
*D8
  1

  0
LINE
  5
22051
330
1DA9A
100
AcDbEntity
  8
寸法
 62
     0
 48
50.0
370
    -2
100
AcDbLine
 10
6459.213011273894
 20
7522.919036112863
 30
0.0
 11
5677.777943122112
 21
7522.919036112863
 31
0.0
  0
LINE
  5
22052
330
1DA9A
100
AcDbEntity
  8
寸法
 62
     0
 48
50.0
370
    -2
100
AcDbLine
 10
6459.213011273897
 20
5302.91903611286
 30
0.0
 11
5677.77794312211
 21
5302.919036112861
 31
0.0
  0
LINE
  5
22053
330
1DA9A
100
AcDbEntity
  8
寸法
 62
     0
 48
50.0
370
    -2
100
AcDbLine
 10
5737.777943122111
 20
7522.919036112863
 30
0.0
 11
5737.777943122111
 21
5302.919036112861
 31
0.0
  0
MTEXT
  5
22054
330
1DA9A
100
AcDbEntity
  8
寸法
 62
     7
 48
50.0
100
AcDbMText
 10
5637.766132098488
 20
6412.919036112862
 30
0.0
 40
120.0
 41
0.0
 71
     5
 72
     1
  1
\A1;2220
  7
STYLE1
 11
0.0000000000000001
 21
1.0
 31
0.0
 73
     1
 44
1.0
1001
ACAD
1000
MTEXTBEGIN
1070
    73
1070
     1
1070
    44
1040
1.0
1070
    74
1070
     0
1000
MTEXTEND
  0
INSERT
  5
22055
330
1DA9A
100
AcDbEntity
  8
寸法
 62
     0
 48
50.0
370
    -2
100
AcDbBlockReference
  2
_DOTSMALL
 10
5737.777943122111
 20
7522.919036112863
 30
0.0
 41
100.0
 42
100.0
 43
100.0
 50
90.0
  0
INSERT
  5
22056
330
1DA9A
100
AcDbEntity
  8
寸法
 62
     0
 48
50.0
370
    -2
100
AcDbBlockReference
  2
_DOTSMALL
 10
5737.777943122111
 20
5302.919036112861
 30
0.0
 41
100.0
 42
100.0
 43
100.0
 50
270.0
  0
POINT
  5
22057
330
1DA9A
100
AcDbEntity
  8
DEFPOINTS
 62
     0
 48
50.0
100
AcDbPoint
 10
6479.213011273895
 20
7522.919036112863
 30
0.0
  0
POINT
  5
22058
330
1DA9A
100
AcDbEntity
  8
DEFPOINTS
 62
     0
 48
50.0
100
AcDbPoint
 10
6479.213011273897
 20
5302.91903611286
 30
0.0
  0
POINT
  5
22059
330
1DA9A
100
AcDbEntity
  8
DEFPOINTS
 62
     0
 48
50.0
100
AcDbPoint
 10
5737.777943122111
 20
5302.919036112861
 30
0.0
  0
ENDBLK
  5
1DAA4
330
1DA9A
100
AcDbEntity
  8
0
 48
50.0
100
AcDbBlockEnd
  0
BLOCK
  5
1DAB0
330
1DAA5
100
AcDbEntity
  8
0
 48
50.0
100
AcDbBlockBegin
  2
*D9
 70
     1
 10
0.0
 20
0.0
 30
0.0
  3
*D9
  1

  0
LINE
  5
22047
330
1DAA5
100
AcDbEntity
  8
寸法
 62
     0
 48
50.0
370
    -2
100
AcDbLine
 10
6532.213011273904
 20
5500.919036112861
 30
0.0
 11
5923.270745260076
 21
5500.919036112862
 31
0.0
  0
LINE
  5
22048
330
1DAA5
100
AcDbEntity
  8
寸法
 62
     0
 48
50.0
370
    -2
100
AcDbLine
 10
6459.213011273897
 20
5302.91903611286
 30
0.0
 11
5923.270745260076
 21
5302.919036112861
 31
0.0
  0
LINE
  5
22049
330
1DAA5
100
AcDbEntity
  8
寸法
 62
     0
 48
50.0
370
    -2
100
AcDbLine
 10
5983.270745260075
 20
5500.919036112862
 30
0.0
 11
5983.270745260075
 21
5302.919036112861
 31
0.0
  0
LINE
  5
2204A
330
1DAA5
100
AcDbEntity
  8
寸法
 62
     0
 48
50.0
370
    -2
100
AcDbLine
 10
5983.270745260075
 20
4930.499716453547
 30
0.0
 11
5983.270745260075
 21
5302.919036112861
 31
0.0
  0
MTEXT
  5
2204B
330
1DAA5
100
AcDbEntity
  8
寸法
 62
     7
 48
50.0
100
AcDbMText
 10
5883.270745260074
 20
5066.709376283204
 30
0.0
 40
120.0
 41
0.0
 71
     5
 72
     1
  1
\A1;198
  7
STYLE1
 11
0.0000000000000001
 21
1.0
 31
0.0
 73
     1
 44
1.0
1001
ACAD
1000
MTEXTBEGIN
1070
    73
1070
     1
1070
    44
1040
1.0
1070
    74
1070
     0
1000
MTEXTEND
  0
INSERT
  5
2204C
330
1DAA5
100
AcDbEntity
  8
寸法
 62
     0
 48
50.0
370
    -2
100
AcDbBlockReference
  2
_DOTSMALL
 10
5983.270745260075
 20
5500.919036112862
 30
0.0
 41
100.0
 42
100.0
 43
100.0
 50
90.0
  0
INSERT
  5
2204D
330
1DAA5
100
AcDbEntity
  8
寸法
 62
     0
 48
50.0
370
    -2
100
AcDbBlockReference
  2
_DOTSMALL
 10
5983.270745260075
 20
5302.919036112861
 30
0.0
 41
100.0
 42
100.0
 43
100.0
 50
270.0
  0
POINT
  5
2204E
330
1DAA5
100
AcDbEntity
  8
DEFPOINTS
 62
     0
 48
50.0
100
AcDbPoint
 10
6552.213011273905
 20
5500.919036112861
 30
0.0
  0
POINT
  5
2204F
330
1DAA5
100
AcDbEntity
  8
DEFPOINTS
 62
     0
 48
50.0
100
AcDbPoint
 10
6479.213011273897
 20
5302.91903611286
 30
0.0
  0
POINT
  5
22050
330
1DAA5
100
AcDbEntity
  8
DEFPOINTS
 62
     0
 48
50.0
100
AcDbPoint
 10
5983.270745260075
 20
5302.919036112861
 30
0.0
  0
ENDBLK
  5
1DAB1
330
1DAA5
100
AcDbEntity
  8
0
 48
50.0
100
AcDbBlockEnd
  0
BLOCK
  5
1DABC
330
1DAB2
100
AcDbEntity
  8
0
 48
50.0
100
AcDbBlockBegin
  2
*D10
 70
     1
 10
0.0
 20
0.0
 30
0.0
  3
*D10
  1

  0
LINE
  5
2203C
330
1DAB2
100
AcDbEntity
  8
寸法
 62
     0
 48
50.0
370
    -2
100
AcDbLine
 10
6459.213011273897
 20
5302.91903611286
 30
0.0
 11
5677.777943122109
 21
5302.919036112861
 31
0.0
  0
LINE
  5
2203D
330
1DAB2
100
AcDbEntity
  8
寸法
 62
     0
 48
50.0
370
    -2
100
AcDbLine
 10
5963.270745260075
 20
5247.919036112859
 30
0.0
 11
5677.777943122109
 21
5247.919036112859
 31
0.0
  0
LINE
  5
2203E
330
1DAB2
100
AcDbEntity
  8
寸法
 62
     0
 48
50.0
370
    -2
100
AcDbLine
 10
5737.777943122108
 20
5302.919036112861
 30
0.0
 11
5737.777943122108
 21
5402.91903611286
 31
0.0
  0
LINE
  5
2203F
330
1DAB2
100
AcDbEntity
  8
寸法
 62
     0
 48
50.0
370
    -2
100
AcDbLine
 10
5737.777943122108
 20
5247.919036112859
 30
0.0
 11
5737.777943122108
 21
5147.91903611286
 31
0.0
  0
MTEXT
  5
22040
330
1DAB2
100
AcDbEntity
  8
寸法
 62
     7
 48
50.0
100
AcDbMText
 10
5637.777943122108
 20
5275.419036112861
 30
0.0
 40
120.0
 41
0.0
 71
     5
 72
     1
  1
\A1;b
  7
STYLE1
 11
0.0000000000000001
 21
1.0
 31
0.0
 73
     1
 44
1.0
1001
ACAD
1000
MTEXTBEGIN
1070
    73
1070
     1
1070
    44
1040
1.0
1070
    74
1070
     0
1000
MTEXTEND
  0
LINE
  5
22041
330
1DAB2
100
AcDbEntity
  8
寸法
 62
     0
 48
50.0
370
    -2
100
AcDbLine
 10
5737.777943122108
 20
5302.919036112861
 30
0.0
 11
5737.777943122108
 21
5247.919036112859
 31
0.0
  0
INSERT
  5
22042
330
1DAB2
100
AcDbEntity
  8
寸法
 62
     0
 48
50.0
370
    -2
100
AcDbBlockReference
  2
_DOTSMALL
 10
5737.777943122108
 20
5302.919036112861
 30
0.0
 41
100.0
 42
100.0
 43
100.0
 50
270.0
  0
INSERT
  5
22043
330
1DAB2
100
AcDbEntity
  8
寸法
 62
     0
 48
50.0
370
    -2
100
AcDbBlockReference
  2
_DOTSMALL
 10
5737.777943122108
 20
5247.919036112859
 30
0.0
 41
100.0
 42
100.0
 43
100.0
 50
90.0
  0
POINT
  5
22044
330
1DAB2
100
AcDbEntity
  8
DEFPOINTS
 62
     0
 48
50.0
100
AcDbPoint
 10
6479.213011273897
 20
5302.91903611286
 30
0.0
  0
POINT
  5
22045
330
1DAB2
100
AcDbEntity
  8
DEFPOINTS
 62
     0
 48
50.0
100
AcDbPoint
 10
5983.270745260075
 20
5247.919036112859
 30
0.0
  0
POINT
  5
22046
330
1DAB2
100
AcDbEntity
  8
DEFPOINTS
 62
     0
 48
50.0
100
AcDbPoint
 10
5737.777943122108
 20
5247.919036112859
 30
0.0
  0
ENDBLK
  5
1DABD
330
1DAB2
100
AcDbEntity
  8
0
 48
50.0
100
AcDbBlockEnd
  0
BLOCK
  5
1DAC9
330
1DABE
100
AcDbEntity
  8
0
 48
50.0
100
AcDbBlockBegin
  2
*D11
 70
     1
 10
0.0
 20
0.0
 30
0.0
  3
*D11
  1

  0
LINE
  5
22033
330
1DABE
100
AcDbEntity
  8
寸法
 62
     0
 48
50.0
370
    -2
100
AcDbLine
 10
6459.213011273895
 20
7522.91903611286
 30
0.0
 11
5923.270745260074
 21
7522.919036112861
 31
0.0
  0
LINE
  5
22034
330
1DABE
100
AcDbEntity
  8
寸法
 62
     0
 48
50.0
370
    -2
100
AcDbLine
 10
6532.213011273896
 20
7399.919036112861
 30
0.0
 11
5923.270745260074
 21
7399.919036112861
 31
0.0
  0
LINE
  5
22035
330
1DABE
100
AcDbEntity
  8
寸法
 62
     0
 48
50.0
370
    -2
100
AcDbLine
 10
5983.270745260075
 20
7522.919036112861
 30
0.0
 11
5983.270745260075
 21
7399.919036112861
 31
0.0
  0
MTEXT
  5
22036
330
1DABE
100
AcDbEntity
  8
寸法
 62
     7
 48
50.0
100
AcDbMText
 10
5883.258934236452
 20
7761.4043174871
 30
0.0
 40
120.0
 41
0.0
 71
     5
 72
     1
  1
\A1;123
  7
STYLE1
 11
0.0000000000000001
 21
1.0
 31
0.0
 73
     1
 44
1.0
1001
ACAD
1000
MTEXTBEGIN
1070
    73
1070
     1
1070
    44
1040
1.0
1070
    74
1070
     0
1000
MTEXTEND
  0
INSERT
  5
22037
330
1DABE
100
AcDbEntity
  8
寸法
 62
     0
 48
50.0
370
    -2
100
AcDbBlockReference
  2
_DOTSMALL
 10
5983.270745260075
 20
7522.919036112861
 30
0.0
 41
100.0
 42
100.0
 43
100.0
 50
90.0
  0
INSERT
  5
22038
330
1DABE
100
AcDbEntity
  8
寸法
 62
     0
 48
50.0
370
    -2
100
AcDbBlockReference
  2
_DOTSMALL
 10
5983.270745260075
 20
7399.919036112861
 30
0.0
 41
100.0
 42
100.0
 43
100.0
 50
270.0
  0
POINT
  5
22039
330
1DABE
100
AcDbEntity
  8
DEFPOINTS
 62
     0
 48
50.0
100
AcDbPoint
 10
6479.213011273896
 20
7522.91903611286
 30
0.0
  0
POINT
  5
2203A
330
1DABE
100
AcDbEntity
  8
DEFPOINTS
 62
     0
 48
50.0
100
AcDbPoint
 10
6552.213011273896
 20
7399.919036112861
 30
0.0
  0
POINT
  5
2203B
330
1DABE
100
AcDbEntity
  8
DEFPOINTS
 62
     0
 48
50.0
100
AcDbPoint
 10
5983.270745260075
 20
7399.919036112861
 30
0.0
  0
ENDBLK
  5
1DACA
330
1DABE
100
AcDbEntity
  8
0
 48
50.0
100
AcDbBlockEnd
  0
BLOCK
  5
1DAD7
330
1DACB
100
AcDbEntity
  8
0
 48
50.0
100
AcDbBlockBegin
  2
*D12
 70
     1
 10
0.0
 20
0.0
 30
0.0
  3
*D12
  1

  0
LINE
  5
22028
330
1DACB
100
AcDbEntity
  8
寸法
 62
     0
 48
50.0
370
    -2
100
AcDbLine
 10
5963.270745260075
 20
7597.91903611286
 30
0.0
 11
5677.777943122107
 21
7597.91903611286
 31
0.0
  0
LINE
  5
22029
330
1DACB
100
AcDbEntity
  8
寸法
 62
     0
 48
50.0
370
    -2
100
AcDbLine
 10
6459.213011273895
 20
7522.91903611286
 30
0.0
 11
5677.777943122107
 21
7522.919036112861
 31
0.0
  0
LINE
  5
2202A
330
1DACB
100
AcDbEntity
  8
寸法
 62
     0
 48
50.0
370
    -2
100
AcDbLine
 10
5737.777943122107
 20
7597.91903611286
 30
0.0
 11
5737.777943122107
 21
7697.91903611286
 31
0.0
  0
LINE
  5
2202B
330
1DACB
100
AcDbEntity
  8
寸法
 62
     0
 48
50.0
370
    -2
100
AcDbLine
 10
5737.777943122107
 20
7522.919036112861
 30
0.0
 11
5737.777943122107
 21
7422.919036112862
 31
0.0
  0
MTEXT
  5
2202C
330
1DACB
100
AcDbEntity
  8
寸法
 62
     7
 48
50.0
100
AcDbMText
 10
5637.777943122106
 20
7560.419036112863
 30
0.0
 40
120.0
 41
0.0
 71
     5
 72
     1
  1
\A1;c
  7
STYLE1
 11
0.0000000000000001
 21
1.0
 31
0.0
 73
     1
 44
1.0
1001
ACAD
1000
MTEXTBEGIN
1070
    73
1070
     1
1070
    44
1040
1.0
1070
    74
1070
     0
1000
MTEXTEND
  0
LINE
  5
2202D
330
1DACB
100
AcDbEntity
  8
寸法
 62
     0
 48
50.0
370
    -2
100
AcDbLine
 10
5737.777943122107
 20
7597.91903611286
 30
0.0
 11
5737.777943122107
 21
7522.919036112861
 31
0.0
  0
INSERT
  5
2202E
330
1DACB
100
AcDbEntity
  8
寸法
 62
     0
 48
50.0
370
    -2
100
AcDbBlockReference
  2
_DOTSMALL
 10
5737.777943122107
 20
7597.91903611286
 30
0.0
 41
100.0
 42
100.0
 43
100.0
 50
270.0
  0
INSERT
  5
2202F
330
1DACB
100
AcDbEntity
  8
寸法
 62
     0
 48
50.0
370
    -2
100
AcDbBlockReference
  2
_DOTSMALL
 10
5737.777943122107
 20
7522.919036112861
 30
0.0
 41
100.0
 42
100.0
 43
100.0
 50
90.0
  0
POINT
  5
22030
330
1DACB
100
AcDbEntity
  8
DEFPOINTS
 62
     0
 48
50.0
100
AcDbPoint
 10
5983.270745260075
 20
7597.91903611286
 30
0.0
  0
POINT
  5
22031
330
1DACB
100
AcDbEntity
  8
DEFPOINTS
 62
     0
 48
50.0
100
AcDbPoint
 10
6479.213011273896
 20
7522.91903611286
 30
0.0
  0
POINT
  5
22032
330
1DACB
100
AcDbEntity
  8
DEFPOINTS
 62
     0
 48
50.0
100
AcDbPoint
 10
5737.777943122107
 20
7522.919036112861
 30
0.0
  0
ENDBLK
  5
1DAD8
330
1DACB
100
AcDbEntity
  8
0
 48
50.0
100
AcDbBlockEnd
  0
BLOCK
  5
1DAE4
330
1DAD9
100
AcDbEntity
  8
0
 48
50.0
100
AcDbBlockBegin
  2
*D13
 70
     1
 10
0.0
 20
0.0
 30
0.0
  3
*D13
  1

  0
LINE
  5
2201F
330
1DAD9
100
AcDbEntity
  8
寸法
 62
     0
 48
50.0
370
    -2
100
AcDbLine
 10
9539.213011273897
 20
7542.919036112862
 30
0.0
 11
9539.213011273897
 21
8336.250847072712
 31
0.0
  0
LINE
  5
22020
330
1DAD9
100
AcDbEntity
  8
寸法
 62
     0
 48
50.0
370
    -2
100
AcDbLine
 10
9416.213011273896
 20
7469.91903611286
 30
0.0
 11
9416.213011273896
 21
8336.250847072712
 31
0.0
  0
LINE
  5
22021
330
1DAD9
100
AcDbEntity
  8
寸法
 62
     0
 48
50.0
370
    -2
100
AcDbLine
 10
9539.213011273897
 20
8276.250847072711
 30
0.0
 11
9416.213011273896
 21
8276.250847072711
 31
0.0
  0
MTEXT
  5
22022
330
1DAD9
100
AcDbEntity
  8
寸法
 62
     7
 48
50.0
100
AcDbMText
 10
9777.698292648134
 20
8376.262658096333
 30
0.0
 40
120.0
 41
0.0
 71
     5
 72
     1
  1
\A1;123
  7
STYLE1
 73
     1
 44
1.0
1001
ACAD
1000
MTEXTBEGIN
1070
    73
1070
     1
1070
    44
1040
1.0
1070
    74
1070
     0
1000
MTEXTEND
  0
INSERT
  5
22023
330
1DAD9
100
AcDbEntity
  8
寸法
 62
     0
 48
50.0
370
    -2
100
AcDbBlockReference
  2
_DOTSMALL
 10
9539.213011273897
 20
8276.250847072711
 30
0.0
 41
100.0
 42
100.0
 43
100.0
  0
INSERT
  5
22024
330
1DAD9
100
AcDbEntity
  8
寸法
 62
     0
 48
50.0
370
    -2
100
AcDbBlockReference
  2
_DOTSMALL
 10
9416.213011273896
 20
8276.250847072711
 30
0.0
 41
100.0
 42
100.0
 43
100.0
 50
180.0
  0
POINT
  5
22025
330
1DAD9
100
AcDbEntity
  8
DEFPOINTS
 62
     0
 48
50.0
100
AcDbPoint
 10
9539.213011273897
 20
7522.919036112861
 30
0.0
  0
POINT
  5
22026
330
1DAD9
100
AcDbEntity
  8
DEFPOINTS
 62
     0
 48
50.0
100
AcDbPoint
 10
9416.213011273896
 20
7449.919036112861
 30
0.0
  0
POINT
  5
22027
330
1DAD9
100
AcDbEntity
  8
DEFPOINTS
 62
     0
 48
50.0
100
AcDbPoint
 10
9416.213011273896
 20
8276.250847072711
 30
0.0
  0
ENDBLK
  5
1DAE5
330
1DAD9
100
AcDbEntity
  8
0
 48
50.0
100
AcDbBlockEnd
  0
BLOCK
  5
1DAF1
330
1DAE6
100
AcDbEntity
  8
0
 48
50.0
100
AcDbBlockBegin
  2
*D14
 70
     1
 10
0.0
 20
0.0
 30
0.0
  3
*D14
  1

  0
LINE
  5
22014
330
1DAE6
100
AcDbEntity
  8
寸法
 62
     0
 48
50.0
370
    -2
100
AcDbLine
 10
9539.213011273897
 20
7691.190236682782
 30
0.0
 11
9539.213011273897
 21
8548.711542589549
 31
0.0
  0
LINE
  5
22015
330
1DAE6
100
AcDbEntity
  8
寸法
 62
     0
 48
50.0
370
    -2
100
AcDbLine
 10
9584.213011273895
 20
8296.250847072711
 30
0.0
 11
9584.213011273895
 21
8548.711542589549
 31
0.0
  0
LINE
  5
22016
330
1DAE6
100
AcDbEntity
  8
寸法
 62
     0
 48
50.0
370
    -2
100
AcDbLine
 10
9539.213011273897
 20
8488.711542589548
 30
0.0
 11
9439.213011273897
 21
8488.711542589548
 31
0.0
  0
LINE
  5
22017
330
1DAE6
100
AcDbEntity
  8
寸法
 62
     0
 48
50.0
370
    -2
100
AcDbLine
 10
9584.213011273895
 20
8488.711542589548
 30
0.0
 11
9684.213011273897
 21
8488.711542589548
 31
0.0
  0
MTEXT
  5
22018
330
1DAE6
100
AcDbEntity
  8
寸法
 62
     7
 48
50.0
100
AcDbMText
 10
9561.713011273896
 20
8588.711542589548
 30
0.0
 40
120.0
 41
0.0
 71
     5
 72
     1
  1
\A1;a
  7
STYLE1
 73
     1
 44
1.0
1001
ACAD
1000
MTEXTBEGIN
1070
    73
1070
     1
1070
    44
1040
1.0
1070
    74
1070
     0
1000
MTEXTEND
  0
LINE
  5
22019
330
1DAE6
100
AcDbEntity
  8
寸法
 62
     0
 48
50.0
370
    -2
100
AcDbLine
 10
9539.213011273897
 20
8488.711542589548
 30
0.0
 11
9584.213011273895
 21
8488.711542589548
 31
0.0
  0
INSERT
  5
2201A
330
1DAE6
100
AcDbEntity
  8
寸法
 62
     0
 48
50.0
370
    -2
100
AcDbBlockReference
  2
_DOTSMALL
 10
9539.213011273897
 20
8488.711542589548
 30
0.0
 41
100.0
 42
100.0
 43
100.0
  0
INSERT
  5
2201B
330
1DAE6
100
AcDbEntity
  8
寸法
 62
     0
 48
50.0
370
    -2
100
AcDbBlockReference
  2
_DOTSMALL
 10
9584.213011273895
 20
8488.711542589548
 30
0.0
 41
100.0
 42
100.0
 43
100.0
 50
180.0
  0
POINT
  5
2201C
330
1DAE6
100
AcDbEntity
  8
DEFPOINTS
 62
     0
 48
50.0
100
AcDbPoint
 10
9539.213011273897
 20
7671.190236682781
 30
0.0
  0
POINT
  5
2201D
330
1DAE6
100
AcDbEntity
  8
DEFPOINTS
 62
     0
 48
50.0
100
AcDbPoint
 10
9584.213011273895
 20
8276.250847072711
 30
0.0
  0
POINT
  5
2201E
330
1DAE6
100
AcDbEntity
  8
DEFPOINTS
 62
     0
 48
50.0
100
AcDbPoint
 10
9584.213011273895
 20
8488.711542589548
 30
0.0
  0
ENDBLK
  5
1DAF2
330
1DAE6
100
AcDbEntity
  8
0
 48
50.0
100
AcDbBlockEnd
  0
BLOCK
  5
1DB0B
330
1DB00
100
AcDbEntity
  8
0
 48
50.0
100
AcDbBlockBegin
  2
*D15
 70
     1
 10
0.0
 20
0.0
 30
0.0
  3
*D15
  1

  0
LINE
  5
2200A
330
1DB00
100
AcDbEntity
  8
寸法
 62
     0
 48
50.0
370
    -2
100
AcDbLine
 10
6729.213011273896
 20
7402.919036112862
 30
0.0
 11
6999.72319518692
 21
7402.919036112862
 31
0.0
  0
LINE
  5
2200B
330
1DB00
100
AcDbEntity
  8
寸法
 62
     0
 48
50.0
370
    -2
100
AcDbLine
 10
6729.213011273896
 20
7292.919036112856
 30
0.0
 11
6999.72319518692
 21
7292.919036112856
 31
0.0
  0
LINE
  5
2200C
330
1DB00
100
AcDbEntity
  8
寸法
 62
     0
 48
50.0
370
    -2
100
AcDbLine
 10
6939.72319518692
 20
7402.919036112862
 30
0.0
 11
6939.72319518692
 21
7292.919036112856
 31
0.0
  0
LINE
  5
2200D
330
1DB00
100
AcDbEntity
  8
寸法
 62
     0
 48
50.0
370
    -2
100
AcDbLine
 10
6939.72319518692
 20
6930.551083440443
 30
0.0
 11
6939.72319518692
 21
7292.919036112856
 31
0.0
  0
MTEXT
  5
2200E
330
1DB00
100
AcDbEntity
  8
寸法
 62
     7
 48
50.0
100
AcDbMText
 10
6839.723195186919
 20
7054.598327534932
 30
0.0
 40
120.0
 41
0.0
 71
     5
 72
     1
  1
\A1;110
  7
STYLE1
 11
0.0000000000000001
 21
1.0
 31
0.0
 73
     1
 44
1.0
1001
ACAD
1000
MTEXTBEGIN
1070
    73
1070
     1
1070
    44
1040
1.0
1070
    74
1070
     0
1000
MTEXTEND
  0
INSERT
  5
2200F
330
1DB00
100
AcDbEntity
  8
寸法
 62
     0
 48
50.0
370
    -2
100
AcDbBlockReference
  2
_DOTSMALL
 10
6939.72319518692
 20
7402.919036112862
 30
0.0
 41
100.0
 42
100.0
 43
100.0
 50
90.0
  0
INSERT
  5
22010
330
1DB00
100
AcDbEntity
  8
寸法
 62
     0
 48
50.0
370
    -2
100
AcDbBlockReference
  2
_DOTSMALL
 10
6939.72319518692
 20
7292.919036112856
 30
0.0
 41
100.0
 42
100.0
 43
100.0
 50
270.0
  0
POINT
  5
22011
330
1DB00
100
AcDbEntity
  8
DEFPOINTS
 62
     0
 48
50.0
100
AcDbPoint
 10
6709.213011273895
 20
7402.919036112862
 30
0.0
  0
POINT
  5
22012
330
1DB00
100
AcDbEntity
  8
DEFPOINTS
 62
     0
 48
50.0
100
AcDbPoint
 10
6709.213011273895
 20
7292.919036112856
 30
0.0
  0
POINT
  5
22013
330
1DB00
100
AcDbEntity
  8
DEFPOINTS
 62
     0
 48
50.0
100
AcDbPoint
 10
6939.72319518692
 20
7292.919036112856
 30
0.0
  0
ENDBLK
  5
1DB0C
330
1DB00
100
AcDbEntity
  8
0
 48
50.0
100
AcDbBlockEnd
  0
BLOCK
  5
1DB25
330
1DB1A
100
AcDbEntity
  8
0
 48
50.0
100
AcDbBlockBegin
  2
*D16
 70
     1
 10
0.0
 20
0.0
 30
0.0
  3
*D16
  1

  0
LINE
  5
22000
330
1DB1A
100
AcDbEntity
  8
寸法
 62
     0
 48
50.0
370
    -2
100
AcDbLine
 10
6701.213011273896
 20
7522.919036112859
 30
0.0
 11
6999.72319518692
 21
7522.919036112859
 31
0.0
  0
LINE
  5
22001
330
1DB1A
100
AcDbEntity
  8
寸法
 62
     0
 48
50.0
370
    -2
100
AcDbLine
 10
6729.213011273896
 20
7402.919036112862
 30
0.0
 11
6999.72319518692
 21
7402.919036112862
 31
0.0
  0
LINE
  5
22002
330
1DB1A
100
AcDbEntity
  8
寸法
 62
     0
 48
50.0
370
    -2
100
AcDbLine
 10
6939.723195186918
 20
7522.919036112859
 30
0.0
 11
6939.723195186918
 21
7402.919036112862
 31
0.0
  0
LINE
  5
22003
330
1DB1A
100
AcDbEntity
  8
寸法
 62
     0
 48
50.0
370
    -2
100
AcDbLine
 10
6939.723195186918
 20
7895.013524301837
 30
0.0
 11
6939.723195186918
 21
7522.919036112859
 31
0.0
  0
MTEXT
  5
22004
330
1DB1A
100
AcDbEntity
  8
寸法
 62
     7
 48
50.0
100
AcDbMText
 10
6839.711384163296
 20
7758.96628020735
 30
0.0
 40
120.0
 41
0.0
 71
     5
 72
     1
  1
\A1;120
  7
STYLE1
 11
0.0000000000000001
 21
1.0
 31
0.0
 73
     1
 44
1.0
1001
ACAD
1000
MTEXTBEGIN
1070
    73
1070
     1
1070
    44
1040
1.0
1070
    74
1070
     0
1000
MTEXTEND
  0
INSERT
  5
22005
330
1DB1A
100
AcDbEntity
  8
寸法
 62
     0
 48
50.0
370
    -2
100
AcDbBlockReference
  2
_DOTSMALL
 10
6939.723195186918
 20
7522.919036112859
 30
0.0
 41
100.0
 42
100.0
 43
100.0
 50
90.0
  0
INSERT
  5
22006
330
1DB1A
100
AcDbEntity
  8
寸法
 62
     0
 48
50.0
370
    -2
100
AcDbBlockReference
  2
_DOTSMALL
 10
6939.723195186918
 20
7402.919036112862
 30
0.0
 41
100.0
 42
100.0
 43
100.0
 50
270.0
  0
POINT
  5
22007
330
1DB1A
100
AcDbEntity
  8
DEFPOINTS
 62
     0
 48
50.0
100
AcDbPoint
 10
6681.213011273896
 20
7522.919036112859
 30
0.0
  0
POINT
  5
22008
330
1DB1A
100
AcDbEntity
  8
DEFPOINTS
 62
     0
 48
50.0
100
AcDbPoint
 10
6709.213011273895
 20
7402.919036112862
 30
0.0
  0
POINT
  5
22009
330
1DB1A
100
AcDbEntity
  8
DEFPOINTS
 62
     0
 48
50.0
100
AcDbPoint
 10
6939.723195186918
 20
7402.919036112862
 30
0.0
  0
ENDBLK
  5
1DB26
330
1DB1A
100
AcDbEntity
  8
0
 48
50.0
100
AcDbBlockEnd
  0
BLOCK
  5
1E9D9
330
1E9D0
100
AcDbEntity
  8
0
 48
50.0
100
AcDbBlockBegin
  2
*D17
 70
     1
 10
0.0
 20
0.0
 30
0.0
  3
*D17
  1

  0
LINE
  5
21FF7
330
1E9D0
100
AcDbEntity
  8
寸法
 62
     0
 48
50.0
370
    -2
100
AcDbLine
 10
8805.713011273898
 20
6787.919036112869
 30
0.0
 11
8991.087028824596
 21
6787.919036112869
 31
0.0
  0
LINE
  5
21FF8
330
1E9D0
100
AcDbEntity
  8
寸法
 62
     0
 48
50.0
370
    -2
100
AcDbLine
 10
8896.713011273908
 20
7522.919036112863
 30
0.0
 11
8991.087028824596
 21
7522.919036112863
 31
0.0
  0
LINE
  5
21FF9
330
1E9D0
100
AcDbEntity
  8
寸法
 62
     0
 48
50.0
370
    -2
100
AcDbLine
 10
8931.087028824595
 20
6787.919036112869
 30
0.0
 11
8931.087028824595
 21
7522.919036112863
 31
0.0
  0
INSERT
  5
21FFA
330
1E9D0
100
AcDbEntity
  8
寸法
 62
     0
 48
50.0
370
    -2
100
AcDbBlockReference
  2
_DOTSMALL
 10
8931.087028824595
 20
6787.919036112869
 30
0.0
 41
100.0
 42
100.0
 43
100.0
 50
270.0
  0
INSERT
  5
21FFB
330
1E9D0
100
AcDbEntity
  8
寸法
 62
     0
 48
50.0
370
    -2
100
AcDbBlockReference
  2
_DOTSMALL
 10
8931.087028824595
 20
7522.919036112863
 30
0.0
 41
100.0
 42
100.0
 43
100.0
 50
90.0
  0
MTEXT
  5
21FFC
330
1E9D0
100
AcDbEntity
  8
寸法
 62
     7
 48
50.0
100
AcDbMText
 10
8831.087028824594
 20
7155.419036112867
 30
0.0
 40
120.0
 41
0.0
 71
     5
 72
     1
  1
\A1;735
  7
STYLE1
 11
0.0000000000000001
 21
1.0
 31
0.0
 73
     1
 44
1.0
1001
ACAD
1000
MTEXTBEGIN
1070
    73
1070
     1
1070
    44
1040
1.0
1070
    74
1070
     0
1000
MTEXTEND
  0
POINT
  5
21FFD
330
1E9D0
100
AcDbEntity
  8
DEFPOINTS
 62
     0
 48
50.0
100
AcDbPoint
 10
8785.713011273898
 20
6787.919036112869
 30
0.0
  0
POINT
  5
21FFE
330
1E9D0
100
AcDbEntity
  8
DEFPOINTS
 62
     0
 48
50.0
100
AcDbPoint
 10
8876.713011273906
 20
7522.919036112863
 30
0.0
  0
POINT
  5
21FFF
330
1E9D0
100
AcDbEntity
  8
DEFPOINTS
 62
     0
 48
50.0
100
AcDbPoint
 10
8931.087028824595
 20
7522.919036112863
 30
0.0
  0
ENDBLK
  5
1E9DA
330
1E9D0
100
AcDbEntity
  8
0
 48
50.0
100
AcDbBlockEnd
  0
BLOCK
  5
1EA3C
330
1EA32
100
AcDbEntity
  8
0
 48
50.0
100
AcDbBlockBegin
  2
*D18
 70
     1
 10
0.0
 20
0.0
 30
0.0
  3
*D18
  1

  0
LINE
  5
21FEE
330
1EA32
100
AcDbEntity
  8
寸法
 62
     0
 48
50.0
370
    -2
100
AcDbLine
 10
8896.713011273908
 20
5302.919036112868
 30
0.0
 11
8991.087028824606
 21
5302.919036112868
 31
0.0
  0
LINE
  5
21FEF
330
1EA32
100
AcDbEntity
  8
寸法
 62
     0
 48
50.0
370
    -2
100
AcDbLine
 10
8805.713011273898
 20
6037.919036112861
 30
0.0
 11
8991.087028824606
 21
6037.919036112861
 31
0.0
  0
LINE
  5
21FF0
330
1EA32
100
AcDbEntity
  8
寸法
 62
     0
 48
50.0
370
    -2
100
AcDbLine
 10
8931.087028824606
 20
5302.919036112868
 30
0.0
 11
8931.087028824606
 21
6037.919036112861
 31
0.0
  0
MTEXT
  5
21FF1
330
1EA32
100
AcDbEntity
  8
寸法
 62
     7
 48
50.0
100
AcDbMText
 10
8837.557571339553
 20
5684.500182931486
 30
0.0
 40
120.0
 41
0.0
 71
     5
 72
     1
  1
\A1;735
  7
STYLE1
 11
0.0000000000000001
 21
1.0
 31
0.0
 73
     1
 44
1.0
1001
ACAD
1000
MTEXTBEGIN
1070
    73
1070
     1
1070
    44
1040
1.0
1070
    74
1070
     0
1000
MTEXTEND
  0
INSERT
  5
21FF2
330
1EA32
100
AcDbEntity
  8
寸法
 62
     0
 48
50.0
370
    -2
100
AcDbBlockReference
  2
_DOTSMALL
 10
8931.087028824606
 20
5302.919036112868
 30
0.0
 41
100.0
 42
100.0
 43
100.0
 50
270.0
  0
INSERT
  5
21FF3
330
1EA32
100
AcDbEntity
  8
寸法
 62
     0
 48
50.0
370
    -2
100
AcDbBlockReference
  2
_DOTSMALL
 10
8931.087028824606
 20
6037.919036112861
 30
0.0
 41
100.0
 42
100.0
 43
100.0
 50
90.0
  0
POINT
  5
21FF4
330
1EA32
100
AcDbEntity
  8
DEFPOINTS
 62
     0
 48
50.0
100
AcDbPoint
 10
8876.713011273906
 20
5302.919036112868
 30
0.0
  0
POINT
  5
21FF5
330
1EA32
100
AcDbEntity
  8
DEFPOINTS
 62
     0
 48
50.0
100
AcDbPoint
 10
8785.713011273898
 20
6037.919036112861
 30
0.0
  0
POINT
  5
21FF6
330
1EA32
100
AcDbEntity
  8
DEFPOINTS
 62
     0
 48
50.0
100
AcDbPoint
 10
8931.087028824606
 20
6037.919036112861
 30
0.0
  0
ENDBLK
  5
1EA3D
330
1EA32
100
AcDbEntity
  8
0
 48
50.0
100
AcDbBlockEnd
  0
BLOCK
  5
1F253
330
1F24A
100
AcDbEntity
  8
0
 48
50.0
100
AcDbBlockBegin
  2
*D19
 70
     1
 10
0.0
 20
0.0
 30
0.0
  3
*D19
  1

  0
LINE
  5
21FDC
330
1F24A
100
AcDbEntity
  8
寸法
 62
     0
 48
50.0
370
    -2
100
AcDbLine
 10
7282.213011273897
 20
6907.919036112869
 30
0.0
 11
7282.213011273897
 21
8109.828801761191
 31
0.0
  0
LINE
  5
21FDD
330
1F24A
100
AcDbEntity
  8
寸法
 62
     0
 48
50.0
370
    -2
100
AcDbLine
 10
6479.213011273895
 20
7542.919036112862
 30
0.0
 11
6479.213011273895
 21
8109.828801761191
 31
0.0
  0
LINE
  5
21FDE
330
1F24A
100
AcDbEntity
  8
寸法
 62
     0
 48
50.0
370
    -2
100
AcDbLine
 10
7282.213011273897
 20
8049.82880176119
 30
0.0
 11
6479.213011273895
 21
8049.82880176119
 31
0.0
  0
INSERT
  5
21FDF
330
1F24A
100
AcDbEntity
  8
寸法
 62
     0
 48
50.0
370
    -2
100
AcDbBlockReference
  2
_DOTSMALL
 10
7282.213011273897
 20
8049.82880176119
 30
0.0
 41
100.0
 42
100.0
 43
100.0
  0
INSERT
  5
21FE0
330
1F24A
100
AcDbEntity
  8
寸法
 62
     0
 48
50.0
370
    -2
100
AcDbBlockReference
  2
_DOTSMALL
 10
6479.213011273895
 20
8049.82880176119
 30
0.0
 41
100.0
 42
100.0
 43
100.0
 50
180.0
  0
MTEXT
  5
21FE1
330
1F24A
100
AcDbEntity
  8
寸法
 62
     7
 48
50.0
100
AcDbMText
 10
6880.713011273896
 20
8149.82880176119
 30
0.0
 40
120.0
 41
0.0
 71
     5
 72
     1
  1
\A1;803
  7
STYLE1
 73
     1
 44
1.0
1001
ACAD
1000
MTEXTBEGIN
1070
    73
1070
     1
1070
    44
1040
1.0
1070
    74
1070
     0
1000
MTEXTEND
  0
POINT
  5
21FE2
330
1F24A
100
AcDbEntity
  8
DEFPOINTS
 62
     0
 48
50.0
100
AcDbPoint
 10
7282.213011273897
 20
6887.919036112869
 30
0.0
  0
POINT
  5
21FE3
330
1F24A
100
AcDbEntity
  8
DEFPOINTS
 62
     0
 48
50.0
100
AcDbPoint
 10
6479.213011273895
 20
7522.919036112863
 30
0.0
  0
POINT
  5
21FE4
330
1F24A
100
AcDbEntity
  8
DEFPOINTS
 62
     0
 48
50.0
100
AcDbPoint
 10
6479.213011273895
 20
8049.82880176119
 30
0.0
  0
ENDBLK
  5
1F254
330
1F24A
100
AcDbEntity
  8
0
 48
50.0
100
AcDbBlockEnd
  0
BLOCK
  5
1F25F
330
1F255
100
AcDbEntity
  8
0
 48
50.0
100
AcDbBlockBegin
  2
*D20
 70
     1
 10
0.0
 20
0.0
 30
0.0
  3
*D20
  1

  0
LINE
  5
21FE5
330
1F255
100
AcDbEntity
  8
寸法
 62
     0
 48
50.0
370
    -2
100
AcDbLine
 10
9539.213011273892
 20
7542.919036112862
 30
0.0
 11
9539.213011273892
 21
8109.828801761191
 31
0.0
  0
LINE
  5
21FE6
330
1F255
100
AcDbEntity
  8
寸法
 62
     0
 48
50.0
370
    -2
100
AcDbLine
 10
8736.213011273896
 20
6907.919036112868
 30
0.0
 11
8736.213011273896
 21
8109.828801761191
 31
0.0
  0
LINE
  5
21FE7
330
1F255
100
AcDbEntity
  8
寸法
 62
     0
 48
50.0
370
    -2
100
AcDbLine
 10
9539.213011273892
 20
8049.82880176119
 30
0.0
 11
8736.213011273896
 21
8049.82880176119
 31
0.0
  0
MTEXT
  5
21FE8
330
1F255
100
AcDbEntity
  8
寸法
 62
     7
 48
50.0
100
AcDbMText
 10
9115.983146456347
 20
8148.090767068199
 30
0.0
 40
120.0
 41
0.0
 71
     5
 72
     1
  1
\A1;803
  7
STYLE1
 73
     1
 44
1.0
1001
ACAD
1000
MTEXTBEGIN
1070
    73
1070
     1
1070
    44
1040
1.0
1070
    74
1070
     0
1000
MTEXTEND
  0
INSERT
  5
21FE9
330
1F255
100
AcDbEntity
  8
寸法
 62
     0
 48
50.0
370
    -2
100
AcDbBlockReference
  2
_DOTSMALL
 10
9539.213011273892
 20
8049.82880176119
 30
0.0
 41
100.0
 42
100.0
 43
100.0
  0
INSERT
  5
21FEA
330
1F255
100
AcDbEntity
  8
寸法
 62
     0
 48
50.0
370
    -2
100
AcDbBlockReference
  2
_DOTSMALL
 10
8736.213011273896
 20
8049.82880176119
 30
0.0
 41
100.0
 42
100.0
 43
100.0
 50
180.0
  0
POINT
  5
21FEB
330
1F255
100
AcDbEntity
  8
DEFPOINTS
 62
     0
 48
50.0
100
AcDbPoint
 10
9539.213011273892
 20
7522.919036112863
 30
0.0
  0
POINT
  5
21FEC
330
1F255
100
AcDbEntity
  8
DEFPOINTS
 62
     0
 48
50.0
100
AcDbPoint
 10
8736.213011273896
 20
6887.919036112869
 30
0.0
  0
POINT
  5
21FED
330
1F255
100
AcDbEntity
  8
DEFPOINTS
 62
     0
 48
50.0
100
AcDbPoint
 10
8736.213011273896
 20
8049.82880176119
 30
0.0
  0
ENDBLK
  5
1F260
330
1F255
100
AcDbEntity
  8
0
 48
50.0
100
AcDbBlockEnd
  0
BLOCK
  5
1FE56
330
1FE4C
100
AcDbEntity
  8
0
 48
50.0
100
AcDbBlockBegin
  2
*D21
 70
     1
 10
0.0
 20
0.0
 30
0.0
  3
*D21
  1

  0
LINE
  5
21FD3
330
1FE4C
100
AcDbEntity
  8
寸法
 62
     0
 48
50.0
370
    -2
100
AcDbLine
 10
8009.213011273896
 20
6907.919036112869
 30
0.0
 11
8009.213011273896
 21
8109.828801761191
 31
0.0
  0
LINE
  5
21FD4
330
1FE4C
100
AcDbEntity
  8
寸法
 62
     0
 48
50.0
370
    -2
100
AcDbLine
 10
8736.213011273896
 20
6907.919036112868
 30
0.0
 11
8736.213011273896
 21
8109.828801761191
 31
0.0
  0
LINE
  5
21FD5
330
1FE4C
100
AcDbEntity
  8
寸法
 62
     0
 48
50.0
370
    -2
100
AcDbLine
 10
8009.213011273896
 20
8049.82880176119
 30
0.0
 11
8736.213011273896
 21
8049.82880176119
 31
0.0
  0
INSERT
  5
21FD6
330
1FE4C
100
AcDbEntity
  8
寸法
 62
     0
 48
50.0
370
    -2
100
AcDbBlockReference
  2
_DOTSMALL
 10
8009.213011273896
 20
8049.82880176119
 30
0.0
 41
100.0
 42
100.0
 43
100.0
 50
180.0
  0
INSERT
  5
21FD7
330
1FE4C
100
AcDbEntity
  8
寸法
 62
     0
 48
50.0
370
    -2
100
AcDbBlockReference
  2
_DOTSMALL
 10
8736.213011273896
 20
8049.82880176119
 30
0.0
 41
100.0
 42
100.0
 43
100.0
  0
MTEXT
  5
21FD8
330
1FE4C
100
AcDbEntity
  8
寸法
 62
     7
 48
50.0
100
AcDbMText
 10
8372.713011273896
 20
8149.840612784812
 30
0.0
 40
120.0
 41
0.0
 71
     5
 72
     1
  1
\A1;727
  7
STYLE1
 73
     1
 44
1.0
1001
ACAD
1000
MTEXTBEGIN
1070
    73
1070
     1
1070
    44
1040
1.0
1070
    74
1070
     0
1000
MTEXTEND
  0
POINT
  5
21FD9
330
1FE4C
100
AcDbEntity
  8
DEFPOINTS
 62
     0
 48
50.0
100
AcDbPoint
 10
8009.213011273896
 20
6887.919036112869
 30
0.0
  0
POINT
  5
21FDA
330
1FE4C
100
AcDbEntity
  8
DEFPOINTS
 62
     0
 48
50.0
100
AcDbPoint
 10
8736.213011273896
 20
6887.919036112869
 30
0.0
  0
POINT
  5
21FDB
330
1FE4C
100
AcDbEntity
  8
DEFPOINTS
 62
     0
 48
50.0
100
AcDbPoint
 10
8736.213011273896
 20
8049.82880176119
 30
0.0
  0
ENDBLK
  5
1FE57
330
1FE4C
100
AcDbEntity
  8
0
 48
50.0
100
AcDbBlockEnd
  0
BLOCK
  5
20D5B
330
20D51
100
AcDbEntity
  8
0
 48
50.0
100
AcDbBlockBegin
  2
*D22
 70
     1
 10
0.0
 20
0.0
 30
0.0
  3
*D22
  1

  0
LINE
  5
21FCA
330
20D51
100
AcDbEntity
  8
寸法
 62
     0
 48
50.0
370
    -2
100
AcDbLine
 10
7282.213011273897
 20
6907.919036112869
 30
0.0
 11
7282.213011273897
 21
8109.828801761191
 31
0.0
  0
LINE
  5
21FCB
330
20D51
100
AcDbEntity
  8
寸法
 62
     0
 48
50.0
370
    -2
100
AcDbLine
 10
8009.213011273898
 20
6907.919036112868
 30
0.0
 11
8009.213011273898
 21
8109.828801761191
 31
0.0
  0
LINE
  5
21FCC
330
20D51
100
AcDbEntity
  8
寸法
 62
     0
 48
50.0
370
    -2
100
AcDbLine
 10
7282.213011273897
 20
8049.82880176119
 30
0.0
 11
8009.213011273898
 21
8049.82880176119
 31
0.0
  0
INSERT
  5
21FCD
330
20D51
100
AcDbEntity
  8
寸法
 62
     0
 48
50.0
370
    -2
100
AcDbBlockReference
  2
_DOTSMALL
 10
7282.213011273897
 20
8049.82880176119
 30
0.0
 41
100.0
 42
100.0
 43
100.0
 50
180.0
  0
INSERT
  5
21FCE
330
20D51
100
AcDbEntity
  8
寸法
 62
     0
 48
50.0
370
    -2
100
AcDbBlockReference
  2
_DOTSMALL
 10
8009.213011273898
 20
8049.82880176119
 30
0.0
 41
100.0
 42
100.0
 43
100.0
  0
MTEXT
  5
21FCF
330
20D51
100
AcDbEntity
  8
寸法
 62
     7
 48
50.0
100
AcDbMText
 10
7645.713011273897
 20
8149.840612784812
 30
0.0
 40
120.0
 41
0.0
 71
     5
 72
     1
  1
\A1;727
  7
STYLE1
 73
     1
 44
1.0
1001
ACAD
1000
MTEXTBEGIN
1070
    73
1070
     1
1070
    44
1040
1.0
1070
    74
1070
     0
1000
MTEXTEND
  0
POINT
  5
21FD0
330
20D51
100
AcDbEntity
  8
DEFPOINTS
 62
     0
 48
50.0
100
AcDbPoint
 10
7282.213011273897
 20
6887.919036112869
 30
0.0
  0
POINT
  5
21FD1
330
20D51
100
AcDbEntity
  8
DEFPOINTS
 62
     0
 48
50.0
100
AcDbPoint
 10
8009.213011273898
 20
6887.919036112869
 30
0.0
  0
POINT
  5
21FD2
330
20D51
100
AcDbEntity
  8
DEFPOINTS
 62
     0
 48
50.0
100
AcDbPoint
 10
8009.213011273898
 20
8049.82880176119
 30
0.0
  0
ENDBLK
  5
20D5C
330
20D51
100
AcDbEntity
  8
0
 48
50.0
100
AcDbBlockEnd
  0
BLOCK
  5
20E3F
330
20E35
100
AcDbEntity
  8
0
 48
50.0
100
AcDbBlockBegin
  2
*D23
 70
     1
 10
0.0
 20
0.0
 30
0.0
  3
*D23
  1

  0
LINE
  5
21FC1
330
20E35
100
AcDbEntity
  8
寸法
 62
     0
 48
50.0
370
    -2
100
AcDbLine
 10
8806.213011273904
 20
6037.919036112861
 30
0.0
 11
8990.587028824601
 21
6037.919036112861
 31
0.0
  0
LINE
  5
21FC2
330
20E35
100
AcDbEntity
  8
寸法
 62
     0
 48
50.0
370
    -2
100
AcDbLine
 10
8805.213011273892
 20
6787.919036112869
 30
0.0
 11
8990.587028824601
 21
6787.919036112869
 31
0.0
  0
LINE
  5
21FC3
330
20E35
100
AcDbEntity
  8
寸法
 62
     0
 48
50.0
370
    -2
100
AcDbLine
 10
8930.587028824602
 20
6037.919036112861
 30
0.0
 11
8930.587028824602
 21
6787.919036112869
 31
0.0
  0
MTEXT
  5
21FC4
330
20E35
100
AcDbEntity
  8
寸法
 62
     7
 48
50.0
100
AcDbMText
 10
8837.057571339547
 20
6434.500182931493
 30
0.0
 40
120.0
 41
0.0
 71
     5
 72
     1
  1
\A1;750
  7
STYLE1
 11
0.0000000000000001
 21
1.0
 31
0.0
 73
     1
 44
1.0
1001
ACAD
1000
MTEXTBEGIN
1070
    73
1070
     1
1070
    44
1040
1.0
1070
    74
1070
     0
1000
MTEXTEND
  0
INSERT
  5
21FC5
330
20E35
100
AcDbEntity
  8
寸法
 62
     0
 48
50.0
370
    -2
100
AcDbBlockReference
  2
_DOTSMALL
 10
8930.587028824602
 20
6037.919036112861
 30
0.0
 41
100.0
 42
100.0
 43
100.0
 50
270.0
  0
INSERT
  5
21FC6
330
20E35
100
AcDbEntity
  8
寸法
 62
     0
 48
50.0
370
    -2
100
AcDbBlockReference
  2
_DOTSMALL
 10
8930.587028824602
 20
6787.919036112869
 30
0.0
 41
100.0
 42
100.0
 43
100.0
 50
90.0
  0
POINT
  5
21FC7
330
20E35
100
AcDbEntity
  8
DEFPOINTS
 62
     0
 48
50.0
100
AcDbPoint
 10
8786.213011273904
 20
6037.919036112861
 30
0.0
  0
POINT
  5
21FC8
330
20E35
100
AcDbEntity
  8
DEFPOINTS
 62
     0
 48
50.0
100
AcDbPoint
 10
8785.213011273892
 20
6787.919036112869
 30
0.0
  0
POINT
  5
21FC9
330
20E35
100
AcDbEntity
  8
DEFPOINTS
 62
     0
 48
50.0
100
AcDbPoint
 10
8930.587028824602
 20
6787.919036112869
 30
0.0
  0
ENDBLK
  5
20E40
330
20E35
100
AcDbEntity
  8
0
 48
50.0
100
AcDbBlockEnd
  0
BLOCK
  5
20EA9
330
20E9D
100
AcDbEntity
  8
0
 48
50.0
100
AcDbBlockBegin
  2
*D24
 70
     1
 10
0.0
 20
0.0
 30
0.0
  3
*D24
  1

  0
LINE
  5
21FB7
330
20E9D
100
AcDbEntity
  8
寸法
 62
     0
 48
50.0
370
    -2
100
AcDbLine
 10
9309.213011273895
 20
7272.919036112859
 30
0.0
 11
9309.213011273895
 21
6954.830506791849
 31
0.0
  0
LINE
  5
21FB8
330
20E9D
100
AcDbEntity
  8
寸法
 62
     0
 48
50.0
370
    -2
100
AcDbLine
 10
9419.213011273894
 20
7272.919036112863
 30
0.0
 11
9419.213011273894
 21
6954.830506791849
 31
0.0
  0
LINE
  5
21FB9
330
20E9D
100
AcDbEntity
  8
寸法
 62
     0
 48
50.0
370
    -2
100
AcDbLine
 10
9309.213011273895
 20
7014.830506791849
 30
0.0
 11
9419.213011273894
 21
7014.830506791849
 31
0.0
  0
LINE
  5
21FBA
330
20E9D
100
AcDbEntity
  8
寸法
 62
     0
 48
50.0
370
    -2
100
AcDbLine
 10
8961.118523084918
 20
7014.830506791849
 30
0.0
 11
9309.213011273895
 21
7014.830506791849
 31
0.0
  0
MTEXT
  5
21FBB
330
20E9D
100
AcDbEntity
  8
寸法
 62
     7
 48
50.0
100
AcDbMText
 10
9085.165767179407
 20
7114.830506791848
 30
0.0
 40
120.0
 41
0.0
 71
     5
 72
     1
  1
\A1;110
  7
STYLE1
 73
     1
 44
1.0
1001
ACAD
1000
MTEXTBEGIN
1070
    73
1070
     1
1070
    44
1040
1.0
1070
    74
1070
     0
1000
MTEXTEND
  0
INSERT
  5
21FBC
330
20E9D
100
AcDbEntity
  8
寸法
 62
     0
 48
50.0
370
    -2
100
AcDbBlockReference
  2
_DOTSMALL
 10
9309.213011273895
 20
7014.830506791849
 30
0.0
 41
100.0
 42
100.0
 43
100.0
 50
180.0
  0
INSERT
  5
21FBD
330
20E9D
100
AcDbEntity
  8
寸法
 62
     0
 48
50.0
370
    -2
100
AcDbBlockReference
  2
_DOTSMALL
 10
9419.213011273894
 20
7014.830506791849
 30
0.0
 41
100.0
 42
100.0
 43
100.0
  0
POINT
  5
21FBE
330
20E9D
100
AcDbEntity
  8
DEFPOINTS
 62
     0
 48
50.0
100
AcDbPoint
 10
9309.213011273895
 20
7292.919036112859
 30
0.0
  0
POINT
  5
21FBF
330
20E9D
100
AcDbEntity
  8
DEFPOINTS
 62
     0
 48
50.0
100
AcDbPoint
 10
9419.213011273894
 20
7292.919036112862
 30
0.0
  0
POINT
  5
21FC0
330
20E9D
100
AcDbEntity
  8
DEFPOINTS
 62
     0
 48
50.0
100
AcDbPoint
 10
9419.213011273894
 20
7014.830506791849
 30
0.0
  0
ENDBLK
  5
20EAA
330
20E9D
100
AcDbEntity
  8
0
 48
50.0
100
AcDbBlockEnd
  0
BLOCK
  5
20EE0
330
20ED4
100
AcDbEntity
  8
0
 48
50.0
100
AcDbBlockBegin
  2
*D25
 70
     1
 10
0.0
 20
0.0
 30
0.0
  3
*D25
  1

  0
LINE
  5
220AF
330
20ED4
100
AcDbEntity
  8
寸法
 62
     0
 48
50.0
370
    -2
100
AcDbLine
 10
9419.213011273894
 20
7272.919036112863
 30
0.0
 11
9419.213011273894
 21
6954.830506791849
 31
0.0
  0
LINE
  5
220B0
330
20ED4
100
AcDbEntity
  8
寸法
 62
     0
 48
50.0
370
    -2
100
AcDbLine
 10
9539.213011273897
 20
7208.874771452356
 30
0.0
 11
9539.213011273897
 21
6954.830506791849
 31
0.0
  0
LINE
  5
220B1
330
20ED4
100
AcDbEntity
  8
寸法
 62
     0
 48
50.0
370
    -2
100
AcDbLine
 10
9419.213011273894
 20
7014.830506791849
 30
0.0
 11
9539.213011273897
 21
7014.830506791849
 31
0.0
  0
LINE
  5
220B2
330
20ED4
100
AcDbEntity
  8
寸法
 62
     0
 48
50.0
370
    -2
100
AcDbLine
 10
9539.213011273897
 20
7014.830506791849
 30
0.0
 11
9911.307499462873
 21
7014.830506791849
 31
0.0
  0
INSERT
  5
220B3
330
20ED4
100
AcDbEntity
  8
寸法
 62
     0
 48
50.0
370
    -2
100
AcDbBlockReference
  2
_DOTSMALL
 10
9419.213011273894
 20
7014.830506791849
 30
0.0
 41
100.0
 42
100.0
 43
100.0
 50
180.0
  0
INSERT
  5
220B4
330
20ED4
100
AcDbEntity
  8
寸法
 62
     0
 48
50.0
370
    -2
100
AcDbBlockReference
  2
_DOTSMALL
 10
9539.213011273897
 20
7014.830506791849
 30
0.0
 41
100.0
 42
100.0
 43
100.0
  0
MTEXT
  5
220B5
330
20ED4
100
AcDbEntity
  8
寸法
 62
     7
 48
50.0
100
AcDbMText
 10
9775.260255368385
 20
7114.842317815472
 30
0.0
 40
120.0
 41
0.0
 71
     5
 72
     1
  1
\A1;120
  7
STYLE1
 73
     1
 44
1.0
1001
ACAD
1000
MTEXTBEGIN
1070
    73
1070
     1
1070
    44
1040
1.0
1070
    74
1070
     0
1000
MTEXTEND
  0
POINT
  5
220B6
330
20ED4
100
AcDbEntity
  8
DEFPOINTS
 62
     0
 48
50.0
100
AcDbPoint
 10
9419.213011273894
 20
7292.919036112862
 30
0.0
  0
POINT
  5
220B7
330
20ED4
100
AcDbEntity
  8
DEFPOINTS
 62
     0
 48
50.0
100
AcDbPoint
 10
9539.213011273897
 20
7228.874771452357
 30
0.0
  0
POINT
  5
220B8
330
20ED4
100
AcDbEntity
  8
DEFPOINTS
 62
     0
 48
50.0
100
AcDbPoint
 10
9539.213011273897
 20
7014.830506791849
 30
0.0
  0
ENDBLK
  5
20EE1
330
20ED4
100
AcDbEntity
  8
0
 48
50.0
100
AcDbBlockEnd
  0
BLOCK
  5
2120C
330
21203
100
AcDbEntity
  8
0
 48
50.0
100
AcDbBlockBegin
  2
*D26
 70
     1
 10
0.0
 20
0.0
 30
0.0
  3
*D26
  1

  0
LINE
  5
21F7F
330
21203
100
AcDbEntity
  8
寸法
 62
     0
 48
50.0
370
    -2
100
AcDbLine
 10
8501.3262528227
 20
1950.007050815838
 30
0.0
 11
9168.662002533755
 21
1950.007050815838
 31
0.0
  0
LINE
  5
21F80
330
21203
100
AcDbEntity
  8
寸法
 62
     0
 48
50.0
370
    -2
100
AcDbLine
 10
8501.3262528227
 20
1545.007050815836
 30
0.0
 11
9168.662002533755
 21
1545.007050815836
 31
0.0
  0
LINE
  5
21F81
330
21203
100
AcDbEntity
  8
寸法
 62
     0
 48
50.0
370
    -2
100
AcDbLine
 10
9108.662002533757
 20
1950.007050815838
 30
0.0
 11
9108.662002533757
 21
1545.007050815836
 31
0.0
  0
INSERT
  5
21F82
330
21203
100
AcDbEntity
  8
寸法
 62
     0
 48
50.0
370
    -2
100
AcDbBlockReference
  2
_DOTSMALL
 10
9108.662002533757
 20
1950.007050815838
 30
0.0
 41
100.0
 42
100.0
 43
100.0
 50
90.0
  0
INSERT
  5
21F83
330
21203
100
AcDbEntity
  8
寸法
 62
     0
 48
50.0
370
    -2
100
AcDbBlockReference
  2
_DOTSMALL
 10
9108.662002533757
 20
1545.007050815836
 30
0.0
 41
100.0
 42
100.0
 43
100.0
 50
270.0
  0
MTEXT
  5
21F84
330
21203
100
AcDbEntity
  8
寸法
 62
     7
 48
50.0
100
AcDbMText
 10
9008.662002533757
 20
1747.507050815839
 30
0.0
 40
120.0
 41
0.0
 71
     5
 72
     1
  1
\A1;180
  7
STYLE1
 11
0.0000000000000001
 21
1.0
 31
0.0
 73
     1
 44
1.0
1001
ACAD
1000
MTEXTBEGIN
1070
    73
1070
     1
1070
    44
1040
1.0
1070
    74
1070
     0
1000
MTEXTEND
  0
POINT
  5
21F85
330
21203
100
AcDbEntity
  8
DEFPOINTS
 62
     0
 48
50.0
100
AcDbPoint
 10
8481.326252822702
 20
1950.007050815838
 30
0.0
  0
POINT
  5
21F86
330
21203
100
AcDbEntity
  8
DEFPOINTS
 62
     0
 48
50.0
100
AcDbPoint
 10
8481.326252822702
 20
1545.007050815836
 30
0.0
  0
POINT
  5
21F87
330
21203
100
AcDbEntity
  8
DEFPOINTS
 62
     0
 48
50.0
100
AcDbPoint
 10
9108.662002533757
 20
1545.007050815836
 30
0.0
  0
ENDBLK
  5
2120D
330
21203
100
AcDbEntity
  8
0
 48
50.0
100
AcDbBlockEnd
  0
BLOCK
  5
2121A
330
2120E
100
AcDbEntity
  8
0
 48
50.0
100
AcDbBlockBegin
  2
*D27
 70
     1
 10
0.0
 20
0.0
 30
0.0
  3
*D27
  1

  0
LINE
  5
21F71
330
2120E
100
AcDbEntity
  8
寸法
 62
     0
 48
50.0
370
    -2
100
AcDbLine
 10
8267.326252822702
 20
2015.957050815839
 30
0.0
 11
9168.662002533755
 21
2015.957050815839
 31
0.0
  0
LINE
  5
21F72
330
2120E
100
AcDbEntity
  8
寸法
 62
     0
 48
50.0
370
    -2
100
AcDbLine
 10
8501.3262528227
 20
1950.007050815838
 30
0.0
 11
9168.662002533755
 21
1950.007050815838
 31
0.0
  0
LINE
  5
21F73
330
2120E
100
AcDbEntity
  8
寸法
 62
     0
 48
50.0
370
    -2
100
AcDbLine
 10
9108.662002533757
 20
2015.957050815839
 30
0.0
 11
9108.662002533757
 21
2115.95705081584
 31
0.0
  0
LINE
  5
21F74
330
2120E
100
AcDbEntity
  8
寸法
 62
     0
 48
50.0
370
    -2
100
AcDbLine
 10
9108.662002533757
 20
1950.007050815838
 30
0.0
 11
9108.662002533757
 21
1850.007050815838
 31
0.0
  0
LINE
  5
21F75
330
2120E
100
AcDbEntity
  8
寸法
 62
     0
 48
50.0
370
    -2
100
AcDbLine
 10
9108.662002533757
 20
1982.982050815839
 30
0.0
 11
9453.730335182541
 21
1958.602103810571
 31
0.0
  0
LINE
  5
21F76
330
2120E
100
AcDbEntity
  8
寸法
 62
     0
 48
50.0
370
    -2
100
AcDbLine
 10
9453.730335182541
 20
1958.602103810571
 30
0.0
 11
9453.730335182541
 21
1426.584296967606
 31
0.0
  0
MTEXT
  5
21F77
330
2120E
100
AcDbEntity
  8
寸法
 62
     7
 48
50.0
100
AcDbMText
 10
9353.718524158919
 20
1692.593200389089
 30
0.0
 40
120.0
 41
0.0
 71
     5
 72
     1
  1
\A1;20～25
  7
STYLE1
 11
0.0000000000000001
 21
1.0
 31
0.0
 73
     1
 44
1.0
1001
ACAD
1000
MTEXTBEGIN
1070
    73
1070
     1
1070
    44
1040
1.0
1070
    74
1070
     0
1000
MTEXTEND
  0
LINE
  5
21F78
330
2120E
100
AcDbEntity
  8
寸法
 62
     0
 48
50.0
370
    -2
100
AcDbLine
 10
9108.662002533757
 20
2015.957050815839
 30
0.0
 11
9108.662002533757
 21
1950.007050815838
 31
0.0
  0
LINE
  5
21F79
330
2120E
100
AcDbEntity
  8
寸法
 62
     0
 48
50.0
370
    -2
100
AcDbLine
 10
9108.662002533757
 20
2015.957050815839
 30
0.0
 11
9108.662002533757
 21
1950.007050815838
 31
0.0
  0
INSERT
  5
21F7A
330
2120E
100
AcDbEntity
  8
寸法
 62
     0
 48
50.0
370
    -2
100
AcDbBlockReference
  2
_DOTSMALL
 10
9108.662002533757
 20
2015.957050815839
 30
0.0
 41
100.0
 42
100.0
 43
100.0
 50
270.0
  0
INSERT
  5
21F7B
330
2120E
100
AcDbEntity
  8
寸法
 62
     0
 48
50.0
370
    -2
100
AcDbBlockReference
  2
_DOTSMALL
 10
9108.662002533757
 20
1950.007050815838
 30
0.0
 41
100.0
 42
100.0
 43
100.0
 50
90.0
  0
POINT
  5
21F7C
330
2120E
100
AcDbEntity
  8
DEFPOINTS
 62
     0
 48
50.0
100
AcDbPoint
 10
8247.3262528227
 20
2015.957050815839
 30
0.0
  0
POINT
  5
21F7D
330
2120E
100
AcDbEntity
  8
DEFPOINTS
 62
     0
 48
50.0
100
AcDbPoint
 10
8481.326252822702
 20
1950.007050815838
 30
0.0
  0
POINT
  5
21F7E
330
2120E
100
AcDbEntity
  8
DEFPOINTS
 62
     0
 48
50.0
100
AcDbPoint
 10
9108.662002533757
 20
1950.007050815838
 30
0.0
  0
ENDBLK
  5
2121B
330
2120E
100
AcDbEntity
  8
0
 48
50.0
100
AcDbBlockEnd
  0
BLOCK
  5
21226
330
2121C
100
AcDbEntity
  8
0
 48
50.0
100
AcDbBlockBegin
  2
*D28
 70
     1
 10
0.0
 20
0.0
 30
0.0
  3
*D28
  1

  0
LINE
  5
220D8
330
2121C
100
AcDbEntity
  8
寸法
 62
     0
 48
50.0
370
    -2
100
AcDbLine
 10
6078.777111351207
 20
1970.007050815839
 30
0.0
 11
6078.777111351207
 21
2410.007050815839
 31
0.0
  0
LINE
  5
220D9
330
2121C
100
AcDbEntity
  8
寸法
 62
     0
 48
50.0
370
    -2
100
AcDbLine
 10
5838.77711135121
 20
1970.007050815839
 30
0.0
 11
5838.77711135121
 21
2410.007050815839
 31
0.0
  0
LINE
  5
220DA
330
2121C
100
AcDbEntity
  8
寸法
 62
     0
 48
50.0
370
    -2
100
AcDbLine
 10
6078.777111351207
 20
2350.007050815839
 30
0.0
 11
5838.77711135121
 21
2350.007050815839
 31
0.0
  0
MTEXT
  5
220DB
330
2121C
100
AcDbEntity
  8
寸法
 62
     7
 48
50.0
100
AcDbMText
 10
5972.810024282706
 20
2674.603621734937
 30
0.0
 40
120.0
 41
0.0
 71
     5
 72
     1
  1
\A1;120\P170
  7
STYLE1
 73
     1
 44
1.0
1001
ACAD
1000
MTEXTBEGIN
1070
    73
1070
     1
1070
    44
1040
1.0
1070
    74
1070
     0
1000
MTEXTEND
  0
INSERT
  5
220DC
330
2121C
100
AcDbEntity
  8
寸法
 62
     0
 48
50.0
370
    -2
100
AcDbBlockReference
  2
_DOTSMALL
 10
6078.777111351207
 20
2350.007050815839
 30
0.0
 41
100.0
 42
100.0
 43
100.0
  0
INSERT
  5
220DD
330
2121C
100
AcDbEntity
  8
寸法
 62
     0
 48
50.0
370
    -2
100
AcDbBlockReference
  2
_DOTSMALL
 10
5838.77711135121
 20
2350.007050815839
 30
0.0
 41
100.0
 42
100.0
 43
100.0
 50
180.0
  0
POINT
  5
220DE
330
2121C
100
AcDbEntity
  8
DEFPOINTS
 62
     0
 48
50.0
100
AcDbPoint
 10
6078.777111351207
 20
1950.007050815838
 30
0.0
  0
POINT
  5
220DF
330
2121C
100
AcDbEntity
  8
DEFPOINTS
 62
     0
 48
50.0
100
AcDbPoint
 10
5838.77711135121
 20
1950.007050815838
 30
0.0
  0
POINT
  5
220E0
330
2121C
100
AcDbEntity
  8
DEFPOINTS
 62
     0
 48
50.0
100
AcDbPoint
 10
5838.77711135121
 20
2350.007050815839
 30
0.0
  0
ENDBLK
  5
21227
330
2121C
100
AcDbEntity
  8
0
 48
50.0
100
AcDbBlockEnd
  0
BLOCK
  5
21232
330
21228
100
AcDbEntity
  8
0
 48
50.0
100
AcDbBlockBegin
  2
*D29
 70
     1
 10
0.0
 20
0.0
 30
0.0
  3
*D29
  1

  0
LINE
  5
21F9A
330
21228
100
AcDbEntity
  8
寸法
 62
     0
 48
50.0
370
    -2
100
AcDbLine
 10
5658.777111351209
 20
1270.007050815837
 30
0.0
 11
5440.751719185635
 21
1270.007050815837
 31
0.0
  0
LINE
  5
21F9B
330
21228
100
AcDbEntity
  8
寸法
 62
     0
 48
50.0
370
    -2
100
AcDbLine
 10
5558.777111351213
 20
970.0070508158377
 30
0.0
 11
5440.751719185635
 21
970.0070508158377
 31
0.0
  0
LINE
  5
21F9C
330
21228
100
AcDbEntity
  8
寸法
 62
     0
 48
50.0
370
    -2
100
AcDbLine
 10
5500.751719185635
 20
1270.007050815837
 30
0.0
 11
5500.751719185635
 21
970.0070508158377
 31
0.0
  0
MTEXT
  5
21F9D
330
21228
100
AcDbEntity
  8
寸法
 62
     7
 48
50.0
100
AcDbMText
 10
5400.751719185635
 20
1120.007050815837
 30
0.0
 40
120.0
 41
0.0
 71
     5
 72
     1
  1
\A1;150
  7
STYLE1
 11
0.0000000000000001
 21
1.0
 31
0.0
 73
     1
 44
1.0
1001
ACAD
1000
MTEXTBEGIN
1070
    73
1070
     1
1070
    44
1040
1.0
1070
    74
1070
     0
1000
MTEXTEND
  0
INSERT
  5
21F9E
330
21228
100
AcDbEntity
  8
寸法
 62
     0
 48
50.0
370
    -2
100
AcDbBlockReference
  2
_DOTSMALL
 10
5500.751719185635
 20
1270.007050815837
 30
0.0
 41
100.0
 42
100.0
 43
100.0
 50
90.0
  0
INSERT
  5
21F9F
330
21228
100
AcDbEntity
  8
寸法
 62
     0
 48
50.0
370
    -2
100
AcDbBlockReference
  2
_DOTSMALL
 10
5500.751719185635
 20
970.0070508158377
 30
0.0
 41
100.0
 42
100.0
 43
100.0
 50
270.0
  0
POINT
  5
21FA0
330
21228
100
AcDbEntity
  8
DEFPOINTS
 62
     0
 48
50.0
100
AcDbPoint
 10
5678.77711135121
 20
1270.007050815837
 30
0.0
  0
POINT
  5
21FA1
330
21228
100
AcDbEntity
  8
DEFPOINTS
 62
     0
 48
50.0
100
AcDbPoint
 10
5578.777111351214
 20
970.0070508158377
 30
0.0
  0
POINT
  5
21FA2
330
21228
100
AcDbEntity
  8
DEFPOINTS
 62
     0
 48
50.0
100
AcDbPoint
 10
5500.751719185635
 20
970.0070508158377
 30
0.0
  0
ENDBLK
  5
21233
330
21228
100
AcDbEntity
  8
0
 48
50.0
100
AcDbBlockEnd
  0
BLOCK
  5
2123E
330
21234
100
AcDbEntity
  8
0
 48
50.0
100
AcDbBlockBegin
  2
*D30
 70
     1
 10
0.0
 20
0.0
 30
0.0
  3
*D30
  1

  0
LINE
  5
21F91
330
21234
100
AcDbEntity
  8
寸法
 62
     0
 48
50.0
370
    -2
100
AcDbLine
 10
5818.777111351209
 20
1950.007050815838
 30
0.0
 11
5018.132173315145
 21
1950.007050815839
 31
0.0
  0
LINE
  5
21F92
330
21234
100
AcDbEntity
  8
寸法
 62
     0
 48
50.0
370
    -2
100
AcDbLine
 10
5558.777111351213
 20
970.0070508158377
 30
0.0
 11
5018.132173315145
 21
970.0070508158379
 31
0.0
  0
LINE
  5
21F93
330
21234
100
AcDbEntity
  8
寸法
 62
     0
 48
50.0
370
    -2
100
AcDbLine
 10
5078.132173315146
 20
1950.007050815839
 30
0.0
 11
5078.132173315146
 21
970.0070508158379
 31
0.0
  0
MTEXT
  5
21F94
330
21234
100
AcDbEntity
  8
寸法
 62
     7
 48
50.0
100
AcDbMText
 10
4978.132173315145
 20
1460.007050815838
 30
0.0
 40
120.0
 41
0.0
 71
     5
 72
     1
  1
\A1;540
  7
STYLE1
 11
0.0000000000000001
 21
1.0
 31
0.0
 73
     1
 44
1.0
1001
ACAD
1000
MTEXTBEGIN
1070
    73
1070
     1
1070
    44
1040
1.0
1070
    74
1070
     0
1000
MTEXTEND
  0
INSERT
  5
21F95
330
21234
100
AcDbEntity
  8
寸法
 62
     0
 48
50.0
370
    -2
100
AcDbBlockReference
  2
_DOTSMALL
 10
5078.132173315146
 20
1950.007050815839
 30
0.0
 41
100.0
 42
100.0
 43
100.0
 50
90.0
  0
INSERT
  5
21F96
330
21234
100
AcDbEntity
  8
寸法
 62
     0
 48
50.0
370
    -2
100
AcDbBlockReference
  2
_DOTSMALL
 10
5078.132173315146
 20
970.0070508158379
 30
0.0
 41
100.0
 42
100.0
 43
100.0
 50
270.0
  0
POINT
  5
21F97
330
21234
100
AcDbEntity
  8
DEFPOINTS
 62
     0
 48
50.0
100
AcDbPoint
 10
5838.77711135121
 20
1950.007050815838
 30
0.0
  0
POINT
  5
21F98
330
21234
100
AcDbEntity
  8
DEFPOINTS
 62
     0
 48
50.0
100
AcDbPoint
 10
5578.777111351214
 20
970.0070508158377
 30
0.0
  0
POINT
  5
21F99
330
21234
100
AcDbEntity
  8
DEFPOINTS
 62
     0
 48
50.0
100
AcDbPoint
 10
5078.132173315146
 20
970.0070508158379
 30
0.0
  0
ENDBLK
  5
2123F
330
21234
100
AcDbEntity
  8
0
 48
50.0
100
AcDbBlockEnd
  0
BLOCK
  5
2124A
330
21240
100
AcDbEntity
  8
0
 48
50.0
100
AcDbBlockBegin
  2
*D31
 70
     1
 10
0.0
 20
0.0
 30
0.0
  3
*D31
  1

  0
LINE
  5
21F88
330
21240
100
AcDbEntity
  8
寸法
 62
     0
 48
50.0
370
    -2
100
AcDbLine
 10
5678.77711135121
 20
790.0070508158378
 30
0.0
 11
5678.77711135121
 21
451.0549443599047
 31
0.0
  0
LINE
  5
21F89
330
21240
100
AcDbEntity
  8
寸法
 62
     0
 48
50.0
370
    -2
100
AcDbLine
 10
6238.777111351209
 20
790.0070508158378
 30
0.0
 11
6238.777111351209
 21
451.0549443599047
 31
0.0
  0
LINE
  5
21F8A
330
21240
100
AcDbEntity
  8
寸法
 62
     0
 48
50.0
370
    -2
100
AcDbLine
 10
5678.77711135121
 20
511.0549443599047
 30
0.0
 11
6238.777111351209
 21
511.0549443599047
 31
0.0
  0
MTEXT
  5
21F8B
330
21240
100
AcDbEntity
  8
寸法
 62
     7
 48
50.0
100
AcDbMText
 10
5958.77711135121
 20
611.0549443599047
 30
0.0
 40
120.0
 41
0.0
 71
     5
 72
     1
  1
\A1;300
  7
STYLE1
 73
     1
 44
1.0
1001
ACAD
1000
MTEXTBEGIN
1070
    73
1070
     1
1070
    44
1040
1.0
1070
    74
1070
     0
1000
MTEXTEND
  0
INSERT
  5
21F8C
330
21240
100
AcDbEntity
  8
寸法
 62
     0
 48
50.0
370
    -2
100
AcDbBlockReference
  2
_DOTSMALL
 10
5678.77711135121
 20
511.0549443599047
 30
0.0
 41
100.0
 42
100.0
 43
100.0
 50
180.0
  0
INSERT
  5
21F8D
330
21240
100
AcDbEntity
  8
寸法
 62
     0
 48
50.0
370
    -2
100
AcDbBlockReference
  2
_DOTSMALL
 10
6238.777111351209
 20
511.0549443599047
 30
0.0
 41
100.0
 42
100.0
 43
100.0
  0
POINT
  5
21F8E
330
21240
100
AcDbEntity
  8
DEFPOINTS
 62
     0
 48
50.0
100
AcDbPoint
 10
5678.77711135121
 20
810.0070508158378
 30
0.0
  0
POINT
  5
21F8F
330
21240
100
AcDbEntity
  8
DEFPOINTS
 62
     0
 48
50.0
100
AcDbPoint
 10
6238.777111351209
 20
810.0070508158378
 30
0.0
  0
POINT
  5
21F90
330
21240
100
AcDbEntity
  8
DEFPOINTS
 62
     0
 48
50.0
100
AcDbPoint
 10
6238.777111351209
 20
511.0549443599047
 30
0.0
  0
ENDBLK
  5
2124B
330
21240
100
AcDbEntity
  8
0
 48
50.0
100
AcDbBlockEnd
  0
ENDSEC
  0
SECTION
  2
ENTITIES
  0
LINE
  5
10B57
330
747D
100
AcDbEntity
  8
補助
  6
PHANTOM
 62
   230
 48
50.0
100
AcDbLine
 10
139.9999999999995
 20
11409.6
 30
0.0
 11
16307.2
 21
11409.6
 31
0.0
  0
LINE
  5
10B59
330
747D
100
AcDbEntity
  8
仕様書枠
  6
Continuous
 48
50.0
100
AcDbLine
 10
13107.2
 20
1200.0
 30
0.0
 11
13107.2
 21
-0.0000000000000729
 31
0.0
  0
LINE
  5
10B5C
330
747D
100
AcDbEntity
  8
仕様書枠
 48
50.0
100
AcDbLine
 10
16307.2
 20
1200.0
 30
0.0
 11
16307.2
 21
-0.0000000000000909
 31
0.0
  0
LINE
  5
10B5D
330
747D
100
AcDbEntity
  8
仕様書枠
 48
50.0
100
AcDbLine
 10
140.0
 20
0.0
 30
0.0
 11
16307.2
 21
-0.0000000000000909
 31
0.0
  0
LINE
  5
10B5E
330
747D
100
AcDbEntity
  8
補助
  6
PHANTOM
 62
   230
 48
50.0
100
AcDbLine
 10
16307.2
 20
11409.6
 30
0.0
 11
16307.2
 21
1200.0
 31
0.0
  0
LINE
  5
10B6C
330
747D
100
AcDbEntity
  8
仕様書枠
 48
50.0
100
AcDbLine
 10
13107.2
 20
1200.0
 30
0.0
 11
16307.2
 21
1200.0
 31
0.0
  0
LINE
  5
10B6D
330
747D
100
AcDbEntity
  8
補助
  6
PHANTOM
 62
   230
 48
50.0
100
AcDbLine
 10
13107.2
 20
11409.6
 30
0.0
 11
13107.2
 21
4800.0
 31
0.0
  0
LINE
  5
10B6F
330
747D
100
AcDbEntity
  8
補助
  6
PHANTOM
 62
   230
 48
50.0
100
AcDbLine
 10
13107.2
 20
4800.0
 30
0.0
 11
16307.2
 21
4800.0
 31
0.0
  0
LINE
  5
10B72
330
747D
100
AcDbEntity
  8
文字
 62
     7
 48
50.0
100
AcDbLine
 10
13187.2
 20
400.0
 30
0.0
 11
16227.2
 21
400.0
 31
0.0
  0
TEXT
  5
10B73
330
747D
100
AcDbEntity
  8
文字
 62
     7
 48
50.0
100
AcDbText
 10
13162.9790565769
 20
895.0906074299405
 30
0.0
 40
200.0
  1
基 礎 図
  7
STYLE2
100
AcDbText
  0
TEXT
  5
10B74
330
747D
100
AcDbEntity
  8
文字
 62
     7
 48
50.0
100
AcDbText
 10
13201.43669998441
 20
477.2740661031255
 30
0.0
 40
160.0
  1
機種名
  7
STYLE2
100
AcDbText
  0
TEXT
  5
10B79
330
747D
100
AcDbEntity
  8
文字
 62
     7
 48
50.0
100
AcDbText
 10
14524.131837222
 20
1031.557706291228
 30
0.0
 40
100.0
  1
      <縮尺> S=1/40
  7
STYLE2
100
AcDbText
  0
LINE
  5
10B7B
330
747D
100
AcDbEntity
  8
仕様書枠
 48
50.0
100
AcDbLine
 10
13107.2
 20
800.0
 30
0.0
 11
14251.2
 21
800.0
 31
0.0
  0
LINE
  5
10B88
330
747D
100
AcDbEntity
  8
仕様書枠
  6
Continuous
 48
50.0
100
AcDbLine
 10
14251.2
 20
1200.0
 30
0.0
 11
14251.2
 21
800.0
 31
0.0
  0
TEXT
  5
14DEF
330
747D
100
AcDbEntity
  8
文字
 62
     7
 48
50.0
100
AcDbText
 10
14641.2525855784
 20
871.1744590657925
 30
0.0
 40
100.0
  1
～一般型・多雪地型～
  7
STYLE2
100
AcDbText
  0
TEXT
  5
15A76
330
747D
100
AcDbEntity
  8
文字
 62
     7
 48
50.0
100
AcDbText
 10
14483.56764462811
 20
483.8967129911411
 30
0.0
 40
160.0
  1
ＮＸＮ－６５Ｓ・H
  7
STYLE2
100
AcDbText
  0
TEXT
  5
1D002
330
747D
100
AcDbEntity
  8
文字
 62
     7
 48
50.0
100
AcDbText
 10
13188.16259899338
 20
246.7109242801889
 30
0.0
 40
80.0
  1
※寒冷地等は地域の実情に合わせた基礎にして下さい。
  7
STYLE2
100
AcDbText
  0
DIMENSION
  5
1D91B
330
747D
100
AcDbEntity
  8
寸法
 48
50.0
100
AcDbDimension
  2
*D1
 10
6925.920261149996
 20
5602.919036112863
 30
0.0
 11
6925.920261149994
 21
5838.966280207354
 31
0.0
 70
   160
 71
     5
 42
130.0000000000036
  3
INABA_S40G
100
AcDbAlignedDimension
 13
6709.2130112739
 23
5472.919036112859
 33
0.0
 14
6709.213011273897
 24
5602.919036112863
 34
0.0
 50
90.0
100
AcDbRotatedDimension
1001
ACAD
1000
DSTYLE
1002
{
1070
   174
1070
     0
1070
   272
1070
     1
1070
   279
1070
     1
1070
   288
1070
     0
1070
   341
1005
0
1002
}
  0
DIMENSION
  5
1D91C
330
747D
100
AcDbEntity
  8
寸法
 48
50.0
100
AcDbDimension
  2
*D2
 10
6925.920261149996
 20
5302.919036112861
 30
0.0
 11
6925.920261149994
 21
5066.662132188719
 31
0.0
 70
   160
 71
     5
 42
170.0
  3
INABA_S40G
100
AcDbAlignedDimension
 13
6709.2130112739
 23
5472.919036112862
 33
0.0
 14
6709.213011273897
 24
5302.919036112861
 34
0.0
 50
90.0
100
AcDbRotatedDimension
1001
ACAD
1000
DSTYLE
1002
{
1070
   174
1070
     0
1070
   272
1070
     1
1070
   279
1070
     1
1070
   288
1070
     0
1070
   341
1005
0
1002
}
  0
DIMENSION
  5
1D91D
330
747D
100
AcDbEntity
  8
寸法
 48
50.0
100
AcDbDimension
  2
*D3
 10
6602.213011273896
 20
8276.250847072711
 30
0.0
 11
8009.213011273896
 21
8376.262658096333
 31
0.0
 70
    32
 71
     5
 42
2814.0
  3
INABA_S40G
100
AcDbAlignedDimension
 13
9416.213011273896
 23
7449.919036112861
 33
0.0
 14
6602.213011273896
 24
7449.919036112861
 34
0.0
100
AcDbRotatedDimension
1001
ACAD
1000
DSTYLE
1002
{
1070
   174
1070
     0
1070
   272
1070
     1
1070
   279
1070
     1
1070
   288
1070
     0
1070
   341
1005
0
1002
}
  0
LINE
  5
1D91E
330
747D
100
AcDbEntity
  8
部品1
 48
50.0
100
AcDbLine
 10
9309.213011273895
 20
5472.919036112876
 30
0.0
 11
6709.213011273899
 21
5472.91903611286
 31
0.0
  0
LINE
  5
1D91F
330
747D
100
AcDbEntity
  8
部品1
 48
50.0
100
AcDbLine
 10
9309.213011273895
 20
7402.919036112859
 30
0.0
 11
6709.213011273895
 21
7402.919036112861
 31
0.0
  0
DIMENSION
  5
1D920
330
747D
100
AcDbEntity
  8
寸法
 48
50.0
100
AcDbDimension
  2
*D4
 10
9539.213011273897
 20
8488.711542589548
 30
0.0
 11
8009.213011273896
 21
8588.711542589548
 31
0.0
 70
    32
 71
     5
 42
3060.000000000002
  3
INABA_S40G
100
AcDbAlignedDimension
 13
6479.213011273895
 23
7522.919036112859
 33
0.0
 14
9539.213011273897
 24
7522.919036112861
 34
0.0
100
AcDbRotatedDimension
1001
ACAD
1000
DSTYLE
1002
{
1070
   174
1070
     0
1070
   272
1070
     1
1070
   279
1070
     1
1070
   288
1070
     0
1070
   341
1005
0
1002
}
  0
LINE
  5
1D921
330
747D
100
AcDbEntity
  8
部品1
 48
50.0
100
AcDbLine
 10
9539.213011273897
 20
5302.919036112878
 30
0.0
 11
6479.213011273896
 21
5302.919036112855
 31
0.0
  0
LINE
  5
1D922
330
747D
100
AcDbEntity
  8
部品1
 48
50.0
100
AcDbLine
 10
9539.213011273897
 20
7522.919036112863
 30
0.0
 11
6479.213011273898
 21
7522.919036112863
 31
0.0
  0
LINE
  5
1D923
330
747D
100
AcDbEntity
  8
想像線
 48
10.0
100
AcDbLine
 10
9584.213011273895
 20
5247.919036112856
 30
0.0
 11
6437.213011273897
 21
5247.919036112861
 31
0.0
  0
LINE
  5
1D924
330
747D
100
AcDbEntity
  8
想像線
 48
10.0
100
AcDbLine
 10
6437.213011273897
 20
7597.91903611286
 30
0.0
 11
9584.213011273893
 21
7597.919036112864
 31
0.0
  0
DIMENSION
  5
1D925
330
747D
100
AcDbEntity
  8
寸法
 48
50.0
100
AcDbDimension
  2
*D5
 10
6479.213011273895
 20
8276.250847072711
 30
0.0
 11
6240.727729899656
 21
8276.250847072711
 31
0.0
 70
   160
 71
     5
 42
123.0000000000018
  3
INABA_S40G
100
AcDbAlignedDimension
 13
6602.213011273896
 23
7449.919036112861
 33
0.0
 14
6479.213011273895
 24
7522.919036112859
 34
0.0
100
AcDbRotatedDimension
1001
ACAD
1000
DSTYLE
1002
{
1070
   174
1070
     0
1070
   272
1070
     1
1070
   279
1070
     1
1070
   288
1070
     0
1070
   341
1005
0
1002
}
  0
DIMENSION
  5
1D926
330
747D
100
AcDbEntity
  8
寸法
 48
50.0
100
AcDbDimension
  2
*D6
 10
6479.213011273896
 20
8488.71154258955
 30
0.0
 11
6456.713011273894
 21
8488.71154258955
 31
0.0
 70
   160
  1
a
 71
     5
 42
45.00000000000364
  3
INABA_S40G
100
AcDbAlignedDimension
 13
6434.213011273893
 23
8276.250847072711
 33
0.0
 14
6479.213011273896
 24
7671.190236682781
 34
0.0
100
AcDbRotatedDimension
1001
ACAD
1000
DSTYLE
1002
{
1070
   174
1070
     0
1070
   272
1070
     1
1070
   279
1070
     1
1070
   288
1070
     0
1070
   341
1005
0
1002
}
  0
DIMENSION
  5
1D927
330
747D
100
AcDbEntity
  8
寸法
 48
50.0
100
AcDbDimension
  2
*D7
 10
5983.270745260075
 20
5500.919036112862
 30
0.0
 11
5983.270745260075
 21
6412.919036112862
 31
0.0
 70
   160
 71
     5
 42
1898.999999999999
  3
INABA_S40G
100
AcDbAlignedDimension
 13
6552.213011273896
 23
7399.919036112861
 33
0.0
 14
6552.213011273905
 24
5500.919036112861
 34
0.0
 50
90.0
100
AcDbRotatedDimension
1001
ACAD
1000
DSTYLE
1002
{
1070
   174
1070
     0
1070
   272
1070
     1
1070
   279
1070
     1
1070
   288
1070
     0
1070
   341
1005
0
1002
}
  0
LINE
  5
1D928
330
747D
100
AcDbEntity
  8
部品1
 48
50.0
100
AcDbLine
 10
6599.213011273898
 20
5602.919036112862
 30
0.0
 11
6599.213011273896
 21
7292.919036112859
 31
0.0
  0
DIMENSION
  5
1D929
330
747D
100
AcDbEntity
  8
寸法
 48
50.0
100
AcDbDimension
  2
*D8
 10
5737.777943122111
 20
5302.919036112861
 30
0.0
 11
5737.77794312211
 21
6412.919036112862
 31
0.0
 70
   160
 71
     5
 42
2220.000000000003
  3
INABA_S40G
100
AcDbAlignedDimension
 13
6479.213011273895
 23
7522.919036112863
 33
0.0
 14
6479.213011273897
 24
5302.91903611286
 34
0.0
 50
90.0
100
AcDbRotatedDimension
1001
ACAD
1000
DSTYLE
1002
{
1070
   174
1070
     0
1070
   272
1070
     1
1070
   279
1070
     1
1070
   288
1070
     0
1070
   341
1005
0
1002
}
  0
LINE
  5
1D92A
330
747D
100
AcDbEntity
  8
部品1
 48
50.0
100
AcDbLine
 10
6479.213011273895
 20
5302.919036112857
 30
0.0
 11
6479.213011273898
 21
7522.919036112863
 31
0.0
  0
LINE
  5
1D92B
330
747D
100
AcDbEntity
  8
想像線
 48
10.0
100
AcDbLine
 10
6434.213011273898
 20
5250.919036112861
 30
0.0
 11
6434.213011273898
 21
7594.91903611286
 31
0.0
  0
DIMENSION
  5
1D92C
330
747D
100
AcDbEntity
  8
寸法
 48
50.0
100
AcDbDimension
  2
*D9
 10
5983.270745260075
 20
5302.919036112861
 30
0.0
 11
5983.270745260075
 21
5066.709376283204
 31
0.0
 70
   160
 71
     5
 42
198.0000000000018
  3
INABA_S40G
100
AcDbAlignedDimension
 13
6552.213011273905
 23
5500.919036112861
 33
0.0
 14
6479.213011273897
 24
5302.91903611286
 34
0.0
 50
90.0
100
AcDbRotatedDimension
1001
ACAD
1000
DSTYLE
1002
{
1070
   174
1070
     0
1070
   272
1070
     1
1070
   279
1070
     1
1070
   288
1070
     0
1070
   341
1005
0
1002
}
  0
DIMENSION
  5
1D92D
330
747D
100
AcDbEntity
  8
寸法
 48
50.0
100
AcDbDimension
  2
*D10
 10
5737.777943122108
 20
5247.919036112859
 30
0.0
 11
5737.777943122107
 21
5275.419036112861
 31
0.0
 70
   160
  1
b
 71
     5
 42
55.00000000000091
  3
INABA_S40G
100
AcDbAlignedDimension
 13
6479.213011273897
 23
5302.91903611286
 33
0.0
 14
5983.270745260075
 24
5247.919036112859
 34
0.0
 50
90.0
100
AcDbRotatedDimension
1001
ACAD
1000
DSTYLE
1002
{
1070
   174
1070
     0
1070
   272
1070
     1
1070
   279
1070
     1
1070
   288
1070
     0
1070
   341
1005
0
1002
}
  0
LINE
  5
1D92E
330
747D
100
AcDbEntity
  8
センター
 48
2.0
100
AcDbLine
 10
6602.213011273905
 20
5550.919036112862
 30
0.0
 11
6602.213011273905
 21
5450.919036112861
 31
0.0
  0
LINE
  5
1D92F
330
747D
100
AcDbEntity
  8
センター
 48
2.0
100
AcDbLine
 10
6552.213011273905
 20
5500.919036112861
 30
0.0
 11
6652.213011273905
 21
5500.919036112861
 31
0.0
  0
CIRCLE
  5
1D930
330
747D
100
AcDbEntity
  8
部品1
 48
50.0
100
AcDbCircle
 10
6602.213011273905
 20
5500.919036112861
 30
0.0
 40
35.0
  0
LINE
  5
1D931
330
747D
100
AcDbEntity
  8
部品1
 48
50.0
100
AcDbLine
 10
6709.213011273897
 20
5602.919036112863
 30
0.0
 11
6599.213011273898
 21
5602.919036112862
 31
0.0
  0
LINE
  5
1D932
330
747D
100
AcDbEntity
  8
部品1
 48
50.0
100
AcDbLine
 10
6709.2130112739
 20
5472.919036112862
 30
0.0
 11
6709.213011273897
 21
5602.919036112863
 31
0.0
  0
DIMENSION
  5
1D933
330
747D
100
AcDbEntity
  8
寸法
 48
50.0
100
AcDbDimension
  2
*D11
 10
5983.270745260075
 20
7399.919036112861
 30
0.0
 11
5983.270745260074
 21
7761.4043174871
 31
0.0
 70
   160
 71
     5
 42
123.0
  3
INABA_S40G
100
AcDbAlignedDimension
 13
6479.213011273896
 23
7522.91903611286
 33
0.0
 14
6552.213011273896
 24
7399.919036112861
 34
0.0
 50
90.0
100
AcDbRotatedDimension
1001
ACAD
1000
DSTYLE
1002
{
1070
   174
1070
     0
1070
   272
1070
     1
1070
   279
1070
     1
1070
   288
1070
     0
1070
   341
1005
0
1002
}
  0
DIMENSION
  5
1D934
330
747D
100
AcDbEntity
  8
寸法
 48
50.0
100
AcDbDimension
  2
*D12
 10
5737.777943122107
 20
7522.919036112861
 30
0.0
 11
5737.777943122106
 21
7560.419036112863
 31
0.0
 70
   160
  1
c
 71
     5
 42
74.99999999999909
  3
INABA_S40G
100
AcDbAlignedDimension
 13
5983.270745260075
 23
7597.91903611286
 33
0.0
 14
6479.213011273896
 24
7522.91903611286
 34
0.0
 50
90.0
100
AcDbRotatedDimension
1001
ACAD
1000
DSTYLE
1002
{
1070
   174
1070
     0
1070
   272
1070
     1
1070
   279
1070
     1
1070
   288
1070
     0
1070
   341
1005
0
1002
}
  0
LINE
  5
1D935
330
747D
100
AcDbEntity
  8
部品1
 48
50.0
100
AcDbLine
 10
6599.213011273898
 20
6512.919036112861
 30
0.0
 11
6479.213011273897
 21
6512.919036112861
 31
0.0
  0
LINE
  5
1D936
330
747D
100
AcDbEntity
  8
部品1
 48
50.0
100
AcDbLine
 10
6599.213011273898
 20
6312.919036112861
 30
0.0
 11
6479.213011273897
 21
6312.919036112861
 31
0.0
  0
LINE
  5
1D938
330
747D
100
AcDbEntity
  8
センター
 48
2.0
100
AcDbLine
 10
6602.213011273896
 20
7449.919036112861
 30
0.0
 11
6602.213011273896
 21
7349.919036112861
 31
0.0
  0
LINE
  5
1D939
330
747D
100
AcDbEntity
  8
センター
 48
2.0
100
AcDbLine
 10
6552.213011273896
 20
7399.919036112861
 30
0.0
 11
6652.213011273897
 21
7399.919036112861
 31
0.0
  0
CIRCLE
  5
1D93A
330
747D
100
AcDbEntity
  8
部品1
 48
50.0
100
AcDbCircle
 10
6602.213011273896
 20
7399.919036112861
 30
0.0
 40
35.0
  0
LINE
  5
1D93B
330
747D
100
AcDbEntity
  8
部品1
 48
50.0
100
AcDbLine
 10
6709.213011273895
 20
7292.919036112856
 30
0.0
 11
6599.213011273896
 21
7292.919036112859
 31
0.0
  0
LINE
  5
1D93C
330
747D
100
AcDbEntity
  8
部品1
 48
50.0
100
AcDbLine
 10
6709.213011273895
 20
7292.919036112856
 30
0.0
 11
6709.213011273895
 21
7402.919036112862
 31
0.0
  0
DIMENSION
  5
1D93E
330
747D
100
AcDbEntity
  8
寸法
 48
50.0
100
AcDbDimension
  2
*D13
 10
9416.213011273896
 20
8276.250847072711
 30
0.0
 11
9777.698292648134
 21
8276.250847072711
 31
0.0
 70
   160
 71
     5
 42
123.0
  3
INABA_S40G
100
AcDbAlignedDimension
 13
9539.213011273897
 23
7522.919036112861
 33
0.0
 14
9416.213011273896
 24
7449.919036112861
 34
0.0
100
AcDbRotatedDimension
1001
ACAD
1000
DSTYLE
1002
{
1070
   174
1070
     0
1070
   272
1070
     1
1070
   279
1070
     1
1070
   288
1070
     0
1070
   341
1005
0
1002
}
  0
DIMENSION
  5
1D93F
330
747D
100
AcDbEntity
  8
寸法
 48
50.0
100
AcDbDimension
  2
*D14
 10
9584.213011273895
 20
8488.711542589548
 30
0.0
 11
9561.713011273896
 21
8488.711542589548
 31
0.0
 70
   160
  1
a
 71
     5
 42
45.0
  3
INABA_S40G
100
AcDbAlignedDimension
 13
9539.213011273897
 23
7671.190236682781
 33
0.0
 14
9584.213011273895
 24
8276.250847072711
 34
0.0
100
AcDbRotatedDimension
1001
ACAD
1000
DSTYLE
1002
{
1070
   174
1070
     0
1070
   272
1070
     1
1070
   279
1070
     1
1070
   288
1070
     0
1070
   341
1005
0
1002
}
  0
TEXT
  5
1D943
330
747D
100
AcDbEntity
  8
部品1
 48
50.0
100
AcDbText
 10
9626.033077952298
 20
4608.032239333585
 30
0.0
 40
80.0
  1
(a=45,b=55,c=75)
  7
STYLE1
100
AcDbText
  0
TEXT
  5
1D944
330
747D
100
AcDbEntity
  8
部品1
 48
50.0
100
AcDbText
 10
9556.156190347413
 20
4727.763285486725
 30
0.0
 40
80.0
  1
※a,b,cは屋根の出幅です。
  7
STYLE1
100
AcDbText
  0
MTEXT
  5
1D945
102
{ACAD_REACTORS
330
1D946
102
}
330
747D
100
AcDbEntity
  8
部品1
 62
     7
 48
50.0
100
AcDbMText
 10
10421.33878581221
 20
4951.901644153068
 30
0.0
 40
120.0
 41
0.0
 71
     6
 72
     1
  1
\A1;屋根の外寸
  7
STYLE1
 73
     1
 44
1.0
1001
ACAD
1000
MTEXTBEGIN
1070
    73
1070
     1
1070
    44
1040
1.0
1070
    74
1070
     0
1000
MTEXTEND
  0
LEADER
  5
1D946
330
747D
100
AcDbEntity
  8
寸法
 48
50.0
100
AcDbLeader
  3
INABA_S40G
 71
     0
 73
     0
 74
     0
 75
     1
 40
120.0
 41
672.0
 76
     3
 10
9351.101599207723
 20
5246.91903611286
 30
0.0
 10
9609.338785812216
 20
4851.901644153069
 30
0.0
 10
9709.338785812215
 20
4851.901644153069
 30
0.0
340
1D945
1001
ACAD
1000
DSTYLE
1002
{
1070
   174
1070
     0
1070
   272
1070
     1
1070
   279
1070
     1
1070
   288
1070
     0
1070
   341
1005
0
1002
}
  0
DIMENSION
  5
1D947
330
747D
100
AcDbEntity
  8
寸法
 48
50.0
100
AcDbDimension
  2
*D15
 10
6939.72319518692
 20
7292.919036112856
 30
0.0
 11
6939.723195186918
 21
7054.598327534932
 31
0.0
 70
   160
 71
     5
 42
110.0000000000054
  3
INABA_S40G
100
AcDbAlignedDimension
 13
6709.213011273895
 23
7402.919036112862
 33
0.0
 14
6709.213011273895
 24
7292.919036112856
 34
0.0
 50
90.0
100
AcDbRotatedDimension
1001
ACAD
1000
DSTYLE
1002
{
1070
   174
1070
     0
1070
   272
1070
     1
1070
   279
1070
     1
1070
   288
1070
     0
1070
   341
1005
0
1002
}
  0
LINE
  5
1D949
330
747D
100
AcDbEntity
  8
部品1
 48
50.0
100
AcDbLine
 10
9419.213011273896
 20
5602.919036112879
 30
0.0
 11
9419.213011273894
 21
7292.919036112862
 31
0.0
  0
LINE
  5
1D94A
330
747D
100
AcDbEntity
  8
部品1
 48
50.0
100
AcDbLine
 10
9539.213011273897
 20
5302.919036112878
 30
0.0
 11
9539.213011273897
 21
7522.919036112863
 31
0.0
  0
LINE
  5
1D94B
330
747D
100
AcDbEntity
  8
想像線
 48
10.0
100
AcDbLine
 10
9584.213011273893
 20
7597.919036112864
 30
0.0
 11
9584.213011273901
 21
5247.919036112859
 31
0.0
  0
TEXT
  5
1D94C
330
747D
100
AcDbEntity
  8
部品1
 48
50.0
100
AcDbText
 10
7881.213011273904
 20
5041.4665347094
 30
0.0
 40
120.0
  1
扉面
  7
STYLE1
 72
     1
 11
8009.213011273903
 21
5025.4665347094
 31
0.0
100
AcDbText
 73
     1
  0
LINE
  5
1D94F
330
747D
100
AcDbEntity
  8
部品1
 48
50.0
100
AcDbLine
 10
7909.213011273918
 20
5302.919036112868
 30
0.0
 11
7909.213011273918
 21
5472.919036112868
 31
0.0
  0
LINE
  5
1D950
330
747D
100
AcDbEntity
  8
部品1
 48
50.0
100
AcDbLine
 10
8109.213011273919
 20
5302.919036112868
 30
0.0
 11
8109.213011273919
 21
5472.91903611287
 31
0.0
  0
LINE
  5
1D951
330
747D
100
AcDbEntity
  8
センター
 48
2.0
100
AcDbLine
 10
9366.213011273904
 20
5500.919036112861
 30
0.0
 11
9466.213011273904
 21
5500.919036112861
 31
0.0
  0
CIRCLE
  5
1D952
330
747D
100
AcDbEntity
  8
部品1
 48
50.0
100
AcDbCircle
 10
9416.213011273903
 20
5500.919036112861
 30
0.0
 40
35.0
  0
LINE
  5
1D953
330
747D
100
AcDbEntity
  8
部品1
 48
50.0
100
AcDbLine
 10
9419.213011273896
 20
5602.919036112878
 30
0.0
 11
9309.213011273895
 21
5602.919036112878
 31
0.0
  0
LINE
  5
1D954
330
747D
100
AcDbEntity
  8
部品1
 48
50.0
100
AcDbLine
 10
9309.213011273898
 20
5472.919036112876
 30
0.0
 11
9309.213011273895
 21
5602.919036112878
 31
0.0
  0
LINE
  5
1D955
330
747D
100
AcDbEntity
  8
センター
 48
2.0
100
AcDbLine
 10
9416.213011273903
 20
5550.919036112862
 30
0.0
 11
9416.213011273903
 21
5450.919036112861
 31
0.0
  0
LINE
  5
1D956
330
747D
100
AcDbEntity
  8
部品1
 48
50.0
100
AcDbLine
 10
8109.213011273903
 20
7402.91903611286
 30
0.0
 11
8109.213011273903
 21
7522.91903611286
 31
0.0
  0
LINE
  5
1D957
330
747D
100
AcDbEntity
  8
部品1
 48
50.0
100
AcDbLine
 10
7909.213011273902
 20
7402.91903611286
 30
0.0
 11
7909.213011273902
 21
7522.91903611286
 31
0.0
  0
DIMENSION
  5
1D959
330
747D
100
AcDbEntity
  8
寸法
 48
50.0
100
AcDbDimension
  2
*D16
 10
6939.723195186918
 20
7402.919036112862
 30
0.0
 11
6939.723195186918
 21
7758.96628020735
 31
0.0
 70
   160
 71
     5
 42
119.9999999999963
  3
INABA_S40G
100
AcDbAlignedDimension
 13
6681.213011273896
 23
7522.919036112859
 33
0.0
 14
6709.213011273895
 24
7402.919036112862
 34
0.0
 50
90.0
100
AcDbRotatedDimension
1001
ACAD
1000
DSTYLE
1002
{
1070
   174
1070
     0
1070
   272
1070
     1
1070
   279
1070
     1
1070
   288
1070
     0
1070
   341
1005
0
1002
}
  0
LINE
  5
1D95A
330
747D
100
AcDbEntity
  8
センター
 48
2.0
100
AcDbLine
 10
9366.213011273897
 20
7399.919036112861
 30
0.0
 11
9466.213011273897
 21
7399.919036112861
 31
0.0
  0
CIRCLE
  5
1D95B
330
747D
100
AcDbEntity
  8
部品1
 48
50.0
100
AcDbCircle
 10
9416.213011273896
 20
7399.919036112861
 30
0.0
 40
35.0
  0
LINE
  5
1D95C
330
747D
100
AcDbEntity
  8
部品1
 48
50.0
100
AcDbLine
 10
9419.213011273894
 20
7292.919036112862
 30
0.0
 11
9309.213011273895
 21
7292.919036112859
 31
0.0
  0
LINE
  5
1D95D
330
747D
100
AcDbEntity
  8
部品1
 48
50.0
100
AcDbLine
 10
9309.213011273895
 20
7292.919036112859
 30
0.0
 11
9309.213011273895
 21
7402.919036112859
 31
0.0
  0
LINE
  5
1D95E
330
747D
100
AcDbEntity
  8
部品1
 48
50.0
100
AcDbLine
 10
9539.213011273899
 20
6512.919036112861
 30
0.0
 11
9419.213011273894
 21
6512.919036112861
 31
0.0
  0
LINE
  5
1D95F
330
747D
100
AcDbEntity
  8
部品1
 48
50.0
100
AcDbLine
 10
9539.213011273899
 20
6312.919036112861
 30
0.0
 11
9419.213011273894
 21
6312.919036112861
 31
0.0
  0
LINE
  5
1D961
330
747D
100
AcDbEntity
  8
センター
 48
2.0
100
AcDbLine
 10
9416.213011273896
 20
7449.919036112861
 30
0.0
 11
9416.213011273896
 21
7349.919036112861
 31
0.0
  0
TEXT
  5
1DEDA
330
747D
100
AcDbEntity
  8
文字
 62
     7
 48
50.0
100
AcDbText
 10
13188.16259899338
 20
79.80631269190325
 30
0.0
 40
80.0
  1
※布基礎には換気口を設けてください。
  7
STYLE2
100
AcDbText
  0
MTEXT
  5
1E700
102
{ACAD_REACTORS
330
1E701
102
}
330
747D
100
AcDbEntity
  8
部品1
 62
     7
 48
50.0
100
AcDbMText
 10
10589.02999071
 20
7765.944479920811
 30
0.0
 40
120.0
 41
0.0
 71
     6
 72
     1
  1
基礎ボルト芯
  7
STYLE1
 73
     1
 44
1.0
1001
ACAD
1000
MTEXTBEGIN
1070
    73
1070
     1
1070
    44
1040
1.0
1070
    74
1070
     0
1000
MTEXTEND
  0
LEADER
  5
1E701
330
747D
100
AcDbEntity
  8
寸法
 48
50.0
100
AcDbLeader
  3
INABA_S40G
 71
     0
 73
     0
 74
     0
 75
     1
 40
120.0
 41
846.0000000000002
 76
     3
 10
9416.213011273896
 20
7399.919036112861
 30
0.0
 10
9603.029990710002
 20
7665.944479920812
 30
0.0
 10
9703.029990710001
 20
7665.944479920812
 30
0.0
340
1E700
1001
ACAD
1000
DSTYLE
1002
{
1070
   174
1070
     0
1070
   272
1070
     1
1070
   279
1070
     1
1070
   288
1070
     0
1070
   341
1005
0
1002
}
  0
DIMENSION
  5
1E96D
330
747D
100
AcDbEntity
  8
寸法
 48
50.0
100
AcDbDimension
  2
*D17
 10
8931.087028824595
 20
7522.919036112863
 30
0.0
 11
8831.087028824594
 21
7155.419036112867
 31
0.0
 70
    32
 71
     5
 42
734.9999999999936
  3
INABA_S40G
100
AcDbAlignedDimension
 13
8785.713011273898
 23
6787.919036112869
 33
0.0
 14
8876.713011273906
 24
7522.919036112863
 34
0.0
 50
90.0
100
AcDbRotatedDimension
1001
ACAD
1000
DSTYLE
1002
{
1070
   174
1070
     0
1070
   272
1070
     1
1070
   279
1070
     1
1070
   288
1070
     0
1070
   341
1005
0
1002
}
  0
DIMENSION
  5
1E98B
330
747D
100
AcDbEntity
  8
寸法
 48
50.0
100
AcDbDimension
  2
*D18
 10
8931.087028824606
 20
6037.919036112861
 30
0.0
 11
8937.557571339553
 21
5684.500182931486
 31
0.0
 70
   160
 71
     5
 42
734.9999999999927
  3
INABA_S40G
100
AcDbAlignedDimension
 13
8876.713011273906
 23
5302.919036112868
 33
0.0
 14
8785.713011273898
 24
6037.919036112861
 34
0.0
 50
90.0
100
AcDbRotatedDimension
1001
ACAD
1000
DSTYLE
1002
{
1070
   174
1070
     0
1070
   272
1070
     1
1070
   279
1070
     1
1070
   288
1070
     0
1070
   341
1005
0
1002
}
  0
MTEXT
  5
1F11B
102
{ACAD_REACTORS
330
1F11C
102
}
330
747D
100
AcDbEntity
  8
部品1
 62
     7
 48
50.0
100
AcDbMText
 10
10609.45019787839
 20
6117.901644153088
 30
0.0
 40
120.0
 41
0.0
 71
     6
 72
     1
  1
床下換気口
  7
STYLE1
 73
     1
 44
1.0
1001
ACAD
1000
MTEXTBEGIN
1070
    73
1070
     1
1070
    44
1040
1.0
1070
    74
1070
     0
1000
MTEXTEND
  0
LEADER
  5
1F11C
330
747D
100
AcDbEntity
  8
寸法
 48
50.0
100
AcDbLeader
  3
INABA_S40G
 71
     0
 73
     0
 74
     0
 75
     1
 40
120.0
 41
720.0000000000001
 76
     3
 10
9539.213011273899
 20
6412.919036112879
 30
0.0
 10
9749.45019787839
 20
6017.901644153088
 30
0.0
 10
9849.45019787839
 20
6017.901644153088
 30
0.0
340
1F11B
1001
ACAD
1000
DSTYLE
1002
{
1070
   174
1070
     0
1070
   272
1070
     1
1070
   279
1070
     1
1070
   288
1070
     0
1070
   341
1005
0
1002
}
  0
DIMENSION
  5
1F248
330
747D
100
AcDbEntity
  8
寸法
 48
50.0
100
AcDbDimension
  2
*D20
 10
8736.213011273896
 20
8049.82880176119
 30
0.0
 11
9115.983146456347
 21
8048.090767068199
 31
0.0
 70
   160
 71
     5
 42
802.9999999999963
  3
INABA_S40G
100
AcDbAlignedDimension
 13
9539.213011273892
 23
7522.919036112863
 33
0.0
 14
8736.213011273896
 24
6887.919036112869
 34
0.0
100
AcDbRotatedDimension
1001
ACAD
1000
DSTYLE
1002
{
1070
   174
1070
     0
1070
   272
1070
     1
1070
   279
1070
     1
1070
   288
1070
     0
1070
   341
1005
0
1002
}
  0
DIMENSION
  5
1F249
330
747D
100
AcDbEntity
  8
寸法
 48
50.0
100
AcDbDimension
  2
*D19
 10
6479.213011273895
 20
8049.82880176119
 30
0.0
 11
6880.713011273896
 21
8149.82880176119
 31
0.0
 70
    32
 71
     5
 42
803.0000000000027
  3
INABA_S40G
100
AcDbAlignedDimension
 13
7282.213011273897
 23
6887.919036112869
 33
0.0
 14
6479.213011273895
 24
7522.919036112863
 34
0.0
100
AcDbRotatedDimension
1001
ACAD
1000
DSTYLE
1002
{
1070
   174
1070
     0
1070
   272
1070
     1
1070
   279
1070
     1
1070
   288
1070
     0
1070
   341
1005
0
1002
}
  0
LINE
  5
1F940
330
747D
100
AcDbEntity
  8
センター
 48
2.0
100
AcDbLine
 10
8736.213011273898
 20
6837.919036112869
 30
0.0
 11
8736.213011273898
 21
6737.919036112869
 31
0.0
  0
LINE
  5
1F941
330
747D
100
AcDbEntity
  8
部品1
 48
50.0
100
AcDbLine
 10
8836.213011273898
 20
6687.919036112866
 30
0.0
 11
8836.213011273898
 21
6887.919036112869
 31
0.0
  0
LINE
  5
1F942
330
747D
100
AcDbEntity
  8
部品1
 48
50.0
100
AcDbLine
 10
8636.213011273898
 20
6687.919036112866
 30
0.0
 11
8636.2130112739
 21
6887.919036112869
 31
0.0
  0
LINE
  5
1F943
330
747D
100
AcDbEntity
  8
センター
 48
2.0
100
AcDbLine
 10
8686.213011273897
 20
6787.919036112869
 30
0.0
 11
8786.213011273899
 21
6787.919036112869
 31
0.0
  0
LINE
  5
1FDB5
330
747D
100
AcDbEntity
  8
想像線
 48
10.0
100
AcDbLine
 10
6437.213011273897
 20
7597.91903611286
 30
0.0
 11
6434.213011273898
 21
7594.91903611286
 31
0.0
  0
LINE
  5
1FDB9
330
747D
100
AcDbEntity
  8
想像線
 48
10.0
100
AcDbLine
 10
6434.213011273898
 20
5250.919036112861
 30
0.0
 11
6437.213011273897
 21
5247.919036112861
 31
0.0
  0
LINE
  5
1FE23
330
747D
100
AcDbEntity
  8
センター
 48
2.0
100
AcDbLine
 10
7232.213011273896
 20
6787.919036112869
 30
0.0
 11
7332.213011273896
 21
6787.919036112869
 31
0.0
  0
LINE
  5
1FE24
330
747D
100
AcDbEntity
  8
部品1
 48
50.0
100
AcDbLine
 10
7182.213011273896
 20
6687.919036112868
 30
0.0
 11
7182.213011273898
 21
6887.919036112869
 31
0.0
  0
LINE
  5
1FE25
330
747D
100
AcDbEntity
  8
部品1
 48
50.0
100
AcDbLine
 10
7382.213011273894
 20
6687.919036112868
 30
0.0
 11
7382.213011273896
 21
6887.919036112871
 31
0.0
  0
LINE
  5
1FE26
330
747D
100
AcDbEntity
  8
センター
 48
2.0
100
AcDbLine
 10
7282.213011273896
 20
6837.919036112869
 30
0.0
 11
7282.213011273896
 21
6737.919036112869
 31
0.0
  0
DIMENSION
  5
1FE4B
330
747D
100
AcDbEntity
  8
寸法
 48
50.0
100
AcDbDimension
  2
*D21
 10
8736.213011273896
 20
8049.82880176119
 30
0.0
 11
8372.713011273896
 21
8149.840612784812
 31
0.0
 70
    32
 71
     5
 42
727.0
  3
INABA_S40G
100
AcDbAlignedDimension
 13
8009.213011273896
 23
6887.919036112869
 33
0.0
 14
8736.213011273896
 24
6887.919036112869
 34
0.0
100
AcDbRotatedDimension
1001
ACAD
1000
DSTYLE
1002
{
1070
   174
1070
     0
1070
   272
1070
     1
1070
   279
1070
     1
1070
   288
1070
     0
1070
   341
1005
0
1002
}
  0
LEADER
  5
1FEC1
330
747D
100
AcDbEntity
  8
寸法
 48
50.0
100
AcDbLeader
  3
INABA_S40G
 71
     0
 73
     0
 75
     1
 40
120.0
 41
185.591883092037
 76
     3
 10
8680.423287550119
 20
6725.912101194047
 30
0.0
 10
8603.09779576958
 20
6533.118695381616
 30
0.0
 10
8503.09779576958
 20
6533.118695381616
 30
0.0
340
1FEC2
210
0.0
220
0.0
230
-1.0
213
-42.79594154601909
223
-42.66026254335156
233
0.0
1001
ACAD
1000
DSTYLE
1002
{
1070
   174
1070
     0
1070
   272
1070
     1
1070
   279
1070
     1
1070
   288
1070
     0
1070
   341
1005
0
1002
}
  0
MTEXT
  5
1FEC2
102
{ACAD_REACTORS
330
1FEC1
102
}
330
747D
100
AcDbEntity
  8
部品1
 62
     7
 48
50.0
100
AcDbMText
 10
8505.893737315599
 20
6595.778957924967
 30
0.0
 40
120.0
 41
0.0
 71
     6
 72
     1
  1
\A1;C.B
  7
STYLE1
 73
     1
 44
1.0
1001
ACAD
1000
MTEXTBEGIN
1070
    73
1070
     1
1070
    44
1040
1.0
1070
    74
1070
     0
1000
MTEXTEND
  0
LINE
  5
2076F
330
747D
100
AcDbEntity
  8
部品1
 48
50.0
100
AcDbLine
 10
7382.213011273896
 20
6887.919036112869
 30
0.0
 11
7182.213011273896
 21
6887.919036112869
 31
0.0
  0
LINE
  5
20770
330
747D
100
AcDbEntity
  8
部品1
 48
50.0
100
AcDbLine
 10
8836.213011273896
 20
6887.919036112869
 30
0.0
 11
8636.213011273897
 21
6887.919036112869
 31
0.0
  0
LINE
  5
20771
330
747D
100
AcDbEntity
  8
部品1
 48
50.0
100
AcDbLine
 10
7382.213011273896
 20
6687.919036112868
 30
0.0
 11
7182.213011273896
 21
6687.919036112868
 31
0.0
  0
LINE
  5
20772
330
747D
100
AcDbEntity
  8
部品1
 48
50.0
100
AcDbLine
 10
8836.213011273896
 20
6687.919036112866
 30
0.0
 11
8636.213011273897
 21
6687.919036112866
 31
0.0
  0
LINE
  5
20D41
330
747D
100
AcDbEntity
  8
部品1
 48
50.0
100
AcDbLine
 10
8109.213011273896
 20
6687.919036112868
 30
0.0
 11
7909.213011273895
 21
6687.919036112868
 31
0.0
  0
LINE
  5
20D42
330
747D
100
AcDbEntity
  8
部品1
 48
50.0
100
AcDbLine
 10
8109.213011273896
 20
6887.919036112869
 30
0.0
 11
7909.213011273895
 21
6887.919036112869
 31
0.0
  0
LINE
  5
20D43
330
747D
100
AcDbEntity
  8
センター
 48
2.0
100
AcDbLine
 10
8009.213011273896
 20
6837.919036112869
 30
0.0
 11
8009.213011273896
 21
6737.919036112869
 31
0.0
  0
LINE
  5
20D44
330
747D
100
AcDbEntity
  8
部品1
 48
50.0
100
AcDbLine
 10
8109.213011273896
 20
6687.919036112868
 30
0.0
 11
8109.213011273896
 21
6887.919036112871
 31
0.0
  0
LINE
  5
20D45
330
747D
100
AcDbEntity
  8
部品1
 48
50.0
100
AcDbLine
 10
7909.213011273895
 20
6687.919036112868
 30
0.0
 11
7909.213011273898
 21
6887.919036112869
 31
0.0
  0
LINE
  5
20D46
330
747D
100
AcDbEntity
  8
センター
 48
2.0
100
AcDbLine
 10
7959.213011273895
 20
6787.919036112869
 30
0.0
 11
8059.213011273895
 21
6787.919036112869
 31
0.0
  0
DIMENSION
  5
20D50
330
747D
100
AcDbEntity
  8
寸法
 48
50.0
100
AcDbDimension
  2
*D22
 10
8009.213011273898
 20
8049.82880176119
 30
0.0
 11
7645.713011273897
 21
8149.840612784812
 31
0.0
 70
    32
 71
     5
 42
727.0
  3
INABA_S40G
100
AcDbAlignedDimension
 13
7282.213011273897
 23
6887.919036112869
 33
0.0
 14
8009.213011273898
 24
6887.919036112869
 34
0.0
100
AcDbRotatedDimension
1001
ACAD
1000
DSTYLE
1002
{
1070
   174
1070
     0
1070
   272
1070
     1
1070
   279
1070
     1
1070
   288
1070
     0
1070
   341
1005
0
1002
}
  0
LINE
  5
20E19
330
747D
100
AcDbEntity
  8
センター
 48
2.0
100
AcDbLine
 10
7959.213011273902
 20
6037.919036112862
 30
0.0
 11
8059.213011273902
 21
6037.919036112862
 31
0.0
  0
LINE
  5
20E1A
330
747D
100
AcDbEntity
  8
部品1
 48
50.0
100
AcDbLine
 10
7909.213011273902
 20
5937.919036112861
 30
0.0
 11
7909.213011273904
 21
6137.919036112862
 31
0.0
  0
LINE
  5
20E1B
330
747D
100
AcDbEntity
  8
部品1
 48
50.0
100
AcDbLine
 10
8109.213011273901
 20
5937.919036112861
 30
0.0
 11
8109.213011273903
 21
6137.919036112863
 31
0.0
  0
LINE
  5
20E1C
330
747D
100
AcDbEntity
  8
センター
 48
2.0
100
AcDbLine
 10
8009.213011273903
 20
6087.919036112862
 30
0.0
 11
8009.213011273903
 21
5987.919036112862
 31
0.0
  0
LINE
  5
20E1D
330
747D
100
AcDbEntity
  8
部品1
 48
50.0
100
AcDbLine
 10
8109.213011273903
 20
6137.919036112862
 30
0.0
 11
7909.213011273902
 21
6137.919036112862
 31
0.0
  0
LINE
  5
20E1E
330
747D
100
AcDbEntity
  8
部品1
 48
50.0
100
AcDbLine
 10
8109.213011273903
 20
5937.919036112861
 30
0.0
 11
7909.213011273902
 21
5937.919036112861
 31
0.0
  0
LINE
  5
20E1F
330
747D
100
AcDbEntity
  8
部品1
 48
50.0
100
AcDbLine
 10
8836.213011273903
 20
5937.919036112859
 30
0.0
 11
8636.213011273904
 21
5937.919036112859
 31
0.0
  0
LINE
  5
20E20
330
747D
100
AcDbEntity
  8
部品1
 48
50.0
100
AcDbLine
 10
7382.213011273903
 20
5937.919036112861
 30
0.0
 11
7182.213011273903
 21
5937.919036112861
 31
0.0
  0
LINE
  5
20E21
330
747D
100
AcDbEntity
  8
部品1
 48
50.0
100
AcDbLine
 10
8836.213011273903
 20
6137.919036112862
 30
0.0
 11
8636.213011273904
 21
6137.919036112862
 31
0.0
  0
LINE
  5
20E22
330
747D
100
AcDbEntity
  8
部品1
 48
50.0
100
AcDbLine
 10
7382.213011273903
 20
6137.919036112862
 30
0.0
 11
7182.213011273903
 21
6137.919036112862
 31
0.0
  0
LINE
  5
20E23
330
747D
100
AcDbEntity
  8
センター
 48
2.0
100
AcDbLine
 10
7282.213011273903
 20
6087.919036112862
 30
0.0
 11
7282.213011273903
 21
5987.919036112862
 31
0.0
  0
LINE
  5
20E24
330
747D
100
AcDbEntity
  8
部品1
 48
50.0
100
AcDbLine
 10
7382.213011273901
 20
5937.919036112861
 30
0.0
 11
7382.213011273903
 21
6137.919036112863
 31
0.0
  0
LINE
  5
20E25
330
747D
100
AcDbEntity
  8
部品1
 48
50.0
100
AcDbLine
 10
7182.213011273903
 20
5937.919036112861
 30
0.0
 11
7182.213011273905
 21
6137.919036112862
 31
0.0
  0
LINE
  5
20E26
330
747D
100
AcDbEntity
  8
センター
 48
2.0
100
AcDbLine
 10
7232.213011273903
 20
6037.919036112862
 30
0.0
 11
7332.213011273903
 21
6037.919036112862
 31
0.0
  0
LINE
  5
20E27
330
747D
100
AcDbEntity
  8
センター
 48
2.0
100
AcDbLine
 10
8686.213011273904
 20
6037.919036112861
 30
0.0
 11
8786.213011273904
 21
6037.919036112861
 31
0.0
  0
LINE
  5
20E28
330
747D
100
AcDbEntity
  8
部品1
 48
50.0
100
AcDbLine
 10
8636.213011273904
 20
5937.919036112859
 30
0.0
 11
8636.213011273907
 21
6137.919036112862
 31
0.0
  0
LINE
  5
20E29
330
747D
100
AcDbEntity
  8
部品1
 48
50.0
100
AcDbLine
 10
8836.213011273903
 20
5937.919036112859
 30
0.0
 11
8836.213011273903
 21
6137.919036112862
 31
0.0
  0
LINE
  5
20E2A
330
747D
100
AcDbEntity
  8
センター
 48
2.0
100
AcDbLine
 10
8736.213011273903
 20
6087.919036112861
 30
0.0
 11
8736.213011273903
 21
5987.919036112861
 31
0.0
  0
DIMENSION
  5
20E34
330
747D
100
AcDbEntity
  8
寸法
 48
50.0
100
AcDbDimension
  2
*D23
 10
8930.587028824602
 20
6787.919036112869
 30
0.0
 11
8937.057571339549
 21
6434.500182931493
 31
0.0
 70
   160
 71
     5
 42
750.0000000000072
  3
INABA_S40G
100
AcDbAlignedDimension
 13
8786.213011273904
 23
6037.919036112861
 33
0.0
 14
8785.213011273892
 24
6787.919036112869
 34
0.0
 50
90.0
100
AcDbRotatedDimension
1001
ACAD
1000
DSTYLE
1002
{
1070
   174
1070
     0
1070
   272
1070
     1
1070
   279
1070
     1
1070
   288
1070
     0
1070
   341
1005
0
1002
}
  0
DIMENSION
  5
20E9C
330
747D
100
AcDbEntity
  8
寸法
 48
50.0
100
AcDbDimension
  2
*D24
 10
9419.213011273894
 20
7014.830506791849
 30
0.0
 11
9085.165767179407
 21
7014.830506791849
 31
0.0
 70
   160
 71
     5
 42
109.9999999999982
  3
INABA_S40G
100
AcDbAlignedDimension
 13
9309.213011273895
 23
7292.919036112859
 33
0.0
 14
9419.213011273894
 24
7292.919036112862
 34
0.0
100
AcDbRotatedDimension
1001
ACAD
1000
DSTYLE
1002
{
1070
   174
1070
     0
1070
   272
1070
     1
1070
   279
1070
     1
1070
   288
1070
     0
1070
   341
1005
0
1002
}
  0
DIMENSION
  5
20ED3
330
747D
100
AcDbEntity
  8
寸法
 48
50.0
100
AcDbDimension
  2
*D25
 10
9539.213011273897
 20
7014.830506791849
 30
0.0
 11
9775.260255368385
 21
7014.830506791849
 31
0.0
 70
   160
 71
     5
 42
120.0000000000018
  3
INABA_S40G
100
AcDbAlignedDimension
 13
9419.213011273894
 23
7292.919036112862
 33
0.0
 14
9539.213011273897
 24
7228.874771452357
 34
0.0
100
AcDbRotatedDimension
1001
ACAD
1000
DSTYLE
1002
{
1070
   174
1070
     0
1070
   272
1070
     1
1070
   279
1070
     0
1070
   288
1070
     0
1070
   341
1005
0
1002
}
  0
LINE
  5
20F02
330
747D
100
AcDbEntity
  8
細線
 48
50.0
100
AcDbLine
 10
7909.213011273902
 20
7519.646443697578
 30
0.0
 11
7912.485603689184
 21
7522.919036112859
 31
0.0
  0
LINE
  5
20F03
330
747D
100
AcDbEntity
  8
細線
 48
50.0
100
AcDbLine
 10
7909.213011273902
 20
7474.745163092231
 30
0.0
 11
7957.38688429453
 21
7522.919036112859
 31
0.0
  0
LINE
  5
20F04
330
747D
100
AcDbEntity
  8
細線
 48
50.0
100
AcDbLine
 10
7909.213011273902
 20
7429.843882486887
 30
0.0
 11
8002.288164899878
 21
7522.91903611286
 31
0.0
  0
LINE
  5
20F05
330
747D
100
AcDbEntity
  8
細線
 48
50.0
100
AcDbLine
 10
7927.189445505222
 20
7402.919036112861
 30
0.0
 11
8047.189445505223
 21
7522.91903611286
 31
0.0
  0
LINE
  5
20F06
330
747D
100
AcDbEntity
  8
細線
 48
50.0
100
AcDbLine
 10
7972.090726110569
 20
7402.919036112861
 30
0.0
 11
8092.090726110567
 21
7522.91903611286
 31
0.0
  0
LINE
  5
20F07
330
747D
100
AcDbEntity
  8
細線
 48
50.0
100
AcDbLine
 10
8016.992006715915
 20
7402.91903611286
 30
0.0
 11
8109.213011273904
 21
7495.140040670849
 31
0.0
  0
LINE
  5
20F08
330
747D
100
AcDbEntity
  8
細線
 48
50.0
100
AcDbLine
 10
8061.893287321261
 20
7402.91903611286
 30
0.0
 11
8109.213011273903
 21
7450.238760065504
 31
0.0
  0
LINE
  5
20F09
330
747D
100
AcDbEntity
  8
細線
 48
50.0
100
AcDbLine
 10
8106.794567926604
 20
7402.91903611286
 30
0.0
 11
8109.213011273901
 21
7405.337479460157
 31
0.0
  0
LINE
  5
20F32
330
747D
100
AcDbEntity
  8
細線
 48
50.0
100
AcDbLine
 10
6479.213011273897
 20
6487.50930614254
 30
0.0
 11
6504.622741244219
 21
6512.919036112862
 31
0.0
  0
LINE
  5
20F33
330
747D
100
AcDbEntity
  8
細線
 48
50.0
100
AcDbLine
 10
6479.213011273897
 20
6442.608025537196
 30
0.0
 11
6549.524021849562
 21
6512.919036112861
 31
0.0
  0
LINE
  5
20F34
330
747D
100
AcDbEntity
  8
細線
 48
50.0
100
AcDbLine
 10
6479.213011273897
 20
6397.706744931849
 30
0.0
 11
6594.425302454908
 21
6512.919036112861
 31
0.0
  0
LINE
  5
20F35
330
747D
100
AcDbEntity
  8
細線
 48
50.0
100
AcDbLine
 10
6479.213011273897
 20
6352.805464326503
 30
0.0
 11
6599.213011273896
 21
6472.805464326502
 31
0.0
  0
LINE
  5
20F36
330
747D
100
AcDbEntity
  8
細線
 48
50.0
100
AcDbLine
 10
6484.227863665598
 20
6312.919036112858
 30
0.0
 11
6599.213011273896
 21
6427.904183721158
 31
0.0
  0
LINE
  5
20F37
330
747D
100
AcDbEntity
  8
細線
 48
50.0
100
AcDbLine
 10
6529.129144270945
 20
6312.919036112861
 30
0.0
 11
6599.213011273898
 21
6383.002903115812
 31
0.0
  0
LINE
  5
20F38
330
747D
100
AcDbEntity
  8
細線
 48
50.0
100
AcDbLine
 10
6574.030424876294
 20
6312.919036112861
 30
0.0
 11
6599.213011273896
 21
6338.101622510471
 31
0.0
  0
LINE
  5
20F39
330
747D
100
AcDbEntity
  8
細線
 48
50.0
100
AcDbLine
 10
7909.213011273919
 20
5467.311867353257
 30
0.0
 11
7914.820180033531
 21
5472.919036112868
 31
0.0
  0
LINE
  5
20F3A
330
747D
100
AcDbEntity
  8
細線
 48
50.0
100
AcDbLine
 10
7909.213011273919
 20
5422.410586747912
 30
0.0
 11
7959.721460638878
 21
5472.919036112866
 31
0.0
  0
LINE
  5
20F3B
330
747D
100
AcDbEntity
  8
細線
 48
50.0
100
AcDbLine
 10
7909.213011273919
 20
5377.509306142565
 30
0.0
 11
8004.622741244222
 21
5472.919036112869
 31
0.0
  0
LINE
  5
20F3C
330
747D
100
AcDbEntity
  8
細線
 48
50.0
100
AcDbLine
 10
7909.213011273919
 20
5332.608025537219
 30
0.0
 11
8049.524021849569
 21
5472.919036112869
 31
0.0
  0
LINE
  5
20F3D
330
747D
100
AcDbEntity
  8
細線
 48
50.0
100
AcDbLine
 10
7924.42530245491
 20
5302.919036112862
 30
0.0
 11
8094.425302454917
 21
5472.91903611287
 31
0.0
  0
LINE
  5
20F3E
330
747D
100
AcDbEntity
  8
細線
 48
50.0
100
AcDbLine
 10
7969.326583060255
 20
5302.919036112864
 30
0.0
 11
8109.213011273919
 21
5442.805464326527
 31
0.0
  0
LINE
  5
20F3F
330
747D
100
AcDbEntity
  8
細線
 48
50.0
100
AcDbLine
 10
8014.227863665603
 20
5302.919036112865
 30
0.0
 11
8109.213011273919
 21
5397.904183721181
 31
0.0
  0
LINE
  5
20F40
330
747D
100
AcDbEntity
  8
細線
 48
50.0
100
AcDbLine
 10
8059.129144270951
 20
5302.919036112868
 30
0.0
 11
8109.213011273919
 21
5353.002903115836
 31
0.0
  0
LINE
  5
20F41
330
747D
100
AcDbEntity
  8
細線
 48
50.0
100
AcDbLine
 10
8104.030424876295
 20
5302.919036112867
 30
0.0
 11
8109.213011273919
 21
5308.10162251049
 31
0.0
  0
LINE
  5
20F42
330
747D
100
AcDbEntity
  8
細線
 48
50.0
100
AcDbLine
 10
9419.213011273896
 20
6467.509306142538
 30
0.0
 11
9464.622741244214
 21
6512.919036112861
 31
0.0
  0
LINE
  5
20F43
330
747D
100
AcDbEntity
  8
細線
 48
50.0
100
AcDbLine
 10
9419.213011273896
 20
6422.608025537195
 30
0.0
 11
9509.524021849561
 21
6512.919036112859
 31
0.0
  0
LINE
  5
20F44
330
747D
100
AcDbEntity
  8
細線
 48
50.0
100
AcDbLine
 10
9419.213011273894
 20
6377.706744931849
 30
0.0
 11
9539.213011273899
 21
6497.706744931853
 31
0.0
  0
LINE
  5
20F45
330
747D
100
AcDbEntity
  8
細線
 48
50.0
100
AcDbLine
 10
9419.213011273894
 20
6332.805464326501
 30
0.0
 11
9539.213011273899
 21
6452.805464326506
 31
0.0
  0
LINE
  5
20F46
330
747D
100
AcDbEntity
  8
細線
 48
50.0
100
AcDbLine
 10
9444.227863665593
 20
6312.919036112857
 30
0.0
 11
9539.213011273899
 21
6407.904183721161
 31
0.0
  0
LINE
  5
20F47
330
747D
100
AcDbEntity
  8
細線
 48
50.0
100
AcDbLine
 10
9489.12914427094
 20
6312.919036112859
 30
0.0
 11
9539.213011273899
 21
6363.002903115816
 31
0.0
  0
LINE
  5
20F48
330
747D
100
AcDbEntity
  8
細線
 48
50.0
100
AcDbLine
 10
9534.03042487629
 20
6312.919036112859
 30
0.0
 11
9539.213011273899
 21
6318.101622510468
 31
0.0
  0
LINE
  5
210CE
330
747D
100
AcDbEntity
  8
細線
100
AcDbLine
 10
10519.2318551743
 20
1650.007050815838
 30
0.0
 11
10275.94018807832
 21
1893.298717911817
 31
0.0
  0
LINE
  5
210CF
330
747D
100
AcDbEntity
  8
細線
100
AcDbLine
 10
10455.59224486751
 20
1650.007050815838
 30
0.0
 11
10275.94018807832
 21
1829.659107605028
 31
0.0
  0
LINE
  5
210D0
330
747D
100
AcDbEntity
  8
部品1
100
AcDbLine
 10
10275.94018807832
 20
1950.007050815838
 30
0.0
 11
10875.94018807832
 21
1950.007050815838
 31
0.0
  0
LINE
  5
210D1
330
747D
100
AcDbEntity
  8
細線
100
AcDbLine
 10
10267.23568120248
 20
1535.38340624915
 30
0.0
 11
10381.85932576917
 21
1650.007050815837
 31
0.0
  0
LWPOLYLINE
  5
210D2
330
747D
100
AcDbEntity
  8
部品1
 48
50.0
100
AcDbPolyline
 90
        2
 70
     0
 43
15.0
 10
9795.176110452835
 20
1650.007050815838
 10
11296.54148936737
 20
1650.007050815838
  0
LINE
  5
210D3
330
747D
100
AcDbEntity
  8
部品1
100
AcDbLine
 10
10125.94018807832
 20
1535.38340624915
 30
0.0
 11
11025.94018807832
 21
1535.383406249153
 31
0.0
  0
LINE
  5
210D4
330
747D
100
AcDbEntity
  8
部品1
100
AcDbLine
 10
10125.94018807832
 20
1375.383406249147
 30
0.0
 11
11025.94018807832
 21
1375.383406249151
 31
0.0
  0
LINE
  5
210D5
330
747D
100
AcDbEntity
  8
部品1
100
AcDbLine
 10
4719.976419799426
 20
342.1520761822066
 30
0.0
 11
11616.45111589746
 21
342.1520761822066
 31
0.0
  0
LINE
  5
210D6
330
747D
100
AcDbEntity
  8
部品1
100
AcDbLine
 10
11616.45111589746
 20
3301.221575536894
 30
0.0
 11
4719.976419799426
 21
3301.221575536894
 31
0.0
  0
LINE
  5
210D7
330
747D
100
AcDbEntity
  8
部品1
100
AcDbLine
 10
11616.45111589746
 20
3601.221575536896
 30
0.0
 11
4719.976419799426
 21
3601.221575536894
 31
0.0
  0
LEADER
  5
210D8
330
747D
100
AcDbEntity
  8
寸法
 48
50.0
100
AcDbLeader
  3
INABA_S40G
 73
     0
 75
     1
 40
141.4772727272727
 41
760.7954545454546
 76
     3
 10
8201.497190495263
 20
1886.901642513687
 30
0.0
 10
7986.74240463108
 20
2942.375495459287
 30
0.0
 10
7886.74240463108
 20
2942.375495459287
 30
0.0
340
210D9
1001
ACAD
1000
DSTYLE
1002
{
1070
   174
1070
     0
1070
   272
1070
     1
1070
   279
1070
     1
1070
   288
1070
     0
1070
   341
1005
0
1002
}
  0
MTEXT
  5
210D9
102
{ACAD_REACTORS
330
210D8
102
}
330
747D
100
AcDbEntity
  8
寸法
 62
     7
 48
50.0
100
AcDbMText
 10
7846.742404631081
 20
3053.114131822923
 30
0.0
 40
100.0
 41
1.0
 71
     6
 72
     1
  1
\A1;φ70スリーブ
  7
STYLE2
 73
     1
 44
1.0
1001
ACAD
1000
MTEXTBEGIN
1070
    73
1070
     1
1070
    44
1040
1.0
1070
    74
1070
     0
1000
MTEXTEND
  0
LINE
  5
210DA
330
747D
100
AcDbEntity
  8
部品1
100
AcDbLine
 10
4719.976419799432
 20
3601.221575536894
 30
0.0
 11
4719.976419799432
 21
342.1520761822066
 31
0.0
  0
DIMENSION
  5
210DB
330
747D
100
AcDbEntity
  8
寸法
 48
50.0
100
AcDbDimension
  2
*D28
 10
5838.77711135121
 20
2350.007050815839
 30
0.0
 11
5972.810024282706
 21
2474.591810711315
 31
0.0
 70
   160
  1
120\P170
 71
     5
 42
239.9999999999973
  3
INABA_S40G
100
AcDbAlignedDimension
 13
6078.777111351207
 23
1950.007050815838
 33
0.0
 14
5838.77711135121
 24
1950.007050815838
 34
0.0
100
AcDbRotatedDimension
1001
ACAD
1000
DSTYLE
1002
{
1070
   174
1070
     0
1070
   272
1070
     1
1070
   279
1070
     1
1070
   288
1070
     0
1070
   341
1005
0
1002
}
  0
LEADER
  5
210DC
330
747D
100
AcDbEntity
  8
寸法
 48
50.0
100
AcDbLeader
  3
INABA_S40G
 73
     0
 74
     0
 75
     1
 40
127.8409090909091
 41
1133.522727272727
 76
     3
 10
8290.576252822701
 20
2286.411161371189
 30
0.0
 10
8390.415740783755
 20
2721.70581262946
 30
0.0
 10
8490.415740783754
 20
2721.70581262946
 30
0.0
340
210DD
1001
ACAD
1000
DSTYLE
1002
{
1070
   174
1070
     0
1070
   272
1070
     1
1070
   279
1070
     1
1070
   288
1070
     0
1070
   341
1005
0
1002
}
  0
MTEXT
  5
210DD
102
{ACAD_REACTORS
330
210DC
102
}
330
747D
100
AcDbEntity
  8
部品1
 62
     7
 48
50.0
100
AcDbMText
 10
8530.415740783753
 20
2825.626267174914
 30
0.0
 40
100.0
 41
1.0
 71
     4
 72
     1
  1
\A1;ワッシャー(市販品)
  7
STYLE2
 73
     1
 44
1.0
1001
ACAD
1000
MTEXTBEGIN
1070
    73
1070
     1
1070
    44
1040
1.0
1070
    74
1070
     0
1000
MTEXTEND
  0
LEADER
  5
210DE
330
747D
100
AcDbEntity
  8
寸法
 48
50.0
100
AcDbLeader
  3
INABA_S40G
 73
     0
 74
     0
 75
     1
 40
127.8409090909091
 41
850.0
 76
     3
 10
8260.576252822705
 20
2448.601152202269
 30
0.0
 10
8351.018716714399
 20
2952.917166085445
 30
0.0
 10
8451.018716714399
 20
2952.917166085445
 30
0.0
340
210DF
1001
ACAD
1000
DSTYLE
1002
{
1070
   174
1070
     0
1070
   272
1070
     1
1070
   279
1070
     1
1070
   288
1070
     0
1070
   341
1005
0
1002
}
  0
MTEXT
  5
210DF
102
{ACAD_REACTORS
330
210DE
102
}
330
747D
100
AcDbEntity
  8
部品1
 62
     7
 48
50.0
100
AcDbMText
 10
8491.0187167144
 20
3056.837620630899
 30
0.0
 40
100.0
 41
1.0
 71
     4
 72
     1
  1
\A1;ナット(市販品)
  7
STYLE2
 73
     1
 44
1.0
1001
ACAD
1000
MTEXTBEGIN
1070
    73
1070
     1
1070
    44
1040
1.0
1070
    74
1070
     0
1000
MTEXTEND
  0
MTEXT
  5
210E0
102
{ACAD_REACTORS
330
210E1
102
}
330
747D
100
AcDbEntity
  8
寸法
 62
     7
 48
50.0
100
AcDbMText
 10
7880.046162391529
 20
2602.258791938528
 30
0.0
 40
100.0
 41
1.0
 71
     6
 72
     1
  1
アンカープレート {\fArial|b0|i0|c0|p32;U}
  7
STYLE2
 73
     1
 44
1.0
1001
ACAD
1000
MTEXTBEGIN
1070
    73
1070
     1
1070
    44
1040
1.0
1070
    74
1070
     0
1000
MTEXTEND
  0
LEADER
  5
210E1
330
747D
100
AcDbEntity
  8
寸法
 48
50.0
100
AcDbLeader
  3
INABA_S40G
 73
     0
 75
     1
 40
132.9545454545455
 41
1129.404378023068
 76
     3
 10
8128.076252822701
 20
2036.95705081584
 30
0.0
 10
8020.04616239153
 20
2495.781519211254
 30
0.0
 10
7920.04616239153
 20
2495.781519211254
 30
0.0
340
210E0
1001
ACAD
1000
DSTYLE
1002
{
1070
   174
1070
     0
1070
   272
1070
     1
1070
   279
1070
     1
1070
   288
1070
     0
1070
   341
1005
0
1002
}
  0
TEXT
  5
210E2
330
747D
100
AcDbEntity
  8
部品1
 48
50.0
100
AcDbText
 10
5321.102234060012
 20
1664.055791169907
 30
0.0
 40
100.0
  1
▽G.L
  7
STYLE2
100
AcDbText
  0
LWPOLYLINE
  5
210E3
330
747D
100
AcDbEntity
  8
部品1
 48
50.0
100
AcDbPolyline
 90
        2
 70
     0
 43
10.0
 10
5321.102234060013
 20
1650.00705081584
 10
5838.77711135121
 20
1650.00705081584
  0
DIMENSION
  5
210E4
330
747D
100
AcDbEntity
  8
寸法
 48
50.0
100
AcDbDimension
  2
*D29
 10
5500.751719185635
 20
970.0070508158377
 30
0.0
 11
5500.751719185635
 21
1120.007050815837
 31
0.0
 70
   160
  1
150
 71
     5
 42
299.9999999999996
  3
INABA_S40G
100
AcDbAlignedDimension
 13
5678.77711135121
 23
1270.007050815837
 33
0.0
 14
5578.777111351214
 24
970.0070508158377
 34
0.0
 50
90.0
100
AcDbRotatedDimension
1001
ACAD
1000
DSTYLE
1002
{
1070
   174
1070
     0
1070
   272
1070
     1
1070
   279
1070
     1
1070
   288
1070
     0
1070
   341
1005
0
1002
}
  0
DIMENSION
  5
210E5
330
747D
100
AcDbEntity
  8
寸法
 48
50.0
100
AcDbDimension
  2
*D30
 10
5078.132173315146
 20
970.0070508158379
 30
0.0
 11
5078.132173315146
 21
1460.007050815838
 31
0.0
 70
   160
  1
540
 71
     5
 42
980.0000000000007
  3
INABA_S40G
100
AcDbAlignedDimension
 13
5838.77711135121
 23
1950.007050815838
 33
0.0
 14
5578.777111351214
 24
970.0070508158377
 34
0.0
 50
90.0
100
AcDbRotatedDimension
1001
ACAD
1000
DSTYLE
1002
{
1070
   174
1070
     0
1070
   272
1070
     1
1070
   279
1070
     1
1070
   288
1070
     0
1070
   341
1005
0
1002
}
  0
MTEXT
  5
210E6
102
{ACAD_REACTORS
330
210E7
102
}
330
747D
100
AcDbEntity
  8
寸法
 62
     7
 48
50.0
100
AcDbMText
 10
5754.859111432928
 20
2215.652325818393
 30
0.0
 40
100.0
 41
1.0
 71
     6
 72
     1
  1
\A1;金コテ押エ
  7
STYLE2
 73
     1
 44
1.0
1001
ACAD
1000
MTEXTBEGIN
1070
    73
1070
     1
1070
    44
1040
1.0
1070
    74
1070
     0
1000
MTEXTEND
  0
LEADER
  5
210E7
330
747D
100
AcDbEntity
  8
寸法
 48
50.0
100
AcDbLeader
  3
INABA_S40G
 71
     0
 40
130.1136363636363
 41
651.1363636363636
 76
     2
 10
5938.77711135121
 20
1950.007050815838
 30
0.0
 10
5779.859111432926
 20
2125.595507636572
 30
0.0
1001
ACAD
1000
DSTYLE
1002
{
1070
   174
1070
     0
1070
   272
1070
     1
1070
   279
1070
     1
1070
   288
1070
     0
1070
   341
1005
0
1002
}
  0
LEADER
  5
210E8
330
747D
100
AcDbEntity
  8
寸法
 48
50.0
100
AcDbLeader
  3
INABA_S40G
 71
     0
 40
100.0
 41
540.3409090909091
 76
     2
 10
5968.777111351212
 20
1647.666069187241
 30
0.0
 10
5740.049315690336
 20
1370.828158511236
 30
0.0
213
-12.16522788236671
223
-5.804645826423211
233
0.0
1001
ACAD
1000
DSTYLE
1002
{
1070
   174
1070
     0
1070
   272
1070
     1
1070
   279
1070
     1
1070
   288
1070
     0
1070
   341
1005
0
1002
}
  0
MTEXT
  5
210E9
102
{ACAD_REACTORS
330
210E8
102
}
330
747D
100
AcDbEntity
  8
寸法
 62
     7
 48
50.0
100
AcDbMText
 10
5727.214543572703
 20
1451.632804337658
 30
0.0
 40
100.0
 41
1.0
 71
     6
 72
     1
  1
\A1;D10@300
  7
STYLE2
 73
     1
 44
1.0
1001
ACAD
1000
MTEXTBEGIN
1070
    73
1070
     1
1070
    44
1040
1.0
1070
    74
1070
     0
1000
MTEXTEND
  0
MTEXT
  5
210EA
102
{ACAD_REACTORS
330
210EB
102
}
330
747D
100
AcDbEntity
  8
寸法
 62
     7
 48
50.0
100
AcDbMText
 10
5500.261738054009
 20
640.208493118489
 30
0.0
 40
100.0
 41
1.0
 71
     6
 72
     1
  1
D13
  7
STYLE2
 73
     1
 44
1.0
1001
ACAD
1000
MTEXTBEGIN
1070
    73
1070
     1
1070
    44
1040
1.0
1070
    74
1070
     0
1000
MTEXTEND
  0
LEADER
  5
210EB
330
747D
100
AcDbEntity
  8
寸法
 48
50.0
100
AcDbLeader
  3
INABA_S40G
 71
     0
 40
100.0
 41
222.7272727272727
 76
     2
 10
5958.77711135121
 20
1120.007050815837
 30
0.0
 10
5525.261738054009
 20
565.208493118489
 30
0.0
1001
ACAD
1000
DSTYLE
1002
{
1070
   174
1070
     0
1070
   272
1070
     1
1070
   279
1070
     1
1070
   288
1070
     0
1070
   341
1005
0
1002
}
  0
LEADER
  5
210EC
330
747D
100
AcDbEntity
  8
寸法
 48
50.0
100
AcDbLeader
  3
INABA_S40G
 71
     0
 40
100.0
 41
225.0
 76
     2
 10
5798.655801791388
 20
1120.007050815837
 30
0.0
 10
5490.108328607217
 20
790.6036837927931
 30
0.0
1001
ACAD
1000
DSTYLE
1002
{
1070
   174
1070
     0
1070
   272
1070
     1
1070
   279
1070
     1
1070
   288
1070
     0
1070
   341
1005
0
1002
}
  0
MTEXT
  5
210ED
102
{ACAD_REACTORS
330
210EC
102
}
330
747D
100
AcDbEntity
  8
寸法
 62
     7
 48
50.0
100
AcDbMText
 10
5465.108328607217
 20
865.6036837927931
 30
0.0
 40
100.0
 41
1.0
 71
     6
 72
     1
  1
D10
  7
STYLE2
 73
     1
 44
1.0
1001
ACAD
1000
MTEXTBEGIN
1070
    73
1070
     1
1070
    44
1040
1.0
1070
    74
1070
     0
1000
MTEXTEND
  0
LINE
  5
210EE
330
747D
100
AcDbEntity
  8
部品1
 48
50.0
100
AcDbLine
 10
6078.777111351212
 20
1950.007050815838
 30
0.0
 11
6078.777111351212
 21
1270.007050815837
 31
0.0
  0
LINE
  5
210EF
330
747D
100
AcDbEntity
  8
細線
 48
50.0
100
AcDbLine
 10
5838.77711135121
 20
1328.565483018551
 30
0.0
 11
5968.777111351216
 21
1458.565483018552
 31
0.0
  0
LINE
  5
210F0
330
747D
100
AcDbEntity
  8
細線
 48
50.0
100
AcDbLine
 10
5838.77711135121
 20
1395.91740392657
 30
0.0
 11
5968.777111351212
 21
1525.91740392657
 31
0.0
  0
LINE
  5
210F1
330
747D
100
AcDbEntity
  8
細線
 48
50.0
100
AcDbLine
 10
5838.77711135121
 20
1362.24144347256
 30
0.0
 11
5968.777111351216
 21
1492.241443472564
 31
0.0
  0
LINE
  5
210F2
330
747D
100
AcDbEntity
  8
部品1
 48
50.0
100
AcDbLine
 10
5838.77711135121
 20
1270.007050815837
 30
0.0
 11
5838.77711135121
 21
1950.007050815838
 31
0.0
  0
LINE
  5
210F3
330
747D
100
AcDbEntity
  8
部品1
 48
50.0
100
AcDbLine
 10
5968.777111351216
 20
1120.007050815837
 30
0.0
 11
5968.777111351203
 21
1775.325087558644
 31
0.0
  0
LINE
  5
210F4
330
747D
100
AcDbEntity
  8
部品1
 48
50.0
100
AcDbLine
 10
5988.777111351217
 20
1120.007050815837
 30
0.0
 11
5988.77711135121
 21
1775.325087558644
 31
0.0
  0
LINE
  5
210F5
330
747D
100
AcDbEntity
  8
部品1
 48
50.0
100
AcDbLine
 10
6078.777111351212
 20
1270.007050815837
 30
0.0
 11
6238.777111351209
 21
1270.007050815837
 31
0.0
  0
LINE
  5
210F6
330
747D
100
AcDbEntity
  8
細線
 48
50.0
100
AcDbLine
 10
6125.358085958641
 20
1110.007050815837
 30
0.0
 11
6238.777111351209
 21
1223.426076208411
 31
0.0
  0
LINE
  5
210F7
330
747D
100
AcDbEntity
  8
細線
 48
50.0
100
AcDbLine
 10
6159.034046412646
 20
1110.007050815837
 30
0.0
 11
6238.777111351209
 21
1189.750115754402
 31
0.0
  0
LINE
  5
210F8
330
747D
100
AcDbEntity
  8
細線
 48
50.0
100
AcDbLine
 10
6091.682125504618
 20
1110.007050815837
 30
0.0
 11
6238.777111351209
 21
1257.10203666242
 31
0.0
  0
LEADER
  5
210F9
330
747D
100
AcDbEntity
  8
寸法
 48
50.0
100
AcDbLeader
  3
INABA_S40G
 71
     0
 74
     0
 40
100.0
 41
225.0
 76
     2
 10
6118.655801791389
 20
1120.007050815837
 30
0.0
 10
6342.936686109566
 20
1000.760714637122
 30
0.0
1001
ACAD
1000
DSTYLE
1002
{
1070
   174
1070
     0
1070
   272
1070
     1
1070
   279
1070
     1
1070
   288
1070
     0
1070
   341
1005
0
1002
}
  0
DIMENSION
  5
210FA
330
747D
100
AcDbEntity
  8
寸法
 48
50.0
100
AcDbDimension
  2
*D31
 10
6238.777111351209
 20
511.0549443599047
 30
0.0
 11
5958.77711135121
 21
511.0549443599047
 31
0.0
 70
   160
  1
300
 71
     5
 42
559.999999999999
  3
INABA_S40G
100
AcDbAlignedDimension
 13
5678.77711135121
 23
810.0070508158378
 33
0.0
 14
6238.777111351209
 24
810.0070508158378
 34
0.0
100
AcDbRotatedDimension
1001
ACAD
1000
DSTYLE
1002
{
1070
   174
1070
     0
1070
   272
1070
     1
1070
   279
1070
     1
1070
   288
1070
     0
1070
   341
1005
0
1002
}
  0
LEADER
  5
210FB
330
747D
100
AcDbEntity
  8
寸法
 48
50.0
100
AcDbLeader
  3
INABA_S40G
 71
     0
 74
     0
 40
100.0
 41
540.3409090909091
 76
     2
 10
6051.208572617678
 20
1099.08138779893
 30
0.0
 10
6355.950181177773
 20
672.0428653053099
 30
0.0
213
0.0
223
-1.277828345336728
233
0.0
1001
ACAD
1000
DSTYLE
1002
{
1070
   174
1070
     0
1070
   272
1070
     1
1070
   279
1070
     1
1070
   288
1070
     0
1070
   341
1005
0
1002
}
  0
LINE
  5
210FC
330
747D
100
AcDbEntity
  8
部品1
 48
50.0
100
AcDbLine
 10
6338.777111351213
 20
970.0070508158377
 30
0.0
 11
5578.777111351214
 21
970.0070508158377
 31
0.0
  0
LINE
  5
210FD
330
747D
100
AcDbEntity
  8
部品1
 48
50.0
100
AcDbLine
 10
6338.777111351213
 20
810.0070508158378
 30
0.0
 11
5578.777111351214
 21
810.0070508158378
 31
0.0
  0
LINE
  5
210FE
330
747D
100
AcDbEntity
  8
細線
 48
50.0
100
AcDbLine
 10
6132.475773089346
 20
810.0070508158369
 30
0.0
 11
6175.347643878326
 21
970.0070508158368
 31
0.0
  0
LINE
  5
210FF
330
747D
100
AcDbEntity
  8
細線
 48
50.0
100
AcDbLine
 10
5935.255660721229
 20
810.0070508158378
 30
0.0
 11
5978.127531510206
 21
970.0070508158377
 31
0.0
  0
LINE
  5
21100
330
747D
100
AcDbEntity
  8
部品1
 48
50.0
100
AcDbLine
 10
5578.777111351214
 20
810.0070508158378
 30
0.0
 11
5578.777111351214
 21
970.0070508158377
 31
0.0
  0
LINE
  5
21101
330
747D
100
AcDbEntity
  8
細線
 48
50.0
100
AcDbLine
 10
5639.425492169035
 20
810.0070508158369
 30
0.0
 11
5682.297362958011
 21
970.0070508158368
 31
0.0
  0
LINE
  5
21102
330
747D
100
AcDbEntity
  8
細線
 48
50.0
100
AcDbLine
 10
5836.645604537164
 20
810.0070508158369
 30
0.0
 11
5879.517475326142
 21
970.0070508158368
 31
0.0
  0
LINE
  5
21103
330
747D
100
AcDbEntity
  8
細線
 48
50.0
100
AcDbLine
 10
5738.035548353104
 20
810.0070508158378
 30
0.0
 11
5780.907419142084
 21
970.0070508158377
 31
0.0
  0
LINE
  5
21104
330
747D
100
AcDbEntity
  8
細線
 48
50.0
100
AcDbLine
 10
6033.865716905285
 20
810.0070508158378
 30
0.0
 11
6076.737587694267
 21
970.0070508158368
 31
0.0
  0
LINE
  5
21105
330
747D
100
AcDbEntity
  8
細線
 48
50.0
100
AcDbLine
 10
5746.074024126038
 20
840.0070508158378
 30
0.0
 11
5754.112499898972
 21
810.0070508158378
 31
0.0
  0
LINE
  5
21106
330
747D
100
AcDbEntity
  8
細線
 48
50.0
100
AcDbLine
 10
5647.463967941973
 20
840.0070508158378
 30
0.0
 11
5655.502443714908
 21
810.0070508158378
 31
0.0
  0
LINE
  5
21107
330
747D
100
AcDbEntity
  8
細線
 48
50.0
100
AcDbLine
 10
5943.294136494171
 20
840.0070508158378
 30
0.0
 11
5951.332612267102
 21
810.0070508158378
 31
0.0
  0
LINE
  5
21108
330
747D
100
AcDbEntity
  8
細線
 48
50.0
100
AcDbLine
 10
5844.684080310106
 20
840.0070508158378
 30
0.0
 11
5852.722556083037
 21
810.0070508158378
 31
0.0
  0
LINE
  5
21109
330
747D
100
AcDbEntity
  8
細線
 48
50.0
100
AcDbLine
 10
6140.514248862285
 20
840.0070508158378
 30
0.0
 11
6148.552724635218
 21
810.0070508158378
 31
0.0
  0
LINE
  5
2110A
330
747D
100
AcDbEntity
  8
細線
 48
50.0
100
AcDbLine
 10
6041.904192678227
 20
840.0070508158378
 30
0.0
 11
6049.942668451159
 21
810.0070508158378
 31
0.0
  0
LINE
  5
2110B
330
747D
100
AcDbEntity
  8
部品1
 48
50.0
100
AcDbLine
 10
5678.77711135121
 20
1270.007050815837
 30
0.0
 11
5838.77711135121
 21
1270.007050815837
 31
0.0
  0
LINE
  5
2110C
330
747D
100
AcDbEntity
  8
細線
 48
50.0
100
AcDbLine
 10
5682.274441872553
 20
970.0070508158377
 30
0.0
 11
5802.274441872552
 21
1090.007050815837
 31
0.0
  0
LINE
  5
2110D
330
747D
100
AcDbEntity
  8
細線
 48
50.0
100
AcDbLine
 10
5715.950402326566
 20
970.0070508158377
 30
0.0
 11
5835.950402326566
 21
1090.007050815837
 31
0.0
  0
CIRCLE
  5
2110E
330
747D
100
AcDbEntity
  8
部品1
 48
50.0
100
AcDbCircle
 10
5798.77711135121
 20
1120.007050815837
 30
0.0
 40
10.0
  0
LINE
  5
2110F
330
747D
100
AcDbEntity
  8
細線
 48
50.0
100
AcDbLine
 10
5749.626362780571
 20
970.0070508158377
 30
0.0
 11
5869.626362780571
 21
1090.007050815837
 31
0.0
  0
LINE
  5
21110
330
747D
100
AcDbEntity
  8
部品1
 48
50.0
100
AcDbLine
 10
5748.77711135121
 20
1110.007050815837
 30
0.0
 11
6168.77711135121
 21
1110.007050815837
 31
0.0
  0
LINE
  5
21111
330
747D
100
AcDbEntity
  8
部品1
 48
50.0
100
AcDbLine
 10
5748.77711135121
 20
1090.007050815837
 30
0.0
 11
6168.77711135121
 21
1090.007050815837
 31
0.0
  0
LINE
  5
21112
330
747D
100
AcDbEntity
  8
部品1
 48
50.0
100
AcDbLine
 10
5678.77711135121
 20
970.0070508158377
 30
0.0
 11
5678.77711135121
 21
1270.007050815837
 31
0.0
  0
LINE
  5
21113
330
747D
100
AcDbEntity
  8
細線
 48
50.0
100
AcDbLine
 10
5578.77711135121
 20
951.6819520230628
 30
0.0
 11
5583.687306773954
 21
970.0070508158377
 31
0.0
  0
LINE
  5
21114
330
747D
100
AcDbEntity
  8
細線
 48
50.0
100
AcDbLine
 10
5674.258887185085
 20
940.0070508158391
 30
0.0
 11
5666.220411412152
 21
970.0070508158377
 31
0.0
  0
LINE
  5
21115
330
747D
100
AcDbEntity
  8
細線
 48
50.0
100
AcDbLine
 10
5772.86894336915
 20
940.0070508158391
 30
0.0
 11
5764.830467596217
 21
970.0070508158377
 31
0.0
  0
LINE
  5
21116
330
747D
100
AcDbEntity
  8
部品1
 48
50.0
100
AcDbLine
 10
5748.77711135121
 20
1110.007050815837
 30
0.0
 11
5748.77711135121
 21
1090.007050815837
 31
0.0
  0
LINE
  5
21117
330
747D
100
AcDbEntity
  8
細線
 48
50.0
100
AcDbLine
 10
5678.777111351203
 20
1168.565483018551
 30
0.0
 11
5780.218679148497
 21
1270.007050815837
 31
0.0
  0
LINE
  5
21118
330
747D
100
AcDbEntity
  8
細線
 48
50.0
100
AcDbLine
 10
5678.777111351203
 20
1235.91740392657
 30
0.0
 11
5712.866758240479
 21
1270.007050815837
 31
0.0
  0
LINE
  5
21119
330
747D
100
AcDbEntity
  8
細線
 48
50.0
100
AcDbLine
 10
5678.777111351203
 20
1202.241443472557
 30
0.0
 11
5746.542718694491
 21
1270.007050815837
 31
0.0
  0
LINE
  5
2111A
330
747D
100
AcDbEntity
  8
部品1
 48
50.0
100
AcDbLine
 10
5948.777111351208
 20
1192.666069187241
 30
0.0
 11
5948.777111351208
 21
1120.007050815837
 31
0.0
  0
LINE
  5
2111B
330
747D
100
AcDbEntity
  8
細線
 48
50.0
100
AcDbLine
 10
5855.950402326565
 20
1110.007050815837
 30
0.0
 11
5928.77711135121
 21
1182.833759840487
 31
0.0
  0
LINE
  5
2111C
330
747D
100
AcDbEntity
  8
部品1
 48
50.0
100
AcDbLine
 10
5928.77711135121
 20
1192.666069187241
 30
0.0
 11
5928.77711135121
 21
1120.007050815837
 31
0.0
  0
LINE
  5
2111D
330
747D
100
AcDbEntity
  8
細線
 48
50.0
100
AcDbLine
 10
5889.626362780571
 20
1110.007050815837
 30
0.0
 11
5928.77711135121
 21
1149.157799386477
 31
0.0
  0
LINE
  5
2111E
330
747D
100
AcDbEntity
  8
細線
 48
50.0
100
AcDbLine
 10
5822.274441872552
 20
1110.007050815837
 30
0.0
 11
5968.777111351212
 21
1256.509720294495
 31
0.0
  0
LINE
  5
2111F
330
747D
100
AcDbEntity
  8
細線
 48
50.0
100
AcDbLine
 10
5951.682125504625
 20
970.0070508158377
 30
0.0
 11
6071.682125504626
 21
1090.007050815837
 31
0.0
  0
LINE
  5
21120
330
747D
100
AcDbEntity
  8
細線
 48
50.0
100
AcDbLine
 10
5985.35808595864
 20
970.0070508158377
 30
0.0
 11
6105.358085958638
 21
1090.007050815837
 31
0.0
  0
CIRCLE
  5
21121
330
747D
100
AcDbEntity
  8
部品1
 48
50.0
100
AcDbCircle
 10
5958.77711135121
 20
1120.007050815837
 30
0.0
 40
10.0
  0
LINE
  5
21122
330
747D
100
AcDbEntity
  8
細線
 48
50.0
100
AcDbLine
 10
5871.478999553215
 20
940.0070508158391
 30
0.0
 11
5863.440523780281
 21
970.0070508158377
 31
0.0
  0
ARC
  5
21123
330
747D
100
AcDbEntity
  8
部品1
 48
50.0
100
AcDbCircle
 10
5958.77711135121
 20
1120.007050815837
 30
0.0
 40
30.0
100
AcDbArc
 50
180.0
 51
199.4712206345204
  0
LINE
  5
21124
330
747D
100
AcDbEntity
  8
細線
 48
50.0
100
AcDbLine
 10
5970.089055737281
 20
940.0070508158391
 30
0.0
 11
5962.050579964347
 21
970.0070508158377
 31
0.0
  0
ARC
  5
21125
330
747D
100
AcDbEntity
  8
部品1
 48
50.0
100
AcDbCircle
 10
5958.77711135121
 20
1120.007050815837
 30
0.0
 40
30.0
100
AcDbArc
 50
340.5287793654796
 51
0.0
  0
LINE
  5
21126
330
747D
100
AcDbEntity
  8
細線
 48
50.0
100
AcDbLine
 10
6068.699111921338
 20
940.0070508158391
 30
0.0
 11
6060.660636148405
 21
970.0070508158377
 31
0.0
  0
CIRCLE
  5
21127
330
747D
100
AcDbEntity
  8
部品1
 48
50.0
100
AcDbCircle
 10
6118.777111351212
 20
1120.007050815837
 30
0.0
 40
10.0
  0
LINE
  5
21128
330
747D
100
AcDbEntity
  8
細線
 48
50.0
100
AcDbLine
 10
6167.309168105394
 20
940.0070508158391
 30
0.0
 11
6159.270692332462
 21
970.0070508158377
 31
0.0
  0
LINE
  5
21129
330
747D
100
AcDbEntity
  8
部品1
 48
50.0
100
AcDbLine
 10
6168.77711135121
 20
1110.007050815837
 30
0.0
 11
6168.77711135121
 21
1090.007050815837
 31
0.0
  0
LINE
  5
2112A
330
747D
100
AcDbEntity
  8
細線
 48
50.0
100
AcDbLine
 10
6019.034046412645
 20
970.0070508158377
 30
0.0
 11
6139.035156219065
 21
1090.008160622262
 31
0.0
  0
LINE
  5
2112B
330
747D
100
AcDbEntity
  8
細線
 48
50.0
100
AcDbLine
 10
5988.777111351217
 20
1209.157799386476
 30
0.0
 11
6078.777111351204
 21
1299.157799386476
 31
0.0
  0
LINE
  5
2112C
330
747D
100
AcDbEntity
  8
細線
 48
50.0
100
AcDbLine
 10
5988.777111351217
 20
1276.5097202945
 30
0.0
 11
6078.777111351204
 21
1366.509720294495
 31
0.0
  0
LINE
  5
2112D
330
747D
100
AcDbEntity
  8
細線
 48
50.0
100
AcDbLine
 10
5988.777111351217
 20
1242.83375984049
 30
0.0
 11
6078.777111351204
 21
1332.833759840482
 31
0.0
  0
LINE
  5
2112E
330
747D
100
AcDbEntity
  8
細線
 48
50.0
100
AcDbLine
 10
5948.777111351208
 20
1169.157799386476
 30
0.0
 11
5968.777111351216
 21
1189.157799386477
 31
0.0
  0
LINE
  5
2112F
330
747D
100
AcDbEntity
  8
細線
 48
50.0
100
AcDbLine
 10
5938.609420697964
 20
1192.666069187241
 30
0.0
 11
5968.777111351216
 21
1222.83375984049
 31
0.0
  0
LINE
  5
21130
330
747D
100
AcDbEntity
  8
部品1
 48
50.0
100
AcDbLine
 10
5948.777111351208
 20
1192.666069187241
 30
0.0
 11
5928.77711135121
 21
1192.666069187241
 31
0.0
  0
LINE
  5
21131
330
747D
100
AcDbEntity
  8
細線
 48
50.0
100
AcDbLine
 10
6231.0858292734
 20
810.0070508158378
 30
0.0
 11
6273.957700062383
 21
970.0070508158368
 31
0.0
  0
LINE
  5
21132
330
747D
100
AcDbEntity
  8
部品1
 48
50.0
100
AcDbLine
 10
6338.777111351213
 20
970.0070508158377
 30
0.0
 11
6338.777111351213
 21
810.0070508158378
 31
0.0
  0
MTEXT
  5
21133
102
{ACAD_REACTORS
330
210FB
102
}
330
747D
100
AcDbEntity
  8
寸法
 62
     7
 48
50.0
100
AcDbMText
 10
6380.950181177773
 20
748.3206936506467
 30
0.0
 40
100.0
 41
1.0
 71
     4
 72
     1
  1
\A1;D10@300
  7
STYLE2
 73
     1
 44
1.0
1001
ACAD
1000
MTEXTBEGIN
1070
    73
1070
     1
1070
    44
1040
1.0
1070
    74
1070
     0
1000
MTEXTEND
  0
LINE
  5
21134
330
747D
100
AcDbEntity
  8
細線
 48
50.0
100
AcDbLine
 10
6329.695885457464
 20
810.0070508158369
 30
0.0
 11
6338.777111351209
 21
843.8986472463238
 31
0.0
  0
LINE
  5
21135
330
747D
100
AcDbEntity
  8
細線
 48
50.0
100
AcDbLine
 10
6337.734361230399
 20
840.0070508158378
 30
0.0
 11
6338.777111351209
 21
836.1154543853817
 31
0.0
  0
LINE
  5
21136
330
747D
100
AcDbEntity
  8
細線
 48
50.0
100
AcDbLine
 10
6239.124305046342
 20
840.0070508158378
 30
0.0
 11
6247.162780819276
 21
810.0070508158378
 31
0.0
  0
LINE
  5
21137
330
747D
100
AcDbEntity
  8
部品1
 48
50.0
100
AcDbLine
 10
6238.777111351209
 20
1270.007050815837
 30
0.0
 11
6238.777111351209
 21
970.0070508158377
 31
0.0
  0
MTEXT
  5
21138
102
{ACAD_REACTORS
330
210F9
102
}
330
747D
100
AcDbEntity
  8
寸法
 62
     7
 48
50.0
100
AcDbMText
 10
6367.936686109565
 20
1075.760714637121
 30
0.0
 40
100.0
 41
1.0
 71
     4
 72
     1
  1
D10
  7
STYLE2
 73
     1
 44
1.0
1001
ACAD
1000
MTEXTBEGIN
1070
    73
1070
     1
1070
    44
1040
1.0
1070
    74
1070
     0
1000
MTEXTEND
  0
LINE
  5
21139
330
747D
100
AcDbEntity
  8
細線
 48
50.0
100
AcDbLine
 10
6221.0898091367
 20
970.0070508158377
 30
0.0
 11
6238.777111351209
 21
987.6943530303465
 31
0.0
  0
LINE
  5
2113A
330
747D
100
AcDbEntity
  8
細線
 48
50.0
100
AcDbLine
 10
6265.919224289455
 20
940.0070508158391
 30
0.0
 11
6257.880748516519
 21
970.0070508158377
 31
0.0
  0
MTEXT
  5
2113B
102
{ACAD_REACTORS
330
2113D
102
}
330
747D
100
AcDbEntity
  8
寸法
 62
     7
 48
50.0
100
AcDbMText
 10
6182.384532635452
 20
1776.591502439497
 30
0.0
 40
100.0
 41
1.0
 71
     4
 72
     1
  1
D13
  7
STYLE2
 73
     1
 44
1.0
1001
ACAD
1000
MTEXTBEGIN
1070
    73
1070
     1
1070
    44
1040
1.0
1070
    74
1070
     0
1000
MTEXTEND
  0
LWPOLYLINE
  5
2113C
330
747D
100
AcDbEntity
  8
部品1
 48
50.0
100
AcDbPolyline
 90
        2
 70
     0
 43
10.0
 10
6078.777111351207
 20
1650.00705081584
 10
6596.451988642407
 20
1650.00705081584
  0
LEADER
  5
2113D
330
747D
100
AcDbEntity
  8
寸法
 48
50.0
100
AcDbLeader
  3
INABA_S40G
 71
     0
 74
     0
 40
100.0
 41
222.7272727272727
 76
     2
 10
5958.77711135121
 20
1775.325087558644
 30
0.0
 10
6157.384532635453
 20
1701.591502439498
 30
0.0
1001
ACAD
1000
DSTYLE
1002
{
1070
   174
1070
     0
1070
   272
1070
     1
1070
   279
1070
     1
1070
   288
1070
     0
1070
   341
1005
0
1002
}
  0
LINE
  5
2113E
330
747D
100
AcDbEntity
  8
部品1
 48
50.0
100
AcDbLine
 10
5948.777111351208
 20
1702.666069187241
 30
0.0
 11
5948.777111351208
 21
1775.325087558644
 31
0.0
  0
LINE
  5
2113F
330
747D
100
AcDbEntity
  8
部品1
 48
50.0
100
AcDbLine
 10
5928.77711135121
 20
1702.666069187245
 30
0.0
 11
5928.77711135121
 21
1775.325087558644
 31
0.0
  0
LINE
  5
21140
330
747D
100
AcDbEntity
  8
細線
 48
50.0
100
AcDbLine
 10
5948.777111351208
 20
1707.973166650626
 30
0.0
 11
5968.777111351212
 21
1727.973166650626
 31
0.0
  0
LINE
  5
21141
330
747D
100
AcDbEntity
  8
細線
 48
50.0
100
AcDbLine
 10
5838.77711135121
 20
1665.325087558645
 30
0.0
 11
5928.77711135121
 21
1755.325087558645
 31
0.0
  0
LINE
  5
21142
330
747D
100
AcDbEntity
  8
細線
 48
50.0
100
AcDbLine
 10
5838.77711135121
 20
1631.649127104636
 30
0.0
 11
5928.77711135121
 21
1721.649127104636
 31
0.0
  0
LINE
  5
21143
330
747D
100
AcDbEntity
  8
細線
 48
50.0
100
AcDbLine
 10
5988.777111351217
 20
1512.241443472564
 30
0.0
 11
6078.777111351204
 21
1602.241443472557
 31
0.0
  0
LINE
  5
21144
330
747D
100
AcDbEntity
  8
細線
 48
50.0
100
AcDbLine
 10
5988.77711135121
 20
1545.917403926569
 30
0.0
 11
6078.777111351212
 21
1635.91740392657
 31
0.0
  0
LINE
  5
21145
330
747D
100
AcDbEntity
  8
細線
 48
50.0
100
AcDbLine
 10
5988.777111351217
 20
1478.565483018552
 30
0.0
 11
6078.777111351204
 21
1568.565483018551
 31
0.0
  0
LINE
  5
21146
330
747D
100
AcDbEntity
  8
部品1
 48
50.0
100
AcDbLine
 10
5948.777111351208
 20
1702.666069187241
 30
0.0
 11
5928.77711135121
 21
1702.666069187245
 31
0.0
  0
LINE
  5
21147
330
747D
100
AcDbEntity
  8
細線
 48
50.0
100
AcDbLine
 10
5838.77711135121
 20
1597.973166650626
 30
0.0
 11
5943.470013887828
 21
1702.666069187241
 31
0.0
  0
LINE
  5
21148
330
747D
100
AcDbEntity
  8
部品1
 48
50.0
100
AcDbLine
 10
5838.77711135121
 20
1950.007050815838
 30
0.0
 11
6078.777111351212
 21
1950.007050815838
 31
0.0
  0
LINE
  5
21149
330
747D
100
AcDbEntity
  8
細線
 48
50.0
100
AcDbLine
 10
5974.392639479297
 20
1800.940615686732
 30
0.0
 11
6078.777111351212
 21
1905.325087558645
 31
0.0
  0
LINE
  5
2114A
330
747D
100
AcDbEntity
  8
細線
 48
50.0
100
AcDbLine
 10
5988.217995433693
 20
1781.090011187115
 30
0.0
 11
6078.777111351212
 21
1871.649127104635
 31
0.0
  0
LINE
  5
2114B
330
747D
100
AcDbEntity
  8
細線
 48
50.0
100
AcDbLine
 10
5988.77711135121
 20
1747.973166650626
 30
0.0
 11
6078.777111351212
 21
1837.973166650626
 31
0.0
  0
LINE
  5
2114C
330
747D
100
AcDbEntity
  8
細線
 48
50.0
100
AcDbLine
 10
5948.777111351208
 20
1741.649127104636
 30
0.0
 11
5968.777111351212
 21
1761.649127104635
 31
0.0
  0
CIRCLE
  5
2114D
330
747D
100
AcDbEntity
  8
部品1
 48
50.0
100
AcDbCircle
 10
5958.77711135121
 20
1775.325087558644
 30
0.0
 40
10.0
  0
ARC
  5
2114E
330
747D
100
AcDbEntity
  8
部品1
 48
50.0
100
AcDbCircle
 10
5958.77711135121
 20
1775.325087558644
 30
0.0
 40
30.0
100
AcDbArc
 50
0.0
 51
180.0
  0
LINE
  5
2114F
330
747D
100
AcDbEntity
  8
細線
 48
50.0
100
AcDbLine
 10
5838.77711135121
 20
1934.732771190719
 30
0.0
 11
5854.051390976328
 21
1950.007050815838
 31
0.0
  0
LINE
  5
21150
330
747D
100
AcDbEntity
  8
細線
 48
50.0
100
AcDbLine
 10
5838.77711135121
 20
1867.3808502827
 30
0.0
 11
5921.403311884347
 21
1950.007050815838
 31
0.0
  0
LINE
  5
21151
330
747D
100
AcDbEntity
  8
細線
 48
50.0
100
AcDbLine
 10
5838.77711135121
 20
1901.05681073671
 30
0.0
 11
5887.727351430342
 21
1950.007050815838
 31
0.0
  0
LEADER
  5
21152
330
747D
100
AcDbEntity
  8
寸法
 48
50.0
100
AcDbLeader
  3
INABA_S40G
 73
     0
 74
     0
 75
     1
 40
100.0
 41
543.75
 76
     3
 10
8251.8262528227
 20
2011.457050815838
 30
0.0
 10
8352.50683084685
 20
2190.486208507377
 30
0.0
 10
8452.50683084685
 20
2190.486208507377
 30
0.0
340
21153
1001
ACAD
1000
DSTYLE
1002
{
1070
   174
1070
     0
1070
   272
1070
     1
1070
   279
1070
     1
1070
   288
1070
     0
1070
   341
1005
0
1002
}
  0
MTEXT
  5
21153
102
{ACAD_REACTORS
330
21152
102
}
330
747D
100
AcDbEntity
  8
部品1
 62
     7
 48
50.0
100
AcDbMText
 10
8492.506830846851
 20
2280.486208507378
 30
0.0
 40
100.0
 41
1.0
 71
     4
 72
     1
  1
M10X160
  7
STYLE2
 73
     1
 44
1.0
1001
ACAD
1000
MTEXTBEGIN
1070
    73
1070
     1
1070
    44
1040
1.0
1070
    74
1070
     0
1000
MTEXTEND
  0
DIMENSION
  5
21154
330
747D
100
AcDbEntity
  8
寸法
 48
50.0
100
AcDbDimension
  2
*D26
 10
9108.662002533757
 20
1545.007050815836
 30
0.0
 11
9008.662002533757
 21
1747.507050815839
 31
0.0
 70
    32
  1
180
 71
     5
 42
405.000000000002
  3
INABA_S40G
100
AcDbAlignedDimension
 13
8481.326252822702
 23
1950.007050815838
 33
0.0
 14
8481.326252822702
 24
1545.007050815836
 34
0.0
 50
90.0
100
AcDbRotatedDimension
1001
ACAD
1000
DSTYLE
1002
{
1070
   174
1070
     0
1070
   272
1070
     1
1070
   279
1070
     1
1070
   288
1070
     0
1070
   341
1005
0
1002
}
  0
LWPOLYLINE
  5
21155
330
747D
100
AcDbEntity
  8
部品1
 48
50.0
100
AcDbPolyline
 90
        2
 70
     0
 43
10.0
 10
8481.326252822702
 20
1650.00705081584
 10
8848.454332071934
 20
1650.00705081584
  0
LINE
  5
21156
330
747D
100
AcDbEntity
  8
部品1
 48
50.0
100
AcDbLine
 10
8741.326252822707
 20
970.0070508158377
 30
0.0
 11
7703.826252822707
 21
970.0070508158377
 31
0.0
  0
LINE
  5
21157
330
747D
100
AcDbEntity
  8
細線
 48
50.0
100
AcDbLine
 10
8660.003615070008
 20
840.0070508158369
 30
0.0
 11
8668.042090842947
 21
810.0070508158369
 31
0.0
  0
LINE
  5
21158
330
747D
100
AcDbEntity
  8
部品1
 48
50.0
100
AcDbLine
 10
8741.326252822707
 20
810.0070508158378
 30
0.0
 11
7703.826252822707
 21
810.0070508158378
 31
0.0
  0
LINE
  5
21159
330
747D
100
AcDbEntity
  8
細線
 48
50.0
100
AcDbLine
 10
8651.965139297068
 20
810.0070508158369
 30
0.0
 11
8694.837010086054
 21
970.0070508158356
 31
0.0
  0
DIMENSION
  5
2115A
330
747D
100
AcDbEntity
  8
寸法
 48
50.0
100
AcDbDimension
  2
*D27
 10
9108.662002533757
 20
1950.007050815838
 30
0.0
 11
9453.730335182541
 21
1918.602103810572
 31
0.0
 70
   160
  1
20～25
 71
     5
 42
65.95000000000073
  3
INABA_S40G
100
AcDbAlignedDimension
 13
8247.3262528227
 23
2015.957050815839
 33
0.0
 14
8481.326252822702
 24
1950.007050815838
 34
0.0
 50
90.0
100
AcDbRotatedDimension
1001
ACAD
1000
DSTYLE
1002
{
1070
   174
1070
     0
1070
   272
1070
     1
1070
   279
1070
     1
1070
   288
1070
     0
1070
   341
1005
0
1002
}
  0
TEXT
  5
2115B
330
747D
100
AcDbEntity
  8
部品1
 48
50.0
100
AcDbText
 10
8486.768233178237
 20
2394.855401768589
 30
0.0
 40
100.0
  1
基礎ボルト(市販品)
  7
STYLE2
100
AcDbText
  0
LINE
  5
2115C
330
747D
100
AcDbEntity
  8
細線
 48
50.0
100
AcDbLine
 10
7840.999543798055
 20
970.0070508158377
 30
0.0
 11
8481.326252822704
 21
1610.333759840481
 31
0.0
  0
LINE
  5
2115D
330
747D
100
AcDbEntity
  8
細線
 48
50.0
100
AcDbLine
 10
7874.675504252063
 20
970.0070508158377
 30
0.0
 11
8481.326252822702
 21
1576.657799386473
 31
0.0
  0
LINE
  5
2115E
330
747D
100
AcDbEntity
  8
細線
 48
50.0
100
AcDbLine
 10
7963.826252822702
 20
1395.91740392657
 30
0.0
 11
8161.82625282269
 21
1593.917403926563
 31
0.0
  0
LINE
  5
2115F
330
747D
100
AcDbEntity
  8
細線
 48
50.0
100
AcDbLine
 10
7963.826252822702
 20
1328.565483018551
 30
0.0
 11
8180.267820619999
 21
1545.007050815836
 31
0.0
  0
LINE
  5
21160
330
747D
100
AcDbEntity
  8
細線
 48
50.0
100
AcDbLine
 10
7963.826252822702
 20
1362.24144347256
 30
0.0
 11
8161.82625282269
 21
1560.241443472546
 31
0.0
  0
LINE
  5
21161
330
747D
100
AcDbEntity
  8
部品1
 48
50.0
100
AcDbLine
 10
7963.826252822702
 20
1270.007050815837
 30
0.0
 11
7963.826252822702
 21
1950.007050815838
 31
0.0
  0
LINE
  5
21162
330
747D
100
AcDbEntity
  8
部品1
100
AcDbLine
 10
8481.326252822702
 20
1270.007050815837
 30
0.0
 11
8481.326252822702
 21
1950.007050815838
 31
0.0
  0
LINE
  5
21163
330
747D
100
AcDbEntity
  8
細線
 48
50.0
100
AcDbLine
 10
7807.323583344047
 20
970.0070508158377
 30
0.0
 11
8481.326252822702
 21
1644.009720294494
 31
0.0
  0
LINE
  5
21164
330
747D
100
AcDbEntity
  8
部品1
 48
50.0
100
AcDbLine
 10
7803.826252822702
 20
1270.007050815837
 30
0.0
 11
7963.826252822702
 21
1270.007050815837
 31
0.0
  0
LINE
  5
21165
330
747D
100
AcDbEntity
  8
細線
 48
50.0
100
AcDbLine
 10
7803.826252822694
 20
1168.565483018551
 30
0.0
 11
7905.267820619989
 21
1270.007050815837
 31
0.0
  0
LINE
  5
21166
330
747D
100
AcDbEntity
  8
細線
 48
50.0
100
AcDbLine
 10
7803.826252822694
 20
1202.241443472557
 30
0.0
 11
7871.591860165984
 21
1270.007050815837
 31
0.0
  0
LINE
  5
21167
330
747D
100
AcDbEntity
  8
細線
 48
50.0
100
AcDbLine
 10
7764.474633640528
 20
810.0070508158369
 30
0.0
 11
7807.346504429505
 21
970.0070508158368
 31
0.0
  0
LINE
  5
21168
330
747D
100
AcDbEntity
  8
部品1
 48
50.0
100
AcDbLine
 10
7703.826252822707
 20
810.0070508158378
 30
0.0
 11
7703.826252822707
 21
970.0070508158377
 31
0.0
  0
LINE
  5
21169
330
747D
100
AcDbEntity
  8
細線
 48
50.0
100
AcDbLine
 10
7772.513109413465
 20
840.0070508158378
 30
0.0
 11
7780.5515851864
 21
810.0070508158378
 31
0.0
  0
LINE
  5
2116A
330
747D
100
AcDbEntity
  8
部品1
 48
50.0
100
AcDbLine
 10
7803.826252822702
 20
970.0070508158377
 30
0.0
 11
7803.826252822702
 21
1270.007050815837
 31
0.0
  0
LINE
  5
2116B
330
747D
100
AcDbEntity
  8
細線
 48
50.0
100
AcDbLine
 10
7799.30802865658
 20
940.0070508158391
 30
0.0
 11
7791.269552883644
 21
970.0070508158377
 31
0.0
  0
LINE
  5
2116C
330
747D
100
AcDbEntity
  8
細線
 48
50.0
100
AcDbLine
 10
7703.826252822702
 20
951.6819520230628
 30
0.0
 11
7708.736448245445
 21
970.0070508158377
 31
0.0
  0
LINE
  5
2116D
330
747D
100
AcDbEntity
  8
細線
 48
50.0
100
AcDbLine
 10
7803.826252822694
 20
1235.91740392657
 30
0.0
 11
7837.91589971197
 21
1270.007050815837
 31
0.0
  0
LINE
  5
2116E
330
747D
100
AcDbEntity
  8
細線
 48
50.0
100
AcDbLine
 10
7961.694746008653
 20
810.0070508158369
 30
0.0
 11
8004.566616797637
 21
970.0070508158368
 31
0.0
  0
LINE
  5
2116F
330
747D
100
AcDbEntity
  8
細線
 48
50.0
100
AcDbLine
 10
7863.084689824598
 20
810.0070508158378
 30
0.0
 11
7905.956560613576
 21
970.0070508158377
 31
0.0
  0
LINE
  5
21170
330
747D
100
AcDbEntity
  8
細線
 48
50.0
100
AcDbLine
 10
8356.134970744891
 20
810.0070508158378
 30
0.0
 11
8399.006841533873
 21
970.0070508158368
 31
0.0
  0
LINE
  5
21171
330
747D
100
AcDbEntity
  8
細線
 48
50.0
100
AcDbLine
 10
8158.914858376776
 20
810.0070508158378
 30
0.0
 11
8201.786729165759
 21
970.0070508158368
 31
0.0
  0
LINE
  5
21172
330
747D
100
AcDbEntity
  8
細線
 48
50.0
100
AcDbLine
 10
8060.304802192719
 20
810.0070508158378
 30
0.0
 11
8103.176672981701
 21
970.0070508158377
 31
0.0
  0
LINE
  5
21173
330
747D
100
AcDbEntity
  8
細線
 48
50.0
100
AcDbLine
 10
8257.524914560837
 20
810.0070508158369
 30
0.0
 11
8300.396785349819
 21
970.0070508158368
 31
0.0
  0
LINE
  5
21174
330
747D
100
AcDbEntity
  8
細線
 48
50.0
100
AcDbLine
 10
8553.355083113018
 20
810.0070508158346
 30
0.0
 11
8596.226953901993
 21
970.0070508158356
 31
0.0
  0
LINE
  5
21175
330
747D
100
AcDbEntity
  8
細線
 48
50.0
100
AcDbLine
 10
8454.745026928952
 20
810.0070508158369
 30
0.0
 11
8497.616897717923
 21
970.0070508158377
 31
0.0
  0
LINE
  5
21176
330
747D
100
AcDbEntity
  8
細線
 48
50.0
100
AcDbLine
 10
7969.733221781595
 20
840.0070508158378
 30
0.0
 11
7977.771697554532
 21
810.0070508158378
 31
0.0
  0
LINE
  5
21177
330
747D
100
AcDbEntity
  8
細線
 48
50.0
100
AcDbLine
 10
7871.123165597531
 20
840.0070508158378
 30
0.0
 11
7879.161641370465
 21
810.0070508158378
 31
0.0
  0
LINE
  5
21178
330
747D
100
AcDbEntity
  8
細線
 48
50.0
100
AcDbLine
 10
8166.953334149717
 20
840.0070508158378
 30
0.0
 11
8174.991809922655
 21
810.0070508158378
 31
0.0
  0
LINE
  5
21179
330
747D
100
AcDbEntity
  8
細線
 48
50.0
100
AcDbLine
 10
8068.343277965661
 20
840.0070508158378
 30
0.0
 11
8076.381753738594
 21
810.0070508158378
 31
0.0
  0
LINE
  5
2117A
330
747D
100
AcDbEntity
  8
細線
 48
50.0
100
AcDbLine
 10
8364.173446517837
 20
840.0070508158378
 30
0.0
 11
8372.211922290766
 21
810.0070508158378
 31
0.0
  0
LINE
  5
2117B
330
747D
100
AcDbEntity
  8
細線
 48
50.0
100
AcDbLine
 10
8265.563390333774
 20
840.0070508158378
 30
0.0
 11
8273.601866106707
 21
810.0070508158378
 31
0.0
  0
LINE
  5
2117C
330
747D
100
AcDbEntity
  8
細線
 48
50.0
100
AcDbLine
 10
8561.393558885951
 20
840.0070508158369
 30
0.0
 11
8569.432034658886
 21
810.0070508158369
 31
0.0
  0
LINE
  5
2117D
330
747D
100
AcDbEntity
  8
細線
 48
50.0
100
AcDbLine
 10
8462.783502701894
 20
840.0070508158378
 30
0.0
 11
8470.821978474837
 21
810.0070508158378
 31
0.0
  0
LINE
  5
2117E
330
747D
100
AcDbEntity
  8
細線
 48
50.0
100
AcDbLine
 10
8144.08318788414
 20
970.0070508158377
 30
0.0
 11
8481.326252822702
 21
1307.250115754409
 31
0.0
  0
LINE
  5
2117F
330
747D
100
AcDbEntity
  8
細線
 48
50.0
100
AcDbLine
 10
8110.40722743013
 20
970.0070508158377
 30
0.0
 11
8481.326252822702
 21
1340.926076208403
 31
0.0
  0
LINE
  5
21180
330
747D
100
AcDbEntity
  8
細線
 48
50.0
100
AcDbLine
 10
8076.731266976118
 20
970.0070508158377
 30
0.0
 11
8481.326252822702
 21
1374.60203666242
 31
0.0
  0
LINE
  5
21181
330
747D
100
AcDbEntity
  8
細線
 48
50.0
100
AcDbLine
 10
7996.528141024708
 20
940.0070508158391
 30
0.0
 11
7988.489665251773
 21
970.0070508158377
 31
0.0
  0
LINE
  5
21182
330
747D
100
AcDbEntity
  8
細線
 48
50.0
100
AcDbLine
 10
7897.918084840644
 20
940.0070508158391
 30
0.0
 11
7889.879609067709
 21
970.0070508158377
 31
0.0
  0
LINE
  5
21183
330
747D
100
AcDbEntity
  8
細線
 48
50.0
100
AcDbLine
 10
8193.748253392829
 20
940.0070508158391
 30
0.0
 11
8185.709777619898
 21
970.0070508158377
 31
0.0
  0
LINE
  5
21184
330
747D
100
AcDbEntity
  8
細線
 48
50.0
100
AcDbLine
 10
8095.138197208772
 20
940.0070508158391
 30
0.0
 11
8087.099721435841
 21
970.0070508158377
 31
0.0
  0
LINE
  5
21185
330
747D
100
AcDbEntity
  8
部品1
 48
50.0
100
AcDbLine
 10
8641.3262528227
 20
1270.007050815837
 30
0.0
 11
8641.3262528227
 21
970.0070508158377
 31
0.0
  0
LINE
  5
21186
330
747D
100
AcDbEntity
  8
細線
 48
50.0
100
AcDbLine
 10
8413.490871516215
 20
970.0070508158377
 30
0.0
 11
8641.3262528227
 21
1197.842432122333
 31
0.0
  0
LINE
  5
21187
330
747D
100
AcDbEntity
  8
細線
 48
50.0
100
AcDbLine
 10
8379.81491106221
 20
970.0070508158377
 30
0.0
 11
8641.3262528227
 21
1231.51839257633
 31
0.0
  0
LINE
  5
21188
330
747D
100
AcDbEntity
  8
細線
 48
50.0
100
AcDbLine
 10
8346.138950608192
 20
970.0070508158377
 30
0.0
 11
8641.3262528227
 21
1265.194353030347
 31
0.0
  0
LINE
  5
21189
330
747D
100
AcDbEntity
  8
細線
 48
50.0
100
AcDbLine
 10
8390.968365760944
 20
940.0070508158391
 30
0.0
 11
8382.929889988012
 21
970.0070508158377
 31
0.0
  0
LINE
  5
2118A
330
747D
100
AcDbEntity
  8
細線
 48
50.0
100
AcDbLine
 10
8292.358309576886
 20
940.0070508158391
 30
0.0
 11
8284.319833803959
 21
970.0070508158377
 31
0.0
  0
LINE
  5
2118B
330
747D
100
AcDbEntity
  8
細線
 48
50.0
100
AcDbLine
 10
8588.188478129062
 20
940.0070508158369
 30
0.0
 11
8580.150002356132
 21
970.0070508158368
 31
0.0
  0
LINE
  5
2118C
330
747D
100
AcDbEntity
  8
細線
 48
50.0
100
AcDbLine
 10
8489.57842194499
 20
940.0070508158391
 30
0.0
 11
8481.539946172061
 21
970.0070508158377
 31
0.0
  0
LINE
  5
2118D
330
747D
100
AcDbEntity
  8
部品1
 48
50.0
100
AcDbLine
 10
8481.326252822702
 20
1270.007050815837
 30
0.0
 11
8641.3262528227
 21
1270.007050815837
 31
0.0
  0
LWPOLYLINE
  5
2118E
330
747D
100
AcDbEntity
  8
部品1
 48
50.0
100
AcDbPolyline
 90
        2
 70
     0
 43
10.0
 10
7446.151375531506
 20
1650.00705081584
 10
7963.826252822702
 20
1650.00705081584
  0
TEXT
  5
2118F
330
747D
100
AcDbEntity
  8
部品1
 48
50.0
100
AcDbText
 10
7446.151375531506
 20
1664.055791169907
 30
0.0
 40
100.0
  1
▽G.L
  7
STYLE2
100
AcDbText
  0
LINE
  5
21190
330
747D
100
AcDbEntity
  8
部品1
100
AcDbLine
 10
8229.326252822705
 20
1668.757050815838
 30
0.0
 11
8229.326252822698
 21
2011.457050815838
 31
0.0
  0
LINE
  5
21191
330
747D
100
AcDbEntity
  8
部品1
100
AcDbLine
 10
8251.8262528227
 20
1668.757050815838
 30
0.0
 11
8251.826252822697
 21
2011.457050815838
 31
0.0
  0
LINE
  5
21192
330
747D
100
AcDbEntity
  8
部品1
100
AcDbLine
 10
8166.651252822704
 20
2033.582050815841
 30
0.0
 11
8166.651252822697
 21
1965.332050815838
 31
0.0
  0
LINE
  5
21193
330
747D
100
AcDbEntity
  8
部品1
100
AcDbLine
 10
8151.701252822702
 20
2018.63205081584
 30
0.0
 11
8151.701252822702
 21
1965.332050815838
 31
0.0
  0
LINE
  5
21194
330
747D
100
AcDbEntity
  8
細線
100
AcDbLine
 10
8233.826252822707
 20
1961.957050815839
 30
0.0
 11
8233.8262528227
 21
2015.957050815839
 31
0.0
  0
LINE
  5
21195
330
747D
100
AcDbEntity
  8
細線
100
AcDbLine
 10
8247.3262528227
 20
1961.957050815839
 30
0.0
 11
8247.3262528227
 21
2015.957050815839
 31
0.0
  0
LINE
  5
21196
330
747D
100
AcDbEntity
  8
部品1
100
AcDbLine
 10
7971.701252822703
 20
1965.332050815838
 30
0.0
 11
7971.701252822703
 21
2042.996930444224
 31
0.0
  0
LINE
  5
21197
330
747D
100
AcDbEntity
  8
部品1
100
AcDbLine
 10
8251.8262528227
 20
1668.757050815838
 30
0.0
 11
8296.826252822704
 21
1668.757050815838
 31
0.0
  0
LINE
  5
21198
330
747D
100
AcDbEntity
  8
部品1
100
AcDbLine
 10
8251.8262528227
 20
1646.257050815837
 30
0.0
 11
8296.826252822704
 21
1646.257050815837
 31
0.0
  0
LINE
  5
21199
330
747D
100
AcDbEntity
  8
部品1
100
AcDbLine
 10
8170.026252822696
 20
1961.957050815839
 30
0.0
 11
8421.701252822698
 21
1961.957050815839
 31
0.0
  0
LINE
  5
2119A
330
747D
100
AcDbEntity
  8
部品1
 48
50.0
100
AcDbLine
 10
7963.826252822702
 20
1950.007050815838
 30
0.0
 11
8481.326252822704
 21
1950.007050815838
 31
0.0
  0
LINE
  5
2119B
330
747D
100
AcDbEntity
  8
部品1
100
AcDbLine
 10
8319.326252822701
 20
1545.007050815836
 30
0.0
 11
8161.826252822697
 21
1545.007050815836
 31
0.0
  0
LINE
  5
2119C
330
747D
100
AcDbEntity
  8
細線
 48
50.0
100
AcDbLine
 10
7963.826252822702
 20
1631.649127104636
 30
0.0
 11
8161.826252822697
 21
1829.649127104632
 31
0.0
  0
LINE
  5
2119D
330
747D
100
AcDbEntity
  8
細線
 48
50.0
100
AcDbLine
 10
7963.826252822702
 20
1665.325087558645
 30
0.0
 11
8161.826252822697
 21
1863.325087558642
 31
0.0
  0
LINE
  5
2119E
330
747D
100
AcDbEntity
  8
部品1
100
AcDbLine
 10
8161.826252822697
 20
1545.007050815837
 30
0.0
 11
8161.826252822701
 21
1950.007050815838
 31
0.0
  0
LINE
  5
2119F
330
747D
100
AcDbEntity
  8
細線
 48
50.0
100
AcDbLine
 10
7963.826252822702
 20
1597.973166650626
 30
0.0
 11
8161.826252822697
 21
1795.973166650618
 31
0.0
  0
ARC
  5
211A0
330
747D
100
AcDbEntity
  8
部品1
100
AcDbCircle
 10
8251.8262528227
 20
1668.757050815838
 30
0.0
 40
22.5
100
AcDbArc
 50
180.0
 51
270.0
  0
LINE
  5
211A1
330
747D
100
AcDbEntity
  8
細線
 48
50.0
100
AcDbLine
 10
7963.826252822702
 20
1867.3808502827
 30
0.0
 11
8046.452453355838
 21
1950.007050815838
 31
0.0
  0
LINE
  5
211A2
330
747D
100
AcDbEntity
  8
細線
 48
50.0
100
AcDbLine
 10
7963.826252822702
 20
1901.05681073671
 30
0.0
 11
8012.776492901833
 21
1950.007050815838
 31
0.0
  0
LINE
  5
211A3
330
747D
100
AcDbEntity
  8
部品1
100
AcDbLine
 10
7975.076252822701
 20
1961.957050815839
 30
0.0
 11
7989.701252822697
 21
1961.957050815839
 31
0.0
  0
LINE
  5
211A4
330
747D
100
AcDbEntity
  8
細線
 48
50.0
100
AcDbLine
 10
7963.826252822702
 20
1934.732771190719
 30
0.0
 11
7979.10053244782
 21
1950.007050815838
 31
0.0
  0
ARC
  5
211A5
330
747D
100
AcDbEntity
  8
部品1
100
AcDbCircle
 10
7975.076252822701
 20
1965.332050815838
 30
0.0
 40
3.375
100
AcDbArc
 50
180.0
 51
270.0
  0
ARC
  5
211A6
330
747D
100
AcDbEntity
  8
部品1
100
AcDbCircle
 10
8148.3262528227
 20
1965.332050815838
 30
0.0
 40
3.375
100
AcDbArc
 50
270.0
 51
0.0
  0
ARC
  5
211A7
330
747D
100
AcDbEntity
  8
部品1
100
AcDbCircle
 10
8170.026252822696
 20
1965.332050815838
 30
0.0
 40
3.375
100
AcDbArc
 50
180.0
 51
270.0
  0
LINE
  5
211A8
330
747D
100
AcDbEntity
  8
部品1
100
AcDbLine
 10
8133.701252822701
 20
1961.957050815839
 30
0.0
 11
8148.3262528227
 21
1961.957050815839
 31
0.0
  0
LINE
  5
211A9
330
747D
100
AcDbEntity
  8
細線
 48
50.0
100
AcDbLine
 10
8319.326252822703
 20
1684.065483018535
 30
0.0
 11
8481.326252822702
 21
1846.065483018525
 31
0.0
  0
LINE
  5
211AA
330
747D
100
AcDbEntity
  8
部品1
100
AcDbLine
 10
8319.326252822701
 20
1545.007050815837
 30
0.0
 11
8319.326252822701
 21
1950.007050815838
 31
0.0
  0
LINE
  5
211AB
330
747D
100
AcDbEntity
  8
部品1
100
AcDbLine
 10
8296.826252822704
 20
1646.257050815837
 30
0.0
 11
8296.826252822704
 21
1668.757050815838
 31
0.0
  0
LINE
  5
211AC
330
747D
100
AcDbEntity
  8
細線
 48
50.0
100
AcDbLine
 10
8319.326252822703
 20
1717.741443472552
 30
0.0
 11
8481.326252822702
 21
1879.741443472548
 31
0.0
  0
LINE
  5
211AD
330
747D
100
AcDbEntity
  8
細線
 48
50.0
100
AcDbLine
 10
8319.326252822703
 20
1751.417403926575
 30
0.0
 11
8481.326252822702
 21
1913.417403926573
 31
0.0
  0
LINE
  5
211AE
330
747D
100
AcDbEntity
  8
部品1
 48
50.0
100
AcDbLine
 10
8220.5762528227
 20
2428.601152202268
 30
0.0
 11
8260.576252822705
 21
2428.601152202268
 31
0.0
  0
LINE
  5
211AF
330
747D
100
AcDbEntity
  8
部品1
 48
50.0
100
AcDbLine
 10
8220.5762528227
 20
2388.601152202268
 30
0.0
 11
8260.576252822705
 21
2388.601152202268
 31
0.0
  0
ELLIPSE
  5
211B0
330
747D
100
AcDbEntity
  8
細線
 48
50.0
100
AcDbEllipse
 10
8240.5762528227
 20
2438.60115220227
 30
0.0
 11
18.45838483258558
 21
0.0
 31
0.0
210
0.0
220
0.0
230
1.0
 40
0.2071254069489396
 41
0.0
 42
6.283185307179584
  0
LINE
  5
211B1
330
747D
100
AcDbEntity
  8
部品1
 48
50.0
100
AcDbLine
 10
8220.5762528227
 20
2448.601152202268
 30
0.0
 11
8260.576252822705
 21
2448.601152202268
 31
0.0
  0
ELLIPSE
  5
211B2
330
747D
100
AcDbEntity
  8
部品1
 48
50.0
100
AcDbEllipse
 10
8240.5762528227
 20
2274.41116137118
 30
0.0
 11
50.0
 21
0.0
 31
0.0
210
0.0
220
0.0
230
1.0
 40
0.4
 41
3.141592653589792
 42
6.283185307179584
  0
ELLIPSE
  5
211B3
330
747D
100
AcDbEntity
  8
部品1
 48
50.0
100
AcDbEllipse
 10
8240.5762528227
 20
2286.41116137118
 30
0.0
 11
50.0
 21
0.0
 31
0.0
210
0.0
220
0.0
230
1.0
 40
0.4
 41
0.0
 42
6.283185307179584
  0
ELLIPSE
  5
211B4
330
747D
100
AcDbEntity
  8
部品1
 48
50.0
100
AcDbEllipse
 10
8240.5762528227
 20
2286.41116137118
 30
0.0
 11
23.0
 21
0.0
 31
0.0
210
0.0
220
0.0
230
1.0
 40
0.3478260869565217
 41
0.0
 42
6.283185307179584
  0
LINE
  5
211B5
330
747D
100
AcDbEntity
  8
部品1
100
AcDbLine
 10
8042.576252822701
 20
2089.507050815838
 30
0.0
 11
8095.451252822702
 21
2089.507050815836
 31
0.0
  0
LINE
  5
211B6
330
747D
100
AcDbEntity
  8
部品1
100
AcDbLine
 10
7988.576252822702
 20
2062.507050815839
 30
0.0
 11
8035.826252822701
 21
2062.507050815839
 31
0.0
  0
LINE
  5
211B7
330
747D
100
AcDbEntity
  8
部品1
100
AcDbLine
 10
7974.257695088205
 20
2046.271161382215
 30
0.0
 11
7985.201252822702
 21
2049.00705081584
 31
0.0
  0
ARC
  5
211B8
330
747D
100
AcDbEntity
  8
部品1
100
AcDbCircle
 10
7975.076252822701
 20
2042.996930444224
 30
0.0
 40
3.375
100
AcDbArc
 50
104.0362434679075
 51
180.0
  0
ARC
  5
211B9
330
747D
100
AcDbEntity
  8
部品1
100
AcDbCircle
 10
7988.576252822702
 20
2059.132050815838
 30
0.0
 40
3.375
100
AcDbArc
 50
90.0
 51
180.0
  0
LINE
  5
211BA
330
747D
100
AcDbEntity
  8
部品1
100
AcDbLine
 10
7985.201252822702
 20
2049.00705081584
 30
0.0
 11
7985.201252822702
 21
2059.132050815838
 31
0.0
  0
ARC
  5
211BB
330
747D
100
AcDbEntity
  8
部品1
100
AcDbCircle
 10
8039.201252822703
 20
2072.632050815839
 30
0.0
 40
3.375
100
AcDbArc
 50
90.0
 51
180.0
  0
LINE
  5
211BC
330
747D
100
AcDbEntity
  8
部品1
100
AcDbLine
 10
8035.826252822701
 20
2062.507050815839
 30
0.0
 11
8035.826252822701
 21
2072.632050815839
 31
0.0
  0
LINE
  5
211BD
330
747D
100
AcDbEntity
  8
部品1
100
AcDbLine
 10
8039.201252822703
 20
2076.007050815839
 30
0.0
 11
8039.201252822703
 21
2086.132050815839
 31
0.0
  0
LINE
  5
211BE
330
747D
100
AcDbEntity
  8
部品1
100
AcDbLine
 10
8039.201252822703
 20
2076.007050815839
 30
0.0
 11
8039.201252822703
 21
2076.007050815839
 31
0.0
  0
ARC
  5
211BF
330
747D
100
AcDbEntity
  8
部品1
100
AcDbCircle
 10
8042.576252822701
 20
2086.132050815839
 30
0.0
 40
3.375
100
AcDbArc
 50
90.0
 51
180.0
  0
LINE
  5
211C0
330
747D
100
AcDbEntity
  8
部品1
100
AcDbLine
 10
8124.701252822701
 20
2033.582050815841
 30
0.0
 11
8124.701252822701
 21
2012.207050815838
 31
0.0
  0
ARC
  5
211C1
330
747D
100
AcDbEntity
  8
部品1
100
AcDbCircle
 10
8148.3262528227
 20
2018.63205081584
 30
0.0
 40
3.375
100
AcDbArc
 50
0.0
 51
90.0
  0
LINE
  5
211C2
330
747D
100
AcDbEntity
  8
部品1
100
AcDbLine
 10
8233.8262528227
 20
2015.957050815839
 30
0.0
 11
8247.3262528227
 21
2015.957050815839
 31
0.0
  0
LINE
  5
211C3
330
747D
100
AcDbEntity
  8
部品1
100
AcDbLine
 10
8229.326252822705
 20
2011.457050815838
 30
0.0
 11
8251.8262528227
 21
2011.457050815838
 31
0.0
  0
ARC
  5
211C4
330
747D
100
AcDbEntity
  8
部品1
100
AcDbCircle
 10
8163.276252822704
 20
2033.582050815841
 30
0.0
 40
3.375
100
AcDbArc
 50
0.0
 51
90.0
  0
ARC
  5
211C5
330
747D
100
AcDbEntity
  8
部品1
100
AcDbCircle
 10
8128.076252822701
 20
2033.582050815841
 30
0.0
 40
3.375
100
AcDbArc
 50
90.0
 51
180.0
  0
LINE
  5
211C6
330
747D
100
AcDbEntity
  8
部品1
100
AcDbLine
 10
8128.076252822701
 20
2036.95705081584
 30
0.0
 11
8163.276252822704
 21
2036.95705081584
 31
0.0
  0
LINE
  5
211C7
330
747D
100
AcDbEntity
  8
部品1
 48
50.0
100
AcDbLine
 10
8190.576252822699
 20
2286.41116137118
 30
0.0
 11
8190.576252822699
 21
2274.41116137118
 31
0.0
  0
LINE
  5
211C8
330
747D
100
AcDbEntity
  8
部品1
100
AcDbLine
 10
8098.826252822702
 20
2086.132050815836
 30
0.0
 11
8098.826252822702
 21
2022.007050815838
 31
0.0
  0
ARC
  5
211C9
330
747D
100
AcDbEntity
  8
部品1
100
AcDbCircle
 10
8095.451252822702
 20
2086.132050815836
 30
0.0
 40
3.375
100
AcDbArc
 50
0.0
 51
90.0
  0
LINE
  5
211CA
330
747D
100
AcDbEntity
  8
部品1
100
AcDbLine
 10
8098.826252822702
 20
2022.007050815838
 30
0.0
 11
8148.3262528227
 21
2022.007050815838
 31
0.0
  0
LINE
  5
211CB
330
747D
100
AcDbEntity
  8
部品1
 48
50.0
100
AcDbLine
 10
8200.576252822701
 20
2438.60115220227
 30
0.0
 11
8220.5762528227
 21
2448.601152202268
 31
0.0
  0
LINE
  5
211CC
330
747D
100
AcDbEntity
  8
部品1
 48
50.0
100
AcDbLine
 10
8200.576252822701
 20
2398.601152202268
 30
0.0
 11
8220.5762528227
 21
2388.601152202268
 31
0.0
  0
LINE
  5
211CD
330
747D
100
AcDbEntity
  8
部品1
 48
50.0
100
AcDbLine
 10
8200.576252822701
 20
2438.60115220227
 30
0.0
 11
8220.5762528227
 21
2428.601152202268
 31
0.0
  0
LINE
  5
211CE
330
747D
100
AcDbEntity
  8
部品1
 48
50.0
100
AcDbLine
 10
8200.576252822701
 20
2398.601152202268
 30
0.0
 11
8200.576252822701
 21
2438.60115220227
 31
0.0
  0
LINE
  5
211CF
330
747D
100
AcDbEntity
  8
細線
 48
50.0
100
AcDbLine
 10
8220.5762528227
 20
2388.601152202268
 30
0.0
 11
8220.5762528227
 21
2428.601152202268
 31
0.0
  0
LINE
  5
211D0
330
747D
100
AcDbEntity
  8
部品1
 48
50.0
100
AcDbLine
 10
8290.576252822701
 20
2274.41116137118
 30
0.0
 11
8290.576252822701
 21
2286.41116137118
 31
0.0
  0
LINE
  5
211D1
330
747D
100
AcDbEntity
  8
部品1
 48
50.0
100
AcDbLine
 10
8260.576252822705
 20
2448.601152202268
 30
0.0
 11
8280.576252822701
 21
2438.60115220227
 31
0.0
  0
LINE
  5
211D2
330
747D
100
AcDbEntity
  8
部品1
 48
50.0
100
AcDbLine
 10
8280.576252822701
 20
2398.601152202268
 30
0.0
 11
8280.576252822701
 21
2438.60115220227
 31
0.0
  0
LINE
  5
211D3
330
747D
100
AcDbEntity
  8
細線
 48
50.0
100
AcDbLine
 10
8260.576252822705
 20
2388.601152202268
 30
0.0
 11
8260.576252822705
 21
2428.601152202268
 31
0.0
  0
LINE
  5
211D4
330
747D
100
AcDbEntity
  8
部品1
 48
50.0
100
AcDbLine
 10
8260.576252822705
 20
2428.601152202268
 30
0.0
 11
8280.576252822701
 21
2438.60115220227
 31
0.0
  0
LINE
  5
211D5
330
747D
100
AcDbEntity
  8
部品1
 48
50.0
100
AcDbLine
 10
8260.576252822705
 20
2388.601152202268
 30
0.0
 11
8280.576252822701
 21
2398.601152202268
 31
0.0
  0
LINE
  5
211D6
330
747D
100
AcDbEntity
  8
細線
 48
50.0
100
AcDbLine
 10
10246.30868126426
 20
1375.383406249148
 30
0.0
 11
10289.18055205325
 21
1535.383406249148
 31
0.0
  0
TEXT
  5
211D7
330
747D
100
AcDbEntity
  8
部品1
 48
50.0
100
AcDbText
 10
9650.598559753021
 20
1316.507375019201
 30
0.0
 40
100.0
  1
ボルトの出
 50
90.0
  7
STYLE2
100
AcDbText
  0
LINE
  5
211D8
330
747D
100
AcDbEntity
  8
部品1
100
AcDbLine
 10
10125.94018807832
 20
1375.383406249147
 30
0.0
 11
10125.94018807832
 21
1650.007050815838
 31
0.0
  0
LINE
  5
211D9
330
747D
100
AcDbEntity
  8
細線
 48
50.0
100
AcDbLine
 10
10147.69862508021
 20
1375.383406249151
 30
0.0
 11
10190.57049586919
 21
1535.38340624915
 31
0.0
  0
LINE
  5
211DA
330
747D
100
AcDbEntity
  8
部品1
 48
50.0
100
AcDbLine
 10
8741.326252822707
 20
970.0070508158377
 30
0.0
 11
8741.326252822707
 21
810.0070508158378
 31
0.0
  0
LINE
  5
211DB
330
747D
100
AcDbEntity
  8
細線
 48
50.0
100
AcDbLine
 10
8686.798534313124
 20
940.0070508158369
 30
0.0
 11
8678.76005854019
 21
970.0070508158368
 31
0.0
  0
LINE
  5
211DC
330
747D
100
AcDbEntity
  8
細線
 48
50.0
100
AcDbLine
 10
10254.34715703721
 20
1405.383406249151
 30
0.0
 11
10262.38563281014
 21
1375.383406249151
 31
0.0
  0
LINE
  5
211DD
330
747D
100
AcDbEntity
  8
細線
 48
50.0
100
AcDbLine
 10
10155.73710085315
 20
1405.383406249151
 30
0.0
 11
10163.77557662607
 21
1375.383406249151
 31
0.0
  0
LINE
  5
211DE
330
747D
100
AcDbEntity
  8
部品1
100
AcDbLine
 10
10275.94018807832
 20
1650.007050815838
 30
0.0
 11
10275.94018807832
 21
1950.007050815838
 31
0.0
  0
LINE
  5
211DF
330
747D
100
AcDbEntity
  8
細線
 48
50.0
100
AcDbLine
 10
10182.53202009625
 20
1505.383406249151
 30
0.0
 11
10174.49354432331
 21
1535.38340624915
 31
0.0
  0
LINE
  5
211E0
330
747D
100
AcDbEntity
  8
細線
 48
50.0
100
AcDbLine
 10
10281.14207628032
 20
1505.383406249151
 30
0.0
 11
10273.10360050738
 21
1535.38340624915
 31
0.0
  0
TEXT
  5
211E1
330
747D
100
AcDbEntity
  8
部品1
100
AcDbText
 10
7725.905528316075
 20
3376.78166059761
 30
0.0
 40
150.0
  1
基礎詳細
  7
STYLE2
100
AcDbText
  0
LINE
  5
211E2
330
747D
100
AcDbEntity
  8
部品1
100
AcDbLine
 10
11616.45111589746
 20
342.1520727888055
 30
0.0
 11
11616.45111589746
 21
3601.221575536896
 31
0.0
  0
LINE
  5
211E3
330
747D
100
AcDbEntity
  8
部品1
100
AcDbLine
 10
11025.94018807832
 20
1650.007050815838
 30
0.0
 11
11025.94018807832
 21
1375.383406249151
 31
0.0
  0
LINE
  5
211E4
330
747D
100
AcDbEntity
  8
細線
 48
50.0
100
AcDbLine
 10
10837.96901836863
 20
1375.383406249147
 30
0.0
 11
10880.8408891576
 21
1535.383406249146
 31
0.0
  0
LINE
  5
211E5
330
747D
100
AcDbEntity
  8
細線
 48
50.0
100
AcDbLine
 10
10936.57907455268
 20
1375.383406249148
 30
0.0
 11
10979.45094534166
 21
1535.383406249146
 31
0.0
  0
LINE
  5
211E6
330
747D
100
AcDbEntity
  8
細線
 48
50.0
100
AcDbLine
 10
10640.74890600051
 20
1375.383406249151
 30
0.0
 11
10683.62077678949
 21
1535.383406249148
 31
0.0
  0
LINE
  5
211E7
330
747D
100
AcDbEntity
  8
細線
 48
50.0
100
AcDbLine
 10
10739.35896218457
 20
1375.383406249148
 30
0.0
 11
10782.23083297353
 21
1535.38340624915
 31
0.0
  0
LINE
  5
211E8
330
747D
100
AcDbEntity
  8
細線
 48
50.0
100
AcDbLine
 10
10443.52879363239
 20
1375.383406249151
 30
0.0
 11
10486.40066442137
 21
1535.383406249148
 31
0.0
  0
LINE
  5
211E9
330
747D
100
AcDbEntity
  8
細線
 48
50.0
100
AcDbLine
 10
10344.91873744834
 20
1375.383406249151
 30
0.0
 11
10387.79060823731
 21
1535.38340624915
 31
0.0
  0
LINE
  5
211EA
330
747D
100
AcDbEntity
  8
細線
 48
50.0
100
AcDbLine
 10
10542.13884981645
 20
1375.383406249148
 30
0.0
 11
10585.01072060543
 21
1535.383406249148
 31
0.0
  0
LINE
  5
211EB
330
747D
100
AcDbEntity
  8
細線
 48
50.0
100
AcDbLine
 10
10451.56726940533
 20
1405.383406249151
 30
0.0
 11
10459.60574517827
 21
1375.383406249151
 31
0.0
  0
LINE
  5
211EC
330
747D
100
AcDbEntity
  8
細線
 48
50.0
100
AcDbLine
 10
10352.95721322128
 20
1405.383406249151
 30
0.0
 11
10360.99568899421
 21
1375.383406249151
 31
0.0
  0
LINE
  5
211ED
330
747D
100
AcDbEntity
  8
細線
 48
50.0
100
AcDbLine
 10
10648.78738177345
 20
1405.383406249151
 30
0.0
 11
10656.82585754638
 21
1375.383406249151
 31
0.0
  0
LINE
  5
211EE
330
747D
100
AcDbEntity
  8
細線
 48
50.0
100
AcDbLine
 10
10550.17732558939
 20
1405.383406249151
 30
0.0
 11
10558.21580136232
 21
1375.383406249151
 31
0.0
  0
LINE
  5
211EF
330
747D
100
AcDbEntity
  8
細線
 48
50.0
100
AcDbLine
 10
10846.00749414156
 20
1405.383406249148
 30
0.0
 11
10854.0459699145
 21
1375.383406249148
 31
0.0
  0
LINE
  5
211F0
330
747D
100
AcDbEntity
  8
細線
 48
50.0
100
AcDbLine
 10
10747.39743795751
 20
1405.383406249151
 30
0.0
 11
10755.43591373045
 21
1375.383406249151
 31
0.0
  0
LINE
  5
211F1
330
747D
100
AcDbEntity
  8
細線
 48
50.0
100
AcDbLine
 10
10944.61755032563
 20
1405.383406249148
 30
0.0
 11
10952.65602609856
 21
1375.383406249148
 31
0.0
  0
MTEXT
  5
211F2
102
{ACAD_REACTORS
330
211F3
102
}
330
747D
100
AcDbEntity
  8
寸法
 62
     7
 48
50.0
100
AcDbMText
 10
11018.26846089028
 20
2271.439951667261
 30
0.0
 40
150.0
 41
1.0
 71
     4
 72
     1
  1
\A1;C.B
  7
STYLE1
 73
     1
 44
1.0
1001
ACAD
1000
MTEXTBEGIN
1070
    73
1070
     1
1070
    44
1040
1.0
1070
    74
1070
     0
1000
MTEXTEND
  0
LEADER
  5
211F3
330
747D
100
AcDbEntity
  8
寸法
 48
50.0
100
AcDbLeader
  3
INABA_S40G
 73
     0
 74
     0
 75
     1
 40
150.0
 41
231.9898538650463
 76
     3
 10
10789.34570259822
 20
1950.007050815838
 30
0.0
 10
10878.26846089028
 20
2156.439951667262
 30
0.0
 10
10978.26846089028
 20
2156.439951667262
 30
0.0
340
211F2
1001
ACAD
1000
DSTYLE
1002
{
1070
   174
1070
     0
1070
   272
1070
     1
1070
   279
1070
     1
1070
   288
1070
     0
1070
   341
1005
0
1002
}
  0
LINE
  5
211F4
330
747D
100
AcDbEntity
  8
細線
100
AcDbLine
 10
10858.64311014383
 20
1650.00705081584
 30
0.0
 11
10558.64311014385
 21
1950.007050815838
 31
0.0
  0
LINE
  5
211F5
330
747D
100
AcDbEntity
  8
細線
100
AcDbLine
 10
10795.00349983706
 20
1650.007050815838
 30
0.0
 11
10495.00349983706
 21
1950.007050815838
 31
0.0
  0
LINE
  5
211F6
330
747D
100
AcDbEntity
  8
細線
 48
50.0
100
AcDbLine
 10
10379.75213246439
 20
1505.383406249151
 30
0.0
 11
10371.71365669145
 21
1535.38340624915
 31
0.0
  0
LINE
  5
211F7
330
747D
100
AcDbEntity
  8
細線
 48
50.0
100
AcDbLine
 10
10478.36218864844
 20
1505.383406249151
 30
0.0
 11
10470.32371287551
 21
1535.38340624915
 31
0.0
  0
LINE
  5
211F8
330
747D
100
AcDbEntity
  8
細線
100
AcDbLine
 10
10352.08849494487
 20
1535.383406249151
 30
0.0
 11
10466.71213951155
 21
1650.007050815838
 31
0.0
  0
LINE
  5
211F9
330
747D
100
AcDbEntity
  8
細線
100
AcDbLine
 10
10309.66208807368
 20
1535.383406249151
 30
0.0
 11
10424.28573264035
 21
1650.007050815838
 31
0.0
  0
LINE
  5
211FA
330
747D
100
AcDbEntity
  8
細線
 48
50.0
100
AcDbLine
 10
10675.58230101656
 20
1505.383406249151
 30
0.0
 11
10667.54382524363
 21
1535.38340624915
 31
0.0
  0
LINE
  5
211FB
330
747D
100
AcDbEntity
  8
細線
 48
50.0
100
AcDbLine
 10
10576.9722448325
 20
1505.383406249151
 30
0.0
 11
10568.93376905956
 21
1535.38340624915
 31
0.0
  0
LINE
  5
211FC
330
747D
100
AcDbEntity
  8
部品1
100
AcDbLine
 10
10875.94018807832
 20
1950.007050815838
 30
0.0
 11
10875.94018807832
 21
1650.007050815838
 31
0.0
  0
LINE
  5
211FD
330
747D
100
AcDbEntity
  8
細線
 48
50.0
100
AcDbLine
 10
10872.80241338468
 20
1505.383406249148
 30
0.0
 11
10864.76393761174
 21
1535.383406249148
 31
0.0
  0
LINE
  5
211FE
330
747D
100
AcDbEntity
  8
細線
 48
50.0
100
AcDbLine
 10
10774.19235720061
 20
1505.383406249151
 30
0.0
 11
10766.15388142767
 21
1535.38340624915
 31
0.0
  0
LINE
  5
211FF
330
747D
100
AcDbEntity
  8
細線
100
AcDbLine
 10
10802.08849494486
 20
1535.383406249152
 30
0.0
 11
10916.71213951155
 21
1650.007050815838
 31
0.0
  0
LINE
  5
21200
330
747D
100
AcDbEntity
  8
細線
100
AcDbLine
 10
10717.23568120248
 20
1535.383406249152
 30
0.0
 11
10831.85932576917
 21
1650.007050815838
 31
0.0
  0
LINE
  5
21201
330
747D
100
AcDbEntity
  8
細線
100
AcDbLine
 10
10759.66208807367
 20
1535.383406249152
 30
0.0
 11
10874.28573264035
 21
1650.007050815838
 31
0.0
  0
LINE
  5
21202
330
747D
100
AcDbEntity
  8
細線
 48
50.0
100
AcDbLine
 10
10971.41246956874
 20
1505.383406249148
 30
0.0
 11
10963.3739937958
 21
1535.383406249148
 31
0.0
  0
TEXT
  5
21A7E
330
747D
100
AcDbEntity
  8
部品1
 48
50.0
100
AcDbText
 10
7349.80957233474
 20
2339.747324870599
 30
0.0
 40
100.0
  1
※(別売)
  7
STYLE2
100
AcDbText
  0
ENDSEC
  0
SECTION
  2
OBJECTS
  0
DICTIONARY
  5
7471
330
0
100
AcDbDictionary
281
     1
  3
ACAD_COLOR
350
159B0
  3
ACAD_GROUP
350
7472
  3
ACAD_LAYOUT
350
159B1
  3
ACAD_MATERIAL
350
159AF
  3
ACAD_MLINESTYLE
350
7473
  3
ACAD_PLOTSETTINGS
350
159B2
  3
ACAD_PLOTSTYLENAME
350
159AD
  3
ACDBHEADERROUNDTRIPXREC
350
22100
  3
AcDbVariableDictionary
350
20E90
  3
CONTENTDICTIONARY
350
E71C
  3
DRAWINGVARIABLESDICT
350
F3B9
  0
DICTIONARY
  5
20F93
330
7467
100
AcDbDictionary
280
     1
281
     1
  3
ACAD_LAYERSTATES
360
20F94
  0
DICTIONARY
  5
159B0
102
{ACAD_REACTORS
330
7471
102
}
330
7471
100
AcDbDictionary
281
     1
  0
DICTIONARY
  5
7472
102
{ACAD_REACTORS
330
7471
102
}
330
7471
100
AcDbDictionary
281
     1
  3
*A1
350
21F5C
  0
DICTIONARY
  5
159B1
102
{ACAD_REACTORS
330
7471
102
}
330
7471
100
AcDbDictionary
281
     1
  3
Model
350
159B3
  3
レイアウト1
350
159B4
  0
DICTIONARY
  5
159AF
102
{ACAD_REACTORS
330
7471
102
}
330
7471
100
AcDbDictionary
281
     1
  0
DICTIONARY
  5
7473
102
{ACAD_REACTORS
330
7471
102
}
330
7471
100
AcDbDictionary
281
     1
  3
STANDARD
350
7480
  0
DICTIONARY
  5
159B2
102
{ACAD_REACTORS
330
7471
102
}
330
7471
100
AcDbDictionary
281
     1
  0
ACDBDICTIONARYWDFLT
  5
159AD
102
{ACAD_REACTORS
330
7471
102
}
330
7471
100
AcDbDictionary
281
     1
  3
Normal
350
159AE
100
AcDbDictionaryWithDefault
340
159AE
  0
DICTIONARY
  5
22100
102
{ACAD_REACTORS
330
7471
102
}
330
7471
100
AcDbDictionary
281
     1
  3
COLORDICT
350
22102
  3
MATERIALDICT
350
22101
  0
DICTIONARY
  5
20E90
102
{ACAD_REACTORS
330
7471
102
}
330
7471
100
AcDbDictionary
281
     1
  3
DIMASSOC
350
20E91
  3
PROJECTNAME
350
20E92
  0
DICTIONARY
  5
E71C
102
{ACAD_REACTORS
330
7471
102
}
330
7471
100
AcDbDictionary
281
     1
  0
DICTIONARY
  5
F3B9
102
{ACAD_REACTORS
330
7471
102
}
330
7471
100
AcDbDictionary
281
     1
1001
DRAWINGVARIABLESXDATA
1000
POLARMODE
1000
1
  0
DICTIONARY
  5
20F94
102
{ACAD_REACTORS
330
20F93
102
}
330
20F93
100
AcDbDictionary
281
     1
  0
GROUP
  5
21F5C
102
{ACAD_REACTORS
330
7472
102
}
330
7472
100
AcDbGroup
300

 70
     1
 71
     1
  0
LAYOUT
  5
159B3
102
{ACAD_XDICTIONARY
360
22103
102
}
102
{ACAD_REACTORS
330
159B1
102
}
330
159B1
100
AcDbPlotSettings
  1

  2
クセロPDF
  4
A3
  6

 40
3.174999952316284
 41
3.174999952316284
 42
3.17498779296875
 43
3.17498779296875
 44
419.9466552734374
 45
296.9259948730469
 46
0.0
 47
0.0
 48
0.0
 49
0.0
140
0.0
141
0.0
142
1.0
143
40.0
 70
 11952
 72
     1
 73
     0
 74
     2
  7
inaba.ctb
 75
    24
147
0.025
148
0.0
149
0.0
100
AcDbLayout
  1
Model
 70
     1
 71
     0
 10
0.0
 20
0.0
 11
12.0
 21
9.0
 12
0.0
 22
0.0
 32
0.0
 14
0.0
 24
0.0
 34
0.0
 15
0.0
 25
0.0
 35
0.0
146
0.0
 13
0.0
 23
0.0
 33
0.0
 16
1.0
 26
0.0
 36
0.0
 17
0.0
 27
1.0
 37
0.0
 76
     0
330
747D
  0
LAYOUT
  5
159B4
102
{ACAD_XDICTIONARY
360
22105
102
}
102
{ACAD_REACTORS
330
159B1
102
}
330
159B1
100
AcDbPlotSettings
  1

  2
自動 EPSON LP-8400FX (TATENO 上)
  4

  6

 40
0.0
 41
0.0
 42
0.0
 43
0.0
 44
0.0
 45
0.0
 46
0.0
 47
0.0
 48
0.0
 49
0.0
140
0.0
141
0.0
142
1.0
143
1.0
 70
   688
 72
     0
 73
     0
 74
     5
  7
inaba.ctb
 75
    16
147
1.0
148
0.0
149
0.0
100
AcDbLayout
  1
レイアウト1
 70
     0
 71
     1
 10
0.0
 20
0.0
 11
420.0
 21
297.0
 12
0.0
 22
0.0
 32
0.0
 14
1.000000000000000E+20
 24
1.000000000000000E+20
 34
1.000000000000000E+20
 15
-1.000000000000000E+20
 25
-1.000000000000000E+20
 35
-1.000000000000000E+20
146
0.0
 13
0.0
 23
0.0
 33
0.0
 16
1.0
 26
0.0
 36
0.0
 17
0.0
 27
1.0
 37
0.0
 76
     0
330
747A
  0
MLINESTYLE
  5
7480
102
{ACAD_REACTORS
330
7473
102
}
330
7473
100
AcDbMlineStyle
  2
STANDARD
 70
     0
  3

 62
     0
 51
90.0
 52
90.0
 71
     2
 49
0.5
 62
   256
  6
BYLAYER
 49
-0.5
 62
   256
  6
BYLAYER
  0
ACDBPLACEHOLDER
  5
159AE
102
{ACAD_REACTORS
330
159AD
102
}
330
159AD
  0
XRECORD
  5
22102
102
{ACAD_REACTORS
330
22100
102
}
330
22100
100
AcDbXrecord
280
     1
340
159B0
  0
XRECORD
  5
22101
102
{ACAD_REACTORS
330
22100
102
}
330
22100
100
AcDbXrecord
280
     1
340
159AF
  0
DICTIONARYVAR
  5
20E91
102
{ACAD_REACTORS
330
20E90
102
}
330
20E90
100
DictionaryVariables
280
     0
  1
1
  0
DICTIONARYVAR
  5
20E92
102
{ACAD_REACTORS
330
20E90
102
}
330
20E90
100
DictionaryVariables
280
     0
  1

  0
DICTIONARY
  5
22103
330
159B3
100
AcDbDictionary
280
     1
281
     1
  3
ACAD_XREC_ROUNDTRIP
360
22104
  0
DICTIONARY
  5
22105
330
159B4
100
AcDbDictionary
280
     1
281
     1
  3
ACAD_XREC_ROUNDTRIP
360
22106
  0
XRECORD
  5
22104
102
{ACAD_REACTORS
330
22103
102
}
330
22103
100
AcDbXrecord
280
     1
102
SHADEPLOT
 70
     0
102
SHADEPLOTRESLEVEL
 70
     2
102
SHADEPLOTCUSTOMDPI
 70
   150
  0
XRECORD
  5
22106
102
{ACAD_REACTORS
330
22105
102
}
330
22105
100
AcDbXrecord
280
     1
102
SHADEPLOT
 70
     0
102
SHADEPLOTRESLEVEL
 70
     2
102
SHADEPLOTCUSTOMDPI
 70
   300
  0
ENDSEC
  0
EOF
