  0
SECTION
  2
HEADER
  9
$ACADVER
  1
AC1015
  9
$ACADMAINTVER
 70
    20
  9
$DWGCODEPAGE
  3
ANSI_932
  9
$INSBASE
 10
0.0
 20
0.0
 30
0.0
  9
$EXTMIN
 10
139.9999999999995
 20
-0.0000000000000909
 30
0.0
  9
$EXTMAX
 10
16307.2
 20
11409.6
 30
0.0
  9
$LIMMIN
 10
0.0
 20
0.0
  9
$LIMMAX
 10
16800.0
 20
11880.0
  9
$ORTHOMODE
 70
     0
  9
$REGENMODE
 70
     1
  9
$FILLMODE
 70
     1
  9
$QTEXTMODE
 70
     0
  9
$MIRRTEXT
 70
     1
  9
$LTSCALE
 40
20.0
  9
$ATTMODE
 70
     1
  9
$TEXTSIZE
 40
100.0
  9
$TRACEWID
 40
1.0
  9
$TEXTSTYLE
  7
STYLE2
  9
$CLAYER
  8
部品1
  9
$CELTYPE
  6
BYLAYER
  9
$CECOLOR
 62
   256
  9
$CELTSCALE
 40
50.0
  9
$DISPSILH
 70
     0
  9
$DIMSCALE
 40
40.0
  9
$DIMASZ
 40
2.5
  9
$DIMEXO
 40
0.5
  9
$DIMDLI
 40
7.0
  9
$DIMRND
 40
0.0
  9
$DIMDLE
 40
0.0
  9
$DIMEXE
 40
1.5
  9
$DIMTP
 40
0.0
  9
$DIMTM
 40
0.0
  9
$DIMTXT
 40
3.0
  9
$DIMCEN
 40
0.0
  9
$DIMTSZ
 40
0.0
  9
$DIMTOL
 70
     0
  9
$DIMLIM
 70
     0
  9
$DIMTIH
 70
     0
  9
$DIMTOH
 70
     0
  9
$DIMSE1
 70
     0
  9
$DIMSE2
 70
     0
  9
$DIMTAD
 70
     3
  9
$DIMZIN
 70
     8
  9
$DIMBLK
  1

  9
$DIMASO
 70
     1
  9
$DIMSHO
 70
     1
  9
$DIMPOST
  1

  9
$DIMAPOST
  1

  9
$DIMALT
 70
     0
  9
$DIMALTD
 70
     2
  9
$DIMALTF
 40
0.0394
  9
$DIMLFAC
 40
1.0
  9
$DIMTOFL
 70
     1
  9
$DIMTVP
 40
0.0
  9
$DIMTIX
 70
     1
  9
$DIMSOXD
 70
     0
  9
$DIMSAH
 70
     1
  9
$DIMBLK1
  1
DOTSMALL
  9
$DIMBLK2
  1
DOTSMALL
  9
$DIMSTYLE
  2
INABA_S40G
  9
$DIMCLRD
 70
     0
  9
$DIMCLRE
 70
     0
  9
$DIMCLRT
 70
     7
  9
$DIMTFAC
 40
1.0
  9
$DIMGAP
 40
1.0
  9
$DIMJUST
 70
     0
  9
$DIMSD1
 70
     0
  9
$DIMSD2
 70
     0
  9
$DIMTOLJ
 70
     1
  9
$DIMTZIN
 70
     0
  9
$DIMALTZ
 70
     0
  9
$DIMALTTZ
 70
     0
  9
$DIMUPT
 70
     1
  9
$DIMDEC
 70
     1
  9
$DIMTDEC
 70
     4
  9
$DIMALTU
 70
     2
  9
$DIMALTTD
 70
     2
  9
$DIMTXSTY
  7
STYLE1
  9
$DIMAUNIT
 70
     0
  9
$DIMADEC
 70
     0
  9
$DIMALTRND
 40
0.0
  9
$DIMAZIN
 70
     0
  9
$DIMDSEP
 70
    46
  9
$DIMATFIT
 70
     3
  9
$DIMFRAC
 70
     0
  9
$DIMLDRBLK
  1
DOTSMALL
  9
$DIMLUNIT
 70
     2
  9
$DIMLWD
 70
    -2
  9
$DIMLWE
 70
    -2
  9
$DIMTMOVE
 70
     0
  9
$LUNITS
 70
     2
  9
$LUPREC
 70
     1
  9
$SKETCHINC
 40
1.0
  9
$FILLETRAD
 40
2.299999999999999
  9
$AUNITS
 70
     0
  9
$AUPREC
 70
     0
  9
$MENU
  1
acad
  9
$ELEVATION
 40
0.0
  9
$PELEVATION
 40
0.0
  9
$THICKNESS
 40
0.0
  9
$LIMCHECK
 70
     0
  9
$CHAMFERA
 40
3.0
  9
$CHAMFERB
 40
3.0
  9
$CHAMFERC
 40
0.0
  9
$CHAMFERD
 40
0.0
  9
$SKPOLY
 70
     0
  9
$TDCREATE
 40
2451368.612993866
  9
$TDUCREATE
 40
2451368.237993866
  9
$TDUPDATE
 40
2455817.627950116
  9
$TDUUPDATE
 40
2455817.252950116
  9
$TDINDWG
 40
1.6810477778
  9
$TDUSRTIMER
 40
1.6810477778
  9
$USRTIMER
 70
     1
  9
$ANGBASE
 50
0.0
  9
$ANGDIR
 70
     0
  9
$PDMODE
 70
     3
  9
$PDSIZE
 40
2.0
  9
$PLINEWID
 40
0.0
  9
$SPLFRAME
 70
     0
  9
$SPLINETYPE
 70
     6
  9
$SPLINESEGS
 70
     8
  9
$HANDSEED
  5
21D31
  9
$SURFTAB1
 70
     6
  9
$SURFTAB2
 70
     6
  9
$SURFTYPE
 70
     6
  9
$SURFU
 70
     6
  9
$SURFV
 70
     6
  9
$UCSBASE
  2

  9
$UCSNAME
  2

  9
$UCSORG
 10
0.0
 20
0.0
 30
0.0
  9
$UCSXDIR
 10
1.0
 20
0.0
 30
0.0
  9
$UCSYDIR
 10
0.0
 20
1.0
 30
0.0
  9
$UCSORTHOREF
  2

  9
$UCSORTHOVIEW
 70
     0
  9
$UCSORGTOP
 10
0.0
 20
0.0
 30
0.0
  9
$UCSORGBOTTOM
 10
0.0
 20
0.0
 30
0.0
  9
$UCSORGLEFT
 10
0.0
 20
0.0
 30
0.0
  9
$UCSORGRIGHT
 10
0.0
 20
0.0
 30
0.0
  9
$UCSORGFRONT
 10
0.0
 20
0.0
 30
0.0
  9
$UCSORGBACK
 10
0.0
 20
0.0
 30
0.0
  9
$PUCSBASE
  2

  9
$PUCSNAME
  2

  9
$PUCSORG
 10
0.0
 20
0.0
 30
0.0
  9
$PUCSXDIR
 10
1.0
 20
0.0
 30
0.0
  9
$PUCSYDIR
 10
0.0
 20
1.0
 30
0.0
  9
$PUCSORTHOREF
  2

  9
$PUCSORTHOVIEW
 70
     0
  9
$PUCSORGTOP
 10
0.0
 20
0.0
 30
0.0
  9
$PUCSORGBOTTOM
 10
0.0
 20
0.0
 30
0.0
  9
$PUCSORGLEFT
 10
0.0
 20
0.0
 30
0.0
  9
$PUCSORGRIGHT
 10
0.0
 20
0.0
 30
0.0
  9
$PUCSORGFRONT
 10
0.0
 20
0.0
 30
0.0
  9
$PUCSORGBACK
 10
0.0
 20
0.0
 30
0.0
  9
$USERI1
 70
     0
  9
$USERI2
 70
     0
  9
$USERI3
 70
     0
  9
$USERI4
 70
     0
  9
$USERI5
 70
     0
  9
$USERR1
 40
0.0
  9
$USERR2
 40
0.0
  9
$USERR3
 40
0.0
  9
$USERR4
 40
0.0
  9
$USERR5
 40
0.0
  9
$WORLDVIEW
 70
     1
  9
$SHADEDGE
 70
     3
  9
$SHADEDIF
 70
    70
  9
$TILEMODE
 70
     1
  9
$MAXACTVP
 70
    16
  9
$PINSBASE
 10
0.0
 20
0.0
 30
0.0
  9
$PLIMCHECK
 70
     0
  9
$PEXTMIN
 10
1.000000000000000E+20
 20
1.000000000000000E+20
 30
1.000000000000000E+20
  9
$PEXTMAX
 10
-1.000000000000000E+20
 20
-1.000000000000000E+20
 30
-1.000000000000000E+20
  9
$PLIMMIN
 10
0.0
 20
0.0
  9
$PLIMMAX
 10
420.0
 20
297.0
  9
$UNITMODE
 70
     0
  9
$VISRETAIN
 70
     0
  9
$PLINEGEN
 70
     0
  9
$PSLTSCALE
 70
     0
  9
$TREEDEPTH
 70
  3020
  9
$CMLSTYLE
  2
STANDARD
  9
$CMLJUST
 70
     0
  9
$CMLSCALE
 40
1.0
  9
$PROXYGRAPHICS
 70
     1
  9
$MEASUREMENT
 70
     1
  9
$CELWEIGHT
370
    -1
  9
$ENDCAPS
280
     0
  9
$JOINSTYLE
280
     0
  9
$LWDISPLAY
290
     0
  9
$INSUNITS
 70
     0
  9
$HYPERLINKBASE
  1

  9
$STYLESHEET
  1
inaba.ctb
  9
$XEDIT
290
     1
  9
$CEPSNTYPE
380
     0
  9
$PSTYLEMODE
290
     1
  9
$FINGERPRINTGUID
  2
{3B57B35E-7D77-4BBF-81B7-6C583B9EB24C}
  9
$VERSIONGUID
  2
{F6A062B1-98DE-46B2-B1CA-3C6A01489E7F}
  9
$EXTNAMES
290
     1
  9
$PSVPSCALE
 40
0.0
  9
$OLESTARTUP
290
     0
  0
ENDSEC
  0
SECTION
  2
CLASSES
  0
CLASS
  1
ACDBDICTIONARYWDFLT
  2
AcDbDictionaryWithDefault
  3
ObjectDBX Classes
 90
        0
280
     0
281
     0
  0
CLASS
  1
DICTIONARYVAR
  2
AcDbDictionaryVar
  3
ObjectDBX Classes
 90
        0
280
     0
281
     0
  0
CLASS
  1
ACDBPLACEHOLDER
  2
AcDbPlaceHolder
  3
ObjectDBX Classes
 90
        0
280
     0
281
     0
  0
CLASS
  1
LAYOUT
  2
AcDbLayout
  3
ObjectDBX Classes
 90
        0
280
     0
281
     0
  0
ENDSEC
  0
SECTION
  2
TABLES
  0
TABLE
  2
VPORT
  5
746D
330
0
100
AcDbSymbolTable
 70
     2
  0
VPORT
  5
21D29
330
746D
100
AcDbSymbolTableRecord
100
AcDbViewportTableRecord
  2
*Active
 70
     0
 10
0.0
 20
0.0
 11
1.0
 21
1.0
 12
8528.933037789036
 22
5704.964595529282
 13
0.0
 23
0.0
 14
10.0
 24
10.0
 15
10.0
 25
10.0
 16
0.0
 26
0.0
 36
1.0
 17
0.0
 27
0.0
 37
0.0
 40
11496.59611099551
 41
1.58160621761658
 42
50.0
 43
0.0
 44
0.0
 50
0.0
 51
0.0
 71
     0
 72
     0
 73
     1
 74
     0
 75
     0
 76
     0
 77
     0
 78
     0
281
     0
 65
     1
110
0.0
120
0.0
130
0.0
111
1.0
121
0.0
131
0.0
112
0.0
122
1.0
132
0.0
 79
     0
146
0.0
  0
ENDTAB
  0
TABLE
  2
LTYPE
  5
746A
330
0
100
AcDbSymbolTable
 70
     3
  0
LTYPE
  5
7477
330
746A
100
AcDbSymbolTableRecord
100
AcDbLinetypeTableRecord
  2
BYBLOCK
 70
     0
  3

 72
    65
 73
     0
 40
0.0
  0
LTYPE
  5
7478
330
746A
100
AcDbSymbolTableRecord
100
AcDbLinetypeTableRecord
  2
BYLAYER
 70
     0
  3

 72
    65
 73
     0
 40
0.0
  0
LTYPE
  5
7479
330
746A
100
AcDbSymbolTableRecord
100
AcDbLinetypeTableRecord
  2
CONTINUOUS
 70
     0
  3
Solid line
 72
    65
 73
     0
 40
0.0
  0
LTYPE
  5
7816
330
746A
100
AcDbSymbolTableRecord
100
AcDbLinetypeTableRecord
  2
CENTER
 70
     0
  3
____ _ ____ _ ____ _ ____ _ ____ _ ____ _ ____ 
 72
    65
 73
     4
 40
2.0
 49
1.25
 74
     0
 49
-0.25
 74
     0
 49
0.25
 74
     0
 49
-0.25
 74
     0
  0
LTYPE
  5
781B
330
746A
100
AcDbSymbolTableRecord
100
AcDbLinetypeTableRecord
  2
PHANTOM
 70
     0
  3
______  __  __  ______  __  __  ______  __  __ 
 72
    65
 73
     6
 40
2.5
 49
1.25
 74
     0
 49
-0.25
 74
     0
 49
0.25
 74
     0
 49
-0.25
 74
     0
 49
0.25
 74
     0
 49
-0.25
 74
     0
  0
ENDTAB
  0
TABLE
  2
LAYER
  5
7467
102
{ACAD_XDICTIONARY
360
2175A
102
}
330
0
100
AcDbSymbolTable
 70
    10
  0
LAYER
  5
7474
330
7467
100
AcDbSymbolTableRecord
100
AcDbLayerTableRecord
  2
0
 70
     0
 62
     7
  6
CONTINUOUS
370
    -3
390
159AE
  0
LAYER
  5
DEB2
330
7467
100
AcDbSymbolTableRecord
100
AcDbLayerTableRecord
  2
センター
 70
     0
 62
     3
  6
CENTER
370
    -3
390
159AE
  0
LAYER
  5
DEB3
330
7467
100
AcDbSymbolTableRecord
100
AcDbLayerTableRecord
  2
寸法
 70
     0
 62
     4
  6
CONTINUOUS
370
    -3
390
159AE
  0
LAYER
  5
DEB4
330
7467
100
AcDbSymbolTableRecord
100
AcDbLayerTableRecord
  2
部品1
 70
     0
 62
     7
  6
CONTINUOUS
370
    -3
390
159AE
  0
LAYER
  5
DEB5
330
7467
100
AcDbSymbolTableRecord
100
AcDbLayerTableRecord
  2
補助
 70
     0
 62
    -1
  6
CONTINUOUS
370
    -3
390
159AE
  0
LAYER
  5
DEB6
330
7467
100
AcDbSymbolTableRecord
100
AcDbLayerTableRecord
  2
文字
 70
     0
 62
     7
  6
CONTINUOUS
370
    -3
390
159AE
  0
LAYER
  5
F255
330
7467
100
AcDbSymbolTableRecord
100
AcDbLayerTableRecord
  2
DEFPOINTS
 70
     0
 62
     7
  6
CONTINUOUS
290
     0
370
    -3
390
159AE
  0
LAYER
  5
10B54
330
7467
100
AcDbSymbolTableRecord
100
AcDbLayerTableRecord
  2
仕様書枠
 70
     0
 62
   230
  6
CONTINUOUS
370
    -3
390
159AE
  0
LAYER
  5
1173F
330
7467
100
AcDbSymbolTableRecord
100
AcDbLayerTableRecord
  2
細線
 70
     0
 62
     5
  6
CONTINUOUS
370
    -3
390
159AE
  0
LAYER
  5
12CC4
330
7467
100
AcDbSymbolTableRecord
100
AcDbLayerTableRecord
  2
想像線
 70
     0
 62
     6
  6
PHANTOM
370
    -3
390
159AE
  0
ENDTAB
  0
TABLE
  2
STYLE
  5
7468
330
0
100
AcDbSymbolTable
 70
     3
  0
STYLE
  5
7475
330
7468
100
AcDbSymbolTableRecord
100
AcDbTextStyleTableRecord
  2
STANDARD
 70
     0
 40
0.0
 41
1.0
 50
0.0
 71
     0
 42
4.0
  3
txt
  4
C:\AutoCAD LT\bigfont.shx
  0
STYLE
  5
F706
330
7468
100
AcDbSymbolTableRecord
100
AcDbTextStyleTableRecord
  2
STYLE1
 70
     0
 40
0.0
 41
1.0
 50
0.0
 71
     0
 42
100.0
  3
isocp.shx
  4
bigfont.shx
  0
STYLE
  5
103BF
330
7468
100
AcDbSymbolTableRecord
100
AcDbTextStyleTableRecord
  2
STYLE2
 70
     0
 40
0.0
 41
1.0
 50
0.0
 71
     0
 42
100.0
  3
MS PGothic.ttf
  4

1001
ACAD
1000
MS PGothic
1071
    32818
  0
ENDTAB
  0
TABLE
  2
VIEW
  5
746B
330
0
100
AcDbSymbolTable
 70
     0
  0
ENDTAB
  0
TABLE
  2
UCS
  5
746C
330
0
100
AcDbSymbolTable
 70
     0
  0
ENDTAB
  0
TABLE
  2
APPID
  5
746E
330
0
100
AcDbSymbolTable
 70
     6
  0
APPID
  5
7476
330
746E
100
AcDbSymbolTableRecord
100
AcDbRegAppTableRecord
  2
ACAD
 70
     0
  0
APPID
  5
DEA9
330
746E
100
AcDbSymbolTableRecord
100
AcDbRegAppTableRecord
  2
CONTENTBLOCKICON
 70
     0
  0
APPID
  5
DEAA
330
746E
100
AcDbSymbolTableRecord
100
AcDbRegAppTableRecord
  2
CONTENTBLOCKDESCRIPTION
 70
     0
  0
APPID
  5
E71D
330
746E
100
AcDbSymbolTableRecord
100
AcDbRegAppTableRecord
  2
CONTENTTABDATA
 70
     0
  0
APPID
  5
E71E
330
746E
100
AcDbSymbolTableRecord
100
AcDbRegAppTableRecord
  2
CONTENTCURRENTTAB
 70
     0
  0
APPID
  5
F3BA
330
746E
100
AcDbSymbolTableRecord
100
AcDbRegAppTableRecord
  2
DRAWINGVARIABLESXDATA
 70
     0
  0
ENDTAB
  0
TABLE
  2
DIMSTYLE
  5
746F
330
0
100
AcDbSymbolTable
 70
     1
100
AcDbDimStyleTable
 71
     1
340
F71F
  0
DIMSTYLE
105
F71F
102
{ACAD_REACTORS
330
21AAA
330
219BA
330
21921
330
2191B
330
21919
330
21904
330
218C2
330
218C1
330
218C0
330
218B3
330
218B2
330
218AF
330
218AE
330
218AC
330
218AB
330
218A8
330
218A5
330
218A3
330
218A2
330
2189F
330
206A3
330
206A2
330
20342
330
1FEC1
330
1FE4B
330
1F249
330
1F248
330
1F11C
330
1E98B
330
1E96D
330
1E701
330
1D946
330
1D942
330
1D93F
330
1D93E
330
1D934
330
1D933
330
1D92D
330
1D92C
330
1D929
330
1D927
330
1D926
330
1D925
330
1D920
330
1D91D
330
1D91C
330
1D91B
102
}
330
746F
100
AcDbSymbolTableRecord
100
AcDbDimStyleTableRecord
  2
INABA_S40G
 70
     0
 40
40.0
 41
2.5
 42
0.5
 43
7.0
 44
1.5
 73
     0
 74
     0
 77
     3
 78
     8
140
3.0
141
0.0
143
0.0394
147
1.0
172
     1
173
     1
174
     1
178
     7
271
     1
288
     1
340
F706
341
F770
343
F770
344
F770
  0
ENDTAB
  0
TABLE
  2
BLOCK_RECORD
  5
7466
330
0
100
AcDbSymbolTable
 70
    31
  0
BLOCK_RECORD
  5
747D
330
7466
100
AcDbSymbolTableRecord
100
AcDbBlockTableRecord
  2
*MODEL_SPACE
340
159B3
  0
BLOCK_RECORD
  5
747A
330
7466
100
AcDbSymbolTableRecord
100
AcDbBlockTableRecord
  2
*PAPER_SPACE
340
159B4
  0
BLOCK_RECORD
  5
F770
330
7466
100
AcDbSymbolTableRecord
100
AcDbBlockTableRecord
  2
_DOTSMALL
340
0
102
{BLKREFS
331
21BC0
331
21BC1
331
21BCB
331
21BCC
331
21BD4
331
21BD5
331
21BDD
331
21BDE
331
21BE6
331
21BE7
331
21BEF
331
21BF0
331
21C02
331
21C03
331
21C0C
331
21C0D
331
21C15
331
21C16
331
21C1E
331
21C1F
331
21C27
331
21C28
331
21C30
331
21C31
331
21C39
331
21C3A
331
21C42
331
21C43
331
21C4C
331
21C4D
331
21C57
331
21C58
331
21C61
331
21C62
331
21C6C
331
21C6D
331
21C76
331
21C77
331
21C81
331
21C82
331
21C8B
331
21C8C
331
21C94
331
21C95
331
21C9D
331
21C9E
331
21CA8
331
21CA9
331
21CB2
331
21CB3
331
21CBB
331
21CBC
331
21CC4
331
21CC5
331
21CED
331
21CEE
331
21CF7
331
21CF8
331
21D09
331
21D0A
102
}
  0
BLOCK_RECORD
  5
1DA44
330
7466
100
AcDbSymbolTableRecord
100
AcDbBlockTableRecord
  2
*D1
340
0
  0
BLOCK_RECORD
  5
1DA51
330
7466
100
AcDbSymbolTableRecord
100
AcDbBlockTableRecord
  2
*D2
340
0
  0
BLOCK_RECORD
  5
1DA5E
330
7466
100
AcDbSymbolTableRecord
100
AcDbBlockTableRecord
  2
*D3
340
0
  0
BLOCK_RECORD
  5
1DA69
330
7466
100
AcDbSymbolTableRecord
100
AcDbBlockTableRecord
  2
*D4
340
0
  0
BLOCK_RECORD
  5
1DA74
330
7466
100
AcDbSymbolTableRecord
100
AcDbBlockTableRecord
  2
*D5
340
0
  0
BLOCK_RECORD
  5
1DA81
330
7466
100
AcDbSymbolTableRecord
100
AcDbBlockTableRecord
  2
*D6
340
0
  0
BLOCK_RECORD
  5
1DA8E
330
7466
100
AcDbSymbolTableRecord
100
AcDbBlockTableRecord
  2
*D7
340
0
  0
BLOCK_RECORD
  5
1DA9A
330
7466
100
AcDbSymbolTableRecord
100
AcDbBlockTableRecord
  2
*D8
340
0
  0
BLOCK_RECORD
  5
1DAA5
330
7466
100
AcDbSymbolTableRecord
100
AcDbBlockTableRecord
  2
*D9
340
0
  0
BLOCK_RECORD
  5
1DAB2
330
7466
100
AcDbSymbolTableRecord
100
AcDbBlockTableRecord
  2
*D10
340
0
  0
BLOCK_RECORD
  5
1DABE
330
7466
100
AcDbSymbolTableRecord
100
AcDbBlockTableRecord
  2
*D11
340
0
  0
BLOCK_RECORD
  5
1DACB
330
7466
100
AcDbSymbolTableRecord
100
AcDbBlockTableRecord
  2
*D12
340
0
  0
BLOCK_RECORD
  5
1DAD9
330
7466
100
AcDbSymbolTableRecord
100
AcDbBlockTableRecord
  2
*D13
340
0
  0
BLOCK_RECORD
  5
1DAE6
330
7466
100
AcDbSymbolTableRecord
100
AcDbBlockTableRecord
  2
*D14
340
0
  0
BLOCK_RECORD
  5
1DAF3
330
7466
100
AcDbSymbolTableRecord
100
AcDbBlockTableRecord
  2
*D15
340
0
  0
BLOCK_RECORD
  5
1E9D0
330
7466
100
AcDbSymbolTableRecord
100
AcDbBlockTableRecord
  2
*D16
340
0
  0
BLOCK_RECORD
  5
1EA32
330
7466
100
AcDbSymbolTableRecord
100
AcDbBlockTableRecord
  2
*D17
340
0
  0
BLOCK_RECORD
  5
1F24A
330
7466
100
AcDbSymbolTableRecord
100
AcDbBlockTableRecord
  2
*D18
340
0
  0
BLOCK_RECORD
  5
1F255
330
7466
100
AcDbSymbolTableRecord
100
AcDbBlockTableRecord
  2
*D19
340
0
  0
BLOCK_RECORD
  5
1FE4C
330
7466
100
AcDbSymbolTableRecord
100
AcDbBlockTableRecord
  2
*D20
340
0
  0
BLOCK_RECORD
  5
20343
330
7466
100
AcDbSymbolTableRecord
100
AcDbBlockTableRecord
  2
*D21
340
0
  0
BLOCK_RECORD
  5
20706
330
7466
100
AcDbSymbolTableRecord
100
AcDbBlockTableRecord
  2
*D22
340
0
  0
BLOCK_RECORD
  5
20713
330
7466
100
AcDbSymbolTableRecord
100
AcDbBlockTableRecord
  2
*D23
340
0
  0
BLOCK_RECORD
  5
219CA
330
7466
100
AcDbSymbolTableRecord
100
AcDbBlockTableRecord
  2
*D24
340
0
  0
BLOCK_RECORD
  5
219D6
330
7466
100
AcDbSymbolTableRecord
100
AcDbBlockTableRecord
  2
*D25
340
0
  0
BLOCK_RECORD
  5
219E2
330
7466
100
AcDbSymbolTableRecord
100
AcDbBlockTableRecord
  2
*D26
340
0
  0
BLOCK_RECORD
  5
219EE
330
7466
100
AcDbSymbolTableRecord
100
AcDbBlockTableRecord
  2
*D27
340
0
  0
BLOCK_RECORD
  5
219FA
330
7466
100
AcDbSymbolTableRecord
100
AcDbBlockTableRecord
  2
*D28
340
0
  0
BLOCK_RECORD
  5
21A05
330
7466
100
AcDbSymbolTableRecord
100
AcDbBlockTableRecord
  2
*D29
340
0
  0
BLOCK_RECORD
  5
21AAB
330
7466
100
AcDbSymbolTableRecord
100
AcDbBlockTableRecord
  2
*D30
340
0
  0
ENDTAB
  0
ENDSEC
  0
SECTION
  2
BLOCKS
  0
BLOCK
  5
7489
330
747D
100
AcDbEntity
  8
0
100
AcDbBlockBegin
  2
*MODEL_SPACE
 70
     0
 10
0.0
 20
0.0
 30
0.0
  3
*MODEL_SPACE
  1

  0
ENDBLK
  5
748A
330
747D
100
AcDbEntity
  8
0
100
AcDbBlockEnd
  0
BLOCK
  5
7487
330
747A
100
AcDbEntity
 67
     1
  8
0
100
AcDbBlockBegin
  2
*PAPER_SPACE
 70
     0
 10
0.0
 20
0.0
 30
0.0
  3
*PAPER_SPACE
  1

  0
ENDBLK
  5
7488
330
747A
100
AcDbEntity
 67
     1
  8
0
100
AcDbBlockEnd
  0
BLOCK
  5
F771
330
F770
100
AcDbEntity
  8
0
 48
50.0
100
AcDbBlockBegin
  2
_DOTSMALL
 70
     0
 10
0.0
 20
0.0
 30
0.0
  3
_DOTSMALL
  1

  0
LWPOLYLINE
  5
F772
330
F770
100
AcDbEntity
  8
0
  6
ByBlock
 62
     0
 48
50.0
100
AcDbPolyline
 90
        2
 70
     1
 43
0.5
 10
-0.0625
 20
0.0
 42
1.0
 10
0.0625
 20
0.0
 42
1.0
  0
ENDBLK
  5
F776
330
F770
100
AcDbEntity
  8
0
 48
50.0
100
AcDbBlockEnd
  0
BLOCK
  5
1DA4F
330
1DA44
100
AcDbEntity
  8
0
 48
50.0
100
AcDbBlockBegin
  2
*D1
 70
     1
 10
0.0
 20
0.0
 30
0.0
  3
*D1
  1

  0
LINE
  5
21CF3
330
1DA44
100
AcDbEntity
  8
寸法
 62
     0
 48
50.0
370
    -2
100
AcDbLine
 10
7165.157340025515
 20
5472.919036112859
 30
0.0
 11
7421.864589901614
 21
5472.919036112859
 31
0.0
  0
LINE
  5
21CF4
330
1DA44
100
AcDbEntity
  8
寸法
 62
     0
 48
50.0
370
    -2
100
AcDbLine
 10
7165.157340025515
 20
5602.919036112863
 30
0.0
 11
7421.864589901614
 21
5602.919036112863
 31
0.0
  0
LINE
  5
21CF5
330
1DA44
100
AcDbEntity
  8
寸法
 62
     0
 48
50.0
370
    -2
100
AcDbLine
 10
7361.864589901614
 20
5472.919036112859
 30
0.0
 11
7361.864589901614
 21
5602.919036112863
 31
0.0
  0
LINE
  5
21CF6
330
1DA44
100
AcDbEntity
  8
寸法
 62
     0
 48
50.0
370
    -2
100
AcDbLine
 10
7361.864589901614
 20
5602.919036112863
 30
0.0
 11
7361.864589901614
 21
5975.013524301839
 31
0.0
  0
INSERT
  5
21CF7
330
1DA44
100
AcDbEntity
  8
寸法
 62
     0
 48
50.0
370
    -2
100
AcDbBlockReference
  2
_DOTSMALL
 10
7361.864589901614
 20
5472.919036112859
 30
0.0
 41
100.0
 42
100.0
 43
100.0
 50
270.0
  0
INSERT
  5
21CF8
330
1DA44
100
AcDbEntity
  8
寸法
 62
     0
 48
50.0
370
    -2
100
AcDbBlockReference
  2
_DOTSMALL
 10
7361.864589901614
 20
5602.919036112863
 30
0.0
 41
100.0
 42
100.0
 43
100.0
 50
90.0
  0
MTEXT
  5
21CF9
330
1DA44
100
AcDbEntity
  8
寸法
 62
     7
 48
50.0
100
AcDbMText
 10
7261.864589901612
 20
5838.966280207354
 30
0.0
 40
120.0
 41
0.0
 71
     5
 72
     1
  1
\A1;130
  7
STYLE1
 11
0.0000000000000001
 21
1.0
 31
0.0
 73
     1
 44
1.0
1001
ACAD
1000
MTEXTBEGIN
1070
    73
1070
     1
1070
    44
1040
1.0
1070
    74
1070
     0
1000
MTEXTEND
  0
POINT
  5
21CFA
330
1DA44
100
AcDbEntity
  8
DEFPOINTS
 62
     0
 48
50.0
100
AcDbPoint
 10
7145.157340025516
 20
5472.919036112859
 30
0.0
  0
POINT
  5
21CFB
330
1DA44
100
AcDbEntity
  8
DEFPOINTS
 62
     0
 48
50.0
100
AcDbPoint
 10
7145.157340025516
 20
5602.919036112863
 30
0.0
  0
POINT
  5
21CFC
330
1DA44
100
AcDbEntity
  8
DEFPOINTS
 62
     0
 48
50.0
100
AcDbPoint
 10
7361.864589901614
 20
5602.919036112863
 30
0.0
  0
ENDBLK
  5
1DA50
330
1DA44
100
AcDbEntity
  8
0
 48
50.0
100
AcDbBlockEnd
  0
BLOCK
  5
1DA5C
330
1DA51
100
AcDbEntity
  8
0
 48
50.0
100
AcDbBlockBegin
  2
*D2
 70
     1
 10
0.0
 20
0.0
 30
0.0
  3
*D2
  1

  0
LINE
  5
21CE9
330
1DA51
100
AcDbEntity
  8
寸法
 62
     0
 48
50.0
370
    -2
100
AcDbLine
 10
7165.157340025515
 20
5472.91903611286
 30
0.0
 11
7421.864589901614
 21
5472.91903611286
 31
0.0
  0
LINE
  5
21CEA
330
1DA51
100
AcDbEntity
  8
寸法
 62
     0
 48
50.0
370
    -2
100
AcDbLine
 10
7165.157340025515
 20
5302.919036112861
 30
0.0
 11
7421.864589901614
 21
5302.919036112861
 31
0.0
  0
LINE
  5
21CEB
330
1DA51
100
AcDbEntity
  8
寸法
 62
     0
 48
50.0
370
    -2
100
AcDbLine
 10
7361.864589901614
 20
5472.91903611286
 30
0.0
 11
7361.864589901614
 21
5302.919036112861
 31
0.0
  0
LINE
  5
21CEC
330
1DA51
100
AcDbEntity
  8
寸法
 62
     0
 48
50.0
370
    -2
100
AcDbLine
 10
7361.864589901614
 20
5302.919036112861
 30
0.0
 11
7361.864589901614
 21
4930.614888094229
 31
0.0
  0
INSERT
  5
21CED
330
1DA51
100
AcDbEntity
  8
寸法
 62
     0
 48
50.0
370
    -2
100
AcDbBlockReference
  2
_DOTSMALL
 10
7361.864589901614
 20
5472.91903611286
 30
0.0
 41
100.0
 42
100.0
 43
100.0
 50
90.0
  0
INSERT
  5
21CEE
330
1DA51
100
AcDbEntity
  8
寸法
 62
     0
 48
50.0
370
    -2
100
AcDbBlockReference
  2
_DOTSMALL
 10
7361.864589901614
 20
5302.919036112861
 30
0.0
 41
100.0
 42
100.0
 43
100.0
 50
270.0
  0
MTEXT
  5
21CEF
330
1DA51
100
AcDbEntity
  8
寸法
 62
     7
 48
50.0
100
AcDbMText
 10
7261.864589901612
 20
5066.662132188719
 30
0.0
 40
120.0
 41
0.0
 71
     5
 72
     1
  1
\A1;170
  7
STYLE1
 11
0.0000000000000001
 21
1.0
 31
0.0
 73
     1
 44
1.0
1001
ACAD
1000
MTEXTBEGIN
1070
    73
1070
     1
1070
    44
1040
1.0
1070
    74
1070
     0
1000
MTEXTEND
  0
POINT
  5
21CF0
330
1DA51
100
AcDbEntity
  8
DEFPOINTS
 62
     0
 48
50.0
100
AcDbPoint
 10
7145.157340025516
 20
5472.91903611286
 30
0.0
  0
POINT
  5
21CF1
330
1DA51
100
AcDbEntity
  8
DEFPOINTS
 62
     0
 48
50.0
100
AcDbPoint
 10
7145.157340025516
 20
5302.919036112861
 30
0.0
  0
POINT
  5
21CF2
330
1DA51
100
AcDbEntity
  8
DEFPOINTS
 62
     0
 48
50.0
100
AcDbPoint
 10
7361.864589901614
 20
5302.919036112861
 30
0.0
  0
ENDBLK
  5
1DA5D
330
1DA51
100
AcDbEntity
  8
0
 48
50.0
100
AcDbBlockEnd
  0
BLOCK
  5
1DA67
330
1DA5E
100
AcDbEntity
  8
0
 48
50.0
100
AcDbBlockBegin
  2
*D3
 70
     1
 10
0.0
 20
0.0
 30
0.0
  3
*D3
  1

  0
LINE
  5
21CC1
330
1DA5E
100
AcDbEntity
  8
寸法
 62
     0
 48
50.0
370
    -2
100
AcDbLine
 10
9012.157340025515
 20
7469.91903611286
 30
0.0
 11
9012.157340025515
 21
8336.250847072712
 31
0.0
  0
LINE
  5
21CC2
330
1DA5E
100
AcDbEntity
  8
寸法
 62
     0
 48
50.0
370
    -2
100
AcDbLine
 10
7038.157340025515
 20
7469.91903611286
 30
0.0
 11
7038.157340025515
 21
8336.250847072712
 31
0.0
  0
LINE
  5
21CC3
330
1DA5E
100
AcDbEntity
  8
寸法
 62
     0
 48
50.0
370
    -2
100
AcDbLine
 10
9012.157340025515
 20
8276.250847072711
 30
0.0
 11
7038.157340025515
 21
8276.250847072711
 31
0.0
  0
INSERT
  5
21CC4
330
1DA5E
100
AcDbEntity
  8
寸法
 62
     0
 48
50.0
370
    -2
100
AcDbBlockReference
  2
_DOTSMALL
 10
9012.157340025515
 20
8276.250847072711
 30
0.0
 41
100.0
 42
100.0
 43
100.0
  0
INSERT
  5
21CC5
330
1DA5E
100
AcDbEntity
  8
寸法
 62
     0
 48
50.0
370
    -2
100
AcDbBlockReference
  2
_DOTSMALL
 10
7038.157340025515
 20
8276.250847072711
 30
0.0
 41
100.0
 42
100.0
 43
100.0
 50
180.0
  0
MTEXT
  5
21CC6
330
1DA5E
100
AcDbEntity
  8
寸法
 62
     7
 48
50.0
100
AcDbMText
 10
8025.157340025515
 20
8376.250847072711
 30
0.0
 40
120.0
 41
0.0
 71
     5
 72
     1
  1
\A1;1974
  7
STYLE1
 73
     1
 44
1.0
1001
ACAD
1000
MTEXTBEGIN
1070
    73
1070
     1
1070
    44
1040
1.0
1070
    74
1070
     0
1000
MTEXTEND
  0
POINT
  5
21CC7
330
1DA5E
100
AcDbEntity
  8
DEFPOINTS
 62
     0
 48
50.0
100
AcDbPoint
 10
9012.157340025515
 20
7449.919036112861
 30
0.0
  0
POINT
  5
21CC8
330
1DA5E
100
AcDbEntity
  8
DEFPOINTS
 62
     0
 48
50.0
100
AcDbPoint
 10
7038.157340025515
 20
7449.919036112861
 30
0.0
  0
POINT
  5
21CC9
330
1DA5E
100
AcDbEntity
  8
DEFPOINTS
 62
     0
 48
50.0
100
AcDbPoint
 10
7038.157340025515
 20
8276.250847072711
 30
0.0
  0
ENDBLK
  5
1DA68
330
1DA5E
100
AcDbEntity
  8
0
 48
50.0
100
AcDbBlockEnd
  0
BLOCK
  5
1DA72
330
1DA69
100
AcDbEntity
  8
0
 48
50.0
100
AcDbBlockBegin
  2
*D4
 70
     1
 10
0.0
 20
0.0
 30
0.0
  3
*D4
  1

  0
LINE
  5
21CB8
330
1DA69
100
AcDbEntity
  8
寸法
 62
     0
 48
50.0
370
    -2
100
AcDbLine
 10
6915.157340025513
 20
7542.919036112859
 30
0.0
 11
6915.157340025513
 21
8548.711542589549
 31
0.0
  0
LINE
  5
21CB9
330
1DA69
100
AcDbEntity
  8
寸法
 62
     0
 48
50.0
370
    -2
100
AcDbLine
 10
9135.157340025514
 20
7542.919036112862
 30
0.0
 11
9135.157340025514
 21
8548.711542589549
 31
0.0
  0
LINE
  5
21CBA
330
1DA69
100
AcDbEntity
  8
寸法
 62
     0
 48
50.0
370
    -2
100
AcDbLine
 10
6915.157340025513
 20
8488.711542589548
 30
0.0
 11
9135.157340025514
 21
8488.711542589548
 31
0.0
  0
INSERT
  5
21CBB
330
1DA69
100
AcDbEntity
  8
寸法
 62
     0
 48
50.0
370
    -2
100
AcDbBlockReference
  2
_DOTSMALL
 10
6915.157340025513
 20
8488.711542589548
 30
0.0
 41
100.0
 42
100.0
 43
100.0
 50
180.0
  0
INSERT
  5
21CBC
330
1DA69
100
AcDbEntity
  8
寸法
 62
     0
 48
50.0
370
    -2
100
AcDbBlockReference
  2
_DOTSMALL
 10
9135.157340025514
 20
8488.711542589548
 30
0.0
 41
100.0
 42
100.0
 43
100.0
  0
MTEXT
  5
21CBD
330
1DA69
100
AcDbEntity
  8
寸法
 62
     7
 48
50.0
100
AcDbMText
 10
8025.157340025513
 20
8588.72335361317
 30
0.0
 40
120.0
 41
0.0
 71
     5
 72
     1
  1
\A1;2220
  7
STYLE1
 73
     1
 44
1.0
1001
ACAD
1000
MTEXTBEGIN
1070
    73
1070
     1
1070
    44
1040
1.0
1070
    74
1070
     0
1000
MTEXTEND
  0
POINT
  5
21CBE
330
1DA69
100
AcDbEntity
  8
DEFPOINTS
 62
     0
 48
50.0
100
AcDbPoint
 10
6915.157340025513
 20
7522.919036112859
 30
0.0
  0
POINT
  5
21CBF
330
1DA69
100
AcDbEntity
  8
DEFPOINTS
 62
     0
 48
50.0
100
AcDbPoint
 10
9135.157340025514
 20
7522.919036112861
 30
0.0
  0
POINT
  5
21CC0
330
1DA69
100
AcDbEntity
  8
DEFPOINTS
 62
     0
 48
50.0
100
AcDbPoint
 10
9135.157340025514
 20
8488.711542589548
 30
0.0
  0
ENDBLK
  5
1DA73
330
1DA69
100
AcDbEntity
  8
0
 48
50.0
100
AcDbBlockEnd
  0
BLOCK
  5
1DA7F
330
1DA74
100
AcDbEntity
  8
0
 48
50.0
100
AcDbBlockBegin
  2
*D5
 70
     1
 10
0.0
 20
0.0
 30
0.0
  3
*D5
  1

  0
LINE
  5
21CAE
330
1DA74
100
AcDbEntity
  8
寸法
 62
     0
 48
50.0
370
    -2
100
AcDbLine
 10
7038.157340025515
 20
7469.91903611286
 30
0.0
 11
7038.157340025515
 21
8336.250847072712
 31
0.0
  0
LINE
  5
21CAF
330
1DA74
100
AcDbEntity
  8
寸法
 62
     0
 48
50.0
370
    -2
100
AcDbLine
 10
6915.157340025513
 20
7542.919036112859
 30
0.0
 11
6915.157340025513
 21
8336.250847072712
 31
0.0
  0
LINE
  5
21CB0
330
1DA74
100
AcDbEntity
  8
寸法
 62
     0
 48
50.0
370
    -2
100
AcDbLine
 10
7038.157340025515
 20
8276.250847072711
 30
0.0
 11
6915.157340025513
 21
8276.250847072711
 31
0.0
  0
LINE
  5
21CB1
330
1DA74
100
AcDbEntity
  8
寸法
 62
     0
 48
50.0
370
    -2
100
AcDbLine
 10
6915.157340025513
 20
8276.250847072711
 30
0.0
 11
6538.186777277037
 21
8276.250847072711
 31
0.0
  0
INSERT
  5
21CB2
330
1DA74
100
AcDbEntity
  8
寸法
 62
     0
 48
50.0
370
    -2
100
AcDbBlockReference
  2
_DOTSMALL
 10
7038.157340025515
 20
8276.250847072711
 30
0.0
 41
100.0
 42
100.0
 43
100.0
  0
INSERT
  5
21CB3
330
1DA74
100
AcDbEntity
  8
寸法
 62
     0
 48
50.0
370
    -2
100
AcDbBlockReference
  2
_DOTSMALL
 10
6915.157340025513
 20
8276.250847072711
 30
0.0
 41
100.0
 42
100.0
 43
100.0
 50
180.0
  0
MTEXT
  5
21CB4
330
1DA74
100
AcDbEntity
  8
寸法
 62
     7
 48
50.0
100
AcDbMText
 10
6676.672058651274
 20
8376.262658096333
 30
0.0
 40
120.0
 41
0.0
 71
     5
 72
     1
  1
\A1;123
  7
STYLE1
 73
     1
 44
1.0
1001
ACAD
1000
MTEXTBEGIN
1070
    73
1070
     1
1070
    44
1040
1.0
1070
    74
1070
     0
1000
MTEXTEND
  0
POINT
  5
21CB5
330
1DA74
100
AcDbEntity
  8
DEFPOINTS
 62
     0
 48
50.0
100
AcDbPoint
 10
7038.157340025515
 20
7449.919036112861
 30
0.0
  0
POINT
  5
21CB6
330
1DA74
100
AcDbEntity
  8
DEFPOINTS
 62
     0
 48
50.0
100
AcDbPoint
 10
6915.157340025513
 20
7522.919036112859
 30
0.0
  0
POINT
  5
21CB7
330
1DA74
100
AcDbEntity
  8
DEFPOINTS
 62
     0
 48
50.0
100
AcDbPoint
 10
6915.157340025513
 20
8276.250847072711
 30
0.0
  0
ENDBLK
  5
1DA80
330
1DA74
100
AcDbEntity
  8
0
 48
50.0
100
AcDbBlockEnd
  0
BLOCK
  5
1DA8C
330
1DA81
100
AcDbEntity
  8
0
 48
50.0
100
AcDbBlockBegin
  2
*D6
 70
     1
 10
0.0
 20
0.0
 30
0.0
  3
*D6
  1

  0
LINE
  5
21CA3
330
1DA81
100
AcDbEntity
  8
寸法
 62
     0
 48
50.0
370
    -2
100
AcDbLine
 10
6870.157340025511
 20
8296.250847072711
 30
0.0
 11
6870.157340025511
 21
8548.711542589549
 31
0.0
  0
LINE
  5
21CA4
330
1DA81
100
AcDbEntity
  8
寸法
 62
     0
 48
50.0
370
    -2
100
AcDbLine
 10
6915.157340025515
 20
7691.190236682782
 30
0.0
 11
6915.157340025515
 21
8548.711542589549
 31
0.0
  0
LINE
  5
21CA5
330
1DA81
100
AcDbEntity
  8
寸法
 62
     0
 48
50.0
370
    -2
100
AcDbLine
 10
6870.157340025511
 20
8488.71154258955
 30
0.0
 11
6770.157340025511
 21
8488.71154258955
 31
0.0
  0
LINE
  5
21CA6
330
1DA81
100
AcDbEntity
  8
寸法
 62
     0
 48
50.0
370
    -2
100
AcDbLine
 10
6915.157340025515
 20
8488.71154258955
 30
0.0
 11
7015.157340025514
 21
8488.71154258955
 31
0.0
  0
LINE
  5
21CA7
330
1DA81
100
AcDbEntity
  8
寸法
 62
     0
 48
50.0
370
    -2
100
AcDbLine
 10
6870.157340025511
 20
8488.71154258955
 30
0.0
 11
6915.157340025515
 21
8488.71154258955
 31
0.0
  0
INSERT
  5
21CA8
330
1DA81
100
AcDbEntity
  8
寸法
 62
     0
 48
50.0
370
    -2
100
AcDbBlockReference
  2
_DOTSMALL
 10
6870.157340025511
 20
8488.71154258955
 30
0.0
 41
100.0
 42
100.0
 43
100.0
  0
INSERT
  5
21CA9
330
1DA81
100
AcDbEntity
  8
寸法
 62
     0
 48
50.0
370
    -2
100
AcDbBlockReference
  2
_DOTSMALL
 10
6915.157340025515
 20
8488.71154258955
 30
0.0
 41
100.0
 42
100.0
 43
100.0
 50
180.0
  0
MTEXT
  5
21CAA
330
1DA81
100
AcDbEntity
  8
寸法
 62
     7
 48
50.0
100
AcDbMText
 10
6892.657340025514
 20
8588.71154258955
 30
0.0
 40
120.0
 41
0.0
 71
     5
 72
     1
  1
\A1;a
  7
STYLE1
 73
     1
 44
1.0
1001
ACAD
1000
MTEXTBEGIN
1070
    73
1070
     1
1070
    44
1040
1.0
1070
    74
1070
     0
1000
MTEXTEND
  0
POINT
  5
21CAB
330
1DA81
100
AcDbEntity
  8
DEFPOINTS
 62
     0
 48
50.0
100
AcDbPoint
 10
6870.157340025511
 20
8276.250847072711
 30
0.0
  0
POINT
  5
21CAC
330
1DA81
100
AcDbEntity
  8
DEFPOINTS
 62
     0
 48
50.0
100
AcDbPoint
 10
6915.157340025515
 20
7671.190236682781
 30
0.0
  0
POINT
  5
21CAD
330
1DA81
100
AcDbEntity
  8
DEFPOINTS
 62
     0
 48
50.0
100
AcDbPoint
 10
6915.157340025515
 20
8488.71154258955
 30
0.0
  0
ENDBLK
  5
1DA8D
330
1DA81
100
AcDbEntity
  8
0
 48
50.0
100
AcDbBlockEnd
  0
BLOCK
  5
1DA98
330
1DA8E
100
AcDbEntity
  8
0
 48
50.0
100
AcDbBlockBegin
  2
*D7
 70
     1
 10
0.0
 20
0.0
 30
0.0
  3
*D7
  1

  0
LINE
  5
21C9A
330
1DA8E
100
AcDbEntity
  8
寸法
 62
     0
 48
50.0
370
    -2
100
AcDbLine
 10
6968.157340025515
 20
7399.919036112861
 30
0.0
 11
6359.215074011694
 21
7399.919036112861
 31
0.0
  0
LINE
  5
21C9B
330
1DA8E
100
AcDbEntity
  8
寸法
 62
     0
 48
50.0
370
    -2
100
AcDbLine
 10
6968.157340025523
 20
5500.919036112861
 30
0.0
 11
6359.215074011693
 21
5500.919036112861
 31
0.0
  0
LINE
  5
21C9C
330
1DA8E
100
AcDbEntity
  8
寸法
 62
     0
 48
50.0
370
    -2
100
AcDbLine
 10
6419.215074011694
 20
7399.919036112861
 30
0.0
 11
6419.215074011693
 21
5500.919036112861
 31
0.0
  0
INSERT
  5
21C9D
330
1DA8E
100
AcDbEntity
  8
寸法
 62
     0
 48
50.0
370
    -2
100
AcDbBlockReference
  2
_DOTSMALL
 10
6419.215074011694
 20
7399.919036112861
 30
0.0
 41
100.0
 42
100.0
 43
100.0
 50
90.0
  0
INSERT
  5
21C9E
330
1DA8E
100
AcDbEntity
  8
寸法
 62
     0
 48
50.0
370
    -2
100
AcDbBlockReference
  2
_DOTSMALL
 10
6419.215074011693
 20
5500.919036112861
 30
0.0
 41
100.0
 42
100.0
 43
100.0
 50
270.0
  0
MTEXT
  5
21C9F
330
1DA8E
100
AcDbEntity
  8
寸法
 62
     7
 48
50.0
100
AcDbMText
 10
6319.215074011692
 20
6407.92716086084
 30
0.0
 40
120.0
 41
0.0
 71
     5
 72
     1
  1
\A1;1899
  7
STYLE1
 11
0.0000000000000001
 21
1.0
 31
0.0
 73
     1
 44
1.0
1001
ACAD
1000
MTEXTBEGIN
1070
    73
1070
     1
1070
    44
1040
1.0
1070
    74
1070
     0
1000
MTEXTEND
  0
POINT
  5
21CA0
330
1DA8E
100
AcDbEntity
  8
DEFPOINTS
 62
     0
 48
50.0
100
AcDbPoint
 10
6988.157340025515
 20
7399.919036112861
 30
0.0
  0
POINT
  5
21CA1
330
1DA8E
100
AcDbEntity
  8
DEFPOINTS
 62
     0
 48
50.0
100
AcDbPoint
 10
6988.157340025523
 20
5500.919036112861
 30
0.0
  0
POINT
  5
21CA2
330
1DA8E
100
AcDbEntity
  8
DEFPOINTS
 62
     0
 48
50.0
100
AcDbPoint
 10
6419.215074011693
 20
5500.919036112861
 30
0.0
  0
ENDBLK
  5
1DA99
330
1DA8E
100
AcDbEntity
  8
0
 48
50.0
100
AcDbBlockEnd
  0
BLOCK
  5
1DAA3
330
1DA9A
100
AcDbEntity
  8
0
 48
50.0
100
AcDbBlockBegin
  2
*D8
 70
     1
 10
0.0
 20
0.0
 30
0.0
  3
*D8
  1

  0
LINE
  5
21C91
330
1DA9A
100
AcDbEntity
  8
寸法
 62
     0
 48
50.0
370
    -2
100
AcDbLine
 10
6895.157340025512
 20
7522.919036112863
 30
0.0
 11
6112.948649765358
 21
7522.919036112863
 31
0.0
  0
LINE
  5
21C92
330
1DA9A
100
AcDbEntity
  8
寸法
 62
     0
 48
50.0
370
    -2
100
AcDbLine
 10
6895.157340025516
 20
5302.91903611286
 30
0.0
 11
6112.948649765357
 21
5302.919036112861
 31
0.0
  0
LINE
  5
21C93
330
1DA9A
100
AcDbEntity
  8
寸法
 62
     0
 48
50.0
370
    -2
100
AcDbLine
 10
6172.948649765358
 20
7522.919036112863
 30
0.0
 11
6172.948649765357
 21
5302.91903611286
 31
0.0
  0
INSERT
  5
21C94
330
1DA9A
100
AcDbEntity
  8
寸法
 62
     0
 48
50.0
370
    -2
100
AcDbBlockReference
  2
_DOTSMALL
 10
6172.948649765358
 20
7522.919036112863
 30
0.0
 41
100.0
 42
100.0
 43
100.0
 50
90.0
  0
INSERT
  5
21C95
330
1DA9A
100
AcDbEntity
  8
寸法
 62
     0
 48
50.0
370
    -2
100
AcDbBlockReference
  2
_DOTSMALL
 10
6172.948649765357
 20
5302.91903611286
 30
0.0
 41
100.0
 42
100.0
 43
100.0
 50
270.0
  0
MTEXT
  5
21C96
330
1DA9A
100
AcDbEntity
  8
寸法
 62
     7
 48
50.0
100
AcDbMText
 10
6072.936838741735
 20
6404.048515710849
 30
0.0
 40
120.0
 41
0.0
 71
     5
 72
     1
  1
\A1;2220
  7
STYLE1
 11
0.0000000000000001
 21
1.0
 31
0.0
 73
     1
 44
1.0
1001
ACAD
1000
MTEXTBEGIN
1070
    73
1070
     1
1070
    44
1040
1.0
1070
    74
1070
     0
1000
MTEXTEND
  0
POINT
  5
21C97
330
1DA9A
100
AcDbEntity
  8
DEFPOINTS
 62
     0
 48
50.0
100
AcDbPoint
 10
6915.157340025513
 20
7522.919036112863
 30
0.0
  0
POINT
  5
21C98
330
1DA9A
100
AcDbEntity
  8
DEFPOINTS
 62
     0
 48
50.0
100
AcDbPoint
 10
6915.157340025515
 20
5302.91903611286
 30
0.0
  0
POINT
  5
21C99
330
1DA9A
100
AcDbEntity
  8
DEFPOINTS
 62
     0
 48
50.0
100
AcDbPoint
 10
6172.948649765357
 20
5302.91903611286
 30
0.0
  0
ENDBLK
  5
1DAA4
330
1DA9A
100
AcDbEntity
  8
0
 48
50.0
100
AcDbBlockEnd
  0
BLOCK
  5
1DAB0
330
1DAA5
100
AcDbEntity
  8
0
 48
50.0
100
AcDbBlockBegin
  2
*D9
 70
     1
 10
0.0
 20
0.0
 30
0.0
  3
*D9
  1

  0
LINE
  5
21C87
330
1DAA5
100
AcDbEntity
  8
寸法
 62
     0
 48
50.0
370
    -2
100
AcDbLine
 10
6968.157340025523
 20
5500.919036112861
 30
0.0
 11
6359.215074011694
 21
5500.919036112861
 31
0.0
  0
LINE
  5
21C88
330
1DAA5
100
AcDbEntity
  8
寸法
 62
     0
 48
50.0
370
    -2
100
AcDbLine
 10
6895.157340025516
 20
5302.91903611286
 30
0.0
 11
6359.215074011694
 21
5302.91903611286
 31
0.0
  0
LINE
  5
21C89
330
1DAA5
100
AcDbEntity
  8
寸法
 62
     0
 48
50.0
370
    -2
100
AcDbLine
 10
6419.215074011694
 20
5500.919036112861
 30
0.0
 11
6419.215074011694
 21
5302.91903611286
 31
0.0
  0
LINE
  5
21C8A
330
1DAA5
100
AcDbEntity
  8
寸法
 62
     0
 48
50.0
370
    -2
100
AcDbLine
 10
6419.215074011694
 20
5302.91903611286
 30
0.0
 11
6419.215074011694
 21
4930.499716453546
 31
0.0
  0
INSERT
  5
21C8B
330
1DAA5
100
AcDbEntity
  8
寸法
 62
     0
 48
50.0
370
    -2
100
AcDbBlockReference
  2
_DOTSMALL
 10
6419.215074011694
 20
5500.919036112861
 30
0.0
 41
100.0
 42
100.0
 43
100.0
 50
90.0
  0
INSERT
  5
21C8C
330
1DAA5
100
AcDbEntity
  8
寸法
 62
     0
 48
50.0
370
    -2
100
AcDbBlockReference
  2
_DOTSMALL
 10
6419.215074011694
 20
5302.91903611286
 30
0.0
 41
100.0
 42
100.0
 43
100.0
 50
270.0
  0
MTEXT
  5
21C8D
330
1DAA5
100
AcDbEntity
  8
寸法
 62
     7
 48
50.0
100
AcDbMText
 10
6319.215074011693
 20
5066.709376283204
 30
0.0
 40
120.0
 41
0.0
 71
     5
 72
     1
  1
\A1;198
  7
STYLE1
 11
0.0000000000000001
 21
1.0
 31
0.0
 73
     1
 44
1.0
1001
ACAD
1000
MTEXTBEGIN
1070
    73
1070
     1
1070
    44
1040
1.0
1070
    74
1070
     0
1000
MTEXTEND
  0
POINT
  5
21C8E
330
1DAA5
100
AcDbEntity
  8
DEFPOINTS
 62
     0
 48
50.0
100
AcDbPoint
 10
6988.157340025523
 20
5500.919036112861
 30
0.0
  0
POINT
  5
21C8F
330
1DAA5
100
AcDbEntity
  8
DEFPOINTS
 62
     0
 48
50.0
100
AcDbPoint
 10
6915.157340025515
 20
5302.91903611286
 30
0.0
  0
POINT
  5
21C90
330
1DAA5
100
AcDbEntity
  8
DEFPOINTS
 62
     0
 48
50.0
100
AcDbPoint
 10
6419.215074011694
 20
5302.91903611286
 30
0.0
  0
ENDBLK
  5
1DAB1
330
1DAA5
100
AcDbEntity
  8
0
 48
50.0
100
AcDbBlockEnd
  0
BLOCK
  5
1DABC
330
1DAB2
100
AcDbEntity
  8
0
 48
50.0
100
AcDbBlockBegin
  2
*D10
 70
     1
 10
0.0
 20
0.0
 30
0.0
  3
*D10
  1

  0
LINE
  5
21C7C
330
1DAB2
100
AcDbEntity
  8
寸法
 62
     0
 48
50.0
370
    -2
100
AcDbLine
 10
6895.157340025516
 20
5302.91903611286
 30
0.0
 11
6112.948649765357
 21
5302.919036112861
 31
0.0
  0
LINE
  5
21C7D
330
1DAB2
100
AcDbEntity
  8
寸法
 62
     0
 48
50.0
370
    -2
100
AcDbLine
 10
6399.215074011694
 20
5247.919036112859
 30
0.0
 11
6112.948649765357
 21
5247.91903611286
 31
0.0
  0
LINE
  5
21C7E
330
1DAB2
100
AcDbEntity
  8
寸法
 62
     0
 48
50.0
370
    -2
100
AcDbLine
 10
6172.948649765357
 20
5302.91903611286
 30
0.0
 11
6172.948649765357
 21
5402.91903611286
 31
0.0
  0
LINE
  5
21C7F
330
1DAB2
100
AcDbEntity
  8
寸法
 62
     0
 48
50.0
370
    -2
100
AcDbLine
 10
6172.948649765357
 20
5247.919036112859
 30
0.0
 11
6172.948649765357
 21
5147.91903611286
 31
0.0
  0
LINE
  5
21C80
330
1DAB2
100
AcDbEntity
  8
寸法
 62
     0
 48
50.0
370
    -2
100
AcDbLine
 10
6172.948649765357
 20
5302.91903611286
 30
0.0
 11
6172.948649765357
 21
5247.919036112859
 31
0.0
  0
INSERT
  5
21C81
330
1DAB2
100
AcDbEntity
  8
寸法
 62
     0
 48
50.0
370
    -2
100
AcDbBlockReference
  2
_DOTSMALL
 10
6172.948649765357
 20
5302.91903611286
 30
0.0
 41
100.0
 42
100.0
 43
100.0
 50
270.0
  0
INSERT
  5
21C82
330
1DAB2
100
AcDbEntity
  8
寸法
 62
     0
 48
50.0
370
    -2
100
AcDbBlockReference
  2
_DOTSMALL
 10
6172.948649765357
 20
5247.919036112859
 30
0.0
 41
100.0
 42
100.0
 43
100.0
 50
90.0
  0
MTEXT
  5
21C83
330
1DAB2
100
AcDbEntity
  8
寸法
 62
     7
 48
50.0
100
AcDbMText
 10
6072.948649765356
 20
5275.419036112861
 30
0.0
 40
120.0
 41
0.0
 71
     5
 72
     1
  1
\A1;b
  7
STYLE1
 11
0.0000000000000001
 21
1.0
 31
0.0
 73
     1
 44
1.0
1001
ACAD
1000
MTEXTBEGIN
1070
    73
1070
     1
1070
    44
1040
1.0
1070
    74
1070
     0
1000
MTEXTEND
  0
POINT
  5
21C84
330
1DAB2
100
AcDbEntity
  8
DEFPOINTS
 62
     0
 48
50.0
100
AcDbPoint
 10
6915.157340025515
 20
5302.91903611286
 30
0.0
  0
POINT
  5
21C85
330
1DAB2
100
AcDbEntity
  8
DEFPOINTS
 62
     0
 48
50.0
100
AcDbPoint
 10
6419.215074011694
 20
5247.919036112859
 30
0.0
  0
POINT
  5
21C86
330
1DAB2
100
AcDbEntity
  8
DEFPOINTS
 62
     0
 48
50.0
100
AcDbPoint
 10
6172.948649765357
 20
5247.919036112859
 30
0.0
  0
ENDBLK
  5
1DABD
330
1DAB2
100
AcDbEntity
  8
0
 48
50.0
100
AcDbBlockEnd
  0
BLOCK
  5
1DAC9
330
1DABE
100
AcDbEntity
  8
0
 48
50.0
100
AcDbBlockBegin
  2
*D11
 70
     1
 10
0.0
 20
0.0
 30
0.0
  3
*D11
  1

  0
LINE
  5
21C72
330
1DABE
100
AcDbEntity
  8
寸法
 62
     0
 48
50.0
370
    -2
100
AcDbLine
 10
6895.157340025514
 20
7522.91903611286
 30
0.0
 11
6359.215074011693
 21
7522.91903611286
 31
0.0
  0
LINE
  5
21C73
330
1DABE
100
AcDbEntity
  8
寸法
 62
     0
 48
50.0
370
    -2
100
AcDbLine
 10
6968.157340025515
 20
7399.919036112861
 30
0.0
 11
6359.215074011693
 21
7399.919036112861
 31
0.0
  0
LINE
  5
21C74
330
1DABE
100
AcDbEntity
  8
寸法
 62
     0
 48
50.0
370
    -2
100
AcDbLine
 10
6419.215074011693
 20
7399.919036112861
 30
0.0
 11
6419.215074011693
 21
7522.91903611286
 31
0.0
  0
LINE
  5
21C75
330
1DABE
100
AcDbEntity
  8
寸法
 62
     0
 48
50.0
370
    -2
100
AcDbLine
 10
6419.215074011693
 20
7522.91903611286
 30
0.0
 11
6419.215074011693
 21
7899.889598861339
 31
0.0
  0
INSERT
  5
21C76
330
1DABE
100
AcDbEntity
  8
寸法
 62
     0
 48
50.0
370
    -2
100
AcDbBlockReference
  2
_DOTSMALL
 10
6419.215074011693
 20
7399.919036112861
 30
0.0
 41
100.0
 42
100.0
 43
100.0
 50
270.0
  0
INSERT
  5
21C77
330
1DABE
100
AcDbEntity
  8
寸法
 62
     0
 48
50.0
370
    -2
100
AcDbBlockReference
  2
_DOTSMALL
 10
6419.215074011693
 20
7522.91903611286
 30
0.0
 41
100.0
 42
100.0
 43
100.0
 50
90.0
  0
MTEXT
  5
21C78
330
1DABE
100
AcDbEntity
  8
寸法
 62
     7
 48
50.0
100
AcDbMText
 10
6319.203262988071
 20
7761.4043174871
 30
0.0
 40
120.0
 41
0.0
 71
     5
 72
     1
  1
\A1;123
  7
STYLE1
 11
0.0000000000000001
 21
1.0
 31
0.0
 73
     1
 44
1.0
1001
ACAD
1000
MTEXTBEGIN
1070
    73
1070
     1
1070
    44
1040
1.0
1070
    74
1070
     0
1000
MTEXTEND
  0
POINT
  5
21C79
330
1DABE
100
AcDbEntity
  8
DEFPOINTS
 62
     0
 48
50.0
100
AcDbPoint
 10
6915.157340025515
 20
7522.91903611286
 30
0.0
  0
POINT
  5
21C7A
330
1DABE
100
AcDbEntity
  8
DEFPOINTS
 62
     0
 48
50.0
100
AcDbPoint
 10
6988.157340025515
 20
7399.919036112861
 30
0.0
  0
POINT
  5
21C7B
330
1DABE
100
AcDbEntity
  8
DEFPOINTS
 62
     0
 48
50.0
100
AcDbPoint
 10
6419.215074011693
 20
7399.919036112861
 30
0.0
  0
ENDBLK
  5
1DACA
330
1DABE
100
AcDbEntity
  8
0
 48
50.0
100
AcDbBlockEnd
  0
BLOCK
  5
1DAD7
330
1DACB
100
AcDbEntity
  8
0
 48
50.0
100
AcDbBlockBegin
  2
*D12
 70
     1
 10
0.0
 20
0.0
 30
0.0
  3
*D12
  1

  0
LINE
  5
21C67
330
1DACB
100
AcDbEntity
  8
寸法
 62
     0
 48
50.0
370
    -2
100
AcDbLine
 10
6399.215074011694
 20
7597.91903611286
 30
0.0
 11
6113.722271873726
 21
7597.919036112862
 31
0.0
  0
LINE
  5
21C68
330
1DACB
100
AcDbEntity
  8
寸法
 62
     0
 48
50.0
370
    -2
100
AcDbLine
 10
6895.157340025514
 20
7522.91903611286
 30
0.0
 11
6113.722271873726
 21
7522.919036112861
 31
0.0
  0
LINE
  5
21C69
330
1DACB
100
AcDbEntity
  8
寸法
 62
     0
 48
50.0
370
    -2
100
AcDbLine
 10
6173.722271873725
 20
7597.91903611286
 30
0.0
 11
6173.722271873725
 21
7697.91903611286
 31
0.0
  0
LINE
  5
21C6A
330
1DACB
100
AcDbEntity
  8
寸法
 62
     0
 48
50.0
370
    -2
100
AcDbLine
 10
6173.722271873725
 20
7522.91903611286
 30
0.0
 11
6173.722271873725
 21
7422.91903611286
 31
0.0
  0
LINE
  5
21C6B
330
1DACB
100
AcDbEntity
  8
寸法
 62
     0
 48
50.0
370
    -2
100
AcDbLine
 10
6173.722271873725
 20
7597.91903611286
 30
0.0
 11
6173.722271873725
 21
7522.91903611286
 31
0.0
  0
INSERT
  5
21C6C
330
1DACB
100
AcDbEntity
  8
寸法
 62
     0
 48
50.0
370
    -2
100
AcDbBlockReference
  2
_DOTSMALL
 10
6173.722271873725
 20
7597.91903611286
 30
0.0
 41
100.0
 42
100.0
 43
100.0
 50
270.0
  0
INSERT
  5
21C6D
330
1DACB
100
AcDbEntity
  8
寸法
 62
     0
 48
50.0
370
    -2
100
AcDbBlockReference
  2
_DOTSMALL
 10
6173.722271873725
 20
7522.91903611286
 30
0.0
 41
100.0
 42
100.0
 43
100.0
 50
90.0
  0
MTEXT
  5
21C6E
330
1DACB
100
AcDbEntity
  8
寸法
 62
     7
 48
50.0
100
AcDbMText
 10
6073.722271873725
 20
7560.419036112863
 30
0.0
 40
120.0
 41
0.0
 71
     5
 72
     1
  1
\A1;c
  7
STYLE1
 11
0.0000000000000001
 21
1.0
 31
0.0
 73
     1
 44
1.0
1001
ACAD
1000
MTEXTBEGIN
1070
    73
1070
     1
1070
    44
1040
1.0
1070
    74
1070
     0
1000
MTEXTEND
  0
POINT
  5
21C6F
330
1DACB
100
AcDbEntity
  8
DEFPOINTS
 62
     0
 48
50.0
100
AcDbPoint
 10
6419.215074011694
 20
7597.91903611286
 30
0.0
  0
POINT
  5
21C70
330
1DACB
100
AcDbEntity
  8
DEFPOINTS
 62
     0
 48
50.0
100
AcDbPoint
 10
6915.157340025515
 20
7522.91903611286
 30
0.0
  0
POINT
  5
21C71
330
1DACB
100
AcDbEntity
  8
DEFPOINTS
 62
     0
 48
50.0
100
AcDbPoint
 10
6173.722271873725
 20
7522.91903611286
 30
0.0
  0
ENDBLK
  5
1DAD8
330
1DACB
100
AcDbEntity
  8
0
 48
50.0
100
AcDbBlockEnd
  0
BLOCK
  5
1DAE4
330
1DAD9
100
AcDbEntity
  8
0
 48
50.0
100
AcDbBlockBegin
  2
*D13
 70
     1
 10
0.0
 20
0.0
 30
0.0
  3
*D13
  1

  0
LINE
  5
21C5D
330
1DAD9
100
AcDbEntity
  8
寸法
 62
     0
 48
50.0
370
    -2
100
AcDbLine
 10
9135.157340025514
 20
7542.919036112862
 30
0.0
 11
9135.157340025514
 21
8336.250847072712
 31
0.0
  0
LINE
  5
21C5E
330
1DAD9
100
AcDbEntity
  8
寸法
 62
     0
 48
50.0
370
    -2
100
AcDbLine
 10
9012.157340025515
 20
7469.91903611286
 30
0.0
 11
9012.157340025515
 21
8336.250847072712
 31
0.0
  0
LINE
  5
21C5F
330
1DAD9
100
AcDbEntity
  8
寸法
 62
     0
 48
50.0
370
    -2
100
AcDbLine
 10
9012.157340025515
 20
8276.250847072711
 30
0.0
 11
9135.157340025514
 21
8276.250847072711
 31
0.0
  0
LINE
  5
21C60
330
1DAD9
100
AcDbEntity
  8
寸法
 62
     0
 48
50.0
370
    -2
100
AcDbLine
 10
9135.157340025514
 20
8276.250847072711
 30
0.0
 11
9512.127902773992
 21
8276.250847072711
 31
0.0
  0
INSERT
  5
21C61
330
1DAD9
100
AcDbEntity
  8
寸法
 62
     0
 48
50.0
370
    -2
100
AcDbBlockReference
  2
_DOTSMALL
 10
9012.157340025515
 20
8276.250847072711
 30
0.0
 41
100.0
 42
100.0
 43
100.0
 50
180.0
  0
INSERT
  5
21C62
330
1DAD9
100
AcDbEntity
  8
寸法
 62
     0
 48
50.0
370
    -2
100
AcDbBlockReference
  2
_DOTSMALL
 10
9135.157340025514
 20
8276.250847072711
 30
0.0
 41
100.0
 42
100.0
 43
100.0
  0
MTEXT
  5
21C63
330
1DAD9
100
AcDbEntity
  8
寸法
 62
     7
 48
50.0
100
AcDbMText
 10
9373.642621399753
 20
8376.262658096333
 30
0.0
 40
120.0
 41
0.0
 71
     5
 72
     1
  1
\A1;123
  7
STYLE1
 73
     1
 44
1.0
1001
ACAD
1000
MTEXTBEGIN
1070
    73
1070
     1
1070
    44
1040
1.0
1070
    74
1070
     0
1000
MTEXTEND
  0
POINT
  5
21C64
330
1DAD9
100
AcDbEntity
  8
DEFPOINTS
 62
     0
 48
50.0
100
AcDbPoint
 10
9135.157340025514
 20
7522.919036112861
 30
0.0
  0
POINT
  5
21C65
330
1DAD9
100
AcDbEntity
  8
DEFPOINTS
 62
     0
 48
50.0
100
AcDbPoint
 10
9012.157340025515
 20
7449.919036112861
 30
0.0
  0
POINT
  5
21C66
330
1DAD9
100
AcDbEntity
  8
DEFPOINTS
 62
     0
 48
50.0
100
AcDbPoint
 10
9012.157340025515
 20
8276.250847072711
 30
0.0
  0
ENDBLK
  5
1DAE5
330
1DAD9
100
AcDbEntity
  8
0
 48
50.0
100
AcDbBlockEnd
  0
BLOCK
  5
1DAF1
330
1DAE6
100
AcDbEntity
  8
0
 48
50.0
100
AcDbBlockBegin
  2
*D14
 70
     1
 10
0.0
 20
0.0
 30
0.0
  3
*D14
  1

  0
LINE
  5
21C52
330
1DAE6
100
AcDbEntity
  8
寸法
 62
     0
 48
50.0
370
    -2
100
AcDbLine
 10
9135.157340025514
 20
7691.190236682782
 30
0.0
 11
9135.157340025514
 21
8548.711542589549
 31
0.0
  0
LINE
  5
21C53
330
1DAE6
100
AcDbEntity
  8
寸法
 62
     0
 48
50.0
370
    -2
100
AcDbLine
 10
9180.157340025514
 20
8296.250847072711
 30
0.0
 11
9180.157340025514
 21
8548.711542589549
 31
0.0
  0
LINE
  5
21C54
330
1DAE6
100
AcDbEntity
  8
寸法
 62
     0
 48
50.0
370
    -2
100
AcDbLine
 10
9135.157340025514
 20
8488.711542589548
 30
0.0
 11
9035.157340025515
 21
8488.711542589548
 31
0.0
  0
LINE
  5
21C55
330
1DAE6
100
AcDbEntity
  8
寸法
 62
     0
 48
50.0
370
    -2
100
AcDbLine
 10
9180.157340025514
 20
8488.711542589548
 30
0.0
 11
9280.157340025516
 21
8488.711542589548
 31
0.0
  0
LINE
  5
21C56
330
1DAE6
100
AcDbEntity
  8
寸法
 62
     0
 48
50.0
370
    -2
100
AcDbLine
 10
9135.157340025514
 20
8488.711542589548
 30
0.0
 11
9180.157340025514
 21
8488.711542589548
 31
0.0
  0
INSERT
  5
21C57
330
1DAE6
100
AcDbEntity
  8
寸法
 62
     0
 48
50.0
370
    -2
100
AcDbBlockReference
  2
_DOTSMALL
 10
9135.157340025514
 20
8488.711542589548
 30
0.0
 41
100.0
 42
100.0
 43
100.0
  0
INSERT
  5
21C58
330
1DAE6
100
AcDbEntity
  8
寸法
 62
     0
 48
50.0
370
    -2
100
AcDbBlockReference
  2
_DOTSMALL
 10
9180.157340025514
 20
8488.711542589548
 30
0.0
 41
100.0
 42
100.0
 43
100.0
 50
180.0
  0
MTEXT
  5
21C59
330
1DAE6
100
AcDbEntity
  8
寸法
 62
     7
 48
50.0
100
AcDbMText
 10
9157.657340025513
 20
8588.711542589548
 30
0.0
 40
120.0
 41
0.0
 71
     5
 72
     1
  1
\A1;a
  7
STYLE1
 73
     1
 44
1.0
1001
ACAD
1000
MTEXTBEGIN
1070
    73
1070
     1
1070
    44
1040
1.0
1070
    74
1070
     0
1000
MTEXTEND
  0
POINT
  5
21C5A
330
1DAE6
100
AcDbEntity
  8
DEFPOINTS
 62
     0
 48
50.0
100
AcDbPoint
 10
9135.157340025514
 20
7671.190236682781
 30
0.0
  0
POINT
  5
21C5B
330
1DAE6
100
AcDbEntity
  8
DEFPOINTS
 62
     0
 48
50.0
100
AcDbPoint
 10
9180.157340025514
 20
8276.250847072711
 30
0.0
  0
POINT
  5
21C5C
330
1DAE6
100
AcDbEntity
  8
DEFPOINTS
 62
     0
 48
50.0
100
AcDbPoint
 10
9180.157340025514
 20
8488.711542589548
 30
0.0
  0
ENDBLK
  5
1DAF2
330
1DAE6
100
AcDbEntity
  8
0
 48
50.0
100
AcDbBlockEnd
  0
BLOCK
  5
1DAFE
330
1DAF3
100
AcDbEntity
  8
0
 48
50.0
100
AcDbBlockBegin
  2
*D15
 70
     1
 10
0.0
 20
0.0
 30
0.0
  3
*D15
  1

  0
LINE
  5
21C48
330
1DAF3
100
AcDbEntity
  8
寸法
 62
     0
 48
50.0
370
    -2
100
AcDbLine
 10
9135.157340025514
 20
7022.91903611287
 30
0.0
 11
9135.157340025514
 21
6924.422404093454
 31
0.0
  0
LINE
  5
21C49
330
1DAF3
100
AcDbEntity
  8
寸法
 62
     0
 48
50.0
370
    -2
100
AcDbLine
 10
9015.157340025513
 20
7097.560052264253
 30
0.0
 11
9015.157340025513
 21
6924.422404093454
 31
0.0
  0
LINE
  5
21C4A
330
1DAF3
100
AcDbEntity
  8
寸法
 62
     0
 48
50.0
370
    -2
100
AcDbLine
 10
9015.157340025513
 20
6984.422404093454
 30
0.0
 11
9135.157340025514
 21
6984.422404093454
 31
0.0
  0
LINE
  5
21C4B
330
1DAF3
100
AcDbEntity
  8
寸法
 62
     0
 48
50.0
370
    -2
100
AcDbLine
 10
9135.157340025514
 20
6984.422404093454
 30
0.0
 11
9507.251828214492
 21
6984.422404093454
 31
0.0
  0
INSERT
  5
21C4C
330
1DAF3
100
AcDbEntity
  8
寸法
 62
     0
 48
50.0
370
    -2
100
AcDbBlockReference
  2
_DOTSMALL
 10
9015.157340025513
 20
6984.422404093454
 30
0.0
 41
100.0
 42
100.0
 43
100.0
 50
180.0
  0
INSERT
  5
21C4D
330
1DAF3
100
AcDbEntity
  8
寸法
 62
     0
 48
50.0
370
    -2
100
AcDbBlockReference
  2
_DOTSMALL
 10
9135.157340025514
 20
6984.422404093454
 30
0.0
 41
100.0
 42
100.0
 43
100.0
  0
MTEXT
  5
21C4E
330
1DAF3
100
AcDbEntity
  8
寸法
 62
     7
 48
50.0
100
AcDbMText
 10
9371.204584120004
 20
7084.434215117075
 30
0.0
 40
120.0
 41
0.0
 71
     5
 72
     1
  1
\A1;120
  7
STYLE1
 73
     1
 44
1.0
1001
ACAD
1000
MTEXTBEGIN
1070
    73
1070
     1
1070
    44
1040
1.0
1070
    74
1070
     0
1000
MTEXTEND
  0
POINT
  5
21C4F
330
1DAF3
100
AcDbEntity
  8
DEFPOINTS
 62
     0
 48
50.0
100
AcDbPoint
 10
9135.157340025514
 20
7042.919036112869
 30
0.0
  0
POINT
  5
21C50
330
1DAF3
100
AcDbEntity
  8
DEFPOINTS
 62
     0
 48
50.0
100
AcDbPoint
 10
9015.157340025513
 20
7117.560052264252
 30
0.0
  0
POINT
  5
21C51
330
1DAF3
100
AcDbEntity
  8
DEFPOINTS
 62
     0
 48
50.0
100
AcDbPoint
 10
9015.157340025513
 20
6984.422404093454
 30
0.0
  0
ENDBLK
  5
1DAFF
330
1DAF3
100
AcDbEntity
  8
0
 48
50.0
100
AcDbBlockEnd
  0
BLOCK
  5
1E9D9
330
1E9D0
100
AcDbEntity
  8
0
 48
50.0
100
AcDbBlockBegin
  2
*D16
 70
     1
 10
0.0
 20
0.0
 30
0.0
  3
*D16
  1

  0
LINE
  5
21C3F
330
1E9D0
100
AcDbEntity
  8
寸法
 62
     0
 48
50.0
370
    -2
100
AcDbLine
 10
7749.157340025513
 20
6787.91903611286
 30
0.0
 11
8027.690754844583
 21
6787.91903611286
 31
0.0
  0
LINE
  5
21C40
330
1E9D0
100
AcDbEntity
  8
寸法
 62
     0
 48
50.0
370
    -2
100
AcDbLine
 10
7698.657340025523
 20
7522.919036112863
 30
0.0
 11
8027.690754844583
 21
7522.919036112863
 31
0.0
  0
LINE
  5
21C41
330
1E9D0
100
AcDbEntity
  8
寸法
 62
     0
 48
50.0
370
    -2
100
AcDbLine
 10
7967.690754844582
 20
6787.91903611286
 30
0.0
 11
7967.690754844582
 21
7522.919036112863
 31
0.0
  0
INSERT
  5
21C42
330
1E9D0
100
AcDbEntity
  8
寸法
 62
     0
 48
50.0
370
    -2
100
AcDbBlockReference
  2
_DOTSMALL
 10
7967.690754844582
 20
6787.91903611286
 30
0.0
 41
100.0
 42
100.0
 43
100.0
 50
270.0
  0
INSERT
  5
21C43
330
1E9D0
100
AcDbEntity
  8
寸法
 62
     0
 48
50.0
370
    -2
100
AcDbBlockReference
  2
_DOTSMALL
 10
7967.690754844582
 20
7522.919036112863
 30
0.0
 41
100.0
 42
100.0
 43
100.0
 50
90.0
  0
MTEXT
  5
21C44
330
1E9D0
100
AcDbEntity
  8
寸法
 62
     7
 48
50.0
100
AcDbMText
 10
7867.690754844581
 20
7155.419036112864
 30
0.0
 40
120.0
 41
0.0
 71
     5
 72
     1
  1
\A1;735
  7
STYLE1
 11
0.0000000000000001
 21
1.0
 31
0.0
 73
     1
 44
1.0
1001
ACAD
1000
MTEXTBEGIN
1070
    73
1070
     1
1070
    44
1040
1.0
1070
    74
1070
     0
1000
MTEXTEND
  0
POINT
  5
21C45
330
1E9D0
100
AcDbEntity
  8
DEFPOINTS
 62
     0
 48
50.0
100
AcDbPoint
 10
7729.157340025515
 20
6787.91903611286
 30
0.0
  0
POINT
  5
21C46
330
1E9D0
100
AcDbEntity
  8
DEFPOINTS
 62
     0
 48
50.0
100
AcDbPoint
 10
7678.657340025523
 20
7522.919036112863
 30
0.0
  0
POINT
  5
21C47
330
1E9D0
100
AcDbEntity
  8
DEFPOINTS
 62
     0
 48
50.0
100
AcDbPoint
 10
7967.690754844582
 20
7522.919036112863
 30
0.0
  0
ENDBLK
  5
1E9DA
330
1E9D0
100
AcDbEntity
  8
0
 48
50.0
100
AcDbBlockEnd
  0
BLOCK
  5
1EA3C
330
1EA32
100
AcDbEntity
  8
0
 48
50.0
100
AcDbBlockBegin
  2
*D17
 70
     1
 10
0.0
 20
0.0
 30
0.0
  3
*D17
  1

  0
LINE
  5
21C36
330
1EA32
100
AcDbEntity
  8
寸法
 62
     0
 48
50.0
370
    -2
100
AcDbLine
 10
7698.657340025523
 20
5302.919036112868
 30
0.0
 11
8027.690754844593
 21
5302.919036112868
 31
0.0
  0
LINE
  5
21C37
330
1EA32
100
AcDbEntity
  8
寸法
 62
     0
 48
50.0
370
    -2
100
AcDbLine
 10
7749.157340025513
 20
6037.919036112869
 30
0.0
 11
8027.690754844593
 21
6037.919036112869
 31
0.0
  0
LINE
  5
21C38
330
1EA32
100
AcDbEntity
  8
寸法
 62
     0
 48
50.0
370
    -2
100
AcDbLine
 10
7967.690754844594
 20
5302.919036112868
 30
0.0
 11
7967.690754844594
 21
6037.919036112869
 31
0.0
  0
INSERT
  5
21C39
330
1EA32
100
AcDbEntity
  8
寸法
 62
     0
 48
50.0
370
    -2
100
AcDbBlockReference
  2
_DOTSMALL
 10
7967.690754844594
 20
5302.919036112868
 30
0.0
 41
100.0
 42
100.0
 43
100.0
 50
270.0
  0
INSERT
  5
21C3A
330
1EA32
100
AcDbEntity
  8
寸法
 62
     0
 48
50.0
370
    -2
100
AcDbBlockReference
  2
_DOTSMALL
 10
7967.690754844594
 20
6037.919036112869
 30
0.0
 41
100.0
 42
100.0
 43
100.0
 50
90.0
  0
MTEXT
  5
21C3B
330
1EA32
100
AcDbEntity
  8
寸法
 62
     7
 48
50.0
100
AcDbMText
 10
7867.690754844592
 20
5670.419036112869
 30
0.0
 40
120.0
 41
0.0
 71
     5
 72
     1
  1
\A1;735
  7
STYLE1
 11
0.0000000000000001
 21
1.0
 31
0.0
 73
     1
 44
1.0
1001
ACAD
1000
MTEXTBEGIN
1070
    73
1070
     1
1070
    44
1040
1.0
1070
    74
1070
     0
1000
MTEXTEND
  0
POINT
  5
21C3C
330
1EA32
100
AcDbEntity
  8
DEFPOINTS
 62
     0
 48
50.0
100
AcDbPoint
 10
7678.657340025523
 20
5302.919036112868
 30
0.0
  0
POINT
  5
21C3D
330
1EA32
100
AcDbEntity
  8
DEFPOINTS
 62
     0
 48
50.0
100
AcDbPoint
 10
7729.157340025515
 20
6037.919036112869
 30
0.0
  0
POINT
  5
21C3E
330
1EA32
100
AcDbEntity
  8
DEFPOINTS
 62
     0
 48
50.0
100
AcDbPoint
 10
7967.690754844594
 20
6037.919036112869
 30
0.0
  0
ENDBLK
  5
1EA3D
330
1EA32
100
AcDbEntity
  8
0
 48
50.0
100
AcDbBlockEnd
  0
BLOCK
  5
1F253
330
1F24A
100
AcDbEntity
  8
0
 48
50.0
100
AcDbBlockBegin
  2
*D18
 70
     1
 10
0.0
 20
0.0
 30
0.0
  3
*D18
  1

  0
LINE
  5
21C24
330
1F24A
100
AcDbEntity
  8
寸法
 62
     0
 48
50.0
370
    -2
100
AcDbLine
 10
7679.157340025515
 20
6857.919036112861
 30
0.0
 11
7679.157340025515
 21
8109.828801761191
 31
0.0
  0
LINE
  5
21C25
330
1F24A
100
AcDbEntity
  8
寸法
 62
     0
 48
50.0
370
    -2
100
AcDbLine
 10
6915.157340025513
 20
7542.919036112862
 30
0.0
 11
6915.157340025513
 21
8109.828801761191
 31
0.0
  0
LINE
  5
21C26
330
1F24A
100
AcDbEntity
  8
寸法
 62
     0
 48
50.0
370
    -2
100
AcDbLine
 10
7679.157340025515
 20
8049.82880176119
 30
0.0
 11
6915.157340025513
 21
8049.82880176119
 31
0.0
  0
INSERT
  5
21C27
330
1F24A
100
AcDbEntity
  8
寸法
 62
     0
 48
50.0
370
    -2
100
AcDbBlockReference
  2
_DOTSMALL
 10
7679.157340025515
 20
8049.82880176119
 30
0.0
 41
100.0
 42
100.0
 43
100.0
  0
INSERT
  5
21C28
330
1F24A
100
AcDbEntity
  8
寸法
 62
     0
 48
50.0
370
    -2
100
AcDbBlockReference
  2
_DOTSMALL
 10
6915.157340025513
 20
8049.82880176119
 30
0.0
 41
100.0
 42
100.0
 43
100.0
 50
180.0
  0
MTEXT
  5
21C29
330
1F24A
100
AcDbEntity
  8
寸法
 62
     7
 48
50.0
100
AcDbMText
 10
7297.157340025512
 20
8149.82880176119
 30
0.0
 40
120.0
 41
0.0
 71
     5
 72
     1
  1
\A1;764
  7
STYLE1
 73
     1
 44
1.0
1001
ACAD
1000
MTEXTBEGIN
1070
    73
1070
     1
1070
    44
1040
1.0
1070
    74
1070
     0
1000
MTEXTEND
  0
POINT
  5
21C2A
330
1F24A
100
AcDbEntity
  8
DEFPOINTS
 62
     0
 48
50.0
100
AcDbPoint
 10
7679.157340025515
 20
6837.919036112861
 30
0.0
  0
POINT
  5
21C2B
330
1F24A
100
AcDbEntity
  8
DEFPOINTS
 62
     0
 48
50.0
100
AcDbPoint
 10
6915.157340025513
 20
7522.919036112863
 30
0.0
  0
POINT
  5
21C2C
330
1F24A
100
AcDbEntity
  8
DEFPOINTS
 62
     0
 48
50.0
100
AcDbPoint
 10
6915.157340025513
 20
8049.82880176119
 30
0.0
  0
ENDBLK
  5
1F254
330
1F24A
100
AcDbEntity
  8
0
 48
50.0
100
AcDbBlockEnd
  0
BLOCK
  5
1F25F
330
1F255
100
AcDbEntity
  8
0
 48
50.0
100
AcDbBlockBegin
  2
*D19
 70
     1
 10
0.0
 20
0.0
 30
0.0
  3
*D19
  1

  0
LINE
  5
21C2D
330
1F255
100
AcDbEntity
  8
寸法
 62
     0
 48
50.0
370
    -2
100
AcDbLine
 10
9135.157340025511
 20
7542.919036112862
 30
0.0
 11
9135.157340025511
 21
8108.090767068199
 31
0.0
  0
LINE
  5
21C2E
330
1F255
100
AcDbEntity
  8
寸法
 62
     0
 48
50.0
370
    -2
100
AcDbLine
 10
8371.157340025515
 20
6857.919036112861
 30
0.0
 11
8371.157340025515
 21
8108.090767068199
 31
0.0
  0
LINE
  5
21C2F
330
1F255
100
AcDbEntity
  8
寸法
 62
     0
 48
50.0
370
    -2
100
AcDbLine
 10
9135.157340025511
 20
8048.090767068199
 30
0.0
 11
8371.157340025515
 21
8048.090767068199
 31
0.0
  0
INSERT
  5
21C30
330
1F255
100
AcDbEntity
  8
寸法
 62
     0
 48
50.0
370
    -2
100
AcDbBlockReference
  2
_DOTSMALL
 10
9135.157340025511
 20
8048.090767068199
 30
0.0
 41
100.0
 42
100.0
 43
100.0
  0
INSERT
  5
21C31
330
1F255
100
AcDbEntity
  8
寸法
 62
     0
 48
50.0
370
    -2
100
AcDbBlockReference
  2
_DOTSMALL
 10
8371.157340025515
 20
8048.090767068199
 30
0.0
 41
100.0
 42
100.0
 43
100.0
 50
180.0
  0
MTEXT
  5
21C32
330
1F255
100
AcDbEntity
  8
寸法
 62
     7
 48
50.0
100
AcDbMText
 10
8711.927475207966
 20
8148.090767068199
 30
0.0
 40
120.0
 41
0.0
 71
     5
 72
     1
  1
\A1;764
  7
STYLE1
 73
     1
 44
1.0
1001
ACAD
1000
MTEXTBEGIN
1070
    73
1070
     1
1070
    44
1040
1.0
1070
    74
1070
     0
1000
MTEXTEND
  0
POINT
  5
21C33
330
1F255
100
AcDbEntity
  8
DEFPOINTS
 62
     0
 48
50.0
100
AcDbPoint
 10
9135.157340025511
 20
7522.919036112863
 30
0.0
  0
POINT
  5
21C34
330
1F255
100
AcDbEntity
  8
DEFPOINTS
 62
     0
 48
50.0
100
AcDbPoint
 10
8371.157340025515
 20
6837.919036112861
 30
0.0
  0
POINT
  5
21C35
330
1F255
100
AcDbEntity
  8
DEFPOINTS
 62
     0
 48
50.0
100
AcDbPoint
 10
8371.157340025515
 20
8048.090767068199
 30
0.0
  0
ENDBLK
  5
1F260
330
1F255
100
AcDbEntity
  8
0
 48
50.0
100
AcDbBlockEnd
  0
BLOCK
  5
1FE56
330
1FE4C
100
AcDbEntity
  8
0
 48
50.0
100
AcDbBlockBegin
  2
*D20
 70
     1
 10
0.0
 20
0.0
 30
0.0
  3
*D20
  1

  0
LINE
  5
21C1B
330
1FE4C
100
AcDbEntity
  8
寸法
 62
     0
 48
50.0
370
    -2
100
AcDbLine
 10
7679.157340025515
 20
6857.919036112861
 30
0.0
 11
7679.157340025515
 21
8109.828801761191
 31
0.0
  0
LINE
  5
21C1C
330
1FE4C
100
AcDbEntity
  8
寸法
 62
     0
 48
50.0
370
    -2
100
AcDbLine
 10
8371.157340025515
 20
6857.919036112861
 30
0.0
 11
8371.157340025515
 21
8109.828801761191
 31
0.0
  0
LINE
  5
21C1D
330
1FE4C
100
AcDbEntity
  8
寸法
 62
     0
 48
50.0
370
    -2
100
AcDbLine
 10
7679.157340025515
 20
8049.82880176119
 30
0.0
 11
8371.157340025515
 21
8049.82880176119
 31
0.0
  0
INSERT
  5
21C1E
330
1FE4C
100
AcDbEntity
  8
寸法
 62
     0
 48
50.0
370
    -2
100
AcDbBlockReference
  2
_DOTSMALL
 10
7679.157340025515
 20
8049.82880176119
 30
0.0
 41
100.0
 42
100.0
 43
100.0
 50
180.0
  0
INSERT
  5
21C1F
330
1FE4C
100
AcDbEntity
  8
寸法
 62
     0
 48
50.0
370
    -2
100
AcDbBlockReference
  2
_DOTSMALL
 10
8371.157340025515
 20
8049.82880176119
 30
0.0
 41
100.0
 42
100.0
 43
100.0
  0
MTEXT
  5
21C20
330
1FE4C
100
AcDbEntity
  8
寸法
 62
     7
 48
50.0
100
AcDbMText
 10
8025.157340025515
 20
8149.869614325995
 30
0.0
 40
120.0
 41
0.0
 71
     5
 72
     1
  1
\A1;692
  7
STYLE1
 73
     1
 44
1.0
1001
ACAD
1000
MTEXTBEGIN
1070
    73
1070
     1
1070
    44
1040
1.0
1070
    74
1070
     0
1000
MTEXTEND
  0
POINT
  5
21C21
330
1FE4C
100
AcDbEntity
  8
DEFPOINTS
 62
     0
 48
50.0
100
AcDbPoint
 10
7679.157340025515
 20
6837.919036112861
 30
0.0
  0
POINT
  5
21C22
330
1FE4C
100
AcDbEntity
  8
DEFPOINTS
 62
     0
 48
50.0
100
AcDbPoint
 10
8371.157340025515
 20
6837.919036112861
 30
0.0
  0
POINT
  5
21C23
330
1FE4C
100
AcDbEntity
  8
DEFPOINTS
 62
     0
 48
50.0
100
AcDbPoint
 10
8371.157340025515
 20
8049.82880176119
 30
0.0
  0
ENDBLK
  5
1FE57
330
1FE4C
100
AcDbEntity
  8
0
 48
50.0
100
AcDbBlockEnd
  0
BLOCK
  5
2034D
330
20343
100
AcDbEntity
  8
0
 48
50.0
100
AcDbBlockBegin
  2
*D21
 70
     1
 10
0.0
 20
0.0
 30
0.0
  3
*D21
  1

  0
LINE
  5
21C12
330
20343
100
AcDbEntity
  8
寸法
 62
     0
 48
50.0
370
    -2
100
AcDbLine
 10
7749.157340025513
 20
6037.919036112869
 30
0.0
 11
8027.690754844583
 21
6037.919036112869
 31
0.0
  0
LINE
  5
21C13
330
20343
100
AcDbEntity
  8
寸法
 62
     0
 48
50.0
370
    -2
100
AcDbLine
 10
7749.157340025513
 20
6787.91903611286
 30
0.0
 11
8027.690754844583
 21
6787.91903611286
 31
0.0
  0
LINE
  5
21C14
330
20343
100
AcDbEntity
  8
寸法
 62
     0
 48
50.0
370
    -2
100
AcDbLine
 10
7967.690754844581
 20
6037.919036112869
 30
0.0
 11
7967.690754844582
 21
6787.91903611286
 31
0.0
  0
INSERT
  5
21C15
330
20343
100
AcDbEntity
  8
寸法
 62
     0
 48
50.0
370
    -2
100
AcDbBlockReference
  2
_DOTSMALL
 10
7967.690754844581
 20
6037.919036112869
 30
0.0
 41
100.0
 42
100.0
 43
100.0
 50
270.0
  0
INSERT
  5
21C16
330
20343
100
AcDbEntity
  8
寸法
 62
     0
 48
50.0
370
    -2
100
AcDbBlockReference
  2
_DOTSMALL
 10
7967.690754844582
 20
6787.91903611286
 30
0.0
 41
100.0
 42
100.0
 43
100.0
 50
90.0
  0
MTEXT
  5
21C17
330
20343
100
AcDbEntity
  8
寸法
 62
     7
 48
50.0
100
AcDbMText
 10
7867.690754844581
 20
6412.919036112866
 30
0.0
 40
120.0
 41
0.0
 71
     5
 72
     1
  1
\A1;750
  7
STYLE1
 11
0.0000000000000001
 21
1.0
 31
0.0
 73
     1
 44
1.0
1001
ACAD
1000
MTEXTBEGIN
1070
    73
1070
     1
1070
    44
1040
1.0
1070
    74
1070
     0
1000
MTEXTEND
  0
POINT
  5
21C18
330
20343
100
AcDbEntity
  8
DEFPOINTS
 62
     0
 48
50.0
100
AcDbPoint
 10
7729.157340025515
 20
6037.919036112869
 30
0.0
  0
POINT
  5
21C19
330
20343
100
AcDbEntity
  8
DEFPOINTS
 62
     0
 48
50.0
100
AcDbPoint
 10
7729.157340025515
 20
6787.91903611286
 30
0.0
  0
POINT
  5
21C1A
330
20343
100
AcDbEntity
  8
DEFPOINTS
 62
     0
 48
50.0
100
AcDbPoint
 10
7967.690754844582
 20
6787.91903611286
 30
0.0
  0
ENDBLK
  5
2034E
330
20343
100
AcDbEntity
  8
0
 48
50.0
100
AcDbBlockEnd
  0
BLOCK
  5
20711
330
20706
100
AcDbEntity
  8
0
 48
50.0
100
AcDbBlockBegin
  2
*D22
 70
     1
 10
0.0
 20
0.0
 30
0.0
  3
*D22
  1

  0
LINE
  5
21C08
330
20706
100
AcDbEntity
  8
寸法
 62
     0
 48
50.0
370
    -2
100
AcDbLine
 10
7165.157340025515
 20
7402.91903611286
 30
0.0
 11
7422.833832283957
 21
7402.91903611286
 31
0.0
  0
LINE
  5
21C09
330
20706
100
AcDbEntity
  8
寸法
 62
     0
 48
50.0
370
    -2
100
AcDbLine
 10
7165.157340025515
 20
7522.919036112859
 30
0.0
 11
7422.833832283957
 21
7522.919036112859
 31
0.0
  0
LINE
  5
21C0A
330
20706
100
AcDbEntity
  8
寸法
 62
     0
 48
50.0
370
    -2
100
AcDbLine
 10
7362.833832283957
 20
7402.91903611286
 30
0.0
 11
7362.833832283957
 21
7522.919036112859
 31
0.0
  0
LINE
  5
21C0B
330
20706
100
AcDbEntity
  8
寸法
 62
     0
 48
50.0
370
    -2
100
AcDbLine
 10
7362.833832283957
 20
7522.919036112859
 30
0.0
 11
7362.833832283957
 21
7925.013524301836
 31
0.0
  0
INSERT
  5
21C0C
330
20706
100
AcDbEntity
  8
寸法
 62
     0
 48
50.0
370
    -2
100
AcDbBlockReference
  2
_DOTSMALL
 10
7362.833832283957
 20
7402.91903611286
 30
0.0
 41
100.0
 42
100.0
 43
100.0
 50
270.0
  0
INSERT
  5
21C0D
330
20706
100
AcDbEntity
  8
寸法
 62
     0
 48
50.0
370
    -2
100
AcDbBlockReference
  2
_DOTSMALL
 10
7362.833832283957
 20
7522.919036112859
 30
0.0
 41
100.0
 42
100.0
 43
100.0
 50
90.0
  0
MTEXT
  5
21C0E
330
20706
100
AcDbEntity
  8
寸法
 62
     7
 48
50.0
100
AcDbMText
 10
7262.822021260335
 20
7788.96628020735
 30
0.0
 40
120.0
 41
0.0
 71
     5
 72
     1
  1
\A1;120
  7
STYLE1
 11
0.0000000000000001
 21
1.0
 31
0.0
 73
     1
 44
1.0
1001
ACAD
1000
MTEXTBEGIN
1070
    73
1070
     1
1070
    44
1040
1.0
1070
    74
1070
     0
1000
MTEXTEND
  0
POINT
  5
21C0F
330
20706
100
AcDbEntity
  8
DEFPOINTS
 62
     0
 48
50.0
100
AcDbPoint
 10
7145.157340025514
 20
7402.91903611286
 30
0.0
  0
POINT
  5
21C10
330
20706
100
AcDbEntity
  8
DEFPOINTS
 62
     0
 48
50.0
100
AcDbPoint
 10
7145.157340025514
 20
7522.919036112859
 30
0.0
  0
POINT
  5
21C11
330
20706
100
AcDbEntity
  8
DEFPOINTS
 62
     0
 48
50.0
100
AcDbPoint
 10
7362.833832283957
 20
7522.919036112859
 30
0.0
  0
ENDBLK
  5
20712
330
20706
100
AcDbEntity
  8
0
 48
50.0
100
AcDbBlockEnd
  0
BLOCK
  5
2071E
330
20713
100
AcDbEntity
  8
0
 48
50.0
100
AcDbBlockBegin
  2
*D23
 70
     1
 10
0.0
 20
0.0
 30
0.0
  3
*D23
  1

  0
LINE
  5
21BFE
330
20713
100
AcDbEntity
  8
寸法
 62
     0
 48
50.0
370
    -2
100
AcDbLine
 10
7165.157340025515
 20
7292.919036112856
 30
0.0
 11
7422.833832283957
 21
7292.919036112856
 31
0.0
  0
LINE
  5
21BFF
330
20713
100
AcDbEntity
  8
寸法
 62
     0
 48
50.0
370
    -2
100
AcDbLine
 10
7165.157340025515
 20
7402.91903611286
 30
0.0
 11
7422.833832283957
 21
7402.91903611286
 31
0.0
  0
LINE
  5
21C00
330
20713
100
AcDbEntity
  8
寸法
 62
     0
 48
50.0
370
    -2
100
AcDbLine
 10
7362.833832283958
 20
7402.91903611286
 30
0.0
 11
7362.833832283958
 21
7292.919036112856
 31
0.0
  0
LINE
  5
21C01
330
20713
100
AcDbEntity
  8
寸法
 62
     0
 48
50.0
370
    -2
100
AcDbLine
 10
7362.833832283958
 20
7292.919036112856
 30
0.0
 11
7362.833832283958
 21
6932.824547923878
 31
0.0
  0
INSERT
  5
21C02
330
20713
100
AcDbEntity
  8
寸法
 62
     0
 48
50.0
370
    -2
100
AcDbBlockReference
  2
_DOTSMALL
 10
7362.833832283958
 20
7402.91903611286
 30
0.0
 41
100.0
 42
100.0
 43
100.0
 50
90.0
  0
INSERT
  5
21C03
330
20713
100
AcDbEntity
  8
寸法
 62
     0
 48
50.0
370
    -2
100
AcDbBlockReference
  2
_DOTSMALL
 10
7362.833832283958
 20
7292.919036112856
 30
0.0
 41
100.0
 42
100.0
 43
100.0
 50
270.0
  0
MTEXT
  5
21C04
330
20713
100
AcDbEntity
  8
寸法
 62
     7
 48
50.0
100
AcDbMText
 10
7262.833832283956
 20
7056.871792018369
 30
0.0
 40
120.0
 41
0.0
 71
     5
 72
     1
  1
\A1;110
  7
STYLE1
 11
0.0000000000000001
 21
1.0
 31
0.0
 73
     1
 44
1.0
1001
ACAD
1000
MTEXTBEGIN
1070
    73
1070
     1
1070
    44
1040
1.0
1070
    74
1070
     0
1000
MTEXTEND
  0
POINT
  5
21C05
330
20713
100
AcDbEntity
  8
DEFPOINTS
 62
     0
 48
50.0
100
AcDbPoint
 10
7145.157340025514
 20
7292.919036112856
 30
0.0
  0
POINT
  5
21C06
330
20713
100
AcDbEntity
  8
DEFPOINTS
 62
     0
 48
50.0
100
AcDbPoint
 10
7145.157340025514
 20
7402.91903611286
 30
0.0
  0
POINT
  5
21C07
330
20713
100
AcDbEntity
  8
DEFPOINTS
 62
     0
 48
50.0
100
AcDbPoint
 10
7362.833832283958
 20
7402.91903611286
 30
0.0
  0
ENDBLK
  5
2071F
330
20713
100
AcDbEntity
  8
0
 48
50.0
100
AcDbBlockEnd
  0
BLOCK
  5
219D4
330
219CA
100
AcDbEntity
  8
0
 48
50.0
100
AcDbBlockBegin
  2
*D24
 70
     1
 10
0.0
 20
0.0
 30
0.0
  3
*D24
  1

  0
LINE
  5
21D06
330
219CA
100
AcDbEntity
  8
寸法
 62
     0
 48
50.0
370
    -2
100
AcDbLine
 10
5998.259633033174
 20
2001.33947531086
 30
0.0
 11
5998.259633033174
 21
2565.924235206335
 31
0.0
  0
LINE
  5
21D07
330
219CA
100
AcDbEntity
  8
寸法
 62
     0
 48
50.0
370
    -2
100
AcDbLine
 10
5758.259633033174
 20
2001.33947531086
 30
0.0
 11
5758.259633033174
 21
2565.924235206335
 31
0.0
  0
LINE
  5
21D08
330
219CA
100
AcDbEntity
  8
寸法
 62
     0
 48
50.0
370
    -2
100
AcDbLine
 10
5998.259633033174
 20
2505.924235206335
 30
0.0
 11
5758.259633033174
 21
2505.924235206335
 31
0.0
  0
INSERT
  5
21D09
330
219CA
100
AcDbEntity
  8
寸法
 62
     0
 48
50.0
370
    -2
100
AcDbBlockReference
  2
_DOTSMALL
 10
5998.259633033174
 20
2505.924235206335
 30
0.0
 41
100.0
 42
100.0
 43
100.0
  0
INSERT
  5
21D0A
330
219CA
100
AcDbEntity
  8
寸法
 62
     0
 48
50.0
370
    -2
100
AcDbBlockReference
  2
_DOTSMALL
 10
5758.259633033174
 20
2505.924235206335
 30
0.0
 41
100.0
 42
100.0
 43
100.0
 50
180.0
  0
MTEXT
  5
21D0B
330
219CA
100
AcDbEntity
  8
寸法
 62
     7
 48
50.0
100
AcDbMText
 10
5878.259633033174
 20
2705.936046229957
 30
0.0
 40
120.0
 41
0.0
 71
     5
 72
     1
  1
\A1;120\P170
  7
STYLE1
 73
     1
 44
1.0
1001
ACAD
1000
MTEXTBEGIN
1070
    73
1070
     1
1070
    44
1040
1.0
1070
    74
1070
     0
1000
MTEXTEND
  0
POINT
  5
21D0C
330
219CA
100
AcDbEntity
  8
DEFPOINTS
 62
     0
 48
50.0
100
AcDbPoint
 10
5998.259633033174
 20
1981.33947531086
 30
0.0
  0
POINT
  5
21D0D
330
219CA
100
AcDbEntity
  8
DEFPOINTS
 62
     0
 48
50.0
100
AcDbPoint
 10
5758.259633033174
 20
1981.33947531086
 30
0.0
  0
POINT
  5
21D0E
330
219CA
100
AcDbEntity
  8
DEFPOINTS
 62
     0
 48
50.0
100
AcDbPoint
 10
5758.259633033174
 20
2505.924235206335
 30
0.0
  0
ENDBLK
  5
219D5
330
219CA
100
AcDbEntity
  8
0
 48
50.0
100
AcDbBlockEnd
  0
BLOCK
  5
219E0
330
219D6
100
AcDbEntity
  8
0
 48
50.0
100
AcDbBlockBegin
  2
*D25
 70
     1
 10
0.0
 20
0.0
 30
0.0
  3
*D25
  1

  0
LINE
  5
21BEC
330
219D6
100
AcDbEntity
  8
寸法
 62
     0
 48
50.0
370
    -2
100
AcDbLine
 10
5578.259633033173
 20
1301.339475310858
 30
0.0
 11
5360.234240867599
 21
1301.339475310858
 31
0.0
  0
LINE
  5
21BED
330
219D6
100
AcDbEntity
  8
寸法
 62
     0
 48
50.0
370
    -2
100
AcDbLine
 10
5478.259633033179
 20
1001.339475310858
 30
0.0
 11
5360.234240867599
 21
1001.339475310858
 31
0.0
  0
LINE
  5
21BEE
330
219D6
100
AcDbEntity
  8
寸法
 62
     0
 48
50.0
370
    -2
100
AcDbLine
 10
5420.2342408676
 20
1301.339475310858
 30
0.0
 11
5420.2342408676
 21
1001.339475310858
 31
0.0
  0
INSERT
  5
21BEF
330
219D6
100
AcDbEntity
  8
寸法
 62
     0
 48
50.0
370
    -2
100
AcDbBlockReference
  2
_DOTSMALL
 10
5420.2342408676
 20
1301.339475310858
 30
0.0
 41
100.0
 42
100.0
 43
100.0
 50
90.0
  0
INSERT
  5
21BF0
330
219D6
100
AcDbEntity
  8
寸法
 62
     0
 48
50.0
370
    -2
100
AcDbBlockReference
  2
_DOTSMALL
 10
5420.2342408676
 20
1001.339475310858
 30
0.0
 41
100.0
 42
100.0
 43
100.0
 50
270.0
  0
MTEXT
  5
21BF1
330
219D6
100
AcDbEntity
  8
寸法
 62
     7
 48
50.0
100
AcDbMText
 10
5320.234240867599
 20
1151.339475310858
 30
0.0
 40
120.0
 41
0.0
 71
     5
 72
     1
  1
\A1;150
  7
STYLE1
 11
0.0000000000000001
 21
1.0
 31
0.0
 73
     1
 44
1.0
1001
ACAD
1000
MTEXTBEGIN
1070
    73
1070
     1
1070
    44
1040
1.0
1070
    74
1070
     0
1000
MTEXTEND
  0
POINT
  5
21BF2
330
219D6
100
AcDbEntity
  8
DEFPOINTS
 62
     0
 48
50.0
100
AcDbPoint
 10
5598.259633033173
 20
1301.339475310858
 30
0.0
  0
POINT
  5
21BF3
330
219D6
100
AcDbEntity
  8
DEFPOINTS
 62
     0
 48
50.0
100
AcDbPoint
 10
5498.259633033178
 20
1001.339475310858
 30
0.0
  0
POINT
  5
21BF4
330
219D6
100
AcDbEntity
  8
DEFPOINTS
 62
     0
 48
50.0
100
AcDbPoint
 10
5420.2342408676
 20
1001.339475310858
 30
0.0
  0
ENDBLK
  5
219E1
330
219D6
100
AcDbEntity
  8
0
 48
50.0
100
AcDbBlockEnd
  0
BLOCK
  5
219EC
330
219E2
100
AcDbEntity
  8
0
 48
50.0
100
AcDbBlockBegin
  2
*D26
 70
     1
 10
0.0
 20
0.0
 30
0.0
  3
*D26
  1

  0
LINE
  5
21BE3
330
219E2
100
AcDbEntity
  8
寸法
 62
     0
 48
50.0
370
    -2
100
AcDbLine
 10
5738.259633033173
 20
1981.33947531086
 30
0.0
 11
4937.61469499711
 21
1981.33947531086
 31
0.0
  0
LINE
  5
21BE4
330
219E2
100
AcDbEntity
  8
寸法
 62
     0
 48
50.0
370
    -2
100
AcDbLine
 10
5478.259633033179
 20
1001.339475310858
 30
0.0
 11
4937.61469499711
 21
1001.339475310858
 31
0.0
  0
LINE
  5
21BE5
330
219E2
100
AcDbEntity
  8
寸法
 62
     0
 48
50.0
370
    -2
100
AcDbLine
 10
4997.61469499711
 20
1981.33947531086
 30
0.0
 11
4997.61469499711
 21
1001.339475310858
 31
0.0
  0
INSERT
  5
21BE6
330
219E2
100
AcDbEntity
  8
寸法
 62
     0
 48
50.0
370
    -2
100
AcDbBlockReference
  2
_DOTSMALL
 10
4997.61469499711
 20
1981.33947531086
 30
0.0
 41
100.0
 42
100.0
 43
100.0
 50
90.0
  0
INSERT
  5
21BE7
330
219E2
100
AcDbEntity
  8
寸法
 62
     0
 48
50.0
370
    -2
100
AcDbBlockReference
  2
_DOTSMALL
 10
4997.61469499711
 20
1001.339475310858
 30
0.0
 41
100.0
 42
100.0
 43
100.0
 50
270.0
  0
MTEXT
  5
21BE8
330
219E2
100
AcDbEntity
  8
寸法
 62
     7
 48
50.0
100
AcDbMText
 10
4897.61469499711
 20
1491.339475310859
 30
0.0
 40
120.0
 41
0.0
 71
     5
 72
     1
  1
\A1;540
  7
STYLE1
 11
0.0000000000000001
 21
1.0
 31
0.0
 73
     1
 44
1.0
1001
ACAD
1000
MTEXTBEGIN
1070
    73
1070
     1
1070
    44
1040
1.0
1070
    74
1070
     0
1000
MTEXTEND
  0
POINT
  5
21BE9
330
219E2
100
AcDbEntity
  8
DEFPOINTS
 62
     0
 48
50.0
100
AcDbPoint
 10
5758.259633033174
 20
1981.33947531086
 30
0.0
  0
POINT
  5
21BEA
330
219E2
100
AcDbEntity
  8
DEFPOINTS
 62
     0
 48
50.0
100
AcDbPoint
 10
5498.259633033178
 20
1001.339475310858
 30
0.0
  0
POINT
  5
21BEB
330
219E2
100
AcDbEntity
  8
DEFPOINTS
 62
     0
 48
50.0
100
AcDbPoint
 10
4997.61469499711
 20
1001.339475310858
 30
0.0
  0
ENDBLK
  5
219ED
330
219E2
100
AcDbEntity
  8
0
 48
50.0
100
AcDbBlockEnd
  0
BLOCK
  5
219F8
330
219EE
100
AcDbEntity
  8
0
 48
50.0
100
AcDbBlockBegin
  2
*D27
 70
     1
 10
0.0
 20
0.0
 30
0.0
  3
*D27
  1

  0
LINE
  5
21BDA
330
219EE
100
AcDbEntity
  8
寸法
 62
     0
 48
50.0
370
    -2
100
AcDbLine
 10
5598.259633033173
 20
821.3394753108582
 30
0.0
 11
5598.259633033173
 21
482.3873688549252
 31
0.0
  0
LINE
  5
21BDB
330
219EE
100
AcDbEntity
  8
寸法
 62
     0
 48
50.0
370
    -2
100
AcDbLine
 10
6158.259633033175
 20
821.3394753108582
 30
0.0
 11
6158.259633033175
 21
482.3873688549252
 31
0.0
  0
LINE
  5
21BDC
330
219EE
100
AcDbEntity
  8
寸法
 62
     0
 48
50.0
370
    -2
100
AcDbLine
 10
5598.259633033173
 20
542.3873688549251
 30
0.0
 11
6158.259633033175
 21
542.3873688549251
 31
0.0
  0
INSERT
  5
21BDD
330
219EE
100
AcDbEntity
  8
寸法
 62
     0
 48
50.0
370
    -2
100
AcDbBlockReference
  2
_DOTSMALL
 10
5598.259633033173
 20
542.3873688549251
 30
0.0
 41
100.0
 42
100.0
 43
100.0
 50
180.0
  0
INSERT
  5
21BDE
330
219EE
100
AcDbEntity
  8
寸法
 62
     0
 48
50.0
370
    -2
100
AcDbBlockReference
  2
_DOTSMALL
 10
6158.259633033175
 20
542.3873688549251
 30
0.0
 41
100.0
 42
100.0
 43
100.0
  0
MTEXT
  5
21BDF
330
219EE
100
AcDbEntity
  8
寸法
 62
     7
 48
50.0
100
AcDbMText
 10
5878.259633033174
 20
642.3873688549251
 30
0.0
 40
120.0
 41
0.0
 71
     5
 72
     1
  1
\A1;300
  7
STYLE1
 73
     1
 44
1.0
1001
ACAD
1000
MTEXTBEGIN
1070
    73
1070
     1
1070
    44
1040
1.0
1070
    74
1070
     0
1000
MTEXTEND
  0
POINT
  5
21BE0
330
219EE
100
AcDbEntity
  8
DEFPOINTS
 62
     0
 48
50.0
100
AcDbPoint
 10
5598.259633033173
 20
841.3394753108581
 30
0.0
  0
POINT
  5
21BE1
330
219EE
100
AcDbEntity
  8
DEFPOINTS
 62
     0
 48
50.0
100
AcDbPoint
 10
6158.259633033175
 20
841.3394753108581
 30
0.0
  0
POINT
  5
21BE2
330
219EE
100
AcDbEntity
  8
DEFPOINTS
 62
     0
 48
50.0
100
AcDbPoint
 10
6158.259633033175
 20
542.3873688549251
 30
0.0
  0
ENDBLK
  5
219F9
330
219EE
100
AcDbEntity
  8
0
 48
50.0
100
AcDbBlockEnd
  0
BLOCK
  5
21A03
330
219FA
100
AcDbEntity
  8
0
 48
50.0
100
AcDbBlockBegin
  2
*D28
 70
     1
 10
0.0
 20
0.0
 30
0.0
  3
*D28
  1

  0
LINE
  5
21BD1
330
219FA
100
AcDbEntity
  8
寸法
 62
     0
 48
50.0
370
    -2
100
AcDbLine
 10
8420.808774504667
 20
1981.33947531086
 30
0.0
 11
9088.144524215723
 21
1981.339475310859
 31
0.0
  0
LINE
  5
21BD2
330
219FA
100
AcDbEntity
  8
寸法
 62
     0
 48
50.0
370
    -2
100
AcDbLine
 10
8420.808774504667
 20
1576.339475310857
 30
0.0
 11
9088.144524215723
 21
1576.339475310857
 31
0.0
  0
LINE
  5
21BD3
330
219FA
100
AcDbEntity
  8
寸法
 62
     0
 48
50.0
370
    -2
100
AcDbLine
 10
9028.144524215724
 20
1981.339475310859
 30
0.0
 11
9028.144524215724
 21
1576.339475310857
 31
0.0
  0
INSERT
  5
21BD4
330
219FA
100
AcDbEntity
  8
寸法
 62
     0
 48
50.0
370
    -2
100
AcDbBlockReference
  2
_DOTSMALL
 10
9028.144524215724
 20
1981.339475310859
 30
0.0
 41
100.0
 42
100.0
 43
100.0
 50
90.0
  0
INSERT
  5
21BD5
330
219FA
100
AcDbEntity
  8
寸法
 62
     0
 48
50.0
370
    -2
100
AcDbBlockReference
  2
_DOTSMALL
 10
9028.144524215724
 20
1576.339475310857
 30
0.0
 41
100.0
 42
100.0
 43
100.0
 50
270.0
  0
MTEXT
  5
21BD6
330
219FA
100
AcDbEntity
  8
寸法
 62
     7
 48
50.0
100
AcDbMText
 10
8928.144524215722
 20
1778.83947531086
 30
0.0
 40
120.0
 41
0.0
 71
     5
 72
     1
  1
\A1;180
  7
STYLE1
 11
0.0000000000000001
 21
1.0
 31
0.0
 73
     1
 44
1.0
1001
ACAD
1000
MTEXTBEGIN
1070
    73
1070
     1
1070
    44
1040
1.0
1070
    74
1070
     0
1000
MTEXTEND
  0
POINT
  5
21BD7
330
219FA
100
AcDbEntity
  8
DEFPOINTS
 62
     0
 48
50.0
100
AcDbPoint
 10
8400.808774504666
 20
1981.33947531086
 30
0.0
  0
POINT
  5
21BD8
330
219FA
100
AcDbEntity
  8
DEFPOINTS
 62
     0
 48
50.0
100
AcDbPoint
 10
8400.808774504666
 20
1576.339475310857
 30
0.0
  0
POINT
  5
21BD9
330
219FA
100
AcDbEntity
  8
DEFPOINTS
 62
     0
 48
50.0
100
AcDbPoint
 10
9028.144524215724
 20
1576.339475310857
 30
0.0
  0
ENDBLK
  5
21A04
330
219FA
100
AcDbEntity
  8
0
 48
50.0
100
AcDbBlockEnd
  0
BLOCK
  5
21A11
330
21A05
100
AcDbEntity
  8
0
 48
50.0
100
AcDbBlockBegin
  2
*D29
 70
     1
 10
0.0
 20
0.0
 30
0.0
  3
*D29
  1

  0
LINE
  5
21BC6
330
21A05
100
AcDbEntity
  8
寸法
 62
     0
 48
50.0
370
    -2
100
AcDbLine
 10
8186.808774504667
 20
2047.28947531086
 30
0.0
 11
9433.212856864505
 21
2047.289475310859
 31
0.0
  0
LINE
  5
21BC7
330
21A05
100
AcDbEntity
  8
寸法
 62
     0
 48
50.0
370
    -2
100
AcDbLine
 10
8420.808774504667
 20
1981.33947531086
 30
0.0
 11
9433.212856864505
 21
1981.339475310859
 31
0.0
  0
LINE
  5
21BC8
330
21A05
100
AcDbEntity
  8
寸法
 62
     0
 48
50.0
370
    -2
100
AcDbLine
 10
9373.212856864505
 20
2047.289475310859
 30
0.0
 11
9373.212856864505
 21
2147.289475310859
 31
0.0
  0
LINE
  5
21BC9
330
21A05
100
AcDbEntity
  8
寸法
 62
     0
 48
50.0
370
    -2
100
AcDbLine
 10
9373.212856864505
 20
1981.339475310859
 30
0.0
 11
9373.212856864505
 21
1249.321668467894
 31
0.0
  0
LINE
  5
21BCA
330
21A05
100
AcDbEntity
  8
寸法
 62
     0
 48
50.0
370
    -2
100
AcDbLine
 10
9373.212856864505
 20
2047.289475310859
 30
0.0
 11
9373.212856864505
 21
1981.339475310859
 31
0.0
  0
INSERT
  5
21BCB
330
21A05
100
AcDbEntity
  8
寸法
 62
     0
 48
50.0
370
    -2
100
AcDbBlockReference
  2
_DOTSMALL
 10
9373.212856864505
 20
2047.289475310859
 30
0.0
 41
100.0
 42
100.0
 43
100.0
 50
270.0
  0
INSERT
  5
21BCC
330
21A05
100
AcDbEntity
  8
寸法
 62
     0
 48
50.0
370
    -2
100
AcDbBlockReference
  2
_DOTSMALL
 10
9373.212856864505
 20
1981.339475310859
 30
0.0
 41
100.0
 42
100.0
 43
100.0
 50
90.0
  0
MTEXT
  5
21BCD
330
21A05
100
AcDbEntity
  8
寸法
 62
     7
 48
50.0
100
AcDbMText
 10
9273.201045840883
 20
1515.330571889378
 30
0.0
 40
120.0
 41
0.0
 71
     5
 72
     1
  1
\A1;20～25
  7
STYLE1
 11
0.0000000000000001
 21
1.0
 31
0.0
 73
     1
 44
1.0
1001
ACAD
1000
MTEXTBEGIN
1070
    73
1070
     1
1070
    44
1040
1.0
1070
    74
1070
     0
1000
MTEXTEND
  0
POINT
  5
21BCE
330
21A05
100
AcDbEntity
  8
DEFPOINTS
 62
     0
 48
50.0
100
AcDbPoint
 10
8166.808774504668
 20
2047.28947531086
 30
0.0
  0
POINT
  5
21BCF
330
21A05
100
AcDbEntity
  8
DEFPOINTS
 62
     0
 48
50.0
100
AcDbPoint
 10
8400.808774504666
 20
1981.33947531086
 30
0.0
  0
POINT
  5
21BD0
330
21A05
100
AcDbEntity
  8
DEFPOINTS
 62
     0
 48
50.0
100
AcDbPoint
 10
9373.212856864505
 20
1981.339475310859
 30
0.0
  0
ENDBLK
  5
21A12
330
21A05
100
AcDbEntity
  8
0
 48
50.0
100
AcDbBlockEnd
  0
BLOCK
  5
21AB7
330
21AAB
100
AcDbEntity
  8
0
 48
50.0
100
AcDbBlockBegin
  2
*D30
 70
     1
 10
0.0
 20
0.0
 30
0.0
  3
*D30
  1

  0
LINE
  5
21BBC
330
21AAB
100
AcDbEntity
  8
寸法
 62
     0
 48
50.0
370
    -2
100
AcDbLine
 10
8905.157340025516
 20
7272.919036112859
 30
0.0
 11
8905.157340025516
 21
6924.422404093454
 31
0.0
  0
LINE
  5
21BBD
330
21AAB
100
AcDbEntity
  8
寸法
 62
     0
 48
50.0
370
    -2
100
AcDbLine
 10
9015.157340025513
 20
7082.393447280283
 30
0.0
 11
9015.157340025513
 21
6924.422404093454
 31
0.0
  0
LINE
  5
21BBE
330
21AAB
100
AcDbEntity
  8
寸法
 62
     0
 48
50.0
370
    -2
100
AcDbLine
 10
9015.157340025513
 20
6984.422404093454
 30
0.0
 11
8905.157340025516
 21
6984.422404093454
 31
0.0
  0
LINE
  5
21BBF
330
21AAB
100
AcDbEntity
  8
寸法
 62
     0
 48
50.0
370
    -2
100
AcDbLine
 10
8905.157340025516
 20
6984.422404093454
 30
0.0
 11
8557.062851836539
 21
6984.422404093454
 31
0.0
  0
INSERT
  5
21BC0
330
21AAB
100
AcDbEntity
  8
寸法
 62
     0
 48
50.0
370
    -2
100
AcDbBlockReference
  2
_DOTSMALL
 10
9015.157340025513
 20
6984.422404093454
 30
0.0
 41
100.0
 42
100.0
 43
100.0
  0
INSERT
  5
21BC1
330
21AAB
100
AcDbEntity
  8
寸法
 62
     0
 48
50.0
370
    -2
100
AcDbBlockReference
  2
_DOTSMALL
 10
8905.157340025516
 20
6984.422404093454
 30
0.0
 41
100.0
 42
100.0
 43
100.0
 50
180.0
  0
MTEXT
  5
21BC2
330
21AAB
100
AcDbEntity
  8
寸法
 62
     7
 48
50.0
100
AcDbMText
 10
8681.110095931027
 20
7084.422404093453
 30
0.0
 40
120.0
 41
0.0
 71
     5
 72
     1
  1
\A1;110
  7
STYLE1
 73
     1
 44
1.0
1001
ACAD
1000
MTEXTBEGIN
1070
    73
1070
     1
1070
    44
1040
1.0
1070
    74
1070
     0
1000
MTEXTEND
  0
POINT
  5
21BC3
330
21AAB
100
AcDbEntity
  8
DEFPOINTS
 62
     0
 48
50.0
100
AcDbPoint
 10
8905.157340025516
 20
7292.919036112859
 30
0.0
  0
POINT
  5
21BC4
330
21AAB
100
AcDbEntity
  8
DEFPOINTS
 62
     0
 48
50.0
100
AcDbPoint
 10
9015.157340025513
 20
7102.393447280284
 30
0.0
  0
POINT
  5
21BC5
330
21AAB
100
AcDbEntity
  8
DEFPOINTS
 62
     0
 48
50.0
100
AcDbPoint
 10
9015.157340025513
 20
6984.422404093454
 30
0.0
  0
ENDBLK
  5
21AB8
330
21AAB
100
AcDbEntity
  8
0
 48
50.0
100
AcDbBlockEnd
  0
ENDSEC
  0
SECTION
  2
ENTITIES
  0
LINE
  5
10B57
330
747D
100
AcDbEntity
  8
補助
  6
PHANTOM
 62
   230
 48
50.0
100
AcDbLine
 10
139.9999999999995
 20
11409.6
 30
0.0
 11
16307.2
 21
11409.6
 31
0.0
  0
LINE
  5
10B59
330
747D
100
AcDbEntity
  8
仕様書枠
  6
Continuous
 48
50.0
100
AcDbLine
 10
13107.2
 20
1200.0
 30
0.0
 11
13107.2
 21
-0.0000000000000729
 31
0.0
  0
LINE
  5
10B5C
330
747D
100
AcDbEntity
  8
仕様書枠
 48
50.0
100
AcDbLine
 10
16307.2
 20
1200.0
 30
0.0
 11
16307.2
 21
-0.0000000000000909
 31
0.0
  0
LINE
  5
10B5D
330
747D
100
AcDbEntity
  8
仕様書枠
 48
50.0
100
AcDbLine
 10
140.0
 20
0.0
 30
0.0
 11
16307.2
 21
-0.0000000000000909
 31
0.0
  0
LINE
  5
10B5E
330
747D
100
AcDbEntity
  8
補助
  6
PHANTOM
 62
   230
 48
50.0
100
AcDbLine
 10
16307.2
 20
11409.6
 30
0.0
 11
16307.2
 21
1200.0
 31
0.0
  0
LINE
  5
10B6C
330
747D
100
AcDbEntity
  8
仕様書枠
 48
50.0
100
AcDbLine
 10
13107.2
 20
1200.0
 30
0.0
 11
16307.2
 21
1200.0
 31
0.0
  0
LINE
  5
10B6D
330
747D
100
AcDbEntity
  8
補助
  6
PHANTOM
 62
   230
 48
50.0
100
AcDbLine
 10
13107.2
 20
11409.6
 30
0.0
 11
13107.2
 21
4800.0
 31
0.0
  0
LINE
  5
10B6F
330
747D
100
AcDbEntity
  8
補助
  6
PHANTOM
 62
   230
 48
50.0
100
AcDbLine
 10
13107.2
 20
4800.0
 30
0.0
 11
16307.2
 21
4800.0
 31
0.0
  0
LINE
  5
10B72
330
747D
100
AcDbEntity
  8
文字
 62
     7
 48
50.0
100
AcDbLine
 10
13187.2
 20
400.0
 30
0.0
 11
16227.2
 21
400.0
 31
0.0
  0
TEXT
  5
10B73
330
747D
100
AcDbEntity
  8
文字
 62
     7
 48
50.0
100
AcDbText
 10
13162.9790565769
 20
895.0906074299405
 30
0.0
 40
200.0
  1
基 礎 図
  7
STYLE2
100
AcDbText
  0
TEXT
  5
10B74
330
747D
100
AcDbEntity
  8
文字
 62
     7
 48
50.0
100
AcDbText
 10
13201.43669998441
 20
477.2740661031255
 30
0.0
 40
160.0
  1
機種名
  7
STYLE2
100
AcDbText
  0
LINE
  5
10B7B
330
747D
100
AcDbEntity
  8
仕様書枠
 48
50.0
100
AcDbLine
 10
13107.2
 20
800.0
 30
0.0
 11
14251.2
 21
800.0
 31
0.0
  0
LINE
  5
10B88
330
747D
100
AcDbEntity
  8
仕様書枠
  6
Continuous
 48
50.0
100
AcDbLine
 10
14251.2
 20
1200.0
 30
0.0
 11
14251.2
 21
800.0
 31
0.0
  0
TEXT
  5
14DEF
330
747D
100
AcDbEntity
  8
文字
 62
     7
 48
50.0
100
AcDbText
 10
14641.2525855784
 20
871.1744590657925
 30
0.0
 40
100.0
  1
～一般型・多雪地型～
  7
STYLE2
100
AcDbText
  0
TEXT
  5
15A76
330
747D
100
AcDbEntity
  8
文字
 62
     7
 48
50.0
100
AcDbText
 10
14483.56764462811
 20
483.8967129911411
 30
0.0
 40
160.0
  1
ＮＸＮ－４８Ｓ・H
  7
STYLE2
100
AcDbText
  0
TEXT
  5
1D002
330
747D
100
AcDbEntity
  8
文字
 62
     7
 48
50.0
100
AcDbText
 10
13188.16259899338
 20
246.7109242801889
 30
0.0
 40
80.0
  1
※寒冷地等は地域の実情に合わせた基礎にして下さい。
  7
STYLE2
100
AcDbText
  0
DIMENSION
  5
1D91B
330
747D
100
AcDbEntity
  8
寸法
 48
50.0
100
AcDbDimension
  2
*D1
 10
7361.864589901614
 20
5602.919036112863
 30
0.0
 11
7361.864589901613
 21
5838.966280207354
 31
0.0
 70
   160
 71
     5
 42
130.0000000000045
  3
INABA_S40G
100
AcDbAlignedDimension
 13
7145.157340025516
 23
5472.919036112859
 33
0.0
 14
7145.157340025516
 24
5602.919036112863
 34
0.0
 50
90.0
100
AcDbRotatedDimension
  0
DIMENSION
  5
1D91C
330
747D
100
AcDbEntity
  8
寸法
 48
50.0
100
AcDbDimension
  2
*D2
 10
7361.864589901614
 20
5302.919036112861
 30
0.0
 11
7361.864589901613
 21
5066.662132188719
 31
0.0
 70
   160
 71
     5
 42
169.9999999999991
  3
INABA_S40G
100
AcDbAlignedDimension
 13
7145.157340025516
 23
5472.91903611286
 33
0.0
 14
7145.157340025516
 24
5302.919036112861
 34
0.0
 50
90.0
100
AcDbRotatedDimension
  0
DIMENSION
  5
1D91D
330
747D
100
AcDbEntity
  8
寸法
 48
50.0
100
AcDbDimension
  2
*D3
 10
7038.157340025515
 20
8276.250847072711
 30
0.0
 11
8025.157340025515
 21
8376.250847072711
 31
0.0
 70
    32
 71
     5
 42
1974.0
  3
INABA_S40G
100
AcDbAlignedDimension
 13
9012.157340025515
 23
7449.919036112861
 33
0.0
 14
7038.157340025515
 24
7449.919036112861
 34
0.0
100
AcDbRotatedDimension
  0
LINE
  5
1D91E
330
747D
100
AcDbEntity
  8
部品1
 48
50.0
100
AcDbLine
 10
8905.157340025516
 20
5472.919036112876
 30
0.0
 11
7145.157340025514
 21
5472.919036112859
 31
0.0
  0
LINE
  5
1D91F
330
747D
100
AcDbEntity
  8
部品1
 48
50.0
100
AcDbLine
 10
8905.157340025516
 20
7402.919036112859
 30
0.0
 11
7145.157340025514
 21
7402.91903611286
 31
0.0
  0
DIMENSION
  5
1D920
330
747D
100
AcDbEntity
  8
寸法
 48
50.0
100
AcDbDimension
  2
*D4
 10
9135.157340025514
 20
8488.711542589548
 30
0.0
 11
8025.157340025513
 21
8588.72335361317
 31
0.0
 70
    32
 71
     5
 42
2220.000000000002
  3
INABA_S40G
100
AcDbAlignedDimension
 13
6915.157340025513
 23
7522.919036112859
 33
0.0
 14
9135.157340025514
 24
7522.919036112861
 34
0.0
100
AcDbRotatedDimension
  0
LINE
  5
1D921
330
747D
100
AcDbEntity
  8
部品1
 48
50.0
100
AcDbLine
 10
9135.157340025514
 20
5302.919036112878
 30
0.0
 11
6918.157340025515
 21
5302.919036112855
 31
0.0
  0
LINE
  5
1D922
330
747D
100
AcDbEntity
  8
部品1
 48
50.0
100
AcDbLine
 10
9135.157340025514
 20
7522.919036112863
 30
0.0
 11
6915.157340025517
 21
7522.919036112861
 31
0.0
  0
LINE
  5
1D923
330
747D
100
AcDbEntity
  8
想像線
 48
10.0
100
AcDbLine
 10
9180.157340025514
 20
5247.919036112856
 30
0.0
 11
6873.157340025517
 21
5247.919036112861
 31
0.0
  0
LINE
  5
1D924
330
747D
100
AcDbEntity
  8
想像線
 48
10.0
100
AcDbLine
 10
6873.157340025517
 20
7597.91903611286
 30
0.0
 11
9180.157340025511
 21
7597.919036112864
 31
0.0
  0
DIMENSION
  5
1D925
330
747D
100
AcDbEntity
  8
寸法
 48
50.0
100
AcDbDimension
  2
*D5
 10
6915.157340025513
 20
8276.250847072711
 30
0.0
 11
6676.672058651274
 21
8276.250847072711
 31
0.0
 70
   160
 71
     5
 42
123.0000000000018
  3
INABA_S40G
100
AcDbAlignedDimension
 13
7038.157340025515
 23
7449.919036112861
 33
0.0
 14
6915.157340025513
 24
7522.919036112859
 34
0.0
100
AcDbRotatedDimension
  0
DIMENSION
  5
1D926
330
747D
100
AcDbEntity
  8
寸法
 48
50.0
100
AcDbDimension
  2
*D6
 10
6915.157340025515
 20
8488.71154258955
 30
0.0
 11
6892.657340025514
 21
8488.71154258955
 31
0.0
 70
   160
  1
a
 71
     5
 42
45.00000000000364
  3
INABA_S40G
100
AcDbAlignedDimension
 13
6870.157340025511
 23
8276.250847072711
 33
0.0
 14
6915.157340025515
 24
7671.190236682781
 34
0.0
100
AcDbRotatedDimension
  0
DIMENSION
  5
1D927
330
747D
100
AcDbEntity
  8
寸法
 48
50.0
100
AcDbDimension
  2
*D7
 10
6419.215074011693
 20
5500.919036112861
 30
0.0
 11
6419.215074011693
 21
6407.92716086084
 31
0.0
 70
   160
 71
     5
 42
1898.999999999999
  3
INABA_S40G
100
AcDbAlignedDimension
 13
6988.157340025515
 23
7399.919036112861
 33
0.0
 14
6988.157340025523
 24
5500.919036112861
 34
0.0
 50
90.0
100
AcDbRotatedDimension
  0
LINE
  5
1D928
330
747D
100
AcDbEntity
  8
部品1
 48
50.0
100
AcDbLine
 10
7035.157340025516
 20
5602.919036112862
 30
0.0
 11
7035.157340025515
 21
7292.919036112859
 31
0.0
  0
DIMENSION
  5
1D929
330
747D
100
AcDbEntity
  8
寸法
 48
50.0
100
AcDbDimension
  2
*D8
 10
6172.948649765357
 20
5302.91903611286
 30
0.0
 11
6172.948649765356
 21
6404.048515710849
 31
0.0
 70
   160
 71
     5
 42
2220.000000000003
  3
INABA_S40G
100
AcDbAlignedDimension
 13
6915.157340025513
 23
7522.919036112863
 33
0.0
 14
6915.157340025515
 24
5302.91903611286
 34
0.0
 50
90.0
100
AcDbRotatedDimension
  0
LINE
  5
1D92A
330
747D
100
AcDbEntity
  8
部品1
 48
50.0
100
AcDbLine
 10
6915.157340025515
 20
5305.919036112856
 30
0.0
 11
6915.157340025517
 21
7522.919036112861
 31
0.0
  0
LINE
  5
1D92B
330
747D
100
AcDbEntity
  8
想像線
 48
10.0
100
AcDbLine
 10
6870.157340025517
 20
5250.919036112861
 30
0.0
 11
6870.157340025517
 21
7594.91903611286
 31
0.0
  0
DIMENSION
  5
1D92C
330
747D
100
AcDbEntity
  8
寸法
 48
50.0
100
AcDbDimension
  2
*D9
 10
6419.215074011694
 20
5302.91903611286
 30
0.0
 11
6419.215074011693
 21
5066.709376283204
 31
0.0
 70
   160
 71
     5
 42
198.0000000000018
  3
INABA_S40G
100
AcDbAlignedDimension
 13
6988.157340025523
 23
5500.919036112861
 33
0.0
 14
6915.157340025515
 24
5302.91903611286
 34
0.0
 50
90.0
100
AcDbRotatedDimension
  0
DIMENSION
  5
1D92D
330
747D
100
AcDbEntity
  8
寸法
 48
50.0
100
AcDbDimension
  2
*D10
 10
6172.948649765357
 20
5247.919036112859
 30
0.0
 11
6172.948649765356
 21
5275.419036112861
 31
0.0
 70
   160
  1
b
 71
     5
 42
55.0
  3
INABA_S40G
100
AcDbAlignedDimension
 13
6915.157340025515
 23
5302.91903611286
 33
0.0
 14
6419.215074011694
 24
5247.919036112859
 34
0.0
 50
90.0
100
AcDbRotatedDimension
  0
LINE
  5
1D92E
330
747D
100
AcDbEntity
  8
センター
 48
2.0
100
AcDbLine
 10
7038.157340025524
 20
5550.919036112862
 30
0.0
 11
7038.157340025524
 21
5450.919036112861
 31
0.0
  0
LINE
  5
1D92F
330
747D
100
AcDbEntity
  8
センター
 48
2.0
100
AcDbLine
 10
6988.157340025523
 20
5500.919036112861
 30
0.0
 11
7088.157340025524
 21
5500.919036112861
 31
0.0
  0
CIRCLE
  5
1D930
330
747D
100
AcDbEntity
  8
部品1
 48
50.0
100
AcDbCircle
 10
7038.157340025524
 20
5500.919036112861
 30
0.0
 40
35.0
  0
LINE
  5
1D931
330
747D
100
AcDbEntity
  8
部品1
 48
50.0
100
AcDbLine
 10
7145.157340025516
 20
5602.919036112863
 30
0.0
 11
7035.157340025515
 21
5602.919036112862
 31
0.0
  0
LINE
  5
1D932
330
747D
100
AcDbEntity
  8
部品1
 48
50.0
100
AcDbLine
 10
7145.157340025516
 20
5472.91903611286
 30
0.0
 11
7145.157340025516
 21
5602.919036112863
 31
0.0
  0
DIMENSION
  5
1D933
330
747D
100
AcDbEntity
  8
寸法
 48
50.0
100
AcDbDimension
  2
*D11
 10
6419.215074011693
 20
7399.919036112861
 30
0.0
 11
6419.215074011693
 21
7761.4043174871
 31
0.0
 70
   160
 71
     5
 42
123.0
  3
INABA_S40G
100
AcDbAlignedDimension
 13
6915.157340025515
 23
7522.91903611286
 33
0.0
 14
6988.157340025515
 24
7399.919036112861
 34
0.0
 50
90.0
100
AcDbRotatedDimension
  0
DIMENSION
  5
1D934
330
747D
100
AcDbEntity
  8
寸法
 48
50.0
100
AcDbDimension
  2
*D12
 10
6173.722271873725
 20
7522.91903611286
 30
0.0
 11
6173.722271873725
 21
7560.419036112863
 31
0.0
 70
   160
  1
c
 71
     5
 42
75.0
  3
INABA_S40G
100
AcDbAlignedDimension
 13
6419.215074011694
 23
7597.91903611286
 33
0.0
 14
6915.157340025515
 24
7522.91903611286
 34
0.0
 50
90.0
100
AcDbRotatedDimension
  0
LINE
  5
1D935
330
747D
100
AcDbEntity
  8
部品1
 48
50.0
100
AcDbLine
 10
7035.157340025515
 20
6512.919036112861
 30
0.0
 11
6915.157340025517
 21
6512.919036112861
 31
0.0
  0
LINE
  5
1D936
330
747D
100
AcDbEntity
  8
部品1
 48
50.0
100
AcDbLine
 10
7035.157340025515
 20
6312.919036112861
 30
0.0
 11
6915.157340025517
 21
6312.919036112861
 31
0.0
  0
LINE
  5
1D938
330
747D
100
AcDbEntity
  8
センター
 48
2.0
100
AcDbLine
 10
7038.157340025515
 20
7449.919036112861
 30
0.0
 11
7038.157340025515
 21
7349.919036112861
 31
0.0
  0
LINE
  5
1D939
330
747D
100
AcDbEntity
  8
センター
 48
2.0
100
AcDbLine
 10
6988.157340025515
 20
7399.919036112861
 30
0.0
 11
7088.157340025515
 21
7399.919036112861
 31
0.0
  0
CIRCLE
  5
1D93A
330
747D
100
AcDbEntity
  8
部品1
 48
50.0
100
AcDbCircle
 10
7038.157340025515
 20
7399.919036112861
 30
0.0
 40
35.0
  0
LINE
  5
1D93B
330
747D
100
AcDbEntity
  8
部品1
 48
50.0
100
AcDbLine
 10
7145.157340025514
 20
7292.919036112856
 30
0.0
 11
7035.157340025513
 21
7292.919036112859
 31
0.0
  0
LINE
  5
1D93C
330
747D
100
AcDbEntity
  8
部品1
 48
50.0
100
AcDbLine
 10
7145.157340025514
 20
7292.919036112856
 30
0.0
 11
7145.157340025514
 21
7402.91903611286
 31
0.0
  0
DIMENSION
  5
1D93E
330
747D
100
AcDbEntity
  8
寸法
 48
50.0
100
AcDbDimension
  2
*D13
 10
9012.157340025515
 20
8276.250847072711
 30
0.0
 11
9373.642621399753
 21
8276.250847072711
 31
0.0
 70
   160
 71
     5
 42
123.0
  3
INABA_S40G
100
AcDbAlignedDimension
 13
9135.157340025514
 23
7522.919036112861
 33
0.0
 14
9012.157340025515
 24
7449.919036112861
 34
0.0
100
AcDbRotatedDimension
  0
DIMENSION
  5
1D93F
330
747D
100
AcDbEntity
  8
寸法
 48
50.0
100
AcDbDimension
  2
*D14
 10
9180.157340025514
 20
8488.711542589548
 30
0.0
 11
9157.657340025513
 21
8488.711542589548
 31
0.0
 70
   160
  1
a
 71
     5
 42
45.0
  3
INABA_S40G
100
AcDbAlignedDimension
 13
9135.157340025514
 23
7671.190236682781
 33
0.0
 14
9180.157340025514
 24
8276.250847072711
 34
0.0
100
AcDbRotatedDimension
  0
DIMENSION
  5
1D942
330
747D
100
AcDbEntity
  8
寸法
 48
50.0
100
AcDbDimension
  2
*D15
 10
9015.157340025513
 20
6984.422404093454
 30
0.0
 11
9371.204584120004
 21
6984.422404093454
 31
0.0
 70
   160
 71
     5
 42
120.0000000000018
  3
INABA_S40G
100
AcDbAlignedDimension
 13
9135.157340025514
 23
7042.919036112869
 33
0.0
 14
9015.157340025513
 24
7117.560052264252
 34
0.0
100
AcDbRotatedDimension
  0
TEXT
  5
1D943
330
747D
100
AcDbEntity
  8
部品1
 48
50.0
100
AcDbText
 10
9221.977406703917
 20
4608.032239333585
 30
0.0
 40
80.0
  1
(a=45,b=55,c=75)
  7
STYLE1
100
AcDbText
  0
TEXT
  5
1D944
330
747D
100
AcDbEntity
  8
部品1
 48
50.0
100
AcDbText
 10
9152.100519099032
 20
4727.763285486725
 30
0.0
 40
80.0
  1
※a,b,cは屋根の出幅です。
  7
STYLE1
100
AcDbText
  0
MTEXT
  5
1D945
102
{ACAD_REACTORS
330
1D946
102
}
330
747D
100
AcDbEntity
  8
部品1
 62
     7
 48
50.0
100
AcDbMText
 10
10017.28311456383
 20
4951.901644153068
 30
0.0
 40
120.0
 41
0.0
 71
     6
 72
     1
  1
\A1;屋根の外寸
  7
STYLE1
 73
     1
 44
1.0
1001
ACAD
1000
MTEXTBEGIN
1070
    73
1070
     1
1070
    44
1040
1.0
1070
    74
1070
     0
1000
MTEXTEND
  0
LEADER
  5
1D946
330
747D
100
AcDbEntity
  8
寸法
 48
50.0
100
AcDbLeader
  3
INABA_S40G
 71
     0
 73
     0
 74
     0
 75
     1
 40
120.0
 41
672.0
 76
     3
 10
8947.045927959342
 20
5246.91903611286
 30
0.0
 10
9205.283114563833
 20
4851.901644153069
 30
0.0
 10
9305.283114563833
 20
4851.901644153069
 30
0.0
340
1D945
  0
LINE
  5
1D949
330
747D
100
AcDbEntity
  8
部品1
 48
50.0
100
AcDbLine
 10
9015.157340025515
 20
5602.919036112879
 30
0.0
 11
9015.157340025513
 21
7292.919036112862
 31
0.0
  0
LINE
  5
1D94A
330
747D
100
AcDbEntity
  8
部品1
 48
50.0
100
AcDbLine
 10
9135.157340025514
 20
5302.919036112878
 30
0.0
 11
9135.157340025514
 21
7522.919036112863
 31
0.0
  0
LINE
  5
1D94B
330
747D
100
AcDbEntity
  8
想像線
 48
10.0
100
AcDbLine
 10
9180.157340025511
 20
7597.919036112864
 30
0.0
 11
9180.157340025518
 21
5247.919036112859
 31
0.0
  0
TEXT
  5
1D94C
330
747D
100
AcDbEntity
  8
部品1
 48
50.0
100
AcDbText
 10
7897.157340025522
 20
5041.4665347094
 30
0.0
 40
120.0
  1
扉面
  7
STYLE1
 72
     1
 11
8025.157340025522
 21
5025.4665347094
 31
0.0
100
AcDbText
 73
     1
  0
LINE
  5
1D94F
330
747D
100
AcDbEntity
  8
部品1
 48
50.0
100
AcDbLine
 10
7925.157340025538
 20
5302.919036112868
 30
0.0
 11
7925.157340025538
 21
5472.919036112866
 31
0.0
  0
LINE
  5
1D950
330
747D
100
AcDbEntity
  8
部品1
 48
50.0
100
AcDbLine
 10
8125.157340025538
 20
5302.919036112868
 30
0.0
 11
8125.157340025536
 21
5472.919036112869
 31
0.0
  0
LINE
  5
1D951
330
747D
100
AcDbEntity
  8
センター
 48
2.0
100
AcDbLine
 10
8962.157340025521
 20
5500.919036112861
 30
0.0
 11
9062.157340025521
 21
5500.919036112861
 31
0.0
  0
CIRCLE
  5
1D952
330
747D
100
AcDbEntity
  8
部品1
 48
50.0
100
AcDbCircle
 10
9012.157340025522
 20
5500.919036112861
 30
0.0
 40
35.0
  0
LINE
  5
1D953
330
747D
100
AcDbEntity
  8
部品1
 48
50.0
100
AcDbLine
 10
9015.157340025513
 20
5602.919036112878
 30
0.0
 11
8905.157340025516
 21
5602.919036112878
 31
0.0
  0
LINE
  5
1D954
330
747D
100
AcDbEntity
  8
部品1
 48
50.0
100
AcDbLine
 10
8905.157340025516
 20
5472.919036112877
 30
0.0
 11
8905.157340025516
 21
5602.919036112878
 31
0.0
  0
LINE
  5
1D955
330
747D
100
AcDbEntity
  8
センター
 48
2.0
100
AcDbLine
 10
9012.157340025522
 20
5550.919036112862
 30
0.0
 11
9012.157340025522
 21
5450.919036112861
 31
0.0
  0
LINE
  5
1D956
330
747D
100
AcDbEntity
  8
部品1
 48
50.0
100
AcDbLine
 10
8125.157340025522
 20
7402.91903611286
 30
0.0
 11
8125.157340025522
 21
7522.91903611286
 31
0.0
  0
LINE
  5
1D957
330
747D
100
AcDbEntity
  8
部品1
 48
50.0
100
AcDbLine
 10
7925.157340025522
 20
7402.91903611286
 30
0.0
 11
7925.157340025522
 21
7522.91903611286
 31
0.0
  0
LINE
  5
1D95A
330
747D
100
AcDbEntity
  8
センター
 48
2.0
100
AcDbLine
 10
8962.157340025514
 20
7399.919036112861
 30
0.0
 11
9062.157340025514
 21
7399.919036112861
 31
0.0
  0
CIRCLE
  5
1D95B
330
747D
100
AcDbEntity
  8
部品1
 48
50.0
100
AcDbCircle
 10
9012.157340025515
 20
7399.919036112861
 30
0.0
 40
35.0
  0
LINE
  5
1D95C
330
747D
100
AcDbEntity
  8
部品1
 48
50.0
100
AcDbLine
 10
9015.157340025512
 20
7292.919036112862
 30
0.0
 11
8905.157340025516
 21
7292.919036112859
 31
0.0
  0
LINE
  5
1D95D
330
747D
100
AcDbEntity
  8
部品1
 48
50.0
100
AcDbLine
 10
8905.157340025516
 20
7292.919036112859
 30
0.0
 11
8905.157340025516
 21
7402.919036112859
 31
0.0
  0
LINE
  5
1D95E
330
747D
100
AcDbEntity
  8
部品1
 48
50.0
100
AcDbLine
 10
9135.157340025516
 20
6512.919036112861
 30
0.0
 11
9015.157340025513
 21
6512.919036112861
 31
0.0
  0
LINE
  5
1D95F
330
747D
100
AcDbEntity
  8
部品1
 48
50.0
100
AcDbLine
 10
9135.157340025516
 20
6312.919036112861
 30
0.0
 11
9015.157340025513
 21
6312.919036112861
 31
0.0
  0
LINE
  5
1D961
330
747D
100
AcDbEntity
  8
センター
 48
2.0
100
AcDbLine
 10
9012.157340025515
 20
7449.919036112861
 30
0.0
 11
9012.157340025515
 21
7349.919036112861
 31
0.0
  0
TEXT
  5
1DEDA
330
747D
100
AcDbEntity
  8
文字
 62
     7
 48
50.0
100
AcDbText
 10
13188.16259899338
 20
79.80631269190325
 30
0.0
 40
80.0
  1
※布基礎には換気口を設けてください。
  7
STYLE2
100
AcDbText
  0
MTEXT
  5
1E700
102
{ACAD_REACTORS
330
1E701
102
}
330
747D
100
AcDbEntity
  8
部品1
 62
     7
 48
50.0
100
AcDbMText
 10
10184.97431946162
 20
7765.944479920811
 30
0.0
 40
120.0
 41
0.0
 71
     6
 72
     1
  1
基礎ボルト芯
  7
STYLE1
 73
     1
 44
1.0
1001
ACAD
1000
MTEXTBEGIN
1070
    73
1070
     1
1070
    44
1040
1.0
1070
    74
1070
     0
1000
MTEXTEND
  0
LEADER
  5
1E701
330
747D
100
AcDbEntity
  8
寸法
 48
50.0
100
AcDbLeader
  3
INABA_S40G
 71
     0
 73
     0
 74
     0
 75
     1
 40
120.0
 41
846.0000000000002
 76
     3
 10
9012.157340025515
 20
7399.919036112861
 30
0.0
 10
9198.974319461621
 20
7665.944479920812
 30
0.0
 10
9298.974319461621
 20
7665.944479920812
 30
0.0
340
1E700
  0
DIMENSION
  5
1E96D
330
747D
100
AcDbEntity
  8
寸法
 48
50.0
100
AcDbDimension
  2
*D16
 10
7967.690754844582
 20
7522.919036112863
 30
0.0
 11
7867.690754844581
 21
7155.419036112864
 31
0.0
 70
    32
 71
     5
 42
735.0000000000009
  3
INABA_S40G
100
AcDbAlignedDimension
 13
7729.157340025515
 23
6787.91903611286
 33
0.0
 14
7678.657340025523
 24
7522.919036112863
 34
0.0
 50
90.0
100
AcDbRotatedDimension
  0
DIMENSION
  5
1E98B
330
747D
100
AcDbEntity
  8
寸法
 48
50.0
100
AcDbDimension
  2
*D17
 10
7967.690754844594
 20
6037.919036112869
 30
0.0
 11
7967.690754844593
 21
5670.419036112869
 31
0.0
 70
   160
 71
     5
 42
735.0000000000009
  3
INABA_S40G
100
AcDbAlignedDimension
 13
7678.657340025523
 23
5302.919036112868
 33
0.0
 14
7729.157340025515
 24
6037.919036112869
 34
0.0
 50
90.0
100
AcDbRotatedDimension
  0
MTEXT
  5
1F11B
102
{ACAD_REACTORS
330
1F11C
102
}
330
747D
100
AcDbEntity
  8
部品1
 62
     7
 48
50.0
100
AcDbMText
 10
10205.39452663001
 20
6117.901644153088
 30
0.0
 40
120.0
 41
0.0
 71
     6
 72
     1
  1
床下換気口
  7
STYLE1
 73
     1
 44
1.0
1001
ACAD
1000
MTEXTBEGIN
1070
    73
1070
     1
1070
    44
1040
1.0
1070
    74
1070
     0
1000
MTEXTEND
  0
LEADER
  5
1F11C
330
747D
100
AcDbEntity
  8
寸法
 48
50.0
100
AcDbLeader
  3
INABA_S40G
 71
     0
 73
     0
 74
     0
 75
     1
 40
120.0
 41
720.0000000000001
 76
     3
 10
9135.157340025516
 20
6412.919036112879
 30
0.0
 10
9345.394526630009
 20
6017.901644153088
 30
0.0
 10
9445.394526630009
 20
6017.901644153088
 30
0.0
340
1F11B
  0
DIMENSION
  5
1F248
330
747D
100
AcDbEntity
  8
寸法
 48
50.0
100
AcDbDimension
  2
*D19
 10
8371.157340025515
 20
8048.090767068199
 30
0.0
 11
8711.927475207966
 21
8048.090767068199
 31
0.0
 70
   160
 71
     5
 42
763.9999999999964
  3
INABA_S40G
100
AcDbAlignedDimension
 13
9135.157340025511
 23
7522.919036112863
 33
0.0
 14
8371.157340025515
 24
6837.919036112861
 34
0.0
100
AcDbRotatedDimension
  0
DIMENSION
  5
1F249
330
747D
100
AcDbEntity
  8
寸法
 48
50.0
100
AcDbDimension
  2
*D18
 10
6915.157340025513
 20
8049.82880176119
 30
0.0
 11
7297.157340025512
 21
8149.82880176119
 31
0.0
 70
    32
 71
     5
 42
764.0000000000009
  3
INABA_S40G
100
AcDbAlignedDimension
 13
7679.157340025515
 23
6837.919036112861
 33
0.0
 14
6915.157340025513
 24
7522.919036112863
 34
0.0
100
AcDbRotatedDimension
  0
LINE
  5
1F940
330
747D
100
AcDbEntity
  8
センター
 48
2.0
100
AcDbLine
 10
8371.157340025515
 20
6837.919036112861
 30
0.0
 11
8371.157340025515
 21
6737.91903611286
 31
0.0
  0
LINE
  5
1F941
330
747D
100
AcDbEntity
  8
部品1
 48
50.0
100
AcDbLine
 10
8471.157340025515
 20
6687.919036112861
 30
0.0
 11
8471.157340025515
 21
6887.919036112861
 31
0.0
  0
LINE
  5
1F942
330
747D
100
AcDbEntity
  8
部品1
 48
50.0
100
AcDbLine
 10
8271.157340025519
 20
6687.919036112861
 30
0.0
 11
8271.157340025519
 21
6887.919036112861
 31
0.0
  0
LINE
  5
1F943
330
747D
100
AcDbEntity
  8
センター
 48
2.0
100
AcDbLine
 10
8321.157340025514
 20
6787.91903611286
 30
0.0
 11
8421.157340025514
 21
6787.91903611286
 31
0.0
  0
LINE
  5
1F944
330
747D
100
AcDbEntity
  8
部品1
 48
50.0
100
AcDbLine
 10
8471.157340025515
 20
6687.919036112859
 30
0.0
 11
8271.157340025515
 21
6687.919036112859
 31
0.0
  0
LINE
  5
1F945
330
747D
100
AcDbEntity
  8
部品1
 48
50.0
100
AcDbLine
 10
8471.157340025515
 20
6887.919036112861
 30
0.0
 11
8271.157340025515
 21
6887.919036112861
 31
0.0
  0
LINE
  5
1FDB5
330
747D
100
AcDbEntity
  8
想像線
 48
10.0
100
AcDbLine
 10
6873.157340025517
 20
7597.91903611286
 30
0.0
 11
6870.157340025517
 21
7594.91903611286
 31
0.0
  0
LINE
  5
1FDB8
330
747D
100
AcDbEntity
  8
部品1
 48
50.0
100
AcDbLine
 10
6915.157340025515
 20
5305.919036112856
 30
0.0
 11
6918.157340025515
 21
5302.919036112855
 31
0.0
  0
LINE
  5
1FDB9
330
747D
100
AcDbEntity
  8
想像線
 48
10.0
100
AcDbLine
 10
6870.157340025517
 20
5250.919036112861
 30
0.0
 11
6873.157340025517
 21
5247.919036112861
 31
0.0
  0
LINE
  5
1FE23
330
747D
100
AcDbEntity
  8
センター
 48
2.0
100
AcDbLine
 10
7629.157340025514
 20
6787.91903611286
 30
0.0
 11
7729.157340025515
 21
6787.91903611286
 31
0.0
  0
LINE
  5
1FE24
330
747D
100
AcDbEntity
  8
部品1
 48
50.0
100
AcDbLine
 10
7579.157340025514
 20
6687.919036112861
 30
0.0
 11
7579.157340025514
 21
6887.919036112861
 31
0.0
  0
LINE
  5
1FE25
330
747D
100
AcDbEntity
  8
部品1
 48
50.0
100
AcDbLine
 10
7779.157340025513
 20
6687.919036112861
 30
0.0
 11
7779.157340025514
 21
6887.919036112861
 31
0.0
  0
LINE
  5
1FE26
330
747D
100
AcDbEntity
  8
センター
 48
2.0
100
AcDbLine
 10
7679.157340025515
 20
6837.919036112861
 30
0.0
 11
7679.157340025515
 21
6737.91903611286
 31
0.0
  0
DIMENSION
  5
1FE4B
330
747D
100
AcDbEntity
  8
寸法
 48
50.0
100
AcDbDimension
  2
*D20
 10
8371.157340025515
 20
8049.82880176119
 30
0.0
 11
8025.157340025515
 21
8149.869614325995
 31
0.0
 70
    32
 71
     5
 42
692.0000000000008
  3
INABA_S40G
100
AcDbAlignedDimension
 13
7679.157340025515
 23
6837.919036112861
 33
0.0
 14
8371.157340025515
 24
6837.919036112861
 34
0.0
100
AcDbRotatedDimension
  0
LEADER
  5
1FEC1
330
747D
100
AcDbEntity
  8
寸法
 48
50.0
100
AcDbLeader
  3
INABA_S40G
 71
     0
 73
     0
 74
     0
 75
     1
 40
120.0
 41
185.591883092037
 76
     3
 10
8353.751908443708
 20
6712.490509905555
 30
0.0
 10
8548.554159418797
 20
6519.697104093125
 30
0.0
 10
8648.554159418797
 20
6519.697104093125
 30
0.0
340
1FEC2
210
0.0
220
0.0
230
-1.0
213
81.93666386650329
223
-42.66026254335156
233
0.0
  0
MTEXT
  5
1FEC2
102
{ACAD_REACTORS
330
1FEC1
102
}
330
747D
100
AcDbEntity
  8
部品1
 62
     7
 48
50.0
100
AcDbMText
 10
8792.209378644329
 20
6582.357366636478
 30
0.0
 40
120.0
 41
0.0
 71
     6
 72
     1
  1
\A1;C.B
  7
STYLE1
 73
     1
 44
1.0
1001
ACAD
1000
MTEXTBEGIN
1070
    73
1070
     1
1070
    44
1040
1.0
1070
    74
1070
     0
1000
MTEXTEND
  0
LINE
  5
1FEC9
330
747D
100
AcDbEntity
  8
部品1
 48
50.0
100
AcDbLine
 10
7779.157340025514
 20
6887.919036112861
 30
0.0
 11
7579.157340025514
 21
6887.919036112861
 31
0.0
  0
LINE
  5
1FECA
330
747D
100
AcDbEntity
  8
部品1
 48
50.0
100
AcDbLine
 10
7779.157340025514
 20
6687.919036112859
 30
0.0
 11
7579.157340025514
 21
6687.919036112859
 31
0.0
  0
LINE
  5
20324
330
747D
100
AcDbEntity
  8
部品1
 48
50.0
100
AcDbLine
 10
7779.157340025514
 20
5937.919036112868
 30
0.0
 11
7579.157340025514
 21
5937.919036112868
 31
0.0
  0
LINE
  5
20325
330
747D
100
AcDbEntity
  8
部品1
 48
50.0
100
AcDbLine
 10
7779.157340025514
 20
6137.919036112869
 30
0.0
 11
7579.157340025514
 21
6137.919036112869
 31
0.0
  0
LINE
  5
20326
330
747D
100
AcDbEntity
  8
センター
 48
2.0
100
AcDbLine
 10
7679.157340025515
 20
6087.919036112869
 30
0.0
 11
7679.157340025515
 21
5987.919036112869
 31
0.0
  0
LINE
  5
20327
330
747D
100
AcDbEntity
  8
部品1
 48
50.0
100
AcDbLine
 10
7779.157340025513
 20
5937.919036112868
 30
0.0
 11
7779.157340025514
 21
6137.919036112869
 31
0.0
  0
LINE
  5
20328
330
747D
100
AcDbEntity
  8
部品1
 48
50.0
100
AcDbLine
 10
7579.157340025516
 20
5937.919036112868
 30
0.0
 11
7579.157340025516
 21
6137.919036112871
 31
0.0
  0
LINE
  5
20329
330
747D
100
AcDbEntity
  8
センター
 48
2.0
100
AcDbLine
 10
7629.157340025514
 20
6037.919036112869
 30
0.0
 11
7729.157340025515
 21
6037.919036112869
 31
0.0
  0
LINE
  5
2032A
330
747D
100
AcDbEntity
  8
部品1
 48
50.0
100
AcDbLine
 10
8471.157340025515
 20
6137.919036112869
 30
0.0
 11
8271.157340025515
 21
6137.919036112869
 31
0.0
  0
LINE
  5
2032B
330
747D
100
AcDbEntity
  8
部品1
 48
50.0
100
AcDbLine
 10
8471.157340025515
 20
5937.919036112868
 30
0.0
 11
8271.157340025515
 21
5937.919036112868
 31
0.0
  0
LINE
  5
2032C
330
747D
100
AcDbEntity
  8
センター
 48
2.0
100
AcDbLine
 10
8321.157340025514
 20
6037.919036112869
 30
0.0
 11
8421.157340025514
 21
6037.919036112869
 31
0.0
  0
LINE
  5
2032D
330
747D
100
AcDbEntity
  8
部品1
 48
50.0
100
AcDbLine
 10
8271.157340025515
 20
5937.919036112868
 30
0.0
 11
8271.157340025519
 21
6137.919036112871
 31
0.0
  0
LINE
  5
2032E
330
747D
100
AcDbEntity
  8
部品1
 48
50.0
100
AcDbLine
 10
8471.157340025515
 20
5937.919036112868
 30
0.0
 11
8471.157340025515
 21
6137.919036112869
 31
0.0
  0
LINE
  5
2032F
330
747D
100
AcDbEntity
  8
センター
 48
2.0
100
AcDbLine
 10
8371.157340025515
 20
6087.919036112869
 30
0.0
 11
8371.157340025515
 21
5987.919036112869
 31
0.0
  0
DIMENSION
  5
20342
330
747D
100
AcDbEntity
  8
寸法
 48
50.0
100
AcDbDimension
  2
*D21
 10
7967.690754844582
 20
6787.91903611286
 30
0.0
 11
7867.690754844581
 21
6412.919036112866
 31
0.0
 70
    32
 71
     5
 42
749.9999999999918
  3
INABA_S40G
100
AcDbAlignedDimension
 13
7729.157340025515
 23
6037.919036112869
 33
0.0
 14
7729.157340025515
 24
6787.91903611286
 34
0.0
 50
90.0
100
AcDbRotatedDimension
  0
DIMENSION
  5
206A2
330
747D
100
AcDbEntity
  8
寸法
 48
50.0
100
AcDbDimension
  2
*D22
 10
7362.833832283957
 20
7522.919036112859
 30
0.0
 11
7362.833832283957
 21
7788.96628020735
 31
0.0
 70
   160
 71
     5
 42
119.9999999999981
  3
INABA_S40G
100
AcDbAlignedDimension
 13
7145.157340025514
 23
7402.91903611286
 33
0.0
 14
7145.157340025514
 24
7522.919036112859
 34
0.0
 50
90.0
100
AcDbRotatedDimension
  0
DIMENSION
  5
206A3
330
747D
100
AcDbEntity
  8
寸法
 48
50.0
100
AcDbDimension
  2
*D23
 10
7362.833832283958
 20
7402.91903611286
 30
0.0
 11
7362.833832283957
 21
7056.871792018369
 31
0.0
 70
   160
 71
     5
 42
110.0000000000036
  3
INABA_S40G
100
AcDbAlignedDimension
 13
7145.157340025514
 23
7292.919036112856
 33
0.0
 14
7145.157340025514
 24
7402.91903611286
 34
0.0
 50
90.0
100
AcDbRotatedDimension
  0
LINE
  5
21895
330
747D
100
AcDbEntity
  8
細線
100
AcDbLine
 10
10438.71437685626
 20
1681.339475310859
 30
0.0
 11
10195.42270976028
 21
1924.631142406838
 31
0.0
  0
LINE
  5
21896
330
747D
100
AcDbEntity
  8
細線
100
AcDbLine
 10
10375.07476654947
 20
1681.339475310859
 30
0.0
 11
10195.42270976028
 21
1860.991532100049
 31
0.0
  0
LINE
  5
21897
330
747D
100
AcDbEntity
  8
部品1
100
AcDbLine
 10
10195.42270976028
 20
1981.33947531086
 30
0.0
 11
10795.42270976028
 21
1981.33947531086
 31
0.0
  0
LINE
  5
21898
330
747D
100
AcDbEntity
  8
細線
100
AcDbLine
 10
10186.71820288444
 20
1566.715830744171
 30
0.0
 11
10301.34184745113
 21
1681.339475310858
 31
0.0
  0
LWPOLYLINE
  5
21899
330
747D
100
AcDbEntity
  8
部品1
 48
50.0
100
AcDbPolyline
 90
        2
 70
     0
 43
15.0
 10
9714.658632134801
 20
1681.339475310859
 10
11216.02401104933
 20
1681.339475310859
  0
LINE
  5
2189A
330
747D
100
AcDbEntity
  8
部品1
100
AcDbLine
 10
10045.42270976028
 20
1566.715830744171
 30
0.0
 11
10945.42270976028
 21
1566.715830744174
 31
0.0
  0
LINE
  5
2189B
330
747D
100
AcDbEntity
  8
部品1
100
AcDbLine
 10
10045.42270976028
 20
1406.715830744167
 30
0.0
 11
10945.42270976028
 21
1406.715830744171
 31
0.0
  0
LINE
  5
2189C
330
747D
100
AcDbEntity
  8
部品1
100
AcDbLine
 10
4639.45894148139
 20
373.4845006772271
 30
0.0
 11
11535.93363757942
 21
373.4845006772271
 31
0.0
  0
LINE
  5
2189D
330
747D
100
AcDbEntity
  8
部品1
100
AcDbLine
 10
11535.93363757942
 20
3332.554000031914
 30
0.0
 11
4639.45894148139
 21
3332.554000031914
 31
0.0
  0
LINE
  5
2189E
330
747D
100
AcDbEntity
  8
部品1
100
AcDbLine
 10
11535.93363757942
 20
3632.554000031916
 30
0.0
 11
4639.45894148139
 21
3632.554000031915
 31
0.0
  0
LEADER
  5
2189F
330
747D
100
AcDbEntity
  8
寸法
 48
50.0
100
AcDbLeader
  3
INABA_S40G
 73
     0
 75
     1
 40
141.4772727272727
 41
760.7954545454546
 76
     3
 10
8120.979712177229
 20
1918.234067008708
 30
0.0
 10
7906.224926313045
 20
2973.707919954306
 30
0.0
 10
7806.224926313046
 20
2973.707919954306
 30
0.0
340
218A0
  0
MTEXT
  5
218A0
102
{ACAD_REACTORS
330
2189F
102
}
330
747D
100
AcDbEntity
  8
寸法
 62
     7
 48
50.0
100
AcDbMText
 10
7766.224926313045
 20
3084.446556317942
 30
0.0
 40
100.0
 41
1.0
 71
     6
 72
     1
  1
\A1;φ70スリーブ
  7
STYLE2
 73
     1
 44
1.0
1001
ACAD
1000
MTEXTBEGIN
1070
    73
1070
     1
1070
    44
1040
1.0
1070
    74
1070
     0
1000
MTEXTEND
  0
LINE
  5
218A1
330
747D
100
AcDbEntity
  8
部品1
100
AcDbLine
 10
4639.458941481396
 20
3632.554000031915
 30
0.0
 11
4639.458941481396
 21
373.4845006772271
 31
0.0
  0
DIMENSION
  5
218A2
330
747D
100
AcDbEntity
  8
寸法
 48
50.0
100
AcDbDimension
  2
*D24
 10
5758.259633033174
 20
2505.924235206335
 30
0.0
 11
5878.259633033174
 21
2505.924235206335
 31
0.0
 70
   160
  1
120\P170
 71
     5
 42
240.0
  3
INABA_S40G
100
AcDbAlignedDimension
 13
5998.259633033174
 23
1981.33947531086
 33
0.0
 14
5758.259633033174
 24
1981.33947531086
 34
0.0
100
AcDbRotatedDimension
  0
LEADER
  5
218A3
330
747D
100
AcDbEntity
  8
寸法
 48
50.0
100
AcDbLeader
  3
INABA_S40G
 73
     0
 74
     0
 75
     1
 40
127.8409090909091
 41
1133.522727272727
 76
     3
 10
8210.058774504666
 20
2317.743585866209
 30
0.0
 10
8309.898262465718
 20
2753.03823712448
 30
0.0
 10
8409.898262465718
 20
2753.03823712448
 30
0.0
340
218A4
  0
MTEXT
  5
218A4
102
{ACAD_REACTORS
330
218A3
102
}
330
747D
100
AcDbEntity
  8
部品1
 62
     7
 48
50.0
100
AcDbMText
 10
8449.898262465719
 20
2856.958691669935
 30
0.0
 40
100.0
 41
1.0
 71
     4
 72
     1
  1
\A1;ワッシャー(市販品)
  7
STYLE2
 73
     1
 44
1.0
1001
ACAD
1000
MTEXTBEGIN
1070
    73
1070
     1
1070
    44
1040
1.0
1070
    74
1070
     0
1000
MTEXTEND
  0
LEADER
  5
218A5
330
747D
100
AcDbEntity
  8
寸法
 48
50.0
100
AcDbLeader
  3
INABA_S40G
 73
     0
 74
     0
 75
     1
 40
127.8409090909091
 41
850.0
 76
     3
 10
8180.058774504667
 20
2479.933576697288
 30
0.0
 10
8270.501238396365
 20
2984.249590580465
 30
0.0
 10
8370.501238396364
 20
2984.249590580465
 30
0.0
340
218A6
  0
MTEXT
  5
218A6
102
{ACAD_REACTORS
330
218A5
102
}
330
747D
100
AcDbEntity
  8
部品1
 62
     7
 48
50.0
100
AcDbMText
 10
8410.501238396363
 20
3088.17004512592
 30
0.0
 40
100.0
 41
1.0
 71
     4
 72
     1
  1
\A1;ナット(市販品)
  7
STYLE2
 73
     1
 44
1.0
1001
ACAD
1000
MTEXTBEGIN
1070
    73
1070
     1
1070
    44
1040
1.0
1070
    74
1070
     0
1000
MTEXTEND
  0
MTEXT
  5
218A7
102
{ACAD_REACTORS
330
218A8
102
}
330
747D
100
AcDbEntity
  8
寸法
 62
     7
 48
50.0
100
AcDbMText
 10
7799.528684073493
 20
2633.591216433548
 30
0.0
 40
100.0
 41
1.0
 71
     6
 72
     1
  1
アンカープレート {\fArial|b0|i0|c0|p32;U}
  7
STYLE2
 73
     1
 44
1.0
1001
ACAD
1000
MTEXTBEGIN
1070
    73
1070
     1
1070
    44
1040
1.0
1070
    74
1070
     0
1000
MTEXTEND
  0
LEADER
  5
218A8
330
747D
100
AcDbEntity
  8
寸法
 48
50.0
100
AcDbLeader
  3
INABA_S40G
 73
     0
 75
     1
 40
132.9545454545455
 41
1129.404378023068
 76
     3
 10
8047.558774504667
 20
2068.28947531086
 30
0.0
 10
7939.528684073493
 20
2527.113943706275
 30
0.0
 10
7839.528684073494
 20
2527.113943706275
 30
0.0
340
218A7
  0
TEXT
  5
218A9
330
747D
100
AcDbEntity
  8
部品1
 48
50.0
100
AcDbText
 10
5240.584755741978
 20
1695.388215664928
 30
0.0
 40
100.0
  1
▽G.L
  7
STYLE2
100
AcDbText
  0
LWPOLYLINE
  5
218AA
330
747D
100
AcDbEntity
  8
部品1
 48
50.0
100
AcDbPolyline
 90
        2
 70
     0
 43
10.0
 10
5240.584755741978
 20
1681.339475310861
 10
5758.259633033174
 20
1681.339475310861
  0
DIMENSION
  5
218AB
330
747D
100
AcDbEntity
  8
寸法
 48
50.0
100
AcDbDimension
  2
*D25
 10
5420.2342408676
 20
1001.339475310858
 30
0.0
 11
5420.2342408676
 21
1151.339475310858
 31
0.0
 70
   160
  1
150
 71
     5
 42
299.9999999999999
  3
INABA_S40G
100
AcDbAlignedDimension
 13
5598.259633033173
 23
1301.339475310858
 33
0.0
 14
5498.259633033178
 24
1001.339475310858
 34
0.0
 50
90.0
100
AcDbRotatedDimension
  0
DIMENSION
  5
218AC
330
747D
100
AcDbEntity
  8
寸法
 48
50.0
100
AcDbDimension
  2
*D26
 10
4997.61469499711
 20
1001.339475310858
 30
0.0
 11
4997.61469499711
 21
1491.339475310859
 31
0.0
 70
   160
  1
540
 71
     5
 42
980.0000000000014
  3
INABA_S40G
100
AcDbAlignedDimension
 13
5758.259633033174
 23
1981.33947531086
 33
0.0
 14
5498.259633033178
 24
1001.339475310858
 34
0.0
 50
90.0
100
AcDbRotatedDimension
  0
MTEXT
  5
218AD
102
{ACAD_REACTORS
330
218AE
102
}
330
747D
100
AcDbEntity
  8
寸法
 62
     7
 48
50.0
100
AcDbMText
 10
5674.341633114892
 20
2246.984750313413
 30
0.0
 40
100.0
 41
1.0
 71
     6
 72
     1
  1
\A1;金コテ押エ
  7
STYLE2
 73
     1
 44
1.0
1001
ACAD
1000
MTEXTBEGIN
1070
    73
1070
     1
1070
    44
1040
1.0
1070
    74
1070
     0
1000
MTEXTEND
  0
LEADER
  5
218AE
330
747D
100
AcDbEntity
  8
寸法
 48
50.0
100
AcDbLeader
  3
INABA_S40G
 71
     0
 73
     0
 75
     1
 40
130.1136363636363
 41
651.1363636363636
 76
     3
 10
5858.259633033174
 20
1981.33947531086
 30
0.0
 10
5799.341633114892
 20
2156.927932131594
 30
0.0
 10
5699.341633114892
 20
2156.927932131594
 30
0.0
  0
LEADER
  5
218AF
330
747D
100
AcDbEntity
  8
寸法
 48
50.0
100
AcDbLeader
  3
INABA_S40G
 71
     0
 73
     0
 75
     1
 40
100.0
 41
540.3409090909091
 76
     3
 10
5888.259633033174
 20
1678.998493682263
 30
0.0
 10
5759.531837372303
 20
1402.160583006257
 30
0.0
 10
5659.531837372302
 20
1402.160583006257
 30
0.0
213
-12.16522788236671
223
-5.804645826423211
233
0.0
  0
MTEXT
  5
218B0
102
{ACAD_REACTORS
330
218AF
102
}
330
747D
100
AcDbEntity
  8
寸法
 62
     7
 48
50.0
100
AcDbMText
 10
5646.697065254667
 20
1482.965228832679
 30
0.0
 40
100.0
 41
1.0
 71
     6
 72
     1
  1
\A1;D10@300
  7
STYLE2
 73
     1
 44
1.0
1001
ACAD
1000
MTEXTBEGIN
1070
    73
1070
     1
1070
    44
1040
1.0
1070
    74
1070
     0
1000
MTEXTEND
  0
MTEXT
  5
218B1
102
{ACAD_REACTORS
330
218B2
102
}
330
747D
100
AcDbEntity
  8
寸法
 62
     7
 48
50.0
100
AcDbMText
 10
5419.744259735975
 20
671.5409176135095
 30
0.0
 40
100.0
 41
1.0
 71
     6
 72
     1
  1
D13
  7
STYLE2
 73
     1
 44
1.0
1001
ACAD
1000
MTEXTBEGIN
1070
    73
1070
     1
1070
    44
1040
1.0
1070
    74
1070
     0
1000
MTEXTEND
  0
LEADER
  5
218B2
330
747D
100
AcDbEntity
  8
寸法
 48
50.0
100
AcDbLeader
  3
INABA_S40G
 71
     0
 73
     0
 75
     1
 40
100.0
 41
222.7272727272727
 76
     3
 10
5878.259633033174
 20
1151.339475310858
 30
0.0
 10
5544.744259735975
 20
596.5409176135095
 30
0.0
 10
5444.744259735975
 20
596.5409176135095
 30
0.0
  0
LEADER
  5
218B3
330
747D
100
AcDbEntity
  8
寸法
 48
50.0
100
AcDbLeader
  3
INABA_S40G
 71
     0
 73
     0
 75
     1
 40
100.0
 41
225.0
 76
     3
 10
5718.138323473353
 20
1151.339475310858
 30
0.0
 10
5509.590850289181
 20
821.9361082878135
 30
0.0
 10
5409.59085028918
 20
821.9361082878135
 30
0.0
  0
MTEXT
  5
218B4
102
{ACAD_REACTORS
330
218B3
102
}
330
747D
100
AcDbEntity
  8
寸法
 62
     7
 48
50.0
100
AcDbMText
 10
5384.590850289182
 20
896.9361082878135
 30
0.0
 40
100.0
 41
1.0
 71
     6
 72
     1
  1
D10
  7
STYLE2
 73
     1
 44
1.0
1001
ACAD
1000
MTEXTBEGIN
1070
    73
1070
     1
1070
    44
1040
1.0
1070
    74
1070
     0
1000
MTEXTEND
  0
LINE
  5
218B5
330
747D
100
AcDbEntity
  8
部品1
 48
50.0
100
AcDbLine
 10
5998.259633033175
 20
1981.33947531086
 30
0.0
 11
5998.259633033175
 21
1301.339475310858
 31
0.0
  0
LINE
  5
218B6
330
747D
100
AcDbEntity
  8
細線
 48
50.0
100
AcDbLine
 10
5758.259633033175
 20
1359.897907513573
 30
0.0
 11
5888.259633033182
 21
1489.897907513572
 31
0.0
  0
LINE
  5
218B7
330
747D
100
AcDbEntity
  8
細線
 48
50.0
100
AcDbLine
 10
5758.259633033175
 20
1427.249828421591
 30
0.0
 11
5888.259633033174
 21
1557.249828421591
 31
0.0
  0
LINE
  5
218B8
330
747D
100
AcDbEntity
  8
細線
 48
50.0
100
AcDbLine
 10
5758.259633033175
 20
1393.573867967581
 30
0.0
 11
5888.259633033182
 21
1523.573867967585
 31
0.0
  0
LINE
  5
218B9
330
747D
100
AcDbEntity
  8
部品1
 48
50.0
100
AcDbLine
 10
5758.259633033175
 20
1301.339475310858
 30
0.0
 11
5758.259633033175
 21
1981.33947531086
 31
0.0
  0
LINE
  5
218BA
330
747D
100
AcDbEntity
  8
部品1
 48
50.0
100
AcDbLine
 10
5888.259633033182
 20
1151.339475310858
 30
0.0
 11
5888.259633033167
 21
1806.657512053665
 31
0.0
  0
LINE
  5
218BB
330
747D
100
AcDbEntity
  8
部品1
 48
50.0
100
AcDbLine
 10
5908.259633033182
 20
1151.339475310858
 30
0.0
 11
5908.259633033175
 21
1806.657512053665
 31
0.0
  0
LINE
  5
218BC
330
747D
100
AcDbEntity
  8
部品1
 48
50.0
100
AcDbLine
 10
5998.259633033175
 20
1301.339475310858
 30
0.0
 11
6158.259633033175
 21
1301.339475310858
 31
0.0
  0
LINE
  5
218BD
330
747D
100
AcDbEntity
  8
細線
 48
50.0
100
AcDbLine
 10
6044.840607640605
 20
1141.339475310858
 30
0.0
 11
6158.259633033175
 21
1254.758500703432
 31
0.0
  0
LINE
  5
218BE
330
747D
100
AcDbEntity
  8
細線
 48
50.0
100
AcDbLine
 10
6078.51656809461
 20
1141.339475310858
 30
0.0
 11
6158.259633033175
 21
1221.082540249423
 31
0.0
  0
LINE
  5
218BF
330
747D
100
AcDbEntity
  8
細線
 48
50.0
100
AcDbLine
 10
6011.164647186585
 20
1141.339475310858
 30
0.0
 11
6158.259633033175
 21
1288.434461157441
 31
0.0
  0
LEADER
  5
218C0
330
747D
100
AcDbEntity
  8
寸法
 48
50.0
100
AcDbLeader
  3
INABA_S40G
 71
     0
 73
     0
 74
     0
 75
     1
 40
100.0
 41
225.0
 76
     3
 10
6038.138323473353
 20
1151.339475310858
 30
0.0
 10
6162.41920779153
 20
1032.093139132143
 30
0.0
 10
6262.419207791531
 20
1032.093139132143
 30
0.0
  0
DIMENSION
  5
218C1
330
747D
100
AcDbEntity
  8
寸法
 48
50.0
100
AcDbDimension
  2
*D27
 10
6158.259633033175
 20
542.3873688549251
 30
0.0
 11
5878.259633033174
 21
542.3873688549251
 31
0.0
 70
   160
  1
300
 71
     5
 42
560.0000000000009
  3
INABA_S40G
100
AcDbAlignedDimension
 13
5598.259633033173
 23
841.3394753108581
 33
0.0
 14
6158.259633033175
 24
841.3394753108581
 34
0.0
100
AcDbRotatedDimension
  0
LEADER
  5
218C2
330
747D
100
AcDbEntity
  8
寸法
 48
50.0
100
AcDbLeader
  3
INABA_S40G
 71
     0
 73
     0
 74
     0
 75
     1
 40
100.0
 41
540.3409090909091
 76
     3
 10
5970.691094299642
 20
1130.413812293951
 30
0.0
 10
6175.432702859738
 20
703.3752898003304
 30
0.0
 10
6275.432702859738
 20
703.3752898003304
 30
0.0
213
0.0
223
-1.277828345336728
233
0.0
  0
LINE
  5
218C3
330
747D
100
AcDbEntity
  8
部品1
 48
50.0
100
AcDbLine
 10
6258.259633033178
 20
1001.339475310858
 30
0.0
 11
5498.259633033178
 21
1001.339475310858
 31
0.0
  0
LINE
  5
218C4
330
747D
100
AcDbEntity
  8
部品1
 48
50.0
100
AcDbLine
 10
6258.259633033178
 20
841.3394753108581
 30
0.0
 11
5498.259633033178
 21
841.3394753108581
 31
0.0
  0
LINE
  5
218C5
330
747D
100
AcDbEntity
  8
細線
 48
50.0
100
AcDbLine
 10
6051.958294771312
 20
841.3394753108573
 30
0.0
 11
6094.83016556029
 21
1001.339475310857
 31
0.0
  0
LINE
  5
218C6
330
747D
100
AcDbEntity
  8
細線
 48
50.0
100
AcDbLine
 10
5854.738182403193
 20
841.3394753108581
 30
0.0
 11
5897.61005319217
 21
1001.339475310858
 31
0.0
  0
LINE
  5
218C7
330
747D
100
AcDbEntity
  8
部品1
 48
50.0
100
AcDbLine
 10
5498.259633033178
 20
841.3394753108581
 30
0.0
 11
5498.259633033178
 21
1001.339475310858
 31
0.0
  0
LINE
  5
218C8
330
747D
100
AcDbEntity
  8
細線
 48
50.0
100
AcDbLine
 10
5558.908013850999
 20
841.3394753108573
 30
0.0
 11
5601.779884639976
 21
1001.339475310857
 31
0.0
  0
LINE
  5
218C9
330
747D
100
AcDbEntity
  8
細線
 48
50.0
100
AcDbLine
 10
5756.128126219127
 20
841.3394753108573
 30
0.0
 11
5798.999997008106
 21
1001.339475310857
 31
0.0
  0
LINE
  5
218CA
330
747D
100
AcDbEntity
  8
細線
 48
50.0
100
AcDbLine
 10
5657.51807003507
 20
841.3394753108581
 30
0.0
 11
5700.389940824049
 21
1001.339475310858
 31
0.0
  0
LINE
  5
218CB
330
747D
100
AcDbEntity
  8
細線
 48
50.0
100
AcDbLine
 10
5953.34823858725
 20
841.3394753108581
 30
0.0
 11
5996.220109376232
 21
1001.339475310857
 31
0.0
  0
LINE
  5
218CC
330
747D
100
AcDbEntity
  8
細線
 48
50.0
100
AcDbLine
 10
5665.556545808004
 20
871.3394753108582
 30
0.0
 11
5673.595021580937
 21
841.3394753108581
 31
0.0
  0
LINE
  5
218CD
330
747D
100
AcDbEntity
  8
細線
 48
50.0
100
AcDbLine
 10
5566.946489623939
 20
871.3394753108582
 30
0.0
 11
5574.984965396872
 21
841.3394753108581
 31
0.0
  0
LINE
  5
218CE
330
747D
100
AcDbEntity
  8
細線
 48
50.0
100
AcDbLine
 10
5862.776658176134
 20
871.3394753108582
 30
0.0
 11
5870.815133949067
 21
841.3394753108581
 31
0.0
  0
LINE
  5
218CF
330
747D
100
AcDbEntity
  8
細線
 48
50.0
100
AcDbLine
 10
5764.166601992068
 20
871.3394753108582
 30
0.0
 11
5772.205077765002
 21
841.3394753108581
 31
0.0
  0
LINE
  5
218D0
330
747D
100
AcDbEntity
  8
細線
 48
50.0
100
AcDbLine
 10
6059.996770544248
 20
871.3394753108582
 30
0.0
 11
6068.035246317182
 21
841.3394753108581
 31
0.0
  0
LINE
  5
218D1
330
747D
100
AcDbEntity
  8
細線
 48
50.0
100
AcDbLine
 10
5961.386714360191
 20
871.3394753108582
 30
0.0
 11
5969.425190133125
 21
841.3394753108581
 31
0.0
  0
LINE
  5
218D2
330
747D
100
AcDbEntity
  8
部品1
 48
50.0
100
AcDbLine
 10
5598.259633033174
 20
1301.339475310858
 30
0.0
 11
5758.259633033175
 21
1301.339475310858
 31
0.0
  0
LINE
  5
218D3
330
747D
100
AcDbEntity
  8
細線
 48
50.0
100
AcDbLine
 10
5601.756963554517
 20
1001.339475310858
 30
0.0
 11
5721.756963554517
 21
1121.339475310858
 31
0.0
  0
LINE
  5
218D4
330
747D
100
AcDbEntity
  8
細線
 48
50.0
100
AcDbLine
 10
5635.432924008529
 20
1001.339475310858
 30
0.0
 11
5755.43292400853
 21
1121.339475310858
 31
0.0
  0
CIRCLE
  5
218D5
330
747D
100
AcDbEntity
  8
部品1
 48
50.0
100
AcDbCircle
 10
5718.259633033174
 20
1151.339475310858
 30
0.0
 40
10.0
  0
LINE
  5
218D6
330
747D
100
AcDbEntity
  8
細線
 48
50.0
100
AcDbLine
 10
5669.108884462535
 20
1001.339475310858
 30
0.0
 11
5789.108884462535
 21
1121.339475310858
 31
0.0
  0
LINE
  5
218D7
330
747D
100
AcDbEntity
  8
部品1
 48
50.0
100
AcDbLine
 10
5668.259633033175
 20
1141.339475310858
 30
0.0
 11
6088.259633033175
 21
1141.339475310858
 31
0.0
  0
LINE
  5
218D8
330
747D
100
AcDbEntity
  8
部品1
 48
50.0
100
AcDbLine
 10
5668.259633033175
 20
1121.339475310858
 30
0.0
 11
6088.259633033175
 21
1121.339475310858
 31
0.0
  0
LINE
  5
218D9
330
747D
100
AcDbEntity
  8
部品1
 48
50.0
100
AcDbLine
 10
5598.259633033174
 20
1001.339475310858
 30
0.0
 11
5598.259633033174
 21
1301.339475310858
 31
0.0
  0
LINE
  5
218DA
330
747D
100
AcDbEntity
  8
細線
 48
50.0
100
AcDbLine
 10
5498.259633033175
 20
983.0143765180833
 30
0.0
 11
5503.169828455919
 21
1001.339475310858
 31
0.0
  0
LINE
  5
218DB
330
747D
100
AcDbEntity
  8
細線
 48
50.0
100
AcDbLine
 10
5593.74140886705
 20
971.3394753108596
 30
0.0
 11
5585.702933094117
 21
1001.339475310858
 31
0.0
  0
LINE
  5
218DC
330
747D
100
AcDbEntity
  8
細線
 48
50.0
100
AcDbLine
 10
5692.351465051115
 20
971.3394753108596
 30
0.0
 11
5684.312989278182
 21
1001.339475310858
 31
0.0
  0
LINE
  5
218DD
330
747D
100
AcDbEntity
  8
部品1
 48
50.0
100
AcDbLine
 10
5668.259633033175
 20
1141.339475310858
 30
0.0
 11
5668.259633033175
 21
1121.339475310858
 31
0.0
  0
LINE
  5
218DE
330
747D
100
AcDbEntity
  8
細線
 48
50.0
100
AcDbLine
 10
5598.259633033167
 20
1199.897907513572
 30
0.0
 11
5699.70120083046
 21
1301.339475310858
 31
0.0
  0
LINE
  5
218DF
330
747D
100
AcDbEntity
  8
細線
 48
50.0
100
AcDbLine
 10
5598.259633033167
 20
1267.249828421591
 30
0.0
 11
5632.349279922443
 21
1301.339475310858
 31
0.0
  0
LINE
  5
218E0
330
747D
100
AcDbEntity
  8
細線
 48
50.0
100
AcDbLine
 10
5598.259633033167
 20
1233.573867967578
 30
0.0
 11
5666.025240376455
 21
1301.339475310858
 31
0.0
  0
LINE
  5
218E1
330
747D
100
AcDbEntity
  8
部品1
 48
50.0
100
AcDbLine
 10
5868.259633033175
 20
1223.998493682262
 30
0.0
 11
5868.259633033175
 21
1151.339475310858
 31
0.0
  0
LINE
  5
218E2
330
747D
100
AcDbEntity
  8
細線
 48
50.0
100
AcDbLine
 10
5775.43292400853
 20
1141.339475310858
 30
0.0
 11
5848.259633033174
 21
1214.166184335507
 31
0.0
  0
LINE
  5
218E3
330
747D
100
AcDbEntity
  8
部品1
 48
50.0
100
AcDbLine
 10
5848.259633033174
 20
1223.998493682262
 30
0.0
 11
5848.259633033174
 21
1151.339475310858
 31
0.0
  0
LINE
  5
218E4
330
747D
100
AcDbEntity
  8
細線
 48
50.0
100
AcDbLine
 10
5809.108884462535
 20
1141.339475310858
 30
0.0
 11
5848.259633033174
 21
1180.490223881497
 31
0.0
  0
LINE
  5
218E5
330
747D
100
AcDbEntity
  8
細線
 48
50.0
100
AcDbLine
 10
5741.756963554517
 20
1141.339475310858
 30
0.0
 11
5888.259633033174
 21
1287.842144789516
 31
0.0
  0
LINE
  5
218E6
330
747D
100
AcDbEntity
  8
細線
 48
50.0
100
AcDbLine
 10
5871.164647186592
 20
1001.339475310858
 30
0.0
 11
5991.164647186591
 21
1121.339475310858
 31
0.0
  0
LINE
  5
218E7
330
747D
100
AcDbEntity
  8
細線
 48
50.0
100
AcDbLine
 10
5904.840607640604
 20
1001.339475310858
 30
0.0
 11
6024.840607640605
 21
1121.339475310858
 31
0.0
  0
CIRCLE
  5
218E8
330
747D
100
AcDbEntity
  8
部品1
 48
50.0
100
AcDbCircle
 10
5878.259633033174
 20
1151.339475310858
 30
0.0
 40
10.0
  0
LINE
  5
218E9
330
747D
100
AcDbEntity
  8
細線
 48
50.0
100
AcDbLine
 10
5790.96152123518
 20
971.3394753108596
 30
0.0
 11
5782.923045462247
 21
1001.339475310858
 31
0.0
  0
ARC
  5
218EA
330
747D
100
AcDbEntity
  8
部品1
 48
50.0
100
AcDbCircle
 10
5878.259633033174
 20
1151.339475310858
 30
0.0
 40
30.0
100
AcDbArc
 50
180.0
 51
199.4712206345204
  0
LINE
  5
218EB
330
747D
100
AcDbEntity
  8
細線
 48
50.0
100
AcDbLine
 10
5889.571577419245
 20
971.3394753108596
 30
0.0
 11
5881.533101646311
 21
1001.339475310858
 31
0.0
  0
ARC
  5
218EC
330
747D
100
AcDbEntity
  8
部品1
 48
50.0
100
AcDbCircle
 10
5878.259633033174
 20
1151.339475310858
 30
0.0
 40
30.0
100
AcDbArc
 50
340.5287793654796
 51
0.0
  0
LINE
  5
218ED
330
747D
100
AcDbEntity
  8
細線
 48
50.0
100
AcDbLine
 10
5988.181633603303
 20
971.3394753108596
 30
0.0
 11
5980.143157830369
 21
1001.339475310858
 31
0.0
  0
CIRCLE
  5
218EE
330
747D
100
AcDbEntity
  8
部品1
 48
50.0
100
AcDbCircle
 10
6038.259633033174
 20
1151.339475310858
 30
0.0
 40
10.0
  0
LINE
  5
218EF
330
747D
100
AcDbEntity
  8
細線
 48
50.0
100
AcDbLine
 10
6086.791689787361
 20
971.3394753108596
 30
0.0
 11
6078.753214014426
 21
1001.339475310858
 31
0.0
  0
LINE
  5
218F0
330
747D
100
AcDbEntity
  8
部品1
 48
50.0
100
AcDbLine
 10
6088.259633033175
 20
1141.339475310858
 30
0.0
 11
6088.259633033175
 21
1121.339475310858
 31
0.0
  0
LINE
  5
218F1
330
747D
100
AcDbEntity
  8
細線
 48
50.0
100
AcDbLine
 10
5938.51656809461
 20
1001.339475310858
 30
0.0
 11
6058.517677901031
 21
1121.340585117283
 31
0.0
  0
LINE
  5
218F2
330
747D
100
AcDbEntity
  8
細線
 48
50.0
100
AcDbLine
 10
5908.259633033182
 20
1240.490223881497
 30
0.0
 11
5998.259633033168
 21
1330.490223881497
 31
0.0
  0
LINE
  5
218F3
330
747D
100
AcDbEntity
  8
細線
 48
50.0
100
AcDbLine
 10
5908.259633033182
 20
1307.84214478952
 30
0.0
 11
5998.259633033168
 21
1397.842144789517
 31
0.0
  0
LINE
  5
218F4
330
747D
100
AcDbEntity
  8
細線
 48
50.0
100
AcDbLine
 10
5908.259633033182
 20
1274.166184335511
 30
0.0
 11
5998.259633033168
 21
1364.166184335503
 31
0.0
  0
LINE
  5
218F5
330
747D
100
AcDbEntity
  8
細線
 48
50.0
100
AcDbLine
 10
5868.259633033175
 20
1200.490223881497
 30
0.0
 11
5888.259633033182
 21
1220.490223881497
 31
0.0
  0
LINE
  5
218F6
330
747D
100
AcDbEntity
  8
細線
 48
50.0
100
AcDbLine
 10
5858.091942379929
 20
1223.998493682262
 30
0.0
 11
5888.259633033182
 21
1254.166184335511
 31
0.0
  0
LINE
  5
218F7
330
747D
100
AcDbEntity
  8
部品1
 48
50.0
100
AcDbLine
 10
5868.259633033175
 20
1223.998493682262
 30
0.0
 11
5848.259633033174
 21
1223.998493682262
 31
0.0
  0
LINE
  5
218F8
330
747D
100
AcDbEntity
  8
細線
 48
50.0
100
AcDbLine
 10
6150.568350955365
 20
841.3394753108581
 30
0.0
 11
6193.440221744348
 21
1001.339475310857
 31
0.0
  0
LINE
  5
218F9
330
747D
100
AcDbEntity
  8
部品1
 48
50.0
100
AcDbLine
 10
6258.259633033178
 20
1001.339475310858
 30
0.0
 11
6258.259633033178
 21
841.3394753108581
 31
0.0
  0
MTEXT
  5
218FA
102
{ACAD_REACTORS
330
218C2
102
}
330
747D
100
AcDbEntity
  8
寸法
 62
     7
 48
50.0
100
AcDbMText
 10
6300.432702859738
 20
779.6531181456671
 30
0.0
 40
100.0
 41
1.0
 71
     4
 72
     1
  1
\A1;D10@300
  7
STYLE2
 73
     1
 44
1.0
1001
ACAD
1000
MTEXTBEGIN
1070
    73
1070
     1
1070
    44
1040
1.0
1070
    74
1070
     0
1000
MTEXTEND
  0
LINE
  5
218FB
330
747D
100
AcDbEntity
  8
細線
 48
50.0
100
AcDbLine
 10
6249.178407139428
 20
841.3394753108573
 30
0.0
 11
6258.259633033175
 21
875.2310717413443
 31
0.0
  0
LINE
  5
218FC
330
747D
100
AcDbEntity
  8
細線
 48
50.0
100
AcDbLine
 10
6257.216882912364
 20
871.3394753108582
 30
0.0
 11
6258.259633033175
 21
867.4478788804027
 31
0.0
  0
LINE
  5
218FD
330
747D
100
AcDbEntity
  8
細線
 48
50.0
100
AcDbLine
 10
6158.606826728306
 20
871.3394753108582
 30
0.0
 11
6166.64530250124
 21
841.3394753108581
 31
0.0
  0
LINE
  5
218FE
330
747D
100
AcDbEntity
  8
部品1
 48
50.0
100
AcDbLine
 10
6158.259633033175
 20
1301.339475310858
 30
0.0
 11
6158.259633033175
 21
1001.339475310858
 31
0.0
  0
MTEXT
  5
218FF
102
{ACAD_REACTORS
330
218C0
102
}
330
747D
100
AcDbEntity
  8
寸法
 62
     7
 48
50.0
100
AcDbMText
 10
6287.41920779153
 20
1107.093139132142
 30
0.0
 40
100.0
 41
1.0
 71
     4
 72
     1
  1
D10
  7
STYLE2
 73
     1
 44
1.0
1001
ACAD
1000
MTEXTBEGIN
1070
    73
1070
     1
1070
    44
1040
1.0
1070
    74
1070
     0
1000
MTEXTEND
  0
LINE
  5
21900
330
747D
100
AcDbEntity
  8
細線
 48
50.0
100
AcDbLine
 10
6140.572330818667
 20
1001.339475310858
 30
0.0
 11
6158.259633033175
 21
1019.026777525367
 31
0.0
  0
LINE
  5
21901
330
747D
100
AcDbEntity
  8
細線
 48
50.0
100
AcDbLine
 10
6185.40174597142
 20
971.3394753108596
 30
0.0
 11
6177.363270198484
 21
1001.339475310858
 31
0.0
  0
MTEXT
  5
21902
102
{ACAD_REACTORS
330
21904
102
}
330
747D
100
AcDbEntity
  8
寸法
 62
     7
 48
50.0
100
AcDbMText
 10
6101.867054317417
 20
1807.923926934518
 30
0.0
 40
100.0
 41
1.0
 71
     4
 72
     1
  1
D13
  7
STYLE2
 73
     1
 44
1.0
1001
ACAD
1000
MTEXTBEGIN
1070
    73
1070
     1
1070
    44
1040
1.0
1070
    74
1070
     0
1000
MTEXTEND
  0
LWPOLYLINE
  5
21903
330
747D
100
AcDbEntity
  8
部品1
 48
50.0
100
AcDbPolyline
 90
        2
 70
     0
 43
10.0
 10
5998.259633033174
 20
1681.339475310861
 10
6515.93451032437
 20
1681.339475310861
  0
LEADER
  5
21904
330
747D
100
AcDbEntity
  8
寸法
 48
50.0
100
AcDbLeader
  3
INABA_S40G
 71
     0
 73
     0
 74
     0
 75
     1
 40
100.0
 41
222.7272727272727
 76
     3
 10
5878.259633033174
 20
1806.657512053665
 30
0.0
 10
5976.867054317417
 20
1732.923926934518
 30
0.0
 10
6076.867054317418
 20
1732.923926934518
 30
0.0
  0
LINE
  5
21905
330
747D
100
AcDbEntity
  8
部品1
 48
50.0
100
AcDbLine
 10
5868.259633033175
 20
1733.998493682262
 30
0.0
 11
5868.259633033175
 21
1806.657512053665
 31
0.0
  0
LINE
  5
21906
330
747D
100
AcDbEntity
  8
部品1
 48
50.0
100
AcDbLine
 10
5848.259633033174
 20
1733.998493682267
 30
0.0
 11
5848.259633033174
 21
1806.657512053665
 31
0.0
  0
LINE
  5
21907
330
747D
100
AcDbEntity
  8
細線
 48
50.0
100
AcDbLine
 10
5868.259633033175
 20
1739.305591145648
 30
0.0
 11
5888.259633033174
 21
1759.305591145648
 31
0.0
  0
LINE
  5
21908
330
747D
100
AcDbEntity
  8
細線
 48
50.0
100
AcDbLine
 10
5758.259633033175
 20
1696.657512053665
 30
0.0
 11
5848.259633033174
 21
1786.657512053665
 31
0.0
  0
LINE
  5
21909
330
747D
100
AcDbEntity
  8
細線
 48
50.0
100
AcDbLine
 10
5758.259633033175
 20
1662.981551599656
 30
0.0
 11
5848.259633033174
 21
1752.981551599656
 31
0.0
  0
LINE
  5
2190A
330
747D
100
AcDbEntity
  8
細線
 48
50.0
100
AcDbLine
 10
5908.259633033182
 20
1543.573867967585
 30
0.0
 11
5998.259633033168
 21
1633.573867967578
 31
0.0
  0
LINE
  5
2190B
330
747D
100
AcDbEntity
  8
細線
 48
50.0
100
AcDbLine
 10
5908.259633033175
 20
1577.24982842159
 30
0.0
 11
5998.259633033175
 21
1667.249828421591
 31
0.0
  0
LINE
  5
2190C
330
747D
100
AcDbEntity
  8
細線
 48
50.0
100
AcDbLine
 10
5908.259633033182
 20
1509.897907513573
 30
0.0
 11
5998.259633033168
 21
1599.897907513572
 31
0.0
  0
LINE
  5
2190D
330
747D
100
AcDbEntity
  8
部品1
 48
50.0
100
AcDbLine
 10
5868.259633033175
 20
1733.998493682262
 30
0.0
 11
5848.259633033174
 21
1733.998493682267
 31
0.0
  0
LINE
  5
2190E
330
747D
100
AcDbEntity
  8
細線
 48
50.0
100
AcDbLine
 10
5758.259633033175
 20
1629.305591145647
 30
0.0
 11
5862.952535569793
 21
1733.998493682262
 31
0.0
  0
LINE
  5
2190F
330
747D
100
AcDbEntity
  8
部品1
 48
50.0
100
AcDbLine
 10
5758.259633033175
 20
1981.33947531086
 30
0.0
 11
5998.259633033175
 21
1981.33947531086
 31
0.0
  0
LINE
  5
21910
330
747D
100
AcDbEntity
  8
細線
 48
50.0
100
AcDbLine
 10
5893.875161161262
 20
1832.273040181754
 30
0.0
 11
5998.259633033175
 21
1936.657512053665
 31
0.0
  0
LINE
  5
21911
330
747D
100
AcDbEntity
  8
細線
 48
50.0
100
AcDbLine
 10
5907.700517115658
 20
1812.422435682136
 30
0.0
 11
5998.259633033175
 21
1902.981551599657
 31
0.0
  0
LINE
  5
21912
330
747D
100
AcDbEntity
  8
細線
 48
50.0
100
AcDbLine
 10
5908.259633033175
 20
1779.305591145646
 30
0.0
 11
5998.259633033175
 21
1869.305591145647
 31
0.0
  0
LINE
  5
21913
330
747D
100
AcDbEntity
  8
細線
 48
50.0
100
AcDbLine
 10
5868.259633033175
 20
1772.981551599657
 30
0.0
 11
5888.259633033174
 21
1792.981551599656
 31
0.0
  0
CIRCLE
  5
21914
330
747D
100
AcDbEntity
  8
部品1
 48
50.0
100
AcDbCircle
 10
5878.259633033174
 20
1806.657512053665
 30
0.0
 40
10.0
  0
ARC
  5
21915
330
747D
100
AcDbEntity
  8
部品1
 48
50.0
100
AcDbCircle
 10
5878.259633033174
 20
1806.657512053665
 30
0.0
 40
30.0
100
AcDbArc
 50
0.0
 51
180.0
  0
LINE
  5
21916
330
747D
100
AcDbEntity
  8
細線
 48
50.0
100
AcDbLine
 10
5758.259633033175
 20
1966.06519568574
 30
0.0
 11
5773.533912658293
 21
1981.33947531086
 31
0.0
  0
LINE
  5
21917
330
747D
100
AcDbEntity
  8
細線
 48
50.0
100
AcDbLine
 10
5758.259633033175
 20
1898.713274777722
 30
0.0
 11
5840.885833566312
 21
1981.33947531086
 31
0.0
  0
LINE
  5
21918
330
747D
100
AcDbEntity
  8
細線
 48
50.0
100
AcDbLine
 10
5758.259633033175
 20
1932.389235231731
 30
0.0
 11
5807.209873112306
 21
1981.33947531086
 31
0.0
  0
LEADER
  5
21919
330
747D
100
AcDbEntity
  8
寸法
 48
50.0
100
AcDbLeader
  3
INABA_S40G
 73
     0
 74
     0
 75
     1
 40
100.0
 41
543.75
 76
     3
 10
8171.308774504666
 20
2042.789475310859
 30
0.0
 10
8271.989352528816
 20
2221.818633002397
 30
0.0
 10
8371.989352528816
 20
2221.818633002397
 30
0.0
340
2191A
  0
MTEXT
  5
2191A
102
{ACAD_REACTORS
330
21919
102
}
330
747D
100
AcDbEntity
  8
部品1
 62
     7
 48
50.0
100
AcDbMText
 10
8411.989352528815
 20
2311.818633002397
 30
0.0
 40
100.0
 41
1.0
 71
     4
 72
     1
  1
M10X160
  7
STYLE2
 73
     1
 44
1.0
1001
ACAD
1000
MTEXTBEGIN
1070
    73
1070
     1
1070
    44
1040
1.0
1070
    74
1070
     0
1000
MTEXTEND
  0
DIMENSION
  5
2191B
330
747D
100
AcDbEntity
  8
寸法
 48
50.0
100
AcDbDimension
  2
*D28
 10
9028.144524215724
 20
1576.339475310857
 30
0.0
 11
8928.144524215722
 21
1778.83947531086
 31
0.0
 70
    32
  1
180
 71
     5
 42
405.0000000000022
  3
INABA_S40G
100
AcDbAlignedDimension
 13
8400.808774504666
 23
1981.33947531086
 33
0.0
 14
8400.808774504666
 24
1576.339475310857
 34
0.0
 50
90.0
100
AcDbRotatedDimension
  0
LWPOLYLINE
  5
2191C
330
747D
100
AcDbEntity
  8
部品1
 48
50.0
100
AcDbPolyline
 90
        2
 70
     0
 43
10.0
 10
8400.808774504666
 20
1681.339475310861
 10
8767.936853753898
 20
1681.339475310861
  0
LINE
  5
2191D
330
747D
100
AcDbEntity
  8
部品1
 48
50.0
100
AcDbLine
 10
8660.808774504671
 20
1001.339475310858
 30
0.0
 11
7623.30877450467
 21
1001.339475310858
 31
0.0
  0
LINE
  5
2191E
330
747D
100
AcDbEntity
  8
細線
 48
50.0
100
AcDbLine
 10
8579.486136751976
 20
871.3394753108573
 30
0.0
 11
8587.524612524909
 21
841.3394753108573
 31
0.0
  0
LINE
  5
2191F
330
747D
100
AcDbEntity
  8
部品1
 48
50.0
100
AcDbLine
 10
8660.808774504671
 20
841.3394753108581
 30
0.0
 11
7623.30877450467
 21
841.3394753108581
 31
0.0
  0
LINE
  5
21920
330
747D
100
AcDbEntity
  8
細線
 48
50.0
100
AcDbLine
 10
8571.447660979035
 20
841.3394753108573
 30
0.0
 11
8614.319531768016
 21
1001.339475310855
 31
0.0
  0
DIMENSION
  5
21921
330
747D
100
AcDbEntity
  8
寸法
 48
50.0
100
AcDbDimension
  2
*D29
 10
9373.212856864505
 20
1981.339475310859
 30
0.0
 11
9373.212856864505
 21
1515.330571889378
 31
0.0
 70
   160
  1
20～25
 71
     5
 42
65.94999999999981
  3
INABA_S40G
100
AcDbAlignedDimension
 13
8166.808774504668
 23
2047.28947531086
 33
0.0
 14
8400.808774504666
 24
1981.33947531086
 34
0.0
 50
90.0
100
AcDbRotatedDimension
  0
TEXT
  5
21922
330
747D
100
AcDbEntity
  8
部品1
 48
50.0
100
AcDbText
 10
8406.250754860202
 20
2426.187826263609
 30
0.0
 40
100.0
  1
基礎ボルト(市販品)
  7
STYLE2
100
AcDbText
  0
LINE
  5
21923
330
747D
100
AcDbEntity
  8
細線
 48
50.0
100
AcDbLine
 10
7760.482065480021
 20
1001.339475310858
 30
0.0
 11
8400.808774504671
 21
1641.666184335502
 31
0.0
  0
LINE
  5
21924
330
747D
100
AcDbEntity
  8
細線
 48
50.0
100
AcDbLine
 10
7794.158025934028
 20
1001.339475310858
 30
0.0
 11
8400.808774504666
 21
1607.990223881494
 31
0.0
  0
LINE
  5
21925
330
747D
100
AcDbEntity
  8
細線
 48
50.0
100
AcDbLine
 10
7883.308774504667
 20
1427.249828421591
 30
0.0
 11
8081.308774504657
 21
1625.249828421584
 31
0.0
  0
LINE
  5
21926
330
747D
100
AcDbEntity
  8
細線
 48
50.0
100
AcDbLine
 10
7883.308774504667
 20
1359.897907513573
 30
0.0
 11
8099.750342301961
 21
1576.339475310857
 31
0.0
  0
LINE
  5
21927
330
747D
100
AcDbEntity
  8
細線
 48
50.0
100
AcDbLine
 10
7883.308774504667
 20
1393.573867967581
 30
0.0
 11
8081.308774504657
 21
1591.573867967567
 31
0.0
  0
LINE
  5
21928
330
747D
100
AcDbEntity
  8
部品1
 48
50.0
100
AcDbLine
 10
7883.308774504667
 20
1301.339475310858
 30
0.0
 11
7883.308774504667
 21
1981.33947531086
 31
0.0
  0
LINE
  5
21929
330
747D
100
AcDbEntity
  8
部品1
100
AcDbLine
 10
8400.808774504666
 20
1301.339475310858
 30
0.0
 11
8400.808774504666
 21
1981.33947531086
 31
0.0
  0
LINE
  5
2192A
330
747D
100
AcDbEntity
  8
細線
 48
50.0
100
AcDbLine
 10
7726.80610502601
 20
1001.339475310858
 30
0.0
 11
8400.808774504666
 21
1675.342144789516
 31
0.0
  0
LINE
  5
2192B
330
747D
100
AcDbEntity
  8
部品1
 48
50.0
100
AcDbLine
 10
7723.308774504667
 20
1301.339475310858
 30
0.0
 11
7883.308774504667
 21
1301.339475310858
 31
0.0
  0
LINE
  5
2192C
330
747D
100
AcDbEntity
  8
細線
 48
50.0
100
AcDbLine
 10
7723.30877450466
 20
1199.897907513572
 30
0.0
 11
7824.750342301953
 21
1301.339475310858
 31
0.0
  0
LINE
  5
2192D
330
747D
100
AcDbEntity
  8
細線
 48
50.0
100
AcDbLine
 10
7723.30877450466
 20
1233.573867967578
 30
0.0
 11
7791.074381847947
 21
1301.339475310858
 31
0.0
  0
LINE
  5
2192E
330
747D
100
AcDbEntity
  8
細線
 48
50.0
100
AcDbLine
 10
7683.95715532249
 20
841.3394753108573
 30
0.0
 11
7726.829026111468
 21
1001.339475310857
 31
0.0
  0
LINE
  5
2192F
330
747D
100
AcDbEntity
  8
部品1
 48
50.0
100
AcDbLine
 10
7623.30877450467
 20
841.3394753108581
 30
0.0
 11
7623.30877450467
 21
1001.339475310858
 31
0.0
  0
LINE
  5
21930
330
747D
100
AcDbEntity
  8
細線
 48
50.0
100
AcDbLine
 10
7691.995631095432
 20
871.3394753108582
 30
0.0
 11
7700.034106868365
 21
841.3394753108581
 31
0.0
  0
LINE
  5
21931
330
747D
100
AcDbEntity
  8
部品1
 48
50.0
100
AcDbLine
 10
7723.308774504667
 20
1001.339475310858
 30
0.0
 11
7723.308774504667
 21
1301.339475310858
 31
0.0
  0
LINE
  5
21932
330
747D
100
AcDbEntity
  8
細線
 48
50.0
100
AcDbLine
 10
7718.790550338542
 20
971.3394753108596
 30
0.0
 11
7710.752074565609
 21
1001.339475310858
 31
0.0
  0
LINE
  5
21933
330
747D
100
AcDbEntity
  8
細線
 48
50.0
100
AcDbLine
 10
7623.308774504668
 20
983.0143765180833
 30
0.0
 11
7628.218969927411
 21
1001.339475310858
 31
0.0
  0
LINE
  5
21934
330
747D
100
AcDbEntity
  8
細線
 48
50.0
100
AcDbLine
 10
7723.30877450466
 20
1267.249828421591
 30
0.0
 11
7757.398421393935
 21
1301.339475310858
 31
0.0
  0
LINE
  5
21935
330
747D
100
AcDbEntity
  8
細線
 48
50.0
100
AcDbLine
 10
7881.177267690619
 20
841.3394753108573
 30
0.0
 11
7924.049138479599
 21
1001.339475310857
 31
0.0
  0
LINE
  5
21936
330
747D
100
AcDbEntity
  8
細線
 48
50.0
100
AcDbLine
 10
7782.567211506563
 20
841.3394753108581
 30
0.0
 11
7825.439082295542
 21
1001.339475310858
 31
0.0
  0
LINE
  5
21937
330
747D
100
AcDbEntity
  8
細線
 48
50.0
100
AcDbLine
 10
8275.617492426857
 20
841.3394753108581
 30
0.0
 11
8318.48936321584
 21
1001.339475310857
 31
0.0
  0
LINE
  5
21938
330
747D
100
AcDbEntity
  8
細線
 48
50.0
100
AcDbLine
 10
8078.397380058744
 20
841.3394753108581
 30
0.0
 11
8121.269250847724
 21
1001.339475310857
 31
0.0
  0
LINE
  5
21939
330
747D
100
AcDbEntity
  8
細線
 48
50.0
100
AcDbLine
 10
7979.787323874686
 20
841.3394753108581
 30
0.0
 11
8022.659194663663
 21
1001.339475310858
 31
0.0
  0
LINE
  5
2193A
330
747D
100
AcDbEntity
  8
細線
 48
50.0
100
AcDbLine
 10
8177.007436242805
 20
841.3394753108573
 30
0.0
 11
8219.879307031785
 21
1001.339475310857
 31
0.0
  0
LINE
  5
2193B
330
747D
100
AcDbEntity
  8
細線
 48
50.0
100
AcDbLine
 10
8472.83760479498
 20
841.3394753108555
 30
0.0
 11
8515.709475583959
 21
1001.339475310855
 31
0.0
  0
LINE
  5
2193C
330
747D
100
AcDbEntity
  8
細線
 48
50.0
100
AcDbLine
 10
8374.227548610919
 20
841.3394753108573
 30
0.0
 11
8417.099419399887
 21
1001.339475310858
 31
0.0
  0
LINE
  5
2193D
330
747D
100
AcDbEntity
  8
細線
 48
50.0
100
AcDbLine
 10
7889.215743463561
 20
871.3394753108582
 30
0.0
 11
7897.254219236497
 21
841.3394753108581
 31
0.0
  0
LINE
  5
2193E
330
747D
100
AcDbEntity
  8
細線
 48
50.0
100
AcDbLine
 10
7790.605687279496
 20
871.3394753108582
 30
0.0
 11
7798.644163052429
 21
841.3394753108581
 31
0.0
  0
LINE
  5
2193F
330
747D
100
AcDbEntity
  8
細線
 48
50.0
100
AcDbLine
 10
8086.435855831684
 20
871.3394753108582
 30
0.0
 11
8094.474331604617
 21
841.3394753108581
 31
0.0
  0
LINE
  5
21940
330
747D
100
AcDbEntity
  8
細線
 48
50.0
100
AcDbLine
 10
7987.825799647627
 20
871.3394753108582
 30
0.0
 11
7995.86427542056
 21
841.3394753108581
 31
0.0
  0
LINE
  5
21941
330
747D
100
AcDbEntity
  8
細線
 48
50.0
100
AcDbLine
 10
8283.655968199798
 20
871.3394753108582
 30
0.0
 11
8291.694443972732
 21
841.3394753108581
 31
0.0
  0
LINE
  5
21942
330
747D
100
AcDbEntity
  8
細線
 48
50.0
100
AcDbLine
 10
8185.045912015739
 20
871.3394753108582
 30
0.0
 11
8193.084387788674
 21
841.3394753108581
 31
0.0
  0
LINE
  5
21943
330
747D
100
AcDbEntity
  8
細線
 48
50.0
100
AcDbLine
 10
8480.876080567917
 20
871.3394753108573
 30
0.0
 11
8488.914556340851
 21
841.3394753108573
 31
0.0
  0
LINE
  5
21944
330
747D
100
AcDbEntity
  8
細線
 48
50.0
100
AcDbLine
 10
8382.266024383858
 20
871.3394753108582
 30
0.0
 11
8390.304500156805
 21
841.3394753108581
 31
0.0
  0
LINE
  5
21945
330
747D
100
AcDbEntity
  8
細線
 48
50.0
100
AcDbLine
 10
8063.565709566104
 20
1001.339475310858
 30
0.0
 11
8400.808774504666
 21
1338.58254024943
 31
0.0
  0
LINE
  5
21946
330
747D
100
AcDbEntity
  8
細線
 48
50.0
100
AcDbLine
 10
8029.889749112095
 20
1001.339475310858
 30
0.0
 11
8400.808774504666
 21
1372.258500703424
 31
0.0
  0
LINE
  5
21947
330
747D
100
AcDbEntity
  8
細線
 48
50.0
100
AcDbLine
 10
7996.213788658085
 20
1001.339475310858
 30
0.0
 11
8400.808774504666
 21
1405.934461157441
 31
0.0
  0
LINE
  5
21948
330
747D
100
AcDbEntity
  8
細線
 48
50.0
100
AcDbLine
 10
7916.010662706672
 20
971.3394753108596
 30
0.0
 11
7907.972186933739
 21
1001.339475310858
 31
0.0
  0
LINE
  5
21949
330
747D
100
AcDbEntity
  8
細線
 48
50.0
100
AcDbLine
 10
7817.400606522608
 20
971.3394753108596
 30
0.0
 11
7809.362130749675
 21
1001.339475310858
 31
0.0
  0
LINE
  5
2194A
330
747D
100
AcDbEntity
  8
細線
 48
50.0
100
AcDbLine
 10
8113.230775074795
 20
971.3394753108596
 30
0.0
 11
8105.192299301862
 21
1001.339475310858
 31
0.0
  0
LINE
  5
2194B
330
747D
100
AcDbEntity
  8
細線
 48
50.0
100
AcDbLine
 10
8014.620718890737
 20
971.3394753108596
 30
0.0
 11
8006.582243117806
 21
1001.339475310858
 31
0.0
  0
LINE
  5
2194C
330
747D
100
AcDbEntity
  8
部品1
 48
50.0
100
AcDbLine
 10
8560.808774504668
 20
1301.339475310858
 30
0.0
 11
8560.808774504668
 21
1001.339475310858
 31
0.0
  0
LINE
  5
2194D
330
747D
100
AcDbEntity
  8
細線
 48
50.0
100
AcDbLine
 10
8332.973393198178
 20
1001.339475310858
 30
0.0
 11
8560.808774504668
 21
1229.174856617354
 31
0.0
  0
LINE
  5
2194E
330
747D
100
AcDbEntity
  8
細線
 48
50.0
100
AcDbLine
 10
8299.297432744172
 20
1001.339475310858
 30
0.0
 11
8560.808774504668
 21
1262.850817071351
 31
0.0
  0
LINE
  5
2194F
330
747D
100
AcDbEntity
  8
細線
 48
50.0
100
AcDbLine
 10
8265.62147229016
 20
1001.339475310858
 30
0.0
 11
8560.808774504668
 21
1296.526777525368
 31
0.0
  0
LINE
  5
21950
330
747D
100
AcDbEntity
  8
細線
 48
50.0
100
AcDbLine
 10
8310.450887442909
 20
971.3394753108596
 30
0.0
 11
8302.412411669976
 21
1001.339475310858
 31
0.0
  0
LINE
  5
21951
330
747D
100
AcDbEntity
  8
細線
 48
50.0
100
AcDbLine
 10
8211.840831258852
 20
971.3394753108596
 30
0.0
 11
8203.802355485921
 21
1001.339475310858
 31
0.0
  0
LINE
  5
21952
330
747D
100
AcDbEntity
  8
細線
 48
50.0
100
AcDbLine
 10
8507.670999811027
 20
971.3394753108573
 30
0.0
 11
8499.632524038096
 21
1001.339475310857
 31
0.0
  0
LINE
  5
21953
330
747D
100
AcDbEntity
  8
細線
 48
50.0
100
AcDbLine
 10
8409.060943626956
 20
971.3394753108596
 30
0.0
 11
8401.022467854025
 21
1001.339475310858
 31
0.0
  0
LINE
  5
21954
330
747D
100
AcDbEntity
  8
部品1
 48
50.0
100
AcDbLine
 10
8400.808774504666
 20
1301.339475310858
 30
0.0
 11
8560.808774504668
 21
1301.339475310858
 31
0.0
  0
LWPOLYLINE
  5
21955
330
747D
100
AcDbEntity
  8
部品1
 48
50.0
100
AcDbPolyline
 90
        2
 70
     0
 43
10.0
 10
7365.633897213472
 20
1681.339475310861
 10
7883.308774504667
 20
1681.339475310861
  0
TEXT
  5
21956
330
747D
100
AcDbEntity
  8
部品1
 48
50.0
100
AcDbText
 10
7365.63389721347
 20
1695.388215664928
 30
0.0
 40
100.0
  1
▽G.L
  7
STYLE2
100
AcDbText
  0
LINE
  5
21957
330
747D
100
AcDbEntity
  8
部品1
100
AcDbLine
 10
8148.808774504667
 20
1700.089475310859
 30
0.0
 11
8148.808774504663
 21
2042.789475310859
 31
0.0
  0
LINE
  5
21958
330
747D
100
AcDbEntity
  8
部品1
100
AcDbLine
 10
8171.308774504666
 20
1700.089475310859
 30
0.0
 11
8171.308774504664
 21
2042.789475310859
 31
0.0
  0
LINE
  5
21959
330
747D
100
AcDbEntity
  8
部品1
100
AcDbLine
 10
8086.13377450467
 20
2064.914475310861
 30
0.0
 11
8086.133774504663
 21
1996.664475310859
 31
0.0
  0
LINE
  5
2195A
330
747D
100
AcDbEntity
  8
部品1
100
AcDbLine
 10
8071.183774504666
 20
2049.96447531086
 30
0.0
 11
8071.183774504666
 21
1996.664475310859
 31
0.0
  0
LINE
  5
2195B
330
747D
100
AcDbEntity
  8
細線
100
AcDbLine
 10
8153.308774504671
 20
1993.289475310859
 30
0.0
 11
8153.308774504667
 21
2047.28947531086
 31
0.0
  0
LINE
  5
2195C
330
747D
100
AcDbEntity
  8
細線
100
AcDbLine
 10
8166.808774504668
 20
1993.289475310859
 30
0.0
 11
8166.808774504668
 21
2047.28947531086
 31
0.0
  0
LINE
  5
2195D
330
747D
100
AcDbEntity
  8
部品1
100
AcDbLine
 10
7891.183774504667
 20
1996.664475310859
 30
0.0
 11
7891.183774504667
 21
2074.329354939244
 31
0.0
  0
LINE
  5
2195E
330
747D
100
AcDbEntity
  8
部品1
100
AcDbLine
 10
8171.308774504666
 20
1700.089475310859
 30
0.0
 11
8216.308774504666
 21
1700.089475310859
 31
0.0
  0
LINE
  5
2195F
330
747D
100
AcDbEntity
  8
部品1
100
AcDbLine
 10
8171.308774504666
 20
1677.589475310858
 30
0.0
 11
8216.308774504666
 21
1677.589475310858
 31
0.0
  0
LINE
  5
21960
330
747D
100
AcDbEntity
  8
部品1
100
AcDbLine
 10
8089.508774504661
 20
1993.289475310859
 30
0.0
 11
8341.18377450466
 21
1993.289475310859
 31
0.0
  0
LINE
  5
21961
330
747D
100
AcDbEntity
  8
部品1
 48
50.0
100
AcDbLine
 10
7883.308774504667
 20
1981.33947531086
 30
0.0
 11
8400.808774504671
 21
1981.33947531086
 31
0.0
  0
LINE
  5
21962
330
747D
100
AcDbEntity
  8
部品1
100
AcDbLine
 10
8238.808774504667
 20
1576.339475310857
 30
0.0
 11
8081.308774504661
 21
1576.339475310857
 31
0.0
  0
LINE
  5
21963
330
747D
100
AcDbEntity
  8
細線
 48
50.0
100
AcDbLine
 10
7883.308774504667
 20
1662.981551599656
 30
0.0
 11
8081.308774504666
 21
1860.981551599653
 31
0.0
  0
LINE
  5
21964
330
747D
100
AcDbEntity
  8
細線
 48
50.0
100
AcDbLine
 10
7883.308774504667
 20
1696.657512053665
 30
0.0
 11
8081.308774504666
 21
1894.657512053663
 31
0.0
  0
LINE
  5
21965
330
747D
100
AcDbEntity
  8
部品1
100
AcDbLine
 10
8081.308774504661
 20
1576.339475310858
 30
0.0
 11
8081.308774504668
 21
1981.33947531086
 31
0.0
  0
LINE
  5
21966
330
747D
100
AcDbEntity
  8
細線
 48
50.0
100
AcDbLine
 10
7883.308774504667
 20
1629.305591145647
 30
0.0
 11
8081.308774504663
 21
1827.305591145638
 31
0.0
  0
ARC
  5
21967
330
747D
100
AcDbEntity
  8
部品1
100
AcDbCircle
 10
8171.308774504666
 20
1700.089475310859
 30
0.0
 40
22.5
100
AcDbArc
 50
180.0
 51
270.0
  0
LINE
  5
21968
330
747D
100
AcDbEntity
  8
細線
 48
50.0
100
AcDbLine
 10
7883.308774504667
 20
1898.713274777722
 30
0.0
 11
7965.934975037804
 21
1981.33947531086
 31
0.0
  0
LINE
  5
21969
330
747D
100
AcDbEntity
  8
細線
 48
50.0
100
AcDbLine
 10
7883.308774504667
 20
1932.389235231731
 30
0.0
 11
7932.259014583799
 21
1981.33947531086
 31
0.0
  0
LINE
  5
2196A
330
747D
100
AcDbEntity
  8
部品1
100
AcDbLine
 10
7894.558774504666
 20
1993.289475310859
 30
0.0
 11
7909.18377450466
 21
1993.289475310859
 31
0.0
  0
LINE
  5
2196B
330
747D
100
AcDbEntity
  8
細線
 48
50.0
100
AcDbLine
 10
7883.308774504667
 20
1966.06519568574
 30
0.0
 11
7898.583054129786
 21
1981.33947531086
 31
0.0
  0
ARC
  5
2196C
330
747D
100
AcDbEntity
  8
部品1
100
AcDbCircle
 10
7894.558774504666
 20
1996.664475310859
 30
0.0
 40
3.375
100
AcDbArc
 50
180.0
 51
270.0
  0
ARC
  5
2196D
330
747D
100
AcDbEntity
  8
部品1
100
AcDbCircle
 10
8067.808774504667
 20
1996.664475310859
 30
0.0
 40
3.375
100
AcDbArc
 50
270.0
 51
0.0
  0
ARC
  5
2196E
330
747D
100
AcDbEntity
  8
部品1
100
AcDbCircle
 10
8089.508774504661
 20
1996.664475310859
 30
0.0
 40
3.375
100
AcDbArc
 50
180.0
 51
270.0
  0
LINE
  5
2196F
330
747D
100
AcDbEntity
  8
部品1
100
AcDbLine
 10
8053.183774504667
 20
1993.289475310859
 30
0.0
 11
8067.808774504667
 21
1993.289475310859
 31
0.0
  0
LINE
  5
21970
330
747D
100
AcDbEntity
  8
細線
 48
50.0
100
AcDbLine
 10
8238.808774504668
 20
1715.397907513557
 30
0.0
 11
8400.808774504666
 21
1877.397907513546
 31
0.0
  0
LINE
  5
21971
330
747D
100
AcDbEntity
  8
部品1
100
AcDbLine
 10
8238.808774504667
 20
1576.339475310858
 30
0.0
 11
8238.808774504667
 21
1981.33947531086
 31
0.0
  0
LINE
  5
21972
330
747D
100
AcDbEntity
  8
部品1
100
AcDbLine
 10
8216.308774504666
 20
1677.589475310858
 30
0.0
 11
8216.308774504666
 21
1700.089475310859
 31
0.0
  0
LINE
  5
21973
330
747D
100
AcDbEntity
  8
細線
 48
50.0
100
AcDbLine
 10
8238.808774504668
 20
1749.073867967573
 30
0.0
 11
8400.808774504666
 21
1911.07386796757
 31
0.0
  0
LINE
  5
21974
330
747D
100
AcDbEntity
  8
細線
 48
50.0
100
AcDbLine
 10
8238.808774504668
 20
1782.749828421595
 30
0.0
 11
8400.808774504666
 21
1944.749828421593
 31
0.0
  0
LINE
  5
21975
330
747D
100
AcDbEntity
  8
部品1
 48
50.0
100
AcDbLine
 10
8140.058774504666
 20
2459.933576697287
 30
0.0
 11
8180.058774504667
 21
2459.933576697287
 31
0.0
  0
LINE
  5
21976
330
747D
100
AcDbEntity
  8
部品1
 48
50.0
100
AcDbLine
 10
8140.058774504666
 20
2419.933576697288
 30
0.0
 11
8180.058774504667
 21
2419.933576697288
 31
0.0
  0
ELLIPSE
  5
21977
330
747D
100
AcDbEntity
  8
細線
 48
50.0
100
AcDbEllipse
 10
8160.058774504667
 20
2469.933576697289
 30
0.0
 11
18.45838483258558
 21
0.0
 31
0.0
210
0.0
220
0.0
230
1.0
 40
0.2071254069489396
 41
0.0
 42
6.283185307179585
  0
LINE
  5
21978
330
747D
100
AcDbEntity
  8
部品1
 48
50.0
100
AcDbLine
 10
8140.058774504666
 20
2479.933576697288
 30
0.0
 11
8180.058774504667
 21
2479.933576697288
 31
0.0
  0
ELLIPSE
  5
21979
330
747D
100
AcDbEntity
  8
部品1
 48
50.0
100
AcDbEllipse
 10
8160.058774504667
 20
2305.743585866199
 30
0.0
 11
50.0
 21
0.0
 31
0.0
210
0.0
220
0.0
230
1.0
 40
0.4
 41
3.141592653589792
 42
6.283185307179585
  0
ELLIPSE
  5
2197A
330
747D
100
AcDbEntity
  8
部品1
 48
50.0
100
AcDbEllipse
 10
8160.058774504667
 20
2317.7435858662
 30
0.0
 11
50.0
 21
0.0
 31
0.0
210
0.0
220
0.0
230
1.0
 40
0.4
 41
0.0
 42
6.283185307179585
  0
ELLIPSE
  5
2197B
330
747D
100
AcDbEntity
  8
部品1
 48
50.0
100
AcDbEllipse
 10
8160.058774504667
 20
2317.7435858662
 30
0.0
 11
23.0
 21
0.0
 31
0.0
210
0.0
220
0.0
230
1.0
 40
0.3478260869565217
 41
0.0
 42
6.283185307179585
  0
LINE
  5
2197C
330
747D
100
AcDbEntity
  8
部品1
100
AcDbLine
 10
7962.058774504668
 20
2120.839475310859
 30
0.0
 11
8014.933774504667
 21
2120.839475310856
 31
0.0
  0
LINE
  5
2197D
330
747D
100
AcDbEntity
  8
部品1
100
AcDbLine
 10
7908.058774504667
 20
2093.83947531086
 30
0.0
 11
7955.308774504667
 21
2093.83947531086
 31
0.0
  0
LINE
  5
2197E
330
747D
100
AcDbEntity
  8
部品1
100
AcDbLine
 10
7893.740216770168
 20
2077.603585877235
 30
0.0
 11
7904.683774504667
 21
2080.339475310859
 31
0.0
  0
ARC
  5
2197F
330
747D
100
AcDbEntity
  8
部品1
100
AcDbCircle
 10
7894.558774504666
 20
2074.329354939244
 30
0.0
 40
3.375
100
AcDbArc
 50
104.0362434679075
 51
180.0
  0
ARC
  5
21980
330
747D
100
AcDbEntity
  8
部品1
100
AcDbCircle
 10
7908.058774504667
 20
2090.464475310859
 30
0.0
 40
3.375
100
AcDbArc
 50
90.0
 51
180.0
  0
LINE
  5
21981
330
747D
100
AcDbEntity
  8
部品1
100
AcDbLine
 10
7904.683774504667
 20
2080.339475310859
 30
0.0
 11
7904.683774504667
 21
2090.464475310859
 31
0.0
  0
ARC
  5
21982
330
747D
100
AcDbEntity
  8
部品1
100
AcDbCircle
 10
7958.683774504667
 20
2103.96447531086
 30
0.0
 40
3.375
100
AcDbArc
 50
90.0
 51
180.0
  0
LINE
  5
21983
330
747D
100
AcDbEntity
  8
部品1
100
AcDbLine
 10
7955.308774504667
 20
2093.83947531086
 30
0.0
 11
7955.308774504667
 21
2103.96447531086
 31
0.0
  0
LINE
  5
21984
330
747D
100
AcDbEntity
  8
部品1
100
AcDbLine
 10
7958.683774504667
 20
2107.33947531086
 30
0.0
 11
7958.683774504667
 21
2117.46447531086
 31
0.0
  0
LINE
  5
21985
330
747D
100
AcDbEntity
  8
部品1
100
AcDbLine
 10
7958.683774504667
 20
2107.33947531086
 30
0.0
 11
7958.683774504667
 21
2107.33947531086
 31
0.0
  0
ARC
  5
21986
330
747D
100
AcDbEntity
  8
部品1
100
AcDbCircle
 10
7962.058774504668
 20
2117.46447531086
 30
0.0
 40
3.375
100
AcDbArc
 50
90.0
 51
180.0
  0
LINE
  5
21987
330
747D
100
AcDbEntity
  8
部品1
100
AcDbLine
 10
8044.183774504666
 20
2064.914475310861
 30
0.0
 11
8044.183774504666
 21
2043.539475310859
 31
0.0
  0
ARC
  5
21988
330
747D
100
AcDbEntity
  8
部品1
100
AcDbCircle
 10
8067.808774504667
 20
2049.96447531086
 30
0.0
 40
3.375
100
AcDbArc
 50
0.0
 51
90.0
  0
LINE
  5
21989
330
747D
100
AcDbEntity
  8
部品1
100
AcDbLine
 10
8153.308774504667
 20
2047.28947531086
 30
0.0
 11
8166.808774504668
 21
2047.28947531086
 31
0.0
  0
LINE
  5
2198A
330
747D
100
AcDbEntity
  8
部品1
100
AcDbLine
 10
8148.808774504667
 20
2042.789475310859
 30
0.0
 11
8171.308774504666
 21
2042.789475310859
 31
0.0
  0
ARC
  5
2198B
330
747D
100
AcDbEntity
  8
部品1
100
AcDbCircle
 10
8082.75877450467
 20
2064.914475310861
 30
0.0
 40
3.375
100
AcDbArc
 50
0.0
 51
90.0
  0
ARC
  5
2198C
330
747D
100
AcDbEntity
  8
部品1
100
AcDbCircle
 10
8047.558774504667
 20
2064.914475310861
 30
0.0
 40
3.375
100
AcDbArc
 50
90.0
 51
180.0
  0
LINE
  5
2198D
330
747D
100
AcDbEntity
  8
部品1
100
AcDbLine
 10
8047.558774504667
 20
2068.28947531086
 30
0.0
 11
8082.75877450467
 21
2068.28947531086
 31
0.0
  0
LINE
  5
2198E
330
747D
100
AcDbEntity
  8
部品1
 48
50.0
100
AcDbLine
 10
8110.058774504667
 20
2317.7435858662
 30
0.0
 11
8110.058774504667
 21
2305.743585866199
 31
0.0
  0
LINE
  5
2198F
330
747D
100
AcDbEntity
  8
部品1
100
AcDbLine
 10
8018.308774504667
 20
2117.464475310856
 30
0.0
 11
8018.308774504667
 21
2053.33947531086
 31
0.0
  0
ARC
  5
21990
330
747D
100
AcDbEntity
  8
部品1
100
AcDbCircle
 10
8014.933774504667
 20
2117.464475310856
 30
0.0
 40
3.375
100
AcDbArc
 50
0.0
 51
90.0
  0
LINE
  5
21991
330
747D
100
AcDbEntity
  8
部品1
100
AcDbLine
 10
8018.308774504667
 20
2053.33947531086
 30
0.0
 11
8067.808774504667
 21
2053.33947531086
 31
0.0
  0
LINE
  5
21992
330
747D
100
AcDbEntity
  8
部品1
 48
50.0
100
AcDbLine
 10
8120.058774504668
 20
2469.933576697289
 30
0.0
 11
8140.058774504666
 21
2479.933576697288
 31
0.0
  0
LINE
  5
21993
330
747D
100
AcDbEntity
  8
部品1
 48
50.0
100
AcDbLine
 10
8120.058774504668
 20
2429.933576697287
 30
0.0
 11
8140.058774504666
 21
2419.933576697288
 31
0.0
  0
LINE
  5
21994
330
747D
100
AcDbEntity
  8
部品1
 48
50.0
100
AcDbLine
 10
8120.058774504668
 20
2469.933576697289
 30
0.0
 11
8140.058774504666
 21
2459.933576697287
 31
0.0
  0
LINE
  5
21995
330
747D
100
AcDbEntity
  8
部品1
 48
50.0
100
AcDbLine
 10
8120.058774504668
 20
2429.933576697287
 30
0.0
 11
8120.058774504668
 21
2469.933576697289
 31
0.0
  0
LINE
  5
21996
330
747D
100
AcDbEntity
  8
細線
 48
50.0
100
AcDbLine
 10
8140.058774504666
 20
2419.933576697288
 30
0.0
 11
8140.058774504666
 21
2459.933576697287
 31
0.0
  0
LINE
  5
21997
330
747D
100
AcDbEntity
  8
部品1
 48
50.0
100
AcDbLine
 10
8210.058774504666
 20
2305.743585866199
 30
0.0
 11
8210.058774504666
 21
2317.7435858662
 31
0.0
  0
LINE
  5
21998
330
747D
100
AcDbEntity
  8
部品1
 48
50.0
100
AcDbLine
 10
8180.058774504667
 20
2479.933576697288
 30
0.0
 11
8200.058774504666
 21
2469.933576697289
 31
0.0
  0
LINE
  5
21999
330
747D
100
AcDbEntity
  8
部品1
 48
50.0
100
AcDbLine
 10
8200.058774504666
 20
2429.933576697287
 30
0.0
 11
8200.058774504666
 21
2469.933576697289
 31
0.0
  0
LINE
  5
2199A
330
747D
100
AcDbEntity
  8
細線
 48
50.0
100
AcDbLine
 10
8180.058774504667
 20
2419.933576697288
 30
0.0
 11
8180.058774504667
 21
2459.933576697287
 31
0.0
  0
LINE
  5
2199B
330
747D
100
AcDbEntity
  8
部品1
 48
50.0
100
AcDbLine
 10
8180.058774504667
 20
2459.933576697287
 30
0.0
 11
8200.058774504666
 21
2469.933576697289
 31
0.0
  0
LINE
  5
2199C
330
747D
100
AcDbEntity
  8
部品1
 48
50.0
100
AcDbLine
 10
8180.058774504667
 20
2419.933576697288
 30
0.0
 11
8200.058774504666
 21
2429.933576697287
 31
0.0
  0
LINE
  5
2199D
330
747D
100
AcDbEntity
  8
細線
 48
50.0
100
AcDbLine
 10
10165.79120294623
 20
1406.715830744169
 30
0.0
 11
10208.66307373521
 21
1566.715830744169
 31
0.0
  0
TEXT
  5
2199E
330
747D
100
AcDbEntity
  8
部品1
 48
50.0
100
AcDbText
 10
9570.081081434985
 20
1347.839799514223
 30
0.0
 40
100.0
  1
ボルトの出
 50
90.0
  7
STYLE2
100
AcDbText
  0
LINE
  5
2199F
330
747D
100
AcDbEntity
  8
部品1
100
AcDbLine
 10
10045.42270976028
 20
1406.715830744167
 30
0.0
 11
10045.42270976028
 21
1681.339475310859
 31
0.0
  0
LINE
  5
219A0
330
747D
100
AcDbEntity
  8
細線
 48
50.0
100
AcDbLine
 10
10067.18114676217
 20
1406.715830744171
 30
0.0
 11
10110.05301755115
 21
1566.715830744171
 31
0.0
  0
LINE
  5
219A1
330
747D
100
AcDbEntity
  8
部品1
 48
50.0
100
AcDbLine
 10
8660.808774504671
 20
1001.339475310858
 30
0.0
 11
8660.808774504671
 21
841.3394753108581
 31
0.0
  0
LINE
  5
219A2
330
747D
100
AcDbEntity
  8
細線
 48
50.0
100
AcDbLine
 10
8606.281055995088
 20
971.3394753108573
 30
0.0
 11
8598.242580222155
 21
1001.339475310857
 31
0.0
  0
LINE
  5
219A3
330
747D
100
AcDbEntity
  8
細線
 48
50.0
100
AcDbLine
 10
10173.82967871917
 20
1436.715830744171
 30
0.0
 11
10181.8681544921
 21
1406.715830744171
 31
0.0
  0
LINE
  5
219A4
330
747D
100
AcDbEntity
  8
細線
 48
50.0
100
AcDbLine
 10
10075.21962253511
 20
1436.715830744171
 30
0.0
 11
10083.25809830804
 21
1406.715830744171
 31
0.0
  0
LINE
  5
219A5
330
747D
100
AcDbEntity
  8
部品1
100
AcDbLine
 10
10195.42270976028
 20
1681.339475310859
 30
0.0
 11
10195.42270976028
 21
1981.33947531086
 31
0.0
  0
LINE
  5
219A6
330
747D
100
AcDbEntity
  8
細線
 48
50.0
100
AcDbLine
 10
10102.01454177822
 20
1536.715830744171
 30
0.0
 11
10093.97606600528
 21
1566.715830744171
 31
0.0
  0
LINE
  5
219A7
330
747D
100
AcDbEntity
  8
細線
 48
50.0
100
AcDbLine
 10
10200.62459796228
 20
1536.715830744171
 30
0.0
 11
10192.58612218935
 21
1566.715830744171
 31
0.0
  0
TEXT
  5
219A8
330
747D
100
AcDbEntity
  8
部品1
100
AcDbText
 10
7645.388049998039
 20
3408.11408509263
 30
0.0
 40
150.0
  1
基礎詳細
  7
STYLE2
100
AcDbText
  0
LINE
  5
219A9
330
747D
100
AcDbEntity
  8
部品1
100
AcDbLine
 10
11535.93363757942
 20
373.484497283826
 30
0.0
 11
11535.93363757942
 21
3632.554000031916
 31
0.0
  0
LINE
  5
219AA
330
747D
100
AcDbEntity
  8
部品1
100
AcDbLine
 10
10945.42270976028
 20
1681.339475310859
 30
0.0
 11
10945.42270976028
 21
1406.715830744171
 31
0.0
  0
LINE
  5
219AB
330
747D
100
AcDbEntity
  8
細線
 48
50.0
100
AcDbLine
 10
10757.45154005059
 20
1406.715830744167
 30
0.0
 11
10800.32341083957
 21
1566.715830744167
 31
0.0
  0
LINE
  5
219AC
330
747D
100
AcDbEntity
  8
細線
 48
50.0
100
AcDbLine
 10
10856.06159623464
 20
1406.715830744169
 30
0.0
 11
10898.93346702363
 21
1566.715830744167
 31
0.0
  0
LINE
  5
219AD
330
747D
100
AcDbEntity
  8
細線
 48
50.0
100
AcDbLine
 10
10560.23142768247
 20
1406.715830744171
 30
0.0
 11
10603.10329847145
 21
1566.715830744169
 31
0.0
  0
LINE
  5
219AE
330
747D
100
AcDbEntity
  8
細線
 48
50.0
100
AcDbLine
 10
10658.84148386653
 20
1406.715830744169
 30
0.0
 11
10701.7133546555
 21
1566.715830744171
 31
0.0
  0
LINE
  5
219AF
330
747D
100
AcDbEntity
  8
細線
 48
50.0
100
AcDbLine
 10
10363.01131531435
 20
1406.715830744171
 30
0.0
 11
10405.88318610333
 21
1566.715830744169
 31
0.0
  0
LINE
  5
219B0
330
747D
100
AcDbEntity
  8
細線
 48
50.0
100
AcDbLine
 10
10264.4012591303
 20
1406.715830744171
 30
0.0
 11
10307.27312991927
 21
1566.715830744171
 31
0.0
  0
LINE
  5
219B1
330
747D
100
AcDbEntity
  8
細線
 48
50.0
100
AcDbLine
 10
10461.62137149841
 20
1406.715830744169
 30
0.0
 11
10504.49324228739
 21
1566.715830744169
 31
0.0
  0
LINE
  5
219B2
330
747D
100
AcDbEntity
  8
細線
 48
50.0
100
AcDbLine
 10
10371.04979108729
 20
1436.715830744171
 30
0.0
 11
10379.08826686023
 21
1406.715830744171
 31
0.0
  0
LINE
  5
219B3
330
747D
100
AcDbEntity
  8
細線
 48
50.0
100
AcDbLine
 10
10272.43973490324
 20
1436.715830744171
 30
0.0
 11
10280.47821067617
 21
1406.715830744171
 31
0.0
  0
LINE
  5
219B4
330
747D
100
AcDbEntity
  8
細線
 48
50.0
100
AcDbLine
 10
10568.26990345541
 20
1436.715830744171
 30
0.0
 11
10576.30837922834
 21
1406.715830744171
 31
0.0
  0
LINE
  5
219B5
330
747D
100
AcDbEntity
  8
細線
 48
50.0
100
AcDbLine
 10
10469.65984727135
 20
1436.715830744171
 30
0.0
 11
10477.69832304428
 21
1406.715830744171
 31
0.0
  0
LINE
  5
219B6
330
747D
100
AcDbEntity
  8
細線
 48
50.0
100
AcDbLine
 10
10765.49001582353
 20
1436.715830744169
 30
0.0
 11
10773.52849159646
 21
1406.715830744169
 31
0.0
  0
LINE
  5
219B7
330
747D
100
AcDbEntity
  8
細線
 48
50.0
100
AcDbLine
 10
10666.87995963947
 20
1436.715830744171
 30
0.0
 11
10674.91843541241
 21
1406.715830744171
 31
0.0
  0
LINE
  5
219B8
330
747D
100
AcDbEntity
  8
細線
 48
50.0
100
AcDbLine
 10
10864.10007200759
 20
1436.715830744169
 30
0.0
 11
10872.13854778052
 21
1406.715830744169
 31
0.0
  0
MTEXT
  5
219B9
102
{ACAD_REACTORS
330
219BA
102
}
330
747D
100
AcDbEntity
  8
寸法
 62
     7
 48
50.0
100
AcDbMText
 10
10937.75098257224
 20
2302.772376162282
 30
0.0
 40
150.0
 41
1.0
 71
     4
 72
     1
  1
\A1;C.B
  7
STYLE1
 73
     1
 44
1.0
1001
ACAD
1000
MTEXTBEGIN
1070
    73
1070
     1
1070
    44
1040
1.0
1070
    74
1070
     0
1000
MTEXTEND
  0
LEADER
  5
219BA
330
747D
100
AcDbEntity
  8
寸法
 48
50.0
100
AcDbLeader
  3
INABA_S40G
 73
     0
 74
     0
 75
     1
 40
150.0
 41
231.9898538650463
 76
     3
 10
10708.82822428018
 20
1981.33947531086
 30
0.0
 10
10797.75098257224
 20
2187.772376162282
 30
0.0
 10
10897.75098257224
 20
2187.772376162282
 30
0.0
340
219B9
  0
LINE
  5
219BB
330
747D
100
AcDbEntity
  8
細線
100
AcDbLine
 10
10778.1256318258
 20
1681.339475310861
 30
0.0
 11
10478.12563182581
 21
1981.33947531086
 31
0.0
  0
LINE
  5
219BC
330
747D
100
AcDbEntity
  8
細線
100
AcDbLine
 10
10714.48602151902
 20
1681.339475310859
 30
0.0
 11
10414.48602151902
 21
1981.33947531086
 31
0.0
  0
LINE
  5
219BD
330
747D
100
AcDbEntity
  8
細線
 48
50.0
100
AcDbLine
 10
10299.23465414635
 20
1536.715830744171
 30
0.0
 11
10291.19617837341
 21
1566.715830744171
 31
0.0
  0
LINE
  5
219BE
330
747D
100
AcDbEntity
  8
細線
 48
50.0
100
AcDbLine
 10
10397.8447103304
 20
1536.715830744171
 30
0.0
 11
10389.80623455747
 21
1566.715830744171
 31
0.0
  0
LINE
  5
219BF
330
747D
100
AcDbEntity
  8
細線
100
AcDbLine
 10
10271.57101662683
 20
1566.715830744172
 30
0.0
 11
10386.19466119351
 21
1681.339475310859
 31
0.0
  0
LINE
  5
219C0
330
747D
100
AcDbEntity
  8
細線
100
AcDbLine
 10
10229.14460975564
 20
1566.715830744172
 30
0.0
 11
10343.76825432232
 21
1681.339475310859
 31
0.0
  0
LINE
  5
219C1
330
747D
100
AcDbEntity
  8
細線
 48
50.0
100
AcDbLine
 10
10595.06482269852
 20
1536.715830744171
 30
0.0
 11
10587.02634692559
 21
1566.715830744171
 31
0.0
  0
LINE
  5
219C2
330
747D
100
AcDbEntity
  8
細線
 48
50.0
100
AcDbLine
 10
10496.45476651446
 20
1536.715830744171
 30
0.0
 11
10488.41629074153
 21
1566.715830744171
 31
0.0
  0
LINE
  5
219C3
330
747D
100
AcDbEntity
  8
部品1
100
AcDbLine
 10
10795.42270976028
 20
1981.33947531086
 30
0.0
 11
10795.42270976028
 21
1681.339475310859
 31
0.0
  0
LINE
  5
219C4
330
747D
100
AcDbEntity
  8
細線
 48
50.0
100
AcDbLine
 10
10792.28493506664
 20
1536.715830744169
 30
0.0
 11
10784.2464592937
 21
1566.715830744169
 31
0.0
  0
LINE
  5
219C5
330
747D
100
AcDbEntity
  8
細線
 48
50.0
100
AcDbLine
 10
10693.67487888257
 20
1536.715830744171
 30
0.0
 11
10685.63640310963
 21
1566.715830744171
 31
0.0
  0
LINE
  5
219C6
330
747D
100
AcDbEntity
  8
細線
100
AcDbLine
 10
10721.57101662683
 20
1566.715830744174
 30
0.0
 11
10836.19466119351
 21
1681.339475310859
 31
0.0
  0
LINE
  5
219C7
330
747D
100
AcDbEntity
  8
細線
100
AcDbLine
 10
10636.71820288445
 20
1566.715830744174
 30
0.0
 11
10751.34184745113
 21
1681.339475310859
 31
0.0
  0
LINE
  5
219C8
330
747D
100
AcDbEntity
  8
細線
100
AcDbLine
 10
10679.14460975564
 20
1566.715830744174
 30
0.0
 11
10793.76825432232
 21
1681.339475310859
 31
0.0
  0
LINE
  5
219C9
330
747D
100
AcDbEntity
  8
細線
 48
50.0
100
AcDbLine
 10
10890.8949912507
 20
1536.715830744169
 30
0.0
 11
10882.85651547776
 21
1566.715830744169
 31
0.0
  0
TEXT
  5
21A53
330
747D
100
AcDbEntity
  8
部品1
 48
50.0
100
AcDbText
 10
7282.821210615715
 20
2382.017902452213
 30
0.0
 40
100.0
  1
※(別売)
  7
STYLE2
100
AcDbText
  0
LINE
  5
21A8C
330
747D
100
AcDbEntity
  8
細線
 48
50.0
100
AcDbLine
 10
7925.157340025538
 20
5467.311867353257
 30
0.0
 11
7930.764508785149
 21
5472.919036112868
 31
0.0
  0
LINE
  5
21A8D
330
747D
100
AcDbEntity
  8
細線
 48
50.0
100
AcDbLine
 10
7925.157340025538
 20
5422.410586747912
 30
0.0
 11
7975.665789390496
 21
5472.919036112868
 31
0.0
  0
LINE
  5
21A8E
330
747D
100
AcDbEntity
  8
細線
 48
50.0
100
AcDbLine
 10
7925.157340025537
 20
5377.509306142564
 30
0.0
 11
8020.567069995841
 21
5472.919036112868
 31
0.0
  0
LINE
  5
21A8F
330
747D
100
AcDbEntity
  8
細線
 48
50.0
100
AcDbLine
 10
7925.157340025538
 20
5332.608025537219
 30
0.0
 11
8065.468350601186
 21
5472.919036112869
 31
0.0
  0
LINE
  5
21A90
330
747D
100
AcDbEntity
  8
細線
 48
50.0
100
AcDbLine
 10
7940.369631206528
 20
5302.919036112862
 30
0.0
 11
8110.369631206536
 21
5472.91903611287
 31
0.0
  0
LINE
  5
21A91
330
747D
100
AcDbEntity
  8
細線
 48
50.0
100
AcDbLine
 10
7985.270911811875
 20
5302.919036112864
 30
0.0
 11
8125.157340025536
 21
5442.805464326527
 31
0.0
  0
LINE
  5
21A92
330
747D
100
AcDbEntity
  8
細線
 48
50.0
100
AcDbLine
 10
8030.172192417223
 20
5302.919036112867
 30
0.0
 11
8125.157340025538
 21
5397.904183721181
 31
0.0
  0
LINE
  5
21A93
330
747D
100
AcDbEntity
  8
細線
 48
50.0
100
AcDbLine
 10
8075.073473022568
 20
5302.919036112868
 30
0.0
 11
8125.157340025538
 21
5353.002903115836
 31
0.0
  0
LINE
  5
21A94
330
747D
100
AcDbEntity
  8
細線
 48
50.0
100
AcDbLine
 10
8119.974753627912
 20
5302.919036112867
 30
0.0
 11
8125.157340025536
 21
5308.10162251049
 31
0.0
  0
LINE
  5
21A95
330
747D
100
AcDbEntity
  8
細線
 48
50.0
100
AcDbLine
 10
7925.157340025522
 20
7519.646443697578
 30
0.0
 11
7928.429932440804
 21
7522.91903611286
 31
0.0
  0
LINE
  5
21A96
330
747D
100
AcDbEntity
  8
細線
 48
50.0
100
AcDbLine
 10
7925.157340025522
 20
7474.745163092231
 30
0.0
 11
7973.33121304615
 21
7522.91903611286
 31
0.0
  0
LINE
  5
21A97
330
747D
100
AcDbEntity
  8
細線
 48
50.0
100
AcDbLine
 10
7925.157340025522
 20
7429.843882486887
 30
0.0
 11
8018.232493651495
 21
7522.91903611286
 31
0.0
  0
LINE
  5
21A98
330
747D
100
AcDbEntity
  8
細線
 48
50.0
100
AcDbLine
 10
7943.13377425684
 20
7402.91903611286
 30
0.0
 11
8063.133774256842
 21
7522.91903611286
 31
0.0
  0
LINE
  5
21A99
330
747D
100
AcDbEntity
  8
細線
 48
50.0
100
AcDbLine
 10
7988.035054862186
 20
7402.91903611286
 30
0.0
 11
8108.035054862188
 21
7522.91903611286
 31
0.0
  0
LINE
  5
21A9A
330
747D
100
AcDbEntity
  8
細線
 48
50.0
100
AcDbLine
 10
8032.936335467534
 20
7402.919036112859
 30
0.0
 11
8125.157340025522
 21
7495.140040670849
 31
0.0
  0
LINE
  5
21A9B
330
747D
100
AcDbEntity
  8
細線
 48
50.0
100
AcDbLine
 10
8077.837616072878
 20
7402.91903611286
 30
0.0
 11
8125.157340025522
 21
7450.238760065504
 31
0.0
  0
LINE
  5
21A9C
330
747D
100
AcDbEntity
  8
細線
 48
50.0
100
AcDbLine
 10
6915.157340025517
 20
6487.509306142541
 30
0.0
 11
6940.567069995835
 21
6512.919036112861
 31
0.0
  0
LINE
  5
21A9D
330
747D
100
AcDbEntity
  8
細線
 48
50.0
100
AcDbLine
 10
6915.157340025517
 20
6442.608025537196
 30
0.0
 11
6985.46835060118
 21
6512.919036112859
 31
0.0
  0
LINE
  5
21A9E
330
747D
100
AcDbEntity
  8
細線
 48
50.0
100
AcDbLine
 10
6915.157340025515
 20
6397.706744931849
 30
0.0
 11
7030.369631206527
 21
6512.919036112861
 31
0.0
  0
LINE
  5
21A9F
330
747D
100
AcDbEntity
  8
細線
 48
50.0
100
AcDbLine
 10
6915.157340025517
 20
6352.805464326505
 30
0.0
 11
7035.157340025513
 21
6472.805464326502
 31
0.0
  0
LINE
  5
21AA0
330
747D
100
AcDbEntity
  8
細線
 48
50.0
100
AcDbLine
 10
6920.172192417215
 20
6312.919036112857
 30
0.0
 11
7035.157340025515
 21
6427.904183721158
 31
0.0
  0
LINE
  5
21AA1
330
747D
100
AcDbEntity
  8
細線
 48
50.0
100
AcDbLine
 10
6965.073473022562
 20
6312.919036112859
 30
0.0
 11
7035.157340025515
 21
6383.002903115812
 31
0.0
  0
LINE
  5
21AA2
330
747D
100
AcDbEntity
  8
細線
 48
50.0
100
AcDbLine
 10
7009.974753627912
 20
6312.919036112861
 30
0.0
 11
7035.157340025515
 21
6338.101622510468
 31
0.0
  0
LINE
  5
21AA3
330
747D
100
AcDbEntity
  8
細線
 48
50.0
100
AcDbLine
 10
9015.157340025513
 20
6467.509306142535
 30
0.0
 11
9060.567069995835
 21
6512.919036112862
 31
0.0
  0
LINE
  5
21AA4
330
747D
100
AcDbEntity
  8
細線
 48
50.0
100
AcDbLine
 10
9015.157340025515
 20
6422.608025537194
 30
0.0
 11
9105.468350601178
 21
6512.919036112859
 31
0.0
  0
LINE
  5
21AA5
330
747D
100
AcDbEntity
  8
細線
 48
50.0
100
AcDbLine
 10
9015.157340025515
 20
6377.70674493185
 30
0.0
 11
9135.157340025516
 21
6497.706744931851
 31
0.0
  0
LINE
  5
21AA6
330
747D
100
AcDbEntity
  8
細線
 48
50.0
100
AcDbLine
 10
9015.157340025513
 20
6332.805464326501
 30
0.0
 11
9135.157340025516
 21
6452.805464326505
 31
0.0
  0
LINE
  5
21AA7
330
747D
100
AcDbEntity
  8
細線
 48
50.0
100
AcDbLine
 10
9040.172192417216
 20
6312.919036112858
 30
0.0
 11
9135.157340025516
 21
6407.904183721161
 31
0.0
  0
LINE
  5
21AA8
330
747D
100
AcDbEntity
  8
細線
 48
50.0
100
AcDbLine
 10
9085.073473022559
 20
6312.919036112859
 30
0.0
 11
9135.157340025516
 21
6363.002903115813
 31
0.0
  0
LINE
  5
21AA9
330
747D
100
AcDbEntity
  8
細線
 48
50.0
100
AcDbLine
 10
9129.974753627909
 20
6312.919036112861
 30
0.0
 11
9135.157340025516
 21
6318.101622510468
 31
0.0
  0
DIMENSION
  5
21AAA
330
747D
100
AcDbEntity
  8
寸法
 48
50.0
100
AcDbDimension
  2
*D30
 10
9015.157340025513
 20
6984.422404093454
 30
0.0
 11
8681.110095931027
 21
6984.422404093454
 31
0.0
 70
   160
 71
     5
 42
109.9999999999982
  3
INABA_S40G
100
AcDbAlignedDimension
 13
8905.157340025516
 23
7292.919036112859
 33
0.0
 14
9015.157340025513
 24
7102.393447280284
 34
0.0
100
AcDbRotatedDimension
  0
TEXT
  5
21D1E
330
747D
100
AcDbEntity
  8
文字
 62
     7
 48
50.0
100
AcDbText
 10
14816.49629419351
 20
1031.557706291228
 30
0.0
 40
100.0
  1
 <縮尺> S=1/40
  7
STYLE2
100
AcDbText
  0
ENDSEC
  0
SECTION
  2
OBJECTS
  0
DICTIONARY
  5
7471
330
0
100
AcDbDictionary
281
     1
  3
ACAD_COLOR
350
159B0
  3
ACAD_GROUP
350
7472
  3
ACAD_LAYOUT
350
159B1
  3
ACAD_MATERIAL
350
159AF
  3
ACAD_MLINESTYLE
350
7473
  3
ACAD_PLOTSETTINGS
350
159B2
  3
ACAD_PLOTSTYLENAME
350
159AD
  3
ACDBHEADERROUNDTRIPXREC
350
21D2A
  3
AcDbVariableDictionary
350
21704
  3
CONTENTDICTIONARY
350
E71C
  3
DRAWINGVARIABLESDICT
350
F3B9
  0
DICTIONARY
  5
2175A
330
7467
100
AcDbDictionary
280
     1
281
     1
  3
ACAD_LAYERSTATES
360
2175B
  0
DICTIONARY
  5
159B0
102
{ACAD_REACTORS
330
7471
102
}
330
7471
100
AcDbDictionary
281
     1
  0
DICTIONARY
  5
7472
102
{ACAD_REACTORS
330
7471
102
}
330
7471
100
AcDbDictionary
281
     1
  0
DICTIONARY
  5
159B1
102
{ACAD_REACTORS
330
7471
102
}
330
7471
100
AcDbDictionary
281
     1
  3
Model
350
159B3
  3
レイアウト1
350
159B4
  0
DICTIONARY
  5
159AF
102
{ACAD_REACTORS
330
7471
102
}
330
7471
100
AcDbDictionary
281
     1
  0
DICTIONARY
  5
7473
102
{ACAD_REACTORS
330
7471
102
}
330
7471
100
AcDbDictionary
281
     1
  3
STANDARD
350
7480
  0
DICTIONARY
  5
159B2
102
{ACAD_REACTORS
330
7471
102
}
330
7471
100
AcDbDictionary
281
     1
  0
ACDBDICTIONARYWDFLT
  5
159AD
102
{ACAD_REACTORS
330
7471
102
}
330
7471
100
AcDbDictionary
281
     1
  3
Normal
350
159AE
100
AcDbDictionaryWithDefault
340
159AE
  0
DICTIONARY
  5
21D2A
102
{ACAD_REACTORS
330
7471
102
}
330
7471
100
AcDbDictionary
281
     1
  3
COLORDICT
350
21D2C
  3
MATERIALDICT
350
21D2B
  0
DICTIONARY
  5
21704
102
{ACAD_REACTORS
330
7471
102
}
330
7471
100
AcDbDictionary
281
     1
  3
DIMASSOC
350
21705
  3
PROJECTNAME
350
21706
  0
DICTIONARY
  5
E71C
102
{ACAD_REACTORS
330
7471
102
}
330
7471
100
AcDbDictionary
281
     1
  0
DICTIONARY
  5
F3B9
102
{ACAD_REACTORS
330
7471
102
}
330
7471
100
AcDbDictionary
281
     1
1001
DRAWINGVARIABLESXDATA
1000
POLARMODE
1000
1
  0
DICTIONARY
  5
2175B
102
{ACAD_REACTORS
330
2175A
102
}
330
2175A
100
AcDbDictionary
281
     1
  0
LAYOUT
  5
159B3
102
{ACAD_XDICTIONARY
360
21D2D
102
}
102
{ACAD_REACTORS
330
159B1
102
}
330
159B1
100
AcDbPlotSettings
  1

  2
none_device
  4
Letter_(8.50_x_11.00_Inches)
  6

 40
6.349999904632568
 41
6.349999904632568
 42
6.350006103515625
 43
6.350006103515625
 44
215.8999938964844
 45
279.3999938964844
 46
0.0
 47
0.0
 48
0.0
 49
0.0
140
0.0
141
0.0
142
1.0
143
1.0
 70
 11952
 72
     1
 73
     1
 74
     0
  7

 75
     0
147
1.0
148
-4149.571981164617
149
65.56433826894044
100
AcDbLayout
  1
Model
 70
     1
 71
     0
 10
0.0
 20
0.0
 11
12.0
 21
9.0
 12
0.0
 22
0.0
 32
0.0
 14
0.0
 24
0.0
 34
0.0
 15
0.0
 25
0.0
 35
0.0
146
0.0
 13
0.0
 23
0.0
 33
0.0
 16
1.0
 26
0.0
 36
0.0
 17
0.0
 27
1.0
 37
0.0
 76
     0
330
747D
  0
LAYOUT
  5
159B4
102
{ACAD_XDICTIONARY
360
21D2F
102
}
102
{ACAD_REACTORS
330
159B1
102
}
330
159B1
100
AcDbPlotSettings
  1

  2
自動 EPSON LP-8400FX (TATENO 上)
  4

  6

 40
0.0
 41
0.0
 42
0.0
 43
0.0
 44
0.0
 45
0.0
 46
0.0
 47
0.0
 48
0.0
 49
0.0
140
0.0
141
0.0
142
1.0
143
1.0
 70
   688
 72
     0
 73
     0
 74
     5
  7
inaba.ctb
 75
    16
147
1.0
148
0.0
149
0.0
100
AcDbLayout
  1
レイアウト1
 70
     0
 71
     1
 10
0.0
 20
0.0
 11
420.0
 21
297.0
 12
0.0
 22
0.0
 32
0.0
 14
1.000000000000000E+20
 24
1.000000000000000E+20
 34
1.000000000000000E+20
 15
-1.000000000000000E+20
 25
-1.000000000000000E+20
 35
-1.000000000000000E+20
146
0.0
 13
0.0
 23
0.0
 33
0.0
 16
1.0
 26
0.0
 36
0.0
 17
0.0
 27
1.0
 37
0.0
 76
     0
330
747A
  0
MLINESTYLE
  5
7480
102
{ACAD_REACTORS
330
7473
102
}
330
7473
100
AcDbMlineStyle
  2
STANDARD
 70
     0
  3

 62
     0
 51
90.0
 52
90.0
 71
     2
 49
0.5
 62
   256
  6
BYLAYER
 49
-0.5
 62
   256
  6
BYLAYER
  0
ACDBPLACEHOLDER
  5
159AE
102
{ACAD_REACTORS
330
159AD
102
}
330
159AD
  0
XRECORD
  5
21D2C
102
{ACAD_REACTORS
330
21D2A
102
}
330
21D2A
100
AcDbXrecord
280
     1
340
159B0
  0
XRECORD
  5
21D2B
102
{ACAD_REACTORS
330
21D2A
102
}
330
21D2A
100
AcDbXrecord
280
     1
340
159AF
  0
DICTIONARYVAR
  5
21705
102
{ACAD_REACTORS
330
21704
102
}
330
21704
100
DictionaryVariables
280
     0
  1
1
  0
DICTIONARYVAR
  5
21706
102
{ACAD_REACTORS
330
21704
102
}
330
21704
100
DictionaryVariables
280
     0
  1

  0
DICTIONARY
  5
21D2D
330
159B3
100
AcDbDictionary
280
     1
281
     1
  3
ACAD_XREC_ROUNDTRIP
360
21D2E
  0
DICTIONARY
  5
21D2F
330
159B4
100
AcDbDictionary
280
     1
281
     1
  3
ACAD_XREC_ROUNDTRIP
360
21D30
  0
XRECORD
  5
21D2E
102
{ACAD_REACTORS
330
21D2D
102
}
330
21D2D
100
AcDbXrecord
280
     1
102
SHADEPLOT
 70
     0
102
SHADEPLOTRESLEVEL
 70
     2
102
SHADEPLOTCUSTOMDPI
 70
   300
  0
XRECORD
  5
21D30
102
{ACAD_REACTORS
330
21D2F
102
}
330
21D2F
100
AcDbXrecord
280
     1
102
SHADEPLOT
 70
     0
102
SHADEPLOTRESLEVEL
 70
     2
102
SHADEPLOTCUSTOMDPI
 70
   300
  0
ENDSEC
  0
EOF
