  0
SECTION
  2
HEADER
  9
$ACADVER
  1
AC1015
  9
$ACADMAINTVER
 70
    20
  9
$DWGCODEPAGE
  3
ANSI_932
  9
$INSBASE
 10
0.0
 20
0.0
 30
0.0
  9
$EXTMIN
 10
139.9999999999995
 20
-0.0000000000000909
 30
0.0
  9
$EXTMAX
 10
16307.2
 20
11409.6
 30
0.0
  9
$LIMMIN
 10
0.0
 20
0.0
  9
$LIMMAX
 10
16800.0
 20
11880.0
  9
$ORTHOMODE
 70
     0
  9
$REGENMODE
 70
     1
  9
$FILLMODE
 70
     1
  9
$QTEXTMODE
 70
     0
  9
$MIRRTEXT
 70
     1
  9
$LTSCALE
 40
20.0
  9
$ATTMODE
 70
     1
  9
$TEXTSIZE
 40
4.0
  9
$TRACEWID
 40
1.0
  9
$TEXTSTYLE
  7
STYLE1
  9
$CLAYER
  8
細線
  9
$CELTYPE
  6
BYLAYER
  9
$CECOLOR
 62
   256
  9
$CELTSCALE
 40
50.0
  9
$DISPSILH
 70
     0
  9
$DIMSCALE
 40
40.0
  9
$DIMASZ
 40
2.5
  9
$DIMEXO
 40
0.5
  9
$DIMDLI
 40
7.0
  9
$DIMRND
 40
0.0
  9
$DIMDLE
 40
0.0
  9
$DIMEXE
 40
1.5
  9
$DIMTP
 40
0.0
  9
$DIMTM
 40
0.0
  9
$DIMTXT
 40
3.0
  9
$DIMCEN
 40
0.0
  9
$DIMTSZ
 40
0.0
  9
$DIMTOL
 70
     0
  9
$DIMLIM
 70
     0
  9
$DIMTIH
 70
     0
  9
$DIMTOH
 70
     0
  9
$DIMSE1
 70
     0
  9
$DIMSE2
 70
     0
  9
$DIMTAD
 70
     3
  9
$DIMZIN
 70
     8
  9
$DIMBLK
  1

  9
$DIMASO
 70
     1
  9
$DIMSHO
 70
     1
  9
$DIMPOST
  1

  9
$DIMAPOST
  1

  9
$DIMALT
 70
     0
  9
$DIMALTD
 70
     2
  9
$DIMALTF
 40
0.0394
  9
$DIMLFAC
 40
1.0
  9
$DIMTOFL
 70
     1
  9
$DIMTVP
 40
0.0
  9
$DIMTIX
 70
     1
  9
$DIMSOXD
 70
     0
  9
$DIMSAH
 70
     1
  9
$DIMBLK1
  1
DOTSMALL
  9
$DIMBLK2
  1
DOTSMALL
  9
$DIMSTYLE
  2
INABA_S40G
  9
$DIMCLRD
 70
     0
  9
$DIMCLRE
 70
     0
  9
$DIMCLRT
 70
     7
  9
$DIMTFAC
 40
1.0
  9
$DIMGAP
 40
1.0
  9
$DIMJUST
 70
     0
  9
$DIMSD1
 70
     0
  9
$DIMSD2
 70
     0
  9
$DIMTOLJ
 70
     1
  9
$DIMTZIN
 70
     0
  9
$DIMALTZ
 70
     0
  9
$DIMALTTZ
 70
     0
  9
$DIMUPT
 70
     0
  9
$DIMDEC
 70
     1
  9
$DIMTDEC
 70
     4
  9
$DIMALTU
 70
     2
  9
$DIMALTTD
 70
     2
  9
$DIMTXSTY
  7
STYLE1
  9
$DIMAUNIT
 70
     0
  9
$DIMADEC
 70
     0
  9
$DIMALTRND
 40
0.0
  9
$DIMAZIN
 70
     0
  9
$DIMDSEP
 70
    46
  9
$DIMATFIT
 70
     3
  9
$DIMFRAC
 70
     0
  9
$DIMLDRBLK
  1

  9
$DIMLUNIT
 70
     2
  9
$DIMLWD
 70
    -2
  9
$DIMLWE
 70
    -2
  9
$DIMTMOVE
 70
     0
  9
$LUNITS
 70
     2
  9
$LUPREC
 70
     1
  9
$SKETCHINC
 40
1.0
  9
$FILLETRAD
 40
3.0
  9
$AUNITS
 70
     0
  9
$AUPREC
 70
     0
  9
$MENU
  1
acad
  9
$ELEVATION
 40
0.0
  9
$PELEVATION
 40
0.0
  9
$THICKNESS
 40
0.0
  9
$LIMCHECK
 70
     0
  9
$CHAMFERA
 40
0.0
  9
$CHAMFERB
 40
0.0
  9
$CHAMFERC
 40
0.0
  9
$CHAMFERD
 40
0.0
  9
$SKPOLY
 70
     0
  9
$TDCREATE
 40
2451368.612993866
  9
$TDUCREATE
 40
2451368.237993866
  9
$TDUPDATE
 40
2455827.671211979
  9
$TDUUPDATE
 40
2455827.296211980
  9
$TDINDWG
 40
0.7796564931
  9
$TDUSRTIMER
 40
0.7796564931
  9
$USRTIMER
 70
     1
  9
$ANGBASE
 50
0.0
  9
$ANGDIR
 70
     0
  9
$PDMODE
 70
     3
  9
$PDSIZE
 40
2.0
  9
$PLINEWID
 40
0.0
  9
$SPLFRAME
 70
     0
  9
$SPLINETYPE
 70
     6
  9
$SPLINESEGS
 70
     8
  9
$HANDSEED
  5
2521A
  9
$SURFTAB1
 70
     6
  9
$SURFTAB2
 70
     6
  9
$SURFTYPE
 70
     6
  9
$SURFU
 70
     6
  9
$SURFV
 70
     6
  9
$UCSBASE
  2

  9
$UCSNAME
  2

  9
$UCSORG
 10
0.0
 20
0.0
 30
0.0
  9
$UCSXDIR
 10
1.0
 20
0.0
 30
0.0
  9
$UCSYDIR
 10
0.0
 20
1.0
 30
0.0
  9
$UCSORTHOREF
  2

  9
$UCSORTHOVIEW
 70
     0
  9
$UCSORGTOP
 10
0.0
 20
0.0
 30
0.0
  9
$UCSORGBOTTOM
 10
0.0
 20
0.0
 30
0.0
  9
$UCSORGLEFT
 10
0.0
 20
0.0
 30
0.0
  9
$UCSORGRIGHT
 10
0.0
 20
0.0
 30
0.0
  9
$UCSORGFRONT
 10
0.0
 20
0.0
 30
0.0
  9
$UCSORGBACK
 10
0.0
 20
0.0
 30
0.0
  9
$PUCSBASE
  2

  9
$PUCSNAME
  2

  9
$PUCSORG
 10
0.0
 20
0.0
 30
0.0
  9
$PUCSXDIR
 10
1.0
 20
0.0
 30
0.0
  9
$PUCSYDIR
 10
0.0
 20
1.0
 30
0.0
  9
$PUCSORTHOREF
  2

  9
$PUCSORTHOVIEW
 70
     0
  9
$PUCSORGTOP
 10
0.0
 20
0.0
 30
0.0
  9
$PUCSORGBOTTOM
 10
0.0
 20
0.0
 30
0.0
  9
$PUCSORGLEFT
 10
0.0
 20
0.0
 30
0.0
  9
$PUCSORGRIGHT
 10
0.0
 20
0.0
 30
0.0
  9
$PUCSORGFRONT
 10
0.0
 20
0.0
 30
0.0
  9
$PUCSORGBACK
 10
0.0
 20
0.0
 30
0.0
  9
$USERI1
 70
     0
  9
$USERI2
 70
     0
  9
$USERI3
 70
     0
  9
$USERI4
 70
     0
  9
$USERI5
 70
     0
  9
$USERR1
 40
0.0
  9
$USERR2
 40
0.0
  9
$USERR3
 40
0.0
  9
$USERR4
 40
0.0
  9
$USERR5
 40
0.0
  9
$WORLDVIEW
 70
     1
  9
$SHADEDGE
 70
     3
  9
$SHADEDIF
 70
    70
  9
$TILEMODE
 70
     1
  9
$MAXACTVP
 70
    16
  9
$PINSBASE
 10
0.0
 20
0.0
 30
0.0
  9
$PLIMCHECK
 70
     0
  9
$PEXTMIN
 10
1.000000000000000E+20
 20
1.000000000000000E+20
 30
1.000000000000000E+20
  9
$PEXTMAX
 10
-1.000000000000000E+20
 20
-1.000000000000000E+20
 30
-1.000000000000000E+20
  9
$PLIMMIN
 10
0.0
 20
0.0
  9
$PLIMMAX
 10
420.0
 20
297.0
  9
$UNITMODE
 70
     0
  9
$VISRETAIN
 70
     0
  9
$PLINEGEN
 70
     0
  9
$PSLTSCALE
 70
     0
  9
$TREEDEPTH
 70
  3020
  9
$CMLSTYLE
  2
STANDARD
  9
$CMLJUST
 70
     0
  9
$CMLSCALE
 40
1.0
  9
$PROXYGRAPHICS
 70
     1
  9
$MEASUREMENT
 70
     1
  9
$CELWEIGHT
370
    -1
  9
$ENDCAPS
280
     0
  9
$JOINSTYLE
280
     0
  9
$LWDISPLAY
290
     0
  9
$INSUNITS
 70
     0
  9
$HYPERLINKBASE
  1

  9
$STYLESHEET
  1
ACA3.ctb
  9
$XEDIT
290
     1
  9
$CEPSNTYPE
380
     0
  9
$PSTYLEMODE
290
     1
  9
$FINGERPRINTGUID
  2
{5EAC461A-2277-4BF8-9AB0-99C43BB394F0}
  9
$VERSIONGUID
  2
{41FBFA3E-74E0-455B-94B8-2CCBB50F6563}
  9
$EXTNAMES
290
     1
  9
$PSVPSCALE
 40
0.0
  9
$OLESTARTUP
290
     0
  0
ENDSEC
  0
SECTION
  2
CLASSES
  0
CLASS
  1
ACDBDICTIONARYWDFLT
  2
AcDbDictionaryWithDefault
  3
ObjectDBX Classes
 90
        0
280
     0
281
     0
  0
CLASS
  1
DICTIONARYVAR
  2
AcDbDictionaryVar
  3
ObjectDBX Classes
 90
        0
280
     0
281
     0
  0
CLASS
  1
ACDBPLACEHOLDER
  2
AcDbPlaceHolder
  3
ObjectDBX Classes
 90
        0
280
     0
281
     0
  0
CLASS
  1
LAYOUT
  2
AcDbLayout
  3
ObjectDBX Classes
 90
        0
280
     0
281
     0
  0
ENDSEC
  0
SECTION
  2
TABLES
  0
TABLE
  2
VPORT
  5
746D
330
0
100
AcDbSymbolTable
 70
     2
  0
VPORT
  5
25212
330
746D
100
AcDbSymbolTableRecord
100
AcDbViewportTableRecord
  2
*Active
 70
     0
 10
0.0
 20
0.0
 11
1.0
 21
1.0
 12
8426.71106980338
 22
6549.770593398211
 13
0.0
 23
0.0
 14
10.0
 24
10.0
 15
10.0
 25
10.0
 16
0.0
 26
0.0
 36
1.0
 17
0.0
 27
0.0
 37
0.0
 40
13195.65842549394
 41
1.522222222222222
 42
50.0
 43
0.0
 44
0.0
 50
0.0
 51
0.0
 71
     0
 72
     0
 73
     1
 74
     0
 75
     0
 76
     0
 77
     0
 78
     0
281
     0
 65
     1
110
0.0
120
0.0
130
0.0
111
1.0
121
0.0
131
0.0
112
0.0
122
1.0
132
0.0
 79
     0
146
0.0
  0
ENDTAB
  0
TABLE
  2
LTYPE
  5
746A
330
0
100
AcDbSymbolTable
 70
     5
  0
LTYPE
  5
7477
330
746A
100
AcDbSymbolTableRecord
100
AcDbLinetypeTableRecord
  2
BYBLOCK
 70
     0
  3

 72
    65
 73
     0
 40
0.0
  0
LTYPE
  5
7478
330
746A
100
AcDbSymbolTableRecord
100
AcDbLinetypeTableRecord
  2
BYLAYER
 70
     0
  3

 72
    65
 73
     0
 40
0.0
  0
LTYPE
  5
7479
330
746A
100
AcDbSymbolTableRecord
100
AcDbLinetypeTableRecord
  2
CONTINUOUS
 70
     0
  3
Solid line
 72
    65
 73
     0
 40
0.0
  0
LTYPE
  5
7816
330
746A
100
AcDbSymbolTableRecord
100
AcDbLinetypeTableRecord
  2
CENTER
 70
     0
  3
____ _ ____ _ ____ _ ____ _ ____ _ ____ _ ____ 
 72
    65
 73
     4
 40
2.0
 49
1.25
 74
     0
 49
-0.25
 74
     0
 49
0.25
 74
     0
 49
-0.25
 74
     0
  0
LTYPE
  5
781A
330
746A
100
AcDbSymbolTableRecord
100
AcDbLinetypeTableRecord
  2
HIDDEN
 70
     0
  3
__ __ __ __ __ __ __ __ __ __ __ __ __ __ __ __
 72
    65
 73
     2
 40
0.375
 49
0.25
 74
     0
 49
-0.125
 74
     0
  0
LTYPE
  5
781B
330
746A
100
AcDbSymbolTableRecord
100
AcDbLinetypeTableRecord
  2
PHANTOM
 70
     0
  3
______  __  __  ______  __  __  ______  __  __ 
 72
    65
 73
     6
 40
2.5
 49
1.25
 74
     0
 49
-0.25
 74
     0
 49
0.25
 74
     0
 49
-0.25
 74
     0
 49
0.25
 74
     0
 49
-0.25
 74
     0
  0
LTYPE
  5
12CC3
330
746A
100
AcDbSymbolTableRecord
100
AcDbLinetypeTableRecord
  2
HIDDENX2
 70
     0
  3
Hidden (2x) ____ ____ ____ ____ ____ ____ ____
 72
    65
 73
     2
 40
19.05
 49
12.7
 74
     0
 49
-6.349999999999999
 74
     0
  0
ENDTAB
  0
TABLE
  2
LAYER
  5
7467
102
{ACAD_XDICTIONARY
360
1758F
102
}
330
0
100
AcDbSymbolTable
 70
    12
  0
LAYER
  5
7474
330
7467
100
AcDbSymbolTableRecord
100
AcDbLayerTableRecord
  2
0
 70
     0
 62
     7
  6
CONTINUOUS
370
    -3
390
173D0
  0
LAYER
  5
DEB2
330
7467
100
AcDbSymbolTableRecord
100
AcDbLayerTableRecord
  2
センター
 70
     0
 62
     3
  6
CENTER
370
    -3
390
173D0
  0
LAYER
  5
DEB3
330
7467
100
AcDbSymbolTableRecord
100
AcDbLayerTableRecord
  2
寸法
 70
     0
 62
     4
  6
CONTINUOUS
370
    -3
390
173D0
  0
LAYER
  5
DEB4
330
7467
100
AcDbSymbolTableRecord
100
AcDbLayerTableRecord
  2
部品1
 70
     0
 62
     7
  6
CONTINUOUS
370
    -3
390
173D0
  0
LAYER
  5
DEB5
330
7467
100
AcDbSymbolTableRecord
100
AcDbLayerTableRecord
  2
補助
 70
     0
 62
    -1
  6
CONTINUOUS
370
    -3
390
173D0
  0
LAYER
  5
DEB6
330
7467
100
AcDbSymbolTableRecord
100
AcDbLayerTableRecord
  2
文字
 70
     0
 62
     7
  6
CONTINUOUS
370
    -3
390
173D0
  0
LAYER
  5
F255
330
7467
100
AcDbSymbolTableRecord
100
AcDbLayerTableRecord
  2
DEFPOINTS
 70
     0
 62
     7
  6
CONTINUOUS
290
     0
370
    -3
390
173D0
  0
LAYER
  5
10B54
330
7467
100
AcDbSymbolTableRecord
100
AcDbLayerTableRecord
  2
仕様書枠
 70
     0
 62
   230
  6
CONTINUOUS
370
    -3
390
173D0
  0
LAYER
  5
11729
330
7467
100
AcDbSymbolTableRecord
100
AcDbLayerTableRecord
  2
Ｇ．Ｌ
 70
     0
 62
    30
  6
CONTINUOUS
370
    -3
390
173D0
  0
LAYER
  5
1173F
330
7467
100
AcDbSymbolTableRecord
100
AcDbLayerTableRecord
  2
細線
 70
     0
 62
     5
  6
CONTINUOUS
370
    -3
390
173D0
  0
LAYER
  5
12CC4
330
7467
100
AcDbSymbolTableRecord
100
AcDbLayerTableRecord
  2
想像線
 70
     0
 62
     6
  6
PHANTOM
370
    -3
390
173D0
  0
LAYER
  5
142E2
330
7467
100
AcDbSymbolTableRecord
100
AcDbLayerTableRecord
  2
破線
 70
     0
 62
     2
  6
HIDDEN
370
    -3
390
173D0
  0
ENDTAB
  0
TABLE
  2
STYLE
  5
7468
330
0
100
AcDbSymbolTable
 70
     7
  0
STYLE
  5
7475
330
7468
100
AcDbSymbolTableRecord
100
AcDbTextStyleTableRecord
  2
STANDARD
 70
     0
 40
0.0
 41
1.0
 50
0.0
 71
     0
 42
4.0
  3
txt
  4
C:\AutoCAD LT\bigfont.shx
  0
STYLE
  5
763C
330
7468
100
AcDbSymbolTableRecord
100
AcDbTextStyleTableRecord
  2
MSMINCHO
 70
     0
 40
0.0
 41
1.0
 50
0.0
 71
     0
 42
1.199999999999999
  3
C:\AutoCAD LT\msminch2.TTF
  4

  0
STYLE
  5
F706
330
7468
100
AcDbSymbolTableRecord
100
AcDbTextStyleTableRecord
  2
STYLE1
 70
     0
 40
0.0
 41
1.0
 50
0.0
 71
     0
 42
4.0
  3
isocp.shx
  4
bigfont.shx
  0
STYLE
  5
103BF
330
7468
100
AcDbSymbolTableRecord
100
AcDbTextStyleTableRecord
  2
STYLE2
 70
     0
 40
0.0
 41
1.0
 50
0.0
 71
     0
 42
100.0
  3
MS PGothic.ttf
  4

1001
ACAD
1000
MS PGothic
1071
    32818
  0
STYLE
  5
10BAA
330
7468
100
AcDbSymbolTableRecord
100
AcDbTextStyleTableRecord
  2
STYLE3
 70
     0
 40
0.0
 41
1.0
 50
0.0
 71
     0
 42
100.0
  3

  4

1001
ACAD
1000
DFPGothic-EB
1071
    32818
  0
STYLE
  5
11A15
330
7468
100
AcDbSymbolTableRecord
100
AcDbTextStyleTableRecord
  2
MSGOTHIC
 70
     0
 40
0.0
 41
1.0
 50
0.0
 71
     0
 42
3.5
  3
msgothi2.ttf
  4

  0
STYLE
  5
13E96
330
7468
100
AcDbSymbolTableRecord
100
AcDbTextStyleTableRecord
  2
MSPゴシック
 70
     0
 40
0.0
 41
1.0
 50
0.0
 71
     0
 42
4.0
  3
MS PGothic.ttf
  4

1001
ACAD
1000
MS PGothic
1071
    32818
  0
ENDTAB
  0
TABLE
  2
VIEW
  5
746B
330
0
100
AcDbSymbolTable
 70
     0
  0
ENDTAB
  0
TABLE
  2
UCS
  5
746C
330
0
100
AcDbSymbolTable
 70
     0
  0
ENDTAB
  0
TABLE
  2
APPID
  5
746E
330
0
100
AcDbSymbolTable
 70
     6
  0
APPID
  5
7476
330
746E
100
AcDbSymbolTableRecord
100
AcDbRegAppTableRecord
  2
ACAD
 70
     0
  0
APPID
  5
DEA9
330
746E
100
AcDbSymbolTableRecord
100
AcDbRegAppTableRecord
  2
CONTENTBLOCKICON
 70
     0
  0
APPID
  5
DEAA
330
746E
100
AcDbSymbolTableRecord
100
AcDbRegAppTableRecord
  2
CONTENTBLOCKDESCRIPTION
 70
     0
  0
APPID
  5
E71D
330
746E
100
AcDbSymbolTableRecord
100
AcDbRegAppTableRecord
  2
CONTENTTABDATA
 70
     0
  0
APPID
  5
E71E
330
746E
100
AcDbSymbolTableRecord
100
AcDbRegAppTableRecord
  2
CONTENTCURRENTTAB
 70
     0
  0
APPID
  5
F3BA
330
746E
100
AcDbSymbolTableRecord
100
AcDbRegAppTableRecord
  2
DRAWINGVARIABLESXDATA
 70
     0
  0
ENDTAB
  0
TABLE
  2
DIMSTYLE
  5
746F
330
0
100
AcDbSymbolTable
 70
     6
100
AcDbDimStyleTable
 71
     1
340
F71F
  0
DIMSTYLE
105
7484
330
746F
100
AcDbSymbolTableRecord
100
AcDbDimStyleTableRecord
  2
JIS
 70
     0
 41
2.5
 42
1.0
 43
7.0
 44
1.0
 73
     0
 74
     0
 77
     1
 78
     8
140
2.5
141
0.0
143
0.0394
147
0.0
172
     1
174
     1
175
     1
340
7475
  0
DIMSTYLE
105
F236
330
746F
100
AcDbSymbolTableRecord
100
AcDbDimStyleTableRecord
  2
INABA_S40
 70
     0
 40
40.0
 41
2.5
 42
0.5
 43
7.0
 44
1.5
 73
     0
 74
     0
 77
     3
 78
     8
140
3.0
141
0.0
143
0.0394
147
1.0
172
     1
173
     1
174
     1
175
     1
178
     7
289
     0
340
7475
341
DEAC
343
DEAC
344
DEAC
  0
DIMSTYLE
105
F71F
102
{ACAD_REACTORS
330
22941
330
22940
330
22939
330
22957
330
22947
330
22946
330
22945
330
2293F
330
2293E
330
2296F
330
2296B
330
2294F
330
22988
330
2293A
330
2350A
330
23518
330
23519
330
23D4A
330
23D4B
330
23D50
330
2416D
330
24170
330
24171
330
24176
330
25050
330
25051
330
25059
330
25060
330
25063
330
250C3
102
}
330
746F
100
AcDbSymbolTableRecord
100
AcDbDimStyleTableRecord
  2
INABA_S40G
 70
     0
 40
40.0
 41
2.5
 42
0.5
 43
7.0
 44
1.5
 73
     0
 74
     0
 77
     3
 78
     8
140
3.0
141
0.0
143
0.0394
147
1.0
172
     1
173
     1
174
     1
178
     7
271
     1
340
F706
341
F770
343
F770
344
F770
  0
DIMSTYLE
105
142E3
330
746F
100
AcDbSymbolTableRecord
100
AcDbDimStyleTableRecord
  2
INABA_S1
 70
     0
 40
0.0
 41
2.5
 42
0.5
 43
7.0
 44
1.5
 73
     0
 74
     0
 77
     3
 78
     8
140
3.0
141
0.0
143
0.0394
146
0.5
147
0.5
172
     1
173
     1
176
   256
177
   256
178
     7
271
     2
272
     2
284
     8
288
     1
340
7475
341
DEAC
343
DEAC
344
DEAC
  0
DIMSTYLE
105
14463
330
746F
100
AcDbSymbolTableRecord
100
AcDbDimStyleTableRecord
  2
INABA_S30G
 70
     0
 40
30.0
 41
2.5
 42
0.5
 43
7.0
 44
1.5
 73
     0
 74
     0
 77
     3
 78
     8
140
3.0
141
0.0
143
0.0394
147
1.0
172
     1
173
     1
174
     1
175
     1
178
     7
271
     1
340
F706
341
F770
343
F770
344
F770
  0
DIMSTYLE
105
1758E
330
746F
100
AcDbSymbolTableRecord
100
AcDbDimStyleTableRecord
  2
INABA_S50G
 70
     0
 41
125.0
 42
25.0
 43
7.0
 44
75.0
 73
     0
 74
     0
 77
     3
 78
     8
140
150.0
141
0.0
143
0.0394
147
25.0
172
     1
173
     1
174
     1
175
     1
178
     7
271
     1
340
F706
341
F770
343
F770
344
F770
  0
ENDTAB
  0
TABLE
  2
BLOCK_RECORD
  5
7466
330
0
100
AcDbSymbolTable
 70
    61
  0
BLOCK_RECORD
  5
747D
330
7466
100
AcDbSymbolTableRecord
100
AcDbBlockTableRecord
  2
*MODEL_SPACE
340
173D5
  0
BLOCK_RECORD
  5
747A
330
7466
100
AcDbSymbolTableRecord
100
AcDbBlockTableRecord
  2
*PAPER_SPACE
340
173D6
  0
BLOCK_RECORD
  5
DEAC
330
7466
100
AcDbSymbolTableRecord
100
AcDbBlockTableRecord
  2
_OPEN
340
0
  0
BLOCK_RECORD
  5
F770
330
7466
100
AcDbSymbolTableRecord
100
AcDbBlockTableRecord
  2
_DOTSMALL
340
0
102
{BLKREFS
331
18C65
331
18C66
331
18C59
331
18C5A
331
18C4D
331
18C4E
331
18C41
331
18C42
331
18C35
331
18C36
331
18C29
331
18C2A
331
18C1D
331
18C1E
331
18C0F
331
18C10
331
18C03
331
18C04
331
18BF5
331
18BF6
331
18BE7
331
18BE8
331
18BD9
331
18BDA
331
18BCD
331
18BCE
331
22EA8
331
22EA9
331
22EB1
331
22EB2
331
22EBA
331
22EBB
331
22EE0
331
22EE1
331
22EE9
331
22EEA
331
22EF3
331
22EF4
331
22EFD
331
22EFE
331
22F30
331
22F31
331
23769
331
2376A
331
23771
331
23772
331
2377A
331
2377B
331
23783
331
23784
331
23795
331
23796
331
2379E
331
2379F
331
23FB4
331
23FB5
331
23FBD
331
23FBE
331
243DA
331
243DB
331
243E5
331
243E6
331
243FB
331
243FC
331
24411
331
24412
331
247EC
331
247ED
331
247F6
331
247F7
331
24800
331
24801
331
2481E
331
2481F
331
24E7F
331
24E80
331
24E88
331
24E89
331
24E91
331
24E92
331
24E9A
331
24E9B
331
24EA8
331
24EA9
331
24EB0
331
24EB1
331
24EFA
331
24EFB
331
24EEF
331
24EF0
331
24EDE
331
24EDF
331
24ED2
331
24ED3
331
24EC6
331
24EC7
331
24F07
331
24F08
331
251CD
331
251CE
331
251DC
331
251DD
331
251E5
331
251E6
331
251EE
331
251EF
331
251F7
331
251F8
331
25200
331
25201
102
}
  0
BLOCK_RECORD
  5
164B4
330
7466
100
AcDbSymbolTableRecord
100
AcDbBlockTableRecord
  2
_DOT
340
0
102
{BLKREFS
331
18C73
331
18C74
102
}
  0
BLOCK_RECORD
  5
18BC8
330
7466
100
AcDbSymbolTableRecord
100
AcDbBlockTableRecord
  2
*D3
340
0
  0
BLOCK_RECORD
  5
18BD4
330
7466
100
AcDbSymbolTableRecord
100
AcDbBlockTableRecord
  2
*D4
340
0
  0
BLOCK_RECORD
  5
18BE0
330
7466
100
AcDbSymbolTableRecord
100
AcDbBlockTableRecord
  2
*D5
340
0
  0
BLOCK_RECORD
  5
18BEE
330
7466
100
AcDbSymbolTableRecord
100
AcDbBlockTableRecord
  2
*D6
340
0
  0
BLOCK_RECORD
  5
18BFC
330
7466
100
AcDbSymbolTableRecord
100
AcDbBlockTableRecord
  2
*D7
340
0
  0
BLOCK_RECORD
  5
18C0A
330
7466
100
AcDbSymbolTableRecord
100
AcDbBlockTableRecord
  2
*D8
340
0
  0
BLOCK_RECORD
  5
18C16
330
7466
100
AcDbSymbolTableRecord
100
AcDbBlockTableRecord
  2
*D9
340
0
  0
BLOCK_RECORD
  5
18C24
330
7466
100
AcDbSymbolTableRecord
100
AcDbBlockTableRecord
  2
*D10
340
0
  0
BLOCK_RECORD
  5
18C30
330
7466
100
AcDbSymbolTableRecord
100
AcDbBlockTableRecord
  2
*D11
340
0
  0
BLOCK_RECORD
  5
18C3C
330
7466
100
AcDbSymbolTableRecord
100
AcDbBlockTableRecord
  2
*D12
340
0
  0
BLOCK_RECORD
  5
18C48
330
7466
100
AcDbSymbolTableRecord
100
AcDbBlockTableRecord
  2
*D13
340
0
  0
BLOCK_RECORD
  5
18C54
330
7466
100
AcDbSymbolTableRecord
100
AcDbBlockTableRecord
  2
*D14
340
0
  0
BLOCK_RECORD
  5
18C60
330
7466
100
AcDbSymbolTableRecord
100
AcDbBlockTableRecord
  2
*D15
340
0
  0
BLOCK_RECORD
  5
18C6C
330
7466
100
AcDbSymbolTableRecord
100
AcDbBlockTableRecord
  2
*D16
340
0
  0
BLOCK_RECORD
  5
18C7A
330
7466
100
AcDbSymbolTableRecord
100
AcDbBlockTableRecord
  2
A$C3B1A506B
340
0
  0
BLOCK_RECORD
  5
1C4CA
330
7466
100
AcDbSymbolTableRecord
100
AcDbBlockTableRecord
  2
_NONE
340
0
  0
BLOCK_RECORD
  5
22995
330
7466
100
AcDbSymbolTableRecord
100
AcDbBlockTableRecord
  2
*D19
340
0
  0
BLOCK_RECORD
  5
229A2
330
7466
100
AcDbSymbolTableRecord
100
AcDbBlockTableRecord
  2
*D20
340
0
  0
BLOCK_RECORD
  5
229D5
330
7466
100
AcDbSymbolTableRecord
100
AcDbBlockTableRecord
  2
*D21
340
0
  0
BLOCK_RECORD
  5
229E2
330
7466
100
AcDbSymbolTableRecord
100
AcDbBlockTableRecord
  2
*D22
340
0
  0
BLOCK_RECORD
  5
229EF
330
7466
100
AcDbSymbolTableRecord
100
AcDbBlockTableRecord
  2
*D23
340
0
  0
BLOCK_RECORD
  5
229FA
330
7466
100
AcDbSymbolTableRecord
100
AcDbBlockTableRecord
  2
*D24
340
0
  0
BLOCK_RECORD
  5
22A26
330
7466
100
AcDbSymbolTableRecord
100
AcDbBlockTableRecord
  2
*D25
340
0
  0
BLOCK_RECORD
  5
22A31
330
7466
100
AcDbSymbolTableRecord
100
AcDbBlockTableRecord
  2
*D26
340
0
  0
BLOCK_RECORD
  5
22A3D
330
7466
100
AcDbSymbolTableRecord
100
AcDbBlockTableRecord
  2
*D27
340
0
  0
BLOCK_RECORD
  5
22A57
330
7466
100
AcDbSymbolTableRecord
100
AcDbBlockTableRecord
  2
*D28
340
0
  0
BLOCK_RECORD
  5
22A63
330
7466
100
AcDbSymbolTableRecord
100
AcDbBlockTableRecord
  2
*D29
340
0
  0
BLOCK_RECORD
  5
22A7D
330
7466
100
AcDbSymbolTableRecord
100
AcDbBlockTableRecord
  2
*D30
340
0
  0
BLOCK_RECORD
  5
22A89
330
7466
100
AcDbSymbolTableRecord
100
AcDbBlockTableRecord
  2
*D31
340
0
  0
BLOCK_RECORD
  5
22A94
330
7466
100
AcDbSymbolTableRecord
100
AcDbBlockTableRecord
  2
*D32
340
0
  0
BLOCK_RECORD
  5
23586
330
7466
100
AcDbSymbolTableRecord
100
AcDbBlockTableRecord
  2
*D33
340
0
  0
BLOCK_RECORD
  5
23592
330
7466
100
AcDbSymbolTableRecord
100
AcDbBlockTableRecord
  2
*D34
340
0
  0
BLOCK_RECORD
  5
2359E
330
7466
100
AcDbSymbolTableRecord
100
AcDbBlockTableRecord
  2
*D35
340
0
  0
BLOCK_RECORD
  5
23DA8
330
7466
100
AcDbSymbolTableRecord
100
AcDbBlockTableRecord
  2
*D36
340
0
  0
BLOCK_RECORD
  5
23DB5
330
7466
100
AcDbSymbolTableRecord
100
AcDbBlockTableRecord
  2
*D37
340
0
  0
BLOCK_RECORD
  5
23DC2
330
7466
100
AcDbSymbolTableRecord
100
AcDbBlockTableRecord
  2
*D38
340
0
  0
BLOCK_RECORD
  5
241CD
330
7466
100
AcDbSymbolTableRecord
100
AcDbBlockTableRecord
  2
*D39
340
0
  0
BLOCK_RECORD
  5
241DB
330
7466
100
AcDbSymbolTableRecord
100
AcDbBlockTableRecord
  2
*D40
340
0
  0
BLOCK_RECORD
  5
241E9
330
7466
100
AcDbSymbolTableRecord
100
AcDbBlockTableRecord
  2
*D41
340
0
  0
BLOCK_RECORD
  5
241F7
330
7466
100
AcDbSymbolTableRecord
100
AcDbBlockTableRecord
  2
*D42
340
0
  0
BLOCK_RECORD
  5
2517D
330
7466
100
AcDbSymbolTableRecord
100
AcDbBlockTableRecord
  2
*D55
340
0
  0
BLOCK_RECORD
  5
25189
330
7466
100
AcDbSymbolTableRecord
100
AcDbBlockTableRecord
  2
*D56
340
0
  0
BLOCK_RECORD
  5
2519A
330
7466
100
AcDbSymbolTableRecord
100
AcDbBlockTableRecord
  2
*D57
340
0
  0
BLOCK_RECORD
  5
251A6
330
7466
100
AcDbSymbolTableRecord
100
AcDbBlockTableRecord
  2
*D58
340
0
  0
BLOCK_RECORD
  5
251B2
330
7466
100
AcDbSymbolTableRecord
100
AcDbBlockTableRecord
  2
*D59
340
0
  0
BLOCK_RECORD
  5
251BE
330
7466
100
AcDbSymbolTableRecord
100
AcDbBlockTableRecord
  2
*D60
340
0
  0
ENDTAB
  0
ENDSEC
  0
SECTION
  2
BLOCKS
  0
BLOCK
  5
7489
330
747D
100
AcDbEntity
  8
0
100
AcDbBlockBegin
  2
*MODEL_SPACE
 70
     0
 10
0.0
 20
0.0
 30
0.0
  3
*MODEL_SPACE
  1

  0
ENDBLK
  5
748A
330
747D
100
AcDbEntity
  8
0
100
AcDbBlockEnd
  0
BLOCK
  5
7487
330
747A
100
AcDbEntity
 67
     1
  8
0
100
AcDbBlockBegin
  2
*PAPER_SPACE
 70
     0
 10
0.0
 20
0.0
 30
0.0
  3
*PAPER_SPACE
  1

  0
ENDBLK
  5
7488
330
747A
100
AcDbEntity
 67
     1
  8
0
100
AcDbBlockEnd
  0
BLOCK
  5
DEAD
330
DEAC
100
AcDbEntity
  8
0
100
AcDbBlockBegin
  2
_OPEN
 70
     0
 10
0.0
 20
0.0
 30
0.0
  3
_OPEN
  1

  0
LINE
  5
DEAE
330
DEAC
100
AcDbEntity
  8
0
  6
ByBlock
 62
     0
100
AcDbLine
 10
-1.0
 20
0.1666666666666666
 30
0.0
 11
0.0
 21
0.0
 31
0.0
  0
LINE
  5
DEAF
330
DEAC
100
AcDbEntity
  8
0
  6
ByBlock
 62
     0
100
AcDbLine
 10
0.0
 20
0.0
 30
0.0
 11
-1.0
 21
-0.1666666666666666
 31
0.0
  0
LINE
  5
DEB0
330
DEAC
100
AcDbEntity
  8
0
  6
ByBlock
 62
     0
100
AcDbLine
 10
0.0
 20
0.0
 30
0.0
 11
-1.0
 21
0.0
 31
0.0
  0
ENDBLK
  5
DEB1
330
DEAC
100
AcDbEntity
  8
0
100
AcDbBlockEnd
  0
BLOCK
  5
F771
330
F770
100
AcDbEntity
  8
0
 48
50.0
100
AcDbBlockBegin
  2
_DOTSMALL
 70
     0
 10
0.0
 20
0.0
 30
0.0
  3
_DOTSMALL
  1

  0
LWPOLYLINE
  5
F772
330
F770
100
AcDbEntity
  8
0
  6
ByBlock
 62
     0
 48
50.0
100
AcDbPolyline
 90
        2
 70
     1
 43
0.5
 10
-0.0625
 20
0.0
 42
1.0
 10
0.0625
 20
0.0
 42
1.0
  0
ENDBLK
  5
F776
330
F770
100
AcDbEntity
  8
0
 48
50.0
100
AcDbBlockEnd
  0
BLOCK
  5
164BA
330
164B4
100
AcDbEntity
  8
0
 48
50.0
100
AcDbBlockBegin
  2
_DOT
 70
     0
 10
0.0
 20
0.0
 30
0.0
  3
_DOT
  1

  0
LWPOLYLINE
  5
164B5
330
164B4
100
AcDbEntity
  8
0
  6
ByBlock
 62
     0
 48
50.0
100
AcDbPolyline
 90
        2
 70
     1
 43
0.5
 10
-0.25
 20
0.0
 42
1.0
 10
0.25
 20
0.0
 42
1.0
  0
LINE
  5
164B9
330
164B4
100
AcDbEntity
  8
0
  6
ByBlock
 62
     0
 48
50.0
100
AcDbLine
 10
-0.5
 20
0.0
 30
0.0
 11
-1.0
 21
0.0
 31
0.0
  0
ENDBLK
  5
164BB
330
164B4
100
AcDbEntity
  8
0
 48
50.0
100
AcDbBlockEnd
  0
BLOCK
  5
18BC9
330
18BC8
100
AcDbEntity
  8
0
 48
50.0
100
AcDbBlockBegin
  2
*D3
 70
     1
 10
0.0
 20
0.0
 30
0.0
  3
*D3
  1

  0
LINE
  5
18BCA
330
18BC8
100
AcDbEntity
  8
寸法
 62
     0
 48
50.0
370
    -2
100
AcDbLine
 10
7649.896575106999
 20
9636.123139034717
 30
0.0
 11
8702.429862581047
 21
9636.123139034717
 31
0.0
  0
LINE
  5
18BCB
330
18BC8
100
AcDbEntity
  8
寸法
 62
     0
 48
50.0
370
    -2
100
AcDbLine
 10
7649.896575106973
 20
7846.123139034709
 30
0.0
 11
8702.429862581047
 21
7846.123139034709
 31
0.0
  0
LINE
  5
18BCC
330
18BC8
100
AcDbEntity
  8
寸法
 62
     0
 48
50.0
370
    -2
100
AcDbLine
 10
8642.429862581046
 20
9636.123139034717
 30
0.0
 11
8642.429862581046
 21
7846.123139034709
 31
0.0
  0
INSERT
  5
18BCD
330
18BC8
100
AcDbEntity
  8
寸法
 62
     0
 48
50.0
370
    -2
100
AcDbBlockReference
  2
_DOTSMALL
 10
8642.429862581046
 20
9636.123139034717
 30
0.0
 41
100.0
 42
100.0
 43
100.0
 50
90.0
  0
INSERT
  5
18BCE
330
18BC8
100
AcDbEntity
  8
寸法
 62
     0
 48
50.0
370
    -2
100
AcDbBlockReference
  2
_DOTSMALL
 10
8642.429862581046
 20
7846.123139034709
 30
0.0
 41
100.0
 42
100.0
 43
100.0
 50
270.0
  0
MTEXT
  5
18BCF
330
18BC8
100
AcDbEntity
  8
寸法
 62
     7
 48
50.0
100
AcDbMText
 10
8542.429862581045
 20
8741.123139034712
 30
0.0
 40
120.0
 41
0.0
 71
     5
 72
     1
  1
\A1;1790
  7
STYLE1
 11
0.0000000000000001
 21
1.0
 31
0.0
 73
     1
 44
1.0
1001
ACAD
1000
MTEXTBEGIN
1070
    73
1070
     1
1070
    44
1040
1.0
1070
    74
1070
     0
1000
MTEXTEND
  0
POINT
  5
18BD0
330
18BC8
100
AcDbEntity
  8
DEFPOINTS
 62
     0
 48
50.0
100
AcDbPoint
 10
7629.896575106998
 20
9636.123139034717
 30
0.0
  0
POINT
  5
18BD1
330
18BC8
100
AcDbEntity
  8
DEFPOINTS
 62
     0
 48
50.0
100
AcDbPoint
 10
7629.896575106974
 20
7846.123139034709
 30
0.0
  0
POINT
  5
18BD2
330
18BC8
100
AcDbEntity
  8
DEFPOINTS
 62
     0
 48
50.0
100
AcDbPoint
 10
8642.429862581046
 20
7846.123139034709
 30
0.0
  0
ENDBLK
  5
18BD3
330
18BC8
100
AcDbEntity
  8
0
 48
50.0
100
AcDbBlockEnd
  0
BLOCK
  5
18BD5
330
18BD4
100
AcDbEntity
  8
0
 48
50.0
100
AcDbBlockBegin
  2
*D4
 70
     1
 10
0.0
 20
0.0
 30
0.0
  3
*D4
  1

  0
LINE
  5
18BD6
330
18BD4
100
AcDbEntity
  8
寸法
 62
     0
 48
50.0
370
    -2
100
AcDbLine
 10
4214.896575106998
 20
9656.123139034622
 30
0.0
 11
4214.896575106998
 21
10211.93135865972
 31
0.0
  0
LINE
  5
18BD7
330
18BD4
100
AcDbEntity
  8
寸法
 62
     0
 48
50.0
370
    -2
100
AcDbLine
 10
7574.896575106999
 20
9656.123139034718
 30
0.0
 11
7574.896575106999
 21
10211.93135865972
 31
0.0
  0
LINE
  5
18BD8
330
18BD4
100
AcDbEntity
  8
寸法
 62
     0
 48
50.0
370
    -2
100
AcDbLine
 10
4214.896575106998
 20
10151.93135865972
 30
0.0
 11
7574.896575106999
 21
10151.93135865972
 31
0.0
  0
INSERT
  5
18BD9
330
18BD4
100
AcDbEntity
  8
寸法
 62
     0
 48
50.0
370
    -2
100
AcDbBlockReference
  2
_DOTSMALL
 10
4214.896575106998
 20
10151.93135865972
 30
0.0
 41
100.0
 42
100.0
 43
100.0
 50
180.0
  0
INSERT
  5
18BDA
330
18BD4
100
AcDbEntity
  8
寸法
 62
     0
 48
50.0
370
    -2
100
AcDbBlockReference
  2
_DOTSMALL
 10
7574.896575106999
 20
10151.93135865972
 30
0.0
 41
100.0
 42
100.0
 43
100.0
  0
MTEXT
  5
18BDB
330
18BD4
100
AcDbEntity
  8
寸法
 62
     7
 48
50.0
100
AcDbMText
 10
5894.896575106997
 20
10251.94316968334
 30
0.0
 40
120.0
 41
0.0
 71
     5
 72
     1
  1
\A1;8X420=3360
  7
STYLE1
 73
     1
 44
1.0
1001
ACAD
1000
MTEXTBEGIN
1070
    73
1070
     1
1070
    44
1040
1.0
1070
    74
1070
     0
1000
MTEXTEND
  0
POINT
  5
18BDC
330
18BD4
100
AcDbEntity
  8
DEFPOINTS
 62
     0
 48
50.0
100
AcDbPoint
 10
4214.896575106998
 20
9636.123139034623
 30
0.0
  0
POINT
  5
18BDD
330
18BD4
100
AcDbEntity
  8
DEFPOINTS
 62
     0
 48
50.0
100
AcDbPoint
 10
7574.896575106999
 20
9636.123139034717
 30
0.0
  0
POINT
  5
18BDE
330
18BD4
100
AcDbEntity
  8
DEFPOINTS
 62
     0
 48
50.0
100
AcDbPoint
 10
7574.896575106999
 20
10151.93135865972
 30
0.0
  0
ENDBLK
  5
18BDF
330
18BD4
100
AcDbEntity
  8
0
 48
50.0
100
AcDbBlockEnd
  0
BLOCK
  5
18BE1
330
18BE0
100
AcDbEntity
  8
0
 48
50.0
100
AcDbBlockBegin
  2
*D5
 70
     1
 10
0.0
 20
0.0
 30
0.0
  3
*D5
  1

  0
LINE
  5
18BE2
330
18BE0
100
AcDbEntity
  8
寸法
 62
     0
 48
50.0
370
    -2
100
AcDbLine
 10
7574.896575106999
 20
9656.123139034718
 30
0.0
 11
7574.896575106999
 21
10211.9313586597
 31
0.0
  0
LINE
  5
18BE3
330
18BE0
100
AcDbEntity
  8
寸法
 62
     0
 48
50.0
370
    -2
100
AcDbLine
 10
7629.896575106998
 20
9656.123139034718
 30
0.0
 11
7629.896575106998
 21
10211.9313586597
 31
0.0
  0
LINE
  5
18BE4
330
18BE0
100
AcDbEntity
  8
寸法
 62
     0
 48
50.0
370
    -2
100
AcDbLine
 10
7574.896575106999
 20
10151.9313586597
 30
0.0
 11
7474.896575106999
 21
10151.9313586597
 31
0.0
  0
LINE
  5
18BE5
330
18BE0
100
AcDbEntity
  8
寸法
 62
     0
 48
50.0
370
    -2
100
AcDbLine
 10
7629.896575106998
 20
10151.9313586597
 30
0.0
 11
8046.867137855477
 21
10151.9313586597
 31
0.0
  0
LINE
  5
18BE6
330
18BE0
100
AcDbEntity
  8
寸法
 62
     0
 48
50.0
370
    -2
100
AcDbLine
 10
7574.896575106999
 20
10151.9313586597
 30
0.0
 11
7629.896575106998
 21
10151.9313586597
 31
0.0
  0
INSERT
  5
18BE7
330
18BE0
100
AcDbEntity
  8
寸法
 62
     0
 48
50.0
370
    -2
100
AcDbBlockReference
  2
_DOTSMALL
 10
7574.896575106999
 20
10151.9313586597
 30
0.0
 41
100.0
 42
100.0
 43
100.0
  0
INSERT
  5
18BE8
330
18BE0
100
AcDbEntity
  8
寸法
 62
     0
 48
50.0
370
    -2
100
AcDbBlockReference
  2
_DOTSMALL
 10
7629.896575106998
 20
10151.9313586597
 30
0.0
 41
100.0
 42
100.0
 43
100.0
 50
180.0
  0
MTEXT
  5
18BE9
330
18BE0
100
AcDbEntity
  8
寸法
 62
     7
 48
50.0
100
AcDbMText
 10
7938.381856481237
 20
10251.9313586597
 30
0.0
 40
120.0
 41
0.0
 71
     5
 72
     1
  1
\A1;55
  7
STYLE1
 73
     1
 44
1.0
1001
ACAD
1000
MTEXTBEGIN
1070
    73
1070
     1
1070
    44
1040
1.0
1070
    74
1070
     0
1000
MTEXTEND
  0
POINT
  5
18BEA
330
18BE0
100
AcDbEntity
  8
DEFPOINTS
 62
     0
 48
50.0
100
AcDbPoint
 10
7574.896575106999
 20
9636.123139034717
 30
0.0
  0
POINT
  5
18BEB
330
18BE0
100
AcDbEntity
  8
DEFPOINTS
 62
     0
 48
50.0
100
AcDbPoint
 10
7629.896575106998
 20
9636.123139034717
 30
0.0
  0
POINT
  5
18BEC
330
18BE0
100
AcDbEntity
  8
DEFPOINTS
 62
     0
 48
50.0
100
AcDbPoint
 10
7629.896575106998
 20
10151.9313586597
 30
0.0
  0
ENDBLK
  5
18BED
330
18BE0
100
AcDbEntity
  8
0
 48
50.0
100
AcDbBlockEnd
  0
BLOCK
  5
18BEF
330
18BEE
100
AcDbEntity
  8
0
 48
50.0
100
AcDbBlockBegin
  2
*D6
 70
     1
 10
0.0
 20
0.0
 30
0.0
  3
*D6
  1

  0
LINE
  5
18BF0
330
18BEE
100
AcDbEntity
  8
寸法
 62
     0
 48
50.0
370
    -2
100
AcDbLine
 10
7649.896575106999
 20
9636.123139034717
 30
0.0
 11
8337.32292084141
 21
9636.123139034717
 31
0.0
  0
LINE
  5
18BF1
330
18BEE
100
AcDbEntity
  8
寸法
 62
     0
 48
50.0
370
    -2
100
AcDbLine
 10
7649.896575106999
 20
9581.123139034721
 30
0.0
 11
8337.32292084141
 21
9581.123139034721
 31
0.0
  0
LINE
  5
18BF2
330
18BEE
100
AcDbEntity
  8
寸法
 62
     0
 48
50.0
370
    -2
100
AcDbLine
 10
8277.322920841411
 20
9581.123139034721
 30
0.0
 11
8277.322920841411
 21
9481.123139034719
 31
0.0
  0
LINE
  5
18BF3
330
18BEE
100
AcDbEntity
  8
寸法
 62
     0
 48
50.0
370
    -2
100
AcDbLine
 10
8277.322920841411
 20
9636.123139034717
 30
0.0
 11
8277.322920841411
 21
10053.09370178319
 31
0.0
  0
LINE
  5
18BF4
330
18BEE
100
AcDbEntity
  8
寸法
 62
     0
 48
50.0
370
    -2
100
AcDbLine
 10
8277.322920841411
 20
9581.123139034721
 30
0.0
 11
8277.322920841411
 21
9636.123139034717
 31
0.0
  0
INSERT
  5
18BF5
330
18BEE
100
AcDbEntity
  8
寸法
 62
     0
 48
50.0
370
    -2
100
AcDbBlockReference
  2
_DOTSMALL
 10
8277.322920841411
 20
9581.123139034721
 30
0.0
 41
100.0
 42
100.0
 43
100.0
 50
90.0
  0
INSERT
  5
18BF6
330
18BEE
100
AcDbEntity
  8
寸法
 62
     0
 48
50.0
370
    -2
100
AcDbBlockReference
  2
_DOTSMALL
 10
8277.322920841411
 20
9636.123139034717
 30
0.0
 41
100.0
 42
100.0
 43
100.0
 50
270.0
  0
MTEXT
  5
18BF7
330
18BEE
100
AcDbEntity
  8
寸法
 62
     7
 48
50.0
100
AcDbMText
 10
8177.32292084141
 20
9944.608420408957
 30
0.0
 40
120.0
 41
0.0
 71
     5
 72
     1
  1
\A1;55
  7
STYLE1
 11
0.0000000000000001
 21
1.0
 31
0.0
 73
     1
 44
1.0
1001
ACAD
1000
MTEXTBEGIN
1070
    73
1070
     1
1070
    44
1040
1.0
1070
    74
1070
     0
1000
MTEXTEND
  0
POINT
  5
18BF8
330
18BEE
100
AcDbEntity
  8
DEFPOINTS
 62
     0
 48
50.0
100
AcDbPoint
 10
7629.896575106998
 20
9636.123139034717
 30
0.0
  0
POINT
  5
18BF9
330
18BEE
100
AcDbEntity
  8
DEFPOINTS
 62
     0
 48
50.0
100
AcDbPoint
 10
7629.896575106998
 20
9581.123139034721
 30
0.0
  0
POINT
  5
18BFA
330
18BEE
100
AcDbEntity
  8
DEFPOINTS
 62
     0
 48
50.0
100
AcDbPoint
 10
8277.322920841411
 20
9581.123139034721
 30
0.0
  0
ENDBLK
  5
18BFB
330
18BEE
100
AcDbEntity
  8
0
 48
50.0
100
AcDbBlockEnd
  0
BLOCK
  5
18BFD
330
18BFC
100
AcDbEntity
  8
0
 48
50.0
100
AcDbBlockBegin
  2
*D7
 70
     1
 10
0.0
 20
0.0
 30
0.0
  3
*D7
  1

  0
LINE
  5
18BFE
330
18BFC
100
AcDbEntity
  8
寸法
 62
     0
 48
50.0
370
    -2
100
AcDbLine
 10
4159.896575106963
 20
9656.123139034622
 30
0.0
 11
4159.896575106963
 21
10211.9313586596
 31
0.0
  0
LINE
  5
18BFF
330
18BFC
100
AcDbEntity
  8
寸法
 62
     0
 48
50.0
370
    -2
100
AcDbLine
 10
4214.896575106998
 20
9656.123139034622
 30
0.0
 11
4214.896575106998
 21
10211.9313586596
 31
0.0
  0
LINE
  5
18C00
330
18BFC
100
AcDbEntity
  8
寸法
 62
     0
 48
50.0
370
    -2
100
AcDbLine
 10
4214.896575106998
 20
10151.9313586596
 30
0.0
 11
4314.896575106998
 21
10151.9313586596
 31
0.0
  0
LINE
  5
18C01
330
18BFC
100
AcDbEntity
  8
寸法
 62
     0
 48
50.0
370
    -2
100
AcDbLine
 10
4159.896575106963
 20
10151.9313586596
 30
0.0
 11
3742.926012358486
 21
10151.9313586596
 31
0.0
  0
LINE
  5
18C02
330
18BFC
100
AcDbEntity
  8
寸法
 62
     0
 48
50.0
370
    -2
100
AcDbLine
 10
4214.896575106998
 20
10151.9313586596
 30
0.0
 11
4159.896575106963
 21
10151.9313586596
 31
0.0
  0
INSERT
  5
18C03
330
18BFC
100
AcDbEntity
  8
寸法
 62
     0
 48
50.0
370
    -2
100
AcDbBlockReference
  2
_DOTSMALL
 10
4214.896575106998
 20
10151.9313586596
 30
0.0
 41
100.0
 42
100.0
 43
100.0
 50
180.0
  0
INSERT
  5
18C04
330
18BFC
100
AcDbEntity
  8
寸法
 62
     0
 48
50.0
370
    -2
100
AcDbBlockReference
  2
_DOTSMALL
 10
4159.896575106963
 20
10151.9313586596
 30
0.0
 41
100.0
 42
100.0
 43
100.0
  0
MTEXT
  5
18C05
330
18BFC
100
AcDbEntity
  8
寸法
 62
     7
 48
50.0
100
AcDbMText
 10
3851.411293732725
 20
10251.9313586596
 30
0.0
 40
120.0
 41
0.0
 71
     5
 72
     1
  1
\A1;55
  7
STYLE1
 73
     1
 44
1.0
1001
ACAD
1000
MTEXTBEGIN
1070
    73
1070
     1
1070
    44
1040
1.0
1070
    74
1070
     0
1000
MTEXTEND
  0
POINT
  5
18C06
330
18BFC
100
AcDbEntity
  8
DEFPOINTS
 62
     0
 48
50.0
100
AcDbPoint
 10
4159.896575106963
 20
9636.123139034623
 30
0.0
  0
POINT
  5
18C07
330
18BFC
100
AcDbEntity
  8
DEFPOINTS
 62
     0
 48
50.0
100
AcDbPoint
 10
4214.896575106998
 20
9636.123139034623
 30
0.0
  0
POINT
  5
18C08
330
18BFC
100
AcDbEntity
  8
DEFPOINTS
 62
     0
 48
50.0
100
AcDbPoint
 10
4214.896575106998
 20
10151.9313586596
 30
0.0
  0
ENDBLK
  5
18C09
330
18BFC
100
AcDbEntity
  8
0
 48
50.0
100
AcDbBlockEnd
  0
BLOCK
  5
18C0B
330
18C0A
100
AcDbEntity
  8
0
 48
50.0
100
AcDbBlockBegin
  2
*D8
 70
     1
 10
0.0
 20
0.0
 30
0.0
  3
*D8
  1

  0
LINE
  5
18C0C
330
18C0A
100
AcDbEntity
  8
寸法
 62
     0
 48
50.0
370
    -2
100
AcDbLine
 10
4159.896575106992
 20
7826.123139034546
 30
0.0
 11
4159.896575106992
 21
6804.372203245664
 31
0.0
  0
LINE
  5
18C0D
330
18C0A
100
AcDbEntity
  8
寸法
 62
     0
 48
50.0
370
    -2
100
AcDbLine
 10
7629.896575106974
 20
7826.123139034674
 30
0.0
 11
7629.896575106974
 21
6804.372203245664
 31
0.0
  0
LINE
  5
18C0E
330
18C0A
100
AcDbEntity
  8
寸法
 62
     0
 48
50.0
370
    -2
100
AcDbLine
 10
4159.896575106992
 20
6864.372203245665
 30
0.0
 11
7629.896575106974
 21
6864.372203245665
 31
0.0
  0
INSERT
  5
18C0F
330
18C0A
100
AcDbEntity
  8
寸法
 62
     0
 48
50.0
370
    -2
100
AcDbBlockReference
  2
_DOTSMALL
 10
4159.896575106992
 20
6864.372203245665
 30
0.0
 41
100.0
 42
100.0
 43
100.0
 50
180.0
  0
INSERT
  5
18C10
330
18C0A
100
AcDbEntity
  8
寸法
 62
     0
 48
50.0
370
    -2
100
AcDbBlockReference
  2
_DOTSMALL
 10
7629.896575106974
 20
6864.372203245665
 30
0.0
 41
100.0
 42
100.0
 43
100.0
  0
MTEXT
  5
18C11
330
18C0A
100
AcDbEntity
  8
寸法
 62
     7
 48
50.0
100
AcDbMText
 10
5911.12376113973
 20
6964.372203245665
 30
0.0
 40
120.0
 41
0.0
 71
     5
 72
     1
  1
\A1;3470
  7
STYLE1
 73
     1
 44
1.0
1001
ACAD
1000
MTEXTBEGIN
1070
    73
1070
     1
1070
    44
1040
1.0
1070
    74
1070
     0
1000
MTEXTEND
  0
POINT
  5
18C12
330
18C0A
100
AcDbEntity
  8
DEFPOINTS
 62
     0
 48
50.0
100
AcDbPoint
 10
4159.896575106992
 20
7846.123139034546
 30
0.0
  0
POINT
  5
18C13
330
18C0A
100
AcDbEntity
  8
DEFPOINTS
 62
     0
 48
50.0
100
AcDbPoint
 10
7629.896575106974
 20
7846.123139034673
 30
0.0
  0
POINT
  5
18C14
330
18C0A
100
AcDbEntity
  8
DEFPOINTS
 62
     0
 48
50.0
100
AcDbPoint
 10
7629.896575106974
 20
6864.372203245665
 30
0.0
  0
ENDBLK
  5
18C15
330
18C0A
100
AcDbEntity
  8
0
 48
50.0
100
AcDbBlockEnd
  0
BLOCK
  5
18C17
330
18C16
100
AcDbEntity
  8
0
 48
50.0
100
AcDbBlockBegin
  2
*D9
 70
     1
 10
0.0
 20
0.0
 30
0.0
  3
*D9
  1

  0
LINE
  5
18C18
330
18C16
100
AcDbEntity
  8
寸法
 62
     0
 48
50.0
370
    -2
100
AcDbLine
 10
7649.896575106973
 20
7901.123139034706
 30
0.0
 11
8337.322920841385
 21
7901.123139034706
 31
0.0
  0
LINE
  5
18C19
330
18C16
100
AcDbEntity
  8
寸法
 62
     0
 48
50.0
370
    -2
100
AcDbLine
 10
7649.896575106973
 20
7846.123139034709
 30
0.0
 11
8337.322920841385
 21
7846.123139034709
 31
0.0
  0
LINE
  5
18C1A
330
18C16
100
AcDbEntity
  8
寸法
 62
     0
 48
50.0
370
    -2
100
AcDbLine
 10
8277.322920841385
 20
7901.123139034706
 30
0.0
 11
8277.322920841385
 21
8001.123139034707
 31
0.0
  0
LINE
  5
18C1B
330
18C16
100
AcDbEntity
  8
寸法
 62
     0
 48
50.0
370
    -2
100
AcDbLine
 10
8277.322920841385
 20
7846.123139034709
 30
0.0
 11
8277.322920841385
 21
7429.152576286229
 31
0.0
  0
LINE
  5
18C1C
330
18C16
100
AcDbEntity
  8
寸法
 62
     0
 48
50.0
370
    -2
100
AcDbLine
 10
8277.322920841385
 20
7901.123139034706
 30
0.0
 11
8277.322920841385
 21
7846.123139034709
 31
0.0
  0
INSERT
  5
18C1D
330
18C16
100
AcDbEntity
  8
寸法
 62
     0
 48
50.0
370
    -2
100
AcDbBlockReference
  2
_DOTSMALL
 10
8277.322920841385
 20
7901.123139034706
 30
0.0
 41
100.0
 42
100.0
 43
100.0
 50
270.0
  0
INSERT
  5
18C1E
330
18C16
100
AcDbEntity
  8
寸法
 62
     0
 48
50.0
370
    -2
100
AcDbBlockReference
  2
_DOTSMALL
 10
8277.322920841385
 20
7846.123139034709
 30
0.0
 41
100.0
 42
100.0
 43
100.0
 50
90.0
  0
MTEXT
  5
18C1F
330
18C16
100
AcDbEntity
  8
寸法
 62
     7
 48
50.0
100
AcDbMText
 10
8177.322920841383
 20
7537.637857660469
 30
0.0
 40
120.0
 41
0.0
 71
     5
 72
     1
  1
\A1;55
  7
STYLE1
 11
0.0000000000000001
 21
1.0
 31
0.0
 73
     1
 44
1.0
1001
ACAD
1000
MTEXTBEGIN
1070
    73
1070
     1
1070
    44
1040
1.0
1070
    74
1070
     0
1000
MTEXTEND
  0
POINT
  5
18C20
330
18C16
100
AcDbEntity
  8
DEFPOINTS
 62
     0
 48
50.0
100
AcDbPoint
 10
7629.896575106974
 20
7901.123139034706
 30
0.0
  0
POINT
  5
18C21
330
18C16
100
AcDbEntity
  8
DEFPOINTS
 62
     0
 48
50.0
100
AcDbPoint
 10
7629.896575106974
 20
7846.123139034709
 30
0.0
  0
POINT
  5
18C22
330
18C16
100
AcDbEntity
  8
DEFPOINTS
 62
     0
 48
50.0
100
AcDbPoint
 10
8277.322920841385
 20
7846.123139034709
 30
0.0
  0
ENDBLK
  5
18C23
330
18C16
100
AcDbEntity
  8
0
 48
50.0
100
AcDbBlockEnd
  0
BLOCK
  5
18C25
330
18C24
100
AcDbEntity
  8
0
 48
50.0
100
AcDbBlockBegin
  2
*D10
 70
     1
 10
0.0
 20
0.0
 30
0.0
  3
*D10
  1

  0
LINE
  5
18C26
330
18C24
100
AcDbEntity
  8
寸法
 62
     0
 48
50.0
370
    -2
100
AcDbLine
 10
6533.037591258376
 20
9136.123139034728
 30
0.0
 11
6465.083950562664
 21
8882.516699399049
 31
0.0
  0
LINE
  5
18C27
330
18C24
100
AcDbEntity
  8
寸法
 62
     0
 48
50.0
370
    -2
100
AcDbLine
 10
7596.037591258388
 20
9136.123139034721
 30
0.0
 11
7528.083950562677
 21
8882.516699399049
 31
0.0
  0
LINE
  5
18C28
330
18C24
100
AcDbEntity
  8
寸法
 62
     0
 48
50.0
370
    -2
100
AcDbLine
 10
6481.160902108531
 20
8942.51669939905
 30
0.0
 11
7544.160902108544
 21
8942.51669939905
 31
0.0
  0
INSERT
  5
18C29
330
18C24
100
AcDbEntity
  8
寸法
 62
     0
 48
50.0
370
    -2
100
AcDbBlockReference
  2
_DOTSMALL
 10
6481.160902108531
 20
8942.51669939905
 30
0.0
 41
100.0
 42
100.0
 43
100.0
 50
180.0
  0
INSERT
  5
18C2A
330
18C24
100
AcDbEntity
  8
寸法
 62
     0
 48
50.0
370
    -2
100
AcDbBlockReference
  2
_DOTSMALL
 10
7544.160902108544
 20
8942.51669939905
 30
0.0
 41
100.0
 42
100.0
 43
100.0
  0
MTEXT
  5
18C2B
330
18C24
100
AcDbEntity
  8
寸法
 62
     7
 48
50.0
100
AcDbMText
 10
7061.28653022935
 20
9042.516699399049
 30
0.0
 40
120.0
 41
0.0
 71
     5
 72
     1
  1
\A1;1063
  7
STYLE1
 73
     1
 44
1.0
1001
ACAD
1000
MTEXTBEGIN
1070
    73
1070
     1
1070
    44
1040
1.0
1070
    74
1070
     0
1000
MTEXTEND
  0
POINT
  5
18C2C
330
18C24
100
AcDbEntity
  8
DEFPOINTS
 62
     0
 48
50.0
100
AcDbPoint
 10
6538.396575106998
 20
9156.123139034727
 30
0.0
  0
POINT
  5
18C2D
330
18C24
100
AcDbEntity
  8
DEFPOINTS
 62
     0
 48
50.0
100
AcDbPoint
 10
7601.39657510701
 20
9156.12313903472
 30
0.0
  0
POINT
  5
18C2E
330
18C24
100
AcDbEntity
  8
DEFPOINTS
 62
     0
 48
50.0
100
AcDbPoint
 10
7544.160902108544
 20
8942.51669939905
 30
0.0
  0
ENDBLK
  5
18C2F
330
18C24
100
AcDbEntity
  8
0
 48
50.0
100
AcDbBlockEnd
  0
BLOCK
  5
18C31
330
18C30
100
AcDbEntity
  8
0
 48
50.0
100
AcDbBlockBegin
  2
*D11
 70
     1
 10
0.0
 20
0.0
 30
0.0
  3
*D11
  1

  0
LINE
  5
18C32
330
18C30
100
AcDbEntity
  8
寸法
 62
     0
 48
50.0
370
    -2
100
AcDbLine
 10
7621.396575106999
 20
9600.764155186094
 30
0.0
 11
8016.754300969024
 21
9494.828371819961
 31
0.0
  0
LINE
  5
18C33
330
18C30
100
AcDbEntity
  8
寸法
 62
     0
 48
50.0
370
    -2
100
AcDbLine
 10
7621.396575106999
 20
9150.764155186099
 30
0.0
 11
8016.754300969024
 21
9044.828371819964
 31
0.0
  0
LINE
  5
18C34
330
18C30
100
AcDbEntity
  8
寸法
 62
     0
 48
50.0
370
    -2
100
AcDbLine
 10
7956.754300969024
 20
9510.905323365827
 30
0.0
 11
7956.754300969024
 21
9060.90532336583
 31
0.0
  0
INSERT
  5
18C35
330
18C30
100
AcDbEntity
  8
寸法
 62
     0
 48
50.0
370
    -2
100
AcDbBlockReference
  2
_DOTSMALL
 10
7956.754300969024
 20
9510.905323365827
 30
0.0
 41
100.0
 42
100.0
 43
100.0
 50
90.0
  0
INSERT
  5
18C36
330
18C30
100
AcDbEntity
  8
寸法
 62
     0
 48
50.0
370
    -2
100
AcDbBlockReference
  2
_DOTSMALL
 10
7956.754300969024
 20
9060.90532336583
 30
0.0
 41
100.0
 42
100.0
 43
100.0
 50
270.0
  0
MTEXT
  5
18C37
330
18C30
100
AcDbEntity
  8
寸法
 62
     7
 48
50.0
100
AcDbMText
 10
7856.754300969022
 20
9285.905323365829
 30
0.0
 40
120.0
 41
0.0
 71
     5
 72
     1
  1
\A1;450
  7
STYLE1
 11
0.0000000000000001
 21
1.0
 31
0.0
 73
     1
 44
1.0
1001
ACAD
1000
MTEXTBEGIN
1070
    73
1070
     1
1070
    44
1040
1.0
1070
    74
1070
     0
1000
MTEXTEND
  0
POINT
  5
18C38
330
18C30
100
AcDbEntity
  8
DEFPOINTS
 62
     0
 48
50.0
100
AcDbPoint
 10
7601.396575106999
 20
9606.123139034718
 30
0.0
  0
POINT
  5
18C39
330
18C30
100
AcDbEntity
  8
DEFPOINTS
 62
     0
 48
50.0
100
AcDbPoint
 10
7601.396575106999
 20
9156.12313903472
 30
0.0
  0
POINT
  5
18C3A
330
18C30
100
AcDbEntity
  8
DEFPOINTS
 62
     0
 48
50.0
100
AcDbPoint
 10
7956.754300969024
 20
9060.90532336583
 30
0.0
  0
ENDBLK
  5
18C3B
330
18C30
100
AcDbEntity
  8
0
 48
50.0
100
AcDbBlockEnd
  0
BLOCK
  5
18C3D
330
18C3C
100
AcDbEntity
  8
0
 48
50.0
100
AcDbBlockBegin
  2
*D12
 70
     1
 10
0.0
 20
0.0
 30
0.0
  3
*D12
  1

  0
LINE
  5
18C3E
330
18C3C
100
AcDbEntity
  8
寸法
 62
     0
 48
50.0
370
    -2
100
AcDbLine
 10
7649.896575106999
 20
9581.123139034721
 30
0.0
 11
8337.32292084141
 21
9581.123139034721
 31
0.0
  0
LINE
  5
18C3F
330
18C3C
100
AcDbEntity
  8
寸法
 62
     0
 48
50.0
370
    -2
100
AcDbLine
 10
7649.896575106973
 20
7901.123139034706
 30
0.0
 11
8337.32292084141
 21
7901.123139034706
 31
0.0
  0
LINE
  5
18C40
330
18C3C
100
AcDbEntity
  8
寸法
 62
     0
 48
50.0
370
    -2
100
AcDbLine
 10
8277.322920841411
 20
9581.123139034721
 30
0.0
 11
8277.322920841411
 21
7901.123139034706
 31
0.0
  0
INSERT
  5
18C41
330
18C3C
100
AcDbEntity
  8
寸法
 62
     0
 48
50.0
370
    -2
100
AcDbBlockReference
  2
_DOTSMALL
 10
8277.322920841411
 20
9581.123139034721
 30
0.0
 41
100.0
 42
100.0
 43
100.0
 50
90.0
  0
INSERT
  5
18C42
330
18C3C
100
AcDbEntity
  8
寸法
 62
     0
 48
50.0
370
    -2
100
AcDbBlockReference
  2
_DOTSMALL
 10
8277.322920841411
 20
7901.123139034706
 30
0.0
 41
100.0
 42
100.0
 43
100.0
 50
270.0
  0
MTEXT
  5
18C43
330
18C3C
100
AcDbEntity
  8
寸法
 62
     7
 48
50.0
100
AcDbMText
 10
8177.311109817788
 20
8741.123139034712
 30
0.0
 40
120.0
 41
0.0
 71
     5
 72
     1
  1
\A1;4X420=1680
  7
STYLE1
 11
0.0000000000000001
 21
1.0
 31
0.0
 73
     1
 44
1.0
1001
ACAD
1000
MTEXTBEGIN
1070
    73
1070
     1
1070
    44
1040
1.0
1070
    74
1070
     0
1000
MTEXTEND
  0
POINT
  5
18C44
330
18C3C
100
AcDbEntity
  8
DEFPOINTS
 62
     0
 48
50.0
100
AcDbPoint
 10
7629.896575106998
 20
9581.123139034721
 30
0.0
  0
POINT
  5
18C45
330
18C3C
100
AcDbEntity
  8
DEFPOINTS
 62
     0
 48
50.0
100
AcDbPoint
 10
7629.896575106974
 20
7901.123139034706
 30
0.0
  0
POINT
  5
18C46
330
18C3C
100
AcDbEntity
  8
DEFPOINTS
 62
     0
 48
50.0
100
AcDbPoint
 10
8277.322920841411
 20
7901.123139034706
 30
0.0
  0
ENDBLK
  5
18C47
330
18C3C
100
AcDbEntity
  8
0
 48
50.0
100
AcDbBlockEnd
  0
BLOCK
  5
18C49
330
18C48
100
AcDbEntity
  8
0
 48
50.0
100
AcDbBlockBegin
  2
*D13
 70
     1
 10
0.0
 20
0.0
 30
0.0
  3
*D13
  1

  0
LINE
  5
18C4A
330
18C48
100
AcDbEntity
  8
寸法
 62
     0
 48
50.0
370
    -2
100
AcDbLine
 10
4183.037591258377
 20
9136.123139034619
 30
0.0
 11
4115.083950562663
 21
8882.516699398941
 31
0.0
  0
LINE
  5
18C4B
330
18C48
100
AcDbEntity
  8
寸法
 62
     0
 48
50.0
370
    -2
100
AcDbLine
 10
5246.037591258307
 20
9136.123139034671
 30
0.0
 11
5178.08395056258
 21
8882.516699398941
 31
0.0
  0
LINE
  5
18C4C
330
18C48
100
AcDbEntity
  8
寸法
 62
     0
 48
50.0
370
    -2
100
AcDbLine
 10
4131.160902108532
 20
8942.516699398941
 30
0.0
 11
5194.160902108448
 21
8942.516699398941
 31
0.0
  0
INSERT
  5
18C4D
330
18C48
100
AcDbEntity
  8
寸法
 62
     0
 48
50.0
370
    -2
100
AcDbBlockReference
  2
_DOTSMALL
 10
4131.160902108532
 20
8942.516699398941
 30
0.0
 41
100.0
 42
100.0
 43
100.0
 50
180.0
  0
INSERT
  5
18C4E
330
18C48
100
AcDbEntity
  8
寸法
 62
     0
 48
50.0
370
    -2
100
AcDbBlockReference
  2
_DOTSMALL
 10
5194.160902108448
 20
8942.516699398941
 30
0.0
 41
100.0
 42
100.0
 43
100.0
  0
MTEXT
  5
18C4F
330
18C48
100
AcDbEntity
  8
寸法
 62
     7
 48
50.0
100
AcDbMText
 10
4658.986452655306
 20
9042.516699398941
 30
0.0
 40
120.0
 41
0.0
 71
     5
 72
     1
  1
\A1;1063
  7
STYLE1
 73
     1
 44
1.0
1001
ACAD
1000
MTEXTBEGIN
1070
    73
1070
     1
1070
    44
1040
1.0
1070
    74
1070
     0
1000
MTEXTEND
  0
POINT
  5
18C50
330
18C48
100
AcDbEntity
  8
DEFPOINTS
 62
     0
 48
50.0
100
AcDbPoint
 10
4188.396575106999
 20
9156.123139034617
 30
0.0
  0
POINT
  5
18C51
330
18C48
100
AcDbEntity
  8
DEFPOINTS
 62
     0
 48
50.0
100
AcDbPoint
 10
5251.396575106929
 20
9156.123139034672
 30
0.0
  0
POINT
  5
18C52
330
18C48
100
AcDbEntity
  8
DEFPOINTS
 62
     0
 48
50.0
100
AcDbPoint
 10
5194.160902108448
 20
8942.516699398941
 30
0.0
  0
ENDBLK
  5
18C53
330
18C48
100
AcDbEntity
  8
0
 48
50.0
100
AcDbBlockEnd
  0
BLOCK
  5
18C55
330
18C54
100
AcDbEntity
  8
0
 48
50.0
100
AcDbBlockBegin
  2
*D14
 70
     1
 10
0.0
 20
0.0
 30
0.0
  3
*D14
  1

  0
LINE
  5
18C56
330
18C54
100
AcDbEntity
  8
寸法
 62
     0
 48
50.0
370
    -2
100
AcDbLine
 10
5274.037591258307
 20
9136.123139034669
 30
0.0
 11
5206.08395056258
 21
8882.516699398941
 31
0.0
  0
LINE
  5
18C57
330
18C54
100
AcDbEntity
  8
寸法
 62
     0
 48
50.0
370
    -2
100
AcDbLine
 10
6505.037591258377
 20
9136.123139034662
 30
0.0
 11
6437.083950562653
 21
8882.516699398941
 31
0.0
  0
LINE
  5
18C58
330
18C54
100
AcDbEntity
  8
寸法
 62
     0
 48
50.0
370
    -2
100
AcDbLine
 10
5222.160902108448
 20
8942.516699398941
 30
0.0
 11
6453.16090210852
 21
8942.516699398941
 31
0.0
  0
INSERT
  5
18C59
330
18C54
100
AcDbEntity
  8
寸法
 62
     0
 48
50.0
370
    -2
100
AcDbBlockReference
  2
_DOTSMALL
 10
5222.160902108448
 20
8942.516699398941
 30
0.0
 41
100.0
 42
100.0
 43
100.0
 50
180.0
  0
INSERT
  5
18C5A
330
18C54
100
AcDbEntity
  8
寸法
 62
     0
 48
50.0
370
    -2
100
AcDbBlockReference
  2
_DOTSMALL
 10
6453.16090210852
 20
8942.516699398941
 30
0.0
 41
100.0
 42
100.0
 43
100.0
  0
MTEXT
  5
18C5B
330
18C54
100
AcDbEntity
  8
寸法
 62
     7
 48
50.0
100
AcDbMText
 10
6081.244808320626
 20
9042.528510422561
 30
0.0
 40
120.0
 41
0.0
 71
     5
 72
     1
  1
\A1;1231
  7
STYLE1
 73
     1
 44
1.0
1001
ACAD
1000
MTEXTBEGIN
1070
    73
1070
     1
1070
    44
1040
1.0
1070
    74
1070
     0
1000
MTEXTEND
  0
POINT
  5
18C5C
330
18C54
100
AcDbEntity
  8
DEFPOINTS
 62
     0
 48
50.0
100
AcDbPoint
 10
5279.396575106929
 20
9156.123139034669
 30
0.0
  0
POINT
  5
18C5D
330
18C54
100
AcDbEntity
  8
DEFPOINTS
 62
     0
 48
50.0
100
AcDbPoint
 10
6510.396575106999
 20
9156.123139034662
 30
0.0
  0
POINT
  5
18C5E
330
18C54
100
AcDbEntity
  8
DEFPOINTS
 62
     0
 48
50.0
100
AcDbPoint
 10
6453.16090210852
 20
8942.516699398941
 30
0.0
  0
ENDBLK
  5
18C5F
330
18C54
100
AcDbEntity
  8
0
 48
50.0
100
AcDbBlockEnd
  0
BLOCK
  5
18C61
330
18C60
100
AcDbEntity
  8
0
 48
50.0
100
AcDbBlockBegin
  2
*D15
 70
     1
 10
0.0
 20
0.0
 30
0.0
  3
*D15
  1

  0
LINE
  5
18C62
330
18C60
100
AcDbEntity
  8
寸法
 62
     0
 48
50.0
370
    -2
100
AcDbLine
 10
5065.896575106966
 20
7749.123139034579
 30
0.0
 11
5065.896575106966
 21
7099.952920982538
 31
0.0
  0
LINE
  5
18C63
330
18C60
100
AcDbEntity
  8
寸法
 62
     0
 48
50.0
370
    -2
100
AcDbLine
 10
6331.896575106966
 20
7749.123139034579
 30
0.0
 11
6331.896575106966
 21
7099.952920982538
 31
0.0
  0
LINE
  5
18C64
330
18C60
100
AcDbEntity
  8
寸法
 62
     0
 48
50.0
370
    -2
100
AcDbLine
 10
5065.896575106966
 20
7159.952920982537
 30
0.0
 11
6331.896575106966
 21
7159.952920982537
 31
0.0
  0
INSERT
  5
18C65
330
18C60
100
AcDbEntity
  8
寸法
 62
     0
 48
50.0
370
    -2
100
AcDbBlockReference
  2
_DOTSMALL
 10
5065.896575106966
 20
7159.952920982537
 30
0.0
 41
100.0
 42
100.0
 43
100.0
 50
180.0
  0
INSERT
  5
18C66
330
18C60
100
AcDbEntity
  8
寸法
 62
     0
 48
50.0
370
    -2
100
AcDbBlockReference
  2
_DOTSMALL
 10
6331.896575106966
 20
7159.952920982537
 30
0.0
 41
100.0
 42
100.0
 43
100.0
  0
MTEXT
  5
18C67
330
18C60
100
AcDbEntity
  8
寸法
 62
     7
 48
50.0
100
AcDbMText
 10
5711.986008735934
 20
7359.964732006159
 30
0.0
 40
120.0
 41
0.0
 71
     5
 72
     1
  1
\A1;有効開口部間口\P1266
  7
STYLE1
 73
     1
 44
1.0
1001
ACAD
1000
MTEXTBEGIN
1070
    73
1070
     1
1070
    44
1040
1.0
1070
    74
1070
     0
1000
MTEXTEND
  0
POINT
  5
18C68
330
18C60
100
AcDbEntity
  8
DEFPOINTS
 62
     0
 48
50.0
100
AcDbPoint
 10
5065.896575106966
 20
7769.123139034579
 30
0.0
  0
POINT
  5
18C69
330
18C60
100
AcDbEntity
  8
DEFPOINTS
 62
     0
 48
50.0
100
AcDbPoint
 10
6331.896575106966
 20
7769.123139034579
 30
0.0
  0
POINT
  5
18C6A
330
18C60
100
AcDbEntity
  8
DEFPOINTS
 62
     0
 48
50.0
100
AcDbPoint
 10
6331.896575106966
 20
7159.952920982537
 30
0.0
  0
ENDBLK
  5
18C6B
330
18C60
100
AcDbEntity
  8
0
 48
50.0
100
AcDbBlockEnd
  0
BLOCK
  5
18C6D
330
18C6C
100
AcDbEntity
  8
0
 48
50.0
100
AcDbBlockBegin
  2
*D16
 70
     1
 10
0.0
 20
0.0
 30
0.0
  3
*D16
  1

  0
LINE
  5
18C6E
330
18C6C
100
AcDbEntity
  8
寸法
 62
     0
 48
50.0
370
    -2
100
AcDbLine
 10
7200.896575106966
 20
7846.123139034578
 30
0.0
 11
7457.192158500191
 21
7846.123139034578
 31
0.0
  0
LINE
  5
18C6F
330
18C6C
100
AcDbEntity
  8
寸法
 62
     0
 48
50.0
370
    -2
100
AcDbLine
 10
7199.896575106966
 20
7769.123139034579
 30
0.0
 11
7457.192158500191
 21
7769.123139034579
 31
0.0
  0
LINE
  5
18C70
330
18C6C
100
AcDbEntity
  8
寸法
 62
     0
 48
50.0
370
    -2
100
AcDbLine
 10
7417.192158500192
 20
7866.123139034579
 30
0.0
 11
7417.192158500192
 21
7886.123139034578
 31
0.0
  0
LINE
  5
18C71
330
18C6C
100
AcDbEntity
  8
寸法
 62
     0
 48
50.0
370
    -2
100
AcDbLine
 10
7417.192158500192
 20
7749.123139034579
 30
0.0
 11
7417.192158500192
 21
7533.123139034573
 31
0.0
  0
LINE
  5
18C72
330
18C6C
100
AcDbEntity
  8
寸法
 62
     0
 48
50.0
370
    -2
100
AcDbLine
 10
7417.192158500192
 20
7846.123139034578
 30
0.0
 11
7417.192158500192
 21
7769.123139034579
 31
0.0
  0
INSERT
  5
18C73
330
18C6C
100
AcDbEntity
  8
寸法
 62
     0
 48
50.0
370
    -2
100
AcDbBlockReference
  2
_DOT
 10
7417.192158500192
 20
7846.123139034578
 30
0.0
 41
20.0
 42
20.0
 43
20.0
 50
270.0
  0
INSERT
  5
18C74
330
18C6C
100
AcDbEntity
  8
寸法
 62
     0
 48
50.0
370
    -2
100
AcDbBlockReference
  2
_DOT
 10
7417.192158500192
 20
7769.123139034579
 30
0.0
 41
20.0
 42
20.0
 43
20.0
 50
90.0
  0
MTEXT
  5
18C75
330
18C6C
100
AcDbEntity
  8
寸法
 62
     7
 48
50.0
100
AcDbMText
 10
7325.192158500191
 20
7631.123139034575
 30
0.0
 40
120.0
 41
0.0
 71
     5
 72
     1
  1
\A1;77
  7
STYLE1
 11
0.0000000000000001
 21
1.0
 31
0.0
 73
     1
 44
1.0
1001
ACAD
1000
MTEXTBEGIN
1070
    73
1070
     1
1070
    44
1040
1.0
1070
    74
1070
     0
1000
MTEXTEND
  0
POINT
  5
18C76
330
18C6C
100
AcDbEntity
  8
DEFPOINTS
 62
     0
 48
50.0
100
AcDbPoint
 10
7180.896575106967
 20
7846.123139034578
 30
0.0
  0
POINT
  5
18C77
330
18C6C
100
AcDbEntity
  8
DEFPOINTS
 62
     0
 48
50.0
100
AcDbPoint
 10
7179.896575106965
 20
7769.123139034579
 30
0.0
  0
POINT
  5
18C78
330
18C6C
100
AcDbEntity
  8
DEFPOINTS
 62
     0
 48
50.0
100
AcDbPoint
 10
7417.192158500192
 20
7769.123139034579
 30
0.0
  0
ENDBLK
  5
18C79
330
18C6C
100
AcDbEntity
  8
0
 48
50.0
100
AcDbBlockEnd
  0
BLOCK
  5
18DA0
330
18C7A
100
AcDbEntity
  8
0
 48
50.0
100
AcDbBlockBegin
  2
A$C3B1A506B
 70
     0
 10
0.0
 20
0.0
 30
0.0
  3
A$C3B1A506B
  1

  0
MTEXT
  5
18C7B
330
18C7A
100
AcDbEntity
  8
寸法
 62
     7
 48
50.0
100
AcDbMText
 10
3342.250386887194
 20
2778.329429134012
 30
0.0
 40
96.0
 41
0.0
 71
     5
 72
     1
  1
棚 2段
  7
STYLE1
 73
     1
 44
1.0
1001
ACAD
1000
MTEXTBEGIN
1070
    73
1070
     1
1070
    44
1040
1.0
1070
    74
1070
     0
1000
MTEXTEND
  0
MTEXT
  5
18C7C
330
18C7A
100
AcDbEntity
  8
寸法
 62
     7
 48
50.0
100
AcDbMText
 10
2167.25038688716
 20
2778.329429133986
 30
0.0
 40
96.0
 41
0.0
 71
     5
 72
     1
  1
棚 2段
  7
STYLE1
 73
     1
 44
1.0
1001
ACAD
1000
MTEXTBEGIN
1070
    73
1070
     1
1070
    44
1040
1.0
1070
    74
1070
     0
1000
MTEXTEND
  0
MTEXT
  5
18C7D
330
18C7A
100
AcDbEntity
  8
寸法
 62
     7
 48
50.0
100
AcDbMText
 10
992.2503868871608
 20
2778.329429133935
 30
0.0
 40
96.0
 41
0.0
 71
     5
 72
     1
  1
棚 2段
  7
STYLE1
 73
     1
 44
1.0
1001
ACAD
1000
MTEXTBEGIN
1070
    73
1070
     1
1070
    44
1040
1.0
1070
    74
1070
     0
1000
MTEXTEND
  0
LINE
  5
18C7E
330
18C7A
100
AcDbEntity
  8
細線
 48
50.0
100
AcDbLine
 10
2771.970589276527
 20
1368.994384123192
 30
0.0
 11
3398.970589276523
 21
1368.994384123192
 31
0.0
  0
LINE
  5
18C7F
330
18C7A
100
AcDbEntity
  8
細線
 48
50.0
100
AcDbLine
 10
2117.970593930113
 20
1335.285615569113
 30
0.0
 11
3398.970589276523
 21
1335.285615569113
 31
0.0
  0
LINE
  5
18C80
330
18C7A
100
AcDbEntity
  8
細線
 48
50.0
100
AcDbLine
 10
2076.970593930115
 20
1364.690523565368
 30
0.0
 11
1322.970589276523
 21
1364.690523565367
 31
0.0
  0
LINE
  5
18C81
330
18C7A
100
AcDbEntity
  8
細線
100
AcDbLine
 10
3170.720579860066
 20
1388.494284088199
 30
0.0
 11
3173.052119381877
 21
1393.494286728162
 31
0.0
  0
LINE
  5
18C82
330
18C7A
100
AcDbEntity
  8
細線
100
AcDbLine
 10
3240.720589276525
 20
1388.494269174465
 30
0.0
 11
3238.389042800336
 21
1393.494286728144
 31
0.0
  0
LINE
  5
18C83
330
18C7A
100
AcDbEntity
  8
細線
100
AcDbLine
 10
3238.389042800336
 20
1393.494286728144
 30
0.0
 11
3173.052119381862
 21
1393.494286728133
 31
0.0
  0
LINE
  5
18C84
330
18C7A
100
AcDbEntity
  8
細線
100
AcDbLine
 10
3098.389042800336
 20
1393.494286728144
 30
0.0
 11
3033.052119381862
 21
1393.494286728133
 31
0.0
  0
LINE
  5
18C85
330
18C7A
100
AcDbEntity
  8
細線
100
AcDbLine
 10
3100.720589276523
 20
1388.494269174465
 30
0.0
 11
3098.389042800336
 21
1393.494286728144
 31
0.0
  0
LINE
  5
18C86
330
18C7A
100
AcDbEntity
  8
細線
100
AcDbLine
 10
3030.720579860066
 20
1388.494284088199
 30
0.0
 11
3033.052119381875
 21
1393.494286728162
 31
0.0
  0
LINE
  5
18C87
330
18C7A
100
AcDbEntity
  8
細線
100
AcDbLine
 10
2890.720589276525
 20
1388.494269174465
 30
0.0
 11
2893.052128798336
 21
1393.494271814428
 31
0.0
  0
LINE
  5
18C88
330
18C7A
100
AcDbEntity
  8
細線
100
AcDbLine
 10
2960.720598692984
 20
1388.494254260731
 30
0.0
 11
2958.389052216793
 21
1393.49427181441
 31
0.0
  0
LINE
  5
18C89
330
18C7A
100
AcDbEntity
  8
細線
100
AcDbLine
 10
2958.389052216795
 20
1393.49427181441
 30
0.0
 11
2893.052128798321
 21
1393.494271814399
 31
0.0
  0
LINE
  5
18C8A
330
18C7A
100
AcDbEntity
  8
細線
100
AcDbLine
 10
2667.139038146739
 20
1359.494298590735
 30
0.0
 11
2601.802114728263
 21
1359.494298590724
 31
0.0
  0
LINE
  5
18C8B
330
18C7A
100
AcDbEntity
  8
細線
100
AcDbLine
 10
2669.470584622926
 20
1354.494281037055
 30
0.0
 11
2667.139038146737
 21
1359.494298590735
 31
0.0
  0
LINE
  5
18C8C
330
18C7A
100
AcDbEntity
  8
細線
100
AcDbLine
 10
2599.470575206469
 20
1354.49429595079
 30
0.0
 11
2601.802114728278
 21
1359.494298590752
 31
0.0
  0
LINE
  5
18C8D
330
18C7A
100
AcDbEntity
  8
細線
 48
50.0
100
AcDbLine
 10
2440.853968524536
 20
1372.765132327548
 30
0.0
 11
2446.609486107205
 21
1354.494281037057
 31
0.0
  0
LINE
  5
18C8E
330
18C7A
100
AcDbEntity
  8
細線
 48
50.0
100
AcDbLine
 10
2429.925520044106
 20
1372.765132327546
 30
0.0
 11
2440.853968524536
 21
1372.765132327548
 31
0.0
  0
ARC
  5
18C8F
330
18C7A
100
AcDbEntity
  8
細線
 48
50.0
100
AcDbCircle
 10
2424.471163986787
 20
1374.265132327546
 30
0.0
 40
5.0
100
AcDbArc
 50
204.6243183520723
 51
335.3756816479278
  0
ARC
  5
18C90
330
18C7A
100
AcDbEntity
  8
細線
 48
50.0
100
AcDbCircle
 10
2429.925520044106
 20
1371.765132327546
 30
0.0
 40
1.0
100
AcDbArc
 50
90.0
 51
155.3756816479277
  0
ARC
  5
18C91
330
18C7A
100
AcDbEntity
  8
細線
 48
50.0
100
AcDbCircle
 10
2419.016807929469
 20
1371.765132327546
 30
0.0
 40
1.0
100
AcDbArc
 50
24.62431835207225
 51
90.0
  0
LINE
  5
18C92
330
18C7A
100
AcDbEntity
  8
細線
 48
50.0
100
AcDbLine
 10
2408.088359449037
 20
1372.765132327548
 30
0.0
 11
2419.016807929469
 21
1372.765132327546
 31
0.0
  0
LINE
  5
18C93
330
18C7A
100
AcDbEntity
  8
細線
 48
50.0
100
AcDbLine
 10
2402.33284186637
 20
1354.494281037054
 30
0.0
 11
2408.088359449037
 21
1372.765132327548
 31
0.0
  0
LINE
  5
18C94
330
18C7A
100
AcDbEntity
  8
細線
100
AcDbLine
 10
2458.070304175992
 20
1354.494278397076
 30
0.0
 11
2460.401843697802
 21
1359.494281037039
 31
0.0
  0
LINE
  5
18C95
330
18C7A
100
AcDbEntity
  8
細線
100
AcDbLine
 10
2528.070313592451
 20
1354.494263483342
 30
0.0
 11
2525.738767116262
 21
1359.494281037021
 31
0.0
  0
LINE
  5
18C96
330
18C7A
100
AcDbEntity
  8
細線
100
AcDbLine
 10
2525.738767116262
 20
1359.494281037021
 30
0.0
 11
2460.40184369779
 21
1359.49428103701
 31
0.0
  0
LINE
  5
18C97
330
18C7A
100
AcDbEntity
  8
細線
100
AcDbLine
 10
2387.139046332155
 20
1359.494281037021
 30
0.0
 11
2321.80212291368
 21
1359.49428103701
 31
0.0
  0
LINE
  5
18C98
330
18C7A
100
AcDbEntity
  8
細線
100
AcDbLine
 10
2389.470592808342
 20
1354.494263483342
 30
0.0
 11
2387.139046332153
 21
1359.494281037021
 31
0.0
  0
LINE
  5
18C99
330
18C7A
100
AcDbEntity
  8
細線
100
AcDbLine
 10
2319.470584622926
 20
1354.494281037054
 30
0.0
 11
2321.802122913694
 21
1359.494281037039
 31
0.0
  0
LINE
  5
18C9A
330
18C7A
100
AcDbEntity
  8
細線
100
AcDbLine
 10
2179.47061994182
 20
1354.494289224422
 30
0.0
 11
2181.802158232587
 21
1359.494289224407
 31
0.0
  0
LINE
  5
18C9B
330
18C7A
100
AcDbEntity
  8
細線
100
AcDbLine
 10
2249.470628127236
 20
1354.49427167071
 30
0.0
 11
2247.139081651047
 21
1359.494289224389
 31
0.0
  0
LINE
  5
18C9C
330
18C7A
100
AcDbEntity
  8
細線
100
AcDbLine
 10
2247.139081651047
 20
1359.494289224389
 30
0.0
 11
2181.802158232573
 21
1359.494289224378
 31
0.0
  0
LINE
  5
18C9D
330
18C7A
100
AcDbEntity
  8
細線
100
AcDbLine
 10
1807.970585744697
 20
1320.494460905133
 30
0.0
 11
1810.302124035464
 21
1325.494460905118
 31
0.0
  0
LINE
  5
18C9E
330
18C7A
100
AcDbEntity
  8
細線
100
AcDbLine
 10
1877.970593930113
 20
1320.494443351421
 30
0.0
 11
1875.639047453926
 21
1325.4944609051
 31
0.0
  0
LINE
  5
18C9F
330
18C7A
100
AcDbEntity
  8
細線
100
AcDbLine
 10
1875.639047453926
 20
1325.4944609051
 30
0.0
 11
1810.302124035452
 21
1325.494460905089
 31
0.0
  0
LINE
  5
18CA0
330
18C7A
100
AcDbEntity
  8
細線
100
AcDbLine
 10
2015.639047453926
 20
1325.4944609051
 30
0.0
 11
1950.302124035452
 21
1325.494460905089
 31
0.0
  0
LINE
  5
18CA1
330
18C7A
100
AcDbEntity
  8
細線
100
AcDbLine
 10
2017.970593930113
 20
1320.494443351421
 30
0.0
 11
2015.639047453924
 21
1325.4944609051
 31
0.0
  0
LINE
  5
18CA2
330
18C7A
100
AcDbEntity
  8
細線
100
AcDbLine
 10
1947.970585744697
 20
1320.494460905133
 30
0.0
 11
1950.302124035465
 21
1325.494460905118
 31
0.0
  0
LINE
  5
18CA3
330
18C7A
100
AcDbEntity
  8
細線
100
AcDbLine
 10
1735.639047453926
 20
1325.494460905098
 30
0.0
 11
1670.302124035454
 21
1325.494460905087
 31
0.0
  0
LINE
  5
18CA4
330
18C7A
100
AcDbEntity
  8
細線
100
AcDbLine
 10
1737.970593930113
 20
1320.494443351419
 30
0.0
 11
1735.639047453926
 21
1325.494460905098
 31
0.0
  0
LINE
  5
18CA5
330
18C7A
100
AcDbEntity
  8
細線
100
AcDbLine
 10
1667.970585744697
 20
1320.494460905131
 30
0.0
 11
1670.302124035465
 21
1325.494460905116
 31
0.0
  0
LINE
  5
18CA6
330
18C7A
100
AcDbEntity
  8
細線
100
AcDbLine
 10
1527.970593930113
 20
1320.494460905133
 30
0.0
 11
1530.302132220881
 21
1325.494460905118
 31
0.0
  0
LINE
  5
18CA7
330
18C7A
100
AcDbEntity
  8
細線
100
AcDbLine
 10
1597.970602115529
 20
1320.494443351421
 30
0.0
 11
1595.639055639342
 21
1325.4944609051
 31
0.0
  0
LINE
  5
18CA8
330
18C7A
100
AcDbEntity
  8
細線
100
AcDbLine
 10
1595.639055639342
 20
1325.4944609051
 30
0.0
 11
1530.302132220869
 21
1325.494460905089
 31
0.0
  0
ARC
  5
18CA9
330
18C7A
100
AcDbEntity
  8
部品1
 48
0.01
100
AcDbCircle
 10
1483.470482677778
 20
1319.493338720063
 30
0.0
 40
0.5
100
AcDbArc
 50
270.0
 51
0.0
  0
LINE
  5
18CAA
330
18C7A
100
AcDbEntity
  8
部品1
 48
0.01
100
AcDbLine
 10
1483.970482677778
 20
1320.493338720063
 30
0.0
 11
1483.970482677778
 21
1319.493338720063
 31
0.0
  0
LINE
  5
18CAB
330
18C7A
100
AcDbEntity
  8
部品1
 48
0.01
100
AcDbLine
 10
1483.970482677778
 20
1320.493338720063
 30
0.0
 11
1483.970482677778
 21
1319.493338720063
 31
0.0
  0
LINE
  5
18CAC
330
18C7A
100
AcDbEntity
  8
部品1
 48
0.01
100
AcDbLine
 10
1483.470482677778
 20
1318.993338720063
 30
0.0
 11
1476.857977247713
 21
1318.993338720062
 31
0.0
  0
ARC
  5
18CAD
330
18C7A
100
AcDbEntity
  8
部品1
100
AcDbCircle
 10
1476.926326800494
 20
1319.993338720062
 30
0.0
 40
1.0
100
AcDbArc
 50
160.5287793655865
 51
270.0
  0
ARC
  5
18CAE
330
18C7A
100
AcDbEntity
  8
部品1
100
AcDbCircle
 10
1451.470482677778
 20
1328.993338720062
 30
0.0
 40
26.0
100
AcDbArc
 50
340.5287793655865
 51
0.0
  0
LINE
  5
18CAF
330
18C7A
100
AcDbEntity
  8
部品1
100
AcDbLine
 10
1477.470482677778
 20
1328.993338720062
 30
0.0
 11
1477.470482677778
 21
1333.993338720061
 31
0.0
  0
ARC
  5
18CB0
330
18C7A
100
AcDbEntity
  8
部品1
 48
0.01
100
AcDbCircle
 10
1475.470482677778
 20
1333.993338720061
 30
0.0
 40
2.0
100
AcDbArc
 50
0.0
 51
90.0
  0
ARC
  5
18CB1
330
18C7A
100
AcDbEntity
  8
部品1
100
AcDbCircle
 10
1473.862091052968
 20
1332.993338720062
 30
0.0
 40
3.0
100
AcDbArc
 50
90.0
 51
141.6069559808035
  0
LINE
  5
18CB2
330
18C7A
100
AcDbEntity
  8
部品1
 48
0.01
100
AcDbLine
 10
1475.470482677778
 20
1335.993338720062
 30
0.0
 11
1473.862091052968
 21
1335.993338720062
 31
0.0
  0
ARC
  5
18CB3
330
18C7A
100
AcDbEntity
  8
部品1
100
AcDbCircle
 10
1455.399768463507
 20
1332.293338720065
 30
0.0
 40
3.0
100
AcDbArc
 50
254.0576313943215
 51
270.0
  0
ARC
  5
18CB4
330
18C7A
100
AcDbEntity
  8
部品1
100
AcDbCircle
 10
1462.541196892049
 20
1332.293338720065
 30
0.0
 40
3.0
100
AcDbArc
 50
270.0
 51
285.9423686056786
  0
LINE
  5
18CB5
330
18C7A
100
AcDbEntity
  8
部品1
100
AcDbLine
 10
1462.541196892049
 20
1329.293338720064
 30
0.0
 11
1455.399768463507
 21
1329.293338720064
 31
0.0
  0
ARC
  5
18CB6
330
18C7A
100
AcDbEntity
  8
部品1
100
AcDbCircle
 10
1458.970482677778
 20
1344.793338720065
 30
0.0
 40
16.0
100
AcDbArc
 50
285.9423686056786
 51
321.6069559808035
  0
LINE
  5
18CB7
330
18C7A
100
AcDbEntity
  8
部品1
 48
0.01
100
AcDbLine
 10
1442.470482677778
 20
1335.993338720062
 30
0.0
 11
1444.078874302588
 21
1335.993338720062
 31
0.0
  0
ARC
  5
18CB8
330
18C7A
100
AcDbEntity
  8
部品1
100
AcDbCircle
 10
1444.078874302588
 20
1332.993338720062
 30
0.0
 40
3.0
100
AcDbArc
 50
38.39304401919648
 51
90.0
  0
ARC
  5
18CB9
330
18C7A
100
AcDbEntity
  8
部品1
100
AcDbCircle
 10
1458.970482677778
 20
1344.793338720065
 30
0.0
 40
16.0
100
AcDbArc
 50
218.3930440191965
 51
254.0576313943215
  0
LINE
  5
18CBA
330
18C7A
100
AcDbEntity
  8
部品1
100
AcDbLine
 10
1440.470482677778
 20
1328.993338720062
 30
0.0
 11
1440.470482677778
 21
1333.993338720061
 31
0.0
  0
ARC
  5
18CBB
330
18C7A
100
AcDbEntity
  8
部品1
 48
0.01
100
AcDbCircle
 10
1442.470482677778
 20
1333.993338720061
 30
0.0
 40
2.0
100
AcDbArc
 50
90.0
 51
180.0
  0
ARC
  5
18CBC
330
18C7A
100
AcDbEntity
  8
部品1
100
AcDbCircle
 10
1466.470482677778
 20
1328.993338720062
 30
0.0
 40
26.0
100
AcDbArc
 50
180.0
 51
199.4712206344134
  0
ARC
  5
18CBD
330
18C7A
100
AcDbEntity
  8
部品1
 48
0.01
100
AcDbCircle
 10
1434.470482677778
 20
1319.493338720063
 30
0.0
 40
0.5
100
AcDbArc
 50
180.0
 51
270.0
  0
LINE
  5
18CBE
330
18C7A
100
AcDbEntity
  8
部品1
 48
0.01
100
AcDbLine
 10
1434.470482677778
 20
1318.993338720063
 30
0.0
 11
1441.014638555061
 21
1318.993338720062
 31
0.0
  0
LINE
  5
18CBF
330
18C7A
100
AcDbEntity
  8
部品1
 48
0.01
100
AcDbLine
 10
1433.970482677778
 20
1320.493338720063
 30
0.0
 11
1433.970482677778
 21
1319.493338720063
 31
0.0
  0
ARC
  5
18CC0
330
18C7A
100
AcDbEntity
  8
部品1
100
AcDbCircle
 10
1441.014638555061
 20
1319.993338720062
 30
0.0
 40
1.0
100
AcDbArc
 50
270.0
 51
19.47122063441346
  0
LINE
  5
18CC1
330
18C7A
100
AcDbEntity
  8
細線
100
AcDbLine
 10
1479.470482677785
 20
1338.493338720065
 30
0.0
 11
1438.470482677785
 21
1338.493338720058
 31
0.0
  0
LINE
  5
18CC2
330
18C7A
100
AcDbEntity
  8
細線
100
AcDbLine
 10
1438.470482677785
 20
1338.493338720058
 30
0.0
 11
1438.470482677785
 21
1320.49333872004
 31
0.0
  0
LINE
  5
18CC3
330
18C7A
100
AcDbEntity
  8
細線
100
AcDbLine
 10
1479.470482677785
 20
1338.493338720065
 30
0.0
 11
1479.470482677785
 21
1320.49333872004
 31
0.0
  0
LINE
  5
18CC4
330
18C7A
100
AcDbEntity
  8
細線
100
AcDbLine
 10
1322.970589276523
 20
1324.494269174465
 30
0.0
 11
1322.970589276523
 21
1320.494269174513
 31
0.0
  0
LINE
  5
18CC5
330
18C7A
100
AcDbEntity
  8
寸法
 48
50.0
100
AcDbLine
 10
1746.17359555837
 20
1170.531020743327
 30
0.0
 11
1694.767587648266
 21
1170.531020743327
 31
0.0
  0
LINE
  5
18CC6
330
18C7A
100
AcDbEntity
  8
寸法
 48
50.0
100
AcDbLine
 10
1694.767587648266
 20
1170.531020743327
 30
0.0
 11
1694.767587648266
 21
1201.841179395494
 31
0.0
  0
LINE
  5
18CC7
330
18C7A
100
AcDbEntity
  8
寸法
 48
50.0
100
AcDbLine
 10
1694.767587648266
 20
1201.841179395494
 30
0.0
 11
1665.006255656843
 21
1201.841179395494
 31
0.0
  0
LINE
  5
18CC8
330
18C7A
100
AcDbEntity
  8
寸法
 48
50.0
100
AcDbLine
 10
1665.006255656843
 20
1201.841179395494
 30
0.0
 11
1720.470591603318
 21
1239.420630324105
 31
0.0
  0
LINE
  5
18CC9
330
18C7A
100
AcDbEntity
  8
寸法
 48
50.0
100
AcDbLine
 10
1775.934927549793
 20
1201.841179395494
 30
0.0
 11
1720.470591603318
 21
1239.420630324105
 31
0.0
  0
LINE
  5
18CCA
330
18C7A
100
AcDbEntity
  8
寸法
 48
50.0
100
AcDbLine
 10
1746.17359555837
 20
1201.841179395494
 30
0.0
 11
1775.934927549793
 21
1201.841179395494
 31
0.0
  0
LINE
  5
18CCB
330
18C7A
100
AcDbEntity
  8
寸法
 48
50.0
100
AcDbLine
 10
1746.17359555837
 20
1170.531020743327
 30
0.0
 11
1746.17359555837
 21
1201.841179395494
 31
0.0
  0
LINE
  5
18CCC
330
18C7A
100
AcDbEntity
  8
寸法
 48
50.0
100
AcDbLine
 10
1694.767587648266
 20
1170.531020743327
 30
0.0
 11
1746.17359555837
 21
1170.531020743327
 31
0.0
  0
LINE
  5
18CCD
330
18C7A
100
AcDbEntity
  8
寸法
 48
50.0
100
AcDbLine
 10
2025.339129835225
 20
1227.676611498152
 30
0.0
 11
2025.339129835225
 21
1174.01297691636
 31
0.0
  0
LINE
  5
18CCE
330
18C7A
100
AcDbEntity
  8
寸法
 48
50.0
100
AcDbLine
 10
2114.623348430647
 20
1203.752977228664
 30
0.0
 11
2025.339129835225
 21
1227.676611498152
 31
0.0
  0
LINE
  5
18CCF
330
18C7A
100
AcDbEntity
  8
寸法
 48
50.0
100
AcDbLine
 10
1895.471408254923
 20
1203.752977228664
 30
0.0
 11
2114.623348430647
 21
1203.752977228664
 31
0.0
  0
DIMENSION
  5
18CD0
330
18C7A
100
AcDbEntity
  8
寸法
 48
50.0
100
AcDbDimension
  2
*D15
 10
2588.970589276523
 20
706.3240511224249
 30
0.0
 11
1969.060022905491
 21
706.3240511224249
 31
0.0
 12
-3742.925985830444
 22
-6453.628869860112
 32
0.0
 70
   128
  1
有効開口部間口\P<>
 71
     5
 42
1266.0
  3
INABA_S40G
100
AcDbAlignedDimension
 13
1322.970589276523
 23
1315.494269174465
 33
0.0
 14
2588.970589276523
 24
1315.494269174465
 34
0.0
100
AcDbRotatedDimension
1001
ACAD
1000
DSTYLE
1002
{
1070
   341
1005
0
1002
}
  0
LINE
  5
18CD1
330
18C7A
100
AcDbEntity
  8
部品1
100
AcDbLine
 10
3409.970589276524
 20
1392.494269174465
 30
0.0
 11
3437.970589276523
 21
1392.494269174465
 31
0.0
  0
DIMENSION
  5
18CD2
330
18C7A
100
AcDbEntity
  8
寸法
100
AcDbDimension
  2
*D16
 10
3674.266172669749
 20
1315.494269174465
 30
0.0
 11
3674.266172669748
 21
1177.494269174462
 31
0.0
 12
-3742.925985830444
 22
-6453.628869860112
 32
0.0
 70
   128
 71
     5
 42
77.0
  3
INABA_S40
100
AcDbAlignedDimension
 13
3437.970589276523
 23
1392.494269174465
 33
0.0
 14
3436.970589276523
 24
1315.494269174465
 34
0.0
 50
90.0
100
AcDbRotatedDimension
1001
ACAD
1000
DSTYLE
1002
{
1070
    41
1040
0.5
1070
    44
1040
1.0
1070
   147
1040
0.8
1070
   271
1070
     2
1070
   272
1070
     2
1070
   289
1070
     3
1070
   340
1005
F706
1070
   343
1005
164B4
1070
   344
1005
164B4
1002
}
  0
LINE
  5
18CD3
330
18C7A
100
AcDbEntity
  8
部品1
100
AcDbLine
 10
3437.970589276523
 20
1315.494269174465
 30
0.0
 11
3437.970589276523
 21
1392.494269174465
 31
0.0
  0
LINE
  5
18CD4
330
18C7A
100
AcDbEntity
  8
部品1
100
AcDbLine
 10
3398.970589276523
 20
1388.494269174465
 30
0.0
 11
3409.970589276524
 21
1388.494269174465
 31
0.0
  0
LINE
  5
18CD5
330
18C7A
100
AcDbEntity
  8
部品1
100
AcDbLine
 10
3407.970589276523
 20
1324.494269174465
 30
0.0
 11
3407.970589276523
 21
1315.494269174465
 31
0.0
  0
LINE
  5
18CD6
330
18C7A
100
AcDbEntity
  8
部品1
100
AcDbLine
 10
3398.970589276523
 20
1324.494269174465
 30
0.0
 11
3407.970589276523
 21
1324.494269174465
 31
0.0
  0
LINE
  5
18CD7
330
18C7A
100
AcDbEntity
  8
部品1
100
AcDbLine
 10
3398.970589276523
 20
1388.494269174465
 30
0.0
 11
3398.970589276523
 21
1324.494269174465
 31
0.0
  0
LINE
  5
18CD8
330
18C7A
100
AcDbEntity
  8
部品1
100
AcDbLine
 10
3409.970589276524
 20
1419.494269174465
 30
0.0
 11
3409.970589276524
 21
1388.494269174465
 31
0.0
  0
LINE
  5
18CD9
330
18C7A
100
AcDbEntity
  8
部品1
100
AcDbLine
 10
1322.970589276523
 20
1388.494269174465
 30
0.0
 11
1311.970589276523
 21
1388.494269174465
 31
0.0
  0
LINE
  5
18CDA
330
18C7A
100
AcDbEntity
  8
部品1
100
AcDbLine
 10
1283.970589276523
 20
1392.494269174465
 30
0.0
 11
1311.970589276523
 21
1392.494269174465
 31
0.0
  0
LINE
  5
18CDB
330
18C7A
100
AcDbEntity
  8
部品1
100
AcDbLine
 10
1313.970589276523
 20
1324.494269174465
 30
0.0
 11
1313.970589276523
 21
1315.494269174465
 31
0.0
  0
LINE
  5
18CDC
330
18C7A
100
AcDbEntity
  8
部品1
100
AcDbLine
 10
1322.970589276523
 20
1324.494269174465
 30
0.0
 11
1313.970589276523
 21
1324.494269174465
 31
0.0
  0
LINE
  5
18CDD
330
18C7A
100
AcDbEntity
  8
部品1
100
AcDbLine
 10
1313.970589276523
 20
1315.494269174465
 30
0.0
 11
1283.970589276523
 21
1315.494269174465
 31
0.0
  0
LINE
  5
18CDE
330
18C7A
100
AcDbEntity
  8
部品1
100
AcDbLine
 10
1283.970589276523
 20
1315.494269174465
 30
0.0
 11
1283.970589276523
 21
1392.494269174465
 31
0.0
  0
LINE
  5
18CDF
330
18C7A
100
AcDbEntity
  8
部品1
100
AcDbLine
 10
1322.970589276523
 20
1388.494269174465
 30
0.0
 11
1322.970589276523
 21
1324.494269174465
 31
0.0
  0
LINE
  5
18CE0
330
18C7A
100
AcDbEntity
  8
部品1
100
AcDbLine
 10
1311.970589276523
 20
1419.494269174462
 30
0.0
 11
1311.970589276523
 21
1388.494269174465
 31
0.0
  0
LINE
  5
18CE1
330
18C7A
100
AcDbEntity
  8
部品1
100
AcDbLine
 10
1311.970589276523
 20
1419.494269174462
 30
0.0
 11
3409.970589276524
 21
1419.494269174465
 31
0.0
  0
LINE
  5
18CE2
330
18C7A
100
AcDbEntity
  8
部品1
100
AcDbLine
 10
3407.970589276523
 20
1315.494269174465
 30
0.0
 11
3437.970589276523
 21
1315.494269174465
 31
0.0
  0
LINE
  5
18CE3
330
18C7A
100
AcDbEntity
  8
部品1
100
AcDbLine
 10
1313.970589276523
 20
1315.494269174465
 30
0.0
 11
3410.970589276523
 21
1315.494269174465
 31
0.0
  0
LINE
  5
18CE4
330
18C7A
100
AcDbEntity
  8
細線
  6
Continuous
 62
     5
100
AcDbLine
 10
2689.970589276527
 20
1354.494269174462
 30
0.0
 11
2689.970589276527
 21
1354.494269174462
 31
0.0
  0
LINE
  5
18CE5
330
18C7A
100
AcDbEntity
  8
細線
  6
Continuous
 62
     5
100
AcDbLine
 10
2682.470589276527
 20
1354.494269174462
 30
0.0
 11
2682.470589276527
 21
1354.494269174462
 31
0.0
  0
LINE
  5
18CE6
330
18C7A
100
AcDbEntity
  8
細線
  6
Continuous
 62
     5
100
AcDbLine
 10
2676.470589276527
 20
1354.494269174462
 30
0.0
 11
2676.470589276527
 21
1354.494269174462
 31
0.0
  0
LINE
  5
18CE7
330
18C7A
100
AcDbEntity
  8
細線
  6
Continuous
 62
     5
100
AcDbLine
 10
2743.970589276527
 20
1373.494269174462
 30
0.0
 11
2743.970589276527
 21
1373.494269174462
 31
0.0
  0
LINE
  5
18CE8
330
18C7A
100
AcDbEntity
  8
細線
 48
50.0
100
AcDbLine
 10
1336.970593930116
 20
1341.094443351418
 30
0.0
 11
1336.970593930113
 21
1349.490593759059
 31
0.0
  0
LINE
  5
18CE9
330
18C7A
100
AcDbEntity
  8
細線
 48
50.0
100
AcDbLine
 10
1336.970593930113
 20
1349.490593759059
 30
0.0
 11
1322.970589276523
 21
1349.490593759057
 31
0.0
  0
LINE
  5
18CEA
330
18C7A
100
AcDbEntity
  8
細線
 48
50.0
100
AcDbLine
 10
2087.970593930113
 20
1337.644443351419
 30
0.0
 11
2087.970593930113
 21
1342.494443351421
 31
0.0
  0
LINE
  5
18CEB
330
18C7A
100
AcDbEntity
  8
細線
 48
50.0
100
AcDbLine
 10
2087.970593930113
 20
1342.494443351421
 30
0.0
 11
2102.970593930113
 21
1342.494443351421
 31
0.0
  0
LINE
  5
18CEC
330
18C7A
100
AcDbEntity
  8
細線
 48
50.0
100
AcDbLine
 10
2102.970593930113
 20
1342.494443351421
 30
0.0
 11
2102.970593930115
 21
1349.494443351419
 31
0.0
  0
LINE
  5
18CED
330
18C7A
100
AcDbEntity
  8
細線
 48
50.0
100
AcDbLine
 10
2102.970593930115
 20
1349.494443351419
 30
0.0
 11
2117.970593930113
 21
1349.494443351419
 31
0.0
  0
LINE
  5
18CEE
330
18C7A
100
AcDbEntity
  8
細線
 48
50.0
100
AcDbLine
 10
2117.970593930113
 20
1349.494443351419
 30
0.0
 11
2117.970593930113
 21
1320.494443351421
 31
0.0
  0
LINE
  5
18CEF
330
18C7A
100
AcDbEntity
  8
細線
 48
50.0
100
AcDbLine
 10
1313.970589276523
 20
1320.491777694889
 30
0.0
 11
1527.970593930113
 21
1320.494460905133
 31
0.0
  0
LINE
  5
18CF0
330
18C7A
100
AcDbEntity
  8
細線
 48
50.0
100
AcDbLine
 10
2017.970593930113
 20
1320.494443351421
 30
0.0
 11
2117.970593930113
 21
1320.494443351421
 31
0.0
  0
LINE
  5
18CF1
330
18C7A
100
AcDbEntity
  8
細線
 48
50.0
100
AcDbLine
 10
1737.970593930113
 20
1320.494443351419
 30
0.0
 11
1807.970593930113
 21
1320.494443351423
 31
0.0
  0
LINE
  5
18CF2
330
18C7A
100
AcDbEntity
  8
細線
 48
50.0
100
AcDbLine
 10
1750.832558942642
 20
1320.494443351419
 30
0.0
 11
1756.588076525309
 21
1338.765294641913
 31
0.0
  0
LINE
  5
18CF3
330
18C7A
100
AcDbEntity
  8
細線
 48
50.0
100
AcDbLine
 10
1756.588076525309
 20
1338.765294641913
 30
0.0
 11
1767.516525005743
 21
1338.765294641911
 31
0.0
  0
ARC
  5
18CF4
330
18C7A
100
AcDbEntity
  8
細線
 48
50.0
100
AcDbCircle
 10
1767.516525005743
 20
1337.765294641911
 30
0.0
 40
1.0
100
AcDbArc
 50
24.62431835207225
 51
90.0
  0
ARC
  5
18CF5
330
18C7A
100
AcDbEntity
  8
細線
 48
50.0
100
AcDbCircle
 10
1778.425237120377
 20
1337.765294641911
 30
0.0
 40
1.0
100
AcDbArc
 50
90.0
 51
155.3756816479277
  0
ARC
  5
18CF6
330
18C7A
100
AcDbEntity
  8
細線
 48
50.0
100
AcDbCircle
 10
1772.970881063058
 20
1340.265294641911
 30
0.0
 40
5.0
100
AcDbArc
 50
204.6243183520723
 51
335.3756816479278
  0
LINE
  5
18CF7
330
18C7A
100
AcDbEntity
  8
細線
 48
50.0
100
AcDbLine
 10
1778.425237120377
 20
1338.765294641911
 30
0.0
 11
1789.35368560081
 21
1338.765294641913
 31
0.0
  0
LINE
  5
18CF8
330
18C7A
100
AcDbEntity
  8
細線
 48
50.0
100
AcDbLine
 10
1789.35368560081
 20
1338.765294641913
 30
0.0
 11
1795.109203183478
 21
1320.494443351423
 31
0.0
  0
LINE
  5
18CF9
330
18C7A
100
AcDbEntity
  8
細線
 48
50.0
100
AcDbLine
 10
2087.970593930113
 20
1341.094443351419
 30
0.0
 11
1336.970593930116
 21
1341.094443351418
 31
0.0
  0
LINE
  5
18CFA
330
18C7A
100
AcDbEntity
  8
細線
 48
50.0
100
AcDbLine
 10
1947.970593930113
 20
1320.494443351421
 30
0.0
 11
1877.970593930113
 21
1320.494443351421
 31
0.0
  0
LINE
  5
18CFB
330
18C7A
100
AcDbEntity
  8
細線
100
AcDbLine
 10
1667.970593930113
 20
1320.494443351421
 30
0.0
 11
1597.970602115529
 21
1320.494443351421
 31
0.0
  0
LINE
  5
18CFC
330
18C7A
100
AcDbEntity
  8
細線
 48
50.0
100
AcDbLine
 10
2741.970584622936
 20
1375.094487209288
 30
0.0
 11
2106.970593930113
 21
1375.094487209284
 31
0.0
  0
LINE
  5
18CFD
330
18C7A
100
AcDbEntity
  8
細線
 48
50.0
100
AcDbLine
 10
2106.970593930113
 20
1371.990637616925
 30
0.0
 11
2106.970593930113
 21
1376.490637616925
 31
0.0
  0
LINE
  5
18CFE
330
18C7A
100
AcDbEntity
  8
細線
 48
50.0
100
AcDbLine
 10
2106.970593930113
 20
1376.490637616925
 30
0.0
 11
2091.970593930113
 21
1376.490637616925
 31
0.0
  0
LINE
  5
18CFF
330
18C7A
100
AcDbEntity
  8
細線
 48
50.0
100
AcDbLine
 10
2091.970593930113
 20
1376.490637616925
 30
0.0
 11
2091.970593930113
 21
1383.490637616927
 31
0.0
  0
LINE
  5
18D00
330
18C7A
100
AcDbEntity
  8
細線
 48
50.0
100
AcDbLine
 10
2091.970593930113
 20
1383.490637616927
 30
0.0
 11
2076.970593930115
 21
1383.490637616924
 31
0.0
  0
LINE
  5
18D01
330
18C7A
100
AcDbEntity
  8
細線
 48
50.0
100
AcDbLine
 10
2076.970593930115
 20
1383.490637616924
 30
0.0
 11
2076.970593930115
 21
1345.890409513813
 31
0.0
  0
LINE
  5
18D02
330
18C7A
100
AcDbEntity
  8
細線
 48
50.0
100
AcDbLine
 10
2076.970593930115
 20
1345.890409513813
 30
0.0
 11
2096.970601231289
 21
1345.890451063353
 31
0.0
  0
LINE
  5
18D03
330
18C7A
100
AcDbEntity
  8
細線
 48
50.0
100
AcDbLine
 10
2096.970556362348
 20
1354.493912699161
 30
0.0
 11
2096.970601231289
 21
1345.890451063353
 31
0.0
  0
LINE
  5
18D04
330
18C7A
100
AcDbEntity
  8
細線
 48
50.0
100
AcDbLine
 10
2741.970584622936
 20
1371.644487209287
 30
0.0
 11
2741.970584622936
 21
1376.494487209284
 31
0.0
  0
LINE
  5
18D05
330
18C7A
100
AcDbEntity
  8
細線
 48
50.0
100
AcDbLine
 10
2741.970584622936
 20
1376.494487209284
 30
0.0
 11
2756.970584622934
 21
1376.494487209285
 31
0.0
  0
LINE
  5
18D06
330
18C7A
100
AcDbEntity
  8
細線
 48
50.0
100
AcDbLine
 10
2756.970584622934
 20
1376.494487209285
 30
0.0
 11
2756.970596256909
 21
1383.494487209331
 31
0.0
  0
LINE
  5
18D07
330
18C7A
100
AcDbEntity
  8
細線
 48
50.0
100
AcDbLine
 10
2756.970596256909
 20
1383.494487209331
 30
0.0
 11
2771.970594427439
 21
1383.494487209329
 31
0.0
  0
LINE
  5
18D08
330
18C7A
100
AcDbEntity
  8
細線
 48
50.0
100
AcDbLine
 10
2771.970594427439
 20
1383.494487209329
 30
0.0
 11
2771.970584125617
 21
1354.494281037055
 31
0.0
  0
LINE
  5
18D09
330
18C7A
100
AcDbEntity
  8
細線
 48
50.0
100
AcDbLine
 10
2458.070304175992
 20
1354.494278397076
 30
0.0
 11
2389.470863838818
 21
1354.494283787084
 31
0.0
  0
LINE
  5
18D0A
330
18C7A
100
AcDbEntity
  8
細線
 48
50.0
100
AcDbLine
 10
2096.970556362348
 20
1354.493912699161
 30
0.0
 11
2108.203245717057
 21
1354.494095652309
 31
0.0
  0
ARC
  5
18D0B
330
18C7A
100
AcDbEntity
  8
細線
 48
50.0
100
AcDbCircle
 10
2114.785538024393
 20
1353.294259565922
 30
0.0
 40
1.8
100
AcDbArc
 50
270.0006665777295
 51
345.000555481349
  0
LINE
  5
18D0C
330
18C7A
100
AcDbEntity
  8
細線
 48
50.0
100
AcDbLine
 10
2116.771971470473
 20
1353.753100023201
 30
0.0
 11
2116.524209028273
 21
1352.828402141094
 31
0.0
  0
LINE
  5
18D0D
330
18C7A
100
AcDbEntity
  8
細線
 48
50.0
100
AcDbLine
 10
2114.785558965548
 20
1351.494259566043
 30
0.0
 11
2111.155631546781
 21
1351.494217335563
 31
0.0
  0
ARC
  5
18D0E
330
18C7A
100
AcDbEntity
  8
細線
 48
50.0
100
AcDbCircle
 10
2111.155610605627
 20
1353.29421733544
 30
0.0
 40
1.8
100
AcDbArc
 50
195.0010443049965
 51
270.0006665777295
  0
LINE
  5
18D0F
330
18C7A
100
AcDbEntity
  8
細線
 48
50.0
100
AcDbLine
 10
2109.169183113368
 20
1353.752932303007
 30
0.0
 11
2109.416952609882
 21
1352.828311364425
 31
0.0
  0
ARC
  5
18D10
330
18C7A
100
AcDbEntity
  8
細線
 48
50.0
100
AcDbCircle
 10
2108.203262004622
 20
1353.494095652444
 30
0.0
 40
1.0
100
AcDbArc
 50
15.00104430499651
 51
90.00093320877969
  0
LINE
  5
18D11
330
18C7A
100
AcDbEntity
  8
細線
 48
50.0
100
AcDbLine
 10
2117.737892825577
 20
1354.494290342714
 30
0.0
 11
2118.679652976481
 21
1354.494296916564
 31
0.0
  0
ARC
  5
18D12
330
18C7A
100
AcDbEntity
  8
細線
 48
50.0
100
AcDbCircle
 10
2117.737899805961
 20
1353.49429034274
 30
0.0
 40
1.0
100
AcDbArc
 50
90.0003999466794
 51
165.000555481349
  0
LINE
  5
18D13
330
18C7A
100
AcDbEntity
  8
細線
 48
50.0
100
AcDbLine
 10
2669.470584622926
 20
1354.494281037055
 30
0.0
 11
2771.970584125617
 21
1354.494281037055
 31
0.0
  0
LINE
  5
18D14
330
18C7A
100
AcDbEntity
  8
細線
 48
50.0
100
AcDbLine
 10
2179.47061994182
 20
1354.494289224422
 30
0.0
 11
2118.370558714898
 21
1354.494296916564
 31
0.0
  0
LINE
  5
18D15
330
18C7A
100
AcDbEntity
  8
細線
 48
50.0
100
AcDbLine
 10
2599.470584622926
 20
1354.494281037057
 30
0.0
 11
2529.470584622926
 21
1354.494281037055
 31
0.0
  0
LINE
  5
18D16
330
18C7A
100
AcDbEntity
  8
細線
 48
50.0
100
AcDbLine
 10
2319.470584622926
 20
1354.494281037054
 30
0.0
 11
2249.470567335051
 21
1354.494281037057
 31
0.0
  0
ARC
  5
18D17
330
18C7A
100
AcDbEntity
  8
細線
 48
50.0
100
AcDbCircle
 10
2756.170589276533
 20
1387.694269174466
 30
0.0
 40
0.8
100
AcDbArc
 50
359.9997333689499
 51
89.99986668437072
  0
ARC
  5
18D18
330
18C7A
100
AcDbEntity
  8
細線
 48
50.0
100
AcDbCircle
 10
2763.770596101631
 20
1387.694280343081
 30
0.0
 40
0.8
100
AcDbArc
 50
90.00014387753465
 51
179.9997333689498
  0
LINE
  5
18D19
330
18C7A
100
AcDbEntity
  8
細線
 48
50.0
100
AcDbLine
 10
2756.170591137969
 20
1388.494269174465
 30
0.0
 11
2750.970589276525
 21
1388.494269174465
 31
0.0
  0
ARC
  5
18D1A
330
18C7A
100
AcDbEntity
  8
細線
 48
50.0
100
AcDbCircle
 10
2757.670589276524
 20
1386.194269174464
 30
0.0
 40
0.7
100
AcDbArc
 50
180.0
 51
270.0
  0
ARC
  5
18D1B
330
18C7A
100
AcDbEntity
  8
細線
 48
50.0
100
AcDbCircle
 10
2762.270589276524
 20
1386.194269174464
 30
0.0
 40
0.7
100
AcDbArc
 50
270.0
 51
0.0
  0
LINE
  5
18D1C
330
18C7A
100
AcDbEntity
  8
細線
 48
50.0
100
AcDbLine
 10
2762.970589276525
 20
1386.194269174464
 30
0.0
 11
2762.970596101639
 21
1387.694284065954
 31
0.0
  0
LINE
  5
18D1D
330
18C7A
100
AcDbEntity
  8
細線
 48
50.0
100
AcDbLine
 10
2757.670589276524
 20
1385.494269174465
 30
0.0
 11
2762.270589276524
 21
1385.494269174465
 31
0.0
  0
LINE
  5
18D1E
330
18C7A
100
AcDbEntity
  8
細線
 48
50.0
100
AcDbLine
 10
2756.970589276525
 20
1387.694269174466
 30
0.0
 11
2756.970589276525
 21
1386.194269174464
 31
0.0
  0
LINE
  5
18D1F
330
18C7A
100
AcDbEntity
  8
細線
 48
50.0
100
AcDbLine
 10
3382.570589276527
 20
1418.494269174465
 30
0.0
 11
2745.970589276525
 21
1418.494269174463
 31
0.0
  0
LINE
  5
18D20
330
18C7A
100
AcDbEntity
  8
細線
 48
50.0
100
AcDbLine
 10
3408.470589276525
 20
1413.494269174467
 30
0.0
 11
3392.570589276527
 21
1413.494269174465
 31
0.0
  0
LINE
  5
18D21
330
18C7A
100
AcDbEntity
  8
細線
 48
50.0
100
AcDbLine
 10
3392.570589276526
 20
1413.494269174465
 30
0.0
 11
3382.570589276527
 21
1418.494269174465
 31
0.0
  0
LINE
  5
18D22
330
18C7A
100
AcDbEntity
  8
細線
100
AcDbLine
 10
2993.470589276525
 20
1388.494269174465
 30
0.0
 11
2993.470589276525
 21
1417.794269174464
 31
0.0
  0
LINE
  5
18D23
330
18C7A
100
AcDbEntity
  8
細線
100
AcDbLine
 10
2993.470589276525
 20
1417.794269174464
 30
0.0
 11
3013.470589276525
 21
1417.794269174464
 31
0.0
  0
LINE
  5
18D24
330
18C7A
100
AcDbEntity
  8
細線
100
AcDbLine
 10
3013.470589276525
 20
1388.494269174465
 30
0.0
 11
3013.470589276525
 21
1417.794269174464
 31
0.0
  0
LINE
  5
18D25
330
18C7A
100
AcDbEntity
  8
細線
100
AcDbLine
 10
3170.720589276524
 20
1388.494269174465
 30
0.0
 11
3100.720589276523
 21
1388.494269174465
 31
0.0
  0
LINE
  5
18D26
330
18C7A
100
AcDbEntity
  8
細線
 48
50.0
100
AcDbLine
 10
2890.720589276525
 20
1388.494269174465
 30
0.0
 11
2763.766368849365
 21
1388.494269174465
 31
0.0
  0
LINE
  5
18D27
330
18C7A
100
AcDbEntity
  8
細線
100
AcDbLine
 10
3030.720589276525
 20
1388.494269174465
 30
0.0
 11
2960.720589276525
 21
1388.494269174465
 31
0.0
  0
LINE
  5
18D28
330
18C7A
100
AcDbEntity
  8
細線
 48
50.0
100
AcDbLine
 10
2750.970589276525
 20
1380.494269174465
 30
0.0
 11
2750.970589276525
 21
1388.494269174465
 31
0.0
  0
LINE
  5
18D29
330
18C7A
100
AcDbEntity
  8
細線
 48
50.0
100
AcDbLine
 10
2730.970589276524
 20
1380.494269174467
 30
0.0
 11
2750.970589276525
 21
1380.494269174465
 31
0.0
  0
LINE
  5
18D2A
330
18C7A
100
AcDbEntity
  8
細線
 48
50.0
100
AcDbLine
 10
2745.970589276525
 20
1418.494269174465
 30
0.0
 11
2745.970589276525
 21
1413.494269174465
 31
0.0
  0
LINE
  5
18D2B
330
18C7A
100
AcDbEntity
  8
細線
 48
50.0
100
AcDbLine
 10
2730.970589276525
 20
1418.494269174463
 30
0.0
 11
2745.970589276525
 21
1418.494269174465
 31
0.0
  0
LINE
  5
18D2C
330
18C7A
100
AcDbEntity
  8
細線
 48
50.0
100
AcDbLine
 10
2730.970589276524
 20
1380.494269174467
 30
0.0
 11
2730.970589276525
 21
1418.494269174463
 31
0.0
  0
LINE
  5
18D2D
330
18C7A
100
AcDbEntity
  8
細線
100
AcDbLine
 10
3398.970589276523
 20
1388.494269174465
 30
0.0
 11
3240.720589276525
 21
1388.494269174465
 31
0.0
  0
LINE
  5
18D2E
330
18C7A
100
AcDbEntity
  8
細線
 48
50.0
100
AcDbLine
 10
3408.470589276525
 20
1413.494269174467
 30
0.0
 11
3408.470589276524
 21
1388.494269174465
 31
0.0
  0
TEXT
  5
18D2F
330
18C7A
100
AcDbEntity
  8
部品1
100
AcDbText
 10
1860.154865991392
 20
46.99880823813145
 30
0.0
 40
135.0
  1
平面図
  7
STYLE2
100
AcDbText
  0
LWPOLYLINE
  5
18D30
330
18C7A
100
AcDbEntity
  8
部品1
100
AcDbPolyline
 90
        4
 70
     1
 43
0.0
 10
1770.23525616235
 20
239.8923374566548
 10
1770.23525616235
 20
0.0000159111223184
 10
2533.705922390791
 20
0.0000159111223184
 10
2533.705922390791
 20
239.8923374566548
  0
LINE
  5
18D31
330
18C7A
100
AcDbEntity
  8
部品1
100
AcDbLine
 10
1534.470589276487
 20
3154.494269174626
 30
0.0
 11
2769.470589276552
 21
3154.494269174626
 31
0.0
  0
LINE
  5
18D32
330
18C7A
100
AcDbEntity
  8
部品1
 48
50.0
100
AcDbLine
 10
1311.970589276523
 20
1420.494269174462
 30
0.0
 11
3411.970589276523
 21
1420.494269174465
 31
0.0
  0
LINE
  5
18D33
330
18C7A
100
AcDbEntity
  8
部品1
 48
50.0
100
AcDbLine
 10
471.9705892765232
 20
1392.494269174465
 30
0.0
 11
1311.970589276523
 21
1392.494269174465
 31
0.0
  0
DIMENSION
  5
18D34
330
18C7A
100
AcDbEntity
  8
寸法
100
AcDbDimension
  2
*D14
 10
2710.234916278077
 20
2488.887829538828
 30
0.0
 11
2338.318822490183
 21
2488.887829538828
 31
0.0
 12
-3742.925985830444
 22
-6453.628869860112
 32
0.0
 70
   128
 71
     5
 42
1231.00000000007
  3
INABA_S40G
100
AcDbAlignedDimension
 13
1536.470589276486
 23
2702.494269174557
 33
0.0
 14
2767.470589276556
 24
2702.494269174549
 34
0.0
100
AcDbRotatedDimension
1001
ACAD
1000
DSTYLE
1002
{
1002
}
  0
LINE
  5
18D35
330
18C7A
100
AcDbEntity
  8
部品1
100
AcDbLine
 10
1536.470589276487
 20
2702.494269174557
 30
0.0
 11
2767.470589276554
 21
2702.494269174615
 31
0.0
  0
LINE
  5
18D36
330
18C7A
100
AcDbEntity
  8
部品1
100
AcDbLine
 10
1536.470589276487
 20
3152.494269174557
 30
0.0
 11
2767.470589276556
 21
3152.494269174615
 31
0.0
  0
LINE
  5
18D37
330
18C7A
100
AcDbEntity
  8
細線
 48
50.0
100
AcDbLine
 10
1508.470589276487
 20
3152.494269174558
 30
0.0
 11
445.4705892765559
 21
2702.494269174509
 31
0.0
  0
LINE
  5
18D38
330
18C7A
100
AcDbEntity
  8
細線
 48
50.0
100
AcDbLine
 10
1508.470589276487
 20
2702.494269174558
 30
0.0
 11
445.4705892765542
 21
3152.494269174509
 31
0.0
  0
LINE
  5
18D39
330
18C7A
100
AcDbEntity
  8
部品1
100
AcDbLine
 10
1556.970589276487
 20
3172.494269174611
 30
0.0
 11
1556.970589276487
 21
3154.494269174611
 31
0.0
  0
LINE
  5
18D3A
330
18C7A
100
AcDbEntity
  8
部品1
100
AcDbLine
 10
1556.970589276487
 20
3172.494269174611
 30
0.0
 11
1550.970589276487
 21
3172.494269174611
 31
0.0
  0
LINE
  5
18D3B
330
18C7A
100
AcDbEntity
  8
部品1
100
AcDbLine
 10
1534.470589276487
 20
3146.494269174608
 30
0.0
 11
1509.470589276487
 21
3146.494269174611
 31
0.0
  0
LINE
  5
18D3C
330
18C7A
100
AcDbEntity
  8
部品1
100
AcDbLine
 10
1486.970589276487
 20
3172.494269174611
 30
0.0
 11
1486.970589276487
 21
3154.494269174611
 31
0.0
  0
LINE
  5
18D3D
330
18C7A
100
AcDbEntity
  8
部品1
100
AcDbLine
 10
1492.970589276487
 20
3172.494269174611
 30
0.0
 11
1486.970589276487
 21
3172.494269174611
 31
0.0
  0
LINE
  5
18D3E
330
18C7A
100
AcDbEntity
  8
部品1
100
AcDbLine
 10
1534.470589276487
 20
2702.494269174615
 30
0.0
 11
1509.470589276487
 21
2702.494269174615
 31
0.0
  0
LINE
  5
18D3F
330
18C7A
100
AcDbEntity
  8
部品1
 48
50.0
100
AcDbLine
 10
1536.470589276487
 20
3152.494269174611
 30
0.0
 11
1536.470589276487
 21
2702.494269174615
 31
0.0
  0
LINE
  5
18D40
330
18C7A
100
AcDbEntity
  8
部品1
 48
50.0
100
AcDbLine
 10
1508.470589276487
 20
3152.494269174607
 30
0.0
 11
1508.470589276487
 21
2702.494269174615
 31
0.0
  0
LINE
  5
18D41
330
18C7A
100
AcDbEntity
  8
部品1
 48
50.0
100
AcDbLine
 10
1534.470589276487
 20
3154.494269174618
 30
0.0
 11
1534.470589276487
 21
2702.494269174615
 31
0.0
  0
LINE
  5
18D42
330
18C7A
100
AcDbEntity
  8
部品1
 48
50.0
100
AcDbLine
 10
1509.470589276487
 20
3154.494269174615
 30
0.0
 11
1509.470589276487
 21
2702.494269174615
 31
0.0
  0
LINE
  5
18D43
330
18C7A
100
AcDbEntity
  8
部品1
100
AcDbLine
 10
3411.970589276556
 20
1392.494269174582
 30
0.0
 11
3411.970589276556
 21
1420.494269174596
 31
0.0
  0
LINE
  5
18D44
330
18C7A
100
AcDbEntity
  8
部品1
100
AcDbLine
 10
1311.970589276523
 20
1392.494269174596
 30
0.0
 11
1311.970589276523
 21
1420.494269174596
 31
0.0
  0
LINE
  5
18D45
330
18C7A
100
AcDbEntity
  8
部品1
100
AcDbLine
 10
891.9705892765232
 20
1392.494269174596
 30
0.0
 11
891.9705892765232
 21
1420.494269174596
 31
0.0
  0
LINE
  5
18D46
330
18C7A
100
AcDbEntity
  8
部品1
100
AcDbLine
 10
3411.97058927652
 20
3182.494269174477
 30
0.0
 11
3411.970589276523
 21
3154.494269174477
 31
0.0
  0
LINE
  5
18D47
330
18C7A
100
AcDbEntity
  8
部品1
100
AcDbLine
 10
2571.97058927652
 20
3182.494269174477
 30
0.0
 11
2571.970589276523
 21
3154.494269174477
 31
0.0
  0
LINE
  5
18D48
330
18C7A
100
AcDbEntity
  8
部品1
100
AcDbLine
 10
2991.97058927652
 20
3182.494269174477
 30
0.0
 11
2991.970589276523
 21
3154.494269174477
 31
0.0
  0
LINE
  5
18D49
330
18C7A
100
AcDbEntity
  8
部品1
100
AcDbLine
 10
2151.970589276519
 20
3182.494269174477
 30
0.0
 11
2151.970589276523
 21
3154.494269174477
 31
0.0
  0
LINE
  5
18D4A
330
18C7A
100
AcDbEntity
  8
部品1
100
AcDbLine
 10
1731.970589276519
 20
3182.494269174477
 30
0.0
 11
1731.970589276523
 21
3154.494269174477
 31
0.0
  0
LINE
  5
18D4B
330
18C7A
100
AcDbEntity
  8
部品1
100
AcDbLine
 10
1311.970589276519
 20
3182.494269174477
 30
0.0
 11
1311.970589276523
 21
3154.494269174477
 31
0.0
  0
LINE
  5
18D4C
330
18C7A
100
AcDbEntity
  8
部品1
100
AcDbLine
 10
891.9705892765195
 20
3182.494269174477
 30
0.0
 11
891.9705892765232
 21
3154.494269174477
 31
0.0
  0
LINE
  5
18D4D
330
18C7A
100
AcDbEntity
  8
部品1
100
AcDbLine
 10
471.9705892765232
 20
1392.494269174596
 30
0.0
 11
471.9705892765232
 21
1420.494269174596
 31
0.0
  0
LINE
  5
18D4E
330
18C7A
100
AcDbEntity
  8
部品1
100
AcDbLine
 10
444.9705892765305
 20
1420.494269174558
 30
0.0
 11
3858.970589276556
 21
1420.494269174596
 31
0.0
  0
LINE
  5
18D4F
330
18C7A
100
AcDbEntity
  8
部品1
100
AcDbLine
 10
3831.970589276556
 20
1392.494269174596
 30
0.0
 11
3831.970589276556
 21
1420.494269174596
 31
0.0
  0
LINE
  5
18D50
330
18C7A
100
AcDbEntity
  8
部品1
100
AcDbLine
 10
3858.970589276556
 20
1447.494269174593
 30
0.0
 11
3886.970589276556
 21
1447.494269174593
 31
0.0
  0
LINE
  5
18D51
330
18C7A
100
AcDbEntity
  8
部品1
100
AcDbLine
 10
3858.970589276556
 20
1867.494269174607
 30
0.0
 11
3886.970589276556
 21
1867.494269174607
 31
0.0
  0
LINE
  5
18D52
330
18C7A
100
AcDbEntity
  8
部品1
100
AcDbLine
 10
444.9705892765305
 20
1867.49426917448
 30
0.0
 11
416.9705892765305
 21
1867.49426917448
 31
0.0
  0
LINE
  5
18D53
330
18C7A
100
AcDbEntity
  8
部品1
100
AcDbLine
 10
3830.470589276541
 20
1867.49426917458
 30
0.0
 11
473.4705892765396
 21
1867.49426917448
 31
0.0
  0
LINE
  5
18D54
330
18C7A
100
AcDbEntity
  8
部品1
100
AcDbLine
 10
3830.470589276541
 20
2287.49426917458
 30
0.0
 11
473.4705892765396
 21
2287.49426917448
 31
0.0
  0
LINE
  5
18D55
330
18C7A
100
AcDbEntity
  8
部品1
100
AcDbLine
 10
444.9705892765305
 20
2287.49426917448
 30
0.0
 11
416.9705892765305
 21
2287.49426917448
 31
0.0
  0
LINE
  5
18D56
330
18C7A
100
AcDbEntity
  8
部品1
100
AcDbLine
 10
3858.970589276556
 20
2287.494269174608
 30
0.0
 11
3886.970589276556
 21
2287.494269174608
 31
0.0
  0
LINE
  5
18D57
330
18C7A
100
AcDbEntity
  8
部品1
 48
50.0
100
AcDbLine
 10
2151.970589276551
 20
2702.494269174586
 30
0.0
 11
2151.970589276581
 21
1448.994269174494
 31
0.0
  0
LINE
  5
18D58
330
18C7A
100
AcDbEntity
  8
破線
 48
10.0
100
AcDbLine
 10
2959.470589276535
 20
1472.494269174522
 30
0.0
 11
2176.970589276532
 21
1472.494269174505
 31
0.0
  0
LINE
  5
18D59
330
18C7A
100
AcDbEntity
  8
破線
 48
10.0
100
AcDbLine
 10
3009.47058927653
 20
1448.994269174509
 30
0.0
 11
3009.47058927653
 21
2702.494269174615
 31
0.0
  0
LINE
  5
18D5A
330
18C7A
100
AcDbEntity
  8
破線
 48
10.0
100
AcDbLine
 10
2959.470589276535
 20
1448.994269174505
 30
0.0
 11
2959.470589276531
 21
2702.494269174615
 31
0.0
  0
LINE
  5
18D5B
330
18C7A
100
AcDbEntity
  8
破線
 48
10.0
100
AcDbLine
 10
1344.47058927653
 20
1448.994269174509
 30
0.0
 11
1344.47058927653
 21
2702.494269174615
 31
0.0
  0
LINE
  5
18D5C
330
18C7A
100
AcDbEntity
  8
破線
 48
10.0
100
AcDbLine
 10
1294.470589276534
 20
1448.994269174505
 30
0.0
 11
1294.47058927653
 21
2702.494269174615
 31
0.0
  0
DIMENSION
  5
18D5D
330
18C7A
100
AcDbEntity
  8
寸法
100
AcDbDimension
  2
*D13
 10
1451.234916278005
 20
2488.887829538828
 30
0.0
 11
916.0604668248634
 21
2488.887829538828
 31
0.0
 12
-3742.925985830444
 22
-6453.628869860112
 32
0.0
 70
   128
 71
     5
 42
1062.99999999993
  3
INABA_S40G
100
AcDbAlignedDimension
 13
445.4705892765559
 23
2702.494269174505
 33
0.0
 14
1508.470589276486
 24
2702.494269174558
 34
0.0
100
AcDbRotatedDimension
1001
ACAD
1000
DSTYLE
1002
{
1002
}
  0
LINE
  5
18D5E
330
18C7A
100
AcDbEntity
  8
破線
 48
10.0
100
AcDbLine
 10
1294.470589276534
 20
1472.494269174469
 30
0.0
 11
496.9705892765414
 21
1472.494269174476
 31
0.0
  0
LINE
  5
18D5F
330
18C7A
100
AcDbEntity
  8
部品1
100
AcDbLine
 10
3831.970589276556
 20
3182.494269174604
 30
0.0
 11
3831.970589276556
 21
3154.494269174604
 31
0.0
  0
LINE
  5
18D60
330
18C7A
100
AcDbEntity
  8
部品1
100
AcDbLine
 10
3831.970589276556
 20
3182.494269174626
 30
0.0
 11
3831.970589276556
 21
3154.494269174626
 31
0.0
  0
LINE
  5
18D61
330
18C7A
100
AcDbEntity
  8
部品1
100
AcDbLine
 10
3858.970589276556
 20
3127.494269174607
 30
0.0
 11
3886.970589276556
 21
3127.494269174607
 31
0.0
  0
LINE
  5
18D62
330
18C7A
100
AcDbEntity
  8
部品1
100
AcDbLine
 10
3858.970589276556
 20
2707.494269174608
 30
0.0
 11
3886.970589276556
 21
2707.494269174608
 31
0.0
  0
LINE
  5
18D63
330
18C7A
100
AcDbEntity
  8
部品1
100
AcDbLine
 10
3858.470589276556
 20
3152.494269174604
 30
0.0
 11
3858.470589276556
 21
2702.494269174608
 31
0.0
  0
LINE
  5
18D64
330
18C7A
100
AcDbEntity
  8
部品1
100
AcDbLine
 10
3886.970589276533
 20
1447.494269174593
 30
0.0
 11
3886.970589276531
 21
1392.494269174596
 31
0.0
  0
LINE
  5
18D65
330
18C7A
100
AcDbEntity
  8
部品1
 48
50.0
100
AcDbLine
 10
3830.470589276556
 20
1448.994269174596
 30
0.0
 11
3858.970589276554
 21
1420.494269174596
 31
0.0
  0
LINE
  5
18D66
330
18C7A
100
AcDbEntity
  8
部品1
100
AcDbLine
 10
3886.970589276531
 20
1392.494269174596
 30
0.0
 11
3835.970589276531
 21
1392.494269174596
 31
0.0
  0
LINE
  5
18D67
330
18C7A
100
AcDbEntity
  8
部品1
100
AcDbLine
 10
3858.970589276533
 20
1447.494269174593
 30
0.0
 11
3886.970589276531
 21
1447.494269174593
 31
0.0
  0
LINE
  5
18D68
330
18C7A
100
AcDbEntity
  8
部品1
100
AcDbLine
 10
3886.970589276556
 20
3182.494269174604
 30
0.0
 11
3886.970589276531
 21
1392.494269174596
 31
0.0
  0
DIMENSION
  5
18D69
330
18C7A
100
AcDbEntity
  8
寸法
100
AcDbDimension
  2
*D12
 10
4534.396935010967
 20
1447.494269174593
 30
0.0
 11
4534.396935010965
 21
2287.4942691746
 31
0.0
 12
-3742.925985830444
 22
-6453.628869860112
 32
0.0
 70
   128
  1
4X420=<>
 71
     5
 42
1680.000000000014
  3
INABA_S40G
100
AcDbAlignedDimension
 13
3886.970589276556
 23
3127.494269174607
 33
0.0
 14
3886.970589276531
 24
1447.494269174593
 34
0.0
 50
90.0
100
AcDbRotatedDimension
1001
ACAD
1000
DSTYLE
1002
{
1002
}
  0
LINE
  5
18D6A
330
18C7A
100
AcDbEntity
  8
部品1
100
AcDbLine
 10
3858.970589276556
 20
3154.494269174604
 30
0.0
 11
3858.970589276534
 21
1420.494269174596
 31
0.0
  0
DIMENSION
  5
18D6B
330
18C7A
100
AcDbEntity
  8
寸法
100
AcDbDimension
  2
*D11
 10
4213.82831513858
 20
2607.276453505718
 30
0.0
 11
4113.828315138579
 21
2832.276453505718
 31
0.0
 12
-3742.925985830444
 22
-6453.628869860112
 32
0.0
 71
     5
 42
449.9999999999963
  3
INABA_S40G
100
AcDbAlignedDimension
 13
3858.470589276556
 23
3152.494269174604
 33
0.0
 14
3858.470589276556
 24
2702.494269174608
 34
0.0
 50
90.0
100
AcDbRotatedDimension
1001
ACAD
1000
DSTYLE
1002
{
1002
}
  0
LINE
  5
18D6C
330
18C7A
100
AcDbEntity
  8
部品1
100
AcDbLine
 10
3830.470589276547
 20
2702.494269174608
 30
0.0
 11
3830.470589276556
 21
1448.994269174596
 31
0.0
  0
LINE
  5
18D6D
330
18C7A
100
AcDbEntity
  8
破線
 48
10.0
100
AcDbLine
 10
3806.970589276549
 20
2702.494269174608
 30
0.0
 11
3806.970589276558
 21
1472.494269174593
 31
0.0
  0
LINE
  5
18D6E
330
18C7A
100
AcDbEntity
  8
部品1
100
AcDbLine
 10
2769.470589276556
 20
3146.494269174608
 30
0.0
 11
2794.470589276556
 21
3146.494269174611
 31
0.0
  0
LINE
  5
18D6F
330
18C7A
100
AcDbEntity
  8
部品1
100
AcDbLine
 10
2810.970589276556
 20
3172.494269174611
 30
0.0
 11
2816.970589276556
 21
3172.494269174611
 31
0.0
  0
LINE
  5
18D70
330
18C7A
100
AcDbEntity
  8
部品1
100
AcDbLine
 10
2816.970589276556
 20
3172.494269174611
 30
0.0
 11
2816.970589276556
 21
3154.494269174611
 31
0.0
  0
LINE
  5
18D71
330
18C7A
100
AcDbEntity
  8
部品1
100
AcDbLine
 10
2746.970589276556
 20
3172.494269174611
 30
0.0
 11
2752.970589276556
 21
3172.494269174611
 31
0.0
  0
LINE
  5
18D72
330
18C7A
100
AcDbEntity
  8
部品1
100
AcDbLine
 10
2746.970589276556
 20
3172.494269174611
 30
0.0
 11
2746.970589276556
 21
3154.494269174611
 31
0.0
  0
LINE
  5
18D73
330
18C7A
100
AcDbEntity
  8
部品1
100
AcDbLine
 10
2769.470589276556
 20
2702.494269174615
 30
0.0
 11
2794.470589276556
 21
2702.494269174615
 31
0.0
  0
LINE
  5
18D74
330
18C7A
100
AcDbEntity
  8
部品1
 48
50.0
100
AcDbLine
 10
2794.470589276556
 20
3154.494269174615
 30
0.0
 11
2794.470589276556
 21
2702.494269174615
 31
0.0
  0
LINE
  5
18D75
330
18C7A
100
AcDbEntity
  8
部品1
 48
50.0
100
AcDbLine
 10
2769.470589276554
 20
3154.494269174618
 30
0.0
 11
2769.470589276556
 21
2702.494269174615
 31
0.0
  0
LINE
  5
18D76
330
18C7A
100
AcDbEntity
  8
部品1
 48
50.0
100
AcDbLine
 10
2795.470589276556
 20
3152.494269174607
 30
0.0
 11
2795.470589276556
 21
2702.494269174615
 31
0.0
  0
LINE
  5
18D77
330
18C7A
100
AcDbEntity
  8
部品1
 48
50.0
100
AcDbLine
 10
2767.470589276556
 20
3152.494269174611
 30
0.0
 11
2767.470589276556
 21
2702.494269174615
 31
0.0
  0
LINE
  5
18D78
330
18C7A
100
AcDbEntity
  8
破線
 48
10.0
100
AcDbLine
 10
2176.97058927653
 20
1448.994269174509
 30
0.0
 11
2176.97058927653
 21
2702.494269174588
 31
0.0
  0
LINE
  5
18D79
330
18C7A
100
AcDbEntity
  8
破線
 48
10.0
100
AcDbLine
 10
2126.970589276534
 20
1448.994269174505
 30
0.0
 11
2126.970589276531
 21
2702.494269174586
 31
0.0
  0
LINE
  5
18D7A
330
18C7A
100
AcDbEntity
  8
部品1
100
AcDbLine
 10
2794.470589276556
 20
3154.494269174622
 30
0.0
 11
3858.970589276556
 21
3154.494269174604
 31
0.0
  0
LINE
  5
18D7B
330
18C7A
100
AcDbEntity
  8
細線
 48
50.0
100
AcDbLine
 10
3858.470589276556
 20
2702.494269174608
 30
0.0
 11
2795.470589276556
 21
3152.494269174607
 31
0.0
  0
LINE
  5
18D7C
330
18C7A
100
AcDbEntity
  8
部品1
100
AcDbLine
 10
2795.470589276555
 20
2702.494269174615
 30
0.0
 11
3858.470589276556
 21
2702.494269174608
 31
0.0
  0
LINE
  5
18D7D
330
18C7A
100
AcDbEntity
  8
部品1
100
AcDbLine
 10
2795.470589276556
 20
3152.494269174611
 30
0.0
 11
3858.470589276556
 21
3152.494269174604
 31
0.0
  0
LINE
  5
18D7E
330
18C7A
100
AcDbEntity
  8
細線
 48
50.0
100
AcDbLine
 10
3858.470589276556
 20
3152.494269174604
 30
0.0
 11
2795.470589276555
 21
2702.494269174615
 31
0.0
  0
DIMENSION
  5
18D7F
330
18C7A
100
AcDbEntity
  8
寸法
100
AcDbDimension
  2
*D10
 10
3801.234916278101
 20
2488.887829538937
 30
0.0
 11
3318.360544398907
 21
2488.887829538937
 31
0.0
 12
-3742.925985830444
 22
-6453.628869860112
 32
0.0
 70
   128
 71
     5
 42
1063.000000000012
  3
INABA_S40G
100
AcDbAlignedDimension
 13
2795.470589276555
 23
2702.494269174615
 33
0.0
 14
3858.470589276567
 24
2702.494269174608
 34
0.0
100
AcDbRotatedDimension
1001
ACAD
1000
DSTYLE
1002
{
1002
}
  0
LINE
  5
18D80
330
18C7A
100
AcDbEntity
  8
破線
 48
10.0
100
AcDbLine
 10
3806.970589276556
 20
1472.494269174594
 30
0.0
 11
3009.47058927653
 21
1472.494269174523
 31
0.0
  0
DIMENSION
  5
18D81
330
18C7A
100
AcDbEntity
  8
寸法
100
AcDbDimension
  2
*D9
 10
4534.396935010941
 20
1392.494269174596
 30
0.0
 11
4534.39693501094
 21
1084.008987800356
 31
0.0
 12
-3742.925985830444
 22
-6453.628869860112
 32
0.0
 70
   128
 71
     5
 42
54.99999999999636
  3
INABA_S40G
100
AcDbAlignedDimension
 13
3886.970589276531
 23
1447.494269174593
 33
0.0
 14
3886.970589276531
 24
1392.494269174596
 34
0.0
 50
90.0
100
AcDbRotatedDimension
1001
ACAD
1000
DSTYLE
1002
{
1002
}
  0
LINE
  5
18D82
330
18C7A
100
AcDbEntity
  8
部品1
100
AcDbLine
 10
471.9705892765196
 20
3182.494269174477
 30
0.0
 11
471.9705892765232
 21
3154.494269174477
 31
0.0
  0
LINE
  5
18D83
330
18C7A
100
AcDbEntity
  8
部品1
100
AcDbLine
 10
471.9705892765559
 20
3182.494269174509
 30
0.0
 11
471.9705892765559
 21
3154.494269174509
 31
0.0
  0
LINE
  5
18D84
330
18C7A
100
AcDbEntity
  8
部品1
100
AcDbLine
 10
444.9705892765232
 20
3127.49426917448
 30
0.0
 11
416.9705892765232
 21
3127.49426917448
 31
0.0
  0
LINE
  5
18D85
330
18C7A
100
AcDbEntity
  8
部品1
100
AcDbLine
 10
444.9705892765305
 20
2707.49426917448
 30
0.0
 11
416.9705892765305
 21
2707.49426917448
 31
0.0
  0
LINE
  5
18D86
330
18C7A
100
AcDbEntity
  8
部品1
 48
50.0
100
AcDbLine
 10
445.4705892765542
 20
3152.494269174506
 30
0.0
 11
445.4705892765559
 21
2702.494269174505
 31
0.0
  0
LINE
  5
18D87
330
18C7A
100
AcDbEntity
  8
部品1
 48
50.0
100
AcDbLine
 10
473.470589276545
 20
1448.994269174573
 30
0.0
 11
444.970589276545
 21
1420.494269174574
 31
0.0
  0
LINE
  5
18D88
330
18C7A
100
AcDbEntity
  8
部品1
100
AcDbLine
 10
471.9705892765232
 20
1392.494269174465
 30
0.0
 11
416.9705892765486
 21
1392.494269174465
 31
0.0
  0
LINE
  5
18D89
330
18C7A
100
AcDbEntity
  8
部品1
100
AcDbLine
 10
444.9705892765305
 20
1447.494269174429
 30
0.0
 11
416.9705892765469
 21
1447.494269174429
 31
0.0
  0
LINE
  5
18D8A
330
18C7A
100
AcDbEntity
  8
部品1
100
AcDbLine
 10
444.9705892765305
 20
1447.494269174465
 30
0.0
 11
416.9705892765469
 21
1447.494269174465
 31
0.0
  0
LINE
  5
18D8B
330
18C7A
100
AcDbEntity
  8
部品1
100
AcDbLine
 10
444.9705892765469
 20
1447.49426917448
 30
0.0
 11
416.9705892765469
 21
1447.49426917448
 31
0.0
  0
LINE
  5
18D8C
330
18C7A
100
AcDbEntity
  8
部品1
100
AcDbLine
 10
416.9705892765469
 20
1447.494269174429
 30
0.0
 11
416.9705892765486
 21
1392.494269174433
 31
0.0
  0
LINE
  5
18D8D
330
18C7A
100
AcDbEntity
  8
部品1
100
AcDbLine
 10
416.9705892765196
 20
3182.494269174477
 30
0.0
 11
416.9705892765486
 21
1392.494269174465
 31
0.0
  0
LINE
  5
18D8E
330
18C7A
100
AcDbEntity
  8
部品1
100
AcDbLine
 10
444.9705892765305
 20
1420.494269174556
 30
0.0
 11
444.9705892765559
 21
3154.494269174509
 31
0.0
  0
LINE
  5
18D8F
330
18C7A
100
AcDbEntity
  8
部品1
100
AcDbLine
 10
473.4705892765323
 20
2702.494269174608
 30
0.0
 11
473.470589276545
 21
1448.994269174571
 31
0.0
  0
LINE
  5
18D90
330
18C7A
100
AcDbEntity
  8
破線
 48
10.0
100
AcDbLine
 10
496.9705892765305
 20
2702.494269174608
 30
0.0
 11
496.9705892765451
 21
1472.494269174476
 31
0.0
  0
DIMENSION
  5
18D91
330
18C7A
100
AcDbEntity
  8
寸法
100
AcDbDimension
  2
*D8
 10
3886.970589276531
 20
410.7433333855515
 30
0.0
 11
2168.197775309287
 21
410.7433333855515
 31
0.0
 12
-3742.925985830444
 22
-6453.628869860112
 32
0.0
 70
   128
 71
     5
 42
3469.999999999982
  3
INABA_S40G
100
AcDbAlignedDimension
 13
416.9705892765486
 23
1392.494269174433
 33
0.0
 14
3886.970589276531
 24
1392.49426917456
 34
0.0
100
AcDbRotatedDimension
1001
ACAD
1000
DSTYLE
1002
{
1070
   341
1005
0
1002
}
  0
LINE
  5
18D92
330
18C7A
100
AcDbEntity
  8
部品1
100
AcDbLine
 10
444.9705892765559
 20
3154.494269174624
 30
0.0
 11
1509.470589276487
 21
3154.494269174626
 31
0.0
  0
LINE
  5
18D93
330
18C7A
100
AcDbEntity
  8
部品1
100
AcDbLine
 10
3886.970589276531
 20
1392.494269174596
 30
0.0
 11
3411.970589276556
 21
1392.494269174582
 31
0.0
  0
LINE
  5
18D94
330
18C7A
100
AcDbEntity
  8
部品1
100
AcDbLine
 10
416.9705892765559
 20
3182.494269174509
 30
0.0
 11
3886.970589276556
 21
3182.494269174604
 31
0.0
  0
LINE
  5
18D95
330
18C7A
100
AcDbEntity
  8
部品1
100
AcDbLine
 10
445.4705892765559
 20
2702.494269174509
 30
0.0
 11
1508.470589276487
 21
2702.494269174558
 31
0.0
  0
LINE
  5
18D96
330
18C7A
100
AcDbEntity
  8
細線
 48
50.0
100
AcDbLine
 10
2767.470589276556
 20
3152.494269174611
 30
0.0
 11
1536.470589276487
 21
2702.494269174558
 31
0.0
  0
LINE
  5
18D97
330
18C7A
100
AcDbEntity
  8
部品1
100
AcDbLine
 10
445.4705892765542
 20
3152.494269174509
 30
0.0
 11
1508.470589276485
 21
3152.494269174558
 31
0.0
  0
LINE
  5
18D98
330
18C7A
100
AcDbEntity
  8
細線
 48
50.0
100
AcDbLine
 10
2767.470589276554
 20
2702.494269174615
 30
0.0
 11
1536.470589276485
 21
3152.494269174558
 31
0.0
  0
LINE
  5
18D99
330
18C7A
100
AcDbEntity
  8
破線
 48
10.0
100
AcDbLine
 10
2126.970589276534
 20
1472.494269174502
 30
0.0
 11
1344.47058927653
 21
1472.494269174473
 31
0.0
  0
LINE
  5
18D9A
330
18C7A
100
AcDbEntity
  8
部品1
100
AcDbLine
 10
3830.470589276556
 20
1448.994269174596
 30
0.0
 11
473.4705892764487
 21
1448.994269174476
 31
0.0
  0
DIMENSION
  5
18D9B
330
18C7A
100
AcDbEntity
  8
寸法
100
AcDbDimension
  2
*D7
 10
471.970589276555
 20
3698.302488799491
 30
0.0
 11
108.4853079022819
 21
3698.302488799491
 31
0.0
 12
-3742.925985830444
 22
-6453.628869860112
 32
0.0
 70
   128
 71
     5
 42
55.00000000003456
  3
INABA_S40G
100
AcDbAlignedDimension
 13
416.9705892765205
 23
3182.494269174509
 33
0.0
 14
471.970589276555
 24
3182.494269174509
 34
0.0
100
AcDbRotatedDimension
1001
ACAD
1000
DSTYLE
1002
{
1002
}
  0
DIMENSION
  5
18D9C
330
18C7A
100
AcDbEntity
  8
寸法
100
AcDbDimension
  2
*D6
 10
4534.396935010967
 20
3127.494269174607
 30
0.0
 11
4534.396935010965
 21
3490.979550548844
 31
0.0
 12
-3742.925985830444
 22
-6453.628869860112
 32
0.0
 70
   128
 71
     5
 42
54.99999999999636
  3
INABA_S40G
100
AcDbAlignedDimension
 13
3886.970589276556
 23
3182.494269174604
 33
0.0
 14
3886.970589276556
 24
3127.494269174607
 34
0.0
 50
90.0
100
AcDbRotatedDimension
1001
ACAD
1000
DSTYLE
1002
{
1002
}
  0
DIMENSION
  5
18D9D
330
18C7A
100
AcDbEntity
  8
寸法
100
AcDbDimension
  2
*D5
 10
3886.970589276556
 20
3698.302488799589
 30
0.0
 11
4195.455870650794
 21
3698.302488799589
 31
0.0
 12
-3742.925985830444
 22
-6453.628869860112
 32
0.0
 70
   128
 71
     5
 42
55.0
  3
INABA_S40G
100
AcDbAlignedDimension
 13
3831.970589276556
 23
3182.494269174604
 33
0.0
 14
3886.970589276556
 24
3182.494269174604
 34
0.0
100
AcDbRotatedDimension
1001
ACAD
1000
DSTYLE
1002
{
1002
}
  0
DIMENSION
  5
18D9E
330
18C7A
100
AcDbEntity
  8
寸法
100
AcDbDimension
  2
*D4
 10
3831.970589276556
 20
3698.302488799607
 30
0.0
 11
2151.970589276555
 21
3698.302488799607
 31
0.0
 12
-3742.925985830444
 22
-6453.628869860112
 32
0.0
 70
   128
  1
8X420=<>
 71
     5
 42
3360.000000000001
  3
INABA_S40G
100
AcDbAlignedDimension
 13
471.970589276555
 23
3182.494269174509
 33
0.0
 14
3831.970589276556
 24
3182.494269174604
 34
0.0
100
AcDbRotatedDimension
1001
ACAD
1000
DSTYLE
1002
{
1002
}
  0
DIMENSION
  5
18D9F
330
18C7A
100
AcDbEntity
  8
寸法
100
AcDbDimension
  2
*D3
 10
4899.503876750603
 20
1392.494269174596
 30
0.0
 11
4899.503876750601
 21
2287.4942691746
 31
0.0
 12
-3742.925985830444
 22
-6453.628869860112
 32
0.0
 70
   128
 71
     5
 42
1790.000000000007
  3
INABA_S40G
100
AcDbAlignedDimension
 13
3886.970589276556
 23
3182.494269174604
 33
0.0
 14
3886.970589276531
 24
1392.494269174596
 34
0.0
 50
90.0
100
AcDbRotatedDimension
1001
ACAD
1000
DSTYLE
1002
{
1002
}
  0
ENDBLK
  5
18DA1
330
18C7A
100
AcDbEntity
  8
0
 48
50.0
100
AcDbBlockEnd
  0
BLOCK
  5
1C4CB
330
1C4CA
100
AcDbEntity
  8
0
 48
50.0
100
AcDbBlockBegin
  2
_NONE
 70
     0
 10
0.0
 20
0.0
 30
0.0
  3
_NONE
  1

  0
CIRCLE
  5
1C4CC
330
1C4CA
100
AcDbEntity
  8
0
  6
ByBlock
 62
     0
 48
50.0
100
AcDbCircle
 10
0.0
 20
0.0
 30
0.0
 40
0.25
  0
ENDBLK
  5
1C4CD
330
1C4CA
100
AcDbEntity
  8
0
 48
50.0
100
AcDbBlockEnd
  0
BLOCK
  5
229A0
330
22995
100
AcDbEntity
  8
0
 48
50.0
100
AcDbBlockBegin
  2
*D19
 70
     1
 10
0.0
 20
0.0
 30
0.0
  3
*D19
  1

  0
LINE
  5
22F2C
330
22995
100
AcDbEntity
  8
寸法
 62
     0
 48
50.0
370
    -2
100
AcDbLine
 10
9333.6
 20
7986.907777930205
 30
0.0
 11
9333.6
 21
8790.149966081996
 31
0.0
  0
LINE
  5
22F2D
330
22995
100
AcDbEntity
  8
寸法
 62
     0
 48
50.0
370
    -2
100
AcDbLine
 10
9210.600000000001
 20
7913.907777930204
 30
0.0
 11
9210.600000000001
 21
8790.149966081996
 31
0.0
  0
LINE
  5
22F2E
330
22995
100
AcDbEntity
  8
寸法
 62
     0
 48
50.0
370
    -2
100
AcDbLine
 10
9210.600000000001
 20
8730.149966081995
 30
0.0
 11
9333.6
 21
8730.149966081995
 31
0.0
  0
LINE
  5
22F2F
330
22995
100
AcDbEntity
  8
寸法
 62
     0
 48
50.0
370
    -2
100
AcDbLine
 10
9333.6
 20
8730.149966081995
 30
0.0
 11
9745.191883092036
 21
8730.149966081995
 31
0.0
  0
INSERT
  5
22F30
330
22995
100
AcDbEntity
  8
寸法
 62
     0
 48
50.0
370
    -2
100
AcDbBlockReference
  2
_DOTSMALL
 10
9210.600000000001
 20
8730.149966081995
 30
0.0
 41
100.0
 42
100.0
 43
100.0
 50
180.0
  0
INSERT
  5
22F31
330
22995
100
AcDbEntity
  8
寸法
 62
     0
 48
50.0
370
    -2
100
AcDbBlockReference
  2
_DOTSMALL
 10
9333.6
 20
8730.149966081995
 30
0.0
 41
100.0
 42
100.0
 43
100.0
  0
MTEXT
  5
22F32
330
22995
100
AcDbEntity
  8
寸法
 62
     7
 48
50.0
100
AcDbMText
 10
9606.706601717799
 20
8830.161777105617
 30
0.0
 40
120.0
 41
0.0
 71
     5
 72
     1
  1
\A1;123
  7
STYLE1
 73
     1
 44
1.0
1001
ACAD
1000
MTEXTBEGIN
1070
    73
1070
     1
1070
    44
1040
1.0
1070
    74
1070
     0
1000
MTEXTEND
  0
POINT
  5
22F33
330
22995
100
AcDbEntity
  8
DEFPOINTS
 62
     0
 48
50.0
100
AcDbPoint
 10
9333.6
 20
7966.907777930204
 30
0.0
  0
POINT
  5
22F34
330
22995
100
AcDbEntity
  8
DEFPOINTS
 62
     0
 48
50.0
100
AcDbPoint
 10
9210.600000000001
 20
7893.907777930204
 30
0.0
  0
POINT
  5
22F35
330
22995
100
AcDbEntity
  8
DEFPOINTS
 62
     0
 48
50.0
100
AcDbPoint
 10
9210.600000000001
 20
8730.149966081995
 30
0.0
  0
ENDBLK
  5
229A1
330
22995
100
AcDbEntity
  8
0
 48
50.0
100
AcDbBlockEnd
  0
BLOCK
  5
229AD
330
229A2
100
AcDbEntity
  8
0
 48
50.0
100
AcDbBlockBegin
  2
*D20
 70
     1
 10
0.0
 20
0.0
 30
0.0
  3
*D20
  1

  0
LINE
  5
2481A
330
229A2
100
AcDbEntity
  8
寸法
 62
     0
 48
50.0
370
    -2
100
AcDbLine
 10
9333.6
 20
7716.16237411604
 30
0.0
 11
9333.6
 21
7447.704956834113
 31
0.0
  0
LINE
  5
2481B
330
229A2
100
AcDbEntity
  8
寸法
 62
     0
 48
50.0
370
    -2
100
AcDbLine
 10
9213.600000000001
 20
7716.907777930206
 30
0.0
 11
9213.600000000001
 21
7447.704956834113
 31
0.0
  0
LINE
  5
2481C
330
229A2
100
AcDbEntity
  8
寸法
 62
     0
 48
50.0
370
    -2
100
AcDbLine
 10
9213.600000000001
 20
7507.704956834112
 30
0.0
 11
9333.6
 21
7507.704956834112
 31
0.0
  0
LINE
  5
2481D
330
229A2
100
AcDbEntity
  8
寸法
 62
     0
 48
50.0
370
    -2
100
AcDbLine
 10
9333.6
 20
7507.704956834112
 30
0.0
 11
9739.706299212599
 21
7507.704956834112
 31
0.0
  0
INSERT
  5
2481E
330
229A2
100
AcDbEntity
  8
寸法
 62
     0
 48
50.0
370
    -2
100
AcDbBlockReference
  2
_DOTSMALL
 10
9213.600000000001
 20
7507.704956834112
 30
0.0
 41
100.0
 42
100.0
 43
100.0
 50
180.0
  0
INSERT
  5
2481F
330
229A2
100
AcDbEntity
  8
寸法
 62
     0
 48
50.0
370
    -2
100
AcDbBlockReference
  2
_DOTSMALL
 10
9333.6
 20
7507.704956834112
 30
0.0
 41
100.0
 42
100.0
 43
100.0
  0
MTEXT
  5
24820
330
229A2
100
AcDbEntity
  8
寸法
 62
     7
 48
50.0
100
AcDbMText
 10
9603.659055118111
 20
7607.716767857734
 30
0.0
 40
120.0
 41
0.0
 71
     5
 72
     1
  1
\A1;120
  7
STYLE1
 73
     1
 44
1.0
1001
ACAD
1000
MTEXTBEGIN
1070
    73
1070
     1
1070
    44
1040
1.0
1070
    74
1070
     0
1000
MTEXTEND
  0
POINT
  5
24821
330
229A2
100
AcDbEntity
  8
DEFPOINTS
 62
     0
 48
50.0
100
AcDbPoint
 10
9333.6
 20
7736.16237411604
 30
0.0
  0
POINT
  5
24822
330
229A2
100
AcDbEntity
  8
DEFPOINTS
 62
     0
 48
50.0
100
AcDbPoint
 10
9213.600000000001
 20
7736.907777930206
 30
0.0
  0
POINT
  5
24823
330
229A2
100
AcDbEntity
  8
DEFPOINTS
 62
     0
 48
50.0
100
AcDbPoint
 10
9213.600000000001
 20
7507.704956834112
 30
0.0
  0
ENDBLK
  5
229AE
330
229A2
100
AcDbEntity
  8
0
 48
50.0
100
AcDbBlockEnd
  0
BLOCK
  5
229E0
330
229D5
100
AcDbEntity
  8
0
 48
50.0
100
AcDbBlockBegin
  2
*D21
 70
     1
 10
0.0
 20
0.0
 30
0.0
  3
*D21
  1

  0
LINE
  5
22EF9
330
229D5
100
AcDbEntity
  8
寸法
 62
     0
 48
50.0
370
    -2
100
AcDbLine
 10
7236.6
 20
7913.907777930204
 30
0.0
 11
7236.6
 21
8790.149966081996
 31
0.0
  0
LINE
  5
22EFA
330
229D5
100
AcDbEntity
  8
寸法
 62
     0
 48
50.0
370
    -2
100
AcDbLine
 10
7113.600000000001
 20
7986.907777930205
 30
0.0
 11
7113.600000000001
 21
8790.149966081996
 31
0.0
  0
LINE
  5
22EFB
330
229D5
100
AcDbEntity
  8
寸法
 62
     0
 48
50.0
370
    -2
100
AcDbLine
 10
7236.6
 20
8730.149966081995
 30
0.0
 11
7113.600000000001
 21
8730.149966081995
 31
0.0
  0
LINE
  5
22EFC
330
229D5
100
AcDbEntity
  8
寸法
 62
     0
 48
50.0
370
    -2
100
AcDbLine
 10
7113.600000000001
 20
8730.149966081995
 30
0.0
 11
6702.008116907963
 21
8730.149966081995
 31
0.0
  0
INSERT
  5
22EFD
330
229D5
100
AcDbEntity
  8
寸法
 62
     0
 48
50.0
370
    -2
100
AcDbBlockReference
  2
_DOTSMALL
 10
7236.6
 20
8730.149966081995
 30
0.0
 41
100.0
 42
100.0
 43
100.0
  0
INSERT
  5
22EFE
330
229D5
100
AcDbEntity
  8
寸法
 62
     0
 48
50.0
370
    -2
100
AcDbBlockReference
  2
_DOTSMALL
 10
7113.600000000001
 20
8730.149966081995
 30
0.0
 41
100.0
 42
100.0
 43
100.0
 50
180.0
  0
MTEXT
  5
22EFF
330
229D5
100
AcDbEntity
  8
寸法
 62
     7
 48
50.0
100
AcDbMText
 10
6840.493398282203
 20
8830.161777105617
 30
0.0
 40
120.0
 41
0.0
 71
     5
 72
     1
  1
\A1;123
  7
STYLE1
 73
     1
 44
1.0
1001
ACAD
1000
MTEXTBEGIN
1070
    73
1070
     1
1070
    44
1040
1.0
1070
    74
1070
     0
1000
MTEXTEND
  0
POINT
  5
22F00
330
229D5
100
AcDbEntity
  8
DEFPOINTS
 62
     0
 48
50.0
100
AcDbPoint
 10
7236.6
 20
7893.907777930204
 30
0.0
  0
POINT
  5
22F01
330
229D5
100
AcDbEntity
  8
DEFPOINTS
 62
     0
 48
50.0
100
AcDbPoint
 10
7113.600000000001
 20
7966.907777930204
 30
0.0
  0
POINT
  5
22F02
330
229D5
100
AcDbEntity
  8
DEFPOINTS
 62
     0
 48
50.0
100
AcDbPoint
 10
7113.600000000001
 20
8730.149966081995
 30
0.0
  0
ENDBLK
  5
229E1
330
229D5
100
AcDbEntity
  8
0
 48
50.0
100
AcDbBlockEnd
  0
BLOCK
  5
229ED
330
229E2
100
AcDbEntity
  8
0
 48
50.0
100
AcDbBlockBegin
  2
*D22
 70
     1
 10
0.0
 20
0.0
 30
0.0
  3
*D22
  1

  0
LINE
  5
22EEF
330
229E2
100
AcDbEntity
  8
寸法
 62
     0
 48
50.0
370
    -2
100
AcDbLine
 10
7093.600000000001
 20
7966.907777930204
 30
0.0
 11
6117.933661824713
 21
7966.907777930206
 31
0.0
  0
LINE
  5
22EF0
330
229E2
100
AcDbEntity
  8
寸法
 62
     0
 48
50.0
370
    -2
100
AcDbLine
 10
7166.600000000001
 20
7843.907777930205
 30
0.0
 11
6117.933661824713
 21
7843.907777930207
 31
0.0
  0
LINE
  5
22EF1
330
229E2
100
AcDbEntity
  8
寸法
 62
     0
 48
50.0
370
    -2
100
AcDbLine
 10
6177.933661824713
 20
7843.907777930205
 30
0.0
 11
6177.933661824713
 21
7966.907777930204
 31
0.0
  0
LINE
  5
22EF2
330
229E2
100
AcDbEntity
  8
寸法
 62
     0
 48
50.0
370
    -2
100
AcDbLine
 10
6177.933661824713
 20
7966.907777930204
 30
0.0
 11
6177.933661824713
 21
8418.499661022238
 31
0.0
  0
INSERT
  5
22EF3
330
229E2
100
AcDbEntity
  8
寸法
 62
     0
 48
50.0
370
    -2
100
AcDbBlockReference
  2
_DOTSMALL
 10
6177.933661824713
 20
7843.907777930205
 30
0.0
 41
100.0
 42
100.0
 43
100.0
 50
270.0
  0
INSERT
  5
22EF4
330
229E2
100
AcDbEntity
  8
寸法
 62
     0
 48
50.0
370
    -2
100
AcDbBlockReference
  2
_DOTSMALL
 10
6177.933661824713
 20
7966.907777930204
 30
0.0
 41
100.0
 42
100.0
 43
100.0
 50
90.0
  0
MTEXT
  5
22EF5
330
229E2
100
AcDbEntity
  8
寸法
 62
     7
 48
50.0
100
AcDbMText
 10
6077.92185080109
 20
8280.014379648003
 30
0.0
 40
120.0
 41
0.0
 71
     5
 72
     1
  1
\A1;123
  7
STYLE1
 11
0.0000000000000001
 21
1.0
 31
0.0
 73
     1
 44
1.0
1001
ACAD
1000
MTEXTBEGIN
1070
    73
1070
     1
1070
    44
1040
1.0
1070
    74
1070
     0
1000
MTEXTEND
  0
POINT
  5
22EF6
330
229E2
100
AcDbEntity
  8
DEFPOINTS
 62
     0
 48
50.0
100
AcDbPoint
 10
7113.600000000001
 20
7966.907777930204
 30
0.0
  0
POINT
  5
22EF7
330
229E2
100
AcDbEntity
  8
DEFPOINTS
 62
     0
 48
50.0
100
AcDbPoint
 10
7186.6
 20
7843.907777930205
 30
0.0
  0
POINT
  5
22EF8
330
229E2
100
AcDbEntity
  8
DEFPOINTS
 62
     0
 48
50.0
100
AcDbPoint
 10
6177.933661824713
 20
7843.907777930205
 30
0.0
  0
ENDBLK
  5
229EE
330
229E2
100
AcDbEntity
  8
0
 48
50.0
100
AcDbBlockEnd
  0
BLOCK
  5
229F8
330
229EF
100
AcDbEntity
  8
0
 48
50.0
100
AcDbBlockBegin
  2
*D23
 70
     1
 10
0.0
 20
0.0
 30
0.0
  3
*D23
  1

  0
LINE
  5
22EE6
330
229EF
100
AcDbEntity
  8
寸法
 62
     0
 48
50.0
370
    -2
100
AcDbLine
 10
7113.600000000001
 20
7986.907777930205
 30
0.0
 11
7113.600000000001
 21
9002.610661598835
 31
0.0
  0
LINE
  5
22EE7
330
229EF
100
AcDbEntity
  8
寸法
 62
     0
 48
50.0
370
    -2
100
AcDbLine
 10
9333.6
 20
7986.907777930205
 30
0.0
 11
9333.6
 21
9002.610661598835
 31
0.0
  0
LINE
  5
22EE8
330
229EF
100
AcDbEntity
  8
寸法
 62
     0
 48
50.0
370
    -2
100
AcDbLine
 10
7113.600000000001
 20
8942.610661598834
 30
0.0
 11
9333.6
 21
8942.610661598834
 31
0.0
  0
INSERT
  5
22EE9
330
229EF
100
AcDbEntity
  8
寸法
 62
     0
 48
50.0
370
    -2
100
AcDbBlockReference
  2
_DOTSMALL
 10
7113.600000000001
 20
8942.610661598834
 30
0.0
 41
100.0
 42
100.0
 43
100.0
 50
180.0
  0
INSERT
  5
22EEA
330
229EF
100
AcDbEntity
  8
寸法
 62
     0
 48
50.0
370
    -2
100
AcDbBlockReference
  2
_DOTSMALL
 10
9333.6
 20
8942.610661598834
 30
0.0
 41
100.0
 42
100.0
 43
100.0
  0
MTEXT
  5
22EEB
330
229EF
100
AcDbEntity
  8
寸法
 62
     7
 48
50.0
100
AcDbMText
 10
8223.600000000001
 20
9042.622472622456
 30
0.0
 40
120.0
 41
0.0
 71
     5
 72
     1
  1
\A1;2220
  7
STYLE1
 73
     1
 44
1.0
1001
ACAD
1000
MTEXTBEGIN
1070
    73
1070
     1
1070
    44
1040
1.0
1070
    74
1070
     0
1000
MTEXTEND
  0
POINT
  5
22EEC
330
229EF
100
AcDbEntity
  8
DEFPOINTS
 62
     0
 48
50.0
100
AcDbPoint
 10
7113.600000000001
 20
7966.907777930204
 30
0.0
  0
POINT
  5
22EED
330
229EF
100
AcDbEntity
  8
DEFPOINTS
 62
     0
 48
50.0
100
AcDbPoint
 10
9333.6
 20
7966.907777930204
 30
0.0
  0
POINT
  5
22EEE
330
229EF
100
AcDbEntity
  8
DEFPOINTS
 62
     0
 48
50.0
100
AcDbPoint
 10
9333.6
 20
8942.610661598834
 30
0.0
  0
ENDBLK
  5
229F9
330
229EF
100
AcDbEntity
  8
0
 48
50.0
100
AcDbBlockEnd
  0
BLOCK
  5
22A03
330
229FA
100
AcDbEntity
  8
0
 48
50.0
100
AcDbBlockBegin
  2
*D24
 70
     1
 10
0.0
 20
0.0
 30
0.0
  3
*D24
  1

  0
LINE
  5
22EDD
330
229FA
100
AcDbEntity
  8
寸法
 62
     0
 48
50.0
370
    -2
100
AcDbLine
 10
9210.600000000001
 20
7913.907777930204
 30
0.0
 11
9210.600000000001
 21
8790.149966081996
 31
0.0
  0
LINE
  5
22EDE
330
229FA
100
AcDbEntity
  8
寸法
 62
     0
 48
50.0
370
    -2
100
AcDbLine
 10
7236.6
 20
7913.907777930204
 30
0.0
 11
7236.6
 21
8790.149966081996
 31
0.0
  0
LINE
  5
22EDF
330
229FA
100
AcDbEntity
  8
寸法
 62
     0
 48
50.0
370
    -2
100
AcDbLine
 10
9210.600000000001
 20
8730.149966081995
 30
0.0
 11
7236.6
 21
8730.149966081995
 31
0.0
  0
INSERT
  5
22EE0
330
229FA
100
AcDbEntity
  8
寸法
 62
     0
 48
50.0
370
    -2
100
AcDbBlockReference
  2
_DOTSMALL
 10
9210.600000000001
 20
8730.149966081995
 30
0.0
 41
100.0
 42
100.0
 43
100.0
  0
INSERT
  5
22EE1
330
229FA
100
AcDbEntity
  8
寸法
 62
     0
 48
50.0
370
    -2
100
AcDbBlockReference
  2
_DOTSMALL
 10
7236.6
 20
8730.149966081995
 30
0.0
 41
100.0
 42
100.0
 43
100.0
 50
180.0
  0
MTEXT
  5
22EE2
330
229FA
100
AcDbEntity
  8
寸法
 62
     7
 48
50.0
100
AcDbMText
 10
8223.600000000001
 20
8830.149966081995
 30
0.0
 40
120.0
 41
0.0
 71
     5
 72
     1
  1
\A1;1974
  7
STYLE1
 73
     1
 44
1.0
1001
ACAD
1000
MTEXTBEGIN
1070
    73
1070
     1
1070
    44
1040
1.0
1070
    74
1070
     0
1000
MTEXTEND
  0
POINT
  5
22EE3
330
229FA
100
AcDbEntity
  8
DEFPOINTS
 62
     0
 48
50.0
100
AcDbPoint
 10
9210.600000000001
 20
7893.907777930204
 30
0.0
  0
POINT
  5
22EE4
330
229FA
100
AcDbEntity
  8
DEFPOINTS
 62
     0
 48
50.0
100
AcDbPoint
 10
7236.6
 20
7893.907777930204
 30
0.0
  0
POINT
  5
22EE5
330
229FA
100
AcDbEntity
  8
DEFPOINTS
 62
     0
 48
50.0
100
AcDbPoint
 10
7236.6
 20
8730.149966081995
 30
0.0
  0
ENDBLK
  5
22A04
330
229FA
100
AcDbEntity
  8
0
 48
50.0
100
AcDbBlockEnd
  0
BLOCK
  5
22A2F
330
22A26
100
AcDbEntity
  8
0
 48
50.0
100
AcDbBlockBegin
  2
*D25
 70
     1
 10
0.0
 20
0.0
 30
0.0
  3
*D25
  1

  0
LINE
  5
22EB7
330
22A26
100
AcDbEntity
  8
寸法
 62
     0
 48
50.0
370
    -2
100
AcDbLine
 10
7093.600000000001
 20
5746.907777930205
 30
0.0
 11
5872.440859686744
 21
5746.907777930206
 31
0.0
  0
LINE
  5
22EB8
330
22A26
100
AcDbEntity
  8
寸法
 62
     0
 48
50.0
370
    -2
100
AcDbLine
 10
7093.600000000001
 20
7966.907777930204
 30
0.0
 11
5872.440859686745
 21
7966.907777930206
 31
0.0
  0
LINE
  5
22EB9
330
22A26
100
AcDbEntity
  8
寸法
 62
     0
 48
50.0
370
    -2
100
AcDbLine
 10
5932.440859686744
 20
5746.907777930206
 30
0.0
 11
5932.440859686745
 21
7966.907777930206
 31
0.0
  0
INSERT
  5
22EBA
330
22A26
100
AcDbEntity
  8
寸法
 62
     0
 48
50.0
370
    -2
100
AcDbBlockReference
  2
_DOTSMALL
 10
5932.440859686744
 20
5746.907777930206
 30
0.0
 41
100.0
 42
100.0
 43
100.0
 50
270.0
  0
INSERT
  5
22EBB
330
22A26
100
AcDbEntity
  8
寸法
 62
     0
 48
50.0
370
    -2
100
AcDbBlockReference
  2
_DOTSMALL
 10
5932.440859686745
 20
7966.907777930206
 30
0.0
 41
100.0
 42
100.0
 43
100.0
 50
90.0
  0
MTEXT
  5
22EBC
330
22A26
100
AcDbEntity
  8
寸法
 62
     7
 48
50.0
100
AcDbMText
 10
5832.429048663122
 20
6802.186058939198
 30
0.0
 40
120.0
 41
0.0
 71
     5
 72
     1
  1
\A1;2220
  7
STYLE1
 11
0.0000000000000001
 21
1.0
 31
0.0
 73
     1
 44
1.0
1001
ACAD
1000
MTEXTBEGIN
1070
    73
1070
     1
1070
    44
1040
1.0
1070
    74
1070
     0
1000
MTEXTEND
  0
POINT
  5
22EBD
330
22A26
100
AcDbEntity
  8
DEFPOINTS
 62
     0
 48
50.0
100
AcDbPoint
 10
7113.600000000001
 20
5746.907777930205
 30
0.0
  0
POINT
  5
22EBE
330
22A26
100
AcDbEntity
  8
DEFPOINTS
 62
     0
 48
50.0
100
AcDbPoint
 10
7113.600000000001
 20
7966.907777930204
 30
0.0
  0
POINT
  5
22EBF
330
22A26
100
AcDbEntity
  8
DEFPOINTS
 62
     0
 48
50.0
100
AcDbPoint
 10
5932.440859686745
 20
7966.907777930206
 30
0.0
  0
ENDBLK
  5
22A30
330
22A26
100
AcDbEntity
  8
0
 48
50.0
100
AcDbBlockEnd
  0
BLOCK
  5
22A3B
330
22A31
100
AcDbEntity
  8
0
 48
50.0
100
AcDbBlockBegin
  2
*D26
 70
     1
 10
0.0
 20
0.0
 30
0.0
  3
*D26
  1

  0
LINE
  5
22EAE
330
22A31
100
AcDbEntity
  8
寸法
 62
     0
 48
50.0
370
    -2
100
AcDbLine
 10
7166.600000000001
 20
7843.907777930205
 30
0.0
 11
6117.933661824714
 21
7843.907777930207
 31
0.0
  0
LINE
  5
22EAF
330
22A31
100
AcDbEntity
  8
寸法
 62
     0
 48
50.0
370
    -2
100
AcDbLine
 10
7166.600000000008
 20
5869.907777930207
 30
0.0
 11
6117.933661824713
 21
5869.907777930208
 31
0.0
  0
LINE
  5
22EB0
330
22A31
100
AcDbEntity
  8
寸法
 62
     0
 48
50.0
370
    -2
100
AcDbLine
 10
6177.933661824714
 20
7843.907777930205
 30
0.0
 11
6177.933661824713
 21
5869.907777930207
 31
0.0
  0
INSERT
  5
22EB1
330
22A31
100
AcDbEntity
  8
寸法
 62
     0
 48
50.0
370
    -2
100
AcDbBlockReference
  2
_DOTSMALL
 10
6177.933661824714
 20
7843.907777930205
 30
0.0
 41
100.0
 42
100.0
 43
100.0
 50
90.0
  0
INSERT
  5
22EB2
330
22A31
100
AcDbEntity
  8
寸法
 62
     0
 48
50.0
370
    -2
100
AcDbBlockReference
  2
_DOTSMALL
 10
6177.933661824713
 20
5869.907777930207
 30
0.0
 41
100.0
 42
100.0
 43
100.0
 50
270.0
  0
MTEXT
  5
22EB3
330
22A31
100
AcDbEntity
  8
寸法
 62
     7
 48
50.0
100
AcDbMText
 10
6077.933661824713
 20
6911.629496921213
 30
0.0
 40
120.0
 41
0.0
 71
     5
 72
     1
  1
\A1;1974
  7
STYLE1
 11
0.0000000000000001
 21
1.0
 31
0.0
 73
     1
 44
1.0
1001
ACAD
1000
MTEXTBEGIN
1070
    73
1070
     1
1070
    44
1040
1.0
1070
    74
1070
     0
1000
MTEXTEND
  0
POINT
  5
22EB4
330
22A31
100
AcDbEntity
  8
DEFPOINTS
 62
     0
 48
50.0
100
AcDbPoint
 10
7186.6
 20
7843.907777930205
 30
0.0
  0
POINT
  5
22EB5
330
22A31
100
AcDbEntity
  8
DEFPOINTS
 62
     0
 48
50.0
100
AcDbPoint
 10
7186.600000000009
 20
5869.907777930207
 30
0.0
  0
POINT
  5
22EB6
330
22A31
100
AcDbEntity
  8
DEFPOINTS
 62
     0
 48
50.0
100
AcDbPoint
 10
6177.933661824713
 20
5869.907777930207
 30
0.0
  0
ENDBLK
  5
22A3C
330
22A31
100
AcDbEntity
  8
0
 48
50.0
100
AcDbBlockEnd
  0
BLOCK
  5
22A48
330
22A3D
100
AcDbEntity
  8
0
 48
50.0
100
AcDbBlockBegin
  2
*D27
 70
     1
 10
0.0
 20
0.0
 30
0.0
  3
*D27
  1

  0
LINE
  5
22EA4
330
22A3D
100
AcDbEntity
  8
寸法
 62
     0
 48
50.0
370
    -2
100
AcDbLine
 10
7166.600000000008
 20
5869.907777930207
 30
0.0
 11
6117.933661824713
 21
5869.907777930208
 31
0.0
  0
LINE
  5
22EA5
330
22A3D
100
AcDbEntity
  8
寸法
 62
     0
 48
50.0
370
    -2
100
AcDbLine
 10
7093.600000000001
 20
5746.907777930205
 30
0.0
 11
6117.933661824713
 21
5746.907777930206
 31
0.0
  0
LINE
  5
22EA6
330
22A3D
100
AcDbEntity
  8
寸法
 62
     0
 48
50.0
370
    -2
100
AcDbLine
 10
6177.933661824713
 20
5869.907777930207
 30
0.0
 11
6177.933661824713
 21
5746.907777930205
 31
0.0
  0
LINE
  5
22EA7
330
22A3D
100
AcDbEntity
  8
寸法
 62
     0
 48
50.0
370
    -2
100
AcDbLine
 10
6177.933661824713
 20
5746.907777930205
 30
0.0
 11
6177.933661824713
 21
5335.315894838166
 31
0.0
  0
INSERT
  5
22EA8
330
22A3D
100
AcDbEntity
  8
寸法
 62
     0
 48
50.0
370
    -2
100
AcDbBlockReference
  2
_DOTSMALL
 10
6177.933661824713
 20
5869.907777930207
 30
0.0
 41
100.0
 42
100.0
 43
100.0
 50
90.0
  0
INSERT
  5
22EA9
330
22A3D
100
AcDbEntity
  8
寸法
 62
     0
 48
50.0
370
    -2
100
AcDbBlockReference
  2
_DOTSMALL
 10
6177.933661824713
 20
5746.907777930205
 30
0.0
 41
100.0
 42
100.0
 43
100.0
 50
270.0
  0
MTEXT
  5
22EAA
330
22A3D
100
AcDbEntity
  8
寸法
 62
     7
 48
50.0
100
AcDbMText
 10
6077.92185080109
 20
5473.801176212408
 30
0.0
 40
120.0
 41
0.0
 71
     5
 72
     1
  1
\A1;123
  7
STYLE1
 11
0.0000000000000001
 21
1.0
 31
0.0
 73
     1
 44
1.0
1001
ACAD
1000
MTEXTBEGIN
1070
    73
1070
     1
1070
    44
1040
1.0
1070
    74
1070
     0
1000
MTEXTEND
  0
POINT
  5
22EAB
330
22A3D
100
AcDbEntity
  8
DEFPOINTS
 62
     0
 48
50.0
100
AcDbPoint
 10
7186.600000000009
 20
5869.907777930207
 30
0.0
  0
POINT
  5
22EAC
330
22A3D
100
AcDbEntity
  8
DEFPOINTS
 62
     0
 48
50.0
100
AcDbPoint
 10
7113.600000000001
 20
5746.907777930205
 30
0.0
  0
POINT
  5
22EAD
330
22A3D
100
AcDbEntity
  8
DEFPOINTS
 62
     0
 48
50.0
100
AcDbPoint
 10
6177.933661824713
 20
5746.907777930205
 30
0.0
  0
ENDBLK
  5
22A49
330
22A3D
100
AcDbEntity
  8
0
 48
50.0
100
AcDbBlockEnd
  0
BLOCK
  5
22A61
330
22A57
100
AcDbEntity
  8
0
 48
50.0
100
AcDbBlockBegin
  2
*D28
 70
     1
 10
0.0
 20
0.0
 30
0.0
  3
*D28
  1

  0
LINE
  5
2379B
330
22A57
100
AcDbEntity
  8
寸法
 62
     0
 48
50.0
370
    -2
100
AcDbLine
 10
7093.600000000001
 20
5746.907777930205
 30
0.0
 11
6445.246258412047
 21
5746.907777930205
 31
0.0
  0
LINE
  5
2379C
330
22A57
100
AcDbEntity
  8
寸法
 62
     0
 48
50.0
370
    -2
100
AcDbLine
 10
7757.6
 20
6481.907777930205
 30
0.0
 11
6445.246258412048
 21
6481.907777930205
 31
0.0
  0
LINE
  5
2379D
330
22A57
100
AcDbEntity
  8
寸法
 62
     0
 48
50.0
370
    -2
100
AcDbLine
 10
6505.246258412046
 20
5746.907777930205
 30
0.0
 11
6505.246258412047
 21
6481.907777930205
 31
0.0
  0
INSERT
  5
2379E
330
22A57
100
AcDbEntity
  8
寸法
 62
     0
 48
50.0
370
    -2
100
AcDbBlockReference
  2
_DOTSMALL
 10
6505.246258412046
 20
5746.907777930205
 30
0.0
 41
100.0
 42
100.0
 43
100.0
 50
270.0
  0
INSERT
  5
2379F
330
22A57
100
AcDbEntity
  8
寸法
 62
     0
 48
50.0
370
    -2
100
AcDbBlockReference
  2
_DOTSMALL
 10
6505.246258412047
 20
6481.907777930205
 30
0.0
 41
100.0
 42
100.0
 43
100.0
 50
90.0
  0
MTEXT
  5
237A0
330
22A57
100
AcDbEntity
  8
寸法
 62
     7
 48
50.0
100
AcDbMText
 10
6405.246258412046
 20
6118.916108629534
 30
0.0
 40
120.0
 41
0.0
 71
     5
 72
     1
  1
\A1;735
  7
STYLE1
 11
0.0000000000000001
 21
1.0
 31
0.0
 73
     1
 44
1.0
1001
ACAD
1000
MTEXTBEGIN
1070
    73
1070
     1
1070
    44
1040
1.0
1070
    74
1070
     0
1000
MTEXTEND
  0
POINT
  5
237A1
330
22A57
100
AcDbEntity
  8
DEFPOINTS
 62
     0
 48
50.0
100
AcDbPoint
 10
7113.600000000001
 20
5746.907777930205
 30
0.0
  0
POINT
  5
237A2
330
22A57
100
AcDbEntity
  8
DEFPOINTS
 62
     0
 48
50.0
100
AcDbPoint
 10
7777.600000000001
 20
6481.907777930205
 30
0.0
  0
POINT
  5
237A3
330
22A57
100
AcDbEntity
  8
DEFPOINTS
 62
     0
 48
50.0
100
AcDbPoint
 10
6505.246258412047
 20
6481.907777930205
 30
0.0
  0
ENDBLK
  5
22A62
330
22A57
100
AcDbEntity
  8
0
 48
50.0
100
AcDbBlockEnd
  0
BLOCK
  5
22A6E
330
22A63
100
AcDbEntity
  8
0
 48
50.0
100
AcDbBlockBegin
  2
*D29
 70
     1
 10
0.0
 20
0.0
 30
0.0
  3
*D29
  1

  0
LINE
  5
23FAF
330
22A63
100
AcDbEntity
  8
寸法
 62
     0
 48
50.0
370
    -2
100
AcDbLine
 10
7093.600000000001
 20
5671.907777930222
 30
0.0
 11
6789.574894940553
 21
5671.907777930222
 31
0.0
  0
LINE
  5
23FB0
330
22A63
100
AcDbEntity
  8
寸法
 62
     0
 48
50.0
370
    -2
100
AcDbLine
 10
6273.875927838535
 20
5746.907777930205
 30
0.0
 11
6909.574894940553
 21
5746.907777930205
 31
0.0
  0
LINE
  5
23FB1
330
22A63
100
AcDbEntity
  8
寸法
 62
     0
 48
50.0
370
    -2
100
AcDbLine
 10
6849.574894940552
 20
5746.907777930205
 30
0.0
 11
6849.574894940552
 21
5846.907777930205
 31
0.0
  0
LINE
  5
23FB2
330
22A63
100
AcDbEntity
  8
寸法
 62
     0
 48
50.0
370
    -2
100
AcDbLine
 10
6849.574894940552
 20
5671.907777930222
 30
0.0
 11
6849.574894940552
 21
4804.937215181727
 31
0.0
  0
LINE
  5
23FB3
330
22A63
100
AcDbEntity
  8
寸法
 62
     0
 48
50.0
370
    -2
100
AcDbLine
 10
6849.574894940552
 20
5746.907777930205
 30
0.0
 11
6849.574894940552
 21
5671.907777930222
 31
0.0
  0
INSERT
  5
23FB4
330
22A63
100
AcDbEntity
  8
寸法
 62
     0
 48
50.0
370
    -2
100
AcDbBlockReference
  2
_DOTSMALL
 10
6849.574894940552
 20
5746.907777930205
 30
0.0
 41
100.0
 42
100.0
 43
100.0
 50
270.0
  0
INSERT
  5
23FB5
330
22A63
100
AcDbEntity
  8
寸法
 62
     0
 48
50.0
370
    -2
100
AcDbBlockReference
  2
_DOTSMALL
 10
6849.574894940552
 20
5671.907777930222
 30
0.0
 41
100.0
 42
100.0
 43
100.0
 50
90.0
  0
MTEXT
  5
23FB6
330
22A63
100
AcDbEntity
  8
寸法
 62
     7
 48
50.0
100
AcDbMText
 10
6749.57489494055
 20
5138.422496555968
 30
0.0
 40
120.0
 41
0.0
 71
     5
 72
     1
  1
\A1;扉の出75
  7
STYLE1
 11
0.0000000000000001
 21
1.0
 31
0.0
 73
     1
 44
1.0
1001
ACAD
1000
MTEXTBEGIN
1070
    73
1070
     1
1070
    44
1040
1.0
1070
    74
1070
     0
1000
MTEXTEND
  0
POINT
  5
23FB7
330
22A63
100
AcDbEntity
  8
DEFPOINTS
 62
     0
 48
50.0
100
AcDbPoint
 10
7113.600000000001
 20
5671.907777930222
 30
0.0
  0
POINT
  5
23FB8
330
22A63
100
AcDbEntity
  8
DEFPOINTS
 62
     0
 48
50.0
100
AcDbPoint
 10
6253.875927838535
 20
5746.907777930205
 30
0.0
  0
POINT
  5
23FB9
330
22A63
100
AcDbEntity
  8
DEFPOINTS
 62
     0
 48
50.0
100
AcDbPoint
 10
6849.574894940552
 20
5746.907777930205
 30
0.0
  0
ENDBLK
  5
22A6F
330
22A63
100
AcDbEntity
  8
0
 48
50.0
100
AcDbBlockEnd
  0
BLOCK
  5
22A87
330
22A7D
100
AcDbEntity
  8
0
 48
50.0
100
AcDbBlockBegin
  2
*D30
 70
     1
 10
0.0
 20
0.0
 30
0.0
  3
*D30
  1

  0
LINE
  5
23792
330
22A7D
100
AcDbEntity
  8
寸法
 62
     0
 48
50.0
370
    -2
100
AcDbLine
 10
7757.6
 20
7231.907777930202
 30
0.0
 11
6445.217725433258
 21
7231.907777930202
 31
0.0
  0
LINE
  5
23793
330
22A7D
100
AcDbEntity
  8
寸法
 62
     0
 48
50.0
370
    -2
100
AcDbLine
 10
7757.6
 20
6481.907777930205
 30
0.0
 11
6445.217725433258
 21
6481.907777930205
 31
0.0
  0
LINE
  5
23794
330
22A7D
100
AcDbEntity
  8
寸法
 62
     0
 48
50.0
370
    -2
100
AcDbLine
 10
6505.217725433258
 20
7231.907777930202
 30
0.0
 11
6505.217725433258
 21
6481.907777930205
 31
0.0
  0
INSERT
  5
23795
330
22A7D
100
AcDbEntity
  8
寸法
 62
     0
 48
50.0
370
    -2
100
AcDbBlockReference
  2
_DOTSMALL
 10
6505.217725433258
 20
7231.907777930202
 30
0.0
 41
100.0
 42
100.0
 43
100.0
 50
90.0
  0
INSERT
  5
23796
330
22A7D
100
AcDbEntity
  8
寸法
 62
     0
 48
50.0
370
    -2
100
AcDbBlockReference
  2
_DOTSMALL
 10
6505.217725433258
 20
6481.907777930205
 30
0.0
 41
100.0
 42
100.0
 43
100.0
 50
270.0
  0
MTEXT
  5
23797
330
22A7D
100
AcDbEntity
  8
寸法
 62
     7
 48
50.0
100
AcDbMText
 10
6405.217725433256
 20
6856.907777930207
 30
0.0
 40
120.0
 41
0.0
 71
     5
 72
     1
  1
\A1;750
  7
STYLE1
 11
0.0000000000000001
 21
1.0
 31
0.0
 73
     1
 44
1.0
1001
ACAD
1000
MTEXTBEGIN
1070
    73
1070
     1
1070
    44
1040
1.0
1070
    74
1070
     0
1000
MTEXTEND
  0
POINT
  5
23798
330
22A7D
100
AcDbEntity
  8
DEFPOINTS
 62
     0
 48
50.0
100
AcDbPoint
 10
7777.600000000001
 20
7231.907777930202
 30
0.0
  0
POINT
  5
23799
330
22A7D
100
AcDbEntity
  8
DEFPOINTS
 62
     0
 48
50.0
100
AcDbPoint
 10
7777.600000000001
 20
6481.907777930205
 30
0.0
  0
POINT
  5
2379A
330
22A7D
100
AcDbEntity
  8
DEFPOINTS
 62
     0
 48
50.0
100
AcDbPoint
 10
6505.217725433258
 20
6481.907777930205
 30
0.0
  0
ENDBLK
  5
22A88
330
22A7D
100
AcDbEntity
  8
0
 48
50.0
100
AcDbBlockEnd
  0
BLOCK
  5
22A92
330
22A89
100
AcDbEntity
  8
0
 48
50.0
100
AcDbBlockBegin
  2
*D31
 70
     1
 10
0.0
 20
0.0
 30
0.0
  3
*D31
  1

  0
LINE
  5
23780
330
22A89
100
AcDbEntity
  8
寸法
 62
     0
 48
50.0
370
    -2
100
AcDbLine
 10
7757.6
 20
7231.907777930202
 30
0.0
 11
6445.217725433258
 21
7231.907777930202
 31
0.0
  0
LINE
  5
23781
330
22A89
100
AcDbEntity
  8
寸法
 62
     0
 48
50.0
370
    -2
100
AcDbLine
 10
7093.600000000001
 20
7966.907777930204
 30
0.0
 11
6445.217725433258
 21
7966.907777930204
 31
0.0
  0
LINE
  5
23782
330
22A89
100
AcDbEntity
  8
寸法
 62
     0
 48
50.0
370
    -2
100
AcDbLine
 10
6505.217725433258
 20
7231.907777930202
 30
0.0
 11
6505.217725433258
 21
7966.907777930204
 31
0.0
  0
INSERT
  5
23783
330
22A89
100
AcDbEntity
  8
寸法
 62
     0
 48
50.0
370
    -2
100
AcDbBlockReference
  2
_DOTSMALL
 10
6505.217725433258
 20
7231.907777930202
 30
0.0
 41
100.0
 42
100.0
 43
100.0
 50
270.0
  0
INSERT
  5
23784
330
22A89
100
AcDbEntity
  8
寸法
 62
     0
 48
50.0
370
    -2
100
AcDbBlockReference
  2
_DOTSMALL
 10
6505.217725433258
 20
7966.907777930204
 30
0.0
 41
100.0
 42
100.0
 43
100.0
 50
90.0
  0
MTEXT
  5
23785
330
22A89
100
AcDbEntity
  8
寸法
 62
     7
 48
50.0
100
AcDbMText
 10
6405.217725433257
 20
7599.407777930206
 30
0.0
 40
120.0
 41
0.0
 71
     5
 72
     1
  1
\A1;735
  7
STYLE1
 11
0.0000000000000001
 21
1.0
 31
0.0
 73
     1
 44
1.0
1001
ACAD
1000
MTEXTBEGIN
1070
    73
1070
     1
1070
    44
1040
1.0
1070
    74
1070
     0
1000
MTEXTEND
  0
POINT
  5
23786
330
22A89
100
AcDbEntity
  8
DEFPOINTS
 62
     0
 48
50.0
100
AcDbPoint
 10
7777.600000000001
 20
7231.907777930202
 30
0.0
  0
POINT
  5
23787
330
22A89
100
AcDbEntity
  8
DEFPOINTS
 62
     0
 48
50.0
100
AcDbPoint
 10
7113.600000000001
 20
7966.907777930204
 30
0.0
  0
POINT
  5
23788
330
22A89
100
AcDbEntity
  8
DEFPOINTS
 62
     0
 48
50.0
100
AcDbPoint
 10
6505.217725433258
 20
7966.907777930204
 30
0.0
  0
ENDBLK
  5
22A93
330
22A89
100
AcDbEntity
  8
0
 48
50.0
100
AcDbBlockEnd
  0
BLOCK
  5
22A9F
330
22A94
100
AcDbEntity
  8
0
 48
50.0
100
AcDbBlockBegin
  2
*D32
 70
     1
 10
0.0
 20
0.0
 30
0.0
  3
*D32
  1

  0
LINE
  5
247FC
330
22A94
100
AcDbEntity
  8
寸法
 62
     0
 48
50.0
370
    -2
100
AcDbLine
 10
9213.600000000001
 20
7716.907777930206
 30
0.0
 11
9213.600000000001
 21
7447.704956834113
 31
0.0
  0
LINE
  5
247FD
330
22A94
100
AcDbEntity
  8
寸法
 62
     0
 48
50.0
370
    -2
100
AcDbLine
 10
9103.6
 20
7716.907777930202
 30
0.0
 11
9103.6
 21
7447.704956834113
 31
0.0
  0
LINE
  5
247FE
330
22A94
100
AcDbEntity
  8
寸法
 62
     0
 48
50.0
370
    -2
100
AcDbLine
 10
9213.600000000001
 20
7507.704956834112
 30
0.0
 11
9103.6
 21
7507.704956834112
 31
0.0
  0
LINE
  5
247FF
330
22A94
100
AcDbEntity
  8
寸法
 62
     0
 48
50.0
370
    -2
100
AcDbLine
 10
9103.6
 20
7507.704956834112
 30
0.0
 11
8709.493700787401
 21
7507.704956834112
 31
0.0
  0
INSERT
  5
24800
330
22A94
100
AcDbEntity
  8
寸法
 62
     0
 48
50.0
370
    -2
100
AcDbBlockReference
  2
_DOTSMALL
 10
9213.600000000001
 20
7507.704956834112
 30
0.0
 41
100.0
 42
100.0
 43
100.0
  0
INSERT
  5
24801
330
22A94
100
AcDbEntity
  8
寸法
 62
     0
 48
50.0
370
    -2
100
AcDbBlockReference
  2
_DOTSMALL
 10
9103.6
 20
7507.704956834112
 30
0.0
 41
100.0
 42
100.0
 43
100.0
 50
180.0
  0
MTEXT
  5
24802
330
22A94
100
AcDbEntity
  8
寸法
 62
     7
 48
50.0
100
AcDbMText
 10
8833.540944881891
 20
7607.704956834112
 30
0.0
 40
120.0
 41
0.0
 71
     5
 72
     1
  1
\A1;110
  7
STYLE1
 73
     1
 44
1.0
1001
ACAD
1000
MTEXTBEGIN
1070
    73
1070
     1
1070
    44
1040
1.0
1070
    74
1070
     0
1000
MTEXTEND
  0
POINT
  5
24803
330
22A94
100
AcDbEntity
  8
DEFPOINTS
 62
     0
 48
50.0
100
AcDbPoint
 10
9213.600000000001
 20
7736.907777930206
 30
0.0
  0
POINT
  5
24804
330
22A94
100
AcDbEntity
  8
DEFPOINTS
 62
     0
 48
50.0
100
AcDbPoint
 10
9103.6
 20
7736.907777930203
 30
0.0
  0
POINT
  5
24805
330
22A94
100
AcDbEntity
  8
DEFPOINTS
 62
     0
 48
50.0
100
AcDbPoint
 10
9103.6
 20
7507.704956834112
 30
0.0
  0
ENDBLK
  5
22AA0
330
22A94
100
AcDbEntity
  8
0
 48
50.0
100
AcDbBlockEnd
  0
BLOCK
  5
23590
330
23586
100
AcDbEntity
  8
0
 48
50.0
100
AcDbBlockBegin
  2
*D33
 70
     1
 10
0.0
 20
0.0
 30
0.0
  3
*D33
  1

  0
LINE
  5
23777
330
23586
100
AcDbEntity
  8
寸法
 62
     0
 48
50.0
370
    -2
100
AcDbLine
 10
7877.6
 20
7301.907777930202
 30
0.0
 11
7877.6
 21
8553.817543578531
 31
0.0
  0
LINE
  5
23778
330
23586
100
AcDbEntity
  8
寸法
 62
     0
 48
50.0
370
    -2
100
AcDbLine
 10
8569.600000000001
 20
7301.907777930202
 30
0.0
 11
8569.600000000001
 21
8553.817543578531
 31
0.0
  0
LINE
  5
23779
330
23586
100
AcDbEntity
  8
寸法
 62
     0
 48
50.0
370
    -2
100
AcDbLine
 10
7877.6
 20
8493.817543578533
 30
0.0
 11
8569.600000000001
 21
8493.817543578533
 31
0.0
  0
INSERT
  5
2377A
330
23586
100
AcDbEntity
  8
寸法
 62
     0
 48
50.0
370
    -2
100
AcDbBlockReference
  2
_DOTSMALL
 10
7877.6
 20
8493.817543578533
 30
0.0
 41
100.0
 42
100.0
 43
100.0
 50
180.0
  0
INSERT
  5
2377B
330
23586
100
AcDbEntity
  8
寸法
 62
     0
 48
50.0
370
    -2
100
AcDbBlockReference
  2
_DOTSMALL
 10
8569.600000000001
 20
8493.817543578533
 30
0.0
 41
100.0
 42
100.0
 43
100.0
  0
MTEXT
  5
2377C
330
23586
100
AcDbEntity
  8
寸法
 62
     7
 48
50.0
100
AcDbMText
 10
8223.600000000001
 20
8593.858356143334
 30
0.0
 40
120.0
 41
0.0
 71
     5
 72
     1
  1
\A1;692
  7
STYLE1
 73
     1
 44
1.0
1001
ACAD
1000
MTEXTBEGIN
1070
    73
1070
     1
1070
    44
1040
1.0
1070
    74
1070
     0
1000
MTEXTEND
  0
POINT
  5
2377D
330
23586
100
AcDbEntity
  8
DEFPOINTS
 62
     0
 48
50.0
100
AcDbPoint
 10
7877.6
 20
7281.907777930202
 30
0.0
  0
POINT
  5
2377E
330
23586
100
AcDbEntity
  8
DEFPOINTS
 62
     0
 48
50.0
100
AcDbPoint
 10
8569.600000000001
 20
7281.907777930202
 30
0.0
  0
POINT
  5
2377F
330
23586
100
AcDbEntity
  8
DEFPOINTS
 62
     0
 48
50.0
100
AcDbPoint
 10
8569.600000000001
 20
8493.817543578533
 30
0.0
  0
ENDBLK
  5
23591
330
23586
100
AcDbEntity
  8
0
 48
50.0
100
AcDbBlockEnd
  0
BLOCK
  5
2359C
330
23592
100
AcDbEntity
  8
0
 48
50.0
100
AcDbBlockBegin
  2
*D34
 70
     1
 10
0.0
 20
0.0
 30
0.0
  3
*D34
  1

  0
LINE
  5
2376E
330
23592
100
AcDbEntity
  8
寸法
 62
     0
 48
50.0
370
    -2
100
AcDbLine
 10
7877.6
 20
7301.907777930202
 30
0.0
 11
7877.6
 21
8553.817543578531
 31
0.0
  0
LINE
  5
2376F
330
23592
100
AcDbEntity
  8
寸法
 62
     0
 48
50.0
370
    -2
100
AcDbLine
 10
7113.599999999998
 20
7986.907777930205
 30
0.0
 11
7113.599999999998
 21
8553.817543578531
 31
0.0
  0
LINE
  5
23770
330
23592
100
AcDbEntity
  8
寸法
 62
     0
 48
50.0
370
    -2
100
AcDbLine
 10
7877.6
 20
8493.817543578533
 30
0.0
 11
7113.599999999998
 21
8493.817543578533
 31
0.0
  0
INSERT
  5
23771
330
23592
100
AcDbEntity
  8
寸法
 62
     0
 48
50.0
370
    -2
100
AcDbBlockReference
  2
_DOTSMALL
 10
7877.6
 20
8493.817543578533
 30
0.0
 41
100.0
 42
100.0
 43
100.0
  0
INSERT
  5
23772
330
23592
100
AcDbEntity
  8
寸法
 62
     0
 48
50.0
370
    -2
100
AcDbBlockReference
  2
_DOTSMALL
 10
7113.599999999998
 20
8493.817543578533
 30
0.0
 41
100.0
 42
100.0
 43
100.0
 50
180.0
  0
MTEXT
  5
23773
330
23592
100
AcDbEntity
  8
寸法
 62
     7
 48
50.0
100
AcDbMText
 10
7495.599999999999
 20
8593.817543578532
 30
0.0
 40
120.0
 41
0.0
 71
     5
 72
     1
  1
\A1;764
  7
STYLE1
 73
     1
 44
1.0
1001
ACAD
1000
MTEXTBEGIN
1070
    73
1070
     1
1070
    44
1040
1.0
1070
    74
1070
     0
1000
MTEXTEND
  0
POINT
  5
23774
330
23592
100
AcDbEntity
  8
DEFPOINTS
 62
     0
 48
50.0
100
AcDbPoint
 10
7877.6
 20
7281.907777930202
 30
0.0
  0
POINT
  5
23775
330
23592
100
AcDbEntity
  8
DEFPOINTS
 62
     0
 48
50.0
100
AcDbPoint
 10
7113.599999999998
 20
7966.907777930204
 30
0.0
  0
POINT
  5
23776
330
23592
100
AcDbEntity
  8
DEFPOINTS
 62
     0
 48
50.0
100
AcDbPoint
 10
7113.599999999998
 20
8493.817543578533
 30
0.0
  0
ENDBLK
  5
2359D
330
23592
100
AcDbEntity
  8
0
 48
50.0
100
AcDbBlockEnd
  0
BLOCK
  5
235A8
330
2359E
100
AcDbEntity
  8
0
 48
50.0
100
AcDbBlockBegin
  2
*D35
 70
     1
 10
0.0
 20
0.0
 30
0.0
  3
*D35
  1

  0
LINE
  5
23765
330
2359E
100
AcDbEntity
  8
寸法
 62
     0
 48
50.0
370
    -2
100
AcDbLine
 10
9333.599999999997
 20
7986.907777930205
 30
0.0
 11
9333.599999999997
 21
8553.817543578531
 31
0.0
  0
LINE
  5
23766
330
2359E
100
AcDbEntity
  8
寸法
 62
     0
 48
50.0
370
    -2
100
AcDbLine
 10
8569.600000000001
 20
7301.907777930202
 30
0.0
 11
8569.600000000001
 21
8553.817543578531
 31
0.0
  0
LINE
  5
23767
330
2359E
100
AcDbEntity
  8
寸法
 62
     0
 48
50.0
370
    -2
100
AcDbLine
 10
9333.599999999997
 20
8493.817543578533
 30
0.0
 11
8569.600000000001
 21
8493.817543578533
 31
0.0
  0
MTEXT
  5
23768
330
2359E
100
AcDbEntity
  8
寸法
 62
     7
 48
50.0
100
AcDbMText
 10
8910.370135182452
 20
8592.079508885541
 30
0.0
 40
120.0
 41
0.0
 71
     5
 72
     1
  1
\A1;764
  7
STYLE1
 73
     1
 44
1.0
1001
ACAD
1000
MTEXTBEGIN
1070
    73
1070
     1
1070
    44
1040
1.0
1070
    74
1070
     0
1000
MTEXTEND
  0
INSERT
  5
23769
330
2359E
100
AcDbEntity
  8
寸法
 62
     0
 48
50.0
370
    -2
100
AcDbBlockReference
  2
_DOTSMALL
 10
9333.599999999997
 20
8493.817543578533
 30
0.0
 41
100.0
 42
100.0
 43
100.0
  0
INSERT
  5
2376A
330
2359E
100
AcDbEntity
  8
寸法
 62
     0
 48
50.0
370
    -2
100
AcDbBlockReference
  2
_DOTSMALL
 10
8569.600000000001
 20
8493.817543578533
 30
0.0
 41
100.0
 42
100.0
 43
100.0
 50
180.0
  0
POINT
  5
2376B
330
2359E
100
AcDbEntity
  8
DEFPOINTS
 62
     0
 48
50.0
100
AcDbPoint
 10
9333.599999999997
 20
7966.907777930204
 30
0.0
  0
POINT
  5
2376C
330
2359E
100
AcDbEntity
  8
DEFPOINTS
 62
     0
 48
50.0
100
AcDbPoint
 10
8569.600000000001
 20
7281.907777930202
 30
0.0
  0
POINT
  5
2376D
330
2359E
100
AcDbEntity
  8
DEFPOINTS
 62
     0
 48
50.0
100
AcDbPoint
 10
8569.600000000001
 20
8493.817543578533
 30
0.0
  0
ENDBLK
  5
235A9
330
2359E
100
AcDbEntity
  8
0
 48
50.0
100
AcDbBlockEnd
  0
BLOCK
  5
23DB3
330
23DA8
100
AcDbEntity
  8
0
 48
50.0
100
AcDbBlockBegin
  2
*D36
 70
     1
 10
0.0
 20
0.0
 30
0.0
  3
*D36
  1

  0
LINE
  5
247F2
330
23DA8
100
AcDbEntity
  8
寸法
 62
     0
 48
50.0
370
    -2
100
AcDbLine
 10
7363.600000000001
 20
5671.907777930219
 30
0.0
 11
7632.938460046266
 21
5671.907777930219
 31
0.0
  0
LINE
  5
247F3
330
23DA8
100
AcDbEntity
  8
寸法
 62
     0
 48
50.0
370
    -2
100
AcDbLine
 10
7363.600000000002
 20
5866.907777930192
 30
0.0
 11
7632.938460046266
 21
5866.907777930192
 31
0.0
  0
LINE
  5
247F4
330
23DA8
100
AcDbEntity
  8
寸法
 62
     0
 48
50.0
370
    -2
100
AcDbLine
 10
7572.938460046265
 20
5866.907777930192
 30
0.0
 11
7572.938460046265
 21
5671.907777930219
 31
0.0
  0
LINE
  5
247F5
330
23DA8
100
AcDbEntity
  8
寸法
 62
     0
 48
50.0
370
    -2
100
AcDbLine
 10
7572.938460046265
 20
5671.907777930219
 30
0.0
 11
7572.938460046265
 21
5294.517895522429
 31
0.0
  0
INSERT
  5
247F6
330
23DA8
100
AcDbEntity
  8
寸法
 62
     0
 48
50.0
370
    -2
100
AcDbBlockReference
  2
_DOTSMALL
 10
7572.938460046265
 20
5866.907777930192
 30
0.0
 41
100.0
 42
100.0
 43
100.0
 50
90.0
  0
INSERT
  5
247F7
330
23DA8
100
AcDbEntity
  8
寸法
 62
     0
 48
50.0
370
    -2
100
AcDbBlockReference
  2
_DOTSMALL
 10
7572.938460046265
 20
5671.907777930219
 30
0.0
 41
100.0
 42
100.0
 43
100.0
 50
270.0
  0
MTEXT
  5
247F8
330
23DA8
100
AcDbEntity
  8
寸法
 62
     7
 48
50.0
100
AcDbMText
 10
7472.938460046265
 20
5433.212836726326
 30
0.0
 40
120.0
 41
0.0
 71
     5
 72
     1
  1
\A1;195
  7
STYLE1
 11
0.0000000000000001
 21
1.0
 31
0.0
 73
     1
 44
1.0
1001
ACAD
1000
MTEXTBEGIN
1070
    73
1070
     1
1070
    44
1040
1.0
1070
    74
1070
     0
1000
MTEXTEND
  0
POINT
  5
247F9
330
23DA8
100
AcDbEntity
  8
DEFPOINTS
 62
     0
 48
50.0
100
AcDbPoint
 10
7343.600000000001
 20
5671.907777930219
 30
0.0
  0
POINT
  5
247FA
330
23DA8
100
AcDbEntity
  8
DEFPOINTS
 62
     0
 48
50.0
100
AcDbPoint
 10
7343.600000000002
 20
5866.907777930192
 30
0.0
  0
POINT
  5
247FB
330
23DA8
100
AcDbEntity
  8
DEFPOINTS
 62
     0
 48
50.0
100
AcDbPoint
 10
7572.938460046265
 20
5866.907777930192
 30
0.0
  0
ENDBLK
  5
23DB4
330
23DA8
100
AcDbEntity
  8
0
 48
50.0
100
AcDbBlockEnd
  0
BLOCK
  5
23DC0
330
23DB5
100
AcDbEntity
  8
0
 48
50.0
100
AcDbBlockBegin
  2
*D37
 70
     1
 10
0.0
 20
0.0
 30
0.0
  3
*D37
  1

  0
LINE
  5
247E8
330
23DB5
100
AcDbEntity
  8
寸法
 62
     0
 48
50.0
370
    -2
100
AcDbLine
 10
7363.600000000001
 20
5866.907777930208
 30
0.0
 11
7632.938460046266
 21
5866.907777930208
 31
0.0
  0
LINE
  5
247E9
330
23DB5
100
AcDbEntity
  8
寸法
 62
     0
 48
50.0
370
    -2
100
AcDbLine
 10
7363.600000000002
 20
5976.90777793022
 30
0.0
 11
7632.938460046266
 21
5976.90777793022
 31
0.0
  0
LINE
  5
247EA
330
23DB5
100
AcDbEntity
  8
寸法
 62
     0
 48
50.0
370
    -2
100
AcDbLine
 10
7572.938460046265
 20
5866.907777930208
 30
0.0
 11
7572.938460046265
 21
5976.90777793022
 31
0.0
  0
LINE
  5
247EB
330
23DB5
100
AcDbEntity
  8
寸法
 62
     0
 48
50.0
370
    -2
100
AcDbLine
 10
7572.938460046265
 20
5976.90777793022
 30
0.0
 11
7572.938460046266
 21
6337.002266119196
 31
0.0
  0
INSERT
  5
247EC
330
23DB5
100
AcDbEntity
  8
寸法
 62
     0
 48
50.0
370
    -2
100
AcDbBlockReference
  2
_DOTSMALL
 10
7572.938460046265
 20
5866.907777930208
 30
0.0
 41
100.0
 42
100.0
 43
100.0
 50
270.0
  0
INSERT
  5
247ED
330
23DB5
100
AcDbEntity
  8
寸法
 62
     0
 48
50.0
370
    -2
100
AcDbBlockReference
  2
_DOTSMALL
 10
7572.938460046265
 20
5976.90777793022
 30
0.0
 41
100.0
 42
100.0
 43
100.0
 50
90.0
  0
MTEXT
  5
247EE
330
23DB5
100
AcDbEntity
  8
寸法
 62
     7
 48
50.0
100
AcDbMText
 10
7472.938460046265
 20
6212.95502202471
 30
0.0
 40
120.0
 41
0.0
 71
     5
 72
     1
  1
\A1;110
  7
STYLE1
 11
0.0000000000000001
 21
1.0
 31
0.0
 73
     1
 44
1.0
1001
ACAD
1000
MTEXTBEGIN
1070
    73
1070
     1
1070
    44
1040
1.0
1070
    74
1070
     0
1000
MTEXTEND
  0
POINT
  5
247EF
330
23DB5
100
AcDbEntity
  8
DEFPOINTS
 62
     0
 48
50.0
100
AcDbPoint
 10
7343.600000000001
 20
5866.907777930208
 30
0.0
  0
POINT
  5
247F0
330
23DB5
100
AcDbEntity
  8
DEFPOINTS
 62
     0
 48
50.0
100
AcDbPoint
 10
7343.600000000002
 20
5976.90777793022
 30
0.0
  0
POINT
  5
247F1
330
23DB5
100
AcDbEntity
  8
DEFPOINTS
 62
     0
 48
50.0
100
AcDbPoint
 10
7572.938460046265
 20
5976.90777793022
 30
0.0
  0
ENDBLK
  5
23DC1
330
23DB5
100
AcDbEntity
  8
0
 48
50.0
100
AcDbBlockEnd
  0
BLOCK
  5
23DCC
330
23DC2
100
AcDbEntity
  8
0
 48
50.0
100
AcDbBlockBegin
  2
*D38
 70
     1
 10
0.0
 20
0.0
 30
0.0
  3
*D38
  1

  0
LINE
  5
23FBA
330
23DC2
100
AcDbEntity
  8
寸法
 62
     0
 48
50.0
370
    -2
100
AcDbLine
 10
9333.6
 20
5651.90777793024
 30
0.0
 11
9333.6
 21
4897.043474506094
 31
0.0
  0
LINE
  5
23FBB
330
23DC2
100
AcDbEntity
  8
寸法
 62
     0
 48
50.0
370
    -2
100
AcDbLine
 10
7113.600000000001
 20
5651.907777930205
 30
0.0
 11
7113.600000000001
 21
4897.043474506094
 31
0.0
  0
LINE
  5
23FBC
330
23DC2
100
AcDbEntity
  8
寸法
 62
     0
 48
50.0
370
    -2
100
AcDbLine
 10
9333.6
 20
4957.043474506095
 30
0.0
 11
7113.600000000001
 21
4957.043474506095
 31
0.0
  0
INSERT
  5
23FBD
330
23DC2
100
AcDbEntity
  8
寸法
 62
     0
 48
50.0
370
    -2
100
AcDbBlockReference
  2
_DOTSMALL
 10
9333.6
 20
4957.043474506095
 30
0.0
 41
100.0
 42
100.0
 43
100.0
  0
INSERT
  5
23FBE
330
23DC2
100
AcDbEntity
  8
寸法
 62
     0
 48
50.0
370
    -2
100
AcDbBlockReference
  2
_DOTSMALL
 10
7113.600000000001
 20
4957.043474506095
 30
0.0
 41
100.0
 42
100.0
 43
100.0
 50
180.0
  0
MTEXT
  5
23FBF
330
23DC2
100
AcDbEntity
  8
寸法
 62
     7
 48
50.0
100
AcDbMText
 10
8223.600000000001
 20
5057.055285529717
 30
0.0
 40
120.0
 41
0.0
 71
     5
 72
     1
  1
\A1;扉の幅 2220
  7
STYLE1
 73
     1
 44
1.0
1001
ACAD
1000
MTEXTBEGIN
1070
    73
1070
     1
1070
    44
1040
1.0
1070
    74
1070
     0
1000
MTEXTEND
  0
POINT
  5
23FC0
330
23DC2
100
AcDbEntity
  8
DEFPOINTS
 62
     0
 48
50.0
100
AcDbPoint
 10
9333.6
 20
5671.907777930241
 30
0.0
  0
POINT
  5
23FC1
330
23DC2
100
AcDbEntity
  8
DEFPOINTS
 62
     0
 48
50.0
100
AcDbPoint
 10
7113.600000000001
 20
5671.907777930205
 30
0.0
  0
POINT
  5
23FC2
330
23DC2
100
AcDbEntity
  8
DEFPOINTS
 62
     0
 48
50.0
100
AcDbPoint
 10
7113.600000000001
 20
4957.043474506095
 30
0.0
  0
ENDBLK
  5
23DCD
330
23DC2
100
AcDbEntity
  8
0
 48
50.0
100
AcDbBlockEnd
  0
BLOCK
  5
241D9
330
241CD
100
AcDbEntity
  8
0
 48
50.0
100
AcDbBlockBegin
  2
*D39
 70
     1
 10
0.0
 20
0.0
 30
0.0
  3
*D39
  1

  0
LINE
  5
2440C
330
241CD
100
AcDbEntity
  8
寸法
 62
     0
 48
50.0
370
    -2
100
AcDbLine
 10
6157.93366182471
 20
5701.295673787286
 30
0.0
 11
5872.440859686744
 21
5701.295673787288
 31
0.0
  0
LINE
  5
2440D
330
241CD
100
AcDbEntity
  8
寸法
 62
     0
 48
50.0
370
    -2
100
AcDbLine
 10
7093.600000000001
 20
5746.907777930205
 30
0.0
 11
5872.440859686744
 21
5746.907777930206
 31
0.0
  0
LINE
  5
2440E
330
241CD
100
AcDbEntity
  8
寸法
 62
     0
 48
50.0
370
    -2
100
AcDbLine
 10
5932.440859686744
 20
5746.907777930206
 30
0.0
 11
5932.440859686744
 21
5846.907777930206
 31
0.0
  0
LINE
  5
2440F
330
241CD
100
AcDbEntity
  8
寸法
 62
     0
 48
50.0
370
    -2
100
AcDbLine
 10
5932.440859686744
 20
5701.295673787288
 30
0.0
 11
5932.440859686744
 21
5368.946431382369
 31
0.0
  0
LINE
  5
24410
330
241CD
100
AcDbEntity
  8
寸法
 62
     0
 48
50.0
370
    -2
100
AcDbLine
 10
5932.440859686744
 20
5746.907777930206
 30
0.0
 11
5932.440859686744
 21
5701.295673787288
 31
0.0
  0
INSERT
  5
24411
330
241CD
100
AcDbEntity
  8
寸法
 62
     0
 48
50.0
370
    -2
100
AcDbBlockReference
  2
_DOTSMALL
 10
5932.440859686744
 20
5746.907777930206
 30
0.0
 41
100.0
 42
100.0
 43
100.0
 50
270.0
  0
INSERT
  5
24412
330
241CD
100
AcDbEntity
  8
寸法
 62
     0
 48
50.0
370
    -2
100
AcDbBlockReference
  2
_DOTSMALL
 10
5932.440859686744
 20
5701.295673787288
 30
0.0
 41
100.0
 42
100.0
 43
100.0
 50
90.0
  0
MTEXT
  5
24413
330
241CD
100
AcDbEntity
  8
寸法
 62
     7
 48
50.0
100
AcDbMText
 10
5832.440859686744
 20
5435.121052584827
 30
0.0
 40
120.0
 41
0.0
 71
     5
 72
     1
  1
\A1;a
  7
STYLE1
 11
0.0000000000000001
 21
1.0
 31
0.0
 73
     1
 44
1.0
1001
ACAD
1000
MTEXTBEGIN
1070
    73
1070
     1
1070
    44
1040
1.0
1070
    74
1070
     0
1000
MTEXTEND
  0
POINT
  5
24414
330
241CD
100
AcDbEntity
  8
DEFPOINTS
 62
     0
 48
50.0
100
AcDbPoint
 10
6177.93366182471
 20
5701.295673787286
 30
0.0
  0
POINT
  5
24415
330
241CD
100
AcDbEntity
  8
DEFPOINTS
 62
     0
 48
50.0
100
AcDbPoint
 10
7113.600000000001
 20
5746.907777930205
 30
0.0
  0
POINT
  5
24416
330
241CD
100
AcDbEntity
  8
DEFPOINTS
 62
     0
 48
50.0
100
AcDbPoint
 10
5932.440859686744
 20
5746.907777930206
 30
0.0
  0
ENDBLK
  5
241DA
330
241CD
100
AcDbEntity
  8
0
 48
50.0
100
AcDbBlockEnd
  0
BLOCK
  5
241E7
330
241DB
100
AcDbEntity
  8
0
 48
50.0
100
AcDbBlockBegin
  2
*D40
 70
     1
 10
0.0
 20
0.0
 30
0.0
  3
*D40
  1

  0
LINE
  5
243E0
330
241DB
100
AcDbEntity
  8
寸法
 62
     0
 48
50.0
370
    -2
100
AcDbLine
 10
7113.600000000001
 20
7986.907777930206
 30
0.0
 11
7113.600000000001
 21
9002.610661598835
 31
0.0
  0
LINE
  5
243E1
330
241DB
100
AcDbEntity
  8
寸法
 62
     0
 48
50.0
370
    -2
100
AcDbLine
 10
7058.600000000012
 20
8750.149966081997
 30
0.0
 11
7058.600000000012
 21
9002.610661598835
 31
0.0
  0
LINE
  5
243E2
330
241DB
100
AcDbEntity
  8
寸法
 62
     0
 48
50.0
370
    -2
100
AcDbLine
 10
7113.600000000001
 20
8942.610661598834
 30
0.0
 11
7213.600000000001
 21
8942.610661598834
 31
0.0
  0
LINE
  5
243E3
330
241DB
100
AcDbEntity
  8
寸法
 62
     0
 48
50.0
370
    -2
100
AcDbLine
 10
7058.600000000012
 20
8942.610661598834
 30
0.0
 11
6958.600000000012
 21
8942.610661598834
 31
0.0
  0
LINE
  5
243E4
330
241DB
100
AcDbEntity
  8
寸法
 62
     0
 48
50.0
370
    -2
100
AcDbLine
 10
7113.600000000001
 20
8942.610661598834
 30
0.0
 11
7058.600000000012
 21
8942.610661598834
 31
0.0
  0
INSERT
  5
243E5
330
241DB
100
AcDbEntity
  8
寸法
 62
     0
 48
50.0
370
    -2
100
AcDbBlockReference
  2
_DOTSMALL
 10
7113.600000000001
 20
8942.610661598834
 30
0.0
 41
100.0
 42
100.0
 43
100.0
 50
180.0
  0
INSERT
  5
243E6
330
241DB
100
AcDbEntity
  8
寸法
 62
     0
 48
50.0
370
    -2
100
AcDbBlockReference
  2
_DOTSMALL
 10
7058.600000000012
 20
8942.610661598834
 30
0.0
 41
100.0
 42
100.0
 43
100.0
  0
MTEXT
  5
243E7
330
241DB
100
AcDbEntity
  8
寸法
 62
     7
 48
50.0
100
AcDbMText
 10
7086.100000000006
 20
9042.610661598834
 30
0.0
 40
120.0
 41
0.0
 71
     5
 72
     1
  1
\A1;b
  7
STYLE1
 73
     1
 44
1.0
1001
ACAD
1000
MTEXTBEGIN
1070
    73
1070
     1
1070
    44
1040
1.0
1070
    74
1070
     0
1000
MTEXTEND
  0
POINT
  5
243E8
330
241DB
100
AcDbEntity
  8
DEFPOINTS
 62
     0
 48
50.0
100
AcDbPoint
 10
7113.600000000001
 20
7966.907777930206
 30
0.0
  0
POINT
  5
243E9
330
241DB
100
AcDbEntity
  8
DEFPOINTS
 62
     0
 48
50.0
100
AcDbPoint
 10
7058.600000000012
 20
8730.149966081997
 30
0.0
  0
POINT
  5
243EA
330
241DB
100
AcDbEntity
  8
DEFPOINTS
 62
     0
 48
50.0
100
AcDbPoint
 10
7058.600000000012
 20
8942.610661598834
 30
0.0
  0
ENDBLK
  5
241E8
330
241DB
100
AcDbEntity
  8
0
 48
50.0
100
AcDbBlockEnd
  0
BLOCK
  5
241F5
330
241E9
100
AcDbEntity
  8
0
 48
50.0
100
AcDbBlockBegin
  2
*D41
 70
     1
 10
0.0
 20
0.0
 30
0.0
  3
*D41
  1

  0
LINE
  5
243D5
330
241E9
100
AcDbEntity
  8
寸法
 62
     0
 48
50.0
370
    -2
100
AcDbLine
 10
9408.600000000003
 20
8750.149966081997
 30
0.0
 11
9408.600000000003
 21
9002.610661598835
 31
0.0
  0
LINE
  5
243D6
330
241E9
100
AcDbEntity
  8
寸法
 62
     0
 48
50.0
370
    -2
100
AcDbLine
 10
9333.6
 20
7986.907777930206
 30
0.0
 11
9333.6
 21
9002.610661598835
 31
0.0
  0
LINE
  5
243D7
330
241E9
100
AcDbEntity
  8
寸法
 62
     0
 48
50.0
370
    -2
100
AcDbLine
 10
9408.600000000003
 20
8942.610661598834
 30
0.0
 11
9508.600000000003
 21
8942.610661598834
 31
0.0
  0
LINE
  5
243D8
330
241E9
100
AcDbEntity
  8
寸法
 62
     0
 48
50.0
370
    -2
100
AcDbLine
 10
9333.6
 20
8942.610661598834
 30
0.0
 11
9233.6
 21
8942.610661598834
 31
0.0
  0
LINE
  5
243D9
330
241E9
100
AcDbEntity
  8
寸法
 62
     0
 48
50.0
370
    -2
100
AcDbLine
 10
9408.600000000003
 20
8942.610661598834
 30
0.0
 11
9333.6
 21
8942.610661598834
 31
0.0
  0
INSERT
  5
243DA
330
241E9
100
AcDbEntity
  8
寸法
 62
     0
 48
50.0
370
    -2
100
AcDbBlockReference
  2
_DOTSMALL
 10
9408.600000000003
 20
8942.610661598834
 30
0.0
 41
100.0
 42
100.0
 43
100.0
 50
180.0
  0
INSERT
  5
243DB
330
241E9
100
AcDbEntity
  8
寸法
 62
     0
 48
50.0
370
    -2
100
AcDbBlockReference
  2
_DOTSMALL
 10
9333.6
 20
8942.610661598834
 30
0.0
 41
100.0
 42
100.0
 43
100.0
  0
MTEXT
  5
243DC
330
241E9
100
AcDbEntity
  8
寸法
 62
     7
 48
50.0
100
AcDbMText
 10
9371.100000000003
 20
9042.610661598834
 30
0.0
 40
120.0
 41
0.0
 71
     5
 72
     1
  1
\A1;c
  7
STYLE1
 73
     1
 44
1.0
1001
ACAD
1000
MTEXTBEGIN
1070
    73
1070
     1
1070
    44
1040
1.0
1070
    74
1070
     0
1000
MTEXTEND
  0
POINT
  5
243DD
330
241E9
100
AcDbEntity
  8
DEFPOINTS
 62
     0
 48
50.0
100
AcDbPoint
 10
9408.600000000003
 20
8730.149966081997
 30
0.0
  0
POINT
  5
243DE
330
241E9
100
AcDbEntity
  8
DEFPOINTS
 62
     0
 48
50.0
100
AcDbPoint
 10
9333.6
 20
7966.907777930206
 30
0.0
  0
POINT
  5
243DF
330
241E9
100
AcDbEntity
  8
DEFPOINTS
 62
     0
 48
50.0
100
AcDbPoint
 10
9333.6
 20
8942.610661598834
 30
0.0
  0
ENDBLK
  5
241F6
330
241E9
100
AcDbEntity
  8
0
 48
50.0
100
AcDbBlockEnd
  0
BLOCK
  5
24203
330
241F7
100
AcDbEntity
  8
0
 48
50.0
100
AcDbBlockBegin
  2
*D42
 70
     1
 10
0.0
 20
0.0
 30
0.0
  3
*D42
  1

  0
LINE
  5
243F6
330
241F7
100
AcDbEntity
  8
寸法
 62
     0
 48
50.0
370
    -2
100
AcDbLine
 10
7093.599999999999
 20
7966.907777930204
 30
0.0
 11
5872.440859686745
 21
7966.907777930206
 31
0.0
  0
LINE
  5
243F7
330
241F7
100
AcDbEntity
  8
寸法
 62
     0
 48
50.0
370
    -2
100
AcDbLine
 10
6157.93366182471
 20
8012.519882073107
 30
0.0
 11
5872.440859686745
 21
8012.519882073108
 31
0.0
  0
LINE
  5
243F8
330
241F7
100
AcDbEntity
  8
寸法
 62
     0
 48
50.0
370
    -2
100
AcDbLine
 10
5932.440859686745
 20
7966.907777930206
 30
0.0
 11
5932.440859686745
 21
7866.907777930205
 31
0.0
  0
LINE
  5
243F9
330
241F7
100
AcDbEntity
  8
寸法
 62
     0
 48
50.0
370
    -2
100
AcDbLine
 10
5932.440859686745
 20
8012.519882073108
 30
0.0
 11
5932.440859686745
 21
8349.869124478024
 31
0.0
  0
LINE
  5
243FA
330
241F7
100
AcDbEntity
  8
寸法
 62
     0
 48
50.0
370
    -2
100
AcDbLine
 10
5932.440859686745
 20
7966.907777930206
 30
0.0
 11
5932.440859686745
 21
8012.519882073108
 31
0.0
  0
INSERT
  5
243FB
330
241F7
100
AcDbEntity
  8
寸法
 62
     0
 48
50.0
370
    -2
100
AcDbBlockReference
  2
_DOTSMALL
 10
5932.440859686745
 20
7966.907777930206
 30
0.0
 41
100.0
 42
100.0
 43
100.0
 50
90.0
  0
INSERT
  5
243FC
330
241F7
100
AcDbEntity
  8
寸法
 62
     0
 48
50.0
370
    -2
100
AcDbBlockReference
  2
_DOTSMALL
 10
5932.440859686745
 20
8012.519882073108
 30
0.0
 41
100.0
 42
100.0
 43
100.0
 50
270.0
  0
MTEXT
  5
243FD
330
241F7
100
AcDbEntity
  8
寸法
 62
     7
 48
50.0
100
AcDbMText
 10
5832.440859686744
 20
8283.694503275567
 30
0.0
 40
120.0
 41
0.0
 71
     5
 72
     1
  1
\A1;a
  7
STYLE1
 11
0.0000000000000001
 21
1.0
 31
0.0
 73
     1
 44
1.0
1001
ACAD
1000
MTEXTBEGIN
1070
    73
1070
     1
1070
    44
1040
1.0
1070
    74
1070
     0
1000
MTEXTEND
  0
POINT
  5
243FE
330
241F7
100
AcDbEntity
  8
DEFPOINTS
 62
     0
 48
50.0
100
AcDbPoint
 10
7113.599999999998
 20
7966.907777930204
 30
0.0
  0
POINT
  5
243FF
330
241F7
100
AcDbEntity
  8
DEFPOINTS
 62
     0
 48
50.0
100
AcDbPoint
 10
6177.93366182471
 20
8012.519882073107
 30
0.0
  0
POINT
  5
24400
330
241F7
100
AcDbEntity
  8
DEFPOINTS
 62
     0
 48
50.0
100
AcDbPoint
 10
5932.440859686745
 20
8012.519882073108
 30
0.0
  0
ENDBLK
  5
24204
330
241F7
100
AcDbEntity
  8
0
 48
50.0
100
AcDbBlockEnd
  0
BLOCK
  5
25187
330
2517D
100
AcDbEntity
  8
0
 48
50.0
100
AcDbBlockBegin
  2
*D55
 70
     1
 10
0.0
 20
0.0
 30
0.0
  3
*D55
  1

  0
LINE
  5
251CA
330
2517D
100
AcDbEntity
  8
寸法
 62
     0
 48
50.0
370
    -2
100
AcDbLine
 10
8265.017809354029
 20
2113.519394400295
 30
0.0
 11
8806.886409122872
 21
2113.519394400295
 31
0.0
  0
LINE
  5
251CB
330
2517D
100
AcDbEntity
  8
寸法
 62
     0
 48
50.0
370
    -2
100
AcDbLine
 10
8265.017809354029
 20
1789.519394400294
 30
0.0
 11
8806.886409122872
 21
1789.519394400294
 31
0.0
  0
LINE
  5
251CC
330
2517D
100
AcDbEntity
  8
寸法
 62
     0
 48
50.0
370
    -2
100
AcDbLine
 10
8746.886409122872
 20
2113.519394400295
 30
0.0
 11
8746.886409122872
 21
1789.519394400294
 31
0.0
  0
INSERT
  5
251CD
330
2517D
100
AcDbEntity
  8
寸法
 62
     0
 48
50.0
370
    -2
100
AcDbBlockReference
  2
_DOTSMALL
 10
8746.886409122872
 20
2113.519394400295
 30
0.0
 41
100.0
 42
100.0
 43
100.0
 50
90.0
  0
INSERT
  5
251CE
330
2517D
100
AcDbEntity
  8
寸法
 62
     0
 48
50.0
370
    -2
100
AcDbBlockReference
  2
_DOTSMALL
 10
8746.886409122872
 20
1789.519394400294
 30
0.0
 41
100.0
 42
100.0
 43
100.0
 50
270.0
  0
MTEXT
  5
251CF
330
2517D
100
AcDbEntity
  8
寸法
 62
     7
 48
50.0
100
AcDbMText
 10
8646.886409122872
 20
1951.519394400296
 30
0.0
 40
120.0
 41
0.0
 71
     5
 72
     1
  1
\A1;180
  7
STYLE1
 11
0.0000000000000001
 21
1.0
 31
0.0
 73
     1
 44
1.0
1001
ACAD
1000
MTEXTBEGIN
1070
    73
1070
     1
1070
    44
1040
1.0
1070
    74
1070
     0
1000
MTEXTEND
  0
POINT
  5
251D0
330
2517D
100
AcDbEntity
  8
DEFPOINTS
 62
     0
 48
50.0
100
AcDbPoint
 10
8245.017809354029
 20
2113.519394400295
 30
0.0
  0
POINT
  5
251D1
330
2517D
100
AcDbEntity
  8
DEFPOINTS
 62
     0
 48
50.0
100
AcDbPoint
 10
8245.017809354029
 20
1789.519394400294
 30
0.0
  0
POINT
  5
251D2
330
2517D
100
AcDbEntity
  8
DEFPOINTS
 62
     0
 48
50.0
100
AcDbPoint
 10
8746.886409122872
 20
1789.519394400294
 30
0.0
  0
ENDBLK
  5
25188
330
2517D
100
AcDbEntity
  8
0
 48
50.0
100
AcDbBlockEnd
  0
BLOCK
  5
25198
330
25189
100
AcDbEntity
  8
0
 48
50.0
100
AcDbBlockBegin
  2
*D56
 70
     1
 10
0.0
 20
0.0
 30
0.0
  3
*D56
  1

  0
LINE
  5
251D3
330
25189
100
AcDbEntity
  8
寸法
 62
     0
 48
50.0
370
    -2
100
AcDbLine
 10
8077.81780935403
 20
2166.279394400296
 30
0.0
 11
8806.886409122872
 21
2166.279394400296
 31
0.0
  0
LINE
  5
251D4
330
25189
100
AcDbEntity
  8
寸法
 62
     0
 48
50.0
370
    -2
100
AcDbLine
 10
8265.017809354029
 20
2113.519394400295
 30
0.0
 11
8806.886409122872
 21
2113.519394400295
 31
0.0
  0
LINE
  5
251D5
330
25189
100
AcDbEntity
  8
寸法
 62
     0
 48
50.0
370
    -2
100
AcDbLine
 10
8746.886409122872
 20
2166.279394400296
 30
0.0
 11
8746.886409122872
 21
2266.279394400296
 31
0.0
  0
LINE
  5
251D6
330
25189
100
AcDbEntity
  8
寸法
 62
     0
 48
50.0
370
    -2
100
AcDbLine
 10
8746.886409122872
 20
2113.519394400295
 30
0.0
 11
8746.886409122872
 21
2013.519394400295
 31
0.0
  0
LINE
  5
251D7
330
25189
100
AcDbEntity
  8
寸法
 62
     0
 48
50.0
370
    -2
100
AcDbLine
 10
8746.886409122872
 20
2139.899394400296
 30
0.0
 11
9022.941075241899
 21
2128.395436796082
 31
0.0
  0
LINE
  5
251D8
330
25189
100
AcDbEntity
  8
寸法
 62
     0
 48
50.0
370
    -2
100
AcDbLine
 10
9022.941075241899
 20
2128.395436796082
 30
0.0
 11
9022.941075241899
 21
1596.377629953116
 31
0.0
  0
MTEXT
  5
251D9
330
25189
100
AcDbEntity
  8
寸法
 62
     7
 48
50.0
100
AcDbMText
 10
8922.929264218277
 20
1862.386533374601
 30
0.0
 40
120.0
 41
0.0
 71
     5
 72
     1
  1
\A1;20～25
  7
STYLE1
 11
0.0000000000000001
 21
1.0
 31
0.0
 73
     1
 44
1.0
1001
ACAD
1000
MTEXTBEGIN
1070
    73
1070
     1
1070
    44
1040
1.0
1070
    74
1070
     0
1000
MTEXTEND
  0
LINE
  5
251DA
330
25189
100
AcDbEntity
  8
寸法
 62
     0
 48
50.0
370
    -2
100
AcDbLine
 10
8746.886409122872
 20
2166.279394400296
 30
0.0
 11
8746.886409122872
 21
2113.519394400295
 31
0.0
  0
LINE
  5
251DB
330
25189
100
AcDbEntity
  8
寸法
 62
     0
 48
50.0
370
    -2
100
AcDbLine
 10
8746.886409122872
 20
2166.279394400296
 30
0.0
 11
8746.886409122872
 21
2113.519394400295
 31
0.0
  0
INSERT
  5
251DC
330
25189
100
AcDbEntity
  8
寸法
 62
     0
 48
50.0
370
    -2
100
AcDbBlockReference
  2
_DOTSMALL
 10
8746.886409122872
 20
2166.279394400296
 30
0.0
 41
100.0
 42
100.0
 43
100.0
 50
270.0
  0
INSERT
  5
251DD
330
25189
100
AcDbEntity
  8
寸法
 62
     0
 48
50.0
370
    -2
100
AcDbBlockReference
  2
_DOTSMALL
 10
8746.886409122872
 20
2113.519394400295
 30
0.0
 41
100.0
 42
100.0
 43
100.0
 50
90.0
  0
POINT
  5
251DE
330
25189
100
AcDbEntity
  8
DEFPOINTS
 62
     0
 48
50.0
100
AcDbPoint
 10
8057.81780935403
 20
2166.279394400296
 30
0.0
  0
POINT
  5
251DF
330
25189
100
AcDbEntity
  8
DEFPOINTS
 62
     0
 48
50.0
100
AcDbPoint
 10
8245.017809354029
 20
2113.519394400295
 30
0.0
  0
POINT
  5
251E0
330
25189
100
AcDbEntity
  8
DEFPOINTS
 62
     0
 48
50.0
100
AcDbPoint
 10
8746.886409122872
 20
2113.519394400295
 30
0.0
  0
ENDBLK
  5
25199
330
25189
100
AcDbEntity
  8
0
 48
50.0
100
AcDbBlockEnd
  0
BLOCK
  5
251A4
330
2519A
100
AcDbEntity
  8
0
 48
50.0
100
AcDbBlockBegin
  2
*D57
 70
     1
 10
0.0
 20
0.0
 30
0.0
  3
*D57
  1

  0
LINE
  5
251E1
330
2519A
100
AcDbEntity
  8
寸法
 62
     0
 48
50.0
370
    -2
100
AcDbLine
 10
5982.978496176834
 20
1569.519394400295
 30
0.0
 11
5800.558182444375
 21
1569.519394400295
 31
0.0
  0
LINE
  5
251E2
330
2519A
100
AcDbEntity
  8
寸法
 62
     0
 48
50.0
370
    -2
100
AcDbLine
 10
5902.978496176839
 20
1329.519394400295
 30
0.0
 11
5800.558182444375
 21
1329.519394400295
 31
0.0
  0
LINE
  5
251E3
330
2519A
100
AcDbEntity
  8
寸法
 62
     0
 48
50.0
370
    -2
100
AcDbLine
 10
5860.558182444375
 20
1569.519394400295
 30
0.0
 11
5860.558182444375
 21
1329.519394400295
 31
0.0
  0
MTEXT
  5
251E4
330
2519A
100
AcDbEntity
  8
寸法
 62
     7
 48
50.0
100
AcDbMText
 10
5760.558182444375
 20
1449.519394400295
 30
0.0
 40
120.0
 41
0.0
 71
     5
 72
     1
  1
\A1;150
  7
STYLE1
 11
0.0000000000000001
 21
1.0
 31
0.0
 73
     1
 44
1.0
1001
ACAD
1000
MTEXTBEGIN
1070
    73
1070
     1
1070
    44
1040
1.0
1070
    74
1070
     0
1000
MTEXTEND
  0
INSERT
  5
251E5
330
2519A
100
AcDbEntity
  8
寸法
 62
     0
 48
50.0
370
    -2
100
AcDbBlockReference
  2
_DOTSMALL
 10
5860.558182444375
 20
1569.519394400295
 30
0.0
 41
100.0
 42
100.0
 43
100.0
 50
90.0
  0
INSERT
  5
251E6
330
2519A
100
AcDbEntity
  8
寸法
 62
     0
 48
50.0
370
    -2
100
AcDbBlockReference
  2
_DOTSMALL
 10
5860.558182444375
 20
1329.519394400295
 30
0.0
 41
100.0
 42
100.0
 43
100.0
 50
270.0
  0
POINT
  5
251E7
330
2519A
100
AcDbEntity
  8
DEFPOINTS
 62
     0
 48
50.0
100
AcDbPoint
 10
6002.978496176835
 20
1569.519394400295
 30
0.0
  0
POINT
  5
251E8
330
2519A
100
AcDbEntity
  8
DEFPOINTS
 62
     0
 48
50.0
100
AcDbPoint
 10
5922.978496176838
 20
1329.519394400295
 30
0.0
  0
POINT
  5
251E9
330
2519A
100
AcDbEntity
  8
DEFPOINTS
 62
     0
 48
50.0
100
AcDbPoint
 10
5860.558182444375
 20
1329.519394400295
 30
0.0
  0
ENDBLK
  5
251A5
330
2519A
100
AcDbEntity
  8
0
 48
50.0
100
AcDbBlockEnd
  0
BLOCK
  5
251B0
330
251A6
100
AcDbEntity
  8
0
 48
50.0
100
AcDbBlockBegin
  2
*D58
 70
     1
 10
0.0
 20
0.0
 30
0.0
  3
*D58
  1

  0
LINE
  5
251EA
330
251A6
100
AcDbEntity
  8
寸法
 62
     0
 48
50.0
370
    -2
100
AcDbLine
 10
6110.978496176834
 20
2113.519394400295
 30
0.0
 11
5335.941257615094
 21
2113.519394400295
 31
0.0
  0
LINE
  5
251EB
330
251A6
100
AcDbEntity
  8
寸法
 62
     0
 48
50.0
370
    -2
100
AcDbLine
 10
5902.978496176839
 20
1329.519394400295
 30
0.0
 11
5335.941257615093
 21
1329.519394400295
 31
0.0
  0
LINE
  5
251EC
330
251A6
100
AcDbEntity
  8
寸法
 62
     0
 48
50.0
370
    -2
100
AcDbLine
 10
5395.941257615095
 20
2113.519394400295
 30
0.0
 11
5395.941257615094
 21
1329.519394400295
 31
0.0
  0
MTEXT
  5
251ED
330
251A6
100
AcDbEntity
  8
寸法
 62
     7
 48
50.0
100
AcDbMText
 10
5295.941257615094
 20
1701.059544056295
 30
0.0
 40
120.0
 41
0.0
 71
     5
 72
     1
  1
\A1;540
  7
STYLE1
 11
0.0000000000000001
 21
1.0
 31
0.0
 73
     1
 44
1.0
1001
ACAD
1000
MTEXTBEGIN
1070
    73
1070
     1
1070
    44
1040
1.0
1070
    74
1070
     0
1000
MTEXTEND
  0
INSERT
  5
251EE
330
251A6
100
AcDbEntity
  8
寸法
 62
     0
 48
50.0
370
    -2
100
AcDbBlockReference
  2
_DOTSMALL
 10
5395.941257615095
 20
2113.519394400295
 30
0.0
 41
100.0
 42
100.0
 43
100.0
 50
90.0
  0
INSERT
  5
251EF
330
251A6
100
AcDbEntity
  8
寸法
 62
     0
 48
50.0
370
    -2
100
AcDbBlockReference
  2
_DOTSMALL
 10
5395.941257615094
 20
1329.519394400295
 30
0.0
 41
100.0
 42
100.0
 43
100.0
 50
270.0
  0
POINT
  5
251F0
330
251A6
100
AcDbEntity
  8
DEFPOINTS
 62
     0
 48
50.0
100
AcDbPoint
 10
6130.978496176834
 20
2113.519394400295
 30
0.0
  0
POINT
  5
251F1
330
251A6
100
AcDbEntity
  8
DEFPOINTS
 62
     0
 48
50.0
100
AcDbPoint
 10
5922.978496176838
 20
1329.519394400295
 30
0.0
  0
POINT
  5
251F2
330
251A6
100
AcDbEntity
  8
DEFPOINTS
 62
     0
 48
50.0
100
AcDbPoint
 10
5395.941257615094
 20
1329.519394400295
 30
0.0
  0
ENDBLK
  5
251B1
330
251A6
100
AcDbEntity
  8
0
 48
50.0
100
AcDbBlockEnd
  0
BLOCK
  5
251BC
330
251B2
100
AcDbEntity
  8
0
 48
50.0
100
AcDbBlockBegin
  2
*D59
 70
     1
 10
0.0
 20
0.0
 30
0.0
  3
*D59
  1

  0
LINE
  5
251F3
330
251B2
100
AcDbEntity
  8
寸法
 62
     0
 48
50.0
370
    -2
100
AcDbLine
 10
6002.978496176835
 20
1181.519394400295
 30
0.0
 11
6002.978496176835
 21
731.0897563951348
 31
0.0
  0
LINE
  5
251F4
330
251B2
100
AcDbEntity
  8
寸法
 62
     0
 48
50.0
370
    -2
100
AcDbLine
 10
6450.978496176834
 20
1181.519394400295
 30
0.0
 11
6450.978496176834
 21
731.0897563951348
 31
0.0
  0
LINE
  5
251F5
330
251B2
100
AcDbEntity
  8
寸法
 62
     0
 48
50.0
370
    -2
100
AcDbLine
 10
6002.978496176835
 20
791.0897563951348
 30
0.0
 11
6450.978496176834
 21
791.0897563951348
 31
0.0
  0
MTEXT
  5
251F6
330
251B2
100
AcDbEntity
  8
寸法
 62
     7
 48
50.0
100
AcDbMText
 10
6206.881737498611
 20
891.0897563951348
 30
0.0
 40
120.0
 41
0.0
 71
     5
 72
     1
  1
\A1;300
  7
STYLE1
 73
     1
 44
1.0
1001
ACAD
1000
MTEXTBEGIN
1070
    73
1070
     1
1070
    44
1040
1.0
1070
    74
1070
     0
1000
MTEXTEND
  0
INSERT
  5
251F7
330
251B2
100
AcDbEntity
  8
寸法
 62
     0
 48
50.0
370
    -2
100
AcDbBlockReference
  2
_DOTSMALL
 10
6002.978496176835
 20
791.0897563951348
 30
0.0
 41
100.0
 42
100.0
 43
100.0
 50
180.0
  0
INSERT
  5
251F8
330
251B2
100
AcDbEntity
  8
寸法
 62
     0
 48
50.0
370
    -2
100
AcDbBlockReference
  2
_DOTSMALL
 10
6450.978496176834
 20
791.0897563951348
 30
0.0
 41
100.0
 42
100.0
 43
100.0
  0
POINT
  5
251F9
330
251B2
100
AcDbEntity
  8
DEFPOINTS
 62
     0
 48
50.0
100
AcDbPoint
 10
6002.978496176835
 20
1201.519394400295
 30
0.0
  0
POINT
  5
251FA
330
251B2
100
AcDbEntity
  8
DEFPOINTS
 62
     0
 48
50.0
100
AcDbPoint
 10
6450.978496176834
 20
1201.519394400295
 30
0.0
  0
POINT
  5
251FB
330
251B2
100
AcDbEntity
  8
DEFPOINTS
 62
     0
 48
50.0
100
AcDbPoint
 10
6450.978496176834
 20
791.0897563951348
 30
0.0
  0
ENDBLK
  5
251BD
330
251B2
100
AcDbEntity
  8
0
 48
50.0
100
AcDbBlockEnd
  0
BLOCK
  5
251C8
330
251BE
100
AcDbEntity
  8
0
 48
50.0
100
AcDbBlockBegin
  2
*D60
 70
     1
 10
0.0
 20
0.0
 30
0.0
  3
*D60
  1

  0
LINE
  5
251FC
330
251BE
100
AcDbEntity
  8
寸法
 62
     0
 48
50.0
370
    -2
100
AcDbLine
 10
6322.978496176834
 20
2133.519394400295
 30
0.0
 11
6322.978496176834
 21
2493.519394400295
 31
0.0
  0
LINE
  5
251FD
330
251BE
100
AcDbEntity
  8
寸法
 62
     0
 48
50.0
370
    -2
100
AcDbLine
 10
6130.978496176834
 20
2133.519394400295
 30
0.0
 11
6130.978496176834
 21
2493.519394400295
 31
0.0
  0
LINE
  5
251FE
330
251BE
100
AcDbEntity
  8
寸法
 62
     0
 48
50.0
370
    -2
100
AcDbLine
 10
6322.978496176834
 20
2433.519394400295
 30
0.0
 11
6130.978496176834
 21
2433.519394400295
 31
0.0
  0
MTEXT
  5
251FF
330
251BE
100
AcDbEntity
  8
寸法
 62
     7
 48
50.0
100
AcDbMText
 10
6238.204826522032
 20
2733.199013340298
 30
0.0
 40
120.0
 41
0.0
 71
     5
 72
     1
  1
\A1;120\P195
  7
STYLE1
 73
     1
 44
1.0
1001
ACAD
1000
MTEXTBEGIN
1070
    73
1070
     1
1070
    44
1040
1.0
1070
    74
1070
     0
1000
MTEXTEND
  0
INSERT
  5
25200
330
251BE
100
AcDbEntity
  8
寸法
 62
     0
 48
50.0
370
    -2
100
AcDbBlockReference
  2
_DOTSMALL
 10
6322.978496176834
 20
2433.519394400295
 30
0.0
 41
100.0
 42
100.0
 43
100.0
  0
INSERT
  5
25201
330
251BE
100
AcDbEntity
  8
寸法
 62
     0
 48
50.0
370
    -2
100
AcDbBlockReference
  2
_DOTSMALL
 10
6130.978496176834
 20
2433.519394400295
 30
0.0
 41
100.0
 42
100.0
 43
100.0
 50
180.0
  0
POINT
  5
25202
330
251BE
100
AcDbEntity
  8
DEFPOINTS
 62
     0
 48
50.0
100
AcDbPoint
 10
6322.978496176834
 20
2113.519394400295
 30
0.0
  0
POINT
  5
25203
330
251BE
100
AcDbEntity
  8
DEFPOINTS
 62
     0
 48
50.0
100
AcDbPoint
 10
6130.978496176834
 20
2113.519394400295
 30
0.0
  0
POINT
  5
25204
330
251BE
100
AcDbEntity
  8
DEFPOINTS
 62
     0
 48
50.0
100
AcDbPoint
 10
6130.978496176834
 20
2433.519394400295
 30
0.0
  0
ENDBLK
  5
251C9
330
251BE
100
AcDbEntity
  8
0
 48
50.0
100
AcDbBlockEnd
  0
ENDSEC
  0
SECTION
  2
ENTITIES
  0
MTEXT
  5
763F
330
747D
100
AcDbEntity
  8
0
100
AcDbMText
 10
302.846345836809
 20
280.1983726409901
 30
0.0
 40
3.5
 41
5.323721266742722
 71
     1
 72
     5
  1

  7
MSMINCHO
 73
     1
 44
1.0
1001
ACAD
1000
MTEXTBEGIN
1070
    73
1070
     1
1070
    44
1040
1.0
1070
    74
1070
     0
1000
MTEXTEND
  0
LINE
  5
10B57
330
747D
100
AcDbEntity
  8
補助
  6
PHANTOM
 62
   230
 48
50.0
100
AcDbLine
 10
139.9999999999995
 20
11409.6
 30
0.0
 11
16307.2
 21
11409.6
 31
0.0
  0
LINE
  5
10B59
330
747D
100
AcDbEntity
  8
仕様書枠
  6
Continuous
 48
50.0
100
AcDbLine
 10
13107.2
 20
1200.0
 30
0.0
 11
13107.2
 21
-0.0000000000000729
 31
0.0
  0
LINE
  5
10B5D
330
747D
100
AcDbEntity
  8
仕様書枠
 48
50.0
100
AcDbLine
 10
140.0
 20
0.0
 30
0.0
 11
16307.2
 21
-0.0000000000000909
 31
0.0
  0
LINE
  5
10B5E
330
747D
100
AcDbEntity
  8
補助
  6
PHANTOM
 62
   230
 48
50.0
100
AcDbLine
 10
16307.2
 20
11409.6
 30
0.0
 11
16307.2
 21
1200.0
 31
0.0
  0
LINE
  5
10B6C
330
747D
100
AcDbEntity
  8
仕様書枠
 48
50.0
100
AcDbLine
 10
13107.2
 20
1200.0
 30
0.0
 11
16307.2
 21
1200.0
 31
0.0
  0
TEXT
  5
10B73
330
747D
100
AcDbEntity
  8
文字
 62
     7
 48
50.0
100
AcDbText
 10
13162.9790565769
 20
895.0906074299405
 30
0.0
 40
200.0
  1
基 礎 図
  7
STYLE2
100
AcDbText
  0
LINE
  5
10B7B
330
747D
100
AcDbEntity
  8
仕様書枠
 48
50.0
100
AcDbLine
 10
13107.2
 20
800.0
 30
0.0
 11
14251.2
 21
800.0
 31
0.0
  0
LINE
  5
10B88
330
747D
100
AcDbEntity
  8
仕様書枠
  6
Continuous
 48
50.0
100
AcDbLine
 10
14251.2
 20
1200.0
 30
0.0
 11
14251.2
 21
800.0
 31
0.0
  0
LINE
  5
16462
330
747D
100
AcDbEntity
  8
仕様書枠
 48
50.0
100
AcDbLine
 10
16307.2
 20
1200.0
 30
0.0
 11
16307.2
 21
-0.0000000000000909
 31
0.0
  0
LINE
  5
1903B
330
747D
100
AcDbEntity
  8
補助
  6
PHANTOM
 62
   230
 48
50.0
100
AcDbLine
 10
140.0
 20
0.0
 30
0.0
 11
139.9999999999995
 21
11409.6
 31
0.0
  0
TEXT
  5
1C7A1
330
747D
100
AcDbEntity
  8
文字
 62
     7
 48
50.0
100
AcDbText
 10
13188.16259899338
 20
79.80631269190417
 30
0.0
 40
80.0
  1
※布基礎には換気口を設けてください。
  7
STYLE2
100
AcDbText
  0
TEXT
  5
1C7E7
330
747D
100
AcDbEntity
  8
文字
 62
     7
 48
50.0
100
AcDbText
 10
13188.16259899338
 20
246.7109242801889
 30
0.0
 40
80.0
  1
※寒冷地等は地域の実情に合わせた基礎にして下さい。
  7
STYLE2
100
AcDbText
  0
TEXT
  5
1C7E8
330
747D
100
AcDbEntity
  8
文字
 62
     7
 48
50.0
100
AcDbText
 10
14291.94104885717
 20
499.5983841039506
 30
0.0
 40
160.0
  1
ＮＸＮ－４８ＳＢ/ＨＢ
  7
STYLE2
100
AcDbText
  0
TEXT
  5
1C7E9
330
747D
100
AcDbEntity
  8
文字
 62
     7
 48
50.0
100
AcDbText
 10
14641.2525855784
 20
871.1744590657927
 30
0.0
 40
100.0
  1
～一般型・多雪地型～
  7
STYLE2
100
AcDbText
  0
TEXT
  5
1C7EC
330
747D
100
AcDbEntity
  8
文字
 62
     7
 48
50.0
100
AcDbText
 10
14524.131837222
 20
1031.557706291229
 30
0.0
 40
100.0
  1
      　    <縮尺> S=1/40
  7
STYLE2
100
AcDbText
  0
TEXT
  5
1C7ED
330
747D
100
AcDbEntity
  8
文字
 62
     7
 48
50.0
100
AcDbText
 10
13201.43669998441
 20
477.2740661031257
 30
0.0
 40
160.0
  1
機種名
  7
STYLE2
100
AcDbText
  0
LINE
  5
1C7EF
330
747D
100
AcDbEntity
  8
文字
 62
     7
 48
50.0
100
AcDbLine
 10
13187.2
 20
400.0
 30
0.0
 11
16227.2
 21
400.0
 31
0.0
  0
DIMENSION
  5
22939
330
747D
100
AcDbEntity
  8
寸法
 48
50.0
100
AcDbDimension
  2
*D19
 10
9210.600000000001
 20
8730.149966081995
 30
0.0
 11
9606.706601717799
 21
8730.149966081995
 31
0.0
 70
   160
 71
     5
 42
123.0
  3
INABA_S40G
100
AcDbAlignedDimension
 13
9333.6
 23
7966.907777930204
 33
0.0
 14
9210.600000000001
 24
7893.907777930204
 34
0.0
100
AcDbRotatedDimension
1001
ACAD
1000
DSTYLE
1002
{
1070
   174
1070
     0
1070
   272
1070
     1
1070
   341
1005
0
1002
}
  0
DIMENSION
  5
2293A
330
747D
100
AcDbEntity
  8
寸法
 48
50.0
100
AcDbDimension
  2
*D20
 10
9213.600000000001
 20
7507.704956834112
 30
0.0
 11
9603.659055118111
 21
7507.704956834112
 31
0.0
 70
   160
 71
     5
 42
120.0
  3
INABA_S40G
100
AcDbAlignedDimension
 13
9333.6
 23
7736.16237411604
 33
0.0
 14
9213.600000000001
 24
7736.907777930206
 34
0.0
100
AcDbRotatedDimension
1001
ACAD
1000
DSTYLE
1002
{
1070
   174
1070
     0
1070
   272
1070
     1
1070
   341
1005
0
1002
}
  0
DIMENSION
  5
2293E
330
747D
100
AcDbEntity
  8
寸法
 48
50.0
100
AcDbDimension
  2
*D21
 10
7113.600000000001
 20
8730.149966081995
 30
0.0
 11
6840.493398282203
 21
8730.149966081995
 31
0.0
 70
   160
 71
     5
 42
123.0
  3
INABA_S40G
100
AcDbAlignedDimension
 13
7236.6
 23
7893.907777930204
 33
0.0
 14
7113.600000000001
 24
7966.907777930204
 34
0.0
100
AcDbRotatedDimension
1001
ACAD
1000
DSTYLE
1002
{
1070
   174
1070
     0
1070
   272
1070
     1
1070
   341
1005
0
1002
}
  0
DIMENSION
  5
2293F
330
747D
100
AcDbEntity
  8
寸法
 48
50.0
100
AcDbDimension
  2
*D22
 10
6177.933661824713
 20
7843.907777930205
 30
0.0
 11
6177.933661824713
 21
8280.014379648003
 31
0.0
 70
   160
 71
     5
 42
122.9999999999991
  3
INABA_S40G
100
AcDbAlignedDimension
 13
7113.600000000001
 23
7966.907777930204
 33
0.0
 14
7186.6
 24
7843.907777930205
 34
0.0
 50
90.0
100
AcDbRotatedDimension
1001
ACAD
1000
DSTYLE
1002
{
1070
   174
1070
     0
1070
   272
1070
     1
1070
   341
1005
0
1002
}
  0
DIMENSION
  5
22940
330
747D
100
AcDbEntity
  8
寸法
 48
50.0
100
AcDbDimension
  2
*D23
 10
9333.6
 20
8942.610661598834
 30
0.0
 11
8223.600000000001
 21
9042.622472622456
 31
0.0
 70
    32
 71
     5
 42
2220.0
  3
INABA_S40G
100
AcDbAlignedDimension
 13
7113.600000000001
 23
7966.907777930204
 33
0.0
 14
9333.6
 24
7966.907777930204
 34
0.0
100
AcDbRotatedDimension
1001
ACAD
1000
DSTYLE
1002
{
1070
   174
1070
     0
1070
   272
1070
     1
1070
   341
1005
0
1002
}
  0
DIMENSION
  5
22941
330
747D
100
AcDbEntity
  8
寸法
 48
50.0
100
AcDbDimension
  2
*D24
 10
7236.6
 20
8730.149966081995
 30
0.0
 11
8223.600000000001
 21
8830.149966081995
 31
0.0
 70
    32
 71
     5
 42
1974.0
  3
INABA_S40G
100
AcDbAlignedDimension
 13
9210.600000000001
 23
7893.907777930204
 33
0.0
 14
7236.6
 24
7893.907777930204
 34
0.0
100
AcDbRotatedDimension
1001
ACAD
1000
DSTYLE
1002
{
1070
   174
1070
     0
1070
   272
1070
     1
1070
   341
1005
0
1002
}
  0
DIMENSION
  5
22945
330
747D
100
AcDbEntity
  8
寸法
 48
50.0
100
AcDbDimension
  2
*D25
 10
5932.440859686745
 20
7966.907777930206
 30
0.0
 11
5932.440859686743
 21
6802.186058939198
 31
0.0
 70
   160
 71
     5
 42
2219.999999999999
  3
INABA_S40G
100
AcDbAlignedDimension
 13
7113.600000000001
 23
5746.907777930205
 33
0.0
 14
7113.600000000001
 24
7966.907777930204
 34
0.0
 50
90.0
100
AcDbRotatedDimension
1001
ACAD
1000
DSTYLE
1002
{
1070
   174
1070
     0
1070
   272
1070
     1
1070
   341
1005
0
1002
}
  0
DIMENSION
  5
22946
330
747D
100
AcDbEntity
  8
寸法
 48
50.0
100
AcDbDimension
  2
*D26
 10
6177.933661824713
 20
5869.907777930207
 30
0.0
 11
6177.933661824713
 21
6911.629496921213
 31
0.0
 70
   160
 71
     5
 42
1973.999999999998
  3
INABA_S40G
100
AcDbAlignedDimension
 13
7186.6
 23
7843.907777930205
 33
0.0
 14
7186.600000000009
 24
5869.907777930207
 34
0.0
 50
90.0
100
AcDbRotatedDimension
1001
ACAD
1000
DSTYLE
1002
{
1070
   174
1070
     0
1070
   272
1070
     1
1070
   341
1005
0
1002
}
  0
DIMENSION
  5
22947
330
747D
100
AcDbEntity
  8
寸法
 48
50.0
100
AcDbDimension
  2
*D27
 10
6177.933661824713
 20
5746.907777930205
 30
0.0
 11
6177.933661824713
 21
5473.801176212408
 31
0.0
 70
   160
 71
     5
 42
123.0000000000018
  3
INABA_S40G
100
AcDbAlignedDimension
 13
7186.600000000009
 23
5869.907777930207
 33
0.0
 14
7113.600000000001
 24
5746.907777930205
 34
0.0
 50
90.0
100
AcDbRotatedDimension
1001
ACAD
1000
DSTYLE
1002
{
1070
   174
1070
     0
1070
   272
1070
     1
1070
   341
1005
0
1002
}
  0
LINE
  5
22949
102
{ACAD_REACTORS
330
247E7
102
}
330
747D
100
AcDbEntity
  8
部品1
 48
50.0
100
AcDbLine
 10
9333.6
 20
5746.907777930223
 30
0.0
 11
9333.6
 21
7966.907777930204
 31
0.0
  0
LINE
  5
2294D
102
{ACAD_REACTORS
330
247AD
102
}
330
747D
100
AcDbEntity
  8
部品1
 48
50.0
100
AcDbLine
 10
7113.600000000001
 20
5746.907777930205
 30
0.0
 11
7113.600000000001
 21
7966.907777930204
 31
0.0
  0
DIMENSION
  5
2294F
330
747D
100
AcDbEntity
  8
寸法
 48
50.0
100
AcDbDimension
  2
*D28
 10
6505.246258412047
 20
6481.907777930205
 30
0.0
 11
6505.246258412046
 21
6118.916108629534
 31
0.0
 70
   160
 71
     5
 42
735.0
  3
INABA_S40G
100
AcDbAlignedDimension
 13
7113.600000000001
 23
5746.907777930205
 33
0.0
 14
7777.600000000001
 24
6481.907777930205
 34
0.0
 50
90.0
100
AcDbRotatedDimension
1001
ACAD
1000
DSTYLE
1002
{
1070
   174
1070
     0
1070
   272
1070
     1
1070
   341
1005
0
1002
}
  0
LINE
  5
22952
102
{ACAD_REACTORS
330
247CA
102
}
330
747D
100
AcDbEntity
  8
部品1
 48
50.0
100
AcDbLine
 10
9333.600000000002
 20
5671.907777930226
 30
0.0
 11
7113.600000000001
 21
5671.907777930205
 31
0.0
  0
DIMENSION
  5
22957
330
747D
100
AcDbEntity
  8
寸法
 48
50.0
100
AcDbDimension
  2
*D29
 10
6849.574894940552
 20
5746.907777930205
 30
0.0
 11
6849.574894940552
 21
5138.422496555968
 31
0.0
 70
   160
  1
扉の出<>
 71
     5
 42
74.99999999998363
  3
INABA_S40G
100
AcDbAlignedDimension
 13
7113.600000000001
 23
5671.907777930222
 33
0.0
 14
6253.875927838535
 24
5746.907777930205
 34
0.0
 50
90.0
100
AcDbRotatedDimension
1001
ACAD
1000
DSTYLE
1002
{
1070
   174
1070
     0
1070
   272
1070
     1
1070
   341
1005
0
1002
}
  0
LINE
  5
22958
330
747D
100
AcDbEntity
  8
部品1
 48
50.0
100
AcDbLine
 10
7343.600000000001
 20
5976.907777930208
 30
0.0
 11
7233.6
 21
5976.907777930207
 31
0.0
  0
LINE
  5
22959
330
747D
100
AcDbEntity
  8
部品1
 48
50.0
100
AcDbLine
 10
7113.600000000001
 20
5671.907777930222
 30
0.0
 11
7113.600000000001
 21
5746.907777930205
 31
0.0
  0
LINE
  5
2295A
330
747D
100
AcDbEntity
  8
センター
 48
2.0
100
AcDbLine
 10
7186.600000000009
 20
5869.907777930207
 30
0.0
 11
7286.600000000008
 21
5869.907777930207
 31
0.0
  0
CIRCLE
  5
2295B
330
747D
100
AcDbEntity
  8
部品1
 48
50.0
100
AcDbCircle
 10
7236.600000000009
 20
5869.907777930207
 30
0.0
 40
35.0
  0
LINE
  5
2295C
330
747D
100
AcDbEntity
  8
センター
 48
2.0
100
AcDbLine
 10
7236.600000000009
 20
5919.907777930207
 30
0.0
 11
7236.600000000009
 21
5819.907777930207
 31
0.0
  0
LINE
  5
2295E
330
747D
100
AcDbEntity
  8
部品1
 48
50.0
100
AcDbLine
 10
7343.600000000001
 20
5866.907777930208
 30
0.0
 11
7343.600000000001
 21
5976.907777930208
 31
0.0
  0
LINE
  5
22962
102
{ACAD_REACTORS
330
247CA
102
}
330
747D
100
AcDbEntity
  8
部品1
 48
50.0
100
AcDbLine
 10
8123.600000000021
 20
5671.907777930215
 30
0.0
 11
8123.600000000022
 21
5866.907777930214
 31
0.0
  0
LINE
  5
22963
102
{ACAD_REACTORS
330
247CA
102
}
330
747D
100
AcDbEntity
  8
部品1
 48
50.0
100
AcDbLine
 10
8323.60000000002
 20
5671.907777930216
 30
0.0
 11
8323.600000000022
 21
5866.907777930217
 31
0.0
  0
LINE
  5
22965
330
747D
100
AcDbEntity
  8
部品1
 48
50.0
100
AcDbLine
 10
9333.6
 20
5671.907777930226
 30
0.0
 11
9333.6
 21
5746.907777930223
 31
0.0
  0
LINE
  5
22966
330
747D
100
AcDbEntity
  8
部品1
 48
50.0
100
AcDbLine
 10
9213.599999999997
 20
5976.907777930222
 30
0.0
 11
9103.6
 21
5976.907777930223
 31
0.0
  0
LINE
  5
22967
330
747D
100
AcDbEntity
  8
部品1
 48
50.0
100
AcDbLine
 10
9103.6
 20
5866.907777930221
 30
0.0
 11
9103.6
 21
5976.907777930223
 31
0.0
  0
LINE
  5
22968
330
747D
100
AcDbEntity
  8
センター
 48
2.0
100
AcDbLine
 10
9160.600000000007
 20
5869.907777930207
 30
0.0
 11
9260.600000000009
 21
5869.907777930207
 31
0.0
  0
CIRCLE
  5
22969
330
747D
100
AcDbEntity
  8
部品1
 48
50.0
100
AcDbCircle
 10
9210.600000000008
 20
5869.907777930207
 30
0.0
 40
35.0
  0
LINE
  5
2296A
330
747D
100
AcDbEntity
  8
センター
 48
2.0
100
AcDbLine
 10
9210.600000000008
 20
5919.907777930207
 30
0.0
 11
9210.600000000008
 21
5819.907777930207
 31
0.0
  0
DIMENSION
  5
2296B
330
747D
100
AcDbEntity
  8
寸法
 48
50.0
100
AcDbDimension
  2
*D30
 10
6505.217725433258
 20
6481.907777930205
 30
0.0
 11
6405.217725433256
 21
6856.907777930207
 31
0.0
 70
    32
 71
     5
 42
749.9999999999972
  3
INABA_S40G
100
AcDbAlignedDimension
 13
7777.600000000001
 23
7231.907777930202
 33
0.0
 14
7777.600000000001
 24
6481.907777930205
 34
0.0
 50
90.0
100
AcDbRotatedDimension
1001
ACAD
1000
DSTYLE
1002
{
1070
   174
1070
     0
1070
   272
1070
     1
1070
   341
1005
0
1002
}
  0
LINE
  5
2296D
102
{ACAD_REACTORS
330
24790
102
}
330
747D
100
AcDbEntity
  8
部品1
 48
50.0
100
AcDbLine
 10
9333.6
 20
7966.907777930204
 30
0.0
 11
7113.600000000001
 21
7966.907777930204
 31
0.0
  0
DIMENSION
  5
2296F
330
747D
100
AcDbEntity
  8
寸法
 48
50.0
100
AcDbDimension
  2
*D31
 10
6505.217725433258
 20
7966.907777930204
 30
0.0
 11
6405.217725433257
 21
7599.407777930206
 31
0.0
 70
    32
 71
     5
 42
735.0000000000018
  3
INABA_S40G
100
AcDbAlignedDimension
 13
7777.600000000001
 23
7231.907777930202
 33
0.0
 14
7113.600000000001
 24
7966.907777930204
 34
0.0
 50
90.0
100
AcDbRotatedDimension
1001
ACAD
1000
DSTYLE
1002
{
1070
   174
1070
     0
1070
   272
1070
     1
1070
   341
1005
0
1002
}
  0
LINE
  5
22971
102
{ACAD_REACTORS
330
247AD
102
}
330
747D
100
AcDbEntity
  8
部品1
 48
50.0
100
AcDbLine
 10
7233.6
 20
6756.907777930215
 30
0.0
 11
7113.600000000001
 21
6756.907777930215
 31
0.0
  0
LINE
  5
22972
102
{ACAD_REACTORS
330
247AD
102
}
330
747D
100
AcDbEntity
  8
部品1
 48
50.0
100
AcDbLine
 10
7233.6
 20
6956.907777930213
 30
0.0
 11
7113.600000000001
 21
6956.907777930215
 31
0.0
  0
LINE
  5
22973
330
747D
100
AcDbEntity
  8
部品1
 48
50.0
100
AcDbLine
 10
7343.600000000001
 20
7736.907777930202
 30
0.0
 11
7233.6
 21
7736.907777930205
 31
0.0
  0
LINE
  5
22974
330
747D
100
AcDbEntity
  8
部品1
 48
50.0
100
AcDbLine
 10
7517.6
 20
7966.907777930201
 30
0.0
 11
7113.600000000001
 21
7966.907777930204
 31
0.0
  0
LINE
  5
22975
330
747D
100
AcDbEntity
  8
センター
 48
2.0
100
AcDbLine
 10
7236.6
 20
7893.907777930204
 30
0.0
 11
7236.6
 21
7793.907777930205
 31
0.0
  0
LINE
  5
22976
330
747D
100
AcDbEntity
  8
センター
 48
2.0
100
AcDbLine
 10
7186.6
 20
7843.907777930205
 30
0.0
 11
7286.599999999999
 21
7843.907777930205
 31
0.0
  0
CIRCLE
  5
22977
330
747D
100
AcDbEntity
  8
部品1
 48
50.0
100
AcDbCircle
 10
7236.6
 20
7843.907777930205
 30
0.0
 40
35.0
  0
LINE
  5
22978
330
747D
100
AcDbEntity
  8
部品1
 48
50.0
100
AcDbLine
 10
7343.600000000001
 20
7736.907777930202
 30
0.0
 11
7343.600000000002
 21
7846.907777930207
 31
0.0
  0
LINE
  5
22986
102
{ACAD_REACTORS
330
247E7
102
}
330
747D
100
AcDbEntity
  8
部品1
 48
50.0
100
AcDbLine
 10
9333.6
 20
6756.907777930215
 30
0.0
 11
9213.600000000001
 21
6756.907777930215
 31
0.0
  0
LINE
  5
22987
102
{ACAD_REACTORS
330
247E7
102
}
330
747D
100
AcDbEntity
  8
部品1
 48
50.0
100
AcDbLine
 10
9333.6
 20
6956.907777930215
 30
0.0
 11
9213.600000000001
 21
6956.907777930215
 31
0.0
  0
DIMENSION
  5
22988
330
747D
100
AcDbEntity
  8
寸法
 48
50.0
100
AcDbDimension
  2
*D32
 10
9103.6
 20
7507.704956834112
 30
0.0
 11
8833.540944881891
 21
7507.704956834112
 31
0.0
 70
   160
 71
     5
 42
110.0
  3
INABA_S40G
100
AcDbAlignedDimension
 13
9213.600000000001
 23
7736.907777930206
 33
0.0
 14
9103.6
 24
7736.907777930203
 34
0.0
100
AcDbRotatedDimension
1001
ACAD
1000
DSTYLE
1002
{
1070
   174
1070
     0
1070
   272
1070
     1
1070
   341
1005
0
1002
}
  0
LINE
  5
2298E
102
{ACAD_REACTORS
330
24790
102
}
330
747D
100
AcDbEntity
  8
部品1
 48
50.0
100
AcDbLine
 10
8123.600000000001
 20
7846.907777930204
 30
0.0
 11
8123.600000000001
 21
7966.907777930204
 31
0.0
  0
LINE
  5
2298F
102
{ACAD_REACTORS
330
24790
102
}
330
747D
100
AcDbEntity
  8
部品1
 48
50.0
100
AcDbLine
 10
8323.599999999998
 20
7846.907777930204
 30
0.0
 11
8323.6
 21
7966.907777930204
 31
0.0
  0
LINE
  5
22990
330
747D
100
AcDbEntity
  8
センター
 48
2.0
100
AcDbLine
 10
9210.600000000001
 20
7893.907777930204
 30
0.0
 11
9210.600000000001
 21
7793.907777930205
 31
0.0
  0
LINE
  5
22991
330
747D
100
AcDbEntity
  8
部品1
 48
50.0
100
AcDbLine
 10
9103.6
 20
7736.907777930203
 30
0.0
 11
9103.6
 21
7846.907777930204
 31
0.0
  0
LINE
  5
22992
330
747D
100
AcDbEntity
  8
部品1
 48
50.0
100
AcDbLine
 10
9213.599999999997
 20
7736.907777930206
 30
0.0
 11
9103.6
 21
7736.907777930203
 31
0.0
  0
LINE
  5
22993
330
747D
100
AcDbEntity
  8
センター
 48
2.0
100
AcDbLine
 10
9160.6
 20
7843.907777930205
 30
0.0
 11
9260.600000000001
 21
7843.907777930205
 31
0.0
  0
CIRCLE
  5
22994
330
747D
100
AcDbEntity
  8
部品1
 48
50.0
100
AcDbCircle
 10
9210.600000000001
 20
7843.907777930205
 30
0.0
 40
35.0
  0
MTEXT
  5
22D7D
102
{ACAD_REACTORS
330
22D7E
102
}
330
747D
100
AcDbEntity
  8
部品1
 62
     7
 48
50.0
100
AcDbMText
 10
10528.99523070988
 20
8217.880272274156
 30
0.0
 40
120.0
 41
0.0
 71
     6
 72
     1
  1
アンカーボルト
  7
STYLE1
 73
     1
 44
1.0
1001
ACAD
1000
MTEXTBEGIN
1070
    73
1070
     1
1070
    44
1040
1.0
1070
    74
1070
     0
1000
MTEXTEND
  0
LEADER
  5
22D7E
330
747D
100
AcDbEntity
  8
寸法
 48
50.0
100
AcDbLeader
  3
INABA_S50G
 73
     0
 74
     0
 75
     1
 40
120.0
 41
994.3492424049171
 76
     3
 10
9210.68008575701
 20
7843.921501126413
 30
0.0
 10
9384.645988304972
 20
8132.880272274155
 30
0.0
 10
9509.645988304972
 20
8132.880272274155
 30
0.0
340
22D7D
1001
ACAD
1000
DSTYLE
1002
{
1070
   341
1005
0
1070
    40
1040
1.0
1070
   343
1005
0
1070
   344
1005
0
1002
}
  0
MTEXT
  5
22D7F
102
{ACAD_REACTORS
330
22D80
102
}
330
747D
100
AcDbEntity
  8
部品1
 62
     7
 48
50.0
100
AcDbMText
 10
10360.46907400128
 20
6646.925795821079
 30
0.0
 40
120.0
 41
0.0
 71
     6
 72
     1
  1
\A1;床下換気口
  7
STYLE1
 73
     1
 44
1.0
1001
ACAD
1000
MTEXTBEGIN
1070
    73
1070
     1
1070
    44
1040
1.0
1070
    74
1070
     0
1000
MTEXTEND
  0
LEADER
  5
22D80
330
747D
100
AcDbEntity
  8
寸法
 48
50.0
100
AcDbLeader
  3
INABA_S50G
 73
     0
 74
     0
 75
     1
 40
120.0
 41
720.0000000000001
 76
     3
 10
9333.695499614997
 20
6822.939709388911
 30
0.0
 10
9490.46907400128
 20
6561.925795821078
 30
0.0
 10
9615.46907400128
 20
6561.925795821078
 30
0.0
340
22D7F
1001
ACAD
1000
DSTYLE
1002
{
1070
   341
1005
0
1070
    40
1040
1.0
1070
   343
1005
0
1070
   344
1005
0
1002
}
  0
LWPOLYLINE
  5
23117
330
747D
100
AcDbEntity
  8
寸法
 48
50.0
100
AcDbPolyline
 90
        3
 70
     0
 43
0.0
 10
8501.36654737458
 20
6308.227462080632
 10
8462.70347086787
 20
6160.517371308085
 10
8198.398513937908
 20
6160.517371308084
1001
ACAD
1000
DSTYLE
1002
{
1070
   341
1005
0
1070
   343
1005
0
1070
   344
1005
0
1002
}
  0
SOLID
  5
23118
330
747D
100
AcDbEntity
  8
寸法
 48
50.0
100
AcDbTrace
 10
8481.212193794714
 20
6313.502858706049
 30
0.0
 11
8533.018927127088
 21
6429.153583559835
 31
0.0
 12
8521.520900954447
 22
6302.952065455214
 32
0.0
 13
8521.520900954447
 23
6302.952065455214
 33
0.0
1001
ACAD
1000
DSTYLE
1002
{
1070
   341
1005
0
1070
   343
1005
0
1070
   344
1005
0
1002
}
  0
MTEXT
  5
23119
330
747D
100
AcDbEntity
  8
部品1
 62
     7
 48
50.0
100
AcDbMText
 10
8366.256561917818
 20
6251.307068355796
 30
0.0
 40
120.0
 41
0.0
 71
     6
 72
     1
  1
CB
  7
STYLE1
 73
     1
 44
1.0
1001
ACAD
1000
MTEXTBEGIN
1070
    73
1070
     1
1070
    44
1040
1.0
1070
    74
1070
     0
1000
MTEXTEND
  0
LINE
  5
234F3
330
747D
100
AcDbEntity
  8
センター
 48
2.0
100
AcDbLine
 10
8569.600000000001
 20
6531.907777930212
 30
0.0
 11
8569.600000000001
 21
6431.907777930212
 31
0.0
  0
LINE
  5
234F4
330
747D
100
AcDbEntity
  8
部品1
 48
50.0
100
AcDbLine
 10
8669.6
 20
6381.90777793021
 30
0.0
 11
8669.6
 21
6581.907777930211
 31
0.0
  0
LINE
  5
234F5
330
747D
100
AcDbEntity
  8
部品1
 48
50.0
100
AcDbLine
 10
8469.600000000001
 20
6381.90777793021
 30
0.0
 11
8469.600000000005
 21
6581.907777930213
 31
0.0
  0
LINE
  5
234F6
330
747D
100
AcDbEntity
  8
センター
 48
2.0
100
AcDbLine
 10
8519.600000000002
 20
6481.907777930212
 30
0.0
 11
8619.600000000001
 21
6481.907777930212
 31
0.0
  0
LINE
  5
234F7
330
747D
100
AcDbEntity
  8
部品1
 48
50.0
100
AcDbLine
 10
8669.6
 20
6381.90777793021
 30
0.0
 11
8469.600000000001
 21
6381.90777793021
 31
0.0
  0
LINE
  5
234F8
330
747D
100
AcDbEntity
  8
部品1
 48
50.0
100
AcDbLine
 10
8669.6
 20
6581.907777930211
 30
0.0
 11
8469.600000000001
 21
6581.907777930211
 31
0.0
  0
LINE
  5
234F9
330
747D
100
AcDbEntity
  8
センター
 48
2.0
100
AcDbLine
 10
7827.6
 20
6481.907777930212
 30
0.0
 11
7927.599999999999
 21
6481.907777930212
 31
0.0
  0
LINE
  5
234FA
330
747D
100
AcDbEntity
  8
部品1
 48
50.0
100
AcDbLine
 10
7777.600000000001
 20
6381.90777793021
 30
0.0
 11
7777.600000000003
 21
6581.907777930213
 31
0.0
  0
LINE
  5
234FB
330
747D
100
AcDbEntity
  8
部品1
 48
50.0
100
AcDbLine
 10
7977.599999999998
 20
6381.90777793021
 30
0.0
 11
7977.599999999999
 21
6581.907777930211
 31
0.0
  0
LINE
  5
234FC
330
747D
100
AcDbEntity
  8
センター
 48
2.0
100
AcDbLine
 10
7877.6
 20
6531.907777930212
 30
0.0
 11
7877.6
 21
6431.907777930212
 31
0.0
  0
LINE
  5
234FD
330
747D
100
AcDbEntity
  8
部品1
 48
50.0
100
AcDbLine
 10
7977.599999999999
 20
6581.907777930211
 30
0.0
 11
7777.599999999999
 21
6581.907777930211
 31
0.0
  0
LINE
  5
234FE
330
747D
100
AcDbEntity
  8
部品1
 48
50.0
100
AcDbLine
 10
7977.599999999999
 20
6381.90777793021
 30
0.0
 11
7777.599999999999
 21
6381.90777793021
 31
0.0
  0
LINE
  5
234FF
330
747D
100
AcDbEntity
  8
部品1
 48
50.0
100
AcDbLine
 10
7977.599999999999
 20
7131.907777930202
 30
0.0
 11
7777.599999999999
 21
7131.907777930202
 31
0.0
  0
LINE
  5
23500
330
747D
100
AcDbEntity
  8
部品1
 48
50.0
100
AcDbLine
 10
7977.599999999999
 20
7331.907777930202
 30
0.0
 11
7777.599999999999
 21
7331.907777930202
 31
0.0
  0
DIMENSION
  5
2350A
330
747D
100
AcDbEntity
  8
寸法
 48
50.0
100
AcDbDimension
  2
*D33
 10
8569.600000000001
 20
8493.817543578533
 30
0.0
 11
8223.600000000001
 21
8593.858356143334
 31
0.0
 70
    32
 71
     5
 42
692.0000000000008
  3
INABA_S40G
100
AcDbAlignedDimension
 13
7877.6
 23
7281.907777930202
 33
0.0
 14
8569.600000000001
 24
7281.907777930202
 34
0.0
100
AcDbRotatedDimension
1001
ACAD
1000
DSTYLE
1002
{
1070
   174
1070
     0
1070
   272
1070
     1
1070
   288
1070
     0
1070
   341
1005
0
1002
}
  0
LINE
  5
2350B
330
747D
100
AcDbEntity
  8
センター
 48
2.0
100
AcDbLine
 10
7877.6
 20
7281.907777930202
 30
0.0
 11
7877.6
 21
7181.907777930202
 31
0.0
  0
LINE
  5
2350C
330
747D
100
AcDbEntity
  8
部品1
 48
50.0
100
AcDbLine
 10
7977.599999999998
 20
7131.907777930202
 30
0.0
 11
7977.599999999999
 21
7331.907777930202
 31
0.0
  0
LINE
  5
2350D
330
747D
100
AcDbEntity
  8
部品1
 48
50.0
100
AcDbLine
 10
7777.600000000001
 20
7131.907777930202
 30
0.0
 11
7777.599999999999
 21
7331.907777930202
 31
0.0
  0
LINE
  5
2350E
330
747D
100
AcDbEntity
  8
センター
 48
2.0
100
AcDbLine
 10
7827.6
 20
7231.907777930202
 30
0.0
 11
7927.599999999999
 21
7231.907777930202
 31
0.0
  0
LINE
  5
23512
330
747D
100
AcDbEntity
  8
部品1
 48
50.0
100
AcDbLine
 10
8669.6
 20
7331.907777930202
 30
0.0
 11
8469.600000000001
 21
7331.907777930202
 31
0.0
  0
LINE
  5
23513
330
747D
100
AcDbEntity
  8
部品1
 48
50.0
100
AcDbLine
 10
8669.6
 20
7131.907777930202
 30
0.0
 11
8469.600000000001
 21
7131.907777930202
 31
0.0
  0
LINE
  5
23514
330
747D
100
AcDbEntity
  8
センター
 48
2.0
100
AcDbLine
 10
8519.600000000002
 20
7231.907777930202
 30
0.0
 11
8619.600000000001
 21
7231.907777930202
 31
0.0
  0
LINE
  5
23515
330
747D
100
AcDbEntity
  8
部品1
 48
50.0
100
AcDbLine
 10
8469.600000000005
 20
7131.907777930202
 30
0.0
 11
8469.600000000005
 21
7331.907777930202
 31
0.0
  0
LINE
  5
23516
330
747D
100
AcDbEntity
  8
部品1
 48
50.0
100
AcDbLine
 10
8669.6
 20
7131.907777930202
 30
0.0
 11
8669.6
 21
7331.907777930202
 31
0.0
  0
LINE
  5
23517
330
747D
100
AcDbEntity
  8
センター
 48
2.0
100
AcDbLine
 10
8569.600000000001
 20
7281.907777930202
 30
0.0
 11
8569.600000000001
 21
7181.907777930202
 31
0.0
  0
DIMENSION
  5
23518
330
747D
100
AcDbEntity
  8
寸法
 48
50.0
100
AcDbDimension
  2
*D34
 10
7113.599999999998
 20
8493.817543578533
 30
0.0
 11
7495.599999999999
 21
8593.817543578532
 31
0.0
 70
    32
 71
     5
 42
764.0000000000009
  3
INABA_S40G
100
AcDbAlignedDimension
 13
7877.6
 23
7281.907777930202
 33
0.0
 14
7113.599999999998
 24
7966.907777930204
 34
0.0
100
AcDbRotatedDimension
1001
ACAD
1000
DSTYLE
1002
{
1070
   174
1070
     0
1070
   272
1070
     1
1070
   279
1070
     1
1070
   288
1070
     0
1070
   341
1005
0
1002
}
  0
DIMENSION
  5
23519
330
747D
100
AcDbEntity
  8
寸法
 48
50.0
100
AcDbDimension
  2
*D35
 10
8569.600000000001
 20
8493.817543578533
 30
0.0
 11
8910.370135182452
 21
8492.079508885542
 31
0.0
 70
   160
 71
     5
 42
763.9999999999964
  3
INABA_S40G
100
AcDbAlignedDimension
 13
9333.599999999997
 23
7966.907777930204
 33
0.0
 14
8569.600000000001
 24
7281.907777930202
 34
0.0
100
AcDbRotatedDimension
1001
ACAD
1000
DSTYLE
1002
{
1070
   174
1070
     0
1070
   272
1070
     1
1070
   279
1070
     1
1070
   288
1070
     0
1070
   341
1005
0
1002
}
  0
DIMENSION
  5
23D4A
330
747D
100
AcDbEntity
  8
寸法
 48
50.0
100
AcDbDimension
  2
*D36
 10
7572.938460046265
 20
5866.907777930192
 30
0.0
 11
7572.938460046265
 21
5433.212836726326
 31
0.0
 70
   160
 71
     5
 42
194.9999999999727
  3
INABA_S40G
100
AcDbAlignedDimension
 13
7343.600000000001
 23
5671.907777930219
 33
0.0
 14
7343.600000000002
 24
5866.907777930192
 34
0.0
 50
270.0
100
AcDbRotatedDimension
1001
ACAD
1000
DSTYLE
1002
{
1070
   341
1005
0
1002
}
  0
DIMENSION
  5
23D4B
330
747D
100
AcDbEntity
  8
寸法
 48
50.0
100
AcDbDimension
  2
*D37
 10
7572.938460046265
 20
5976.90777793022
 30
0.0
 11
7572.938460046265
 21
6212.95502202471
 31
0.0
 70
   160
 71
     5
 42
110.0000000000109
  3
INABA_S40G
100
AcDbAlignedDimension
 13
7343.600000000001
 23
5866.907777930208
 33
0.0
 14
7343.600000000002
 24
5976.90777793022
 34
0.0
 50
270.0
100
AcDbRotatedDimension
1001
ACAD
1000
DSTYLE
1002
{
1070
   341
1005
0
1002
}
  0
TEXT
  5
23D4C
330
747D
100
AcDbEntity
  8
寸法
 62
     7
100
AcDbText
 10
7196.285760402144
 20
4416.475502532011
 30
0.0
 40
120.0
  1
扉の位置に合わせた基礎形状として下さい。
  7
STYLE1
100
AcDbText
  0
LWPOLYLINE
  5
23D4D
330
747D
100
AcDbEntity
  8
寸法
 48
50.0
100
AcDbPolyline
 90
        3
 70
     0
 43
0.0
 10
-7420.680265711762
 20
5671.907777930218
 10
-7079.66980120939
 20
4565.811317867016
 10
-9893.734214141034
 20
4565.811317867016
210
0.0
220
0.0
230
-1.0
1001
ACAD
1000
DSTYLE
1002
{
1070
   341
1005
0
1070
    40
1040
1.0
1070
   343
1005
0
1070
   344
1005
0
1002
}
  0
SOLID
  5
23D4E
330
747D
100
AcDbEntity
  8
寸法
 48
50.0
100
AcDbTrace
 10
-7403.771060041775
 20
5546.316749025333
 30
0.0
 11
-7420.680265711762
 21
5671.907777930218
 31
0.0
 12
-7363.952845568298
 22
5558.589519994241
 32
0.0
 13
-7363.952845568298
 23
5558.589519994241
 33
0.0
210
0.0
220
0.0
230
-1.0
1001
ACAD
1000
DSTYLE
1002
{
1070
   341
1005
0
1070
    40
1040
1.0
1070
   343
1005
0
1070
   344
1005
0
1002
}
  0
TEXT
  5
23D4F
330
747D
100
AcDbEntity
  8
寸法
 62
     7
100
AcDbText
 10
7196.285760402144
 20
4588.079265415337
 30
0.0
 40
120.0
  1
扉位置 (2220x75)
  7
STYLE1
100
AcDbText
  0
DIMENSION
  5
23D50
330
747D
100
AcDbEntity
  8
寸法
 48
50.0
100
AcDbDimension
  2
*D38
 10
7113.600000000001
 20
4957.043474506095
 30
0.0
 11
8223.600000000001
 21
5057.055285529717
 31
0.0
 70
    32
  1
扉の幅 <>
 71
     5
 42
2220.0
  3
INABA_S40G
100
AcDbAlignedDimension
 13
9333.6
 23
5671.907777930241
 33
0.0
 14
7113.600000000001
 24
5671.907777930205
 34
0.0
100
AcDbRotatedDimension
1001
ACAD
1000
DSTYLE
1002
{
1070
   341
1005
0
1002
}
  0
DIMENSION
  5
2416D
330
747D
100
AcDbEntity
  8
寸法
 48
50.0
100
AcDbDimension
  2
*D39
 10
5932.440859686744
 20
5746.907777930206
 30
0.0
 11
5932.440859686743
 21
5435.121052584827
 31
0.0
 70
   160
  1
a
 71
     5
 42
45.61210414291872
  3
INABA_S40G
100
AcDbAlignedDimension
 13
6177.93366182471
 23
5701.295673787286
 33
0.0
 14
7113.600000000001
 24
5746.907777930205
 34
0.0
 50
90.0
100
AcDbRotatedDimension
1001
ACAD
1000
DSTYLE
1002
{
1070
   341
1005
0
1002
}
  0
LINE
  5
2416E
330
747D
100
AcDbEntity
  8
想像線
 48
10.0
100
AcDbLine
 10
7058.600000000021
 20
8012.519882073107
 30
0.0
 11
7058.600000000021
 21
7374.531102267454
 31
0.0
  0
LINE
  5
2416F
330
747D
100
AcDbEntity
  8
想像線
 48
10.0
100
AcDbLine
 10
7058.600000000021
 20
8012.51988207311
 30
0.0
 11
9408.60000000001
 21
8012.519882073107
 31
0.0
  0
DIMENSION
  5
24170
330
747D
100
AcDbEntity
  8
寸法
 48
50.0
100
AcDbDimension
  2
*D40
 10
7058.600000000012
 20
8942.610661598834
 30
0.0
 11
7086.100000000006
 21
9042.610661598834
 31
0.0
 70
    32
  1
b
 71
     5
 42
54.99999999998817
  3
INABA_S40G
100
AcDbAlignedDimension
 13
7113.600000000001
 23
7966.907777930206
 33
0.0
 14
7058.600000000012
 24
8730.149966081997
 34
0.0
100
AcDbRotatedDimension
1001
ACAD
1000
DSTYLE
1002
{
1070
   341
1005
0
1002
}
  0
DIMENSION
  5
24171
330
747D
100
AcDbEntity
  8
寸法
 48
50.0
100
AcDbDimension
  2
*D41
 10
9333.6
 20
8942.610661598834
 30
0.0
 11
9371.100000000003
 21
9042.610661598834
 31
0.0
 70
    32
  1
c
 71
     5
 42
75.00000000000182
  3
INABA_S40G
100
AcDbAlignedDimension
 13
9408.600000000003
 23
8730.149966081997
 33
0.0
 14
9333.6
 24
7966.907777930206
 34
0.0
100
AcDbRotatedDimension
1001
ACAD
1000
DSTYLE
1002
{
1070
   341
1005
0
1002
}
  0
TEXT
  5
24172
330
747D
100
AcDbEntity
  8
部品1
 48
50.0
100
AcDbText
 10
9707.314755219556
 20
6965.596670981341
 30
0.0
 40
80.0
  1
(a=45,b=55,c=75)
  7
STYLE1
100
AcDbText
  0
TEXT
  5
24173
330
747D
100
AcDbEntity
  8
部品1
 48
50.0
100
AcDbText
 10
9548.735746465254
 20
7072.441891850096
 30
0.0
 40
80.0
  1
※a,b,cは屋根の出幅です。
  7
STYLE1
100
AcDbText
  0
MTEXT
  5
24174
102
{ACAD_REACTORS
330
24175
102
}
330
747D
100
AcDbEntity
  8
部品1
 62
     7
 48
50.0
100
AcDbMText
 10
10346.52294245386
 20
7251.752578783172
 30
0.0
 40
120.0
 41
0.0
 71
     6
 72
     1
  1
\A1;屋根の外寸
  7
STYLE1
 73
     1
 44
1.0
1001
ACAD
1000
MTEXTBEGIN
1070
    73
1070
     1
1070
    44
1040
1.0
1070
    74
1070
     0
1000
MTEXTEND
  0
LEADER
  5
24175
330
747D
100
AcDbEntity
  8
寸法
 48
50.0
100
AcDbLeader
  3
INABA_S50G
 73
     0
 74
     0
 75
     1
 40
120.0
 41
672.0
 76
     3
 10
9408.58293026182
 20
7425.641922246747
 30
0.0
 10
9524.522942453861
 20
7166.752578783171
 30
0.0
 10
9649.522942453861
 20
7166.752578783171
 30
0.0
340
24174
1001
ACAD
1000
DSTYLE
1002
{
1070
   341
1005
0
1070
    40
1040
1.0
1070
   343
1005
0
1070
   344
1005
0
1002
}
  0
DIMENSION
  5
24176
330
747D
100
AcDbEntity
  8
寸法
 48
50.0
100
AcDbDimension
  2
*D42
 10
5932.440859686745
 20
8012.519882073108
 30
0.0
 11
5932.440859686744
 21
8283.694503275567
 31
0.0
 70
   160
  1
a
 71
     5
 42
45.61210414290326
  3
INABA_S40G
100
AcDbAlignedDimension
 13
7113.599999999998
 23
7966.907777930204
 33
0.0
 14
6177.93366182471
 24
8012.519882073107
 34
0.0
 50
90.0
100
AcDbRotatedDimension
1001
ACAD
1000
DSTYLE
1002
{
1070
   341
1005
0
1002
}
  0
LINE
  5
24177
330
747D
100
AcDbEntity
  8
想像線
 48
10.0
100
AcDbLine
 10
9408.60000000001
 20
8012.519882073107
 30
0.0
 11
9408.60000000001
 21
7374.531102267454
 31
0.0
  0
LINE
  5
24770
102
{ACAD_REACTORS
330
24790
102
}
330
747D
100
AcDbEntity
  8
部品1
 48
50.0
100
AcDbLine
 10
9103.6
 20
7846.907777930204
 30
0.0
 11
7343.600000000001
 21
7846.907777930205
 31
0.0
  0
LINE
  5
24771
102
{ACAD_REACTORS
330
247AD
102
}
330
747D
100
AcDbEntity
  8
部品1
 48
50.0
100
AcDbLine
 10
7233.6
 20
5976.907777930207
 30
0.0
 11
7233.6
 21
7736.907777930202
 31
0.0
  0
LINE
  5
24772
102
{ACAD_REACTORS
330
247CA
102
}
330
747D
100
AcDbEntity
  8
部品1
 48
50.0
100
AcDbLine
 10
9103.6
 20
5866.907777930221
 30
0.0
 11
7343.600000000001
 21
5866.907777930208
 31
0.0
  0
LINE
  5
24773
102
{ACAD_REACTORS
330
247E7
102
}
330
747D
100
AcDbEntity
  8
部品1
 48
50.0
100
AcDbLine
 10
9213.600000000001
 20
5976.907777930225
 30
0.0
 11
9213.600000000001
 21
7736.907777930206
 31
0.0
  0
HATCH
  5
24790
330
747D
100
AcDbEntity
  8
細線
 48
50.0
100
AcDbHatch
 10
0.0
 20
0.0
 30
0.0
210
0.0
220
0.0
230
1.0
  2
LINE
 70
     0
 71
     1
 91
        1
 92
        7
 72
     0
 73
     1
 93
        4
 10
8323.599999999998
 20
7846.907777930205
 10
8323.599999999998
 20
7966.907777930204
 10
8123.600000000001
 20
7966.907777930206
 10
8123.599999999999
 20
7846.907777930205
 97
        4
330
2296D
330
2298E
330
24770
330
2298F
 75
     0
 76
     1
 52
45.0
 41
10.0
 77
     0
 78
     1
 53
45.0
 43
0.0
 44
0.0
 45
-22.45064030267288
 46
22.45064030267288
 79
     0
 47
4.726866444410111
 98
        1
 10
8207.905353747868
 20
7871.786650968527
  0
HATCH
  5
247AD
330
747D
100
AcDbEntity
  8
細線
 48
50.0
100
AcDbHatch
 10
0.0
 20
0.0
 30
0.0
210
0.0
220
0.0
230
1.0
  2
LINE
 70
     0
 71
     1
 91
        1
 92
        7
 72
     0
 73
     1
 93
        4
 10
7233.599999999999
 20
6956.907777930213
 10
7113.600000000001
 20
6956.907777930215
 10
7113.599999999999
 20
6756.907777930215
 10
7233.6
 20
6756.907777930215
 97
        4
330
22972
330
2294D
330
22971
330
24771
 75
     0
 76
     1
 52
45.0
 41
10.0
 77
     0
 78
     1
 53
45.0
 43
0.0
 44
0.0
 45
-22.45064030267288
 46
22.45064030267288
 79
     0
 47
4.726866444410111
 98
        1
 10
7157.980159464613
 20
6860.237214961839
  0
HATCH
  5
247CA
330
747D
100
AcDbEntity
  8
細線
 48
50.0
100
AcDbHatch
 10
0.0
 20
0.0
 30
0.0
210
0.0
220
0.0
230
1.0
  2
LINE
 70
     0
 71
     1
 91
        1
 92
        7
 72
     0
 73
     1
 93
        4
 10
8323.600000000022
 20
5866.907777930217
 10
8123.600000000022
 20
5866.907777930214
 10
8123.600000000022
 20
5671.907777930213
 10
8323.60000000002
 20
5671.907777930215
 97
        4
330
24772
330
22962
330
22952
330
22963
 75
     0
 76
     1
 52
45.0
 41
10.0
 77
     0
 78
     1
 53
45.0
 43
0.0
 44
0.0
 45
-22.45064030267288
 46
22.45064030267288
 79
     0
 47
4.726866444410111
 98
        1
 10
8203.175947659911
 20
5768.331069662014
  0
HATCH
  5
247E7
330
747D
100
AcDbEntity
  8
細線
 48
50.0
100
AcDbHatch
 10
0.0
 20
0.0
 30
0.0
210
0.0
220
0.0
230
1.0
  2
LINE
 70
     0
 71
     1
 91
        1
 92
        7
 72
     0
 73
     1
 93
        4
 10
9333.599999999997
 20
6956.907777930213
 10
9213.600000000001
 20
6956.907777930215
 10
9213.599999999997
 20
6756.907777930215
 10
9333.6
 20
6756.907777930215
 97
        4
330
22987
330
24773
330
22986
330
22949
 75
     0
 76
     1
 52
45.0
 41
10.0
 77
     0
 78
     1
 53
45.0
 43
0.0
 44
0.0
 45
-22.45064030267288
 46
22.45064030267288
 79
     0
 47
4.726866444410111
 98
        1
 10
9309.853878510512
 20
6812.968562436465
  0
LINE
  5
25047
330
747D
100
AcDbEntity
  8
部品1
100
AcDbLine
 10
11131.29524275382
 20
3434.49101417714
 30
0.0
 11
5060.31005736757
 21
3434.491014177139
 31
0.0
  0
LINE
  5
25048
330
747D
100
AcDbEntity
  8
部品1
100
AcDbLine
 10
11131.29524275382
 20
3194.491014177138
 30
0.0
 11
5060.310057367574
 21
3194.491014177139
 31
0.0
  0
LINE
  5
25049
330
747D
100
AcDbEntity
  8
部品1
100
AcDbLine
 10
5060.310057367576
 20
470.1840445924927
 30
0.0
 11
11131.29524275382
 21
470.1840445924927
 31
0.0
  0
LEADER
  5
2504A
330
747D
100
AcDbEntity
  8
寸法
 48
50.0
100
AcDbLeader
  3
INABA_S50G
 73
     0
 74
     0
 75
     1
 40
102.2727272727273
 41
680.0000000000001
 76
     3
 10
8068.417809354029
 20
2512.394675509438
 30
0.0
 10
8102.771780467387
 20
2922.847486615978
 30
0.0
 10
8227.771780467387
 20
2922.847486615978
 30
0.0
340
2504B
1001
ACAD
1000
DSTYLE
1002
{
1070
   341
1005
0
1070
    40
1040
1.0
1070
   343
1005
0
1070
   344
1005
0
1002
}
  0
MTEXT
  5
2504B
102
{ACAD_REACTORS
330
2504A
102
}
330
747D
100
AcDbEntity
  8
部品1
 62
     7
 48
50.0
100
AcDbMText
 10
8252.771780467387
 20
2998.983850252343
 30
0.0
 40
80.0
 41
0.8
 71
     4
 72
     1
  1
\A1;ナット(市販品)
  7
STYLE2
 73
     1
 44
1.0
1001
ACAD
1000
MTEXTBEGIN
1070
    73
1070
     1
1070
    44
1040
1.0
1070
    74
1070
     0
1000
MTEXTEND
  0
LEADER
  5
2504C
330
747D
100
AcDbEntity
  8
寸法
 48
50.0
100
AcDbLeader
  3
INABA_S50G
 73
     0
 74
     0
 75
     1
 40
102.2727272727273
 41
906.8181818181818
 76
     3
 10
8092.41780935403
 20
2382.642682844575
 30
0.0
 10
8134.289399722867
 20
2737.878403851191
 30
0.0
 10
8259.289399722867
 20
2737.878403851191
 30
0.0
340
2504D
1001
ACAD
1000
DSTYLE
1002
{
1070
   341
1005
0
1070
    40
1040
1.0
1070
   343
1005
0
1070
   344
1005
0
1002
}
  0
MTEXT
  5
2504D
102
{ACAD_REACTORS
330
2504C
102
}
330
747D
100
AcDbEntity
  8
部品1
 62
     7
 48
50.0
100
AcDbMText
 10
8284.289399722867
 20
2814.014767487556
 30
0.0
 40
80.0
 41
0.8
 71
     4
 72
     1
  1
\A1;ワッシャー(市販品)
  7
STYLE2
 73
     1
 44
1.0
1001
ACAD
1000
MTEXTBEGIN
1070
    73
1070
     1
1070
    44
1040
1.0
1070
    74
1070
     0
1000
MTEXTEND
  0
LWPOLYLINE
  5
2504E
330
747D
100
AcDbEntity
  8
部品1
 48
50.0
100
AcDbPolyline
 90
        2
 70
     0
 43
8.0
 10
8245.017809354029
 20
1873.519394400296
 10
8538.720272753414
 20
1873.519394400296
  0
TEXT
  5
2504F
330
747D
100
AcDbEntity
  8
部品1
 48
50.0
100
AcDbText
 10
8249.371393638458
 20
2469.398075162495
 30
0.0
 40
80.0
  1
基礎ボルト(市販品)
  7
STYLE2
100
AcDbText
  0
DIMENSION
  5
25050
330
747D
100
AcDbEntity
  8
寸法
 48
50.0
100
AcDbDimension
  2
*D55
 10
8746.886409122872
 20
1789.519394400294
 30
0.0
 11
8646.886409122872
 21
1951.519394400296
 31
0.0
 70
    32
  1
180
 71
     5
 42
324.0000000000009
  3
INABA_S40G
100
AcDbAlignedDimension
 13
8245.017809354029
 23
2113.519394400295
 33
0.0
 14
8245.017809354029
 24
1789.519394400294
 34
0.0
 50
90.0
100
AcDbRotatedDimension
1001
ACAD
1000
DSTYLE
1002
{
1070
   174
1070
     0
1070
   272
1070
     1
1070
   279
1070
     1
1070
   288
1070
     0
1070
   341
1005
0
1002
}
  0
DIMENSION
  5
25051
330
747D
100
AcDbEntity
  8
寸法
 48
50.0
100
AcDbDimension
  2
*D56
 10
8746.886409122872
 20
2113.519394400295
 30
0.0
 11
9022.941075241899
 21
2088.395436796083
 31
0.0
 70
   160
  1
20～25
 71
     5
 42
52.76000000000113
  3
INABA_S40G
100
AcDbAlignedDimension
 13
8057.81780935403
 23
2166.279394400296
 33
0.0
 14
8245.017809354029
 24
2113.519394400295
 34
0.0
 50
90.0
100
AcDbRotatedDimension
1001
ACAD
1000
DSTYLE
1002
{
1070
   174
1070
     0
1070
   272
1070
     1
1070
   279
1070
     1
1070
   288
1070
     0
1070
   341
1005
0
1002
}
  0
MTEXT
  5
25052
102
{ACAD_REACTORS
330
25053
102
}
330
747D
100
AcDbEntity
  8
部品1
 62
     7
 48
50.0
100
AcDbMText
 10
8253.962271773348
 20
2377.902720553525
 30
0.0
 40
80.0
 41
0.8
 71
     4
 72
     1
  1
M10X160
  7
STYLE2
 73
     1
 44
1.0
1001
ACAD
1000
MTEXTBEGIN
1070
    73
1070
     1
1070
    44
1040
1.0
1070
    74
1070
     0
1000
MTEXTEND
  0
LEADER
  5
25053
330
747D
100
AcDbEntity
  8
寸法
 48
50.0
100
AcDbLeader
  3
INABA_S50G
 73
     0
 74
     0
 75
     1
 40
80.0
 41
435.0
 76
     3
 10
8061.417809354029
 20
2162.679394400296
 30
0.0
 10
8103.962271773347
 20
2312.902720553525
 30
0.0
 10
8228.962271773347
 20
2312.902720553525
 30
0.0
340
25052
1001
ACAD
1000
DSTYLE
1002
{
1070
   341
1005
0
1070
    40
1040
1.0
1070
   343
1005
0
1070
   344
1005
0
1002
}
  0
LINE
  5
25054
330
747D
100
AcDbEntity
  8
部品1
100
AcDbLine
 10
5060.310057367572
 20
3434.49101417714
 30
0.0
 11
5060.310057367574
 21
470.1840445924927
 31
0.0
  0
LEADER
  5
25055
330
747D
100
AcDbEntity
  8
寸法
 48
50.0
100
AcDbLeader
  3
INABA_S50G
 73
     0
 75
     1
 40
113.1818181818182
 41
608.6363636363635
 76
     3
 10
8021.15455949208
 20
2063.035067758574
 30
0.0
 10
7887.350730800732
 20
2914.414150115052
 30
0.0
 10
7762.350730800732
 20
2914.414150115052
 30
0.0
340
25056
1001
ACAD
1000
DSTYLE
1002
{
1070
   341
1005
0
1070
    40
1040
1.0
1070
   343
1005
0
1070
   344
1005
0
1002
}
  0
MTEXT
  5
25056
102
{ACAD_REACTORS
330
25055
102
}
330
747D
100
AcDbEntity
  8
寸法
 62
     7
 48
50.0
100
AcDbMText
 10
7737.350730800732
 20
2996.005059205961
 30
0.0
 40
80.0
 41
0.8
 71
     6
 72
     1
  1
\A1;φ70スリーブ
  7
STYLE2
 73
     1
 44
1.0
1001
ACAD
1000
MTEXTBEGIN
1070
    73
1070
     1
1070
    44
1040
1.0
1070
    74
1070
     0
1000
MTEXTEND
  0
LWPOLYLINE
  5
25057
330
747D
100
AcDbEntity
  8
部品1
 48
50.0
100
AcDbPolyline
 90
        2
 70
     0
 43
8.0
 10
5716.838594343878
 20
1873.519394400296
 10
6130.978496176834
 20
1873.519394400296
  0
TEXT
  5
25058
330
747D
100
AcDbEntity
  8
部品1
 48
50.0
100
AcDbText
 10
5716.838594343878
 20
1884.75838668355
 30
0.0
 40
80.0
  1
▽G.L
  7
STYLE2
100
AcDbText
  0
DIMENSION
  5
25059
330
747D
100
AcDbEntity
  8
寸法
 48
50.0
100
AcDbDimension
  2
*D57
 10
5860.558182444375
 20
1329.519394400295
 30
0.0
 11
5860.558182444375
 21
1449.519394400295
 31
0.0
 70
   160
  1
150
 71
     5
 42
240.0
  3
INABA_S40G
100
AcDbAlignedDimension
 13
6002.978496176835
 23
1569.519394400295
 33
0.0
 14
5922.978496176838
 24
1329.519394400295
 34
0.0
 50
90.0
100
AcDbRotatedDimension
1001
ACAD
1000
DSTYLE
1002
{
1070
   174
1070
     0
1070
   272
1070
     1
1070
   279
1070
     1
1070
   288
1070
     0
1070
   341
1005
0
1002
}
  0
LEADER
  5
2505A
330
747D
100
AcDbEntity
  8
寸法
 48
50.0
100
AcDbLeader
  3
INABA_S50G
 71
     0
 73
     0
 75
     1
 40
100.0
 41
225.0
 76
     3
 10
6098.881448528977
 20
1449.519394400295
 30
0.0
 10
5977.043469981641
 20
1185.996700781858
 30
0.0
 10
5852.043469981641
 20
1185.996700781858
 30
0.0
1001
ACAD
1000
DSTYLE
1002
{
1070
    40
1040
1.0
1070
   272
1070
     1
1070
   279
1070
     1
1070
   341
1005
0
1002
}
  0
LEADER
  5
2505B
330
747D
100
AcDbEntity
  8
寸法
 48
50.0
100
AcDbLeader
  3
INABA_S50G
 71
     0
 73
     0
 75
     1
 40
100.0
 41
222.7272727272727
 76
     3
 10
6226.978496176834
 20
1449.519394400295
 30
0.0
 10
6005.166197539075
 20
1005.680548242415
 30
0.0
 10
5880.166197539075
 20
1005.680548242415
 30
0.0
1001
ACAD
1000
DSTYLE
1002
{
1070
    40
1040
1.0
1070
   272
1070
     1
1070
   279
1070
     1
1070
   341
1005
0
1002
}
  0
MTEXT
  5
2505C
102
{ACAD_REACTORS
330
2505D
102
}
330
747D
100
AcDbEntity
  8
寸法
 62
     7
 48
50.0
100
AcDbMText
 10
6041.72844195403
 20
1714.819997217752
 30
0.0
 40
80.0
 41
0.8
 71
     6
 72
     1
  1
\A1;D10@300
  7
STYLE2
 73
     1
 44
1.0
1001
ACAD
1000
MTEXTBEGIN
1070
    73
1070
     1
1070
    44
1040
1.0
1070
    74
1070
     0
1000
MTEXTEND
  0
LEADER
  5
2505D
330
747D
100
AcDbEntity
  8
寸法
 48
50.0
100
AcDbLeader
  3
INABA_S50G
 71
     0
 73
     0
 75
     1
 40
100.0
 41
540.3409090909091
 76
     3
 10
6234.978496176835
 20
1871.646609097418
 30
0.0
 10
6176.996259648136
 20
1650.176280556613
 30
0.0
 10
6051.996259648136
 20
1650.176280556613
 30
0.0
213
-9.732182305893367
223
-4.643716661138569
233
0.0
1001
ACAD
1000
DSTYLE
1002
{
1070
    40
1040
1.0
1070
   272
1070
     1
1070
   279
1070
     1
1070
   341
1005
0
1002
}
  0
LEADER
  5
2505E
330
747D
100
AcDbEntity
  8
寸法
 48
50.0
100
AcDbLeader
  3
INABA_S50G
 71
     0
 73
     0
 75
     1
 40
130.1136363636363
 41
651.1363636363636
 76
     3
 10
6210.978496176835
 20
2113.519394400295
 30
0.0
 10
6098.553916012818
 20
2253.990159856883
 30
0.0
 10
5973.553916012818
 20
2253.990159856883
 30
0.0
1001
ACAD
1000
DSTYLE
1002
{
1070
    40
1040
1.0
1070
   272
1070
     1
1070
   279
1070
     1
1070
   341
1005
0
1002
}
  0
MTEXT
  5
2505F
102
{ACAD_REACTORS
330
2505E
102
}
330
747D
100
AcDbEntity
  8
寸法
 62
     7
 48
50.0
100
AcDbMText
 10
5910.880016693561
 20
2326.035614402337
 30
0.0
 40
80.0
 41
0.8
 71
     6
 72
     1
  1
\A1;金コテ押エ
  7
STYLE2
 73
     1
 44
1.0
1001
ACAD
1000
MTEXTBEGIN
1070
    73
1070
     1
1070
    44
1040
1.0
1070
    74
1070
     0
1000
MTEXTEND
  0
DIMENSION
  5
25060
330
747D
100
AcDbEntity
  8
寸法
 48
50.0
100
AcDbDimension
  2
*D58
 10
5395.941257615094
 20
1329.519394400295
 30
0.0
 11
5395.941257615095
 21
1701.059544056295
 31
0.0
 70
   160
  1
540
 71
     5
 42
784.0
  3
INABA_S40G
100
AcDbAlignedDimension
 13
6130.978496176834
 23
2113.519394400295
 33
0.0
 14
5922.978496176838
 24
1329.519394400295
 34
0.0
 50
90.0
100
AcDbRotatedDimension
1001
ACAD
1000
DSTYLE
1002
{
1070
   174
1070
     0
1070
   272
1070
     1
1070
   279
1070
     1
1070
   288
1070
     0
1070
   341
1005
0
1002
}
  0
MTEXT
  5
25061
102
{ACAD_REACTORS
330
2505B
102
}
330
747D
100
AcDbEntity
  8
寸法
 62
     7
 48
50.0
100
AcDbMText
 10
5860.166197539076
 20
1065.680548242415
 30
0.0
 40
80.0
 41
0.8
 71
     6
 72
     1
  1
D13
  7
STYLE2
 73
     1
 44
1.0
1001
ACAD
1000
MTEXTBEGIN
1070
    73
1070
     1
1070
    44
1040
1.0
1070
    74
1070
     0
1000
MTEXTEND
  0
MTEXT
  5
25062
102
{ACAD_REACTORS
330
2505A
102
}
330
747D
100
AcDbEntity
  8
寸法
 62
     7
 48
50.0
100
AcDbMText
 10
5832.043469981641
 20
1245.996700781859
 30
0.0
 40
80.0
 41
0.8
 71
     6
 72
     1
  1
D10
  7
STYLE2
 73
     1
 44
1.0
1001
ACAD
1000
MTEXTBEGIN
1070
    73
1070
     1
1070
    44
1040
1.0
1070
    74
1070
     0
1000
MTEXTEND
  0
DIMENSION
  5
25063
330
747D
100
AcDbEntity
  8
寸法
 48
50.0
100
AcDbDimension
  2
*D59
 10
6450.978496176834
 20
791.0897563951348
 30
0.0
 11
6206.881737498611
 21
791.0897563951348
 31
0.0
 70
   160
  1
300
 71
     5
 42
448.0
  3
INABA_S40G
100
AcDbAlignedDimension
 13
6002.978496176835
 23
1201.519394400295
 33
0.0
 14
6450.978496176834
 24
1201.519394400295
 34
0.0
100
AcDbRotatedDimension
1001
ACAD
1000
DSTYLE
1002
{
1070
   174
1070
     0
1070
   272
1070
     1
1070
   279
1070
     1
1070
   288
1070
     0
1070
   341
1005
0
1002
}
  0
MTEXT
  5
25064
102
{ACAD_REACTORS
330
25065
102
}
330
747D
100
AcDbEntity
  8
寸法
 62
     7
 48
50.0
100
AcDbMText
 10
7763.993737009091
 20
2635.320787298447
 30
0.0
 40
80.0
 41
0.8
 71
     6
 72
     1
  1
アンカープレート Ｕ
  7
STYLE2
 73
     1
 44
1.0
1001
ACAD
1000
MTEXTBEGIN
1070
    73
1070
     1
1070
    44
1040
1.0
1070
    74
1070
     0
1000
MTEXTEND
  0
LEADER
  5
25065
330
747D
100
AcDbEntity
  8
寸法
 48
50.0
100
AcDbLeader
  3
INABA_S50G
 73
     0
 75
     1
 40
106.3636363636363
 41
920.0
 76
     3
 10
7962.417809354029
 20
2183.079394400296
 30
0.0
 10
7913.99373700909
 20
2557.138969116628
 30
0.0
 10
7788.99373700909
 20
2557.138969116628
 30
0.0
340
25064
1001
ACAD
1000
DSTYLE
1002
{
1070
   341
1005
0
1070
    40
1040
1.0
1070
   343
1005
0
1070
   344
1005
0
1002
}
  0
LINE
  5
25066
330
747D
100
AcDbEntity
  8
細線
 48
50.0
100
AcDbLine
 10
6250.978496176835
 20
1951.892287068125
 30
0.0
 11
6322.978496176836
 21
2023.892287068125
 31
0.0
  0
ARC
  5
25067
330
747D
100
AcDbEntity
  8
部品1
 48
50.0
100
AcDbCircle
 10
6226.978496176836
 20
1973.77382379454
 30
0.0
 40
24.0
100
AcDbArc
 50
0.0
 51
180.0
  0
CIRCLE
  5
25068
330
747D
100
AcDbEntity
  8
部品1
 48
50.0
100
AcDbCircle
 10
6226.978496176836
 20
1973.77382379454
 30
0.0
 40
8.0
  0
LINE
  5
25069
330
747D
100
AcDbEntity
  8
部品1
 48
50.0
100
AcDbLine
 10
6130.978496176836
 20
1569.519394400295
 30
0.0
 11
6130.978496176836
 21
2113.519394400295
 31
0.0
  0
LINE
  5
2506A
330
747D
100
AcDbEntity
  8
部品1
 48
50.0
100
AcDbLine
 10
6322.978496176836
 20
2113.519394400295
 30
0.0
 11
6322.978496176836
 21
1569.519394400295
 31
0.0
  0
MTEXT
  5
2506B
102
{ACAD_REACTORS
330
25070
102
}
330
747D
100
AcDbEntity
  8
寸法
 62
     7
 48
50.0
100
AcDbMText
 10
6405.864433204229
 20
1974.786955699222
 30
0.0
 40
80.0
 41
0.8
 71
     4
 72
     1
  1
D13
  7
STYLE2
 73
     1
 44
1.0
1001
ACAD
1000
MTEXTBEGIN
1070
    73
1070
     1
1070
    44
1040
1.0
1070
    74
1070
     0
1000
MTEXTEND
  0
LEADER
  5
2506C
330
747D
100
AcDbEntity
  8
寸法
 48
50.0
100
AcDbLeader
  3
INABA_S50G
 71
     0
 73
     0
 74
     0
 75
     1
 40
100.0
 41
225.0
 76
     3
 10
6354.881448528978
 20
1449.519394400295
 30
0.0
 10
6409.306155983519
 20
1354.122325457322
 30
0.0
 10
6534.306155983519
 20
1354.122325457322
 30
0.0
1001
ACAD
1000
DSTYLE
1002
{
1070
    40
1040
1.0
1070
   272
1070
     1
1070
   279
1070
     1
1070
   341
1005
0
1002
}
  0
LEADER
  5
2506D
330
747D
100
AcDbEntity
  8
寸法
 48
50.0
100
AcDbLeader
  3
INABA_S50G
 71
     0
 73
     0
 74
     0
 75
     1
 40
100.0
 41
540.3409090909091
 76
     3
 10
6300.923665190009
 20
1432.778863986769
 30
0.0
 10
6419.716952038085
 20
1091.148045991872
 30
0.0
 10
6544.716952038085
 20
1091.148045991872
 30
0.0
213
0.0
223
-1.022262676269383
233
0.0
1001
ACAD
1000
DSTYLE
1002
{
1070
    40
1040
1.0
1070
   272
1070
     1
1070
   279
1070
     1
1070
   341
1005
0
1002
}
  0
MTEXT
  5
2506E
102
{ACAD_REACTORS
330
2506C
102
}
330
747D
100
AcDbEntity
  8
寸法
 62
     7
 48
50.0
100
AcDbMText
 10
6554.306155983519
 20
1414.122325457322
 30
0.0
 40
80.0
 41
0.8
 71
     4
 72
     1
  1
D10
  7
STYLE2
 73
     1
 44
1.0
1001
ACAD
1000
MTEXTBEGIN
1070
    73
1070
     1
1070
    44
1040
1.0
1070
    74
1070
     0
1000
MTEXTEND
  0
LWPOLYLINE
  5
2506F
330
747D
100
AcDbEntity
  8
部品1
 48
50.0
100
AcDbPolyline
 90
        2
 70
     0
 43
8.0
 10
6322.978496176834
 20
1873.519394400296
 10
6737.118398009792
 20
1873.519394400296
  0
LEADER
  5
25070
330
747D
100
AcDbEntity
  8
寸法
 48
50.0
100
AcDbLeader
  3
INABA_S50G
 71
     0
 73
     0
 74
     0
 75
     1
 40
100.0
 41
222.7272727272727
 76
     3
 10
6226.978496176834
 20
1973.77382379454
 30
0.0
 10
6260.864433204229
 20
1914.786955699223
 30
0.0
 10
6385.864433204229
 20
1914.786955699223
 30
0.0
1001
ACAD
1000
DSTYLE
1002
{
1070
    40
1040
1.0
1070
   272
1070
     1
1070
   279
1070
     1
1070
   341
1005
0
1002
}
  0
LINE
  5
25071
330
747D
100
AcDbEntity
  8
細線
 48
50.0
100
AcDbLine
 10
6002.978496176829
 20
1488.366140162466
 30
0.0
 11
6084.131750414663
 21
1569.519394400295
 31
0.0
  0
LINE
  5
25072
330
747D
100
AcDbEntity
  8
細線
 48
50.0
100
AcDbLine
 10
6210.844343654239
 20
1507.646609097417
 30
0.0
 11
6234.978496176841
 21
1531.780761620016
 31
0.0
  0
LINE
  5
25073
330
747D
100
AcDbEntity
  8
細線
 48
50.0
100
AcDbLine
 10
6117.776360593908
 20
1441.519394400295
 30
0.0
 11
6234.978496176836
 21
1558.72152998322
 31
0.0
  0
LINE
  5
25074
330
747D
100
AcDbEntity
  8
部品1
 48
50.0
100
AcDbLine
 10
6002.978496176836
 20
1329.519394400295
 30
0.0
 11
6002.978496176836
 21
1569.519394400295
 31
0.0
  0
LINE
  5
25075
330
747D
100
AcDbEntity
  8
細線
 48
50.0
100
AcDbLine
 10
6360.243275862779
 20
1441.519394400295
 30
0.0
 11
6450.978496176836
 21
1532.254614714354
 31
0.0
  0
LINE
  5
25076
330
747D
100
AcDbEntity
  8
細線
 48
50.0
100
AcDbLine
 10
6333.302507499563
 20
1441.519394400295
 30
0.0
 11
6450.978496176836
 21
1559.195383077561
 31
0.0
  0
LINE
  5
25077
330
747D
100
AcDbEntity
  8
部品1
 48
50.0
100
AcDbLine
 10
6450.978496176836
 20
1569.519394400295
 30
0.0
 11
6450.978496176836
 21
1329.519394400295
 31
0.0
  0
LINE
  5
25078
330
747D
100
AcDbEntity
  8
部品1
 48
50.0
100
AcDbLine
 10
6250.978496176841
 20
1449.519394400295
 30
0.0
 11
6250.978496176835
 21
1973.77382379454
 31
0.0
  0
LINE
  5
25079
330
747D
100
AcDbEntity
  8
部品1
 48
50.0
100
AcDbLine
 10
6234.978496176841
 20
1449.519394400295
 30
0.0
 11
6234.978496176829
 21
1973.77382379454
 31
0.0
  0
LINE
  5
2507A
330
747D
100
AcDbEntity
  8
細線
 48
50.0
100
AcDbLine
 10
6218.978496176835
 20
1488.839993256806
 30
0.0
 11
6234.978496176841
 21
1504.839993256806
 31
0.0
  0
LINE
  5
2507B
330
747D
100
AcDbEntity
  8
細線
 48
50.0
100
AcDbLine
 10
6208.16133567285
 20
1201.519394400295
 30
0.0
 11
6242.458832304032
 21
1329.519394400295
 31
0.0
  0
LINE
  5
2507C
330
747D
100
AcDbEntity
  8
部品1
 48
50.0
100
AcDbLine
 10
6530.978496176839
 20
1201.519394400295
 30
0.0
 11
5922.978496176837
 21
1201.519394400295
 31
0.0
  0
LINE
  5
2507D
330
747D
100
AcDbEntity
  8
部品1
 48
50.0
100
AcDbLine
 10
6058.978496176836
 20
1425.519394400295
 30
0.0
 11
6394.978496176836
 21
1425.519394400295
 31
0.0
  0
LINE
  5
2507E
330
747D
100
AcDbEntity
  8
部品1
 48
50.0
100
AcDbLine
 10
6058.978496176836
 20
1441.519394400295
 30
0.0
 11
6394.978496176836
 21
1441.519394400295
 31
0.0
  0
LINE
  5
2507F
330
747D
100
AcDbEntity
  8
部品1
 48
50.0
100
AcDbLine
 10
6530.978496176839
 20
1329.519394400295
 30
0.0
 11
5922.978496176837
 21
1329.519394400295
 31
0.0
  0
CIRCLE
  5
25080
330
747D
100
AcDbEntity
  8
部品1
 48
50.0
100
AcDbCircle
 10
6226.978496176836
 20
1449.519394400295
 30
0.0
 40
8.0
  0
LINE
  5
25081
330
747D
100
AcDbEntity
  8
細線
 48
50.0
100
AcDbLine
 10
6221.302507499569
 20
1329.519394400295
 30
0.0
 11
6317.302507499569
 21
1425.519394400295
 31
0.0
  0
LINE
  5
25082
330
747D
100
AcDbEntity
  8
細線
 48
50.0
100
AcDbLine
 10
6050.385245778351
 20
1201.519394400295
 30
0.0
 11
6084.682742409534
 21
1329.519394400295
 31
0.0
  0
LINE
  5
25083
330
747D
100
AcDbEntity
  8
細線
 48
50.0
100
AcDbLine
 10
6129.273290725596
 20
1201.519394400293
 30
0.0
 11
6163.57078735678
 21
1329.519394400293
 31
0.0
  0
LINE
  5
25084
330
747D
100
AcDbEntity
  8
細線
 48
50.0
100
AcDbLine
 10
5971.497200831094
 20
1201.519394400293
 30
0.0
 11
6005.794697462277
 21
1329.519394400293
 31
0.0
  0
LINE
  5
25085
330
747D
100
AcDbEntity
  8
部品1
 48
50.0
100
AcDbLine
 10
5922.978496176837
 20
1201.519394400295
 30
0.0
 11
5922.978496176837
 21
1329.519394400295
 31
0.0
  0
LINE
  5
25086
330
747D
100
AcDbEntity
  8
細線
 48
50.0
100
AcDbLine
 10
6056.816026396697
 20
1225.519394400295
 30
0.0
 11
6063.246807015045
 21
1201.519394400295
 31
0.0
  0
LINE
  5
25087
330
747D
100
AcDbEntity
  8
細線
 48
50.0
100
AcDbLine
 10
5977.927981449447
 20
1225.519394400295
 30
0.0
 11
5984.358762067793
 21
1201.519394400295
 31
0.0
  0
LINE
  5
25088
330
747D
100
AcDbEntity
  8
細線
 48
50.0
100
AcDbLine
 10
6214.592116291203
 20
1225.519394400295
 30
0.0
 11
6221.022896909548
 21
1201.519394400295
 31
0.0
  0
LINE
  5
25089
330
747D
100
AcDbEntity
  8
細線
 48
50.0
100
AcDbLine
 10
6135.70407134395
 20
1225.519394400295
 30
0.0
 11
6142.134851962296
 21
1201.519394400295
 31
0.0
  0
LINE
  5
2508A
330
747D
100
AcDbEntity
  8
細線
 48
50.0
100
AcDbLine
 10
6032.717128957119
 20
1329.519394400295
 30
0.0
 11
6128.717128957119
 21
1425.519394400295
 31
0.0
  0
LINE
  5
2508B
330
747D
100
AcDbEntity
  8
細線
 48
50.0
100
AcDbLine
 10
6005.776360593908
 20
1329.519394400295
 30
0.0
 11
6101.776360593908
 21
1425.519394400295
 31
0.0
  0
LINE
  5
2508C
330
747D
100
AcDbEntity
  8
部品1
 48
50.0
100
AcDbLine
 10
6058.978496176836
 20
1441.519394400295
 30
0.0
 11
6058.978496176836
 21
1425.519394400295
 31
0.0
  0
LINE
  5
2508D
330
747D
100
AcDbEntity
  8
細線
 48
50.0
100
AcDbLine
 10
5999.363916843936
 20
1305.519394400295
 30
0.0
 11
5992.933136225587
 21
1329.519394400295
 31
0.0
  0
LINE
  5
2508E
330
747D
100
AcDbEntity
  8
細線
 48
50.0
100
AcDbLine
 10
5922.978496176836
 20
1314.859315366075
 30
0.0
 11
5926.906652515032
 21
1329.519394400295
 31
0.0
  0
LINE
  5
2508F
330
747D
100
AcDbEntity
  8
部品1
 48
50.0
100
AcDbLine
 10
6218.978496176835
 20
1507.646609097417
 30
0.0
 11
6202.978496176836
 21
1507.646609097417
 31
0.0
  0
CIRCLE
  5
25090
330
747D
100
AcDbEntity
  8
部品1
 48
50.0
100
AcDbCircle
 10
6098.978496176836
 20
1449.519394400295
 30
0.0
 40
8.0
  0
LINE
  5
25091
330
747D
100
AcDbEntity
  8
細線
 48
50.0
100
AcDbLine
 10
6171.657897320324
 20
1441.519394400295
 30
0.0
 11
6202.978496176836
 21
1472.839993256806
 31
0.0
  0
ARC
  5
25092
330
747D
100
AcDbEntity
  8
部品1
 48
50.0
100
AcDbCircle
 10
6226.978496176836
 20
1449.519394400295
 30
0.0
 40
24.0
100
AcDbArc
 50
180.0
 51
199.4712206345112
  0
LINE
  5
25093
330
747D
100
AcDbEntity
  8
細線
 48
50.0
100
AcDbLine
 10
6078.251961791186
 20
1305.519394400295
 30
0.0
 11
6071.821181172841
 21
1329.519394400295
 31
0.0
  0
LINE
  5
25094
330
747D
100
AcDbEntity
  8
細線
 48
50.0
100
AcDbLine
 10
6157.14000673844
 20
1305.519394400295
 30
0.0
 11
6150.709226120093
 21
1329.519394400295
 31
0.0
  0
LINE
  5
25095
330
747D
100
AcDbEntity
  8
細線
 48
50.0
100
AcDbLine
 10
6059.657897320324
 20
1329.519394400295
 30
0.0
 11
6155.657897320324
 21
1425.519394400295
 31
0.0
  0
LINE
  5
25096
330
747D
100
AcDbEntity
  8
部品1
 48
50.0
100
AcDbLine
 10
6202.978496176836
 20
1507.646609097417
 30
0.0
 11
6202.978496176836
 21
1449.519394400295
 31
0.0
  0
LINE
  5
25097
330
747D
100
AcDbEntity
  8
細線
 48
50.0
100
AcDbLine
 10
6144.717128957118
 20
1441.519394400295
 30
0.0
 11
6202.978496176836
 21
1499.780761620013
 31
0.0
  0
LINE
  5
25098
330
747D
100
AcDbEntity
  8
部品1
 48
50.0
100
AcDbLine
 10
6218.978496176835
 20
1507.646609097417
 30
0.0
 11
6218.978496176835
 21
1449.519394400295
 31
0.0
  0
LINE
  5
25099
330
747D
100
AcDbEntity
  8
部品1
 48
50.0
100
AcDbLine
 10
6530.978496176839
 20
1329.519394400295
 30
0.0
 11
6530.978496176839
 21
1201.519394400295
 31
0.0
  0
LINE
  5
2509A
330
747D
100
AcDbEntity
  8
細線
 48
50.0
100
AcDbLine
 10
6444.82547051459
 20
1201.519394400295
 30
0.0
 11
6479.122967145774
 21
1329.519394400293
 31
0.0
  0
LINE
  5
2509B
330
747D
100
AcDbEntity
  8
細線
 48
50.0
100
AcDbLine
 10
6287.049380620095
 20
1201.519394400295
 30
0.0
 11
6321.346877251282
 21
1329.519394400293
 31
0.0
  0
LINE
  5
2509C
330
747D
100
AcDbEntity
  8
細線
 48
50.0
100
AcDbLine
 10
6365.937425567344
 20
1201.519394400293
 30
0.0
 11
6400.234922198528
 21
1329.519394400293
 31
0.0
  0
LINE
  5
2509D
330
747D
100
AcDbEntity
  8
細線
 48
50.0
100
AcDbLine
 10
6372.368206185694
 20
1225.519394400295
 30
0.0
 11
6378.798986804041
 21
1201.519394400295
 31
0.0
  0
LINE
  5
2509E
330
747D
100
AcDbEntity
  8
細線
 48
50.0
100
AcDbLine
 10
6293.480161238448
 20
1225.519394400295
 30
0.0
 11
6299.910941856794
 21
1201.519394400295
 31
0.0
  0
LINE
  5
2509F
330
747D
100
AcDbEntity
  8
細線
 48
50.0
100
AcDbLine
 10
6451.25625113294
 20
1225.519394400295
 30
0.0
 11
6457.687031751288
 21
1201.519394400295
 31
0.0
  0
LINE
  5
250A0
330
747D
100
AcDbEntity
  8
細線
 48
50.0
100
AcDbLine
 10
6530.144296080187
 20
1225.519394400295
 30
0.0
 11
6530.978496176835
 21
1222.40611725593
 31
0.0
  0
LINE
  5
250A1
330
747D
100
AcDbEntity
  8
細線
 48
50.0
100
AcDbLine
 10
6523.713515461839
 20
1201.519394400293
 30
0.0
 11
6530.978496176835
 21
1228.632671544683
 31
0.0
  0
LINE
  5
250A2
330
747D
100
AcDbEntity
  8
細線
 48
50.0
100
AcDbLine
 10
6387.184044225983
 20
1441.519394400295
 30
0.0
 11
6450.978496176836
 21
1505.313846351146
 31
0.0
  0
CIRCLE
  5
250A3
330
747D
100
AcDbEntity
  8
部品1
 48
50.0
100
AcDbCircle
 10
6354.978496176836
 20
1449.519394400295
 30
0.0
 40
8.0
  0
ARC
  5
250A4
330
747D
100
AcDbEntity
  8
部品1
 48
50.0
100
AcDbCircle
 10
6226.978496176836
 20
1449.519394400295
 30
0.0
 40
24.0
100
AcDbArc
 50
340.5287793654888
 51
0.0
  0
LINE
  5
250A5
330
747D
100
AcDbEntity
  8
細線
 48
50.0
100
AcDbLine
 10
6236.028051685692
 20
1305.519394400295
 30
0.0
 11
6229.597271067344
 21
1329.519394400295
 31
0.0
  0
LINE
  5
250A6
330
747D
100
AcDbEntity
  8
細線
 48
50.0
100
AcDbLine
 10
6314.916096632938
 20
1305.519394400295
 30
0.0
 11
6308.485316014591
 21
1329.519394400295
 31
0.0
  0
LINE
  5
250A7
330
747D
100
AcDbEntity
  8
細線
 48
50.0
100
AcDbLine
 10
6248.24327586278
 20
1329.519394400295
 30
0.0
 11
6344.24327586278
 21
1425.519394400295
 31
0.0
  0
LINE
  5
250A8
330
747D
100
AcDbEntity
  8
細線
 48
50.0
100
AcDbLine
 10
6275.184044225983
 20
1329.519394400295
 30
0.0
 11
6371.18493207112
 21
1425.520282245434
 31
0.0
  0
LINE
  5
250A9
330
747D
100
AcDbEntity
  8
部品1
 48
50.0
100
AcDbLine
 10
6394.978496176836
 20
1441.519394400295
 30
0.0
 11
6394.978496176836
 21
1425.519394400295
 31
0.0
  0
LINE
  5
250AA
330
747D
100
AcDbEntity
  8
細線
 48
50.0
100
AcDbLine
 10
6472.692186527431
 20
1305.519394400295
 30
0.0
 11
6466.261405909083
 21
1329.519394400295
 31
0.0
  0
LINE
  5
250AB
330
747D
100
AcDbEntity
  8
細線
 48
50.0
100
AcDbLine
 10
6436.828654405229
 20
1329.519394400295
 30
0.0
 11
6450.978496176836
 21
1343.669236171901
 31
0.0
  0
LINE
  5
250AC
330
747D
100
AcDbEntity
  8
細線
 48
50.0
100
AcDbLine
 10
6393.804141580183
 20
1305.519394400295
 30
0.0
 11
6387.373360961837
 21
1329.519394400295
 31
0.0
  0
LINE
  5
250AD
330
747D
100
AcDbEntity
  8
細線
 48
50.0
100
AcDbLine
 10
6130.978496176836
 20
1643.306908525673
 30
0.0
 11
6234.978496176841
 21
1747.306908525676
 31
0.0
  0
LINE
  5
250AE
330
747D
100
AcDbEntity
  8
細線
 48
50.0
100
AcDbLine
 10
6130.978496176836
 20
1670.247676888881
 30
0.0
 11
6234.978496176836
 21
1774.247676888881
 31
0.0
  0
LINE
  5
250AF
330
747D
100
AcDbEntity
  8
細線
 48
50.0
100
AcDbLine
 10
6130.978496176836
 20
1616.366140162466
 30
0.0
 11
6234.978496176841
 21
1720.366140162466
 31
0.0
  0
LINE
  5
250B0
330
747D
100
AcDbEntity
  8
細線
 48
50.0
100
AcDbLine
 10
6218.978496176835
 20
1919.892287068125
 30
0.0
 11
6234.978496176836
 21
1935.892287068125
 31
0.0
  0
LINE
  5
250B1
330
747D
100
AcDbEntity
  8
細線
 48
50.0
100
AcDbLine
 10
6218.978496176835
 20
1946.833055431332
 30
0.0
 11
6234.978496176836
 21
1962.833055431332
 31
0.0
  0
LINE
  5
250B2
330
747D
100
AcDbEntity
  8
部品1
 48
50.0
100
AcDbLine
 10
6002.978496176836
 20
1569.519394400295
 30
0.0
 11
6130.978496176836
 21
1569.519394400295
 31
0.0
  0
LINE
  5
250B3
330
747D
100
AcDbEntity
  8
細線
 48
50.0
100
AcDbLine
 10
6002.978496176829
 20
1515.30690852567
 30
0.0
 11
6057.19098205146
 21
1569.519394400295
 31
0.0
  0
LINE
  5
250B4
330
747D
100
AcDbEntity
  8
細線
 48
50.0
100
AcDbLine
 10
6002.978496176829
 20
1542.247676888881
 30
0.0
 11
6030.250213688249
 21
1569.519394400295
 31
0.0
  0
LINE
  5
250B5
330
747D
100
AcDbEntity
  8
部品1
 48
50.0
100
AcDbLine
 10
6218.978496176835
 20
1915.646609097417
 30
0.0
 11
6202.978496176836
 21
1915.646609097421
 31
0.0
  0
LINE
  5
250B6
330
747D
100
AcDbEntity
  8
細線
 48
50.0
100
AcDbLine
 10
6130.978496176836
 20
1831.892287068125
 30
0.0
 11
6214.73281820613
 21
1915.646609097417
 31
0.0
  0
LINE
  5
250B7
330
747D
100
AcDbEntity
  8
細線
 48
50.0
100
AcDbLine
 10
6130.978496176836
 20
1858.833055431333
 30
0.0
 11
6202.978496176836
 21
1930.833055431332
 31
0.0
  0
LINE
  5
250B8
330
747D
100
AcDbEntity
  8
部品1
 48
50.0
100
AcDbLine
 10
6202.978496176836
 20
1915.646609097421
 30
0.0
 11
6202.978496176836
 21
1973.77382379454
 31
0.0
  0
LINE
  5
250B9
330
747D
100
AcDbEntity
  8
細線
 48
50.0
100
AcDbLine
 10
6130.978496176836
 20
1885.77382379454
 30
0.0
 11
6202.978496176836
 21
1957.77382379454
 31
0.0
  0
LINE
  5
250BA
330
747D
100
AcDbEntity
  8
部品1
 48
50.0
100
AcDbLine
 10
6218.978496176835
 20
1915.646609097417
 30
0.0
 11
6218.978496176835
 21
1973.77382379454
 31
0.0
  0
LINE
  5
250BB
330
747D
100
AcDbEntity
  8
細線
 48
50.0
100
AcDbLine
 10
6250.978496176841
 20
1736.366140162466
 30
0.0
 11
6322.978496176828
 21
1808.366140162466
 31
0.0
  0
LINE
  5
250BC
330
747D
100
AcDbEntity
  8
部品1
 48
50.0
100
AcDbLine
 10
6322.978496176836
 20
1569.519394400295
 30
0.0
 11
6450.978496176836
 21
1569.519394400295
 31
0.0
  0
LINE
  5
250BD
330
747D
100
AcDbEntity
  8
細線
 48
50.0
100
AcDbLine
 10
6250.978496176841
 20
1547.780761620016
 30
0.0
 11
6322.978496176828
 21
1619.780761620011
 31
0.0
  0
LINE
  5
250BE
330
747D
100
AcDbEntity
  8
細線
 48
50.0
100
AcDbLine
 10
6250.978496176841
 20
1574.721529983224
 30
0.0
 11
6322.978496176828
 21
1646.72152998322
 31
0.0
  0
LINE
  5
250BF
330
747D
100
AcDbEntity
  8
細線
 48
50.0
100
AcDbLine
 10
6250.978496176841
 20
1520.839993256806
 30
0.0
 11
6322.978496176828
 21
1592.839993256806
 31
0.0
  0
LINE
  5
250C0
330
747D
100
AcDbEntity
  8
細線
 48
50.0
100
AcDbLine
 10
6250.978496176835
 20
1790.247676888881
 30
0.0
 11
6322.978496176836
 21
1862.247676888881
 31
0.0
  0
LINE
  5
250C1
330
747D
100
AcDbEntity
  8
細線
 48
50.0
100
AcDbLine
 10
6250.978496176841
 20
1763.306908525676
 30
0.0
 11
6322.978496176828
 21
1835.30690852567
 31
0.0
  0
MTEXT
  5
250C2
102
{ACAD_REACTORS
330
2506D
102
}
330
747D
100
AcDbEntity
  8
寸法
 62
     7
 48
50.0
100
AcDbMText
 10
6564.716952038086
 20
1152.170308668142
 30
0.0
 40
80.0
 41
0.8
 71
     4
 72
     1
  1
\A1;D10@300
  7
STYLE2
 73
     1
 44
1.0
1001
ACAD
1000
MTEXTBEGIN
1070
    73
1070
     1
1070
    44
1040
1.0
1070
    74
1070
     0
1000
MTEXTEND
  0
DIMENSION
  5
250C3
330
747D
100
AcDbEntity
  8
寸法
 48
50.0
100
AcDbDimension
  2
*D60
 10
6130.978496176834
 20
2433.519394400295
 30
0.0
 11
6238.204826522032
 21
2533.187202316675
 31
0.0
 70
   160
  1
120\P195
 71
     5
 42
192.0
  3
INABA_S40G
100
AcDbAlignedDimension
 13
6322.978496176834
 23
2113.519394400295
 33
0.0
 14
6130.978496176834
 24
2113.519394400295
 34
0.0
100
AcDbRotatedDimension
1001
ACAD
1000
DSTYLE
1002
{
1070
   174
1070
     0
1070
   272
1070
     1
1070
   279
1070
     1
1070
   288
1070
     0
1070
   341
1005
0
1002
}
  0
LINE
  5
250C4
330
747D
100
AcDbEntity
  8
部品1
 48
50.0
100
AcDbLine
 10
6130.978496176836
 20
2113.519394400295
 30
0.0
 11
6322.978496176836
 21
2113.519394400295
 31
0.0
  0
LINE
  5
250C5
330
747D
100
AcDbEntity
  8
細線
 48
50.0
100
AcDbLine
 10
6130.978496176836
 20
2074.359202336993
 30
0.0
 11
6170.13868824014
 21
2113.519394400295
 31
0.0
  0
LINE
  5
250C6
330
747D
100
AcDbEntity
  8
細線
 48
50.0
100
AcDbLine
 10
6130.978496176836
 20
2047.418433973785
 30
0.0
 11
6197.079456603344
 21
2113.519394400295
 31
0.0
  0
LINE
  5
250C7
330
747D
100
AcDbEntity
  8
細線
 48
50.0
100
AcDbLine
 10
6130.978496176836
 20
2101.2999707002
 30
0.0
 11
6143.19791987693
 21
2113.519394400295
 31
0.0
  0
LINE
  5
250C8
330
747D
100
AcDbEntity
  8
細線
 48
50.0
100
AcDbLine
 10
6250.531203442822
 20
1978.385762697317
 30
0.0
 11
6322.978496176836
 21
2050.833055431333
 31
0.0
  0
LINE
  5
250C9
330
747D
100
AcDbEntity
  8
細線
 48
50.0
100
AcDbLine
 10
6239.470918679305
 20
1994.266246297011
 30
0.0
 11
6322.978496176836
 21
2077.773823794541
 31
0.0
  0
LINE
  5
250CA
330
747D
100
AcDbEntity
  8
細線
 48
50.0
100
AcDbLine
 10
8115.417809354031
 20
1954.647676888883
 30
0.0
 11
8245.017809354029
 21
2084.247676888882
 31
0.0
  0
LINE
  5
250CB
330
747D
100
AcDbEntity
  8
部品1
100
AcDbLine
 10
8245.017809354028
 20
1569.519394400295
 30
0.0
 11
8245.017809354029
 21
2113.519394400295
 31
0.0
  0
LINE
  5
250CC
330
747D
100
AcDbEntity
  8
部品1
 48
50.0
100
AcDbLine
 10
7831.017809354029
 20
1569.519394400295
 30
0.0
 11
7831.017809354029
 21
2113.519394400295
 31
0.0
  0
LINE
  5
250CD
330
747D
100
AcDbEntity
  8
細線
 48
50.0
100
AcDbLine
 10
7831.017809354029
 20
1885.77382379454
 30
0.0
 11
7989.417809354029
 21
2044.173823794537
 31
0.0
  0
LINE
  5
250CE
330
747D
100
AcDbEntity
  8
細線
 48
50.0
100
AcDbLine
 10
7831.017809354029
 20
1858.833055431333
 30
0.0
 11
7989.417809354029
 21
2017.23305543133
 31
0.0
  0
LINE
  5
250CF
330
747D
100
AcDbEntity
  8
細線
 48
50.0
100
AcDbLine
 10
7831.017809354029
 20
1831.892287068125
 30
0.0
 11
7989.417809354025
 21
1990.292287068118
 31
0.0
  0
TEXT
  5
250D0
330
747D
100
AcDbEntity
  8
部品1
 48
50.0
100
AcDbText
 10
7416.877907521073
 20
1884.75838668355
 30
0.0
 40
80.0
  1
▽G.L
  7
STYLE2
100
AcDbText
  0
LINE
  5
250D1
330
747D
100
AcDbEntity
  8
部品1
100
AcDbLine
 10
8061.417809354029
 20
1888.519394400295
 30
0.0
 11
8061.417809354024
 21
2162.679394400296
 31
0.0
  0
LINE
  5
250D2
330
747D
100
AcDbEntity
  8
部品1
100
AcDbLine
 10
8043.417809354028
 20
1888.519394400295
 30
0.0
 11
8043.417809354025
 21
2162.679394400296
 31
0.0
  0
LINE
  5
250D3
330
747D
100
AcDbEntity
  8
細線
 48
50.0
100
AcDbLine
 10
8115.417809354031
 20
1900.766140162454
 30
0.0
 11
8245.017809354029
 21
2030.366140162445
 31
0.0
  0
LINE
  5
250D4
330
747D
100
AcDbEntity
  8
細線
 48
50.0
100
AcDbLine
 10
8115.417809354031
 20
1927.706908525666
 30
0.0
 11
8245.017809354029
 21
2057.306908525663
 31
0.0
  0
LINE
  5
250D5
330
747D
100
AcDbEntity
  8
部品1
100
AcDbLine
 10
8115.417809354028
 20
1789.519394400295
 30
0.0
 11
8115.417809354028
 21
2113.519394400295
 31
0.0
  0
LINE
  5
250D6
330
747D
100
AcDbEntity
  8
部品1
100
AcDbLine
 10
7989.417809354023
 20
1789.519394400295
 30
0.0
 11
7989.417809354029
 21
2113.519394400295
 31
0.0
  0
LINE
  5
250D7
330
747D
100
AcDbEntity
  8
細線
 48
50.0
100
AcDbLine
 10
7831.017809354029
 20
1643.306908525673
 30
0.0
 11
7989.417809354022
 21
1801.706908525662
 31
0.0
  0
LINE
  5
250D8
330
747D
100
AcDbEntity
  8
細線
 48
50.0
100
AcDbLine
 10
7831.017809354029
 20
1616.366140162466
 30
0.0
 11
8004.171063591865
 21
1789.519394400293
 31
0.0
  0
LINE
  5
250D9
330
747D
100
AcDbEntity
  8
細線
 48
50.0
100
AcDbLine
 10
7831.017809354029
 20
1670.247676888881
 30
0.0
 11
7989.417809354022
 21
1828.647676888876
 31
0.0
  0
LINE
  5
250DA
330
747D
100
AcDbEntity
  8
細線
 48
50.0
100
AcDbLine
 10
7759.697210497518
 20
1329.519394400295
 30
0.0
 11
8245.017809354029
 21
1814.839993256802
 31
0.0
  0
LINE
  5
250DB
330
747D
100
AcDbEntity
  8
細線
 48
50.0
100
AcDbLine
 10
7732.756442134313
 20
1329.519394400295
 30
0.0
 11
8245.017809354031
 21
1841.780761620009
 31
0.0
  0
LINE
  5
250DC
330
747D
100
AcDbEntity
  8
細線
 48
50.0
100
AcDbLine
 10
7705.815673771103
 20
1329.519394400295
 30
0.0
 11
8245.017809354028
 21
1868.72152998322
 31
0.0
  0
LINE
  5
250DD
330
747D
100
AcDbEntity
  8
部品1
 48
50.0
100
AcDbLine
 10
8453.017809354031
 20
1329.519394400295
 30
0.0
 11
7623.01780935403
 21
1329.519394400295
 31
0.0
  0
LINE
  5
250DE
330
747D
100
AcDbEntity
  8
部品1
 48
50.0
100
AcDbLine
 10
8453.017809354031
 20
1201.519394400295
 30
0.0
 11
7623.01780935403
 21
1201.519394400295
 31
0.0
  0
LINE
  5
250DF
330
747D
100
AcDbEntity
  8
細線
 48
50.0
100
AcDbLine
 10
7703.017809354024
 20
1488.366140162466
 30
0.0
 11
7784.171063591857
 21
1569.519394400295
 31
0.0
  0
LINE
  5
250E0
330
747D
100
AcDbEntity
  8
部品1
 48
50.0
100
AcDbLine
 10
7703.017809354029
 20
1329.519394400295
 30
0.0
 11
7703.017809354029
 21
1569.519394400295
 31
0.0
  0
LINE
  5
250E1
330
747D
100
AcDbEntity
  8
細線
 48
50.0
100
AcDbLine
 10
7750.424558955547
 20
1201.519394400295
 30
0.0
 11
7784.722055586728
 21
1329.519394400295
 31
0.0
  0
LINE
  5
250E2
330
747D
100
AcDbEntity
  8
部品1
 48
50.0
100
AcDbLine
 10
7623.01780935403
 20
1201.519394400295
 30
0.0
 11
7623.01780935403
 21
1329.519394400295
 31
0.0
  0
LINE
  5
250E3
330
747D
100
AcDbEntity
  8
細線
 48
50.0
100
AcDbLine
 10
7671.536514008287
 20
1201.519394400293
 30
0.0
 11
7705.834010639472
 21
1329.519394400293
 31
0.0
  0
LINE
  5
250E4
330
747D
100
AcDbEntity
  8
細線
 48
50.0
100
AcDbLine
 10
7829.312603902792
 20
1201.519394400293
 30
0.0
 11
7863.610100533974
 21
1329.519394400293
 31
0.0
  0
LINE
  5
250E5
330
747D
100
AcDbEntity
  8
細線
 48
50.0
100
AcDbLine
 10
7677.96729462664
 20
1225.519394400295
 30
0.0
 11
7684.398075244986
 21
1201.519394400295
 31
0.0
  0
LINE
  5
250E6
330
747D
100
AcDbEntity
  8
細線
 48
50.0
100
AcDbLine
 10
7835.743384521146
 20
1225.519394400295
 30
0.0
 11
7842.174165139491
 21
1201.519394400295
 31
0.0
  0
LINE
  5
250E7
330
747D
100
AcDbEntity
  8
細線
 48
50.0
100
AcDbLine
 10
7756.855339573893
 20
1225.519394400295
 30
0.0
 11
7763.28612019224
 21
1201.519394400295
 31
0.0
  0
LINE
  5
250E8
330
747D
100
AcDbEntity
  8
細線
 48
50.0
100
AcDbLine
 10
7623.017809354029
 20
1314.859315366075
 30
0.0
 11
7626.945965692225
 21
1329.519394400295
 31
0.0
  0
LINE
  5
250E9
330
747D
100
AcDbEntity
  8
細線
 48
50.0
100
AcDbLine
 10
7699.403230021129
 20
1305.519394400295
 30
0.0
 11
7692.972449402784
 21
1329.519394400295
 31
0.0
  0
LINE
  5
250EA
330
747D
100
AcDbEntity
  8
細線
 48
50.0
100
AcDbLine
 10
7857.179319915634
 20
1305.519394400295
 30
0.0
 11
7850.748539297287
 21
1329.519394400295
 31
0.0
  0
LINE
  5
250EB
330
747D
100
AcDbEntity
  8
細線
 48
50.0
100
AcDbLine
 10
7778.291274968381
 20
1305.519394400295
 30
0.0
 11
7771.860494350036
 21
1329.519394400295
 31
0.0
  0
LWPOLYLINE
  5
250EC
330
747D
100
AcDbEntity
  8
部品1
 48
50.0
100
AcDbPolyline
 90
        2
 70
     0
 43
8.0
 10
7416.877907521073
 20
1873.519394400296
 10
7831.017809354029
 20
1873.519394400296
  0
LINE
  5
250ED
330
747D
100
AcDbEntity
  8
細線
 48
50.0
100
AcDbLine
 10
7703.017809354024
 20
1515.30690852567
 30
0.0
 11
7757.230295228653
 21
1569.519394400295
 31
0.0
  0
LINE
  5
250EE
330
747D
100
AcDbEntity
  8
部品1
 48
50.0
100
AcDbLine
 10
7703.017809354029
 20
1569.519394400295
 30
0.0
 11
7831.017809354029
 21
1569.519394400295
 31
0.0
  0
LINE
  5
250EF
330
747D
100
AcDbEntity
  8
細線
 48
50.0
100
AcDbLine
 10
7703.017809354024
 20
1542.247676888881
 30
0.0
 11
7730.289526865442
 21
1569.519394400295
 31
0.0
  0
LINE
  5
250F0
330
747D
100
AcDbEntity
  8
細線
 48
50.0
100
AcDbLine
 10
7948.282589039973
 20
1329.519394400295
 30
0.0
 11
8245.017809354029
 21
1626.254614714347
 31
0.0
  0
LINE
  5
250F1
330
747D
100
AcDbEntity
  8
細線
 48
50.0
100
AcDbLine
 10
7975.223357403177
 20
1329.519394400295
 30
0.0
 11
8245.017809354029
 21
1599.313846351152
 31
0.0
  0
LINE
  5
250F2
330
747D
100
AcDbEntity
  8
細線
 48
50.0
100
AcDbLine
 10
7921.341820676764
 20
1329.519394400295
 30
0.0
 11
8245.017809354028
 21
1653.195383077561
 31
0.0
  0
LINE
  5
250F3
330
747D
100
AcDbEntity
  8
細線
 48
50.0
100
AcDbLine
 10
8136.867967582423
 20
1329.519394400295
 30
0.0
 11
8373.017809354028
 21
1565.669236171903
 31
0.0
  0
LINE
  5
250F4
330
747D
100
AcDbEntity
  8
細線
 48
50.0
100
AcDbLine
 10
8163.808735945634
 20
1329.519394400295
 30
0.0
 11
8373.017809354028
 21
1538.728467808688
 31
0.0
  0
LINE
  5
250F5
330
747D
100
AcDbEntity
  8
部品1
 48
50.0
100
AcDbLine
 10
8373.017809354028
 20
1569.519394400295
 30
0.0
 11
8373.017809354028
 21
1329.519394400295
 31
0.0
  0
LINE
  5
250F6
330
747D
100
AcDbEntity
  8
細線
 48
50.0
100
AcDbLine
 10
8190.749504308838
 20
1329.519394400295
 30
0.0
 11
8373.017809354028
 21
1511.787699445491
 31
0.0
  0
LINE
  5
250F7
330
747D
100
AcDbEntity
  8
細線
 48
50.0
100
AcDbLine
 10
8065.97673874454
 20
1201.519394400293
 30
0.0
 11
8100.274235375719
 21
1329.519394400293
 31
0.0
  0
LINE
  5
250F8
330
747D
100
AcDbEntity
  8
細線
 48
50.0
100
AcDbLine
 10
7908.200648850045
 20
1201.519394400295
 30
0.0
 11
7942.498145481225
 21
1329.519394400295
 31
0.0
  0
LINE
  5
250F9
330
747D
100
AcDbEntity
  8
細線
 48
50.0
100
AcDbLine
 10
7987.088693797289
 20
1201.519394400295
 30
0.0
 11
8021.386190428476
 21
1329.519394400293
 31
0.0
  0
LINE
  5
250FA
330
747D
100
AcDbEntity
  8
細線
 48
50.0
100
AcDbLine
 10
8144.864783691781
 20
1201.519394400295
 30
0.0
 11
8179.162280322968
 21
1329.519394400293
 31
0.0
  0
LINE
  5
250FB
330
747D
100
AcDbEntity
  8
細線
 48
50.0
100
AcDbLine
 10
7993.519474415643
 20
1225.519394400295
 30
0.0
 11
7999.95025503399
 21
1201.519394400295
 31
0.0
  0
LINE
  5
250FC
330
747D
100
AcDbEntity
  8
細線
 48
50.0
100
AcDbLine
 10
7914.631429468396
 20
1225.519394400295
 30
0.0
 11
7921.062210086744
 21
1201.519394400295
 31
0.0
  0
LINE
  5
250FD
330
747D
100
AcDbEntity
  8
細線
 48
50.0
100
AcDbLine
 10
8151.295564310133
 20
1225.519394400295
 30
0.0
 11
8157.72634492848
 21
1201.519394400295
 31
0.0
  0
LINE
  5
250FE
330
747D
100
AcDbEntity
  8
細線
 48
50.0
100
AcDbLine
 10
8072.407519362888
 20
1225.519394400295
 30
0.0
 11
8078.838299981235
 21
1201.519394400295
 31
0.0
  0
LINE
  5
250FF
330
747D
100
AcDbEntity
  8
細線
 48
50.0
100
AcDbLine
 10
8014.955409810132
 20
1305.519394400295
 30
0.0
 11
8008.524629191786
 21
1329.519394400295
 31
0.0
  0
LINE
  5
25100
330
747D
100
AcDbEntity
  8
細線
 48
50.0
100
AcDbLine
 10
7936.067364862886
 20
1305.519394400295
 30
0.0
 11
7929.636584244538
 21
1329.519394400295
 31
0.0
  0
LINE
  5
25101
330
747D
100
AcDbEntity
  8
細線
 48
50.0
100
AcDbLine
 10
8093.843454757378
 20
1305.519394400295
 30
0.0
 11
8087.412674139033
 21
1329.519394400295
 31
0.0
  0
LINE
  5
25102
330
747D
100
AcDbEntity
  8
細線
 48
50.0
100
AcDbLine
 10
8172.731499704623
 20
1305.519394400295
 30
0.0
 11
8166.300719086278
 21
1329.519394400295
 31
0.0
  0
LINE
  5
25103
330
747D
100
AcDbEntity
  8
部品1
 48
50.0
100
AcDbLine
 10
8453.017809354031
 20
1329.519394400295
 30
0.0
 11
8453.017809354031
 21
1201.519394400295
 31
0.0
  0
LINE
  5
25104
330
747D
100
AcDbEntity
  8
細線
 48
50.0
100
AcDbLine
 10
8381.528918533524
 20
1201.519394400293
 30
0.0
 11
8415.826415164708
 21
1329.519394400292
 31
0.0
  0
LINE
  5
25105
330
747D
100
AcDbEntity
  8
細線
 48
50.0
100
AcDbLine
 10
8223.75282863903
 20
1201.519394400293
 30
0.0
 11
8258.050325270204
 21
1329.519394400295
 31
0.0
  0
LINE
  5
25106
330
747D
100
AcDbEntity
  8
細線
 48
50.0
100
AcDbLine
 10
8302.640873586279
 20
1201.519394400292
 30
0.0
 11
8336.938370217465
 21
1329.519394400292
 31
0.0
  0
LINE
  5
25107
330
747D
100
AcDbEntity
  8
細線
 48
50.0
100
AcDbLine
 10
8230.183609257379
 20
1225.519394400295
 30
0.0
 11
8236.614389875738
 21
1201.519394400295
 31
0.0
  0
LINE
  5
25108
330
747D
100
AcDbEntity
  8
細線
 48
50.0
100
AcDbLine
 10
8309.071654204627
 20
1225.519394400293
 30
0.0
 11
8315.502434822974
 21
1201.519394400293
 31
0.0
  0
LINE
  5
25109
330
747D
100
AcDbEntity
  8
細線
 48
50.0
100
AcDbLine
 10
8387.959699151874
 20
1225.519394400293
 30
0.0
 11
8394.390479770223
 21
1201.519394400293
 31
0.0
  0
LINE
  5
2510A
330
747D
100
AcDbEntity
  8
細線
 48
50.0
100
AcDbLine
 10
8251.619544651861
 20
1305.519394400295
 30
0.0
 11
8245.188764033516
 21
1329.519394400295
 31
0.0
  0
LINE
  5
2510B
330
747D
100
AcDbEntity
  8
細線
 48
50.0
100
AcDbLine
 10
8330.507589599118
 20
1305.519394400293
 30
0.0
 11
8324.076808980771
 21
1329.519394400293
 31
0.0
  0
LINE
  5
2510C
330
747D
100
AcDbEntity
  8
細線
 48
50.0
100
AcDbLine
 10
8409.395634546363
 20
1305.519394400293
 30
0.0
 11
8402.964853928017
 21
1329.519394400293
 31
0.0
  0
LINE
  5
2510D
330
747D
100
AcDbEntity
  8
部品1
100
AcDbLine
 10
8115.417809354028
 20
1789.519394400293
 30
0.0
 11
7989.417809354023
 21
1789.519394400293
 31
0.0
  0
LINE
  5
2510E
330
747D
100
AcDbEntity
  8
部品1
100
AcDbLine
 10
8097.417809354029
 20
1870.519394400295
 30
0.0
 11
8097.417809354029
 21
1888.519394400295
 31
0.0
  0
ARC
  5
2510F
330
747D
100
AcDbEntity
  8
部品1
100
AcDbCircle
 10
8061.417809354029
 20
1888.519394400295
 30
0.0
 40
18.0
100
AcDbArc
 50
180.0
 51
270.0
  0
LINE
  5
25110
330
747D
100
AcDbEntity
  8
部品1
100
AcDbLine
 10
8061.417809354029
 20
1870.519394400295
 30
0.0
 11
8097.417809354029
 21
1870.519394400295
 31
0.0
  0
LINE
  5
25111
330
747D
100
AcDbEntity
  8
部品1
100
AcDbLine
 10
8061.417809354029
 20
1888.519394400295
 30
0.0
 11
8097.417809354029
 21
1888.519394400295
 31
0.0
  0
LINE
  5
25112
330
747D
100
AcDbEntity
  8
部品1
 48
50.0
100
AcDbLine
 10
8245.017809354029
 20
1569.519394400295
 30
0.0
 11
8373.017809354028
 21
1569.519394400295
 31
0.0
  0
LINE
  5
25113
330
747D
100
AcDbEntity
  8
部品1
100
AcDbLine
 10
7850.817809354031
 20
2203.519394400295
 30
0.0
 11
7888.61780935403
 21
2203.519394400295
 31
0.0
  0
LINE
  5
25114
330
747D
100
AcDbEntity
  8
細線
 48
50.0
100
AcDbLine
 10
7831.017809354029
 20
2074.359202336993
 30
0.0
 11
7870.178001417335
 21
2113.519394400295
 31
0.0
  0
LINE
  5
25115
330
747D
100
AcDbEntity
  8
細線
 48
50.0
100
AcDbLine
 10
7831.017809354029
 20
2047.418433973785
 30
0.0
 11
7897.11876978054
 21
2113.519394400295
 31
0.0
  0
LINE
  5
25116
330
747D
100
AcDbEntity
  8
部品1
 48
50.0
100
AcDbLine
 10
7831.017809354029
 20
2113.519394400295
 30
0.0
 11
8245.017809354031
 21
2113.519394400295
 31
0.0
  0
TEXT
  5
25117
330
747D
100
AcDbEntity
  8
部品1
 48
50.0
100
AcDbText
 10
7404.571712774537
 20
2444.079915500771
 30
0.0
 40
80.0
  1
※(別売)
  7
STYLE2
100
AcDbText
  0
LINE
  5
25118
330
747D
100
AcDbEntity
  8
部品1
100
AcDbLine
 10
7848.117809354029
 20
2192.719394400295
 30
0.0
 11
7848.117809354029
 21
2200.819394400295
 31
0.0
  0
ARC
  5
25119
330
747D
100
AcDbEntity
  8
部品1
100
AcDbCircle
 10
7850.817809354031
 20
2200.819394400295
 30
0.0
 40
2.7
100
AcDbArc
 50
90.0
 51
180.0
  0
ARC
  5
2511A
330
747D
100
AcDbEntity
  8
部品1
100
AcDbCircle
 10
7840.017809354029
 20
2187.911298103003
 30
0.0
 40
2.7
100
AcDbArc
 50
104.0362434679067
 51
180.0
  0
LINE
  5
2511B
330
747D
100
AcDbEntity
  8
部品1
100
AcDbLine
 10
7839.362963166429
 20
2190.530682853395
 30
0.0
 11
7848.117809354029
 21
2192.719394400295
 31
0.0
  0
ARC
  5
2511C
330
747D
100
AcDbEntity
  8
部品1
100
AcDbCircle
 10
7840.017809354029
 20
2125.779394400295
 30
0.0
 40
2.7
100
AcDbArc
 50
180.0
 51
270.0
  0
LINE
  5
2511D
330
747D
100
AcDbEntity
  8
細線
 48
50.0
100
AcDbLine
 10
7831.017809354029
 20
2101.2999707002
 30
0.0
 11
7843.237233054124
 21
2113.519394400295
 31
0.0
  0
LINE
  5
2511E
330
747D
100
AcDbEntity
  8
部品1
100
AcDbLine
 10
7840.017809354029
 20
2123.079394400296
 30
0.0
 11
7851.717809354024
 21
2123.079394400296
 31
0.0
  0
LINE
  5
2511F
330
747D
100
AcDbEntity
  8
部品1
100
AcDbLine
 10
7837.31780935403
 20
2125.779394400295
 30
0.0
 11
7837.31780935403
 21
2187.911298103003
 31
0.0
  0
LINE
  5
25120
330
747D
100
AcDbEntity
  8
部品1
100
AcDbLine
 10
7995.977809354022
 20
2123.079394400296
 30
0.0
 11
8197.317809354023
 21
2123.079394400296
 31
0.0
  0
LINE
  5
25121
330
747D
100
AcDbEntity
  8
部品1
100
AcDbLine
 10
7888.61780935403
 20
2203.519394400295
 30
0.0
 11
7888.61780935403
 21
2211.619394400296
 31
0.0
  0
LINE
  5
25122
330
747D
100
AcDbEntity
  8
部品1
100
AcDbLine
 10
7939.017809354028
 20
2222.419394400292
 30
0.0
 11
7939.017809354028
 21
2171.119394400295
 31
0.0
  0
LINE
  5
25123
330
747D
100
AcDbEntity
  8
部品1
100
AcDbLine
 10
7962.417809354029
 20
2183.079394400295
 30
0.0
 11
7990.577809354029
 21
2183.079394400295
 31
0.0
  0
ARC
  5
25124
330
747D
100
AcDbEntity
  8
部品1
100
AcDbCircle
 10
7962.417809354029
 20
2180.379394400295
 30
0.0
 40
2.7
100
AcDbArc
 50
90.0
 51
180.0
  0
ARC
  5
25125
330
747D
100
AcDbEntity
  8
部品1
100
AcDbCircle
 10
7990.577809354029
 20
2180.379394400295
 30
0.0
 40
2.7
100
AcDbArc
 50
0.0
 51
90.0
  0
LINE
  5
25126
330
747D
100
AcDbEntity
  8
部品1
100
AcDbLine
 10
7981.31780935403
 20
2168.419394400295
 30
0.0
 11
7981.31780935403
 21
2125.779394400295
 31
0.0
  0
LINE
  5
25127
330
747D
100
AcDbEntity
  8
部品1
100
AcDbLine
 10
7966.917809354028
 20
2123.079394400296
 30
0.0
 11
7978.61780935403
 21
2123.079394400296
 31
0.0
  0
ARC
  5
25128
330
747D
100
AcDbEntity
  8
部品1
100
AcDbCircle
 10
7995.977809354022
 20
2125.779394400295
 30
0.0
 40
2.7
100
AcDbArc
 50
180.0
 51
270.0
  0
ARC
  5
25129
330
747D
100
AcDbEntity
  8
部品1
100
AcDbCircle
 10
7978.61780935403
 20
2125.779394400295
 30
0.0
 40
2.7
100
AcDbArc
 50
270.0
 51
0.0
  0
LINE
  5
2512A
330
747D
100
AcDbEntity
  8
部品1
100
AcDbLine
 10
7939.017809354028
 20
2171.119394400295
 30
0.0
 11
7978.61780935403
 21
2171.119394400295
 31
0.0
  0
ARC
  5
2512B
330
747D
100
AcDbEntity
  8
部品1
100
AcDbCircle
 10
7978.61780935403
 20
2168.419394400295
 30
0.0
 40
2.7
100
AcDbArc
 50
0.0
 51
90.0
  0
LINE
  5
2512C
330
747D
100
AcDbEntity
  8
部品1
100
AcDbLine
 10
7993.277809354029
 20
2180.379394400295
 30
0.0
 11
7993.277809354025
 21
2125.779394400295
 31
0.0
  0
LINE
  5
2512D
330
747D
100
AcDbEntity
  8
部品1
100
AcDbLine
 10
7959.717809354028
 20
2180.379394400295
 30
0.0
 11
7959.717809354028
 21
2163.279394400295
 31
0.0
  0
LINE
  5
2512E
330
747D
100
AcDbEntity
  8
細線
100
AcDbLine
 10
8057.81780935403
 20
2123.079394400296
 30
0.0
 11
8057.81780935403
 21
2166.279394400295
 31
0.0
  0
LINE
  5
2512F
330
747D
100
AcDbEntity
  8
細線
100
AcDbLine
 10
8047.017809354031
 20
2123.079394400296
 30
0.0
 11
8047.017809354029
 21
2166.279394400295
 31
0.0
  0
LINE
  5
25130
330
747D
100
AcDbEntity
  8
部品1
100
AcDbLine
 10
8043.417809354028
 20
2162.679394400296
 30
0.0
 11
8061.417809354029
 21
2162.679394400296
 31
0.0
  0
LINE
  5
25131
330
747D
100
AcDbEntity
  8
部品1
100
AcDbLine
 10
8047.017809354029
 20
2166.279394400295
 30
0.0
 11
8057.81780935403
 21
2166.279394400295
 31
0.0
  0
ELLIPSE
  5
25132
330
747D
100
AcDbEntity
  8
部品1
 48
50.0
100
AcDbEllipse
 10
8052.417809354029
 20
2382.642682844567
 30
0.0
 11
40.0
 21
0.0
 31
0.0
210
0.0
220
0.0
230
1.0
 40
0.4
 41
0.0
 42
6.283185307179586
  0
ELLIPSE
  5
25133
330
747D
100
AcDbEntity
  8
部品1
 48
50.0
100
AcDbEllipse
 10
8052.417809354029
 20
2373.042682844568
 30
0.0
 11
40.0
 21
0.0
 31
0.0
210
0.0
220
0.0
230
1.0
 40
0.4
 41
3.141592653589793
 42
6.283185307179586
  0
LINE
  5
25134
330
747D
100
AcDbEntity
  8
部品1
 48
50.0
100
AcDbLine
 10
8012.41780935403
 20
2382.642682844567
 30
0.0
 11
8012.41780935403
 21
2373.042682844567
 31
0.0
  0
ARC
  5
25135
330
747D
100
AcDbEntity
  8
部品1
100
AcDbCircle
 10
7936.317809354029
 20
2222.419394400292
 30
0.0
 40
2.7
100
AcDbArc
 50
0.0
 51
90.0
  0
ARC
  5
25136
330
747D
100
AcDbEntity
  8
部品1
100
AcDbCircle
 10
7894.017809354029
 20
2222.419394400295
 30
0.0
 40
2.7
100
AcDbArc
 50
90.0
 51
180.0
  0
LINE
  5
25137
330
747D
100
AcDbEntity
  8
部品1
100
AcDbLine
 10
7891.317809354029
 20
2214.319394400295
 30
0.0
 11
7891.317809354029
 21
2214.319394400295
 31
0.0
  0
LINE
  5
25138
330
747D
100
AcDbEntity
  8
部品1
100
AcDbLine
 10
7891.317809354029
 20
2214.319394400295
 30
0.0
 11
7891.317809354029
 21
2222.419394400295
 31
0.0
  0
LINE
  5
25139
330
747D
100
AcDbEntity
  8
部品1
100
AcDbLine
 10
7894.017809354029
 20
2225.119394400295
 30
0.0
 11
7936.317809354029
 21
2225.119394400292
 31
0.0
  0
ARC
  5
2513A
330
747D
100
AcDbEntity
  8
部品1
100
AcDbCircle
 10
7891.317809354029
 20
2211.619394400296
 30
0.0
 40
2.7
100
AcDbArc
 50
90.0
 51
180.0
  0
ELLIPSE
  5
2513B
330
747D
100
AcDbEntity
  8
部品1
 48
50.0
100
AcDbEllipse
 10
8052.417809354029
 20
2382.642682844567
 30
0.0
 11
18.4
 21
0.0
 31
0.0
210
0.0
220
0.0
230
1.0
 40
0.3478260869565217
 41
0.0
 42
6.283185307179586
  0
LINE
  5
2513C
330
747D
100
AcDbEntity
  8
部品1
 48
50.0
100
AcDbLine
 10
8092.41780935403
 20
2373.042682844567
 30
0.0
 11
8092.41780935403
 21
2382.642682844567
 31
0.0
  0
LINE
  5
2513D
330
747D
100
AcDbEntity
  8
部品1
 48
50.0
100
AcDbLine
 10
8020.417809354029
 20
2504.394675509438
 30
0.0
 11
8036.417809354029
 21
2496.394675509438
 31
0.0
  0
LINE
  5
2513E
330
747D
100
AcDbEntity
  8
部品1
 48
50.0
100
AcDbLine
 10
8020.417809354029
 20
2472.394675509438
 30
0.0
 11
8036.417809354029
 21
2464.394675509438
 31
0.0
  0
LINE
  5
2513F
330
747D
100
AcDbEntity
  8
部品1
 48
50.0
100
AcDbLine
 10
8020.417809354029
 20
2504.394675509438
 30
0.0
 11
8036.417809354029
 21
2512.394675509438
 31
0.0
  0
LINE
  5
25140
330
747D
100
AcDbEntity
  8
部品1
 48
50.0
100
AcDbLine
 10
8020.417809354029
 20
2472.394675509438
 30
0.0
 11
8020.417809354029
 21
2504.394675509438
 31
0.0
  0
LINE
  5
25141
330
747D
100
AcDbEntity
  8
部品1
 48
50.0
100
AcDbLine
 10
8036.417809354029
 20
2512.394675509438
 30
0.0
 11
8068.417809354029
 21
2512.394675509438
 31
0.0
  0
ELLIPSE
  5
25142
330
747D
100
AcDbEntity
  8
細線
 48
50.0
100
AcDbEllipse
 10
8052.417809354029
 20
2504.394675509438
 30
0.0
 11
14.76670786606846
 21
0.0
 31
0.0
210
0.0
220
0.0
230
1.0
 40
0.2071254069489396
 41
0.0
 42
6.283185307179586
  0
LINE
  5
25143
330
747D
100
AcDbEntity
  8
部品1
 48
50.0
100
AcDbLine
 10
8036.417809354029
 20
2464.394675509438
 30
0.0
 11
8068.417809354029
 21
2464.394675509438
 31
0.0
  0
LINE
  5
25144
330
747D
100
AcDbEntity
  8
部品1
 48
50.0
100
AcDbLine
 10
8068.417809354029
 20
2464.394675509438
 30
0.0
 11
8084.417809354029
 21
2472.394675509438
 31
0.0
  0
LINE
  5
25145
330
747D
100
AcDbEntity
  8
部品1
 48
50.0
100
AcDbLine
 10
8036.417809354029
 20
2496.394675509438
 30
0.0
 11
8068.417809354029
 21
2496.394675509438
 31
0.0
  0
LINE
  5
25146
330
747D
100
AcDbEntity
  8
部品1
 48
50.0
100
AcDbLine
 10
8068.417809354029
 20
2496.394675509438
 30
0.0
 11
8084.417809354029
 21
2504.394675509438
 31
0.0
  0
LINE
  5
25147
330
747D
100
AcDbEntity
  8
細線
 48
50.0
100
AcDbLine
 10
8068.417809354029
 20
2464.394675509438
 30
0.0
 11
8068.417809354029
 21
2496.394675509438
 31
0.0
  0
LINE
  5
25148
330
747D
100
AcDbEntity
  8
部品1
 48
50.0
100
AcDbLine
 10
8084.417809354029
 20
2472.394675509438
 30
0.0
 11
8084.417809354029
 21
2504.394675509438
 31
0.0
  0
LINE
  5
25149
330
747D
100
AcDbEntity
  8
細線
 48
50.0
100
AcDbLine
 10
8036.417809354029
 20
2464.394675509438
 30
0.0
 11
8036.417809354029
 21
2496.394675509438
 31
0.0
  0
LINE
  5
2514A
330
747D
100
AcDbEntity
  8
部品1
 48
50.0
100
AcDbLine
 10
8068.417809354029
 20
2512.394675509438
 30
0.0
 11
8084.417809354029
 21
2504.394675509438
 31
0.0
  0
TEXT
  5
2514B
330
747D
100
AcDbEntity
  8
部品1
100
AcDbText
 10
7753.19005854596
 20
3254.939082225712
 30
0.0
 40
120.0
  1
基礎詳細
  7
STYLE2
100
AcDbText
  0
LINE
  5
2514C
330
747D
100
AcDbEntity
  8
部品1
100
AcDbLine
 10
11131.29524275382
 20
470.1840445924927
 30
0.0
 11
11131.29524275382
 21
3434.49101417714
 31
0.0
  0
LINE
  5
2514D
330
747D
100
AcDbEntity
  8
細線
100
AcDbLine
 10
10139.18707533357
 20
1873.519394400295
 30
0.0
 11
9944.553741656786
 21
2068.152728077078
 31
0.0
  0
LINE
  5
2514E
330
747D
100
AcDbEntity
  8
部品1
100
AcDbLine
 10
9944.553741656786
 20
2113.519394400295
 30
0.0
 11
10424.55374165678
 21
2113.519394400295
 31
0.0
  0
LINE
  5
2514F
330
747D
100
AcDbEntity
  8
細線
 48
50.0
100
AcDbLine
 10
10078.62462610004
 20
1653.820478746945
 30
0.0
 11
10112.92212273123
 21
1781.820478746944
 31
0.0
  0
LINE
  5
25150
330
747D
100
AcDbEntity
  8
部品1
100
AcDbLine
 10
9824.553741656785
 20
1653.820478746941
 30
0.0
 11
10544.55374165678
 21
1653.820478746945
 31
0.0
  0
LINE
  5
25151
330
747D
100
AcDbEntity
  8
部品1
100
AcDbLine
 10
9824.553741656785
 20
1781.820478746945
 30
0.0
 11
10544.55374165678
 21
1781.820478746947
 31
0.0
  0
LINE
  5
25152
330
747D
100
AcDbEntity
  8
細線
100
AcDbLine
 10
10005.47238715003
 20
1781.820478746945
 30
0.0
 11
10097.17130280337
 21
1873.519394400295
 31
0.0
  0
LWPOLYLINE
  5
25153
330
747D
100
AcDbEntity
  8
部品1
 48
50.0
100
AcDbPolyline
 90
        2
 70
     0
 43
12.0
 10
9559.942479556397
 20
1873.519394400295
 10
10761.03478268802
 20
1873.519394400295
  0
LINE
  5
25154
330
747D
100
AcDbEntity
  8
細線
100
AcDbLine
 10
10088.27538708814
 20
1873.519394400295
 30
0.0
 11
9944.553741656786
 21
2017.241039831648
 31
0.0
  0
TEXT
  5
25155
330
747D
100
AcDbEntity
  8
部品1
 48
50.0
100
AcDbText
 10
9180.435654898284
 20
1606.719653762986
 30
0.0
 40
80.0
  1
ボルトの出
 50
90.0
  7
STYLE2
100
AcDbText
  0
LINE
  5
25156
330
747D
100
AcDbEntity
  8
部品1
100
AcDbLine
 10
9944.553741656786
 20
1873.519394400295
 30
0.0
 11
9944.553741656786
 21
2113.519394400295
 31
0.0
  0
LINE
  5
25157
330
747D
100
AcDbEntity
  8
細線
 48
50.0
100
AcDbLine
 10
9920.848536205546
 20
1653.820478746944
 30
0.0
 11
9955.146032836729
 21
1781.820478746944
 31
0.0
  0
LINE
  5
25158
330
747D
100
AcDbEntity
  8
細線
 48
50.0
100
AcDbLine
 10
9999.736581152797
 20
1653.820478746945
 30
0.0
 11
10034.03407778398
 21
1781.820478746945
 31
0.0
  0
LINE
  5
25159
330
747D
100
AcDbEntity
  8
細線
 48
50.0
100
AcDbLine
 10
9841.960491258298
 20
1653.820478746945
 30
0.0
 11
9876.257987889482
 21
1781.820478746945
 31
0.0
  0
LINE
  5
2515A
330
747D
100
AcDbEntity
  8
部品1
100
AcDbLine
 10
9824.553741656785
 20
1653.820478746941
 30
0.0
 11
9824.553741656785
 21
1873.519394400295
 31
0.0
  0
LINE
  5
2515B
330
747D
100
AcDbEntity
  8
細線
 48
50.0
100
AcDbLine
 10
9927.279316823899
 20
1677.820478746945
 30
0.0
 11
9933.710097442247
 21
1653.820478746945
 31
0.0
  0
LINE
  5
2515C
330
747D
100
AcDbEntity
  8
細線
 48
50.0
100
AcDbLine
 10
9848.391271876648
 20
1677.820478746945
 30
0.0
 11
9854.822052494995
 21
1653.820478746945
 31
0.0
  0
LINE
  5
2515D
330
747D
100
AcDbEntity
  8
細線
 48
50.0
100
AcDbLine
 10
10006.16736177115
 20
1677.820478746945
 30
0.0
 11
10012.59814238949
 21
1653.820478746945
 31
0.0
  0
LINE
  5
2515E
330
747D
100
AcDbEntity
  8
細線
 48
50.0
100
AcDbLine
 10
10085.05540671839
 20
1677.820478746945
 30
0.0
 11
10091.48618733674
 21
1653.820478746945
 31
0.0
  0
LINE
  5
2515F
330
747D
100
AcDbEntity
  8
細線
 48
50.0
100
AcDbLine
 10
9869.827207271137
 20
1757.820478746945
 30
0.0
 11
9863.396426652787
 21
1781.820478746945
 31
0.0
  0
LINE
  5
25160
330
747D
100
AcDbEntity
  8
細線
 48
50.0
100
AcDbLine
 10
10027.60329716564
 20
1757.820478746945
 30
0.0
 11
10021.17251654729
 21
1781.820478746945
 31
0.0
  0
LINE
  5
25161
330
747D
100
AcDbEntity
  8
細線
 48
50.0
100
AcDbLine
 10
9948.715252218386
 20
1757.820478746945
 30
0.0
 11
9942.284471600039
 21
1781.820478746945
 31
0.0
  0
LINE
  5
25162
330
747D
100
AcDbEntity
  8
細線
100
AcDbLine
 10
9937.590136156117
 20
1781.820478746945
 30
0.0
 11
10029.28905180946
 21
1873.519394400295
 31
0.0
  0
LINE
  5
25163
330
747D
100
AcDbEntity
  8
細線
100
AcDbLine
 10
9971.531261653073
 20
1781.820478746945
 30
0.0
 11
10063.23017730641
 21
1873.519394400295
 31
0.0
  0
LINE
  5
25164
330
747D
100
AcDbEntity
  8
細線
100
AcDbLine
 10
10359.80439106377
 20
1873.519394400295
 30
0.0
 11
10119.80439106377
 21
2113.519394400295
 31
0.0
  0
LINE
  5
25165
330
747D
100
AcDbEntity
  8
細線
100
AcDbLine
 10
10410.7160793092
 20
1873.519394400297
 30
0.0
 11
10170.7160793092
 21
2113.519394400295
 31
0.0
  0
LINE
  5
25166
330
747D
100
AcDbEntity
  8
部品1
100
AcDbLine
 10
10424.55374165678
 20
2113.519394400295
 30
0.0
 11
10424.55374165678
 21
1873.519394400295
 31
0.0
  0
LINE
  5
25167
330
747D
100
AcDbEntity
  8
細線
 48
50.0
100
AcDbLine
 10
10394.17680588903
 20
1653.820478746942
 30
0.0
 11
10428.47430252022
 21
1781.820478746942
 31
0.0
  0
LINE
  5
25168
330
747D
100
AcDbEntity
  8
細線
100
AcDbLine
 10
10365.47238715003
 20
1781.820478746947
 30
0.0
 11
10457.17130280337
 21
1873.519394400295
 31
0.0
  0
LINE
  5
25169
330
747D
100
AcDbEntity
  8
細線
 48
50.0
100
AcDbLine
 10
10315.28876094178
 20
1653.820478746944
 30
0.0
 11
10349.58625757296
 21
1781.820478746945
 31
0.0
  0
LINE
  5
2516A
330
747D
100
AcDbEntity
  8
細線
 48
50.0
100
AcDbLine
 10
10157.51267104729
 20
1653.820478746944
 30
0.0
 11
10191.81016767847
 21
1781.820478746944
 31
0.0
  0
LINE
  5
2516B
330
747D
100
AcDbEntity
  8
細線
 48
50.0
100
AcDbLine
 10
10236.40071599453
 20
1653.820478746945
 30
0.0
 11
10270.69821262572
 21
1781.820478746944
 31
0.0
  0
LINE
  5
2516C
330
747D
100
AcDbEntity
  8
細線
 48
50.0
100
AcDbLine
 10
10242.83149661289
 20
1677.820478746945
 30
0.0
 11
10249.26227723123
 21
1653.820478746945
 31
0.0
  0
LINE
  5
2516D
330
747D
100
AcDbEntity
  8
細線
 48
50.0
100
AcDbLine
 10
10163.94345166564
 20
1677.820478746945
 30
0.0
 11
10170.37423228399
 21
1653.820478746945
 31
0.0
  0
LINE
  5
2516E
330
747D
100
AcDbEntity
  8
細線
 48
50.0
100
AcDbLine
 10
10321.71954156013
 20
1677.820478746945
 30
0.0
 11
10328.15032217849
 21
1653.820478746945
 31
0.0
  0
LINE
  5
2516F
330
747D
100
AcDbEntity
  8
細線
 48
50.0
100
AcDbLine
 10
10400.60758650738
 20
1677.820478746944
 30
0.0
 11
10407.03836712573
 21
1653.820478746944
 31
0.0
  0
LINE
  5
25170
330
747D
100
AcDbEntity
  8
細線
 48
50.0
100
AcDbLine
 10
10264.26743200738
 20
1757.820478746945
 30
0.0
 11
10257.83665138903
 21
1781.820478746945
 31
0.0
  0
LINE
  5
25171
330
747D
100
AcDbEntity
  8
細線
 48
50.0
100
AcDbLine
 10
10185.37938706013
 20
1757.820478746945
 30
0.0
 11
10178.94860644178
 21
1781.820478746945
 31
0.0
  0
LINE
  5
25172
330
747D
100
AcDbEntity
  8
細線
 48
50.0
100
AcDbLine
 10
10106.49134211288
 20
1757.820478746945
 30
0.0
 11
10100.06056149454
 21
1781.820478746945
 31
0.0
  0
LINE
  5
25173
330
747D
100
AcDbEntity
  8
細線
100
AcDbLine
 10
10331.53126165307
 20
1781.820478746947
 30
0.0
 11
10423.23017730641
 21
1873.519394400295
 31
0.0
  0
LINE
  5
25174
330
747D
100
AcDbEntity
  8
細線
 48
50.0
100
AcDbLine
 10
10343.15547695461
 20
1757.820478746945
 30
0.0
 11
10336.72469633627
 21
1781.820478746945
 31
0.0
  0
LINE
  5
25175
330
747D
100
AcDbEntity
  8
細線
100
AcDbLine
 10
10297.59013615612
 20
1781.820478746947
 30
0.0
 11
10389.28905180946
 21
1873.519394400295
 31
0.0
  0
LINE
  5
25176
330
747D
100
AcDbEntity
  8
細線
 48
50.0
100
AcDbLine
 10
10422.04352190187
 20
1757.820478746944
 30
0.0
 11
10415.61274128352
 21
1781.820478746944
 31
0.0
  0
LINE
  5
25177
330
747D
100
AcDbEntity
  8
細線
 48
50.0
100
AcDbLine
 10
10473.06485083628
 20
1653.820478746944
 30
0.0
 11
10507.36234746746
 21
1781.820478746942
 31
0.0
  0
LINE
  5
25178
330
747D
100
AcDbEntity
  8
部品1
100
AcDbLine
 10
10544.55374165678
 20
1873.519394400295
 30
0.0
 11
10544.55374165679
 21
1653.820478746945
 31
0.0
  0
LINE
  5
25179
330
747D
100
AcDbEntity
  8
細線
 48
50.0
100
AcDbLine
 10
10479.49563145463
 20
1677.820478746944
 30
0.0
 11
10485.92641207298
 21
1653.820478746944
 31
0.0
  0
LINE
  5
2517A
330
747D
100
AcDbEntity
  8
細線
 48
50.0
100
AcDbLine
 10
10500.93156684912
 20
1757.820478746944
 30
0.0
 11
10494.50078623077
 21
1781.820478746944
 31
0.0
  0
LEADER
  5
2517B
330
747D
100
AcDbEntity
  8
寸法
 48
50.0
100
AcDbLeader
  3
INABA_S50G
 73
     0
 74
     0
 75
     1
 40
120.0
 41
185.591883092037
 76
     3
 10
10355.27815327271
 20
2113.519394400295
 30
0.0
 10
10388.41635990635
 20
2285.665715081433
 30
0.0
 10
10513.41635990635
 20
2285.665715081433
 30
0.0
340
2517C
1001
ACAD
1000
DSTYLE
1002
{
1070
    40
1040
1.0
1002
}
  0
MTEXT
  5
2517C
102
{ACAD_REACTORS
330
2517B
102
}
330
747D
100
AcDbEntity
  8
寸法
 62
     7
 48
50.0
100
AcDbMText
 10
10538.41635990635
 20
2370.665715081432
 30
0.0
 40
120.0
 41
0.8
 71
     4
 72
     1
  1
\A1;C.B
  7
STYLE1
 73
     1
 44
1.0
1001
ACAD
1000
MTEXTBEGIN
1070
    73
1070
     1
1070
    44
1040
1.0
1070
    74
1070
     0
1000
MTEXTEND
  0
ENDSEC
  0
SECTION
  2
OBJECTS
  0
DICTIONARY
  5
7471
330
0
100
AcDbDictionary
281
     1
  3
ACAD_COLOR
350
173D2
  3
ACAD_GROUP
350
7472
  3
ACAD_LAYOUT
350
173D3
  3
ACAD_MATERIAL
350
173D1
  3
ACAD_MLINESTYLE
350
7473
  3
ACAD_PLOTSETTINGS
350
173D4
  3
ACAD_PLOTSTYLENAME
350
173CF
  3
ACDBHEADERROUNDTRIPXREC
350
25213
  3
AcDbVariableDictionary
350
2520F
  3
CONTENTDICTIONARY
350
E71C
  3
DRAWINGVARIABLESDICT
350
F3B9
  0
DICTIONARY
  5
1758F
330
7467
100
AcDbDictionary
280
     1
281
     1
  3
ACAD_LAYERSTATES
360
17590
  0
DICTIONARY
  5
173D2
102
{ACAD_REACTORS
330
7471
102
}
330
7471
100
AcDbDictionary
281
     1
  0
DICTIONARY
  5
7472
102
{ACAD_REACTORS
330
7471
102
}
330
7471
100
AcDbDictionary
281
     1
  3
*A1
350
1D2A9
  0
DICTIONARY
  5
173D3
102
{ACAD_REACTORS
330
7471
102
}
330
7471
100
AcDbDictionary
281
     1
  3
Model
350
173D5
  3
レイアウト1
350
173D6
  0
DICTIONARY
  5
173D1
102
{ACAD_REACTORS
330
7471
102
}
330
7471
100
AcDbDictionary
281
     1
  0
DICTIONARY
  5
7473
102
{ACAD_REACTORS
330
7471
102
}
330
7471
100
AcDbDictionary
281
     1
  3
STANDARD
350
7480
  0
DICTIONARY
  5
173D4
102
{ACAD_REACTORS
330
7471
102
}
330
7471
100
AcDbDictionary
281
     1
  0
ACDBDICTIONARYWDFLT
  5
173CF
102
{ACAD_REACTORS
330
7471
102
}
330
7471
100
AcDbDictionary
281
     1
  3
Normal
350
173D0
100
AcDbDictionaryWithDefault
340
173D0
  0
DICTIONARY
  5
25213
102
{ACAD_REACTORS
330
7471
102
}
330
7471
100
AcDbDictionary
281
     1
  3
COLORDICT
350
25215
  3
MATERIALDICT
350
25214
  0
DICTIONARY
  5
2520F
102
{ACAD_REACTORS
330
7471
102
}
330
7471
100
AcDbDictionary
281
     1
  3
DIMASSOC
350
25210
  3
PROJECTNAME
350
25211
  0
DICTIONARY
  5
E71C
102
{ACAD_REACTORS
330
7471
102
}
330
7471
100
AcDbDictionary
281
     1
  0
DICTIONARY
  5
F3B9
102
{ACAD_REACTORS
330
7471
102
}
330
7471
100
AcDbDictionary
281
     1
1001
DRAWINGVARIABLESXDATA
1000
POLARMODE
1000
1
  0
DICTIONARY
  5
17590
102
{ACAD_REACTORS
330
1758F
102
}
330
1758F
100
AcDbDictionary
281
     1
  0
GROUP
  5
1D2A9
102
{ACAD_REACTORS
330
7472
102
}
330
7472
100
AcDbGroup
300

 70
     1
 71
     1
  0
LAYOUT
  5
173D5
102
{ACAD_XDICTIONARY
360
25216
102
}
102
{ACAD_REACTORS
330
173D3
102
}
330
173D3
100
AcDbPlotSettings
  1

  2
クセロPDFよこ.pc3
  4
A3
  6

 40
3.174999952316284
 41
3.174999952316284
 42
3.17498779296875
 43
3.17498779296875
 44
419.9466552734374
 45
296.9259948730469
 46
0.0
 47
0.0
 48
0.0
 49
0.0
140
0.0
141
0.0
142
1.0
143
40.0
 70
 11952
 72
     1
 73
     0
 74
     2
  7
ACA3.ctb
 75
    24
147
0.025
148
0.0
149
0.0
100
AcDbLayout
  1
Model
 70
     1
 71
     0
 10
0.0
 20
0.0
 11
12.0
 21
9.0
 12
0.0
 22
0.0
 32
0.0
 14
0.0
 24
0.0
 34
0.0
 15
0.0
 25
0.0
 35
0.0
146
0.0
 13
0.0
 23
0.0
 33
0.0
 16
1.0
 26
0.0
 36
0.0
 17
0.0
 27
1.0
 37
0.0
 76
     0
330
747D
  0
LAYOUT
  5
173D6
102
{ACAD_XDICTIONARY
360
25218
102
}
102
{ACAD_REACTORS
330
173D3
102
}
330
173D3
100
AcDbPlotSettings
  1

  2
Microsoft Office Document Image Writer
  4

  6

 40
0.0
 41
0.0
 42
0.0
 43
0.0
 44
0.0
 45
0.0
 46
0.0
 47
0.0
 48
0.0
 49
0.0
140
0.0
141
0.0
142
1.0
143
1.0
 70
   688
 72
     0
 73
     0
 74
     5
  7
ACA3.ctb
 75
    16
147
1.0
148
0.0
149
0.0
100
AcDbLayout
  1
レイアウト1
 70
     0
 71
     1
 10
0.0
 20
0.0
 11
420.0
 21
297.0
 12
0.0
 22
0.0
 32
0.0
 14
1.000000000000000E+20
 24
1.000000000000000E+20
 34
1.000000000000000E+20
 15
-1.000000000000000E+20
 25
-1.000000000000000E+20
 35
-1.000000000000000E+20
146
0.0
 13
0.0
 23
0.0
 33
0.0
 16
1.0
 26
0.0
 36
0.0
 17
0.0
 27
1.0
 37
0.0
 76
     0
330
747A
  0
MLINESTYLE
  5
7480
102
{ACAD_REACTORS
330
7473
102
}
330
7473
100
AcDbMlineStyle
  2
STANDARD
 70
     0
  3

 62
     0
 51
90.0
 52
90.0
 71
     2
 49
0.5
 62
   256
  6
BYLAYER
 49
-0.5
 62
   256
  6
BYLAYER
  0
ACDBPLACEHOLDER
  5
173D0
102
{ACAD_REACTORS
330
173CF
102
}
330
173CF
  0
XRECORD
  5
25215
102
{ACAD_REACTORS
330
25213
102
}
330
25213
100
AcDbXrecord
280
     1
340
173D2
  0
XRECORD
  5
25214
102
{ACAD_REACTORS
330
25213
102
}
330
25213
100
AcDbXrecord
280
     1
340
173D1
  0
DICTIONARYVAR
  5
25210
102
{ACAD_REACTORS
330
2520F
102
}
330
2520F
100
DictionaryVariables
280
     0
  1
1
  0
DICTIONARYVAR
  5
25211
102
{ACAD_REACTORS
330
2520F
102
}
330
2520F
100
DictionaryVariables
280
     0
  1

  0
DICTIONARY
  5
25216
330
173D5
100
AcDbDictionary
280
     1
281
     1
  3
ACAD_XREC_ROUNDTRIP
360
25217
  0
DICTIONARY
  5
25218
330
173D6
100
AcDbDictionary
280
     1
281
     1
  3
ACAD_XREC_ROUNDTRIP
360
25219
  0
XRECORD
  5
25217
102
{ACAD_REACTORS
330
25216
102
}
330
25216
100
AcDbXrecord
280
     1
102
SHADEPLOT
 70
     0
102
SHADEPLOTRESLEVEL
 70
     2
102
SHADEPLOTCUSTOMDPI
 70
   150
  0
XRECORD
  5
25219
102
{ACAD_REACTORS
330
25218
102
}
330
25218
100
AcDbXrecord
280
     1
102
SHADEPLOT
 70
     0
102
SHADEPLOTRESLEVEL
 70
     2
102
SHADEPLOTCUSTOMDPI
 70
   300
  0
ENDSEC
  0
EOF
