  0
SECTION
  2
HEADER
  9
$ACADVER
  1
AC1015
  9
$ACADMAINTVER
 70
    20
  9
$DWGCODEPAGE
  3
ANSI_932
  9
$INSBASE
 10
0.0
 20
0.0
 30
0.0
  9
$EXTMIN
 10
139.9999999999995
 20
-0.0000000000000909
 30
0.0
  9
$EXTMAX
 10
16307.2
 20
11409.6
 30
0.0
  9
$LIMMIN
 10
0.0
 20
0.0
  9
$LIMMAX
 10
16800.0
 20
11880.0
  9
$ORTHOMODE
 70
     0
  9
$REGENMODE
 70
     1
  9
$FILLMODE
 70
     1
  9
$QTEXTMODE
 70
     0
  9
$MIRRTEXT
 70
     1
  9
$LTSCALE
 40
20.0
  9
$ATTMODE
 70
     1
  9
$TEXTSIZE
 40
100.0
  9
$TRACEWID
 40
1.0
  9
$TEXTSTYLE
  7
STYLE2
  9
$CLAYER
  8
部品1
  9
$CELTYPE
  6
BYLAYER
  9
$CECOLOR
 62
   256
  9
$CELTSCALE
 40
50.0
  9
$DISPSILH
 70
     0
  9
$DIMSCALE
 40
40.0
  9
$DIMASZ
 40
2.5
  9
$DIMEXO
 40
0.5
  9
$DIMDLI
 40
7.0
  9
$DIMRND
 40
0.0
  9
$DIMDLE
 40
0.0
  9
$DIMEXE
 40
1.5
  9
$DIMTP
 40
0.0
  9
$DIMTM
 40
0.0
  9
$DIMTXT
 40
3.0
  9
$DIMCEN
 40
0.0
  9
$DIMTSZ
 40
0.0
  9
$DIMTOL
 70
     0
  9
$DIMLIM
 70
     0
  9
$DIMTIH
 70
     0
  9
$DIMTOH
 70
     0
  9
$DIMSE1
 70
     0
  9
$DIMSE2
 70
     0
  9
$DIMTAD
 70
     3
  9
$DIMZIN
 70
     8
  9
$DIMBLK
  1

  9
$DIMASO
 70
     1
  9
$DIMSHO
 70
     1
  9
$DIMPOST
  1

  9
$DIMAPOST
  1

  9
$DIMALT
 70
     0
  9
$DIMALTD
 70
     2
  9
$DIMALTF
 40
0.0394
  9
$DIMLFAC
 40
1.0
  9
$DIMTOFL
 70
     1
  9
$DIMTVP
 40
0.0
  9
$DIMTIX
 70
     1
  9
$DIMSOXD
 70
     0
  9
$DIMSAH
 70
     1
  9
$DIMBLK1
  1
DOTSMALL
  9
$DIMBLK2
  1
DOTSMALL
  9
$DIMSTYLE
  2
INABA_S40G
  9
$DIMCLRD
 70
     0
  9
$DIMCLRE
 70
     0
  9
$DIMCLRT
 70
     7
  9
$DIMTFAC
 40
1.0
  9
$DIMGAP
 40
1.0
  9
$DIMJUST
 70
     0
  9
$DIMSD1
 70
     0
  9
$DIMSD2
 70
     0
  9
$DIMTOLJ
 70
     1
  9
$DIMTZIN
 70
     0
  9
$DIMALTZ
 70
     0
  9
$DIMALTTZ
 70
     0
  9
$DIMUPT
 70
     1
  9
$DIMDEC
 70
     1
  9
$DIMTDEC
 70
     4
  9
$DIMALTU
 70
     2
  9
$DIMALTTD
 70
     2
  9
$DIMTXSTY
  7
STYLE1
  9
$DIMAUNIT
 70
     0
  9
$DIMADEC
 70
     0
  9
$DIMALTRND
 40
0.0
  9
$DIMAZIN
 70
     0
  9
$DIMDSEP
 70
    46
  9
$DIMATFIT
 70
     3
  9
$DIMFRAC
 70
     0
  9
$DIMLDRBLK
  1
DOTSMALL
  9
$DIMLUNIT
 70
     2
  9
$DIMLWD
 70
    -2
  9
$DIMLWE
 70
    -2
  9
$DIMTMOVE
 70
     0
  9
$LUNITS
 70
     2
  9
$LUPREC
 70
     1
  9
$SKETCHINC
 40
1.0
  9
$FILLETRAD
 40
2.299999999999999
  9
$AUNITS
 70
     0
  9
$AUPREC
 70
     0
  9
$MENU
  1
acad
  9
$ELEVATION
 40
0.0
  9
$PELEVATION
 40
0.0
  9
$THICKNESS
 40
0.0
  9
$LIMCHECK
 70
     0
  9
$CHAMFERA
 40
3.0
  9
$CHAMFERB
 40
3.0
  9
$CHAMFERC
 40
0.0
  9
$CHAMFERD
 40
0.0
  9
$SKPOLY
 70
     0
  9
$TDCREATE
 40
2451368.612993866
  9
$TDUCREATE
 40
2451368.237993866
  9
$TDUPDATE
 40
2455826.654066296
  9
$TDUUPDATE
 40
2455826.279066297
  9
$TDINDWG
 40
1.6695075231
  9
$TDUSRTIMER
 40
1.6695075231
  9
$USRTIMER
 70
     1
  9
$ANGBASE
 50
0.0
  9
$ANGDIR
 70
     0
  9
$PDMODE
 70
     3
  9
$PDSIZE
 40
2.0
  9
$PLINEWID
 40
0.0
  9
$SPLFRAME
 70
     0
  9
$SPLINETYPE
 70
     6
  9
$SPLINESEGS
 70
     8
  9
$HANDSEED
  5
20A66
  9
$SURFTAB1
 70
     6
  9
$SURFTAB2
 70
     6
  9
$SURFTYPE
 70
     6
  9
$SURFU
 70
     6
  9
$SURFV
 70
     6
  9
$UCSBASE
  2

  9
$UCSNAME
  2

  9
$UCSORG
 10
0.0
 20
0.0
 30
0.0
  9
$UCSXDIR
 10
1.0
 20
0.0
 30
0.0
  9
$UCSYDIR
 10
0.0
 20
1.0
 30
0.0
  9
$UCSORTHOREF
  2

  9
$UCSORTHOVIEW
 70
     0
  9
$UCSORGTOP
 10
0.0
 20
0.0
 30
0.0
  9
$UCSORGBOTTOM
 10
0.0
 20
0.0
 30
0.0
  9
$UCSORGLEFT
 10
0.0
 20
0.0
 30
0.0
  9
$UCSORGRIGHT
 10
0.0
 20
0.0
 30
0.0
  9
$UCSORGFRONT
 10
0.0
 20
0.0
 30
0.0
  9
$UCSORGBACK
 10
0.0
 20
0.0
 30
0.0
  9
$PUCSBASE
  2

  9
$PUCSNAME
  2

  9
$PUCSORG
 10
0.0
 20
0.0
 30
0.0
  9
$PUCSXDIR
 10
1.0
 20
0.0
 30
0.0
  9
$PUCSYDIR
 10
0.0
 20
1.0
 30
0.0
  9
$PUCSORTHOREF
  2

  9
$PUCSORTHOVIEW
 70
     0
  9
$PUCSORGTOP
 10
0.0
 20
0.0
 30
0.0
  9
$PUCSORGBOTTOM
 10
0.0
 20
0.0
 30
0.0
  9
$PUCSORGLEFT
 10
0.0
 20
0.0
 30
0.0
  9
$PUCSORGRIGHT
 10
0.0
 20
0.0
 30
0.0
  9
$PUCSORGFRONT
 10
0.0
 20
0.0
 30
0.0
  9
$PUCSORGBACK
 10
0.0
 20
0.0
 30
0.0
  9
$USERI1
 70
     0
  9
$USERI2
 70
     0
  9
$USERI3
 70
     0
  9
$USERI4
 70
     0
  9
$USERI5
 70
     0
  9
$USERR1
 40
0.0
  9
$USERR2
 40
0.0
  9
$USERR3
 40
0.0
  9
$USERR4
 40
0.0
  9
$USERR5
 40
0.0
  9
$WORLDVIEW
 70
     1
  9
$SHADEDGE
 70
     3
  9
$SHADEDIF
 70
    70
  9
$TILEMODE
 70
     1
  9
$MAXACTVP
 70
    16
  9
$PINSBASE
 10
0.0
 20
0.0
 30
0.0
  9
$PLIMCHECK
 70
     0
  9
$PEXTMIN
 10
1.000000000000000E+20
 20
1.000000000000000E+20
 30
1.000000000000000E+20
  9
$PEXTMAX
 10
-1.000000000000000E+20
 20
-1.000000000000000E+20
 30
-1.000000000000000E+20
  9
$PLIMMIN
 10
0.0
 20
0.0
  9
$PLIMMAX
 10
420.0
 20
297.0
  9
$UNITMODE
 70
     0
  9
$VISRETAIN
 70
     0
  9
$PLINEGEN
 70
     0
  9
$PSLTSCALE
 70
     0
  9
$TREEDEPTH
 70
  3020
  9
$CMLSTYLE
  2
STANDARD
  9
$CMLJUST
 70
     0
  9
$CMLSCALE
 40
1.0
  9
$PROXYGRAPHICS
 70
     1
  9
$MEASUREMENT
 70
     1
  9
$CELWEIGHT
370
    -1
  9
$ENDCAPS
280
     0
  9
$JOINSTYLE
280
     0
  9
$LWDISPLAY
290
     0
  9
$INSUNITS
 70
     0
  9
$HYPERLINKBASE
  1

  9
$STYLESHEET
  1
inaba.ctb
  9
$XEDIT
290
     1
  9
$CEPSNTYPE
380
     0
  9
$PSTYLEMODE
290
     1
  9
$FINGERPRINTGUID
  2
{3B57B35E-7D77-4BBF-81B7-6C583B9EB24C}
  9
$VERSIONGUID
  2
{37CBFD81-398E-4CE5-A4F1-F27827D2F562}
  9
$EXTNAMES
290
     1
  9
$PSVPSCALE
 40
0.0
  9
$OLESTARTUP
290
     0
  0
ENDSEC
  0
SECTION
  2
CLASSES
  0
CLASS
  1
ACDBDICTIONARYWDFLT
  2
AcDbDictionaryWithDefault
  3
ObjectDBX Classes
 90
        0
280
     0
281
     0
  0
CLASS
  1
DICTIONARYVAR
  2
AcDbDictionaryVar
  3
ObjectDBX Classes
 90
        0
280
     0
281
     0
  0
CLASS
  1
ACDBPLACEHOLDER
  2
AcDbPlaceHolder
  3
ObjectDBX Classes
 90
        0
280
     0
281
     0
  0
CLASS
  1
LAYOUT
  2
AcDbLayout
  3
ObjectDBX Classes
 90
        0
280
     0
281
     0
  0
ENDSEC
  0
SECTION
  2
TABLES
  0
TABLE
  2
VPORT
  5
746D
330
0
100
AcDbSymbolTable
 70
     2
  0
VPORT
  5
20A5E
330
746D
100
AcDbSymbolTableRecord
100
AcDbViewportTableRecord
  2
*Active
 70
     0
 10
0.0
 20
0.0
 11
1.0
 21
1.0
 12
8280.018146773466
 22
5755.71968806407
 13
0.0
 23
0.0
 14
10.0
 24
10.0
 15
10.0
 25
10.0
 16
0.0
 26
0.0
 36
1.0
 17
0.0
 27
0.0
 37
0.0
 40
11596.58044819158
 41
1.522222222222222
 42
50.0
 43
0.0
 44
0.0
 50
0.0
 51
0.0
 71
     0
 72
     0
 73
     1
 74
     0
 75
     0
 76
     0
 77
     0
 78
     0
281
     0
 65
     1
110
0.0
120
0.0
130
0.0
111
1.0
121
0.0
131
0.0
112
0.0
122
1.0
132
0.0
 79
     0
146
0.0
  0
ENDTAB
  0
TABLE
  2
LTYPE
  5
746A
330
0
100
AcDbSymbolTable
 70
     3
  0
LTYPE
  5
7477
330
746A
100
AcDbSymbolTableRecord
100
AcDbLinetypeTableRecord
  2
BYBLOCK
 70
     0
  3

 72
    65
 73
     0
 40
0.0
  0
LTYPE
  5
7478
330
746A
100
AcDbSymbolTableRecord
100
AcDbLinetypeTableRecord
  2
BYLAYER
 70
     0
  3

 72
    65
 73
     0
 40
0.0
  0
LTYPE
  5
7479
330
746A
100
AcDbSymbolTableRecord
100
AcDbLinetypeTableRecord
  2
CONTINUOUS
 70
     0
  3
Solid line
 72
    65
 73
     0
 40
0.0
  0
LTYPE
  5
7816
330
746A
100
AcDbSymbolTableRecord
100
AcDbLinetypeTableRecord
  2
CENTER
 70
     0
  3
____ _ ____ _ ____ _ ____ _ ____ _ ____ _ ____ 
 72
    65
 73
     4
 40
2.0
 49
1.25
 74
     0
 49
-0.25
 74
     0
 49
0.25
 74
     0
 49
-0.25
 74
     0
  0
LTYPE
  5
781B
330
746A
100
AcDbSymbolTableRecord
100
AcDbLinetypeTableRecord
  2
PHANTOM
 70
     0
  3
______  __  __  ______  __  __  ______  __  __ 
 72
    65
 73
     6
 40
2.5
 49
1.25
 74
     0
 49
-0.25
 74
     0
 49
0.25
 74
     0
 49
-0.25
 74
     0
 49
0.25
 74
     0
 49
-0.25
 74
     0
  0
ENDTAB
  0
TABLE
  2
LAYER
  5
7467
102
{ACAD_XDICTIONARY
360
20649
102
}
330
0
100
AcDbSymbolTable
 70
    11
  0
LAYER
  5
7474
330
7467
100
AcDbSymbolTableRecord
100
AcDbLayerTableRecord
  2
0
 70
     0
 62
     7
  6
CONTINUOUS
370
    -3
390
159AE
  0
LAYER
  5
DEB2
330
7467
100
AcDbSymbolTableRecord
100
AcDbLayerTableRecord
  2
センター
 70
     0
 62
     3
  6
CENTER
370
    -3
390
159AE
  0
LAYER
  5
DEB3
330
7467
100
AcDbSymbolTableRecord
100
AcDbLayerTableRecord
  2
寸法
 70
     0
 62
     4
  6
CONTINUOUS
370
    -3
390
159AE
  0
LAYER
  5
DEB4
330
7467
100
AcDbSymbolTableRecord
100
AcDbLayerTableRecord
  2
部品1
 70
     0
 62
     7
  6
CONTINUOUS
370
    -3
390
159AE
  0
LAYER
  5
DEB5
330
7467
100
AcDbSymbolTableRecord
100
AcDbLayerTableRecord
  2
補助
 70
     0
 62
    -1
  6
CONTINUOUS
370
    -3
390
159AE
  0
LAYER
  5
DEB6
330
7467
100
AcDbSymbolTableRecord
100
AcDbLayerTableRecord
  2
文字
 70
     0
 62
     7
  6
CONTINUOUS
370
    -3
390
159AE
  0
LAYER
  5
F255
330
7467
100
AcDbSymbolTableRecord
100
AcDbLayerTableRecord
  2
DEFPOINTS
 70
     0
 62
     7
  6
CONTINUOUS
290
     0
370
    -3
390
159AE
  0
LAYER
  5
10B54
330
7467
100
AcDbSymbolTableRecord
100
AcDbLayerTableRecord
  2
仕様書枠
 70
     0
 62
   230
  6
CONTINUOUS
370
    -3
390
159AE
  0
LAYER
  5
11729
330
7467
100
AcDbSymbolTableRecord
100
AcDbLayerTableRecord
  2
Ｇ．Ｌ
 70
     0
 62
    30
  6
CONTINUOUS
370
    -3
390
159AE
  0
LAYER
  5
1173F
330
7467
100
AcDbSymbolTableRecord
100
AcDbLayerTableRecord
  2
細線
 70
     0
 62
     5
  6
CONTINUOUS
370
    -3
390
159AE
  0
LAYER
  5
12CC4
330
7467
100
AcDbSymbolTableRecord
100
AcDbLayerTableRecord
  2
想像線
 70
     0
 62
     6
  6
PHANTOM
370
    -3
390
159AE
  0
ENDTAB
  0
TABLE
  2
STYLE
  5
7468
330
0
100
AcDbSymbolTable
 70
     3
  0
STYLE
  5
7475
330
7468
100
AcDbSymbolTableRecord
100
AcDbTextStyleTableRecord
  2
STANDARD
 70
     0
 40
0.0
 41
1.0
 50
0.0
 71
     0
 42
4.0
  3
txt
  4
C:\AutoCAD LT\bigfont.shx
  0
STYLE
  5
F706
330
7468
100
AcDbSymbolTableRecord
100
AcDbTextStyleTableRecord
  2
STYLE1
 70
     0
 40
0.0
 41
1.0
 50
0.0
 71
     0
 42
100.0
  3
isocp.shx
  4
bigfont.shx
  0
STYLE
  5
103BF
330
7468
100
AcDbSymbolTableRecord
100
AcDbTextStyleTableRecord
  2
STYLE2
 70
     0
 40
0.0
 41
1.0
 50
0.0
 71
     0
 42
100.0
  3
MS PGothic.ttf
  4

1001
ACAD
1000
MS PGothic
1071
    32818
  0
ENDTAB
  0
TABLE
  2
VIEW
  5
746B
330
0
100
AcDbSymbolTable
 70
     0
  0
ENDTAB
  0
TABLE
  2
UCS
  5
746C
330
0
100
AcDbSymbolTable
 70
     0
  0
ENDTAB
  0
TABLE
  2
APPID
  5
746E
330
0
100
AcDbSymbolTable
 70
     6
  0
APPID
  5
7476
330
746E
100
AcDbSymbolTableRecord
100
AcDbRegAppTableRecord
  2
ACAD
 70
     0
  0
APPID
  5
DEA9
330
746E
100
AcDbSymbolTableRecord
100
AcDbRegAppTableRecord
  2
CONTENTBLOCKICON
 70
     0
  0
APPID
  5
DEAA
330
746E
100
AcDbSymbolTableRecord
100
AcDbRegAppTableRecord
  2
CONTENTBLOCKDESCRIPTION
 70
     0
  0
APPID
  5
E71D
330
746E
100
AcDbSymbolTableRecord
100
AcDbRegAppTableRecord
  2
CONTENTTABDATA
 70
     0
  0
APPID
  5
E71E
330
746E
100
AcDbSymbolTableRecord
100
AcDbRegAppTableRecord
  2
CONTENTCURRENTTAB
 70
     0
  0
APPID
  5
F3BA
330
746E
100
AcDbSymbolTableRecord
100
AcDbRegAppTableRecord
  2
DRAWINGVARIABLESXDATA
 70
     0
  0
ENDTAB
  0
TABLE
  2
DIMSTYLE
  5
746F
330
0
100
AcDbSymbolTable
 70
     1
100
AcDbDimStyleTable
 71
     1
340
F71F
  0
DIMSTYLE
105
F71F
102
{ACAD_REACTORS
330
20728
330
206D5
330
206D3
330
206D2
330
206CB
330
206C8
330
206C6
330
206C5
330
206C3
330
206C2
330
206C1
330
1E121
330
1DFAF
330
1DFAA
330
1DF73
330
1DF72
330
1DF71
330
1DF6F
330
1DF6D
330
20542
330
1FA71
330
1F9A7
330
1F249
330
1F248
330
1F11C
330
1E98B
330
1E96D
330
1E701
330
1D959
330
1D947
330
1D946
330
1D942
330
1D93F
330
1D93E
330
1D934
330
1D933
330
1D92D
330
1D92C
330
1D929
330
1D927
330
1D926
330
1D925
330
1D920
330
1D91D
330
1D91C
330
1D91B
330
209DC
102
}
330
746F
100
AcDbSymbolTableRecord
100
AcDbDimStyleTableRecord
  2
INABA_S40G
 70
     0
 40
40.0
 41
2.5
 42
0.5
 43
7.0
 44
1.5
 73
     0
 74
     0
 77
     3
 78
     8
140
3.0
141
0.0
143
0.0394
147
1.0
172
     1
173
     1
174
     1
178
     7
271
     1
288
     1
340
F706
341
F770
343
F770
344
F770
  0
ENDTAB
  0
TABLE
  2
BLOCK_RECORD
  5
7466
330
0
100
AcDbSymbolTable
 70
    31
  0
BLOCK_RECORD
  5
747D
330
7466
100
AcDbSymbolTableRecord
100
AcDbBlockTableRecord
  2
*MODEL_SPACE
340
159B3
  0
BLOCK_RECORD
  5
747A
330
7466
100
AcDbSymbolTableRecord
100
AcDbBlockTableRecord
  2
*PAPER_SPACE
340
159B4
  0
BLOCK_RECORD
  5
F770
330
7466
100
AcDbSymbolTableRecord
100
AcDbBlockTableRecord
  2
_DOTSMALL
340
0
102
{BLKREFS
331
208C7
331
208C8
331
208D0
331
208D1
331
208D9
331
208DA
331
208E2
331
208E3
331
208ED
331
208EE
331
208F6
331
208F7
331
208FF
331
20900
331
20908
331
20909
331
20911
331
20912
331
2091A
331
2091B
331
20923
331
20924
331
2092C
331
2092D
331
20936
331
20937
331
20940
331
20941
331
20955
331
20956
331
2095F
331
20960
331
2096A
331
2096B
331
20974
331
20975
331
2097F
331
20980
331
20989
331
2098A
331
20992
331
20993
331
2099B
331
2099C
331
209A6
331
209A7
331
209B0
331
209B1
331
209B9
331
209BA
331
209C2
331
209C3
331
209CC
331
209CD
331
209D6
331
209D7
331
20A31
331
20A32
331
20A3B
331
20A3C
102
}
  0
BLOCK_RECORD
  5
1DA44
330
7466
100
AcDbSymbolTableRecord
100
AcDbBlockTableRecord
  2
*D1
340
0
  0
BLOCK_RECORD
  5
1DA51
330
7466
100
AcDbSymbolTableRecord
100
AcDbBlockTableRecord
  2
*D2
340
0
  0
BLOCK_RECORD
  5
1DA5E
330
7466
100
AcDbSymbolTableRecord
100
AcDbBlockTableRecord
  2
*D3
340
0
  0
BLOCK_RECORD
  5
1DA69
330
7466
100
AcDbSymbolTableRecord
100
AcDbBlockTableRecord
  2
*D4
340
0
  0
BLOCK_RECORD
  5
1DA74
330
7466
100
AcDbSymbolTableRecord
100
AcDbBlockTableRecord
  2
*D5
340
0
  0
BLOCK_RECORD
  5
1DA81
330
7466
100
AcDbSymbolTableRecord
100
AcDbBlockTableRecord
  2
*D6
340
0
  0
BLOCK_RECORD
  5
1DA8E
330
7466
100
AcDbSymbolTableRecord
100
AcDbBlockTableRecord
  2
*D7
340
0
  0
BLOCK_RECORD
  5
1DA9A
330
7466
100
AcDbSymbolTableRecord
100
AcDbBlockTableRecord
  2
*D8
340
0
  0
BLOCK_RECORD
  5
1DAA5
330
7466
100
AcDbSymbolTableRecord
100
AcDbBlockTableRecord
  2
*D9
340
0
  0
BLOCK_RECORD
  5
1DAB2
330
7466
100
AcDbSymbolTableRecord
100
AcDbBlockTableRecord
  2
*D10
340
0
  0
BLOCK_RECORD
  5
1DABE
330
7466
100
AcDbSymbolTableRecord
100
AcDbBlockTableRecord
  2
*D11
340
0
  0
BLOCK_RECORD
  5
1DACB
330
7466
100
AcDbSymbolTableRecord
100
AcDbBlockTableRecord
  2
*D12
340
0
  0
BLOCK_RECORD
  5
1DAD9
330
7466
100
AcDbSymbolTableRecord
100
AcDbBlockTableRecord
  2
*D13
340
0
  0
BLOCK_RECORD
  5
1DAE6
330
7466
100
AcDbSymbolTableRecord
100
AcDbBlockTableRecord
  2
*D14
340
0
  0
BLOCK_RECORD
  5
1DAF3
330
7466
100
AcDbSymbolTableRecord
100
AcDbBlockTableRecord
  2
*D15
340
0
  0
BLOCK_RECORD
  5
1DB00
330
7466
100
AcDbSymbolTableRecord
100
AcDbBlockTableRecord
  2
*D16
340
0
  0
BLOCK_RECORD
  5
1DB1A
330
7466
100
AcDbSymbolTableRecord
100
AcDbBlockTableRecord
  2
*D17
340
0
  0
BLOCK_RECORD
  5
1DFB0
330
7466
100
AcDbSymbolTableRecord
100
AcDbBlockTableRecord
  2
*D18
340
0
  0
BLOCK_RECORD
  5
1DFBE
330
7466
100
AcDbSymbolTableRecord
100
AcDbBlockTableRecord
  2
*D19
340
0
  0
BLOCK_RECORD
  5
1E9D0
330
7466
100
AcDbSymbolTableRecord
100
AcDbBlockTableRecord
  2
*D20
340
0
  0
BLOCK_RECORD
  5
1EA32
330
7466
100
AcDbSymbolTableRecord
100
AcDbBlockTableRecord
  2
*D21
340
0
  0
BLOCK_RECORD
  5
1F24A
330
7466
100
AcDbSymbolTableRecord
100
AcDbBlockTableRecord
  2
*D22
340
0
  0
BLOCK_RECORD
  5
1F255
330
7466
100
AcDbSymbolTableRecord
100
AcDbBlockTableRecord
  2
*D23
340
0
  0
BLOCK_RECORD
  5
1F9A8
330
7466
100
AcDbSymbolTableRecord
100
AcDbBlockTableRecord
  2
*D24
340
0
  0
BLOCK_RECORD
  5
20543
330
7466
100
AcDbSymbolTableRecord
100
AcDbBlockTableRecord
  2
*D25
340
0
  0
BLOCK_RECORD
  5
2072F
330
7466
100
AcDbSymbolTableRecord
100
AcDbBlockTableRecord
  2
*D26
340
0
  0
BLOCK_RECORD
  5
2073B
330
7466
100
AcDbSymbolTableRecord
100
AcDbBlockTableRecord
  2
*D27
340
0
  0
BLOCK_RECORD
  5
20747
330
7466
100
AcDbSymbolTableRecord
100
AcDbBlockTableRecord
  2
*D28
340
0
  0
BLOCK_RECORD
  5
20753
330
7466
100
AcDbSymbolTableRecord
100
AcDbBlockTableRecord
  2
*D29
340
0
  0
BLOCK_RECORD
  5
209DD
330
7466
100
AcDbSymbolTableRecord
100
AcDbBlockTableRecord
  2
*D30
340
0
  0
ENDTAB
  0
ENDSEC
  0
SECTION
  2
BLOCKS
  0
BLOCK
  5
7489
330
747D
100
AcDbEntity
  8
0
100
AcDbBlockBegin
  2
*MODEL_SPACE
 70
     0
 10
0.0
 20
0.0
 30
0.0
  3
*MODEL_SPACE
  1

  0
ENDBLK
  5
748A
330
747D
100
AcDbEntity
  8
0
100
AcDbBlockEnd
  0
BLOCK
  5
7487
330
747A
100
AcDbEntity
 67
     1
  8
0
100
AcDbBlockBegin
  2
*PAPER_SPACE
 70
     0
 10
0.0
 20
0.0
 30
0.0
  3
*PAPER_SPACE
  1

  0
ENDBLK
  5
7488
330
747A
100
AcDbEntity
 67
     1
  8
0
100
AcDbBlockEnd
  0
BLOCK
  5
F771
330
F770
100
AcDbEntity
  8
0
 48
50.0
100
AcDbBlockBegin
  2
_DOTSMALL
 70
     0
 10
0.0
 20
0.0
 30
0.0
  3
_DOTSMALL
  1

  0
LWPOLYLINE
  5
F772
330
F770
100
AcDbEntity
  8
0
  6
ByBlock
 62
     0
 48
50.0
100
AcDbPolyline
 90
        2
 70
     1
 43
0.5
 10
-0.0625
 20
0.0
 42
1.0
 10
0.0625
 20
0.0
 42
1.0
  0
ENDBLK
  5
F776
330
F770
100
AcDbEntity
  8
0
 48
50.0
100
AcDbBlockEnd
  0
BLOCK
  5
1DA4F
330
1DA44
100
AcDbEntity
  8
0
 48
50.0
100
AcDbBlockBegin
  2
*D1
 70
     1
 10
0.0
 20
0.0
 30
0.0
  3
*D1
  1

  0
LINE
  5
209D2
330
1DA44
100
AcDbEntity
  8
寸法
 62
     0
 48
50.0
370
    -2
100
AcDbLine
 10
6626.195288608608
 20
5892.919036112861
 30
0.0
 11
6882.902538484706
 21
5892.919036112861
 31
0.0
  0
LINE
  5
209D3
330
1DA44
100
AcDbEntity
  8
寸法
 62
     0
 48
50.0
370
    -2
100
AcDbLine
 10
6626.195288608608
 20
6022.919036112863
 30
0.0
 11
6882.902538484706
 21
6022.919036112863
 31
0.0
  0
LINE
  5
209D4
330
1DA44
100
AcDbEntity
  8
寸法
 62
     0
 48
50.0
370
    -2
100
AcDbLine
 10
6822.902538484706
 20
5892.919036112861
 30
0.0
 11
6822.902538484706
 21
6022.919036112863
 31
0.0
  0
LINE
  5
209D5
330
1DA44
100
AcDbEntity
  8
寸法
 62
     0
 48
50.0
370
    -2
100
AcDbLine
 10
6822.902538484706
 20
6022.919036112863
 30
0.0
 11
6822.902538484706
 21
6395.013524301839
 31
0.0
  0
INSERT
  5
209D6
330
1DA44
100
AcDbEntity
  8
寸法
 62
     0
 48
50.0
370
    -2
100
AcDbBlockReference
  2
_DOTSMALL
 10
6822.902538484706
 20
5892.919036112861
 30
0.0
 41
100.0
 42
100.0
 43
100.0
 50
270.0
  0
INSERT
  5
209D7
330
1DA44
100
AcDbEntity
  8
寸法
 62
     0
 48
50.0
370
    -2
100
AcDbBlockReference
  2
_DOTSMALL
 10
6822.902538484706
 20
6022.919036112863
 30
0.0
 41
100.0
 42
100.0
 43
100.0
 50
90.0
  0
MTEXT
  5
209D8
330
1DA44
100
AcDbEntity
  8
寸法
 62
     7
 48
50.0
100
AcDbMText
 10
6722.902538484705
 20
6258.966280207353
 30
0.0
 40
120.0
 41
0.0
 71
     5
 72
     1
  1
\A1;130
  7
STYLE1
 11
0.0000000000000001
 21
1.0
 31
0.0
 73
     1
 44
1.0
1001
ACAD
1000
MTEXTBEGIN
1070
    73
1070
     1
1070
    44
1040
1.0
1070
    74
1070
     0
1000
MTEXTEND
  0
POINT
  5
209D9
330
1DA44
100
AcDbEntity
  8
DEFPOINTS
 62
     0
 48
50.0
100
AcDbPoint
 10
6606.195288608607
 20
5892.919036112861
 30
0.0
  0
POINT
  5
209DA
330
1DA44
100
AcDbEntity
  8
DEFPOINTS
 62
     0
 48
50.0
100
AcDbPoint
 10
6606.195288608607
 20
6022.919036112863
 30
0.0
  0
POINT
  5
209DB
330
1DA44
100
AcDbEntity
  8
DEFPOINTS
 62
     0
 48
50.0
100
AcDbPoint
 10
6822.902538484706
 20
6022.919036112863
 30
0.0
  0
ENDBLK
  5
1DA50
330
1DA44
100
AcDbEntity
  8
0
 48
50.0
100
AcDbBlockEnd
  0
BLOCK
  5
1DA5C
330
1DA51
100
AcDbEntity
  8
0
 48
50.0
100
AcDbBlockBegin
  2
*D2
 70
     1
 10
0.0
 20
0.0
 30
0.0
  3
*D2
  1

  0
LINE
  5
209C8
330
1DA51
100
AcDbEntity
  8
寸法
 62
     0
 48
50.0
370
    -2
100
AcDbLine
 10
6626.195288608608
 20
5892.919036112863
 30
0.0
 11
6882.902538484706
 21
5892.919036112863
 31
0.0
  0
LINE
  5
209C9
330
1DA51
100
AcDbEntity
  8
寸法
 62
     0
 48
50.0
370
    -2
100
AcDbLine
 10
6626.195288608608
 20
5722.919036112862
 30
0.0
 11
6882.902538484706
 21
5722.919036112862
 31
0.0
  0
LINE
  5
209CA
330
1DA51
100
AcDbEntity
  8
寸法
 62
     0
 48
50.0
370
    -2
100
AcDbLine
 10
6822.902538484706
 20
5892.919036112863
 30
0.0
 11
6822.902538484706
 21
5722.919036112862
 31
0.0
  0
LINE
  5
209CB
330
1DA51
100
AcDbEntity
  8
寸法
 62
     0
 48
50.0
370
    -2
100
AcDbLine
 10
6822.902538484706
 20
5722.919036112862
 30
0.0
 11
6822.902538484706
 21
5350.824547923884
 31
0.0
  0
INSERT
  5
209CC
330
1DA51
100
AcDbEntity
  8
寸法
 62
     0
 48
50.0
370
    -2
100
AcDbBlockReference
  2
_DOTSMALL
 10
6822.902538484706
 20
5892.919036112863
 30
0.0
 41
100.0
 42
100.0
 43
100.0
 50
90.0
  0
INSERT
  5
209CD
330
1DA51
100
AcDbEntity
  8
寸法
 62
     0
 48
50.0
370
    -2
100
AcDbBlockReference
  2
_DOTSMALL
 10
6822.902538484706
 20
5722.919036112862
 30
0.0
 41
100.0
 42
100.0
 43
100.0
 50
270.0
  0
MTEXT
  5
209CE
330
1DA51
100
AcDbEntity
  8
寸法
 62
     7
 48
50.0
100
AcDbMText
 10
6722.902538484705
 20
5486.871792018373
 30
0.0
 40
120.0
 41
0.0
 71
     5
 72
     1
  1
\A1;170
  7
STYLE1
 11
0.0000000000000001
 21
1.0
 31
0.0
 73
     1
 44
1.0
1001
ACAD
1000
MTEXTBEGIN
1070
    73
1070
     1
1070
    44
1040
1.0
1070
    74
1070
     0
1000
MTEXTEND
  0
POINT
  5
209CF
330
1DA51
100
AcDbEntity
  8
DEFPOINTS
 62
     0
 48
50.0
100
AcDbPoint
 10
6606.195288608607
 20
5892.919036112863
 30
0.0
  0
POINT
  5
209D0
330
1DA51
100
AcDbEntity
  8
DEFPOINTS
 62
     0
 48
50.0
100
AcDbPoint
 10
6606.195288608607
 20
5722.919036112862
 30
0.0
  0
POINT
  5
209D1
330
1DA51
100
AcDbEntity
  8
DEFPOINTS
 62
     0
 48
50.0
100
AcDbPoint
 10
6822.902538484706
 20
5722.919036112862
 30
0.0
  0
ENDBLK
  5
1DA5D
330
1DA51
100
AcDbEntity
  8
0
 48
50.0
100
AcDbBlockEnd
  0
BLOCK
  5
1DA67
330
1DA5E
100
AcDbEntity
  8
0
 48
50.0
100
AcDbBlockBegin
  2
*D3
 70
     1
 10
0.0
 20
0.0
 30
0.0
  3
*D3
  1

  0
LINE
  5
209BF
330
1DA5E
100
AcDbEntity
  8
寸法
 62
     0
 48
50.0
370
    -2
100
AcDbLine
 10
9313.195288608607
 20
7049.919036112841
 30
0.0
 11
9313.195288608607
 21
7916.250847072693
 31
0.0
  0
LINE
  5
209C0
330
1DA5E
100
AcDbEntity
  8
寸法
 62
     0
 48
50.0
370
    -2
100
AcDbLine
 10
6499.195288608607
 20
7049.919036112843
 30
0.0
 11
6499.195288608607
 21
7916.250847072693
 31
0.0
  0
LINE
  5
209C1
330
1DA5E
100
AcDbEntity
  8
寸法
 62
     0
 48
50.0
370
    -2
100
AcDbLine
 10
9313.195288608607
 20
7856.250847072693
 30
0.0
 11
6499.195288608607
 21
7856.250847072693
 31
0.0
  0
INSERT
  5
209C2
330
1DA5E
100
AcDbEntity
  8
寸法
 62
     0
 48
50.0
370
    -2
100
AcDbBlockReference
  2
_DOTSMALL
 10
9313.195288608607
 20
7856.250847072693
 30
0.0
 41
100.0
 42
100.0
 43
100.0
  0
INSERT
  5
209C3
330
1DA5E
100
AcDbEntity
  8
寸法
 62
     0
 48
50.0
370
    -2
100
AcDbBlockReference
  2
_DOTSMALL
 10
6499.195288608607
 20
7856.250847072693
 30
0.0
 41
100.0
 42
100.0
 43
100.0
 50
180.0
  0
MTEXT
  5
209C4
330
1DA5E
100
AcDbEntity
  8
寸法
 62
     7
 48
50.0
100
AcDbMText
 10
7906.195288608607
 20
7956.262658096314
 30
0.0
 40
120.0
 41
0.0
 71
     5
 72
     1
  1
\A1;2814
  7
STYLE1
 73
     1
 44
1.0
1001
ACAD
1000
MTEXTBEGIN
1070
    73
1070
     1
1070
    44
1040
1.0
1070
    74
1070
     0
1000
MTEXTEND
  0
POINT
  5
209C5
330
1DA5E
100
AcDbEntity
  8
DEFPOINTS
 62
     0
 48
50.0
100
AcDbPoint
 10
9313.195288608607
 20
7029.919036112841
 30
0.0
  0
POINT
  5
209C6
330
1DA5E
100
AcDbEntity
  8
DEFPOINTS
 62
     0
 48
50.0
100
AcDbPoint
 10
6499.195288608607
 20
7029.919036112842
 30
0.0
  0
POINT
  5
209C7
330
1DA5E
100
AcDbEntity
  8
DEFPOINTS
 62
     0
 48
50.0
100
AcDbPoint
 10
6499.195288608607
 20
7856.250847072693
 30
0.0
  0
ENDBLK
  5
1DA68
330
1DA5E
100
AcDbEntity
  8
0
 48
50.0
100
AcDbBlockEnd
  0
BLOCK
  5
1DA72
330
1DA69
100
AcDbEntity
  8
0
 48
50.0
100
AcDbBlockBegin
  2
*D4
 70
     1
 10
0.0
 20
0.0
 30
0.0
  3
*D4
  1

  0
LINE
  5
209B6
330
1DA69
100
AcDbEntity
  8
寸法
 62
     0
 48
50.0
370
    -2
100
AcDbLine
 10
6376.195288608608
 20
7122.919036112842
 30
0.0
 11
6376.195288608608
 21
8128.711542589529
 31
0.0
  0
LINE
  5
209B7
330
1DA69
100
AcDbEntity
  8
寸法
 62
     0
 48
50.0
370
    -2
100
AcDbLine
 10
9436.195288608606
 20
7122.919036112842
 30
0.0
 11
9436.195288608606
 21
8128.711542589529
 31
0.0
  0
LINE
  5
209B8
330
1DA69
100
AcDbEntity
  8
寸法
 62
     0
 48
50.0
370
    -2
100
AcDbLine
 10
6376.195288608608
 20
8068.711542589529
 30
0.0
 11
9436.195288608606
 21
8068.711542589529
 31
0.0
  0
INSERT
  5
209B9
330
1DA69
100
AcDbEntity
  8
寸法
 62
     0
 48
50.0
370
    -2
100
AcDbBlockReference
  2
_DOTSMALL
 10
6376.195288608608
 20
8068.711542589529
 30
0.0
 41
100.0
 42
100.0
 43
100.0
 50
180.0
  0
INSERT
  5
209BA
330
1DA69
100
AcDbEntity
  8
寸法
 62
     0
 48
50.0
370
    -2
100
AcDbBlockReference
  2
_DOTSMALL
 10
9436.195288608606
 20
8068.711542589529
 30
0.0
 41
100.0
 42
100.0
 43
100.0
  0
MTEXT
  5
209BB
330
1DA69
100
AcDbEntity
  8
寸法
 62
     7
 48
50.0
100
AcDbMText
 10
7906.195288608607
 20
8168.711542589528
 30
0.0
 40
120.0
 41
0.0
 71
     5
 72
     1
  1
\A1;3060
  7
STYLE1
 73
     1
 44
1.0
1001
ACAD
1000
MTEXTBEGIN
1070
    73
1070
     1
1070
    44
1040
1.0
1070
    74
1070
     0
1000
MTEXTEND
  0
POINT
  5
209BC
330
1DA69
100
AcDbEntity
  8
DEFPOINTS
 62
     0
 48
50.0
100
AcDbPoint
 10
6376.195288608608
 20
7102.919036112843
 30
0.0
  0
POINT
  5
209BD
330
1DA69
100
AcDbEntity
  8
DEFPOINTS
 62
     0
 48
50.0
100
AcDbPoint
 10
9436.195288608606
 20
7102.919036112843
 30
0.0
  0
POINT
  5
209BE
330
1DA69
100
AcDbEntity
  8
DEFPOINTS
 62
     0
 48
50.0
100
AcDbPoint
 10
9436.195288608606
 20
8068.711542589529
 30
0.0
  0
ENDBLK
  5
1DA73
330
1DA69
100
AcDbEntity
  8
0
 48
50.0
100
AcDbBlockEnd
  0
BLOCK
  5
1DA7F
330
1DA74
100
AcDbEntity
  8
0
 48
50.0
100
AcDbBlockBegin
  2
*D5
 70
     1
 10
0.0
 20
0.0
 30
0.0
  3
*D5
  1

  0
LINE
  5
209AC
330
1DA74
100
AcDbEntity
  8
寸法
 62
     0
 48
50.0
370
    -2
100
AcDbLine
 10
6499.195288608607
 20
7049.919036112841
 30
0.0
 11
6499.195288608607
 21
7916.250847072693
 31
0.0
  0
LINE
  5
209AD
330
1DA74
100
AcDbEntity
  8
寸法
 62
     0
 48
50.0
370
    -2
100
AcDbLine
 10
6376.195288608606
 20
7122.91903611284
 30
0.0
 11
6376.195288608606
 21
7916.250847072693
 31
0.0
  0
LINE
  5
209AE
330
1DA74
100
AcDbEntity
  8
寸法
 62
     0
 48
50.0
370
    -2
100
AcDbLine
 10
6499.195288608607
 20
7856.250847072693
 30
0.0
 11
6376.195288608606
 21
7856.250847072693
 31
0.0
  0
LINE
  5
209AF
330
1DA74
100
AcDbEntity
  8
寸法
 62
     0
 48
50.0
370
    -2
100
AcDbLine
 10
6376.195288608606
 20
7856.250847072693
 30
0.0
 11
5999.224725860128
 21
7856.250847072693
 31
0.0
  0
INSERT
  5
209B0
330
1DA74
100
AcDbEntity
  8
寸法
 62
     0
 48
50.0
370
    -2
100
AcDbBlockReference
  2
_DOTSMALL
 10
6499.195288608607
 20
7856.250847072693
 30
0.0
 41
100.0
 42
100.0
 43
100.0
  0
INSERT
  5
209B1
330
1DA74
100
AcDbEntity
  8
寸法
 62
     0
 48
50.0
370
    -2
100
AcDbBlockReference
  2
_DOTSMALL
 10
6376.195288608606
 20
7856.250847072693
 30
0.0
 41
100.0
 42
100.0
 43
100.0
 50
180.0
  0
MTEXT
  5
209B2
330
1DA74
100
AcDbEntity
  8
寸法
 62
     7
 48
50.0
100
AcDbMText
 10
6137.710007234367
 20
7956.262658096314
 30
0.0
 40
120.0
 41
0.0
 71
     5
 72
     1
  1
\A1;123
  7
STYLE1
 73
     1
 44
1.0
1001
ACAD
1000
MTEXTBEGIN
1070
    73
1070
     1
1070
    44
1040
1.0
1070
    74
1070
     0
1000
MTEXTEND
  0
POINT
  5
209B3
330
1DA74
100
AcDbEntity
  8
DEFPOINTS
 62
     0
 48
50.0
100
AcDbPoint
 10
6499.195288608607
 20
7029.919036112841
 30
0.0
  0
POINT
  5
209B4
330
1DA74
100
AcDbEntity
  8
DEFPOINTS
 62
     0
 48
50.0
100
AcDbPoint
 10
6376.195288608606
 20
7102.91903611284
 30
0.0
  0
POINT
  5
209B5
330
1DA74
100
AcDbEntity
  8
DEFPOINTS
 62
     0
 48
50.0
100
AcDbPoint
 10
6376.195288608606
 20
7856.250847072693
 30
0.0
  0
ENDBLK
  5
1DA80
330
1DA74
100
AcDbEntity
  8
0
 48
50.0
100
AcDbBlockEnd
  0
BLOCK
  5
1DA8C
330
1DA81
100
AcDbEntity
  8
0
 48
50.0
100
AcDbBlockBegin
  2
*D6
 70
     1
 10
0.0
 20
0.0
 30
0.0
  3
*D6
  1

  0
LINE
  5
209A1
330
1DA81
100
AcDbEntity
  8
寸法
 62
     0
 48
50.0
370
    -2
100
AcDbLine
 10
6331.195288608604
 20
7876.250847072693
 30
0.0
 11
6331.195288608604
 21
8128.711542589531
 31
0.0
  0
LINE
  5
209A2
330
1DA81
100
AcDbEntity
  8
寸法
 62
     0
 48
50.0
370
    -2
100
AcDbLine
 10
6376.195288608608
 20
7271.190236682762
 30
0.0
 11
6376.195288608608
 21
8128.711542589531
 31
0.0
  0
LINE
  5
209A3
330
1DA81
100
AcDbEntity
  8
寸法
 62
     0
 48
50.0
370
    -2
100
AcDbLine
 10
6331.195288608604
 20
8068.711542589531
 30
0.0
 11
6231.195288608604
 21
8068.711542589531
 31
0.0
  0
LINE
  5
209A4
330
1DA81
100
AcDbEntity
  8
寸法
 62
     0
 48
50.0
370
    -2
100
AcDbLine
 10
6376.195288608608
 20
8068.711542589531
 30
0.0
 11
6476.195288608607
 21
8068.711542589531
 31
0.0
  0
LINE
  5
209A5
330
1DA81
100
AcDbEntity
  8
寸法
 62
     0
 48
50.0
370
    -2
100
AcDbLine
 10
6331.195288608604
 20
8068.711542589531
 30
0.0
 11
6376.195288608608
 21
8068.711542589531
 31
0.0
  0
INSERT
  5
209A6
330
1DA81
100
AcDbEntity
  8
寸法
 62
     0
 48
50.0
370
    -2
100
AcDbBlockReference
  2
_DOTSMALL
 10
6331.195288608604
 20
8068.711542589531
 30
0.0
 41
100.0
 42
100.0
 43
100.0
  0
INSERT
  5
209A7
330
1DA81
100
AcDbEntity
  8
寸法
 62
     0
 48
50.0
370
    -2
100
AcDbBlockReference
  2
_DOTSMALL
 10
6376.195288608608
 20
8068.711542589531
 30
0.0
 41
100.0
 42
100.0
 43
100.0
 50
180.0
  0
MTEXT
  5
209A8
330
1DA81
100
AcDbEntity
  8
寸法
 62
     7
 48
50.0
100
AcDbMText
 10
6353.695288608605
 20
8168.711542589532
 30
0.0
 40
120.0
 41
0.0
 71
     5
 72
     1
  1
\A1;a
  7
STYLE1
 73
     1
 44
1.0
1001
ACAD
1000
MTEXTBEGIN
1070
    73
1070
     1
1070
    44
1040
1.0
1070
    74
1070
     0
1000
MTEXTEND
  0
POINT
  5
209A9
330
1DA81
100
AcDbEntity
  8
DEFPOINTS
 62
     0
 48
50.0
100
AcDbPoint
 10
6331.195288608604
 20
7856.250847072693
 30
0.0
  0
POINT
  5
209AA
330
1DA81
100
AcDbEntity
  8
DEFPOINTS
 62
     0
 48
50.0
100
AcDbPoint
 10
6376.195288608608
 20
7251.190236682763
 30
0.0
  0
POINT
  5
209AB
330
1DA81
100
AcDbEntity
  8
DEFPOINTS
 62
     0
 48
50.0
100
AcDbPoint
 10
6376.195288608608
 20
8068.711542589531
 30
0.0
  0
ENDBLK
  5
1DA8D
330
1DA81
100
AcDbEntity
  8
0
 48
50.0
100
AcDbBlockEnd
  0
BLOCK
  5
1DA98
330
1DA8E
100
AcDbEntity
  8
0
 48
50.0
100
AcDbBlockBegin
  2
*D7
 70
     1
 10
0.0
 20
0.0
 30
0.0
  3
*D7
  1

  0
LINE
  5
20998
330
1DA8E
100
AcDbEntity
  8
寸法
 62
     0
 48
50.0
370
    -2
100
AcDbLine
 10
6429.195288608608
 20
6979.919036112841
 30
0.0
 11
5820.253022594787
 21
6979.919036112843
 31
0.0
  0
LINE
  5
20999
330
1DA8E
100
AcDbEntity
  8
寸法
 62
     0
 48
50.0
370
    -2
100
AcDbLine
 10
6429.195288608615
 20
5920.919036112861
 30
0.0
 11
5820.253022594786
 21
5920.919036112862
 31
0.0
  0
LINE
  5
2099A
330
1DA8E
100
AcDbEntity
  8
寸法
 62
     0
 48
50.0
370
    -2
100
AcDbLine
 10
5880.253022594787
 20
6979.919036112843
 30
0.0
 11
5880.253022594786
 21
5920.919036112862
 31
0.0
  0
INSERT
  5
2099B
330
1DA8E
100
AcDbEntity
  8
寸法
 62
     0
 48
50.0
370
    -2
100
AcDbBlockReference
  2
_DOTSMALL
 10
5880.253022594787
 20
6979.919036112843
 30
0.0
 41
100.0
 42
100.0
 43
100.0
 50
90.0
  0
INSERT
  5
2099C
330
1DA8E
100
AcDbEntity
  8
寸法
 62
     0
 48
50.0
370
    -2
100
AcDbBlockReference
  2
_DOTSMALL
 10
5880.253022594786
 20
5920.919036112862
 30
0.0
 41
100.0
 42
100.0
 43
100.0
 50
270.0
  0
MTEXT
  5
2099D
330
1DA8E
100
AcDbEntity
  8
寸法
 62
     7
 48
50.0
100
AcDbMText
 10
5780.253022594784
 20
6469.622096454681
 30
0.0
 40
120.0
 41
0.0
 71
     5
 72
     1
  1
\A1;1059
  7
STYLE1
 11
0.0000000000000001
 21
1.0
 31
0.0
 73
     1
 44
1.0
1001
ACAD
1000
MTEXTBEGIN
1070
    73
1070
     1
1070
    44
1040
1.0
1070
    74
1070
     0
1000
MTEXTEND
  0
POINT
  5
2099E
330
1DA8E
100
AcDbEntity
  8
DEFPOINTS
 62
     0
 48
50.0
100
AcDbPoint
 10
6449.195288608606
 20
6979.919036112841
 30
0.0
  0
POINT
  5
2099F
330
1DA8E
100
AcDbEntity
  8
DEFPOINTS
 62
     0
 48
50.0
100
AcDbPoint
 10
6449.195288608615
 20
5920.919036112861
 30
0.0
  0
POINT
  5
209A0
330
1DA8E
100
AcDbEntity
  8
DEFPOINTS
 62
     0
 48
50.0
100
AcDbPoint
 10
5880.253022594786
 20
5920.919036112862
 30
0.0
  0
ENDBLK
  5
1DA99
330
1DA8E
100
AcDbEntity
  8
0
 48
50.0
100
AcDbBlockEnd
  0
BLOCK
  5
1DAA3
330
1DA9A
100
AcDbEntity
  8
0
 48
50.0
100
AcDbBlockBegin
  2
*D8
 70
     1
 10
0.0
 20
0.0
 30
0.0
  3
*D8
  1

  0
LINE
  5
2098F
330
1DA9A
100
AcDbEntity
  8
寸法
 62
     0
 48
50.0
370
    -2
100
AcDbLine
 10
6356.195288608607
 20
7102.91903611284
 30
0.0
 11
5574.76022045682
 21
7102.919036112841
 31
0.0
  0
LINE
  5
20990
330
1DA9A
100
AcDbEntity
  8
寸法
 62
     0
 48
50.0
370
    -2
100
AcDbLine
 10
6356.195288608607
 20
5722.919036112859
 30
0.0
 11
5574.76022045682
 21
5722.91903611286
 31
0.0
  0
LINE
  5
20991
330
1DA9A
100
AcDbEntity
  8
寸法
 62
     0
 48
50.0
370
    -2
100
AcDbLine
 10
5634.76022045682
 20
7102.919036112841
 30
0.0
 11
5634.760220456819
 21
5722.91903611286
 31
0.0
  0
INSERT
  5
20992
330
1DA9A
100
AcDbEntity
  8
寸法
 62
     0
 48
50.0
370
    -2
100
AcDbBlockReference
  2
_DOTSMALL
 10
5634.76022045682
 20
7102.919036112841
 30
0.0
 41
100.0
 42
100.0
 43
100.0
 50
90.0
  0
INSERT
  5
20993
330
1DA9A
100
AcDbEntity
  8
寸法
 62
     0
 48
50.0
370
    -2
100
AcDbBlockReference
  2
_DOTSMALL
 10
5634.760220456819
 20
5722.91903611286
 30
0.0
 41
100.0
 42
100.0
 43
100.0
 50
270.0
  0
MTEXT
  5
20994
330
1DA9A
100
AcDbEntity
  8
寸法
 62
     7
 48
50.0
100
AcDbMText
 10
5534.760220456818
 20
6446.515373625764
 30
0.0
 40
120.0
 41
0.0
 71
     5
 72
     1
  1
\A1;1380
  7
STYLE1
 11
0.0000000000000001
 21
1.0
 31
0.0
 73
     1
 44
1.0
1001
ACAD
1000
MTEXTBEGIN
1070
    73
1070
     1
1070
    44
1040
1.0
1070
    74
1070
     0
1000
MTEXTEND
  0
POINT
  5
20995
330
1DA9A
100
AcDbEntity
  8
DEFPOINTS
 62
     0
 48
50.0
100
AcDbPoint
 10
6376.195288608608
 20
7102.91903611284
 30
0.0
  0
POINT
  5
20996
330
1DA9A
100
AcDbEntity
  8
DEFPOINTS
 62
     0
 48
50.0
100
AcDbPoint
 10
6376.195288608608
 20
5722.919036112859
 30
0.0
  0
POINT
  5
20997
330
1DA9A
100
AcDbEntity
  8
DEFPOINTS
 62
     0
 48
50.0
100
AcDbPoint
 10
5634.760220456819
 20
5722.91903611286
 30
0.0
  0
ENDBLK
  5
1DAA4
330
1DA9A
100
AcDbEntity
  8
0
 48
50.0
100
AcDbBlockEnd
  0
BLOCK
  5
1DAB0
330
1DAA5
100
AcDbEntity
  8
0
 48
50.0
100
AcDbBlockBegin
  2
*D9
 70
     1
 10
0.0
 20
0.0
 30
0.0
  3
*D9
  1

  0
LINE
  5
20985
330
1DAA5
100
AcDbEntity
  8
寸法
 62
     0
 48
50.0
370
    -2
100
AcDbLine
 10
6429.195288608615
 20
5920.919036112861
 30
0.0
 11
5820.253022594786
 21
5920.919036112862
 31
0.0
  0
LINE
  5
20986
330
1DAA5
100
AcDbEntity
  8
寸法
 62
     0
 48
50.0
370
    -2
100
AcDbLine
 10
6356.195288608607
 20
5722.919036112859
 30
0.0
 11
5820.253022594786
 21
5722.91903611286
 31
0.0
  0
LINE
  5
20987
330
1DAA5
100
AcDbEntity
  8
寸法
 62
     0
 48
50.0
370
    -2
100
AcDbLine
 10
5880.253022594786
 20
5920.919036112862
 30
0.0
 11
5880.253022594786
 21
5722.91903611286
 31
0.0
  0
LINE
  5
20988
330
1DAA5
100
AcDbEntity
  8
寸法
 62
     0
 48
50.0
370
    -2
100
AcDbLine
 10
5880.253022594786
 20
5722.91903611286
 30
0.0
 11
5880.253022594786
 21
5350.499716453548
 31
0.0
  0
INSERT
  5
20989
330
1DAA5
100
AcDbEntity
  8
寸法
 62
     0
 48
50.0
370
    -2
100
AcDbBlockReference
  2
_DOTSMALL
 10
5880.253022594786
 20
5920.919036112862
 30
0.0
 41
100.0
 42
100.0
 43
100.0
 50
90.0
  0
INSERT
  5
2098A
330
1DAA5
100
AcDbEntity
  8
寸法
 62
     0
 48
50.0
370
    -2
100
AcDbBlockReference
  2
_DOTSMALL
 10
5880.253022594786
 20
5722.91903611286
 30
0.0
 41
100.0
 42
100.0
 43
100.0
 50
270.0
  0
MTEXT
  5
2098B
330
1DAA5
100
AcDbEntity
  8
寸法
 62
     7
 48
50.0
100
AcDbMText
 10
5780.253022594784
 20
5486.709376283204
 30
0.0
 40
120.0
 41
0.0
 71
     5
 72
     1
  1
\A1;198
  7
STYLE1
 11
0.0000000000000001
 21
1.0
 31
0.0
 73
     1
 44
1.0
1001
ACAD
1000
MTEXTBEGIN
1070
    73
1070
     1
1070
    44
1040
1.0
1070
    74
1070
     0
1000
MTEXTEND
  0
POINT
  5
2098C
330
1DAA5
100
AcDbEntity
  8
DEFPOINTS
 62
     0
 48
50.0
100
AcDbPoint
 10
6449.195288608615
 20
5920.919036112861
 30
0.0
  0
POINT
  5
2098D
330
1DAA5
100
AcDbEntity
  8
DEFPOINTS
 62
     0
 48
50.0
100
AcDbPoint
 10
6376.195288608608
 20
5722.919036112859
 30
0.0
  0
POINT
  5
2098E
330
1DAA5
100
AcDbEntity
  8
DEFPOINTS
 62
     0
 48
50.0
100
AcDbPoint
 10
5880.253022594786
 20
5722.91903611286
 30
0.0
  0
ENDBLK
  5
1DAB1
330
1DAA5
100
AcDbEntity
  8
0
 48
50.0
100
AcDbBlockEnd
  0
BLOCK
  5
1DABC
330
1DAB2
100
AcDbEntity
  8
0
 48
50.0
100
AcDbBlockBegin
  2
*D10
 70
     1
 10
0.0
 20
0.0
 30
0.0
  3
*D10
  1

  0
LINE
  5
2097A
330
1DAB2
100
AcDbEntity
  8
寸法
 62
     0
 48
50.0
370
    -2
100
AcDbLine
 10
6356.195288608607
 20
5722.919036112859
 30
0.0
 11
5574.76022045682
 21
5722.91903611286
 31
0.0
  0
LINE
  5
2097B
330
1DAB2
100
AcDbEntity
  8
寸法
 62
     0
 48
50.0
370
    -2
100
AcDbLine
 10
5860.253022594786
 20
5667.919036112859
 30
0.0
 11
5574.76022045682
 21
5667.919036112859
 31
0.0
  0
LINE
  5
2097C
330
1DAB2
100
AcDbEntity
  8
寸法
 62
     0
 48
50.0
370
    -2
100
AcDbLine
 10
5634.760220456819
 20
5722.91903611286
 30
0.0
 11
5634.760220456819
 21
5822.91903611286
 31
0.0
  0
LINE
  5
2097D
330
1DAB2
100
AcDbEntity
  8
寸法
 62
     0
 48
50.0
370
    -2
100
AcDbLine
 10
5634.760220456819
 20
5667.919036112859
 30
0.0
 11
5634.760220456819
 21
5567.91903611286
 31
0.0
  0
LINE
  5
2097E
330
1DAB2
100
AcDbEntity
  8
寸法
 62
     0
 48
50.0
370
    -2
100
AcDbLine
 10
5634.760220456819
 20
5722.91903611286
 30
0.0
 11
5634.760220456819
 21
5667.919036112859
 31
0.0
  0
INSERT
  5
2097F
330
1DAB2
100
AcDbEntity
  8
寸法
 62
     0
 48
50.0
370
    -2
100
AcDbBlockReference
  2
_DOTSMALL
 10
5634.760220456819
 20
5722.91903611286
 30
0.0
 41
100.0
 42
100.0
 43
100.0
 50
270.0
  0
INSERT
  5
20980
330
1DAB2
100
AcDbEntity
  8
寸法
 62
     0
 48
50.0
370
    -2
100
AcDbBlockReference
  2
_DOTSMALL
 10
5634.760220456819
 20
5667.919036112859
 30
0.0
 41
100.0
 42
100.0
 43
100.0
 50
90.0
  0
MTEXT
  5
20981
330
1DAB2
100
AcDbEntity
  8
寸法
 62
     7
 48
50.0
100
AcDbMText
 10
5534.760220456818
 20
5695.41903611286
 30
0.0
 40
120.0
 41
0.0
 71
     5
 72
     1
  1
\A1;b
  7
STYLE1
 11
0.0000000000000001
 21
1.0
 31
0.0
 73
     1
 44
1.0
1001
ACAD
1000
MTEXTBEGIN
1070
    73
1070
     1
1070
    44
1040
1.0
1070
    74
1070
     0
1000
MTEXTEND
  0
POINT
  5
20982
330
1DAB2
100
AcDbEntity
  8
DEFPOINTS
 62
     0
 48
50.0
100
AcDbPoint
 10
6376.195288608608
 20
5722.919036112859
 30
0.0
  0
POINT
  5
20983
330
1DAB2
100
AcDbEntity
  8
DEFPOINTS
 62
     0
 48
50.0
100
AcDbPoint
 10
5880.253022594786
 20
5667.919036112859
 30
0.0
  0
POINT
  5
20984
330
1DAB2
100
AcDbEntity
  8
DEFPOINTS
 62
     0
 48
50.0
100
AcDbPoint
 10
5634.760220456819
 20
5667.919036112859
 30
0.0
  0
ENDBLK
  5
1DABD
330
1DAB2
100
AcDbEntity
  8
0
 48
50.0
100
AcDbBlockEnd
  0
BLOCK
  5
1DAC9
330
1DABE
100
AcDbEntity
  8
0
 48
50.0
100
AcDbBlockBegin
  2
*D11
 70
     1
 10
0.0
 20
0.0
 30
0.0
  3
*D11
  1

  0
LINE
  5
20970
330
1DABE
100
AcDbEntity
  8
寸法
 62
     0
 48
50.0
370
    -2
100
AcDbLine
 10
6356.195288608607
 20
7102.919036112841
 30
0.0
 11
5820.253022594787
 21
7102.919036112843
 31
0.0
  0
LINE
  5
20971
330
1DABE
100
AcDbEntity
  8
寸法
 62
     0
 48
50.0
370
    -2
100
AcDbLine
 10
6429.195288608608
 20
6979.919036112841
 30
0.0
 11
5820.253022594787
 21
6979.919036112843
 31
0.0
  0
LINE
  5
20972
330
1DABE
100
AcDbEntity
  8
寸法
 62
     0
 48
50.0
370
    -2
100
AcDbLine
 10
5880.253022594787
 20
6979.919036112843
 30
0.0
 11
5880.253022594787
 21
7102.919036112843
 31
0.0
  0
LINE
  5
20973
330
1DABE
100
AcDbEntity
  8
寸法
 62
     0
 48
50.0
370
    -2
100
AcDbLine
 10
5880.253022594787
 20
7102.919036112843
 30
0.0
 11
5880.253022594787
 21
7479.889598861319
 31
0.0
  0
INSERT
  5
20974
330
1DABE
100
AcDbEntity
  8
寸法
 62
     0
 48
50.0
370
    -2
100
AcDbBlockReference
  2
_DOTSMALL
 10
5880.253022594787
 20
6979.919036112843
 30
0.0
 41
100.0
 42
100.0
 43
100.0
 50
270.0
  0
INSERT
  5
20975
330
1DABE
100
AcDbEntity
  8
寸法
 62
     0
 48
50.0
370
    -2
100
AcDbBlockReference
  2
_DOTSMALL
 10
5880.253022594787
 20
7102.919036112843
 30
0.0
 41
100.0
 42
100.0
 43
100.0
 50
90.0
  0
MTEXT
  5
20976
330
1DABE
100
AcDbEntity
  8
寸法
 62
     7
 48
50.0
100
AcDbMText
 10
5780.241211571163
 20
7341.404317487081
 30
0.0
 40
120.0
 41
0.0
 71
     5
 72
     1
  1
\A1;123
  7
STYLE1
 11
0.0000000000000001
 21
1.0
 31
0.0
 73
     1
 44
1.0
1001
ACAD
1000
MTEXTBEGIN
1070
    73
1070
     1
1070
    44
1040
1.0
1070
    74
1070
     0
1000
MTEXTEND
  0
POINT
  5
20977
330
1DABE
100
AcDbEntity
  8
DEFPOINTS
 62
     0
 48
50.0
100
AcDbPoint
 10
6376.195288608608
 20
7102.919036112841
 30
0.0
  0
POINT
  5
20978
330
1DABE
100
AcDbEntity
  8
DEFPOINTS
 62
     0
 48
50.0
100
AcDbPoint
 10
6449.195288608606
 20
6979.919036112841
 30
0.0
  0
POINT
  5
20979
330
1DABE
100
AcDbEntity
  8
DEFPOINTS
 62
     0
 48
50.0
100
AcDbPoint
 10
5880.253022594787
 20
6979.919036112843
 30
0.0
  0
ENDBLK
  5
1DACA
330
1DABE
100
AcDbEntity
  8
0
 48
50.0
100
AcDbBlockEnd
  0
BLOCK
  5
1DAD7
330
1DACB
100
AcDbEntity
  8
0
 48
50.0
100
AcDbBlockBegin
  2
*D12
 70
     1
 10
0.0
 20
0.0
 30
0.0
  3
*D12
  1

  0
LINE
  5
20965
330
1DACB
100
AcDbEntity
  8
寸法
 62
     0
 48
50.0
370
    -2
100
AcDbLine
 10
5860.253022594786
 20
7177.919036112841
 30
0.0
 11
5574.76022045682
 21
7177.919036112841
 31
0.0
  0
LINE
  5
20966
330
1DACB
100
AcDbEntity
  8
寸法
 62
     0
 48
50.0
370
    -2
100
AcDbLine
 10
6356.195288608607
 20
7102.919036112841
 30
0.0
 11
5574.76022045682
 21
7102.919036112843
 31
0.0
  0
LINE
  5
20967
330
1DACB
100
AcDbEntity
  8
寸法
 62
     0
 48
50.0
370
    -2
100
AcDbLine
 10
5634.760220456819
 20
7177.919036112841
 30
0.0
 11
5634.760220456819
 21
7277.919036112841
 31
0.0
  0
LINE
  5
20968
330
1DACB
100
AcDbEntity
  8
寸法
 62
     0
 48
50.0
370
    -2
100
AcDbLine
 10
5634.760220456819
 20
7102.919036112843
 30
0.0
 11
5634.760220456819
 21
7002.919036112842
 31
0.0
  0
LINE
  5
20969
330
1DACB
100
AcDbEntity
  8
寸法
 62
     0
 48
50.0
370
    -2
100
AcDbLine
 10
5634.760220456819
 20
7177.919036112841
 30
0.0
 11
5634.760220456819
 21
7102.919036112843
 31
0.0
  0
INSERT
  5
2096A
330
1DACB
100
AcDbEntity
  8
寸法
 62
     0
 48
50.0
370
    -2
100
AcDbBlockReference
  2
_DOTSMALL
 10
5634.760220456819
 20
7177.919036112841
 30
0.0
 41
100.0
 42
100.0
 43
100.0
 50
270.0
  0
INSERT
  5
2096B
330
1DACB
100
AcDbEntity
  8
寸法
 62
     0
 48
50.0
370
    -2
100
AcDbBlockReference
  2
_DOTSMALL
 10
5634.760220456819
 20
7102.919036112843
 30
0.0
 41
100.0
 42
100.0
 43
100.0
 50
90.0
  0
MTEXT
  5
2096C
330
1DACB
100
AcDbEntity
  8
寸法
 62
     7
 48
50.0
100
AcDbMText
 10
5534.760220456817
 20
7140.419036112843
 30
0.0
 40
120.0
 41
0.0
 71
     5
 72
     1
  1
\A1;c
  7
STYLE1
 11
0.0000000000000001
 21
1.0
 31
0.0
 73
     1
 44
1.0
1001
ACAD
1000
MTEXTBEGIN
1070
    73
1070
     1
1070
    44
1040
1.0
1070
    74
1070
     0
1000
MTEXTEND
  0
POINT
  5
2096D
330
1DACB
100
AcDbEntity
  8
DEFPOINTS
 62
     0
 48
50.0
100
AcDbPoint
 10
5880.253022594787
 20
7177.919036112841
 30
0.0
  0
POINT
  5
2096E
330
1DACB
100
AcDbEntity
  8
DEFPOINTS
 62
     0
 48
50.0
100
AcDbPoint
 10
6376.195288608608
 20
7102.919036112841
 30
0.0
  0
POINT
  5
2096F
330
1DACB
100
AcDbEntity
  8
DEFPOINTS
 62
     0
 48
50.0
100
AcDbPoint
 10
5634.760220456819
 20
7102.919036112843
 30
0.0
  0
ENDBLK
  5
1DAD8
330
1DACB
100
AcDbEntity
  8
0
 48
50.0
100
AcDbBlockEnd
  0
BLOCK
  5
1DAE4
330
1DAD9
100
AcDbEntity
  8
0
 48
50.0
100
AcDbBlockBegin
  2
*D13
 70
     1
 10
0.0
 20
0.0
 30
0.0
  3
*D13
  1

  0
LINE
  5
2095B
330
1DAD9
100
AcDbEntity
  8
寸法
 62
     0
 48
50.0
370
    -2
100
AcDbLine
 10
9436.195288608606
 20
7122.919036112842
 30
0.0
 11
9436.195288608606
 21
7916.250847072693
 31
0.0
  0
LINE
  5
2095C
330
1DAD9
100
AcDbEntity
  8
寸法
 62
     0
 48
50.0
370
    -2
100
AcDbLine
 10
9313.195288608607
 20
7049.919036112841
 30
0.0
 11
9313.195288608607
 21
7916.250847072693
 31
0.0
  0
LINE
  5
2095D
330
1DAD9
100
AcDbEntity
  8
寸法
 62
     0
 48
50.0
370
    -2
100
AcDbLine
 10
9313.195288608607
 20
7856.250847072693
 30
0.0
 11
9436.195288608606
 21
7856.250847072693
 31
0.0
  0
LINE
  5
2095E
330
1DAD9
100
AcDbEntity
  8
寸法
 62
     0
 48
50.0
370
    -2
100
AcDbLine
 10
9436.195288608606
 20
7856.250847072693
 30
0.0
 11
9813.165851357084
 21
7856.250847072693
 31
0.0
  0
INSERT
  5
2095F
330
1DAD9
100
AcDbEntity
  8
寸法
 62
     0
 48
50.0
370
    -2
100
AcDbBlockReference
  2
_DOTSMALL
 10
9313.195288608607
 20
7856.250847072693
 30
0.0
 41
100.0
 42
100.0
 43
100.0
 50
180.0
  0
INSERT
  5
20960
330
1DAD9
100
AcDbEntity
  8
寸法
 62
     0
 48
50.0
370
    -2
100
AcDbBlockReference
  2
_DOTSMALL
 10
9436.195288608606
 20
7856.250847072693
 30
0.0
 41
100.0
 42
100.0
 43
100.0
  0
MTEXT
  5
20961
330
1DAD9
100
AcDbEntity
  8
寸法
 62
     7
 48
50.0
100
AcDbMText
 10
9674.680569982847
 20
7956.262658096314
 30
0.0
 40
120.0
 41
0.0
 71
     5
 72
     1
  1
\A1;123
  7
STYLE1
 73
     1
 44
1.0
1001
ACAD
1000
MTEXTBEGIN
1070
    73
1070
     1
1070
    44
1040
1.0
1070
    74
1070
     0
1000
MTEXTEND
  0
POINT
  5
20962
330
1DAD9
100
AcDbEntity
  8
DEFPOINTS
 62
     0
 48
50.0
100
AcDbPoint
 10
9436.195288608606
 20
7102.919036112843
 30
0.0
  0
POINT
  5
20963
330
1DAD9
100
AcDbEntity
  8
DEFPOINTS
 62
     0
 48
50.0
100
AcDbPoint
 10
9313.195288608607
 20
7029.919036112841
 30
0.0
  0
POINT
  5
20964
330
1DAD9
100
AcDbEntity
  8
DEFPOINTS
 62
     0
 48
50.0
100
AcDbPoint
 10
9313.195288608607
 20
7856.250847072693
 30
0.0
  0
ENDBLK
  5
1DAE5
330
1DAD9
100
AcDbEntity
  8
0
 48
50.0
100
AcDbBlockEnd
  0
BLOCK
  5
1DAF1
330
1DAE6
100
AcDbEntity
  8
0
 48
50.0
100
AcDbBlockBegin
  2
*D14
 70
     1
 10
0.0
 20
0.0
 30
0.0
  3
*D14
  1

  0
LINE
  5
20950
330
1DAE6
100
AcDbEntity
  8
寸法
 62
     0
 48
50.0
370
    -2
100
AcDbLine
 10
9436.195288608606
 20
7271.190236682762
 30
0.0
 11
9436.195288608606
 21
8128.711542589529
 31
0.0
  0
LINE
  5
20951
330
1DAE6
100
AcDbEntity
  8
寸法
 62
     0
 48
50.0
370
    -2
100
AcDbLine
 10
9481.195288608608
 20
7876.250847072693
 30
0.0
 11
9481.195288608608
 21
8128.711542589529
 31
0.0
  0
LINE
  5
20952
330
1DAE6
100
AcDbEntity
  8
寸法
 62
     0
 48
50.0
370
    -2
100
AcDbLine
 10
9436.195288608606
 20
8068.711542589529
 30
0.0
 11
9336.195288608607
 21
8068.711542589529
 31
0.0
  0
LINE
  5
20953
330
1DAE6
100
AcDbEntity
  8
寸法
 62
     0
 48
50.0
370
    -2
100
AcDbLine
 10
9481.195288608608
 20
8068.711542589529
 30
0.0
 11
9581.195288608608
 21
8068.711542589529
 31
0.0
  0
LINE
  5
20954
330
1DAE6
100
AcDbEntity
  8
寸法
 62
     0
 48
50.0
370
    -2
100
AcDbLine
 10
9436.195288608606
 20
8068.711542589529
 30
0.0
 11
9481.195288608608
 21
8068.711542589529
 31
0.0
  0
INSERT
  5
20955
330
1DAE6
100
AcDbEntity
  8
寸法
 62
     0
 48
50.0
370
    -2
100
AcDbBlockReference
  2
_DOTSMALL
 10
9436.195288608606
 20
8068.711542589529
 30
0.0
 41
100.0
 42
100.0
 43
100.0
  0
INSERT
  5
20956
330
1DAE6
100
AcDbEntity
  8
寸法
 62
     0
 48
50.0
370
    -2
100
AcDbBlockReference
  2
_DOTSMALL
 10
9481.195288608608
 20
8068.711542589529
 30
0.0
 41
100.0
 42
100.0
 43
100.0
 50
180.0
  0
MTEXT
  5
20957
330
1DAE6
100
AcDbEntity
  8
寸法
 62
     7
 48
50.0
100
AcDbMText
 10
9458.695288608607
 20
8168.711542589528
 30
0.0
 40
120.0
 41
0.0
 71
     5
 72
     1
  1
\A1;a
  7
STYLE1
 73
     1
 44
1.0
1001
ACAD
1000
MTEXTBEGIN
1070
    73
1070
     1
1070
    44
1040
1.0
1070
    74
1070
     0
1000
MTEXTEND
  0
POINT
  5
20958
330
1DAE6
100
AcDbEntity
  8
DEFPOINTS
 62
     0
 48
50.0
100
AcDbPoint
 10
9436.195288608606
 20
7251.190236682763
 30
0.0
  0
POINT
  5
20959
330
1DAE6
100
AcDbEntity
  8
DEFPOINTS
 62
     0
 48
50.0
100
AcDbPoint
 10
9481.195288608608
 20
7856.250847072693
 30
0.0
  0
POINT
  5
2095A
330
1DAE6
100
AcDbEntity
  8
DEFPOINTS
 62
     0
 48
50.0
100
AcDbPoint
 10
9481.195288608608
 20
8068.711542589529
 30
0.0
  0
ENDBLK
  5
1DAF2
330
1DAE6
100
AcDbEntity
  8
0
 48
50.0
100
AcDbBlockEnd
  0
BLOCK
  5
1DAFE
330
1DAF3
100
AcDbEntity
  8
0
 48
50.0
100
AcDbBlockBegin
  2
*D15
 70
     1
 10
0.0
 20
0.0
 30
0.0
  3
*D15
  1

  0
LINE
  5
20A2D
330
1DAF3
100
AcDbEntity
  8
寸法
 62
     0
 48
50.0
370
    -2
100
AcDbLine
 10
9436.195288608606
 20
6837.938442000636
 30
0.0
 11
9436.195288608606
 21
6595.032215098744
 31
0.0
  0
LINE
  5
20A2E
330
1DAF3
100
AcDbEntity
  8
寸法
 62
     0
 48
50.0
370
    -2
100
AcDbLine
 10
9316.195288608607
 20
6852.919036112843
 30
0.0
 11
9316.195288608607
 21
6595.032215098744
 31
0.0
  0
LINE
  5
20A2F
330
1DAF3
100
AcDbEntity
  8
寸法
 62
     0
 48
50.0
370
    -2
100
AcDbLine
 10
9316.195288608607
 20
6655.032215098746
 30
0.0
 11
9436.195288608606
 21
6655.032215098746
 31
0.0
  0
LINE
  5
20A30
330
1DAF3
100
AcDbEntity
  8
寸法
 62
     0
 48
50.0
370
    -2
100
AcDbLine
 10
9436.195288608606
 20
6655.032215098746
 30
0.0
 11
9808.289776797586
 21
6655.032215098746
 31
0.0
  0
INSERT
  5
20A31
330
1DAF3
100
AcDbEntity
  8
寸法
 62
     0
 48
50.0
370
    -2
100
AcDbBlockReference
  2
_DOTSMALL
 10
9316.195288608607
 20
6655.032215098746
 30
0.0
 41
100.0
 42
100.0
 43
100.0
 50
180.0
  0
INSERT
  5
20A32
330
1DAF3
100
AcDbEntity
  8
寸法
 62
     0
 48
50.0
370
    -2
100
AcDbBlockReference
  2
_DOTSMALL
 10
9436.195288608606
 20
6655.032215098746
 30
0.0
 41
100.0
 42
100.0
 43
100.0
  0
MTEXT
  5
20A33
330
1DAF3
100
AcDbEntity
  8
寸法
 62
     7
 48
50.0
100
AcDbMText
 10
9672.242532703096
 20
6755.044026122367
 30
0.0
 40
120.0
 41
0.0
 71
     5
 72
     1
  1
\A1;120
  7
STYLE1
 73
     1
 44
1.0
1001
ACAD
1000
MTEXTBEGIN
1070
    73
1070
     1
1070
    44
1040
1.0
1070
    74
1070
     0
1000
MTEXTEND
  0
POINT
  5
20A34
330
1DAF3
100
AcDbEntity
  8
DEFPOINTS
 62
     0
 48
50.0
100
AcDbPoint
 10
9436.195288608606
 20
6857.938442000636
 30
0.0
  0
POINT
  5
20A35
330
1DAF3
100
AcDbEntity
  8
DEFPOINTS
 62
     0
 48
50.0
100
AcDbPoint
 10
9316.195288608607
 20
6872.919036112843
 30
0.0
  0
POINT
  5
20A36
330
1DAF3
100
AcDbEntity
  8
DEFPOINTS
 62
     0
 48
50.0
100
AcDbPoint
 10
9316.195288608607
 20
6655.032215098746
 30
0.0
  0
ENDBLK
  5
1DAFF
330
1DAF3
100
AcDbEntity
  8
0
 48
50.0
100
AcDbBlockEnd
  0
BLOCK
  5
1DB0B
330
1DB00
100
AcDbEntity
  8
0
 48
50.0
100
AcDbBlockBegin
  2
*D16
 70
     1
 10
0.0
 20
0.0
 30
0.0
  3
*D16
  1

  0
LINE
  5
2093C
330
1DB00
100
AcDbEntity
  8
寸法
 62
     0
 48
50.0
370
    -2
100
AcDbLine
 10
6626.195288608608
 20
6982.919036112843
 30
0.0
 11
6896.705472521631
 21
6982.919036112843
 31
0.0
  0
LINE
  5
2093D
330
1DB00
100
AcDbEntity
  8
寸法
 62
     0
 48
50.0
370
    -2
100
AcDbLine
 10
6626.195288608608
 20
6872.919036112837
 30
0.0
 11
6896.705472521631
 21
6872.919036112837
 31
0.0
  0
LINE
  5
2093E
330
1DB00
100
AcDbEntity
  8
寸法
 62
     0
 48
50.0
370
    -2
100
AcDbLine
 10
6836.705472521632
 20
6982.919036112843
 30
0.0
 11
6836.705472521632
 21
6872.919036112837
 31
0.0
  0
LINE
  5
2093F
330
1DB00
100
AcDbEntity
  8
寸法
 62
     0
 48
50.0
370
    -2
100
AcDbLine
 10
6836.705472521632
 20
6872.919036112837
 30
0.0
 11
6836.705472521632
 21
6510.551083440424
 31
0.0
  0
INSERT
  5
20940
330
1DB00
100
AcDbEntity
  8
寸法
 62
     0
 48
50.0
370
    -2
100
AcDbBlockReference
  2
_DOTSMALL
 10
6836.705472521632
 20
6982.919036112843
 30
0.0
 41
100.0
 42
100.0
 43
100.0
 50
90.0
  0
INSERT
  5
20941
330
1DB00
100
AcDbEntity
  8
寸法
 62
     0
 48
50.0
370
    -2
100
AcDbBlockReference
  2
_DOTSMALL
 10
6836.705472521632
 20
6872.919036112837
 30
0.0
 41
100.0
 42
100.0
 43
100.0
 50
270.0
  0
MTEXT
  5
20942
330
1DB00
100
AcDbEntity
  8
寸法
 62
     7
 48
50.0
100
AcDbMText
 10
6736.705472521629
 20
6634.598327534914
 30
0.0
 40
120.0
 41
0.0
 71
     5
 72
     1
  1
\A1;110
  7
STYLE1
 11
0.0000000000000001
 21
1.0
 31
0.0
 73
     1
 44
1.0
1001
ACAD
1000
MTEXTBEGIN
1070
    73
1070
     1
1070
    44
1040
1.0
1070
    74
1070
     0
1000
MTEXTEND
  0
POINT
  5
20943
330
1DB00
100
AcDbEntity
  8
DEFPOINTS
 62
     0
 48
50.0
100
AcDbPoint
 10
6606.195288608609
 20
6982.919036112843
 30
0.0
  0
POINT
  5
20944
330
1DB00
100
AcDbEntity
  8
DEFPOINTS
 62
     0
 48
50.0
100
AcDbPoint
 10
6606.195288608607
 20
6872.919036112837
 30
0.0
  0
POINT
  5
20945
330
1DB00
100
AcDbEntity
  8
DEFPOINTS
 62
     0
 48
50.0
100
AcDbPoint
 10
6836.705472521632
 20
6872.919036112837
 30
0.0
  0
ENDBLK
  5
1DB0C
330
1DB00
100
AcDbEntity
  8
0
 48
50.0
100
AcDbBlockEnd
  0
BLOCK
  5
1DB25
330
1DB1A
100
AcDbEntity
  8
0
 48
50.0
100
AcDbBlockBegin
  2
*D17
 70
     1
 10
0.0
 20
0.0
 30
0.0
  3
*D17
  1

  0
LINE
  5
20932
330
1DB1A
100
AcDbEntity
  8
寸法
 62
     0
 48
50.0
370
    -2
100
AcDbLine
 10
6598.195288608607
 20
7102.91903611284
 30
0.0
 11
6896.705472521631
 21
7102.91903611284
 31
0.0
  0
LINE
  5
20933
330
1DB1A
100
AcDbEntity
  8
寸法
 62
     0
 48
50.0
370
    -2
100
AcDbLine
 10
6626.195288608608
 20
6982.919036112843
 30
0.0
 11
6896.705472521631
 21
6982.919036112843
 31
0.0
  0
LINE
  5
20934
330
1DB1A
100
AcDbEntity
  8
寸法
 62
     0
 48
50.0
370
    -2
100
AcDbLine
 10
6836.705472521632
 20
6982.919036112843
 30
0.0
 11
6836.705472521632
 21
7102.91903611284
 31
0.0
  0
LINE
  5
20935
330
1DB1A
100
AcDbEntity
  8
寸法
 62
     0
 48
50.0
370
    -2
100
AcDbLine
 10
6836.705472521632
 20
7102.91903611284
 30
0.0
 11
6836.705472521632
 21
7475.013524301816
 31
0.0
  0
INSERT
  5
20936
330
1DB1A
100
AcDbEntity
  8
寸法
 62
     0
 48
50.0
370
    -2
100
AcDbBlockReference
  2
_DOTSMALL
 10
6836.705472521632
 20
6982.919036112843
 30
0.0
 41
100.0
 42
100.0
 43
100.0
 50
270.0
  0
INSERT
  5
20937
330
1DB1A
100
AcDbEntity
  8
寸法
 62
     0
 48
50.0
370
    -2
100
AcDbBlockReference
  2
_DOTSMALL
 10
6836.705472521632
 20
7102.91903611284
 30
0.0
 41
100.0
 42
100.0
 43
100.0
 50
90.0
  0
MTEXT
  5
20938
330
1DB1A
100
AcDbEntity
  8
寸法
 62
     7
 48
50.0
100
AcDbMText
 10
6736.693661498008
 20
7338.96628020733
 30
0.0
 40
120.0
 41
0.0
 71
     5
 72
     1
  1
\A1;120
  7
STYLE1
 11
0.0000000000000001
 21
1.0
 31
0.0
 73
     1
 44
1.0
1001
ACAD
1000
MTEXTBEGIN
1070
    73
1070
     1
1070
    44
1040
1.0
1070
    74
1070
     0
1000
MTEXTEND
  0
POINT
  5
20939
330
1DB1A
100
AcDbEntity
  8
DEFPOINTS
 62
     0
 48
50.0
100
AcDbPoint
 10
6578.195288608608
 20
7102.91903611284
 30
0.0
  0
POINT
  5
2093A
330
1DB1A
100
AcDbEntity
  8
DEFPOINTS
 62
     0
 48
50.0
100
AcDbPoint
 10
6606.195288608609
 20
6982.919036112843
 30
0.0
  0
POINT
  5
2093B
330
1DB1A
100
AcDbEntity
  8
DEFPOINTS
 62
     0
 48
50.0
100
AcDbPoint
 10
6836.705472521632
 20
6982.919036112843
 30
0.0
  0
ENDBLK
  5
1DB26
330
1DB1A
100
AcDbEntity
  8
0
 48
50.0
100
AcDbBlockEnd
  0
BLOCK
  5
1DFBC
330
1DFB0
100
AcDbEntity
  8
0
 48
50.0
100
AcDbBlockBegin
  2
*D18
 70
     1
 10
0.0
 20
0.0
 30
0.0
  3
*D18
  1

  0
LINE
  5
208E8
330
1DFB0
100
AcDbEntity
  8
寸法
 62
     0
 48
50.0
370
    -2
100
AcDbLine
 10
6476.134523708509
 20
1691.772000468072
 30
0.0
 11
7651.616133368007
 21
1691.772000468072
 31
0.0
  0
LINE
  5
208E9
330
1DFB0
100
AcDbEntity
  8
寸法
 62
     0
 48
50.0
370
    -2
100
AcDbLine
 10
6727.884523708509
 20
1625.822000468073
 30
0.0
 11
7651.616133368007
 21
1625.822000468073
 31
0.0
  0
LINE
  5
208EA
330
1DFB0
100
AcDbEntity
  8
寸法
 62
     0
 48
50.0
370
    -2
100
AcDbLine
 10
7591.616133368006
 20
1691.772000468072
 30
0.0
 11
7591.616133368006
 21
1791.772000468072
 31
0.0
  0
LINE
  5
208EB
330
1DFB0
100
AcDbEntity
  8
寸法
 62
     0
 48
50.0
370
    -2
100
AcDbLine
 10
7591.616133368006
 20
1625.822000468073
 30
0.0
 11
7591.616133368006
 21
893.8041936251069
 31
0.0
  0
LINE
  5
208EC
330
1DFB0
100
AcDbEntity
  8
寸法
 62
     0
 48
50.0
370
    -2
100
AcDbLine
 10
7591.616133368006
 20
1691.772000468072
 30
0.0
 11
7591.616133368006
 21
1625.822000468073
 31
0.0
  0
INSERT
  5
208ED
330
1DFB0
100
AcDbEntity
  8
寸法
 62
     0
 48
50.0
370
    -2
100
AcDbBlockReference
  2
_DOTSMALL
 10
7591.616133368006
 20
1691.772000468072
 30
0.0
 41
100.0
 42
100.0
 43
100.0
 50
270.0
  0
INSERT
  5
208EE
330
1DFB0
100
AcDbEntity
  8
寸法
 62
     0
 48
50.0
370
    -2
100
AcDbBlockReference
  2
_DOTSMALL
 10
7591.616133368006
 20
1625.822000468073
 30
0.0
 41
100.0
 42
100.0
 43
100.0
 50
90.0
  0
MTEXT
  5
208EF
330
1DFB0
100
AcDbEntity
  8
寸法
 62
     7
 48
50.0
100
AcDbMText
 10
7491.604322344385
 20
1159.813097046591
 30
0.0
 40
120.0
 41
0.0
 71
     5
 72
     1
  1
\A1;20～25
  7
STYLE1
 11
0.0000000000000001
 21
1.0
 31
0.0
 73
     1
 44
1.0
1001
ACAD
1000
MTEXTBEGIN
1070
    73
1070
     1
1070
    44
1040
1.0
1070
    74
1070
     0
1000
MTEXTEND
  0
POINT
  5
208F0
330
1DFB0
100
AcDbEntity
  8
DEFPOINTS
 62
     0
 48
50.0
100
AcDbPoint
 10
6456.134523708509
 20
1691.772000468072
 30
0.0
  0
POINT
  5
208F1
330
1DFB0
100
AcDbEntity
  8
DEFPOINTS
 62
     0
 48
50.0
100
AcDbPoint
 10
6707.884523708511
 20
1625.822000468073
 30
0.0
  0
POINT
  5
208F2
330
1DFB0
100
AcDbEntity
  8
DEFPOINTS
 62
     0
 48
50.0
100
AcDbPoint
 10
7591.616133368006
 20
1625.822000468073
 30
0.0
  0
ENDBLK
  5
1DFBD
330
1DFB0
100
AcDbEntity
  8
0
 48
50.0
100
AcDbBlockEnd
  0
BLOCK
  5
1DFC7
330
1DFBE
100
AcDbEntity
  8
0
 48
50.0
100
AcDbBlockBegin
  2
*D19
 70
     1
 10
0.0
 20
0.0
 30
0.0
  3
*D19
  1

  0
LINE
  5
208F3
330
1DFBE
100
AcDbEntity
  8
寸法
 62
     0
 48
50.0
370
    -2
100
AcDbLine
 10
6727.884523708509
 20
1625.822000468073
 30
0.0
 11
7395.220273419565
 21
1625.822000468073
 31
0.0
  0
LINE
  5
208F4
330
1DFBE
100
AcDbEntity
  8
寸法
 62
     0
 48
50.0
370
    -2
100
AcDbLine
 10
6727.884523708509
 20
1265.822000468072
 30
0.0
 11
7395.220273419565
 21
1265.822000468072
 31
0.0
  0
LINE
  5
208F5
330
1DFBE
100
AcDbEntity
  8
寸法
 62
     0
 48
50.0
370
    -2
100
AcDbLine
 10
7335.220273419565
 20
1625.822000468073
 30
0.0
 11
7335.220273419565
 21
1265.822000468072
 31
0.0
  0
INSERT
  5
208F6
330
1DFBE
100
AcDbEntity
  8
寸法
 62
     0
 48
50.0
370
    -2
100
AcDbBlockReference
  2
_DOTSMALL
 10
7335.220273419565
 20
1625.822000468073
 30
0.0
 41
100.0
 42
100.0
 43
100.0
 50
90.0
  0
INSERT
  5
208F7
330
1DFBE
100
AcDbEntity
  8
寸法
 62
     0
 48
50.0
370
    -2
100
AcDbBlockReference
  2
_DOTSMALL
 10
7335.220273419565
 20
1265.822000468072
 30
0.0
 41
100.0
 42
100.0
 43
100.0
 50
270.0
  0
MTEXT
  5
208F8
330
1DFBE
100
AcDbEntity
  8
寸法
 62
     7
 48
50.0
100
AcDbMText
 10
7235.220273419566
 20
1445.822000468074
 30
0.0
 40
120.0
 41
0.0
 71
     5
 72
     1
  1
\A1;180
  7
STYLE1
 11
0.0000000000000001
 21
1.0
 31
0.0
 73
     1
 44
1.0
1001
ACAD
1000
MTEXTBEGIN
1070
    73
1070
     1
1070
    44
1040
1.0
1070
    74
1070
     0
1000
MTEXTEND
  0
POINT
  5
208F9
330
1DFBE
100
AcDbEntity
  8
DEFPOINTS
 62
     0
 48
50.0
100
AcDbPoint
 10
6707.884523708511
 20
1625.822000468073
 30
0.0
  0
POINT
  5
208FA
330
1DFBE
100
AcDbEntity
  8
DEFPOINTS
 62
     0
 48
50.0
100
AcDbPoint
 10
6707.884523708511
 20
1265.822000468072
 30
0.0
  0
POINT
  5
208FB
330
1DFBE
100
AcDbEntity
  8
DEFPOINTS
 62
     0
 48
50.0
100
AcDbPoint
 10
7335.220273419565
 20
1265.822000468072
 30
0.0
  0
ENDBLK
  5
1DFC8
330
1DFBE
100
AcDbEntity
  8
0
 48
50.0
100
AcDbBlockEnd
  0
BLOCK
  5
1E9D9
330
1E9D0
100
AcDbEntity
  8
0
 48
50.0
100
AcDbBlockBegin
  2
*D20
 70
     1
 10
0.0
 20
0.0
 30
0.0
  3
*D20
  1

  0
LINE
  5
20929
330
1E9D0
100
AcDbEntity
  8
寸法
 62
     0
 48
50.0
370
    -2
100
AcDbLine
 10
8702.695288608607
 20
6412.919036112859
 30
0.0
 11
9015.627592017743
 21
6412.919036112859
 31
0.0
  0
LINE
  5
2092A
330
1E9D0
100
AcDbEntity
  8
寸法
 62
     0
 48
50.0
370
    -2
100
AcDbLine
 10
8793.695288608608
 20
7102.91903611286
 30
0.0
 11
9015.627592017743
 21
7102.91903611286
 31
0.0
  0
LINE
  5
2092B
330
1E9D0
100
AcDbEntity
  8
寸法
 62
     0
 48
50.0
370
    -2
100
AcDbLine
 10
8955.627592017743
 20
6412.919036112859
 30
0.0
 11
8955.627592017743
 21
7102.91903611286
 31
0.0
  0
INSERT
  5
2092C
330
1E9D0
100
AcDbEntity
  8
寸法
 62
     0
 48
50.0
370
    -2
100
AcDbBlockReference
  2
_DOTSMALL
 10
8955.627592017743
 20
6412.919036112859
 30
0.0
 41
100.0
 42
100.0
 43
100.0
 50
270.0
  0
INSERT
  5
2092D
330
1E9D0
100
AcDbEntity
  8
寸法
 62
     0
 48
50.0
370
    -2
100
AcDbBlockReference
  2
_DOTSMALL
 10
8955.627592017743
 20
7102.91903611286
 30
0.0
 41
100.0
 42
100.0
 43
100.0
 50
90.0
  0
MTEXT
  5
2092E
330
1E9D0
100
AcDbEntity
  8
寸法
 62
     7
 48
50.0
100
AcDbMText
 10
8855.627592017741
 20
6757.919036112861
 30
0.0
 40
120.0
 41
0.0
 71
     5
 72
     1
  1
\A1;690
  7
STYLE1
 11
0.0000000000000001
 21
1.0
 31
0.0
 73
     1
 44
1.0
1001
ACAD
1000
MTEXTBEGIN
1070
    73
1070
     1
1070
    44
1040
1.0
1070
    74
1070
     0
1000
MTEXTEND
  0
POINT
  5
2092F
330
1E9D0
100
AcDbEntity
  8
DEFPOINTS
 62
     0
 48
50.0
100
AcDbPoint
 10
8682.695288608607
 20
6412.919036112859
 30
0.0
  0
POINT
  5
20930
330
1E9D0
100
AcDbEntity
  8
DEFPOINTS
 62
     0
 48
50.0
100
AcDbPoint
 10
8773.695288608607
 20
7102.91903611286
 30
0.0
  0
POINT
  5
20931
330
1E9D0
100
AcDbEntity
  8
DEFPOINTS
 62
     0
 48
50.0
100
AcDbPoint
 10
8955.627592017743
 20
7102.91903611286
 30
0.0
  0
ENDBLK
  5
1E9DA
330
1E9D0
100
AcDbEntity
  8
0
 48
50.0
100
AcDbBlockEnd
  0
BLOCK
  5
1EA3C
330
1EA32
100
AcDbEntity
  8
0
 48
50.0
100
AcDbBlockBegin
  2
*D21
 70
     1
 10
0.0
 20
0.0
 30
0.0
  3
*D21
  1

  0
LINE
  5
20920
330
1EA32
100
AcDbEntity
  8
寸法
 62
     0
 48
50.0
370
    -2
100
AcDbLine
 10
8793.695288608608
 20
5722.919036112869
 30
0.0
 11
9037.667280741926
 21
5722.919036112869
 31
0.0
  0
LINE
  5
20921
330
1EA32
100
AcDbEntity
  8
寸法
 62
     0
 48
50.0
370
    -2
100
AcDbLine
 10
8702.695288608607
 20
6412.919036112859
 30
0.0
 11
9037.667280741926
 21
6412.919036112859
 31
0.0
  0
LINE
  5
20922
330
1EA32
100
AcDbEntity
  8
寸法
 62
     0
 48
50.0
370
    -2
100
AcDbLine
 10
8977.667280741925
 20
5722.919036112869
 30
0.0
 11
8977.667280741925
 21
6412.919036112859
 31
0.0
  0
INSERT
  5
20923
330
1EA32
100
AcDbEntity
  8
寸法
 62
     0
 48
50.0
370
    -2
100
AcDbBlockReference
  2
_DOTSMALL
 10
8977.667280741925
 20
5722.919036112869
 30
0.0
 41
100.0
 42
100.0
 43
100.0
 50
270.0
  0
INSERT
  5
20924
330
1EA32
100
AcDbEntity
  8
寸法
 62
     0
 48
50.0
370
    -2
100
AcDbBlockReference
  2
_DOTSMALL
 10
8977.667280741925
 20
6412.919036112859
 30
0.0
 41
100.0
 42
100.0
 43
100.0
 50
90.0
  0
MTEXT
  5
20925
330
1EA32
100
AcDbEntity
  8
寸法
 62
     7
 48
50.0
100
AcDbMText
 10
8877.667280741922
 20
6072.046770327164
 30
0.0
 40
120.0
 41
0.0
 71
     5
 72
     1
  1
\A1;690
  7
STYLE1
 11
0.0000000000000001
 21
1.0
 31
0.0
 73
     1
 44
1.0
1001
ACAD
1000
MTEXTBEGIN
1070
    73
1070
     1
1070
    44
1040
1.0
1070
    74
1070
     0
1000
MTEXTEND
  0
POINT
  5
20926
330
1EA32
100
AcDbEntity
  8
DEFPOINTS
 62
     0
 48
50.0
100
AcDbPoint
 10
8773.695288608607
 20
5722.919036112869
 30
0.0
  0
POINT
  5
20927
330
1EA32
100
AcDbEntity
  8
DEFPOINTS
 62
     0
 48
50.0
100
AcDbPoint
 10
8682.695288608607
 20
6412.919036112859
 30
0.0
  0
POINT
  5
20928
330
1EA32
100
AcDbEntity
  8
DEFPOINTS
 62
     0
 48
50.0
100
AcDbPoint
 10
8977.667280741925
 20
6412.919036112859
 30
0.0
  0
ENDBLK
  5
1EA3D
330
1EA32
100
AcDbEntity
  8
0
 48
50.0
100
AcDbBlockEnd
  0
BLOCK
  5
1F253
330
1F24A
100
AcDbEntity
  8
0
 48
50.0
100
AcDbBlockBegin
  2
*D22
 70
     1
 10
0.0
 20
0.0
 30
0.0
  3
*D22
  1

  0
LINE
  5
2090E
330
1F24A
100
AcDbEntity
  8
寸法
 62
     0
 48
50.0
370
    -2
100
AcDbLine
 10
7179.195288608607
 20
6532.919036112859
 30
0.0
 11
7179.195288608607
 21
7689.82880176117
 31
0.0
  0
LINE
  5
2090F
330
1F24A
100
AcDbEntity
  8
寸法
 62
     0
 48
50.0
370
    -2
100
AcDbLine
 10
6376.195288608608
 20
7122.919036112842
 30
0.0
 11
6376.195288608608
 21
7689.82880176117
 31
0.0
  0
LINE
  5
20910
330
1F24A
100
AcDbEntity
  8
寸法
 62
     0
 48
50.0
370
    -2
100
AcDbLine
 10
7179.195288608607
 20
7629.828801761171
 30
0.0
 11
6376.195288608608
 21
7629.828801761171
 31
0.0
  0
INSERT
  5
20911
330
1F24A
100
AcDbEntity
  8
寸法
 62
     0
 48
50.0
370
    -2
100
AcDbBlockReference
  2
_DOTSMALL
 10
7179.195288608607
 20
7629.828801761171
 30
0.0
 41
100.0
 42
100.0
 43
100.0
  0
INSERT
  5
20912
330
1F24A
100
AcDbEntity
  8
寸法
 62
     0
 48
50.0
370
    -2
100
AcDbBlockReference
  2
_DOTSMALL
 10
6376.195288608608
 20
7629.828801761171
 30
0.0
 41
100.0
 42
100.0
 43
100.0
 50
180.0
  0
MTEXT
  5
20913
330
1F24A
100
AcDbEntity
  8
寸法
 62
     7
 48
50.0
100
AcDbMText
 10
6777.695288608608
 20
7729.828801761171
 30
0.0
 40
120.0
 41
0.0
 71
     5
 72
     1
  1
\A1;803
  7
STYLE1
 73
     1
 44
1.0
1001
ACAD
1000
MTEXTBEGIN
1070
    73
1070
     1
1070
    44
1040
1.0
1070
    74
1070
     0
1000
MTEXTEND
  0
POINT
  5
20914
330
1F24A
100
AcDbEntity
  8
DEFPOINTS
 62
     0
 48
50.0
100
AcDbPoint
 10
7179.195288608607
 20
6512.919036112859
 30
0.0
  0
POINT
  5
20915
330
1F24A
100
AcDbEntity
  8
DEFPOINTS
 62
     0
 48
50.0
100
AcDbPoint
 10
6376.195288608608
 20
7102.919036112843
 30
0.0
  0
POINT
  5
20916
330
1F24A
100
AcDbEntity
  8
DEFPOINTS
 62
     0
 48
50.0
100
AcDbPoint
 10
6376.195288608608
 20
7629.828801761171
 30
0.0
  0
ENDBLK
  5
1F254
330
1F24A
100
AcDbEntity
  8
0
 48
50.0
100
AcDbBlockEnd
  0
BLOCK
  5
1F25F
330
1F255
100
AcDbEntity
  8
0
 48
50.0
100
AcDbBlockBegin
  2
*D23
 70
     1
 10
0.0
 20
0.0
 30
0.0
  3
*D23
  1

  0
LINE
  5
20917
330
1F255
100
AcDbEntity
  8
寸法
 62
     0
 48
50.0
370
    -2
100
AcDbLine
 10
9436.195288608606
 20
7122.919036112842
 30
0.0
 11
9436.195288608606
 21
7688.724748491956
 31
0.0
  0
LINE
  5
20918
330
1F255
100
AcDbEntity
  8
寸法
 62
     0
 48
50.0
370
    -2
100
AcDbLine
 10
8633.195288608607
 20
6532.919036112859
 30
0.0
 11
8633.195288608607
 21
7688.724748491956
 31
0.0
  0
LINE
  5
20919
330
1F255
100
AcDbEntity
  8
寸法
 62
     0
 48
50.0
370
    -2
100
AcDbLine
 10
9436.195288608606
 20
7628.724748491958
 30
0.0
 11
8633.195288608607
 21
7628.724748491958
 31
0.0
  0
INSERT
  5
2091A
330
1F255
100
AcDbEntity
  8
寸法
 62
     0
 48
50.0
370
    -2
100
AcDbBlockReference
  2
_DOTSMALL
 10
9436.195288608606
 20
7628.724748491958
 30
0.0
 41
100.0
 42
100.0
 43
100.0
  0
INSERT
  5
2091B
330
1F255
100
AcDbEntity
  8
寸法
 62
     0
 48
50.0
370
    -2
100
AcDbBlockReference
  2
_DOTSMALL
 10
8633.195288608607
 20
7628.724748491958
 30
0.0
 41
100.0
 42
100.0
 43
100.0
 50
180.0
  0
MTEXT
  5
2091C
330
1F255
100
AcDbEntity
  8
寸法
 62
     7
 48
50.0
100
AcDbMText
 10
9022.522320073607
 20
7728.724748491957
 30
0.0
 40
120.0
 41
0.0
 71
     5
 72
     1
  1
\A1;803
  7
STYLE1
 73
     1
 44
1.0
1001
ACAD
1000
MTEXTBEGIN
1070
    73
1070
     1
1070
    44
1040
1.0
1070
    74
1070
     0
1000
MTEXTEND
  0
POINT
  5
2091D
330
1F255
100
AcDbEntity
  8
DEFPOINTS
 62
     0
 48
50.0
100
AcDbPoint
 10
9436.195288608606
 20
7102.919036112843
 30
0.0
  0
POINT
  5
2091E
330
1F255
100
AcDbEntity
  8
DEFPOINTS
 62
     0
 48
50.0
100
AcDbPoint
 10
8633.195288608607
 20
6512.919036112859
 30
0.0
  0
POINT
  5
2091F
330
1F255
100
AcDbEntity
  8
DEFPOINTS
 62
     0
 48
50.0
100
AcDbPoint
 10
8633.195288608607
 20
7628.724748491958
 30
0.0
  0
ENDBLK
  5
1F260
330
1F255
100
AcDbEntity
  8
0
 48
50.0
100
AcDbBlockEnd
  0
BLOCK
  5
1F9B2
330
1F9A8
100
AcDbEntity
  8
0
 48
50.0
100
AcDbBlockBegin
  2
*D24
 70
     1
 10
0.0
 20
0.0
 30
0.0
  3
*D24
  1

  0
LINE
  5
20905
330
1F9A8
100
AcDbEntity
  8
寸法
 62
     0
 48
50.0
370
    -2
100
AcDbLine
 10
7906.195288608606
 20
6532.919036112859
 30
0.0
 11
7906.195288608606
 21
7689.82880176117
 31
0.0
  0
LINE
  5
20906
330
1F9A8
100
AcDbEntity
  8
寸法
 62
     0
 48
50.0
370
    -2
100
AcDbLine
 10
8633.195288608607
 20
6532.919036112859
 30
0.0
 11
8633.195288608607
 21
7689.82880176117
 31
0.0
  0
LINE
  5
20907
330
1F9A8
100
AcDbEntity
  8
寸法
 62
     0
 48
50.0
370
    -2
100
AcDbLine
 10
7906.195288608606
 20
7629.828801761171
 30
0.0
 11
8633.195288608607
 21
7629.828801761171
 31
0.0
  0
INSERT
  5
20908
330
1F9A8
100
AcDbEntity
  8
寸法
 62
     0
 48
50.0
370
    -2
100
AcDbBlockReference
  2
_DOTSMALL
 10
7906.195288608606
 20
7629.828801761171
 30
0.0
 41
100.0
 42
100.0
 43
100.0
 50
180.0
  0
INSERT
  5
20909
330
1F9A8
100
AcDbEntity
  8
寸法
 62
     0
 48
50.0
370
    -2
100
AcDbBlockReference
  2
_DOTSMALL
 10
8633.195288608607
 20
7629.828801761171
 30
0.0
 41
100.0
 42
100.0
 43
100.0
  0
MTEXT
  5
2090A
330
1F9A8
100
AcDbEntity
  8
寸法
 62
     7
 48
50.0
100
AcDbMText
 10
8269.695288608607
 20
7729.840612784792
 30
0.0
 40
120.0
 41
0.0
 71
     5
 72
     1
  1
\A1;727
  7
STYLE1
 73
     1
 44
1.0
1001
ACAD
1000
MTEXTBEGIN
1070
    73
1070
     1
1070
    44
1040
1.0
1070
    74
1070
     0
1000
MTEXTEND
  0
POINT
  5
2090B
330
1F9A8
100
AcDbEntity
  8
DEFPOINTS
 62
     0
 48
50.0
100
AcDbPoint
 10
7906.195288608606
 20
6512.919036112859
 30
0.0
  0
POINT
  5
2090C
330
1F9A8
100
AcDbEntity
  8
DEFPOINTS
 62
     0
 48
50.0
100
AcDbPoint
 10
8633.195288608607
 20
6512.919036112859
 30
0.0
  0
POINT
  5
2090D
330
1F9A8
100
AcDbEntity
  8
DEFPOINTS
 62
     0
 48
50.0
100
AcDbPoint
 10
8633.195288608607
 20
7629.828801761171
 30
0.0
  0
ENDBLK
  5
1F9B3
330
1F9A8
100
AcDbEntity
  8
0
 48
50.0
100
AcDbBlockEnd
  0
BLOCK
  5
2054D
330
20543
100
AcDbEntity
  8
0
 48
50.0
100
AcDbBlockBegin
  2
*D25
 70
     1
 10
0.0
 20
0.0
 30
0.0
  3
*D25
  1

  0
LINE
  5
208FC
330
20543
100
AcDbEntity
  8
寸法
 62
     0
 48
50.0
370
    -2
100
AcDbLine
 10
7179.195288608607
 20
6532.919036112859
 30
0.0
 11
7179.195288608607
 21
7689.82880176117
 31
0.0
  0
LINE
  5
208FD
330
20543
100
AcDbEntity
  8
寸法
 62
     0
 48
50.0
370
    -2
100
AcDbLine
 10
7906.195288608607
 20
6532.919036112859
 30
0.0
 11
7906.195288608607
 21
7689.82880176117
 31
0.0
  0
LINE
  5
208FE
330
20543
100
AcDbEntity
  8
寸法
 62
     0
 48
50.0
370
    -2
100
AcDbLine
 10
7179.195288608607
 20
7629.828801761171
 30
0.0
 11
7906.195288608607
 21
7629.828801761171
 31
0.0
  0
INSERT
  5
208FF
330
20543
100
AcDbEntity
  8
寸法
 62
     0
 48
50.0
370
    -2
100
AcDbBlockReference
  2
_DOTSMALL
 10
7179.195288608607
 20
7629.828801761171
 30
0.0
 41
100.0
 42
100.0
 43
100.0
 50
180.0
  0
INSERT
  5
20900
330
20543
100
AcDbEntity
  8
寸法
 62
     0
 48
50.0
370
    -2
100
AcDbBlockReference
  2
_DOTSMALL
 10
7906.195288608607
 20
7629.828801761171
 30
0.0
 41
100.0
 42
100.0
 43
100.0
  0
MTEXT
  5
20901
330
20543
100
AcDbEntity
  8
寸法
 62
     7
 48
50.0
100
AcDbMText
 10
7542.695288608607
 20
7729.840612784792
 30
0.0
 40
120.0
 41
0.0
 71
     5
 72
     1
  1
\A1;727
  7
STYLE1
 73
     1
 44
1.0
1001
ACAD
1000
MTEXTBEGIN
1070
    73
1070
     1
1070
    44
1040
1.0
1070
    74
1070
     0
1000
MTEXTEND
  0
POINT
  5
20902
330
20543
100
AcDbEntity
  8
DEFPOINTS
 62
     0
 48
50.0
100
AcDbPoint
 10
7179.195288608607
 20
6512.919036112859
 30
0.0
  0
POINT
  5
20903
330
20543
100
AcDbEntity
  8
DEFPOINTS
 62
     0
 48
50.0
100
AcDbPoint
 10
7906.195288608607
 20
6512.919036112859
 30
0.0
  0
POINT
  5
20904
330
20543
100
AcDbEntity
  8
DEFPOINTS
 62
     0
 48
50.0
100
AcDbPoint
 10
7906.195288608607
 20
7629.828801761171
 30
0.0
  0
ENDBLK
  5
2054E
330
20543
100
AcDbEntity
  8
0
 48
50.0
100
AcDbBlockEnd
  0
BLOCK
  5
20739
330
2072F
100
AcDbEntity
  8
0
 48
50.0
100
AcDbBlockBegin
  2
*D26
 70
     1
 10
0.0
 20
0.0
 30
0.0
  3
*D26
  1

  0
LINE
  5
208DF
330
2072F
100
AcDbEntity
  8
寸法
 62
     0
 48
50.0
370
    -2
100
AcDbLine
 10
10012.23306906233
 20
1121.821998130962
 30
0.0
 11
9829.812755329868
 21
1121.821998130962
 31
0.0
  0
LINE
  5
208E0
330
2072F
100
AcDbEntity
  8
寸法
 62
     0
 48
50.0
370
    -2
100
AcDbLine
 10
9932.233069062332
 20
881.8219981309621
 30
0.0
 11
9829.812755329868
 21
881.8219981309621
 31
0.0
  0
LINE
  5
208E1
330
2072F
100
AcDbEntity
  8
寸法
 62
     0
 48
50.0
370
    -2
100
AcDbLine
 10
9889.812755329868
 20
1121.821998130962
 30
0.0
 11
9889.812755329868
 21
881.8219981309621
 31
0.0
  0
INSERT
  5
208E2
330
2072F
100
AcDbEntity
  8
寸法
 62
     0
 48
50.0
370
    -2
100
AcDbBlockReference
  2
_DOTSMALL
 10
9889.812755329868
 20
1121.821998130962
 30
0.0
 41
100.0
 42
100.0
 43
100.0
 50
90.0
  0
INSERT
  5
208E3
330
2072F
100
AcDbEntity
  8
寸法
 62
     0
 48
50.0
370
    -2
100
AcDbBlockReference
  2
_DOTSMALL
 10
9889.812755329868
 20
881.8219981309621
 30
0.0
 41
100.0
 42
100.0
 43
100.0
 50
270.0
  0
MTEXT
  5
208E4
330
2072F
100
AcDbEntity
  8
寸法
 62
     7
 48
50.0
100
AcDbMText
 10
9789.812755329869
 20
1001.821998130964
 30
0.0
 40
120.0
 41
0.0
 71
     5
 72
     1
  1
\A1;150
  7
STYLE1
 11
0.0000000000000001
 21
1.0
 31
0.0
 73
     1
 44
1.0
1001
ACAD
1000
MTEXTBEGIN
1070
    73
1070
     1
1070
    44
1040
1.0
1070
    74
1070
     0
1000
MTEXTEND
  0
POINT
  5
208E5
330
2072F
100
AcDbEntity
  8
DEFPOINTS
 62
     0
 48
50.0
100
AcDbPoint
 10
10032.23306906233
 20
1121.821998130962
 30
0.0
  0
POINT
  5
208E6
330
2072F
100
AcDbEntity
  8
DEFPOINTS
 62
     0
 48
50.0
100
AcDbPoint
 10
9952.233069062332
 20
881.8219981309621
 30
0.0
  0
POINT
  5
208E7
330
2072F
100
AcDbEntity
  8
DEFPOINTS
 62
     0
 48
50.0
100
AcDbPoint
 10
9889.812755329868
 20
881.8219981309621
 30
0.0
  0
ENDBLK
  5
2073A
330
2072F
100
AcDbEntity
  8
0
 48
50.0
100
AcDbBlockEnd
  0
BLOCK
  5
20745
330
2073B
100
AcDbEntity
  8
0
 48
50.0
100
AcDbBlockBegin
  2
*D27
 70
     1
 10
0.0
 20
0.0
 30
0.0
  3
*D27
  1

  0
LINE
  5
208D6
330
2073B
100
AcDbEntity
  8
寸法
 62
     0
 48
50.0
370
    -2
100
AcDbLine
 10
10140.23306906232
 20
1665.821998130962
 30
0.0
 11
9365.195830500587
 21
1665.821998130962
 31
0.0
  0
LINE
  5
208D7
330
2073B
100
AcDbEntity
  8
寸法
 62
     0
 48
50.0
370
    -2
100
AcDbLine
 10
9932.233069062332
 20
881.8219981309621
 30
0.0
 11
9365.195830500587
 21
881.8219981309622
 31
0.0
  0
LINE
  5
208D8
330
2073B
100
AcDbEntity
  8
寸法
 62
     0
 48
50.0
370
    -2
100
AcDbLine
 10
9425.195830500587
 20
1665.821998130962
 30
0.0
 11
9425.195830500587
 21
881.8219981309622
 31
0.0
  0
INSERT
  5
208D9
330
2073B
100
AcDbEntity
  8
寸法
 62
     0
 48
50.0
370
    -2
100
AcDbBlockReference
  2
_DOTSMALL
 10
9425.195830500587
 20
1665.821998130962
 30
0.0
 41
100.0
 42
100.0
 43
100.0
 50
90.0
  0
INSERT
  5
208DA
330
2073B
100
AcDbEntity
  8
寸法
 62
     0
 48
50.0
370
    -2
100
AcDbBlockReference
  2
_DOTSMALL
 10
9425.195830500587
 20
881.8219981309622
 30
0.0
 41
100.0
 42
100.0
 43
100.0
 50
270.0
  0
MTEXT
  5
208DB
330
2073B
100
AcDbEntity
  8
寸法
 62
     7
 48
50.0
100
AcDbMText
 10
9325.195830500588
 20
1253.362147786963
 30
0.0
 40
120.0
 41
0.0
 71
     5
 72
     1
  1
\A1;540
  7
STYLE1
 11
0.0000000000000001
 21
1.0
 31
0.0
 73
     1
 44
1.0
1001
ACAD
1000
MTEXTBEGIN
1070
    73
1070
     1
1070
    44
1040
1.0
1070
    74
1070
     0
1000
MTEXTEND
  0
POINT
  5
208DC
330
2073B
100
AcDbEntity
  8
DEFPOINTS
 62
     0
 48
50.0
100
AcDbPoint
 10
10160.23306906232
 20
1665.821998130962
 30
0.0
  0
POINT
  5
208DD
330
2073B
100
AcDbEntity
  8
DEFPOINTS
 62
     0
 48
50.0
100
AcDbPoint
 10
9952.233069062332
 20
881.8219981309621
 30
0.0
  0
POINT
  5
208DE
330
2073B
100
AcDbEntity
  8
DEFPOINTS
 62
     0
 48
50.0
100
AcDbPoint
 10
9425.195830500587
 20
881.8219981309622
 30
0.0
  0
ENDBLK
  5
20746
330
2073B
100
AcDbEntity
  8
0
 48
50.0
100
AcDbBlockEnd
  0
BLOCK
  5
20751
330
20747
100
AcDbEntity
  8
0
 48
50.0
100
AcDbBlockBegin
  2
*D28
 70
     1
 10
0.0
 20
0.0
 30
0.0
  3
*D28
  1

  0
LINE
  5
208CD
330
20747
100
AcDbEntity
  8
寸法
 62
     0
 48
50.0
370
    -2
100
AcDbLine
 10
10032.23306906233
 20
733.8219981309621
 30
0.0
 11
10032.23306906233
 21
283.3923601258021
 31
0.0
  0
LINE
  5
208CE
330
20747
100
AcDbEntity
  8
寸法
 62
     0
 48
50.0
370
    -2
100
AcDbLine
 10
10480.23306906233
 20
733.8219981309621
 30
0.0
 11
10480.23306906233
 21
283.3923601258021
 31
0.0
  0
LINE
  5
208CF
330
20747
100
AcDbEntity
  8
寸法
 62
     0
 48
50.0
370
    -2
100
AcDbLine
 10
10032.23306906233
 20
343.392360125802
 30
0.0
 11
10480.23306906233
 21
343.392360125802
 31
0.0
  0
INSERT
  5
208D0
330
20747
100
AcDbEntity
  8
寸法
 62
     0
 48
50.0
370
    -2
100
AcDbBlockReference
  2
_DOTSMALL
 10
10032.23306906233
 20
343.392360125802
 30
0.0
 41
100.0
 42
100.0
 43
100.0
 50
180.0
  0
INSERT
  5
208D1
330
20747
100
AcDbEntity
  8
寸法
 62
     0
 48
50.0
370
    -2
100
AcDbBlockReference
  2
_DOTSMALL
 10
10480.23306906233
 20
343.392360125802
 30
0.0
 41
100.0
 42
100.0
 43
100.0
  0
MTEXT
  5
208D2
330
20747
100
AcDbEntity
  8
寸法
 62
     7
 48
50.0
100
AcDbMText
 10
10236.1363103841
 20
443.392360125802
 30
0.0
 40
120.0
 41
0.0
 71
     5
 72
     1
  1
\A1;300
  7
STYLE1
 73
     1
 44
1.0
1001
ACAD
1000
MTEXTBEGIN
1070
    73
1070
     1
1070
    44
1040
1.0
1070
    74
1070
     0
1000
MTEXTEND
  0
POINT
  5
208D3
330
20747
100
AcDbEntity
  8
DEFPOINTS
 62
     0
 48
50.0
100
AcDbPoint
 10
10032.23306906233
 20
753.8219981309621
 30
0.0
  0
POINT
  5
208D4
330
20747
100
AcDbEntity
  8
DEFPOINTS
 62
     0
 48
50.0
100
AcDbPoint
 10
10480.23306906233
 20
753.8219981309621
 30
0.0
  0
POINT
  5
208D5
330
20747
100
AcDbEntity
  8
DEFPOINTS
 62
     0
 48
50.0
100
AcDbPoint
 10
10480.23306906233
 20
343.392360125802
 30
0.0
  0
ENDBLK
  5
20752
330
20747
100
AcDbEntity
  8
0
 48
50.0
100
AcDbBlockEnd
  0
BLOCK
  5
2075D
330
20753
100
AcDbEntity
  8
0
 48
50.0
100
AcDbBlockBegin
  2
*D29
 70
     1
 10
0.0
 20
0.0
 30
0.0
  3
*D29
  1

  0
LINE
  5
208C4
330
20753
100
AcDbEntity
  8
寸法
 62
     0
 48
50.0
370
    -2
100
AcDbLine
 10
10352.23306906233
 20
1685.821998130962
 30
0.0
 11
10352.23306906233
 21
2145.489806047343
 31
0.0
  0
LINE
  5
208C5
330
20753
100
AcDbEntity
  8
寸法
 62
     0
 48
50.0
370
    -2
100
AcDbLine
 10
10160.23306906232
 20
1685.821998130962
 30
0.0
 11
10160.23306906232
 21
2145.489806047343
 31
0.0
  0
LINE
  5
208C6
330
20753
100
AcDbEntity
  8
寸法
 62
     0
 48
50.0
370
    -2
100
AcDbLine
 10
10352.23306906233
 20
2085.489806047343
 30
0.0
 11
10160.23306906232
 21
2085.489806047343
 31
0.0
  0
INSERT
  5
208C7
330
20753
100
AcDbEntity
  8
寸法
 62
     0
 48
50.0
370
    -2
100
AcDbBlockReference
  2
_DOTSMALL
 10
10352.23306906233
 20
2085.489806047343
 30
0.0
 41
100.0
 42
100.0
 43
100.0
  0
INSERT
  5
208C8
330
20753
100
AcDbEntity
  8
寸法
 62
     0
 48
50.0
370
    -2
100
AcDbBlockReference
  2
_DOTSMALL
 10
10160.23306906232
 20
2085.489806047343
 30
0.0
 41
100.0
 42
100.0
 43
100.0
 50
180.0
  0
MTEXT
  5
208C9
330
20753
100
AcDbEntity
  8
寸法
 62
     7
 48
50.0
100
AcDbMText
 10
10256.23306906233
 20
2285.501617070964
 30
0.0
 40
120.0
 41
0.0
 71
     5
 72
     1
  1
\A1;120\P170
  7
STYLE1
 73
     1
 44
1.0
1001
ACAD
1000
MTEXTBEGIN
1070
    73
1070
     1
1070
    44
1040
1.0
1070
    74
1070
     0
1000
MTEXTEND
  0
POINT
  5
208CA
330
20753
100
AcDbEntity
  8
DEFPOINTS
 62
     0
 48
50.0
100
AcDbPoint
 10
10352.23306906233
 20
1665.821998130962
 30
0.0
  0
POINT
  5
208CB
330
20753
100
AcDbEntity
  8
DEFPOINTS
 62
     0
 48
50.0
100
AcDbPoint
 10
10160.23306906232
 20
1665.821998130962
 30
0.0
  0
POINT
  5
208CC
330
20753
100
AcDbEntity
  8
DEFPOINTS
 62
     0
 48
50.0
100
AcDbPoint
 10
10160.23306906232
 20
2085.489806047343
 30
0.0
  0
ENDBLK
  5
2075E
330
20753
100
AcDbEntity
  8
0
 48
50.0
100
AcDbBlockEnd
  0
BLOCK
  5
209E8
330
209DD
100
AcDbEntity
  8
0
 48
50.0
100
AcDbBlockBegin
  2
*D30
 70
     1
 10
0.0
 20
0.0
 30
0.0
  3
*D30
  1

  0
LINE
  5
20A37
330
209DD
100
AcDbEntity
  8
寸法
 62
     0
 48
50.0
370
    -2
100
AcDbLine
 10
9206.195288608608
 20
6852.91903611284
 30
0.0
 11
9206.195288608608
 21
6595.032215098744
 31
0.0
  0
LINE
  5
20A38
330
209DD
100
AcDbEntity
  8
寸法
 62
     0
 48
50.0
370
    -2
100
AcDbLine
 10
9316.195288608607
 20
6852.919036112843
 30
0.0
 11
9316.195288608607
 21
6595.032215098744
 31
0.0
  0
LINE
  5
20A39
330
209DD
100
AcDbEntity
  8
寸法
 62
     0
 48
50.0
370
    -2
100
AcDbLine
 10
9206.195288608608
 20
6655.032215098746
 30
0.0
 11
9316.195288608607
 21
6655.032215098746
 31
0.0
  0
MTEXT
  5
20A3A
330
209DD
100
AcDbEntity
  8
寸法
 62
     7
 48
50.0
100
AcDbMText
 10
9182.661145912819
 20
6553.579101647803
 30
0.0
 40
120.0
 41
0.0
 71
     5
 72
     1
  1
\A1;110
  7
STYLE1
 73
     1
 44
1.0
1001
ACAD
1000
MTEXTBEGIN
1070
    73
1070
     1
1070
    44
1040
1.0
1070
    74
1070
     0
1000
MTEXTEND
  0
INSERT
  5
20A3B
330
209DD
100
AcDbEntity
  8
寸法
 62
     0
 48
50.0
370
    -2
100
AcDbBlockReference
  2
_DOTSMALL
 10
9206.195288608608
 20
6655.032215098746
 30
0.0
 41
100.0
 42
100.0
 43
100.0
 50
180.0
  0
INSERT
  5
20A3C
330
209DD
100
AcDbEntity
  8
寸法
 62
     0
 48
50.0
370
    -2
100
AcDbBlockReference
  2
_DOTSMALL
 10
9316.195288608607
 20
6655.032215098746
 30
0.0
 41
100.0
 42
100.0
 43
100.0
  0
POINT
  5
20A3D
330
209DD
100
AcDbEntity
  8
DEFPOINTS
 62
     0
 48
50.0
100
AcDbPoint
 10
9206.195288608608
 20
6872.91903611284
 30
0.0
  0
POINT
  5
20A3E
330
209DD
100
AcDbEntity
  8
DEFPOINTS
 62
     0
 48
50.0
100
AcDbPoint
 10
9316.195288608607
 20
6872.919036112843
 30
0.0
  0
POINT
  5
20A3F
330
209DD
100
AcDbEntity
  8
DEFPOINTS
 62
     0
 48
50.0
100
AcDbPoint
 10
9316.195288608607
 20
6655.032215098746
 30
0.0
  0
ENDBLK
  5
209E9
330
209DD
100
AcDbEntity
  8
0
 48
50.0
100
AcDbBlockEnd
  0
ENDSEC
  0
SECTION
  2
ENTITIES
  0
LINE
  5
10B57
330
747D
100
AcDbEntity
  8
補助
  6
PHANTOM
 62
   230
 48
50.0
100
AcDbLine
 10
139.9999999999995
 20
11409.6
 30
0.0
 11
16307.2
 21
11409.6
 31
0.0
  0
LINE
  5
10B59
330
747D
100
AcDbEntity
  8
仕様書枠
  6
Continuous
 48
50.0
100
AcDbLine
 10
13107.2
 20
1200.0
 30
0.0
 11
13107.2
 21
-0.0000000000000729
 31
0.0
  0
LINE
  5
10B5C
330
747D
100
AcDbEntity
  8
仕様書枠
 48
50.0
100
AcDbLine
 10
16307.2
 20
1200.0
 30
0.0
 11
16307.2
 21
-0.0000000000000909
 31
0.0
  0
LINE
  5
10B5D
330
747D
100
AcDbEntity
  8
仕様書枠
 48
50.0
100
AcDbLine
 10
140.0
 20
0.0
 30
0.0
 11
16307.2
 21
-0.0000000000000909
 31
0.0
  0
LINE
  5
10B5E
330
747D
100
AcDbEntity
  8
補助
  6
PHANTOM
 62
   230
 48
50.0
100
AcDbLine
 10
16307.2
 20
11409.6
 30
0.0
 11
16307.2
 21
1200.0
 31
0.0
  0
LINE
  5
10B6C
330
747D
100
AcDbEntity
  8
仕様書枠
 48
50.0
100
AcDbLine
 10
13107.2
 20
1200.0
 30
0.0
 11
16307.2
 21
1200.0
 31
0.0
  0
LINE
  5
10B6D
330
747D
100
AcDbEntity
  8
補助
  6
PHANTOM
 62
   230
 48
50.0
100
AcDbLine
 10
13107.2
 20
11409.6
 30
0.0
 11
13107.2
 21
4800.0
 31
0.0
  0
LINE
  5
10B6F
330
747D
100
AcDbEntity
  8
補助
  6
PHANTOM
 62
   230
 48
50.0
100
AcDbLine
 10
13107.2
 20
4800.0
 30
0.0
 11
16307.2
 21
4800.0
 31
0.0
  0
LINE
  5
10B72
330
747D
100
AcDbEntity
  8
文字
 62
     7
 48
50.0
100
AcDbLine
 10
13187.2
 20
400.0
 30
0.0
 11
16227.2
 21
400.0
 31
0.0
  0
TEXT
  5
10B73
330
747D
100
AcDbEntity
  8
文字
 62
     7
 48
50.0
100
AcDbText
 10
13162.9790565769
 20
895.0906074299405
 30
0.0
 40
200.0
  1
基 礎 図
  7
STYLE2
100
AcDbText
  0
TEXT
  5
10B74
330
747D
100
AcDbEntity
  8
文字
 62
     7
 48
50.0
100
AcDbText
 10
13201.43669998441
 20
477.2740661031255
 30
0.0
 40
160.0
  1
機種名
  7
STYLE2
100
AcDbText
  0
TEXT
  5
10B79
330
747D
100
AcDbEntity
  8
文字
 62
     7
 48
50.0
100
AcDbText
 10
14524.131837222
 20
1031.557706291228
 30
0.0
 40
100.0
  1
    <縮尺> S=1/40
  7
STYLE2
100
AcDbText
  0
LINE
  5
10B7B
330
747D
100
AcDbEntity
  8
仕様書枠
 48
50.0
100
AcDbLine
 10
13107.2
 20
800.0
 30
0.0
 11
14251.2
 21
800.0
 31
0.0
  0
LINE
  5
10B88
330
747D
100
AcDbEntity
  8
仕様書枠
  6
Continuous
 48
50.0
100
AcDbLine
 10
14251.2
 20
1200.0
 30
0.0
 11
14251.2
 21
800.0
 31
0.0
  0
TEXT
  5
14DEF
330
747D
100
AcDbEntity
  8
文字
 62
     7
 48
50.0
100
AcDbText
 10
14641.2525855784
 20
871.1744590657925
 30
0.0
 40
100.0
  1
～一般型・多雪地型～
  7
STYLE2
100
AcDbText
  0
TEXT
  5
15A76
330
747D
100
AcDbEntity
  8
文字
 62
     7
 48
50.0
100
AcDbText
 10
14448.51912655987
 20
483.8967129911411
 30
0.0
 40
160.0
  1
ＮＸＮ－４５Ｓ・Ｈ
  7
STYLE2
100
AcDbText
  0
TEXT
  5
1D002
330
747D
100
AcDbEntity
  8
文字
 62
     7
 48
50.0
100
AcDbText
 10
13188.16259899338
 20
246.7109242801889
 30
0.0
 40
80.0
  1
※寒冷地等は地域の実情に合わせた基礎にして下さい。
  7
STYLE2
100
AcDbText
  0
DIMENSION
  5
1D91B
330
747D
100
AcDbEntity
  8
寸法
 48
50.0
100
AcDbDimension
  2
*D1
 10
6822.902538484706
 20
6022.919036112863
 30
0.0
 11
6822.902538484704
 21
6258.966280207353
 31
0.0
 70
   160
 71
     5
 42
130.0000000000018
  3
INABA_S40G
100
AcDbAlignedDimension
 13
6606.195288608607
 23
5892.919036112861
 33
0.0
 14
6606.195288608607
 24
6022.919036112863
 34
0.0
 50
90.0
100
AcDbRotatedDimension
  0
DIMENSION
  5
1D91C
330
747D
100
AcDbEntity
  8
寸法
 48
50.0
100
AcDbDimension
  2
*D2
 10
6822.902538484706
 20
5722.919036112862
 30
0.0
 11
6822.902538484704
 21
5486.871792018373
 31
0.0
 70
   160
 71
     5
 42
170.0000000000018
  3
INABA_S40G
100
AcDbAlignedDimension
 13
6606.195288608607
 23
5892.919036112863
 33
0.0
 14
6606.195288608607
 24
5722.919036112862
 34
0.0
 50
90.0
100
AcDbRotatedDimension
  0
DIMENSION
  5
1D91D
330
747D
100
AcDbEntity
  8
寸法
 48
50.0
100
AcDbDimension
  2
*D3
 10
6499.195288608607
 20
7856.250847072693
 30
0.0
 11
7906.195288608607
 21
7956.262658096314
 31
0.0
 70
    32
 71
     5
 42
2814.0
  3
INABA_S40G
100
AcDbAlignedDimension
 13
9313.195288608607
 23
7029.919036112841
 33
0.0
 14
6499.195288608607
 24
7029.919036112842
 34
0.0
100
AcDbRotatedDimension
  0
LINE
  5
1D91E
330
747D
100
AcDbEntity
  8
部品1
 48
50.0
100
AcDbLine
 10
9206.195288608608
 20
5892.919036112876
 30
0.0
 11
6606.195288608607
 21
5892.91903611286
 31
0.0
  0
LINE
  5
1D91F
330
747D
100
AcDbEntity
  8
部品1
 48
50.0
100
AcDbLine
 10
9206.195288608608
 20
6982.919036112839
 30
0.0
 11
6606.195288608609
 21
6982.919036112843
 31
0.0
  0
DIMENSION
  5
1D920
330
747D
100
AcDbEntity
  8
寸法
 48
50.0
100
AcDbDimension
  2
*D4
 10
9436.195288608606
 20
8068.711542589529
 30
0.0
 11
7906.195288608607
 21
8168.711542589528
 31
0.0
 70
    32
 71
     5
 42
3060.0
  3
INABA_S40G
100
AcDbAlignedDimension
 13
6376.195288608608
 23
7102.919036112843
 33
0.0
 14
9436.195288608606
 24
7102.919036112843
 34
0.0
100
AcDbRotatedDimension
  0
LINE
  5
1D921
330
747D
100
AcDbEntity
  8
部品1
 48
50.0
100
AcDbLine
 10
9436.195288608606
 20
5722.919036112878
 30
0.0
 11
6379.195288608607
 21
5722.919036112855
 31
0.0
  0
LINE
  5
1D922
330
747D
100
AcDbEntity
  8
部品1
 48
50.0
100
AcDbLine
 10
9436.195288608606
 20
7102.919036112843
 30
0.0
 11
6376.195288608606
 21
7102.91903611284
 31
0.0
  0
LINE
  5
1D923
330
747D
100
AcDbEntity
  8
想像線
 48
10.0
100
AcDbLine
 10
9481.195288608608
 20
5667.919036112856
 30
0.0
 11
6334.195288608607
 21
5667.919036112861
 31
0.0
  0
LINE
  5
1D924
330
747D
100
AcDbEntity
  8
想像線
 48
10.0
100
AcDbLine
 10
6334.195288608607
 20
7177.919036112841
 30
0.0
 11
9481.195288608606
 21
7177.919036112846
 31
0.0
  0
DIMENSION
  5
1D925
330
747D
100
AcDbEntity
  8
寸法
 48
50.0
100
AcDbDimension
  2
*D5
 10
6376.195288608606
 20
7856.250847072693
 30
0.0
 11
6137.710007234367
 21
7856.250847072693
 31
0.0
 70
   160
 71
     5
 42
123.0000000000018
  3
INABA_S40G
100
AcDbAlignedDimension
 13
6499.195288608607
 23
7029.919036112841
 33
0.0
 14
6376.195288608606
 24
7102.91903611284
 34
0.0
100
AcDbRotatedDimension
  0
DIMENSION
  5
1D926
330
747D
100
AcDbEntity
  8
寸法
 48
50.0
100
AcDbDimension
  2
*D6
 10
6376.195288608608
 20
8068.711542589531
 30
0.0
 11
6353.695288608605
 21
8068.711542589531
 31
0.0
 70
   160
  1
a
 71
     5
 42
45.00000000000364
  3
INABA_S40G
100
AcDbAlignedDimension
 13
6331.195288608604
 23
7856.250847072693
 33
0.0
 14
6376.195288608608
 24
7251.190236682763
 34
0.0
100
AcDbRotatedDimension
  0
DIMENSION
  5
1D927
330
747D
100
AcDbEntity
  8
寸法
 48
50.0
100
AcDbDimension
  2
*D7
 10
5880.253022594786
 20
5920.919036112862
 30
0.0
 11
5880.253022594785
 21
6469.622096454681
 31
0.0
 70
   160
 71
     5
 42
1058.99999999998
  3
INABA_S40G
100
AcDbAlignedDimension
 13
6449.195288608606
 23
6979.919036112841
 33
0.0
 14
6449.195288608615
 24
5920.919036112861
 34
0.0
 50
90.0
100
AcDbRotatedDimension
  0
LINE
  5
1D928
330
747D
100
AcDbEntity
  8
部品1
 48
50.0
100
AcDbLine
 10
6496.195288608608
 20
6022.919036112861
 30
0.0
 11
6496.195288608608
 21
6872.91903611284
 31
0.0
  0
DIMENSION
  5
1D929
330
747D
100
AcDbEntity
  8
寸法
 48
50.0
100
AcDbDimension
  2
*D8
 10
5634.760220456819
 20
5722.91903611286
 30
0.0
 11
5634.760220456819
 21
6446.515373625764
 31
0.0
 70
   160
 71
     5
 42
1379.999999999981
  3
INABA_S40G
100
AcDbAlignedDimension
 13
6376.195288608608
 23
7102.91903611284
 33
0.0
 14
6376.195288608608
 24
5722.919036112859
 34
0.0
 50
90.0
100
AcDbRotatedDimension
  0
LINE
  5
1D92A
330
747D
100
AcDbEntity
  8
部品1
 48
50.0
100
AcDbLine
 10
6376.195288608608
 20
5725.919036112856
 30
0.0
 11
6376.195288608606
 21
7102.91903611284
 31
0.0
  0
LINE
  5
1D92B
330
747D
100
AcDbEntity
  8
想像線
 48
10.0
100
AcDbLine
 10
6331.195288608607
 20
5670.919036112861
 30
0.0
 11
6331.195288608607
 21
7174.919036112841
 31
0.0
  0
DIMENSION
  5
1D92C
330
747D
100
AcDbEntity
  8
寸法
 48
50.0
100
AcDbDimension
  2
*D9
 10
5880.253022594786
 20
5722.91903611286
 30
0.0
 11
5880.253022594785
 21
5486.709376283204
 31
0.0
 70
   160
 71
     5
 42
198.0000000000018
  3
INABA_S40G
100
AcDbAlignedDimension
 13
6449.195288608615
 23
5920.919036112861
 33
0.0
 14
6376.195288608608
 24
5722.919036112859
 34
0.0
 50
90.0
100
AcDbRotatedDimension
  0
DIMENSION
  5
1D92D
330
747D
100
AcDbEntity
  8
寸法
 48
50.0
100
AcDbDimension
  2
*D10
 10
5634.760220456819
 20
5667.919036112859
 30
0.0
 11
5634.760220456819
 21
5695.41903611286
 31
0.0
 70
   160
  1
b
 71
     5
 42
55.00000000000091
  3
INABA_S40G
100
AcDbAlignedDimension
 13
6376.195288608608
 23
5722.919036112859
 33
0.0
 14
5880.253022594786
 24
5667.919036112859
 34
0.0
 50
90.0
100
AcDbRotatedDimension
  0
LINE
  5
1D92E
330
747D
100
AcDbEntity
  8
センター
 48
2.0
100
AcDbLine
 10
6499.195288608615
 20
5970.919036112861
 30
0.0
 11
6499.195288608615
 21
5870.919036112861
 31
0.0
  0
LINE
  5
1D92F
330
747D
100
AcDbEntity
  8
センター
 48
2.0
100
AcDbLine
 10
6449.195288608615
 20
5920.919036112861
 30
0.0
 11
6549.195288608615
 21
5920.919036112861
 31
0.0
  0
CIRCLE
  5
1D930
330
747D
100
AcDbEntity
  8
部品1
 48
50.0
100
AcDbCircle
 10
6499.195288608615
 20
5920.919036112861
 30
0.0
 40
35.0
  0
LINE
  5
1D931
330
747D
100
AcDbEntity
  8
部品1
 48
50.0
100
AcDbLine
 10
6606.195288608607
 20
6022.919036112863
 30
0.0
 11
6496.195288608608
 21
6022.919036112861
 31
0.0
  0
LINE
  5
1D932
330
747D
100
AcDbEntity
  8
部品1
 48
50.0
100
AcDbLine
 10
6606.195288608607
 20
5892.91903611286
 30
0.0
 11
6606.195288608607
 21
6022.919036112863
 31
0.0
  0
DIMENSION
  5
1D933
330
747D
100
AcDbEntity
  8
寸法
 48
50.0
100
AcDbDimension
  2
*D11
 10
5880.253022594787
 20
6979.919036112843
 30
0.0
 11
5880.253022594785
 21
7341.404317487081
 31
0.0
 70
   160
 71
     5
 42
123.0
  3
INABA_S40G
100
AcDbAlignedDimension
 13
6376.195288608608
 23
7102.919036112841
 33
0.0
 14
6449.195288608606
 24
6979.919036112841
 34
0.0
 50
90.0
100
AcDbRotatedDimension
  0
DIMENSION
  5
1D934
330
747D
100
AcDbEntity
  8
寸法
 48
50.0
100
AcDbDimension
  2
*D12
 10
5634.760220456819
 20
7102.919036112843
 30
0.0
 11
5634.760220456818
 21
7140.419036112843
 31
0.0
 70
   160
  1
c
 71
     5
 42
74.99999999999909
  3
INABA_S40G
100
AcDbAlignedDimension
 13
5880.253022594787
 23
7177.919036112841
 33
0.0
 14
6376.195288608608
 24
7102.919036112841
 34
0.0
 50
90.0
100
AcDbRotatedDimension
  0
LINE
  5
1D935
330
747D
100
AcDbEntity
  8
部品1
 48
50.0
100
AcDbLine
 10
6496.195288608608
 20
6512.919036112842
 30
0.0
 11
6376.195288608606
 21
6512.919036112842
 31
0.0
  0
LINE
  5
1D936
330
747D
100
AcDbEntity
  8
部品1
 48
50.0
100
AcDbLine
 10
6496.195288608608
 20
6312.919036112842
 30
0.0
 11
6376.195288608606
 21
6312.919036112842
 31
0.0
  0
LINE
  5
1D938
330
747D
100
AcDbEntity
  8
センター
 48
2.0
100
AcDbLine
 10
6499.195288608607
 20
7029.919036112841
 30
0.0
 11
6499.195288608607
 21
6929.919036112841
 31
0.0
  0
LINE
  5
1D939
330
747D
100
AcDbEntity
  8
センター
 48
2.0
100
AcDbLine
 10
6449.195288608606
 20
6979.919036112841
 30
0.0
 11
6549.195288608607
 21
6979.919036112841
 31
0.0
  0
CIRCLE
  5
1D93A
330
747D
100
AcDbEntity
  8
部品1
 48
50.0
100
AcDbCircle
 10
6499.195288608607
 20
6979.919036112841
 30
0.0
 40
35.0
  0
LINE
  5
1D93B
330
747D
100
AcDbEntity
  8
部品1
 48
50.0
100
AcDbLine
 10
6606.195288608607
 20
6872.919036112837
 30
0.0
 11
6496.195288608608
 21
6872.91903611284
 31
0.0
  0
LINE
  5
1D93C
330
747D
100
AcDbEntity
  8
部品1
 48
50.0
100
AcDbLine
 10
6606.195288608607
 20
6872.919036112837
 30
0.0
 11
6606.195288608609
 21
6982.919036112843
 31
0.0
  0
DIMENSION
  5
1D93E
330
747D
100
AcDbEntity
  8
寸法
 48
50.0
100
AcDbDimension
  2
*D13
 10
9313.195288608607
 20
7856.250847072693
 30
0.0
 11
9674.680569982847
 21
7856.250847072693
 31
0.0
 70
   160
 71
     5
 42
123.0
  3
INABA_S40G
100
AcDbAlignedDimension
 13
9436.195288608606
 23
7102.919036112843
 33
0.0
 14
9313.195288608607
 24
7029.919036112841
 34
0.0
100
AcDbRotatedDimension
  0
DIMENSION
  5
1D93F
330
747D
100
AcDbEntity
  8
寸法
 48
50.0
100
AcDbDimension
  2
*D14
 10
9481.195288608608
 20
8068.711542589529
 30
0.0
 11
9458.695288608607
 21
8068.711542589529
 31
0.0
 70
   160
  1
a
 71
     5
 42
45.0
  3
INABA_S40G
100
AcDbAlignedDimension
 13
9436.195288608606
 23
7251.190236682763
 33
0.0
 14
9481.195288608608
 24
7856.250847072693
 34
0.0
100
AcDbRotatedDimension
  0
DIMENSION
  5
1D942
330
747D
100
AcDbEntity
  8
寸法
 48
50.0
100
AcDbDimension
  2
*D15
 10
9316.195288608607
 20
6655.032215098746
 30
0.0
 11
9672.242532703096
 21
6655.032215098746
 31
0.0
 70
   160
 71
     5
 42
120.0
  3
INABA_S40G
100
AcDbAlignedDimension
 13
9436.195288608606
 23
6857.938442000636
 33
0.0
 14
9316.195288608607
 24
6872.919036112843
 34
0.0
100
AcDbRotatedDimension
  0
TEXT
  5
1D943
330
747D
100
AcDbEntity
  8
部品1
 48
50.0
100
AcDbText
 10
9523.015355287009
 20
5028.032239333586
 30
0.0
 40
80.0
  1
(a=45,b=55,c=75)
  7
STYLE1
100
AcDbText
  0
TEXT
  5
1D944
330
747D
100
AcDbEntity
  8
部品1
 48
50.0
100
AcDbText
 10
9453.138467682126
 20
5147.763285486725
 30
0.0
 40
80.0
  1
※a,b,cは屋根の出幅です。
  7
STYLE1
100
AcDbText
  0
MTEXT
  5
1D945
102
{ACAD_REACTORS
330
1D946
102
}
330
747D
100
AcDbEntity
  8
部品1
 62
     7
 48
50.0
100
AcDbMText
 10
10318.32106314692
 20
5371.901644153068
 30
0.0
 40
120.0
 41
0.0
 71
     6
 72
     1
  1
\A1;屋根の外寸
  7
STYLE1
 73
     1
 44
1.0
1001
ACAD
1000
MTEXTBEGIN
1070
    73
1070
     1
1070
    44
1040
1.0
1070
    74
1070
     0
1000
MTEXTEND
  0
LEADER
  5
1D946
330
747D
100
AcDbEntity
  8
寸法
 48
50.0
100
AcDbLeader
  3
INABA_S40G
 71
     0
 73
     0
 74
     0
 75
     1
 40
120.0
 41
672.0
 76
     3
 10
9248.083876542434
 20
5666.919036112859
 30
0.0
 10
9506.321063146925
 20
5271.901644153068
 30
0.0
 10
9606.321063146927
 20
5271.901644153068
 30
0.0
340
1D945
  0
DIMENSION
  5
1D947
330
747D
100
AcDbEntity
  8
寸法
 48
50.0
100
AcDbDimension
  2
*D16
 10
6836.705472521632
 20
6872.919036112837
 30
0.0
 11
6836.705472521629
 21
6634.598327534914
 31
0.0
 70
   160
 71
     5
 42
110.0000000000045
  3
INABA_S40G
100
AcDbAlignedDimension
 13
6606.195288608609
 23
6982.919036112843
 33
0.0
 14
6606.195288608607
 24
6872.919036112837
 34
0.0
 50
90.0
100
AcDbRotatedDimension
  0
LINE
  5
1D94A
330
747D
100
AcDbEntity
  8
部品1
 48
50.0
100
AcDbLine
 10
9436.195288608606
 20
5722.919036112878
 30
0.0
 11
9436.195288608606
 21
7102.919036112843
 31
0.0
  0
LINE
  5
1D94B
330
747D
100
AcDbEntity
  8
想像線
 48
10.0
100
AcDbLine
 10
9481.195288608606
 20
7177.919036112846
 30
0.0
 11
9481.195288608612
 21
5667.919036112859
 31
0.0
  0
TEXT
  5
1D94C
330
747D
100
AcDbEntity
  8
部品1
 48
50.0
100
AcDbText
 10
7778.195288608607
 20
5461.466534709401
 30
0.0
 40
120.0
  1
扉面
  7
STYLE1
 72
     1
 11
7906.195288608607
 21
5445.466534709401
 31
0.0
100
AcDbText
 73
     1
  0
HATCH
  5
1D94E
330
747D
100
AcDbEntity
  8
細線
 48
50.0
100
AcDbHatch
 10
0.0
 20
0.0
 30
0.0
210
0.0
220
0.0
230
1.0
  2
LINE
 70
     0
 71
     0
 91
        1
 92
        7
 72
     0
 73
     1
 93
        4
 10
8006.195288608621
 20
5722.91903611287
 10
8006.195288608621
 20
5892.919036112869
 10
7806.195288608622
 20
5892.919036112867
 10
7806.195288608622
 20
5722.919036112865
 97
        0
 75
     0
 76
     1
 52
45.0
 41
10.0
 77
     0
 78
     1
 53
45.0
 43
4303.083727622099
 44
-5428.622518963427
 45
-22.45064030267288
 46
22.45064030267288
 79
     0
 47
2.903594399684136
 98
        1
 10
7919.305288611707
 20
5761.94609154531
  0
LINE
  5
1D94F
330
747D
100
AcDbEntity
  8
部品1
 48
50.0
100
AcDbLine
 10
7806.195288608622
 20
5722.91903611287
 30
0.0
 11
7806.195288608622
 21
5892.919036112864
 31
0.0
  0
LINE
  5
1D950
330
747D
100
AcDbEntity
  8
部品1
 48
50.0
100
AcDbLine
 10
8006.195288608621
 20
5722.91903611287
 30
0.0
 11
8006.195288608621
 21
5892.919036112869
 31
0.0
  0
LINE
  5
1D951
330
747D
100
AcDbEntity
  8
センター
 48
2.0
100
AcDbLine
 10
9263.195288608615
 20
5920.919036112861
 30
0.0
 11
9363.195288608615
 21
5920.919036112861
 31
0.0
  0
CIRCLE
  5
1D952
330
747D
100
AcDbEntity
  8
部品1
 48
50.0
100
AcDbCircle
 10
9313.195288608616
 20
5920.919036112861
 30
0.0
 40
35.0
  0
LINE
  5
1D953
330
747D
100
AcDbEntity
  8
部品1
 48
50.0
100
AcDbLine
 10
9316.195288608607
 20
6022.919036112877
 30
0.0
 11
9206.195288608608
 21
6022.919036112877
 31
0.0
  0
LINE
  5
1D954
330
747D
100
AcDbEntity
  8
部品1
 48
50.0
100
AcDbLine
 10
9206.195288608608
 20
5892.919036112876
 30
0.0
 11
9206.195288608608
 21
6022.919036112877
 31
0.0
  0
LINE
  5
1D955
330
747D
100
AcDbEntity
  8
センター
 48
2.0
100
AcDbLine
 10
9313.195288608616
 20
5970.919036112861
 30
0.0
 11
9313.195288608616
 21
5870.919036112861
 31
0.0
  0
LINE
  5
1D956
330
747D
100
AcDbEntity
  8
部品1
 48
50.0
100
AcDbLine
 10
8006.195288608607
 20
6982.919036112843
 30
0.0
 11
8006.195288608607
 21
7102.919036112843
 31
0.0
  0
LINE
  5
1D957
330
747D
100
AcDbEntity
  8
部品1
 48
50.0
100
AcDbLine
 10
7806.195288608607
 20
6982.919036112843
 30
0.0
 11
7806.195288608607
 21
7102.919036112843
 31
0.0
  0
DIMENSION
  5
1D959
330
747D
100
AcDbEntity
  8
寸法
 48
50.0
100
AcDbDimension
  2
*D17
 10
6836.705472521632
 20
6982.919036112843
 30
0.0
 11
6836.705472521629
 21
7338.96628020733
 31
0.0
 70
   160
 71
     5
 42
119.9999999999972
  3
INABA_S40G
100
AcDbAlignedDimension
 13
6578.195288608608
 23
7102.91903611284
 33
0.0
 14
6606.195288608609
 24
6982.919036112843
 34
0.0
 50
90.0
100
AcDbRotatedDimension
  0
LINE
  5
1D95A
330
747D
100
AcDbEntity
  8
センター
 48
2.0
100
AcDbLine
 10
9263.195288608606
 20
6979.919036112841
 30
0.0
 11
9363.195288608606
 21
6979.919036112841
 31
0.0
  0
CIRCLE
  5
1D95B
330
747D
100
AcDbEntity
  8
部品1
 48
50.0
100
AcDbCircle
 10
9313.195288608607
 20
6979.919036112841
 30
0.0
 40
35.0
  0
LINE
  5
1D95C
330
747D
100
AcDbEntity
  8
部品1
 48
50.0
100
AcDbLine
 10
9316.195288608607
 20
6872.919036112842
 30
0.0
 11
9206.195288608608
 21
6872.91903611284
 31
0.0
  0
LINE
  5
1D95D
330
747D
100
AcDbEntity
  8
部品1
 48
50.0
100
AcDbLine
 10
9206.195288608608
 20
6872.91903611284
 30
0.0
 11
9206.195288608606
 21
6982.919036112839
 31
0.0
  0
LINE
  5
1D95E
330
747D
100
AcDbEntity
  8
部品1
 48
50.0
100
AcDbLine
 10
9436.195288608606
 20
6512.919036112842
 30
0.0
 11
9316.195288608607
 21
6512.919036112844
 31
0.0
  0
LINE
  5
1D95F
330
747D
100
AcDbEntity
  8
部品1
 48
50.0
100
AcDbLine
 10
9436.195288608606
 20
6312.919036112842
 30
0.0
 11
9316.195288608607
 21
6312.919036112842
 31
0.0
  0
LINE
  5
1D961
330
747D
100
AcDbEntity
  8
センター
 48
2.0
100
AcDbLine
 10
9313.195288608607
 20
7029.919036112841
 30
0.0
 11
9313.195288608607
 21
6929.919036112841
 31
0.0
  0
TEXT
  5
1DEDA
330
747D
100
AcDbEntity
  8
文字
 62
     7
 48
50.0
100
AcDbText
 10
13188.16259899338
 20
79.80631269190325
 30
0.0
 40
80.0
  1
※布基礎には換気口を設けてください。
  7
STYLE2
100
AcDbText
  0
TEXT
  5
1DEDC
330
747D
100
AcDbEntity
  8
部品1
100
AcDbText
 10
7874.509090909093
 20
2838.962713646534
 30
0.0
 40
120.0
  1
基礎詳細
  7
STYLE2
 72
     1
 11
8223.600000000002
 21
2814.417259101079
 31
0.0
100
AcDbText
 73
     1
  0
TEXT
  5
1DEFB
330
747D
100
AcDbEntity
  8
部品1
 48
50.0
100
AcDbText
 10
7722.731567229541
 20
1074.706881431455
 30
0.0
 40
80.0
  1
ボルトの出
 50
90.0
  7
STYLE2
100
AcDbText
  0
LINE
  5
1DEFC
330
747D
100
AcDbEntity
  8
部品1
 48
50.0
100
AcDbLine
 10
6499.38452370851
 20
1975.226111023412
 30
0.0
 11
6499.38452370851
 21
1987.226111023412
 31
0.0
  0
LINE
  5
1DEFD
330
747D
100
AcDbEntity
  8
部品1
 48
50.0
100
AcDbLine
 10
6469.38452370851
 20
2089.4161018545
 30
0.0
 11
6489.38452370851
 21
2099.4161018545
 31
0.0
  0
LINE
  5
1DEFE
330
747D
100
AcDbEntity
  8
部品1
 48
50.0
100
AcDbLine
 10
6469.38452370851
 20
2129.4161018545
 30
0.0
 11
6489.38452370851
 21
2139.4161018545
 31
0.0
  0
LINE
  5
1DEFF
330
747D
100
AcDbEntity
  8
部品1
 48
50.0
100
AcDbLine
 10
6469.38452370851
 20
2149.4161018545
 30
0.0
 11
6489.38452370851
 21
2139.4161018545
 31
0.0
  0
LINE
  5
1DF00
330
747D
100
AcDbEntity
  8
細線
 48
50.0
100
AcDbLine
 10
6469.38452370851
 20
2089.4161018545
 30
0.0
 11
6469.38452370851
 21
2129.4161018545
 31
0.0
  0
LINE
  5
1DF01
330
747D
100
AcDbEntity
  8
部品1
 48
50.0
100
AcDbLine
 10
6489.38452370851
 20
2099.4161018545
 30
0.0
 11
6489.38452370851
 21
2139.4161018545
 31
0.0
  0
LINE
  5
1DF02
330
747D
100
AcDbEntity
  8
部品1
 48
50.0
100
AcDbLine
 10
6409.38452370851
 20
2139.4161018545
 30
0.0
 11
6429.38452370851
 21
2149.4161018545
 31
0.0
  0
LINE
  5
1DF03
330
747D
100
AcDbEntity
  8
部品1
 48
50.0
100
AcDbLine
 10
6409.38452370851
 20
2139.4161018545
 30
0.0
 11
6429.38452370851
 21
2129.4161018545
 31
0.0
  0
LINE
  5
1DF04
330
747D
100
AcDbEntity
  8
部品1
 48
50.0
100
AcDbLine
 10
6409.38452370851
 20
2099.4161018545
 30
0.0
 11
6429.38452370851
 21
2089.4161018545
 31
0.0
  0
LINE
  5
1DF05
330
747D
100
AcDbEntity
  8
部品1
 48
50.0
100
AcDbLine
 10
6399.384523708509
 20
1987.226111023412
 30
0.0
 11
6399.384523708509
 21
1975.226111023412
 31
0.0
  0
LINE
  5
1DF06
330
747D
100
AcDbEntity
  8
部品1
 48
50.0
100
AcDbLine
 10
6409.38452370851
 20
2099.4161018545
 30
0.0
 11
6409.38452370851
 21
2139.4161018545
 31
0.0
  0
LINE
  5
1DF07
330
747D
100
AcDbEntity
  8
細線
 48
50.0
100
AcDbLine
 10
6429.38452370851
 20
2089.4161018545
 30
0.0
 11
6429.38452370851
 21
2129.4161018545
 31
0.0
  0
ELLIPSE
  5
1DF08
330
747D
100
AcDbEntity
  8
部品1
 48
50.0
100
AcDbEllipse
 10
6449.384523708509
 20
1975.226111023412
 30
0.0
 11
50.0
 21
0.0
 31
0.0
210
0.0
220
0.0
230
1.0
 40
0.4
 41
3.141592653589793
 42
6.283185307179586
  0
ELLIPSE
  5
1DF09
330
747D
100
AcDbEntity
  8
部品1
 48
50.0
100
AcDbEllipse
 10
6449.384523708509
 20
1987.226111023412
 30
0.0
 11
50.0
 21
0.0
 31
0.0
210
0.0
220
0.0
230
1.0
 40
0.4
 41
0.0
 42
6.283185307179586
  0
ELLIPSE
  5
1DF0A
330
747D
100
AcDbEntity
  8
部品1
 48
50.0
100
AcDbEllipse
 10
6449.384523708509
 20
1987.226111023412
 30
0.0
 11
23.0
 21
0.0
 31
0.0
210
0.0
220
0.0
230
1.0
 40
0.3478260869565217
 41
0.0
 42
6.283185307179586
  0
ELLIPSE
  5
1DF0B
330
747D
100
AcDbEntity
  8
細線
 48
50.0
100
AcDbEllipse
 10
6449.384523708509
 20
2139.4161018545
 30
0.0
 11
18.45838483258558
 21
0.0
 31
0.0
210
0.0
220
0.0
230
1.0
 40
0.2071254069489396
 41
0.0
 42
6.283185307179586
  0
LINE
  5
1DF0C
330
747D
100
AcDbEntity
  8
部品1
 48
50.0
100
AcDbLine
 10
6429.38452370851
 20
2089.4161018545
 30
0.0
 11
6469.38452370851
 21
2089.4161018545
 31
0.0
  0
LINE
  5
1DF0D
330
747D
100
AcDbEntity
  8
部品1
 48
50.0
100
AcDbLine
 10
6429.38452370851
 20
2129.4161018545
 30
0.0
 11
6469.38452370851
 21
2129.4161018545
 31
0.0
  0
LINE
  5
1DF0E
330
747D
100
AcDbEntity
  8
部品1
 48
50.0
100
AcDbLine
 10
6429.38452370851
 20
2149.4161018545
 30
0.0
 11
6469.38452370851
 21
2149.4161018545
 31
0.0
  0
TEXT
  5
1DF0F
330
747D
100
AcDbEntity
  8
部品1
 48
50.0
100
AcDbText
 10
5657.326902984145
 20
1878.995436696705
 30
0.0
 40
80.0
  1
※(別売)
  7
STYLE2
100
AcDbText
  0
LINE
  5
1DF10
330
747D
100
AcDbEntity
  8
細線
100
AcDbLine
 10
6606.032814307681
 20
1625.822000468073
 30
0.0
 11
6519.384523708509
 21
1539.173709868865
 31
0.0
  0
LINE
  5
1DF11
330
747D
100
AcDbEntity
  8
細線
100
AcDbLine
 10
6456.134523708509
 20
1637.772000468073
 30
0.0
 11
6456.134523708509
 21
1691.772000468073
 31
0.0
  0
LINE
  5
1DF12
330
747D
100
AcDbEntity
  8
細線
100
AcDbLine
 10
6442.634523708512
 20
1637.772000468073
 30
0.0
 11
6442.63452370851
 21
1691.772000468073
 31
0.0
  0
LINE
  5
1DF13
330
747D
100
AcDbEntity
  8
部品1
100
AcDbLine
 10
6438.13452370851
 20
1687.272000468073
 30
0.0
 11
6460.63452370851
 21
1687.272000468073
 31
0.0
  0
LINE
  5
1DF14
330
747D
100
AcDbEntity
  8
部品1
100
AcDbLine
 10
6442.63452370851
 20
1691.772000468073
 30
0.0
 11
6456.134523708509
 21
1691.772000468073
 31
0.0
  0
LINE
  5
1DF29
330
747D
100
AcDbEntity
  8
部品1
100
AcDbLine
 10
6420.134523708509
 20
1637.772000468073
 30
0.0
 11
6478.634523708503
 21
1637.772000468073
 31
0.0
  0
LINE
  5
1DF2A
330
747D
100
AcDbEntity
  8
部品1
100
AcDbLine
 10
6505.63452370851
 20
1322.072000468072
 30
0.0
 11
6505.63452370851
 21
1344.572000468072
 31
0.0
  0
LINE
  5
1DF2B
330
747D
100
AcDbEntity
  8
部品1
100
AcDbLine
 10
6460.63452370851
 20
1322.072000468072
 30
0.0
 11
6505.63452370851
 21
1322.072000468072
 31
0.0
  0
LINE
  5
1DF2C
330
747D
100
AcDbEntity
  8
部品1
100
AcDbLine
 10
6460.63452370851
 20
1344.572000468072
 30
0.0
 11
6505.63452370851
 21
1344.572000468072
 31
0.0
  0
ARC
  5
1DF2D
330
747D
100
AcDbEntity
  8
部品1
100
AcDbCircle
 10
6460.63452370851
 20
1344.572000468072
 30
0.0
 40
22.5
100
AcDbArc
 50
180.0
 51
270.0
  0
LINE
  5
1DF2E
330
747D
100
AcDbEntity
  8
細線
100
AcDbLine
 10
6639.782814307682
 20
1625.822000468073
 30
0.0
 11
6519.384523708509
 21
1505.423709868892
 31
0.0
  0
LINE
  5
1DF2F
330
747D
100
AcDbEntity
  8
部品1
100
AcDbLine
 10
6460.63452370851
 20
1344.572000468072
 30
0.0
 11
6460.634523708506
 21
1687.272000468073
 31
0.0
  0
LINE
  5
1DF30
330
747D
100
AcDbEntity
  8
部品1
100
AcDbLine
 10
6438.13452370851
 20
1344.572000468072
 30
0.0
 11
6438.134523708505
 21
1687.272000468073
 31
0.0
  0
LINE
  5
1DF32
330
747D
100
AcDbEntity
  8
細線
100
AcDbLine
 10
6673.532814307697
 20
1625.822000468073
 30
0.0
 11
6519.384523708509
 21
1471.673709868892
 31
0.0
  0
LINE
  5
1DF33
330
747D
100
AcDbEntity
  8
部品1
100
AcDbLine
 10
6707.884523708511
 20
1125.822000468071
 30
0.0
 11
6827.884523708509
 21
1125.822000468071
 31
0.0
  0
LINE
  5
1DF34
330
747D
100
AcDbEntity
  8
細線
100
AcDbLine
 10
6661.613365841285
 20
1005.822000468072
 30
0.0
 11
6715.20320432751
 21
805.8220004680716
 31
0.0
  0
LINE
  5
1DF35
330
747D
100
AcDbEntity
  8
細線
100
AcDbLine
 10
6789.185507915533
 20
949.5720004680716
 30
0.0
 11
6804.257649989789
 21
1005.822000468072
 31
0.0
  0
LINE
  5
1DF36
330
747D
100
AcDbEntity
  8
細線
100
AcDbLine
 10
6676.685507915533
 20
949.5720004680716
 30
0.0
 11
6691.757649989789
 21
1005.822000468072
 31
0.0
  0
LINE
  5
1DF37
330
747D
100
AcDbEntity
  8
細線
100
AcDbLine
 10
6774.113365841285
 20
1005.822000468072
 30
0.0
 11
6827.70320432751
 21
805.8220004680716
 31
0.0
  0
LINE
  5
1DF38
330
747D
100
AcDbEntity
  8
細線
100
AcDbLine
 10
6812.631062253259
 20
862.0720004680716
 30
0.0
 11
6797.558920179011
 21
805.8220004680716
 31
0.0
  0
LINE
  5
1DF39
330
747D
100
AcDbEntity
  8
細線
100
AcDbLine
 10
6700.13106225326
 20
862.0720004680716
 30
0.0
 11
6685.058920179011
 21
805.8220004680716
 31
0.0
  0
LINE
  5
1DF3B
330
747D
100
AcDbEntity
  8
部品1
100
AcDbLine
 10
6519.384523708509
 20
1265.822000468071
 30
0.0
 11
6379.38452370851
 21
1265.822000468071
 31
0.0
  0
LINE
  5
1DF3C
330
747D
100
AcDbEntity
  8
細線
100
AcDbLine
 10
6564.185507915533
 20
949.5720004680716
 30
0.0
 11
6579.257649989786
 21
1005.822000468072
 31
0.0
  0
LINE
  5
1DF3D
330
747D
100
AcDbEntity
  8
細線
100
AcDbLine
 10
6549.113365841285
 20
1005.822000468072
 30
0.0
 11
6602.70320432751
 21
805.8220004680716
 31
0.0
  0
LINE
  5
1DF3E
330
747D
100
AcDbEntity
  8
細線
100
AcDbLine
 10
6587.63106225326
 20
862.0720004680716
 30
0.0
 11
6572.558920179007
 21
805.8220004680716
 31
0.0
  0
LINE
  5
1DF3F
330
747D
100
AcDbEntity
  8
細線
100
AcDbLine
 10
6475.13106225326
 20
862.0720004680716
 30
0.0
 11
6460.058920179007
 21
805.8220004680716
 31
0.0
  0
LINE
  5
1DF40
330
747D
100
AcDbEntity
  8
細線
100
AcDbLine
 10
6339.185507915534
 20
949.5720004680716
 30
0.0
 11
6354.257649989786
 21
1005.822000468072
 31
0.0
  0
LINE
  5
1DF41
330
747D
100
AcDbEntity
  8
細線
100
AcDbLine
 10
6324.113365841285
 20
1005.822000468072
 30
0.0
 11
6377.703204327509
 21
805.8220004680716
 31
0.0
  0
LINE
  5
1DF42
330
747D
100
AcDbEntity
  8
細線
100
AcDbLine
 10
6362.631062253259
 20
862.0720004680716
 30
0.0
 11
6347.558920179007
 21
805.8220004680716
 31
0.0
  0
LINE
  5
1DF43
330
747D
100
AcDbEntity
  8
細線
100
AcDbLine
 10
6436.613365841285
 20
1005.822000468072
 30
0.0
 11
6490.20320432751
 21
805.8220004680716
 31
0.0
  0
LINE
  5
1DF44
330
747D
100
AcDbEntity
  8
細線
100
AcDbLine
 10
6451.685507915533
 20
949.5720004680716
 30
0.0
 11
6466.757649989786
 21
1005.822000468072
 31
0.0
  0
LINE
  5
1DF46
330
747D
100
AcDbEntity
  8
細線
100
AcDbLine
 10
6770.791794927609
 20
1125.822000468071
 30
0.0
 11
6650.791794927617
 21
1005.822000468072
 31
0.0
  0
LINE
  5
1DF47
330
747D
100
AcDbEntity
  8
細線
100
AcDbLine
 10
6737.041794927612
 20
1125.822000468071
 30
0.0
 11
6617.041794927615
 21
1005.822000468072
 31
0.0
  0
LINE
  5
1DF48
330
747D
100
AcDbEntity
  8
細線
100
AcDbLine
 10
6707.884523708511
 20
1130.414729248962
 30
0.0
 11
6583.291794927617
 21
1005.822000468072
 31
0.0
  0
LINE
  5
1DF49
330
747D
100
AcDbEntity
  8
細線
100
AcDbLine
 10
6707.884523708511
 20
1405.414729248971
 30
0.0
 11
6308.291794927619
 21
1005.822000468072
 31
0.0
  0
LINE
  5
1DF4A
330
747D
100
AcDbEntity
  8
細線
100
AcDbLine
 10
6707.884523708511
 20
1371.664729248959
 30
0.0
 11
6342.04179492762
 21
1005.822000468072
 31
0.0
  0
LINE
  5
1DF4B
330
747D
100
AcDbEntity
  8
細線
100
AcDbLine
 10
6707.884523708511
 20
1337.914729248964
 30
0.0
 11
6375.791794927613
 21
1005.822000468072
 31
0.0
  0
LINE
  5
1DF4E
330
747D
100
AcDbEntity
  8
部品1
100
AcDbLine
 10
6707.884523708511
 20
1125.822000468071
 30
0.0
 11
6707.884523708511
 21
1625.822000468073
 31
0.0
  0
LINE
  5
1DF57
330
747D
100
AcDbEntity
  8
Ｇ．Ｌ
100
AcDbLine
 10
6190.38452370851
 20
1425.822000468071
 30
0.0
 11
5452.895502853838
 21
1425.822000468071
 31
0.0
  0
LINE
  5
1DF58
330
747D
100
AcDbEntity
  8
部品1
100
AcDbLine
 10
6190.38452370851
 20
1125.822000468071
 30
0.0
 11
6070.38452370851
 21
1125.822000468071
 31
0.0
  0
LINE
  5
1DF59
330
747D
100
AcDbEntity
  8
細線
100
AcDbLine
 10
6114.185507915534
 20
949.5720004680716
 30
0.0
 11
6129.257649989786
 21
1005.822000468072
 31
0.0
  0
LINE
  5
1DF5A
330
747D
100
AcDbEntity
  8
細線
100
AcDbLine
 10
6226.685507915534
 20
949.5720004680716
 30
0.0
 11
6241.757649989786
 21
1005.822000468072
 31
0.0
  0
LINE
  5
1DF5B
330
747D
100
AcDbEntity
  8
細線
100
AcDbLine
 10
6099.113365841286
 20
1005.822000468072
 30
0.0
 11
6152.703204327509
 21
805.8220004680716
 31
0.0
  0
LINE
  5
1DF5C
330
747D
100
AcDbEntity
  8
細線
100
AcDbLine
 10
6137.631062253259
 20
862.0720004680716
 30
0.0
 11
6122.558920179007
 21
805.8220004680716
 31
0.0
  0
LINE
  5
1DF5E
330
747D
100
AcDbEntity
  8
部品1
100
AcDbLine
 10
6190.38452370851
 20
1125.822000468071
 30
0.0
 11
6190.38452370851
 21
1625.822000468073
 31
0.0
  0
LINE
  5
1DF5F
330
747D
100
AcDbEntity
  8
細線
100
AcDbLine
 10
6379.38452370851
 20
1399.173709868889
 30
0.0
 11
6190.38452370851
 21
1210.173709868897
 31
0.0
  0
LINE
  5
1DF60
330
747D
100
AcDbEntity
  8
細線
100
AcDbLine
 10
6379.38452370851
 20
1365.423709868893
 30
0.0
 11
6190.38452370851
 21
1176.423709868881
 31
0.0
  0
LINE
  5
1DF61
330
747D
100
AcDbEntity
  8
細線
100
AcDbLine
 10
6379.38452370851
 20
1331.673709868893
 30
0.0
 11
6190.38452370851
 21
1142.673709868888
 31
0.0
  0
LINE
  5
1DF62
330
747D
100
AcDbEntity
  8
部品1
100
AcDbLine
 10
6827.884523708509
 20
1005.822000468072
 30
0.0
 11
6070.38452370851
 21
1005.822000468072
 31
0.0
  0
LINE
  5
1DF63
330
747D
100
AcDbEntity
  8
部品1
100
AcDbLine
 10
6827.884523708509
 20
805.8220004680716
 30
0.0
 11
6070.38452370851
 21
805.8220004680716
 31
0.0
  0
LINE
  5
1DF64
330
747D
100
AcDbEntity
  8
細線
100
AcDbLine
 10
6211.613365841285
 20
1005.822000468072
 30
0.0
 11
6265.203204327509
 21
805.8220004680716
 31
0.0
  0
LINE
  5
1DF65
330
747D
100
AcDbEntity
  8
細線
100
AcDbLine
 10
6250.131062253259
 20
862.0720004680716
 30
0.0
 11
6235.058920179007
 21
805.8220004680716
 31
0.0
  0
LINE
  5
1DF66
330
747D
100
AcDbEntity
  8
細線
100
AcDbLine
 10
6379.38452370851
 20
1606.673709868887
 30
0.0
 11
6190.38452370851
 21
1417.673709868885
 31
0.0
  0
LINE
  5
1DF67
330
747D
100
AcDbEntity
  8
細線
100
AcDbLine
 10
6364.782814307694
 20
1625.822000468073
 30
0.0
 11
6190.38452370851
 21
1451.423709868891
 31
0.0
  0
LINE
  5
1DF68
330
747D
100
AcDbEntity
  8
細線
100
AcDbLine
 10
6331.032814307697
 20
1625.822000468073
 30
0.0
 11
6190.38452370851
 21
1485.173709868894
 31
0.0
  0
LINE
  5
1DF6A
330
747D
100
AcDbEntity
  8
部品1
100
AcDbLine
 10
6190.38452370851
 20
1625.822000468073
 30
0.0
 11
6707.884523708511
 21
1625.822000468071
 31
0.0
  0
TEXT
  5
1DF6B
330
747D
100
AcDbEntity
  8
部品1
 48
50.0
100
AcDbText
 10
6672.481432007457
 20
2005.77259773523
 30
0.0
 40
80.0
  1
基礎ボルト(市販品)
  7
STYLE2
100
AcDbText
  0
MTEXT
  5
1DF6C
102
{ACAD_REACTORS
330
1DF6D
102
}
330
747D
100
AcDbEntity
  8
部品1
 62
     7
 48
50.0
100
AcDbMText
 10
6678.220029676069
 20
1891.403404474016
 30
0.0
 40
80.0
 41
1.0
 71
     4
 72
     1
  1
M10X160
  7
STYLE2
 73
     1
 44
1.0
1001
ACAD
1000
MTEXTBEGIN
1070
    73
1070
     1
1070
    44
1040
1.0
1070
    74
1070
     0
1000
MTEXTEND
  0
LEADER
  5
1DF6D
330
747D
100
AcDbEntity
  8
寸法
 48
50.0
100
AcDbLeader
  3
INABA_S40G
 73
     0
 74
     0
 75
     1
 40
80.0
 41
435.0
 76
     3
 10
6456.134523708509
 20
1691.772000468073
 30
0.0
 10
6538.22002967607
 20
1811.403404474016
 30
0.0
 10
6638.22002967607
 20
1811.403404474016
 30
0.0
340
1DF6C
  0
MTEXT
  5
1DF6E
102
{ACAD_REACTORS
330
1DF6F
102
}
330
747D
100
AcDbEntity
  8
部品1
 62
     7
 48
50.0
100
AcDbMText
 10
6739.224011669559
 20
2271.606905774477
 30
0.0
 40
80.0
 41
1.0
 71
     4
 72
     1
  1
\A1;ワッシャー(市販品)
  7
STYLE2
 73
     1
 44
1.0
1001
ACAD
1000
MTEXTBEGIN
1070
    73
1070
     1
1070
    44
1040
1.0
1070
    74
1070
     0
1000
MTEXTEND
  0
LEADER
  5
1DF6F
330
747D
100
AcDbEntity
  8
寸法
 48
50.0
100
AcDbLeader
  3
INABA_S40G
 71
     0
 73
     0
 74
     0
 75
     1
 40
102.2727272727273
 41
906.8181818181818
 76
     3
 10
6499.38452370851
 20
1987.226111023421
 30
0.0
 10
6599.224011669559
 20
2180.470542138113
 30
0.0
 10
6699.22401166956
 20
2180.470542138113
 30
0.0
340
1DF6E
  0
MTEXT
  5
1DF70
102
{ACAD_REACTORS
330
1DF71
102
}
330
747D
100
AcDbEntity
  8
部品1
 62
     7
 48
50.0
100
AcDbMText
 10
6699.826987600207
 20
2499.014747433601
 30
0.0
 40
80.0
 41
1.0
 71
     4
 72
     1
  1
\A1;ナット(市販品)
  7
STYLE2
 73
     1
 44
1.0
1001
ACAD
1000
MTEXTBEGIN
1070
    73
1070
     1
1070
    44
1040
1.0
1070
    74
1070
     0
1000
MTEXTEND
  0
LEADER
  5
1DF71
330
747D
100
AcDbEntity
  8
寸法
 48
50.0
100
AcDbLeader
  3
INABA_S40G
 71
     0
 73
     0
 74
     0
 75
     1
 40
102.2727272727273
 41
680.0000000000001
 76
     3
 10
6469.38452370851
 20
2149.4161018545
 30
0.0
 10
6559.826987600207
 20
2407.878383797237
 30
0.0
 10
6659.826987600206
 20
2407.878383797237
 30
0.0
340
1DF70
  0
DIMENSION
  5
1DF72
330
747D
100
AcDbEntity
  8
寸法
 48
50.0
100
AcDbDimension
  2
*D19
 10
7335.220273419565
 20
1265.822000468072
 30
0.0
 11
7235.220273419566
 21
1445.822000468074
 31
0.0
 70
    32
  1
180
 71
     5
 42
360.0
  3
INABA_S40G
100
AcDbAlignedDimension
 13
6707.884523708511
 23
1625.822000468073
 33
0.0
 14
6707.884523708511
 24
1265.822000468072
 34
0.0
 50
90.0
100
AcDbRotatedDimension
  0
DIMENSION
  5
1DF73
330
747D
100
AcDbEntity
  8
寸法
 48
50.0
100
AcDbDimension
  2
*D18
 10
7591.616133368006
 20
1625.822000468073
 30
0.0
 11
7591.616133368006
 21
1159.813097046591
 31
0.0
 70
   160
  1
20～25
 71
     5
 42
65.94999999999959
  3
INABA_S40G
100
AcDbAlignedDimension
 13
6456.134523708509
 23
1691.772000468072
 33
0.0
 14
6707.884523708511
 24
1625.822000468073
 34
0.0
 50
90.0
100
AcDbRotatedDimension
  0
LINE
  5
1DF74
330
747D
100
AcDbEntity
  8
Ｇ．Ｌ
100
AcDbLine
 10
6707.884523708511
 20
1425.822000468071
 30
0.0
 11
7087.507210611524
 21
1425.822000468071
 31
0.0
  0
LINE
  5
1DFA8
330
747D
100
AcDbEntity
  8
部品1
100
AcDbLine
 10
5023.600000000004
 20
3015.868776534655
 30
0.0
 11
5023.600000000004
 21
200.0000033934011
 31
0.0
  0
MTEXT
  5
1DFA9
102
{ACAD_REACTORS
330
1DFAA
102
}
330
747D
100
AcDbEntity
  8
寸法
 62
     7
 48
50.0
100
AcDbMText
 10
6106.604433277336
 20
2074.527587533379
 30
0.0
 40
80.0
 41
1.0
 71
     6
 72
     1
  1
アンカープレート {\fArial|b0|i0|c0|p32;U}
  7
STYLE2
 73
     1
 44
1.0
1001
ACAD
1000
MTEXTBEGIN
1070
    73
1070
     1
1070
    44
1040
1.0
1070
    74
1070
     0
1000
MTEXTEND
  0
LEADER
  5
1DFAA
330
747D
100
AcDbEntity
  8
寸法
 48
50.0
100
AcDbLeader
  3
INABA_S40G
 71
     0
 73
     0
 75
     1
 40
106.3636363636363
 41
903.5235024184547
 76
     3
 10
6361.065304326857
 20
1713.772000468073
 30
0.0
 10
6246.604433277337
 20
1981.34576935156
 30
0.0
 10
6146.604433277336
 20
1981.34576935156
 30
0.0
340
1DFA9
  0
LINE
  5
1DFAB
330
747D
100
AcDbEntity
  8
部品1
100
AcDbLine
 10
11423.6
 20
3015.868776534655
 30
0.0
 11
5023.599999999994
 21
3015.868776534655
 31
0.0
  0
LINE
  5
1DFAC
330
747D
100
AcDbEntity
  8
部品1
100
AcDbLine
 10
11423.6
 20
2775.868776534655
 30
0.0
 11
5023.599999999994
 21
2775.868776534655
 31
0.0
  0
LINE
  5
1DFAD
330
747D
100
AcDbEntity
  8
部品1
100
AcDbLine
 10
5023.599999999997
 20
200.0000033934011
 30
0.0
 11
11423.6
 21
200.0000033934011
 31
0.0
  0
MTEXT
  5
1DFAE
102
{ACAD_REACTORS
330
1DFAF
102
}
330
747D
100
AcDbEntity
  8
寸法
 62
     7
 48
50.0
100
AcDbMText
 10
6135.495800085306
 20
2316.339803694342
 30
0.0
 40
80.0
 41
1.0
 71
     6
 72
     1
  1
\A1;φ70スリーブ
  7
STYLE2
 73
     1
 44
1.0
1001
ACAD
1000
MTEXTBEGIN
1070
    73
1070
     1
1070
    44
1040
1.0
1070
    74
1070
     0
1000
MTEXTEND
  0
LEADER
  5
1DFAF
330
747D
100
AcDbEntity
  8
寸法
 48
50.0
100
AcDbLeader
  3
INABA_S40G
 71
     0
 73
     0
 75
     1
 40
113.1818181818182
 41
608.6363636363635
 76
     3
 10
6413.864282602675
 20
1587.71659216592
 30
0.0
 10
6275.495800085305
 20
2219.748894603433
 30
0.0
 10
6175.495800085306
 20
2219.748894603433
 30
0.0
340
1DFAE
  0
LINE
  5
1E0FD
330
747D
100
AcDbEntity
  8
細線
100
AcDbLine
 10
8493.693949115753
 20
1325.82200046807
 30
0.0
 11
8480.296489494199
 21
1275.822000468071
 31
0.0
  0
LINE
  5
1E0FE
330
747D
100
AcDbEntity
  8
細線
100
AcDbLine
 10
8593.693949115758
 20
1325.82200046807
 30
0.0
 11
8580.296489494198
 21
1275.822000468071
 31
0.0
  0
LINE
  5
1E0FF
330
747D
100
AcDbEntity
  8
細線
100
AcDbLine
 10
8465.796059580673
 20
1325.82200046807
 30
0.0
 11
8565.796059580668
 21
1425.822000468071
 31
0.0
  0
LINE
  5
1E100
330
747D
100
AcDbEntity
  8
細線
100
AcDbLine
 10
8494.080330828131
 20
1325.82200046807
 30
0.0
 11
8594.080330828132
 21
1425.822000468071
 31
0.0
  0
LINE
  5
1E101
330
747D
100
AcDbEntity
  8
部品1
100
AcDbLine
 10
8566.899029872642
 20
1625.82200046807
 30
0.0
 11
8566.899029872642
 21
1425.822000468071
 31
0.0
  0
TEXT
  5
1E102
330
747D
100
AcDbEntity
  8
部品1
100
AcDbText
 10
5500.608540661352
 20
1444.11450312217
 30
0.0
 40
120.0
  1
▽G.L
  7
STYLE1
100
AcDbText
  0
LINE
  5
1E103
330
747D
100
AcDbEntity
  8
細線
100
AcDbLine
 10
8507.091408737313
 20
1175.82200046807
 30
0.0
 11
8493.693949115753
 21
1125.82200046807
 31
0.0
  0
LINE
  5
1E104
330
747D
100
AcDbEntity
  8
細線
100
AcDbLine
 10
8607.091408737309
 20
1175.82200046807
 30
0.0
 11
8593.693949115758
 21
1125.82200046807
 31
0.0
  0
LINE
  5
1E105
330
747D
100
AcDbEntity
  8
部品1
100
AcDbLine
 10
8666.899029872643
 20
1425.822000468071
 30
0.0
 11
8666.899029872643
 21
1125.82200046807
 31
0.0
  0
LINE
  5
1E106
330
747D
100
AcDbEntity
  8
細線
100
AcDbLine
 10
8466.899029872646
 20
1325.82200046807
 30
0.0
 11
8520.488868358865
 21
1125.822000468066
 31
0.0
  0
LINE
  5
1E107
330
747D
100
AcDbEntity
  8
細線
100
AcDbLine
 10
8566.899029872642
 20
1325.82200046807
 30
0.0
 11
8620.488868358865
 21
1125.82200046807
 31
0.0
  0
LINE
  5
1E108
330
747D
100
AcDbEntity
  8
細線
100
AcDbLine
 10
8393.693949115753
 20
1325.82200046807
 30
0.0
 11
8380.296489494202
 21
1275.822000468071
 31
0.0
  0
LINE
  5
1E109
330
747D
100
AcDbEntity
  8
細線
100
AcDbLine
 10
8293.693949115757
 20
1325.82200046807
 30
0.0
 11
8280.296489494197
 21
1275.822000468071
 31
0.0
  0
LINE
  5
1E10A
330
747D
100
AcDbEntity
  8
細線
100
AcDbLine
 10
8093.693949115753
 20
1325.822000468068
 30
0.0
 11
8080.296489494202
 21
1275.822000468066
 31
0.0
  0
LINE
  5
1E10B
330
747D
100
AcDbEntity
  8
細線
100
AcDbLine
 10
8193.693949115752
 20
1325.822000468068
 30
0.0
 11
8180.296489494198
 21
1275.822000468066
 31
0.0
  0
LINE
  5
1E10C
330
747D
100
AcDbEntity
  8
細線
100
AcDbLine
 10
8137.51178833321
 20
1325.822000468068
 30
0.0
 11
8237.511788333209
 21
1425.822000468071
 31
0.0
  0
LINE
  5
1E10D
330
747D
100
AcDbEntity
  8
細線
100
AcDbLine
 10
8165.796059580673
 20
1325.82200046807
 30
0.0
 11
8265.796059580669
 21
1425.822000468071
 31
0.0
  0
LINE
  5
1E10E
330
747D
100
AcDbEntity
  8
細線
100
AcDbLine
 10
8286.667067732105
 20
1425.822000468071
 30
0.0
 11
8166.899029872645
 21
1545.590038327531
 31
0.0
  0
LINE
  5
1E10F
330
747D
100
AcDbEntity
  8
細線
100
AcDbLine
 10
8194.080330828136
 20
1325.82200046807
 30
0.0
 11
8294.080330828132
 21
1425.822000468071
 31
0.0
  0
LINE
  5
1E110
330
747D
100
AcDbEntity
  8
細線
100
AcDbLine
 10
8329.093474603299
 20
1425.822000468071
 30
0.0
 11
8166.899029872643
 21
1588.016445198724
 31
0.0
  0
LINE
  5
1E111
330
747D
100
AcDbEntity
  8
部品1
100
AcDbLine
 10
8166.899029872645
 20
1425.822000468071
 30
0.0
 11
8166.899029872645
 21
1625.82200046807
 31
0.0
  0
LINE
  5
1E112
330
747D
100
AcDbEntity
  8
細線
100
AcDbLine
 10
8407.09140873731
 20
1175.82200046807
 30
0.0
 11
8393.693949115753
 21
1125.82200046807
 31
0.0
  0
LINE
  5
1E113
330
747D
100
AcDbEntity
  8
細線
100
AcDbLine
 10
8307.09140873731
 20
1175.82200046807
 30
0.0
 11
8293.693949115757
 21
1125.82200046807
 31
0.0
  0
LINE
  5
1E114
330
747D
100
AcDbEntity
  8
細線
100
AcDbLine
 10
8107.091408737309
 20
1175.822000468068
 30
0.0
 11
8093.693949115753
 21
1125.822000468066
 31
0.0
  0
LINE
  5
1E115
330
747D
100
AcDbEntity
  8
細線
100
AcDbLine
 10
8207.091408737312
 20
1175.822000468068
 30
0.0
 11
8193.693949115752
 21
1125.822000468066
 31
0.0
  0
LINE
  5
1E116
330
747D
100
AcDbEntity
  8
部品1
100
AcDbLine
 10
8066.899029872642
 20
1125.822000468066
 30
0.0
 11
8066.899029872642
 21
1425.822000468071
 31
0.0
  0
LINE
  5
1E117
330
747D
100
AcDbEntity
  8
細線
100
AcDbLine
 10
8066.899029872642
 20
1325.822000468068
 30
0.0
 11
8120.488868358869
 21
1125.822000468064
 31
0.0
  0
LINE
  5
1E118
330
747D
100
AcDbEntity
  8
細線
100
AcDbLine
 10
8366.899029872643
 20
1325.82200046807
 30
0.0
 11
8420.488868358869
 21
1125.822000468066
 31
0.0
  0
LINE
  5
1E119
330
747D
100
AcDbEntity
  8
細線
100
AcDbLine
 10
8266.899029872643
 20
1325.82200046807
 30
0.0
 11
8320.488868358864
 21
1125.822000468066
 31
0.0
  0
LINE
  5
1E11A
330
747D
100
AcDbEntity
  8
細線
100
AcDbLine
 10
8166.899029872645
 20
1325.822000468068
 30
0.0
 11
8220.488868358865
 21
1125.822000468064
 31
0.0
  0
LINE
  5
1E11B
330
747D
100
AcDbEntity
  8
部品1
100
AcDbLine
 10
8066.899029872642
 20
1125.822000468066
 30
0.0
 11
8666.899029872643
 21
1125.82200046807
 31
0.0
  0
LINE
  5
1E11C
330
747D
100
AcDbEntity
  8
部品1
100
AcDbLine
 10
8066.899029872642
 20
1325.822000468068
 30
0.0
 11
8666.899029872643
 21
1325.82200046807
 31
0.0
  0
LINE
  5
1E11D
330
747D
100
AcDbEntity
  8
部品1
100
AcDbLine
 10
8166.899029872645
 20
1625.82200046807
 30
0.0
 11
8566.899029872642
 21
1625.82200046807
 31
0.0
  0
LINE
  5
1E11E
330
747D
100
AcDbEntity
  8
Ｇ．Ｌ
100
AcDbLine
 10
7798.272432686502
 20
1425.822000468071
 30
0.0
 11
9024.158779715399
 21
1425.822000468071
 31
0.0
  0
LINE
  5
1E11F
330
747D
100
AcDbEntity
  8
細線
100
AcDbLine
 10
8555.367644582991
 20
1425.822000468071
 30
0.0
 11
8355.367644582996
 21
1625.82200046807
 31
0.0
  0
MTEXT
  5
1E120
102
{ACAD_REACTORS
330
1E121
102
}
330
747D
100
AcDbEntity
  8
寸法
 62
     7
 48
50.0
100
AcDbMText
 10
8625.197795332317
 20
1858.522515034414
 30
0.0
 40
120.0
 41
1.0
 71
     4
 72
     1
  1
\A1;C.B
  7
STYLE1
 73
     1
 44
1.0
1001
ACAD
1000
MTEXTBEGIN
1070
    73
1070
     1
1070
    44
1040
1.0
1070
    74
1070
     0
1000
MTEXTEND
  0
LEADER
  5
1E121
330
747D
100
AcDbEntity
  8
寸法
 48
50.0
100
AcDbLeader
  3
INABA_S40G
 71
     0
 73
     0
 74
     0
 75
     1
 40
120.0
 41
185.591883092037
 76
     3
 10
8452.817341849952
 20
1625.82200046807
 30
0.0
 10
8552.929521178704
 20
1758.522515034414
 30
0.0
 10
8652.929521178704
 20
1758.522515034414
 30
0.0
340
1E120
213
67.73172584638814
223
0.0
233
0.0
  0
LINE
  5
1E122
330
747D
100
AcDbEntity
  8
細線
100
AcDbLine
 10
8512.941237711798
 20
1425.822000468071
 30
0.0
 11
8312.941237711802
 21
1625.82200046807
 31
0.0
  0
LINE
  5
1E123
330
747D
100
AcDbEntity
  8
細線
100
AcDbLine
 10
8437.511788333209
 20
1325.82200046807
 30
0.0
 11
8537.511788333207
 21
1425.822000468071
 31
0.0
  0
LINE
  5
1E150
330
747D
100
AcDbEntity
  8
細線
100
AcDbLine
 10
6173.532814307693
 20
1125.822000468071
 30
0.0
 11
6070.38452370851
 21
1022.673709868885
 31
0.0
  0
LINE
  5
1E151
330
747D
100
AcDbEntity
  8
細線
100
AcDbLine
 10
6139.782814307704
 20
1125.822000468071
 30
0.0
 11
6070.38452370851
 21
1056.423709868873
 31
0.0
  0
LINE
  5
1E152
330
747D
100
AcDbEntity
  8
細線
100
AcDbLine
 10
6106.03281430768
 20
1125.822000468071
 30
0.0
 11
6070.38452370851
 21
1090.173709868903
 31
0.0
  0
LINE
  5
1E161
330
747D
100
AcDbEntity
  8
部品1
100
AcDbLine
 10
6070.38452370851
 20
805.8220004680716
 30
0.0
 11
6070.38452370851
 21
1125.822000468071
 31
0.0
  0
LINE
  5
1E162
330
747D
100
AcDbEntity
  8
部品1
100
AcDbLine
 10
6827.884523708509
 20
1125.822000468071
 30
0.0
 11
6827.884523708509
 21
805.8220004680716
 31
0.0
  0
LINE
  5
1E313
330
747D
100
AcDbEntity
  8
部品1
100
AcDbLine
 10
6307.984523708508
 20
1761.772000468072
 30
0.0
 11
6259.784523708507
 21
1761.772000468072
 31
0.0
  0
ARC
  5
1E314
330
747D
100
AcDbEntity
  8
部品1
100
AcDbCircle
 10
6307.984523708508
 20
1759.372000468072
 30
0.0
 40
2.399999999999999
100
AcDbArc
 50
0.000000000000007
 51
90.0
  0
LINE
  5
1E315
330
747D
100
AcDbEntity
  8
部品1
100
AcDbLine
 10
6209.384523708508
 20
1737.772000468072
 30
0.0
 11
6254.384523708508
 21
1737.772000468072
 31
0.0
  0
LINE
  5
1E316
330
747D
100
AcDbEntity
  8
部品1
100
AcDbLine
 10
6257.384523708508
 20
1759.372000468072
 30
0.0
 11
6257.384523708508
 21
1749.772000468072
 31
0.0
  0
LINE
  5
1E317
330
747D
100
AcDbEntity
  8
部品1
100
AcDbLine
 10
6257.384523708508
 20
1749.772000468072
 30
0.0
 11
6256.784523708507
 21
1749.772000468072
 31
0.0
  0
LINE
  5
1E318
330
747D
100
AcDbEntity
  8
部品1
100
AcDbLine
 10
6254.384523708508
 20
1747.372000468071
 30
0.0
 11
6254.384523708508
 21
1737.772000468072
 31
0.0
  0
ARC
  5
1E319
330
747D
100
AcDbEntity
  8
部品1
100
AcDbCircle
 10
6259.784523708507
 20
1759.372000468072
 30
0.0
 40
2.399999999999977
100
AcDbArc
 50
90.0
 51
180.0
  0
ARC
  5
1E31A
330
747D
100
AcDbEntity
  8
部品1
100
AcDbCircle
 10
6209.384523708508
 20
1735.772000468072
 30
0.0
 40
2.0
100
AcDbArc
 50
90.0
 51
180.0
  0
ARC
  5
1E31B
330
747D
100
AcDbEntity
  8
部品1
100
AcDbCircle
 10
6256.784523708507
 20
1747.372000468072
 30
0.0
 40
2.399999999999999
100
AcDbArc
 50
90.0
 51
180.0
  0
LINE
  5
1E31C
330
747D
100
AcDbEntity
  8
部品1
100
AcDbLine
 10
6197.38452370851
 20
1640.172000468072
 30
0.0
 11
6197.38452370851
 21
1719.943028140354
 31
0.0
  0
LINE
  5
1E31D
330
747D
100
AcDbEntity
  8
部品1
100
AcDbLine
 10
6213.384523708509
 20
1637.772000468072
 30
0.0
 11
6199.784523708508
 21
1637.772000468072
 31
0.0
  0
ARC
  5
1E31E
330
747D
100
AcDbEntity
  8
部品1
100
AcDbCircle
 10
6199.784523708509
 20
1640.172000468072
 30
0.0
 40
2.399999999999999
100
AcDbArc
 50
180.0
 51
270.0
  0
LINE
  5
1E31F
330
747D
100
AcDbEntity
  8
部品1
 48
0.5
100
AcDbLine
 10
6207.384523708508
 20
1725.77201084724
 30
0.0
 11
6199.331159101373
 21
1722.752017817165
 31
0.0
  0
ARC
  5
1E320
330
747D
100
AcDbEntity
  8
部品1
 48
0.5
100
AcDbCircle
 10
6200.38452370851
 20
1719.943028140354
 30
0.0
 40
3.0
100
AcDbArc
 50
110.5559285953913
 51
180.0
  0
LINE
  5
1E321
330
747D
100
AcDbEntity
  8
部品1
100
AcDbLine
 10
6354.984523708509
 20
1701.772000468072
 30
0.0
 11
6310.38452370851
 21
1701.772000468072
 31
0.0
  0
LINE
  5
1E322
330
747D
100
AcDbEntity
  8
部品1
100
AcDbLine
 10
6310.38452370851
 20
1701.772000468072
 30
0.0
 11
6310.38452370851
 21
1759.372000468072
 31
0.0
  0
LINE
  5
1E323
330
747D
100
AcDbEntity
  8
部品1
100
AcDbLine
 10
6207.384523708508
 20
1725.77201084724
 30
0.0
 11
6207.384523708508
 21
1735.772000468072
 31
0.0
  0
LINE
  5
1E324
330
747D
100
AcDbEntity
  8
部品1
100
AcDbLine
 10
6357.38452370851
 20
1640.172000468072
 30
0.0
 11
6357.38452370851
 21
1699.372000468073
 31
0.0
  0
ARC
  5
1E325
330
747D
100
AcDbEntity
  8
部品1
100
AcDbCircle
 10
6354.984523708509
 20
1699.372000468073
 30
0.0
 40
2.399999999999999
100
AcDbArc
 50
0.000000000000007
 51
90.0
  0
LINE
  5
1E326
330
747D
100
AcDbEntity
  8
部品1
100
AcDbLine
 10
6341.38452370851
 20
1637.772000468072
 30
0.0
 11
6354.984523708509
 21
1637.772000468072
 31
0.0
  0
ARC
  5
1E327
330
747D
100
AcDbEntity
  8
部品1
100
AcDbCircle
 10
6354.984523708509
 20
1640.172000468072
 30
0.0
 40
2.399999999999999
100
AcDbArc
 50
270.0
 51
0.000000000000007
  0
LINE
  5
1E32A
330
747D
100
AcDbEntity
  8
部品1
 48
50.0
100
AcDbLine
 10
6328.78452370851
 20
1693.772000468073
 30
0.0
 11
6328.78452370851
 21
1709.172000468074
 31
0.0
  0
LINE
  5
1E32B
330
747D
100
AcDbEntity
  8
部品1
 48
50.0
100
AcDbLine
 10
6333.38452370851
 20
1713.772000468073
 30
0.0
 11
6364.784523708509
 21
1713.772000468073
 31
0.0
  0
LINE
  5
1E32C
330
747D
100
AcDbEntity
  8
部品1
 48
50.0
100
AcDbLine
 10
6369.38452370851
 20
1709.172000468074
 30
0.0
 11
6369.38452370851
 21
1642.372000468073
 31
0.0
  0
LINE
  5
1E32D
330
747D
100
AcDbEntity
  8
部品1
 48
50.0
100
AcDbLine
 10
6373.98452370851
 20
1637.772000468073
 30
0.0
 11
6669.38452370851
 21
1637.772000468073
 31
0.0
  0
ARC
  5
1E32E
330
747D
100
AcDbEntity
  8
部品1
 48
50.0
100
AcDbCircle
 10
6373.98452370851
 20
1642.372000468073
 30
0.0
 40
4.599999999999999
100
AcDbArc
 50
180.0
 51
270.0
  0
ARC
  5
1E32F
330
747D
100
AcDbEntity
  8
部品1
 48
50.0
100
AcDbCircle
 10
6364.784523708509
 20
1709.172000468074
 30
0.0
 40
4.599999999999999
100
AcDbArc
 50
359.9999999999999
 51
90.0
  0
ARC
  5
1E330
330
747D
100
AcDbEntity
  8
部品1
 48
50.0
100
AcDbCircle
 10
6333.38452370851
 20
1709.172000468074
 30
0.0
 40
4.599999999999999
100
AcDbArc
 50
90.0
 51
180.0
  0
LINE
  5
1E340
330
747D
100
AcDbEntity
  8
部品1
 48
50.0
100
AcDbLine
 10
6519.384523708509
 20
1625.822000468071
 30
0.0
 11
6519.384523708509
 21
1265.822000468071
 31
0.0
  0
LINE
  5
1E341
330
747D
100
AcDbEntity
  8
部品1
 48
50.0
100
AcDbLine
 10
6379.38452370851
 20
1625.822000468071
 30
0.0
 11
6379.38452370851
 21
1265.822000468071
 31
0.0
  0
LINE
  5
1E3BC
330
747D
100
AcDbEntity
  8
部品1
100
AcDbLine
 10
11423.6
 20
3015.868776534655
 30
0.0
 11
11423.6
 21
200.0000033934011
 31
0.0
  0
MTEXT
  5
1E700
102
{ACAD_REACTORS
330
1E701
102
}
330
747D
100
AcDbEntity
  8
部品1
 62
     7
 48
50.0
100
AcDbMText
 10
10486.01226804471
 20
7345.944479920793
 30
0.0
 40
120.0
 41
0.0
 71
     6
 72
     1
  1
基礎ボルト芯
  7
STYLE1
 73
     1
 44
1.0
1001
ACAD
1000
MTEXTBEGIN
1070
    73
1070
     1
1070
    44
1040
1.0
1070
    74
1070
     0
1000
MTEXTEND
  0
LEADER
  5
1E701
330
747D
100
AcDbEntity
  8
寸法
 48
50.0
100
AcDbLeader
  3
INABA_S40G
 71
     0
 73
     0
 74
     0
 75
     1
 40
120.0
 41
846.0000000000002
 76
     3
 10
9313.195288608607
 20
6979.919036112841
 30
0.0
 10
9500.012268044715
 20
7245.944479920793
 30
0.0
 10
9600.012268044714
 20
7245.944479920793
 30
0.0
340
1E700
  0
DIMENSION
  5
1E96D
330
747D
100
AcDbEntity
  8
寸法
 48
50.0
100
AcDbDimension
  2
*D20
 10
8955.627592017743
 20
7102.91903611286
 30
0.0
 11
8855.627592017741
 21
6757.919036112861
 31
0.0
 70
    32
 71
     5
 42
690.0
  3
INABA_S40G
100
AcDbAlignedDimension
 13
8682.695288608607
 23
6412.919036112859
 33
0.0
 14
8773.695288608607
 24
7102.91903611286
 34
0.0
 50
90.0
100
AcDbRotatedDimension
  0
DIMENSION
  5
1E98B
330
747D
100
AcDbEntity
  8
寸法
 48
50.0
100
AcDbDimension
  2
*D21
 10
8977.667280741925
 20
6412.919036112859
 30
0.0
 11
8977.667280741924
 21
6072.046770327164
 31
0.0
 70
   160
 71
     5
 42
689.9999999999908
  3
INABA_S40G
100
AcDbAlignedDimension
 13
8773.695288608607
 23
5722.919036112869
 33
0.0
 14
8682.695288608607
 24
6412.919036112859
 34
0.0
 50
90.0
100
AcDbRotatedDimension
  0
LINE
  5
1E98F
330
747D
100
AcDbEntity
  8
センター
 48
2.0
100
AcDbLine
 10
8583.195288608607
 20
6412.919036112859
 30
0.0
 11
8683.195288608606
 21
6412.919036112859
 31
0.0
  0
LINE
  5
1E993
330
747D
100
AcDbEntity
  8
センター
 48
2.0
100
AcDbLine
 10
8633.195288608607
 20
6462.919036112859
 30
0.0
 11
8633.195288608607
 21
6362.91903611286
 31
0.0
  0
MTEXT
  5
1F11B
102
{ACAD_REACTORS
330
1F11C
102
}
330
747D
100
AcDbEntity
  8
部品1
 62
     7
 48
50.0
100
AcDbMText
 10
10506.4324752131
 20
6117.901644153069
 30
0.0
 40
120.0
 41
0.0
 71
     6
 72
     1
  1
床下換気口
  7
STYLE1
 73
     1
 44
1.0
1001
ACAD
1000
MTEXTBEGIN
1070
    73
1070
     1
1070
    44
1040
1.0
1070
    74
1070
     0
1000
MTEXTEND
  0
LEADER
  5
1F11C
330
747D
100
AcDbEntity
  8
寸法
 48
50.0
100
AcDbLeader
  3
INABA_S40G
 71
     0
 73
     0
 74
     0
 75
     1
 40
120.0
 41
720.0000000000001
 76
     3
 10
9436.195288608606
 20
6412.91903611286
 30
0.0
 10
9646.432475213101
 20
6017.901644153069
 30
0.0
 10
9746.432475213101
 20
6017.901644153069
 30
0.0
340
1F11B
  0
DIMENSION
  5
1F248
330
747D
100
AcDbEntity
  8
寸法
 48
50.0
100
AcDbDimension
  2
*D23
 10
8633.195288608607
 20
7628.724748491958
 30
0.0
 11
9022.522320073607
 21
7628.724748491958
 31
0.0
 70
   160
 71
     5
 42
803.0
  3
INABA_S40G
100
AcDbAlignedDimension
 13
9436.195288608606
 23
7102.919036112843
 33
0.0
 14
8633.195288608607
 24
6512.919036112859
 34
0.0
100
AcDbRotatedDimension
  0
DIMENSION
  5
1F249
330
747D
100
AcDbEntity
  8
寸法
 48
50.0
100
AcDbDimension
  2
*D22
 10
6376.195288608608
 20
7629.828801761171
 30
0.0
 11
6777.695288608608
 21
7729.828801761171
 31
0.0
 70
    32
 71
     5
 42
802.999999999999
  3
INABA_S40G
100
AcDbAlignedDimension
 13
7179.195288608607
 23
6512.919036112859
 33
0.0
 14
6376.195288608608
 24
7102.919036112843
 34
0.0
100
AcDbRotatedDimension
  0
LINE
  5
1F813
330
747D
100
AcDbEntity
  8
想像線
 48
10.0
100
AcDbLine
 10
6334.195288608607
 20
7177.919036112841
 30
0.0
 11
6331.195288608607
 21
7174.919036112841
 31
0.0
  0
LINE
  5
1F816
330
747D
100
AcDbEntity
  8
部品1
 48
50.0
100
AcDbLine
 10
6376.195288608608
 20
5725.919036112856
 30
0.0
 11
6379.195288608607
 21
5722.919036112855
 31
0.0
  0
LINE
  5
1F817
330
747D
100
AcDbEntity
  8
想像線
 48
10.0
100
AcDbLine
 10
6331.195288608607
 20
5670.919036112861
 30
0.0
 11
6334.195288608607
 21
5667.919036112861
 31
0.0
  0
DIMENSION
  5
1F9A7
330
747D
100
AcDbEntity
  8
寸法
 48
50.0
100
AcDbDimension
  2
*D24
 10
8633.195288608607
 20
7629.828801761171
 30
0.0
 11
8269.695288608607
 21
7729.840612784792
 31
0.0
 70
    32
 71
     5
 42
727.0000000000009
  3
INABA_S40G
100
AcDbAlignedDimension
 13
7906.195288608606
 23
6512.919036112859
 33
0.0
 14
8633.195288608607
 24
6512.919036112859
 34
0.0
100
AcDbRotatedDimension
  0
LINE
  5
1FA12
330
747D
100
AcDbEntity
  8
寸法
 48
50.0
100
AcDbLine
 10
9316.195288608607
 20
6602.91903611285
 30
0.0
 11
9316.195288608607
 21
6504.422404093434
 31
0.0
  0
LEADER
  5
1FA71
330
747D
100
AcDbEntity
  8
寸法
 48
50.0
100
AcDbLeader
  3
INABA_S40G
 71
     0
 73
     0
 75
     1
 40
120.0
 41
185.591883092037
 76
     3
 10
8615.789857026801
 20
6337.490509905554
 30
0.0
 10
8538.464365246261
 20
6244.697104093123
 30
0.0
 10
8438.464365246259
 20
6244.697104093123
 30
0.0
340
1FA72
210
0.0
220
0.0
230
-1.0
213
-42.79594154601909
223
-42.66026254335156
233
0.0
  0
MTEXT
  5
1FA72
102
{ACAD_REACTORS
330
1FA71
102
}
330
747D
100
AcDbEntity
  8
部品1
 62
     7
 48
50.0
100
AcDbMText
 10
8441.260306792278
 20
6307.357366636476
 30
0.0
 40
120.0
 41
0.0
 71
     6
 72
     1
  1
\A1;C.B
  7
STYLE1
 73
     1
 44
1.0
1001
ACAD
1000
MTEXTBEGIN
1070
    73
1070
     1
1070
    44
1040
1.0
1070
    74
1070
     0
1000
MTEXTEND
  0
LINE
  5
1FF48
330
747D
100
AcDbEntity
  8
部品1
 48
50.0
100
AcDbLine
 10
8733.195288608607
 20
6512.919036112859
 30
0.0
 11
8533.195288608608
 21
6512.919036112859
 31
0.0
  0
LINE
  5
1FF49
330
747D
100
AcDbEntity
  8
部品1
 48
50.0
100
AcDbLine
 10
8733.195288608607
 20
6312.919036112858
 30
0.0
 11
8733.195288608607
 21
6512.919036112859
 31
0.0
  0
LINE
  5
1FF4A
330
747D
100
AcDbEntity
  8
部品1
 48
50.0
100
AcDbLine
 10
8733.195288608607
 20
6312.919036112858
 30
0.0
 11
8533.195288608608
 21
6312.919036112858
 31
0.0
  0
LINE
  5
1FF4B
330
747D
100
AcDbEntity
  8
部品1
 48
50.0
100
AcDbLine
 10
8533.195288608608
 20
6312.919036112859
 30
0.0
 11
8533.195288608608
 21
6512.919036112859
 31
0.0
  0
LINE
  5
1FF5E
330
747D
100
AcDbEntity
  8
部品1
 48
50.0
100
AcDbLine
 10
7079.195288608606
 20
6312.919036112859
 30
0.0
 11
7079.195288608606
 21
6512.919036112859
 31
0.0
  0
LINE
  5
1FF5F
330
747D
100
AcDbEntity
  8
部品1
 48
50.0
100
AcDbLine
 10
7279.195288608606
 20
6312.919036112858
 30
0.0
 11
7079.195288608606
 21
6312.919036112858
 31
0.0
  0
LINE
  5
1FF60
330
747D
100
AcDbEntity
  8
部品1
 48
50.0
100
AcDbLine
 10
7279.195288608606
 20
6312.919036112858
 30
0.0
 11
7279.195288608606
 21
6512.919036112859
 31
0.0
  0
LINE
  5
1FF61
330
747D
100
AcDbEntity
  8
部品1
 48
50.0
100
AcDbLine
 10
7279.195288608606
 20
6512.919036112859
 30
0.0
 11
7079.195288608606
 21
6512.919036112859
 31
0.0
  0
LINE
  5
1FF62
330
747D
100
AcDbEntity
  8
センター
 48
2.0
100
AcDbLine
 10
7179.195288608607
 20
6462.919036112859
 30
0.0
 11
7179.195288608607
 21
6362.91903611286
 31
0.0
  0
LINE
  5
1FF63
330
747D
100
AcDbEntity
  8
センター
 48
2.0
100
AcDbLine
 10
7129.195288608606
 20
6412.919036112859
 30
0.0
 11
7229.195288608607
 21
6412.919036112859
 31
0.0
  0
LINE
  5
20531
330
747D
100
AcDbEntity
  8
センター
 48
2.0
100
AcDbLine
 10
7906.195288608606
 20
6462.919036112859
 30
0.0
 11
7906.195288608606
 21
6362.91903611286
 31
0.0
  0
LINE
  5
20533
330
747D
100
AcDbEntity
  8
センター
 48
2.0
100
AcDbLine
 10
7856.195288608606
 20
6412.919036112859
 30
0.0
 11
7956.195288608606
 21
6412.919036112859
 31
0.0
  0
LINE
  5
20535
330
747D
100
AcDbEntity
  8
部品1
 48
50.0
100
AcDbLine
 10
8006.195288608607
 20
6512.919036112859
 30
0.0
 11
7806.195288608606
 21
6512.919036112859
 31
0.0
  0
LINE
  5
20536
330
747D
100
AcDbEntity
  8
部品1
 48
50.0
100
AcDbLine
 10
8006.195288608607
 20
6312.919036112858
 30
0.0
 11
8006.195288608607
 21
6512.919036112859
 31
0.0
  0
LINE
  5
20537
330
747D
100
AcDbEntity
  8
部品1
 48
50.0
100
AcDbLine
 10
8006.195288608607
 20
6312.919036112858
 30
0.0
 11
7806.195288608606
 21
6312.919036112858
 31
0.0
  0
LINE
  5
20538
330
747D
100
AcDbEntity
  8
部品1
 48
50.0
100
AcDbLine
 10
7806.195288608606
 20
6312.919036112859
 30
0.0
 11
7806.195288608606
 21
6512.919036112859
 31
0.0
  0
DIMENSION
  5
20542
330
747D
100
AcDbEntity
  8
寸法
 48
50.0
100
AcDbDimension
  2
*D25
 10
7906.195288608607
 20
7629.828801761171
 30
0.0
 11
7542.695288608607
 21
7729.840612784792
 31
0.0
 70
    32
 71
     5
 42
727.0000000000009
  3
INABA_S40G
100
AcDbAlignedDimension
 13
7179.195288608607
 23
6512.919036112859
 33
0.0
 14
7906.195288608607
 24
6512.919036112859
 34
0.0
100
AcDbRotatedDimension
  0
LINE
  5
205C4
330
747D
100
AcDbEntity
  8
部品1
 48
50.0
100
AcDbLine
 10
9316.195288608607
 20
6022.919036112879
 30
0.0
 11
9316.195288608607
 21
6872.919036112843
 31
0.0
  0
LINE
  5
205C5
330
747D
100
AcDbEntity
  8
細線
 48
50.0
100
AcDbLine
 10
9316.195288608607
 20
6467.509306142523
 30
0.0
 11
9361.605018578925
 21
6512.919036112844
 31
0.0
  0
LINE
  5
205C6
330
747D
100
AcDbEntity
  8
細線
 48
50.0
100
AcDbLine
 10
9316.195288608607
 20
6422.608025537178
 30
0.0
 11
9406.50629918427
 21
6512.91903611284
 31
0.0
  0
LINE
  5
205C7
330
747D
100
AcDbEntity
  8
細線
 48
50.0
100
AcDbLine
 10
9316.195288608607
 20
6377.706744931834
 30
0.0
 11
9436.195288608606
 21
6497.706744931836
 31
0.0
  0
LINE
  5
205C8
330
747D
100
AcDbEntity
  8
細線
 48
50.0
100
AcDbLine
 10
9316.195288608607
 20
6332.805464326487
 30
0.0
 11
9436.195288608608
 21
6452.805464326488
 31
0.0
  0
LINE
  5
205C9
330
747D
100
AcDbEntity
  8
細線
 48
50.0
100
AcDbLine
 10
9341.210141000305
 20
6312.919036112839
 30
0.0
 11
9436.195288608606
 21
6407.904183721142
 31
0.0
  0
LINE
  5
205CA
330
747D
100
AcDbEntity
  8
細線
 48
50.0
100
AcDbLine
 10
9386.111421605653
 20
6312.91903611284
 30
0.0
 11
9436.195288608606
 21
6363.002903115797
 31
0.0
  0
LINE
  5
205CB
330
747D
100
AcDbEntity
  8
細線
 48
50.0
100
AcDbLine
 10
9431.012702210999
 20
6312.91903611284
 30
0.0
 11
9436.195288608608
 21
6318.10162251045
 31
0.0
  0
LINE
  5
205CD
330
747D
100
AcDbEntity
  8
細線
 48
50.0
100
AcDbLine
 10
9316.195288608607
 20
6512.410586747868
 30
0.0
 11
9316.703737973583
 21
6512.919036112844
 31
0.0
  0
LINE
  5
205ED
330
747D
100
AcDbEntity
  8
細線
 48
50.0
100
AcDbLine
 10
7806.195288608607
 20
7099.646443697562
 30
0.0
 11
7809.467881023889
 21
7102.919036112841
 31
0.0
  0
LINE
  5
205EE
330
747D
100
AcDbEntity
  8
細線
 48
50.0
100
AcDbLine
 10
7806.195288608607
 20
7054.745163092213
 30
0.0
 11
7854.369161629233
 21
7102.919036112841
 31
0.0
  0
LINE
  5
205EF
330
747D
100
AcDbEntity
  8
細線
 48
50.0
100
AcDbLine
 10
7806.195288608607
 20
7009.843882486869
 30
0.0
 11
7899.27044223458
 21
7102.919036112843
 31
0.0
  0
LINE
  5
205F0
330
747D
100
AcDbEntity
  8
細線
 48
50.0
100
AcDbLine
 10
7824.171722839925
 20
6982.919036112843
 30
0.0
 11
7944.171722839927
 21
7102.919036112843
 31
0.0
  0
LINE
  5
205F1
330
747D
100
AcDbEntity
  8
細線
 48
50.0
100
AcDbLine
 10
7869.073003445271
 20
6982.919036112843
 30
0.0
 11
7989.073003445273
 21
7102.919036112843
 31
0.0
  0
LINE
  5
205F2
330
747D
100
AcDbEntity
  8
細線
 48
50.0
100
AcDbLine
 10
7913.974284050617
 20
6982.919036112841
 30
0.0
 11
8006.195288608608
 21
7075.140040670831
 31
0.0
  0
LINE
  5
205F3
330
747D
100
AcDbEntity
  8
細線
 48
50.0
100
AcDbLine
 10
7958.875564655965
 20
6982.919036112843
 30
0.0
 11
8006.195288608607
 21
7030.238760065486
 31
0.0
  0
LINE
  5
20612
330
747D
100
AcDbEntity
  8
細線
 48
50.0
100
AcDbLine
 10
6376.195288608606
 20
6487.509306142522
 30
0.0
 11
6401.605018578926
 21
6512.919036112844
 31
0.0
  0
LINE
  5
20613
330
747D
100
AcDbEntity
  8
細線
 48
50.0
100
AcDbLine
 10
6376.195288608606
 20
6442.608025537177
 30
0.0
 11
6446.506299184271
 21
6512.919036112842
 31
0.0
  0
LINE
  5
20614
330
747D
100
AcDbEntity
  8
細線
 48
50.0
100
AcDbLine
 10
6376.195288608606
 20
6397.706744931831
 30
0.0
 11
6491.407579789617
 21
6512.919036112842
 31
0.0
  0
LINE
  5
20615
330
747D
100
AcDbEntity
  8
細線
 48
50.0
100
AcDbLine
 10
6376.195288608606
 20
6352.805464326485
 30
0.0
 11
6496.195288608608
 21
6472.80546432649
 31
0.0
  0
LINE
  5
20616
330
747D
100
AcDbEntity
  8
細線
 48
50.0
100
AcDbLine
 10
6381.210141000305
 20
6312.919036112839
 30
0.0
 11
6496.195288608608
 21
6427.904183721143
 31
0.0
  0
LINE
  5
20617
330
747D
100
AcDbEntity
  8
細線
 48
50.0
100
AcDbLine
 10
6426.111421605654
 20
6312.919036112842
 30
0.0
 11
6496.195288608608
 21
6383.002903115795
 31
0.0
  0
LINE
  5
20618
330
747D
100
AcDbEntity
  8
細線
 48
50.0
100
AcDbLine
 10
6471.012702211003
 20
6312.919036112845
 30
0.0
 11
6496.195288608608
 21
6338.101622510453
 31
0.0
  0
LINE
  5
206BF
102
{ACAD_REACTORS
330
207A8
102
}
330
747D
100
AcDbEntity
  8
Ｇ．Ｌ
100
AcDbLine
 10
9746.093179817595
 20
1425.822000468071
 30
0.0
 11
10766.37297089528
 21
1425.821998130963
 31
0.0
  0
TEXT
  5
206C0
102
{ACAD_REACTORS
330
207A8
102
}
330
747D
100
AcDbEntity
  8
部品1
 48
50.0
100
AcDbText
 10
9746.09316722937
 20
1437.060990414217
 30
0.0
 40
80.0
  1
▽G.L
  7
STYLE2
100
AcDbText
  0
DIMENSION
  5
206C1
102
{ACAD_REACTORS
330
207A8
102
}
330
747D
100
AcDbEntity
  8
寸法
 48
50.0
100
AcDbDimension
  2
*D26
 10
9889.812755329868
 20
881.8219981309621
 30
0.0
 11
9889.812755329868
 21
1001.821998130964
 31
0.0
 70
   160
  1
150
 71
     5
 42
240.0000000000001
  3
INABA_S40G
100
AcDbAlignedDimension
 13
10032.23306906233
 23
1121.821998130962
 33
0.0
 14
9952.233069062332
 24
881.8219981309621
 34
0.0
 50
90.0
100
AcDbRotatedDimension
  0
LEADER
  5
206C2
102
{ACAD_REACTORS
330
207A8
102
}
330
747D
100
AcDbEntity
  8
寸法
 48
50.0
100
AcDbLeader
  3
INABA_S40G
 71
     0
 73
     0
 75
     1
 40
100.0
 41
225.0
 76
     3
 10
10128.13602141447
 20
1001.821998130962
 30
0.0
 10
9981.298042867132
 20
738.2993045125259
 30
0.0
 10
9881.298042867133
 20
738.2993045125259
 30
0.0
  0
LEADER
  5
206C3
102
{ACAD_REACTORS
330
207A8
102
}
330
747D
100
AcDbEntity
  8
寸法
 48
50.0
100
AcDbLeader
  3
INABA_S40G
 71
     0
 73
     0
 75
     1
 40
100.0
 41
222.7272727272727
 76
     3
 10
10256.23306906233
 20
1001.821998130962
 30
0.0
 10
10009.42077042457
 20
557.9831519730824
 30
0.0
 10
9909.420770424567
 20
557.9831519730824
 30
0.0
  0
MTEXT
  5
206C4
102
{ACAD_REACTORS
330
206C5
330
207A8
102
}
330
747D
100
AcDbEntity
  8
寸法
 62
     7
 48
50.0
100
AcDbMText
 10
10070.98301483952
 20
1267.122600948419
 30
0.0
 40
80.0
 41
0.8
 71
     6
 72
     1
  1
\A1;D10@300
  7
STYLE2
 73
     1
 44
1.0
1001
ACAD
1000
MTEXTBEGIN
1070
    73
1070
     1
1070
    44
1040
1.0
1070
    74
1070
     0
1000
MTEXTEND
  0
LEADER
  5
206C5
102
{ACAD_REACTORS
330
207A8
102
}
330
747D
100
AcDbEntity
  8
寸法
 48
50.0
100
AcDbLeader
  3
INABA_S40G
 71
     0
 73
     0
 75
     1
 40
100.0
 41
540.3409090909091
 76
     3
 10
10264.23306906232
 20
1423.949212828085
 30
0.0
 10
10181.25083253363
 20
1202.47888428728
 30
0.0
 10
10081.25083253363
 20
1202.47888428728
 30
0.0
213
-9.732182305893367
223
-4.643716661138569
233
0.0
  0
LEADER
  5
206C6
102
{ACAD_REACTORS
330
207A8
102
}
330
747D
100
AcDbEntity
  8
寸法
 48
50.0
100
AcDbLeader
  3
INABA_S40G
 71
     0
 73
     0
 75
     1
 40
130.1136363636363
 41
651.1363636363636
 76
     3
 10
10240.23306906232
 20
1665.821998130962
 30
0.0
 10
10102.80848889831
 20
1806.29276358755
 30
0.0
 10
10002.80848889831
 20
1806.29276358755
 30
0.0
  0
MTEXT
  5
206C7
102
{ACAD_REACTORS
330
206C6
330
207A8
102
}
330
747D
100
AcDbEntity
  8
寸法
 62
     7
 48
50.0
100
AcDbMText
 10
9940.134589579054
 20
1878.338218133004
 30
0.0
 40
80.0
 41
0.8
 71
     6
 72
     1
  1
\A1;金コテ押エ
  7
STYLE2
 73
     1
 44
1.0
1001
ACAD
1000
MTEXTBEGIN
1070
    73
1070
     1
1070
    44
1040
1.0
1070
    74
1070
     0
1000
MTEXTEND
  0
DIMENSION
  5
206C8
102
{ACAD_REACTORS
330
207A8
102
}
330
747D
100
AcDbEntity
  8
寸法
 48
50.0
100
AcDbDimension
  2
*D27
 10
9425.195830500587
 20
881.8219981309622
 30
0.0
 11
9425.195830500587
 21
1253.362147786963
 31
0.0
 70
   160
  1
540
 71
     5
 42
784.0000000000001
  3
INABA_S40G
100
AcDbAlignedDimension
 13
10160.23306906232
 23
1665.821998130962
 33
0.0
 14
9952.233069062332
 24
881.8219981309621
 34
0.0
 50
90.0
100
AcDbRotatedDimension
  0
MTEXT
  5
206C9
102
{ACAD_REACTORS
330
206C3
330
207A8
102
}
330
747D
100
AcDbEntity
  8
寸法
 62
     7
 48
50.0
100
AcDbMText
 10
9889.420770424568
 20
617.9831519730823
 30
0.0
 40
80.0
 41
0.8
 71
     6
 72
     1
  1
D13
  7
STYLE2
 73
     1
 44
1.0
1001
ACAD
1000
MTEXTBEGIN
1070
    73
1070
     1
1070
    44
1040
1.0
1070
    74
1070
     0
1000
MTEXTEND
  0
MTEXT
  5
206CA
102
{ACAD_REACTORS
330
206C2
330
207A8
102
}
330
747D
100
AcDbEntity
  8
寸法
 62
     7
 48
50.0
100
AcDbMText
 10
9861.298042867133
 20
798.2993045125258
 30
0.0
 40
80.0
 41
0.8
 71
     6
 72
     1
  1
D10
  7
STYLE2
 73
     1
 44
1.0
1001
ACAD
1000
MTEXTBEGIN
1070
    73
1070
     1
1070
    44
1040
1.0
1070
    74
1070
     0
1000
MTEXTEND
  0
DIMENSION
  5
206CB
102
{ACAD_REACTORS
330
207A8
102
}
330
747D
100
AcDbEntity
  8
寸法
 48
50.0
100
AcDbDimension
  2
*D28
 10
10480.23306906233
 20
343.392360125802
 30
0.0
 11
10236.1363103841
 21
343.392360125802
 31
0.0
 70
   160
  1
300
 71
     5
 42
448.0
  3
INABA_S40G
100
AcDbAlignedDimension
 13
10032.23306906233
 23
753.8219981309621
 33
0.0
 14
10480.23306906233
 24
753.8219981309621
 34
0.0
100
AcDbRotatedDimension
  0
LINE
  5
206CC
102
{ACAD_REACTORS
330
207A8
102
}
330
747D
100
AcDbEntity
  8
細線
 48
50.0
100
AcDbLine
 10
10280.23306906233
 20
1504.194890798792
 30
0.0
 11
10352.23306906233
 21
1576.194890798793
 31
0.0
  0
ARC
  5
206CD
102
{ACAD_REACTORS
330
207A8
102
}
330
747D
100
AcDbEntity
  8
部品1
 48
50.0
100
AcDbCircle
 10
10256.23306906233
 20
1526.076427525208
 30
0.0
 40
24.0
100
AcDbArc
 50
0.0
 51
180.0
  0
CIRCLE
  5
206CE
102
{ACAD_REACTORS
330
207A8
102
}
330
747D
100
AcDbEntity
  8
部品1
 48
50.0
100
AcDbCircle
 10
10256.23306906233
 20
1526.076427525208
 30
0.0
 40
8.0
  0
LINE
  5
206CF
102
{ACAD_REACTORS
330
207A8
102
}
330
747D
100
AcDbEntity
  8
部品1
 48
50.0
100
AcDbLine
 10
10160.23306906232
 20
1121.821998130962
 30
0.0
 11
10160.23306906232
 21
1665.821998130962
 31
0.0
  0
LINE
  5
206D0
102
{ACAD_REACTORS
330
207A8
102
}
330
747D
100
AcDbEntity
  8
部品1
 48
50.0
100
AcDbLine
 10
10352.23306906233
 20
1665.821998130962
 30
0.0
 11
10352.23306906233
 21
1121.821998130962
 31
0.0
  0
MTEXT
  5
206D1
102
{ACAD_REACTORS
330
206D5
330
207A8
102
}
330
747D
100
AcDbEntity
  8
寸法
 62
     7
 48
50.0
100
AcDbMText
 10
10435.11900608972
 20
1527.08955942989
 30
0.0
 40
80.0
 41
0.8
 71
     4
 72
     1
  1
D13
  7
STYLE2
 73
     1
 44
1.0
1001
ACAD
1000
MTEXTBEGIN
1070
    73
1070
     1
1070
    44
1040
1.0
1070
    74
1070
     0
1000
MTEXTEND
  0
LEADER
  5
206D2
102
{ACAD_REACTORS
330
207A8
102
}
330
747D
100
AcDbEntity
  8
寸法
 48
50.0
100
AcDbLeader
  3
INABA_S40G
 71
     0
 73
     0
 74
     0
 75
     1
 40
100.0
 41
225.0
 76
     3
 10
10384.13602141447
 20
1001.821998130962
 30
0.0
 10
10463.56072886901
 20
906.4249291879896
 30
0.0
 10
10563.56072886901
 20
906.4249291879896
 30
0.0
  0
LEADER
  5
206D3
102
{ACAD_REACTORS
330
207A8
102
}
330
747D
100
AcDbEntity
  8
寸法
 48
50.0
100
AcDbLeader
  3
INABA_S40G
 71
     0
 73
     0
 74
     0
 75
     1
 40
100.0
 41
540.3409090909091
 76
     3
 10
10330.1782380755
 20
985.0814677174367
 30
0.0
 10
10473.97152492357
 20
643.4506497225393
 30
0.0
 10
10573.97152492357
 20
643.4506497225393
 30
0.0
213
0.0
223
-1.022262676269383
233
0.0
  0
MTEXT
  5
206D4
102
{ACAD_REACTORS
330
206D2
330
207A8
102
}
330
747D
100
AcDbEntity
  8
寸法
 62
     7
 48
50.0
100
AcDbMText
 10
10583.56072886901
 20
966.4249291879896
 30
0.0
 40
80.0
 41
0.8
 71
     4
 72
     1
  1
D10
  7
STYLE2
 73
     1
 44
1.0
1001
ACAD
1000
MTEXTBEGIN
1070
    73
1070
     1
1070
    44
1040
1.0
1070
    74
1070
     0
1000
MTEXTEND
  0
LEADER
  5
206D5
102
{ACAD_REACTORS
330
207A8
102
}
330
747D
100
AcDbEntity
  8
寸法
 48
50.0
100
AcDbLeader
  3
INABA_S40G
 71
     0
 73
     0
 74
     0
 75
     1
 40
100.0
 41
222.7272727272727
 76
     3
 10
10256.23306906233
 20
1526.076427525208
 30
0.0
 10
10315.11900608972
 20
1467.08955942989
 30
0.0
 10
10415.11900608972
 20
1467.08955942989
 30
0.0
  0
LINE
  5
206D6
102
{ACAD_REACTORS
330
207A8
102
}
330
747D
100
AcDbEntity
  8
細線
 48
50.0
100
AcDbLine
 10
10032.23306906232
 20
1040.668743893133
 30
0.0
 11
10113.38632330015
 21
1121.821998130962
 31
0.0
  0
LINE
  5
206D7
102
{ACAD_REACTORS
330
207A8
102
}
330
747D
100
AcDbEntity
  8
細線
 48
50.0
100
AcDbLine
 10
10240.09891653973
 20
1059.949212828084
 30
0.0
 11
10264.23306906233
 21
1084.083365350683
 31
0.0
  0
LINE
  5
206D8
102
{ACAD_REACTORS
330
207A8
102
}
330
747D
100
AcDbEntity
  8
細線
 48
50.0
100
AcDbLine
 10
10147.0309334794
 20
993.8219981309622
 30
0.0
 11
10264.23306906232
 21
1111.024133713887
 31
0.0
  0
LINE
  5
206D9
102
{ACAD_REACTORS
330
207A8
102
}
330
747D
100
AcDbEntity
  8
部品1
 48
50.0
100
AcDbLine
 10
10032.23306906233
 20
881.8219981309621
 30
0.0
 11
10032.23306906233
 21
1121.821998130962
 31
0.0
  0
LINE
  5
206DA
102
{ACAD_REACTORS
330
207A8
102
}
330
747D
100
AcDbEntity
  8
細線
 48
50.0
100
AcDbLine
 10
10389.49784874827
 20
993.8219981309622
 30
0.0
 11
10480.23306906233
 21
1084.557218445021
 31
0.0
  0
LINE
  5
206DB
102
{ACAD_REACTORS
330
207A8
102
}
330
747D
100
AcDbEntity
  8
細線
 48
50.0
100
AcDbLine
 10
10362.55708038505
 20
993.8219981309622
 30
0.0
 11
10480.23306906233
 21
1111.497986808228
 31
0.0
  0
LINE
  5
206DC
102
{ACAD_REACTORS
330
207A8
102
}
330
747D
100
AcDbEntity
  8
部品1
 48
50.0
100
AcDbLine
 10
10480.23306906233
 20
1121.821998130962
 30
0.0
 11
10480.23306906233
 21
881.8219981309621
 31
0.0
  0
LINE
  5
206DD
102
{ACAD_REACTORS
330
207A8
102
}
330
747D
100
AcDbEntity
  8
部品1
 48
50.0
100
AcDbLine
 10
10280.23306906233
 20
1001.821998130962
 30
0.0
 11
10280.23306906233
 21
1526.076427525208
 31
0.0
  0
LINE
  5
206DE
102
{ACAD_REACTORS
330
207A8
102
}
330
747D
100
AcDbEntity
  8
部品1
 48
50.0
100
AcDbLine
 10
10264.23306906233
 20
1001.821998130962
 30
0.0
 11
10264.23306906232
 21
1526.076427525208
 31
0.0
  0
LINE
  5
206DF
102
{ACAD_REACTORS
330
207A8
102
}
330
747D
100
AcDbEntity
  8
細線
 48
50.0
100
AcDbLine
 10
10248.23306906233
 20
1041.142596987473
 30
0.0
 11
10264.23306906233
 21
1057.142596987473
 31
0.0
  0
LINE
  5
206E0
102
{ACAD_REACTORS
330
207A8
102
}
330
747D
100
AcDbEntity
  8
細線
 48
50.0
100
AcDbLine
 10
10237.41590855834
 20
753.8219981309621
 30
0.0
 11
10271.71340518952
 21
881.8219981309621
 31
0.0
  0
LINE
  5
206E1
102
{ACAD_REACTORS
330
207A8
102
}
330
747D
100
AcDbEntity
  8
部品1
 48
50.0
100
AcDbLine
 10
10560.23306906233
 20
753.8219981309621
 30
0.0
 11
9952.23306906233
 21
753.8219981309621
 31
0.0
  0
LINE
  5
206E2
102
{ACAD_REACTORS
330
207A8
102
}
330
747D
100
AcDbEntity
  8
部品1
 48
50.0
100
AcDbLine
 10
10088.23306906233
 20
977.8219981309621
 30
0.0
 11
10424.23306906232
 21
977.8219981309621
 31
0.0
  0
LINE
  5
206E3
102
{ACAD_REACTORS
330
207A8
102
}
330
747D
100
AcDbEntity
  8
部品1
 48
50.0
100
AcDbLine
 10
10088.23306906233
 20
993.8219981309622
 30
0.0
 11
10424.23306906232
 21
993.8219981309622
 31
0.0
  0
LINE
  5
206E4
102
{ACAD_REACTORS
330
207A8
102
}
330
747D
100
AcDbEntity
  8
部品1
 48
50.0
100
AcDbLine
 10
10560.23306906233
 20
881.8219981309621
 30
0.0
 11
9952.23306906233
 21
881.8219981309621
 31
0.0
  0
CIRCLE
  5
206E5
102
{ACAD_REACTORS
330
207A8
102
}
330
747D
100
AcDbEntity
  8
部品1
 48
50.0
100
AcDbCircle
 10
10256.23306906233
 20
1001.821998130962
 30
0.0
 40
8.0
  0
LINE
  5
206E6
102
{ACAD_REACTORS
330
207A8
102
}
330
747D
100
AcDbEntity
  8
細線
 48
50.0
100
AcDbLine
 10
10250.55708038506
 20
881.8219981309621
 30
0.0
 11
10346.55708038506
 21
977.8219981309621
 31
0.0
  0
LINE
  5
206E7
102
{ACAD_REACTORS
330
207A8
102
}
330
747D
100
AcDbEntity
  8
細線
 48
50.0
100
AcDbLine
 10
10079.63981866384
 20
753.8219981309621
 30
0.0
 11
10113.93731529502
 21
881.8219981309621
 31
0.0
  0
LINE
  5
206E8
102
{ACAD_REACTORS
330
207A8
102
}
330
747D
100
AcDbEntity
  8
細線
 48
50.0
100
AcDbLine
 10
10158.52786361109
 20
753.8219981309603
 30
0.0
 11
10192.82536024227
 21
881.8219981309603
 31
0.0
  0
LINE
  5
206E9
102
{ACAD_REACTORS
330
207A8
102
}
330
747D
100
AcDbEntity
  8
細線
 48
50.0
100
AcDbLine
 10
10000.75177371658
 20
753.8219981309603
 30
0.0
 11
10035.04927034777
 21
881.8219981309603
 31
0.0
  0
LINE
  5
206EA
102
{ACAD_REACTORS
330
207A8
102
}
330
747D
100
AcDbEntity
  8
部品1
 48
50.0
100
AcDbLine
 10
9952.23306906233
 20
753.8219981309621
 30
0.0
 11
9952.23306906233
 21
881.8219981309621
 31
0.0
  0
LINE
  5
206EB
102
{ACAD_REACTORS
330
207A8
102
}
330
747D
100
AcDbEntity
  8
細線
 48
50.0
100
AcDbLine
 10
10086.07059928219
 20
777.8219981309621
 30
0.0
 11
10092.50137990054
 21
753.8219981309621
 31
0.0
  0
LINE
  5
206EC
102
{ACAD_REACTORS
330
207A8
102
}
330
747D
100
AcDbEntity
  8
細線
 48
50.0
100
AcDbLine
 10
10007.18255433494
 20
777.8219981309621
 30
0.0
 11
10013.61333495328
 21
753.8219981309621
 31
0.0
  0
LINE
  5
206ED
102
{ACAD_REACTORS
330
207A8
102
}
330
747D
100
AcDbEntity
  8
細線
 48
50.0
100
AcDbLine
 10
10243.84668917669
 20
777.8219981309621
 30
0.0
 11
10250.27746979504
 21
753.8219981309621
 31
0.0
  0
LINE
  5
206EE
102
{ACAD_REACTORS
330
207A8
102
}
330
747D
100
AcDbEntity
  8
細線
 48
50.0
100
AcDbLine
 10
10164.95864422944
 20
777.8219981309621
 30
0.0
 11
10171.38942484778
 21
753.8219981309621
 31
0.0
  0
LINE
  5
206EF
102
{ACAD_REACTORS
330
207A8
102
}
330
747D
100
AcDbEntity
  8
細線
 48
50.0
100
AcDbLine
 10
10061.97170184261
 20
881.8219981309621
 30
0.0
 11
10157.97170184261
 21
977.8219981309621
 31
0.0
  0
LINE
  5
206F0
102
{ACAD_REACTORS
330
207A8
102
}
330
747D
100
AcDbEntity
  8
細線
 48
50.0
100
AcDbLine
 10
10035.0309334794
 20
881.8219981309621
 30
0.0
 11
10131.0309334794
 21
977.8219981309621
 31
0.0
  0
LINE
  5
206F1
102
{ACAD_REACTORS
330
207A8
102
}
330
747D
100
AcDbEntity
  8
部品1
 48
50.0
100
AcDbLine
 10
10088.23306906233
 20
993.8219981309622
 30
0.0
 11
10088.23306906233
 21
977.8219981309621
 31
0.0
  0
LINE
  5
206F2
102
{ACAD_REACTORS
330
207A8
102
}
330
747D
100
AcDbEntity
  8
細線
 48
50.0
100
AcDbLine
 10
10028.61848972943
 20
857.821998130962
 30
0.0
 11
10022.18770911108
 21
881.8219981309621
 31
0.0
  0
LINE
  5
206F3
102
{ACAD_REACTORS
330
207A8
102
}
330
747D
100
AcDbEntity
  8
細線
 48
50.0
100
AcDbLine
 10
9952.233069062328
 20
867.1619190967421
 30
0.0
 11
9956.161225400524
 21
881.8219981309621
 31
0.0
  0
LINE
  5
206F4
102
{ACAD_REACTORS
330
207A8
102
}
330
747D
100
AcDbEntity
  8
部品1
 48
50.0
100
AcDbLine
 10
10248.23306906233
 20
1059.949212828084
 30
0.0
 11
10232.23306906233
 21
1059.949212828084
 31
0.0
  0
CIRCLE
  5
206F5
102
{ACAD_REACTORS
330
207A8
102
}
330
747D
100
AcDbEntity
  8
部品1
 48
50.0
100
AcDbCircle
 10
10128.23306906233
 20
1001.821998130962
 30
0.0
 40
8.0
  0
LINE
  5
206F6
102
{ACAD_REACTORS
330
207A8
102
}
330
747D
100
AcDbEntity
  8
細線
 48
50.0
100
AcDbLine
 10
10200.91247020581
 20
993.8219981309622
 30
0.0
 11
10232.23306906233
 21
1025.142596987473
 31
0.0
  0
ARC
  5
206F7
102
{ACAD_REACTORS
330
207A8
102
}
330
747D
100
AcDbEntity
  8
部品1
 48
50.0
100
AcDbCircle
 10
10256.23306906233
 20
1001.821998130962
 30
0.0
 40
24.0
100
AcDbArc
 50
180.0
 51
199.4712206344958
  0
LINE
  5
206F8
102
{ACAD_REACTORS
330
207A8
102
}
330
747D
100
AcDbEntity
  8
細線
 48
50.0
100
AcDbLine
 10
10107.50653467668
 20
857.821998130962
 30
0.0
 11
10101.07575405833
 21
881.8219981309621
 31
0.0
  0
LINE
  5
206F9
102
{ACAD_REACTORS
330
207A8
102
}
330
747D
100
AcDbEntity
  8
細線
 48
50.0
100
AcDbLine
 10
10186.39457962393
 20
857.821998130962
 30
0.0
 11
10179.96379900558
 21
881.8219981309621
 31
0.0
  0
LINE
  5
206FA
102
{ACAD_REACTORS
330
207A8
102
}
330
747D
100
AcDbEntity
  8
細線
 48
50.0
100
AcDbLine
 10
10088.91247020581
 20
881.8219981309621
 30
0.0
 11
10184.91247020581
 21
977.8219981309621
 31
0.0
  0
LINE
  5
206FB
102
{ACAD_REACTORS
330
207A8
102
}
330
747D
100
AcDbEntity
  8
部品1
 48
50.0
100
AcDbLine
 10
10232.23306906233
 20
1059.949212828084
 30
0.0
 11
10232.23306906233
 21
1001.821998130962
 31
0.0
  0
LINE
  5
206FC
102
{ACAD_REACTORS
330
207A8
102
}
330
747D
100
AcDbEntity
  8
細線
 48
50.0
100
AcDbLine
 10
10173.97170184261
 20
993.8219981309622
 30
0.0
 11
10232.23306906233
 21
1052.08336535068
 31
0.0
  0
LINE
  5
206FD
102
{ACAD_REACTORS
330
207A8
102
}
330
747D
100
AcDbEntity
  8
部品1
 48
50.0
100
AcDbLine
 10
10248.23306906233
 20
1059.949212828084
 30
0.0
 11
10248.23306906233
 21
1001.821998130962
 31
0.0
  0
LINE
  5
206FE
102
{ACAD_REACTORS
330
207A8
102
}
330
747D
100
AcDbEntity
  8
部品1
 48
50.0
100
AcDbLine
 10
10560.23306906233
 20
881.8219981309621
 30
0.0
 11
10560.23306906233
 21
753.8219981309621
 31
0.0
  0
LINE
  5
206FF
102
{ACAD_REACTORS
330
207A8
102
}
330
747D
100
AcDbEntity
  8
細線
 48
50.0
100
AcDbLine
 10
10474.08004340008
 20
753.8219981309621
 30
0.0
 11
10508.37754003126
 21
881.8219981309603
 31
0.0
  0
LINE
  5
20700
102
{ACAD_REACTORS
330
207A8
102
}
330
747D
100
AcDbEntity
  8
細線
 48
50.0
100
AcDbLine
 10
10316.30395350559
 20
753.8219981309621
 30
0.0
 11
10350.60145013677
 21
881.8219981309603
 31
0.0
  0
LINE
  5
20701
102
{ACAD_REACTORS
330
207A8
102
}
330
747D
100
AcDbEntity
  8
細線
 48
50.0
100
AcDbLine
 10
10395.19199845283
 20
753.8219981309603
 30
0.0
 11
10429.48949508402
 21
881.8219981309603
 31
0.0
  0
LINE
  5
20702
102
{ACAD_REACTORS
330
207A8
102
}
330
747D
100
AcDbEntity
  8
細線
 48
50.0
100
AcDbLine
 10
10401.62277907118
 20
777.8219981309621
 30
0.0
 11
10408.05355968953
 21
753.8219981309621
 31
0.0
  0
LINE
  5
20703
102
{ACAD_REACTORS
330
207A8
102
}
330
747D
100
AcDbEntity
  8
細線
 48
50.0
100
AcDbLine
 10
10322.73473412394
 20
777.8219981309621
 30
0.0
 11
10329.16551474228
 21
753.8219981309621
 31
0.0
  0
LINE
  5
20704
102
{ACAD_REACTORS
330
207A8
102
}
330
747D
100
AcDbEntity
  8
細線
 48
50.0
100
AcDbLine
 10
10480.51082401843
 20
777.8219981309621
 30
0.0
 11
10486.94160463678
 21
753.8219981309621
 31
0.0
  0
LINE
  5
20705
102
{ACAD_REACTORS
330
207A8
102
}
330
747D
100
AcDbEntity
  8
細線
 48
50.0
100
AcDbLine
 10
10559.39886896568
 20
777.8219981309621
 30
0.0
 11
10560.23306906233
 21
774.7087209865976
 31
0.0
  0
LINE
  5
20706
102
{ACAD_REACTORS
330
207A8
102
}
330
747D
100
AcDbEntity
  8
細線
 48
50.0
100
AcDbLine
 10
10552.96808834733
 20
753.8219981309603
 30
0.0
 11
10560.23306906233
 21
780.9352752753502
 31
0.0
  0
LINE
  5
20707
102
{ACAD_REACTORS
330
207A8
102
}
330
747D
100
AcDbEntity
  8
細線
 48
50.0
100
AcDbLine
 10
10416.43861711147
 20
993.8219981309622
 30
0.0
 11
10480.23306906233
 21
1057.616450081813
 31
0.0
  0
CIRCLE
  5
20708
102
{ACAD_REACTORS
330
207A8
102
}
330
747D
100
AcDbEntity
  8
部品1
 48
50.0
100
AcDbCircle
 10
10384.23306906232
 20
1001.821998130962
 30
0.0
 40
8.0
  0
ARC
  5
20709
102
{ACAD_REACTORS
330
207A8
102
}
330
747D
100
AcDbEntity
  8
部品1
 48
50.0
100
AcDbCircle
 10
10256.23306906233
 20
1001.821998130962
 30
0.0
 40
24.0
100
AcDbArc
 50
340.5287793655042
 51
0.0
  0
LINE
  5
2070A
102
{ACAD_REACTORS
330
207A8
102
}
330
747D
100
AcDbEntity
  8
細線
 48
50.0
100
AcDbLine
 10
10265.28262457118
 20
857.821998130962
 30
0.0
 11
10258.85184395283
 21
881.8219981309621
 31
0.0
  0
LINE
  5
2070B
102
{ACAD_REACTORS
330
207A8
102
}
330
747D
100
AcDbEntity
  8
細線
 48
50.0
100
AcDbLine
 10
10344.17066951843
 20
857.821998130962
 30
0.0
 11
10337.73988890008
 21
881.8219981309621
 31
0.0
  0
LINE
  5
2070C
102
{ACAD_REACTORS
330
207A8
102
}
330
747D
100
AcDbEntity
  8
細線
 48
50.0
100
AcDbLine
 10
10277.49784874827
 20
881.8219981309621
 30
0.0
 11
10373.49784874827
 21
977.8219981309621
 31
0.0
  0
LINE
  5
2070D
102
{ACAD_REACTORS
330
207A8
102
}
330
747D
100
AcDbEntity
  8
細線
 48
50.0
100
AcDbLine
 10
10304.43861711147
 20
881.8219981309621
 30
0.0
 11
10400.43950495661
 21
977.8228859761011
 31
0.0
  0
LINE
  5
2070E
102
{ACAD_REACTORS
330
207A8
102
}
330
747D
100
AcDbEntity
  8
部品1
 48
50.0
100
AcDbLine
 10
10424.23306906232
 20
993.8219981309622
 30
0.0
 11
10424.23306906232
 21
977.8219981309621
 31
0.0
  0
LINE
  5
2070F
102
{ACAD_REACTORS
330
207A8
102
}
330
747D
100
AcDbEntity
  8
細線
 48
50.0
100
AcDbLine
 10
10501.94675941292
 20
857.821998130962
 30
0.0
 11
10495.51597879457
 21
881.8219981309621
 31
0.0
  0
LINE
  5
20710
102
{ACAD_REACTORS
330
207A8
102
}
330
747D
100
AcDbEntity
  8
細線
 48
50.0
100
AcDbLine
 10
10466.08322729072
 20
881.8219981309621
 30
0.0
 11
10480.23306906233
 21
895.9718399025687
 31
0.0
  0
LINE
  5
20711
102
{ACAD_REACTORS
330
207A8
102
}
330
747D
100
AcDbEntity
  8
細線
 48
50.0
100
AcDbLine
 10
10423.05871446567
 20
857.821998130962
 30
0.0
 11
10416.62793384733
 21
881.8219981309621
 31
0.0
  0
LINE
  5
20712
102
{ACAD_REACTORS
330
207A8
102
}
330
747D
100
AcDbEntity
  8
細線
 48
50.0
100
AcDbLine
 10
10160.23306906232
 20
1195.60951225634
 30
0.0
 11
10264.23306906233
 21
1299.609512256343
 31
0.0
  0
LINE
  5
20713
102
{ACAD_REACTORS
330
207A8
102
}
330
747D
100
AcDbEntity
  8
細線
 48
50.0
100
AcDbLine
 10
10160.23306906232
 20
1222.550280619548
 30
0.0
 11
10264.23306906232
 21
1326.550280619548
 31
0.0
  0
LINE
  5
20714
102
{ACAD_REACTORS
330
207A8
102
}
330
747D
100
AcDbEntity
  8
細線
 48
50.0
100
AcDbLine
 10
10160.23306906232
 20
1168.668743893133
 30
0.0
 11
10264.23306906233
 21
1272.668743893133
 31
0.0
  0
LINE
  5
20715
102
{ACAD_REACTORS
330
207A8
102
}
330
747D
100
AcDbEntity
  8
細線
 48
50.0
100
AcDbLine
 10
10248.23306906233
 20
1472.194890798792
 30
0.0
 11
10264.23306906232
 21
1488.194890798792
 31
0.0
  0
LINE
  5
20716
102
{ACAD_REACTORS
330
207A8
102
}
330
747D
100
AcDbEntity
  8
細線
 48
50.0
100
AcDbLine
 10
10248.23306906233
 20
1499.135659161999
 30
0.0
 11
10264.23306906232
 21
1515.135659161999
 31
0.0
  0
LINE
  5
20717
102
{ACAD_REACTORS
330
207A8
102
}
330
747D
100
AcDbEntity
  8
部品1
 48
50.0
100
AcDbLine
 10
10032.23306906233
 20
1121.821998130962
 30
0.0
 11
10160.23306906232
 21
1121.821998130962
 31
0.0
  0
LINE
  5
20718
102
{ACAD_REACTORS
330
207A8
102
}
330
747D
100
AcDbEntity
  8
細線
 48
50.0
100
AcDbLine
 10
10032.23306906232
 20
1067.609512256337
 30
0.0
 11
10086.44555493695
 21
1121.821998130962
 31
0.0
  0
LINE
  5
20719
102
{ACAD_REACTORS
330
207A8
102
}
330
747D
100
AcDbEntity
  8
細線
 48
50.0
100
AcDbLine
 10
10032.23306906232
 20
1094.550280619548
 30
0.0
 11
10059.50478657374
 21
1121.821998130962
 31
0.0
  0
LINE
  5
2071A
102
{ACAD_REACTORS
330
207A8
102
}
330
747D
100
AcDbEntity
  8
部品1
 48
50.0
100
AcDbLine
 10
10248.23306906233
 20
1467.949212828084
 30
0.0
 11
10232.23306906233
 21
1467.949212828088
 31
0.0
  0
LINE
  5
2071B
102
{ACAD_REACTORS
330
207A8
102
}
330
747D
100
AcDbEntity
  8
細線
 48
50.0
100
AcDbLine
 10
10160.23306906232
 20
1384.194890798793
 30
0.0
 11
10243.98739109162
 21
1467.949212828084
 31
0.0
  0
LINE
  5
2071C
102
{ACAD_REACTORS
330
207A8
102
}
330
747D
100
AcDbEntity
  8
細線
 48
50.0
100
AcDbLine
 10
10160.23306906232
 20
1411.135659161999
 30
0.0
 11
10232.23306906233
 21
1483.135659161999
 31
0.0
  0
LINE
  5
2071D
102
{ACAD_REACTORS
330
207A8
102
}
330
747D
100
AcDbEntity
  8
部品1
 48
50.0
100
AcDbLine
 10
10232.23306906233
 20
1467.949212828088
 30
0.0
 11
10232.23306906233
 21
1526.076427525208
 31
0.0
  0
LINE
  5
2071E
102
{ACAD_REACTORS
330
207A8
102
}
330
747D
100
AcDbEntity
  8
細線
 48
50.0
100
AcDbLine
 10
10160.23306906232
 20
1438.076427525207
 30
0.0
 11
10232.23306906233
 21
1510.076427525208
 31
0.0
  0
LINE
  5
2071F
102
{ACAD_REACTORS
330
207A8
102
}
330
747D
100
AcDbEntity
  8
部品1
 48
50.0
100
AcDbLine
 10
10248.23306906233
 20
1467.949212828084
 30
0.0
 11
10248.23306906233
 21
1526.076427525208
 31
0.0
  0
LINE
  5
20720
102
{ACAD_REACTORS
330
207A8
102
}
330
747D
100
AcDbEntity
  8
細線
 48
50.0
100
AcDbLine
 10
10280.23306906233
 20
1288.668743893133
 30
0.0
 11
10352.23306906232
 21
1360.668743893133
 31
0.0
  0
LINE
  5
20721
102
{ACAD_REACTORS
330
207A8
102
}
330
747D
100
AcDbEntity
  8
部品1
 48
50.0
100
AcDbLine
 10
10352.23306906233
 20
1121.821998130962
 30
0.0
 11
10480.23306906233
 21
1121.821998130962
 31
0.0
  0
LINE
  5
20722
102
{ACAD_REACTORS
330
207A8
102
}
330
747D
100
AcDbEntity
  8
細線
 48
50.0
100
AcDbLine
 10
10280.23306906233
 20
1100.083365350683
 30
0.0
 11
10352.23306906232
 21
1172.083365350678
 31
0.0
  0
LINE
  5
20723
102
{ACAD_REACTORS
330
207A8
102
}
330
747D
100
AcDbEntity
  8
細線
 48
50.0
100
AcDbLine
 10
10280.23306906233
 20
1127.024133713891
 30
0.0
 11
10352.23306906232
 21
1199.024133713888
 31
0.0
  0
LINE
  5
20724
102
{ACAD_REACTORS
330
207A8
102
}
330
747D
100
AcDbEntity
  8
細線
 48
50.0
100
AcDbLine
 10
10280.23306906233
 20
1073.142596987473
 30
0.0
 11
10352.23306906232
 21
1145.142596987473
 31
0.0
  0
LINE
  5
20725
102
{ACAD_REACTORS
330
207A8
102
}
330
747D
100
AcDbEntity
  8
細線
 48
50.0
100
AcDbLine
 10
10280.23306906233
 20
1342.550280619548
 30
0.0
 11
10352.23306906233
 21
1414.550280619548
 31
0.0
  0
LINE
  5
20726
102
{ACAD_REACTORS
330
207A8
102
}
330
747D
100
AcDbEntity
  8
細線
 48
50.0
100
AcDbLine
 10
10280.23306906233
 20
1315.609512256343
 30
0.0
 11
10352.23306906232
 21
1387.609512256337
 31
0.0
  0
MTEXT
  5
20727
102
{ACAD_REACTORS
330
206D3
330
207A8
102
}
330
747D
100
AcDbEntity
  8
寸法
 62
     7
 48
50.0
100
AcDbMText
 10
10593.97152492357
 20
704.4729123988091
 30
0.0
 40
80.0
 41
0.8
 71
     4
 72
     1
  1
\A1;D10@300
  7
STYLE2
 73
     1
 44
1.0
1001
ACAD
1000
MTEXTBEGIN
1070
    73
1070
     1
1070
    44
1040
1.0
1070
    74
1070
     0
1000
MTEXTEND
  0
DIMENSION
  5
20728
102
{ACAD_REACTORS
330
207A8
102
}
330
747D
100
AcDbEntity
  8
寸法
 48
50.0
100
AcDbDimension
  2
*D29
 10
10160.23306906232
 20
2085.489806047343
 30
0.0
 11
10256.23306906233
 21
2085.489806047343
 31
0.0
 70
   160
  1
120\P170
 71
     5
 42
192.0
  3
INABA_S40G
100
AcDbAlignedDimension
 13
10352.23306906233
 23
1665.821998130962
 33
0.0
 14
10160.23306906232
 24
1665.821998130962
 34
0.0
100
AcDbRotatedDimension
  0
LINE
  5
20729
102
{ACAD_REACTORS
330
207A8
102
}
330
747D
100
AcDbEntity
  8
部品1
 48
50.0
100
AcDbLine
 10
10160.23306906232
 20
1665.821998130962
 30
0.0
 11
10352.23306906233
 21
1665.821998130962
 31
0.0
  0
LINE
  5
2072A
102
{ACAD_REACTORS
330
207A8
102
}
330
747D
100
AcDbEntity
  8
細線
 48
50.0
100
AcDbLine
 10
10160.23306906232
 20
1626.66180606766
 30
0.0
 11
10199.39326112563
 21
1665.821998130962
 31
0.0
  0
LINE
  5
2072B
102
{ACAD_REACTORS
330
207A8
102
}
330
747D
100
AcDbEntity
  8
細線
 48
50.0
100
AcDbLine
 10
10160.23306906232
 20
1599.721037704452
 30
0.0
 11
10226.33402948883
 21
1665.821998130962
 31
0.0
  0
LINE
  5
2072C
102
{ACAD_REACTORS
330
207A8
102
}
330
747D
100
AcDbEntity
  8
細線
 48
50.0
100
AcDbLine
 10
10160.23306906232
 20
1653.602574430867
 30
0.0
 11
10172.45249276242
 21
1665.821998130962
 31
0.0
  0
LINE
  5
2072D
102
{ACAD_REACTORS
330
207A8
102
}
330
747D
100
AcDbEntity
  8
細線
 48
50.0
100
AcDbLine
 10
10279.78577632831
 20
1530.688366427984
 30
0.0
 11
10352.23306906233
 21
1603.135659161999
 31
0.0
  0
LINE
  5
2072E
102
{ACAD_REACTORS
330
207A8
102
}
330
747D
100
AcDbEntity
  8
細線
 48
50.0
100
AcDbLine
 10
10268.7254915648
 20
1546.568850027678
 30
0.0
 11
10352.23306906233
 21
1630.076427525208
 31
0.0
  0
DIMENSION
  5
209DC
330
747D
100
AcDbEntity
  8
寸法
 48
50.0
100
AcDbDimension
  2
*D30
 10
9316.195288608607
 20
6655.032215098746
 30
0.0
 11
9182.661145912819
 21
6553.579101647803
 31
0.0
 70
   160
 71
     5
 42
110.0
  3
INABA_S40G
100
AcDbAlignedDimension
 13
9206.195288608608
 23
6872.91903611284
 33
0.0
 14
9316.195288608607
 24
6872.919036112843
 34
0.0
100
AcDbRotatedDimension
1001
ACAD
1000
DSTYLE
1002
{
1070
   279
1070
     2
1002
}
  0
ENDSEC
  0
SECTION
  2
OBJECTS
  0
DICTIONARY
  5
7471
330
0
100
AcDbDictionary
281
     1
  3
ACAD_COLOR
350
159B0
  3
ACAD_GROUP
350
7472
  3
ACAD_LAYOUT
350
159B1
  3
ACAD_MATERIAL
350
159AF
  3
ACAD_MLINESTYLE
350
7473
  3
ACAD_PLOTSETTINGS
350
159B2
  3
ACAD_PLOTSTYLENAME
350
159AD
  3
ACDBHEADERROUNDTRIPXREC
350
20A5F
  3
AcDbVariableDictionary
350
205B9
  3
CONTENTDICTIONARY
350
E71C
  3
DRAWINGVARIABLESDICT
350
F3B9
  0
DICTIONARY
  5
20649
330
7467
100
AcDbDictionary
280
     1
281
     1
  3
ACAD_LAYERSTATES
360
2064A
  0
DICTIONARY
  5
159B0
102
{ACAD_REACTORS
330
7471
102
}
330
7471
100
AcDbDictionary
281
     1
  0
DICTIONARY
  5
7472
102
{ACAD_REACTORS
330
7471
102
}
330
7471
100
AcDbDictionary
281
     1
  3
*A1
350
207A8
  0
DICTIONARY
  5
159B1
102
{ACAD_REACTORS
330
7471
102
}
330
7471
100
AcDbDictionary
281
     1
  3
Model
350
159B3
  3
レイアウト1
350
159B4
  0
DICTIONARY
  5
159AF
102
{ACAD_REACTORS
330
7471
102
}
330
7471
100
AcDbDictionary
281
     1
  0
DICTIONARY
  5
7473
102
{ACAD_REACTORS
330
7471
102
}
330
7471
100
AcDbDictionary
281
     1
  3
STANDARD
350
7480
  0
DICTIONARY
  5
159B2
102
{ACAD_REACTORS
330
7471
102
}
330
7471
100
AcDbDictionary
281
     1
  0
ACDBDICTIONARYWDFLT
  5
159AD
102
{ACAD_REACTORS
330
7471
102
}
330
7471
100
AcDbDictionary
281
     1
  3
Normal
350
159AE
100
AcDbDictionaryWithDefault
340
159AE
  0
DICTIONARY
  5
20A5F
102
{ACAD_REACTORS
330
7471
102
}
330
7471
100
AcDbDictionary
281
     1
  3
COLORDICT
350
20A61
  3
MATERIALDICT
350
20A60
  0
DICTIONARY
  5
205B9
102
{ACAD_REACTORS
330
7471
102
}
330
7471
100
AcDbDictionary
281
     1
  3
DIMASSOC
350
205BA
  3
PROJECTNAME
350
205BB
  0
DICTIONARY
  5
E71C
102
{ACAD_REACTORS
330
7471
102
}
330
7471
100
AcDbDictionary
281
     1
  0
DICTIONARY
  5
F3B9
102
{ACAD_REACTORS
330
7471
102
}
330
7471
100
AcDbDictionary
281
     1
1001
DRAWINGVARIABLESXDATA
1000
POLARMODE
1000
1
  0
DICTIONARY
  5
2064A
102
{ACAD_REACTORS
330
20649
102
}
330
20649
100
AcDbDictionary
281
     1
  0
GROUP
  5
207A8
102
{ACAD_REACTORS
330
7472
102
}
330
7472
100
AcDbGroup
300

 70
     1
 71
     1
340
2072E
340
2072D
340
2072C
340
2072B
340
2072A
340
20729
340
20728
340
20727
340
20726
340
20725
340
20724
340
20723
340
20722
340
20721
340
20720
340
2071F
340
2071E
340
2071D
340
2071C
340
2071B
340
2071A
340
20719
340
20718
340
20717
340
20716
340
20715
340
20714
340
20713
340
20712
340
20711
340
20710
340
2070F
340
2070E
340
2070D
340
2070C
340
2070B
340
2070A
340
20709
340
20708
340
20707
340
20706
340
20705
340
20704
340
20703
340
20702
340
20701
340
20700
340
206FF
340
206FE
340
206FD
340
206FC
340
206FB
340
206FA
340
206F9
340
206F8
340
206F7
340
206F6
340
206F5
340
206F4
340
206F3
340
206F2
340
206F1
340
206F0
340
206EF
340
206EE
340
206ED
340
206EC
340
206EB
340
206EA
340
206E9
340
206E8
340
206E7
340
206E6
340
206E5
340
206E4
340
206E3
340
206E2
340
206E1
340
206E0
340
206DF
340
206DE
340
206DD
340
206DC
340
206DB
340
206DA
340
206D9
340
206D8
340
206D7
340
206D6
340
206D5
340
206D4
340
206D3
340
206D2
340
206D1
340
206D0
340
206CF
340
206CE
340
206CD
340
206CC
340
206CB
340
206CA
340
206C9
340
206C8
340
206C7
340
206C6
340
206C5
340
206C4
340
206C3
340
206C2
340
206C1
340
206C0
340
206BF
  0
LAYOUT
  5
159B3
102
{ACAD_XDICTIONARY
360
20A62
102
}
102
{ACAD_REACTORS
330
159B1
102
}
330
159B1
100
AcDbPlotSettings
  1

  2
none_device
  4
Letter_(8.50_x_11.00_Inches)
  6

 40
6.349999904632568
 41
6.349999904632568
 42
6.350006103515625
 43
6.350006103515625
 44
215.8999938964844
 45
279.3999938964844
 46
0.0
 47
0.0
 48
0.0
 49
0.0
140
0.0
141
0.0
142
1.0
143
1.0
 70
 11952
 72
     1
 73
     1
 74
     0
  7

 75
     0
147
1.0
148
-4149.571981164617
149
65.56433826894044
100
AcDbLayout
  1
Model
 70
     1
 71
     0
 10
0.0
 20
0.0
 11
12.0
 21
9.0
 12
0.0
 22
0.0
 32
0.0
 14
0.0
 24
0.0
 34
0.0
 15
0.0
 25
0.0
 35
0.0
146
0.0
 13
0.0
 23
0.0
 33
0.0
 16
1.0
 26
0.0
 36
0.0
 17
0.0
 27
1.0
 37
0.0
 76
     0
330
747D
  0
LAYOUT
  5
159B4
102
{ACAD_XDICTIONARY
360
20A64
102
}
102
{ACAD_REACTORS
330
159B1
102
}
330
159B1
100
AcDbPlotSettings
  1

  2
自動 EPSON LP-8400FX (TATENO 上)
  4

  6

 40
0.0
 41
0.0
 42
0.0
 43
0.0
 44
0.0
 45
0.0
 46
0.0
 47
0.0
 48
0.0
 49
0.0
140
0.0
141
0.0
142
1.0
143
1.0
 70
   688
 72
     0
 73
     0
 74
     5
  7
inaba.ctb
 75
    16
147
1.0
148
0.0
149
0.0
100
AcDbLayout
  1
レイアウト1
 70
     0
 71
     1
 10
0.0
 20
0.0
 11
420.0
 21
297.0
 12
0.0
 22
0.0
 32
0.0
 14
1.000000000000000E+20
 24
1.000000000000000E+20
 34
1.000000000000000E+20
 15
-1.000000000000000E+20
 25
-1.000000000000000E+20
 35
-1.000000000000000E+20
146
0.0
 13
0.0
 23
0.0
 33
0.0
 16
1.0
 26
0.0
 36
0.0
 17
0.0
 27
1.0
 37
0.0
 76
     0
330
747A
  0
MLINESTYLE
  5
7480
102
{ACAD_REACTORS
330
7473
102
}
330
7473
100
AcDbMlineStyle
  2
STANDARD
 70
     0
  3

 62
     0
 51
90.0
 52
90.0
 71
     2
 49
0.5
 62
   256
  6
BYLAYER
 49
-0.5
 62
   256
  6
BYLAYER
  0
ACDBPLACEHOLDER
  5
159AE
102
{ACAD_REACTORS
330
159AD
102
}
330
159AD
  0
XRECORD
  5
20A61
102
{ACAD_REACTORS
330
20A5F
102
}
330
20A5F
100
AcDbXrecord
280
     1
340
159B0
  0
XRECORD
  5
20A60
102
{ACAD_REACTORS
330
20A5F
102
}
330
20A5F
100
AcDbXrecord
280
     1
340
159AF
  0
DICTIONARYVAR
  5
205BA
102
{ACAD_REACTORS
330
205B9
102
}
330
205B9
100
DictionaryVariables
280
     0
  1
1
  0
DICTIONARYVAR
  5
205BB
102
{ACAD_REACTORS
330
205B9
102
}
330
205B9
100
DictionaryVariables
280
     0
  1

  0
DICTIONARY
  5
20A62
330
159B3
100
AcDbDictionary
280
     1
281
     1
  3
ACAD_XREC_ROUNDTRIP
360
20A63
  0
DICTIONARY
  5
20A64
330
159B4
100
AcDbDictionary
280
     1
281
     1
  3
ACAD_XREC_ROUNDTRIP
360
20A65
  0
XRECORD
  5
20A63
102
{ACAD_REACTORS
330
20A62
102
}
330
20A62
100
AcDbXrecord
280
     1
102
SHADEPLOT
 70
     0
102
SHADEPLOTRESLEVEL
 70
     2
102
SHADEPLOTCUSTOMDPI
 70
   300
  0
XRECORD
  5
20A65
102
{ACAD_REACTORS
330
20A64
102
}
330
20A64
100
AcDbXrecord
280
     1
102
SHADEPLOT
 70
     0
102
SHADEPLOTRESLEVEL
 70
     2
102
SHADEPLOTCUSTOMDPI
 70
   300
  0
ENDSEC
  0
EOF
