  0
SECTION
  2
HEADER
  9
$ACADVER
  1
AC1015
  9
$ACADMAINTVER
 70
    20
  9
$DWGCODEPAGE
  3
ANSI_932
  9
$INSBASE
 10
0.0
 20
0.0
 30
0.0
  9
$EXTMIN
 10
139.196816621341
 20
-0.2440159755278728
 30
-0.0000000000000058
  9
$EXTMAX
 10
16308.32523385566
 20
11409.92429725123
 30
0.0000000000000104
  9
$LIMMIN
 10
0.0
 20
0.0
  9
$LIMMAX
 10
16800.0
 20
11880.0
  9
$ORTHOMODE
 70
     0
  9
$REGENMODE
 70
     1
  9
$FILLMODE
 70
     1
  9
$QTEXTMODE
 70
     0
  9
$MIRRTEXT
 70
     1
  9
$LTSCALE
 40
20.0
  9
$ATTMODE
 70
     1
  9
$TEXTSIZE
 40
100.0
  9
$TRACEWID
 40
1.0
  9
$TEXTSTYLE
  7
STYLE2
  9
$CLAYER
  8
寸法
  9
$CELTYPE
  6
BYLAYER
  9
$CECOLOR
 62
   256
  9
$CELTSCALE
 40
50.0
  9
$DISPSILH
 70
     0
  9
$DIMSCALE
 40
40.0
  9
$DIMASZ
 40
2.5
  9
$DIMEXO
 40
0.5
  9
$DIMDLI
 40
7.0
  9
$DIMRND
 40
0.0
  9
$DIMDLE
 40
0.0
  9
$DIMEXE
 40
1.5
  9
$DIMTP
 40
0.0
  9
$DIMTM
 40
0.0
  9
$DIMTXT
 40
3.0
  9
$DIMCEN
 40
0.0
  9
$DIMTSZ
 40
0.0
  9
$DIMTOL
 70
     0
  9
$DIMLIM
 70
     0
  9
$DIMTIH
 70
     0
  9
$DIMTOH
 70
     0
  9
$DIMSE1
 70
     0
  9
$DIMSE2
 70
     0
  9
$DIMTAD
 70
     3
  9
$DIMZIN
 70
     8
  9
$DIMBLK
  1

  9
$DIMASO
 70
     1
  9
$DIMSHO
 70
     1
  9
$DIMPOST
  1

  9
$DIMAPOST
  1

  9
$DIMALT
 70
     0
  9
$DIMALTD
 70
     2
  9
$DIMALTF
 40
0.0394
  9
$DIMLFAC
 40
1.0
  9
$DIMTOFL
 70
     1
  9
$DIMTVP
 40
0.0
  9
$DIMTIX
 70
     1
  9
$DIMSOXD
 70
     0
  9
$DIMSAH
 70
     1
  9
$DIMBLK1
  1
DOTSMALL
  9
$DIMBLK2
  1
DOTSMALL
  9
$DIMSTYLE
  2
INABA_S40G
  9
$DIMCLRD
 70
     0
  9
$DIMCLRE
 70
     0
  9
$DIMCLRT
 70
     7
  9
$DIMTFAC
 40
1.0
  9
$DIMGAP
 40
1.0
  9
$DIMJUST
 70
     0
  9
$DIMSD1
 70
     0
  9
$DIMSD2
 70
     0
  9
$DIMTOLJ
 70
     1
  9
$DIMTZIN
 70
     0
  9
$DIMALTZ
 70
     0
  9
$DIMALTTZ
 70
     0
  9
$DIMUPT
 70
     1
  9
$DIMDEC
 70
     1
  9
$DIMTDEC
 70
     4
  9
$DIMALTU
 70
     2
  9
$DIMALTTD
 70
     2
  9
$DIMTXSTY
  7
STYLE1
  9
$DIMAUNIT
 70
     0
  9
$DIMADEC
 70
     0
  9
$DIMALTRND
 40
0.0
  9
$DIMAZIN
 70
     0
  9
$DIMDSEP
 70
    46
  9
$DIMATFIT
 70
     3
  9
$DIMFRAC
 70
     0
  9
$DIMLDRBLK
  1
DOTSMALL
  9
$DIMLUNIT
 70
     2
  9
$DIMLWD
 70
    -2
  9
$DIMLWE
 70
    -2
  9
$DIMTMOVE
 70
     0
  9
$LUNITS
 70
     2
  9
$LUPREC
 70
     1
  9
$SKETCHINC
 40
1.0
  9
$FILLETRAD
 40
0.0
  9
$AUNITS
 70
     0
  9
$AUPREC
 70
     0
  9
$MENU
  1
acad
  9
$ELEVATION
 40
0.0
  9
$PELEVATION
 40
0.0
  9
$THICKNESS
 40
0.0
  9
$LIMCHECK
 70
     0
  9
$CHAMFERA
 40
3.0
  9
$CHAMFERB
 40
3.0
  9
$CHAMFERC
 40
0.0
  9
$CHAMFERD
 40
0.0
  9
$SKPOLY
 70
     0
  9
$TDCREATE
 40
2451368.612993866
  9
$TDUCREATE
 40
2451368.237993866
  9
$TDUPDATE
 40
2455765.637959699
  9
$TDUUPDATE
 40
2455765.262959699
  9
$TDINDWG
 40
1.6870791204
  9
$TDUSRTIMER
 40
1.6870791204
  9
$USRTIMER
 70
     1
  9
$ANGBASE
 50
0.0
  9
$ANGDIR
 70
     0
  9
$PDMODE
 70
     3
  9
$PDSIZE
 40
2.0
  9
$PLINEWID
 40
0.0
  9
$SPLFRAME
 70
     0
  9
$SPLINETYPE
 70
     6
  9
$SPLINESEGS
 70
     8
  9
$HANDSEED
  5
22344
  9
$SURFTAB1
 70
     6
  9
$SURFTAB2
 70
     6
  9
$SURFTYPE
 70
     6
  9
$SURFU
 70
     6
  9
$SURFV
 70
     6
  9
$UCSBASE
  2

  9
$UCSNAME
  2

  9
$UCSORG
 10
0.0
 20
0.0
 30
0.0
  9
$UCSXDIR
 10
1.0
 20
0.0
 30
0.0
  9
$UCSYDIR
 10
0.0
 20
1.0
 30
0.0
  9
$UCSORTHOREF
  2

  9
$UCSORTHOVIEW
 70
     0
  9
$UCSORGTOP
 10
0.0
 20
0.0
 30
0.0
  9
$UCSORGBOTTOM
 10
0.0
 20
0.0
 30
0.0
  9
$UCSORGLEFT
 10
0.0
 20
0.0
 30
0.0
  9
$UCSORGRIGHT
 10
0.0
 20
0.0
 30
0.0
  9
$UCSORGFRONT
 10
0.0
 20
0.0
 30
0.0
  9
$UCSORGBACK
 10
0.0
 20
0.0
 30
0.0
  9
$PUCSBASE
  2

  9
$PUCSNAME
  2

  9
$PUCSORG
 10
0.0
 20
0.0
 30
0.0
  9
$PUCSXDIR
 10
1.0
 20
0.0
 30
0.0
  9
$PUCSYDIR
 10
0.0
 20
1.0
 30
0.0
  9
$PUCSORTHOREF
  2

  9
$PUCSORTHOVIEW
 70
     0
  9
$PUCSORGTOP
 10
0.0
 20
0.0
 30
0.0
  9
$PUCSORGBOTTOM
 10
0.0
 20
0.0
 30
0.0
  9
$PUCSORGLEFT
 10
0.0
 20
0.0
 30
0.0
  9
$PUCSORGRIGHT
 10
0.0
 20
0.0
 30
0.0
  9
$PUCSORGFRONT
 10
0.0
 20
0.0
 30
0.0
  9
$PUCSORGBACK
 10
0.0
 20
0.0
 30
0.0
  9
$USERI1
 70
     0
  9
$USERI2
 70
     0
  9
$USERI3
 70
     0
  9
$USERI4
 70
     0
  9
$USERI5
 70
     0
  9
$USERR1
 40
0.0
  9
$USERR2
 40
0.0
  9
$USERR3
 40
0.0
  9
$USERR4
 40
0.0
  9
$USERR5
 40
0.0
  9
$WORLDVIEW
 70
     1
  9
$SHADEDGE
 70
     3
  9
$SHADEDIF
 70
    70
  9
$TILEMODE
 70
     1
  9
$MAXACTVP
 70
    16
  9
$PINSBASE
 10
0.0
 20
0.0
 30
0.0
  9
$PLIMCHECK
 70
     0
  9
$PEXTMIN
 10
1.000000000000000E+20
 20
1.000000000000000E+20
 30
1.000000000000000E+20
  9
$PEXTMAX
 10
-1.000000000000000E+20
 20
-1.000000000000000E+20
 30
-1.000000000000000E+20
  9
$PLIMMIN
 10
0.0
 20
0.0
  9
$PLIMMAX
 10
420.0
 20
297.0
  9
$UNITMODE
 70
     0
  9
$VISRETAIN
 70
     0
  9
$PLINEGEN
 70
     0
  9
$PSLTSCALE
 70
     0
  9
$TREEDEPTH
 70
  3020
  9
$CMLSTYLE
  2
STANDARD
  9
$CMLJUST
 70
     0
  9
$CMLSCALE
 40
1.0
  9
$PROXYGRAPHICS
 70
     1
  9
$MEASUREMENT
 70
     1
  9
$CELWEIGHT
370
    -1
  9
$ENDCAPS
280
     0
  9
$JOINSTYLE
280
     0
  9
$LWDISPLAY
290
     0
  9
$INSUNITS
 70
     0
  9
$HYPERLINKBASE
  1

  9
$STYLESHEET
  1
inaba.ctb
  9
$XEDIT
290
     1
  9
$CEPSNTYPE
380
     0
  9
$PSTYLEMODE
290
     1
  9
$FINGERPRINTGUID
  2
{3B57B35E-7D77-4BBF-81B7-6C583B9EB24C}
  9
$VERSIONGUID
  2
{9EABDA26-4348-4E3B-94D5-64BC6235D9E5}
  9
$EXTNAMES
290
     1
  9
$PSVPSCALE
 40
0.0
  9
$OLESTARTUP
290
     0
  0
ENDSEC
  0
SECTION
  2
CLASSES
  0
CLASS
  1
ACDBDICTIONARYWDFLT
  2
AcDbDictionaryWithDefault
  3
ObjectDBX Classes
 90
        0
280
     0
281
     0
  0
CLASS
  1
DICTIONARYVAR
  2
AcDbDictionaryVar
  3
ObjectDBX Classes
 90
        0
280
     0
281
     0
  0
CLASS
  1
ACDBPLACEHOLDER
  2
AcDbPlaceHolder
  3
ObjectDBX Classes
 90
        0
280
     0
281
     0
  0
CLASS
  1
LAYOUT
  2
AcDbLayout
  3
ObjectDBX Classes
 90
        0
280
     0
281
     0
  0
ENDSEC
  0
SECTION
  2
TABLES
  0
TABLE
  2
VPORT
  5
746D
330
0
100
AcDbSymbolTable
 70
     3
  0
VPORT
  5
2233C
330
746D
100
AcDbSymbolTableRecord
100
AcDbViewportTableRecord
  2
*Active
 70
     0
 10
0.0
 20
0.0
 11
1.0
 21
1.0
 12
8223.761025238502
 22
5704.840140637852
 13
0.0
 23
0.0
 14
10.0
 24
10.0
 15
10.0
 25
10.0
 16
0.0
 26
0.0
 36
1.0
 17
0.0
 27
0.0
 37
0.0
 40
11496.82781940316
 41
1.528517110266159
 42
50.0
 43
0.0
 44
0.0
 50
0.0
 51
0.0
 71
     0
 72
     0
 73
     1
 74
     0
 75
     0
 76
     0
 77
     0
 78
     0
281
     0
 65
     1
110
0.0
120
0.0
130
0.0
111
1.0
121
0.0
131
0.0
112
0.0
122
1.0
132
0.0
 79
     0
146
0.0
  0
ENDTAB
  0
TABLE
  2
LTYPE
  5
746A
330
0
100
AcDbSymbolTable
 70
     3
  0
LTYPE
  5
7477
330
746A
100
AcDbSymbolTableRecord
100
AcDbLinetypeTableRecord
  2
BYBLOCK
 70
     0
  3

 72
    65
 73
     0
 40
0.0
  0
LTYPE
  5
7478
330
746A
100
AcDbSymbolTableRecord
100
AcDbLinetypeTableRecord
  2
BYLAYER
 70
     0
  3

 72
    65
 73
     0
 40
0.0
  0
LTYPE
  5
7479
330
746A
100
AcDbSymbolTableRecord
100
AcDbLinetypeTableRecord
  2
CONTINUOUS
 70
     0
  3
Solid line
 72
    65
 73
     0
 40
0.0
  0
LTYPE
  5
7816
330
746A
100
AcDbSymbolTableRecord
100
AcDbLinetypeTableRecord
  2
CENTER
 70
     0
  3
____ _ ____ _ ____ _ ____ _ ____ _ ____ _ ____ 
 72
    65
 73
     4
 40
2.0
 49
1.25
 74
     0
 49
-0.25
 74
     0
 49
0.25
 74
     0
 49
-0.25
 74
     0
  0
LTYPE
  5
781B
330
746A
100
AcDbSymbolTableRecord
100
AcDbLinetypeTableRecord
  2
PHANTOM
 70
     0
  3
______  __  __  ______  __  __  ______  __  __ 
 72
    65
 73
     6
 40
2.5
 49
1.25
 74
     0
 49
-0.25
 74
     0
 49
0.25
 74
     0
 49
-0.25
 74
     0
 49
0.25
 74
     0
 49
-0.25
 74
     0
  0
ENDTAB
  0
TABLE
  2
LAYER
  5
7467
102
{ACAD_XDICTIONARY
360
20FE6
102
}
330
0
100
AcDbSymbolTable
 70
    10
  0
LAYER
  5
7474
330
7467
100
AcDbSymbolTableRecord
100
AcDbLayerTableRecord
  2
0
 70
     0
 62
     7
  6
CONTINUOUS
370
    -3
390
159AE
  0
LAYER
  5
DEB2
330
7467
100
AcDbSymbolTableRecord
100
AcDbLayerTableRecord
  2
センター
 70
     0
 62
     3
  6
CENTER
370
    -3
390
159AE
  0
LAYER
  5
DEB3
330
7467
100
AcDbSymbolTableRecord
100
AcDbLayerTableRecord
  2
寸法
 70
     0
 62
     4
  6
CONTINUOUS
370
    -3
390
159AE
  0
LAYER
  5
DEB4
330
7467
100
AcDbSymbolTableRecord
100
AcDbLayerTableRecord
  2
部品1
 70
     0
 62
     7
  6
CONTINUOUS
370
    -3
390
159AE
  0
LAYER
  5
DEB5
330
7467
100
AcDbSymbolTableRecord
100
AcDbLayerTableRecord
  2
補助
 70
     0
 62
    -1
  6
CONTINUOUS
370
    -3
390
159AE
  0
LAYER
  5
DEB6
330
7467
100
AcDbSymbolTableRecord
100
AcDbLayerTableRecord
  2
文字
 70
     0
 62
     7
  6
CONTINUOUS
370
    -3
390
159AE
  0
LAYER
  5
F255
330
7467
100
AcDbSymbolTableRecord
100
AcDbLayerTableRecord
  2
DEFPOINTS
 70
     0
 62
     7
  6
CONTINUOUS
290
     0
370
    -3
390
159AE
  0
LAYER
  5
10B54
330
7467
100
AcDbSymbolTableRecord
100
AcDbLayerTableRecord
  2
仕様書枠
 70
     0
 62
   230
  6
CONTINUOUS
370
    -3
390
159AE
  0
LAYER
  5
1173F
330
7467
100
AcDbSymbolTableRecord
100
AcDbLayerTableRecord
  2
細線
 70
     0
 62
     5
  6
CONTINUOUS
370
    -3
390
159AE
  0
LAYER
  5
12CC4
330
7467
100
AcDbSymbolTableRecord
100
AcDbLayerTableRecord
  2
想像線
 70
     0
 62
     6
  6
PHANTOM
370
    -3
390
159AE
  0
ENDTAB
  0
TABLE
  2
STYLE
  5
7468
330
0
100
AcDbSymbolTable
 70
     3
  0
STYLE
  5
7475
330
7468
100
AcDbSymbolTableRecord
100
AcDbTextStyleTableRecord
  2
STANDARD
 70
     0
 40
0.0
 41
1.0
 50
0.0
 71
     0
 42
4.0
  3
txt
  4
C:\AutoCAD LT\bigfont.shx
  0
STYLE
  5
F706
330
7468
100
AcDbSymbolTableRecord
100
AcDbTextStyleTableRecord
  2
STYLE1
 70
     0
 40
0.0
 41
1.0
 50
0.0
 71
     0
 42
100.0
  3
isocp.shx
  4
bigfont.shx
  0
STYLE
  5
103BF
330
7468
100
AcDbSymbolTableRecord
100
AcDbTextStyleTableRecord
  2
STYLE2
 70
     0
 40
0.0
 41
1.0
 50
0.0
 71
     0
 42
100.0
  3
MS PGothic.ttf
  4

1001
ACAD
1000
MS PGothic
1071
    32818
  0
ENDTAB
  0
TABLE
  2
VIEW
  5
746B
330
0
100
AcDbSymbolTable
 70
     0
  0
ENDTAB
  0
TABLE
  2
UCS
  5
746C
330
0
100
AcDbSymbolTable
 70
     0
  0
ENDTAB
  0
TABLE
  2
APPID
  5
746E
330
0
100
AcDbSymbolTable
 70
     6
  0
APPID
  5
7476
330
746E
100
AcDbSymbolTableRecord
100
AcDbRegAppTableRecord
  2
ACAD
 70
     0
  0
APPID
  5
DEA9
330
746E
100
AcDbSymbolTableRecord
100
AcDbRegAppTableRecord
  2
CONTENTBLOCKICON
 70
     0
  0
APPID
  5
DEAA
330
746E
100
AcDbSymbolTableRecord
100
AcDbRegAppTableRecord
  2
CONTENTBLOCKDESCRIPTION
 70
     0
  0
APPID
  5
E71D
330
746E
100
AcDbSymbolTableRecord
100
AcDbRegAppTableRecord
  2
CONTENTTABDATA
 70
     0
  0
APPID
  5
E71E
330
746E
100
AcDbSymbolTableRecord
100
AcDbRegAppTableRecord
  2
CONTENTCURRENTTAB
 70
     0
  0
APPID
  5
F3BA
330
746E
100
AcDbSymbolTableRecord
100
AcDbRegAppTableRecord
  2
DRAWINGVARIABLESXDATA
 70
     0
  0
ENDTAB
  0
TABLE
  2
DIMSTYLE
  5
746F
330
0
100
AcDbSymbolTable
 70
     1
100
AcDbDimStyleTable
 71
     1
340
F71F
  0
DIMSTYLE
105
F71F
102
{ACAD_REACTORS
330
2217B
330
220D3
330
2201B
330
21FC8
330
21FC5
330
21FC4
330
21FBD
330
21FBB
330
21FB8
330
21FB6
330
21FB5
330
21FB3
330
21FB2
330
21FB1
330
21FAD
330
21FAB
330
21FA9
330
21FA8
330
21FA4
330
21FA2
330
20B16
330
20324
330
20323
330
20322
330
1FB1E
330
1FACB
330
1E701
330
1D959
330
1D947
330
1D946
330
1D942
330
1D940
330
1D93F
330
1D93E
330
1D934
330
1D933
330
1D92D
330
1D92C
330
1D929
330
1D927
330
1D926
330
1D925
330
1D920
330
1D91D
330
1D91C
330
1D91B
102
}
330
746F
100
AcDbSymbolTableRecord
100
AcDbDimStyleTableRecord
  2
INABA_S40G
 70
     0
 40
40.0
 41
2.5
 42
0.5
 43
7.0
 44
1.5
 73
     0
 74
     0
 77
     3
 78
     8
140
3.0
141
0.0
143
0.0394
147
1.0
172
     1
173
     1
174
     1
178
     7
271
     1
288
     1
340
F706
341
F770
343
F770
344
F770
  0
ENDTAB
  0
TABLE
  2
BLOCK_RECORD
  5
7466
330
0
100
AcDbSymbolTable
 70
    31
  0
BLOCK_RECORD
  5
747D
330
7466
100
AcDbSymbolTableRecord
100
AcDbBlockTableRecord
  2
*MODEL_SPACE
340
159B3
  0
BLOCK_RECORD
  5
747A
330
7466
100
AcDbSymbolTableRecord
100
AcDbBlockTableRecord
  2
*PAPER_SPACE
340
159B4
  0
BLOCK_RECORD
  5
F770
330
7466
100
AcDbSymbolTableRecord
100
AcDbBlockTableRecord
  2
_DOTSMALL
340
0
102
{BLKREFS
331
221E4
331
221E5
331
221ED
331
221EE
331
221F6
331
221F7
331
221FF
331
22200
331
2220A
331
2220B
331
22213
331
22214
331
2221C
331
2221D
331
22225
331
22226
331
2222E
331
2222F
331
22237
331
22238
331
22240
331
22241
331
2224A
331
2224B
331
22254
331
22255
331
2225E
331
2225F
331
22269
331
2226A
331
22273
331
22274
331
2227E
331
2227F
331
22288
331
22289
331
22293
331
22294
331
2229D
331
2229E
331
222A6
331
222A7
331
222AF
331
222B0
331
222BA
331
222BB
331
222C4
331
222C5
331
222CD
331
222CE
331
222D6
331
222D7
331
222E0
331
222E1
331
222EA
331
222EB
331
222FE
331
222FF
102
}
  0
BLOCK_RECORD
  5
1DA44
330
7466
100
AcDbSymbolTableRecord
100
AcDbBlockTableRecord
  2
*D1
340
0
  0
BLOCK_RECORD
  5
1DA51
330
7466
100
AcDbSymbolTableRecord
100
AcDbBlockTableRecord
  2
*D2
340
0
  0
BLOCK_RECORD
  5
1DA5E
330
7466
100
AcDbSymbolTableRecord
100
AcDbBlockTableRecord
  2
*D3
340
0
  0
BLOCK_RECORD
  5
1DA69
330
7466
100
AcDbSymbolTableRecord
100
AcDbBlockTableRecord
  2
*D4
340
0
  0
BLOCK_RECORD
  5
1DA74
330
7466
100
AcDbSymbolTableRecord
100
AcDbBlockTableRecord
  2
*D5
340
0
  0
BLOCK_RECORD
  5
1DA81
330
7466
100
AcDbSymbolTableRecord
100
AcDbBlockTableRecord
  2
*D6
340
0
  0
BLOCK_RECORD
  5
1DA8E
330
7466
100
AcDbSymbolTableRecord
100
AcDbBlockTableRecord
  2
*D7
340
0
  0
BLOCK_RECORD
  5
1DA9A
330
7466
100
AcDbSymbolTableRecord
100
AcDbBlockTableRecord
  2
*D8
340
0
  0
BLOCK_RECORD
  5
1DAA5
330
7466
100
AcDbSymbolTableRecord
100
AcDbBlockTableRecord
  2
*D9
340
0
  0
BLOCK_RECORD
  5
1DAB2
330
7466
100
AcDbSymbolTableRecord
100
AcDbBlockTableRecord
  2
*D10
340
0
  0
BLOCK_RECORD
  5
1DABE
330
7466
100
AcDbSymbolTableRecord
100
AcDbBlockTableRecord
  2
*D11
340
0
  0
BLOCK_RECORD
  5
1DACB
330
7466
100
AcDbSymbolTableRecord
100
AcDbBlockTableRecord
  2
*D12
340
0
  0
BLOCK_RECORD
  5
1DAD9
330
7466
100
AcDbSymbolTableRecord
100
AcDbBlockTableRecord
  2
*D13
340
0
  0
BLOCK_RECORD
  5
1DAE6
330
7466
100
AcDbSymbolTableRecord
100
AcDbBlockTableRecord
  2
*D14
340
0
  0
BLOCK_RECORD
  5
1DAF3
330
7466
100
AcDbSymbolTableRecord
100
AcDbBlockTableRecord
  2
*D15
340
0
  0
BLOCK_RECORD
  5
1DB00
330
7466
100
AcDbSymbolTableRecord
100
AcDbBlockTableRecord
  2
*D16
340
0
  0
BLOCK_RECORD
  5
1DB1A
330
7466
100
AcDbSymbolTableRecord
100
AcDbBlockTableRecord
  2
*D17
340
0
  0
BLOCK_RECORD
  5
1FACC
330
7466
100
AcDbSymbolTableRecord
100
AcDbBlockTableRecord
  2
*D18
340
0
  0
BLOCK_RECORD
  5
1FB1F
330
7466
100
AcDbSymbolTableRecord
100
AcDbBlockTableRecord
  2
*D19
340
0
  0
BLOCK_RECORD
  5
20325
330
7466
100
AcDbSymbolTableRecord
100
AcDbBlockTableRecord
  2
*D20
340
0
  0
BLOCK_RECORD
  5
20331
330
7466
100
AcDbSymbolTableRecord
100
AcDbBlockTableRecord
  2
*D21
340
0
  0
BLOCK_RECORD
  5
2033D
330
7466
100
AcDbSymbolTableRecord
100
AcDbBlockTableRecord
  2
*D22
340
0
  0
BLOCK_RECORD
  5
220D5
330
7466
100
AcDbSymbolTableRecord
100
AcDbBlockTableRecord
  2
*D23
340
0
  0
BLOCK_RECORD
  5
220E1
330
7466
100
AcDbSymbolTableRecord
100
AcDbBlockTableRecord
  2
*D24
340
0
  0
BLOCK_RECORD
  5
220F2
330
7466
100
AcDbSymbolTableRecord
100
AcDbBlockTableRecord
  2
*D25
340
0
  0
BLOCK_RECORD
  5
220FE
330
7466
100
AcDbSymbolTableRecord
100
AcDbBlockTableRecord
  2
*D26
340
0
  0
BLOCK_RECORD
  5
2210A
330
7466
100
AcDbSymbolTableRecord
100
AcDbBlockTableRecord
  2
*D27
340
0
  0
BLOCK_RECORD
  5
22116
330
7466
100
AcDbSymbolTableRecord
100
AcDbBlockTableRecord
  2
*D28
340
0
  0
BLOCK_RECORD
  5
2217C
330
7466
100
AcDbSymbolTableRecord
100
AcDbBlockTableRecord
  2
*D29
340
0
  0
ENDTAB
  0
ENDSEC
  0
SECTION
  2
BLOCKS
  0
BLOCK
  5
7489
330
747D
100
AcDbEntity
  8
0
100
AcDbBlockBegin
  2
*MODEL_SPACE
 70
     0
 10
0.0
 20
0.0
 30
0.0
  3
*MODEL_SPACE
  1

  0
ENDBLK
  5
748A
330
747D
100
AcDbEntity
  8
0
100
AcDbBlockEnd
  0
BLOCK
  5
7487
330
747A
100
AcDbEntity
 67
     1
  8
0
100
AcDbBlockBegin
  2
*PAPER_SPACE
 70
     0
 10
0.0
 20
0.0
 30
0.0
  3
*PAPER_SPACE
  1

  0
ENDBLK
  5
7488
330
747A
100
AcDbEntity
 67
     1
  8
0
100
AcDbBlockEnd
  0
BLOCK
  5
F771
330
F770
100
AcDbEntity
  8
0
 48
50.0
100
AcDbBlockBegin
  2
_DOTSMALL
 70
     0
 10
0.0
 20
0.0
 30
0.0
  3
_DOTSMALL
  1

  0
LWPOLYLINE
  5
F772
330
F770
100
AcDbEntity
  8
0
  6
ByBlock
 62
     0
 48
50.0
100
AcDbPolyline
 90
        2
 70
     1
 43
0.5
 10
-0.0625
 20
0.0
 42
1.0
 10
0.0625
 20
0.0
 42
1.0
  0
ENDBLK
  5
F776
330
F770
100
AcDbEntity
  8
0
 48
50.0
100
AcDbBlockEnd
  0
BLOCK
  5
1DA4F
330
1DA44
100
AcDbEntity
  8
0
 48
50.0
100
AcDbBlockBegin
  2
*D1
 70
     1
 10
0.0
 20
0.0
 30
0.0
  3
*D1
  1

  0
LINE
  5
222E6
330
1DA44
100
AcDbEntity
  8
寸法
 62
     0
 48
50.0
370
    -2
100
AcDbLine
 10
7573.599999999998
 20
5073.281687023918
 30
0.0
 11
7830.307249876097
 21
5073.281687023918
 31
0.0
  0
LINE
  5
222E7
330
1DA44
100
AcDbEntity
  8
寸法
 62
     0
 48
50.0
370
    -2
100
AcDbLine
 10
7573.599999999998
 20
5203.28168702392
 30
0.0
 11
7830.307249876097
 21
5203.28168702392
 31
0.0
  0
LINE
  5
222E8
330
1DA44
100
AcDbEntity
  8
寸法
 62
     0
 48
50.0
370
    -2
100
AcDbLine
 10
7770.307249876097
 20
5073.281687023918
 30
0.0
 11
7770.307249876097
 21
5203.28168702392
 31
0.0
  0
LINE
  5
222E9
330
1DA44
100
AcDbEntity
  8
寸法
 62
     0
 48
50.0
370
    -2
100
AcDbLine
 10
7770.307249876097
 20
5203.28168702392
 30
0.0
 11
7770.307249876097
 21
5575.376175212896
 31
0.0
  0
INSERT
  5
222EA
330
1DA44
100
AcDbEntity
  8
寸法
 62
     0
 48
50.0
370
    -2
100
AcDbBlockReference
  2
_DOTSMALL
 10
7770.307249876097
 20
5073.281687023918
 30
0.0
 41
100.0
 42
100.0
 43
100.0
 50
270.0
  0
INSERT
  5
222EB
330
1DA44
100
AcDbEntity
  8
寸法
 62
     0
 48
50.0
370
    -2
100
AcDbBlockReference
  2
_DOTSMALL
 10
7770.307249876097
 20
5203.28168702392
 30
0.0
 41
100.0
 42
100.0
 43
100.0
 50
90.0
  0
MTEXT
  5
222EC
330
1DA44
100
AcDbEntity
  8
寸法
 62
     7
 48
50.0
100
AcDbMText
 10
7670.307249876096
 20
5439.32893111841
 30
0.0
 40
120.0
 41
0.0
 71
     5
 72
     1
  1
\A1;130
  7
STYLE1
 11
0.0000000000000001
 21
1.0
 31
0.0
 73
     1
 44
1.0
1001
ACAD
1000
MTEXTBEGIN
1070
    73
1070
     1
1070
    44
1040
1.0
1070
    74
1070
     0
1000
MTEXTEND
  0
POINT
  5
222ED
330
1DA44
100
AcDbEntity
  8
DEFPOINTS
 62
     0
 48
50.0
100
AcDbPoint
 10
7553.599999999999
 20
5073.281687023918
 30
0.0
  0
POINT
  5
222EE
330
1DA44
100
AcDbEntity
  8
DEFPOINTS
 62
     0
 48
50.0
100
AcDbPoint
 10
7553.599999999999
 20
5203.28168702392
 30
0.0
  0
POINT
  5
222EF
330
1DA44
100
AcDbEntity
  8
DEFPOINTS
 62
     0
 48
50.0
100
AcDbPoint
 10
7770.307249876097
 20
5203.28168702392
 30
0.0
  0
ENDBLK
  5
1DA50
330
1DA44
100
AcDbEntity
  8
0
 48
50.0
100
AcDbBlockEnd
  0
BLOCK
  5
1DA5C
330
1DA51
100
AcDbEntity
  8
0
 48
50.0
100
AcDbBlockBegin
  2
*D2
 70
     1
 10
0.0
 20
0.0
 30
0.0
  3
*D2
  1

  0
LINE
  5
222DC
330
1DA51
100
AcDbEntity
  8
寸法
 62
     0
 48
50.0
370
    -2
100
AcDbLine
 10
7573.599999999998
 20
5073.281687023921
 30
0.0
 11
7830.307249876097
 21
5073.281687023921
 31
0.0
  0
LINE
  5
222DD
330
1DA51
100
AcDbEntity
  8
寸法
 62
     0
 48
50.0
370
    -2
100
AcDbLine
 10
7573.599999999998
 20
4903.281687023919
 30
0.0
 11
7830.307249876097
 21
4903.281687023919
 31
0.0
  0
LINE
  5
222DE
330
1DA51
100
AcDbEntity
  8
寸法
 62
     0
 48
50.0
370
    -2
100
AcDbLine
 10
7770.307249876097
 20
5073.281687023921
 30
0.0
 11
7770.307249876097
 21
4903.281687023919
 31
0.0
  0
LINE
  5
222DF
330
1DA51
100
AcDbEntity
  8
寸法
 62
     0
 48
50.0
370
    -2
100
AcDbLine
 10
7770.307249876097
 20
4903.281687023919
 30
0.0
 11
7770.307249876097
 21
4531.187198834942
 31
0.0
  0
INSERT
  5
222E0
330
1DA51
100
AcDbEntity
  8
寸法
 62
     0
 48
50.0
370
    -2
100
AcDbBlockReference
  2
_DOTSMALL
 10
7770.307249876097
 20
5073.281687023921
 30
0.0
 41
100.0
 42
100.0
 43
100.0
 50
90.0
  0
INSERT
  5
222E1
330
1DA51
100
AcDbEntity
  8
寸法
 62
     0
 48
50.0
370
    -2
100
AcDbBlockReference
  2
_DOTSMALL
 10
7770.307249876097
 20
4903.281687023919
 30
0.0
 41
100.0
 42
100.0
 43
100.0
 50
270.0
  0
MTEXT
  5
222E2
330
1DA51
100
AcDbEntity
  8
寸法
 62
     7
 48
50.0
100
AcDbMText
 10
7670.307249876096
 20
4667.23444292943
 30
0.0
 40
120.0
 41
0.0
 71
     5
 72
     1
  1
\A1;170
  7
STYLE1
 11
0.0000000000000001
 21
1.0
 31
0.0
 73
     1
 44
1.0
1001
ACAD
1000
MTEXTBEGIN
1070
    73
1070
     1
1070
    44
1040
1.0
1070
    74
1070
     0
1000
MTEXTEND
  0
POINT
  5
222E3
330
1DA51
100
AcDbEntity
  8
DEFPOINTS
 62
     0
 48
50.0
100
AcDbPoint
 10
7553.599999999999
 20
5073.281687023921
 30
0.0
  0
POINT
  5
222E4
330
1DA51
100
AcDbEntity
  8
DEFPOINTS
 62
     0
 48
50.0
100
AcDbPoint
 10
7553.599999999999
 20
4903.281687023919
 30
0.0
  0
POINT
  5
222E5
330
1DA51
100
AcDbEntity
  8
DEFPOINTS
 62
     0
 48
50.0
100
AcDbPoint
 10
7770.307249876097
 20
4903.281687023919
 30
0.0
  0
ENDBLK
  5
1DA5D
330
1DA51
100
AcDbEntity
  8
0
 48
50.0
100
AcDbBlockEnd
  0
BLOCK
  5
1DA67
330
1DA5E
100
AcDbEntity
  8
0
 48
50.0
100
AcDbBlockBegin
  2
*D3
 70
     1
 10
0.0
 20
0.0
 30
0.0
  3
*D3
  1

  0
LINE
  5
222D3
330
1DA5E
100
AcDbEntity
  8
寸法
 62
     0
 48
50.0
370
    -2
100
AcDbLine
 10
8740.599999999998
 20
7490.281687023916
 30
0.0
 11
8740.599999999998
 21
8408.342297413847
 31
0.0
  0
LINE
  5
222D4
330
1DA5E
100
AcDbEntity
  8
寸法
 62
     0
 48
50.0
370
    -2
100
AcDbLine
 10
7446.6
 20
7490.281687023916
 30
0.0
 11
7446.6
 21
8408.342297413847
 31
0.0
  0
LINE
  5
222D5
330
1DA5E
100
AcDbEntity
  8
寸法
 62
     0
 48
50.0
370
    -2
100
AcDbLine
 10
8740.599999999998
 20
8348.342297413847
 30
0.0
 11
7446.6
 21
8348.342297413847
 31
0.0
  0
INSERT
  5
222D6
330
1DA5E
100
AcDbEntity
  8
寸法
 62
     0
 48
50.0
370
    -2
100
AcDbBlockReference
  2
_DOTSMALL
 10
8740.599999999998
 20
8348.342297413847
 30
0.0
 41
100.0
 42
100.0
 43
100.0
  0
INSERT
  5
222D7
330
1DA5E
100
AcDbEntity
  8
寸法
 62
     0
 48
50.0
370
    -2
100
AcDbBlockReference
  2
_DOTSMALL
 10
7446.6
 20
8348.342297413847
 30
0.0
 41
100.0
 42
100.0
 43
100.0
 50
180.0
  0
MTEXT
  5
222D8
330
1DA5E
100
AcDbEntity
  8
寸法
 62
     7
 48
50.0
100
AcDbMText
 10
8093.6
 20
8448.354108437468
 30
0.0
 40
120.0
 41
0.0
 71
     5
 72
     1
  1
\A1;1294
  7
STYLE1
 73
     1
 44
1.0
1001
ACAD
1000
MTEXTBEGIN
1070
    73
1070
     1
1070
    44
1040
1.0
1070
    74
1070
     0
1000
MTEXTEND
  0
POINT
  5
222D9
330
1DA5E
100
AcDbEntity
  8
DEFPOINTS
 62
     0
 48
50.0
100
AcDbPoint
 10
8740.599999999998
 20
7470.281687023917
 30
0.0
  0
POINT
  5
222DA
330
1DA5E
100
AcDbEntity
  8
DEFPOINTS
 62
     0
 48
50.0
100
AcDbPoint
 10
7446.6
 20
7470.281687023917
 30
0.0
  0
POINT
  5
222DB
330
1DA5E
100
AcDbEntity
  8
DEFPOINTS
 62
     0
 48
50.0
100
AcDbPoint
 10
7446.6
 20
8348.342297413847
 30
0.0
  0
ENDBLK
  5
1DA68
330
1DA5E
100
AcDbEntity
  8
0
 48
50.0
100
AcDbBlockEnd
  0
BLOCK
  5
1DA72
330
1DA69
100
AcDbEntity
  8
0
 48
50.0
100
AcDbBlockBegin
  2
*D4
 70
     1
 10
0.0
 20
0.0
 30
0.0
  3
*D4
  1

  0
LINE
  5
222CA
330
1DA69
100
AcDbEntity
  8
寸法
 62
     0
 48
50.0
370
    -2
100
AcDbLine
 10
7323.599999999998
 20
7563.281687023916
 30
0.0
 11
7323.599999999998
 21
8620.802992930682
 31
0.0
  0
LINE
  5
222CB
330
1DA69
100
AcDbEntity
  8
寸法
 62
     0
 48
50.0
370
    -2
100
AcDbLine
 10
8863.599999999998
 20
7563.281687023916
 30
0.0
 11
8863.599999999998
 21
8620.802992930682
 31
0.0
  0
LINE
  5
222CC
330
1DA69
100
AcDbEntity
  8
寸法
 62
     0
 48
50.0
370
    -2
100
AcDbLine
 10
7323.599999999998
 20
8560.802992930684
 30
0.0
 11
8863.599999999998
 21
8560.802992930684
 31
0.0
  0
INSERT
  5
222CD
330
1DA69
100
AcDbEntity
  8
寸法
 62
     0
 48
50.0
370
    -2
100
AcDbBlockReference
  2
_DOTSMALL
 10
7323.599999999998
 20
8560.802992930684
 30
0.0
 41
100.0
 42
100.0
 43
100.0
 50
180.0
  0
INSERT
  5
222CE
330
1DA69
100
AcDbEntity
  8
寸法
 62
     0
 48
50.0
370
    -2
100
AcDbBlockReference
  2
_DOTSMALL
 10
8863.599999999998
 20
8560.802992930684
 30
0.0
 41
100.0
 42
100.0
 43
100.0
  0
MTEXT
  5
222CF
330
1DA69
100
AcDbEntity
  8
寸法
 62
     7
 48
50.0
100
AcDbMText
 10
8093.6
 20
8660.802992930683
 30
0.0
 40
120.0
 41
0.0
 71
     5
 72
     1
  1
\A1;1540
  7
STYLE1
 73
     1
 44
1.0
1001
ACAD
1000
MTEXTBEGIN
1070
    73
1070
     1
1070
    44
1040
1.0
1070
    74
1070
     0
1000
MTEXTEND
  0
POINT
  5
222D0
330
1DA69
100
AcDbEntity
  8
DEFPOINTS
 62
     0
 48
50.0
100
AcDbPoint
 10
7323.599999999998
 20
7543.281687023917
 30
0.0
  0
POINT
  5
222D1
330
1DA69
100
AcDbEntity
  8
DEFPOINTS
 62
     0
 48
50.0
100
AcDbPoint
 10
8863.599999999998
 20
7543.281687023917
 30
0.0
  0
POINT
  5
222D2
330
1DA69
100
AcDbEntity
  8
DEFPOINTS
 62
     0
 48
50.0
100
AcDbPoint
 10
8863.599999999998
 20
8560.802992930684
 30
0.0
  0
ENDBLK
  5
1DA73
330
1DA69
100
AcDbEntity
  8
0
 48
50.0
100
AcDbBlockEnd
  0
BLOCK
  5
1DA7F
330
1DA74
100
AcDbEntity
  8
0
 48
50.0
100
AcDbBlockBegin
  2
*D5
 70
     1
 10
0.0
 20
0.0
 30
0.0
  3
*D5
  1

  0
LINE
  5
222C0
330
1DA74
100
AcDbEntity
  8
寸法
 62
     0
 48
50.0
370
    -2
100
AcDbLine
 10
7446.6
 20
7490.281687023916
 30
0.0
 11
7446.6
 21
8408.342297413847
 31
0.0
  0
LINE
  5
222C1
330
1DA74
100
AcDbEntity
  8
寸法
 62
     0
 48
50.0
370
    -2
100
AcDbLine
 10
7323.599999999998
 20
7563.281687023916
 30
0.0
 11
7323.599999999998
 21
8408.342297413847
 31
0.0
  0
LINE
  5
222C2
330
1DA74
100
AcDbEntity
  8
寸法
 62
     0
 48
50.0
370
    -2
100
AcDbLine
 10
7446.6
 20
8348.342297413847
 30
0.0
 11
7323.599999999998
 21
8348.342297413847
 31
0.0
  0
LINE
  5
222C3
330
1DA74
100
AcDbEntity
  8
寸法
 62
     0
 48
50.0
370
    -2
100
AcDbLine
 10
7323.599999999998
 20
8348.342297413847
 30
0.0
 11
6946.62943725152
 21
8348.342297413847
 31
0.0
  0
INSERT
  5
222C4
330
1DA74
100
AcDbEntity
  8
寸法
 62
     0
 48
50.0
370
    -2
100
AcDbBlockReference
  2
_DOTSMALL
 10
7446.6
 20
8348.342297413847
 30
0.0
 41
100.0
 42
100.0
 43
100.0
  0
INSERT
  5
222C5
330
1DA74
100
AcDbEntity
  8
寸法
 62
     0
 48
50.0
370
    -2
100
AcDbBlockReference
  2
_DOTSMALL
 10
7323.599999999998
 20
8348.342297413847
 30
0.0
 41
100.0
 42
100.0
 43
100.0
 50
180.0
  0
MTEXT
  5
222C6
330
1DA74
100
AcDbEntity
  8
寸法
 62
     7
 48
50.0
100
AcDbMText
 10
7085.11471862576
 20
8448.354108437468
 30
0.0
 40
120.0
 41
0.0
 71
     5
 72
     1
  1
\A1;123
  7
STYLE1
 73
     1
 44
1.0
1001
ACAD
1000
MTEXTBEGIN
1070
    73
1070
     1
1070
    44
1040
1.0
1070
    74
1070
     0
1000
MTEXTEND
  0
POINT
  5
222C7
330
1DA74
100
AcDbEntity
  8
DEFPOINTS
 62
     0
 48
50.0
100
AcDbPoint
 10
7446.6
 20
7470.281687023917
 30
0.0
  0
POINT
  5
222C8
330
1DA74
100
AcDbEntity
  8
DEFPOINTS
 62
     0
 48
50.0
100
AcDbPoint
 10
7323.599999999998
 20
7543.281687023917
 30
0.0
  0
POINT
  5
222C9
330
1DA74
100
AcDbEntity
  8
DEFPOINTS
 62
     0
 48
50.0
100
AcDbPoint
 10
7323.599999999998
 20
8348.342297413847
 30
0.0
  0
ENDBLK
  5
1DA80
330
1DA74
100
AcDbEntity
  8
0
 48
50.0
100
AcDbBlockEnd
  0
BLOCK
  5
1DA8C
330
1DA81
100
AcDbEntity
  8
0
 48
50.0
100
AcDbBlockBegin
  2
*D6
 70
     1
 10
0.0
 20
0.0
 30
0.0
  3
*D6
  1

  0
LINE
  5
222B5
330
1DA81
100
AcDbEntity
  8
寸法
 62
     0
 48
50.0
370
    -2
100
AcDbLine
 10
7278.599999999994
 20
8368.342297413846
 30
0.0
 11
7278.599999999994
 21
8620.802992930684
 31
0.0
  0
LINE
  5
222B6
330
1DA81
100
AcDbEntity
  8
寸法
 62
     0
 48
50.0
370
    -2
100
AcDbLine
 10
7323.599999999998
 20
7563.281687023916
 30
0.0
 11
7323.599999999998
 21
8620.802992930684
 31
0.0
  0
LINE
  5
222B7
330
1DA81
100
AcDbEntity
  8
寸法
 62
     0
 48
50.0
370
    -2
100
AcDbLine
 10
7278.599999999994
 20
8560.802992930685
 30
0.0
 11
7178.599999999994
 21
8560.802992930685
 31
0.0
  0
LINE
  5
222B8
330
1DA81
100
AcDbEntity
  8
寸法
 62
     0
 48
50.0
370
    -2
100
AcDbLine
 10
7323.599999999998
 20
8560.802992930685
 30
0.0
 11
7423.599999999999
 21
8560.802992930685
 31
0.0
  0
LINE
  5
222B9
330
1DA81
100
AcDbEntity
  8
寸法
 62
     0
 48
50.0
370
    -2
100
AcDbLine
 10
7278.599999999994
 20
8560.802992930685
 30
0.0
 11
7323.599999999998
 21
8560.802992930685
 31
0.0
  0
INSERT
  5
222BA
330
1DA81
100
AcDbEntity
  8
寸法
 62
     0
 48
50.0
370
    -2
100
AcDbBlockReference
  2
_DOTSMALL
 10
7278.599999999994
 20
8560.802992930685
 30
0.0
 41
100.0
 42
100.0
 43
100.0
  0
INSERT
  5
222BB
330
1DA81
100
AcDbEntity
  8
寸法
 62
     0
 48
50.0
370
    -2
100
AcDbBlockReference
  2
_DOTSMALL
 10
7323.599999999998
 20
8560.802992930685
 30
0.0
 41
100.0
 42
100.0
 43
100.0
 50
180.0
  0
MTEXT
  5
222BC
330
1DA81
100
AcDbEntity
  8
寸法
 62
     7
 48
50.0
100
AcDbMText
 10
7301.099999999997
 20
8660.802992930685
 30
0.0
 40
120.0
 41
0.0
 71
     5
 72
     1
  1
\A1;a
  7
STYLE1
 73
     1
 44
1.0
1001
ACAD
1000
MTEXTBEGIN
1070
    73
1070
     1
1070
    44
1040
1.0
1070
    74
1070
     0
1000
MTEXTEND
  0
POINT
  5
222BD
330
1DA81
100
AcDbEntity
  8
DEFPOINTS
 62
     0
 48
50.0
100
AcDbPoint
 10
7278.599999999994
 20
8348.342297413847
 30
0.0
  0
POINT
  5
222BE
330
1DA81
100
AcDbEntity
  8
DEFPOINTS
 62
     0
 48
50.0
100
AcDbPoint
 10
7323.599999999998
 20
7543.281687023917
 30
0.0
  0
POINT
  5
222BF
330
1DA81
100
AcDbEntity
  8
DEFPOINTS
 62
     0
 48
50.0
100
AcDbPoint
 10
7323.599999999998
 20
8560.802992930685
 30
0.0
  0
ENDBLK
  5
1DA8D
330
1DA81
100
AcDbEntity
  8
0
 48
50.0
100
AcDbBlockEnd
  0
BLOCK
  5
1DA98
330
1DA8E
100
AcDbEntity
  8
0
 48
50.0
100
AcDbBlockBegin
  2
*D7
 70
     1
 10
0.0
 20
0.0
 30
0.0
  3
*D7
  1

  0
LINE
  5
222AC
330
1DA8E
100
AcDbEntity
  8
寸法
 62
     0
 48
50.0
370
    -2
100
AcDbLine
 10
7376.599999999999
 20
7420.281687023917
 30
0.0
 11
6767.657733986183
 21
7420.281687023917
 31
0.0
  0
LINE
  5
222AD
330
1DA8E
100
AcDbEntity
  8
寸法
 62
     0
 48
50.0
370
    -2
100
AcDbLine
 10
7376.600000000006
 20
5101.281687023918
 30
0.0
 11
6767.657733986182
 21
5101.281687023918
 31
0.0
  0
LINE
  5
222AE
330
1DA8E
100
AcDbEntity
  8
寸法
 62
     0
 48
50.0
370
    -2
100
AcDbLine
 10
6827.657733986183
 20
7420.281687023917
 30
0.0
 11
6827.657733986183
 21
5101.281687023918
 31
0.0
  0
INSERT
  5
222AF
330
1DA8E
100
AcDbEntity
  8
寸法
 62
     0
 48
50.0
370
    -2
100
AcDbBlockReference
  2
_DOTSMALL
 10
6827.657733986183
 20
7420.281687023917
 30
0.0
 41
100.0
 42
100.0
 43
100.0
 50
90.0
  0
INSERT
  5
222B0
330
1DA8E
100
AcDbEntity
  8
寸法
 62
     0
 48
50.0
370
    -2
100
AcDbBlockReference
  2
_DOTSMALL
 10
6827.657733986183
 20
5101.281687023918
 30
0.0
 41
100.0
 42
100.0
 43
100.0
 50
270.0
  0
MTEXT
  5
222B1
330
1DA8E
100
AcDbEntity
  8
寸法
 62
     7
 48
50.0
100
AcDbMText
 10
6727.64592296256
 20
6260.781687023918
 30
0.0
 40
120.0
 41
0.0
 71
     5
 72
     1
  1
\A1;2319
  7
STYLE1
 11
0.0000000000000001
 21
1.0
 31
0.0
 73
     1
 44
1.0
1001
ACAD
1000
MTEXTBEGIN
1070
    73
1070
     1
1070
    44
1040
1.0
1070
    74
1070
     0
1000
MTEXTEND
  0
POINT
  5
222B2
330
1DA8E
100
AcDbEntity
  8
DEFPOINTS
 62
     0
 48
50.0
100
AcDbPoint
 10
7396.599999999999
 20
7420.281687023917
 30
0.0
  0
POINT
  5
222B3
330
1DA8E
100
AcDbEntity
  8
DEFPOINTS
 62
     0
 48
50.0
100
AcDbPoint
 10
7396.600000000006
 20
5101.281687023918
 30
0.0
  0
POINT
  5
222B4
330
1DA8E
100
AcDbEntity
  8
DEFPOINTS
 62
     0
 48
50.0
100
AcDbPoint
 10
6827.657733986183
 20
5101.281687023918
 30
0.0
  0
ENDBLK
  5
1DA99
330
1DA8E
100
AcDbEntity
  8
0
 48
50.0
100
AcDbBlockEnd
  0
BLOCK
  5
1DAA3
330
1DA9A
100
AcDbEntity
  8
0
 48
50.0
100
AcDbBlockBegin
  2
*D8
 70
     1
 10
0.0
 20
0.0
 30
0.0
  3
*D8
  1

  0
LINE
  5
222A3
330
1DA9A
100
AcDbEntity
  8
寸法
 62
     0
 48
50.0
370
    -2
100
AcDbLine
 10
7303.599999999999
 20
7543.281687023917
 30
0.0
 11
6522.164931848223
 21
7543.281687023917
 31
0.0
  0
LINE
  5
222A4
330
1DA9A
100
AcDbEntity
  8
寸法
 62
     0
 48
50.0
370
    -2
100
AcDbLine
 10
7303.599999999999
 20
4903.281687023916
 30
0.0
 11
6522.164931848222
 21
4903.281687023916
 31
0.0
  0
LINE
  5
222A5
330
1DA9A
100
AcDbEntity
  8
寸法
 62
     0
 48
50.0
370
    -2
100
AcDbLine
 10
6582.164931848223
 20
7543.281687023917
 30
0.0
 11
6582.164931848223
 21
4903.281687023916
 31
0.0
  0
INSERT
  5
222A6
330
1DA9A
100
AcDbEntity
  8
寸法
 62
     0
 48
50.0
370
    -2
100
AcDbBlockReference
  2
_DOTSMALL
 10
6582.164931848223
 20
7543.281687023917
 30
0.0
 41
100.0
 42
100.0
 43
100.0
 50
90.0
  0
INSERT
  5
222A7
330
1DA9A
100
AcDbEntity
  8
寸法
 62
     0
 48
50.0
370
    -2
100
AcDbBlockReference
  2
_DOTSMALL
 10
6582.164931848223
 20
4903.281687023916
 30
0.0
 41
100.0
 42
100.0
 43
100.0
 50
270.0
  0
MTEXT
  5
222A8
330
1DA9A
100
AcDbEntity
  8
寸法
 62
     7
 48
50.0
100
AcDbMText
 10
6482.1531208246
 20
6223.281687023916
 30
0.0
 40
120.0
 41
0.0
 71
     5
 72
     1
  1
\A1;2640
  7
STYLE1
 11
0.0000000000000001
 21
1.0
 31
0.0
 73
     1
 44
1.0
1001
ACAD
1000
MTEXTBEGIN
1070
    73
1070
     1
1070
    44
1040
1.0
1070
    74
1070
     0
1000
MTEXTEND
  0
POINT
  5
222A9
330
1DA9A
100
AcDbEntity
  8
DEFPOINTS
 62
     0
 48
50.0
100
AcDbPoint
 10
7323.599999999998
 20
7543.281687023917
 30
0.0
  0
POINT
  5
222AA
330
1DA9A
100
AcDbEntity
  8
DEFPOINTS
 62
     0
 48
50.0
100
AcDbPoint
 10
7323.599999999998
 20
4903.281687023916
 30
0.0
  0
POINT
  5
222AB
330
1DA9A
100
AcDbEntity
  8
DEFPOINTS
 62
     0
 48
50.0
100
AcDbPoint
 10
6582.164931848223
 20
4903.281687023916
 30
0.0
  0
ENDBLK
  5
1DAA4
330
1DA9A
100
AcDbEntity
  8
0
 48
50.0
100
AcDbBlockEnd
  0
BLOCK
  5
1DAB0
330
1DAA5
100
AcDbEntity
  8
0
 48
50.0
100
AcDbBlockBegin
  2
*D9
 70
     1
 10
0.0
 20
0.0
 30
0.0
  3
*D9
  1

  0
LINE
  5
22299
330
1DAA5
100
AcDbEntity
  8
寸法
 62
     0
 48
50.0
370
    -2
100
AcDbLine
 10
7376.600000000006
 20
5101.281687023918
 30
0.0
 11
6767.657733986176
 21
5101.281687023918
 31
0.0
  0
LINE
  5
2229A
330
1DAA5
100
AcDbEntity
  8
寸法
 62
     0
 48
50.0
370
    -2
100
AcDbLine
 10
7303.599999999999
 20
4903.281687023916
 30
0.0
 11
6767.657733986176
 21
4903.281687023916
 31
0.0
  0
LINE
  5
2229B
330
1DAA5
100
AcDbEntity
  8
寸法
 62
     0
 48
50.0
370
    -2
100
AcDbLine
 10
6827.657733986177
 20
5101.281687023918
 30
0.0
 11
6827.657733986177
 21
4903.281687023916
 31
0.0
  0
LINE
  5
2229C
330
1DAA5
100
AcDbEntity
  8
寸法
 62
     0
 48
50.0
370
    -2
100
AcDbLine
 10
6827.657733986177
 20
4903.281687023916
 30
0.0
 11
6827.657733986177
 21
4530.862367364603
 31
0.0
  0
INSERT
  5
2229D
330
1DAA5
100
AcDbEntity
  8
寸法
 62
     0
 48
50.0
370
    -2
100
AcDbBlockReference
  2
_DOTSMALL
 10
6827.657733986177
 20
5101.281687023918
 30
0.0
 41
100.0
 42
100.0
 43
100.0
 50
90.0
  0
INSERT
  5
2229E
330
1DAA5
100
AcDbEntity
  8
寸法
 62
     0
 48
50.0
370
    -2
100
AcDbBlockReference
  2
_DOTSMALL
 10
6827.657733986177
 20
4903.281687023916
 30
0.0
 41
100.0
 42
100.0
 43
100.0
 50
270.0
  0
MTEXT
  5
2229F
330
1DAA5
100
AcDbEntity
  8
寸法
 62
     7
 48
50.0
100
AcDbMText
 10
6727.657733986176
 20
4667.072027194262
 30
0.0
 40
120.0
 41
0.0
 71
     5
 72
     1
  1
\A1;198
  7
STYLE1
 11
0.0000000000000001
 21
1.0
 31
0.0
 73
     1
 44
1.0
1001
ACAD
1000
MTEXTBEGIN
1070
    73
1070
     1
1070
    44
1040
1.0
1070
    74
1070
     0
1000
MTEXTEND
  0
POINT
  5
222A0
330
1DAA5
100
AcDbEntity
  8
DEFPOINTS
 62
     0
 48
50.0
100
AcDbPoint
 10
7396.600000000006
 20
5101.281687023918
 30
0.0
  0
POINT
  5
222A1
330
1DAA5
100
AcDbEntity
  8
DEFPOINTS
 62
     0
 48
50.0
100
AcDbPoint
 10
7323.599999999998
 20
4903.281687023916
 30
0.0
  0
POINT
  5
222A2
330
1DAA5
100
AcDbEntity
  8
DEFPOINTS
 62
     0
 48
50.0
100
AcDbPoint
 10
6827.657733986177
 20
4903.281687023916
 30
0.0
  0
ENDBLK
  5
1DAB1
330
1DAA5
100
AcDbEntity
  8
0
 48
50.0
100
AcDbBlockEnd
  0
BLOCK
  5
1DABC
330
1DAB2
100
AcDbEntity
  8
0
 48
50.0
100
AcDbBlockBegin
  2
*D10
 70
     1
 10
0.0
 20
0.0
 30
0.0
  3
*D10
  1

  0
LINE
  5
2228E
330
1DAB2
100
AcDbEntity
  8
寸法
 62
     0
 48
50.0
370
    -2
100
AcDbLine
 10
7303.599999999999
 20
4903.281687023916
 30
0.0
 11
6522.164931848211
 21
4903.281687023916
 31
0.0
  0
LINE
  5
2228F
330
1DAB2
100
AcDbEntity
  8
寸法
 62
     0
 48
50.0
370
    -2
100
AcDbLine
 10
6807.657733986177
 20
4848.281687023916
 30
0.0
 11
6522.164931848211
 21
4848.281687023916
 31
0.0
  0
LINE
  5
22290
330
1DAB2
100
AcDbEntity
  8
寸法
 62
     0
 48
50.0
370
    -2
100
AcDbLine
 10
6582.16493184821
 20
4903.281687023916
 30
0.0
 11
6582.16493184821
 21
5003.281687023917
 31
0.0
  0
LINE
  5
22291
330
1DAB2
100
AcDbEntity
  8
寸法
 62
     0
 48
50.0
370
    -2
100
AcDbLine
 10
6582.16493184821
 20
4848.281687023916
 30
0.0
 11
6582.16493184821
 21
4748.281687023917
 31
0.0
  0
LINE
  5
22292
330
1DAB2
100
AcDbEntity
  8
寸法
 62
     0
 48
50.0
370
    -2
100
AcDbLine
 10
6582.16493184821
 20
4903.281687023916
 30
0.0
 11
6582.16493184821
 21
4848.281687023916
 31
0.0
  0
INSERT
  5
22293
330
1DAB2
100
AcDbEntity
  8
寸法
 62
     0
 48
50.0
370
    -2
100
AcDbBlockReference
  2
_DOTSMALL
 10
6582.16493184821
 20
4903.281687023916
 30
0.0
 41
100.0
 42
100.0
 43
100.0
 50
270.0
  0
INSERT
  5
22294
330
1DAB2
100
AcDbEntity
  8
寸法
 62
     0
 48
50.0
370
    -2
100
AcDbBlockReference
  2
_DOTSMALL
 10
6582.16493184821
 20
4848.281687023916
 30
0.0
 41
100.0
 42
100.0
 43
100.0
 50
90.0
  0
MTEXT
  5
22295
330
1DAB2
100
AcDbEntity
  8
寸法
 62
     7
 48
50.0
100
AcDbMText
 10
6482.16493184821
 20
4875.781687023919
 30
0.0
 40
120.0
 41
0.0
 71
     5
 72
     1
  1
\A1;b
  7
STYLE1
 11
0.0000000000000001
 21
1.0
 31
0.0
 73
     1
 44
1.0
1001
ACAD
1000
MTEXTBEGIN
1070
    73
1070
     1
1070
    44
1040
1.0
1070
    74
1070
     0
1000
MTEXTEND
  0
POINT
  5
22296
330
1DAB2
100
AcDbEntity
  8
DEFPOINTS
 62
     0
 48
50.0
100
AcDbPoint
 10
7323.599999999998
 20
4903.281687023916
 30
0.0
  0
POINT
  5
22297
330
1DAB2
100
AcDbEntity
  8
DEFPOINTS
 62
     0
 48
50.0
100
AcDbPoint
 10
6827.657733986177
 20
4848.281687023916
 30
0.0
  0
POINT
  5
22298
330
1DAB2
100
AcDbEntity
  8
DEFPOINTS
 62
     0
 48
50.0
100
AcDbPoint
 10
6582.16493184821
 20
4848.281687023916
 30
0.0
  0
ENDBLK
  5
1DABD
330
1DAB2
100
AcDbEntity
  8
0
 48
50.0
100
AcDbBlockEnd
  0
BLOCK
  5
1DAC9
330
1DABE
100
AcDbEntity
  8
0
 48
50.0
100
AcDbBlockBegin
  2
*D11
 70
     1
 10
0.0
 20
0.0
 30
0.0
  3
*D11
  1

  0
LINE
  5
22284
330
1DABE
100
AcDbEntity
  8
寸法
 62
     0
 48
50.0
370
    -2
100
AcDbLine
 10
7303.599999999999
 20
7543.281687023917
 30
0.0
 11
6767.657733986176
 21
7543.281687023917
 31
0.0
  0
LINE
  5
22285
330
1DABE
100
AcDbEntity
  8
寸法
 62
     0
 48
50.0
370
    -2
100
AcDbLine
 10
7376.599999999999
 20
7420.281687023917
 30
0.0
 11
6767.657733986176
 21
7420.281687023917
 31
0.0
  0
LINE
  5
22286
330
1DABE
100
AcDbEntity
  8
寸法
 62
     0
 48
50.0
370
    -2
100
AcDbLine
 10
6827.657733986177
 20
7420.281687023917
 30
0.0
 11
6827.657733986177
 21
7543.281687023917
 31
0.0
  0
LINE
  5
22287
330
1DABE
100
AcDbEntity
  8
寸法
 62
     0
 48
50.0
370
    -2
100
AcDbLine
 10
6827.657733986177
 20
7543.281687023917
 30
0.0
 11
6827.657733986177
 21
7920.252249772395
 31
0.0
  0
INSERT
  5
22288
330
1DABE
100
AcDbEntity
  8
寸法
 62
     0
 48
50.0
370
    -2
100
AcDbBlockReference
  2
_DOTSMALL
 10
6827.657733986177
 20
7420.281687023917
 30
0.0
 41
100.0
 42
100.0
 43
100.0
 50
270.0
  0
INSERT
  5
22289
330
1DABE
100
AcDbEntity
  8
寸法
 62
     0
 48
50.0
370
    -2
100
AcDbBlockReference
  2
_DOTSMALL
 10
6827.657733986177
 20
7543.281687023917
 30
0.0
 41
100.0
 42
100.0
 43
100.0
 50
90.0
  0
MTEXT
  5
2228A
330
1DABE
100
AcDbEntity
  8
寸法
 62
     7
 48
50.0
100
AcDbMText
 10
6727.645922962555
 20
7781.766968398156
 30
0.0
 40
120.0
 41
0.0
 71
     5
 72
     1
  1
\A1;123
  7
STYLE1
 11
0.0000000000000001
 21
1.0
 31
0.0
 73
     1
 44
1.0
1001
ACAD
1000
MTEXTBEGIN
1070
    73
1070
     1
1070
    44
1040
1.0
1070
    74
1070
     0
1000
MTEXTEND
  0
POINT
  5
2228B
330
1DABE
100
AcDbEntity
  8
DEFPOINTS
 62
     0
 48
50.0
100
AcDbPoint
 10
7323.599999999998
 20
7543.281687023917
 30
0.0
  0
POINT
  5
2228C
330
1DABE
100
AcDbEntity
  8
DEFPOINTS
 62
     0
 48
50.0
100
AcDbPoint
 10
7396.599999999999
 20
7420.281687023917
 30
0.0
  0
POINT
  5
2228D
330
1DABE
100
AcDbEntity
  8
DEFPOINTS
 62
     0
 48
50.0
100
AcDbPoint
 10
6827.657733986177
 20
7420.281687023917
 30
0.0
  0
ENDBLK
  5
1DACA
330
1DABE
100
AcDbEntity
  8
0
 48
50.0
100
AcDbBlockEnd
  0
BLOCK
  5
1DAD7
330
1DACB
100
AcDbEntity
  8
0
 48
50.0
100
AcDbBlockBegin
  2
*D12
 70
     1
 10
0.0
 20
0.0
 30
0.0
  3
*D12
  1

  0
LINE
  5
22279
330
1DACB
100
AcDbEntity
  8
寸法
 62
     0
 48
50.0
370
    -2
100
AcDbLine
 10
6807.657733986179
 20
7618.281687023916
 30
0.0
 11
6522.164931848209
 21
7618.281687023916
 31
0.0
  0
LINE
  5
2227A
330
1DACB
100
AcDbEntity
  8
寸法
 62
     0
 48
50.0
370
    -2
100
AcDbLine
 10
7303.599999999999
 20
7543.281687023917
 30
0.0
 11
6522.164931848209
 21
7543.281687023917
 31
0.0
  0
LINE
  5
2227B
330
1DACB
100
AcDbEntity
  8
寸法
 62
     0
 48
50.0
370
    -2
100
AcDbLine
 10
6582.16493184821
 20
7618.281687023916
 30
0.0
 11
6582.16493184821
 21
7718.281687023917
 31
0.0
  0
LINE
  5
2227C
330
1DACB
100
AcDbEntity
  8
寸法
 62
     0
 48
50.0
370
    -2
100
AcDbLine
 10
6582.16493184821
 20
7543.281687023917
 30
0.0
 11
6582.16493184821
 21
7443.281687023916
 31
0.0
  0
LINE
  5
2227D
330
1DACB
100
AcDbEntity
  8
寸法
 62
     0
 48
50.0
370
    -2
100
AcDbLine
 10
6582.16493184821
 20
7618.281687023916
 30
0.0
 11
6582.16493184821
 21
7543.281687023917
 31
0.0
  0
INSERT
  5
2227E
330
1DACB
100
AcDbEntity
  8
寸法
 62
     0
 48
50.0
370
    -2
100
AcDbBlockReference
  2
_DOTSMALL
 10
6582.16493184821
 20
7618.281687023916
 30
0.0
 41
100.0
 42
100.0
 43
100.0
 50
270.0
  0
INSERT
  5
2227F
330
1DACB
100
AcDbEntity
  8
寸法
 62
     0
 48
50.0
370
    -2
100
AcDbBlockReference
  2
_DOTSMALL
 10
6582.16493184821
 20
7543.281687023917
 30
0.0
 41
100.0
 42
100.0
 43
100.0
 50
90.0
  0
MTEXT
  5
22280
330
1DACB
100
AcDbEntity
  8
寸法
 62
     7
 48
50.0
100
AcDbMText
 10
6482.164931848209
 20
7580.781687023919
 30
0.0
 40
120.0
 41
0.0
 71
     5
 72
     1
  1
\A1;c
  7
STYLE1
 11
0.0000000000000001
 21
1.0
 31
0.0
 73
     1
 44
1.0
1001
ACAD
1000
MTEXTBEGIN
1070
    73
1070
     1
1070
    44
1040
1.0
1070
    74
1070
     0
1000
MTEXTEND
  0
POINT
  5
22281
330
1DACB
100
AcDbEntity
  8
DEFPOINTS
 62
     0
 48
50.0
100
AcDbPoint
 10
6827.657733986177
 20
7618.281687023916
 30
0.0
  0
POINT
  5
22282
330
1DACB
100
AcDbEntity
  8
DEFPOINTS
 62
     0
 48
50.0
100
AcDbPoint
 10
7323.599999999998
 20
7543.281687023917
 30
0.0
  0
POINT
  5
22283
330
1DACB
100
AcDbEntity
  8
DEFPOINTS
 62
     0
 48
50.0
100
AcDbPoint
 10
6582.16493184821
 20
7543.281687023917
 30
0.0
  0
ENDBLK
  5
1DAD8
330
1DACB
100
AcDbEntity
  8
0
 48
50.0
100
AcDbBlockEnd
  0
BLOCK
  5
1DAE4
330
1DAD9
100
AcDbEntity
  8
0
 48
50.0
100
AcDbBlockBegin
  2
*D13
 70
     1
 10
0.0
 20
0.0
 30
0.0
  3
*D13
  1

  0
LINE
  5
2226F
330
1DAD9
100
AcDbEntity
  8
寸法
 62
     0
 48
50.0
370
    -2
100
AcDbLine
 10
8863.599999999998
 20
7563.281687023916
 30
0.0
 11
8863.599999999998
 21
8408.342297413847
 31
0.0
  0
LINE
  5
22270
330
1DAD9
100
AcDbEntity
  8
寸法
 62
     0
 48
50.0
370
    -2
100
AcDbLine
 10
8740.599999999998
 20
7490.281687023916
 30
0.0
 11
8740.599999999998
 21
8408.342297413847
 31
0.0
  0
LINE
  5
22271
330
1DAD9
100
AcDbEntity
  8
寸法
 62
     0
 48
50.0
370
    -2
100
AcDbLine
 10
8740.599999999998
 20
8348.342297413847
 30
0.0
 11
8863.599999999998
 21
8348.342297413847
 31
0.0
  0
LINE
  5
22272
330
1DAD9
100
AcDbEntity
  8
寸法
 62
     0
 48
50.0
370
    -2
100
AcDbLine
 10
8863.599999999998
 20
8348.342297413847
 30
0.0
 11
9240.570562748475
 21
8348.342297413847
 31
0.0
  0
INSERT
  5
22273
330
1DAD9
100
AcDbEntity
  8
寸法
 62
     0
 48
50.0
370
    -2
100
AcDbBlockReference
  2
_DOTSMALL
 10
8740.599999999998
 20
8348.342297413847
 30
0.0
 41
100.0
 42
100.0
 43
100.0
 50
180.0
  0
INSERT
  5
22274
330
1DAD9
100
AcDbEntity
  8
寸法
 62
     0
 48
50.0
370
    -2
100
AcDbBlockReference
  2
_DOTSMALL
 10
8863.599999999998
 20
8348.342297413847
 30
0.0
 41
100.0
 42
100.0
 43
100.0
  0
MTEXT
  5
22275
330
1DAD9
100
AcDbEntity
  8
寸法
 62
     7
 48
50.0
100
AcDbMText
 10
9102.085281374236
 20
8448.354108437468
 30
0.0
 40
120.0
 41
0.0
 71
     5
 72
     1
  1
\A1;123
  7
STYLE1
 73
     1
 44
1.0
1001
ACAD
1000
MTEXTBEGIN
1070
    73
1070
     1
1070
    44
1040
1.0
1070
    74
1070
     0
1000
MTEXTEND
  0
POINT
  5
22276
330
1DAD9
100
AcDbEntity
  8
DEFPOINTS
 62
     0
 48
50.0
100
AcDbPoint
 10
8863.599999999998
 20
7543.281687023917
 30
0.0
  0
POINT
  5
22277
330
1DAD9
100
AcDbEntity
  8
DEFPOINTS
 62
     0
 48
50.0
100
AcDbPoint
 10
8740.599999999998
 20
7470.281687023917
 30
0.0
  0
POINT
  5
22278
330
1DAD9
100
AcDbEntity
  8
DEFPOINTS
 62
     0
 48
50.0
100
AcDbPoint
 10
8740.599999999998
 20
8348.342297413847
 30
0.0
  0
ENDBLK
  5
1DAE5
330
1DAD9
100
AcDbEntity
  8
0
 48
50.0
100
AcDbBlockEnd
  0
BLOCK
  5
1DAF1
330
1DAE6
100
AcDbEntity
  8
0
 48
50.0
100
AcDbBlockBegin
  2
*D14
 70
     1
 10
0.0
 20
0.0
 30
0.0
  3
*D14
  1

  0
LINE
  5
22264
330
1DAE6
100
AcDbEntity
  8
寸法
 62
     0
 48
50.0
370
    -2
100
AcDbLine
 10
8863.599999999998
 20
7563.281687023916
 30
0.0
 11
8863.599999999998
 21
8620.802992930682
 31
0.0
  0
LINE
  5
22265
330
1DAE6
100
AcDbEntity
  8
寸法
 62
     0
 48
50.0
370
    -2
100
AcDbLine
 10
8908.599999999998
 20
8368.342297413846
 30
0.0
 11
8908.599999999998
 21
8620.802992930682
 31
0.0
  0
LINE
  5
22266
330
1DAE6
100
AcDbEntity
  8
寸法
 62
     0
 48
50.0
370
    -2
100
AcDbLine
 10
8863.599999999998
 20
8560.802992930684
 30
0.0
 11
8763.599999999998
 21
8560.802992930684
 31
0.0
  0
LINE
  5
22267
330
1DAE6
100
AcDbEntity
  8
寸法
 62
     0
 48
50.0
370
    -2
100
AcDbLine
 10
8908.599999999998
 20
8560.802992930684
 30
0.0
 11
9008.599999999999
 21
8560.802992930684
 31
0.0
  0
LINE
  5
22268
330
1DAE6
100
AcDbEntity
  8
寸法
 62
     0
 48
50.0
370
    -2
100
AcDbLine
 10
8863.599999999998
 20
8560.802992930684
 30
0.0
 11
8908.599999999998
 21
8560.802992930684
 31
0.0
  0
INSERT
  5
22269
330
1DAE6
100
AcDbEntity
  8
寸法
 62
     0
 48
50.0
370
    -2
100
AcDbBlockReference
  2
_DOTSMALL
 10
8863.599999999998
 20
8560.802992930684
 30
0.0
 41
100.0
 42
100.0
 43
100.0
  0
INSERT
  5
2226A
330
1DAE6
100
AcDbEntity
  8
寸法
 62
     0
 48
50.0
370
    -2
100
AcDbBlockReference
  2
_DOTSMALL
 10
8908.599999999998
 20
8560.802992930684
 30
0.0
 41
100.0
 42
100.0
 43
100.0
 50
180.0
  0
MTEXT
  5
2226B
330
1DAE6
100
AcDbEntity
  8
寸法
 62
     7
 48
50.0
100
AcDbMText
 10
8886.099999999998
 20
8660.802992930683
 30
0.0
 40
120.0
 41
0.0
 71
     5
 72
     1
  1
\A1;a
  7
STYLE1
 73
     1
 44
1.0
1001
ACAD
1000
MTEXTBEGIN
1070
    73
1070
     1
1070
    44
1040
1.0
1070
    74
1070
     0
1000
MTEXTEND
  0
POINT
  5
2226C
330
1DAE6
100
AcDbEntity
  8
DEFPOINTS
 62
     0
 48
50.0
100
AcDbPoint
 10
8863.599999999998
 20
7543.281687023917
 30
0.0
  0
POINT
  5
2226D
330
1DAE6
100
AcDbEntity
  8
DEFPOINTS
 62
     0
 48
50.0
100
AcDbPoint
 10
8908.599999999998
 20
8348.342297413847
 30
0.0
  0
POINT
  5
2226E
330
1DAE6
100
AcDbEntity
  8
DEFPOINTS
 62
     0
 48
50.0
100
AcDbPoint
 10
8908.599999999998
 20
8560.802992930684
 30
0.0
  0
ENDBLK
  5
1DAF2
330
1DAE6
100
AcDbEntity
  8
0
 48
50.0
100
AcDbBlockEnd
  0
BLOCK
  5
1DAFE
330
1DAF3
100
AcDbEntity
  8
0
 48
50.0
100
AcDbBlockBegin
  2
*D15
 70
     1
 10
0.0
 20
0.0
 30
0.0
  3
*D15
  1

  0
LINE
  5
2225A
330
1DAF3
100
AcDbEntity
  8
寸法
 62
     0
 48
50.0
370
    -2
100
AcDbLine
 10
8863.599999999998
 20
7293.281687023917
 30
0.0
 11
8863.599999999998
 21
6983.271963995846
 31
0.0
  0
LINE
  5
2225B
330
1DAF3
100
AcDbEntity
  8
寸法
 62
     0
 48
50.0
370
    -2
100
AcDbLine
 10
8743.599999999998
 20
7293.281687023919
 30
0.0
 11
8743.599999999998
 21
6983.271963995846
 31
0.0
  0
LINE
  5
2225C
330
1DAF3
100
AcDbEntity
  8
寸法
 62
     0
 48
50.0
370
    -2
100
AcDbLine
 10
8743.599999999998
 20
7043.271963995845
 30
0.0
 11
8863.599999999998
 21
7043.271963995845
 31
0.0
  0
LINE
  5
2225D
330
1DAF3
100
AcDbEntity
  8
寸法
 62
     0
 48
50.0
370
    -2
100
AcDbLine
 10
8863.599999999998
 20
7043.271963995845
 30
0.0
 11
9235.694488188975
 21
7043.271963995845
 31
0.0
  0
INSERT
  5
2225E
330
1DAF3
100
AcDbEntity
  8
寸法
 62
     0
 48
50.0
370
    -2
100
AcDbBlockReference
  2
_DOTSMALL
 10
8743.599999999998
 20
7043.271963995845
 30
0.0
 41
100.0
 42
100.0
 43
100.0
 50
180.0
  0
INSERT
  5
2225F
330
1DAF3
100
AcDbEntity
  8
寸法
 62
     0
 48
50.0
370
    -2
100
AcDbBlockReference
  2
_DOTSMALL
 10
8863.599999999998
 20
7043.271963995845
 30
0.0
 41
100.0
 42
100.0
 43
100.0
  0
MTEXT
  5
22260
330
1DAF3
100
AcDbEntity
  8
寸法
 62
     7
 48
50.0
100
AcDbMText
 10
9099.647244094487
 20
7143.283775019466
 30
0.0
 40
120.0
 41
0.0
 71
     5
 72
     1
  1
\A1;120
  7
STYLE1
 73
     1
 44
1.0
1001
ACAD
1000
MTEXTBEGIN
1070
    73
1070
     1
1070
    44
1040
1.0
1070
    74
1070
     0
1000
MTEXTEND
  0
POINT
  5
22261
330
1DAF3
100
AcDbEntity
  8
DEFPOINTS
 62
     0
 48
50.0
100
AcDbPoint
 10
8863.599999999998
 20
7313.281687023916
 30
0.0
  0
POINT
  5
22262
330
1DAF3
100
AcDbEntity
  8
DEFPOINTS
 62
     0
 48
50.0
100
AcDbPoint
 10
8743.599999999998
 20
7313.28168702392
 30
0.0
  0
POINT
  5
22263
330
1DAF3
100
AcDbEntity
  8
DEFPOINTS
 62
     0
 48
50.0
100
AcDbPoint
 10
8743.599999999998
 20
7043.271963995845
 30
0.0
  0
ENDBLK
  5
1DAFF
330
1DAF3
100
AcDbEntity
  8
0
 48
50.0
100
AcDbBlockEnd
  0
BLOCK
  5
1DB0B
330
1DB00
100
AcDbEntity
  8
0
 48
50.0
100
AcDbBlockBegin
  2
*D16
 70
     1
 10
0.0
 20
0.0
 30
0.0
  3
*D16
  1

  0
LINE
  5
22250
330
1DB00
100
AcDbEntity
  8
寸法
 62
     0
 48
50.0
370
    -2
100
AcDbLine
 10
7573.599999999998
 20
7423.281687023919
 30
0.0
 11
7846.890767703563
 21
7423.281687023919
 31
0.0
  0
LINE
  5
22251
330
1DB00
100
AcDbEntity
  8
寸法
 62
     0
 48
50.0
370
    -2
100
AcDbLine
 10
7573.599999999998
 20
7313.281687023913
 30
0.0
 11
7846.890767703563
 21
7313.281687023913
 31
0.0
  0
LINE
  5
22252
330
1DB00
100
AcDbEntity
  8
寸法
 62
     0
 48
50.0
370
    -2
100
AcDbLine
 10
7786.890767703562
 20
7423.281687023919
 30
0.0
 11
7786.890767703562
 21
7313.281687023913
 31
0.0
  0
LINE
  5
22253
330
1DB00
100
AcDbEntity
  8
寸法
 62
     0
 48
50.0
370
    -2
100
AcDbLine
 10
7786.890767703562
 20
7313.281687023913
 30
0.0
 11
7786.890767703562
 21
6953.187198834936
 31
0.0
  0
INSERT
  5
22254
330
1DB00
100
AcDbEntity
  8
寸法
 62
     0
 48
50.0
370
    -2
100
AcDbBlockReference
  2
_DOTSMALL
 10
7786.890767703562
 20
7423.281687023919
 30
0.0
 41
100.0
 42
100.0
 43
100.0
 50
90.0
  0
INSERT
  5
22255
330
1DB00
100
AcDbEntity
  8
寸法
 62
     0
 48
50.0
370
    -2
100
AcDbBlockReference
  2
_DOTSMALL
 10
7786.890767703562
 20
7313.281687023913
 30
0.0
 41
100.0
 42
100.0
 43
100.0
 50
270.0
  0
MTEXT
  5
22256
330
1DB00
100
AcDbEntity
  8
寸法
 62
     7
 48
50.0
100
AcDbMText
 10
7686.890767703561
 20
7077.234442929425
 30
0.0
 40
120.0
 41
0.0
 71
     5
 72
     1
  1
\A1;110
  7
STYLE1
 11
0.0000000000000001
 21
1.0
 31
0.0
 73
     1
 44
1.0
1001
ACAD
1000
MTEXTBEGIN
1070
    73
1070
     1
1070
    44
1040
1.0
1070
    74
1070
     0
1000
MTEXTEND
  0
POINT
  5
22257
330
1DB00
100
AcDbEntity
  8
DEFPOINTS
 62
     0
 48
50.0
100
AcDbPoint
 10
7553.599999999997
 20
7423.281687023919
 30
0.0
  0
POINT
  5
22258
330
1DB00
100
AcDbEntity
  8
DEFPOINTS
 62
     0
 48
50.0
100
AcDbPoint
 10
7553.599999999999
 20
7313.281687023913
 30
0.0
  0
POINT
  5
22259
330
1DB00
100
AcDbEntity
  8
DEFPOINTS
 62
     0
 48
50.0
100
AcDbPoint
 10
7786.890767703562
 20
7313.281687023913
 30
0.0
  0
ENDBLK
  5
1DB0C
330
1DB00
100
AcDbEntity
  8
0
 48
50.0
100
AcDbBlockEnd
  0
BLOCK
  5
1DB25
330
1DB1A
100
AcDbEntity
  8
0
 48
50.0
100
AcDbBlockBegin
  2
*D17
 70
     1
 10
0.0
 20
0.0
 30
0.0
  3
*D17
  1

  0
LINE
  5
22246
330
1DB1A
100
AcDbEntity
  8
寸法
 62
     0
 48
50.0
370
    -2
100
AcDbLine
 10
7545.599999999999
 20
7543.281687023915
 30
0.0
 11
7846.890767703562
 21
7543.281687023915
 31
0.0
  0
LINE
  5
22247
330
1DB1A
100
AcDbEntity
  8
寸法
 62
     0
 48
50.0
370
    -2
100
AcDbLine
 10
7573.599999999998
 20
7423.281687023919
 30
0.0
 11
7846.890767703562
 21
7423.281687023919
 31
0.0
  0
LINE
  5
22248
330
1DB1A
100
AcDbEntity
  8
寸法
 62
     0
 48
50.0
370
    -2
100
AcDbLine
 10
7786.89076770356
 20
7423.281687023919
 30
0.0
 11
7786.89076770356
 21
7543.281687023915
 31
0.0
  0
LINE
  5
22249
330
1DB1A
100
AcDbEntity
  8
寸法
 62
     0
 48
50.0
370
    -2
100
AcDbLine
 10
7786.89076770356
 20
7543.281687023915
 30
0.0
 11
7786.89076770356
 21
7915.376175212893
 31
0.0
  0
INSERT
  5
2224A
330
1DB1A
100
AcDbEntity
  8
寸法
 62
     0
 48
50.0
370
    -2
100
AcDbBlockReference
  2
_DOTSMALL
 10
7786.89076770356
 20
7423.281687023919
 30
0.0
 41
100.0
 42
100.0
 43
100.0
 50
270.0
  0
INSERT
  5
2224B
330
1DB1A
100
AcDbEntity
  8
寸法
 62
     0
 48
50.0
370
    -2
100
AcDbBlockReference
  2
_DOTSMALL
 10
7786.89076770356
 20
7543.281687023915
 30
0.0
 41
100.0
 42
100.0
 43
100.0
 50
90.0
  0
MTEXT
  5
2224C
330
1DB1A
100
AcDbEntity
  8
寸法
 62
     7
 48
50.0
100
AcDbMText
 10
7686.878956679939
 20
7779.328931118405
 30
0.0
 40
120.0
 41
0.0
 71
     5
 72
     1
  1
\A1;120
  7
STYLE1
 11
0.0000000000000001
 21
1.0
 31
0.0
 73
     1
 44
1.0
1001
ACAD
1000
MTEXTBEGIN
1070
    73
1070
     1
1070
    44
1040
1.0
1070
    74
1070
     0
1000
MTEXTEND
  0
POINT
  5
2224D
330
1DB1A
100
AcDbEntity
  8
DEFPOINTS
 62
     0
 48
50.0
100
AcDbPoint
 10
7525.599999999998
 20
7543.281687023915
 30
0.0
  0
POINT
  5
2224E
330
1DB1A
100
AcDbEntity
  8
DEFPOINTS
 62
     0
 48
50.0
100
AcDbPoint
 10
7553.599999999997
 20
7423.281687023919
 30
0.0
  0
POINT
  5
2224F
330
1DB1A
100
AcDbEntity
  8
DEFPOINTS
 62
     0
 48
50.0
100
AcDbPoint
 10
7786.89076770356
 20
7423.281687023919
 30
0.0
  0
ENDBLK
  5
1DB26
330
1DB1A
100
AcDbEntity
  8
0
 48
50.0
100
AcDbBlockEnd
  0
BLOCK
  5
1FAD6
330
1FACC
100
AcDbEntity
  8
0
 48
50.0
100
AcDbBlockBegin
  2
*D18
 70
     1
 10
0.0
 20
0.0
 30
0.0
  3
*D18
  1

  0
LINE
  5
2223D
330
1FACC
100
AcDbEntity
  8
寸法
 62
     0
 48
50.0
370
    -2
100
AcDbLine
 10
7323.599999999998
 20
7563.281687023916
 30
0.0
 11
7323.599999999998
 21
8169.821603578355
 31
0.0
  0
LINE
  5
2223E
330
1FACC
100
AcDbEntity
  8
寸法
 62
     0
 48
50.0
370
    -2
100
AcDbLine
 10
8093.6
 20
6778.281687023916
 30
0.0
 11
8093.6
 21
8169.821603578355
 31
0.0
  0
LINE
  5
2223F
330
1FACC
100
AcDbEntity
  8
寸法
 62
     0
 48
50.0
370
    -2
100
AcDbLine
 10
7323.599999999998
 20
8109.821603578355
 30
0.0
 11
8093.6
 21
8109.821603578355
 31
0.0
  0
INSERT
  5
22240
330
1FACC
100
AcDbEntity
  8
寸法
 62
     0
 48
50.0
370
    -2
100
AcDbBlockReference
  2
_DOTSMALL
 10
7323.599999999998
 20
8109.821603578355
 30
0.0
 41
100.0
 42
100.0
 43
100.0
 50
180.0
  0
INSERT
  5
22241
330
1FACC
100
AcDbEntity
  8
寸法
 62
     0
 48
50.0
370
    -2
100
AcDbBlockReference
  2
_DOTSMALL
 10
8093.6
 20
8109.821603578355
 30
0.0
 41
100.0
 42
100.0
 43
100.0
  0
MTEXT
  5
22242
330
1FACC
100
AcDbEntity
  8
寸法
 62
     7
 48
50.0
100
AcDbMText
 10
7708.599999999998
 20
8209.821603578355
 30
0.0
 40
120.0
 41
0.0
 71
     5
 72
     1
  1
\A1;770
  7
STYLE1
 73
     1
 44
1.0
1001
ACAD
1000
MTEXTBEGIN
1070
    73
1070
     1
1070
    44
1040
1.0
1070
    74
1070
     0
1000
MTEXTEND
  0
POINT
  5
22243
330
1FACC
100
AcDbEntity
  8
DEFPOINTS
 62
     0
 48
50.0
100
AcDbPoint
 10
7323.599999999998
 20
7543.281687023917
 30
0.0
  0
POINT
  5
22244
330
1FACC
100
AcDbEntity
  8
DEFPOINTS
 62
     0
 48
50.0
100
AcDbPoint
 10
8093.6
 20
6758.281687023916
 30
0.0
  0
POINT
  5
22245
330
1FACC
100
AcDbEntity
  8
DEFPOINTS
 62
     0
 48
50.0
100
AcDbPoint
 10
8093.6
 20
8109.821603578355
 30
0.0
  0
ENDBLK
  5
1FAD7
330
1FACC
100
AcDbEntity
  8
0
 48
50.0
100
AcDbBlockEnd
  0
BLOCK
  5
1FB29
330
1FB1F
100
AcDbEntity
  8
0
 48
50.0
100
AcDbBlockBegin
  2
*D19
 70
     1
 10
0.0
 20
0.0
 30
0.0
  3
*D19
  1

  0
LINE
  5
22234
330
1FB1F
100
AcDbEntity
  8
寸法
 62
     0
 48
50.0
370
    -2
100
AcDbLine
 10
8093.6
 20
6778.281687023916
 30
0.0
 11
8093.6
 21
8169.821603578355
 31
0.0
  0
LINE
  5
22235
330
1FB1F
100
AcDbEntity
  8
寸法
 62
     0
 48
50.0
370
    -2
100
AcDbLine
 10
8863.599999999998
 20
7563.281687023916
 30
0.0
 11
8863.599999999998
 21
8169.821603578355
 31
0.0
  0
LINE
  5
22236
330
1FB1F
100
AcDbEntity
  8
寸法
 62
     0
 48
50.0
370
    -2
100
AcDbLine
 10
8093.6
 20
8109.821603578355
 30
0.0
 11
8863.599999999998
 21
8109.821603578355
 31
0.0
  0
INSERT
  5
22237
330
1FB1F
100
AcDbEntity
  8
寸法
 62
     0
 48
50.0
370
    -2
100
AcDbBlockReference
  2
_DOTSMALL
 10
8093.6
 20
8109.821603578355
 30
0.0
 41
100.0
 42
100.0
 43
100.0
 50
180.0
  0
INSERT
  5
22238
330
1FB1F
100
AcDbEntity
  8
寸法
 62
     0
 48
50.0
370
    -2
100
AcDbBlockReference
  2
_DOTSMALL
 10
8863.599999999998
 20
8109.821603578355
 30
0.0
 41
100.0
 42
100.0
 43
100.0
  0
MTEXT
  5
22239
330
1FB1F
100
AcDbEntity
  8
寸法
 62
     7
 48
50.0
100
AcDbMText
 10
8478.599999999998
 20
8209.821603578355
 30
0.0
 40
120.0
 41
0.0
 71
     5
 72
     1
  1
\A1;770
  7
STYLE1
 73
     1
 44
1.0
1001
ACAD
1000
MTEXTBEGIN
1070
    73
1070
     1
1070
    44
1040
1.0
1070
    74
1070
     0
1000
MTEXTEND
  0
POINT
  5
2223A
330
1FB1F
100
AcDbEntity
  8
DEFPOINTS
 62
     0
 48
50.0
100
AcDbPoint
 10
8093.6
 20
6758.281687023916
 30
0.0
  0
POINT
  5
2223B
330
1FB1F
100
AcDbEntity
  8
DEFPOINTS
 62
     0
 48
50.0
100
AcDbPoint
 10
8863.599999999998
 20
7543.281687023917
 30
0.0
  0
POINT
  5
2223C
330
1FB1F
100
AcDbEntity
  8
DEFPOINTS
 62
     0
 48
50.0
100
AcDbPoint
 10
8863.599999999998
 20
8109.821603578355
 30
0.0
  0
ENDBLK
  5
1FB2A
330
1FB1F
100
AcDbEntity
  8
0
 48
50.0
100
AcDbBlockEnd
  0
BLOCK
  5
2032F
330
20325
100
AcDbEntity
  8
0
 48
50.0
100
AcDbBlockBegin
  2
*D20
 70
     1
 10
0.0
 20
0.0
 30
0.0
  3
*D20
  1

  0
LINE
  5
22219
330
20325
100
AcDbEntity
  8
寸法
 62
     0
 48
50.0
370
    -2
100
AcDbLine
 10
8163.599999999998
 20
6662.281687023916
 30
0.0
 11
8445.715854997194
 21
6662.281687023916
 31
0.0
  0
LINE
  5
2221A
330
20325
100
AcDbEntity
  8
寸法
 62
     0
 48
50.0
370
    -2
100
AcDbLine
 10
8163.599999999998
 20
5858.281687023917
 30
0.0
 11
8445.715854997194
 21
5858.281687023917
 31
0.0
  0
LINE
  5
2221B
330
20325
100
AcDbEntity
  8
寸法
 62
     0
 48
50.0
370
    -2
100
AcDbLine
 10
8385.715854997194
 20
6662.281687023916
 30
0.0
 11
8385.715854997194
 21
5858.281687023917
 31
0.0
  0
INSERT
  5
2221C
330
20325
100
AcDbEntity
  8
寸法
 62
     0
 48
50.0
370
    -2
100
AcDbBlockReference
  2
_DOTSMALL
 10
8385.715854997194
 20
6662.281687023916
 30
0.0
 41
100.0
 42
100.0
 43
100.0
 50
90.0
  0
INSERT
  5
2221D
330
20325
100
AcDbEntity
  8
寸法
 62
     0
 48
50.0
370
    -2
100
AcDbBlockReference
  2
_DOTSMALL
 10
8385.715854997194
 20
5858.281687023917
 30
0.0
 41
100.0
 42
100.0
 43
100.0
 50
270.0
  0
MTEXT
  5
2221E
330
20325
100
AcDbEntity
  8
寸法
 62
     7
 48
50.0
100
AcDbMText
 10
8285.71585499719
 20
6260.281687023917
 30
0.0
 40
120.0
 41
0.0
 71
     5
 72
     1
  1
\A1;804
  7
STYLE1
 11
0.0000000000000001
 21
1.0
 31
0.0
 73
     1
 44
1.0
1001
ACAD
1000
MTEXTBEGIN
1070
    73
1070
     1
1070
    44
1040
1.0
1070
    74
1070
     0
1000
MTEXTEND
  0
POINT
  5
2221F
330
20325
100
AcDbEntity
  8
DEFPOINTS
 62
     0
 48
50.0
100
AcDbPoint
 10
8143.599999999999
 20
6662.281687023916
 30
0.0
  0
POINT
  5
22220
330
20325
100
AcDbEntity
  8
DEFPOINTS
 62
     0
 48
50.0
100
AcDbPoint
 10
8143.599999999999
 20
5858.281687023917
 30
0.0
  0
POINT
  5
22221
330
20325
100
AcDbEntity
  8
DEFPOINTS
 62
     0
 48
50.0
100
AcDbPoint
 10
8385.715854997194
 20
5858.281687023917
 30
0.0
  0
ENDBLK
  5
20330
330
20325
100
AcDbEntity
  8
0
 48
50.0
100
AcDbBlockEnd
  0
BLOCK
  5
2033B
330
20331
100
AcDbEntity
  8
0
 48
50.0
100
AcDbBlockBegin
  2
*D21
 70
     1
 10
0.0
 20
0.0
 30
0.0
  3
*D21
  1

  0
LINE
  5
22222
330
20331
100
AcDbEntity
  8
寸法
 62
     0
 48
50.0
370
    -2
100
AcDbLine
 10
8163.599999999998
 20
5858.281687023917
 30
0.0
 11
8445.715854997194
 21
5858.281687023917
 31
0.0
  0
LINE
  5
22223
330
20331
100
AcDbEntity
  8
寸法
 62
     0
 48
50.0
370
    -2
100
AcDbLine
 10
8213.600000000013
 20
4903.281687023926
 30
0.0
 11
8445.715854997194
 21
4903.281687023926
 31
0.0
  0
LINE
  5
22224
330
20331
100
AcDbEntity
  8
寸法
 62
     0
 48
50.0
370
    -2
100
AcDbLine
 10
8385.715854997194
 20
5858.281687023917
 30
0.0
 11
8385.715854997194
 21
4903.281687023926
 31
0.0
  0
INSERT
  5
22225
330
20331
100
AcDbEntity
  8
寸法
 62
     0
 48
50.0
370
    -2
100
AcDbBlockReference
  2
_DOTSMALL
 10
8385.715854997194
 20
5858.281687023917
 30
0.0
 41
100.0
 42
100.0
 43
100.0
 50
90.0
  0
INSERT
  5
22226
330
20331
100
AcDbEntity
  8
寸法
 62
     0
 48
50.0
370
    -2
100
AcDbBlockReference
  2
_DOTSMALL
 10
8385.715854997194
 20
4903.281687023926
 30
0.0
 41
100.0
 42
100.0
 43
100.0
 50
270.0
  0
MTEXT
  5
22227
330
20331
100
AcDbEntity
  8
寸法
 62
     7
 48
50.0
100
AcDbMText
 10
8285.71585499719
 20
5380.781687023922
 30
0.0
 40
120.0
 41
0.0
 71
     5
 72
     1
  1
\A1;955
  7
STYLE1
 11
0.0000000000000001
 21
1.0
 31
0.0
 73
     1
 44
1.0
1001
ACAD
1000
MTEXTBEGIN
1070
    73
1070
     1
1070
    44
1040
1.0
1070
    74
1070
     0
1000
MTEXTEND
  0
POINT
  5
22228
330
20331
100
AcDbEntity
  8
DEFPOINTS
 62
     0
 48
50.0
100
AcDbPoint
 10
8143.599999999999
 20
5858.281687023917
 30
0.0
  0
POINT
  5
22229
330
20331
100
AcDbEntity
  8
DEFPOINTS
 62
     0
 48
50.0
100
AcDbPoint
 10
8193.600000000014
 20
4903.281687023926
 30
0.0
  0
POINT
  5
2222A
330
20331
100
AcDbEntity
  8
DEFPOINTS
 62
     0
 48
50.0
100
AcDbPoint
 10
8385.715854997194
 20
4903.281687023926
 30
0.0
  0
ENDBLK
  5
2033C
330
20331
100
AcDbEntity
  8
0
 48
50.0
100
AcDbBlockEnd
  0
BLOCK
  5
20347
330
2033D
100
AcDbEntity
  8
0
 48
50.0
100
AcDbBlockBegin
  2
*D22
 70
     1
 10
0.0
 20
0.0
 30
0.0
  3
*D22
  1

  0
LINE
  5
2222B
330
2033D
100
AcDbEntity
  8
寸法
 62
     0
 48
50.0
370
    -2
100
AcDbLine
 10
8163.599999999998
 20
6662.281687023916
 30
0.0
 11
8445.715854997194
 21
6662.281687023916
 31
0.0
  0
LINE
  5
2222C
330
2033D
100
AcDbEntity
  8
寸法
 62
     0
 48
50.0
370
    -2
100
AcDbLine
 10
8213.599999999997
 20
7543.281687023917
 30
0.0
 11
8445.715854997194
 21
7543.281687023917
 31
0.0
  0
LINE
  5
2222D
330
2033D
100
AcDbEntity
  8
寸法
 62
     0
 48
50.0
370
    -2
100
AcDbLine
 10
8385.715854997194
 20
6662.281687023916
 30
0.0
 11
8385.715854997194
 21
7543.281687023917
 31
0.0
  0
INSERT
  5
2222E
330
2033D
100
AcDbEntity
  8
寸法
 62
     0
 48
50.0
370
    -2
100
AcDbBlockReference
  2
_DOTSMALL
 10
8385.715854997194
 20
6662.281687023916
 30
0.0
 41
100.0
 42
100.0
 43
100.0
 50
270.0
  0
INSERT
  5
2222F
330
2033D
100
AcDbEntity
  8
寸法
 62
     0
 48
50.0
370
    -2
100
AcDbBlockReference
  2
_DOTSMALL
 10
8385.715854997194
 20
7543.281687023917
 30
0.0
 41
100.0
 42
100.0
 43
100.0
 50
90.0
  0
MTEXT
  5
22230
330
2033D
100
AcDbEntity
  8
寸法
 62
     7
 48
50.0
100
AcDbMText
 10
8285.71585499719
 20
7102.781687023917
 30
0.0
 40
120.0
 41
0.0
 71
     5
 72
     1
  1
\A1;881
  7
STYLE1
 11
0.0000000000000001
 21
1.0
 31
0.0
 73
     1
 44
1.0
1001
ACAD
1000
MTEXTBEGIN
1070
    73
1070
     1
1070
    44
1040
1.0
1070
    74
1070
     0
1000
MTEXTEND
  0
POINT
  5
22231
330
2033D
100
AcDbEntity
  8
DEFPOINTS
 62
     0
 48
50.0
100
AcDbPoint
 10
8143.599999999999
 20
6662.281687023916
 30
0.0
  0
POINT
  5
22232
330
2033D
100
AcDbEntity
  8
DEFPOINTS
 62
     0
 48
50.0
100
AcDbPoint
 10
8193.599999999999
 20
7543.281687023917
 30
0.0
  0
POINT
  5
22233
330
2033D
100
AcDbEntity
  8
DEFPOINTS
 62
     0
 48
50.0
100
AcDbPoint
 10
8385.715854997194
 20
7543.281687023917
 30
0.0
  0
ENDBLK
  5
20348
330
2033D
100
AcDbEntity
  8
0
 48
50.0
100
AcDbBlockEnd
  0
BLOCK
  5
220DF
330
220D5
100
AcDbEntity
  8
0
 48
50.0
100
AcDbBlockBegin
  2
*D23
 70
     1
 10
0.0
 20
0.0
 30
0.0
  3
*D23
  1

  0
LINE
  5
22210
330
220D5
100
AcDbEntity
  8
寸法
 62
     0
 48
50.0
370
    -2
100
AcDbLine
 10
8067.648008019494
 20
2057.027154704763
 30
0.0
 11
8609.516607788338
 21
2057.027154704763
 31
0.0
  0
LINE
  5
22211
330
220D5
100
AcDbEntity
  8
寸法
 62
     0
 48
50.0
370
    -2
100
AcDbLine
 10
8067.648008019494
 20
1733.027154704762
 30
0.0
 11
8609.516607788338
 21
1733.027154704762
 31
0.0
  0
LINE
  5
22212
330
220D5
100
AcDbEntity
  8
寸法
 62
     0
 48
50.0
370
    -2
100
AcDbLine
 10
8549.516607788337
 20
2057.027154704763
 30
0.0
 11
8549.516607788337
 21
1733.027154704762
 31
0.0
  0
INSERT
  5
22213
330
220D5
100
AcDbEntity
  8
寸法
 62
     0
 48
50.0
370
    -2
100
AcDbBlockReference
  2
_DOTSMALL
 10
8549.516607788337
 20
2057.027154704763
 30
0.0
 41
100.0
 42
100.0
 43
100.0
 50
90.0
  0
INSERT
  5
22214
330
220D5
100
AcDbEntity
  8
寸法
 62
     0
 48
50.0
370
    -2
100
AcDbBlockReference
  2
_DOTSMALL
 10
8549.516607788337
 20
1733.027154704762
 30
0.0
 41
100.0
 42
100.0
 43
100.0
 50
270.0
  0
MTEXT
  5
22215
330
220D5
100
AcDbEntity
  8
寸法
 62
     7
 48
50.0
100
AcDbMText
 10
8449.516607788337
 20
1895.027154704764
 30
0.0
 40
120.0
 41
0.0
 71
     5
 72
     1
  1
\A1;180
  7
STYLE1
 11
0.0000000000000001
 21
1.0
 31
0.0
 73
     1
 44
1.0
1001
ACAD
1000
MTEXTBEGIN
1070
    73
1070
     1
1070
    44
1040
1.0
1070
    74
1070
     0
1000
MTEXTEND
  0
POINT
  5
22216
330
220D5
100
AcDbEntity
  8
DEFPOINTS
 62
     0
 48
50.0
100
AcDbPoint
 10
8047.648008019493
 20
2057.027154704763
 30
0.0
  0
POINT
  5
22217
330
220D5
100
AcDbEntity
  8
DEFPOINTS
 62
     0
 48
50.0
100
AcDbPoint
 10
8047.648008019493
 20
1733.027154704762
 30
0.0
  0
POINT
  5
22218
330
220D5
100
AcDbEntity
  8
DEFPOINTS
 62
     0
 48
50.0
100
AcDbPoint
 10
8549.516607788337
 20
1733.027154704762
 30
0.0
  0
ENDBLK
  5
220E0
330
220D5
100
AcDbEntity
  8
0
 48
50.0
100
AcDbBlockEnd
  0
BLOCK
  5
220F0
330
220E1
100
AcDbEntity
  8
0
 48
50.0
100
AcDbBlockBegin
  2
*D24
 70
     1
 10
0.0
 20
0.0
 30
0.0
  3
*D24
  1

  0
LINE
  5
22205
330
220E1
100
AcDbEntity
  8
寸法
 62
     0
 48
50.0
370
    -2
100
AcDbLine
 10
7880.448008019493
 20
2109.787154704764
 30
0.0
 11
8885.571273907364
 21
2109.787154704764
 31
0.0
  0
LINE
  5
22206
330
220E1
100
AcDbEntity
  8
寸法
 62
     0
 48
50.0
370
    -2
100
AcDbLine
 10
8067.648008019494
 20
2057.027154704763
 30
0.0
 11
8885.571273907364
 21
2057.027154704763
 31
0.0
  0
LINE
  5
22207
330
220E1
100
AcDbEntity
  8
寸法
 62
     0
 48
50.0
370
    -2
100
AcDbLine
 10
8825.571273907364
 20
2109.787154704764
 30
0.0
 11
8825.571273907364
 21
2209.787154704764
 31
0.0
  0
LINE
  5
22208
330
220E1
100
AcDbEntity
  8
寸法
 62
     0
 48
50.0
370
    -2
100
AcDbLine
 10
8825.571273907364
 20
2057.027154704763
 30
0.0
 11
8825.571273907364
 21
1325.009347861797
 31
0.0
  0
LINE
  5
22209
330
220E1
100
AcDbEntity
  8
寸法
 62
     0
 48
50.0
370
    -2
100
AcDbLine
 10
8825.571273907364
 20
2109.787154704764
 30
0.0
 11
8825.571273907364
 21
2057.027154704763
 31
0.0
  0
INSERT
  5
2220A
330
220E1
100
AcDbEntity
  8
寸法
 62
     0
 48
50.0
370
    -2
100
AcDbBlockReference
  2
_DOTSMALL
 10
8825.571273907364
 20
2109.787154704764
 30
0.0
 41
100.0
 42
100.0
 43
100.0
 50
270.0
  0
INSERT
  5
2220B
330
220E1
100
AcDbEntity
  8
寸法
 62
     0
 48
50.0
370
    -2
100
AcDbBlockReference
  2
_DOTSMALL
 10
8825.571273907364
 20
2057.027154704763
 30
0.0
 41
100.0
 42
100.0
 43
100.0
 50
90.0
  0
MTEXT
  5
2220C
330
220E1
100
AcDbEntity
  8
寸法
 62
     7
 48
50.0
100
AcDbMText
 10
8725.559462883742
 20
1591.018251283282
 30
0.0
 40
120.0
 41
0.0
 71
     5
 72
     1
  1
\A1;20～25
  7
STYLE1
 11
0.0000000000000001
 21
1.0
 31
0.0
 73
     1
 44
1.0
1001
ACAD
1000
MTEXTBEGIN
1070
    73
1070
     1
1070
    44
1040
1.0
1070
    74
1070
     0
1000
MTEXTEND
  0
POINT
  5
2220D
330
220E1
100
AcDbEntity
  8
DEFPOINTS
 62
     0
 48
50.0
100
AcDbPoint
 10
7860.448008019493
 20
2109.787154704764
 30
0.0
  0
POINT
  5
2220E
330
220E1
100
AcDbEntity
  8
DEFPOINTS
 62
     0
 48
50.0
100
AcDbPoint
 10
8047.648008019493
 20
2057.027154704763
 30
0.0
  0
POINT
  5
2220F
330
220E1
100
AcDbEntity
  8
DEFPOINTS
 62
     0
 48
50.0
100
AcDbPoint
 10
8825.571273907364
 20
2057.027154704763
 30
0.0
  0
ENDBLK
  5
220F1
330
220E1
100
AcDbEntity
  8
0
 48
50.0
100
AcDbBlockEnd
  0
BLOCK
  5
220FC
330
220F2
100
AcDbEntity
  8
0
 48
50.0
100
AcDbBlockBegin
  2
*D25
 70
     1
 10
0.0
 20
0.0
 30
0.0
  3
*D25
  1

  0
LINE
  5
221FC
330
220F2
100
AcDbEntity
  8
寸法
 62
     0
 48
50.0
370
    -2
100
AcDbLine
 10
5785.608694842299
 20
1513.027154704763
 30
0.0
 11
5603.188381109839
 21
1513.027154704763
 31
0.0
  0
LINE
  5
221FD
330
220F2
100
AcDbEntity
  8
寸法
 62
     0
 48
50.0
370
    -2
100
AcDbLine
 10
5705.608694842303
 20
1273.027154704763
 30
0.0
 11
5603.188381109839
 21
1273.027154704763
 31
0.0
  0
LINE
  5
221FE
330
220F2
100
AcDbEntity
  8
寸法
 62
     0
 48
50.0
370
    -2
100
AcDbLine
 10
5663.18838110984
 20
1513.027154704763
 30
0.0
 11
5663.18838110984
 21
1273.027154704763
 31
0.0
  0
INSERT
  5
221FF
330
220F2
100
AcDbEntity
  8
寸法
 62
     0
 48
50.0
370
    -2
100
AcDbBlockReference
  2
_DOTSMALL
 10
5663.18838110984
 20
1513.027154704763
 30
0.0
 41
100.0
 42
100.0
 43
100.0
 50
90.0
  0
INSERT
  5
22200
330
220F2
100
AcDbEntity
  8
寸法
 62
     0
 48
50.0
370
    -2
100
AcDbBlockReference
  2
_DOTSMALL
 10
5663.18838110984
 20
1273.027154704763
 30
0.0
 41
100.0
 42
100.0
 43
100.0
 50
270.0
  0
MTEXT
  5
22201
330
220F2
100
AcDbEntity
  8
寸法
 62
     7
 48
50.0
100
AcDbMText
 10
5563.188381109839
 20
1393.027154704764
 30
0.0
 40
120.0
 41
0.0
 71
     5
 72
     1
  1
\A1;150
  7
STYLE1
 11
0.0000000000000001
 21
1.0
 31
0.0
 73
     1
 44
1.0
1001
ACAD
1000
MTEXTBEGIN
1070
    73
1070
     1
1070
    44
1040
1.0
1070
    74
1070
     0
1000
MTEXTEND
  0
POINT
  5
22202
330
220F2
100
AcDbEntity
  8
DEFPOINTS
 62
     0
 48
50.0
100
AcDbPoint
 10
5805.608694842299
 20
1513.027154704763
 30
0.0
  0
POINT
  5
22203
330
220F2
100
AcDbEntity
  8
DEFPOINTS
 62
     0
 48
50.0
100
AcDbPoint
 10
5725.608694842303
 20
1273.027154704763
 30
0.0
  0
POINT
  5
22204
330
220F2
100
AcDbEntity
  8
DEFPOINTS
 62
     0
 48
50.0
100
AcDbPoint
 10
5663.18838110984
 20
1273.027154704763
 30
0.0
  0
ENDBLK
  5
220FD
330
220F2
100
AcDbEntity
  8
0
 48
50.0
100
AcDbBlockEnd
  0
BLOCK
  5
22108
330
220FE
100
AcDbEntity
  8
0
 48
50.0
100
AcDbBlockBegin
  2
*D26
 70
     1
 10
0.0
 20
0.0
 30
0.0
  3
*D26
  1

  0
LINE
  5
221F3
330
220FE
100
AcDbEntity
  8
寸法
 62
     0
 48
50.0
370
    -2
100
AcDbLine
 10
5913.608694842299
 20
2057.027154704763
 30
0.0
 11
5138.571456280559
 21
2057.027154704763
 31
0.0
  0
LINE
  5
221F4
330
220FE
100
AcDbEntity
  8
寸法
 62
     0
 48
50.0
370
    -2
100
AcDbLine
 10
5705.608694842303
 20
1273.027154704763
 30
0.0
 11
5138.571456280558
 21
1273.027154704763
 31
0.0
  0
LINE
  5
221F5
330
220FE
100
AcDbEntity
  8
寸法
 62
     0
 48
50.0
370
    -2
100
AcDbLine
 10
5198.57145628056
 20
2057.027154704763
 30
0.0
 11
5198.571456280559
 21
1273.027154704763
 31
0.0
  0
INSERT
  5
221F6
330
220FE
100
AcDbEntity
  8
寸法
 62
     0
 48
50.0
370
    -2
100
AcDbBlockReference
  2
_DOTSMALL
 10
5198.57145628056
 20
2057.027154704763
 30
0.0
 41
100.0
 42
100.0
 43
100.0
 50
90.0
  0
INSERT
  5
221F7
330
220FE
100
AcDbEntity
  8
寸法
 62
     0
 48
50.0
370
    -2
100
AcDbBlockReference
  2
_DOTSMALL
 10
5198.571456280559
 20
1273.027154704763
 30
0.0
 41
100.0
 42
100.0
 43
100.0
 50
270.0
  0
MTEXT
  5
221F8
330
220FE
100
AcDbEntity
  8
寸法
 62
     7
 48
50.0
100
AcDbMText
 10
5098.571456280559
 20
1644.567304360764
 30
0.0
 40
120.0
 41
0.0
 71
     5
 72
     1
  1
\A1;540
  7
STYLE1
 11
0.0000000000000001
 21
1.0
 31
0.0
 73
     1
 44
1.0
1001
ACAD
1000
MTEXTBEGIN
1070
    73
1070
     1
1070
    44
1040
1.0
1070
    74
1070
     0
1000
MTEXTEND
  0
POINT
  5
221F9
330
220FE
100
AcDbEntity
  8
DEFPOINTS
 62
     0
 48
50.0
100
AcDbPoint
 10
5933.608694842298
 20
2057.027154704763
 30
0.0
  0
POINT
  5
221FA
330
220FE
100
AcDbEntity
  8
DEFPOINTS
 62
     0
 48
50.0
100
AcDbPoint
 10
5725.608694842303
 20
1273.027154704763
 30
0.0
  0
POINT
  5
221FB
330
220FE
100
AcDbEntity
  8
DEFPOINTS
 62
     0
 48
50.0
100
AcDbPoint
 10
5198.571456280559
 20
1273.027154704763
 30
0.0
  0
ENDBLK
  5
22109
330
220FE
100
AcDbEntity
  8
0
 48
50.0
100
AcDbBlockEnd
  0
BLOCK
  5
22114
330
2210A
100
AcDbEntity
  8
0
 48
50.0
100
AcDbBlockBegin
  2
*D27
 70
     1
 10
0.0
 20
0.0
 30
0.0
  3
*D27
  1

  0
LINE
  5
221EA
330
2210A
100
AcDbEntity
  8
寸法
 62
     0
 48
50.0
370
    -2
100
AcDbLine
 10
5805.608694842299
 20
1125.027154704763
 30
0.0
 11
5805.608694842299
 21
674.5975166996031
 31
0.0
  0
LINE
  5
221EB
330
2210A
100
AcDbEntity
  8
寸法
 62
     0
 48
50.0
370
    -2
100
AcDbLine
 10
6253.608694842299
 20
1125.027154704763
 30
0.0
 11
6253.608694842299
 21
674.5975166996031
 31
0.0
  0
LINE
  5
221EC
330
2210A
100
AcDbEntity
  8
寸法
 62
     0
 48
50.0
370
    -2
100
AcDbLine
 10
5805.608694842299
 20
734.5975166996031
 30
0.0
 11
6253.608694842299
 21
734.5975166996031
 31
0.0
  0
INSERT
  5
221ED
330
2210A
100
AcDbEntity
  8
寸法
 62
     0
 48
50.0
370
    -2
100
AcDbBlockReference
  2
_DOTSMALL
 10
5805.608694842299
 20
734.5975166996031
 30
0.0
 41
100.0
 42
100.0
 43
100.0
 50
180.0
  0
INSERT
  5
221EE
330
2210A
100
AcDbEntity
  8
寸法
 62
     0
 48
50.0
370
    -2
100
AcDbBlockReference
  2
_DOTSMALL
 10
6253.608694842299
 20
734.5975166996031
 30
0.0
 41
100.0
 42
100.0
 43
100.0
  0
MTEXT
  5
221EF
330
2210A
100
AcDbEntity
  8
寸法
 62
     7
 48
50.0
100
AcDbMText
 10
6009.511936164075
 20
834.5975166996032
 30
0.0
 40
120.0
 41
0.0
 71
     5
 72
     1
  1
\A1;300
  7
STYLE1
 73
     1
 44
1.0
1001
ACAD
1000
MTEXTBEGIN
1070
    73
1070
     1
1070
    44
1040
1.0
1070
    74
1070
     0
1000
MTEXTEND
  0
POINT
  5
221F0
330
2210A
100
AcDbEntity
  8
DEFPOINTS
 62
     0
 48
50.0
100
AcDbPoint
 10
5805.608694842299
 20
1145.027154704763
 30
0.0
  0
POINT
  5
221F1
330
2210A
100
AcDbEntity
  8
DEFPOINTS
 62
     0
 48
50.0
100
AcDbPoint
 10
6253.608694842299
 20
1145.027154704763
 30
0.0
  0
POINT
  5
221F2
330
2210A
100
AcDbEntity
  8
DEFPOINTS
 62
     0
 48
50.0
100
AcDbPoint
 10
6253.608694842299
 20
734.5975166996031
 30
0.0
  0
ENDBLK
  5
22115
330
2210A
100
AcDbEntity
  8
0
 48
50.0
100
AcDbBlockEnd
  0
BLOCK
  5
22120
330
22116
100
AcDbEntity
  8
0
 48
50.0
100
AcDbBlockBegin
  2
*D28
 70
     1
 10
0.0
 20
0.0
 30
0.0
  3
*D28
  1

  0
LINE
  5
221E1
330
22116
100
AcDbEntity
  8
寸法
 62
     0
 48
50.0
370
    -2
100
AcDbLine
 10
6125.608694842298
 20
2077.027154704763
 30
0.0
 11
6125.608694842298
 21
2536.694962621144
 31
0.0
  0
LINE
  5
221E2
330
22116
100
AcDbEntity
  8
寸法
 62
     0
 48
50.0
370
    -2
100
AcDbLine
 10
5933.608694842298
 20
2077.027154704763
 30
0.0
 11
5933.608694842298
 21
2536.694962621144
 31
0.0
  0
LINE
  5
221E3
330
22116
100
AcDbEntity
  8
寸法
 62
     0
 48
50.0
370
    -2
100
AcDbLine
 10
6125.608694842298
 20
2476.694962621144
 30
0.0
 11
5933.608694842298
 21
2476.694962621144
 31
0.0
  0
INSERT
  5
221E4
330
22116
100
AcDbEntity
  8
寸法
 62
     0
 48
50.0
370
    -2
100
AcDbBlockReference
  2
_DOTSMALL
 10
6125.608694842298
 20
2476.694962621144
 30
0.0
 41
100.0
 42
100.0
 43
100.0
  0
INSERT
  5
221E5
330
22116
100
AcDbEntity
  8
寸法
 62
     0
 48
50.0
370
    -2
100
AcDbBlockReference
  2
_DOTSMALL
 10
5933.608694842298
 20
2476.694962621144
 30
0.0
 41
100.0
 42
100.0
 43
100.0
 50
180.0
  0
MTEXT
  5
221E6
330
22116
100
AcDbEntity
  8
寸法
 62
     7
 48
50.0
100
AcDbMText
 10
6029.608694842298
 20
2676.706773644766
 30
0.0
 40
120.0
 41
0.0
 71
     5
 72
     1
  1
\A1;120\P170
  7
STYLE1
 73
     1
 44
1.0
1001
ACAD
1000
MTEXTBEGIN
1070
    73
1070
     1
1070
    44
1040
1.0
1070
    74
1070
     0
1000
MTEXTEND
  0
POINT
  5
221E7
330
22116
100
AcDbEntity
  8
DEFPOINTS
 62
     0
 48
50.0
100
AcDbPoint
 10
6125.608694842298
 20
2057.027154704763
 30
0.0
  0
POINT
  5
221E8
330
22116
100
AcDbEntity
  8
DEFPOINTS
 62
     0
 48
50.0
100
AcDbPoint
 10
5933.608694842298
 20
2057.027154704763
 30
0.0
  0
POINT
  5
221E9
330
22116
100
AcDbEntity
  8
DEFPOINTS
 62
     0
 48
50.0
100
AcDbPoint
 10
5933.608694842298
 20
2476.694962621144
 30
0.0
  0
ENDBLK
  5
22121
330
22116
100
AcDbEntity
  8
0
 48
50.0
100
AcDbBlockEnd
  0
BLOCK
  5
22188
330
2217C
100
AcDbEntity
  8
0
 48
50.0
100
AcDbBlockBegin
  2
*D29
 70
     1
 10
0.0
 20
0.0
 30
0.0
  3
*D29
  1

  0
LINE
  5
222FA
330
2217C
100
AcDbEntity
  8
寸法
 62
     0
 48
50.0
370
    -2
100
AcDbLine
 10
8743.599999999998
 20
7293.281687023919
 30
0.0
 11
8743.599999999998
 21
6983.271963995846
 31
0.0
  0
LINE
  5
222FB
330
2217C
100
AcDbEntity
  8
寸法
 62
     0
 48
50.0
370
    -2
100
AcDbLine
 10
8633.599999999999
 20
7293.281687023915
 30
0.0
 11
8633.599999999999
 21
6983.271963995846
 31
0.0
  0
LINE
  5
222FC
330
2217C
100
AcDbEntity
  8
寸法
 62
     0
 48
50.0
370
    -2
100
AcDbLine
 10
8743.599999999998
 20
7043.271963995845
 30
0.0
 11
8633.599999999999
 21
7043.271963995845
 31
0.0
  0
MTEXT
  5
222FD
330
2217C
100
AcDbEntity
  8
寸法
 62
     7
 48
50.0
100
AcDbMText
 10
8606.063100300744
 20
6928.831787125317
 30
0.0
 40
120.0
 41
0.0
 71
     5
 72
     1
  1
\A1;110
  7
STYLE1
 73
     1
 44
1.0
1001
ACAD
1000
MTEXTBEGIN
1070
    73
1070
     1
1070
    44
1040
1.0
1070
    74
1070
     0
1000
MTEXTEND
  0
INSERT
  5
222FE
330
2217C
100
AcDbEntity
  8
寸法
 62
     0
 48
50.0
370
    -2
100
AcDbBlockReference
  2
_DOTSMALL
 10
8743.599999999998
 20
7043.271963995845
 30
0.0
 41
100.0
 42
100.0
 43
100.0
  0
INSERT
  5
222FF
330
2217C
100
AcDbEntity
  8
寸法
 62
     0
 48
50.0
370
    -2
100
AcDbBlockReference
  2
_DOTSMALL
 10
8633.599999999999
 20
7043.271963995845
 30
0.0
 41
100.0
 42
100.0
 43
100.0
 50
180.0
  0
POINT
  5
22300
330
2217C
100
AcDbEntity
  8
DEFPOINTS
 62
     0
 48
50.0
100
AcDbPoint
 10
8743.599999999998
 20
7313.28168702392
 30
0.0
  0
POINT
  5
22301
330
2217C
100
AcDbEntity
  8
DEFPOINTS
 62
     0
 48
50.0
100
AcDbPoint
 10
8633.599999999999
 20
7313.281687023915
 30
0.0
  0
POINT
  5
22302
330
2217C
100
AcDbEntity
  8
DEFPOINTS
 62
     0
 48
50.0
100
AcDbPoint
 10
8633.599999999999
 20
7043.271963995845
 30
0.0
  0
ENDBLK
  5
22189
330
2217C
100
AcDbEntity
  8
0
 48
50.0
100
AcDbBlockEnd
  0
ENDSEC
  0
SECTION
  2
ENTITIES
  0
LINE
  5
10B57
330
747D
100
AcDbEntity
  8
補助
  6
PHANTOM
 62
   230
 48
50.0
100
AcDbLine
 10
139.9999999999995
 20
11409.6
 30
0.0
 11
16307.2
 21
11409.6
 31
0.0
  0
LINE
  5
10B59
330
747D
100
AcDbEntity
  8
仕様書枠
  6
Continuous
 48
50.0
100
AcDbLine
 10
13107.2
 20
1200.0
 30
0.0
 11
13107.2
 21
-0.0000000000000729
 31
0.0
  0
LINE
  5
10B5C
330
747D
100
AcDbEntity
  8
仕様書枠
 48
50.0
100
AcDbLine
 10
16307.2
 20
1200.0
 30
0.0
 11
16307.2
 21
-0.0000000000000909
 31
0.0
  0
LINE
  5
10B5D
330
747D
100
AcDbEntity
  8
仕様書枠
 48
50.0
100
AcDbLine
 10
140.0
 20
0.0
 30
0.0
 11
16307.2
 21
-0.0000000000000909
 31
0.0
  0
LINE
  5
10B5E
330
747D
100
AcDbEntity
  8
補助
  6
PHANTOM
 62
   230
 48
50.0
100
AcDbLine
 10
16307.2
 20
11409.6
 30
0.0
 11
16307.2
 21
1200.0
 31
0.0
  0
LINE
  5
10B6C
330
747D
100
AcDbEntity
  8
仕様書枠
 48
50.0
100
AcDbLine
 10
13107.2
 20
1200.0
 30
0.0
 11
16307.2
 21
1200.0
 31
0.0
  0
LINE
  5
10B6D
330
747D
100
AcDbEntity
  8
補助
  6
PHANTOM
 62
   230
 48
50.0
100
AcDbLine
 10
13107.2
 20
11409.6
 30
0.0
 11
13107.2
 21
4800.0
 31
0.0
  0
LINE
  5
10B6F
330
747D
100
AcDbEntity
  8
補助
  6
PHANTOM
 62
   230
 48
50.0
100
AcDbLine
 10
13107.2
 20
4800.0
 30
0.0
 11
16307.2
 21
4800.0
 31
0.0
  0
LINE
  5
10B72
330
747D
100
AcDbEntity
  8
文字
 62
     7
 48
50.0
100
AcDbLine
 10
13187.2
 20
400.0
 30
0.0
 11
16227.2
 21
400.0
 31
0.0
  0
TEXT
  5
10B73
330
747D
100
AcDbEntity
  8
文字
 62
     7
 48
50.0
100
AcDbText
 10
13162.9790565769
 20
895.0906074299405
 30
0.0
 40
200.0
  1
基 礎 図
  7
STYLE2
100
AcDbText
  0
TEXT
  5
10B74
330
747D
100
AcDbEntity
  8
文字
 62
     7
 48
50.0
100
AcDbText
 10
13201.43669998441
 20
477.2740661031255
 30
0.0
 40
160.0
  1
機種名
  7
STYLE2
100
AcDbText
  0
LINE
  5
10B7B
330
747D
100
AcDbEntity
  8
仕様書枠
 48
50.0
100
AcDbLine
 10
13107.2
 20
800.0
 30
0.0
 11
14251.2
 21
800.0
 31
0.0
  0
LINE
  5
10B88
330
747D
100
AcDbEntity
  8
仕様書枠
  6
Continuous
 48
50.0
100
AcDbLine
 10
14251.2
 20
1200.0
 30
0.0
 11
14251.2
 21
800.0
 31
0.0
  0
TEXT
  5
14DEF
330
747D
100
AcDbEntity
  8
文字
 62
     7
 48
50.0
100
AcDbText
 10
14824.18643919327
 20
871.1744590657925
 30
0.0
 40
100.0
  1
～一般型～
  7
STYLE2
100
AcDbText
  0
TEXT
  5
15A76
330
747D
100
AcDbEntity
  8
文字
 62
     7
 48
50.0
100
AcDbText
 10
14478.98566430227
 20
499.5983841039501
 30
0.0
 40
160.0
  1
ＮＸＮ－４１ＣＳ
  7
STYLE2
100
AcDbText
  0
TEXT
  5
1D002
330
747D
100
AcDbEntity
  8
文字
 62
     7
 48
50.0
100
AcDbText
 10
13188.16259899338
 20
246.7109242801889
 30
0.0
 40
80.0
  1
※寒冷地等は地域の実情に合わせた基礎にして下さい。
  7
STYLE2
100
AcDbText
  0
DIMENSION
  5
1D91B
330
747D
100
AcDbEntity
  8
寸法
 48
50.0
100
AcDbDimension
  2
*D1
 10
7770.307249876097
 20
5203.28168702392
 30
0.0
 11
7770.307249876096
 21
5439.32893111841
 31
0.0
 70
   160
 71
     5
 42
130.0000000000018
  3
INABA_S40G
100
AcDbAlignedDimension
 13
7553.599999999999
 23
5073.281687023918
 33
0.0
 14
7553.599999999999
 24
5203.28168702392
 34
0.0
 50
90.0
100
AcDbRotatedDimension
  0
DIMENSION
  5
1D91C
330
747D
100
AcDbEntity
  8
寸法
 48
50.0
100
AcDbDimension
  2
*D2
 10
7770.307249876097
 20
4903.281687023919
 30
0.0
 11
7770.307249876096
 21
4667.23444292943
 31
0.0
 70
   160
 71
     5
 42
170.0000000000018
  3
INABA_S40G
100
AcDbAlignedDimension
 13
7553.599999999999
 23
5073.281687023921
 33
0.0
 14
7553.599999999999
 24
4903.281687023919
 34
0.0
 50
90.0
100
AcDbRotatedDimension
  0
DIMENSION
  5
1D91D
330
747D
100
AcDbEntity
  8
寸法
 48
50.0
100
AcDbDimension
  2
*D3
 10
7446.6
 20
8348.342297413847
 30
0.0
 11
8093.6
 21
8448.354108437468
 31
0.0
 70
    32
 71
     5
 42
1294.0
  3
INABA_S40G
100
AcDbAlignedDimension
 13
8740.599999999998
 23
7470.281687023917
 33
0.0
 14
7446.6
 24
7470.281687023917
 34
0.0
100
AcDbRotatedDimension
  0
LINE
  5
1D91E
330
747D
100
AcDbEntity
  8
部品1
 48
50.0
100
AcDbLine
 10
8633.599999999999
 20
5073.281687023933
 30
0.0
 11
7553.599999999997
 21
5073.281687023918
 31
0.0
  0
LINE
  5
1D91F
330
747D
100
AcDbEntity
  8
部品1
 48
50.0
100
AcDbLine
 10
8633.599999999999
 20
7423.281687023915
 30
0.0
 11
7553.599999999997
 21
7423.281687023919
 31
0.0
  0
DIMENSION
  5
1D920
330
747D
100
AcDbEntity
  8
寸法
 48
50.0
100
AcDbDimension
  2
*D4
 10
8863.599999999998
 20
8560.802992930684
 30
0.0
 11
8093.6
 21
8660.802992930683
 31
0.0
 70
    32
 71
     5
 42
1540.0
  3
INABA_S40G
100
AcDbAlignedDimension
 13
7323.599999999998
 23
7543.281687023917
 33
0.0
 14
8863.599999999998
 24
7543.281687023917
 34
0.0
100
AcDbRotatedDimension
  0
LINE
  5
1D921
330
747D
100
AcDbEntity
  8
部品1
 48
50.0
100
AcDbLine
 10
8863.599999999998
 20
4903.281687023935
 30
0.0
 11
7323.599999999998
 21
4903.281687023913
 31
0.0
  0
LINE
  5
1D922
330
747D
100
AcDbEntity
  8
部品1
 48
50.0
100
AcDbLine
 10
8863.599999999998
 20
7543.281687023917
 30
0.0
 11
7323.599999999998
 21
7543.281687023917
 31
0.0
  0
LINE
  5
1D923
330
747D
100
AcDbEntity
  8
想像線
 48
10.0
100
AcDbLine
 10
8908.599999999998
 20
4848.281687023913
 30
0.0
 11
7278.6
 21
4848.281687023917
 31
0.0
  0
LINE
  5
1D924
330
747D
100
AcDbEntity
  8
想像線
 48
10.0
100
AcDbLine
 10
7278.6
 20
7618.281687023916
 30
0.0
 11
8908.600000000003
 21
7618.28168702392
 31
0.0
  0
DIMENSION
  5
1D925
330
747D
100
AcDbEntity
  8
寸法
 48
50.0
100
AcDbDimension
  2
*D5
 10
7323.599999999998
 20
8348.342297413847
 30
0.0
 11
7085.11471862576
 21
8348.342297413847
 31
0.0
 70
   160
 71
     5
 42
123.0
  3
INABA_S40G
100
AcDbAlignedDimension
 13
7446.6
 23
7470.281687023917
 33
0.0
 14
7323.599999999998
 24
7543.281687023917
 34
0.0
100
AcDbRotatedDimension
  0
DIMENSION
  5
1D926
330
747D
100
AcDbEntity
  8
寸法
 48
50.0
100
AcDbDimension
  2
*D6
 10
7323.599999999998
 20
8560.802992930685
 30
0.0
 11
7301.099999999997
 21
8560.802992930685
 31
0.0
 70
   160
  1
a
 71
     5
 42
45.00000000000364
  3
INABA_S40G
100
AcDbAlignedDimension
 13
7278.599999999994
 23
8348.342297413847
 33
0.0
 14
7323.599999999998
 24
7543.281687023917
 34
0.0
100
AcDbRotatedDimension
  0
DIMENSION
  5
1D927
330
747D
100
AcDbEntity
  8
寸法
 48
50.0
100
AcDbDimension
  2
*D7
 10
6827.657733986183
 20
5101.281687023918
 30
0.0
 11
6827.657733986182
 21
6260.781687023918
 31
0.0
 70
   160
 71
     5
 42
2318.999999999999
  3
INABA_S40G
100
AcDbAlignedDimension
 13
7396.599999999999
 23
7420.281687023917
 33
0.0
 14
7396.600000000006
 24
5101.281687023918
 34
0.0
 50
90.0
100
AcDbRotatedDimension
  0
LINE
  5
1D928
330
747D
100
AcDbEntity
  8
部品1
 48
50.0
100
AcDbLine
 10
7443.599999999998
 20
5203.28168702392
 30
0.0
 11
7443.599999999999
 21
7313.281687023915
 31
0.0
  0
DIMENSION
  5
1D929
330
747D
100
AcDbEntity
  8
寸法
 48
50.0
100
AcDbDimension
  2
*D8
 10
6582.164931848223
 20
4903.281687023916
 30
0.0
 11
6582.164931848222
 21
6223.281687023916
 31
0.0
 70
   160
 71
     5
 42
2640.0
  3
INABA_S40G
100
AcDbAlignedDimension
 13
7323.599999999998
 23
7543.281687023917
 33
0.0
 14
7323.599999999998
 24
4903.281687023916
 34
0.0
 50
90.0
100
AcDbRotatedDimension
  0
LINE
  5
1D92A
330
747D
100
AcDbEntity
  8
部品1
 48
50.0
100
AcDbLine
 10
7323.599999999998
 20
4903.281687023916
 30
0.0
 11
7323.599999999998
 21
7543.281687023917
 31
0.0
  0
LINE
  5
1D92B
330
747D
100
AcDbEntity
  8
想像線
 48
10.0
100
AcDbLine
 10
7278.599999999999
 20
4848.281687023916
 30
0.0
 11
7278.599999999999
 21
7618.28168702392
 31
0.0
  0
DIMENSION
  5
1D92C
330
747D
100
AcDbEntity
  8
寸法
 48
50.0
100
AcDbDimension
  2
*D9
 10
6827.657733986177
 20
4903.281687023916
 30
0.0
 11
6827.657733986176
 21
4667.072027194262
 31
0.0
 70
   160
 71
     5
 42
198.0000000000018
  3
INABA_S40G
100
AcDbAlignedDimension
 13
7396.600000000006
 23
5101.281687023918
 33
0.0
 14
7323.599999999998
 24
4903.281687023916
 34
0.0
 50
90.0
100
AcDbRotatedDimension
  0
DIMENSION
  5
1D92D
330
747D
100
AcDbEntity
  8
寸法
 48
50.0
100
AcDbDimension
  2
*D10
 10
6582.16493184821
 20
4848.281687023916
 30
0.0
 11
6582.16493184821
 21
4875.781687023919
 31
0.0
 70
   160
  1
b
 71
     5
 42
55.0
  3
INABA_S40G
100
AcDbAlignedDimension
 13
7323.599999999998
 23
4903.281687023916
 33
0.0
 14
6827.657733986177
 24
4848.281687023916
 34
0.0
 50
90.0
100
AcDbRotatedDimension
  0
LINE
  5
1D92E
330
747D
100
AcDbEntity
  8
センター
 48
2.0
100
AcDbLine
 10
7446.600000000007
 20
5151.281687023918
 30
0.0
 11
7446.600000000007
 21
5051.281687023918
 31
0.0
  0
LINE
  5
1D92F
330
747D
100
AcDbEntity
  8
センター
 48
2.0
100
AcDbLine
 10
7396.600000000006
 20
5101.281687023918
 30
0.0
 11
7496.600000000007
 21
5101.281687023918
 31
0.0
  0
CIRCLE
  5
1D930
330
747D
100
AcDbEntity
  8
部品1
 48
50.0
100
AcDbCircle
 10
7446.600000000007
 20
5101.281687023918
 30
0.0
 40
35.0
  0
LINE
  5
1D931
330
747D
100
AcDbEntity
  8
部品1
 48
50.0
100
AcDbLine
 10
7553.599999999999
 20
5203.28168702392
 30
0.0
 11
7443.599999999998
 21
5203.28168702392
 31
0.0
  0
LINE
  5
1D932
330
747D
100
AcDbEntity
  8
部品1
 48
50.0
100
AcDbLine
 10
7553.599999999999
 20
5073.281687023918
 30
0.0
 11
7553.599999999999
 21
5203.28168702392
 31
0.0
  0
DIMENSION
  5
1D933
330
747D
100
AcDbEntity
  8
寸法
 48
50.0
100
AcDbDimension
  2
*D11
 10
6827.657733986177
 20
7420.281687023917
 30
0.0
 11
6827.657733986176
 21
7781.766968398156
 31
0.0
 70
   160
 71
     5
 42
123.0
  3
INABA_S40G
100
AcDbAlignedDimension
 13
7323.599999999998
 23
7543.281687023917
 33
0.0
 14
7396.599999999999
 24
7420.281687023917
 34
0.0
 50
90.0
100
AcDbRotatedDimension
  0
DIMENSION
  5
1D934
330
747D
100
AcDbEntity
  8
寸法
 48
50.0
100
AcDbDimension
  2
*D12
 10
6582.16493184821
 20
7543.281687023917
 30
0.0
 11
6582.164931848208
 21
7580.781687023919
 31
0.0
 70
   160
  1
c
 71
     5
 42
75.0
  3
INABA_S40G
100
AcDbAlignedDimension
 13
6827.657733986177
 23
7618.281687023916
 33
0.0
 14
7323.599999999998
 24
7543.281687023917
 34
0.0
 50
90.0
100
AcDbRotatedDimension
  0
LINE
  5
1D935
330
747D
100
AcDbEntity
  8
部品1
 48
50.0
100
AcDbLine
 10
7443.599999999996
 20
6333.395258810273
 30
0.0
 11
7323.599999999998
 21
6333.395258810273
 31
0.0
  0
LINE
  5
1D936
330
747D
100
AcDbEntity
  8
部品1
 48
50.0
100
AcDbLine
 10
7443.599999999996
 20
6133.395258810272
 30
0.0
 11
7323.599999999998
 21
6133.395258810273
 31
0.0
  0
LINE
  5
1D938
330
747D
100
AcDbEntity
  8
センター
 48
2.0
100
AcDbLine
 10
7446.6
 20
7470.281687023917
 30
0.0
 11
7446.6
 21
7370.281687023918
 31
0.0
  0
LINE
  5
1D939
330
747D
100
AcDbEntity
  8
センター
 48
2.0
100
AcDbLine
 10
7396.599999999999
 20
7420.281687023917
 30
0.0
 11
7496.599999999999
 21
7420.281687023917
 31
0.0
  0
CIRCLE
  5
1D93A
330
747D
100
AcDbEntity
  8
部品1
 48
50.0
100
AcDbCircle
 10
7446.6
 20
7420.281687023917
 30
0.0
 40
35.0
  0
LINE
  5
1D93B
330
747D
100
AcDbEntity
  8
部品1
 48
50.0
100
AcDbLine
 10
7553.599999999999
 20
7313.281687023913
 30
0.0
 11
7443.599999999999
 21
7313.281687023915
 31
0.0
  0
LINE
  5
1D93C
330
747D
100
AcDbEntity
  8
部品1
 48
50.0
100
AcDbLine
 10
7553.599999999999
 20
7313.281687023913
 30
0.0
 11
7553.599999999997
 21
7423.281687023919
 31
0.0
  0
DIMENSION
  5
1D93E
330
747D
100
AcDbEntity
  8
寸法
 48
50.0
100
AcDbDimension
  2
*D13
 10
8740.599999999998
 20
8348.342297413847
 30
0.0
 11
9102.085281374236
 21
8348.342297413847
 31
0.0
 70
   160
 71
     5
 42
123.0
  3
INABA_S40G
100
AcDbAlignedDimension
 13
8863.599999999998
 23
7543.281687023917
 33
0.0
 14
8740.599999999998
 24
7470.281687023917
 34
0.0
100
AcDbRotatedDimension
  0
DIMENSION
  5
1D93F
330
747D
100
AcDbEntity
  8
寸法
 48
50.0
100
AcDbDimension
  2
*D14
 10
8908.599999999998
 20
8560.802992930684
 30
0.0
 11
8886.099999999998
 21
8560.802992930684
 31
0.0
 70
   160
  1
a
 71
     5
 42
45.0
  3
INABA_S40G
100
AcDbAlignedDimension
 13
8863.599999999998
 23
7543.281687023917
 33
0.0
 14
8908.599999999998
 24
8348.342297413847
 34
0.0
100
AcDbRotatedDimension
  0
LEADER
  5
1D940
330
747D
100
AcDbEntity
  8
寸法
 48
50.0
100
AcDbLeader
  3
INABA_S40G
 71
     0
 73
     0
 74
     0
 75
     1
 40
120.0
 41
720.0000000000001
 76
     3
 10
8863.599999999998
 20
6163.053171304846
 30
0.0
 10
9113.148163484241
 20
5850.00923003993
 30
0.0
 10
9213.148163484241
 20
5850.00923003993
 30
0.0
340
1D941
  0
MTEXT
  5
1D941
102
{ACAD_REACTORS
330
1D940
102
}
330
747D
100
AcDbEntity
  8
部品1
 62
     7
 48
50.0
100
AcDbMText
 10
9973.148163484243
 20
5950.00923003993
 30
0.0
 40
120.0
 41
0.0
 71
     6
 72
     1
  1
\A1;床下換気口
  7
STYLE1
 73
     1
 44
1.0
1001
ACAD
1000
MTEXTBEGIN
1070
    73
1070
     1
1070
    44
1040
1.0
1070
    74
1070
     0
1000
MTEXTEND
  0
DIMENSION
  5
1D942
330
747D
100
AcDbEntity
  8
寸法
 48
50.0
100
AcDbDimension
  2
*D15
 10
8743.599999999998
 20
7043.271963995845
 30
0.0
 11
9099.647244094487
 21
7043.271963995845
 31
0.0
 70
   160
 71
     5
 42
120.0
  3
INABA_S40G
100
AcDbAlignedDimension
 13
8863.599999999998
 23
7313.281687023916
 33
0.0
 14
8743.599999999998
 24
7313.28168702392
 34
0.0
100
AcDbRotatedDimension
  0
TEXT
  5
1D943
330
747D
100
AcDbEntity
  8
部品1
 48
50.0
100
AcDbText
 10
8950.4200666784
 20
4208.394890244643
 30
0.0
 40
80.0
  1
(a=45,b=55,c=75)
  7
STYLE1
100
AcDbText
  0
TEXT
  5
1D944
330
747D
100
AcDbEntity
  8
部品1
 48
50.0
100
AcDbText
 10
8880.543179073518
 20
4328.125936397782
 30
0.0
 40
80.0
  1
※a,b,cは屋根の出幅です。
  7
STYLE1
100
AcDbText
  0
MTEXT
  5
1D945
102
{ACAD_REACTORS
330
1D946
102
}
330
747D
100
AcDbEntity
  8
部品1
 62
     7
 48
50.0
100
AcDbMText
 10
9745.725774538318
 20
4552.264295064126
 30
0.0
 40
120.0
 41
0.0
 71
     6
 72
     1
  1
\A1;屋根の外寸
  7
STYLE1
 73
     1
 44
1.0
1001
ACAD
1000
MTEXTBEGIN
1070
    73
1070
     1
1070
    44
1040
1.0
1070
    74
1070
     0
1000
MTEXTEND
  0
LEADER
  5
1D946
330
747D
100
AcDbEntity
  8
寸法
 48
50.0
100
AcDbLeader
  3
INABA_S40G
 71
     0
 73
     0
 74
     0
 75
     1
 40
120.0
 41
672.0
 76
     3
 10
8675.488587933825
 20
4847.281687023917
 30
0.0
 10
8933.725774538318
 20
4452.264295064125
 30
0.0
 10
9033.725774538318
 20
4452.264295064125
 30
0.0
340
1D945
  0
DIMENSION
  5
1D947
330
747D
100
AcDbEntity
  8
寸法
 48
50.0
100
AcDbDimension
  2
*D16
 10
7786.890767703562
 20
7313.281687023913
 30
0.0
 11
7786.89076770356
 21
7077.234442929425
 31
0.0
 70
   160
 71
     5
 42
110.0000000000054
  3
INABA_S40G
100
AcDbAlignedDimension
 13
7553.599999999997
 23
7423.281687023919
 33
0.0
 14
7553.599999999999
 24
7313.281687023913
 34
0.0
 50
90.0
100
AcDbRotatedDimension
  0
LINE
  5
1D949
330
747D
100
AcDbEntity
  8
部品1
 48
50.0
100
AcDbLine
 10
8743.6
 20
5203.281687023936
 30
0.0
 11
8743.599999999998
 21
7313.28168702392
 31
0.0
  0
LINE
  5
1D94A
330
747D
100
AcDbEntity
  8
部品1
 48
50.0
100
AcDbLine
 10
8863.599999999998
 20
4903.281687023935
 30
0.0
 11
8863.599999999998
 21
7543.281687023917
 31
0.0
  0
LINE
  5
1D94B
330
747D
100
AcDbEntity
  8
想像線
 48
10.0
100
AcDbLine
 10
8908.599999999998
 20
7618.28168702392
 30
0.0
 11
8908.600000000003
 21
4848.281687023916
 31
0.0
  0
TEXT
  5
1D94C
330
747D
100
AcDbEntity
  8
部品1
 48
50.0
100
AcDbText
 10
7974.294671087948
 20
4695.899423745235
 30
0.0
 40
120.0
  1
扉面
  7
STYLE1
 72
     1
 11
8102.294671087948
 21
4679.899423745236
 31
0.0
100
AcDbText
 73
     1
  0
HATCH
  5
1D94E
330
747D
100
AcDbEntity
  8
細線
 48
50.0
100
AcDbHatch
 10
0.0
 20
0.0
 30
0.0
210
0.0
220
0.0
230
1.0
  2
LINE
 70
     0
 71
     0
 91
        1
 92
        7
 72
     0
 73
     1
 93
        4
 10
8193.600000000014
 20
4903.281687023926
 10
8193.600000000014
 20
5073.281687023924
 10
7993.600000000014
 20
5073.281687023921
 10
7993.600000000014
 20
4903.28168702392
 97
        0
 75
     0
 76
     1
 52
45.0
 41
10.0
 77
     0
 78
     1
 53
45.0
 43
4490.48843901349
 44
-6248.259868052372
 45
-22.45064030267288
 46
22.45064030267288
 79
     0
 47
2.903594399684136
 98
        1
 10
8106.710000003099
 20
4942.308742456365
  0
LINE
  5
1D94F
330
747D
100
AcDbEntity
  8
部品1
 48
50.0
100
AcDbLine
 10
7993.600000000014
 20
4903.281687023926
 30
0.0
 11
7993.600000000014
 21
5073.281687023921
 31
0.0
  0
LINE
  5
1D950
330
747D
100
AcDbEntity
  8
部品1
 48
50.0
100
AcDbLine
 10
8193.600000000014
 20
4903.281687023926
 30
0.0
 11
8193.600000000014
 21
5073.281687023924
 31
0.0
  0
LINE
  5
1D951
330
747D
100
AcDbEntity
  8
センター
 48
2.0
100
AcDbLine
 10
8690.600000000006
 20
5101.281687023918
 30
0.0
 11
8790.600000000006
 21
5101.281687023918
 31
0.0
  0
CIRCLE
  5
1D952
330
747D
100
AcDbEntity
  8
部品1
 48
50.0
100
AcDbCircle
 10
8740.600000000005
 20
5101.281687023918
 30
0.0
 40
35.0
  0
LINE
  5
1D953
330
747D
100
AcDbEntity
  8
部品1
 48
50.0
100
AcDbLine
 10
8743.6
 20
5203.281687023936
 30
0.0
 11
8633.599999999999
 21
5203.281687023935
 31
0.0
  0
LINE
  5
1D954
330
747D
100
AcDbEntity
  8
部品1
 48
50.0
100
AcDbLine
 10
8633.599999999999
 20
5073.281687023933
 30
0.0
 11
8633.599999999999
 21
5203.281687023935
 31
0.0
  0
LINE
  5
1D955
330
747D
100
AcDbEntity
  8
センター
 48
2.0
100
AcDbLine
 10
8740.600000000005
 20
5151.281687023918
 30
0.0
 11
8740.600000000005
 21
5051.281687023918
 31
0.0
  0
LINE
  5
1D956
330
747D
100
AcDbEntity
  8
部品1
 48
50.0
100
AcDbLine
 10
8193.599999999999
 20
7423.281687023916
 30
0.0
 11
8193.599999999999
 21
7543.281687023917
 31
0.0
  0
LINE
  5
1D957
330
747D
100
AcDbEntity
  8
部品1
 48
50.0
100
AcDbLine
 10
7993.599999999999
 20
7423.281687023917
 30
0.0
 11
7993.599999999999
 21
7543.281687023917
 31
0.0
  0
DIMENSION
  5
1D959
330
747D
100
AcDbEntity
  8
寸法
 48
50.0
100
AcDbDimension
  2
*D17
 10
7786.89076770356
 20
7423.281687023919
 30
0.0
 11
7786.89076770356
 21
7779.328931118405
 31
0.0
 70
   160
 71
     5
 42
119.9999999999963
  3
INABA_S40G
100
AcDbAlignedDimension
 13
7525.599999999998
 23
7543.281687023915
 33
0.0
 14
7553.599999999997
 24
7423.281687023919
 34
0.0
 50
90.0
100
AcDbRotatedDimension
  0
LINE
  5
1D95A
330
747D
100
AcDbEntity
  8
センター
 48
2.0
100
AcDbLine
 10
8690.599999999999
 20
7420.281687023917
 30
0.0
 11
8790.599999999999
 21
7420.281687023917
 31
0.0
  0
CIRCLE
  5
1D95B
330
747D
100
AcDbEntity
  8
部品1
 48
50.0
100
AcDbCircle
 10
8740.599999999998
 20
7420.281687023917
 30
0.0
 40
35.0
  0
LINE
  5
1D95C
330
747D
100
AcDbEntity
  8
部品1
 48
50.0
100
AcDbLine
 10
8743.599999999998
 20
7313.28168702392
 30
0.0
 11
8633.599999999999
 21
7313.281687023915
 31
0.0
  0
LINE
  5
1D95D
330
747D
100
AcDbEntity
  8
部品1
 48
50.0
100
AcDbLine
 10
8633.599999999999
 20
7313.281687023915
 30
0.0
 11
8633.599999999999
 21
7423.281687023915
 31
0.0
  0
LINE
  5
1D95E
330
747D
100
AcDbEntity
  8
部品1
 48
50.0
100
AcDbLine
 10
8863.599999999998
 20
6333.395258810273
 30
0.0
 11
8743.599999999998
 21
6333.395258810273
 31
0.0
  0
LINE
  5
1D95F
330
747D
100
AcDbEntity
  8
部品1
 48
50.0
100
AcDbLine
 10
8863.599999999998
 20
6133.395258810273
 30
0.0
 11
8743.599999999998
 21
6133.395258810272
 31
0.0
  0
LINE
  5
1D961
330
747D
100
AcDbEntity
  8
センター
 48
2.0
100
AcDbLine
 10
8740.599999999998
 20
7470.281687023917
 30
0.0
 11
8740.599999999998
 21
7370.281687023918
 31
0.0
  0
TEXT
  5
1DEDA
330
747D
100
AcDbEntity
  8
文字
 62
     7
 48
50.0
100
AcDbText
 10
13188.16259899338
 20
79.80631269190325
 30
0.0
 40
80.0
  1
※布基礎には換気口を設けてください。
  7
STYLE2
100
AcDbText
  0
MTEXT
  5
1E700
102
{ACAD_REACTORS
330
1E701
102
}
330
747D
100
AcDbEntity
  8
部品1
 62
     7
 48
50.0
100
AcDbMText
 10
9913.416979436107
 20
7786.307130831868
 30
0.0
 40
120.0
 41
0.0
 71
     6
 72
     1
  1
基礎ボルト芯
  7
STYLE1
 73
     1
 44
1.0
1001
ACAD
1000
MTEXTBEGIN
1070
    73
1070
     1
1070
    44
1040
1.0
1070
    74
1070
     0
1000
MTEXTEND
  0
LEADER
  5
1E701
330
747D
100
AcDbEntity
  8
寸法
 48
50.0
100
AcDbLeader
  3
INABA_S40G
 71
     0
 73
     0
 74
     0
 75
     1
 40
120.0
 41
846.0000000000002
 76
     3
 10
8740.599999999998
 20
7420.281687023917
 30
0.0
 10
8927.416979436106
 20
7686.307130831868
 30
0.0
 10
9027.416979436106
 20
7686.307130831868
 30
0.0
340
1E700
  0
LINE
  5
1FA88
330
747D
100
AcDbEntity
  8
寸法
 48
50.0
100
AcDbLine
 10
8743.599999999998
 20
7313.28168702392
 30
0.0
 11
8743.599999999998
 21
6983.271963995846
 31
0.0
  0
DIMENSION
  5
1FACB
330
747D
100
AcDbEntity
  8
寸法
 48
50.0
100
AcDbDimension
  2
*D18
 10
8093.6
 20
8109.821603578355
 30
0.0
 11
7708.599999999998
 21
8209.821603578355
 31
0.0
 70
    32
 71
     5
 42
770.0
  3
INABA_S40G
100
AcDbAlignedDimension
 13
7323.599999999998
 23
7543.281687023917
 33
0.0
 14
8093.6
 24
6758.281687023916
 34
0.0
100
AcDbRotatedDimension
  0
DIMENSION
  5
1FB1E
330
747D
100
AcDbEntity
  8
寸法
 48
50.0
100
AcDbDimension
  2
*D19
 10
8863.599999999998
 20
8109.821603578355
 30
0.0
 11
8478.599999999998
 21
8209.821603578355
 31
0.0
 70
    32
 71
     5
 42
770.0
  3
INABA_S40G
100
AcDbAlignedDimension
 13
8093.6
 23
6758.281687023916
 33
0.0
 14
8863.599999999998
 24
7543.281687023917
 34
0.0
100
AcDbRotatedDimension
  0
LINE
  5
202B8
330
747D
100
AcDbEntity
  8
部品1
 48
50.0
100
AcDbLine
 10
8193.599999999999
 20
5758.281687023915
 30
0.0
 11
7993.599999999998
 21
5758.281687023915
 31
0.0
  0
LINE
  5
202B9
330
747D
100
AcDbEntity
  8
部品1
 48
50.0
100
AcDbLine
 10
8193.599999999999
 20
5958.281687023917
 30
0.0
 11
7993.599999999998
 21
5958.281687023917
 31
0.0
  0
LINE
  5
202BA
330
747D
100
AcDbEntity
  8
部品1
 48
50.0
100
AcDbLine
 10
7993.599999999998
 20
5758.281687023917
 30
0.0
 11
7993.599999999998
 21
5958.281687023917
 31
0.0
  0
LINE
  5
202BB
330
747D
100
AcDbEntity
  8
センター
 48
2.0
100
AcDbLine
 10
8093.599999999998
 20
5908.281687023917
 30
0.0
 11
8093.599999999998
 21
5808.281687023917
 31
0.0
  0
LINE
  5
202BC
330
747D
100
AcDbEntity
  8
センター
 48
2.0
100
AcDbLine
 10
8043.599999999997
 20
5858.281687023917
 30
0.0
 11
8143.599999999997
 21
5858.281687023917
 31
0.0
  0
LINE
  5
202BD
330
747D
100
AcDbEntity
  8
部品1
 48
50.0
100
AcDbLine
 10
8193.599999999999
 20
5758.281687023915
 30
0.0
 11
8193.599999999999
 21
5958.281687023917
 31
0.0
  0
LINE
  5
202C1
330
747D
100
AcDbEntity
  8
部品1
 48
50.0
100
AcDbLine
 10
8193.599999999999
 20
6562.281687023915
 30
0.0
 11
8193.599999999999
 21
6762.281687023916
 31
0.0
  0
LINE
  5
202C2
330
747D
100
AcDbEntity
  8
センター
 48
2.0
100
AcDbLine
 10
8043.599999999999
 20
6662.281687023916
 30
0.0
 11
8143.599999999999
 21
6662.281687023916
 31
0.0
  0
LINE
  5
202C3
330
747D
100
AcDbEntity
  8
センター
 48
2.0
100
AcDbLine
 10
8093.6
 20
6712.281687023916
 30
0.0
 11
8093.6
 21
6612.281687023916
 31
0.0
  0
LINE
  5
202C4
330
747D
100
AcDbEntity
  8
部品1
 48
50.0
100
AcDbLine
 10
7993.599999999999
 20
6562.281687023916
 30
0.0
 11
7993.599999999999
 21
6762.281687023916
 31
0.0
  0
LINE
  5
202C5
330
747D
100
AcDbEntity
  8
部品1
 48
50.0
100
AcDbLine
 10
8193.599999999999
 20
6762.281687023916
 30
0.0
 11
7993.599999999999
 21
6762.281687023916
 31
0.0
  0
LINE
  5
202C6
330
747D
100
AcDbEntity
  8
部品1
 48
50.0
100
AcDbLine
 10
8193.599999999999
 20
6562.281687023915
 30
0.0
 11
7993.599999999999
 21
6562.281687023915
 31
0.0
  0
DIMENSION
  5
20322
330
747D
100
AcDbEntity
  8
寸法
 48
50.0
100
AcDbDimension
  2
*D22
 10
8385.715854997194
 20
7543.281687023917
 30
0.0
 11
8285.71585499719
 21
7102.781687023917
 31
0.0
 70
    32
 71
     5
 42
881.0
  3
INABA_S40G
100
AcDbAlignedDimension
 13
8143.599999999999
 23
6662.281687023916
 33
0.0
 14
8193.599999999999
 24
7543.281687023917
 34
0.0
 50
90.0
100
AcDbRotatedDimension
  0
DIMENSION
  5
20323
330
747D
100
AcDbEntity
  8
寸法
 48
50.0
100
AcDbDimension
  2
*D21
 10
8385.715854997194
 20
4903.281687023926
 30
0.0
 11
8285.71585499719
 21
5380.781687023922
 31
0.0
 70
    32
 71
     5
 42
954.999999999991
  3
INABA_S40G
100
AcDbAlignedDimension
 13
8143.599999999999
 23
5858.281687023917
 33
0.0
 14
8193.600000000014
 24
4903.281687023926
 34
0.0
 50
90.0
100
AcDbRotatedDimension
  0
DIMENSION
  5
20324
330
747D
100
AcDbEntity
  8
寸法
 48
50.0
100
AcDbDimension
  2
*D20
 10
8385.715854997194
 20
5858.281687023917
 30
0.0
 11
8285.71585499719
 21
6260.281687023917
 31
0.0
 70
    32
 71
     5
 42
804.0
  3
INABA_S40G
100
AcDbAlignedDimension
 13
8143.599999999999
 23
6662.281687023916
 33
0.0
 14
8143.599999999999
 24
5858.281687023917
 34
0.0
 50
90.0
100
AcDbRotatedDimension
  0
LEADER
  5
20B16
330
747D
100
AcDbEntity
  8
寸法
 48
50.0
100
AcDbLeader
  3
INABA_S40G
 71
     0
 73
     0
 75
     1
 40
120.0
 41
185.591883092037
 76
     3
 10
8030.88216719823
 20
6613.571021255381
 30
0.0
 10
7960.963922672274
 20
6466.130072826392
 30
0.0
 10
7860.963922672273
 20
6466.130072826392
 30
0.0
340
20B17
210
0.0
220
0.0
230
-1.0
213
-71.41935944326269
223
-47.92531579249407
233
0.0
  0
MTEXT
  5
20B17
102
{ACAD_REACTORS
330
20B16
102
}
330
747D
100
AcDbEntity
  8
部品1
 62
     7
 48
50.0
100
AcDbMText
 10
7892.383282115537
 20
6534.055388618887
 30
0.0
 40
120.0
 41
0.0
 71
     6
 72
     1
  1
\A1;C.B
  7
STYLE1
 73
     1
 44
1.0
1001
ACAD
1000
MTEXTBEGIN
1070
    73
1070
     1
1070
    44
1040
1.0
1070
    74
1070
     0
1000
MTEXTEND
  0
LINE
  5
21F9F
330
747D
100
AcDbEntity
  8
部品1
100
AcDbLine
 10
10933.92544141929
 20
3377.998774481608
 30
0.0
 11
4862.940256033034
 21
3377.998774481608
 31
0.0
  0
LINE
  5
21FA0
330
747D
100
AcDbEntity
  8
部品1
100
AcDbLine
 10
10933.92544141928
 20
3137.998774481606
 30
0.0
 11
4862.940256033038
 21
3137.998774481607
 31
0.0
  0
LINE
  5
21FA1
330
747D
100
AcDbEntity
  8
部品1
100
AcDbLine
 10
4862.94025603304
 20
413.691804896961
 30
0.0
 11
10933.92544141928
 21
413.691804896961
 31
0.0
  0
LEADER
  5
21FA2
330
747D
100
AcDbEntity
  8
寸法
 48
50.0
100
AcDbLeader
  3
INABA_S40G
 73
     0
 74
     0
 75
     1
 40
102.2727272727273
 41
680.0000000000001
 76
     3
 10
7871.048008019492
 20
2455.902435813906
 30
0.0
 10
7915.401979132851
 20
2851.355246920447
 30
0.0
 10
8015.401979132851
 20
2851.355246920447
 30
0.0
340
21FA3
  0
MTEXT
  5
21FA3
102
{ACAD_REACTORS
330
21FA2
102
}
330
747D
100
AcDbEntity
  8
部品1
 62
     7
 48
50.0
100
AcDbMText
 10
8055.401979132851
 20
2942.491610556811
 30
0.0
 40
80.0
 41
0.8
 71
     4
 72
     1
  1
\A1;ナット(市販品)
  7
STYLE2
 73
     1
 44
1.0
1001
ACAD
1000
MTEXTBEGIN
1070
    73
1070
     1
1070
    44
1040
1.0
1070
    74
1070
     0
1000
MTEXTEND
  0
LEADER
  5
21FA4
330
747D
100
AcDbEntity
  8
寸法
 48
50.0
100
AcDbLeader
  3
INABA_S40G
 73
     0
 74
     0
 75
     1
 40
102.2727272727273
 41
906.8181818181818
 76
     3
 10
7895.048008019493
 20
2326.150443149043
 30
0.0
 10
7946.919598388332
 20
2666.38616415566
 30
0.0
 10
8046.919598388333
 20
2666.38616415566
 30
0.0
340
21FA5
  0
MTEXT
  5
21FA5
102
{ACAD_REACTORS
330
21FA4
102
}
330
747D
100
AcDbEntity
  8
部品1
 62
     7
 48
50.0
100
AcDbMText
 10
8086.919598388332
 20
2757.522527792024
 30
0.0
 40
80.0
 41
0.8
 71
     4
 72
     1
  1
\A1;ワッシャー(市販品)
  7
STYLE2
 73
     1
 44
1.0
1001
ACAD
1000
MTEXTBEGIN
1070
    73
1070
     1
1070
    44
1040
1.0
1070
    74
1070
     0
1000
MTEXTEND
  0
LWPOLYLINE
  5
21FA6
330
747D
100
AcDbEntity
  8
部品1
 48
50.0
100
AcDbPolyline
 90
        2
 70
     0
 43
8.0
 10
8047.648008019493
 20
1817.027154704764
 10
8341.350471418875
 20
1817.027154704764
  0
TEXT
  5
21FA7
330
747D
100
AcDbEntity
  8
部品1
 48
50.0
100
AcDbText
 10
8052.001592303922
 20
2412.905835466963
 30
0.0
 40
80.0
  1
基礎ボルト(市販品)
  7
STYLE2
100
AcDbText
  0
DIMENSION
  5
21FA8
330
747D
100
AcDbEntity
  8
寸法
 48
50.0
100
AcDbDimension
  2
*D23
 10
8549.516607788337
 20
1733.027154704762
 30
0.0
 11
8449.516607788337
 21
1895.027154704764
 31
0.0
 70
    32
  1
180
 71
     5
 42
324.0000000000009
  3
INABA_S40G
100
AcDbAlignedDimension
 13
8047.648008019493
 23
2057.027154704763
 33
0.0
 14
8047.648008019493
 24
1733.027154704762
 34
0.0
 50
90.0
100
AcDbRotatedDimension
  0
DIMENSION
  5
21FA9
330
747D
100
AcDbEntity
  8
寸法
 48
50.0
100
AcDbDimension
  2
*D24
 10
8825.571273907364
 20
2057.027154704763
 30
0.0
 11
8825.571273907364
 21
1591.018251283282
 31
0.0
 70
   160
  1
20～25
 71
     5
 42
52.76000000000113
  3
INABA_S40G
100
AcDbAlignedDimension
 13
7860.448008019493
 23
2109.787154704764
 33
0.0
 14
8047.648008019493
 24
2057.027154704763
 34
0.0
 50
90.0
100
AcDbRotatedDimension
  0
MTEXT
  5
21FAA
102
{ACAD_REACTORS
330
21FAB
102
}
330
747D
100
AcDbEntity
  8
部品1
 62
     7
 48
50.0
100
AcDbMText
 10
8056.592470438813
 20
2321.410480857993
 30
0.0
 40
80.0
 41
0.8
 71
     4
 72
     1
  1
M10X160
  7
STYLE2
 73
     1
 44
1.0
1001
ACAD
1000
MTEXTBEGIN
1070
    73
1070
     1
1070
    44
1040
1.0
1070
    74
1070
     0
1000
MTEXTEND
  0
LEADER
  5
21FAB
330
747D
100
AcDbEntity
  8
寸法
 48
50.0
100
AcDbLeader
  3
INABA_S40G
 73
     0
 74
     0
 75
     1
 40
80.0
 41
435.0
 76
     3
 10
7864.048008019493
 20
2106.187154704764
 30
0.0
 10
7916.592470438811
 20
2241.410480857993
 30
0.0
 10
8016.592470438812
 20
2241.410480857993
 30
0.0
340
21FAA
  0
LINE
  5
21FAC
330
747D
100
AcDbEntity
  8
部品1
100
AcDbLine
 10
4862.940256033036
 20
3377.998774481608
 30
0.0
 11
4862.940256033038
 21
413.691804896961
 31
0.0
  0
LEADER
  5
21FAD
330
747D
100
AcDbEntity
  8
寸法
 48
50.0
100
AcDbLeader
  3
INABA_S40G
 73
     0
 75
     1
 40
113.1818181818182
 41
608.6363636363635
 76
     3
 10
7823.784758157543
 20
2006.542828063042
 30
0.0
 10
7679.980929466196
 20
2842.92191041952
 30
0.0
 10
7579.980929466195
 20
2842.92191041952
 30
0.0
340
21FAE
  0
MTEXT
  5
21FAE
102
{ACAD_REACTORS
330
21FAD
102
}
330
747D
100
AcDbEntity
  8
寸法
 62
     7
 48
50.0
100
AcDbMText
 10
7539.980929466195
 20
2939.512819510429
 30
0.0
 40
80.0
 41
0.8
 71
     6
 72
     1
  1
\A1;φ70スリーブ
  7
STYLE2
 73
     1
 44
1.0
1001
ACAD
1000
MTEXTBEGIN
1070
    73
1070
     1
1070
    44
1040
1.0
1070
    74
1070
     0
1000
MTEXTEND
  0
LWPOLYLINE
  5
21FAF
330
747D
100
AcDbEntity
  8
部品1
 48
50.0
100
AcDbPolyline
 90
        2
 70
     0
 43
8.0
 10
5519.468793009342
 20
1817.027154704764
 10
5933.608694842298
 20
1817.027154704764
  0
TEXT
  5
21FB0
330
747D
100
AcDbEntity
  8
部品1
 48
50.0
100
AcDbText
 10
5519.468793009342
 20
1828.266146988018
 30
0.0
 40
80.0
  1
▽G.L
  7
STYLE2
100
AcDbText
  0
DIMENSION
  5
21FB1
330
747D
100
AcDbEntity
  8
寸法
 48
50.0
100
AcDbDimension
  2
*D25
 10
5663.18838110984
 20
1273.027154704763
 30
0.0
 11
5663.18838110984
 21
1393.027154704764
 31
0.0
 70
   160
  1
150
 71
     5
 42
240.0
  3
INABA_S40G
100
AcDbAlignedDimension
 13
5805.608694842299
 23
1513.027154704763
 33
0.0
 14
5725.608694842303
 24
1273.027154704763
 34
0.0
 50
90.0
100
AcDbRotatedDimension
  0
LEADER
  5
21FB2
330
747D
100
AcDbEntity
  8
寸法
 48
50.0
100
AcDbLeader
  3
INABA_S40G
 71
     0
 73
     0
 75
     1
 40
100.0
 41
225.0
 76
     3
 10
5901.511647194443
 20
1393.027154704763
 30
0.0
 10
5754.673668647105
 20
1129.504461086327
 30
0.0
 10
5654.673668647105
 20
1129.504461086327
 30
0.0
  0
LEADER
  5
21FB3
330
747D
100
AcDbEntity
  8
寸法
 48
50.0
100
AcDbLeader
  3
INABA_S40G
 71
     0
 73
     0
 75
     1
 40
100.0
 41
222.7272727272727
 76
     3
 10
6029.608694842298
 20
1393.027154704763
 30
0.0
 10
5782.796396204539
 20
949.1883085468835
 30
0.0
 10
5682.79639620454
 20
949.1883085468835
 30
0.0
  0
MTEXT
  5
21FB4
102
{ACAD_REACTORS
330
21FB5
102
}
330
747D
100
AcDbEntity
  8
寸法
 62
     7
 48
50.0
100
AcDbMText
 10
5844.358640619494
 20
1658.32775752222
 30
0.0
 40
80.0
 41
0.8
 71
     6
 72
     1
  1
\A1;D10@300
  7
STYLE2
 73
     1
 44
1.0
1001
ACAD
1000
MTEXTBEGIN
1070
    73
1070
     1
1070
    44
1040
1.0
1070
    74
1070
     0
1000
MTEXTEND
  0
LEADER
  5
21FB5
330
747D
100
AcDbEntity
  8
寸法
 48
50.0
100
AcDbLeader
  3
INABA_S40G
 71
     0
 73
     0
 75
     1
 40
100.0
 41
540.3409090909091
 76
     3
 10
6037.608694842299
 20
1815.154369401886
 30
0.0
 10
5954.626458313601
 20
1593.684040861081
 30
0.0
 10
5854.6264583136
 20
1593.684040861081
 30
0.0
213
-9.732182305893367
223
-4.643716661138569
233
0.0
  0
LEADER
  5
21FB6
330
747D
100
AcDbEntity
  8
寸法
 48
50.0
100
AcDbLeader
  3
INABA_S40G
 71
     0
 73
     0
 75
     1
 40
130.1136363636363
 41
651.1363636363636
 76
     3
 10
6013.608694842299
 20
2057.027154704763
 30
0.0
 10
5876.184114678283
 20
2197.497920161351
 30
0.0
 10
5776.184114678283
 20
2197.497920161351
 30
0.0
  0
MTEXT
  5
21FB7
102
{ACAD_REACTORS
330
21FB6
102
}
330
747D
100
AcDbEntity
  8
寸法
 62
     7
 48
50.0
100
AcDbMText
 10
5713.510215359026
 20
2269.543374706806
 30
0.0
 40
80.0
 41
0.8
 71
     6
 72
     1
  1
\A1;金コテ押エ
  7
STYLE2
 73
     1
 44
1.0
1001
ACAD
1000
MTEXTBEGIN
1070
    73
1070
     1
1070
    44
1040
1.0
1070
    74
1070
     0
1000
MTEXTEND
  0
DIMENSION
  5
21FB8
330
747D
100
AcDbEntity
  8
寸法
 48
50.0
100
AcDbDimension
  2
*D26
 10
5198.571456280559
 20
1273.027154704763
 30
0.0
 11
5198.571456280559
 21
1644.567304360764
 31
0.0
 70
   160
  1
540
 71
     5
 42
784.0
  3
INABA_S40G
100
AcDbAlignedDimension
 13
5933.608694842298
 23
2057.027154704763
 33
0.0
 14
5725.608694842303
 24
1273.027154704763
 34
0.0
 50
90.0
100
AcDbRotatedDimension
  0
MTEXT
  5
21FB9
102
{ACAD_REACTORS
330
21FB3
102
}
330
747D
100
AcDbEntity
  8
寸法
 62
     7
 48
50.0
100
AcDbMText
 10
5662.79639620454
 20
1009.188308546883
 30
0.0
 40
80.0
 41
0.8
 71
     6
 72
     1
  1
D13
  7
STYLE2
 73
     1
 44
1.0
1001
ACAD
1000
MTEXTBEGIN
1070
    73
1070
     1
1070
    44
1040
1.0
1070
    74
1070
     0
1000
MTEXTEND
  0
MTEXT
  5
21FBA
102
{ACAD_REACTORS
330
21FB2
102
}
330
747D
100
AcDbEntity
  8
寸法
 62
     7
 48
50.0
100
AcDbMText
 10
5634.673668647105
 20
1189.504461086327
 30
0.0
 40
80.0
 41
0.8
 71
     6
 72
     1
  1
D10
  7
STYLE2
 73
     1
 44
1.0
1001
ACAD
1000
MTEXTBEGIN
1070
    73
1070
     1
1070
    44
1040
1.0
1070
    74
1070
     0
1000
MTEXTEND
  0
DIMENSION
  5
21FBB
330
747D
100
AcDbEntity
  8
寸法
 48
50.0
100
AcDbDimension
  2
*D27
 10
6253.608694842299
 20
734.5975166996031
 30
0.0
 11
6009.511936164075
 21
734.5975166996031
 31
0.0
 70
   160
  1
300
 71
     5
 42
448.0
  3
INABA_S40G
100
AcDbAlignedDimension
 13
5805.608694842299
 23
1145.027154704763
 33
0.0
 14
6253.608694842299
 24
1145.027154704763
 34
0.0
100
AcDbRotatedDimension
  0
MTEXT
  5
21FBC
102
{ACAD_REACTORS
330
21FBD
102
}
330
747D
100
AcDbEntity
  8
寸法
 62
     7
 48
50.0
100
AcDbMText
 10
7566.623935674555
 20
2578.828547602916
 30
0.0
 40
80.0
 41
0.8
 71
     6
 72
     1
  1
アンカープレート {\fArial|b0|i0|c0|p32;U}
  7
STYLE2
 73
     1
 44
1.0
1001
ACAD
1000
MTEXTBEGIN
1070
    73
1070
     1
1070
    44
1040
1.0
1070
    74
1070
     0
1000
MTEXTEND
  0
LEADER
  5
21FBD
330
747D
100
AcDbEntity
  8
寸法
 48
50.0
100
AcDbLeader
  3
INABA_S40G
 73
     0
 75
     1
 40
106.3636363636363
 41
903.5235024184547
 76
     3
 10
7765.048008019492
 20
2126.587154704765
 30
0.0
 10
7706.623935674554
 20
2485.646729421097
 30
0.0
 10
7606.623935674554
 20
2485.646729421097
 30
0.0
340
21FBC
  0
LINE
  5
21FBE
330
747D
100
AcDbEntity
  8
細線
 48
50.0
100
AcDbLine
 10
6053.608694842299
 20
1895.400047372594
 30
0.0
 11
6125.608694842299
 21
1967.400047372593
 31
0.0
  0
ARC
  5
21FBF
330
747D
100
AcDbEntity
  8
部品1
 48
50.0
100
AcDbCircle
 10
6029.6086948423
 20
1917.281584099009
 30
0.0
 40
24.0
100
AcDbArc
 50
0.0
 51
180.0
  0
CIRCLE
  5
21FC0
330
747D
100
AcDbEntity
  8
部品1
 48
50.0
100
AcDbCircle
 10
6029.6086948423
 20
1917.281584099009
 30
0.0
 40
8.0
  0
LINE
  5
21FC1
330
747D
100
AcDbEntity
  8
部品1
 48
50.0
100
AcDbLine
 10
5933.6086948423
 20
1513.027154704763
 30
0.0
 11
5933.6086948423
 21
2057.027154704763
 31
0.0
  0
LINE
  5
21FC2
330
747D
100
AcDbEntity
  8
部品1
 48
50.0
100
AcDbLine
 10
6125.608694842299
 20
2057.027154704763
 30
0.0
 11
6125.608694842299
 21
1513.027154704763
 31
0.0
  0
MTEXT
  5
21FC3
102
{ACAD_REACTORS
330
21FC8
102
}
330
747D
100
AcDbEntity
  8
寸法
 62
     7
 48
50.0
100
AcDbMText
 10
6208.494631869694
 20
1918.294716003691
 30
0.0
 40
80.0
 41
0.8
 71
     4
 72
     1
  1
D13
  7
STYLE2
 73
     1
 44
1.0
1001
ACAD
1000
MTEXTBEGIN
1070
    73
1070
     1
1070
    44
1040
1.0
1070
    74
1070
     0
1000
MTEXTEND
  0
LEADER
  5
21FC4
330
747D
100
AcDbEntity
  8
寸法
 48
50.0
100
AcDbLeader
  3
INABA_S40G
 71
     0
 73
     0
 74
     0
 75
     1
 40
100.0
 41
225.0
 76
     3
 10
6157.511647194442
 20
1393.027154704763
 30
0.0
 10
6236.936354648984
 20
1297.630085761791
 30
0.0
 10
6336.936354648984
 20
1297.630085761791
 30
0.0
  0
LEADER
  5
21FC5
330
747D
100
AcDbEntity
  8
寸法
 48
50.0
100
AcDbLeader
  3
INABA_S40G
 71
     0
 73
     0
 74
     0
 75
     1
 40
100.0
 41
540.3409090909091
 76
     3
 10
6103.553863855474
 20
1376.286624291238
 30
0.0
 10
6247.34715070355
 20
1034.65580629634
 30
0.0
 10
6347.347150703551
 20
1034.65580629634
 30
0.0
213
0.0
223
-1.022262676269383
233
0.0
  0
MTEXT
  5
21FC6
102
{ACAD_REACTORS
330
21FC4
102
}
330
747D
100
AcDbEntity
  8
寸法
 62
     7
 48
50.0
100
AcDbMText
 10
6356.936354648984
 20
1357.630085761791
 30
0.0
 40
80.0
 41
0.8
 71
     4
 72
     1
  1
D10
  7
STYLE2
 73
     1
 44
1.0
1001
ACAD
1000
MTEXTBEGIN
1070
    73
1070
     1
1070
    44
1040
1.0
1070
    74
1070
     0
1000
MTEXTEND
  0
LWPOLYLINE
  5
21FC7
330
747D
100
AcDbEntity
  8
部品1
 48
50.0
100
AcDbPolyline
 90
        2
 70
     0
 43
8.0
 10
6125.608694842298
 20
1817.027154704764
 10
6539.748596675257
 20
1817.027154704764
  0
LEADER
  5
21FC8
330
747D
100
AcDbEntity
  8
寸法
 48
50.0
100
AcDbLeader
  3
INABA_S40G
 71
     0
 73
     0
 74
     0
 75
     1
 40
100.0
 41
222.7272727272727
 76
     3
 10
6029.608694842298
 20
1917.281584099009
 30
0.0
 10
6088.494631869694
 20
1858.294716003691
 30
0.0
 10
6188.494631869694
 20
1858.294716003691
 30
0.0
  0
LINE
  5
21FC9
330
747D
100
AcDbEntity
  8
細線
 48
50.0
100
AcDbLine
 10
5805.608694842293
 20
1431.873900466934
 30
0.0
 11
5886.761949080128
 21
1513.027154704763
 31
0.0
  0
LINE
  5
21FCA
330
747D
100
AcDbEntity
  8
細線
 48
50.0
100
AcDbLine
 10
6013.474542319704
 20
1451.154369401885
 30
0.0
 11
6037.608694842305
 21
1475.288521924484
 31
0.0
  0
LINE
  5
21FCB
330
747D
100
AcDbEntity
  8
細線
 48
50.0
100
AcDbLine
 10
5920.406559259372
 20
1385.027154704763
 30
0.0
 11
6037.6086948423
 21
1502.229290287688
 31
0.0
  0
LINE
  5
21FCC
330
747D
100
AcDbEntity
  8
部品1
 48
50.0
100
AcDbLine
 10
5805.6086948423
 20
1273.027154704763
 30
0.0
 11
5805.6086948423
 21
1513.027154704763
 31
0.0
  0
LINE
  5
21FCD
330
747D
100
AcDbEntity
  8
細線
 48
50.0
100
AcDbLine
 10
6162.873474528243
 20
1385.027154704763
 30
0.0
 11
6253.608694842299
 21
1475.762375018822
 31
0.0
  0
LINE
  5
21FCE
330
747D
100
AcDbEntity
  8
細線
 48
50.0
100
AcDbLine
 10
6135.932706165028
 20
1385.027154704763
 30
0.0
 11
6253.608694842299
 21
1502.703143382029
 31
0.0
  0
LINE
  5
21FCF
330
747D
100
AcDbEntity
  8
部品1
 48
50.0
100
AcDbLine
 10
6253.608694842299
 20
1513.027154704763
 30
0.0
 11
6253.608694842299
 21
1273.027154704763
 31
0.0
  0
LINE
  5
21FD0
330
747D
100
AcDbEntity
  8
部品1
 48
50.0
100
AcDbLine
 10
6053.608694842306
 20
1393.027154704763
 30
0.0
 11
6053.608694842299
 21
1917.281584099009
 31
0.0
  0
LINE
  5
21FD1
330
747D
100
AcDbEntity
  8
部品1
 48
50.0
100
AcDbLine
 10
6037.608694842305
 20
1393.027154704763
 30
0.0
 11
6037.608694842293
 21
1917.281584099009
 31
0.0
  0
LINE
  5
21FD2
330
747D
100
AcDbEntity
  8
細線
 48
50.0
100
AcDbLine
 10
6021.608694842299
 20
1432.347753561274
 30
0.0
 11
6037.608694842305
 21
1448.347753561274
 31
0.0
  0
LINE
  5
21FD3
330
747D
100
AcDbEntity
  8
細線
 48
50.0
100
AcDbLine
 10
6010.791534338314
 20
1145.027154704763
 30
0.0
 11
6045.089030969497
 21
1273.027154704763
 31
0.0
  0
LINE
  5
21FD4
330
747D
100
AcDbEntity
  8
部品1
 48
50.0
100
AcDbLine
 10
6333.608694842304
 20
1145.027154704763
 30
0.0
 11
5725.608694842302
 21
1145.027154704763
 31
0.0
  0
LINE
  5
21FD5
330
747D
100
AcDbEntity
  8
部品1
 48
50.0
100
AcDbLine
 10
5861.6086948423
 20
1369.027154704763
 30
0.0
 11
6197.6086948423
 21
1369.027154704763
 31
0.0
  0
LINE
  5
21FD6
330
747D
100
AcDbEntity
  8
部品1
 48
50.0
100
AcDbLine
 10
5861.6086948423
 20
1385.027154704763
 30
0.0
 11
6197.6086948423
 21
1385.027154704763
 31
0.0
  0
LINE
  5
21FD7
330
747D
100
AcDbEntity
  8
部品1
 48
50.0
100
AcDbLine
 10
6333.608694842304
 20
1273.027154704763
 30
0.0
 11
5725.608694842302
 21
1273.027154704763
 31
0.0
  0
CIRCLE
  5
21FD8
330
747D
100
AcDbEntity
  8
部品1
 48
50.0
100
AcDbCircle
 10
6029.6086948423
 20
1393.027154704763
 30
0.0
 40
8.0
  0
LINE
  5
21FD9
330
747D
100
AcDbEntity
  8
細線
 48
50.0
100
AcDbLine
 10
6023.932706165033
 20
1273.027154704763
 30
0.0
 11
6119.932706165033
 21
1369.027154704763
 31
0.0
  0
LINE
  5
21FDA
330
747D
100
AcDbEntity
  8
細線
 48
50.0
100
AcDbLine
 10
5853.015444443816
 20
1145.027154704763
 30
0.0
 11
5887.312941074998
 21
1273.027154704763
 31
0.0
  0
LINE
  5
21FDB
330
747D
100
AcDbEntity
  8
細線
 48
50.0
100
AcDbLine
 10
5931.903489391061
 20
1145.027154704761
 30
0.0
 11
5966.200986022244
 21
1273.027154704761
 31
0.0
  0
LINE
  5
21FDC
330
747D
100
AcDbEntity
  8
細線
 48
50.0
100
AcDbLine
 10
5774.127399496558
 20
1145.027154704761
 30
0.0
 11
5808.424896127741
 21
1273.027154704761
 31
0.0
  0
LINE
  5
21FDD
330
747D
100
AcDbEntity
  8
部品1
 48
50.0
100
AcDbLine
 10
5725.608694842302
 20
1145.027154704763
 30
0.0
 11
5725.608694842302
 21
1273.027154704763
 31
0.0
  0
LINE
  5
21FDE
330
747D
100
AcDbEntity
  8
細線
 48
50.0
100
AcDbLine
 10
5859.446225062161
 20
1169.027154704763
 30
0.0
 11
5865.877005680509
 21
1145.027154704763
 31
0.0
  0
LINE
  5
21FDF
330
747D
100
AcDbEntity
  8
細線
 48
50.0
100
AcDbLine
 10
5780.558180114911
 20
1169.027154704763
 30
0.0
 11
5786.988960733257
 21
1145.027154704763
 31
0.0
  0
LINE
  5
21FE0
330
747D
100
AcDbEntity
  8
細線
 48
50.0
100
AcDbLine
 10
6017.222314956667
 20
1169.027154704763
 30
0.0
 11
6023.653095575014
 21
1145.027154704763
 31
0.0
  0
LINE
  5
21FE1
330
747D
100
AcDbEntity
  8
細線
 48
50.0
100
AcDbLine
 10
5938.334270009415
 20
1169.027154704763
 30
0.0
 11
5944.76505062776
 21
1145.027154704763
 31
0.0
  0
LINE
  5
21FE2
330
747D
100
AcDbEntity
  8
細線
 48
50.0
100
AcDbLine
 10
5835.347327622583
 20
1273.027154704763
 30
0.0
 11
5931.347327622583
 21
1369.027154704763
 31
0.0
  0
LINE
  5
21FE3
330
747D
100
AcDbEntity
  8
細線
 48
50.0
100
AcDbLine
 10
5808.406559259372
 20
1273.027154704763
 30
0.0
 11
5904.406559259372
 21
1369.027154704763
 31
0.0
  0
LINE
  5
21FE4
330
747D
100
AcDbEntity
  8
部品1
 48
50.0
100
AcDbLine
 10
5861.6086948423
 20
1385.027154704763
 30
0.0
 11
5861.6086948423
 21
1369.027154704763
 31
0.0
  0
LINE
  5
21FE5
330
747D
100
AcDbEntity
  8
細線
 48
50.0
100
AcDbLine
 10
5801.9941155094
 20
1249.027154704763
 30
0.0
 11
5795.563334891053
 21
1273.027154704763
 31
0.0
  0
LINE
  5
21FE6
330
747D
100
AcDbEntity
  8
細線
 48
50.0
100
AcDbLine
 10
5725.6086948423
 20
1258.367075670543
 30
0.0
 11
5729.536851180495
 21
1273.027154704763
 31
0.0
  0
LINE
  5
21FE7
330
747D
100
AcDbEntity
  8
部品1
 48
50.0
100
AcDbLine
 10
6021.608694842299
 20
1451.154369401885
 30
0.0
 11
6005.6086948423
 21
1451.154369401885
 31
0.0
  0
CIRCLE
  5
21FE8
330
747D
100
AcDbEntity
  8
部品1
 48
50.0
100
AcDbCircle
 10
5901.6086948423
 20
1393.027154704763
 30
0.0
 40
8.0
  0
LINE
  5
21FE9
330
747D
100
AcDbEntity
  8
細線
 48
50.0
100
AcDbLine
 10
5974.288095985788
 20
1385.027154704763
 30
0.0
 11
6005.6086948423
 21
1416.347753561274
 31
0.0
  0
ARC
  5
21FEA
330
747D
100
AcDbEntity
  8
部品1
 48
50.0
100
AcDbCircle
 10
6029.6086948423
 20
1393.027154704763
 30
0.0
 40
24.0
100
AcDbArc
 50
180.0
 51
199.4712206345143
  0
LINE
  5
21FEB
330
747D
100
AcDbEntity
  8
細線
 48
50.0
100
AcDbLine
 10
5880.882160456651
 20
1249.027154704763
 30
0.0
 11
5874.451379838305
 21
1273.027154704763
 31
0.0
  0
LINE
  5
21FEC
330
747D
100
AcDbEntity
  8
細線
 48
50.0
100
AcDbLine
 10
5959.770205403904
 20
1249.027154704763
 30
0.0
 11
5953.339424785557
 21
1273.027154704763
 31
0.0
  0
LINE
  5
21FED
330
747D
100
AcDbEntity
  8
細線
 48
50.0
100
AcDbLine
 10
5862.288095985789
 20
1273.027154704763
 30
0.0
 11
5958.288095985789
 21
1369.027154704763
 31
0.0
  0
LINE
  5
21FEE
330
747D
100
AcDbEntity
  8
部品1
 48
50.0
100
AcDbLine
 10
6005.6086948423
 20
1451.154369401885
 30
0.0
 11
6005.6086948423
 21
1393.027154704763
 31
0.0
  0
LINE
  5
21FEF
330
747D
100
AcDbEntity
  8
細線
 48
50.0
100
AcDbLine
 10
5947.347327622583
 20
1385.027154704763
 30
0.0
 11
6005.6086948423
 21
1443.288521924482
 31
0.0
  0
LINE
  5
21FF0
330
747D
100
AcDbEntity
  8
部品1
 48
50.0
100
AcDbLine
 10
6021.608694842299
 20
1451.154369401885
 30
0.0
 11
6021.608694842299
 21
1393.027154704763
 31
0.0
  0
LINE
  5
21FF1
330
747D
100
AcDbEntity
  8
部品1
 48
50.0
100
AcDbLine
 10
6333.608694842304
 20
1273.027154704763
 30
0.0
 11
6333.608694842304
 21
1145.027154704763
 31
0.0
  0
LINE
  5
21FF2
330
747D
100
AcDbEntity
  8
細線
 48
50.0
100
AcDbLine
 10
6247.455669180054
 20
1145.027154704763
 30
0.0
 11
6281.753165811238
 21
1273.027154704761
 31
0.0
  0
LINE
  5
21FF3
330
747D
100
AcDbEntity
  8
細線
 48
50.0
100
AcDbLine
 10
6089.679579285559
 20
1145.027154704763
 30
0.0
 11
6123.977075916746
 21
1273.027154704761
 31
0.0
  0
LINE
  5
21FF4
330
747D
100
AcDbEntity
  8
細線
 48
50.0
100
AcDbLine
 10
6168.567624232808
 20
1145.027154704761
 30
0.0
 11
6202.865120863993
 21
1273.027154704761
 31
0.0
  0
LINE
  5
21FF5
330
747D
100
AcDbEntity
  8
細線
 48
50.0
100
AcDbLine
 10
6174.998404851158
 20
1169.027154704763
 30
0.0
 11
6181.429185469506
 21
1145.027154704763
 31
0.0
  0
LINE
  5
21FF6
330
747D
100
AcDbEntity
  8
細線
 48
50.0
100
AcDbLine
 10
6096.110359903913
 20
1169.027154704763
 30
0.0
 11
6102.541140522259
 21
1145.027154704763
 31
0.0
  0
LINE
  5
21FF7
330
747D
100
AcDbEntity
  8
細線
 48
50.0
100
AcDbLine
 10
6253.886449798405
 20
1169.027154704763
 30
0.0
 11
6260.317230416752
 21
1145.027154704763
 31
0.0
  0
LINE
  5
21FF8
330
747D
100
AcDbEntity
  8
細線
 48
50.0
100
AcDbLine
 10
6332.774494745653
 20
1169.027154704763
 30
0.0
 11
6333.6086948423
 21
1165.913877560399
 31
0.0
  0
LINE
  5
21FF9
330
747D
100
AcDbEntity
  8
細線
 48
50.0
100
AcDbLine
 10
6326.343714127302
 20
1145.027154704761
 30
0.0
 11
6333.6086948423
 21
1172.140431849151
 31
0.0
  0
LINE
  5
21FFA
330
747D
100
AcDbEntity
  8
細線
 48
50.0
100
AcDbLine
 10
6189.814242891447
 20
1385.027154704763
 30
0.0
 11
6253.608694842299
 21
1448.821606655614
 31
0.0
  0
CIRCLE
  5
21FFB
330
747D
100
AcDbEntity
  8
部品1
 48
50.0
100
AcDbCircle
 10
6157.608694842299
 20
1393.027154704763
 30
0.0
 40
8.0
  0
ARC
  5
21FFC
330
747D
100
AcDbEntity
  8
部品1
 48
50.0
100
AcDbCircle
 10
6029.6086948423
 20
1393.027154704763
 30
0.0
 40
24.0
100
AcDbArc
 50
340.5287793654858
 51
0.0
  0
LINE
  5
21FFD
330
747D
100
AcDbEntity
  8
細線
 48
50.0
100
AcDbLine
 10
6038.658250351156
 20
1249.027154704763
 30
0.0
 11
6032.227469732808
 21
1273.027154704763
 31
0.0
  0
LINE
  5
21FFE
330
747D
100
AcDbEntity
  8
細線
 48
50.0
100
AcDbLine
 10
6117.546295298402
 20
1249.027154704763
 30
0.0
 11
6111.115514680055
 21
1273.027154704763
 31
0.0
  0
LINE
  5
21FFF
330
747D
100
AcDbEntity
  8
細線
 48
50.0
100
AcDbLine
 10
6050.873474528244
 20
1273.027154704763
 30
0.0
 11
6146.873474528244
 21
1369.027154704763
 31
0.0
  0
LINE
  5
22000
330
747D
100
AcDbEntity
  8
細線
 48
50.0
100
AcDbLine
 10
6077.814242891447
 20
1273.027154704763
 30
0.0
 11
6173.815130736585
 21
1369.028042549902
 31
0.0
  0
LINE
  5
22001
330
747D
100
AcDbEntity
  8
部品1
 48
50.0
100
AcDbLine
 10
6197.6086948423
 20
1385.027154704763
 30
0.0
 11
6197.6086948423
 21
1369.027154704763
 31
0.0
  0
LINE
  5
22002
330
747D
100
AcDbEntity
  8
細線
 48
50.0
100
AcDbLine
 10
6275.322385192894
 20
1249.027154704763
 30
0.0
 11
6268.891604574546
 21
1273.027154704763
 31
0.0
  0
LINE
  5
22003
330
747D
100
AcDbEntity
  8
細線
 48
50.0
100
AcDbLine
 10
6239.458853070694
 20
1273.027154704763
 30
0.0
 11
6253.608694842299
 21
1287.17699647637
 31
0.0
  0
LINE
  5
22004
330
747D
100
AcDbEntity
  8
細線
 48
50.0
100
AcDbLine
 10
6196.434340245647
 20
1249.027154704763
 30
0.0
 11
6190.003559627301
 21
1273.027154704763
 31
0.0
  0
LINE
  5
22005
330
747D
100
AcDbEntity
  8
細線
 48
50.0
100
AcDbLine
 10
5933.6086948423
 20
1586.814668830141
 30
0.0
 11
6037.608694842305
 21
1690.814668830144
 31
0.0
  0
LINE
  5
22006
330
747D
100
AcDbEntity
  8
細線
 48
50.0
100
AcDbLine
 10
5933.6086948423
 20
1613.755437193349
 30
0.0
 11
6037.6086948423
 21
1717.755437193349
 31
0.0
  0
LINE
  5
22007
330
747D
100
AcDbEntity
  8
細線
 48
50.0
100
AcDbLine
 10
5933.6086948423
 20
1559.873900466934
 30
0.0
 11
6037.608694842305
 21
1663.873900466934
 31
0.0
  0
LINE
  5
22008
330
747D
100
AcDbEntity
  8
細線
 48
50.0
100
AcDbLine
 10
6021.608694842299
 20
1863.400047372594
 30
0.0
 11
6037.6086948423
 21
1879.400047372594
 31
0.0
  0
LINE
  5
22009
330
747D
100
AcDbEntity
  8
細線
 48
50.0
100
AcDbLine
 10
6021.608694842299
 20
1890.3408157358
 30
0.0
 11
6037.6086948423
 21
1906.340815735801
 31
0.0
  0
LINE
  5
2200A
330
747D
100
AcDbEntity
  8
部品1
 48
50.0
100
AcDbLine
 10
5805.6086948423
 20
1513.027154704763
 30
0.0
 11
5933.6086948423
 21
1513.027154704763
 31
0.0
  0
LINE
  5
2200B
330
747D
100
AcDbEntity
  8
細線
 48
50.0
100
AcDbLine
 10
5805.608694842293
 20
1458.814668830138
 30
0.0
 11
5859.821180716925
 21
1513.027154704763
 31
0.0
  0
LINE
  5
2200C
330
747D
100
AcDbEntity
  8
細線
 48
50.0
100
AcDbLine
 10
5805.608694842293
 20
1485.755437193349
 30
0.0
 11
5832.880412353714
 21
1513.027154704763
 31
0.0
  0
LINE
  5
2200D
330
747D
100
AcDbEntity
  8
部品1
 48
50.0
100
AcDbLine
 10
6021.608694842299
 20
1859.154369401885
 30
0.0
 11
6005.6086948423
 21
1859.154369401889
 31
0.0
  0
LINE
  5
2200E
330
747D
100
AcDbEntity
  8
細線
 48
50.0
100
AcDbLine
 10
5933.6086948423
 20
1775.400047372594
 30
0.0
 11
6017.363016871594
 21
1859.154369401885
 31
0.0
  0
LINE
  5
2200F
330
747D
100
AcDbEntity
  8
細線
 48
50.0
100
AcDbLine
 10
5933.6086948423
 20
1802.340815735801
 30
0.0
 11
6005.6086948423
 21
1874.3408157358
 31
0.0
  0
LINE
  5
22010
330
747D
100
AcDbEntity
  8
部品1
 48
50.0
100
AcDbLine
 10
6005.6086948423
 20
1859.154369401889
 30
0.0
 11
6005.6086948423
 21
1917.281584099009
 31
0.0
  0
LINE
  5
22011
330
747D
100
AcDbEntity
  8
細線
 48
50.0
100
AcDbLine
 10
5933.6086948423
 20
1829.281584099009
 30
0.0
 11
6005.6086948423
 21
1901.281584099009
 31
0.0
  0
LINE
  5
22012
330
747D
100
AcDbEntity
  8
部品1
 48
50.0
100
AcDbLine
 10
6021.608694842299
 20
1859.154369401885
 30
0.0
 11
6021.608694842299
 21
1917.281584099009
 31
0.0
  0
LINE
  5
22013
330
747D
100
AcDbEntity
  8
細線
 48
50.0
100
AcDbLine
 10
6053.608694842306
 20
1679.873900466934
 30
0.0
 11
6125.608694842292
 21
1751.873900466934
 31
0.0
  0
LINE
  5
22014
330
747D
100
AcDbEntity
  8
部品1
 48
50.0
100
AcDbLine
 10
6125.608694842299
 20
1513.027154704763
 30
0.0
 11
6253.608694842299
 21
1513.027154704763
 31
0.0
  0
LINE
  5
22015
330
747D
100
AcDbEntity
  8
細線
 48
50.0
100
AcDbLine
 10
6053.608694842306
 20
1491.288521924484
 30
0.0
 11
6125.608694842292
 21
1563.288521924479
 31
0.0
  0
LINE
  5
22016
330
747D
100
AcDbEntity
  8
細線
 48
50.0
100
AcDbLine
 10
6053.608694842306
 20
1518.229290287692
 30
0.0
 11
6125.608694842292
 21
1590.229290287689
 31
0.0
  0
LINE
  5
22017
330
747D
100
AcDbEntity
  8
細線
 48
50.0
100
AcDbLine
 10
6053.608694842306
 20
1464.347753561274
 30
0.0
 11
6125.608694842292
 21
1536.347753561275
 31
0.0
  0
LINE
  5
22018
330
747D
100
AcDbEntity
  8
細線
 48
50.0
100
AcDbLine
 10
6053.608694842299
 20
1733.755437193349
 30
0.0
 11
6125.608694842299
 21
1805.755437193349
 31
0.0
  0
LINE
  5
22019
330
747D
100
AcDbEntity
  8
細線
 48
50.0
100
AcDbLine
 10
6053.608694842306
 20
1706.814668830144
 30
0.0
 11
6125.608694842292
 21
1778.814668830138
 31
0.0
  0
MTEXT
  5
2201A
102
{ACAD_REACTORS
330
21FC5
102
}
330
747D
100
AcDbEntity
  8
寸法
 62
     7
 48
50.0
100
AcDbMText
 10
6367.34715070355
 20
1095.67806897261
 30
0.0
 40
80.0
 41
0.8
 71
     4
 72
     1
  1
\A1;D10@300
  7
STYLE2
 73
     1
 44
1.0
1001
ACAD
1000
MTEXTBEGIN
1070
    73
1070
     1
1070
    44
1040
1.0
1070
    74
1070
     0
1000
MTEXTEND
  0
DIMENSION
  5
2201B
330
747D
100
AcDbEntity
  8
寸法
 48
50.0
100
AcDbDimension
  2
*D28
 10
5933.608694842298
 20
2476.694962621144
 30
0.0
 11
6029.608694842298
 21
2476.694962621144
 31
0.0
 70
   160
  1
120\P170
 71
     5
 42
192.0
  3
INABA_S40G
100
AcDbAlignedDimension
 13
6125.608694842298
 23
2057.027154704763
 33
0.0
 14
5933.608694842298
 24
2057.027154704763
 34
0.0
100
AcDbRotatedDimension
  0
LINE
  5
2201C
330
747D
100
AcDbEntity
  8
部品1
 48
50.0
100
AcDbLine
 10
5933.6086948423
 20
2057.027154704763
 30
0.0
 11
6125.608694842299
 21
2057.027154704763
 31
0.0
  0
LINE
  5
2201D
330
747D
100
AcDbEntity
  8
細線
 48
50.0
100
AcDbLine
 10
5933.6086948423
 20
2017.866962641461
 30
0.0
 11
5972.768886905604
 21
2057.027154704763
 31
0.0
  0
LINE
  5
2201E
330
747D
100
AcDbEntity
  8
細線
 48
50.0
100
AcDbLine
 10
5933.6086948423
 20
1990.926194278253
 30
0.0
 11
5999.709655268809
 21
2057.027154704763
 31
0.0
  0
LINE
  5
2201F
330
747D
100
AcDbEntity
  8
細線
 48
50.0
100
AcDbLine
 10
5933.6086948423
 20
2044.807731004668
 30
0.0
 11
5945.828118542395
 21
2057.027154704763
 31
0.0
  0
LINE
  5
22020
330
747D
100
AcDbEntity
  8
細線
 48
50.0
100
AcDbLine
 10
6053.161402108286
 20
1921.893523001785
 30
0.0
 11
6125.608694842299
 21
1994.340815735801
 31
0.0
  0
LINE
  5
22021
330
747D
100
AcDbEntity
  8
細線
 48
50.0
100
AcDbLine
 10
6042.10111734477
 20
1937.774006601479
 30
0.0
 11
6125.608694842299
 21
2021.281584099009
 31
0.0
  0
LINE
  5
22022
330
747D
100
AcDbEntity
  8
細線
 48
50.0
100
AcDbLine
 10
7918.048008019495
 20
1898.155437193351
 30
0.0
 11
8047.648008019493
 21
2027.75543719335
 31
0.0
  0
LINE
  5
22023
330
747D
100
AcDbEntity
  8
部品1
100
AcDbLine
 10
8047.648008019493
 20
1513.027154704763
 30
0.0
 11
8047.648008019493
 21
2057.027154704763
 31
0.0
  0
LINE
  5
22024
330
747D
100
AcDbEntity
  8
部品1
 48
50.0
100
AcDbLine
 10
7633.648008019493
 20
1513.027154704763
 30
0.0
 11
7633.648008019493
 21
2057.027154704763
 31
0.0
  0
LINE
  5
22025
330
747D
100
AcDbEntity
  8
細線
 48
50.0
100
AcDbLine
 10
7633.648008019493
 20
1829.281584099009
 30
0.0
 11
7792.048008019492
 21
1987.681584099006
 31
0.0
  0
LINE
  5
22026
330
747D
100
AcDbEntity
  8
細線
 48
50.0
100
AcDbLine
 10
7633.648008019493
 20
1802.340815735801
 30
0.0
 11
7792.048008019492
 21
1960.740815735799
 31
0.0
  0
LINE
  5
22027
330
747D
100
AcDbEntity
  8
細線
 48
50.0
100
AcDbLine
 10
7633.648008019493
 20
1775.400047372594
 30
0.0
 11
7792.048008019491
 21
1933.800047372586
 31
0.0
  0
TEXT
  5
22028
330
747D
100
AcDbEntity
  8
部品1
 48
50.0
100
AcDbText
 10
7219.508106186537
 20
1828.266146988018
 30
0.0
 40
80.0
  1
▽G.L
  7
STYLE2
100
AcDbText
  0
LINE
  5
22029
330
747D
100
AcDbEntity
  8
部品1
100
AcDbLine
 10
7864.048008019493
 20
1832.027154704763
 30
0.0
 11
7864.048008019491
 21
2106.187154704764
 31
0.0
  0
LINE
  5
2202A
330
747D
100
AcDbEntity
  8
部品1
100
AcDbLine
 10
7846.048008019494
 20
1832.027154704763
 30
0.0
 11
7846.04800801949
 21
2106.187154704764
 31
0.0
  0
LINE
  5
2202B
330
747D
100
AcDbEntity
  8
細線
 48
50.0
100
AcDbLine
 10
7918.048008019495
 20
1844.273900466922
 30
0.0
 11
8047.648008019493
 21
1973.873900466913
 31
0.0
  0
LINE
  5
2202C
330
747D
100
AcDbEntity
  8
細線
 48
50.0
100
AcDbLine
 10
7918.048008019495
 20
1871.214668830134
 30
0.0
 11
8047.648008019493
 21
2000.814668830131
 31
0.0
  0
LINE
  5
2202D
330
747D
100
AcDbEntity
  8
部品1
100
AcDbLine
 10
7918.048008019494
 20
1733.027154704763
 30
0.0
 11
7918.048008019494
 21
2057.027154704763
 31
0.0
  0
LINE
  5
2202E
330
747D
100
AcDbEntity
  8
部品1
100
AcDbLine
 10
7792.048008019488
 20
1733.027154704763
 30
0.0
 11
7792.048008019493
 21
2057.027154704763
 31
0.0
  0
LINE
  5
2202F
330
747D
100
AcDbEntity
  8
細線
 48
50.0
100
AcDbLine
 10
7633.648008019493
 20
1586.814668830141
 30
0.0
 11
7792.048008019486
 21
1745.21466883013
 31
0.0
  0
LINE
  5
22030
330
747D
100
AcDbEntity
  8
細線
 48
50.0
100
AcDbLine
 10
7633.648008019493
 20
1559.873900466934
 30
0.0
 11
7806.801262257329
 21
1733.027154704761
 31
0.0
  0
LINE
  5
22031
330
747D
100
AcDbEntity
  8
細線
 48
50.0
100
AcDbLine
 10
7633.648008019493
 20
1613.755437193349
 30
0.0
 11
7792.048008019486
 21
1772.155437193344
 31
0.0
  0
LINE
  5
22032
330
747D
100
AcDbEntity
  8
細線
 48
50.0
100
AcDbLine
 10
7562.327409162982
 20
1273.027154704763
 30
0.0
 11
8047.648008019493
 21
1758.347753561271
 31
0.0
  0
LINE
  5
22033
330
747D
100
AcDbEntity
  8
細線
 48
50.0
100
AcDbLine
 10
7535.386640799777
 20
1273.027154704763
 30
0.0
 11
8047.648008019494
 21
1785.288521924477
 31
0.0
  0
LINE
  5
22034
330
747D
100
AcDbEntity
  8
細線
 48
50.0
100
AcDbLine
 10
7508.445872436567
 20
1273.027154704763
 30
0.0
 11
8047.648008019493
 21
1812.229290287689
 31
0.0
  0
LINE
  5
22035
330
747D
100
AcDbEntity
  8
部品1
 48
50.0
100
AcDbLine
 10
8255.648008019496
 20
1273.027154704763
 30
0.0
 11
7425.648008019496
 21
1273.027154704763
 31
0.0
  0
LINE
  5
22036
330
747D
100
AcDbEntity
  8
部品1
 48
50.0
100
AcDbLine
 10
8255.648008019496
 20
1145.027154704763
 30
0.0
 11
7425.648008019496
 21
1145.027154704763
 31
0.0
  0
LINE
  5
22037
330
747D
100
AcDbEntity
  8
細線
 48
50.0
100
AcDbLine
 10
7505.648008019488
 20
1431.873900466934
 30
0.0
 11
7586.801262257323
 21
1513.027154704763
 31
0.0
  0
LINE
  5
22038
330
747D
100
AcDbEntity
  8
部品1
 48
50.0
100
AcDbLine
 10
7505.648008019493
 20
1273.027154704763
 30
0.0
 11
7505.648008019493
 21
1513.027154704763
 31
0.0
  0
LINE
  5
22039
330
747D
100
AcDbEntity
  8
細線
 48
50.0
100
AcDbLine
 10
7553.054757621009
 20
1145.027154704763
 30
0.0
 11
7587.352254252194
 21
1273.027154704763
 31
0.0
  0
LINE
  5
2203A
330
747D
100
AcDbEntity
  8
部品1
 48
50.0
100
AcDbLine
 10
7425.648008019496
 20
1145.027154704763
 30
0.0
 11
7425.648008019496
 21
1273.027154704763
 31
0.0
  0
LINE
  5
2203B
330
747D
100
AcDbEntity
  8
細線
 48
50.0
100
AcDbLine
 10
7474.166712673753
 20
1145.027154704761
 30
0.0
 11
7508.464209304936
 21
1273.027154704761
 31
0.0
  0
LINE
  5
2203C
330
747D
100
AcDbEntity
  8
細線
 48
50.0
100
AcDbLine
 10
7631.942802568257
 20
1145.027154704761
 30
0.0
 11
7666.240299199438
 21
1273.027154704761
 31
0.0
  0
LINE
  5
2203D
330
747D
100
AcDbEntity
  8
細線
 48
50.0
100
AcDbLine
 10
7480.597493292106
 20
1169.027154704763
 30
0.0
 11
7487.028273910451
 21
1145.027154704763
 31
0.0
  0
LINE
  5
2203E
330
747D
100
AcDbEntity
  8
細線
 48
50.0
100
AcDbLine
 10
7638.373583186609
 20
1169.027154704763
 30
0.0
 11
7644.804363804955
 21
1145.027154704763
 31
0.0
  0
LINE
  5
2203F
330
747D
100
AcDbEntity
  8
細線
 48
50.0
100
AcDbLine
 10
7559.485538239357
 20
1169.027154704763
 30
0.0
 11
7565.916318857704
 21
1145.027154704763
 31
0.0
  0
LINE
  5
22040
330
747D
100
AcDbEntity
  8
細線
 48
50.0
100
AcDbLine
 10
7425.648008019493
 20
1258.367075670543
 30
0.0
 11
7429.57616435769
 21
1273.027154704763
 31
0.0
  0
LINE
  5
22041
330
747D
100
AcDbEntity
  8
細線
 48
50.0
100
AcDbLine
 10
7502.033428686594
 20
1249.027154704763
 30
0.0
 11
7495.602648068248
 21
1273.027154704763
 31
0.0
  0
LINE
  5
22042
330
747D
100
AcDbEntity
  8
細線
 48
50.0
100
AcDbLine
 10
7659.809518581098
 20
1249.027154704763
 30
0.0
 11
7653.378737962751
 21
1273.027154704763
 31
0.0
  0
LINE
  5
22043
330
747D
100
AcDbEntity
  8
細線
 48
50.0
100
AcDbLine
 10
7580.921473633846
 20
1249.027154704763
 30
0.0
 11
7574.4906930155
 21
1273.027154704763
 31
0.0
  0
LWPOLYLINE
  5
22044
330
747D
100
AcDbEntity
  8
部品1
 48
50.0
100
AcDbPolyline
 90
        2
 70
     0
 43
8.0
 10
7219.508106186537
 20
1817.027154704764
 10
7633.648008019493
 20
1817.027154704764
  0
LINE
  5
22045
330
747D
100
AcDbEntity
  8
細線
 48
50.0
100
AcDbLine
 10
7505.648008019488
 20
1458.814668830138
 30
0.0
 11
7559.860493894118
 21
1513.027154704763
 31
0.0
  0
LINE
  5
22046
330
747D
100
AcDbEntity
  8
部品1
 48
50.0
100
AcDbLine
 10
7505.648008019493
 20
1513.027154704763
 30
0.0
 11
7633.648008019493
 21
1513.027154704763
 31
0.0
  0
LINE
  5
22047
330
747D
100
AcDbEntity
  8
細線
 48
50.0
100
AcDbLine
 10
7505.648008019488
 20
1485.755437193349
 30
0.0
 11
7532.919725530908
 21
1513.027154704763
 31
0.0
  0
LINE
  5
22048
330
747D
100
AcDbEntity
  8
細線
 48
50.0
100
AcDbLine
 10
7750.912787705438
 20
1273.027154704763
 30
0.0
 11
8047.648008019493
 21
1569.762375018816
 31
0.0
  0
LINE
  5
22049
330
747D
100
AcDbEntity
  8
細線
 48
50.0
100
AcDbLine
 10
7777.853556068642
 20
1273.027154704763
 30
0.0
 11
8047.648008019493
 21
1542.821606655621
 31
0.0
  0
LINE
  5
2204A
330
747D
100
AcDbEntity
  8
細線
 48
50.0
100
AcDbLine
 10
7723.972019342227
 20
1273.027154704763
 30
0.0
 11
8047.648008019493
 21
1596.703143382029
 31
0.0
  0
LINE
  5
2204B
330
747D
100
AcDbEntity
  8
細線
 48
50.0
100
AcDbLine
 10
7939.498166247886
 20
1273.027154704763
 30
0.0
 11
8175.648008019491
 21
1509.176996476371
 31
0.0
  0
LINE
  5
2204C
330
747D
100
AcDbEntity
  8
細線
 48
50.0
100
AcDbLine
 10
7966.438934611097
 20
1273.027154704763
 30
0.0
 11
8175.648008019491
 21
1482.236228113156
 31
0.0
  0
LINE
  5
2204D
330
747D
100
AcDbEntity
  8
部品1
 48
50.0
100
AcDbLine
 10
8175.648008019491
 20
1513.027154704763
 30
0.0
 11
8175.648008019491
 21
1273.027154704763
 31
0.0
  0
LINE
  5
2204E
330
747D
100
AcDbEntity
  8
細線
 48
50.0
100
AcDbLine
 10
7993.379702974301
 20
1273.027154704763
 30
0.0
 11
8175.648008019491
 21
1455.295459749959
 31
0.0
  0
LINE
  5
2204F
330
747D
100
AcDbEntity
  8
細線
 48
50.0
100
AcDbLine
 10
7868.606937410003
 20
1145.027154704761
 30
0.0
 11
7902.904434041186
 21
1273.027154704761
 31
0.0
  0
LINE
  5
22050
330
747D
100
AcDbEntity
  8
細線
 48
50.0
100
AcDbLine
 10
7710.830847515508
 20
1145.027154704763
 30
0.0
 11
7745.128344146691
 21
1273.027154704763
 31
0.0
  0
LINE
  5
22051
330
747D
100
AcDbEntity
  8
細線
 48
50.0
100
AcDbLine
 10
7789.718892462754
 20
1145.027154704763
 30
0.0
 11
7824.01638909394
 21
1273.027154704761
 31
0.0
  0
LINE
  5
22052
330
747D
100
AcDbEntity
  8
細線
 48
50.0
100
AcDbLine
 10
7947.494982357246
 20
1145.027154704763
 30
0.0
 11
7981.792478988431
 21
1273.027154704761
 31
0.0
  0
LINE
  5
22053
330
747D
100
AcDbEntity
  8
細線
 48
50.0
100
AcDbLine
 10
7796.149673081107
 20
1169.027154704763
 30
0.0
 11
7802.580453699454
 21
1145.027154704763
 31
0.0
  0
LINE
  5
22054
330
747D
100
AcDbEntity
  8
細線
 48
50.0
100
AcDbLine
 10
7717.261628133861
 20
1169.027154704763
 30
0.0
 11
7723.692408752206
 21
1145.027154704763
 31
0.0
  0
LINE
  5
22055
330
747D
100
AcDbEntity
  8
細線
 48
50.0
100
AcDbLine
 10
7953.925762975599
 20
1169.027154704763
 30
0.0
 11
7960.356543593945
 21
1145.027154704763
 31
0.0
  0
LINE
  5
22056
330
747D
100
AcDbEntity
  8
細線
 48
50.0
100
AcDbLine
 10
7875.037718028353
 20
1169.027154704763
 30
0.0
 11
7881.4684986467
 21
1145.027154704763
 31
0.0
  0
LINE
  5
22057
330
747D
100
AcDbEntity
  8
細線
 48
50.0
100
AcDbLine
 10
7817.585608475596
 20
1249.027154704763
 30
0.0
 11
7811.15482785725
 21
1273.027154704763
 31
0.0
  0
LINE
  5
22058
330
747D
100
AcDbEntity
  8
細線
 48
50.0
100
AcDbLine
 10
7738.697563528351
 20
1249.027154704763
 30
0.0
 11
7732.266782910002
 21
1273.027154704763
 31
0.0
  0
LINE
  5
22059
330
747D
100
AcDbEntity
  8
細線
 48
50.0
100
AcDbLine
 10
7896.473653422842
 20
1249.027154704763
 30
0.0
 11
7890.042872804496
 21
1273.027154704763
 31
0.0
  0
LINE
  5
2205A
330
747D
100
AcDbEntity
  8
細線
 48
50.0
100
AcDbLine
 10
7975.36169837009
 20
1249.027154704763
 30
0.0
 11
7968.930917751741
 21
1273.027154704763
 31
0.0
  0
LINE
  5
2205B
330
747D
100
AcDbEntity
  8
部品1
 48
50.0
100
AcDbLine
 10
8255.648008019496
 20
1273.027154704763
 30
0.0
 11
8255.648008019496
 21
1145.027154704763
 31
0.0
  0
LINE
  5
2205C
330
747D
100
AcDbEntity
  8
細線
 48
50.0
100
AcDbLine
 10
8184.159117198987
 20
1145.027154704761
 30
0.0
 11
8218.456613830175
 21
1273.02715470476
 31
0.0
  0
LINE
  5
2205D
330
747D
100
AcDbEntity
  8
細線
 48
50.0
100
AcDbLine
 10
8026.383027304495
 20
1145.027154704761
 30
0.0
 11
8060.680523935669
 21
1273.027154704763
 31
0.0
  0
LINE
  5
2205E
330
747D
100
AcDbEntity
  8
細線
 48
50.0
100
AcDbLine
 10
8105.271072251744
 20
1145.02715470476
 30
0.0
 11
8139.568568882927
 21
1273.02715470476
 31
0.0
  0
LINE
  5
2205F
330
747D
100
AcDbEntity
  8
細線
 48
50.0
100
AcDbLine
 10
8032.813807922845
 20
1169.027154704763
 30
0.0
 11
8039.244588541201
 21
1145.027154704763
 31
0.0
  0
LINE
  5
22060
330
747D
100
AcDbEntity
  8
細線
 48
50.0
100
AcDbLine
 10
8111.701852870094
 20
1169.027154704761
 30
0.0
 11
8118.132633488441
 21
1145.027154704761
 31
0.0
  0
LINE
  5
22061
330
747D
100
AcDbEntity
  8
細線
 48
50.0
100
AcDbLine
 10
8190.589897817339
 20
1169.027154704761
 30
0.0
 11
8197.020678435688
 21
1145.027154704761
 31
0.0
  0
LINE
  5
22062
330
747D
100
AcDbEntity
  8
細線
 48
50.0
100
AcDbLine
 10
8054.249743317326
 20
1249.027154704763
 30
0.0
 11
8047.818962698979
 21
1273.027154704763
 31
0.0
  0
LINE
  5
22063
330
747D
100
AcDbEntity
  8
細線
 48
50.0
100
AcDbLine
 10
8133.137788264582
 20
1249.027154704761
 30
0.0
 11
8126.707007646237
 21
1273.027154704761
 31
0.0
  0
LINE
  5
22064
330
747D
100
AcDbEntity
  8
細線
 48
50.0
100
AcDbLine
 10
8212.025833211828
 20
1249.027154704761
 30
0.0
 11
8205.595052593482
 21
1273.027154704761
 31
0.0
  0
LINE
  5
22065
330
747D
100
AcDbEntity
  8
部品1
100
AcDbLine
 10
7918.048008019494
 20
1733.027154704761
 30
0.0
 11
7792.048008019488
 21
1733.027154704761
 31
0.0
  0
LINE
  5
22066
330
747D
100
AcDbEntity
  8
部品1
100
AcDbLine
 10
7900.048008019495
 20
1814.027154704763
 30
0.0
 11
7900.048008019495
 21
1832.027154704763
 31
0.0
  0
ARC
  5
22067
330
747D
100
AcDbEntity
  8
部品1
100
AcDbCircle
 10
7864.048008019493
 20
1832.027154704763
 30
0.0
 40
18.0
100
AcDbArc
 50
180.0
 51
270.0
  0
LINE
  5
22068
330
747D
100
AcDbEntity
  8
部品1
100
AcDbLine
 10
7864.048008019493
 20
1814.027154704763
 30
0.0
 11
7900.048008019495
 21
1814.027154704763
 31
0.0
  0
LINE
  5
22069
330
747D
100
AcDbEntity
  8
部品1
100
AcDbLine
 10
7864.048008019493
 20
1832.027154704763
 30
0.0
 11
7900.048008019495
 21
1832.027154704763
 31
0.0
  0
LINE
  5
2206A
330
747D
100
AcDbEntity
  8
部品1
 48
50.0
100
AcDbLine
 10
8047.648008019493
 20
1513.027154704763
 30
0.0
 11
8175.648008019491
 21
1513.027154704763
 31
0.0
  0
LINE
  5
2206B
330
747D
100
AcDbEntity
  8
部品1
100
AcDbLine
 10
7653.448008019494
 20
2147.027154704764
 30
0.0
 11
7691.248008019494
 21
2147.027154704764
 31
0.0
  0
LINE
  5
2206C
330
747D
100
AcDbEntity
  8
細線
 48
50.0
100
AcDbLine
 10
7633.648008019493
 20
2017.866962641461
 30
0.0
 11
7672.808200082799
 21
2057.027154704763
 31
0.0
  0
LINE
  5
2206D
330
747D
100
AcDbEntity
  8
細線
 48
50.0
100
AcDbLine
 10
7633.648008019493
 20
1990.926194278253
 30
0.0
 11
7699.748968446003
 21
2057.027154704763
 31
0.0
  0
LINE
  5
2206E
330
747D
100
AcDbEntity
  8
部品1
 48
50.0
100
AcDbLine
 10
7633.648008019493
 20
2057.027154704763
 30
0.0
 11
8047.648008019494
 21
2057.027154704763
 31
0.0
  0
TEXT
  5
2206F
330
747D
100
AcDbEntity
  8
部品1
 48
50.0
100
AcDbText
 10
7207.201911440002
 20
2387.587675805239
 30
0.0
 40
80.0
  1
※(別売)
  7
STYLE2
100
AcDbText
  0
LINE
  5
22070
330
747D
100
AcDbEntity
  8
部品1
100
AcDbLine
 10
7650.748008019494
 20
2136.227154704763
 30
0.0
 11
7650.748008019494
 21
2144.327154704763
 31
0.0
  0
ARC
  5
22071
330
747D
100
AcDbEntity
  8
部品1
100
AcDbCircle
 10
7653.448008019494
 20
2144.327154704763
 30
0.0
 40
2.7
100
AcDbArc
 50
90.0
 51
180.0
  0
ARC
  5
22072
330
747D
100
AcDbEntity
  8
部品1
100
AcDbCircle
 10
7642.648008019493
 20
2131.419058407471
 30
0.0
 40
2.7
100
AcDbArc
 50
104.0362434679067
 51
180.0
  0
LINE
  5
22073
330
747D
100
AcDbEntity
  8
部品1
100
AcDbLine
 10
7641.993161831894
 20
2134.038443157863
 30
0.0
 11
7650.748008019494
 21
2136.227154704763
 31
0.0
  0
ARC
  5
22074
330
747D
100
AcDbEntity
  8
部品1
100
AcDbCircle
 10
7642.648008019493
 20
2069.287154704763
 30
0.0
 40
2.7
100
AcDbArc
 50
180.0
 51
270.0
  0
LINE
  5
22075
330
747D
100
AcDbEntity
  8
細線
 48
50.0
100
AcDbLine
 10
7633.648008019493
 20
2044.807731004668
 30
0.0
 11
7645.867431719588
 21
2057.027154704763
 31
0.0
  0
LINE
  5
22076
330
747D
100
AcDbEntity
  8
部品1
100
AcDbLine
 10
7642.648008019493
 20
2066.587154704764
 30
0.0
 11
7654.348008019488
 21
2066.587154704764
 31
0.0
  0
LINE
  5
22077
330
747D
100
AcDbEntity
  8
部品1
100
AcDbLine
 10
7639.948008019493
 20
2069.287154704763
 30
0.0
 11
7639.948008019493
 21
2131.419058407471
 31
0.0
  0
LINE
  5
22078
330
747D
100
AcDbEntity
  8
部品1
100
AcDbLine
 10
7798.608008019488
 20
2066.587154704764
 30
0.0
 11
7999.948008019488
 21
2066.587154704764
 31
0.0
  0
LINE
  5
22079
330
747D
100
AcDbEntity
  8
部品1
100
AcDbLine
 10
7691.248008019494
 20
2147.027154704764
 30
0.0
 11
7691.248008019494
 21
2155.127154704764
 31
0.0
  0
LINE
  5
2207A
330
747D
100
AcDbEntity
  8
部品1
100
AcDbLine
 10
7741.648008019493
 20
2165.92715470476
 30
0.0
 11
7741.648008019493
 21
2114.627154704764
 31
0.0
  0
LINE
  5
2207B
330
747D
100
AcDbEntity
  8
部品1
100
AcDbLine
 10
7765.048008019494
 20
2126.587154704764
 30
0.0
 11
7793.208008019494
 21
2126.587154704764
 31
0.0
  0
ARC
  5
2207C
330
747D
100
AcDbEntity
  8
部品1
100
AcDbCircle
 10
7765.048008019494
 20
2123.887154704764
 30
0.0
 40
2.7
100
AcDbArc
 50
90.0
 51
180.0
  0
ARC
  5
2207D
330
747D
100
AcDbEntity
  8
部品1
100
AcDbCircle
 10
7793.208008019494
 20
2123.887154704764
 30
0.0
 40
2.7
100
AcDbArc
 50
0.0
 51
90.0
  0
LINE
  5
2207E
330
747D
100
AcDbEntity
  8
部品1
100
AcDbLine
 10
7783.948008019493
 20
2111.927154704763
 30
0.0
 11
7783.948008019493
 21
2069.287154704763
 31
0.0
  0
LINE
  5
2207F
330
747D
100
AcDbEntity
  8
部品1
100
AcDbLine
 10
7769.548008019494
 20
2066.587154704764
 30
0.0
 11
7781.248008019495
 21
2066.587154704764
 31
0.0
  0
ARC
  5
22080
330
747D
100
AcDbEntity
  8
部品1
100
AcDbCircle
 10
7798.608008019488
 20
2069.287154704763
 30
0.0
 40
2.7
100
AcDbArc
 50
180.0
 51
270.0
  0
ARC
  5
22081
330
747D
100
AcDbEntity
  8
部品1
100
AcDbCircle
 10
7781.248008019495
 20
2069.287154704763
 30
0.0
 40
2.7
100
AcDbArc
 50
270.0
 51
0.0
  0
LINE
  5
22082
330
747D
100
AcDbEntity
  8
部品1
100
AcDbLine
 10
7741.648008019493
 20
2114.627154704764
 30
0.0
 11
7781.248008019495
 21
2114.627154704764
 31
0.0
  0
ARC
  5
22083
330
747D
100
AcDbEntity
  8
部品1
100
AcDbCircle
 10
7781.248008019495
 20
2111.927154704763
 30
0.0
 40
2.7
100
AcDbArc
 50
0.0
 51
90.0
  0
LINE
  5
22084
330
747D
100
AcDbEntity
  8
部品1
100
AcDbLine
 10
7795.908008019495
 20
2123.887154704764
 30
0.0
 11
7795.908008019491
 21
2069.287154704763
 31
0.0
  0
LINE
  5
22085
330
747D
100
AcDbEntity
  8
部品1
100
AcDbLine
 10
7762.348008019493
 20
2123.887154704764
 30
0.0
 11
7762.348008019493
 21
2106.787154704763
 31
0.0
  0
LINE
  5
22086
330
747D
100
AcDbEntity
  8
細線
100
AcDbLine
 10
7860.448008019493
 20
2066.587154704764
 30
0.0
 11
7860.448008019493
 21
2109.787154704763
 31
0.0
  0
LINE
  5
22087
330
747D
100
AcDbEntity
  8
細線
100
AcDbLine
 10
7849.648008019496
 20
2066.587154704764
 30
0.0
 11
7849.648008019492
 21
2109.787154704763
 31
0.0
  0
LINE
  5
22088
330
747D
100
AcDbEntity
  8
部品1
100
AcDbLine
 10
7846.048008019494
 20
2106.187154704764
 30
0.0
 11
7864.048008019493
 21
2106.187154704764
 31
0.0
  0
LINE
  5
22089
330
747D
100
AcDbEntity
  8
部品1
100
AcDbLine
 10
7849.648008019492
 20
2109.787154704763
 30
0.0
 11
7860.448008019493
 21
2109.787154704763
 31
0.0
  0
ELLIPSE
  5
2208A
330
747D
100
AcDbEntity
  8
部品1
 48
50.0
100
AcDbEllipse
 10
7855.048008019493
 20
2326.150443149036
 30
0.0
 11
40.0
 21
0.0
 31
0.0
210
0.0
220
0.0
230
1.0
 40
0.4
 41
0.0
 42
6.283185307179586
  0
ELLIPSE
  5
2208B
330
747D
100
AcDbEntity
  8
部品1
 48
50.0
100
AcDbEllipse
 10
7855.048008019493
 20
2316.550443149036
 30
0.0
 11
40.0
 21
0.0
 31
0.0
210
0.0
220
0.0
230
1.0
 40
0.4
 41
3.141592653589793
 42
6.283185307179586
  0
LINE
  5
2208C
330
747D
100
AcDbEntity
  8
部品1
 48
50.0
100
AcDbLine
 10
7815.048008019494
 20
2326.150443149036
 30
0.0
 11
7815.048008019494
 21
2316.550443149036
 31
0.0
  0
ARC
  5
2208D
330
747D
100
AcDbEntity
  8
部品1
100
AcDbCircle
 10
7738.948008019495
 20
2165.92715470476
 30
0.0
 40
2.7
100
AcDbArc
 50
0.0
 51
90.0
  0
ARC
  5
2208E
330
747D
100
AcDbEntity
  8
部品1
100
AcDbCircle
 10
7696.648008019494
 20
2165.927154704763
 30
0.0
 40
2.7
100
AcDbArc
 50
90.0
 51
180.0
  0
LINE
  5
2208F
330
747D
100
AcDbEntity
  8
部品1
100
AcDbLine
 10
7693.948008019494
 20
2157.827154704763
 30
0.0
 11
7693.948008019494
 21
2157.827154704763
 31
0.0
  0
LINE
  5
22090
330
747D
100
AcDbEntity
  8
部品1
100
AcDbLine
 10
7693.948008019494
 20
2157.827154704763
 30
0.0
 11
7693.948008019494
 21
2165.927154704763
 31
0.0
  0
LINE
  5
22091
330
747D
100
AcDbEntity
  8
部品1
100
AcDbLine
 10
7696.648008019494
 20
2168.627154704763
 30
0.0
 11
7738.948008019495
 21
2168.62715470476
 31
0.0
  0
ARC
  5
22092
330
747D
100
AcDbEntity
  8
部品1
100
AcDbCircle
 10
7693.948008019494
 20
2155.127154704764
 30
0.0
 40
2.7
100
AcDbArc
 50
90.0
 51
180.0
  0
ELLIPSE
  5
22093
330
747D
100
AcDbEntity
  8
部品1
 48
50.0
100
AcDbEllipse
 10
7855.048008019493
 20
2326.150443149036
 30
0.0
 11
18.4
 21
0.0
 31
0.0
210
0.0
220
0.0
230
1.0
 40
0.3478260869565217
 41
0.0
 42
6.283185307179586
  0
LINE
  5
22094
330
747D
100
AcDbEntity
  8
部品1
 48
50.0
100
AcDbLine
 10
7895.048008019493
 20
2316.550443149036
 30
0.0
 11
7895.048008019493
 21
2326.150443149036
 31
0.0
  0
LINE
  5
22095
330
747D
100
AcDbEntity
  8
部品1
 48
50.0
100
AcDbLine
 10
7823.048008019494
 20
2447.902435813906
 30
0.0
 11
7839.048008019493
 21
2439.902435813906
 31
0.0
  0
LINE
  5
22096
330
747D
100
AcDbEntity
  8
部品1
 48
50.0
100
AcDbLine
 10
7823.048008019494
 20
2415.902435813906
 30
0.0
 11
7839.048008019493
 21
2407.902435813906
 31
0.0
  0
LINE
  5
22097
330
747D
100
AcDbEntity
  8
部品1
 48
50.0
100
AcDbLine
 10
7823.048008019494
 20
2447.902435813906
 30
0.0
 11
7839.048008019493
 21
2455.902435813906
 31
0.0
  0
LINE
  5
22098
330
747D
100
AcDbEntity
  8
部品1
 48
50.0
100
AcDbLine
 10
7823.048008019494
 20
2415.902435813906
 30
0.0
 11
7823.048008019494
 21
2447.902435813906
 31
0.0
  0
LINE
  5
22099
330
747D
100
AcDbEntity
  8
部品1
 48
50.0
100
AcDbLine
 10
7839.048008019493
 20
2455.902435813906
 30
0.0
 11
7871.048008019494
 21
2455.902435813906
 31
0.0
  0
ELLIPSE
  5
2209A
330
747D
100
AcDbEntity
  8
細線
 48
50.0
100
AcDbEllipse
 10
7855.048008019493
 20
2447.902435813906
 30
0.0
 11
14.76670786606846
 21
0.0
 31
0.0
210
0.0
220
0.0
230
1.0
 40
0.2071254069489396
 41
0.0
 42
6.283185307179586
  0
LINE
  5
2209B
330
747D
100
AcDbEntity
  8
部品1
 48
50.0
100
AcDbLine
 10
7839.048008019493
 20
2407.902435813906
 30
0.0
 11
7871.048008019494
 21
2407.902435813906
 31
0.0
  0
LINE
  5
2209C
330
747D
100
AcDbEntity
  8
部品1
 48
50.0
100
AcDbLine
 10
7871.048008019494
 20
2407.902435813906
 30
0.0
 11
7887.048008019494
 21
2415.902435813906
 31
0.0
  0
LINE
  5
2209D
330
747D
100
AcDbEntity
  8
部品1
 48
50.0
100
AcDbLine
 10
7839.048008019493
 20
2439.902435813906
 30
0.0
 11
7871.048008019494
 21
2439.902435813906
 31
0.0
  0
LINE
  5
2209E
330
747D
100
AcDbEntity
  8
部品1
 48
50.0
100
AcDbLine
 10
7871.048008019494
 20
2439.902435813906
 30
0.0
 11
7887.048008019494
 21
2447.902435813906
 31
0.0
  0
LINE
  5
2209F
330
747D
100
AcDbEntity
  8
細線
 48
50.0
100
AcDbLine
 10
7871.048008019494
 20
2407.902435813906
 30
0.0
 11
7871.048008019494
 21
2439.902435813906
 31
0.0
  0
LINE
  5
220A0
330
747D
100
AcDbEntity
  8
部品1
 48
50.0
100
AcDbLine
 10
7887.048008019494
 20
2415.902435813906
 30
0.0
 11
7887.048008019494
 21
2447.902435813906
 31
0.0
  0
LINE
  5
220A1
330
747D
100
AcDbEntity
  8
細線
 48
50.0
100
AcDbLine
 10
7839.048008019493
 20
2407.902435813906
 30
0.0
 11
7839.048008019493
 21
2439.902435813906
 31
0.0
  0
LINE
  5
220A2
330
747D
100
AcDbEntity
  8
部品1
 48
50.0
100
AcDbLine
 10
7871.048008019494
 20
2455.902435813906
 30
0.0
 11
7887.048008019494
 21
2447.902435813906
 31
0.0
  0
TEXT
  5
220A3
330
747D
100
AcDbEntity
  8
部品1
100
AcDbText
 10
7555.820257211424
 20
3198.44684253018
 30
0.0
 40
120.0
  1
基礎詳細
  7
STYLE2
100
AcDbText
  0
LINE
  5
220A4
330
747D
100
AcDbEntity
  8
部品1
100
AcDbLine
 10
10933.92544141928
 20
413.691804896961
 30
0.0
 11
10933.92544141929
 21
3377.998774481608
 31
0.0
  0
LINE
  5
220A5
330
747D
100
AcDbEntity
  8
細線
100
AcDbLine
 10
9941.817273999035
 20
1817.027154704763
 30
0.0
 11
9747.183940322251
 21
2011.660488381546
 31
0.0
  0
LINE
  5
220A6
330
747D
100
AcDbEntity
  8
部品1
100
AcDbLine
 10
9747.183940322251
 20
2057.027154704763
 30
0.0
 11
10227.18394032225
 21
2057.027154704763
 31
0.0
  0
LINE
  5
220A7
330
747D
100
AcDbEntity
  8
細線
 48
50.0
100
AcDbLine
 10
9881.254824765509
 20
1597.328239051413
 30
0.0
 11
9915.552321396695
 21
1725.328239051412
 31
0.0
  0
LINE
  5
220A8
330
747D
100
AcDbEntity
  8
部品1
100
AcDbLine
 10
9627.183940322252
 20
1597.32823905141
 30
0.0
 11
10347.18394032225
 21
1597.328239051413
 31
0.0
  0
LINE
  5
220A9
330
747D
100
AcDbEntity
  8
部品1
100
AcDbLine
 10
9627.183940322252
 20
1725.328239051413
 30
0.0
 11
10347.18394032225
 21
1725.328239051416
 31
0.0
  0
LINE
  5
220AA
330
747D
100
AcDbEntity
  8
細線
100
AcDbLine
 10
9808.102585815493
 20
1725.328239051413
 30
0.0
 11
9899.801501468839
 21
1817.027154704763
 31
0.0
  0
LWPOLYLINE
  5
220AB
330
747D
100
AcDbEntity
  8
部品1
 48
50.0
100
AcDbPolyline
 90
        2
 70
     0
 43
12.0
 10
9362.572678221862
 20
1817.027154704763
 10
10563.66498135349
 20
1817.027154704763
  0
LINE
  5
220AC
330
747D
100
AcDbEntity
  8
細線
100
AcDbLine
 10
9890.905585753605
 20
1817.027154704763
 30
0.0
 11
9747.183940322251
 21
1960.748800136116
 31
0.0
  0
TEXT
  5
220AD
330
747D
100
AcDbEntity
  8
部品1
 48
50.0
100
AcDbText
 10
8983.065853563749
 20
1550.227414067454
 30
0.0
 40
80.0
  1
ボルトの出
 50
90.0
  7
STYLE2
100
AcDbText
  0
LINE
  5
220AE
330
747D
100
AcDbEntity
  8
部品1
100
AcDbLine
 10
9747.183940322251
 20
1817.027154704763
 30
0.0
 11
9747.183940322251
 21
2057.027154704763
 31
0.0
  0
LINE
  5
220AF
330
747D
100
AcDbEntity
  8
細線
 48
50.0
100
AcDbLine
 10
9723.478734871012
 20
1597.328239051412
 30
0.0
 11
9757.776231502194
 21
1725.328239051412
 31
0.0
  0
LINE
  5
220B0
330
747D
100
AcDbEntity
  8
細線
 48
50.0
100
AcDbLine
 10
9802.366779818262
 20
1597.328239051413
 30
0.0
 11
9836.664276449447
 21
1725.328239051413
 31
0.0
  0
LINE
  5
220B1
330
747D
100
AcDbEntity
  8
細線
 48
50.0
100
AcDbLine
 10
9644.590689923765
 20
1597.328239051413
 30
0.0
 11
9678.888186554949
 21
1725.328239051413
 31
0.0
  0
LINE
  5
220B2
330
747D
100
AcDbEntity
  8
部品1
100
AcDbLine
 10
9627.183940322252
 20
1597.32823905141
 30
0.0
 11
9627.183940322252
 21
1817.027154704763
 31
0.0
  0
LINE
  5
220B3
330
747D
100
AcDbEntity
  8
細線
 48
50.0
100
AcDbLine
 10
9729.909515489362
 20
1621.328239051413
 30
0.0
 11
9736.340296107711
 21
1597.328239051413
 31
0.0
  0
LINE
  5
220B4
330
747D
100
AcDbEntity
  8
細線
 48
50.0
100
AcDbLine
 10
9651.021470542112
 20
1621.328239051413
 30
0.0
 11
9657.45225116046
 21
1597.328239051413
 31
0.0
  0
LINE
  5
220B5
330
747D
100
AcDbEntity
  8
細線
 48
50.0
100
AcDbLine
 10
9808.797560436616
 20
1621.328239051413
 30
0.0
 11
9815.228341054961
 21
1597.328239051413
 31
0.0
  0
LINE
  5
220B6
330
747D
100
AcDbEntity
  8
細線
 48
50.0
100
AcDbLine
 10
9887.685605383861
 20
1621.328239051413
 30
0.0
 11
9894.11638600221
 21
1597.328239051413
 31
0.0
  0
LINE
  5
220B7
330
747D
100
AcDbEntity
  8
細線
 48
50.0
100
AcDbLine
 10
9672.457405936601
 20
1701.328239051413
 30
0.0
 11
9666.026625318252
 21
1725.328239051413
 31
0.0
  0
LINE
  5
220B8
330
747D
100
AcDbEntity
  8
細線
 48
50.0
100
AcDbLine
 10
9830.233495831103
 20
1701.328239051413
 30
0.0
 11
9823.802715212758
 21
1725.328239051413
 31
0.0
  0
LINE
  5
220B9
330
747D
100
AcDbEntity
  8
細線
 48
50.0
100
AcDbLine
 10
9751.345450883853
 20
1701.328239051413
 30
0.0
 11
9744.914670265506
 21
1725.328239051413
 31
0.0
  0
LINE
  5
220BA
330
747D
100
AcDbEntity
  8
細線
100
AcDbLine
 10
9740.220334821579
 20
1725.328239051413
 30
0.0
 11
9831.91925047493
 21
1817.027154704763
 31
0.0
  0
LINE
  5
220BB
330
747D
100
AcDbEntity
  8
細線
100
AcDbLine
 10
9774.161460318538
 20
1725.328239051413
 30
0.0
 11
9865.860375971884
 21
1817.027154704763
 31
0.0
  0
LINE
  5
220BC
330
747D
100
AcDbEntity
  8
細線
100
AcDbLine
 10
10162.43458972924
 20
1817.027154704763
 30
0.0
 11
9922.434589729242
 21
2057.027154704763
 31
0.0
  0
LINE
  5
220BD
330
747D
100
AcDbEntity
  8
細線
100
AcDbLine
 10
10213.34627797467
 20
1817.027154704765
 30
0.0
 11
9973.346277974671
 21
2057.027154704763
 31
0.0
  0
LINE
  5
220BE
330
747D
100
AcDbEntity
  8
部品1
100
AcDbLine
 10
10227.18394032225
 20
2057.027154704763
 30
0.0
 11
10227.18394032225
 21
1817.027154704763
 31
0.0
  0
LINE
  5
220BF
330
747D
100
AcDbEntity
  8
細線
 48
50.0
100
AcDbLine
 10
10196.8070045545
 20
1597.32823905141
 30
0.0
 11
10231.10450118568
 21
1725.32823905141
 31
0.0
  0
LINE
  5
220C0
330
747D
100
AcDbEntity
  8
細線
100
AcDbLine
 10
10168.10258581549
 20
1725.328239051415
 30
0.0
 11
10259.80150146883
 21
1817.027154704763
 31
0.0
  0
LINE
  5
220C1
330
747D
100
AcDbEntity
  8
細線
 48
50.0
100
AcDbLine
 10
10117.91895960725
 20
1597.328239051412
 30
0.0
 11
10152.21645623842
 21
1725.328239051413
 31
0.0
  0
LINE
  5
220C2
330
747D
100
AcDbEntity
  8
細線
 48
50.0
100
AcDbLine
 10
9960.142869712758
 20
1597.328239051412
 30
0.0
 11
9994.44036634394
 21
1725.328239051412
 31
0.0
  0
LINE
  5
220C3
330
747D
100
AcDbEntity
  8
細線
 48
50.0
100
AcDbLine
 10
10039.03091466
 20
1597.328239051413
 30
0.0
 11
10073.32841129118
 21
1725.328239051412
 31
0.0
  0
LINE
  5
220C4
330
747D
100
AcDbEntity
  8
細線
 48
50.0
100
AcDbLine
 10
10045.46169527835
 20
1621.328239051413
 30
0.0
 11
10051.8924758967
 21
1597.328239051413
 31
0.0
  0
LINE
  5
220C5
330
747D
100
AcDbEntity
  8
細線
 48
50.0
100
AcDbLine
 10
9966.573650331108
 20
1621.328239051413
 30
0.0
 11
9973.004430949453
 21
1597.328239051413
 31
0.0
  0
LINE
  5
220C6
330
747D
100
AcDbEntity
  8
細線
 48
50.0
100
AcDbLine
 10
10124.3497402256
 20
1621.328239051413
 30
0.0
 11
10130.78052084396
 21
1597.328239051413
 31
0.0
  0
LINE
  5
220C7
330
747D
100
AcDbEntity
  8
細線
 48
50.0
100
AcDbLine
 10
10203.23778517285
 20
1621.328239051412
 30
0.0
 11
10209.66856579119
 21
1597.328239051412
 31
0.0
  0
LINE
  5
220C8
330
747D
100
AcDbEntity
  8
細線
 48
50.0
100
AcDbLine
 10
10066.89763067284
 20
1701.328239051413
 30
0.0
 11
10060.46685005449
 21
1725.328239051413
 31
0.0
  0
LINE
  5
220C9
330
747D
100
AcDbEntity
  8
細線
 48
50.0
100
AcDbLine
 10
9988.009585725597
 20
1701.328239051413
 30
0.0
 11
9981.57880510725
 21
1725.328239051413
 31
0.0
  0
LINE
  5
220CA
330
747D
100
AcDbEntity
  8
細線
 48
50.0
100
AcDbLine
 10
9909.12154077835
 20
1701.328239051413
 30
0.0
 11
9902.690760160004
 21
1725.328239051413
 31
0.0
  0
LINE
  5
220CB
330
747D
100
AcDbEntity
  8
細線
100
AcDbLine
 10
10134.16146031854
 20
1725.328239051415
 30
0.0
 11
10225.86037597188
 21
1817.027154704763
 31
0.0
  0
LINE
  5
220CC
330
747D
100
AcDbEntity
  8
細線
 48
50.0
100
AcDbLine
 10
10145.78567562008
 20
1701.328239051413
 30
0.0
 11
10139.35489500173
 21
1725.328239051413
 31
0.0
  0
LINE
  5
220CD
330
747D
100
AcDbEntity
  8
細線
100
AcDbLine
 10
10100.22033482158
 20
1725.328239051415
 30
0.0
 11
10191.91925047493
 21
1817.027154704763
 31
0.0
  0
LINE
  5
220CE
330
747D
100
AcDbEntity
  8
細線
 48
50.0
100
AcDbLine
 10
10224.67372056734
 20
1701.328239051412
 30
0.0
 11
10218.24293994899
 21
1725.328239051412
 31
0.0
  0
LINE
  5
220CF
330
747D
100
AcDbEntity
  8
細線
 48
50.0
100
AcDbLine
 10
10275.69504950174
 20
1597.328239051412
 30
0.0
 11
10309.99254613293
 21
1725.32823905141
 31
0.0
  0
LINE
  5
220D0
330
747D
100
AcDbEntity
  8
部品1
100
AcDbLine
 10
10347.18394032225
 20
1817.027154704763
 30
0.0
 11
10347.18394032225
 21
1597.328239051413
 31
0.0
  0
LINE
  5
220D1
330
747D
100
AcDbEntity
  8
細線
 48
50.0
100
AcDbLine
 10
10282.12583012009
 20
1621.328239051412
 30
0.0
 11
10288.55661073844
 21
1597.328239051412
 31
0.0
  0
LINE
  5
220D2
330
747D
100
AcDbEntity
  8
細線
 48
50.0
100
AcDbLine
 10
10303.56176551458
 20
1701.328239051412
 30
0.0
 11
10297.13098489624
 21
1725.328239051412
 31
0.0
  0
LEADER
  5
220D3
330
747D
100
AcDbEntity
  8
寸法
 48
50.0
100
AcDbLeader
  3
INABA_S40G
 73
     0
 74
     0
 75
     1
 40
120.0
 41
185.591883092037
 76
     3
 10
10157.90835193817
 20
2057.027154704763
 30
0.0
 10
10201.04655857182
 20
2214.173475385901
 30
0.0
 10
10301.04655857182
 20
2214.173475385901
 30
0.0
340
220D4
  0
MTEXT
  5
220D4
102
{ACAD_REACTORS
330
220D3
102
}
330
747D
100
AcDbEntity
  8
寸法
 62
     7
 48
50.0
100
AcDbMText
 10
10341.04655857182
 20
2314.173475385901
 30
0.0
 40
120.0
 41
0.8
 71
     4
 72
     1
  1
\A1;C.B
  7
STYLE1
 73
     1
 44
1.0
1001
ACAD
1000
MTEXTBEGIN
1070
    73
1070
     1
1070
    44
1040
1.0
1070
    74
1070
     0
1000
MTEXTEND
  0
DIMENSION
  5
2217B
330
747D
100
AcDbEntity
  8
寸法
 48
50.0
100
AcDbDimension
  2
*D29
 10
8633.599999999999
 20
7043.271963995845
 30
0.0
 11
8606.063100300744
 21
6928.831787125317
 31
0.0
 70
   160
 71
     5
 42
110.0
  3
INABA_S40G
100
AcDbAlignedDimension
 13
8743.599999999998
 23
7313.28168702392
 33
0.0
 14
8633.599999999999
 24
7313.281687023915
 34
0.0
100
AcDbRotatedDimension
1001
ACAD
1000
DSTYLE
1002
{
1070
   279
1070
     2
1002
}
  0
LINE
  5
221A5
330
747D
100
AcDbEntity
  8
細線
 48
50.0
100
AcDbLine
 10
7323.599999999998
 20
6307.985528839955
 30
0.0
 11
7349.009729970318
 21
6333.395258810273
 31
0.0
  0
LINE
  5
221A6
330
747D
100
AcDbEntity
  8
細線
 48
50.0
100
AcDbLine
 10
7323.599999999998
 20
6263.084248234608
 30
0.0
 11
7393.911010575663
 21
6333.395258810272
 31
0.0
  0
LINE
  5
221A7
330
747D
100
AcDbEntity
  8
細線
 48
50.0
100
AcDbLine
 10
7323.599999999998
 20
6218.182967629262
 30
0.0
 11
7438.812291181008
 21
6333.395258810272
 31
0.0
  0
LINE
  5
221A8
330
747D
100
AcDbEntity
  8
細線
 48
50.0
100
AcDbLine
 10
7323.599999999998
 20
6173.281687023917
 30
0.0
 11
7443.599999999998
 21
6293.281687023915
 31
0.0
  0
LINE
  5
221A9
330
747D
100
AcDbEntity
  8
細線
 48
50.0
100
AcDbLine
 10
7328.614852391696
 20
6133.39525881027
 30
0.0
 11
7443.599999999998
 21
6248.380406418569
 31
0.0
  0
LINE
  5
221AA
330
747D
100
AcDbEntity
  8
細線
 48
50.0
100
AcDbLine
 10
7373.516132997044
 20
6133.395258810271
 30
0.0
 11
7443.599999999999
 21
6203.479125813226
 31
0.0
  0
LINE
  5
221AB
330
747D
100
AcDbEntity
  8
細線
 48
50.0
100
AcDbLine
 10
7418.417413602394
 20
6133.395258810274
 30
0.0
 11
7443.599999999999
 21
6158.577845207882
 31
0.0
  0
LINE
  5
221AC
330
747D
100
AcDbEntity
  8
細線
 48
50.0
100
AcDbLine
 10
7993.599999999999
 20
7540.009094608635
 30
0.0
 11
7996.872592415279
 21
7543.281687023915
 31
0.0
  0
LINE
  5
221AD
330
747D
100
AcDbEntity
  8
細線
 48
50.0
100
AcDbLine
 10
7993.599999999999
 20
7495.107814003287
 30
0.0
 11
8041.773873020625
 21
7543.281687023915
 31
0.0
  0
LINE
  5
221AE
330
747D
100
AcDbEntity
  8
細線
 48
50.0
100
AcDbLine
 10
7993.599999999999
 20
7450.206533397943
 30
0.0
 11
8086.675153625973
 21
7543.281687023917
 31
0.0
  0
LINE
  5
221AF
330
747D
100
AcDbEntity
  8
細線
 48
50.0
100
AcDbLine
 10
8011.576434231319
 20
7423.281687023916
 30
0.0
 11
8131.576434231318
 21
7543.281687023917
 31
0.0
  0
LINE
  5
221B0
330
747D
100
AcDbEntity
  8
細線
 48
50.0
100
AcDbLine
 10
8056.477714836665
 20
7423.281687023916
 30
0.0
 11
8176.477714836662
 21
7543.281687023917
 31
0.0
  0
LINE
  5
221B1
330
747D
100
AcDbEntity
  8
細線
 48
50.0
100
AcDbLine
 10
8101.37899544201
 20
7423.281687023919
 30
0.0
 11
8193.599999999999
 21
7515.502691581905
 31
0.0
  0
LINE
  5
221B2
330
747D
100
AcDbEntity
  8
細線
 48
50.0
100
AcDbLine
 10
8146.280276047354
 20
7423.281687023916
 30
0.0
 11
8193.599999999999
 21
7470.60141097656
 31
0.0
  0
LINE
  5
221B3
330
747D
100
AcDbEntity
  8
細線
 48
50.0
100
AcDbLine
 10
8743.6
 20
6287.985528839954
 30
0.0
 11
8789.00972997032
 21
6333.395258810274
 31
0.0
  0
LINE
  5
221B4
330
747D
100
AcDbEntity
  8
細線
 48
50.0
100
AcDbLine
 10
8743.6
 20
6243.084248234611
 30
0.0
 11
8833.911010575663
 21
6333.395258810273
 31
0.0
  0
LINE
  5
221B5
330
747D
100
AcDbEntity
  8
細線
 48
50.0
100
AcDbLine
 10
8743.6
 20
6198.182967629264
 30
0.0
 11
8863.599999999998
 21
6318.182967629262
 31
0.0
  0
LINE
  5
221B6
330
747D
100
AcDbEntity
  8
細線
 48
50.0
100
AcDbLine
 10
8743.6
 20
6153.281687023919
 30
0.0
 11
8863.599999999998
 21
6273.281687023917
 31
0.0
  0
LINE
  5
221B7
330
747D
100
AcDbEntity
  8
細線
 48
50.0
100
AcDbLine
 10
8768.614852391698
 20
6133.395258810271
 30
0.0
 11
8863.599999999998
 21
6228.380406418571
 31
0.0
  0
LINE
  5
221B8
330
747D
100
AcDbEntity
  8
細線
 48
50.0
100
AcDbLine
 10
8813.516132997042
 20
6133.395258810271
 30
0.0
 11
8863.599999999998
 21
6183.479125813226
 31
0.0
  0
LINE
  5
221B9
330
747D
100
AcDbEntity
  8
細線
 48
50.0
100
AcDbLine
 10
8858.417413602392
 20
6133.395258810273
 30
0.0
 11
8863.599999999998
 21
6138.57784520788
 31
0.0
  0
TEXT
  5
2233A
330
747D
100
AcDbEntity
  8
文字
 62
     7
 48
50.0
100
AcDbText
 10
14816.49629419351
 20
1031.557706291228
 30
0.0
 40
100.0
  1
 <縮尺> S=1/40
  7
STYLE2
100
AcDbText
  0
ENDSEC
  0
SECTION
  2
OBJECTS
  0
DICTIONARY
  5
7471
330
0
100
AcDbDictionary
281
     1
  3
ACAD_COLOR
350
159B0
  3
ACAD_GROUP
350
7472
  3
ACAD_LAYOUT
350
159B1
  3
ACAD_MATERIAL
350
159AF
  3
ACAD_MLINESTYLE
350
7473
  3
ACAD_PLOTSETTINGS
350
159B2
  3
ACAD_PLOTSTYLENAME
350
159AD
  3
ACDBHEADERROUNDTRIPXREC
350
2233D
  3
AcDbVariableDictionary
350
20D59
  3
CONTENTDICTIONARY
350
E71C
  3
DRAWINGVARIABLESDICT
350
F3B9
  0
DICTIONARY
  5
20FE6
330
7467
100
AcDbDictionary
280
     1
281
     1
  3
ACAD_LAYERSTATES
360
20FE7
  0
DICTIONARY
  5
159B0
102
{ACAD_REACTORS
330
7471
102
}
330
7471
100
AcDbDictionary
281
     1
  0
DICTIONARY
  5
7472
102
{ACAD_REACTORS
330
7471
102
}
330
7471
100
AcDbDictionary
281
     1
  0
DICTIONARY
  5
159B1
102
{ACAD_REACTORS
330
7471
102
}
330
7471
100
AcDbDictionary
281
     1
  3
Model
350
159B3
  3
レイアウト1
350
159B4
  0
DICTIONARY
  5
159AF
102
{ACAD_REACTORS
330
7471
102
}
330
7471
100
AcDbDictionary
281
     1
  0
DICTIONARY
  5
7473
102
{ACAD_REACTORS
330
7471
102
}
330
7471
100
AcDbDictionary
281
     1
  3
STANDARD
350
7480
  0
DICTIONARY
  5
159B2
102
{ACAD_REACTORS
330
7471
102
}
330
7471
100
AcDbDictionary
281
     1
  0
ACDBDICTIONARYWDFLT
  5
159AD
102
{ACAD_REACTORS
330
7471
102
}
330
7471
100
AcDbDictionary
281
     1
  3
Normal
350
159AE
100
AcDbDictionaryWithDefault
340
159AE
  0
DICTIONARY
  5
2233D
102
{ACAD_REACTORS
330
7471
102
}
330
7471
100
AcDbDictionary
281
     1
  3
COLORDICT
350
2233F
  3
MATERIALDICT
350
2233E
  0
DICTIONARY
  5
20D59
102
{ACAD_REACTORS
330
7471
102
}
330
7471
100
AcDbDictionary
281
     1
  3
DIMASSOC
350
20D5A
  3
PROJECTNAME
350
20D5B
  0
DICTIONARY
  5
E71C
102
{ACAD_REACTORS
330
7471
102
}
330
7471
100
AcDbDictionary
281
     1
  0
DICTIONARY
  5
F3B9
102
{ACAD_REACTORS
330
7471
102
}
330
7471
100
AcDbDictionary
281
     1
1001
DRAWINGVARIABLESXDATA
1000
POLARMODE
1000
1
  0
DICTIONARY
  5
20FE7
102
{ACAD_REACTORS
330
20FE6
102
}
330
20FE6
100
AcDbDictionary
281
     1
  0
LAYOUT
  5
159B3
102
{ACAD_XDICTIONARY
360
22340
102
}
102
{ACAD_REACTORS
330
159B1
102
}
330
159B1
100
AcDbPlotSettings
  1

  2
クセロPDF
  4
A3
  6

 40
3.174999952316284
 41
3.174999952316284
 42
3.17498779296875
 43
3.17498779296875
 44
419.9466552734374
 45
296.9259948730469
 46
0.0
 47
0.0
 48
0.0
 49
0.0
140
0.0
141
0.0
142
1.0
143
40.88431153497317
 70
 11952
 72
     1
 73
     0
 74
     2
  7
inaba.ctb
 75
     0
147
0.0244592598592392
148
0.0
149
0.0
100
AcDbLayout
  1
Model
 70
     1
 71
     0
 10
0.0
 20
0.0
 11
12.0
 21
9.0
 12
0.0
 22
0.0
 32
0.0
 14
0.0
 24
0.0
 34
0.0
 15
0.0
 25
0.0
 35
0.0
146
0.0
 13
0.0
 23
0.0
 33
0.0
 16
1.0
 26
0.0
 36
0.0
 17
0.0
 27
1.0
 37
0.0
 76
     0
330
747D
  0
LAYOUT
  5
159B4
102
{ACAD_XDICTIONARY
360
22342
102
}
102
{ACAD_REACTORS
330
159B1
102
}
330
159B1
100
AcDbPlotSettings
  1

  2
自動 EPSON LP-8400FX (TATENO 上)
  4

  6

 40
0.0
 41
0.0
 42
0.0
 43
0.0
 44
0.0
 45
0.0
 46
0.0
 47
0.0
 48
0.0
 49
0.0
140
0.0
141
0.0
142
1.0
143
1.0
 70
   688
 72
     0
 73
     0
 74
     5
  7
inaba.ctb
 75
    16
147
1.0
148
0.0
149
0.0
100
AcDbLayout
  1
レイアウト1
 70
     0
 71
     1
 10
0.0
 20
0.0
 11
420.0
 21
297.0
 12
0.0
 22
0.0
 32
0.0
 14
1.000000000000000E+20
 24
1.000000000000000E+20
 34
1.000000000000000E+20
 15
-1.000000000000000E+20
 25
-1.000000000000000E+20
 35
-1.000000000000000E+20
146
0.0
 13
0.0
 23
0.0
 33
0.0
 16
1.0
 26
0.0
 36
0.0
 17
0.0
 27
1.0
 37
0.0
 76
     0
330
747A
  0
MLINESTYLE
  5
7480
102
{ACAD_REACTORS
330
7473
102
}
330
7473
100
AcDbMlineStyle
  2
STANDARD
 70
     0
  3

 62
     0
 51
90.0
 52
90.0
 71
     2
 49
0.5
 62
   256
  6
BYLAYER
 49
-0.5
 62
   256
  6
BYLAYER
  0
ACDBPLACEHOLDER
  5
159AE
102
{ACAD_REACTORS
330
159AD
102
}
330
159AD
  0
XRECORD
  5
2233F
102
{ACAD_REACTORS
330
2233D
102
}
330
2233D
100
AcDbXrecord
280
     1
340
159B0
  0
XRECORD
  5
2233E
102
{ACAD_REACTORS
330
2233D
102
}
330
2233D
100
AcDbXrecord
280
     1
340
159AF
  0
DICTIONARYVAR
  5
20D5A
102
{ACAD_REACTORS
330
20D59
102
}
330
20D59
100
DictionaryVariables
280
     0
  1
1
  0
DICTIONARYVAR
  5
20D5B
102
{ACAD_REACTORS
330
20D59
102
}
330
20D59
100
DictionaryVariables
280
     0
  1

  0
DICTIONARY
  5
22340
330
159B3
100
AcDbDictionary
280
     1
281
     1
  3
ACAD_XREC_ROUNDTRIP
360
22341
  0
DICTIONARY
  5
22342
330
159B4
100
AcDbDictionary
280
     1
281
     1
  3
ACAD_XREC_ROUNDTRIP
360
22343
  0
XRECORD
  5
22341
102
{ACAD_REACTORS
330
22340
102
}
330
22340
100
AcDbXrecord
280
     1
102
SHADEPLOT
 70
     1
102
SHADEPLOTRESLEVEL
 70
     2
102
SHADEPLOTCUSTOMDPI
 70
   300
  0
XRECORD
  5
22343
102
{ACAD_REACTORS
330
22342
102
}
330
22342
100
AcDbXrecord
280
     1
102
SHADEPLOT
 70
     0
102
SHADEPLOTRESLEVEL
 70
     2
102
SHADEPLOTCUSTOMDPI
 70
   300
  0
ENDSEC
  0
EOF
