  0
SECTION
  2
HEADER
  9
$ACADVER
  1
AC1015
  9
$ACADMAINTVER
 70
    20
  9
$DWGCODEPAGE
  3
ANSI_932
  9
$INSBASE
 10
0.0
 20
0.0
 30
0.0
  9
$EXTMIN
 10
139.9999999999995
 20
-0.0000000000000909
 30
0.0
  9
$EXTMAX
 10
16307.2
 20
11409.6
 30
0.0
  9
$LIMMIN
 10
0.0
 20
0.0
  9
$LIMMAX
 10
16800.0
 20
11880.0
  9
$ORTHOMODE
 70
     0
  9
$REGENMODE
 70
     1
  9
$FILLMODE
 70
     1
  9
$QTEXTMODE
 70
     0
  9
$MIRRTEXT
 70
     1
  9
$LTSCALE
 40
20.0
  9
$ATTMODE
 70
     1
  9
$TEXTSIZE
 40
100.0
  9
$TRACEWID
 40
1.0
  9
$TEXTSTYLE
  7
STYLE2
  9
$CLAYER
  8
部品1
  9
$CELTYPE
  6
BYLAYER
  9
$CECOLOR
 62
   256
  9
$CELTSCALE
 40
50.0
  9
$DISPSILH
 70
     0
  9
$DIMSCALE
 40
40.0
  9
$DIMASZ
 40
2.5
  9
$DIMEXO
 40
0.5
  9
$DIMDLI
 40
7.0
  9
$DIMRND
 40
0.0
  9
$DIMDLE
 40
0.0
  9
$DIMEXE
 40
1.5
  9
$DIMTP
 40
0.0
  9
$DIMTM
 40
0.0
  9
$DIMTXT
 40
3.0
  9
$DIMCEN
 40
0.0
  9
$DIMTSZ
 40
0.0
  9
$DIMTOL
 70
     0
  9
$DIMLIM
 70
     0
  9
$DIMTIH
 70
     0
  9
$DIMTOH
 70
     0
  9
$DIMSE1
 70
     0
  9
$DIMSE2
 70
     0
  9
$DIMTAD
 70
     3
  9
$DIMZIN
 70
     8
  9
$DIMBLK
  1

  9
$DIMASO
 70
     1
  9
$DIMSHO
 70
     1
  9
$DIMPOST
  1

  9
$DIMAPOST
  1

  9
$DIMALT
 70
     0
  9
$DIMALTD
 70
     2
  9
$DIMALTF
 40
0.0394
  9
$DIMLFAC
 40
1.0
  9
$DIMTOFL
 70
     1
  9
$DIMTVP
 40
0.0
  9
$DIMTIX
 70
     0
  9
$DIMSOXD
 70
     0
  9
$DIMSAH
 70
     1
  9
$DIMBLK1
  1
DOTSMALL
  9
$DIMBLK2
  1
DOTSMALL
  9
$DIMSTYLE
  2
INABA_S40G
  9
$DIMCLRD
 70
     0
  9
$DIMCLRE
 70
     0
  9
$DIMCLRT
 70
     7
  9
$DIMTFAC
 40
1.0
  9
$DIMGAP
 40
1.0
  9
$DIMJUST
 70
     0
  9
$DIMSD1
 70
     0
  9
$DIMSD2
 70
     0
  9
$DIMTOLJ
 70
     1
  9
$DIMTZIN
 70
     0
  9
$DIMALTZ
 70
     0
  9
$DIMALTTZ
 70
     0
  9
$DIMUPT
 70
     0
  9
$DIMDEC
 70
     1
  9
$DIMTDEC
 70
     1
  9
$DIMALTU
 70
     2
  9
$DIMALTTD
 70
     2
  9
$DIMTXSTY
  7
STYLE1
  9
$DIMAUNIT
 70
     0
  9
$DIMADEC
 70
     0
  9
$DIMALTRND
 40
0.0
  9
$DIMAZIN
 70
     0
  9
$DIMDSEP
 70
    46
  9
$DIMATFIT
 70
     3
  9
$DIMFRAC
 70
     0
  9
$DIMLDRBLK
  1

  9
$DIMLUNIT
 70
     2
  9
$DIMLWD
 70
    -2
  9
$DIMLWE
 70
    -2
  9
$DIMTMOVE
 70
     1
  9
$LUNITS
 70
     2
  9
$LUPREC
 70
     1
  9
$SKETCHINC
 40
1.0
  9
$FILLETRAD
 40
2.299999999999999
  9
$AUNITS
 70
     0
  9
$AUPREC
 70
     0
  9
$MENU
  1
acad
  9
$ELEVATION
 40
0.0
  9
$PELEVATION
 40
0.0
  9
$THICKNESS
 40
0.0
  9
$LIMCHECK
 70
     0
  9
$CHAMFERA
 40
3.0
  9
$CHAMFERB
 40
3.0
  9
$CHAMFERC
 40
0.0
  9
$CHAMFERD
 40
0.0
  9
$SKPOLY
 70
     0
  9
$TDCREATE
 40
2451368.612993866
  9
$TDUCREATE
 40
2451368.237993866
  9
$TDUPDATE
 40
2455817.627919016
  9
$TDUUPDATE
 40
2455817.252919016
  9
$TDINDWG
 40
1.6743240625
  9
$TDUSRTIMER
 40
1.6743240625
  9
$USRTIMER
 70
     1
  9
$ANGBASE
 50
0.0
  9
$ANGDIR
 70
     0
  9
$PDMODE
 70
     3
  9
$PDSIZE
 40
2.0
  9
$PLINEWID
 40
0.0
  9
$SPLFRAME
 70
     0
  9
$SPLINETYPE
 70
     6
  9
$SPLINESEGS
 70
     8
  9
$HANDSEED
  5
2193A
  9
$SURFTAB1
 70
     6
  9
$SURFTAB2
 70
     6
  9
$SURFTYPE
 70
     6
  9
$SURFU
 70
     6
  9
$SURFV
 70
     6
  9
$UCSBASE
  2

  9
$UCSNAME
  2

  9
$UCSORG
 10
0.0
 20
0.0
 30
0.0
  9
$UCSXDIR
 10
1.0
 20
0.0
 30
0.0
  9
$UCSYDIR
 10
0.0
 20
1.0
 30
0.0
  9
$UCSORTHOREF
  2

  9
$UCSORTHOVIEW
 70
     0
  9
$UCSORGTOP
 10
0.0
 20
0.0
 30
0.0
  9
$UCSORGBOTTOM
 10
0.0
 20
0.0
 30
0.0
  9
$UCSORGLEFT
 10
0.0
 20
0.0
 30
0.0
  9
$UCSORGRIGHT
 10
0.0
 20
0.0
 30
0.0
  9
$UCSORGFRONT
 10
0.0
 20
0.0
 30
0.0
  9
$UCSORGBACK
 10
0.0
 20
0.0
 30
0.0
  9
$PUCSBASE
  2

  9
$PUCSNAME
  2

  9
$PUCSORG
 10
0.0
 20
0.0
 30
0.0
  9
$PUCSXDIR
 10
1.0
 20
0.0
 30
0.0
  9
$PUCSYDIR
 10
0.0
 20
1.0
 30
0.0
  9
$PUCSORTHOREF
  2

  9
$PUCSORTHOVIEW
 70
     0
  9
$PUCSORGTOP
 10
0.0
 20
0.0
 30
0.0
  9
$PUCSORGBOTTOM
 10
0.0
 20
0.0
 30
0.0
  9
$PUCSORGLEFT
 10
0.0
 20
0.0
 30
0.0
  9
$PUCSORGRIGHT
 10
0.0
 20
0.0
 30
0.0
  9
$PUCSORGFRONT
 10
0.0
 20
0.0
 30
0.0
  9
$PUCSORGBACK
 10
0.0
 20
0.0
 30
0.0
  9
$USERI1
 70
     0
  9
$USERI2
 70
     0
  9
$USERI3
 70
     0
  9
$USERI4
 70
     0
  9
$USERI5
 70
     0
  9
$USERR1
 40
0.0
  9
$USERR2
 40
0.0
  9
$USERR3
 40
0.0
  9
$USERR4
 40
0.0
  9
$USERR5
 40
0.0
  9
$WORLDVIEW
 70
     1
  9
$SHADEDGE
 70
     3
  9
$SHADEDIF
 70
    70
  9
$TILEMODE
 70
     1
  9
$MAXACTVP
 70
    16
  9
$PINSBASE
 10
0.0
 20
0.0
 30
0.0
  9
$PLIMCHECK
 70
     0
  9
$PEXTMIN
 10
1.000000000000000E+20
 20
1.000000000000000E+20
 30
1.000000000000000E+20
  9
$PEXTMAX
 10
-1.000000000000000E+20
 20
-1.000000000000000E+20
 30
-1.000000000000000E+20
  9
$PLIMMIN
 10
0.0
 20
0.0
  9
$PLIMMAX
 10
420.0
 20
297.0
  9
$UNITMODE
 70
     0
  9
$VISRETAIN
 70
     0
  9
$PLINEGEN
 70
     0
  9
$PSLTSCALE
 70
     0
  9
$TREEDEPTH
 70
  3020
  9
$CMLSTYLE
  2
STANDARD
  9
$CMLJUST
 70
     0
  9
$CMLSCALE
 40
1.0
  9
$PROXYGRAPHICS
 70
     1
  9
$MEASUREMENT
 70
     1
  9
$CELWEIGHT
370
    -1
  9
$ENDCAPS
280
     0
  9
$JOINSTYLE
280
     0
  9
$LWDISPLAY
290
     0
  9
$INSUNITS
 70
     0
  9
$HYPERLINKBASE
  1

  9
$STYLESHEET
  1
inaba.ctb
  9
$XEDIT
290
     1
  9
$CEPSNTYPE
380
     0
  9
$PSTYLEMODE
290
     1
  9
$FINGERPRINTGUID
  2
{3B57B35E-7D77-4BBF-81B7-6C583B9EB24C}
  9
$VERSIONGUID
  2
{B21869CF-F704-4607-A0EF-4C16E54AD0E7}
  9
$EXTNAMES
290
     1
  9
$PSVPSCALE
 40
0.0
  9
$OLESTARTUP
290
     0
  0
ENDSEC
  0
SECTION
  2
CLASSES
  0
CLASS
  1
ACDBDICTIONARYWDFLT
  2
AcDbDictionaryWithDefault
  3
ObjectDBX Classes
 90
        0
280
     0
281
     0
  0
CLASS
  1
DICTIONARYVAR
  2
AcDbDictionaryVar
  3
ObjectDBX Classes
 90
        0
280
     0
281
     0
  0
CLASS
  1
ACDBPLACEHOLDER
  2
AcDbPlaceHolder
  3
ObjectDBX Classes
 90
        0
280
     0
281
     0
  0
CLASS
  1
LAYOUT
  2
AcDbLayout
  3
ObjectDBX Classes
 90
        0
280
     0
281
     0
  0
ENDSEC
  0
SECTION
  2
TABLES
  0
TABLE
  2
VPORT
  5
746D
330
0
100
AcDbSymbolTable
 70
     2
  0
VPORT
  5
21932
330
746D
100
AcDbSymbolTableRecord
100
AcDbViewportTableRecord
  2
*Active
 70
     0
 10
0.0
 20
0.0
 11
1.0
 21
1.0
 12
8528.938173952349
 22
5704.860667288854
 13
0.0
 23
0.0
 14
10.0
 24
10.0
 15
10.0
 25
10.0
 16
0.0
 26
0.0
 36
1.0
 17
0.0
 27
0.0
 37
0.0
 40
11496.78960316622
 41
1.58160621761658
 42
50.0
 43
0.0
 44
0.0
 50
0.0
 51
0.0
 71
     0
 72
     0
 73
     1
 74
     0
 75
     0
 76
     0
 77
     0
 78
     0
281
     0
 65
     1
110
0.0
120
0.0
130
0.0
111
1.0
121
0.0
131
0.0
112
0.0
122
1.0
132
0.0
 79
     0
146
0.0
  0
ENDTAB
  0
TABLE
  2
LTYPE
  5
746A
330
0
100
AcDbSymbolTable
 70
     4
  0
LTYPE
  5
7477
330
746A
100
AcDbSymbolTableRecord
100
AcDbLinetypeTableRecord
  2
BYBLOCK
 70
     0
  3

 72
    65
 73
     0
 40
0.0
  0
LTYPE
  5
7478
330
746A
100
AcDbSymbolTableRecord
100
AcDbLinetypeTableRecord
  2
BYLAYER
 70
     0
  3

 72
    65
 73
     0
 40
0.0
  0
LTYPE
  5
7479
330
746A
100
AcDbSymbolTableRecord
100
AcDbLinetypeTableRecord
  2
CONTINUOUS
 70
     0
  3
Solid line
 72
    65
 73
     0
 40
0.0
  0
LTYPE
  5
7816
330
746A
100
AcDbSymbolTableRecord
100
AcDbLinetypeTableRecord
  2
CENTER
 70
     0
  3
____ _ ____ _ ____ _ ____ _ ____ _ ____ _ ____ 
 72
    65
 73
     4
 40
2.0
 49
1.25
 74
     0
 49
-0.25
 74
     0
 49
0.25
 74
     0
 49
-0.25
 74
     0
  0
LTYPE
  5
781A
330
746A
100
AcDbSymbolTableRecord
100
AcDbLinetypeTableRecord
  2
HIDDEN
 70
     0
  3
__ __ __ __ __ __ __ __ __ __ __ __ __ __ __ __
 72
    65
 73
     2
 40
0.375
 49
0.25
 74
     0
 49
-0.125
 74
     0
  0
LTYPE
  5
781B
330
746A
100
AcDbSymbolTableRecord
100
AcDbLinetypeTableRecord
  2
PHANTOM
 70
     0
  3
______  __  __  ______  __  __  ______  __  __ 
 72
    65
 73
     6
 40
2.5
 49
1.25
 74
     0
 49
-0.25
 74
     0
 49
0.25
 74
     0
 49
-0.25
 74
     0
 49
0.25
 74
     0
 49
-0.25
 74
     0
  0
ENDTAB
  0
TABLE
  2
LAYER
  5
7467
102
{ACAD_XDICTIONARY
360
2119F
102
}
330
0
100
AcDbSymbolTable
 70
    12
  0
LAYER
  5
7474
330
7467
100
AcDbSymbolTableRecord
100
AcDbLayerTableRecord
  2
0
 70
     0
 62
     7
  6
CONTINUOUS
370
    -3
390
159AE
  0
LAYER
  5
DEB2
330
7467
100
AcDbSymbolTableRecord
100
AcDbLayerTableRecord
  2
センター
 70
     0
 62
     3
  6
CENTER
370
    -3
390
159AE
  0
LAYER
  5
DEB3
330
7467
100
AcDbSymbolTableRecord
100
AcDbLayerTableRecord
  2
寸法
 70
     0
 62
     4
  6
CONTINUOUS
370
    -3
390
159AE
  0
LAYER
  5
DEB4
330
7467
100
AcDbSymbolTableRecord
100
AcDbLayerTableRecord
  2
部品1
 70
     0
 62
     7
  6
CONTINUOUS
370
    -3
390
159AE
  0
LAYER
  5
DEB5
330
7467
100
AcDbSymbolTableRecord
100
AcDbLayerTableRecord
  2
補助
 70
     0
 62
    -1
  6
CONTINUOUS
370
    -3
390
159AE
  0
LAYER
  5
DEB6
330
7467
100
AcDbSymbolTableRecord
100
AcDbLayerTableRecord
  2
文字
 70
     0
 62
     7
  6
CONTINUOUS
370
    -3
390
159AE
  0
LAYER
  5
F255
330
7467
100
AcDbSymbolTableRecord
100
AcDbLayerTableRecord
  2
DEFPOINTS
 70
     0
 62
     7
  6
CONTINUOUS
290
     0
370
    -3
390
159AE
  0
LAYER
  5
10B54
330
7467
100
AcDbSymbolTableRecord
100
AcDbLayerTableRecord
  2
仕様書枠
 70
     0
 62
   230
  6
CONTINUOUS
370
    -3
390
159AE
  0
LAYER
  5
11729
330
7467
100
AcDbSymbolTableRecord
100
AcDbLayerTableRecord
  2
Ｇ．Ｌ
 70
     0
 62
    30
  6
CONTINUOUS
370
    -3
390
159AE
  0
LAYER
  5
1173F
330
7467
100
AcDbSymbolTableRecord
100
AcDbLayerTableRecord
  2
細線
 70
     0
 62
     5
  6
CONTINUOUS
370
    -3
390
159AE
  0
LAYER
  5
12CC4
330
7467
100
AcDbSymbolTableRecord
100
AcDbLayerTableRecord
  2
想像線
 70
     0
 62
     6
  6
PHANTOM
370
    -3
390
159AE
  0
LAYER
  5
142E2
330
7467
100
AcDbSymbolTableRecord
100
AcDbLayerTableRecord
  2
破線
 70
     0
 62
     2
  6
HIDDEN
370
    -3
390
159AE
  0
ENDTAB
  0
TABLE
  2
STYLE
  5
7468
330
0
100
AcDbSymbolTable
 70
     4
  0
STYLE
  5
7475
330
7468
100
AcDbSymbolTableRecord
100
AcDbTextStyleTableRecord
  2
STANDARD
 70
     0
 40
0.0
 41
1.0
 50
0.0
 71
     0
 42
4.0
  3
txt
  4
C:\AutoCAD LT\bigfont.shx
  0
STYLE
  5
F706
330
7468
100
AcDbSymbolTableRecord
100
AcDbTextStyleTableRecord
  2
STYLE1
 70
     0
 40
0.0
 41
1.0
 50
0.0
 71
     0
 42
100.0
  3
isocp.shx
  4
bigfont.shx
  0
STYLE
  5
103BF
330
7468
100
AcDbSymbolTableRecord
100
AcDbTextStyleTableRecord
  2
STYLE2
 70
     0
 40
0.0
 41
1.0
 50
0.0
 71
     0
 42
100.0
  3
MS PGothic.ttf
  4

1001
ACAD
1000
MS PGothic
1071
    32818
  0
STYLE
  5
2119C
330
7468
100
AcDbSymbolTableRecord
100
AcDbTextStyleTableRecord
  2
STYLE3
 70
     0
 40
0.0
 41
1.0
 50
0.0
 71
     0
 42
100.0
  3
DFPGothic-EB.ttf
  4

1001
ACAD
1000
DFPGothic-EB
1071
    32818
  0
ENDTAB
  0
TABLE
  2
VIEW
  5
746B
330
0
100
AcDbSymbolTable
 70
     0
  0
ENDTAB
  0
TABLE
  2
UCS
  5
746C
330
0
100
AcDbSymbolTable
 70
     0
  0
ENDTAB
  0
TABLE
  2
APPID
  5
746E
330
0
100
AcDbSymbolTable
 70
     6
  0
APPID
  5
7476
330
746E
100
AcDbSymbolTableRecord
100
AcDbRegAppTableRecord
  2
ACAD
 70
     0
  0
APPID
  5
DEA9
330
746E
100
AcDbSymbolTableRecord
100
AcDbRegAppTableRecord
  2
CONTENTBLOCKICON
 70
     0
  0
APPID
  5
DEAA
330
746E
100
AcDbSymbolTableRecord
100
AcDbRegAppTableRecord
  2
CONTENTBLOCKDESCRIPTION
 70
     0
  0
APPID
  5
E71D
330
746E
100
AcDbSymbolTableRecord
100
AcDbRegAppTableRecord
  2
CONTENTTABDATA
 70
     0
  0
APPID
  5
E71E
330
746E
100
AcDbSymbolTableRecord
100
AcDbRegAppTableRecord
  2
CONTENTCURRENTTAB
 70
     0
  0
APPID
  5
F3BA
330
746E
100
AcDbSymbolTableRecord
100
AcDbRegAppTableRecord
  2
DRAWINGVARIABLESXDATA
 70
     0
  0
ENDTAB
  0
TABLE
  2
DIMSTYLE
  5
746F
330
0
100
AcDbSymbolTable
 70
     4
100
AcDbDimStyleTable
 71
     1
340
F71F
  0
DIMSTYLE
105
F71F
102
{ACAD_REACTORS
330
1D93F
330
1D93E
330
1D926
330
1D925
330
1D920
330
1D91D
330
1D934
330
1D933
330
1D92D
330
1D92C
330
1D927
330
1D91C
330
1D91B
330
1D942
330
1D929
330
1E96D
330
1E98B
330
1F248
330
1F249
330
1FE4B
330
2034C
330
2034D
330
21725
330
2172B
330
21785
330
2179A
330
2179B
330
217A4
330
21876
102
}
330
746F
100
AcDbSymbolTableRecord
100
AcDbDimStyleTableRecord
  2
INABA_S40G
 70
     0
 40
40.0
 41
2.5
 42
0.5
 43
7.0
 44
1.5
 73
     0
 74
     0
 77
     3
 78
     8
140
3.0
141
0.0
143
0.0394
147
1.0
172
     1
173
     1
174
     1
178
     7
271
     1
288
     1
340
F706
341
F770
343
F770
344
F770
  0
DIMSTYLE
105
1C645
330
746F
100
AcDbSymbolTableRecord
100
AcDbDimStyleTableRecord
  2
INABA_S50G
 70
     0
 40
0.0
 41
125.0
 42
25.0
 43
7.0
 44
75.0
 73
     0
 74
     0
 77
     3
 78
     8
140
150.0
141
0.0
143
0.0394
147
25.0
172
     1
173
     1
174
     1
178
     7
271
     1
340
F706
341
F770
343
F770
344
F770
  0
DIMSTYLE
105
2119D
330
746F
100
AcDbSymbolTableRecord
100
AcDbDimStyleTableRecord
  2
INABA_S100G
 70
     0
 40
100.0
 41
2.5
 42
0.5
 43
7.0
 44
1.5
 73
     0
 74
     0
 77
     3
 78
     8
140
3.0
141
0.0
143
0.0394
147
1.0
172
     1
173
     1
174
     1
178
     7
271
     1
340
F706
341
F770
343
F770
344
F770
  0
DIMSTYLE
105
2119E
330
746F
100
AcDbSymbolTableRecord
100
AcDbDimStyleTableRecord
  2
INABA_S100Gsmall
 70
     0
 40
100.0
 41
1.5
 42
0.5
 43
7.0
 44
0.5
 73
     0
 74
     0
 77
     3
 78
     8
140
2.0
141
0.0
143
0.0394
147
0.5
172
     1
173
     1
174
     1
178
     7
271
     1
272
     1
279
     2
340
F706
343
F770
344
F770
  0
ENDTAB
  0
TABLE
  2
BLOCK_RECORD
  5
7466
330
0
100
AcDbSymbolTable
 70
    31
  0
BLOCK_RECORD
  5
747D
330
7466
100
AcDbSymbolTableRecord
100
AcDbBlockTableRecord
  2
*MODEL_SPACE
340
159B3
  0
BLOCK_RECORD
  5
747A
330
7466
100
AcDbSymbolTableRecord
100
AcDbBlockTableRecord
  2
*PAPER_SPACE
340
159B4
  0
BLOCK_RECORD
  5
F770
330
7466
100
AcDbSymbolTableRecord
100
AcDbBlockTableRecord
  2
_DOTSMALL
340
0
102
{BLKREFS
331
1F868
331
1F869
331
1F872
331
1F873
331
1FD55
331
1FD56
331
1FD5F
331
1FD60
331
1FD6A
331
1FD6B
331
1FD74
331
1FD75
331
1FD7D
331
1FD7E
331
1FD86
331
1FD87
331
1FD91
331
1FD92
331
1FD9B
331
1FD9C
331
1FDA5
331
1FDA6
331
1FDAF
331
1FDB0
331
1FDBD
331
1FDBE
331
1FDC6
331
1FDC7
331
1FE13
331
1FE14
331
1FE1B
331
1FE1C
331
1FF5F
331
1FF60
331
21175
331
21176
331
2117D
331
2117E
331
21837
331
21838
331
21840
331
21841
331
21849
331
2184A
331
21852
331
21853
331
2185B
331
2185C
331
21866
331
21867
331
21870
331
21871
331
218A8
331
218A9
331
218B1
331
218B2
331
218BB
331
218BC
102
}
  0
BLOCK_RECORD
  5
1C530
330
7466
100
AcDbSymbolTableRecord
100
AcDbBlockTableRecord
  2
_NONE
340
0
  0
BLOCK_RECORD
  5
1DA44
330
7466
100
AcDbSymbolTableRecord
100
AcDbBlockTableRecord
  2
*D2
340
0
  0
BLOCK_RECORD
  5
1DA51
330
7466
100
AcDbSymbolTableRecord
100
AcDbBlockTableRecord
  2
*D3
340
0
  0
BLOCK_RECORD
  5
1DA5E
330
7466
100
AcDbSymbolTableRecord
100
AcDbBlockTableRecord
  2
*D4
340
0
  0
BLOCK_RECORD
  5
1DA69
330
7466
100
AcDbSymbolTableRecord
100
AcDbBlockTableRecord
  2
*D5
340
0
  0
BLOCK_RECORD
  5
1DA74
330
7466
100
AcDbSymbolTableRecord
100
AcDbBlockTableRecord
  2
*D6
340
0
  0
BLOCK_RECORD
  5
1DA81
330
7466
100
AcDbSymbolTableRecord
100
AcDbBlockTableRecord
  2
*D7
340
0
  0
BLOCK_RECORD
  5
1DA8E
330
7466
100
AcDbSymbolTableRecord
100
AcDbBlockTableRecord
  2
*D8
340
0
  0
BLOCK_RECORD
  5
1DA9A
330
7466
100
AcDbSymbolTableRecord
100
AcDbBlockTableRecord
  2
*D9
340
0
  0
BLOCK_RECORD
  5
1DAA5
330
7466
100
AcDbSymbolTableRecord
100
AcDbBlockTableRecord
  2
*D10
340
0
  0
BLOCK_RECORD
  5
1DAB2
330
7466
100
AcDbSymbolTableRecord
100
AcDbBlockTableRecord
  2
*D11
340
0
  0
BLOCK_RECORD
  5
1DABE
330
7466
100
AcDbSymbolTableRecord
100
AcDbBlockTableRecord
  2
*D12
340
0
  0
BLOCK_RECORD
  5
1DACB
330
7466
100
AcDbSymbolTableRecord
100
AcDbBlockTableRecord
  2
*D13
340
0
  0
BLOCK_RECORD
  5
1DAD9
330
7466
100
AcDbSymbolTableRecord
100
AcDbBlockTableRecord
  2
*D14
340
0
  0
BLOCK_RECORD
  5
1DAE6
330
7466
100
AcDbSymbolTableRecord
100
AcDbBlockTableRecord
  2
*D15
340
0
  0
BLOCK_RECORD
  5
1DAF3
330
7466
100
AcDbSymbolTableRecord
100
AcDbBlockTableRecord
  2
*D16
340
0
  0
BLOCK_RECORD
  5
1E9D0
330
7466
100
AcDbSymbolTableRecord
100
AcDbBlockTableRecord
  2
*D17
340
0
  0
BLOCK_RECORD
  5
1EA32
330
7466
100
AcDbSymbolTableRecord
100
AcDbBlockTableRecord
  2
*D18
340
0
  0
BLOCK_RECORD
  5
1F24A
330
7466
100
AcDbSymbolTableRecord
100
AcDbBlockTableRecord
  2
*D19
340
0
  0
BLOCK_RECORD
  5
1F255
330
7466
100
AcDbSymbolTableRecord
100
AcDbBlockTableRecord
  2
*D20
340
0
  0
BLOCK_RECORD
  5
1FE4C
330
7466
100
AcDbSymbolTableRecord
100
AcDbBlockTableRecord
  2
*D21
340
0
  0
BLOCK_RECORD
  5
2034E
330
7466
100
AcDbSymbolTableRecord
100
AcDbBlockTableRecord
  2
*D22
340
0
  0
BLOCK_RECORD
  5
2035B
330
7466
100
AcDbSymbolTableRecord
100
AcDbBlockTableRecord
  2
*D23
340
0
  0
BLOCK_RECORD
  5
217B2
330
7466
100
AcDbSymbolTableRecord
100
AcDbBlockTableRecord
  2
*D24
340
0
  0
BLOCK_RECORD
  5
217C0
330
7466
100
AcDbSymbolTableRecord
100
AcDbBlockTableRecord
  2
*D25
340
0
  0
BLOCK_RECORD
  5
217CC
330
7466
100
AcDbSymbolTableRecord
100
AcDbBlockTableRecord
  2
*D26
340
0
  0
BLOCK_RECORD
  5
217D8
330
7466
100
AcDbSymbolTableRecord
100
AcDbBlockTableRecord
  2
*D27
340
0
  0
BLOCK_RECORD
  5
217E4
330
7466
100
AcDbSymbolTableRecord
100
AcDbBlockTableRecord
  2
*D28
340
0
  0
BLOCK_RECORD
  5
217F0
330
7466
100
AcDbSymbolTableRecord
100
AcDbBlockTableRecord
  2
*D29
340
0
  0
BLOCK_RECORD
  5
21877
330
7466
100
AcDbSymbolTableRecord
100
AcDbBlockTableRecord
  2
*D30
340
0
  0
ENDTAB
  0
ENDSEC
  0
SECTION
  2
BLOCKS
  0
BLOCK
  5
7489
330
747D
100
AcDbEntity
  8
0
100
AcDbBlockBegin
  2
*MODEL_SPACE
 70
     0
 10
0.0
 20
0.0
 30
0.0
  3
*MODEL_SPACE
  1

  0
ENDBLK
  5
748A
330
747D
100
AcDbEntity
  8
0
100
AcDbBlockEnd
  0
BLOCK
  5
7487
330
747A
100
AcDbEntity
 67
     1
  8
0
100
AcDbBlockBegin
  2
*PAPER_SPACE
 70
     0
 10
0.0
 20
0.0
 30
0.0
  3
*PAPER_SPACE
  1

  0
ENDBLK
  5
7488
330
747A
100
AcDbEntity
 67
     1
  8
0
100
AcDbBlockEnd
  0
BLOCK
  5
F771
330
F770
100
AcDbEntity
  8
0
 48
50.0
100
AcDbBlockBegin
  2
_DOTSMALL
 70
     0
 10
0.0
 20
0.0
 30
0.0
  3
_DOTSMALL
  1

  0
LWPOLYLINE
  5
F772
330
F770
100
AcDbEntity
  8
0
  6
ByBlock
 62
     0
 48
50.0
100
AcDbPolyline
 90
        2
 70
     1
 43
0.5
 10
-0.0625
 20
0.0
 42
1.0
 10
0.0625
 20
0.0
 42
1.0
  0
ENDBLK
  5
F776
330
F770
100
AcDbEntity
  8
0
 48
50.0
100
AcDbBlockEnd
  0
BLOCK
  5
1C531
330
1C530
100
AcDbEntity
  8
0
 48
50.0
100
AcDbBlockBegin
  2
_NONE
 70
     0
 10
0.0
 20
0.0
 30
0.0
  3
_NONE
  1

  0
CIRCLE
  5
1C532
330
1C530
100
AcDbEntity
  8
0
  6
ByBlock
 62
     0
 48
50.0
100
AcDbCircle
 10
0.0
 20
0.0
 30
0.0
 40
0.25
  0
ENDBLK
  5
1C533
330
1C530
100
AcDbEntity
  8
0
 48
50.0
100
AcDbBlockEnd
  0
BLOCK
  5
1DA4F
330
1DA44
100
AcDbEntity
  8
0
 48
50.0
100
AcDbBlockBegin
  2
*D2
 70
     1
 10
0.0
 20
0.0
 30
0.0
  3
*D2
  1

  0
LINE
  5
1FDAB
330
1DA44
100
AcDbEntity
  8
寸法
 62
     0
 48
50.0
370
    -2
100
AcDbLine
 10
6989.514259514152
 20
5892.919036112861
 30
0.0
 11
7246.22150939025
 21
5892.919036112861
 31
0.0
  0
LINE
  5
1FDAC
330
1DA44
100
AcDbEntity
  8
寸法
 62
     0
 48
50.0
370
    -2
100
AcDbLine
 10
6989.514259514152
 20
6022.919036112863
 30
0.0
 11
7246.22150939025
 21
6022.919036112863
 31
0.0
  0
LINE
  5
1FDAD
330
1DA44
100
AcDbEntity
  8
寸法
 62
     0
 48
50.0
370
    -2
100
AcDbLine
 10
7186.22150939025
 20
5892.919036112861
 30
0.0
 11
7186.22150939025
 21
6022.919036112863
 31
0.0
  0
LINE
  5
1FDAE
330
1DA44
100
AcDbEntity
  8
寸法
 62
     0
 48
50.0
370
    -2
100
AcDbLine
 10
7186.22150939025
 20
6022.919036112863
 30
0.0
 11
7186.221509390252
 21
6395.013524301839
 31
0.0
  0
INSERT
  5
1FDAF
330
1DA44
100
AcDbEntity
  8
寸法
 62
     0
 48
50.0
370
    -2
100
AcDbBlockReference
  2
_DOTSMALL
 10
7186.22150939025
 20
5892.919036112861
 30
0.0
 41
100.0
 42
100.0
 43
100.0
 50
270.0
  0
INSERT
  5
1FDB0
330
1DA44
100
AcDbEntity
  8
寸法
 62
     0
 48
50.0
370
    -2
100
AcDbBlockReference
  2
_DOTSMALL
 10
7186.22150939025
 20
6022.919036112863
 30
0.0
 41
100.0
 42
100.0
 43
100.0
 50
90.0
  0
MTEXT
  5
1FDB1
330
1DA44
100
AcDbEntity
  8
寸法
 62
     7
 48
50.0
100
AcDbMText
 10
7086.221509390249
 20
6258.966280207353
 30
0.0
 40
120.0
 41
0.0
 71
     5
 72
     1
  1
\A1;130
  7
STYLE1
 11
0.0000000000000001
 21
1.0
 31
0.0
 73
     1
 44
1.0
1001
ACAD
1000
MTEXTBEGIN
1070
    73
1070
     1
1070
    44
1040
1.0
1070
    74
1070
     0
1000
MTEXTEND
  0
POINT
  5
1FDB2
330
1DA44
100
AcDbEntity
  8
DEFPOINTS
 62
     0
 48
50.0
100
AcDbPoint
 10
6969.514259514152
 20
5892.919036112861
 30
0.0
  0
POINT
  5
1FDB3
330
1DA44
100
AcDbEntity
  8
DEFPOINTS
 62
     0
 48
50.0
100
AcDbPoint
 10
6969.514259514152
 20
6022.919036112863
 30
0.0
  0
POINT
  5
1FDB4
330
1DA44
100
AcDbEntity
  8
DEFPOINTS
 62
     0
 48
50.0
100
AcDbPoint
 10
7186.22150939025
 20
6022.919036112863
 30
0.0
  0
ENDBLK
  5
1DA50
330
1DA44
100
AcDbEntity
  8
0
 48
50.0
100
AcDbBlockEnd
  0
BLOCK
  5
1DA5C
330
1DA51
100
AcDbEntity
  8
0
 48
50.0
100
AcDbBlockBegin
  2
*D3
 70
     1
 10
0.0
 20
0.0
 30
0.0
  3
*D3
  1

  0
LINE
  5
1FDA1
330
1DA51
100
AcDbEntity
  8
寸法
 62
     0
 48
50.0
370
    -2
100
AcDbLine
 10
6989.514259514152
 20
5892.919036112863
 30
0.0
 11
7246.22150939025
 21
5892.919036112863
 31
0.0
  0
LINE
  5
1FDA2
330
1DA51
100
AcDbEntity
  8
寸法
 62
     0
 48
50.0
370
    -2
100
AcDbLine
 10
6989.514259514152
 20
5722.919036112862
 30
0.0
 11
7246.22150939025
 21
5722.919036112862
 31
0.0
  0
LINE
  5
1FDA3
330
1DA51
100
AcDbEntity
  8
寸法
 62
     0
 48
50.0
370
    -2
100
AcDbLine
 10
7186.22150939025
 20
5892.919036112863
 30
0.0
 11
7186.22150939025
 21
5722.919036112862
 31
0.0
  0
LINE
  5
1FDA4
330
1DA51
100
AcDbEntity
  8
寸法
 62
     0
 48
50.0
370
    -2
100
AcDbLine
 10
7186.22150939025
 20
5722.919036112862
 30
0.0
 11
7186.22150939025
 21
5350.824547923884
 31
0.0
  0
INSERT
  5
1FDA5
330
1DA51
100
AcDbEntity
  8
寸法
 62
     0
 48
50.0
370
    -2
100
AcDbBlockReference
  2
_DOTSMALL
 10
7186.22150939025
 20
5892.919036112863
 30
0.0
 41
100.0
 42
100.0
 43
100.0
 50
90.0
  0
INSERT
  5
1FDA6
330
1DA51
100
AcDbEntity
  8
寸法
 62
     0
 48
50.0
370
    -2
100
AcDbBlockReference
  2
_DOTSMALL
 10
7186.22150939025
 20
5722.919036112862
 30
0.0
 41
100.0
 42
100.0
 43
100.0
 50
270.0
  0
MTEXT
  5
1FDA7
330
1DA51
100
AcDbEntity
  8
寸法
 62
     7
 48
50.0
100
AcDbMText
 10
7086.221509390249
 20
5486.871792018373
 30
0.0
 40
120.0
 41
0.0
 71
     5
 72
     1
  1
\A1;170
  7
STYLE1
 11
0.0000000000000001
 21
1.0
 31
0.0
 73
     1
 44
1.0
1001
ACAD
1000
MTEXTBEGIN
1070
    73
1070
     1
1070
    44
1040
1.0
1070
    74
1070
     0
1000
MTEXTEND
  0
POINT
  5
1FDA8
330
1DA51
100
AcDbEntity
  8
DEFPOINTS
 62
     0
 48
50.0
100
AcDbPoint
 10
6969.514259514152
 20
5892.919036112863
 30
0.0
  0
POINT
  5
1FDA9
330
1DA51
100
AcDbEntity
  8
DEFPOINTS
 62
     0
 48
50.0
100
AcDbPoint
 10
6969.514259514152
 20
5722.919036112862
 30
0.0
  0
POINT
  5
1FDAA
330
1DA51
100
AcDbEntity
  8
DEFPOINTS
 62
     0
 48
50.0
100
AcDbPoint
 10
7186.22150939025
 20
5722.919036112862
 30
0.0
  0
ENDBLK
  5
1DA5D
330
1DA51
100
AcDbEntity
  8
0
 48
50.0
100
AcDbBlockEnd
  0
BLOCK
  5
1DA67
330
1DA5E
100
AcDbEntity
  8
0
 48
50.0
100
AcDbBlockBegin
  2
*D4
 70
     1
 10
0.0
 20
0.0
 30
0.0
  3
*D4
  1

  0
LINE
  5
1FDC3
330
1DA5E
100
AcDbEntity
  8
寸法
 62
     0
 48
50.0
370
    -2
100
AcDbLine
 10
8836.514259514151
 20
7469.91903611286
 30
0.0
 11
8836.514259514151
 21
8336.250847072712
 31
0.0
  0
LINE
  5
1FDC4
330
1DA5E
100
AcDbEntity
  8
寸法
 62
     0
 48
50.0
370
    -2
100
AcDbLine
 10
6862.514259514151
 20
7469.91903611286
 30
0.0
 11
6862.514259514151
 21
8336.250847072712
 31
0.0
  0
LINE
  5
1FDC5
330
1DA5E
100
AcDbEntity
  8
寸法
 62
     0
 48
50.0
370
    -2
100
AcDbLine
 10
8836.514259514151
 20
8276.250847072711
 30
0.0
 11
6862.514259514151
 21
8276.250847072711
 31
0.0
  0
INSERT
  5
1FDC6
330
1DA5E
100
AcDbEntity
  8
寸法
 62
     0
 48
50.0
370
    -2
100
AcDbBlockReference
  2
_DOTSMALL
 10
8836.514259514151
 20
8276.250847072711
 30
0.0
 41
100.0
 42
100.0
 43
100.0
  0
INSERT
  5
1FDC7
330
1DA5E
100
AcDbEntity
  8
寸法
 62
     0
 48
50.0
370
    -2
100
AcDbBlockReference
  2
_DOTSMALL
 10
6862.514259514151
 20
8276.250847072711
 30
0.0
 41
100.0
 42
100.0
 43
100.0
 50
180.0
  0
MTEXT
  5
1FDC8
330
1DA5E
100
AcDbEntity
  8
寸法
 62
     7
 48
50.0
100
AcDbMText
 10
7849.514259514151
 20
8376.250847072711
 30
0.0
 40
120.0
 41
0.0
 71
     5
 72
     1
  1
\A1;1974
  7
STYLE1
 73
     1
 44
1.0
1001
ACAD
1000
MTEXTBEGIN
1070
    73
1070
     1
1070
    44
1040
1.0
1070
    74
1070
     0
1000
MTEXTEND
  0
POINT
  5
1FDC9
330
1DA5E
100
AcDbEntity
  8
DEFPOINTS
 62
     0
 48
50.0
100
AcDbPoint
 10
8836.514259514151
 20
7449.919036112861
 30
0.0
  0
POINT
  5
1FDCA
330
1DA5E
100
AcDbEntity
  8
DEFPOINTS
 62
     0
 48
50.0
100
AcDbPoint
 10
6862.514259514151
 20
7449.919036112861
 30
0.0
  0
POINT
  5
1FDCB
330
1DA5E
100
AcDbEntity
  8
DEFPOINTS
 62
     0
 48
50.0
100
AcDbPoint
 10
6862.514259514151
 20
8276.250847072711
 30
0.0
  0
ENDBLK
  5
1DA68
330
1DA5E
100
AcDbEntity
  8
0
 48
50.0
100
AcDbBlockEnd
  0
BLOCK
  5
1DA72
330
1DA69
100
AcDbEntity
  8
0
 48
50.0
100
AcDbBlockBegin
  2
*D5
 70
     1
 10
0.0
 20
0.0
 30
0.0
  3
*D5
  1

  0
LINE
  5
1FDBA
330
1DA69
100
AcDbEntity
  8
寸法
 62
     0
 48
50.0
370
    -2
100
AcDbLine
 10
6739.514259514149
 20
7542.919036112859
 30
0.0
 11
6739.514259514149
 21
8548.711542589549
 31
0.0
  0
LINE
  5
1FDBB
330
1DA69
100
AcDbEntity
  8
寸法
 62
     0
 48
50.0
370
    -2
100
AcDbLine
 10
8959.514259514151
 20
7542.919036112862
 30
0.0
 11
8959.514259514151
 21
8548.711542589549
 31
0.0
  0
LINE
  5
1FDBC
330
1DA69
100
AcDbEntity
  8
寸法
 62
     0
 48
50.0
370
    -2
100
AcDbLine
 10
6739.514259514149
 20
8488.711542589548
 30
0.0
 11
8959.514259514151
 21
8488.711542589548
 31
0.0
  0
INSERT
  5
1FDBD
330
1DA69
100
AcDbEntity
  8
寸法
 62
     0
 48
50.0
370
    -2
100
AcDbBlockReference
  2
_DOTSMALL
 10
6739.514259514149
 20
8488.711542589548
 30
0.0
 41
100.0
 42
100.0
 43
100.0
 50
180.0
  0
INSERT
  5
1FDBE
330
1DA69
100
AcDbEntity
  8
寸法
 62
     0
 48
50.0
370
    -2
100
AcDbBlockReference
  2
_DOTSMALL
 10
8959.514259514151
 20
8488.711542589548
 30
0.0
 41
100.0
 42
100.0
 43
100.0
  0
MTEXT
  5
1FDBF
330
1DA69
100
AcDbEntity
  8
寸法
 62
     7
 48
50.0
100
AcDbMText
 10
7849.51425951415
 20
8588.72335361317
 30
0.0
 40
120.0
 41
0.0
 71
     5
 72
     1
  1
\A1;2220
  7
STYLE1
 73
     1
 44
1.0
1001
ACAD
1000
MTEXTBEGIN
1070
    73
1070
     1
1070
    44
1040
1.0
1070
    74
1070
     0
1000
MTEXTEND
  0
POINT
  5
1FDC0
330
1DA69
100
AcDbEntity
  8
DEFPOINTS
 62
     0
 48
50.0
100
AcDbPoint
 10
6739.514259514149
 20
7522.919036112859
 30
0.0
  0
POINT
  5
1FDC1
330
1DA69
100
AcDbEntity
  8
DEFPOINTS
 62
     0
 48
50.0
100
AcDbPoint
 10
8959.514259514151
 20
7522.919036112861
 30
0.0
  0
POINT
  5
1FDC2
330
1DA69
100
AcDbEntity
  8
DEFPOINTS
 62
     0
 48
50.0
100
AcDbPoint
 10
8959.514259514151
 20
8488.711542589548
 30
0.0
  0
ENDBLK
  5
1DA73
330
1DA69
100
AcDbEntity
  8
0
 48
50.0
100
AcDbBlockEnd
  0
BLOCK
  5
1DA7F
330
1DA74
100
AcDbEntity
  8
0
 48
50.0
100
AcDbBlockBegin
  2
*D6
 70
     1
 10
0.0
 20
0.0
 30
0.0
  3
*D6
  1

  0
LINE
  5
1FD97
330
1DA74
100
AcDbEntity
  8
寸法
 62
     0
 48
50.0
370
    -2
100
AcDbLine
 10
6862.514259514151
 20
7469.91903611286
 30
0.0
 11
6862.514259514151
 21
8336.250847072712
 31
0.0
  0
LINE
  5
1FD98
330
1DA74
100
AcDbEntity
  8
寸法
 62
     0
 48
50.0
370
    -2
100
AcDbLine
 10
6739.514259514149
 20
7542.919036112859
 30
0.0
 11
6739.514259514149
 21
8336.250847072712
 31
0.0
  0
LINE
  5
1FD99
330
1DA74
100
AcDbEntity
  8
寸法
 62
     0
 48
50.0
370
    -2
100
AcDbLine
 10
6862.514259514151
 20
8276.250847072711
 30
0.0
 11
6739.514259514149
 21
8276.250847072711
 31
0.0
  0
LINE
  5
1FD9A
330
1DA74
100
AcDbEntity
  8
寸法
 62
     0
 48
50.0
370
    -2
100
AcDbLine
 10
6739.514259514149
 20
8276.250847072711
 30
0.0
 11
6362.543696765673
 21
8276.250847072711
 31
0.0
  0
INSERT
  5
1FD9B
330
1DA74
100
AcDbEntity
  8
寸法
 62
     0
 48
50.0
370
    -2
100
AcDbBlockReference
  2
_DOTSMALL
 10
6862.514259514151
 20
8276.250847072711
 30
0.0
 41
100.0
 42
100.0
 43
100.0
  0
INSERT
  5
1FD9C
330
1DA74
100
AcDbEntity
  8
寸法
 62
     0
 48
50.0
370
    -2
100
AcDbBlockReference
  2
_DOTSMALL
 10
6739.514259514149
 20
8276.250847072711
 30
0.0
 41
100.0
 42
100.0
 43
100.0
 50
180.0
  0
MTEXT
  5
1FD9D
330
1DA74
100
AcDbEntity
  8
寸法
 62
     7
 48
50.0
100
AcDbMText
 10
6501.028978139911
 20
8376.262658096333
 30
0.0
 40
120.0
 41
0.0
 71
     5
 72
     1
  1
\A1;123
  7
STYLE1
 73
     1
 44
1.0
1001
ACAD
1000
MTEXTBEGIN
1070
    73
1070
     1
1070
    44
1040
1.0
1070
    74
1070
     0
1000
MTEXTEND
  0
POINT
  5
1FD9E
330
1DA74
100
AcDbEntity
  8
DEFPOINTS
 62
     0
 48
50.0
100
AcDbPoint
 10
6862.514259514151
 20
7449.919036112861
 30
0.0
  0
POINT
  5
1FD9F
330
1DA74
100
AcDbEntity
  8
DEFPOINTS
 62
     0
 48
50.0
100
AcDbPoint
 10
6739.514259514149
 20
7522.919036112859
 30
0.0
  0
POINT
  5
1FDA0
330
1DA74
100
AcDbEntity
  8
DEFPOINTS
 62
     0
 48
50.0
100
AcDbPoint
 10
6739.514259514149
 20
8276.250847072711
 30
0.0
  0
ENDBLK
  5
1DA80
330
1DA74
100
AcDbEntity
  8
0
 48
50.0
100
AcDbBlockEnd
  0
BLOCK
  5
1DA8C
330
1DA81
100
AcDbEntity
  8
0
 48
50.0
100
AcDbBlockBegin
  2
*D7
 70
     1
 10
0.0
 20
0.0
 30
0.0
  3
*D7
  1

  0
LINE
  5
1FD8C
330
1DA81
100
AcDbEntity
  8
寸法
 62
     0
 48
50.0
370
    -2
100
AcDbLine
 10
6694.514259514147
 20
8296.250847072711
 30
0.0
 11
6694.514259514147
 21
8548.711542589549
 31
0.0
  0
LINE
  5
1FD8D
330
1DA81
100
AcDbEntity
  8
寸法
 62
     0
 48
50.0
370
    -2
100
AcDbLine
 10
6739.514259514152
 20
7691.190236682782
 30
0.0
 11
6739.514259514152
 21
8548.711542589549
 31
0.0
  0
LINE
  5
1FD8E
330
1DA81
100
AcDbEntity
  8
寸法
 62
     0
 48
50.0
370
    -2
100
AcDbLine
 10
6694.514259514147
 20
8488.71154258955
 30
0.0
 11
6594.514259514148
 21
8488.71154258955
 31
0.0
  0
LINE
  5
1FD8F
330
1DA81
100
AcDbEntity
  8
寸法
 62
     0
 48
50.0
370
    -2
100
AcDbLine
 10
6739.514259514152
 20
8488.71154258955
 30
0.0
 11
6839.514259514152
 21
8488.71154258955
 31
0.0
  0
LINE
  5
1FD90
330
1DA81
100
AcDbEntity
  8
寸法
 62
     0
 48
50.0
370
    -2
100
AcDbLine
 10
6694.514259514147
 20
8488.71154258955
 30
0.0
 11
6739.514259514152
 21
8488.71154258955
 31
0.0
  0
INSERT
  5
1FD91
330
1DA81
100
AcDbEntity
  8
寸法
 62
     0
 48
50.0
370
    -2
100
AcDbBlockReference
  2
_DOTSMALL
 10
6694.514259514147
 20
8488.71154258955
 30
0.0
 41
100.0
 42
100.0
 43
100.0
  0
INSERT
  5
1FD92
330
1DA81
100
AcDbEntity
  8
寸法
 62
     0
 48
50.0
370
    -2
100
AcDbBlockReference
  2
_DOTSMALL
 10
6739.514259514152
 20
8488.71154258955
 30
0.0
 41
100.0
 42
100.0
 43
100.0
 50
180.0
  0
MTEXT
  5
1FD93
330
1DA81
100
AcDbEntity
  8
寸法
 62
     7
 48
50.0
100
AcDbMText
 10
6717.01425951415
 20
8588.71154258955
 30
0.0
 40
120.0
 41
0.0
 71
     5
 72
     1
  1
\A1;a
  7
STYLE1
 73
     1
 44
1.0
1001
ACAD
1000
MTEXTBEGIN
1070
    73
1070
     1
1070
    44
1040
1.0
1070
    74
1070
     0
1000
MTEXTEND
  0
POINT
  5
1FD94
330
1DA81
100
AcDbEntity
  8
DEFPOINTS
 62
     0
 48
50.0
100
AcDbPoint
 10
6694.514259514147
 20
8276.250847072711
 30
0.0
  0
POINT
  5
1FD95
330
1DA81
100
AcDbEntity
  8
DEFPOINTS
 62
     0
 48
50.0
100
AcDbPoint
 10
6739.514259514152
 20
7671.190236682781
 30
0.0
  0
POINT
  5
1FD96
330
1DA81
100
AcDbEntity
  8
DEFPOINTS
 62
     0
 48
50.0
100
AcDbPoint
 10
6739.514259514152
 20
8488.71154258955
 30
0.0
  0
ENDBLK
  5
1DA8D
330
1DA81
100
AcDbEntity
  8
0
 48
50.0
100
AcDbBlockEnd
  0
BLOCK
  5
1DA98
330
1DA8E
100
AcDbEntity
  8
0
 48
50.0
100
AcDbBlockBegin
  2
*D8
 70
     1
 10
0.0
 20
0.0
 30
0.0
  3
*D8
  1

  0
LINE
  5
1FD83
330
1DA8E
100
AcDbEntity
  8
寸法
 62
     0
 48
50.0
370
    -2
100
AcDbLine
 10
6792.514259514152
 20
7399.919036112861
 30
0.0
 11
6183.571993500332
 21
7399.919036112861
 31
0.0
  0
LINE
  5
1FD84
330
1DA8E
100
AcDbEntity
  8
寸法
 62
     0
 48
50.0
370
    -2
100
AcDbLine
 10
6792.51425951416
 20
5920.919036112861
 30
0.0
 11
6183.571993500331
 21
5920.919036112861
 31
0.0
  0
LINE
  5
1FD85
330
1DA8E
100
AcDbEntity
  8
寸法
 62
     0
 48
50.0
370
    -2
100
AcDbLine
 10
6243.571993500331
 20
7399.919036112861
 30
0.0
 11
6243.571993500331
 21
5920.919036112861
 31
0.0
  0
INSERT
  5
1FD86
330
1DA8E
100
AcDbEntity
  8
寸法
 62
     0
 48
50.0
370
    -2
100
AcDbBlockReference
  2
_DOTSMALL
 10
6243.571993500331
 20
7399.919036112861
 30
0.0
 41
100.0
 42
100.0
 43
100.0
 50
90.0
  0
INSERT
  5
1FD87
330
1DA8E
100
AcDbEntity
  8
寸法
 62
     0
 48
50.0
370
    -2
100
AcDbBlockReference
  2
_DOTSMALL
 10
6243.571993500331
 20
5920.919036112861
 30
0.0
 41
100.0
 42
100.0
 43
100.0
 50
270.0
  0
MTEXT
  5
1FD88
330
1DA8E
100
AcDbEntity
  8
寸法
 62
     7
 48
50.0
100
AcDbMText
 10
6143.57199350033
 20
6634.05280691343
 30
0.0
 40
120.0
 41
0.0
 71
     5
 72
     1
  1
\A1;1479
  7
STYLE1
 11
0.0000000000000001
 21
1.0
 31
0.0
 73
     1
 44
1.0
1001
ACAD
1000
MTEXTBEGIN
1070
    73
1070
     1
1070
    44
1040
1.0
1070
    74
1070
     0
1000
MTEXTEND
  0
POINT
  5
1FD89
330
1DA8E
100
AcDbEntity
  8
DEFPOINTS
 62
     0
 48
50.0
100
AcDbPoint
 10
6812.514259514151
 20
7399.919036112861
 30
0.0
  0
POINT
  5
1FD8A
330
1DA8E
100
AcDbEntity
  8
DEFPOINTS
 62
     0
 48
50.0
100
AcDbPoint
 10
6812.514259514159
 20
5920.919036112861
 30
0.0
  0
POINT
  5
1FD8B
330
1DA8E
100
AcDbEntity
  8
DEFPOINTS
 62
     0
 48
50.0
100
AcDbPoint
 10
6243.571993500331
 20
5920.919036112861
 30
0.0
  0
ENDBLK
  5
1DA99
330
1DA8E
100
AcDbEntity
  8
0
 48
50.0
100
AcDbBlockEnd
  0
BLOCK
  5
1DAA3
330
1DA9A
100
AcDbEntity
  8
0
 48
50.0
100
AcDbBlockBegin
  2
*D9
 70
     1
 10
0.0
 20
0.0
 30
0.0
  3
*D9
  1

  0
LINE
  5
1FD7A
330
1DA9A
100
AcDbEntity
  8
寸法
 62
     0
 48
50.0
370
    -2
100
AcDbLine
 10
6719.51425951415
 20
7522.919036112863
 30
0.0
 11
5938.079191362366
 21
7522.919036112863
 31
0.0
  0
LINE
  5
1FD7B
330
1DA9A
100
AcDbEntity
  8
寸法
 62
     0
 48
50.0
370
    -2
100
AcDbLine
 10
6719.514259514152
 20
5722.919036112859
 30
0.0
 11
5938.079191362365
 21
5722.91903611286
 31
0.0
  0
LINE
  5
1FD7C
330
1DA9A
100
AcDbEntity
  8
寸法
 62
     0
 48
50.0
370
    -2
100
AcDbLine
 10
5998.079191362365
 20
7522.919036112863
 30
0.0
 11
5998.079191362364
 21
5722.91903611286
 31
0.0
  0
INSERT
  5
1FD7D
330
1DA9A
100
AcDbEntity
  8
寸法
 62
     0
 48
50.0
370
    -2
100
AcDbBlockReference
  2
_DOTSMALL
 10
5998.079191362365
 20
7522.919036112863
 30
0.0
 41
100.0
 42
100.0
 43
100.0
 50
90.0
  0
INSERT
  5
1FD7E
330
1DA9A
100
AcDbEntity
  8
寸法
 62
     0
 48
50.0
370
    -2
100
AcDbBlockReference
  2
_DOTSMALL
 10
5998.079191362364
 20
5722.91903611286
 30
0.0
 41
100.0
 42
100.0
 43
100.0
 50
270.0
  0
MTEXT
  5
1FD7F
330
1DA9A
100
AcDbEntity
  8
寸法
 62
     7
 48
50.0
100
AcDbMText
 10
5898.079191362363
 20
6651.31453344319
 30
0.0
 40
120.0
 41
0.0
 71
     5
 72
     1
  1
\A1;1800
  7
STYLE1
 11
0.0000000000000001
 21
1.0
 31
0.0
 73
     1
 44
1.0
1001
ACAD
1000
MTEXTBEGIN
1070
    73
1070
     1
1070
    44
1040
1.0
1070
    74
1070
     0
1000
MTEXTEND
  0
POINT
  5
1FD80
330
1DA9A
100
AcDbEntity
  8
DEFPOINTS
 62
     0
 48
50.0
100
AcDbPoint
 10
6739.514259514149
 20
7522.919036112863
 30
0.0
  0
POINT
  5
1FD81
330
1DA9A
100
AcDbEntity
  8
DEFPOINTS
 62
     0
 48
50.0
100
AcDbPoint
 10
6739.514259514152
 20
5722.919036112859
 30
0.0
  0
POINT
  5
1FD82
330
1DA9A
100
AcDbEntity
  8
DEFPOINTS
 62
     0
 48
50.0
100
AcDbPoint
 10
5998.079191362364
 20
5722.91903611286
 30
0.0
  0
ENDBLK
  5
1DAA4
330
1DA9A
100
AcDbEntity
  8
0
 48
50.0
100
AcDbBlockEnd
  0
BLOCK
  5
1DAB0
330
1DAA5
100
AcDbEntity
  8
0
 48
50.0
100
AcDbBlockBegin
  2
*D10
 70
     1
 10
0.0
 20
0.0
 30
0.0
  3
*D10
  1

  0
LINE
  5
1FD70
330
1DAA5
100
AcDbEntity
  8
寸法
 62
     0
 48
50.0
370
    -2
100
AcDbLine
 10
6792.51425951416
 20
5920.919036112861
 30
0.0
 11
6183.571993500331
 21
5920.919036112861
 31
0.0
  0
LINE
  5
1FD71
330
1DAA5
100
AcDbEntity
  8
寸法
 62
     0
 48
50.0
370
    -2
100
AcDbLine
 10
6719.514259514152
 20
5722.919036112859
 30
0.0
 11
6183.571993500331
 21
5722.919036112859
 31
0.0
  0
LINE
  5
1FD72
330
1DAA5
100
AcDbEntity
  8
寸法
 62
     0
 48
50.0
370
    -2
100
AcDbLine
 10
6243.571993500331
 20
5920.919036112861
 30
0.0
 11
6243.571993500331
 21
5722.919036112859
 31
0.0
  0
LINE
  5
1FD73
330
1DAA5
100
AcDbEntity
  8
寸法
 62
     0
 48
50.0
370
    -2
100
AcDbLine
 10
6243.571993500331
 20
5722.919036112859
 30
0.0
 11
6243.571993500331
 21
5350.499716453546
 31
0.0
  0
INSERT
  5
1FD74
330
1DAA5
100
AcDbEntity
  8
寸法
 62
     0
 48
50.0
370
    -2
100
AcDbBlockReference
  2
_DOTSMALL
 10
6243.571993500331
 20
5920.919036112861
 30
0.0
 41
100.0
 42
100.0
 43
100.0
 50
90.0
  0
INSERT
  5
1FD75
330
1DAA5
100
AcDbEntity
  8
寸法
 62
     0
 48
50.0
370
    -2
100
AcDbBlockReference
  2
_DOTSMALL
 10
6243.571993500331
 20
5722.919036112859
 30
0.0
 41
100.0
 42
100.0
 43
100.0
 50
270.0
  0
MTEXT
  5
1FD76
330
1DAA5
100
AcDbEntity
  8
寸法
 62
     7
 48
50.0
100
AcDbMText
 10
6143.57199350033
 20
5486.709376283204
 30
0.0
 40
120.0
 41
0.0
 71
     5
 72
     1
  1
\A1;198
  7
STYLE1
 11
0.0000000000000001
 21
1.0
 31
0.0
 73
     1
 44
1.0
1001
ACAD
1000
MTEXTBEGIN
1070
    73
1070
     1
1070
    44
1040
1.0
1070
    74
1070
     0
1000
MTEXTEND
  0
POINT
  5
1FD77
330
1DAA5
100
AcDbEntity
  8
DEFPOINTS
 62
     0
 48
50.0
100
AcDbPoint
 10
6812.514259514159
 20
5920.919036112861
 30
0.0
  0
POINT
  5
1FD78
330
1DAA5
100
AcDbEntity
  8
DEFPOINTS
 62
     0
 48
50.0
100
AcDbPoint
 10
6739.514259514152
 20
5722.919036112859
 30
0.0
  0
POINT
  5
1FD79
330
1DAA5
100
AcDbEntity
  8
DEFPOINTS
 62
     0
 48
50.0
100
AcDbPoint
 10
6243.571993500331
 20
5722.919036112859
 30
0.0
  0
ENDBLK
  5
1DAB1
330
1DAA5
100
AcDbEntity
  8
0
 48
50.0
100
AcDbBlockEnd
  0
BLOCK
  5
1DABC
330
1DAB2
100
AcDbEntity
  8
0
 48
50.0
100
AcDbBlockBegin
  2
*D11
 70
     1
 10
0.0
 20
0.0
 30
0.0
  3
*D11
  1

  0
LINE
  5
1FD65
330
1DAB2
100
AcDbEntity
  8
寸法
 62
     0
 48
50.0
370
    -2
100
AcDbLine
 10
6719.514259514152
 20
5722.919036112859
 30
0.0
 11
5938.079191362365
 21
5722.91903611286
 31
0.0
  0
LINE
  5
1FD66
330
1DAB2
100
AcDbEntity
  8
寸法
 62
     0
 48
50.0
370
    -2
100
AcDbLine
 10
6223.571993500331
 20
5667.919036112859
 30
0.0
 11
5938.079191362365
 21
5667.91903611286
 31
0.0
  0
LINE
  5
1FD67
330
1DAB2
100
AcDbEntity
  8
寸法
 62
     0
 48
50.0
370
    -2
100
AcDbLine
 10
5998.079191362364
 20
5722.91903611286
 30
0.0
 11
5998.079191362364
 21
5822.91903611286
 31
0.0
  0
LINE
  5
1FD68
330
1DAB2
100
AcDbEntity
  8
寸法
 62
     0
 48
50.0
370
    -2
100
AcDbLine
 10
5998.079191362364
 20
5667.91903611286
 30
0.0
 11
5998.079191362364
 21
5567.91903611286
 31
0.0
  0
LINE
  5
1FD69
330
1DAB2
100
AcDbEntity
  8
寸法
 62
     0
 48
50.0
370
    -2
100
AcDbLine
 10
5998.079191362364
 20
5722.91903611286
 30
0.0
 11
5998.079191362364
 21
5667.91903611286
 31
0.0
  0
INSERT
  5
1FD6A
330
1DAB2
100
AcDbEntity
  8
寸法
 62
     0
 48
50.0
370
    -2
100
AcDbBlockReference
  2
_DOTSMALL
 10
5998.079191362364
 20
5722.91903611286
 30
0.0
 41
100.0
 42
100.0
 43
100.0
 50
270.0
  0
INSERT
  5
1FD6B
330
1DAB2
100
AcDbEntity
  8
寸法
 62
     0
 48
50.0
370
    -2
100
AcDbBlockReference
  2
_DOTSMALL
 10
5998.079191362364
 20
5667.91903611286
 30
0.0
 41
100.0
 42
100.0
 43
100.0
 50
90.0
  0
MTEXT
  5
1FD6C
330
1DAB2
100
AcDbEntity
  8
寸法
 62
     7
 48
50.0
100
AcDbMText
 10
5898.079191362363
 20
5695.419036112861
 30
0.0
 40
120.0
 41
0.0
 71
     5
 72
     1
  1
\A1;b
  7
STYLE1
 11
0.0000000000000001
 21
1.0
 31
0.0
 73
     1
 44
1.0
1001
ACAD
1000
MTEXTBEGIN
1070
    73
1070
     1
1070
    44
1040
1.0
1070
    74
1070
     0
1000
MTEXTEND
  0
POINT
  5
1FD6D
330
1DAB2
100
AcDbEntity
  8
DEFPOINTS
 62
     0
 48
50.0
100
AcDbPoint
 10
6739.514259514152
 20
5722.919036112859
 30
0.0
  0
POINT
  5
1FD6E
330
1DAB2
100
AcDbEntity
  8
DEFPOINTS
 62
     0
 48
50.0
100
AcDbPoint
 10
6243.571993500331
 20
5667.919036112859
 30
0.0
  0
POINT
  5
1FD6F
330
1DAB2
100
AcDbEntity
  8
DEFPOINTS
 62
     0
 48
50.0
100
AcDbPoint
 10
5998.079191362364
 20
5667.91903611286
 30
0.0
  0
ENDBLK
  5
1DABD
330
1DAB2
100
AcDbEntity
  8
0
 48
50.0
100
AcDbBlockEnd
  0
BLOCK
  5
1DAC9
330
1DABE
100
AcDbEntity
  8
0
 48
50.0
100
AcDbBlockBegin
  2
*D12
 70
     1
 10
0.0
 20
0.0
 30
0.0
  3
*D12
  1

  0
LINE
  5
1FD5B
330
1DABE
100
AcDbEntity
  8
寸法
 62
     0
 48
50.0
370
    -2
100
AcDbLine
 10
6719.514259514152
 20
7522.91903611286
 30
0.0
 11
6183.571993500329
 21
7522.91903611286
 31
0.0
  0
LINE
  5
1FD5C
330
1DABE
100
AcDbEntity
  8
寸法
 62
     0
 48
50.0
370
    -2
100
AcDbLine
 10
6792.514259514152
 20
7399.919036112861
 30
0.0
 11
6183.571993500329
 21
7399.919036112861
 31
0.0
  0
LINE
  5
1FD5D
330
1DABE
100
AcDbEntity
  8
寸法
 62
     0
 48
50.0
370
    -2
100
AcDbLine
 10
6243.57199350033
 20
7399.919036112861
 30
0.0
 11
6243.57199350033
 21
7522.91903611286
 31
0.0
  0
LINE
  5
1FD5E
330
1DABE
100
AcDbEntity
  8
寸法
 62
     0
 48
50.0
370
    -2
100
AcDbLine
 10
6243.57199350033
 20
7522.91903611286
 30
0.0
 11
6243.57199350033
 21
7899.889598861339
 31
0.0
  0
INSERT
  5
1FD5F
330
1DABE
100
AcDbEntity
  8
寸法
 62
     0
 48
50.0
370
    -2
100
AcDbBlockReference
  2
_DOTSMALL
 10
6243.57199350033
 20
7399.919036112861
 30
0.0
 41
100.0
 42
100.0
 43
100.0
 50
270.0
  0
INSERT
  5
1FD60
330
1DABE
100
AcDbEntity
  8
寸法
 62
     0
 48
50.0
370
    -2
100
AcDbBlockReference
  2
_DOTSMALL
 10
6243.57199350033
 20
7522.91903611286
 30
0.0
 41
100.0
 42
100.0
 43
100.0
 50
90.0
  0
MTEXT
  5
1FD61
330
1DABE
100
AcDbEntity
  8
寸法
 62
     7
 48
50.0
100
AcDbMText
 10
6143.560182476708
 20
7761.4043174871
 30
0.0
 40
120.0
 41
0.0
 71
     5
 72
     1
  1
\A1;123
  7
STYLE1
 11
0.0000000000000001
 21
1.0
 31
0.0
 73
     1
 44
1.0
1001
ACAD
1000
MTEXTBEGIN
1070
    73
1070
     1
1070
    44
1040
1.0
1070
    74
1070
     0
1000
MTEXTEND
  0
POINT
  5
1FD62
330
1DABE
100
AcDbEntity
  8
DEFPOINTS
 62
     0
 48
50.0
100
AcDbPoint
 10
6739.514259514152
 20
7522.91903611286
 30
0.0
  0
POINT
  5
1FD63
330
1DABE
100
AcDbEntity
  8
DEFPOINTS
 62
     0
 48
50.0
100
AcDbPoint
 10
6812.514259514151
 20
7399.919036112861
 30
0.0
  0
POINT
  5
1FD64
330
1DABE
100
AcDbEntity
  8
DEFPOINTS
 62
     0
 48
50.0
100
AcDbPoint
 10
6243.57199350033
 20
7399.919036112861
 30
0.0
  0
ENDBLK
  5
1DACA
330
1DABE
100
AcDbEntity
  8
0
 48
50.0
100
AcDbBlockEnd
  0
BLOCK
  5
1DAD7
330
1DACB
100
AcDbEntity
  8
0
 48
50.0
100
AcDbBlockBegin
  2
*D13
 70
     1
 10
0.0
 20
0.0
 30
0.0
  3
*D13
  1

  0
LINE
  5
1FD50
330
1DACB
100
AcDbEntity
  8
寸法
 62
     0
 48
50.0
370
    -2
100
AcDbLine
 10
6223.571993500331
 20
7597.91903611286
 30
0.0
 11
5938.079191362362
 21
7597.919036112862
 31
0.0
  0
LINE
  5
1FD51
330
1DACB
100
AcDbEntity
  8
寸法
 62
     0
 48
50.0
370
    -2
100
AcDbLine
 10
6719.514259514152
 20
7522.91903611286
 30
0.0
 11
5938.079191362362
 21
7522.919036112861
 31
0.0
  0
LINE
  5
1FD52
330
1DACB
100
AcDbEntity
  8
寸法
 62
     0
 48
50.0
370
    -2
100
AcDbLine
 10
5998.079191362363
 20
7597.919036112862
 30
0.0
 11
5998.079191362363
 21
7697.919036112861
 31
0.0
  0
LINE
  5
1FD53
330
1DACB
100
AcDbEntity
  8
寸法
 62
     0
 48
50.0
370
    -2
100
AcDbLine
 10
5998.079191362363
 20
7522.919036112861
 30
0.0
 11
5998.079191362363
 21
7422.919036112862
 31
0.0
  0
LINE
  5
1FD54
330
1DACB
100
AcDbEntity
  8
寸法
 62
     0
 48
50.0
370
    -2
100
AcDbLine
 10
5998.079191362363
 20
7597.919036112862
 30
0.0
 11
5998.079191362363
 21
7522.919036112861
 31
0.0
  0
INSERT
  5
1FD55
330
1DACB
100
AcDbEntity
  8
寸法
 62
     0
 48
50.0
370
    -2
100
AcDbBlockReference
  2
_DOTSMALL
 10
5998.079191362363
 20
7597.919036112862
 30
0.0
 41
100.0
 42
100.0
 43
100.0
 50
270.0
  0
INSERT
  5
1FD56
330
1DACB
100
AcDbEntity
  8
寸法
 62
     0
 48
50.0
370
    -2
100
AcDbBlockReference
  2
_DOTSMALL
 10
5998.079191362363
 20
7522.919036112861
 30
0.0
 41
100.0
 42
100.0
 43
100.0
 50
90.0
  0
MTEXT
  5
1FD57
330
1DACB
100
AcDbEntity
  8
寸法
 62
     7
 48
50.0
100
AcDbMText
 10
5898.079191362362
 20
7560.419036112863
 30
0.0
 40
120.0
 41
0.0
 71
     5
 72
     1
  1
\A1;c
  7
STYLE1
 11
0.0000000000000001
 21
1.0
 31
0.0
 73
     1
 44
1.0
1001
ACAD
1000
MTEXTBEGIN
1070
    73
1070
     1
1070
    44
1040
1.0
1070
    74
1070
     0
1000
MTEXTEND
  0
POINT
  5
1FD58
330
1DACB
100
AcDbEntity
  8
DEFPOINTS
 62
     0
 48
50.0
100
AcDbPoint
 10
6243.571993500331
 20
7597.91903611286
 30
0.0
  0
POINT
  5
1FD59
330
1DACB
100
AcDbEntity
  8
DEFPOINTS
 62
     0
 48
50.0
100
AcDbPoint
 10
6739.514259514152
 20
7522.91903611286
 30
0.0
  0
POINT
  5
1FD5A
330
1DACB
100
AcDbEntity
  8
DEFPOINTS
 62
     0
 48
50.0
100
AcDbPoint
 10
5998.079191362363
 20
7522.919036112861
 30
0.0
  0
ENDBLK
  5
1DAD8
330
1DACB
100
AcDbEntity
  8
0
 48
50.0
100
AcDbBlockEnd
  0
BLOCK
  5
1DAE4
330
1DAD9
100
AcDbEntity
  8
0
 48
50.0
100
AcDbBlockBegin
  2
*D14
 70
     1
 10
0.0
 20
0.0
 30
0.0
  3
*D14
  1

  0
LINE
  5
1F86E
330
1DAD9
100
AcDbEntity
  8
寸法
 62
     0
 48
50.0
370
    -2
100
AcDbLine
 10
8959.514259514151
 20
7542.919036112862
 30
0.0
 11
8959.514259514151
 21
8336.250847072712
 31
0.0
  0
LINE
  5
1F86F
330
1DAD9
100
AcDbEntity
  8
寸法
 62
     0
 48
50.0
370
    -2
100
AcDbLine
 10
8836.514259514151
 20
7469.91903611286
 30
0.0
 11
8836.514259514151
 21
8336.250847072712
 31
0.0
  0
LINE
  5
1F870
330
1DAD9
100
AcDbEntity
  8
寸法
 62
     0
 48
50.0
370
    -2
100
AcDbLine
 10
8836.514259514151
 20
8276.250847072711
 30
0.0
 11
8959.514259514151
 21
8276.250847072711
 31
0.0
  0
LINE
  5
1F871
330
1DAD9
100
AcDbEntity
  8
寸法
 62
     0
 48
50.0
370
    -2
100
AcDbLine
 10
8959.514259514151
 20
8276.250847072711
 30
0.0
 11
9336.484822262628
 21
8276.250847072711
 31
0.0
  0
INSERT
  5
1F872
330
1DAD9
100
AcDbEntity
  8
寸法
 62
     0
 48
50.0
370
    -2
100
AcDbBlockReference
  2
_DOTSMALL
 10
8836.514259514151
 20
8276.250847072711
 30
0.0
 41
100.0
 42
100.0
 43
100.0
 50
180.0
  0
INSERT
  5
1F873
330
1DAD9
100
AcDbEntity
  8
寸法
 62
     0
 48
50.0
370
    -2
100
AcDbBlockReference
  2
_DOTSMALL
 10
8959.514259514151
 20
8276.250847072711
 30
0.0
 41
100.0
 42
100.0
 43
100.0
  0
MTEXT
  5
1F874
330
1DAD9
100
AcDbEntity
  8
寸法
 62
     7
 48
50.0
100
AcDbMText
 10
9197.999540888389
 20
8376.262658096333
 30
0.0
 40
120.0
 41
0.0
 71
     5
 72
     1
  1
\A1;123
  7
STYLE1
 73
     1
 44
1.0
1001
ACAD
1000
MTEXTBEGIN
1070
    73
1070
     1
1070
    44
1040
1.0
1070
    74
1070
     0
1000
MTEXTEND
  0
POINT
  5
1F875
330
1DAD9
100
AcDbEntity
  8
DEFPOINTS
 62
     0
 48
50.0
100
AcDbPoint
 10
8959.514259514151
 20
7522.919036112861
 30
0.0
  0
POINT
  5
1F876
330
1DAD9
100
AcDbEntity
  8
DEFPOINTS
 62
     0
 48
50.0
100
AcDbPoint
 10
8836.514259514151
 20
7449.919036112861
 30
0.0
  0
POINT
  5
1F877
330
1DAD9
100
AcDbEntity
  8
DEFPOINTS
 62
     0
 48
50.0
100
AcDbPoint
 10
8836.514259514151
 20
8276.250847072711
 30
0.0
  0
ENDBLK
  5
1DAE5
330
1DAD9
100
AcDbEntity
  8
0
 48
50.0
100
AcDbBlockEnd
  0
BLOCK
  5
1DAF1
330
1DAE6
100
AcDbEntity
  8
0
 48
50.0
100
AcDbBlockBegin
  2
*D15
 70
     1
 10
0.0
 20
0.0
 30
0.0
  3
*D15
  1

  0
LINE
  5
1F863
330
1DAE6
100
AcDbEntity
  8
寸法
 62
     0
 48
50.0
370
    -2
100
AcDbLine
 10
8959.514259514151
 20
7691.190236682782
 30
0.0
 11
8959.514259514151
 21
8548.711542589549
 31
0.0
  0
LINE
  5
1F864
330
1DAE6
100
AcDbEntity
  8
寸法
 62
     0
 48
50.0
370
    -2
100
AcDbLine
 10
9004.51425951415
 20
8296.250847072711
 30
0.0
 11
9004.51425951415
 21
8548.711542589549
 31
0.0
  0
LINE
  5
1F865
330
1DAE6
100
AcDbEntity
  8
寸法
 62
     0
 48
50.0
370
    -2
100
AcDbLine
 10
8959.514259514151
 20
8488.711542589548
 30
0.0
 11
8859.514259514151
 21
8488.711542589548
 31
0.0
  0
LINE
  5
1F866
330
1DAE6
100
AcDbEntity
  8
寸法
 62
     0
 48
50.0
370
    -2
100
AcDbLine
 10
9004.51425951415
 20
8488.711542589548
 30
0.0
 11
9104.514259514152
 21
8488.711542589548
 31
0.0
  0
LINE
  5
1F867
330
1DAE6
100
AcDbEntity
  8
寸法
 62
     0
 48
50.0
370
    -2
100
AcDbLine
 10
8959.514259514151
 20
8488.711542589548
 30
0.0
 11
9004.51425951415
 21
8488.711542589548
 31
0.0
  0
INSERT
  5
1F868
330
1DAE6
100
AcDbEntity
  8
寸法
 62
     0
 48
50.0
370
    -2
100
AcDbBlockReference
  2
_DOTSMALL
 10
8959.514259514151
 20
8488.711542589548
 30
0.0
 41
100.0
 42
100.0
 43
100.0
  0
INSERT
  5
1F869
330
1DAE6
100
AcDbEntity
  8
寸法
 62
     0
 48
50.0
370
    -2
100
AcDbBlockReference
  2
_DOTSMALL
 10
9004.51425951415
 20
8488.711542589548
 30
0.0
 41
100.0
 42
100.0
 43
100.0
 50
180.0
  0
MTEXT
  5
1F86A
330
1DAE6
100
AcDbEntity
  8
寸法
 62
     7
 48
50.0
100
AcDbMText
 10
8982.014259514151
 20
8588.711542589548
 30
0.0
 40
120.0
 41
0.0
 71
     5
 72
     1
  1
\A1;a
  7
STYLE1
 73
     1
 44
1.0
1001
ACAD
1000
MTEXTBEGIN
1070
    73
1070
     1
1070
    44
1040
1.0
1070
    74
1070
     0
1000
MTEXTEND
  0
POINT
  5
1F86B
330
1DAE6
100
AcDbEntity
  8
DEFPOINTS
 62
     0
 48
50.0
100
AcDbPoint
 10
8959.514259514151
 20
7671.190236682781
 30
0.0
  0
POINT
  5
1F86C
330
1DAE6
100
AcDbEntity
  8
DEFPOINTS
 62
     0
 48
50.0
100
AcDbPoint
 10
9004.51425951415
 20
8276.250847072711
 30
0.0
  0
POINT
  5
1F86D
330
1DAE6
100
AcDbEntity
  8
DEFPOINTS
 62
     0
 48
50.0
100
AcDbPoint
 10
9004.51425951415
 20
8488.711542589548
 30
0.0
  0
ENDBLK
  5
1DAF2
330
1DAE6
100
AcDbEntity
  8
0
 48
50.0
100
AcDbBlockEnd
  0
BLOCK
  5
1DAFE
330
1DAF3
100
AcDbEntity
  8
0
 48
50.0
100
AcDbBlockBegin
  2
*D16
 70
     1
 10
0.0
 20
0.0
 30
0.0
  3
*D16
  1

  0
LINE
  5
2186C
330
1DAF3
100
AcDbEntity
  8
寸法
 62
     0
 48
50.0
370
    -2
100
AcDbLine
 10
8959.514259514151
 20
7022.91903611287
 30
0.0
 11
8959.514259514151
 21
6924.422404093454
 31
0.0
  0
LINE
  5
2186D
330
1DAF3
100
AcDbEntity
  8
寸法
 62
     0
 48
50.0
370
    -2
100
AcDbLine
 10
8839.514259514151
 20
7026.308840600305
 30
0.0
 11
8839.514259514151
 21
6924.422404093454
 31
0.0
  0
LINE
  5
2186E
330
1DAF3
100
AcDbEntity
  8
寸法
 62
     0
 48
50.0
370
    -2
100
AcDbLine
 10
8839.514259514151
 20
6984.422404093454
 30
0.0
 11
8959.514259514151
 21
6984.422404093454
 31
0.0
  0
LINE
  5
2186F
330
1DAF3
100
AcDbEntity
  8
寸法
 62
     0
 48
50.0
370
    -2
100
AcDbLine
 10
8959.514259514151
 20
6984.422404093454
 30
0.0
 11
9331.608747703128
 21
6984.422404093454
 31
0.0
  0
INSERT
  5
21870
330
1DAF3
100
AcDbEntity
  8
寸法
 62
     0
 48
50.0
370
    -2
100
AcDbBlockReference
  2
_DOTSMALL
 10
8839.514259514151
 20
6984.422404093454
 30
0.0
 41
100.0
 42
100.0
 43
100.0
 50
180.0
  0
INSERT
  5
21871
330
1DAF3
100
AcDbEntity
  8
寸法
 62
     0
 48
50.0
370
    -2
100
AcDbBlockReference
  2
_DOTSMALL
 10
8959.514259514151
 20
6984.422404093454
 30
0.0
 41
100.0
 42
100.0
 43
100.0
  0
MTEXT
  5
21872
330
1DAF3
100
AcDbEntity
  8
寸法
 62
     7
 48
50.0
100
AcDbMText
 10
9195.56150360864
 20
7084.434215117075
 30
0.0
 40
120.0
 41
0.0
 71
     5
 72
     1
  1
\A1;120
  7
STYLE1
 73
     1
 44
1.0
1001
ACAD
1000
MTEXTBEGIN
1070
    73
1070
     1
1070
    44
1040
1.0
1070
    74
1070
     0
1000
MTEXTEND
  0
POINT
  5
21873
330
1DAF3
100
AcDbEntity
  8
DEFPOINTS
 62
     0
 48
50.0
100
AcDbPoint
 10
8959.514259514151
 20
7042.919036112869
 30
0.0
  0
POINT
  5
21874
330
1DAF3
100
AcDbEntity
  8
DEFPOINTS
 62
     0
 48
50.0
100
AcDbPoint
 10
8839.514259514151
 20
7046.308840600305
 30
0.0
  0
POINT
  5
21875
330
1DAF3
100
AcDbEntity
  8
DEFPOINTS
 62
     0
 48
50.0
100
AcDbPoint
 10
8839.514259514151
 20
6984.422404093454
 30
0.0
  0
ENDBLK
  5
1DAFF
330
1DAF3
100
AcDbEntity
  8
0
 48
50.0
100
AcDbBlockEnd
  0
BLOCK
  5
1E9D9
330
1E9D0
100
AcDbEntity
  8
0
 48
50.0
100
AcDbBlockBegin
  2
*D17
 70
     1
 10
0.0
 20
0.0
 30
0.0
  3
*D17
  1

  0
LINE
  5
1FE18
330
1E9D0
100
AcDbEntity
  8
寸法
 62
     0
 48
50.0
370
    -2
100
AcDbLine
 10
8265.014259514151
 20
6622.919036112868
 30
0.0
 11
8450.388277064849
 21
6622.919036112868
 31
0.0
  0
LINE
  5
1FE19
330
1E9D0
100
AcDbEntity
  8
寸法
 62
     0
 48
50.0
370
    -2
100
AcDbLine
 10
8215.014259514161
 20
7522.919036112863
 30
0.0
 11
8450.388277064849
 21
7522.919036112863
 31
0.0
  0
LINE
  5
1FE1A
330
1E9D0
100
AcDbEntity
  8
寸法
 62
     0
 48
50.0
370
    -2
100
AcDbLine
 10
8390.388277064849
 20
6622.919036112868
 30
0.0
 11
8390.388277064849
 21
7522.919036112863
 31
0.0
  0
INSERT
  5
1FE1B
330
1E9D0
100
AcDbEntity
  8
寸法
 62
     0
 48
50.0
370
    -2
100
AcDbBlockReference
  2
_DOTSMALL
 10
8390.388277064849
 20
6622.919036112868
 30
0.0
 41
100.0
 42
100.0
 43
100.0
 50
270.0
  0
INSERT
  5
1FE1C
330
1E9D0
100
AcDbEntity
  8
寸法
 62
     0
 48
50.0
370
    -2
100
AcDbBlockReference
  2
_DOTSMALL
 10
8390.388277064849
 20
7522.919036112863
 30
0.0
 41
100.0
 42
100.0
 43
100.0
 50
90.0
  0
MTEXT
  5
1FE1D
330
1E9D0
100
AcDbEntity
  8
寸法
 62
     7
 48
50.0
100
AcDbMText
 10
8290.388277064847
 20
7072.919036112867
 30
0.0
 40
120.0
 41
0.0
 71
     5
 72
     1
  1
\A1;900
  7
STYLE1
 11
0.0000000000000001
 21
1.0
 31
0.0
 73
     1
 44
1.0
1001
ACAD
1000
MTEXTBEGIN
1070
    73
1070
     1
1070
    44
1040
1.0
1070
    74
1070
     0
1000
MTEXTEND
  0
POINT
  5
1FE1E
330
1E9D0
100
AcDbEntity
  8
DEFPOINTS
 62
     0
 48
50.0
100
AcDbPoint
 10
8245.014259514151
 20
6622.919036112868
 30
0.0
  0
POINT
  5
1FE1F
330
1E9D0
100
AcDbEntity
  8
DEFPOINTS
 62
     0
 48
50.0
100
AcDbPoint
 10
8195.014259514161
 20
7522.919036112863
 30
0.0
  0
POINT
  5
1FE20
330
1E9D0
100
AcDbEntity
  8
DEFPOINTS
 62
     0
 48
50.0
100
AcDbPoint
 10
8390.388277064849
 20
7522.919036112863
 30
0.0
  0
ENDBLK
  5
1E9DA
330
1E9D0
100
AcDbEntity
  8
0
 48
50.0
100
AcDbBlockEnd
  0
BLOCK
  5
1EA3C
330
1EA32
100
AcDbEntity
  8
0
 48
50.0
100
AcDbBlockBegin
  2
*D18
 70
     1
 10
0.0
 20
0.0
 30
0.0
  3
*D18
  1

  0
LINE
  5
1FE0F
330
1EA32
100
AcDbEntity
  8
寸法
 62
     0
 48
50.0
370
    -2
100
AcDbLine
 10
8215.014259514161
 20
5722.919036112869
 30
0.0
 11
8450.38827706486
 21
5722.919036112869
 31
0.0
  0
LINE
  5
1FE10
330
1EA32
100
AcDbEntity
  8
寸法
 62
     0
 48
50.0
370
    -2
100
AcDbLine
 10
8265.014259514151
 20
6622.919036112868
 30
0.0
 11
8450.38827706486
 21
6622.919036112868
 31
0.0
  0
LINE
  5
1FE11
330
1EA32
100
AcDbEntity
  8
寸法
 62
     0
 48
50.0
370
    -2
100
AcDbLine
 10
8390.388277064859
 20
5722.919036112869
 30
0.0
 11
8390.388277064859
 21
6622.919036112868
 31
0.0
  0
MTEXT
  5
1FE12
330
1EA32
100
AcDbEntity
  8
寸法
 62
     7
 48
50.0
100
AcDbMText
 10
8290.388277064858
 20
6097.131811778035
 30
0.0
 40
120.0
 41
0.0
 71
     5
 72
     1
  1
\A1;900
  7
STYLE1
 11
0.0000000000000001
 21
1.0
 31
0.0
 73
     1
 44
1.0
1001
ACAD
1000
MTEXTBEGIN
1070
    73
1070
     1
1070
    44
1040
1.0
1070
    74
1070
     0
1000
MTEXTEND
  0
INSERT
  5
1FE13
330
1EA32
100
AcDbEntity
  8
寸法
 62
     0
 48
50.0
370
    -2
100
AcDbBlockReference
  2
_DOTSMALL
 10
8390.388277064859
 20
5722.919036112869
 30
0.0
 41
100.0
 42
100.0
 43
100.0
 50
270.0
  0
INSERT
  5
1FE14
330
1EA32
100
AcDbEntity
  8
寸法
 62
     0
 48
50.0
370
    -2
100
AcDbBlockReference
  2
_DOTSMALL
 10
8390.388277064859
 20
6622.919036112868
 30
0.0
 41
100.0
 42
100.0
 43
100.0
 50
90.0
  0
POINT
  5
1FE15
330
1EA32
100
AcDbEntity
  8
DEFPOINTS
 62
     0
 48
50.0
100
AcDbPoint
 10
8195.014259514161
 20
5722.919036112869
 30
0.0
  0
POINT
  5
1FE16
330
1EA32
100
AcDbEntity
  8
DEFPOINTS
 62
     0
 48
50.0
100
AcDbPoint
 10
8245.014259514151
 20
6622.919036112868
 30
0.0
  0
POINT
  5
1FE17
330
1EA32
100
AcDbEntity
  8
DEFPOINTS
 62
     0
 48
50.0
100
AcDbPoint
 10
8390.388277064859
 20
6622.919036112868
 30
0.0
  0
ENDBLK
  5
1EA3D
330
1EA32
100
AcDbEntity
  8
0
 48
50.0
100
AcDbBlockEnd
  0
BLOCK
  5
1F253
330
1F24A
100
AcDbEntity
  8
0
 48
50.0
100
AcDbBlockBegin
  2
*D19
 70
     1
 10
0.0
 20
0.0
 30
0.0
  3
*D19
  1

  0
LINE
  5
1FF5C
330
1F24A
100
AcDbEntity
  8
寸法
 62
     0
 48
50.0
370
    -2
100
AcDbLine
 10
7503.514259514151
 20
6842.919036112869
 30
0.0
 11
7503.514259514151
 21
8109.828801761191
 31
0.0
  0
LINE
  5
1FF5D
330
1F24A
100
AcDbEntity
  8
寸法
 62
     0
 48
50.0
370
    -2
100
AcDbLine
 10
6739.514259514149
 20
7542.919036112862
 30
0.0
 11
6739.514259514149
 21
8109.828801761191
 31
0.0
  0
LINE
  5
1FF5E
330
1F24A
100
AcDbEntity
  8
寸法
 62
     0
 48
50.0
370
    -2
100
AcDbLine
 10
7503.514259514151
 20
8049.82880176119
 30
0.0
 11
6739.514259514149
 21
8049.82880176119
 31
0.0
  0
INSERT
  5
1FF5F
330
1F24A
100
AcDbEntity
  8
寸法
 62
     0
 48
50.0
370
    -2
100
AcDbBlockReference
  2
_DOTSMALL
 10
7503.514259514151
 20
8049.82880176119
 30
0.0
 41
100.0
 42
100.0
 43
100.0
  0
INSERT
  5
1FF60
330
1F24A
100
AcDbEntity
  8
寸法
 62
     0
 48
50.0
370
    -2
100
AcDbBlockReference
  2
_DOTSMALL
 10
6739.514259514149
 20
8049.82880176119
 30
0.0
 41
100.0
 42
100.0
 43
100.0
 50
180.0
  0
MTEXT
  5
1FF61
330
1F24A
100
AcDbEntity
  8
寸法
 62
     7
 48
50.0
100
AcDbMText
 10
7121.51425951415
 20
8149.82880176119
 30
0.0
 40
120.0
 41
0.0
 71
     5
 72
     1
  1
\A1;764
  7
STYLE1
 73
     1
 44
1.0
1001
ACAD
1000
MTEXTBEGIN
1070
    73
1070
     1
1070
    44
1040
1.0
1070
    74
1070
     0
1000
MTEXTEND
  0
POINT
  5
1FF62
330
1F24A
100
AcDbEntity
  8
DEFPOINTS
 62
     0
 48
50.0
100
AcDbPoint
 10
7503.514259514151
 20
6822.91903611287
 30
0.0
  0
POINT
  5
1FF63
330
1F24A
100
AcDbEntity
  8
DEFPOINTS
 62
     0
 48
50.0
100
AcDbPoint
 10
6739.514259514149
 20
7522.919036112863
 30
0.0
  0
POINT
  5
1FF64
330
1F24A
100
AcDbEntity
  8
DEFPOINTS
 62
     0
 48
50.0
100
AcDbPoint
 10
6739.514259514149
 20
8049.82880176119
 30
0.0
  0
ENDBLK
  5
1F254
330
1F24A
100
AcDbEntity
  8
0
 48
50.0
100
AcDbBlockEnd
  0
BLOCK
  5
1F25F
330
1F255
100
AcDbEntity
  8
0
 48
50.0
100
AcDbBlockBegin
  2
*D20
 70
     1
 10
0.0
 20
0.0
 30
0.0
  3
*D20
  1

  0
LINE
  5
21171
330
1F255
100
AcDbEntity
  8
寸法
 62
     0
 48
50.0
370
    -2
100
AcDbLine
 10
8959.514259514149
 20
7542.919036112862
 30
0.0
 11
8959.514259514149
 21
8109.828801761191
 31
0.0
  0
LINE
  5
21172
330
1F255
100
AcDbEntity
  8
寸法
 62
     0
 48
50.0
370
    -2
100
AcDbLine
 10
8195.514259514151
 20
6742.919036112869
 30
0.0
 11
8195.514259514151
 21
8109.828801761191
 31
0.0
  0
LINE
  5
21173
330
1F255
100
AcDbEntity
  8
寸法
 62
     0
 48
50.0
370
    -2
100
AcDbLine
 10
8959.514259514149
 20
8049.82880176119
 30
0.0
 11
8195.514259514151
 21
8049.82880176119
 31
0.0
  0
MTEXT
  5
21174
330
1F255
100
AcDbEntity
  8
寸法
 62
     7
 48
50.0
100
AcDbMText
 10
8536.284394696602
 20
8148.090767068199
 30
0.0
 40
120.0
 41
0.0
 71
     5
 72
     1
  1
\A1;764
  7
STYLE1
 73
     1
 44
1.0
1001
ACAD
1000
MTEXTBEGIN
1070
    73
1070
     1
1070
    44
1040
1.0
1070
    74
1070
     0
1000
MTEXTEND
  0
INSERT
  5
21175
330
1F255
100
AcDbEntity
  8
寸法
 62
     0
 48
50.0
370
    -2
100
AcDbBlockReference
  2
_DOTSMALL
 10
8959.514259514149
 20
8049.82880176119
 30
0.0
 41
100.0
 42
100.0
 43
100.0
  0
INSERT
  5
21176
330
1F255
100
AcDbEntity
  8
寸法
 62
     0
 48
50.0
370
    -2
100
AcDbBlockReference
  2
_DOTSMALL
 10
8195.514259514151
 20
8049.82880176119
 30
0.0
 41
100.0
 42
100.0
 43
100.0
 50
180.0
  0
POINT
  5
21177
330
1F255
100
AcDbEntity
  8
DEFPOINTS
 62
     0
 48
50.0
100
AcDbPoint
 10
8959.514259514149
 20
7522.919036112863
 30
0.0
  0
POINT
  5
21178
330
1F255
100
AcDbEntity
  8
DEFPOINTS
 62
     0
 48
50.0
100
AcDbPoint
 10
8195.514259514151
 20
6722.91903611287
 30
0.0
  0
POINT
  5
21179
330
1F255
100
AcDbEntity
  8
DEFPOINTS
 62
     0
 48
50.0
100
AcDbPoint
 10
8195.514259514151
 20
8049.82880176119
 30
0.0
  0
ENDBLK
  5
1F260
330
1F255
100
AcDbEntity
  8
0
 48
50.0
100
AcDbBlockEnd
  0
BLOCK
  5
1FE56
330
1FE4C
100
AcDbEntity
  8
0
 48
50.0
100
AcDbBlockBegin
  2
*D21
 70
     1
 10
0.0
 20
0.0
 30
0.0
  3
*D21
  1

  0
LINE
  5
2117A
330
1FE4C
100
AcDbEntity
  8
寸法
 62
     0
 48
50.0
370
    -2
100
AcDbLine
 10
7503.514259514151
 20
6742.919036112869
 30
0.0
 11
7503.514259514151
 21
8109.828801761191
 31
0.0
  0
LINE
  5
2117B
330
1FE4C
100
AcDbEntity
  8
寸法
 62
     0
 48
50.0
370
    -2
100
AcDbLine
 10
8195.514259514151
 20
6742.919036112869
 30
0.0
 11
8195.514259514151
 21
8109.828801761191
 31
0.0
  0
LINE
  5
2117C
330
1FE4C
100
AcDbEntity
  8
寸法
 62
     0
 48
50.0
370
    -2
100
AcDbLine
 10
7503.514259514151
 20
8049.82880176119
 30
0.0
 11
8195.514259514151
 21
8049.82880176119
 31
0.0
  0
INSERT
  5
2117D
330
1FE4C
100
AcDbEntity
  8
寸法
 62
     0
 48
50.0
370
    -2
100
AcDbBlockReference
  2
_DOTSMALL
 10
7503.514259514151
 20
8049.82880176119
 30
0.0
 41
100.0
 42
100.0
 43
100.0
 50
180.0
  0
INSERT
  5
2117E
330
1FE4C
100
AcDbEntity
  8
寸法
 62
     0
 48
50.0
370
    -2
100
AcDbBlockReference
  2
_DOTSMALL
 10
8195.514259514151
 20
8049.82880176119
 30
0.0
 41
100.0
 42
100.0
 43
100.0
  0
MTEXT
  5
2117F
330
1FE4C
100
AcDbEntity
  8
寸法
 62
     7
 48
50.0
100
AcDbMText
 10
7849.514259514151
 20
8149.869614325995
 30
0.0
 40
120.0
 41
0.0
 71
     5
 72
     1
  1
\A1;692
  7
STYLE1
 73
     1
 44
1.0
1001
ACAD
1000
MTEXTBEGIN
1070
    73
1070
     1
1070
    44
1040
1.0
1070
    74
1070
     0
1000
MTEXTEND
  0
POINT
  5
21180
330
1FE4C
100
AcDbEntity
  8
DEFPOINTS
 62
     0
 48
50.0
100
AcDbPoint
 10
7503.514259514151
 20
6722.91903611287
 30
0.0
  0
POINT
  5
21181
330
1FE4C
100
AcDbEntity
  8
DEFPOINTS
 62
     0
 48
50.0
100
AcDbPoint
 10
8195.514259514151
 20
6722.91903611287
 30
0.0
  0
POINT
  5
21182
330
1FE4C
100
AcDbEntity
  8
DEFPOINTS
 62
     0
 48
50.0
100
AcDbPoint
 10
8195.514259514151
 20
8049.82880176119
 30
0.0
  0
ENDBLK
  5
1FE57
330
1FE4C
100
AcDbEntity
  8
0
 48
50.0
100
AcDbBlockEnd
  0
BLOCK
  5
20359
330
2034E
100
AcDbEntity
  8
0
 48
50.0
100
AcDbBlockBegin
  2
*D22
 70
     1
 10
0.0
 20
0.0
 30
0.0
  3
*D22
  1

  0
LINE
  5
218B7
330
2034E
100
AcDbEntity
  8
寸法
 62
     0
 48
50.0
370
    -2
100
AcDbLine
 10
6989.514259514151
 20
7402.91903611286
 30
0.0
 11
7247.190751772594
 21
7402.91903611286
 31
0.0
  0
LINE
  5
218B8
330
2034E
100
AcDbEntity
  8
寸法
 62
     0
 48
50.0
370
    -2
100
AcDbLine
 10
6989.514259514152
 20
7522.919036112859
 30
0.0
 11
7247.190751772594
 21
7522.919036112859
 31
0.0
  0
LINE
  5
218B9
330
2034E
100
AcDbEntity
  8
寸法
 62
     0
 48
50.0
370
    -2
100
AcDbLine
 10
7187.190751772594
 20
7402.91903611286
 30
0.0
 11
7187.190751772594
 21
7522.919036112859
 31
0.0
  0
LINE
  5
218BA
330
2034E
100
AcDbEntity
  8
寸法
 62
     0
 48
50.0
370
    -2
100
AcDbLine
 10
7187.190751772594
 20
7522.919036112859
 30
0.0
 11
7187.190751772594
 21
7925.013524301836
 31
0.0
  0
INSERT
  5
218BB
330
2034E
100
AcDbEntity
  8
寸法
 62
     0
 48
50.0
370
    -2
100
AcDbBlockReference
  2
_DOTSMALL
 10
7187.190751772594
 20
7402.91903611286
 30
0.0
 41
100.0
 42
100.0
 43
100.0
 50
270.0
  0
INSERT
  5
218BC
330
2034E
100
AcDbEntity
  8
寸法
 62
     0
 48
50.0
370
    -2
100
AcDbBlockReference
  2
_DOTSMALL
 10
7187.190751772594
 20
7522.919036112859
 30
0.0
 41
100.0
 42
100.0
 43
100.0
 50
90.0
  0
MTEXT
  5
218BD
330
2034E
100
AcDbEntity
  8
寸法
 62
     7
 48
50.0
100
AcDbMText
 10
7087.178940748971
 20
7788.96628020735
 30
0.0
 40
120.0
 41
0.0
 71
     5
 72
     1
  1
\A1;120
  7
STYLE1
 11
0.0000000000000001
 21
1.0
 31
0.0
 73
     1
 44
1.0
1001
ACAD
1000
MTEXTBEGIN
1070
    73
1070
     1
1070
    44
1040
1.0
1070
    74
1070
     0
1000
MTEXTEND
  0
POINT
  5
218BE
330
2034E
100
AcDbEntity
  8
DEFPOINTS
 62
     0
 48
50.0
100
AcDbPoint
 10
6969.51425951415
 20
7402.91903611286
 30
0.0
  0
POINT
  5
218BF
330
2034E
100
AcDbEntity
  8
DEFPOINTS
 62
     0
 48
50.0
100
AcDbPoint
 10
6969.514259514152
 20
7522.919036112859
 30
0.0
  0
POINT
  5
218C0
330
2034E
100
AcDbEntity
  8
DEFPOINTS
 62
     0
 48
50.0
100
AcDbPoint
 10
7187.190751772594
 20
7522.919036112859
 30
0.0
  0
ENDBLK
  5
2035A
330
2034E
100
AcDbEntity
  8
0
 48
50.0
100
AcDbBlockEnd
  0
BLOCK
  5
20366
330
2035B
100
AcDbEntity
  8
0
 48
50.0
100
AcDbBlockBegin
  2
*D23
 70
     1
 10
0.0
 20
0.0
 30
0.0
  3
*D23
  1

  0
LINE
  5
218AD
330
2035B
100
AcDbEntity
  8
寸法
 62
     0
 48
50.0
370
    -2
100
AcDbLine
 10
6989.514259514152
 20
7292.919036112856
 30
0.0
 11
7247.190751772595
 21
7292.919036112856
 31
0.0
  0
LINE
  5
218AE
330
2035B
100
AcDbEntity
  8
寸法
 62
     0
 48
50.0
370
    -2
100
AcDbLine
 10
6989.514259514151
 20
7402.91903611286
 30
0.0
 11
7247.190751772595
 21
7402.91903611286
 31
0.0
  0
LINE
  5
218AF
330
2035B
100
AcDbEntity
  8
寸法
 62
     0
 48
50.0
370
    -2
100
AcDbLine
 10
7187.190751772594
 20
7402.91903611286
 30
0.0
 11
7187.190751772594
 21
7292.919036112856
 31
0.0
  0
LINE
  5
218B0
330
2035B
100
AcDbEntity
  8
寸法
 62
     0
 48
50.0
370
    -2
100
AcDbLine
 10
7187.190751772594
 20
7292.919036112856
 30
0.0
 11
7187.190751772594
 21
6932.824547923878
 31
0.0
  0
INSERT
  5
218B1
330
2035B
100
AcDbEntity
  8
寸法
 62
     0
 48
50.0
370
    -2
100
AcDbBlockReference
  2
_DOTSMALL
 10
7187.190751772594
 20
7402.91903611286
 30
0.0
 41
100.0
 42
100.0
 43
100.0
 50
90.0
  0
INSERT
  5
218B2
330
2035B
100
AcDbEntity
  8
寸法
 62
     0
 48
50.0
370
    -2
100
AcDbBlockReference
  2
_DOTSMALL
 10
7187.190751772594
 20
7292.919036112856
 30
0.0
 41
100.0
 42
100.0
 43
100.0
 50
270.0
  0
MTEXT
  5
218B3
330
2035B
100
AcDbEntity
  8
寸法
 62
     7
 48
50.0
100
AcDbMText
 10
7087.190751772593
 20
7056.871792018369
 30
0.0
 40
120.0
 41
0.0
 71
     5
 72
     1
  1
\A1;110
  7
STYLE1
 11
0.0000000000000001
 21
1.0
 31
0.0
 73
     1
 44
1.0
1001
ACAD
1000
MTEXTBEGIN
1070
    73
1070
     1
1070
    44
1040
1.0
1070
    74
1070
     0
1000
MTEXTEND
  0
POINT
  5
218B4
330
2035B
100
AcDbEntity
  8
DEFPOINTS
 62
     0
 48
50.0
100
AcDbPoint
 10
6969.514259514152
 20
7292.919036112856
 30
0.0
  0
POINT
  5
218B5
330
2035B
100
AcDbEntity
  8
DEFPOINTS
 62
     0
 48
50.0
100
AcDbPoint
 10
6969.51425951415
 20
7402.91903611286
 30
0.0
  0
POINT
  5
218B6
330
2035B
100
AcDbEntity
  8
DEFPOINTS
 62
     0
 48
50.0
100
AcDbPoint
 10
7187.190751772594
 20
7402.91903611286
 30
0.0
  0
ENDBLK
  5
20367
330
2035B
100
AcDbEntity
  8
0
 48
50.0
100
AcDbBlockEnd
  0
BLOCK
  5
217BE
330
217B2
100
AcDbEntity
  8
0
 48
50.0
100
AcDbBlockBegin
  2
*D24
 70
     1
 10
0.0
 20
0.0
 30
0.0
  3
*D24
  1

  0
LINE
  5
21861
330
217B2
100
AcDbEntity
  8
寸法
 62
     0
 48
50.0
370
    -2
100
AcDbLine
 10
7505.71715800978
 20
2225.624754568868
 30
0.0
 11
8752.12124036962
 21
2225.624754568868
 31
0.0
  0
LINE
  5
21862
330
217B2
100
AcDbEntity
  8
寸法
 62
     0
 48
50.0
370
    -2
100
AcDbLine
 10
7739.71715800978
 20
2159.674754568868
 30
0.0
 11
8752.12124036962
 21
2159.674754568868
 31
0.0
  0
LINE
  5
21863
330
217B2
100
AcDbEntity
  8
寸法
 62
     0
 48
50.0
370
    -2
100
AcDbLine
 10
8692.121240369619
 20
2225.624754568868
 30
0.0
 11
8692.121240369619
 21
2325.624754568868
 31
0.0
  0
LINE
  5
21864
330
217B2
100
AcDbEntity
  8
寸法
 62
     0
 48
50.0
370
    -2
100
AcDbLine
 10
8692.121240369619
 20
2159.674754568868
 30
0.0
 11
8692.121240369619
 21
1427.656947725902
 31
0.0
  0
LINE
  5
21865
330
217B2
100
AcDbEntity
  8
寸法
 62
     0
 48
50.0
370
    -2
100
AcDbLine
 10
8692.121240369619
 20
2225.624754568868
 30
0.0
 11
8692.121240369619
 21
2159.674754568868
 31
0.0
  0
INSERT
  5
21866
330
217B2
100
AcDbEntity
  8
寸法
 62
     0
 48
50.0
370
    -2
100
AcDbBlockReference
  2
_DOTSMALL
 10
8692.121240369619
 20
2225.624754568868
 30
0.0
 41
100.0
 42
100.0
 43
100.0
 50
270.0
  0
INSERT
  5
21867
330
217B2
100
AcDbEntity
  8
寸法
 62
     0
 48
50.0
370
    -2
100
AcDbBlockReference
  2
_DOTSMALL
 10
8692.121240369619
 20
2159.674754568868
 30
0.0
 41
100.0
 42
100.0
 43
100.0
 50
90.0
  0
MTEXT
  5
21868
330
217B2
100
AcDbEntity
  8
寸法
 62
     7
 48
50.0
100
AcDbMText
 10
8592.109429345997
 20
1693.665851147386
 30
0.0
 40
120.0
 41
0.0
 71
     5
 72
     1
  1
\A1;20～25
  7
STYLE1
 11
0.0000000000000001
 21
1.0
 31
0.0
 73
     1
 44
1.0
1001
ACAD
1000
MTEXTBEGIN
1070
    73
1070
     1
1070
    44
1040
1.0
1070
    74
1070
     0
1000
MTEXTEND
  0
POINT
  5
21869
330
217B2
100
AcDbEntity
  8
DEFPOINTS
 62
     0
 48
50.0
100
AcDbPoint
 10
7485.71715800978
 20
2225.624754568868
 30
0.0
  0
POINT
  5
2186A
330
217B2
100
AcDbEntity
  8
DEFPOINTS
 62
     0
 48
50.0
100
AcDbPoint
 10
7719.71715800978
 20
2159.674754568868
 30
0.0
  0
POINT
  5
2186B
330
217B2
100
AcDbEntity
  8
DEFPOINTS
 62
     0
 48
50.0
100
AcDbPoint
 10
8692.121240369619
 20
2159.674754568868
 30
0.0
  0
ENDBLK
  5
217BF
330
217B2
100
AcDbEntity
  8
0
 48
50.0
100
AcDbBlockEnd
  0
BLOCK
  5
217CA
330
217C0
100
AcDbEntity
  8
0
 48
50.0
100
AcDbBlockBegin
  2
*D25
 70
     1
 10
0.0
 20
0.0
 30
0.0
  3
*D25
  1

  0
LINE
  5
21858
330
217C0
100
AcDbEntity
  8
寸法
 62
     0
 48
50.0
370
    -2
100
AcDbLine
 10
7739.71715800978
 20
2159.674754568868
 30
0.0
 11
8407.052907720837
 21
2159.674754568868
 31
0.0
  0
LINE
  5
21859
330
217C0
100
AcDbEntity
  8
寸法
 62
     0
 48
50.0
370
    -2
100
AcDbLine
 10
7739.71715800978
 20
1754.674754568865
 30
0.0
 11
8407.052907720837
 21
1754.674754568865
 31
0.0
  0
LINE
  5
2185A
330
217C0
100
AcDbEntity
  8
寸法
 62
     0
 48
50.0
370
    -2
100
AcDbLine
 10
8347.052907720835
 20
2159.674754568868
 30
0.0
 11
8347.052907720835
 21
1754.674754568865
 31
0.0
  0
INSERT
  5
2185B
330
217C0
100
AcDbEntity
  8
寸法
 62
     0
 48
50.0
370
    -2
100
AcDbBlockReference
  2
_DOTSMALL
 10
8347.052907720835
 20
2159.674754568868
 30
0.0
 41
100.0
 42
100.0
 43
100.0
 50
90.0
  0
INSERT
  5
2185C
330
217C0
100
AcDbEntity
  8
寸法
 62
     0
 48
50.0
370
    -2
100
AcDbBlockReference
  2
_DOTSMALL
 10
8347.052907720835
 20
1754.674754568865
 30
0.0
 41
100.0
 42
100.0
 43
100.0
 50
270.0
  0
MTEXT
  5
2185D
330
217C0
100
AcDbEntity
  8
寸法
 62
     7
 48
50.0
100
AcDbMText
 10
8247.052907720835
 20
1957.174754568868
 30
0.0
 40
120.0
 41
0.0
 71
     5
 72
     1
  1
\A1;180
  7
STYLE1
 11
0.0000000000000001
 21
1.0
 31
0.0
 73
     1
 44
1.0
1001
ACAD
1000
MTEXTBEGIN
1070
    73
1070
     1
1070
    44
1040
1.0
1070
    74
1070
     0
1000
MTEXTEND
  0
POINT
  5
2185E
330
217C0
100
AcDbEntity
  8
DEFPOINTS
 62
     0
 48
50.0
100
AcDbPoint
 10
7719.71715800978
 20
2159.674754568868
 30
0.0
  0
POINT
  5
2185F
330
217C0
100
AcDbEntity
  8
DEFPOINTS
 62
     0
 48
50.0
100
AcDbPoint
 10
7719.71715800978
 20
1754.674754568865
 30
0.0
  0
POINT
  5
21860
330
217C0
100
AcDbEntity
  8
DEFPOINTS
 62
     0
 48
50.0
100
AcDbPoint
 10
8347.052907720835
 20
1754.674754568865
 30
0.0
  0
ENDBLK
  5
217CB
330
217C0
100
AcDbEntity
  8
0
 48
50.0
100
AcDbBlockEnd
  0
BLOCK
  5
217D6
330
217CC
100
AcDbEntity
  8
0
 48
50.0
100
AcDbBlockBegin
  2
*D26
 70
     1
 10
0.0
 20
0.0
 30
0.0
  3
*D26
  1

  0
LINE
  5
2184F
330
217CC
100
AcDbEntity
  8
寸法
 62
     0
 48
50.0
370
    -2
100
AcDbLine
 10
4917.168016538287
 20
999.6747545688663
 30
0.0
 11
4917.168016538287
 21
660.7226481129332
 31
0.0
  0
LINE
  5
21850
330
217CC
100
AcDbEntity
  8
寸法
 62
     0
 48
50.0
370
    -2
100
AcDbLine
 10
5477.168016538287
 20
999.6747545688663
 30
0.0
 11
5477.168016538287
 21
660.7226481129332
 31
0.0
  0
LINE
  5
21851
330
217CC
100
AcDbEntity
  8
寸法
 62
     0
 48
50.0
370
    -2
100
AcDbLine
 10
4917.168016538287
 20
720.7226481129332
 30
0.0
 11
5477.168016538287
 21
720.7226481129332
 31
0.0
  0
INSERT
  5
21852
330
217CC
100
AcDbEntity
  8
寸法
 62
     0
 48
50.0
370
    -2
100
AcDbBlockReference
  2
_DOTSMALL
 10
4917.168016538287
 20
720.7226481129332
 30
0.0
 41
100.0
 42
100.0
 43
100.0
 50
180.0
  0
INSERT
  5
21853
330
217CC
100
AcDbEntity
  8
寸法
 62
     0
 48
50.0
370
    -2
100
AcDbBlockReference
  2
_DOTSMALL
 10
5477.168016538287
 20
720.7226481129332
 30
0.0
 41
100.0
 42
100.0
 43
100.0
  0
MTEXT
  5
21854
330
217CC
100
AcDbEntity
  8
寸法
 62
     7
 48
50.0
100
AcDbMText
 10
5197.168016538287
 20
820.7226481129332
 30
0.0
 40
120.0
 41
0.0
 71
     5
 72
     1
  1
\A1;300
  7
STYLE1
 73
     1
 44
1.0
1001
ACAD
1000
MTEXTBEGIN
1070
    73
1070
     1
1070
    44
1040
1.0
1070
    74
1070
     0
1000
MTEXTEND
  0
POINT
  5
21855
330
217CC
100
AcDbEntity
  8
DEFPOINTS
 62
     0
 48
50.0
100
AcDbPoint
 10
4917.168016538287
 20
1019.674754568866
 30
0.0
  0
POINT
  5
21856
330
217CC
100
AcDbEntity
  8
DEFPOINTS
 62
     0
 48
50.0
100
AcDbPoint
 10
5477.168016538287
 20
1019.674754568866
 30
0.0
  0
POINT
  5
21857
330
217CC
100
AcDbEntity
  8
DEFPOINTS
 62
     0
 48
50.0
100
AcDbPoint
 10
5477.168016538287
 20
720.7226481129332
 30
0.0
  0
ENDBLK
  5
217D7
330
217CC
100
AcDbEntity
  8
0
 48
50.0
100
AcDbBlockEnd
  0
BLOCK
  5
217E2
330
217D8
100
AcDbEntity
  8
0
 48
50.0
100
AcDbBlockBegin
  2
*D27
 70
     1
 10
0.0
 20
0.0
 30
0.0
  3
*D27
  1

  0
LINE
  5
21846
330
217D8
100
AcDbEntity
  8
寸法
 62
     0
 48
50.0
370
    -2
100
AcDbLine
 10
5057.168016538287
 20
2159.674754568868
 30
0.0
 11
4256.523078502224
 21
2159.674754568868
 31
0.0
  0
LINE
  5
21847
330
217D8
100
AcDbEntity
  8
寸法
 62
     0
 48
50.0
370
    -2
100
AcDbLine
 10
4797.168016538291
 20
1179.674754568866
 30
0.0
 11
4256.523078502223
 21
1179.674754568866
 31
0.0
  0
LINE
  5
21848
330
217D8
100
AcDbEntity
  8
寸法
 62
     0
 48
50.0
370
    -2
100
AcDbLine
 10
4316.523078502224
 20
2159.674754568868
 30
0.0
 11
4316.523078502223
 21
1179.674754568866
 31
0.0
  0
INSERT
  5
21849
330
217D8
100
AcDbEntity
  8
寸法
 62
     0
 48
50.0
370
    -2
100
AcDbBlockReference
  2
_DOTSMALL
 10
4316.523078502224
 20
2159.674754568868
 30
0.0
 41
100.0
 42
100.0
 43
100.0
 50
90.0
  0
INSERT
  5
2184A
330
217D8
100
AcDbEntity
  8
寸法
 62
     0
 48
50.0
370
    -2
100
AcDbBlockReference
  2
_DOTSMALL
 10
4316.523078502223
 20
1179.674754568866
 30
0.0
 41
100.0
 42
100.0
 43
100.0
 50
270.0
  0
MTEXT
  5
2184B
330
217D8
100
AcDbEntity
  8
寸法
 62
     7
 48
50.0
100
AcDbMText
 10
4216.523078502222
 20
1669.674754568867
 30
0.0
 40
120.0
 41
0.0
 71
     5
 72
     1
  1
\A1;540
  7
STYLE1
 11
0.0000000000000001
 21
1.0
 31
0.0
 73
     1
 44
1.0
1001
ACAD
1000
MTEXTBEGIN
1070
    73
1070
     1
1070
    44
1040
1.0
1070
    74
1070
     0
1000
MTEXTEND
  0
POINT
  5
2184C
330
217D8
100
AcDbEntity
  8
DEFPOINTS
 62
     0
 48
50.0
100
AcDbPoint
 10
5077.168016538287
 20
2159.674754568868
 30
0.0
  0
POINT
  5
2184D
330
217D8
100
AcDbEntity
  8
DEFPOINTS
 62
     0
 48
50.0
100
AcDbPoint
 10
4817.168016538292
 20
1179.674754568866
 30
0.0
  0
POINT
  5
2184E
330
217D8
100
AcDbEntity
  8
DEFPOINTS
 62
     0
 48
50.0
100
AcDbPoint
 10
4316.523078502223
 20
1179.674754568866
 30
0.0
  0
ENDBLK
  5
217E3
330
217D8
100
AcDbEntity
  8
0
 48
50.0
100
AcDbBlockEnd
  0
BLOCK
  5
217EE
330
217E4
100
AcDbEntity
  8
0
 48
50.0
100
AcDbBlockBegin
  2
*D28
 70
     1
 10
0.0
 20
0.0
 30
0.0
  3
*D28
  1

  0
LINE
  5
2183D
330
217E4
100
AcDbEntity
  8
寸法
 62
     0
 48
50.0
370
    -2
100
AcDbLine
 10
4897.168016538287
 20
1479.674754568866
 30
0.0
 11
4679.142624372713
 21
1479.674754568866
 31
0.0
  0
LINE
  5
2183E
330
217E4
100
AcDbEntity
  8
寸法
 62
     0
 48
50.0
370
    -2
100
AcDbLine
 10
4797.168016538291
 20
1179.674754568866
 30
0.0
 11
4679.142624372713
 21
1179.674754568866
 31
0.0
  0
LINE
  5
2183F
330
217E4
100
AcDbEntity
  8
寸法
 62
     0
 48
50.0
370
    -2
100
AcDbLine
 10
4739.142624372713
 20
1479.674754568866
 30
0.0
 11
4739.142624372713
 21
1179.674754568866
 31
0.0
  0
INSERT
  5
21840
330
217E4
100
AcDbEntity
  8
寸法
 62
     0
 48
50.0
370
    -2
100
AcDbBlockReference
  2
_DOTSMALL
 10
4739.142624372713
 20
1479.674754568866
 30
0.0
 41
100.0
 42
100.0
 43
100.0
 50
90.0
  0
INSERT
  5
21841
330
217E4
100
AcDbEntity
  8
寸法
 62
     0
 48
50.0
370
    -2
100
AcDbBlockReference
  2
_DOTSMALL
 10
4739.142624372713
 20
1179.674754568866
 30
0.0
 41
100.0
 42
100.0
 43
100.0
 50
270.0
  0
MTEXT
  5
21842
330
217E4
100
AcDbEntity
  8
寸法
 62
     7
 48
50.0
100
AcDbMText
 10
4639.142624372713
 20
1329.674754568866
 30
0.0
 40
120.0
 41
0.0
 71
     5
 72
     1
  1
\A1;150
  7
STYLE1
 11
0.0000000000000001
 21
1.0
 31
0.0
 73
     1
 44
1.0
1001
ACAD
1000
MTEXTBEGIN
1070
    73
1070
     1
1070
    44
1040
1.0
1070
    74
1070
     0
1000
MTEXTEND
  0
POINT
  5
21843
330
217E4
100
AcDbEntity
  8
DEFPOINTS
 62
     0
 48
50.0
100
AcDbPoint
 10
4917.168016538287
 20
1479.674754568866
 30
0.0
  0
POINT
  5
21844
330
217E4
100
AcDbEntity
  8
DEFPOINTS
 62
     0
 48
50.0
100
AcDbPoint
 10
4817.168016538292
 20
1179.674754568866
 30
0.0
  0
POINT
  5
21845
330
217E4
100
AcDbEntity
  8
DEFPOINTS
 62
     0
 48
50.0
100
AcDbPoint
 10
4739.142624372713
 20
1179.674754568866
 30
0.0
  0
ENDBLK
  5
217EF
330
217E4
100
AcDbEntity
  8
0
 48
50.0
100
AcDbBlockEnd
  0
BLOCK
  5
217FA
330
217F0
100
AcDbEntity
  8
0
 48
50.0
100
AcDbBlockBegin
  2
*D29
 70
     1
 10
0.0
 20
0.0
 30
0.0
  3
*D29
  1

  0
LINE
  5
21834
330
217F0
100
AcDbEntity
  8
寸法
 62
     0
 48
50.0
370
    -2
100
AcDbLine
 10
5317.168016538286
 20
2179.674754568868
 30
0.0
 11
5317.168016538286
 21
2744.259514464343
 31
0.0
  0
LINE
  5
21835
330
217F0
100
AcDbEntity
  8
寸法
 62
     0
 48
50.0
370
    -2
100
AcDbLine
 10
5077.168016538287
 20
2179.674754568868
 30
0.0
 11
5077.168016538287
 21
2744.259514464343
 31
0.0
  0
LINE
  5
21836
330
217F0
100
AcDbEntity
  8
寸法
 62
     0
 48
50.0
370
    -2
100
AcDbLine
 10
5317.168016538286
 20
2684.259514464343
 30
0.0
 11
5077.168016538287
 21
2684.259514464343
 31
0.0
  0
INSERT
  5
21837
330
217F0
100
AcDbEntity
  8
寸法
 62
     0
 48
50.0
370
    -2
100
AcDbBlockReference
  2
_DOTSMALL
 10
5317.168016538286
 20
2684.259514464343
 30
0.0
 41
100.0
 42
100.0
 43
100.0
  0
INSERT
  5
21838
330
217F0
100
AcDbEntity
  8
寸法
 62
     0
 48
50.0
370
    -2
100
AcDbBlockReference
  2
_DOTSMALL
 10
5077.168016538287
 20
2684.259514464343
 30
0.0
 41
100.0
 42
100.0
 43
100.0
 50
180.0
  0
MTEXT
  5
21839
330
217F0
100
AcDbEntity
  8
寸法
 62
     7
 48
50.0
100
AcDbMText
 10
5197.168016538287
 20
2884.271325487965
 30
0.0
 40
120.0
 41
0.0
 71
     5
 72
     1
  1
\A1;120\P170
  7
STYLE1
 73
     1
 44
1.0
1001
ACAD
1000
MTEXTBEGIN
1070
    73
1070
     1
1070
    44
1040
1.0
1070
    74
1070
     0
1000
MTEXTEND
  0
POINT
  5
2183A
330
217F0
100
AcDbEntity
  8
DEFPOINTS
 62
     0
 48
50.0
100
AcDbPoint
 10
5317.168016538286
 20
2159.674754568868
 30
0.0
  0
POINT
  5
2183B
330
217F0
100
AcDbEntity
  8
DEFPOINTS
 62
     0
 48
50.0
100
AcDbPoint
 10
5077.168016538287
 20
2159.674754568868
 30
0.0
  0
POINT
  5
2183C
330
217F0
100
AcDbEntity
  8
DEFPOINTS
 62
     0
 48
50.0
100
AcDbPoint
 10
5077.168016538287
 20
2684.259514464343
 30
0.0
  0
ENDBLK
  5
217FB
330
217F0
100
AcDbEntity
  8
0
 48
50.0
100
AcDbBlockEnd
  0
BLOCK
  5
21883
330
21877
100
AcDbEntity
  8
0
 48
50.0
100
AcDbBlockBegin
  2
*D30
 70
     1
 10
0.0
 20
0.0
 30
0.0
  3
*D30
  1

  0
LINE
  5
218A4
330
21877
100
AcDbEntity
  8
寸法
 62
     0
 48
50.0
370
    -2
100
AcDbLine
 10
8729.514259514152
 20
7272.919036112859
 30
0.0
 11
8729.514259514152
 21
6924.422404093454
 31
0.0
  0
LINE
  5
218A5
330
21877
100
AcDbEntity
  8
寸法
 62
     0
 48
50.0
370
    -2
100
AcDbLine
 10
8839.51425951415
 20
7272.919036112861
 30
0.0
 11
8839.51425951415
 21
6924.422404093454
 31
0.0
  0
LINE
  5
218A6
330
21877
100
AcDbEntity
  8
寸法
 62
     0
 48
50.0
370
    -2
100
AcDbLine
 10
8729.514259514152
 20
6984.422404093454
 30
0.0
 11
8839.51425951415
 21
6984.422404093454
 31
0.0
  0
MTEXT
  5
218A7
330
21877
100
AcDbEntity
  8
寸法
 62
     7
 48
50.0
100
AcDbMText
 10
8705.716390152193
 20
6888.321676919386
 30
0.0
 40
120.0
 41
0.0
 71
     5
 72
     1
  1
\A1;110
  7
STYLE1
 73
     1
 44
1.0
1001
ACAD
1000
MTEXTBEGIN
1070
    73
1070
     1
1070
    44
1040
1.0
1070
    74
1070
     0
1000
MTEXTEND
  0
INSERT
  5
218A8
330
21877
100
AcDbEntity
  8
寸法
 62
     0
 48
50.0
370
    -2
100
AcDbBlockReference
  2
_DOTSMALL
 10
8729.514259514152
 20
6984.422404093454
 30
0.0
 41
100.0
 42
100.0
 43
100.0
 50
180.0
  0
INSERT
  5
218A9
330
21877
100
AcDbEntity
  8
寸法
 62
     0
 48
50.0
370
    -2
100
AcDbBlockReference
  2
_DOTSMALL
 10
8839.51425951415
 20
6984.422404093454
 30
0.0
 41
100.0
 42
100.0
 43
100.0
  0
POINT
  5
218AA
330
21877
100
AcDbEntity
  8
DEFPOINTS
 62
     0
 48
50.0
100
AcDbPoint
 10
8729.514259514152
 20
7292.919036112859
 30
0.0
  0
POINT
  5
218AB
330
21877
100
AcDbEntity
  8
DEFPOINTS
 62
     0
 48
50.0
100
AcDbPoint
 10
8839.51425951415
 20
7292.919036112862
 30
0.0
  0
POINT
  5
218AC
330
21877
100
AcDbEntity
  8
DEFPOINTS
 62
     0
 48
50.0
100
AcDbPoint
 10
8839.51425951415
 20
6984.422404093454
 30
0.0
  0
ENDBLK
  5
21884
330
21877
100
AcDbEntity
  8
0
 48
50.0
100
AcDbBlockEnd
  0
ENDSEC
  0
SECTION
  2
ENTITIES
  0
LINE
  5
10B57
330
747D
100
AcDbEntity
  8
補助
  6
PHANTOM
 62
   230
 48
50.0
100
AcDbLine
 10
139.9999999999995
 20
11409.6
 30
0.0
 11
16307.2
 21
11409.6
 31
0.0
  0
LINE
  5
10B59
330
747D
100
AcDbEntity
  8
仕様書枠
  6
Continuous
 48
50.0
100
AcDbLine
 10
13107.2
 20
1200.0
 30
0.0
 11
13107.2
 21
-0.0000000000000729
 31
0.0
  0
LINE
  5
10B5C
330
747D
100
AcDbEntity
  8
仕様書枠
 48
50.0
100
AcDbLine
 10
16307.2
 20
1200.0
 30
0.0
 11
16307.2
 21
-0.0000000000000909
 31
0.0
  0
LINE
  5
10B5D
330
747D
100
AcDbEntity
  8
仕様書枠
 48
50.0
100
AcDbLine
 10
140.0
 20
0.0
 30
0.0
 11
16307.2
 21
-0.0000000000000909
 31
0.0
  0
LINE
  5
10B5E
330
747D
100
AcDbEntity
  8
補助
  6
PHANTOM
 62
   230
 48
50.0
100
AcDbLine
 10
16307.2
 20
11409.6
 30
0.0
 11
16307.2
 21
1200.0
 31
0.0
  0
LINE
  5
10B6C
330
747D
100
AcDbEntity
  8
仕様書枠
 48
50.0
100
AcDbLine
 10
13107.2
 20
1200.0
 30
0.0
 11
16307.2
 21
1200.0
 31
0.0
  0
LINE
  5
10B6D
330
747D
100
AcDbEntity
  8
補助
  6
PHANTOM
 62
   230
 48
50.0
100
AcDbLine
 10
13107.2
 20
11409.6
 30
0.0
 11
13107.2
 21
4800.0
 31
0.0
  0
LINE
  5
10B6F
330
747D
100
AcDbEntity
  8
補助
  6
PHANTOM
 62
   230
 48
50.0
100
AcDbLine
 10
13107.2
 20
4800.0
 30
0.0
 11
16307.2
 21
4800.0
 31
0.0
  0
LINE
  5
10B72
330
747D
100
AcDbEntity
  8
文字
 62
     7
 48
50.0
100
AcDbLine
 10
13187.2
 20
400.0
 30
0.0
 11
16227.2
 21
400.0
 31
0.0
  0
TEXT
  5
10B73
330
747D
100
AcDbEntity
  8
文字
 62
     7
 48
50.0
100
AcDbText
 10
13162.9790565769
 20
895.0906074299405
 30
0.0
 40
200.0
  1
基 礎 図
  7
STYLE2
100
AcDbText
  0
TEXT
  5
10B74
330
747D
100
AcDbEntity
  8
文字
 62
     7
 48
50.0
100
AcDbText
 10
13201.43669998441
 20
477.2740661031255
 30
0.0
 40
160.0
  1
機種名
  7
STYLE2
100
AcDbText
  0
LINE
  5
10B7B
330
747D
100
AcDbEntity
  8
仕様書枠
 48
50.0
100
AcDbLine
 10
13107.2
 20
800.0
 30
0.0
 11
14251.2
 21
800.0
 31
0.0
  0
LINE
  5
10B88
330
747D
100
AcDbEntity
  8
仕様書枠
  6
Continuous
 48
50.0
100
AcDbLine
 10
14251.2
 20
1200.0
 30
0.0
 11
14251.2
 21
800.0
 31
0.0
  0
TEXT
  5
14DEF
330
747D
100
AcDbEntity
  8
文字
 62
     7
 48
50.0
100
AcDbText
 10
14641.2525855784
 20
871.1744590657925
 30
0.0
 40
100.0
  1
～一般型・多雪地型～
  7
STYLE2
100
AcDbText
  0
TEXT
  5
15A76
330
747D
100
AcDbEntity
  8
文字
 62
     7
 48
50.0
100
AcDbText
 10
14483.56764462811
 20
483.8967129911411
 30
0.0
 40
160.0
  1
ＮＸＮ－４０Ｓ・H
  7
STYLE2
100
AcDbText
  0
TEXT
  5
1D002
330
747D
100
AcDbEntity
  8
文字
 62
     7
 48
50.0
100
AcDbText
 10
13188.16259899338
 20
246.7109242801889
 30
0.0
 40
80.0
  1
※寒冷地等は地域の実情に合わせた基礎にして下さい。
  7
STYLE2
100
AcDbText
  0
DIMENSION
  5
1D91B
330
747D
100
AcDbEntity
  8
寸法
 48
50.0
100
AcDbDimension
  2
*D2
 10
7186.22150939025
 20
6022.919036112863
 30
0.0
 11
7186.221509390249
 21
6258.966280207353
 31
0.0
 70
   160
 71
     5
 42
130.0000000000018
  3
INABA_S40G
100
AcDbAlignedDimension
 13
6969.514259514152
 23
5892.919036112861
 33
0.0
 14
6969.514259514152
 24
6022.919036112863
 34
0.0
 50
90.0
100
AcDbRotatedDimension
1001
ACAD
1000
DSTYLE
1002
{
1070
   174
1070
     0
1070
   272
1070
     1
1070
   288
1070
     0
1070
   341
1005
0
1002
}
  0
DIMENSION
  5
1D91C
330
747D
100
AcDbEntity
  8
寸法
 48
50.0
100
AcDbDimension
  2
*D3
 10
7186.22150939025
 20
5722.919036112862
 30
0.0
 11
7186.221509390249
 21
5486.871792018373
 31
0.0
 70
   160
 71
     5
 42
170.0000000000018
  3
INABA_S40G
100
AcDbAlignedDimension
 13
6969.514259514152
 23
5892.919036112863
 33
0.0
 14
6969.514259514152
 24
5722.919036112862
 34
0.0
 50
90.0
100
AcDbRotatedDimension
1001
ACAD
1000
DSTYLE
1002
{
1070
   174
1070
     0
1070
   272
1070
     1
1070
   288
1070
     0
1070
   341
1005
0
1002
}
  0
DIMENSION
  5
1D91D
330
747D
100
AcDbEntity
  8
寸法
 48
50.0
100
AcDbDimension
  2
*D4
 10
6862.514259514151
 20
8276.250847072711
 30
0.0
 11
7849.514259514151
 21
8376.250847072711
 31
0.0
 70
    32
 71
     5
 42
1974.0
  3
INABA_S40G
100
AcDbAlignedDimension
 13
8836.514259514151
 23
7449.919036112861
 33
0.0
 14
6862.514259514151
 24
7449.919036112861
 34
0.0
100
AcDbRotatedDimension
1001
ACAD
1000
DSTYLE
1002
{
1070
   174
1070
     0
1070
   272
1070
     1
1070
   288
1070
     0
1070
   341
1005
0
1002
}
  0
LINE
  5
1D91E
330
747D
100
AcDbEntity
  8
部品1
 48
50.0
100
AcDbLine
 10
8729.514259514152
 20
5892.919036112876
 30
0.0
 11
6969.514259514152
 21
5892.91903611286
 31
0.0
  0
LINE
  5
1D91F
330
747D
100
AcDbEntity
  8
部品1
 48
50.0
100
AcDbLine
 10
8729.514259514152
 20
7402.919036112859
 30
0.0
 11
6969.51425951415
 21
7402.91903611286
 31
0.0
  0
DIMENSION
  5
1D920
330
747D
100
AcDbEntity
  8
寸法
 48
50.0
100
AcDbDimension
  2
*D5
 10
8959.514259514151
 20
8488.711542589548
 30
0.0
 11
7849.51425951415
 21
8588.72335361317
 31
0.0
 70
    32
 71
     5
 42
2220.000000000002
  3
INABA_S40G
100
AcDbAlignedDimension
 13
6739.514259514149
 23
7522.919036112859
 33
0.0
 14
8959.514259514151
 24
7522.919036112861
 34
0.0
100
AcDbRotatedDimension
1001
ACAD
1000
DSTYLE
1002
{
1070
   174
1070
     0
1070
   272
1070
     1
1070
   288
1070
     0
1070
   341
1005
0
1002
}
  0
LINE
  5
1D921
330
747D
100
AcDbEntity
  8
部品1
 48
50.0
100
AcDbLine
 10
8959.514259514151
 20
5722.919036112878
 30
0.0
 11
6742.514259514151
 21
5722.919036112855
 31
0.0
  0
LINE
  5
1D922
330
747D
100
AcDbEntity
  8
部品1
 48
50.0
100
AcDbLine
 10
8959.514259514151
 20
7522.919036112863
 30
0.0
 11
6739.514259514153
 21
7522.91903611286
 31
0.0
  0
LINE
  5
1D923
330
747D
100
AcDbEntity
  8
想像線
 48
10.0
100
AcDbLine
 10
9004.51425951415
 20
5667.919036112856
 30
0.0
 11
6697.514259514154
 21
5667.919036112861
 31
0.0
  0
LINE
  5
1D924
330
747D
100
AcDbEntity
  8
想像線
 48
10.0
100
AcDbLine
 10
6697.514259514154
 20
7597.91903611286
 30
0.0
 11
9004.514259514149
 21
7597.919036112864
 31
0.0
  0
DIMENSION
  5
1D925
330
747D
100
AcDbEntity
  8
寸法
 48
50.0
100
AcDbDimension
  2
*D6
 10
6739.514259514149
 20
8276.250847072711
 30
0.0
 11
6501.028978139911
 21
8276.250847072711
 31
0.0
 70
   160
 71
     5
 42
123.0000000000018
  3
INABA_S40G
100
AcDbAlignedDimension
 13
6862.514259514151
 23
7449.919036112861
 33
0.0
 14
6739.514259514149
 24
7522.919036112859
 34
0.0
100
AcDbRotatedDimension
1001
ACAD
1000
DSTYLE
1002
{
1070
   174
1070
     0
1070
   272
1070
     1
1070
   288
1070
     0
1070
   341
1005
0
1002
}
  0
DIMENSION
  5
1D926
330
747D
100
AcDbEntity
  8
寸法
 48
50.0
100
AcDbDimension
  2
*D7
 10
6739.514259514152
 20
8488.71154258955
 30
0.0
 11
6717.01425951415
 21
8488.71154258955
 31
0.0
 70
   160
  1
a
 71
     5
 42
45.00000000000364
  3
INABA_S40G
100
AcDbAlignedDimension
 13
6694.514259514147
 23
8276.250847072711
 33
0.0
 14
6739.514259514152
 24
7671.190236682781
 34
0.0
100
AcDbRotatedDimension
1001
ACAD
1000
DSTYLE
1002
{
1070
   174
1070
     0
1070
   272
1070
     1
1070
   288
1070
     0
1070
   341
1005
0
1002
}
  0
DIMENSION
  5
1D927
330
747D
100
AcDbEntity
  8
寸法
 48
50.0
100
AcDbDimension
  2
*D8
 10
6243.571993500331
 20
5920.919036112861
 30
0.0
 11
6243.57199350033
 21
6634.05280691343
 31
0.0
 70
   160
 71
     5
 42
1478.999999999999
  3
INABA_S40G
100
AcDbAlignedDimension
 13
6812.514259514151
 23
7399.919036112861
 33
0.0
 14
6812.514259514159
 24
5920.919036112861
 34
0.0
 50
90.0
100
AcDbRotatedDimension
1001
ACAD
1000
DSTYLE
1002
{
1070
   174
1070
     0
1070
   272
1070
     1
1070
   288
1070
     0
1070
   341
1005
0
1002
}
  0
LINE
  5
1D928
330
747D
100
AcDbEntity
  8
部品1
 48
50.0
100
AcDbLine
 10
6859.514259514153
 20
6022.919036112861
 30
0.0
 11
6859.514259514151
 21
7292.919036112859
 31
0.0
  0
DIMENSION
  5
1D929
330
747D
100
AcDbEntity
  8
寸法
 48
50.0
100
AcDbDimension
  2
*D9
 10
5998.079191362364
 20
5722.91903611286
 30
0.0
 11
5998.079191362363
 21
6651.31453344319
 31
0.0
 70
   160
 71
     5
 42
1800.000000000003
  3
INABA_S40G
100
AcDbAlignedDimension
 13
6739.514259514149
 23
7522.919036112863
 33
0.0
 14
6739.514259514152
 24
5722.919036112859
 34
0.0
 50
90.0
100
AcDbRotatedDimension
1001
ACAD
1000
DSTYLE
1002
{
1070
   174
1070
     0
1070
   272
1070
     1
1070
   288
1070
     0
1070
   341
1005
0
1002
}
  0
LINE
  5
1D92A
330
747D
100
AcDbEntity
  8
部品1
 48
50.0
100
AcDbLine
 10
6739.514259514151
 20
5725.919036112856
 30
0.0
 11
6739.514259514153
 21
7522.91903611286
 31
0.0
  0
LINE
  5
1D92B
330
747D
100
AcDbEntity
  8
想像線
 48
10.0
100
AcDbLine
 10
6694.514259514154
 20
5670.919036112861
 30
0.0
 11
6694.514259514154
 21
7594.91903611286
 31
0.0
  0
DIMENSION
  5
1D92C
330
747D
100
AcDbEntity
  8
寸法
 48
50.0
100
AcDbDimension
  2
*D10
 10
6243.571993500331
 20
5722.919036112859
 30
0.0
 11
6243.57199350033
 21
5486.709376283204
 31
0.0
 70
   160
 71
     5
 42
198.0000000000018
  3
INABA_S40G
100
AcDbAlignedDimension
 13
6812.514259514159
 23
5920.919036112861
 33
0.0
 14
6739.514259514152
 24
5722.919036112859
 34
0.0
 50
90.0
100
AcDbRotatedDimension
1001
ACAD
1000
DSTYLE
1002
{
1070
   174
1070
     0
1070
   272
1070
     1
1070
   288
1070
     0
1070
   341
1005
0
1002
}
  0
DIMENSION
  5
1D92D
330
747D
100
AcDbEntity
  8
寸法
 48
50.0
100
AcDbDimension
  2
*D11
 10
5998.079191362364
 20
5667.91903611286
 30
0.0
 11
5998.079191362363
 21
5695.419036112861
 31
0.0
 70
   160
  1
b
 71
     5
 42
55.0
  3
INABA_S40G
100
AcDbAlignedDimension
 13
6739.514259514152
 23
5722.919036112859
 33
0.0
 14
6243.571993500331
 24
5667.919036112859
 34
0.0
 50
90.0
100
AcDbRotatedDimension
1001
ACAD
1000
DSTYLE
1002
{
1070
   174
1070
     0
1070
   272
1070
     1
1070
   288
1070
     0
1070
   341
1005
0
1002
}
  0
LINE
  5
1D92E
330
747D
100
AcDbEntity
  8
センター
 48
2.0
100
AcDbLine
 10
6862.51425951416
 20
5970.919036112861
 30
0.0
 11
6862.51425951416
 21
5870.919036112861
 31
0.0
  0
LINE
  5
1D92F
330
747D
100
AcDbEntity
  8
センター
 48
2.0
100
AcDbLine
 10
6812.514259514159
 20
5920.919036112861
 30
0.0
 11
6912.51425951416
 21
5920.919036112861
 31
0.0
  0
CIRCLE
  5
1D930
330
747D
100
AcDbEntity
  8
部品1
 48
50.0
100
AcDbCircle
 10
6862.51425951416
 20
5920.919036112861
 30
0.0
 40
35.0
  0
LINE
  5
1D931
330
747D
100
AcDbEntity
  8
部品1
 48
50.0
100
AcDbLine
 10
6969.514259514152
 20
6022.919036112863
 30
0.0
 11
6859.514259514151
 21
6022.919036112861
 31
0.0
  0
LINE
  5
1D932
330
747D
100
AcDbEntity
  8
部品1
 48
50.0
100
AcDbLine
 10
6969.514259514152
 20
5892.91903611286
 30
0.0
 11
6969.514259514152
 21
6022.919036112863
 31
0.0
  0
DIMENSION
  5
1D933
330
747D
100
AcDbEntity
  8
寸法
 48
50.0
100
AcDbDimension
  2
*D12
 10
6243.57199350033
 20
7399.919036112861
 30
0.0
 11
6243.571993500329
 21
7761.4043174871
 31
0.0
 70
   160
 71
     5
 42
123.0
  3
INABA_S40G
100
AcDbAlignedDimension
 13
6739.514259514152
 23
7522.91903611286
 33
0.0
 14
6812.514259514151
 24
7399.919036112861
 34
0.0
 50
90.0
100
AcDbRotatedDimension
1001
ACAD
1000
DSTYLE
1002
{
1070
   174
1070
     0
1070
   272
1070
     1
1070
   288
1070
     0
1070
   341
1005
0
1002
}
  0
DIMENSION
  5
1D934
330
747D
100
AcDbEntity
  8
寸法
 48
50.0
100
AcDbDimension
  2
*D13
 10
5998.079191362363
 20
7522.919036112861
 30
0.0
 11
5998.079191362362
 21
7560.419036112863
 31
0.0
 70
   160
  1
c
 71
     5
 42
75.0
  3
INABA_S40G
100
AcDbAlignedDimension
 13
6243.571993500331
 23
7597.91903611286
 33
0.0
 14
6739.514259514152
 24
7522.91903611286
 34
0.0
 50
90.0
100
AcDbRotatedDimension
1001
ACAD
1000
DSTYLE
1002
{
1070
   174
1070
     0
1070
   272
1070
     1
1070
   288
1070
     0
1070
   341
1005
0
1002
}
  0
LINE
  5
1D935
330
747D
100
AcDbEntity
  8
部品1
 48
50.0
100
AcDbLine
 10
6859.514259514153
 20
6722.919036112862
 30
0.0
 11
6739.514259514153
 21
6722.91903611286
 31
0.0
  0
LINE
  5
1D936
330
747D
100
AcDbEntity
  8
部品1
 48
50.0
100
AcDbLine
 10
6859.514259514153
 20
6522.91903611286
 30
0.0
 11
6739.514259514153
 21
6522.91903611286
 31
0.0
  0
LINE
  5
1D938
330
747D
100
AcDbEntity
  8
センター
 48
2.0
100
AcDbLine
 10
6862.514259514151
 20
7449.919036112861
 30
0.0
 11
6862.514259514151
 21
7349.919036112861
 31
0.0
  0
LINE
  5
1D939
330
747D
100
AcDbEntity
  8
センター
 48
2.0
100
AcDbLine
 10
6812.514259514151
 20
7399.919036112861
 30
0.0
 11
6912.514259514151
 21
7399.919036112861
 31
0.0
  0
CIRCLE
  5
1D93A
330
747D
100
AcDbEntity
  8
部品1
 48
50.0
100
AcDbCircle
 10
6862.514259514151
 20
7399.919036112861
 30
0.0
 40
35.0
  0
LINE
  5
1D93B
330
747D
100
AcDbEntity
  8
部品1
 48
50.0
100
AcDbLine
 10
6969.514259514152
 20
7292.919036112856
 30
0.0
 11
6859.514259514149
 21
7292.919036112857
 31
0.0
  0
LINE
  5
1D93C
330
747D
100
AcDbEntity
  8
部品1
 48
50.0
100
AcDbLine
 10
6969.514259514152
 20
7292.919036112856
 30
0.0
 11
6969.51425951415
 21
7402.91903611286
 31
0.0
  0
DIMENSION
  5
1D93E
330
747D
100
AcDbEntity
  8
寸法
 48
50.0
100
AcDbDimension
  2
*D14
 10
8836.514259514151
 20
8276.250847072711
 30
0.0
 11
9197.999540888389
 21
8276.250847072711
 31
0.0
 70
   160
 71
     5
 42
123.0
  3
INABA_S40G
100
AcDbAlignedDimension
 13
8959.514259514151
 23
7522.919036112861
 33
0.0
 14
8836.514259514151
 24
7449.919036112861
 34
0.0
100
AcDbRotatedDimension
1001
ACAD
1000
DSTYLE
1002
{
1070
   174
1070
     0
1070
   272
1070
     1
1070
   288
1070
     0
1070
   341
1005
0
1002
}
  0
DIMENSION
  5
1D93F
330
747D
100
AcDbEntity
  8
寸法
 48
50.0
100
AcDbDimension
  2
*D15
 10
9004.51425951415
 20
8488.711542589548
 30
0.0
 11
8982.014259514151
 21
8488.711542589548
 31
0.0
 70
   160
  1
a
 71
     5
 42
45.0
  3
INABA_S40G
100
AcDbAlignedDimension
 13
8959.514259514151
 23
7671.190236682781
 33
0.0
 14
9004.51425951415
 24
8276.250847072711
 34
0.0
100
AcDbRotatedDimension
1001
ACAD
1000
DSTYLE
1002
{
1070
   174
1070
     0
1070
   272
1070
     1
1070
   288
1070
     0
1070
   341
1005
0
1002
}
  0
DIMENSION
  5
1D942
330
747D
100
AcDbEntity
  8
寸法
 48
50.0
100
AcDbDimension
  2
*D16
 10
8839.514259514151
 20
6984.422404093454
 30
0.0
 11
9195.56150360864
 21
6984.422404093454
 31
0.0
 70
   160
 71
     5
 42
120.0
  3
INABA_S40G
100
AcDbAlignedDimension
 13
8959.514259514151
 23
7042.919036112869
 33
0.0
 14
8839.514259514151
 24
7046.308840600305
 34
0.0
100
AcDbRotatedDimension
1001
ACAD
1000
DSTYLE
1002
{
1070
   174
1070
     0
1070
   272
1070
     1
1070
   288
1070
     0
1070
   341
1005
0
1002
}
  0
TEXT
  5
1D943
330
747D
100
AcDbEntity
  8
部品1
 48
50.0
100
AcDbText
 10
9046.334326192553
 20
5028.032239333586
 30
0.0
 40
80.0
  1
(a=45,b=55,c=75)
  7
STYLE1
100
AcDbText
  0
TEXT
  5
1D944
330
747D
100
AcDbEntity
  8
部品1
 48
50.0
100
AcDbText
 10
8976.45743858767
 20
5147.763285486725
 30
0.0
 40
80.0
  1
※a,b,cは屋根の出幅です。
  7
STYLE1
100
AcDbText
  0
MTEXT
  5
1D945
102
{ACAD_REACTORS
330
1D946
102
}
330
747D
100
AcDbEntity
  8
部品1
 62
     7
 48
50.0
100
AcDbMText
 10
9841.640034052471
 20
5371.901644153068
 30
0.0
 40
120.0
 41
0.0
 71
     6
 72
     1
  1
\A1;屋根の外寸
  7
STYLE1
 73
     1
 44
1.0
1001
ACAD
1000
MTEXTBEGIN
1070
    73
1070
     1
1070
    44
1040
1.0
1070
    74
1070
     0
1000
MTEXTEND
  0
LEADER
  5
1D946
330
747D
100
AcDbEntity
  8
寸法
 48
50.0
100
AcDbLeader
  3
INABA_S50G
 71
     0
 73
     0
 74
     0
 75
     1
 40
120.0
 41
672.0
 76
     3
 10
8771.402847447978
 20
5666.919036112859
 30
0.0
 10
9019.64003405247
 20
5286.901644153068
 30
0.0
 10
9144.64003405247
 20
5286.901644153068
 30
0.0
340
1D945
1001
ACAD
1000
DSTYLE
1002
{
1070
   341
1005
1C530
1070
    40
1040
1.0
1070
   343
1005
1C530
1070
   344
1005
1C530
1002
}
  0
LINE
  5
1D949
330
747D
100
AcDbEntity
  8
部品1
 48
50.0
100
AcDbLine
 10
8839.514259514151
 20
6022.919036112879
 30
0.0
 11
8839.51425951415
 21
7292.919036112862
 31
0.0
  0
LINE
  5
1D94A
330
747D
100
AcDbEntity
  8
部品1
 48
50.0
100
AcDbLine
 10
8959.514259514151
 20
5722.919036112878
 30
0.0
 11
8959.514259514151
 21
7522.919036112863
 31
0.0
  0
LINE
  5
1D94B
330
747D
100
AcDbEntity
  8
想像線
 48
10.0
100
AcDbLine
 10
9004.514259514149
 20
7597.919036112864
 30
0.0
 11
9004.514259514156
 21
5667.919036112859
 31
0.0
  0
TEXT
  5
1D94C
330
747D
100
AcDbEntity
  8
部品1
 48
50.0
100
AcDbText
 10
7721.51425951416
 20
5461.4665347094
 30
0.0
 40
120.0
  1
扉面
  7
STYLE1
 72
     1
 11
7849.51425951416
 21
5445.4665347094
 31
0.0
100
AcDbText
 73
     1
  0
HATCH
  5
1D94E
330
747D
100
AcDbEntity
  8
細線
 48
50.0
100
AcDbHatch
 10
0.0
 20
0.0
 30
0.0
210
0.0
220
0.0
230
1.0
  2
LINE
 70
     0
 71
     0
 91
        1
 92
        7
 72
     0
 73
     1
 93
        4
 10
7949.514259514174
 20
5722.919036112869
 10
7949.514259514174
 20
5892.919036112867
 10
7749.514259514175
 20
5892.919036112864
 10
7749.514259514175
 20
5722.919036112863
 97
        0
 75
     0
 76
     1
 52
45.0
 41
10.0
 77
     0
 78
     1
 53
45.0
 43
4246.402698527651
 44
-5428.622518963429
 45
-22.45064030267288
 46
22.45064030267288
 79
     0
 47
2.903594399684136
 98
        1
 10
7862.62425951726
 20
5761.946091545308
  0
LINE
  5
1D94F
330
747D
100
AcDbEntity
  8
部品1
 48
50.0
100
AcDbLine
 10
7749.514259514175
 20
5722.919036112869
 30
0.0
 11
7749.514259514175
 21
5892.919036112863
 31
0.0
  0
LINE
  5
1D950
330
747D
100
AcDbEntity
  8
部品1
 48
50.0
100
AcDbLine
 10
7949.514259514174
 20
5722.919036112869
 30
0.0
 11
7949.514259514174
 21
5892.919036112867
 31
0.0
  0
LINE
  5
1D951
330
747D
100
AcDbEntity
  8
センター
 48
2.0
100
AcDbLine
 10
8786.514259514159
 20
5920.919036112861
 30
0.0
 11
8886.514259514159
 21
5920.919036112861
 31
0.0
  0
CIRCLE
  5
1D952
330
747D
100
AcDbEntity
  8
部品1
 48
50.0
100
AcDbCircle
 10
8836.514259514158
 20
5920.919036112861
 30
0.0
 40
35.0
  0
LINE
  5
1D953
330
747D
100
AcDbEntity
  8
部品1
 48
50.0
100
AcDbLine
 10
8839.51425951415
 20
6022.919036112877
 30
0.0
 11
8729.514259514152
 21
6022.919036112877
 31
0.0
  0
LINE
  5
1D954
330
747D
100
AcDbEntity
  8
部品1
 48
50.0
100
AcDbLine
 10
8729.514259514152
 20
5892.919036112876
 30
0.0
 11
8729.514259514152
 21
6022.919036112877
 31
0.0
  0
LINE
  5
1D955
330
747D
100
AcDbEntity
  8
センター
 48
2.0
100
AcDbLine
 10
8836.514259514158
 20
5970.919036112861
 30
0.0
 11
8836.514259514158
 21
5870.919036112861
 31
0.0
  0
LINE
  5
1D956
330
747D
100
AcDbEntity
  8
部品1
 48
50.0
100
AcDbLine
 10
7949.51425951416
 20
7402.91903611286
 30
0.0
 11
7949.514259514159
 21
7522.91903611286
 31
0.0
  0
LINE
  5
1D957
330
747D
100
AcDbEntity
  8
部品1
 48
50.0
100
AcDbLine
 10
7749.514259514159
 20
7402.91903611286
 30
0.0
 11
7749.514259514159
 21
7522.91903611286
 31
0.0
  0
LINE
  5
1D95A
330
747D
100
AcDbEntity
  8
センター
 48
2.0
100
AcDbLine
 10
8786.514259514152
 20
7399.919036112861
 30
0.0
 11
8886.514259514152
 21
7399.919036112861
 31
0.0
  0
CIRCLE
  5
1D95B
330
747D
100
AcDbEntity
  8
部品1
 48
50.0
100
AcDbCircle
 10
8836.514259514151
 20
7399.919036112861
 30
0.0
 40
35.0
  0
LINE
  5
1D95C
330
747D
100
AcDbEntity
  8
部品1
 48
50.0
100
AcDbLine
 10
8839.514259514151
 20
7292.919036112862
 30
0.0
 11
8729.514259514152
 21
7292.919036112859
 31
0.0
  0
LINE
  5
1D95D
330
747D
100
AcDbEntity
  8
部品1
 48
50.0
100
AcDbLine
 10
8729.514259514152
 20
7292.919036112859
 30
0.0
 11
8729.514259514152
 21
7402.919036112859
 31
0.0
  0
LINE
  5
1D95E
330
747D
100
AcDbEntity
  8
部品1
 48
50.0
100
AcDbLine
 10
8959.514259514154
 20
6722.91903611286
 30
0.0
 11
8839.51425951415
 21
6722.91903611286
 31
0.0
  0
LINE
  5
1D95F
330
747D
100
AcDbEntity
  8
部品1
 48
50.0
100
AcDbLine
 10
8959.514259514154
 20
6522.91903611286
 30
0.0
 11
8839.51425951415
 21
6522.919036112861
 31
0.0
  0
LINE
  5
1D961
330
747D
100
AcDbEntity
  8
センター
 48
2.0
100
AcDbLine
 10
8836.514259514151
 20
7449.919036112861
 30
0.0
 11
8836.514259514151
 21
7349.919036112861
 31
0.0
  0
TEXT
  5
1DEDA
330
747D
100
AcDbEntity
  8
文字
 62
     7
 48
50.0
100
AcDbText
 10
13188.16259899338
 20
79.80631269190325
 30
0.0
 40
80.0
  1
※布基礎には換気口を設けてください。
  7
STYLE2
100
AcDbText
  0
MTEXT
  5
1E700
102
{ACAD_REACTORS
330
1E701
102
}
330
747D
100
AcDbEntity
  8
部品1
 62
     7
 48
50.0
100
AcDbMText
 10
10009.33123895026
 20
7765.944479920811
 30
0.0
 40
120.0
 41
0.0
 71
     6
 72
     1
  1
基礎ボルト芯
  7
STYLE1
 73
     1
 44
1.0
1001
ACAD
1000
MTEXTBEGIN
1070
    73
1070
     1
1070
    44
1040
1.0
1070
    74
1070
     0
1000
MTEXTEND
  0
LEADER
  5
1E701
330
747D
100
AcDbEntity
  8
寸法
 48
50.0
100
AcDbLeader
  3
INABA_S40G
 71
     0
 73
     0
 74
     0
 75
     1
 40
120.0
 41
846.0000000000002
 76
     3
 10
8836.514259514151
 20
7399.919036112861
 30
0.0
 10
9023.331238950257
 20
7665.944479920812
 30
0.0
 10
9123.331238950257
 20
7665.944479920812
 30
0.0
340
1E700
1001
ACAD
1000
DSTYLE
1002
{
1070
   174
1070
     0
1070
   272
1070
     1
1070
   288
1070
     0
1070
   341
1005
0
1002
}
  0
DIMENSION
  5
1E96D
330
747D
100
AcDbEntity
  8
寸法
 48
50.0
100
AcDbDimension
  2
*D17
 10
8390.388277064849
 20
7522.919036112863
 30
0.0
 11
8290.388277064847
 21
7072.919036112867
 31
0.0
 70
    32
 71
     5
 42
899.9999999999936
  3
INABA_S40G
100
AcDbAlignedDimension
 13
8245.014259514151
 23
6622.919036112868
 33
0.0
 14
8195.014259514161
 24
7522.919036112863
 34
0.0
 50
90.0
100
AcDbRotatedDimension
1001
ACAD
1000
DSTYLE
1002
{
1070
   174
1070
     0
1070
   272
1070
     1
1070
   279
1070
     1
1070
   288
1070
     0
1070
   341
1005
0
1002
}
  0
DIMENSION
  5
1E98B
330
747D
100
AcDbEntity
  8
寸法
 48
50.0
100
AcDbDimension
  2
*D18
 10
8390.388277064859
 20
6622.919036112868
 30
0.0
 11
8390.388277064857
 21
6097.131811778035
 31
0.0
 70
   160
 71
     5
 42
900.0
  3
INABA_S40G
100
AcDbAlignedDimension
 13
8195.014259514161
 23
5722.919036112869
 33
0.0
 14
8245.014259514151
 24
6622.919036112868
 34
0.0
 50
90.0
100
AcDbRotatedDimension
1001
ACAD
1000
DSTYLE
1002
{
1070
   174
1070
     0
1070
   272
1070
     1
1070
   279
1070
     1
1070
   288
1070
     0
1070
   341
1005
0
1002
}
  0
MTEXT
  5
1F11B
102
{ACAD_REACTORS
330
1F11C
102
}
330
747D
100
AcDbEntity
  8
部品1
 62
     7
 48
50.0
100
AcDbMText
 10
10029.75144611864
 20
6327.901644153087
 30
0.0
 40
120.0
 41
0.0
 71
     6
 72
     1
  1
床下換気口
  7
STYLE1
 73
     1
 44
1.0
1001
ACAD
1000
MTEXTBEGIN
1070
    73
1070
     1
1070
    44
1040
1.0
1070
    74
1070
     0
1000
MTEXTEND
  0
LEADER
  5
1F11C
330
747D
100
AcDbEntity
  8
寸法
 48
50.0
100
AcDbLeader
  3
INABA_S50G
 71
     0
 73
     0
 74
     0
 75
     1
 40
120.0
 41
720.0000000000001
 76
     3
 10
8959.514259514154
 20
6622.919036112879
 30
0.0
 10
9159.751446118646
 20
6242.901644153088
 30
0.0
 10
9284.751446118646
 20
6242.901644153088
 30
0.0
340
1F11B
1001
ACAD
1000
DSTYLE
1002
{
1070
   341
1005
1C530
1070
    40
1040
1.0
1070
   343
1005
1C530
1070
   344
1005
1C530
1002
}
  0
DIMENSION
  5
1F248
330
747D
100
AcDbEntity
  8
寸法
 48
50.0
100
AcDbDimension
  2
*D20
 10
8195.514259514151
 20
8049.82880176119
 30
0.0
 11
8536.284394696602
 21
8048.090767068199
 31
0.0
 70
   160
 71
     5
 42
763.9999999999964
  3
INABA_S40G
100
AcDbAlignedDimension
 13
8959.514259514149
 23
7522.919036112863
 33
0.0
 14
8195.514259514151
 24
6722.91903611287
 34
0.0
100
AcDbRotatedDimension
1001
ACAD
1000
DSTYLE
1002
{
1070
   174
1070
     0
1070
   272
1070
     1
1070
   279
1070
     1
1070
   288
1070
     0
1070
   341
1005
0
1002
}
  0
DIMENSION
  5
1F249
330
747D
100
AcDbEntity
  8
寸法
 48
50.0
100
AcDbDimension
  2
*D19
 10
6739.514259514149
 20
8049.82880176119
 30
0.0
 11
7121.51425951415
 21
8149.82880176119
 31
0.0
 70
    32
 71
     5
 42
764.0000000000009
  3
INABA_S40G
100
AcDbAlignedDimension
 13
7503.514259514151
 23
6822.91903611287
 33
0.0
 14
6739.514259514149
 24
7522.919036112863
 34
0.0
100
AcDbRotatedDimension
1001
ACAD
1000
DSTYLE
1002
{
1070
   174
1070
     0
1070
   272
1070
     1
1070
   279
1070
     1
1070
   288
1070
     0
1070
   341
1005
0
1002
}
  0
LINE
  5
1F940
330
747D
100
AcDbEntity
  8
センター
 48
2.0
100
AcDbLine
 10
8195.514259514151
 20
6672.919036112869
 30
0.0
 11
8195.514259514151
 21
6572.919036112868
 31
0.0
  0
LINE
  5
1F943
330
747D
100
AcDbEntity
  8
センター
 48
2.0
100
AcDbLine
 10
8145.51425951415
 20
6622.919036112868
 30
0.0
 11
8245.51425951415
 21
6622.919036112868
 31
0.0
  0
LINE
  5
1FDB5
330
747D
100
AcDbEntity
  8
想像線
 48
10.0
100
AcDbLine
 10
6697.514259514154
 20
7597.91903611286
 30
0.0
 11
6694.514259514154
 21
7594.91903611286
 31
0.0
  0
LINE
  5
1FDB8
330
747D
100
AcDbEntity
  8
部品1
 48
50.0
100
AcDbLine
 10
6739.514259514151
 20
5725.919036112856
 30
0.0
 11
6742.514259514151
 21
5722.919036112855
 31
0.0
  0
LINE
  5
1FDB9
330
747D
100
AcDbEntity
  8
想像線
 48
10.0
100
AcDbLine
 10
6694.514259514154
 20
5670.919036112861
 30
0.0
 11
6697.514259514154
 21
5667.919036112861
 31
0.0
  0
LINE
  5
1FE23
330
747D
100
AcDbEntity
  8
センター
 48
2.0
100
AcDbLine
 10
7453.514259514149
 20
6622.919036112868
 30
0.0
 11
7553.514259514149
 21
6622.919036112868
 31
0.0
  0
LINE
  5
1FE26
330
747D
100
AcDbEntity
  8
センター
 48
2.0
100
AcDbLine
 10
7503.514259514149
 20
6672.919036112869
 30
0.0
 11
7503.514259514149
 21
6572.919036112868
 31
0.0
  0
DIMENSION
  5
1FE4B
330
747D
100
AcDbEntity
  8
寸法
 48
50.0
100
AcDbDimension
  2
*D21
 10
8195.514259514151
 20
8049.82880176119
 30
0.0
 11
7849.514259514151
 21
8149.869614325995
 31
0.0
 70
    32
 71
     5
 42
692.0000000000008
  3
INABA_S40G
100
AcDbAlignedDimension
 13
7503.514259514151
 23
6722.91903611287
 33
0.0
 14
8195.514259514151
 24
6722.91903611287
 34
0.0
100
AcDbRotatedDimension
1001
ACAD
1000
DSTYLE
1002
{
1070
   174
1070
     0
1070
   272
1070
     1
1070
   288
1070
     0
1070
   341
1005
0
1002
}
  0
LEADER
  5
1FEC1
330
747D
100
AcDbEntity
  8
寸法
 48
50.0
100
AcDbLeader
  3
INABA_S50G
 71
     0
 73
     0
 75
     1
 40
120.0
 41
185.591883092037
 76
     3
 10
8143.265601929423
 20
6557.288375464429
 30
0.0
 10
8075.940110148883
 20
6344.749391323823
 30
0.0
 10
7950.940110148882
 20
6344.749391323823
 30
0.0
340
1FEC2
210
0.0
220
0.0
230
-1.0
213
-42.79594154601909
223
-42.66026254335156
233
0.0
1001
ACAD
1000
DSTYLE
1002
{
1070
   341
1005
1C530
1070
    40
1040
1.0
1070
   343
1005
1C530
1070
   344
1005
1C530
1002
}
  0
MTEXT
  5
1FEC2
102
{ACAD_REACTORS
330
1FEC1
102
}
330
747D
100
AcDbEntity
  8
部品1
 62
     7
 48
50.0
100
AcDbMText
 10
7968.736051694901
 20
6422.409653867174
 30
0.0
 40
120.0
 41
0.0
 71
     6
 72
     1
  1
\A1;C.B
  7
STYLE1
 73
     1
 44
1.0
1001
ACAD
1000
MTEXTBEGIN
1070
    73
1070
     1
1070
    44
1040
1.0
1070
    74
1070
     0
1000
MTEXTEND
  0
DIMENSION
  5
2034C
330
747D
100
AcDbEntity
  8
寸法
 48
50.0
100
AcDbDimension
  2
*D22
 10
7187.190751772594
 20
7522.919036112859
 30
0.0
 11
7187.190751772593
 21
7788.96628020735
 31
0.0
 70
   160
 71
     5
 42
119.9999999999981
  3
INABA_S40G
100
AcDbAlignedDimension
 13
6969.51425951415
 23
7402.91903611286
 33
0.0
 14
6969.514259514152
 24
7522.919036112859
 34
0.0
 50
90.0
100
AcDbRotatedDimension
1001
ACAD
1000
DSTYLE
1002
{
1070
   174
1070
     0
1070
   272
1070
     1
1070
   288
1070
     0
1070
   341
1005
0
1002
}
  0
DIMENSION
  5
2034D
330
747D
100
AcDbEntity
  8
寸法
 48
50.0
100
AcDbDimension
  2
*D23
 10
7187.190751772594
 20
7402.91903611286
 30
0.0
 11
7187.190751772593
 21
7056.871792018369
 31
0.0
 70
   160
 71
     5
 42
110.0000000000036
  3
INABA_S40G
100
AcDbAlignedDimension
 13
6969.514259514152
 23
7292.919036112856
 33
0.0
 14
6969.51425951415
 24
7402.91903611286
 34
0.0
 50
90.0
100
AcDbRotatedDimension
1001
ACAD
1000
DSTYLE
1002
{
1070
   174
1070
     0
1070
   272
1070
     1
1070
   288
1070
     0
1070
   341
1005
0
1002
}
  0
LINE
  5
211A9
330
747D
100
AcDbEntity
  8
部品1
 48
50.0
100
AcDbLine
 10
7598.014259514139
 20
6817.919036112868
 30
0.0
 11
7408.014259514139
 21
6817.919036112868
 31
0.0
  0
LINE
  5
211AA
330
747D
100
AcDbEntity
  8
部品1
 48
50.0
100
AcDbLine
 10
7408.014259514139
 20
6427.919036112868
 30
0.0
 11
7408.014259514139
 21
6817.919036112868
 31
0.0
  0
LINE
  5
211AB
330
747D
100
AcDbEntity
  8
部品1
 48
50.0
100
AcDbLine
 10
7598.014259514139
 20
6427.919036112868
 30
0.0
 11
7598.014259514139
 21
6817.919036112868
 31
0.0
  0
LINE
  5
211AC
330
747D
100
AcDbEntity
  8
部品1
 48
50.0
100
AcDbLine
 10
7598.014259514139
 20
6427.919036112868
 30
0.0
 11
7408.014259514139
 21
6427.919036112868
 31
0.0
  0
LINE
  5
211AD
330
747D
100
AcDbEntity
  8
部品1
 48
50.0
100
AcDbLine
 10
8100.014259514141
 20
6427.91903611287
 30
0.0
 11
8100.014259514141
 21
6817.919036112868
 31
0.0
  0
LINE
  5
211AE
330
747D
100
AcDbEntity
  8
部品1
 48
50.0
100
AcDbLine
 10
8290.014259514141
 20
6817.919036112868
 30
0.0
 11
8100.014259514141
 21
6817.919036112868
 31
0.0
  0
LINE
  5
211AF
330
747D
100
AcDbEntity
  8
部品1
 48
50.0
100
AcDbLine
 10
8290.014259514141
 20
6427.91903611287
 30
0.0
 11
8290.014259514141
 21
6817.919036112868
 31
0.0
  0
LINE
  5
211B0
330
747D
100
AcDbEntity
  8
部品1
 48
50.0
100
AcDbLine
 10
8290.014259514141
 20
6427.91903611287
 30
0.0
 11
8100.014259514141
 21
6427.91903611287
 31
0.0
  0
TEXT
  5
2167C
330
747D
100
AcDbEntity
  8
部品1
 48
50.0
100
AcDbText
 10
6601.729594120829
 20
2560.353181710221
 30
0.0
 40
100.0
  1
※(別売)
  7
STYLE2
100
AcDbText
  0
LINE
  5
2167D
330
747D
100
AcDbEntity
  8
細線
 48
50.0
100
AcDbLine
 10
10209.80337475581
 20
1715.051110002177
 30
0.0
 11
10201.76489898287
 21
1745.051110002177
 31
0.0
  0
LINE
  5
2167E
330
747D
100
AcDbEntity
  8
細線
100
AcDbLine
 10
9998.052993260756
 20
1745.051110002181
 30
0.0
 11
10112.67663782743
 21
1859.674754568867
 31
0.0
  0
LINE
  5
2167F
330
747D
100
AcDbEntity
  8
細線
100
AcDbLine
 10
9955.626586389566
 20
1745.051110002181
 30
0.0
 11
10070.25023095624
 21
1859.674754568867
 31
0.0
  0
LINE
  5
21680
330
747D
100
AcDbEntity
  8
細線
100
AcDbLine
 10
10040.47940013194
 20
1745.051110002181
 30
0.0
 11
10155.10304469862
 21
1859.674754568867
 31
0.0
  0
LINE
  5
21681
330
747D
100
AcDbEntity
  8
細線
 48
50.0
100
AcDbLine
 10
10012.58326238768
 20
1715.051110002179
 30
0.0
 11
10004.54478661474
 21
1745.051110002179
 31
0.0
  0
LINE
  5
21682
330
747D
100
AcDbEntity
  8
細線
 48
50.0
100
AcDbLine
 10
10111.19331857175
 20
1715.051110002177
 30
0.0
 11
10103.15484279881
 21
1745.051110002177
 31
0.0
  0
LINE
  5
21683
330
747D
100
AcDbEntity
  8
部品1
100
AcDbLine
 10
10114.33109326539
 20
2159.674754568868
 30
0.0
 11
10114.33109326539
 21
1859.674754568867
 31
0.0
  0
LINE
  5
21684
330
747D
100
AcDbEntity
  8
細線
 48
50.0
100
AcDbLine
 10
9815.363150019576
 20
1715.051110002179
 30
0.0
 11
9807.324674246645
 21
1745.051110002179
 31
0.0
  0
LINE
  5
21685
330
747D
100
AcDbEntity
  8
細線
 48
50.0
100
AcDbLine
 10
9913.973206203637
 20
1715.051110002179
 30
0.0
 11
9905.934730430708
 21
1745.051110002179
 31
0.0
  0
LINE
  5
21686
330
747D
100
AcDbEntity
  8
細線
100
AcDbLine
 10
9548.052993260757
 20
1745.05111000218
 30
0.0
 11
9662.676637827436
 21
1859.674754568867
 31
0.0
  0
LINE
  5
21687
330
747D
100
AcDbEntity
  8
細線
100
AcDbLine
 10
9590.479400131945
 20
1745.05111000218
 30
0.0
 11
9705.103044698626
 21
1859.674754568867
 31
0.0
  0
LINE
  5
21688
330
747D
100
AcDbEntity
  8
細線
 48
50.0
100
AcDbLine
 10
9716.753093835515
 20
1715.051110002179
 30
0.0
 11
9708.714618062586
 21
1745.051110002179
 31
0.0
  0
LINE
  5
21689
330
747D
100
AcDbEntity
  8
細線
 48
50.0
100
AcDbLine
 10
9618.143037651465
 20
1715.051110002179
 30
0.0
 11
9610.104561878527
 21
1745.051110002179
 31
0.0
  0
LINE
  5
2168A
330
747D
100
AcDbEntity
  8
細線
100
AcDbLine
 10
10033.39440502414
 20
1859.674754568867
 30
0.0
 11
9733.394405024137
 21
2159.674754568868
 31
0.0
  0
LINE
  5
2168B
330
747D
100
AcDbEntity
  8
細線
100
AcDbLine
 10
10097.03401533091
 20
1859.674754568869
 30
0.0
 11
9797.034015330927
 21
2159.674754568868
 31
0.0
  0
LEADER
  5
2168C
330
747D
100
AcDbEntity
  8
寸法
 48
50.0
100
AcDbLeader
  3
INABA_S40G
 73
     0
 74
     0
 75
     1
 40
150.0
 41
231.9898538650463
 76
     3
 10
10027.7366077853
 20
2159.674754568868
 30
0.0
 10
10116.65936607735
 20
2366.10765542029
 30
0.0
 10
10216.65936607735
 20
2366.10765542029
 30
0.0
  0
MTEXT
  5
2168D
102
{ACAD_REACTORS
330
2168C
102
}
330
747D
100
AcDbEntity
  8
寸法
 62
     7
 48
50.0
100
AcDbMText
 10
10256.65936607735
 20
2481.10765542029
 30
0.0
 40
150.0
 41
1.0
 71
     4
 72
     1
  1
\A1;C.B
  7
STYLE1
 73
     1
 44
1.0
1001
ACAD
1000
MTEXTBEGIN
1070
    73
1070
     1
1070
    44
1040
1.0
1070
    74
1070
     0
1000
MTEXTEND
  0
LINE
  5
2168E
330
747D
100
AcDbEntity
  8
細線
 48
50.0
100
AcDbLine
 10
10183.0084555127
 20
1615.051110002177
 30
0.0
 11
10191.04693128563
 21
1585.051110002177
 31
0.0
  0
LINE
  5
2168F
330
747D
100
AcDbEntity
  8
細線
 48
50.0
100
AcDbLine
 10
9985.788343144587
 20
1615.051110002179
 30
0.0
 11
9993.826818917527
 21
1585.051110002179
 31
0.0
  0
LINE
  5
21690
330
747D
100
AcDbEntity
  8
細線
 48
50.0
100
AcDbLine
 10
10084.39839932864
 20
1615.051110002177
 30
0.0
 11
10092.43687510157
 21
1585.051110002177
 31
0.0
  0
LINE
  5
21691
330
747D
100
AcDbEntity
  8
細線
 48
50.0
100
AcDbLine
 10
9788.568230776466
 20
1615.051110002179
 30
0.0
 11
9796.606706549397
 21
1585.051110002179
 31
0.0
  0
LINE
  5
21692
330
747D
100
AcDbEntity
  8
細線
 48
50.0
100
AcDbLine
 10
9887.178286960526
 20
1615.051110002179
 30
0.0
 11
9895.216762733458
 21
1585.051110002179
 31
0.0
  0
LINE
  5
21693
330
747D
100
AcDbEntity
  8
細線
 48
50.0
100
AcDbLine
 10
9591.348118408356
 20
1615.051110002179
 30
0.0
 11
9599.386594181286
 21
1585.051110002179
 31
0.0
  0
LINE
  5
21694
330
747D
100
AcDbEntity
  8
細線
 48
50.0
100
AcDbLine
 10
9689.958174592407
 20
1615.051110002179
 30
0.0
 11
9697.996650365347
 21
1585.051110002179
 31
0.0
  0
LINE
  5
21695
330
747D
100
AcDbEntity
  8
細線
 48
50.0
100
AcDbLine
 10
9780.529755003527
 20
1585.051110002177
 30
0.0
 11
9823.401625792506
 21
1745.051110002177
 31
0.0
  0
LINE
  5
21696
330
747D
100
AcDbEntity
  8
細線
 48
50.0
100
AcDbLine
 10
9583.309642635414
 20
1585.051110002179
 30
0.0
 11
9626.181513424386
 21
1745.051110002179
 31
0.0
  0
LINE
  5
21697
330
747D
100
AcDbEntity
  8
細線
 48
50.0
100
AcDbLine
 10
9681.919698819466
 20
1585.051110002179
 30
0.0
 11
9724.791569608449
 21
1745.051110002177
 31
0.0
  0
LINE
  5
21698
330
747D
100
AcDbEntity
  8
細線
 48
50.0
100
AcDbLine
 10
9977.749867371645
 20
1585.051110002177
 30
0.0
 11
10020.62173816061
 21
1745.051110002179
 31
0.0
  0
LINE
  5
21699
330
747D
100
AcDbEntity
  8
細線
 48
50.0
100
AcDbLine
 10
9879.139811187586
 20
1585.051110002179
 30
0.0
 11
9922.011681976567
 21
1745.051110002177
 31
0.0
  0
LINE
  5
2169A
330
747D
100
AcDbEntity
  8
細線
 48
50.0
100
AcDbLine
 10
10174.96997973976
 20
1585.051110002177
 30
0.0
 11
10217.84185052874
 21
1745.051110002175
 31
0.0
  0
LINE
  5
2169B
330
747D
100
AcDbEntity
  8
細線
 48
50.0
100
AcDbLine
 10
10076.3599235557
 20
1585.051110002175
 30
0.0
 11
10119.23179434468
 21
1745.051110002175
 31
0.0
  0
LINE
  5
2169C
330
747D
100
AcDbEntity
  8
部品1
100
AcDbLine
 10
10264.33109326539
 20
1859.674754568867
 30
0.0
 11
10264.33109326539
 21
1585.051110002179
 31
0.0
  0
LINE
  5
2169D
330
747D
100
AcDbEntity
  8
部品1
100
AcDbLine
 10
10854.84202108453
 20
551.819776541834
 30
0.0
 11
10854.84202108453
 21
3810.889279289924
 31
0.0
  0
TEXT
  5
2169E
330
747D
100
AcDbEntity
  8
部品1
100
AcDbText
 10
6964.296433503152
 20
3586.449364350638
 30
0.0
 40
150.0
  1
基礎詳細
  7
STYLE2
100
AcDbText
  0
LINE
  5
2169F
330
747D
100
AcDbEntity
  8
細線
 48
50.0
100
AcDbLine
 10
9519.532981467397
 20
1715.051110002179
 30
0.0
 11
9511.494505694464
 21
1745.051110002179
 31
0.0
  0
LINE
  5
216A0
330
747D
100
AcDbEntity
  8
細線
 48
50.0
100
AcDbLine
 10
9420.922925283335
 20
1715.051110002179
 30
0.0
 11
9412.884449510396
 21
1745.051110002179
 31
0.0
  0
LINE
  5
216A1
330
747D
100
AcDbEntity
  8
部品1
100
AcDbLine
 10
9514.331093265397
 20
1859.674754568867
 30
0.0
 11
9514.331093265397
 21
2159.674754568868
 31
0.0
  0
LINE
  5
216A2
330
747D
100
AcDbEntity
  8
細線
 48
50.0
100
AcDbLine
 10
9394.128006040226
 20
1615.051110002179
 30
0.0
 11
9402.166481813155
 21
1585.051110002179
 31
0.0
  0
LINE
  5
216A3
330
747D
100
AcDbEntity
  8
細線
 48
50.0
100
AcDbLine
 10
9492.738062224285
 20
1615.051110002179
 30
0.0
 11
9500.776537997216
 21
1585.051110002179
 31
0.0
  0
LINE
  5
216A4
330
747D
100
AcDbEntity
  8
細線
 48
50.0
100
AcDbLine
 10
7925.1894395002
 20
1149.674754568865
 30
0.0
 11
7917.150963727269
 21
1179.674754568865
 31
0.0
  0
LINE
  5
216A5
330
747D
100
AcDbEntity
  8
部品1
 48
50.0
100
AcDbLine
 10
7979.717158009783
 20
1179.674754568866
 30
0.0
 11
7979.717158009783
 21
1019.674754568866
 31
0.0
  0
LINE
  5
216A6
330
747D
100
AcDbEntity
  8
細線
 48
50.0
100
AcDbLine
 10
9386.089530267286
 20
1585.051110002179
 30
0.0
 11
9428.961401056266
 21
1745.051110002179
 31
0.0
  0
LINE
  5
216A7
330
747D
100
AcDbEntity
  8
部品1
100
AcDbLine
 10
9364.331093265397
 20
1585.051110002175
 30
0.0
 11
9364.331093265397
 21
1859.674754568867
 31
0.0
  0
TEXT
  5
216A8
330
747D
100
AcDbEntity
  8
部品1
 48
50.0
100
AcDbText
 10
8888.989464940097
 20
1526.17507877223
 30
0.0
 40
100.0
  1
ボルトの出
 50
90.0
  7
STYLE2
100
AcDbText
  0
LINE
  5
216A9
330
747D
100
AcDbEntity
  8
細線
 48
50.0
100
AcDbLine
 10
9484.699586451347
 20
1585.051110002177
 30
0.0
 11
9527.571457240327
 21
1745.051110002177
 31
0.0
  0
LINE
  5
216AA
330
747D
100
AcDbEntity
  8
部品1
 48
50.0
100
AcDbLine
 10
7498.96715800978
 20
2598.268855955295
 30
0.0
 11
7518.967158009781
 21
2608.268855955295
 31
0.0
  0
LINE
  5
216AB
330
747D
100
AcDbEntity
  8
部品1
 48
50.0
100
AcDbLine
 10
7498.96715800978
 20
2638.268855955296
 30
0.0
 11
7518.967158009781
 21
2648.268855955298
 31
0.0
  0
LINE
  5
216AC
330
747D
100
AcDbEntity
  8
細線
 48
50.0
100
AcDbLine
 10
7498.96715800978
 20
2598.268855955295
 30
0.0
 11
7498.96715800978
 21
2638.268855955296
 31
0.0
  0
LINE
  5
216AD
330
747D
100
AcDbEntity
  8
部品1
 48
50.0
100
AcDbLine
 10
7518.967158009781
 20
2608.268855955295
 30
0.0
 11
7518.967158009781
 21
2648.268855955298
 31
0.0
  0
LINE
  5
216AE
330
747D
100
AcDbEntity
  8
部品1
 48
50.0
100
AcDbLine
 10
7498.96715800978
 20
2658.268855955296
 30
0.0
 11
7518.967158009781
 21
2648.268855955298
 31
0.0
  0
LINE
  5
216AF
330
747D
100
AcDbEntity
  8
部品1
 48
50.0
100
AcDbLine
 10
7528.967158009781
 20
2484.078865124208
 30
0.0
 11
7528.967158009781
 21
2496.078865124208
 31
0.0
  0
LINE
  5
216B0
330
747D
100
AcDbEntity
  8
細線
 48
50.0
100
AcDbLine
 10
7458.96715800978
 20
2598.268855955295
 30
0.0
 11
7458.96715800978
 21
2638.268855955296
 31
0.0
  0
LINE
  5
216B1
330
747D
100
AcDbEntity
  8
部品1
 48
50.0
100
AcDbLine
 10
7438.96715800978
 20
2608.268855955295
 30
0.0
 11
7438.96715800978
 21
2648.268855955298
 31
0.0
  0
LINE
  5
216B2
330
747D
100
AcDbEntity
  8
部品1
 48
50.0
100
AcDbLine
 10
7438.96715800978
 20
2648.268855955298
 30
0.0
 11
7458.96715800978
 21
2638.268855955296
 31
0.0
  0
LINE
  5
216B3
330
747D
100
AcDbEntity
  8
部品1
 48
50.0
100
AcDbLine
 10
7438.96715800978
 20
2608.268855955295
 30
0.0
 11
7458.96715800978
 21
2598.268855955295
 31
0.0
  0
LINE
  5
216B4
330
747D
100
AcDbEntity
  8
部品1
 48
50.0
100
AcDbLine
 10
7438.96715800978
 20
2648.268855955298
 30
0.0
 11
7458.96715800978
 21
2658.268855955296
 31
0.0
  0
LINE
  5
216B5
330
747D
100
AcDbEntity
  8
部品1
100
AcDbLine
 10
7337.21715800978
 20
2231.674754568868
 30
0.0
 11
7386.71715800978
 21
2231.674754568868
 31
0.0
  0
ARC
  5
216B6
330
747D
100
AcDbEntity
  8
部品1
100
AcDbCircle
 10
7333.84215800978
 20
2295.799754568864
 30
0.0
 40
3.375
100
AcDbArc
 50
0.0
 51
90.0
  0
LINE
  5
216B7
330
747D
100
AcDbEntity
  8
部品1
100
AcDbLine
 10
7337.21715800978
 20
2295.799754568864
 30
0.0
 11
7337.21715800978
 21
2231.674754568868
 31
0.0
  0
LINE
  5
216B8
330
747D
100
AcDbEntity
  8
部品1
 48
50.0
100
AcDbLine
 10
7428.96715800978
 20
2496.078865124208
 30
0.0
 11
7428.96715800978
 21
2484.078865124208
 31
0.0
  0
LINE
  5
216B9
330
747D
100
AcDbEntity
  8
部品1
100
AcDbLine
 10
7366.46715800978
 20
2246.624754568868
 30
0.0
 11
7401.667158009783
 21
2246.624754568868
 31
0.0
  0
ARC
  5
216BA
330
747D
100
AcDbEntity
  8
部品1
100
AcDbCircle
 10
7366.46715800978
 20
2243.249754568869
 30
0.0
 40
3.375
100
AcDbArc
 50
90.0
 51
180.0
  0
ARC
  5
216BB
330
747D
100
AcDbEntity
  8
部品1
100
AcDbCircle
 10
7401.667158009783
 20
2243.249754568869
 30
0.0
 40
3.375
100
AcDbArc
 50
0.0
 51
90.0
  0
LINE
  5
216BC
330
747D
100
AcDbEntity
  8
部品1
100
AcDbLine
 10
7467.71715800978
 20
2221.124754568867
 30
0.0
 11
7490.21715800978
 21
2221.124754568867
 31
0.0
  0
LINE
  5
216BD
330
747D
100
AcDbEntity
  8
部品1
100
AcDbLine
 10
7472.21715800978
 20
2225.624754568868
 30
0.0
 11
7485.71715800978
 21
2225.624754568868
 31
0.0
  0
ARC
  5
216BE
330
747D
100
AcDbEntity
  8
部品1
100
AcDbCircle
 10
7386.71715800978
 20
2228.299754568868
 30
0.0
 40
3.375
100
AcDbArc
 50
0.0
 51
90.0
  0
LINE
  5
216BF
330
747D
100
AcDbEntity
  8
部品1
100
AcDbLine
 10
7363.092158009781
 20
2243.249754568869
 30
0.0
 11
7363.092158009781
 21
2221.874754568867
 31
0.0
  0
ARC
  5
216C0
330
747D
100
AcDbEntity
  8
部品1
100
AcDbCircle
 10
7280.967158009779
 20
2295.799754568868
 30
0.0
 40
3.375
100
AcDbArc
 50
90.0
 51
180.0
  0
LINE
  5
216C1
330
747D
100
AcDbEntity
  8
部品1
100
AcDbLine
 10
7277.59215800978
 20
2285.674754568868
 30
0.0
 11
7277.59215800978
 21
2285.674754568868
 31
0.0
  0
LINE
  5
216C2
330
747D
100
AcDbEntity
  8
部品1
100
AcDbLine
 10
7277.59215800978
 20
2285.674754568868
 30
0.0
 11
7277.59215800978
 21
2295.799754568868
 31
0.0
  0
LINE
  5
216C3
330
747D
100
AcDbEntity
  8
部品1
100
AcDbLine
 10
7274.21715800978
 20
2272.174754568868
 30
0.0
 11
7274.21715800978
 21
2282.299754568867
 31
0.0
  0
ARC
  5
216C4
330
747D
100
AcDbEntity
  8
部品1
100
AcDbCircle
 10
7277.59215800978
 20
2282.299754568867
 30
0.0
 40
3.375
100
AcDbArc
 50
90.0
 51
180.0
  0
LINE
  5
216C5
330
747D
100
AcDbEntity
  8
部品1
100
AcDbLine
 10
7223.592158009781
 20
2258.674754568868
 30
0.0
 11
7223.592158009781
 21
2268.799754568868
 31
0.0
  0
ARC
  5
216C6
330
747D
100
AcDbEntity
  8
部品1
100
AcDbCircle
 10
7226.967158009781
 20
2268.799754568868
 30
0.0
 40
3.375
100
AcDbArc
 50
90.0
 51
180.0
  0
ARC
  5
216C7
330
747D
100
AcDbEntity
  8
部品1
100
AcDbCircle
 10
7213.46715800978
 20
2252.664634197252
 30
0.0
 40
3.375
100
AcDbArc
 50
104.0362434679059
 51
180.0
  0
LINE
  5
216C8
330
747D
100
AcDbEntity
  8
部品1
100
AcDbLine
 10
7212.648600275281
 20
2255.938865135243
 30
0.0
 11
7223.592158009781
 21
2258.674754568868
 31
0.0
  0
LINE
  5
216C9
330
747D
100
AcDbEntity
  8
部品1
100
AcDbLine
 10
7226.967158009781
 20
2272.174754568868
 30
0.0
 11
7274.21715800978
 21
2272.174754568868
 31
0.0
  0
LINE
  5
216CA
330
747D
100
AcDbEntity
  8
部品1
100
AcDbLine
 10
7280.967158009779
 20
2299.174754568867
 30
0.0
 11
7333.84215800978
 21
2299.174754568864
 31
0.0
  0
ELLIPSE
  5
216CB
330
747D
100
AcDbEntity
  8
部品1
 48
50.0
100
AcDbEllipse
 10
7478.96715800978
 20
2496.078865124208
 30
0.0
 11
23.0
 21
0.0
 31
0.0
210
0.0
220
0.0
230
1.0
 40
0.3478260869565217
 41
0.0
 42
6.283185307179585
  0
ELLIPSE
  5
216CC
330
747D
100
AcDbEntity
  8
部品1
 48
50.0
100
AcDbEllipse
 10
7478.96715800978
 20
2496.078865124208
 30
0.0
 11
50.0
 21
0.0
 31
0.0
210
0.0
220
0.0
230
1.0
 40
0.4
 41
0.0
 42
6.283185307179585
  0
ELLIPSE
  5
216CD
330
747D
100
AcDbEntity
  8
部品1
 48
50.0
100
AcDbEllipse
 10
7478.96715800978
 20
2484.078865124208
 30
0.0
 11
50.0
 21
0.0
 31
0.0
210
0.0
220
0.0
230
1.0
 40
0.4
 41
3.141592653589792
 42
6.283185307179585
  0
LINE
  5
216CE
330
747D
100
AcDbEntity
  8
部品1
 48
50.0
100
AcDbLine
 10
7458.96715800978
 20
2658.268855955296
 30
0.0
 11
7498.96715800978
 21
2658.268855955296
 31
0.0
  0
ELLIPSE
  5
216CF
330
747D
100
AcDbEntity
  8
細線
 48
50.0
100
AcDbEllipse
 10
7478.96715800978
 20
2648.268855955297
 30
0.0
 11
18.45838483258558
 21
0.0
 31
0.0
210
0.0
220
0.0
230
1.0
 40
0.2071254069489396
 41
0.0
 42
6.283185307179585
  0
LINE
  5
216D0
330
747D
100
AcDbEntity
  8
部品1
 48
50.0
100
AcDbLine
 10
7458.96715800978
 20
2598.268855955295
 30
0.0
 11
7498.96715800978
 21
2598.268855955295
 31
0.0
  0
LINE
  5
216D1
330
747D
100
AcDbEntity
  8
部品1
 48
50.0
100
AcDbLine
 10
7458.96715800978
 20
2638.268855955296
 30
0.0
 11
7498.96715800978
 21
2638.268855955296
 31
0.0
  0
LINE
  5
216D2
330
747D
100
AcDbEntity
  8
細線
 48
50.0
100
AcDbLine
 10
7557.717158009783
 20
1961.085107679603
 30
0.0
 11
7719.71715800978
 21
2123.085107679602
 31
0.0
  0
LINE
  5
216D3
330
747D
100
AcDbEntity
  8
細線
 48
50.0
100
AcDbLine
 10
7557.717158009783
 20
1927.409147225582
 30
0.0
 11
7719.71715800978
 21
2089.409147225578
 31
0.0
  0
LINE
  5
216D4
330
747D
100
AcDbEntity
  8
部品1
100
AcDbLine
 10
7535.21715800978
 20
1855.924754568866
 30
0.0
 11
7535.21715800978
 21
1878.424754568867
 31
0.0
  0
LINE
  5
216D5
330
747D
100
AcDbEntity
  8
部品1
100
AcDbLine
 10
7557.717158009779
 20
1754.674754568866
 30
0.0
 11
7557.717158009779
 21
2159.674754568868
 31
0.0
  0
LINE
  5
216D6
330
747D
100
AcDbEntity
  8
細線
 48
50.0
100
AcDbLine
 10
7557.717158009783
 20
1893.733186771565
 30
0.0
 11
7719.71715800978
 21
2055.733186771554
 31
0.0
  0
LINE
  5
216D7
330
747D
100
AcDbEntity
  8
部品1
100
AcDbLine
 10
7372.092158009781
 20
2171.624754568867
 30
0.0
 11
7386.71715800978
 21
2171.624754568867
 31
0.0
  0
ARC
  5
216D8
330
747D
100
AcDbEntity
  8
部品1
100
AcDbCircle
 10
7408.417158009773
 20
2174.999754568867
 30
0.0
 40
3.375
100
AcDbArc
 50
180.0
 51
270.0
  0
ARC
  5
216D9
330
747D
100
AcDbEntity
  8
部品1
100
AcDbCircle
 10
7386.71715800978
 20
2174.999754568867
 30
0.0
 40
3.375
100
AcDbArc
 50
270.0
 51
0.0
  0
ARC
  5
216DA
330
747D
100
AcDbEntity
  8
部品1
100
AcDbCircle
 10
7213.46715800978
 20
2174.999754568867
 30
0.0
 40
3.375
100
AcDbArc
 50
180.0
 51
270.0
  0
LINE
  5
216DB
330
747D
100
AcDbEntity
  8
細線
 48
50.0
100
AcDbLine
 10
7202.21715800978
 20
2144.400474943749
 30
0.0
 11
7217.491437634899
 21
2159.674754568868
 31
0.0
  0
LINE
  5
216DC
330
747D
100
AcDbEntity
  8
部品1
100
AcDbLine
 10
7213.46715800978
 20
2171.624754568867
 30
0.0
 11
7228.092158009772
 21
2171.624754568867
 31
0.0
  0
LINE
  5
216DD
330
747D
100
AcDbEntity
  8
細線
 48
50.0
100
AcDbLine
 10
7202.21715800978
 20
2110.72451448974
 30
0.0
 11
7251.167398088911
 21
2159.674754568868
 31
0.0
  0
LINE
  5
216DE
330
747D
100
AcDbEntity
  8
細線
 48
50.0
100
AcDbLine
 10
7202.21715800978
 20
2077.04855403573
 30
0.0
 11
7284.843358542918
 21
2159.674754568868
 31
0.0
  0
ARC
  5
216DF
330
747D
100
AcDbEntity
  8
部品1
100
AcDbCircle
 10
7490.21715800978
 20
1878.424754568867
 30
0.0
 40
22.5
100
AcDbArc
 50
180.0
 51
270.0
  0
LINE
  5
216E0
330
747D
100
AcDbEntity
  8
細線
 48
50.0
100
AcDbLine
 10
7202.21715800978
 20
1807.640870403656
 30
0.0
 11
7400.217158009777
 21
2005.640870403646
 31
0.0
  0
LINE
  5
216E1
330
747D
100
AcDbEntity
  8
部品1
100
AcDbLine
 10
7400.217158009773
 20
1754.674754568866
 30
0.0
 11
7400.21715800978
 21
2159.674754568868
 31
0.0
  0
LINE
  5
216E2
330
747D
100
AcDbEntity
  8
細線
 48
50.0
100
AcDbLine
 10
7202.21715800978
 20
1874.992791311673
 30
0.0
 11
7400.217158009778
 21
2072.992791311671
 31
0.0
  0
LINE
  5
216E3
330
747D
100
AcDbEntity
  8
細線
 48
50.0
100
AcDbLine
 10
7202.21715800978
 20
1841.316830857665
 30
0.0
 11
7400.217158009778
 21
2039.316830857662
 31
0.0
  0
LINE
  5
216E4
330
747D
100
AcDbEntity
  8
部品1
100
AcDbLine
 10
7557.717158009779
 20
1754.674754568865
 30
0.0
 11
7400.217158009773
 21
1754.674754568865
 31
0.0
  0
LINE
  5
216E5
330
747D
100
AcDbEntity
  8
部品1
 48
50.0
100
AcDbLine
 10
7202.21715800978
 20
2159.674754568868
 30
0.0
 11
7719.717158009784
 21
2159.674754568868
 31
0.0
  0
LINE
  5
216E6
330
747D
100
AcDbEntity
  8
部品1
100
AcDbLine
 10
7408.417158009773
 20
2171.624754568867
 30
0.0
 11
7660.092158009773
 21
2171.624754568867
 31
0.0
  0
LINE
  5
216E7
330
747D
100
AcDbEntity
  8
部品1
100
AcDbLine
 10
7490.21715800978
 20
1855.924754568866
 30
0.0
 11
7535.21715800978
 21
1855.924754568866
 31
0.0
  0
LINE
  5
216E8
330
747D
100
AcDbEntity
  8
部品1
100
AcDbLine
 10
7490.21715800978
 20
1878.424754568867
 30
0.0
 11
7535.21715800978
 21
1878.424754568867
 31
0.0
  0
LINE
  5
216E9
330
747D
100
AcDbEntity
  8
部品1
100
AcDbLine
 10
7210.09215800978
 20
2174.999754568867
 30
0.0
 11
7210.09215800978
 21
2252.664634197252
 31
0.0
  0
LINE
  5
216EA
330
747D
100
AcDbEntity
  8
細線
100
AcDbLine
 10
7485.71715800978
 20
2171.624754568867
 30
0.0
 11
7485.71715800978
 21
2225.624754568868
 31
0.0
  0
LINE
  5
216EB
330
747D
100
AcDbEntity
  8
細線
100
AcDbLine
 10
7472.217158009783
 20
2171.624754568867
 30
0.0
 11
7472.21715800978
 21
2225.624754568868
 31
0.0
  0
LINE
  5
216EC
330
747D
100
AcDbEntity
  8
部品1
100
AcDbLine
 10
7390.09215800978
 20
2228.299754568868
 30
0.0
 11
7390.09215800978
 21
2174.999754568867
 31
0.0
  0
LINE
  5
216ED
330
747D
100
AcDbEntity
  8
部品1
100
AcDbLine
 10
7405.042158009783
 20
2243.249754568869
 30
0.0
 11
7405.042158009776
 21
2174.999754568867
 31
0.0
  0
LINE
  5
216EE
330
747D
100
AcDbEntity
  8
部品1
100
AcDbLine
 10
7490.21715800978
 20
1878.424754568867
 30
0.0
 11
7490.217158009777
 21
2221.124754568867
 31
0.0
  0
LINE
  5
216EF
330
747D
100
AcDbEntity
  8
部品1
100
AcDbLine
 10
7467.71715800978
 20
1878.424754568867
 30
0.0
 11
7467.717158009776
 21
2221.124754568867
 31
0.0
  0
TEXT
  5
216F0
330
747D
100
AcDbEntity
  8
部品1
 48
50.0
100
AcDbText
 10
6684.542280718584
 20
1873.723494922936
 30
0.0
 40
100.0
  1
▽G.L
  7
STYLE2
100
AcDbText
  0
LWPOLYLINE
  5
216F1
330
747D
100
AcDbEntity
  8
部品1
 48
50.0
100
AcDbPolyline
 90
        2
 70
     0
 43
10.0
 10
6684.542280718585
 20
1859.674754568869
 10
7202.21715800978
 20
1859.674754568869
  0
LINE
  5
216F2
330
747D
100
AcDbEntity
  8
部品1
 48
50.0
100
AcDbLine
 10
7719.71715800978
 20
1479.674754568866
 30
0.0
 11
7879.717158009781
 21
1479.674754568866
 31
0.0
  0
LINE
  5
216F3
330
747D
100
AcDbEntity
  8
細線
 48
50.0
100
AcDbLine
 10
7727.969327132068
 20
1149.674754568867
 30
0.0
 11
7719.930851359137
 21
1179.674754568866
 31
0.0
  0
LINE
  5
216F4
330
747D
100
AcDbEntity
  8
細線
 48
50.0
100
AcDbLine
 10
7826.579383316141
 20
1149.674754568865
 30
0.0
 11
7818.540907543209
 21
1179.674754568865
 31
0.0
  0
LINE
  5
216F5
330
747D
100
AcDbEntity
  8
細線
 48
50.0
100
AcDbLine
 10
7530.749214763966
 20
1149.674754568867
 30
0.0
 11
7522.710738991034
 21
1179.674754568866
 31
0.0
  0
LINE
  5
216F6
330
747D
100
AcDbEntity
  8
細線
 48
50.0
100
AcDbLine
 10
7629.359270948024
 20
1149.674754568867
 30
0.0
 11
7621.32079517509
 21
1179.674754568866
 31
0.0
  0
LINE
  5
216F7
330
747D
100
AcDbEntity
  8
細線
 48
50.0
100
AcDbLine
 10
7584.529855795271
 20
1179.674754568866
 30
0.0
 11
7879.717158009781
 21
1474.862056783376
 31
0.0
  0
LINE
  5
216F8
330
747D
100
AcDbEntity
  8
細線
 48
50.0
100
AcDbLine
 10
7618.205816249285
 20
1179.674754568866
 30
0.0
 11
7879.717158009781
 21
1441.18609632936
 31
0.0
  0
LINE
  5
216F9
330
747D
100
AcDbEntity
  8
細線
 48
50.0
100
AcDbLine
 10
7651.881776703291
 20
1179.674754568866
 30
0.0
 11
7879.717158009781
 21
1407.510135875362
 31
0.0
  0
LINE
  5
216FA
330
747D
100
AcDbEntity
  8
部品1
 48
50.0
100
AcDbLine
 10
7879.717158009781
 20
1479.674754568866
 30
0.0
 11
7879.717158009781
 21
1179.674754568866
 31
0.0
  0
LINE
  5
216FB
330
747D
100
AcDbEntity
  8
細線
 48
50.0
100
AcDbLine
 10
7333.52910239585
 20
1149.674754568867
 30
0.0
 11
7325.49062662292
 21
1179.674754568866
 31
0.0
  0
LINE
  5
216FC
330
747D
100
AcDbEntity
  8
細線
 48
50.0
100
AcDbLine
 10
7432.139158579909
 20
1149.674754568867
 30
0.0
 11
7424.100682806976
 21
1179.674754568866
 31
0.0
  0
LINE
  5
216FD
330
747D
100
AcDbEntity
  8
細線
 48
50.0
100
AcDbLine
 10
7136.308990027721
 20
1149.674754568867
 30
0.0
 11
7128.270514254788
 21
1179.674754568866
 31
0.0
  0
LINE
  5
216FE
330
747D
100
AcDbEntity
  8
細線
 48
50.0
100
AcDbLine
 10
7234.919046211786
 20
1149.674754568867
 30
0.0
 11
7226.880570438853
 21
1179.674754568866
 31
0.0
  0
LINE
  5
216FF
330
747D
100
AcDbEntity
  8
細線
 48
50.0
100
AcDbLine
 10
7315.122172163197
 20
1179.674754568866
 30
0.0
 11
7719.717158009778
 21
1584.269740415449
 31
0.0
  0
LINE
  5
21700
330
747D
100
AcDbEntity
  8
細線
 48
50.0
100
AcDbLine
 10
7348.798132617209
 20
1179.674754568866
 30
0.0
 11
7719.71715800978
 21
1550.593779961432
 31
0.0
  0
LINE
  5
21701
330
747D
100
AcDbEntity
  8
細線
 48
50.0
100
AcDbLine
 10
7382.474093071216
 20
1179.674754568866
 30
0.0
 11
7719.71715800978
 21
1516.917819507439
 31
0.0
  0
LINE
  5
21702
330
747D
100
AcDbEntity
  8
細線
 48
50.0
100
AcDbLine
 10
7701.174407888969
 20
1049.674754568866
 30
0.0
 11
7709.212883661918
 21
1019.674754568866
 31
0.0
  0
LINE
  5
21703
330
747D
100
AcDbEntity
  8
細線
 48
50.0
100
AcDbLine
 10
7799.784464073031
 20
1049.674754568865
 30
0.0
 11
7807.822939845964
 21
1019.674754568865
 31
0.0
  0
LINE
  5
21704
330
747D
100
AcDbEntity
  8
細線
 48
50.0
100
AcDbLine
 10
7503.954295520853
 20
1049.674754568866
 30
0.0
 11
7511.992771293788
 21
1019.674754568866
 31
0.0
  0
LINE
  5
21705
330
747D
100
AcDbEntity
  8
細線
 48
50.0
100
AcDbLine
 10
7602.564351704912
 20
1049.674754568866
 30
0.0
 11
7610.602827477845
 21
1019.674754568866
 31
0.0
  0
LINE
  5
21706
330
747D
100
AcDbEntity
  8
細線
 48
50.0
100
AcDbLine
 10
7306.73418315274
 20
1049.674754568866
 30
0.0
 11
7314.772658925673
 21
1019.674754568866
 31
0.0
  0
LINE
  5
21707
330
747D
100
AcDbEntity
  8
細線
 48
50.0
100
AcDbLine
 10
7405.344239336797
 20
1049.674754568866
 30
0.0
 11
7413.38271510973
 21
1019.674754568866
 31
0.0
  0
LINE
  5
21708
330
747D
100
AcDbEntity
  8
細線
 48
50.0
100
AcDbLine
 10
7109.51407078461
 20
1049.674754568866
 30
0.0
 11
7117.552546557543
 21
1019.674754568866
 31
0.0
  0
LINE
  5
21709
330
747D
100
AcDbEntity
  8
細線
 48
50.0
100
AcDbLine
 10
7208.124126968674
 20
1049.674754568866
 30
0.0
 11
7216.162602741609
 21
1019.674754568866
 31
0.0
  0
LINE
  5
2170A
330
747D
100
AcDbEntity
  8
細線
 48
50.0
100
AcDbLine
 10
7693.135932116033
 20
1019.674754568865
 30
0.0
 11
7736.007802905
 21
1179.674754568866
 31
0.0
  0
LINE
  5
2170B
330
747D
100
AcDbEntity
  8
細線
 48
50.0
100
AcDbLine
 10
7791.745988300094
 20
1019.674754568863
 30
0.0
 11
7834.617859089073
 21
1179.674754568863
 31
0.0
  0
LINE
  5
2170C
330
747D
100
AcDbEntity
  8
細線
 48
50.0
100
AcDbLine
 10
7495.915819747917
 20
1019.674754568865
 30
0.0
 11
7538.787690536898
 21
1179.674754568865
 31
0.0
  0
LINE
  5
2170D
330
747D
100
AcDbEntity
  8
細線
 48
50.0
100
AcDbLine
 10
7298.695707379798
 20
1019.674754568866
 30
0.0
 11
7341.567578168777
 21
1179.674754568866
 31
0.0
  0
LINE
  5
2170E
330
747D
100
AcDbEntity
  8
細線
 48
50.0
100
AcDbLine
 10
7397.305763563856
 20
1019.674754568866
 30
0.0
 11
7440.177634352838
 21
1179.674754568865
 31
0.0
  0
LINE
  5
2170F
330
747D
100
AcDbEntity
  8
細線
 48
50.0
100
AcDbLine
 10
7594.52587593197
 20
1019.674754568866
 30
0.0
 11
7637.397746720954
 21
1179.674754568865
 31
0.0
  0
LINE
  5
21710
330
747D
100
AcDbEntity
  8
細線
 48
50.0
100
AcDbLine
 10
7101.475595011677
 20
1019.674754568866
 30
0.0
 11
7144.347465800655
 21
1179.674754568866
 31
0.0
  0
LINE
  5
21711
330
747D
100
AcDbEntity
  8
細線
 48
50.0
100
AcDbLine
 10
7200.085651195732
 20
1019.674754568865
 30
0.0
 11
7242.957521984712
 21
1179.674754568865
 31
0.0
  0
LINE
  5
21712
330
747D
100
AcDbEntity
  8
細線
 48
50.0
100
AcDbLine
 10
7042.217158009773
 20
1445.585107679599
 30
0.0
 11
7076.306804899047
 21
1479.674754568866
 31
0.0
  0
LINE
  5
21713
330
747D
100
AcDbEntity
  8
細線
 48
50.0
100
AcDbLine
 10
6942.217158009781
 20
1161.349655776091
 30
0.0
 11
6947.127353432525
 21
1179.674754568866
 31
0.0
  0
LINE
  5
21714
330
747D
100
AcDbEntity
  8
細線
 48
50.0
100
AcDbLine
 10
7037.698933843656
 20
1149.674754568867
 30
0.0
 11
7029.660458070722
 21
1179.674754568866
 31
0.0
  0
LINE
  5
21715
330
747D
100
AcDbEntity
  8
部品1
 48
50.0
100
AcDbLine
 10
7042.217158009781
 20
1179.674754568866
 30
0.0
 11
7042.217158009781
 21
1479.674754568866
 31
0.0
  0
LINE
  5
21716
330
747D
100
AcDbEntity
  8
細線
 48
50.0
100
AcDbLine
 10
7010.904014600544
 20
1049.674754568866
 30
0.0
 11
7018.942490373477
 21
1019.674754568866
 31
0.0
  0
LINE
  5
21717
330
747D
100
AcDbEntity
  8
部品1
 48
50.0
100
AcDbLine
 10
6942.217158009784
 20
1019.674754568866
 30
0.0
 11
6942.217158009784
 21
1179.674754568866
 31
0.0
  0
LINE
  5
21718
330
747D
100
AcDbEntity
  8
細線
 48
50.0
100
AcDbLine
 10
7002.865538827603
 20
1019.674754568865
 30
0.0
 11
7045.737409616582
 21
1179.674754568865
 31
0.0
  0
LINE
  5
21719
330
747D
100
AcDbEntity
  8
細線
 48
50.0
100
AcDbLine
 10
7042.217158009773
 20
1411.909147225586
 30
0.0
 11
7109.982765353061
 21
1479.674754568866
 31
0.0
  0
LINE
  5
2171A
330
747D
100
AcDbEntity
  8
細線
 48
50.0
100
AcDbLine
 10
7042.217158009773
 20
1378.233186771581
 30
0.0
 11
7143.658725807068
 21
1479.674754568866
 31
0.0
  0
LINE
  5
2171B
330
747D
100
AcDbEntity
  8
部品1
 48
50.0
100
AcDbLine
 10
7042.217158009781
 20
1479.674754568866
 30
0.0
 11
7202.21715800978
 21
1479.674754568866
 31
0.0
  0
LINE
  5
2171C
330
747D
100
AcDbEntity
  8
細線
 48
50.0
100
AcDbLine
 10
7045.714488531122
 20
1179.674754568866
 30
0.0
 11
7719.717158009778
 21
1853.677424047524
 31
0.0
  0
LINE
  5
2171D
330
747D
100
AcDbEntity
  8
部品1
100
AcDbLine
 10
7719.717158009778
 20
1479.674754568866
 30
0.0
 11
7719.71715800978
 21
2159.674754568868
 31
0.0
  0
LINE
  5
2171E
330
747D
100
AcDbEntity
  8
部品1
 48
50.0
100
AcDbLine
 10
7202.21715800978
 20
1479.674754568866
 30
0.0
 11
7202.21715800978
 21
2159.674754568868
 31
0.0
  0
LINE
  5
2171F
330
747D
100
AcDbEntity
  8
細線
 48
50.0
100
AcDbLine
 10
7202.21715800978
 20
1571.909147225589
 30
0.0
 11
7400.217158009771
 21
1769.909147225575
 31
0.0
  0
LINE
  5
21720
330
747D
100
AcDbEntity
  8
細線
 48
50.0
100
AcDbLine
 10
7202.21715800978
 20
1538.233186771581
 30
0.0
 11
7418.658725807074
 21
1754.674754568865
 31
0.0
  0
LINE
  5
21721
330
747D
100
AcDbEntity
  8
細線
 48
50.0
100
AcDbLine
 10
7202.21715800978
 20
1605.585107679599
 30
0.0
 11
7400.217158009771
 21
1803.585107679592
 31
0.0
  0
LINE
  5
21722
330
747D
100
AcDbEntity
  8
細線
 48
50.0
100
AcDbLine
 10
7113.066409439142
 20
1179.674754568866
 30
0.0
 11
7719.71715800978
 21
1786.325503139502
 31
0.0
  0
LINE
  5
21723
330
747D
100
AcDbEntity
  8
細線
 48
50.0
100
AcDbLine
 10
7079.390448985134
 20
1179.674754568866
 30
0.0
 11
7719.717158009784
 21
1820.00146359351
 31
0.0
  0
TEXT
  5
21724
330
747D
100
AcDbEntity
  8
部品1
 48
50.0
100
AcDbText
 10
7725.159138365317
 20
2604.523105521618
 30
0.0
 40
100.0
  1
基礎ボルト(市販品)
  7
STYLE2
100
AcDbText
  0
DIMENSION
  5
21725
330
747D
100
AcDbEntity
  8
寸法
 48
50.0
100
AcDbDimension
  2
*D24
 10
8692.121240369619
 20
2159.674754568868
 30
0.0
 11
8692.121240369619
 21
1693.665851147386
 31
0.0
 70
   160
  1
20～25
 71
     5
 42
65.94999999999981
  3
INABA_S40G
100
AcDbAlignedDimension
 13
7485.71715800978
 23
2225.624754568868
 33
0.0
 14
7719.71715800978
 24
2159.674754568868
 34
0.0
 50
90.0
100
AcDbRotatedDimension
  0
LINE
  5
21726
330
747D
100
AcDbEntity
  8
細線
 48
50.0
100
AcDbLine
 10
7890.356044484147
 20
1019.674754568865
 30
0.0
 11
7933.22791527313
 21
1179.674754568863
 31
0.0
  0
LINE
  5
21727
330
747D
100
AcDbEntity
  8
部品1
 48
50.0
100
AcDbLine
 10
7979.717158009783
 20
1019.674754568866
 30
0.0
 11
6942.217158009784
 21
1019.674754568866
 31
0.0
  0
LINE
  5
21728
330
747D
100
AcDbEntity
  8
細線
 48
50.0
100
AcDbLine
 10
7898.394520257089
 20
1049.674754568865
 30
0.0
 11
7906.432996030023
 21
1019.674754568865
 31
0.0
  0
LINE
  5
21729
330
747D
100
AcDbEntity
  8
部品1
 48
50.0
100
AcDbLine
 10
7979.717158009783
 20
1179.674754568866
 30
0.0
 11
6942.217158009784
 21
1179.674754568866
 31
0.0
  0
LWPOLYLINE
  5
2172A
330
747D
100
AcDbEntity
  8
部品1
 48
50.0
100
AcDbPolyline
 90
        2
 70
     0
 43
10.0
 10
7719.71715800978
 20
1859.674754568869
 10
8086.84523725901
 20
1859.674754568869
  0
DIMENSION
  5
2172B
330
747D
100
AcDbEntity
  8
寸法
 48
50.0
100
AcDbDimension
  2
*D25
 10
8347.052907720835
 20
1754.674754568865
 30
0.0
 11
8247.052907720835
 21
1957.174754568868
 31
0.0
 70
    32
  1
180
 71
     5
 42
405.0000000000022
  3
INABA_S40G
100
AcDbAlignedDimension
 13
7719.71715800978
 23
2159.674754568868
 33
0.0
 14
7719.71715800978
 24
1754.674754568865
 34
0.0
 50
90.0
100
AcDbRotatedDimension
  0
MTEXT
  5
2172C
102
{ACAD_REACTORS
330
2172D
102
}
330
747D
100
AcDbEntity
  8
部品1
 62
     7
 48
50.0
100
AcDbMText
 10
7730.897736033928
 20
2490.153912260405
 30
0.0
 40
100.0
 41
1.0
 71
     4
 72
     1
  1
M10X160
  7
STYLE2
 73
     1
 44
1.0
1001
ACAD
1000
MTEXTBEGIN
1070
    73
1070
     1
1070
    44
1040
1.0
1070
    74
1070
     0
1000
MTEXTEND
  0
LEADER
  5
2172D
330
747D
100
AcDbEntity
  8
寸法
 48
50.0
100
AcDbLeader
  3
INABA_S40G
 73
     0
 74
     0
 75
     1
 40
100.0
 41
543.75
 76
     3
 10
7490.21715800978
 20
2221.124754568867
 30
0.0
 10
7590.897736033929
 20
2400.153912260405
 30
0.0
 10
7690.897736033929
 20
2400.153912260405
 30
0.0
  0
LINE
  5
2172E
330
747D
100
AcDbEntity
  8
細線
 48
50.0
100
AcDbLine
 10
5077.168016538287
 20
2110.72451448974
 30
0.0
 11
5126.118256617419
 21
2159.674754568868
 31
0.0
  0
LINE
  5
2172F
330
747D
100
AcDbEntity
  8
細線
 48
50.0
100
AcDbLine
 10
5077.168016538287
 20
2077.04855403573
 30
0.0
 11
5159.794217071425
 21
2159.674754568868
 31
0.0
  0
LINE
  5
21730
330
747D
100
AcDbEntity
  8
細線
 48
50.0
100
AcDbLine
 10
5077.168016538287
 20
2144.400474943749
 30
0.0
 11
5092.442296163406
 21
2159.674754568868
 31
0.0
  0
ARC
  5
21731
330
747D
100
AcDbEntity
  8
部品1
 48
50.0
100
AcDbCircle
 10
5197.168016538288
 20
1984.992791311674
 30
0.0
 40
30.0
100
AcDbArc
 50
0.0
 51
180.0
  0
CIRCLE
  5
21732
330
747D
100
AcDbEntity
  8
部品1
 48
50.0
100
AcDbCircle
 10
5197.168016538288
 20
1984.992791311674
 30
0.0
 40
10.0
  0
LINE
  5
21733
330
747D
100
AcDbEntity
  8
細線
 48
50.0
100
AcDbLine
 10
5187.168016538287
 20
1951.316830857664
 30
0.0
 11
5207.168016538288
 21
1971.316830857665
 31
0.0
  0
LINE
  5
21734
330
747D
100
AcDbEntity
  8
細線
 48
50.0
100
AcDbLine
 10
5227.168016538287
 20
1957.640870403654
 30
0.0
 11
5317.168016538288
 21
2047.640870403656
 31
0.0
  0
LINE
  5
21735
330
747D
100
AcDbEntity
  8
細線
 48
50.0
100
AcDbLine
 10
5226.608900620771
 20
1990.757714940144
 30
0.0
 11
5317.168016538288
 21
2081.316830857665
 31
0.0
  0
LINE
  5
21736
330
747D
100
AcDbEntity
  8
細線
 48
50.0
100
AcDbLine
 10
5212.783544666375
 20
2010.608319439762
 30
0.0
 11
5317.168016538288
 21
2114.992791311673
 31
0.0
  0
LINE
  5
21737
330
747D
100
AcDbEntity
  8
部品1
 48
50.0
100
AcDbLine
 10
5077.168016538287
 20
2159.674754568868
 30
0.0
 11
5317.168016538288
 21
2159.674754568868
 31
0.0
  0
LINE
  5
21738
330
747D
100
AcDbEntity
  8
細線
 48
50.0
100
AcDbLine
 10
5077.168016538287
 20
1807.640870403656
 30
0.0
 11
5181.860919074907
 21
1912.333772940271
 31
0.0
  0
LINE
  5
21739
330
747D
100
AcDbEntity
  8
部品1
 48
50.0
100
AcDbLine
 10
5187.168016538287
 20
1912.333772940271
 30
0.0
 11
5167.168016538288
 21
1912.333772940274
 31
0.0
  0
LINE
  5
2173A
330
747D
100
AcDbEntity
  8
細線
 48
50.0
100
AcDbLine
 10
5227.168016538295
 20
1688.23318677158
 30
0.0
 11
5317.16801653828
 21
1778.233186771581
 31
0.0
  0
LINE
  5
2173B
330
747D
100
AcDbEntity
  8
細線
 48
50.0
100
AcDbLine
 10
5227.168016538287
 20
1755.585107679598
 30
0.0
 11
5317.168016538288
 21
1845.585107679599
 31
0.0
  0
LINE
  5
2173C
330
747D
100
AcDbEntity
  8
細線
 48
50.0
100
AcDbLine
 10
5227.168016538295
 20
1721.909147225593
 30
0.0
 11
5317.16801653828
 21
1811.909147225586
 31
0.0
  0
LINE
  5
2173D
330
747D
100
AcDbEntity
  8
細線
 48
50.0
100
AcDbLine
 10
5077.168016538287
 20
1841.316830857665
 30
0.0
 11
5167.168016538288
 21
1931.316830857664
 31
0.0
  0
LINE
  5
2173E
330
747D
100
AcDbEntity
  8
細線
 48
50.0
100
AcDbLine
 10
5077.168016538287
 20
1874.992791311673
 30
0.0
 11
5167.168016538288
 21
1964.992791311673
 31
0.0
  0
LINE
  5
2173F
330
747D
100
AcDbEntity
  8
細線
 48
50.0
100
AcDbLine
 10
5187.168016538287
 20
1917.640870403656
 30
0.0
 11
5207.168016538288
 21
1937.640870403656
 31
0.0
  0
LINE
  5
21740
330
747D
100
AcDbEntity
  8
部品1
 48
50.0
100
AcDbLine
 10
5167.168016538288
 20
1912.333772940274
 30
0.0
 11
5167.168016538288
 21
1984.992791311674
 31
0.0
  0
LINE
  5
21741
330
747D
100
AcDbEntity
  8
部品1
 48
50.0
100
AcDbLine
 10
5187.168016538287
 20
1912.333772940271
 30
0.0
 11
5187.168016538287
 21
1984.992791311674
 31
0.0
  0
LEADER
  5
21742
330
747D
100
AcDbEntity
  8
寸法
 48
50.0
100
AcDbLeader
  3
INABA_S40G
 71
     0
 73
     0
 74
     0
 75
     1
 40
100.0
 41
222.7272727272727
 76
     3
 10
5197.168016538287
 20
1984.992791311674
 30
0.0
 10
5295.775437822531
 20
1911.259206192526
 30
0.0
 10
5395.775437822531
 20
1911.259206192526
 30
0.0
  0
LWPOLYLINE
  5
21743
330
747D
100
AcDbEntity
  8
部品1
 48
50.0
100
AcDbPolyline
 90
        2
 70
     0
 43
10.0
 10
5317.168016538286
 20
1859.674754568869
 10
5834.842893829485
 20
1859.674754568869
  0
MTEXT
  5
21744
102
{ACAD_REACTORS
330
21742
102
}
330
747D
100
AcDbEntity
  8
寸法
 62
     7
 48
50.0
100
AcDbMText
 10
5420.775437822531
 20
1986.259206192526
 30
0.0
 40
100.0
 41
1.0
 71
     4
 72
     1
  1
D13
  7
STYLE2
 73
     1
 44
1.0
1001
ACAD
1000
MTEXTBEGIN
1070
    73
1070
     1
1070
    44
1040
1.0
1070
    74
1070
     0
1000
MTEXTEND
  0
LINE
  5
21745
330
747D
100
AcDbEntity
  8
細線
 48
50.0
100
AcDbLine
 10
5504.310129476532
 20
1149.674754568867
 30
0.0
 11
5496.271653703598
 21
1179.674754568866
 31
0.0
  0
LINE
  5
21746
330
747D
100
AcDbEntity
  8
細線
 48
50.0
100
AcDbLine
 10
5459.480714323779
 20
1179.674754568866
 30
0.0
 11
5477.168016538287
 21
1197.362056783375
 31
0.0
  0
MTEXT
  5
21747
102
{ACAD_REACTORS
330
21786
102
}
330
747D
100
AcDbEntity
  8
寸法
 62
     7
 48
50.0
100
AcDbMText
 10
5606.327591296643
 20
1285.42841839015
 30
0.0
 40
100.0
 41
1.0
 71
     4
 72
     1
  1
D10
  7
STYLE2
 73
     1
 44
1.0
1001
ACAD
1000
MTEXTBEGIN
1070
    73
1070
     1
1070
    44
1040
1.0
1070
    74
1070
     0
1000
MTEXTEND
  0
LINE
  5
21748
330
747D
100
AcDbEntity
  8
部品1
 48
50.0
100
AcDbLine
 10
5477.168016538287
 20
1479.674754568866
 30
0.0
 11
5477.168016538287
 21
1179.674754568866
 31
0.0
  0
LINE
  5
21749
330
747D
100
AcDbEntity
  8
細線
 48
50.0
100
AcDbLine
 10
5477.51521023342
 20
1049.674754568866
 30
0.0
 11
5485.553686006353
 21
1019.674754568866
 31
0.0
  0
LINE
  5
2174A
330
747D
100
AcDbEntity
  8
細線
 48
50.0
100
AcDbLine
 10
5576.125266417477
 20
1049.674754568866
 30
0.0
 11
5577.168016538287
 21
1045.78315813841
 31
0.0
  0
LINE
  5
2174B
330
747D
100
AcDbEntity
  8
細線
 48
50.0
100
AcDbLine
 10
5568.086790644542
 20
1019.674754568865
 30
0.0
 11
5577.168016538287
 21
1053.566350999352
 31
0.0
  0
MTEXT
  5
2174C
102
{ACAD_REACTORS
330
21784
102
}
330
747D
100
AcDbEntity
  8
寸法
 62
     7
 48
50.0
100
AcDbMText
 10
5619.341086364851
 20
957.9883974036752
 30
0.0
 40
100.0
 41
1.0
 71
     4
 72
     1
  1
\A1;D10@300
  7
STYLE2
 73
     1
 44
1.0
1001
ACAD
1000
MTEXTBEGIN
1070
    73
1070
     1
1070
    44
1040
1.0
1070
    74
1070
     0
1000
MTEXTEND
  0
LINE
  5
2174D
330
747D
100
AcDbEntity
  8
部品1
 48
50.0
100
AcDbLine
 10
5577.168016538291
 20
1179.674754568866
 30
0.0
 11
5577.168016538291
 21
1019.674754568866
 31
0.0
  0
LINE
  5
2174E
330
747D
100
AcDbEntity
  8
細線
 48
50.0
100
AcDbLine
 10
5469.476734460479
 20
1019.674754568866
 30
0.0
 11
5512.348605249461
 21
1179.674754568865
 31
0.0
  0
LINE
  5
2174F
330
747D
100
AcDbEntity
  8
部品1
 48
50.0
100
AcDbLine
 10
5187.168016538287
 20
1402.33377294027
 30
0.0
 11
5167.168016538288
 21
1402.33377294027
 31
0.0
  0
LINE
  5
21750
330
747D
100
AcDbEntity
  8
細線
 48
50.0
100
AcDbLine
 10
5177.000325885042
 20
1402.33377294027
 30
0.0
 11
5207.168016538295
 21
1432.501463593519
 31
0.0
  0
LINE
  5
21751
330
747D
100
AcDbEntity
  8
細線
 48
50.0
100
AcDbLine
 10
5187.168016538287
 20
1378.825503139506
 30
0.0
 11
5207.168016538295
 21
1398.825503139505
 31
0.0
  0
LINE
  5
21752
330
747D
100
AcDbEntity
  8
細線
 48
50.0
100
AcDbLine
 10
5227.168016538295
 20
1452.501463593519
 30
0.0
 11
5317.16801653828
 21
1542.501463593511
 31
0.0
  0
LINE
  5
21753
330
747D
100
AcDbEntity
  8
細線
 48
50.0
100
AcDbLine
 10
5227.168016538295
 20
1486.177424047529
 30
0.0
 11
5317.16801653828
 21
1576.177424047525
 31
0.0
  0
LINE
  5
21754
330
747D
100
AcDbEntity
  8
細線
 48
50.0
100
AcDbLine
 10
5227.168016538295
 20
1418.825503139506
 30
0.0
 11
5317.16801653828
 21
1508.825503139505
 31
0.0
  0
LINE
  5
21755
330
747D
100
AcDbEntity
  8
細線
 48
50.0
100
AcDbLine
 10
5257.424951599723
 20
1179.674754568866
 30
0.0
 11
5377.426061406143
 21
1299.675864375291
 31
0.0
  0
LINE
  5
21756
330
747D
100
AcDbEntity
  8
部品1
 48
50.0
100
AcDbLine
 10
5407.168016538288
 20
1319.674754568866
 30
0.0
 11
5407.168016538288
 21
1299.674754568866
 31
0.0
  0
LINE
  5
21757
330
747D
100
AcDbEntity
  8
細線
 48
50.0
100
AcDbLine
 10
5405.700073292473
 20
1149.674754568867
 30
0.0
 11
5397.66159751954
 21
1179.674754568866
 31
0.0
  0
CIRCLE
  5
21758
330
747D
100
AcDbEntity
  8
部品1
 48
50.0
100
AcDbCircle
 10
5357.168016538288
 20
1329.674754568866
 30
0.0
 40
10.0
  0
LINE
  5
21759
330
747D
100
AcDbEntity
  8
細線
 48
50.0
100
AcDbLine
 10
5307.090017108416
 20
1149.674754568867
 30
0.0
 11
5299.051541335483
 21
1179.674754568866
 31
0.0
  0
ARC
  5
2175A
330
747D
100
AcDbEntity
  8
部品1
 48
50.0
100
AcDbCircle
 10
5197.168016538288
 20
1329.674754568866
 30
0.0
 40
30.0
100
AcDbArc
 50
340.5287793654919
 51
0.0
  0
LINE
  5
2175B
330
747D
100
AcDbEntity
  8
細線
 48
50.0
100
AcDbLine
 10
5208.479960924358
 20
1149.674754568867
 30
0.0
 11
5200.441485151425
 21
1179.674754568866
 31
0.0
  0
ARC
  5
2175C
330
747D
100
AcDbEntity
  8
部品1
 48
50.0
100
AcDbCircle
 10
5197.168016538288
 20
1329.674754568866
 30
0.0
 40
30.0
100
AcDbArc
 50
180.0
 51
199.4712206345081
  0
LINE
  5
2175D
330
747D
100
AcDbEntity
  8
細線
 48
50.0
100
AcDbLine
 10
5109.869904740293
 20
1149.674754568867
 30
0.0
 11
5101.83142896736
 21
1179.674754568866
 31
0.0
  0
CIRCLE
  5
2175E
330
747D
100
AcDbEntity
  8
部品1
 48
50.0
100
AcDbCircle
 10
5197.168016538288
 20
1329.674754568866
 30
0.0
 40
10.0
  0
LINE
  5
2175F
330
747D
100
AcDbEntity
  8
細線
 48
50.0
100
AcDbLine
 10
5223.748991145718
 20
1179.674754568866
 30
0.0
 11
5343.748991145718
 21
1299.674754568866
 31
0.0
  0
LINE
  5
21760
330
747D
100
AcDbEntity
  8
細線
 48
50.0
100
AcDbLine
 10
5190.073030691705
 20
1179.674754568866
 30
0.0
 11
5310.073030691705
 21
1299.674754568866
 31
0.0
  0
LINE
  5
21761
330
747D
100
AcDbEntity
  8
細線
 48
50.0
100
AcDbLine
 10
5060.665347059631
 20
1319.674754568866
 30
0.0
 11
5207.168016538288
 21
1466.177424047525
 31
0.0
  0
LINE
  5
21762
330
747D
100
AcDbEntity
  8
細線
 48
50.0
100
AcDbLine
 10
5128.017267967649
 20
1319.674754568866
 30
0.0
 11
5167.168016538288
 21
1358.825503139505
 31
0.0
  0
LINE
  5
21763
330
747D
100
AcDbEntity
  8
部品1
 48
50.0
100
AcDbLine
 10
5167.168016538288
 20
1402.33377294027
 30
0.0
 11
5167.168016538288
 21
1329.674754568866
 31
0.0
  0
LINE
  5
21764
330
747D
100
AcDbEntity
  8
細線
 48
50.0
100
AcDbLine
 10
5094.341307513643
 20
1319.674754568866
 30
0.0
 11
5167.168016538288
 21
1392.501463593515
 31
0.0
  0
LINE
  5
21765
330
747D
100
AcDbEntity
  8
部品1
 48
50.0
100
AcDbLine
 10
5187.168016538287
 20
1402.33377294027
 30
0.0
 11
5187.168016538287
 21
1329.674754568866
 31
0.0
  0
LINE
  5
21766
330
747D
100
AcDbEntity
  8
細線
 48
50.0
100
AcDbLine
 10
4917.16801653828
 20
1411.909147225586
 30
0.0
 11
4984.933623881569
 21
1479.674754568866
 31
0.0
  0
LINE
  5
21767
330
747D
100
AcDbEntity
  8
細線
 48
50.0
100
AcDbLine
 10
4917.16801653828
 20
1445.585107679599
 30
0.0
 11
4951.257663427555
 21
1479.674754568866
 31
0.0
  0
LINE
  5
21768
330
747D
100
AcDbEntity
  8
細線
 48
50.0
100
AcDbLine
 10
4917.16801653828
 20
1378.233186771581
 30
0.0
 11
5018.609584335575
 21
1479.674754568866
 31
0.0
  0
LINE
  5
21769
330
747D
100
AcDbEntity
  8
部品1
 48
50.0
100
AcDbLine
 10
4987.168016538287
 20
1319.674754568866
 30
0.0
 11
4987.168016538287
 21
1299.674754568866
 31
0.0
  0
LINE
  5
2176A
330
747D
100
AcDbEntity
  8
細線
 48
50.0
100
AcDbLine
 10
5011.259848556228
 20
1149.674754568867
 30
0.0
 11
5003.221372783295
 21
1179.674754568866
 31
0.0
  0
LINE
  5
2176B
330
747D
100
AcDbEntity
  8
細線
 48
50.0
100
AcDbLine
 10
4912.649792372164
 20
1149.674754568867
 30
0.0
 11
4904.61131659923
 21
1179.674754568866
 31
0.0
  0
LINE
  5
2176C
330
747D
100
AcDbEntity
  8
細線
 48
50.0
100
AcDbLine
 10
4817.168016538288
 20
1161.349655776091
 30
0.0
 11
4822.078211961032
 21
1179.674754568866
 31
0.0
  0
LINE
  5
2176D
330
747D
100
AcDbEntity
  8
部品1
 48
50.0
100
AcDbLine
 10
4917.168016538288
 20
1179.674754568866
 30
0.0
 11
4917.168016538288
 21
1479.674754568866
 31
0.0
  0
LINE
  5
2176E
330
747D
100
AcDbEntity
  8
部品1
 48
50.0
100
AcDbLine
 10
4987.168016538287
 20
1299.674754568866
 30
0.0
 11
5407.168016538288
 21
1299.674754568866
 31
0.0
  0
LINE
  5
2176F
330
747D
100
AcDbEntity
  8
部品1
 48
50.0
100
AcDbLine
 10
4987.168016538287
 20
1319.674754568866
 30
0.0
 11
5407.168016538288
 21
1319.674754568866
 31
0.0
  0
LINE
  5
21770
330
747D
100
AcDbEntity
  8
細線
 48
50.0
100
AcDbLine
 10
4988.017267967649
 20
1179.674754568866
 30
0.0
 11
5108.017267967649
 21
1299.674754568866
 31
0.0
  0
CIRCLE
  5
21771
330
747D
100
AcDbEntity
  8
部品1
 48
50.0
100
AcDbCircle
 10
5037.168016538288
 20
1329.674754568866
 30
0.0
 40
10.0
  0
LINE
  5
21772
330
747D
100
AcDbEntity
  8
細線
 48
50.0
100
AcDbLine
 10
4954.341307513644
 20
1179.674754568866
 30
0.0
 11
5074.341307513643
 21
1299.674754568866
 31
0.0
  0
LINE
  5
21773
330
747D
100
AcDbEntity
  8
細線
 48
50.0
100
AcDbLine
 10
4920.66534705963
 20
1179.674754568866
 30
0.0
 11
5040.66534705963
 21
1299.674754568866
 31
0.0
  0
LINE
  5
21774
330
747D
100
AcDbEntity
  8
部品1
 48
50.0
100
AcDbLine
 10
4917.168016538288
 20
1479.674754568866
 30
0.0
 11
5077.168016538287
 21
1479.674754568866
 31
0.0
  0
LINE
  5
21775
330
747D
100
AcDbEntity
  8
細線
 48
50.0
100
AcDbLine
 10
5280.295097865304
 20
1049.674754568866
 30
0.0
 11
5288.333573638237
 21
1019.674754568866
 31
0.0
  0
LINE
  5
21776
330
747D
100
AcDbEntity
  8
細線
 48
50.0
100
AcDbLine
 10
5378.905154049363
 20
1049.674754568866
 30
0.0
 11
5386.943629822296
 21
1019.674754568866
 31
0.0
  0
LINE
  5
21777
330
747D
100
AcDbEntity
  8
細線
 48
50.0
100
AcDbLine
 10
5083.074985497182
 20
1049.674754568866
 30
0.0
 11
5091.113461270115
 21
1019.674754568866
 31
0.0
  0
LINE
  5
21778
330
747D
100
AcDbEntity
  8
細線
 48
50.0
100
AcDbLine
 10
5181.685041681247
 20
1049.674754568866
 30
0.0
 11
5189.72351745418
 21
1019.674754568866
 31
0.0
  0
LINE
  5
21779
330
747D
100
AcDbEntity
  8
細線
 48
50.0
100
AcDbLine
 10
4885.854873129051
 20
1049.674754568866
 30
0.0
 11
4893.893348901986
 21
1019.674754568866
 31
0.0
  0
LINE
  5
2177A
330
747D
100
AcDbEntity
  8
細線
 48
50.0
100
AcDbLine
 10
4984.464929313117
 20
1049.674754568866
 30
0.0
 11
4992.503405086051
 21
1019.674754568866
 31
0.0
  0
LINE
  5
2177B
330
747D
100
AcDbEntity
  8
細線
 48
50.0
100
AcDbLine
 10
5272.256622092363
 20
1019.674754568866
 30
0.0
 11
5315.128492881346
 21
1179.674754568865
 31
0.0
  0
LINE
  5
2177C
330
747D
100
AcDbEntity
  8
細線
 48
50.0
100
AcDbLine
 10
4976.426453540184
 20
1019.674754568866
 30
0.0
 11
5019.298324329162
 21
1179.674754568866
 31
0.0
  0
LINE
  5
2177D
330
747D
100
AcDbEntity
  8
細線
 48
50.0
100
AcDbLine
 10
5075.036509724242
 20
1019.674754568865
 30
0.0
 11
5117.908380513219
 21
1179.674754568865
 31
0.0
  0
LINE
  5
2177E
330
747D
100
AcDbEntity
  8
細線
 48
50.0
100
AcDbLine
 10
4877.816397356111
 20
1019.674754568865
 30
0.0
 11
4920.68826814509
 21
1179.674754568865
 31
0.0
  0
LINE
  5
2177F
330
747D
100
AcDbEntity
  8
部品1
 48
50.0
100
AcDbLine
 10
4817.168016538292
 20
1019.674754568866
 30
0.0
 11
4817.168016538292
 21
1179.674754568866
 31
0.0
  0
LINE
  5
21780
330
747D
100
AcDbEntity
  8
細線
 48
50.0
100
AcDbLine
 10
5173.646565908306
 20
1019.674754568866
 30
0.0
 11
5216.518436697285
 21
1179.674754568866
 31
0.0
  0
LINE
  5
21781
330
747D
100
AcDbEntity
  8
細線
 48
50.0
100
AcDbLine
 10
5370.866678276424
 20
1019.674754568865
 30
0.0
 11
5413.738549065403
 21
1179.674754568865
 31
0.0
  0
LINE
  5
21782
330
747D
100
AcDbEntity
  8
部品1
 48
50.0
100
AcDbLine
 10
5577.168016538291
 20
1019.674754568866
 30
0.0
 11
4817.168016538292
 21
1019.674754568866
 31
0.0
  0
LINE
  5
21783
330
747D
100
AcDbEntity
  8
部品1
 48
50.0
100
AcDbLine
 10
5577.168016538291
 20
1179.674754568866
 30
0.0
 11
4817.168016538292
 21
1179.674754568866
 31
0.0
  0
LEADER
  5
21784
330
747D
100
AcDbEntity
  8
寸法
 48
50.0
100
AcDbLeader
  3
INABA_S40G
 71
     0
 73
     0
 74
     0
 75
     1
 40
100.0
 41
540.3409090909091
 76
     3
 10
5289.599477804755
 20
1308.749091551959
 30
0.0
 10
5494.341086364851
 20
881.7105690583385
 30
0.0
 10
5594.341086364852
 20
881.7105690583385
 30
0.0
213
0.0
223
-1.277828345336728
233
0.0
  0
DIMENSION
  5
21785
330
747D
100
AcDbEntity
  8
寸法
 48
50.0
100
AcDbDimension
  2
*D26
 10
5477.168016538287
 20
720.7226481129332
 30
0.0
 11
5197.168016538287
 21
720.7226481129332
 31
0.0
 70
   160
  1
300
 71
     5
 42
560.0000000000009
  3
INABA_S40G
100
AcDbAlignedDimension
 13
4917.168016538287
 23
1019.674754568866
 33
0.0
 14
5477.168016538287
 24
1019.674754568866
 34
0.0
100
AcDbRotatedDimension
  0
LEADER
  5
21786
330
747D
100
AcDbEntity
  8
寸法
 48
50.0
100
AcDbLeader
  3
INABA_S40G
 71
     0
 73
     0
 74
     0
 75
     1
 40
100.0
 41
225.0
 76
     3
 10
5357.046706978466
 20
1329.674754568866
 30
0.0
 10
5481.327591296643
 20
1210.428418390151
 30
0.0
 10
5581.327591296644
 20
1210.428418390151
 30
0.0
  0
LINE
  5
21787
330
747D
100
AcDbEntity
  8
細線
 48
50.0
100
AcDbLine
 10
5330.073030691697
 20
1319.674754568866
 30
0.0
 11
5477.168016538287
 21
1466.76974041545
 31
0.0
  0
LINE
  5
21788
330
747D
100
AcDbEntity
  8
細線
 48
50.0
100
AcDbLine
 10
5397.424951599724
 20
1319.674754568866
 30
0.0
 11
5477.168016538287
 21
1399.417819507431
 31
0.0
  0
LINE
  5
21789
330
747D
100
AcDbEntity
  8
細線
 48
50.0
100
AcDbLine
 10
5363.748991145718
 20
1319.674754568866
 30
0.0
 11
5477.168016538287
 21
1433.09377996144
 31
0.0
  0
LINE
  5
2178A
330
747D
100
AcDbEntity
  8
部品1
 48
50.0
100
AcDbLine
 10
5317.168016538288
 20
1479.674754568866
 30
0.0
 11
5477.168016538287
 21
1479.674754568866
 31
0.0
  0
LINE
  5
2178B
330
747D
100
AcDbEntity
  8
部品1
 48
50.0
100
AcDbLine
 10
5227.168016538295
 20
1329.674754568866
 30
0.0
 11
5227.168016538287
 21
1984.992791311674
 31
0.0
  0
LINE
  5
2178C
330
747D
100
AcDbEntity
  8
部品1
 48
50.0
100
AcDbLine
 10
5207.168016538295
 20
1329.674754568866
 30
0.0
 11
5207.168016538281
 21
1984.992791311674
 31
0.0
  0
LINE
  5
2178D
330
747D
100
AcDbEntity
  8
部品1
 48
50.0
100
AcDbLine
 10
5077.168016538287
 20
1479.674754568866
 30
0.0
 11
5077.168016538287
 21
2159.674754568868
 31
0.0
  0
LINE
  5
2178E
330
747D
100
AcDbEntity
  8
細線
 48
50.0
100
AcDbLine
 10
5077.168016538287
 20
1571.909147225589
 30
0.0
 11
5207.168016538295
 21
1701.909147225594
 31
0.0
  0
LINE
  5
2178F
330
747D
100
AcDbEntity
  8
細線
 48
50.0
100
AcDbLine
 10
5077.168016538287
 20
1605.585107679599
 30
0.0
 11
5207.168016538288
 21
1735.585107679599
 31
0.0
  0
LINE
  5
21790
330
747D
100
AcDbEntity
  8
細線
 48
50.0
100
AcDbLine
 10
5077.168016538287
 20
1538.233186771581
 30
0.0
 11
5207.168016538295
 21
1668.23318677158
 31
0.0
  0
LINE
  5
21791
330
747D
100
AcDbEntity
  8
部品1
 48
50.0
100
AcDbLine
 10
5317.168016538288
 20
2159.674754568868
 30
0.0
 11
5317.168016538288
 21
1479.674754568866
 31
0.0
  0
MTEXT
  5
21792
102
{ACAD_REACTORS
330
21793
102
}
330
747D
100
AcDbEntity
  8
寸法
 62
     7
 48
50.0
100
AcDbMText
 10
4703.499233794295
 20
1075.271387545821
 30
0.0
 40
100.0
 41
1.0
 71
     6
 72
     1
  1
D10
  7
STYLE2
 73
     1
 44
1.0
1001
ACAD
1000
MTEXTBEGIN
1070
    73
1070
     1
1070
    44
1040
1.0
1070
    74
1070
     0
1000
MTEXTEND
  0
LEADER
  5
21793
330
747D
100
AcDbEntity
  8
寸法
 48
50.0
100
AcDbLeader
  3
INABA_S40G
 71
     0
 73
     0
 75
     1
 40
100.0
 41
225.0
 76
     3
 10
5037.046706978467
 20
1329.674754568866
 30
0.0
 10
4828.499233794294
 20
1000.271387545821
 30
0.0
 10
4728.499233794294
 20
1000.271387545821
 30
0.0
  0
LEADER
  5
21794
330
747D
100
AcDbEntity
  8
寸法
 48
50.0
100
AcDbLeader
  3
INABA_S40G
 71
     0
 73
     0
 75
     1
 40
100.0
 41
222.7272727272727
 76
     3
 10
5197.168016538287
 20
1329.674754568866
 30
0.0
 10
4863.652643241088
 20
774.8761968715175
 30
0.0
 10
4763.652643241088
 20
774.8761968715175
 30
0.0
  0
MTEXT
  5
21795
102
{ACAD_REACTORS
330
21794
102
}
330
747D
100
AcDbEntity
  8
寸法
 62
     7
 48
50.0
100
AcDbMText
 10
4738.652643241088
 20
849.8761968715175
 30
0.0
 40
100.0
 41
1.0
 71
     6
 72
     1
  1
D13
  7
STYLE2
 73
     1
 44
1.0
1001
ACAD
1000
MTEXTBEGIN
1070
    73
1070
     1
1070
    44
1040
1.0
1070
    74
1070
     0
1000
MTEXTEND
  0
MTEXT
  5
21796
102
{ACAD_REACTORS
330
21797
102
}
330
747D
100
AcDbEntity
  8
寸法
 62
     7
 48
50.0
100
AcDbMText
 10
4965.605448759781
 20
1661.300508090687
 30
0.0
 40
100.0
 41
1.0
 71
     6
 72
     1
  1
\A1;D10@300
  7
STYLE2
 73
     1
 44
1.0
1001
ACAD
1000
MTEXTBEGIN
1070
    73
1070
     1
1070
    44
1040
1.0
1070
    74
1070
     0
1000
MTEXTEND
  0
LEADER
  5
21797
330
747D
100
AcDbEntity
  8
寸法
 48
50.0
100
AcDbLeader
  3
INABA_S40G
 71
     0
 73
     0
 75
     1
 40
100.0
 41
540.3409090909091
 76
     3
 10
5207.168016538288
 20
1857.33377294027
 30
0.0
 10
5078.440220877415
 20
1580.495862264266
 30
0.0
 10
4978.440220877415
 20
1580.495862264266
 30
0.0
213
-12.16522788236671
223
-5.804645826423211
233
0.0
  0
LEADER
  5
21798
330
747D
100
AcDbEntity
  8
寸法
 48
50.0
100
AcDbLeader
  3
INABA_S40G
 71
     0
 73
     0
 75
     1
 40
130.1136363636363
 41
651.1363636363636
 76
     3
 10
5177.168016538288
 20
2159.674754568868
 30
0.0
 10
5118.250016620005
 20
2335.263211389602
 30
0.0
 10
5018.250016620005
 20
2335.263211389602
 30
0.0
  0
MTEXT
  5
21799
102
{ACAD_REACTORS
330
21798
102
}
330
747D
100
AcDbEntity
  8
寸法
 62
     7
 48
50.0
100
AcDbMText
 10
4993.250016620005
 20
2425.320029571421
 30
0.0
 40
100.0
 41
1.0
 71
     6
 72
     1
  1
\A1;金コテ押エ
  7
STYLE2
 73
     1
 44
1.0
1001
ACAD
1000
MTEXTBEGIN
1070
    73
1070
     1
1070
    44
1040
1.0
1070
    74
1070
     0
1000
MTEXTEND
  0
DIMENSION
  5
2179A
330
747D
100
AcDbEntity
  8
寸法
 48
50.0
100
AcDbDimension
  2
*D27
 10
4316.523078502223
 20
1179.674754568866
 30
0.0
 11
4316.523078502223
 21
1669.674754568867
 31
0.0
 70
   160
  1
540
 71
     5
 42
980.0000000000011
  3
INABA_S40G
100
AcDbAlignedDimension
 13
5077.168016538287
 23
2159.674754568868
 33
0.0
 14
4817.168016538292
 24
1179.674754568866
 34
0.0
 50
90.0
100
AcDbRotatedDimension
  0
DIMENSION
  5
2179B
330
747D
100
AcDbEntity
  8
寸法
 48
50.0
100
AcDbDimension
  2
*D28
 10
4739.142624372713
 20
1179.674754568866
 30
0.0
 11
4739.142624372713
 21
1329.674754568866
 31
0.0
 70
   160
  1
150
 71
     5
 42
300.0
  3
INABA_S40G
100
AcDbAlignedDimension
 13
4917.168016538287
 23
1479.674754568866
 33
0.0
 14
4817.168016538292
 24
1179.674754568866
 34
0.0
 50
90.0
100
AcDbRotatedDimension
  0
LWPOLYLINE
  5
2179C
330
747D
100
AcDbEntity
  8
部品1
 48
50.0
100
AcDbPolyline
 90
        2
 70
     0
 43
10.0
 10
4559.493139247091
 20
1859.674754568869
 10
5077.168016538287
 20
1859.674754568869
  0
TEXT
  5
2179D
330
747D
100
AcDbEntity
  8
部品1
 48
50.0
100
AcDbText
 10
4559.493139247091
 20
1873.723494922936
 30
0.0
 40
100.0
  1
▽G.L
  7
STYLE2
100
AcDbText
  0
LEADER
  5
2179E
330
747D
100
AcDbEntity
  8
寸法
 48
50.0
100
AcDbLeader
  3
INABA_S40G
 73
     0
 75
     1
 40
132.9545454545455
 41
1129.404378023068
 76
     3
 10
7366.46715800978
 20
2246.624754568868
 30
0.0
 10
7258.437067578608
 20
2705.449222964283
 30
0.0
 10
7158.437067578607
 20
2705.449222964283
 30
0.0
  0
MTEXT
  5
2179F
102
{ACAD_REACTORS
330
2179E
102
}
330
747D
100
AcDbEntity
  8
寸法
 62
     7
 48
50.0
100
AcDbMText
 10
7118.437067578607
 20
2811.926495691556
 30
0.0
 40
100.0
 41
1.0
 71
     6
 72
     1
  1
アンカープレート {\fArial|b0|i0|c0|p32;U}
  7
STYLE2
 73
     1
 44
1.0
1001
ACAD
1000
MTEXTBEGIN
1070
    73
1070
     1
1070
    44
1040
1.0
1070
    74
1070
     0
1000
MTEXTEND
  0
MTEXT
  5
217A0
102
{ACAD_REACTORS
330
217A1
102
}
330
747D
100
AcDbEntity
  8
部品1
 62
     7
 48
50.0
100
AcDbMText
 10
7729.409621901478
 20
3266.505324383928
 30
0.0
 40
100.0
 41
1.0
 71
     4
 72
     1
  1
\A1;ナット(市販品)
  7
STYLE2
 73
     1
 44
1.0
1001
ACAD
1000
MTEXTBEGIN
1070
    73
1070
     1
1070
    44
1040
1.0
1070
    74
1070
     0
1000
MTEXTEND
  0
LEADER
  5
217A1
330
747D
100
AcDbEntity
  8
寸法
 48
50.0
100
AcDbLeader
  3
INABA_S40G
 73
     0
 74
     0
 75
     1
 40
127.8409090909091
 41
850.0
 76
     3
 10
7498.96715800978
 20
2658.268855955296
 30
0.0
 10
7589.409621901477
 20
3162.584869838473
 30
0.0
 10
7689.409621901477
 20
3162.584869838473
 30
0.0
  0
MTEXT
  5
217A2
102
{ACAD_REACTORS
330
217A3
102
}
330
747D
100
AcDbEntity
  8
部品1
 62
     7
 48
50.0
100
AcDbMText
 10
7768.806645970832
 20
3035.293970927943
 30
0.0
 40
100.0
 41
1.0
 71
     4
 72
     1
  1
\A1;ワッシャー(市販品)
  7
STYLE2
 73
     1
 44
1.0
1001
ACAD
1000
MTEXTBEGIN
1070
    73
1070
     1
1070
    44
1040
1.0
1070
    74
1070
     0
1000
MTEXTEND
  0
LEADER
  5
217A3
330
747D
100
AcDbEntity
  8
寸法
 48
50.0
100
AcDbLeader
  3
INABA_S40G
 73
     0
 74
     0
 75
     1
 40
127.8409090909091
 41
1133.522727272727
 76
     3
 10
7528.967158009781
 20
2496.078865124218
 30
0.0
 10
7628.806645970832
 20
2931.373516382488
 30
0.0
 10
7728.806645970832
 20
2931.373516382488
 30
0.0
  0
DIMENSION
  5
217A4
330
747D
100
AcDbEntity
  8
寸法
 48
50.0
100
AcDbDimension
  2
*D29
 10
5077.168016538287
 20
2684.259514464343
 30
0.0
 11
5197.168016538287
 21
2684.259514464343
 31
0.0
 70
   160
  1
120\P170
 71
     5
 42
240.0
  3
INABA_S40G
100
AcDbAlignedDimension
 13
5317.168016538286
 23
2159.674754568868
 33
0.0
 14
5077.168016538287
 24
2159.674754568868
 34
0.0
100
AcDbRotatedDimension
  0
LINE
  5
217A5
330
747D
100
AcDbEntity
  8
部品1
100
AcDbLine
 10
3958.367324986509
 20
3810.889279289923
 30
0.0
 11
3958.367324986509
 21
551.8197799352351
 31
0.0
  0
MTEXT
  5
217A6
102
{ACAD_REACTORS
330
217A7
102
}
330
747D
100
AcDbEntity
  8
寸法
 62
     7
 48
50.0
100
AcDbMText
 10
7085.133309818158
 20
3262.78183557595
 30
0.0
 40
100.0
 41
1.0
 71
     6
 72
     1
  1
\A1;φ70スリーブ
  7
STYLE2
 73
     1
 44
1.0
1001
ACAD
1000
MTEXTBEGIN
1070
    73
1070
     1
1070
    44
1040
1.0
1070
    74
1070
     0
1000
MTEXTEND
  0
LEADER
  5
217A7
330
747D
100
AcDbEntity
  8
寸法
 48
50.0
100
AcDbLeader
  3
INABA_S40G
 73
     0
 75
     1
 40
141.4772727272727
 41
760.7954545454546
 76
     3
 10
7439.888095682341
 20
2096.569346266716
 30
0.0
 10
7225.133309818159
 20
3152.043199212314
 30
0.0
 10
7125.133309818159
 20
3152.043199212314
 30
0.0
  0
LINE
  5
217A8
330
747D
100
AcDbEntity
  8
部品1
100
AcDbLine
 10
10854.84202108453
 20
3810.889279289924
 30
0.0
 11
3958.367324986504
 21
3810.889279289923
 31
0.0
  0
LINE
  5
217A9
330
747D
100
AcDbEntity
  8
部品1
100
AcDbLine
 10
10854.84202108453
 20
3510.889279289923
 30
0.0
 11
3958.367324986504
 21
3510.889279289923
 31
0.0
  0
LINE
  5
217AA
330
747D
100
AcDbEntity
  8
部品1
100
AcDbLine
 10
3958.367324986504
 20
551.8197799352351
 30
0.0
 11
10854.84202108453
 21
551.8197799352351
 31
0.0
  0
LINE
  5
217AB
330
747D
100
AcDbEntity
  8
部品1
100
AcDbLine
 10
9364.331093265397
 20
1585.051110002175
 30
0.0
 11
10264.33109326539
 21
1585.051110002179
 31
0.0
  0
LINE
  5
217AC
330
747D
100
AcDbEntity
  8
部品1
100
AcDbLine
 10
9364.331093265397
 20
1745.051110002179
 30
0.0
 11
10264.33109326539
 21
1745.051110002183
 31
0.0
  0
LWPOLYLINE
  5
217AD
330
747D
100
AcDbEntity
  8
部品1
 48
50.0
100
AcDbPolyline
 90
        2
 70
     0
 43
15.0
 10
9033.567015639913
 20
1859.674754568867
 10
10534.93239455444
 20
1859.674754568867
  0
LINE
  5
217AE
330
747D
100
AcDbEntity
  8
細線
100
AcDbLine
 10
9505.626586389558
 20
1745.051110002179
 30
0.0
 11
9620.250230956248
 21
1859.674754568866
 31
0.0
  0
LINE
  5
217AF
330
747D
100
AcDbEntity
  8
部品1
100
AcDbLine
 10
9514.331093265397
 20
2159.674754568868
 30
0.0
 11
10114.33109326539
 21
2159.674754568868
 31
0.0
  0
LINE
  5
217B0
330
747D
100
AcDbEntity
  8
細線
100
AcDbLine
 10
9693.983150054586
 20
1859.674754568867
 30
0.0
 11
9514.331093265397
 21
2039.326811358058
 31
0.0
  0
LINE
  5
217B1
330
747D
100
AcDbEntity
  8
細線
100
AcDbLine
 10
9757.622760361378
 20
1859.674754568867
 30
0.0
 11
9514.331093265397
 21
2102.966421664846
 31
0.0
  0
DIMENSION
  5
21876
330
747D
100
AcDbEntity
  8
寸法
 48
50.0
100
AcDbDimension
  2
*D30
 10
8839.51425951415
 20
6984.422404093454
 30
0.0
 11
8705.716390152193
 21
6888.321676919386
 31
0.0
 70
   160
 71
     5
 42
109.9999999999982
  3
INABA_S40G
100
AcDbAlignedDimension
 13
8729.514259514152
 23
7292.919036112859
 33
0.0
 14
8839.51425951415
 24
7292.919036112862
 34
0.0
100
AcDbRotatedDimension
1001
ACAD
1000
DSTYLE
1002
{
1070
   174
1070
     0
1070
   272
1070
     1
1070
   279
1070
     2
1070
   288
1070
     0
1070
   341
1005
0
1002
}
  0
HATCH
  5
218DC
330
747D
100
AcDbEntity
  8
細線
 48
50.0
100
AcDbHatch
 10
0.0
 20
0.0
 30
0.0
210
0.0
220
0.0
230
1.0
  2
LINE
 70
     0
 71
     0
 91
        1
 92
        7
 72
     0
 73
     1
 93
        4
 10
7949.51425951416
 20
7522.919036112861
 10
7749.514259514159
 20
7522.919036112863
 10
7749.514259514159
 20
7402.91903611286
 10
7949.51425951416
 20
7402.91903611286
 97
        0
 75
     0
 76
     1
 52
45.0
 41
10.0
 77
     0
 78
     1
 53
45.0
 43
0.0
 44
0.0
 45
-22.45064030267288
 46
22.45064030267288
 79
     0
 47
3.832251460072976
 98
        1
 10
7905.17734683009
 20
7482.800091349502
  0
HATCH
  5
218F8
330
747D
100
AcDbEntity
  8
細線
 48
50.0
100
AcDbHatch
 10
0.0
 20
0.0
 30
0.0
210
0.0
220
0.0
230
1.0
  2
LINE
 70
     0
 71
     0
 91
        1
 92
        7
 72
     0
 73
     1
 93
        4
 10
8959.514259514149
 20
6722.91903611286
 10
8839.51425951415
 20
6722.91903611286
 10
8839.51425951415
 20
6522.919036112861
 10
8959.514259514154
 20
6522.91903611286
 97
        0
 75
     0
 76
     1
 52
45.0
 41
10.0
 77
     0
 78
     1
 53
45.0
 43
0.0
 44
0.0
 45
-22.45064030267288
 46
22.45064030267288
 79
     0
 47
3.832251460072976
 98
        1
 10
8894.318596177457
 20
6582.22100302592
  0
HATCH
  5
21914
330
747D
100
AcDbEntity
  8
細線
 48
50.0
100
AcDbHatch
 10
0.0
 20
0.0
 30
0.0
210
0.0
220
0.0
230
1.0
  2
LINE
 70
     0
 71
     0
 91
        1
 92
        7
 72
     0
 73
     1
 93
        4
 10
6859.514259514153
 20
6722.91903611286
 10
6739.514259514152
 20
6722.91903611286
 10
6739.514259514149
 20
6522.91903611286
 10
6859.514259514151
 20
6522.91903611286
 97
        0
 75
     0
 76
     1
 52
45.0
 41
10.0
 77
     0
 78
     1
 53
45.0
 43
0.0
 44
0.0
 45
-22.45064030267288
 46
22.45064030267288
 79
     0
 47
3.832251460072976
 98
        1
 10
6789.518026291101
 20
6639.704771974179
  0
TEXT
  5
21925
330
747D
100
AcDbEntity
  8
文字
 62
     7
 48
50.0
100
AcDbText
 10
14816.49629419351
 20
1031.557706291228
 30
0.0
 40
100.0
  1
 <縮尺> S=1/40
  7
STYLE2
100
AcDbText
  0
ENDSEC
  0
SECTION
  2
OBJECTS
  0
DICTIONARY
  5
7471
330
0
100
AcDbDictionary
281
     1
  3
ACAD_COLOR
350
159B0
  3
ACAD_GROUP
350
7472
  3
ACAD_LAYOUT
350
159B1
  3
ACAD_MATERIAL
350
159AF
  3
ACAD_MLINESTYLE
350
7473
  3
ACAD_PLOTSETTINGS
350
159B2
  3
ACAD_PLOTSTYLENAME
350
159AD
  3
ACDBHEADERROUNDTRIPXREC
350
21933
  3
AcDbVariableDictionary
350
21191
  3
CONTENTDICTIONARY
350
E71C
  3
DRAWINGVARIABLESDICT
350
F3B9
  0
DICTIONARY
  5
2119F
330
7467
100
AcDbDictionary
280
     1
281
     1
  3
ACAD_LAYERSTATES
360
211A0
  0
DICTIONARY
  5
159B0
102
{ACAD_REACTORS
330
7471
102
}
330
7471
100
AcDbDictionary
281
     1
  0
DICTIONARY
  5
7472
102
{ACAD_REACTORS
330
7471
102
}
330
7471
100
AcDbDictionary
281
     1
  0
DICTIONARY
  5
159B1
102
{ACAD_REACTORS
330
7471
102
}
330
7471
100
AcDbDictionary
281
     1
  3
Model
350
159B3
  3
レイアウト1
350
159B4
  0
DICTIONARY
  5
159AF
102
{ACAD_REACTORS
330
7471
102
}
330
7471
100
AcDbDictionary
281
     1
  0
DICTIONARY
  5
7473
102
{ACAD_REACTORS
330
7471
102
}
330
7471
100
AcDbDictionary
281
     1
  3
STANDARD
350
7480
  0
DICTIONARY
  5
159B2
102
{ACAD_REACTORS
330
7471
102
}
330
7471
100
AcDbDictionary
281
     1
  0
ACDBDICTIONARYWDFLT
  5
159AD
102
{ACAD_REACTORS
330
7471
102
}
330
7471
100
AcDbDictionary
281
     1
  3
Normal
350
159AE
100
AcDbDictionaryWithDefault
340
159AE
  0
DICTIONARY
  5
21933
102
{ACAD_REACTORS
330
7471
102
}
330
7471
100
AcDbDictionary
281
     1
  3
COLORDICT
350
21935
  3
MATERIALDICT
350
21934
  0
DICTIONARY
  5
21191
102
{ACAD_REACTORS
330
7471
102
}
330
7471
100
AcDbDictionary
281
     1
  3
DIMASSOC
350
21192
  3
PROJECTNAME
350
21193
  0
DICTIONARY
  5
E71C
102
{ACAD_REACTORS
330
7471
102
}
330
7471
100
AcDbDictionary
281
     1
  0
DICTIONARY
  5
F3B9
102
{ACAD_REACTORS
330
7471
102
}
330
7471
100
AcDbDictionary
281
     1
1001
DRAWINGVARIABLESXDATA
1000
POLARMODE
1000
1
  0
DICTIONARY
  5
211A0
102
{ACAD_REACTORS
330
2119F
102
}
330
2119F
100
AcDbDictionary
281
     1
  0
LAYOUT
  5
159B3
102
{ACAD_XDICTIONARY
360
21936
102
}
102
{ACAD_REACTORS
330
159B1
102
}
330
159B1
100
AcDbPlotSettings
  1

  2
none_device
  4
Letter_(8.50_x_11.00_Inches)
  6

 40
6.349999904632568
 41
6.349999904632568
 42
6.350006103515625
 43
6.350006103515625
 44
215.8999938964844
 45
279.3999938964844
 46
0.0
 47
0.0
 48
0.0
 49
0.0
140
0.0
141
0.0
142
1.0
143
1.0
 70
 11952
 72
     1
 73
     1
 74
     0
  7

 75
     0
147
1.0
148
-4149.571981164617
149
65.56433826894044
100
AcDbLayout
  1
Model
 70
     1
 71
     0
 10
0.0
 20
0.0
 11
12.0
 21
9.0
 12
0.0
 22
0.0
 32
0.0
 14
0.0
 24
0.0
 34
0.0
 15
0.0
 25
0.0
 35
0.0
146
0.0
 13
0.0
 23
0.0
 33
0.0
 16
1.0
 26
0.0
 36
0.0
 17
0.0
 27
1.0
 37
0.0
 76
     0
330
747D
  0
LAYOUT
  5
159B4
102
{ACAD_XDICTIONARY
360
21938
102
}
102
{ACAD_REACTORS
330
159B1
102
}
330
159B1
100
AcDbPlotSettings
  1

  2
自動 EPSON LP-8400FX (TATENO 上)
  4

  6

 40
0.0
 41
0.0
 42
0.0
 43
0.0
 44
0.0
 45
0.0
 46
0.0
 47
0.0
 48
0.0
 49
0.0
140
0.0
141
0.0
142
1.0
143
1.0
 70
   688
 72
     0
 73
     0
 74
     5
  7
inaba.ctb
 75
    16
147
1.0
148
0.0
149
0.0
100
AcDbLayout
  1
レイアウト1
 70
     0
 71
     1
 10
0.0
 20
0.0
 11
420.0
 21
297.0
 12
0.0
 22
0.0
 32
0.0
 14
1.000000000000000E+20
 24
1.000000000000000E+20
 34
1.000000000000000E+20
 15
-1.000000000000000E+20
 25
-1.000000000000000E+20
 35
-1.000000000000000E+20
146
0.0
 13
0.0
 23
0.0
 33
0.0
 16
1.0
 26
0.0
 36
0.0
 17
0.0
 27
1.0
 37
0.0
 76
     0
330
747A
  0
MLINESTYLE
  5
7480
102
{ACAD_REACTORS
330
7473
102
}
330
7473
100
AcDbMlineStyle
  2
STANDARD
 70
     0
  3

 62
     0
 51
90.0
 52
90.0
 71
     2
 49
0.5
 62
   256
  6
BYLAYER
 49
-0.5
 62
   256
  6
BYLAYER
  0
ACDBPLACEHOLDER
  5
159AE
102
{ACAD_REACTORS
330
159AD
102
}
330
159AD
  0
XRECORD
  5
21935
102
{ACAD_REACTORS
330
21933
102
}
330
21933
100
AcDbXrecord
280
     1
340
159B0
  0
XRECORD
  5
21934
102
{ACAD_REACTORS
330
21933
102
}
330
21933
100
AcDbXrecord
280
     1
340
159AF
  0
DICTIONARYVAR
  5
21192
102
{ACAD_REACTORS
330
21191
102
}
330
21191
100
DictionaryVariables
280
     0
  1
1
  0
DICTIONARYVAR
  5
21193
102
{ACAD_REACTORS
330
21191
102
}
330
21191
100
DictionaryVariables
280
     0
  1

  0
DICTIONARY
  5
21936
330
159B3
100
AcDbDictionary
280
     1
281
     1
  3
ACAD_XREC_ROUNDTRIP
360
21937
  0
DICTIONARY
  5
21938
330
159B4
100
AcDbDictionary
280
     1
281
     1
  3
ACAD_XREC_ROUNDTRIP
360
21939
  0
XRECORD
  5
21937
102
{ACAD_REACTORS
330
21936
102
}
330
21936
100
AcDbXrecord
280
     1
102
SHADEPLOT
 70
     0
102
SHADEPLOTRESLEVEL
 70
     2
102
SHADEPLOTCUSTOMDPI
 70
   300
  0
XRECORD
  5
21939
102
{ACAD_REACTORS
330
21938
102
}
330
21938
100
AcDbXrecord
280
     1
102
SHADEPLOT
 70
     0
102
SHADEPLOTRESLEVEL
 70
     2
102
SHADEPLOTCUSTOMDPI
 70
   300
  0
ENDSEC
  0
EOF
