  0
SECTION
  2
HEADER
  9
$ACADVER
  1
AC1015
  9
$ACADMAINTVER
 70
    20
  9
$DWGCODEPAGE
  3
ANSI_932
  9
$INSBASE
 10
0.0
 20
0.0
 30
0.0
  9
$EXTMIN
 10
139.9999999999995
 20
-0.0000000000000909
 30
0.0
  9
$EXTMAX
 10
16307.2
 20
11409.6
 30
0.0
  9
$LIMMIN
 10
0.0
 20
0.0
  9
$LIMMAX
 10
16800.0
 20
11880.0
  9
$ORTHOMODE
 70
     0
  9
$REGENMODE
 70
     1
  9
$FILLMODE
 70
     1
  9
$QTEXTMODE
 70
     0
  9
$MIRRTEXT
 70
     1
  9
$LTSCALE
 40
20.0
  9
$ATTMODE
 70
     1
  9
$TEXTSIZE
 40
4.0
  9
$TRACEWID
 40
1.0
  9
$TEXTSTYLE
  7
STYLE1
  9
$CLAYER
  8
細線
  9
$CELTYPE
  6
BYLAYER
  9
$CECOLOR
 62
   256
  9
$CELTSCALE
 40
50.0
  9
$DISPSILH
 70
     0
  9
$DIMSCALE
 40
40.0
  9
$DIMASZ
 40
2.5
  9
$DIMEXO
 40
0.5
  9
$DIMDLI
 40
7.0
  9
$DIMRND
 40
0.0
  9
$DIMDLE
 40
0.0
  9
$DIMEXE
 40
1.5
  9
$DIMTP
 40
0.0
  9
$DIMTM
 40
0.0
  9
$DIMTXT
 40
3.0
  9
$DIMCEN
 40
0.0
  9
$DIMTSZ
 40
0.0
  9
$DIMTOL
 70
     0
  9
$DIMLIM
 70
     0
  9
$DIMTIH
 70
     0
  9
$DIMTOH
 70
     0
  9
$DIMSE1
 70
     0
  9
$DIMSE2
 70
     0
  9
$DIMTAD
 70
     3
  9
$DIMZIN
 70
     8
  9
$DIMBLK
  1

  9
$DIMASO
 70
     1
  9
$DIMSHO
 70
     1
  9
$DIMPOST
  1

  9
$DIMAPOST
  1

  9
$DIMALT
 70
     0
  9
$DIMALTD
 70
     2
  9
$DIMALTF
 40
0.0394
  9
$DIMLFAC
 40
1.0
  9
$DIMTOFL
 70
     1
  9
$DIMTVP
 40
0.0
  9
$DIMTIX
 70
     1
  9
$DIMSOXD
 70
     0
  9
$DIMSAH
 70
     1
  9
$DIMBLK1
  1
DOTSMALL
  9
$DIMBLK2
  1
DOTSMALL
  9
$DIMSTYLE
  2
INABA_S40G
  9
$DIMCLRD
 70
     0
  9
$DIMCLRE
 70
     0
  9
$DIMCLRT
 70
     7
  9
$DIMTFAC
 40
1.0
  9
$DIMGAP
 40
1.0
  9
$DIMJUST
 70
     0
  9
$DIMSD1
 70
     0
  9
$DIMSD2
 70
     0
  9
$DIMTOLJ
 70
     1
  9
$DIMTZIN
 70
     0
  9
$DIMALTZ
 70
     0
  9
$DIMALTTZ
 70
     0
  9
$DIMUPT
 70
     0
  9
$DIMDEC
 70
     1
  9
$DIMTDEC
 70
     4
  9
$DIMALTU
 70
     2
  9
$DIMALTTD
 70
     2
  9
$DIMTXSTY
  7
STYLE1
  9
$DIMAUNIT
 70
     0
  9
$DIMADEC
 70
     0
  9
$DIMALTRND
 40
0.0
  9
$DIMAZIN
 70
     0
  9
$DIMDSEP
 70
    46
  9
$DIMATFIT
 70
     3
  9
$DIMFRAC
 70
     0
  9
$DIMLDRBLK
  1

  9
$DIMLUNIT
 70
     2
  9
$DIMLWD
 70
    -2
  9
$DIMLWE
 70
    -2
  9
$DIMTMOVE
 70
     0
  9
$LUNITS
 70
     2
  9
$LUPREC
 70
     1
  9
$SKETCHINC
 40
1.0
  9
$FILLETRAD
 40
3.0
  9
$AUNITS
 70
     0
  9
$AUPREC
 70
     0
  9
$MENU
  1
acad
  9
$ELEVATION
 40
0.0
  9
$PELEVATION
 40
0.0
  9
$THICKNESS
 40
0.0
  9
$LIMCHECK
 70
     0
  9
$CHAMFERA
 40
0.0
  9
$CHAMFERB
 40
0.0
  9
$CHAMFERC
 40
0.0
  9
$CHAMFERD
 40
0.0
  9
$SKPOLY
 70
     0
  9
$TDCREATE
 40
2451368.612993866
  9
$TDUCREATE
 40
2451368.237993866
  9
$TDUPDATE
 40
2455827.671148681
  9
$TDUUPDATE
 40
2455827.296148681
  9
$TDINDWG
 40
0.7666859954
  9
$TDUSRTIMER
 40
0.7666859954
  9
$USRTIMER
 70
     1
  9
$ANGBASE
 50
0.0
  9
$ANGDIR
 70
     0
  9
$PDMODE
 70
     3
  9
$PDSIZE
 40
2.0
  9
$PLINEWID
 40
0.0
  9
$SPLFRAME
 70
     0
  9
$SPLINETYPE
 70
     6
  9
$SPLINESEGS
 70
     8
  9
$HANDSEED
  5
24EFC
  9
$SURFTAB1
 70
     6
  9
$SURFTAB2
 70
     6
  9
$SURFTYPE
 70
     6
  9
$SURFU
 70
     6
  9
$SURFV
 70
     6
  9
$UCSBASE
  2

  9
$UCSNAME
  2

  9
$UCSORG
 10
0.0
 20
0.0
 30
0.0
  9
$UCSXDIR
 10
1.0
 20
0.0
 30
0.0
  9
$UCSYDIR
 10
0.0
 20
1.0
 30
0.0
  9
$UCSORTHOREF
  2

  9
$UCSORTHOVIEW
 70
     0
  9
$UCSORGTOP
 10
0.0
 20
0.0
 30
0.0
  9
$UCSORGBOTTOM
 10
0.0
 20
0.0
 30
0.0
  9
$UCSORGLEFT
 10
0.0
 20
0.0
 30
0.0
  9
$UCSORGRIGHT
 10
0.0
 20
0.0
 30
0.0
  9
$UCSORGFRONT
 10
0.0
 20
0.0
 30
0.0
  9
$UCSORGBACK
 10
0.0
 20
0.0
 30
0.0
  9
$PUCSBASE
  2

  9
$PUCSNAME
  2

  9
$PUCSORG
 10
0.0
 20
0.0
 30
0.0
  9
$PUCSXDIR
 10
1.0
 20
0.0
 30
0.0
  9
$PUCSYDIR
 10
0.0
 20
1.0
 30
0.0
  9
$PUCSORTHOREF
  2

  9
$PUCSORTHOVIEW
 70
     0
  9
$PUCSORGTOP
 10
0.0
 20
0.0
 30
0.0
  9
$PUCSORGBOTTOM
 10
0.0
 20
0.0
 30
0.0
  9
$PUCSORGLEFT
 10
0.0
 20
0.0
 30
0.0
  9
$PUCSORGRIGHT
 10
0.0
 20
0.0
 30
0.0
  9
$PUCSORGFRONT
 10
0.0
 20
0.0
 30
0.0
  9
$PUCSORGBACK
 10
0.0
 20
0.0
 30
0.0
  9
$USERI1
 70
     0
  9
$USERI2
 70
     0
  9
$USERI3
 70
     0
  9
$USERI4
 70
     0
  9
$USERI5
 70
     0
  9
$USERR1
 40
0.0
  9
$USERR2
 40
0.0
  9
$USERR3
 40
0.0
  9
$USERR4
 40
0.0
  9
$USERR5
 40
0.0
  9
$WORLDVIEW
 70
     1
  9
$SHADEDGE
 70
     3
  9
$SHADEDIF
 70
    70
  9
$TILEMODE
 70
     1
  9
$MAXACTVP
 70
    16
  9
$PINSBASE
 10
0.0
 20
0.0
 30
0.0
  9
$PLIMCHECK
 70
     0
  9
$PEXTMIN
 10
1.000000000000000E+20
 20
1.000000000000000E+20
 30
1.000000000000000E+20
  9
$PEXTMAX
 10
-1.000000000000000E+20
 20
-1.000000000000000E+20
 30
-1.000000000000000E+20
  9
$PLIMMIN
 10
0.0
 20
0.0
  9
$PLIMMAX
 10
420.0
 20
297.0
  9
$UNITMODE
 70
     0
  9
$VISRETAIN
 70
     0
  9
$PLINEGEN
 70
     0
  9
$PSLTSCALE
 70
     0
  9
$TREEDEPTH
 70
  3020
  9
$CMLSTYLE
  2
STANDARD
  9
$CMLJUST
 70
     0
  9
$CMLSCALE
 40
1.0
  9
$PROXYGRAPHICS
 70
     1
  9
$MEASUREMENT
 70
     1
  9
$CELWEIGHT
370
    -1
  9
$ENDCAPS
280
     0
  9
$JOINSTYLE
280
     0
  9
$LWDISPLAY
290
     0
  9
$INSUNITS
 70
     0
  9
$HYPERLINKBASE
  1

  9
$STYLESHEET
  1
ACA3.ctb
  9
$XEDIT
290
     1
  9
$CEPSNTYPE
380
     0
  9
$PSTYLEMODE
290
     1
  9
$FINGERPRINTGUID
  2
{5EAC461A-2277-4BF8-9AB0-99C43BB394F0}
  9
$VERSIONGUID
  2
{92EC7A76-F83C-46C1-AB53-C8F2763C1DFD}
  9
$EXTNAMES
290
     1
  9
$PSVPSCALE
 40
0.0
  9
$OLESTARTUP
290
     0
  0
ENDSEC
  0
SECTION
  2
CLASSES
  0
CLASS
  1
ACDBDICTIONARYWDFLT
  2
AcDbDictionaryWithDefault
  3
ObjectDBX Classes
 90
        0
280
     0
281
     0
  0
CLASS
  1
DICTIONARYVAR
  2
AcDbDictionaryVar
  3
ObjectDBX Classes
 90
        0
280
     0
281
     0
  0
CLASS
  1
ACDBPLACEHOLDER
  2
AcDbPlaceHolder
  3
ObjectDBX Classes
 90
        0
280
     0
281
     0
  0
CLASS
  1
LAYOUT
  2
AcDbLayout
  3
ObjectDBX Classes
 90
        0
280
     0
281
     0
  0
ENDSEC
  0
SECTION
  2
TABLES
  0
TABLE
  2
VPORT
  5
746D
330
0
100
AcDbSymbolTable
 70
     2
  0
VPORT
  5
24EF4
330
746D
100
AcDbSymbolTableRecord
100
AcDbViewportTableRecord
  2
*Active
 70
     0
 10
0.0
 20
0.0
 11
1.0
 21
1.0
 12
8399.999999999998
 22
6549.946086030115
 13
0.0
 23
0.0
 14
10.0
 24
10.0
 15
10.0
 25
10.0
 16
0.0
 26
0.0
 36
1.0
 17
0.0
 27
0.0
 37
0.0
 40
13195.53355943939
 41
1.522222222222222
 42
50.0
 43
0.0
 44
0.0
 50
0.0
 51
0.0
 71
     0
 72
     0
 73
     1
 74
     0
 75
     0
 76
     0
 77
     0
 78
     0
281
     0
 65
     1
110
0.0
120
0.0
130
0.0
111
1.0
121
0.0
131
0.0
112
0.0
122
1.0
132
0.0
 79
     0
146
0.0
  0
ENDTAB
  0
TABLE
  2
LTYPE
  5
746A
330
0
100
AcDbSymbolTable
 70
     5
  0
LTYPE
  5
7477
330
746A
100
AcDbSymbolTableRecord
100
AcDbLinetypeTableRecord
  2
BYBLOCK
 70
     0
  3

 72
    65
 73
     0
 40
0.0
  0
LTYPE
  5
7478
330
746A
100
AcDbSymbolTableRecord
100
AcDbLinetypeTableRecord
  2
BYLAYER
 70
     0
  3

 72
    65
 73
     0
 40
0.0
  0
LTYPE
  5
7479
330
746A
100
AcDbSymbolTableRecord
100
AcDbLinetypeTableRecord
  2
CONTINUOUS
 70
     0
  3
Solid line
 72
    65
 73
     0
 40
0.0
  0
LTYPE
  5
7816
330
746A
100
AcDbSymbolTableRecord
100
AcDbLinetypeTableRecord
  2
CENTER
 70
     0
  3
____ _ ____ _ ____ _ ____ _ ____ _ ____ _ ____ 
 72
    65
 73
     4
 40
2.0
 49
1.25
 74
     0
 49
-0.25
 74
     0
 49
0.25
 74
     0
 49
-0.25
 74
     0
  0
LTYPE
  5
781A
330
746A
100
AcDbSymbolTableRecord
100
AcDbLinetypeTableRecord
  2
HIDDEN
 70
     0
  3
__ __ __ __ __ __ __ __ __ __ __ __ __ __ __ __
 72
    65
 73
     2
 40
0.375
 49
0.25
 74
     0
 49
-0.125
 74
     0
  0
LTYPE
  5
781B
330
746A
100
AcDbSymbolTableRecord
100
AcDbLinetypeTableRecord
  2
PHANTOM
 70
     0
  3
______  __  __  ______  __  __  ______  __  __ 
 72
    65
 73
     6
 40
2.5
 49
1.25
 74
     0
 49
-0.25
 74
     0
 49
0.25
 74
     0
 49
-0.25
 74
     0
 49
0.25
 74
     0
 49
-0.25
 74
     0
  0
LTYPE
  5
12CC3
330
746A
100
AcDbSymbolTableRecord
100
AcDbLinetypeTableRecord
  2
HIDDENX2
 70
     0
  3
Hidden (2x) ____ ____ ____ ____ ____ ____ ____
 72
    65
 73
     2
 40
19.05
 49
12.7
 74
     0
 49
-6.349999999999999
 74
     0
  0
ENDTAB
  0
TABLE
  2
LAYER
  5
7467
102
{ACAD_XDICTIONARY
360
1758F
102
}
330
0
100
AcDbSymbolTable
 70
    12
  0
LAYER
  5
7474
330
7467
100
AcDbSymbolTableRecord
100
AcDbLayerTableRecord
  2
0
 70
     0
 62
     7
  6
CONTINUOUS
370
    -3
390
173D0
  0
LAYER
  5
DEB2
330
7467
100
AcDbSymbolTableRecord
100
AcDbLayerTableRecord
  2
センター
 70
     0
 62
     3
  6
CENTER
370
    -3
390
173D0
  0
LAYER
  5
DEB3
330
7467
100
AcDbSymbolTableRecord
100
AcDbLayerTableRecord
  2
寸法
 70
     0
 62
     4
  6
CONTINUOUS
370
    -3
390
173D0
  0
LAYER
  5
DEB4
330
7467
100
AcDbSymbolTableRecord
100
AcDbLayerTableRecord
  2
部品1
 70
     0
 62
     7
  6
CONTINUOUS
370
    -3
390
173D0
  0
LAYER
  5
DEB5
330
7467
100
AcDbSymbolTableRecord
100
AcDbLayerTableRecord
  2
補助
 70
     0
 62
    -1
  6
CONTINUOUS
370
    -3
390
173D0
  0
LAYER
  5
DEB6
330
7467
100
AcDbSymbolTableRecord
100
AcDbLayerTableRecord
  2
文字
 70
     0
 62
     7
  6
CONTINUOUS
370
    -3
390
173D0
  0
LAYER
  5
F255
330
7467
100
AcDbSymbolTableRecord
100
AcDbLayerTableRecord
  2
DEFPOINTS
 70
     0
 62
     7
  6
CONTINUOUS
290
     0
370
    -3
390
173D0
  0
LAYER
  5
10B54
330
7467
100
AcDbSymbolTableRecord
100
AcDbLayerTableRecord
  2
仕様書枠
 70
     0
 62
   230
  6
CONTINUOUS
370
    -3
390
173D0
  0
LAYER
  5
11729
330
7467
100
AcDbSymbolTableRecord
100
AcDbLayerTableRecord
  2
Ｇ．Ｌ
 70
     0
 62
    30
  6
CONTINUOUS
370
    -3
390
173D0
  0
LAYER
  5
1173F
330
7467
100
AcDbSymbolTableRecord
100
AcDbLayerTableRecord
  2
細線
 70
     0
 62
     5
  6
CONTINUOUS
370
    -3
390
173D0
  0
LAYER
  5
12CC4
330
7467
100
AcDbSymbolTableRecord
100
AcDbLayerTableRecord
  2
想像線
 70
     0
 62
     6
  6
PHANTOM
370
    -3
390
173D0
  0
LAYER
  5
142E2
330
7467
100
AcDbSymbolTableRecord
100
AcDbLayerTableRecord
  2
破線
 70
     0
 62
     2
  6
HIDDEN
370
    -3
390
173D0
  0
ENDTAB
  0
TABLE
  2
STYLE
  5
7468
330
0
100
AcDbSymbolTable
 70
     7
  0
STYLE
  5
7475
330
7468
100
AcDbSymbolTableRecord
100
AcDbTextStyleTableRecord
  2
STANDARD
 70
     0
 40
0.0
 41
1.0
 50
0.0
 71
     0
 42
4.0
  3
txt
  4
C:\AutoCAD LT\bigfont.shx
  0
STYLE
  5
763C
330
7468
100
AcDbSymbolTableRecord
100
AcDbTextStyleTableRecord
  2
MSMINCHO
 70
     0
 40
0.0
 41
1.0
 50
0.0
 71
     0
 42
1.199999999999999
  3
C:\AutoCAD LT\msminch2.TTF
  4

  0
STYLE
  5
F706
330
7468
100
AcDbSymbolTableRecord
100
AcDbTextStyleTableRecord
  2
STYLE1
 70
     0
 40
0.0
 41
1.0
 50
0.0
 71
     0
 42
4.0
  3
isocp.shx
  4
bigfont.shx
  0
STYLE
  5
103BF
330
7468
100
AcDbSymbolTableRecord
100
AcDbTextStyleTableRecord
  2
STYLE2
 70
     0
 40
0.0
 41
1.0
 50
0.0
 71
     0
 42
100.0
  3
MS PGothic.ttf
  4

1001
ACAD
1000
MS PGothic
1071
    32818
  0
STYLE
  5
10BAA
330
7468
100
AcDbSymbolTableRecord
100
AcDbTextStyleTableRecord
  2
STYLE3
 70
     0
 40
0.0
 41
1.0
 50
0.0
 71
     0
 42
100.0
  3

  4

1001
ACAD
1000
DFPGothic-EB
1071
    32818
  0
STYLE
  5
11A15
330
7468
100
AcDbSymbolTableRecord
100
AcDbTextStyleTableRecord
  2
MSGOTHIC
 70
     0
 40
0.0
 41
1.0
 50
0.0
 71
     0
 42
3.5
  3
msgothi2.ttf
  4

  0
STYLE
  5
13E96
330
7468
100
AcDbSymbolTableRecord
100
AcDbTextStyleTableRecord
  2
MSPゴシック
 70
     0
 40
0.0
 41
1.0
 50
0.0
 71
     0
 42
4.0
  3
MS PGothic.ttf
  4

1001
ACAD
1000
MS PGothic
1071
    32818
  0
ENDTAB
  0
TABLE
  2
VIEW
  5
746B
330
0
100
AcDbSymbolTable
 70
     0
  0
ENDTAB
  0
TABLE
  2
UCS
  5
746C
330
0
100
AcDbSymbolTable
 70
     0
  0
ENDTAB
  0
TABLE
  2
APPID
  5
746E
330
0
100
AcDbSymbolTable
 70
     6
  0
APPID
  5
7476
330
746E
100
AcDbSymbolTableRecord
100
AcDbRegAppTableRecord
  2
ACAD
 70
     0
  0
APPID
  5
DEA9
330
746E
100
AcDbSymbolTableRecord
100
AcDbRegAppTableRecord
  2
CONTENTBLOCKICON
 70
     0
  0
APPID
  5
DEAA
330
746E
100
AcDbSymbolTableRecord
100
AcDbRegAppTableRecord
  2
CONTENTBLOCKDESCRIPTION
 70
     0
  0
APPID
  5
E71D
330
746E
100
AcDbSymbolTableRecord
100
AcDbRegAppTableRecord
  2
CONTENTTABDATA
 70
     0
  0
APPID
  5
E71E
330
746E
100
AcDbSymbolTableRecord
100
AcDbRegAppTableRecord
  2
CONTENTCURRENTTAB
 70
     0
  0
APPID
  5
F3BA
330
746E
100
AcDbSymbolTableRecord
100
AcDbRegAppTableRecord
  2
DRAWINGVARIABLESXDATA
 70
     0
  0
ENDTAB
  0
TABLE
  2
DIMSTYLE
  5
746F
330
0
100
AcDbSymbolTable
 70
     6
100
AcDbDimStyleTable
 71
     1
340
F71F
  0
DIMSTYLE
105
7484
330
746F
100
AcDbSymbolTableRecord
100
AcDbDimStyleTableRecord
  2
JIS
 70
     0
 41
2.5
 42
1.0
 43
7.0
 44
1.0
 73
     0
 74
     0
 77
     1
 78
     8
140
2.5
141
0.0
143
0.0394
147
0.0
172
     1
174
     1
175
     1
340
7475
  0
DIMSTYLE
105
F236
330
746F
100
AcDbSymbolTableRecord
100
AcDbDimStyleTableRecord
  2
INABA_S40
 70
     0
 40
40.0
 41
2.5
 42
0.5
 43
7.0
 44
1.5
 73
     0
 74
     0
 77
     3
 78
     8
140
3.0
141
0.0
143
0.0394
147
1.0
172
     1
173
     1
174
     1
175
     1
178
     7
289
     0
340
7475
341
DEAC
343
DEAC
344
DEAC
  0
DIMSTYLE
105
F71F
102
{ACAD_REACTORS
330
221A3
330
22192
330
22191
330
2218F
330
2218E
330
2218B
330
2218A
330
22189
330
22184
330
221AC
330
2219C
330
2296D
330
2296E
330
23558
330
23566
330
23567
330
23D76
330
23D77
330
23D7C
330
2418F
330
24192
330
24193
330
24198
330
24D32
330
24D33
330
24D3B
330
24D42
330
24D45
330
24DA5
102
}
330
746F
100
AcDbSymbolTableRecord
100
AcDbDimStyleTableRecord
  2
INABA_S40G
 70
     0
 40
40.0
 41
2.5
 42
0.5
 43
7.0
 44
1.5
 73
     0
 74
     0
 77
     3
 78
     8
140
3.0
141
0.0
143
0.0394
147
1.0
172
     1
173
     1
174
     1
178
     7
271
     1
340
F706
341
F770
343
F770
344
F770
  0
DIMSTYLE
105
142E3
330
746F
100
AcDbSymbolTableRecord
100
AcDbDimStyleTableRecord
  2
INABA_S1
 70
     0
 40
0.0
 41
2.5
 42
0.5
 43
7.0
 44
1.5
 73
     0
 74
     0
 77
     3
 78
     8
140
3.0
141
0.0
143
0.0394
146
0.5
147
0.5
172
     1
173
     1
176
   256
177
   256
178
     7
271
     2
272
     2
284
     8
288
     1
340
7475
341
DEAC
343
DEAC
344
DEAC
  0
DIMSTYLE
105
14463
330
746F
100
AcDbSymbolTableRecord
100
AcDbDimStyleTableRecord
  2
INABA_S30G
 70
     0
 40
30.0
 41
2.5
 42
0.5
 43
7.0
 44
1.5
 73
     0
 74
     0
 77
     3
 78
     8
140
3.0
141
0.0
143
0.0394
147
1.0
172
     1
173
     1
174
     1
175
     1
178
     7
271
     1
340
F706
341
F770
343
F770
344
F770
  0
DIMSTYLE
105
1758E
330
746F
100
AcDbSymbolTableRecord
100
AcDbDimStyleTableRecord
  2
INABA_S50G
 70
     0
 41
125.0
 42
25.0
 43
7.0
 44
75.0
 73
     0
 74
     0
 77
     3
 78
     8
140
150.0
141
0.0
143
0.0394
147
25.0
172
     1
173
     1
174
     1
175
     1
178
     7
271
     1
340
F706
341
F770
343
F770
344
F770
  0
ENDTAB
  0
TABLE
  2
BLOCK_RECORD
  5
7466
330
0
100
AcDbSymbolTable
 70
    60
  0
BLOCK_RECORD
  5
747D
330
7466
100
AcDbSymbolTableRecord
100
AcDbBlockTableRecord
  2
*MODEL_SPACE
340
173D5
  0
BLOCK_RECORD
  5
747A
330
7466
100
AcDbSymbolTableRecord
100
AcDbBlockTableRecord
  2
*PAPER_SPACE
340
173D6
  0
BLOCK_RECORD
  5
DEAC
330
7466
100
AcDbSymbolTableRecord
100
AcDbBlockTableRecord
  2
_OPEN
340
0
  0
BLOCK_RECORD
  5
F770
330
7466
100
AcDbSymbolTableRecord
100
AcDbBlockTableRecord
  2
_DOTSMALL
340
0
102
{BLKREFS
331
18C65
331
18C66
331
18C59
331
18C5A
331
18C4D
331
18C4E
331
18C41
331
18C42
331
18C35
331
18C36
331
18C29
331
18C2A
331
18C1D
331
18C1E
331
18C0F
331
18C10
331
18C03
331
18C04
331
18BF5
331
18BF6
331
18BE7
331
18BE8
331
18BD9
331
18BDA
331
18BCD
331
18BCE
331
2271D
331
2271E
331
22726
331
22727
331
2273B
331
2273C
331
22745
331
22746
331
22762
331
22763
331
2276B
331
2276C
331
22775
331
22776
331
227A8
331
227A9
331
237A2
331
237A3
331
237AA
331
237AB
331
237B3
331
237B4
331
237BC
331
237BD
331
237C5
331
237C6
331
23BE4
331
23BE5
331
23FE0
331
23FE1
331
243FB
331
243FC
331
24406
331
24407
331
24427
331
24428
331
24432
331
24433
331
24827
331
24828
331
24831
331
24832
331
2483B
331
2483C
331
24845
331
24846
331
24B61
331
24B62
331
24B6A
331
24B6B
331
24B73
331
24B74
331
24B7C
331
24B7D
331
24B8A
331
24B8B
331
24B92
331
24B93
331
24BDC
331
24BDD
331
24BD1
331
24BD2
331
24BC0
331
24BC1
331
24BB4
331
24BB5
331
24BA8
331
24BA9
331
24BE9
331
24BEA
331
24EAF
331
24EB0
331
24EBE
331
24EBF
331
24EC7
331
24EC8
331
24ED0
331
24ED1
331
24ED9
331
24EDA
331
24EE2
331
24EE3
102
}
  0
BLOCK_RECORD
  5
164B4
330
7466
100
AcDbSymbolTableRecord
100
AcDbBlockTableRecord
  2
_DOT
340
0
102
{BLKREFS
331
18C73
331
18C74
102
}
  0
BLOCK_RECORD
  5
18BC8
330
7466
100
AcDbSymbolTableRecord
100
AcDbBlockTableRecord
  2
*D3
340
0
  0
BLOCK_RECORD
  5
18BD4
330
7466
100
AcDbSymbolTableRecord
100
AcDbBlockTableRecord
  2
*D4
340
0
  0
BLOCK_RECORD
  5
18BE0
330
7466
100
AcDbSymbolTableRecord
100
AcDbBlockTableRecord
  2
*D5
340
0
  0
BLOCK_RECORD
  5
18BEE
330
7466
100
AcDbSymbolTableRecord
100
AcDbBlockTableRecord
  2
*D6
340
0
  0
BLOCK_RECORD
  5
18BFC
330
7466
100
AcDbSymbolTableRecord
100
AcDbBlockTableRecord
  2
*D7
340
0
  0
BLOCK_RECORD
  5
18C0A
330
7466
100
AcDbSymbolTableRecord
100
AcDbBlockTableRecord
  2
*D8
340
0
  0
BLOCK_RECORD
  5
18C16
330
7466
100
AcDbSymbolTableRecord
100
AcDbBlockTableRecord
  2
*D9
340
0
  0
BLOCK_RECORD
  5
18C24
330
7466
100
AcDbSymbolTableRecord
100
AcDbBlockTableRecord
  2
*D10
340
0
  0
BLOCK_RECORD
  5
18C30
330
7466
100
AcDbSymbolTableRecord
100
AcDbBlockTableRecord
  2
*D11
340
0
  0
BLOCK_RECORD
  5
18C3C
330
7466
100
AcDbSymbolTableRecord
100
AcDbBlockTableRecord
  2
*D12
340
0
  0
BLOCK_RECORD
  5
18C48
330
7466
100
AcDbSymbolTableRecord
100
AcDbBlockTableRecord
  2
*D13
340
0
  0
BLOCK_RECORD
  5
18C54
330
7466
100
AcDbSymbolTableRecord
100
AcDbBlockTableRecord
  2
*D14
340
0
  0
BLOCK_RECORD
  5
18C60
330
7466
100
AcDbSymbolTableRecord
100
AcDbBlockTableRecord
  2
*D15
340
0
  0
BLOCK_RECORD
  5
18C6C
330
7466
100
AcDbSymbolTableRecord
100
AcDbBlockTableRecord
  2
*D16
340
0
  0
BLOCK_RECORD
  5
18C7A
330
7466
100
AcDbSymbolTableRecord
100
AcDbBlockTableRecord
  2
A$C3B1A506B
340
0
  0
BLOCK_RECORD
  5
1C4CA
330
7466
100
AcDbSymbolTableRecord
100
AcDbBlockTableRecord
  2
_NONE
340
0
  0
BLOCK_RECORD
  5
221D9
330
7466
100
AcDbSymbolTableRecord
100
AcDbBlockTableRecord
  2
*D19
340
0
  0
BLOCK_RECORD
  5
22219
330
7466
100
AcDbSymbolTableRecord
100
AcDbBlockTableRecord
  2
*D20
340
0
  0
BLOCK_RECORD
  5
22226
330
7466
100
AcDbSymbolTableRecord
100
AcDbBlockTableRecord
  2
*D21
340
0
  0
BLOCK_RECORD
  5
22231
330
7466
100
AcDbSymbolTableRecord
100
AcDbBlockTableRecord
  2
*D22
340
0
  0
BLOCK_RECORD
  5
22251
330
7466
100
AcDbSymbolTableRecord
100
AcDbBlockTableRecord
  2
*D23
340
0
  0
BLOCK_RECORD
  5
2225E
330
7466
100
AcDbSymbolTableRecord
100
AcDbBlockTableRecord
  2
*D24
340
0
  0
BLOCK_RECORD
  5
22277
330
7466
100
AcDbSymbolTableRecord
100
AcDbBlockTableRecord
  2
*D25
340
0
  0
BLOCK_RECORD
  5
22282
330
7466
100
AcDbSymbolTableRecord
100
AcDbBlockTableRecord
  2
*D26
340
0
  0
BLOCK_RECORD
  5
2229B
330
7466
100
AcDbSymbolTableRecord
100
AcDbBlockTableRecord
  2
*D27
340
0
  0
BLOCK_RECORD
  5
222A7
330
7466
100
AcDbSymbolTableRecord
100
AcDbBlockTableRecord
  2
*D28
340
0
  0
BLOCK_RECORD
  5
222B4
330
7466
100
AcDbSymbolTableRecord
100
AcDbBlockTableRecord
  2
*D29
340
0
  0
BLOCK_RECORD
  5
229C3
330
7466
100
AcDbSymbolTableRecord
100
AcDbBlockTableRecord
  2
*D30
340
0
  0
BLOCK_RECORD
  5
229D0
330
7466
100
AcDbSymbolTableRecord
100
AcDbBlockTableRecord
  2
*D31
340
0
  0
BLOCK_RECORD
  5
235FA
330
7466
100
AcDbSymbolTableRecord
100
AcDbBlockTableRecord
  2
*D32
340
0
  0
BLOCK_RECORD
  5
23606
330
7466
100
AcDbSymbolTableRecord
100
AcDbBlockTableRecord
  2
*D33
340
0
  0
BLOCK_RECORD
  5
23612
330
7466
100
AcDbSymbolTableRecord
100
AcDbBlockTableRecord
  2
*D34
340
0
  0
BLOCK_RECORD
  5
23DD4
330
7466
100
AcDbSymbolTableRecord
100
AcDbBlockTableRecord
  2
*D35
340
0
  0
BLOCK_RECORD
  5
23DE1
330
7466
100
AcDbSymbolTableRecord
100
AcDbBlockTableRecord
  2
*D36
340
0
  0
BLOCK_RECORD
  5
23DEE
330
7466
100
AcDbSymbolTableRecord
100
AcDbBlockTableRecord
  2
*D37
340
0
  0
BLOCK_RECORD
  5
2426C
330
7466
100
AcDbSymbolTableRecord
100
AcDbBlockTableRecord
  2
*D38
340
0
  0
BLOCK_RECORD
  5
2427A
330
7466
100
AcDbSymbolTableRecord
100
AcDbBlockTableRecord
  2
*D39
340
0
  0
BLOCK_RECORD
  5
24288
330
7466
100
AcDbSymbolTableRecord
100
AcDbBlockTableRecord
  2
*D40
340
0
  0
BLOCK_RECORD
  5
24296
330
7466
100
AcDbSymbolTableRecord
100
AcDbBlockTableRecord
  2
*D41
340
0
  0
BLOCK_RECORD
  5
24E5F
330
7466
100
AcDbSymbolTableRecord
100
AcDbBlockTableRecord
  2
*D54
340
0
  0
BLOCK_RECORD
  5
24E6B
330
7466
100
AcDbSymbolTableRecord
100
AcDbBlockTableRecord
  2
*D55
340
0
  0
BLOCK_RECORD
  5
24E7C
330
7466
100
AcDbSymbolTableRecord
100
AcDbBlockTableRecord
  2
*D56
340
0
  0
BLOCK_RECORD
  5
24E88
330
7466
100
AcDbSymbolTableRecord
100
AcDbBlockTableRecord
  2
*D57
340
0
  0
BLOCK_RECORD
  5
24E94
330
7466
100
AcDbSymbolTableRecord
100
AcDbBlockTableRecord
  2
*D58
340
0
  0
BLOCK_RECORD
  5
24EA0
330
7466
100
AcDbSymbolTableRecord
100
AcDbBlockTableRecord
  2
*D59
340
0
  0
ENDTAB
  0
ENDSEC
  0
SECTION
  2
BLOCKS
  0
BLOCK
  5
7489
330
747D
100
AcDbEntity
  8
0
100
AcDbBlockBegin
  2
*MODEL_SPACE
 70
     0
 10
0.0
 20
0.0
 30
0.0
  3
*MODEL_SPACE
  1

  0
ENDBLK
  5
748A
330
747D
100
AcDbEntity
  8
0
100
AcDbBlockEnd
  0
BLOCK
  5
7487
330
747A
100
AcDbEntity
 67
     1
  8
0
100
AcDbBlockBegin
  2
*PAPER_SPACE
 70
     0
 10
0.0
 20
0.0
 30
0.0
  3
*PAPER_SPACE
  1

  0
ENDBLK
  5
7488
330
747A
100
AcDbEntity
 67
     1
  8
0
100
AcDbBlockEnd
  0
BLOCK
  5
DEAD
330
DEAC
100
AcDbEntity
  8
0
100
AcDbBlockBegin
  2
_OPEN
 70
     0
 10
0.0
 20
0.0
 30
0.0
  3
_OPEN
  1

  0
LINE
  5
DEAE
330
DEAC
100
AcDbEntity
  8
0
  6
ByBlock
 62
     0
100
AcDbLine
 10
-1.0
 20
0.1666666666666666
 30
0.0
 11
0.0
 21
0.0
 31
0.0
  0
LINE
  5
DEAF
330
DEAC
100
AcDbEntity
  8
0
  6
ByBlock
 62
     0
100
AcDbLine
 10
0.0
 20
0.0
 30
0.0
 11
-1.0
 21
-0.1666666666666666
 31
0.0
  0
LINE
  5
DEB0
330
DEAC
100
AcDbEntity
  8
0
  6
ByBlock
 62
     0
100
AcDbLine
 10
0.0
 20
0.0
 30
0.0
 11
-1.0
 21
0.0
 31
0.0
  0
ENDBLK
  5
DEB1
330
DEAC
100
AcDbEntity
  8
0
100
AcDbBlockEnd
  0
BLOCK
  5
F771
330
F770
100
AcDbEntity
  8
0
 48
50.0
100
AcDbBlockBegin
  2
_DOTSMALL
 70
     0
 10
0.0
 20
0.0
 30
0.0
  3
_DOTSMALL
  1

  0
LWPOLYLINE
  5
F772
330
F770
100
AcDbEntity
  8
0
  6
ByBlock
 62
     0
 48
50.0
100
AcDbPolyline
 90
        2
 70
     1
 43
0.5
 10
-0.0625
 20
0.0
 42
1.0
 10
0.0625
 20
0.0
 42
1.0
  0
ENDBLK
  5
F776
330
F770
100
AcDbEntity
  8
0
 48
50.0
100
AcDbBlockEnd
  0
BLOCK
  5
164BA
330
164B4
100
AcDbEntity
  8
0
 48
50.0
100
AcDbBlockBegin
  2
_DOT
 70
     0
 10
0.0
 20
0.0
 30
0.0
  3
_DOT
  1

  0
LWPOLYLINE
  5
164B5
330
164B4
100
AcDbEntity
  8
0
  6
ByBlock
 62
     0
 48
50.0
100
AcDbPolyline
 90
        2
 70
     1
 43
0.5
 10
-0.25
 20
0.0
 42
1.0
 10
0.25
 20
0.0
 42
1.0
  0
LINE
  5
164B9
330
164B4
100
AcDbEntity
  8
0
  6
ByBlock
 62
     0
 48
50.0
100
AcDbLine
 10
-0.5
 20
0.0
 30
0.0
 11
-1.0
 21
0.0
 31
0.0
  0
ENDBLK
  5
164BB
330
164B4
100
AcDbEntity
  8
0
 48
50.0
100
AcDbBlockEnd
  0
BLOCK
  5
18BC9
330
18BC8
100
AcDbEntity
  8
0
 48
50.0
100
AcDbBlockBegin
  2
*D3
 70
     1
 10
0.0
 20
0.0
 30
0.0
  3
*D3
  1

  0
LINE
  5
18BCA
330
18BC8
100
AcDbEntity
  8
寸法
 62
     0
 48
50.0
370
    -2
100
AcDbLine
 10
7649.896575106999
 20
9636.123139034717
 30
0.0
 11
8702.429862581047
 21
9636.123139034717
 31
0.0
  0
LINE
  5
18BCB
330
18BC8
100
AcDbEntity
  8
寸法
 62
     0
 48
50.0
370
    -2
100
AcDbLine
 10
7649.896575106973
 20
7846.123139034709
 30
0.0
 11
8702.429862581047
 21
7846.123139034709
 31
0.0
  0
LINE
  5
18BCC
330
18BC8
100
AcDbEntity
  8
寸法
 62
     0
 48
50.0
370
    -2
100
AcDbLine
 10
8642.429862581046
 20
9636.123139034717
 30
0.0
 11
8642.429862581046
 21
7846.123139034709
 31
0.0
  0
INSERT
  5
18BCD
330
18BC8
100
AcDbEntity
  8
寸法
 62
     0
 48
50.0
370
    -2
100
AcDbBlockReference
  2
_DOTSMALL
 10
8642.429862581046
 20
9636.123139034717
 30
0.0
 41
100.0
 42
100.0
 43
100.0
 50
90.0
  0
INSERT
  5
18BCE
330
18BC8
100
AcDbEntity
  8
寸法
 62
     0
 48
50.0
370
    -2
100
AcDbBlockReference
  2
_DOTSMALL
 10
8642.429862581046
 20
7846.123139034709
 30
0.0
 41
100.0
 42
100.0
 43
100.0
 50
270.0
  0
MTEXT
  5
18BCF
330
18BC8
100
AcDbEntity
  8
寸法
 62
     7
 48
50.0
100
AcDbMText
 10
8542.429862581045
 20
8741.123139034712
 30
0.0
 40
120.0
 41
0.0
 71
     5
 72
     1
  1
\A1;1790
  7
STYLE1
 11
0.0000000000000001
 21
1.0
 31
0.0
 73
     1
 44
1.0
1001
ACAD
1000
MTEXTBEGIN
1070
    73
1070
     1
1070
    44
1040
1.0
1070
    74
1070
     0
1000
MTEXTEND
  0
POINT
  5
18BD0
330
18BC8
100
AcDbEntity
  8
DEFPOINTS
 62
     0
 48
50.0
100
AcDbPoint
 10
7629.896575106998
 20
9636.123139034717
 30
0.0
  0
POINT
  5
18BD1
330
18BC8
100
AcDbEntity
  8
DEFPOINTS
 62
     0
 48
50.0
100
AcDbPoint
 10
7629.896575106974
 20
7846.123139034709
 30
0.0
  0
POINT
  5
18BD2
330
18BC8
100
AcDbEntity
  8
DEFPOINTS
 62
     0
 48
50.0
100
AcDbPoint
 10
8642.429862581046
 20
7846.123139034709
 30
0.0
  0
ENDBLK
  5
18BD3
330
18BC8
100
AcDbEntity
  8
0
 48
50.0
100
AcDbBlockEnd
  0
BLOCK
  5
18BD5
330
18BD4
100
AcDbEntity
  8
0
 48
50.0
100
AcDbBlockBegin
  2
*D4
 70
     1
 10
0.0
 20
0.0
 30
0.0
  3
*D4
  1

  0
LINE
  5
18BD6
330
18BD4
100
AcDbEntity
  8
寸法
 62
     0
 48
50.0
370
    -2
100
AcDbLine
 10
4214.896575106998
 20
9656.123139034622
 30
0.0
 11
4214.896575106998
 21
10211.93135865972
 31
0.0
  0
LINE
  5
18BD7
330
18BD4
100
AcDbEntity
  8
寸法
 62
     0
 48
50.0
370
    -2
100
AcDbLine
 10
7574.896575106999
 20
9656.123139034718
 30
0.0
 11
7574.896575106999
 21
10211.93135865972
 31
0.0
  0
LINE
  5
18BD8
330
18BD4
100
AcDbEntity
  8
寸法
 62
     0
 48
50.0
370
    -2
100
AcDbLine
 10
4214.896575106998
 20
10151.93135865972
 30
0.0
 11
7574.896575106999
 21
10151.93135865972
 31
0.0
  0
INSERT
  5
18BD9
330
18BD4
100
AcDbEntity
  8
寸法
 62
     0
 48
50.0
370
    -2
100
AcDbBlockReference
  2
_DOTSMALL
 10
4214.896575106998
 20
10151.93135865972
 30
0.0
 41
100.0
 42
100.0
 43
100.0
 50
180.0
  0
INSERT
  5
18BDA
330
18BD4
100
AcDbEntity
  8
寸法
 62
     0
 48
50.0
370
    -2
100
AcDbBlockReference
  2
_DOTSMALL
 10
7574.896575106999
 20
10151.93135865972
 30
0.0
 41
100.0
 42
100.0
 43
100.0
  0
MTEXT
  5
18BDB
330
18BD4
100
AcDbEntity
  8
寸法
 62
     7
 48
50.0
100
AcDbMText
 10
5894.896575106997
 20
10251.94316968334
 30
0.0
 40
120.0
 41
0.0
 71
     5
 72
     1
  1
\A1;8X420=3360
  7
STYLE1
 73
     1
 44
1.0
1001
ACAD
1000
MTEXTBEGIN
1070
    73
1070
     1
1070
    44
1040
1.0
1070
    74
1070
     0
1000
MTEXTEND
  0
POINT
  5
18BDC
330
18BD4
100
AcDbEntity
  8
DEFPOINTS
 62
     0
 48
50.0
100
AcDbPoint
 10
4214.896575106998
 20
9636.123139034623
 30
0.0
  0
POINT
  5
18BDD
330
18BD4
100
AcDbEntity
  8
DEFPOINTS
 62
     0
 48
50.0
100
AcDbPoint
 10
7574.896575106999
 20
9636.123139034717
 30
0.0
  0
POINT
  5
18BDE
330
18BD4
100
AcDbEntity
  8
DEFPOINTS
 62
     0
 48
50.0
100
AcDbPoint
 10
7574.896575106999
 20
10151.93135865972
 30
0.0
  0
ENDBLK
  5
18BDF
330
18BD4
100
AcDbEntity
  8
0
 48
50.0
100
AcDbBlockEnd
  0
BLOCK
  5
18BE1
330
18BE0
100
AcDbEntity
  8
0
 48
50.0
100
AcDbBlockBegin
  2
*D5
 70
     1
 10
0.0
 20
0.0
 30
0.0
  3
*D5
  1

  0
LINE
  5
18BE2
330
18BE0
100
AcDbEntity
  8
寸法
 62
     0
 48
50.0
370
    -2
100
AcDbLine
 10
7574.896575106999
 20
9656.123139034718
 30
0.0
 11
7574.896575106999
 21
10211.9313586597
 31
0.0
  0
LINE
  5
18BE3
330
18BE0
100
AcDbEntity
  8
寸法
 62
     0
 48
50.0
370
    -2
100
AcDbLine
 10
7629.896575106998
 20
9656.123139034718
 30
0.0
 11
7629.896575106998
 21
10211.9313586597
 31
0.0
  0
LINE
  5
18BE4
330
18BE0
100
AcDbEntity
  8
寸法
 62
     0
 48
50.0
370
    -2
100
AcDbLine
 10
7574.896575106999
 20
10151.9313586597
 30
0.0
 11
7474.896575106999
 21
10151.9313586597
 31
0.0
  0
LINE
  5
18BE5
330
18BE0
100
AcDbEntity
  8
寸法
 62
     0
 48
50.0
370
    -2
100
AcDbLine
 10
7629.896575106998
 20
10151.9313586597
 30
0.0
 11
8046.867137855477
 21
10151.9313586597
 31
0.0
  0
LINE
  5
18BE6
330
18BE0
100
AcDbEntity
  8
寸法
 62
     0
 48
50.0
370
    -2
100
AcDbLine
 10
7574.896575106999
 20
10151.9313586597
 30
0.0
 11
7629.896575106998
 21
10151.9313586597
 31
0.0
  0
INSERT
  5
18BE7
330
18BE0
100
AcDbEntity
  8
寸法
 62
     0
 48
50.0
370
    -2
100
AcDbBlockReference
  2
_DOTSMALL
 10
7574.896575106999
 20
10151.9313586597
 30
0.0
 41
100.0
 42
100.0
 43
100.0
  0
INSERT
  5
18BE8
330
18BE0
100
AcDbEntity
  8
寸法
 62
     0
 48
50.0
370
    -2
100
AcDbBlockReference
  2
_DOTSMALL
 10
7629.896575106998
 20
10151.9313586597
 30
0.0
 41
100.0
 42
100.0
 43
100.0
 50
180.0
  0
MTEXT
  5
18BE9
330
18BE0
100
AcDbEntity
  8
寸法
 62
     7
 48
50.0
100
AcDbMText
 10
7938.381856481237
 20
10251.9313586597
 30
0.0
 40
120.0
 41
0.0
 71
     5
 72
     1
  1
\A1;55
  7
STYLE1
 73
     1
 44
1.0
1001
ACAD
1000
MTEXTBEGIN
1070
    73
1070
     1
1070
    44
1040
1.0
1070
    74
1070
     0
1000
MTEXTEND
  0
POINT
  5
18BEA
330
18BE0
100
AcDbEntity
  8
DEFPOINTS
 62
     0
 48
50.0
100
AcDbPoint
 10
7574.896575106999
 20
9636.123139034717
 30
0.0
  0
POINT
  5
18BEB
330
18BE0
100
AcDbEntity
  8
DEFPOINTS
 62
     0
 48
50.0
100
AcDbPoint
 10
7629.896575106998
 20
9636.123139034717
 30
0.0
  0
POINT
  5
18BEC
330
18BE0
100
AcDbEntity
  8
DEFPOINTS
 62
     0
 48
50.0
100
AcDbPoint
 10
7629.896575106998
 20
10151.9313586597
 30
0.0
  0
ENDBLK
  5
18BED
330
18BE0
100
AcDbEntity
  8
0
 48
50.0
100
AcDbBlockEnd
  0
BLOCK
  5
18BEF
330
18BEE
100
AcDbEntity
  8
0
 48
50.0
100
AcDbBlockBegin
  2
*D6
 70
     1
 10
0.0
 20
0.0
 30
0.0
  3
*D6
  1

  0
LINE
  5
18BF0
330
18BEE
100
AcDbEntity
  8
寸法
 62
     0
 48
50.0
370
    -2
100
AcDbLine
 10
7649.896575106999
 20
9636.123139034717
 30
0.0
 11
8337.32292084141
 21
9636.123139034717
 31
0.0
  0
LINE
  5
18BF1
330
18BEE
100
AcDbEntity
  8
寸法
 62
     0
 48
50.0
370
    -2
100
AcDbLine
 10
7649.896575106999
 20
9581.123139034721
 30
0.0
 11
8337.32292084141
 21
9581.123139034721
 31
0.0
  0
LINE
  5
18BF2
330
18BEE
100
AcDbEntity
  8
寸法
 62
     0
 48
50.0
370
    -2
100
AcDbLine
 10
8277.322920841411
 20
9581.123139034721
 30
0.0
 11
8277.322920841411
 21
9481.123139034719
 31
0.0
  0
LINE
  5
18BF3
330
18BEE
100
AcDbEntity
  8
寸法
 62
     0
 48
50.0
370
    -2
100
AcDbLine
 10
8277.322920841411
 20
9636.123139034717
 30
0.0
 11
8277.322920841411
 21
10053.09370178319
 31
0.0
  0
LINE
  5
18BF4
330
18BEE
100
AcDbEntity
  8
寸法
 62
     0
 48
50.0
370
    -2
100
AcDbLine
 10
8277.322920841411
 20
9581.123139034721
 30
0.0
 11
8277.322920841411
 21
9636.123139034717
 31
0.0
  0
INSERT
  5
18BF5
330
18BEE
100
AcDbEntity
  8
寸法
 62
     0
 48
50.0
370
    -2
100
AcDbBlockReference
  2
_DOTSMALL
 10
8277.322920841411
 20
9581.123139034721
 30
0.0
 41
100.0
 42
100.0
 43
100.0
 50
90.0
  0
INSERT
  5
18BF6
330
18BEE
100
AcDbEntity
  8
寸法
 62
     0
 48
50.0
370
    -2
100
AcDbBlockReference
  2
_DOTSMALL
 10
8277.322920841411
 20
9636.123139034717
 30
0.0
 41
100.0
 42
100.0
 43
100.0
 50
270.0
  0
MTEXT
  5
18BF7
330
18BEE
100
AcDbEntity
  8
寸法
 62
     7
 48
50.0
100
AcDbMText
 10
8177.32292084141
 20
9944.608420408957
 30
0.0
 40
120.0
 41
0.0
 71
     5
 72
     1
  1
\A1;55
  7
STYLE1
 11
0.0000000000000001
 21
1.0
 31
0.0
 73
     1
 44
1.0
1001
ACAD
1000
MTEXTBEGIN
1070
    73
1070
     1
1070
    44
1040
1.0
1070
    74
1070
     0
1000
MTEXTEND
  0
POINT
  5
18BF8
330
18BEE
100
AcDbEntity
  8
DEFPOINTS
 62
     0
 48
50.0
100
AcDbPoint
 10
7629.896575106998
 20
9636.123139034717
 30
0.0
  0
POINT
  5
18BF9
330
18BEE
100
AcDbEntity
  8
DEFPOINTS
 62
     0
 48
50.0
100
AcDbPoint
 10
7629.896575106998
 20
9581.123139034721
 30
0.0
  0
POINT
  5
18BFA
330
18BEE
100
AcDbEntity
  8
DEFPOINTS
 62
     0
 48
50.0
100
AcDbPoint
 10
8277.322920841411
 20
9581.123139034721
 30
0.0
  0
ENDBLK
  5
18BFB
330
18BEE
100
AcDbEntity
  8
0
 48
50.0
100
AcDbBlockEnd
  0
BLOCK
  5
18BFD
330
18BFC
100
AcDbEntity
  8
0
 48
50.0
100
AcDbBlockBegin
  2
*D7
 70
     1
 10
0.0
 20
0.0
 30
0.0
  3
*D7
  1

  0
LINE
  5
18BFE
330
18BFC
100
AcDbEntity
  8
寸法
 62
     0
 48
50.0
370
    -2
100
AcDbLine
 10
4159.896575106963
 20
9656.123139034622
 30
0.0
 11
4159.896575106963
 21
10211.9313586596
 31
0.0
  0
LINE
  5
18BFF
330
18BFC
100
AcDbEntity
  8
寸法
 62
     0
 48
50.0
370
    -2
100
AcDbLine
 10
4214.896575106998
 20
9656.123139034622
 30
0.0
 11
4214.896575106998
 21
10211.9313586596
 31
0.0
  0
LINE
  5
18C00
330
18BFC
100
AcDbEntity
  8
寸法
 62
     0
 48
50.0
370
    -2
100
AcDbLine
 10
4214.896575106998
 20
10151.9313586596
 30
0.0
 11
4314.896575106998
 21
10151.9313586596
 31
0.0
  0
LINE
  5
18C01
330
18BFC
100
AcDbEntity
  8
寸法
 62
     0
 48
50.0
370
    -2
100
AcDbLine
 10
4159.896575106963
 20
10151.9313586596
 30
0.0
 11
3742.926012358486
 21
10151.9313586596
 31
0.0
  0
LINE
  5
18C02
330
18BFC
100
AcDbEntity
  8
寸法
 62
     0
 48
50.0
370
    -2
100
AcDbLine
 10
4214.896575106998
 20
10151.9313586596
 30
0.0
 11
4159.896575106963
 21
10151.9313586596
 31
0.0
  0
INSERT
  5
18C03
330
18BFC
100
AcDbEntity
  8
寸法
 62
     0
 48
50.0
370
    -2
100
AcDbBlockReference
  2
_DOTSMALL
 10
4214.896575106998
 20
10151.9313586596
 30
0.0
 41
100.0
 42
100.0
 43
100.0
 50
180.0
  0
INSERT
  5
18C04
330
18BFC
100
AcDbEntity
  8
寸法
 62
     0
 48
50.0
370
    -2
100
AcDbBlockReference
  2
_DOTSMALL
 10
4159.896575106963
 20
10151.9313586596
 30
0.0
 41
100.0
 42
100.0
 43
100.0
  0
MTEXT
  5
18C05
330
18BFC
100
AcDbEntity
  8
寸法
 62
     7
 48
50.0
100
AcDbMText
 10
3851.411293732725
 20
10251.9313586596
 30
0.0
 40
120.0
 41
0.0
 71
     5
 72
     1
  1
\A1;55
  7
STYLE1
 73
     1
 44
1.0
1001
ACAD
1000
MTEXTBEGIN
1070
    73
1070
     1
1070
    44
1040
1.0
1070
    74
1070
     0
1000
MTEXTEND
  0
POINT
  5
18C06
330
18BFC
100
AcDbEntity
  8
DEFPOINTS
 62
     0
 48
50.0
100
AcDbPoint
 10
4159.896575106963
 20
9636.123139034623
 30
0.0
  0
POINT
  5
18C07
330
18BFC
100
AcDbEntity
  8
DEFPOINTS
 62
     0
 48
50.0
100
AcDbPoint
 10
4214.896575106998
 20
9636.123139034623
 30
0.0
  0
POINT
  5
18C08
330
18BFC
100
AcDbEntity
  8
DEFPOINTS
 62
     0
 48
50.0
100
AcDbPoint
 10
4214.896575106998
 20
10151.9313586596
 30
0.0
  0
ENDBLK
  5
18C09
330
18BFC
100
AcDbEntity
  8
0
 48
50.0
100
AcDbBlockEnd
  0
BLOCK
  5
18C0B
330
18C0A
100
AcDbEntity
  8
0
 48
50.0
100
AcDbBlockBegin
  2
*D8
 70
     1
 10
0.0
 20
0.0
 30
0.0
  3
*D8
  1

  0
LINE
  5
18C0C
330
18C0A
100
AcDbEntity
  8
寸法
 62
     0
 48
50.0
370
    -2
100
AcDbLine
 10
4159.896575106992
 20
7826.123139034546
 30
0.0
 11
4159.896575106992
 21
6804.372203245664
 31
0.0
  0
LINE
  5
18C0D
330
18C0A
100
AcDbEntity
  8
寸法
 62
     0
 48
50.0
370
    -2
100
AcDbLine
 10
7629.896575106974
 20
7826.123139034674
 30
0.0
 11
7629.896575106974
 21
6804.372203245664
 31
0.0
  0
LINE
  5
18C0E
330
18C0A
100
AcDbEntity
  8
寸法
 62
     0
 48
50.0
370
    -2
100
AcDbLine
 10
4159.896575106992
 20
6864.372203245665
 30
0.0
 11
7629.896575106974
 21
6864.372203245665
 31
0.0
  0
INSERT
  5
18C0F
330
18C0A
100
AcDbEntity
  8
寸法
 62
     0
 48
50.0
370
    -2
100
AcDbBlockReference
  2
_DOTSMALL
 10
4159.896575106992
 20
6864.372203245665
 30
0.0
 41
100.0
 42
100.0
 43
100.0
 50
180.0
  0
INSERT
  5
18C10
330
18C0A
100
AcDbEntity
  8
寸法
 62
     0
 48
50.0
370
    -2
100
AcDbBlockReference
  2
_DOTSMALL
 10
7629.896575106974
 20
6864.372203245665
 30
0.0
 41
100.0
 42
100.0
 43
100.0
  0
MTEXT
  5
18C11
330
18C0A
100
AcDbEntity
  8
寸法
 62
     7
 48
50.0
100
AcDbMText
 10
5911.12376113973
 20
6964.372203245665
 30
0.0
 40
120.0
 41
0.0
 71
     5
 72
     1
  1
\A1;3470
  7
STYLE1
 73
     1
 44
1.0
1001
ACAD
1000
MTEXTBEGIN
1070
    73
1070
     1
1070
    44
1040
1.0
1070
    74
1070
     0
1000
MTEXTEND
  0
POINT
  5
18C12
330
18C0A
100
AcDbEntity
  8
DEFPOINTS
 62
     0
 48
50.0
100
AcDbPoint
 10
4159.896575106992
 20
7846.123139034546
 30
0.0
  0
POINT
  5
18C13
330
18C0A
100
AcDbEntity
  8
DEFPOINTS
 62
     0
 48
50.0
100
AcDbPoint
 10
7629.896575106974
 20
7846.123139034673
 30
0.0
  0
POINT
  5
18C14
330
18C0A
100
AcDbEntity
  8
DEFPOINTS
 62
     0
 48
50.0
100
AcDbPoint
 10
7629.896575106974
 20
6864.372203245665
 30
0.0
  0
ENDBLK
  5
18C15
330
18C0A
100
AcDbEntity
  8
0
 48
50.0
100
AcDbBlockEnd
  0
BLOCK
  5
18C17
330
18C16
100
AcDbEntity
  8
0
 48
50.0
100
AcDbBlockBegin
  2
*D9
 70
     1
 10
0.0
 20
0.0
 30
0.0
  3
*D9
  1

  0
LINE
  5
18C18
330
18C16
100
AcDbEntity
  8
寸法
 62
     0
 48
50.0
370
    -2
100
AcDbLine
 10
7649.896575106973
 20
7901.123139034706
 30
0.0
 11
8337.322920841385
 21
7901.123139034706
 31
0.0
  0
LINE
  5
18C19
330
18C16
100
AcDbEntity
  8
寸法
 62
     0
 48
50.0
370
    -2
100
AcDbLine
 10
7649.896575106973
 20
7846.123139034709
 30
0.0
 11
8337.322920841385
 21
7846.123139034709
 31
0.0
  0
LINE
  5
18C1A
330
18C16
100
AcDbEntity
  8
寸法
 62
     0
 48
50.0
370
    -2
100
AcDbLine
 10
8277.322920841385
 20
7901.123139034706
 30
0.0
 11
8277.322920841385
 21
8001.123139034707
 31
0.0
  0
LINE
  5
18C1B
330
18C16
100
AcDbEntity
  8
寸法
 62
     0
 48
50.0
370
    -2
100
AcDbLine
 10
8277.322920841385
 20
7846.123139034709
 30
0.0
 11
8277.322920841385
 21
7429.152576286229
 31
0.0
  0
LINE
  5
18C1C
330
18C16
100
AcDbEntity
  8
寸法
 62
     0
 48
50.0
370
    -2
100
AcDbLine
 10
8277.322920841385
 20
7901.123139034706
 30
0.0
 11
8277.322920841385
 21
7846.123139034709
 31
0.0
  0
INSERT
  5
18C1D
330
18C16
100
AcDbEntity
  8
寸法
 62
     0
 48
50.0
370
    -2
100
AcDbBlockReference
  2
_DOTSMALL
 10
8277.322920841385
 20
7901.123139034706
 30
0.0
 41
100.0
 42
100.0
 43
100.0
 50
270.0
  0
INSERT
  5
18C1E
330
18C16
100
AcDbEntity
  8
寸法
 62
     0
 48
50.0
370
    -2
100
AcDbBlockReference
  2
_DOTSMALL
 10
8277.322920841385
 20
7846.123139034709
 30
0.0
 41
100.0
 42
100.0
 43
100.0
 50
90.0
  0
MTEXT
  5
18C1F
330
18C16
100
AcDbEntity
  8
寸法
 62
     7
 48
50.0
100
AcDbMText
 10
8177.322920841383
 20
7537.637857660469
 30
0.0
 40
120.0
 41
0.0
 71
     5
 72
     1
  1
\A1;55
  7
STYLE1
 11
0.0000000000000001
 21
1.0
 31
0.0
 73
     1
 44
1.0
1001
ACAD
1000
MTEXTBEGIN
1070
    73
1070
     1
1070
    44
1040
1.0
1070
    74
1070
     0
1000
MTEXTEND
  0
POINT
  5
18C20
330
18C16
100
AcDbEntity
  8
DEFPOINTS
 62
     0
 48
50.0
100
AcDbPoint
 10
7629.896575106974
 20
7901.123139034706
 30
0.0
  0
POINT
  5
18C21
330
18C16
100
AcDbEntity
  8
DEFPOINTS
 62
     0
 48
50.0
100
AcDbPoint
 10
7629.896575106974
 20
7846.123139034709
 30
0.0
  0
POINT
  5
18C22
330
18C16
100
AcDbEntity
  8
DEFPOINTS
 62
     0
 48
50.0
100
AcDbPoint
 10
8277.322920841385
 20
7846.123139034709
 30
0.0
  0
ENDBLK
  5
18C23
330
18C16
100
AcDbEntity
  8
0
 48
50.0
100
AcDbBlockEnd
  0
BLOCK
  5
18C25
330
18C24
100
AcDbEntity
  8
0
 48
50.0
100
AcDbBlockBegin
  2
*D10
 70
     1
 10
0.0
 20
0.0
 30
0.0
  3
*D10
  1

  0
LINE
  5
18C26
330
18C24
100
AcDbEntity
  8
寸法
 62
     0
 48
50.0
370
    -2
100
AcDbLine
 10
6533.037591258376
 20
9136.123139034728
 30
0.0
 11
6465.083950562664
 21
8882.516699399049
 31
0.0
  0
LINE
  5
18C27
330
18C24
100
AcDbEntity
  8
寸法
 62
     0
 48
50.0
370
    -2
100
AcDbLine
 10
7596.037591258388
 20
9136.123139034721
 30
0.0
 11
7528.083950562677
 21
8882.516699399049
 31
0.0
  0
LINE
  5
18C28
330
18C24
100
AcDbEntity
  8
寸法
 62
     0
 48
50.0
370
    -2
100
AcDbLine
 10
6481.160902108531
 20
8942.51669939905
 30
0.0
 11
7544.160902108544
 21
8942.51669939905
 31
0.0
  0
INSERT
  5
18C29
330
18C24
100
AcDbEntity
  8
寸法
 62
     0
 48
50.0
370
    -2
100
AcDbBlockReference
  2
_DOTSMALL
 10
6481.160902108531
 20
8942.51669939905
 30
0.0
 41
100.0
 42
100.0
 43
100.0
 50
180.0
  0
INSERT
  5
18C2A
330
18C24
100
AcDbEntity
  8
寸法
 62
     0
 48
50.0
370
    -2
100
AcDbBlockReference
  2
_DOTSMALL
 10
7544.160902108544
 20
8942.51669939905
 30
0.0
 41
100.0
 42
100.0
 43
100.0
  0
MTEXT
  5
18C2B
330
18C24
100
AcDbEntity
  8
寸法
 62
     7
 48
50.0
100
AcDbMText
 10
7061.28653022935
 20
9042.516699399049
 30
0.0
 40
120.0
 41
0.0
 71
     5
 72
     1
  1
\A1;1063
  7
STYLE1
 73
     1
 44
1.0
1001
ACAD
1000
MTEXTBEGIN
1070
    73
1070
     1
1070
    44
1040
1.0
1070
    74
1070
     0
1000
MTEXTEND
  0
POINT
  5
18C2C
330
18C24
100
AcDbEntity
  8
DEFPOINTS
 62
     0
 48
50.0
100
AcDbPoint
 10
6538.396575106998
 20
9156.123139034727
 30
0.0
  0
POINT
  5
18C2D
330
18C24
100
AcDbEntity
  8
DEFPOINTS
 62
     0
 48
50.0
100
AcDbPoint
 10
7601.39657510701
 20
9156.12313903472
 30
0.0
  0
POINT
  5
18C2E
330
18C24
100
AcDbEntity
  8
DEFPOINTS
 62
     0
 48
50.0
100
AcDbPoint
 10
7544.160902108544
 20
8942.51669939905
 30
0.0
  0
ENDBLK
  5
18C2F
330
18C24
100
AcDbEntity
  8
0
 48
50.0
100
AcDbBlockEnd
  0
BLOCK
  5
18C31
330
18C30
100
AcDbEntity
  8
0
 48
50.0
100
AcDbBlockBegin
  2
*D11
 70
     1
 10
0.0
 20
0.0
 30
0.0
  3
*D11
  1

  0
LINE
  5
18C32
330
18C30
100
AcDbEntity
  8
寸法
 62
     0
 48
50.0
370
    -2
100
AcDbLine
 10
7621.396575106999
 20
9600.764155186094
 30
0.0
 11
8016.754300969024
 21
9494.828371819961
 31
0.0
  0
LINE
  5
18C33
330
18C30
100
AcDbEntity
  8
寸法
 62
     0
 48
50.0
370
    -2
100
AcDbLine
 10
7621.396575106999
 20
9150.764155186099
 30
0.0
 11
8016.754300969024
 21
9044.828371819964
 31
0.0
  0
LINE
  5
18C34
330
18C30
100
AcDbEntity
  8
寸法
 62
     0
 48
50.0
370
    -2
100
AcDbLine
 10
7956.754300969024
 20
9510.905323365827
 30
0.0
 11
7956.754300969024
 21
9060.90532336583
 31
0.0
  0
INSERT
  5
18C35
330
18C30
100
AcDbEntity
  8
寸法
 62
     0
 48
50.0
370
    -2
100
AcDbBlockReference
  2
_DOTSMALL
 10
7956.754300969024
 20
9510.905323365827
 30
0.0
 41
100.0
 42
100.0
 43
100.0
 50
90.0
  0
INSERT
  5
18C36
330
18C30
100
AcDbEntity
  8
寸法
 62
     0
 48
50.0
370
    -2
100
AcDbBlockReference
  2
_DOTSMALL
 10
7956.754300969024
 20
9060.90532336583
 30
0.0
 41
100.0
 42
100.0
 43
100.0
 50
270.0
  0
MTEXT
  5
18C37
330
18C30
100
AcDbEntity
  8
寸法
 62
     7
 48
50.0
100
AcDbMText
 10
7856.754300969022
 20
9285.905323365829
 30
0.0
 40
120.0
 41
0.0
 71
     5
 72
     1
  1
\A1;450
  7
STYLE1
 11
0.0000000000000001
 21
1.0
 31
0.0
 73
     1
 44
1.0
1001
ACAD
1000
MTEXTBEGIN
1070
    73
1070
     1
1070
    44
1040
1.0
1070
    74
1070
     0
1000
MTEXTEND
  0
POINT
  5
18C38
330
18C30
100
AcDbEntity
  8
DEFPOINTS
 62
     0
 48
50.0
100
AcDbPoint
 10
7601.396575106999
 20
9606.123139034718
 30
0.0
  0
POINT
  5
18C39
330
18C30
100
AcDbEntity
  8
DEFPOINTS
 62
     0
 48
50.0
100
AcDbPoint
 10
7601.396575106999
 20
9156.12313903472
 30
0.0
  0
POINT
  5
18C3A
330
18C30
100
AcDbEntity
  8
DEFPOINTS
 62
     0
 48
50.0
100
AcDbPoint
 10
7956.754300969024
 20
9060.90532336583
 30
0.0
  0
ENDBLK
  5
18C3B
330
18C30
100
AcDbEntity
  8
0
 48
50.0
100
AcDbBlockEnd
  0
BLOCK
  5
18C3D
330
18C3C
100
AcDbEntity
  8
0
 48
50.0
100
AcDbBlockBegin
  2
*D12
 70
     1
 10
0.0
 20
0.0
 30
0.0
  3
*D12
  1

  0
LINE
  5
18C3E
330
18C3C
100
AcDbEntity
  8
寸法
 62
     0
 48
50.0
370
    -2
100
AcDbLine
 10
7649.896575106999
 20
9581.123139034721
 30
0.0
 11
8337.32292084141
 21
9581.123139034721
 31
0.0
  0
LINE
  5
18C3F
330
18C3C
100
AcDbEntity
  8
寸法
 62
     0
 48
50.0
370
    -2
100
AcDbLine
 10
7649.896575106973
 20
7901.123139034706
 30
0.0
 11
8337.32292084141
 21
7901.123139034706
 31
0.0
  0
LINE
  5
18C40
330
18C3C
100
AcDbEntity
  8
寸法
 62
     0
 48
50.0
370
    -2
100
AcDbLine
 10
8277.322920841411
 20
9581.123139034721
 30
0.0
 11
8277.322920841411
 21
7901.123139034706
 31
0.0
  0
INSERT
  5
18C41
330
18C3C
100
AcDbEntity
  8
寸法
 62
     0
 48
50.0
370
    -2
100
AcDbBlockReference
  2
_DOTSMALL
 10
8277.322920841411
 20
9581.123139034721
 30
0.0
 41
100.0
 42
100.0
 43
100.0
 50
90.0
  0
INSERT
  5
18C42
330
18C3C
100
AcDbEntity
  8
寸法
 62
     0
 48
50.0
370
    -2
100
AcDbBlockReference
  2
_DOTSMALL
 10
8277.322920841411
 20
7901.123139034706
 30
0.0
 41
100.0
 42
100.0
 43
100.0
 50
270.0
  0
MTEXT
  5
18C43
330
18C3C
100
AcDbEntity
  8
寸法
 62
     7
 48
50.0
100
AcDbMText
 10
8177.311109817788
 20
8741.123139034712
 30
0.0
 40
120.0
 41
0.0
 71
     5
 72
     1
  1
\A1;4X420=1680
  7
STYLE1
 11
0.0000000000000001
 21
1.0
 31
0.0
 73
     1
 44
1.0
1001
ACAD
1000
MTEXTBEGIN
1070
    73
1070
     1
1070
    44
1040
1.0
1070
    74
1070
     0
1000
MTEXTEND
  0
POINT
  5
18C44
330
18C3C
100
AcDbEntity
  8
DEFPOINTS
 62
     0
 48
50.0
100
AcDbPoint
 10
7629.896575106998
 20
9581.123139034721
 30
0.0
  0
POINT
  5
18C45
330
18C3C
100
AcDbEntity
  8
DEFPOINTS
 62
     0
 48
50.0
100
AcDbPoint
 10
7629.896575106974
 20
7901.123139034706
 30
0.0
  0
POINT
  5
18C46
330
18C3C
100
AcDbEntity
  8
DEFPOINTS
 62
     0
 48
50.0
100
AcDbPoint
 10
8277.322920841411
 20
7901.123139034706
 30
0.0
  0
ENDBLK
  5
18C47
330
18C3C
100
AcDbEntity
  8
0
 48
50.0
100
AcDbBlockEnd
  0
BLOCK
  5
18C49
330
18C48
100
AcDbEntity
  8
0
 48
50.0
100
AcDbBlockBegin
  2
*D13
 70
     1
 10
0.0
 20
0.0
 30
0.0
  3
*D13
  1

  0
LINE
  5
18C4A
330
18C48
100
AcDbEntity
  8
寸法
 62
     0
 48
50.0
370
    -2
100
AcDbLine
 10
4183.037591258377
 20
9136.123139034619
 30
0.0
 11
4115.083950562663
 21
8882.516699398941
 31
0.0
  0
LINE
  5
18C4B
330
18C48
100
AcDbEntity
  8
寸法
 62
     0
 48
50.0
370
    -2
100
AcDbLine
 10
5246.037591258307
 20
9136.123139034671
 30
0.0
 11
5178.08395056258
 21
8882.516699398941
 31
0.0
  0
LINE
  5
18C4C
330
18C48
100
AcDbEntity
  8
寸法
 62
     0
 48
50.0
370
    -2
100
AcDbLine
 10
4131.160902108532
 20
8942.516699398941
 30
0.0
 11
5194.160902108448
 21
8942.516699398941
 31
0.0
  0
INSERT
  5
18C4D
330
18C48
100
AcDbEntity
  8
寸法
 62
     0
 48
50.0
370
    -2
100
AcDbBlockReference
  2
_DOTSMALL
 10
4131.160902108532
 20
8942.516699398941
 30
0.0
 41
100.0
 42
100.0
 43
100.0
 50
180.0
  0
INSERT
  5
18C4E
330
18C48
100
AcDbEntity
  8
寸法
 62
     0
 48
50.0
370
    -2
100
AcDbBlockReference
  2
_DOTSMALL
 10
5194.160902108448
 20
8942.516699398941
 30
0.0
 41
100.0
 42
100.0
 43
100.0
  0
MTEXT
  5
18C4F
330
18C48
100
AcDbEntity
  8
寸法
 62
     7
 48
50.0
100
AcDbMText
 10
4658.986452655306
 20
9042.516699398941
 30
0.0
 40
120.0
 41
0.0
 71
     5
 72
     1
  1
\A1;1063
  7
STYLE1
 73
     1
 44
1.0
1001
ACAD
1000
MTEXTBEGIN
1070
    73
1070
     1
1070
    44
1040
1.0
1070
    74
1070
     0
1000
MTEXTEND
  0
POINT
  5
18C50
330
18C48
100
AcDbEntity
  8
DEFPOINTS
 62
     0
 48
50.0
100
AcDbPoint
 10
4188.396575106999
 20
9156.123139034617
 30
0.0
  0
POINT
  5
18C51
330
18C48
100
AcDbEntity
  8
DEFPOINTS
 62
     0
 48
50.0
100
AcDbPoint
 10
5251.396575106929
 20
9156.123139034672
 30
0.0
  0
POINT
  5
18C52
330
18C48
100
AcDbEntity
  8
DEFPOINTS
 62
     0
 48
50.0
100
AcDbPoint
 10
5194.160902108448
 20
8942.516699398941
 30
0.0
  0
ENDBLK
  5
18C53
330
18C48
100
AcDbEntity
  8
0
 48
50.0
100
AcDbBlockEnd
  0
BLOCK
  5
18C55
330
18C54
100
AcDbEntity
  8
0
 48
50.0
100
AcDbBlockBegin
  2
*D14
 70
     1
 10
0.0
 20
0.0
 30
0.0
  3
*D14
  1

  0
LINE
  5
18C56
330
18C54
100
AcDbEntity
  8
寸法
 62
     0
 48
50.0
370
    -2
100
AcDbLine
 10
5274.037591258307
 20
9136.123139034669
 30
0.0
 11
5206.08395056258
 21
8882.516699398941
 31
0.0
  0
LINE
  5
18C57
330
18C54
100
AcDbEntity
  8
寸法
 62
     0
 48
50.0
370
    -2
100
AcDbLine
 10
6505.037591258377
 20
9136.123139034662
 30
0.0
 11
6437.083950562653
 21
8882.516699398941
 31
0.0
  0
LINE
  5
18C58
330
18C54
100
AcDbEntity
  8
寸法
 62
     0
 48
50.0
370
    -2
100
AcDbLine
 10
5222.160902108448
 20
8942.516699398941
 30
0.0
 11
6453.16090210852
 21
8942.516699398941
 31
0.0
  0
INSERT
  5
18C59
330
18C54
100
AcDbEntity
  8
寸法
 62
     0
 48
50.0
370
    -2
100
AcDbBlockReference
  2
_DOTSMALL
 10
5222.160902108448
 20
8942.516699398941
 30
0.0
 41
100.0
 42
100.0
 43
100.0
 50
180.0
  0
INSERT
  5
18C5A
330
18C54
100
AcDbEntity
  8
寸法
 62
     0
 48
50.0
370
    -2
100
AcDbBlockReference
  2
_DOTSMALL
 10
6453.16090210852
 20
8942.516699398941
 30
0.0
 41
100.0
 42
100.0
 43
100.0
  0
MTEXT
  5
18C5B
330
18C54
100
AcDbEntity
  8
寸法
 62
     7
 48
50.0
100
AcDbMText
 10
6081.244808320626
 20
9042.528510422561
 30
0.0
 40
120.0
 41
0.0
 71
     5
 72
     1
  1
\A1;1231
  7
STYLE1
 73
     1
 44
1.0
1001
ACAD
1000
MTEXTBEGIN
1070
    73
1070
     1
1070
    44
1040
1.0
1070
    74
1070
     0
1000
MTEXTEND
  0
POINT
  5
18C5C
330
18C54
100
AcDbEntity
  8
DEFPOINTS
 62
     0
 48
50.0
100
AcDbPoint
 10
5279.396575106929
 20
9156.123139034669
 30
0.0
  0
POINT
  5
18C5D
330
18C54
100
AcDbEntity
  8
DEFPOINTS
 62
     0
 48
50.0
100
AcDbPoint
 10
6510.396575106999
 20
9156.123139034662
 30
0.0
  0
POINT
  5
18C5E
330
18C54
100
AcDbEntity
  8
DEFPOINTS
 62
     0
 48
50.0
100
AcDbPoint
 10
6453.16090210852
 20
8942.516699398941
 30
0.0
  0
ENDBLK
  5
18C5F
330
18C54
100
AcDbEntity
  8
0
 48
50.0
100
AcDbBlockEnd
  0
BLOCK
  5
18C61
330
18C60
100
AcDbEntity
  8
0
 48
50.0
100
AcDbBlockBegin
  2
*D15
 70
     1
 10
0.0
 20
0.0
 30
0.0
  3
*D15
  1

  0
LINE
  5
18C62
330
18C60
100
AcDbEntity
  8
寸法
 62
     0
 48
50.0
370
    -2
100
AcDbLine
 10
5065.896575106966
 20
7749.123139034579
 30
0.0
 11
5065.896575106966
 21
7099.952920982538
 31
0.0
  0
LINE
  5
18C63
330
18C60
100
AcDbEntity
  8
寸法
 62
     0
 48
50.0
370
    -2
100
AcDbLine
 10
6331.896575106966
 20
7749.123139034579
 30
0.0
 11
6331.896575106966
 21
7099.952920982538
 31
0.0
  0
LINE
  5
18C64
330
18C60
100
AcDbEntity
  8
寸法
 62
     0
 48
50.0
370
    -2
100
AcDbLine
 10
5065.896575106966
 20
7159.952920982537
 30
0.0
 11
6331.896575106966
 21
7159.952920982537
 31
0.0
  0
INSERT
  5
18C65
330
18C60
100
AcDbEntity
  8
寸法
 62
     0
 48
50.0
370
    -2
100
AcDbBlockReference
  2
_DOTSMALL
 10
5065.896575106966
 20
7159.952920982537
 30
0.0
 41
100.0
 42
100.0
 43
100.0
 50
180.0
  0
INSERT
  5
18C66
330
18C60
100
AcDbEntity
  8
寸法
 62
     0
 48
50.0
370
    -2
100
AcDbBlockReference
  2
_DOTSMALL
 10
6331.896575106966
 20
7159.952920982537
 30
0.0
 41
100.0
 42
100.0
 43
100.0
  0
MTEXT
  5
18C67
330
18C60
100
AcDbEntity
  8
寸法
 62
     7
 48
50.0
100
AcDbMText
 10
5711.986008735934
 20
7359.964732006159
 30
0.0
 40
120.0
 41
0.0
 71
     5
 72
     1
  1
\A1;有効開口部間口\P1266
  7
STYLE1
 73
     1
 44
1.0
1001
ACAD
1000
MTEXTBEGIN
1070
    73
1070
     1
1070
    44
1040
1.0
1070
    74
1070
     0
1000
MTEXTEND
  0
POINT
  5
18C68
330
18C60
100
AcDbEntity
  8
DEFPOINTS
 62
     0
 48
50.0
100
AcDbPoint
 10
5065.896575106966
 20
7769.123139034579
 30
0.0
  0
POINT
  5
18C69
330
18C60
100
AcDbEntity
  8
DEFPOINTS
 62
     0
 48
50.0
100
AcDbPoint
 10
6331.896575106966
 20
7769.123139034579
 30
0.0
  0
POINT
  5
18C6A
330
18C60
100
AcDbEntity
  8
DEFPOINTS
 62
     0
 48
50.0
100
AcDbPoint
 10
6331.896575106966
 20
7159.952920982537
 30
0.0
  0
ENDBLK
  5
18C6B
330
18C60
100
AcDbEntity
  8
0
 48
50.0
100
AcDbBlockEnd
  0
BLOCK
  5
18C6D
330
18C6C
100
AcDbEntity
  8
0
 48
50.0
100
AcDbBlockBegin
  2
*D16
 70
     1
 10
0.0
 20
0.0
 30
0.0
  3
*D16
  1

  0
LINE
  5
18C6E
330
18C6C
100
AcDbEntity
  8
寸法
 62
     0
 48
50.0
370
    -2
100
AcDbLine
 10
7200.896575106966
 20
7846.123139034578
 30
0.0
 11
7457.192158500191
 21
7846.123139034578
 31
0.0
  0
LINE
  5
18C6F
330
18C6C
100
AcDbEntity
  8
寸法
 62
     0
 48
50.0
370
    -2
100
AcDbLine
 10
7199.896575106966
 20
7769.123139034579
 30
0.0
 11
7457.192158500191
 21
7769.123139034579
 31
0.0
  0
LINE
  5
18C70
330
18C6C
100
AcDbEntity
  8
寸法
 62
     0
 48
50.0
370
    -2
100
AcDbLine
 10
7417.192158500192
 20
7866.123139034579
 30
0.0
 11
7417.192158500192
 21
7886.123139034578
 31
0.0
  0
LINE
  5
18C71
330
18C6C
100
AcDbEntity
  8
寸法
 62
     0
 48
50.0
370
    -2
100
AcDbLine
 10
7417.192158500192
 20
7749.123139034579
 30
0.0
 11
7417.192158500192
 21
7533.123139034573
 31
0.0
  0
LINE
  5
18C72
330
18C6C
100
AcDbEntity
  8
寸法
 62
     0
 48
50.0
370
    -2
100
AcDbLine
 10
7417.192158500192
 20
7846.123139034578
 30
0.0
 11
7417.192158500192
 21
7769.123139034579
 31
0.0
  0
INSERT
  5
18C73
330
18C6C
100
AcDbEntity
  8
寸法
 62
     0
 48
50.0
370
    -2
100
AcDbBlockReference
  2
_DOT
 10
7417.192158500192
 20
7846.123139034578
 30
0.0
 41
20.0
 42
20.0
 43
20.0
 50
270.0
  0
INSERT
  5
18C74
330
18C6C
100
AcDbEntity
  8
寸法
 62
     0
 48
50.0
370
    -2
100
AcDbBlockReference
  2
_DOT
 10
7417.192158500192
 20
7769.123139034579
 30
0.0
 41
20.0
 42
20.0
 43
20.0
 50
90.0
  0
MTEXT
  5
18C75
330
18C6C
100
AcDbEntity
  8
寸法
 62
     7
 48
50.0
100
AcDbMText
 10
7325.192158500191
 20
7631.123139034575
 30
0.0
 40
120.0
 41
0.0
 71
     5
 72
     1
  1
\A1;77
  7
STYLE1
 11
0.0000000000000001
 21
1.0
 31
0.0
 73
     1
 44
1.0
1001
ACAD
1000
MTEXTBEGIN
1070
    73
1070
     1
1070
    44
1040
1.0
1070
    74
1070
     0
1000
MTEXTEND
  0
POINT
  5
18C76
330
18C6C
100
AcDbEntity
  8
DEFPOINTS
 62
     0
 48
50.0
100
AcDbPoint
 10
7180.896575106967
 20
7846.123139034578
 30
0.0
  0
POINT
  5
18C77
330
18C6C
100
AcDbEntity
  8
DEFPOINTS
 62
     0
 48
50.0
100
AcDbPoint
 10
7179.896575106965
 20
7769.123139034579
 30
0.0
  0
POINT
  5
18C78
330
18C6C
100
AcDbEntity
  8
DEFPOINTS
 62
     0
 48
50.0
100
AcDbPoint
 10
7417.192158500192
 20
7769.123139034579
 30
0.0
  0
ENDBLK
  5
18C79
330
18C6C
100
AcDbEntity
  8
0
 48
50.0
100
AcDbBlockEnd
  0
BLOCK
  5
18DA0
330
18C7A
100
AcDbEntity
  8
0
 48
50.0
100
AcDbBlockBegin
  2
A$C3B1A506B
 70
     0
 10
0.0
 20
0.0
 30
0.0
  3
A$C3B1A506B
  1

  0
MTEXT
  5
18C7B
330
18C7A
100
AcDbEntity
  8
寸法
 62
     7
 48
50.0
100
AcDbMText
 10
3342.250386887194
 20
2778.329429134012
 30
0.0
 40
96.0
 41
0.0
 71
     5
 72
     1
  1
棚 2段
  7
STYLE1
 73
     1
 44
1.0
1001
ACAD
1000
MTEXTBEGIN
1070
    73
1070
     1
1070
    44
1040
1.0
1070
    74
1070
     0
1000
MTEXTEND
  0
MTEXT
  5
18C7C
330
18C7A
100
AcDbEntity
  8
寸法
 62
     7
 48
50.0
100
AcDbMText
 10
2167.25038688716
 20
2778.329429133986
 30
0.0
 40
96.0
 41
0.0
 71
     5
 72
     1
  1
棚 2段
  7
STYLE1
 73
     1
 44
1.0
1001
ACAD
1000
MTEXTBEGIN
1070
    73
1070
     1
1070
    44
1040
1.0
1070
    74
1070
     0
1000
MTEXTEND
  0
MTEXT
  5
18C7D
330
18C7A
100
AcDbEntity
  8
寸法
 62
     7
 48
50.0
100
AcDbMText
 10
992.2503868871608
 20
2778.329429133935
 30
0.0
 40
96.0
 41
0.0
 71
     5
 72
     1
  1
棚 2段
  7
STYLE1
 73
     1
 44
1.0
1001
ACAD
1000
MTEXTBEGIN
1070
    73
1070
     1
1070
    44
1040
1.0
1070
    74
1070
     0
1000
MTEXTEND
  0
LINE
  5
18C7E
330
18C7A
100
AcDbEntity
  8
細線
 48
50.0
100
AcDbLine
 10
2771.970589276527
 20
1368.994384123192
 30
0.0
 11
3398.970589276523
 21
1368.994384123192
 31
0.0
  0
LINE
  5
18C7F
330
18C7A
100
AcDbEntity
  8
細線
 48
50.0
100
AcDbLine
 10
2117.970593930113
 20
1335.285615569113
 30
0.0
 11
3398.970589276523
 21
1335.285615569113
 31
0.0
  0
LINE
  5
18C80
330
18C7A
100
AcDbEntity
  8
細線
 48
50.0
100
AcDbLine
 10
2076.970593930115
 20
1364.690523565368
 30
0.0
 11
1322.970589276523
 21
1364.690523565367
 31
0.0
  0
LINE
  5
18C81
330
18C7A
100
AcDbEntity
  8
細線
100
AcDbLine
 10
3170.720579860066
 20
1388.494284088199
 30
0.0
 11
3173.052119381877
 21
1393.494286728162
 31
0.0
  0
LINE
  5
18C82
330
18C7A
100
AcDbEntity
  8
細線
100
AcDbLine
 10
3240.720589276525
 20
1388.494269174465
 30
0.0
 11
3238.389042800336
 21
1393.494286728144
 31
0.0
  0
LINE
  5
18C83
330
18C7A
100
AcDbEntity
  8
細線
100
AcDbLine
 10
3238.389042800336
 20
1393.494286728144
 30
0.0
 11
3173.052119381862
 21
1393.494286728133
 31
0.0
  0
LINE
  5
18C84
330
18C7A
100
AcDbEntity
  8
細線
100
AcDbLine
 10
3098.389042800336
 20
1393.494286728144
 30
0.0
 11
3033.052119381862
 21
1393.494286728133
 31
0.0
  0
LINE
  5
18C85
330
18C7A
100
AcDbEntity
  8
細線
100
AcDbLine
 10
3100.720589276523
 20
1388.494269174465
 30
0.0
 11
3098.389042800336
 21
1393.494286728144
 31
0.0
  0
LINE
  5
18C86
330
18C7A
100
AcDbEntity
  8
細線
100
AcDbLine
 10
3030.720579860066
 20
1388.494284088199
 30
0.0
 11
3033.052119381875
 21
1393.494286728162
 31
0.0
  0
LINE
  5
18C87
330
18C7A
100
AcDbEntity
  8
細線
100
AcDbLine
 10
2890.720589276525
 20
1388.494269174465
 30
0.0
 11
2893.052128798336
 21
1393.494271814428
 31
0.0
  0
LINE
  5
18C88
330
18C7A
100
AcDbEntity
  8
細線
100
AcDbLine
 10
2960.720598692984
 20
1388.494254260731
 30
0.0
 11
2958.389052216793
 21
1393.49427181441
 31
0.0
  0
LINE
  5
18C89
330
18C7A
100
AcDbEntity
  8
細線
100
AcDbLine
 10
2958.389052216795
 20
1393.49427181441
 30
0.0
 11
2893.052128798321
 21
1393.494271814399
 31
0.0
  0
LINE
  5
18C8A
330
18C7A
100
AcDbEntity
  8
細線
100
AcDbLine
 10
2667.139038146739
 20
1359.494298590735
 30
0.0
 11
2601.802114728263
 21
1359.494298590724
 31
0.0
  0
LINE
  5
18C8B
330
18C7A
100
AcDbEntity
  8
細線
100
AcDbLine
 10
2669.470584622926
 20
1354.494281037055
 30
0.0
 11
2667.139038146737
 21
1359.494298590735
 31
0.0
  0
LINE
  5
18C8C
330
18C7A
100
AcDbEntity
  8
細線
100
AcDbLine
 10
2599.470575206469
 20
1354.49429595079
 30
0.0
 11
2601.802114728278
 21
1359.494298590752
 31
0.0
  0
LINE
  5
18C8D
330
18C7A
100
AcDbEntity
  8
細線
 48
50.0
100
AcDbLine
 10
2440.853968524536
 20
1372.765132327548
 30
0.0
 11
2446.609486107205
 21
1354.494281037057
 31
0.0
  0
LINE
  5
18C8E
330
18C7A
100
AcDbEntity
  8
細線
 48
50.0
100
AcDbLine
 10
2429.925520044106
 20
1372.765132327546
 30
0.0
 11
2440.853968524536
 21
1372.765132327548
 31
0.0
  0
ARC
  5
18C8F
330
18C7A
100
AcDbEntity
  8
細線
 48
50.0
100
AcDbCircle
 10
2424.471163986787
 20
1374.265132327546
 30
0.0
 40
5.0
100
AcDbArc
 50
204.6243183520723
 51
335.3756816479278
  0
ARC
  5
18C90
330
18C7A
100
AcDbEntity
  8
細線
 48
50.0
100
AcDbCircle
 10
2429.925520044106
 20
1371.765132327546
 30
0.0
 40
1.0
100
AcDbArc
 50
90.0
 51
155.3756816479277
  0
ARC
  5
18C91
330
18C7A
100
AcDbEntity
  8
細線
 48
50.0
100
AcDbCircle
 10
2419.016807929469
 20
1371.765132327546
 30
0.0
 40
1.0
100
AcDbArc
 50
24.62431835207225
 51
90.0
  0
LINE
  5
18C92
330
18C7A
100
AcDbEntity
  8
細線
 48
50.0
100
AcDbLine
 10
2408.088359449037
 20
1372.765132327548
 30
0.0
 11
2419.016807929469
 21
1372.765132327546
 31
0.0
  0
LINE
  5
18C93
330
18C7A
100
AcDbEntity
  8
細線
 48
50.0
100
AcDbLine
 10
2402.33284186637
 20
1354.494281037054
 30
0.0
 11
2408.088359449037
 21
1372.765132327548
 31
0.0
  0
LINE
  5
18C94
330
18C7A
100
AcDbEntity
  8
細線
100
AcDbLine
 10
2458.070304175992
 20
1354.494278397076
 30
0.0
 11
2460.401843697802
 21
1359.494281037039
 31
0.0
  0
LINE
  5
18C95
330
18C7A
100
AcDbEntity
  8
細線
100
AcDbLine
 10
2528.070313592451
 20
1354.494263483342
 30
0.0
 11
2525.738767116262
 21
1359.494281037021
 31
0.0
  0
LINE
  5
18C96
330
18C7A
100
AcDbEntity
  8
細線
100
AcDbLine
 10
2525.738767116262
 20
1359.494281037021
 30
0.0
 11
2460.40184369779
 21
1359.49428103701
 31
0.0
  0
LINE
  5
18C97
330
18C7A
100
AcDbEntity
  8
細線
100
AcDbLine
 10
2387.139046332155
 20
1359.494281037021
 30
0.0
 11
2321.80212291368
 21
1359.49428103701
 31
0.0
  0
LINE
  5
18C98
330
18C7A
100
AcDbEntity
  8
細線
100
AcDbLine
 10
2389.470592808342
 20
1354.494263483342
 30
0.0
 11
2387.139046332153
 21
1359.494281037021
 31
0.0
  0
LINE
  5
18C99
330
18C7A
100
AcDbEntity
  8
細線
100
AcDbLine
 10
2319.470584622926
 20
1354.494281037054
 30
0.0
 11
2321.802122913694
 21
1359.494281037039
 31
0.0
  0
LINE
  5
18C9A
330
18C7A
100
AcDbEntity
  8
細線
100
AcDbLine
 10
2179.47061994182
 20
1354.494289224422
 30
0.0
 11
2181.802158232587
 21
1359.494289224407
 31
0.0
  0
LINE
  5
18C9B
330
18C7A
100
AcDbEntity
  8
細線
100
AcDbLine
 10
2249.470628127236
 20
1354.49427167071
 30
0.0
 11
2247.139081651047
 21
1359.494289224389
 31
0.0
  0
LINE
  5
18C9C
330
18C7A
100
AcDbEntity
  8
細線
100
AcDbLine
 10
2247.139081651047
 20
1359.494289224389
 30
0.0
 11
2181.802158232573
 21
1359.494289224378
 31
0.0
  0
LINE
  5
18C9D
330
18C7A
100
AcDbEntity
  8
細線
100
AcDbLine
 10
1807.970585744697
 20
1320.494460905133
 30
0.0
 11
1810.302124035464
 21
1325.494460905118
 31
0.0
  0
LINE
  5
18C9E
330
18C7A
100
AcDbEntity
  8
細線
100
AcDbLine
 10
1877.970593930113
 20
1320.494443351421
 30
0.0
 11
1875.639047453926
 21
1325.4944609051
 31
0.0
  0
LINE
  5
18C9F
330
18C7A
100
AcDbEntity
  8
細線
100
AcDbLine
 10
1875.639047453926
 20
1325.4944609051
 30
0.0
 11
1810.302124035452
 21
1325.494460905089
 31
0.0
  0
LINE
  5
18CA0
330
18C7A
100
AcDbEntity
  8
細線
100
AcDbLine
 10
2015.639047453926
 20
1325.4944609051
 30
0.0
 11
1950.302124035452
 21
1325.494460905089
 31
0.0
  0
LINE
  5
18CA1
330
18C7A
100
AcDbEntity
  8
細線
100
AcDbLine
 10
2017.970593930113
 20
1320.494443351421
 30
0.0
 11
2015.639047453924
 21
1325.4944609051
 31
0.0
  0
LINE
  5
18CA2
330
18C7A
100
AcDbEntity
  8
細線
100
AcDbLine
 10
1947.970585744697
 20
1320.494460905133
 30
0.0
 11
1950.302124035465
 21
1325.494460905118
 31
0.0
  0
LINE
  5
18CA3
330
18C7A
100
AcDbEntity
  8
細線
100
AcDbLine
 10
1735.639047453926
 20
1325.494460905098
 30
0.0
 11
1670.302124035454
 21
1325.494460905087
 31
0.0
  0
LINE
  5
18CA4
330
18C7A
100
AcDbEntity
  8
細線
100
AcDbLine
 10
1737.970593930113
 20
1320.494443351419
 30
0.0
 11
1735.639047453926
 21
1325.494460905098
 31
0.0
  0
LINE
  5
18CA5
330
18C7A
100
AcDbEntity
  8
細線
100
AcDbLine
 10
1667.970585744697
 20
1320.494460905131
 30
0.0
 11
1670.302124035465
 21
1325.494460905116
 31
0.0
  0
LINE
  5
18CA6
330
18C7A
100
AcDbEntity
  8
細線
100
AcDbLine
 10
1527.970593930113
 20
1320.494460905133
 30
0.0
 11
1530.302132220881
 21
1325.494460905118
 31
0.0
  0
LINE
  5
18CA7
330
18C7A
100
AcDbEntity
  8
細線
100
AcDbLine
 10
1597.970602115529
 20
1320.494443351421
 30
0.0
 11
1595.639055639342
 21
1325.4944609051
 31
0.0
  0
LINE
  5
18CA8
330
18C7A
100
AcDbEntity
  8
細線
100
AcDbLine
 10
1595.639055639342
 20
1325.4944609051
 30
0.0
 11
1530.302132220869
 21
1325.494460905089
 31
0.0
  0
ARC
  5
18CA9
330
18C7A
100
AcDbEntity
  8
部品1
 48
0.01
100
AcDbCircle
 10
1483.470482677778
 20
1319.493338720063
 30
0.0
 40
0.5
100
AcDbArc
 50
270.0
 51
0.0
  0
LINE
  5
18CAA
330
18C7A
100
AcDbEntity
  8
部品1
 48
0.01
100
AcDbLine
 10
1483.970482677778
 20
1320.493338720063
 30
0.0
 11
1483.970482677778
 21
1319.493338720063
 31
0.0
  0
LINE
  5
18CAB
330
18C7A
100
AcDbEntity
  8
部品1
 48
0.01
100
AcDbLine
 10
1483.970482677778
 20
1320.493338720063
 30
0.0
 11
1483.970482677778
 21
1319.493338720063
 31
0.0
  0
LINE
  5
18CAC
330
18C7A
100
AcDbEntity
  8
部品1
 48
0.01
100
AcDbLine
 10
1483.470482677778
 20
1318.993338720063
 30
0.0
 11
1476.857977247713
 21
1318.993338720062
 31
0.0
  0
ARC
  5
18CAD
330
18C7A
100
AcDbEntity
  8
部品1
100
AcDbCircle
 10
1476.926326800494
 20
1319.993338720062
 30
0.0
 40
1.0
100
AcDbArc
 50
160.5287793655865
 51
270.0
  0
ARC
  5
18CAE
330
18C7A
100
AcDbEntity
  8
部品1
100
AcDbCircle
 10
1451.470482677778
 20
1328.993338720062
 30
0.0
 40
26.0
100
AcDbArc
 50
340.5287793655865
 51
0.0
  0
LINE
  5
18CAF
330
18C7A
100
AcDbEntity
  8
部品1
100
AcDbLine
 10
1477.470482677778
 20
1328.993338720062
 30
0.0
 11
1477.470482677778
 21
1333.993338720061
 31
0.0
  0
ARC
  5
18CB0
330
18C7A
100
AcDbEntity
  8
部品1
 48
0.01
100
AcDbCircle
 10
1475.470482677778
 20
1333.993338720061
 30
0.0
 40
2.0
100
AcDbArc
 50
0.0
 51
90.0
  0
ARC
  5
18CB1
330
18C7A
100
AcDbEntity
  8
部品1
100
AcDbCircle
 10
1473.862091052968
 20
1332.993338720062
 30
0.0
 40
3.0
100
AcDbArc
 50
90.0
 51
141.6069559808035
  0
LINE
  5
18CB2
330
18C7A
100
AcDbEntity
  8
部品1
 48
0.01
100
AcDbLine
 10
1475.470482677778
 20
1335.993338720062
 30
0.0
 11
1473.862091052968
 21
1335.993338720062
 31
0.0
  0
ARC
  5
18CB3
330
18C7A
100
AcDbEntity
  8
部品1
100
AcDbCircle
 10
1455.399768463507
 20
1332.293338720065
 30
0.0
 40
3.0
100
AcDbArc
 50
254.0576313943215
 51
270.0
  0
ARC
  5
18CB4
330
18C7A
100
AcDbEntity
  8
部品1
100
AcDbCircle
 10
1462.541196892049
 20
1332.293338720065
 30
0.0
 40
3.0
100
AcDbArc
 50
270.0
 51
285.9423686056786
  0
LINE
  5
18CB5
330
18C7A
100
AcDbEntity
  8
部品1
100
AcDbLine
 10
1462.541196892049
 20
1329.293338720064
 30
0.0
 11
1455.399768463507
 21
1329.293338720064
 31
0.0
  0
ARC
  5
18CB6
330
18C7A
100
AcDbEntity
  8
部品1
100
AcDbCircle
 10
1458.970482677778
 20
1344.793338720065
 30
0.0
 40
16.0
100
AcDbArc
 50
285.9423686056786
 51
321.6069559808035
  0
LINE
  5
18CB7
330
18C7A
100
AcDbEntity
  8
部品1
 48
0.01
100
AcDbLine
 10
1442.470482677778
 20
1335.993338720062
 30
0.0
 11
1444.078874302588
 21
1335.993338720062
 31
0.0
  0
ARC
  5
18CB8
330
18C7A
100
AcDbEntity
  8
部品1
100
AcDbCircle
 10
1444.078874302588
 20
1332.993338720062
 30
0.0
 40
3.0
100
AcDbArc
 50
38.39304401919648
 51
90.0
  0
ARC
  5
18CB9
330
18C7A
100
AcDbEntity
  8
部品1
100
AcDbCircle
 10
1458.970482677778
 20
1344.793338720065
 30
0.0
 40
16.0
100
AcDbArc
 50
218.3930440191965
 51
254.0576313943215
  0
LINE
  5
18CBA
330
18C7A
100
AcDbEntity
  8
部品1
100
AcDbLine
 10
1440.470482677778
 20
1328.993338720062
 30
0.0
 11
1440.470482677778
 21
1333.993338720061
 31
0.0
  0
ARC
  5
18CBB
330
18C7A
100
AcDbEntity
  8
部品1
 48
0.01
100
AcDbCircle
 10
1442.470482677778
 20
1333.993338720061
 30
0.0
 40
2.0
100
AcDbArc
 50
90.0
 51
180.0
  0
ARC
  5
18CBC
330
18C7A
100
AcDbEntity
  8
部品1
100
AcDbCircle
 10
1466.470482677778
 20
1328.993338720062
 30
0.0
 40
26.0
100
AcDbArc
 50
180.0
 51
199.4712206344134
  0
ARC
  5
18CBD
330
18C7A
100
AcDbEntity
  8
部品1
 48
0.01
100
AcDbCircle
 10
1434.470482677778
 20
1319.493338720063
 30
0.0
 40
0.5
100
AcDbArc
 50
180.0
 51
270.0
  0
LINE
  5
18CBE
330
18C7A
100
AcDbEntity
  8
部品1
 48
0.01
100
AcDbLine
 10
1434.470482677778
 20
1318.993338720063
 30
0.0
 11
1441.014638555061
 21
1318.993338720062
 31
0.0
  0
LINE
  5
18CBF
330
18C7A
100
AcDbEntity
  8
部品1
 48
0.01
100
AcDbLine
 10
1433.970482677778
 20
1320.493338720063
 30
0.0
 11
1433.970482677778
 21
1319.493338720063
 31
0.0
  0
ARC
  5
18CC0
330
18C7A
100
AcDbEntity
  8
部品1
100
AcDbCircle
 10
1441.014638555061
 20
1319.993338720062
 30
0.0
 40
1.0
100
AcDbArc
 50
270.0
 51
19.47122063441346
  0
LINE
  5
18CC1
330
18C7A
100
AcDbEntity
  8
細線
100
AcDbLine
 10
1479.470482677785
 20
1338.493338720065
 30
0.0
 11
1438.470482677785
 21
1338.493338720058
 31
0.0
  0
LINE
  5
18CC2
330
18C7A
100
AcDbEntity
  8
細線
100
AcDbLine
 10
1438.470482677785
 20
1338.493338720058
 30
0.0
 11
1438.470482677785
 21
1320.49333872004
 31
0.0
  0
LINE
  5
18CC3
330
18C7A
100
AcDbEntity
  8
細線
100
AcDbLine
 10
1479.470482677785
 20
1338.493338720065
 30
0.0
 11
1479.470482677785
 21
1320.49333872004
 31
0.0
  0
LINE
  5
18CC4
330
18C7A
100
AcDbEntity
  8
細線
100
AcDbLine
 10
1322.970589276523
 20
1324.494269174465
 30
0.0
 11
1322.970589276523
 21
1320.494269174513
 31
0.0
  0
LINE
  5
18CC5
330
18C7A
100
AcDbEntity
  8
寸法
 48
50.0
100
AcDbLine
 10
1746.17359555837
 20
1170.531020743327
 30
0.0
 11
1694.767587648266
 21
1170.531020743327
 31
0.0
  0
LINE
  5
18CC6
330
18C7A
100
AcDbEntity
  8
寸法
 48
50.0
100
AcDbLine
 10
1694.767587648266
 20
1170.531020743327
 30
0.0
 11
1694.767587648266
 21
1201.841179395494
 31
0.0
  0
LINE
  5
18CC7
330
18C7A
100
AcDbEntity
  8
寸法
 48
50.0
100
AcDbLine
 10
1694.767587648266
 20
1201.841179395494
 30
0.0
 11
1665.006255656843
 21
1201.841179395494
 31
0.0
  0
LINE
  5
18CC8
330
18C7A
100
AcDbEntity
  8
寸法
 48
50.0
100
AcDbLine
 10
1665.006255656843
 20
1201.841179395494
 30
0.0
 11
1720.470591603318
 21
1239.420630324105
 31
0.0
  0
LINE
  5
18CC9
330
18C7A
100
AcDbEntity
  8
寸法
 48
50.0
100
AcDbLine
 10
1775.934927549793
 20
1201.841179395494
 30
0.0
 11
1720.470591603318
 21
1239.420630324105
 31
0.0
  0
LINE
  5
18CCA
330
18C7A
100
AcDbEntity
  8
寸法
 48
50.0
100
AcDbLine
 10
1746.17359555837
 20
1201.841179395494
 30
0.0
 11
1775.934927549793
 21
1201.841179395494
 31
0.0
  0
LINE
  5
18CCB
330
18C7A
100
AcDbEntity
  8
寸法
 48
50.0
100
AcDbLine
 10
1746.17359555837
 20
1170.531020743327
 30
0.0
 11
1746.17359555837
 21
1201.841179395494
 31
0.0
  0
LINE
  5
18CCC
330
18C7A
100
AcDbEntity
  8
寸法
 48
50.0
100
AcDbLine
 10
1694.767587648266
 20
1170.531020743327
 30
0.0
 11
1746.17359555837
 21
1170.531020743327
 31
0.0
  0
LINE
  5
18CCD
330
18C7A
100
AcDbEntity
  8
寸法
 48
50.0
100
AcDbLine
 10
2025.339129835225
 20
1227.676611498152
 30
0.0
 11
2025.339129835225
 21
1174.01297691636
 31
0.0
  0
LINE
  5
18CCE
330
18C7A
100
AcDbEntity
  8
寸法
 48
50.0
100
AcDbLine
 10
2114.623348430647
 20
1203.752977228664
 30
0.0
 11
2025.339129835225
 21
1227.676611498152
 31
0.0
  0
LINE
  5
18CCF
330
18C7A
100
AcDbEntity
  8
寸法
 48
50.0
100
AcDbLine
 10
1895.471408254923
 20
1203.752977228664
 30
0.0
 11
2114.623348430647
 21
1203.752977228664
 31
0.0
  0
DIMENSION
  5
18CD0
330
18C7A
100
AcDbEntity
  8
寸法
 48
50.0
100
AcDbDimension
  2
*D15
 10
2588.970589276523
 20
706.3240511224249
 30
0.0
 11
1969.060022905491
 21
706.3240511224249
 31
0.0
 12
-3742.925985830444
 22
-6453.628869860112
 32
0.0
 70
   128
  1
有効開口部間口\P<>
 71
     5
 42
1266.0
  3
INABA_S40G
100
AcDbAlignedDimension
 13
1322.970589276523
 23
1315.494269174465
 33
0.0
 14
2588.970589276523
 24
1315.494269174465
 34
0.0
100
AcDbRotatedDimension
1001
ACAD
1000
DSTYLE
1002
{
1070
   341
1005
0
1002
}
  0
LINE
  5
18CD1
330
18C7A
100
AcDbEntity
  8
部品1
100
AcDbLine
 10
3409.970589276524
 20
1392.494269174465
 30
0.0
 11
3437.970589276523
 21
1392.494269174465
 31
0.0
  0
DIMENSION
  5
18CD2
330
18C7A
100
AcDbEntity
  8
寸法
100
AcDbDimension
  2
*D16
 10
3674.266172669749
 20
1315.494269174465
 30
0.0
 11
3674.266172669748
 21
1177.494269174462
 31
0.0
 12
-3742.925985830444
 22
-6453.628869860112
 32
0.0
 70
   128
 71
     5
 42
77.0
  3
INABA_S40
100
AcDbAlignedDimension
 13
3437.970589276523
 23
1392.494269174465
 33
0.0
 14
3436.970589276523
 24
1315.494269174465
 34
0.0
 50
90.0
100
AcDbRotatedDimension
1001
ACAD
1000
DSTYLE
1002
{
1070
    41
1040
0.5
1070
    44
1040
1.0
1070
   147
1040
0.8
1070
   271
1070
     2
1070
   272
1070
     2
1070
   289
1070
     3
1070
   340
1005
F706
1070
   343
1005
164B4
1070
   344
1005
164B4
1002
}
  0
LINE
  5
18CD3
330
18C7A
100
AcDbEntity
  8
部品1
100
AcDbLine
 10
3437.970589276523
 20
1315.494269174465
 30
0.0
 11
3437.970589276523
 21
1392.494269174465
 31
0.0
  0
LINE
  5
18CD4
330
18C7A
100
AcDbEntity
  8
部品1
100
AcDbLine
 10
3398.970589276523
 20
1388.494269174465
 30
0.0
 11
3409.970589276524
 21
1388.494269174465
 31
0.0
  0
LINE
  5
18CD5
330
18C7A
100
AcDbEntity
  8
部品1
100
AcDbLine
 10
3407.970589276523
 20
1324.494269174465
 30
0.0
 11
3407.970589276523
 21
1315.494269174465
 31
0.0
  0
LINE
  5
18CD6
330
18C7A
100
AcDbEntity
  8
部品1
100
AcDbLine
 10
3398.970589276523
 20
1324.494269174465
 30
0.0
 11
3407.970589276523
 21
1324.494269174465
 31
0.0
  0
LINE
  5
18CD7
330
18C7A
100
AcDbEntity
  8
部品1
100
AcDbLine
 10
3398.970589276523
 20
1388.494269174465
 30
0.0
 11
3398.970589276523
 21
1324.494269174465
 31
0.0
  0
LINE
  5
18CD8
330
18C7A
100
AcDbEntity
  8
部品1
100
AcDbLine
 10
3409.970589276524
 20
1419.494269174465
 30
0.0
 11
3409.970589276524
 21
1388.494269174465
 31
0.0
  0
LINE
  5
18CD9
330
18C7A
100
AcDbEntity
  8
部品1
100
AcDbLine
 10
1322.970589276523
 20
1388.494269174465
 30
0.0
 11
1311.970589276523
 21
1388.494269174465
 31
0.0
  0
LINE
  5
18CDA
330
18C7A
100
AcDbEntity
  8
部品1
100
AcDbLine
 10
1283.970589276523
 20
1392.494269174465
 30
0.0
 11
1311.970589276523
 21
1392.494269174465
 31
0.0
  0
LINE
  5
18CDB
330
18C7A
100
AcDbEntity
  8
部品1
100
AcDbLine
 10
1313.970589276523
 20
1324.494269174465
 30
0.0
 11
1313.970589276523
 21
1315.494269174465
 31
0.0
  0
LINE
  5
18CDC
330
18C7A
100
AcDbEntity
  8
部品1
100
AcDbLine
 10
1322.970589276523
 20
1324.494269174465
 30
0.0
 11
1313.970589276523
 21
1324.494269174465
 31
0.0
  0
LINE
  5
18CDD
330
18C7A
100
AcDbEntity
  8
部品1
100
AcDbLine
 10
1313.970589276523
 20
1315.494269174465
 30
0.0
 11
1283.970589276523
 21
1315.494269174465
 31
0.0
  0
LINE
  5
18CDE
330
18C7A
100
AcDbEntity
  8
部品1
100
AcDbLine
 10
1283.970589276523
 20
1315.494269174465
 30
0.0
 11
1283.970589276523
 21
1392.494269174465
 31
0.0
  0
LINE
  5
18CDF
330
18C7A
100
AcDbEntity
  8
部品1
100
AcDbLine
 10
1322.970589276523
 20
1388.494269174465
 30
0.0
 11
1322.970589276523
 21
1324.494269174465
 31
0.0
  0
LINE
  5
18CE0
330
18C7A
100
AcDbEntity
  8
部品1
100
AcDbLine
 10
1311.970589276523
 20
1419.494269174462
 30
0.0
 11
1311.970589276523
 21
1388.494269174465
 31
0.0
  0
LINE
  5
18CE1
330
18C7A
100
AcDbEntity
  8
部品1
100
AcDbLine
 10
1311.970589276523
 20
1419.494269174462
 30
0.0
 11
3409.970589276524
 21
1419.494269174465
 31
0.0
  0
LINE
  5
18CE2
330
18C7A
100
AcDbEntity
  8
部品1
100
AcDbLine
 10
3407.970589276523
 20
1315.494269174465
 30
0.0
 11
3437.970589276523
 21
1315.494269174465
 31
0.0
  0
LINE
  5
18CE3
330
18C7A
100
AcDbEntity
  8
部品1
100
AcDbLine
 10
1313.970589276523
 20
1315.494269174465
 30
0.0
 11
3410.970589276523
 21
1315.494269174465
 31
0.0
  0
LINE
  5
18CE4
330
18C7A
100
AcDbEntity
  8
細線
  6
Continuous
 62
     5
100
AcDbLine
 10
2689.970589276527
 20
1354.494269174462
 30
0.0
 11
2689.970589276527
 21
1354.494269174462
 31
0.0
  0
LINE
  5
18CE5
330
18C7A
100
AcDbEntity
  8
細線
  6
Continuous
 62
     5
100
AcDbLine
 10
2682.470589276527
 20
1354.494269174462
 30
0.0
 11
2682.470589276527
 21
1354.494269174462
 31
0.0
  0
LINE
  5
18CE6
330
18C7A
100
AcDbEntity
  8
細線
  6
Continuous
 62
     5
100
AcDbLine
 10
2676.470589276527
 20
1354.494269174462
 30
0.0
 11
2676.470589276527
 21
1354.494269174462
 31
0.0
  0
LINE
  5
18CE7
330
18C7A
100
AcDbEntity
  8
細線
  6
Continuous
 62
     5
100
AcDbLine
 10
2743.970589276527
 20
1373.494269174462
 30
0.0
 11
2743.970589276527
 21
1373.494269174462
 31
0.0
  0
LINE
  5
18CE8
330
18C7A
100
AcDbEntity
  8
細線
 48
50.0
100
AcDbLine
 10
1336.970593930116
 20
1341.094443351418
 30
0.0
 11
1336.970593930113
 21
1349.490593759059
 31
0.0
  0
LINE
  5
18CE9
330
18C7A
100
AcDbEntity
  8
細線
 48
50.0
100
AcDbLine
 10
1336.970593930113
 20
1349.490593759059
 30
0.0
 11
1322.970589276523
 21
1349.490593759057
 31
0.0
  0
LINE
  5
18CEA
330
18C7A
100
AcDbEntity
  8
細線
 48
50.0
100
AcDbLine
 10
2087.970593930113
 20
1337.644443351419
 30
0.0
 11
2087.970593930113
 21
1342.494443351421
 31
0.0
  0
LINE
  5
18CEB
330
18C7A
100
AcDbEntity
  8
細線
 48
50.0
100
AcDbLine
 10
2087.970593930113
 20
1342.494443351421
 30
0.0
 11
2102.970593930113
 21
1342.494443351421
 31
0.0
  0
LINE
  5
18CEC
330
18C7A
100
AcDbEntity
  8
細線
 48
50.0
100
AcDbLine
 10
2102.970593930113
 20
1342.494443351421
 30
0.0
 11
2102.970593930115
 21
1349.494443351419
 31
0.0
  0
LINE
  5
18CED
330
18C7A
100
AcDbEntity
  8
細線
 48
50.0
100
AcDbLine
 10
2102.970593930115
 20
1349.494443351419
 30
0.0
 11
2117.970593930113
 21
1349.494443351419
 31
0.0
  0
LINE
  5
18CEE
330
18C7A
100
AcDbEntity
  8
細線
 48
50.0
100
AcDbLine
 10
2117.970593930113
 20
1349.494443351419
 30
0.0
 11
2117.970593930113
 21
1320.494443351421
 31
0.0
  0
LINE
  5
18CEF
330
18C7A
100
AcDbEntity
  8
細線
 48
50.0
100
AcDbLine
 10
1313.970589276523
 20
1320.491777694889
 30
0.0
 11
1527.970593930113
 21
1320.494460905133
 31
0.0
  0
LINE
  5
18CF0
330
18C7A
100
AcDbEntity
  8
細線
 48
50.0
100
AcDbLine
 10
2017.970593930113
 20
1320.494443351421
 30
0.0
 11
2117.970593930113
 21
1320.494443351421
 31
0.0
  0
LINE
  5
18CF1
330
18C7A
100
AcDbEntity
  8
細線
 48
50.0
100
AcDbLine
 10
1737.970593930113
 20
1320.494443351419
 30
0.0
 11
1807.970593930113
 21
1320.494443351423
 31
0.0
  0
LINE
  5
18CF2
330
18C7A
100
AcDbEntity
  8
細線
 48
50.0
100
AcDbLine
 10
1750.832558942642
 20
1320.494443351419
 30
0.0
 11
1756.588076525309
 21
1338.765294641913
 31
0.0
  0
LINE
  5
18CF3
330
18C7A
100
AcDbEntity
  8
細線
 48
50.0
100
AcDbLine
 10
1756.588076525309
 20
1338.765294641913
 30
0.0
 11
1767.516525005743
 21
1338.765294641911
 31
0.0
  0
ARC
  5
18CF4
330
18C7A
100
AcDbEntity
  8
細線
 48
50.0
100
AcDbCircle
 10
1767.516525005743
 20
1337.765294641911
 30
0.0
 40
1.0
100
AcDbArc
 50
24.62431835207225
 51
90.0
  0
ARC
  5
18CF5
330
18C7A
100
AcDbEntity
  8
細線
 48
50.0
100
AcDbCircle
 10
1778.425237120377
 20
1337.765294641911
 30
0.0
 40
1.0
100
AcDbArc
 50
90.0
 51
155.3756816479277
  0
ARC
  5
18CF6
330
18C7A
100
AcDbEntity
  8
細線
 48
50.0
100
AcDbCircle
 10
1772.970881063058
 20
1340.265294641911
 30
0.0
 40
5.0
100
AcDbArc
 50
204.6243183520723
 51
335.3756816479278
  0
LINE
  5
18CF7
330
18C7A
100
AcDbEntity
  8
細線
 48
50.0
100
AcDbLine
 10
1778.425237120377
 20
1338.765294641911
 30
0.0
 11
1789.35368560081
 21
1338.765294641913
 31
0.0
  0
LINE
  5
18CF8
330
18C7A
100
AcDbEntity
  8
細線
 48
50.0
100
AcDbLine
 10
1789.35368560081
 20
1338.765294641913
 30
0.0
 11
1795.109203183478
 21
1320.494443351423
 31
0.0
  0
LINE
  5
18CF9
330
18C7A
100
AcDbEntity
  8
細線
 48
50.0
100
AcDbLine
 10
2087.970593930113
 20
1341.094443351419
 30
0.0
 11
1336.970593930116
 21
1341.094443351418
 31
0.0
  0
LINE
  5
18CFA
330
18C7A
100
AcDbEntity
  8
細線
 48
50.0
100
AcDbLine
 10
1947.970593930113
 20
1320.494443351421
 30
0.0
 11
1877.970593930113
 21
1320.494443351421
 31
0.0
  0
LINE
  5
18CFB
330
18C7A
100
AcDbEntity
  8
細線
100
AcDbLine
 10
1667.970593930113
 20
1320.494443351421
 30
0.0
 11
1597.970602115529
 21
1320.494443351421
 31
0.0
  0
LINE
  5
18CFC
330
18C7A
100
AcDbEntity
  8
細線
 48
50.0
100
AcDbLine
 10
2741.970584622936
 20
1375.094487209288
 30
0.0
 11
2106.970593930113
 21
1375.094487209284
 31
0.0
  0
LINE
  5
18CFD
330
18C7A
100
AcDbEntity
  8
細線
 48
50.0
100
AcDbLine
 10
2106.970593930113
 20
1371.990637616925
 30
0.0
 11
2106.970593930113
 21
1376.490637616925
 31
0.0
  0
LINE
  5
18CFE
330
18C7A
100
AcDbEntity
  8
細線
 48
50.0
100
AcDbLine
 10
2106.970593930113
 20
1376.490637616925
 30
0.0
 11
2091.970593930113
 21
1376.490637616925
 31
0.0
  0
LINE
  5
18CFF
330
18C7A
100
AcDbEntity
  8
細線
 48
50.0
100
AcDbLine
 10
2091.970593930113
 20
1376.490637616925
 30
0.0
 11
2091.970593930113
 21
1383.490637616927
 31
0.0
  0
LINE
  5
18D00
330
18C7A
100
AcDbEntity
  8
細線
 48
50.0
100
AcDbLine
 10
2091.970593930113
 20
1383.490637616927
 30
0.0
 11
2076.970593930115
 21
1383.490637616924
 31
0.0
  0
LINE
  5
18D01
330
18C7A
100
AcDbEntity
  8
細線
 48
50.0
100
AcDbLine
 10
2076.970593930115
 20
1383.490637616924
 30
0.0
 11
2076.970593930115
 21
1345.890409513813
 31
0.0
  0
LINE
  5
18D02
330
18C7A
100
AcDbEntity
  8
細線
 48
50.0
100
AcDbLine
 10
2076.970593930115
 20
1345.890409513813
 30
0.0
 11
2096.970601231289
 21
1345.890451063353
 31
0.0
  0
LINE
  5
18D03
330
18C7A
100
AcDbEntity
  8
細線
 48
50.0
100
AcDbLine
 10
2096.970556362348
 20
1354.493912699161
 30
0.0
 11
2096.970601231289
 21
1345.890451063353
 31
0.0
  0
LINE
  5
18D04
330
18C7A
100
AcDbEntity
  8
細線
 48
50.0
100
AcDbLine
 10
2741.970584622936
 20
1371.644487209287
 30
0.0
 11
2741.970584622936
 21
1376.494487209284
 31
0.0
  0
LINE
  5
18D05
330
18C7A
100
AcDbEntity
  8
細線
 48
50.0
100
AcDbLine
 10
2741.970584622936
 20
1376.494487209284
 30
0.0
 11
2756.970584622934
 21
1376.494487209285
 31
0.0
  0
LINE
  5
18D06
330
18C7A
100
AcDbEntity
  8
細線
 48
50.0
100
AcDbLine
 10
2756.970584622934
 20
1376.494487209285
 30
0.0
 11
2756.970596256909
 21
1383.494487209331
 31
0.0
  0
LINE
  5
18D07
330
18C7A
100
AcDbEntity
  8
細線
 48
50.0
100
AcDbLine
 10
2756.970596256909
 20
1383.494487209331
 30
0.0
 11
2771.970594427439
 21
1383.494487209329
 31
0.0
  0
LINE
  5
18D08
330
18C7A
100
AcDbEntity
  8
細線
 48
50.0
100
AcDbLine
 10
2771.970594427439
 20
1383.494487209329
 30
0.0
 11
2771.970584125617
 21
1354.494281037055
 31
0.0
  0
LINE
  5
18D09
330
18C7A
100
AcDbEntity
  8
細線
 48
50.0
100
AcDbLine
 10
2458.070304175992
 20
1354.494278397076
 30
0.0
 11
2389.470863838818
 21
1354.494283787084
 31
0.0
  0
LINE
  5
18D0A
330
18C7A
100
AcDbEntity
  8
細線
 48
50.0
100
AcDbLine
 10
2096.970556362348
 20
1354.493912699161
 30
0.0
 11
2108.203245717057
 21
1354.494095652309
 31
0.0
  0
ARC
  5
18D0B
330
18C7A
100
AcDbEntity
  8
細線
 48
50.0
100
AcDbCircle
 10
2114.785538024393
 20
1353.294259565922
 30
0.0
 40
1.8
100
AcDbArc
 50
270.0006665777295
 51
345.000555481349
  0
LINE
  5
18D0C
330
18C7A
100
AcDbEntity
  8
細線
 48
50.0
100
AcDbLine
 10
2116.771971470473
 20
1353.753100023201
 30
0.0
 11
2116.524209028273
 21
1352.828402141094
 31
0.0
  0
LINE
  5
18D0D
330
18C7A
100
AcDbEntity
  8
細線
 48
50.0
100
AcDbLine
 10
2114.785558965548
 20
1351.494259566043
 30
0.0
 11
2111.155631546781
 21
1351.494217335563
 31
0.0
  0
ARC
  5
18D0E
330
18C7A
100
AcDbEntity
  8
細線
 48
50.0
100
AcDbCircle
 10
2111.155610605627
 20
1353.29421733544
 30
0.0
 40
1.8
100
AcDbArc
 50
195.0010443049965
 51
270.0006665777295
  0
LINE
  5
18D0F
330
18C7A
100
AcDbEntity
  8
細線
 48
50.0
100
AcDbLine
 10
2109.169183113368
 20
1353.752932303007
 30
0.0
 11
2109.416952609882
 21
1352.828311364425
 31
0.0
  0
ARC
  5
18D10
330
18C7A
100
AcDbEntity
  8
細線
 48
50.0
100
AcDbCircle
 10
2108.203262004622
 20
1353.494095652444
 30
0.0
 40
1.0
100
AcDbArc
 50
15.00104430499651
 51
90.00093320877969
  0
LINE
  5
18D11
330
18C7A
100
AcDbEntity
  8
細線
 48
50.0
100
AcDbLine
 10
2117.737892825577
 20
1354.494290342714
 30
0.0
 11
2118.679652976481
 21
1354.494296916564
 31
0.0
  0
ARC
  5
18D12
330
18C7A
100
AcDbEntity
  8
細線
 48
50.0
100
AcDbCircle
 10
2117.737899805961
 20
1353.49429034274
 30
0.0
 40
1.0
100
AcDbArc
 50
90.0003999466794
 51
165.000555481349
  0
LINE
  5
18D13
330
18C7A
100
AcDbEntity
  8
細線
 48
50.0
100
AcDbLine
 10
2669.470584622926
 20
1354.494281037055
 30
0.0
 11
2771.970584125617
 21
1354.494281037055
 31
0.0
  0
LINE
  5
18D14
330
18C7A
100
AcDbEntity
  8
細線
 48
50.0
100
AcDbLine
 10
2179.47061994182
 20
1354.494289224422
 30
0.0
 11
2118.370558714898
 21
1354.494296916564
 31
0.0
  0
LINE
  5
18D15
330
18C7A
100
AcDbEntity
  8
細線
 48
50.0
100
AcDbLine
 10
2599.470584622926
 20
1354.494281037057
 30
0.0
 11
2529.470584622926
 21
1354.494281037055
 31
0.0
  0
LINE
  5
18D16
330
18C7A
100
AcDbEntity
  8
細線
 48
50.0
100
AcDbLine
 10
2319.470584622926
 20
1354.494281037054
 30
0.0
 11
2249.470567335051
 21
1354.494281037057
 31
0.0
  0
ARC
  5
18D17
330
18C7A
100
AcDbEntity
  8
細線
 48
50.0
100
AcDbCircle
 10
2756.170589276533
 20
1387.694269174466
 30
0.0
 40
0.8
100
AcDbArc
 50
359.9997333689499
 51
89.99986668437072
  0
ARC
  5
18D18
330
18C7A
100
AcDbEntity
  8
細線
 48
50.0
100
AcDbCircle
 10
2763.770596101631
 20
1387.694280343081
 30
0.0
 40
0.8
100
AcDbArc
 50
90.00014387753465
 51
179.9997333689498
  0
LINE
  5
18D19
330
18C7A
100
AcDbEntity
  8
細線
 48
50.0
100
AcDbLine
 10
2756.170591137969
 20
1388.494269174465
 30
0.0
 11
2750.970589276525
 21
1388.494269174465
 31
0.0
  0
ARC
  5
18D1A
330
18C7A
100
AcDbEntity
  8
細線
 48
50.0
100
AcDbCircle
 10
2757.670589276524
 20
1386.194269174464
 30
0.0
 40
0.7
100
AcDbArc
 50
180.0
 51
270.0
  0
ARC
  5
18D1B
330
18C7A
100
AcDbEntity
  8
細線
 48
50.0
100
AcDbCircle
 10
2762.270589276524
 20
1386.194269174464
 30
0.0
 40
0.7
100
AcDbArc
 50
270.0
 51
0.0
  0
LINE
  5
18D1C
330
18C7A
100
AcDbEntity
  8
細線
 48
50.0
100
AcDbLine
 10
2762.970589276525
 20
1386.194269174464
 30
0.0
 11
2762.970596101639
 21
1387.694284065954
 31
0.0
  0
LINE
  5
18D1D
330
18C7A
100
AcDbEntity
  8
細線
 48
50.0
100
AcDbLine
 10
2757.670589276524
 20
1385.494269174465
 30
0.0
 11
2762.270589276524
 21
1385.494269174465
 31
0.0
  0
LINE
  5
18D1E
330
18C7A
100
AcDbEntity
  8
細線
 48
50.0
100
AcDbLine
 10
2756.970589276525
 20
1387.694269174466
 30
0.0
 11
2756.970589276525
 21
1386.194269174464
 31
0.0
  0
LINE
  5
18D1F
330
18C7A
100
AcDbEntity
  8
細線
 48
50.0
100
AcDbLine
 10
3382.570589276527
 20
1418.494269174465
 30
0.0
 11
2745.970589276525
 21
1418.494269174463
 31
0.0
  0
LINE
  5
18D20
330
18C7A
100
AcDbEntity
  8
細線
 48
50.0
100
AcDbLine
 10
3408.470589276525
 20
1413.494269174467
 30
0.0
 11
3392.570589276527
 21
1413.494269174465
 31
0.0
  0
LINE
  5
18D21
330
18C7A
100
AcDbEntity
  8
細線
 48
50.0
100
AcDbLine
 10
3392.570589276526
 20
1413.494269174465
 30
0.0
 11
3382.570589276527
 21
1418.494269174465
 31
0.0
  0
LINE
  5
18D22
330
18C7A
100
AcDbEntity
  8
細線
100
AcDbLine
 10
2993.470589276525
 20
1388.494269174465
 30
0.0
 11
2993.470589276525
 21
1417.794269174464
 31
0.0
  0
LINE
  5
18D23
330
18C7A
100
AcDbEntity
  8
細線
100
AcDbLine
 10
2993.470589276525
 20
1417.794269174464
 30
0.0
 11
3013.470589276525
 21
1417.794269174464
 31
0.0
  0
LINE
  5
18D24
330
18C7A
100
AcDbEntity
  8
細線
100
AcDbLine
 10
3013.470589276525
 20
1388.494269174465
 30
0.0
 11
3013.470589276525
 21
1417.794269174464
 31
0.0
  0
LINE
  5
18D25
330
18C7A
100
AcDbEntity
  8
細線
100
AcDbLine
 10
3170.720589276524
 20
1388.494269174465
 30
0.0
 11
3100.720589276523
 21
1388.494269174465
 31
0.0
  0
LINE
  5
18D26
330
18C7A
100
AcDbEntity
  8
細線
 48
50.0
100
AcDbLine
 10
2890.720589276525
 20
1388.494269174465
 30
0.0
 11
2763.766368849365
 21
1388.494269174465
 31
0.0
  0
LINE
  5
18D27
330
18C7A
100
AcDbEntity
  8
細線
100
AcDbLine
 10
3030.720589276525
 20
1388.494269174465
 30
0.0
 11
2960.720589276525
 21
1388.494269174465
 31
0.0
  0
LINE
  5
18D28
330
18C7A
100
AcDbEntity
  8
細線
 48
50.0
100
AcDbLine
 10
2750.970589276525
 20
1380.494269174465
 30
0.0
 11
2750.970589276525
 21
1388.494269174465
 31
0.0
  0
LINE
  5
18D29
330
18C7A
100
AcDbEntity
  8
細線
 48
50.0
100
AcDbLine
 10
2730.970589276524
 20
1380.494269174467
 30
0.0
 11
2750.970589276525
 21
1380.494269174465
 31
0.0
  0
LINE
  5
18D2A
330
18C7A
100
AcDbEntity
  8
細線
 48
50.0
100
AcDbLine
 10
2745.970589276525
 20
1418.494269174465
 30
0.0
 11
2745.970589276525
 21
1413.494269174465
 31
0.0
  0
LINE
  5
18D2B
330
18C7A
100
AcDbEntity
  8
細線
 48
50.0
100
AcDbLine
 10
2730.970589276525
 20
1418.494269174463
 30
0.0
 11
2745.970589276525
 21
1418.494269174465
 31
0.0
  0
LINE
  5
18D2C
330
18C7A
100
AcDbEntity
  8
細線
 48
50.0
100
AcDbLine
 10
2730.970589276524
 20
1380.494269174467
 30
0.0
 11
2730.970589276525
 21
1418.494269174463
 31
0.0
  0
LINE
  5
18D2D
330
18C7A
100
AcDbEntity
  8
細線
100
AcDbLine
 10
3398.970589276523
 20
1388.494269174465
 30
0.0
 11
3240.720589276525
 21
1388.494269174465
 31
0.0
  0
LINE
  5
18D2E
330
18C7A
100
AcDbEntity
  8
細線
 48
50.0
100
AcDbLine
 10
3408.470589276525
 20
1413.494269174467
 30
0.0
 11
3408.470589276524
 21
1388.494269174465
 31
0.0
  0
TEXT
  5
18D2F
330
18C7A
100
AcDbEntity
  8
部品1
100
AcDbText
 10
1860.154865991392
 20
46.99880823813145
 30
0.0
 40
135.0
  1
平面図
  7
STYLE2
100
AcDbText
  0
LWPOLYLINE
  5
18D30
330
18C7A
100
AcDbEntity
  8
部品1
100
AcDbPolyline
 90
        4
 70
     1
 43
0.0
 10
1770.23525616235
 20
239.8923374566548
 10
1770.23525616235
 20
0.0000159111223184
 10
2533.705922390791
 20
0.0000159111223184
 10
2533.705922390791
 20
239.8923374566548
  0
LINE
  5
18D31
330
18C7A
100
AcDbEntity
  8
部品1
100
AcDbLine
 10
1534.470589276487
 20
3154.494269174626
 30
0.0
 11
2769.470589276552
 21
3154.494269174626
 31
0.0
  0
LINE
  5
18D32
330
18C7A
100
AcDbEntity
  8
部品1
 48
50.0
100
AcDbLine
 10
1311.970589276523
 20
1420.494269174462
 30
0.0
 11
3411.970589276523
 21
1420.494269174465
 31
0.0
  0
LINE
  5
18D33
330
18C7A
100
AcDbEntity
  8
部品1
 48
50.0
100
AcDbLine
 10
471.9705892765232
 20
1392.494269174465
 30
0.0
 11
1311.970589276523
 21
1392.494269174465
 31
0.0
  0
DIMENSION
  5
18D34
330
18C7A
100
AcDbEntity
  8
寸法
100
AcDbDimension
  2
*D14
 10
2710.234916278077
 20
2488.887829538828
 30
0.0
 11
2338.318822490183
 21
2488.887829538828
 31
0.0
 12
-3742.925985830444
 22
-6453.628869860112
 32
0.0
 70
   128
 71
     5
 42
1231.00000000007
  3
INABA_S40G
100
AcDbAlignedDimension
 13
1536.470589276486
 23
2702.494269174557
 33
0.0
 14
2767.470589276556
 24
2702.494269174549
 34
0.0
100
AcDbRotatedDimension
1001
ACAD
1000
DSTYLE
1002
{
1002
}
  0
LINE
  5
18D35
330
18C7A
100
AcDbEntity
  8
部品1
100
AcDbLine
 10
1536.470589276487
 20
2702.494269174557
 30
0.0
 11
2767.470589276554
 21
2702.494269174615
 31
0.0
  0
LINE
  5
18D36
330
18C7A
100
AcDbEntity
  8
部品1
100
AcDbLine
 10
1536.470589276487
 20
3152.494269174557
 30
0.0
 11
2767.470589276556
 21
3152.494269174615
 31
0.0
  0
LINE
  5
18D37
330
18C7A
100
AcDbEntity
  8
細線
 48
50.0
100
AcDbLine
 10
1508.470589276487
 20
3152.494269174558
 30
0.0
 11
445.4705892765559
 21
2702.494269174509
 31
0.0
  0
LINE
  5
18D38
330
18C7A
100
AcDbEntity
  8
細線
 48
50.0
100
AcDbLine
 10
1508.470589276487
 20
2702.494269174558
 30
0.0
 11
445.4705892765542
 21
3152.494269174509
 31
0.0
  0
LINE
  5
18D39
330
18C7A
100
AcDbEntity
  8
部品1
100
AcDbLine
 10
1556.970589276487
 20
3172.494269174611
 30
0.0
 11
1556.970589276487
 21
3154.494269174611
 31
0.0
  0
LINE
  5
18D3A
330
18C7A
100
AcDbEntity
  8
部品1
100
AcDbLine
 10
1556.970589276487
 20
3172.494269174611
 30
0.0
 11
1550.970589276487
 21
3172.494269174611
 31
0.0
  0
LINE
  5
18D3B
330
18C7A
100
AcDbEntity
  8
部品1
100
AcDbLine
 10
1534.470589276487
 20
3146.494269174608
 30
0.0
 11
1509.470589276487
 21
3146.494269174611
 31
0.0
  0
LINE
  5
18D3C
330
18C7A
100
AcDbEntity
  8
部品1
100
AcDbLine
 10
1486.970589276487
 20
3172.494269174611
 30
0.0
 11
1486.970589276487
 21
3154.494269174611
 31
0.0
  0
LINE
  5
18D3D
330
18C7A
100
AcDbEntity
  8
部品1
100
AcDbLine
 10
1492.970589276487
 20
3172.494269174611
 30
0.0
 11
1486.970589276487
 21
3172.494269174611
 31
0.0
  0
LINE
  5
18D3E
330
18C7A
100
AcDbEntity
  8
部品1
100
AcDbLine
 10
1534.470589276487
 20
2702.494269174615
 30
0.0
 11
1509.470589276487
 21
2702.494269174615
 31
0.0
  0
LINE
  5
18D3F
330
18C7A
100
AcDbEntity
  8
部品1
 48
50.0
100
AcDbLine
 10
1536.470589276487
 20
3152.494269174611
 30
0.0
 11
1536.470589276487
 21
2702.494269174615
 31
0.0
  0
LINE
  5
18D40
330
18C7A
100
AcDbEntity
  8
部品1
 48
50.0
100
AcDbLine
 10
1508.470589276487
 20
3152.494269174607
 30
0.0
 11
1508.470589276487
 21
2702.494269174615
 31
0.0
  0
LINE
  5
18D41
330
18C7A
100
AcDbEntity
  8
部品1
 48
50.0
100
AcDbLine
 10
1534.470589276487
 20
3154.494269174618
 30
0.0
 11
1534.470589276487
 21
2702.494269174615
 31
0.0
  0
LINE
  5
18D42
330
18C7A
100
AcDbEntity
  8
部品1
 48
50.0
100
AcDbLine
 10
1509.470589276487
 20
3154.494269174615
 30
0.0
 11
1509.470589276487
 21
2702.494269174615
 31
0.0
  0
LINE
  5
18D43
330
18C7A
100
AcDbEntity
  8
部品1
100
AcDbLine
 10
3411.970589276556
 20
1392.494269174582
 30
0.0
 11
3411.970589276556
 21
1420.494269174596
 31
0.0
  0
LINE
  5
18D44
330
18C7A
100
AcDbEntity
  8
部品1
100
AcDbLine
 10
1311.970589276523
 20
1392.494269174596
 30
0.0
 11
1311.970589276523
 21
1420.494269174596
 31
0.0
  0
LINE
  5
18D45
330
18C7A
100
AcDbEntity
  8
部品1
100
AcDbLine
 10
891.9705892765232
 20
1392.494269174596
 30
0.0
 11
891.9705892765232
 21
1420.494269174596
 31
0.0
  0
LINE
  5
18D46
330
18C7A
100
AcDbEntity
  8
部品1
100
AcDbLine
 10
3411.97058927652
 20
3182.494269174477
 30
0.0
 11
3411.970589276523
 21
3154.494269174477
 31
0.0
  0
LINE
  5
18D47
330
18C7A
100
AcDbEntity
  8
部品1
100
AcDbLine
 10
2571.97058927652
 20
3182.494269174477
 30
0.0
 11
2571.970589276523
 21
3154.494269174477
 31
0.0
  0
LINE
  5
18D48
330
18C7A
100
AcDbEntity
  8
部品1
100
AcDbLine
 10
2991.97058927652
 20
3182.494269174477
 30
0.0
 11
2991.970589276523
 21
3154.494269174477
 31
0.0
  0
LINE
  5
18D49
330
18C7A
100
AcDbEntity
  8
部品1
100
AcDbLine
 10
2151.970589276519
 20
3182.494269174477
 30
0.0
 11
2151.970589276523
 21
3154.494269174477
 31
0.0
  0
LINE
  5
18D4A
330
18C7A
100
AcDbEntity
  8
部品1
100
AcDbLine
 10
1731.970589276519
 20
3182.494269174477
 30
0.0
 11
1731.970589276523
 21
3154.494269174477
 31
0.0
  0
LINE
  5
18D4B
330
18C7A
100
AcDbEntity
  8
部品1
100
AcDbLine
 10
1311.970589276519
 20
3182.494269174477
 30
0.0
 11
1311.970589276523
 21
3154.494269174477
 31
0.0
  0
LINE
  5
18D4C
330
18C7A
100
AcDbEntity
  8
部品1
100
AcDbLine
 10
891.9705892765195
 20
3182.494269174477
 30
0.0
 11
891.9705892765232
 21
3154.494269174477
 31
0.0
  0
LINE
  5
18D4D
330
18C7A
100
AcDbEntity
  8
部品1
100
AcDbLine
 10
471.9705892765232
 20
1392.494269174596
 30
0.0
 11
471.9705892765232
 21
1420.494269174596
 31
0.0
  0
LINE
  5
18D4E
330
18C7A
100
AcDbEntity
  8
部品1
100
AcDbLine
 10
444.9705892765305
 20
1420.494269174558
 30
0.0
 11
3858.970589276556
 21
1420.494269174596
 31
0.0
  0
LINE
  5
18D4F
330
18C7A
100
AcDbEntity
  8
部品1
100
AcDbLine
 10
3831.970589276556
 20
1392.494269174596
 30
0.0
 11
3831.970589276556
 21
1420.494269174596
 31
0.0
  0
LINE
  5
18D50
330
18C7A
100
AcDbEntity
  8
部品1
100
AcDbLine
 10
3858.970589276556
 20
1447.494269174593
 30
0.0
 11
3886.970589276556
 21
1447.494269174593
 31
0.0
  0
LINE
  5
18D51
330
18C7A
100
AcDbEntity
  8
部品1
100
AcDbLine
 10
3858.970589276556
 20
1867.494269174607
 30
0.0
 11
3886.970589276556
 21
1867.494269174607
 31
0.0
  0
LINE
  5
18D52
330
18C7A
100
AcDbEntity
  8
部品1
100
AcDbLine
 10
444.9705892765305
 20
1867.49426917448
 30
0.0
 11
416.9705892765305
 21
1867.49426917448
 31
0.0
  0
LINE
  5
18D53
330
18C7A
100
AcDbEntity
  8
部品1
100
AcDbLine
 10
3830.470589276541
 20
1867.49426917458
 30
0.0
 11
473.4705892765396
 21
1867.49426917448
 31
0.0
  0
LINE
  5
18D54
330
18C7A
100
AcDbEntity
  8
部品1
100
AcDbLine
 10
3830.470589276541
 20
2287.49426917458
 30
0.0
 11
473.4705892765396
 21
2287.49426917448
 31
0.0
  0
LINE
  5
18D55
330
18C7A
100
AcDbEntity
  8
部品1
100
AcDbLine
 10
444.9705892765305
 20
2287.49426917448
 30
0.0
 11
416.9705892765305
 21
2287.49426917448
 31
0.0
  0
LINE
  5
18D56
330
18C7A
100
AcDbEntity
  8
部品1
100
AcDbLine
 10
3858.970589276556
 20
2287.494269174608
 30
0.0
 11
3886.970589276556
 21
2287.494269174608
 31
0.0
  0
LINE
  5
18D57
330
18C7A
100
AcDbEntity
  8
部品1
 48
50.0
100
AcDbLine
 10
2151.970589276551
 20
2702.494269174586
 30
0.0
 11
2151.970589276581
 21
1448.994269174494
 31
0.0
  0
LINE
  5
18D58
330
18C7A
100
AcDbEntity
  8
破線
 48
10.0
100
AcDbLine
 10
2959.470589276535
 20
1472.494269174522
 30
0.0
 11
2176.970589276532
 21
1472.494269174505
 31
0.0
  0
LINE
  5
18D59
330
18C7A
100
AcDbEntity
  8
破線
 48
10.0
100
AcDbLine
 10
3009.47058927653
 20
1448.994269174509
 30
0.0
 11
3009.47058927653
 21
2702.494269174615
 31
0.0
  0
LINE
  5
18D5A
330
18C7A
100
AcDbEntity
  8
破線
 48
10.0
100
AcDbLine
 10
2959.470589276535
 20
1448.994269174505
 30
0.0
 11
2959.470589276531
 21
2702.494269174615
 31
0.0
  0
LINE
  5
18D5B
330
18C7A
100
AcDbEntity
  8
破線
 48
10.0
100
AcDbLine
 10
1344.47058927653
 20
1448.994269174509
 30
0.0
 11
1344.47058927653
 21
2702.494269174615
 31
0.0
  0
LINE
  5
18D5C
330
18C7A
100
AcDbEntity
  8
破線
 48
10.0
100
AcDbLine
 10
1294.470589276534
 20
1448.994269174505
 30
0.0
 11
1294.47058927653
 21
2702.494269174615
 31
0.0
  0
DIMENSION
  5
18D5D
330
18C7A
100
AcDbEntity
  8
寸法
100
AcDbDimension
  2
*D13
 10
1451.234916278005
 20
2488.887829538828
 30
0.0
 11
916.0604668248634
 21
2488.887829538828
 31
0.0
 12
-3742.925985830444
 22
-6453.628869860112
 32
0.0
 70
   128
 71
     5
 42
1062.99999999993
  3
INABA_S40G
100
AcDbAlignedDimension
 13
445.4705892765559
 23
2702.494269174505
 33
0.0
 14
1508.470589276486
 24
2702.494269174558
 34
0.0
100
AcDbRotatedDimension
1001
ACAD
1000
DSTYLE
1002
{
1002
}
  0
LINE
  5
18D5E
330
18C7A
100
AcDbEntity
  8
破線
 48
10.0
100
AcDbLine
 10
1294.470589276534
 20
1472.494269174469
 30
0.0
 11
496.9705892765414
 21
1472.494269174476
 31
0.0
  0
LINE
  5
18D5F
330
18C7A
100
AcDbEntity
  8
部品1
100
AcDbLine
 10
3831.970589276556
 20
3182.494269174604
 30
0.0
 11
3831.970589276556
 21
3154.494269174604
 31
0.0
  0
LINE
  5
18D60
330
18C7A
100
AcDbEntity
  8
部品1
100
AcDbLine
 10
3831.970589276556
 20
3182.494269174626
 30
0.0
 11
3831.970589276556
 21
3154.494269174626
 31
0.0
  0
LINE
  5
18D61
330
18C7A
100
AcDbEntity
  8
部品1
100
AcDbLine
 10
3858.970589276556
 20
3127.494269174607
 30
0.0
 11
3886.970589276556
 21
3127.494269174607
 31
0.0
  0
LINE
  5
18D62
330
18C7A
100
AcDbEntity
  8
部品1
100
AcDbLine
 10
3858.970589276556
 20
2707.494269174608
 30
0.0
 11
3886.970589276556
 21
2707.494269174608
 31
0.0
  0
LINE
  5
18D63
330
18C7A
100
AcDbEntity
  8
部品1
100
AcDbLine
 10
3858.470589276556
 20
3152.494269174604
 30
0.0
 11
3858.470589276556
 21
2702.494269174608
 31
0.0
  0
LINE
  5
18D64
330
18C7A
100
AcDbEntity
  8
部品1
100
AcDbLine
 10
3886.970589276533
 20
1447.494269174593
 30
0.0
 11
3886.970589276531
 21
1392.494269174596
 31
0.0
  0
LINE
  5
18D65
330
18C7A
100
AcDbEntity
  8
部品1
 48
50.0
100
AcDbLine
 10
3830.470589276556
 20
1448.994269174596
 30
0.0
 11
3858.970589276554
 21
1420.494269174596
 31
0.0
  0
LINE
  5
18D66
330
18C7A
100
AcDbEntity
  8
部品1
100
AcDbLine
 10
3886.970589276531
 20
1392.494269174596
 30
0.0
 11
3835.970589276531
 21
1392.494269174596
 31
0.0
  0
LINE
  5
18D67
330
18C7A
100
AcDbEntity
  8
部品1
100
AcDbLine
 10
3858.970589276533
 20
1447.494269174593
 30
0.0
 11
3886.970589276531
 21
1447.494269174593
 31
0.0
  0
LINE
  5
18D68
330
18C7A
100
AcDbEntity
  8
部品1
100
AcDbLine
 10
3886.970589276556
 20
3182.494269174604
 30
0.0
 11
3886.970589276531
 21
1392.494269174596
 31
0.0
  0
DIMENSION
  5
18D69
330
18C7A
100
AcDbEntity
  8
寸法
100
AcDbDimension
  2
*D12
 10
4534.396935010967
 20
1447.494269174593
 30
0.0
 11
4534.396935010965
 21
2287.4942691746
 31
0.0
 12
-3742.925985830444
 22
-6453.628869860112
 32
0.0
 70
   128
  1
4X420=<>
 71
     5
 42
1680.000000000014
  3
INABA_S40G
100
AcDbAlignedDimension
 13
3886.970589276556
 23
3127.494269174607
 33
0.0
 14
3886.970589276531
 24
1447.494269174593
 34
0.0
 50
90.0
100
AcDbRotatedDimension
1001
ACAD
1000
DSTYLE
1002
{
1002
}
  0
LINE
  5
18D6A
330
18C7A
100
AcDbEntity
  8
部品1
100
AcDbLine
 10
3858.970589276556
 20
3154.494269174604
 30
0.0
 11
3858.970589276534
 21
1420.494269174596
 31
0.0
  0
DIMENSION
  5
18D6B
330
18C7A
100
AcDbEntity
  8
寸法
100
AcDbDimension
  2
*D11
 10
4213.82831513858
 20
2607.276453505718
 30
0.0
 11
4113.828315138579
 21
2832.276453505718
 31
0.0
 12
-3742.925985830444
 22
-6453.628869860112
 32
0.0
 71
     5
 42
449.9999999999963
  3
INABA_S40G
100
AcDbAlignedDimension
 13
3858.470589276556
 23
3152.494269174604
 33
0.0
 14
3858.470589276556
 24
2702.494269174608
 34
0.0
 50
90.0
100
AcDbRotatedDimension
1001
ACAD
1000
DSTYLE
1002
{
1002
}
  0
LINE
  5
18D6C
330
18C7A
100
AcDbEntity
  8
部品1
100
AcDbLine
 10
3830.470589276547
 20
2702.494269174608
 30
0.0
 11
3830.470589276556
 21
1448.994269174596
 31
0.0
  0
LINE
  5
18D6D
330
18C7A
100
AcDbEntity
  8
破線
 48
10.0
100
AcDbLine
 10
3806.970589276549
 20
2702.494269174608
 30
0.0
 11
3806.970589276558
 21
1472.494269174593
 31
0.0
  0
LINE
  5
18D6E
330
18C7A
100
AcDbEntity
  8
部品1
100
AcDbLine
 10
2769.470589276556
 20
3146.494269174608
 30
0.0
 11
2794.470589276556
 21
3146.494269174611
 31
0.0
  0
LINE
  5
18D6F
330
18C7A
100
AcDbEntity
  8
部品1
100
AcDbLine
 10
2810.970589276556
 20
3172.494269174611
 30
0.0
 11
2816.970589276556
 21
3172.494269174611
 31
0.0
  0
LINE
  5
18D70
330
18C7A
100
AcDbEntity
  8
部品1
100
AcDbLine
 10
2816.970589276556
 20
3172.494269174611
 30
0.0
 11
2816.970589276556
 21
3154.494269174611
 31
0.0
  0
LINE
  5
18D71
330
18C7A
100
AcDbEntity
  8
部品1
100
AcDbLine
 10
2746.970589276556
 20
3172.494269174611
 30
0.0
 11
2752.970589276556
 21
3172.494269174611
 31
0.0
  0
LINE
  5
18D72
330
18C7A
100
AcDbEntity
  8
部品1
100
AcDbLine
 10
2746.970589276556
 20
3172.494269174611
 30
0.0
 11
2746.970589276556
 21
3154.494269174611
 31
0.0
  0
LINE
  5
18D73
330
18C7A
100
AcDbEntity
  8
部品1
100
AcDbLine
 10
2769.470589276556
 20
2702.494269174615
 30
0.0
 11
2794.470589276556
 21
2702.494269174615
 31
0.0
  0
LINE
  5
18D74
330
18C7A
100
AcDbEntity
  8
部品1
 48
50.0
100
AcDbLine
 10
2794.470589276556
 20
3154.494269174615
 30
0.0
 11
2794.470589276556
 21
2702.494269174615
 31
0.0
  0
LINE
  5
18D75
330
18C7A
100
AcDbEntity
  8
部品1
 48
50.0
100
AcDbLine
 10
2769.470589276554
 20
3154.494269174618
 30
0.0
 11
2769.470589276556
 21
2702.494269174615
 31
0.0
  0
LINE
  5
18D76
330
18C7A
100
AcDbEntity
  8
部品1
 48
50.0
100
AcDbLine
 10
2795.470589276556
 20
3152.494269174607
 30
0.0
 11
2795.470589276556
 21
2702.494269174615
 31
0.0
  0
LINE
  5
18D77
330
18C7A
100
AcDbEntity
  8
部品1
 48
50.0
100
AcDbLine
 10
2767.470589276556
 20
3152.494269174611
 30
0.0
 11
2767.470589276556
 21
2702.494269174615
 31
0.0
  0
LINE
  5
18D78
330
18C7A
100
AcDbEntity
  8
破線
 48
10.0
100
AcDbLine
 10
2176.97058927653
 20
1448.994269174509
 30
0.0
 11
2176.97058927653
 21
2702.494269174588
 31
0.0
  0
LINE
  5
18D79
330
18C7A
100
AcDbEntity
  8
破線
 48
10.0
100
AcDbLine
 10
2126.970589276534
 20
1448.994269174505
 30
0.0
 11
2126.970589276531
 21
2702.494269174586
 31
0.0
  0
LINE
  5
18D7A
330
18C7A
100
AcDbEntity
  8
部品1
100
AcDbLine
 10
2794.470589276556
 20
3154.494269174622
 30
0.0
 11
3858.970589276556
 21
3154.494269174604
 31
0.0
  0
LINE
  5
18D7B
330
18C7A
100
AcDbEntity
  8
細線
 48
50.0
100
AcDbLine
 10
3858.470589276556
 20
2702.494269174608
 30
0.0
 11
2795.470589276556
 21
3152.494269174607
 31
0.0
  0
LINE
  5
18D7C
330
18C7A
100
AcDbEntity
  8
部品1
100
AcDbLine
 10
2795.470589276555
 20
2702.494269174615
 30
0.0
 11
3858.470589276556
 21
2702.494269174608
 31
0.0
  0
LINE
  5
18D7D
330
18C7A
100
AcDbEntity
  8
部品1
100
AcDbLine
 10
2795.470589276556
 20
3152.494269174611
 30
0.0
 11
3858.470589276556
 21
3152.494269174604
 31
0.0
  0
LINE
  5
18D7E
330
18C7A
100
AcDbEntity
  8
細線
 48
50.0
100
AcDbLine
 10
3858.470589276556
 20
3152.494269174604
 30
0.0
 11
2795.470589276555
 21
2702.494269174615
 31
0.0
  0
DIMENSION
  5
18D7F
330
18C7A
100
AcDbEntity
  8
寸法
100
AcDbDimension
  2
*D10
 10
3801.234916278101
 20
2488.887829538937
 30
0.0
 11
3318.360544398907
 21
2488.887829538937
 31
0.0
 12
-3742.925985830444
 22
-6453.628869860112
 32
0.0
 70
   128
 71
     5
 42
1063.000000000012
  3
INABA_S40G
100
AcDbAlignedDimension
 13
2795.470589276555
 23
2702.494269174615
 33
0.0
 14
3858.470589276567
 24
2702.494269174608
 34
0.0
100
AcDbRotatedDimension
1001
ACAD
1000
DSTYLE
1002
{
1002
}
  0
LINE
  5
18D80
330
18C7A
100
AcDbEntity
  8
破線
 48
10.0
100
AcDbLine
 10
3806.970589276556
 20
1472.494269174594
 30
0.0
 11
3009.47058927653
 21
1472.494269174523
 31
0.0
  0
DIMENSION
  5
18D81
330
18C7A
100
AcDbEntity
  8
寸法
100
AcDbDimension
  2
*D9
 10
4534.396935010941
 20
1392.494269174596
 30
0.0
 11
4534.39693501094
 21
1084.008987800356
 31
0.0
 12
-3742.925985830444
 22
-6453.628869860112
 32
0.0
 70
   128
 71
     5
 42
54.99999999999636
  3
INABA_S40G
100
AcDbAlignedDimension
 13
3886.970589276531
 23
1447.494269174593
 33
0.0
 14
3886.970589276531
 24
1392.494269174596
 34
0.0
 50
90.0
100
AcDbRotatedDimension
1001
ACAD
1000
DSTYLE
1002
{
1002
}
  0
LINE
  5
18D82
330
18C7A
100
AcDbEntity
  8
部品1
100
AcDbLine
 10
471.9705892765196
 20
3182.494269174477
 30
0.0
 11
471.9705892765232
 21
3154.494269174477
 31
0.0
  0
LINE
  5
18D83
330
18C7A
100
AcDbEntity
  8
部品1
100
AcDbLine
 10
471.9705892765559
 20
3182.494269174509
 30
0.0
 11
471.9705892765559
 21
3154.494269174509
 31
0.0
  0
LINE
  5
18D84
330
18C7A
100
AcDbEntity
  8
部品1
100
AcDbLine
 10
444.9705892765232
 20
3127.49426917448
 30
0.0
 11
416.9705892765232
 21
3127.49426917448
 31
0.0
  0
LINE
  5
18D85
330
18C7A
100
AcDbEntity
  8
部品1
100
AcDbLine
 10
444.9705892765305
 20
2707.49426917448
 30
0.0
 11
416.9705892765305
 21
2707.49426917448
 31
0.0
  0
LINE
  5
18D86
330
18C7A
100
AcDbEntity
  8
部品1
 48
50.0
100
AcDbLine
 10
445.4705892765542
 20
3152.494269174506
 30
0.0
 11
445.4705892765559
 21
2702.494269174505
 31
0.0
  0
LINE
  5
18D87
330
18C7A
100
AcDbEntity
  8
部品1
 48
50.0
100
AcDbLine
 10
473.470589276545
 20
1448.994269174573
 30
0.0
 11
444.970589276545
 21
1420.494269174574
 31
0.0
  0
LINE
  5
18D88
330
18C7A
100
AcDbEntity
  8
部品1
100
AcDbLine
 10
471.9705892765232
 20
1392.494269174465
 30
0.0
 11
416.9705892765486
 21
1392.494269174465
 31
0.0
  0
LINE
  5
18D89
330
18C7A
100
AcDbEntity
  8
部品1
100
AcDbLine
 10
444.9705892765305
 20
1447.494269174429
 30
0.0
 11
416.9705892765469
 21
1447.494269174429
 31
0.0
  0
LINE
  5
18D8A
330
18C7A
100
AcDbEntity
  8
部品1
100
AcDbLine
 10
444.9705892765305
 20
1447.494269174465
 30
0.0
 11
416.9705892765469
 21
1447.494269174465
 31
0.0
  0
LINE
  5
18D8B
330
18C7A
100
AcDbEntity
  8
部品1
100
AcDbLine
 10
444.9705892765469
 20
1447.49426917448
 30
0.0
 11
416.9705892765469
 21
1447.49426917448
 31
0.0
  0
LINE
  5
18D8C
330
18C7A
100
AcDbEntity
  8
部品1
100
AcDbLine
 10
416.9705892765469
 20
1447.494269174429
 30
0.0
 11
416.9705892765486
 21
1392.494269174433
 31
0.0
  0
LINE
  5
18D8D
330
18C7A
100
AcDbEntity
  8
部品1
100
AcDbLine
 10
416.9705892765196
 20
3182.494269174477
 30
0.0
 11
416.9705892765486
 21
1392.494269174465
 31
0.0
  0
LINE
  5
18D8E
330
18C7A
100
AcDbEntity
  8
部品1
100
AcDbLine
 10
444.9705892765305
 20
1420.494269174556
 30
0.0
 11
444.9705892765559
 21
3154.494269174509
 31
0.0
  0
LINE
  5
18D8F
330
18C7A
100
AcDbEntity
  8
部品1
100
AcDbLine
 10
473.4705892765323
 20
2702.494269174608
 30
0.0
 11
473.470589276545
 21
1448.994269174571
 31
0.0
  0
LINE
  5
18D90
330
18C7A
100
AcDbEntity
  8
破線
 48
10.0
100
AcDbLine
 10
496.9705892765305
 20
2702.494269174608
 30
0.0
 11
496.9705892765451
 21
1472.494269174476
 31
0.0
  0
DIMENSION
  5
18D91
330
18C7A
100
AcDbEntity
  8
寸法
100
AcDbDimension
  2
*D8
 10
3886.970589276531
 20
410.7433333855515
 30
0.0
 11
2168.197775309287
 21
410.7433333855515
 31
0.0
 12
-3742.925985830444
 22
-6453.628869860112
 32
0.0
 70
   128
 71
     5
 42
3469.999999999982
  3
INABA_S40G
100
AcDbAlignedDimension
 13
416.9705892765486
 23
1392.494269174433
 33
0.0
 14
3886.970589276531
 24
1392.49426917456
 34
0.0
100
AcDbRotatedDimension
1001
ACAD
1000
DSTYLE
1002
{
1070
   341
1005
0
1002
}
  0
LINE
  5
18D92
330
18C7A
100
AcDbEntity
  8
部品1
100
AcDbLine
 10
444.9705892765559
 20
3154.494269174624
 30
0.0
 11
1509.470589276487
 21
3154.494269174626
 31
0.0
  0
LINE
  5
18D93
330
18C7A
100
AcDbEntity
  8
部品1
100
AcDbLine
 10
3886.970589276531
 20
1392.494269174596
 30
0.0
 11
3411.970589276556
 21
1392.494269174582
 31
0.0
  0
LINE
  5
18D94
330
18C7A
100
AcDbEntity
  8
部品1
100
AcDbLine
 10
416.9705892765559
 20
3182.494269174509
 30
0.0
 11
3886.970589276556
 21
3182.494269174604
 31
0.0
  0
LINE
  5
18D95
330
18C7A
100
AcDbEntity
  8
部品1
100
AcDbLine
 10
445.4705892765559
 20
2702.494269174509
 30
0.0
 11
1508.470589276487
 21
2702.494269174558
 31
0.0
  0
LINE
  5
18D96
330
18C7A
100
AcDbEntity
  8
細線
 48
50.0
100
AcDbLine
 10
2767.470589276556
 20
3152.494269174611
 30
0.0
 11
1536.470589276487
 21
2702.494269174558
 31
0.0
  0
LINE
  5
18D97
330
18C7A
100
AcDbEntity
  8
部品1
100
AcDbLine
 10
445.4705892765542
 20
3152.494269174509
 30
0.0
 11
1508.470589276485
 21
3152.494269174558
 31
0.0
  0
LINE
  5
18D98
330
18C7A
100
AcDbEntity
  8
細線
 48
50.0
100
AcDbLine
 10
2767.470589276554
 20
2702.494269174615
 30
0.0
 11
1536.470589276485
 21
3152.494269174558
 31
0.0
  0
LINE
  5
18D99
330
18C7A
100
AcDbEntity
  8
破線
 48
10.0
100
AcDbLine
 10
2126.970589276534
 20
1472.494269174502
 30
0.0
 11
1344.47058927653
 21
1472.494269174473
 31
0.0
  0
LINE
  5
18D9A
330
18C7A
100
AcDbEntity
  8
部品1
100
AcDbLine
 10
3830.470589276556
 20
1448.994269174596
 30
0.0
 11
473.4705892764487
 21
1448.994269174476
 31
0.0
  0
DIMENSION
  5
18D9B
330
18C7A
100
AcDbEntity
  8
寸法
100
AcDbDimension
  2
*D7
 10
471.970589276555
 20
3698.302488799491
 30
0.0
 11
108.4853079022819
 21
3698.302488799491
 31
0.0
 12
-3742.925985830444
 22
-6453.628869860112
 32
0.0
 70
   128
 71
     5
 42
55.00000000003456
  3
INABA_S40G
100
AcDbAlignedDimension
 13
416.9705892765205
 23
3182.494269174509
 33
0.0
 14
471.970589276555
 24
3182.494269174509
 34
0.0
100
AcDbRotatedDimension
1001
ACAD
1000
DSTYLE
1002
{
1002
}
  0
DIMENSION
  5
18D9C
330
18C7A
100
AcDbEntity
  8
寸法
100
AcDbDimension
  2
*D6
 10
4534.396935010967
 20
3127.494269174607
 30
0.0
 11
4534.396935010965
 21
3490.979550548844
 31
0.0
 12
-3742.925985830444
 22
-6453.628869860112
 32
0.0
 70
   128
 71
     5
 42
54.99999999999636
  3
INABA_S40G
100
AcDbAlignedDimension
 13
3886.970589276556
 23
3182.494269174604
 33
0.0
 14
3886.970589276556
 24
3127.494269174607
 34
0.0
 50
90.0
100
AcDbRotatedDimension
1001
ACAD
1000
DSTYLE
1002
{
1002
}
  0
DIMENSION
  5
18D9D
330
18C7A
100
AcDbEntity
  8
寸法
100
AcDbDimension
  2
*D5
 10
3886.970589276556
 20
3698.302488799589
 30
0.0
 11
4195.455870650794
 21
3698.302488799589
 31
0.0
 12
-3742.925985830444
 22
-6453.628869860112
 32
0.0
 70
   128
 71
     5
 42
55.0
  3
INABA_S40G
100
AcDbAlignedDimension
 13
3831.970589276556
 23
3182.494269174604
 33
0.0
 14
3886.970589276556
 24
3182.494269174604
 34
0.0
100
AcDbRotatedDimension
1001
ACAD
1000
DSTYLE
1002
{
1002
}
  0
DIMENSION
  5
18D9E
330
18C7A
100
AcDbEntity
  8
寸法
100
AcDbDimension
  2
*D4
 10
3831.970589276556
 20
3698.302488799607
 30
0.0
 11
2151.970589276555
 21
3698.302488799607
 31
0.0
 12
-3742.925985830444
 22
-6453.628869860112
 32
0.0
 70
   128
  1
8X420=<>
 71
     5
 42
3360.000000000001
  3
INABA_S40G
100
AcDbAlignedDimension
 13
471.970589276555
 23
3182.494269174509
 33
0.0
 14
3831.970589276556
 24
3182.494269174604
 34
0.0
100
AcDbRotatedDimension
1001
ACAD
1000
DSTYLE
1002
{
1002
}
  0
DIMENSION
  5
18D9F
330
18C7A
100
AcDbEntity
  8
寸法
100
AcDbDimension
  2
*D3
 10
4899.503876750603
 20
1392.494269174596
 30
0.0
 11
4899.503876750601
 21
2287.4942691746
 31
0.0
 12
-3742.925985830444
 22
-6453.628869860112
 32
0.0
 70
   128
 71
     5
 42
1790.000000000007
  3
INABA_S40G
100
AcDbAlignedDimension
 13
3886.970589276556
 23
3182.494269174604
 33
0.0
 14
3886.970589276531
 24
1392.494269174596
 34
0.0
 50
90.0
100
AcDbRotatedDimension
1001
ACAD
1000
DSTYLE
1002
{
1002
}
  0
ENDBLK
  5
18DA1
330
18C7A
100
AcDbEntity
  8
0
 48
50.0
100
AcDbBlockEnd
  0
BLOCK
  5
1C4CB
330
1C4CA
100
AcDbEntity
  8
0
 48
50.0
100
AcDbBlockBegin
  2
_NONE
 70
     0
 10
0.0
 20
0.0
 30
0.0
  3
_NONE
  1

  0
CIRCLE
  5
1C4CC
330
1C4CA
100
AcDbEntity
  8
0
  6
ByBlock
 62
     0
 48
50.0
100
AcDbCircle
 10
0.0
 20
0.0
 30
0.0
 40
0.25
  0
ENDBLK
  5
1C4CD
330
1C4CA
100
AcDbEntity
  8
0
 48
50.0
100
AcDbBlockEnd
  0
BLOCK
  5
221E4
330
221D9
100
AcDbEntity
  8
0
 48
50.0
100
AcDbBlockBegin
  2
*D19
 70
     1
 10
0.0
 20
0.0
 30
0.0
  3
*D19
  1

  0
LINE
  5
227A4
330
221D9
100
AcDbEntity
  8
寸法
 62
     0
 48
50.0
370
    -2
100
AcDbLine
 10
9333.6
 20
7776.907777930206
 30
0.0
 11
9333.6
 21
8580.149966081997
 31
0.0
  0
LINE
  5
227A5
330
221D9
100
AcDbEntity
  8
寸法
 62
     0
 48
50.0
370
    -2
100
AcDbLine
 10
9210.600000000001
 20
7703.907777930206
 30
0.0
 11
9210.600000000001
 21
8580.149966081997
 31
0.0
  0
LINE
  5
227A6
330
221D9
100
AcDbEntity
  8
寸法
 62
     0
 48
50.0
370
    -2
100
AcDbLine
 10
9210.600000000001
 20
8520.149966081998
 30
0.0
 11
9333.6
 21
8520.149966081998
 31
0.0
  0
LINE
  5
227A7
330
221D9
100
AcDbEntity
  8
寸法
 62
     0
 48
50.0
370
    -2
100
AcDbLine
 10
9333.6
 20
8520.149966081998
 30
0.0
 11
9745.191883092036
 21
8520.149966081998
 31
0.0
  0
INSERT
  5
227A8
330
221D9
100
AcDbEntity
  8
寸法
 62
     0
 48
50.0
370
    -2
100
AcDbBlockReference
  2
_DOTSMALL
 10
9210.600000000001
 20
8520.149966081998
 30
0.0
 41
100.0
 42
100.0
 43
100.0
 50
180.0
  0
INSERT
  5
227A9
330
221D9
100
AcDbEntity
  8
寸法
 62
     0
 48
50.0
370
    -2
100
AcDbBlockReference
  2
_DOTSMALL
 10
9333.6
 20
8520.149966081998
 30
0.0
 41
100.0
 42
100.0
 43
100.0
  0
MTEXT
  5
227AA
330
221D9
100
AcDbEntity
  8
寸法
 62
     7
 48
50.0
100
AcDbMText
 10
9606.706601717799
 20
8620.16177710562
 30
0.0
 40
120.0
 41
0.0
 71
     5
 72
     1
  1
\A1;123
  7
STYLE1
 73
     1
 44
1.0
1001
ACAD
1000
MTEXTBEGIN
1070
    73
1070
     1
1070
    44
1040
1.0
1070
    74
1070
     0
1000
MTEXTEND
  0
POINT
  5
227AB
330
221D9
100
AcDbEntity
  8
DEFPOINTS
 62
     0
 48
50.0
100
AcDbPoint
 10
9333.6
 20
7756.907777930206
 30
0.0
  0
POINT
  5
227AC
330
221D9
100
AcDbEntity
  8
DEFPOINTS
 62
     0
 48
50.0
100
AcDbPoint
 10
9210.600000000001
 20
7683.907777930206
 30
0.0
  0
POINT
  5
227AD
330
221D9
100
AcDbEntity
  8
DEFPOINTS
 62
     0
 48
50.0
100
AcDbPoint
 10
9210.600000000001
 20
8520.149966081998
 30
0.0
  0
ENDBLK
  5
221E5
330
221D9
100
AcDbEntity
  8
0
 48
50.0
100
AcDbBlockEnd
  0
BLOCK
  5
22224
330
22219
100
AcDbEntity
  8
0
 48
50.0
100
AcDbBlockBegin
  2
*D20
 70
     1
 10
0.0
 20
0.0
 30
0.0
  3
*D20
  1

  0
LINE
  5
22771
330
22219
100
AcDbEntity
  8
寸法
 62
     0
 48
50.0
370
    -2
100
AcDbLine
 10
7236.6
 20
7703.907777930206
 30
0.0
 11
7236.6
 21
8580.149966081997
 31
0.0
  0
LINE
  5
22772
330
22219
100
AcDbEntity
  8
寸法
 62
     0
 48
50.0
370
    -2
100
AcDbLine
 10
7113.600000000001
 20
7776.907777930206
 30
0.0
 11
7113.600000000001
 21
8580.149966081997
 31
0.0
  0
LINE
  5
22773
330
22219
100
AcDbEntity
  8
寸法
 62
     0
 48
50.0
370
    -2
100
AcDbLine
 10
7236.6
 20
8520.149966081998
 30
0.0
 11
7113.600000000001
 21
8520.149966081998
 31
0.0
  0
LINE
  5
22774
330
22219
100
AcDbEntity
  8
寸法
 62
     0
 48
50.0
370
    -2
100
AcDbLine
 10
7113.600000000001
 20
8520.149966081998
 30
0.0
 11
6702.008116907963
 21
8520.149966081998
 31
0.0
  0
INSERT
  5
22775
330
22219
100
AcDbEntity
  8
寸法
 62
     0
 48
50.0
370
    -2
100
AcDbBlockReference
  2
_DOTSMALL
 10
7236.6
 20
8520.149966081998
 30
0.0
 41
100.0
 42
100.0
 43
100.0
  0
INSERT
  5
22776
330
22219
100
AcDbEntity
  8
寸法
 62
     0
 48
50.0
370
    -2
100
AcDbBlockReference
  2
_DOTSMALL
 10
7113.600000000001
 20
8520.149966081998
 30
0.0
 41
100.0
 42
100.0
 43
100.0
 50
180.0
  0
MTEXT
  5
22777
330
22219
100
AcDbEntity
  8
寸法
 62
     7
 48
50.0
100
AcDbMText
 10
6840.493398282203
 20
8620.16177710562
 30
0.0
 40
120.0
 41
0.0
 71
     5
 72
     1
  1
\A1;123
  7
STYLE1
 73
     1
 44
1.0
1001
ACAD
1000
MTEXTBEGIN
1070
    73
1070
     1
1070
    44
1040
1.0
1070
    74
1070
     0
1000
MTEXTEND
  0
POINT
  5
22778
330
22219
100
AcDbEntity
  8
DEFPOINTS
 62
     0
 48
50.0
100
AcDbPoint
 10
7236.6
 20
7683.907777930206
 30
0.0
  0
POINT
  5
22779
330
22219
100
AcDbEntity
  8
DEFPOINTS
 62
     0
 48
50.0
100
AcDbPoint
 10
7113.600000000001
 20
7756.907777930206
 30
0.0
  0
POINT
  5
2277A
330
22219
100
AcDbEntity
  8
DEFPOINTS
 62
     0
 48
50.0
100
AcDbPoint
 10
7113.600000000001
 20
8520.149966081998
 30
0.0
  0
ENDBLK
  5
22225
330
22219
100
AcDbEntity
  8
0
 48
50.0
100
AcDbBlockEnd
  0
BLOCK
  5
2222F
330
22226
100
AcDbEntity
  8
0
 48
50.0
100
AcDbBlockBegin
  2
*D21
 70
     1
 10
0.0
 20
0.0
 30
0.0
  3
*D21
  1

  0
LINE
  5
22768
330
22226
100
AcDbEntity
  8
寸法
 62
     0
 48
50.0
370
    -2
100
AcDbLine
 10
7113.600000000001
 20
7776.907777930206
 30
0.0
 11
7113.600000000001
 21
8792.610661598834
 31
0.0
  0
LINE
  5
22769
330
22226
100
AcDbEntity
  8
寸法
 62
     0
 48
50.0
370
    -2
100
AcDbLine
 10
9333.6
 20
7776.907777930206
 30
0.0
 11
9333.6
 21
8792.610661598834
 31
0.0
  0
LINE
  5
2276A
330
22226
100
AcDbEntity
  8
寸法
 62
     0
 48
50.0
370
    -2
100
AcDbLine
 10
7113.600000000001
 20
8732.610661598833
 30
0.0
 11
9333.6
 21
8732.610661598833
 31
0.0
  0
INSERT
  5
2276B
330
22226
100
AcDbEntity
  8
寸法
 62
     0
 48
50.0
370
    -2
100
AcDbBlockReference
  2
_DOTSMALL
 10
7113.600000000001
 20
8732.610661598833
 30
0.0
 41
100.0
 42
100.0
 43
100.0
 50
180.0
  0
INSERT
  5
2276C
330
22226
100
AcDbEntity
  8
寸法
 62
     0
 48
50.0
370
    -2
100
AcDbBlockReference
  2
_DOTSMALL
 10
9333.6
 20
8732.610661598833
 30
0.0
 41
100.0
 42
100.0
 43
100.0
  0
MTEXT
  5
2276D
330
22226
100
AcDbEntity
  8
寸法
 62
     7
 48
50.0
100
AcDbMText
 10
8223.600000000001
 20
8832.622472622455
 30
0.0
 40
120.0
 41
0.0
 71
     5
 72
     1
  1
\A1;2220
  7
STYLE1
 73
     1
 44
1.0
1001
ACAD
1000
MTEXTBEGIN
1070
    73
1070
     1
1070
    44
1040
1.0
1070
    74
1070
     0
1000
MTEXTEND
  0
POINT
  5
2276E
330
22226
100
AcDbEntity
  8
DEFPOINTS
 62
     0
 48
50.0
100
AcDbPoint
 10
7113.600000000001
 20
7756.907777930206
 30
0.0
  0
POINT
  5
2276F
330
22226
100
AcDbEntity
  8
DEFPOINTS
 62
     0
 48
50.0
100
AcDbPoint
 10
9333.6
 20
7756.907777930206
 30
0.0
  0
POINT
  5
22770
330
22226
100
AcDbEntity
  8
DEFPOINTS
 62
     0
 48
50.0
100
AcDbPoint
 10
9333.6
 20
8732.610661598833
 30
0.0
  0
ENDBLK
  5
22230
330
22226
100
AcDbEntity
  8
0
 48
50.0
100
AcDbBlockEnd
  0
BLOCK
  5
2223A
330
22231
100
AcDbEntity
  8
0
 48
50.0
100
AcDbBlockBegin
  2
*D22
 70
     1
 10
0.0
 20
0.0
 30
0.0
  3
*D22
  1

  0
LINE
  5
2275F
330
22231
100
AcDbEntity
  8
寸法
 62
     0
 48
50.0
370
    -2
100
AcDbLine
 10
9210.600000000001
 20
7703.907777930206
 30
0.0
 11
9210.600000000001
 21
8580.149966081997
 31
0.0
  0
LINE
  5
22760
330
22231
100
AcDbEntity
  8
寸法
 62
     0
 48
50.0
370
    -2
100
AcDbLine
 10
7236.6
 20
7703.907777930206
 30
0.0
 11
7236.6
 21
8580.149966081997
 31
0.0
  0
LINE
  5
22761
330
22231
100
AcDbEntity
  8
寸法
 62
     0
 48
50.0
370
    -2
100
AcDbLine
 10
9210.600000000001
 20
8520.149966081998
 30
0.0
 11
7236.6
 21
8520.149966081998
 31
0.0
  0
INSERT
  5
22762
330
22231
100
AcDbEntity
  8
寸法
 62
     0
 48
50.0
370
    -2
100
AcDbBlockReference
  2
_DOTSMALL
 10
9210.600000000001
 20
8520.149966081998
 30
0.0
 41
100.0
 42
100.0
 43
100.0
  0
INSERT
  5
22763
330
22231
100
AcDbEntity
  8
寸法
 62
     0
 48
50.0
370
    -2
100
AcDbBlockReference
  2
_DOTSMALL
 10
7236.6
 20
8520.149966081998
 30
0.0
 41
100.0
 42
100.0
 43
100.0
 50
180.0
  0
MTEXT
  5
22764
330
22231
100
AcDbEntity
  8
寸法
 62
     7
 48
50.0
100
AcDbMText
 10
8223.600000000001
 20
8620.149966081998
 30
0.0
 40
120.0
 41
0.0
 71
     5
 72
     1
  1
\A1;1974
  7
STYLE1
 73
     1
 44
1.0
1001
ACAD
1000
MTEXTBEGIN
1070
    73
1070
     1
1070
    44
1040
1.0
1070
    74
1070
     0
1000
MTEXTEND
  0
POINT
  5
22765
330
22231
100
AcDbEntity
  8
DEFPOINTS
 62
     0
 48
50.0
100
AcDbPoint
 10
9210.600000000001
 20
7683.907777930206
 30
0.0
  0
POINT
  5
22766
330
22231
100
AcDbEntity
  8
DEFPOINTS
 62
     0
 48
50.0
100
AcDbPoint
 10
7236.6
 20
7683.907777930206
 30
0.0
  0
POINT
  5
22767
330
22231
100
AcDbEntity
  8
DEFPOINTS
 62
     0
 48
50.0
100
AcDbPoint
 10
7236.6
 20
8520.149966081998
 30
0.0
  0
ENDBLK
  5
2223B
330
22231
100
AcDbEntity
  8
0
 48
50.0
100
AcDbBlockEnd
  0
BLOCK
  5
2225C
330
22251
100
AcDbEntity
  8
0
 48
50.0
100
AcDbBlockBegin
  2
*D23
 70
     1
 10
0.0
 20
0.0
 30
0.0
  3
*D23
  1

  0
LINE
  5
22741
330
22251
100
AcDbEntity
  8
寸法
 62
     0
 48
50.0
370
    -2
100
AcDbLine
 10
7093.600000000001
 20
7756.907777930206
 30
0.0
 11
6184.296915797614
 21
7756.907777930206
 31
0.0
  0
LINE
  5
22742
330
22251
100
AcDbEntity
  8
寸法
 62
     0
 48
50.0
370
    -2
100
AcDbLine
 10
7166.600000000001
 20
7633.907777930206
 30
0.0
 11
6184.296915797614
 21
7633.907777930206
 31
0.0
  0
LINE
  5
22743
330
22251
100
AcDbEntity
  8
寸法
 62
     0
 48
50.0
370
    -2
100
AcDbLine
 10
6244.296915797614
 20
7633.907777930206
 30
0.0
 11
6244.296915797614
 21
7756.907777930206
 31
0.0
  0
LINE
  5
22744
330
22251
100
AcDbEntity
  8
寸法
 62
     0
 48
50.0
370
    -2
100
AcDbLine
 10
6244.296915797614
 20
7756.907777930206
 30
0.0
 11
6244.296915797614
 21
8208.499661022241
 31
0.0
  0
INSERT
  5
22745
330
22251
100
AcDbEntity
  8
寸法
 62
     0
 48
50.0
370
    -2
100
AcDbBlockReference
  2
_DOTSMALL
 10
6244.296915797614
 20
7633.907777930206
 30
0.0
 41
100.0
 42
100.0
 43
100.0
 50
270.0
  0
INSERT
  5
22746
330
22251
100
AcDbEntity
  8
寸法
 62
     0
 48
50.0
370
    -2
100
AcDbBlockReference
  2
_DOTSMALL
 10
6244.296915797614
 20
7756.907777930206
 30
0.0
 41
100.0
 42
100.0
 43
100.0
 50
90.0
  0
MTEXT
  5
22747
330
22251
100
AcDbEntity
  8
寸法
 62
     7
 48
50.0
100
AcDbMText
 10
6144.285104773992
 20
8070.014379648005
 30
0.0
 40
120.0
 41
0.0
 71
     5
 72
     1
  1
\A1;123
  7
STYLE1
 11
0.0000000000000001
 21
1.0
 31
0.0
 73
     1
 44
1.0
1001
ACAD
1000
MTEXTBEGIN
1070
    73
1070
     1
1070
    44
1040
1.0
1070
    74
1070
     0
1000
MTEXTEND
  0
POINT
  5
22748
330
22251
100
AcDbEntity
  8
DEFPOINTS
 62
     0
 48
50.0
100
AcDbPoint
 10
7113.600000000001
 20
7756.907777930206
 30
0.0
  0
POINT
  5
22749
330
22251
100
AcDbEntity
  8
DEFPOINTS
 62
     0
 48
50.0
100
AcDbPoint
 10
7186.6
 20
7633.907777930206
 30
0.0
  0
POINT
  5
2274A
330
22251
100
AcDbEntity
  8
DEFPOINTS
 62
     0
 48
50.0
100
AcDbPoint
 10
6244.296915797614
 20
7633.907777930206
 30
0.0
  0
ENDBLK
  5
2225D
330
22251
100
AcDbEntity
  8
0
 48
50.0
100
AcDbBlockEnd
  0
BLOCK
  5
22269
330
2225E
100
AcDbEntity
  8
0
 48
50.0
100
AcDbBlockBegin
  2
*D24
 70
     1
 10
0.0
 20
0.0
 30
0.0
  3
*D24
  1

  0
LINE
  5
22737
330
2225E
100
AcDbEntity
  8
寸法
 62
     0
 48
50.0
370
    -2
100
AcDbLine
 10
7166.600000000008
 20
6079.907777930208
 30
0.0
 11
6184.296915797614
 21
6079.907777930208
 31
0.0
  0
LINE
  5
22738
330
2225E
100
AcDbEntity
  8
寸法
 62
     0
 48
50.0
370
    -2
100
AcDbLine
 10
7093.600000000001
 20
5956.907777930206
 30
0.0
 11
6184.296915797614
 21
5956.907777930206
 31
0.0
  0
LINE
  5
22739
330
2225E
100
AcDbEntity
  8
寸法
 62
     0
 48
50.0
370
    -2
100
AcDbLine
 10
6244.296915797614
 20
6079.907777930208
 30
0.0
 11
6244.296915797614
 21
5956.907777930206
 31
0.0
  0
LINE
  5
2273A
330
2225E
100
AcDbEntity
  8
寸法
 62
     0
 48
50.0
370
    -2
100
AcDbLine
 10
6244.296915797614
 20
5956.907777930206
 30
0.0
 11
6244.296915797614
 21
5545.315894838167
 31
0.0
  0
INSERT
  5
2273B
330
2225E
100
AcDbEntity
  8
寸法
 62
     0
 48
50.0
370
    -2
100
AcDbBlockReference
  2
_DOTSMALL
 10
6244.296915797614
 20
6079.907777930208
 30
0.0
 41
100.0
 42
100.0
 43
100.0
 50
90.0
  0
INSERT
  5
2273C
330
2225E
100
AcDbEntity
  8
寸法
 62
     0
 48
50.0
370
    -2
100
AcDbBlockReference
  2
_DOTSMALL
 10
6244.296915797614
 20
5956.907777930206
 30
0.0
 41
100.0
 42
100.0
 43
100.0
 50
270.0
  0
MTEXT
  5
2273D
330
2225E
100
AcDbEntity
  8
寸法
 62
     7
 48
50.0
100
AcDbMText
 10
6144.285104773992
 20
5683.801176212408
 30
0.0
 40
120.0
 41
0.0
 71
     5
 72
     1
  1
\A1;123
  7
STYLE1
 11
0.0000000000000001
 21
1.0
 31
0.0
 73
     1
 44
1.0
1001
ACAD
1000
MTEXTBEGIN
1070
    73
1070
     1
1070
    44
1040
1.0
1070
    74
1070
     0
1000
MTEXTEND
  0
POINT
  5
2273E
330
2225E
100
AcDbEntity
  8
DEFPOINTS
 62
     0
 48
50.0
100
AcDbPoint
 10
7186.600000000009
 20
6079.907777930208
 30
0.0
  0
POINT
  5
2273F
330
2225E
100
AcDbEntity
  8
DEFPOINTS
 62
     0
 48
50.0
100
AcDbPoint
 10
7113.600000000001
 20
5956.907777930206
 30
0.0
  0
POINT
  5
22740
330
2225E
100
AcDbEntity
  8
DEFPOINTS
 62
     0
 48
50.0
100
AcDbPoint
 10
6244.296915797614
 20
5956.907777930206
 30
0.0
  0
ENDBLK
  5
2226A
330
2225E
100
AcDbEntity
  8
0
 48
50.0
100
AcDbBlockEnd
  0
BLOCK
  5
22280
330
22277
100
AcDbEntity
  8
0
 48
50.0
100
AcDbBlockBegin
  2
*D25
 70
     1
 10
0.0
 20
0.0
 30
0.0
  3
*D25
  1

  0
LINE
  5
22723
330
22277
100
AcDbEntity
  8
寸法
 62
     0
 48
50.0
370
    -2
100
AcDbLine
 10
7093.600000000001
 20
5956.90777793021
 30
0.0
 11
5938.804113659645
 21
5956.907777930211
 31
0.0
  0
LINE
  5
22724
330
22277
100
AcDbEntity
  8
寸法
 62
     0
 48
50.0
370
    -2
100
AcDbLine
 10
7093.600000000001
 20
7756.90777793021
 30
0.0
 11
5938.804113659646
 21
7756.90777793021
 31
0.0
  0
LINE
  5
22725
330
22277
100
AcDbEntity
  8
寸法
 62
     0
 48
50.0
370
    -2
100
AcDbLine
 10
5998.804113659645
 20
5956.907777930211
 30
0.0
 11
5998.804113659645
 21
7756.90777793021
 31
0.0
  0
INSERT
  5
22726
330
22277
100
AcDbEntity
  8
寸法
 62
     0
 48
50.0
370
    -2
100
AcDbBlockReference
  2
_DOTSMALL
 10
5998.804113659645
 20
5956.907777930211
 30
0.0
 41
100.0
 42
100.0
 43
100.0
 50
270.0
  0
INSERT
  5
22727
330
22277
100
AcDbEntity
  8
寸法
 62
     0
 48
50.0
370
    -2
100
AcDbBlockReference
  2
_DOTSMALL
 10
5998.804113659645
 20
7756.90777793021
 30
0.0
 41
100.0
 42
100.0
 43
100.0
 50
90.0
  0
MTEXT
  5
22728
330
22277
100
AcDbEntity
  8
寸法
 62
     7
 48
50.0
100
AcDbMText
 10
5898.804113659644
 20
6856.907777930212
 30
0.0
 40
120.0
 41
0.0
 71
     5
 72
     1
  1
\A1;1800
  7
STYLE1
 11
0.0000000000000001
 21
1.0
 31
0.0
 73
     1
 44
1.0
1001
ACAD
1000
MTEXTBEGIN
1070
    73
1070
     1
1070
    44
1040
1.0
1070
    74
1070
     0
1000
MTEXTEND
  0
POINT
  5
22729
330
22277
100
AcDbEntity
  8
DEFPOINTS
 62
     0
 48
50.0
100
AcDbPoint
 10
7113.600000000001
 20
5956.90777793021
 30
0.0
  0
POINT
  5
2272A
330
22277
100
AcDbEntity
  8
DEFPOINTS
 62
     0
 48
50.0
100
AcDbPoint
 10
7113.600000000001
 20
7756.90777793021
 30
0.0
  0
POINT
  5
2272B
330
22277
100
AcDbEntity
  8
DEFPOINTS
 62
     0
 48
50.0
100
AcDbPoint
 10
5998.804113659645
 20
7756.90777793021
 30
0.0
  0
ENDBLK
  5
22281
330
22277
100
AcDbEntity
  8
0
 48
50.0
100
AcDbBlockEnd
  0
BLOCK
  5
2228C
330
22282
100
AcDbEntity
  8
0
 48
50.0
100
AcDbBlockBegin
  2
*D26
 70
     1
 10
0.0
 20
0.0
 30
0.0
  3
*D26
  1

  0
LINE
  5
2271A
330
22282
100
AcDbEntity
  8
寸法
 62
     0
 48
50.0
370
    -2
100
AcDbLine
 10
7166.600000000001
 20
7633.907777930206
 30
0.0
 11
6184.296915797615
 21
7633.907777930206
 31
0.0
  0
LINE
  5
2271B
330
22282
100
AcDbEntity
  8
寸法
 62
     0
 48
50.0
370
    -2
100
AcDbLine
 10
7166.600000000008
 20
6079.907777930208
 30
0.0
 11
6184.296915797614
 21
6079.907777930208
 31
0.0
  0
LINE
  5
2271C
330
22282
100
AcDbEntity
  8
寸法
 62
     0
 48
50.0
370
    -2
100
AcDbLine
 10
6244.296915797615
 20
7633.907777930206
 30
0.0
 11
6244.296915797614
 21
6079.907777930208
 31
0.0
  0
INSERT
  5
2271D
330
22282
100
AcDbEntity
  8
寸法
 62
     0
 48
50.0
370
    -2
100
AcDbBlockReference
  2
_DOTSMALL
 10
6244.296915797615
 20
7633.907777930206
 30
0.0
 41
100.0
 42
100.0
 43
100.0
 50
90.0
  0
INSERT
  5
2271E
330
22282
100
AcDbEntity
  8
寸法
 62
     0
 48
50.0
370
    -2
100
AcDbBlockReference
  2
_DOTSMALL
 10
6244.296915797614
 20
6079.907777930208
 30
0.0
 41
100.0
 42
100.0
 43
100.0
 50
270.0
  0
MTEXT
  5
2271F
330
22282
100
AcDbEntity
  8
寸法
 62
     7
 48
50.0
100
AcDbMText
 10
6144.296915797613
 20
6911.629496921214
 30
0.0
 40
120.0
 41
0.0
 71
     5
 72
     1
  1
\A1;1554
  7
STYLE1
 11
0.0000000000000001
 21
1.0
 31
0.0
 73
     1
 44
1.0
1001
ACAD
1000
MTEXTBEGIN
1070
    73
1070
     1
1070
    44
1040
1.0
1070
    74
1070
     0
1000
MTEXTEND
  0
POINT
  5
22720
330
22282
100
AcDbEntity
  8
DEFPOINTS
 62
     0
 48
50.0
100
AcDbPoint
 10
7186.6
 20
7633.907777930206
 30
0.0
  0
POINT
  5
22721
330
22282
100
AcDbEntity
  8
DEFPOINTS
 62
     0
 48
50.0
100
AcDbPoint
 10
7186.600000000009
 20
6079.907777930208
 30
0.0
  0
POINT
  5
22722
330
22282
100
AcDbEntity
  8
DEFPOINTS
 62
     0
 48
50.0
100
AcDbPoint
 10
6244.296915797614
 20
6079.907777930208
 30
0.0
  0
ENDBLK
  5
2228D
330
22282
100
AcDbEntity
  8
0
 48
50.0
100
AcDbBlockEnd
  0
BLOCK
  5
222A5
330
2229B
100
AcDbEntity
  8
0
 48
50.0
100
AcDbBlockBegin
  2
*D27
 70
     1
 10
0.0
 20
0.0
 30
0.0
  3
*D27
  1

  0
LINE
  5
237C2
330
2229B
100
AcDbEntity
  8
寸法
 62
     0
 48
50.0
370
    -2
100
AcDbLine
 10
7093.600000000001
 20
5956.907777930217
 30
0.0
 11
6436.67693520453
 21
5956.907777930217
 31
0.0
  0
LINE
  5
237C3
330
2229B
100
AcDbEntity
  8
寸法
 62
     0
 48
50.0
370
    -2
100
AcDbLine
 10
7757.600000000003
 20
6856.907777930207
 30
0.0
 11
6436.676935204532
 21
6856.907777930207
 31
0.0
  0
LINE
  5
237C4
330
2229B
100
AcDbEntity
  8
寸法
 62
     0
 48
50.0
370
    -2
100
AcDbLine
 10
6496.676935204532
 20
5956.907777930217
 30
0.0
 11
6496.676935204532
 21
6856.907777930207
 31
0.0
  0
INSERT
  5
237C5
330
2229B
100
AcDbEntity
  8
寸法
 62
     0
 48
50.0
370
    -2
100
AcDbBlockReference
  2
_DOTSMALL
 10
6496.676935204532
 20
5956.907777930217
 30
0.0
 41
100.0
 42
100.0
 43
100.0
 50
270.0
  0
INSERT
  5
237C6
330
2229B
100
AcDbEntity
  8
寸法
 62
     0
 48
50.0
370
    -2
100
AcDbBlockReference
  2
_DOTSMALL
 10
6496.676935204532
 20
6856.907777930207
 30
0.0
 41
100.0
 42
100.0
 43
100.0
 50
90.0
  0
MTEXT
  5
237C7
330
2229B
100
AcDbEntity
  8
寸法
 62
     7
 48
50.0
100
AcDbMText
 10
6396.67693520453
 20
6348.90006738398
 30
0.0
 40
120.0
 41
0.0
 71
     5
 72
     1
  1
\A1;900
  7
STYLE1
 11
0.0000000000000001
 21
1.0
 31
0.0
 73
     1
 44
1.0
1001
ACAD
1000
MTEXTBEGIN
1070
    73
1070
     1
1070
    44
1040
1.0
1070
    74
1070
     0
1000
MTEXTEND
  0
POINT
  5
237C8
330
2229B
100
AcDbEntity
  8
DEFPOINTS
 62
     0
 48
50.0
100
AcDbPoint
 10
7113.600000000001
 20
5956.907777930217
 30
0.0
  0
POINT
  5
237C9
330
2229B
100
AcDbEntity
  8
DEFPOINTS
 62
     0
 48
50.0
100
AcDbPoint
 10
7777.600000000004
 20
6856.907777930207
 30
0.0
  0
POINT
  5
237CA
330
2229B
100
AcDbEntity
  8
DEFPOINTS
 62
     0
 48
50.0
100
AcDbPoint
 10
6496.676935204532
 20
6856.907777930207
 30
0.0
  0
ENDBLK
  5
222A6
330
2229B
100
AcDbEntity
  8
0
 48
50.0
100
AcDbBlockEnd
  0
BLOCK
  5
222B2
330
222A7
100
AcDbEntity
  8
0
 48
50.0
100
AcDbBlockBegin
  2
*D28
 70
     1
 10
0.0
 20
0.0
 30
0.0
  3
*D28
  1

  0
LINE
  5
23BDF
330
222A7
100
AcDbEntity
  8
寸法
 62
     0
 48
50.0
370
    -2
100
AcDbLine
 10
7093.600000000001
 20
5881.907777930206
 30
0.0
 11
6751.587447470277
 21
5881.907777930206
 31
0.0
  0
LINE
  5
23BE0
330
222A7
100
AcDbEntity
  8
寸法
 62
     0
 48
50.0
370
    -2
100
AcDbLine
 10
6713.600000000001
 20
5956.907777930206
 30
0.0
 11
6871.587447470277
 21
5956.907777930206
 31
0.0
  0
LINE
  5
23BE1
330
222A7
100
AcDbEntity
  8
寸法
 62
     0
 48
50.0
370
    -2
100
AcDbLine
 10
6811.587447470277
 20
5956.907777930206
 30
0.0
 11
6811.587447470277
 21
6056.907777930206
 31
0.0
  0
LINE
  5
23BE2
330
222A7
100
AcDbEntity
  8
寸法
 62
     0
 48
50.0
370
    -2
100
AcDbLine
 10
6811.587447470277
 20
5881.907777930206
 30
0.0
 11
6811.587447470277
 21
5014.937215181729
 31
0.0
  0
LINE
  5
23BE3
330
222A7
100
AcDbEntity
  8
寸法
 62
     0
 48
50.0
370
    -2
100
AcDbLine
 10
6811.587447470277
 20
5956.907777930206
 30
0.0
 11
6811.587447470277
 21
5881.907777930206
 31
0.0
  0
INSERT
  5
23BE4
330
222A7
100
AcDbEntity
  8
寸法
 62
     0
 48
50.0
370
    -2
100
AcDbBlockReference
  2
_DOTSMALL
 10
6811.587447470277
 20
5956.907777930206
 30
0.0
 41
100.0
 42
100.0
 43
100.0
 50
270.0
  0
INSERT
  5
23BE5
330
222A7
100
AcDbEntity
  8
寸法
 62
     0
 48
50.0
370
    -2
100
AcDbBlockReference
  2
_DOTSMALL
 10
6811.587447470277
 20
5881.907777930206
 30
0.0
 41
100.0
 42
100.0
 43
100.0
 50
90.0
  0
MTEXT
  5
23BE6
330
222A7
100
AcDbEntity
  8
寸法
 62
     7
 48
50.0
100
AcDbMText
 10
6711.587447470276
 20
5348.422496555969
 30
0.0
 40
120.0
 41
0.0
 71
     5
 72
     1
  1
\A1;扉の出75
  7
STYLE1
 11
0.0000000000000001
 21
1.0
 31
0.0
 73
     1
 44
1.0
1001
ACAD
1000
MTEXTBEGIN
1070
    73
1070
     1
1070
    44
1040
1.0
1070
    74
1070
     0
1000
MTEXTEND
  0
POINT
  5
23BE7
330
222A7
100
AcDbEntity
  8
DEFPOINTS
 62
     0
 48
50.0
100
AcDbPoint
 10
7113.600000000001
 20
5881.907777930206
 30
0.0
  0
POINT
  5
23BE8
330
222A7
100
AcDbEntity
  8
DEFPOINTS
 62
     0
 48
50.0
100
AcDbPoint
 10
6693.6
 20
5956.907777930206
 30
0.0
  0
POINT
  5
23BE9
330
222A7
100
AcDbEntity
  8
DEFPOINTS
 62
     0
 48
50.0
100
AcDbPoint
 10
6811.587447470277
 20
5956.907777930206
 30
0.0
  0
ENDBLK
  5
222B3
330
222A7
100
AcDbEntity
  8
0
 48
50.0
100
AcDbBlockEnd
  0
BLOCK
  5
222BD
330
222B4
100
AcDbEntity
  8
0
 48
50.0
100
AcDbBlockBegin
  2
*D29
 70
     1
 10
0.0
 20
0.0
 30
0.0
  3
*D29
  1

  0
LINE
  5
237B9
330
222B4
100
AcDbEntity
  8
寸法
 62
     0
 48
50.0
370
    -2
100
AcDbLine
 10
7757.600000000003
 20
6856.907777930207
 30
0.0
 11
6436.676935204532
 21
6856.907777930207
 31
0.0
  0
LINE
  5
237BA
330
222B4
100
AcDbEntity
  8
寸法
 62
     0
 48
50.0
370
    -2
100
AcDbLine
 10
7093.600000000001
 20
7756.907777930206
 30
0.0
 11
6436.676935204532
 21
7756.907777930206
 31
0.0
  0
LINE
  5
237BB
330
222B4
100
AcDbEntity
  8
寸法
 62
     0
 48
50.0
370
    -2
100
AcDbLine
 10
6496.676935204532
 20
6856.907777930207
 30
0.0
 11
6496.676935204532
 21
7756.907777930206
 31
0.0
  0
INSERT
  5
237BC
330
222B4
100
AcDbEntity
  8
寸法
 62
     0
 48
50.0
370
    -2
100
AcDbBlockReference
  2
_DOTSMALL
 10
6496.676935204532
 20
6856.907777930207
 30
0.0
 41
100.0
 42
100.0
 43
100.0
 50
270.0
  0
INSERT
  5
237BD
330
222B4
100
AcDbEntity
  8
寸法
 62
     0
 48
50.0
370
    -2
100
AcDbBlockReference
  2
_DOTSMALL
 10
6496.676935204532
 20
7756.907777930206
 30
0.0
 41
100.0
 42
100.0
 43
100.0
 50
90.0
  0
MTEXT
  5
237BE
330
222B4
100
AcDbEntity
  8
寸法
 62
     7
 48
50.0
100
AcDbMText
 10
6396.67693520453
 20
7306.907777930208
 30
0.0
 40
120.0
 41
0.0
 71
     5
 72
     1
  1
\A1;900
  7
STYLE1
 11
0.0000000000000001
 21
1.0
 31
0.0
 73
     1
 44
1.0
1001
ACAD
1000
MTEXTBEGIN
1070
    73
1070
     1
1070
    44
1040
1.0
1070
    74
1070
     0
1000
MTEXTEND
  0
POINT
  5
237BF
330
222B4
100
AcDbEntity
  8
DEFPOINTS
 62
     0
 48
50.0
100
AcDbPoint
 10
7777.600000000004
 20
6856.907777930207
 30
0.0
  0
POINT
  5
237C0
330
222B4
100
AcDbEntity
  8
DEFPOINTS
 62
     0
 48
50.0
100
AcDbPoint
 10
7113.600000000001
 20
7756.907777930206
 30
0.0
  0
POINT
  5
237C1
330
222B4
100
AcDbEntity
  8
DEFPOINTS
 62
     0
 48
50.0
100
AcDbPoint
 10
6496.676935204532
 20
7756.907777930206
 30
0.0
  0
ENDBLK
  5
222BE
330
222B4
100
AcDbEntity
  8
0
 48
50.0
100
AcDbBlockEnd
  0
BLOCK
  5
229CE
330
229C3
100
AcDbEntity
  8
0
 48
50.0
100
AcDbBlockBegin
  2
*D30
 70
     1
 10
0.0
 20
0.0
 30
0.0
  3
*D30
  1

  0
LINE
  5
24841
330
229C3
100
AcDbEntity
  8
寸法
 62
     0
 48
50.0
370
    -2
100
AcDbLine
 10
9213.600000000001
 20
7506.907777930206
 30
0.0
 11
9213.600000000001
 21
7296.106208443709
 31
0.0
  0
LINE
  5
24842
330
229C3
100
AcDbEntity
  8
寸法
 62
     0
 48
50.0
370
    -2
100
AcDbLine
 10
9103.6
 20
7506.907777930205
 30
0.0
 11
9103.6
 21
7296.106208443709
 31
0.0
  0
LINE
  5
24843
330
229C3
100
AcDbEntity
  8
寸法
 62
     0
 48
50.0
370
    -2
100
AcDbLine
 10
9213.600000000001
 20
7356.106208443709
 30
0.0
 11
9103.6
 21
7356.106208443709
 31
0.0
  0
LINE
  5
24844
330
229C3
100
AcDbEntity
  8
寸法
 62
     0
 48
50.0
370
    -2
100
AcDbLine
 10
9103.6
 20
7356.106208443709
 30
0.0
 11
8708.796146023543
 21
7356.106208443709
 31
0.0
  0
INSERT
  5
24845
330
229C3
100
AcDbEntity
  8
寸法
 62
     0
 48
50.0
370
    -2
100
AcDbBlockReference
  2
_DOTSMALL
 10
9213.600000000001
 20
7356.106208443709
 30
0.0
 41
100.0
 42
100.0
 43
100.0
  0
INSERT
  5
24846
330
229C3
100
AcDbEntity
  8
寸法
 62
     0
 48
50.0
370
    -2
100
AcDbBlockReference
  2
_DOTSMALL
 10
9103.6
 20
7356.106208443709
 30
0.0
 41
100.0
 42
100.0
 43
100.0
 50
180.0
  0
MTEXT
  5
24847
330
229C3
100
AcDbEntity
  8
寸法
 62
     7
 48
50.0
100
AcDbMText
 10
8832.843390118034
 20
7456.10620844371
 30
0.0
 40
120.0
 41
0.0
 71
     5
 72
     1
  1
\A1;110
  7
STYLE1
 73
     1
 44
1.0
1001
ACAD
1000
MTEXTBEGIN
1070
    73
1070
     1
1070
    44
1040
1.0
1070
    74
1070
     0
1000
MTEXTEND
  0
POINT
  5
24848
330
229C3
100
AcDbEntity
  8
DEFPOINTS
 62
     0
 48
50.0
100
AcDbPoint
 10
9213.600000000001
 20
7526.907777930206
 30
0.0
  0
POINT
  5
24849
330
229C3
100
AcDbEntity
  8
DEFPOINTS
 62
     0
 48
50.0
100
AcDbPoint
 10
9103.6
 20
7526.907777930204
 30
0.0
  0
POINT
  5
2484A
330
229C3
100
AcDbEntity
  8
DEFPOINTS
 62
     0
 48
50.0
100
AcDbPoint
 10
9103.6
 20
7356.106208443709
 30
0.0
  0
ENDBLK
  5
229CF
330
229C3
100
AcDbEntity
  8
0
 48
50.0
100
AcDbBlockEnd
  0
BLOCK
  5
229DB
330
229D0
100
AcDbEntity
  8
0
 48
50.0
100
AcDbBlockBegin
  2
*D31
 70
     1
 10
0.0
 20
0.0
 30
0.0
  3
*D31
  1

  0
LINE
  5
24837
330
229D0
100
AcDbEntity
  8
寸法
 62
     0
 48
50.0
370
    -2
100
AcDbLine
 10
9213.599999999997
 20
7506.907777930206
 30
0.0
 11
9213.599999999997
 21
7296.106208443709
 31
0.0
  0
LINE
  5
24838
330
229D0
100
AcDbEntity
  8
寸法
 62
     0
 48
50.0
370
    -2
100
AcDbLine
 10
9333.600000000002
 20
7481.907777930202
 30
0.0
 11
9333.600000000002
 21
7296.106208443709
 31
0.0
  0
LINE
  5
24839
330
229D0
100
AcDbEntity
  8
寸法
 62
     0
 48
50.0
370
    -2
100
AcDbLine
 10
9213.599999999997
 20
7356.106208443709
 30
0.0
 11
9333.600000000002
 21
7356.106208443709
 31
0.0
  0
LINE
  5
2483A
330
229D0
100
AcDbEntity
  8
寸法
 62
     0
 48
50.0
370
    -2
100
AcDbLine
 10
9333.600000000002
 20
7356.106208443709
 30
0.0
 11
9747.730787367373
 21
7356.106208443709
 31
0.0
  0
INSERT
  5
2483B
330
229D0
100
AcDbEntity
  8
寸法
 62
     0
 48
50.0
370
    -2
100
AcDbBlockReference
  2
_DOTSMALL
 10
9213.599999999997
 20
7356.106208443709
 30
0.0
 41
100.0
 42
100.0
 43
100.0
 50
180.0
  0
INSERT
  5
2483C
330
229D0
100
AcDbEntity
  8
寸法
 62
     0
 48
50.0
370
    -2
100
AcDbBlockReference
  2
_DOTSMALL
 10
9333.600000000002
 20
7356.106208443709
 30
0.0
 41
100.0
 42
100.0
 43
100.0
  0
MTEXT
  5
2483D
330
229D0
100
AcDbEntity
  8
寸法
 62
     7
 48
50.0
100
AcDbMText
 10
9611.683543272885
 20
7456.118019467331
 30
0.0
 40
120.0
 41
0.0
 71
     5
 72
     1
  1
\A1;120
  7
STYLE1
 73
     1
 44
1.0
1001
ACAD
1000
MTEXTBEGIN
1070
    73
1070
     1
1070
    44
1040
1.0
1070
    74
1070
     0
1000
MTEXTEND
  0
POINT
  5
2483E
330
229D0
100
AcDbEntity
  8
DEFPOINTS
 62
     0
 48
50.0
100
AcDbPoint
 10
9213.599999999997
 20
7526.907777930206
 30
0.0
  0
POINT
  5
2483F
330
229D0
100
AcDbEntity
  8
DEFPOINTS
 62
     0
 48
50.0
100
AcDbPoint
 10
9333.600000000002
 20
7501.907777930203
 30
0.0
  0
POINT
  5
24840
330
229D0
100
AcDbEntity
  8
DEFPOINTS
 62
     0
 48
50.0
100
AcDbPoint
 10
9333.600000000002
 20
7356.106208443709
 30
0.0
  0
ENDBLK
  5
229DC
330
229D0
100
AcDbEntity
  8
0
 48
50.0
100
AcDbBlockEnd
  0
BLOCK
  5
23604
330
235FA
100
AcDbEntity
  8
0
 48
50.0
100
AcDbBlockBegin
  2
*D32
 70
     1
 10
0.0
 20
0.0
 30
0.0
  3
*D32
  1

  0
LINE
  5
237B0
330
235FA
100
AcDbEntity
  8
寸法
 62
     0
 48
50.0
370
    -2
100
AcDbLine
 10
7877.600000000004
 20
6976.907777930214
 30
0.0
 11
7877.600000000004
 21
8343.817543578534
 31
0.0
  0
LINE
  5
237B1
330
235FA
100
AcDbEntity
  8
寸法
 62
     0
 48
50.0
370
    -2
100
AcDbLine
 10
8569.600000000004
 20
6976.907777930214
 30
0.0
 11
8569.600000000004
 21
8343.817543578534
 31
0.0
  0
LINE
  5
237B2
330
235FA
100
AcDbEntity
  8
寸法
 62
     0
 48
50.0
370
    -2
100
AcDbLine
 10
7877.600000000004
 20
8283.817543578534
 30
0.0
 11
8569.600000000004
 21
8283.817543578534
 31
0.0
  0
INSERT
  5
237B3
330
235FA
100
AcDbEntity
  8
寸法
 62
     0
 48
50.0
370
    -2
100
AcDbBlockReference
  2
_DOTSMALL
 10
7877.600000000004
 20
8283.817543578534
 30
0.0
 41
100.0
 42
100.0
 43
100.0
 50
180.0
  0
INSERT
  5
237B4
330
235FA
100
AcDbEntity
  8
寸法
 62
     0
 48
50.0
370
    -2
100
AcDbBlockReference
  2
_DOTSMALL
 10
8569.600000000004
 20
8283.817543578534
 30
0.0
 41
100.0
 42
100.0
 43
100.0
  0
MTEXT
  5
237B5
330
235FA
100
AcDbEntity
  8
寸法
 62
     7
 48
50.0
100
AcDbMText
 10
8223.600000000004
 20
8383.858356143337
 30
0.0
 40
120.0
 41
0.0
 71
     5
 72
     1
  1
\A1;692
  7
STYLE1
 73
     1
 44
1.0
1001
ACAD
1000
MTEXTBEGIN
1070
    73
1070
     1
1070
    44
1040
1.0
1070
    74
1070
     0
1000
MTEXTEND
  0
POINT
  5
237B6
330
235FA
100
AcDbEntity
  8
DEFPOINTS
 62
     0
 48
50.0
100
AcDbPoint
 10
7877.600000000004
 20
6956.907777930213
 30
0.0
  0
POINT
  5
237B7
330
235FA
100
AcDbEntity
  8
DEFPOINTS
 62
     0
 48
50.0
100
AcDbPoint
 10
8569.600000000004
 20
6956.907777930213
 30
0.0
  0
POINT
  5
237B8
330
235FA
100
AcDbEntity
  8
DEFPOINTS
 62
     0
 48
50.0
100
AcDbPoint
 10
8569.600000000004
 20
8283.817543578534
 30
0.0
  0
ENDBLK
  5
23605
330
235FA
100
AcDbEntity
  8
0
 48
50.0
100
AcDbBlockEnd
  0
BLOCK
  5
23610
330
23606
100
AcDbEntity
  8
0
 48
50.0
100
AcDbBlockBegin
  2
*D33
 70
     1
 10
0.0
 20
0.0
 30
0.0
  3
*D33
  1

  0
LINE
  5
237A7
330
23606
100
AcDbEntity
  8
寸法
 62
     0
 48
50.0
370
    -2
100
AcDbLine
 10
7877.600000000004
 20
7076.907777930213
 30
0.0
 11
7877.600000000004
 21
8343.817543578534
 31
0.0
  0
LINE
  5
237A8
330
23606
100
AcDbEntity
  8
寸法
 62
     0
 48
50.0
370
    -2
100
AcDbLine
 10
7113.600000000002
 20
7776.907777930206
 30
0.0
 11
7113.600000000002
 21
8343.817543578534
 31
0.0
  0
LINE
  5
237A9
330
23606
100
AcDbEntity
  8
寸法
 62
     0
 48
50.0
370
    -2
100
AcDbLine
 10
7877.600000000004
 20
8283.817543578534
 30
0.0
 11
7113.600000000002
 21
8283.817543578534
 31
0.0
  0
INSERT
  5
237AA
330
23606
100
AcDbEntity
  8
寸法
 62
     0
 48
50.0
370
    -2
100
AcDbBlockReference
  2
_DOTSMALL
 10
7877.600000000004
 20
8283.817543578534
 30
0.0
 41
100.0
 42
100.0
 43
100.0
  0
INSERT
  5
237AB
330
23606
100
AcDbEntity
  8
寸法
 62
     0
 48
50.0
370
    -2
100
AcDbBlockReference
  2
_DOTSMALL
 10
7113.600000000002
 20
8283.817543578534
 30
0.0
 41
100.0
 42
100.0
 43
100.0
 50
180.0
  0
MTEXT
  5
237AC
330
23606
100
AcDbEntity
  8
寸法
 62
     7
 48
50.0
100
AcDbMText
 10
7495.600000000002
 20
8383.817543578535
 30
0.0
 40
120.0
 41
0.0
 71
     5
 72
     1
  1
\A1;764
  7
STYLE1
 73
     1
 44
1.0
1001
ACAD
1000
MTEXTBEGIN
1070
    73
1070
     1
1070
    44
1040
1.0
1070
    74
1070
     0
1000
MTEXTEND
  0
POINT
  5
237AD
330
23606
100
AcDbEntity
  8
DEFPOINTS
 62
     0
 48
50.0
100
AcDbPoint
 10
7877.600000000004
 20
7056.907777930213
 30
0.0
  0
POINT
  5
237AE
330
23606
100
AcDbEntity
  8
DEFPOINTS
 62
     0
 48
50.0
100
AcDbPoint
 10
7113.600000000002
 20
7756.907777930206
 30
0.0
  0
POINT
  5
237AF
330
23606
100
AcDbEntity
  8
DEFPOINTS
 62
     0
 48
50.0
100
AcDbPoint
 10
7113.600000000002
 20
8283.817543578534
 30
0.0
  0
ENDBLK
  5
23611
330
23606
100
AcDbEntity
  8
0
 48
50.0
100
AcDbBlockEnd
  0
BLOCK
  5
2361C
330
23612
100
AcDbEntity
  8
0
 48
50.0
100
AcDbBlockBegin
  2
*D34
 70
     1
 10
0.0
 20
0.0
 30
0.0
  3
*D34
  1

  0
LINE
  5
2379E
330
23612
100
AcDbEntity
  8
寸法
 62
     0
 48
50.0
370
    -2
100
AcDbLine
 10
9333.6
 20
7776.907777930206
 30
0.0
 11
9333.6
 21
8343.817543578534
 31
0.0
  0
LINE
  5
2379F
330
23612
100
AcDbEntity
  8
寸法
 62
     0
 48
50.0
370
    -2
100
AcDbLine
 10
8569.600000000004
 20
6976.907777930214
 30
0.0
 11
8569.600000000004
 21
8343.817543578534
 31
0.0
  0
LINE
  5
237A0
330
23612
100
AcDbEntity
  8
寸法
 62
     0
 48
50.0
370
    -2
100
AcDbLine
 10
9333.6
 20
8283.817543578534
 30
0.0
 11
8569.600000000004
 21
8283.817543578534
 31
0.0
  0
MTEXT
  5
237A1
330
23612
100
AcDbEntity
  8
寸法
 62
     7
 48
50.0
100
AcDbMText
 10
8910.370135182455
 20
8382.079508885544
 30
0.0
 40
120.0
 41
0.0
 71
     5
 72
     1
  1
\A1;764
  7
STYLE1
 73
     1
 44
1.0
1001
ACAD
1000
MTEXTBEGIN
1070
    73
1070
     1
1070
    44
1040
1.0
1070
    74
1070
     0
1000
MTEXTEND
  0
INSERT
  5
237A2
330
23612
100
AcDbEntity
  8
寸法
 62
     0
 48
50.0
370
    -2
100
AcDbBlockReference
  2
_DOTSMALL
 10
9333.6
 20
8283.817543578534
 30
0.0
 41
100.0
 42
100.0
 43
100.0
  0
INSERT
  5
237A3
330
23612
100
AcDbEntity
  8
寸法
 62
     0
 48
50.0
370
    -2
100
AcDbBlockReference
  2
_DOTSMALL
 10
8569.600000000004
 20
8283.817543578534
 30
0.0
 41
100.0
 42
100.0
 43
100.0
 50
180.0
  0
POINT
  5
237A4
330
23612
100
AcDbEntity
  8
DEFPOINTS
 62
     0
 48
50.0
100
AcDbPoint
 10
9333.6
 20
7756.907777930206
 30
0.0
  0
POINT
  5
237A5
330
23612
100
AcDbEntity
  8
DEFPOINTS
 62
     0
 48
50.0
100
AcDbPoint
 10
8569.600000000004
 20
6956.907777930213
 30
0.0
  0
POINT
  5
237A6
330
23612
100
AcDbEntity
  8
DEFPOINTS
 62
     0
 48
50.0
100
AcDbPoint
 10
8569.600000000004
 20
8283.817543578534
 30
0.0
  0
ENDBLK
  5
2361D
330
23612
100
AcDbEntity
  8
0
 48
50.0
100
AcDbBlockEnd
  0
BLOCK
  5
23DDF
330
23DD4
100
AcDbEntity
  8
0
 48
50.0
100
AcDbBlockBegin
  2
*D35
 70
     1
 10
0.0
 20
0.0
 30
0.0
  3
*D35
  1

  0
LINE
  5
2482D
330
23DD4
100
AcDbEntity
  8
寸法
 62
     0
 48
50.0
370
    -2
100
AcDbLine
 10
7363.600000000001
 20
5881.907777930207
 30
0.0
 11
7632.938460046266
 21
5881.907777930207
 31
0.0
  0
LINE
  5
2482E
330
23DD4
100
AcDbEntity
  8
寸法
 62
     0
 48
50.0
370
    -2
100
AcDbLine
 10
7363.600000000002
 20
6076.907777930194
 30
0.0
 11
7632.938460046266
 21
6076.907777930194
 31
0.0
  0
LINE
  5
2482F
330
23DD4
100
AcDbEntity
  8
寸法
 62
     0
 48
50.0
370
    -2
100
AcDbLine
 10
7572.938460046265
 20
6076.907777930194
 30
0.0
 11
7572.938460046265
 21
5881.907777930207
 31
0.0
  0
LINE
  5
24830
330
23DD4
100
AcDbEntity
  8
寸法
 62
     0
 48
50.0
370
    -2
100
AcDbLine
 10
7572.938460046265
 20
5881.907777930207
 30
0.0
 11
7572.938460046265
 21
5504.517895522416
 31
0.0
  0
INSERT
  5
24831
330
23DD4
100
AcDbEntity
  8
寸法
 62
     0
 48
50.0
370
    -2
100
AcDbBlockReference
  2
_DOTSMALL
 10
7572.938460046265
 20
6076.907777930194
 30
0.0
 41
100.0
 42
100.0
 43
100.0
 50
90.0
  0
INSERT
  5
24832
330
23DD4
100
AcDbEntity
  8
寸法
 62
     0
 48
50.0
370
    -2
100
AcDbBlockReference
  2
_DOTSMALL
 10
7572.938460046265
 20
5881.907777930207
 30
0.0
 41
100.0
 42
100.0
 43
100.0
 50
270.0
  0
MTEXT
  5
24833
330
23DD4
100
AcDbEntity
  8
寸法
 62
     7
 48
50.0
100
AcDbMText
 10
7472.938460046265
 20
5643.212836726313
 30
0.0
 40
120.0
 41
0.0
 71
     5
 72
     1
  1
\A1;195
  7
STYLE1
 11
0.0000000000000001
 21
1.0
 31
0.0
 73
     1
 44
1.0
1001
ACAD
1000
MTEXTBEGIN
1070
    73
1070
     1
1070
    44
1040
1.0
1070
    74
1070
     0
1000
MTEXTEND
  0
POINT
  5
24834
330
23DD4
100
AcDbEntity
  8
DEFPOINTS
 62
     0
 48
50.0
100
AcDbPoint
 10
7343.600000000001
 20
5881.907777930207
 30
0.0
  0
POINT
  5
24835
330
23DD4
100
AcDbEntity
  8
DEFPOINTS
 62
     0
 48
50.0
100
AcDbPoint
 10
7343.600000000002
 20
6076.907777930194
 30
0.0
  0
POINT
  5
24836
330
23DD4
100
AcDbEntity
  8
DEFPOINTS
 62
     0
 48
50.0
100
AcDbPoint
 10
7572.938460046265
 20
6076.907777930194
 30
0.0
  0
ENDBLK
  5
23DE0
330
23DD4
100
AcDbEntity
  8
0
 48
50.0
100
AcDbBlockEnd
  0
BLOCK
  5
23DEC
330
23DE1
100
AcDbEntity
  8
0
 48
50.0
100
AcDbBlockBegin
  2
*D36
 70
     1
 10
0.0
 20
0.0
 30
0.0
  3
*D36
  1

  0
LINE
  5
24823
330
23DE1
100
AcDbEntity
  8
寸法
 62
     0
 48
50.0
370
    -2
100
AcDbLine
 10
7363.600000000001
 20
6076.90777793021
 30
0.0
 11
7632.938460046266
 21
6076.90777793021
 31
0.0
  0
LINE
  5
24824
330
23DE1
100
AcDbEntity
  8
寸法
 62
     0
 48
50.0
370
    -2
100
AcDbLine
 10
7363.600000000002
 20
6186.907777930207
 30
0.0
 11
7632.938460046266
 21
6186.907777930207
 31
0.0
  0
LINE
  5
24825
330
23DE1
100
AcDbEntity
  8
寸法
 62
     0
 48
50.0
370
    -2
100
AcDbLine
 10
7572.938460046265
 20
6076.90777793021
 30
0.0
 11
7572.938460046266
 21
6186.907777930207
 31
0.0
  0
LINE
  5
24826
330
23DE1
100
AcDbEntity
  8
寸法
 62
     0
 48
50.0
370
    -2
100
AcDbLine
 10
7572.938460046266
 20
6186.907777930207
 30
0.0
 11
7572.938460046266
 21
6547.002266119183
 31
0.0
  0
INSERT
  5
24827
330
23DE1
100
AcDbEntity
  8
寸法
 62
     0
 48
50.0
370
    -2
100
AcDbBlockReference
  2
_DOTSMALL
 10
7572.938460046265
 20
6076.90777793021
 30
0.0
 41
100.0
 42
100.0
 43
100.0
 50
270.0
  0
INSERT
  5
24828
330
23DE1
100
AcDbEntity
  8
寸法
 62
     0
 48
50.0
370
    -2
100
AcDbBlockReference
  2
_DOTSMALL
 10
7572.938460046266
 20
6186.907777930207
 30
0.0
 41
100.0
 42
100.0
 43
100.0
 50
90.0
  0
MTEXT
  5
24829
330
23DE1
100
AcDbEntity
  8
寸法
 62
     7
 48
50.0
100
AcDbMText
 10
7472.938460046265
 20
6422.955022024696
 30
0.0
 40
120.0
 41
0.0
 71
     5
 72
     1
  1
\A1;110
  7
STYLE1
 11
0.0000000000000001
 21
1.0
 31
0.0
 73
     1
 44
1.0
1001
ACAD
1000
MTEXTBEGIN
1070
    73
1070
     1
1070
    44
1040
1.0
1070
    74
1070
     0
1000
MTEXTEND
  0
POINT
  5
2482A
330
23DE1
100
AcDbEntity
  8
DEFPOINTS
 62
     0
 48
50.0
100
AcDbPoint
 10
7343.600000000001
 20
6076.90777793021
 30
0.0
  0
POINT
  5
2482B
330
23DE1
100
AcDbEntity
  8
DEFPOINTS
 62
     0
 48
50.0
100
AcDbPoint
 10
7343.600000000002
 20
6186.907777930207
 30
0.0
  0
POINT
  5
2482C
330
23DE1
100
AcDbEntity
  8
DEFPOINTS
 62
     0
 48
50.0
100
AcDbPoint
 10
7572.938460046266
 20
6186.907777930207
 30
0.0
  0
ENDBLK
  5
23DED
330
23DE1
100
AcDbEntity
  8
0
 48
50.0
100
AcDbBlockEnd
  0
BLOCK
  5
23DF8
330
23DEE
100
AcDbEntity
  8
0
 48
50.0
100
AcDbBlockBegin
  2
*D37
 70
     1
 10
0.0
 20
0.0
 30
0.0
  3
*D37
  1

  0
LINE
  5
23FDD
330
23DEE
100
AcDbEntity
  8
寸法
 62
     0
 48
50.0
370
    -2
100
AcDbLine
 10
9333.6
 20
5861.907777930228
 30
0.0
 11
9333.6
 21
5107.043474506082
 31
0.0
  0
LINE
  5
23FDE
330
23DEE
100
AcDbEntity
  8
寸法
 62
     0
 48
50.0
370
    -2
100
AcDbLine
 10
7113.600000000001
 20
5861.907777930192
 30
0.0
 11
7113.600000000001
 21
5107.043474506082
 31
0.0
  0
LINE
  5
23FDF
330
23DEE
100
AcDbEntity
  8
寸法
 62
     0
 48
50.0
370
    -2
100
AcDbLine
 10
9333.6
 20
5167.043474506082
 30
0.0
 11
7113.600000000001
 21
5167.043474506082
 31
0.0
  0
INSERT
  5
23FE0
330
23DEE
100
AcDbEntity
  8
寸法
 62
     0
 48
50.0
370
    -2
100
AcDbBlockReference
  2
_DOTSMALL
 10
9333.6
 20
5167.043474506082
 30
0.0
 41
100.0
 42
100.0
 43
100.0
  0
INSERT
  5
23FE1
330
23DEE
100
AcDbEntity
  8
寸法
 62
     0
 48
50.0
370
    -2
100
AcDbBlockReference
  2
_DOTSMALL
 10
7113.600000000001
 20
5167.043474506082
 30
0.0
 41
100.0
 42
100.0
 43
100.0
 50
180.0
  0
MTEXT
  5
23FE2
330
23DEE
100
AcDbEntity
  8
寸法
 62
     7
 48
50.0
100
AcDbMText
 10
8223.600000000001
 20
5267.055285529703
 30
0.0
 40
120.0
 41
0.0
 71
     5
 72
     1
  1
\A1;扉の幅 2220
  7
STYLE1
 73
     1
 44
1.0
1001
ACAD
1000
MTEXTBEGIN
1070
    73
1070
     1
1070
    44
1040
1.0
1070
    74
1070
     0
1000
MTEXTEND
  0
POINT
  5
23FE3
330
23DEE
100
AcDbEntity
  8
DEFPOINTS
 62
     0
 48
50.0
100
AcDbPoint
 10
9333.6
 20
5881.907777930228
 30
0.0
  0
POINT
  5
23FE4
330
23DEE
100
AcDbEntity
  8
DEFPOINTS
 62
     0
 48
50.0
100
AcDbPoint
 10
7113.600000000001
 20
5881.907777930193
 30
0.0
  0
POINT
  5
23FE5
330
23DEE
100
AcDbEntity
  8
DEFPOINTS
 62
     0
 48
50.0
100
AcDbPoint
 10
7113.600000000001
 20
5167.043474506082
 30
0.0
  0
ENDBLK
  5
23DF9
330
23DEE
100
AcDbEntity
  8
0
 48
50.0
100
AcDbBlockEnd
  0
BLOCK
  5
24278
330
2426C
100
AcDbEntity
  8
0
 48
50.0
100
AcDbBlockBegin
  2
*D38
 70
     1
 10
0.0
 20
0.0
 30
0.0
  3
*D38
  1

  0
LINE
  5
24422
330
2426C
100
AcDbEntity
  8
寸法
 62
     0
 48
50.0
370
    -2
100
AcDbLine
 10
6224.29691579761
 20
5911.295673787302
 30
0.0
 11
5938.804113659645
 21
5911.295673787303
 31
0.0
  0
LINE
  5
24423
330
2426C
100
AcDbEntity
  8
寸法
 62
     0
 48
50.0
370
    -2
100
AcDbLine
 10
7093.600000000001
 20
5956.907777930206
 30
0.0
 11
5938.804113659645
 21
5956.907777930207
 31
0.0
  0
LINE
  5
24424
330
2426C
100
AcDbEntity
  8
寸法
 62
     0
 48
50.0
370
    -2
100
AcDbLine
 10
5998.804113659645
 20
5956.907777930207
 30
0.0
 11
5998.804113659645
 21
6056.907777930207
 31
0.0
  0
LINE
  5
24425
330
2426C
100
AcDbEntity
  8
寸法
 62
     0
 48
50.0
370
    -2
100
AcDbLine
 10
5998.804113659645
 20
5911.295673787303
 30
0.0
 11
5998.804113659645
 21
5578.946431382384
 31
0.0
  0
LINE
  5
24426
330
2426C
100
AcDbEntity
  8
寸法
 62
     0
 48
50.0
370
    -2
100
AcDbLine
 10
5998.804113659645
 20
5956.907777930207
 30
0.0
 11
5998.804113659645
 21
5911.295673787303
 31
0.0
  0
INSERT
  5
24427
330
2426C
100
AcDbEntity
  8
寸法
 62
     0
 48
50.0
370
    -2
100
AcDbBlockReference
  2
_DOTSMALL
 10
5998.804113659645
 20
5956.907777930207
 30
0.0
 41
100.0
 42
100.0
 43
100.0
 50
270.0
  0
INSERT
  5
24428
330
2426C
100
AcDbEntity
  8
寸法
 62
     0
 48
50.0
370
    -2
100
AcDbBlockReference
  2
_DOTSMALL
 10
5998.804113659645
 20
5911.295673787303
 30
0.0
 41
100.0
 42
100.0
 43
100.0
 50
90.0
  0
MTEXT
  5
24429
330
2426C
100
AcDbEntity
  8
寸法
 62
     7
 48
50.0
100
AcDbMText
 10
5898.804113659644
 20
5645.121052584843
 30
0.0
 40
120.0
 41
0.0
 71
     5
 72
     1
  1
\A1;a
  7
STYLE1
 11
0.0000000000000001
 21
1.0
 31
0.0
 73
     1
 44
1.0
1001
ACAD
1000
MTEXTBEGIN
1070
    73
1070
     1
1070
    44
1040
1.0
1070
    74
1070
     0
1000
MTEXTEND
  0
POINT
  5
2442A
330
2426C
100
AcDbEntity
  8
DEFPOINTS
 62
     0
 48
50.0
100
AcDbPoint
 10
6244.296915797611
 20
5911.295673787302
 30
0.0
  0
POINT
  5
2442B
330
2426C
100
AcDbEntity
  8
DEFPOINTS
 62
     0
 48
50.0
100
AcDbPoint
 10
7113.600000000001
 20
5956.907777930206
 30
0.0
  0
POINT
  5
2442C
330
2426C
100
AcDbEntity
  8
DEFPOINTS
 62
     0
 48
50.0
100
AcDbPoint
 10
5998.804113659645
 20
5956.907777930207
 30
0.0
  0
ENDBLK
  5
24279
330
2426C
100
AcDbEntity
  8
0
 48
50.0
100
AcDbBlockEnd
  0
BLOCK
  5
24286
330
2427A
100
AcDbEntity
  8
0
 48
50.0
100
AcDbBlockBegin
  2
*D39
 70
     1
 10
0.0
 20
0.0
 30
0.0
  3
*D39
  1

  0
LINE
  5
24401
330
2427A
100
AcDbEntity
  8
寸法
 62
     0
 48
50.0
370
    -2
100
AcDbLine
 10
7113.600000000001
 20
7776.907777930205
 30
0.0
 11
7113.600000000001
 21
8792.610661598834
 31
0.0
  0
LINE
  5
24402
330
2427A
100
AcDbEntity
  8
寸法
 62
     0
 48
50.0
370
    -2
100
AcDbLine
 10
7058.600000000012
 20
8540.149966081997
 30
0.0
 11
7058.600000000012
 21
8792.610661598834
 31
0.0
  0
LINE
  5
24403
330
2427A
100
AcDbEntity
  8
寸法
 62
     0
 48
50.0
370
    -2
100
AcDbLine
 10
7113.600000000001
 20
8732.610661598833
 30
0.0
 11
7213.600000000001
 21
8732.610661598833
 31
0.0
  0
LINE
  5
24404
330
2427A
100
AcDbEntity
  8
寸法
 62
     0
 48
50.0
370
    -2
100
AcDbLine
 10
7058.600000000012
 20
8732.610661598833
 30
0.0
 11
6958.600000000012
 21
8732.610661598833
 31
0.0
  0
LINE
  5
24405
330
2427A
100
AcDbEntity
  8
寸法
 62
     0
 48
50.0
370
    -2
100
AcDbLine
 10
7113.600000000001
 20
8732.610661598833
 30
0.0
 11
7058.600000000012
 21
8732.610661598833
 31
0.0
  0
INSERT
  5
24406
330
2427A
100
AcDbEntity
  8
寸法
 62
     0
 48
50.0
370
    -2
100
AcDbBlockReference
  2
_DOTSMALL
 10
7113.600000000001
 20
8732.610661598833
 30
0.0
 41
100.0
 42
100.0
 43
100.0
 50
180.0
  0
INSERT
  5
24407
330
2427A
100
AcDbEntity
  8
寸法
 62
     0
 48
50.0
370
    -2
100
AcDbBlockReference
  2
_DOTSMALL
 10
7058.600000000012
 20
8732.610661598833
 30
0.0
 41
100.0
 42
100.0
 43
100.0
  0
MTEXT
  5
24408
330
2427A
100
AcDbEntity
  8
寸法
 62
     7
 48
50.0
100
AcDbMText
 10
7086.100000000006
 20
8832.610661598833
 30
0.0
 40
120.0
 41
0.0
 71
     5
 72
     1
  1
\A1;b
  7
STYLE1
 73
     1
 44
1.0
1001
ACAD
1000
MTEXTBEGIN
1070
    73
1070
     1
1070
    44
1040
1.0
1070
    74
1070
     0
1000
MTEXTEND
  0
POINT
  5
24409
330
2427A
100
AcDbEntity
  8
DEFPOINTS
 62
     0
 48
50.0
100
AcDbPoint
 10
7113.600000000001
 20
7756.907777930205
 30
0.0
  0
POINT
  5
2440A
330
2427A
100
AcDbEntity
  8
DEFPOINTS
 62
     0
 48
50.0
100
AcDbPoint
 10
7058.600000000012
 20
8520.149966081998
 30
0.0
  0
POINT
  5
2440B
330
2427A
100
AcDbEntity
  8
DEFPOINTS
 62
     0
 48
50.0
100
AcDbPoint
 10
7058.600000000012
 20
8732.610661598833
 30
0.0
  0
ENDBLK
  5
24287
330
2427A
100
AcDbEntity
  8
0
 48
50.0
100
AcDbBlockEnd
  0
BLOCK
  5
24294
330
24288
100
AcDbEntity
  8
0
 48
50.0
100
AcDbBlockBegin
  2
*D40
 70
     1
 10
0.0
 20
0.0
 30
0.0
  3
*D40
  1

  0
LINE
  5
243F6
330
24288
100
AcDbEntity
  8
寸法
 62
     0
 48
50.0
370
    -2
100
AcDbLine
 10
9408.600000000003
 20
8540.149966081997
 30
0.0
 11
9408.600000000003
 21
8792.610661598834
 31
0.0
  0
LINE
  5
243F7
330
24288
100
AcDbEntity
  8
寸法
 62
     0
 48
50.0
370
    -2
100
AcDbLine
 10
9333.6
 20
7776.907777930205
 30
0.0
 11
9333.6
 21
8792.610661598834
 31
0.0
  0
LINE
  5
243F8
330
24288
100
AcDbEntity
  8
寸法
 62
     0
 48
50.0
370
    -2
100
AcDbLine
 10
9408.600000000003
 20
8732.610661598833
 30
0.0
 11
9508.600000000003
 21
8732.610661598833
 31
0.0
  0
LINE
  5
243F9
330
24288
100
AcDbEntity
  8
寸法
 62
     0
 48
50.0
370
    -2
100
AcDbLine
 10
9333.6
 20
8732.610661598833
 30
0.0
 11
9233.6
 21
8732.610661598833
 31
0.0
  0
LINE
  5
243FA
330
24288
100
AcDbEntity
  8
寸法
 62
     0
 48
50.0
370
    -2
100
AcDbLine
 10
9408.600000000003
 20
8732.610661598833
 30
0.0
 11
9333.6
 21
8732.610661598833
 31
0.0
  0
INSERT
  5
243FB
330
24288
100
AcDbEntity
  8
寸法
 62
     0
 48
50.0
370
    -2
100
AcDbBlockReference
  2
_DOTSMALL
 10
9408.600000000003
 20
8732.610661598833
 30
0.0
 41
100.0
 42
100.0
 43
100.0
 50
180.0
  0
INSERT
  5
243FC
330
24288
100
AcDbEntity
  8
寸法
 62
     0
 48
50.0
370
    -2
100
AcDbBlockReference
  2
_DOTSMALL
 10
9333.6
 20
8732.610661598833
 30
0.0
 41
100.0
 42
100.0
 43
100.0
  0
MTEXT
  5
243FD
330
24288
100
AcDbEntity
  8
寸法
 62
     7
 48
50.0
100
AcDbMText
 10
9371.100000000003
 20
8832.610661598833
 30
0.0
 40
120.0
 41
0.0
 71
     5
 72
     1
  1
\A1;c
  7
STYLE1
 73
     1
 44
1.0
1001
ACAD
1000
MTEXTBEGIN
1070
    73
1070
     1
1070
    44
1040
1.0
1070
    74
1070
     0
1000
MTEXTEND
  0
POINT
  5
243FE
330
24288
100
AcDbEntity
  8
DEFPOINTS
 62
     0
 48
50.0
100
AcDbPoint
 10
9408.600000000003
 20
8520.149966081998
 30
0.0
  0
POINT
  5
243FF
330
24288
100
AcDbEntity
  8
DEFPOINTS
 62
     0
 48
50.0
100
AcDbPoint
 10
9333.6
 20
7756.907777930205
 30
0.0
  0
POINT
  5
24400
330
24288
100
AcDbEntity
  8
DEFPOINTS
 62
     0
 48
50.0
100
AcDbPoint
 10
9333.6
 20
8732.610661598833
 30
0.0
  0
ENDBLK
  5
24295
330
24288
100
AcDbEntity
  8
0
 48
50.0
100
AcDbBlockEnd
  0
BLOCK
  5
242A2
330
24296
100
AcDbEntity
  8
0
 48
50.0
100
AcDbBlockBegin
  2
*D41
 70
     1
 10
0.0
 20
0.0
 30
0.0
  3
*D41
  1

  0
LINE
  5
2442D
330
24296
100
AcDbEntity
  8
寸法
 62
     0
 48
50.0
370
    -2
100
AcDbLine
 10
7093.600000000002
 20
7756.907777930206
 30
0.0
 11
5938.804113659646
 21
7756.907777930208
 31
0.0
  0
LINE
  5
2442E
330
24296
100
AcDbEntity
  8
寸法
 62
     0
 48
50.0
370
    -2
100
AcDbLine
 10
6224.29691579761
 20
7802.519882073113
 30
0.0
 11
5938.804113659646
 21
7802.519882073113
 31
0.0
  0
LINE
  5
2442F
330
24296
100
AcDbEntity
  8
寸法
 62
     0
 48
50.0
370
    -2
100
AcDbLine
 10
5998.804113659645
 20
7756.907777930208
 30
0.0
 11
5998.804113659645
 21
7656.907777930207
 31
0.0
  0
LINE
  5
24430
330
24296
100
AcDbEntity
  8
寸法
 62
     0
 48
50.0
370
    -2
100
AcDbLine
 10
5998.804113659645
 20
7802.519882073113
 30
0.0
 11
5998.804113659645
 21
8139.86912447803
 31
0.0
  0
LINE
  5
24431
330
24296
100
AcDbEntity
  8
寸法
 62
     0
 48
50.0
370
    -2
100
AcDbLine
 10
5998.804113659645
 20
7756.907777930208
 30
0.0
 11
5998.804113659645
 21
7802.519882073113
 31
0.0
  0
INSERT
  5
24432
330
24296
100
AcDbEntity
  8
寸法
 62
     0
 48
50.0
370
    -2
100
AcDbBlockReference
  2
_DOTSMALL
 10
5998.804113659645
 20
7756.907777930208
 30
0.0
 41
100.0
 42
100.0
 43
100.0
 50
90.0
  0
INSERT
  5
24433
330
24296
100
AcDbEntity
  8
寸法
 62
     0
 48
50.0
370
    -2
100
AcDbBlockReference
  2
_DOTSMALL
 10
5998.804113659645
 20
7802.519882073113
 30
0.0
 41
100.0
 42
100.0
 43
100.0
 50
270.0
  0
MTEXT
  5
24434
330
24296
100
AcDbEntity
  8
寸法
 62
     7
 48
50.0
100
AcDbMText
 10
5898.804113659645
 20
8073.694503275573
 30
0.0
 40
120.0
 41
0.0
 71
     5
 72
     1
  1
\A1;a
  7
STYLE1
 11
0.0000000000000001
 21
1.0
 31
0.0
 73
     1
 44
1.0
1001
ACAD
1000
MTEXTBEGIN
1070
    73
1070
     1
1070
    44
1040
1.0
1070
    74
1070
     0
1000
MTEXTEND
  0
POINT
  5
24435
330
24296
100
AcDbEntity
  8
DEFPOINTS
 62
     0
 48
50.0
100
AcDbPoint
 10
7113.600000000002
 20
7756.907777930206
 30
0.0
  0
POINT
  5
24436
330
24296
100
AcDbEntity
  8
DEFPOINTS
 62
     0
 48
50.0
100
AcDbPoint
 10
6244.296915797611
 20
7802.519882073113
 30
0.0
  0
POINT
  5
24437
330
24296
100
AcDbEntity
  8
DEFPOINTS
 62
     0
 48
50.0
100
AcDbPoint
 10
5998.804113659645
 20
7802.519882073113
 30
0.0
  0
ENDBLK
  5
242A3
330
24296
100
AcDbEntity
  8
0
 48
50.0
100
AcDbBlockEnd
  0
BLOCK
  5
24E69
330
24E5F
100
AcDbEntity
  8
0
 48
50.0
100
AcDbBlockBegin
  2
*D54
 70
     1
 10
0.0
 20
0.0
 30
0.0
  3
*D54
  1

  0
LINE
  5
24EAC
330
24E5F
100
AcDbEntity
  8
寸法
 62
     0
 48
50.0
370
    -2
100
AcDbLine
 10
8456.471894898042
 20
2161.038279758317
 30
0.0
 11
8998.340494666885
 21
2161.038279758317
 31
0.0
  0
LINE
  5
24EAD
330
24E5F
100
AcDbEntity
  8
寸法
 62
     0
 48
50.0
370
    -2
100
AcDbLine
 10
8456.471894898042
 20
1837.038279758316
 30
0.0
 11
8998.340494666885
 21
1837.038279758315
 31
0.0
  0
LINE
  5
24EAE
330
24E5F
100
AcDbEntity
  8
寸法
 62
     0
 48
50.0
370
    -2
100
AcDbLine
 10
8938.340494666885
 20
2161.038279758317
 30
0.0
 11
8938.340494666885
 21
1837.038279758315
 31
0.0
  0
INSERT
  5
24EAF
330
24E5F
100
AcDbEntity
  8
寸法
 62
     0
 48
50.0
370
    -2
100
AcDbBlockReference
  2
_DOTSMALL
 10
8938.340494666885
 20
2161.038279758317
 30
0.0
 41
100.0
 42
100.0
 43
100.0
 50
90.0
  0
INSERT
  5
24EB0
330
24E5F
100
AcDbEntity
  8
寸法
 62
     0
 48
50.0
370
    -2
100
AcDbBlockReference
  2
_DOTSMALL
 10
8938.340494666885
 20
1837.038279758315
 30
0.0
 41
100.0
 42
100.0
 43
100.0
 50
270.0
  0
MTEXT
  5
24EB1
330
24E5F
100
AcDbEntity
  8
寸法
 62
     7
 48
50.0
100
AcDbMText
 10
8838.340494666885
 20
1999.038279758318
 30
0.0
 40
120.0
 41
0.0
 71
     5
 72
     1
  1
\A1;180
  7
STYLE1
 11
0.0000000000000001
 21
1.0
 31
0.0
 73
     1
 44
1.0
1001
ACAD
1000
MTEXTBEGIN
1070
    73
1070
     1
1070
    44
1040
1.0
1070
    74
1070
     0
1000
MTEXTEND
  0
POINT
  5
24EB2
330
24E5F
100
AcDbEntity
  8
DEFPOINTS
 62
     0
 48
50.0
100
AcDbPoint
 10
8436.471894898042
 20
2161.038279758317
 30
0.0
  0
POINT
  5
24EB3
330
24E5F
100
AcDbEntity
  8
DEFPOINTS
 62
     0
 48
50.0
100
AcDbPoint
 10
8436.471894898042
 20
1837.038279758316
 30
0.0
  0
POINT
  5
24EB4
330
24E5F
100
AcDbEntity
  8
DEFPOINTS
 62
     0
 48
50.0
100
AcDbPoint
 10
8938.340494666885
 20
1837.038279758315
 30
0.0
  0
ENDBLK
  5
24E6A
330
24E5F
100
AcDbEntity
  8
0
 48
50.0
100
AcDbBlockEnd
  0
BLOCK
  5
24E7A
330
24E6B
100
AcDbEntity
  8
0
 48
50.0
100
AcDbBlockBegin
  2
*D55
 70
     1
 10
0.0
 20
0.0
 30
0.0
  3
*D55
  1

  0
LINE
  5
24EB5
330
24E6B
100
AcDbEntity
  8
寸法
 62
     0
 48
50.0
370
    -2
100
AcDbLine
 10
8269.271894898045
 20
2213.798279758318
 30
0.0
 11
8998.340494666885
 21
2213.798279758318
 31
0.0
  0
LINE
  5
24EB6
330
24E6B
100
AcDbEntity
  8
寸法
 62
     0
 48
50.0
370
    -2
100
AcDbLine
 10
8456.471894898042
 20
2161.038279758317
 30
0.0
 11
8998.340494666885
 21
2161.038279758317
 31
0.0
  0
LINE
  5
24EB7
330
24E6B
100
AcDbEntity
  8
寸法
 62
     0
 48
50.0
370
    -2
100
AcDbLine
 10
8938.340494666885
 20
2213.798279758318
 30
0.0
 11
8938.340494666885
 21
2313.798279758318
 31
0.0
  0
LINE
  5
24EB8
330
24E6B
100
AcDbEntity
  8
寸法
 62
     0
 48
50.0
370
    -2
100
AcDbLine
 10
8938.340494666885
 20
2161.038279758317
 30
0.0
 11
8938.340494666885
 21
2061.038279758317
 31
0.0
  0
LINE
  5
24EB9
330
24E6B
100
AcDbEntity
  8
寸法
 62
     0
 48
50.0
370
    -2
100
AcDbLine
 10
8938.340494666885
 20
2187.418279758318
 30
0.0
 11
9214.395160785912
 21
2175.914322154104
 31
0.0
  0
LINE
  5
24EBA
330
24E6B
100
AcDbEntity
  8
寸法
 62
     0
 48
50.0
370
    -2
100
AcDbLine
 10
9214.395160785912
 20
2175.914322154104
 30
0.0
 11
9214.395160785912
 21
1643.896515311138
 31
0.0
  0
MTEXT
  5
24EBB
330
24E6B
100
AcDbEntity
  8
寸法
 62
     7
 48
50.0
100
AcDbMText
 10
9114.38334976229
 20
1909.905418732623
 30
0.0
 40
120.0
 41
0.0
 71
     5
 72
     1
  1
\A1;20～25
  7
STYLE1
 11
0.0000000000000001
 21
1.0
 31
0.0
 73
     1
 44
1.0
1001
ACAD
1000
MTEXTBEGIN
1070
    73
1070
     1
1070
    44
1040
1.0
1070
    74
1070
     0
1000
MTEXTEND
  0
LINE
  5
24EBC
330
24E6B
100
AcDbEntity
  8
寸法
 62
     0
 48
50.0
370
    -2
100
AcDbLine
 10
8938.340494666885
 20
2213.798279758318
 30
0.0
 11
8938.340494666885
 21
2161.038279758317
 31
0.0
  0
LINE
  5
24EBD
330
24E6B
100
AcDbEntity
  8
寸法
 62
     0
 48
50.0
370
    -2
100
AcDbLine
 10
8938.340494666885
 20
2213.798279758318
 30
0.0
 11
8938.340494666885
 21
2161.038279758317
 31
0.0
  0
INSERT
  5
24EBE
330
24E6B
100
AcDbEntity
  8
寸法
 62
     0
 48
50.0
370
    -2
100
AcDbBlockReference
  2
_DOTSMALL
 10
8938.340494666885
 20
2213.798279758318
 30
0.0
 41
100.0
 42
100.0
 43
100.0
 50
270.0
  0
INSERT
  5
24EBF
330
24E6B
100
AcDbEntity
  8
寸法
 62
     0
 48
50.0
370
    -2
100
AcDbBlockReference
  2
_DOTSMALL
 10
8938.340494666885
 20
2161.038279758317
 30
0.0
 41
100.0
 42
100.0
 43
100.0
 50
90.0
  0
POINT
  5
24EC0
330
24E6B
100
AcDbEntity
  8
DEFPOINTS
 62
     0
 48
50.0
100
AcDbPoint
 10
8249.271894898043
 20
2213.798279758318
 30
0.0
  0
POINT
  5
24EC1
330
24E6B
100
AcDbEntity
  8
DEFPOINTS
 62
     0
 48
50.0
100
AcDbPoint
 10
8436.471894898042
 20
2161.038279758317
 30
0.0
  0
POINT
  5
24EC2
330
24E6B
100
AcDbEntity
  8
DEFPOINTS
 62
     0
 48
50.0
100
AcDbPoint
 10
8938.340494666885
 20
2161.038279758317
 30
0.0
  0
ENDBLK
  5
24E7B
330
24E6B
100
AcDbEntity
  8
0
 48
50.0
100
AcDbBlockEnd
  0
BLOCK
  5
24E86
330
24E7C
100
AcDbEntity
  8
0
 48
50.0
100
AcDbBlockBegin
  2
*D56
 70
     1
 10
0.0
 20
0.0
 30
0.0
  3
*D56
  1

  0
LINE
  5
24EC3
330
24E7C
100
AcDbEntity
  8
寸法
 62
     0
 48
50.0
370
    -2
100
AcDbLine
 10
6174.432581720848
 20
1617.038279758317
 30
0.0
 11
5992.012267988389
 21
1617.038279758317
 31
0.0
  0
LINE
  5
24EC4
330
24E7C
100
AcDbEntity
  8
寸法
 62
     0
 48
50.0
370
    -2
100
AcDbLine
 10
6094.432581720852
 20
1377.038279758317
 30
0.0
 11
5992.012267988389
 21
1377.038279758317
 31
0.0
  0
LINE
  5
24EC5
330
24E7C
100
AcDbEntity
  8
寸法
 62
     0
 48
50.0
370
    -2
100
AcDbLine
 10
6052.012267988389
 20
1617.038279758317
 30
0.0
 11
6052.012267988389
 21
1377.038279758317
 31
0.0
  0
MTEXT
  5
24EC6
330
24E7C
100
AcDbEntity
  8
寸法
 62
     7
 48
50.0
100
AcDbMText
 10
5952.012267988389
 20
1497.038279758317
 30
0.0
 40
120.0
 41
0.0
 71
     5
 72
     1
  1
\A1;150
  7
STYLE1
 11
0.0000000000000001
 21
1.0
 31
0.0
 73
     1
 44
1.0
1001
ACAD
1000
MTEXTBEGIN
1070
    73
1070
     1
1070
    44
1040
1.0
1070
    74
1070
     0
1000
MTEXTEND
  0
INSERT
  5
24EC7
330
24E7C
100
AcDbEntity
  8
寸法
 62
     0
 48
50.0
370
    -2
100
AcDbBlockReference
  2
_DOTSMALL
 10
6052.012267988389
 20
1617.038279758317
 30
0.0
 41
100.0
 42
100.0
 43
100.0
 50
90.0
  0
INSERT
  5
24EC8
330
24E7C
100
AcDbEntity
  8
寸法
 62
     0
 48
50.0
370
    -2
100
AcDbBlockReference
  2
_DOTSMALL
 10
6052.012267988389
 20
1377.038279758317
 30
0.0
 41
100.0
 42
100.0
 43
100.0
 50
270.0
  0
POINT
  5
24EC9
330
24E7C
100
AcDbEntity
  8
DEFPOINTS
 62
     0
 48
50.0
100
AcDbPoint
 10
6194.432581720849
 20
1617.038279758317
 30
0.0
  0
POINT
  5
24ECA
330
24E7C
100
AcDbEntity
  8
DEFPOINTS
 62
     0
 48
50.0
100
AcDbPoint
 10
6114.432581720851
 20
1377.038279758317
 30
0.0
  0
POINT
  5
24ECB
330
24E7C
100
AcDbEntity
  8
DEFPOINTS
 62
     0
 48
50.0
100
AcDbPoint
 10
6052.012267988389
 20
1377.038279758317
 30
0.0
  0
ENDBLK
  5
24E87
330
24E7C
100
AcDbEntity
  8
0
 48
50.0
100
AcDbBlockEnd
  0
BLOCK
  5
24E92
330
24E88
100
AcDbEntity
  8
0
 48
50.0
100
AcDbBlockBegin
  2
*D57
 70
     1
 10
0.0
 20
0.0
 30
0.0
  3
*D57
  1

  0
LINE
  5
24ECC
330
24E88
100
AcDbEntity
  8
寸法
 62
     0
 48
50.0
370
    -2
100
AcDbLine
 10
6302.432581720848
 20
2161.038279758317
 30
0.0
 11
5527.395343159108
 21
2161.038279758317
 31
0.0
  0
LINE
  5
24ECD
330
24E88
100
AcDbEntity
  8
寸法
 62
     0
 48
50.0
370
    -2
100
AcDbLine
 10
6094.432581720852
 20
1377.038279758317
 30
0.0
 11
5527.395343159107
 21
1377.038279758317
 31
0.0
  0
LINE
  5
24ECE
330
24E88
100
AcDbEntity
  8
寸法
 62
     0
 48
50.0
370
    -2
100
AcDbLine
 10
5587.395343159109
 20
2161.038279758317
 30
0.0
 11
5587.395343159108
 21
1377.038279758317
 31
0.0
  0
MTEXT
  5
24ECF
330
24E88
100
AcDbEntity
  8
寸法
 62
     7
 48
50.0
100
AcDbMText
 10
5487.395343159108
 20
1748.578429414318
 30
0.0
 40
120.0
 41
0.0
 71
     5
 72
     1
  1
\A1;540
  7
STYLE1
 11
0.0000000000000001
 21
1.0
 31
0.0
 73
     1
 44
1.0
1001
ACAD
1000
MTEXTBEGIN
1070
    73
1070
     1
1070
    44
1040
1.0
1070
    74
1070
     0
1000
MTEXTEND
  0
INSERT
  5
24ED0
330
24E88
100
AcDbEntity
  8
寸法
 62
     0
 48
50.0
370
    -2
100
AcDbBlockReference
  2
_DOTSMALL
 10
5587.395343159109
 20
2161.038279758317
 30
0.0
 41
100.0
 42
100.0
 43
100.0
 50
90.0
  0
INSERT
  5
24ED1
330
24E88
100
AcDbEntity
  8
寸法
 62
     0
 48
50.0
370
    -2
100
AcDbBlockReference
  2
_DOTSMALL
 10
5587.395343159108
 20
1377.038279758317
 30
0.0
 41
100.0
 42
100.0
 43
100.0
 50
270.0
  0
POINT
  5
24ED2
330
24E88
100
AcDbEntity
  8
DEFPOINTS
 62
     0
 48
50.0
100
AcDbPoint
 10
6322.432581720848
 20
2161.038279758317
 30
0.0
  0
POINT
  5
24ED3
330
24E88
100
AcDbEntity
  8
DEFPOINTS
 62
     0
 48
50.0
100
AcDbPoint
 10
6114.432581720851
 20
1377.038279758317
 30
0.0
  0
POINT
  5
24ED4
330
24E88
100
AcDbEntity
  8
DEFPOINTS
 62
     0
 48
50.0
100
AcDbPoint
 10
5587.395343159108
 20
1377.038279758317
 30
0.0
  0
ENDBLK
  5
24E93
330
24E88
100
AcDbEntity
  8
0
 48
50.0
100
AcDbBlockEnd
  0
BLOCK
  5
24E9E
330
24E94
100
AcDbEntity
  8
0
 48
50.0
100
AcDbBlockBegin
  2
*D58
 70
     1
 10
0.0
 20
0.0
 30
0.0
  3
*D58
  1

  0
LINE
  5
24ED5
330
24E94
100
AcDbEntity
  8
寸法
 62
     0
 48
50.0
370
    -2
100
AcDbLine
 10
6194.432581720849
 20
1229.038279758317
 30
0.0
 11
6194.432581720849
 21
778.6086417531569
 31
0.0
  0
LINE
  5
24ED6
330
24E94
100
AcDbEntity
  8
寸法
 62
     0
 48
50.0
370
    -2
100
AcDbLine
 10
6642.432581720848
 20
1229.038279758317
 30
0.0
 11
6642.432581720848
 21
778.6086417531569
 31
0.0
  0
LINE
  5
24ED7
330
24E94
100
AcDbEntity
  8
寸法
 62
     0
 48
50.0
370
    -2
100
AcDbLine
 10
6194.432581720849
 20
838.6086417531569
 30
0.0
 11
6642.432581720848
 21
838.6086417531569
 31
0.0
  0
MTEXT
  5
24ED8
330
24E94
100
AcDbEntity
  8
寸法
 62
     7
 48
50.0
100
AcDbMText
 10
6398.335823042625
 20
938.6086417531569
 30
0.0
 40
120.0
 41
0.0
 71
     5
 72
     1
  1
\A1;300
  7
STYLE1
 73
     1
 44
1.0
1001
ACAD
1000
MTEXTBEGIN
1070
    73
1070
     1
1070
    44
1040
1.0
1070
    74
1070
     0
1000
MTEXTEND
  0
INSERT
  5
24ED9
330
24E94
100
AcDbEntity
  8
寸法
 62
     0
 48
50.0
370
    -2
100
AcDbBlockReference
  2
_DOTSMALL
 10
6194.432581720849
 20
838.6086417531569
 30
0.0
 41
100.0
 42
100.0
 43
100.0
 50
180.0
  0
INSERT
  5
24EDA
330
24E94
100
AcDbEntity
  8
寸法
 62
     0
 48
50.0
370
    -2
100
AcDbBlockReference
  2
_DOTSMALL
 10
6642.432581720848
 20
838.6086417531569
 30
0.0
 41
100.0
 42
100.0
 43
100.0
  0
POINT
  5
24EDB
330
24E94
100
AcDbEntity
  8
DEFPOINTS
 62
     0
 48
50.0
100
AcDbPoint
 10
6194.432581720849
 20
1249.038279758317
 30
0.0
  0
POINT
  5
24EDC
330
24E94
100
AcDbEntity
  8
DEFPOINTS
 62
     0
 48
50.0
100
AcDbPoint
 10
6642.432581720848
 20
1249.038279758317
 30
0.0
  0
POINT
  5
24EDD
330
24E94
100
AcDbEntity
  8
DEFPOINTS
 62
     0
 48
50.0
100
AcDbPoint
 10
6642.432581720848
 20
838.6086417531569
 30
0.0
  0
ENDBLK
  5
24E9F
330
24E94
100
AcDbEntity
  8
0
 48
50.0
100
AcDbBlockEnd
  0
BLOCK
  5
24EAA
330
24EA0
100
AcDbEntity
  8
0
 48
50.0
100
AcDbBlockBegin
  2
*D59
 70
     1
 10
0.0
 20
0.0
 30
0.0
  3
*D59
  1

  0
LINE
  5
24EDE
330
24EA0
100
AcDbEntity
  8
寸法
 62
     0
 48
50.0
370
    -2
100
AcDbLine
 10
6514.432581720848
 20
2181.038279758317
 30
0.0
 11
6514.432581720848
 21
2541.038279758317
 31
0.0
  0
LINE
  5
24EDF
330
24EA0
100
AcDbEntity
  8
寸法
 62
     0
 48
50.0
370
    -2
100
AcDbLine
 10
6322.432581720848
 20
2181.038279758317
 30
0.0
 11
6322.432581720848
 21
2541.038279758317
 31
0.0
  0
LINE
  5
24EE0
330
24EA0
100
AcDbEntity
  8
寸法
 62
     0
 48
50.0
370
    -2
100
AcDbLine
 10
6514.432581720848
 20
2481.038279758317
 30
0.0
 11
6322.432581720848
 21
2481.038279758317
 31
0.0
  0
MTEXT
  5
24EE1
330
24EA0
100
AcDbEntity
  8
寸法
 62
     7
 48
50.0
100
AcDbMText
 10
6429.658912066045
 20
2780.71789869832
 30
0.0
 40
120.0
 41
0.0
 71
     5
 72
     1
  1
\A1;120\P195
  7
STYLE1
 73
     1
 44
1.0
1001
ACAD
1000
MTEXTBEGIN
1070
    73
1070
     1
1070
    44
1040
1.0
1070
    74
1070
     0
1000
MTEXTEND
  0
INSERT
  5
24EE2
330
24EA0
100
AcDbEntity
  8
寸法
 62
     0
 48
50.0
370
    -2
100
AcDbBlockReference
  2
_DOTSMALL
 10
6514.432581720848
 20
2481.038279758317
 30
0.0
 41
100.0
 42
100.0
 43
100.0
  0
INSERT
  5
24EE3
330
24EA0
100
AcDbEntity
  8
寸法
 62
     0
 48
50.0
370
    -2
100
AcDbBlockReference
  2
_DOTSMALL
 10
6322.432581720848
 20
2481.038279758317
 30
0.0
 41
100.0
 42
100.0
 43
100.0
 50
180.0
  0
POINT
  5
24EE4
330
24EA0
100
AcDbEntity
  8
DEFPOINTS
 62
     0
 48
50.0
100
AcDbPoint
 10
6514.432581720848
 20
2161.038279758317
 30
0.0
  0
POINT
  5
24EE5
330
24EA0
100
AcDbEntity
  8
DEFPOINTS
 62
     0
 48
50.0
100
AcDbPoint
 10
6322.432581720848
 20
2161.038279758317
 30
0.0
  0
POINT
  5
24EE6
330
24EA0
100
AcDbEntity
  8
DEFPOINTS
 62
     0
 48
50.0
100
AcDbPoint
 10
6322.432581720848
 20
2481.038279758317
 30
0.0
  0
ENDBLK
  5
24EAB
330
24EA0
100
AcDbEntity
  8
0
 48
50.0
100
AcDbBlockEnd
  0
ENDSEC
  0
SECTION
  2
ENTITIES
  0
MTEXT
  5
763F
330
747D
100
AcDbEntity
  8
0
100
AcDbMText
 10
302.846345836809
 20
280.1983726409901
 30
0.0
 40
3.5
 41
5.323721266742722
 71
     1
 72
     5
  1

  7
MSMINCHO
 73
     1
 44
1.0
1001
ACAD
1000
MTEXTBEGIN
1070
    73
1070
     1
1070
    44
1040
1.0
1070
    74
1070
     0
1000
MTEXTEND
  0
LINE
  5
10B57
330
747D
100
AcDbEntity
  8
補助
  6
PHANTOM
 62
   230
 48
50.0
100
AcDbLine
 10
139.9999999999995
 20
11409.6
 30
0.0
 11
16307.2
 21
11409.6
 31
0.0
  0
LINE
  5
10B59
330
747D
100
AcDbEntity
  8
仕様書枠
  6
Continuous
 48
50.0
100
AcDbLine
 10
13107.2
 20
1200.0
 30
0.0
 11
13107.2
 21
-0.0000000000000729
 31
0.0
  0
LINE
  5
10B5D
330
747D
100
AcDbEntity
  8
仕様書枠
 48
50.0
100
AcDbLine
 10
140.0
 20
0.0
 30
0.0
 11
16307.2
 21
-0.0000000000000909
 31
0.0
  0
LINE
  5
10B5E
330
747D
100
AcDbEntity
  8
補助
  6
PHANTOM
 62
   230
 48
50.0
100
AcDbLine
 10
16307.2
 20
11409.6
 30
0.0
 11
16307.2
 21
1200.0
 31
0.0
  0
LINE
  5
10B6C
330
747D
100
AcDbEntity
  8
仕様書枠
 48
50.0
100
AcDbLine
 10
13107.2
 20
1200.0
 30
0.0
 11
16307.2
 21
1200.0
 31
0.0
  0
TEXT
  5
10B73
330
747D
100
AcDbEntity
  8
文字
 62
     7
 48
50.0
100
AcDbText
 10
13162.9790565769
 20
895.0906074299405
 30
0.0
 40
200.0
  1
基 礎 図
  7
STYLE2
100
AcDbText
  0
LINE
  5
10B7B
330
747D
100
AcDbEntity
  8
仕様書枠
 48
50.0
100
AcDbLine
 10
13107.2
 20
800.0
 30
0.0
 11
14251.2
 21
800.0
 31
0.0
  0
LINE
  5
10B88
330
747D
100
AcDbEntity
  8
仕様書枠
  6
Continuous
 48
50.0
100
AcDbLine
 10
14251.2
 20
1200.0
 30
0.0
 11
14251.2
 21
800.0
 31
0.0
  0
LINE
  5
16462
330
747D
100
AcDbEntity
  8
仕様書枠
 48
50.0
100
AcDbLine
 10
16307.2
 20
1200.0
 30
0.0
 11
16307.2
 21
-0.0000000000000909
 31
0.0
  0
LINE
  5
1903B
330
747D
100
AcDbEntity
  8
補助
  6
PHANTOM
 62
   230
 48
50.0
100
AcDbLine
 10
140.0
 20
0.0
 30
0.0
 11
139.9999999999995
 21
11409.6
 31
0.0
  0
TEXT
  5
1C7A1
330
747D
100
AcDbEntity
  8
文字
 62
     7
 48
50.0
100
AcDbText
 10
13188.16259899338
 20
79.80631269190417
 30
0.0
 40
80.0
  1
※布基礎には換気口を設けてください。
  7
STYLE2
100
AcDbText
  0
TEXT
  5
1C7E7
330
747D
100
AcDbEntity
  8
文字
 62
     7
 48
50.0
100
AcDbText
 10
13188.16259899338
 20
246.7109242801889
 30
0.0
 40
80.0
  1
※寒冷地等は地域の実情に合わせた基礎にして下さい。
  7
STYLE2
100
AcDbText
  0
TEXT
  5
1C7E8
330
747D
100
AcDbEntity
  8
文字
 62
     7
 48
50.0
100
AcDbText
 10
14331.99601853684
 20
499.5983841039506
 30
0.0
 40
160.0
  1
ＮＸＮ－４０ＳＢ/ＨＢ
  7
STYLE2
100
AcDbText
  0
TEXT
  5
1C7E9
330
747D
100
AcDbEntity
  8
文字
 62
     7
 48
50.0
100
AcDbText
 10
14641.2525855784
 20
871.1744590657927
 30
0.0
 40
100.0
  1
～一般型・多雪地型～
  7
STYLE2
100
AcDbText
  0
TEXT
  5
1C7EC
330
747D
100
AcDbEntity
  8
文字
 62
     7
 48
50.0
100
AcDbText
 10
14524.131837222
 20
1031.557706291229
 30
0.0
 40
100.0
  1
     　    <縮尺> S=1/40
  7
STYLE2
100
AcDbText
  0
TEXT
  5
1C7ED
330
747D
100
AcDbEntity
  8
文字
 62
     7
 48
50.0
100
AcDbText
 10
13201.43669998441
 20
477.2740661031257
 30
0.0
 40
160.0
  1
機種名
  7
STYLE2
100
AcDbText
  0
LINE
  5
1C7EF
330
747D
100
AcDbEntity
  8
文字
 62
     7
 48
50.0
100
AcDbLine
 10
13187.2
 20
400.0
 30
0.0
 11
16227.2
 21
400.0
 31
0.0
  0
DIMENSION
  5
22184
330
747D
100
AcDbEntity
  8
寸法
 48
50.0
100
AcDbDimension
  2
*D19
 10
9210.600000000001
 20
8520.149966081998
 30
0.0
 11
9606.706601717799
 21
8520.149966081998
 31
0.0
 70
   160
 71
     5
 42
123.0
  3
INABA_S40G
100
AcDbAlignedDimension
 13
9333.6
 23
7756.907777930206
 33
0.0
 14
9210.600000000001
 24
7683.907777930206
 34
0.0
100
AcDbRotatedDimension
1001
ACAD
1000
DSTYLE
1002
{
1070
   174
1070
     0
1070
   272
1070
     1
1070
   341
1005
0
1002
}
  0
DIMENSION
  5
22189
330
747D
100
AcDbEntity
  8
寸法
 48
50.0
100
AcDbDimension
  2
*D20
 10
7113.600000000001
 20
8520.149966081998
 30
0.0
 11
6840.493398282203
 21
8520.149966081998
 31
0.0
 70
   160
 71
     5
 42
123.0
  3
INABA_S40G
100
AcDbAlignedDimension
 13
7236.6
 23
7683.907777930206
 33
0.0
 14
7113.600000000001
 24
7756.907777930206
 34
0.0
100
AcDbRotatedDimension
1001
ACAD
1000
DSTYLE
1002
{
1070
   174
1070
     0
1070
   272
1070
     1
1070
   341
1005
0
1002
}
  0
DIMENSION
  5
2218A
330
747D
100
AcDbEntity
  8
寸法
 48
50.0
100
AcDbDimension
  2
*D21
 10
9333.6
 20
8732.610661598833
 30
0.0
 11
8223.600000000001
 21
8832.622472622455
 31
0.0
 70
    32
 71
     5
 42
2220.0
  3
INABA_S40G
100
AcDbAlignedDimension
 13
7113.600000000001
 23
7756.907777930206
 33
0.0
 14
9333.6
 24
7756.907777930206
 34
0.0
100
AcDbRotatedDimension
1001
ACAD
1000
DSTYLE
1002
{
1070
   174
1070
     0
1070
   272
1070
     1
1070
   341
1005
0
1002
}
  0
DIMENSION
  5
2218B
330
747D
100
AcDbEntity
  8
寸法
 48
50.0
100
AcDbDimension
  2
*D22
 10
7236.6
 20
8520.149966081998
 30
0.0
 11
8223.600000000001
 21
8620.149966081998
 31
0.0
 70
    32
 71
     5
 42
1974.0
  3
INABA_S40G
100
AcDbAlignedDimension
 13
9210.600000000001
 23
7683.907777930206
 33
0.0
 14
7236.6
 24
7683.907777930206
 34
0.0
100
AcDbRotatedDimension
1001
ACAD
1000
DSTYLE
1002
{
1070
   174
1070
     0
1070
   272
1070
     1
1070
   341
1005
0
1002
}
  0
DIMENSION
  5
2218E
330
747D
100
AcDbEntity
  8
寸法
 48
50.0
100
AcDbDimension
  2
*D23
 10
6244.296915797614
 20
7633.907777930206
 30
0.0
 11
6244.296915797613
 21
8070.014379648005
 31
0.0
 70
   160
 71
     5
 42
123.0
  3
INABA_S40G
100
AcDbAlignedDimension
 13
7113.600000000001
 23
7756.907777930206
 33
0.0
 14
7186.6
 24
7633.907777930206
 34
0.0
 50
90.0
100
AcDbRotatedDimension
1001
ACAD
1000
DSTYLE
1002
{
1070
   174
1070
     0
1070
   272
1070
     1
1070
   341
1005
0
1002
}
  0
DIMENSION
  5
2218F
330
747D
100
AcDbEntity
  8
寸法
 48
50.0
100
AcDbDimension
  2
*D24
 10
6244.296915797614
 20
5956.907777930206
 30
0.0
 11
6244.296915797613
 21
5683.801176212408
 31
0.0
 70
   160
 71
     5
 42
123.0000000000018
  3
INABA_S40G
100
AcDbAlignedDimension
 13
7186.600000000009
 23
6079.907777930208
 33
0.0
 14
7113.600000000001
 24
5956.907777930206
 34
0.0
 50
90.0
100
AcDbRotatedDimension
1001
ACAD
1000
DSTYLE
1002
{
1070
   174
1070
     0
1070
   272
1070
     1
1070
   341
1005
0
1002
}
  0
DIMENSION
  5
22191
330
747D
100
AcDbEntity
  8
寸法
 48
50.0
100
AcDbDimension
  2
*D25
 10
5998.804113659645
 20
7756.90777793021
 30
0.0
 11
5898.804113659644
 21
6856.907777930212
 31
0.0
 70
    32
 71
     5
 42
1800.0
  3
INABA_S40G
100
AcDbAlignedDimension
 13
7113.600000000001
 23
5956.90777793021
 33
0.0
 14
7113.600000000001
 24
7756.90777793021
 34
0.0
 50
90.0
100
AcDbRotatedDimension
1001
ACAD
1000
DSTYLE
1002
{
1070
   174
1070
     0
1070
   272
1070
     1
1070
   341
1005
0
1002
}
  0
DIMENSION
  5
22192
330
747D
100
AcDbEntity
  8
寸法
 48
50.0
100
AcDbDimension
  2
*D26
 10
6244.296915797614
 20
6079.907777930208
 30
0.0
 11
6244.296915797613
 21
6911.629496921214
 31
0.0
 70
   160
 71
     5
 42
1553.999999999998
  3
INABA_S40G
100
AcDbAlignedDimension
 13
7186.6
 23
7633.907777930206
 33
0.0
 14
7186.600000000009
 24
6079.907777930208
 34
0.0
 50
90.0
100
AcDbRotatedDimension
1001
ACAD
1000
DSTYLE
1002
{
1070
   174
1070
     0
1070
   272
1070
     1
1070
   341
1005
0
1002
}
  0
LINE
  5
22194
102
{ACAD_REACTORS
330
24810
102
}
330
747D
100
AcDbEntity
  8
部品1
 48
50.0
100
AcDbLine
 10
8123.600000000017
 20
5881.907777930216
 30
0.0
 11
8123.600000000021
 21
6076.907777930216
 31
0.0
  0
LINE
  5
22195
102
{ACAD_REACTORS
330
24810
102
}
330
747D
100
AcDbEntity
  8
部品1
 48
50.0
100
AcDbLine
 10
8323.600000000018
 20
5881.907777930217
 30
0.0
 11
8323.60000000002
 21
6076.907777930218
 31
0.0
  0
LINE
  5
22198
102
{ACAD_REACTORS
330
247F4
102
}
330
747D
100
AcDbEntity
  8
部品1
 48
50.0
100
AcDbLine
 10
9333.6
 20
5956.907777930224
 30
0.0
 11
9333.6
 21
7756.907777930206
 31
0.0
  0
LINE
  5
2219B
102
{ACAD_REACTORS
330
24822
102
}
330
747D
100
AcDbEntity
  8
部品1
 48
50.0
100
AcDbLine
 10
7113.600000000001
 20
5956.907777930206
 30
0.0
 11
7113.600000000001
 21
7756.907777930206
 31
0.0
  0
DIMENSION
  5
2219C
330
747D
100
AcDbEntity
  8
寸法
 48
50.0
100
AcDbDimension
  2
*D27
 10
6496.676935204532
 20
6856.907777930207
 30
0.0
 11
6496.67693520453
 21
6348.90006738398
 31
0.0
 70
   160
 71
     5
 42
899.99999999999
  3
INABA_S40G
100
AcDbAlignedDimension
 13
7113.600000000001
 23
5956.907777930217
 33
0.0
 14
7777.600000000004
 24
6856.907777930207
 34
0.0
 50
90.0
100
AcDbRotatedDimension
1001
ACAD
1000
DSTYLE
1002
{
1070
   174
1070
     0
1070
   272
1070
     1
1070
   341
1005
0
1002
}
  0
LINE
  5
2219F
102
{ACAD_REACTORS
330
24810
102
}
330
747D
100
AcDbEntity
  8
部品1
 48
50.0
100
AcDbLine
 10
9333.600000000002
 20
5881.907777930226
 30
0.0
 11
7113.600000000001
 21
5881.907777930206
 31
0.0
  0
DIMENSION
  5
221A3
330
747D
100
AcDbEntity
  8
寸法
 48
50.0
100
AcDbDimension
  2
*D28
 10
6811.587447470277
 20
5956.907777930206
 30
0.0
 11
6811.587447470277
 21
5348.422496555969
 31
0.0
 70
   160
  1
扉の出<>
 71
     5
 42
75.0
  3
INABA_S40G
100
AcDbAlignedDimension
 13
7113.600000000001
 23
5881.907777930206
 33
0.0
 14
6693.6
 24
5956.907777930206
 34
0.0
 50
90.0
100
AcDbRotatedDimension
1001
ACAD
1000
DSTYLE
1002
{
1070
   174
1070
     0
1070
   272
1070
     1
1070
   341
1005
0
1002
}
  0
LINE
  5
221A4
330
747D
100
AcDbEntity
  8
部品1
 48
50.0
100
AcDbLine
 10
7113.600000000001
 20
5881.907777930223
 30
0.0
 11
7113.600000000001
 21
5956.907777930206
 31
0.0
  0
LINE
  5
221A7
330
747D
100
AcDbEntity
  8
部品1
 48
50.0
100
AcDbLine
 10
9333.6
 20
5881.907777930228
 30
0.0
 11
9333.6
 21
5956.907777930224
 31
0.0
  0
LINE
  5
221A9
102
{ACAD_REACTORS
330
247D8
102
}
330
747D
100
AcDbEntity
  8
部品1
 48
50.0
100
AcDbLine
 10
9333.6
 20
7756.907777930206
 30
0.0
 11
7113.600000000001
 21
7756.907777930206
 31
0.0
  0
DIMENSION
  5
221AC
330
747D
100
AcDbEntity
  8
寸法
 48
50.0
100
AcDbDimension
  2
*D29
 10
6496.676935204532
 20
7756.907777930206
 30
0.0
 11
6396.67693520453
 21
7306.907777930208
 31
0.0
 70
    32
 71
     5
 42
899.9999999999991
  3
INABA_S40G
100
AcDbAlignedDimension
 13
7777.600000000004
 23
6856.907777930207
 33
0.0
 14
7113.600000000001
 24
7756.907777930206
 34
0.0
 50
90.0
100
AcDbRotatedDimension
1001
ACAD
1000
DSTYLE
1002
{
1070
   174
1070
     0
1070
   272
1070
     1
1070
   341
1005
0
1002
}
  0
LINE
  5
221AE
330
747D
100
AcDbEntity
  8
部品1
 48
50.0
100
AcDbLine
 10
7343.600000000001
 20
6186.907777930209
 30
0.0
 11
7233.6
 21
6186.907777930208
 31
0.0
  0
LINE
  5
221AF
330
747D
100
AcDbEntity
  8
センター
 48
2.0
100
AcDbLine
 10
7236.600000000009
 20
6129.907777930208
 30
0.0
 11
7236.600000000009
 21
6029.907777930208
 31
0.0
  0
CIRCLE
  5
221B0
330
747D
100
AcDbEntity
  8
部品1
 48
50.0
100
AcDbCircle
 10
7236.600000000009
 20
6079.907777930208
 30
0.0
 40
35.0
  0
LINE
  5
221B1
330
747D
100
AcDbEntity
  8
センター
 48
2.0
100
AcDbLine
 10
7186.600000000009
 20
6079.907777930208
 30
0.0
 11
7286.600000000008
 21
6079.907777930208
 31
0.0
  0
LINE
  5
221B3
102
{ACAD_REACTORS
330
24822
102
}
330
747D
100
AcDbEntity
  8
部品1
 48
50.0
100
AcDbLine
 10
7233.6
 20
6756.907777930215
 30
0.0
 11
7113.600000000001
 21
6756.907777930215
 31
0.0
  0
LINE
  5
221B4
102
{ACAD_REACTORS
330
24822
102
}
330
747D
100
AcDbEntity
  8
部品1
 48
50.0
100
AcDbLine
 10
7233.6
 20
6956.907777930215
 30
0.0
 11
7113.600000000001
 21
6956.907777930215
 31
0.0
  0
LINE
  5
221B6
330
747D
100
AcDbEntity
  8
部品1
 48
50.0
100
AcDbLine
 10
7343.600000000001
 20
6076.90777793021
 30
0.0
 11
7343.600000000001
 21
6186.907777930209
 31
0.0
  0
LINE
  5
221B7
330
747D
100
AcDbEntity
  8
部品1
 48
50.0
100
AcDbLine
 10
7343.600000000001
 20
7526.907777930202
 30
0.0
 11
7233.6
 21
7526.907777930204
 31
0.0
  0
LINE
  5
221B8
330
747D
100
AcDbEntity
  8
部品1
 48
50.0
100
AcDbLine
 10
7517.6
 20
7756.907777930202
 30
0.0
 11
7113.600000000001
 21
7756.907777930206
 31
0.0
  0
LINE
  5
221B9
330
747D
100
AcDbEntity
  8
センター
 48
2.0
100
AcDbLine
 10
7236.6
 20
7683.907777930206
 30
0.0
 11
7236.6
 21
7583.907777930206
 31
0.0
  0
LINE
  5
221BA
330
747D
100
AcDbEntity
  8
センター
 48
2.0
100
AcDbLine
 10
7186.6
 20
7633.907777930206
 30
0.0
 11
7286.599999999999
 21
7633.907777930206
 31
0.0
  0
CIRCLE
  5
221BB
330
747D
100
AcDbEntity
  8
部品1
 48
50.0
100
AcDbCircle
 10
7236.6
 20
7633.907777930206
 30
0.0
 40
35.0
  0
LINE
  5
221BC
330
747D
100
AcDbEntity
  8
部品1
 48
50.0
100
AcDbLine
 10
7343.600000000001
 20
7526.907777930202
 30
0.0
 11
7343.600000000002
 21
7636.907777930208
 31
0.0
  0
LINE
  5
221C7
330
747D
100
AcDbEntity
  8
部品1
 48
50.0
100
AcDbLine
 10
9213.599999999997
 20
6186.907777930223
 30
0.0
 11
9103.6
 21
6186.907777930224
 31
0.0
  0
LINE
  5
221C8
330
747D
100
AcDbEntity
  8
部品1
 48
50.0
100
AcDbLine
 10
9103.6
 20
6076.907777930222
 30
0.0
 11
9103.6
 21
6186.907777930224
 31
0.0
  0
CIRCLE
  5
221C9
330
747D
100
AcDbEntity
  8
部品1
 48
50.0
100
AcDbCircle
 10
9210.600000000008
 20
6079.907777930208
 30
0.0
 40
35.0
  0
LINE
  5
221CA
330
747D
100
AcDbEntity
  8
センター
 48
2.0
100
AcDbLine
 10
9160.600000000007
 20
6079.907777930208
 30
0.0
 11
9260.600000000009
 21
6079.907777930208
 31
0.0
  0
LINE
  5
221CB
330
747D
100
AcDbEntity
  8
センター
 48
2.0
100
AcDbLine
 10
9210.600000000008
 20
6129.907777930208
 30
0.0
 11
9210.600000000008
 21
6029.907777930208
 31
0.0
  0
LINE
  5
221CD
102
{ACAD_REACTORS
330
247F4
102
}
330
747D
100
AcDbEntity
  8
部品1
 48
50.0
100
AcDbLine
 10
9333.6
 20
6756.907777930215
 30
0.0
 11
9213.600000000003
 21
6756.907777930216
 31
0.0
  0
LINE
  5
221CE
102
{ACAD_REACTORS
330
247F4
102
}
330
747D
100
AcDbEntity
  8
部品1
 48
50.0
100
AcDbLine
 10
9333.6
 20
6956.907777930215
 30
0.0
 11
9213.600000000003
 21
6956.907777930215
 31
0.0
  0
LINE
  5
221D0
102
{ACAD_REACTORS
330
247D8
102
}
330
747D
100
AcDbEntity
  8
部品1
 48
50.0
100
AcDbLine
 10
8323.6
 20
7636.907777930206
 30
0.0
 11
8323.6
 21
7756.907777930206
 31
0.0
  0
LINE
  5
221D1
102
{ACAD_REACTORS
330
247D8
102
}
330
747D
100
AcDbEntity
  8
部品1
 48
50.0
100
AcDbLine
 10
8123.599999999999
 20
7636.907777930206
 30
0.0
 11
8123.600000000001
 21
7756.907777930206
 31
0.0
  0
LINE
  5
221D4
330
747D
100
AcDbEntity
  8
部品1
 48
50.0
100
AcDbLine
 10
9213.599999999997
 20
7526.907777930206
 30
0.0
 11
9103.6
 21
7526.907777930204
 31
0.0
  0
LINE
  5
221D5
330
747D
100
AcDbEntity
  8
部品1
 48
50.0
100
AcDbLine
 10
9103.6
 20
7526.907777930204
 30
0.0
 11
9103.6
 21
7636.907777930206
 31
0.0
  0
LINE
  5
221D6
330
747D
100
AcDbEntity
  8
センター
 48
2.0
100
AcDbLine
 10
9210.600000000001
 20
7683.907777930206
 30
0.0
 11
9210.600000000001
 21
7583.907777930206
 31
0.0
  0
LINE
  5
221D7
330
747D
100
AcDbEntity
  8
センター
 48
2.0
100
AcDbLine
 10
9160.6
 20
7633.907777930206
 30
0.0
 11
9260.600000000001
 21
7633.907777930206
 31
0.0
  0
CIRCLE
  5
221D8
330
747D
100
AcDbEntity
  8
部品1
 48
50.0
100
AcDbCircle
 10
9210.600000000001
 20
7633.907777930206
 30
0.0
 40
35.0
  0
LEADER
  5
226C9
330
747D
100
AcDbEntity
  8
寸法
 48
50.0
100
AcDbLeader
  3
INABA_S50G
 73
     0
 74
     0
 75
     1
 40
120.0
 41
994.3492424049171
 76
     3
 10
9210.68008575701
 20
7633.921501126413
 30
0.0
 10
9384.645988304974
 20
7922.880272274155
 30
0.0
 10
9509.645988304974
 20
7922.880272274155
 30
0.0
340
226CA
1001
ACAD
1000
DSTYLE
1002
{
1070
   341
1005
0
1070
    40
1040
1.0
1070
   343
1005
0
1070
   344
1005
0
1002
}
  0
MTEXT
  5
226CA
102
{ACAD_REACTORS
330
226C9
102
}
330
747D
100
AcDbEntity
  8
部品1
 62
     7
 48
50.0
100
AcDbMText
 10
10528.99523070989
 20
8007.880272274155
 30
0.0
 40
120.0
 41
0.0
 71
     6
 72
     1
  1
アンカーボルト
  7
STYLE1
 73
     1
 44
1.0
1001
ACAD
1000
MTEXTBEGIN
1070
    73
1070
     1
1070
    44
1040
1.0
1070
    74
1070
     0
1000
MTEXTEND
  0
LEADER
  5
226CB
330
747D
100
AcDbEntity
  8
寸法
 48
50.0
100
AcDbLeader
  3
INABA_S50G
 73
     0
 74
     0
 75
     1
 40
120.0
 41
720.0000000000001
 76
     3
 10
9333.695499614997
 20
6823.935147524839
 30
0.0
 10
9490.46907400128
 20
6562.921233957007
 30
0.0
 10
9615.46907400128
 20
6562.921233957007
 30
0.0
340
226CC
1001
ACAD
1000
DSTYLE
1002
{
1070
   341
1005
0
1070
    40
1040
1.0
1070
   343
1005
0
1070
   344
1005
0
1002
}
  0
MTEXT
  5
226CC
102
{ACAD_REACTORS
330
226CB
102
}
330
747D
100
AcDbEntity
  8
部品1
 62
     7
 48
50.0
100
AcDbMText
 10
10360.46907400128
 20
6647.921233957006
 30
0.0
 40
120.0
 41
0.0
 71
     6
 72
     1
  1
\A1;床下換気口
  7
STYLE1
 73
     1
 44
1.0
1001
ACAD
1000
MTEXTBEGIN
1070
    73
1070
     1
1070
    44
1040
1.0
1070
    74
1070
     0
1000
MTEXTEND
  0
MTEXT
  5
22969
102
{ACAD_REACTORS
330
22BB4
102
}
330
747D
100
AcDbEntity
  8
部品1
 62
     7
 48
50.0
100
AcDbMText
 10
8342.728105286466
 20
6538.497672783896
 30
0.0
 40
120.0
 41
0.0
 71
     6
 72
     1
  1
CB
  7
STYLE1
 73
     1
 44
1.0
1001
ACAD
1000
MTEXTBEGIN
1070
    73
1070
     1
1070
    44
1040
1.0
1070
    74
1070
     0
1000
MTEXTEND
  0
SOLID
  5
2296A
102
{ACAD_REACTORS
330
22BB4
102
}
330
747D
100
AcDbEntity
  8
寸法
 48
50.0
100
AcDbTrace
 10
8457.683737163362
 20
6600.693463134151
 30
0.0
 11
8509.490470495737
 21
6716.344187987937
 31
0.0
 12
8497.992444323095
 22
6590.142669883316
 32
0.0
 13
8497.992444323095
 23
6590.142669883316
 33
0.0
1001
ACAD
1000
DSTYLE
1002
{
1070
   341
1005
0
1070
   343
1005
0
1070
   344
1005
0
1002
}
  0
LWPOLYLINE
  5
2296B
102
{ACAD_REACTORS
330
22BB4
102
}
330
747D
100
AcDbEntity
  8
寸法
 48
50.0
100
AcDbPolyline
 90
        3
 70
     0
 43
0.0
 10
8477.83809074323
 20
6595.418066508734
 10
8439.17501423652
 20
6447.707975736186
 10
8174.870057306556
 20
6447.707975736185
1001
ACAD
1000
DSTYLE
1002
{
1070
   341
1005
0
1070
   343
1005
0
1070
   344
1005
0
1002
}
  0
DIMENSION
  5
2296D
330
747D
100
AcDbEntity
  8
寸法
 48
50.0
100
AcDbDimension
  2
*D30
 10
9103.6
 20
7356.106208443709
 30
0.0
 11
8832.843390118034
 21
7356.106208443709
 31
0.0
 70
   160
 71
     5
 42
110.0
  3
INABA_S40G
100
AcDbAlignedDimension
 13
9213.600000000001
 23
7526.907777930206
 33
0.0
 14
9103.6
 24
7526.907777930204
 34
0.0
 50
180.0
100
AcDbRotatedDimension
1001
ACAD
1000
DSTYLE
1002
{
1070
   341
1005
0
1002
}
  0
DIMENSION
  5
2296E
330
747D
100
AcDbEntity
  8
寸法
 48
50.0
100
AcDbDimension
  2
*D31
 10
9333.600000000002
 20
7356.106208443709
 30
0.0
 11
9611.683543272885
 21
7356.106208443709
 31
0.0
 70
   160
 71
     5
 42
120.0000000000036
  3
INABA_S40G
100
AcDbAlignedDimension
 13
9213.599999999997
 23
7526.907777930206
 33
0.0
 14
9333.600000000002
 24
7501.907777930203
 34
0.0
 50
180.0
100
AcDbRotatedDimension
1001
ACAD
1000
DSTYLE
1002
{
1070
   341
1005
0
1002
}
  0
DIMENSION
  5
23558
330
747D
100
AcDbEntity
  8
寸法
 48
50.0
100
AcDbDimension
  2
*D32
 10
8569.600000000004
 20
8283.817543578534
 30
0.0
 11
8223.600000000004
 21
8383.858356143337
 31
0.0
 70
    32
 71
     5
 42
692.0000000000008
  3
INABA_S40G
100
AcDbAlignedDimension
 13
7877.600000000004
 23
6956.907777930213
 33
0.0
 14
8569.600000000004
 24
6956.907777930213
 34
0.0
100
AcDbRotatedDimension
1001
ACAD
1000
DSTYLE
1002
{
1070
   174
1070
     0
1070
   272
1070
     1
1070
   288
1070
     0
1070
   341
1005
0
1002
}
  0
LINE
  5
23559
330
747D
100
AcDbEntity
  8
センター
 48
2.0
100
AcDbLine
 10
7877.600000000002
 20
6906.907777930212
 30
0.0
 11
7877.600000000002
 21
6806.907777930212
 31
0.0
  0
LINE
  5
2355C
330
747D
100
AcDbEntity
  8
センター
 48
2.0
100
AcDbLine
 10
7827.600000000002
 20
6856.907777930212
 30
0.0
 11
7927.600000000002
 21
6856.907777930212
 31
0.0
  0
LINE
  5
23562
330
747D
100
AcDbEntity
  8
センター
 48
2.0
100
AcDbLine
 10
8519.600000000004
 20
6856.907777930212
 30
0.0
 11
8619.600000000003
 21
6856.907777930212
 31
0.0
  0
LINE
  5
23565
330
747D
100
AcDbEntity
  8
センター
 48
2.0
100
AcDbLine
 10
8569.600000000004
 20
6906.907777930212
 30
0.0
 11
8569.600000000004
 21
6806.907777930212
 31
0.0
  0
DIMENSION
  5
23566
330
747D
100
AcDbEntity
  8
寸法
 48
50.0
100
AcDbDimension
  2
*D33
 10
7113.600000000002
 20
8283.817543578534
 30
0.0
 11
7495.600000000002
 21
8383.817543578535
 31
0.0
 70
    32
 71
     5
 42
764.0000000000009
  3
INABA_S40G
100
AcDbAlignedDimension
 13
7877.600000000004
 23
7056.907777930213
 33
0.0
 14
7113.600000000002
 24
7756.907777930206
 34
0.0
100
AcDbRotatedDimension
1001
ACAD
1000
DSTYLE
1002
{
1070
   174
1070
     0
1070
   272
1070
     1
1070
   279
1070
     1
1070
   288
1070
     0
1070
   341
1005
0
1002
}
  0
DIMENSION
  5
23567
330
747D
100
AcDbEntity
  8
寸法
 48
50.0
100
AcDbDimension
  2
*D34
 10
8569.600000000004
 20
8283.817543578534
 30
0.0
 11
8910.370135182455
 21
8282.079508885543
 31
0.0
 70
   160
 71
     5
 42
763.9999999999964
  3
INABA_S40G
100
AcDbAlignedDimension
 13
9333.6
 23
7756.907777930206
 33
0.0
 14
8569.600000000004
 24
6956.907777930213
 34
0.0
100
AcDbRotatedDimension
1001
ACAD
1000
DSTYLE
1002
{
1070
   174
1070
     0
1070
   272
1070
     1
1070
   279
1070
     1
1070
   288
1070
     0
1070
   341
1005
0
1002
}
  0
DIMENSION
  5
23D76
330
747D
100
AcDbEntity
  8
寸法
 48
50.0
100
AcDbDimension
  2
*D35
 10
7572.938460046265
 20
6076.907777930194
 30
0.0
 11
7572.938460046265
 21
5643.212836726313
 31
0.0
 70
   160
 71
     5
 42
194.9999999999863
  3
INABA_S40G
100
AcDbAlignedDimension
 13
7343.600000000001
 23
5881.907777930207
 33
0.0
 14
7343.600000000002
 24
6076.907777930194
 34
0.0
 50
270.0
100
AcDbRotatedDimension
1001
ACAD
1000
DSTYLE
1002
{
1070
   341
1005
0
1002
}
  0
DIMENSION
  5
23D77
330
747D
100
AcDbEntity
  8
寸法
 48
50.0
100
AcDbDimension
  2
*D36
 10
7572.938460046266
 20
6186.907777930207
 30
0.0
 11
7572.938460046265
 21
6422.955022024696
 31
0.0
 70
   160
 71
     5
 42
109.9999999999972
  3
INABA_S40G
100
AcDbAlignedDimension
 13
7343.600000000001
 23
6076.90777793021
 33
0.0
 14
7343.600000000002
 24
6186.907777930207
 34
0.0
 50
270.0
100
AcDbRotatedDimension
1001
ACAD
1000
DSTYLE
1002
{
1070
   341
1005
0
1002
}
  0
TEXT
  5
23D78
330
747D
100
AcDbEntity
  8
寸法
 62
     7
100
AcDbText
 10
7196.285760402144
 20
4626.475502531998
 30
0.0
 40
120.0
  1
扉の位置に合わせた基礎形状として下さい。
  7
STYLE1
100
AcDbText
  0
LWPOLYLINE
  5
23D79
330
747D
100
AcDbEntity
  8
寸法
 48
50.0
100
AcDbPolyline
 90
        3
 70
     0
 43
0.0
 10
-7420.680265711762
 20
5881.907777930206
 10
-7079.66980120939
 20
4775.811317867003
 10
-9893.734214141034
 20
4775.811317867003
210
0.0
220
0.0
230
-1.0
1001
ACAD
1000
DSTYLE
1002
{
1070
   341
1005
0
1070
    40
1040
1.0
1070
   343
1005
0
1070
   344
1005
0
1002
}
  0
SOLID
  5
23D7A
330
747D
100
AcDbEntity
  8
寸法
 48
50.0
100
AcDbTrace
 10
-7403.771060041775
 20
5756.316749025319
 30
0.0
 11
-7420.680265711762
 21
5881.907777930206
 31
0.0
 12
-7363.952845568298
 22
5768.589519994229
 32
0.0
 13
-7363.952845568298
 23
5768.589519994229
 33
0.0
210
0.0
220
0.0
230
-1.0
1001
ACAD
1000
DSTYLE
1002
{
1070
   341
1005
0
1070
    40
1040
1.0
1070
   343
1005
0
1070
   344
1005
0
1002
}
  0
TEXT
  5
23D7B
330
747D
100
AcDbEntity
  8
寸法
 62
     7
100
AcDbText
 10
7196.285760402144
 20
4798.079265415323
 30
0.0
 40
120.0
  1
扉位置 (2220x75)
  7
STYLE1
100
AcDbText
  0
DIMENSION
  5
23D7C
330
747D
100
AcDbEntity
  8
寸法
 48
50.0
100
AcDbDimension
  2
*D37
 10
7113.600000000001
 20
5167.043474506082
 30
0.0
 11
8223.600000000001
 21
5267.055285529703
 31
0.0
 70
    32
  1
扉の幅 <>
 71
     5
 42
2220.0
  3
INABA_S40G
100
AcDbAlignedDimension
 13
9333.6
 23
5881.907777930228
 33
0.0
 14
7113.600000000001
 24
5881.907777930193
 34
0.0
100
AcDbRotatedDimension
1001
ACAD
1000
DSTYLE
1002
{
1070
   341
1005
0
1002
}
  0
DIMENSION
  5
2418F
330
747D
100
AcDbEntity
  8
寸法
 48
50.0
100
AcDbDimension
  2
*D38
 10
5998.804113659645
 20
5956.907777930207
 30
0.0
 11
5998.804113659645
 21
5645.121052584843
 31
0.0
 70
   160
  1
a
 71
     5
 42
45.61210414290417
  3
INABA_S40G
100
AcDbAlignedDimension
 13
6244.296915797611
 23
5911.295673787302
 33
0.0
 14
7113.600000000001
 24
5956.907777930206
 34
0.0
 50
90.0
100
AcDbRotatedDimension
1001
ACAD
1000
DSTYLE
1002
{
1070
   341
1005
0
1002
}
  0
LINE
  5
24190
330
747D
100
AcDbEntity
  8
想像線
 48
10.0
100
AcDbLine
 10
7058.600000000024
 20
7802.519882073109
 30
0.0
 11
7058.600000000024
 21
7164.531102267456
 31
0.0
  0
LINE
  5
24191
330
747D
100
AcDbEntity
  8
想像線
 48
10.0
100
AcDbLine
 10
7058.600000000024
 20
7802.519882073112
 30
0.0
 11
9408.600000000012
 21
7802.519882073109
 31
0.0
  0
DIMENSION
  5
24192
330
747D
100
AcDbEntity
  8
寸法
 48
50.0
100
AcDbDimension
  2
*D39
 10
7058.600000000012
 20
8732.610661598833
 30
0.0
 11
7086.100000000006
 21
8832.610661598833
 31
0.0
 70
    32
  1
b
 71
     5
 42
54.99999999998817
  3
INABA_S40G
100
AcDbAlignedDimension
 13
7113.600000000001
 23
7756.907777930205
 33
0.0
 14
7058.600000000012
 24
8520.149966081998
 34
0.0
100
AcDbRotatedDimension
1001
ACAD
1000
DSTYLE
1002
{
1070
   341
1005
0
1002
}
  0
DIMENSION
  5
24193
330
747D
100
AcDbEntity
  8
寸法
 48
50.0
100
AcDbDimension
  2
*D40
 10
9333.6
 20
8732.610661598833
 30
0.0
 11
9371.100000000003
 21
8832.610661598833
 31
0.0
 70
    32
  1
c
 71
     5
 42
75.00000000000182
  3
INABA_S40G
100
AcDbAlignedDimension
 13
9408.600000000003
 23
8520.149966081998
 33
0.0
 14
9333.6
 24
7756.907777930205
 34
0.0
100
AcDbRotatedDimension
1001
ACAD
1000
DSTYLE
1002
{
1070
   341
1005
0
1002
}
  0
TEXT
  5
24194
330
747D
100
AcDbEntity
  8
部品1
 48
50.0
100
AcDbText
 10
9707.334428457533
 20
6779.710182168408
 30
0.0
 40
80.0
  1
(a=45,b=55,c=75)
  7
STYLE1
100
AcDbText
  0
TEXT
  5
24195
330
747D
100
AcDbEntity
  8
部品1
 48
50.0
100
AcDbText
 10
9548.75541970323
 20
6886.555403037163
 30
0.0
 40
80.0
  1
※a,b,cは屋根の出幅です。
  7
STYLE1
100
AcDbText
  0
MTEXT
  5
24196
102
{ACAD_REACTORS
330
24197
102
}
330
747D
100
AcDbEntity
  8
部品1
 62
     7
 48
50.0
100
AcDbMText
 10
10346.54261569183
 20
7065.866089970237
 30
0.0
 40
120.0
 41
0.0
 71
     6
 72
     1
  1
\A1;屋根の外寸
  7
STYLE1
 73
     1
 44
1.0
1001
ACAD
1000
MTEXTBEGIN
1070
    73
1070
     1
1070
    44
1040
1.0
1070
    74
1070
     0
1000
MTEXTEND
  0
LEADER
  5
24197
330
747D
100
AcDbEntity
  8
寸法
 48
50.0
100
AcDbLeader
  3
INABA_S50G
 73
     0
 74
     0
 75
     1
 40
120.0
 41
672.0
 76
     3
 10
9408.602603499796
 20
7239.755433433813
 30
0.0
 10
9524.542615691837
 20
6980.866089970238
 30
0.0
 10
9649.542615691837
 20
6980.866089970238
 30
0.0
340
24196
1001
ACAD
1000
DSTYLE
1002
{
1070
   341
1005
0
1070
    40
1040
1.0
1070
   343
1005
0
1070
   344
1005
0
1002
}
  0
DIMENSION
  5
24198
330
747D
100
AcDbEntity
  8
寸法
 48
50.0
100
AcDbDimension
  2
*D41
 10
5998.804113659645
 20
7802.519882073113
 30
0.0
 11
5998.804113659645
 21
8073.694503275573
 31
0.0
 70
   160
  1
a
 71
     5
 42
45.6121041429069
  3
INABA_S40G
100
AcDbAlignedDimension
 13
7113.600000000002
 23
7756.907777930206
 33
0.0
 14
6244.296915797611
 24
7802.519882073113
 34
0.0
 50
90.0
100
AcDbRotatedDimension
1001
ACAD
1000
DSTYLE
1002
{
1070
   341
1005
0
1002
}
  0
LINE
  5
24199
330
747D
100
AcDbEntity
  8
想像線
 48
10.0
100
AcDbLine
 10
9408.600000000012
 20
7802.519882073109
 30
0.0
 11
9408.600000000012
 21
7164.531102267456
 31
0.0
  0
LINE
  5
24462
330
747D
100
AcDbEntity
  8
部品1
 48
50.0
100
AcDbLine
 10
7972.599999999997
 20
6661.907777930213
 30
0.0
 11
7782.599999999996
 21
6661.907777930213
 31
0.0
  0
LINE
  5
24463
330
747D
100
AcDbEntity
  8
部品1
 48
50.0
100
AcDbLine
 10
7782.599999999996
 20
6661.907777930213
 30
0.0
 11
7782.599999999996
 21
7051.907777930212
 31
0.0
  0
LINE
  5
24464
330
747D
100
AcDbEntity
  8
部品1
 48
50.0
100
AcDbLine
 10
7972.599999999997
 20
6661.907777930213
 30
0.0
 11
7972.599999999997
 21
7051.907777930212
 31
0.0
  0
LINE
  5
24465
330
747D
100
AcDbEntity
  8
部品1
 48
50.0
100
AcDbLine
 10
7972.599999999997
 20
7051.907777930212
 30
0.0
 11
7782.599999999996
 21
7051.907777930212
 31
0.0
  0
LINE
  5
24466
330
747D
100
AcDbEntity
  8
部品1
 48
50.0
100
AcDbLine
 10
8664.599999999998
 20
6661.907777930213
 30
0.0
 11
8474.599999999997
 21
6661.907777930213
 31
0.0
  0
LINE
  5
24467
330
747D
100
AcDbEntity
  8
部品1
 48
50.0
100
AcDbLine
 10
8474.599999999997
 20
6661.907777930213
 30
0.0
 11
8474.599999999997
 21
7051.907777930212
 31
0.0
  0
LINE
  5
24468
330
747D
100
AcDbEntity
  8
部品1
 48
50.0
100
AcDbLine
 10
8664.599999999998
 20
6661.907777930213
 30
0.0
 11
8664.599999999998
 21
7051.907777930212
 31
0.0
  0
LINE
  5
24469
330
747D
100
AcDbEntity
  8
部品1
 48
50.0
100
AcDbLine
 10
8664.599999999998
 20
7051.907777930212
 30
0.0
 11
8474.599999999997
 21
7051.907777930212
 31
0.0
  0
LINE
  5
247B9
102
{ACAD_REACTORS
330
247D8
102
}
330
747D
100
AcDbEntity
  8
部品1
 48
50.0
100
AcDbLine
 10
9103.6
 20
7636.907777930204
 30
0.0
 11
7343.600000000001
 21
7636.907777930206
 31
0.0
  0
LINE
  5
247BA
102
{ACAD_REACTORS
330
24822
102
}
330
747D
100
AcDbEntity
  8
部品1
 48
50.0
100
AcDbLine
 10
7233.6
 20
6186.907777930208
 30
0.0
 11
7233.6
 21
7526.907777930202
 31
0.0
  0
LINE
  5
247BB
102
{ACAD_REACTORS
330
24810
102
}
330
747D
100
AcDbEntity
  8
部品1
 48
50.0
100
AcDbLine
 10
9103.6
 20
6076.907777930222
 30
0.0
 11
7343.600000000001
 21
6076.90777793021
 31
0.0
  0
LINE
  5
247BC
102
{ACAD_REACTORS
330
247F4
102
}
330
747D
100
AcDbEntity
  8
部品1
 48
50.0
100
AcDbLine
 10
9213.600000000001
 20
6186.907777930226
 30
0.0
 11
9213.600000000001
 21
7526.907777930206
 31
0.0
  0
HATCH
  5
247D8
330
747D
100
AcDbEntity
  8
細線
 48
50.0
100
AcDbHatch
 10
0.0
 20
0.0
 30
0.0
210
0.0
220
0.0
230
1.0
  2
LINE
 70
     0
 71
     1
 91
        1
 92
        7
 72
     0
 73
     1
 93
        4
 10
8123.600000000001
 20
7756.907777930206
 10
8123.600000000001
 20
7636.907777930208
 10
8323.6
 20
7636.907777930206
 10
8323.6
 20
7756.907777930205
 97
        4
330
221A9
330
221D1
330
247B9
330
221D0
 75
     0
 76
     1
 52
45.0
 41
10.0
 77
     0
 78
     1
 53
45.0
 43
0.0
 44
0.0
 45
-22.45064030267288
 46
22.45064030267288
 79
     0
 47
8.344551906482152
 98
        1
 10
8253.521292575417
 20
7698.876611885269
  0
HATCH
  5
247F4
330
747D
100
AcDbEntity
  8
細線
 48
50.0
100
AcDbHatch
 10
0.0
 20
0.0
 30
0.0
210
0.0
220
0.0
230
1.0
  2
LINE
 70
     0
 71
     1
 91
        1
 92
        7
 72
     0
 73
     1
 93
        4
 10
9333.600000000002
 20
6956.907777930216
 10
9213.599999999997
 20
6956.907777930215
 10
9213.600000000001
 20
6756.907777930218
 10
9333.6
 20
6756.907777930215
 97
        4
330
221CE
330
247BC
330
221CD
330
22198
 75
     0
 76
     1
 52
45.0
 41
10.0
 77
     0
 78
     1
 53
45.0
 43
0.0
 44
0.0
 45
-22.45064030267288
 46
22.45064030267288
 79
     0
 47
8.344551906482152
 98
        1
 10
9288.798758421945
 20
6872.76598473721
  0
HATCH
  5
24810
330
747D
100
AcDbEntity
  8
細線
 48
50.0
100
AcDbHatch
 10
0.0
 20
0.0
 30
0.0
210
0.0
220
0.0
230
1.0
  2
LINE
 70
     0
 71
     1
 91
        1
 92
        7
 72
     0
 73
     1
 93
        4
 10
8323.600000000022
 20
6076.907777930217
 10
8123.600000000021
 20
6076.907777930215
 10
8123.600000000017
 20
5881.907777930214
 10
8323.600000000018
 20
5881.907777930216
 97
        4
330
247BB
330
22194
330
2219F
330
22195
 75
     0
 76
     1
 52
45.0
 41
10.0
 77
     0
 78
     1
 53
45.0
 43
0.0
 44
0.0
 45
-22.45064030267288
 46
22.45064030267288
 79
     0
 47
8.344551906482152
 98
        1
 10
8261.870319439811
 20
5938.176159328595
  0
HATCH
  5
24822
330
747D
100
AcDbEntity
  8
細線
 48
50.0
100
AcDbHatch
 10
0.0
 20
0.0
 30
0.0
210
0.0
220
0.0
230
1.0
  2
LINE
 70
     0
 71
     1
 91
        1
 92
        7
 72
     0
 73
     1
 93
        4
 10
7233.600000000001
 20
6956.907777930215
 10
7113.600000000001
 20
6956.907777930215
 10
7113.600000000001
 20
6756.907777930215
 10
7233.599999999999
 20
6756.907777930215
 97
        4
330
221B4
330
2219B
330
221B3
330
247BA
 75
     0
 76
     1
 52
45.0
 41
10.0
 77
     0
 78
     1
 53
45.0
 43
0.0
 44
0.0
 45
-22.45064030267288
 46
22.45064030267288
 79
     0
 47
2.888359623907315
 98
        1
 10
7173.488445814168
 20
6885.617031508307
  0
LINE
  5
24D29
330
747D
100
AcDbEntity
  8
部品1
100
AcDbLine
 10
11322.74932829784
 20
3482.009899535162
 30
0.0
 11
5251.764142911584
 21
3482.009899535162
 31
0.0
  0
LINE
  5
24D2A
330
747D
100
AcDbEntity
  8
部品1
100
AcDbLine
 10
11322.74932829783
 20
3242.00989953516
 30
0.0
 11
5251.764142911587
 21
3242.009899535161
 31
0.0
  0
LINE
  5
24D2B
330
747D
100
AcDbEntity
  8
部品1
100
AcDbLine
 10
5251.764142911589
 20
517.7029299505147
 30
0.0
 11
11322.74932829783
 21
517.7029299505147
 31
0.0
  0
LEADER
  5
24D2C
330
747D
100
AcDbEntity
  8
寸法
 48
50.0
100
AcDbLeader
  3
INABA_S50G
 73
     0
 74
     0
 75
     1
 40
102.2727272727273
 41
680.0000000000001
 76
     3
 10
8259.871894898042
 20
2559.91356086746
 30
0.0
 10
8294.2258660114
 20
2970.366371974001
 30
0.0
 10
8419.2258660114
 20
2970.366371974001
 30
0.0
340
24D2D
1001
ACAD
1000
DSTYLE
1002
{
1070
   341
1005
0
1070
    40
1040
1.0
1070
   343
1005
0
1070
   344
1005
0
1002
}
  0
MTEXT
  5
24D2D
102
{ACAD_REACTORS
330
24D2C
102
}
330
747D
100
AcDbEntity
  8
部品1
 62
     7
 48
50.0
100
AcDbMText
 10
8444.2258660114
 20
3046.502735610365
 30
0.0
 40
80.0
 41
0.8
 71
     4
 72
     1
  1
\A1;ナット(市販品)
  7
STYLE2
 73
     1
 44
1.0
1001
ACAD
1000
MTEXTBEGIN
1070
    73
1070
     1
1070
    44
1040
1.0
1070
    74
1070
     0
1000
MTEXTEND
  0
LEADER
  5
24D2E
330
747D
100
AcDbEntity
  8
寸法
 48
50.0
100
AcDbLeader
  3
INABA_S50G
 73
     0
 74
     0
 75
     1
 40
102.2727272727273
 41
906.8181818181818
 76
     3
 10
8283.871894898043
 20
2430.161568202597
 30
0.0
 10
8325.743485266881
 20
2785.397289209214
 30
0.0
 10
8450.743485266881
 20
2785.397289209214
 30
0.0
340
24D2F
1001
ACAD
1000
DSTYLE
1002
{
1070
   341
1005
0
1070
    40
1040
1.0
1070
   343
1005
0
1070
   344
1005
0
1002
}
  0
MTEXT
  5
24D2F
102
{ACAD_REACTORS
330
24D2E
102
}
330
747D
100
AcDbEntity
  8
部品1
 62
     7
 48
50.0
100
AcDbMText
 10
8475.74348526688
 20
2861.533652845578
 30
0.0
 40
80.0
 41
0.8
 71
     4
 72
     1
  1
\A1;ワッシャー(市販品)
  7
STYLE2
 73
     1
 44
1.0
1001
ACAD
1000
MTEXTBEGIN
1070
    73
1070
     1
1070
    44
1040
1.0
1070
    74
1070
     0
1000
MTEXTEND
  0
LWPOLYLINE
  5
24D30
330
747D
100
AcDbEntity
  8
部品1
 48
50.0
100
AcDbPolyline
 90
        2
 70
     0
 43
8.0
 10
8436.471894898042
 20
1921.038279758318
 10
8730.174358297427
 20
1921.038279758318
  0
TEXT
  5
24D31
330
747D
100
AcDbEntity
  8
部品1
 48
50.0
100
AcDbText
 10
8440.825479182471
 20
2516.916960520517
 30
0.0
 40
80.0
  1
基礎ボルト(市販品)
  7
STYLE2
100
AcDbText
  0
DIMENSION
  5
24D32
330
747D
100
AcDbEntity
  8
寸法
 48
50.0
100
AcDbDimension
  2
*D54
 10
8938.340494666885
 20
1837.038279758315
 30
0.0
 11
8838.340494666885
 21
1999.038279758318
 31
0.0
 70
    32
  1
180
 71
     5
 42
324.0000000000009
  3
INABA_S40G
100
AcDbAlignedDimension
 13
8436.471894898042
 23
2161.038279758317
 33
0.0
 14
8436.471894898042
 24
1837.038279758316
 34
0.0
 50
90.0
100
AcDbRotatedDimension
1001
ACAD
1000
DSTYLE
1002
{
1070
   174
1070
     0
1070
   272
1070
     1
1070
   279
1070
     1
1070
   288
1070
     0
1070
   341
1005
0
1002
}
  0
DIMENSION
  5
24D33
330
747D
100
AcDbEntity
  8
寸法
 48
50.0
100
AcDbDimension
  2
*D55
 10
8938.340494666885
 20
2161.038279758317
 30
0.0
 11
9214.395160785912
 21
2135.914322154105
 31
0.0
 70
   160
  1
20～25
 71
     5
 42
52.76000000000113
  3
INABA_S40G
100
AcDbAlignedDimension
 13
8249.271894898043
 23
2213.798279758318
 33
0.0
 14
8436.471894898042
 24
2161.038279758317
 34
0.0
 50
90.0
100
AcDbRotatedDimension
1001
ACAD
1000
DSTYLE
1002
{
1070
   174
1070
     0
1070
   272
1070
     1
1070
   279
1070
     1
1070
   288
1070
     0
1070
   341
1005
0
1002
}
  0
MTEXT
  5
24D34
102
{ACAD_REACTORS
330
24D35
102
}
330
747D
100
AcDbEntity
  8
部品1
 62
     7
 48
50.0
100
AcDbMText
 10
8445.416357317361
 20
2425.421605911547
 30
0.0
 40
80.0
 41
0.8
 71
     4
 72
     1
  1
M10X160
  7
STYLE2
 73
     1
 44
1.0
1001
ACAD
1000
MTEXTBEGIN
1070
    73
1070
     1
1070
    44
1040
1.0
1070
    74
1070
     0
1000
MTEXTEND
  0
LEADER
  5
24D35
330
747D
100
AcDbEntity
  8
寸法
 48
50.0
100
AcDbLeader
  3
INABA_S50G
 73
     0
 74
     0
 75
     1
 40
80.0
 41
435.0
 76
     3
 10
8252.871894898042
 20
2210.198279758318
 30
0.0
 10
8295.416357317362
 20
2360.421605911547
 30
0.0
 10
8420.416357317362
 20
2360.421605911547
 30
0.0
340
24D34
1001
ACAD
1000
DSTYLE
1002
{
1070
   341
1005
0
1070
    40
1040
1.0
1070
   343
1005
0
1070
   344
1005
0
1002
}
  0
LINE
  5
24D36
330
747D
100
AcDbEntity
  8
部品1
100
AcDbLine
 10
5251.764142911586
 20
3482.009899535162
 30
0.0
 11
5251.764142911587
 21
517.7029299505147
 31
0.0
  0
LEADER
  5
24D37
330
747D
100
AcDbEntity
  8
寸法
 48
50.0
100
AcDbLeader
  3
INABA_S50G
 73
     0
 75
     1
 40
113.1818181818182
 41
608.6363636363635
 76
     3
 10
8212.608645036093
 20
2110.553953116596
 30
0.0
 10
8078.804816344746
 20
2961.933035473074
 30
0.0
 10
7953.804816344746
 20
2961.933035473074
 30
0.0
340
24D38
1001
ACAD
1000
DSTYLE
1002
{
1070
   341
1005
0
1070
    40
1040
1.0
1070
   343
1005
0
1070
   344
1005
0
1002
}
  0
MTEXT
  5
24D38
102
{ACAD_REACTORS
330
24D37
102
}
330
747D
100
AcDbEntity
  8
寸法
 62
     7
 48
50.0
100
AcDbMText
 10
7928.804816344745
 20
3043.523944563983
 30
0.0
 40
80.0
 41
0.8
 71
     6
 72
     1
  1
\A1;φ70スリーブ
  7
STYLE2
 73
     1
 44
1.0
1001
ACAD
1000
MTEXTBEGIN
1070
    73
1070
     1
1070
    44
1040
1.0
1070
    74
1070
     0
1000
MTEXTEND
  0
LWPOLYLINE
  5
24D39
330
747D
100
AcDbEntity
  8
部品1
 48
50.0
100
AcDbPolyline
 90
        2
 70
     0
 43
8.0
 10
5908.292679887892
 20
1921.038279758318
 10
6322.432581720848
 20
1921.038279758318
  0
TEXT
  5
24D3A
330
747D
100
AcDbEntity
  8
部品1
 48
50.0
100
AcDbText
 10
5908.292679887892
 20
1932.277272041572
 30
0.0
 40
80.0
  1
▽G.L
  7
STYLE2
100
AcDbText
  0
DIMENSION
  5
24D3B
330
747D
100
AcDbEntity
  8
寸法
 48
50.0
100
AcDbDimension
  2
*D56
 10
6052.012267988389
 20
1377.038279758317
 30
0.0
 11
6052.012267988389
 21
1497.038279758317
 31
0.0
 70
   160
  1
150
 71
     5
 42
240.0
  3
INABA_S40G
100
AcDbAlignedDimension
 13
6194.432581720849
 23
1617.038279758317
 33
0.0
 14
6114.432581720851
 24
1377.038279758317
 34
0.0
 50
90.0
100
AcDbRotatedDimension
1001
ACAD
1000
DSTYLE
1002
{
1070
   174
1070
     0
1070
   272
1070
     1
1070
   279
1070
     1
1070
   288
1070
     0
1070
   341
1005
0
1002
}
  0
LEADER
  5
24D3C
330
747D
100
AcDbEntity
  8
寸法
 48
50.0
100
AcDbLeader
  3
INABA_S50G
 71
     0
 73
     0
 75
     1
 40
100.0
 41
225.0
 76
     3
 10
6290.335534072991
 20
1497.038279758317
 30
0.0
 10
6168.497555525654
 20
1233.51558613988
 30
0.0
 10
6043.497555525654
 20
1233.51558613988
 30
0.0
1001
ACAD
1000
DSTYLE
1002
{
1070
    40
1040
1.0
1070
   272
1070
     1
1070
   279
1070
     1
1070
   341
1005
0
1002
}
  0
LEADER
  5
24D3D
330
747D
100
AcDbEntity
  8
寸法
 48
50.0
100
AcDbLeader
  3
INABA_S50G
 71
     0
 73
     0
 75
     1
 40
100.0
 41
222.7272727272727
 76
     3
 10
6418.432581720849
 20
1497.038279758317
 30
0.0
 10
6196.620283083088
 20
1053.199433600437
 30
0.0
 10
6071.620283083088
 20
1053.199433600437
 30
0.0
1001
ACAD
1000
DSTYLE
1002
{
1070
    40
1040
1.0
1070
   272
1070
     1
1070
   279
1070
     1
1070
   341
1005
0
1002
}
  0
MTEXT
  5
24D3E
102
{ACAD_REACTORS
330
24D3F
102
}
330
747D
100
AcDbEntity
  8
寸法
 62
     7
 48
50.0
100
AcDbMText
 10
6233.182527498044
 20
1762.338882575774
 30
0.0
 40
80.0
 41
0.8
 71
     6
 72
     1
  1
\A1;D10@300
  7
STYLE2
 73
     1
 44
1.0
1001
ACAD
1000
MTEXTBEGIN
1070
    73
1070
     1
1070
    44
1040
1.0
1070
    74
1070
     0
1000
MTEXTEND
  0
LEADER
  5
24D3F
330
747D
100
AcDbEntity
  8
寸法
 48
50.0
100
AcDbLeader
  3
INABA_S50G
 71
     0
 73
     0
 75
     1
 40
100.0
 41
540.3409090909091
 76
     3
 10
6426.432581720849
 20
1919.16549445544
 30
0.0
 10
6368.45034519215
 20
1697.695165914635
 30
0.0
 10
6243.45034519215
 20
1697.695165914635
 30
0.0
213
-9.732182305893367
223
-4.643716661138569
233
0.0
1001
ACAD
1000
DSTYLE
1002
{
1070
    40
1040
1.0
1070
   272
1070
     1
1070
   279
1070
     1
1070
   341
1005
0
1002
}
  0
LEADER
  5
24D40
330
747D
100
AcDbEntity
  8
寸法
 48
50.0
100
AcDbLeader
  3
INABA_S50G
 71
     0
 73
     0
 75
     1
 40
130.1136363636363
 41
651.1363636363636
 76
     3
 10
6402.432581720848
 20
2161.038279758317
 30
0.0
 10
6290.008001556832
 20
2301.509045214905
 30
0.0
 10
6165.008001556832
 20
2301.509045214905
 30
0.0
1001
ACAD
1000
DSTYLE
1002
{
1070
    40
1040
1.0
1070
   272
1070
     1
1070
   279
1070
     1
1070
   341
1005
0
1002
}
  0
MTEXT
  5
24D41
102
{ACAD_REACTORS
330
24D40
102
}
330
747D
100
AcDbEntity
  8
寸法
 62
     7
 48
50.0
100
AcDbMText
 10
6102.334102237575
 20
2373.554499760359
 30
0.0
 40
80.0
 41
0.8
 71
     6
 72
     1
  1
\A1;金コテ押エ
  7
STYLE2
 73
     1
 44
1.0
1001
ACAD
1000
MTEXTBEGIN
1070
    73
1070
     1
1070
    44
1040
1.0
1070
    74
1070
     0
1000
MTEXTEND
  0
DIMENSION
  5
24D42
330
747D
100
AcDbEntity
  8
寸法
 48
50.0
100
AcDbDimension
  2
*D57
 10
5587.395343159108
 20
1377.038279758317
 30
0.0
 11
5587.395343159109
 21
1748.578429414317
 31
0.0
 70
   160
  1
540
 71
     5
 42
784.0
  3
INABA_S40G
100
AcDbAlignedDimension
 13
6322.432581720848
 23
2161.038279758317
 33
0.0
 14
6114.432581720851
 24
1377.038279758317
 34
0.0
 50
90.0
100
AcDbRotatedDimension
1001
ACAD
1000
DSTYLE
1002
{
1070
   174
1070
     0
1070
   272
1070
     1
1070
   279
1070
     1
1070
   288
1070
     0
1070
   341
1005
0
1002
}
  0
MTEXT
  5
24D43
102
{ACAD_REACTORS
330
24D3D
102
}
330
747D
100
AcDbEntity
  8
寸法
 62
     7
 48
50.0
100
AcDbMText
 10
6051.620283083089
 20
1113.199433600437
 30
0.0
 40
80.0
 41
0.8
 71
     6
 72
     1
  1
D13
  7
STYLE2
 73
     1
 44
1.0
1001
ACAD
1000
MTEXTBEGIN
1070
    73
1070
     1
1070
    44
1040
1.0
1070
    74
1070
     0
1000
MTEXTEND
  0
MTEXT
  5
24D44
102
{ACAD_REACTORS
330
24D3C
102
}
330
747D
100
AcDbEntity
  8
寸法
 62
     7
 48
50.0
100
AcDbMText
 10
6023.497555525654
 20
1293.515586139881
 30
0.0
 40
80.0
 41
0.8
 71
     6
 72
     1
  1
D10
  7
STYLE2
 73
     1
 44
1.0
1001
ACAD
1000
MTEXTBEGIN
1070
    73
1070
     1
1070
    44
1040
1.0
1070
    74
1070
     0
1000
MTEXTEND
  0
DIMENSION
  5
24D45
330
747D
100
AcDbEntity
  8
寸法
 48
50.0
100
AcDbDimension
  2
*D58
 10
6642.432581720848
 20
838.6086417531569
 30
0.0
 11
6398.335823042625
 21
838.6086417531569
 31
0.0
 70
   160
  1
300
 71
     5
 42
448.0
  3
INABA_S40G
100
AcDbAlignedDimension
 13
6194.432581720849
 23
1249.038279758317
 33
0.0
 14
6642.432581720848
 24
1249.038279758317
 34
0.0
100
AcDbRotatedDimension
1001
ACAD
1000
DSTYLE
1002
{
1070
   174
1070
     0
1070
   272
1070
     1
1070
   279
1070
     1
1070
   288
1070
     0
1070
   341
1005
0
1002
}
  0
MTEXT
  5
24D46
102
{ACAD_REACTORS
330
24D47
102
}
330
747D
100
AcDbEntity
  8
寸法
 62
     7
 48
50.0
100
AcDbMText
 10
7955.447822553104
 20
2682.839672656469
 30
0.0
 40
80.0
 41
0.8
 71
     6
 72
     1
  1
アンカープレート Ｕ
  7
STYLE2
 73
     1
 44
1.0
1001
ACAD
1000
MTEXTBEGIN
1070
    73
1070
     1
1070
    44
1040
1.0
1070
    74
1070
     0
1000
MTEXTEND
  0
LEADER
  5
24D47
330
747D
100
AcDbEntity
  8
寸法
 48
50.0
100
AcDbLeader
  3
INABA_S50G
 73
     0
 75
     1
 40
106.3636363636363
 41
920.0
 76
     3
 10
8153.871894898042
 20
2230.598279758318
 30
0.0
 10
8105.447822553104
 20
2604.657854474651
 30
0.0
 10
7980.447822553104
 20
2604.657854474651
 30
0.0
340
24D46
1001
ACAD
1000
DSTYLE
1002
{
1070
   341
1005
0
1070
    40
1040
1.0
1070
   343
1005
0
1070
   344
1005
0
1002
}
  0
LINE
  5
24D48
330
747D
100
AcDbEntity
  8
細線
 48
50.0
100
AcDbLine
 10
6442.43258172085
 20
1999.411172426147
 30
0.0
 11
6514.43258172085
 21
2071.411172426147
 31
0.0
  0
ARC
  5
24D49
330
747D
100
AcDbEntity
  8
部品1
 48
50.0
100
AcDbCircle
 10
6418.432581720849
 20
2021.292709152563
 30
0.0
 40
24.0
100
AcDbArc
 50
0.0
 51
180.0
  0
CIRCLE
  5
24D4A
330
747D
100
AcDbEntity
  8
部品1
 48
50.0
100
AcDbCircle
 10
6418.432581720849
 20
2021.292709152563
 30
0.0
 40
8.0
  0
LINE
  5
24D4B
330
747D
100
AcDbEntity
  8
部品1
 48
50.0
100
AcDbLine
 10
6322.43258172085
 20
1617.038279758317
 30
0.0
 11
6322.43258172085
 21
2161.038279758317
 31
0.0
  0
LINE
  5
24D4C
330
747D
100
AcDbEntity
  8
部品1
 48
50.0
100
AcDbLine
 10
6514.43258172085
 20
2161.038279758317
 30
0.0
 11
6514.43258172085
 21
1617.038279758317
 31
0.0
  0
MTEXT
  5
24D4D
102
{ACAD_REACTORS
330
24D52
102
}
330
747D
100
AcDbEntity
  8
寸法
 62
     7
 48
50.0
100
AcDbMText
 10
6597.318518748243
 20
2022.305841057245
 30
0.0
 40
80.0
 41
0.8
 71
     4
 72
     1
  1
D13
  7
STYLE2
 73
     1
 44
1.0
1001
ACAD
1000
MTEXTBEGIN
1070
    73
1070
     1
1070
    44
1040
1.0
1070
    74
1070
     0
1000
MTEXTEND
  0
LEADER
  5
24D4E
330
747D
100
AcDbEntity
  8
寸法
 48
50.0
100
AcDbLeader
  3
INABA_S50G
 71
     0
 73
     0
 74
     0
 75
     1
 40
100.0
 41
225.0
 76
     3
 10
6546.335534072992
 20
1497.038279758317
 30
0.0
 10
6600.760241527533
 20
1401.641210815344
 30
0.0
 10
6725.760241527533
 20
1401.641210815344
 30
0.0
1001
ACAD
1000
DSTYLE
1002
{
1070
    40
1040
1.0
1070
   272
1070
     1
1070
   279
1070
     1
1070
   341
1005
0
1002
}
  0
LEADER
  5
24D4F
330
747D
100
AcDbEntity
  8
寸法
 48
50.0
100
AcDbLeader
  3
INABA_S50G
 71
     0
 73
     0
 74
     0
 75
     1
 40
100.0
 41
540.3409090909091
 76
     3
 10
6492.377750734023
 20
1480.297749344791
 30
0.0
 10
6611.171037582099
 20
1138.666931349894
 30
0.0
 10
6736.171037582099
 20
1138.666931349894
 30
0.0
213
0.0
223
-1.022262676269383
233
0.0
1001
ACAD
1000
DSTYLE
1002
{
1070
    40
1040
1.0
1070
   272
1070
     1
1070
   279
1070
     1
1070
   341
1005
0
1002
}
  0
MTEXT
  5
24D50
102
{ACAD_REACTORS
330
24D4E
102
}
330
747D
100
AcDbEntity
  8
寸法
 62
     7
 48
50.0
100
AcDbMText
 10
6745.760241527533
 20
1461.641210815344
 30
0.0
 40
80.0
 41
0.8
 71
     4
 72
     1
  1
D10
  7
STYLE2
 73
     1
 44
1.0
1001
ACAD
1000
MTEXTBEGIN
1070
    73
1070
     1
1070
    44
1040
1.0
1070
    74
1070
     0
1000
MTEXTEND
  0
LWPOLYLINE
  5
24D51
330
747D
100
AcDbEntity
  8
部品1
 48
50.0
100
AcDbPolyline
 90
        2
 70
     0
 43
8.0
 10
6514.432581720848
 20
1921.038279758318
 10
6928.572483553806
 20
1921.038279758318
  0
LEADER
  5
24D52
330
747D
100
AcDbEntity
  8
寸法
 48
50.0
100
AcDbLeader
  3
INABA_S50G
 71
     0
 73
     0
 74
     0
 75
     1
 40
100.0
 41
222.7272727272727
 76
     3
 10
6418.432581720849
 20
2021.292709152563
 30
0.0
 10
6452.318518748242
 20
1962.305841057245
 30
0.0
 10
6577.318518748242
 20
1962.305841057245
 30
0.0
1001
ACAD
1000
DSTYLE
1002
{
1070
    40
1040
1.0
1070
   272
1070
     1
1070
   279
1070
     1
1070
   341
1005
0
1002
}
  0
LINE
  5
24D53
330
747D
100
AcDbEntity
  8
細線
 48
50.0
100
AcDbLine
 10
6194.432581720842
 20
1535.885025520488
 30
0.0
 11
6275.585835958677
 21
1617.038279758317
 31
0.0
  0
LINE
  5
24D54
330
747D
100
AcDbEntity
  8
細線
 48
50.0
100
AcDbLine
 10
6402.298429198252
 20
1555.165494455439
 30
0.0
 11
6426.432581720854
 21
1579.299646978038
 31
0.0
  0
LINE
  5
24D55
330
747D
100
AcDbEntity
  8
細線
 48
50.0
100
AcDbLine
 10
6309.230446137922
 20
1489.038279758317
 30
0.0
 11
6426.432581720849
 21
1606.240415341243
 31
0.0
  0
LINE
  5
24D56
330
747D
100
AcDbEntity
  8
部品1
 48
50.0
100
AcDbLine
 10
6194.43258172085
 20
1377.038279758317
 30
0.0
 11
6194.43258172085
 21
1617.038279758317
 31
0.0
  0
LINE
  5
24D57
330
747D
100
AcDbEntity
  8
細線
 48
50.0
100
AcDbLine
 10
6551.697361406794
 20
1489.038279758317
 30
0.0
 11
6642.43258172085
 21
1579.773500072376
 31
0.0
  0
LINE
  5
24D58
330
747D
100
AcDbEntity
  8
細線
 48
50.0
100
AcDbLine
 10
6524.756593043576
 20
1489.038279758317
 30
0.0
 11
6642.43258172085
 21
1606.714268435583
 31
0.0
  0
LINE
  5
24D59
330
747D
100
AcDbEntity
  8
部品1
 48
50.0
100
AcDbLine
 10
6642.43258172085
 20
1617.038279758317
 30
0.0
 11
6642.43258172085
 21
1377.038279758317
 31
0.0
  0
LINE
  5
24D5A
330
747D
100
AcDbEntity
  8
部品1
 48
50.0
100
AcDbLine
 10
6442.432581720854
 20
1497.038279758317
 30
0.0
 11
6442.43258172085
 21
2021.292709152563
 31
0.0
  0
LINE
  5
24D5B
330
747D
100
AcDbEntity
  8
部品1
 48
50.0
100
AcDbLine
 10
6426.432581720854
 20
1497.038279758317
 30
0.0
 11
6426.432581720842
 21
2021.292709152563
 31
0.0
  0
LINE
  5
24D5C
330
747D
100
AcDbEntity
  8
細線
 48
50.0
100
AcDbLine
 10
6410.432581720849
 20
1536.358878614828
 30
0.0
 11
6426.432581720854
 21
1552.358878614828
 31
0.0
  0
LINE
  5
24D5D
330
747D
100
AcDbEntity
  8
細線
 48
50.0
100
AcDbLine
 10
6399.615421216863
 20
1249.038279758317
 30
0.0
 11
6433.912917848046
 21
1377.038279758317
 31
0.0
  0
LINE
  5
24D5E
330
747D
100
AcDbEntity
  8
部品1
 48
50.0
100
AcDbLine
 10
6722.432581720852
 20
1249.038279758317
 30
0.0
 11
6114.432581720851
 21
1249.038279758317
 31
0.0
  0
LINE
  5
24D5F
330
747D
100
AcDbEntity
  8
部品1
 48
50.0
100
AcDbLine
 10
6250.43258172085
 20
1473.038279758317
 30
0.0
 11
6586.432581720849
 21
1473.038279758317
 31
0.0
  0
LINE
  5
24D60
330
747D
100
AcDbEntity
  8
部品1
 48
50.0
100
AcDbLine
 10
6250.43258172085
 20
1489.038279758317
 30
0.0
 11
6586.432581720849
 21
1489.038279758317
 31
0.0
  0
LINE
  5
24D61
330
747D
100
AcDbEntity
  8
部品1
 48
50.0
100
AcDbLine
 10
6722.432581720852
 20
1377.038279758317
 30
0.0
 11
6114.432581720851
 21
1377.038279758317
 31
0.0
  0
CIRCLE
  5
24D62
330
747D
100
AcDbEntity
  8
部品1
 48
50.0
100
AcDbCircle
 10
6418.432581720849
 20
1497.038279758317
 30
0.0
 40
8.0
  0
LINE
  5
24D63
330
747D
100
AcDbEntity
  8
細線
 48
50.0
100
AcDbLine
 10
6412.756593043582
 20
1377.038279758317
 30
0.0
 11
6508.756593043583
 21
1473.038279758317
 31
0.0
  0
LINE
  5
24D64
330
747D
100
AcDbEntity
  8
細線
 48
50.0
100
AcDbLine
 10
6241.839331322365
 20
1249.038279758317
 30
0.0
 11
6276.136827953548
 21
1377.038279758317
 31
0.0
  0
LINE
  5
24D65
330
747D
100
AcDbEntity
  8
細線
 48
50.0
100
AcDbLine
 10
6320.72737626961
 20
1249.038279758315
 30
0.0
 11
6355.024872900794
 21
1377.038279758315
 31
0.0
  0
LINE
  5
24D66
330
747D
100
AcDbEntity
  8
細線
 48
50.0
100
AcDbLine
 10
6162.951286375108
 20
1249.038279758315
 30
0.0
 11
6197.248783006291
 21
1377.038279758315
 31
0.0
  0
LINE
  5
24D67
330
747D
100
AcDbEntity
  8
部品1
 48
50.0
100
AcDbLine
 10
6114.432581720851
 20
1249.038279758317
 30
0.0
 11
6114.432581720851
 21
1377.038279758317
 31
0.0
  0
LINE
  5
24D68
330
747D
100
AcDbEntity
  8
細線
 48
50.0
100
AcDbLine
 10
6248.270111940711
 20
1273.038279758317
 30
0.0
 11
6254.700892559059
 21
1249.038279758317
 31
0.0
  0
LINE
  5
24D69
330
747D
100
AcDbEntity
  8
細線
 48
50.0
100
AcDbLine
 10
6169.38206699346
 20
1273.038279758317
 30
0.0
 11
6175.812847611807
 21
1249.038279758317
 31
0.0
  0
LINE
  5
24D6A
330
747D
100
AcDbEntity
  8
細線
 48
50.0
100
AcDbLine
 10
6406.046201835216
 20
1273.038279758317
 30
0.0
 11
6412.476982453561
 21
1249.038279758317
 31
0.0
  0
LINE
  5
24D6B
330
747D
100
AcDbEntity
  8
細線
 48
50.0
100
AcDbLine
 10
6327.158156887964
 20
1273.038279758317
 30
0.0
 11
6333.588937506309
 21
1249.038279758317
 31
0.0
  0
LINE
  5
24D6C
330
747D
100
AcDbEntity
  8
細線
 48
50.0
100
AcDbLine
 10
6224.171214501133
 20
1377.038279758317
 30
0.0
 11
6320.171214501133
 21
1473.038279758317
 31
0.0
  0
LINE
  5
24D6D
330
747D
100
AcDbEntity
  8
細線
 48
50.0
100
AcDbLine
 10
6197.230446137922
 20
1377.038279758317
 30
0.0
 11
6293.230446137922
 21
1473.038279758317
 31
0.0
  0
LINE
  5
24D6E
330
747D
100
AcDbEntity
  8
部品1
 48
50.0
100
AcDbLine
 10
6250.43258172085
 20
1489.038279758317
 30
0.0
 11
6250.43258172085
 21
1473.038279758317
 31
0.0
  0
LINE
  5
24D6F
330
747D
100
AcDbEntity
  8
細線
 48
50.0
100
AcDbLine
 10
6190.818002387949
 20
1353.038279758317
 30
0.0
 11
6184.387221769601
 21
1377.038279758317
 31
0.0
  0
LINE
  5
24D70
330
747D
100
AcDbEntity
  8
細線
 48
50.0
100
AcDbLine
 10
6114.432581720849
 20
1362.378200724097
 30
0.0
 11
6118.360738059045
 21
1377.038279758317
 31
0.0
  0
LINE
  5
24D71
330
747D
100
AcDbEntity
  8
部品1
 48
50.0
100
AcDbLine
 10
6410.432581720849
 20
1555.165494455439
 30
0.0
 11
6394.432581720849
 21
1555.165494455439
 31
0.0
  0
CIRCLE
  5
24D72
330
747D
100
AcDbEntity
  8
部品1
 48
50.0
100
AcDbCircle
 10
6290.43258172085
 20
1497.038279758317
 30
0.0
 40
8.0
  0
LINE
  5
24D73
330
747D
100
AcDbEntity
  8
細線
 48
50.0
100
AcDbLine
 10
6363.111982864338
 20
1489.038279758317
 30
0.0
 11
6394.432581720849
 21
1520.358878614828
 31
0.0
  0
ARC
  5
24D74
330
747D
100
AcDbEntity
  8
部品1
 48
50.0
100
AcDbCircle
 10
6418.432581720849
 20
1497.038279758317
 30
0.0
 40
24.0
100
AcDbArc
 50
180.0
 51
199.4712206345143
  0
LINE
  5
24D75
330
747D
100
AcDbEntity
  8
細線
 48
50.0
100
AcDbLine
 10
6269.7060473352
 20
1353.038279758317
 30
0.0
 11
6263.275266716854
 21
1377.038279758317
 31
0.0
  0
LINE
  5
24D76
330
747D
100
AcDbEntity
  8
細線
 48
50.0
100
AcDbLine
 10
6348.594092282453
 20
1353.038279758317
 30
0.0
 11
6342.163311664107
 21
1377.038279758317
 31
0.0
  0
LINE
  5
24D77
330
747D
100
AcDbEntity
  8
細線
 48
50.0
100
AcDbLine
 10
6251.111982864338
 20
1377.038279758317
 30
0.0
 11
6347.111982864338
 21
1473.038279758317
 31
0.0
  0
LINE
  5
24D78
330
747D
100
AcDbEntity
  8
部品1
 48
50.0
100
AcDbLine
 10
6394.432581720849
 20
1555.165494455439
 30
0.0
 11
6394.432581720849
 21
1497.038279758317
 31
0.0
  0
LINE
  5
24D79
330
747D
100
AcDbEntity
  8
細線
 48
50.0
100
AcDbLine
 10
6336.171214501132
 20
1489.038279758317
 30
0.0
 11
6394.432581720849
 21
1547.299646978035
 31
0.0
  0
LINE
  5
24D7A
330
747D
100
AcDbEntity
  8
部品1
 48
50.0
100
AcDbLine
 10
6410.432581720849
 20
1555.165494455439
 30
0.0
 11
6410.432581720849
 21
1497.038279758317
 31
0.0
  0
LINE
  5
24D7B
330
747D
100
AcDbEntity
  8
部品1
 48
50.0
100
AcDbLine
 10
6722.432581720852
 20
1377.038279758317
 30
0.0
 11
6722.432581720852
 21
1249.038279758317
 31
0.0
  0
LINE
  5
24D7C
330
747D
100
AcDbEntity
  8
細線
 48
50.0
100
AcDbLine
 10
6636.279556058602
 20
1249.038279758317
 30
0.0
 11
6670.577052689788
 21
1377.038279758315
 31
0.0
  0
LINE
  5
24D7D
330
747D
100
AcDbEntity
  8
細線
 48
50.0
100
AcDbLine
 10
6478.503466164109
 20
1249.038279758317
 30
0.0
 11
6512.800962795295
 21
1377.038279758315
 31
0.0
  0
LINE
  5
24D7E
330
747D
100
AcDbEntity
  8
細線
 48
50.0
100
AcDbLine
 10
6557.391511111358
 20
1249.038279758315
 30
0.0
 11
6591.689007742542
 21
1377.038279758315
 31
0.0
  0
LINE
  5
24D7F
330
747D
100
AcDbEntity
  8
細線
 48
50.0
100
AcDbLine
 10
6563.822291729707
 20
1273.038279758317
 30
0.0
 11
6570.253072348055
 21
1249.038279758317
 31
0.0
  0
LINE
  5
24D80
330
747D
100
AcDbEntity
  8
細線
 48
50.0
100
AcDbLine
 10
6484.934246782461
 20
1273.038279758317
 30
0.0
 11
6491.365027400807
 21
1249.038279758317
 31
0.0
  0
LINE
  5
24D81
330
747D
100
AcDbEntity
  8
細線
 48
50.0
100
AcDbLine
 10
6642.710336676954
 20
1273.038279758317
 30
0.0
 11
6649.141117295302
 21
1249.038279758317
 31
0.0
  0
LINE
  5
24D82
330
747D
100
AcDbEntity
  8
細線
 48
50.0
100
AcDbLine
 10
6721.598381624201
 20
1273.038279758317
 30
0.0
 11
6722.432581720849
 21
1269.925002613952
 31
0.0
  0
LINE
  5
24D83
330
747D
100
AcDbEntity
  8
細線
 48
50.0
100
AcDbLine
 10
6715.167601005852
 20
1249.038279758315
 30
0.0
 11
6722.432581720849
 21
1276.151556902705
 31
0.0
  0
LINE
  5
24D84
330
747D
100
AcDbEntity
  8
細線
 48
50.0
100
AcDbLine
 10
6578.638129769996
 20
1489.038279758317
 30
0.0
 11
6642.43258172085
 21
1552.832731709168
 31
0.0
  0
CIRCLE
  5
24D85
330
747D
100
AcDbEntity
  8
部品1
 48
50.0
100
AcDbCircle
 10
6546.432581720849
 20
1497.038279758317
 30
0.0
 40
8.0
  0
ARC
  5
24D86
330
747D
100
AcDbEntity
  8
部品1
 48
50.0
100
AcDbCircle
 10
6418.432581720849
 20
1497.038279758317
 30
0.0
 40
24.0
100
AcDbArc
 50
340.5287793654858
 51
0.0
  0
LINE
  5
24D87
330
747D
100
AcDbEntity
  8
細線
 48
50.0
100
AcDbLine
 10
6427.482137229706
 20
1353.038279758317
 30
0.0
 11
6421.051356611357
 21
1377.038279758317
 31
0.0
  0
LINE
  5
24D88
330
747D
100
AcDbEntity
  8
細線
 48
50.0
100
AcDbLine
 10
6506.370182176951
 20
1353.038279758317
 30
0.0
 11
6499.939401558605
 21
1377.038279758317
 31
0.0
  0
LINE
  5
24D89
330
747D
100
AcDbEntity
  8
細線
 48
50.0
100
AcDbLine
 10
6439.697361406793
 20
1377.038279758317
 30
0.0
 11
6535.697361406793
 21
1473.038279758317
 31
0.0
  0
LINE
  5
24D8A
330
747D
100
AcDbEntity
  8
細線
 48
50.0
100
AcDbLine
 10
6466.638129769997
 20
1377.038279758317
 30
0.0
 11
6562.639017615133
 21
1473.039167603456
 31
0.0
  0
LINE
  5
24D8B
330
747D
100
AcDbEntity
  8
部品1
 48
50.0
100
AcDbLine
 10
6586.432581720849
 20
1489.038279758317
 30
0.0
 11
6586.432581720849
 21
1473.038279758317
 31
0.0
  0
LINE
  5
24D8C
330
747D
100
AcDbEntity
  8
細線
 48
50.0
100
AcDbLine
 10
6664.146272071443
 20
1353.038279758317
 30
0.0
 11
6657.715491453095
 21
1377.038279758317
 31
0.0
  0
LINE
  5
24D8D
330
747D
100
AcDbEntity
  8
細線
 48
50.0
100
AcDbLine
 10
6628.282739949243
 20
1377.038279758317
 30
0.0
 11
6642.43258172085
 21
1391.188121529923
 31
0.0
  0
LINE
  5
24D8E
330
747D
100
AcDbEntity
  8
細線
 48
50.0
100
AcDbLine
 10
6585.258227124197
 20
1353.038279758317
 30
0.0
 11
6578.827446505851
 21
1377.038279758317
 31
0.0
  0
LINE
  5
24D8F
330
747D
100
AcDbEntity
  8
細線
 48
50.0
100
AcDbLine
 10
6322.43258172085
 20
1690.825793883695
 30
0.0
 11
6426.432581720854
 21
1794.825793883697
 31
0.0
  0
LINE
  5
24D90
330
747D
100
AcDbEntity
  8
細線
 48
50.0
100
AcDbLine
 10
6322.43258172085
 20
1717.766562246903
 30
0.0
 11
6426.432581720849
 21
1821.766562246903
 31
0.0
  0
LINE
  5
24D91
330
747D
100
AcDbEntity
  8
細線
 48
50.0
100
AcDbLine
 10
6322.43258172085
 20
1663.885025520488
 30
0.0
 11
6426.432581720854
 21
1767.885025520488
 31
0.0
  0
LINE
  5
24D92
330
747D
100
AcDbEntity
  8
細線
 48
50.0
100
AcDbLine
 10
6410.432581720849
 20
1967.411172426147
 30
0.0
 11
6426.432581720849
 21
1983.411172426147
 31
0.0
  0
LINE
  5
24D93
330
747D
100
AcDbEntity
  8
細線
 48
50.0
100
AcDbLine
 10
6410.432581720849
 20
1994.351940789355
 30
0.0
 11
6426.432581720849
 21
2010.351940789355
 31
0.0
  0
LINE
  5
24D94
330
747D
100
AcDbEntity
  8
部品1
 48
50.0
100
AcDbLine
 10
6194.43258172085
 20
1617.038279758317
 30
0.0
 11
6322.43258172085
 21
1617.038279758317
 31
0.0
  0
LINE
  5
24D95
330
747D
100
AcDbEntity
  8
細線
 48
50.0
100
AcDbLine
 10
6194.432581720842
 20
1562.825793883692
 30
0.0
 11
6248.645067595474
 21
1617.038279758317
 31
0.0
  0
LINE
  5
24D96
330
747D
100
AcDbEntity
  8
細線
 48
50.0
100
AcDbLine
 10
6194.432581720842
 20
1589.766562246903
 30
0.0
 11
6221.704299232263
 21
1617.038279758317
 31
0.0
  0
LINE
  5
24D97
330
747D
100
AcDbEntity
  8
部品1
 48
50.0
100
AcDbLine
 10
6410.432581720849
 20
1963.165494455439
 30
0.0
 11
6394.432581720849
 21
1963.165494455443
 31
0.0
  0
LINE
  5
24D98
330
747D
100
AcDbEntity
  8
細線
 48
50.0
100
AcDbLine
 10
6322.43258172085
 20
1879.411172426148
 30
0.0
 11
6406.186903750143
 21
1963.165494455439
 31
0.0
  0
LINE
  5
24D99
330
747D
100
AcDbEntity
  8
細線
 48
50.0
100
AcDbLine
 10
6322.43258172085
 20
1906.351940789354
 30
0.0
 11
6394.432581720849
 21
1978.351940789355
 31
0.0
  0
LINE
  5
24D9A
330
747D
100
AcDbEntity
  8
部品1
 48
50.0
100
AcDbLine
 10
6394.432581720849
 20
1963.165494455443
 30
0.0
 11
6394.432581720849
 21
2021.292709152563
 31
0.0
  0
LINE
  5
24D9B
330
747D
100
AcDbEntity
  8
細線
 48
50.0
100
AcDbLine
 10
6322.43258172085
 20
1933.292709152562
 30
0.0
 11
6394.432581720849
 21
2005.292709152563
 31
0.0
  0
LINE
  5
24D9C
330
747D
100
AcDbEntity
  8
部品1
 48
50.0
100
AcDbLine
 10
6410.432581720849
 20
1963.165494455439
 30
0.0
 11
6410.432581720849
 21
2021.292709152563
 31
0.0
  0
LINE
  5
24D9D
330
747D
100
AcDbEntity
  8
細線
 48
50.0
100
AcDbLine
 10
6442.432581720854
 20
1783.885025520488
 30
0.0
 11
6514.432581720843
 21
1855.885025520488
 31
0.0
  0
LINE
  5
24D9E
330
747D
100
AcDbEntity
  8
部品1
 48
50.0
100
AcDbLine
 10
6514.43258172085
 20
1617.038279758317
 30
0.0
 11
6642.43258172085
 21
1617.038279758317
 31
0.0
  0
LINE
  5
24D9F
330
747D
100
AcDbEntity
  8
細線
 48
50.0
100
AcDbLine
 10
6442.432581720854
 20
1595.299646978038
 30
0.0
 11
6514.432581720843
 21
1667.299646978033
 31
0.0
  0
LINE
  5
24DA0
330
747D
100
AcDbEntity
  8
細線
 48
50.0
100
AcDbLine
 10
6442.432581720854
 20
1622.240415341246
 30
0.0
 11
6514.432581720843
 21
1694.240415341242
 31
0.0
  0
LINE
  5
24DA1
330
747D
100
AcDbEntity
  8
細線
 48
50.0
100
AcDbLine
 10
6442.432581720854
 20
1568.358878614828
 30
0.0
 11
6514.432581720843
 21
1640.358878614828
 31
0.0
  0
LINE
  5
24DA2
330
747D
100
AcDbEntity
  8
細線
 48
50.0
100
AcDbLine
 10
6442.43258172085
 20
1837.766562246903
 30
0.0
 11
6514.43258172085
 21
1909.766562246903
 31
0.0
  0
LINE
  5
24DA3
330
747D
100
AcDbEntity
  8
細線
 48
50.0
100
AcDbLine
 10
6442.432581720854
 20
1810.825793883697
 30
0.0
 11
6514.432581720843
 21
1882.825793883692
 31
0.0
  0
MTEXT
  5
24DA4
102
{ACAD_REACTORS
330
24D4F
102
}
330
747D
100
AcDbEntity
  8
寸法
 62
     7
 48
50.0
100
AcDbMText
 10
6756.171037582099
 20
1199.689194026164
 30
0.0
 40
80.0
 41
0.8
 71
     4
 72
     1
  1
\A1;D10@300
  7
STYLE2
 73
     1
 44
1.0
1001
ACAD
1000
MTEXTBEGIN
1070
    73
1070
     1
1070
    44
1040
1.0
1070
    74
1070
     0
1000
MTEXTEND
  0
DIMENSION
  5
24DA5
330
747D
100
AcDbEntity
  8
寸法
 48
50.0
100
AcDbDimension
  2
*D59
 10
6322.432581720848
 20
2481.038279758317
 30
0.0
 11
6429.658912066045
 21
2580.706087674697
 31
0.0
 70
   160
  1
120\P195
 71
     5
 42
192.0
  3
INABA_S40G
100
AcDbAlignedDimension
 13
6514.432581720848
 23
2161.038279758317
 33
0.0
 14
6322.432581720848
 24
2161.038279758317
 34
0.0
100
AcDbRotatedDimension
1001
ACAD
1000
DSTYLE
1002
{
1070
   174
1070
     0
1070
   272
1070
     1
1070
   279
1070
     1
1070
   288
1070
     0
1070
   341
1005
0
1002
}
  0
LINE
  5
24DA6
330
747D
100
AcDbEntity
  8
部品1
 48
50.0
100
AcDbLine
 10
6322.43258172085
 20
2161.038279758317
 30
0.0
 11
6514.43258172085
 21
2161.038279758317
 31
0.0
  0
LINE
  5
24DA7
330
747D
100
AcDbEntity
  8
細線
 48
50.0
100
AcDbLine
 10
6322.43258172085
 20
2121.878087695015
 30
0.0
 11
6361.592773784153
 21
2161.038279758317
 31
0.0
  0
LINE
  5
24DA8
330
747D
100
AcDbEntity
  8
細線
 48
50.0
100
AcDbLine
 10
6322.43258172085
 20
2094.937319331807
 30
0.0
 11
6388.533542147358
 21
2161.038279758317
 31
0.0
  0
LINE
  5
24DA9
330
747D
100
AcDbEntity
  8
細線
 48
50.0
100
AcDbLine
 10
6322.43258172085
 20
2148.818856058222
 30
0.0
 11
6334.652005420944
 21
2161.038279758317
 31
0.0
  0
LINE
  5
24DAA
330
747D
100
AcDbEntity
  8
細線
 48
50.0
100
AcDbLine
 10
6441.985288986835
 20
2025.904648055339
 30
0.0
 11
6514.43258172085
 21
2098.351940789354
 31
0.0
  0
LINE
  5
24DAB
330
747D
100
AcDbEntity
  8
細線
 48
50.0
100
AcDbLine
 10
6430.925004223318
 20
2041.785131655033
 30
0.0
 11
6514.43258172085
 21
2125.292709152563
 31
0.0
  0
LINE
  5
24DAC
330
747D
100
AcDbEntity
  8
細線
 48
50.0
100
AcDbLine
 10
8306.871894898044
 20
2002.166562246905
 30
0.0
 11
8436.471894898042
 21
2131.766562246904
 31
0.0
  0
LINE
  5
24DAD
330
747D
100
AcDbEntity
  8
部品1
100
AcDbLine
 10
8436.471894898041
 20
1617.038279758317
 30
0.0
 11
8436.471894898042
 21
2161.038279758317
 31
0.0
  0
LINE
  5
24DAE
330
747D
100
AcDbEntity
  8
部品1
 48
50.0
100
AcDbLine
 10
8022.471894898043
 20
1617.038279758317
 30
0.0
 11
8022.471894898043
 21
2161.038279758317
 31
0.0
  0
LINE
  5
24DAF
330
747D
100
AcDbEntity
  8
細線
 48
50.0
100
AcDbLine
 10
8022.471894898043
 20
1933.292709152562
 30
0.0
 11
8180.871894898043
 21
2091.692709152559
 31
0.0
  0
LINE
  5
24DB0
330
747D
100
AcDbEntity
  8
細線
 48
50.0
100
AcDbLine
 10
8022.471894898043
 20
1906.351940789354
 30
0.0
 11
8180.871894898043
 21
2064.751940789352
 31
0.0
  0
LINE
  5
24DB1
330
747D
100
AcDbEntity
  8
細線
 48
50.0
100
AcDbLine
 10
8022.471894898043
 20
1879.411172426148
 30
0.0
 11
8180.871894898038
 21
2037.81117242614
 31
0.0
  0
TEXT
  5
24DB2
330
747D
100
AcDbEntity
  8
部品1
 48
50.0
100
AcDbText
 10
7608.331993065087
 20
1932.277272041572
 30
0.0
 40
80.0
  1
▽G.L
  7
STYLE2
100
AcDbText
  0
LINE
  5
24DB3
330
747D
100
AcDbEntity
  8
部品1
100
AcDbLine
 10
8252.871894898042
 20
1936.038279758317
 30
0.0
 11
8252.871894898039
 21
2210.198279758318
 31
0.0
  0
LINE
  5
24DB4
330
747D
100
AcDbEntity
  8
部品1
100
AcDbLine
 10
8234.871894898041
 20
1936.038279758317
 30
0.0
 11
8234.87189489804
 21
2210.198279758318
 31
0.0
  0
LINE
  5
24DB5
330
747D
100
AcDbEntity
  8
細線
 48
50.0
100
AcDbLine
 10
8306.871894898044
 20
1948.285025520476
 30
0.0
 11
8436.471894898042
 21
2077.885025520467
 31
0.0
  0
LINE
  5
24DB6
330
747D
100
AcDbEntity
  8
細線
 48
50.0
100
AcDbLine
 10
8306.871894898044
 20
1975.225793883688
 30
0.0
 11
8436.471894898042
 21
2104.825793883685
 31
0.0
  0
LINE
  5
24DB7
330
747D
100
AcDbEntity
  8
部品1
100
AcDbLine
 10
8306.871894898042
 20
1837.038279758317
 30
0.0
 11
8306.871894898042
 21
2161.038279758317
 31
0.0
  0
LINE
  5
24DB8
330
747D
100
AcDbEntity
  8
部品1
100
AcDbLine
 10
8180.871894898038
 20
1837.038279758317
 30
0.0
 11
8180.871894898043
 21
2161.038279758317
 31
0.0
  0
LINE
  5
24DB9
330
747D
100
AcDbEntity
  8
細線
 48
50.0
100
AcDbLine
 10
8022.471894898043
 20
1690.825793883695
 30
0.0
 11
8180.871894898036
 21
1849.225793883684
 31
0.0
  0
LINE
  5
24DBA
330
747D
100
AcDbEntity
  8
細線
 48
50.0
100
AcDbLine
 10
8022.471894898043
 20
1663.885025520488
 30
0.0
 11
8195.625149135878
 21
1837.038279758315
 31
0.0
  0
LINE
  5
24DBB
330
747D
100
AcDbEntity
  8
細線
 48
50.0
100
AcDbLine
 10
8022.471894898043
 20
1717.766562246903
 30
0.0
 11
8180.871894898036
 21
1876.166562246898
 31
0.0
  0
LINE
  5
24DBC
330
747D
100
AcDbEntity
  8
細線
 48
50.0
100
AcDbLine
 10
7951.151296041532
 20
1377.038279758317
 30
0.0
 11
8436.471894898042
 21
1862.358878614825
 31
0.0
  0
LINE
  5
24DBD
330
747D
100
AcDbEntity
  8
細線
 48
50.0
100
AcDbLine
 10
7924.210527678326
 20
1377.038279758317
 30
0.0
 11
8436.471894898044
 21
1889.299646978031
 31
0.0
  0
LINE
  5
24DBE
330
747D
100
AcDbEntity
  8
細線
 48
50.0
100
AcDbLine
 10
7897.269759315117
 20
1377.038279758317
 30
0.0
 11
8436.471894898041
 21
1916.240415341243
 31
0.0
  0
LINE
  5
24DBF
330
747D
100
AcDbEntity
  8
部品1
 48
50.0
100
AcDbLine
 10
8644.471894898044
 20
1377.038279758317
 30
0.0
 11
7814.471894898044
 21
1377.038279758317
 31
0.0
  0
LINE
  5
24DC0
330
747D
100
AcDbEntity
  8
部品1
 48
50.0
100
AcDbLine
 10
8644.471894898044
 20
1249.038279758317
 30
0.0
 11
7814.471894898044
 21
1249.038279758317
 31
0.0
  0
LINE
  5
24DC1
330
747D
100
AcDbEntity
  8
細線
 48
50.0
100
AcDbLine
 10
7894.471894898036
 20
1535.885025520488
 30
0.0
 11
7975.625149135871
 21
1617.038279758317
 31
0.0
  0
LINE
  5
24DC2
330
747D
100
AcDbEntity
  8
部品1
 48
50.0
100
AcDbLine
 10
7894.471894898043
 20
1377.038279758317
 30
0.0
 11
7894.471894898043
 21
1617.038279758317
 31
0.0
  0
LINE
  5
24DC3
330
747D
100
AcDbEntity
  8
細線
 48
50.0
100
AcDbLine
 10
7941.87864449956
 20
1249.038279758317
 30
0.0
 11
7976.176141130742
 21
1377.038279758317
 31
0.0
  0
LINE
  5
24DC4
330
747D
100
AcDbEntity
  8
部品1
 48
50.0
100
AcDbLine
 10
7814.471894898044
 20
1249.038279758317
 30
0.0
 11
7814.471894898044
 21
1377.038279758317
 31
0.0
  0
LINE
  5
24DC5
330
747D
100
AcDbEntity
  8
細線
 48
50.0
100
AcDbLine
 10
7862.990599552301
 20
1249.038279758315
 30
0.0
 11
7897.288096183486
 21
1377.038279758315
 31
0.0
  0
LINE
  5
24DC6
330
747D
100
AcDbEntity
  8
細線
 48
50.0
100
AcDbLine
 10
8020.766689446807
 20
1249.038279758315
 30
0.0
 11
8055.064186077988
 21
1377.038279758315
 31
0.0
  0
LINE
  5
24DC7
330
747D
100
AcDbEntity
  8
細線
 48
50.0
100
AcDbLine
 10
7869.421380170654
 20
1273.038279758317
 30
0.0
 11
7875.852160789
 21
1249.038279758317
 31
0.0
  0
LINE
  5
24DC8
330
747D
100
AcDbEntity
  8
細線
 48
50.0
100
AcDbLine
 10
8027.197470065159
 20
1273.038279758317
 30
0.0
 11
8033.628250683504
 21
1249.038279758317
 31
0.0
  0
LINE
  5
24DC9
330
747D
100
AcDbEntity
  8
細線
 48
50.0
100
AcDbLine
 10
7948.309425117907
 20
1273.038279758317
 30
0.0
 11
7954.740205736253
 21
1249.038279758317
 31
0.0
  0
LINE
  5
24DCA
330
747D
100
AcDbEntity
  8
細線
 48
50.0
100
AcDbLine
 10
7814.471894898042
 20
1362.378200724097
 30
0.0
 11
7818.400051236238
 21
1377.038279758317
 31
0.0
  0
LINE
  5
24DCB
330
747D
100
AcDbEntity
  8
細線
 48
50.0
100
AcDbLine
 10
7890.857315565142
 20
1353.038279758317
 30
0.0
 11
7884.426534946797
 21
1377.038279758317
 31
0.0
  0
LINE
  5
24DCC
330
747D
100
AcDbEntity
  8
細線
 48
50.0
100
AcDbLine
 10
8048.633405459648
 20
1353.038279758317
 30
0.0
 11
8042.2026248413
 21
1377.038279758317
 31
0.0
  0
LINE
  5
24DCD
330
747D
100
AcDbEntity
  8
細線
 48
50.0
100
AcDbLine
 10
7969.745360512395
 20
1353.038279758317
 30
0.0
 11
7963.31457989405
 21
1377.038279758317
 31
0.0
  0
LWPOLYLINE
  5
24DCE
330
747D
100
AcDbEntity
  8
部品1
 48
50.0
100
AcDbPolyline
 90
        2
 70
     0
 43
8.0
 10
7608.331993065087
 20
1921.038279758318
 10
8022.471894898043
 20
1921.038279758318
  0
LINE
  5
24DCF
330
747D
100
AcDbEntity
  8
細線
 48
50.0
100
AcDbLine
 10
7894.471894898036
 20
1562.825793883692
 30
0.0
 11
7948.684380772667
 21
1617.038279758317
 31
0.0
  0
LINE
  5
24DD0
330
747D
100
AcDbEntity
  8
部品1
 48
50.0
100
AcDbLine
 10
7894.471894898043
 20
1617.038279758317
 30
0.0
 11
8022.471894898043
 21
1617.038279758317
 31
0.0
  0
LINE
  5
24DD1
330
747D
100
AcDbEntity
  8
細線
 48
50.0
100
AcDbLine
 10
7894.471894898036
 20
1589.766562246903
 30
0.0
 11
7921.743612409456
 21
1617.038279758317
 31
0.0
  0
LINE
  5
24DD2
330
747D
100
AcDbEntity
  8
細線
 48
50.0
100
AcDbLine
 10
8139.736674583986
 20
1377.038279758317
 30
0.0
 11
8436.471894898042
 21
1673.773500072369
 31
0.0
  0
LINE
  5
24DD3
330
747D
100
AcDbEntity
  8
細線
 48
50.0
100
AcDbLine
 10
8166.677442947191
 20
1377.038279758317
 30
0.0
 11
8436.471894898042
 21
1646.832731709174
 31
0.0
  0
LINE
  5
24DD4
330
747D
100
AcDbEntity
  8
細線
 48
50.0
100
AcDbLine
 10
8112.795906220778
 20
1377.038279758317
 30
0.0
 11
8436.471894898041
 21
1700.714268435583
 31
0.0
  0
LINE
  5
24DD5
330
747D
100
AcDbEntity
  8
細線
 48
50.0
100
AcDbLine
 10
8328.322053126436
 20
1377.038279758317
 30
0.0
 11
8564.471894898041
 21
1613.188121529925
 31
0.0
  0
LINE
  5
24DD6
330
747D
100
AcDbEntity
  8
細線
 48
50.0
100
AcDbLine
 10
8355.262821489647
 20
1377.038279758317
 30
0.0
 11
8564.471894898041
 21
1586.24735316671
 31
0.0
  0
LINE
  5
24DD7
330
747D
100
AcDbEntity
  8
部品1
 48
50.0
100
AcDbLine
 10
8564.471894898041
 20
1617.038279758317
 30
0.0
 11
8564.471894898041
 21
1377.038279758317
 31
0.0
  0
LINE
  5
24DD8
330
747D
100
AcDbEntity
  8
細線
 48
50.0
100
AcDbLine
 10
8382.203589852853
 20
1377.038279758317
 30
0.0
 11
8564.471894898041
 21
1559.306584803513
 31
0.0
  0
LINE
  5
24DD9
330
747D
100
AcDbEntity
  8
細線
 48
50.0
100
AcDbLine
 10
8257.430824288553
 20
1249.038279758315
 30
0.0
 11
8291.728320919734
 21
1377.038279758315
 31
0.0
  0
LINE
  5
24DDA
330
747D
100
AcDbEntity
  8
細線
 48
50.0
100
AcDbLine
 10
8099.654734394059
 20
1249.038279758317
 30
0.0
 11
8133.952231025238
 21
1377.038279758317
 31
0.0
  0
LINE
  5
24DDB
330
747D
100
AcDbEntity
  8
細線
 48
50.0
100
AcDbLine
 10
8178.542779341304
 20
1249.038279758317
 30
0.0
 11
8212.840275972489
 21
1377.038279758315
 31
0.0
  0
LINE
  5
24DDC
330
747D
100
AcDbEntity
  8
細線
 48
50.0
100
AcDbLine
 10
8336.318869235794
 20
1249.038279758317
 30
0.0
 11
8370.616365866981
 21
1377.038279758315
 31
0.0
  0
LINE
  5
24DDD
330
747D
100
AcDbEntity
  8
細線
 48
50.0
100
AcDbLine
 10
8184.973559959656
 20
1273.038279758317
 30
0.0
 11
8191.404340578003
 21
1249.038279758317
 31
0.0
  0
LINE
  5
24DDE
330
747D
100
AcDbEntity
  8
細線
 48
50.0
100
AcDbLine
 10
8106.085515012409
 20
1273.038279758317
 30
0.0
 11
8112.516295630758
 21
1249.038279758317
 31
0.0
  0
LINE
  5
24DDF
330
747D
100
AcDbEntity
  8
細線
 48
50.0
100
AcDbLine
 10
8342.749649854146
 20
1273.038279758317
 30
0.0
 11
8349.180430472493
 21
1249.038279758317
 31
0.0
  0
LINE
  5
24DE0
330
747D
100
AcDbEntity
  8
細線
 48
50.0
100
AcDbLine
 10
8263.861604906903
 20
1273.038279758317
 30
0.0
 11
8270.292385525248
 21
1249.038279758317
 31
0.0
  0
LINE
  5
24DE1
330
747D
100
AcDbEntity
  8
細線
 48
50.0
100
AcDbLine
 10
8206.409495354147
 20
1353.038279758317
 30
0.0
 11
8199.978714735799
 21
1377.038279758317
 31
0.0
  0
LINE
  5
24DE2
330
747D
100
AcDbEntity
  8
細線
 48
50.0
100
AcDbLine
 10
8127.5214504069
 20
1353.038279758317
 30
0.0
 11
8121.090669788552
 21
1377.038279758317
 31
0.0
  0
LINE
  5
24DE3
330
747D
100
AcDbEntity
  8
細線
 48
50.0
100
AcDbLine
 10
8285.297540301391
 20
1353.038279758317
 30
0.0
 11
8278.866759683046
 21
1377.038279758317
 31
0.0
  0
LINE
  5
24DE4
330
747D
100
AcDbEntity
  8
細線
 48
50.0
100
AcDbLine
 10
8364.185585248637
 20
1353.038279758317
 30
0.0
 11
8357.754804630291
 21
1377.038279758317
 31
0.0
  0
LINE
  5
24DE5
330
747D
100
AcDbEntity
  8
部品1
 48
50.0
100
AcDbLine
 10
8644.471894898044
 20
1377.038279758317
 30
0.0
 11
8644.471894898044
 21
1249.038279758317
 31
0.0
  0
LINE
  5
24DE6
330
747D
100
AcDbEntity
  8
細線
 48
50.0
100
AcDbLine
 10
8572.983004077538
 20
1249.038279758315
 30
0.0
 11
8607.280500708723
 21
1377.038279758314
 31
0.0
  0
LINE
  5
24DE7
330
747D
100
AcDbEntity
  8
細線
 48
50.0
100
AcDbLine
 10
8415.206914183043
 20
1249.038279758315
 30
0.0
 11
8449.504410814219
 21
1377.038279758317
 31
0.0
  0
LINE
  5
24DE8
330
747D
100
AcDbEntity
  8
細線
 48
50.0
100
AcDbLine
 10
8494.094959130292
 20
1249.038279758314
 30
0.0
 11
8528.392455761478
 21
1377.038279758314
 31
0.0
  0
LINE
  5
24DE9
330
747D
100
AcDbEntity
  8
細線
 48
50.0
100
AcDbLine
 10
8421.637694801393
 20
1273.038279758317
 30
0.0
 11
8428.068475419751
 21
1249.038279758317
 31
0.0
  0
LINE
  5
24DEA
330
747D
100
AcDbEntity
  8
細線
 48
50.0
100
AcDbLine
 10
8500.525739748642
 20
1273.038279758315
 30
0.0
 11
8506.956520366989
 21
1249.038279758315
 31
0.0
  0
LINE
  5
24DEB
330
747D
100
AcDbEntity
  8
細線
 48
50.0
100
AcDbLine
 10
8579.413784695887
 20
1273.038279758315
 30
0.0
 11
8585.844565314237
 21
1249.038279758315
 31
0.0
  0
LINE
  5
24DEC
330
747D
100
AcDbEntity
  8
細線
 48
50.0
100
AcDbLine
 10
8443.073630195874
 20
1353.038279758317
 30
0.0
 11
8436.642849577529
 21
1377.038279758317
 31
0.0
  0
LINE
  5
24DED
330
747D
100
AcDbEntity
  8
細線
 48
50.0
100
AcDbLine
 10
8521.961675143131
 20
1353.038279758315
 30
0.0
 11
8515.530894524784
 21
1377.038279758315
 31
0.0
  0
LINE
  5
24DEE
330
747D
100
AcDbEntity
  8
細線
 48
50.0
100
AcDbLine
 10
8600.849720090376
 20
1353.038279758315
 30
0.0
 11
8594.418939472031
 21
1377.038279758315
 31
0.0
  0
LINE
  5
24DEF
330
747D
100
AcDbEntity
  8
部品1
100
AcDbLine
 10
8306.871894898042
 20
1837.038279758315
 30
0.0
 11
8180.871894898038
 21
1837.038279758315
 31
0.0
  0
LINE
  5
24DF0
330
747D
100
AcDbEntity
  8
部品1
100
AcDbLine
 10
8288.871894898042
 20
1918.038279758317
 30
0.0
 11
8288.871894898042
 21
1936.038279758317
 31
0.0
  0
ARC
  5
24DF1
330
747D
100
AcDbEntity
  8
部品1
100
AcDbCircle
 10
8252.871894898042
 20
1936.038279758317
 30
0.0
 40
18.0
100
AcDbArc
 50
180.0
 51
270.0
  0
LINE
  5
24DF2
330
747D
100
AcDbEntity
  8
部品1
100
AcDbLine
 10
8252.871894898042
 20
1918.038279758317
 30
0.0
 11
8288.871894898042
 21
1918.038279758317
 31
0.0
  0
LINE
  5
24DF3
330
747D
100
AcDbEntity
  8
部品1
100
AcDbLine
 10
8252.871894898042
 20
1936.038279758317
 30
0.0
 11
8288.871894898042
 21
1936.038279758317
 31
0.0
  0
LINE
  5
24DF4
330
747D
100
AcDbEntity
  8
部品1
 48
50.0
100
AcDbLine
 10
8436.471894898042
 20
1617.038279758317
 30
0.0
 11
8564.471894898041
 21
1617.038279758317
 31
0.0
  0
LINE
  5
24DF5
330
747D
100
AcDbEntity
  8
部品1
100
AcDbLine
 10
8042.271894898043
 20
2251.038279758317
 30
0.0
 11
8080.071894898043
 21
2251.038279758317
 31
0.0
  0
LINE
  5
24DF6
330
747D
100
AcDbEntity
  8
細線
 48
50.0
100
AcDbLine
 10
8022.471894898043
 20
2121.878087695015
 30
0.0
 11
8061.632086961349
 21
2161.038279758317
 31
0.0
  0
LINE
  5
24DF7
330
747D
100
AcDbEntity
  8
細線
 48
50.0
100
AcDbLine
 10
8022.471894898043
 20
2094.937319331807
 30
0.0
 11
8088.572855324555
 21
2161.038279758317
 31
0.0
  0
LINE
  5
24DF8
330
747D
100
AcDbEntity
  8
部品1
 48
50.0
100
AcDbLine
 10
8022.471894898043
 20
2161.038279758317
 30
0.0
 11
8436.471894898044
 21
2161.038279758317
 31
0.0
  0
TEXT
  5
24DF9
330
747D
100
AcDbEntity
  8
部品1
 48
50.0
100
AcDbText
 10
7596.025798318551
 20
2491.598800858793
 30
0.0
 40
80.0
  1
※(別売)
  7
STYLE2
100
AcDbText
  0
LINE
  5
24DFA
330
747D
100
AcDbEntity
  8
部品1
100
AcDbLine
 10
8039.571894898044
 20
2240.238279758317
 30
0.0
 11
8039.571894898044
 21
2248.338279758317
 31
0.0
  0
ARC
  5
24DFB
330
747D
100
AcDbEntity
  8
部品1
100
AcDbCircle
 10
8042.271894898043
 20
2248.338279758317
 30
0.0
 40
2.7
100
AcDbArc
 50
90.0
 51
180.0
  0
ARC
  5
24DFC
330
747D
100
AcDbEntity
  8
部品1
100
AcDbCircle
 10
8031.471894898043
 20
2235.430183461025
 30
0.0
 40
2.7
100
AcDbArc
 50
104.0362434679059
 51
180.0
  0
LINE
  5
24DFD
330
747D
100
AcDbEntity
  8
部品1
100
AcDbLine
 10
8030.817048710444
 20
2238.049568211417
 30
0.0
 11
8039.571894898044
 21
2240.238279758317
 31
0.0
  0
ARC
  5
24DFE
330
747D
100
AcDbEntity
  8
部品1
100
AcDbCircle
 10
8031.471894898043
 20
2173.298279758317
 30
0.0
 40
2.7
100
AcDbArc
 50
180.0
 51
270.0
  0
LINE
  5
24DFF
330
747D
100
AcDbEntity
  8
細線
 48
50.0
100
AcDbLine
 10
8022.471894898043
 20
2148.818856058222
 30
0.0
 11
8034.691318598138
 21
2161.038279758317
 31
0.0
  0
LINE
  5
24E00
330
747D
100
AcDbEntity
  8
部品1
100
AcDbLine
 10
8031.471894898043
 20
2170.598279758317
 30
0.0
 11
8043.171894898037
 21
2170.598279758317
 31
0.0
  0
LINE
  5
24E01
330
747D
100
AcDbEntity
  8
部品1
100
AcDbLine
 10
8028.771894898044
 20
2173.298279758317
 30
0.0
 11
8028.771894898044
 21
2235.430183461025
 31
0.0
  0
LINE
  5
24E02
330
747D
100
AcDbEntity
  8
部品1
100
AcDbLine
 10
8187.431894898036
 20
2170.598279758317
 30
0.0
 11
8388.771894898036
 21
2170.598279758317
 31
0.0
  0
LINE
  5
24E03
330
747D
100
AcDbEntity
  8
部品1
100
AcDbLine
 10
8080.071894898043
 20
2251.038279758317
 30
0.0
 11
8080.071894898043
 21
2259.138279758317
 31
0.0
  0
LINE
  5
24E04
330
747D
100
AcDbEntity
  8
部品1
100
AcDbLine
 10
8130.471894898041
 20
2269.938279758314
 30
0.0
 11
8130.471894898041
 21
2218.638279758318
 31
0.0
  0
LINE
  5
24E05
330
747D
100
AcDbEntity
  8
部品1
100
AcDbLine
 10
8153.871894898042
 20
2230.598279758317
 30
0.0
 11
8182.031894898043
 21
2230.598279758317
 31
0.0
  0
ARC
  5
24E06
330
747D
100
AcDbEntity
  8
部品1
100
AcDbCircle
 10
8153.871894898042
 20
2227.898279758318
 30
0.0
 40
2.7
100
AcDbArc
 50
90.0
 51
180.0
  0
ARC
  5
24E07
330
747D
100
AcDbEntity
  8
部品1
100
AcDbCircle
 10
8182.031894898043
 20
2227.898279758318
 30
0.0
 40
2.7
100
AcDbArc
 50
0.0
 51
90.0
  0
LINE
  5
24E08
330
747D
100
AcDbEntity
  8
部品1
100
AcDbLine
 10
8172.771894898044
 20
2215.938279758317
 30
0.0
 11
8172.771894898044
 21
2173.298279758317
 31
0.0
  0
LINE
  5
24E09
330
747D
100
AcDbEntity
  8
部品1
100
AcDbLine
 10
8158.371894898042
 20
2170.598279758317
 30
0.0
 11
8170.071894898043
 21
2170.598279758317
 31
0.0
  0
ARC
  5
24E0A
330
747D
100
AcDbEntity
  8
部品1
100
AcDbCircle
 10
8187.431894898036
 20
2173.298279758317
 30
0.0
 40
2.7
100
AcDbArc
 50
180.0
 51
270.0
  0
ARC
  5
24E0B
330
747D
100
AcDbEntity
  8
部品1
100
AcDbCircle
 10
8170.071894898043
 20
2173.298279758317
 30
0.0
 40
2.7
100
AcDbArc
 50
270.0
 51
0.0
  0
LINE
  5
24E0C
330
747D
100
AcDbEntity
  8
部品1
100
AcDbLine
 10
8130.471894898041
 20
2218.638279758318
 30
0.0
 11
8170.071894898043
 21
2218.638279758318
 31
0.0
  0
ARC
  5
24E0D
330
747D
100
AcDbEntity
  8
部品1
100
AcDbCircle
 10
8170.071894898043
 20
2215.938279758317
 30
0.0
 40
2.7
100
AcDbArc
 50
0.0
 51
90.0
  0
LINE
  5
24E0E
330
747D
100
AcDbEntity
  8
部品1
100
AcDbLine
 10
8184.731894898042
 20
2227.898279758318
 30
0.0
 11
8184.731894898039
 21
2173.298279758317
 31
0.0
  0
LINE
  5
24E0F
330
747D
100
AcDbEntity
  8
部品1
100
AcDbLine
 10
8151.171894898041
 20
2227.898279758318
 30
0.0
 11
8151.171894898041
 21
2210.798279758317
 31
0.0
  0
LINE
  5
24E10
330
747D
100
AcDbEntity
  8
細線
100
AcDbLine
 10
8249.271894898043
 20
2170.598279758317
 30
0.0
 11
8249.271894898043
 21
2213.798279758317
 31
0.0
  0
LINE
  5
24E11
330
747D
100
AcDbEntity
  8
細線
100
AcDbLine
 10
8238.471894898045
 20
2170.598279758317
 30
0.0
 11
8238.471894898042
 21
2213.798279758317
 31
0.0
  0
LINE
  5
24E12
330
747D
100
AcDbEntity
  8
部品1
100
AcDbLine
 10
8234.871894898041
 20
2210.198279758318
 30
0.0
 11
8252.871894898042
 21
2210.198279758318
 31
0.0
  0
LINE
  5
24E13
330
747D
100
AcDbEntity
  8
部品1
100
AcDbLine
 10
8238.471894898042
 20
2213.798279758317
 30
0.0
 11
8249.271894898043
 21
2213.798279758317
 31
0.0
  0
ELLIPSE
  5
24E14
330
747D
100
AcDbEntity
  8
部品1
 48
50.0
100
AcDbEllipse
 10
8243.871894898042
 20
2430.16156820259
 30
0.0
 11
40.0
 21
0.0
 31
0.0
210
0.0
220
0.0
230
1.0
 40
0.4
 41
0.0
 42
6.283185307179586
  0
ELLIPSE
  5
24E15
330
747D
100
AcDbEntity
  8
部品1
 48
50.0
100
AcDbEllipse
 10
8243.871894898042
 20
2420.56156820259
 30
0.0
 11
40.0
 21
0.0
 31
0.0
210
0.0
220
0.0
230
1.0
 40
0.4
 41
3.141592653589793
 42
6.283185307179586
  0
LINE
  5
24E16
330
747D
100
AcDbEntity
  8
部品1
 48
50.0
100
AcDbLine
 10
8203.871894898041
 20
2430.16156820259
 30
0.0
 11
8203.871894898041
 21
2420.56156820259
 31
0.0
  0
ARC
  5
24E17
330
747D
100
AcDbEntity
  8
部品1
100
AcDbCircle
 10
8127.771894898044
 20
2269.938279758314
 30
0.0
 40
2.7
100
AcDbArc
 50
0.0
 51
90.0
  0
ARC
  5
24E18
330
747D
100
AcDbEntity
  8
部品1
100
AcDbCircle
 10
8085.471894898043
 20
2269.938279758317
 30
0.0
 40
2.7
100
AcDbArc
 50
90.0
 51
180.0
  0
LINE
  5
24E19
330
747D
100
AcDbEntity
  8
部品1
100
AcDbLine
 10
8082.771894898042
 20
2261.838279758317
 30
0.0
 11
8082.771894898042
 21
2261.838279758317
 31
0.0
  0
LINE
  5
24E1A
330
747D
100
AcDbEntity
  8
部品1
100
AcDbLine
 10
8082.771894898042
 20
2261.838279758317
 30
0.0
 11
8082.771894898042
 21
2269.938279758317
 31
0.0
  0
LINE
  5
24E1B
330
747D
100
AcDbEntity
  8
部品1
100
AcDbLine
 10
8085.471894898043
 20
2272.638279758318
 30
0.0
 11
8127.771894898044
 21
2272.638279758314
 31
0.0
  0
ARC
  5
24E1C
330
747D
100
AcDbEntity
  8
部品1
100
AcDbCircle
 10
8082.771894898042
 20
2259.138279758317
 30
0.0
 40
2.7
100
AcDbArc
 50
90.0
 51
180.0
  0
ELLIPSE
  5
24E1D
330
747D
100
AcDbEntity
  8
部品1
 48
50.0
100
AcDbEllipse
 10
8243.871894898042
 20
2430.16156820259
 30
0.0
 11
18.4
 21
0.0
 31
0.0
210
0.0
220
0.0
230
1.0
 40
0.3478260869565217
 41
0.0
 42
6.283185307179586
  0
LINE
  5
24E1E
330
747D
100
AcDbEntity
  8
部品1
 48
50.0
100
AcDbLine
 10
8283.871894898043
 20
2420.56156820259
 30
0.0
 11
8283.871894898043
 21
2430.16156820259
 31
0.0
  0
LINE
  5
24E1F
330
747D
100
AcDbEntity
  8
部品1
 48
50.0
100
AcDbLine
 10
8211.871894898044
 20
2551.91356086746
 30
0.0
 11
8227.871894898042
 21
2543.91356086746
 31
0.0
  0
LINE
  5
24E20
330
747D
100
AcDbEntity
  8
部品1
 48
50.0
100
AcDbLine
 10
8211.871894898044
 20
2519.91356086746
 30
0.0
 11
8227.871894898042
 21
2511.91356086746
 31
0.0
  0
LINE
  5
24E21
330
747D
100
AcDbEntity
  8
部品1
 48
50.0
100
AcDbLine
 10
8211.871894898044
 20
2551.91356086746
 30
0.0
 11
8227.871894898042
 21
2559.91356086746
 31
0.0
  0
LINE
  5
24E22
330
747D
100
AcDbEntity
  8
部品1
 48
50.0
100
AcDbLine
 10
8211.871894898044
 20
2519.91356086746
 30
0.0
 11
8211.871894898044
 21
2551.91356086746
 31
0.0
  0
LINE
  5
24E23
330
747D
100
AcDbEntity
  8
部品1
 48
50.0
100
AcDbLine
 10
8227.871894898042
 20
2559.91356086746
 30
0.0
 11
8259.871894898042
 21
2559.91356086746
 31
0.0
  0
ELLIPSE
  5
24E24
330
747D
100
AcDbEntity
  8
細線
 48
50.0
100
AcDbEllipse
 10
8243.871894898042
 20
2551.91356086746
 30
0.0
 11
14.76670786606846
 21
0.0
 31
0.0
210
0.0
220
0.0
230
1.0
 40
0.2071254069489396
 41
0.0
 42
6.283185307179586
  0
LINE
  5
24E25
330
747D
100
AcDbEntity
  8
部品1
 48
50.0
100
AcDbLine
 10
8227.871894898042
 20
2511.91356086746
 30
0.0
 11
8259.871894898042
 21
2511.91356086746
 31
0.0
  0
LINE
  5
24E26
330
747D
100
AcDbEntity
  8
部品1
 48
50.0
100
AcDbLine
 10
8259.871894898042
 20
2511.91356086746
 30
0.0
 11
8275.871894898044
 21
2519.91356086746
 31
0.0
  0
LINE
  5
24E27
330
747D
100
AcDbEntity
  8
部品1
 48
50.0
100
AcDbLine
 10
8227.871894898042
 20
2543.91356086746
 30
0.0
 11
8259.871894898042
 21
2543.91356086746
 31
0.0
  0
LINE
  5
24E28
330
747D
100
AcDbEntity
  8
部品1
 48
50.0
100
AcDbLine
 10
8259.871894898042
 20
2543.91356086746
 30
0.0
 11
8275.871894898044
 21
2551.91356086746
 31
0.0
  0
LINE
  5
24E29
330
747D
100
AcDbEntity
  8
細線
 48
50.0
100
AcDbLine
 10
8259.871894898042
 20
2511.91356086746
 30
0.0
 11
8259.871894898042
 21
2543.91356086746
 31
0.0
  0
LINE
  5
24E2A
330
747D
100
AcDbEntity
  8
部品1
 48
50.0
100
AcDbLine
 10
8275.871894898044
 20
2519.91356086746
 30
0.0
 11
8275.871894898044
 21
2551.91356086746
 31
0.0
  0
LINE
  5
24E2B
330
747D
100
AcDbEntity
  8
細線
 48
50.0
100
AcDbLine
 10
8227.871894898042
 20
2511.91356086746
 30
0.0
 11
8227.871894898042
 21
2543.91356086746
 31
0.0
  0
LINE
  5
24E2C
330
747D
100
AcDbEntity
  8
部品1
 48
50.0
100
AcDbLine
 10
8259.871894898042
 20
2559.91356086746
 30
0.0
 11
8275.871894898044
 21
2551.91356086746
 31
0.0
  0
TEXT
  5
24E2D
330
747D
100
AcDbEntity
  8
部品1
100
AcDbText
 10
7944.644144089973
 20
3302.457967583734
 30
0.0
 40
120.0
  1
基礎詳細
  7
STYLE2
100
AcDbText
  0
LINE
  5
24E2E
330
747D
100
AcDbEntity
  8
部品1
100
AcDbLine
 10
11322.74932829783
 20
517.7029299505147
 30
0.0
 11
11322.74932829784
 21
3482.009899535162
 31
0.0
  0
LINE
  5
24E2F
330
747D
100
AcDbEntity
  8
細線
100
AcDbLine
 10
10330.64116087758
 20
1921.038279758317
 30
0.0
 11
10136.0078272008
 21
2115.6716134351
 31
0.0
  0
LINE
  5
24E30
330
747D
100
AcDbEntity
  8
部品1
100
AcDbLine
 10
10136.0078272008
 20
2161.038279758317
 30
0.0
 11
10616.0078272008
 21
2161.038279758317
 31
0.0
  0
LINE
  5
24E31
330
747D
100
AcDbEntity
  8
細線
 48
50.0
100
AcDbLine
 10
10270.07871164406
 20
1701.339364104967
 30
0.0
 11
10304.37620827524
 21
1829.339364104966
 31
0.0
  0
LINE
  5
24E32
330
747D
100
AcDbEntity
  8
部品1
100
AcDbLine
 10
10016.0078272008
 20
1701.339364104963
 30
0.0
 11
10736.0078272008
 21
1701.339364104967
 31
0.0
  0
LINE
  5
24E33
330
747D
100
AcDbEntity
  8
部品1
100
AcDbLine
 10
10016.0078272008
 20
1829.339364104967
 30
0.0
 11
10736.0078272008
 21
1829.33936410497
 31
0.0
  0
LINE
  5
24E34
330
747D
100
AcDbEntity
  8
細線
100
AcDbLine
 10
10196.92647269404
 20
1829.339364104967
 30
0.0
 11
10288.62538834738
 21
1921.038279758317
 31
0.0
  0
LWPOLYLINE
  5
24E35
330
747D
100
AcDbEntity
  8
部品1
 48
50.0
100
AcDbPolyline
 90
        2
 70
     0
 43
12.0
 10
9751.396565100412
 20
1921.038279758317
 10
10952.48886823203
 20
1921.038279758317
  0
LINE
  5
24E36
330
747D
100
AcDbEntity
  8
細線
100
AcDbLine
 10
10279.72947263215
 20
1921.038279758317
 30
0.0
 11
10136.0078272008
 21
2064.75992518967
 31
0.0
  0
TEXT
  5
24E37
330
747D
100
AcDbEntity
  8
部品1
 48
50.0
100
AcDbText
 10
9371.889740442297
 20
1654.238539121008
 30
0.0
 40
80.0
  1
ボルトの出
 50
90.0
  7
STYLE2
100
AcDbText
  0
LINE
  5
24E38
330
747D
100
AcDbEntity
  8
部品1
100
AcDbLine
 10
10136.0078272008
 20
1921.038279758317
 30
0.0
 11
10136.0078272008
 21
2161.038279758317
 31
0.0
  0
LINE
  5
24E39
330
747D
100
AcDbEntity
  8
細線
 48
50.0
100
AcDbLine
 10
10112.30262174956
 20
1701.339364104966
 30
0.0
 11
10146.60011838074
 21
1829.339364104966
 31
0.0
  0
LINE
  5
24E3A
330
747D
100
AcDbEntity
  8
細線
 48
50.0
100
AcDbLine
 10
10191.19066669681
 20
1701.339364104967
 30
0.0
 11
10225.48816332799
 21
1829.339364104967
 31
0.0
  0
LINE
  5
24E3B
330
747D
100
AcDbEntity
  8
細線
 48
50.0
100
AcDbLine
 10
10033.41457680231
 20
1701.339364104967
 30
0.0
 11
10067.71207343349
 21
1829.339364104967
 31
0.0
  0
LINE
  5
24E3C
330
747D
100
AcDbEntity
  8
部品1
100
AcDbLine
 10
10016.0078272008
 20
1701.339364104963
 30
0.0
 11
10016.0078272008
 21
1921.038279758317
 31
0.0
  0
LINE
  5
24E3D
330
747D
100
AcDbEntity
  8
細線
 48
50.0
100
AcDbLine
 10
10118.73340236791
 20
1725.339364104967
 30
0.0
 11
10125.16418298626
 21
1701.339364104967
 31
0.0
  0
LINE
  5
24E3E
330
747D
100
AcDbEntity
  8
細線
 48
50.0
100
AcDbLine
 10
10039.84535742066
 20
1725.339364104967
 30
0.0
 11
10046.276138039
 21
1701.339364104967
 31
0.0
  0
LINE
  5
24E3F
330
747D
100
AcDbEntity
  8
細線
 48
50.0
100
AcDbLine
 10
10197.62144731516
 20
1725.339364104967
 30
0.0
 11
10204.05222793351
 21
1701.339364104967
 31
0.0
  0
LINE
  5
24E40
330
747D
100
AcDbEntity
  8
細線
 48
50.0
100
AcDbLine
 10
10276.50949226241
 20
1725.339364104967
 30
0.0
 11
10282.94027288076
 21
1701.339364104967
 31
0.0
  0
LINE
  5
24E41
330
747D
100
AcDbEntity
  8
細線
 48
50.0
100
AcDbLine
 10
10061.28129281515
 20
1805.339364104967
 30
0.0
 11
10054.8505121968
 21
1829.339364104967
 31
0.0
  0
LINE
  5
24E42
330
747D
100
AcDbEntity
  8
細線
 48
50.0
100
AcDbLine
 10
10219.05738270965
 20
1805.339364104967
 30
0.0
 11
10212.6266020913
 21
1829.339364104967
 31
0.0
  0
LINE
  5
24E43
330
747D
100
AcDbEntity
  8
細線
 48
50.0
100
AcDbLine
 10
10140.1693377624
 20
1805.339364104967
 30
0.0
 11
10133.73855714405
 21
1829.339364104967
 31
0.0
  0
LINE
  5
24E44
330
747D
100
AcDbEntity
  8
細線
100
AcDbLine
 10
10129.04422170013
 20
1829.339364104967
 30
0.0
 11
10220.74313735348
 21
1921.038279758317
 31
0.0
  0
LINE
  5
24E45
330
747D
100
AcDbEntity
  8
細線
100
AcDbLine
 10
10162.98534719708
 20
1829.339364104967
 30
0.0
 11
10254.68426285043
 21
1921.038279758317
 31
0.0
  0
LINE
  5
24E46
330
747D
100
AcDbEntity
  8
細線
100
AcDbLine
 10
10551.25847660779
 20
1921.038279758317
 30
0.0
 11
10311.25847660779
 21
2161.038279758317
 31
0.0
  0
LINE
  5
24E47
330
747D
100
AcDbEntity
  8
細線
100
AcDbLine
 10
10602.17016485322
 20
1921.038279758319
 30
0.0
 11
10362.17016485322
 21
2161.038279758317
 31
0.0
  0
LINE
  5
24E48
330
747D
100
AcDbEntity
  8
部品1
100
AcDbLine
 10
10616.0078272008
 20
2161.038279758317
 30
0.0
 11
10616.0078272008
 21
1921.038279758317
 31
0.0
  0
LINE
  5
24E49
330
747D
100
AcDbEntity
  8
細線
 48
50.0
100
AcDbLine
 10
10585.63089143305
 20
1701.339364104964
 30
0.0
 11
10619.92838806423
 21
1829.339364104964
 31
0.0
  0
LINE
  5
24E4A
330
747D
100
AcDbEntity
  8
細線
100
AcDbLine
 10
10556.92647269404
 20
1829.339364104969
 30
0.0
 11
10648.62538834739
 21
1921.038279758317
 31
0.0
  0
LINE
  5
24E4B
330
747D
100
AcDbEntity
  8
細線
 48
50.0
100
AcDbLine
 10
10506.7428464858
 20
1701.339364104966
 30
0.0
 11
10541.04034311697
 21
1829.339364104967
 31
0.0
  0
LINE
  5
24E4C
330
747D
100
AcDbEntity
  8
細線
 48
50.0
100
AcDbLine
 10
10348.96675659131
 20
1701.339364104966
 30
0.0
 11
10383.26425322249
 21
1829.339364104966
 31
0.0
  0
LINE
  5
24E4D
330
747D
100
AcDbEntity
  8
細線
 48
50.0
100
AcDbLine
 10
10427.85480153855
 20
1701.339364104967
 30
0.0
 11
10462.15229816973
 21
1829.339364104966
 31
0.0
  0
LINE
  5
24E4E
330
747D
100
AcDbEntity
  8
細線
 48
50.0
100
AcDbLine
 10
10434.2855821569
 20
1725.339364104967
 30
0.0
 11
10440.71636277525
 21
1701.339364104967
 31
0.0
  0
LINE
  5
24E4F
330
747D
100
AcDbEntity
  8
細線
 48
50.0
100
AcDbLine
 10
10355.39753720966
 20
1725.339364104967
 30
0.0
 11
10361.828317828
 21
1701.339364104967
 31
0.0
  0
LINE
  5
24E50
330
747D
100
AcDbEntity
  8
細線
 48
50.0
100
AcDbLine
 10
10513.17362710415
 20
1725.339364104967
 30
0.0
 11
10519.6044077225
 21
1701.339364104967
 31
0.0
  0
LINE
  5
24E51
330
747D
100
AcDbEntity
  8
細線
 48
50.0
100
AcDbLine
 10
10592.0616720514
 20
1725.339364104966
 30
0.0
 11
10598.49245266974
 21
1701.339364104966
 31
0.0
  0
LINE
  5
24E52
330
747D
100
AcDbEntity
  8
細線
 48
50.0
100
AcDbLine
 10
10455.72151755139
 20
1805.339364104967
 30
0.0
 11
10449.29073693304
 21
1829.339364104967
 31
0.0
  0
LINE
  5
24E53
330
747D
100
AcDbEntity
  8
細線
 48
50.0
100
AcDbLine
 10
10376.83347260415
 20
1805.339364104967
 30
0.0
 11
10370.4026919858
 21
1829.339364104967
 31
0.0
  0
LINE
  5
24E54
330
747D
100
AcDbEntity
  8
細線
 48
50.0
100
AcDbLine
 10
10297.9454276569
 20
1805.339364104967
 30
0.0
 11
10291.51464703855
 21
1829.339364104967
 31
0.0
  0
LINE
  5
24E55
330
747D
100
AcDbEntity
  8
細線
100
AcDbLine
 10
10522.98534719709
 20
1829.339364104969
 30
0.0
 11
10614.68426285043
 21
1921.038279758317
 31
0.0
  0
LINE
  5
24E56
330
747D
100
AcDbEntity
  8
細線
 48
50.0
100
AcDbLine
 10
10534.60956249863
 20
1805.339364104967
 30
0.0
 11
10528.17878188028
 21
1829.339364104967
 31
0.0
  0
LINE
  5
24E57
330
747D
100
AcDbEntity
  8
細線
100
AcDbLine
 10
10489.04422170013
 20
1829.339364104969
 30
0.0
 11
10580.74313735348
 21
1921.038279758317
 31
0.0
  0
LINE
  5
24E58
330
747D
100
AcDbEntity
  8
細線
 48
50.0
100
AcDbLine
 10
10613.49760744588
 20
1805.339364104966
 30
0.0
 11
10607.06682682754
 21
1829.339364104966
 31
0.0
  0
LINE
  5
24E59
330
747D
100
AcDbEntity
  8
細線
 48
50.0
100
AcDbLine
 10
10664.51893638029
 20
1701.339364104966
 30
0.0
 11
10698.81643301147
 21
1829.339364104964
 31
0.0
  0
LINE
  5
24E5A
330
747D
100
AcDbEntity
  8
部品1
100
AcDbLine
 10
10736.0078272008
 20
1921.038279758317
 30
0.0
 11
10736.0078272008
 21
1701.339364104967
 31
0.0
  0
LINE
  5
24E5B
330
747D
100
AcDbEntity
  8
細線
 48
50.0
100
AcDbLine
 10
10670.94971699864
 20
1725.339364104966
 30
0.0
 11
10677.38049761699
 21
1701.339364104966
 31
0.0
  0
LINE
  5
24E5C
330
747D
100
AcDbEntity
  8
細線
 48
50.0
100
AcDbLine
 10
10692.38565239313
 20
1805.339364104966
 30
0.0
 11
10685.95487177478
 21
1829.339364104966
 31
0.0
  0
LEADER
  5
24E5D
330
747D
100
AcDbEntity
  8
寸法
 48
50.0
100
AcDbLeader
  3
INABA_S50G
 73
     0
 74
     0
 75
     1
 40
120.0
 41
185.591883092037
 76
     3
 10
10546.73223881672
 20
2161.038279758317
 30
0.0
 10
10579.87044545037
 20
2333.184600439455
 30
0.0
 10
10704.87044545036
 20
2333.184600439455
 30
0.0
340
24E5E
1001
ACAD
1000
DSTYLE
1002
{
1070
    40
1040
1.0
1002
}
  0
MTEXT
  5
24E5E
102
{ACAD_REACTORS
330
24E5D
102
}
330
747D
100
AcDbEntity
  8
寸法
 62
     7
 48
50.0
100
AcDbMText
 10
10729.87044545037
 20
2418.184600439455
 30
0.0
 40
120.0
 41
0.8
 71
     4
 72
     1
  1
\A1;C.B
  7
STYLE1
 73
     1
 44
1.0
1001
ACAD
1000
MTEXTBEGIN
1070
    73
1070
     1
1070
    44
1040
1.0
1070
    74
1070
     0
1000
MTEXTEND
  0
ENDSEC
  0
SECTION
  2
OBJECTS
  0
DICTIONARY
  5
7471
330
0
100
AcDbDictionary
281
     1
  3
ACAD_COLOR
350
173D2
  3
ACAD_GROUP
350
7472
  3
ACAD_LAYOUT
350
173D3
  3
ACAD_MATERIAL
350
173D1
  3
ACAD_MLINESTYLE
350
7473
  3
ACAD_PLOTSETTINGS
350
173D4
  3
ACAD_PLOTSTYLENAME
350
173CF
  3
ACDBHEADERROUNDTRIPXREC
350
24EF5
  3
AcDbVariableDictionary
350
24EF1
  3
CONTENTDICTIONARY
350
E71C
  3
DRAWINGVARIABLESDICT
350
F3B9
  0
DICTIONARY
  5
1758F
330
7467
100
AcDbDictionary
280
     1
281
     1
  3
ACAD_LAYERSTATES
360
17590
  0
DICTIONARY
  5
173D2
102
{ACAD_REACTORS
330
7471
102
}
330
7471
100
AcDbDictionary
281
     1
  0
DICTIONARY
  5
7472
102
{ACAD_REACTORS
330
7471
102
}
330
7471
100
AcDbDictionary
281
     1
  3
*A1
350
1D2A9
  3
*A2
350
22BB4
  0
DICTIONARY
  5
173D3
102
{ACAD_REACTORS
330
7471
102
}
330
7471
100
AcDbDictionary
281
     1
  3
Model
350
173D5
  3
レイアウト1
350
173D6
  0
DICTIONARY
  5
173D1
102
{ACAD_REACTORS
330
7471
102
}
330
7471
100
AcDbDictionary
281
     1
  0
DICTIONARY
  5
7473
102
{ACAD_REACTORS
330
7471
102
}
330
7471
100
AcDbDictionary
281
     1
  3
STANDARD
350
7480
  0
DICTIONARY
  5
173D4
102
{ACAD_REACTORS
330
7471
102
}
330
7471
100
AcDbDictionary
281
     1
  0
ACDBDICTIONARYWDFLT
  5
173CF
102
{ACAD_REACTORS
330
7471
102
}
330
7471
100
AcDbDictionary
281
     1
  3
Normal
350
173D0
100
AcDbDictionaryWithDefault
340
173D0
  0
DICTIONARY
  5
24EF5
102
{ACAD_REACTORS
330
7471
102
}
330
7471
100
AcDbDictionary
281
     1
  3
COLORDICT
350
24EF7
  3
MATERIALDICT
350
24EF6
  0
DICTIONARY
  5
24EF1
102
{ACAD_REACTORS
330
7471
102
}
330
7471
100
AcDbDictionary
281
     1
  3
DIMASSOC
350
24EF2
  3
PROJECTNAME
350
24EF3
  0
DICTIONARY
  5
E71C
102
{ACAD_REACTORS
330
7471
102
}
330
7471
100
AcDbDictionary
281
     1
  0
DICTIONARY
  5
F3B9
102
{ACAD_REACTORS
330
7471
102
}
330
7471
100
AcDbDictionary
281
     1
1001
DRAWINGVARIABLESXDATA
1000
POLARMODE
1000
1
  0
DICTIONARY
  5
17590
102
{ACAD_REACTORS
330
1758F
102
}
330
1758F
100
AcDbDictionary
281
     1
  0
GROUP
  5
1D2A9
102
{ACAD_REACTORS
330
7472
102
}
330
7472
100
AcDbGroup
300

 70
     1
 71
     1
  0
GROUP
  5
22BB4
102
{ACAD_REACTORS
330
7472
102
}
330
7472
100
AcDbGroup
300

 70
     1
 71
     1
340
2296B
340
22969
340
2296A
  0
LAYOUT
  5
173D5
102
{ACAD_XDICTIONARY
360
24EF8
102
}
102
{ACAD_REACTORS
330
173D3
102
}
330
173D3
100
AcDbPlotSettings
  1

  2
クセロPDFよこ.pc3
  4
A3
  6

 40
3.174999952316284
 41
3.174999952316284
 42
3.17498779296875
 43
3.17498779296875
 44
419.9466552734374
 45
296.9259948730469
 46
0.0
 47
0.0
 48
0.0
 49
0.0
140
0.0
141
0.0
142
1.0
143
40.0
 70
 11952
 72
     1
 73
     0
 74
     2
  7
ACA3.ctb
 75
    24
147
0.025
148
0.0
149
0.0
100
AcDbLayout
  1
Model
 70
     1
 71
     0
 10
0.0
 20
0.0
 11
12.0
 21
9.0
 12
0.0
 22
0.0
 32
0.0
 14
0.0
 24
0.0
 34
0.0
 15
0.0
 25
0.0
 35
0.0
146
0.0
 13
0.0
 23
0.0
 33
0.0
 16
1.0
 26
0.0
 36
0.0
 17
0.0
 27
1.0
 37
0.0
 76
     0
330
747D
  0
LAYOUT
  5
173D6
102
{ACAD_XDICTIONARY
360
24EFA
102
}
102
{ACAD_REACTORS
330
173D3
102
}
330
173D3
100
AcDbPlotSettings
  1

  2
Microsoft Office Document Image Writer
  4

  6

 40
0.0
 41
0.0
 42
0.0
 43
0.0
 44
0.0
 45
0.0
 46
0.0
 47
0.0
 48
0.0
 49
0.0
140
0.0
141
0.0
142
1.0
143
1.0
 70
   688
 72
     0
 73
     0
 74
     5
  7
ACA3.ctb
 75
    16
147
1.0
148
0.0
149
0.0
100
AcDbLayout
  1
レイアウト1
 70
     0
 71
     1
 10
0.0
 20
0.0
 11
420.0
 21
297.0
 12
0.0
 22
0.0
 32
0.0
 14
1.000000000000000E+20
 24
1.000000000000000E+20
 34
1.000000000000000E+20
 15
-1.000000000000000E+20
 25
-1.000000000000000E+20
 35
-1.000000000000000E+20
146
0.0
 13
0.0
 23
0.0
 33
0.0
 16
1.0
 26
0.0
 36
0.0
 17
0.0
 27
1.0
 37
0.0
 76
     0
330
747A
  0
MLINESTYLE
  5
7480
102
{ACAD_REACTORS
330
7473
102
}
330
7473
100
AcDbMlineStyle
  2
STANDARD
 70
     0
  3

 62
     0
 51
90.0
 52
90.0
 71
     2
 49
0.5
 62
   256
  6
BYLAYER
 49
-0.5
 62
   256
  6
BYLAYER
  0
ACDBPLACEHOLDER
  5
173D0
102
{ACAD_REACTORS
330
173CF
102
}
330
173CF
  0
XRECORD
  5
24EF7
102
{ACAD_REACTORS
330
24EF5
102
}
330
24EF5
100
AcDbXrecord
280
     1
340
173D2
  0
XRECORD
  5
24EF6
102
{ACAD_REACTORS
330
24EF5
102
}
330
24EF5
100
AcDbXrecord
280
     1
340
173D1
  0
DICTIONARYVAR
  5
24EF2
102
{ACAD_REACTORS
330
24EF1
102
}
330
24EF1
100
DictionaryVariables
280
     0
  1
1
  0
DICTIONARYVAR
  5
24EF3
102
{ACAD_REACTORS
330
24EF1
102
}
330
24EF1
100
DictionaryVariables
280
     0
  1

  0
DICTIONARY
  5
24EF8
330
173D5
100
AcDbDictionary
280
     1
281
     1
  3
ACAD_XREC_ROUNDTRIP
360
24EF9
  0
DICTIONARY
  5
24EFA
330
173D6
100
AcDbDictionary
280
     1
281
     1
  3
ACAD_XREC_ROUNDTRIP
360
24EFB
  0
XRECORD
  5
24EF9
102
{ACAD_REACTORS
330
24EF8
102
}
330
24EF8
100
AcDbXrecord
280
     1
102
SHADEPLOT
 70
     0
102
SHADEPLOTRESLEVEL
 70
     2
102
SHADEPLOTCUSTOMDPI
 70
   150
  0
XRECORD
  5
24EFB
102
{ACAD_REACTORS
330
24EFA
102
}
330
24EFA
100
AcDbXrecord
280
     1
102
SHADEPLOT
 70
     0
102
SHADEPLOTRESLEVEL
 70
     2
102
SHADEPLOTCUSTOMDPI
 70
   300
  0
ENDSEC
  0
EOF
