  0
SECTION
  2
HEADER
  9
$ACADVER
  1
AC1015
  9
$ACADMAINTVER
 70
    20
  9
$DWGCODEPAGE
  3
ANSI_932
  9
$INSBASE
 10
0.0
 20
0.0
 30
0.0
  9
$EXTMIN
 10
139.9999999999995
 20
-0.0000000000000909
 30
0.0
  9
$EXTMAX
 10
16307.2
 20
11409.6
 30
0.0
  9
$LIMMIN
 10
0.0
 20
0.0
  9
$LIMMAX
 10
16800.0
 20
11880.0
  9
$ORTHOMODE
 70
     0
  9
$REGENMODE
 70
     1
  9
$FILLMODE
 70
     1
  9
$QTEXTMODE
 70
     0
  9
$MIRRTEXT
 70
     1
  9
$LTSCALE
 40
20.0
  9
$ATTMODE
 70
     1
  9
$TEXTSIZE
 40
4.0
  9
$TRACEWID
 40
1.0
  9
$TEXTSTYLE
  7
STYLE1
  9
$CLAYER
  8
細線
  9
$CELTYPE
  6
BYLAYER
  9
$CECOLOR
 62
   256
  9
$CELTSCALE
 40
50.0
  9
$DISPSILH
 70
     0
  9
$DIMSCALE
 40
40.0
  9
$DIMASZ
 40
2.5
  9
$DIMEXO
 40
0.5
  9
$DIMDLI
 40
7.0
  9
$DIMRND
 40
0.0
  9
$DIMDLE
 40
0.0
  9
$DIMEXE
 40
1.5
  9
$DIMTP
 40
0.0
  9
$DIMTM
 40
0.0
  9
$DIMTXT
 40
3.0
  9
$DIMCEN
 40
0.0
  9
$DIMTSZ
 40
0.0
  9
$DIMTOL
 70
     0
  9
$DIMLIM
 70
     0
  9
$DIMTIH
 70
     0
  9
$DIMTOH
 70
     0
  9
$DIMSE1
 70
     0
  9
$DIMSE2
 70
     0
  9
$DIMTAD
 70
     3
  9
$DIMZIN
 70
     8
  9
$DIMBLK
  1

  9
$DIMASO
 70
     1
  9
$DIMSHO
 70
     1
  9
$DIMPOST
  1

  9
$DIMAPOST
  1

  9
$DIMALT
 70
     0
  9
$DIMALTD
 70
     2
  9
$DIMALTF
 40
0.0394
  9
$DIMLFAC
 40
1.0
  9
$DIMTOFL
 70
     1
  9
$DIMTVP
 40
0.0
  9
$DIMTIX
 70
     1
  9
$DIMSOXD
 70
     0
  9
$DIMSAH
 70
     1
  9
$DIMBLK1
  1
DOTSMALL
  9
$DIMBLK2
  1
DOTSMALL
  9
$DIMSTYLE
  2
INABA_S40G
  9
$DIMCLRD
 70
     0
  9
$DIMCLRE
 70
     0
  9
$DIMCLRT
 70
     7
  9
$DIMTFAC
 40
1.0
  9
$DIMGAP
 40
1.0
  9
$DIMJUST
 70
     0
  9
$DIMSD1
 70
     0
  9
$DIMSD2
 70
     0
  9
$DIMTOLJ
 70
     1
  9
$DIMTZIN
 70
     0
  9
$DIMALTZ
 70
     0
  9
$DIMALTTZ
 70
     0
  9
$DIMUPT
 70
     0
  9
$DIMDEC
 70
     1
  9
$DIMTDEC
 70
     4
  9
$DIMALTU
 70
     2
  9
$DIMALTTD
 70
     2
  9
$DIMTXSTY
  7
STYLE1
  9
$DIMAUNIT
 70
     0
  9
$DIMADEC
 70
     0
  9
$DIMALTRND
 40
0.0
  9
$DIMAZIN
 70
     0
  9
$DIMDSEP
 70
    46
  9
$DIMATFIT
 70
     3
  9
$DIMFRAC
 70
     0
  9
$DIMLDRBLK
  1

  9
$DIMLUNIT
 70
     2
  9
$DIMLWD
 70
    -2
  9
$DIMLWE
 70
    -2
  9
$DIMTMOVE
 70
     0
  9
$LUNITS
 70
     2
  9
$LUPREC
 70
     1
  9
$SKETCHINC
 40
1.0
  9
$FILLETRAD
 40
3.0
  9
$AUNITS
 70
     0
  9
$AUPREC
 70
     0
  9
$MENU
  1
acad
  9
$ELEVATION
 40
0.0
  9
$PELEVATION
 40
0.0
  9
$THICKNESS
 40
0.0
  9
$LIMCHECK
 70
     0
  9
$CHAMFERA
 40
0.0
  9
$CHAMFERB
 40
0.0
  9
$CHAMFERC
 40
0.0
  9
$CHAMFERD
 40
0.0
  9
$SKPOLY
 70
     0
  9
$TDCREATE
 40
2451368.612993866
  9
$TDUCREATE
 40
2451368.237993866
  9
$TDUPDATE
 40
2455826.640984514
  9
$TDUUPDATE
 40
2455826.265984514
  9
$TDINDWG
 40
0.7183856019
  9
$TDUSRTIMER
 40
0.7183856019
  9
$USRTIMER
 70
     1
  9
$ANGBASE
 50
0.0
  9
$ANGDIR
 70
     0
  9
$PDMODE
 70
     3
  9
$PDSIZE
 40
2.0
  9
$PLINEWID
 40
0.0
  9
$SPLFRAME
 70
     0
  9
$SPLINETYPE
 70
     6
  9
$SPLINESEGS
 70
     8
  9
$HANDSEED
  5
2295C
  9
$SURFTAB1
 70
     6
  9
$SURFTAB2
 70
     6
  9
$SURFTYPE
 70
     6
  9
$SURFU
 70
     6
  9
$SURFV
 70
     6
  9
$UCSBASE
  2

  9
$UCSNAME
  2

  9
$UCSORG
 10
0.0
 20
0.0
 30
0.0
  9
$UCSXDIR
 10
1.0
 20
0.0
 30
0.0
  9
$UCSYDIR
 10
0.0
 20
1.0
 30
0.0
  9
$UCSORTHOREF
  2

  9
$UCSORTHOVIEW
 70
     0
  9
$UCSORGTOP
 10
0.0
 20
0.0
 30
0.0
  9
$UCSORGBOTTOM
 10
0.0
 20
0.0
 30
0.0
  9
$UCSORGLEFT
 10
0.0
 20
0.0
 30
0.0
  9
$UCSORGRIGHT
 10
0.0
 20
0.0
 30
0.0
  9
$UCSORGFRONT
 10
0.0
 20
0.0
 30
0.0
  9
$UCSORGBACK
 10
0.0
 20
0.0
 30
0.0
  9
$PUCSBASE
  2

  9
$PUCSNAME
  2

  9
$PUCSORG
 10
0.0
 20
0.0
 30
0.0
  9
$PUCSXDIR
 10
1.0
 20
0.0
 30
0.0
  9
$PUCSYDIR
 10
0.0
 20
1.0
 30
0.0
  9
$PUCSORTHOREF
  2

  9
$PUCSORTHOVIEW
 70
     0
  9
$PUCSORGTOP
 10
0.0
 20
0.0
 30
0.0
  9
$PUCSORGBOTTOM
 10
0.0
 20
0.0
 30
0.0
  9
$PUCSORGLEFT
 10
0.0
 20
0.0
 30
0.0
  9
$PUCSORGRIGHT
 10
0.0
 20
0.0
 30
0.0
  9
$PUCSORGFRONT
 10
0.0
 20
0.0
 30
0.0
  9
$PUCSORGBACK
 10
0.0
 20
0.0
 30
0.0
  9
$USERI1
 70
     0
  9
$USERI2
 70
     0
  9
$USERI3
 70
     0
  9
$USERI4
 70
     0
  9
$USERI5
 70
     0
  9
$USERR1
 40
0.0
  9
$USERR2
 40
0.0
  9
$USERR3
 40
0.0
  9
$USERR4
 40
0.0
  9
$USERR5
 40
0.0
  9
$WORLDVIEW
 70
     1
  9
$SHADEDGE
 70
     3
  9
$SHADEDIF
 70
    70
  9
$TILEMODE
 70
     1
  9
$MAXACTVP
 70
    16
  9
$PINSBASE
 10
0.0
 20
0.0
 30
0.0
  9
$PLIMCHECK
 70
     0
  9
$PEXTMIN
 10
1.000000000000000E+20
 20
1.000000000000000E+20
 30
1.000000000000000E+20
  9
$PEXTMAX
 10
-1.000000000000000E+20
 20
-1.000000000000000E+20
 30
-1.000000000000000E+20
  9
$PLIMMIN
 10
0.0
 20
0.0
  9
$PLIMMAX
 10
420.0
 20
297.0
  9
$UNITMODE
 70
     0
  9
$VISRETAIN
 70
     0
  9
$PLINEGEN
 70
     0
  9
$PSLTSCALE
 70
     0
  9
$TREEDEPTH
 70
  3020
  9
$CMLSTYLE
  2
STANDARD
  9
$CMLJUST
 70
     0
  9
$CMLSCALE
 40
1.0
  9
$PROXYGRAPHICS
 70
     1
  9
$MEASUREMENT
 70
     1
  9
$CELWEIGHT
370
    -1
  9
$ENDCAPS
280
     0
  9
$JOINSTYLE
280
     0
  9
$LWDISPLAY
290
     0
  9
$INSUNITS
 70
     0
  9
$HYPERLINKBASE
  1

  9
$STYLESHEET
  1

  9
$XEDIT
290
     1
  9
$CEPSNTYPE
380
     0
  9
$PSTYLEMODE
290
     1
  9
$FINGERPRINTGUID
  2
{5EAC461A-2277-4BF8-9AB0-99C43BB394F0}
  9
$VERSIONGUID
  2
{085D0749-5FD7-477C-A256-81284427BB0B}
  9
$EXTNAMES
290
     1
  9
$PSVPSCALE
 40
0.0
  9
$OLESTARTUP
290
     0
  0
ENDSEC
  0
SECTION
  2
CLASSES
  0
CLASS
  1
ACDBDICTIONARYWDFLT
  2
AcDbDictionaryWithDefault
  3
ObjectDBX Classes
 90
        0
280
     0
281
     0
  0
CLASS
  1
DICTIONARYVAR
  2
AcDbDictionaryVar
  3
ObjectDBX Classes
 90
        0
280
     0
281
     0
  0
CLASS
  1
ACDBPLACEHOLDER
  2
AcDbPlaceHolder
  3
ObjectDBX Classes
 90
        0
280
     0
281
     0
  0
CLASS
  1
LAYOUT
  2
AcDbLayout
  3
ObjectDBX Classes
 90
        0
280
     0
281
     0
  0
ENDSEC
  0
SECTION
  2
TABLES
  0
TABLE
  2
VPORT
  5
746D
330
0
100
AcDbSymbolTable
 70
     2
  0
VPORT
  5
22954
330
746D
100
AcDbSymbolTableRecord
100
AcDbViewportTableRecord
  2
*Active
 70
     0
 10
0.0
 20
0.0
 11
1.0
 21
1.0
 12
8223.761025238502
 22
5704.796475140369
 13
0.0
 23
0.0
 14
10.0
 24
10.0
 15
10.0
 25
10.0
 16
0.0
 26
0.0
 36
1.0
 17
0.0
 27
0.0
 37
0.0
 40
11494.73464854293
 41
1.522222222222222
 42
50.0
 43
0.0
 44
0.0
 50
0.0
 51
0.0
 71
     0
 72
     0
 73
     1
 74
     0
 75
     0
 76
     0
 77
     0
 78
     0
281
     0
 65
     1
110
0.0
120
0.0
130
0.0
111
1.0
121
0.0
131
0.0
112
0.0
122
1.0
132
0.0
 79
     0
146
0.0
  0
ENDTAB
  0
TABLE
  2
LTYPE
  5
746A
330
0
100
AcDbSymbolTable
 70
     5
  0
LTYPE
  5
7477
330
746A
100
AcDbSymbolTableRecord
100
AcDbLinetypeTableRecord
  2
BYBLOCK
 70
     0
  3

 72
    65
 73
     0
 40
0.0
  0
LTYPE
  5
7478
330
746A
100
AcDbSymbolTableRecord
100
AcDbLinetypeTableRecord
  2
BYLAYER
 70
     0
  3

 72
    65
 73
     0
 40
0.0
  0
LTYPE
  5
7479
330
746A
100
AcDbSymbolTableRecord
100
AcDbLinetypeTableRecord
  2
CONTINUOUS
 70
     0
  3
Solid line
 72
    65
 73
     0
 40
0.0
  0
LTYPE
  5
7816
330
746A
100
AcDbSymbolTableRecord
100
AcDbLinetypeTableRecord
  2
CENTER
 70
     0
  3
____ _ ____ _ ____ _ ____ _ ____ _ ____ _ ____ 
 72
    65
 73
     4
 40
2.0
 49
1.25
 74
     0
 49
-0.25
 74
     0
 49
0.25
 74
     0
 49
-0.25
 74
     0
  0
LTYPE
  5
781A
330
746A
100
AcDbSymbolTableRecord
100
AcDbLinetypeTableRecord
  2
HIDDEN
 70
     0
  3
__ __ __ __ __ __ __ __ __ __ __ __ __ __ __ __
 72
    65
 73
     2
 40
0.375
 49
0.25
 74
     0
 49
-0.125
 74
     0
  0
LTYPE
  5
781B
330
746A
100
AcDbSymbolTableRecord
100
AcDbLinetypeTableRecord
  2
PHANTOM
 70
     0
  3
______  __  __  ______  __  __  ______  __  __ 
 72
    65
 73
     6
 40
2.5
 49
1.25
 74
     0
 49
-0.25
 74
     0
 49
0.25
 74
     0
 49
-0.25
 74
     0
 49
0.25
 74
     0
 49
-0.25
 74
     0
  0
LTYPE
  5
12CC3
330
746A
100
AcDbSymbolTableRecord
100
AcDbLinetypeTableRecord
  2
HIDDENX2
 70
     0
  3
Hidden (2x) ____ ____ ____ ____ ____ ____ ____
 72
    65
 73
     2
 40
19.05
 49
12.7
 74
     0
 49
-6.349999999999999
 74
     0
  0
ENDTAB
  0
TABLE
  2
LAYER
  5
7467
102
{ACAD_XDICTIONARY
360
1758F
102
}
330
0
100
AcDbSymbolTable
 70
    12
  0
LAYER
  5
7474
330
7467
100
AcDbSymbolTableRecord
100
AcDbLayerTableRecord
  2
0
 70
     0
 62
     7
  6
CONTINUOUS
370
    -3
390
173D0
  0
LAYER
  5
DEB2
330
7467
100
AcDbSymbolTableRecord
100
AcDbLayerTableRecord
  2
センター
 70
     0
 62
     3
  6
CENTER
370
    -3
390
173D0
  0
LAYER
  5
DEB3
330
7467
100
AcDbSymbolTableRecord
100
AcDbLayerTableRecord
  2
寸法
 70
     0
 62
     4
  6
CONTINUOUS
370
    -3
390
173D0
  0
LAYER
  5
DEB4
330
7467
100
AcDbSymbolTableRecord
100
AcDbLayerTableRecord
  2
部品1
 70
     0
 62
     7
  6
CONTINUOUS
370
    -3
390
173D0
  0
LAYER
  5
DEB5
330
7467
100
AcDbSymbolTableRecord
100
AcDbLayerTableRecord
  2
補助
 70
     0
 62
    -1
  6
CONTINUOUS
370
    -3
390
173D0
  0
LAYER
  5
DEB6
330
7467
100
AcDbSymbolTableRecord
100
AcDbLayerTableRecord
  2
文字
 70
     0
 62
     7
  6
CONTINUOUS
370
    -3
390
173D0
  0
LAYER
  5
F255
330
7467
100
AcDbSymbolTableRecord
100
AcDbLayerTableRecord
  2
DEFPOINTS
 70
     0
 62
     7
  6
CONTINUOUS
290
     0
370
    -3
390
173D0
  0
LAYER
  5
10B54
330
7467
100
AcDbSymbolTableRecord
100
AcDbLayerTableRecord
  2
仕様書枠
 70
     0
 62
   230
  6
CONTINUOUS
370
    -3
390
173D0
  0
LAYER
  5
11729
330
7467
100
AcDbSymbolTableRecord
100
AcDbLayerTableRecord
  2
Ｇ．Ｌ
 70
     0
 62
    30
  6
CONTINUOUS
370
    -3
390
173D0
  0
LAYER
  5
1173F
330
7467
100
AcDbSymbolTableRecord
100
AcDbLayerTableRecord
  2
細線
 70
     0
 62
     5
  6
CONTINUOUS
370
    -3
390
173D0
  0
LAYER
  5
12CC4
330
7467
100
AcDbSymbolTableRecord
100
AcDbLayerTableRecord
  2
想像線
 70
     0
 62
     6
  6
PHANTOM
370
    -3
390
173D0
  0
LAYER
  5
142E2
330
7467
100
AcDbSymbolTableRecord
100
AcDbLayerTableRecord
  2
破線
 70
     0
 62
     2
  6
HIDDEN
370
    -3
390
173D0
  0
ENDTAB
  0
TABLE
  2
STYLE
  5
7468
330
0
100
AcDbSymbolTable
 70
     7
  0
STYLE
  5
7475
330
7468
100
AcDbSymbolTableRecord
100
AcDbTextStyleTableRecord
  2
STANDARD
 70
     0
 40
0.0
 41
1.0
 50
0.0
 71
     0
 42
4.0
  3
txt
  4
C:\AutoCAD LT\bigfont.shx
  0
STYLE
  5
763C
330
7468
100
AcDbSymbolTableRecord
100
AcDbTextStyleTableRecord
  2
MSMINCHO
 70
     0
 40
0.0
 41
1.0
 50
0.0
 71
     0
 42
1.199999999999999
  3
C:\AutoCAD LT\msminch2.TTF
  4

  0
STYLE
  5
F706
330
7468
100
AcDbSymbolTableRecord
100
AcDbTextStyleTableRecord
  2
STYLE1
 70
     0
 40
0.0
 41
1.0
 50
0.0
 71
     0
 42
4.0
  3
isocp.shx
  4
bigfont.shx
  0
STYLE
  5
103BF
330
7468
100
AcDbSymbolTableRecord
100
AcDbTextStyleTableRecord
  2
STYLE2
 70
     0
 40
0.0
 41
1.0
 50
0.0
 71
     0
 42
100.0
  3
MS PGothic.ttf
  4

1001
ACAD
1000
MS PGothic
1071
    32818
  0
STYLE
  5
10BAA
330
7468
100
AcDbSymbolTableRecord
100
AcDbTextStyleTableRecord
  2
STYLE3
 70
     0
 40
0.0
 41
1.0
 50
0.0
 71
     0
 42
100.0
  3
DFPGothic-EB.ttf
  4

1001
ACAD
1000
DFPGothic-EB
1071
    32818
  0
STYLE
  5
11A15
330
7468
100
AcDbSymbolTableRecord
100
AcDbTextStyleTableRecord
  2
MSGOTHIC
 70
     0
 40
0.0
 41
1.0
 50
0.0
 71
     0
 42
3.5
  3
msgothi2.ttf
  4

  0
STYLE
  5
13E96
330
7468
100
AcDbSymbolTableRecord
100
AcDbTextStyleTableRecord
  2
MSPゴシック
 70
     0
 40
0.0
 41
1.0
 50
0.0
 71
     0
 42
4.0
  3
MS PGothic.ttf
  4

1001
ACAD
1000
MS PGothic
1071
    32818
  0
ENDTAB
  0
TABLE
  2
VIEW
  5
746B
330
0
100
AcDbSymbolTable
 70
     0
  0
ENDTAB
  0
TABLE
  2
UCS
  5
746C
330
0
100
AcDbSymbolTable
 70
     0
  0
ENDTAB
  0
TABLE
  2
APPID
  5
746E
330
0
100
AcDbSymbolTable
 70
     6
  0
APPID
  5
7476
330
746E
100
AcDbSymbolTableRecord
100
AcDbRegAppTableRecord
  2
ACAD
 70
     0
  0
APPID
  5
DEA9
330
746E
100
AcDbSymbolTableRecord
100
AcDbRegAppTableRecord
  2
CONTENTBLOCKICON
 70
     0
  0
APPID
  5
DEAA
330
746E
100
AcDbSymbolTableRecord
100
AcDbRegAppTableRecord
  2
CONTENTBLOCKDESCRIPTION
 70
     0
  0
APPID
  5
E71D
330
746E
100
AcDbSymbolTableRecord
100
AcDbRegAppTableRecord
  2
CONTENTTABDATA
 70
     0
  0
APPID
  5
E71E
330
746E
100
AcDbSymbolTableRecord
100
AcDbRegAppTableRecord
  2
CONTENTCURRENTTAB
 70
     0
  0
APPID
  5
F3BA
330
746E
100
AcDbSymbolTableRecord
100
AcDbRegAppTableRecord
  2
DRAWINGVARIABLESXDATA
 70
     0
  0
ENDTAB
  0
TABLE
  2
DIMSTYLE
  5
746F
330
0
100
AcDbSymbolTable
 70
     8
100
AcDbDimStyleTable
 71
     1
340
F71F
  0
DIMSTYLE
105
7484
330
746F
100
AcDbSymbolTableRecord
100
AcDbDimStyleTableRecord
  2
JIS
 70
     0
 41
2.5
 42
1.0
 43
7.0
 44
1.0
 73
     0
 74
     0
 77
     1
 78
     8
140
2.5
141
0.0
143
0.0394
147
0.0
172
     1
174
     1
175
     1
340
7475
  0
DIMSTYLE
105
F236
330
746F
100
AcDbSymbolTableRecord
100
AcDbDimStyleTableRecord
  2
INABA_S40
 70
     0
 40
40.0
 41
2.5
 42
0.5
 43
7.0
 44
1.5
 73
     0
 74
     0
 77
     3
 78
     8
140
3.0
141
0.0
143
0.0394
147
1.0
172
     1
173
     1
174
     1
175
     1
178
     7
289
     0
340
7475
341
DEAC
343
DEAC
344
DEAC
  0
DIMSTYLE
105
F71F
102
{ACAD_REACTORS
330
21846
330
21847
330
21848
330
2184B
330
2184C
330
21851
330
21854
330
21856
330
21857
330
21859
330
2185C
330
21862
330
2186B
330
2188D
330
2188E
330
2188F
330
21890
330
2189E
330
218A1
330
218A2
330
21F33
330
21F34
330
21F39
330
2275D
330
226EA
330
226EB
330
226F3
330
226FA
330
226FD
102
}
330
746F
100
AcDbSymbolTableRecord
100
AcDbDimStyleTableRecord
  2
INABA_S40G
 70
     0
 40
40.0
 41
2.5
 42
0.5
 43
7.0
 44
1.5
 73
     0
 74
     0
 77
     3
 78
     8
140
3.0
141
0.0
143
0.0394
147
1.0
172
     1
173
     1
174
     1
178
     7
271
     1
340
F706
341
F770
343
F770
344
F770
  0
DIMSTYLE
105
142E3
330
746F
100
AcDbSymbolTableRecord
100
AcDbDimStyleTableRecord
  2
INABA_S1
 70
     0
 40
0.0
 41
2.5
 42
0.5
 43
7.0
 44
1.5
 73
     0
 74
     0
 77
     3
 78
     8
140
3.0
141
0.0
143
0.0394
146
0.5
147
0.5
172
     1
173
     1
176
   256
177
   256
178
     7
271
     2
272
     2
284
     8
288
     1
340
7475
341
DEAC
343
DEAC
344
DEAC
  0
DIMSTYLE
105
14463
330
746F
100
AcDbSymbolTableRecord
100
AcDbDimStyleTableRecord
  2
INABA_S30G
 70
     0
 40
30.0
 41
2.5
 42
0.5
 43
7.0
 44
1.5
 73
     0
 74
     0
 77
     3
 78
     8
140
3.0
141
0.0
143
0.0394
147
1.0
172
     1
173
     1
174
     1
175
     1
178
     7
271
     1
340
F706
341
F770
343
F770
344
F770
  0
DIMSTYLE
105
1758E
330
746F
100
AcDbSymbolTableRecord
100
AcDbDimStyleTableRecord
  2
INABA_S50G
 70
     0
 41
125.0
 42
25.0
 43
7.0
 44
75.0
 73
     0
 74
     0
 77
     3
 78
     8
140
150.0
141
0.0
143
0.0394
147
25.0
172
     1
173
     1
174
     1
175
     1
178
     7
271
     1
340
F706
341
F770
343
F770
344
F770
  0
DIMSTYLE
105
221B4
330
746F
100
AcDbSymbolTableRecord
100
AcDbDimStyleTableRecord
  2
INABA_S100G
 70
     0
 40
100.0
 41
2.5
 42
0.5
 43
7.0
 44
1.5
 73
     0
 74
     0
 77
     3
 78
     8
140
3.0
141
0.0
143
0.0394
147
1.0
172
     1
173
     1
174
     1
178
     7
271
     1
340
F706
341
F770
343
F770
344
F770
  0
DIMSTYLE
105
221B5
330
746F
100
AcDbSymbolTableRecord
100
AcDbDimStyleTableRecord
  2
INABA_S100Gsmall
 70
     0
 40
100.0
 41
1.5
 42
0.5
 43
7.0
 44
0.5
 73
     0
 74
     0
 77
     3
 78
     8
140
2.0
141
0.0
143
0.0394
147
0.5
172
     1
173
     1
174
     1
178
     7
271
     1
272
     1
279
     2
340
F706
343
F770
344
F770
  0
ENDTAB
  0
TABLE
  2
BLOCK_RECORD
  5
7466
330
0
100
AcDbSymbolTable
 70
    48
  0
BLOCK_RECORD
  5
747D
330
7466
100
AcDbSymbolTableRecord
100
AcDbBlockTableRecord
  2
*MODEL_SPACE
340
173D5
  0
BLOCK_RECORD
  5
747A
330
7466
100
AcDbSymbolTableRecord
100
AcDbBlockTableRecord
  2
*PAPER_SPACE
340
173D6
  0
BLOCK_RECORD
  5
DEAC
330
7466
100
AcDbSymbolTableRecord
100
AcDbBlockTableRecord
  2
_OPEN
340
0
  0
BLOCK_RECORD
  5
F770
330
7466
100
AcDbSymbolTableRecord
100
AcDbBlockTableRecord
  2
_DOTSMALL
340
0
102
{BLKREFS
331
18C65
331
18C66
331
18C59
331
18C5A
331
18C4D
331
18C4E
331
18C41
331
18C42
331
18C35
331
18C36
331
18C29
331
18C2A
331
18C1D
331
18C1E
331
18C0F
331
18C10
331
18C03
331
18C04
331
18BF5
331
18BF6
331
18BE7
331
18BE8
331
18BD9
331
18BDA
331
18BCD
331
18BCE
331
21CFB
331
21CFC
331
21D06
331
21D07
331
21D0F
331
21D10
331
21D18
331
21D19
331
21D22
331
21D23
331
21D2C
331
21D2D
331
21D36
331
21D37
331
21D3F
331
21D40
331
21D48
331
21D49
331
21D52
331
21D53
331
21D5B
331
21D5C
331
21D64
331
21D65
331
21D83
331
21D84
331
21D8E
331
21D8F
331
21D97
331
21D98
331
21DA0
331
21DA1
331
21DA9
331
21DAA
331
22182
331
22183
331
221A2
331
221A3
331
221E7
331
221E8
331
221F1
331
221F2
331
221FB
331
221FC
331
22205
331
22206
331
22868
331
22869
331
22870
331
22871
331
2287F
331
22880
331
22888
331
22889
331
22891
331
22892
331
2289A
331
2289B
102
}
  0
BLOCK_RECORD
  5
164B4
330
7466
100
AcDbSymbolTableRecord
100
AcDbBlockTableRecord
  2
_DOT
340
0
102
{BLKREFS
331
18C73
331
18C74
102
}
  0
BLOCK_RECORD
  5
18BC8
330
7466
100
AcDbSymbolTableRecord
100
AcDbBlockTableRecord
  2
*D3
340
0
  0
BLOCK_RECORD
  5
18BD4
330
7466
100
AcDbSymbolTableRecord
100
AcDbBlockTableRecord
  2
*D4
340
0
  0
BLOCK_RECORD
  5
18BE0
330
7466
100
AcDbSymbolTableRecord
100
AcDbBlockTableRecord
  2
*D5
340
0
  0
BLOCK_RECORD
  5
18BEE
330
7466
100
AcDbSymbolTableRecord
100
AcDbBlockTableRecord
  2
*D6
340
0
  0
BLOCK_RECORD
  5
18BFC
330
7466
100
AcDbSymbolTableRecord
100
AcDbBlockTableRecord
  2
*D7
340
0
  0
BLOCK_RECORD
  5
18C0A
330
7466
100
AcDbSymbolTableRecord
100
AcDbBlockTableRecord
  2
*D8
340
0
  0
BLOCK_RECORD
  5
18C16
330
7466
100
AcDbSymbolTableRecord
100
AcDbBlockTableRecord
  2
*D9
340
0
  0
BLOCK_RECORD
  5
18C24
330
7466
100
AcDbSymbolTableRecord
100
AcDbBlockTableRecord
  2
*D10
340
0
  0
BLOCK_RECORD
  5
18C30
330
7466
100
AcDbSymbolTableRecord
100
AcDbBlockTableRecord
  2
*D11
340
0
  0
BLOCK_RECORD
  5
18C3C
330
7466
100
AcDbSymbolTableRecord
100
AcDbBlockTableRecord
  2
*D12
340
0
  0
BLOCK_RECORD
  5
18C48
330
7466
100
AcDbSymbolTableRecord
100
AcDbBlockTableRecord
  2
*D13
340
0
  0
BLOCK_RECORD
  5
18C54
330
7466
100
AcDbSymbolTableRecord
100
AcDbBlockTableRecord
  2
*D14
340
0
  0
BLOCK_RECORD
  5
18C60
330
7466
100
AcDbSymbolTableRecord
100
AcDbBlockTableRecord
  2
*D15
340
0
  0
BLOCK_RECORD
  5
18C6C
330
7466
100
AcDbSymbolTableRecord
100
AcDbBlockTableRecord
  2
*D16
340
0
  0
BLOCK_RECORD
  5
18C7A
330
7466
100
AcDbSymbolTableRecord
100
AcDbBlockTableRecord
  2
A$C3B1A506B
340
0
  0
BLOCK_RECORD
  5
1C4CA
330
7466
100
AcDbSymbolTableRecord
100
AcDbBlockTableRecord
  2
_NONE
340
0
  0
BLOCK_RECORD
  5
218A5
330
7466
100
AcDbSymbolTableRecord
100
AcDbBlockTableRecord
  2
*D19
340
0
  0
BLOCK_RECORD
  5
218B1
330
7466
100
AcDbSymbolTableRecord
100
AcDbBlockTableRecord
  2
*D20
340
0
  0
BLOCK_RECORD
  5
218BD
330
7466
100
AcDbSymbolTableRecord
100
AcDbBlockTableRecord
  2
*D21
340
0
  0
BLOCK_RECORD
  5
218C9
330
7466
100
AcDbSymbolTableRecord
100
AcDbBlockTableRecord
  2
*D22
340
0
  0
BLOCK_RECORD
  5
218D7
330
7466
100
AcDbSymbolTableRecord
100
AcDbBlockTableRecord
  2
*D23
340
0
  0
BLOCK_RECORD
  5
218FF
330
7466
100
AcDbSymbolTableRecord
100
AcDbBlockTableRecord
  2
*D24
340
0
  0
BLOCK_RECORD
  5
2190B
330
7466
100
AcDbSymbolTableRecord
100
AcDbBlockTableRecord
  2
*D25
340
0
  0
BLOCK_RECORD
  5
21917
330
7466
100
AcDbSymbolTableRecord
100
AcDbBlockTableRecord
  2
*D26
340
0
  0
BLOCK_RECORD
  5
21924
330
7466
100
AcDbSymbolTableRecord
100
AcDbBlockTableRecord
  2
*D27
340
0
  0
BLOCK_RECORD
  5
21930
330
7466
100
AcDbSymbolTableRecord
100
AcDbBlockTableRecord
  2
*D28
340
0
  0
BLOCK_RECORD
  5
2193C
330
7466
100
AcDbSymbolTableRecord
100
AcDbBlockTableRecord
  2
*D29
340
0
  0
BLOCK_RECORD
  5
21949
330
7466
100
AcDbSymbolTableRecord
100
AcDbBlockTableRecord
  2
*D30
340
0
  0
BLOCK_RECORD
  5
21956
330
7466
100
AcDbSymbolTableRecord
100
AcDbBlockTableRecord
  2
*D31
340
0
  0
BLOCK_RECORD
  5
21963
330
7466
100
AcDbSymbolTableRecord
100
AcDbBlockTableRecord
  2
*D32
340
0
  0
BLOCK_RECORD
  5
2196F
330
7466
100
AcDbSymbolTableRecord
100
AcDbBlockTableRecord
  2
*D33
340
0
  0
BLOCK_RECORD
  5
2197B
330
7466
100
AcDbSymbolTableRecord
100
AcDbBlockTableRecord
  2
*D34
340
0
  0
BLOCK_RECORD
  5
21989
330
7466
100
AcDbSymbolTableRecord
100
AcDbBlockTableRecord
  2
*D35
340
0
  0
BLOCK_RECORD
  5
21997
330
7466
100
AcDbSymbolTableRecord
100
AcDbBlockTableRecord
  2
*D36
340
0
  0
BLOCK_RECORD
  5
219A5
330
7466
100
AcDbSymbolTableRecord
100
AcDbBlockTableRecord
  2
*D37
340
0
  0
BLOCK_RECORD
  5
219B2
330
7466
100
AcDbSymbolTableRecord
100
AcDbBlockTableRecord
  2
*D38
340
0
  0
BLOCK_RECORD
  5
21F8D
330
7466
100
AcDbSymbolTableRecord
100
AcDbBlockTableRecord
  2
*D39
340
0
  0
BLOCK_RECORD
  5
21F9A
330
7466
100
AcDbSymbolTableRecord
100
AcDbBlockTableRecord
  2
*D40
340
0
  0
BLOCK_RECORD
  5
21FA7
330
7466
100
AcDbSymbolTableRecord
100
AcDbBlockTableRecord
  2
*D41
340
0
  0
BLOCK_RECORD
  5
22817
330
7466
100
AcDbSymbolTableRecord
100
AcDbBlockTableRecord
  2
*D42
340
0
  0
BLOCK_RECORD
  5
22823
330
7466
100
AcDbSymbolTableRecord
100
AcDbBlockTableRecord
  2
*D43
340
0
  0
BLOCK_RECORD
  5
2282F
330
7466
100
AcDbSymbolTableRecord
100
AcDbBlockTableRecord
  2
*D44
340
0
  0
BLOCK_RECORD
  5
22840
330
7466
100
AcDbSymbolTableRecord
100
AcDbBlockTableRecord
  2
*D45
340
0
  0
BLOCK_RECORD
  5
2284C
330
7466
100
AcDbSymbolTableRecord
100
AcDbBlockTableRecord
  2
*D46
340
0
  0
BLOCK_RECORD
  5
22858
330
7466
100
AcDbSymbolTableRecord
100
AcDbBlockTableRecord
  2
*D47
340
0
  0
ENDTAB
  0
ENDSEC
  0
SECTION
  2
BLOCKS
  0
BLOCK
  5
7489
330
747D
100
AcDbEntity
  8
0
100
AcDbBlockBegin
  2
*MODEL_SPACE
 70
     0
 10
0.0
 20
0.0
 30
0.0
  3
*MODEL_SPACE
  1

  0
ENDBLK
  5
748A
330
747D
100
AcDbEntity
  8
0
100
AcDbBlockEnd
  0
BLOCK
  5
7487
330
747A
100
AcDbEntity
 67
     1
  8
0
100
AcDbBlockBegin
  2
*PAPER_SPACE
 70
     0
 10
0.0
 20
0.0
 30
0.0
  3
*PAPER_SPACE
  1

  0
ENDBLK
  5
7488
330
747A
100
AcDbEntity
 67
     1
  8
0
100
AcDbBlockEnd
  0
BLOCK
  5
DEAD
330
DEAC
100
AcDbEntity
  8
0
100
AcDbBlockBegin
  2
_OPEN
 70
     0
 10
0.0
 20
0.0
 30
0.0
  3
_OPEN
  1

  0
LINE
  5
DEAE
330
DEAC
100
AcDbEntity
  8
0
  6
ByBlock
 62
     0
100
AcDbLine
 10
-1.0
 20
0.1666666666666666
 30
0.0
 11
0.0
 21
0.0
 31
0.0
  0
LINE
  5
DEAF
330
DEAC
100
AcDbEntity
  8
0
  6
ByBlock
 62
     0
100
AcDbLine
 10
0.0
 20
0.0
 30
0.0
 11
-1.0
 21
-0.1666666666666666
 31
0.0
  0
LINE
  5
DEB0
330
DEAC
100
AcDbEntity
  8
0
  6
ByBlock
 62
     0
100
AcDbLine
 10
0.0
 20
0.0
 30
0.0
 11
-1.0
 21
0.0
 31
0.0
  0
ENDBLK
  5
DEB1
330
DEAC
100
AcDbEntity
  8
0
100
AcDbBlockEnd
  0
BLOCK
  5
F771
330
F770
100
AcDbEntity
  8
0
 48
50.0
100
AcDbBlockBegin
  2
_DOTSMALL
 70
     0
 10
0.0
 20
0.0
 30
0.0
  3
_DOTSMALL
  1

  0
LWPOLYLINE
  5
F772
330
F770
100
AcDbEntity
  8
0
  6
ByBlock
 62
     0
 48
50.0
100
AcDbPolyline
 90
        2
 70
     1
 43
0.5
 10
-0.0625
 20
0.0
 42
1.0
 10
0.0625
 20
0.0
 42
1.0
  0
ENDBLK
  5
F776
330
F770
100
AcDbEntity
  8
0
 48
50.0
100
AcDbBlockEnd
  0
BLOCK
  5
164BA
330
164B4
100
AcDbEntity
  8
0
 48
50.0
100
AcDbBlockBegin
  2
_DOT
 70
     0
 10
0.0
 20
0.0
 30
0.0
  3
_DOT
  1

  0
LWPOLYLINE
  5
164B5
330
164B4
100
AcDbEntity
  8
0
  6
ByBlock
 62
     0
 48
50.0
100
AcDbPolyline
 90
        2
 70
     1
 43
0.5
 10
-0.25
 20
0.0
 42
1.0
 10
0.25
 20
0.0
 42
1.0
  0
LINE
  5
164B9
330
164B4
100
AcDbEntity
  8
0
  6
ByBlock
 62
     0
 48
50.0
100
AcDbLine
 10
-0.5
 20
0.0
 30
0.0
 11
-1.0
 21
0.0
 31
0.0
  0
ENDBLK
  5
164BB
330
164B4
100
AcDbEntity
  8
0
 48
50.0
100
AcDbBlockEnd
  0
BLOCK
  5
18BC9
330
18BC8
100
AcDbEntity
  8
0
 48
50.0
100
AcDbBlockBegin
  2
*D3
 70
     1
 10
0.0
 20
0.0
 30
0.0
  3
*D3
  1

  0
LINE
  5
18BCA
330
18BC8
100
AcDbEntity
  8
寸法
 62
     0
 48
50.0
370
    -2
100
AcDbLine
 10
7649.896575106999
 20
9636.123139034717
 30
0.0
 11
8702.429862581047
 21
9636.123139034717
 31
0.0
  0
LINE
  5
18BCB
330
18BC8
100
AcDbEntity
  8
寸法
 62
     0
 48
50.0
370
    -2
100
AcDbLine
 10
7649.896575106973
 20
7846.123139034709
 30
0.0
 11
8702.429862581047
 21
7846.123139034709
 31
0.0
  0
LINE
  5
18BCC
330
18BC8
100
AcDbEntity
  8
寸法
 62
     0
 48
50.0
370
    -2
100
AcDbLine
 10
8642.429862581046
 20
9636.123139034717
 30
0.0
 11
8642.429862581046
 21
7846.123139034709
 31
0.0
  0
INSERT
  5
18BCD
330
18BC8
100
AcDbEntity
  8
寸法
 62
     0
 48
50.0
370
    -2
100
AcDbBlockReference
  2
_DOTSMALL
 10
8642.429862581046
 20
9636.123139034717
 30
0.0
 41
100.0
 42
100.0
 43
100.0
 50
90.0
  0
INSERT
  5
18BCE
330
18BC8
100
AcDbEntity
  8
寸法
 62
     0
 48
50.0
370
    -2
100
AcDbBlockReference
  2
_DOTSMALL
 10
8642.429862581046
 20
7846.123139034709
 30
0.0
 41
100.0
 42
100.0
 43
100.0
 50
270.0
  0
MTEXT
  5
18BCF
330
18BC8
100
AcDbEntity
  8
寸法
 62
     7
 48
50.0
100
AcDbMText
 10
8542.429862581045
 20
8741.123139034712
 30
0.0
 40
120.0
 41
0.0
 71
     5
 72
     1
  1
\A1;1790
  7
STYLE1
 11
0.0000000000000001
 21
1.0
 31
0.0
 73
     1
 44
1.0
1001
ACAD
1000
MTEXTBEGIN
1070
    73
1070
     1
1070
    44
1040
1.0
1070
    74
1070
     0
1000
MTEXTEND
  0
POINT
  5
18BD0
330
18BC8
100
AcDbEntity
  8
DEFPOINTS
 62
     0
 48
50.0
100
AcDbPoint
 10
7629.896575106998
 20
9636.123139034717
 30
0.0
  0
POINT
  5
18BD1
330
18BC8
100
AcDbEntity
  8
DEFPOINTS
 62
     0
 48
50.0
100
AcDbPoint
 10
7629.896575106974
 20
7846.123139034709
 30
0.0
  0
POINT
  5
18BD2
330
18BC8
100
AcDbEntity
  8
DEFPOINTS
 62
     0
 48
50.0
100
AcDbPoint
 10
8642.429862581046
 20
7846.123139034709
 30
0.0
  0
ENDBLK
  5
18BD3
330
18BC8
100
AcDbEntity
  8
0
 48
50.0
100
AcDbBlockEnd
  0
BLOCK
  5
18BD5
330
18BD4
100
AcDbEntity
  8
0
 48
50.0
100
AcDbBlockBegin
  2
*D4
 70
     1
 10
0.0
 20
0.0
 30
0.0
  3
*D4
  1

  0
LINE
  5
18BD6
330
18BD4
100
AcDbEntity
  8
寸法
 62
     0
 48
50.0
370
    -2
100
AcDbLine
 10
4214.896575106998
 20
9656.123139034622
 30
0.0
 11
4214.896575106998
 21
10211.93135865972
 31
0.0
  0
LINE
  5
18BD7
330
18BD4
100
AcDbEntity
  8
寸法
 62
     0
 48
50.0
370
    -2
100
AcDbLine
 10
7574.896575106999
 20
9656.123139034718
 30
0.0
 11
7574.896575106999
 21
10211.93135865972
 31
0.0
  0
LINE
  5
18BD8
330
18BD4
100
AcDbEntity
  8
寸法
 62
     0
 48
50.0
370
    -2
100
AcDbLine
 10
4214.896575106998
 20
10151.93135865972
 30
0.0
 11
7574.896575106999
 21
10151.93135865972
 31
0.0
  0
INSERT
  5
18BD9
330
18BD4
100
AcDbEntity
  8
寸法
 62
     0
 48
50.0
370
    -2
100
AcDbBlockReference
  2
_DOTSMALL
 10
4214.896575106998
 20
10151.93135865972
 30
0.0
 41
100.0
 42
100.0
 43
100.0
 50
180.0
  0
INSERT
  5
18BDA
330
18BD4
100
AcDbEntity
  8
寸法
 62
     0
 48
50.0
370
    -2
100
AcDbBlockReference
  2
_DOTSMALL
 10
7574.896575106999
 20
10151.93135865972
 30
0.0
 41
100.0
 42
100.0
 43
100.0
  0
MTEXT
  5
18BDB
330
18BD4
100
AcDbEntity
  8
寸法
 62
     7
 48
50.0
100
AcDbMText
 10
5894.896575106997
 20
10251.94316968334
 30
0.0
 40
120.0
 41
0.0
 71
     5
 72
     1
  1
\A1;8X420=3360
  7
STYLE1
 73
     1
 44
1.0
1001
ACAD
1000
MTEXTBEGIN
1070
    73
1070
     1
1070
    44
1040
1.0
1070
    74
1070
     0
1000
MTEXTEND
  0
POINT
  5
18BDC
330
18BD4
100
AcDbEntity
  8
DEFPOINTS
 62
     0
 48
50.0
100
AcDbPoint
 10
4214.896575106998
 20
9636.123139034623
 30
0.0
  0
POINT
  5
18BDD
330
18BD4
100
AcDbEntity
  8
DEFPOINTS
 62
     0
 48
50.0
100
AcDbPoint
 10
7574.896575106999
 20
9636.123139034717
 30
0.0
  0
POINT
  5
18BDE
330
18BD4
100
AcDbEntity
  8
DEFPOINTS
 62
     0
 48
50.0
100
AcDbPoint
 10
7574.896575106999
 20
10151.93135865972
 30
0.0
  0
ENDBLK
  5
18BDF
330
18BD4
100
AcDbEntity
  8
0
 48
50.0
100
AcDbBlockEnd
  0
BLOCK
  5
18BE1
330
18BE0
100
AcDbEntity
  8
0
 48
50.0
100
AcDbBlockBegin
  2
*D5
 70
     1
 10
0.0
 20
0.0
 30
0.0
  3
*D5
  1

  0
LINE
  5
18BE2
330
18BE0
100
AcDbEntity
  8
寸法
 62
     0
 48
50.0
370
    -2
100
AcDbLine
 10
7574.896575106999
 20
9656.123139034718
 30
0.0
 11
7574.896575106999
 21
10211.9313586597
 31
0.0
  0
LINE
  5
18BE3
330
18BE0
100
AcDbEntity
  8
寸法
 62
     0
 48
50.0
370
    -2
100
AcDbLine
 10
7629.896575106998
 20
9656.123139034718
 30
0.0
 11
7629.896575106998
 21
10211.9313586597
 31
0.0
  0
LINE
  5
18BE4
330
18BE0
100
AcDbEntity
  8
寸法
 62
     0
 48
50.0
370
    -2
100
AcDbLine
 10
7574.896575106999
 20
10151.9313586597
 30
0.0
 11
7474.896575106999
 21
10151.9313586597
 31
0.0
  0
LINE
  5
18BE5
330
18BE0
100
AcDbEntity
  8
寸法
 62
     0
 48
50.0
370
    -2
100
AcDbLine
 10
7629.896575106998
 20
10151.9313586597
 30
0.0
 11
8046.867137855477
 21
10151.9313586597
 31
0.0
  0
LINE
  5
18BE6
330
18BE0
100
AcDbEntity
  8
寸法
 62
     0
 48
50.0
370
    -2
100
AcDbLine
 10
7574.896575106999
 20
10151.9313586597
 30
0.0
 11
7629.896575106998
 21
10151.9313586597
 31
0.0
  0
INSERT
  5
18BE7
330
18BE0
100
AcDbEntity
  8
寸法
 62
     0
 48
50.0
370
    -2
100
AcDbBlockReference
  2
_DOTSMALL
 10
7574.896575106999
 20
10151.9313586597
 30
0.0
 41
100.0
 42
100.0
 43
100.0
  0
INSERT
  5
18BE8
330
18BE0
100
AcDbEntity
  8
寸法
 62
     0
 48
50.0
370
    -2
100
AcDbBlockReference
  2
_DOTSMALL
 10
7629.896575106998
 20
10151.9313586597
 30
0.0
 41
100.0
 42
100.0
 43
100.0
 50
180.0
  0
MTEXT
  5
18BE9
330
18BE0
100
AcDbEntity
  8
寸法
 62
     7
 48
50.0
100
AcDbMText
 10
7938.381856481237
 20
10251.9313586597
 30
0.0
 40
120.0
 41
0.0
 71
     5
 72
     1
  1
\A1;55
  7
STYLE1
 73
     1
 44
1.0
1001
ACAD
1000
MTEXTBEGIN
1070
    73
1070
     1
1070
    44
1040
1.0
1070
    74
1070
     0
1000
MTEXTEND
  0
POINT
  5
18BEA
330
18BE0
100
AcDbEntity
  8
DEFPOINTS
 62
     0
 48
50.0
100
AcDbPoint
 10
7574.896575106999
 20
9636.123139034717
 30
0.0
  0
POINT
  5
18BEB
330
18BE0
100
AcDbEntity
  8
DEFPOINTS
 62
     0
 48
50.0
100
AcDbPoint
 10
7629.896575106998
 20
9636.123139034717
 30
0.0
  0
POINT
  5
18BEC
330
18BE0
100
AcDbEntity
  8
DEFPOINTS
 62
     0
 48
50.0
100
AcDbPoint
 10
7629.896575106998
 20
10151.9313586597
 30
0.0
  0
ENDBLK
  5
18BED
330
18BE0
100
AcDbEntity
  8
0
 48
50.0
100
AcDbBlockEnd
  0
BLOCK
  5
18BEF
330
18BEE
100
AcDbEntity
  8
0
 48
50.0
100
AcDbBlockBegin
  2
*D6
 70
     1
 10
0.0
 20
0.0
 30
0.0
  3
*D6
  1

  0
LINE
  5
18BF0
330
18BEE
100
AcDbEntity
  8
寸法
 62
     0
 48
50.0
370
    -2
100
AcDbLine
 10
7649.896575106999
 20
9636.123139034717
 30
0.0
 11
8337.32292084141
 21
9636.123139034717
 31
0.0
  0
LINE
  5
18BF1
330
18BEE
100
AcDbEntity
  8
寸法
 62
     0
 48
50.0
370
    -2
100
AcDbLine
 10
7649.896575106999
 20
9581.123139034721
 30
0.0
 11
8337.32292084141
 21
9581.123139034721
 31
0.0
  0
LINE
  5
18BF2
330
18BEE
100
AcDbEntity
  8
寸法
 62
     0
 48
50.0
370
    -2
100
AcDbLine
 10
8277.322920841411
 20
9581.123139034721
 30
0.0
 11
8277.322920841411
 21
9481.123139034719
 31
0.0
  0
LINE
  5
18BF3
330
18BEE
100
AcDbEntity
  8
寸法
 62
     0
 48
50.0
370
    -2
100
AcDbLine
 10
8277.322920841411
 20
9636.123139034717
 30
0.0
 11
8277.322920841411
 21
10053.09370178319
 31
0.0
  0
LINE
  5
18BF4
330
18BEE
100
AcDbEntity
  8
寸法
 62
     0
 48
50.0
370
    -2
100
AcDbLine
 10
8277.322920841411
 20
9581.123139034721
 30
0.0
 11
8277.322920841411
 21
9636.123139034717
 31
0.0
  0
INSERT
  5
18BF5
330
18BEE
100
AcDbEntity
  8
寸法
 62
     0
 48
50.0
370
    -2
100
AcDbBlockReference
  2
_DOTSMALL
 10
8277.322920841411
 20
9581.123139034721
 30
0.0
 41
100.0
 42
100.0
 43
100.0
 50
90.0
  0
INSERT
  5
18BF6
330
18BEE
100
AcDbEntity
  8
寸法
 62
     0
 48
50.0
370
    -2
100
AcDbBlockReference
  2
_DOTSMALL
 10
8277.322920841411
 20
9636.123139034717
 30
0.0
 41
100.0
 42
100.0
 43
100.0
 50
270.0
  0
MTEXT
  5
18BF7
330
18BEE
100
AcDbEntity
  8
寸法
 62
     7
 48
50.0
100
AcDbMText
 10
8177.32292084141
 20
9944.608420408957
 30
0.0
 40
120.0
 41
0.0
 71
     5
 72
     1
  1
\A1;55
  7
STYLE1
 11
0.0000000000000001
 21
1.0
 31
0.0
 73
     1
 44
1.0
1001
ACAD
1000
MTEXTBEGIN
1070
    73
1070
     1
1070
    44
1040
1.0
1070
    74
1070
     0
1000
MTEXTEND
  0
POINT
  5
18BF8
330
18BEE
100
AcDbEntity
  8
DEFPOINTS
 62
     0
 48
50.0
100
AcDbPoint
 10
7629.896575106998
 20
9636.123139034717
 30
0.0
  0
POINT
  5
18BF9
330
18BEE
100
AcDbEntity
  8
DEFPOINTS
 62
     0
 48
50.0
100
AcDbPoint
 10
7629.896575106998
 20
9581.123139034721
 30
0.0
  0
POINT
  5
18BFA
330
18BEE
100
AcDbEntity
  8
DEFPOINTS
 62
     0
 48
50.0
100
AcDbPoint
 10
8277.322920841411
 20
9581.123139034721
 30
0.0
  0
ENDBLK
  5
18BFB
330
18BEE
100
AcDbEntity
  8
0
 48
50.0
100
AcDbBlockEnd
  0
BLOCK
  5
18BFD
330
18BFC
100
AcDbEntity
  8
0
 48
50.0
100
AcDbBlockBegin
  2
*D7
 70
     1
 10
0.0
 20
0.0
 30
0.0
  3
*D7
  1

  0
LINE
  5
18BFE
330
18BFC
100
AcDbEntity
  8
寸法
 62
     0
 48
50.0
370
    -2
100
AcDbLine
 10
4159.896575106963
 20
9656.123139034622
 30
0.0
 11
4159.896575106963
 21
10211.9313586596
 31
0.0
  0
LINE
  5
18BFF
330
18BFC
100
AcDbEntity
  8
寸法
 62
     0
 48
50.0
370
    -2
100
AcDbLine
 10
4214.896575106998
 20
9656.123139034622
 30
0.0
 11
4214.896575106998
 21
10211.9313586596
 31
0.0
  0
LINE
  5
18C00
330
18BFC
100
AcDbEntity
  8
寸法
 62
     0
 48
50.0
370
    -2
100
AcDbLine
 10
4214.896575106998
 20
10151.9313586596
 30
0.0
 11
4314.896575106998
 21
10151.9313586596
 31
0.0
  0
LINE
  5
18C01
330
18BFC
100
AcDbEntity
  8
寸法
 62
     0
 48
50.0
370
    -2
100
AcDbLine
 10
4159.896575106963
 20
10151.9313586596
 30
0.0
 11
3742.926012358486
 21
10151.9313586596
 31
0.0
  0
LINE
  5
18C02
330
18BFC
100
AcDbEntity
  8
寸法
 62
     0
 48
50.0
370
    -2
100
AcDbLine
 10
4214.896575106998
 20
10151.9313586596
 30
0.0
 11
4159.896575106963
 21
10151.9313586596
 31
0.0
  0
INSERT
  5
18C03
330
18BFC
100
AcDbEntity
  8
寸法
 62
     0
 48
50.0
370
    -2
100
AcDbBlockReference
  2
_DOTSMALL
 10
4214.896575106998
 20
10151.9313586596
 30
0.0
 41
100.0
 42
100.0
 43
100.0
 50
180.0
  0
INSERT
  5
18C04
330
18BFC
100
AcDbEntity
  8
寸法
 62
     0
 48
50.0
370
    -2
100
AcDbBlockReference
  2
_DOTSMALL
 10
4159.896575106963
 20
10151.9313586596
 30
0.0
 41
100.0
 42
100.0
 43
100.0
  0
MTEXT
  5
18C05
330
18BFC
100
AcDbEntity
  8
寸法
 62
     7
 48
50.0
100
AcDbMText
 10
3851.411293732725
 20
10251.9313586596
 30
0.0
 40
120.0
 41
0.0
 71
     5
 72
     1
  1
\A1;55
  7
STYLE1
 73
     1
 44
1.0
1001
ACAD
1000
MTEXTBEGIN
1070
    73
1070
     1
1070
    44
1040
1.0
1070
    74
1070
     0
1000
MTEXTEND
  0
POINT
  5
18C06
330
18BFC
100
AcDbEntity
  8
DEFPOINTS
 62
     0
 48
50.0
100
AcDbPoint
 10
4159.896575106963
 20
9636.123139034623
 30
0.0
  0
POINT
  5
18C07
330
18BFC
100
AcDbEntity
  8
DEFPOINTS
 62
     0
 48
50.0
100
AcDbPoint
 10
4214.896575106998
 20
9636.123139034623
 30
0.0
  0
POINT
  5
18C08
330
18BFC
100
AcDbEntity
  8
DEFPOINTS
 62
     0
 48
50.0
100
AcDbPoint
 10
4214.896575106998
 20
10151.9313586596
 30
0.0
  0
ENDBLK
  5
18C09
330
18BFC
100
AcDbEntity
  8
0
 48
50.0
100
AcDbBlockEnd
  0
BLOCK
  5
18C0B
330
18C0A
100
AcDbEntity
  8
0
 48
50.0
100
AcDbBlockBegin
  2
*D8
 70
     1
 10
0.0
 20
0.0
 30
0.0
  3
*D8
  1

  0
LINE
  5
18C0C
330
18C0A
100
AcDbEntity
  8
寸法
 62
     0
 48
50.0
370
    -2
100
AcDbLine
 10
4159.896575106992
 20
7826.123139034546
 30
0.0
 11
4159.896575106992
 21
6804.372203245664
 31
0.0
  0
LINE
  5
18C0D
330
18C0A
100
AcDbEntity
  8
寸法
 62
     0
 48
50.0
370
    -2
100
AcDbLine
 10
7629.896575106974
 20
7826.123139034674
 30
0.0
 11
7629.896575106974
 21
6804.372203245664
 31
0.0
  0
LINE
  5
18C0E
330
18C0A
100
AcDbEntity
  8
寸法
 62
     0
 48
50.0
370
    -2
100
AcDbLine
 10
4159.896575106992
 20
6864.372203245665
 30
0.0
 11
7629.896575106974
 21
6864.372203245665
 31
0.0
  0
INSERT
  5
18C0F
330
18C0A
100
AcDbEntity
  8
寸法
 62
     0
 48
50.0
370
    -2
100
AcDbBlockReference
  2
_DOTSMALL
 10
4159.896575106992
 20
6864.372203245665
 30
0.0
 41
100.0
 42
100.0
 43
100.0
 50
180.0
  0
INSERT
  5
18C10
330
18C0A
100
AcDbEntity
  8
寸法
 62
     0
 48
50.0
370
    -2
100
AcDbBlockReference
  2
_DOTSMALL
 10
7629.896575106974
 20
6864.372203245665
 30
0.0
 41
100.0
 42
100.0
 43
100.0
  0
MTEXT
  5
18C11
330
18C0A
100
AcDbEntity
  8
寸法
 62
     7
 48
50.0
100
AcDbMText
 10
5911.12376113973
 20
6964.372203245665
 30
0.0
 40
120.0
 41
0.0
 71
     5
 72
     1
  1
\A1;3470
  7
STYLE1
 73
     1
 44
1.0
1001
ACAD
1000
MTEXTBEGIN
1070
    73
1070
     1
1070
    44
1040
1.0
1070
    74
1070
     0
1000
MTEXTEND
  0
POINT
  5
18C12
330
18C0A
100
AcDbEntity
  8
DEFPOINTS
 62
     0
 48
50.0
100
AcDbPoint
 10
4159.896575106992
 20
7846.123139034546
 30
0.0
  0
POINT
  5
18C13
330
18C0A
100
AcDbEntity
  8
DEFPOINTS
 62
     0
 48
50.0
100
AcDbPoint
 10
7629.896575106974
 20
7846.123139034673
 30
0.0
  0
POINT
  5
18C14
330
18C0A
100
AcDbEntity
  8
DEFPOINTS
 62
     0
 48
50.0
100
AcDbPoint
 10
7629.896575106974
 20
6864.372203245665
 30
0.0
  0
ENDBLK
  5
18C15
330
18C0A
100
AcDbEntity
  8
0
 48
50.0
100
AcDbBlockEnd
  0
BLOCK
  5
18C17
330
18C16
100
AcDbEntity
  8
0
 48
50.0
100
AcDbBlockBegin
  2
*D9
 70
     1
 10
0.0
 20
0.0
 30
0.0
  3
*D9
  1

  0
LINE
  5
18C18
330
18C16
100
AcDbEntity
  8
寸法
 62
     0
 48
50.0
370
    -2
100
AcDbLine
 10
7649.896575106973
 20
7901.123139034706
 30
0.0
 11
8337.322920841385
 21
7901.123139034706
 31
0.0
  0
LINE
  5
18C19
330
18C16
100
AcDbEntity
  8
寸法
 62
     0
 48
50.0
370
    -2
100
AcDbLine
 10
7649.896575106973
 20
7846.123139034709
 30
0.0
 11
8337.322920841385
 21
7846.123139034709
 31
0.0
  0
LINE
  5
18C1A
330
18C16
100
AcDbEntity
  8
寸法
 62
     0
 48
50.0
370
    -2
100
AcDbLine
 10
8277.322920841385
 20
7901.123139034706
 30
0.0
 11
8277.322920841385
 21
8001.123139034707
 31
0.0
  0
LINE
  5
18C1B
330
18C16
100
AcDbEntity
  8
寸法
 62
     0
 48
50.0
370
    -2
100
AcDbLine
 10
8277.322920841385
 20
7846.123139034709
 30
0.0
 11
8277.322920841385
 21
7429.152576286229
 31
0.0
  0
LINE
  5
18C1C
330
18C16
100
AcDbEntity
  8
寸法
 62
     0
 48
50.0
370
    -2
100
AcDbLine
 10
8277.322920841385
 20
7901.123139034706
 30
0.0
 11
8277.322920841385
 21
7846.123139034709
 31
0.0
  0
INSERT
  5
18C1D
330
18C16
100
AcDbEntity
  8
寸法
 62
     0
 48
50.0
370
    -2
100
AcDbBlockReference
  2
_DOTSMALL
 10
8277.322920841385
 20
7901.123139034706
 30
0.0
 41
100.0
 42
100.0
 43
100.0
 50
270.0
  0
INSERT
  5
18C1E
330
18C16
100
AcDbEntity
  8
寸法
 62
     0
 48
50.0
370
    -2
100
AcDbBlockReference
  2
_DOTSMALL
 10
8277.322920841385
 20
7846.123139034709
 30
0.0
 41
100.0
 42
100.0
 43
100.0
 50
90.0
  0
MTEXT
  5
18C1F
330
18C16
100
AcDbEntity
  8
寸法
 62
     7
 48
50.0
100
AcDbMText
 10
8177.322920841383
 20
7537.637857660469
 30
0.0
 40
120.0
 41
0.0
 71
     5
 72
     1
  1
\A1;55
  7
STYLE1
 11
0.0000000000000001
 21
1.0
 31
0.0
 73
     1
 44
1.0
1001
ACAD
1000
MTEXTBEGIN
1070
    73
1070
     1
1070
    44
1040
1.0
1070
    74
1070
     0
1000
MTEXTEND
  0
POINT
  5
18C20
330
18C16
100
AcDbEntity
  8
DEFPOINTS
 62
     0
 48
50.0
100
AcDbPoint
 10
7629.896575106974
 20
7901.123139034706
 30
0.0
  0
POINT
  5
18C21
330
18C16
100
AcDbEntity
  8
DEFPOINTS
 62
     0
 48
50.0
100
AcDbPoint
 10
7629.896575106974
 20
7846.123139034709
 30
0.0
  0
POINT
  5
18C22
330
18C16
100
AcDbEntity
  8
DEFPOINTS
 62
     0
 48
50.0
100
AcDbPoint
 10
8277.322920841385
 20
7846.123139034709
 30
0.0
  0
ENDBLK
  5
18C23
330
18C16
100
AcDbEntity
  8
0
 48
50.0
100
AcDbBlockEnd
  0
BLOCK
  5
18C25
330
18C24
100
AcDbEntity
  8
0
 48
50.0
100
AcDbBlockBegin
  2
*D10
 70
     1
 10
0.0
 20
0.0
 30
0.0
  3
*D10
  1

  0
LINE
  5
18C26
330
18C24
100
AcDbEntity
  8
寸法
 62
     0
 48
50.0
370
    -2
100
AcDbLine
 10
6533.037591258376
 20
9136.123139034728
 30
0.0
 11
6465.083950562664
 21
8882.516699399049
 31
0.0
  0
LINE
  5
18C27
330
18C24
100
AcDbEntity
  8
寸法
 62
     0
 48
50.0
370
    -2
100
AcDbLine
 10
7596.037591258388
 20
9136.123139034721
 30
0.0
 11
7528.083950562677
 21
8882.516699399049
 31
0.0
  0
LINE
  5
18C28
330
18C24
100
AcDbEntity
  8
寸法
 62
     0
 48
50.0
370
    -2
100
AcDbLine
 10
6481.160902108531
 20
8942.51669939905
 30
0.0
 11
7544.160902108544
 21
8942.51669939905
 31
0.0
  0
INSERT
  5
18C29
330
18C24
100
AcDbEntity
  8
寸法
 62
     0
 48
50.0
370
    -2
100
AcDbBlockReference
  2
_DOTSMALL
 10
6481.160902108531
 20
8942.51669939905
 30
0.0
 41
100.0
 42
100.0
 43
100.0
 50
180.0
  0
INSERT
  5
18C2A
330
18C24
100
AcDbEntity
  8
寸法
 62
     0
 48
50.0
370
    -2
100
AcDbBlockReference
  2
_DOTSMALL
 10
7544.160902108544
 20
8942.51669939905
 30
0.0
 41
100.0
 42
100.0
 43
100.0
  0
MTEXT
  5
18C2B
330
18C24
100
AcDbEntity
  8
寸法
 62
     7
 48
50.0
100
AcDbMText
 10
7061.28653022935
 20
9042.516699399049
 30
0.0
 40
120.0
 41
0.0
 71
     5
 72
     1
  1
\A1;1063
  7
STYLE1
 73
     1
 44
1.0
1001
ACAD
1000
MTEXTBEGIN
1070
    73
1070
     1
1070
    44
1040
1.0
1070
    74
1070
     0
1000
MTEXTEND
  0
POINT
  5
18C2C
330
18C24
100
AcDbEntity
  8
DEFPOINTS
 62
     0
 48
50.0
100
AcDbPoint
 10
6538.396575106998
 20
9156.123139034727
 30
0.0
  0
POINT
  5
18C2D
330
18C24
100
AcDbEntity
  8
DEFPOINTS
 62
     0
 48
50.0
100
AcDbPoint
 10
7601.39657510701
 20
9156.12313903472
 30
0.0
  0
POINT
  5
18C2E
330
18C24
100
AcDbEntity
  8
DEFPOINTS
 62
     0
 48
50.0
100
AcDbPoint
 10
7544.160902108544
 20
8942.51669939905
 30
0.0
  0
ENDBLK
  5
18C2F
330
18C24
100
AcDbEntity
  8
0
 48
50.0
100
AcDbBlockEnd
  0
BLOCK
  5
18C31
330
18C30
100
AcDbEntity
  8
0
 48
50.0
100
AcDbBlockBegin
  2
*D11
 70
     1
 10
0.0
 20
0.0
 30
0.0
  3
*D11
  1

  0
LINE
  5
18C32
330
18C30
100
AcDbEntity
  8
寸法
 62
     0
 48
50.0
370
    -2
100
AcDbLine
 10
7621.396575106999
 20
9600.764155186094
 30
0.0
 11
8016.754300969024
 21
9494.828371819961
 31
0.0
  0
LINE
  5
18C33
330
18C30
100
AcDbEntity
  8
寸法
 62
     0
 48
50.0
370
    -2
100
AcDbLine
 10
7621.396575106999
 20
9150.764155186099
 30
0.0
 11
8016.754300969024
 21
9044.828371819964
 31
0.0
  0
LINE
  5
18C34
330
18C30
100
AcDbEntity
  8
寸法
 62
     0
 48
50.0
370
    -2
100
AcDbLine
 10
7956.754300969024
 20
9510.905323365827
 30
0.0
 11
7956.754300969024
 21
9060.90532336583
 31
0.0
  0
INSERT
  5
18C35
330
18C30
100
AcDbEntity
  8
寸法
 62
     0
 48
50.0
370
    -2
100
AcDbBlockReference
  2
_DOTSMALL
 10
7956.754300969024
 20
9510.905323365827
 30
0.0
 41
100.0
 42
100.0
 43
100.0
 50
90.0
  0
INSERT
  5
18C36
330
18C30
100
AcDbEntity
  8
寸法
 62
     0
 48
50.0
370
    -2
100
AcDbBlockReference
  2
_DOTSMALL
 10
7956.754300969024
 20
9060.90532336583
 30
0.0
 41
100.0
 42
100.0
 43
100.0
 50
270.0
  0
MTEXT
  5
18C37
330
18C30
100
AcDbEntity
  8
寸法
 62
     7
 48
50.0
100
AcDbMText
 10
7856.754300969022
 20
9285.905323365829
 30
0.0
 40
120.0
 41
0.0
 71
     5
 72
     1
  1
\A1;450
  7
STYLE1
 11
0.0000000000000001
 21
1.0
 31
0.0
 73
     1
 44
1.0
1001
ACAD
1000
MTEXTBEGIN
1070
    73
1070
     1
1070
    44
1040
1.0
1070
    74
1070
     0
1000
MTEXTEND
  0
POINT
  5
18C38
330
18C30
100
AcDbEntity
  8
DEFPOINTS
 62
     0
 48
50.0
100
AcDbPoint
 10
7601.396575106999
 20
9606.123139034718
 30
0.0
  0
POINT
  5
18C39
330
18C30
100
AcDbEntity
  8
DEFPOINTS
 62
     0
 48
50.0
100
AcDbPoint
 10
7601.396575106999
 20
9156.12313903472
 30
0.0
  0
POINT
  5
18C3A
330
18C30
100
AcDbEntity
  8
DEFPOINTS
 62
     0
 48
50.0
100
AcDbPoint
 10
7956.754300969024
 20
9060.90532336583
 30
0.0
  0
ENDBLK
  5
18C3B
330
18C30
100
AcDbEntity
  8
0
 48
50.0
100
AcDbBlockEnd
  0
BLOCK
  5
18C3D
330
18C3C
100
AcDbEntity
  8
0
 48
50.0
100
AcDbBlockBegin
  2
*D12
 70
     1
 10
0.0
 20
0.0
 30
0.0
  3
*D12
  1

  0
LINE
  5
18C3E
330
18C3C
100
AcDbEntity
  8
寸法
 62
     0
 48
50.0
370
    -2
100
AcDbLine
 10
7649.896575106999
 20
9581.123139034721
 30
0.0
 11
8337.32292084141
 21
9581.123139034721
 31
0.0
  0
LINE
  5
18C3F
330
18C3C
100
AcDbEntity
  8
寸法
 62
     0
 48
50.0
370
    -2
100
AcDbLine
 10
7649.896575106973
 20
7901.123139034706
 30
0.0
 11
8337.32292084141
 21
7901.123139034706
 31
0.0
  0
LINE
  5
18C40
330
18C3C
100
AcDbEntity
  8
寸法
 62
     0
 48
50.0
370
    -2
100
AcDbLine
 10
8277.322920841411
 20
9581.123139034721
 30
0.0
 11
8277.322920841411
 21
7901.123139034706
 31
0.0
  0
INSERT
  5
18C41
330
18C3C
100
AcDbEntity
  8
寸法
 62
     0
 48
50.0
370
    -2
100
AcDbBlockReference
  2
_DOTSMALL
 10
8277.322920841411
 20
9581.123139034721
 30
0.0
 41
100.0
 42
100.0
 43
100.0
 50
90.0
  0
INSERT
  5
18C42
330
18C3C
100
AcDbEntity
  8
寸法
 62
     0
 48
50.0
370
    -2
100
AcDbBlockReference
  2
_DOTSMALL
 10
8277.322920841411
 20
7901.123139034706
 30
0.0
 41
100.0
 42
100.0
 43
100.0
 50
270.0
  0
MTEXT
  5
18C43
330
18C3C
100
AcDbEntity
  8
寸法
 62
     7
 48
50.0
100
AcDbMText
 10
8177.311109817788
 20
8741.123139034712
 30
0.0
 40
120.0
 41
0.0
 71
     5
 72
     1
  1
\A1;4X420=1680
  7
STYLE1
 11
0.0000000000000001
 21
1.0
 31
0.0
 73
     1
 44
1.0
1001
ACAD
1000
MTEXTBEGIN
1070
    73
1070
     1
1070
    44
1040
1.0
1070
    74
1070
     0
1000
MTEXTEND
  0
POINT
  5
18C44
330
18C3C
100
AcDbEntity
  8
DEFPOINTS
 62
     0
 48
50.0
100
AcDbPoint
 10
7629.896575106998
 20
9581.123139034721
 30
0.0
  0
POINT
  5
18C45
330
18C3C
100
AcDbEntity
  8
DEFPOINTS
 62
     0
 48
50.0
100
AcDbPoint
 10
7629.896575106974
 20
7901.123139034706
 30
0.0
  0
POINT
  5
18C46
330
18C3C
100
AcDbEntity
  8
DEFPOINTS
 62
     0
 48
50.0
100
AcDbPoint
 10
8277.322920841411
 20
7901.123139034706
 30
0.0
  0
ENDBLK
  5
18C47
330
18C3C
100
AcDbEntity
  8
0
 48
50.0
100
AcDbBlockEnd
  0
BLOCK
  5
18C49
330
18C48
100
AcDbEntity
  8
0
 48
50.0
100
AcDbBlockBegin
  2
*D13
 70
     1
 10
0.0
 20
0.0
 30
0.0
  3
*D13
  1

  0
LINE
  5
18C4A
330
18C48
100
AcDbEntity
  8
寸法
 62
     0
 48
50.0
370
    -2
100
AcDbLine
 10
4183.037591258377
 20
9136.123139034619
 30
0.0
 11
4115.083950562663
 21
8882.516699398941
 31
0.0
  0
LINE
  5
18C4B
330
18C48
100
AcDbEntity
  8
寸法
 62
     0
 48
50.0
370
    -2
100
AcDbLine
 10
5246.037591258307
 20
9136.123139034671
 30
0.0
 11
5178.08395056258
 21
8882.516699398941
 31
0.0
  0
LINE
  5
18C4C
330
18C48
100
AcDbEntity
  8
寸法
 62
     0
 48
50.0
370
    -2
100
AcDbLine
 10
4131.160902108532
 20
8942.516699398941
 30
0.0
 11
5194.160902108448
 21
8942.516699398941
 31
0.0
  0
INSERT
  5
18C4D
330
18C48
100
AcDbEntity
  8
寸法
 62
     0
 48
50.0
370
    -2
100
AcDbBlockReference
  2
_DOTSMALL
 10
4131.160902108532
 20
8942.516699398941
 30
0.0
 41
100.0
 42
100.0
 43
100.0
 50
180.0
  0
INSERT
  5
18C4E
330
18C48
100
AcDbEntity
  8
寸法
 62
     0
 48
50.0
370
    -2
100
AcDbBlockReference
  2
_DOTSMALL
 10
5194.160902108448
 20
8942.516699398941
 30
0.0
 41
100.0
 42
100.0
 43
100.0
  0
MTEXT
  5
18C4F
330
18C48
100
AcDbEntity
  8
寸法
 62
     7
 48
50.0
100
AcDbMText
 10
4658.986452655306
 20
9042.516699398941
 30
0.0
 40
120.0
 41
0.0
 71
     5
 72
     1
  1
\A1;1063
  7
STYLE1
 73
     1
 44
1.0
1001
ACAD
1000
MTEXTBEGIN
1070
    73
1070
     1
1070
    44
1040
1.0
1070
    74
1070
     0
1000
MTEXTEND
  0
POINT
  5
18C50
330
18C48
100
AcDbEntity
  8
DEFPOINTS
 62
     0
 48
50.0
100
AcDbPoint
 10
4188.396575106999
 20
9156.123139034617
 30
0.0
  0
POINT
  5
18C51
330
18C48
100
AcDbEntity
  8
DEFPOINTS
 62
     0
 48
50.0
100
AcDbPoint
 10
5251.396575106929
 20
9156.123139034672
 30
0.0
  0
POINT
  5
18C52
330
18C48
100
AcDbEntity
  8
DEFPOINTS
 62
     0
 48
50.0
100
AcDbPoint
 10
5194.160902108448
 20
8942.516699398941
 30
0.0
  0
ENDBLK
  5
18C53
330
18C48
100
AcDbEntity
  8
0
 48
50.0
100
AcDbBlockEnd
  0
BLOCK
  5
18C55
330
18C54
100
AcDbEntity
  8
0
 48
50.0
100
AcDbBlockBegin
  2
*D14
 70
     1
 10
0.0
 20
0.0
 30
0.0
  3
*D14
  1

  0
LINE
  5
18C56
330
18C54
100
AcDbEntity
  8
寸法
 62
     0
 48
50.0
370
    -2
100
AcDbLine
 10
5274.037591258307
 20
9136.123139034669
 30
0.0
 11
5206.08395056258
 21
8882.516699398941
 31
0.0
  0
LINE
  5
18C57
330
18C54
100
AcDbEntity
  8
寸法
 62
     0
 48
50.0
370
    -2
100
AcDbLine
 10
6505.037591258377
 20
9136.123139034662
 30
0.0
 11
6437.083950562653
 21
8882.516699398941
 31
0.0
  0
LINE
  5
18C58
330
18C54
100
AcDbEntity
  8
寸法
 62
     0
 48
50.0
370
    -2
100
AcDbLine
 10
5222.160902108448
 20
8942.516699398941
 30
0.0
 11
6453.16090210852
 21
8942.516699398941
 31
0.0
  0
INSERT
  5
18C59
330
18C54
100
AcDbEntity
  8
寸法
 62
     0
 48
50.0
370
    -2
100
AcDbBlockReference
  2
_DOTSMALL
 10
5222.160902108448
 20
8942.516699398941
 30
0.0
 41
100.0
 42
100.0
 43
100.0
 50
180.0
  0
INSERT
  5
18C5A
330
18C54
100
AcDbEntity
  8
寸法
 62
     0
 48
50.0
370
    -2
100
AcDbBlockReference
  2
_DOTSMALL
 10
6453.16090210852
 20
8942.516699398941
 30
0.0
 41
100.0
 42
100.0
 43
100.0
  0
MTEXT
  5
18C5B
330
18C54
100
AcDbEntity
  8
寸法
 62
     7
 48
50.0
100
AcDbMText
 10
6081.244808320626
 20
9042.528510422561
 30
0.0
 40
120.0
 41
0.0
 71
     5
 72
     1
  1
\A1;1231
  7
STYLE1
 73
     1
 44
1.0
1001
ACAD
1000
MTEXTBEGIN
1070
    73
1070
     1
1070
    44
1040
1.0
1070
    74
1070
     0
1000
MTEXTEND
  0
POINT
  5
18C5C
330
18C54
100
AcDbEntity
  8
DEFPOINTS
 62
     0
 48
50.0
100
AcDbPoint
 10
5279.396575106929
 20
9156.123139034669
 30
0.0
  0
POINT
  5
18C5D
330
18C54
100
AcDbEntity
  8
DEFPOINTS
 62
     0
 48
50.0
100
AcDbPoint
 10
6510.396575106999
 20
9156.123139034662
 30
0.0
  0
POINT
  5
18C5E
330
18C54
100
AcDbEntity
  8
DEFPOINTS
 62
     0
 48
50.0
100
AcDbPoint
 10
6453.16090210852
 20
8942.516699398941
 30
0.0
  0
ENDBLK
  5
18C5F
330
18C54
100
AcDbEntity
  8
0
 48
50.0
100
AcDbBlockEnd
  0
BLOCK
  5
18C61
330
18C60
100
AcDbEntity
  8
0
 48
50.0
100
AcDbBlockBegin
  2
*D15
 70
     1
 10
0.0
 20
0.0
 30
0.0
  3
*D15
  1

  0
LINE
  5
18C62
330
18C60
100
AcDbEntity
  8
寸法
 62
     0
 48
50.0
370
    -2
100
AcDbLine
 10
5065.896575106966
 20
7749.123139034579
 30
0.0
 11
5065.896575106966
 21
7099.952920982538
 31
0.0
  0
LINE
  5
18C63
330
18C60
100
AcDbEntity
  8
寸法
 62
     0
 48
50.0
370
    -2
100
AcDbLine
 10
6331.896575106966
 20
7749.123139034579
 30
0.0
 11
6331.896575106966
 21
7099.952920982538
 31
0.0
  0
LINE
  5
18C64
330
18C60
100
AcDbEntity
  8
寸法
 62
     0
 48
50.0
370
    -2
100
AcDbLine
 10
5065.896575106966
 20
7159.952920982537
 30
0.0
 11
6331.896575106966
 21
7159.952920982537
 31
0.0
  0
INSERT
  5
18C65
330
18C60
100
AcDbEntity
  8
寸法
 62
     0
 48
50.0
370
    -2
100
AcDbBlockReference
  2
_DOTSMALL
 10
5065.896575106966
 20
7159.952920982537
 30
0.0
 41
100.0
 42
100.0
 43
100.0
 50
180.0
  0
INSERT
  5
18C66
330
18C60
100
AcDbEntity
  8
寸法
 62
     0
 48
50.0
370
    -2
100
AcDbBlockReference
  2
_DOTSMALL
 10
6331.896575106966
 20
7159.952920982537
 30
0.0
 41
100.0
 42
100.0
 43
100.0
  0
MTEXT
  5
18C67
330
18C60
100
AcDbEntity
  8
寸法
 62
     7
 48
50.0
100
AcDbMText
 10
5711.986008735934
 20
7359.964732006159
 30
0.0
 40
120.0
 41
0.0
 71
     5
 72
     1
  1
\A1;有効開口部間口\P1266
  7
STYLE1
 73
     1
 44
1.0
1001
ACAD
1000
MTEXTBEGIN
1070
    73
1070
     1
1070
    44
1040
1.0
1070
    74
1070
     0
1000
MTEXTEND
  0
POINT
  5
18C68
330
18C60
100
AcDbEntity
  8
DEFPOINTS
 62
     0
 48
50.0
100
AcDbPoint
 10
5065.896575106966
 20
7769.123139034579
 30
0.0
  0
POINT
  5
18C69
330
18C60
100
AcDbEntity
  8
DEFPOINTS
 62
     0
 48
50.0
100
AcDbPoint
 10
6331.896575106966
 20
7769.123139034579
 30
0.0
  0
POINT
  5
18C6A
330
18C60
100
AcDbEntity
  8
DEFPOINTS
 62
     0
 48
50.0
100
AcDbPoint
 10
6331.896575106966
 20
7159.952920982537
 30
0.0
  0
ENDBLK
  5
18C6B
330
18C60
100
AcDbEntity
  8
0
 48
50.0
100
AcDbBlockEnd
  0
BLOCK
  5
18C6D
330
18C6C
100
AcDbEntity
  8
0
 48
50.0
100
AcDbBlockBegin
  2
*D16
 70
     1
 10
0.0
 20
0.0
 30
0.0
  3
*D16
  1

  0
LINE
  5
18C6E
330
18C6C
100
AcDbEntity
  8
寸法
 62
     0
 48
50.0
370
    -2
100
AcDbLine
 10
7200.896575106966
 20
7846.123139034578
 30
0.0
 11
7457.192158500191
 21
7846.123139034578
 31
0.0
  0
LINE
  5
18C6F
330
18C6C
100
AcDbEntity
  8
寸法
 62
     0
 48
50.0
370
    -2
100
AcDbLine
 10
7199.896575106966
 20
7769.123139034579
 30
0.0
 11
7457.192158500191
 21
7769.123139034579
 31
0.0
  0
LINE
  5
18C70
330
18C6C
100
AcDbEntity
  8
寸法
 62
     0
 48
50.0
370
    -2
100
AcDbLine
 10
7417.192158500192
 20
7866.123139034579
 30
0.0
 11
7417.192158500192
 21
7886.123139034578
 31
0.0
  0
LINE
  5
18C71
330
18C6C
100
AcDbEntity
  8
寸法
 62
     0
 48
50.0
370
    -2
100
AcDbLine
 10
7417.192158500192
 20
7749.123139034579
 30
0.0
 11
7417.192158500192
 21
7533.123139034573
 31
0.0
  0
LINE
  5
18C72
330
18C6C
100
AcDbEntity
  8
寸法
 62
     0
 48
50.0
370
    -2
100
AcDbLine
 10
7417.192158500192
 20
7846.123139034578
 30
0.0
 11
7417.192158500192
 21
7769.123139034579
 31
0.0
  0
INSERT
  5
18C73
330
18C6C
100
AcDbEntity
  8
寸法
 62
     0
 48
50.0
370
    -2
100
AcDbBlockReference
  2
_DOT
 10
7417.192158500192
 20
7846.123139034578
 30
0.0
 41
20.0
 42
20.0
 43
20.0
 50
270.0
  0
INSERT
  5
18C74
330
18C6C
100
AcDbEntity
  8
寸法
 62
     0
 48
50.0
370
    -2
100
AcDbBlockReference
  2
_DOT
 10
7417.192158500192
 20
7769.123139034579
 30
0.0
 41
20.0
 42
20.0
 43
20.0
 50
90.0
  0
MTEXT
  5
18C75
330
18C6C
100
AcDbEntity
  8
寸法
 62
     7
 48
50.0
100
AcDbMText
 10
7325.192158500191
 20
7631.123139034575
 30
0.0
 40
120.0
 41
0.0
 71
     5
 72
     1
  1
\A1;77
  7
STYLE1
 11
0.0000000000000001
 21
1.0
 31
0.0
 73
     1
 44
1.0
1001
ACAD
1000
MTEXTBEGIN
1070
    73
1070
     1
1070
    44
1040
1.0
1070
    74
1070
     0
1000
MTEXTEND
  0
POINT
  5
18C76
330
18C6C
100
AcDbEntity
  8
DEFPOINTS
 62
     0
 48
50.0
100
AcDbPoint
 10
7180.896575106967
 20
7846.123139034578
 30
0.0
  0
POINT
  5
18C77
330
18C6C
100
AcDbEntity
  8
DEFPOINTS
 62
     0
 48
50.0
100
AcDbPoint
 10
7179.896575106965
 20
7769.123139034579
 30
0.0
  0
POINT
  5
18C78
330
18C6C
100
AcDbEntity
  8
DEFPOINTS
 62
     0
 48
50.0
100
AcDbPoint
 10
7417.192158500192
 20
7769.123139034579
 30
0.0
  0
ENDBLK
  5
18C79
330
18C6C
100
AcDbEntity
  8
0
 48
50.0
100
AcDbBlockEnd
  0
BLOCK
  5
18DA0
330
18C7A
100
AcDbEntity
  8
0
 48
50.0
100
AcDbBlockBegin
  2
A$C3B1A506B
 70
     0
 10
0.0
 20
0.0
 30
0.0
  3
A$C3B1A506B
  1

  0
MTEXT
  5
18C7B
330
18C7A
100
AcDbEntity
  8
寸法
 62
     7
 48
50.0
100
AcDbMText
 10
3342.250386887194
 20
2778.329429134012
 30
0.0
 40
96.0
 41
0.0
 71
     5
 72
     1
  1
棚 2段
  7
STYLE1
 73
     1
 44
1.0
1001
ACAD
1000
MTEXTBEGIN
1070
    73
1070
     1
1070
    44
1040
1.0
1070
    74
1070
     0
1000
MTEXTEND
  0
MTEXT
  5
18C7C
330
18C7A
100
AcDbEntity
  8
寸法
 62
     7
 48
50.0
100
AcDbMText
 10
2167.25038688716
 20
2778.329429133986
 30
0.0
 40
96.0
 41
0.0
 71
     5
 72
     1
  1
棚 2段
  7
STYLE1
 73
     1
 44
1.0
1001
ACAD
1000
MTEXTBEGIN
1070
    73
1070
     1
1070
    44
1040
1.0
1070
    74
1070
     0
1000
MTEXTEND
  0
MTEXT
  5
18C7D
330
18C7A
100
AcDbEntity
  8
寸法
 62
     7
 48
50.0
100
AcDbMText
 10
992.2503868871608
 20
2778.329429133935
 30
0.0
 40
96.0
 41
0.0
 71
     5
 72
     1
  1
棚 2段
  7
STYLE1
 73
     1
 44
1.0
1001
ACAD
1000
MTEXTBEGIN
1070
    73
1070
     1
1070
    44
1040
1.0
1070
    74
1070
     0
1000
MTEXTEND
  0
LINE
  5
18C7E
330
18C7A
100
AcDbEntity
  8
細線
 48
50.0
100
AcDbLine
 10
2771.970589276527
 20
1368.994384123192
 30
0.0
 11
3398.970589276523
 21
1368.994384123192
 31
0.0
  0
LINE
  5
18C7F
330
18C7A
100
AcDbEntity
  8
細線
 48
50.0
100
AcDbLine
 10
2117.970593930113
 20
1335.285615569113
 30
0.0
 11
3398.970589276523
 21
1335.285615569113
 31
0.0
  0
LINE
  5
18C80
330
18C7A
100
AcDbEntity
  8
細線
 48
50.0
100
AcDbLine
 10
2076.970593930115
 20
1364.690523565368
 30
0.0
 11
1322.970589276523
 21
1364.690523565367
 31
0.0
  0
LINE
  5
18C81
330
18C7A
100
AcDbEntity
  8
細線
100
AcDbLine
 10
3170.720579860066
 20
1388.494284088199
 30
0.0
 11
3173.052119381877
 21
1393.494286728162
 31
0.0
  0
LINE
  5
18C82
330
18C7A
100
AcDbEntity
  8
細線
100
AcDbLine
 10
3240.720589276525
 20
1388.494269174465
 30
0.0
 11
3238.389042800336
 21
1393.494286728144
 31
0.0
  0
LINE
  5
18C83
330
18C7A
100
AcDbEntity
  8
細線
100
AcDbLine
 10
3238.389042800336
 20
1393.494286728144
 30
0.0
 11
3173.052119381862
 21
1393.494286728133
 31
0.0
  0
LINE
  5
18C84
330
18C7A
100
AcDbEntity
  8
細線
100
AcDbLine
 10
3098.389042800336
 20
1393.494286728144
 30
0.0
 11
3033.052119381862
 21
1393.494286728133
 31
0.0
  0
LINE
  5
18C85
330
18C7A
100
AcDbEntity
  8
細線
100
AcDbLine
 10
3100.720589276523
 20
1388.494269174465
 30
0.0
 11
3098.389042800336
 21
1393.494286728144
 31
0.0
  0
LINE
  5
18C86
330
18C7A
100
AcDbEntity
  8
細線
100
AcDbLine
 10
3030.720579860066
 20
1388.494284088199
 30
0.0
 11
3033.052119381875
 21
1393.494286728162
 31
0.0
  0
LINE
  5
18C87
330
18C7A
100
AcDbEntity
  8
細線
100
AcDbLine
 10
2890.720589276525
 20
1388.494269174465
 30
0.0
 11
2893.052128798336
 21
1393.494271814428
 31
0.0
  0
LINE
  5
18C88
330
18C7A
100
AcDbEntity
  8
細線
100
AcDbLine
 10
2960.720598692984
 20
1388.494254260731
 30
0.0
 11
2958.389052216793
 21
1393.49427181441
 31
0.0
  0
LINE
  5
18C89
330
18C7A
100
AcDbEntity
  8
細線
100
AcDbLine
 10
2958.389052216795
 20
1393.49427181441
 30
0.0
 11
2893.052128798321
 21
1393.494271814399
 31
0.0
  0
LINE
  5
18C8A
330
18C7A
100
AcDbEntity
  8
細線
100
AcDbLine
 10
2667.139038146739
 20
1359.494298590735
 30
0.0
 11
2601.802114728263
 21
1359.494298590724
 31
0.0
  0
LINE
  5
18C8B
330
18C7A
100
AcDbEntity
  8
細線
100
AcDbLine
 10
2669.470584622926
 20
1354.494281037055
 30
0.0
 11
2667.139038146737
 21
1359.494298590735
 31
0.0
  0
LINE
  5
18C8C
330
18C7A
100
AcDbEntity
  8
細線
100
AcDbLine
 10
2599.470575206469
 20
1354.49429595079
 30
0.0
 11
2601.802114728278
 21
1359.494298590752
 31
0.0
  0
LINE
  5
18C8D
330
18C7A
100
AcDbEntity
  8
細線
 48
50.0
100
AcDbLine
 10
2440.853968524536
 20
1372.765132327548
 30
0.0
 11
2446.609486107205
 21
1354.494281037057
 31
0.0
  0
LINE
  5
18C8E
330
18C7A
100
AcDbEntity
  8
細線
 48
50.0
100
AcDbLine
 10
2429.925520044106
 20
1372.765132327546
 30
0.0
 11
2440.853968524536
 21
1372.765132327548
 31
0.0
  0
ARC
  5
18C8F
330
18C7A
100
AcDbEntity
  8
細線
 48
50.0
100
AcDbCircle
 10
2424.471163986787
 20
1374.265132327546
 30
0.0
 40
5.0
100
AcDbArc
 50
204.6243183520723
 51
335.3756816479278
  0
ARC
  5
18C90
330
18C7A
100
AcDbEntity
  8
細線
 48
50.0
100
AcDbCircle
 10
2429.925520044106
 20
1371.765132327546
 30
0.0
 40
1.0
100
AcDbArc
 50
90.0
 51
155.3756816479277
  0
ARC
  5
18C91
330
18C7A
100
AcDbEntity
  8
細線
 48
50.0
100
AcDbCircle
 10
2419.016807929469
 20
1371.765132327546
 30
0.0
 40
1.0
100
AcDbArc
 50
24.62431835207225
 51
90.0
  0
LINE
  5
18C92
330
18C7A
100
AcDbEntity
  8
細線
 48
50.0
100
AcDbLine
 10
2408.088359449037
 20
1372.765132327548
 30
0.0
 11
2419.016807929469
 21
1372.765132327546
 31
0.0
  0
LINE
  5
18C93
330
18C7A
100
AcDbEntity
  8
細線
 48
50.0
100
AcDbLine
 10
2402.33284186637
 20
1354.494281037054
 30
0.0
 11
2408.088359449037
 21
1372.765132327548
 31
0.0
  0
LINE
  5
18C94
330
18C7A
100
AcDbEntity
  8
細線
100
AcDbLine
 10
2458.070304175992
 20
1354.494278397076
 30
0.0
 11
2460.401843697802
 21
1359.494281037039
 31
0.0
  0
LINE
  5
18C95
330
18C7A
100
AcDbEntity
  8
細線
100
AcDbLine
 10
2528.070313592451
 20
1354.494263483342
 30
0.0
 11
2525.738767116262
 21
1359.494281037021
 31
0.0
  0
LINE
  5
18C96
330
18C7A
100
AcDbEntity
  8
細線
100
AcDbLine
 10
2525.738767116262
 20
1359.494281037021
 30
0.0
 11
2460.40184369779
 21
1359.49428103701
 31
0.0
  0
LINE
  5
18C97
330
18C7A
100
AcDbEntity
  8
細線
100
AcDbLine
 10
2387.139046332155
 20
1359.494281037021
 30
0.0
 11
2321.80212291368
 21
1359.49428103701
 31
0.0
  0
LINE
  5
18C98
330
18C7A
100
AcDbEntity
  8
細線
100
AcDbLine
 10
2389.470592808342
 20
1354.494263483342
 30
0.0
 11
2387.139046332153
 21
1359.494281037021
 31
0.0
  0
LINE
  5
18C99
330
18C7A
100
AcDbEntity
  8
細線
100
AcDbLine
 10
2319.470584622926
 20
1354.494281037054
 30
0.0
 11
2321.802122913694
 21
1359.494281037039
 31
0.0
  0
LINE
  5
18C9A
330
18C7A
100
AcDbEntity
  8
細線
100
AcDbLine
 10
2179.47061994182
 20
1354.494289224422
 30
0.0
 11
2181.802158232587
 21
1359.494289224407
 31
0.0
  0
LINE
  5
18C9B
330
18C7A
100
AcDbEntity
  8
細線
100
AcDbLine
 10
2249.470628127236
 20
1354.49427167071
 30
0.0
 11
2247.139081651047
 21
1359.494289224389
 31
0.0
  0
LINE
  5
18C9C
330
18C7A
100
AcDbEntity
  8
細線
100
AcDbLine
 10
2247.139081651047
 20
1359.494289224389
 30
0.0
 11
2181.802158232573
 21
1359.494289224378
 31
0.0
  0
LINE
  5
18C9D
330
18C7A
100
AcDbEntity
  8
細線
100
AcDbLine
 10
1807.970585744697
 20
1320.494460905133
 30
0.0
 11
1810.302124035464
 21
1325.494460905118
 31
0.0
  0
LINE
  5
18C9E
330
18C7A
100
AcDbEntity
  8
細線
100
AcDbLine
 10
1877.970593930113
 20
1320.494443351421
 30
0.0
 11
1875.639047453926
 21
1325.4944609051
 31
0.0
  0
LINE
  5
18C9F
330
18C7A
100
AcDbEntity
  8
細線
100
AcDbLine
 10
1875.639047453926
 20
1325.4944609051
 30
0.0
 11
1810.302124035452
 21
1325.494460905089
 31
0.0
  0
LINE
  5
18CA0
330
18C7A
100
AcDbEntity
  8
細線
100
AcDbLine
 10
2015.639047453926
 20
1325.4944609051
 30
0.0
 11
1950.302124035452
 21
1325.494460905089
 31
0.0
  0
LINE
  5
18CA1
330
18C7A
100
AcDbEntity
  8
細線
100
AcDbLine
 10
2017.970593930113
 20
1320.494443351421
 30
0.0
 11
2015.639047453924
 21
1325.4944609051
 31
0.0
  0
LINE
  5
18CA2
330
18C7A
100
AcDbEntity
  8
細線
100
AcDbLine
 10
1947.970585744697
 20
1320.494460905133
 30
0.0
 11
1950.302124035465
 21
1325.494460905118
 31
0.0
  0
LINE
  5
18CA3
330
18C7A
100
AcDbEntity
  8
細線
100
AcDbLine
 10
1735.639047453926
 20
1325.494460905098
 30
0.0
 11
1670.302124035454
 21
1325.494460905087
 31
0.0
  0
LINE
  5
18CA4
330
18C7A
100
AcDbEntity
  8
細線
100
AcDbLine
 10
1737.970593930113
 20
1320.494443351419
 30
0.0
 11
1735.639047453926
 21
1325.494460905098
 31
0.0
  0
LINE
  5
18CA5
330
18C7A
100
AcDbEntity
  8
細線
100
AcDbLine
 10
1667.970585744697
 20
1320.494460905131
 30
0.0
 11
1670.302124035465
 21
1325.494460905116
 31
0.0
  0
LINE
  5
18CA6
330
18C7A
100
AcDbEntity
  8
細線
100
AcDbLine
 10
1527.970593930113
 20
1320.494460905133
 30
0.0
 11
1530.302132220881
 21
1325.494460905118
 31
0.0
  0
LINE
  5
18CA7
330
18C7A
100
AcDbEntity
  8
細線
100
AcDbLine
 10
1597.970602115529
 20
1320.494443351421
 30
0.0
 11
1595.639055639342
 21
1325.4944609051
 31
0.0
  0
LINE
  5
18CA8
330
18C7A
100
AcDbEntity
  8
細線
100
AcDbLine
 10
1595.639055639342
 20
1325.4944609051
 30
0.0
 11
1530.302132220869
 21
1325.494460905089
 31
0.0
  0
ARC
  5
18CA9
330
18C7A
100
AcDbEntity
  8
部品1
 48
0.01
100
AcDbCircle
 10
1483.470482677778
 20
1319.493338720063
 30
0.0
 40
0.5
100
AcDbArc
 50
270.0
 51
0.0
  0
LINE
  5
18CAA
330
18C7A
100
AcDbEntity
  8
部品1
 48
0.01
100
AcDbLine
 10
1483.970482677778
 20
1320.493338720063
 30
0.0
 11
1483.970482677778
 21
1319.493338720063
 31
0.0
  0
LINE
  5
18CAB
330
18C7A
100
AcDbEntity
  8
部品1
 48
0.01
100
AcDbLine
 10
1483.970482677778
 20
1320.493338720063
 30
0.0
 11
1483.970482677778
 21
1319.493338720063
 31
0.0
  0
LINE
  5
18CAC
330
18C7A
100
AcDbEntity
  8
部品1
 48
0.01
100
AcDbLine
 10
1483.470482677778
 20
1318.993338720063
 30
0.0
 11
1476.857977247713
 21
1318.993338720062
 31
0.0
  0
ARC
  5
18CAD
330
18C7A
100
AcDbEntity
  8
部品1
100
AcDbCircle
 10
1476.926326800494
 20
1319.993338720062
 30
0.0
 40
1.0
100
AcDbArc
 50
160.5287793655865
 51
270.0
  0
ARC
  5
18CAE
330
18C7A
100
AcDbEntity
  8
部品1
100
AcDbCircle
 10
1451.470482677778
 20
1328.993338720062
 30
0.0
 40
26.0
100
AcDbArc
 50
340.5287793655865
 51
0.0
  0
LINE
  5
18CAF
330
18C7A
100
AcDbEntity
  8
部品1
100
AcDbLine
 10
1477.470482677778
 20
1328.993338720062
 30
0.0
 11
1477.470482677778
 21
1333.993338720061
 31
0.0
  0
ARC
  5
18CB0
330
18C7A
100
AcDbEntity
  8
部品1
 48
0.01
100
AcDbCircle
 10
1475.470482677778
 20
1333.993338720061
 30
0.0
 40
2.0
100
AcDbArc
 50
0.0
 51
90.0
  0
ARC
  5
18CB1
330
18C7A
100
AcDbEntity
  8
部品1
100
AcDbCircle
 10
1473.862091052968
 20
1332.993338720062
 30
0.0
 40
3.0
100
AcDbArc
 50
90.0
 51
141.6069559808035
  0
LINE
  5
18CB2
330
18C7A
100
AcDbEntity
  8
部品1
 48
0.01
100
AcDbLine
 10
1475.470482677778
 20
1335.993338720062
 30
0.0
 11
1473.862091052968
 21
1335.993338720062
 31
0.0
  0
ARC
  5
18CB3
330
18C7A
100
AcDbEntity
  8
部品1
100
AcDbCircle
 10
1455.399768463507
 20
1332.293338720065
 30
0.0
 40
3.0
100
AcDbArc
 50
254.0576313943215
 51
270.0
  0
ARC
  5
18CB4
330
18C7A
100
AcDbEntity
  8
部品1
100
AcDbCircle
 10
1462.541196892049
 20
1332.293338720065
 30
0.0
 40
3.0
100
AcDbArc
 50
270.0
 51
285.9423686056786
  0
LINE
  5
18CB5
330
18C7A
100
AcDbEntity
  8
部品1
100
AcDbLine
 10
1462.541196892049
 20
1329.293338720064
 30
0.0
 11
1455.399768463507
 21
1329.293338720064
 31
0.0
  0
ARC
  5
18CB6
330
18C7A
100
AcDbEntity
  8
部品1
100
AcDbCircle
 10
1458.970482677778
 20
1344.793338720065
 30
0.0
 40
16.0
100
AcDbArc
 50
285.9423686056786
 51
321.6069559808035
  0
LINE
  5
18CB7
330
18C7A
100
AcDbEntity
  8
部品1
 48
0.01
100
AcDbLine
 10
1442.470482677778
 20
1335.993338720062
 30
0.0
 11
1444.078874302588
 21
1335.993338720062
 31
0.0
  0
ARC
  5
18CB8
330
18C7A
100
AcDbEntity
  8
部品1
100
AcDbCircle
 10
1444.078874302588
 20
1332.993338720062
 30
0.0
 40
3.0
100
AcDbArc
 50
38.39304401919648
 51
90.0
  0
ARC
  5
18CB9
330
18C7A
100
AcDbEntity
  8
部品1
100
AcDbCircle
 10
1458.970482677778
 20
1344.793338720065
 30
0.0
 40
16.0
100
AcDbArc
 50
218.3930440191965
 51
254.0576313943215
  0
LINE
  5
18CBA
330
18C7A
100
AcDbEntity
  8
部品1
100
AcDbLine
 10
1440.470482677778
 20
1328.993338720062
 30
0.0
 11
1440.470482677778
 21
1333.993338720061
 31
0.0
  0
ARC
  5
18CBB
330
18C7A
100
AcDbEntity
  8
部品1
 48
0.01
100
AcDbCircle
 10
1442.470482677778
 20
1333.993338720061
 30
0.0
 40
2.0
100
AcDbArc
 50
90.0
 51
180.0
  0
ARC
  5
18CBC
330
18C7A
100
AcDbEntity
  8
部品1
100
AcDbCircle
 10
1466.470482677778
 20
1328.993338720062
 30
0.0
 40
26.0
100
AcDbArc
 50
180.0
 51
199.4712206344134
  0
ARC
  5
18CBD
330
18C7A
100
AcDbEntity
  8
部品1
 48
0.01
100
AcDbCircle
 10
1434.470482677778
 20
1319.493338720063
 30
0.0
 40
0.5
100
AcDbArc
 50
180.0
 51
270.0
  0
LINE
  5
18CBE
330
18C7A
100
AcDbEntity
  8
部品1
 48
0.01
100
AcDbLine
 10
1434.470482677778
 20
1318.993338720063
 30
0.0
 11
1441.014638555061
 21
1318.993338720062
 31
0.0
  0
LINE
  5
18CBF
330
18C7A
100
AcDbEntity
  8
部品1
 48
0.01
100
AcDbLine
 10
1433.970482677778
 20
1320.493338720063
 30
0.0
 11
1433.970482677778
 21
1319.493338720063
 31
0.0
  0
ARC
  5
18CC0
330
18C7A
100
AcDbEntity
  8
部品1
100
AcDbCircle
 10
1441.014638555061
 20
1319.993338720062
 30
0.0
 40
1.0
100
AcDbArc
 50
270.0
 51
19.47122063441346
  0
LINE
  5
18CC1
330
18C7A
100
AcDbEntity
  8
細線
100
AcDbLine
 10
1479.470482677785
 20
1338.493338720065
 30
0.0
 11
1438.470482677785
 21
1338.493338720058
 31
0.0
  0
LINE
  5
18CC2
330
18C7A
100
AcDbEntity
  8
細線
100
AcDbLine
 10
1438.470482677785
 20
1338.493338720058
 30
0.0
 11
1438.470482677785
 21
1320.49333872004
 31
0.0
  0
LINE
  5
18CC3
330
18C7A
100
AcDbEntity
  8
細線
100
AcDbLine
 10
1479.470482677785
 20
1338.493338720065
 30
0.0
 11
1479.470482677785
 21
1320.49333872004
 31
0.0
  0
LINE
  5
18CC4
330
18C7A
100
AcDbEntity
  8
細線
100
AcDbLine
 10
1322.970589276523
 20
1324.494269174465
 30
0.0
 11
1322.970589276523
 21
1320.494269174513
 31
0.0
  0
LINE
  5
18CC5
330
18C7A
100
AcDbEntity
  8
寸法
 48
50.0
100
AcDbLine
 10
1746.17359555837
 20
1170.531020743327
 30
0.0
 11
1694.767587648266
 21
1170.531020743327
 31
0.0
  0
LINE
  5
18CC6
330
18C7A
100
AcDbEntity
  8
寸法
 48
50.0
100
AcDbLine
 10
1694.767587648266
 20
1170.531020743327
 30
0.0
 11
1694.767587648266
 21
1201.841179395494
 31
0.0
  0
LINE
  5
18CC7
330
18C7A
100
AcDbEntity
  8
寸法
 48
50.0
100
AcDbLine
 10
1694.767587648266
 20
1201.841179395494
 30
0.0
 11
1665.006255656843
 21
1201.841179395494
 31
0.0
  0
LINE
  5
18CC8
330
18C7A
100
AcDbEntity
  8
寸法
 48
50.0
100
AcDbLine
 10
1665.006255656843
 20
1201.841179395494
 30
0.0
 11
1720.470591603318
 21
1239.420630324105
 31
0.0
  0
LINE
  5
18CC9
330
18C7A
100
AcDbEntity
  8
寸法
 48
50.0
100
AcDbLine
 10
1775.934927549793
 20
1201.841179395494
 30
0.0
 11
1720.470591603318
 21
1239.420630324105
 31
0.0
  0
LINE
  5
18CCA
330
18C7A
100
AcDbEntity
  8
寸法
 48
50.0
100
AcDbLine
 10
1746.17359555837
 20
1201.841179395494
 30
0.0
 11
1775.934927549793
 21
1201.841179395494
 31
0.0
  0
LINE
  5
18CCB
330
18C7A
100
AcDbEntity
  8
寸法
 48
50.0
100
AcDbLine
 10
1746.17359555837
 20
1170.531020743327
 30
0.0
 11
1746.17359555837
 21
1201.841179395494
 31
0.0
  0
LINE
  5
18CCC
330
18C7A
100
AcDbEntity
  8
寸法
 48
50.0
100
AcDbLine
 10
1694.767587648266
 20
1170.531020743327
 30
0.0
 11
1746.17359555837
 21
1170.531020743327
 31
0.0
  0
LINE
  5
18CCD
330
18C7A
100
AcDbEntity
  8
寸法
 48
50.0
100
AcDbLine
 10
2025.339129835225
 20
1227.676611498152
 30
0.0
 11
2025.339129835225
 21
1174.01297691636
 31
0.0
  0
LINE
  5
18CCE
330
18C7A
100
AcDbEntity
  8
寸法
 48
50.0
100
AcDbLine
 10
2114.623348430647
 20
1203.752977228664
 30
0.0
 11
2025.339129835225
 21
1227.676611498152
 31
0.0
  0
LINE
  5
18CCF
330
18C7A
100
AcDbEntity
  8
寸法
 48
50.0
100
AcDbLine
 10
1895.471408254923
 20
1203.752977228664
 30
0.0
 11
2114.623348430647
 21
1203.752977228664
 31
0.0
  0
DIMENSION
  5
18CD0
330
18C7A
100
AcDbEntity
  8
寸法
 48
50.0
100
AcDbDimension
  2
*D15
 10
2588.970589276523
 20
706.3240511224249
 30
0.0
 11
1969.060022905491
 21
706.3240511224249
 31
0.0
 12
-3742.925985830444
 22
-6453.628869860112
 32
0.0
 70
   128
  1
有効開口部間口\P<>
 71
     5
 42
1266.0
  3
INABA_S40G
100
AcDbAlignedDimension
 13
1322.970589276523
 23
1315.494269174465
 33
0.0
 14
2588.970589276523
 24
1315.494269174465
 34
0.0
100
AcDbRotatedDimension
1001
ACAD
1000
DSTYLE
1002
{
1070
   341
1005
0
1002
}
  0
LINE
  5
18CD1
330
18C7A
100
AcDbEntity
  8
部品1
100
AcDbLine
 10
3409.970589276524
 20
1392.494269174465
 30
0.0
 11
3437.970589276523
 21
1392.494269174465
 31
0.0
  0
DIMENSION
  5
18CD2
330
18C7A
100
AcDbEntity
  8
寸法
100
AcDbDimension
  2
*D16
 10
3674.266172669749
 20
1315.494269174465
 30
0.0
 11
3674.266172669748
 21
1177.494269174462
 31
0.0
 12
-3742.925985830444
 22
-6453.628869860112
 32
0.0
 70
   128
 71
     5
 42
77.0
  3
INABA_S40
100
AcDbAlignedDimension
 13
3437.970589276523
 23
1392.494269174465
 33
0.0
 14
3436.970589276523
 24
1315.494269174465
 34
0.0
 50
90.0
100
AcDbRotatedDimension
1001
ACAD
1000
DSTYLE
1002
{
1070
    41
1040
0.5
1070
    44
1040
1.0
1070
   147
1040
0.8
1070
   271
1070
     2
1070
   272
1070
     2
1070
   289
1070
     3
1070
   340
1005
F706
1070
   343
1005
164B4
1070
   344
1005
164B4
1002
}
  0
LINE
  5
18CD3
330
18C7A
100
AcDbEntity
  8
部品1
100
AcDbLine
 10
3437.970589276523
 20
1315.494269174465
 30
0.0
 11
3437.970589276523
 21
1392.494269174465
 31
0.0
  0
LINE
  5
18CD4
330
18C7A
100
AcDbEntity
  8
部品1
100
AcDbLine
 10
3398.970589276523
 20
1388.494269174465
 30
0.0
 11
3409.970589276524
 21
1388.494269174465
 31
0.0
  0
LINE
  5
18CD5
330
18C7A
100
AcDbEntity
  8
部品1
100
AcDbLine
 10
3407.970589276523
 20
1324.494269174465
 30
0.0
 11
3407.970589276523
 21
1315.494269174465
 31
0.0
  0
LINE
  5
18CD6
330
18C7A
100
AcDbEntity
  8
部品1
100
AcDbLine
 10
3398.970589276523
 20
1324.494269174465
 30
0.0
 11
3407.970589276523
 21
1324.494269174465
 31
0.0
  0
LINE
  5
18CD7
330
18C7A
100
AcDbEntity
  8
部品1
100
AcDbLine
 10
3398.970589276523
 20
1388.494269174465
 30
0.0
 11
3398.970589276523
 21
1324.494269174465
 31
0.0
  0
LINE
  5
18CD8
330
18C7A
100
AcDbEntity
  8
部品1
100
AcDbLine
 10
3409.970589276524
 20
1419.494269174465
 30
0.0
 11
3409.970589276524
 21
1388.494269174465
 31
0.0
  0
LINE
  5
18CD9
330
18C7A
100
AcDbEntity
  8
部品1
100
AcDbLine
 10
1322.970589276523
 20
1388.494269174465
 30
0.0
 11
1311.970589276523
 21
1388.494269174465
 31
0.0
  0
LINE
  5
18CDA
330
18C7A
100
AcDbEntity
  8
部品1
100
AcDbLine
 10
1283.970589276523
 20
1392.494269174465
 30
0.0
 11
1311.970589276523
 21
1392.494269174465
 31
0.0
  0
LINE
  5
18CDB
330
18C7A
100
AcDbEntity
  8
部品1
100
AcDbLine
 10
1313.970589276523
 20
1324.494269174465
 30
0.0
 11
1313.970589276523
 21
1315.494269174465
 31
0.0
  0
LINE
  5
18CDC
330
18C7A
100
AcDbEntity
  8
部品1
100
AcDbLine
 10
1322.970589276523
 20
1324.494269174465
 30
0.0
 11
1313.970589276523
 21
1324.494269174465
 31
0.0
  0
LINE
  5
18CDD
330
18C7A
100
AcDbEntity
  8
部品1
100
AcDbLine
 10
1313.970589276523
 20
1315.494269174465
 30
0.0
 11
1283.970589276523
 21
1315.494269174465
 31
0.0
  0
LINE
  5
18CDE
330
18C7A
100
AcDbEntity
  8
部品1
100
AcDbLine
 10
1283.970589276523
 20
1315.494269174465
 30
0.0
 11
1283.970589276523
 21
1392.494269174465
 31
0.0
  0
LINE
  5
18CDF
330
18C7A
100
AcDbEntity
  8
部品1
100
AcDbLine
 10
1322.970589276523
 20
1388.494269174465
 30
0.0
 11
1322.970589276523
 21
1324.494269174465
 31
0.0
  0
LINE
  5
18CE0
330
18C7A
100
AcDbEntity
  8
部品1
100
AcDbLine
 10
1311.970589276523
 20
1419.494269174462
 30
0.0
 11
1311.970589276523
 21
1388.494269174465
 31
0.0
  0
LINE
  5
18CE1
330
18C7A
100
AcDbEntity
  8
部品1
100
AcDbLine
 10
1311.970589276523
 20
1419.494269174462
 30
0.0
 11
3409.970589276524
 21
1419.494269174465
 31
0.0
  0
LINE
  5
18CE2
330
18C7A
100
AcDbEntity
  8
部品1
100
AcDbLine
 10
3407.970589276523
 20
1315.494269174465
 30
0.0
 11
3437.970589276523
 21
1315.494269174465
 31
0.0
  0
LINE
  5
18CE3
330
18C7A
100
AcDbEntity
  8
部品1
100
AcDbLine
 10
1313.970589276523
 20
1315.494269174465
 30
0.0
 11
3410.970589276523
 21
1315.494269174465
 31
0.0
  0
LINE
  5
18CE4
330
18C7A
100
AcDbEntity
  8
細線
  6
Continuous
 62
     5
100
AcDbLine
 10
2689.970589276527
 20
1354.494269174462
 30
0.0
 11
2689.970589276527
 21
1354.494269174462
 31
0.0
  0
LINE
  5
18CE5
330
18C7A
100
AcDbEntity
  8
細線
  6
Continuous
 62
     5
100
AcDbLine
 10
2682.470589276527
 20
1354.494269174462
 30
0.0
 11
2682.470589276527
 21
1354.494269174462
 31
0.0
  0
LINE
  5
18CE6
330
18C7A
100
AcDbEntity
  8
細線
  6
Continuous
 62
     5
100
AcDbLine
 10
2676.470589276527
 20
1354.494269174462
 30
0.0
 11
2676.470589276527
 21
1354.494269174462
 31
0.0
  0
LINE
  5
18CE7
330
18C7A
100
AcDbEntity
  8
細線
  6
Continuous
 62
     5
100
AcDbLine
 10
2743.970589276527
 20
1373.494269174462
 30
0.0
 11
2743.970589276527
 21
1373.494269174462
 31
0.0
  0
LINE
  5
18CE8
330
18C7A
100
AcDbEntity
  8
細線
 48
50.0
100
AcDbLine
 10
1336.970593930116
 20
1341.094443351418
 30
0.0
 11
1336.970593930113
 21
1349.490593759059
 31
0.0
  0
LINE
  5
18CE9
330
18C7A
100
AcDbEntity
  8
細線
 48
50.0
100
AcDbLine
 10
1336.970593930113
 20
1349.490593759059
 30
0.0
 11
1322.970589276523
 21
1349.490593759057
 31
0.0
  0
LINE
  5
18CEA
330
18C7A
100
AcDbEntity
  8
細線
 48
50.0
100
AcDbLine
 10
2087.970593930113
 20
1337.644443351419
 30
0.0
 11
2087.970593930113
 21
1342.494443351421
 31
0.0
  0
LINE
  5
18CEB
330
18C7A
100
AcDbEntity
  8
細線
 48
50.0
100
AcDbLine
 10
2087.970593930113
 20
1342.494443351421
 30
0.0
 11
2102.970593930113
 21
1342.494443351421
 31
0.0
  0
LINE
  5
18CEC
330
18C7A
100
AcDbEntity
  8
細線
 48
50.0
100
AcDbLine
 10
2102.970593930113
 20
1342.494443351421
 30
0.0
 11
2102.970593930115
 21
1349.494443351419
 31
0.0
  0
LINE
  5
18CED
330
18C7A
100
AcDbEntity
  8
細線
 48
50.0
100
AcDbLine
 10
2102.970593930115
 20
1349.494443351419
 30
0.0
 11
2117.970593930113
 21
1349.494443351419
 31
0.0
  0
LINE
  5
18CEE
330
18C7A
100
AcDbEntity
  8
細線
 48
50.0
100
AcDbLine
 10
2117.970593930113
 20
1349.494443351419
 30
0.0
 11
2117.970593930113
 21
1320.494443351421
 31
0.0
  0
LINE
  5
18CEF
330
18C7A
100
AcDbEntity
  8
細線
 48
50.0
100
AcDbLine
 10
1313.970589276523
 20
1320.491777694889
 30
0.0
 11
1527.970593930113
 21
1320.494460905133
 31
0.0
  0
LINE
  5
18CF0
330
18C7A
100
AcDbEntity
  8
細線
 48
50.0
100
AcDbLine
 10
2017.970593930113
 20
1320.494443351421
 30
0.0
 11
2117.970593930113
 21
1320.494443351421
 31
0.0
  0
LINE
  5
18CF1
330
18C7A
100
AcDbEntity
  8
細線
 48
50.0
100
AcDbLine
 10
1737.970593930113
 20
1320.494443351419
 30
0.0
 11
1807.970593930113
 21
1320.494443351423
 31
0.0
  0
LINE
  5
18CF2
330
18C7A
100
AcDbEntity
  8
細線
 48
50.0
100
AcDbLine
 10
1750.832558942642
 20
1320.494443351419
 30
0.0
 11
1756.588076525309
 21
1338.765294641913
 31
0.0
  0
LINE
  5
18CF3
330
18C7A
100
AcDbEntity
  8
細線
 48
50.0
100
AcDbLine
 10
1756.588076525309
 20
1338.765294641913
 30
0.0
 11
1767.516525005743
 21
1338.765294641911
 31
0.0
  0
ARC
  5
18CF4
330
18C7A
100
AcDbEntity
  8
細線
 48
50.0
100
AcDbCircle
 10
1767.516525005743
 20
1337.765294641911
 30
0.0
 40
1.0
100
AcDbArc
 50
24.62431835207225
 51
90.0
  0
ARC
  5
18CF5
330
18C7A
100
AcDbEntity
  8
細線
 48
50.0
100
AcDbCircle
 10
1778.425237120377
 20
1337.765294641911
 30
0.0
 40
1.0
100
AcDbArc
 50
90.0
 51
155.3756816479277
  0
ARC
  5
18CF6
330
18C7A
100
AcDbEntity
  8
細線
 48
50.0
100
AcDbCircle
 10
1772.970881063058
 20
1340.265294641911
 30
0.0
 40
5.0
100
AcDbArc
 50
204.6243183520723
 51
335.3756816479278
  0
LINE
  5
18CF7
330
18C7A
100
AcDbEntity
  8
細線
 48
50.0
100
AcDbLine
 10
1778.425237120377
 20
1338.765294641911
 30
0.0
 11
1789.35368560081
 21
1338.765294641913
 31
0.0
  0
LINE
  5
18CF8
330
18C7A
100
AcDbEntity
  8
細線
 48
50.0
100
AcDbLine
 10
1789.35368560081
 20
1338.765294641913
 30
0.0
 11
1795.109203183478
 21
1320.494443351423
 31
0.0
  0
LINE
  5
18CF9
330
18C7A
100
AcDbEntity
  8
細線
 48
50.0
100
AcDbLine
 10
2087.970593930113
 20
1341.094443351419
 30
0.0
 11
1336.970593930116
 21
1341.094443351418
 31
0.0
  0
LINE
  5
18CFA
330
18C7A
100
AcDbEntity
  8
細線
 48
50.0
100
AcDbLine
 10
1947.970593930113
 20
1320.494443351421
 30
0.0
 11
1877.970593930113
 21
1320.494443351421
 31
0.0
  0
LINE
  5
18CFB
330
18C7A
100
AcDbEntity
  8
細線
100
AcDbLine
 10
1667.970593930113
 20
1320.494443351421
 30
0.0
 11
1597.970602115529
 21
1320.494443351421
 31
0.0
  0
LINE
  5
18CFC
330
18C7A
100
AcDbEntity
  8
細線
 48
50.0
100
AcDbLine
 10
2741.970584622936
 20
1375.094487209288
 30
0.0
 11
2106.970593930113
 21
1375.094487209284
 31
0.0
  0
LINE
  5
18CFD
330
18C7A
100
AcDbEntity
  8
細線
 48
50.0
100
AcDbLine
 10
2106.970593930113
 20
1371.990637616925
 30
0.0
 11
2106.970593930113
 21
1376.490637616925
 31
0.0
  0
LINE
  5
18CFE
330
18C7A
100
AcDbEntity
  8
細線
 48
50.0
100
AcDbLine
 10
2106.970593930113
 20
1376.490637616925
 30
0.0
 11
2091.970593930113
 21
1376.490637616925
 31
0.0
  0
LINE
  5
18CFF
330
18C7A
100
AcDbEntity
  8
細線
 48
50.0
100
AcDbLine
 10
2091.970593930113
 20
1376.490637616925
 30
0.0
 11
2091.970593930113
 21
1383.490637616927
 31
0.0
  0
LINE
  5
18D00
330
18C7A
100
AcDbEntity
  8
細線
 48
50.0
100
AcDbLine
 10
2091.970593930113
 20
1383.490637616927
 30
0.0
 11
2076.970593930115
 21
1383.490637616924
 31
0.0
  0
LINE
  5
18D01
330
18C7A
100
AcDbEntity
  8
細線
 48
50.0
100
AcDbLine
 10
2076.970593930115
 20
1383.490637616924
 30
0.0
 11
2076.970593930115
 21
1345.890409513813
 31
0.0
  0
LINE
  5
18D02
330
18C7A
100
AcDbEntity
  8
細線
 48
50.0
100
AcDbLine
 10
2076.970593930115
 20
1345.890409513813
 30
0.0
 11
2096.970601231289
 21
1345.890451063353
 31
0.0
  0
LINE
  5
18D03
330
18C7A
100
AcDbEntity
  8
細線
 48
50.0
100
AcDbLine
 10
2096.970556362348
 20
1354.493912699161
 30
0.0
 11
2096.970601231289
 21
1345.890451063353
 31
0.0
  0
LINE
  5
18D04
330
18C7A
100
AcDbEntity
  8
細線
 48
50.0
100
AcDbLine
 10
2741.970584622936
 20
1371.644487209287
 30
0.0
 11
2741.970584622936
 21
1376.494487209284
 31
0.0
  0
LINE
  5
18D05
330
18C7A
100
AcDbEntity
  8
細線
 48
50.0
100
AcDbLine
 10
2741.970584622936
 20
1376.494487209284
 30
0.0
 11
2756.970584622934
 21
1376.494487209285
 31
0.0
  0
LINE
  5
18D06
330
18C7A
100
AcDbEntity
  8
細線
 48
50.0
100
AcDbLine
 10
2756.970584622934
 20
1376.494487209285
 30
0.0
 11
2756.970596256909
 21
1383.494487209331
 31
0.0
  0
LINE
  5
18D07
330
18C7A
100
AcDbEntity
  8
細線
 48
50.0
100
AcDbLine
 10
2756.970596256909
 20
1383.494487209331
 30
0.0
 11
2771.970594427439
 21
1383.494487209329
 31
0.0
  0
LINE
  5
18D08
330
18C7A
100
AcDbEntity
  8
細線
 48
50.0
100
AcDbLine
 10
2771.970594427439
 20
1383.494487209329
 30
0.0
 11
2771.970584125617
 21
1354.494281037055
 31
0.0
  0
LINE
  5
18D09
330
18C7A
100
AcDbEntity
  8
細線
 48
50.0
100
AcDbLine
 10
2458.070304175992
 20
1354.494278397076
 30
0.0
 11
2389.470863838818
 21
1354.494283787084
 31
0.0
  0
LINE
  5
18D0A
330
18C7A
100
AcDbEntity
  8
細線
 48
50.0
100
AcDbLine
 10
2096.970556362348
 20
1354.493912699161
 30
0.0
 11
2108.203245717057
 21
1354.494095652309
 31
0.0
  0
ARC
  5
18D0B
330
18C7A
100
AcDbEntity
  8
細線
 48
50.0
100
AcDbCircle
 10
2114.785538024393
 20
1353.294259565922
 30
0.0
 40
1.8
100
AcDbArc
 50
270.0006665777295
 51
345.000555481349
  0
LINE
  5
18D0C
330
18C7A
100
AcDbEntity
  8
細線
 48
50.0
100
AcDbLine
 10
2116.771971470473
 20
1353.753100023201
 30
0.0
 11
2116.524209028273
 21
1352.828402141094
 31
0.0
  0
LINE
  5
18D0D
330
18C7A
100
AcDbEntity
  8
細線
 48
50.0
100
AcDbLine
 10
2114.785558965548
 20
1351.494259566043
 30
0.0
 11
2111.155631546781
 21
1351.494217335563
 31
0.0
  0
ARC
  5
18D0E
330
18C7A
100
AcDbEntity
  8
細線
 48
50.0
100
AcDbCircle
 10
2111.155610605627
 20
1353.29421733544
 30
0.0
 40
1.8
100
AcDbArc
 50
195.0010443049965
 51
270.0006665777295
  0
LINE
  5
18D0F
330
18C7A
100
AcDbEntity
  8
細線
 48
50.0
100
AcDbLine
 10
2109.169183113368
 20
1353.752932303007
 30
0.0
 11
2109.416952609882
 21
1352.828311364425
 31
0.0
  0
ARC
  5
18D10
330
18C7A
100
AcDbEntity
  8
細線
 48
50.0
100
AcDbCircle
 10
2108.203262004622
 20
1353.494095652444
 30
0.0
 40
1.0
100
AcDbArc
 50
15.00104430499651
 51
90.00093320877969
  0
LINE
  5
18D11
330
18C7A
100
AcDbEntity
  8
細線
 48
50.0
100
AcDbLine
 10
2117.737892825577
 20
1354.494290342714
 30
0.0
 11
2118.679652976481
 21
1354.494296916564
 31
0.0
  0
ARC
  5
18D12
330
18C7A
100
AcDbEntity
  8
細線
 48
50.0
100
AcDbCircle
 10
2117.737899805961
 20
1353.49429034274
 30
0.0
 40
1.0
100
AcDbArc
 50
90.0003999466794
 51
165.000555481349
  0
LINE
  5
18D13
330
18C7A
100
AcDbEntity
  8
細線
 48
50.0
100
AcDbLine
 10
2669.470584622926
 20
1354.494281037055
 30
0.0
 11
2771.970584125617
 21
1354.494281037055
 31
0.0
  0
LINE
  5
18D14
330
18C7A
100
AcDbEntity
  8
細線
 48
50.0
100
AcDbLine
 10
2179.47061994182
 20
1354.494289224422
 30
0.0
 11
2118.370558714898
 21
1354.494296916564
 31
0.0
  0
LINE
  5
18D15
330
18C7A
100
AcDbEntity
  8
細線
 48
50.0
100
AcDbLine
 10
2599.470584622926
 20
1354.494281037057
 30
0.0
 11
2529.470584622926
 21
1354.494281037055
 31
0.0
  0
LINE
  5
18D16
330
18C7A
100
AcDbEntity
  8
細線
 48
50.0
100
AcDbLine
 10
2319.470584622926
 20
1354.494281037054
 30
0.0
 11
2249.470567335051
 21
1354.494281037057
 31
0.0
  0
ARC
  5
18D17
330
18C7A
100
AcDbEntity
  8
細線
 48
50.0
100
AcDbCircle
 10
2756.170589276533
 20
1387.694269174466
 30
0.0
 40
0.8
100
AcDbArc
 50
359.9997333689499
 51
89.99986668437072
  0
ARC
  5
18D18
330
18C7A
100
AcDbEntity
  8
細線
 48
50.0
100
AcDbCircle
 10
2763.770596101631
 20
1387.694280343081
 30
0.0
 40
0.8
100
AcDbArc
 50
90.00014387753465
 51
179.9997333689498
  0
LINE
  5
18D19
330
18C7A
100
AcDbEntity
  8
細線
 48
50.0
100
AcDbLine
 10
2756.170591137969
 20
1388.494269174465
 30
0.0
 11
2750.970589276525
 21
1388.494269174465
 31
0.0
  0
ARC
  5
18D1A
330
18C7A
100
AcDbEntity
  8
細線
 48
50.0
100
AcDbCircle
 10
2757.670589276524
 20
1386.194269174464
 30
0.0
 40
0.7
100
AcDbArc
 50
180.0
 51
270.0
  0
ARC
  5
18D1B
330
18C7A
100
AcDbEntity
  8
細線
 48
50.0
100
AcDbCircle
 10
2762.270589276524
 20
1386.194269174464
 30
0.0
 40
0.7
100
AcDbArc
 50
270.0
 51
0.0
  0
LINE
  5
18D1C
330
18C7A
100
AcDbEntity
  8
細線
 48
50.0
100
AcDbLine
 10
2762.970589276525
 20
1386.194269174464
 30
0.0
 11
2762.970596101639
 21
1387.694284065954
 31
0.0
  0
LINE
  5
18D1D
330
18C7A
100
AcDbEntity
  8
細線
 48
50.0
100
AcDbLine
 10
2757.670589276524
 20
1385.494269174465
 30
0.0
 11
2762.270589276524
 21
1385.494269174465
 31
0.0
  0
LINE
  5
18D1E
330
18C7A
100
AcDbEntity
  8
細線
 48
50.0
100
AcDbLine
 10
2756.970589276525
 20
1387.694269174466
 30
0.0
 11
2756.970589276525
 21
1386.194269174464
 31
0.0
  0
LINE
  5
18D1F
330
18C7A
100
AcDbEntity
  8
細線
 48
50.0
100
AcDbLine
 10
3382.570589276527
 20
1418.494269174465
 30
0.0
 11
2745.970589276525
 21
1418.494269174463
 31
0.0
  0
LINE
  5
18D20
330
18C7A
100
AcDbEntity
  8
細線
 48
50.0
100
AcDbLine
 10
3408.470589276525
 20
1413.494269174467
 30
0.0
 11
3392.570589276527
 21
1413.494269174465
 31
0.0
  0
LINE
  5
18D21
330
18C7A
100
AcDbEntity
  8
細線
 48
50.0
100
AcDbLine
 10
3392.570589276526
 20
1413.494269174465
 30
0.0
 11
3382.570589276527
 21
1418.494269174465
 31
0.0
  0
LINE
  5
18D22
330
18C7A
100
AcDbEntity
  8
細線
100
AcDbLine
 10
2993.470589276525
 20
1388.494269174465
 30
0.0
 11
2993.470589276525
 21
1417.794269174464
 31
0.0
  0
LINE
  5
18D23
330
18C7A
100
AcDbEntity
  8
細線
100
AcDbLine
 10
2993.470589276525
 20
1417.794269174464
 30
0.0
 11
3013.470589276525
 21
1417.794269174464
 31
0.0
  0
LINE
  5
18D24
330
18C7A
100
AcDbEntity
  8
細線
100
AcDbLine
 10
3013.470589276525
 20
1388.494269174465
 30
0.0
 11
3013.470589276525
 21
1417.794269174464
 31
0.0
  0
LINE
  5
18D25
330
18C7A
100
AcDbEntity
  8
細線
100
AcDbLine
 10
3170.720589276524
 20
1388.494269174465
 30
0.0
 11
3100.720589276523
 21
1388.494269174465
 31
0.0
  0
LINE
  5
18D26
330
18C7A
100
AcDbEntity
  8
細線
 48
50.0
100
AcDbLine
 10
2890.720589276525
 20
1388.494269174465
 30
0.0
 11
2763.766368849365
 21
1388.494269174465
 31
0.0
  0
LINE
  5
18D27
330
18C7A
100
AcDbEntity
  8
細線
100
AcDbLine
 10
3030.720589276525
 20
1388.494269174465
 30
0.0
 11
2960.720589276525
 21
1388.494269174465
 31
0.0
  0
LINE
  5
18D28
330
18C7A
100
AcDbEntity
  8
細線
 48
50.0
100
AcDbLine
 10
2750.970589276525
 20
1380.494269174465
 30
0.0
 11
2750.970589276525
 21
1388.494269174465
 31
0.0
  0
LINE
  5
18D29
330
18C7A
100
AcDbEntity
  8
細線
 48
50.0
100
AcDbLine
 10
2730.970589276524
 20
1380.494269174467
 30
0.0
 11
2750.970589276525
 21
1380.494269174465
 31
0.0
  0
LINE
  5
18D2A
330
18C7A
100
AcDbEntity
  8
細線
 48
50.0
100
AcDbLine
 10
2745.970589276525
 20
1418.494269174465
 30
0.0
 11
2745.970589276525
 21
1413.494269174465
 31
0.0
  0
LINE
  5
18D2B
330
18C7A
100
AcDbEntity
  8
細線
 48
50.0
100
AcDbLine
 10
2730.970589276525
 20
1418.494269174463
 30
0.0
 11
2745.970589276525
 21
1418.494269174465
 31
0.0
  0
LINE
  5
18D2C
330
18C7A
100
AcDbEntity
  8
細線
 48
50.0
100
AcDbLine
 10
2730.970589276524
 20
1380.494269174467
 30
0.0
 11
2730.970589276525
 21
1418.494269174463
 31
0.0
  0
LINE
  5
18D2D
330
18C7A
100
AcDbEntity
  8
細線
100
AcDbLine
 10
3398.970589276523
 20
1388.494269174465
 30
0.0
 11
3240.720589276525
 21
1388.494269174465
 31
0.0
  0
LINE
  5
18D2E
330
18C7A
100
AcDbEntity
  8
細線
 48
50.0
100
AcDbLine
 10
3408.470589276525
 20
1413.494269174467
 30
0.0
 11
3408.470589276524
 21
1388.494269174465
 31
0.0
  0
TEXT
  5
18D2F
330
18C7A
100
AcDbEntity
  8
部品1
100
AcDbText
 10
1860.154865991392
 20
46.99880823813145
 30
0.0
 40
135.0
  1
平面図
  7
STYLE2
100
AcDbText
  0
LWPOLYLINE
  5
18D30
330
18C7A
100
AcDbEntity
  8
部品1
100
AcDbPolyline
 90
        4
 70
     1
 43
0.0
 10
1770.23525616235
 20
239.8923374566548
 10
1770.23525616235
 20
0.0000159111223184
 10
2533.705922390791
 20
0.0000159111223184
 10
2533.705922390791
 20
239.8923374566548
  0
LINE
  5
18D31
330
18C7A
100
AcDbEntity
  8
部品1
100
AcDbLine
 10
1534.470589276487
 20
3154.494269174626
 30
0.0
 11
2769.470589276552
 21
3154.494269174626
 31
0.0
  0
LINE
  5
18D32
330
18C7A
100
AcDbEntity
  8
部品1
 48
50.0
100
AcDbLine
 10
1311.970589276523
 20
1420.494269174462
 30
0.0
 11
3411.970589276523
 21
1420.494269174465
 31
0.0
  0
LINE
  5
18D33
330
18C7A
100
AcDbEntity
  8
部品1
 48
50.0
100
AcDbLine
 10
471.9705892765232
 20
1392.494269174465
 30
0.0
 11
1311.970589276523
 21
1392.494269174465
 31
0.0
  0
DIMENSION
  5
18D34
330
18C7A
100
AcDbEntity
  8
寸法
100
AcDbDimension
  2
*D14
 10
2710.234916278077
 20
2488.887829538828
 30
0.0
 11
2338.318822490183
 21
2488.887829538828
 31
0.0
 12
-3742.925985830444
 22
-6453.628869860112
 32
0.0
 70
   128
 71
     5
 42
1231.00000000007
  3
INABA_S40G
100
AcDbAlignedDimension
 13
1536.470589276486
 23
2702.494269174557
 33
0.0
 14
2767.470589276556
 24
2702.494269174549
 34
0.0
100
AcDbRotatedDimension
1001
ACAD
1000
DSTYLE
1002
{
1002
}
  0
LINE
  5
18D35
330
18C7A
100
AcDbEntity
  8
部品1
100
AcDbLine
 10
1536.470589276487
 20
2702.494269174557
 30
0.0
 11
2767.470589276554
 21
2702.494269174615
 31
0.0
  0
LINE
  5
18D36
330
18C7A
100
AcDbEntity
  8
部品1
100
AcDbLine
 10
1536.470589276487
 20
3152.494269174557
 30
0.0
 11
2767.470589276556
 21
3152.494269174615
 31
0.0
  0
LINE
  5
18D37
330
18C7A
100
AcDbEntity
  8
細線
 48
50.0
100
AcDbLine
 10
1508.470589276487
 20
3152.494269174558
 30
0.0
 11
445.4705892765559
 21
2702.494269174509
 31
0.0
  0
LINE
  5
18D38
330
18C7A
100
AcDbEntity
  8
細線
 48
50.0
100
AcDbLine
 10
1508.470589276487
 20
2702.494269174558
 30
0.0
 11
445.4705892765542
 21
3152.494269174509
 31
0.0
  0
LINE
  5
18D39
330
18C7A
100
AcDbEntity
  8
部品1
100
AcDbLine
 10
1556.970589276487
 20
3172.494269174611
 30
0.0
 11
1556.970589276487
 21
3154.494269174611
 31
0.0
  0
LINE
  5
18D3A
330
18C7A
100
AcDbEntity
  8
部品1
100
AcDbLine
 10
1556.970589276487
 20
3172.494269174611
 30
0.0
 11
1550.970589276487
 21
3172.494269174611
 31
0.0
  0
LINE
  5
18D3B
330
18C7A
100
AcDbEntity
  8
部品1
100
AcDbLine
 10
1534.470589276487
 20
3146.494269174608
 30
0.0
 11
1509.470589276487
 21
3146.494269174611
 31
0.0
  0
LINE
  5
18D3C
330
18C7A
100
AcDbEntity
  8
部品1
100
AcDbLine
 10
1486.970589276487
 20
3172.494269174611
 30
0.0
 11
1486.970589276487
 21
3154.494269174611
 31
0.0
  0
LINE
  5
18D3D
330
18C7A
100
AcDbEntity
  8
部品1
100
AcDbLine
 10
1492.970589276487
 20
3172.494269174611
 30
0.0
 11
1486.970589276487
 21
3172.494269174611
 31
0.0
  0
LINE
  5
18D3E
330
18C7A
100
AcDbEntity
  8
部品1
100
AcDbLine
 10
1534.470589276487
 20
2702.494269174615
 30
0.0
 11
1509.470589276487
 21
2702.494269174615
 31
0.0
  0
LINE
  5
18D3F
330
18C7A
100
AcDbEntity
  8
部品1
 48
50.0
100
AcDbLine
 10
1536.470589276487
 20
3152.494269174611
 30
0.0
 11
1536.470589276487
 21
2702.494269174615
 31
0.0
  0
LINE
  5
18D40
330
18C7A
100
AcDbEntity
  8
部品1
 48
50.0
100
AcDbLine
 10
1508.470589276487
 20
3152.494269174607
 30
0.0
 11
1508.470589276487
 21
2702.494269174615
 31
0.0
  0
LINE
  5
18D41
330
18C7A
100
AcDbEntity
  8
部品1
 48
50.0
100
AcDbLine
 10
1534.470589276487
 20
3154.494269174618
 30
0.0
 11
1534.470589276487
 21
2702.494269174615
 31
0.0
  0
LINE
  5
18D42
330
18C7A
100
AcDbEntity
  8
部品1
 48
50.0
100
AcDbLine
 10
1509.470589276487
 20
3154.494269174615
 30
0.0
 11
1509.470589276487
 21
2702.494269174615
 31
0.0
  0
LINE
  5
18D43
330
18C7A
100
AcDbEntity
  8
部品1
100
AcDbLine
 10
3411.970589276556
 20
1392.494269174582
 30
0.0
 11
3411.970589276556
 21
1420.494269174596
 31
0.0
  0
LINE
  5
18D44
330
18C7A
100
AcDbEntity
  8
部品1
100
AcDbLine
 10
1311.970589276523
 20
1392.494269174596
 30
0.0
 11
1311.970589276523
 21
1420.494269174596
 31
0.0
  0
LINE
  5
18D45
330
18C7A
100
AcDbEntity
  8
部品1
100
AcDbLine
 10
891.9705892765232
 20
1392.494269174596
 30
0.0
 11
891.9705892765232
 21
1420.494269174596
 31
0.0
  0
LINE
  5
18D46
330
18C7A
100
AcDbEntity
  8
部品1
100
AcDbLine
 10
3411.97058927652
 20
3182.494269174477
 30
0.0
 11
3411.970589276523
 21
3154.494269174477
 31
0.0
  0
LINE
  5
18D47
330
18C7A
100
AcDbEntity
  8
部品1
100
AcDbLine
 10
2571.97058927652
 20
3182.494269174477
 30
0.0
 11
2571.970589276523
 21
3154.494269174477
 31
0.0
  0
LINE
  5
18D48
330
18C7A
100
AcDbEntity
  8
部品1
100
AcDbLine
 10
2991.97058927652
 20
3182.494269174477
 30
0.0
 11
2991.970589276523
 21
3154.494269174477
 31
0.0
  0
LINE
  5
18D49
330
18C7A
100
AcDbEntity
  8
部品1
100
AcDbLine
 10
2151.970589276519
 20
3182.494269174477
 30
0.0
 11
2151.970589276523
 21
3154.494269174477
 31
0.0
  0
LINE
  5
18D4A
330
18C7A
100
AcDbEntity
  8
部品1
100
AcDbLine
 10
1731.970589276519
 20
3182.494269174477
 30
0.0
 11
1731.970589276523
 21
3154.494269174477
 31
0.0
  0
LINE
  5
18D4B
330
18C7A
100
AcDbEntity
  8
部品1
100
AcDbLine
 10
1311.970589276519
 20
3182.494269174477
 30
0.0
 11
1311.970589276523
 21
3154.494269174477
 31
0.0
  0
LINE
  5
18D4C
330
18C7A
100
AcDbEntity
  8
部品1
100
AcDbLine
 10
891.9705892765195
 20
3182.494269174477
 30
0.0
 11
891.9705892765232
 21
3154.494269174477
 31
0.0
  0
LINE
  5
18D4D
330
18C7A
100
AcDbEntity
  8
部品1
100
AcDbLine
 10
471.9705892765232
 20
1392.494269174596
 30
0.0
 11
471.9705892765232
 21
1420.494269174596
 31
0.0
  0
LINE
  5
18D4E
330
18C7A
100
AcDbEntity
  8
部品1
100
AcDbLine
 10
444.9705892765305
 20
1420.494269174558
 30
0.0
 11
3858.970589276556
 21
1420.494269174596
 31
0.0
  0
LINE
  5
18D4F
330
18C7A
100
AcDbEntity
  8
部品1
100
AcDbLine
 10
3831.970589276556
 20
1392.494269174596
 30
0.0
 11
3831.970589276556
 21
1420.494269174596
 31
0.0
  0
LINE
  5
18D50
330
18C7A
100
AcDbEntity
  8
部品1
100
AcDbLine
 10
3858.970589276556
 20
1447.494269174593
 30
0.0
 11
3886.970589276556
 21
1447.494269174593
 31
0.0
  0
LINE
  5
18D51
330
18C7A
100
AcDbEntity
  8
部品1
100
AcDbLine
 10
3858.970589276556
 20
1867.494269174607
 30
0.0
 11
3886.970589276556
 21
1867.494269174607
 31
0.0
  0
LINE
  5
18D52
330
18C7A
100
AcDbEntity
  8
部品1
100
AcDbLine
 10
444.9705892765305
 20
1867.49426917448
 30
0.0
 11
416.9705892765305
 21
1867.49426917448
 31
0.0
  0
LINE
  5
18D53
330
18C7A
100
AcDbEntity
  8
部品1
100
AcDbLine
 10
3830.470589276541
 20
1867.49426917458
 30
0.0
 11
473.4705892765396
 21
1867.49426917448
 31
0.0
  0
LINE
  5
18D54
330
18C7A
100
AcDbEntity
  8
部品1
100
AcDbLine
 10
3830.470589276541
 20
2287.49426917458
 30
0.0
 11
473.4705892765396
 21
2287.49426917448
 31
0.0
  0
LINE
  5
18D55
330
18C7A
100
AcDbEntity
  8
部品1
100
AcDbLine
 10
444.9705892765305
 20
2287.49426917448
 30
0.0
 11
416.9705892765305
 21
2287.49426917448
 31
0.0
  0
LINE
  5
18D56
330
18C7A
100
AcDbEntity
  8
部品1
100
AcDbLine
 10
3858.970589276556
 20
2287.494269174608
 30
0.0
 11
3886.970589276556
 21
2287.494269174608
 31
0.0
  0
LINE
  5
18D57
330
18C7A
100
AcDbEntity
  8
部品1
 48
50.0
100
AcDbLine
 10
2151.970589276551
 20
2702.494269174586
 30
0.0
 11
2151.970589276581
 21
1448.994269174494
 31
0.0
  0
LINE
  5
18D58
330
18C7A
100
AcDbEntity
  8
破線
 48
10.0
100
AcDbLine
 10
2959.470589276535
 20
1472.494269174522
 30
0.0
 11
2176.970589276532
 21
1472.494269174505
 31
0.0
  0
LINE
  5
18D59
330
18C7A
100
AcDbEntity
  8
破線
 48
10.0
100
AcDbLine
 10
3009.47058927653
 20
1448.994269174509
 30
0.0
 11
3009.47058927653
 21
2702.494269174615
 31
0.0
  0
LINE
  5
18D5A
330
18C7A
100
AcDbEntity
  8
破線
 48
10.0
100
AcDbLine
 10
2959.470589276535
 20
1448.994269174505
 30
0.0
 11
2959.470589276531
 21
2702.494269174615
 31
0.0
  0
LINE
  5
18D5B
330
18C7A
100
AcDbEntity
  8
破線
 48
10.0
100
AcDbLine
 10
1344.47058927653
 20
1448.994269174509
 30
0.0
 11
1344.47058927653
 21
2702.494269174615
 31
0.0
  0
LINE
  5
18D5C
330
18C7A
100
AcDbEntity
  8
破線
 48
10.0
100
AcDbLine
 10
1294.470589276534
 20
1448.994269174505
 30
0.0
 11
1294.47058927653
 21
2702.494269174615
 31
0.0
  0
DIMENSION
  5
18D5D
330
18C7A
100
AcDbEntity
  8
寸法
100
AcDbDimension
  2
*D13
 10
1451.234916278005
 20
2488.887829538828
 30
0.0
 11
916.0604668248634
 21
2488.887829538828
 31
0.0
 12
-3742.925985830444
 22
-6453.628869860112
 32
0.0
 70
   128
 71
     5
 42
1062.99999999993
  3
INABA_S40G
100
AcDbAlignedDimension
 13
445.4705892765559
 23
2702.494269174505
 33
0.0
 14
1508.470589276486
 24
2702.494269174558
 34
0.0
100
AcDbRotatedDimension
1001
ACAD
1000
DSTYLE
1002
{
1002
}
  0
LINE
  5
18D5E
330
18C7A
100
AcDbEntity
  8
破線
 48
10.0
100
AcDbLine
 10
1294.470589276534
 20
1472.494269174469
 30
0.0
 11
496.9705892765414
 21
1472.494269174476
 31
0.0
  0
LINE
  5
18D5F
330
18C7A
100
AcDbEntity
  8
部品1
100
AcDbLine
 10
3831.970589276556
 20
3182.494269174604
 30
0.0
 11
3831.970589276556
 21
3154.494269174604
 31
0.0
  0
LINE
  5
18D60
330
18C7A
100
AcDbEntity
  8
部品1
100
AcDbLine
 10
3831.970589276556
 20
3182.494269174626
 30
0.0
 11
3831.970589276556
 21
3154.494269174626
 31
0.0
  0
LINE
  5
18D61
330
18C7A
100
AcDbEntity
  8
部品1
100
AcDbLine
 10
3858.970589276556
 20
3127.494269174607
 30
0.0
 11
3886.970589276556
 21
3127.494269174607
 31
0.0
  0
LINE
  5
18D62
330
18C7A
100
AcDbEntity
  8
部品1
100
AcDbLine
 10
3858.970589276556
 20
2707.494269174608
 30
0.0
 11
3886.970589276556
 21
2707.494269174608
 31
0.0
  0
LINE
  5
18D63
330
18C7A
100
AcDbEntity
  8
部品1
100
AcDbLine
 10
3858.470589276556
 20
3152.494269174604
 30
0.0
 11
3858.470589276556
 21
2702.494269174608
 31
0.0
  0
LINE
  5
18D64
330
18C7A
100
AcDbEntity
  8
部品1
100
AcDbLine
 10
3886.970589276533
 20
1447.494269174593
 30
0.0
 11
3886.970589276531
 21
1392.494269174596
 31
0.0
  0
LINE
  5
18D65
330
18C7A
100
AcDbEntity
  8
部品1
 48
50.0
100
AcDbLine
 10
3830.470589276556
 20
1448.994269174596
 30
0.0
 11
3858.970589276554
 21
1420.494269174596
 31
0.0
  0
LINE
  5
18D66
330
18C7A
100
AcDbEntity
  8
部品1
100
AcDbLine
 10
3886.970589276531
 20
1392.494269174596
 30
0.0
 11
3835.970589276531
 21
1392.494269174596
 31
0.0
  0
LINE
  5
18D67
330
18C7A
100
AcDbEntity
  8
部品1
100
AcDbLine
 10
3858.970589276533
 20
1447.494269174593
 30
0.0
 11
3886.970589276531
 21
1447.494269174593
 31
0.0
  0
LINE
  5
18D68
330
18C7A
100
AcDbEntity
  8
部品1
100
AcDbLine
 10
3886.970589276556
 20
3182.494269174604
 30
0.0
 11
3886.970589276531
 21
1392.494269174596
 31
0.0
  0
DIMENSION
  5
18D69
330
18C7A
100
AcDbEntity
  8
寸法
100
AcDbDimension
  2
*D12
 10
4534.396935010967
 20
1447.494269174593
 30
0.0
 11
4534.396935010965
 21
2287.4942691746
 31
0.0
 12
-3742.925985830444
 22
-6453.628869860112
 32
0.0
 70
   128
  1
4X420=<>
 71
     5
 42
1680.000000000014
  3
INABA_S40G
100
AcDbAlignedDimension
 13
3886.970589276556
 23
3127.494269174607
 33
0.0
 14
3886.970589276531
 24
1447.494269174593
 34
0.0
 50
90.0
100
AcDbRotatedDimension
1001
ACAD
1000
DSTYLE
1002
{
1002
}
  0
LINE
  5
18D6A
330
18C7A
100
AcDbEntity
  8
部品1
100
AcDbLine
 10
3858.970589276556
 20
3154.494269174604
 30
0.0
 11
3858.970589276534
 21
1420.494269174596
 31
0.0
  0
DIMENSION
  5
18D6B
330
18C7A
100
AcDbEntity
  8
寸法
100
AcDbDimension
  2
*D11
 10
4213.82831513858
 20
2607.276453505718
 30
0.0
 11
4113.828315138579
 21
2832.276453505718
 31
0.0
 12
-3742.925985830444
 22
-6453.628869860112
 32
0.0
 71
     5
 42
449.9999999999963
  3
INABA_S40G
100
AcDbAlignedDimension
 13
3858.470589276556
 23
3152.494269174604
 33
0.0
 14
3858.470589276556
 24
2702.494269174608
 34
0.0
 50
90.0
100
AcDbRotatedDimension
1001
ACAD
1000
DSTYLE
1002
{
1002
}
  0
LINE
  5
18D6C
330
18C7A
100
AcDbEntity
  8
部品1
100
AcDbLine
 10
3830.470589276547
 20
2702.494269174608
 30
0.0
 11
3830.470589276556
 21
1448.994269174596
 31
0.0
  0
LINE
  5
18D6D
330
18C7A
100
AcDbEntity
  8
破線
 48
10.0
100
AcDbLine
 10
3806.970589276549
 20
2702.494269174608
 30
0.0
 11
3806.970589276558
 21
1472.494269174593
 31
0.0
  0
LINE
  5
18D6E
330
18C7A
100
AcDbEntity
  8
部品1
100
AcDbLine
 10
2769.470589276556
 20
3146.494269174608
 30
0.0
 11
2794.470589276556
 21
3146.494269174611
 31
0.0
  0
LINE
  5
18D6F
330
18C7A
100
AcDbEntity
  8
部品1
100
AcDbLine
 10
2810.970589276556
 20
3172.494269174611
 30
0.0
 11
2816.970589276556
 21
3172.494269174611
 31
0.0
  0
LINE
  5
18D70
330
18C7A
100
AcDbEntity
  8
部品1
100
AcDbLine
 10
2816.970589276556
 20
3172.494269174611
 30
0.0
 11
2816.970589276556
 21
3154.494269174611
 31
0.0
  0
LINE
  5
18D71
330
18C7A
100
AcDbEntity
  8
部品1
100
AcDbLine
 10
2746.970589276556
 20
3172.494269174611
 30
0.0
 11
2752.970589276556
 21
3172.494269174611
 31
0.0
  0
LINE
  5
18D72
330
18C7A
100
AcDbEntity
  8
部品1
100
AcDbLine
 10
2746.970589276556
 20
3172.494269174611
 30
0.0
 11
2746.970589276556
 21
3154.494269174611
 31
0.0
  0
LINE
  5
18D73
330
18C7A
100
AcDbEntity
  8
部品1
100
AcDbLine
 10
2769.470589276556
 20
2702.494269174615
 30
0.0
 11
2794.470589276556
 21
2702.494269174615
 31
0.0
  0
LINE
  5
18D74
330
18C7A
100
AcDbEntity
  8
部品1
 48
50.0
100
AcDbLine
 10
2794.470589276556
 20
3154.494269174615
 30
0.0
 11
2794.470589276556
 21
2702.494269174615
 31
0.0
  0
LINE
  5
18D75
330
18C7A
100
AcDbEntity
  8
部品1
 48
50.0
100
AcDbLine
 10
2769.470589276554
 20
3154.494269174618
 30
0.0
 11
2769.470589276556
 21
2702.494269174615
 31
0.0
  0
LINE
  5
18D76
330
18C7A
100
AcDbEntity
  8
部品1
 48
50.0
100
AcDbLine
 10
2795.470589276556
 20
3152.494269174607
 30
0.0
 11
2795.470589276556
 21
2702.494269174615
 31
0.0
  0
LINE
  5
18D77
330
18C7A
100
AcDbEntity
  8
部品1
 48
50.0
100
AcDbLine
 10
2767.470589276556
 20
3152.494269174611
 30
0.0
 11
2767.470589276556
 21
2702.494269174615
 31
0.0
  0
LINE
  5
18D78
330
18C7A
100
AcDbEntity
  8
破線
 48
10.0
100
AcDbLine
 10
2176.97058927653
 20
1448.994269174509
 30
0.0
 11
2176.97058927653
 21
2702.494269174588
 31
0.0
  0
LINE
  5
18D79
330
18C7A
100
AcDbEntity
  8
破線
 48
10.0
100
AcDbLine
 10
2126.970589276534
 20
1448.994269174505
 30
0.0
 11
2126.970589276531
 21
2702.494269174586
 31
0.0
  0
LINE
  5
18D7A
330
18C7A
100
AcDbEntity
  8
部品1
100
AcDbLine
 10
2794.470589276556
 20
3154.494269174622
 30
0.0
 11
3858.970589276556
 21
3154.494269174604
 31
0.0
  0
LINE
  5
18D7B
330
18C7A
100
AcDbEntity
  8
細線
 48
50.0
100
AcDbLine
 10
3858.470589276556
 20
2702.494269174608
 30
0.0
 11
2795.470589276556
 21
3152.494269174607
 31
0.0
  0
LINE
  5
18D7C
330
18C7A
100
AcDbEntity
  8
部品1
100
AcDbLine
 10
2795.470589276555
 20
2702.494269174615
 30
0.0
 11
3858.470589276556
 21
2702.494269174608
 31
0.0
  0
LINE
  5
18D7D
330
18C7A
100
AcDbEntity
  8
部品1
100
AcDbLine
 10
2795.470589276556
 20
3152.494269174611
 30
0.0
 11
3858.470589276556
 21
3152.494269174604
 31
0.0
  0
LINE
  5
18D7E
330
18C7A
100
AcDbEntity
  8
細線
 48
50.0
100
AcDbLine
 10
3858.470589276556
 20
3152.494269174604
 30
0.0
 11
2795.470589276555
 21
2702.494269174615
 31
0.0
  0
DIMENSION
  5
18D7F
330
18C7A
100
AcDbEntity
  8
寸法
100
AcDbDimension
  2
*D10
 10
3801.234916278101
 20
2488.887829538937
 30
0.0
 11
3318.360544398907
 21
2488.887829538937
 31
0.0
 12
-3742.925985830444
 22
-6453.628869860112
 32
0.0
 70
   128
 71
     5
 42
1063.000000000012
  3
INABA_S40G
100
AcDbAlignedDimension
 13
2795.470589276555
 23
2702.494269174615
 33
0.0
 14
3858.470589276567
 24
2702.494269174608
 34
0.0
100
AcDbRotatedDimension
1001
ACAD
1000
DSTYLE
1002
{
1002
}
  0
LINE
  5
18D80
330
18C7A
100
AcDbEntity
  8
破線
 48
10.0
100
AcDbLine
 10
3806.970589276556
 20
1472.494269174594
 30
0.0
 11
3009.47058927653
 21
1472.494269174523
 31
0.0
  0
DIMENSION
  5
18D81
330
18C7A
100
AcDbEntity
  8
寸法
100
AcDbDimension
  2
*D9
 10
4534.396935010941
 20
1392.494269174596
 30
0.0
 11
4534.39693501094
 21
1084.008987800356
 31
0.0
 12
-3742.925985830444
 22
-6453.628869860112
 32
0.0
 70
   128
 71
     5
 42
54.99999999999636
  3
INABA_S40G
100
AcDbAlignedDimension
 13
3886.970589276531
 23
1447.494269174593
 33
0.0
 14
3886.970589276531
 24
1392.494269174596
 34
0.0
 50
90.0
100
AcDbRotatedDimension
1001
ACAD
1000
DSTYLE
1002
{
1002
}
  0
LINE
  5
18D82
330
18C7A
100
AcDbEntity
  8
部品1
100
AcDbLine
 10
471.9705892765196
 20
3182.494269174477
 30
0.0
 11
471.9705892765232
 21
3154.494269174477
 31
0.0
  0
LINE
  5
18D83
330
18C7A
100
AcDbEntity
  8
部品1
100
AcDbLine
 10
471.9705892765559
 20
3182.494269174509
 30
0.0
 11
471.9705892765559
 21
3154.494269174509
 31
0.0
  0
LINE
  5
18D84
330
18C7A
100
AcDbEntity
  8
部品1
100
AcDbLine
 10
444.9705892765232
 20
3127.49426917448
 30
0.0
 11
416.9705892765232
 21
3127.49426917448
 31
0.0
  0
LINE
  5
18D85
330
18C7A
100
AcDbEntity
  8
部品1
100
AcDbLine
 10
444.9705892765305
 20
2707.49426917448
 30
0.0
 11
416.9705892765305
 21
2707.49426917448
 31
0.0
  0
LINE
  5
18D86
330
18C7A
100
AcDbEntity
  8
部品1
 48
50.0
100
AcDbLine
 10
445.4705892765542
 20
3152.494269174506
 30
0.0
 11
445.4705892765559
 21
2702.494269174505
 31
0.0
  0
LINE
  5
18D87
330
18C7A
100
AcDbEntity
  8
部品1
 48
50.0
100
AcDbLine
 10
473.470589276545
 20
1448.994269174573
 30
0.0
 11
444.970589276545
 21
1420.494269174574
 31
0.0
  0
LINE
  5
18D88
330
18C7A
100
AcDbEntity
  8
部品1
100
AcDbLine
 10
471.9705892765232
 20
1392.494269174465
 30
0.0
 11
416.9705892765486
 21
1392.494269174465
 31
0.0
  0
LINE
  5
18D89
330
18C7A
100
AcDbEntity
  8
部品1
100
AcDbLine
 10
444.9705892765305
 20
1447.494269174429
 30
0.0
 11
416.9705892765469
 21
1447.494269174429
 31
0.0
  0
LINE
  5
18D8A
330
18C7A
100
AcDbEntity
  8
部品1
100
AcDbLine
 10
444.9705892765305
 20
1447.494269174465
 30
0.0
 11
416.9705892765469
 21
1447.494269174465
 31
0.0
  0
LINE
  5
18D8B
330
18C7A
100
AcDbEntity
  8
部品1
100
AcDbLine
 10
444.9705892765469
 20
1447.49426917448
 30
0.0
 11
416.9705892765469
 21
1447.49426917448
 31
0.0
  0
LINE
  5
18D8C
330
18C7A
100
AcDbEntity
  8
部品1
100
AcDbLine
 10
416.9705892765469
 20
1447.494269174429
 30
0.0
 11
416.9705892765486
 21
1392.494269174433
 31
0.0
  0
LINE
  5
18D8D
330
18C7A
100
AcDbEntity
  8
部品1
100
AcDbLine
 10
416.9705892765196
 20
3182.494269174477
 30
0.0
 11
416.9705892765486
 21
1392.494269174465
 31
0.0
  0
LINE
  5
18D8E
330
18C7A
100
AcDbEntity
  8
部品1
100
AcDbLine
 10
444.9705892765305
 20
1420.494269174556
 30
0.0
 11
444.9705892765559
 21
3154.494269174509
 31
0.0
  0
LINE
  5
18D8F
330
18C7A
100
AcDbEntity
  8
部品1
100
AcDbLine
 10
473.4705892765323
 20
2702.494269174608
 30
0.0
 11
473.470589276545
 21
1448.994269174571
 31
0.0
  0
LINE
  5
18D90
330
18C7A
100
AcDbEntity
  8
破線
 48
10.0
100
AcDbLine
 10
496.9705892765305
 20
2702.494269174608
 30
0.0
 11
496.9705892765451
 21
1472.494269174476
 31
0.0
  0
DIMENSION
  5
18D91
330
18C7A
100
AcDbEntity
  8
寸法
100
AcDbDimension
  2
*D8
 10
3886.970589276531
 20
410.7433333855515
 30
0.0
 11
2168.197775309287
 21
410.7433333855515
 31
0.0
 12
-3742.925985830444
 22
-6453.628869860112
 32
0.0
 70
   128
 71
     5
 42
3469.999999999982
  3
INABA_S40G
100
AcDbAlignedDimension
 13
416.9705892765486
 23
1392.494269174433
 33
0.0
 14
3886.970589276531
 24
1392.49426917456
 34
0.0
100
AcDbRotatedDimension
1001
ACAD
1000
DSTYLE
1002
{
1070
   341
1005
0
1002
}
  0
LINE
  5
18D92
330
18C7A
100
AcDbEntity
  8
部品1
100
AcDbLine
 10
444.9705892765559
 20
3154.494269174624
 30
0.0
 11
1509.470589276487
 21
3154.494269174626
 31
0.0
  0
LINE
  5
18D93
330
18C7A
100
AcDbEntity
  8
部品1
100
AcDbLine
 10
3886.970589276531
 20
1392.494269174596
 30
0.0
 11
3411.970589276556
 21
1392.494269174582
 31
0.0
  0
LINE
  5
18D94
330
18C7A
100
AcDbEntity
  8
部品1
100
AcDbLine
 10
416.9705892765559
 20
3182.494269174509
 30
0.0
 11
3886.970589276556
 21
3182.494269174604
 31
0.0
  0
LINE
  5
18D95
330
18C7A
100
AcDbEntity
  8
部品1
100
AcDbLine
 10
445.4705892765559
 20
2702.494269174509
 30
0.0
 11
1508.470589276487
 21
2702.494269174558
 31
0.0
  0
LINE
  5
18D96
330
18C7A
100
AcDbEntity
  8
細線
 48
50.0
100
AcDbLine
 10
2767.470589276556
 20
3152.494269174611
 30
0.0
 11
1536.470589276487
 21
2702.494269174558
 31
0.0
  0
LINE
  5
18D97
330
18C7A
100
AcDbEntity
  8
部品1
100
AcDbLine
 10
445.4705892765542
 20
3152.494269174509
 30
0.0
 11
1508.470589276485
 21
3152.494269174558
 31
0.0
  0
LINE
  5
18D98
330
18C7A
100
AcDbEntity
  8
細線
 48
50.0
100
AcDbLine
 10
2767.470589276554
 20
2702.494269174615
 30
0.0
 11
1536.470589276485
 21
3152.494269174558
 31
0.0
  0
LINE
  5
18D99
330
18C7A
100
AcDbEntity
  8
破線
 48
10.0
100
AcDbLine
 10
2126.970589276534
 20
1472.494269174502
 30
0.0
 11
1344.47058927653
 21
1472.494269174473
 31
0.0
  0
LINE
  5
18D9A
330
18C7A
100
AcDbEntity
  8
部品1
100
AcDbLine
 10
3830.470589276556
 20
1448.994269174596
 30
0.0
 11
473.4705892764487
 21
1448.994269174476
 31
0.0
  0
DIMENSION
  5
18D9B
330
18C7A
100
AcDbEntity
  8
寸法
100
AcDbDimension
  2
*D7
 10
471.970589276555
 20
3698.302488799491
 30
0.0
 11
108.4853079022819
 21
3698.302488799491
 31
0.0
 12
-3742.925985830444
 22
-6453.628869860112
 32
0.0
 70
   128
 71
     5
 42
55.00000000003456
  3
INABA_S40G
100
AcDbAlignedDimension
 13
416.9705892765205
 23
3182.494269174509
 33
0.0
 14
471.970589276555
 24
3182.494269174509
 34
0.0
100
AcDbRotatedDimension
1001
ACAD
1000
DSTYLE
1002
{
1002
}
  0
DIMENSION
  5
18D9C
330
18C7A
100
AcDbEntity
  8
寸法
100
AcDbDimension
  2
*D6
 10
4534.396935010967
 20
3127.494269174607
 30
0.0
 11
4534.396935010965
 21
3490.979550548844
 31
0.0
 12
-3742.925985830444
 22
-6453.628869860112
 32
0.0
 70
   128
 71
     5
 42
54.99999999999636
  3
INABA_S40G
100
AcDbAlignedDimension
 13
3886.970589276556
 23
3182.494269174604
 33
0.0
 14
3886.970589276556
 24
3127.494269174607
 34
0.0
 50
90.0
100
AcDbRotatedDimension
1001
ACAD
1000
DSTYLE
1002
{
1002
}
  0
DIMENSION
  5
18D9D
330
18C7A
100
AcDbEntity
  8
寸法
100
AcDbDimension
  2
*D5
 10
3886.970589276556
 20
3698.302488799589
 30
0.0
 11
4195.455870650794
 21
3698.302488799589
 31
0.0
 12
-3742.925985830444
 22
-6453.628869860112
 32
0.0
 70
   128
 71
     5
 42
55.0
  3
INABA_S40G
100
AcDbAlignedDimension
 13
3831.970589276556
 23
3182.494269174604
 33
0.0
 14
3886.970589276556
 24
3182.494269174604
 34
0.0
100
AcDbRotatedDimension
1001
ACAD
1000
DSTYLE
1002
{
1002
}
  0
DIMENSION
  5
18D9E
330
18C7A
100
AcDbEntity
  8
寸法
100
AcDbDimension
  2
*D4
 10
3831.970589276556
 20
3698.302488799607
 30
0.0
 11
2151.970589276555
 21
3698.302488799607
 31
0.0
 12
-3742.925985830444
 22
-6453.628869860112
 32
0.0
 70
   128
  1
8X420=<>
 71
     5
 42
3360.000000000001
  3
INABA_S40G
100
AcDbAlignedDimension
 13
471.970589276555
 23
3182.494269174509
 33
0.0
 14
3831.970589276556
 24
3182.494269174604
 34
0.0
100
AcDbRotatedDimension
1001
ACAD
1000
DSTYLE
1002
{
1002
}
  0
DIMENSION
  5
18D9F
330
18C7A
100
AcDbEntity
  8
寸法
100
AcDbDimension
  2
*D3
 10
4899.503876750603
 20
1392.494269174596
 30
0.0
 11
4899.503876750601
 21
2287.4942691746
 31
0.0
 12
-3742.925985830444
 22
-6453.628869860112
 32
0.0
 70
   128
 71
     5
 42
1790.000000000007
  3
INABA_S40G
100
AcDbAlignedDimension
 13
3886.970589276556
 23
3182.494269174604
 33
0.0
 14
3886.970589276531
 24
1392.494269174596
 34
0.0
 50
90.0
100
AcDbRotatedDimension
1001
ACAD
1000
DSTYLE
1002
{
1002
}
  0
ENDBLK
  5
18DA1
330
18C7A
100
AcDbEntity
  8
0
 48
50.0
100
AcDbBlockEnd
  0
BLOCK
  5
1C4CB
330
1C4CA
100
AcDbEntity
  8
0
 48
50.0
100
AcDbBlockBegin
  2
_NONE
 70
     0
 10
0.0
 20
0.0
 30
0.0
  3
_NONE
  1

  0
CIRCLE
  5
1C4CC
330
1C4CA
100
AcDbEntity
  8
0
  6
ByBlock
 62
     0
 48
50.0
100
AcDbCircle
 10
0.0
 20
0.0
 30
0.0
 40
0.25
  0
ENDBLK
  5
1C4CD
330
1C4CA
100
AcDbEntity
  8
0
 48
50.0
100
AcDbBlockEnd
  0
BLOCK
  5
218AF
330
218A5
100
AcDbEntity
  8
0
 48
50.0
100
AcDbBlockBegin
  2
*D19
 70
     1
 10
0.0
 20
0.0
 30
0.0
  3
*D19
  1

  0
LINE
  5
21DA6
330
218A5
100
AcDbEntity
  8
寸法
 62
     0
 48
50.0
370
    -2
100
AcDbLine
 10
8103.6
 20
6593.029266579432
 30
0.0
 11
6712.503367597604
 21
6593.029266579432
 31
0.0
  0
LINE
  5
21DA7
330
218A5
100
AcDbEntity
  8
寸法
 62
     0
 48
50.0
370
    -2
100
AcDbLine
 10
8103.6
 20
7285.029266579432
 30
0.0
 11
6712.503367597604
 21
7285.029266579432
 31
0.0
  0
LINE
  5
21DA8
330
218A5
100
AcDbEntity
  8
寸法
 62
     0
 48
50.0
370
    -2
100
AcDbLine
 10
6772.503367597605
 20
6593.029266579432
 30
0.0
 11
6772.503367597605
 21
7285.029266579432
 31
0.0
  0
INSERT
  5
21DA9
330
218A5
100
AcDbEntity
  8
寸法
 62
     0
 48
50.0
370
    -2
100
AcDbBlockReference
  2
_DOTSMALL
 10
6772.503367597605
 20
6593.029266579432
 30
0.0
 41
100.0
 42
100.0
 43
100.0
 50
270.0
  0
INSERT
  5
21DAA
330
218A5
100
AcDbEntity
  8
寸法
 62
     0
 48
50.0
370
    -2
100
AcDbBlockReference
  2
_DOTSMALL
 10
6772.503367597605
 20
7285.029266579432
 30
0.0
 41
100.0
 42
100.0
 43
100.0
 50
90.0
  0
MTEXT
  5
21DAB
330
218A5
100
AcDbEntity
  8
寸法
 62
     7
 48
50.0
100
AcDbMText
 10
6672.4625550328
 20
6939.029266579433
 30
0.0
 40
120.0
 41
0.0
 71
     5
 72
     1
  1
\A1;692
  7
STYLE1
 11
0.0000000000000001
 21
1.0
 31
0.0
 73
     1
 44
1.0
1001
ACAD
1000
MTEXTBEGIN
1070
    73
1070
     1
1070
    44
1040
1.0
1070
    74
1070
     0
1000
MTEXTEND
  0
POINT
  5
21DAC
330
218A5
100
AcDbEntity
  8
DEFPOINTS
 62
     0
 48
50.0
100
AcDbPoint
 10
8123.600000000001
 20
6593.029266579432
 30
0.0
  0
POINT
  5
21DAD
330
218A5
100
AcDbEntity
  8
DEFPOINTS
 62
     0
 48
50.0
100
AcDbPoint
 10
8123.600000000001
 20
7285.029266579432
 30
0.0
  0
POINT
  5
21DAE
330
218A5
100
AcDbEntity
  8
DEFPOINTS
 62
     0
 48
50.0
100
AcDbPoint
 10
6772.503367597605
 20
7285.029266579432
 30
0.0
  0
ENDBLK
  5
218B0
330
218A5
100
AcDbEntity
  8
0
 48
50.0
100
AcDbBlockEnd
  0
BLOCK
  5
218BB
330
218B1
100
AcDbEntity
  8
0
 48
50.0
100
AcDbBlockBegin
  2
*D20
 70
     1
 10
0.0
 20
0.0
 30
0.0
  3
*D20
  1

  0
LINE
  5
21D9D
330
218B1
100
AcDbEntity
  8
寸法
 62
     0
 48
50.0
370
    -2
100
AcDbLine
 10
8103.6
 20
7285.029266579432
 30
0.0
 11
6712.503367597602
 21
7285.029266579432
 31
0.0
  0
LINE
  5
21D9E
330
218B1
100
AcDbEntity
  8
寸法
 62
     0
 48
50.0
370
    -2
100
AcDbLine
 10
7303.6
 20
8049.029266579433
 30
0.0
 11
6712.503367597602
 21
8049.029266579433
 31
0.0
  0
LINE
  5
21D9F
330
218B1
100
AcDbEntity
  8
寸法
 62
     0
 48
50.0
370
    -2
100
AcDbLine
 10
6772.503367597604
 20
7285.029266579432
 30
0.0
 11
6772.503367597604
 21
8049.029266579433
 31
0.0
  0
INSERT
  5
21DA0
330
218B1
100
AcDbEntity
  8
寸法
 62
     0
 48
50.0
370
    -2
100
AcDbBlockReference
  2
_DOTSMALL
 10
6772.503367597604
 20
7285.029266579432
 30
0.0
 41
100.0
 42
100.0
 43
100.0
 50
270.0
  0
INSERT
  5
21DA1
330
218B1
100
AcDbEntity
  8
寸法
 62
     0
 48
50.0
370
    -2
100
AcDbBlockReference
  2
_DOTSMALL
 10
6772.503367597604
 20
8049.029266579433
 30
0.0
 41
100.0
 42
100.0
 43
100.0
 50
90.0
  0
MTEXT
  5
21DA2
330
218B1
100
AcDbEntity
  8
寸法
 62
     7
 48
50.0
100
AcDbMText
 10
6672.503367597602
 20
7667.029266579435
 30
0.0
 40
120.0
 41
0.0
 71
     5
 72
     1
  1
\A1;764
  7
STYLE1
 11
0.0000000000000001
 21
1.0
 31
0.0
 73
     1
 44
1.0
1001
ACAD
1000
MTEXTBEGIN
1070
    73
1070
     1
1070
    44
1040
1.0
1070
    74
1070
     0
1000
MTEXTEND
  0
POINT
  5
21DA3
330
218B1
100
AcDbEntity
  8
DEFPOINTS
 62
     0
 48
50.0
100
AcDbPoint
 10
8123.600000000001
 20
7285.029266579432
 30
0.0
  0
POINT
  5
21DA4
330
218B1
100
AcDbEntity
  8
DEFPOINTS
 62
     0
 48
50.0
100
AcDbPoint
 10
7323.6
 20
8049.029266579433
 30
0.0
  0
POINT
  5
21DA5
330
218B1
100
AcDbEntity
  8
DEFPOINTS
 62
     0
 48
50.0
100
AcDbPoint
 10
6772.503367597604
 20
8049.029266579433
 30
0.0
  0
ENDBLK
  5
218BC
330
218B1
100
AcDbEntity
  8
0
 48
50.0
100
AcDbBlockEnd
  0
BLOCK
  5
218C7
330
218BD
100
AcDbEntity
  8
0
 48
50.0
100
AcDbBlockBegin
  2
*D21
 70
     1
 10
0.0
 20
0.0
 30
0.0
  3
*D21
  1

  0
LINE
  5
21D94
330
218BD
100
AcDbEntity
  8
寸法
 62
     0
 48
50.0
370
    -2
100
AcDbLine
 10
7303.600000000035
 20
5829.029266579436
 30
0.0
 11
6712.503367597602
 21
5829.029266579436
 31
0.0
  0
LINE
  5
21D95
330
218BD
100
AcDbEntity
  8
寸法
 62
     0
 48
50.0
370
    -2
100
AcDbLine
 10
8103.6
 20
6593.029266579432
 30
0.0
 11
6712.503367597602
 21
6593.029266579432
 31
0.0
  0
LINE
  5
21D96
330
218BD
100
AcDbEntity
  8
寸法
 62
     0
 48
50.0
370
    -2
100
AcDbLine
 10
6772.503367597602
 20
5829.029266579436
 30
0.0
 11
6772.503367597604
 21
6593.029266579432
 31
0.0
  0
INSERT
  5
21D97
330
218BD
100
AcDbEntity
  8
寸法
 62
     0
 48
50.0
370
    -2
100
AcDbBlockReference
  2
_DOTSMALL
 10
6772.503367597602
 20
5829.029266579436
 30
0.0
 41
100.0
 42
100.0
 43
100.0
 50
270.0
  0
INSERT
  5
21D98
330
218BD
100
AcDbEntity
  8
寸法
 62
     0
 48
50.0
370
    -2
100
AcDbBlockReference
  2
_DOTSMALL
 10
6772.503367597604
 20
6593.029266579432
 30
0.0
 41
100.0
 42
100.0
 43
100.0
 50
90.0
  0
MTEXT
  5
21D99
330
218BD
100
AcDbEntity
  8
寸法
 62
     7
 48
50.0
100
AcDbMText
 10
6672.503367597601
 20
6282.131616467626
 30
0.0
 40
120.0
 41
0.0
 71
     5
 72
     1
  1
\A1;764
  7
STYLE1
 11
0.0000000000000001
 21
1.0
 31
0.0
 73
     1
 44
1.0
1001
ACAD
1000
MTEXTBEGIN
1070
    73
1070
     1
1070
    44
1040
1.0
1070
    74
1070
     0
1000
MTEXTEND
  0
POINT
  5
21D9A
330
218BD
100
AcDbEntity
  8
DEFPOINTS
 62
     0
 48
50.0
100
AcDbPoint
 10
7323.600000000034
 20
5829.029266579436
 30
0.0
  0
POINT
  5
21D9B
330
218BD
100
AcDbEntity
  8
DEFPOINTS
 62
     0
 48
50.0
100
AcDbPoint
 10
8123.600000000001
 20
6593.029266579432
 30
0.0
  0
POINT
  5
21D9C
330
218BD
100
AcDbEntity
  8
DEFPOINTS
 62
     0
 48
50.0
100
AcDbPoint
 10
6772.503367597604
 20
6593.029266579432
 30
0.0
  0
ENDBLK
  5
218C8
330
218BD
100
AcDbEntity
  8
0
 48
50.0
100
AcDbBlockEnd
  0
BLOCK
  5
218D5
330
218C9
100
AcDbEntity
  8
0
 48
50.0
100
AcDbBlockBegin
  2
*D22
 70
     1
 10
0.0
 20
0.0
 30
0.0
  3
*D22
  1

  0
LINE
  5
21D89
330
218C9
100
AcDbEntity
  8
寸法
 62
     0
 48
50.0
370
    -2
100
AcDbLine
 10
9123.599999999989
 20
8069.029266579432
 30
0.0
 11
9123.599999999989
 21
9126.5505724862
 31
0.0
  0
LINE
  5
21D8A
330
218C9
100
AcDbEntity
  8
寸法
 62
     0
 48
50.0
370
    -2
100
AcDbLine
 10
9168.600000000001
 20
8874.089876969362
 30
0.0
 11
9168.600000000001
 21
9126.5505724862
 31
0.0
  0
LINE
  5
21D8B
330
218C9
100
AcDbEntity
  8
寸法
 62
     0
 48
50.0
370
    -2
100
AcDbLine
 10
9123.599999999989
 20
9066.5505724862
 30
0.0
 11
9023.599999999989
 21
9066.5505724862
 31
0.0
  0
LINE
  5
21D8C
330
218C9
100
AcDbEntity
  8
寸法
 62
     0
 48
50.0
370
    -2
100
AcDbLine
 10
9168.600000000001
 20
9066.5505724862
 30
0.0
 11
9505.949242404918
 21
9066.5505724862
 31
0.0
  0
LINE
  5
21D8D
330
218C9
100
AcDbEntity
  8
寸法
 62
     0
 48
50.0
370
    -2
100
AcDbLine
 10
9123.599999999989
 20
9066.5505724862
 30
0.0
 11
9168.600000000001
 21
9066.5505724862
 31
0.0
  0
INSERT
  5
21D8E
330
218C9
100
AcDbEntity
  8
寸法
 62
     0
 48
50.0
370
    -2
100
AcDbBlockReference
  2
_DOTSMALL
 10
9123.599999999989
 20
9066.5505724862
 30
0.0
 41
100.0
 42
100.0
 43
100.0
  0
INSERT
  5
21D8F
330
218C9
100
AcDbEntity
  8
寸法
 62
     0
 48
50.0
370
    -2
100
AcDbBlockReference
  2
_DOTSMALL
 10
9168.600000000001
 20
9066.5505724862
 30
0.0
 41
100.0
 42
100.0
 43
100.0
 50
180.0
  0
MTEXT
  5
21D90
330
218C9
100
AcDbEntity
  8
寸法
 62
     7
 48
50.0
100
AcDbMText
 10
9439.77462120246
 20
9166.550572486199
 30
0.0
 40
120.0
 41
0.0
 71
     5
 72
     1
  1
\A1;a
  7
STYLE1
 73
     1
 44
1.0
1001
ACAD
1000
MTEXTBEGIN
1070
    73
1070
     1
1070
    44
1040
1.0
1070
    74
1070
     0
1000
MTEXTEND
  0
POINT
  5
21D91
330
218C9
100
AcDbEntity
  8
DEFPOINTS
 62
     0
 48
50.0
100
AcDbPoint
 10
9123.599999999989
 20
8049.029266579431
 30
0.0
  0
POINT
  5
21D92
330
218C9
100
AcDbEntity
  8
DEFPOINTS
 62
     0
 48
50.0
100
AcDbPoint
 10
9168.600000000001
 20
8854.089876969363
 30
0.0
  0
POINT
  5
21D93
330
218C9
100
AcDbEntity
  8
DEFPOINTS
 62
     0
 48
50.0
100
AcDbPoint
 10
9168.600000000001
 20
9066.5505724862
 30
0.0
  0
ENDBLK
  5
218D6
330
218C9
100
AcDbEntity
  8
0
 48
50.0
100
AcDbBlockEnd
  0
BLOCK
  5
218E3
330
218D7
100
AcDbEntity
  8
0
 48
50.0
100
AcDbBlockBegin
  2
*D23
 70
     1
 10
0.0
 20
0.0
 30
0.0
  3
*D23
  1

  0
LINE
  5
21D7E
330
218D7
100
AcDbEntity
  8
寸法
 62
     0
 48
50.0
370
    -2
100
AcDbLine
 10
7278.600000000003
 20
8874.089876969362
 30
0.0
 11
7278.600000000003
 21
9126.5505724862
 31
0.0
  0
LINE
  5
21D7F
330
218D7
100
AcDbEntity
  8
寸法
 62
     0
 48
50.0
370
    -2
100
AcDbLine
 10
7323.6
 20
8069.029266579432
 30
0.0
 11
7323.6
 21
9126.5505724862
 31
0.0
  0
LINE
  5
21D80
330
218D7
100
AcDbEntity
  8
寸法
 62
     0
 48
50.0
370
    -2
100
AcDbLine
 10
7323.6
 20
9066.5505724862
 30
0.0
 11
7423.6
 21
9066.5505724862
 31
0.0
  0
LINE
  5
21D81
330
218D7
100
AcDbEntity
  8
寸法
 62
     0
 48
50.0
370
    -2
100
AcDbLine
 10
7278.600000000003
 20
9066.5505724862
 30
0.0
 11
6941.250757595082
 21
9066.5505724862
 31
0.0
  0
LINE
  5
21D82
330
218D7
100
AcDbEntity
  8
寸法
 62
     0
 48
50.0
370
    -2
100
AcDbLine
 10
7323.6
 20
9066.5505724862
 30
0.0
 11
7278.600000000003
 21
9066.5505724862
 31
0.0
  0
INSERT
  5
21D83
330
218D7
100
AcDbEntity
  8
寸法
 62
     0
 48
50.0
370
    -2
100
AcDbBlockReference
  2
_DOTSMALL
 10
7323.6
 20
9066.5505724862
 30
0.0
 41
100.0
 42
100.0
 43
100.0
 50
180.0
  0
INSERT
  5
21D84
330
218D7
100
AcDbEntity
  8
寸法
 62
     0
 48
50.0
370
    -2
100
AcDbBlockReference
  2
_DOTSMALL
 10
7278.600000000003
 20
9066.5505724862
 30
0.0
 41
100.0
 42
100.0
 43
100.0
  0
MTEXT
  5
21D85
330
218D7
100
AcDbEntity
  8
寸法
 62
     7
 48
50.0
100
AcDbMText
 10
7007.425378797541
 20
9166.550572486199
 30
0.0
 40
120.0
 41
0.0
 71
     5
 72
     1
  1
\A1;a
  7
STYLE1
 73
     1
 44
1.0
1001
ACAD
1000
MTEXTBEGIN
1070
    73
1070
     1
1070
    44
1040
1.0
1070
    74
1070
     0
1000
MTEXTEND
  0
POINT
  5
21D86
330
218D7
100
AcDbEntity
  8
DEFPOINTS
 62
     0
 48
50.0
100
AcDbPoint
 10
7278.600000000003
 20
8854.089876969363
 30
0.0
  0
POINT
  5
21D87
330
218D7
100
AcDbEntity
  8
DEFPOINTS
 62
     0
 48
50.0
100
AcDbPoint
 10
7323.6
 20
8049.029266579433
 30
0.0
  0
POINT
  5
21D88
330
218D7
100
AcDbEntity
  8
DEFPOINTS
 62
     0
 48
50.0
100
AcDbPoint
 10
7323.6
 20
9066.5505724862
 30
0.0
  0
ENDBLK
  5
218E4
330
218D7
100
AcDbEntity
  8
0
 48
50.0
100
AcDbBlockEnd
  0
BLOCK
  5
21909
330
218FF
100
AcDbEntity
  8
0
 48
50.0
100
AcDbBlockBegin
  2
*D24
 70
     1
 10
0.0
 20
0.0
 30
0.0
  3
*D24
  1

  0
LINE
  5
21D61
330
218FF
100
AcDbEntity
  8
寸法
 62
     0
 48
50.0
370
    -2
100
AcDbLine
 10
9000.6
 20
7996.029266579433
 30
0.0
 11
9000.6
 21
8914.089876969363
 31
0.0
  0
LINE
  5
21D62
330
218FF
100
AcDbEntity
  8
寸法
 62
     0
 48
50.0
370
    -2
100
AcDbLine
 10
7446.6
 20
7996.029266579433
 30
0.0
 11
7446.6
 21
8914.089876969363
 31
0.0
  0
LINE
  5
21D63
330
218FF
100
AcDbEntity
  8
寸法
 62
     0
 48
50.0
370
    -2
100
AcDbLine
 10
9000.6
 20
8854.089876969363
 30
0.0
 11
7446.6
 21
8854.089876969363
 31
0.0
  0
INSERT
  5
21D64
330
218FF
100
AcDbEntity
  8
寸法
 62
     0
 48
50.0
370
    -2
100
AcDbBlockReference
  2
_DOTSMALL
 10
9000.6
 20
8854.089876969363
 30
0.0
 41
100.0
 42
100.0
 43
100.0
  0
INSERT
  5
21D65
330
218FF
100
AcDbEntity
  8
寸法
 62
     0
 48
50.0
370
    -2
100
AcDbBlockReference
  2
_DOTSMALL
 10
7446.6
 20
8854.089876969363
 30
0.0
 41
100.0
 42
100.0
 43
100.0
 50
180.0
  0
MTEXT
  5
21D66
330
218FF
100
AcDbEntity
  8
寸法
 62
     7
 48
50.0
100
AcDbMText
 10
8223.600000000001
 20
8954.089876969362
 30
0.0
 40
120.0
 41
0.0
 71
     5
 72
     1
  1
\A1;1554
  7
STYLE1
 73
     1
 44
1.0
1001
ACAD
1000
MTEXTBEGIN
1070
    73
1070
     1
1070
    44
1040
1.0
1070
    74
1070
     0
1000
MTEXTEND
  0
POINT
  5
21D67
330
218FF
100
AcDbEntity
  8
DEFPOINTS
 62
     0
 48
50.0
100
AcDbPoint
 10
9000.6
 20
7976.029266579434
 30
0.0
  0
POINT
  5
21D68
330
218FF
100
AcDbEntity
  8
DEFPOINTS
 62
     0
 48
50.0
100
AcDbPoint
 10
7446.6
 20
7976.029266579434
 30
0.0
  0
POINT
  5
21D69
330
218FF
100
AcDbEntity
  8
DEFPOINTS
 62
     0
 48
50.0
100
AcDbPoint
 10
7446.6
 20
8854.089876969363
 30
0.0
  0
ENDBLK
  5
2190A
330
218FF
100
AcDbEntity
  8
0
 48
50.0
100
AcDbBlockEnd
  0
BLOCK
  5
21915
330
2190B
100
AcDbEntity
  8
0
 48
50.0
100
AcDbBlockBegin
  2
*D25
 70
     1
 10
0.0
 20
0.0
 30
0.0
  3
*D25
  1

  0
LINE
  5
21D58
330
2190B
100
AcDbEntity
  8
寸法
 62
     0
 48
50.0
370
    -2
100
AcDbLine
 10
7323.6
 20
8069.029266579432
 30
0.0
 11
7323.6
 21
9126.5505724862
 31
0.0
  0
LINE
  5
21D59
330
2190B
100
AcDbEntity
  8
寸法
 62
     0
 48
50.0
370
    -2
100
AcDbLine
 10
9123.600000000001
 20
8069.029266579432
 30
0.0
 11
9123.600000000001
 21
9126.5505724862
 31
0.0
  0
LINE
  5
21D5A
330
2190B
100
AcDbEntity
  8
寸法
 62
     0
 48
50.0
370
    -2
100
AcDbLine
 10
7323.6
 20
9066.5505724862
 30
0.0
 11
9123.600000000001
 21
9066.5505724862
 31
0.0
  0
INSERT
  5
21D5B
330
2190B
100
AcDbEntity
  8
寸法
 62
     0
 48
50.0
370
    -2
100
AcDbBlockReference
  2
_DOTSMALL
 10
7323.6
 20
9066.5505724862
 30
0.0
 41
100.0
 42
100.0
 43
100.0
 50
180.0
  0
INSERT
  5
21D5C
330
2190B
100
AcDbEntity
  8
寸法
 62
     0
 48
50.0
370
    -2
100
AcDbBlockReference
  2
_DOTSMALL
 10
9123.600000000001
 20
9066.5505724862
 30
0.0
 41
100.0
 42
100.0
 43
100.0
  0
MTEXT
  5
21D5D
330
2190B
100
AcDbEntity
  8
寸法
 62
     7
 48
50.0
100
AcDbMText
 10
8223.600000000001
 20
9166.550572486199
 30
0.0
 40
120.0
 41
0.0
 71
     5
 72
     1
  1
\A1;1800
  7
STYLE1
 73
     1
 44
1.0
1001
ACAD
1000
MTEXTBEGIN
1070
    73
1070
     1
1070
    44
1040
1.0
1070
    74
1070
     0
1000
MTEXTEND
  0
POINT
  5
21D5E
330
2190B
100
AcDbEntity
  8
DEFPOINTS
 62
     0
 48
50.0
100
AcDbPoint
 10
7323.6
 20
8049.029266579433
 30
0.0
  0
POINT
  5
21D5F
330
2190B
100
AcDbEntity
  8
DEFPOINTS
 62
     0
 48
50.0
100
AcDbPoint
 10
9123.600000000001
 20
8049.029266579433
 30
0.0
  0
POINT
  5
21D60
330
2190B
100
AcDbEntity
  8
DEFPOINTS
 62
     0
 48
50.0
100
AcDbPoint
 10
9123.600000000001
 20
9066.5505724862
 30
0.0
  0
ENDBLK
  5
21916
330
2190B
100
AcDbEntity
  8
0
 48
50.0
100
AcDbBlockEnd
  0
BLOCK
  5
21922
330
21917
100
AcDbEntity
  8
0
 48
50.0
100
AcDbBlockBegin
  2
*D26
 70
     1
 10
0.0
 20
0.0
 30
0.0
  3
*D26
  1

  0
LINE
  5
21D4E
330
21917
100
AcDbEntity
  8
寸法
 62
     0
 48
50.0
370
    -2
100
AcDbLine
 10
7446.6
 20
7996.029266579433
 30
0.0
 11
7446.6
 21
8914.089876969363
 31
0.0
  0
LINE
  5
21D4F
330
21917
100
AcDbEntity
  8
寸法
 62
     0
 48
50.0
370
    -2
100
AcDbLine
 10
7323.6
 20
8069.029266579432
 30
0.0
 11
7323.6
 21
8914.089876969363
 31
0.0
  0
LINE
  5
21D50
330
21917
100
AcDbEntity
  8
寸法
 62
     0
 48
50.0
370
    -2
100
AcDbLine
 10
7446.6
 20
8854.089876969363
 30
0.0
 11
7323.6
 21
8854.089876969363
 31
0.0
  0
LINE
  5
21D51
330
21917
100
AcDbEntity
  8
寸法
 62
     0
 48
50.0
370
    -2
100
AcDbLine
 10
7323.6
 20
8854.089876969363
 30
0.0
 11
6946.629437251523
 21
8854.089876969363
 31
0.0
  0
INSERT
  5
21D52
330
21917
100
AcDbEntity
  8
寸法
 62
     0
 48
50.0
370
    -2
100
AcDbBlockReference
  2
_DOTSMALL
 10
7446.6
 20
8854.089876969363
 30
0.0
 41
100.0
 42
100.0
 43
100.0
  0
INSERT
  5
21D53
330
21917
100
AcDbEntity
  8
寸法
 62
     0
 48
50.0
370
    -2
100
AcDbBlockReference
  2
_DOTSMALL
 10
7323.6
 20
8854.089876969363
 30
0.0
 41
100.0
 42
100.0
 43
100.0
 50
180.0
  0
MTEXT
  5
21D54
330
21917
100
AcDbEntity
  8
寸法
 62
     7
 48
50.0
100
AcDbMText
 10
7085.114718625762
 20
8954.101687992986
 30
0.0
 40
120.0
 41
0.0
 71
     5
 72
     1
  1
\A1;123
  7
STYLE1
 73
     1
 44
1.0
1001
ACAD
1000
MTEXTBEGIN
1070
    73
1070
     1
1070
    44
1040
1.0
1070
    74
1070
     0
1000
MTEXTEND
  0
POINT
  5
21D55
330
21917
100
AcDbEntity
  8
DEFPOINTS
 62
     0
 48
50.0
100
AcDbPoint
 10
7446.6
 20
7976.029266579434
 30
0.0
  0
POINT
  5
21D56
330
21917
100
AcDbEntity
  8
DEFPOINTS
 62
     0
 48
50.0
100
AcDbPoint
 10
7323.6
 20
8049.029266579433
 30
0.0
  0
POINT
  5
21D57
330
21917
100
AcDbEntity
  8
DEFPOINTS
 62
     0
 48
50.0
100
AcDbPoint
 10
7323.6
 20
8854.089876969363
 30
0.0
  0
ENDBLK
  5
21923
330
21917
100
AcDbEntity
  8
0
 48
50.0
100
AcDbBlockEnd
  0
BLOCK
  5
2192E
330
21924
100
AcDbEntity
  8
0
 48
50.0
100
AcDbBlockBegin
  2
*D27
 70
     1
 10
0.0
 20
0.0
 30
0.0
  3
*D27
  1

  0
LINE
  5
21D45
330
21924
100
AcDbEntity
  8
寸法
 62
     0
 48
50.0
370
    -2
100
AcDbLine
 10
7376.6
 20
7926.029266579433
 30
0.0
 11
6467.657733986179
 21
7926.029266579433
 31
0.0
  0
LINE
  5
21D46
330
21924
100
AcDbEntity
  8
寸法
 62
     0
 48
50.0
370
    -2
100
AcDbLine
 10
7376.600000000007
 20
5952.029266579435
 30
0.0
 11
6467.657733986179
 21
5952.029266579435
 31
0.0
  0
LINE
  5
21D47
330
21924
100
AcDbEntity
  8
寸法
 62
     0
 48
50.0
370
    -2
100
AcDbLine
 10
6527.65773398618
 20
7926.029266579433
 30
0.0
 11
6527.657733986178
 21
5952.029266579435
 31
0.0
  0
INSERT
  5
21D48
330
21924
100
AcDbEntity
  8
寸法
 62
     0
 48
50.0
370
    -2
100
AcDbBlockReference
  2
_DOTSMALL
 10
6527.65773398618
 20
7926.029266579433
 30
0.0
 41
100.0
 42
100.0
 43
100.0
 50
90.0
  0
INSERT
  5
21D49
330
21924
100
AcDbEntity
  8
寸法
 62
     0
 48
50.0
370
    -2
100
AcDbBlockReference
  2
_DOTSMALL
 10
6527.657733986178
 20
5952.029266579435
 30
0.0
 41
100.0
 42
100.0
 43
100.0
 50
270.0
  0
MTEXT
  5
21D4A
330
21924
100
AcDbEntity
  8
寸法
 62
     7
 48
50.0
100
AcDbMText
 10
6427.657733986177
 20
6993.595936236149
 30
0.0
 40
120.0
 41
0.0
 71
     5
 72
     1
  1
\A1;1974
  7
STYLE1
 11
0.0000000000000001
 21
1.0
 31
0.0
 73
     1
 44
1.0
1001
ACAD
1000
MTEXTBEGIN
1070
    73
1070
     1
1070
    44
1040
1.0
1070
    74
1070
     0
1000
MTEXTEND
  0
POINT
  5
21D4B
330
21924
100
AcDbEntity
  8
DEFPOINTS
 62
     0
 48
50.0
100
AcDbPoint
 10
7396.600000000001
 20
7926.029266579433
 30
0.0
  0
POINT
  5
21D4C
330
21924
100
AcDbEntity
  8
DEFPOINTS
 62
     0
 48
50.0
100
AcDbPoint
 10
7396.600000000008
 20
5952.029266579435
 30
0.0
  0
POINT
  5
21D4D
330
21924
100
AcDbEntity
  8
DEFPOINTS
 62
     0
 48
50.0
100
AcDbPoint
 10
6527.657733986178
 20
5952.029266579435
 30
0.0
  0
ENDBLK
  5
2192F
330
21924
100
AcDbEntity
  8
0
 48
50.0
100
AcDbBlockEnd
  0
BLOCK
  5
2193A
330
21930
100
AcDbEntity
  8
0
 48
50.0
100
AcDbBlockBegin
  2
*D28
 70
     1
 10
0.0
 20
0.0
 30
0.0
  3
*D28
  1

  0
LINE
  5
21D3C
330
21930
100
AcDbEntity
  8
寸法
 62
     0
 48
50.0
370
    -2
100
AcDbLine
 10
7303.6
 20
8049.029266579433
 30
0.0
 11
6222.164931848214
 21
8049.029266579433
 31
0.0
  0
LINE
  5
21D3D
330
21930
100
AcDbEntity
  8
寸法
 62
     0
 48
50.0
370
    -2
100
AcDbLine
 10
7303.6
 20
5829.029266579433
 30
0.0
 11
6222.164931848213
 21
5829.029266579433
 31
0.0
  0
LINE
  5
21D3E
330
21930
100
AcDbEntity
  8
寸法
 62
     0
 48
50.0
370
    -2
100
AcDbLine
 10
6282.164931848214
 20
8049.029266579433
 30
0.0
 11
6282.164931848213
 21
5829.029266579433
 31
0.0
  0
INSERT
  5
21D3F
330
21930
100
AcDbEntity
  8
寸法
 62
     0
 48
50.0
370
    -2
100
AcDbBlockReference
  2
_DOTSMALL
 10
6282.164931848214
 20
8049.029266579433
 30
0.0
 41
100.0
 42
100.0
 43
100.0
 50
90.0
  0
INSERT
  5
21D40
330
21930
100
AcDbEntity
  8
寸法
 62
     0
 48
50.0
370
    -2
100
AcDbBlockReference
  2
_DOTSMALL
 10
6282.164931848213
 20
5829.029266579433
 30
0.0
 41
100.0
 42
100.0
 43
100.0
 50
270.0
  0
MTEXT
  5
21D41
330
21930
100
AcDbEntity
  8
寸法
 62
     7
 48
50.0
100
AcDbMText
 10
6182.15312082459
 20
6993.595936236149
 30
0.0
 40
120.0
 41
0.0
 71
     5
 72
     1
  1
\A1;2220
  7
STYLE1
 11
0.0000000000000001
 21
1.0
 31
0.0
 73
     1
 44
1.0
1001
ACAD
1000
MTEXTBEGIN
1070
    73
1070
     1
1070
    44
1040
1.0
1070
    74
1070
     0
1000
MTEXTEND
  0
POINT
  5
21D42
330
21930
100
AcDbEntity
  8
DEFPOINTS
 62
     0
 48
50.0
100
AcDbPoint
 10
7323.6
 20
8049.029266579433
 30
0.0
  0
POINT
  5
21D43
330
21930
100
AcDbEntity
  8
DEFPOINTS
 62
     0
 48
50.0
100
AcDbPoint
 10
7323.6
 20
5829.029266579433
 30
0.0
  0
POINT
  5
21D44
330
21930
100
AcDbEntity
  8
DEFPOINTS
 62
     0
 48
50.0
100
AcDbPoint
 10
6282.164931848213
 20
5829.029266579433
 30
0.0
  0
ENDBLK
  5
2193B
330
21930
100
AcDbEntity
  8
0
 48
50.0
100
AcDbBlockEnd
  0
BLOCK
  5
21947
330
2193C
100
AcDbEntity
  8
0
 48
50.0
100
AcDbBlockBegin
  2
*D29
 70
     1
 10
0.0
 20
0.0
 30
0.0
  3
*D29
  1

  0
LINE
  5
21D32
330
2193C
100
AcDbEntity
  8
寸法
 62
     0
 48
50.0
370
    -2
100
AcDbLine
 10
7376.600000000007
 20
5952.029266579435
 30
0.0
 11
6467.657733986179
 21
5952.029266579435
 31
0.0
  0
LINE
  5
21D33
330
2193C
100
AcDbEntity
  8
寸法
 62
     0
 48
50.0
370
    -2
100
AcDbLine
 10
7303.6
 20
5829.029266579433
 30
0.0
 11
6467.657733986179
 21
5829.029266579433
 31
0.0
  0
LINE
  5
21D34
330
2193C
100
AcDbEntity
  8
寸法
 62
     0
 48
50.0
370
    -2
100
AcDbLine
 10
6527.657733986178
 20
5952.029266579435
 30
0.0
 11
6527.657733986178
 21
5829.029266579433
 31
0.0
  0
LINE
  5
21D35
330
2193C
100
AcDbEntity
  8
寸法
 62
     0
 48
50.0
370
    -2
100
AcDbLine
 10
6527.657733986178
 20
5829.029266579433
 30
0.0
 11
6527.657733986178
 21
5452.058703830954
 31
0.0
  0
INSERT
  5
21D36
330
2193C
100
AcDbEntity
  8
寸法
 62
     0
 48
50.0
370
    -2
100
AcDbBlockReference
  2
_DOTSMALL
 10
6527.657733986178
 20
5952.029266579435
 30
0.0
 41
100.0
 42
100.0
 43
100.0
 50
90.0
  0
INSERT
  5
21D37
330
2193C
100
AcDbEntity
  8
寸法
 62
     0
 48
50.0
370
    -2
100
AcDbBlockReference
  2
_DOTSMALL
 10
6527.657733986178
 20
5829.029266579433
 30
0.0
 41
100.0
 42
100.0
 43
100.0
 50
270.0
  0
MTEXT
  5
21D38
330
2193C
100
AcDbEntity
  8
寸法
 62
     7
 48
50.0
100
AcDbMText
 10
6427.645922962556
 20
5590.543985205195
 30
0.0
 40
120.0
 41
0.0
 71
     5
 72
     1
  1
\A1;123
  7
STYLE1
 11
0.0000000000000001
 21
1.0
 31
0.0
 73
     1
 44
1.0
1001
ACAD
1000
MTEXTBEGIN
1070
    73
1070
     1
1070
    44
1040
1.0
1070
    74
1070
     0
1000
MTEXTEND
  0
POINT
  5
21D39
330
2193C
100
AcDbEntity
  8
DEFPOINTS
 62
     0
 48
50.0
100
AcDbPoint
 10
7396.600000000008
 20
5952.029266579435
 30
0.0
  0
POINT
  5
21D3A
330
2193C
100
AcDbEntity
  8
DEFPOINTS
 62
     0
 48
50.0
100
AcDbPoint
 10
7323.6
 20
5829.029266579433
 30
0.0
  0
POINT
  5
21D3B
330
2193C
100
AcDbEntity
  8
DEFPOINTS
 62
     0
 48
50.0
100
AcDbPoint
 10
6527.657733986178
 20
5829.029266579433
 30
0.0
  0
ENDBLK
  5
21948
330
2193C
100
AcDbEntity
  8
0
 48
50.0
100
AcDbBlockEnd
  0
BLOCK
  5
21954
330
21949
100
AcDbEntity
  8
0
 48
50.0
100
AcDbBlockBegin
  2
*D30
 70
     1
 10
0.0
 20
0.0
 30
0.0
  3
*D30
  1

  0
LINE
  5
21D28
330
21949
100
AcDbEntity
  8
寸法
 62
     0
 48
50.0
370
    -2
100
AcDbLine
 10
7303.6
 20
8049.029266579433
 30
0.0
 11
6467.657733986179
 21
8049.029266579433
 31
0.0
  0
LINE
  5
21D29
330
21949
100
AcDbEntity
  8
寸法
 62
     0
 48
50.0
370
    -2
100
AcDbLine
 10
7376.6
 20
7926.029266579433
 30
0.0
 11
6467.657733986179
 21
7926.029266579433
 31
0.0
  0
LINE
  5
21D2A
330
21949
100
AcDbEntity
  8
寸法
 62
     0
 48
50.0
370
    -2
100
AcDbLine
 10
6527.657733986178
 20
7926.029266579433
 30
0.0
 11
6527.657733986178
 21
8049.029266579433
 31
0.0
  0
LINE
  5
21D2B
330
21949
100
AcDbEntity
  8
寸法
 62
     0
 48
50.0
370
    -2
100
AcDbLine
 10
6527.657733986178
 20
8049.029266579433
 30
0.0
 11
6527.657733986178
 21
8425.999829327912
 31
0.0
  0
INSERT
  5
21D2C
330
21949
100
AcDbEntity
  8
寸法
 62
     0
 48
50.0
370
    -2
100
AcDbBlockReference
  2
_DOTSMALL
 10
6527.657733986178
 20
7926.029266579433
 30
0.0
 41
100.0
 42
100.0
 43
100.0
 50
270.0
  0
INSERT
  5
21D2D
330
21949
100
AcDbEntity
  8
寸法
 62
     0
 48
50.0
370
    -2
100
AcDbBlockReference
  2
_DOTSMALL
 10
6527.657733986178
 20
8049.029266579433
 30
0.0
 41
100.0
 42
100.0
 43
100.0
 50
90.0
  0
MTEXT
  5
21D2E
330
21949
100
AcDbEntity
  8
寸法
 62
     7
 48
50.0
100
AcDbMText
 10
6427.645922962556
 20
8287.514547953675
 30
0.0
 40
120.0
 41
0.0
 71
     5
 72
     1
  1
\A1;123
  7
STYLE1
 11
0.0000000000000001
 21
1.0
 31
0.0
 73
     1
 44
1.0
1001
ACAD
1000
MTEXTBEGIN
1070
    73
1070
     1
1070
    44
1040
1.0
1070
    74
1070
     0
1000
MTEXTEND
  0
POINT
  5
21D2F
330
21949
100
AcDbEntity
  8
DEFPOINTS
 62
     0
 48
50.0
100
AcDbPoint
 10
7323.6
 20
8049.029266579433
 30
0.0
  0
POINT
  5
21D30
330
21949
100
AcDbEntity
  8
DEFPOINTS
 62
     0
 48
50.0
100
AcDbPoint
 10
7396.600000000001
 20
7926.029266579433
 30
0.0
  0
POINT
  5
21D31
330
21949
100
AcDbEntity
  8
DEFPOINTS
 62
     0
 48
50.0
100
AcDbPoint
 10
6527.657733986178
 20
7926.029266579433
 30
0.0
  0
ENDBLK
  5
21955
330
21949
100
AcDbEntity
  8
0
 48
50.0
100
AcDbBlockEnd
  0
BLOCK
  5
21961
330
21956
100
AcDbEntity
  8
0
 48
50.0
100
AcDbBlockBegin
  2
*D31
 70
     1
 10
0.0
 20
0.0
 30
0.0
  3
*D31
  1

  0
LINE
  5
21D1E
330
21956
100
AcDbEntity
  8
寸法
 62
     0
 48
50.0
370
    -2
100
AcDbLine
 10
9123.600000000001
 20
8069.029266579432
 30
0.0
 11
9123.600000000001
 21
8914.089876969363
 31
0.0
  0
LINE
  5
21D1F
330
21956
100
AcDbEntity
  8
寸法
 62
     0
 48
50.0
370
    -2
100
AcDbLine
 10
9000.6
 20
7996.029266579433
 30
0.0
 11
9000.6
 21
8914.089876969363
 31
0.0
  0
LINE
  5
21D20
330
21956
100
AcDbEntity
  8
寸法
 62
     0
 48
50.0
370
    -2
100
AcDbLine
 10
9000.6
 20
8854.089876969363
 30
0.0
 11
9123.600000000001
 21
8854.089876969363
 31
0.0
  0
LINE
  5
21D21
330
21956
100
AcDbEntity
  8
寸法
 62
     0
 48
50.0
370
    -2
100
AcDbLine
 10
9123.600000000001
 20
8854.089876969363
 30
0.0
 11
9500.570562748476
 21
8854.089876969363
 31
0.0
  0
INSERT
  5
21D22
330
21956
100
AcDbEntity
  8
寸法
 62
     0
 48
50.0
370
    -2
100
AcDbBlockReference
  2
_DOTSMALL
 10
9000.6
 20
8854.089876969363
 30
0.0
 41
100.0
 42
100.0
 43
100.0
 50
180.0
  0
INSERT
  5
21D23
330
21956
100
AcDbEntity
  8
寸法
 62
     0
 48
50.0
370
    -2
100
AcDbBlockReference
  2
_DOTSMALL
 10
9123.600000000001
 20
8854.089876969363
 30
0.0
 41
100.0
 42
100.0
 43
100.0
  0
MTEXT
  5
21D24
330
21956
100
AcDbEntity
  8
寸法
 62
     7
 48
50.0
100
AcDbMText
 10
9362.085281374239
 20
8954.101687992986
 30
0.0
 40
120.0
 41
0.0
 71
     5
 72
     1
  1
\A1;123
  7
STYLE1
 73
     1
 44
1.0
1001
ACAD
1000
MTEXTBEGIN
1070
    73
1070
     1
1070
    44
1040
1.0
1070
    74
1070
     0
1000
MTEXTEND
  0
POINT
  5
21D25
330
21956
100
AcDbEntity
  8
DEFPOINTS
 62
     0
 48
50.0
100
AcDbPoint
 10
9123.600000000001
 20
8049.029266579433
 30
0.0
  0
POINT
  5
21D26
330
21956
100
AcDbEntity
  8
DEFPOINTS
 62
     0
 48
50.0
100
AcDbPoint
 10
9000.6
 20
7976.029266579434
 30
0.0
  0
POINT
  5
21D27
330
21956
100
AcDbEntity
  8
DEFPOINTS
 62
     0
 48
50.0
100
AcDbPoint
 10
9000.6
 20
8854.089876969363
 30
0.0
  0
ENDBLK
  5
21962
330
21956
100
AcDbEntity
  8
0
 48
50.0
100
AcDbBlockEnd
  0
BLOCK
  5
2196D
330
21963
100
AcDbEntity
  8
0
 48
50.0
100
AcDbBlockBegin
  2
*D32
 70
     1
 10
0.0
 20
0.0
 30
0.0
  3
*D32
  1

  0
LINE
  5
21D15
330
21963
100
AcDbEntity
  8
寸法
 62
     0
 48
50.0
370
    -2
100
AcDbLine
 10
7323.6
 20
8069.029266579432
 30
0.0
 11
7323.6
 21
8687.318296470115
 31
0.0
  0
LINE
  5
21D16
330
21963
100
AcDbEntity
  8
寸法
 62
     0
 48
50.0
370
    -2
100
AcDbLine
 10
8223.600000000001
 20
7405.029266579433
 30
0.0
 11
8223.600000000001
 21
8687.318296470115
 31
0.0
  0
LINE
  5
21D17
330
21963
100
AcDbEntity
  8
寸法
 62
     0
 48
50.0
370
    -2
100
AcDbLine
 10
7323.6
 20
8627.318296470113
 30
0.0
 11
8223.600000000001
 21
8627.318296470113
 31
0.0
  0
INSERT
  5
21D18
330
21963
100
AcDbEntity
  8
寸法
 62
     0
 48
50.0
370
    -2
100
AcDbBlockReference
  2
_DOTSMALL
 10
7323.6
 20
8627.318296470113
 30
0.0
 41
100.0
 42
100.0
 43
100.0
 50
180.0
  0
INSERT
  5
21D19
330
21963
100
AcDbEntity
  8
寸法
 62
     0
 48
50.0
370
    -2
100
AcDbBlockReference
  2
_DOTSMALL
 10
8223.600000000001
 20
8627.318296470113
 30
0.0
 41
100.0
 42
100.0
 43
100.0
  0
MTEXT
  5
21D1A
330
21963
100
AcDbEntity
  8
寸法
 62
     7
 48
50.0
100
AcDbMText
 10
7773.6
 20
8727.318296470114
 30
0.0
 40
120.0
 41
0.0
 71
     5
 72
     1
  1
\A1;900
  7
STYLE1
 73
     1
 44
1.0
1001
ACAD
1000
MTEXTBEGIN
1070
    73
1070
     1
1070
    44
1040
1.0
1070
    74
1070
     0
1000
MTEXTEND
  0
POINT
  5
21D1B
330
21963
100
AcDbEntity
  8
DEFPOINTS
 62
     0
 48
50.0
100
AcDbPoint
 10
7323.6
 20
8049.029266579433
 30
0.0
  0
POINT
  5
21D1C
330
21963
100
AcDbEntity
  8
DEFPOINTS
 62
     0
 48
50.0
100
AcDbPoint
 10
8223.600000000001
 20
7385.029266579433
 30
0.0
  0
POINT
  5
21D1D
330
21963
100
AcDbEntity
  8
DEFPOINTS
 62
     0
 48
50.0
100
AcDbPoint
 10
8223.600000000001
 20
8627.318296470113
 30
0.0
  0
ENDBLK
  5
2196E
330
21963
100
AcDbEntity
  8
0
 48
50.0
100
AcDbBlockEnd
  0
BLOCK
  5
21979
330
2196F
100
AcDbEntity
  8
0
 48
50.0
100
AcDbBlockBegin
  2
*D33
 70
     1
 10
0.0
 20
0.0
 30
0.0
  3
*D33
  1

  0
LINE
  5
21D0C
330
2196F
100
AcDbEntity
  8
寸法
 62
     0
 48
50.0
370
    -2
100
AcDbLine
 10
8223.600000000001
 20
7405.029266579433
 30
0.0
 11
8223.600000000001
 21
8687.318296470115
 31
0.0
  0
LINE
  5
21D0D
330
2196F
100
AcDbEntity
  8
寸法
 62
     0
 48
50.0
370
    -2
100
AcDbLine
 10
9123.600000000001
 20
8069.029266579432
 30
0.0
 11
9123.600000000001
 21
8687.318296470115
 31
0.0
  0
LINE
  5
21D0E
330
2196F
100
AcDbEntity
  8
寸法
 62
     0
 48
50.0
370
    -2
100
AcDbLine
 10
8223.600000000001
 20
8627.318296470113
 30
0.0
 11
9123.600000000001
 21
8627.318296470113
 31
0.0
  0
INSERT
  5
21D0F
330
2196F
100
AcDbEntity
  8
寸法
 62
     0
 48
50.0
370
    -2
100
AcDbBlockReference
  2
_DOTSMALL
 10
8223.600000000001
 20
8627.318296470113
 30
0.0
 41
100.0
 42
100.0
 43
100.0
 50
180.0
  0
INSERT
  5
21D10
330
2196F
100
AcDbEntity
  8
寸法
 62
     0
 48
50.0
370
    -2
100
AcDbBlockReference
  2
_DOTSMALL
 10
9123.600000000001
 20
8627.318296470113
 30
0.0
 41
100.0
 42
100.0
 43
100.0
  0
MTEXT
  5
21D11
330
2196F
100
AcDbEntity
  8
寸法
 62
     7
 48
50.0
100
AcDbMText
 10
8673.6
 20
8727.318296470114
 30
0.0
 40
120.0
 41
0.0
 71
     5
 72
     1
  1
\A1;900
  7
STYLE1
 73
     1
 44
1.0
1001
ACAD
1000
MTEXTBEGIN
1070
    73
1070
     1
1070
    44
1040
1.0
1070
    74
1070
     0
1000
MTEXTEND
  0
POINT
  5
21D12
330
2196F
100
AcDbEntity
  8
DEFPOINTS
 62
     0
 48
50.0
100
AcDbPoint
 10
8223.600000000001
 20
7385.029266579433
 30
0.0
  0
POINT
  5
21D13
330
2196F
100
AcDbEntity
  8
DEFPOINTS
 62
     0
 48
50.0
100
AcDbPoint
 10
9123.600000000001
 20
8049.029266579433
 30
0.0
  0
POINT
  5
21D14
330
2196F
100
AcDbEntity
  8
DEFPOINTS
 62
     0
 48
50.0
100
AcDbPoint
 10
9123.600000000001
 20
8627.318296470113
 30
0.0
  0
ENDBLK
  5
2197A
330
2196F
100
AcDbEntity
  8
0
 48
50.0
100
AcDbBlockEnd
  0
BLOCK
  5
21987
330
2197B
100
AcDbEntity
  8
0
 48
50.0
100
AcDbBlockBegin
  2
*D34
 70
     1
 10
0.0
 20
0.0
 30
0.0
  3
*D34
  1

  0
LINE
  5
21D01
330
2197B
100
AcDbEntity
  8
寸法
 62
     0
 48
50.0
370
    -2
100
AcDbLine
 10
6507.65773398618
 20
8104.029266579422
 30
0.0
 11
6222.164931848211
 21
8104.029266579422
 31
0.0
  0
LINE
  5
21D02
330
2197B
100
AcDbEntity
  8
寸法
 62
     0
 48
50.0
370
    -2
100
AcDbLine
 10
6474.625627365049
 20
8049.029266579436
 30
0.0
 11
6222.164931848211
 21
8049.029266579436
 31
0.0
  0
LINE
  5
21D03
330
2197B
100
AcDbEntity
  8
寸法
 62
     0
 48
50.0
370
    -2
100
AcDbLine
 10
6282.16493184821
 20
8104.029266579422
 30
0.0
 11
6282.16493184821
 21
8204.029266579423
 31
0.0
  0
LINE
  5
21D04
330
2197B
100
AcDbEntity
  8
寸法
 62
     0
 48
50.0
370
    -2
100
AcDbLine
 10
6282.16493184821
 20
8049.029266579436
 30
0.0
 11
6282.16493184821
 21
7949.029266579436
 31
0.0
  0
LINE
  5
21D05
330
2197B
100
AcDbEntity
  8
寸法
 62
     0
 48
50.0
370
    -2
100
AcDbLine
 10
6282.16493184821
 20
8104.029266579422
 30
0.0
 11
6282.16493184821
 21
8049.029266579436
 31
0.0
  0
INSERT
  5
21D06
330
2197B
100
AcDbEntity
  8
寸法
 62
     0
 48
50.0
370
    -2
100
AcDbBlockReference
  2
_DOTSMALL
 10
6282.16493184821
 20
8104.029266579422
 30
0.0
 41
100.0
 42
100.0
 43
100.0
 50
270.0
  0
INSERT
  5
21D07
330
2197B
100
AcDbEntity
  8
寸法
 62
     0
 48
50.0
370
    -2
100
AcDbBlockReference
  2
_DOTSMALL
 10
6282.16493184821
 20
8049.029266579436
 30
0.0
 41
100.0
 42
100.0
 43
100.0
 50
90.0
  0
MTEXT
  5
21D08
330
2197B
100
AcDbEntity
  8
寸法
 62
     7
 48
50.0
100
AcDbMText
 10
6182.164931848209
 20
8076.529266579431
 30
0.0
 40
120.0
 41
0.0
 71
     5
 72
     1
  1
\A1;b
  7
STYLE1
 11
0.0000000000000001
 21
1.0
 31
0.0
 73
     1
 44
1.0
1001
ACAD
1000
MTEXTBEGIN
1070
    73
1070
     1
1070
    44
1040
1.0
1070
    74
1070
     0
1000
MTEXTEND
  0
POINT
  5
21D09
330
2197B
100
AcDbEntity
  8
DEFPOINTS
 62
     0
 48
50.0
100
AcDbPoint
 10
6527.65773398618
 20
8104.029266579422
 30
0.0
  0
POINT
  5
21D0A
330
2197B
100
AcDbEntity
  8
DEFPOINTS
 62
     0
 48
50.0
100
AcDbPoint
 10
6494.625627365049
 20
8049.029266579436
 30
0.0
  0
POINT
  5
21D0B
330
2197B
100
AcDbEntity
  8
DEFPOINTS
 62
     0
 48
50.0
100
AcDbPoint
 10
6282.16493184821
 20
8049.029266579436
 30
0.0
  0
ENDBLK
  5
21988
330
2197B
100
AcDbEntity
  8
0
 48
50.0
100
AcDbBlockEnd
  0
BLOCK
  5
21995
330
21989
100
AcDbEntity
  8
0
 48
50.0
100
AcDbBlockBegin
  2
*D35
 70
     1
 10
0.0
 20
0.0
 30
0.0
  3
*D35
  1

  0
LINE
  5
21CF6
330
21989
100
AcDbEntity
  8
寸法
 62
     0
 48
50.0
370
    -2
100
AcDbLine
 10
6474.625627365049
 20
5829.029266579434
 30
0.0
 11
6222.164931848212
 21
5829.029266579434
 31
0.0
  0
LINE
  5
21CF7
330
21989
100
AcDbEntity
  8
寸法
 62
     0
 48
50.0
370
    -2
100
AcDbLine
 10
6507.65773398618
 20
5754.029266579433
 30
0.0
 11
6222.164931848212
 21
5754.029266579433
 31
0.0
  0
LINE
  5
21CF8
330
21989
100
AcDbEntity
  8
寸法
 62
     0
 48
50.0
370
    -2
100
AcDbLine
 10
6282.164931848212
 20
5829.029266579434
 30
0.0
 11
6282.164931848212
 21
5929.029266579433
 31
0.0
  0
LINE
  5
21CF9
330
21989
100
AcDbEntity
  8
寸法
 62
     0
 48
50.0
370
    -2
100
AcDbLine
 10
6282.164931848212
 20
5754.029266579433
 30
0.0
 11
6282.164931848212
 21
5654.029266579432
 31
0.0
  0
LINE
  5
21CFA
330
21989
100
AcDbEntity
  8
寸法
 62
     0
 48
50.0
370
    -2
100
AcDbLine
 10
6282.164931848212
 20
5829.029266579434
 30
0.0
 11
6282.164931848212
 21
5754.029266579433
 31
0.0
  0
INSERT
  5
21CFB
330
21989
100
AcDbEntity
  8
寸法
 62
     0
 48
50.0
370
    -2
100
AcDbBlockReference
  2
_DOTSMALL
 10
6282.164931848212
 20
5829.029266579434
 30
0.0
 41
100.0
 42
100.0
 43
100.0
 50
270.0
  0
INSERT
  5
21CFC
330
21989
100
AcDbEntity
  8
寸法
 62
     0
 48
50.0
370
    -2
100
AcDbBlockReference
  2
_DOTSMALL
 10
6282.164931848212
 20
5754.029266579433
 30
0.0
 41
100.0
 42
100.0
 43
100.0
 50
90.0
  0
MTEXT
  5
21CFD
330
21989
100
AcDbEntity
  8
寸法
 62
     7
 48
50.0
100
AcDbMText
 10
6182.164931848212
 20
5791.529266579435
 30
0.0
 40
120.0
 41
0.0
 71
     5
 72
     1
  1
\A1;c
  7
STYLE1
 11
0.0000000000000001
 21
1.0
 31
0.0
 73
     1
 44
1.0
1001
ACAD
1000
MTEXTBEGIN
1070
    73
1070
     1
1070
    44
1040
1.0
1070
    74
1070
     0
1000
MTEXTEND
  0
POINT
  5
21CFE
330
21989
100
AcDbEntity
  8
DEFPOINTS
 62
     0
 48
50.0
100
AcDbPoint
 10
6494.625627365049
 20
5829.029266579434
 30
0.0
  0
POINT
  5
21CFF
330
21989
100
AcDbEntity
  8
DEFPOINTS
 62
     0
 48
50.0
100
AcDbPoint
 10
6527.65773398618
 20
5754.029266579433
 30
0.0
  0
POINT
  5
21D00
330
21989
100
AcDbEntity
  8
DEFPOINTS
 62
     0
 48
50.0
100
AcDbPoint
 10
6282.164931848212
 20
5754.029266579433
 30
0.0
  0
ENDBLK
  5
21996
330
21989
100
AcDbEntity
  8
0
 48
50.0
100
AcDbBlockEnd
  0
BLOCK
  5
219A3
330
21997
100
AcDbEntity
  8
0
 48
50.0
100
AcDbBlockBegin
  2
*D36
 70
     1
 10
0.0
 20
0.0
 30
0.0
  3
*D36
  1

  0
LINE
  5
2219D
330
21997
100
AcDbEntity
  8
寸法
 62
     0
 48
50.0
370
    -2
100
AcDbLine
 10
7303.6
 20
5754.02926657945
 30
0.0
 11
6969.276532889155
 21
5754.02926657945
 31
0.0
  0
LINE
  5
2219E
330
21997
100
AcDbEntity
  8
寸法
 62
     0
 48
50.0
370
    -2
100
AcDbLine
 10
7303.600000000035
 20
5829.029266579436
 30
0.0
 11
6969.276532889155
 21
5829.029266579436
 31
0.0
  0
LINE
  5
2219F
330
21997
100
AcDbEntity
  8
寸法
 62
     0
 48
50.0
370
    -2
100
AcDbLine
 10
7029.276532889156
 20
5829.029266579436
 30
0.0
 11
7029.276532889156
 21
5929.029266579436
 31
0.0
  0
LINE
  5
221A0
330
21997
100
AcDbEntity
  8
寸法
 62
     0
 48
50.0
370
    -2
100
AcDbLine
 10
7029.276532889156
 20
5754.02926657945
 30
0.0
 11
7029.276532889156
 21
4887.058703830958
 31
0.0
  0
LINE
  5
221A1
330
21997
100
AcDbEntity
  8
寸法
 62
     0
 48
50.0
370
    -2
100
AcDbLine
 10
7029.276532889156
 20
5829.029266579436
 30
0.0
 11
7029.276532889156
 21
5754.02926657945
 31
0.0
  0
INSERT
  5
221A2
330
21997
100
AcDbEntity
  8
寸法
 62
     0
 48
50.0
370
    -2
100
AcDbBlockReference
  2
_DOTSMALL
 10
7029.276532889156
 20
5829.029266579436
 30
0.0
 41
100.0
 42
100.0
 43
100.0
 50
270.0
  0
INSERT
  5
221A3
330
21997
100
AcDbEntity
  8
寸法
 62
     0
 48
50.0
370
    -2
100
AcDbBlockReference
  2
_DOTSMALL
 10
7029.276532889156
 20
5754.02926657945
 30
0.0
 41
100.0
 42
100.0
 43
100.0
 50
90.0
  0
MTEXT
  5
221A4
330
21997
100
AcDbEntity
  8
寸法
 62
     7
 48
50.0
100
AcDbMText
 10
6929.276532889154
 20
5220.543985205198
 30
0.0
 40
120.0
 41
0.0
 71
     5
 72
     1
  1
\A1;扉の出75
  7
STYLE1
 11
0.0000000000000001
 21
1.0
 31
0.0
 73
     1
 44
1.0
1001
ACAD
1000
MTEXTBEGIN
1070
    73
1070
     1
1070
    44
1040
1.0
1070
    74
1070
     0
1000
MTEXTEND
  0
POINT
  5
221A5
330
21997
100
AcDbEntity
  8
DEFPOINTS
 62
     0
 48
50.0
100
AcDbPoint
 10
7323.6
 20
5754.02926657945
 30
0.0
  0
POINT
  5
221A6
330
21997
100
AcDbEntity
  8
DEFPOINTS
 62
     0
 48
50.0
100
AcDbPoint
 10
7323.600000000034
 20
5829.029266579436
 30
0.0
  0
POINT
  5
221A7
330
21997
100
AcDbEntity
  8
DEFPOINTS
 62
     0
 48
50.0
100
AcDbPoint
 10
7029.276532889156
 20
5829.029266579436
 30
0.0
  0
ENDBLK
  5
219A4
330
21997
100
AcDbEntity
  8
0
 48
50.0
100
AcDbBlockEnd
  0
BLOCK
  5
219B0
330
219A5
100
AcDbEntity
  8
0
 48
50.0
100
AcDbBlockBegin
  2
*D37
 70
     1
 10
0.0
 20
0.0
 30
0.0
  3
*D37
  1

  0
LINE
  5
221ED
330
219A5
100
AcDbEntity
  8
寸法
 62
     0
 48
50.0
370
    -2
100
AcDbLine
 10
9003.600000000004
 20
7799.02926657943
 30
0.0
 11
9003.600000000004
 21
7588.227697092936
 31
0.0
  0
LINE
  5
221EE
330
219A5
100
AcDbEntity
  8
寸法
 62
     0
 48
50.0
370
    -2
100
AcDbLine
 10
8893.600000000001
 20
7799.029266579431
 30
0.0
 11
8893.600000000001
 21
7588.227697092936
 31
0.0
  0
LINE
  5
221EF
330
219A5
100
AcDbEntity
  8
寸法
 62
     0
 48
50.0
370
    -2
100
AcDbLine
 10
9003.600000000004
 20
7648.227697092936
 30
0.0
 11
8893.600000000001
 21
7648.227697092936
 31
0.0
  0
LINE
  5
221F0
330
219A5
100
AcDbEntity
  8
寸法
 62
     0
 48
50.0
370
    -2
100
AcDbLine
 10
8893.600000000001
 20
7648.227697092936
 30
0.0
 11
8533.505511811023
 21
7648.227697092936
 31
0.0
  0
INSERT
  5
221F1
330
219A5
100
AcDbEntity
  8
寸法
 62
     0
 48
50.0
370
    -2
100
AcDbBlockReference
  2
_DOTSMALL
 10
9003.600000000004
 20
7648.227697092936
 30
0.0
 41
100.0
 42
100.0
 43
100.0
  0
INSERT
  5
221F2
330
219A5
100
AcDbEntity
  8
寸法
 62
     0
 48
50.0
370
    -2
100
AcDbBlockReference
  2
_DOTSMALL
 10
8893.600000000001
 20
7648.227697092936
 30
0.0
 41
100.0
 42
100.0
 43
100.0
 50
180.0
  0
MTEXT
  5
221F3
330
219A5
100
AcDbEntity
  8
寸法
 62
     7
 48
50.0
100
AcDbMText
 10
8657.552755905511
 20
7748.227697092936
 30
0.0
 40
120.0
 41
0.0
 71
     5
 72
     1
  1
\A1;110
  7
STYLE1
 73
     1
 44
1.0
1001
ACAD
1000
MTEXTBEGIN
1070
    73
1070
     1
1070
    44
1040
1.0
1070
    74
1070
     0
1000
MTEXTEND
  0
POINT
  5
221F4
330
219A5
100
AcDbEntity
  8
DEFPOINTS
 62
     0
 48
50.0
100
AcDbPoint
 10
9003.600000000004
 20
7819.02926657943
 30
0.0
  0
POINT
  5
221F5
330
219A5
100
AcDbEntity
  8
DEFPOINTS
 62
     0
 48
50.0
100
AcDbPoint
 10
8893.600000000001
 20
7819.029266579431
 30
0.0
  0
POINT
  5
221F6
330
219A5
100
AcDbEntity
  8
DEFPOINTS
 62
     0
 48
50.0
100
AcDbPoint
 10
8893.600000000001
 20
7648.227697092936
 30
0.0
  0
ENDBLK
  5
219B1
330
219A5
100
AcDbEntity
  8
0
 48
50.0
100
AcDbBlockEnd
  0
BLOCK
  5
219BD
330
219B2
100
AcDbEntity
  8
0
 48
50.0
100
AcDbBlockBegin
  2
*D38
 70
     1
 10
0.0
 20
0.0
 30
0.0
  3
*D38
  1

  0
LINE
  5
221E3
330
219B2
100
AcDbEntity
  8
寸法
 62
     0
 48
50.0
370
    -2
100
AcDbLine
 10
9003.6
 20
7799.02926657943
 30
0.0
 11
9003.6
 21
7588.227697092936
 31
0.0
  0
LINE
  5
221E4
330
219B2
100
AcDbEntity
  8
寸法
 62
     0
 48
50.0
370
    -2
100
AcDbLine
 10
9123.600000000001
 20
7774.02926657943
 30
0.0
 11
9123.600000000001
 21
7588.227697092936
 31
0.0
  0
LINE
  5
221E5
330
219B2
100
AcDbEntity
  8
寸法
 62
     0
 48
50.0
370
    -2
100
AcDbLine
 10
9003.6
 20
7648.227697092936
 30
0.0
 11
9123.600000000001
 21
7648.227697092936
 31
0.0
  0
LINE
  5
221E6
330
219B2
100
AcDbEntity
  8
寸法
 62
     0
 48
50.0
370
    -2
100
AcDbLine
 10
9123.600000000001
 20
7648.227697092936
 30
0.0
 11
9537.730787367372
 21
7648.227697092936
 31
0.0
  0
INSERT
  5
221E7
330
219B2
100
AcDbEntity
  8
寸法
 62
     0
 48
50.0
370
    -2
100
AcDbBlockReference
  2
_DOTSMALL
 10
9003.6
 20
7648.227697092936
 30
0.0
 41
100.0
 42
100.0
 43
100.0
 50
180.0
  0
INSERT
  5
221E8
330
219B2
100
AcDbEntity
  8
寸法
 62
     0
 48
50.0
370
    -2
100
AcDbBlockReference
  2
_DOTSMALL
 10
9123.600000000001
 20
7648.227697092936
 30
0.0
 41
100.0
 42
100.0
 43
100.0
  0
MTEXT
  5
221E9
330
219B2
100
AcDbEntity
  8
寸法
 62
     7
 48
50.0
100
AcDbMText
 10
9401.683543272884
 20
7748.239508116558
 30
0.0
 40
120.0
 41
0.0
 71
     5
 72
     1
  1
\A1;120
  7
STYLE1
 73
     1
 44
1.0
1001
ACAD
1000
MTEXTBEGIN
1070
    73
1070
     1
1070
    44
1040
1.0
1070
    74
1070
     0
1000
MTEXTEND
  0
POINT
  5
221EA
330
219B2
100
AcDbEntity
  8
DEFPOINTS
 62
     0
 48
50.0
100
AcDbPoint
 10
9003.6
 20
7819.02926657943
 30
0.0
  0
POINT
  5
221EB
330
219B2
100
AcDbEntity
  8
DEFPOINTS
 62
     0
 48
50.0
100
AcDbPoint
 10
9123.600000000001
 20
7794.02926657943
 30
0.0
  0
POINT
  5
221EC
330
219B2
100
AcDbEntity
  8
DEFPOINTS
 62
     0
 48
50.0
100
AcDbPoint
 10
9123.600000000001
 20
7648.227697092936
 30
0.0
  0
ENDBLK
  5
219BE
330
219B2
100
AcDbEntity
  8
0
 48
50.0
100
AcDbBlockEnd
  0
BLOCK
  5
21F98
330
21F8D
100
AcDbEntity
  8
0
 48
50.0
100
AcDbBlockBegin
  2
*D39
 70
     1
 10
0.0
 20
0.0
 30
0.0
  3
*D39
  1

  0
LINE
  5
22201
330
21F8D
100
AcDbEntity
  8
寸法
 62
     0
 48
50.0
370
    -2
100
AcDbLine
 10
7573.6
 20
5754.029266579451
 30
0.0
 11
7842.938460046266
 21
5754.029266579451
 31
0.0
  0
LINE
  5
22202
330
21F8D
100
AcDbEntity
  8
寸法
 62
     0
 48
50.0
370
    -2
100
AcDbLine
 10
7573.600000000002
 20
5949.029266579421
 30
0.0
 11
7842.938460046266
 21
5949.029266579421
 31
0.0
  0
LINE
  5
22203
330
21F8D
100
AcDbEntity
  8
寸法
 62
     0
 48
50.0
370
    -2
100
AcDbLine
 10
7782.938460046266
 20
5949.029266579421
 30
0.0
 11
7782.938460046266
 21
5754.029266579451
 31
0.0
  0
LINE
  5
22204
330
21F8D
100
AcDbEntity
  8
寸法
 62
     0
 48
50.0
370
    -2
100
AcDbLine
 10
7782.938460046266
 20
5754.029266579451
 30
0.0
 11
7782.938460046266
 21
5376.63938417166
 31
0.0
  0
INSERT
  5
22205
330
21F8D
100
AcDbEntity
  8
寸法
 62
     0
 48
50.0
370
    -2
100
AcDbBlockReference
  2
_DOTSMALL
 10
7782.938460046266
 20
5949.029266579421
 30
0.0
 41
100.0
 42
100.0
 43
100.0
 50
90.0
  0
INSERT
  5
22206
330
21F8D
100
AcDbEntity
  8
寸法
 62
     0
 48
50.0
370
    -2
100
AcDbBlockReference
  2
_DOTSMALL
 10
7782.938460046266
 20
5754.029266579451
 30
0.0
 41
100.0
 42
100.0
 43
100.0
 50
270.0
  0
MTEXT
  5
22207
330
21F8D
100
AcDbEntity
  8
寸法
 62
     7
 48
50.0
100
AcDbMText
 10
7682.938460046265
 20
5515.334325375556
 30
0.0
 40
120.0
 41
0.0
 71
     5
 72
     1
  1
\A1;195
  7
STYLE1
 11
0.0000000000000001
 21
1.0
 31
0.0
 73
     1
 44
1.0
1001
ACAD
1000
MTEXTBEGIN
1070
    73
1070
     1
1070
    44
1040
1.0
1070
    74
1070
     0
1000
MTEXTEND
  0
POINT
  5
22208
330
21F8D
100
AcDbEntity
  8
DEFPOINTS
 62
     0
 48
50.0
100
AcDbPoint
 10
7553.6
 20
5754.029266579451
 30
0.0
  0
POINT
  5
22209
330
21F8D
100
AcDbEntity
  8
DEFPOINTS
 62
     0
 48
50.0
100
AcDbPoint
 10
7553.600000000002
 20
5949.029266579421
 30
0.0
  0
POINT
  5
2220A
330
21F8D
100
AcDbEntity
  8
DEFPOINTS
 62
     0
 48
50.0
100
AcDbPoint
 10
7782.938460046266
 20
5949.029266579421
 30
0.0
  0
ENDBLK
  5
21F99
330
21F8D
100
AcDbEntity
  8
0
 48
50.0
100
AcDbBlockEnd
  0
BLOCK
  5
21FA5
330
21F9A
100
AcDbEntity
  8
0
 48
50.0
100
AcDbBlockBegin
  2
*D40
 70
     1
 10
0.0
 20
0.0
 30
0.0
  3
*D40
  1

  0
LINE
  5
221F7
330
21F9A
100
AcDbEntity
  8
寸法
 62
     0
 48
50.0
370
    -2
100
AcDbLine
 10
7573.6
 20
5949.029266579437
 30
0.0
 11
7842.938460046266
 21
5949.029266579437
 31
0.0
  0
LINE
  5
221F8
330
21F9A
100
AcDbEntity
  8
寸法
 62
     0
 48
50.0
370
    -2
100
AcDbLine
 10
7573.600000000002
 20
6059.02926657945
 30
0.0
 11
7842.938460046266
 21
6059.02926657945
 31
0.0
  0
LINE
  5
221F9
330
21F9A
100
AcDbEntity
  8
寸法
 62
     0
 48
50.0
370
    -2
100
AcDbLine
 10
7782.938460046266
 20
5949.029266579437
 30
0.0
 11
7782.938460046266
 21
6059.02926657945
 31
0.0
  0
LINE
  5
221FA
330
21F9A
100
AcDbEntity
  8
寸法
 62
     0
 48
50.0
370
    -2
100
AcDbLine
 10
7782.938460046266
 20
6059.02926657945
 30
0.0
 11
7782.938460046266
 21
6419.123754768427
 31
0.0
  0
INSERT
  5
221FB
330
21F9A
100
AcDbEntity
  8
寸法
 62
     0
 48
50.0
370
    -2
100
AcDbBlockReference
  2
_DOTSMALL
 10
7782.938460046266
 20
5949.029266579437
 30
0.0
 41
100.0
 42
100.0
 43
100.0
 50
270.0
  0
INSERT
  5
221FC
330
21F9A
100
AcDbEntity
  8
寸法
 62
     0
 48
50.0
370
    -2
100
AcDbBlockReference
  2
_DOTSMALL
 10
7782.938460046266
 20
6059.02926657945
 30
0.0
 41
100.0
 42
100.0
 43
100.0
 50
90.0
  0
MTEXT
  5
221FD
330
21F9A
100
AcDbEntity
  8
寸法
 62
     7
 48
50.0
100
AcDbMText
 10
7682.938460046265
 20
6295.07651067394
 30
0.0
 40
120.0
 41
0.0
 71
     5
 72
     1
  1
\A1;110
  7
STYLE1
 11
0.0000000000000001
 21
1.0
 31
0.0
 73
     1
 44
1.0
1001
ACAD
1000
MTEXTBEGIN
1070
    73
1070
     1
1070
    44
1040
1.0
1070
    74
1070
     0
1000
MTEXTEND
  0
POINT
  5
221FE
330
21F9A
100
AcDbEntity
  8
DEFPOINTS
 62
     0
 48
50.0
100
AcDbPoint
 10
7553.6
 20
5949.029266579437
 30
0.0
  0
POINT
  5
221FF
330
21F9A
100
AcDbEntity
  8
DEFPOINTS
 62
     0
 48
50.0
100
AcDbPoint
 10
7553.600000000002
 20
6059.02926657945
 30
0.0
  0
POINT
  5
22200
330
21F9A
100
AcDbEntity
  8
DEFPOINTS
 62
     0
 48
50.0
100
AcDbPoint
 10
7782.938460046266
 20
6059.02926657945
 30
0.0
  0
ENDBLK
  5
21FA6
330
21F9A
100
AcDbEntity
  8
0
 48
50.0
100
AcDbBlockEnd
  0
BLOCK
  5
21FB1
330
21FA7
100
AcDbEntity
  8
0
 48
50.0
100
AcDbBlockBegin
  2
*D41
 70
     1
 10
0.0
 20
0.0
 30
0.0
  3
*D41
  1

  0
LINE
  5
2217F
330
21FA7
100
AcDbEntity
  8
寸法
 62
     0
 48
50.0
370
    -2
100
AcDbLine
 10
9123.599999999965
 20
5734.029266579458
 30
0.0
 11
9123.599999999965
 21
4979.164963155326
 31
0.0
  0
LINE
  5
22180
330
21FA7
100
AcDbEntity
  8
寸法
 62
     0
 48
50.0
370
    -2
100
AcDbLine
 10
7323.6
 20
5734.029266579436
 30
0.0
 11
7323.6
 21
4979.164963155326
 31
0.0
  0
LINE
  5
22181
330
21FA7
100
AcDbEntity
  8
寸法
 62
     0
 48
50.0
370
    -2
100
AcDbLine
 10
9123.599999999965
 20
5039.164963155325
 30
0.0
 11
7323.6
 21
5039.164963155325
 31
0.0
  0
INSERT
  5
22182
330
21FA7
100
AcDbEntity
  8
寸法
 62
     0
 48
50.0
370
    -2
100
AcDbBlockReference
  2
_DOTSMALL
 10
9123.599999999965
 20
5039.164963155325
 30
0.0
 41
100.0
 42
100.0
 43
100.0
  0
INSERT
  5
22183
330
21FA7
100
AcDbEntity
  8
寸法
 62
     0
 48
50.0
370
    -2
100
AcDbBlockReference
  2
_DOTSMALL
 10
7323.6
 20
5039.164963155325
 30
0.0
 41
100.0
 42
100.0
 43
100.0
 50
180.0
  0
MTEXT
  5
22184
330
21FA7
100
AcDbEntity
  8
寸法
 62
     7
 48
50.0
100
AcDbMText
 10
8223.599999999985
 20
5139.164963155326
 30
0.0
 40
120.0
 41
0.0
 71
     5
 72
     1
  1
\A1;扉の幅 1800
  7
STYLE1
 73
     1
 44
1.0
1001
ACAD
1000
MTEXTBEGIN
1070
    73
1070
     1
1070
    44
1040
1.0
1070
    74
1070
     0
1000
MTEXTEND
  0
POINT
  5
22185
330
21FA7
100
AcDbEntity
  8
DEFPOINTS
 62
     0
 48
50.0
100
AcDbPoint
 10
9123.599999999965
 20
5754.029266579458
 30
0.0
  0
POINT
  5
22186
330
21FA7
100
AcDbEntity
  8
DEFPOINTS
 62
     0
 48
50.0
100
AcDbPoint
 10
7323.6
 20
5754.029266579436
 30
0.0
  0
POINT
  5
22187
330
21FA7
100
AcDbEntity
  8
DEFPOINTS
 62
     0
 48
50.0
100
AcDbPoint
 10
7323.6
 20
5039.164963155325
 30
0.0
  0
ENDBLK
  5
21FB2
330
21FA7
100
AcDbEntity
  8
0
 48
50.0
100
AcDbBlockEnd
  0
BLOCK
  5
22821
330
22817
100
AcDbEntity
  8
0
 48
50.0
100
AcDbBlockBegin
  2
*D42
 70
     1
 10
0.0
 20
0.0
 30
0.0
  3
*D42
  1

  0
LINE
  5
22864
330
22817
100
AcDbEntity
  8
寸法
 62
     0
 48
50.0
370
    -2
100
AcDbLine
 10
6331.21951608377
 20
2131.533300576482
 30
0.0
 11
6331.21951608377
 21
2491.533300576483
 31
0.0
  0
LINE
  5
22865
330
22817
100
AcDbEntity
  8
寸法
 62
     0
 48
50.0
370
    -2
100
AcDbLine
 10
6139.21951608377
 20
2131.533300576482
 30
0.0
 11
6139.21951608377
 21
2491.533300576483
 31
0.0
  0
LINE
  5
22866
330
22817
100
AcDbEntity
  8
寸法
 62
     0
 48
50.0
370
    -2
100
AcDbLine
 10
6331.21951608377
 20
2431.533300576483
 30
0.0
 11
6139.21951608377
 21
2431.533300576483
 31
0.0
  0
MTEXT
  5
22867
330
22817
100
AcDbEntity
  8
寸法
 62
     7
 48
50.0
100
AcDbMText
 10
6246.445846428966
 20
2731.212919516485
 30
0.0
 40
120.0
 41
0.0
 71
     5
 72
     1
  1
\A1;120\P195
  7
STYLE1
 73
     1
 44
1.0
1001
ACAD
1000
MTEXTBEGIN
1070
    73
1070
     1
1070
    44
1040
1.0
1070
    74
1070
     0
1000
MTEXTEND
  0
INSERT
  5
22868
330
22817
100
AcDbEntity
  8
寸法
 62
     0
 48
50.0
370
    -2
100
AcDbBlockReference
  2
_DOTSMALL
 10
6331.21951608377
 20
2431.533300576483
 30
0.0
 41
100.0
 42
100.0
 43
100.0
  0
INSERT
  5
22869
330
22817
100
AcDbEntity
  8
寸法
 62
     0
 48
50.0
370
    -2
100
AcDbBlockReference
  2
_DOTSMALL
 10
6139.21951608377
 20
2431.533300576483
 30
0.0
 41
100.0
 42
100.0
 43
100.0
 50
180.0
  0
POINT
  5
2286A
330
22817
100
AcDbEntity
  8
DEFPOINTS
 62
     0
 48
50.0
100
AcDbPoint
 10
6331.21951608377
 20
2111.533300576482
 30
0.0
  0
POINT
  5
2286B
330
22817
100
AcDbEntity
  8
DEFPOINTS
 62
     0
 48
50.0
100
AcDbPoint
 10
6139.21951608377
 20
2111.533300576482
 30
0.0
  0
POINT
  5
2286C
330
22817
100
AcDbEntity
  8
DEFPOINTS
 62
     0
 48
50.0
100
AcDbPoint
 10
6139.21951608377
 20
2431.533300576483
 30
0.0
  0
ENDBLK
  5
22822
330
22817
100
AcDbEntity
  8
0
 48
50.0
100
AcDbBlockEnd
  0
BLOCK
  5
2282D
330
22823
100
AcDbEntity
  8
0
 48
50.0
100
AcDbBlockBegin
  2
*D43
 70
     1
 10
0.0
 20
0.0
 30
0.0
  3
*D43
  1

  0
LINE
  5
2286D
330
22823
100
AcDbEntity
  8
寸法
 62
     0
 48
50.0
370
    -2
100
AcDbLine
 10
8273.258829260964
 20
2111.533300576482
 30
0.0
 11
8815.127429029805
 21
2111.533300576482
 31
0.0
  0
LINE
  5
2286E
330
22823
100
AcDbEntity
  8
寸法
 62
     0
 48
50.0
370
    -2
100
AcDbLine
 10
8273.258829260964
 20
1787.533300576481
 30
0.0
 11
8815.127429029805
 21
1787.533300576481
 31
0.0
  0
LINE
  5
2286F
330
22823
100
AcDbEntity
  8
寸法
 62
     0
 48
50.0
370
    -2
100
AcDbLine
 10
8755.127429029807
 20
2111.533300576482
 30
0.0
 11
8755.127429029807
 21
1787.533300576481
 31
0.0
  0
INSERT
  5
22870
330
22823
100
AcDbEntity
  8
寸法
 62
     0
 48
50.0
370
    -2
100
AcDbBlockReference
  2
_DOTSMALL
 10
8755.127429029807
 20
2111.533300576482
 30
0.0
 41
100.0
 42
100.0
 43
100.0
 50
90.0
  0
INSERT
  5
22871
330
22823
100
AcDbEntity
  8
寸法
 62
     0
 48
50.0
370
    -2
100
AcDbBlockReference
  2
_DOTSMALL
 10
8755.127429029807
 20
1787.533300576481
 30
0.0
 41
100.0
 42
100.0
 43
100.0
 50
270.0
  0
MTEXT
  5
22872
330
22823
100
AcDbEntity
  8
寸法
 62
     7
 48
50.0
100
AcDbMText
 10
8655.127429029807
 20
1949.533300576483
 30
0.0
 40
120.0
 41
0.0
 71
     5
 72
     1
  1
\A1;180
  7
STYLE1
 11
0.0000000000000001
 21
1.0
 31
0.0
 73
     1
 44
1.0
1001
ACAD
1000
MTEXTBEGIN
1070
    73
1070
     1
1070
    44
1040
1.0
1070
    74
1070
     0
1000
MTEXTEND
  0
POINT
  5
22873
330
22823
100
AcDbEntity
  8
DEFPOINTS
 62
     0
 48
50.0
100
AcDbPoint
 10
8253.258829260962
 20
2111.533300576482
 30
0.0
  0
POINT
  5
22874
330
22823
100
AcDbEntity
  8
DEFPOINTS
 62
     0
 48
50.0
100
AcDbPoint
 10
8253.258829260962
 20
1787.533300576481
 30
0.0
  0
POINT
  5
22875
330
22823
100
AcDbEntity
  8
DEFPOINTS
 62
     0
 48
50.0
100
AcDbPoint
 10
8755.127429029807
 20
1787.533300576481
 30
0.0
  0
ENDBLK
  5
2282E
330
22823
100
AcDbEntity
  8
0
 48
50.0
100
AcDbBlockEnd
  0
BLOCK
  5
2283E
330
2282F
100
AcDbEntity
  8
0
 48
50.0
100
AcDbBlockBegin
  2
*D44
 70
     1
 10
0.0
 20
0.0
 30
0.0
  3
*D44
  1

  0
LINE
  5
22876
330
2282F
100
AcDbEntity
  8
寸法
 62
     0
 48
50.0
370
    -2
100
AcDbLine
 10
8086.058829260965
 20
2164.293300576483
 30
0.0
 11
8815.127429029805
 21
2164.293300576483
 31
0.0
  0
LINE
  5
22877
330
2282F
100
AcDbEntity
  8
寸法
 62
     0
 48
50.0
370
    -2
100
AcDbLine
 10
8273.258829260964
 20
2111.533300576482
 30
0.0
 11
8815.127429029805
 21
2111.533300576482
 31
0.0
  0
LINE
  5
22878
330
2282F
100
AcDbEntity
  8
寸法
 62
     0
 48
50.0
370
    -2
100
AcDbLine
 10
8755.127429029807
 20
2164.293300576483
 30
0.0
 11
8755.127429029807
 21
2264.293300576484
 31
0.0
  0
LINE
  5
22879
330
2282F
100
AcDbEntity
  8
寸法
 62
     0
 48
50.0
370
    -2
100
AcDbLine
 10
8755.127429029807
 20
2111.533300576482
 30
0.0
 11
8755.127429029807
 21
2011.533300576482
 31
0.0
  0
LINE
  5
2287A
330
2282F
100
AcDbEntity
  8
寸法
 62
     0
 48
50.0
370
    -2
100
AcDbLine
 10
8755.127429029807
 20
2137.913300576483
 30
0.0
 11
9031.182095148833
 21
2126.409342972269
 31
0.0
  0
LINE
  5
2287B
330
2282F
100
AcDbEntity
  8
寸法
 62
     0
 48
50.0
370
    -2
100
AcDbLine
 10
9031.182095148833
 20
2126.409342972269
 30
0.0
 11
9031.182095148833
 21
1594.391536129303
 31
0.0
  0
MTEXT
  5
2287C
330
2282F
100
AcDbEntity
  8
寸法
 62
     7
 48
50.0
100
AcDbMText
 10
8931.170284125212
 20
1860.400439550788
 30
0.0
 40
120.0
 41
0.0
 71
     5
 72
     1
  1
\A1;20～25
  7
STYLE1
 11
0.0000000000000001
 21
1.0
 31
0.0
 73
     1
 44
1.0
1001
ACAD
1000
MTEXTBEGIN
1070
    73
1070
     1
1070
    44
1040
1.0
1070
    74
1070
     0
1000
MTEXTEND
  0
LINE
  5
2287D
330
2282F
100
AcDbEntity
  8
寸法
 62
     0
 48
50.0
370
    -2
100
AcDbLine
 10
8755.127429029807
 20
2164.293300576483
 30
0.0
 11
8755.127429029807
 21
2111.533300576482
 31
0.0
  0
LINE
  5
2287E
330
2282F
100
AcDbEntity
  8
寸法
 62
     0
 48
50.0
370
    -2
100
AcDbLine
 10
8755.127429029807
 20
2164.293300576483
 30
0.0
 11
8755.127429029807
 21
2111.533300576482
 31
0.0
  0
INSERT
  5
2287F
330
2282F
100
AcDbEntity
  8
寸法
 62
     0
 48
50.0
370
    -2
100
AcDbBlockReference
  2
_DOTSMALL
 10
8755.127429029807
 20
2164.293300576483
 30
0.0
 41
100.0
 42
100.0
 43
100.0
 50
270.0
  0
INSERT
  5
22880
330
2282F
100
AcDbEntity
  8
寸法
 62
     0
 48
50.0
370
    -2
100
AcDbBlockReference
  2
_DOTSMALL
 10
8755.127429029807
 20
2111.533300576482
 30
0.0
 41
100.0
 42
100.0
 43
100.0
 50
90.0
  0
POINT
  5
22881
330
2282F
100
AcDbEntity
  8
DEFPOINTS
 62
     0
 48
50.0
100
AcDbPoint
 10
8066.058829260965
 20
2164.293300576483
 30
0.0
  0
POINT
  5
22882
330
2282F
100
AcDbEntity
  8
DEFPOINTS
 62
     0
 48
50.0
100
AcDbPoint
 10
8253.258829260962
 20
2111.533300576482
 30
0.0
  0
POINT
  5
22883
330
2282F
100
AcDbEntity
  8
DEFPOINTS
 62
     0
 48
50.0
100
AcDbPoint
 10
8755.127429029807
 20
2111.533300576482
 30
0.0
  0
ENDBLK
  5
2283F
330
2282F
100
AcDbEntity
  8
0
 48
50.0
100
AcDbBlockEnd
  0
BLOCK
  5
2284A
330
22840
100
AcDbEntity
  8
0
 48
50.0
100
AcDbBlockBegin
  2
*D45
 70
     1
 10
0.0
 20
0.0
 30
0.0
  3
*D45
  1

  0
LINE
  5
22884
330
22840
100
AcDbEntity
  8
寸法
 62
     0
 48
50.0
370
    -2
100
AcDbLine
 10
5991.219516083769
 20
1567.533300576482
 30
0.0
 11
5808.799202351309
 21
1567.533300576482
 31
0.0
  0
LINE
  5
22885
330
22840
100
AcDbEntity
  8
寸法
 62
     0
 48
50.0
370
    -2
100
AcDbLine
 10
5911.219516083773
 20
1327.533300576482
 30
0.0
 11
5808.799202351309
 21
1327.533300576482
 31
0.0
  0
LINE
  5
22886
330
22840
100
AcDbEntity
  8
寸法
 62
     0
 48
50.0
370
    -2
100
AcDbLine
 10
5868.79920235131
 20
1567.533300576482
 30
0.0
 11
5868.79920235131
 21
1327.533300576482
 31
0.0
  0
MTEXT
  5
22887
330
22840
100
AcDbEntity
  8
寸法
 62
     7
 48
50.0
100
AcDbMText
 10
5768.79920235131
 20
1447.533300576482
 30
0.0
 40
120.0
 41
0.0
 71
     5
 72
     1
  1
\A1;150
  7
STYLE1
 11
0.0000000000000001
 21
1.0
 31
0.0
 73
     1
 44
1.0
1001
ACAD
1000
MTEXTBEGIN
1070
    73
1070
     1
1070
    44
1040
1.0
1070
    74
1070
     0
1000
MTEXTEND
  0
INSERT
  5
22888
330
22840
100
AcDbEntity
  8
寸法
 62
     0
 48
50.0
370
    -2
100
AcDbBlockReference
  2
_DOTSMALL
 10
5868.79920235131
 20
1567.533300576482
 30
0.0
 41
100.0
 42
100.0
 43
100.0
 50
90.0
  0
INSERT
  5
22889
330
22840
100
AcDbEntity
  8
寸法
 62
     0
 48
50.0
370
    -2
100
AcDbBlockReference
  2
_DOTSMALL
 10
5868.79920235131
 20
1327.533300576482
 30
0.0
 41
100.0
 42
100.0
 43
100.0
 50
270.0
  0
POINT
  5
2288A
330
22840
100
AcDbEntity
  8
DEFPOINTS
 62
     0
 48
50.0
100
AcDbPoint
 10
6011.21951608377
 20
1567.533300576482
 30
0.0
  0
POINT
  5
2288B
330
22840
100
AcDbEntity
  8
DEFPOINTS
 62
     0
 48
50.0
100
AcDbPoint
 10
5931.219516083773
 20
1327.533300576482
 30
0.0
  0
POINT
  5
2288C
330
22840
100
AcDbEntity
  8
DEFPOINTS
 62
     0
 48
50.0
100
AcDbPoint
 10
5868.79920235131
 20
1327.533300576482
 30
0.0
  0
ENDBLK
  5
2284B
330
22840
100
AcDbEntity
  8
0
 48
50.0
100
AcDbBlockEnd
  0
BLOCK
  5
22856
330
2284C
100
AcDbEntity
  8
0
 48
50.0
100
AcDbBlockBegin
  2
*D46
 70
     1
 10
0.0
 20
0.0
 30
0.0
  3
*D46
  1

  0
LINE
  5
2288D
330
2284C
100
AcDbEntity
  8
寸法
 62
     0
 48
50.0
370
    -2
100
AcDbLine
 10
6119.219516083769
 20
2111.533300576482
 30
0.0
 11
5344.182277522029
 21
2111.533300576482
 31
0.0
  0
LINE
  5
2288E
330
2284C
100
AcDbEntity
  8
寸法
 62
     0
 48
50.0
370
    -2
100
AcDbLine
 10
5911.219516083773
 20
1327.533300576482
 30
0.0
 11
5344.182277522028
 21
1327.533300576482
 31
0.0
  0
LINE
  5
2288F
330
2284C
100
AcDbEntity
  8
寸法
 62
     0
 48
50.0
370
    -2
100
AcDbLine
 10
5404.182277522028
 20
2111.533300576482
 30
0.0
 11
5404.182277522028
 21
1327.533300576482
 31
0.0
  0
MTEXT
  5
22890
330
2284C
100
AcDbEntity
  8
寸法
 62
     7
 48
50.0
100
AcDbMText
 10
5304.182277522029
 20
1699.073450232483
 30
0.0
 40
120.0
 41
0.0
 71
     5
 72
     1
  1
\A1;540
  7
STYLE1
 11
0.0000000000000001
 21
1.0
 31
0.0
 73
     1
 44
1.0
1001
ACAD
1000
MTEXTBEGIN
1070
    73
1070
     1
1070
    44
1040
1.0
1070
    74
1070
     0
1000
MTEXTEND
  0
INSERT
  5
22891
330
2284C
100
AcDbEntity
  8
寸法
 62
     0
 48
50.0
370
    -2
100
AcDbBlockReference
  2
_DOTSMALL
 10
5404.182277522028
 20
2111.533300576482
 30
0.0
 41
100.0
 42
100.0
 43
100.0
 50
90.0
  0
INSERT
  5
22892
330
2284C
100
AcDbEntity
  8
寸法
 62
     0
 48
50.0
370
    -2
100
AcDbBlockReference
  2
_DOTSMALL
 10
5404.182277522028
 20
1327.533300576482
 30
0.0
 41
100.0
 42
100.0
 43
100.0
 50
270.0
  0
POINT
  5
22893
330
2284C
100
AcDbEntity
  8
DEFPOINTS
 62
     0
 48
50.0
100
AcDbPoint
 10
6139.21951608377
 20
2111.533300576482
 30
0.0
  0
POINT
  5
22894
330
2284C
100
AcDbEntity
  8
DEFPOINTS
 62
     0
 48
50.0
100
AcDbPoint
 10
5931.219516083773
 20
1327.533300576482
 30
0.0
  0
POINT
  5
22895
330
2284C
100
AcDbEntity
  8
DEFPOINTS
 62
     0
 48
50.0
100
AcDbPoint
 10
5404.182277522028
 20
1327.533300576482
 30
0.0
  0
ENDBLK
  5
22857
330
2284C
100
AcDbEntity
  8
0
 48
50.0
100
AcDbBlockEnd
  0
BLOCK
  5
22862
330
22858
100
AcDbEntity
  8
0
 48
50.0
100
AcDbBlockBegin
  2
*D47
 70
     1
 10
0.0
 20
0.0
 30
0.0
  3
*D47
  1

  0
LINE
  5
22896
330
22858
100
AcDbEntity
  8
寸法
 62
     0
 48
50.0
370
    -2
100
AcDbLine
 10
6011.21951608377
 20
1179.533300576482
 30
0.0
 11
6011.21951608377
 21
729.1036625713222
 31
0.0
  0
LINE
  5
22897
330
22858
100
AcDbEntity
  8
寸法
 62
     0
 48
50.0
370
    -2
100
AcDbLine
 10
6459.219516083769
 20
1179.533300576482
 30
0.0
 11
6459.219516083769
 21
729.1036625713222
 31
0.0
  0
LINE
  5
22898
330
22858
100
AcDbEntity
  8
寸法
 62
     0
 48
50.0
370
    -2
100
AcDbLine
 10
6011.21951608377
 20
789.1036625713223
 30
0.0
 11
6459.219516083769
 21
789.1036625713223
 31
0.0
  0
MTEXT
  5
22899
330
22858
100
AcDbEntity
  8
寸法
 62
     7
 48
50.0
100
AcDbMText
 10
6215.122757405545
 20
889.1036625713223
 30
0.0
 40
120.0
 41
0.0
 71
     5
 72
     1
  1
\A1;300
  7
STYLE1
 73
     1
 44
1.0
1001
ACAD
1000
MTEXTBEGIN
1070
    73
1070
     1
1070
    44
1040
1.0
1070
    74
1070
     0
1000
MTEXTEND
  0
INSERT
  5
2289A
330
22858
100
AcDbEntity
  8
寸法
 62
     0
 48
50.0
370
    -2
100
AcDbBlockReference
  2
_DOTSMALL
 10
6011.21951608377
 20
789.1036625713223
 30
0.0
 41
100.0
 42
100.0
 43
100.0
 50
180.0
  0
INSERT
  5
2289B
330
22858
100
AcDbEntity
  8
寸法
 62
     0
 48
50.0
370
    -2
100
AcDbBlockReference
  2
_DOTSMALL
 10
6459.219516083769
 20
789.1036625713223
 30
0.0
 41
100.0
 42
100.0
 43
100.0
  0
POINT
  5
2289C
330
22858
100
AcDbEntity
  8
DEFPOINTS
 62
     0
 48
50.0
100
AcDbPoint
 10
6011.21951608377
 20
1199.533300576482
 30
0.0
  0
POINT
  5
2289D
330
22858
100
AcDbEntity
  8
DEFPOINTS
 62
     0
 48
50.0
100
AcDbPoint
 10
6459.219516083769
 20
1199.533300576482
 30
0.0
  0
POINT
  5
2289E
330
22858
100
AcDbEntity
  8
DEFPOINTS
 62
     0
 48
50.0
100
AcDbPoint
 10
6459.219516083769
 20
789.1036625713223
 30
0.0
  0
ENDBLK
  5
22863
330
22858
100
AcDbEntity
  8
0
 48
50.0
100
AcDbBlockEnd
  0
ENDSEC
  0
SECTION
  2
ENTITIES
  0
MTEXT
  5
763F
330
747D
100
AcDbEntity
  8
0
100
AcDbMText
 10
302.846345836809
 20
280.1983726409901
 30
0.0
 40
3.5
 41
5.323721266742722
 71
     1
 72
     5
  1

  7
MSMINCHO
 73
     1
 44
1.0
1001
ACAD
1000
MTEXTBEGIN
1070
    73
1070
     1
1070
    44
1040
1.0
1070
    74
1070
     0
1000
MTEXTEND
  0
LINE
  5
10B57
330
747D
100
AcDbEntity
  8
補助
  6
PHANTOM
 62
   230
 48
50.0
100
AcDbLine
 10
139.9999999999995
 20
11409.6
 30
0.0
 11
16307.2
 21
11409.6
 31
0.0
  0
LINE
  5
10B59
330
747D
100
AcDbEntity
  8
仕様書枠
  6
Continuous
 48
50.0
100
AcDbLine
 10
13107.2
 20
1200.0
 30
0.0
 11
13107.2
 21
-0.0000000000000729
 31
0.0
  0
LINE
  5
10B5D
330
747D
100
AcDbEntity
  8
仕様書枠
 48
50.0
100
AcDbLine
 10
140.0
 20
0.0
 30
0.0
 11
16307.2
 21
-0.0000000000000909
 31
0.0
  0
LINE
  5
10B5E
330
747D
100
AcDbEntity
  8
補助
  6
PHANTOM
 62
   230
 48
50.0
100
AcDbLine
 10
16307.2
 20
11409.6
 30
0.0
 11
16307.2
 21
1200.0
 31
0.0
  0
LINE
  5
10B6C
330
747D
100
AcDbEntity
  8
仕様書枠
 48
50.0
100
AcDbLine
 10
13107.2
 20
1200.0
 30
0.0
 11
16307.2
 21
1200.0
 31
0.0
  0
TEXT
  5
10B73
330
747D
100
AcDbEntity
  8
文字
 62
     7
 48
50.0
100
AcDbText
 10
13162.9790565769
 20
895.0906074299405
 30
0.0
 40
200.0
  1
基 礎 図
  7
STYLE2
100
AcDbText
  0
LINE
  5
10B7B
330
747D
100
AcDbEntity
  8
仕様書枠
 48
50.0
100
AcDbLine
 10
13107.2
 20
800.0
 30
0.0
 11
14251.2
 21
800.0
 31
0.0
  0
LINE
  5
10B88
330
747D
100
AcDbEntity
  8
仕様書枠
  6
Continuous
 48
50.0
100
AcDbLine
 10
14251.2
 20
1200.0
 30
0.0
 11
14251.2
 21
800.0
 31
0.0
  0
LINE
  5
16462
330
747D
100
AcDbEntity
  8
仕様書枠
 48
50.0
100
AcDbLine
 10
16307.2
 20
1200.0
 30
0.0
 11
16307.2
 21
-0.0000000000000909
 31
0.0
  0
LINE
  5
1903B
330
747D
100
AcDbEntity
  8
補助
  6
PHANTOM
 62
   230
 48
50.0
100
AcDbLine
 10
140.0
 20
0.0
 30
0.0
 11
139.9999999999995
 21
11409.6
 31
0.0
  0
TEXT
  5
1C7A1
330
747D
100
AcDbEntity
  8
文字
 62
     7
 48
50.0
100
AcDbText
 10
13188.16259899338
 20
79.80631269190417
 30
0.0
 40
80.0
  1
※布基礎には換気口を設けてください。
  7
STYLE2
100
AcDbText
  0
TEXT
  5
1C7E7
330
747D
100
AcDbEntity
  8
文字
 62
     7
 48
50.0
100
AcDbText
 10
13188.16259899338
 20
246.7109242801889
 30
0.0
 40
80.0
  1
※寒冷地等は地域の実情に合わせた基礎にして下さい。
  7
STYLE2
100
AcDbText
  0
TEXT
  5
1C7E9
330
747D
100
AcDbEntity
  8
文字
 62
     7
 48
50.0
100
AcDbText
 10
14641.2525855784
 20
871.1744590657927
 30
0.0
 40
100.0
  1
～一般型・多雪地型～
  7
STYLE2
100
AcDbText
  0
TEXT
  5
1C7EC
330
747D
100
AcDbEntity
  8
文字
 62
     7
 48
50.0
100
AcDbText
 10
14524.131837222
 20
1031.557706291229
 30
0.0
 40
100.0
  1
      <縮尺> S=1/40
  7
STYLE2
100
AcDbText
  0
TEXT
  5
1C7ED
330
747D
100
AcDbEntity
  8
文字
 62
     7
 48
50.0
100
AcDbText
 10
13201.43669998441
 20
477.2740661031257
 30
0.0
 40
160.0
  1
機種名
  7
STYLE2
100
AcDbText
  0
LINE
  5
1C7EF
330
747D
100
AcDbEntity
  8
文字
 62
     7
 48
50.0
100
AcDbLine
 10
13187.2
 20
400.0
 30
0.0
 11
16227.2
 21
400.0
 31
0.0
  0
TEXT
  5
216BF
330
747D
100
AcDbEntity
  8
文字
 62
     7
 48
50.0
100
AcDbText
 10
14007.15646455712
 20
499.5983841039506
 30
0.0
 40
160.0
  1
ＮＸＮ－４０ＣＳＡ/ＣＨＡ
  7
STYLE2
100
AcDbText
  0
DIMENSION
  5
21846
330
747D
100
AcDbEntity
  8
寸法
 48
50.0
100
AcDbDimension
  2
*D19
 10
6772.503367597605
 20
7285.029266579432
 30
0.0
 11
6772.503367597604
 21
6939.029266579433
 31
0.0
 70
   160
 71
     5
 42
692.0
  3
INABA_S40G
100
AcDbAlignedDimension
 13
8123.600000000001
 23
6593.029266579432
 33
0.0
 14
8123.600000000001
 24
7285.029266579432
 34
0.0
 50
270.0
100
AcDbRotatedDimension
1001
ACAD
1000
DSTYLE
1002
{
1070
   341
1005
0
1002
}
  0
DIMENSION
  5
21847
330
747D
100
AcDbEntity
  8
寸法
 48
50.0
100
AcDbDimension
  2
*D20
 10
6772.503367597604
 20
8049.029266579433
 30
0.0
 11
6672.503367597602
 21
7667.029266579435
 31
0.0
 70
    32
 71
     5
 42
764.0
  3
INABA_S40G
100
AcDbAlignedDimension
 13
8123.600000000001
 23
7285.029266579432
 33
0.0
 14
7323.6
 24
8049.029266579433
 34
0.0
 50
270.0
100
AcDbRotatedDimension
1001
ACAD
1000
DSTYLE
1002
{
1070
   341
1005
0
1002
}
  0
DIMENSION
  5
21848
330
747D
100
AcDbEntity
  8
寸法
 48
50.0
100
AcDbDimension
  2
*D21
 10
6772.503367597604
 20
6593.029266579432
 30
0.0
 11
6772.5033675976
 21
6282.131616467626
 31
0.0
 70
   160
 71
     5
 42
763.9999999999973
  3
INABA_S40G
100
AcDbAlignedDimension
 13
7323.600000000034
 23
5829.029266579436
 33
0.0
 14
8123.600000000001
 24
6593.029266579432
 34
0.0
 50
270.0
100
AcDbRotatedDimension
1001
ACAD
1000
DSTYLE
1002
{
1070
   341
1005
0
1002
}
  0
LEADER
  5
21849
330
747D
100
AcDbEntity
  8
寸法
 48
50.0
100
AcDbLeader
  3
INABA_S50G
 73
     0
 74
     0
 75
     1
 40
120.0
 41
149.591883092037
 76
     3
 10
8260.918685946101
 20
6657.689622865328
 30
0.0
 10
8401.477914010644
 20
6881.107090700513
 30
0.0
 10
8526.477914010644
 20
6881.107090700513
 30
0.0
340
2184A
1001
ACAD
1000
DSTYLE
1002
{
1070
   341
1005
0
1070
    40
1040
1.0
1070
   343
1005
0
1070
   344
1005
0
1002
}
  0
MTEXT
  5
2184A
102
{ACAD_REACTORS
330
21849
102
}
330
747D
100
AcDbEntity
  8
部品1
 62
     7
 48
50.0
100
AcDbMText
 10
8701.069797102681
 20
6966.107090700514
 30
0.0
 40
120.0
 41
0.0
 71
     6
 72
     1
  1
CB
  7
STYLE1
 73
     1
 44
1.0
1001
ACAD
1000
MTEXTBEGIN
1070
    73
1070
     1
1070
    44
1040
1.0
1070
    74
1070
     0
1000
MTEXTEND
  0
DIMENSION
  5
2184B
330
747D
100
AcDbEntity
  8
寸法
 48
50.0
100
AcDbDimension
  2
*D22
 10
9168.600000000001
 20
9066.5505724862
 30
0.0
 11
9439.77462120246
 21
9066.5505724862
 31
0.0
 70
   160
  1
a
 71
     5
 42
45.00000000001091
  3
INABA_S40G
100
AcDbAlignedDimension
 13
9123.599999999989
 23
8049.029266579431
 33
0.0
 14
9168.600000000001
 24
8854.089876969363
 34
0.0
100
AcDbRotatedDimension
1001
ACAD
1000
DSTYLE
1002
{
1070
   341
1005
0
1002
}
  0
DIMENSION
  5
2184C
330
747D
100
AcDbEntity
  8
寸法
 48
50.0
100
AcDbDimension
  2
*D23
 10
7323.6
 20
9066.5505724862
 30
0.0
 11
7007.425378797541
 21
9066.5505724862
 31
0.0
 70
   160
  1
a
 71
     5
 42
44.99999999999817
  3
INABA_S40G
100
AcDbAlignedDimension
 13
7278.600000000003
 23
8854.089876969363
 33
0.0
 14
7323.6
 24
8049.029266579433
 34
0.0
100
AcDbRotatedDimension
1001
ACAD
1000
DSTYLE
1002
{
1070
   341
1005
0
1002
}
  0
DIMENSION
  5
21851
330
747D
100
AcDbEntity
  8
寸法
 48
50.0
100
AcDbDimension
  2
*D24
 10
7446.6
 20
8854.089876969363
 30
0.0
 11
8223.600000000001
 21
8954.089876969362
 31
0.0
 70
    32
 71
     5
 42
1554.0
  3
INABA_S40G
100
AcDbAlignedDimension
 13
9000.6
 23
7976.029266579434
 33
0.0
 14
7446.6
 24
7976.029266579434
 34
0.0
100
AcDbRotatedDimension
1001
ACAD
1000
DSTYLE
1002
{
1070
   174
1070
     0
1070
   272
1070
     1
1070
   288
1070
     0
1070
   341
1005
0
1002
}
  0
DIMENSION
  5
21854
330
747D
100
AcDbEntity
  8
寸法
 48
50.0
100
AcDbDimension
  2
*D25
 10
9123.600000000001
 20
9066.5505724862
 30
0.0
 11
8223.600000000001
 21
9166.550572486199
 31
0.0
 70
    32
 71
     5
 42
1800.0
  3
INABA_S40G
100
AcDbAlignedDimension
 13
7323.6
 23
8049.029266579433
 33
0.0
 14
9123.600000000001
 24
8049.029266579433
 34
0.0
100
AcDbRotatedDimension
1001
ACAD
1000
DSTYLE
1002
{
1070
   174
1070
     0
1070
   272
1070
     1
1070
   288
1070
     0
1070
   341
1005
0
1002
}
  0
LINE
  5
21855
330
747D
100
AcDbEntity
  8
部品1
 48
50.0
100
AcDbLine
 10
9123.600000000001
 20
8049.029266579433
 30
0.0
 11
7323.6
 21
8049.029266579433
 31
0.0
  0
DIMENSION
  5
21856
330
747D
100
AcDbEntity
  8
寸法
 48
50.0
100
AcDbDimension
  2
*D26
 10
7323.6
 20
8854.089876969363
 30
0.0
 11
7085.114718625762
 21
8854.089876969363
 31
0.0
 70
   160
 71
     5
 42
123.0
  3
INABA_S40G
100
AcDbAlignedDimension
 13
7446.6
 23
7976.029266579434
 33
0.0
 14
7323.6
 24
8049.029266579433
 34
0.0
100
AcDbRotatedDimension
1001
ACAD
1000
DSTYLE
1002
{
1070
   174
1070
     0
1070
   272
1070
     1
1070
   288
1070
     0
1070
   341
1005
0
1002
}
  0
DIMENSION
  5
21857
330
747D
100
AcDbEntity
  8
寸法
 48
50.0
100
AcDbDimension
  2
*D27
 10
6527.657733986178
 20
5952.029266579435
 30
0.0
 11
6527.657733986178
 21
6993.595936236149
 31
0.0
 70
   160
 71
     5
 42
1973.999999999998
  3
INABA_S40G
100
AcDbAlignedDimension
 13
7396.600000000001
 23
7926.029266579433
 33
0.0
 14
7396.600000000008
 24
5952.029266579435
 34
0.0
 50
90.0
100
AcDbRotatedDimension
1001
ACAD
1000
DSTYLE
1002
{
1070
   174
1070
     0
1070
   272
1070
     1
1070
   288
1070
     0
1070
   341
1005
0
1002
}
  0
DIMENSION
  5
21859
330
747D
100
AcDbEntity
  8
寸法
 48
50.0
100
AcDbDimension
  2
*D28
 10
6282.164931848213
 20
5829.029266579433
 30
0.0
 11
6282.164931848212
 21
6993.595936236149
 31
0.0
 70
   160
 71
     5
 42
2220.0
  3
INABA_S40G
100
AcDbAlignedDimension
 13
7323.6
 23
8049.029266579433
 33
0.0
 14
7323.6
 24
5829.029266579433
 34
0.0
 50
90.0
100
AcDbRotatedDimension
1001
ACAD
1000
DSTYLE
1002
{
1070
   174
1070
     0
1070
   272
1070
     1
1070
   288
1070
     0
1070
   341
1005
0
1002
}
  0
LINE
  5
2185A
330
747D
100
AcDbEntity
  8
部品1
 48
50.0
100
AcDbLine
 10
7323.6
 20
5754.02926657945
 30
0.0
 11
7323.6
 21
8049.029266579433
 31
0.0
  0
DIMENSION
  5
2185C
330
747D
100
AcDbEntity
  8
寸法
 48
50.0
100
AcDbDimension
  2
*D29
 10
6527.657733986178
 20
5829.029266579433
 30
0.0
 11
6527.657733986178
 21
5590.543985205195
 31
0.0
 70
   160
 71
     5
 42
123.0000000000018
  3
INABA_S40G
100
AcDbAlignedDimension
 13
7396.600000000008
 23
5952.029266579435
 33
0.0
 14
7323.6
 24
5829.029266579433
 34
0.0
 50
90.0
100
AcDbRotatedDimension
1001
ACAD
1000
DSTYLE
1002
{
1070
   174
1070
     0
1070
   272
1070
     1
1070
   288
1070
     0
1070
   341
1005
0
1002
}
  0
LINE
  5
2185D
330
747D
100
AcDbEntity
  8
センター
 48
2.0
100
AcDbLine
 10
7446.600000000008
 20
6002.029266579435
 30
0.0
 11
7446.600000000008
 21
5902.029266579435
 31
0.0
  0
LINE
  5
2185E
330
747D
100
AcDbEntity
  8
センター
 48
2.0
100
AcDbLine
 10
7396.600000000008
 20
5952.029266579435
 30
0.0
 11
7496.600000000007
 21
5952.029266579435
 31
0.0
  0
CIRCLE
  5
2185F
330
747D
100
AcDbEntity
  8
部品1
 48
50.0
100
AcDbCircle
 10
7446.600000000008
 20
5952.029266579435
 30
0.0
 40
35.0
  0
LINE
  5
21860
330
747D
100
AcDbEntity
  8
部品1
 48
50.0
100
AcDbLine
 10
7553.6
 20
6059.029266579437
 30
0.0
 11
7443.6
 21
6059.029266579435
 31
0.0
  0
LINE
  5
21861
330
747D
100
AcDbEntity
  8
部品1
 48
50.0
100
AcDbLine
 10
7553.6
 20
5949.029266579436
 30
0.0
 11
7553.6
 21
6059.029266579437
 31
0.0
  0
DIMENSION
  5
21862
330
747D
100
AcDbEntity
  8
寸法
 48
50.0
100
AcDbDimension
  2
*D30
 10
6527.657733986178
 20
7926.029266579433
 30
0.0
 11
6527.657733986178
 21
8287.514547953675
 31
0.0
 70
   160
 71
     5
 42
123.0
  3
INABA_S40G
100
AcDbAlignedDimension
 13
7323.6
 23
8049.029266579433
 33
0.0
 14
7396.600000000001
 24
7926.029266579433
 34
0.0
 50
90.0
100
AcDbRotatedDimension
1001
ACAD
1000
DSTYLE
1002
{
1070
   174
1070
     0
1070
   272
1070
     1
1070
   288
1070
     0
1070
   341
1005
0
1002
}
  0
LINE
  5
21863
330
747D
100
AcDbEntity
  8
部品1
 48
50.0
100
AcDbLine
 10
7443.6
 20
7039.029266579435
 30
0.0
 11
7323.6
 21
7039.029266579433
 31
0.0
  0
LINE
  5
21864
330
747D
100
AcDbEntity
  8
部品1
 48
50.0
100
AcDbLine
 10
7443.6
 20
6839.029266579434
 30
0.0
 11
7323.6
 21
6839.029266579434
 31
0.0
  0
LINE
  5
21866
330
747D
100
AcDbEntity
  8
センター
 48
2.0
100
AcDbLine
 10
7446.6
 20
7976.029266579434
 30
0.0
 11
7446.6
 21
7876.029266579434
 31
0.0
  0
LINE
  5
21867
330
747D
100
AcDbEntity
  8
センター
 48
2.0
100
AcDbLine
 10
7396.600000000001
 20
7926.029266579433
 30
0.0
 11
7496.6
 21
7926.029266579433
 31
0.0
  0
CIRCLE
  5
21868
330
747D
100
AcDbEntity
  8
部品1
 48
50.0
100
AcDbCircle
 10
7446.6
 20
7926.029266579433
 30
0.0
 40
35.0
  0
LINE
  5
21869
330
747D
100
AcDbEntity
  8
部品1
 48
50.0
100
AcDbLine
 10
7553.6
 20
7819.02926657943
 30
0.0
 11
7443.6
 21
7819.029266579433
 31
0.0
  0
LINE
  5
2186A
330
747D
100
AcDbEntity
  8
部品1
 48
50.0
100
AcDbLine
 10
7553.6
 20
7819.02926657943
 30
0.0
 11
7553.599999999999
 21
7929.029266579433
 31
0.0
  0
DIMENSION
  5
2186B
330
747D
100
AcDbEntity
  8
寸法
 48
50.0
100
AcDbDimension
  2
*D31
 10
9000.6
 20
8854.089876969363
 30
0.0
 11
9362.085281374239
 21
8854.089876969363
 31
0.0
 70
   160
 71
     5
 42
123.0
  3
INABA_S40G
100
AcDbAlignedDimension
 13
9123.600000000001
 23
8049.029266579433
 33
0.0
 14
9000.6
 24
7976.029266579434
 34
0.0
100
AcDbRotatedDimension
1001
ACAD
1000
DSTYLE
1002
{
1070
   174
1070
     0
1070
   272
1070
     1
1070
   288
1070
     0
1070
   341
1005
0
1002
}
  0
LINE
  5
2186D
330
747D
100
AcDbEntity
  8
部品1
 48
50.0
100
AcDbLine
 10
9123.600000000001
 20
5754.029266579451
 30
0.0
 11
9123.600000000001
 21
8049.029266579433
 31
0.0
  0
LINE
  5
2186E
330
747D
100
AcDbEntity
  8
想像線
 48
10.0
100
AcDbLine
 10
9168.600000000003
 20
8104.029266579438
 30
0.0
 11
9168.600000000006
 21
5754.02926657945
 31
0.0
  0
LINE
  5
2186F
330
747D
100
AcDbEntity
  8
センター
 48
2.0
100
AcDbLine
 10
8950.600000000006
 20
5952.029266579435
 30
0.0
 11
9050.600000000008
 21
5952.029266579435
 31
0.0
  0
CIRCLE
  5
21870
330
747D
100
AcDbEntity
  8
部品1
 48
50.0
100
AcDbCircle
 10
9000.600000000007
 20
5952.029266579435
 30
0.0
 40
35.0
  0
LINE
  5
21871
330
747D
100
AcDbEntity
  8
部品1
 48
50.0
100
AcDbLine
 10
9003.599999999998
 20
6059.029266579451
 30
0.0
 11
8893.600000000001
 21
6059.029266579451
 31
0.0
  0
LINE
  5
21872
330
747D
100
AcDbEntity
  8
部品1
 48
50.0
100
AcDbLine
 10
8893.600000000001
 20
5949.029266579448
 30
0.0
 11
8893.600000000001
 21
6059.029266579451
 31
0.0
  0
LINE
  5
21873
330
747D
100
AcDbEntity
  8
センター
 48
2.0
100
AcDbLine
 10
9000.600000000007
 20
6002.029266579435
 30
0.0
 11
9000.600000000007
 21
5902.029266579435
 31
0.0
  0
LINE
  5
21874
330
747D
100
AcDbEntity
  8
部品1
 48
50.0
100
AcDbLine
 10
8323.6
 20
7929.029266579433
 30
0.0
 11
8323.6
 21
8049.029266579433
 31
0.0
  0
LINE
  5
21875
330
747D
100
AcDbEntity
  8
部品1
 48
50.0
100
AcDbLine
 10
8123.600000000001
 20
7929.029266579433
 30
0.0
 11
8123.600000000001
 21
8049.029266579433
 31
0.0
  0
LINE
  5
21877
330
747D
100
AcDbEntity
  8
センター
 48
2.0
100
AcDbLine
 10
8950.599999999999
 20
7926.029266579433
 30
0.0
 11
9050.600000000001
 21
7926.029266579433
 31
0.0
  0
CIRCLE
  5
21878
330
747D
100
AcDbEntity
  8
部品1
 48
50.0
100
AcDbCircle
 10
9000.6
 20
7926.029266579433
 30
0.0
 40
35.0
  0
LINE
  5
21879
330
747D
100
AcDbEntity
  8
部品1
 48
50.0
100
AcDbLine
 10
9003.6
 20
7819.029266579434
 30
0.0
 11
8893.600000000001
 21
7819.029266579431
 31
0.0
  0
LINE
  5
2187A
330
747D
100
AcDbEntity
  8
部品1
 48
50.0
100
AcDbLine
 10
8893.600000000001
 20
7819.029266579431
 30
0.0
 11
8893.600000000001
 21
7929.029266579431
 31
0.0
  0
LINE
  5
2187B
330
747D
100
AcDbEntity
  8
部品1
 48
50.0
100
AcDbLine
 10
9123.600000000001
 20
7039.029266579433
 30
0.0
 11
9003.599999999998
 21
7039.029266579433
 31
0.0
  0
LINE
  5
2187C
330
747D
100
AcDbEntity
  8
部品1
 48
50.0
100
AcDbLine
 10
9123.600000000001
 20
6839.029266579434
 30
0.0
 11
9003.599999999998
 21
6839.029266579434
 31
0.0
  0
LINE
  5
2187E
330
747D
100
AcDbEntity
  8
センター
 48
2.0
100
AcDbLine
 10
9000.6
 20
7976.029266579434
 30
0.0
 11
9000.6
 21
7876.029266579434
 31
0.0
  0
LINE
  5
21880
330
747D
100
AcDbEntity
  8
センター
 48
2.0
100
AcDbLine
 10
8173.6
 20
7285.029266579432
 30
0.0
 11
8273.6
 21
7285.029266579432
 31
0.0
  0
LINE
  5
21881
330
747D
100
AcDbEntity
  8
センター
 48
2.0
100
AcDbLine
 10
8223.600000000001
 20
7335.029266579432
 30
0.0
 11
8223.600000000001
 21
7235.029266579433
 31
0.0
  0
LINE
  5
2188A
330
747D
100
AcDbEntity
  8
センター
 48
2.0
100
AcDbLine
 10
8223.600000000001
 20
6643.029266579432
 30
0.0
 11
8223.600000000001
 21
6543.029266579432
 31
0.0
  0
LINE
  5
2188B
330
747D
100
AcDbEntity
  8
センター
 48
2.0
100
AcDbLine
 10
8173.6
 20
6593.029266579432
 30
0.0
 11
8273.6
 21
6593.029266579432
 31
0.0
  0
DIMENSION
  5
2188D
330
747D
100
AcDbEntity
  8
寸法
 48
50.0
100
AcDbDimension
  2
*D32
 10
8223.600000000001
 20
8627.318296470113
 30
0.0
 11
7773.6
 21
8727.318296470114
 31
0.0
 70
    32
 71
     5
 42
900.0
  3
INABA_S40G
100
AcDbAlignedDimension
 13
7323.6
 23
8049.029266579433
 33
0.0
 14
8223.600000000001
 24
7385.029266579433
 34
0.0
100
AcDbRotatedDimension
1001
ACAD
1000
DSTYLE
1002
{
1070
   174
1070
     0
1070
   272
1070
     1
1070
   279
1070
     1
1070
   288
1070
     0
1070
   341
1005
0
1002
}
  0
DIMENSION
  5
2188E
330
747D
100
AcDbEntity
  8
寸法
 48
50.0
100
AcDbDimension
  2
*D33
 10
9123.600000000001
 20
8627.318296470113
 30
0.0
 11
8673.6
 21
8727.318296470114
 31
0.0
 70
    32
 71
     5
 42
900.0
  3
INABA_S40G
100
AcDbAlignedDimension
 13
8223.600000000001
 23
7385.029266579433
 33
0.0
 14
9123.600000000001
 24
8049.029266579433
 34
0.0
100
AcDbRotatedDimension
1001
ACAD
1000
DSTYLE
1002
{
1070
   174
1070
     0
1070
   272
1070
     1
1070
   279
1070
     1
1070
   288
1070
     0
1070
   341
1005
0
1002
}
  0
DIMENSION
  5
2188F
330
747D
100
AcDbEntity
  8
寸法
 48
50.0
100
AcDbDimension
  2
*D34
 10
6282.16493184821
 20
8049.029266579436
 30
0.0
 11
6182.164931848209
 21
8076.529266579431
 31
0.0
 70
    32
  1
b
 71
     5
 42
54.99999999998727
  3
INABA_S40G
100
AcDbAlignedDimension
 13
6527.65773398618
 23
8104.029266579422
 33
0.0
 14
6494.625627365049
 24
8049.029266579436
 34
0.0
 50
90.0
100
AcDbRotatedDimension
1001
ACAD
1000
DSTYLE
1002
{
1070
   341
1005
0
1002
}
  0
DIMENSION
  5
21890
330
747D
100
AcDbEntity
  8
寸法
 48
50.0
100
AcDbDimension
  2
*D35
 10
6282.164931848212
 20
5754.029266579433
 30
0.0
 11
6182.164931848212
 21
5791.529266579435
 31
0.0
 70
    32
  1
c
 71
     5
 42
75.00000000000182
  3
INABA_S40G
100
AcDbAlignedDimension
 13
6494.625627365049
 23
5829.029266579434
 33
0.0
 14
6527.65773398618
 24
5754.029266579433
 34
0.0
 50
90.0
100
AcDbRotatedDimension
1001
ACAD
1000
DSTYLE
1002
{
1070
   341
1005
0
1002
}
  0
LEADER
  5
21891
330
747D
100
AcDbEntity
  8
寸法
 48
50.0
100
AcDbLeader
  3
INABA_S50G
 73
     0
 74
     0
 75
     1
 40
120.0
 41
720.0000000000001
 76
     3
 10
9123.695499614996
 20
6937.286813368107
 30
0.0
 10
9280.469074001279
 20
6676.272899800274
 30
0.0
 10
9405.469074001279
 20
6676.272899800274
 30
0.0
340
21892
1001
ACAD
1000
DSTYLE
1002
{
1070
   341
1005
0
1070
    40
1040
1.0
1070
   343
1005
0
1070
   344
1005
0
1002
}
  0
MTEXT
  5
21892
102
{ACAD_REACTORS
330
21891
102
}
330
747D
100
AcDbEntity
  8
部品1
 62
     7
 48
50.0
100
AcDbMText
 10
10150.46907400128
 20
6761.272899800274
 30
0.0
 40
120.0
 41
0.0
 71
     6
 72
     1
  1
\A1;床下換気口
  7
STYLE1
 73
     1
 44
1.0
1001
ACAD
1000
MTEXTBEGIN
1070
    73
1070
     1
1070
    44
1040
1.0
1070
    74
1070
     0
1000
MTEXTEND
  0
TEXT
  5
21893
330
747D
100
AcDbEntity
  8
部品1
 48
50.0
100
AcDbText
 10
9467.430138461178
 20
5602.408238510328
 30
0.0
 40
80.0
  1
(a=45,b=55,c=75)
  7
STYLE1
100
AcDbText
  0
TEXT
  5
21894
330
747D
100
AcDbEntity
  8
部品1
 48
50.0
100
AcDbText
 10
9308.851129706875
 20
5709.253459379082
 30
0.0
 40
80.0
  1
※a,b,cは屋根の出幅です。
  7
STYLE1
100
AcDbText
  0
MTEXT
  5
21895
102
{ACAD_REACTORS
330
21896
102
}
330
747D
100
AcDbEntity
  8
部品1
 62
     7
 48
50.0
100
AcDbMText
 10
10106.63832569548
 20
5888.564146312157
 30
0.0
 40
120.0
 41
0.0
 71
     6
 72
     1
  1
\A1;屋根の外寸
  7
STYLE1
 73
     1
 44
1.0
1001
ACAD
1000
MTEXTBEGIN
1070
    73
1070
     1
1070
    44
1040
1.0
1070
    74
1070
     0
1000
MTEXTEND
  0
LEADER
  5
21896
330
747D
100
AcDbEntity
  8
寸法
 48
50.0
100
AcDbLeader
  3
INABA_S50G
 73
     0
 74
     0
 75
     1
 40
120.0
 41
672.0
 76
     3
 10
9168.69831350344
 20
6062.453489775733
 30
0.0
 10
9284.63832569548
 20
5803.564146312158
 30
0.0
 10
9409.63832569548
 20
5803.564146312158
 30
0.0
340
21895
1001
ACAD
1000
DSTYLE
1002
{
1070
   341
1005
0
1070
    40
1040
1.0
1070
   343
1005
0
1070
   344
1005
0
1002
}
  0
MTEXT
  5
21897
102
{ACAD_REACTORS
330
21898
102
}
330
747D
100
AcDbEntity
  8
部品1
 62
     7
 48
50.0
100
AcDbMText
 10
10318.99523070989
 20
8300.001760923382
 30
0.0
 40
120.0
 41
0.0
 71
     6
 72
     1
  1
アンカーボルト
  7
STYLE1
 73
     1
 44
1.0
1001
ACAD
1000
MTEXTBEGIN
1070
    73
1070
     1
1070
    44
1040
1.0
1070
    74
1070
     0
1000
MTEXTEND
  0
LEADER
  5
21898
330
747D
100
AcDbEntity
  8
寸法
 48
50.0
100
AcDbLeader
  3
INABA_S50G
 73
     0
 74
     0
 75
     1
 40
120.0
 41
994.3492424049171
 76
     3
 10
9000.680085757009
 20
7926.042989775641
 30
0.0
 10
9174.645988304973
 20
8215.001760923382
 30
0.0
 10
9299.645988304973
 20
8215.001760923382
 30
0.0
340
21897
1001
ACAD
1000
DSTYLE
1002
{
1070
   341
1005
0
1070
    40
1040
1.0
1070
   343
1005
0
1070
   344
1005
0
1002
}
  0
LINE
  5
2189B
330
747D
100
AcDbEntity
  8
部品1
 48
50.0
100
AcDbLine
 10
9123.600000000019
 20
5754.029266579452
 30
0.0
 11
7323.600000000034
 21
5754.029266579436
 31
0.0
  0
DIMENSION
  5
2189E
330
747D
100
AcDbEntity
  8
寸法
 48
50.0
100
AcDbDimension
  2
*D36
 10
7029.276532889156
 20
5829.029266579436
 30
0.0
 11
7029.276532889155
 21
5220.543985205198
 31
0.0
 70
   160
  1
扉の出<>
 71
     5
 42
74.99999999998635
  3
INABA_S40G
100
AcDbAlignedDimension
 13
7323.6
 23
5754.02926657945
 33
0.0
 14
7323.600000000034
 24
5829.029266579436
 34
0.0
 50
90.0
100
AcDbRotatedDimension
1001
ACAD
1000
DSTYLE
1002
{
1070
   341
1005
0
1002
}
  0
LINE
  5
2189F
330
747D
100
AcDbEntity
  8
部品1
 48
50.0
100
AcDbLine
 10
8123.600000000028
 20
5754.029266579443
 30
0.0
 11
8123.600000000028
 21
5949.029266579442
 31
0.0
  0
LINE
  5
218A0
330
747D
100
AcDbEntity
  8
部品1
 48
50.0
100
AcDbLine
 10
8323.600000000025
 20
5754.029266579445
 30
0.0
 11
8323.600000000025
 21
5949.029266579444
 31
0.0
  0
DIMENSION
  5
218A1
330
747D
100
AcDbEntity
  8
寸法
 48
50.0
100
AcDbDimension
  2
*D37
 10
8893.600000000001
 20
7648.227697092936
 30
0.0
 11
8657.552755905511
 21
7648.227697092936
 31
0.0
 70
   160
 71
     5
 42
110.0000000000018
  3
INABA_S40G
100
AcDbAlignedDimension
 13
9003.600000000004
 23
7819.02926657943
 33
0.0
 14
8893.600000000001
 24
7819.029266579431
 34
0.0
 50
180.0
100
AcDbRotatedDimension
1001
ACAD
1000
DSTYLE
1002
{
1070
   341
1005
0
1002
}
  0
DIMENSION
  5
218A2
330
747D
100
AcDbEntity
  8
寸法
 48
50.0
100
AcDbDimension
  2
*D38
 10
9123.600000000001
 20
7648.227697092936
 30
0.0
 11
9401.683543272884
 21
7648.227697092936
 31
0.0
 70
   160
 71
     5
 42
120.0000000000018
  3
INABA_S40G
100
AcDbAlignedDimension
 13
9003.6
 23
7819.02926657943
 33
0.0
 14
9123.600000000001
 24
7794.02926657943
 34
0.0
 50
180.0
100
AcDbRotatedDimension
1001
ACAD
1000
DSTYLE
1002
{
1070
   341
1005
0
1002
}
  0
LINE
  5
218A3
330
747D
100
AcDbEntity
  8
想像線
 48
10.0
100
AcDbLine
 10
8669.13910618831
 20
5754.029266579451
 30
0.0
 11
9168.600000000019
 21
5754.02926657945
 31
0.0
  0
LINE
  5
218A4
330
747D
100
AcDbEntity
  8
想像線
 48
10.0
100
AcDbLine
 10
8669.13910618831
 20
8104.029266579436
 30
0.0
 11
9168.599999999983
 21
8104.029266579436
 31
0.0
  0
DIMENSION
  5
21F33
330
747D
100
AcDbEntity
  8
寸法
 48
50.0
100
AcDbDimension
  2
*D39
 10
7782.938460046266
 20
5949.029266579421
 30
0.0
 11
7782.938460046264
 21
5515.334325375556
 31
0.0
 70
   160
 71
     5
 42
194.99999999997
  3
INABA_S40G
100
AcDbAlignedDimension
 13
7553.6
 23
5754.029266579451
 33
0.0
 14
7553.600000000002
 24
5949.029266579421
 34
0.0
 50
270.0
100
AcDbRotatedDimension
1001
ACAD
1000
DSTYLE
1002
{
1070
   341
1005
0
1002
}
  0
DIMENSION
  5
21F34
330
747D
100
AcDbEntity
  8
寸法
 48
50.0
100
AcDbDimension
  2
*D40
 10
7782.938460046266
 20
6059.02926657945
 30
0.0
 11
7782.938460046264
 21
6295.07651067394
 31
0.0
 70
   160
 71
     5
 42
110.0000000000136
  3
INABA_S40G
100
AcDbAlignedDimension
 13
7553.6
 23
5949.029266579437
 33
0.0
 14
7553.600000000002
 24
6059.02926657945
 34
0.0
 50
270.0
100
AcDbRotatedDimension
1001
ACAD
1000
DSTYLE
1002
{
1070
   341
1005
0
1002
}
  0
TEXT
  5
21F35
330
747D
100
AcDbEntity
  8
寸法
 62
     7
100
AcDbText
 10
7406.285760402143
 20
4498.596991181242
 30
0.0
 40
120.0
  1
扉の位置に合わせた基礎形状として下さい。
  7
STYLE1
100
AcDbText
  0
LWPOLYLINE
  5
21F36
330
747D
100
AcDbEntity
  8
寸法
 48
50.0
100
AcDbPolyline
 90
        3
 70
     0
 43
0.0
 10
-7630.680265711763
 20
5754.02926657945
 10
-7289.669801209389
 20
4647.932806516247
 10
-10103.73421414103
 20
4647.932806516247
210
0.0
220
0.0
230
-1.0
1001
ACAD
1000
DSTYLE
1002
{
1070
   341
1005
0
1070
    40
1040
1.0
1070
   343
1005
0
1070
   344
1005
0
1002
}
  0
SOLID
  5
21F37
330
747D
100
AcDbEntity
  8
寸法
 48
50.0
100
AcDbTrace
 10
-7613.771060041774
 20
5628.438237674563
 30
0.0
 11
-7630.680265711763
 21
5754.02926657945
 31
0.0
 12
-7573.952845568297
 22
5640.711008643473
 32
0.0
 13
-7573.952845568297
 23
5640.711008643473
 33
0.0
210
0.0
220
0.0
230
-1.0
1001
ACAD
1000
DSTYLE
1002
{
1070
   341
1005
0
1070
    40
1040
1.0
1070
   343
1005
0
1070
   344
1005
0
1002
}
  0
TEXT
  5
21F38
330
747D
100
AcDbEntity
  8
寸法
 62
     7
100
AcDbText
 10
7406.285760402143
 20
4670.200754064567
 30
0.0
 40
120.0
  1
扉位置 (1800x75)
  7
STYLE1
100
AcDbText
  0
DIMENSION
  5
21F39
330
747D
100
AcDbEntity
  8
寸法
 48
50.0
100
AcDbDimension
  2
*D41
 10
7323.6
 20
5039.164963155325
 30
0.0
 11
8223.599999999985
 21
5139.164963155326
 31
0.0
 70
    32
  1
扉の幅 <>
 71
     5
 42
1799.999999999965
  3
INABA_S40G
100
AcDbAlignedDimension
 13
9123.599999999965
 23
5754.029266579458
 33
0.0
 14
7323.6
 24
5754.029266579436
 34
0.0
100
AcDbRotatedDimension
1001
ACAD
1000
DSTYLE
1002
{
1070
   341
1005
0
1002
}
  0
LINE
  5
221CA
330
747D
100
AcDbEntity
  8
部品1
 48
50.0
100
AcDbLine
 10
8423.6
 20
7380.029266579433
 30
0.0
 11
8423.6
 21
7190.029266579429
 31
0.0
  0
LINE
  5
221CB
330
747D
100
AcDbEntity
  8
部品1
 48
50.0
100
AcDbLine
 10
8023.6
 20
7380.029266579431
 30
0.0
 11
8023.6
 21
7190.029266579429
 31
0.0
  0
LINE
  5
221CC
330
747D
100
AcDbEntity
  8
部品1
 48
50.0
100
AcDbLine
 10
8423.599999999998
 20
7190.029266579429
 30
0.0
 11
8023.599999999998
 21
7190.029266579429
 31
0.0
  0
LINE
  5
221CD
330
747D
100
AcDbEntity
  8
部品1
 48
50.0
100
AcDbLine
 10
8423.6
 20
7380.029266579433
 30
0.0
 11
8023.6
 21
7380.029266579431
 31
0.0
  0
LINE
  5
221CF
330
747D
100
AcDbEntity
  8
部品1
 48
50.0
100
AcDbLine
 10
8423.6
 20
6688.029266579433
 30
0.0
 11
8023.6
 21
6688.029266579431
 31
0.0
  0
LINE
  5
221D0
330
747D
100
AcDbEntity
  8
部品1
 48
50.0
100
AcDbLine
 10
8423.599999999998
 20
6498.029266579429
 30
0.0
 11
8023.599999999998
 21
6498.029266579429
 31
0.0
  0
LINE
  5
221D1
330
747D
100
AcDbEntity
  8
部品1
 48
50.0
100
AcDbLine
 10
8423.6
 20
6688.029266579433
 30
0.0
 11
8423.6
 21
6498.029266579429
 31
0.0
  0
LINE
  5
221D2
330
747D
100
AcDbEntity
  8
部品1
 48
50.0
100
AcDbLine
 10
8023.6
 20
6688.029266579431
 30
0.0
 11
8023.6
 21
6498.029266579429
 31
0.0
  0
LINE
  5
221DD
330
747D
100
AcDbEntity
  8
部品1
 48
50.0
100
AcDbLine
 10
9003.599999999998
 20
6059.029266579449
 30
0.0
 11
9003.6
 21
7819.029266579433
 31
0.0
  0
LINE
  5
221DE
330
747D
100
AcDbEntity
  8
部品1
 48
50.0
100
AcDbLine
 10
8893.600000000001
 20
7929.029266579431
 30
0.0
 11
7553.6
 21
7929.029266579433
 31
0.0
  0
LINE
  5
221DF
330
747D
100
AcDbEntity
  8
部品1
 48
50.0
100
AcDbLine
 10
7443.6
 20
6059.029266579434
 30
0.0
 11
7443.6
 21
7819.02926657943
 31
0.0
  0
LINE
  5
221E2
330
747D
100
AcDbEntity
  8
部品1
 48
50.0
100
AcDbLine
 10
8893.600000000001
 20
5949.02926657945
 30
0.0
 11
7553.6
 21
5949.029266579437
 31
0.0
  0
LINE
  5
226E1
330
747D
100
AcDbEntity
  8
部品1
100
AcDbLine
 10
11139.53626266076
 20
3432.504920353327
 30
0.0
 11
5068.551077274505
 21
3432.504920353327
 31
0.0
  0
LINE
  5
226E2
330
747D
100
AcDbEntity
  8
部品1
100
AcDbLine
 10
11139.53626266075
 20
3192.504920353325
 30
0.0
 11
5068.551077274508
 21
3192.504920353326
 31
0.0
  0
LINE
  5
226E3
330
747D
100
AcDbEntity
  8
部品1
100
AcDbLine
 10
5068.55107727451
 20
468.1979507686801
 30
0.0
 11
11139.53626266075
 21
468.1979507686801
 31
0.0
  0
LEADER
  5
226E4
330
747D
100
AcDbEntity
  8
寸法
 48
50.0
100
AcDbLeader
  3
INABA_S50G
 73
     0
 74
     0
 75
     1
 40
102.2727272727273
 41
680.0000000000001
 76
     3
 10
8076.658829260962
 20
2510.408581685625
 30
0.0
 10
8111.012800374322
 20
2920.861392792166
 30
0.0
 10
8236.012800374322
 20
2920.861392792166
 30
0.0
340
226E5
1001
ACAD
1000
DSTYLE
1002
{
1070
   341
1005
0
1070
    40
1040
1.0
1070
   343
1005
0
1070
   344
1005
0
1002
}
  0
MTEXT
  5
226E5
102
{ACAD_REACTORS
330
226E4
102
}
330
747D
100
AcDbEntity
  8
部品1
 62
     7
 48
50.0
100
AcDbMText
 10
8261.012800374322
 20
2996.99775642853
 30
0.0
 40
80.0
 41
0.8
 71
     4
 72
     1
  1
\A1;ナット(市販品)
  7
STYLE2
 73
     1
 44
1.0
1001
ACAD
1000
MTEXTBEGIN
1070
    73
1070
     1
1070
    44
1040
1.0
1070
    74
1070
     0
1000
MTEXTEND
  0
LEADER
  5
226E6
330
747D
100
AcDbEntity
  8
寸法
 48
50.0
100
AcDbLeader
  3
INABA_S50G
 73
     0
 74
     0
 75
     1
 40
102.2727272727273
 41
906.8181818181818
 76
     3
 10
8100.658829260963
 20
2380.656589020762
 30
0.0
 10
8142.530419629803
 20
2735.892310027379
 30
0.0
 10
8267.530419629803
 20
2735.892310027379
 30
0.0
340
226E7
1001
ACAD
1000
DSTYLE
1002
{
1070
   341
1005
0
1070
    40
1040
1.0
1070
   343
1005
0
1070
   344
1005
0
1002
}
  0
MTEXT
  5
226E7
102
{ACAD_REACTORS
330
226E6
102
}
330
747D
100
AcDbEntity
  8
部品1
 62
     7
 48
50.0
100
AcDbMText
 10
8292.530419629803
 20
2812.028673663743
 30
0.0
 40
80.0
 41
0.8
 71
     4
 72
     1
  1
\A1;ワッシャー(市販品)
  7
STYLE2
 73
     1
 44
1.0
1001
ACAD
1000
MTEXTBEGIN
1070
    73
1070
     1
1070
    44
1040
1.0
1070
    74
1070
     0
1000
MTEXTEND
  0
LWPOLYLINE
  5
226E8
330
747D
100
AcDbEntity
  8
部品1
 48
50.0
100
AcDbPolyline
 90
        2
 70
     0
 43
8.0
 10
8253.258829260962
 20
1871.533300576483
 10
8546.961292660347
 20
1871.533300576483
  0
TEXT
  5
226E9
330
747D
100
AcDbEntity
  8
部品1
 48
50.0
100
AcDbText
 10
8257.612413545393
 20
2467.411981338683
 30
0.0
 40
80.0
  1
基礎ボルト(市販品)
  7
STYLE2
100
AcDbText
  0
DIMENSION
  5
226EA
330
747D
100
AcDbEntity
  8
寸法
 48
50.0
100
AcDbDimension
  2
*D43
 10
8755.127429029807
 20
1787.533300576481
 30
0.0
 11
8655.127429029807
 21
1949.533300576483
 31
0.0
 70
    32
  1
180
 71
     5
 42
324.0000000000009
  3
INABA_S40G
100
AcDbAlignedDimension
 13
8253.258829260962
 23
2111.533300576482
 33
0.0
 14
8253.258829260962
 24
1787.533300576481
 34
0.0
 50
90.0
100
AcDbRotatedDimension
1001
ACAD
1000
DSTYLE
1002
{
1070
   174
1070
     0
1070
   272
1070
     1
1070
   279
1070
     1
1070
   288
1070
     0
1070
   341
1005
0
1002
}
  0
DIMENSION
  5
226EB
330
747D
100
AcDbEntity
  8
寸法
 48
50.0
100
AcDbDimension
  2
*D44
 10
8755.127429029807
 20
2111.533300576482
 30
0.0
 11
9031.182095148833
 21
2086.409342972271
 31
0.0
 70
   160
  1
20～25
 71
     5
 42
52.76000000000113
  3
INABA_S40G
100
AcDbAlignedDimension
 13
8066.058829260965
 23
2164.293300576483
 33
0.0
 14
8253.258829260962
 24
2111.533300576482
 34
0.0
 50
90.0
100
AcDbRotatedDimension
1001
ACAD
1000
DSTYLE
1002
{
1070
   174
1070
     0
1070
   272
1070
     1
1070
   279
1070
     1
1070
   288
1070
     0
1070
   341
1005
0
1002
}
  0
MTEXT
  5
226EC
102
{ACAD_REACTORS
330
226ED
102
}
330
747D
100
AcDbEntity
  8
部品1
 62
     7
 48
50.0
100
AcDbMText
 10
8262.203291680283
 20
2375.916626729713
 30
0.0
 40
80.0
 41
0.8
 71
     4
 72
     1
  1
M10X160
  7
STYLE2
 73
     1
 44
1.0
1001
ACAD
1000
MTEXTBEGIN
1070
    73
1070
     1
1070
    44
1040
1.0
1070
    74
1070
     0
1000
MTEXTEND
  0
LEADER
  5
226ED
330
747D
100
AcDbEntity
  8
寸法
 48
50.0
100
AcDbLeader
  3
INABA_S50G
 73
     0
 74
     0
 75
     1
 40
80.0
 41
435.0
 76
     3
 10
8069.658829260964
 20
2160.693300576483
 30
0.0
 10
8112.203291680282
 20
2310.916626729712
 30
0.0
 10
8237.203291680282
 20
2310.916626729712
 30
0.0
340
226EC
1001
ACAD
1000
DSTYLE
1002
{
1070
   341
1005
0
1070
    40
1040
1.0
1070
   343
1005
0
1070
   344
1005
0
1002
}
  0
LINE
  5
226EE
330
747D
100
AcDbEntity
  8
部品1
100
AcDbLine
 10
5068.551077274507
 20
3432.504920353327
 30
0.0
 11
5068.551077274508
 21
468.1979507686801
 31
0.0
  0
LEADER
  5
226EF
330
747D
100
AcDbEntity
  8
寸法
 48
50.0
100
AcDbLeader
  3
INABA_S50G
 73
     0
 75
     1
 40
113.1818181818182
 41
608.6363636363635
 76
     3
 10
8029.395579399013
 20
2061.048973934761
 30
0.0
 10
7895.591750707666
 20
2912.428056291239
 30
0.0
 10
7770.591750707666
 20
2912.428056291239
 30
0.0
340
226F0
1001
ACAD
1000
DSTYLE
1002
{
1070
   341
1005
0
1070
    40
1040
1.0
1070
   343
1005
0
1070
   344
1005
0
1002
}
  0
MTEXT
  5
226F0
102
{ACAD_REACTORS
330
226EF
102
}
330
747D
100
AcDbEntity
  8
寸法
 62
     7
 48
50.0
100
AcDbMText
 10
7745.591750707666
 20
2994.018965382148
 30
0.0
 40
80.0
 41
0.8
 71
     6
 72
     1
  1
\A1;φ70スリーブ
  7
STYLE2
 73
     1
 44
1.0
1001
ACAD
1000
MTEXTBEGIN
1070
    73
1070
     1
1070
    44
1040
1.0
1070
    74
1070
     0
1000
MTEXTEND
  0
LWPOLYLINE
  5
226F1
330
747D
100
AcDbEntity
  8
部品1
 48
50.0
100
AcDbPolyline
 90
        2
 70
     0
 43
8.0
 10
5725.079614250812
 20
1871.533300576483
 10
6139.21951608377
 20
1871.533300576483
  0
TEXT
  5
226F2
330
747D
100
AcDbEntity
  8
部品1
 48
50.0
100
AcDbText
 10
5725.079614250812
 20
1882.772292859738
 30
0.0
 40
80.0
  1
▽G.L
  7
STYLE2
100
AcDbText
  0
DIMENSION
  5
226F3
330
747D
100
AcDbEntity
  8
寸法
 48
50.0
100
AcDbDimension
  2
*D45
 10
5868.79920235131
 20
1327.533300576482
 30
0.0
 11
5868.79920235131
 21
1447.533300576482
 31
0.0
 70
   160
  1
150
 71
     5
 42
240.0
  3
INABA_S40G
100
AcDbAlignedDimension
 13
6011.21951608377
 23
1567.533300576482
 33
0.0
 14
5931.219516083773
 24
1327.533300576482
 34
0.0
 50
90.0
100
AcDbRotatedDimension
1001
ACAD
1000
DSTYLE
1002
{
1070
   174
1070
     0
1070
   272
1070
     1
1070
   279
1070
     1
1070
   288
1070
     0
1070
   341
1005
0
1002
}
  0
LEADER
  5
226F4
330
747D
100
AcDbEntity
  8
寸法
 48
50.0
100
AcDbLeader
  3
INABA_S50G
 71
     0
 73
     0
 75
     1
 40
100.0
 41
225.0
 76
     3
 10
6107.122468435912
 20
1447.533300576482
 30
0.0
 10
5985.284489888575
 20
1184.010606958046
 30
0.0
 10
5860.284489888575
 20
1184.010606958046
 30
0.0
1001
ACAD
1000
DSTYLE
1002
{
1070
    40
1040
1.0
1070
   272
1070
     1
1070
   279
1070
     1
1070
   341
1005
0
1002
}
  0
LEADER
  5
226F5
330
747D
100
AcDbEntity
  8
寸法
 48
50.0
100
AcDbLeader
  3
INABA_S50G
 71
     0
 73
     0
 75
     1
 40
100.0
 41
222.7272727272727
 76
     3
 10
6235.21951608377
 20
1447.533300576482
 30
0.0
 10
6013.40721744601
 20
1003.694454418602
 30
0.0
 10
5888.40721744601
 20
1003.694454418602
 30
0.0
1001
ACAD
1000
DSTYLE
1002
{
1070
    40
1040
1.0
1070
   272
1070
     1
1070
   279
1070
     1
1070
   341
1005
0
1002
}
  0
MTEXT
  5
226F6
102
{ACAD_REACTORS
330
226F7
102
}
330
747D
100
AcDbEntity
  8
寸法
 62
     7
 48
50.0
100
AcDbMText
 10
6049.969461860964
 20
1712.833903393939
 30
0.0
 40
80.0
 41
0.8
 71
     6
 72
     1
  1
\A1;D10@300
  7
STYLE2
 73
     1
 44
1.0
1001
ACAD
1000
MTEXTBEGIN
1070
    73
1070
     1
1070
    44
1040
1.0
1070
    74
1070
     0
1000
MTEXTEND
  0
LEADER
  5
226F7
330
747D
100
AcDbEntity
  8
寸法
 48
50.0
100
AcDbLeader
  3
INABA_S50G
 71
     0
 73
     0
 75
     1
 40
100.0
 41
540.3409090909091
 76
     3
 10
6243.219516083769
 20
1869.660515273605
 30
0.0
 10
6185.237279555071
 20
1648.1901867328
 30
0.0
 10
6060.237279555071
 20
1648.1901867328
 30
0.0
213
-9.732182305893367
223
-4.643716661138569
233
0.0
1001
ACAD
1000
DSTYLE
1002
{
1070
    40
1040
1.0
1070
   272
1070
     1
1070
   279
1070
     1
1070
   341
1005
0
1002
}
  0
LEADER
  5
226F8
330
747D
100
AcDbEntity
  8
寸法
 48
50.0
100
AcDbLeader
  3
INABA_S50G
 71
     0
 73
     0
 75
     1
 40
130.1136363636363
 41
651.1363636363636
 76
     3
 10
6219.219516083769
 20
2111.533300576482
 30
0.0
 10
6106.794935919753
 20
2252.004066033071
 30
0.0
 10
5981.794935919753
 20
2252.004066033071
 30
0.0
1001
ACAD
1000
DSTYLE
1002
{
1070
    40
1040
1.0
1070
   272
1070
     1
1070
   279
1070
     1
1070
   341
1005
0
1002
}
  0
MTEXT
  5
226F9
102
{ACAD_REACTORS
330
226F8
102
}
330
747D
100
AcDbEntity
  8
寸法
 62
     7
 48
50.0
100
AcDbMText
 10
5919.121036600496
 20
2324.049520578525
 30
0.0
 40
80.0
 41
0.8
 71
     6
 72
     1
  1
\A1;金コテ押エ
  7
STYLE2
 73
     1
 44
1.0
1001
ACAD
1000
MTEXTBEGIN
1070
    73
1070
     1
1070
    44
1040
1.0
1070
    74
1070
     0
1000
MTEXTEND
  0
DIMENSION
  5
226FA
330
747D
100
AcDbEntity
  8
寸法
 48
50.0
100
AcDbDimension
  2
*D46
 10
5404.182277522028
 20
1327.533300576482
 30
0.0
 11
5404.182277522028
 21
1699.073450232483
 31
0.0
 70
   160
  1
540
 71
     5
 42
784.0
  3
INABA_S40G
100
AcDbAlignedDimension
 13
6139.21951608377
 23
2111.533300576482
 33
0.0
 14
5931.219516083773
 24
1327.533300576482
 34
0.0
 50
90.0
100
AcDbRotatedDimension
1001
ACAD
1000
DSTYLE
1002
{
1070
   174
1070
     0
1070
   272
1070
     1
1070
   279
1070
     1
1070
   288
1070
     0
1070
   341
1005
0
1002
}
  0
MTEXT
  5
226FB
102
{ACAD_REACTORS
330
226F5
102
}
330
747D
100
AcDbEntity
  8
寸法
 62
     7
 48
50.0
100
AcDbMText
 10
5868.40721744601
 20
1063.694454418602
 30
0.0
 40
80.0
 41
0.8
 71
     6
 72
     1
  1
D13
  7
STYLE2
 73
     1
 44
1.0
1001
ACAD
1000
MTEXTBEGIN
1070
    73
1070
     1
1070
    44
1040
1.0
1070
    74
1070
     0
1000
MTEXTEND
  0
MTEXT
  5
226FC
102
{ACAD_REACTORS
330
226F4
102
}
330
747D
100
AcDbEntity
  8
寸法
 62
     7
 48
50.0
100
AcDbMText
 10
5840.284489888575
 20
1244.010606958046
 30
0.0
 40
80.0
 41
0.8
 71
     6
 72
     1
  1
D10
  7
STYLE2
 73
     1
 44
1.0
1001
ACAD
1000
MTEXTBEGIN
1070
    73
1070
     1
1070
    44
1040
1.0
1070
    74
1070
     0
1000
MTEXTEND
  0
DIMENSION
  5
226FD
330
747D
100
AcDbEntity
  8
寸法
 48
50.0
100
AcDbDimension
  2
*D47
 10
6459.219516083769
 20
789.1036625713223
 30
0.0
 11
6215.122757405545
 21
789.1036625713223
 31
0.0
 70
   160
  1
300
 71
     5
 42
448.0
  3
INABA_S40G
100
AcDbAlignedDimension
 13
6011.21951608377
 23
1199.533300576482
 33
0.0
 14
6459.219516083769
 24
1199.533300576482
 34
0.0
100
AcDbRotatedDimension
1001
ACAD
1000
DSTYLE
1002
{
1070
   174
1070
     0
1070
   272
1070
     1
1070
   279
1070
     1
1070
   288
1070
     0
1070
   341
1005
0
1002
}
  0
MTEXT
  5
226FE
102
{ACAD_REACTORS
330
226FF
102
}
330
747D
100
AcDbEntity
  8
寸法
 62
     7
 48
50.0
100
AcDbMText
 10
7772.234756916025
 20
2633.334693474634
 30
0.0
 40
80.0
 41
0.8
 71
     6
 72
     1
  1
アンカープレート {\fArial|b0|i0|c0|p32;U}
  7
STYLE2
 73
     1
 44
1.0
1001
ACAD
1000
MTEXTBEGIN
1070
    73
1070
     1
1070
    44
1040
1.0
1070
    74
1070
     0
1000
MTEXTEND
  0
LEADER
  5
226FF
330
747D
100
AcDbEntity
  8
寸法
 48
50.0
100
AcDbLeader
  3
INABA_S50G
 73
     0
 75
     1
 40
106.3636363636363
 41
903.5235024184547
 76
     3
 10
7970.658829260964
 20
2181.093300576484
 30
0.0
 10
7922.234756916025
 20
2555.152875292816
 30
0.0
 10
7797.234756916025
 20
2555.152875292816
 30
0.0
340
226FE
1001
ACAD
1000
DSTYLE
1002
{
1070
   341
1005
0
1070
    40
1040
1.0
1070
   343
1005
0
1070
   344
1005
0
1002
}
  0
LINE
  5
22700
330
747D
100
AcDbEntity
  8
細線
 48
50.0
100
AcDbLine
 10
6259.219516083771
 20
1949.906193244313
 30
0.0
 11
6331.21951608377
 21
2021.906193244313
 31
0.0
  0
ARC
  5
22701
330
747D
100
AcDbEntity
  8
部品1
 48
50.0
100
AcDbCircle
 10
6235.21951608377
 20
1971.787729970728
 30
0.0
 40
24.0
100
AcDbArc
 50
0.0
 51
180.0
  0
CIRCLE
  5
22702
330
747D
100
AcDbEntity
  8
部品1
 48
50.0
100
AcDbCircle
 10
6235.21951608377
 20
1971.787729970728
 30
0.0
 40
8.0
  0
LINE
  5
22703
330
747D
100
AcDbEntity
  8
部品1
 48
50.0
100
AcDbLine
 10
6139.21951608377
 20
1567.533300576482
 30
0.0
 11
6139.21951608377
 21
2111.533300576482
 31
0.0
  0
LINE
  5
22704
330
747D
100
AcDbEntity
  8
部品1
 48
50.0
100
AcDbLine
 10
6331.21951608377
 20
2111.533300576482
 30
0.0
 11
6331.21951608377
 21
1567.533300576482
 31
0.0
  0
MTEXT
  5
22705
102
{ACAD_REACTORS
330
2270A
102
}
330
747D
100
AcDbEntity
  8
寸法
 62
     7
 48
50.0
100
AcDbMText
 10
6414.105453111163
 20
1972.80086187541
 30
0.0
 40
80.0
 41
0.8
 71
     4
 72
     1
  1
D13
  7
STYLE2
 73
     1
 44
1.0
1001
ACAD
1000
MTEXTBEGIN
1070
    73
1070
     1
1070
    44
1040
1.0
1070
    74
1070
     0
1000
MTEXTEND
  0
LEADER
  5
22706
330
747D
100
AcDbEntity
  8
寸法
 48
50.0
100
AcDbLeader
  3
INABA_S50G
 71
     0
 73
     0
 74
     0
 75
     1
 40
100.0
 41
225.0
 76
     3
 10
6363.122468435912
 20
1447.533300576482
 30
0.0
 10
6417.547175890454
 20
1352.13623163351
 30
0.0
 10
6542.547175890454
 20
1352.13623163351
 30
0.0
1001
ACAD
1000
DSTYLE
1002
{
1070
    40
1040
1.0
1070
   272
1070
     1
1070
   279
1070
     1
1070
   341
1005
0
1002
}
  0
LEADER
  5
22707
330
747D
100
AcDbEntity
  8
寸法
 48
50.0
100
AcDbLeader
  3
INABA_S50G
 71
     0
 73
     0
 74
     0
 75
     1
 40
100.0
 41
540.3409090909091
 76
     3
 10
6309.164685096944
 20
1430.792770162957
 30
0.0
 10
6427.957971945019
 20
1089.161952168059
 30
0.0
 10
6552.957971945019
 20
1089.161952168059
 30
0.0
213
0.0
223
-1.022262676269383
233
0.0
1001
ACAD
1000
DSTYLE
1002
{
1070
    40
1040
1.0
1070
   272
1070
     1
1070
   279
1070
     1
1070
   341
1005
0
1002
}
  0
MTEXT
  5
22708
102
{ACAD_REACTORS
330
22706
102
}
330
747D
100
AcDbEntity
  8
寸法
 62
     7
 48
50.0
100
AcDbMText
 10
6562.547175890454
 20
1412.13623163351
 30
0.0
 40
80.0
 41
0.8
 71
     4
 72
     1
  1
D10
  7
STYLE2
 73
     1
 44
1.0
1001
ACAD
1000
MTEXTBEGIN
1070
    73
1070
     1
1070
    44
1040
1.0
1070
    74
1070
     0
1000
MTEXTEND
  0
LWPOLYLINE
  5
22709
330
747D
100
AcDbEntity
  8
部品1
 48
50.0
100
AcDbPolyline
 90
        2
 70
     0
 43
8.0
 10
6331.21951608377
 20
1871.533300576483
 10
6745.359417916727
 20
1871.533300576483
  0
LEADER
  5
2270A
330
747D
100
AcDbEntity
  8
寸法
 48
50.0
100
AcDbLeader
  3
INABA_S50G
 71
     0
 73
     0
 74
     0
 75
     1
 40
100.0
 41
222.7272727272727
 76
     3
 10
6235.21951608377
 20
1971.787729970728
 30
0.0
 10
6269.105453111164
 20
1912.80086187541
 30
0.0
 10
6394.105453111164
 20
1912.80086187541
 30
0.0
1001
ACAD
1000
DSTYLE
1002
{
1070
    40
1040
1.0
1070
   272
1070
     1
1070
   279
1070
     1
1070
   341
1005
0
1002
}
  0
LINE
  5
2270B
330
747D
100
AcDbEntity
  8
細線
 48
50.0
100
AcDbLine
 10
6011.219516083762
 20
1486.380046338653
 30
0.0
 11
6092.372770321598
 21
1567.533300576482
 31
0.0
  0
LINE
  5
2270C
330
747D
100
AcDbEntity
  8
細線
 48
50.0
100
AcDbLine
 10
6219.085363561173
 20
1505.660515273605
 30
0.0
 11
6243.219516083776
 21
1529.794667796203
 31
0.0
  0
LINE
  5
2270D
330
747D
100
AcDbEntity
  8
細線
 48
50.0
100
AcDbLine
 10
6126.017380500843
 20
1439.533300576482
 30
0.0
 11
6243.21951608377
 21
1556.735436159408
 31
0.0
  0
LINE
  5
2270E
330
747D
100
AcDbEntity
  8
部品1
 48
50.0
100
AcDbLine
 10
6011.21951608377
 20
1327.533300576482
 30
0.0
 11
6011.21951608377
 21
1567.533300576482
 31
0.0
  0
LINE
  5
2270F
330
747D
100
AcDbEntity
  8
細線
 48
50.0
100
AcDbLine
 10
6368.484295769714
 20
1439.533300576482
 30
0.0
 11
6459.21951608377
 21
1530.268520890541
 31
0.0
  0
LINE
  5
22710
330
747D
100
AcDbEntity
  8
細線
 48
50.0
100
AcDbLine
 10
6341.543527406497
 20
1439.533300576482
 30
0.0
 11
6459.21951608377
 21
1557.209289253748
 31
0.0
  0
LINE
  5
22711
330
747D
100
AcDbEntity
  8
部品1
 48
50.0
100
AcDbLine
 10
6459.21951608377
 20
1567.533300576482
 30
0.0
 11
6459.21951608377
 21
1327.533300576482
 31
0.0
  0
LINE
  5
22712
330
747D
100
AcDbEntity
  8
部品1
 48
50.0
100
AcDbLine
 10
6259.219516083775
 20
1447.533300576482
 30
0.0
 11
6259.219516083771
 21
1971.787729970728
 31
0.0
  0
LINE
  5
22713
330
747D
100
AcDbEntity
  8
部品1
 48
50.0
100
AcDbLine
 10
6243.219516083776
 20
1447.533300576482
 30
0.0
 11
6243.219516083763
 21
1971.787729970728
 31
0.0
  0
LINE
  5
22714
330
747D
100
AcDbEntity
  8
細線
 48
50.0
100
AcDbLine
 10
6227.219516083771
 20
1486.853899432994
 30
0.0
 11
6243.219516083776
 21
1502.853899432994
 31
0.0
  0
LINE
  5
22715
330
747D
100
AcDbEntity
  8
細線
 48
50.0
100
AcDbLine
 10
6216.402355579784
 20
1199.533300576482
 30
0.0
 11
6250.699852210967
 21
1327.533300576482
 31
0.0
  0
LINE
  5
22716
330
747D
100
AcDbEntity
  8
部品1
 48
50.0
100
AcDbLine
 10
6539.219516083774
 20
1199.533300576482
 30
0.0
 11
5931.219516083771
 21
1199.533300576482
 31
0.0
  0
LINE
  5
22717
330
747D
100
AcDbEntity
  8
部品1
 48
50.0
100
AcDbLine
 10
6067.21951608377
 20
1423.533300576482
 30
0.0
 11
6403.21951608377
 21
1423.533300576482
 31
0.0
  0
LINE
  5
22718
330
747D
100
AcDbEntity
  8
部品1
 48
50.0
100
AcDbLine
 10
6067.21951608377
 20
1439.533300576482
 30
0.0
 11
6403.21951608377
 21
1439.533300576482
 31
0.0
  0
LINE
  5
22719
330
747D
100
AcDbEntity
  8
部品1
 48
50.0
100
AcDbLine
 10
6539.219516083774
 20
1327.533300576482
 30
0.0
 11
5931.219516083771
 21
1327.533300576482
 31
0.0
  0
CIRCLE
  5
2271A
330
747D
100
AcDbEntity
  8
部品1
 48
50.0
100
AcDbCircle
 10
6235.21951608377
 20
1447.533300576482
 30
0.0
 40
8.0
  0
LINE
  5
2271B
330
747D
100
AcDbEntity
  8
細線
 48
50.0
100
AcDbLine
 10
6229.543527406503
 20
1327.533300576482
 30
0.0
 11
6325.543527406503
 21
1423.533300576482
 31
0.0
  0
LINE
  5
2271C
330
747D
100
AcDbEntity
  8
細線
 48
50.0
100
AcDbLine
 10
6058.626265685286
 20
1199.533300576482
 30
0.0
 11
6092.923762316469
 21
1327.533300576482
 31
0.0
  0
LINE
  5
2271D
330
747D
100
AcDbEntity
  8
細線
 48
50.0
100
AcDbLine
 10
6137.514310632531
 20
1199.53330057648
 30
0.0
 11
6171.811807263715
 21
1327.53330057648
 31
0.0
  0
LINE
  5
2271E
330
747D
100
AcDbEntity
  8
細線
 48
50.0
100
AcDbLine
 10
5979.738220738028
 20
1199.53330057648
 30
0.0
 11
6014.03571736921
 21
1327.53330057648
 31
0.0
  0
LINE
  5
2271F
330
747D
100
AcDbEntity
  8
部品1
 48
50.0
100
AcDbLine
 10
5931.219516083771
 20
1199.533300576482
 30
0.0
 11
5931.219516083771
 21
1327.533300576482
 31
0.0
  0
LINE
  5
22720
330
747D
100
AcDbEntity
  8
細線
 48
50.0
100
AcDbLine
 10
6065.057046303632
 20
1223.533300576482
 30
0.0
 11
6071.48782692198
 21
1199.533300576482
 31
0.0
  0
LINE
  5
22721
330
747D
100
AcDbEntity
  8
細線
 48
50.0
100
AcDbLine
 10
5986.169001356381
 20
1223.533300576482
 30
0.0
 11
5992.599781974727
 21
1199.533300576482
 31
0.0
  0
LINE
  5
22722
330
747D
100
AcDbEntity
  8
細線
 48
50.0
100
AcDbLine
 10
6222.833136198137
 20
1223.533300576482
 30
0.0
 11
6229.263916816483
 21
1199.533300576482
 31
0.0
  0
LINE
  5
22723
330
747D
100
AcDbEntity
  8
細線
 48
50.0
100
AcDbLine
 10
6143.945091250884
 20
1223.533300576482
 30
0.0
 11
6150.375871869231
 21
1199.533300576482
 31
0.0
  0
LINE
  5
22724
330
747D
100
AcDbEntity
  8
細線
 48
50.0
100
AcDbLine
 10
6040.958148864053
 20
1327.533300576482
 30
0.0
 11
6136.958148864053
 21
1423.533300576482
 31
0.0
  0
LINE
  5
22725
330
747D
100
AcDbEntity
  8
細線
 48
50.0
100
AcDbLine
 10
6014.017380500843
 20
1327.533300576482
 30
0.0
 11
6110.017380500842
 21
1423.533300576482
 31
0.0
  0
LINE
  5
22726
330
747D
100
AcDbEntity
  8
部品1
 48
50.0
100
AcDbLine
 10
6067.21951608377
 20
1439.533300576482
 30
0.0
 11
6067.21951608377
 21
1423.533300576482
 31
0.0
  0
LINE
  5
22727
330
747D
100
AcDbEntity
  8
細線
 48
50.0
100
AcDbLine
 10
6007.60493675087
 20
1303.533300576482
 30
0.0
 11
6001.174156132522
 21
1327.533300576482
 31
0.0
  0
LINE
  5
22728
330
747D
100
AcDbEntity
  8
細線
 48
50.0
100
AcDbLine
 10
5931.21951608377
 20
1312.873221542262
 30
0.0
 11
5935.147672421965
 21
1327.533300576482
 31
0.0
  0
LINE
  5
22729
330
747D
100
AcDbEntity
  8
部品1
 48
50.0
100
AcDbLine
 10
6227.219516083771
 20
1505.660515273605
 30
0.0
 11
6211.21951608377
 21
1505.660515273605
 31
0.0
  0
CIRCLE
  5
2272A
330
747D
100
AcDbEntity
  8
部品1
 48
50.0
100
AcDbCircle
 10
6107.21951608377
 20
1447.533300576482
 30
0.0
 40
8.0
  0
LINE
  5
2272B
330
747D
100
AcDbEntity
  8
細線
 48
50.0
100
AcDbLine
 10
6179.898917227259
 20
1439.533300576482
 30
0.0
 11
6211.21951608377
 21
1470.853899432994
 31
0.0
  0
ARC
  5
2272C
330
747D
100
AcDbEntity
  8
部品1
 48
50.0
100
AcDbCircle
 10
6235.21951608377
 20
1447.533300576482
 30
0.0
 40
24.0
100
AcDbArc
 50
180.0
 51
199.4712206344927
  0
LINE
  5
2272D
330
747D
100
AcDbEntity
  8
細線
 48
50.0
100
AcDbLine
 10
6086.492981698121
 20
1303.533300576482
 30
0.0
 11
6080.062201079775
 21
1327.533300576482
 31
0.0
  0
LINE
  5
2272E
330
747D
100
AcDbEntity
  8
細線
 48
50.0
100
AcDbLine
 10
6165.381026645373
 20
1303.533300576482
 30
0.0
 11
6158.950246027028
 21
1327.533300576482
 31
0.0
  0
LINE
  5
2272F
330
747D
100
AcDbEntity
  8
細線
 48
50.0
100
AcDbLine
 10
6067.898917227259
 20
1327.533300576482
 30
0.0
 11
6163.898917227259
 21
1423.533300576482
 31
0.0
  0
LINE
  5
22730
330
747D
100
AcDbEntity
  8
部品1
 48
50.0
100
AcDbLine
 10
6211.21951608377
 20
1505.660515273605
 30
0.0
 11
6211.21951608377
 21
1447.533300576482
 31
0.0
  0
LINE
  5
22731
330
747D
100
AcDbEntity
  8
細線
 48
50.0
100
AcDbLine
 10
6152.958148864054
 20
1439.533300576482
 30
0.0
 11
6211.21951608377
 21
1497.794667796201
 31
0.0
  0
LINE
  5
22732
330
747D
100
AcDbEntity
  8
部品1
 48
50.0
100
AcDbLine
 10
6227.219516083771
 20
1505.660515273605
 30
0.0
 11
6227.219516083771
 21
1447.533300576482
 31
0.0
  0
LINE
  5
22733
330
747D
100
AcDbEntity
  8
部品1
 48
50.0
100
AcDbLine
 10
6539.219516083774
 20
1327.533300576482
 30
0.0
 11
6539.219516083774
 21
1199.533300576482
 31
0.0
  0
LINE
  5
22734
330
747D
100
AcDbEntity
  8
細線
 48
50.0
100
AcDbLine
 10
6453.066490421524
 20
1199.533300576482
 30
0.0
 11
6487.363987052709
 21
1327.53330057648
 31
0.0
  0
LINE
  5
22735
330
747D
100
AcDbEntity
  8
細線
 48
50.0
100
AcDbLine
 10
6295.290400527029
 20
1199.533300576482
 30
0.0
 11
6329.587897158216
 21
1327.53330057648
 31
0.0
  0
LINE
  5
22736
330
747D
100
AcDbEntity
  8
細線
 48
50.0
100
AcDbLine
 10
6374.178445474278
 20
1199.53330057648
 30
0.0
 11
6408.475942105463
 21
1327.53330057648
 31
0.0
  0
LINE
  5
22737
330
747D
100
AcDbEntity
  8
細線
 48
50.0
100
AcDbLine
 10
6380.609226092628
 20
1223.533300576482
 30
0.0
 11
6387.040006710976
 21
1199.533300576482
 31
0.0
  0
LINE
  5
22738
330
747D
100
AcDbEntity
  8
細線
 48
50.0
100
AcDbLine
 10
6301.721181145382
 20
1223.533300576482
 30
0.0
 11
6308.151961763729
 21
1199.533300576482
 31
0.0
  0
LINE
  5
22739
330
747D
100
AcDbEntity
  8
細線
 48
50.0
100
AcDbLine
 10
6459.497271039875
 20
1223.533300576482
 30
0.0
 11
6465.928051658223
 21
1199.533300576482
 31
0.0
  0
LINE
  5
2273A
330
747D
100
AcDbEntity
  8
細線
 48
50.0
100
AcDbLine
 10
6538.385315987122
 20
1223.533300576482
 30
0.0
 11
6539.21951608377
 21
1220.420023432118
 31
0.0
  0
LINE
  5
2273B
330
747D
100
AcDbEntity
  8
細線
 48
50.0
100
AcDbLine
 10
6531.954535368773
 20
1199.53330057648
 30
0.0
 11
6539.21951608377
 21
1226.64657772087
 31
0.0
  0
LINE
  5
2273C
330
747D
100
AcDbEntity
  8
細線
 48
50.0
100
AcDbLine
 10
6395.425064132918
 20
1439.533300576482
 30
0.0
 11
6459.21951608377
 21
1503.327752527333
 31
0.0
  0
CIRCLE
  5
2273D
330
747D
100
AcDbEntity
  8
部品1
 48
50.0
100
AcDbCircle
 10
6363.21951608377
 20
1447.533300576482
 30
0.0
 40
8.0
  0
ARC
  5
2273E
330
747D
100
AcDbEntity
  8
部品1
 48
50.0
100
AcDbCircle
 10
6235.21951608377
 20
1447.533300576482
 30
0.0
 40
24.0
100
AcDbArc
 50
340.5287793655072
 51
0.0
  0
LINE
  5
2273F
330
747D
100
AcDbEntity
  8
細線
 48
50.0
100
AcDbLine
 10
6244.269071592627
 20
1303.533300576482
 30
0.0
 11
6237.838290974279
 21
1327.533300576482
 31
0.0
  0
LINE
  5
22740
330
747D
100
AcDbEntity
  8
細線
 48
50.0
100
AcDbLine
 10
6323.157116539872
 20
1303.533300576482
 30
0.0
 11
6316.726335921526
 21
1327.533300576482
 31
0.0
  0
LINE
  5
22741
330
747D
100
AcDbEntity
  8
細線
 48
50.0
100
AcDbLine
 10
6256.484295769713
 20
1327.533300576482
 30
0.0
 11
6352.484295769714
 21
1423.533300576482
 31
0.0
  0
LINE
  5
22742
330
747D
100
AcDbEntity
  8
細線
 48
50.0
100
AcDbLine
 10
6283.425064132917
 20
1327.533300576482
 30
0.0
 11
6379.425951978054
 21
1423.534188421621
 31
0.0
  0
LINE
  5
22743
330
747D
100
AcDbEntity
  8
部品1
 48
50.0
100
AcDbLine
 10
6403.21951608377
 20
1439.533300576482
 30
0.0
 11
6403.21951608377
 21
1423.533300576482
 31
0.0
  0
LINE
  5
22744
330
747D
100
AcDbEntity
  8
細線
 48
50.0
100
AcDbLine
 10
6480.933206434364
 20
1303.533300576482
 30
0.0
 11
6474.502425816017
 21
1327.533300576482
 31
0.0
  0
LINE
  5
22745
330
747D
100
AcDbEntity
  8
細線
 48
50.0
100
AcDbLine
 10
6445.069674312164
 20
1327.533300576482
 30
0.0
 11
6459.21951608377
 21
1341.683142348089
 31
0.0
  0
LINE
  5
22746
330
747D
100
AcDbEntity
  8
細線
 48
50.0
100
AcDbLine
 10
6402.045161487118
 20
1303.533300576482
 30
0.0
 11
6395.614380868771
 21
1327.533300576482
 31
0.0
  0
LINE
  5
22747
330
747D
100
AcDbEntity
  8
細線
 48
50.0
100
AcDbLine
 10
6139.21951608377
 20
1641.32081470186
 30
0.0
 11
6243.219516083776
 21
1745.320814701863
 31
0.0
  0
LINE
  5
22748
330
747D
100
AcDbEntity
  8
細線
 48
50.0
100
AcDbLine
 10
6139.21951608377
 20
1668.261583065068
 30
0.0
 11
6243.21951608377
 21
1772.261583065068
 31
0.0
  0
LINE
  5
22749
330
747D
100
AcDbEntity
  8
細線
 48
50.0
100
AcDbLine
 10
6139.21951608377
 20
1614.380046338653
 30
0.0
 11
6243.219516083776
 21
1718.380046338653
 31
0.0
  0
LINE
  5
2274A
330
747D
100
AcDbEntity
  8
細線
 48
50.0
100
AcDbLine
 10
6227.219516083771
 20
1917.906193244313
 30
0.0
 11
6243.21951608377
 21
1933.906193244313
 31
0.0
  0
LINE
  5
2274B
330
747D
100
AcDbEntity
  8
細線
 48
50.0
100
AcDbLine
 10
6227.219516083771
 20
1944.84696160752
 30
0.0
 11
6243.21951608377
 21
1960.84696160752
 31
0.0
  0
LINE
  5
2274C
330
747D
100
AcDbEntity
  8
部品1
 48
50.0
100
AcDbLine
 10
6011.21951608377
 20
1567.533300576482
 30
0.0
 11
6139.21951608377
 21
1567.533300576482
 31
0.0
  0
LINE
  5
2274D
330
747D
100
AcDbEntity
  8
細線
 48
50.0
100
AcDbLine
 10
6011.219516083762
 20
1513.320814701858
 30
0.0
 11
6065.432001958395
 21
1567.533300576482
 31
0.0
  0
LINE
  5
2274E
330
747D
100
AcDbEntity
  8
細線
 48
50.0
100
AcDbLine
 10
6011.219516083762
 20
1540.261583065068
 30
0.0
 11
6038.491233595184
 21
1567.533300576482
 31
0.0
  0
LINE
  5
2274F
330
747D
100
AcDbEntity
  8
部品1
 48
50.0
100
AcDbLine
 10
6227.219516083771
 20
1913.660515273605
 30
0.0
 11
6211.21951608377
 21
1913.660515273608
 31
0.0
  0
LINE
  5
22750
330
747D
100
AcDbEntity
  8
細線
 48
50.0
100
AcDbLine
 10
6139.21951608377
 20
1829.906193244313
 30
0.0
 11
6222.973838113063
 21
1913.660515273605
 31
0.0
  0
LINE
  5
22751
330
747D
100
AcDbEntity
  8
細線
 48
50.0
100
AcDbLine
 10
6139.21951608377
 20
1856.84696160752
 30
0.0
 11
6211.21951608377
 21
1928.84696160752
 31
0.0
  0
LINE
  5
22752
330
747D
100
AcDbEntity
  8
部品1
 48
50.0
100
AcDbLine
 10
6211.21951608377
 20
1913.660515273608
 30
0.0
 11
6211.21951608377
 21
1971.787729970728
 31
0.0
  0
LINE
  5
22753
330
747D
100
AcDbEntity
  8
細線
 48
50.0
100
AcDbLine
 10
6139.21951608377
 20
1883.787729970728
 30
0.0
 11
6211.21951608377
 21
1955.787729970728
 31
0.0
  0
LINE
  5
22754
330
747D
100
AcDbEntity
  8
部品1
 48
50.0
100
AcDbLine
 10
6227.219516083771
 20
1913.660515273605
 30
0.0
 11
6227.219516083771
 21
1971.787729970728
 31
0.0
  0
LINE
  5
22755
330
747D
100
AcDbEntity
  8
細線
 48
50.0
100
AcDbLine
 10
6259.219516083775
 20
1734.380046338653
 30
0.0
 11
6331.219516083763
 21
1806.380046338653
 31
0.0
  0
LINE
  5
22756
330
747D
100
AcDbEntity
  8
部品1
 48
50.0
100
AcDbLine
 10
6331.21951608377
 20
1567.533300576482
 30
0.0
 11
6459.21951608377
 21
1567.533300576482
 31
0.0
  0
LINE
  5
22757
330
747D
100
AcDbEntity
  8
細線
 48
50.0
100
AcDbLine
 10
6259.219516083775
 20
1545.794667796204
 30
0.0
 11
6331.219516083763
 21
1617.794667796198
 31
0.0
  0
LINE
  5
22758
330
747D
100
AcDbEntity
  8
細線
 48
50.0
100
AcDbLine
 10
6259.219516083775
 20
1572.735436159411
 30
0.0
 11
6331.219516083763
 21
1644.735436159408
 31
0.0
  0
LINE
  5
22759
330
747D
100
AcDbEntity
  8
細線
 48
50.0
100
AcDbLine
 10
6259.219516083775
 20
1518.853899432994
 30
0.0
 11
6331.219516083763
 21
1590.853899432994
 31
0.0
  0
LINE
  5
2275A
330
747D
100
AcDbEntity
  8
細線
 48
50.0
100
AcDbLine
 10
6259.219516083771
 20
1788.261583065068
 30
0.0
 11
6331.21951608377
 21
1860.261583065068
 31
0.0
  0
LINE
  5
2275B
330
747D
100
AcDbEntity
  8
細線
 48
50.0
100
AcDbLine
 10
6259.219516083775
 20
1761.320814701863
 30
0.0
 11
6331.219516083763
 21
1833.320814701858
 31
0.0
  0
MTEXT
  5
2275C
102
{ACAD_REACTORS
330
22707
102
}
330
747D
100
AcDbEntity
  8
寸法
 62
     7
 48
50.0
100
AcDbMText
 10
6572.95797194502
 20
1150.184214844329
 30
0.0
 40
80.0
 41
0.8
 71
     4
 72
     1
  1
\A1;D10@300
  7
STYLE2
 73
     1
 44
1.0
1001
ACAD
1000
MTEXTBEGIN
1070
    73
1070
     1
1070
    44
1040
1.0
1070
    74
1070
     0
1000
MTEXTEND
  0
DIMENSION
  5
2275D
330
747D
100
AcDbEntity
  8
寸法
 48
50.0
100
AcDbDimension
  2
*D42
 10
6139.21951608377
 20
2431.533300576483
 30
0.0
 11
6246.445846428966
 21
2531.201108492863
 31
0.0
 70
   160
  1
120\P195
 71
     5
 42
192.0
  3
INABA_S40G
100
AcDbAlignedDimension
 13
6331.21951608377
 23
2111.533300576482
 33
0.0
 14
6139.21951608377
 24
2111.533300576482
 34
0.0
100
AcDbRotatedDimension
1001
ACAD
1000
DSTYLE
1002
{
1070
   174
1070
     0
1070
   272
1070
     1
1070
   279
1070
     1
1070
   288
1070
     0
1070
   341
1005
0
1002
}
  0
LINE
  5
2275E
330
747D
100
AcDbEntity
  8
部品1
 48
50.0
100
AcDbLine
 10
6139.21951608377
 20
2111.533300576482
 30
0.0
 11
6331.21951608377
 21
2111.533300576482
 31
0.0
  0
LINE
  5
2275F
330
747D
100
AcDbEntity
  8
細線
 48
50.0
100
AcDbLine
 10
6139.21951608377
 20
2072.37310851318
 30
0.0
 11
6178.379708147073
 21
2111.533300576482
 31
0.0
  0
LINE
  5
22760
330
747D
100
AcDbEntity
  8
細線
 48
50.0
100
AcDbLine
 10
6139.21951608377
 20
2045.432340149972
 30
0.0
 11
6205.320476510279
 21
2111.533300576482
 31
0.0
  0
LINE
  5
22761
330
747D
100
AcDbEntity
  8
細線
 48
50.0
100
AcDbLine
 10
6139.21951608377
 20
2099.313876876387
 30
0.0
 11
6151.438939783865
 21
2111.533300576482
 31
0.0
  0
LINE
  5
22762
330
747D
100
AcDbEntity
  8
細線
 48
50.0
100
AcDbLine
 10
6258.772223349756
 20
1976.399668873504
 30
0.0
 11
6331.21951608377
 21
2048.84696160752
 31
0.0
  0
LINE
  5
22763
330
747D
100
AcDbEntity
  8
細線
 48
50.0
100
AcDbLine
 10
6247.71193858624
 20
1992.280152473199
 30
0.0
 11
6331.21951608377
 21
2075.787729970728
 31
0.0
  0
LINE
  5
22764
330
747D
100
AcDbEntity
  8
細線
 48
50.0
100
AcDbLine
 10
8123.658829260966
 20
1952.661583065071
 30
0.0
 11
8253.258829260962
 21
2082.261583065069
 31
0.0
  0
LINE
  5
22765
330
747D
100
AcDbEntity
  8
部品1
100
AcDbLine
 10
8253.258829260962
 20
1567.533300576482
 30
0.0
 11
8253.258829260962
 21
2111.533300576482
 31
0.0
  0
LINE
  5
22766
330
747D
100
AcDbEntity
  8
部品1
 48
50.0
100
AcDbLine
 10
7839.258829260963
 20
1567.533300576482
 30
0.0
 11
7839.258829260963
 21
2111.533300576482
 31
0.0
  0
LINE
  5
22767
330
747D
100
AcDbEntity
  8
細線
 48
50.0
100
AcDbLine
 10
7839.258829260963
 20
1883.787729970728
 30
0.0
 11
7997.658829260963
 21
2042.187729970725
 31
0.0
  0
LINE
  5
22768
330
747D
100
AcDbEntity
  8
細線
 48
50.0
100
AcDbLine
 10
7839.258829260963
 20
1856.84696160752
 30
0.0
 11
7997.658829260963
 21
2015.246961607518
 31
0.0
  0
LINE
  5
22769
330
747D
100
AcDbEntity
  8
細線
 48
50.0
100
AcDbLine
 10
7839.258829260963
 20
1829.906193244313
 30
0.0
 11
7997.658829260959
 21
1988.306193244305
 31
0.0
  0
TEXT
  5
2276A
330
747D
100
AcDbEntity
  8
部品1
 48
50.0
100
AcDbText
 10
7425.118927428008
 20
1882.772292859738
 30
0.0
 40
80.0
  1
▽G.L
  7
STYLE2
100
AcDbText
  0
LINE
  5
2276B
330
747D
100
AcDbEntity
  8
部品1
100
AcDbLine
 10
8069.658829260964
 20
1886.533300576482
 30
0.0
 11
8069.658829260959
 21
2160.693300576483
 31
0.0
  0
LINE
  5
2276C
330
747D
100
AcDbEntity
  8
部品1
100
AcDbLine
 10
8051.658829260963
 20
1886.533300576482
 30
0.0
 11
8051.65882926096
 21
2160.693300576483
 31
0.0
  0
LINE
  5
2276D
330
747D
100
AcDbEntity
  8
細線
 48
50.0
100
AcDbLine
 10
8123.658829260966
 20
1898.780046338641
 30
0.0
 11
8253.258829260962
 21
2028.380046338632
 31
0.0
  0
LINE
  5
2276E
330
747D
100
AcDbEntity
  8
細線
 48
50.0
100
AcDbLine
 10
8123.658829260966
 20
1925.720814701854
 30
0.0
 11
8253.258829260962
 21
2055.32081470185
 31
0.0
  0
LINE
  5
2276F
330
747D
100
AcDbEntity
  8
部品1
100
AcDbLine
 10
8123.658829260964
 20
1787.533300576482
 30
0.0
 11
8123.658829260964
 21
2111.533300576482
 31
0.0
  0
LINE
  5
22770
330
747D
100
AcDbEntity
  8
部品1
100
AcDbLine
 10
7997.658829260958
 20
1787.533300576482
 30
0.0
 11
7997.658829260963
 21
2111.533300576482
 31
0.0
  0
LINE
  5
22771
330
747D
100
AcDbEntity
  8
細線
 48
50.0
100
AcDbLine
 10
7839.258829260963
 20
1641.32081470186
 30
0.0
 11
7997.658829260956
 21
1799.720814701849
 31
0.0
  0
LINE
  5
22772
330
747D
100
AcDbEntity
  8
細線
 48
50.0
100
AcDbLine
 10
7839.258829260963
 20
1614.380046338653
 30
0.0
 11
8012.4120834988
 21
1787.53330057648
 31
0.0
  0
LINE
  5
22773
330
747D
100
AcDbEntity
  8
細線
 48
50.0
100
AcDbLine
 10
7839.258829260963
 20
1668.261583065068
 30
0.0
 11
7997.658829260956
 21
1826.661583065063
 31
0.0
  0
LINE
  5
22774
330
747D
100
AcDbEntity
  8
細線
 48
50.0
100
AcDbLine
 10
7767.938230404452
 20
1327.533300576482
 30
0.0
 11
8253.258829260962
 21
1812.85389943299
 31
0.0
  0
LINE
  5
22775
330
747D
100
AcDbEntity
  8
細線
 48
50.0
100
AcDbLine
 10
7740.997462041247
 20
1327.533300576482
 30
0.0
 11
8253.258829260966
 21
1839.794667796196
 31
0.0
  0
LINE
  5
22776
330
747D
100
AcDbEntity
  8
細線
 48
50.0
100
AcDbLine
 10
7714.056693678037
 20
1327.533300576482
 30
0.0
 11
8253.258829260962
 21
1866.735436159408
 31
0.0
  0
LINE
  5
22777
330
747D
100
AcDbEntity
  8
部品1
 48
50.0
100
AcDbLine
 10
8461.258829260966
 20
1327.533300576482
 30
0.0
 11
7631.258829260966
 21
1327.533300576482
 31
0.0
  0
LINE
  5
22778
330
747D
100
AcDbEntity
  8
部品1
 48
50.0
100
AcDbLine
 10
8461.258829260966
 20
1199.533300576482
 30
0.0
 11
7631.258829260966
 21
1199.533300576482
 31
0.0
  0
LINE
  5
22779
330
747D
100
AcDbEntity
  8
細線
 48
50.0
100
AcDbLine
 10
7711.258829260959
 20
1486.380046338653
 30
0.0
 11
7792.412083498792
 21
1567.533300576482
 31
0.0
  0
LINE
  5
2277A
330
747D
100
AcDbEntity
  8
部品1
 48
50.0
100
AcDbLine
 10
7711.258829260962
 20
1327.533300576482
 30
0.0
 11
7711.258829260962
 21
1567.533300576482
 31
0.0
  0
LINE
  5
2277B
330
747D
100
AcDbEntity
  8
細線
 48
50.0
100
AcDbLine
 10
7758.665578862481
 20
1199.533300576482
 30
0.0
 11
7792.963075493663
 21
1327.533300576482
 31
0.0
  0
LINE
  5
2277C
330
747D
100
AcDbEntity
  8
部品1
 48
50.0
100
AcDbLine
 10
7631.258829260966
 20
1199.533300576482
 30
0.0
 11
7631.258829260966
 21
1327.533300576482
 31
0.0
  0
LINE
  5
2277D
330
747D
100
AcDbEntity
  8
細線
 48
50.0
100
AcDbLine
 10
7679.77753391522
 20
1199.53330057648
 30
0.0
 11
7714.075030546407
 21
1327.53330057648
 31
0.0
  0
LINE
  5
2277E
330
747D
100
AcDbEntity
  8
細線
 48
50.0
100
AcDbLine
 10
7837.553623809727
 20
1199.53330057648
 30
0.0
 11
7871.851120440908
 21
1327.53330057648
 31
0.0
  0
LINE
  5
2277F
330
747D
100
AcDbEntity
  8
細線
 48
50.0
100
AcDbLine
 10
7686.208314533574
 20
1223.533300576482
 30
0.0
 11
7692.639095151921
 21
1199.533300576482
 31
0.0
  0
LINE
  5
22780
330
747D
100
AcDbEntity
  8
細線
 48
50.0
100
AcDbLine
 10
7843.984404428081
 20
1223.533300576482
 30
0.0
 11
7850.415185046426
 21
1199.533300576482
 31
0.0
  0
LINE
  5
22781
330
747D
100
AcDbEntity
  8
細線
 48
50.0
100
AcDbLine
 10
7765.096359480827
 20
1223.533300576482
 30
0.0
 11
7771.527140099173
 21
1199.533300576482
 31
0.0
  0
LINE
  5
22782
330
747D
100
AcDbEntity
  8
細線
 48
50.0
100
AcDbLine
 10
7631.258829260963
 20
1312.873221542262
 30
0.0
 11
7635.186985599159
 21
1327.533300576482
 31
0.0
  0
LINE
  5
22783
330
747D
100
AcDbEntity
  8
細線
 48
50.0
100
AcDbLine
 10
7707.644249928065
 20
1303.533300576482
 30
0.0
 11
7701.213469309718
 21
1327.533300576482
 31
0.0
  0
LINE
  5
22784
330
747D
100
AcDbEntity
  8
細線
 48
50.0
100
AcDbLine
 10
7865.420339822569
 20
1303.533300576482
 30
0.0
 11
7858.989559204221
 21
1327.533300576482
 31
0.0
  0
LINE
  5
22785
330
747D
100
AcDbEntity
  8
細線
 48
50.0
100
AcDbLine
 10
7786.532294875316
 20
1303.533300576482
 30
0.0
 11
7780.101514256971
 21
1327.533300576482
 31
0.0
  0
LWPOLYLINE
  5
22786
330
747D
100
AcDbEntity
  8
部品1
 48
50.0
100
AcDbPolyline
 90
        2
 70
     0
 43
8.0
 10
7425.118927428008
 20
1871.533300576483
 10
7839.258829260963
 20
1871.533300576483
  0
LINE
  5
22787
330
747D
100
AcDbEntity
  8
細線
 48
50.0
100
AcDbLine
 10
7711.258829260959
 20
1513.320814701858
 30
0.0
 11
7765.471315135588
 21
1567.533300576482
 31
0.0
  0
LINE
  5
22788
330
747D
100
AcDbEntity
  8
部品1
 48
50.0
100
AcDbLine
 10
7711.258829260962
 20
1567.533300576482
 30
0.0
 11
7839.258829260963
 21
1567.533300576482
 31
0.0
  0
LINE
  5
22789
330
747D
100
AcDbEntity
  8
細線
 48
50.0
100
AcDbLine
 10
7711.258829260959
 20
1540.261583065068
 30
0.0
 11
7738.530546772378
 21
1567.533300576482
 31
0.0
  0
LINE
  5
2278A
330
747D
100
AcDbEntity
  8
細線
 48
50.0
100
AcDbLine
 10
7956.523608946906
 20
1327.533300576482
 30
0.0
 11
8253.258829260962
 21
1624.268520890535
 31
0.0
  0
LINE
  5
2278B
330
747D
100
AcDbEntity
  8
細線
 48
50.0
100
AcDbLine
 10
7983.464377310112
 20
1327.533300576482
 30
0.0
 11
8253.258829260962
 21
1597.32775252734
 31
0.0
  0
LINE
  5
2278C
330
747D
100
AcDbEntity
  8
細線
 48
50.0
100
AcDbLine
 10
7929.582840583698
 20
1327.533300576482
 30
0.0
 11
8253.258829260962
 21
1651.209289253748
 31
0.0
  0
LINE
  5
2278D
330
747D
100
AcDbEntity
  8
細線
 48
50.0
100
AcDbLine
 10
8145.108987489356
 20
1327.533300576482
 30
0.0
 11
8381.258829260962
 21
1563.68314234809
 31
0.0
  0
LINE
  5
2278E
330
747D
100
AcDbEntity
  8
細線
 48
50.0
100
AcDbLine
 10
8172.049755852567
 20
1327.533300576482
 30
0.0
 11
8381.258829260962
 21
1536.742373984875
 31
0.0
  0
LINE
  5
2278F
330
747D
100
AcDbEntity
  8
部品1
 48
50.0
100
AcDbLine
 10
8381.258829260962
 20
1567.533300576482
 30
0.0
 11
8381.258829260962
 21
1327.533300576482
 31
0.0
  0
LINE
  5
22790
330
747D
100
AcDbEntity
  8
細線
 48
50.0
100
AcDbLine
 10
8198.990524215773
 20
1327.533300576482
 30
0.0
 11
8381.258829260962
 21
1509.801605621678
 31
0.0
  0
LINE
  5
22791
330
747D
100
AcDbEntity
  8
細線
 48
50.0
100
AcDbLine
 10
8074.217758651474
 20
1199.53330057648
 30
0.0
 11
8108.515255282656
 21
1327.53330057648
 31
0.0
  0
LINE
  5
22792
330
747D
100
AcDbEntity
  8
細線
 48
50.0
100
AcDbLine
 10
7916.44166875698
 20
1199.533300576482
 30
0.0
 11
7950.739165388161
 21
1327.533300576482
 31
0.0
  0
LINE
  5
22793
330
747D
100
AcDbEntity
  8
細線
 48
50.0
100
AcDbLine
 10
7995.329713704224
 20
1199.533300576482
 30
0.0
 11
8029.62721033541
 21
1327.53330057648
 31
0.0
  0
LINE
  5
22794
330
747D
100
AcDbEntity
  8
細線
 48
50.0
100
AcDbLine
 10
8153.105803598716
 20
1199.533300576482
 30
0.0
 11
8187.403300229901
 21
1327.53330057648
 31
0.0
  0
LINE
  5
22795
330
747D
100
AcDbEntity
  8
細線
 48
50.0
100
AcDbLine
 10
8001.760494322578
 20
1223.533300576482
 30
0.0
 11
8008.191274940925
 21
1199.533300576482
 31
0.0
  0
LINE
  5
22796
330
747D
100
AcDbEntity
  8
細線
 48
50.0
100
AcDbLine
 10
7922.87244937533
 20
1223.533300576482
 30
0.0
 11
7929.303229993678
 21
1199.533300576482
 31
0.0
  0
LINE
  5
22797
330
747D
100
AcDbEntity
  8
細線
 48
50.0
100
AcDbLine
 10
8159.53658421707
 20
1223.533300576482
 30
0.0
 11
8165.967364835415
 21
1199.533300576482
 31
0.0
  0
LINE
  5
22798
330
747D
100
AcDbEntity
  8
細線
 48
50.0
100
AcDbLine
 10
8080.648539269823
 20
1223.533300576482
 30
0.0
 11
8087.07931988817
 21
1199.533300576482
 31
0.0
  0
LINE
  5
22799
330
747D
100
AcDbEntity
  8
細線
 48
50.0
100
AcDbLine
 10
8023.196429717067
 20
1303.533300576482
 30
0.0
 11
8016.76564909872
 21
1327.533300576482
 31
0.0
  0
LINE
  5
2279A
330
747D
100
AcDbEntity
  8
細線
 48
50.0
100
AcDbLine
 10
7944.30838476982
 20
1303.533300576482
 30
0.0
 11
7937.877604151473
 21
1327.533300576482
 31
0.0
  0
LINE
  5
2279B
330
747D
100
AcDbEntity
  8
細線
 48
50.0
100
AcDbLine
 10
8102.084474664312
 20
1303.533300576482
 30
0.0
 11
8095.653694045967
 21
1327.533300576482
 31
0.0
  0
LINE
  5
2279C
330
747D
100
AcDbEntity
  8
細線
 48
50.0
100
AcDbLine
 10
8180.972519611557
 20
1303.533300576482
 30
0.0
 11
8174.541738993211
 21
1327.533300576482
 31
0.0
  0
LINE
  5
2279D
330
747D
100
AcDbEntity
  8
部品1
 48
50.0
100
AcDbLine
 10
8461.258829260966
 20
1327.533300576482
 30
0.0
 11
8461.258829260966
 21
1199.533300576482
 31
0.0
  0
LINE
  5
2279E
330
747D
100
AcDbEntity
  8
細線
 48
50.0
100
AcDbLine
 10
8389.769938440458
 20
1199.53330057648
 30
0.0
 11
8424.067435071643
 21
1327.53330057648
 31
0.0
  0
LINE
  5
2279F
330
747D
100
AcDbEntity
  8
細線
 48
50.0
100
AcDbLine
 10
8231.993848545965
 20
1199.53330057648
 30
0.0
 11
8266.291345177139
 21
1327.533300576482
 31
0.0
  0
LINE
  5
227A0
330
747D
100
AcDbEntity
  8
細線
 48
50.0
100
AcDbLine
 10
8310.881893493213
 20
1199.533300576479
 30
0.0
 11
8345.179390124398
 21
1327.53330057648
 31
0.0
  0
LINE
  5
227A1
330
747D
100
AcDbEntity
  8
細線
 48
50.0
100
AcDbLine
 10
8238.424629164313
 20
1223.533300576482
 30
0.0
 11
8244.855409782671
 21
1199.533300576482
 31
0.0
  0
LINE
  5
227A2
330
747D
100
AcDbEntity
  8
細線
 48
50.0
100
AcDbLine
 10
8317.312674111564
 20
1223.533300576481
 30
0.0
 11
8323.743454729909
 21
1199.53330057648
 31
0.0
  0
LINE
  5
227A3
330
747D
100
AcDbEntity
  8
細線
 48
50.0
100
AcDbLine
 10
8396.200719058809
 20
1223.533300576481
 30
0.0
 11
8402.631499677157
 21
1199.53330057648
 31
0.0
  0
LINE
  5
227A4
330
747D
100
AcDbEntity
  8
細線
 48
50.0
100
AcDbLine
 10
8259.860564558797
 20
1303.533300576482
 30
0.0
 11
8253.42978394045
 21
1327.533300576482
 31
0.0
  0
LINE
  5
227A5
330
747D
100
AcDbEntity
  8
細線
 48
50.0
100
AcDbLine
 10
8338.748609506053
 20
1303.53330057648
 30
0.0
 11
8332.317828887706
 21
1327.53330057648
 31
0.0
  0
LINE
  5
227A6
330
747D
100
AcDbEntity
  8
細線
 48
50.0
100
AcDbLine
 10
8417.636654453298
 20
1303.53330057648
 30
0.0
 11
8411.205873834951
 21
1327.53330057648
 31
0.0
  0
LINE
  5
227A7
330
747D
100
AcDbEntity
  8
部品1
100
AcDbLine
 10
8123.658829260964
 20
1787.53330057648
 30
0.0
 11
7997.658829260958
 21
1787.53330057648
 31
0.0
  0
LINE
  5
227A8
330
747D
100
AcDbEntity
  8
部品1
100
AcDbLine
 10
8105.658829260963
 20
1868.533300576482
 30
0.0
 11
8105.658829260963
 21
1886.533300576482
 31
0.0
  0
ARC
  5
227A9
330
747D
100
AcDbEntity
  8
部品1
100
AcDbCircle
 10
8069.658829260964
 20
1886.533300576482
 30
0.0
 40
18.0
100
AcDbArc
 50
180.0
 51
270.0
  0
LINE
  5
227AA
330
747D
100
AcDbEntity
  8
部品1
100
AcDbLine
 10
8069.658829260964
 20
1868.533300576482
 30
0.0
 11
8105.658829260963
 21
1868.533300576482
 31
0.0
  0
LINE
  5
227AB
330
747D
100
AcDbEntity
  8
部品1
100
AcDbLine
 10
8069.658829260964
 20
1886.533300576482
 30
0.0
 11
8105.658829260963
 21
1886.533300576482
 31
0.0
  0
LINE
  5
227AC
330
747D
100
AcDbEntity
  8
部品1
 48
50.0
100
AcDbLine
 10
8253.258829260962
 20
1567.533300576482
 30
0.0
 11
8381.258829260962
 21
1567.533300576482
 31
0.0
  0
LINE
  5
227AD
330
747D
100
AcDbEntity
  8
部品1
100
AcDbLine
 10
7859.058829260965
 20
2201.533300576482
 30
0.0
 11
7896.858829260963
 21
2201.533300576482
 31
0.0
  0
LINE
  5
227AE
330
747D
100
AcDbEntity
  8
細線
 48
50.0
100
AcDbLine
 10
7839.258829260963
 20
2072.37310851318
 30
0.0
 11
7878.419021324269
 21
2111.533300576482
 31
0.0
  0
LINE
  5
227AF
330
747D
100
AcDbEntity
  8
細線
 48
50.0
100
AcDbLine
 10
7839.258829260963
 20
2045.432340149972
 30
0.0
 11
7905.359789687475
 21
2111.533300576482
 31
0.0
  0
LINE
  5
227B0
330
747D
100
AcDbEntity
  8
部品1
 48
50.0
100
AcDbLine
 10
7839.258829260963
 20
2111.533300576482
 30
0.0
 11
8253.258829260966
 21
2111.533300576482
 31
0.0
  0
TEXT
  5
227B1
330
747D
100
AcDbEntity
  8
部品1
 48
50.0
100
AcDbText
 10
7412.812732681472
 20
2442.093821676958
 30
0.0
 40
80.0
  1
※(別売)
  7
STYLE2
100
AcDbText
  0
LINE
  5
227B2
330
747D
100
AcDbEntity
  8
部品1
100
AcDbLine
 10
7856.358829260964
 20
2190.733300576482
 30
0.0
 11
7856.358829260964
 21
2198.833300576483
 31
0.0
  0
ARC
  5
227B3
330
747D
100
AcDbEntity
  8
部品1
100
AcDbCircle
 10
7859.058829260965
 20
2198.833300576483
 30
0.0
 40
2.7
100
AcDbArc
 50
90.0
 51
180.0
  0
ARC
  5
227B4
330
747D
100
AcDbEntity
  8
部品1
100
AcDbCircle
 10
7848.258829260963
 20
2185.925204279191
 30
0.0
 40
2.7
100
AcDbArc
 50
104.0362434679067
 51
180.0
  0
LINE
  5
227B5
330
747D
100
AcDbEntity
  8
部品1
100
AcDbLine
 10
7847.603983073364
 20
2188.544589029582
 30
0.0
 11
7856.358829260964
 21
2190.733300576482
 31
0.0
  0
ARC
  5
227B6
330
747D
100
AcDbEntity
  8
部品1
100
AcDbCircle
 10
7848.258829260963
 20
2123.793300576483
 30
0.0
 40
2.7
100
AcDbArc
 50
180.0
 51
270.0
  0
LINE
  5
227B7
330
747D
100
AcDbEntity
  8
細線
 48
50.0
100
AcDbLine
 10
7839.258829260963
 20
2099.313876876387
 30
0.0
 11
7851.478252961058
 21
2111.533300576482
 31
0.0
  0
LINE
  5
227B8
330
747D
100
AcDbEntity
  8
部品1
100
AcDbLine
 10
7848.258829260963
 20
2121.093300576483
 30
0.0
 11
7859.95882926096
 21
2121.093300576483
 31
0.0
  0
LINE
  5
227B9
330
747D
100
AcDbEntity
  8
部品1
100
AcDbLine
 10
7845.558829260965
 20
2123.793300576483
 30
0.0
 11
7845.558829260965
 21
2185.925204279191
 31
0.0
  0
LINE
  5
227BA
330
747D
100
AcDbEntity
  8
部品1
100
AcDbLine
 10
8004.218829260956
 20
2121.093300576483
 30
0.0
 11
8205.558829260956
 21
2121.093300576483
 31
0.0
  0
LINE
  5
227BB
330
747D
100
AcDbEntity
  8
部品1
100
AcDbLine
 10
7896.858829260963
 20
2201.533300576482
 30
0.0
 11
7896.858829260963
 21
2209.633300576482
 31
0.0
  0
LINE
  5
227BC
330
747D
100
AcDbEntity
  8
部品1
100
AcDbLine
 10
7947.258829260964
 20
2220.433300576479
 30
0.0
 11
7947.258829260964
 21
2169.133300576483
 31
0.0
  0
LINE
  5
227BD
330
747D
100
AcDbEntity
  8
部品1
100
AcDbLine
 10
7970.658829260964
 20
2181.093300576483
 30
0.0
 11
7998.818829260963
 21
2181.093300576483
 31
0.0
  0
ARC
  5
227BE
330
747D
100
AcDbEntity
  8
部品1
100
AcDbCircle
 10
7970.658829260964
 20
2178.393300576483
 30
0.0
 40
2.7
100
AcDbArc
 50
90.0
 51
180.0
  0
ARC
  5
227BF
330
747D
100
AcDbEntity
  8
部品1
100
AcDbCircle
 10
7998.818829260963
 20
2178.393300576483
 30
0.0
 40
2.7
100
AcDbArc
 50
0.0
 51
90.0
  0
LINE
  5
227C0
330
747D
100
AcDbEntity
  8
部品1
100
AcDbLine
 10
7989.558829260964
 20
2166.433300576482
 30
0.0
 11
7989.558829260964
 21
2123.793300576483
 31
0.0
  0
LINE
  5
227C1
330
747D
100
AcDbEntity
  8
部品1
100
AcDbLine
 10
7975.158829260964
 20
2121.093300576483
 30
0.0
 11
7986.858829260964
 21
2121.093300576483
 31
0.0
  0
ARC
  5
227C2
330
747D
100
AcDbEntity
  8
部品1
100
AcDbCircle
 10
8004.218829260956
 20
2123.793300576483
 30
0.0
 40
2.7
100
AcDbArc
 50
180.0
 51
270.0
  0
ARC
  5
227C3
330
747D
100
AcDbEntity
  8
部品1
100
AcDbCircle
 10
7986.858829260964
 20
2123.793300576483
 30
0.0
 40
2.7
100
AcDbArc
 50
270.0
 51
0.0
  0
LINE
  5
227C4
330
747D
100
AcDbEntity
  8
部品1
100
AcDbLine
 10
7947.258829260964
 20
2169.133300576483
 30
0.0
 11
7986.858829260964
 21
2169.133300576483
 31
0.0
  0
ARC
  5
227C5
330
747D
100
AcDbEntity
  8
部品1
100
AcDbCircle
 10
7986.858829260964
 20
2166.433300576482
 30
0.0
 40
2.7
100
AcDbArc
 50
0.0
 51
90.0
  0
LINE
  5
227C6
330
747D
100
AcDbEntity
  8
部品1
100
AcDbLine
 10
8001.518829260964
 20
2178.393300576483
 30
0.0
 11
8001.518829260961
 21
2123.793300576483
 31
0.0
  0
LINE
  5
227C7
330
747D
100
AcDbEntity
  8
部品1
100
AcDbLine
 10
7967.958829260962
 20
2178.393300576483
 30
0.0
 11
7967.958829260962
 21
2161.293300576483
 31
0.0
  0
LINE
  5
227C8
330
747D
100
AcDbEntity
  8
細線
100
AcDbLine
 10
8066.058829260965
 20
2121.093300576483
 30
0.0
 11
8066.058829260965
 21
2164.293300576483
 31
0.0
  0
LINE
  5
227C9
330
747D
100
AcDbEntity
  8
細線
100
AcDbLine
 10
8055.258829260965
 20
2121.093300576483
 30
0.0
 11
8055.258829260964
 21
2164.293300576483
 31
0.0
  0
LINE
  5
227CA
330
747D
100
AcDbEntity
  8
部品1
100
AcDbLine
 10
8051.658829260963
 20
2160.693300576483
 30
0.0
 11
8069.658829260964
 21
2160.693300576483
 31
0.0
  0
LINE
  5
227CB
330
747D
100
AcDbEntity
  8
部品1
100
AcDbLine
 10
8055.258829260964
 20
2164.293300576483
 30
0.0
 11
8066.058829260965
 21
2164.293300576483
 31
0.0
  0
ELLIPSE
  5
227CC
330
747D
100
AcDbEntity
  8
部品1
 48
50.0
100
AcDbEllipse
 10
8060.658829260963
 20
2380.656589020755
 30
0.0
 11
40.0
 21
0.0
 31
0.0
210
0.0
220
0.0
230
1.0
 40
0.4
 41
0.0
 42
6.283185307179586
  0
ELLIPSE
  5
227CD
330
747D
100
AcDbEntity
  8
部品1
 48
50.0
100
AcDbEllipse
 10
8060.658829260963
 20
2371.056589020756
 30
0.0
 11
40.0
 21
0.0
 31
0.0
210
0.0
220
0.0
230
1.0
 40
0.4
 41
3.141592653589793
 42
6.283185307179586
  0
LINE
  5
227CE
330
747D
100
AcDbEntity
  8
部品1
 48
50.0
100
AcDbLine
 10
8020.658829260964
 20
2380.656589020755
 30
0.0
 11
8020.658829260964
 21
2371.056589020755
 31
0.0
  0
ARC
  5
227CF
330
747D
100
AcDbEntity
  8
部品1
100
AcDbCircle
 10
7944.558829260964
 20
2220.433300576479
 30
0.0
 40
2.7
100
AcDbArc
 50
0.0
 51
90.0
  0
ARC
  5
227D0
330
747D
100
AcDbEntity
  8
部品1
100
AcDbCircle
 10
7902.258829260964
 20
2220.433300576482
 30
0.0
 40
2.7
100
AcDbArc
 50
90.0
 51
180.0
  0
LINE
  5
227D1
330
747D
100
AcDbEntity
  8
部品1
100
AcDbLine
 10
7899.558829260965
 20
2212.333300576483
 30
0.0
 11
7899.558829260965
 21
2212.333300576483
 31
0.0
  0
LINE
  5
227D2
330
747D
100
AcDbEntity
  8
部品1
100
AcDbLine
 10
7899.558829260965
 20
2212.333300576483
 30
0.0
 11
7899.558829260965
 21
2220.433300576482
 31
0.0
  0
LINE
  5
227D3
330
747D
100
AcDbEntity
  8
部品1
100
AcDbLine
 10
7902.258829260964
 20
2223.133300576483
 30
0.0
 11
7944.558829260964
 21
2223.133300576479
 31
0.0
  0
ARC
  5
227D4
330
747D
100
AcDbEntity
  8
部品1
100
AcDbCircle
 10
7899.558829260965
 20
2209.633300576482
 30
0.0
 40
2.7
100
AcDbArc
 50
90.0
 51
180.0
  0
ELLIPSE
  5
227D5
330
747D
100
AcDbEntity
  8
部品1
 48
50.0
100
AcDbEllipse
 10
8060.658829260963
 20
2380.656589020755
 30
0.0
 11
18.4
 21
0.0
 31
0.0
210
0.0
220
0.0
230
1.0
 40
0.3478260869565217
 41
0.0
 42
6.283185307179586
  0
LINE
  5
227D6
330
747D
100
AcDbEntity
  8
部品1
 48
50.0
100
AcDbLine
 10
8100.658829260963
 20
2371.056589020755
 30
0.0
 11
8100.658829260963
 21
2380.656589020755
 31
0.0
  0
LINE
  5
227D7
330
747D
100
AcDbEntity
  8
部品1
 48
50.0
100
AcDbLine
 10
8028.658829260963
 20
2502.408581685625
 30
0.0
 11
8044.658829260963
 21
2494.408581685625
 31
0.0
  0
LINE
  5
227D8
330
747D
100
AcDbEntity
  8
部品1
 48
50.0
100
AcDbLine
 10
8028.658829260963
 20
2470.408581685625
 30
0.0
 11
8044.658829260963
 21
2462.408581685625
 31
0.0
  0
LINE
  5
227D9
330
747D
100
AcDbEntity
  8
部品1
 48
50.0
100
AcDbLine
 10
8028.658829260963
 20
2502.408581685625
 30
0.0
 11
8044.658829260963
 21
2510.408581685625
 31
0.0
  0
LINE
  5
227DA
330
747D
100
AcDbEntity
  8
部品1
 48
50.0
100
AcDbLine
 10
8028.658829260963
 20
2470.408581685625
 30
0.0
 11
8028.658829260963
 21
2502.408581685625
 31
0.0
  0
LINE
  5
227DB
330
747D
100
AcDbEntity
  8
部品1
 48
50.0
100
AcDbLine
 10
8044.658829260963
 20
2510.408581685625
 30
0.0
 11
8076.658829260962
 21
2510.408581685625
 31
0.0
  0
ELLIPSE
  5
227DC
330
747D
100
AcDbEntity
  8
細線
 48
50.0
100
AcDbEllipse
 10
8060.658829260963
 20
2502.408581685625
 30
0.0
 11
14.76670786606846
 21
0.0
 31
0.0
210
0.0
220
0.0
230
1.0
 40
0.2071254069489396
 41
0.0
 42
6.283185307179586
  0
LINE
  5
227DD
330
747D
100
AcDbEntity
  8
部品1
 48
50.0
100
AcDbLine
 10
8044.658829260963
 20
2462.408581685625
 30
0.0
 11
8076.658829260962
 21
2462.408581685625
 31
0.0
  0
LINE
  5
227DE
330
747D
100
AcDbEntity
  8
部品1
 48
50.0
100
AcDbLine
 10
8076.658829260962
 20
2462.408581685625
 30
0.0
 11
8092.658829260964
 21
2470.408581685625
 31
0.0
  0
LINE
  5
227DF
330
747D
100
AcDbEntity
  8
部品1
 48
50.0
100
AcDbLine
 10
8044.658829260963
 20
2494.408581685625
 30
0.0
 11
8076.658829260962
 21
2494.408581685625
 31
0.0
  0
LINE
  5
227E0
330
747D
100
AcDbEntity
  8
部品1
 48
50.0
100
AcDbLine
 10
8076.658829260962
 20
2494.408581685625
 30
0.0
 11
8092.658829260964
 21
2502.408581685625
 31
0.0
  0
LINE
  5
227E1
330
747D
100
AcDbEntity
  8
細線
 48
50.0
100
AcDbLine
 10
8076.658829260962
 20
2462.408581685625
 30
0.0
 11
8076.658829260962
 21
2494.408581685625
 31
0.0
  0
LINE
  5
227E2
330
747D
100
AcDbEntity
  8
部品1
 48
50.0
100
AcDbLine
 10
8092.658829260964
 20
2470.408581685625
 30
0.0
 11
8092.658829260964
 21
2502.408581685625
 31
0.0
  0
LINE
  5
227E3
330
747D
100
AcDbEntity
  8
細線
 48
50.0
100
AcDbLine
 10
8044.658829260963
 20
2462.408581685625
 30
0.0
 11
8044.658829260963
 21
2494.408581685625
 31
0.0
  0
LINE
  5
227E4
330
747D
100
AcDbEntity
  8
部品1
 48
50.0
100
AcDbLine
 10
8076.658829260962
 20
2510.408581685625
 30
0.0
 11
8092.658829260964
 21
2502.408581685625
 31
0.0
  0
TEXT
  5
227E5
330
747D
100
AcDbEntity
  8
部品1
100
AcDbText
 10
7761.431078452893
 20
3252.952988401899
 30
0.0
 40
120.0
  1
基礎詳細
  7
STYLE2
100
AcDbText
  0
LINE
  5
227E6
330
747D
100
AcDbEntity
  8
部品1
100
AcDbLine
 10
11139.53626266075
 20
468.1979507686801
 30
0.0
 11
11139.53626266076
 21
3432.504920353327
 31
0.0
  0
LINE
  5
227E7
330
747D
100
AcDbEntity
  8
細線
100
AcDbLine
 10
10147.4280952405
 20
1871.533300576482
 30
0.0
 11
9952.794761563721
 21
2066.166634253265
 31
0.0
  0
LINE
  5
227E8
330
747D
100
AcDbEntity
  8
部品1
100
AcDbLine
 10
9952.794761563721
 20
2111.533300576482
 30
0.0
 11
10432.79476156372
 21
2111.533300576482
 31
0.0
  0
LINE
  5
227E9
330
747D
100
AcDbEntity
  8
細線
 48
50.0
100
AcDbLine
 10
10086.86564600698
 20
1651.834384923132
 30
0.0
 11
10121.16314263816
 21
1779.834384923131
 31
0.0
  0
LINE
  5
227EA
330
747D
100
AcDbEntity
  8
部品1
100
AcDbLine
 10
9832.79476156372
 20
1651.834384923128
 30
0.0
 11
10552.79476156372
 21
1651.834384923132
 31
0.0
  0
LINE
  5
227EB
330
747D
100
AcDbEntity
  8
部品1
100
AcDbLine
 10
9832.79476156372
 20
1779.834384923132
 30
0.0
 11
10552.79476156372
 21
1779.834384923135
 31
0.0
  0
LINE
  5
227EC
330
747D
100
AcDbEntity
  8
細線
100
AcDbLine
 10
10013.71340705696
 20
1779.834384923132
 30
0.0
 11
10105.4123227103
 21
1871.533300576482
 31
0.0
  0
LWPOLYLINE
  5
227ED
330
747D
100
AcDbEntity
  8
部品1
 48
50.0
100
AcDbPolyline
 90
        2
 70
     0
 43
12.0
 10
9568.183499463332
 20
1871.533300576482
 10
10769.27580259496
 20
1871.533300576482
  0
LINE
  5
227EE
330
747D
100
AcDbEntity
  8
細線
100
AcDbLine
 10
10096.51640699507
 20
1871.533300576482
 30
0.0
 11
9952.794761563721
 21
2015.254946007836
 31
0.0
  0
TEXT
  5
227EF
330
747D
100
AcDbEntity
  8
部品1
 48
50.0
100
AcDbText
 10
9188.676674805218
 20
1604.733559939173
 30
0.0
 40
80.0
  1
ボルトの出
 50
90.0
  7
STYLE2
100
AcDbText
  0
LINE
  5
227F0
330
747D
100
AcDbEntity
  8
部品1
100
AcDbLine
 10
9952.794761563721
 20
1871.533300576482
 30
0.0
 11
9952.794761563721
 21
2111.533300576482
 31
0.0
  0
LINE
  5
227F1
330
747D
100
AcDbEntity
  8
細線
 48
50.0
100
AcDbLine
 10
9929.089556112481
 20
1651.834384923131
 30
0.0
 11
9963.387052743662
 21
1779.834384923131
 31
0.0
  0
LINE
  5
227F2
330
747D
100
AcDbEntity
  8
細線
 48
50.0
100
AcDbLine
 10
10007.97760105973
 20
1651.834384923132
 30
0.0
 11
10042.27509769091
 21
1779.834384923132
 31
0.0
  0
LINE
  5
227F3
330
747D
100
AcDbEntity
  8
細線
 48
50.0
100
AcDbLine
 10
9850.201511165233
 20
1651.834384923132
 30
0.0
 11
9884.499007796419
 21
1779.834384923132
 31
0.0
  0
LINE
  5
227F4
330
747D
100
AcDbEntity
  8
部品1
100
AcDbLine
 10
9832.79476156372
 20
1651.834384923128
 30
0.0
 11
9832.79476156372
 21
1871.533300576482
 31
0.0
  0
LINE
  5
227F5
330
747D
100
AcDbEntity
  8
細線
 48
50.0
100
AcDbLine
 10
9935.520336730832
 20
1675.834384923132
 30
0.0
 11
9941.951117349182
 21
1651.834384923132
 31
0.0
  0
LINE
  5
227F6
330
747D
100
AcDbEntity
  8
細線
 48
50.0
100
AcDbLine
 10
9856.632291783583
 20
1675.834384923132
 30
0.0
 11
9863.063072401928
 21
1651.834384923132
 31
0.0
  0
LINE
  5
227F7
330
747D
100
AcDbEntity
  8
細線
 48
50.0
100
AcDbLine
 10
10014.40838167808
 20
1675.834384923132
 30
0.0
 11
10020.83916229643
 21
1651.834384923132
 31
0.0
  0
LINE
  5
227F8
330
747D
100
AcDbEntity
  8
細線
 48
50.0
100
AcDbLine
 10
10093.29642662533
 20
1675.834384923132
 30
0.0
 11
10099.72720724368
 21
1651.834384923132
 31
0.0
  0
LINE
  5
227F9
330
747D
100
AcDbEntity
  8
細線
 48
50.0
100
AcDbLine
 10
9878.068227178072
 20
1755.834384923132
 30
0.0
 11
9871.637446559724
 21
1779.834384923132
 31
0.0
  0
LINE
  5
227FA
330
747D
100
AcDbEntity
  8
細線
 48
50.0
100
AcDbLine
 10
10035.84431707257
 20
1755.834384923132
 30
0.0
 11
10029.41353645423
 21
1779.834384923132
 31
0.0
  0
LINE
  5
227FB
330
747D
100
AcDbEntity
  8
細線
 48
50.0
100
AcDbLine
 10
9956.956272125321
 20
1755.834384923132
 30
0.0
 11
9950.525491506974
 21
1779.834384923132
 31
0.0
  0
LINE
  5
227FC
330
747D
100
AcDbEntity
  8
細線
100
AcDbLine
 10
9945.83115606305
 20
1779.834384923132
 30
0.0
 11
10037.5300717164
 21
1871.533300576482
 31
0.0
  0
LINE
  5
227FD
330
747D
100
AcDbEntity
  8
細線
100
AcDbLine
 10
9979.772281560007
 20
1779.834384923132
 30
0.0
 11
10071.47119721335
 21
1871.533300576482
 31
0.0
  0
LINE
  5
227FE
330
747D
100
AcDbEntity
  8
細線
100
AcDbLine
 10
10368.04541097071
 20
1871.533300576482
 30
0.0
 11
10128.04541097071
 21
2111.533300576482
 31
0.0
  0
LINE
  5
227FF
330
747D
100
AcDbEntity
  8
細線
100
AcDbLine
 10
10418.95709921614
 20
1871.533300576484
 30
0.0
 11
10178.95709921614
 21
2111.533300576482
 31
0.0
  0
LINE
  5
22800
330
747D
100
AcDbEntity
  8
部品1
100
AcDbLine
 10
10432.79476156372
 20
2111.533300576482
 30
0.0
 11
10432.79476156372
 21
1871.533300576482
 31
0.0
  0
LINE
  5
22801
330
747D
100
AcDbEntity
  8
細線
 48
50.0
100
AcDbLine
 10
10402.41782579597
 20
1651.83438492313
 30
0.0
 11
10436.71532242715
 21
1779.83438492313
 31
0.0
  0
LINE
  5
22802
330
747D
100
AcDbEntity
  8
細線
100
AcDbLine
 10
10373.71340705696
 20
1779.834384923134
 30
0.0
 11
10465.41232271031
 21
1871.533300576482
 31
0.0
  0
LINE
  5
22803
330
747D
100
AcDbEntity
  8
細線
 48
50.0
100
AcDbLine
 10
10323.52978084872
 20
1651.834384923131
 30
0.0
 11
10357.82727747989
 21
1779.834384923132
 31
0.0
  0
LINE
  5
22804
330
747D
100
AcDbEntity
  8
細線
 48
50.0
100
AcDbLine
 10
10165.75369095423
 20
1651.834384923131
 30
0.0
 11
10200.05118758541
 21
1779.834384923131
 31
0.0
  0
LINE
  5
22805
330
747D
100
AcDbEntity
  8
細線
 48
50.0
100
AcDbLine
 10
10244.64173590147
 20
1651.834384923132
 30
0.0
 11
10278.93923253265
 21
1779.834384923131
 31
0.0
  0
LINE
  5
22806
330
747D
100
AcDbEntity
  8
細線
 48
50.0
100
AcDbLine
 10
10251.07251651982
 20
1675.834384923132
 30
0.0
 11
10257.50329713817
 21
1651.834384923132
 31
0.0
  0
LINE
  5
22807
330
747D
100
AcDbEntity
  8
細線
 48
50.0
100
AcDbLine
 10
10172.18447157258
 20
1675.834384923132
 30
0.0
 11
10178.61525219092
 21
1651.834384923132
 31
0.0
  0
LINE
  5
22808
330
747D
100
AcDbEntity
  8
細線
 48
50.0
100
AcDbLine
 10
10329.96056146707
 20
1675.834384923132
 30
0.0
 11
10336.39134208542
 21
1651.834384923132
 31
0.0
  0
LINE
  5
22809
330
747D
100
AcDbEntity
  8
細線
 48
50.0
100
AcDbLine
 10
10408.84860641432
 20
1675.834384923131
 30
0.0
 11
10415.27938703266
 21
1651.834384923131
 31
0.0
  0
LINE
  5
2280A
330
747D
100
AcDbEntity
  8
細線
 48
50.0
100
AcDbLine
 10
10272.50845191431
 20
1755.834384923132
 30
0.0
 11
10266.07767129597
 21
1779.834384923132
 31
0.0
  0
LINE
  5
2280B
330
747D
100
AcDbEntity
  8
細線
 48
50.0
100
AcDbLine
 10
10193.62040696706
 20
1755.834384923132
 30
0.0
 11
10187.18962634872
 21
1779.834384923132
 31
0.0
  0
LINE
  5
2280C
330
747D
100
AcDbEntity
  8
細線
 48
50.0
100
AcDbLine
 10
10114.73236201982
 20
1755.834384923132
 30
0.0
 11
10108.30158140147
 21
1779.834384923132
 31
0.0
  0
LINE
  5
2280D
330
747D
100
AcDbEntity
  8
細線
100
AcDbLine
 10
10339.77228156001
 20
1779.834384923134
 30
0.0
 11
10431.47119721335
 21
1871.533300576482
 31
0.0
  0
LINE
  5
2280E
330
747D
100
AcDbEntity
  8
細線
 48
50.0
100
AcDbLine
 10
10351.39649686155
 20
1755.834384923132
 30
0.0
 11
10344.9657162432
 21
1779.834384923132
 31
0.0
  0
LINE
  5
2280F
330
747D
100
AcDbEntity
  8
細線
100
AcDbLine
 10
10305.83115606305
 20
1779.834384923134
 30
0.0
 11
10397.5300717164
 21
1871.533300576482
 31
0.0
  0
LINE
  5
22810
330
747D
100
AcDbEntity
  8
細線
 48
50.0
100
AcDbLine
 10
10430.2845418088
 20
1755.834384923131
 30
0.0
 11
10423.85376119046
 21
1779.834384923131
 31
0.0
  0
LINE
  5
22811
330
747D
100
AcDbEntity
  8
細線
 48
50.0
100
AcDbLine
 10
10481.30587074321
 20
1651.834384923131
 30
0.0
 11
10515.6033673744
 21
1779.83438492313
 31
0.0
  0
LINE
  5
22812
330
747D
100
AcDbEntity
  8
部品1
100
AcDbLine
 10
10552.79476156372
 20
1871.533300576482
 30
0.0
 11
10552.79476156372
 21
1651.834384923132
 31
0.0
  0
LINE
  5
22813
330
747D
100
AcDbEntity
  8
細線
 48
50.0
100
AcDbLine
 10
10487.73665136156
 20
1675.834384923131
 30
0.0
 11
10494.16743197991
 21
1651.834384923131
 31
0.0
  0
LINE
  5
22814
330
747D
100
AcDbEntity
  8
細線
 48
50.0
100
AcDbLine
 10
10509.17258675605
 20
1755.834384923131
 30
0.0
 11
10502.7418061377
 21
1779.834384923131
 31
0.0
  0
LEADER
  5
22815
330
747D
100
AcDbEntity
  8
寸法
 48
50.0
100
AcDbLeader
  3
INABA_S50G
 73
     0
 74
     0
 75
     1
 40
120.0
 41
185.591883092037
 76
     3
 10
10363.51917317964
 20
2111.533300576482
 30
0.0
 10
10396.65737981329
 20
2283.67962125762
 30
0.0
 10
10521.65737981329
 20
2283.67962125762
 30
0.0
340
22816
1001
ACAD
1000
DSTYLE
1002
{
1070
    40
1040
1.0
1002
}
  0
MTEXT
  5
22816
102
{ACAD_REACTORS
330
22815
102
}
330
747D
100
AcDbEntity
  8
寸法
 62
     7
 48
50.0
100
AcDbMText
 10
10546.65737981329
 20
2368.67962125762
 30
0.0
 40
120.0
 41
0.8
 71
     4
 72
     1
  1
\A1;C.B
  7
STYLE1
 73
     1
 44
1.0
1001
ACAD
1000
MTEXTBEGIN
1070
    73
1070
     1
1070
    44
1040
1.0
1070
    74
1070
     0
1000
MTEXTEND
  0
HATCH
  5
228D6
330
747D
100
AcDbEntity
  8
細線
 48
50.0
100
AcDbHatch
 10
0.0
 20
0.0
 30
0.0
210
0.0
220
0.0
230
1.0
  2
LINE
 70
     0
 71
     0
 91
        1
 92
        7
 72
     0
 73
     1
 93
        4
 10
8323.6
 20
8049.029266579433
 10
8123.600000000001
 20
8049.029266579434
 10
8123.600000000001
 20
7929.029266579433
 10
8323.6
 20
7929.029266579433
 97
        0
 75
     0
 76
     1
 52
45.0
 41
10.0
 77
     0
 78
     1
 53
45.0
 43
0.0
 44
0.0
 45
-22.45064030267288
 46
22.45064030267288
 79
     0
 47
3.927067392683786
 98
        1
 10
8208.987990330475
 20
8017.566678206167
  0
HATCH
  5
2290D
330
747D
100
AcDbEntity
  8
細線
 48
50.0
100
AcDbHatch
 10
0.0
 20
0.0
 30
0.0
210
0.0
220
0.0
230
1.0
  2
LINE
 70
     0
 71
     0
 91
        1
 92
        7
 72
     0
 73
     1
 93
        4
 10
7443.600000000002
 20
7039.029266579435
 10
7323.6
 20
7039.029266579433
 10
7323.600000000002
 20
6839.029266579434
 10
7443.6
 20
6839.029266579434
 97
        0
 75
     0
 76
     1
 52
45.0
 41
10.0
 77
     0
 78
     1
 53
45.0
 43
0.0
 44
0.0
 45
-22.45064030267288
 46
22.45064030267288
 79
     0
 47
3.927067392683786
 98
        1
 10
7395.741029442048
 20
6917.987806120276
  0
HATCH
  5
22929
330
747D
100
AcDbEntity
  8
細線
 48
50.0
100
AcDbHatch
 10
0.0
 20
0.0
 30
0.0
210
0.0
220
0.0
230
1.0
  2
LINE
 70
     0
 71
     0
 91
        1
 92
        7
 72
     0
 73
     1
 93
        4
 10
9123.600000000001
 20
7039.029266579433
 10
9003.599999999998
 20
7039.029266579435
 10
9003.599999999996
 20
6839.029266579434
 10
9123.600000000001
 20
6839.029266579434
 97
        0
 75
     0
 76
     1
 52
45.0
 41
10.0
 77
     0
 78
     1
 53
45.0
 43
0.0
 44
0.0
 45
-22.45064030267288
 46
22.45064030267288
 79
     0
 47
3.927067392683786
 98
        1
 10
9085.094636665992
 20
6921.914860469235
  0
HATCH
  5
22945
330
747D
100
AcDbEntity
  8
細線
 48
50.0
100
AcDbHatch
 10
0.0
 20
0.0
 30
0.0
210
0.0
220
0.0
230
1.0
  2
LINE
 70
     0
 71
     0
 91
        1
 92
        7
 72
     0
 73
     1
 93
        4
 10
8323.600000000025
 20
5949.029266579444
 10
8123.600000000028
 20
5949.029266579444
 10
8123.600000000029
 20
5754.029266579443
 10
8323.600000000025
 20
5754.029266579446
 97
        0
 75
     0
 76
     1
 52
45.0
 41
10.0
 77
     0
 78
     1
 53
45.0
 43
0.0
 44
0.0
 45
-22.45064030267288
 46
22.45064030267288
 79
     0
 47
3.927067392683786
 98
        1
 10
8189.344369997291
 20
5869.460805429986
  0
ENDSEC
  0
SECTION
  2
OBJECTS
  0
DICTIONARY
  5
7471
330
0
100
AcDbDictionary
281
     1
  3
ACAD_COLOR
350
173D2
  3
ACAD_GROUP
350
7472
  3
ACAD_LAYOUT
350
173D3
  3
ACAD_MATERIAL
350
173D1
  3
ACAD_MLINESTYLE
350
7473
  3
ACAD_PLOTSETTINGS
350
173D4
  3
ACAD_PLOTSTYLENAME
350
173CF
  3
ACDBHEADERROUNDTRIPXREC
350
22955
  3
AcDbVariableDictionary
350
22951
  3
CONTENTDICTIONARY
350
E71C
  3
DRAWINGVARIABLESDICT
350
F3B9
  0
DICTIONARY
  5
1758F
330
7467
100
AcDbDictionary
280
     1
281
     1
  3
ACAD_LAYERSTATES
360
17590
  0
DICTIONARY
  5
173D2
102
{ACAD_REACTORS
330
7471
102
}
330
7471
100
AcDbDictionary
281
     1
  0
DICTIONARY
  5
7472
102
{ACAD_REACTORS
330
7471
102
}
330
7471
100
AcDbDictionary
281
     1
  3
*A1
350
1D2A9
  0
DICTIONARY
  5
173D3
102
{ACAD_REACTORS
330
7471
102
}
330
7471
100
AcDbDictionary
281
     1
  3
Model
350
173D5
  3
レイアウト1
350
173D6
  0
DICTIONARY
  5
173D1
102
{ACAD_REACTORS
330
7471
102
}
330
7471
100
AcDbDictionary
281
     1
  0
DICTIONARY
  5
7473
102
{ACAD_REACTORS
330
7471
102
}
330
7471
100
AcDbDictionary
281
     1
  3
STANDARD
350
7480
  0
DICTIONARY
  5
173D4
102
{ACAD_REACTORS
330
7471
102
}
330
7471
100
AcDbDictionary
281
     1
  0
ACDBDICTIONARYWDFLT
  5
173CF
102
{ACAD_REACTORS
330
7471
102
}
330
7471
100
AcDbDictionary
281
     1
  3
Normal
350
173D0
100
AcDbDictionaryWithDefault
340
173D0
  0
DICTIONARY
  5
22955
102
{ACAD_REACTORS
330
7471
102
}
330
7471
100
AcDbDictionary
281
     1
  3
COLORDICT
350
22957
  3
MATERIALDICT
350
22956
  0
DICTIONARY
  5
22951
102
{ACAD_REACTORS
330
7471
102
}
330
7471
100
AcDbDictionary
281
     1
  3
DIMASSOC
350
22952
  3
PROJECTNAME
350
22953
  0
DICTIONARY
  5
E71C
102
{ACAD_REACTORS
330
7471
102
}
330
7471
100
AcDbDictionary
281
     1
  0
DICTIONARY
  5
F3B9
102
{ACAD_REACTORS
330
7471
102
}
330
7471
100
AcDbDictionary
281
     1
1001
DRAWINGVARIABLESXDATA
1000
POLARMODE
1000
1
  0
DICTIONARY
  5
17590
102
{ACAD_REACTORS
330
1758F
102
}
330
1758F
100
AcDbDictionary
281
     1
  0
GROUP
  5
1D2A9
102
{ACAD_REACTORS
330
7472
102
}
330
7472
100
AcDbGroup
300

 70
     1
 71
     1
  0
LAYOUT
  5
173D5
102
{ACAD_XDICTIONARY
360
22958
102
}
102
{ACAD_REACTORS
330
173D3
102
}
330
173D3
100
AcDbPlotSettings
  1

  2
Microsoft Office Document Image Writer
  4

  6

 40
0.0
 41
0.0
 42
0.0
 43
0.0
 44
0.0
 45
0.0
 46
0.0
 47
0.0
 48
0.0
 49
0.0
140
0.0
141
0.0
142
1.0
143
1.0
 70
  1712
 72
     0
 73
     0
 74
     0
  7

 75
     0
147
1.0
148
0.0
149
0.0
100
AcDbLayout
  1
Model
 70
     1
 71
     0
 10
0.0
 20
0.0
 11
12.0
 21
9.0
 12
0.0
 22
0.0
 32
0.0
 14
0.0
 24
0.0
 34
0.0
 15
0.0
 25
0.0
 35
0.0
146
0.0
 13
0.0
 23
0.0
 33
0.0
 16
1.0
 26
0.0
 36
0.0
 17
0.0
 27
1.0
 37
0.0
 76
     0
330
747D
  0
LAYOUT
  5
173D6
102
{ACAD_XDICTIONARY
360
2295A
102
}
102
{ACAD_REACTORS
330
173D3
102
}
330
173D3
100
AcDbPlotSettings
  1

  2
Microsoft Office Document Image Writer
  4

  6

 40
0.0
 41
0.0
 42
0.0
 43
0.0
 44
0.0
 45
0.0
 46
0.0
 47
0.0
 48
0.0
 49
0.0
140
0.0
141
0.0
142
1.0
143
1.0
 70
   688
 72
     0
 73
     0
 74
     5
  7

 75
    16
147
1.0
148
0.0
149
0.0
100
AcDbLayout
  1
レイアウト1
 70
     0
 71
     1
 10
0.0
 20
0.0
 11
420.0
 21
297.0
 12
0.0
 22
0.0
 32
0.0
 14
1.000000000000000E+20
 24
1.000000000000000E+20
 34
1.000000000000000E+20
 15
-1.000000000000000E+20
 25
-1.000000000000000E+20
 35
-1.000000000000000E+20
146
0.0
 13
0.0
 23
0.0
 33
0.0
 16
1.0
 26
0.0
 36
0.0
 17
0.0
 27
1.0
 37
0.0
 76
     0
330
747A
  0
MLINESTYLE
  5
7480
102
{ACAD_REACTORS
330
7473
102
}
330
7473
100
AcDbMlineStyle
  2
STANDARD
 70
     0
  3

 62
     0
 51
90.0
 52
90.0
 71
     2
 49
0.5
 62
   256
  6
BYLAYER
 49
-0.5
 62
   256
  6
BYLAYER
  0
ACDBPLACEHOLDER
  5
173D0
102
{ACAD_REACTORS
330
173CF
102
}
330
173CF
  0
XRECORD
  5
22957
102
{ACAD_REACTORS
330
22955
102
}
330
22955
100
AcDbXrecord
280
     1
340
173D2
  0
XRECORD
  5
22956
102
{ACAD_REACTORS
330
22955
102
}
330
22955
100
AcDbXrecord
280
     1
340
173D1
  0
DICTIONARYVAR
  5
22952
102
{ACAD_REACTORS
330
22951
102
}
330
22951
100
DictionaryVariables
280
     0
  1
1
  0
DICTIONARYVAR
  5
22953
102
{ACAD_REACTORS
330
22951
102
}
330
22951
100
DictionaryVariables
280
     0
  1

  0
DICTIONARY
  5
22958
330
173D5
100
AcDbDictionary
280
     1
281
     1
  3
ACAD_XREC_ROUNDTRIP
360
22959
  0
DICTIONARY
  5
2295A
330
173D6
100
AcDbDictionary
280
     1
281
     1
  3
ACAD_XREC_ROUNDTRIP
360
2295B
  0
XRECORD
  5
22959
102
{ACAD_REACTORS
330
22958
102
}
330
22958
100
AcDbXrecord
280
     1
102
SHADEPLOT
 70
     0
102
SHADEPLOTRESLEVEL
 70
     2
102
SHADEPLOTCUSTOMDPI
 70
   300
  0
XRECORD
  5
2295B
102
{ACAD_REACTORS
330
2295A
102
}
330
2295A
100
AcDbXrecord
280
     1
102
SHADEPLOT
 70
     0
102
SHADEPLOTRESLEVEL
 70
     2
102
SHADEPLOTCUSTOMDPI
 70
   300
  0
ENDSEC
  0
EOF
