  0
SECTION
  2
HEADER
  9
$ACADVER
  1
AC1015
  9
$ACADMAINTVER
 70
    20
  9
$DWGCODEPAGE
  3
ANSI_932
  9
$INSBASE
 10
0.0
 20
0.0
 30
0.0
  9
$EXTMIN
 10
139.196816621341
 20
-0.5436960005536094
 30
-0.0000000000000058
  9
$EXTMAX
 10
16308.32523385566
 20
11409.94830329749
 30
0.0000000000000104
  9
$LIMMIN
 10
0.0
 20
0.0
  9
$LIMMAX
 10
16800.0
 20
11880.0
  9
$ORTHOMODE
 70
     0
  9
$REGENMODE
 70
     1
  9
$FILLMODE
 70
     1
  9
$QTEXTMODE
 70
     0
  9
$MIRRTEXT
 70
     1
  9
$LTSCALE
 40
20.0
  9
$ATTMODE
 70
     1
  9
$TEXTSIZE
 40
100.0
  9
$TRACEWID
 40
1.0
  9
$TEXTSTYLE
  7
STYLE2
  9
$CLAYER
  8
細線
  9
$CELTYPE
  6
BYLAYER
  9
$CECOLOR
 62
   256
  9
$CELTSCALE
 40
50.0
  9
$DISPSILH
 70
     0
  9
$DIMSCALE
 40
40.0
  9
$DIMASZ
 40
2.5
  9
$DIMEXO
 40
0.5
  9
$DIMDLI
 40
7.0
  9
$DIMRND
 40
0.0
  9
$DIMDLE
 40
0.0
  9
$DIMEXE
 40
1.5
  9
$DIMTP
 40
0.0
  9
$DIMTM
 40
0.0
  9
$DIMTXT
 40
3.0
  9
$DIMCEN
 40
0.0
  9
$DIMTSZ
 40
0.0
  9
$DIMTOL
 70
     0
  9
$DIMLIM
 70
     0
  9
$DIMTIH
 70
     0
  9
$DIMTOH
 70
     0
  9
$DIMSE1
 70
     0
  9
$DIMSE2
 70
     0
  9
$DIMTAD
 70
     3
  9
$DIMZIN
 70
     8
  9
$DIMBLK
  1

  9
$DIMASO
 70
     1
  9
$DIMSHO
 70
     1
  9
$DIMPOST
  1

  9
$DIMAPOST
  1

  9
$DIMALT
 70
     0
  9
$DIMALTD
 70
     2
  9
$DIMALTF
 40
0.0394
  9
$DIMLFAC
 40
1.0
  9
$DIMTOFL
 70
     1
  9
$DIMTVP
 40
0.0
  9
$DIMTIX
 70
     0
  9
$DIMSOXD
 70
     0
  9
$DIMSAH
 70
     1
  9
$DIMBLK1
  1
DOTSMALL
  9
$DIMBLK2
  1
DOTSMALL
  9
$DIMSTYLE
  2
INABA_S40G
  9
$DIMCLRD
 70
     0
  9
$DIMCLRE
 70
     0
  9
$DIMCLRT
 70
     7
  9
$DIMTFAC
 40
1.0
  9
$DIMGAP
 40
1.0
  9
$DIMJUST
 70
     0
  9
$DIMSD1
 70
     0
  9
$DIMSD2
 70
     0
  9
$DIMTOLJ
 70
     1
  9
$DIMTZIN
 70
     0
  9
$DIMALTZ
 70
     0
  9
$DIMALTTZ
 70
     0
  9
$DIMUPT
 70
     0
  9
$DIMDEC
 70
     1
  9
$DIMTDEC
 70
     1
  9
$DIMALTU
 70
     2
  9
$DIMALTTD
 70
     2
  9
$DIMTXSTY
  7
STYLE1
  9
$DIMAUNIT
 70
     0
  9
$DIMADEC
 70
     0
  9
$DIMALTRND
 40
0.0
  9
$DIMAZIN
 70
     0
  9
$DIMDSEP
 70
    46
  9
$DIMATFIT
 70
     3
  9
$DIMFRAC
 70
     0
  9
$DIMLDRBLK
  1

  9
$DIMLUNIT
 70
     2
  9
$DIMLWD
 70
    -2
  9
$DIMLWE
 70
    -2
  9
$DIMTMOVE
 70
     1
  9
$LUNITS
 70
     2
  9
$LUPREC
 70
     1
  9
$SKETCHINC
 40
1.0
  9
$FILLETRAD
 40
2.299999999999999
  9
$AUNITS
 70
     0
  9
$AUPREC
 70
     0
  9
$MENU
  1
acad
  9
$ELEVATION
 40
0.0
  9
$PELEVATION
 40
0.0
  9
$THICKNESS
 40
0.0
  9
$LIMCHECK
 70
     0
  9
$CHAMFERA
 40
3.0
  9
$CHAMFERB
 40
3.0
  9
$CHAMFERC
 40
0.0
  9
$CHAMFERD
 40
0.0
  9
$SKPOLY
 70
     0
  9
$TDCREATE
 40
2451368.612993866
  9
$TDUCREATE
 40
2451368.237993866
  9
$TDUPDATE
 40
2455765.638091540
  9
$TDUUPDATE
 40
2455765.263091540
  9
$TDINDWG
 40
1.6748864120
  9
$TDUSRTIMER
 40
1.6748864120
  9
$USRTIMER
 70
     1
  9
$ANGBASE
 50
0.0
  9
$ANGDIR
 70
     0
  9
$PDMODE
 70
     3
  9
$PDSIZE
 40
2.0
  9
$PLINEWID
 40
0.0
  9
$SPLFRAME
 70
     0
  9
$SPLINETYPE
 70
     6
  9
$SPLINESEGS
 70
     8
  9
$HANDSEED
  5
20E97
  9
$SURFTAB1
 70
     6
  9
$SURFTAB2
 70
     6
  9
$SURFTYPE
 70
     6
  9
$SURFU
 70
     6
  9
$SURFV
 70
     6
  9
$UCSBASE
  2

  9
$UCSNAME
  2

  9
$UCSORG
 10
0.0
 20
0.0
 30
0.0
  9
$UCSXDIR
 10
1.0
 20
0.0
 30
0.0
  9
$UCSYDIR
 10
0.0
 20
1.0
 30
0.0
  9
$UCSORTHOREF
  2

  9
$UCSORTHOVIEW
 70
     0
  9
$UCSORGTOP
 10
0.0
 20
0.0
 30
0.0
  9
$UCSORGBOTTOM
 10
0.0
 20
0.0
 30
0.0
  9
$UCSORGLEFT
 10
0.0
 20
0.0
 30
0.0
  9
$UCSORGRIGHT
 10
0.0
 20
0.0
 30
0.0
  9
$UCSORGFRONT
 10
0.0
 20
0.0
 30
0.0
  9
$UCSORGBACK
 10
0.0
 20
0.0
 30
0.0
  9
$PUCSBASE
  2

  9
$PUCSNAME
  2

  9
$PUCSORG
 10
0.0
 20
0.0
 30
0.0
  9
$PUCSXDIR
 10
1.0
 20
0.0
 30
0.0
  9
$PUCSYDIR
 10
0.0
 20
1.0
 30
0.0
  9
$PUCSORTHOREF
  2

  9
$PUCSORTHOVIEW
 70
     0
  9
$PUCSORGTOP
 10
0.0
 20
0.0
 30
0.0
  9
$PUCSORGBOTTOM
 10
0.0
 20
0.0
 30
0.0
  9
$PUCSORGLEFT
 10
0.0
 20
0.0
 30
0.0
  9
$PUCSORGRIGHT
 10
0.0
 20
0.0
 30
0.0
  9
$PUCSORGFRONT
 10
0.0
 20
0.0
 30
0.0
  9
$PUCSORGBACK
 10
0.0
 20
0.0
 30
0.0
  9
$USERI1
 70
     0
  9
$USERI2
 70
     0
  9
$USERI3
 70
     0
  9
$USERI4
 70
     0
  9
$USERI5
 70
     0
  9
$USERR1
 40
0.0
  9
$USERR2
 40
0.0
  9
$USERR3
 40
0.0
  9
$USERR4
 40
0.0
  9
$USERR5
 40
0.0
  9
$WORLDVIEW
 70
     1
  9
$SHADEDGE
 70
     3
  9
$SHADEDIF
 70
    70
  9
$TILEMODE
 70
     1
  9
$MAXACTVP
 70
    16
  9
$PINSBASE
 10
0.0
 20
0.0
 30
0.0
  9
$PLIMCHECK
 70
     0
  9
$PEXTMIN
 10
1.000000000000000E+20
 20
1.000000000000000E+20
 30
1.000000000000000E+20
  9
$PEXTMAX
 10
-1.000000000000000E+20
 20
-1.000000000000000E+20
 30
-1.000000000000000E+20
  9
$PLIMMIN
 10
0.0
 20
0.0
  9
$PLIMMAX
 10
420.0
 20
297.0
  9
$UNITMODE
 70
     0
  9
$VISRETAIN
 70
     0
  9
$PLINEGEN
 70
     0
  9
$PSLTSCALE
 70
     0
  9
$TREEDEPTH
 70
  3020
  9
$CMLSTYLE
  2
STANDARD
  9
$CMLJUST
 70
     0
  9
$CMLSCALE
 40
1.0
  9
$PROXYGRAPHICS
 70
     1
  9
$MEASUREMENT
 70
     1
  9
$CELWEIGHT
370
    -1
  9
$ENDCAPS
280
     0
  9
$JOINSTYLE
280
     0
  9
$LWDISPLAY
290
     0
  9
$INSUNITS
 70
     0
  9
$HYPERLINKBASE
  1

  9
$STYLESHEET
  1
inaba.ctb
  9
$XEDIT
290
     1
  9
$CEPSNTYPE
380
     0
  9
$PSTYLEMODE
290
     1
  9
$FINGERPRINTGUID
  2
{3B57B35E-7D77-4BBF-81B7-6C583B9EB24C}
  9
$VERSIONGUID
  2
{F765053A-1122-4F18-A339-77B74C360734}
  9
$EXTNAMES
290
     1
  9
$PSVPSCALE
 40
0.0
  9
$OLESTARTUP
290
     0
  0
ENDSEC
  0
SECTION
  2
CLASSES
  0
CLASS
  1
ACDBDICTIONARYWDFLT
  2
AcDbDictionaryWithDefault
  3
ObjectDBX Classes
 90
        0
280
     0
281
     0
  0
CLASS
  1
DICTIONARYVAR
  2
AcDbDictionaryVar
  3
ObjectDBX Classes
 90
        0
280
     0
281
     0
  0
CLASS
  1
ACDBPLACEHOLDER
  2
AcDbPlaceHolder
  3
ObjectDBX Classes
 90
        0
280
     0
281
     0
  0
CLASS
  1
LAYOUT
  2
AcDbLayout
  3
ObjectDBX Classes
 90
        0
280
     0
281
     0
  0
ENDSEC
  0
SECTION
  2
TABLES
  0
TABLE
  2
VPORT
  5
746D
330
0
100
AcDbSymbolTable
 70
     3
  0
VPORT
  5
20E8F
330
746D
100
AcDbSymbolTableRecord
100
AcDbViewportTableRecord
  2
*Active
 70
     0
 10
0.0
 20
0.0
 11
1.0
 21
1.0
 12
8223.761025238502
 22
5704.70230364847
 13
0.0
 23
0.0
 14
10.0
 24
10.0
 15
10.0
 25
10.0
 16
0.0
 26
0.0
 36
1.0
 17
0.0
 27
0.0
 37
0.0
 40
11497.15396384968
 41
1.528517110266159
 42
50.0
 43
0.0
 44
0.0
 50
0.0
 51
0.0
 71
     0
 72
     0
 73
     1
 74
     0
 75
     0
 76
     0
 77
     0
 78
     0
281
     0
 65
     1
110
0.0
120
0.0
130
0.0
111
1.0
121
0.0
131
0.0
112
0.0
122
1.0
132
0.0
 79
     0
146
0.0
  0
ENDTAB
  0
TABLE
  2
LTYPE
  5
746A
330
0
100
AcDbSymbolTable
 70
     3
  0
LTYPE
  5
7477
330
746A
100
AcDbSymbolTableRecord
100
AcDbLinetypeTableRecord
  2
BYBLOCK
 70
     0
  3

 72
    65
 73
     0
 40
0.0
  0
LTYPE
  5
7478
330
746A
100
AcDbSymbolTableRecord
100
AcDbLinetypeTableRecord
  2
BYLAYER
 70
     0
  3

 72
    65
 73
     0
 40
0.0
  0
LTYPE
  5
7479
330
746A
100
AcDbSymbolTableRecord
100
AcDbLinetypeTableRecord
  2
CONTINUOUS
 70
     0
  3
Solid line
 72
    65
 73
     0
 40
0.0
  0
LTYPE
  5
7816
330
746A
100
AcDbSymbolTableRecord
100
AcDbLinetypeTableRecord
  2
CENTER
 70
     0
  3
____ _ ____ _ ____ _ ____ _ ____ _ ____ _ ____ 
 72
    65
 73
     4
 40
2.0
 49
1.25
 74
     0
 49
-0.25
 74
     0
 49
0.25
 74
     0
 49
-0.25
 74
     0
  0
LTYPE
  5
781B
330
746A
100
AcDbSymbolTableRecord
100
AcDbLinetypeTableRecord
  2
PHANTOM
 70
     0
  3
______  __  __  ______  __  __  ______  __  __ 
 72
    65
 73
     6
 40
2.5
 49
1.25
 74
     0
 49
-0.25
 74
     0
 49
0.25
 74
     0
 49
-0.25
 74
     0
 49
0.25
 74
     0
 49
-0.25
 74
     0
  0
ENDTAB
  0
TABLE
  2
LAYER
  5
7467
102
{ACAD_XDICTIONARY
360
2093C
102
}
330
0
100
AcDbSymbolTable
 70
    10
  0
LAYER
  5
7474
330
7467
100
AcDbSymbolTableRecord
100
AcDbLayerTableRecord
  2
0
 70
     0
 62
     7
  6
CONTINUOUS
370
    -3
390
159AE
  0
LAYER
  5
DEB2
330
7467
100
AcDbSymbolTableRecord
100
AcDbLayerTableRecord
  2
センター
 70
     0
 62
     3
  6
CENTER
370
    -3
390
159AE
  0
LAYER
  5
DEB3
330
7467
100
AcDbSymbolTableRecord
100
AcDbLayerTableRecord
  2
寸法
 70
     0
 62
     4
  6
CONTINUOUS
370
    -3
390
159AE
  0
LAYER
  5
DEB4
330
7467
100
AcDbSymbolTableRecord
100
AcDbLayerTableRecord
  2
部品1
 70
     0
 62
     7
  6
CONTINUOUS
370
    -3
390
159AE
  0
LAYER
  5
DEB5
330
7467
100
AcDbSymbolTableRecord
100
AcDbLayerTableRecord
  2
補助
 70
     0
 62
    -1
  6
CONTINUOUS
370
    -3
390
159AE
  0
LAYER
  5
DEB6
330
7467
100
AcDbSymbolTableRecord
100
AcDbLayerTableRecord
  2
文字
 70
     0
 62
     7
  6
CONTINUOUS
370
    -3
390
159AE
  0
LAYER
  5
F255
330
7467
100
AcDbSymbolTableRecord
100
AcDbLayerTableRecord
  2
DEFPOINTS
 70
     0
 62
     7
  6
CONTINUOUS
290
     0
370
    -3
390
159AE
  0
LAYER
  5
10B54
330
7467
100
AcDbSymbolTableRecord
100
AcDbLayerTableRecord
  2
仕様書枠
 70
     0
 62
   230
  6
CONTINUOUS
370
    -3
390
159AE
  0
LAYER
  5
1173F
330
7467
100
AcDbSymbolTableRecord
100
AcDbLayerTableRecord
  2
細線
 70
     0
 62
     5
  6
CONTINUOUS
370
    -3
390
159AE
  0
LAYER
  5
12CC4
330
7467
100
AcDbSymbolTableRecord
100
AcDbLayerTableRecord
  2
想像線
 70
     0
 62
     6
  6
PHANTOM
370
    -3
390
159AE
  0
ENDTAB
  0
TABLE
  2
STYLE
  5
7468
330
0
100
AcDbSymbolTable
 70
     3
  0
STYLE
  5
7475
330
7468
100
AcDbSymbolTableRecord
100
AcDbTextStyleTableRecord
  2
STANDARD
 70
     0
 40
0.0
 41
1.0
 50
0.0
 71
     0
 42
4.0
  3
txt
  4
C:\AutoCAD LT\bigfont.shx
  0
STYLE
  5
F706
330
7468
100
AcDbSymbolTableRecord
100
AcDbTextStyleTableRecord
  2
STYLE1
 70
     0
 40
0.0
 41
1.0
 50
0.0
 71
     0
 42
100.0
  3
isocp.shx
  4
bigfont.shx
  0
STYLE
  5
103BF
330
7468
100
AcDbSymbolTableRecord
100
AcDbTextStyleTableRecord
  2
STYLE2
 70
     0
 40
0.0
 41
1.0
 50
0.0
 71
     0
 42
100.0
  3
MS PGothic.ttf
  4

1001
ACAD
1000
MS PGothic
1071
    32818
  0
ENDTAB
  0
TABLE
  2
VIEW
  5
746B
330
0
100
AcDbSymbolTable
 70
     0
  0
ENDTAB
  0
TABLE
  2
UCS
  5
746C
330
0
100
AcDbSymbolTable
 70
     0
  0
ENDTAB
  0
TABLE
  2
APPID
  5
746E
330
0
100
AcDbSymbolTable
 70
     6
  0
APPID
  5
7476
330
746E
100
AcDbSymbolTableRecord
100
AcDbRegAppTableRecord
  2
ACAD
 70
     0
  0
APPID
  5
DEA9
330
746E
100
AcDbSymbolTableRecord
100
AcDbRegAppTableRecord
  2
CONTENTBLOCKICON
 70
     0
  0
APPID
  5
DEAA
330
746E
100
AcDbSymbolTableRecord
100
AcDbRegAppTableRecord
  2
CONTENTBLOCKDESCRIPTION
 70
     0
  0
APPID
  5
E71D
330
746E
100
AcDbSymbolTableRecord
100
AcDbRegAppTableRecord
  2
CONTENTTABDATA
 70
     0
  0
APPID
  5
E71E
330
746E
100
AcDbSymbolTableRecord
100
AcDbRegAppTableRecord
  2
CONTENTCURRENTTAB
 70
     0
  0
APPID
  5
F3BA
330
746E
100
AcDbSymbolTableRecord
100
AcDbRegAppTableRecord
  2
DRAWINGVARIABLESXDATA
 70
     0
  0
ENDTAB
  0
TABLE
  2
DIMSTYLE
  5
746F
330
0
100
AcDbSymbolTable
 70
     1
100
AcDbDimStyleTable
 71
     1
340
F71F
  0
DIMSTYLE
105
F71F
102
{ACAD_REACTORS
330
20C9D
330
20BAA
330
20BA8
330
20BA4
330
20BA3
330
20BA1
330
20B9F
330
20B9B
330
20B9A
330
20B99
330
20B97
330
20B96
330
20B94
330
20B91
330
20B8F
330
20B88
330
20B87
330
20B84
330
20B31
330
20A79
330
2069B
330
20324
330
20323
330
20322
330
1FB1E
330
1FACB
330
1E701
330
1D959
330
1D947
330
1D946
330
1D942
330
1D940
330
1D93F
330
1D93E
330
1D934
330
1D933
330
1D92D
330
1D92C
330
1D929
330
1D927
330
1D926
330
1D925
330
1D920
330
1D91D
330
1D91C
330
1D91B
102
}
330
746F
100
AcDbSymbolTableRecord
100
AcDbDimStyleTableRecord
  2
INABA_S40G
 70
     0
 40
40.0
 41
2.5
 42
0.5
 43
7.0
 44
1.5
 73
     0
 74
     0
 77
     3
 78
     8
140
3.0
141
0.0
143
0.0394
147
1.0
172
     1
173
     1
174
     1
178
     7
271
     1
288
     1
340
F706
341
F770
343
F770
344
F770
  0
ENDTAB
  0
TABLE
  2
BLOCK_RECORD
  5
7466
330
0
100
AcDbSymbolTable
 70
    31
  0
BLOCK_RECORD
  5
747D
330
7466
100
AcDbSymbolTableRecord
100
AcDbBlockTableRecord
  2
*MODEL_SPACE
340
159B3
  0
BLOCK_RECORD
  5
747A
330
7466
100
AcDbSymbolTableRecord
100
AcDbBlockTableRecord
  2
*PAPER_SPACE
340
159B4
  0
BLOCK_RECORD
  5
F770
330
7466
100
AcDbSymbolTableRecord
100
AcDbBlockTableRecord
  2
_DOTSMALL
340
0
102
{BLKREFS
331
20D24
331
20D25
331
20D33
331
20D34
331
20D3C
331
20D3D
331
20D45
331
20D46
331
20D4E
331
20D4F
331
20D57
331
20D58
331
20D5F
331
20D60
331
20D68
331
20D69
331
20D71
331
20D72
331
20D7A
331
20D7B
331
20D83
331
20D84
331
20D8E
331
20D8F
331
20D98
331
20D99
331
20DA2
331
20DA3
331
20DAD
331
20DAE
331
20DC1
331
20DC2
331
20DCA
331
20DCB
331
20DD5
331
20DD6
331
20DDF
331
20DE0
331
20DE8
331
20DE9
331
20DF1
331
20DF2
331
20DFC
331
20DFD
331
20E0D
331
20E0E
331
20E16
331
20E17
331
20E21
331
20E22
331
20E2B
331
20E2C
331
20E3D
331
20E3E
331
20E5A
331
20E5B
331
20E64
331
20E65
102
}
  0
BLOCK_RECORD
  5
1DA44
330
7466
100
AcDbSymbolTableRecord
100
AcDbBlockTableRecord
  2
*D1
340
0
  0
BLOCK_RECORD
  5
1DA51
330
7466
100
AcDbSymbolTableRecord
100
AcDbBlockTableRecord
  2
*D2
340
0
  0
BLOCK_RECORD
  5
1DA5E
330
7466
100
AcDbSymbolTableRecord
100
AcDbBlockTableRecord
  2
*D3
340
0
  0
BLOCK_RECORD
  5
1DA69
330
7466
100
AcDbSymbolTableRecord
100
AcDbBlockTableRecord
  2
*D4
340
0
  0
BLOCK_RECORD
  5
1DA74
330
7466
100
AcDbSymbolTableRecord
100
AcDbBlockTableRecord
  2
*D5
340
0
  0
BLOCK_RECORD
  5
1DA81
330
7466
100
AcDbSymbolTableRecord
100
AcDbBlockTableRecord
  2
*D6
340
0
  0
BLOCK_RECORD
  5
1DA8E
330
7466
100
AcDbSymbolTableRecord
100
AcDbBlockTableRecord
  2
*D7
340
0
  0
BLOCK_RECORD
  5
1DA9A
330
7466
100
AcDbSymbolTableRecord
100
AcDbBlockTableRecord
  2
*D8
340
0
  0
BLOCK_RECORD
  5
1DAA5
330
7466
100
AcDbSymbolTableRecord
100
AcDbBlockTableRecord
  2
*D9
340
0
  0
BLOCK_RECORD
  5
1DAB2
330
7466
100
AcDbSymbolTableRecord
100
AcDbBlockTableRecord
  2
*D10
340
0
  0
BLOCK_RECORD
  5
1DABE
330
7466
100
AcDbSymbolTableRecord
100
AcDbBlockTableRecord
  2
*D11
340
0
  0
BLOCK_RECORD
  5
1DACB
330
7466
100
AcDbSymbolTableRecord
100
AcDbBlockTableRecord
  2
*D12
340
0
  0
BLOCK_RECORD
  5
1DAD9
330
7466
100
AcDbSymbolTableRecord
100
AcDbBlockTableRecord
  2
*D13
340
0
  0
BLOCK_RECORD
  5
1DAE6
330
7466
100
AcDbSymbolTableRecord
100
AcDbBlockTableRecord
  2
*D14
340
0
  0
BLOCK_RECORD
  5
1DAF3
330
7466
100
AcDbSymbolTableRecord
100
AcDbBlockTableRecord
  2
*D15
340
0
  0
BLOCK_RECORD
  5
1DB00
330
7466
100
AcDbSymbolTableRecord
100
AcDbBlockTableRecord
  2
*D16
340
0
  0
BLOCK_RECORD
  5
1DB1A
330
7466
100
AcDbSymbolTableRecord
100
AcDbBlockTableRecord
  2
*D17
340
0
  0
BLOCK_RECORD
  5
1FACC
330
7466
100
AcDbSymbolTableRecord
100
AcDbBlockTableRecord
  2
*D18
340
0
  0
BLOCK_RECORD
  5
1FB1F
330
7466
100
AcDbSymbolTableRecord
100
AcDbBlockTableRecord
  2
*D19
340
0
  0
BLOCK_RECORD
  5
20325
330
7466
100
AcDbSymbolTableRecord
100
AcDbBlockTableRecord
  2
*D20
340
0
  0
BLOCK_RECORD
  5
20331
330
7466
100
AcDbSymbolTableRecord
100
AcDbBlockTableRecord
  2
*D21
340
0
  0
BLOCK_RECORD
  5
2033D
330
7466
100
AcDbSymbolTableRecord
100
AcDbBlockTableRecord
  2
*D22
340
0
  0
BLOCK_RECORD
  5
20BAE
330
7466
100
AcDbSymbolTableRecord
100
AcDbBlockTableRecord
  2
*D23
340
0
  0
BLOCK_RECORD
  5
20BBA
330
7466
100
AcDbSymbolTableRecord
100
AcDbBlockTableRecord
  2
*D24
340
0
  0
BLOCK_RECORD
  5
20BC6
330
7466
100
AcDbSymbolTableRecord
100
AcDbBlockTableRecord
  2
*D25
340
0
  0
BLOCK_RECORD
  5
20BD2
330
7466
100
AcDbSymbolTableRecord
100
AcDbBlockTableRecord
  2
*D26
340
0
  0
BLOCK_RECORD
  5
20BDE
330
7466
100
AcDbSymbolTableRecord
100
AcDbBlockTableRecord
  2
*D27
340
0
  0
BLOCK_RECORD
  5
20BEC
330
7466
100
AcDbSymbolTableRecord
100
AcDbBlockTableRecord
  2
*D28
340
0
  0
BLOCK_RECORD
  5
20C9E
330
7466
100
AcDbSymbolTableRecord
100
AcDbBlockTableRecord
  2
*D29
340
0
  0
ENDTAB
  0
ENDSEC
  0
SECTION
  2
BLOCKS
  0
BLOCK
  5
7489
330
747D
100
AcDbEntity
  8
0
100
AcDbBlockBegin
  2
*MODEL_SPACE
 70
     0
 10
0.0
 20
0.0
 30
0.0
  3
*MODEL_SPACE
  1

  0
ENDBLK
  5
748A
330
747D
100
AcDbEntity
  8
0
100
AcDbBlockEnd
  0
BLOCK
  5
7487
330
747A
100
AcDbEntity
 67
     1
  8
0
100
AcDbBlockBegin
  2
*PAPER_SPACE
 70
     0
 10
0.0
 20
0.0
 30
0.0
  3
*PAPER_SPACE
  1

  0
ENDBLK
  5
7488
330
747A
100
AcDbEntity
 67
     1
  8
0
100
AcDbBlockEnd
  0
BLOCK
  5
F771
330
F770
100
AcDbEntity
  8
0
 48
50.0
100
AcDbBlockBegin
  2
_DOTSMALL
 70
     0
 10
0.0
 20
0.0
 30
0.0
  3
_DOTSMALL
  1

  0
LWPOLYLINE
  5
F772
330
F770
100
AcDbEntity
  8
0
  6
ByBlock
 62
     0
 48
50.0
100
AcDbPolyline
 90
        2
 70
     1
 43
0.5
 10
-0.0625
 20
0.0
 42
1.0
 10
0.0625
 20
0.0
 42
1.0
  0
ENDBLK
  5
F776
330
F770
100
AcDbEntity
  8
0
 48
50.0
100
AcDbBlockEnd
  0
BLOCK
  5
1DA4F
330
1DA44
100
AcDbEntity
  8
0
 48
50.0
100
AcDbBlockBegin
  2
*D1
 70
     1
 10
0.0
 20
0.0
 30
0.0
  3
*D1
  1

  0
LINE
  5
20E26
330
1DA44
100
AcDbEntity
  8
寸法
 62
     0
 48
50.0
370
    -2
100
AcDbLine
 10
7573.599999999998
 20
5493.281687023919
 30
0.0
 11
7830.307249876097
 21
5493.281687023919
 31
0.0
  0
LINE
  5
20E27
330
1DA44
100
AcDbEntity
  8
寸法
 62
     0
 48
50.0
370
    -2
100
AcDbLine
 10
7573.599999999998
 20
5623.28168702392
 30
0.0
 11
7830.307249876097
 21
5623.28168702392
 31
0.0
  0
LINE
  5
20E28
330
1DA44
100
AcDbEntity
  8
寸法
 62
     0
 48
50.0
370
    -2
100
AcDbLine
 10
7770.307249876097
 20
5493.281687023919
 30
0.0
 11
7770.307249876097
 21
5623.28168702392
 31
0.0
  0
LINE
  5
20E29
330
1DA44
100
AcDbEntity
  8
寸法
 62
     0
 48
50.0
370
    -2
100
AcDbLine
 10
7770.307249876097
 20
5995.376175212897
 30
0.0
 11
7770.307249876097
 21
5623.28168702392
 31
0.0
  0
MTEXT
  5
20E2A
330
1DA44
100
AcDbEntity
  8
寸法
 62
     7
 48
50.0
100
AcDbMText
 10
7670.307249876096
 20
5859.32893111841
 30
0.0
 40
120.0
 41
0.0
 71
     5
 72
     1
  1
\A1;130
  7
STYLE1
 11
0.0000000000000001
 21
1.0
 31
0.0
 73
     1
 44
1.0
1001
ACAD
1000
MTEXTBEGIN
1070
    73
1070
     1
1070
    44
1040
1.0
1070
    74
1070
     0
1000
MTEXTEND
  0
INSERT
  5
20E2B
330
1DA44
100
AcDbEntity
  8
寸法
 62
     0
 48
50.0
370
    -2
100
AcDbBlockReference
  2
_DOTSMALL
 10
7770.307249876097
 20
5493.281687023919
 30
0.0
 41
100.0
 42
100.0
 43
100.0
 50
270.0
  0
INSERT
  5
20E2C
330
1DA44
100
AcDbEntity
  8
寸法
 62
     0
 48
50.0
370
    -2
100
AcDbBlockReference
  2
_DOTSMALL
 10
7770.307249876097
 20
5623.28168702392
 30
0.0
 41
100.0
 42
100.0
 43
100.0
 50
90.0
  0
POINT
  5
20E2D
330
1DA44
100
AcDbEntity
  8
DEFPOINTS
 62
     0
 48
50.0
100
AcDbPoint
 10
7553.599999999999
 20
5493.281687023919
 30
0.0
  0
POINT
  5
20E2E
330
1DA44
100
AcDbEntity
  8
DEFPOINTS
 62
     0
 48
50.0
100
AcDbPoint
 10
7553.599999999999
 20
5623.28168702392
 30
0.0
  0
POINT
  5
20E2F
330
1DA44
100
AcDbEntity
  8
DEFPOINTS
 62
     0
 48
50.0
100
AcDbPoint
 10
7770.307249876097
 20
5623.28168702392
 30
0.0
  0
ENDBLK
  5
1DA50
330
1DA44
100
AcDbEntity
  8
0
 48
50.0
100
AcDbBlockEnd
  0
BLOCK
  5
1DA5C
330
1DA51
100
AcDbEntity
  8
0
 48
50.0
100
AcDbBlockBegin
  2
*D2
 70
     1
 10
0.0
 20
0.0
 30
0.0
  3
*D2
  1

  0
LINE
  5
20E1C
330
1DA51
100
AcDbEntity
  8
寸法
 62
     0
 48
50.0
370
    -2
100
AcDbLine
 10
7573.599999999998
 20
5493.28168702392
 30
0.0
 11
7830.307249876097
 21
5493.28168702392
 31
0.0
  0
LINE
  5
20E1D
330
1DA51
100
AcDbEntity
  8
寸法
 62
     0
 48
50.0
370
    -2
100
AcDbLine
 10
7573.599999999998
 20
5323.281687023918
 30
0.0
 11
7830.307249876097
 21
5323.281687023918
 31
0.0
  0
LINE
  5
20E1E
330
1DA51
100
AcDbEntity
  8
寸法
 62
     0
 48
50.0
370
    -2
100
AcDbLine
 10
7770.307249876097
 20
5493.28168702392
 30
0.0
 11
7770.307249876097
 21
5323.281687023918
 31
0.0
  0
LINE
  5
20E1F
330
1DA51
100
AcDbEntity
  8
寸法
 62
     0
 48
50.0
370
    -2
100
AcDbLine
 10
7770.307249876097
 20
4951.187198834941
 30
0.0
 11
7770.307249876097
 21
5323.281687023918
 31
0.0
  0
MTEXT
  5
20E20
330
1DA51
100
AcDbEntity
  8
寸法
 62
     7
 48
50.0
100
AcDbMText
 10
7670.307249876096
 20
5087.234442929431
 30
0.0
 40
120.0
 41
0.0
 71
     5
 72
     1
  1
\A1;170
  7
STYLE1
 11
0.0000000000000001
 21
1.0
 31
0.0
 73
     1
 44
1.0
1001
ACAD
1000
MTEXTBEGIN
1070
    73
1070
     1
1070
    44
1040
1.0
1070
    74
1070
     0
1000
MTEXTEND
  0
INSERT
  5
20E21
330
1DA51
100
AcDbEntity
  8
寸法
 62
     0
 48
50.0
370
    -2
100
AcDbBlockReference
  2
_DOTSMALL
 10
7770.307249876097
 20
5493.28168702392
 30
0.0
 41
100.0
 42
100.0
 43
100.0
 50
90.0
  0
INSERT
  5
20E22
330
1DA51
100
AcDbEntity
  8
寸法
 62
     0
 48
50.0
370
    -2
100
AcDbBlockReference
  2
_DOTSMALL
 10
7770.307249876097
 20
5323.281687023918
 30
0.0
 41
100.0
 42
100.0
 43
100.0
 50
270.0
  0
POINT
  5
20E23
330
1DA51
100
AcDbEntity
  8
DEFPOINTS
 62
     0
 48
50.0
100
AcDbPoint
 10
7553.599999999999
 20
5493.28168702392
 30
0.0
  0
POINT
  5
20E24
330
1DA51
100
AcDbEntity
  8
DEFPOINTS
 62
     0
 48
50.0
100
AcDbPoint
 10
7553.599999999999
 20
5323.281687023918
 30
0.0
  0
POINT
  5
20E25
330
1DA51
100
AcDbEntity
  8
DEFPOINTS
 62
     0
 48
50.0
100
AcDbPoint
 10
7770.307249876097
 20
5323.281687023918
 30
0.0
  0
ENDBLK
  5
1DA5D
330
1DA51
100
AcDbEntity
  8
0
 48
50.0
100
AcDbBlockEnd
  0
BLOCK
  5
1DA67
330
1DA5E
100
AcDbEntity
  8
0
 48
50.0
100
AcDbBlockBegin
  2
*D3
 70
     1
 10
0.0
 20
0.0
 30
0.0
  3
*D3
  1

  0
LINE
  5
20E13
330
1DA5E
100
AcDbEntity
  8
寸法
 62
     0
 48
50.0
370
    -2
100
AcDbLine
 10
8740.599999999998
 20
7490.281687023916
 30
0.0
 11
8740.599999999998
 21
8408.342297413847
 31
0.0
  0
LINE
  5
20E14
330
1DA5E
100
AcDbEntity
  8
寸法
 62
     0
 48
50.0
370
    -2
100
AcDbLine
 10
7446.6
 20
7490.281687023916
 30
0.0
 11
7446.6
 21
8408.342297413847
 31
0.0
  0
LINE
  5
20E15
330
1DA5E
100
AcDbEntity
  8
寸法
 62
     0
 48
50.0
370
    -2
100
AcDbLine
 10
8740.599999999998
 20
8348.342297413847
 30
0.0
 11
7446.6
 21
8348.342297413847
 31
0.0
  0
INSERT
  5
20E16
330
1DA5E
100
AcDbEntity
  8
寸法
 62
     0
 48
50.0
370
    -2
100
AcDbBlockReference
  2
_DOTSMALL
 10
8740.599999999998
 20
8348.342297413847
 30
0.0
 41
100.0
 42
100.0
 43
100.0
  0
INSERT
  5
20E17
330
1DA5E
100
AcDbEntity
  8
寸法
 62
     0
 48
50.0
370
    -2
100
AcDbBlockReference
  2
_DOTSMALL
 10
7446.6
 20
8348.342297413847
 30
0.0
 41
100.0
 42
100.0
 43
100.0
 50
180.0
  0
MTEXT
  5
20E18
330
1DA5E
100
AcDbEntity
  8
寸法
 62
     7
 48
50.0
100
AcDbMText
 10
8093.6
 20
8448.354108437468
 30
0.0
 40
120.0
 41
0.0
 71
     5
 72
     1
  1
\A1;1294
  7
STYLE1
 73
     1
 44
1.0
1001
ACAD
1000
MTEXTBEGIN
1070
    73
1070
     1
1070
    44
1040
1.0
1070
    74
1070
     0
1000
MTEXTEND
  0
POINT
  5
20E19
330
1DA5E
100
AcDbEntity
  8
DEFPOINTS
 62
     0
 48
50.0
100
AcDbPoint
 10
8740.599999999998
 20
7470.281687023917
 30
0.0
  0
POINT
  5
20E1A
330
1DA5E
100
AcDbEntity
  8
DEFPOINTS
 62
     0
 48
50.0
100
AcDbPoint
 10
7446.6
 20
7470.281687023917
 30
0.0
  0
POINT
  5
20E1B
330
1DA5E
100
AcDbEntity
  8
DEFPOINTS
 62
     0
 48
50.0
100
AcDbPoint
 10
7446.6
 20
8348.342297413847
 30
0.0
  0
ENDBLK
  5
1DA68
330
1DA5E
100
AcDbEntity
  8
0
 48
50.0
100
AcDbBlockEnd
  0
BLOCK
  5
1DA72
330
1DA69
100
AcDbEntity
  8
0
 48
50.0
100
AcDbBlockBegin
  2
*D4
 70
     1
 10
0.0
 20
0.0
 30
0.0
  3
*D4
  1

  0
LINE
  5
20E0A
330
1DA69
100
AcDbEntity
  8
寸法
 62
     0
 48
50.0
370
    -2
100
AcDbLine
 10
7323.599999999998
 20
7563.281687023916
 30
0.0
 11
7323.599999999998
 21
8620.802992930682
 31
0.0
  0
LINE
  5
20E0B
330
1DA69
100
AcDbEntity
  8
寸法
 62
     0
 48
50.0
370
    -2
100
AcDbLine
 10
8863.599999999998
 20
7563.281687023916
 30
0.0
 11
8863.599999999998
 21
8620.802992930682
 31
0.0
  0
LINE
  5
20E0C
330
1DA69
100
AcDbEntity
  8
寸法
 62
     0
 48
50.0
370
    -2
100
AcDbLine
 10
7323.599999999998
 20
8560.802992930684
 30
0.0
 11
8863.599999999998
 21
8560.802992930684
 31
0.0
  0
INSERT
  5
20E0D
330
1DA69
100
AcDbEntity
  8
寸法
 62
     0
 48
50.0
370
    -2
100
AcDbBlockReference
  2
_DOTSMALL
 10
7323.599999999998
 20
8560.802992930684
 30
0.0
 41
100.0
 42
100.0
 43
100.0
 50
180.0
  0
INSERT
  5
20E0E
330
1DA69
100
AcDbEntity
  8
寸法
 62
     0
 48
50.0
370
    -2
100
AcDbBlockReference
  2
_DOTSMALL
 10
8863.599999999998
 20
8560.802992930684
 30
0.0
 41
100.0
 42
100.0
 43
100.0
  0
MTEXT
  5
20E0F
330
1DA69
100
AcDbEntity
  8
寸法
 62
     7
 48
50.0
100
AcDbMText
 10
8093.6
 20
8660.802992930683
 30
0.0
 40
120.0
 41
0.0
 71
     5
 72
     1
  1
\A1;1540
  7
STYLE1
 73
     1
 44
1.0
1001
ACAD
1000
MTEXTBEGIN
1070
    73
1070
     1
1070
    44
1040
1.0
1070
    74
1070
     0
1000
MTEXTEND
  0
POINT
  5
20E10
330
1DA69
100
AcDbEntity
  8
DEFPOINTS
 62
     0
 48
50.0
100
AcDbPoint
 10
7323.599999999998
 20
7543.281687023917
 30
0.0
  0
POINT
  5
20E11
330
1DA69
100
AcDbEntity
  8
DEFPOINTS
 62
     0
 48
50.0
100
AcDbPoint
 10
8863.599999999998
 20
7543.281687023917
 30
0.0
  0
POINT
  5
20E12
330
1DA69
100
AcDbEntity
  8
DEFPOINTS
 62
     0
 48
50.0
100
AcDbPoint
 10
8863.599999999998
 20
8560.802992930684
 30
0.0
  0
ENDBLK
  5
1DA73
330
1DA69
100
AcDbEntity
  8
0
 48
50.0
100
AcDbBlockEnd
  0
BLOCK
  5
1DA7F
330
1DA74
100
AcDbEntity
  8
0
 48
50.0
100
AcDbBlockBegin
  2
*D5
 70
     1
 10
0.0
 20
0.0
 30
0.0
  3
*D5
  1

  0
LINE
  5
20E60
330
1DA74
100
AcDbEntity
  8
寸法
 62
     0
 48
50.0
370
    -2
100
AcDbLine
 10
7446.6
 20
7490.281687023916
 30
0.0
 11
7446.6
 21
8408.342297413847
 31
0.0
  0
LINE
  5
20E61
330
1DA74
100
AcDbEntity
  8
寸法
 62
     0
 48
50.0
370
    -2
100
AcDbLine
 10
7323.599999999998
 20
7563.281687023916
 30
0.0
 11
7323.599999999998
 21
8408.342297413847
 31
0.0
  0
LINE
  5
20E62
330
1DA74
100
AcDbEntity
  8
寸法
 62
     0
 48
50.0
370
    -2
100
AcDbLine
 10
7446.6
 20
8348.342297413847
 30
0.0
 11
7323.599999999998
 21
8348.342297413847
 31
0.0
  0
LINE
  5
20E63
330
1DA74
100
AcDbEntity
  8
寸法
 62
     0
 48
50.0
370
    -2
100
AcDbLine
 10
7323.599999999998
 20
8348.342297413847
 30
0.0
 11
6946.62943725152
 21
8348.342297413847
 31
0.0
  0
INSERT
  5
20E64
330
1DA74
100
AcDbEntity
  8
寸法
 62
     0
 48
50.0
370
    -2
100
AcDbBlockReference
  2
_DOTSMALL
 10
7446.6
 20
8348.342297413847
 30
0.0
 41
100.0
 42
100.0
 43
100.0
  0
INSERT
  5
20E65
330
1DA74
100
AcDbEntity
  8
寸法
 62
     0
 48
50.0
370
    -2
100
AcDbBlockReference
  2
_DOTSMALL
 10
7323.599999999998
 20
8348.342297413847
 30
0.0
 41
100.0
 42
100.0
 43
100.0
 50
180.0
  0
MTEXT
  5
20E66
330
1DA74
100
AcDbEntity
  8
寸法
 62
     7
 48
50.0
100
AcDbMText
 10
7085.11471862576
 20
8448.354108437468
 30
0.0
 40
120.0
 41
0.0
 71
     5
 72
     1
  1
\A1;123
  7
STYLE1
 73
     1
 44
1.0
1001
ACAD
1000
MTEXTBEGIN
1070
    73
1070
     1
1070
    44
1040
1.0
1070
    74
1070
     0
1000
MTEXTEND
  0
POINT
  5
20E67
330
1DA74
100
AcDbEntity
  8
DEFPOINTS
 62
     0
 48
50.0
100
AcDbPoint
 10
7446.6
 20
7470.281687023917
 30
0.0
  0
POINT
  5
20E68
330
1DA74
100
AcDbEntity
  8
DEFPOINTS
 62
     0
 48
50.0
100
AcDbPoint
 10
7323.599999999998
 20
7543.281687023917
 30
0.0
  0
POINT
  5
20E69
330
1DA74
100
AcDbEntity
  8
DEFPOINTS
 62
     0
 48
50.0
100
AcDbPoint
 10
7323.599999999998
 20
8348.342297413847
 30
0.0
  0
ENDBLK
  5
1DA80
330
1DA74
100
AcDbEntity
  8
0
 48
50.0
100
AcDbBlockEnd
  0
BLOCK
  5
1DA8C
330
1DA81
100
AcDbEntity
  8
0
 48
50.0
100
AcDbBlockBegin
  2
*D6
 70
     1
 10
0.0
 20
0.0
 30
0.0
  3
*D6
  1

  0
LINE
  5
20DF6
330
1DA81
100
AcDbEntity
  8
寸法
 62
     0
 48
50.0
370
    -2
100
AcDbLine
 10
7278.599999999994
 20
8368.342297413846
 30
0.0
 11
7278.599999999994
 21
8620.802992930684
 31
0.0
  0
LINE
  5
20DF7
330
1DA81
100
AcDbEntity
  8
寸法
 62
     0
 48
50.0
370
    -2
100
AcDbLine
 10
7323.599999999998
 20
7563.281687023916
 30
0.0
 11
7323.599999999998
 21
8620.802992930684
 31
0.0
  0
LINE
  5
20DF8
330
1DA81
100
AcDbEntity
  8
寸法
 62
     0
 48
50.0
370
    -2
100
AcDbLine
 10
7278.599999999994
 20
8560.802992930685
 30
0.0
 11
7178.599999999994
 21
8560.802992930685
 31
0.0
  0
LINE
  5
20DF9
330
1DA81
100
AcDbEntity
  8
寸法
 62
     0
 48
50.0
370
    -2
100
AcDbLine
 10
7323.599999999998
 20
8560.802992930685
 30
0.0
 11
7423.599999999999
 21
8560.802992930685
 31
0.0
  0
MTEXT
  5
20DFA
330
1DA81
100
AcDbEntity
  8
寸法
 62
     7
 48
50.0
100
AcDbMText
 10
7301.099999999997
 20
8660.802992930685
 30
0.0
 40
120.0
 41
0.0
 71
     5
 72
     1
  1
\A1;a
  7
STYLE1
 73
     1
 44
1.0
1001
ACAD
1000
MTEXTBEGIN
1070
    73
1070
     1
1070
    44
1040
1.0
1070
    74
1070
     0
1000
MTEXTEND
  0
LINE
  5
20DFB
330
1DA81
100
AcDbEntity
  8
寸法
 62
     0
 48
50.0
370
    -2
100
AcDbLine
 10
7278.599999999994
 20
8560.802992930685
 30
0.0
 11
7323.599999999998
 21
8560.802992930685
 31
0.0
  0
INSERT
  5
20DFC
330
1DA81
100
AcDbEntity
  8
寸法
 62
     0
 48
50.0
370
    -2
100
AcDbBlockReference
  2
_DOTSMALL
 10
7278.599999999994
 20
8560.802992930685
 30
0.0
 41
100.0
 42
100.0
 43
100.0
  0
INSERT
  5
20DFD
330
1DA81
100
AcDbEntity
  8
寸法
 62
     0
 48
50.0
370
    -2
100
AcDbBlockReference
  2
_DOTSMALL
 10
7323.599999999998
 20
8560.802992930685
 30
0.0
 41
100.0
 42
100.0
 43
100.0
 50
180.0
  0
POINT
  5
20DFE
330
1DA81
100
AcDbEntity
  8
DEFPOINTS
 62
     0
 48
50.0
100
AcDbPoint
 10
7278.599999999994
 20
8348.342297413847
 30
0.0
  0
POINT
  5
20DFF
330
1DA81
100
AcDbEntity
  8
DEFPOINTS
 62
     0
 48
50.0
100
AcDbPoint
 10
7323.599999999998
 20
7543.281687023917
 30
0.0
  0
POINT
  5
20E00
330
1DA81
100
AcDbEntity
  8
DEFPOINTS
 62
     0
 48
50.0
100
AcDbPoint
 10
7323.599999999998
 20
8560.802992930685
 30
0.0
  0
ENDBLK
  5
1DA8D
330
1DA81
100
AcDbEntity
  8
0
 48
50.0
100
AcDbBlockEnd
  0
BLOCK
  5
1DA98
330
1DA8E
100
AcDbEntity
  8
0
 48
50.0
100
AcDbBlockBegin
  2
*D7
 70
     1
 10
0.0
 20
0.0
 30
0.0
  3
*D7
  1

  0
LINE
  5
20DED
330
1DA8E
100
AcDbEntity
  8
寸法
 62
     0
 48
50.0
370
    -2
100
AcDbLine
 10
7376.599999999999
 20
7420.281687023917
 30
0.0
 11
6767.65773398618
 21
7420.281687023917
 31
0.0
  0
LINE
  5
20DEE
330
1DA8E
100
AcDbEntity
  8
寸法
 62
     0
 48
50.0
370
    -2
100
AcDbLine
 10
7376.600000000006
 20
5521.281687023918
 30
0.0
 11
6767.657733986178
 21
5521.281687023918
 31
0.0
  0
LINE
  5
20DEF
330
1DA8E
100
AcDbEntity
  8
寸法
 62
     0
 48
50.0
370
    -2
100
AcDbLine
 10
6827.657733986178
 20
7420.281687023917
 30
0.0
 11
6827.657733986177
 21
5521.281687023918
 31
0.0
  0
MTEXT
  5
20DF0
330
1DA8E
100
AcDbEntity
  8
寸法
 62
     7
 48
50.0
100
AcDbMText
 10
6727.657733986177
 20
6433.281687023917
 30
0.0
 40
120.0
 41
0.0
 71
     5
 72
     1
  1
\A1;1899
  7
STYLE1
 11
0.0000000000000001
 21
1.0
 31
0.0
 73
     1
 44
1.0
1001
ACAD
1000
MTEXTBEGIN
1070
    73
1070
     1
1070
    44
1040
1.0
1070
    74
1070
     0
1000
MTEXTEND
  0
INSERT
  5
20DF1
330
1DA8E
100
AcDbEntity
  8
寸法
 62
     0
 48
50.0
370
    -2
100
AcDbBlockReference
  2
_DOTSMALL
 10
6827.657733986178
 20
7420.281687023917
 30
0.0
 41
100.0
 42
100.0
 43
100.0
 50
90.0
  0
INSERT
  5
20DF2
330
1DA8E
100
AcDbEntity
  8
寸法
 62
     0
 48
50.0
370
    -2
100
AcDbBlockReference
  2
_DOTSMALL
 10
6827.657733986177
 20
5521.281687023918
 30
0.0
 41
100.0
 42
100.0
 43
100.0
 50
270.0
  0
POINT
  5
20DF3
330
1DA8E
100
AcDbEntity
  8
DEFPOINTS
 62
     0
 48
50.0
100
AcDbPoint
 10
7396.599999999999
 20
7420.281687023917
 30
0.0
  0
POINT
  5
20DF4
330
1DA8E
100
AcDbEntity
  8
DEFPOINTS
 62
     0
 48
50.0
100
AcDbPoint
 10
7396.600000000006
 20
5521.281687023918
 30
0.0
  0
POINT
  5
20DF5
330
1DA8E
100
AcDbEntity
  8
DEFPOINTS
 62
     0
 48
50.0
100
AcDbPoint
 10
6827.657733986177
 20
5521.281687023918
 30
0.0
  0
ENDBLK
  5
1DA99
330
1DA8E
100
AcDbEntity
  8
0
 48
50.0
100
AcDbBlockEnd
  0
BLOCK
  5
1DAA3
330
1DA9A
100
AcDbEntity
  8
0
 48
50.0
100
AcDbBlockBegin
  2
*D8
 70
     1
 10
0.0
 20
0.0
 30
0.0
  3
*D8
  1

  0
LINE
  5
20DE4
330
1DA9A
100
AcDbEntity
  8
寸法
 62
     0
 48
50.0
370
    -2
100
AcDbLine
 10
7303.599999999999
 20
7543.281687023917
 30
0.0
 11
6522.164931848218
 21
7543.281687023917
 31
0.0
  0
LINE
  5
20DE5
330
1DA9A
100
AcDbEntity
  8
寸法
 62
     0
 48
50.0
370
    -2
100
AcDbLine
 10
7303.599999999999
 20
5323.281687023917
 30
0.0
 11
6522.164931848216
 21
5323.281687023917
 31
0.0
  0
LINE
  5
20DE6
330
1DA9A
100
AcDbEntity
  8
寸法
 62
     0
 48
50.0
370
    -2
100
AcDbLine
 10
6582.164931848217
 20
7543.281687023917
 30
0.0
 11
6582.164931848217
 21
5323.281687023917
 31
0.0
  0
MTEXT
  5
20DE7
330
1DA9A
100
AcDbEntity
  8
寸法
 62
     7
 48
50.0
100
AcDbMText
 10
6482.153120824595
 20
6433.281687023917
 30
0.0
 40
120.0
 41
0.0
 71
     5
 72
     1
  1
\A1;2220
  7
STYLE1
 11
0.0000000000000001
 21
1.0
 31
0.0
 73
     1
 44
1.0
1001
ACAD
1000
MTEXTBEGIN
1070
    73
1070
     1
1070
    44
1040
1.0
1070
    74
1070
     0
1000
MTEXTEND
  0
INSERT
  5
20DE8
330
1DA9A
100
AcDbEntity
  8
寸法
 62
     0
 48
50.0
370
    -2
100
AcDbBlockReference
  2
_DOTSMALL
 10
6582.164931848217
 20
7543.281687023917
 30
0.0
 41
100.0
 42
100.0
 43
100.0
 50
90.0
  0
INSERT
  5
20DE9
330
1DA9A
100
AcDbEntity
  8
寸法
 62
     0
 48
50.0
370
    -2
100
AcDbBlockReference
  2
_DOTSMALL
 10
6582.164931848217
 20
5323.281687023917
 30
0.0
 41
100.0
 42
100.0
 43
100.0
 50
270.0
  0
POINT
  5
20DEA
330
1DA9A
100
AcDbEntity
  8
DEFPOINTS
 62
     0
 48
50.0
100
AcDbPoint
 10
7323.599999999998
 20
7543.281687023917
 30
0.0
  0
POINT
  5
20DEB
330
1DA9A
100
AcDbEntity
  8
DEFPOINTS
 62
     0
 48
50.0
100
AcDbPoint
 10
7323.599999999998
 20
5323.281687023917
 30
0.0
  0
POINT
  5
20DEC
330
1DA9A
100
AcDbEntity
  8
DEFPOINTS
 62
     0
 48
50.0
100
AcDbPoint
 10
6582.164931848217
 20
5323.281687023917
 30
0.0
  0
ENDBLK
  5
1DAA4
330
1DA9A
100
AcDbEntity
  8
0
 48
50.0
100
AcDbBlockEnd
  0
BLOCK
  5
1DAB0
330
1DAA5
100
AcDbEntity
  8
0
 48
50.0
100
AcDbBlockBegin
  2
*D9
 70
     1
 10
0.0
 20
0.0
 30
0.0
  3
*D9
  1

  0
LINE
  5
20DDA
330
1DAA5
100
AcDbEntity
  8
寸法
 62
     0
 48
50.0
370
    -2
100
AcDbLine
 10
7376.600000000006
 20
5521.281687023918
 30
0.0
 11
6767.657733986176
 21
5521.281687023918
 31
0.0
  0
LINE
  5
20DDB
330
1DAA5
100
AcDbEntity
  8
寸法
 62
     0
 48
50.0
370
    -2
100
AcDbLine
 10
7303.599999999999
 20
5323.281687023917
 30
0.0
 11
6767.657733986176
 21
5323.281687023917
 31
0.0
  0
LINE
  5
20DDC
330
1DAA5
100
AcDbEntity
  8
寸法
 62
     0
 48
50.0
370
    -2
100
AcDbLine
 10
6827.657733986177
 20
5521.281687023918
 30
0.0
 11
6827.657733986177
 21
5323.281687023917
 31
0.0
  0
LINE
  5
20DDD
330
1DAA5
100
AcDbEntity
  8
寸法
 62
     0
 48
50.0
370
    -2
100
AcDbLine
 10
6827.657733986177
 20
4950.862367364603
 30
0.0
 11
6827.657733986177
 21
5323.281687023917
 31
0.0
  0
MTEXT
  5
20DDE
330
1DAA5
100
AcDbEntity
  8
寸法
 62
     7
 48
50.0
100
AcDbMText
 10
6727.657733986176
 20
5087.072027194261
 30
0.0
 40
120.0
 41
0.0
 71
     5
 72
     1
  1
\A1;198
  7
STYLE1
 11
0.0000000000000001
 21
1.0
 31
0.0
 73
     1
 44
1.0
1001
ACAD
1000
MTEXTBEGIN
1070
    73
1070
     1
1070
    44
1040
1.0
1070
    74
1070
     0
1000
MTEXTEND
  0
INSERT
  5
20DDF
330
1DAA5
100
AcDbEntity
  8
寸法
 62
     0
 48
50.0
370
    -2
100
AcDbBlockReference
  2
_DOTSMALL
 10
6827.657733986177
 20
5521.281687023918
 30
0.0
 41
100.0
 42
100.0
 43
100.0
 50
90.0
  0
INSERT
  5
20DE0
330
1DAA5
100
AcDbEntity
  8
寸法
 62
     0
 48
50.0
370
    -2
100
AcDbBlockReference
  2
_DOTSMALL
 10
6827.657733986177
 20
5323.281687023917
 30
0.0
 41
100.0
 42
100.0
 43
100.0
 50
270.0
  0
POINT
  5
20DE1
330
1DAA5
100
AcDbEntity
  8
DEFPOINTS
 62
     0
 48
50.0
100
AcDbPoint
 10
7396.600000000006
 20
5521.281687023918
 30
0.0
  0
POINT
  5
20DE2
330
1DAA5
100
AcDbEntity
  8
DEFPOINTS
 62
     0
 48
50.0
100
AcDbPoint
 10
7323.599999999998
 20
5323.281687023917
 30
0.0
  0
POINT
  5
20DE3
330
1DAA5
100
AcDbEntity
  8
DEFPOINTS
 62
     0
 48
50.0
100
AcDbPoint
 10
6827.657733986177
 20
5323.281687023917
 30
0.0
  0
ENDBLK
  5
1DAB1
330
1DAA5
100
AcDbEntity
  8
0
 48
50.0
100
AcDbBlockEnd
  0
BLOCK
  5
1DABC
330
1DAB2
100
AcDbEntity
  8
0
 48
50.0
100
AcDbBlockBegin
  2
*D10
 70
     1
 10
0.0
 20
0.0
 30
0.0
  3
*D10
  1

  0
LINE
  5
20DCF
330
1DAB2
100
AcDbEntity
  8
寸法
 62
     0
 48
50.0
370
    -2
100
AcDbLine
 10
7303.599999999999
 20
5323.281687023917
 30
0.0
 11
6522.164931848211
 21
5323.281687023917
 31
0.0
  0
LINE
  5
20DD0
330
1DAB2
100
AcDbEntity
  8
寸法
 62
     0
 48
50.0
370
    -2
100
AcDbLine
 10
6807.657733986177
 20
5268.281687023916
 30
0.0
 11
6522.164931848211
 21
5268.281687023916
 31
0.0
  0
LINE
  5
20DD1
330
1DAB2
100
AcDbEntity
  8
寸法
 62
     0
 48
50.0
370
    -2
100
AcDbLine
 10
6582.16493184821
 20
5323.281687023917
 30
0.0
 11
6582.16493184821
 21
5423.281687023917
 31
0.0
  0
LINE
  5
20DD2
330
1DAB2
100
AcDbEntity
  8
寸法
 62
     0
 48
50.0
370
    -2
100
AcDbLine
 10
6582.16493184821
 20
5268.281687023916
 30
0.0
 11
6582.16493184821
 21
5168.281687023917
 31
0.0
  0
MTEXT
  5
20DD3
330
1DAB2
100
AcDbEntity
  8
寸法
 62
     7
 48
50.0
100
AcDbMText
 10
6482.16493184821
 20
5295.781687023918
 30
0.0
 40
120.0
 41
0.0
 71
     5
 72
     1
  1
\A1;b
  7
STYLE1
 11
0.0000000000000001
 21
1.0
 31
0.0
 73
     1
 44
1.0
1001
ACAD
1000
MTEXTBEGIN
1070
    73
1070
     1
1070
    44
1040
1.0
1070
    74
1070
     0
1000
MTEXTEND
  0
LINE
  5
20DD4
330
1DAB2
100
AcDbEntity
  8
寸法
 62
     0
 48
50.0
370
    -2
100
AcDbLine
 10
6582.16493184821
 20
5323.281687023917
 30
0.0
 11
6582.16493184821
 21
5268.281687023916
 31
0.0
  0
INSERT
  5
20DD5
330
1DAB2
100
AcDbEntity
  8
寸法
 62
     0
 48
50.0
370
    -2
100
AcDbBlockReference
  2
_DOTSMALL
 10
6582.16493184821
 20
5323.281687023917
 30
0.0
 41
100.0
 42
100.0
 43
100.0
 50
270.0
  0
INSERT
  5
20DD6
330
1DAB2
100
AcDbEntity
  8
寸法
 62
     0
 48
50.0
370
    -2
100
AcDbBlockReference
  2
_DOTSMALL
 10
6582.16493184821
 20
5268.281687023916
 30
0.0
 41
100.0
 42
100.0
 43
100.0
 50
90.0
  0
POINT
  5
20DD7
330
1DAB2
100
AcDbEntity
  8
DEFPOINTS
 62
     0
 48
50.0
100
AcDbPoint
 10
7323.599999999998
 20
5323.281687023917
 30
0.0
  0
POINT
  5
20DD8
330
1DAB2
100
AcDbEntity
  8
DEFPOINTS
 62
     0
 48
50.0
100
AcDbPoint
 10
6827.657733986177
 20
5268.281687023916
 30
0.0
  0
POINT
  5
20DD9
330
1DAB2
100
AcDbEntity
  8
DEFPOINTS
 62
     0
 48
50.0
100
AcDbPoint
 10
6582.16493184821
 20
5268.281687023916
 30
0.0
  0
ENDBLK
  5
1DABD
330
1DAB2
100
AcDbEntity
  8
0
 48
50.0
100
AcDbBlockEnd
  0
BLOCK
  5
1DAC9
330
1DABE
100
AcDbEntity
  8
0
 48
50.0
100
AcDbBlockBegin
  2
*D11
 70
     1
 10
0.0
 20
0.0
 30
0.0
  3
*D11
  1

  0
LINE
  5
20DC6
330
1DABE
100
AcDbEntity
  8
寸法
 62
     0
 48
50.0
370
    -2
100
AcDbLine
 10
7303.599999999999
 20
7543.281687023917
 30
0.0
 11
6767.657733986176
 21
7543.281687023917
 31
0.0
  0
LINE
  5
20DC7
330
1DABE
100
AcDbEntity
  8
寸法
 62
     0
 48
50.0
370
    -2
100
AcDbLine
 10
7376.599999999999
 20
7420.281687023917
 30
0.0
 11
6767.657733986176
 21
7420.281687023917
 31
0.0
  0
LINE
  5
20DC8
330
1DABE
100
AcDbEntity
  8
寸法
 62
     0
 48
50.0
370
    -2
100
AcDbLine
 10
6827.657733986177
 20
7543.281687023917
 30
0.0
 11
6827.657733986177
 21
7420.281687023917
 31
0.0
  0
MTEXT
  5
20DC9
330
1DABE
100
AcDbEntity
  8
寸法
 62
     7
 48
50.0
100
AcDbMText
 10
6727.645922962555
 20
7781.766968398156
 30
0.0
 40
120.0
 41
0.0
 71
     5
 72
     1
  1
\A1;123
  7
STYLE1
 11
0.0000000000000001
 21
1.0
 31
0.0
 73
     1
 44
1.0
1001
ACAD
1000
MTEXTBEGIN
1070
    73
1070
     1
1070
    44
1040
1.0
1070
    74
1070
     0
1000
MTEXTEND
  0
INSERT
  5
20DCA
330
1DABE
100
AcDbEntity
  8
寸法
 62
     0
 48
50.0
370
    -2
100
AcDbBlockReference
  2
_DOTSMALL
 10
6827.657733986177
 20
7543.281687023917
 30
0.0
 41
100.0
 42
100.0
 43
100.0
 50
90.0
  0
INSERT
  5
20DCB
330
1DABE
100
AcDbEntity
  8
寸法
 62
     0
 48
50.0
370
    -2
100
AcDbBlockReference
  2
_DOTSMALL
 10
6827.657733986177
 20
7420.281687023917
 30
0.0
 41
100.0
 42
100.0
 43
100.0
 50
270.0
  0
POINT
  5
20DCC
330
1DABE
100
AcDbEntity
  8
DEFPOINTS
 62
     0
 48
50.0
100
AcDbPoint
 10
7323.599999999998
 20
7543.281687023917
 30
0.0
  0
POINT
  5
20DCD
330
1DABE
100
AcDbEntity
  8
DEFPOINTS
 62
     0
 48
50.0
100
AcDbPoint
 10
7396.599999999999
 20
7420.281687023917
 30
0.0
  0
POINT
  5
20DCE
330
1DABE
100
AcDbEntity
  8
DEFPOINTS
 62
     0
 48
50.0
100
AcDbPoint
 10
6827.657733986177
 20
7420.281687023917
 30
0.0
  0
ENDBLK
  5
1DACA
330
1DABE
100
AcDbEntity
  8
0
 48
50.0
100
AcDbBlockEnd
  0
BLOCK
  5
1DAD7
330
1DACB
100
AcDbEntity
  8
0
 48
50.0
100
AcDbBlockBegin
  2
*D12
 70
     1
 10
0.0
 20
0.0
 30
0.0
  3
*D12
  1

  0
LINE
  5
20DBB
330
1DACB
100
AcDbEntity
  8
寸法
 62
     0
 48
50.0
370
    -2
100
AcDbLine
 10
6807.657733986179
 20
7618.281687023916
 30
0.0
 11
6522.164931848209
 21
7618.281687023916
 31
0.0
  0
LINE
  5
20DBC
330
1DACB
100
AcDbEntity
  8
寸法
 62
     0
 48
50.0
370
    -2
100
AcDbLine
 10
7303.599999999999
 20
7543.281687023917
 30
0.0
 11
6522.164931848209
 21
7543.281687023917
 31
0.0
  0
LINE
  5
20DBD
330
1DACB
100
AcDbEntity
  8
寸法
 62
     0
 48
50.0
370
    -2
100
AcDbLine
 10
6582.16493184821
 20
7618.281687023916
 30
0.0
 11
6582.16493184821
 21
7718.281687023917
 31
0.0
  0
LINE
  5
20DBE
330
1DACB
100
AcDbEntity
  8
寸法
 62
     0
 48
50.0
370
    -2
100
AcDbLine
 10
6582.16493184821
 20
7543.281687023917
 30
0.0
 11
6582.16493184821
 21
7443.281687023916
 31
0.0
  0
MTEXT
  5
20DBF
330
1DACB
100
AcDbEntity
  8
寸法
 62
     7
 48
50.0
100
AcDbMText
 10
6482.164931848209
 20
7580.781687023919
 30
0.0
 40
120.0
 41
0.0
 71
     5
 72
     1
  1
\A1;c
  7
STYLE1
 11
0.0000000000000001
 21
1.0
 31
0.0
 73
     1
 44
1.0
1001
ACAD
1000
MTEXTBEGIN
1070
    73
1070
     1
1070
    44
1040
1.0
1070
    74
1070
     0
1000
MTEXTEND
  0
LINE
  5
20DC0
330
1DACB
100
AcDbEntity
  8
寸法
 62
     0
 48
50.0
370
    -2
100
AcDbLine
 10
6582.16493184821
 20
7618.281687023916
 30
0.0
 11
6582.16493184821
 21
7543.281687023917
 31
0.0
  0
INSERT
  5
20DC1
330
1DACB
100
AcDbEntity
  8
寸法
 62
     0
 48
50.0
370
    -2
100
AcDbBlockReference
  2
_DOTSMALL
 10
6582.16493184821
 20
7618.281687023916
 30
0.0
 41
100.0
 42
100.0
 43
100.0
 50
270.0
  0
INSERT
  5
20DC2
330
1DACB
100
AcDbEntity
  8
寸法
 62
     0
 48
50.0
370
    -2
100
AcDbBlockReference
  2
_DOTSMALL
 10
6582.16493184821
 20
7543.281687023917
 30
0.0
 41
100.0
 42
100.0
 43
100.0
 50
90.0
  0
POINT
  5
20DC3
330
1DACB
100
AcDbEntity
  8
DEFPOINTS
 62
     0
 48
50.0
100
AcDbPoint
 10
6827.657733986177
 20
7618.281687023916
 30
0.0
  0
POINT
  5
20DC4
330
1DACB
100
AcDbEntity
  8
DEFPOINTS
 62
     0
 48
50.0
100
AcDbPoint
 10
7323.599999999998
 20
7543.281687023917
 30
0.0
  0
POINT
  5
20DC5
330
1DACB
100
AcDbEntity
  8
DEFPOINTS
 62
     0
 48
50.0
100
AcDbPoint
 10
6582.16493184821
 20
7543.281687023917
 30
0.0
  0
ENDBLK
  5
1DAD8
330
1DACB
100
AcDbEntity
  8
0
 48
50.0
100
AcDbBlockEnd
  0
BLOCK
  5
1DAE4
330
1DAD9
100
AcDbEntity
  8
0
 48
50.0
100
AcDbBlockBegin
  2
*D13
 70
     1
 10
0.0
 20
0.0
 30
0.0
  3
*D13
  1

  0
LINE
  5
20E56
330
1DAD9
100
AcDbEntity
  8
寸法
 62
     0
 48
50.0
370
    -2
100
AcDbLine
 10
8863.599999999998
 20
7563.281687023916
 30
0.0
 11
8863.599999999998
 21
8408.342297413847
 31
0.0
  0
LINE
  5
20E57
330
1DAD9
100
AcDbEntity
  8
寸法
 62
     0
 48
50.0
370
    -2
100
AcDbLine
 10
8740.599999999998
 20
7490.281687023916
 30
0.0
 11
8740.599999999998
 21
8408.342297413847
 31
0.0
  0
LINE
  5
20E58
330
1DAD9
100
AcDbEntity
  8
寸法
 62
     0
 48
50.0
370
    -2
100
AcDbLine
 10
8740.599999999998
 20
8348.342297413847
 30
0.0
 11
8863.599999999998
 21
8348.342297413847
 31
0.0
  0
LINE
  5
20E59
330
1DAD9
100
AcDbEntity
  8
寸法
 62
     0
 48
50.0
370
    -2
100
AcDbLine
 10
8863.599999999998
 20
8348.342297413847
 30
0.0
 11
9240.570562748475
 21
8348.342297413847
 31
0.0
  0
INSERT
  5
20E5A
330
1DAD9
100
AcDbEntity
  8
寸法
 62
     0
 48
50.0
370
    -2
100
AcDbBlockReference
  2
_DOTSMALL
 10
8740.599999999998
 20
8348.342297413847
 30
0.0
 41
100.0
 42
100.0
 43
100.0
 50
180.0
  0
INSERT
  5
20E5B
330
1DAD9
100
AcDbEntity
  8
寸法
 62
     0
 48
50.0
370
    -2
100
AcDbBlockReference
  2
_DOTSMALL
 10
8863.599999999998
 20
8348.342297413847
 30
0.0
 41
100.0
 42
100.0
 43
100.0
  0
MTEXT
  5
20E5C
330
1DAD9
100
AcDbEntity
  8
寸法
 62
     7
 48
50.0
100
AcDbMText
 10
9102.085281374236
 20
8448.354108437468
 30
0.0
 40
120.0
 41
0.0
 71
     5
 72
     1
  1
\A1;123
  7
STYLE1
 73
     1
 44
1.0
1001
ACAD
1000
MTEXTBEGIN
1070
    73
1070
     1
1070
    44
1040
1.0
1070
    74
1070
     0
1000
MTEXTEND
  0
POINT
  5
20E5D
330
1DAD9
100
AcDbEntity
  8
DEFPOINTS
 62
     0
 48
50.0
100
AcDbPoint
 10
8863.599999999998
 20
7543.281687023917
 30
0.0
  0
POINT
  5
20E5E
330
1DAD9
100
AcDbEntity
  8
DEFPOINTS
 62
     0
 48
50.0
100
AcDbPoint
 10
8740.599999999998
 20
7470.281687023917
 30
0.0
  0
POINT
  5
20E5F
330
1DAD9
100
AcDbEntity
  8
DEFPOINTS
 62
     0
 48
50.0
100
AcDbPoint
 10
8740.599999999998
 20
8348.342297413847
 30
0.0
  0
ENDBLK
  5
1DAE5
330
1DAD9
100
AcDbEntity
  8
0
 48
50.0
100
AcDbBlockEnd
  0
BLOCK
  5
1DAF1
330
1DAE6
100
AcDbEntity
  8
0
 48
50.0
100
AcDbBlockBegin
  2
*D14
 70
     1
 10
0.0
 20
0.0
 30
0.0
  3
*D14
  1

  0
LINE
  5
20DA7
330
1DAE6
100
AcDbEntity
  8
寸法
 62
     0
 48
50.0
370
    -2
100
AcDbLine
 10
8863.599999999998
 20
7563.281687023916
 30
0.0
 11
8863.599999999998
 21
8620.802992930682
 31
0.0
  0
LINE
  5
20DA8
330
1DAE6
100
AcDbEntity
  8
寸法
 62
     0
 48
50.0
370
    -2
100
AcDbLine
 10
8908.599999999998
 20
8368.342297413846
 30
0.0
 11
8908.599999999998
 21
8620.802992930682
 31
0.0
  0
LINE
  5
20DA9
330
1DAE6
100
AcDbEntity
  8
寸法
 62
     0
 48
50.0
370
    -2
100
AcDbLine
 10
8863.599999999998
 20
8560.802992930684
 30
0.0
 11
8763.599999999998
 21
8560.802992930684
 31
0.0
  0
LINE
  5
20DAA
330
1DAE6
100
AcDbEntity
  8
寸法
 62
     0
 48
50.0
370
    -2
100
AcDbLine
 10
8908.599999999998
 20
8560.802992930684
 30
0.0
 11
9008.599999999999
 21
8560.802992930684
 31
0.0
  0
MTEXT
  5
20DAB
330
1DAE6
100
AcDbEntity
  8
寸法
 62
     7
 48
50.0
100
AcDbMText
 10
8886.099999999998
 20
8660.802992930683
 30
0.0
 40
120.0
 41
0.0
 71
     5
 72
     1
  1
\A1;a
  7
STYLE1
 73
     1
 44
1.0
1001
ACAD
1000
MTEXTBEGIN
1070
    73
1070
     1
1070
    44
1040
1.0
1070
    74
1070
     0
1000
MTEXTEND
  0
LINE
  5
20DAC
330
1DAE6
100
AcDbEntity
  8
寸法
 62
     0
 48
50.0
370
    -2
100
AcDbLine
 10
8863.599999999998
 20
8560.802992930684
 30
0.0
 11
8908.599999999998
 21
8560.802992930684
 31
0.0
  0
INSERT
  5
20DAD
330
1DAE6
100
AcDbEntity
  8
寸法
 62
     0
 48
50.0
370
    -2
100
AcDbBlockReference
  2
_DOTSMALL
 10
8863.599999999998
 20
8560.802992930684
 30
0.0
 41
100.0
 42
100.0
 43
100.0
  0
INSERT
  5
20DAE
330
1DAE6
100
AcDbEntity
  8
寸法
 62
     0
 48
50.0
370
    -2
100
AcDbBlockReference
  2
_DOTSMALL
 10
8908.599999999998
 20
8560.802992930684
 30
0.0
 41
100.0
 42
100.0
 43
100.0
 50
180.0
  0
POINT
  5
20DAF
330
1DAE6
100
AcDbEntity
  8
DEFPOINTS
 62
     0
 48
50.0
100
AcDbPoint
 10
8863.599999999998
 20
7543.281687023917
 30
0.0
  0
POINT
  5
20DB0
330
1DAE6
100
AcDbEntity
  8
DEFPOINTS
 62
     0
 48
50.0
100
AcDbPoint
 10
8908.599999999998
 20
8348.342297413847
 30
0.0
  0
POINT
  5
20DB1
330
1DAE6
100
AcDbEntity
  8
DEFPOINTS
 62
     0
 48
50.0
100
AcDbPoint
 10
8908.599999999998
 20
8560.802992930684
 30
0.0
  0
ENDBLK
  5
1DAF2
330
1DAE6
100
AcDbEntity
  8
0
 48
50.0
100
AcDbBlockEnd
  0
BLOCK
  5
1DAFE
330
1DAF3
100
AcDbEntity
  8
0
 48
50.0
100
AcDbBlockBegin
  2
*D15
 70
     1
 10
0.0
 20
0.0
 30
0.0
  3
*D15
  1

  0
LINE
  5
20D9D
330
1DAF3
100
AcDbEntity
  8
寸法
 62
     0
 48
50.0
370
    -2
100
AcDbLine
 10
8863.599999999998
 20
7293.281687023917
 30
0.0
 11
8863.599999999998
 21
6983.271963995846
 31
0.0
  0
LINE
  5
20D9E
330
1DAF3
100
AcDbEntity
  8
寸法
 62
     0
 48
50.0
370
    -2
100
AcDbLine
 10
8743.599999999998
 20
7293.281687023918
 30
0.0
 11
8743.599999999998
 21
6983.271963995846
 31
0.0
  0
LINE
  5
20D9F
330
1DAF3
100
AcDbEntity
  8
寸法
 62
     0
 48
50.0
370
    -2
100
AcDbLine
 10
8863.599999999998
 20
7043.271963995845
 30
0.0
 11
8743.599999999998
 21
7043.271963995845
 31
0.0
  0
LINE
  5
20DA0
330
1DAF3
100
AcDbEntity
  8
寸法
 62
     0
 48
50.0
370
    -2
100
AcDbLine
 10
9235.694488188975
 20
7043.271963995845
 30
0.0
 11
8863.599999999998
 21
7043.271963995845
 31
0.0
  0
MTEXT
  5
20DA1
330
1DAF3
100
AcDbEntity
  8
寸法
 62
     7
 48
50.0
100
AcDbMText
 10
9099.647244094487
 20
7143.283775019466
 30
0.0
 40
120.0
 41
0.0
 71
     5
 72
     1
  1
\A1;120
  7
STYLE1
 73
     1
 44
1.0
1001
ACAD
1000
MTEXTBEGIN
1070
    73
1070
     1
1070
    44
1040
1.0
1070
    74
1070
     0
1000
MTEXTEND
  0
INSERT
  5
20DA2
330
1DAF3
100
AcDbEntity
  8
寸法
 62
     0
 48
50.0
370
    -2
100
AcDbBlockReference
  2
_DOTSMALL
 10
8863.599999999998
 20
7043.271963995845
 30
0.0
 41
100.0
 42
100.0
 43
100.0
  0
INSERT
  5
20DA3
330
1DAF3
100
AcDbEntity
  8
寸法
 62
     0
 48
50.0
370
    -2
100
AcDbBlockReference
  2
_DOTSMALL
 10
8743.599999999998
 20
7043.271963995845
 30
0.0
 41
100.0
 42
100.0
 43
100.0
 50
180.0
  0
POINT
  5
20DA4
330
1DAF3
100
AcDbEntity
  8
DEFPOINTS
 62
     0
 48
50.0
100
AcDbPoint
 10
8863.599999999998
 20
7313.281687023916
 30
0.0
  0
POINT
  5
20DA5
330
1DAF3
100
AcDbEntity
  8
DEFPOINTS
 62
     0
 48
50.0
100
AcDbPoint
 10
8743.599999999998
 20
7313.281687023918
 30
0.0
  0
POINT
  5
20DA6
330
1DAF3
100
AcDbEntity
  8
DEFPOINTS
 62
     0
 48
50.0
100
AcDbPoint
 10
8743.599999999998
 20
7043.271963995845
 30
0.0
  0
ENDBLK
  5
1DAFF
330
1DAF3
100
AcDbEntity
  8
0
 48
50.0
100
AcDbBlockEnd
  0
BLOCK
  5
1DB0B
330
1DB00
100
AcDbEntity
  8
0
 48
50.0
100
AcDbBlockBegin
  2
*D16
 70
     1
 10
0.0
 20
0.0
 30
0.0
  3
*D16
  1

  0
LINE
  5
20D93
330
1DB00
100
AcDbEntity
  8
寸法
 62
     0
 48
50.0
370
    -2
100
AcDbLine
 10
7573.599999999998
 20
7423.281687023917
 30
0.0
 11
7846.890767703563
 21
7423.281687023917
 31
0.0
  0
LINE
  5
20D94
330
1DB00
100
AcDbEntity
  8
寸法
 62
     0
 48
50.0
370
    -2
100
AcDbLine
 10
7573.599999999998
 20
7313.281687023913
 30
0.0
 11
7846.890767703563
 21
7313.281687023913
 31
0.0
  0
LINE
  5
20D95
330
1DB00
100
AcDbEntity
  8
寸法
 62
     0
 48
50.0
370
    -2
100
AcDbLine
 10
7786.890767703562
 20
7423.281687023917
 30
0.0
 11
7786.890767703562
 21
7313.281687023913
 31
0.0
  0
LINE
  5
20D96
330
1DB00
100
AcDbEntity
  8
寸法
 62
     0
 48
50.0
370
    -2
100
AcDbLine
 10
7786.890767703562
 20
6953.187198834936
 30
0.0
 11
7786.890767703562
 21
7313.281687023913
 31
0.0
  0
MTEXT
  5
20D97
330
1DB00
100
AcDbEntity
  8
寸法
 62
     7
 48
50.0
100
AcDbMText
 10
7686.890767703561
 20
7077.234442929425
 30
0.0
 40
120.0
 41
0.0
 71
     5
 72
     1
  1
\A1;110
  7
STYLE1
 11
0.0000000000000001
 21
1.0
 31
0.0
 73
     1
 44
1.0
1001
ACAD
1000
MTEXTBEGIN
1070
    73
1070
     1
1070
    44
1040
1.0
1070
    74
1070
     0
1000
MTEXTEND
  0
INSERT
  5
20D98
330
1DB00
100
AcDbEntity
  8
寸法
 62
     0
 48
50.0
370
    -2
100
AcDbBlockReference
  2
_DOTSMALL
 10
7786.890767703562
 20
7423.281687023917
 30
0.0
 41
100.0
 42
100.0
 43
100.0
 50
90.0
  0
INSERT
  5
20D99
330
1DB00
100
AcDbEntity
  8
寸法
 62
     0
 48
50.0
370
    -2
100
AcDbBlockReference
  2
_DOTSMALL
 10
7786.890767703562
 20
7313.281687023913
 30
0.0
 41
100.0
 42
100.0
 43
100.0
 50
270.0
  0
POINT
  5
20D9A
330
1DB00
100
AcDbEntity
  8
DEFPOINTS
 62
     0
 48
50.0
100
AcDbPoint
 10
7553.599999999997
 20
7423.281687023917
 30
0.0
  0
POINT
  5
20D9B
330
1DB00
100
AcDbEntity
  8
DEFPOINTS
 62
     0
 48
50.0
100
AcDbPoint
 10
7553.599999999999
 20
7313.281687023913
 30
0.0
  0
POINT
  5
20D9C
330
1DB00
100
AcDbEntity
  8
DEFPOINTS
 62
     0
 48
50.0
100
AcDbPoint
 10
7786.890767703562
 20
7313.281687023913
 30
0.0
  0
ENDBLK
  5
1DB0C
330
1DB00
100
AcDbEntity
  8
0
 48
50.0
100
AcDbBlockEnd
  0
BLOCK
  5
1DB25
330
1DB1A
100
AcDbEntity
  8
0
 48
50.0
100
AcDbBlockBegin
  2
*D17
 70
     1
 10
0.0
 20
0.0
 30
0.0
  3
*D17
  1

  0
LINE
  5
20D89
330
1DB1A
100
AcDbEntity
  8
寸法
 62
     0
 48
50.0
370
    -2
100
AcDbLine
 10
7545.599999999999
 20
7543.281687023915
 30
0.0
 11
7846.890767703562
 21
7543.281687023915
 31
0.0
  0
LINE
  5
20D8A
330
1DB1A
100
AcDbEntity
  8
寸法
 62
     0
 48
50.0
370
    -2
100
AcDbLine
 10
7573.599999999998
 20
7423.281687023917
 30
0.0
 11
7846.890767703562
 21
7423.281687023917
 31
0.0
  0
LINE
  5
20D8B
330
1DB1A
100
AcDbEntity
  8
寸法
 62
     0
 48
50.0
370
    -2
100
AcDbLine
 10
7786.89076770356
 20
7543.281687023915
 30
0.0
 11
7786.89076770356
 21
7423.281687023917
 31
0.0
  0
LINE
  5
20D8C
330
1DB1A
100
AcDbEntity
  8
寸法
 62
     0
 48
50.0
370
    -2
100
AcDbLine
 10
7786.89076770356
 20
7915.376175212895
 30
0.0
 11
7786.89076770356
 21
7543.281687023915
 31
0.0
  0
MTEXT
  5
20D8D
330
1DB1A
100
AcDbEntity
  8
寸法
 62
     7
 48
50.0
100
AcDbMText
 10
7686.878956679939
 20
7779.328931118406
 30
0.0
 40
120.0
 41
0.0
 71
     5
 72
     1
  1
\A1;120
  7
STYLE1
 11
0.0000000000000001
 21
1.0
 31
0.0
 73
     1
 44
1.0
1001
ACAD
1000
MTEXTBEGIN
1070
    73
1070
     1
1070
    44
1040
1.0
1070
    74
1070
     0
1000
MTEXTEND
  0
INSERT
  5
20D8E
330
1DB1A
100
AcDbEntity
  8
寸法
 62
     0
 48
50.0
370
    -2
100
AcDbBlockReference
  2
_DOTSMALL
 10
7786.89076770356
 20
7543.281687023915
 30
0.0
 41
100.0
 42
100.0
 43
100.0
 50
90.0
  0
INSERT
  5
20D8F
330
1DB1A
100
AcDbEntity
  8
寸法
 62
     0
 48
50.0
370
    -2
100
AcDbBlockReference
  2
_DOTSMALL
 10
7786.89076770356
 20
7423.281687023917
 30
0.0
 41
100.0
 42
100.0
 43
100.0
 50
270.0
  0
POINT
  5
20D90
330
1DB1A
100
AcDbEntity
  8
DEFPOINTS
 62
     0
 48
50.0
100
AcDbPoint
 10
7525.599999999998
 20
7543.281687023915
 30
0.0
  0
POINT
  5
20D91
330
1DB1A
100
AcDbEntity
  8
DEFPOINTS
 62
     0
 48
50.0
100
AcDbPoint
 10
7553.599999999997
 20
7423.281687023917
 30
0.0
  0
POINT
  5
20D92
330
1DB1A
100
AcDbEntity
  8
DEFPOINTS
 62
     0
 48
50.0
100
AcDbPoint
 10
7786.89076770356
 20
7423.281687023917
 30
0.0
  0
ENDBLK
  5
1DB26
330
1DB1A
100
AcDbEntity
  8
0
 48
50.0
100
AcDbBlockEnd
  0
BLOCK
  5
1FAD6
330
1FACC
100
AcDbEntity
  8
0
 48
50.0
100
AcDbBlockBegin
  2
*D18
 70
     1
 10
0.0
 20
0.0
 30
0.0
  3
*D18
  1

  0
LINE
  5
20D80
330
1FACC
100
AcDbEntity
  8
寸法
 62
     0
 48
50.0
370
    -2
100
AcDbLine
 10
7323.599999999998
 20
7563.281687023916
 30
0.0
 11
7323.599999999998
 21
8169.821603578355
 31
0.0
  0
LINE
  5
20D81
330
1FACC
100
AcDbEntity
  8
寸法
 62
     0
 48
50.0
370
    -2
100
AcDbLine
 10
8093.6
 20
6873.281687023916
 30
0.0
 11
8093.6
 21
8169.821603578355
 31
0.0
  0
LINE
  5
20D82
330
1FACC
100
AcDbEntity
  8
寸法
 62
     0
 48
50.0
370
    -2
100
AcDbLine
 10
7323.599999999998
 20
8109.821603578355
 30
0.0
 11
8093.6
 21
8109.821603578355
 31
0.0
  0
INSERT
  5
20D83
330
1FACC
100
AcDbEntity
  8
寸法
 62
     0
 48
50.0
370
    -2
100
AcDbBlockReference
  2
_DOTSMALL
 10
7323.599999999998
 20
8109.821603578355
 30
0.0
 41
100.0
 42
100.0
 43
100.0
 50
180.0
  0
INSERT
  5
20D84
330
1FACC
100
AcDbEntity
  8
寸法
 62
     0
 48
50.0
370
    -2
100
AcDbBlockReference
  2
_DOTSMALL
 10
8093.6
 20
8109.821603578355
 30
0.0
 41
100.0
 42
100.0
 43
100.0
  0
MTEXT
  5
20D85
330
1FACC
100
AcDbEntity
  8
寸法
 62
     7
 48
50.0
100
AcDbMText
 10
7708.599999999998
 20
8209.821603578355
 30
0.0
 40
120.0
 41
0.0
 71
     5
 72
     1
  1
\A1;770
  7
STYLE1
 73
     1
 44
1.0
1001
ACAD
1000
MTEXTBEGIN
1070
    73
1070
     1
1070
    44
1040
1.0
1070
    74
1070
     0
1000
MTEXTEND
  0
POINT
  5
20D86
330
1FACC
100
AcDbEntity
  8
DEFPOINTS
 62
     0
 48
50.0
100
AcDbPoint
 10
7323.599999999998
 20
7543.281687023917
 30
0.0
  0
POINT
  5
20D87
330
1FACC
100
AcDbEntity
  8
DEFPOINTS
 62
     0
 48
50.0
100
AcDbPoint
 10
8093.6
 20
6853.281687023917
 30
0.0
  0
POINT
  5
20D88
330
1FACC
100
AcDbEntity
  8
DEFPOINTS
 62
     0
 48
50.0
100
AcDbPoint
 10
8093.6
 20
8109.821603578355
 30
0.0
  0
ENDBLK
  5
1FAD7
330
1FACC
100
AcDbEntity
  8
0
 48
50.0
100
AcDbBlockEnd
  0
BLOCK
  5
1FB29
330
1FB1F
100
AcDbEntity
  8
0
 48
50.0
100
AcDbBlockBegin
  2
*D19
 70
     1
 10
0.0
 20
0.0
 30
0.0
  3
*D19
  1

  0
LINE
  5
20D77
330
1FB1F
100
AcDbEntity
  8
寸法
 62
     0
 48
50.0
370
    -2
100
AcDbLine
 10
8093.6
 20
6873.281687023916
 30
0.0
 11
8093.6
 21
8169.821603578355
 31
0.0
  0
LINE
  5
20D78
330
1FB1F
100
AcDbEntity
  8
寸法
 62
     0
 48
50.0
370
    -2
100
AcDbLine
 10
8863.599999999998
 20
7563.281687023916
 30
0.0
 11
8863.599999999998
 21
8169.821603578355
 31
0.0
  0
LINE
  5
20D79
330
1FB1F
100
AcDbEntity
  8
寸法
 62
     0
 48
50.0
370
    -2
100
AcDbLine
 10
8093.6
 20
8109.821603578355
 30
0.0
 11
8863.599999999998
 21
8109.821603578355
 31
0.0
  0
INSERT
  5
20D7A
330
1FB1F
100
AcDbEntity
  8
寸法
 62
     0
 48
50.0
370
    -2
100
AcDbBlockReference
  2
_DOTSMALL
 10
8093.6
 20
8109.821603578355
 30
0.0
 41
100.0
 42
100.0
 43
100.0
 50
180.0
  0
INSERT
  5
20D7B
330
1FB1F
100
AcDbEntity
  8
寸法
 62
     0
 48
50.0
370
    -2
100
AcDbBlockReference
  2
_DOTSMALL
 10
8863.599999999998
 20
8109.821603578355
 30
0.0
 41
100.0
 42
100.0
 43
100.0
  0
MTEXT
  5
20D7C
330
1FB1F
100
AcDbEntity
  8
寸法
 62
     7
 48
50.0
100
AcDbMText
 10
8478.599999999998
 20
8209.821603578355
 30
0.0
 40
120.0
 41
0.0
 71
     5
 72
     1
  1
\A1;770
  7
STYLE1
 73
     1
 44
1.0
1001
ACAD
1000
MTEXTBEGIN
1070
    73
1070
     1
1070
    44
1040
1.0
1070
    74
1070
     0
1000
MTEXTEND
  0
POINT
  5
20D7D
330
1FB1F
100
AcDbEntity
  8
DEFPOINTS
 62
     0
 48
50.0
100
AcDbPoint
 10
8093.6
 20
6853.281687023917
 30
0.0
  0
POINT
  5
20D7E
330
1FB1F
100
AcDbEntity
  8
DEFPOINTS
 62
     0
 48
50.0
100
AcDbPoint
 10
8863.599999999998
 20
7543.281687023917
 30
0.0
  0
POINT
  5
20D7F
330
1FB1F
100
AcDbEntity
  8
DEFPOINTS
 62
     0
 48
50.0
100
AcDbPoint
 10
8863.599999999998
 20
8109.821603578355
 30
0.0
  0
ENDBLK
  5
1FB2A
330
1FB1F
100
AcDbEntity
  8
0
 48
50.0
100
AcDbBlockEnd
  0
BLOCK
  5
2032F
330
20325
100
AcDbEntity
  8
0
 48
50.0
100
AcDbBlockBegin
  2
*D20
 70
     1
 10
0.0
 20
0.0
 30
0.0
  3
*D20
  1

  0
LINE
  5
20D5C
330
20325
100
AcDbEntity
  8
寸法
 62
     0
 48
50.0
370
    -2
100
AcDbLine
 10
8163.599999999998
 20
6803.281687023917
 30
0.0
 11
8341.156431984797
 21
6803.281687023917
 31
0.0
  0
LINE
  5
20D5D
330
20325
100
AcDbEntity
  8
寸法
 62
     0
 48
50.0
370
    -2
100
AcDbLine
 10
8163.599999999998
 20
6138.281687023916
 30
0.0
 11
8341.156431984797
 21
6138.281687023916
 31
0.0
  0
LINE
  5
20D5E
330
20325
100
AcDbEntity
  8
寸法
 62
     0
 48
50.0
370
    -2
100
AcDbLine
 10
8281.156431984797
 20
6803.281687023917
 30
0.0
 11
8281.156431984797
 21
6138.281687023916
 31
0.0
  0
INSERT
  5
20D5F
330
20325
100
AcDbEntity
  8
寸法
 62
     0
 48
50.0
370
    -2
100
AcDbBlockReference
  2
_DOTSMALL
 10
8281.156431984797
 20
6803.281687023917
 30
0.0
 41
100.0
 42
100.0
 43
100.0
 50
90.0
  0
INSERT
  5
20D60
330
20325
100
AcDbEntity
  8
寸法
 62
     0
 48
50.0
370
    -2
100
AcDbBlockReference
  2
_DOTSMALL
 10
8281.156431984797
 20
6138.281687023916
 30
0.0
 41
100.0
 42
100.0
 43
100.0
 50
270.0
  0
MTEXT
  5
20D61
330
20325
100
AcDbEntity
  8
寸法
 62
     7
 48
50.0
100
AcDbMText
 10
8181.156431984794
 20
6470.781687023917
 30
0.0
 40
120.0
 41
0.0
 71
     5
 72
     1
  1
\A1;665
  7
STYLE1
 11
0.0000000000000001
 21
1.0
 31
0.0
 73
     1
 44
1.0
1001
ACAD
1000
MTEXTBEGIN
1070
    73
1070
     1
1070
    44
1040
1.0
1070
    74
1070
     0
1000
MTEXTEND
  0
POINT
  5
20D62
330
20325
100
AcDbEntity
  8
DEFPOINTS
 62
     0
 48
50.0
100
AcDbPoint
 10
8143.599999999999
 20
6803.281687023917
 30
0.0
  0
POINT
  5
20D63
330
20325
100
AcDbEntity
  8
DEFPOINTS
 62
     0
 48
50.0
100
AcDbPoint
 10
8143.599999999999
 20
6138.281687023916
 30
0.0
  0
POINT
  5
20D64
330
20325
100
AcDbEntity
  8
DEFPOINTS
 62
     0
 48
50.0
100
AcDbPoint
 10
8281.156431984797
 20
6138.281687023916
 30
0.0
  0
ENDBLK
  5
20330
330
20325
100
AcDbEntity
  8
0
 48
50.0
100
AcDbBlockEnd
  0
BLOCK
  5
2033B
330
20331
100
AcDbEntity
  8
0
 48
50.0
100
AcDbBlockBegin
  2
*D21
 70
     1
 10
0.0
 20
0.0
 30
0.0
  3
*D21
  1

  0
LINE
  5
20D65
330
20331
100
AcDbEntity
  8
寸法
 62
     0
 48
50.0
370
    -2
100
AcDbLine
 10
8163.599999999998
 20
6138.281687023916
 30
0.0
 11
8341.156431984797
 21
6138.281687023916
 31
0.0
  0
LINE
  5
20D66
330
20331
100
AcDbEntity
  8
寸法
 62
     0
 48
50.0
370
    -2
100
AcDbLine
 10
8213.600000000013
 20
5323.281687023926
 30
0.0
 11
8341.156431984797
 21
5323.281687023926
 31
0.0
  0
LINE
  5
20D67
330
20331
100
AcDbEntity
  8
寸法
 62
     0
 48
50.0
370
    -2
100
AcDbLine
 10
8281.156431984797
 20
6138.281687023916
 30
0.0
 11
8281.156431984797
 21
5323.281687023926
 31
0.0
  0
INSERT
  5
20D68
330
20331
100
AcDbEntity
  8
寸法
 62
     0
 48
50.0
370
    -2
100
AcDbBlockReference
  2
_DOTSMALL
 10
8281.156431984797
 20
6138.281687023916
 30
0.0
 41
100.0
 42
100.0
 43
100.0
 50
90.0
  0
INSERT
  5
20D69
330
20331
100
AcDbEntity
  8
寸法
 62
     0
 48
50.0
370
    -2
100
AcDbBlockReference
  2
_DOTSMALL
 10
8281.156431984797
 20
5323.281687023926
 30
0.0
 41
100.0
 42
100.0
 43
100.0
 50
270.0
  0
MTEXT
  5
20D6A
330
20331
100
AcDbEntity
  8
寸法
 62
     7
 48
50.0
100
AcDbMText
 10
8181.156431984794
 20
5730.781687023922
 30
0.0
 40
120.0
 41
0.0
 71
     5
 72
     1
  1
\A1;815
  7
STYLE1
 11
0.0000000000000001
 21
1.0
 31
0.0
 73
     1
 44
1.0
1001
ACAD
1000
MTEXTBEGIN
1070
    73
1070
     1
1070
    44
1040
1.0
1070
    74
1070
     0
1000
MTEXTEND
  0
POINT
  5
20D6B
330
20331
100
AcDbEntity
  8
DEFPOINTS
 62
     0
 48
50.0
100
AcDbPoint
 10
8143.599999999999
 20
6138.281687023916
 30
0.0
  0
POINT
  5
20D6C
330
20331
100
AcDbEntity
  8
DEFPOINTS
 62
     0
 48
50.0
100
AcDbPoint
 10
8193.600000000014
 20
5323.281687023926
 30
0.0
  0
POINT
  5
20D6D
330
20331
100
AcDbEntity
  8
DEFPOINTS
 62
     0
 48
50.0
100
AcDbPoint
 10
8281.156431984797
 20
5323.281687023926
 30
0.0
  0
ENDBLK
  5
2033C
330
20331
100
AcDbEntity
  8
0
 48
50.0
100
AcDbBlockEnd
  0
BLOCK
  5
20347
330
2033D
100
AcDbEntity
  8
0
 48
50.0
100
AcDbBlockBegin
  2
*D22
 70
     1
 10
0.0
 20
0.0
 30
0.0
  3
*D22
  1

  0
LINE
  5
20D6E
330
2033D
100
AcDbEntity
  8
寸法
 62
     0
 48
50.0
370
    -2
100
AcDbLine
 10
8163.599999999998
 20
6803.281687023917
 30
0.0
 11
8341.156431984797
 21
6803.281687023917
 31
0.0
  0
LINE
  5
20D6F
330
2033D
100
AcDbEntity
  8
寸法
 62
     0
 48
50.0
370
    -2
100
AcDbLine
 10
8213.599999999997
 20
7543.281687023917
 30
0.0
 11
8341.156431984797
 21
7543.281687023917
 31
0.0
  0
LINE
  5
20D70
330
2033D
100
AcDbEntity
  8
寸法
 62
     0
 48
50.0
370
    -2
100
AcDbLine
 10
8281.156431984797
 20
6803.281687023917
 30
0.0
 11
8281.156431984797
 21
7543.281687023917
 31
0.0
  0
INSERT
  5
20D71
330
2033D
100
AcDbEntity
  8
寸法
 62
     0
 48
50.0
370
    -2
100
AcDbBlockReference
  2
_DOTSMALL
 10
8281.156431984797
 20
6803.281687023917
 30
0.0
 41
100.0
 42
100.0
 43
100.0
 50
270.0
  0
INSERT
  5
20D72
330
2033D
100
AcDbEntity
  8
寸法
 62
     0
 48
50.0
370
    -2
100
AcDbBlockReference
  2
_DOTSMALL
 10
8281.156431984797
 20
7543.281687023917
 30
0.0
 41
100.0
 42
100.0
 43
100.0
 50
90.0
  0
MTEXT
  5
20D73
330
2033D
100
AcDbEntity
  8
寸法
 62
     7
 48
50.0
100
AcDbMText
 10
8181.156431984794
 20
7173.281687023917
 30
0.0
 40
120.0
 41
0.0
 71
     5
 72
     1
  1
\A1;740
  7
STYLE1
 11
0.0000000000000001
 21
1.0
 31
0.0
 73
     1
 44
1.0
1001
ACAD
1000
MTEXTBEGIN
1070
    73
1070
     1
1070
    44
1040
1.0
1070
    74
1070
     0
1000
MTEXTEND
  0
POINT
  5
20D74
330
2033D
100
AcDbEntity
  8
DEFPOINTS
 62
     0
 48
50.0
100
AcDbPoint
 10
8143.599999999999
 20
6803.281687023917
 30
0.0
  0
POINT
  5
20D75
330
2033D
100
AcDbEntity
  8
DEFPOINTS
 62
     0
 48
50.0
100
AcDbPoint
 10
8193.599999999999
 20
7543.281687023917
 30
0.0
  0
POINT
  5
20D76
330
2033D
100
AcDbEntity
  8
DEFPOINTS
 62
     0
 48
50.0
100
AcDbPoint
 10
8281.156431984797
 20
7543.281687023917
 30
0.0
  0
ENDBLK
  5
20348
330
2033D
100
AcDbEntity
  8
0
 48
50.0
100
AcDbBlockEnd
  0
BLOCK
  5
20BB8
330
20BAE
100
AcDbEntity
  8
0
 48
50.0
100
AcDbBlockBegin
  2
*D23
 70
     1
 10
0.0
 20
0.0
 30
0.0
  3
*D23
  1

  0
LINE
  5
20D53
330
20BAE
100
AcDbEntity
  8
寸法
 62
     0
 48
50.0
370
    -2
100
AcDbLine
 10
6354.117745390609
 20
2170.461045725085
 30
0.0
 11
6354.117745390609
 21
2530.461045725086
 31
0.0
  0
LINE
  5
20D54
330
20BAE
100
AcDbEntity
  8
寸法
 62
     0
 48
50.0
370
    -2
100
AcDbLine
 10
6162.117745390609
 20
2170.461045725085
 30
0.0
 11
6162.117745390609
 21
2530.461045725086
 31
0.0
  0
LINE
  5
20D55
330
20BAE
100
AcDbEntity
  8
寸法
 62
     0
 48
50.0
370
    -2
100
AcDbLine
 10
6354.117745390609
 20
2470.461045725086
 30
0.0
 11
6162.117745390609
 21
2470.461045725086
 31
0.0
  0
MTEXT
  5
20D56
330
20BAE
100
AcDbEntity
  8
寸法
 62
     7
 48
50.0
100
AcDbMText
 10
6269.344075735806
 20
2770.140664665088
 30
0.0
 40
120.0
 41
0.0
 71
     5
 72
     1
  1
\A1;120\P170
  7
STYLE1
 73
     1
 44
1.0
1001
ACAD
1000
MTEXTBEGIN
1070
    73
1070
     1
1070
    44
1040
1.0
1070
    74
1070
     0
1000
MTEXTEND
  0
INSERT
  5
20D57
330
20BAE
100
AcDbEntity
  8
寸法
 62
     0
 48
50.0
370
    -2
100
AcDbBlockReference
  2
_DOTSMALL
 10
6354.117745390609
 20
2470.461045725086
 30
0.0
 41
100.0
 42
100.0
 43
100.0
  0
INSERT
  5
20D58
330
20BAE
100
AcDbEntity
  8
寸法
 62
     0
 48
50.0
370
    -2
100
AcDbBlockReference
  2
_DOTSMALL
 10
6162.117745390609
 20
2470.461045725086
 30
0.0
 41
100.0
 42
100.0
 43
100.0
 50
180.0
  0
POINT
  5
20D59
330
20BAE
100
AcDbEntity
  8
DEFPOINTS
 62
     0
 48
50.0
100
AcDbPoint
 10
6354.117745390609
 20
2150.461045725085
 30
0.0
  0
POINT
  5
20D5A
330
20BAE
100
AcDbEntity
  8
DEFPOINTS
 62
     0
 48
50.0
100
AcDbPoint
 10
6162.117745390609
 20
2150.461045725085
 30
0.0
  0
POINT
  5
20D5B
330
20BAE
100
AcDbEntity
  8
DEFPOINTS
 62
     0
 48
50.0
100
AcDbPoint
 10
6162.117745390609
 20
2470.461045725086
 30
0.0
  0
ENDBLK
  5
20BB9
330
20BAE
100
AcDbEntity
  8
0
 48
50.0
100
AcDbBlockEnd
  0
BLOCK
  5
20BC4
330
20BBA
100
AcDbEntity
  8
0
 48
50.0
100
AcDbBlockBegin
  2
*D24
 70
     1
 10
0.0
 20
0.0
 30
0.0
  3
*D24
  1

  0
LINE
  5
20D4A
330
20BBA
100
AcDbEntity
  8
寸法
 62
     0
 48
50.0
370
    -2
100
AcDbLine
 10
6034.117745390608
 20
1218.461045725085
 30
0.0
 11
6034.117745390608
 21
768.0314077199255
 31
0.0
  0
LINE
  5
20D4B
330
20BBA
100
AcDbEntity
  8
寸法
 62
     0
 48
50.0
370
    -2
100
AcDbLine
 10
6482.117745390609
 20
1218.461045725085
 30
0.0
 11
6482.117745390609
 21
768.0314077199255
 31
0.0
  0
LINE
  5
20D4C
330
20BBA
100
AcDbEntity
  8
寸法
 62
     0
 48
50.0
370
    -2
100
AcDbLine
 10
6034.117745390608
 20
828.0314077199255
 30
0.0
 11
6482.117745390609
 21
828.0314077199255
 31
0.0
  0
MTEXT
  5
20D4D
330
20BBA
100
AcDbEntity
  8
寸法
 62
     7
 48
50.0
100
AcDbMText
 10
6238.020986712385
 20
928.0314077199255
 30
0.0
 40
120.0
 41
0.0
 71
     5
 72
     1
  1
\A1;300
  7
STYLE1
 73
     1
 44
1.0
1001
ACAD
1000
MTEXTBEGIN
1070
    73
1070
     1
1070
    44
1040
1.0
1070
    74
1070
     0
1000
MTEXTEND
  0
INSERT
  5
20D4E
330
20BBA
100
AcDbEntity
  8
寸法
 62
     0
 48
50.0
370
    -2
100
AcDbBlockReference
  2
_DOTSMALL
 10
6034.117745390608
 20
828.0314077199255
 30
0.0
 41
100.0
 42
100.0
 43
100.0
 50
180.0
  0
INSERT
  5
20D4F
330
20BBA
100
AcDbEntity
  8
寸法
 62
     0
 48
50.0
370
    -2
100
AcDbBlockReference
  2
_DOTSMALL
 10
6482.117745390609
 20
828.0314077199255
 30
0.0
 41
100.0
 42
100.0
 43
100.0
  0
POINT
  5
20D50
330
20BBA
100
AcDbEntity
  8
DEFPOINTS
 62
     0
 48
50.0
100
AcDbPoint
 10
6034.117745390608
 20
1238.461045725085
 30
0.0
  0
POINT
  5
20D51
330
20BBA
100
AcDbEntity
  8
DEFPOINTS
 62
     0
 48
50.0
100
AcDbPoint
 10
6482.117745390609
 20
1238.461045725085
 30
0.0
  0
POINT
  5
20D52
330
20BBA
100
AcDbEntity
  8
DEFPOINTS
 62
     0
 48
50.0
100
AcDbPoint
 10
6482.117745390609
 20
828.0314077199255
 30
0.0
  0
ENDBLK
  5
20BC5
330
20BBA
100
AcDbEntity
  8
0
 48
50.0
100
AcDbBlockEnd
  0
BLOCK
  5
20BD0
330
20BC6
100
AcDbEntity
  8
0
 48
50.0
100
AcDbBlockBegin
  2
*D25
 70
     1
 10
0.0
 20
0.0
 30
0.0
  3
*D25
  1

  0
LINE
  5
20D41
330
20BC6
100
AcDbEntity
  8
寸法
 62
     0
 48
50.0
370
    -2
100
AcDbLine
 10
6142.117745390608
 20
2150.461045725085
 30
0.0
 11
5367.08050682887
 21
2150.461045725085
 31
0.0
  0
LINE
  5
20D42
330
20BC6
100
AcDbEntity
  8
寸法
 62
     0
 48
50.0
370
    -2
100
AcDbLine
 10
5934.117745390611
 20
1366.461045725085
 30
0.0
 11
5367.080506828869
 21
1366.461045725086
 31
0.0
  0
LINE
  5
20D43
330
20BC6
100
AcDbEntity
  8
寸法
 62
     0
 48
50.0
370
    -2
100
AcDbLine
 10
5427.080506828869
 20
2150.461045725085
 30
0.0
 11
5427.080506828868
 21
1366.461045725086
 31
0.0
  0
MTEXT
  5
20D44
330
20BC6
100
AcDbEntity
  8
寸法
 62
     7
 48
50.0
100
AcDbMText
 10
5327.080506828868
 20
1738.001195381086
 30
0.0
 40
120.0
 41
0.0
 71
     5
 72
     1
  1
\A1;540
  7
STYLE1
 11
0.0000000000000001
 21
1.0
 31
0.0
 73
     1
 44
1.0
1001
ACAD
1000
MTEXTBEGIN
1070
    73
1070
     1
1070
    44
1040
1.0
1070
    74
1070
     0
1000
MTEXTEND
  0
INSERT
  5
20D45
330
20BC6
100
AcDbEntity
  8
寸法
 62
     0
 48
50.0
370
    -2
100
AcDbBlockReference
  2
_DOTSMALL
 10
5427.080506828869
 20
2150.461045725085
 30
0.0
 41
100.0
 42
100.0
 43
100.0
 50
90.0
  0
INSERT
  5
20D46
330
20BC6
100
AcDbEntity
  8
寸法
 62
     0
 48
50.0
370
    -2
100
AcDbBlockReference
  2
_DOTSMALL
 10
5427.080506828868
 20
1366.461045725086
 30
0.0
 41
100.0
 42
100.0
 43
100.0
 50
270.0
  0
POINT
  5
20D47
330
20BC6
100
AcDbEntity
  8
DEFPOINTS
 62
     0
 48
50.0
100
AcDbPoint
 10
6162.117745390609
 20
2150.461045725085
 30
0.0
  0
POINT
  5
20D48
330
20BC6
100
AcDbEntity
  8
DEFPOINTS
 62
     0
 48
50.0
100
AcDbPoint
 10
5954.117745390612
 20
1366.461045725085
 30
0.0
  0
POINT
  5
20D49
330
20BC6
100
AcDbEntity
  8
DEFPOINTS
 62
     0
 48
50.0
100
AcDbPoint
 10
5427.080506828868
 20
1366.461045725086
 30
0.0
  0
ENDBLK
  5
20BD1
330
20BC6
100
AcDbEntity
  8
0
 48
50.0
100
AcDbBlockEnd
  0
BLOCK
  5
20BDC
330
20BD2
100
AcDbEntity
  8
0
 48
50.0
100
AcDbBlockBegin
  2
*D26
 70
     1
 10
0.0
 20
0.0
 30
0.0
  3
*D26
  1

  0
LINE
  5
20D38
330
20BD2
100
AcDbEntity
  8
寸法
 62
     0
 48
50.0
370
    -2
100
AcDbLine
 10
6014.117745390609
 20
1606.461045725086
 30
0.0
 11
5831.697431658149
 21
1606.461045725086
 31
0.0
  0
LINE
  5
20D39
330
20BD2
100
AcDbEntity
  8
寸法
 62
     0
 48
50.0
370
    -2
100
AcDbLine
 10
5934.117745390611
 20
1366.461045725085
 30
0.0
 11
5831.697431658149
 21
1366.461045725085
 31
0.0
  0
LINE
  5
20D3A
330
20BD2
100
AcDbEntity
  8
寸法
 62
     0
 48
50.0
370
    -2
100
AcDbLine
 10
5891.697431658149
 20
1606.461045725086
 30
0.0
 11
5891.697431658149
 21
1366.461045725085
 31
0.0
  0
MTEXT
  5
20D3B
330
20BD2
100
AcDbEntity
  8
寸法
 62
     7
 48
50.0
100
AcDbMText
 10
5791.69743165815
 20
1486.461045725086
 30
0.0
 40
120.0
 41
0.0
 71
     5
 72
     1
  1
\A1;150
  7
STYLE1
 11
0.0000000000000001
 21
1.0
 31
0.0
 73
     1
 44
1.0
1001
ACAD
1000
MTEXTBEGIN
1070
    73
1070
     1
1070
    44
1040
1.0
1070
    74
1070
     0
1000
MTEXTEND
  0
INSERT
  5
20D3C
330
20BD2
100
AcDbEntity
  8
寸法
 62
     0
 48
50.0
370
    -2
100
AcDbBlockReference
  2
_DOTSMALL
 10
5891.697431658149
 20
1606.461045725086
 30
0.0
 41
100.0
 42
100.0
 43
100.0
 50
90.0
  0
INSERT
  5
20D3D
330
20BD2
100
AcDbEntity
  8
寸法
 62
     0
 48
50.0
370
    -2
100
AcDbBlockReference
  2
_DOTSMALL
 10
5891.697431658149
 20
1366.461045725085
 30
0.0
 41
100.0
 42
100.0
 43
100.0
 50
270.0
  0
POINT
  5
20D3E
330
20BD2
100
AcDbEntity
  8
DEFPOINTS
 62
     0
 48
50.0
100
AcDbPoint
 10
6034.117745390608
 20
1606.461045725086
 30
0.0
  0
POINT
  5
20D3F
330
20BD2
100
AcDbEntity
  8
DEFPOINTS
 62
     0
 48
50.0
100
AcDbPoint
 10
5954.117745390612
 20
1366.461045725085
 30
0.0
  0
POINT
  5
20D40
330
20BD2
100
AcDbEntity
  8
DEFPOINTS
 62
     0
 48
50.0
100
AcDbPoint
 10
5891.697431658149
 20
1366.461045725085
 30
0.0
  0
ENDBLK
  5
20BDD
330
20BD2
100
AcDbEntity
  8
0
 48
50.0
100
AcDbBlockEnd
  0
BLOCK
  5
20BEA
330
20BDE
100
AcDbEntity
  8
0
 48
50.0
100
AcDbBlockBegin
  2
*D27
 70
     1
 10
0.0
 20
0.0
 30
0.0
  3
*D27
  1

  0
LINE
  5
20D2A
330
20BDE
100
AcDbEntity
  8
寸法
 62
     0
 48
50.0
370
    -2
100
AcDbLine
 10
8108.957058567803
 20
2203.221045725086
 30
0.0
 11
8838.025658336645
 21
2203.221045725086
 31
0.0
  0
LINE
  5
20D2B
330
20BDE
100
AcDbEntity
  8
寸法
 62
     0
 48
50.0
370
    -2
100
AcDbLine
 10
8296.157058567802
 20
2150.461045725085
 30
0.0
 11
8838.025658336645
 21
2150.461045725085
 31
0.0
  0
LINE
  5
20D2C
330
20BDE
100
AcDbEntity
  8
寸法
 62
     0
 48
50.0
370
    -2
100
AcDbLine
 10
8778.025658336646
 20
2203.221045725086
 30
0.0
 11
8778.025658336646
 21
2303.221045725087
 31
0.0
  0
LINE
  5
20D2D
330
20BDE
100
AcDbEntity
  8
寸法
 62
     0
 48
50.0
370
    -2
100
AcDbLine
 10
8778.025658336646
 20
2150.461045725085
 30
0.0
 11
8778.025658336646
 21
2050.461045725086
 31
0.0
  0
LINE
  5
20D2E
330
20BDE
100
AcDbEntity
  8
寸法
 62
     0
 48
50.0
370
    -2
100
AcDbLine
 10
8778.025658336646
 20
2176.841045725086
 30
0.0
 11
9054.080324455673
 21
2165.337088120873
 31
0.0
  0
LINE
  5
20D2F
330
20BDE
100
AcDbEntity
  8
寸法
 62
     0
 48
50.0
370
    -2
100
AcDbLine
 10
9054.080324455673
 20
2165.337088120873
 30
0.0
 11
9054.080324455673
 21
1633.319281277907
 31
0.0
  0
MTEXT
  5
20D30
330
20BDE
100
AcDbEntity
  8
寸法
 62
     7
 48
50.0
100
AcDbMText
 10
8954.068513432053
 20
1899.328184699391
 30
0.0
 40
120.0
 41
0.0
 71
     5
 72
     1
  1
\A1;20～25
  7
STYLE1
 11
0.0000000000000001
 21
1.0
 31
0.0
 73
     1
 44
1.0
1001
ACAD
1000
MTEXTBEGIN
1070
    73
1070
     1
1070
    44
1040
1.0
1070
    74
1070
     0
1000
MTEXTEND
  0
LINE
  5
20D31
330
20BDE
100
AcDbEntity
  8
寸法
 62
     0
 48
50.0
370
    -2
100
AcDbLine
 10
8778.025658336646
 20
2203.221045725086
 30
0.0
 11
8778.025658336646
 21
2150.461045725085
 31
0.0
  0
LINE
  5
20D32
330
20BDE
100
AcDbEntity
  8
寸法
 62
     0
 48
50.0
370
    -2
100
AcDbLine
 10
8778.025658336646
 20
2203.221045725086
 30
0.0
 11
8778.025658336646
 21
2150.461045725085
 31
0.0
  0
INSERT
  5
20D33
330
20BDE
100
AcDbEntity
  8
寸法
 62
     0
 48
50.0
370
    -2
100
AcDbBlockReference
  2
_DOTSMALL
 10
8778.025658336646
 20
2203.221045725086
 30
0.0
 41
100.0
 42
100.0
 43
100.0
 50
270.0
  0
INSERT
  5
20D34
330
20BDE
100
AcDbEntity
  8
寸法
 62
     0
 48
50.0
370
    -2
100
AcDbBlockReference
  2
_DOTSMALL
 10
8778.025658336646
 20
2150.461045725085
 30
0.0
 41
100.0
 42
100.0
 43
100.0
 50
90.0
  0
POINT
  5
20D35
330
20BDE
100
AcDbEntity
  8
DEFPOINTS
 62
     0
 48
50.0
100
AcDbPoint
 10
8088.957058567803
 20
2203.221045725086
 30
0.0
  0
POINT
  5
20D36
330
20BDE
100
AcDbEntity
  8
DEFPOINTS
 62
     0
 48
50.0
100
AcDbPoint
 10
8276.157058567802
 20
2150.461045725085
 30
0.0
  0
POINT
  5
20D37
330
20BDE
100
AcDbEntity
  8
DEFPOINTS
 62
     0
 48
50.0
100
AcDbPoint
 10
8778.025658336646
 20
2150.461045725085
 30
0.0
  0
ENDBLK
  5
20BEB
330
20BDE
100
AcDbEntity
  8
0
 48
50.0
100
AcDbBlockEnd
  0
BLOCK
  5
20BF5
330
20BEC
100
AcDbEntity
  8
0
 48
50.0
100
AcDbBlockBegin
  2
*D28
 70
     1
 10
0.0
 20
0.0
 30
0.0
  3
*D28
  1

  0
LINE
  5
20D21
330
20BEC
100
AcDbEntity
  8
寸法
 62
     0
 48
50.0
370
    -2
100
AcDbLine
 10
8296.157058567802
 20
2150.461045725085
 30
0.0
 11
8838.025658336645
 21
2150.461045725085
 31
0.0
  0
LINE
  5
20D22
330
20BEC
100
AcDbEntity
  8
寸法
 62
     0
 48
50.0
370
    -2
100
AcDbLine
 10
8296.157058567802
 20
1826.461045725084
 30
0.0
 11
8838.025658336645
 21
1826.461045725084
 31
0.0
  0
LINE
  5
20D23
330
20BEC
100
AcDbEntity
  8
寸法
 62
     0
 48
50.0
370
    -2
100
AcDbLine
 10
8778.025658336646
 20
2150.461045725085
 30
0.0
 11
8778.025658336646
 21
1826.461045725084
 31
0.0
  0
INSERT
  5
20D24
330
20BEC
100
AcDbEntity
  8
寸法
 62
     0
 48
50.0
370
    -2
100
AcDbBlockReference
  2
_DOTSMALL
 10
8778.025658336646
 20
2150.461045725085
 30
0.0
 41
100.0
 42
100.0
 43
100.0
 50
90.0
  0
INSERT
  5
20D25
330
20BEC
100
AcDbEntity
  8
寸法
 62
     0
 48
50.0
370
    -2
100
AcDbBlockReference
  2
_DOTSMALL
 10
8778.025658336646
 20
1826.461045725084
 30
0.0
 41
100.0
 42
100.0
 43
100.0
 50
270.0
  0
MTEXT
  5
20D26
330
20BEC
100
AcDbEntity
  8
寸法
 62
     7
 48
50.0
100
AcDbMText
 10
8678.025658336647
 20
1988.461045725086
 30
0.0
 40
120.0
 41
0.0
 71
     5
 72
     1
  1
\A1;180
  7
STYLE1
 11
0.0000000000000001
 21
1.0
 31
0.0
 73
     1
 44
1.0
1001
ACAD
1000
MTEXTBEGIN
1070
    73
1070
     1
1070
    44
1040
1.0
1070
    74
1070
     0
1000
MTEXTEND
  0
POINT
  5
20D27
330
20BEC
100
AcDbEntity
  8
DEFPOINTS
 62
     0
 48
50.0
100
AcDbPoint
 10
8276.157058567802
 20
2150.461045725085
 30
0.0
  0
POINT
  5
20D28
330
20BEC
100
AcDbEntity
  8
DEFPOINTS
 62
     0
 48
50.0
100
AcDbPoint
 10
8276.157058567802
 20
1826.461045725084
 30
0.0
  0
POINT
  5
20D29
330
20BEC
100
AcDbEntity
  8
DEFPOINTS
 62
     0
 48
50.0
100
AcDbPoint
 10
8778.025658336646
 20
1826.461045725084
 30
0.0
  0
ENDBLK
  5
20BF6
330
20BEC
100
AcDbEntity
  8
0
 48
50.0
100
AcDbBlockEnd
  0
BLOCK
  5
20CAA
330
20C9E
100
AcDbEntity
  8
0
 48
50.0
100
AcDbBlockBegin
  2
*D29
 70
     1
 10
0.0
 20
0.0
 30
0.0
  3
*D29
  1

  0
LINE
  5
20E39
330
20C9E
100
AcDbEntity
  8
寸法
 62
     0
 48
50.0
370
    -2
100
AcDbLine
 10
8633.599999999999
 20
7293.281687023915
 30
0.0
 11
8633.599999999999
 21
6983.271963995846
 31
0.0
  0
LINE
  5
20E3A
330
20C9E
100
AcDbEntity
  8
寸法
 62
     0
 48
50.0
370
    -2
100
AcDbLine
 10
8743.599999999998
 20
7293.281687023917
 30
0.0
 11
8743.599999999998
 21
6983.271963995846
 31
0.0
  0
LINE
  5
20E3B
330
20C9E
100
AcDbEntity
  8
寸法
 62
     0
 48
50.0
370
    -2
100
AcDbLine
 10
8633.599999999999
 20
7043.271963995845
 30
0.0
 11
8743.599999999998
 21
7043.271963995845
 31
0.0
  0
MTEXT
  5
20E3C
330
20C9E
100
AcDbEntity
  8
寸法
 62
     7
 48
50.0
100
AcDbMText
 10
8590.289233043099
 20
6912.849407193341
 30
0.0
 40
120.0
 41
0.0
 71
     5
 72
     1
  1
\A1;110
  7
STYLE1
 73
     1
 44
1.0
1001
ACAD
1000
MTEXTBEGIN
1070
    73
1070
     1
1070
    44
1040
1.0
1070
    74
1070
     0
1000
MTEXTEND
  0
INSERT
  5
20E3D
330
20C9E
100
AcDbEntity
  8
寸法
 62
     0
 48
50.0
370
    -2
100
AcDbBlockReference
  2
_DOTSMALL
 10
8633.599999999999
 20
7043.271963995845
 30
0.0
 41
100.0
 42
100.0
 43
100.0
 50
180.0
  0
INSERT
  5
20E3E
330
20C9E
100
AcDbEntity
  8
寸法
 62
     0
 48
50.0
370
    -2
100
AcDbBlockReference
  2
_DOTSMALL
 10
8743.599999999998
 20
7043.271963995845
 30
0.0
 41
100.0
 42
100.0
 43
100.0
  0
POINT
  5
20E3F
330
20C9E
100
AcDbEntity
  8
DEFPOINTS
 62
     0
 48
50.0
100
AcDbPoint
 10
8633.599999999999
 20
7313.281687023915
 30
0.0
  0
POINT
  5
20E40
330
20C9E
100
AcDbEntity
  8
DEFPOINTS
 62
     0
 48
50.0
100
AcDbPoint
 10
8743.599999999998
 20
7313.281687023916
 30
0.0
  0
POINT
  5
20E41
330
20C9E
100
AcDbEntity
  8
DEFPOINTS
 62
     0
 48
50.0
100
AcDbPoint
 10
8743.599999999998
 20
7043.271963995845
 30
0.0
  0
ENDBLK
  5
20CAB
330
20C9E
100
AcDbEntity
  8
0
 48
50.0
100
AcDbBlockEnd
  0
ENDSEC
  0
SECTION
  2
ENTITIES
  0
LINE
  5
10B57
330
747D
100
AcDbEntity
  8
補助
  6
PHANTOM
 62
   230
 48
50.0
100
AcDbLine
 10
139.9999999999995
 20
11409.6
 30
0.0
 11
16307.2
 21
11409.6
 31
0.0
  0
LINE
  5
10B59
330
747D
100
AcDbEntity
  8
仕様書枠
  6
Continuous
 48
50.0
100
AcDbLine
 10
13107.2
 20
1200.0
 30
0.0
 11
13107.2
 21
-0.0000000000000729
 31
0.0
  0
LINE
  5
10B5C
330
747D
100
AcDbEntity
  8
仕様書枠
 48
50.0
100
AcDbLine
 10
16307.2
 20
1200.0
 30
0.0
 11
16307.2
 21
-0.0000000000000909
 31
0.0
  0
LINE
  5
10B5D
330
747D
100
AcDbEntity
  8
仕様書枠
 48
50.0
100
AcDbLine
 10
140.0
 20
0.0
 30
0.0
 11
16307.2
 21
-0.0000000000000909
 31
0.0
  0
LINE
  5
10B5E
330
747D
100
AcDbEntity
  8
補助
  6
PHANTOM
 62
   230
 48
50.0
100
AcDbLine
 10
16307.2
 20
11409.6
 30
0.0
 11
16307.2
 21
1200.0
 31
0.0
  0
LINE
  5
10B6C
330
747D
100
AcDbEntity
  8
仕様書枠
 48
50.0
100
AcDbLine
 10
13107.2
 20
1200.0
 30
0.0
 11
16307.2
 21
1200.0
 31
0.0
  0
LINE
  5
10B6D
330
747D
100
AcDbEntity
  8
補助
  6
PHANTOM
 62
   230
 48
50.0
100
AcDbLine
 10
13107.2
 20
11409.6
 30
0.0
 11
13107.2
 21
4800.0
 31
0.0
  0
LINE
  5
10B6F
330
747D
100
AcDbEntity
  8
補助
  6
PHANTOM
 62
   230
 48
50.0
100
AcDbLine
 10
13107.2
 20
4800.0
 30
0.0
 11
16307.2
 21
4800.0
 31
0.0
  0
LINE
  5
10B72
330
747D
100
AcDbEntity
  8
文字
 62
     7
 48
50.0
100
AcDbLine
 10
13187.2
 20
400.0
 30
0.0
 11
16227.2
 21
400.0
 31
0.0
  0
TEXT
  5
10B73
330
747D
100
AcDbEntity
  8
文字
 62
     7
 48
50.0
100
AcDbText
 10
13162.9790565769
 20
895.0906074299405
 30
0.0
 40
200.0
  1
基 礎 図
  7
STYLE2
100
AcDbText
  0
TEXT
  5
10B74
330
747D
100
AcDbEntity
  8
文字
 62
     7
 48
50.0
100
AcDbText
 10
13201.43669998441
 20
477.2740661031255
 30
0.0
 40
160.0
  1
機種名
  7
STYLE2
100
AcDbText
  0
LINE
  5
10B7B
330
747D
100
AcDbEntity
  8
仕様書枠
 48
50.0
100
AcDbLine
 10
13107.2
 20
800.0
 30
0.0
 11
14251.2
 21
800.0
 31
0.0
  0
LINE
  5
10B88
330
747D
100
AcDbEntity
  8
仕様書枠
  6
Continuous
 48
50.0
100
AcDbLine
 10
14251.2
 20
1200.0
 30
0.0
 11
14251.2
 21
800.0
 31
0.0
  0
TEXT
  5
14DEF
330
747D
100
AcDbEntity
  8
文字
 62
     7
 48
50.0
100
AcDbText
 10
14641.2525855784
 20
871.1744590657925
 30
0.0
 40
100.0
  1
～一般型・多雪地型～
  7
STYLE2
100
AcDbText
  0
TEXT
  5
15A76
330
747D
100
AcDbEntity
  8
文字
 62
     7
 48
50.0
100
AcDbText
 10
14478.98566430227
 20
499.5983841039501
 30
0.0
 40
160.0
  1
ＮＸＮ－３３CＳ
  7
STYLE2
100
AcDbText
  0
TEXT
  5
1D002
330
747D
100
AcDbEntity
  8
文字
 62
     7
 48
50.0
100
AcDbText
 10
13188.16259899338
 20
246.7109242801889
 30
0.0
 40
80.0
  1
※寒冷地等は地域の実情に合わせた基礎にして下さい。
  7
STYLE2
100
AcDbText
  0
DIMENSION
  5
1D91B
330
747D
100
AcDbEntity
  8
寸法
 48
50.0
100
AcDbDimension
  2
*D1
 10
7770.307249876097
 20
5623.28168702392
 30
0.0
 11
7770.307249876096
 21
5859.32893111841
 31
0.0
 70
   160
 71
     5
 42
130.0000000000018
  3
INABA_S40G
100
AcDbAlignedDimension
 13
7553.599999999999
 23
5493.281687023919
 33
0.0
 14
7553.599999999999
 24
5623.28168702392
 34
0.0
 50
90.0
100
AcDbRotatedDimension
1001
ACAD
1000
DSTYLE
1002
{
1070
   174
1070
     0
1070
   272
1070
     1
1070
   279
1070
     1
1070
   288
1070
     0
1070
   341
1005
0
1002
}
  0
DIMENSION
  5
1D91C
330
747D
100
AcDbEntity
  8
寸法
 48
50.0
100
AcDbDimension
  2
*D2
 10
7770.307249876097
 20
5323.281687023918
 30
0.0
 11
7770.307249876096
 21
5087.234442929431
 31
0.0
 70
   160
 71
     5
 42
170.0000000000018
  3
INABA_S40G
100
AcDbAlignedDimension
 13
7553.599999999999
 23
5493.28168702392
 33
0.0
 14
7553.599999999999
 24
5323.281687023918
 34
0.0
 50
90.0
100
AcDbRotatedDimension
1001
ACAD
1000
DSTYLE
1002
{
1070
   174
1070
     0
1070
   272
1070
     1
1070
   279
1070
     1
1070
   288
1070
     0
1070
   341
1005
0
1002
}
  0
DIMENSION
  5
1D91D
330
747D
100
AcDbEntity
  8
寸法
 48
50.0
100
AcDbDimension
  2
*D3
 10
7446.6
 20
8348.342297413847
 30
0.0
 11
8093.6
 21
8448.354108437468
 31
0.0
 70
    32
 71
     5
 42
1294.0
  3
INABA_S40G
100
AcDbAlignedDimension
 13
8740.599999999998
 23
7470.281687023917
 33
0.0
 14
7446.6
 24
7470.281687023917
 34
0.0
100
AcDbRotatedDimension
1001
ACAD
1000
DSTYLE
1002
{
1070
   174
1070
     0
1070
   272
1070
     1
1070
   279
1070
     1
1070
   288
1070
     0
1070
   341
1005
0
1002
}
  0
LINE
  5
1D91E
330
747D
100
AcDbEntity
  8
部品1
 48
50.0
100
AcDbLine
 10
8633.599999999999
 20
5493.281687023933
 30
0.0
 11
7553.599999999997
 21
5493.281687023919
 31
0.0
  0
LINE
  5
1D91F
330
747D
100
AcDbEntity
  8
部品1
 48
50.0
100
AcDbLine
 10
8633.599999999999
 20
7423.281687023915
 30
0.0
 11
7553.599999999997
 21
7423.281687023917
 31
0.0
  0
DIMENSION
  5
1D920
330
747D
100
AcDbEntity
  8
寸法
 48
50.0
100
AcDbDimension
  2
*D4
 10
8863.599999999998
 20
8560.802992930684
 30
0.0
 11
8093.6
 21
8660.802992930683
 31
0.0
 70
    32
 71
     5
 42
1540.0
  3
INABA_S40G
100
AcDbAlignedDimension
 13
7323.599999999998
 23
7543.281687023917
 33
0.0
 14
8863.599999999998
 24
7543.281687023917
 34
0.0
100
AcDbRotatedDimension
1001
ACAD
1000
DSTYLE
1002
{
1070
   174
1070
     0
1070
   272
1070
     1
1070
   279
1070
     1
1070
   288
1070
     0
1070
   341
1005
0
1002
}
  0
LINE
  5
1D921
330
747D
100
AcDbEntity
  8
部品1
 48
50.0
100
AcDbLine
 10
8863.599999999998
 20
5323.281687023935
 30
0.0
 11
7323.599999999998
 21
5323.281687023914
 31
0.0
  0
LINE
  5
1D922
330
747D
100
AcDbEntity
  8
部品1
 48
50.0
100
AcDbLine
 10
8863.599999999998
 20
7543.281687023917
 30
0.0
 11
7323.599999999998
 21
7543.281687023919
 31
0.0
  0
LINE
  5
1D923
330
747D
100
AcDbEntity
  8
想像線
 48
10.0
100
AcDbLine
 10
8908.599999999998
 20
5268.281687023913
 30
0.0
 11
7278.6
 21
5268.281687023918
 31
0.0
  0
LINE
  5
1D924
330
747D
100
AcDbEntity
  8
想像線
 48
10.0
100
AcDbLine
 10
7278.6
 20
7618.281687023916
 30
0.0
 11
8908.600000000003
 21
7618.28168702392
 31
0.0
  0
DIMENSION
  5
1D925
330
747D
100
AcDbEntity
  8
寸法
 48
50.0
100
AcDbDimension
  2
*D5
 10
7323.599999999998
 20
8348.342297413847
 30
0.0
 11
7085.11471862576
 21
8348.342297413847
 31
0.0
 70
   160
 71
     5
 42
123.0
  3
INABA_S40G
100
AcDbAlignedDimension
 13
7446.6
 23
7470.281687023917
 33
0.0
 14
7323.599999999998
 24
7543.281687023917
 34
0.0
100
AcDbRotatedDimension
1001
ACAD
1000
DSTYLE
1002
{
1070
   174
1070
     0
1070
   272
1070
     1
1070
   279
1070
     0
1070
   288
1070
     0
1070
   341
1005
0
1002
}
  0
DIMENSION
  5
1D926
330
747D
100
AcDbEntity
  8
寸法
 48
50.0
100
AcDbDimension
  2
*D6
 10
7323.599999999998
 20
8560.802992930685
 30
0.0
 11
7301.099999999997
 21
8560.802992930685
 31
0.0
 70
   160
  1
a
 71
     5
 42
45.00000000000364
  3
INABA_S40G
100
AcDbAlignedDimension
 13
7278.599999999994
 23
8348.342297413847
 33
0.0
 14
7323.599999999998
 24
7543.281687023917
 34
0.0
100
AcDbRotatedDimension
1001
ACAD
1000
DSTYLE
1002
{
1070
   174
1070
     0
1070
   272
1070
     1
1070
   279
1070
     1
1070
   288
1070
     0
1070
   341
1005
0
1002
}
  0
DIMENSION
  5
1D927
330
747D
100
AcDbEntity
  8
寸法
 48
50.0
100
AcDbDimension
  2
*D7
 10
6827.657733986177
 20
5521.281687023918
 30
0.0
 11
6827.657733986177
 21
6433.281687023917
 31
0.0
 70
   160
 71
     5
 42
1898.999999999998
  3
INABA_S40G
100
AcDbAlignedDimension
 13
7396.599999999999
 23
7420.281687023917
 33
0.0
 14
7396.600000000006
 24
5521.281687023918
 34
0.0
 50
90.0
100
AcDbRotatedDimension
1001
ACAD
1000
DSTYLE
1002
{
1070
   174
1070
     0
1070
   272
1070
     1
1070
   279
1070
     1
1070
   288
1070
     0
1070
   341
1005
0
1002
}
  0
LINE
  5
1D928
330
747D
100
AcDbEntity
  8
部品1
 48
50.0
100
AcDbLine
 10
7443.599999999999
 20
5623.281687023919
 30
0.0
 11
7443.599999999999
 21
7313.281687023913
 31
0.0
  0
DIMENSION
  5
1D929
330
747D
100
AcDbEntity
  8
寸法
 48
50.0
100
AcDbDimension
  2
*D8
 10
6582.164931848217
 20
5323.281687023917
 30
0.0
 11
6582.164931848216
 21
6433.281687023917
 31
0.0
 70
   160
 71
     5
 42
2220.0
  3
INABA_S40G
100
AcDbAlignedDimension
 13
7323.599999999998
 23
7543.281687023917
 33
0.0
 14
7323.599999999998
 24
5323.281687023917
 34
0.0
 50
90.0
100
AcDbRotatedDimension
1001
ACAD
1000
DSTYLE
1002
{
1070
   174
1070
     0
1070
   272
1070
     1
1070
   279
1070
     1
1070
   288
1070
     0
1070
   341
1005
0
1002
}
  0
LINE
  5
1D92A
330
747D
100
AcDbEntity
  8
部品1
 48
50.0
100
AcDbLine
 10
7323.599999999998
 20
5323.281687023917
 30
0.0
 11
7323.599999999998
 21
7543.281687023919
 31
0.0
  0
LINE
  5
1D92B
330
747D
100
AcDbEntity
  8
想像線
 48
10.0
100
AcDbLine
 10
7278.599999999999
 20
5268.281687023916
 30
0.0
 11
7278.599999999999
 21
7618.28168702392
 31
0.0
  0
DIMENSION
  5
1D92C
330
747D
100
AcDbEntity
  8
寸法
 48
50.0
100
AcDbDimension
  2
*D9
 10
6827.657733986177
 20
5323.281687023917
 30
0.0
 11
6827.657733986176
 21
5087.072027194261
 31
0.0
 70
   160
 71
     5
 42
198.0000000000018
  3
INABA_S40G
100
AcDbAlignedDimension
 13
7396.600000000006
 23
5521.281687023918
 33
0.0
 14
7323.599999999998
 24
5323.281687023917
 34
0.0
 50
90.0
100
AcDbRotatedDimension
1001
ACAD
1000
DSTYLE
1002
{
1070
   174
1070
     0
1070
   272
1070
     1
1070
   279
1070
     1
1070
   288
1070
     0
1070
   341
1005
0
1002
}
  0
DIMENSION
  5
1D92D
330
747D
100
AcDbEntity
  8
寸法
 48
50.0
100
AcDbDimension
  2
*D10
 10
6582.16493184821
 20
5268.281687023916
 30
0.0
 11
6582.16493184821
 21
5295.781687023918
 31
0.0
 70
   160
  1
b
 71
     5
 42
55.0
  3
INABA_S40G
100
AcDbAlignedDimension
 13
7323.599999999998
 23
5323.281687023917
 33
0.0
 14
6827.657733986177
 24
5268.281687023916
 34
0.0
 50
90.0
100
AcDbRotatedDimension
1001
ACAD
1000
DSTYLE
1002
{
1070
   174
1070
     0
1070
   272
1070
     1
1070
   279
1070
     1
1070
   288
1070
     0
1070
   341
1005
0
1002
}
  0
LINE
  5
1D92E
330
747D
100
AcDbEntity
  8
センター
 48
2.0
100
AcDbLine
 10
7446.600000000007
 20
5571.281687023919
 30
0.0
 11
7446.600000000007
 21
5471.281687023918
 31
0.0
  0
LINE
  5
1D92F
330
747D
100
AcDbEntity
  8
センター
 48
2.0
100
AcDbLine
 10
7396.600000000006
 20
5521.281687023918
 30
0.0
 11
7496.600000000007
 21
5521.281687023918
 31
0.0
  0
CIRCLE
  5
1D930
330
747D
100
AcDbEntity
  8
部品1
 48
50.0
100
AcDbCircle
 10
7446.600000000007
 20
5521.281687023918
 30
0.0
 40
35.0
  0
LINE
  5
1D931
330
747D
100
AcDbEntity
  8
部品1
 48
50.0
100
AcDbLine
 10
7553.599999999999
 20
5623.28168702392
 30
0.0
 11
7443.599999999999
 21
5623.281687023919
 31
0.0
  0
LINE
  5
1D932
330
747D
100
AcDbEntity
  8
部品1
 48
50.0
100
AcDbLine
 10
7553.599999999999
 20
5493.281687023919
 30
0.0
 11
7553.599999999999
 21
5623.28168702392
 31
0.0
  0
DIMENSION
  5
1D933
330
747D
100
AcDbEntity
  8
寸法
 48
50.0
100
AcDbDimension
  2
*D11
 10
6827.657733986177
 20
7420.281687023917
 30
0.0
 11
6827.657733986176
 21
7781.766968398156
 31
0.0
 70
   160
 71
     5
 42
123.0
  3
INABA_S40G
100
AcDbAlignedDimension
 13
7323.599999999998
 23
7543.281687023917
 33
0.0
 14
7396.599999999999
 24
7420.281687023917
 34
0.0
 50
90.0
100
AcDbRotatedDimension
1001
ACAD
1000
DSTYLE
1002
{
1070
   174
1070
     0
1070
   272
1070
     1
1070
   279
1070
     1
1070
   288
1070
     0
1070
   341
1005
0
1002
}
  0
DIMENSION
  5
1D934
330
747D
100
AcDbEntity
  8
寸法
 48
50.0
100
AcDbDimension
  2
*D12
 10
6582.16493184821
 20
7543.281687023917
 30
0.0
 11
6582.164931848208
 21
7580.781687023919
 31
0.0
 70
   160
  1
c
 71
     5
 42
75.0
  3
INABA_S40G
100
AcDbAlignedDimension
 13
6827.657733986177
 23
7618.281687023916
 33
0.0
 14
7323.599999999998
 24
7543.281687023917
 34
0.0
 50
90.0
100
AcDbRotatedDimension
1001
ACAD
1000
DSTYLE
1002
{
1070
   174
1070
     0
1070
   272
1070
     1
1070
   279
1070
     1
1070
   288
1070
     0
1070
   341
1005
0
1002
}
  0
LINE
  5
1D935
330
747D
100
AcDbEntity
  8
部品1
 48
50.0
100
AcDbLine
 10
7443.599999999999
 20
6533.281687023917
 30
0.0
 11
7323.599999999998
 21
6533.281687023917
 31
0.0
  0
LINE
  5
1D936
330
747D
100
AcDbEntity
  8
部品1
 48
50.0
100
AcDbLine
 10
7443.599999999999
 20
6333.281687023918
 30
0.0
 11
7323.599999999998
 21
6333.281687023917
 31
0.0
  0
LINE
  5
1D938
330
747D
100
AcDbEntity
  8
センター
 48
2.0
100
AcDbLine
 10
7446.6
 20
7470.281687023917
 30
0.0
 11
7446.6
 21
7370.281687023918
 31
0.0
  0
LINE
  5
1D939
330
747D
100
AcDbEntity
  8
センター
 48
2.0
100
AcDbLine
 10
7396.599999999999
 20
7420.281687023917
 30
0.0
 11
7496.599999999999
 21
7420.281687023917
 31
0.0
  0
CIRCLE
  5
1D93A
330
747D
100
AcDbEntity
  8
部品1
 48
50.0
100
AcDbCircle
 10
7446.6
 20
7420.281687023917
 30
0.0
 40
35.0
  0
LINE
  5
1D93B
330
747D
100
AcDbEntity
  8
部品1
 48
50.0
100
AcDbLine
 10
7553.599999999999
 20
7313.281687023913
 30
0.0
 11
7443.599999999999
 21
7313.281687023915
 31
0.0
  0
LINE
  5
1D93C
330
747D
100
AcDbEntity
  8
部品1
 48
50.0
100
AcDbLine
 10
7553.599999999999
 20
7313.281687023913
 30
0.0
 11
7553.599999999997
 21
7423.281687023917
 31
0.0
  0
DIMENSION
  5
1D93E
330
747D
100
AcDbEntity
  8
寸法
 48
50.0
100
AcDbDimension
  2
*D13
 10
8740.599999999998
 20
8348.342297413847
 30
0.0
 11
9102.085281374236
 21
8348.342297413847
 31
0.0
 70
   160
 71
     5
 42
123.0
  3
INABA_S40G
100
AcDbAlignedDimension
 13
8863.599999999998
 23
7543.281687023917
 33
0.0
 14
8740.599999999998
 24
7470.281687023917
 34
0.0
100
AcDbRotatedDimension
1001
ACAD
1000
DSTYLE
1002
{
1070
   174
1070
     0
1070
   272
1070
     1
1070
   279
1070
     0
1070
   288
1070
     0
1070
   341
1005
0
1002
}
  0
DIMENSION
  5
1D93F
330
747D
100
AcDbEntity
  8
寸法
 48
50.0
100
AcDbDimension
  2
*D14
 10
8908.599999999998
 20
8560.802992930684
 30
0.0
 11
8886.099999999998
 21
8560.802992930684
 31
0.0
 70
   160
  1
a
 71
     5
 42
45.0
  3
INABA_S40G
100
AcDbAlignedDimension
 13
8863.599999999998
 23
7543.281687023917
 33
0.0
 14
8908.599999999998
 24
8348.342297413847
 34
0.0
100
AcDbRotatedDimension
1001
ACAD
1000
DSTYLE
1002
{
1070
   174
1070
     0
1070
   272
1070
     1
1070
   279
1070
     1
1070
   288
1070
     0
1070
   341
1005
0
1002
}
  0
LEADER
  5
1D940
330
747D
100
AcDbEntity
  8
寸法
 48
50.0
100
AcDbLeader
  3
INABA_S40G
 71
     0
 73
     0
 74
     0
 75
     1
 40
120.0
 41
720.0000000000001
 76
     3
 10
8863.599999999998
 20
6362.93959951849
 30
0.0
 10
9113.148163484241
 20
6049.895658253574
 30
0.0
 10
9213.148163484241
 20
6049.895658253574
 30
0.0
340
1D941
1001
ACAD
1000
DSTYLE
1002
{
1070
   174
1070
     0
1070
   272
1070
     1
1070
   279
1070
     1
1070
   288
1070
     0
1070
   341
1005
0
1002
}
  0
MTEXT
  5
1D941
102
{ACAD_REACTORS
330
1D940
102
}
330
747D
100
AcDbEntity
  8
部品1
 62
     7
 48
50.0
100
AcDbMText
 10
9973.148163484243
 20
6149.895658253574
 30
0.0
 40
120.0
 41
0.0
 71
     6
 72
     1
  1
\A1;床下換気口
  7
STYLE1
 73
     1
 44
1.0
1001
ACAD
1000
MTEXTBEGIN
1070
    73
1070
     1
1070
    44
1040
1.0
1070
    74
1070
     0
1000
MTEXTEND
  0
DIMENSION
  5
1D942
330
747D
100
AcDbEntity
  8
寸法
 48
50.0
100
AcDbDimension
  2
*D15
 10
8743.599999999998
 20
7043.271963995845
 30
0.0
 11
9099.647244094487
 21
7043.271963995845
 31
0.0
 70
   160
 71
     5
 42
120.0
  3
INABA_S40G
100
AcDbAlignedDimension
 13
8863.599999999998
 23
7313.281687023916
 33
0.0
 14
8743.599999999998
 24
7313.281687023918
 34
0.0
100
AcDbRotatedDimension
1001
ACAD
1000
DSTYLE
1002
{
1070
   174
1070
     0
1070
   272
1070
     1
1070
   279
1070
     1
1070
   288
1070
     0
1070
   341
1005
0
1002
}
  0
TEXT
  5
1D943
330
747D
100
AcDbEntity
  8
部品1
 48
50.0
100
AcDbText
 10
8950.4200666784
 20
4628.394890244642
 30
0.0
 40
80.0
  1
(a=45,b=55,c=75)
  7
STYLE1
100
AcDbText
  0
TEXT
  5
1D944
330
747D
100
AcDbEntity
  8
部品1
 48
50.0
100
AcDbText
 10
8880.543179073518
 20
4748.125936397783
 30
0.0
 40
80.0
  1
※a,b,cは屋根の出幅です。
  7
STYLE1
100
AcDbText
  0
MTEXT
  5
1D945
102
{ACAD_REACTORS
330
1D946
102
}
330
747D
100
AcDbEntity
  8
部品1
 62
     7
 48
50.0
100
AcDbMText
 10
9745.725774538318
 20
4972.264295064126
 30
0.0
 40
120.0
 41
0.0
 71
     6
 72
     1
  1
\A1;屋根の外寸
  7
STYLE1
 73
     1
 44
1.0
1001
ACAD
1000
MTEXTBEGIN
1070
    73
1070
     1
1070
    44
1040
1.0
1070
    74
1070
     0
1000
MTEXTEND
  0
LEADER
  5
1D946
330
747D
100
AcDbEntity
  8
寸法
 48
50.0
100
AcDbLeader
  3
INABA_S40G
 71
     0
 73
     0
 74
     0
 75
     1
 40
120.0
 41
672.0
 76
     3
 10
8675.488587933825
 20
5267.281687023917
 30
0.0
 10
8933.725774538318
 20
4872.264295064126
 30
0.0
 10
9033.725774538318
 20
4872.264295064126
 30
0.0
340
1D945
1001
ACAD
1000
DSTYLE
1002
{
1070
   174
1070
     0
1070
   272
1070
     1
1070
   279
1070
     1
1070
   288
1070
     0
1070
   341
1005
0
1002
}
  0
DIMENSION
  5
1D947
330
747D
100
AcDbEntity
  8
寸法
 48
50.0
100
AcDbDimension
  2
*D16
 10
7786.890767703562
 20
7313.281687023913
 30
0.0
 11
7786.89076770356
 21
7077.234442929425
 31
0.0
 70
   160
 71
     5
 42
110.0000000000045
  3
INABA_S40G
100
AcDbAlignedDimension
 13
7553.599999999997
 23
7423.281687023917
 33
0.0
 14
7553.599999999999
 24
7313.281687023913
 34
0.0
 50
90.0
100
AcDbRotatedDimension
1001
ACAD
1000
DSTYLE
1002
{
1070
   174
1070
     0
1070
   272
1070
     1
1070
   279
1070
     1
1070
   288
1070
     0
1070
   341
1005
0
1002
}
  0
LINE
  5
1D949
330
747D
100
AcDbEntity
  8
部品1
 48
50.0
100
AcDbLine
 10
8743.599999999998
 20
5623.281687023936
 30
0.0
 11
8743.599999999998
 21
7313.281687023916
 31
0.0
  0
LINE
  5
1D94A
330
747D
100
AcDbEntity
  8
部品1
 48
50.0
100
AcDbLine
 10
8863.599999999998
 20
5323.281687023935
 30
0.0
 11
8863.599999999998
 21
7543.281687023917
 31
0.0
  0
LINE
  5
1D94B
330
747D
100
AcDbEntity
  8
想像線
 48
10.0
100
AcDbLine
 10
8908.599999999998
 20
7618.28168702392
 30
0.0
 11
8908.600000000003
 21
5268.281687023916
 31
0.0
  0
TEXT
  5
1D94C
330
747D
100
AcDbEntity
  8
部品1
 48
50.0
100
AcDbText
 10
7974.294671087948
 20
5115.899423745235
 30
0.0
 40
120.0
  1
扉面
  7
STYLE1
 72
     1
 11
8102.294671087948
 21
5099.899423745235
 31
0.0
100
AcDbText
 73
     1
  0
HATCH
  5
1D94E
330
747D
100
AcDbEntity
  8
細線
 48
50.0
100
AcDbHatch
 10
0.0
 20
0.0
 30
0.0
210
0.0
220
0.0
230
1.0
  2
LINE
 70
     0
 71
     0
 91
        1
 92
        7
 72
     0
 73
     1
 93
        4
 10
8193.600000000014
 20
5323.281687023926
 10
8193.600000000014
 20
5493.281687023924
 10
7993.600000000014
 20
5493.281687023922
 10
7993.600000000014
 20
5323.281687023921
 97
        0
 75
     0
 76
     1
 52
45.0
 41
10.0
 77
     0
 78
     1
 53
45.0
 43
4490.48843901349
 44
-5828.259868052372
 45
-22.45064030267288
 46
22.45064030267288
 79
     0
 47
2.903594399684136
 98
        1
 10
8106.710000003099
 20
5362.308742456366
  0
LINE
  5
1D94F
330
747D
100
AcDbEntity
  8
部品1
 48
50.0
100
AcDbLine
 10
7993.600000000014
 20
5323.281687023926
 30
0.0
 11
7993.600000000014
 21
5493.28168702392
 31
0.0
  0
LINE
  5
1D950
330
747D
100
AcDbEntity
  8
部品1
 48
50.0
100
AcDbLine
 10
8193.600000000014
 20
5323.281687023926
 30
0.0
 11
8193.600000000014
 21
5493.281687023924
 31
0.0
  0
LINE
  5
1D951
330
747D
100
AcDbEntity
  8
センター
 48
2.0
100
AcDbLine
 10
8690.600000000006
 20
5521.281687023918
 30
0.0
 11
8790.600000000006
 21
5521.281687023918
 31
0.0
  0
CIRCLE
  5
1D952
330
747D
100
AcDbEntity
  8
部品1
 48
50.0
100
AcDbCircle
 10
8740.600000000005
 20
5521.281687023918
 30
0.0
 40
35.0
  0
LINE
  5
1D953
330
747D
100
AcDbEntity
  8
部品1
 48
50.0
100
AcDbLine
 10
8743.599999999998
 20
5623.281687023935
 30
0.0
 11
8633.599999999999
 21
5623.281687023935
 31
0.0
  0
LINE
  5
1D954
330
747D
100
AcDbEntity
  8
部品1
 48
50.0
100
AcDbLine
 10
8633.599999999999
 20
5493.281687023933
 30
0.0
 11
8633.599999999999
 21
5623.281687023935
 31
0.0
  0
LINE
  5
1D955
330
747D
100
AcDbEntity
  8
センター
 48
2.0
100
AcDbLine
 10
8740.600000000005
 20
5571.281687023919
 30
0.0
 11
8740.600000000005
 21
5471.281687023918
 31
0.0
  0
LINE
  5
1D956
330
747D
100
AcDbEntity
  8
部品1
 48
50.0
100
AcDbLine
 10
8193.599999999999
 20
7423.281687023916
 30
0.0
 11
8193.599999999999
 21
7543.281687023917
 31
0.0
  0
LINE
  5
1D957
330
747D
100
AcDbEntity
  8
部品1
 48
50.0
100
AcDbLine
 10
7993.599999999999
 20
7423.281687023916
 30
0.0
 11
7993.599999999999
 21
7543.281687023917
 31
0.0
  0
DIMENSION
  5
1D959
330
747D
100
AcDbEntity
  8
寸法
 48
50.0
100
AcDbDimension
  2
*D17
 10
7786.89076770356
 20
7423.281687023917
 30
0.0
 11
7786.89076770356
 21
7779.328931118406
 31
0.0
 70
   160
 71
     5
 42
119.9999999999972
  3
INABA_S40G
100
AcDbAlignedDimension
 13
7525.599999999998
 23
7543.281687023915
 33
0.0
 14
7553.599999999997
 24
7423.281687023917
 34
0.0
 50
90.0
100
AcDbRotatedDimension
1001
ACAD
1000
DSTYLE
1002
{
1070
   174
1070
     0
1070
   272
1070
     1
1070
   279
1070
     1
1070
   288
1070
     0
1070
   341
1005
0
1002
}
  0
LINE
  5
1D95A
330
747D
100
AcDbEntity
  8
センター
 48
2.0
100
AcDbLine
 10
8690.599999999999
 20
7420.281687023917
 30
0.0
 11
8790.599999999999
 21
7420.281687023917
 31
0.0
  0
CIRCLE
  5
1D95B
330
747D
100
AcDbEntity
  8
部品1
 48
50.0
100
AcDbCircle
 10
8740.599999999998
 20
7420.281687023917
 30
0.0
 40
35.0
  0
LINE
  5
1D95C
330
747D
100
AcDbEntity
  8
部品1
 48
50.0
100
AcDbLine
 10
8743.599999999998
 20
7313.281687023916
 30
0.0
 11
8633.599999999999
 21
7313.281687023915
 31
0.0
  0
LINE
  5
1D95D
330
747D
100
AcDbEntity
  8
部品1
 48
50.0
100
AcDbLine
 10
8633.599999999999
 20
7313.281687023915
 30
0.0
 11
8633.599999999999
 21
7423.281687023915
 31
0.0
  0
LINE
  5
1D95E
330
747D
100
AcDbEntity
  8
部品1
 48
50.0
100
AcDbLine
 10
8863.599999999998
 20
6533.281687023917
 30
0.0
 11
8743.599999999998
 21
6533.281687023917
 31
0.0
  0
LINE
  5
1D95F
330
747D
100
AcDbEntity
  8
部品1
 48
50.0
100
AcDbLine
 10
8863.599999999998
 20
6333.281687023917
 30
0.0
 11
8743.599999999998
 21
6333.281687023917
 31
0.0
  0
LINE
  5
1D961
330
747D
100
AcDbEntity
  8
センター
 48
2.0
100
AcDbLine
 10
8740.599999999998
 20
7470.281687023917
 30
0.0
 11
8740.599999999998
 21
7370.281687023918
 31
0.0
  0
TEXT
  5
1DEDA
330
747D
100
AcDbEntity
  8
文字
 62
     7
 48
50.0
100
AcDbText
 10
13188.16259899338
 20
79.80631269190325
 30
0.0
 40
80.0
  1
※布基礎には換気口を設けてください。
  7
STYLE2
100
AcDbText
  0
MTEXT
  5
1E700
102
{ACAD_REACTORS
330
1E701
102
}
330
747D
100
AcDbEntity
  8
部品1
 62
     7
 48
50.0
100
AcDbMText
 10
9913.416979436107
 20
7786.307130831868
 30
0.0
 40
120.0
 41
0.0
 71
     6
 72
     1
  1
基礎ボルト芯
  7
STYLE1
 73
     1
 44
1.0
1001
ACAD
1000
MTEXTBEGIN
1070
    73
1070
     1
1070
    44
1040
1.0
1070
    74
1070
     0
1000
MTEXTEND
  0
LEADER
  5
1E701
330
747D
100
AcDbEntity
  8
寸法
 48
50.0
100
AcDbLeader
  3
INABA_S40G
 71
     0
 73
     0
 74
     0
 75
     1
 40
120.0
 41
846.0000000000002
 76
     3
 10
8740.599999999998
 20
7420.281687023917
 30
0.0
 10
8927.416979436106
 20
7686.307130831868
 30
0.0
 10
9027.416979436106
 20
7686.307130831868
 30
0.0
340
1E700
1001
ACAD
1000
DSTYLE
1002
{
1070
   174
1070
     0
1070
   272
1070
     1
1070
   279
1070
     1
1070
   288
1070
     0
1070
   341
1005
0
1002
}
  0
DIMENSION
  5
1FACB
330
747D
100
AcDbEntity
  8
寸法
 48
50.0
100
AcDbDimension
  2
*D18
 10
8093.6
 20
8109.821603578355
 30
0.0
 11
7708.599999999998
 21
8209.821603578355
 31
0.0
 70
    32
 71
     5
 42
770.0
  3
INABA_S40G
100
AcDbAlignedDimension
 13
7323.599999999998
 23
7543.281687023917
 33
0.0
 14
8093.6
 24
6853.281687023917
 34
0.0
100
AcDbRotatedDimension
1001
ACAD
1000
DSTYLE
1002
{
1070
   174
1070
     0
1070
   272
1070
     1
1070
   279
1070
     1
1070
   288
1070
     0
1070
   341
1005
0
1002
}
  0
DIMENSION
  5
1FB1E
330
747D
100
AcDbEntity
  8
寸法
 48
50.0
100
AcDbDimension
  2
*D19
 10
8863.599999999998
 20
8109.821603578355
 30
0.0
 11
8478.599999999998
 21
8209.821603578355
 31
0.0
 70
    32
 71
     5
 42
770.0
  3
INABA_S40G
100
AcDbAlignedDimension
 13
8093.6
 23
6853.281687023917
 33
0.0
 14
8863.599999999998
 24
7543.281687023917
 34
0.0
100
AcDbRotatedDimension
1001
ACAD
1000
DSTYLE
1002
{
1070
   174
1070
     0
1070
   272
1070
     1
1070
   279
1070
     1
1070
   288
1070
     0
1070
   341
1005
0
1002
}
  0
LINE
  5
202B8
330
747D
100
AcDbEntity
  8
部品1
 48
50.0
100
AcDbLine
 10
8193.599999999999
 20
6038.281687023914
 30
0.0
 11
7993.599999999999
 21
6038.281687023914
 31
0.0
  0
LINE
  5
202B9
330
747D
100
AcDbEntity
  8
部品1
 48
50.0
100
AcDbLine
 10
8193.599999999999
 20
6238.281687023917
 30
0.0
 11
7993.599999999999
 21
6238.281687023917
 31
0.0
  0
LINE
  5
202BA
330
747D
100
AcDbEntity
  8
部品1
 48
50.0
100
AcDbLine
 10
7993.599999999999
 20
6038.281687023917
 30
0.0
 11
7993.599999999999
 21
6238.281687023917
 31
0.0
  0
LINE
  5
202BB
330
747D
100
AcDbEntity
  8
センター
 48
2.0
100
AcDbLine
 10
8093.6
 20
6188.281687023916
 30
0.0
 11
8093.6
 21
6088.281687023917
 31
0.0
  0
LINE
  5
202BC
330
747D
100
AcDbEntity
  8
センター
 48
2.0
100
AcDbLine
 10
8043.599999999999
 20
6138.281687023916
 30
0.0
 11
8143.599999999999
 21
6138.281687023916
 31
0.0
  0
LINE
  5
202BD
330
747D
100
AcDbEntity
  8
部品1
 48
50.0
100
AcDbLine
 10
8193.599999999999
 20
6038.281687023914
 30
0.0
 11
8193.599999999999
 21
6238.281687023917
 31
0.0
  0
LINE
  5
202C1
330
747D
100
AcDbEntity
  8
部品1
 48
50.0
100
AcDbLine
 10
8193.599999999999
 20
6703.281687023914
 30
0.0
 11
8193.599999999999
 21
6903.281687023917
 31
0.0
  0
LINE
  5
202C2
330
747D
100
AcDbEntity
  8
センター
 48
2.0
100
AcDbLine
 10
8043.599999999999
 20
6803.281687023917
 30
0.0
 11
8143.599999999999
 21
6803.281687023917
 31
0.0
  0
LINE
  5
202C3
330
747D
100
AcDbEntity
  8
センター
 48
2.0
100
AcDbLine
 10
8093.6
 20
6853.281687023917
 30
0.0
 11
8093.6
 21
6753.281687023918
 31
0.0
  0
LINE
  5
202C4
330
747D
100
AcDbEntity
  8
部品1
 48
50.0
100
AcDbLine
 10
7993.599999999999
 20
6703.281687023917
 30
0.0
 11
7993.599999999999
 21
6903.281687023917
 31
0.0
  0
LINE
  5
202C5
330
747D
100
AcDbEntity
  8
部品1
 48
50.0
100
AcDbLine
 10
8193.599999999999
 20
6903.281687023917
 30
0.0
 11
7993.599999999999
 21
6903.281687023917
 31
0.0
  0
LINE
  5
202C6
330
747D
100
AcDbEntity
  8
部品1
 48
50.0
100
AcDbLine
 10
8193.599999999999
 20
6703.281687023914
 30
0.0
 11
7993.599999999999
 21
6703.281687023914
 31
0.0
  0
DIMENSION
  5
20322
330
747D
100
AcDbEntity
  8
寸法
 48
50.0
100
AcDbDimension
  2
*D22
 10
8281.156431984797
 20
7543.281687023917
 30
0.0
 11
8181.156431984794
 21
7173.281687023917
 31
0.0
 70
    32
 71
     5
 42
739.9999999999991
  3
INABA_S40G
100
AcDbAlignedDimension
 13
8143.599999999999
 23
6803.281687023917
 33
0.0
 14
8193.599999999999
 24
7543.281687023917
 34
0.0
 50
90.0
100
AcDbRotatedDimension
1001
ACAD
1000
DSTYLE
1002
{
1070
   174
1070
     0
1070
   272
1070
     1
1070
   279
1070
     1
1070
   288
1070
     0
1070
   341
1005
0
1002
}
  0
DIMENSION
  5
20323
330
747D
100
AcDbEntity
  8
寸法
 48
50.0
100
AcDbDimension
  2
*D21
 10
8281.156431984797
 20
5323.281687023926
 30
0.0
 11
8181.156431984794
 21
5730.781687023922
 31
0.0
 70
    32
 71
     5
 42
814.9999999999909
  3
INABA_S40G
100
AcDbAlignedDimension
 13
8143.599999999999
 23
6138.281687023916
 33
0.0
 14
8193.600000000014
 24
5323.281687023926
 34
0.0
 50
90.0
100
AcDbRotatedDimension
1001
ACAD
1000
DSTYLE
1002
{
1070
   174
1070
     0
1070
   272
1070
     1
1070
   279
1070
     1
1070
   288
1070
     0
1070
   341
1005
0
1002
}
  0
DIMENSION
  5
20324
330
747D
100
AcDbEntity
  8
寸法
 48
50.0
100
AcDbDimension
  2
*D20
 10
8281.156431984797
 20
6138.281687023916
 30
0.0
 11
8181.156431984794
 21
6470.781687023917
 31
0.0
 70
    32
 71
     5
 42
665.0
  3
INABA_S40G
100
AcDbAlignedDimension
 13
8143.599999999999
 23
6803.281687023917
 33
0.0
 14
8143.599999999999
 24
6138.281687023916
 34
0.0
 50
90.0
100
AcDbRotatedDimension
1001
ACAD
1000
DSTYLE
1002
{
1070
   174
1070
     0
1070
   272
1070
     1
1070
   279
1070
     1
1070
   288
1070
     0
1070
   341
1005
0
1002
}
  0
LEADER
  5
2069B
330
747D
100
AcDbEntity
  8
寸法
 48
50.0
100
AcDbLeader
  3
INABA_S40G
 71
     0
 73
     0
 75
     1
 40
120.0
 41
185.591883092037
 76
     3
 10
8030.88216719823
 20
6754.571021255383
 30
0.0
 10
7960.963922672274
 20
6607.130072826392
 30
0.0
 10
7860.963922672273
 20
6607.130072826392
 30
0.0
340
2069C
210
0.0
220
0.0
230
-1.0
213
-71.41935944326269
223
-47.92531579249407
233
0.0
1001
ACAD
1000
DSTYLE
1002
{
1070
   174
1070
     0
1070
   272
1070
     1
1070
   279
1070
     1
1070
   288
1070
     0
1070
   341
1005
0
1002
}
  0
MTEXT
  5
2069C
102
{ACAD_REACTORS
330
2069B
102
}
330
747D
100
AcDbEntity
  8
部品1
 62
     7
 48
50.0
100
AcDbMText
 10
7892.383282115537
 20
6675.055388618886
 30
0.0
 40
120.0
 41
0.0
 71
     6
 72
     1
  1
\A1;C.B
  7
STYLE1
 73
     1
 44
1.0
1001
ACAD
1000
MTEXTBEGIN
1070
    73
1070
     1
1070
    44
1040
1.0
1070
    74
1070
     0
1000
MTEXTEND
  0
MTEXT
  5
20A78
102
{ACAD_REACTORS
330
20A79
102
}
330
747D
100
AcDbEntity
  8
寸法
 62
     7
 48
50.0
100
AcDbMText
 10
10569.55560912012
 20
2407.607366406223
 30
0.0
 40
120.0
 41
0.8
 71
     4
 72
     1
  1
\A1;C.B
  7
STYLE1
 73
     1
 44
1.0
1001
ACAD
1000
MTEXTBEGIN
1070
    73
1070
     1
1070
    44
1040
1.0
1070
    74
1070
     0
1000
MTEXTEND
  0
LEADER
  5
20A79
330
747D
100
AcDbEntity
  8
寸法
 48
50.0
100
AcDbLeader
  3
INABA_S40G
 73
     0
 74
     0
 75
     1
 40
120.0
 41
185.591883092037
 76
     3
 10
10386.41740248648
 20
2150.461045725085
 30
0.0
 10
10429.55560912012
 20
2307.607366406223
 30
0.0
 10
10529.55560912012
 20
2307.607366406223
 30
0.0
340
20A78
1001
ACAD
1000
DSTYLE
1002
{
1070
   174
1070
     0
1070
   272
1070
     1
1070
   279
1070
     1
1070
   288
1070
     0
1070
   341
1005
0
1002
}
  0
LINE
  5
20A7A
330
747D
100
AcDbEntity
  8
細線
 48
50.0
100
AcDbLine
 10
10532.07081606289
 20
1794.762130071735
 30
0.0
 11
10525.64003544455
 21
1818.762130071734
 31
0.0
  0
LINE
  5
20A7B
330
747D
100
AcDbEntity
  8
細線
 48
50.0
100
AcDbLine
 10
10510.6348806684
 20
1714.762130071735
 30
0.0
 11
10517.06566128675
 21
1690.762130071734
 31
0.0
  0
LINE
  5
20A7C
330
747D
100
AcDbEntity
  8
部品1
100
AcDbLine
 10
10575.69299087056
 20
1910.461045725085
 30
0.0
 11
10575.69299087056
 21
1690.762130071735
 31
0.0
  0
LINE
  5
20A7D
330
747D
100
AcDbEntity
  8
細線
 48
50.0
100
AcDbLine
 10
10504.20410005005
 20
1690.762130071734
 30
0.0
 11
10538.50159668124
 21
1818.762130071733
 31
0.0
  0
LINE
  5
20A7E
330
747D
100
AcDbEntity
  8
細線
 48
50.0
100
AcDbLine
 10
10453.18277111564
 20
1794.762130071735
 30
0.0
 11
10446.7519904973
 21
1818.762130071734
 31
0.0
  0
LINE
  5
20A7F
330
747D
100
AcDbEntity
  8
細線
100
AcDbLine
 10
10328.72938536989
 20
1818.762130071737
 30
0.0
 11
10420.42830102324
 21
1910.461045725085
 31
0.0
  0
LINE
  5
20A80
330
747D
100
AcDbEntity
  8
細線
 48
50.0
100
AcDbLine
 10
10374.29472616839
 20
1794.762130071735
 30
0.0
 11
10367.86394555004
 21
1818.762130071736
 31
0.0
  0
LINE
  5
20A81
330
747D
100
AcDbEntity
  8
細線
100
AcDbLine
 10
10362.67051086685
 20
1818.762130071737
 30
0.0
 11
10454.36942652019
 21
1910.461045725085
 31
0.0
  0
LINE
  5
20A82
330
747D
100
AcDbEntity
  8
細線
 48
50.0
100
AcDbLine
 10
10137.63059132666
 20
1794.762130071735
 30
0.0
 11
10131.19981070831
 21
1818.762130071736
 31
0.0
  0
LINE
  5
20A83
330
747D
100
AcDbEntity
  8
細線
 48
50.0
100
AcDbLine
 10
10216.5186362739
 20
1794.762130071735
 30
0.0
 11
10210.08785565556
 21
1818.762130071736
 31
0.0
  0
LINE
  5
20A84
330
747D
100
AcDbEntity
  8
細線
 48
50.0
100
AcDbLine
 10
10295.40668122115
 20
1794.762130071735
 30
0.0
 11
10288.9759006028
 21
1818.762130071736
 31
0.0
  0
LINE
  5
20A85
330
747D
100
AcDbEntity
  8
細線
 48
50.0
100
AcDbLine
 10
10431.74683572116
 20
1714.762130071735
 30
0.0
 11
10438.1776163395
 21
1690.762130071734
 31
0.0
  0
LINE
  5
20A86
330
747D
100
AcDbEntity
  8
細線
 48
50.0
100
AcDbLine
 10
10352.85879077391
 20
1714.762130071736
 30
0.0
 11
10359.28957139226
 21
1690.762130071735
 31
0.0
  0
LINE
  5
20A87
330
747D
100
AcDbEntity
  8
細線
 48
50.0
100
AcDbLine
 10
10195.08270087941
 20
1714.762130071736
 30
0.0
 11
10201.51348149776
 21
1690.762130071735
 31
0.0
  0
LINE
  5
20A88
330
747D
100
AcDbEntity
  8
細線
 48
50.0
100
AcDbLine
 10
10273.97074582666
 20
1714.762130071736
 30
0.0
 11
10280.40152644501
 21
1690.762130071735
 31
0.0
  0
LINE
  5
20A89
330
747D
100
AcDbEntity
  8
細線
 48
50.0
100
AcDbLine
 10
10267.53996520831
 20
1690.762130071735
 30
0.0
 11
10301.83746183949
 21
1818.762130071734
 31
0.0
  0
LINE
  5
20A8A
330
747D
100
AcDbEntity
  8
細線
 48
50.0
100
AcDbLine
 10
10188.65192026106
 20
1690.762130071734
 30
0.0
 11
10222.94941689225
 21
1818.762130071734
 31
0.0
  0
LINE
  5
20A8B
330
747D
100
AcDbEntity
  8
細線
 48
50.0
100
AcDbLine
 10
10346.42801015556
 20
1690.762130071734
 30
0.0
 11
10380.72550678673
 21
1818.762130071736
 31
0.0
  0
LINE
  5
20A8C
330
747D
100
AcDbEntity
  8
細線
100
AcDbLine
 10
10396.6116363638
 20
1818.762130071737
 30
0.0
 11
10488.31055201714
 21
1910.461045725085
 31
0.0
  0
LINE
  5
20A8D
330
747D
100
AcDbEntity
  8
細線
 48
50.0
100
AcDbLine
 10
10425.31605510281
 20
1690.762130071733
 30
0.0
 11
10459.61355173399
 21
1818.762130071733
 31
0.0
  0
LINE
  5
20A8E
330
747D
100
AcDbEntity
  8
部品1
100
AcDbLine
 10
10455.69299087056
 20
2150.461045725085
 30
0.0
 11
10455.69299087056
 21
1910.461045725085
 31
0.0
  0
LINE
  5
20A8F
330
747D
100
AcDbEntity
  8
細線
100
AcDbLine
 10
10441.85532852298
 20
1910.461045725087
 30
0.0
 11
10201.85532852298
 21
2150.461045725085
 31
0.0
  0
LINE
  5
20A90
330
747D
100
AcDbEntity
  8
細線
100
AcDbLine
 10
10390.94364027755
 20
1910.461045725085
 30
0.0
 11
10150.94364027755
 21
2150.461045725085
 31
0.0
  0
LINE
  5
20A91
330
747D
100
AcDbEntity
  8
細線
100
AcDbLine
 10
10002.67051086684
 20
1818.762130071736
 30
0.0
 11
10094.36942652019
 21
1910.461045725085
 31
0.0
  0
LINE
  5
20A92
330
747D
100
AcDbEntity
  8
細線
100
AcDbLine
 10
9968.72938536989
 20
1818.762130071736
 30
0.0
 11
10060.42830102324
 21
1910.461045725085
 31
0.0
  0
LINE
  5
20A93
330
747D
100
AcDbEntity
  8
細線
 48
50.0
100
AcDbLine
 10
9979.854501432161
 20
1794.762130071735
 30
0.0
 11
9973.423720813816
 21
1818.762130071736
 31
0.0
  0
LINE
  5
20A94
330
747D
100
AcDbEntity
  8
細線
 48
50.0
100
AcDbLine
 10
10058.74254637941
 20
1794.762130071735
 30
0.0
 11
10052.31176576107
 21
1818.762130071736
 31
0.0
  0
LINE
  5
20A95
330
747D
100
AcDbEntity
  8
細線
 48
50.0
100
AcDbLine
 10
9900.96645648491
 20
1794.762130071735
 30
0.0
 11
9894.535675866563
 21
1818.762130071736
 31
0.0
  0
LINE
  5
20A96
330
747D
100
AcDbEntity
  8
細線
 48
50.0
100
AcDbLine
 10
10116.19465593217
 20
1714.762130071736
 30
0.0
 11
10122.62543655052
 21
1690.762130071735
 31
0.0
  0
LINE
  5
20A97
330
747D
100
AcDbEntity
  8
細線
 48
50.0
100
AcDbLine
 10
10037.30661098492
 20
1714.762130071736
 30
0.0
 11
10043.73739160327
 21
1690.762130071735
 31
0.0
  0
LINE
  5
20A98
330
747D
100
AcDbEntity
  8
細線
 48
50.0
100
AcDbLine
 10
9879.530521090421
 20
1714.762130071736
 30
0.0
 11
9885.961301708768
 21
1690.762130071735
 31
0.0
  0
LINE
  5
20A99
330
747D
100
AcDbEntity
  8
細線
 48
50.0
100
AcDbLine
 10
9958.418566037671
 20
1714.762130071736
 30
0.0
 11
9964.84934665602
 21
1690.762130071735
 31
0.0
  0
LINE
  5
20A9A
330
747D
100
AcDbEntity
  8
部品1
100
AcDbLine
 10
9855.692990870561
 20
1690.762130071732
 30
0.0
 11
9855.692990870561
 21
1910.461045725085
 31
0.0
  0
LINE
  5
20A9B
330
747D
100
AcDbEntity
  8
細線
 48
50.0
100
AcDbLine
 10
9873.099740472072
 20
1690.762130071735
 30
0.0
 11
9907.397237103259
 21
1818.762130071736
 31
0.0
  0
LINE
  5
20A9C
330
747D
100
AcDbEntity
  8
細線
 48
50.0
100
AcDbLine
 10
10030.87583036657
 20
1690.762130071735
 30
0.0
 11
10065.17332699775
 21
1818.762130071736
 31
0.0
  0
LINE
  5
20A9D
330
747D
100
AcDbEntity
  8
細線
 48
50.0
100
AcDbLine
 10
9951.987785419319
 20
1690.762130071734
 30
0.0
 11
9986.285282050504
 21
1818.762130071734
 31
0.0
  0
LINE
  5
20A9E
330
747D
100
AcDbEntity
  8
部品1
100
AcDbLine
 10
9975.692990870562
 20
1910.461045725085
 30
0.0
 11
9975.692990870562
 21
2150.461045725085
 31
0.0
  0
TEXT
  5
20A9F
330
747D
100
AcDbEntity
  8
部品1
 48
50.0
100
AcDbText
 10
9211.574904112058
 20
1643.661305087777
 30
0.0
 40
80.0
  1
ボルトの出
 50
90.0
  7
STYLE2
100
AcDbText
  0
LINE
  5
20AA0
330
747D
100
AcDbEntity
  8
細線
100
AcDbLine
 10
10119.41463630191
 20
1910.461045725085
 30
0.0
 11
9975.692990870562
 21
2054.182691156439
 31
0.0
  0
LWPOLYLINE
  5
20AA1
330
747D
100
AcDbEntity
  8
部品1
 48
50.0
100
AcDbPolyline
 90
        2
 70
     0
 43
12.0
 10
9591.081728770172
 20
1910.461045725085
 10
10792.1740319018
 20
1910.461045725085
  0
LINE
  5
20AA2
330
747D
100
AcDbEntity
  8
細線
100
AcDbLine
 10
10036.6116363638
 20
1818.762130071736
 30
0.0
 11
10128.31055201715
 21
1910.461045725085
 31
0.0
  0
LINE
  5
20AA3
330
747D
100
AcDbEntity
  8
部品1
100
AcDbLine
 10
9855.692990870561
 20
1818.762130071736
 30
0.0
 11
10575.69299087056
 21
1818.762130071738
 31
0.0
  0
LINE
  5
20AA4
330
747D
100
AcDbEntity
  8
部品1
100
AcDbLine
 10
9855.692990870561
 20
1690.762130071732
 30
0.0
 11
10575.69299087056
 21
1690.762130071735
 31
0.0
  0
LINE
  5
20AA5
330
747D
100
AcDbEntity
  8
細線
 48
50.0
100
AcDbLine
 10
10109.76387531381
 20
1690.762130071735
 30
0.0
 11
10144.061371945
 21
1818.762130071734
 31
0.0
  0
LINE
  5
20AA6
330
747D
100
AcDbEntity
  8
部品1
100
AcDbLine
 10
9975.692990870562
 20
2150.461045725085
 30
0.0
 11
10455.69299087056
 21
2150.461045725085
 31
0.0
  0
LINE
  5
20AA7
330
747D
100
AcDbEntity
  8
細線
100
AcDbLine
 10
10170.32632454734
 20
1910.461045725085
 30
0.0
 11
9975.692990870562
 21
2105.094379401869
 31
0.0
  0
LINE
  5
20AA8
330
747D
100
AcDbEntity
  8
部品1
100
AcDbLine
 10
11162.43449196759
 20
507.1256959172833
 30
0.0
 11
11162.4344919676
 21
3471.432665501931
 31
0.0
  0
TEXT
  5
20AA9
330
747D
100
AcDbEntity
  8
部品1
100
AcDbText
 10
7784.329307759732
 20
3291.880733550503
 30
0.0
 40
120.0
  1
基礎詳細
  7
STYLE2
100
AcDbText
  0
LINE
  5
20AAA
330
747D
100
AcDbEntity
  8
部品1
 48
50.0
100
AcDbLine
 10
8099.557058567803
 20
2549.336326834228
 30
0.0
 11
8115.557058567803
 21
2541.336326834228
 31
0.0
  0
LINE
  5
20AAB
330
747D
100
AcDbEntity
  8
細線
 48
50.0
100
AcDbLine
 10
8067.557058567803
 20
2501.336326834228
 30
0.0
 11
8067.557058567803
 21
2533.336326834228
 31
0.0
  0
LINE
  5
20AAC
330
747D
100
AcDbEntity
  8
部品1
 48
50.0
100
AcDbLine
 10
8115.557058567803
 20
2509.336326834228
 30
0.0
 11
8115.557058567803
 21
2541.336326834228
 31
0.0
  0
LINE
  5
20AAD
330
747D
100
AcDbEntity
  8
細線
 48
50.0
100
AcDbLine
 10
8099.557058567803
 20
2501.336326834228
 30
0.0
 11
8099.557058567803
 21
2533.336326834228
 31
0.0
  0
LINE
  5
20AAE
330
747D
100
AcDbEntity
  8
部品1
 48
50.0
100
AcDbLine
 10
8099.557058567803
 20
2533.336326834228
 30
0.0
 11
8115.557058567803
 21
2541.336326834228
 31
0.0
  0
LINE
  5
20AAF
330
747D
100
AcDbEntity
  8
部品1
 48
50.0
100
AcDbLine
 10
8067.557058567803
 20
2533.336326834228
 30
0.0
 11
8099.557058567803
 21
2533.336326834228
 31
0.0
  0
LINE
  5
20AB0
330
747D
100
AcDbEntity
  8
部品1
 48
50.0
100
AcDbLine
 10
8099.557058567803
 20
2501.336326834228
 30
0.0
 11
8115.557058567803
 21
2509.336326834228
 31
0.0
  0
LINE
  5
20AB1
330
747D
100
AcDbEntity
  8
部品1
 48
50.0
100
AcDbLine
 10
8067.557058567803
 20
2501.336326834228
 30
0.0
 11
8099.557058567803
 21
2501.336326834228
 31
0.0
  0
ELLIPSE
  5
20AB2
330
747D
100
AcDbEntity
  8
細線
 48
50.0
100
AcDbEllipse
 10
8083.557058567803
 20
2541.336326834228
 30
0.0
 11
14.76670786606846
 21
0.0
 31
0.0
210
0.0
220
0.0
230
1.0
 40
0.2071254069489396
 41
0.0
 42
6.283185307179586
  0
LINE
  5
20AB3
330
747D
100
AcDbEntity
  8
部品1
 48
50.0
100
AcDbLine
 10
8067.557058567803
 20
2549.336326834228
 30
0.0
 11
8099.557058567803
 21
2549.336326834228
 31
0.0
  0
LINE
  5
20AB4
330
747D
100
AcDbEntity
  8
部品1
 48
50.0
100
AcDbLine
 10
8051.557058567803
 20
2509.336326834228
 30
0.0
 11
8051.557058567803
 21
2541.336326834228
 31
0.0
  0
LINE
  5
20AB5
330
747D
100
AcDbEntity
  8
部品1
 48
50.0
100
AcDbLine
 10
8051.557058567803
 20
2541.336326834228
 30
0.0
 11
8067.557058567803
 21
2549.336326834228
 31
0.0
  0
LINE
  5
20AB6
330
747D
100
AcDbEntity
  8
部品1
 48
50.0
100
AcDbLine
 10
8051.557058567803
 20
2509.336326834228
 30
0.0
 11
8067.557058567803
 21
2501.336326834228
 31
0.0
  0
LINE
  5
20AB7
330
747D
100
AcDbEntity
  8
部品1
 48
50.0
100
AcDbLine
 10
8051.557058567803
 20
2541.336326834228
 30
0.0
 11
8067.557058567803
 21
2533.336326834228
 31
0.0
  0
LINE
  5
20AB8
330
747D
100
AcDbEntity
  8
部品1
 48
50.0
100
AcDbLine
 10
8123.557058567802
 20
2409.984334169358
 30
0.0
 11
8123.557058567802
 21
2419.584334169358
 31
0.0
  0
ELLIPSE
  5
20AB9
330
747D
100
AcDbEntity
  8
部品1
 48
50.0
100
AcDbEllipse
 10
8083.557058567803
 20
2419.584334169358
 30
0.0
 11
18.4
 21
0.0
 31
0.0
210
0.0
220
0.0
230
1.0
 40
0.3478260869565217
 41
0.0
 42
6.283185307179586
  0
ARC
  5
20ABA
330
747D
100
AcDbEntity
  8
部品1
100
AcDbCircle
 10
7922.457058567804
 20
2248.561045725086
 30
0.0
 40
2.7
100
AcDbArc
 50
90.0
 51
180.0
  0
LINE
  5
20ABB
330
747D
100
AcDbEntity
  8
部品1
100
AcDbLine
 10
7925.157058567802
 20
2262.061045725086
 30
0.0
 11
7967.457058567802
 21
2262.061045725082
 31
0.0
  0
LINE
  5
20ABC
330
747D
100
AcDbEntity
  8
部品1
100
AcDbLine
 10
7922.457058567804
 20
2251.261045725086
 30
0.0
 11
7922.457058567804
 21
2259.361045725086
 31
0.0
  0
LINE
  5
20ABD
330
747D
100
AcDbEntity
  8
部品1
100
AcDbLine
 10
7922.457058567804
 20
2251.261045725086
 30
0.0
 11
7922.457058567804
 21
2251.261045725086
 31
0.0
  0
ARC
  5
20ABE
330
747D
100
AcDbEntity
  8
部品1
100
AcDbCircle
 10
7925.157058567802
 20
2259.361045725086
 30
0.0
 40
2.7
100
AcDbArc
 50
90.0
 51
180.0
  0
ARC
  5
20ABF
330
747D
100
AcDbEntity
  8
部品1
100
AcDbCircle
 10
7967.457058567802
 20
2259.361045725083
 30
0.0
 40
2.7
100
AcDbArc
 50
0.0
 51
90.0
  0
LINE
  5
20AC0
330
747D
100
AcDbEntity
  8
部品1
 48
50.0
100
AcDbLine
 10
8043.557058567804
 20
2419.584334169358
 30
0.0
 11
8043.557058567804
 21
2409.984334169358
 31
0.0
  0
ELLIPSE
  5
20AC1
330
747D
100
AcDbEntity
  8
部品1
 48
50.0
100
AcDbEllipse
 10
8083.557058567803
 20
2409.984334169358
 30
0.0
 11
40.0
 21
0.0
 31
0.0
210
0.0
220
0.0
230
1.0
 40
0.4
 41
3.141592653589793
 42
6.283185307179586
  0
ELLIPSE
  5
20AC2
330
747D
100
AcDbEntity
  8
部品1
 48
50.0
100
AcDbEllipse
 10
8083.557058567803
 20
2419.584334169358
 30
0.0
 11
40.0
 21
0.0
 31
0.0
210
0.0
220
0.0
230
1.0
 40
0.4
 41
0.0
 42
6.283185307179586
  0
LINE
  5
20AC3
330
747D
100
AcDbEntity
  8
部品1
100
AcDbLine
 10
8078.157058567802
 20
2203.221045725086
 30
0.0
 11
8088.957058567803
 21
2203.221045725086
 31
0.0
  0
LINE
  5
20AC4
330
747D
100
AcDbEntity
  8
部品1
100
AcDbLine
 10
8074.557058567803
 20
2199.621045725086
 30
0.0
 11
8092.557058567804
 21
2199.621045725086
 31
0.0
  0
LINE
  5
20AC5
330
747D
100
AcDbEntity
  8
細線
100
AcDbLine
 10
8078.157058567805
 20
2160.021045725086
 30
0.0
 11
8078.157058567802
 21
2203.221045725086
 31
0.0
  0
LINE
  5
20AC6
330
747D
100
AcDbEntity
  8
細線
100
AcDbLine
 10
8088.957058567803
 20
2160.021045725086
 30
0.0
 11
8088.957058567803
 21
2203.221045725086
 31
0.0
  0
LINE
  5
20AC7
330
747D
100
AcDbEntity
  8
部品1
100
AcDbLine
 10
7990.857058567802
 20
2217.321045725086
 30
0.0
 11
7990.857058567802
 21
2200.221045725086
 31
0.0
  0
LINE
  5
20AC8
330
747D
100
AcDbEntity
  8
部品1
100
AcDbLine
 10
8024.417058567804
 20
2217.321045725086
 30
0.0
 11
8024.4170585678
 21
2162.721045725086
 31
0.0
  0
ARC
  5
20AC9
330
747D
100
AcDbEntity
  8
部品1
100
AcDbCircle
 10
8009.757058567803
 20
2205.361045725085
 30
0.0
 40
2.7
100
AcDbArc
 50
0.0
 51
90.0
  0
LINE
  5
20ACA
330
747D
100
AcDbEntity
  8
部品1
100
AcDbLine
 10
7970.157058567803
 20
2208.061045725086
 30
0.0
 11
8009.757058567803
 21
2208.061045725086
 31
0.0
  0
ARC
  5
20ACB
330
747D
100
AcDbEntity
  8
部品1
100
AcDbCircle
 10
8009.757058567803
 20
2162.721045725086
 30
0.0
 40
2.7
100
AcDbArc
 50
270.0
 51
0.0
  0
ARC
  5
20ACC
330
747D
100
AcDbEntity
  8
部品1
100
AcDbCircle
 10
8027.117058567798
 20
2162.721045725086
 30
0.0
 40
2.7
100
AcDbArc
 50
180.0
 51
270.0
  0
LINE
  5
20ACD
330
747D
100
AcDbEntity
  8
部品1
100
AcDbLine
 10
7998.057058567804
 20
2160.021045725086
 30
0.0
 11
8009.757058567803
 21
2160.021045725086
 31
0.0
  0
LINE
  5
20ACE
330
747D
100
AcDbEntity
  8
部品1
100
AcDbLine
 10
8012.457058567802
 20
2205.361045725085
 30
0.0
 11
8012.457058567802
 21
2162.721045725086
 31
0.0
  0
ARC
  5
20ACF
330
747D
100
AcDbEntity
  8
部品1
100
AcDbCircle
 10
8021.717058567803
 20
2217.321045725086
 30
0.0
 40
2.7
100
AcDbArc
 50
0.0
 51
90.0
  0
ARC
  5
20AD0
330
747D
100
AcDbEntity
  8
部品1
100
AcDbCircle
 10
7993.557058567803
 20
2217.321045725086
 30
0.0
 40
2.7
100
AcDbArc
 50
90.0
 51
180.0
  0
LINE
  5
20AD1
330
747D
100
AcDbEntity
  8
部品1
100
AcDbLine
 10
7993.557058567803
 20
2220.021045725086
 30
0.0
 11
8021.717058567803
 21
2220.021045725086
 31
0.0
  0
LINE
  5
20AD2
330
747D
100
AcDbEntity
  8
部品1
100
AcDbLine
 10
7970.157058567803
 20
2259.361045725083
 30
0.0
 11
7970.157058567803
 21
2208.061045725086
 31
0.0
  0
LINE
  5
20AD3
330
747D
100
AcDbEntity
  8
部品1
100
AcDbLine
 10
7919.757058567803
 20
2240.461045725086
 30
0.0
 11
7919.757058567803
 21
2248.561045725086
 31
0.0
  0
LINE
  5
20AD4
330
747D
100
AcDbEntity
  8
部品1
100
AcDbLine
 10
8027.117058567798
 20
2160.021045725086
 30
0.0
 11
8228.457058567798
 21
2160.021045725086
 31
0.0
  0
LINE
  5
20AD5
330
747D
100
AcDbEntity
  8
部品1
100
AcDbLine
 10
7868.457058567803
 20
2162.721045725086
 30
0.0
 11
7868.457058567803
 21
2224.852949427793
 31
0.0
  0
LINE
  5
20AD6
330
747D
100
AcDbEntity
  8
部品1
100
AcDbLine
 10
7871.157058567803
 20
2160.021045725086
 30
0.0
 11
7882.857058567798
 21
2160.021045725086
 31
0.0
  0
LINE
  5
20AD7
330
747D
100
AcDbEntity
  8
細線
 48
50.0
100
AcDbLine
 10
7862.157058567802
 20
2138.241622024991
 30
0.0
 11
7874.376482267898
 21
2150.461045725085
 31
0.0
  0
ARC
  5
20AD8
330
747D
100
AcDbEntity
  8
部品1
100
AcDbCircle
 10
7871.157058567803
 20
2162.721045725086
 30
0.0
 40
2.7
100
AcDbArc
 50
180.0
 51
270.0
  0
LINE
  5
20AD9
330
747D
100
AcDbEntity
  8
部品1
100
AcDbLine
 10
7870.502212380204
 20
2227.472334178186
 30
0.0
 11
7879.257058567803
 21
2229.661045725086
 31
0.0
  0
ARC
  5
20ADA
330
747D
100
AcDbEntity
  8
部品1
100
AcDbCircle
 10
7871.157058567803
 20
2224.852949427793
 30
0.0
 40
2.7
100
AcDbArc
 50
104.0362434679067
 51
180.0
  0
ARC
  5
20ADB
330
747D
100
AcDbEntity
  8
部品1
100
AcDbCircle
 10
7881.957058567803
 20
2237.761045725086
 30
0.0
 40
2.7
100
AcDbArc
 50
90.0
 51
180.0
  0
LINE
  5
20ADC
330
747D
100
AcDbEntity
  8
部品1
100
AcDbLine
 10
7879.257058567803
 20
2229.661045725086
 30
0.0
 11
7879.257058567803
 21
2237.761045725086
 31
0.0
  0
TEXT
  5
20ADD
330
747D
100
AcDbEntity
  8
部品1
 48
50.0
100
AcDbText
 10
7435.710961988312
 20
2481.021566825562
 30
0.0
 40
80.0
  1
※(別売)
  7
STYLE2
100
AcDbText
  0
LINE
  5
20ADE
330
747D
100
AcDbEntity
  8
部品1
 48
50.0
100
AcDbLine
 10
7862.157058567802
 20
2150.461045725085
 30
0.0
 11
8276.157058567806
 21
2150.461045725085
 31
0.0
  0
LINE
  5
20ADF
330
747D
100
AcDbEntity
  8
細線
 48
50.0
100
AcDbLine
 10
7862.157058567802
 20
2084.360085298575
 30
0.0
 11
7928.258018994313
 21
2150.461045725085
 31
0.0
  0
LINE
  5
20AE0
330
747D
100
AcDbEntity
  8
細線
 48
50.0
100
AcDbLine
 10
7862.157058567802
 20
2111.300853661784
 30
0.0
 11
7901.317250631108
 21
2150.461045725085
 31
0.0
  0
LINE
  5
20AE1
330
747D
100
AcDbEntity
  8
部品1
100
AcDbLine
 10
7881.957058567803
 20
2240.461045725086
 30
0.0
 11
7919.757058567803
 21
2240.461045725086
 31
0.0
  0
LINE
  5
20AE2
330
747D
100
AcDbEntity
  8
部品1
 48
50.0
100
AcDbLine
 10
8276.157058567802
 20
1606.461045725086
 30
0.0
 11
8404.157058567802
 21
1606.461045725086
 31
0.0
  0
LINE
  5
20AE3
330
747D
100
AcDbEntity
  8
部品1
100
AcDbLine
 10
8092.557058567804
 20
1925.461045725085
 30
0.0
 11
8128.557058567803
 21
1925.461045725085
 31
0.0
  0
LINE
  5
20AE4
330
747D
100
AcDbEntity
  8
部品1
100
AcDbLine
 10
8092.557058567804
 20
1907.461045725085
 30
0.0
 11
8128.557058567803
 21
1907.461045725085
 31
0.0
  0
ARC
  5
20AE5
330
747D
100
AcDbEntity
  8
部品1
100
AcDbCircle
 10
8092.557058567804
 20
1925.461045725085
 30
0.0
 40
18.0
100
AcDbArc
 50
180.0
 51
270.0
  0
LINE
  5
20AE6
330
747D
100
AcDbEntity
  8
部品1
100
AcDbLine
 10
8128.557058567803
 20
1907.461045725085
 30
0.0
 11
8128.557058567803
 21
1925.461045725085
 31
0.0
  0
LINE
  5
20AE7
330
747D
100
AcDbEntity
  8
部品1
100
AcDbLine
 10
8146.557058567804
 20
1826.461045725084
 30
0.0
 11
8020.557058567797
 21
1826.461045725084
 31
0.0
  0
LINE
  5
20AE8
330
747D
100
AcDbEntity
  8
細線
 48
50.0
100
AcDbLine
 10
8440.534883760138
 20
1342.461045725084
 30
0.0
 11
8434.104103141791
 21
1366.461045725084
 31
0.0
  0
LINE
  5
20AE9
330
747D
100
AcDbEntity
  8
細線
 48
50.0
100
AcDbLine
 10
8361.646838812893
 20
1342.461045725084
 30
0.0
 11
8355.216058194548
 21
1366.461045725084
 31
0.0
  0
LINE
  5
20AEA
330
747D
100
AcDbEntity
  8
細線
 48
50.0
100
AcDbLine
 10
8282.758793865637
 20
1342.461045725085
 30
0.0
 11
8276.328013247288
 21
1366.461045725085
 31
0.0
  0
LINE
  5
20AEB
330
747D
100
AcDbEntity
  8
細線
 48
50.0
100
AcDbLine
 10
8419.098948365649
 20
1262.461045725084
 30
0.0
 11
8425.529728983995
 21
1238.461045725084
 31
0.0
  0
LINE
  5
20AEC
330
747D
100
AcDbEntity
  8
細線
 48
50.0
100
AcDbLine
 10
8340.210903418403
 20
1262.461045725084
 30
0.0
 11
8346.64168403675
 21
1238.461045725084
 31
0.0
  0
LINE
  5
20AED
330
747D
100
AcDbEntity
  8
細線
 48
50.0
100
AcDbLine
 10
8261.322858471155
 20
1262.461045725085
 30
0.0
 11
8267.75363908951
 21
1238.461045725085
 31
0.0
  0
LINE
  5
20AEE
330
747D
100
AcDbEntity
  8
細線
 48
50.0
100
AcDbLine
 10
8333.780122800055
 20
1238.461045725083
 30
0.0
 11
8368.077619431238
 21
1366.461045725083
 31
0.0
  0
LINE
  5
20AEF
330
747D
100
AcDbEntity
  8
細線
 48
50.0
100
AcDbLine
 10
8254.892077852804
 20
1238.461045725084
 30
0.0
 11
8289.189574483978
 21
1366.461045725085
 31
0.0
  0
LINE
  5
20AF0
330
747D
100
AcDbEntity
  8
細線
 48
50.0
100
AcDbLine
 10
8412.668167747296
 20
1238.461045725084
 30
0.0
 11
8446.965664378485
 21
1366.461045725083
 31
0.0
  0
LINE
  5
20AF1
330
747D
100
AcDbEntity
  8
部品1
 48
50.0
100
AcDbLine
 10
8484.157058567806
 20
1366.461045725085
 30
0.0
 11
8484.157058567806
 21
1238.461045725085
 31
0.0
  0
LINE
  5
20AF2
330
747D
100
AcDbEntity
  8
細線
 48
50.0
100
AcDbLine
 10
8203.870748918397
 20
1342.461045725085
 30
0.0
 11
8197.439968300052
 21
1366.461045725085
 31
0.0
  0
LINE
  5
20AF3
330
747D
100
AcDbEntity
  8
細線
 48
50.0
100
AcDbLine
 10
8124.982703971152
 20
1342.461045725085
 30
0.0
 11
8118.551923352805
 21
1366.461045725085
 31
0.0
  0
LINE
  5
20AF4
330
747D
100
AcDbEntity
  8
細線
 48
50.0
100
AcDbLine
 10
7967.206614076658
 20
1342.461045725085
 30
0.0
 11
7960.775833458312
 21
1366.461045725085
 31
0.0
  0
LINE
  5
20AF5
330
747D
100
AcDbEntity
  8
細線
 48
50.0
100
AcDbLine
 10
8046.094659023905
 20
1342.461045725085
 30
0.0
 11
8039.663878405558
 21
1366.461045725085
 31
0.0
  0
LINE
  5
20AF6
330
747D
100
AcDbEntity
  8
細線
 48
50.0
100
AcDbLine
 10
8103.546768576663
 20
1262.461045725085
 30
0.0
 11
8109.97754919501
 21
1238.461045725085
 31
0.0
  0
LINE
  5
20AF7
330
747D
100
AcDbEntity
  8
細線
 48
50.0
100
AcDbLine
 10
8182.43481352391
 20
1262.461045725085
 30
0.0
 11
8188.865594142255
 21
1238.461045725085
 31
0.0
  0
LINE
  5
20AF8
330
747D
100
AcDbEntity
  8
細線
 48
50.0
100
AcDbLine
 10
7945.77067868217
 20
1262.461045725085
 30
0.0
 11
7952.201459300517
 21
1238.461045725085
 31
0.0
  0
LINE
  5
20AF9
330
747D
100
AcDbEntity
  8
細線
 48
50.0
100
AcDbLine
 10
8024.658723629416
 20
1262.461045725085
 30
0.0
 11
8031.089504247765
 21
1238.461045725085
 31
0.0
  0
LINE
  5
20AFA
330
747D
100
AcDbEntity
  8
細線
 48
50.0
100
AcDbLine
 10
8176.004032905556
 20
1238.461045725085
 30
0.0
 11
8210.30152953674
 21
1366.461045725084
 31
0.0
  0
LINE
  5
20AFB
330
747D
100
AcDbEntity
  8
細線
 48
50.0
100
AcDbLine
 10
8018.227943011064
 20
1238.461045725085
 30
0.0
 11
8052.52543964225
 21
1366.461045725084
 31
0.0
  0
LINE
  5
20AFC
330
747D
100
AcDbEntity
  8
細線
 48
50.0
100
AcDbLine
 10
7939.339898063818
 20
1238.461045725085
 30
0.0
 11
7973.637394695001
 21
1366.461045725085
 31
0.0
  0
LINE
  5
20AFD
330
747D
100
AcDbEntity
  8
細線
 48
50.0
100
AcDbLine
 10
8097.115987958312
 20
1238.461045725084
 30
0.0
 11
8131.413484589495
 21
1366.461045725084
 31
0.0
  0
LINE
  5
20AFE
330
747D
100
AcDbEntity
  8
細線
 48
50.0
100
AcDbLine
 10
8221.888753522611
 20
1366.461045725085
 30
0.0
 11
8404.157058567802
 21
1548.729350770281
 31
0.0
  0
LINE
  5
20AFF
330
747D
100
AcDbEntity
  8
部品1
 48
50.0
100
AcDbLine
 10
8404.157058567802
 20
1606.461045725086
 30
0.0
 11
8404.157058567802
 21
1366.461045725085
 31
0.0
  0
LINE
  5
20B00
330
747D
100
AcDbEntity
  8
細線
 48
50.0
100
AcDbLine
 10
8194.947985159407
 20
1366.461045725085
 30
0.0
 11
8404.157058567802
 21
1575.670119133478
 31
0.0
  0
LINE
  5
20B01
330
747D
100
AcDbEntity
  8
細線
 48
50.0
100
AcDbLine
 10
8168.007216796196
 20
1366.461045725085
 30
0.0
 11
8404.157058567802
 21
1602.610887496694
 31
0.0
  0
LINE
  5
20B02
330
747D
100
AcDbEntity
  8
細線
 48
50.0
100
AcDbLine
 10
7952.481069890537
 20
1366.461045725085
 30
0.0
 11
8276.157058567802
 21
1690.137034402351
 31
0.0
  0
LINE
  5
20B03
330
747D
100
AcDbEntity
  8
細線
 48
50.0
100
AcDbLine
 10
8006.362606616951
 20
1366.461045725085
 30
0.0
 11
8276.157058567802
 21
1636.255497675943
 31
0.0
  0
LINE
  5
20B04
330
747D
100
AcDbEntity
  8
細線
 48
50.0
100
AcDbLine
 10
7979.421838253748
 20
1366.461045725085
 30
0.0
 11
8276.157058567802
 21
1663.196266039138
 31
0.0
  0
LINE
  5
20B05
330
747D
100
AcDbEntity
  8
細線
 48
50.0
100
AcDbLine
 10
7734.157058567797
 20
1579.189328213671
 30
0.0
 11
7761.428776079218
 21
1606.461045725086
 31
0.0
  0
LINE
  5
20B06
330
747D
100
AcDbEntity
  8
部品1
 48
50.0
100
AcDbLine
 10
7734.157058567802
 20
1606.461045725086
 30
0.0
 11
7862.157058567802
 21
1606.461045725086
 31
0.0
  0
LINE
  5
20B07
330
747D
100
AcDbEntity
  8
細線
 48
50.0
100
AcDbLine
 10
7734.157058567797
 20
1552.248559850461
 30
0.0
 11
7788.369544442428
 21
1606.461045725086
 31
0.0
  0
LWPOLYLINE
  5
20B08
330
747D
100
AcDbEntity
  8
部品1
 48
50.0
100
AcDbPolyline
 90
        2
 70
     0
 43
8.0
 10
7448.017156734846
 20
1910.461045725086
 10
7862.157058567802
 20
1910.461045725086
  0
LINE
  5
20B09
330
747D
100
AcDbEntity
  8
細線
 48
50.0
100
AcDbLine
 10
7809.430524182156
 20
1342.461045725085
 30
0.0
 11
7802.999743563809
 21
1366.461045725085
 31
0.0
  0
LINE
  5
20B0A
330
747D
100
AcDbEntity
  8
細線
 48
50.0
100
AcDbLine
 10
7888.318569129407
 20
1342.461045725085
 30
0.0
 11
7881.887788511061
 21
1366.461045725085
 31
0.0
  0
LINE
  5
20B0B
330
747D
100
AcDbEntity
  8
細線
 48
50.0
100
AcDbLine
 10
7730.542479234904
 20
1342.461045725085
 30
0.0
 11
7724.111698616558
 21
1366.461045725085
 31
0.0
  0
LINE
  5
20B0C
330
747D
100
AcDbEntity
  8
細線
 48
50.0
100
AcDbLine
 10
7654.157058567803
 20
1351.800966690865
 30
0.0
 11
7658.085214905998
 21
1366.461045725085
 31
0.0
  0
LINE
  5
20B0D
330
747D
100
AcDbEntity
  8
細線
 48
50.0
100
AcDbLine
 10
7787.994588787667
 20
1262.461045725085
 30
0.0
 11
7794.425369406013
 21
1238.461045725085
 31
0.0
  0
LINE
  5
20B0E
330
747D
100
AcDbEntity
  8
細線
 48
50.0
100
AcDbLine
 10
7866.882633734919
 20
1262.461045725085
 30
0.0
 11
7873.313414353265
 21
1238.461045725085
 31
0.0
  0
LINE
  5
20B0F
330
747D
100
AcDbEntity
  8
細線
 48
50.0
100
AcDbLine
 10
7709.106543840414
 20
1262.461045725085
 30
0.0
 11
7715.537324458761
 21
1238.461045725085
 31
0.0
  0
LINE
  5
20B10
330
747D
100
AcDbEntity
  8
細線
 48
50.0
100
AcDbLine
 10
7860.451853116567
 20
1238.461045725084
 30
0.0
 11
7894.749349747748
 21
1366.461045725084
 31
0.0
  0
LINE
  5
20B11
330
747D
100
AcDbEntity
  8
細線
 48
50.0
100
AcDbLine
 10
7702.675763222062
 20
1238.461045725084
 30
0.0
 11
7736.973259853245
 21
1366.461045725084
 31
0.0
  0
LINE
  5
20B12
330
747D
100
AcDbEntity
  8
部品1
 48
50.0
100
AcDbLine
 10
7654.157058567806
 20
1238.461045725085
 30
0.0
 11
7654.157058567806
 21
1366.461045725085
 31
0.0
  0
LINE
  5
20B13
330
747D
100
AcDbEntity
  8
細線
 48
50.0
100
AcDbLine
 10
7781.56380816932
 20
1238.461045725085
 30
0.0
 11
7815.861304800503
 21
1366.461045725085
 31
0.0
  0
LINE
  5
20B14
330
747D
100
AcDbEntity
  8
部品1
 48
50.0
100
AcDbLine
 10
7734.157058567802
 20
1366.461045725085
 30
0.0
 11
7734.157058567802
 21
1606.461045725086
 31
0.0
  0
LINE
  5
20B15
330
747D
100
AcDbEntity
  8
細線
 48
50.0
100
AcDbLine
 10
7734.157058567797
 20
1525.307791487256
 30
0.0
 11
7815.310312805632
 21
1606.461045725086
 31
0.0
  0
LINE
  5
20B16
330
747D
100
AcDbEntity
  8
部品1
 48
50.0
100
AcDbLine
 10
8484.157058567806
 20
1238.461045725085
 30
0.0
 11
7654.157058567806
 21
1238.461045725085
 31
0.0
  0
LINE
  5
20B17
330
747D
100
AcDbEntity
  8
部品1
 48
50.0
100
AcDbLine
 10
8484.157058567806
 20
1366.461045725085
 30
0.0
 11
7654.157058567806
 21
1366.461045725085
 31
0.0
  0
LINE
  5
20B18
330
747D
100
AcDbEntity
  8
細線
 48
50.0
100
AcDbLine
 10
7736.954922984877
 20
1366.461045725085
 30
0.0
 11
8276.157058567802
 21
1905.663181308011
 31
0.0
  0
LINE
  5
20B19
330
747D
100
AcDbEntity
  8
細線
 48
50.0
100
AcDbLine
 10
7763.895691348086
 20
1366.461045725085
 30
0.0
 11
8276.157058567806
 21
1878.722412944799
 31
0.0
  0
LINE
  5
20B1A
330
747D
100
AcDbEntity
  8
細線
 48
50.0
100
AcDbLine
 10
7790.836459711292
 20
1366.461045725085
 30
0.0
 11
8276.157058567802
 21
1851.781644581593
 31
0.0
  0
LINE
  5
20B1B
330
747D
100
AcDbEntity
  8
細線
 48
50.0
100
AcDbLine
 10
7862.157058567802
 20
1707.189328213672
 30
0.0
 11
8020.557058567796
 21
1865.589328213667
 31
0.0
  0
LINE
  5
20B1C
330
747D
100
AcDbEntity
  8
細線
 48
50.0
100
AcDbLine
 10
7862.157058567802
 20
1653.307791487256
 30
0.0
 11
8035.31031280564
 21
1826.461045725084
 31
0.0
  0
LINE
  5
20B1D
330
747D
100
AcDbEntity
  8
細線
 48
50.0
100
AcDbLine
 10
7862.157058567802
 20
1680.248559850463
 30
0.0
 11
8020.557058567796
 21
1838.648559850452
 31
0.0
  0
LINE
  5
20B1E
330
747D
100
AcDbEntity
  8
部品1
100
AcDbLine
 10
8020.557058567797
 20
1826.461045725086
 30
0.0
 11
8020.557058567803
 21
2150.461045725085
 31
0.0
  0
LINE
  5
20B1F
330
747D
100
AcDbEntity
  8
部品1
100
AcDbLine
 10
8146.557058567804
 20
1826.461045725086
 30
0.0
 11
8146.557058567804
 21
2150.461045725085
 31
0.0
  0
LINE
  5
20B20
330
747D
100
AcDbEntity
  8
細線
 48
50.0
100
AcDbLine
 10
8146.557058567804
 20
1964.648559850457
 30
0.0
 11
8276.157058567802
 21
2094.248559850454
 31
0.0
  0
LINE
  5
20B21
330
747D
100
AcDbEntity
  8
細線
 48
50.0
100
AcDbLine
 10
8146.557058567804
 20
1937.707791487244
 30
0.0
 11
8276.157058567802
 21
2067.307791487236
 31
0.0
  0
LINE
  5
20B22
330
747D
100
AcDbEntity
  8
部品1
100
AcDbLine
 10
8074.557058567803
 20
1925.461045725085
 30
0.0
 11
8074.557058567799
 21
2199.621045725086
 31
0.0
  0
LINE
  5
20B23
330
747D
100
AcDbEntity
  8
部品1
100
AcDbLine
 10
8092.557058567804
 20
1925.461045725085
 30
0.0
 11
8092.5570585678
 21
2199.621045725086
 31
0.0
  0
TEXT
  5
20B24
330
747D
100
AcDbEntity
  8
部品1
 48
50.0
100
AcDbText
 10
7448.017156734846
 20
1921.700038008341
 30
0.0
 40
80.0
  1
▽G.L
  7
STYLE2
100
AcDbText
  0
LINE
  5
20B25
330
747D
100
AcDbEntity
  8
細線
 48
50.0
100
AcDbLine
 10
7862.157058567802
 20
1868.833938392916
 30
0.0
 11
8020.557058567801
 21
2027.233938392908
 31
0.0
  0
LINE
  5
20B26
330
747D
100
AcDbEntity
  8
細線
 48
50.0
100
AcDbLine
 10
7862.157058567802
 20
1895.774706756123
 30
0.0
 11
8020.557058567801
 21
2054.174706756121
 31
0.0
  0
LINE
  5
20B27
330
747D
100
AcDbEntity
  8
細線
 48
50.0
100
AcDbLine
 10
7862.157058567802
 20
1922.715475119331
 30
0.0
 11
8020.557058567801
 21
2081.115475119328
 31
0.0
  0
LINE
  5
20B28
330
747D
100
AcDbEntity
  8
部品1
 48
50.0
100
AcDbLine
 10
7862.157058567802
 20
1606.461045725086
 30
0.0
 11
7862.157058567802
 21
2150.461045725085
 31
0.0
  0
LINE
  5
20B29
330
747D
100
AcDbEntity
  8
部品1
100
AcDbLine
 10
8276.157058567802
 20
1606.461045725086
 30
0.0
 11
8276.157058567802
 21
2150.461045725085
 31
0.0
  0
LINE
  5
20B2A
330
747D
100
AcDbEntity
  8
細線
 48
50.0
100
AcDbLine
 10
8146.557058567804
 20
1991.589328213674
 30
0.0
 11
8276.157058567802
 21
2121.189328213672
 31
0.0
  0
LINE
  5
20B2B
330
747D
100
AcDbEntity
  8
細線
 48
50.0
100
AcDbLine
 10
6270.610167893079
 20
2031.207897621802
 30
0.0
 11
6354.11774539061
 21
2114.715475119331
 31
0.0
  0
LINE
  5
20B2C
330
747D
100
AcDbEntity
  8
細線
 48
50.0
100
AcDbLine
 10
6281.670452656595
 20
2015.327414022108
 30
0.0
 11
6354.11774539061
 21
2087.774706756123
 31
0.0
  0
LINE
  5
20B2D
330
747D
100
AcDbEntity
  8
細線
 48
50.0
100
AcDbLine
 10
6162.117745390609
 20
2138.241622024991
 30
0.0
 11
6174.337169090705
 21
2150.461045725085
 31
0.0
  0
LINE
  5
20B2E
330
747D
100
AcDbEntity
  8
細線
 48
50.0
100
AcDbLine
 10
6162.117745390609
 20
2084.360085298575
 30
0.0
 11
6228.218705817119
 21
2150.461045725085
 31
0.0
  0
LINE
  5
20B2F
330
747D
100
AcDbEntity
  8
細線
 48
50.0
100
AcDbLine
 10
6162.117745390609
 20
2111.300853661784
 30
0.0
 11
6201.277937453913
 21
2150.461045725085
 31
0.0
  0
LINE
  5
20B30
330
747D
100
AcDbEntity
  8
部品1
 48
50.0
100
AcDbLine
 10
6162.117745390609
 20
2150.461045725085
 30
0.0
 11
6354.11774539061
 21
2150.461045725085
 31
0.0
  0
DIMENSION
  5
20B31
330
747D
100
AcDbEntity
  8
寸法
 48
50.0
100
AcDbDimension
  2
*D23
 10
6162.117745390609
 20
2470.461045725086
 30
0.0
 11
6269.344075735806
 21
2570.128853641466
 31
0.0
 70
   160
  1
120\P170
 71
     5
 42
192.0
  3
INABA_S40G
100
AcDbAlignedDimension
 13
6354.117745390609
 23
2150.461045725085
 33
0.0
 14
6162.117745390609
 24
2150.461045725085
 34
0.0
100
AcDbRotatedDimension
1001
ACAD
1000
DSTYLE
1002
{
1070
   174
1070
     0
1070
   272
1070
     1
1070
   279
1070
     1
1070
   288
1070
     0
1070
   341
1005
0
1002
}
  0
MTEXT
  5
20B32
102
{ACAD_REACTORS
330
20B87
102
}
330
747D
100
AcDbEntity
  8
寸法
 62
     7
 48
50.0
100
AcDbMText
 10
6595.85620125186
 20
1189.111959992932
 30
0.0
 40
80.0
 41
0.8
 71
     4
 72
     1
  1
\A1;D10@300
  7
STYLE2
 73
     1
 44
1.0
1001
ACAD
1000
MTEXTBEGIN
1070
    73
1070
     1
1070
    44
1040
1.0
1070
    74
1070
     0
1000
MTEXTEND
  0
LINE
  5
20B33
330
747D
100
AcDbEntity
  8
細線
 48
50.0
100
AcDbLine
 10
6282.117745390615
 20
1800.248559850466
 30
0.0
 11
6354.117745390603
 21
1872.248559850461
 31
0.0
  0
LINE
  5
20B34
330
747D
100
AcDbEntity
  8
細線
 48
50.0
100
AcDbLine
 10
6282.11774539061
 20
1827.189328213671
 30
0.0
 11
6354.11774539061
 21
1899.189328213671
 31
0.0
  0
LINE
  5
20B35
330
747D
100
AcDbEntity
  8
細線
 48
50.0
100
AcDbLine
 10
6282.117745390615
 20
1557.781644581597
 30
0.0
 11
6354.117745390603
 21
1629.781644581597
 31
0.0
  0
LINE
  5
20B36
330
747D
100
AcDbEntity
  8
細線
 48
50.0
100
AcDbLine
 10
6282.117745390615
 20
1611.663181308015
 30
0.0
 11
6354.117745390603
 21
1683.663181308011
 31
0.0
  0
LINE
  5
20B37
330
747D
100
AcDbEntity
  8
細線
 48
50.0
100
AcDbLine
 10
6282.117745390615
 20
1584.722412944807
 30
0.0
 11
6354.117745390603
 21
1656.722412944801
 31
0.0
  0
LINE
  5
20B38
330
747D
100
AcDbEntity
  8
部品1
 48
50.0
100
AcDbLine
 10
6354.11774539061
 20
1606.461045725086
 30
0.0
 11
6482.117745390609
 21
1606.461045725086
 31
0.0
  0
LINE
  5
20B39
330
747D
100
AcDbEntity
  8
細線
 48
50.0
100
AcDbLine
 10
6282.117745390615
 20
1773.307791487257
 30
0.0
 11
6354.117745390603
 21
1845.307791487256
 31
0.0
  0
LINE
  5
20B3A
330
747D
100
AcDbEntity
  8
部品1
 48
50.0
100
AcDbLine
 10
6250.11774539061
 20
1952.588260422208
 30
0.0
 11
6250.11774539061
 21
2010.715475119331
 31
0.0
  0
LINE
  5
20B3B
330
747D
100
AcDbEntity
  8
細線
 48
50.0
100
AcDbLine
 10
6162.117745390609
 20
1922.715475119331
 30
0.0
 11
6234.117745390609
 21
1994.715475119331
 31
0.0
  0
LINE
  5
20B3C
330
747D
100
AcDbEntity
  8
部品1
 48
50.0
100
AcDbLine
 10
6234.117745390609
 20
1952.588260422211
 30
0.0
 11
6234.117745390609
 21
2010.715475119331
 31
0.0
  0
LINE
  5
20B3D
330
747D
100
AcDbEntity
  8
細線
 48
50.0
100
AcDbLine
 10
6162.117745390609
 20
1895.774706756123
 30
0.0
 11
6234.117745390609
 21
1967.774706756123
 31
0.0
  0
LINE
  5
20B3E
330
747D
100
AcDbEntity
  8
細線
 48
50.0
100
AcDbLine
 10
6162.117745390609
 20
1868.833938392916
 30
0.0
 11
6245.872067419902
 21
1952.588260422208
 31
0.0
  0
LINE
  5
20B3F
330
747D
100
AcDbEntity
  8
部品1
 48
50.0
100
AcDbLine
 10
6250.11774539061
 20
1952.588260422208
 30
0.0
 11
6234.117745390609
 21
1952.588260422211
 31
0.0
  0
LINE
  5
20B40
330
747D
100
AcDbEntity
  8
細線
 48
50.0
100
AcDbLine
 10
6034.117745390602
 20
1579.189328213671
 30
0.0
 11
6061.389462902024
 21
1606.461045725086
 31
0.0
  0
LINE
  5
20B41
330
747D
100
AcDbEntity
  8
細線
 48
50.0
100
AcDbLine
 10
6034.117745390602
 20
1552.248559850461
 30
0.0
 11
6088.330231265234
 21
1606.461045725086
 31
0.0
  0
LINE
  5
20B42
330
747D
100
AcDbEntity
  8
部品1
 48
50.0
100
AcDbLine
 10
6034.117745390609
 20
1606.461045725086
 30
0.0
 11
6162.117745390609
 21
1606.461045725086
 31
0.0
  0
LINE
  5
20B43
330
747D
100
AcDbEntity
  8
細線
 48
50.0
100
AcDbLine
 10
6250.11774539061
 20
1983.774706756123
 30
0.0
 11
6266.117745390609
 21
1999.774706756123
 31
0.0
  0
LINE
  5
20B44
330
747D
100
AcDbEntity
  8
細線
 48
50.0
100
AcDbLine
 10
6250.11774539061
 20
1956.833938392916
 30
0.0
 11
6266.117745390609
 21
1972.833938392916
 31
0.0
  0
LINE
  5
20B45
330
747D
100
AcDbEntity
  8
細線
 48
50.0
100
AcDbLine
 10
6162.117745390609
 20
1653.307791487256
 30
0.0
 11
6266.117745390615
 21
1757.307791487257
 31
0.0
  0
LINE
  5
20B46
330
747D
100
AcDbEntity
  8
細線
 48
50.0
100
AcDbLine
 10
6162.117745390609
 20
1707.189328213672
 30
0.0
 11
6266.117745390609
 21
1811.189328213671
 31
0.0
  0
LINE
  5
20B47
330
747D
100
AcDbEntity
  8
細線
 48
50.0
100
AcDbLine
 10
6162.117745390609
 20
1680.248559850463
 30
0.0
 11
6266.117745390615
 21
1784.248559850466
 31
0.0
  0
LINE
  5
20B48
330
747D
100
AcDbEntity
  8
細線
 48
50.0
100
AcDbLine
 10
6424.943390793956
 20
1342.461045725085
 30
0.0
 11
6418.512610175611
 21
1366.461045725085
 31
0.0
  0
LINE
  5
20B49
330
747D
100
AcDbEntity
  8
細線
 48
50.0
100
AcDbLine
 10
6467.967903619002
 20
1366.461045725085
 30
0.0
 11
6482.117745390609
 21
1380.610887496692
 31
0.0
  0
LINE
  5
20B4A
330
747D
100
AcDbEntity
  8
細線
 48
50.0
100
AcDbLine
 10
6503.831435741203
 20
1342.461045725085
 30
0.0
 11
6497.400655122856
 21
1366.461045725085
 31
0.0
  0
LINE
  5
20B4B
330
747D
100
AcDbEntity
  8
部品1
 48
50.0
100
AcDbLine
 10
6426.11774539061
 20
1478.461045725086
 30
0.0
 11
6426.11774539061
 21
1462.461045725085
 31
0.0
  0
LINE
  5
20B4C
330
747D
100
AcDbEntity
  8
細線
 48
50.0
100
AcDbLine
 10
6306.323293439756
 20
1366.461045725085
 30
0.0
 11
6402.324181284893
 21
1462.461933570224
 31
0.0
  0
LINE
  5
20B4D
330
747D
100
AcDbEntity
  8
細線
 48
50.0
100
AcDbLine
 10
6279.382525076552
 20
1366.461045725085
 30
0.0
 11
6375.382525076553
 21
1462.461045725085
 31
0.0
  0
LINE
  5
20B4E
330
747D
100
AcDbEntity
  8
細線
 48
50.0
100
AcDbLine
 10
6346.055345846711
 20
1342.461045725085
 30
0.0
 11
6339.624565228366
 21
1366.461045725085
 31
0.0
  0
LINE
  5
20B4F
330
747D
100
AcDbEntity
  8
細線
 48
50.0
100
AcDbLine
 10
6267.167300899465
 20
1342.461045725085
 30
0.0
 11
6260.736520281118
 21
1366.461045725085
 31
0.0
  0
ARC
  5
20B50
330
747D
100
AcDbEntity
  8
部品1
 48
50.0
100
AcDbCircle
 10
6258.11774539061
 20
1486.461045725086
 30
0.0
 40
24.0
100
AcDbArc
 50
340.528779365498
 51
0.0
  0
CIRCLE
  5
20B51
330
747D
100
AcDbEntity
  8
部品1
 48
50.0
100
AcDbCircle
 10
6386.11774539061
 20
1486.461045725086
 30
0.0
 40
8.0
  0
LINE
  5
20B52
330
747D
100
AcDbEntity
  8
細線
 48
50.0
100
AcDbLine
 10
6418.323293439756
 20
1478.461045725086
 30
0.0
 11
6482.117745390609
 21
1542.255497675937
 31
0.0
  0
LINE
  5
20B53
330
747D
100
AcDbEntity
  8
細線
 48
50.0
100
AcDbLine
 10
6554.852764675612
 20
1238.461045725084
 30
0.0
 11
6562.11774539061
 21
1265.574322869474
 31
0.0
  0
LINE
  5
20B54
330
747D
100
AcDbEntity
  8
細線
 48
50.0
100
AcDbLine
 10
6561.283545293962
 20
1262.461045725085
 30
0.0
 11
6562.11774539061
 21
1259.347768580721
 31
0.0
  0
LINE
  5
20B55
330
747D
100
AcDbEntity
  8
細線
 48
50.0
100
AcDbLine
 10
6482.395500346715
 20
1262.461045725085
 30
0.0
 11
6488.826280965063
 21
1238.461045725085
 31
0.0
  0
LINE
  5
20B56
330
747D
100
AcDbEntity
  8
細線
 48
50.0
100
AcDbLine
 10
6324.619410452221
 20
1262.461045725085
 30
0.0
 11
6331.050191070568
 21
1238.461045725085
 31
0.0
  0
LINE
  5
20B57
330
747D
100
AcDbEntity
  8
細線
 48
50.0
100
AcDbLine
 10
6403.507455399467
 20
1262.461045725085
 30
0.0
 11
6409.938236017815
 21
1238.461045725085
 31
0.0
  0
LINE
  5
20B58
330
747D
100
AcDbEntity
  8
細線
 48
50.0
100
AcDbLine
 10
6397.076674781118
 20
1238.461045725084
 30
0.0
 11
6431.374171412302
 21
1366.461045725084
 31
0.0
  0
LINE
  5
20B59
330
747D
100
AcDbEntity
  8
細線
 48
50.0
100
AcDbLine
 10
6318.188629833869
 20
1238.461045725085
 30
0.0
 11
6352.486126465056
 21
1366.461045725084
 31
0.0
  0
LINE
  5
20B5A
330
747D
100
AcDbEntity
  8
細線
 48
50.0
100
AcDbLine
 10
6475.964719728363
 20
1238.461045725085
 30
0.0
 11
6510.262216359548
 21
1366.461045725084
 31
0.0
  0
LINE
  5
20B5B
330
747D
100
AcDbEntity
  8
部品1
 48
50.0
100
AcDbLine
 10
6562.117745390612
 20
1366.461045725085
 30
0.0
 11
6562.117745390612
 21
1238.461045725085
 31
0.0
  0
LINE
  5
20B5C
330
747D
100
AcDbEntity
  8
部品1
 48
50.0
100
AcDbLine
 10
6250.11774539061
 20
1544.588260422208
 30
0.0
 11
6250.11774539061
 21
1486.461045725086
 31
0.0
  0
LINE
  5
20B5D
330
747D
100
AcDbEntity
  8
細線
 48
50.0
100
AcDbLine
 10
6175.856378170893
 20
1478.461045725086
 30
0.0
 11
6234.117745390609
 21
1536.722412944804
 31
0.0
  0
LINE
  5
20B5E
330
747D
100
AcDbEntity
  8
部品1
 48
50.0
100
AcDbLine
 10
6234.117745390609
 20
1544.588260422208
 30
0.0
 11
6234.117745390609
 21
1486.461045725086
 31
0.0
  0
LINE
  5
20B5F
330
747D
100
AcDbEntity
  8
細線
 48
50.0
100
AcDbLine
 10
6090.797146534097
 20
1366.461045725085
 30
0.0
 11
6186.797146534098
 21
1462.461045725085
 31
0.0
  0
LINE
  5
20B60
330
747D
100
AcDbEntity
  8
細線
 48
50.0
100
AcDbLine
 10
6188.279255952213
 20
1342.461045725085
 30
0.0
 11
6181.848475333867
 21
1366.461045725085
 31
0.0
  0
LINE
  5
20B61
330
747D
100
AcDbEntity
  8
細線
 48
50.0
100
AcDbLine
 10
6109.391211004961
 20
1342.461045725085
 30
0.0
 11
6102.960430386614
 21
1366.461045725085
 31
0.0
  0
ARC
  5
20B62
330
747D
100
AcDbEntity
  8
部品1
 48
50.0
100
AcDbCircle
 10
6258.11774539061
 20
1486.461045725086
 30
0.0
 40
24.0
100
AcDbArc
 50
180.0
 51
199.471220634502
  0
LINE
  5
20B63
330
747D
100
AcDbEntity
  8
細線
 48
50.0
100
AcDbLine
 10
6202.797146534098
 20
1478.461045725086
 30
0.0
 11
6234.117745390609
 21
1509.781644581597
 31
0.0
  0
CIRCLE
  5
20B64
330
747D
100
AcDbEntity
  8
部品1
 48
50.0
100
AcDbCircle
 10
6130.117745390609
 20
1486.461045725086
 30
0.0
 40
8.0
  0
LINE
  5
20B65
330
747D
100
AcDbEntity
  8
部品1
 48
50.0
100
AcDbLine
 10
6250.11774539061
 20
1544.588260422208
 30
0.0
 11
6234.117745390609
 21
1544.588260422208
 31
0.0
  0
LINE
  5
20B66
330
747D
100
AcDbEntity
  8
細線
 48
50.0
100
AcDbLine
 10
5954.117745390609
 20
1351.800966690865
 30
0.0
 11
5958.045901728805
 21
1366.461045725085
 31
0.0
  0
LINE
  5
20B67
330
747D
100
AcDbEntity
  8
細線
 48
50.0
100
AcDbLine
 10
6030.50316605771
 20
1342.461045725085
 30
0.0
 11
6024.072385439362
 21
1366.461045725085
 31
0.0
  0
LINE
  5
20B68
330
747D
100
AcDbEntity
  8
部品1
 48
50.0
100
AcDbLine
 10
6090.117745390609
 20
1478.461045725086
 30
0.0
 11
6090.117745390609
 21
1462.461045725085
 31
0.0
  0
LINE
  5
20B69
330
747D
100
AcDbEntity
  8
細線
 48
50.0
100
AcDbLine
 10
6036.915609807682
 20
1366.461045725085
 30
0.0
 11
6132.915609807682
 21
1462.461045725085
 31
0.0
  0
LINE
  5
20B6A
330
747D
100
AcDbEntity
  8
細線
 48
50.0
100
AcDbLine
 10
6063.856378170893
 20
1366.461045725085
 30
0.0
 11
6159.856378170893
 21
1462.461045725085
 31
0.0
  0
LINE
  5
20B6B
330
747D
100
AcDbEntity
  8
細線
 48
50.0
100
AcDbLine
 10
6166.843320557724
 20
1262.461045725085
 30
0.0
 11
6173.27410117607
 21
1238.461045725085
 31
0.0
  0
LINE
  5
20B6C
330
747D
100
AcDbEntity
  8
細線
 48
50.0
100
AcDbLine
 10
6245.731365504976
 20
1262.461045725085
 30
0.0
 11
6252.162146123323
 21
1238.461045725085
 31
0.0
  0
LINE
  5
20B6D
330
747D
100
AcDbEntity
  8
細線
 48
50.0
100
AcDbLine
 10
6009.06723066322
 20
1262.461045725085
 30
0.0
 11
6015.498011281566
 21
1238.461045725085
 31
0.0
  0
LINE
  5
20B6E
330
747D
100
AcDbEntity
  8
細線
 48
50.0
100
AcDbLine
 10
6087.955275610472
 20
1262.461045725085
 30
0.0
 11
6094.386056228819
 21
1238.461045725085
 31
0.0
  0
LINE
  5
20B6F
330
747D
100
AcDbEntity
  8
部品1
 48
50.0
100
AcDbLine
 10
5954.117745390611
 20
1238.461045725085
 30
0.0
 11
5954.117745390611
 21
1366.461045725085
 31
0.0
  0
LINE
  5
20B70
330
747D
100
AcDbEntity
  8
細線
 48
50.0
100
AcDbLine
 10
6002.636450044867
 20
1238.461045725084
 30
0.0
 11
6036.93394667605
 21
1366.461045725084
 31
0.0
  0
LINE
  5
20B71
330
747D
100
AcDbEntity
  8
細線
 48
50.0
100
AcDbLine
 10
6160.412539939371
 20
1238.461045725084
 30
0.0
 11
6194.710036570554
 21
1366.461045725084
 31
0.0
  0
LINE
  5
20B72
330
747D
100
AcDbEntity
  8
細線
 48
50.0
100
AcDbLine
 10
6081.524494992125
 20
1238.461045725085
 30
0.0
 11
6115.821991623309
 21
1366.461045725085
 31
0.0
  0
LINE
  5
20B73
330
747D
100
AcDbEntity
  8
細線
 48
50.0
100
AcDbLine
 10
6252.441756713342
 20
1366.461045725085
 30
0.0
 11
6348.441756713342
 21
1462.461045725085
 31
0.0
  0
CIRCLE
  5
20B74
330
747D
100
AcDbEntity
  8
部品1
 48
50.0
100
AcDbCircle
 10
6258.11774539061
 20
1486.461045725086
 30
0.0
 40
8.0
  0
LINE
  5
20B75
330
747D
100
AcDbEntity
  8
部品1
 48
50.0
100
AcDbLine
 10
6562.117745390612
 20
1366.461045725085
 30
0.0
 11
5954.117745390611
 21
1366.461045725085
 31
0.0
  0
LINE
  5
20B76
330
747D
100
AcDbEntity
  8
部品1
 48
50.0
100
AcDbLine
 10
6090.117745390609
 20
1478.461045725086
 30
0.0
 11
6426.11774539061
 21
1478.461045725086
 31
0.0
  0
LINE
  5
20B77
330
747D
100
AcDbEntity
  8
部品1
 48
50.0
100
AcDbLine
 10
6090.117745390609
 20
1462.461045725085
 30
0.0
 11
6426.11774539061
 21
1462.461045725085
 31
0.0
  0
LINE
  5
20B78
330
747D
100
AcDbEntity
  8
部品1
 48
50.0
100
AcDbLine
 10
6562.117745390612
 20
1238.461045725085
 30
0.0
 11
5954.117745390611
 21
1238.461045725085
 31
0.0
  0
LINE
  5
20B79
330
747D
100
AcDbEntity
  8
細線
 48
50.0
100
AcDbLine
 10
6239.300584886623
 20
1238.461045725085
 30
0.0
 11
6273.598081517807
 21
1366.461045725085
 31
0.0
  0
LINE
  5
20B7A
330
747D
100
AcDbEntity
  8
細線
 48
50.0
100
AcDbLine
 10
6250.11774539061
 20
1525.781644581597
 30
0.0
 11
6266.117745390615
 21
1541.781644581597
 31
0.0
  0
LINE
  5
20B7B
330
747D
100
AcDbEntity
  8
部品1
 48
50.0
100
AcDbLine
 10
6266.117745390615
 20
1486.461045725086
 30
0.0
 11
6266.117745390602
 21
2010.715475119331
 31
0.0
  0
LINE
  5
20B7C
330
747D
100
AcDbEntity
  8
部品1
 48
50.0
100
AcDbLine
 10
6282.117745390615
 20
1486.461045725086
 30
0.0
 11
6282.11774539061
 21
2010.715475119331
 31
0.0
  0
LINE
  5
20B7D
330
747D
100
AcDbEntity
  8
部品1
 48
50.0
100
AcDbLine
 10
6482.117745390609
 20
1606.461045725086
 30
0.0
 11
6482.117745390609
 21
1366.461045725085
 31
0.0
  0
LINE
  5
20B7E
330
747D
100
AcDbEntity
  8
細線
 48
50.0
100
AcDbLine
 10
6364.441756713336
 20
1478.461045725086
 30
0.0
 11
6482.117745390609
 21
1596.137034402351
 31
0.0
  0
LINE
  5
20B7F
330
747D
100
AcDbEntity
  8
細線
 48
50.0
100
AcDbLine
 10
6391.382525076553
 20
1478.461045725086
 30
0.0
 11
6482.117745390609
 21
1569.196266039145
 31
0.0
  0
LINE
  5
20B80
330
747D
100
AcDbEntity
  8
部品1
 48
50.0
100
AcDbLine
 10
6034.117745390609
 20
1366.461045725085
 30
0.0
 11
6034.117745390609
 21
1606.461045725086
 31
0.0
  0
LINE
  5
20B81
330
747D
100
AcDbEntity
  8
細線
 48
50.0
100
AcDbLine
 10
6148.915609807682
 20
1478.461045725086
 30
0.0
 11
6266.117745390609
 21
1595.663181308011
 31
0.0
  0
LINE
  5
20B82
330
747D
100
AcDbEntity
  8
細線
 48
50.0
100
AcDbLine
 10
6241.983592868013
 20
1544.588260422208
 30
0.0
 11
6266.117745390615
 21
1568.722412944807
 31
0.0
  0
LINE
  5
20B83
330
747D
100
AcDbEntity
  8
細線
 48
50.0
100
AcDbLine
 10
6034.117745390602
 20
1525.307791487256
 30
0.0
 11
6115.270999628438
 21
1606.461045725086
 31
0.0
  0
LEADER
  5
20B84
330
747D
100
AcDbEntity
  8
寸法
 48
50.0
100
AcDbLeader
  3
INABA_S40G
 71
     0
 73
     0
 74
     0
 75
     1
 40
100.0
 41
222.7272727272727
 76
     3
 10
6258.117745390609
 20
2010.715475119331
 30
0.0
 10
6317.003682418004
 20
1951.728607024013
 30
0.0
 10
6417.003682418003
 20
1951.728607024013
 30
0.0
1001
ACAD
1000
DSTYLE
1002
{
1070
   174
1070
     0
1070
   272
1070
     1
1070
   279
1070
     1
1070
   288
1070
     0
1070
   341
1005
0
1002
}
  0
LWPOLYLINE
  5
20B85
330
747D
100
AcDbEntity
  8
部品1
 48
50.0
100
AcDbPolyline
 90
        2
 70
     0
 43
8.0
 10
6354.117745390609
 20
1910.461045725086
 10
6768.257647223567
 20
1910.461045725086
  0
MTEXT
  5
20B86
102
{ACAD_REACTORS
330
20B88
102
}
330
747D
100
AcDbEntity
  8
寸法
 62
     7
 48
50.0
100
AcDbMText
 10
6585.445405197294
 20
1451.063976782113
 30
0.0
 40
80.0
 41
0.8
 71
     4
 72
     1
  1
D10
  7
STYLE2
 73
     1
 44
1.0
1001
ACAD
1000
MTEXTBEGIN
1070
    73
1070
     1
1070
    44
1040
1.0
1070
    74
1070
     0
1000
MTEXTEND
  0
LEADER
  5
20B87
330
747D
100
AcDbEntity
  8
寸法
 48
50.0
100
AcDbLeader
  3
INABA_S40G
 71
     0
 73
     0
 74
     0
 75
     1
 40
100.0
 41
540.3409090909091
 76
     3
 10
6332.062914403783
 20
1469.72051531156
 30
0.0
 10
6475.856201251859
 20
1128.089697316663
 30
0.0
 10
6575.856201251859
 20
1128.089697316663
 30
0.0
213
0.0
223
-1.022262676269383
233
0.0
1001
ACAD
1000
DSTYLE
1002
{
1070
   174
1070
     0
1070
   272
1070
     1
1070
   279
1070
     1
1070
   288
1070
     0
1070
   341
1005
0
1002
}
  0
LEADER
  5
20B88
330
747D
100
AcDbEntity
  8
寸法
 48
50.0
100
AcDbLeader
  3
INABA_S40G
 71
     0
 73
     0
 74
     0
 75
     1
 40
100.0
 41
225.0
 76
     3
 10
6386.020697742751
 20
1486.461045725086
 30
0.0
 10
6465.445405197293
 20
1391.063976782113
 30
0.0
 10
6565.445405197293
 20
1391.063976782113
 30
0.0
1001
ACAD
1000
DSTYLE
1002
{
1070
   174
1070
     0
1070
   272
1070
     1
1070
   279
1070
     1
1070
   288
1070
     0
1070
   341
1005
0
1002
}
  0
MTEXT
  5
20B89
102
{ACAD_REACTORS
330
20B84
102
}
330
747D
100
AcDbEntity
  8
寸法
 62
     7
 48
50.0
100
AcDbMText
 10
6437.003682418003
 20
2011.728607024013
 30
0.0
 40
80.0
 41
0.8
 71
     4
 72
     1
  1
D13
  7
STYLE2
 73
     1
 44
1.0
1001
ACAD
1000
MTEXTBEGIN
1070
    73
1070
     1
1070
    44
1040
1.0
1070
    74
1070
     0
1000
MTEXTEND
  0
LINE
  5
20B8A
330
747D
100
AcDbEntity
  8
部品1
 48
50.0
100
AcDbLine
 10
6354.11774539061
 20
2150.461045725085
 30
0.0
 11
6354.11774539061
 21
1606.461045725086
 31
0.0
  0
LINE
  5
20B8B
330
747D
100
AcDbEntity
  8
部品1
 48
50.0
100
AcDbLine
 10
6162.117745390609
 20
1606.461045725086
 30
0.0
 11
6162.117745390609
 21
2150.461045725085
 31
0.0
  0
CIRCLE
  5
20B8C
330
747D
100
AcDbEntity
  8
部品1
 48
50.0
100
AcDbCircle
 10
6258.11774539061
 20
2010.715475119331
 30
0.0
 40
8.0
  0
ARC
  5
20B8D
330
747D
100
AcDbEntity
  8
部品1
 48
50.0
100
AcDbCircle
 10
6258.11774539061
 20
2010.715475119331
 30
0.0
 40
24.0
100
AcDbArc
 50
0.0
 51
180.0
  0
LINE
  5
20B8E
330
747D
100
AcDbEntity
  8
細線
 48
50.0
100
AcDbLine
 10
6282.11774539061
 20
1988.833938392916
 30
0.0
 11
6354.11774539061
 21
2060.833938392916
 31
0.0
  0
LEADER
  5
20B8F
330
747D
100
AcDbEntity
  8
寸法
 48
50.0
100
AcDbLeader
  3
INABA_S40G
 73
     0
 75
     1
 40
106.3636363636363
 41
903.5235024184547
 76
     3
 10
7993.557058567802
 20
2220.021045725087
 30
0.0
 10
7935.132986222864
 20
2579.080620441419
 30
0.0
 10
7835.132986222864
 20
2579.080620441419
 30
0.0
340
20B90
1001
ACAD
1000
DSTYLE
1002
{
1070
   174
1070
     0
1070
   272
1070
     1
1070
   279
1070
     1
1070
   288
1070
     0
1070
   341
1005
0
1002
}
  0
MTEXT
  5
20B90
102
{ACAD_REACTORS
330
20B8F
102
}
330
747D
100
AcDbEntity
  8
寸法
 62
     7
 48
50.0
100
AcDbMText
 10
7795.132986222864
 20
2672.262438623238
 30
0.0
 40
80.0
 41
0.8
 71
     6
 72
     1
  1
アンカープレート {\fArial|b0|i0|c0|p32;U}
  7
STYLE2
 73
     1
 44
1.0
1001
ACAD
1000
MTEXTBEGIN
1070
    73
1070
     1
1070
    44
1040
1.0
1070
    74
1070
     0
1000
MTEXTEND
  0
DIMENSION
  5
20B91
330
747D
100
AcDbEntity
  8
寸法
 48
50.0
100
AcDbDimension
  2
*D24
 10
6482.117745390609
 20
828.0314077199255
 30
0.0
 11
6238.020986712385
 21
828.0314077199255
 31
0.0
 70
   160
  1
300
 71
     5
 42
448.0
  3
INABA_S40G
100
AcDbAlignedDimension
 13
6034.117745390608
 23
1238.461045725085
 33
0.0
 14
6482.117745390609
 24
1238.461045725085
 34
0.0
100
AcDbRotatedDimension
1001
ACAD
1000
DSTYLE
1002
{
1070
   174
1070
     0
1070
   272
1070
     1
1070
   279
1070
     1
1070
   288
1070
     0
1070
   341
1005
0
1002
}
  0
MTEXT
  5
20B92
102
{ACAD_REACTORS
330
20B9A
102
}
330
747D
100
AcDbEntity
  8
寸法
 62
     7
 48
50.0
100
AcDbMText
 10
5863.182719195414
 20
1282.938352106649
 30
0.0
 40
80.0
 41
0.8
 71
     6
 72
     1
  1
D10
  7
STYLE2
 73
     1
 44
1.0
1001
ACAD
1000
MTEXTBEGIN
1070
    73
1070
     1
1070
    44
1040
1.0
1070
    74
1070
     0
1000
MTEXTEND
  0
MTEXT
  5
20B93
102
{ACAD_REACTORS
330
20B99
102
}
330
747D
100
AcDbEntity
  8
寸法
 62
     7
 48
50.0
100
AcDbMText
 10
5891.305446752848
 20
1102.622199567206
 30
0.0
 40
80.0
 41
0.8
 71
     6
 72
     1
  1
D13
  7
STYLE2
 73
     1
 44
1.0
1001
ACAD
1000
MTEXTBEGIN
1070
    73
1070
     1
1070
    44
1040
1.0
1070
    74
1070
     0
1000
MTEXTEND
  0
DIMENSION
  5
20B94
330
747D
100
AcDbEntity
  8
寸法
 48
50.0
100
AcDbDimension
  2
*D25
 10
5427.080506828868
 20
1366.461045725086
 30
0.0
 11
5427.080506828868
 21
1738.001195381086
 31
0.0
 70
   160
  1
540
 71
     5
 42
784.0
  3
INABA_S40G
100
AcDbAlignedDimension
 13
6162.117745390609
 23
2150.461045725085
 33
0.0
 14
5954.117745390612
 24
1366.461045725085
 34
0.0
 50
90.0
100
AcDbRotatedDimension
1001
ACAD
1000
DSTYLE
1002
{
1070
   174
1070
     0
1070
   272
1070
     1
1070
   279
1070
     1
1070
   288
1070
     0
1070
   341
1005
0
1002
}
  0
MTEXT
  5
20B95
102
{ACAD_REACTORS
330
20B96
102
}
330
747D
100
AcDbEntity
  8
寸法
 62
     7
 48
50.0
100
AcDbMText
 10
5942.019265907336
 20
2362.977265727128
 30
0.0
 40
80.0
 41
0.8
 71
     6
 72
     1
  1
\A1;金コテ押エ
  7
STYLE2
 73
     1
 44
1.0
1001
ACAD
1000
MTEXTBEGIN
1070
    73
1070
     1
1070
    44
1040
1.0
1070
    74
1070
     0
1000
MTEXTEND
  0
LEADER
  5
20B96
330
747D
100
AcDbEntity
  8
寸法
 48
50.0
100
AcDbLeader
  3
INABA_S40G
 71
     0
 73
     0
 75
     1
 40
130.1136363636363
 41
651.1363636363636
 76
     3
 10
6242.117745390608
 20
2150.461045725085
 30
0.0
 10
6104.693165226592
 20
2290.931811181674
 30
0.0
 10
6004.693165226592
 20
2290.931811181674
 30
0.0
1001
ACAD
1000
DSTYLE
1002
{
1070
   174
1070
     0
1070
   272
1070
     1
1070
   279
1070
     1
1070
   288
1070
     0
1070
   341
1005
0
1002
}
  0
LEADER
  5
20B97
330
747D
100
AcDbEntity
  8
寸法
 48
50.0
100
AcDbLeader
  3
INABA_S40G
 71
     0
 73
     0
 75
     1
 40
100.0
 41
540.3409090909091
 76
     3
 10
6266.117745390609
 20
1908.588260422209
 30
0.0
 10
6183.13550886191
 20
1687.117931881404
 30
0.0
 10
6083.135508861911
 20
1687.117931881404
 30
0.0
213
-9.732182305893367
223
-4.643716661138569
233
0.0
1001
ACAD
1000
DSTYLE
1002
{
1070
   174
1070
     0
1070
   272
1070
     1
1070
   279
1070
     1
1070
   288
1070
     0
1070
   341
1005
0
1002
}
  0
MTEXT
  5
20B98
102
{ACAD_REACTORS
330
20B97
102
}
330
747D
100
AcDbEntity
  8
寸法
 62
     7
 48
50.0
100
AcDbMText
 10
6072.867691167804
 20
1751.761648542542
 30
0.0
 40
80.0
 41
0.8
 71
     6
 72
     1
  1
\A1;D10@300
  7
STYLE2
 73
     1
 44
1.0
1001
ACAD
1000
MTEXTBEGIN
1070
    73
1070
     1
1070
    44
1040
1.0
1070
    74
1070
     0
1000
MTEXTEND
  0
LEADER
  5
20B99
330
747D
100
AcDbEntity
  8
寸法
 48
50.0
100
AcDbLeader
  3
INABA_S40G
 71
     0
 73
     0
 75
     1
 40
100.0
 41
222.7272727272727
 76
     3
 10
6258.117745390609
 20
1486.461045725086
 30
0.0
 10
6011.305446752849
 20
1042.622199567206
 30
0.0
 10
5911.305446752849
 20
1042.622199567206
 30
0.0
1001
ACAD
1000
DSTYLE
1002
{
1070
   174
1070
     0
1070
   272
1070
     1
1070
   279
1070
     1
1070
   288
1070
     0
1070
   341
1005
0
1002
}
  0
LEADER
  5
20B9A
330
747D
100
AcDbEntity
  8
寸法
 48
50.0
100
AcDbLeader
  3
INABA_S40G
 71
     0
 73
     0
 75
     1
 40
100.0
 41
225.0
 76
     3
 10
6130.020697742751
 20
1486.461045725086
 30
0.0
 10
5983.182719195415
 20
1222.938352106649
 30
0.0
 10
5883.182719195414
 20
1222.938352106649
 30
0.0
1001
ACAD
1000
DSTYLE
1002
{
1070
   174
1070
     0
1070
   272
1070
     1
1070
   279
1070
     1
1070
   288
1070
     0
1070
   341
1005
0
1002
}
  0
DIMENSION
  5
20B9B
330
747D
100
AcDbEntity
  8
寸法
 48
50.0
100
AcDbDimension
  2
*D26
 10
5891.697431658149
 20
1366.461045725085
 30
0.0
 11
5891.697431658149
 21
1486.461045725086
 31
0.0
 70
   160
  1
150
 71
     5
 42
240.0
  3
INABA_S40G
100
AcDbAlignedDimension
 13
6034.117745390608
 23
1606.461045725086
 33
0.0
 14
5954.117745390612
 24
1366.461045725085
 34
0.0
 50
90.0
100
AcDbRotatedDimension
1001
ACAD
1000
DSTYLE
1002
{
1070
   174
1070
     0
1070
   272
1070
     1
1070
   279
1070
     1
1070
   288
1070
     0
1070
   341
1005
0
1002
}
  0
TEXT
  5
20B9C
330
747D
100
AcDbEntity
  8
部品1
 48
50.0
100
AcDbText
 10
5747.977843557652
 20
1921.700038008341
 30
0.0
 40
80.0
  1
▽G.L
  7
STYLE2
100
AcDbText
  0
LWPOLYLINE
  5
20B9D
330
747D
100
AcDbEntity
  8
部品1
 48
50.0
100
AcDbPolyline
 90
        2
 70
     0
 43
8.0
 10
5747.977843557652
 20
1910.461045725086
 10
6162.117745390609
 20
1910.461045725086
  0
MTEXT
  5
20B9E
102
{ACAD_REACTORS
330
20B9F
102
}
330
747D
100
AcDbEntity
  8
寸法
 62
     7
 48
50.0
100
AcDbMText
 10
7768.489980014504
 20
3032.946710530751
 30
0.0
 40
80.0
 41
0.8
 71
     6
 72
     1
  1
\A1;φ70スリーブ
  7
STYLE2
 73
     1
 44
1.0
1001
ACAD
1000
MTEXTBEGIN
1070
    73
1070
     1
1070
    44
1040
1.0
1070
    74
1070
     0
1000
MTEXTEND
  0
LEADER
  5
20B9F
330
747D
100
AcDbEntity
  8
寸法
 48
50.0
100
AcDbLeader
  3
INABA_S40G
 73
     0
 75
     1
 40
113.1818181818182
 41
608.6363636363635
 76
     3
 10
8052.293808705853
 20
2099.976719083365
 30
0.0
 10
7908.489980014505
 20
2936.355801439842
 30
0.0
 10
7808.489980014505
 20
2936.355801439842
 30
0.0
340
20B9E
1001
ACAD
1000
DSTYLE
1002
{
1070
   174
1070
     0
1070
   272
1070
     1
1070
   279
1070
     1
1070
   288
1070
     0
1070
   341
1005
0
1002
}
  0
LINE
  5
20BA0
330
747D
100
AcDbEntity
  8
部品1
100
AcDbLine
 10
5091.449306581345
 20
3471.432665501931
 30
0.0
 11
5091.449306581347
 21
507.1256959172833
 31
0.0
  0
LEADER
  5
20BA1
330
747D
100
AcDbEntity
  8
寸法
 48
50.0
100
AcDbLeader
  3
INABA_S40G
 73
     0
 74
     0
 75
     1
 40
80.0
 41
435.0
 76
     3
 10
8092.557058567804
 20
2199.621045725086
 30
0.0
 10
8145.101520987122
 20
2334.844371878316
 30
0.0
 10
8245.101520987121
 20
2334.844371878316
 30
0.0
340
20BA2
1001
ACAD
1000
DSTYLE
1002
{
1070
   174
1070
     0
1070
   272
1070
     1
1070
   279
1070
     1
1070
   288
1070
     0
1070
   341
1005
0
1002
}
  0
MTEXT
  5
20BA2
102
{ACAD_REACTORS
330
20BA1
102
}
330
747D
100
AcDbEntity
  8
部品1
 62
     7
 48
50.0
100
AcDbMText
 10
8285.101520987122
 20
2414.844371878316
 30
0.0
 40
80.0
 41
0.8
 71
     4
 72
     1
  1
M10X160
  7
STYLE2
 73
     1
 44
1.0
1001
ACAD
1000
MTEXTBEGIN
1070
    73
1070
     1
1070
    44
1040
1.0
1070
    74
1070
     0
1000
MTEXTEND
  0
DIMENSION
  5
20BA3
330
747D
100
AcDbEntity
  8
寸法
 48
50.0
100
AcDbDimension
  2
*D27
 10
8778.025658336646
 20
2150.461045725085
 30
0.0
 11
9054.080324455673
 21
2125.337088120874
 31
0.0
 70
   160
  1
20～25
 71
     5
 42
52.76000000000113
  3
INABA_S40G
100
AcDbAlignedDimension
 13
8088.957058567803
 23
2203.221045725086
 33
0.0
 14
8276.157058567802
 24
2150.461045725085
 34
0.0
 50
90.0
100
AcDbRotatedDimension
1001
ACAD
1000
DSTYLE
1002
{
1070
   174
1070
     0
1070
   272
1070
     1
1070
   279
1070
     1
1070
   288
1070
     0
1070
   341
1005
0
1002
}
  0
DIMENSION
  5
20BA4
330
747D
100
AcDbEntity
  8
寸法
 48
50.0
100
AcDbDimension
  2
*D28
 10
8778.025658336646
 20
1826.461045725084
 30
0.0
 11
8678.025658336647
 21
1988.461045725086
 31
0.0
 70
    32
  1
180
 71
     5
 42
324.0000000000009
  3
INABA_S40G
100
AcDbAlignedDimension
 13
8276.157058567802
 23
2150.461045725085
 33
0.0
 14
8276.157058567802
 24
1826.461045725084
 34
0.0
 50
90.0
100
AcDbRotatedDimension
1001
ACAD
1000
DSTYLE
1002
{
1070
   174
1070
     0
1070
   272
1070
     1
1070
   279
1070
     1
1070
   288
1070
     0
1070
   341
1005
0
1002
}
  0
TEXT
  5
20BA5
330
747D
100
AcDbEntity
  8
部品1
 48
50.0
100
AcDbText
 10
8280.510642852231
 20
2506.339726487286
 30
0.0
 40
80.0
  1
基礎ボルト(市販品)
  7
STYLE2
100
AcDbText
  0
LWPOLYLINE
  5
20BA6
330
747D
100
AcDbEntity
  8
部品1
 48
50.0
100
AcDbPolyline
 90
        2
 70
     0
 43
8.0
 10
8276.157058567802
 20
1910.461045725086
 10
8569.859521967186
 20
1910.461045725086
  0
MTEXT
  5
20BA7
102
{ACAD_REACTORS
330
20BA8
102
}
330
747D
100
AcDbEntity
  8
部品1
 62
     7
 48
50.0
100
AcDbMText
 10
8315.428648936643
 20
2850.956418812346
 30
0.0
 40
80.0
 41
0.8
 71
     4
 72
     1
  1
\A1;ワッシャー(市販品)
  7
STYLE2
 73
     1
 44
1.0
1001
ACAD
1000
MTEXTBEGIN
1070
    73
1070
     1
1070
    44
1040
1.0
1070
    74
1070
     0
1000
MTEXTEND
  0
LEADER
  5
20BA8
330
747D
100
AcDbEntity
  8
寸法
 48
50.0
100
AcDbLeader
  3
INABA_S40G
 73
     0
 74
     0
 75
     1
 40
102.2727272727273
 41
906.8181818181818
 76
     3
 10
8123.557058567802
 20
2419.584334169365
 30
0.0
 10
8175.428648936643
 20
2759.820055175982
 30
0.0
 10
8275.428648936642
 20
2759.820055175982
 30
0.0
340
20BA7
1001
ACAD
1000
DSTYLE
1002
{
1070
   174
1070
     0
1070
   272
1070
     1
1070
   279
1070
     1
1070
   288
1070
     0
1070
   341
1005
0
1002
}
  0
MTEXT
  5
20BA9
102
{ACAD_REACTORS
330
20BAA
102
}
330
747D
100
AcDbEntity
  8
部品1
 62
     7
 48
50.0
100
AcDbMText
 10
8283.91102968116
 20
3035.925501577133
 30
0.0
 40
80.0
 41
0.8
 71
     4
 72
     1
  1
\A1;ナット(市販品)
  7
STYLE2
 73
     1
 44
1.0
1001
ACAD
1000
MTEXTBEGIN
1070
    73
1070
     1
1070
    44
1040
1.0
1070
    74
1070
     0
1000
MTEXTEND
  0
LEADER
  5
20BAA
330
747D
100
AcDbEntity
  8
寸法
 48
50.0
100
AcDbLeader
  3
INABA_S40G
 73
     0
 74
     0
 75
     1
 40
102.2727272727273
 41
680.0000000000001
 76
     3
 10
8099.557058567802
 20
2549.336326834228
 30
0.0
 10
8143.911029681159
 20
2944.78913794077
 30
0.0
 10
8243.911029681159
 20
2944.78913794077
 30
0.0
340
20BA9
1001
ACAD
1000
DSTYLE
1002
{
1070
   174
1070
     0
1070
   272
1070
     1
1070
   279
1070
     1
1070
   288
1070
     0
1070
   341
1005
0
1002
}
  0
LINE
  5
20BAB
330
747D
100
AcDbEntity
  8
部品1
100
AcDbLine
 10
5091.449306581349
 20
507.1256959172833
 30
0.0
 11
11162.43449196759
 21
507.1256959172833
 31
0.0
  0
LINE
  5
20BAC
330
747D
100
AcDbEntity
  8
部品1
100
AcDbLine
 10
11162.43449196759
 20
3231.432665501928
 30
0.0
 11
5091.449306581347
 21
3231.432665501929
 31
0.0
  0
LINE
  5
20BAD
330
747D
100
AcDbEntity
  8
部品1
100
AcDbLine
 10
11162.4344919676
 20
3471.432665501931
 30
0.0
 11
5091.449306581344
 21
3471.43266550193
 31
0.0
  0
HATCH
  5
20C66
330
747D
100
AcDbEntity
  8
細線
 48
50.0
100
AcDbHatch
 10
0.0
 20
0.0
 30
0.0
210
0.0
220
0.0
230
1.0
  2
LINE
 70
     0
 71
     0
 91
        1
 92
        7
 72
     0
 73
     1
 93
        4
 10
8193.599999999999
 20
7543.281687023919
 10
7993.599999999999
 20
7543.281687023919
 10
7993.599999999999
 20
7423.281687023916
 10
8193.600000000001
 20
7423.281687023916
 97
        0
 75
     0
 76
     1
 52
45.0
 41
10.0
 77
     0
 78
     1
 53
45.0
 43
0.0
 44
0.0
 45
-22.45064030267288
 46
22.45064030267288
 79
     0
 47
3.086931259136378
 98
        1
 10
8141.028601975603
 20
7477.466725094109
  0
HATCH
  5
20C81
330
747D
100
AcDbEntity
  8
細線
 48
50.0
100
AcDbHatch
 10
0.0
 20
0.0
 30
0.0
210
0.0
220
0.0
230
1.0
  2
LINE
 70
     0
 71
     0
 91
        1
 92
        7
 72
     0
 73
     1
 93
        4
 10
7443.599999999999
 20
6533.281687023917
 10
7323.599999999998
 20
6533.281687023917
 10
7323.599999999998
 20
6333.281687023917
 10
7443.599999999999
 20
6333.281687023918
 97
        0
 75
     0
 76
     1
 52
45.0
 41
10.0
 77
     0
 78
     1
 53
45.0
 43
0.0
 44
0.0
 45
-22.45064030267288
 46
22.45064030267288
 79
     0
 47
3.086931259136378
 98
        1
 10
7399.850133610228
 20
6449.518603938773
  0
HATCH
  5
20C9C
330
747D
100
AcDbEntity
  8
細線
 48
50.0
100
AcDbHatch
 10
0.0
 20
0.0
 30
0.0
210
0.0
220
0.0
230
1.0
  2
LINE
 70
     0
 71
     0
 91
        1
 92
        7
 72
     0
 73
     1
 93
        4
 10
8863.599999999998
 20
6533.281687023917
 10
8743.599999999998
 20
6533.281687023917
 10
8743.599999999998
 20
6333.281687023918
 10
8863.600000000001
 20
6333.281687023917
 97
        0
 75
     0
 76
     1
 52
45.0
 41
10.0
 77
     0
 78
     1
 53
45.0
 43
0.0
 44
0.0
 45
-22.45064030267288
 46
22.45064030267288
 79
     0
 47
3.086931259136378
 98
        1
 10
8749.412656126908
 20
6403.214628889178
  0
DIMENSION
  5
20C9D
330
747D
100
AcDbEntity
  8
寸法
 48
50.0
100
AcDbDimension
  2
*D29
 10
8743.599999999998
 20
7043.271963995845
 30
0.0
 11
8590.289233043099
 21
6912.849407193341
 31
0.0
 70
   160
 71
     5
 42
110.0
  3
INABA_S40G
100
AcDbAlignedDimension
 13
8633.599999999999
 23
7313.281687023915
 33
0.0
 14
8743.599999999998
 24
7313.281687023916
 34
0.0
100
AcDbRotatedDimension
1001
ACAD
1000
DSTYLE
1002
{
1070
   174
1070
     0
1070
   272
1070
     1
1070
   279
1070
     2
1070
   288
1070
     0
1070
   341
1005
0
1002
}
  0
TEXT
  5
20E8D
330
747D
100
AcDbEntity
  8
文字
 62
     7
 48
50.0
100
AcDbText
 10
14816.49629419351
 20
1031.557706291228
 30
0.0
 40
100.0
  1
 <縮尺> S=1/40
  7
STYLE2
100
AcDbText
  0
ENDSEC
  0
SECTION
  2
OBJECTS
  0
DICTIONARY
  5
7471
330
0
100
AcDbDictionary
281
     1
  3
ACAD_COLOR
350
159B0
  3
ACAD_GROUP
350
7472
  3
ACAD_LAYOUT
350
159B1
  3
ACAD_MATERIAL
350
159AF
  3
ACAD_MLINESTYLE
350
7473
  3
ACAD_PLOTSETTINGS
350
159B2
  3
ACAD_PLOTSTYLENAME
350
159AD
  3
ACDBHEADERROUNDTRIPXREC
350
20E90
  3
AcDbVariableDictionary
350
208DE
  3
CONTENTDICTIONARY
350
E71C
  3
DRAWINGVARIABLESDICT
350
F3B9
  0
DICTIONARY
  5
2093C
330
7467
100
AcDbDictionary
280
     1
281
     1
  3
ACAD_LAYERSTATES
360
2093D
  0
DICTIONARY
  5
159B0
102
{ACAD_REACTORS
330
7471
102
}
330
7471
100
AcDbDictionary
281
     1
  0
DICTIONARY
  5
7472
102
{ACAD_REACTORS
330
7471
102
}
330
7471
100
AcDbDictionary
281
     1
  0
DICTIONARY
  5
159B1
102
{ACAD_REACTORS
330
7471
102
}
330
7471
100
AcDbDictionary
281
     1
  3
Model
350
159B3
  3
レイアウト1
350
159B4
  0
DICTIONARY
  5
159AF
102
{ACAD_REACTORS
330
7471
102
}
330
7471
100
AcDbDictionary
281
     1
  0
DICTIONARY
  5
7473
102
{ACAD_REACTORS
330
7471
102
}
330
7471
100
AcDbDictionary
281
     1
  3
STANDARD
350
7480
  0
DICTIONARY
  5
159B2
102
{ACAD_REACTORS
330
7471
102
}
330
7471
100
AcDbDictionary
281
     1
  0
ACDBDICTIONARYWDFLT
  5
159AD
102
{ACAD_REACTORS
330
7471
102
}
330
7471
100
AcDbDictionary
281
     1
  3
Normal
350
159AE
100
AcDbDictionaryWithDefault
340
159AE
  0
DICTIONARY
  5
20E90
102
{ACAD_REACTORS
330
7471
102
}
330
7471
100
AcDbDictionary
281
     1
  3
COLORDICT
350
20E92
  3
MATERIALDICT
350
20E91
  0
DICTIONARY
  5
208DE
102
{ACAD_REACTORS
330
7471
102
}
330
7471
100
AcDbDictionary
281
     1
  3
DIMASSOC
350
208DF
  3
PROJECTNAME
350
208E0
  0
DICTIONARY
  5
E71C
102
{ACAD_REACTORS
330
7471
102
}
330
7471
100
AcDbDictionary
281
     1
  0
DICTIONARY
  5
F3B9
102
{ACAD_REACTORS
330
7471
102
}
330
7471
100
AcDbDictionary
281
     1
1001
DRAWINGVARIABLESXDATA
1000
POLARMODE
1000
1
  0
DICTIONARY
  5
2093D
102
{ACAD_REACTORS
330
2093C
102
}
330
2093C
100
AcDbDictionary
281
     1
  0
LAYOUT
  5
159B3
102
{ACAD_XDICTIONARY
360
20E93
102
}
102
{ACAD_REACTORS
330
159B1
102
}
330
159B1
100
AcDbPlotSettings
  1

  2
クセロPDF
  4
A3
  6

 40
3.174999952316284
 41
3.174999952316284
 42
3.17498779296875
 43
3.17498779296875
 44
419.9466552734374
 45
296.9259948730469
 46
0.0
 47
0.0
 48
0.0
 49
0.0
140
0.0
141
0.0
142
1.0
143
40.88431153497317
 70
 11952
 72
     1
 73
     0
 74
     2
  7
inaba.ctb
 75
     0
147
0.0244592598592392
148
0.0
149
0.0
100
AcDbLayout
  1
Model
 70
     1
 71
     0
 10
0.0
 20
0.0
 11
12.0
 21
9.0
 12
0.0
 22
0.0
 32
0.0
 14
0.0
 24
0.0
 34
0.0
 15
0.0
 25
0.0
 35
0.0
146
0.0
 13
0.0
 23
0.0
 33
0.0
 16
1.0
 26
0.0
 36
0.0
 17
0.0
 27
1.0
 37
0.0
 76
     0
330
747D
  0
LAYOUT
  5
159B4
102
{ACAD_XDICTIONARY
360
20E95
102
}
102
{ACAD_REACTORS
330
159B1
102
}
330
159B1
100
AcDbPlotSettings
  1

  2
自動 EPSON LP-8400FX (TATENO 上)
  4

  6

 40
0.0
 41
0.0
 42
0.0
 43
0.0
 44
0.0
 45
0.0
 46
0.0
 47
0.0
 48
0.0
 49
0.0
140
0.0
141
0.0
142
1.0
143
1.0
 70
   688
 72
     0
 73
     0
 74
     5
  7
inaba.ctb
 75
    16
147
1.0
148
0.0
149
0.0
100
AcDbLayout
  1
レイアウト1
 70
     0
 71
     1
 10
0.0
 20
0.0
 11
420.0
 21
297.0
 12
0.0
 22
0.0
 32
0.0
 14
1.000000000000000E+20
 24
1.000000000000000E+20
 34
1.000000000000000E+20
 15
-1.000000000000000E+20
 25
-1.000000000000000E+20
 35
-1.000000000000000E+20
146
0.0
 13
0.0
 23
0.0
 33
0.0
 16
1.0
 26
0.0
 36
0.0
 17
0.0
 27
1.0
 37
0.0
 76
     0
330
747A
  0
MLINESTYLE
  5
7480
102
{ACAD_REACTORS
330
7473
102
}
330
7473
100
AcDbMlineStyle
  2
STANDARD
 70
     0
  3

 62
     0
 51
90.0
 52
90.0
 71
     2
 49
0.5
 62
   256
  6
BYLAYER
 49
-0.5
 62
   256
  6
BYLAYER
  0
ACDBPLACEHOLDER
  5
159AE
102
{ACAD_REACTORS
330
159AD
102
}
330
159AD
  0
XRECORD
  5
20E92
102
{ACAD_REACTORS
330
20E90
102
}
330
20E90
100
AcDbXrecord
280
     1
340
159B0
  0
XRECORD
  5
20E91
102
{ACAD_REACTORS
330
20E90
102
}
330
20E90
100
AcDbXrecord
280
     1
340
159AF
  0
DICTIONARYVAR
  5
208DF
102
{ACAD_REACTORS
330
208DE
102
}
330
208DE
100
DictionaryVariables
280
     0
  1
1
  0
DICTIONARYVAR
  5
208E0
102
{ACAD_REACTORS
330
208DE
102
}
330
208DE
100
DictionaryVariables
280
     0
  1

  0
DICTIONARY
  5
20E93
330
159B3
100
AcDbDictionary
280
     1
281
     1
  3
ACAD_XREC_ROUNDTRIP
360
20E94
  0
DICTIONARY
  5
20E95
330
159B4
100
AcDbDictionary
280
     1
281
     1
  3
ACAD_XREC_ROUNDTRIP
360
20E96
  0
XRECORD
  5
20E94
102
{ACAD_REACTORS
330
20E93
102
}
330
20E93
100
AcDbXrecord
280
     1
102
SHADEPLOT
 70
     1
102
SHADEPLOTRESLEVEL
 70
     2
102
SHADEPLOTCUSTOMDPI
 70
   300
  0
XRECORD
  5
20E96
102
{ACAD_REACTORS
330
20E95
102
}
330
20E95
100
AcDbXrecord
280
     1
102
SHADEPLOT
 70
     0
102
SHADEPLOTRESLEVEL
 70
     2
102
SHADEPLOTCUSTOMDPI
 70
   300
  0
ENDSEC
  0
EOF
