  0
SECTION
  2
HEADER
  9
$ACADVER
  1
AC1015
  9
$ACADMAINTVER
 70
    20
  9
$DWGCODEPAGE
  3
ANSI_932
  9
$INSBASE
 10
0.0
 20
0.0
 30
0.0
  9
$EXTMIN
 10
139.9999999999995
 20
-0.0000000000000909
 30
0.0
  9
$EXTMAX
 10
16307.2
 20
11409.6
 30
0.0
  9
$LIMMIN
 10
0.0
 20
0.0
  9
$LIMMAX
 10
16800.0
 20
11880.0
  9
$ORTHOMODE
 70
     0
  9
$REGENMODE
 70
     1
  9
$FILLMODE
 70
     1
  9
$QTEXTMODE
 70
     0
  9
$MIRRTEXT
 70
     1
  9
$LTSCALE
 40
20.0
  9
$ATTMODE
 70
     1
  9
$TEXTSIZE
 40
4.0
  9
$TRACEWID
 40
1.0
  9
$TEXTSTYLE
  7
STYLE1
  9
$CLAYER
  8
寸法
  9
$CELTYPE
  6
BYLAYER
  9
$CECOLOR
 62
   256
  9
$CELTSCALE
 40
50.0
  9
$DISPSILH
 70
     0
  9
$DIMSCALE
 40
40.0
  9
$DIMASZ
 40
2.5
  9
$DIMEXO
 40
0.5
  9
$DIMDLI
 40
7.0
  9
$DIMRND
 40
0.0
  9
$DIMDLE
 40
0.0
  9
$DIMEXE
 40
1.5
  9
$DIMTP
 40
0.0
  9
$DIMTM
 40
0.0
  9
$DIMTXT
 40
3.0
  9
$DIMCEN
 40
0.0
  9
$DIMTSZ
 40
0.0
  9
$DIMTOL
 70
     0
  9
$DIMLIM
 70
     0
  9
$DIMTIH
 70
     0
  9
$DIMTOH
 70
     0
  9
$DIMSE1
 70
     0
  9
$DIMSE2
 70
     0
  9
$DIMTAD
 70
     3
  9
$DIMZIN
 70
     8
  9
$DIMBLK
  1

  9
$DIMASO
 70
     1
  9
$DIMSHO
 70
     1
  9
$DIMPOST
  1

  9
$DIMAPOST
  1

  9
$DIMALT
 70
     0
  9
$DIMALTD
 70
     2
  9
$DIMALTF
 40
0.0394
  9
$DIMLFAC
 40
1.0
  9
$DIMTOFL
 70
     1
  9
$DIMTVP
 40
0.0
  9
$DIMTIX
 70
     1
  9
$DIMSOXD
 70
     0
  9
$DIMSAH
 70
     1
  9
$DIMBLK1
  1
DOTSMALL
  9
$DIMBLK2
  1
DOTSMALL
  9
$DIMSTYLE
  2
INABA_S40G
  9
$DIMCLRD
 70
     0
  9
$DIMCLRE
 70
     0
  9
$DIMCLRT
 70
     7
  9
$DIMTFAC
 40
1.0
  9
$DIMGAP
 40
1.0
  9
$DIMJUST
 70
     0
  9
$DIMSD1
 70
     0
  9
$DIMSD2
 70
     0
  9
$DIMTOLJ
 70
     1
  9
$DIMTZIN
 70
     0
  9
$DIMALTZ
 70
     0
  9
$DIMALTTZ
 70
     0
  9
$DIMUPT
 70
     0
  9
$DIMDEC
 70
     1
  9
$DIMTDEC
 70
     4
  9
$DIMALTU
 70
     2
  9
$DIMALTTD
 70
     2
  9
$DIMTXSTY
  7
STYLE1
  9
$DIMAUNIT
 70
     0
  9
$DIMADEC
 70
     0
  9
$DIMALTRND
 40
0.0
  9
$DIMAZIN
 70
     0
  9
$DIMDSEP
 70
    46
  9
$DIMATFIT
 70
     3
  9
$DIMFRAC
 70
     0
  9
$DIMLDRBLK
  1

  9
$DIMLUNIT
 70
     2
  9
$DIMLWD
 70
    -2
  9
$DIMLWE
 70
    -2
  9
$DIMTMOVE
 70
     0
  9
$LUNITS
 70
     2
  9
$LUPREC
 70
     1
  9
$SKETCHINC
 40
1.0
  9
$FILLETRAD
 40
3.0
  9
$AUNITS
 70
     0
  9
$AUPREC
 70
     0
  9
$MENU
  1
acad
  9
$ELEVATION
 40
0.0
  9
$PELEVATION
 40
0.0
  9
$THICKNESS
 40
0.0
  9
$LIMCHECK
 70
     0
  9
$CHAMFERA
 40
0.0
  9
$CHAMFERB
 40
0.0
  9
$CHAMFERC
 40
0.0
  9
$CHAMFERD
 40
0.0
  9
$SKPOLY
 70
     0
  9
$TDCREATE
 40
2451368.612993866
  9
$TDUCREATE
 40
2451368.237993866
  9
$TDUPDATE
 40
2455827.671015035
  9
$TDUUPDATE
 40
2455827.296015035
  9
$TDINDWG
 40
0.7947546412
  9
$TDUSRTIMER
 40
0.7947546412
  9
$USRTIMER
 70
     1
  9
$ANGBASE
 50
0.0
  9
$ANGDIR
 70
     0
  9
$PDMODE
 70
     3
  9
$PDSIZE
 40
2.0
  9
$PLINEWID
 40
0.0
  9
$SPLFRAME
 70
     0
  9
$SPLINETYPE
 70
     6
  9
$SPLINESEGS
 70
     8
  9
$HANDSEED
  5
23ED4
  9
$SURFTAB1
 70
     6
  9
$SURFTAB2
 70
     6
  9
$SURFTYPE
 70
     6
  9
$SURFU
 70
     6
  9
$SURFV
 70
     6
  9
$UCSBASE
  2

  9
$UCSNAME
  2

  9
$UCSORG
 10
0.0
 20
0.0
 30
0.0
  9
$UCSXDIR
 10
1.0
 20
0.0
 30
0.0
  9
$UCSYDIR
 10
0.0
 20
1.0
 30
0.0
  9
$UCSORTHOREF
  2

  9
$UCSORTHOVIEW
 70
     0
  9
$UCSORGTOP
 10
0.0
 20
0.0
 30
0.0
  9
$UCSORGBOTTOM
 10
0.0
 20
0.0
 30
0.0
  9
$UCSORGLEFT
 10
0.0
 20
0.0
 30
0.0
  9
$UCSORGRIGHT
 10
0.0
 20
0.0
 30
0.0
  9
$UCSORGFRONT
 10
0.0
 20
0.0
 30
0.0
  9
$UCSORGBACK
 10
0.0
 20
0.0
 30
0.0
  9
$PUCSBASE
  2

  9
$PUCSNAME
  2

  9
$PUCSORG
 10
0.0
 20
0.0
 30
0.0
  9
$PUCSXDIR
 10
1.0
 20
0.0
 30
0.0
  9
$PUCSYDIR
 10
0.0
 20
1.0
 30
0.0
  9
$PUCSORTHOREF
  2

  9
$PUCSORTHOVIEW
 70
     0
  9
$PUCSORGTOP
 10
0.0
 20
0.0
 30
0.0
  9
$PUCSORGBOTTOM
 10
0.0
 20
0.0
 30
0.0
  9
$PUCSORGLEFT
 10
0.0
 20
0.0
 30
0.0
  9
$PUCSORGRIGHT
 10
0.0
 20
0.0
 30
0.0
  9
$PUCSORGFRONT
 10
0.0
 20
0.0
 30
0.0
  9
$PUCSORGBACK
 10
0.0
 20
0.0
 30
0.0
  9
$USERI1
 70
     0
  9
$USERI2
 70
     0
  9
$USERI3
 70
     0
  9
$USERI4
 70
     0
  9
$USERI5
 70
     0
  9
$USERR1
 40
0.0
  9
$USERR2
 40
0.0
  9
$USERR3
 40
0.0
  9
$USERR4
 40
0.0
  9
$USERR5
 40
0.0
  9
$WORLDVIEW
 70
     1
  9
$SHADEDGE
 70
     3
  9
$SHADEDIF
 70
    70
  9
$TILEMODE
 70
     1
  9
$MAXACTVP
 70
    16
  9
$PINSBASE
 10
0.0
 20
0.0
 30
0.0
  9
$PLIMCHECK
 70
     0
  9
$PEXTMIN
 10
1.000000000000000E+20
 20
1.000000000000000E+20
 30
1.000000000000000E+20
  9
$PEXTMAX
 10
-1.000000000000000E+20
 20
-1.000000000000000E+20
 30
-1.000000000000000E+20
  9
$PLIMMIN
 10
0.0
 20
0.0
  9
$PLIMMAX
 10
420.0
 20
297.0
  9
$UNITMODE
 70
     0
  9
$VISRETAIN
 70
     0
  9
$PLINEGEN
 70
     0
  9
$PSLTSCALE
 70
     0
  9
$TREEDEPTH
 70
  3020
  9
$CMLSTYLE
  2
STANDARD
  9
$CMLJUST
 70
     0
  9
$CMLSCALE
 40
1.0
  9
$PROXYGRAPHICS
 70
     1
  9
$MEASUREMENT
 70
     1
  9
$CELWEIGHT
370
    -1
  9
$ENDCAPS
280
     0
  9
$JOINSTYLE
280
     0
  9
$LWDISPLAY
290
     0
  9
$INSUNITS
 70
     0
  9
$HYPERLINKBASE
  1

  9
$STYLESHEET
  1
ACA3.ctb
  9
$XEDIT
290
     1
  9
$CEPSNTYPE
380
     0
  9
$PSTYLEMODE
290
     1
  9
$FINGERPRINTGUID
  2
{5EAC461A-2277-4BF8-9AB0-99C43BB394F0}
  9
$VERSIONGUID
  2
{4CCF97D8-73E6-4B0A-BB29-9EB581C95AC2}
  9
$EXTNAMES
290
     1
  9
$PSVPSCALE
 40
0.0
  9
$OLESTARTUP
290
     0
  0
ENDSEC
  0
SECTION
  2
CLASSES
  0
CLASS
  1
ACDBDICTIONARYWDFLT
  2
AcDbDictionaryWithDefault
  3
ObjectDBX Classes
 90
        0
280
     0
281
     0
  0
CLASS
  1
DICTIONARYVAR
  2
AcDbDictionaryVar
  3
ObjectDBX Classes
 90
        0
280
     0
281
     0
  0
CLASS
  1
ACDBPLACEHOLDER
  2
AcDbPlaceHolder
  3
ObjectDBX Classes
 90
        0
280
     0
281
     0
  0
CLASS
  1
LAYOUT
  2
AcDbLayout
  3
ObjectDBX Classes
 90
        0
280
     0
281
     0
  0
ENDSEC
  0
SECTION
  2
TABLES
  0
TABLE
  2
VPORT
  5
746D
330
0
100
AcDbSymbolTable
 70
     2
  0
VPORT
  5
23ECC
330
746D
100
AcDbSymbolTableRecord
100
AcDbViewportTableRecord
  2
*Active
 70
     0
 10
0.0
 20
0.0
 11
1.0
 21
1.0
 12
8400.0
 22
6549.946084893187
 13
0.0
 23
0.0
 14
10.0
 24
10.0
 15
10.0
 25
10.0
 16
0.0
 26
0.0
 36
1.0
 17
0.0
 27
0.0
 37
0.0
 40
13195.53356225406
 41
1.522222222222222
 42
50.0
 43
0.0
 44
0.0
 50
0.0
 51
0.0
 71
     0
 72
     0
 73
     1
 74
     0
 75
     0
 76
     0
 77
     0
 78
     0
281
     0
 65
     1
110
0.0
120
0.0
130
0.0
111
1.0
121
0.0
131
0.0
112
0.0
122
1.0
132
0.0
 79
     0
146
0.0
  0
ENDTAB
  0
TABLE
  2
LTYPE
  5
746A
330
0
100
AcDbSymbolTable
 70
     5
  0
LTYPE
  5
7477
330
746A
100
AcDbSymbolTableRecord
100
AcDbLinetypeTableRecord
  2
BYBLOCK
 70
     0
  3

 72
    65
 73
     0
 40
0.0
  0
LTYPE
  5
7478
330
746A
100
AcDbSymbolTableRecord
100
AcDbLinetypeTableRecord
  2
BYLAYER
 70
     0
  3

 72
    65
 73
     0
 40
0.0
  0
LTYPE
  5
7479
330
746A
100
AcDbSymbolTableRecord
100
AcDbLinetypeTableRecord
  2
CONTINUOUS
 70
     0
  3
Solid line
 72
    65
 73
     0
 40
0.0
  0
LTYPE
  5
7816
330
746A
100
AcDbSymbolTableRecord
100
AcDbLinetypeTableRecord
  2
CENTER
 70
     0
  3
____ _ ____ _ ____ _ ____ _ ____ _ ____ _ ____ 
 72
    65
 73
     4
 40
2.0
 49
1.25
 74
     0
 49
-0.25
 74
     0
 49
0.25
 74
     0
 49
-0.25
 74
     0
  0
LTYPE
  5
781A
330
746A
100
AcDbSymbolTableRecord
100
AcDbLinetypeTableRecord
  2
HIDDEN
 70
     0
  3
__ __ __ __ __ __ __ __ __ __ __ __ __ __ __ __
 72
    65
 73
     2
 40
0.375
 49
0.25
 74
     0
 49
-0.125
 74
     0
  0
LTYPE
  5
781B
330
746A
100
AcDbSymbolTableRecord
100
AcDbLinetypeTableRecord
  2
PHANTOM
 70
     0
  3
______  __  __  ______  __  __  ______  __  __ 
 72
    65
 73
     6
 40
2.5
 49
1.25
 74
     0
 49
-0.25
 74
     0
 49
0.25
 74
     0
 49
-0.25
 74
     0
 49
0.25
 74
     0
 49
-0.25
 74
     0
  0
LTYPE
  5
12CC3
330
746A
100
AcDbSymbolTableRecord
100
AcDbLinetypeTableRecord
  2
HIDDENX2
 70
     0
  3
Hidden (2x) ____ ____ ____ ____ ____ ____ ____
 72
    65
 73
     2
 40
19.05
 49
12.7
 74
     0
 49
-6.349999999999999
 74
     0
  0
ENDTAB
  0
TABLE
  2
LAYER
  5
7467
102
{ACAD_XDICTIONARY
360
1758F
102
}
330
0
100
AcDbSymbolTable
 70
    12
  0
LAYER
  5
7474
330
7467
100
AcDbSymbolTableRecord
100
AcDbLayerTableRecord
  2
0
 70
     0
 62
     7
  6
CONTINUOUS
370
    -3
390
173D0
  0
LAYER
  5
DEB2
330
7467
100
AcDbSymbolTableRecord
100
AcDbLayerTableRecord
  2
センター
 70
     0
 62
     3
  6
CENTER
370
    -3
390
173D0
  0
LAYER
  5
DEB3
330
7467
100
AcDbSymbolTableRecord
100
AcDbLayerTableRecord
  2
寸法
 70
     0
 62
     4
  6
CONTINUOUS
370
    -3
390
173D0
  0
LAYER
  5
DEB4
330
7467
100
AcDbSymbolTableRecord
100
AcDbLayerTableRecord
  2
部品1
 70
     0
 62
     7
  6
CONTINUOUS
370
    -3
390
173D0
  0
LAYER
  5
DEB5
330
7467
100
AcDbSymbolTableRecord
100
AcDbLayerTableRecord
  2
補助
 70
     0
 62
    -1
  6
CONTINUOUS
370
    -3
390
173D0
  0
LAYER
  5
DEB6
330
7467
100
AcDbSymbolTableRecord
100
AcDbLayerTableRecord
  2
文字
 70
     0
 62
     7
  6
CONTINUOUS
370
    -3
390
173D0
  0
LAYER
  5
F255
330
7467
100
AcDbSymbolTableRecord
100
AcDbLayerTableRecord
  2
DEFPOINTS
 70
     0
 62
     7
  6
CONTINUOUS
290
     0
370
    -3
390
173D0
  0
LAYER
  5
10B54
330
7467
100
AcDbSymbolTableRecord
100
AcDbLayerTableRecord
  2
仕様書枠
 70
     0
 62
   230
  6
CONTINUOUS
370
    -3
390
173D0
  0
LAYER
  5
11729
330
7467
100
AcDbSymbolTableRecord
100
AcDbLayerTableRecord
  2
Ｇ．Ｌ
 70
     0
 62
    30
  6
CONTINUOUS
370
    -3
390
173D0
  0
LAYER
  5
1173F
330
7467
100
AcDbSymbolTableRecord
100
AcDbLayerTableRecord
  2
細線
 70
     0
 62
     5
  6
CONTINUOUS
370
    -3
390
173D0
  0
LAYER
  5
12CC4
330
7467
100
AcDbSymbolTableRecord
100
AcDbLayerTableRecord
  2
想像線
 70
     0
 62
     6
  6
PHANTOM
370
    -3
390
173D0
  0
LAYER
  5
142E2
330
7467
100
AcDbSymbolTableRecord
100
AcDbLayerTableRecord
  2
破線
 70
     0
 62
     2
  6
HIDDEN
370
    -3
390
173D0
  0
ENDTAB
  0
TABLE
  2
STYLE
  5
7468
330
0
100
AcDbSymbolTable
 70
     7
  0
STYLE
  5
7475
330
7468
100
AcDbSymbolTableRecord
100
AcDbTextStyleTableRecord
  2
STANDARD
 70
     0
 40
0.0
 41
1.0
 50
0.0
 71
     0
 42
4.0
  3
txt
  4
C:\AutoCAD LT\bigfont.shx
  0
STYLE
  5
763C
330
7468
100
AcDbSymbolTableRecord
100
AcDbTextStyleTableRecord
  2
MSMINCHO
 70
     0
 40
0.0
 41
1.0
 50
0.0
 71
     0
 42
1.199999999999999
  3
C:\AutoCAD LT\msminch2.TTF
  4

  0
STYLE
  5
F706
330
7468
100
AcDbSymbolTableRecord
100
AcDbTextStyleTableRecord
  2
STYLE1
 70
     0
 40
0.0
 41
1.0
 50
0.0
 71
     0
 42
4.0
  3
isocp.shx
  4
bigfont.shx
  0
STYLE
  5
103BF
330
7468
100
AcDbSymbolTableRecord
100
AcDbTextStyleTableRecord
  2
STYLE2
 70
     0
 40
0.0
 41
1.0
 50
0.0
 71
     0
 42
100.0
  3
MS PGothic.ttf
  4

1001
ACAD
1000
MS PGothic
1071
    32818
  0
STYLE
  5
10BAA
330
7468
100
AcDbSymbolTableRecord
100
AcDbTextStyleTableRecord
  2
STYLE3
 70
     0
 40
0.0
 41
1.0
 50
0.0
 71
     0
 42
100.0
  3

  4

1001
ACAD
1000
DFPGothic-EB
1071
    32818
  0
STYLE
  5
11A15
330
7468
100
AcDbSymbolTableRecord
100
AcDbTextStyleTableRecord
  2
MSGOTHIC
 70
     0
 40
0.0
 41
1.0
 50
0.0
 71
     0
 42
3.5
  3
msgothi2.ttf
  4

  0
STYLE
  5
13E96
330
7468
100
AcDbSymbolTableRecord
100
AcDbTextStyleTableRecord
  2
MSPゴシック
 70
     0
 40
0.0
 41
1.0
 50
0.0
 71
     0
 42
4.0
  3
MS PGothic.ttf
  4

1001
ACAD
1000
MS PGothic
1071
    32818
  0
ENDTAB
  0
TABLE
  2
VIEW
  5
746B
330
0
100
AcDbSymbolTable
 70
     0
  0
ENDTAB
  0
TABLE
  2
UCS
  5
746C
330
0
100
AcDbSymbolTable
 70
     0
  0
ENDTAB
  0
TABLE
  2
APPID
  5
746E
330
0
100
AcDbSymbolTable
 70
     6
  0
APPID
  5
7476
330
746E
100
AcDbSymbolTableRecord
100
AcDbRegAppTableRecord
  2
ACAD
 70
     0
  0
APPID
  5
DEA9
330
746E
100
AcDbSymbolTableRecord
100
AcDbRegAppTableRecord
  2
CONTENTBLOCKICON
 70
     0
  0
APPID
  5
DEAA
330
746E
100
AcDbSymbolTableRecord
100
AcDbRegAppTableRecord
  2
CONTENTBLOCKDESCRIPTION
 70
     0
  0
APPID
  5
E71D
330
746E
100
AcDbSymbolTableRecord
100
AcDbRegAppTableRecord
  2
CONTENTTABDATA
 70
     0
  0
APPID
  5
E71E
330
746E
100
AcDbSymbolTableRecord
100
AcDbRegAppTableRecord
  2
CONTENTCURRENTTAB
 70
     0
  0
APPID
  5
F3BA
330
746E
100
AcDbSymbolTableRecord
100
AcDbRegAppTableRecord
  2
DRAWINGVARIABLESXDATA
 70
     0
  0
ENDTAB
  0
TABLE
  2
DIMSTYLE
  5
746F
330
0
100
AcDbSymbolTable
 70
     6
100
AcDbDimStyleTable
 71
     1
340
F71F
  0
DIMSTYLE
105
7484
330
746F
100
AcDbSymbolTableRecord
100
AcDbDimStyleTableRecord
  2
JIS
 70
     0
 41
2.5
 42
1.0
 43
7.0
 44
1.0
 73
     0
 74
     0
 77
     1
 78
     8
140
2.5
141
0.0
143
0.0394
147
0.0
172
     1
174
     1
175
     1
340
7475
  0
DIMSTYLE
105
F236
330
746F
100
AcDbSymbolTableRecord
100
AcDbDimStyleTableRecord
  2
INABA_S40
 70
     0
 40
40.0
 41
2.5
 42
0.5
 43
7.0
 44
1.5
 73
     0
 74
     0
 77
     3
 78
     8
140
3.0
141
0.0
143
0.0394
147
1.0
172
     1
173
     1
174
     1
175
     1
178
     7
289
     0
340
7475
341
DEAC
343
DEAC
344
DEAC
  0
DIMSTYLE
105
F71F
102
{ACAD_REACTORS
330
211C6
330
211B7
330
211A6
330
211A3
330
211A1
330
21195
330
21194
330
211DC
330
211D9
330
211D5
330
211D4
330
21198
330
21192
330
211B8
330
21191
330
22229
330
2222A
330
22224
330
22E03
330
22E08
330
22E09
330
22E0C
330
23D0A
330
23D0B
330
23D13
330
23D1A
330
23D1D
330
23D7D
102
}
330
746F
100
AcDbSymbolTableRecord
100
AcDbDimStyleTableRecord
  2
INABA_S40G
 70
     0
 40
40.0
 41
2.5
 42
0.5
 43
7.0
 44
1.5
 73
     0
 74
     0
 77
     3
 78
     8
140
3.0
141
0.0
143
0.0394
147
1.0
172
     1
173
     1
174
     1
178
     7
271
     1
340
F706
341
F770
343
F770
344
F770
  0
DIMSTYLE
105
142E3
330
746F
100
AcDbSymbolTableRecord
100
AcDbDimStyleTableRecord
  2
INABA_S1
 70
     0
 40
0.0
 41
2.5
 42
0.5
 43
7.0
 44
1.5
 73
     0
 74
     0
 77
     3
 78
     8
140
3.0
141
0.0
143
0.0394
146
0.5
147
0.5
172
     1
173
     1
176
   256
177
   256
178
     7
271
     2
272
     2
284
     8
288
     1
340
7475
341
DEAC
343
DEAC
344
DEAC
  0
DIMSTYLE
105
14463
330
746F
100
AcDbSymbolTableRecord
100
AcDbDimStyleTableRecord
  2
INABA_S30G
 70
     0
 40
30.0
 41
2.5
 42
0.5
 43
7.0
 44
1.5
 73
     0
 74
     0
 77
     3
 78
     8
140
3.0
141
0.0
143
0.0394
147
1.0
172
     1
173
     1
174
     1
175
     1
178
     7
271
     1
340
F706
341
F770
343
F770
344
F770
  0
DIMSTYLE
105
1758E
330
746F
100
AcDbSymbolTableRecord
100
AcDbDimStyleTableRecord
  2
INABA_S50G
 70
     0
 41
125.0
 42
25.0
 43
7.0
 44
75.0
 73
     0
 74
     0
 77
     3
 78
     8
140
150.0
141
0.0
143
0.0394
147
25.0
172
     1
173
     1
174
     1
175
     1
178
     7
271
     1
340
F706
341
F770
343
F770
344
F770
  0
ENDTAB
  0
TABLE
  2
BLOCK_RECORD
  5
7466
330
0
100
AcDbSymbolTable
 70
    59
  0
BLOCK_RECORD
  5
747D
330
7466
100
AcDbSymbolTableRecord
100
AcDbBlockTableRecord
  2
*MODEL_SPACE
340
173D5
  0
BLOCK_RECORD
  5
747A
330
7466
100
AcDbSymbolTableRecord
100
AcDbBlockTableRecord
  2
*PAPER_SPACE
340
173D6
  0
BLOCK_RECORD
  5
DEAC
330
7466
100
AcDbSymbolTableRecord
100
AcDbBlockTableRecord
  2
_OPEN
340
0
  0
BLOCK_RECORD
  5
F770
330
7466
100
AcDbSymbolTableRecord
100
AcDbBlockTableRecord
  2
_DOTSMALL
340
0
102
{BLKREFS
331
18C65
331
18C66
331
18C59
331
18C5A
331
18C4D
331
18C4E
331
18C41
331
18C42
331
18C35
331
18C36
331
18C29
331
18C2A
331
18C1D
331
18C1E
331
18C0F
331
18C10
331
18C03
331
18C04
331
18BF5
331
18BF6
331
18BE7
331
18BE8
331
18BD9
331
18BDA
331
18BCD
331
18BCE
331
21801
331
21802
331
21816
331
21817
331
2182A
331
2182B
331
21833
331
21834
331
21846
331
21847
331
21864
331
21865
331
21876
331
21877
331
21894
331
21895
331
2189D
331
2189E
331
218A7
331
218A8
331
218B0
331
218B1
331
218B9
331
218BA
331
22477
331
22478
331
2288C
331
2288D
331
23052
331
23053
331
2305D
331
2305E
331
2307E
331
2307F
331
23094
331
23095
331
234BB
331
234BC
331
234C5
331
234C6
331
234CF
331
234D0
331
234D9
331
234DA
331
23B39
331
23B3A
331
23B42
331
23B43
331
23B4B
331
23B4C
331
23B54
331
23B55
331
23B62
331
23B63
331
23B6A
331
23B6B
331
23BB4
331
23BB5
331
23BA9
331
23BAA
331
23B98
331
23B99
331
23B8C
331
23B8D
331
23B80
331
23B81
331
23BC1
331
23BC2
331
23E87
331
23E88
331
23E96
331
23E97
331
23E9F
331
23EA0
331
23EA8
331
23EA9
331
23EB1
331
23EB2
331
23EBA
331
23EBB
102
}
  0
BLOCK_RECORD
  5
164B4
330
7466
100
AcDbSymbolTableRecord
100
AcDbBlockTableRecord
  2
_DOT
340
0
102
{BLKREFS
331
18C73
331
18C74
102
}
  0
BLOCK_RECORD
  5
18BC8
330
7466
100
AcDbSymbolTableRecord
100
AcDbBlockTableRecord
  2
*D3
340
0
  0
BLOCK_RECORD
  5
18BD4
330
7466
100
AcDbSymbolTableRecord
100
AcDbBlockTableRecord
  2
*D4
340
0
  0
BLOCK_RECORD
  5
18BE0
330
7466
100
AcDbSymbolTableRecord
100
AcDbBlockTableRecord
  2
*D5
340
0
  0
BLOCK_RECORD
  5
18BEE
330
7466
100
AcDbSymbolTableRecord
100
AcDbBlockTableRecord
  2
*D6
340
0
  0
BLOCK_RECORD
  5
18BFC
330
7466
100
AcDbSymbolTableRecord
100
AcDbBlockTableRecord
  2
*D7
340
0
  0
BLOCK_RECORD
  5
18C0A
330
7466
100
AcDbSymbolTableRecord
100
AcDbBlockTableRecord
  2
*D8
340
0
  0
BLOCK_RECORD
  5
18C16
330
7466
100
AcDbSymbolTableRecord
100
AcDbBlockTableRecord
  2
*D9
340
0
  0
BLOCK_RECORD
  5
18C24
330
7466
100
AcDbSymbolTableRecord
100
AcDbBlockTableRecord
  2
*D10
340
0
  0
BLOCK_RECORD
  5
18C30
330
7466
100
AcDbSymbolTableRecord
100
AcDbBlockTableRecord
  2
*D11
340
0
  0
BLOCK_RECORD
  5
18C3C
330
7466
100
AcDbSymbolTableRecord
100
AcDbBlockTableRecord
  2
*D12
340
0
  0
BLOCK_RECORD
  5
18C48
330
7466
100
AcDbSymbolTableRecord
100
AcDbBlockTableRecord
  2
*D13
340
0
  0
BLOCK_RECORD
  5
18C54
330
7466
100
AcDbSymbolTableRecord
100
AcDbBlockTableRecord
  2
*D14
340
0
  0
BLOCK_RECORD
  5
18C60
330
7466
100
AcDbSymbolTableRecord
100
AcDbBlockTableRecord
  2
*D15
340
0
  0
BLOCK_RECORD
  5
18C6C
330
7466
100
AcDbSymbolTableRecord
100
AcDbBlockTableRecord
  2
*D16
340
0
  0
BLOCK_RECORD
  5
18C7A
330
7466
100
AcDbSymbolTableRecord
100
AcDbBlockTableRecord
  2
A$C3B1A506B
340
0
  0
BLOCK_RECORD
  5
1C4CA
330
7466
100
AcDbSymbolTableRecord
100
AcDbBlockTableRecord
  2
_NONE
340
0
  0
BLOCK_RECORD
  5
211EB
330
7466
100
AcDbSymbolTableRecord
100
AcDbBlockTableRecord
  2
*D19
340
0
  0
BLOCK_RECORD
  5
211F6
330
7466
100
AcDbSymbolTableRecord
100
AcDbBlockTableRecord
  2
*D20
340
0
  0
BLOCK_RECORD
  5
21202
330
7466
100
AcDbSymbolTableRecord
100
AcDbBlockTableRecord
  2
*D21
340
0
  0
BLOCK_RECORD
  5
2120F
330
7466
100
AcDbSymbolTableRecord
100
AcDbBlockTableRecord
  2
*D22
340
0
  0
BLOCK_RECORD
  5
2121A
330
7466
100
AcDbSymbolTableRecord
100
AcDbBlockTableRecord
  2
*D23
340
0
  0
BLOCK_RECORD
  5
21232
330
7466
100
AcDbSymbolTableRecord
100
AcDbBlockTableRecord
  2
*D24
340
0
  0
BLOCK_RECORD
  5
2124C
330
7466
100
AcDbSymbolTableRecord
100
AcDbBlockTableRecord
  2
*D25
340
0
  0
BLOCK_RECORD
  5
21262
330
7466
100
AcDbSymbolTableRecord
100
AcDbBlockTableRecord
  2
*D26
340
0
  0
BLOCK_RECORD
  5
2127C
330
7466
100
AcDbSymbolTableRecord
100
AcDbBlockTableRecord
  2
*D27
340
0
  0
BLOCK_RECORD
  5
21289
330
7466
100
AcDbSymbolTableRecord
100
AcDbBlockTableRecord
  2
*D28
340
0
  0
BLOCK_RECORD
  5
21295
330
7466
100
AcDbSymbolTableRecord
100
AcDbBlockTableRecord
  2
*D29
340
0
  0
BLOCK_RECORD
  5
212A2
330
7466
100
AcDbSymbolTableRecord
100
AcDbBlockTableRecord
  2
*D30
340
0
  0
BLOCK_RECORD
  5
212AD
330
7466
100
AcDbSymbolTableRecord
100
AcDbBlockTableRecord
  2
*D31
340
0
  0
BLOCK_RECORD
  5
212C5
330
7466
100
AcDbSymbolTableRecord
100
AcDbBlockTableRecord
  2
*D32
340
0
  0
BLOCK_RECORD
  5
212DE
330
7466
100
AcDbSymbolTableRecord
100
AcDbBlockTableRecord
  2
*D33
340
0
  0
BLOCK_RECORD
  5
2227E
330
7466
100
AcDbSymbolTableRecord
100
AcDbBlockTableRecord
  2
*D34
340
0
  0
BLOCK_RECORD
  5
2228B
330
7466
100
AcDbSymbolTableRecord
100
AcDbBlockTableRecord
  2
*D35
340
0
  0
BLOCK_RECORD
  5
2238C
330
7466
100
AcDbSymbolTableRecord
100
AcDbBlockTableRecord
  2
*D36
340
0
  0
BLOCK_RECORD
  5
22E5B
330
7466
100
AcDbSymbolTableRecord
100
AcDbBlockTableRecord
  2
*D37
340
0
  0
BLOCK_RECORD
  5
22E69
330
7466
100
AcDbSymbolTableRecord
100
AcDbBlockTableRecord
  2
*D38
340
0
  0
BLOCK_RECORD
  5
22E77
330
7466
100
AcDbSymbolTableRecord
100
AcDbBlockTableRecord
  2
*D39
340
0
  0
BLOCK_RECORD
  5
22E85
330
7466
100
AcDbSymbolTableRecord
100
AcDbBlockTableRecord
  2
*D40
340
0
  0
BLOCK_RECORD
  5
23E37
330
7466
100
AcDbSymbolTableRecord
100
AcDbBlockTableRecord
  2
*D53
340
0
  0
BLOCK_RECORD
  5
23E43
330
7466
100
AcDbSymbolTableRecord
100
AcDbBlockTableRecord
  2
*D54
340
0
  0
BLOCK_RECORD
  5
23E54
330
7466
100
AcDbSymbolTableRecord
100
AcDbBlockTableRecord
  2
*D55
340
0
  0
BLOCK_RECORD
  5
23E60
330
7466
100
AcDbSymbolTableRecord
100
AcDbBlockTableRecord
  2
*D56
340
0
  0
BLOCK_RECORD
  5
23E6C
330
7466
100
AcDbSymbolTableRecord
100
AcDbBlockTableRecord
  2
*D57
340
0
  0
BLOCK_RECORD
  5
23E78
330
7466
100
AcDbSymbolTableRecord
100
AcDbBlockTableRecord
  2
*D58
340
0
  0
ENDTAB
  0
ENDSEC
  0
SECTION
  2
BLOCKS
  0
BLOCK
  5
7489
330
747D
100
AcDbEntity
  8
0
100
AcDbBlockBegin
  2
*MODEL_SPACE
 70
     0
 10
0.0
 20
0.0
 30
0.0
  3
*MODEL_SPACE
  1

  0
ENDBLK
  5
748A
330
747D
100
AcDbEntity
  8
0
100
AcDbBlockEnd
  0
BLOCK
  5
7487
330
747A
100
AcDbEntity
 67
     1
  8
0
100
AcDbBlockBegin
  2
*PAPER_SPACE
 70
     0
 10
0.0
 20
0.0
 30
0.0
  3
*PAPER_SPACE
  1

  0
ENDBLK
  5
7488
330
747A
100
AcDbEntity
 67
     1
  8
0
100
AcDbBlockEnd
  0
BLOCK
  5
DEAD
330
DEAC
100
AcDbEntity
  8
0
100
AcDbBlockBegin
  2
_OPEN
 70
     0
 10
0.0
 20
0.0
 30
0.0
  3
_OPEN
  1

  0
LINE
  5
DEAE
330
DEAC
100
AcDbEntity
  8
0
  6
ByBlock
 62
     0
100
AcDbLine
 10
-1.0
 20
0.1666666666666666
 30
0.0
 11
0.0
 21
0.0
 31
0.0
  0
LINE
  5
DEAF
330
DEAC
100
AcDbEntity
  8
0
  6
ByBlock
 62
     0
100
AcDbLine
 10
0.0
 20
0.0
 30
0.0
 11
-1.0
 21
-0.1666666666666666
 31
0.0
  0
LINE
  5
DEB0
330
DEAC
100
AcDbEntity
  8
0
  6
ByBlock
 62
     0
100
AcDbLine
 10
0.0
 20
0.0
 30
0.0
 11
-1.0
 21
0.0
 31
0.0
  0
ENDBLK
  5
DEB1
330
DEAC
100
AcDbEntity
  8
0
100
AcDbBlockEnd
  0
BLOCK
  5
F771
330
F770
100
AcDbEntity
  8
0
 48
50.0
100
AcDbBlockBegin
  2
_DOTSMALL
 70
     0
 10
0.0
 20
0.0
 30
0.0
  3
_DOTSMALL
  1

  0
LWPOLYLINE
  5
F772
330
F770
100
AcDbEntity
  8
0
  6
ByBlock
 62
     0
 48
50.0
100
AcDbPolyline
 90
        2
 70
     1
 43
0.5
 10
-0.0625
 20
0.0
 42
1.0
 10
0.0625
 20
0.0
 42
1.0
  0
ENDBLK
  5
F776
330
F770
100
AcDbEntity
  8
0
 48
50.0
100
AcDbBlockEnd
  0
BLOCK
  5
164BA
330
164B4
100
AcDbEntity
  8
0
 48
50.0
100
AcDbBlockBegin
  2
_DOT
 70
     0
 10
0.0
 20
0.0
 30
0.0
  3
_DOT
  1

  0
LWPOLYLINE
  5
164B5
330
164B4
100
AcDbEntity
  8
0
  6
ByBlock
 62
     0
 48
50.0
100
AcDbPolyline
 90
        2
 70
     1
 43
0.5
 10
-0.25
 20
0.0
 42
1.0
 10
0.25
 20
0.0
 42
1.0
  0
LINE
  5
164B9
330
164B4
100
AcDbEntity
  8
0
  6
ByBlock
 62
     0
 48
50.0
100
AcDbLine
 10
-0.5
 20
0.0
 30
0.0
 11
-1.0
 21
0.0
 31
0.0
  0
ENDBLK
  5
164BB
330
164B4
100
AcDbEntity
  8
0
 48
50.0
100
AcDbBlockEnd
  0
BLOCK
  5
18BC9
330
18BC8
100
AcDbEntity
  8
0
 48
50.0
100
AcDbBlockBegin
  2
*D3
 70
     1
 10
0.0
 20
0.0
 30
0.0
  3
*D3
  1

  0
LINE
  5
18BCA
330
18BC8
100
AcDbEntity
  8
寸法
 62
     0
 48
50.0
370
    -2
100
AcDbLine
 10
7649.896575106999
 20
9636.123139034717
 30
0.0
 11
8702.429862581047
 21
9636.123139034717
 31
0.0
  0
LINE
  5
18BCB
330
18BC8
100
AcDbEntity
  8
寸法
 62
     0
 48
50.0
370
    -2
100
AcDbLine
 10
7649.896575106973
 20
7846.123139034709
 30
0.0
 11
8702.429862581047
 21
7846.123139034709
 31
0.0
  0
LINE
  5
18BCC
330
18BC8
100
AcDbEntity
  8
寸法
 62
     0
 48
50.0
370
    -2
100
AcDbLine
 10
8642.429862581046
 20
9636.123139034717
 30
0.0
 11
8642.429862581046
 21
7846.123139034709
 31
0.0
  0
INSERT
  5
18BCD
330
18BC8
100
AcDbEntity
  8
寸法
 62
     0
 48
50.0
370
    -2
100
AcDbBlockReference
  2
_DOTSMALL
 10
8642.429862581046
 20
9636.123139034717
 30
0.0
 41
100.0
 42
100.0
 43
100.0
 50
90.0
  0
INSERT
  5
18BCE
330
18BC8
100
AcDbEntity
  8
寸法
 62
     0
 48
50.0
370
    -2
100
AcDbBlockReference
  2
_DOTSMALL
 10
8642.429862581046
 20
7846.123139034709
 30
0.0
 41
100.0
 42
100.0
 43
100.0
 50
270.0
  0
MTEXT
  5
18BCF
330
18BC8
100
AcDbEntity
  8
寸法
 62
     7
 48
50.0
100
AcDbMText
 10
8542.429862581045
 20
8741.123139034712
 30
0.0
 40
120.0
 41
0.0
 71
     5
 72
     1
  1
\A1;1790
  7
STYLE1
 11
0.0000000000000001
 21
1.0
 31
0.0
 73
     1
 44
1.0
1001
ACAD
1000
MTEXTBEGIN
1070
    73
1070
     1
1070
    44
1040
1.0
1070
    74
1070
     0
1000
MTEXTEND
  0
POINT
  5
18BD0
330
18BC8
100
AcDbEntity
  8
DEFPOINTS
 62
     0
 48
50.0
100
AcDbPoint
 10
7629.896575106998
 20
9636.123139034717
 30
0.0
  0
POINT
  5
18BD1
330
18BC8
100
AcDbEntity
  8
DEFPOINTS
 62
     0
 48
50.0
100
AcDbPoint
 10
7629.896575106974
 20
7846.123139034709
 30
0.0
  0
POINT
  5
18BD2
330
18BC8
100
AcDbEntity
  8
DEFPOINTS
 62
     0
 48
50.0
100
AcDbPoint
 10
8642.429862581046
 20
7846.123139034709
 30
0.0
  0
ENDBLK
  5
18BD3
330
18BC8
100
AcDbEntity
  8
0
 48
50.0
100
AcDbBlockEnd
  0
BLOCK
  5
18BD5
330
18BD4
100
AcDbEntity
  8
0
 48
50.0
100
AcDbBlockBegin
  2
*D4
 70
     1
 10
0.0
 20
0.0
 30
0.0
  3
*D4
  1

  0
LINE
  5
18BD6
330
18BD4
100
AcDbEntity
  8
寸法
 62
     0
 48
50.0
370
    -2
100
AcDbLine
 10
4214.896575106998
 20
9656.123139034622
 30
0.0
 11
4214.896575106998
 21
10211.93135865972
 31
0.0
  0
LINE
  5
18BD7
330
18BD4
100
AcDbEntity
  8
寸法
 62
     0
 48
50.0
370
    -2
100
AcDbLine
 10
7574.896575106999
 20
9656.123139034718
 30
0.0
 11
7574.896575106999
 21
10211.93135865972
 31
0.0
  0
LINE
  5
18BD8
330
18BD4
100
AcDbEntity
  8
寸法
 62
     0
 48
50.0
370
    -2
100
AcDbLine
 10
4214.896575106998
 20
10151.93135865972
 30
0.0
 11
7574.896575106999
 21
10151.93135865972
 31
0.0
  0
INSERT
  5
18BD9
330
18BD4
100
AcDbEntity
  8
寸法
 62
     0
 48
50.0
370
    -2
100
AcDbBlockReference
  2
_DOTSMALL
 10
4214.896575106998
 20
10151.93135865972
 30
0.0
 41
100.0
 42
100.0
 43
100.0
 50
180.0
  0
INSERT
  5
18BDA
330
18BD4
100
AcDbEntity
  8
寸法
 62
     0
 48
50.0
370
    -2
100
AcDbBlockReference
  2
_DOTSMALL
 10
7574.896575106999
 20
10151.93135865972
 30
0.0
 41
100.0
 42
100.0
 43
100.0
  0
MTEXT
  5
18BDB
330
18BD4
100
AcDbEntity
  8
寸法
 62
     7
 48
50.0
100
AcDbMText
 10
5894.896575106997
 20
10251.94316968334
 30
0.0
 40
120.0
 41
0.0
 71
     5
 72
     1
  1
\A1;8X420=3360
  7
STYLE1
 73
     1
 44
1.0
1001
ACAD
1000
MTEXTBEGIN
1070
    73
1070
     1
1070
    44
1040
1.0
1070
    74
1070
     0
1000
MTEXTEND
  0
POINT
  5
18BDC
330
18BD4
100
AcDbEntity
  8
DEFPOINTS
 62
     0
 48
50.0
100
AcDbPoint
 10
4214.896575106998
 20
9636.123139034623
 30
0.0
  0
POINT
  5
18BDD
330
18BD4
100
AcDbEntity
  8
DEFPOINTS
 62
     0
 48
50.0
100
AcDbPoint
 10
7574.896575106999
 20
9636.123139034717
 30
0.0
  0
POINT
  5
18BDE
330
18BD4
100
AcDbEntity
  8
DEFPOINTS
 62
     0
 48
50.0
100
AcDbPoint
 10
7574.896575106999
 20
10151.93135865972
 30
0.0
  0
ENDBLK
  5
18BDF
330
18BD4
100
AcDbEntity
  8
0
 48
50.0
100
AcDbBlockEnd
  0
BLOCK
  5
18BE1
330
18BE0
100
AcDbEntity
  8
0
 48
50.0
100
AcDbBlockBegin
  2
*D5
 70
     1
 10
0.0
 20
0.0
 30
0.0
  3
*D5
  1

  0
LINE
  5
18BE2
330
18BE0
100
AcDbEntity
  8
寸法
 62
     0
 48
50.0
370
    -2
100
AcDbLine
 10
7574.896575106999
 20
9656.123139034718
 30
0.0
 11
7574.896575106999
 21
10211.9313586597
 31
0.0
  0
LINE
  5
18BE3
330
18BE0
100
AcDbEntity
  8
寸法
 62
     0
 48
50.0
370
    -2
100
AcDbLine
 10
7629.896575106998
 20
9656.123139034718
 30
0.0
 11
7629.896575106998
 21
10211.9313586597
 31
0.0
  0
LINE
  5
18BE4
330
18BE0
100
AcDbEntity
  8
寸法
 62
     0
 48
50.0
370
    -2
100
AcDbLine
 10
7574.896575106999
 20
10151.9313586597
 30
0.0
 11
7474.896575106999
 21
10151.9313586597
 31
0.0
  0
LINE
  5
18BE5
330
18BE0
100
AcDbEntity
  8
寸法
 62
     0
 48
50.0
370
    -2
100
AcDbLine
 10
7629.896575106998
 20
10151.9313586597
 30
0.0
 11
8046.867137855477
 21
10151.9313586597
 31
0.0
  0
LINE
  5
18BE6
330
18BE0
100
AcDbEntity
  8
寸法
 62
     0
 48
50.0
370
    -2
100
AcDbLine
 10
7574.896575106999
 20
10151.9313586597
 30
0.0
 11
7629.896575106998
 21
10151.9313586597
 31
0.0
  0
INSERT
  5
18BE7
330
18BE0
100
AcDbEntity
  8
寸法
 62
     0
 48
50.0
370
    -2
100
AcDbBlockReference
  2
_DOTSMALL
 10
7574.896575106999
 20
10151.9313586597
 30
0.0
 41
100.0
 42
100.0
 43
100.0
  0
INSERT
  5
18BE8
330
18BE0
100
AcDbEntity
  8
寸法
 62
     0
 48
50.0
370
    -2
100
AcDbBlockReference
  2
_DOTSMALL
 10
7629.896575106998
 20
10151.9313586597
 30
0.0
 41
100.0
 42
100.0
 43
100.0
 50
180.0
  0
MTEXT
  5
18BE9
330
18BE0
100
AcDbEntity
  8
寸法
 62
     7
 48
50.0
100
AcDbMText
 10
7938.381856481237
 20
10251.9313586597
 30
0.0
 40
120.0
 41
0.0
 71
     5
 72
     1
  1
\A1;55
  7
STYLE1
 73
     1
 44
1.0
1001
ACAD
1000
MTEXTBEGIN
1070
    73
1070
     1
1070
    44
1040
1.0
1070
    74
1070
     0
1000
MTEXTEND
  0
POINT
  5
18BEA
330
18BE0
100
AcDbEntity
  8
DEFPOINTS
 62
     0
 48
50.0
100
AcDbPoint
 10
7574.896575106999
 20
9636.123139034717
 30
0.0
  0
POINT
  5
18BEB
330
18BE0
100
AcDbEntity
  8
DEFPOINTS
 62
     0
 48
50.0
100
AcDbPoint
 10
7629.896575106998
 20
9636.123139034717
 30
0.0
  0
POINT
  5
18BEC
330
18BE0
100
AcDbEntity
  8
DEFPOINTS
 62
     0
 48
50.0
100
AcDbPoint
 10
7629.896575106998
 20
10151.9313586597
 30
0.0
  0
ENDBLK
  5
18BED
330
18BE0
100
AcDbEntity
  8
0
 48
50.0
100
AcDbBlockEnd
  0
BLOCK
  5
18BEF
330
18BEE
100
AcDbEntity
  8
0
 48
50.0
100
AcDbBlockBegin
  2
*D6
 70
     1
 10
0.0
 20
0.0
 30
0.0
  3
*D6
  1

  0
LINE
  5
18BF0
330
18BEE
100
AcDbEntity
  8
寸法
 62
     0
 48
50.0
370
    -2
100
AcDbLine
 10
7649.896575106999
 20
9636.123139034717
 30
0.0
 11
8337.32292084141
 21
9636.123139034717
 31
0.0
  0
LINE
  5
18BF1
330
18BEE
100
AcDbEntity
  8
寸法
 62
     0
 48
50.0
370
    -2
100
AcDbLine
 10
7649.896575106999
 20
9581.123139034721
 30
0.0
 11
8337.32292084141
 21
9581.123139034721
 31
0.0
  0
LINE
  5
18BF2
330
18BEE
100
AcDbEntity
  8
寸法
 62
     0
 48
50.0
370
    -2
100
AcDbLine
 10
8277.322920841411
 20
9581.123139034721
 30
0.0
 11
8277.322920841411
 21
9481.123139034719
 31
0.0
  0
LINE
  5
18BF3
330
18BEE
100
AcDbEntity
  8
寸法
 62
     0
 48
50.0
370
    -2
100
AcDbLine
 10
8277.322920841411
 20
9636.123139034717
 30
0.0
 11
8277.322920841411
 21
10053.09370178319
 31
0.0
  0
LINE
  5
18BF4
330
18BEE
100
AcDbEntity
  8
寸法
 62
     0
 48
50.0
370
    -2
100
AcDbLine
 10
8277.322920841411
 20
9581.123139034721
 30
0.0
 11
8277.322920841411
 21
9636.123139034717
 31
0.0
  0
INSERT
  5
18BF5
330
18BEE
100
AcDbEntity
  8
寸法
 62
     0
 48
50.0
370
    -2
100
AcDbBlockReference
  2
_DOTSMALL
 10
8277.322920841411
 20
9581.123139034721
 30
0.0
 41
100.0
 42
100.0
 43
100.0
 50
90.0
  0
INSERT
  5
18BF6
330
18BEE
100
AcDbEntity
  8
寸法
 62
     0
 48
50.0
370
    -2
100
AcDbBlockReference
  2
_DOTSMALL
 10
8277.322920841411
 20
9636.123139034717
 30
0.0
 41
100.0
 42
100.0
 43
100.0
 50
270.0
  0
MTEXT
  5
18BF7
330
18BEE
100
AcDbEntity
  8
寸法
 62
     7
 48
50.0
100
AcDbMText
 10
8177.32292084141
 20
9944.608420408957
 30
0.0
 40
120.0
 41
0.0
 71
     5
 72
     1
  1
\A1;55
  7
STYLE1
 11
0.0000000000000001
 21
1.0
 31
0.0
 73
     1
 44
1.0
1001
ACAD
1000
MTEXTBEGIN
1070
    73
1070
     1
1070
    44
1040
1.0
1070
    74
1070
     0
1000
MTEXTEND
  0
POINT
  5
18BF8
330
18BEE
100
AcDbEntity
  8
DEFPOINTS
 62
     0
 48
50.0
100
AcDbPoint
 10
7629.896575106998
 20
9636.123139034717
 30
0.0
  0
POINT
  5
18BF9
330
18BEE
100
AcDbEntity
  8
DEFPOINTS
 62
     0
 48
50.0
100
AcDbPoint
 10
7629.896575106998
 20
9581.123139034721
 30
0.0
  0
POINT
  5
18BFA
330
18BEE
100
AcDbEntity
  8
DEFPOINTS
 62
     0
 48
50.0
100
AcDbPoint
 10
8277.322920841411
 20
9581.123139034721
 30
0.0
  0
ENDBLK
  5
18BFB
330
18BEE
100
AcDbEntity
  8
0
 48
50.0
100
AcDbBlockEnd
  0
BLOCK
  5
18BFD
330
18BFC
100
AcDbEntity
  8
0
 48
50.0
100
AcDbBlockBegin
  2
*D7
 70
     1
 10
0.0
 20
0.0
 30
0.0
  3
*D7
  1

  0
LINE
  5
18BFE
330
18BFC
100
AcDbEntity
  8
寸法
 62
     0
 48
50.0
370
    -2
100
AcDbLine
 10
4159.896575106963
 20
9656.123139034622
 30
0.0
 11
4159.896575106963
 21
10211.9313586596
 31
0.0
  0
LINE
  5
18BFF
330
18BFC
100
AcDbEntity
  8
寸法
 62
     0
 48
50.0
370
    -2
100
AcDbLine
 10
4214.896575106998
 20
9656.123139034622
 30
0.0
 11
4214.896575106998
 21
10211.9313586596
 31
0.0
  0
LINE
  5
18C00
330
18BFC
100
AcDbEntity
  8
寸法
 62
     0
 48
50.0
370
    -2
100
AcDbLine
 10
4214.896575106998
 20
10151.9313586596
 30
0.0
 11
4314.896575106998
 21
10151.9313586596
 31
0.0
  0
LINE
  5
18C01
330
18BFC
100
AcDbEntity
  8
寸法
 62
     0
 48
50.0
370
    -2
100
AcDbLine
 10
4159.896575106963
 20
10151.9313586596
 30
0.0
 11
3742.926012358486
 21
10151.9313586596
 31
0.0
  0
LINE
  5
18C02
330
18BFC
100
AcDbEntity
  8
寸法
 62
     0
 48
50.0
370
    -2
100
AcDbLine
 10
4214.896575106998
 20
10151.9313586596
 30
0.0
 11
4159.896575106963
 21
10151.9313586596
 31
0.0
  0
INSERT
  5
18C03
330
18BFC
100
AcDbEntity
  8
寸法
 62
     0
 48
50.0
370
    -2
100
AcDbBlockReference
  2
_DOTSMALL
 10
4214.896575106998
 20
10151.9313586596
 30
0.0
 41
100.0
 42
100.0
 43
100.0
 50
180.0
  0
INSERT
  5
18C04
330
18BFC
100
AcDbEntity
  8
寸法
 62
     0
 48
50.0
370
    -2
100
AcDbBlockReference
  2
_DOTSMALL
 10
4159.896575106963
 20
10151.9313586596
 30
0.0
 41
100.0
 42
100.0
 43
100.0
  0
MTEXT
  5
18C05
330
18BFC
100
AcDbEntity
  8
寸法
 62
     7
 48
50.0
100
AcDbMText
 10
3851.411293732725
 20
10251.9313586596
 30
0.0
 40
120.0
 41
0.0
 71
     5
 72
     1
  1
\A1;55
  7
STYLE1
 73
     1
 44
1.0
1001
ACAD
1000
MTEXTBEGIN
1070
    73
1070
     1
1070
    44
1040
1.0
1070
    74
1070
     0
1000
MTEXTEND
  0
POINT
  5
18C06
330
18BFC
100
AcDbEntity
  8
DEFPOINTS
 62
     0
 48
50.0
100
AcDbPoint
 10
4159.896575106963
 20
9636.123139034623
 30
0.0
  0
POINT
  5
18C07
330
18BFC
100
AcDbEntity
  8
DEFPOINTS
 62
     0
 48
50.0
100
AcDbPoint
 10
4214.896575106998
 20
9636.123139034623
 30
0.0
  0
POINT
  5
18C08
330
18BFC
100
AcDbEntity
  8
DEFPOINTS
 62
     0
 48
50.0
100
AcDbPoint
 10
4214.896575106998
 20
10151.9313586596
 30
0.0
  0
ENDBLK
  5
18C09
330
18BFC
100
AcDbEntity
  8
0
 48
50.0
100
AcDbBlockEnd
  0
BLOCK
  5
18C0B
330
18C0A
100
AcDbEntity
  8
0
 48
50.0
100
AcDbBlockBegin
  2
*D8
 70
     1
 10
0.0
 20
0.0
 30
0.0
  3
*D8
  1

  0
LINE
  5
18C0C
330
18C0A
100
AcDbEntity
  8
寸法
 62
     0
 48
50.0
370
    -2
100
AcDbLine
 10
4159.896575106992
 20
7826.123139034546
 30
0.0
 11
4159.896575106992
 21
6804.372203245664
 31
0.0
  0
LINE
  5
18C0D
330
18C0A
100
AcDbEntity
  8
寸法
 62
     0
 48
50.0
370
    -2
100
AcDbLine
 10
7629.896575106974
 20
7826.123139034674
 30
0.0
 11
7629.896575106974
 21
6804.372203245664
 31
0.0
  0
LINE
  5
18C0E
330
18C0A
100
AcDbEntity
  8
寸法
 62
     0
 48
50.0
370
    -2
100
AcDbLine
 10
4159.896575106992
 20
6864.372203245665
 30
0.0
 11
7629.896575106974
 21
6864.372203245665
 31
0.0
  0
INSERT
  5
18C0F
330
18C0A
100
AcDbEntity
  8
寸法
 62
     0
 48
50.0
370
    -2
100
AcDbBlockReference
  2
_DOTSMALL
 10
4159.896575106992
 20
6864.372203245665
 30
0.0
 41
100.0
 42
100.0
 43
100.0
 50
180.0
  0
INSERT
  5
18C10
330
18C0A
100
AcDbEntity
  8
寸法
 62
     0
 48
50.0
370
    -2
100
AcDbBlockReference
  2
_DOTSMALL
 10
7629.896575106974
 20
6864.372203245665
 30
0.0
 41
100.0
 42
100.0
 43
100.0
  0
MTEXT
  5
18C11
330
18C0A
100
AcDbEntity
  8
寸法
 62
     7
 48
50.0
100
AcDbMText
 10
5911.12376113973
 20
6964.372203245665
 30
0.0
 40
120.0
 41
0.0
 71
     5
 72
     1
  1
\A1;3470
  7
STYLE1
 73
     1
 44
1.0
1001
ACAD
1000
MTEXTBEGIN
1070
    73
1070
     1
1070
    44
1040
1.0
1070
    74
1070
     0
1000
MTEXTEND
  0
POINT
  5
18C12
330
18C0A
100
AcDbEntity
  8
DEFPOINTS
 62
     0
 48
50.0
100
AcDbPoint
 10
4159.896575106992
 20
7846.123139034546
 30
0.0
  0
POINT
  5
18C13
330
18C0A
100
AcDbEntity
  8
DEFPOINTS
 62
     0
 48
50.0
100
AcDbPoint
 10
7629.896575106974
 20
7846.123139034673
 30
0.0
  0
POINT
  5
18C14
330
18C0A
100
AcDbEntity
  8
DEFPOINTS
 62
     0
 48
50.0
100
AcDbPoint
 10
7629.896575106974
 20
6864.372203245665
 30
0.0
  0
ENDBLK
  5
18C15
330
18C0A
100
AcDbEntity
  8
0
 48
50.0
100
AcDbBlockEnd
  0
BLOCK
  5
18C17
330
18C16
100
AcDbEntity
  8
0
 48
50.0
100
AcDbBlockBegin
  2
*D9
 70
     1
 10
0.0
 20
0.0
 30
0.0
  3
*D9
  1

  0
LINE
  5
18C18
330
18C16
100
AcDbEntity
  8
寸法
 62
     0
 48
50.0
370
    -2
100
AcDbLine
 10
7649.896575106973
 20
7901.123139034706
 30
0.0
 11
8337.322920841385
 21
7901.123139034706
 31
0.0
  0
LINE
  5
18C19
330
18C16
100
AcDbEntity
  8
寸法
 62
     0
 48
50.0
370
    -2
100
AcDbLine
 10
7649.896575106973
 20
7846.123139034709
 30
0.0
 11
8337.322920841385
 21
7846.123139034709
 31
0.0
  0
LINE
  5
18C1A
330
18C16
100
AcDbEntity
  8
寸法
 62
     0
 48
50.0
370
    -2
100
AcDbLine
 10
8277.322920841385
 20
7901.123139034706
 30
0.0
 11
8277.322920841385
 21
8001.123139034707
 31
0.0
  0
LINE
  5
18C1B
330
18C16
100
AcDbEntity
  8
寸法
 62
     0
 48
50.0
370
    -2
100
AcDbLine
 10
8277.322920841385
 20
7846.123139034709
 30
0.0
 11
8277.322920841385
 21
7429.152576286229
 31
0.0
  0
LINE
  5
18C1C
330
18C16
100
AcDbEntity
  8
寸法
 62
     0
 48
50.0
370
    -2
100
AcDbLine
 10
8277.322920841385
 20
7901.123139034706
 30
0.0
 11
8277.322920841385
 21
7846.123139034709
 31
0.0
  0
INSERT
  5
18C1D
330
18C16
100
AcDbEntity
  8
寸法
 62
     0
 48
50.0
370
    -2
100
AcDbBlockReference
  2
_DOTSMALL
 10
8277.322920841385
 20
7901.123139034706
 30
0.0
 41
100.0
 42
100.0
 43
100.0
 50
270.0
  0
INSERT
  5
18C1E
330
18C16
100
AcDbEntity
  8
寸法
 62
     0
 48
50.0
370
    -2
100
AcDbBlockReference
  2
_DOTSMALL
 10
8277.322920841385
 20
7846.123139034709
 30
0.0
 41
100.0
 42
100.0
 43
100.0
 50
90.0
  0
MTEXT
  5
18C1F
330
18C16
100
AcDbEntity
  8
寸法
 62
     7
 48
50.0
100
AcDbMText
 10
8177.322920841383
 20
7537.637857660469
 30
0.0
 40
120.0
 41
0.0
 71
     5
 72
     1
  1
\A1;55
  7
STYLE1
 11
0.0000000000000001
 21
1.0
 31
0.0
 73
     1
 44
1.0
1001
ACAD
1000
MTEXTBEGIN
1070
    73
1070
     1
1070
    44
1040
1.0
1070
    74
1070
     0
1000
MTEXTEND
  0
POINT
  5
18C20
330
18C16
100
AcDbEntity
  8
DEFPOINTS
 62
     0
 48
50.0
100
AcDbPoint
 10
7629.896575106974
 20
7901.123139034706
 30
0.0
  0
POINT
  5
18C21
330
18C16
100
AcDbEntity
  8
DEFPOINTS
 62
     0
 48
50.0
100
AcDbPoint
 10
7629.896575106974
 20
7846.123139034709
 30
0.0
  0
POINT
  5
18C22
330
18C16
100
AcDbEntity
  8
DEFPOINTS
 62
     0
 48
50.0
100
AcDbPoint
 10
8277.322920841385
 20
7846.123139034709
 30
0.0
  0
ENDBLK
  5
18C23
330
18C16
100
AcDbEntity
  8
0
 48
50.0
100
AcDbBlockEnd
  0
BLOCK
  5
18C25
330
18C24
100
AcDbEntity
  8
0
 48
50.0
100
AcDbBlockBegin
  2
*D10
 70
     1
 10
0.0
 20
0.0
 30
0.0
  3
*D10
  1

  0
LINE
  5
18C26
330
18C24
100
AcDbEntity
  8
寸法
 62
     0
 48
50.0
370
    -2
100
AcDbLine
 10
6533.037591258376
 20
9136.123139034728
 30
0.0
 11
6465.083950562664
 21
8882.516699399049
 31
0.0
  0
LINE
  5
18C27
330
18C24
100
AcDbEntity
  8
寸法
 62
     0
 48
50.0
370
    -2
100
AcDbLine
 10
7596.037591258388
 20
9136.123139034721
 30
0.0
 11
7528.083950562677
 21
8882.516699399049
 31
0.0
  0
LINE
  5
18C28
330
18C24
100
AcDbEntity
  8
寸法
 62
     0
 48
50.0
370
    -2
100
AcDbLine
 10
6481.160902108531
 20
8942.51669939905
 30
0.0
 11
7544.160902108544
 21
8942.51669939905
 31
0.0
  0
INSERT
  5
18C29
330
18C24
100
AcDbEntity
  8
寸法
 62
     0
 48
50.0
370
    -2
100
AcDbBlockReference
  2
_DOTSMALL
 10
6481.160902108531
 20
8942.51669939905
 30
0.0
 41
100.0
 42
100.0
 43
100.0
 50
180.0
  0
INSERT
  5
18C2A
330
18C24
100
AcDbEntity
  8
寸法
 62
     0
 48
50.0
370
    -2
100
AcDbBlockReference
  2
_DOTSMALL
 10
7544.160902108544
 20
8942.51669939905
 30
0.0
 41
100.0
 42
100.0
 43
100.0
  0
MTEXT
  5
18C2B
330
18C24
100
AcDbEntity
  8
寸法
 62
     7
 48
50.0
100
AcDbMText
 10
7061.28653022935
 20
9042.516699399049
 30
0.0
 40
120.0
 41
0.0
 71
     5
 72
     1
  1
\A1;1063
  7
STYLE1
 73
     1
 44
1.0
1001
ACAD
1000
MTEXTBEGIN
1070
    73
1070
     1
1070
    44
1040
1.0
1070
    74
1070
     0
1000
MTEXTEND
  0
POINT
  5
18C2C
330
18C24
100
AcDbEntity
  8
DEFPOINTS
 62
     0
 48
50.0
100
AcDbPoint
 10
6538.396575106998
 20
9156.123139034727
 30
0.0
  0
POINT
  5
18C2D
330
18C24
100
AcDbEntity
  8
DEFPOINTS
 62
     0
 48
50.0
100
AcDbPoint
 10
7601.39657510701
 20
9156.12313903472
 30
0.0
  0
POINT
  5
18C2E
330
18C24
100
AcDbEntity
  8
DEFPOINTS
 62
     0
 48
50.0
100
AcDbPoint
 10
7544.160902108544
 20
8942.51669939905
 30
0.0
  0
ENDBLK
  5
18C2F
330
18C24
100
AcDbEntity
  8
0
 48
50.0
100
AcDbBlockEnd
  0
BLOCK
  5
18C31
330
18C30
100
AcDbEntity
  8
0
 48
50.0
100
AcDbBlockBegin
  2
*D11
 70
     1
 10
0.0
 20
0.0
 30
0.0
  3
*D11
  1

  0
LINE
  5
18C32
330
18C30
100
AcDbEntity
  8
寸法
 62
     0
 48
50.0
370
    -2
100
AcDbLine
 10
7621.396575106999
 20
9600.764155186094
 30
0.0
 11
8016.754300969024
 21
9494.828371819961
 31
0.0
  0
LINE
  5
18C33
330
18C30
100
AcDbEntity
  8
寸法
 62
     0
 48
50.0
370
    -2
100
AcDbLine
 10
7621.396575106999
 20
9150.764155186099
 30
0.0
 11
8016.754300969024
 21
9044.828371819964
 31
0.0
  0
LINE
  5
18C34
330
18C30
100
AcDbEntity
  8
寸法
 62
     0
 48
50.0
370
    -2
100
AcDbLine
 10
7956.754300969024
 20
9510.905323365827
 30
0.0
 11
7956.754300969024
 21
9060.90532336583
 31
0.0
  0
INSERT
  5
18C35
330
18C30
100
AcDbEntity
  8
寸法
 62
     0
 48
50.0
370
    -2
100
AcDbBlockReference
  2
_DOTSMALL
 10
7956.754300969024
 20
9510.905323365827
 30
0.0
 41
100.0
 42
100.0
 43
100.0
 50
90.0
  0
INSERT
  5
18C36
330
18C30
100
AcDbEntity
  8
寸法
 62
     0
 48
50.0
370
    -2
100
AcDbBlockReference
  2
_DOTSMALL
 10
7956.754300969024
 20
9060.90532336583
 30
0.0
 41
100.0
 42
100.0
 43
100.0
 50
270.0
  0
MTEXT
  5
18C37
330
18C30
100
AcDbEntity
  8
寸法
 62
     7
 48
50.0
100
AcDbMText
 10
7856.754300969022
 20
9285.905323365829
 30
0.0
 40
120.0
 41
0.0
 71
     5
 72
     1
  1
\A1;450
  7
STYLE1
 11
0.0000000000000001
 21
1.0
 31
0.0
 73
     1
 44
1.0
1001
ACAD
1000
MTEXTBEGIN
1070
    73
1070
     1
1070
    44
1040
1.0
1070
    74
1070
     0
1000
MTEXTEND
  0
POINT
  5
18C38
330
18C30
100
AcDbEntity
  8
DEFPOINTS
 62
     0
 48
50.0
100
AcDbPoint
 10
7601.396575106999
 20
9606.123139034718
 30
0.0
  0
POINT
  5
18C39
330
18C30
100
AcDbEntity
  8
DEFPOINTS
 62
     0
 48
50.0
100
AcDbPoint
 10
7601.396575106999
 20
9156.12313903472
 30
0.0
  0
POINT
  5
18C3A
330
18C30
100
AcDbEntity
  8
DEFPOINTS
 62
     0
 48
50.0
100
AcDbPoint
 10
7956.754300969024
 20
9060.90532336583
 30
0.0
  0
ENDBLK
  5
18C3B
330
18C30
100
AcDbEntity
  8
0
 48
50.0
100
AcDbBlockEnd
  0
BLOCK
  5
18C3D
330
18C3C
100
AcDbEntity
  8
0
 48
50.0
100
AcDbBlockBegin
  2
*D12
 70
     1
 10
0.0
 20
0.0
 30
0.0
  3
*D12
  1

  0
LINE
  5
18C3E
330
18C3C
100
AcDbEntity
  8
寸法
 62
     0
 48
50.0
370
    -2
100
AcDbLine
 10
7649.896575106999
 20
9581.123139034721
 30
0.0
 11
8337.32292084141
 21
9581.123139034721
 31
0.0
  0
LINE
  5
18C3F
330
18C3C
100
AcDbEntity
  8
寸法
 62
     0
 48
50.0
370
    -2
100
AcDbLine
 10
7649.896575106973
 20
7901.123139034706
 30
0.0
 11
8337.32292084141
 21
7901.123139034706
 31
0.0
  0
LINE
  5
18C40
330
18C3C
100
AcDbEntity
  8
寸法
 62
     0
 48
50.0
370
    -2
100
AcDbLine
 10
8277.322920841411
 20
9581.123139034721
 30
0.0
 11
8277.322920841411
 21
7901.123139034706
 31
0.0
  0
INSERT
  5
18C41
330
18C3C
100
AcDbEntity
  8
寸法
 62
     0
 48
50.0
370
    -2
100
AcDbBlockReference
  2
_DOTSMALL
 10
8277.322920841411
 20
9581.123139034721
 30
0.0
 41
100.0
 42
100.0
 43
100.0
 50
90.0
  0
INSERT
  5
18C42
330
18C3C
100
AcDbEntity
  8
寸法
 62
     0
 48
50.0
370
    -2
100
AcDbBlockReference
  2
_DOTSMALL
 10
8277.322920841411
 20
7901.123139034706
 30
0.0
 41
100.0
 42
100.0
 43
100.0
 50
270.0
  0
MTEXT
  5
18C43
330
18C3C
100
AcDbEntity
  8
寸法
 62
     7
 48
50.0
100
AcDbMText
 10
8177.311109817788
 20
8741.123139034712
 30
0.0
 40
120.0
 41
0.0
 71
     5
 72
     1
  1
\A1;4X420=1680
  7
STYLE1
 11
0.0000000000000001
 21
1.0
 31
0.0
 73
     1
 44
1.0
1001
ACAD
1000
MTEXTBEGIN
1070
    73
1070
     1
1070
    44
1040
1.0
1070
    74
1070
     0
1000
MTEXTEND
  0
POINT
  5
18C44
330
18C3C
100
AcDbEntity
  8
DEFPOINTS
 62
     0
 48
50.0
100
AcDbPoint
 10
7629.896575106998
 20
9581.123139034721
 30
0.0
  0
POINT
  5
18C45
330
18C3C
100
AcDbEntity
  8
DEFPOINTS
 62
     0
 48
50.0
100
AcDbPoint
 10
7629.896575106974
 20
7901.123139034706
 30
0.0
  0
POINT
  5
18C46
330
18C3C
100
AcDbEntity
  8
DEFPOINTS
 62
     0
 48
50.0
100
AcDbPoint
 10
8277.322920841411
 20
7901.123139034706
 30
0.0
  0
ENDBLK
  5
18C47
330
18C3C
100
AcDbEntity
  8
0
 48
50.0
100
AcDbBlockEnd
  0
BLOCK
  5
18C49
330
18C48
100
AcDbEntity
  8
0
 48
50.0
100
AcDbBlockBegin
  2
*D13
 70
     1
 10
0.0
 20
0.0
 30
0.0
  3
*D13
  1

  0
LINE
  5
18C4A
330
18C48
100
AcDbEntity
  8
寸法
 62
     0
 48
50.0
370
    -2
100
AcDbLine
 10
4183.037591258377
 20
9136.123139034619
 30
0.0
 11
4115.083950562663
 21
8882.516699398941
 31
0.0
  0
LINE
  5
18C4B
330
18C48
100
AcDbEntity
  8
寸法
 62
     0
 48
50.0
370
    -2
100
AcDbLine
 10
5246.037591258307
 20
9136.123139034671
 30
0.0
 11
5178.08395056258
 21
8882.516699398941
 31
0.0
  0
LINE
  5
18C4C
330
18C48
100
AcDbEntity
  8
寸法
 62
     0
 48
50.0
370
    -2
100
AcDbLine
 10
4131.160902108532
 20
8942.516699398941
 30
0.0
 11
5194.160902108448
 21
8942.516699398941
 31
0.0
  0
INSERT
  5
18C4D
330
18C48
100
AcDbEntity
  8
寸法
 62
     0
 48
50.0
370
    -2
100
AcDbBlockReference
  2
_DOTSMALL
 10
4131.160902108532
 20
8942.516699398941
 30
0.0
 41
100.0
 42
100.0
 43
100.0
 50
180.0
  0
INSERT
  5
18C4E
330
18C48
100
AcDbEntity
  8
寸法
 62
     0
 48
50.0
370
    -2
100
AcDbBlockReference
  2
_DOTSMALL
 10
5194.160902108448
 20
8942.516699398941
 30
0.0
 41
100.0
 42
100.0
 43
100.0
  0
MTEXT
  5
18C4F
330
18C48
100
AcDbEntity
  8
寸法
 62
     7
 48
50.0
100
AcDbMText
 10
4658.986452655306
 20
9042.516699398941
 30
0.0
 40
120.0
 41
0.0
 71
     5
 72
     1
  1
\A1;1063
  7
STYLE1
 73
     1
 44
1.0
1001
ACAD
1000
MTEXTBEGIN
1070
    73
1070
     1
1070
    44
1040
1.0
1070
    74
1070
     0
1000
MTEXTEND
  0
POINT
  5
18C50
330
18C48
100
AcDbEntity
  8
DEFPOINTS
 62
     0
 48
50.0
100
AcDbPoint
 10
4188.396575106999
 20
9156.123139034617
 30
0.0
  0
POINT
  5
18C51
330
18C48
100
AcDbEntity
  8
DEFPOINTS
 62
     0
 48
50.0
100
AcDbPoint
 10
5251.396575106929
 20
9156.123139034672
 30
0.0
  0
POINT
  5
18C52
330
18C48
100
AcDbEntity
  8
DEFPOINTS
 62
     0
 48
50.0
100
AcDbPoint
 10
5194.160902108448
 20
8942.516699398941
 30
0.0
  0
ENDBLK
  5
18C53
330
18C48
100
AcDbEntity
  8
0
 48
50.0
100
AcDbBlockEnd
  0
BLOCK
  5
18C55
330
18C54
100
AcDbEntity
  8
0
 48
50.0
100
AcDbBlockBegin
  2
*D14
 70
     1
 10
0.0
 20
0.0
 30
0.0
  3
*D14
  1

  0
LINE
  5
18C56
330
18C54
100
AcDbEntity
  8
寸法
 62
     0
 48
50.0
370
    -2
100
AcDbLine
 10
5274.037591258307
 20
9136.123139034669
 30
0.0
 11
5206.08395056258
 21
8882.516699398941
 31
0.0
  0
LINE
  5
18C57
330
18C54
100
AcDbEntity
  8
寸法
 62
     0
 48
50.0
370
    -2
100
AcDbLine
 10
6505.037591258377
 20
9136.123139034662
 30
0.0
 11
6437.083950562653
 21
8882.516699398941
 31
0.0
  0
LINE
  5
18C58
330
18C54
100
AcDbEntity
  8
寸法
 62
     0
 48
50.0
370
    -2
100
AcDbLine
 10
5222.160902108448
 20
8942.516699398941
 30
0.0
 11
6453.16090210852
 21
8942.516699398941
 31
0.0
  0
INSERT
  5
18C59
330
18C54
100
AcDbEntity
  8
寸法
 62
     0
 48
50.0
370
    -2
100
AcDbBlockReference
  2
_DOTSMALL
 10
5222.160902108448
 20
8942.516699398941
 30
0.0
 41
100.0
 42
100.0
 43
100.0
 50
180.0
  0
INSERT
  5
18C5A
330
18C54
100
AcDbEntity
  8
寸法
 62
     0
 48
50.0
370
    -2
100
AcDbBlockReference
  2
_DOTSMALL
 10
6453.16090210852
 20
8942.516699398941
 30
0.0
 41
100.0
 42
100.0
 43
100.0
  0
MTEXT
  5
18C5B
330
18C54
100
AcDbEntity
  8
寸法
 62
     7
 48
50.0
100
AcDbMText
 10
6081.244808320626
 20
9042.528510422561
 30
0.0
 40
120.0
 41
0.0
 71
     5
 72
     1
  1
\A1;1231
  7
STYLE1
 73
     1
 44
1.0
1001
ACAD
1000
MTEXTBEGIN
1070
    73
1070
     1
1070
    44
1040
1.0
1070
    74
1070
     0
1000
MTEXTEND
  0
POINT
  5
18C5C
330
18C54
100
AcDbEntity
  8
DEFPOINTS
 62
     0
 48
50.0
100
AcDbPoint
 10
5279.396575106929
 20
9156.123139034669
 30
0.0
  0
POINT
  5
18C5D
330
18C54
100
AcDbEntity
  8
DEFPOINTS
 62
     0
 48
50.0
100
AcDbPoint
 10
6510.396575106999
 20
9156.123139034662
 30
0.0
  0
POINT
  5
18C5E
330
18C54
100
AcDbEntity
  8
DEFPOINTS
 62
     0
 48
50.0
100
AcDbPoint
 10
6453.16090210852
 20
8942.516699398941
 30
0.0
  0
ENDBLK
  5
18C5F
330
18C54
100
AcDbEntity
  8
0
 48
50.0
100
AcDbBlockEnd
  0
BLOCK
  5
18C61
330
18C60
100
AcDbEntity
  8
0
 48
50.0
100
AcDbBlockBegin
  2
*D15
 70
     1
 10
0.0
 20
0.0
 30
0.0
  3
*D15
  1

  0
LINE
  5
18C62
330
18C60
100
AcDbEntity
  8
寸法
 62
     0
 48
50.0
370
    -2
100
AcDbLine
 10
5065.896575106966
 20
7749.123139034579
 30
0.0
 11
5065.896575106966
 21
7099.952920982538
 31
0.0
  0
LINE
  5
18C63
330
18C60
100
AcDbEntity
  8
寸法
 62
     0
 48
50.0
370
    -2
100
AcDbLine
 10
6331.896575106966
 20
7749.123139034579
 30
0.0
 11
6331.896575106966
 21
7099.952920982538
 31
0.0
  0
LINE
  5
18C64
330
18C60
100
AcDbEntity
  8
寸法
 62
     0
 48
50.0
370
    -2
100
AcDbLine
 10
5065.896575106966
 20
7159.952920982537
 30
0.0
 11
6331.896575106966
 21
7159.952920982537
 31
0.0
  0
INSERT
  5
18C65
330
18C60
100
AcDbEntity
  8
寸法
 62
     0
 48
50.0
370
    -2
100
AcDbBlockReference
  2
_DOTSMALL
 10
5065.896575106966
 20
7159.952920982537
 30
0.0
 41
100.0
 42
100.0
 43
100.0
 50
180.0
  0
INSERT
  5
18C66
330
18C60
100
AcDbEntity
  8
寸法
 62
     0
 48
50.0
370
    -2
100
AcDbBlockReference
  2
_DOTSMALL
 10
6331.896575106966
 20
7159.952920982537
 30
0.0
 41
100.0
 42
100.0
 43
100.0
  0
MTEXT
  5
18C67
330
18C60
100
AcDbEntity
  8
寸法
 62
     7
 48
50.0
100
AcDbMText
 10
5711.986008735934
 20
7359.964732006159
 30
0.0
 40
120.0
 41
0.0
 71
     5
 72
     1
  1
\A1;有効開口部間口\P1266
  7
STYLE1
 73
     1
 44
1.0
1001
ACAD
1000
MTEXTBEGIN
1070
    73
1070
     1
1070
    44
1040
1.0
1070
    74
1070
     0
1000
MTEXTEND
  0
POINT
  5
18C68
330
18C60
100
AcDbEntity
  8
DEFPOINTS
 62
     0
 48
50.0
100
AcDbPoint
 10
5065.896575106966
 20
7769.123139034579
 30
0.0
  0
POINT
  5
18C69
330
18C60
100
AcDbEntity
  8
DEFPOINTS
 62
     0
 48
50.0
100
AcDbPoint
 10
6331.896575106966
 20
7769.123139034579
 30
0.0
  0
POINT
  5
18C6A
330
18C60
100
AcDbEntity
  8
DEFPOINTS
 62
     0
 48
50.0
100
AcDbPoint
 10
6331.896575106966
 20
7159.952920982537
 30
0.0
  0
ENDBLK
  5
18C6B
330
18C60
100
AcDbEntity
  8
0
 48
50.0
100
AcDbBlockEnd
  0
BLOCK
  5
18C6D
330
18C6C
100
AcDbEntity
  8
0
 48
50.0
100
AcDbBlockBegin
  2
*D16
 70
     1
 10
0.0
 20
0.0
 30
0.0
  3
*D16
  1

  0
LINE
  5
18C6E
330
18C6C
100
AcDbEntity
  8
寸法
 62
     0
 48
50.0
370
    -2
100
AcDbLine
 10
7200.896575106966
 20
7846.123139034578
 30
0.0
 11
7457.192158500191
 21
7846.123139034578
 31
0.0
  0
LINE
  5
18C6F
330
18C6C
100
AcDbEntity
  8
寸法
 62
     0
 48
50.0
370
    -2
100
AcDbLine
 10
7199.896575106966
 20
7769.123139034579
 30
0.0
 11
7457.192158500191
 21
7769.123139034579
 31
0.0
  0
LINE
  5
18C70
330
18C6C
100
AcDbEntity
  8
寸法
 62
     0
 48
50.0
370
    -2
100
AcDbLine
 10
7417.192158500192
 20
7866.123139034579
 30
0.0
 11
7417.192158500192
 21
7886.123139034578
 31
0.0
  0
LINE
  5
18C71
330
18C6C
100
AcDbEntity
  8
寸法
 62
     0
 48
50.0
370
    -2
100
AcDbLine
 10
7417.192158500192
 20
7749.123139034579
 30
0.0
 11
7417.192158500192
 21
7533.123139034573
 31
0.0
  0
LINE
  5
18C72
330
18C6C
100
AcDbEntity
  8
寸法
 62
     0
 48
50.0
370
    -2
100
AcDbLine
 10
7417.192158500192
 20
7846.123139034578
 30
0.0
 11
7417.192158500192
 21
7769.123139034579
 31
0.0
  0
INSERT
  5
18C73
330
18C6C
100
AcDbEntity
  8
寸法
 62
     0
 48
50.0
370
    -2
100
AcDbBlockReference
  2
_DOT
 10
7417.192158500192
 20
7846.123139034578
 30
0.0
 41
20.0
 42
20.0
 43
20.0
 50
270.0
  0
INSERT
  5
18C74
330
18C6C
100
AcDbEntity
  8
寸法
 62
     0
 48
50.0
370
    -2
100
AcDbBlockReference
  2
_DOT
 10
7417.192158500192
 20
7769.123139034579
 30
0.0
 41
20.0
 42
20.0
 43
20.0
 50
90.0
  0
MTEXT
  5
18C75
330
18C6C
100
AcDbEntity
  8
寸法
 62
     7
 48
50.0
100
AcDbMText
 10
7325.192158500191
 20
7631.123139034575
 30
0.0
 40
120.0
 41
0.0
 71
     5
 72
     1
  1
\A1;77
  7
STYLE1
 11
0.0000000000000001
 21
1.0
 31
0.0
 73
     1
 44
1.0
1001
ACAD
1000
MTEXTBEGIN
1070
    73
1070
     1
1070
    44
1040
1.0
1070
    74
1070
     0
1000
MTEXTEND
  0
POINT
  5
18C76
330
18C6C
100
AcDbEntity
  8
DEFPOINTS
 62
     0
 48
50.0
100
AcDbPoint
 10
7180.896575106967
 20
7846.123139034578
 30
0.0
  0
POINT
  5
18C77
330
18C6C
100
AcDbEntity
  8
DEFPOINTS
 62
     0
 48
50.0
100
AcDbPoint
 10
7179.896575106965
 20
7769.123139034579
 30
0.0
  0
POINT
  5
18C78
330
18C6C
100
AcDbEntity
  8
DEFPOINTS
 62
     0
 48
50.0
100
AcDbPoint
 10
7417.192158500192
 20
7769.123139034579
 30
0.0
  0
ENDBLK
  5
18C79
330
18C6C
100
AcDbEntity
  8
0
 48
50.0
100
AcDbBlockEnd
  0
BLOCK
  5
18DA0
330
18C7A
100
AcDbEntity
  8
0
 48
50.0
100
AcDbBlockBegin
  2
A$C3B1A506B
 70
     0
 10
0.0
 20
0.0
 30
0.0
  3
A$C3B1A506B
  1

  0
MTEXT
  5
18C7B
330
18C7A
100
AcDbEntity
  8
寸法
 62
     7
 48
50.0
100
AcDbMText
 10
3342.250386887194
 20
2778.329429134012
 30
0.0
 40
96.0
 41
0.0
 71
     5
 72
     1
  1
棚 2段
  7
STYLE1
 73
     1
 44
1.0
1001
ACAD
1000
MTEXTBEGIN
1070
    73
1070
     1
1070
    44
1040
1.0
1070
    74
1070
     0
1000
MTEXTEND
  0
MTEXT
  5
18C7C
330
18C7A
100
AcDbEntity
  8
寸法
 62
     7
 48
50.0
100
AcDbMText
 10
2167.25038688716
 20
2778.329429133986
 30
0.0
 40
96.0
 41
0.0
 71
     5
 72
     1
  1
棚 2段
  7
STYLE1
 73
     1
 44
1.0
1001
ACAD
1000
MTEXTBEGIN
1070
    73
1070
     1
1070
    44
1040
1.0
1070
    74
1070
     0
1000
MTEXTEND
  0
MTEXT
  5
18C7D
330
18C7A
100
AcDbEntity
  8
寸法
 62
     7
 48
50.0
100
AcDbMText
 10
992.2503868871608
 20
2778.329429133935
 30
0.0
 40
96.0
 41
0.0
 71
     5
 72
     1
  1
棚 2段
  7
STYLE1
 73
     1
 44
1.0
1001
ACAD
1000
MTEXTBEGIN
1070
    73
1070
     1
1070
    44
1040
1.0
1070
    74
1070
     0
1000
MTEXTEND
  0
LINE
  5
18C7E
330
18C7A
100
AcDbEntity
  8
細線
 48
50.0
100
AcDbLine
 10
2771.970589276527
 20
1368.994384123192
 30
0.0
 11
3398.970589276523
 21
1368.994384123192
 31
0.0
  0
LINE
  5
18C7F
330
18C7A
100
AcDbEntity
  8
細線
 48
50.0
100
AcDbLine
 10
2117.970593930113
 20
1335.285615569113
 30
0.0
 11
3398.970589276523
 21
1335.285615569113
 31
0.0
  0
LINE
  5
18C80
330
18C7A
100
AcDbEntity
  8
細線
 48
50.0
100
AcDbLine
 10
2076.970593930115
 20
1364.690523565368
 30
0.0
 11
1322.970589276523
 21
1364.690523565367
 31
0.0
  0
LINE
  5
18C81
330
18C7A
100
AcDbEntity
  8
細線
100
AcDbLine
 10
3170.720579860066
 20
1388.494284088199
 30
0.0
 11
3173.052119381877
 21
1393.494286728162
 31
0.0
  0
LINE
  5
18C82
330
18C7A
100
AcDbEntity
  8
細線
100
AcDbLine
 10
3240.720589276525
 20
1388.494269174465
 30
0.0
 11
3238.389042800336
 21
1393.494286728144
 31
0.0
  0
LINE
  5
18C83
330
18C7A
100
AcDbEntity
  8
細線
100
AcDbLine
 10
3238.389042800336
 20
1393.494286728144
 30
0.0
 11
3173.052119381862
 21
1393.494286728133
 31
0.0
  0
LINE
  5
18C84
330
18C7A
100
AcDbEntity
  8
細線
100
AcDbLine
 10
3098.389042800336
 20
1393.494286728144
 30
0.0
 11
3033.052119381862
 21
1393.494286728133
 31
0.0
  0
LINE
  5
18C85
330
18C7A
100
AcDbEntity
  8
細線
100
AcDbLine
 10
3100.720589276523
 20
1388.494269174465
 30
0.0
 11
3098.389042800336
 21
1393.494286728144
 31
0.0
  0
LINE
  5
18C86
330
18C7A
100
AcDbEntity
  8
細線
100
AcDbLine
 10
3030.720579860066
 20
1388.494284088199
 30
0.0
 11
3033.052119381875
 21
1393.494286728162
 31
0.0
  0
LINE
  5
18C87
330
18C7A
100
AcDbEntity
  8
細線
100
AcDbLine
 10
2890.720589276525
 20
1388.494269174465
 30
0.0
 11
2893.052128798336
 21
1393.494271814428
 31
0.0
  0
LINE
  5
18C88
330
18C7A
100
AcDbEntity
  8
細線
100
AcDbLine
 10
2960.720598692984
 20
1388.494254260731
 30
0.0
 11
2958.389052216793
 21
1393.49427181441
 31
0.0
  0
LINE
  5
18C89
330
18C7A
100
AcDbEntity
  8
細線
100
AcDbLine
 10
2958.389052216795
 20
1393.49427181441
 30
0.0
 11
2893.052128798321
 21
1393.494271814399
 31
0.0
  0
LINE
  5
18C8A
330
18C7A
100
AcDbEntity
  8
細線
100
AcDbLine
 10
2667.139038146739
 20
1359.494298590735
 30
0.0
 11
2601.802114728263
 21
1359.494298590724
 31
0.0
  0
LINE
  5
18C8B
330
18C7A
100
AcDbEntity
  8
細線
100
AcDbLine
 10
2669.470584622926
 20
1354.494281037055
 30
0.0
 11
2667.139038146737
 21
1359.494298590735
 31
0.0
  0
LINE
  5
18C8C
330
18C7A
100
AcDbEntity
  8
細線
100
AcDbLine
 10
2599.470575206469
 20
1354.49429595079
 30
0.0
 11
2601.802114728278
 21
1359.494298590752
 31
0.0
  0
LINE
  5
18C8D
330
18C7A
100
AcDbEntity
  8
細線
 48
50.0
100
AcDbLine
 10
2440.853968524536
 20
1372.765132327548
 30
0.0
 11
2446.609486107205
 21
1354.494281037057
 31
0.0
  0
LINE
  5
18C8E
330
18C7A
100
AcDbEntity
  8
細線
 48
50.0
100
AcDbLine
 10
2429.925520044106
 20
1372.765132327546
 30
0.0
 11
2440.853968524536
 21
1372.765132327548
 31
0.0
  0
ARC
  5
18C8F
330
18C7A
100
AcDbEntity
  8
細線
 48
50.0
100
AcDbCircle
 10
2424.471163986787
 20
1374.265132327546
 30
0.0
 40
5.0
100
AcDbArc
 50
204.6243183520723
 51
335.3756816479278
  0
ARC
  5
18C90
330
18C7A
100
AcDbEntity
  8
細線
 48
50.0
100
AcDbCircle
 10
2429.925520044106
 20
1371.765132327546
 30
0.0
 40
1.0
100
AcDbArc
 50
90.0
 51
155.3756816479277
  0
ARC
  5
18C91
330
18C7A
100
AcDbEntity
  8
細線
 48
50.0
100
AcDbCircle
 10
2419.016807929469
 20
1371.765132327546
 30
0.0
 40
1.0
100
AcDbArc
 50
24.62431835207225
 51
90.0
  0
LINE
  5
18C92
330
18C7A
100
AcDbEntity
  8
細線
 48
50.0
100
AcDbLine
 10
2408.088359449037
 20
1372.765132327548
 30
0.0
 11
2419.016807929469
 21
1372.765132327546
 31
0.0
  0
LINE
  5
18C93
330
18C7A
100
AcDbEntity
  8
細線
 48
50.0
100
AcDbLine
 10
2402.33284186637
 20
1354.494281037054
 30
0.0
 11
2408.088359449037
 21
1372.765132327548
 31
0.0
  0
LINE
  5
18C94
330
18C7A
100
AcDbEntity
  8
細線
100
AcDbLine
 10
2458.070304175992
 20
1354.494278397076
 30
0.0
 11
2460.401843697802
 21
1359.494281037039
 31
0.0
  0
LINE
  5
18C95
330
18C7A
100
AcDbEntity
  8
細線
100
AcDbLine
 10
2528.070313592451
 20
1354.494263483342
 30
0.0
 11
2525.738767116262
 21
1359.494281037021
 31
0.0
  0
LINE
  5
18C96
330
18C7A
100
AcDbEntity
  8
細線
100
AcDbLine
 10
2525.738767116262
 20
1359.494281037021
 30
0.0
 11
2460.40184369779
 21
1359.49428103701
 31
0.0
  0
LINE
  5
18C97
330
18C7A
100
AcDbEntity
  8
細線
100
AcDbLine
 10
2387.139046332155
 20
1359.494281037021
 30
0.0
 11
2321.80212291368
 21
1359.49428103701
 31
0.0
  0
LINE
  5
18C98
330
18C7A
100
AcDbEntity
  8
細線
100
AcDbLine
 10
2389.470592808342
 20
1354.494263483342
 30
0.0
 11
2387.139046332153
 21
1359.494281037021
 31
0.0
  0
LINE
  5
18C99
330
18C7A
100
AcDbEntity
  8
細線
100
AcDbLine
 10
2319.470584622926
 20
1354.494281037054
 30
0.0
 11
2321.802122913694
 21
1359.494281037039
 31
0.0
  0
LINE
  5
18C9A
330
18C7A
100
AcDbEntity
  8
細線
100
AcDbLine
 10
2179.47061994182
 20
1354.494289224422
 30
0.0
 11
2181.802158232587
 21
1359.494289224407
 31
0.0
  0
LINE
  5
18C9B
330
18C7A
100
AcDbEntity
  8
細線
100
AcDbLine
 10
2249.470628127236
 20
1354.49427167071
 30
0.0
 11
2247.139081651047
 21
1359.494289224389
 31
0.0
  0
LINE
  5
18C9C
330
18C7A
100
AcDbEntity
  8
細線
100
AcDbLine
 10
2247.139081651047
 20
1359.494289224389
 30
0.0
 11
2181.802158232573
 21
1359.494289224378
 31
0.0
  0
LINE
  5
18C9D
330
18C7A
100
AcDbEntity
  8
細線
100
AcDbLine
 10
1807.970585744697
 20
1320.494460905133
 30
0.0
 11
1810.302124035464
 21
1325.494460905118
 31
0.0
  0
LINE
  5
18C9E
330
18C7A
100
AcDbEntity
  8
細線
100
AcDbLine
 10
1877.970593930113
 20
1320.494443351421
 30
0.0
 11
1875.639047453926
 21
1325.4944609051
 31
0.0
  0
LINE
  5
18C9F
330
18C7A
100
AcDbEntity
  8
細線
100
AcDbLine
 10
1875.639047453926
 20
1325.4944609051
 30
0.0
 11
1810.302124035452
 21
1325.494460905089
 31
0.0
  0
LINE
  5
18CA0
330
18C7A
100
AcDbEntity
  8
細線
100
AcDbLine
 10
2015.639047453926
 20
1325.4944609051
 30
0.0
 11
1950.302124035452
 21
1325.494460905089
 31
0.0
  0
LINE
  5
18CA1
330
18C7A
100
AcDbEntity
  8
細線
100
AcDbLine
 10
2017.970593930113
 20
1320.494443351421
 30
0.0
 11
2015.639047453924
 21
1325.4944609051
 31
0.0
  0
LINE
  5
18CA2
330
18C7A
100
AcDbEntity
  8
細線
100
AcDbLine
 10
1947.970585744697
 20
1320.494460905133
 30
0.0
 11
1950.302124035465
 21
1325.494460905118
 31
0.0
  0
LINE
  5
18CA3
330
18C7A
100
AcDbEntity
  8
細線
100
AcDbLine
 10
1735.639047453926
 20
1325.494460905098
 30
0.0
 11
1670.302124035454
 21
1325.494460905087
 31
0.0
  0
LINE
  5
18CA4
330
18C7A
100
AcDbEntity
  8
細線
100
AcDbLine
 10
1737.970593930113
 20
1320.494443351419
 30
0.0
 11
1735.639047453926
 21
1325.494460905098
 31
0.0
  0
LINE
  5
18CA5
330
18C7A
100
AcDbEntity
  8
細線
100
AcDbLine
 10
1667.970585744697
 20
1320.494460905131
 30
0.0
 11
1670.302124035465
 21
1325.494460905116
 31
0.0
  0
LINE
  5
18CA6
330
18C7A
100
AcDbEntity
  8
細線
100
AcDbLine
 10
1527.970593930113
 20
1320.494460905133
 30
0.0
 11
1530.302132220881
 21
1325.494460905118
 31
0.0
  0
LINE
  5
18CA7
330
18C7A
100
AcDbEntity
  8
細線
100
AcDbLine
 10
1597.970602115529
 20
1320.494443351421
 30
0.0
 11
1595.639055639342
 21
1325.4944609051
 31
0.0
  0
LINE
  5
18CA8
330
18C7A
100
AcDbEntity
  8
細線
100
AcDbLine
 10
1595.639055639342
 20
1325.4944609051
 30
0.0
 11
1530.302132220869
 21
1325.494460905089
 31
0.0
  0
ARC
  5
18CA9
330
18C7A
100
AcDbEntity
  8
部品1
 48
0.01
100
AcDbCircle
 10
1483.470482677778
 20
1319.493338720063
 30
0.0
 40
0.5
100
AcDbArc
 50
270.0
 51
0.0
  0
LINE
  5
18CAA
330
18C7A
100
AcDbEntity
  8
部品1
 48
0.01
100
AcDbLine
 10
1483.970482677778
 20
1320.493338720063
 30
0.0
 11
1483.970482677778
 21
1319.493338720063
 31
0.0
  0
LINE
  5
18CAB
330
18C7A
100
AcDbEntity
  8
部品1
 48
0.01
100
AcDbLine
 10
1483.970482677778
 20
1320.493338720063
 30
0.0
 11
1483.970482677778
 21
1319.493338720063
 31
0.0
  0
LINE
  5
18CAC
330
18C7A
100
AcDbEntity
  8
部品1
 48
0.01
100
AcDbLine
 10
1483.470482677778
 20
1318.993338720063
 30
0.0
 11
1476.857977247713
 21
1318.993338720062
 31
0.0
  0
ARC
  5
18CAD
330
18C7A
100
AcDbEntity
  8
部品1
100
AcDbCircle
 10
1476.926326800494
 20
1319.993338720062
 30
0.0
 40
1.0
100
AcDbArc
 50
160.5287793655865
 51
270.0
  0
ARC
  5
18CAE
330
18C7A
100
AcDbEntity
  8
部品1
100
AcDbCircle
 10
1451.470482677778
 20
1328.993338720062
 30
0.0
 40
26.0
100
AcDbArc
 50
340.5287793655865
 51
0.0
  0
LINE
  5
18CAF
330
18C7A
100
AcDbEntity
  8
部品1
100
AcDbLine
 10
1477.470482677778
 20
1328.993338720062
 30
0.0
 11
1477.470482677778
 21
1333.993338720061
 31
0.0
  0
ARC
  5
18CB0
330
18C7A
100
AcDbEntity
  8
部品1
 48
0.01
100
AcDbCircle
 10
1475.470482677778
 20
1333.993338720061
 30
0.0
 40
2.0
100
AcDbArc
 50
0.0
 51
90.0
  0
ARC
  5
18CB1
330
18C7A
100
AcDbEntity
  8
部品1
100
AcDbCircle
 10
1473.862091052968
 20
1332.993338720062
 30
0.0
 40
3.0
100
AcDbArc
 50
90.0
 51
141.6069559808035
  0
LINE
  5
18CB2
330
18C7A
100
AcDbEntity
  8
部品1
 48
0.01
100
AcDbLine
 10
1475.470482677778
 20
1335.993338720062
 30
0.0
 11
1473.862091052968
 21
1335.993338720062
 31
0.0
  0
ARC
  5
18CB3
330
18C7A
100
AcDbEntity
  8
部品1
100
AcDbCircle
 10
1455.399768463507
 20
1332.293338720065
 30
0.0
 40
3.0
100
AcDbArc
 50
254.0576313943215
 51
270.0
  0
ARC
  5
18CB4
330
18C7A
100
AcDbEntity
  8
部品1
100
AcDbCircle
 10
1462.541196892049
 20
1332.293338720065
 30
0.0
 40
3.0
100
AcDbArc
 50
270.0
 51
285.9423686056786
  0
LINE
  5
18CB5
330
18C7A
100
AcDbEntity
  8
部品1
100
AcDbLine
 10
1462.541196892049
 20
1329.293338720064
 30
0.0
 11
1455.399768463507
 21
1329.293338720064
 31
0.0
  0
ARC
  5
18CB6
330
18C7A
100
AcDbEntity
  8
部品1
100
AcDbCircle
 10
1458.970482677778
 20
1344.793338720065
 30
0.0
 40
16.0
100
AcDbArc
 50
285.9423686056786
 51
321.6069559808035
  0
LINE
  5
18CB7
330
18C7A
100
AcDbEntity
  8
部品1
 48
0.01
100
AcDbLine
 10
1442.470482677778
 20
1335.993338720062
 30
0.0
 11
1444.078874302588
 21
1335.993338720062
 31
0.0
  0
ARC
  5
18CB8
330
18C7A
100
AcDbEntity
  8
部品1
100
AcDbCircle
 10
1444.078874302588
 20
1332.993338720062
 30
0.0
 40
3.0
100
AcDbArc
 50
38.39304401919648
 51
90.0
  0
ARC
  5
18CB9
330
18C7A
100
AcDbEntity
  8
部品1
100
AcDbCircle
 10
1458.970482677778
 20
1344.793338720065
 30
0.0
 40
16.0
100
AcDbArc
 50
218.3930440191965
 51
254.0576313943215
  0
LINE
  5
18CBA
330
18C7A
100
AcDbEntity
  8
部品1
100
AcDbLine
 10
1440.470482677778
 20
1328.993338720062
 30
0.0
 11
1440.470482677778
 21
1333.993338720061
 31
0.0
  0
ARC
  5
18CBB
330
18C7A
100
AcDbEntity
  8
部品1
 48
0.01
100
AcDbCircle
 10
1442.470482677778
 20
1333.993338720061
 30
0.0
 40
2.0
100
AcDbArc
 50
90.0
 51
180.0
  0
ARC
  5
18CBC
330
18C7A
100
AcDbEntity
  8
部品1
100
AcDbCircle
 10
1466.470482677778
 20
1328.993338720062
 30
0.0
 40
26.0
100
AcDbArc
 50
180.0
 51
199.4712206344134
  0
ARC
  5
18CBD
330
18C7A
100
AcDbEntity
  8
部品1
 48
0.01
100
AcDbCircle
 10
1434.470482677778
 20
1319.493338720063
 30
0.0
 40
0.5
100
AcDbArc
 50
180.0
 51
270.0
  0
LINE
  5
18CBE
330
18C7A
100
AcDbEntity
  8
部品1
 48
0.01
100
AcDbLine
 10
1434.470482677778
 20
1318.993338720063
 30
0.0
 11
1441.014638555061
 21
1318.993338720062
 31
0.0
  0
LINE
  5
18CBF
330
18C7A
100
AcDbEntity
  8
部品1
 48
0.01
100
AcDbLine
 10
1433.970482677778
 20
1320.493338720063
 30
0.0
 11
1433.970482677778
 21
1319.493338720063
 31
0.0
  0
ARC
  5
18CC0
330
18C7A
100
AcDbEntity
  8
部品1
100
AcDbCircle
 10
1441.014638555061
 20
1319.993338720062
 30
0.0
 40
1.0
100
AcDbArc
 50
270.0
 51
19.47122063441346
  0
LINE
  5
18CC1
330
18C7A
100
AcDbEntity
  8
細線
100
AcDbLine
 10
1479.470482677785
 20
1338.493338720065
 30
0.0
 11
1438.470482677785
 21
1338.493338720058
 31
0.0
  0
LINE
  5
18CC2
330
18C7A
100
AcDbEntity
  8
細線
100
AcDbLine
 10
1438.470482677785
 20
1338.493338720058
 30
0.0
 11
1438.470482677785
 21
1320.49333872004
 31
0.0
  0
LINE
  5
18CC3
330
18C7A
100
AcDbEntity
  8
細線
100
AcDbLine
 10
1479.470482677785
 20
1338.493338720065
 30
0.0
 11
1479.470482677785
 21
1320.49333872004
 31
0.0
  0
LINE
  5
18CC4
330
18C7A
100
AcDbEntity
  8
細線
100
AcDbLine
 10
1322.970589276523
 20
1324.494269174465
 30
0.0
 11
1322.970589276523
 21
1320.494269174513
 31
0.0
  0
LINE
  5
18CC5
330
18C7A
100
AcDbEntity
  8
寸法
 48
50.0
100
AcDbLine
 10
1746.17359555837
 20
1170.531020743327
 30
0.0
 11
1694.767587648266
 21
1170.531020743327
 31
0.0
  0
LINE
  5
18CC6
330
18C7A
100
AcDbEntity
  8
寸法
 48
50.0
100
AcDbLine
 10
1694.767587648266
 20
1170.531020743327
 30
0.0
 11
1694.767587648266
 21
1201.841179395494
 31
0.0
  0
LINE
  5
18CC7
330
18C7A
100
AcDbEntity
  8
寸法
 48
50.0
100
AcDbLine
 10
1694.767587648266
 20
1201.841179395494
 30
0.0
 11
1665.006255656843
 21
1201.841179395494
 31
0.0
  0
LINE
  5
18CC8
330
18C7A
100
AcDbEntity
  8
寸法
 48
50.0
100
AcDbLine
 10
1665.006255656843
 20
1201.841179395494
 30
0.0
 11
1720.470591603318
 21
1239.420630324105
 31
0.0
  0
LINE
  5
18CC9
330
18C7A
100
AcDbEntity
  8
寸法
 48
50.0
100
AcDbLine
 10
1775.934927549793
 20
1201.841179395494
 30
0.0
 11
1720.470591603318
 21
1239.420630324105
 31
0.0
  0
LINE
  5
18CCA
330
18C7A
100
AcDbEntity
  8
寸法
 48
50.0
100
AcDbLine
 10
1746.17359555837
 20
1201.841179395494
 30
0.0
 11
1775.934927549793
 21
1201.841179395494
 31
0.0
  0
LINE
  5
18CCB
330
18C7A
100
AcDbEntity
  8
寸法
 48
50.0
100
AcDbLine
 10
1746.17359555837
 20
1170.531020743327
 30
0.0
 11
1746.17359555837
 21
1201.841179395494
 31
0.0
  0
LINE
  5
18CCC
330
18C7A
100
AcDbEntity
  8
寸法
 48
50.0
100
AcDbLine
 10
1694.767587648266
 20
1170.531020743327
 30
0.0
 11
1746.17359555837
 21
1170.531020743327
 31
0.0
  0
LINE
  5
18CCD
330
18C7A
100
AcDbEntity
  8
寸法
 48
50.0
100
AcDbLine
 10
2025.339129835225
 20
1227.676611498152
 30
0.0
 11
2025.339129835225
 21
1174.01297691636
 31
0.0
  0
LINE
  5
18CCE
330
18C7A
100
AcDbEntity
  8
寸法
 48
50.0
100
AcDbLine
 10
2114.623348430647
 20
1203.752977228664
 30
0.0
 11
2025.339129835225
 21
1227.676611498152
 31
0.0
  0
LINE
  5
18CCF
330
18C7A
100
AcDbEntity
  8
寸法
 48
50.0
100
AcDbLine
 10
1895.471408254923
 20
1203.752977228664
 30
0.0
 11
2114.623348430647
 21
1203.752977228664
 31
0.0
  0
DIMENSION
  5
18CD0
330
18C7A
100
AcDbEntity
  8
寸法
 48
50.0
100
AcDbDimension
  2
*D15
 10
2588.970589276523
 20
706.3240511224249
 30
0.0
 11
1969.060022905491
 21
706.3240511224249
 31
0.0
 12
-3742.925985830444
 22
-6453.628869860112
 32
0.0
 70
   128
  1
有効開口部間口\P<>
 71
     5
 42
1266.0
  3
INABA_S40G
100
AcDbAlignedDimension
 13
1322.970589276523
 23
1315.494269174465
 33
0.0
 14
2588.970589276523
 24
1315.494269174465
 34
0.0
100
AcDbRotatedDimension
1001
ACAD
1000
DSTYLE
1002
{
1070
   341
1005
0
1002
}
  0
LINE
  5
18CD1
330
18C7A
100
AcDbEntity
  8
部品1
100
AcDbLine
 10
3409.970589276524
 20
1392.494269174465
 30
0.0
 11
3437.970589276523
 21
1392.494269174465
 31
0.0
  0
DIMENSION
  5
18CD2
330
18C7A
100
AcDbEntity
  8
寸法
100
AcDbDimension
  2
*D16
 10
3674.266172669749
 20
1315.494269174465
 30
0.0
 11
3674.266172669748
 21
1177.494269174462
 31
0.0
 12
-3742.925985830444
 22
-6453.628869860112
 32
0.0
 70
   128
 71
     5
 42
77.0
  3
INABA_S40
100
AcDbAlignedDimension
 13
3437.970589276523
 23
1392.494269174465
 33
0.0
 14
3436.970589276523
 24
1315.494269174465
 34
0.0
 50
90.0
100
AcDbRotatedDimension
1001
ACAD
1000
DSTYLE
1002
{
1070
    41
1040
0.5
1070
    44
1040
1.0
1070
   147
1040
0.8
1070
   271
1070
     2
1070
   272
1070
     2
1070
   289
1070
     3
1070
   340
1005
F706
1070
   343
1005
164B4
1070
   344
1005
164B4
1002
}
  0
LINE
  5
18CD3
330
18C7A
100
AcDbEntity
  8
部品1
100
AcDbLine
 10
3437.970589276523
 20
1315.494269174465
 30
0.0
 11
3437.970589276523
 21
1392.494269174465
 31
0.0
  0
LINE
  5
18CD4
330
18C7A
100
AcDbEntity
  8
部品1
100
AcDbLine
 10
3398.970589276523
 20
1388.494269174465
 30
0.0
 11
3409.970589276524
 21
1388.494269174465
 31
0.0
  0
LINE
  5
18CD5
330
18C7A
100
AcDbEntity
  8
部品1
100
AcDbLine
 10
3407.970589276523
 20
1324.494269174465
 30
0.0
 11
3407.970589276523
 21
1315.494269174465
 31
0.0
  0
LINE
  5
18CD6
330
18C7A
100
AcDbEntity
  8
部品1
100
AcDbLine
 10
3398.970589276523
 20
1324.494269174465
 30
0.0
 11
3407.970589276523
 21
1324.494269174465
 31
0.0
  0
LINE
  5
18CD7
330
18C7A
100
AcDbEntity
  8
部品1
100
AcDbLine
 10
3398.970589276523
 20
1388.494269174465
 30
0.0
 11
3398.970589276523
 21
1324.494269174465
 31
0.0
  0
LINE
  5
18CD8
330
18C7A
100
AcDbEntity
  8
部品1
100
AcDbLine
 10
3409.970589276524
 20
1419.494269174465
 30
0.0
 11
3409.970589276524
 21
1388.494269174465
 31
0.0
  0
LINE
  5
18CD9
330
18C7A
100
AcDbEntity
  8
部品1
100
AcDbLine
 10
1322.970589276523
 20
1388.494269174465
 30
0.0
 11
1311.970589276523
 21
1388.494269174465
 31
0.0
  0
LINE
  5
18CDA
330
18C7A
100
AcDbEntity
  8
部品1
100
AcDbLine
 10
1283.970589276523
 20
1392.494269174465
 30
0.0
 11
1311.970589276523
 21
1392.494269174465
 31
0.0
  0
LINE
  5
18CDB
330
18C7A
100
AcDbEntity
  8
部品1
100
AcDbLine
 10
1313.970589276523
 20
1324.494269174465
 30
0.0
 11
1313.970589276523
 21
1315.494269174465
 31
0.0
  0
LINE
  5
18CDC
330
18C7A
100
AcDbEntity
  8
部品1
100
AcDbLine
 10
1322.970589276523
 20
1324.494269174465
 30
0.0
 11
1313.970589276523
 21
1324.494269174465
 31
0.0
  0
LINE
  5
18CDD
330
18C7A
100
AcDbEntity
  8
部品1
100
AcDbLine
 10
1313.970589276523
 20
1315.494269174465
 30
0.0
 11
1283.970589276523
 21
1315.494269174465
 31
0.0
  0
LINE
  5
18CDE
330
18C7A
100
AcDbEntity
  8
部品1
100
AcDbLine
 10
1283.970589276523
 20
1315.494269174465
 30
0.0
 11
1283.970589276523
 21
1392.494269174465
 31
0.0
  0
LINE
  5
18CDF
330
18C7A
100
AcDbEntity
  8
部品1
100
AcDbLine
 10
1322.970589276523
 20
1388.494269174465
 30
0.0
 11
1322.970589276523
 21
1324.494269174465
 31
0.0
  0
LINE
  5
18CE0
330
18C7A
100
AcDbEntity
  8
部品1
100
AcDbLine
 10
1311.970589276523
 20
1419.494269174462
 30
0.0
 11
1311.970589276523
 21
1388.494269174465
 31
0.0
  0
LINE
  5
18CE1
330
18C7A
100
AcDbEntity
  8
部品1
100
AcDbLine
 10
1311.970589276523
 20
1419.494269174462
 30
0.0
 11
3409.970589276524
 21
1419.494269174465
 31
0.0
  0
LINE
  5
18CE2
330
18C7A
100
AcDbEntity
  8
部品1
100
AcDbLine
 10
3407.970589276523
 20
1315.494269174465
 30
0.0
 11
3437.970589276523
 21
1315.494269174465
 31
0.0
  0
LINE
  5
18CE3
330
18C7A
100
AcDbEntity
  8
部品1
100
AcDbLine
 10
1313.970589276523
 20
1315.494269174465
 30
0.0
 11
3410.970589276523
 21
1315.494269174465
 31
0.0
  0
LINE
  5
18CE4
330
18C7A
100
AcDbEntity
  8
細線
  6
Continuous
 62
     5
100
AcDbLine
 10
2689.970589276527
 20
1354.494269174462
 30
0.0
 11
2689.970589276527
 21
1354.494269174462
 31
0.0
  0
LINE
  5
18CE5
330
18C7A
100
AcDbEntity
  8
細線
  6
Continuous
 62
     5
100
AcDbLine
 10
2682.470589276527
 20
1354.494269174462
 30
0.0
 11
2682.470589276527
 21
1354.494269174462
 31
0.0
  0
LINE
  5
18CE6
330
18C7A
100
AcDbEntity
  8
細線
  6
Continuous
 62
     5
100
AcDbLine
 10
2676.470589276527
 20
1354.494269174462
 30
0.0
 11
2676.470589276527
 21
1354.494269174462
 31
0.0
  0
LINE
  5
18CE7
330
18C7A
100
AcDbEntity
  8
細線
  6
Continuous
 62
     5
100
AcDbLine
 10
2743.970589276527
 20
1373.494269174462
 30
0.0
 11
2743.970589276527
 21
1373.494269174462
 31
0.0
  0
LINE
  5
18CE8
330
18C7A
100
AcDbEntity
  8
細線
 48
50.0
100
AcDbLine
 10
1336.970593930116
 20
1341.094443351418
 30
0.0
 11
1336.970593930113
 21
1349.490593759059
 31
0.0
  0
LINE
  5
18CE9
330
18C7A
100
AcDbEntity
  8
細線
 48
50.0
100
AcDbLine
 10
1336.970593930113
 20
1349.490593759059
 30
0.0
 11
1322.970589276523
 21
1349.490593759057
 31
0.0
  0
LINE
  5
18CEA
330
18C7A
100
AcDbEntity
  8
細線
 48
50.0
100
AcDbLine
 10
2087.970593930113
 20
1337.644443351419
 30
0.0
 11
2087.970593930113
 21
1342.494443351421
 31
0.0
  0
LINE
  5
18CEB
330
18C7A
100
AcDbEntity
  8
細線
 48
50.0
100
AcDbLine
 10
2087.970593930113
 20
1342.494443351421
 30
0.0
 11
2102.970593930113
 21
1342.494443351421
 31
0.0
  0
LINE
  5
18CEC
330
18C7A
100
AcDbEntity
  8
細線
 48
50.0
100
AcDbLine
 10
2102.970593930113
 20
1342.494443351421
 30
0.0
 11
2102.970593930115
 21
1349.494443351419
 31
0.0
  0
LINE
  5
18CED
330
18C7A
100
AcDbEntity
  8
細線
 48
50.0
100
AcDbLine
 10
2102.970593930115
 20
1349.494443351419
 30
0.0
 11
2117.970593930113
 21
1349.494443351419
 31
0.0
  0
LINE
  5
18CEE
330
18C7A
100
AcDbEntity
  8
細線
 48
50.0
100
AcDbLine
 10
2117.970593930113
 20
1349.494443351419
 30
0.0
 11
2117.970593930113
 21
1320.494443351421
 31
0.0
  0
LINE
  5
18CEF
330
18C7A
100
AcDbEntity
  8
細線
 48
50.0
100
AcDbLine
 10
1313.970589276523
 20
1320.491777694889
 30
0.0
 11
1527.970593930113
 21
1320.494460905133
 31
0.0
  0
LINE
  5
18CF0
330
18C7A
100
AcDbEntity
  8
細線
 48
50.0
100
AcDbLine
 10
2017.970593930113
 20
1320.494443351421
 30
0.0
 11
2117.970593930113
 21
1320.494443351421
 31
0.0
  0
LINE
  5
18CF1
330
18C7A
100
AcDbEntity
  8
細線
 48
50.0
100
AcDbLine
 10
1737.970593930113
 20
1320.494443351419
 30
0.0
 11
1807.970593930113
 21
1320.494443351423
 31
0.0
  0
LINE
  5
18CF2
330
18C7A
100
AcDbEntity
  8
細線
 48
50.0
100
AcDbLine
 10
1750.832558942642
 20
1320.494443351419
 30
0.0
 11
1756.588076525309
 21
1338.765294641913
 31
0.0
  0
LINE
  5
18CF3
330
18C7A
100
AcDbEntity
  8
細線
 48
50.0
100
AcDbLine
 10
1756.588076525309
 20
1338.765294641913
 30
0.0
 11
1767.516525005743
 21
1338.765294641911
 31
0.0
  0
ARC
  5
18CF4
330
18C7A
100
AcDbEntity
  8
細線
 48
50.0
100
AcDbCircle
 10
1767.516525005743
 20
1337.765294641911
 30
0.0
 40
1.0
100
AcDbArc
 50
24.62431835207225
 51
90.0
  0
ARC
  5
18CF5
330
18C7A
100
AcDbEntity
  8
細線
 48
50.0
100
AcDbCircle
 10
1778.425237120377
 20
1337.765294641911
 30
0.0
 40
1.0
100
AcDbArc
 50
90.0
 51
155.3756816479277
  0
ARC
  5
18CF6
330
18C7A
100
AcDbEntity
  8
細線
 48
50.0
100
AcDbCircle
 10
1772.970881063058
 20
1340.265294641911
 30
0.0
 40
5.0
100
AcDbArc
 50
204.6243183520723
 51
335.3756816479278
  0
LINE
  5
18CF7
330
18C7A
100
AcDbEntity
  8
細線
 48
50.0
100
AcDbLine
 10
1778.425237120377
 20
1338.765294641911
 30
0.0
 11
1789.35368560081
 21
1338.765294641913
 31
0.0
  0
LINE
  5
18CF8
330
18C7A
100
AcDbEntity
  8
細線
 48
50.0
100
AcDbLine
 10
1789.35368560081
 20
1338.765294641913
 30
0.0
 11
1795.109203183478
 21
1320.494443351423
 31
0.0
  0
LINE
  5
18CF9
330
18C7A
100
AcDbEntity
  8
細線
 48
50.0
100
AcDbLine
 10
2087.970593930113
 20
1341.094443351419
 30
0.0
 11
1336.970593930116
 21
1341.094443351418
 31
0.0
  0
LINE
  5
18CFA
330
18C7A
100
AcDbEntity
  8
細線
 48
50.0
100
AcDbLine
 10
1947.970593930113
 20
1320.494443351421
 30
0.0
 11
1877.970593930113
 21
1320.494443351421
 31
0.0
  0
LINE
  5
18CFB
330
18C7A
100
AcDbEntity
  8
細線
100
AcDbLine
 10
1667.970593930113
 20
1320.494443351421
 30
0.0
 11
1597.970602115529
 21
1320.494443351421
 31
0.0
  0
LINE
  5
18CFC
330
18C7A
100
AcDbEntity
  8
細線
 48
50.0
100
AcDbLine
 10
2741.970584622936
 20
1375.094487209288
 30
0.0
 11
2106.970593930113
 21
1375.094487209284
 31
0.0
  0
LINE
  5
18CFD
330
18C7A
100
AcDbEntity
  8
細線
 48
50.0
100
AcDbLine
 10
2106.970593930113
 20
1371.990637616925
 30
0.0
 11
2106.970593930113
 21
1376.490637616925
 31
0.0
  0
LINE
  5
18CFE
330
18C7A
100
AcDbEntity
  8
細線
 48
50.0
100
AcDbLine
 10
2106.970593930113
 20
1376.490637616925
 30
0.0
 11
2091.970593930113
 21
1376.490637616925
 31
0.0
  0
LINE
  5
18CFF
330
18C7A
100
AcDbEntity
  8
細線
 48
50.0
100
AcDbLine
 10
2091.970593930113
 20
1376.490637616925
 30
0.0
 11
2091.970593930113
 21
1383.490637616927
 31
0.0
  0
LINE
  5
18D00
330
18C7A
100
AcDbEntity
  8
細線
 48
50.0
100
AcDbLine
 10
2091.970593930113
 20
1383.490637616927
 30
0.0
 11
2076.970593930115
 21
1383.490637616924
 31
0.0
  0
LINE
  5
18D01
330
18C7A
100
AcDbEntity
  8
細線
 48
50.0
100
AcDbLine
 10
2076.970593930115
 20
1383.490637616924
 30
0.0
 11
2076.970593930115
 21
1345.890409513813
 31
0.0
  0
LINE
  5
18D02
330
18C7A
100
AcDbEntity
  8
細線
 48
50.0
100
AcDbLine
 10
2076.970593930115
 20
1345.890409513813
 30
0.0
 11
2096.970601231289
 21
1345.890451063353
 31
0.0
  0
LINE
  5
18D03
330
18C7A
100
AcDbEntity
  8
細線
 48
50.0
100
AcDbLine
 10
2096.970556362348
 20
1354.493912699161
 30
0.0
 11
2096.970601231289
 21
1345.890451063353
 31
0.0
  0
LINE
  5
18D04
330
18C7A
100
AcDbEntity
  8
細線
 48
50.0
100
AcDbLine
 10
2741.970584622936
 20
1371.644487209287
 30
0.0
 11
2741.970584622936
 21
1376.494487209284
 31
0.0
  0
LINE
  5
18D05
330
18C7A
100
AcDbEntity
  8
細線
 48
50.0
100
AcDbLine
 10
2741.970584622936
 20
1376.494487209284
 30
0.0
 11
2756.970584622934
 21
1376.494487209285
 31
0.0
  0
LINE
  5
18D06
330
18C7A
100
AcDbEntity
  8
細線
 48
50.0
100
AcDbLine
 10
2756.970584622934
 20
1376.494487209285
 30
0.0
 11
2756.970596256909
 21
1383.494487209331
 31
0.0
  0
LINE
  5
18D07
330
18C7A
100
AcDbEntity
  8
細線
 48
50.0
100
AcDbLine
 10
2756.970596256909
 20
1383.494487209331
 30
0.0
 11
2771.970594427439
 21
1383.494487209329
 31
0.0
  0
LINE
  5
18D08
330
18C7A
100
AcDbEntity
  8
細線
 48
50.0
100
AcDbLine
 10
2771.970594427439
 20
1383.494487209329
 30
0.0
 11
2771.970584125617
 21
1354.494281037055
 31
0.0
  0
LINE
  5
18D09
330
18C7A
100
AcDbEntity
  8
細線
 48
50.0
100
AcDbLine
 10
2458.070304175992
 20
1354.494278397076
 30
0.0
 11
2389.470863838818
 21
1354.494283787084
 31
0.0
  0
LINE
  5
18D0A
330
18C7A
100
AcDbEntity
  8
細線
 48
50.0
100
AcDbLine
 10
2096.970556362348
 20
1354.493912699161
 30
0.0
 11
2108.203245717057
 21
1354.494095652309
 31
0.0
  0
ARC
  5
18D0B
330
18C7A
100
AcDbEntity
  8
細線
 48
50.0
100
AcDbCircle
 10
2114.785538024393
 20
1353.294259565922
 30
0.0
 40
1.8
100
AcDbArc
 50
270.0006665777295
 51
345.000555481349
  0
LINE
  5
18D0C
330
18C7A
100
AcDbEntity
  8
細線
 48
50.0
100
AcDbLine
 10
2116.771971470473
 20
1353.753100023201
 30
0.0
 11
2116.524209028273
 21
1352.828402141094
 31
0.0
  0
LINE
  5
18D0D
330
18C7A
100
AcDbEntity
  8
細線
 48
50.0
100
AcDbLine
 10
2114.785558965548
 20
1351.494259566043
 30
0.0
 11
2111.155631546781
 21
1351.494217335563
 31
0.0
  0
ARC
  5
18D0E
330
18C7A
100
AcDbEntity
  8
細線
 48
50.0
100
AcDbCircle
 10
2111.155610605627
 20
1353.29421733544
 30
0.0
 40
1.8
100
AcDbArc
 50
195.0010443049965
 51
270.0006665777295
  0
LINE
  5
18D0F
330
18C7A
100
AcDbEntity
  8
細線
 48
50.0
100
AcDbLine
 10
2109.169183113368
 20
1353.752932303007
 30
0.0
 11
2109.416952609882
 21
1352.828311364425
 31
0.0
  0
ARC
  5
18D10
330
18C7A
100
AcDbEntity
  8
細線
 48
50.0
100
AcDbCircle
 10
2108.203262004622
 20
1353.494095652444
 30
0.0
 40
1.0
100
AcDbArc
 50
15.00104430499651
 51
90.00093320877969
  0
LINE
  5
18D11
330
18C7A
100
AcDbEntity
  8
細線
 48
50.0
100
AcDbLine
 10
2117.737892825577
 20
1354.494290342714
 30
0.0
 11
2118.679652976481
 21
1354.494296916564
 31
0.0
  0
ARC
  5
18D12
330
18C7A
100
AcDbEntity
  8
細線
 48
50.0
100
AcDbCircle
 10
2117.737899805961
 20
1353.49429034274
 30
0.0
 40
1.0
100
AcDbArc
 50
90.0003999466794
 51
165.000555481349
  0
LINE
  5
18D13
330
18C7A
100
AcDbEntity
  8
細線
 48
50.0
100
AcDbLine
 10
2669.470584622926
 20
1354.494281037055
 30
0.0
 11
2771.970584125617
 21
1354.494281037055
 31
0.0
  0
LINE
  5
18D14
330
18C7A
100
AcDbEntity
  8
細線
 48
50.0
100
AcDbLine
 10
2179.47061994182
 20
1354.494289224422
 30
0.0
 11
2118.370558714898
 21
1354.494296916564
 31
0.0
  0
LINE
  5
18D15
330
18C7A
100
AcDbEntity
  8
細線
 48
50.0
100
AcDbLine
 10
2599.470584622926
 20
1354.494281037057
 30
0.0
 11
2529.470584622926
 21
1354.494281037055
 31
0.0
  0
LINE
  5
18D16
330
18C7A
100
AcDbEntity
  8
細線
 48
50.0
100
AcDbLine
 10
2319.470584622926
 20
1354.494281037054
 30
0.0
 11
2249.470567335051
 21
1354.494281037057
 31
0.0
  0
ARC
  5
18D17
330
18C7A
100
AcDbEntity
  8
細線
 48
50.0
100
AcDbCircle
 10
2756.170589276533
 20
1387.694269174466
 30
0.0
 40
0.8
100
AcDbArc
 50
359.9997333689499
 51
89.99986668437072
  0
ARC
  5
18D18
330
18C7A
100
AcDbEntity
  8
細線
 48
50.0
100
AcDbCircle
 10
2763.770596101631
 20
1387.694280343081
 30
0.0
 40
0.8
100
AcDbArc
 50
90.00014387753465
 51
179.9997333689498
  0
LINE
  5
18D19
330
18C7A
100
AcDbEntity
  8
細線
 48
50.0
100
AcDbLine
 10
2756.170591137969
 20
1388.494269174465
 30
0.0
 11
2750.970589276525
 21
1388.494269174465
 31
0.0
  0
ARC
  5
18D1A
330
18C7A
100
AcDbEntity
  8
細線
 48
50.0
100
AcDbCircle
 10
2757.670589276524
 20
1386.194269174464
 30
0.0
 40
0.7
100
AcDbArc
 50
180.0
 51
270.0
  0
ARC
  5
18D1B
330
18C7A
100
AcDbEntity
  8
細線
 48
50.0
100
AcDbCircle
 10
2762.270589276524
 20
1386.194269174464
 30
0.0
 40
0.7
100
AcDbArc
 50
270.0
 51
0.0
  0
LINE
  5
18D1C
330
18C7A
100
AcDbEntity
  8
細線
 48
50.0
100
AcDbLine
 10
2762.970589276525
 20
1386.194269174464
 30
0.0
 11
2762.970596101639
 21
1387.694284065954
 31
0.0
  0
LINE
  5
18D1D
330
18C7A
100
AcDbEntity
  8
細線
 48
50.0
100
AcDbLine
 10
2757.670589276524
 20
1385.494269174465
 30
0.0
 11
2762.270589276524
 21
1385.494269174465
 31
0.0
  0
LINE
  5
18D1E
330
18C7A
100
AcDbEntity
  8
細線
 48
50.0
100
AcDbLine
 10
2756.970589276525
 20
1387.694269174466
 30
0.0
 11
2756.970589276525
 21
1386.194269174464
 31
0.0
  0
LINE
  5
18D1F
330
18C7A
100
AcDbEntity
  8
細線
 48
50.0
100
AcDbLine
 10
3382.570589276527
 20
1418.494269174465
 30
0.0
 11
2745.970589276525
 21
1418.494269174463
 31
0.0
  0
LINE
  5
18D20
330
18C7A
100
AcDbEntity
  8
細線
 48
50.0
100
AcDbLine
 10
3408.470589276525
 20
1413.494269174467
 30
0.0
 11
3392.570589276527
 21
1413.494269174465
 31
0.0
  0
LINE
  5
18D21
330
18C7A
100
AcDbEntity
  8
細線
 48
50.0
100
AcDbLine
 10
3392.570589276526
 20
1413.494269174465
 30
0.0
 11
3382.570589276527
 21
1418.494269174465
 31
0.0
  0
LINE
  5
18D22
330
18C7A
100
AcDbEntity
  8
細線
100
AcDbLine
 10
2993.470589276525
 20
1388.494269174465
 30
0.0
 11
2993.470589276525
 21
1417.794269174464
 31
0.0
  0
LINE
  5
18D23
330
18C7A
100
AcDbEntity
  8
細線
100
AcDbLine
 10
2993.470589276525
 20
1417.794269174464
 30
0.0
 11
3013.470589276525
 21
1417.794269174464
 31
0.0
  0
LINE
  5
18D24
330
18C7A
100
AcDbEntity
  8
細線
100
AcDbLine
 10
3013.470589276525
 20
1388.494269174465
 30
0.0
 11
3013.470589276525
 21
1417.794269174464
 31
0.0
  0
LINE
  5
18D25
330
18C7A
100
AcDbEntity
  8
細線
100
AcDbLine
 10
3170.720589276524
 20
1388.494269174465
 30
0.0
 11
3100.720589276523
 21
1388.494269174465
 31
0.0
  0
LINE
  5
18D26
330
18C7A
100
AcDbEntity
  8
細線
 48
50.0
100
AcDbLine
 10
2890.720589276525
 20
1388.494269174465
 30
0.0
 11
2763.766368849365
 21
1388.494269174465
 31
0.0
  0
LINE
  5
18D27
330
18C7A
100
AcDbEntity
  8
細線
100
AcDbLine
 10
3030.720589276525
 20
1388.494269174465
 30
0.0
 11
2960.720589276525
 21
1388.494269174465
 31
0.0
  0
LINE
  5
18D28
330
18C7A
100
AcDbEntity
  8
細線
 48
50.0
100
AcDbLine
 10
2750.970589276525
 20
1380.494269174465
 30
0.0
 11
2750.970589276525
 21
1388.494269174465
 31
0.0
  0
LINE
  5
18D29
330
18C7A
100
AcDbEntity
  8
細線
 48
50.0
100
AcDbLine
 10
2730.970589276524
 20
1380.494269174467
 30
0.0
 11
2750.970589276525
 21
1380.494269174465
 31
0.0
  0
LINE
  5
18D2A
330
18C7A
100
AcDbEntity
  8
細線
 48
50.0
100
AcDbLine
 10
2745.970589276525
 20
1418.494269174465
 30
0.0
 11
2745.970589276525
 21
1413.494269174465
 31
0.0
  0
LINE
  5
18D2B
330
18C7A
100
AcDbEntity
  8
細線
 48
50.0
100
AcDbLine
 10
2730.970589276525
 20
1418.494269174463
 30
0.0
 11
2745.970589276525
 21
1418.494269174465
 31
0.0
  0
LINE
  5
18D2C
330
18C7A
100
AcDbEntity
  8
細線
 48
50.0
100
AcDbLine
 10
2730.970589276524
 20
1380.494269174467
 30
0.0
 11
2730.970589276525
 21
1418.494269174463
 31
0.0
  0
LINE
  5
18D2D
330
18C7A
100
AcDbEntity
  8
細線
100
AcDbLine
 10
3398.970589276523
 20
1388.494269174465
 30
0.0
 11
3240.720589276525
 21
1388.494269174465
 31
0.0
  0
LINE
  5
18D2E
330
18C7A
100
AcDbEntity
  8
細線
 48
50.0
100
AcDbLine
 10
3408.470589276525
 20
1413.494269174467
 30
0.0
 11
3408.470589276524
 21
1388.494269174465
 31
0.0
  0
TEXT
  5
18D2F
330
18C7A
100
AcDbEntity
  8
部品1
100
AcDbText
 10
1860.154865991392
 20
46.99880823813145
 30
0.0
 40
135.0
  1
平面図
  7
STYLE2
100
AcDbText
  0
LWPOLYLINE
  5
18D30
330
18C7A
100
AcDbEntity
  8
部品1
100
AcDbPolyline
 90
        4
 70
     1
 43
0.0
 10
1770.23525616235
 20
239.8923374566548
 10
1770.23525616235
 20
0.0000159111223184
 10
2533.705922390791
 20
0.0000159111223184
 10
2533.705922390791
 20
239.8923374566548
  0
LINE
  5
18D31
330
18C7A
100
AcDbEntity
  8
部品1
100
AcDbLine
 10
1534.470589276487
 20
3154.494269174626
 30
0.0
 11
2769.470589276552
 21
3154.494269174626
 31
0.0
  0
LINE
  5
18D32
330
18C7A
100
AcDbEntity
  8
部品1
 48
50.0
100
AcDbLine
 10
1311.970589276523
 20
1420.494269174462
 30
0.0
 11
3411.970589276523
 21
1420.494269174465
 31
0.0
  0
LINE
  5
18D33
330
18C7A
100
AcDbEntity
  8
部品1
 48
50.0
100
AcDbLine
 10
471.9705892765232
 20
1392.494269174465
 30
0.0
 11
1311.970589276523
 21
1392.494269174465
 31
0.0
  0
DIMENSION
  5
18D34
330
18C7A
100
AcDbEntity
  8
寸法
100
AcDbDimension
  2
*D14
 10
2710.234916278077
 20
2488.887829538828
 30
0.0
 11
2338.318822490183
 21
2488.887829538828
 31
0.0
 12
-3742.925985830444
 22
-6453.628869860112
 32
0.0
 70
   128
 71
     5
 42
1231.00000000007
  3
INABA_S40G
100
AcDbAlignedDimension
 13
1536.470589276486
 23
2702.494269174557
 33
0.0
 14
2767.470589276556
 24
2702.494269174549
 34
0.0
100
AcDbRotatedDimension
1001
ACAD
1000
DSTYLE
1002
{
1002
}
  0
LINE
  5
18D35
330
18C7A
100
AcDbEntity
  8
部品1
100
AcDbLine
 10
1536.470589276487
 20
2702.494269174557
 30
0.0
 11
2767.470589276554
 21
2702.494269174615
 31
0.0
  0
LINE
  5
18D36
330
18C7A
100
AcDbEntity
  8
部品1
100
AcDbLine
 10
1536.470589276487
 20
3152.494269174557
 30
0.0
 11
2767.470589276556
 21
3152.494269174615
 31
0.0
  0
LINE
  5
18D37
330
18C7A
100
AcDbEntity
  8
細線
 48
50.0
100
AcDbLine
 10
1508.470589276487
 20
3152.494269174558
 30
0.0
 11
445.4705892765559
 21
2702.494269174509
 31
0.0
  0
LINE
  5
18D38
330
18C7A
100
AcDbEntity
  8
細線
 48
50.0
100
AcDbLine
 10
1508.470589276487
 20
2702.494269174558
 30
0.0
 11
445.4705892765542
 21
3152.494269174509
 31
0.0
  0
LINE
  5
18D39
330
18C7A
100
AcDbEntity
  8
部品1
100
AcDbLine
 10
1556.970589276487
 20
3172.494269174611
 30
0.0
 11
1556.970589276487
 21
3154.494269174611
 31
0.0
  0
LINE
  5
18D3A
330
18C7A
100
AcDbEntity
  8
部品1
100
AcDbLine
 10
1556.970589276487
 20
3172.494269174611
 30
0.0
 11
1550.970589276487
 21
3172.494269174611
 31
0.0
  0
LINE
  5
18D3B
330
18C7A
100
AcDbEntity
  8
部品1
100
AcDbLine
 10
1534.470589276487
 20
3146.494269174608
 30
0.0
 11
1509.470589276487
 21
3146.494269174611
 31
0.0
  0
LINE
  5
18D3C
330
18C7A
100
AcDbEntity
  8
部品1
100
AcDbLine
 10
1486.970589276487
 20
3172.494269174611
 30
0.0
 11
1486.970589276487
 21
3154.494269174611
 31
0.0
  0
LINE
  5
18D3D
330
18C7A
100
AcDbEntity
  8
部品1
100
AcDbLine
 10
1492.970589276487
 20
3172.494269174611
 30
0.0
 11
1486.970589276487
 21
3172.494269174611
 31
0.0
  0
LINE
  5
18D3E
330
18C7A
100
AcDbEntity
  8
部品1
100
AcDbLine
 10
1534.470589276487
 20
2702.494269174615
 30
0.0
 11
1509.470589276487
 21
2702.494269174615
 31
0.0
  0
LINE
  5
18D3F
330
18C7A
100
AcDbEntity
  8
部品1
 48
50.0
100
AcDbLine
 10
1536.470589276487
 20
3152.494269174611
 30
0.0
 11
1536.470589276487
 21
2702.494269174615
 31
0.0
  0
LINE
  5
18D40
330
18C7A
100
AcDbEntity
  8
部品1
 48
50.0
100
AcDbLine
 10
1508.470589276487
 20
3152.494269174607
 30
0.0
 11
1508.470589276487
 21
2702.494269174615
 31
0.0
  0
LINE
  5
18D41
330
18C7A
100
AcDbEntity
  8
部品1
 48
50.0
100
AcDbLine
 10
1534.470589276487
 20
3154.494269174618
 30
0.0
 11
1534.470589276487
 21
2702.494269174615
 31
0.0
  0
LINE
  5
18D42
330
18C7A
100
AcDbEntity
  8
部品1
 48
50.0
100
AcDbLine
 10
1509.470589276487
 20
3154.494269174615
 30
0.0
 11
1509.470589276487
 21
2702.494269174615
 31
0.0
  0
LINE
  5
18D43
330
18C7A
100
AcDbEntity
  8
部品1
100
AcDbLine
 10
3411.970589276556
 20
1392.494269174582
 30
0.0
 11
3411.970589276556
 21
1420.494269174596
 31
0.0
  0
LINE
  5
18D44
330
18C7A
100
AcDbEntity
  8
部品1
100
AcDbLine
 10
1311.970589276523
 20
1392.494269174596
 30
0.0
 11
1311.970589276523
 21
1420.494269174596
 31
0.0
  0
LINE
  5
18D45
330
18C7A
100
AcDbEntity
  8
部品1
100
AcDbLine
 10
891.9705892765232
 20
1392.494269174596
 30
0.0
 11
891.9705892765232
 21
1420.494269174596
 31
0.0
  0
LINE
  5
18D46
330
18C7A
100
AcDbEntity
  8
部品1
100
AcDbLine
 10
3411.97058927652
 20
3182.494269174477
 30
0.0
 11
3411.970589276523
 21
3154.494269174477
 31
0.0
  0
LINE
  5
18D47
330
18C7A
100
AcDbEntity
  8
部品1
100
AcDbLine
 10
2571.97058927652
 20
3182.494269174477
 30
0.0
 11
2571.970589276523
 21
3154.494269174477
 31
0.0
  0
LINE
  5
18D48
330
18C7A
100
AcDbEntity
  8
部品1
100
AcDbLine
 10
2991.97058927652
 20
3182.494269174477
 30
0.0
 11
2991.970589276523
 21
3154.494269174477
 31
0.0
  0
LINE
  5
18D49
330
18C7A
100
AcDbEntity
  8
部品1
100
AcDbLine
 10
2151.970589276519
 20
3182.494269174477
 30
0.0
 11
2151.970589276523
 21
3154.494269174477
 31
0.0
  0
LINE
  5
18D4A
330
18C7A
100
AcDbEntity
  8
部品1
100
AcDbLine
 10
1731.970589276519
 20
3182.494269174477
 30
0.0
 11
1731.970589276523
 21
3154.494269174477
 31
0.0
  0
LINE
  5
18D4B
330
18C7A
100
AcDbEntity
  8
部品1
100
AcDbLine
 10
1311.970589276519
 20
3182.494269174477
 30
0.0
 11
1311.970589276523
 21
3154.494269174477
 31
0.0
  0
LINE
  5
18D4C
330
18C7A
100
AcDbEntity
  8
部品1
100
AcDbLine
 10
891.9705892765195
 20
3182.494269174477
 30
0.0
 11
891.9705892765232
 21
3154.494269174477
 31
0.0
  0
LINE
  5
18D4D
330
18C7A
100
AcDbEntity
  8
部品1
100
AcDbLine
 10
471.9705892765232
 20
1392.494269174596
 30
0.0
 11
471.9705892765232
 21
1420.494269174596
 31
0.0
  0
LINE
  5
18D4E
330
18C7A
100
AcDbEntity
  8
部品1
100
AcDbLine
 10
444.9705892765305
 20
1420.494269174558
 30
0.0
 11
3858.970589276556
 21
1420.494269174596
 31
0.0
  0
LINE
  5
18D4F
330
18C7A
100
AcDbEntity
  8
部品1
100
AcDbLine
 10
3831.970589276556
 20
1392.494269174596
 30
0.0
 11
3831.970589276556
 21
1420.494269174596
 31
0.0
  0
LINE
  5
18D50
330
18C7A
100
AcDbEntity
  8
部品1
100
AcDbLine
 10
3858.970589276556
 20
1447.494269174593
 30
0.0
 11
3886.970589276556
 21
1447.494269174593
 31
0.0
  0
LINE
  5
18D51
330
18C7A
100
AcDbEntity
  8
部品1
100
AcDbLine
 10
3858.970589276556
 20
1867.494269174607
 30
0.0
 11
3886.970589276556
 21
1867.494269174607
 31
0.0
  0
LINE
  5
18D52
330
18C7A
100
AcDbEntity
  8
部品1
100
AcDbLine
 10
444.9705892765305
 20
1867.49426917448
 30
0.0
 11
416.9705892765305
 21
1867.49426917448
 31
0.0
  0
LINE
  5
18D53
330
18C7A
100
AcDbEntity
  8
部品1
100
AcDbLine
 10
3830.470589276541
 20
1867.49426917458
 30
0.0
 11
473.4705892765396
 21
1867.49426917448
 31
0.0
  0
LINE
  5
18D54
330
18C7A
100
AcDbEntity
  8
部品1
100
AcDbLine
 10
3830.470589276541
 20
2287.49426917458
 30
0.0
 11
473.4705892765396
 21
2287.49426917448
 31
0.0
  0
LINE
  5
18D55
330
18C7A
100
AcDbEntity
  8
部品1
100
AcDbLine
 10
444.9705892765305
 20
2287.49426917448
 30
0.0
 11
416.9705892765305
 21
2287.49426917448
 31
0.0
  0
LINE
  5
18D56
330
18C7A
100
AcDbEntity
  8
部品1
100
AcDbLine
 10
3858.970589276556
 20
2287.494269174608
 30
0.0
 11
3886.970589276556
 21
2287.494269174608
 31
0.0
  0
LINE
  5
18D57
330
18C7A
100
AcDbEntity
  8
部品1
 48
50.0
100
AcDbLine
 10
2151.970589276551
 20
2702.494269174586
 30
0.0
 11
2151.970589276581
 21
1448.994269174494
 31
0.0
  0
LINE
  5
18D58
330
18C7A
100
AcDbEntity
  8
破線
 48
10.0
100
AcDbLine
 10
2959.470589276535
 20
1472.494269174522
 30
0.0
 11
2176.970589276532
 21
1472.494269174505
 31
0.0
  0
LINE
  5
18D59
330
18C7A
100
AcDbEntity
  8
破線
 48
10.0
100
AcDbLine
 10
3009.47058927653
 20
1448.994269174509
 30
0.0
 11
3009.47058927653
 21
2702.494269174615
 31
0.0
  0
LINE
  5
18D5A
330
18C7A
100
AcDbEntity
  8
破線
 48
10.0
100
AcDbLine
 10
2959.470589276535
 20
1448.994269174505
 30
0.0
 11
2959.470589276531
 21
2702.494269174615
 31
0.0
  0
LINE
  5
18D5B
330
18C7A
100
AcDbEntity
  8
破線
 48
10.0
100
AcDbLine
 10
1344.47058927653
 20
1448.994269174509
 30
0.0
 11
1344.47058927653
 21
2702.494269174615
 31
0.0
  0
LINE
  5
18D5C
330
18C7A
100
AcDbEntity
  8
破線
 48
10.0
100
AcDbLine
 10
1294.470589276534
 20
1448.994269174505
 30
0.0
 11
1294.47058927653
 21
2702.494269174615
 31
0.0
  0
DIMENSION
  5
18D5D
330
18C7A
100
AcDbEntity
  8
寸法
100
AcDbDimension
  2
*D13
 10
1451.234916278005
 20
2488.887829538828
 30
0.0
 11
916.0604668248634
 21
2488.887829538828
 31
0.0
 12
-3742.925985830444
 22
-6453.628869860112
 32
0.0
 70
   128
 71
     5
 42
1062.99999999993
  3
INABA_S40G
100
AcDbAlignedDimension
 13
445.4705892765559
 23
2702.494269174505
 33
0.0
 14
1508.470589276486
 24
2702.494269174558
 34
0.0
100
AcDbRotatedDimension
1001
ACAD
1000
DSTYLE
1002
{
1002
}
  0
LINE
  5
18D5E
330
18C7A
100
AcDbEntity
  8
破線
 48
10.0
100
AcDbLine
 10
1294.470589276534
 20
1472.494269174469
 30
0.0
 11
496.9705892765414
 21
1472.494269174476
 31
0.0
  0
LINE
  5
18D5F
330
18C7A
100
AcDbEntity
  8
部品1
100
AcDbLine
 10
3831.970589276556
 20
3182.494269174604
 30
0.0
 11
3831.970589276556
 21
3154.494269174604
 31
0.0
  0
LINE
  5
18D60
330
18C7A
100
AcDbEntity
  8
部品1
100
AcDbLine
 10
3831.970589276556
 20
3182.494269174626
 30
0.0
 11
3831.970589276556
 21
3154.494269174626
 31
0.0
  0
LINE
  5
18D61
330
18C7A
100
AcDbEntity
  8
部品1
100
AcDbLine
 10
3858.970589276556
 20
3127.494269174607
 30
0.0
 11
3886.970589276556
 21
3127.494269174607
 31
0.0
  0
LINE
  5
18D62
330
18C7A
100
AcDbEntity
  8
部品1
100
AcDbLine
 10
3858.970589276556
 20
2707.494269174608
 30
0.0
 11
3886.970589276556
 21
2707.494269174608
 31
0.0
  0
LINE
  5
18D63
330
18C7A
100
AcDbEntity
  8
部品1
100
AcDbLine
 10
3858.470589276556
 20
3152.494269174604
 30
0.0
 11
3858.470589276556
 21
2702.494269174608
 31
0.0
  0
LINE
  5
18D64
330
18C7A
100
AcDbEntity
  8
部品1
100
AcDbLine
 10
3886.970589276533
 20
1447.494269174593
 30
0.0
 11
3886.970589276531
 21
1392.494269174596
 31
0.0
  0
LINE
  5
18D65
330
18C7A
100
AcDbEntity
  8
部品1
 48
50.0
100
AcDbLine
 10
3830.470589276556
 20
1448.994269174596
 30
0.0
 11
3858.970589276554
 21
1420.494269174596
 31
0.0
  0
LINE
  5
18D66
330
18C7A
100
AcDbEntity
  8
部品1
100
AcDbLine
 10
3886.970589276531
 20
1392.494269174596
 30
0.0
 11
3835.970589276531
 21
1392.494269174596
 31
0.0
  0
LINE
  5
18D67
330
18C7A
100
AcDbEntity
  8
部品1
100
AcDbLine
 10
3858.970589276533
 20
1447.494269174593
 30
0.0
 11
3886.970589276531
 21
1447.494269174593
 31
0.0
  0
LINE
  5
18D68
330
18C7A
100
AcDbEntity
  8
部品1
100
AcDbLine
 10
3886.970589276556
 20
3182.494269174604
 30
0.0
 11
3886.970589276531
 21
1392.494269174596
 31
0.0
  0
DIMENSION
  5
18D69
330
18C7A
100
AcDbEntity
  8
寸法
100
AcDbDimension
  2
*D12
 10
4534.396935010967
 20
1447.494269174593
 30
0.0
 11
4534.396935010965
 21
2287.4942691746
 31
0.0
 12
-3742.925985830444
 22
-6453.628869860112
 32
0.0
 70
   128
  1
4X420=<>
 71
     5
 42
1680.000000000014
  3
INABA_S40G
100
AcDbAlignedDimension
 13
3886.970589276556
 23
3127.494269174607
 33
0.0
 14
3886.970589276531
 24
1447.494269174593
 34
0.0
 50
90.0
100
AcDbRotatedDimension
1001
ACAD
1000
DSTYLE
1002
{
1002
}
  0
LINE
  5
18D6A
330
18C7A
100
AcDbEntity
  8
部品1
100
AcDbLine
 10
3858.970589276556
 20
3154.494269174604
 30
0.0
 11
3858.970589276534
 21
1420.494269174596
 31
0.0
  0
DIMENSION
  5
18D6B
330
18C7A
100
AcDbEntity
  8
寸法
100
AcDbDimension
  2
*D11
 10
4213.82831513858
 20
2607.276453505718
 30
0.0
 11
4113.828315138579
 21
2832.276453505718
 31
0.0
 12
-3742.925985830444
 22
-6453.628869860112
 32
0.0
 71
     5
 42
449.9999999999963
  3
INABA_S40G
100
AcDbAlignedDimension
 13
3858.470589276556
 23
3152.494269174604
 33
0.0
 14
3858.470589276556
 24
2702.494269174608
 34
0.0
 50
90.0
100
AcDbRotatedDimension
1001
ACAD
1000
DSTYLE
1002
{
1002
}
  0
LINE
  5
18D6C
330
18C7A
100
AcDbEntity
  8
部品1
100
AcDbLine
 10
3830.470589276547
 20
2702.494269174608
 30
0.0
 11
3830.470589276556
 21
1448.994269174596
 31
0.0
  0
LINE
  5
18D6D
330
18C7A
100
AcDbEntity
  8
破線
 48
10.0
100
AcDbLine
 10
3806.970589276549
 20
2702.494269174608
 30
0.0
 11
3806.970589276558
 21
1472.494269174593
 31
0.0
  0
LINE
  5
18D6E
330
18C7A
100
AcDbEntity
  8
部品1
100
AcDbLine
 10
2769.470589276556
 20
3146.494269174608
 30
0.0
 11
2794.470589276556
 21
3146.494269174611
 31
0.0
  0
LINE
  5
18D6F
330
18C7A
100
AcDbEntity
  8
部品1
100
AcDbLine
 10
2810.970589276556
 20
3172.494269174611
 30
0.0
 11
2816.970589276556
 21
3172.494269174611
 31
0.0
  0
LINE
  5
18D70
330
18C7A
100
AcDbEntity
  8
部品1
100
AcDbLine
 10
2816.970589276556
 20
3172.494269174611
 30
0.0
 11
2816.970589276556
 21
3154.494269174611
 31
0.0
  0
LINE
  5
18D71
330
18C7A
100
AcDbEntity
  8
部品1
100
AcDbLine
 10
2746.970589276556
 20
3172.494269174611
 30
0.0
 11
2752.970589276556
 21
3172.494269174611
 31
0.0
  0
LINE
  5
18D72
330
18C7A
100
AcDbEntity
  8
部品1
100
AcDbLine
 10
2746.970589276556
 20
3172.494269174611
 30
0.0
 11
2746.970589276556
 21
3154.494269174611
 31
0.0
  0
LINE
  5
18D73
330
18C7A
100
AcDbEntity
  8
部品1
100
AcDbLine
 10
2769.470589276556
 20
2702.494269174615
 30
0.0
 11
2794.470589276556
 21
2702.494269174615
 31
0.0
  0
LINE
  5
18D74
330
18C7A
100
AcDbEntity
  8
部品1
 48
50.0
100
AcDbLine
 10
2794.470589276556
 20
3154.494269174615
 30
0.0
 11
2794.470589276556
 21
2702.494269174615
 31
0.0
  0
LINE
  5
18D75
330
18C7A
100
AcDbEntity
  8
部品1
 48
50.0
100
AcDbLine
 10
2769.470589276554
 20
3154.494269174618
 30
0.0
 11
2769.470589276556
 21
2702.494269174615
 31
0.0
  0
LINE
  5
18D76
330
18C7A
100
AcDbEntity
  8
部品1
 48
50.0
100
AcDbLine
 10
2795.470589276556
 20
3152.494269174607
 30
0.0
 11
2795.470589276556
 21
2702.494269174615
 31
0.0
  0
LINE
  5
18D77
330
18C7A
100
AcDbEntity
  8
部品1
 48
50.0
100
AcDbLine
 10
2767.470589276556
 20
3152.494269174611
 30
0.0
 11
2767.470589276556
 21
2702.494269174615
 31
0.0
  0
LINE
  5
18D78
330
18C7A
100
AcDbEntity
  8
破線
 48
10.0
100
AcDbLine
 10
2176.97058927653
 20
1448.994269174509
 30
0.0
 11
2176.97058927653
 21
2702.494269174588
 31
0.0
  0
LINE
  5
18D79
330
18C7A
100
AcDbEntity
  8
破線
 48
10.0
100
AcDbLine
 10
2126.970589276534
 20
1448.994269174505
 30
0.0
 11
2126.970589276531
 21
2702.494269174586
 31
0.0
  0
LINE
  5
18D7A
330
18C7A
100
AcDbEntity
  8
部品1
100
AcDbLine
 10
2794.470589276556
 20
3154.494269174622
 30
0.0
 11
3858.970589276556
 21
3154.494269174604
 31
0.0
  0
LINE
  5
18D7B
330
18C7A
100
AcDbEntity
  8
細線
 48
50.0
100
AcDbLine
 10
3858.470589276556
 20
2702.494269174608
 30
0.0
 11
2795.470589276556
 21
3152.494269174607
 31
0.0
  0
LINE
  5
18D7C
330
18C7A
100
AcDbEntity
  8
部品1
100
AcDbLine
 10
2795.470589276555
 20
2702.494269174615
 30
0.0
 11
3858.470589276556
 21
2702.494269174608
 31
0.0
  0
LINE
  5
18D7D
330
18C7A
100
AcDbEntity
  8
部品1
100
AcDbLine
 10
2795.470589276556
 20
3152.494269174611
 30
0.0
 11
3858.470589276556
 21
3152.494269174604
 31
0.0
  0
LINE
  5
18D7E
330
18C7A
100
AcDbEntity
  8
細線
 48
50.0
100
AcDbLine
 10
3858.470589276556
 20
3152.494269174604
 30
0.0
 11
2795.470589276555
 21
2702.494269174615
 31
0.0
  0
DIMENSION
  5
18D7F
330
18C7A
100
AcDbEntity
  8
寸法
100
AcDbDimension
  2
*D10
 10
3801.234916278101
 20
2488.887829538937
 30
0.0
 11
3318.360544398907
 21
2488.887829538937
 31
0.0
 12
-3742.925985830444
 22
-6453.628869860112
 32
0.0
 70
   128
 71
     5
 42
1063.000000000012
  3
INABA_S40G
100
AcDbAlignedDimension
 13
2795.470589276555
 23
2702.494269174615
 33
0.0
 14
3858.470589276567
 24
2702.494269174608
 34
0.0
100
AcDbRotatedDimension
1001
ACAD
1000
DSTYLE
1002
{
1002
}
  0
LINE
  5
18D80
330
18C7A
100
AcDbEntity
  8
破線
 48
10.0
100
AcDbLine
 10
3806.970589276556
 20
1472.494269174594
 30
0.0
 11
3009.47058927653
 21
1472.494269174523
 31
0.0
  0
DIMENSION
  5
18D81
330
18C7A
100
AcDbEntity
  8
寸法
100
AcDbDimension
  2
*D9
 10
4534.396935010941
 20
1392.494269174596
 30
0.0
 11
4534.39693501094
 21
1084.008987800356
 31
0.0
 12
-3742.925985830444
 22
-6453.628869860112
 32
0.0
 70
   128
 71
     5
 42
54.99999999999636
  3
INABA_S40G
100
AcDbAlignedDimension
 13
3886.970589276531
 23
1447.494269174593
 33
0.0
 14
3886.970589276531
 24
1392.494269174596
 34
0.0
 50
90.0
100
AcDbRotatedDimension
1001
ACAD
1000
DSTYLE
1002
{
1002
}
  0
LINE
  5
18D82
330
18C7A
100
AcDbEntity
  8
部品1
100
AcDbLine
 10
471.9705892765196
 20
3182.494269174477
 30
0.0
 11
471.9705892765232
 21
3154.494269174477
 31
0.0
  0
LINE
  5
18D83
330
18C7A
100
AcDbEntity
  8
部品1
100
AcDbLine
 10
471.9705892765559
 20
3182.494269174509
 30
0.0
 11
471.9705892765559
 21
3154.494269174509
 31
0.0
  0
LINE
  5
18D84
330
18C7A
100
AcDbEntity
  8
部品1
100
AcDbLine
 10
444.9705892765232
 20
3127.49426917448
 30
0.0
 11
416.9705892765232
 21
3127.49426917448
 31
0.0
  0
LINE
  5
18D85
330
18C7A
100
AcDbEntity
  8
部品1
100
AcDbLine
 10
444.9705892765305
 20
2707.49426917448
 30
0.0
 11
416.9705892765305
 21
2707.49426917448
 31
0.0
  0
LINE
  5
18D86
330
18C7A
100
AcDbEntity
  8
部品1
 48
50.0
100
AcDbLine
 10
445.4705892765542
 20
3152.494269174506
 30
0.0
 11
445.4705892765559
 21
2702.494269174505
 31
0.0
  0
LINE
  5
18D87
330
18C7A
100
AcDbEntity
  8
部品1
 48
50.0
100
AcDbLine
 10
473.470589276545
 20
1448.994269174573
 30
0.0
 11
444.970589276545
 21
1420.494269174574
 31
0.0
  0
LINE
  5
18D88
330
18C7A
100
AcDbEntity
  8
部品1
100
AcDbLine
 10
471.9705892765232
 20
1392.494269174465
 30
0.0
 11
416.9705892765486
 21
1392.494269174465
 31
0.0
  0
LINE
  5
18D89
330
18C7A
100
AcDbEntity
  8
部品1
100
AcDbLine
 10
444.9705892765305
 20
1447.494269174429
 30
0.0
 11
416.9705892765469
 21
1447.494269174429
 31
0.0
  0
LINE
  5
18D8A
330
18C7A
100
AcDbEntity
  8
部品1
100
AcDbLine
 10
444.9705892765305
 20
1447.494269174465
 30
0.0
 11
416.9705892765469
 21
1447.494269174465
 31
0.0
  0
LINE
  5
18D8B
330
18C7A
100
AcDbEntity
  8
部品1
100
AcDbLine
 10
444.9705892765469
 20
1447.49426917448
 30
0.0
 11
416.9705892765469
 21
1447.49426917448
 31
0.0
  0
LINE
  5
18D8C
330
18C7A
100
AcDbEntity
  8
部品1
100
AcDbLine
 10
416.9705892765469
 20
1447.494269174429
 30
0.0
 11
416.9705892765486
 21
1392.494269174433
 31
0.0
  0
LINE
  5
18D8D
330
18C7A
100
AcDbEntity
  8
部品1
100
AcDbLine
 10
416.9705892765196
 20
3182.494269174477
 30
0.0
 11
416.9705892765486
 21
1392.494269174465
 31
0.0
  0
LINE
  5
18D8E
330
18C7A
100
AcDbEntity
  8
部品1
100
AcDbLine
 10
444.9705892765305
 20
1420.494269174556
 30
0.0
 11
444.9705892765559
 21
3154.494269174509
 31
0.0
  0
LINE
  5
18D8F
330
18C7A
100
AcDbEntity
  8
部品1
100
AcDbLine
 10
473.4705892765323
 20
2702.494269174608
 30
0.0
 11
473.470589276545
 21
1448.994269174571
 31
0.0
  0
LINE
  5
18D90
330
18C7A
100
AcDbEntity
  8
破線
 48
10.0
100
AcDbLine
 10
496.9705892765305
 20
2702.494269174608
 30
0.0
 11
496.9705892765451
 21
1472.494269174476
 31
0.0
  0
DIMENSION
  5
18D91
330
18C7A
100
AcDbEntity
  8
寸法
100
AcDbDimension
  2
*D8
 10
3886.970589276531
 20
410.7433333855515
 30
0.0
 11
2168.197775309287
 21
410.7433333855515
 31
0.0
 12
-3742.925985830444
 22
-6453.628869860112
 32
0.0
 70
   128
 71
     5
 42
3469.999999999982
  3
INABA_S40G
100
AcDbAlignedDimension
 13
416.9705892765486
 23
1392.494269174433
 33
0.0
 14
3886.970589276531
 24
1392.49426917456
 34
0.0
100
AcDbRotatedDimension
1001
ACAD
1000
DSTYLE
1002
{
1070
   341
1005
0
1002
}
  0
LINE
  5
18D92
330
18C7A
100
AcDbEntity
  8
部品1
100
AcDbLine
 10
444.9705892765559
 20
3154.494269174624
 30
0.0
 11
1509.470589276487
 21
3154.494269174626
 31
0.0
  0
LINE
  5
18D93
330
18C7A
100
AcDbEntity
  8
部品1
100
AcDbLine
 10
3886.970589276531
 20
1392.494269174596
 30
0.0
 11
3411.970589276556
 21
1392.494269174582
 31
0.0
  0
LINE
  5
18D94
330
18C7A
100
AcDbEntity
  8
部品1
100
AcDbLine
 10
416.9705892765559
 20
3182.494269174509
 30
0.0
 11
3886.970589276556
 21
3182.494269174604
 31
0.0
  0
LINE
  5
18D95
330
18C7A
100
AcDbEntity
  8
部品1
100
AcDbLine
 10
445.4705892765559
 20
2702.494269174509
 30
0.0
 11
1508.470589276487
 21
2702.494269174558
 31
0.0
  0
LINE
  5
18D96
330
18C7A
100
AcDbEntity
  8
細線
 48
50.0
100
AcDbLine
 10
2767.470589276556
 20
3152.494269174611
 30
0.0
 11
1536.470589276487
 21
2702.494269174558
 31
0.0
  0
LINE
  5
18D97
330
18C7A
100
AcDbEntity
  8
部品1
100
AcDbLine
 10
445.4705892765542
 20
3152.494269174509
 30
0.0
 11
1508.470589276485
 21
3152.494269174558
 31
0.0
  0
LINE
  5
18D98
330
18C7A
100
AcDbEntity
  8
細線
 48
50.0
100
AcDbLine
 10
2767.470589276554
 20
2702.494269174615
 30
0.0
 11
1536.470589276485
 21
3152.494269174558
 31
0.0
  0
LINE
  5
18D99
330
18C7A
100
AcDbEntity
  8
破線
 48
10.0
100
AcDbLine
 10
2126.970589276534
 20
1472.494269174502
 30
0.0
 11
1344.47058927653
 21
1472.494269174473
 31
0.0
  0
LINE
  5
18D9A
330
18C7A
100
AcDbEntity
  8
部品1
100
AcDbLine
 10
3830.470589276556
 20
1448.994269174596
 30
0.0
 11
473.4705892764487
 21
1448.994269174476
 31
0.0
  0
DIMENSION
  5
18D9B
330
18C7A
100
AcDbEntity
  8
寸法
100
AcDbDimension
  2
*D7
 10
471.970589276555
 20
3698.302488799491
 30
0.0
 11
108.4853079022819
 21
3698.302488799491
 31
0.0
 12
-3742.925985830444
 22
-6453.628869860112
 32
0.0
 70
   128
 71
     5
 42
55.00000000003456
  3
INABA_S40G
100
AcDbAlignedDimension
 13
416.9705892765205
 23
3182.494269174509
 33
0.0
 14
471.970589276555
 24
3182.494269174509
 34
0.0
100
AcDbRotatedDimension
1001
ACAD
1000
DSTYLE
1002
{
1002
}
  0
DIMENSION
  5
18D9C
330
18C7A
100
AcDbEntity
  8
寸法
100
AcDbDimension
  2
*D6
 10
4534.396935010967
 20
3127.494269174607
 30
0.0
 11
4534.396935010965
 21
3490.979550548844
 31
0.0
 12
-3742.925985830444
 22
-6453.628869860112
 32
0.0
 70
   128
 71
     5
 42
54.99999999999636
  3
INABA_S40G
100
AcDbAlignedDimension
 13
3886.970589276556
 23
3182.494269174604
 33
0.0
 14
3886.970589276556
 24
3127.494269174607
 34
0.0
 50
90.0
100
AcDbRotatedDimension
1001
ACAD
1000
DSTYLE
1002
{
1002
}
  0
DIMENSION
  5
18D9D
330
18C7A
100
AcDbEntity
  8
寸法
100
AcDbDimension
  2
*D5
 10
3886.970589276556
 20
3698.302488799589
 30
0.0
 11
4195.455870650794
 21
3698.302488799589
 31
0.0
 12
-3742.925985830444
 22
-6453.628869860112
 32
0.0
 70
   128
 71
     5
 42
55.0
  3
INABA_S40G
100
AcDbAlignedDimension
 13
3831.970589276556
 23
3182.494269174604
 33
0.0
 14
3886.970589276556
 24
3182.494269174604
 34
0.0
100
AcDbRotatedDimension
1001
ACAD
1000
DSTYLE
1002
{
1002
}
  0
DIMENSION
  5
18D9E
330
18C7A
100
AcDbEntity
  8
寸法
100
AcDbDimension
  2
*D4
 10
3831.970589276556
 20
3698.302488799607
 30
0.0
 11
2151.970589276555
 21
3698.302488799607
 31
0.0
 12
-3742.925985830444
 22
-6453.628869860112
 32
0.0
 70
   128
  1
8X420=<>
 71
     5
 42
3360.000000000001
  3
INABA_S40G
100
AcDbAlignedDimension
 13
471.970589276555
 23
3182.494269174509
 33
0.0
 14
3831.970589276556
 24
3182.494269174604
 34
0.0
100
AcDbRotatedDimension
1001
ACAD
1000
DSTYLE
1002
{
1002
}
  0
DIMENSION
  5
18D9F
330
18C7A
100
AcDbEntity
  8
寸法
100
AcDbDimension
  2
*D3
 10
4899.503876750603
 20
1392.494269174596
 30
0.0
 11
4899.503876750601
 21
2287.4942691746
 31
0.0
 12
-3742.925985830444
 22
-6453.628869860112
 32
0.0
 70
   128
 71
     5
 42
1790.000000000007
  3
INABA_S40G
100
AcDbAlignedDimension
 13
3886.970589276556
 23
3182.494269174604
 33
0.0
 14
3886.970589276531
 24
1392.494269174596
 34
0.0
 50
90.0
100
AcDbRotatedDimension
1001
ACAD
1000
DSTYLE
1002
{
1002
}
  0
ENDBLK
  5
18DA1
330
18C7A
100
AcDbEntity
  8
0
 48
50.0
100
AcDbBlockEnd
  0
BLOCK
  5
1C4CB
330
1C4CA
100
AcDbEntity
  8
0
 48
50.0
100
AcDbBlockBegin
  2
_NONE
 70
     0
 10
0.0
 20
0.0
 30
0.0
  3
_NONE
  1

  0
CIRCLE
  5
1C4CC
330
1C4CA
100
AcDbEntity
  8
0
  6
ByBlock
 62
     0
 48
50.0
100
AcDbCircle
 10
0.0
 20
0.0
 30
0.0
 40
0.25
  0
ENDBLK
  5
1C4CD
330
1C4CA
100
AcDbEntity
  8
0
 48
50.0
100
AcDbBlockEnd
  0
BLOCK
  5
211F4
330
211EB
100
AcDbEntity
  8
0
 48
50.0
100
AcDbBlockBegin
  2
*D19
 70
     1
 10
0.0
 20
0.0
 30
0.0
  3
*D19
  1

  0
LINE
  5
218B6
330
211EB
100
AcDbEntity
  8
寸法
 62
     0
 48
50.0
370
    -2
100
AcDbLine
 10
8103.6
 20
6856.907777930207
 30
0.0
 11
6681.75614359632
 21
6856.907777930207
 31
0.0
  0
LINE
  5
218B7
330
211EB
100
AcDbEntity
  8
寸法
 62
     0
 48
50.0
370
    -2
100
AcDbLine
 10
7303.6
 20
7756.907777930208
 30
0.0
 11
6681.75614359632
 21
7756.907777930208
 31
0.0
  0
LINE
  5
218B8
330
211EB
100
AcDbEntity
  8
寸法
 62
     0
 48
50.0
370
    -2
100
AcDbLine
 10
6741.756143596319
 20
6856.907777930207
 30
0.0
 11
6741.756143596319
 21
7756.907777930208
 31
0.0
  0
INSERT
  5
218B9
330
211EB
100
AcDbEntity
  8
寸法
 62
     0
 48
50.0
370
    -2
100
AcDbBlockReference
  2
_DOTSMALL
 10
6741.756143596319
 20
6856.907777930207
 30
0.0
 41
100.0
 42
100.0
 43
100.0
 50
270.0
  0
INSERT
  5
218BA
330
211EB
100
AcDbEntity
  8
寸法
 62
     0
 48
50.0
370
    -2
100
AcDbBlockReference
  2
_DOTSMALL
 10
6741.756143596319
 20
7756.907777930208
 30
0.0
 41
100.0
 42
100.0
 43
100.0
 50
90.0
  0
MTEXT
  5
218BB
330
211EB
100
AcDbEntity
  8
寸法
 62
     7
 48
50.0
100
AcDbMText
 10
6641.756143596317
 20
7306.907777930208
 30
0.0
 40
120.0
 41
0.0
 71
     5
 72
     1
  1
\A1;900
  7
STYLE1
 11
0.0000000000000001
 21
1.0
 31
0.0
 73
     1
 44
1.0
1001
ACAD
1000
MTEXTBEGIN
1070
    73
1070
     1
1070
    44
1040
1.0
1070
    74
1070
     0
1000
MTEXTEND
  0
POINT
  5
218BC
330
211EB
100
AcDbEntity
  8
DEFPOINTS
 62
     0
 48
50.0
100
AcDbPoint
 10
8123.600000000001
 20
6856.907777930207
 30
0.0
  0
POINT
  5
218BD
330
211EB
100
AcDbEntity
  8
DEFPOINTS
 62
     0
 48
50.0
100
AcDbPoint
 10
7323.6
 20
7756.907777930208
 30
0.0
  0
POINT
  5
218BE
330
211EB
100
AcDbEntity
  8
DEFPOINTS
 62
     0
 48
50.0
100
AcDbPoint
 10
6741.756143596319
 20
7756.907777930208
 30
0.0
  0
ENDBLK
  5
211F5
330
211EB
100
AcDbEntity
  8
0
 48
50.0
100
AcDbBlockEnd
  0
BLOCK
  5
21200
330
211F6
100
AcDbEntity
  8
0
 48
50.0
100
AcDbBlockBegin
  2
*D20
 70
     1
 10
0.0
 20
0.0
 30
0.0
  3
*D20
  1

  0
LINE
  5
218AD
330
211F6
100
AcDbEntity
  8
寸法
 62
     0
 48
50.0
370
    -2
100
AcDbLine
 10
9123.600000000001
 20
7776.907777930208
 30
0.0
 11
9123.600000000001
 21
8343.817543578534
 31
0.0
  0
LINE
  5
218AE
330
211F6
100
AcDbEntity
  8
寸法
 62
     0
 48
50.0
370
    -2
100
AcDbLine
 10
8223.600000000001
 20
7076.907777930208
 30
0.0
 11
8223.600000000001
 21
8343.817543578534
 31
0.0
  0
LINE
  5
218AF
330
211F6
100
AcDbEntity
  8
寸法
 62
     0
 48
50.0
370
    -2
100
AcDbLine
 10
9123.600000000001
 20
8283.817543578534
 30
0.0
 11
8223.600000000001
 21
8283.817543578534
 31
0.0
  0
INSERT
  5
218B0
330
211F6
100
AcDbEntity
  8
寸法
 62
     0
 48
50.0
370
    -2
100
AcDbBlockReference
  2
_DOTSMALL
 10
9123.600000000001
 20
8283.817543578534
 30
0.0
 41
100.0
 42
100.0
 43
100.0
  0
INSERT
  5
218B1
330
211F6
100
AcDbEntity
  8
寸法
 62
     0
 48
50.0
370
    -2
100
AcDbBlockReference
  2
_DOTSMALL
 10
8223.600000000001
 20
8283.817543578534
 30
0.0
 41
100.0
 42
100.0
 43
100.0
 50
180.0
  0
MTEXT
  5
218B2
330
211F6
100
AcDbEntity
  8
寸法
 62
     7
 48
50.0
100
AcDbMText
 10
8694.51852200628
 20
8383.817543578535
 30
0.0
 40
120.0
 41
0.0
 71
     5
 72
     1
  1
\A1;900
  7
STYLE1
 73
     1
 44
1.0
1001
ACAD
1000
MTEXTBEGIN
1070
    73
1070
     1
1070
    44
1040
1.0
1070
    74
1070
     0
1000
MTEXTEND
  0
POINT
  5
218B3
330
211F6
100
AcDbEntity
  8
DEFPOINTS
 62
     0
 48
50.0
100
AcDbPoint
 10
9123.600000000001
 20
7756.907777930208
 30
0.0
  0
POINT
  5
218B4
330
211F6
100
AcDbEntity
  8
DEFPOINTS
 62
     0
 48
50.0
100
AcDbPoint
 10
8223.600000000001
 20
7056.907777930208
 30
0.0
  0
POINT
  5
218B5
330
211F6
100
AcDbEntity
  8
DEFPOINTS
 62
     0
 48
50.0
100
AcDbPoint
 10
8223.600000000001
 20
8283.817543578534
 30
0.0
  0
ENDBLK
  5
21201
330
211F6
100
AcDbEntity
  8
0
 48
50.0
100
AcDbBlockEnd
  0
BLOCK
  5
2120D
330
21202
100
AcDbEntity
  8
0
 48
50.0
100
AcDbBlockBegin
  2
*D21
 70
     1
 10
0.0
 20
0.0
 30
0.0
  3
*D21
  1

  0
LINE
  5
218A3
330
21202
100
AcDbEntity
  8
寸法
 62
     0
 48
50.0
370
    -2
100
AcDbLine
 10
7303.6
 20
7756.907777930208
 30
0.0
 11
6424.227453286071
 21
7756.907777930208
 31
0.0
  0
LINE
  5
218A4
330
21202
100
AcDbEntity
  8
寸法
 62
     0
 48
50.0
370
    -2
100
AcDbLine
 10
7376.6
 20
7633.907777930208
 30
0.0
 11
6424.227453286071
 21
7633.907777930208
 31
0.0
  0
LINE
  5
218A5
330
21202
100
AcDbEntity
  8
寸法
 62
     0
 48
50.0
370
    -2
100
AcDbLine
 10
6484.227453286071
 20
7633.907777930208
 30
0.0
 11
6484.227453286071
 21
7756.907777930208
 31
0.0
  0
LINE
  5
218A6
330
21202
100
AcDbEntity
  8
寸法
 62
     0
 48
50.0
370
    -2
100
AcDbLine
 10
6484.227453286071
 20
7756.907777930208
 30
0.0
 11
6484.227453286071
 21
8208.499661022242
 31
0.0
  0
INSERT
  5
218A7
330
21202
100
AcDbEntity
  8
寸法
 62
     0
 48
50.0
370
    -2
100
AcDbBlockReference
  2
_DOTSMALL
 10
6484.227453286071
 20
7633.907777930208
 30
0.0
 41
100.0
 42
100.0
 43
100.0
 50
270.0
  0
INSERT
  5
218A8
330
21202
100
AcDbEntity
  8
寸法
 62
     0
 48
50.0
370
    -2
100
AcDbBlockReference
  2
_DOTSMALL
 10
6484.227453286071
 20
7756.907777930208
 30
0.0
 41
100.0
 42
100.0
 43
100.0
 50
90.0
  0
MTEXT
  5
218A9
330
21202
100
AcDbEntity
  8
寸法
 62
     7
 48
50.0
100
AcDbMText
 10
6384.215642262448
 20
8070.014379648005
 30
0.0
 40
120.0
 41
0.0
 71
     5
 72
     1
  1
\A1;123
  7
STYLE1
 11
0.0000000000000001
 21
1.0
 31
0.0
 73
     1
 44
1.0
1001
ACAD
1000
MTEXTBEGIN
1070
    73
1070
     1
1070
    44
1040
1.0
1070
    74
1070
     0
1000
MTEXTEND
  0
POINT
  5
218AA
330
21202
100
AcDbEntity
  8
DEFPOINTS
 62
     0
 48
50.0
100
AcDbPoint
 10
7323.6
 20
7756.907777930208
 30
0.0
  0
POINT
  5
218AB
330
21202
100
AcDbEntity
  8
DEFPOINTS
 62
     0
 48
50.0
100
AcDbPoint
 10
7396.600000000001
 20
7633.907777930208
 30
0.0
  0
POINT
  5
218AC
330
21202
100
AcDbEntity
  8
DEFPOINTS
 62
     0
 48
50.0
100
AcDbPoint
 10
6484.227453286071
 20
7633.907777930208
 30
0.0
  0
ENDBLK
  5
2120E
330
21202
100
AcDbEntity
  8
0
 48
50.0
100
AcDbBlockEnd
  0
BLOCK
  5
21218
330
2120F
100
AcDbEntity
  8
0
 48
50.0
100
AcDbBlockBegin
  2
*D22
 70
     1
 10
0.0
 20
0.0
 30
0.0
  3
*D22
  1

  0
LINE
  5
2189A
330
2120F
100
AcDbEntity
  8
寸法
 62
     0
 48
50.0
370
    -2
100
AcDbLine
 10
7303.6
 20
5956.907777930208
 30
0.0
 11
6172.284356566673
 21
5956.907777930208
 31
0.0
  0
LINE
  5
2189B
330
2120F
100
AcDbEntity
  8
寸法
 62
     0
 48
50.0
370
    -2
100
AcDbLine
 10
7303.6
 20
7756.907777930208
 30
0.0
 11
6172.284356566674
 21
7756.907777930208
 31
0.0
  0
LINE
  5
2189C
330
2120F
100
AcDbEntity
  8
寸法
 62
     0
 48
50.0
370
    -2
100
AcDbLine
 10
6232.284356566673
 20
5956.907777930208
 30
0.0
 11
6232.284356566673
 21
7756.907777930208
 31
0.0
  0
INSERT
  5
2189D
330
2120F
100
AcDbEntity
  8
寸法
 62
     0
 48
50.0
370
    -2
100
AcDbBlockReference
  2
_DOTSMALL
 10
6232.284356566673
 20
5956.907777930208
 30
0.0
 41
100.0
 42
100.0
 43
100.0
 50
270.0
  0
INSERT
  5
2189E
330
2120F
100
AcDbEntity
  8
寸法
 62
     0
 48
50.0
370
    -2
100
AcDbBlockReference
  2
_DOTSMALL
 10
6232.284356566673
 20
7756.907777930208
 30
0.0
 41
100.0
 42
100.0
 43
100.0
 50
90.0
  0
MTEXT
  5
2189F
330
2120F
100
AcDbEntity
  8
寸法
 62
     7
 48
50.0
100
AcDbMText
 10
6132.284356566671
 20
6856.907777930207
 30
0.0
 40
120.0
 41
0.0
 71
     5
 72
     1
  1
\A1;1800
  7
STYLE1
 11
0.0000000000000001
 21
1.0
 31
0.0
 73
     1
 44
1.0
1001
ACAD
1000
MTEXTBEGIN
1070
    73
1070
     1
1070
    44
1040
1.0
1070
    74
1070
     0
1000
MTEXTEND
  0
POINT
  5
218A0
330
2120F
100
AcDbEntity
  8
DEFPOINTS
 62
     0
 48
50.0
100
AcDbPoint
 10
7323.6
 20
5956.907777930208
 30
0.0
  0
POINT
  5
218A1
330
2120F
100
AcDbEntity
  8
DEFPOINTS
 62
     0
 48
50.0
100
AcDbPoint
 10
7323.6
 20
7756.907777930208
 30
0.0
  0
POINT
  5
218A2
330
2120F
100
AcDbEntity
  8
DEFPOINTS
 62
     0
 48
50.0
100
AcDbPoint
 10
6232.284356566673
 20
7756.907777930208
 30
0.0
  0
ENDBLK
  5
21219
330
2120F
100
AcDbEntity
  8
0
 48
50.0
100
AcDbBlockEnd
  0
BLOCK
  5
21223
330
2121A
100
AcDbEntity
  8
0
 48
50.0
100
AcDbBlockBegin
  2
*D23
 70
     1
 10
0.0
 20
0.0
 30
0.0
  3
*D23
  1

  0
LINE
  5
21891
330
2121A
100
AcDbEntity
  8
寸法
 62
     0
 48
50.0
370
    -2
100
AcDbLine
 10
8223.600000000001
 20
7076.907777930208
 30
0.0
 11
8223.600000000001
 21
8343.817543578534
 31
0.0
  0
LINE
  5
21892
330
2121A
100
AcDbEntity
  8
寸法
 62
     0
 48
50.0
370
    -2
100
AcDbLine
 10
7323.6
 20
7776.907777930208
 30
0.0
 11
7323.6
 21
8343.817543578534
 31
0.0
  0
LINE
  5
21893
330
2121A
100
AcDbEntity
  8
寸法
 62
     0
 48
50.0
370
    -2
100
AcDbLine
 10
8223.600000000001
 20
8283.817543578534
 30
0.0
 11
7323.6
 21
8283.817543578534
 31
0.0
  0
INSERT
  5
21894
330
2121A
100
AcDbEntity
  8
寸法
 62
     0
 48
50.0
370
    -2
100
AcDbBlockReference
  2
_DOTSMALL
 10
8223.600000000001
 20
8283.817543578534
 30
0.0
 41
100.0
 42
100.0
 43
100.0
  0
INSERT
  5
21895
330
2121A
100
AcDbEntity
  8
寸法
 62
     0
 48
50.0
370
    -2
100
AcDbBlockReference
  2
_DOTSMALL
 10
7323.6
 20
8283.817543578534
 30
0.0
 41
100.0
 42
100.0
 43
100.0
 50
180.0
  0
MTEXT
  5
21896
330
2121A
100
AcDbEntity
  8
寸法
 62
     7
 48
50.0
100
AcDbMText
 10
7773.6
 20
8383.817543578535
 30
0.0
 40
120.0
 41
0.0
 71
     5
 72
     1
  1
\A1;900
  7
STYLE1
 73
     1
 44
1.0
1001
ACAD
1000
MTEXTBEGIN
1070
    73
1070
     1
1070
    44
1040
1.0
1070
    74
1070
     0
1000
MTEXTEND
  0
POINT
  5
21897
330
2121A
100
AcDbEntity
  8
DEFPOINTS
 62
     0
 48
50.0
100
AcDbPoint
 10
8223.600000000001
 20
7056.907777930208
 30
0.0
  0
POINT
  5
21898
330
2121A
100
AcDbEntity
  8
DEFPOINTS
 62
     0
 48
50.0
100
AcDbPoint
 10
7323.6
 20
7756.907777930208
 30
0.0
  0
POINT
  5
21899
330
2121A
100
AcDbEntity
  8
DEFPOINTS
 62
     0
 48
50.0
100
AcDbPoint
 10
7323.6
 20
8283.817543578534
 30
0.0
  0
ENDBLK
  5
21224
330
2121A
100
AcDbEntity
  8
0
 48
50.0
100
AcDbBlockEnd
  0
BLOCK
  5
2123D
330
21232
100
AcDbEntity
  8
0
 48
50.0
100
AcDbBlockBegin
  2
*D24
 70
     1
 10
0.0
 20
0.0
 30
0.0
  3
*D24
  1

  0
LINE
  5
22887
330
21232
100
AcDbEntity
  8
寸法
 62
     0
 48
50.0
370
    -2
100
AcDbLine
 10
7303.6
 20
5881.907777930224
 30
0.0
 11
6919.872307120224
 21
5881.907777930224
 31
0.0
  0
LINE
  5
22888
330
21232
100
AcDbEntity
  8
寸法
 62
     0
 48
50.0
370
    -2
100
AcDbLine
 10
7303.6
 20
5956.907777930208
 30
0.0
 11
6919.872307120224
 21
5956.907777930208
 31
0.0
  0
LINE
  5
22889
330
21232
100
AcDbEntity
  8
寸法
 62
     0
 48
50.0
370
    -2
100
AcDbLine
 10
6979.872307120223
 20
5956.907777930208
 30
0.0
 11
6979.872307120223
 21
6056.907777930208
 31
0.0
  0
LINE
  5
2288A
330
21232
100
AcDbEntity
  8
寸法
 62
     0
 48
50.0
370
    -2
100
AcDbLine
 10
6979.872307120223
 20
5881.907777930224
 30
0.0
 11
6979.872307120223
 21
5014.937215181731
 31
0.0
  0
LINE
  5
2288B
330
21232
100
AcDbEntity
  8
寸法
 62
     0
 48
50.0
370
    -2
100
AcDbLine
 10
6979.872307120223
 20
5956.907777930208
 30
0.0
 11
6979.872307120223
 21
5881.907777930224
 31
0.0
  0
INSERT
  5
2288C
330
21232
100
AcDbEntity
  8
寸法
 62
     0
 48
50.0
370
    -2
100
AcDbBlockReference
  2
_DOTSMALL
 10
6979.872307120223
 20
5956.907777930208
 30
0.0
 41
100.0
 42
100.0
 43
100.0
 50
270.0
  0
INSERT
  5
2288D
330
21232
100
AcDbEntity
  8
寸法
 62
     0
 48
50.0
370
    -2
100
AcDbBlockReference
  2
_DOTSMALL
 10
6979.872307120223
 20
5881.907777930224
 30
0.0
 41
100.0
 42
100.0
 43
100.0
 50
90.0
  0
MTEXT
  5
2288E
330
21232
100
AcDbEntity
  8
寸法
 62
     7
 48
50.0
100
AcDbMText
 10
6879.872307120222
 20
5348.42249655597
 30
0.0
 40
120.0
 41
0.0
 71
     5
 72
     1
  1
\A1;扉の出75
  7
STYLE1
 11
0.0000000000000001
 21
1.0
 31
0.0
 73
     1
 44
1.0
1001
ACAD
1000
MTEXTBEGIN
1070
    73
1070
     1
1070
    44
1040
1.0
1070
    74
1070
     0
1000
MTEXTEND
  0
POINT
  5
2288F
330
21232
100
AcDbEntity
  8
DEFPOINTS
 62
     0
 48
50.0
100
AcDbPoint
 10
7323.6
 20
5881.907777930224
 30
0.0
  0
POINT
  5
22890
330
21232
100
AcDbEntity
  8
DEFPOINTS
 62
     0
 48
50.0
100
AcDbPoint
 10
7323.6
 20
5956.907777930208
 30
0.0
  0
POINT
  5
22891
330
21232
100
AcDbEntity
  8
DEFPOINTS
 62
     0
 48
50.0
100
AcDbPoint
 10
6979.872307120223
 20
5956.907777930208
 30
0.0
  0
ENDBLK
  5
2123E
330
21232
100
AcDbEntity
  8
0
 48
50.0
100
AcDbBlockEnd
  0
BLOCK
  5
21256
330
2124C
100
AcDbEntity
  8
0
 48
50.0
100
AcDbBlockBegin
  2
*D25
 70
     1
 10
0.0
 20
0.0
 30
0.0
  3
*D25
  1

  0
LINE
  5
21873
330
2124C
100
AcDbEntity
  8
寸法
 62
     0
 48
50.0
370
    -2
100
AcDbLine
 10
7376.6
 20
7633.907777930208
 30
0.0
 11
6424.227453286071
 21
7633.907777930208
 31
0.0
  0
LINE
  5
21874
330
2124C
100
AcDbEntity
  8
寸法
 62
     0
 48
50.0
370
    -2
100
AcDbLine
 10
7376.600000000007
 20
6079.907777930209
 30
0.0
 11
6424.227453286071
 21
6079.907777930209
 31
0.0
  0
LINE
  5
21875
330
2124C
100
AcDbEntity
  8
寸法
 62
     0
 48
50.0
370
    -2
100
AcDbLine
 10
6484.227453286073
 20
7633.907777930208
 30
0.0
 11
6484.227453286071
 21
6079.907777930209
 31
0.0
  0
INSERT
  5
21876
330
2124C
100
AcDbEntity
  8
寸法
 62
     0
 48
50.0
370
    -2
100
AcDbBlockReference
  2
_DOTSMALL
 10
6484.227453286073
 20
7633.907777930208
 30
0.0
 41
100.0
 42
100.0
 43
100.0
 50
90.0
  0
INSERT
  5
21877
330
2124C
100
AcDbEntity
  8
寸法
 62
     0
 48
50.0
370
    -2
100
AcDbBlockReference
  2
_DOTSMALL
 10
6484.227453286071
 20
6079.907777930209
 30
0.0
 41
100.0
 42
100.0
 43
100.0
 50
270.0
  0
MTEXT
  5
21878
330
2124C
100
AcDbEntity
  8
寸法
 62
     7
 48
50.0
100
AcDbMText
 10
6384.22745328607
 20
6856.907777930207
 30
0.0
 40
120.0
 41
0.0
 71
     5
 72
     1
  1
\A1;1554
  7
STYLE1
 11
0.0000000000000001
 21
1.0
 31
0.0
 73
     1
 44
1.0
1001
ACAD
1000
MTEXTBEGIN
1070
    73
1070
     1
1070
    44
1040
1.0
1070
    74
1070
     0
1000
MTEXTEND
  0
POINT
  5
21879
330
2124C
100
AcDbEntity
  8
DEFPOINTS
 62
     0
 48
50.0
100
AcDbPoint
 10
7396.600000000001
 20
7633.907777930208
 30
0.0
  0
POINT
  5
2187A
330
2124C
100
AcDbEntity
  8
DEFPOINTS
 62
     0
 48
50.0
100
AcDbPoint
 10
7396.600000000008
 20
6079.907777930209
 30
0.0
  0
POINT
  5
2187B
330
2124C
100
AcDbEntity
  8
DEFPOINTS
 62
     0
 48
50.0
100
AcDbPoint
 10
6484.227453286071
 20
6079.907777930209
 30
0.0
  0
ENDBLK
  5
21257
330
2124C
100
AcDbEntity
  8
0
 48
50.0
100
AcDbBlockEnd
  0
BLOCK
  5
2126D
330
21262
100
AcDbEntity
  8
0
 48
50.0
100
AcDbBlockBegin
  2
*D26
 70
     1
 10
0.0
 20
0.0
 30
0.0
  3
*D26
  1

  0
LINE
  5
21860
330
21262
100
AcDbEntity
  8
寸法
 62
     0
 48
50.0
370
    -2
100
AcDbLine
 10
7376.600000000007
 20
6079.907777930209
 30
0.0
 11
6424.227453286071
 21
6079.907777930209
 31
0.0
  0
LINE
  5
21861
330
21262
100
AcDbEntity
  8
寸法
 62
     0
 48
50.0
370
    -2
100
AcDbLine
 10
7303.6
 20
5956.907777930208
 30
0.0
 11
6424.227453286071
 21
5956.907777930208
 31
0.0
  0
LINE
  5
21862
330
21262
100
AcDbEntity
  8
寸法
 62
     0
 48
50.0
370
    -2
100
AcDbLine
 10
6484.227453286071
 20
6079.907777930209
 30
0.0
 11
6484.227453286071
 21
5956.907777930208
 31
0.0
  0
LINE
  5
21863
330
21262
100
AcDbEntity
  8
寸法
 62
     0
 48
50.0
370
    -2
100
AcDbLine
 10
6484.227453286071
 20
5956.907777930208
 30
0.0
 11
6484.227453286071
 21
5545.315894838169
 31
0.0
  0
INSERT
  5
21864
330
21262
100
AcDbEntity
  8
寸法
 62
     0
 48
50.0
370
    -2
100
AcDbBlockReference
  2
_DOTSMALL
 10
6484.227453286071
 20
6079.907777930209
 30
0.0
 41
100.0
 42
100.0
 43
100.0
 50
90.0
  0
INSERT
  5
21865
330
21262
100
AcDbEntity
  8
寸法
 62
     0
 48
50.0
370
    -2
100
AcDbBlockReference
  2
_DOTSMALL
 10
6484.227453286071
 20
5956.907777930208
 30
0.0
 41
100.0
 42
100.0
 43
100.0
 50
270.0
  0
MTEXT
  5
21866
330
21262
100
AcDbEntity
  8
寸法
 62
     7
 48
50.0
100
AcDbMText
 10
6384.215642262448
 20
5683.801176212409
 30
0.0
 40
120.0
 41
0.0
 71
     5
 72
     1
  1
\A1;123
  7
STYLE1
 11
0.0000000000000001
 21
1.0
 31
0.0
 73
     1
 44
1.0
1001
ACAD
1000
MTEXTBEGIN
1070
    73
1070
     1
1070
    44
1040
1.0
1070
    74
1070
     0
1000
MTEXTEND
  0
POINT
  5
21867
330
21262
100
AcDbEntity
  8
DEFPOINTS
 62
     0
 48
50.0
100
AcDbPoint
 10
7396.600000000008
 20
6079.907777930209
 30
0.0
  0
POINT
  5
21868
330
21262
100
AcDbEntity
  8
DEFPOINTS
 62
     0
 48
50.0
100
AcDbPoint
 10
7323.6
 20
5956.907777930208
 30
0.0
  0
POINT
  5
21869
330
21262
100
AcDbEntity
  8
DEFPOINTS
 62
     0
 48
50.0
100
AcDbPoint
 10
6484.227453286071
 20
5956.907777930208
 30
0.0
  0
ENDBLK
  5
2126E
330
21262
100
AcDbEntity
  8
0
 48
50.0
100
AcDbBlockEnd
  0
BLOCK
  5
21287
330
2127C
100
AcDbEntity
  8
0
 48
50.0
100
AcDbBlockBegin
  2
*D27
 70
     1
 10
0.0
 20
0.0
 30
0.0
  3
*D27
  1

  0
LINE
  5
234C1
330
2127C
100
AcDbEntity
  8
寸法
 62
     0
 48
50.0
370
    -2
100
AcDbLine
 10
9123.600000000001
 20
7296.192374468664
 30
0.0
 11
9123.600000000001
 21
7239.199110429834
 31
0.0
  0
LINE
  5
234C2
330
2127C
100
AcDbEntity
  8
寸法
 62
     0
 48
50.0
370
    -2
100
AcDbLine
 10
9003.6
 20
7506.907777930209
 30
0.0
 11
9003.6
 21
7239.199110429834
 31
0.0
  0
LINE
  5
234C3
330
2127C
100
AcDbEntity
  8
寸法
 62
     0
 48
50.0
370
    -2
100
AcDbLine
 10
9003.6
 20
7299.199110429833
 30
0.0
 11
9123.600000000001
 21
7299.199110429833
 31
0.0
  0
LINE
  5
234C4
330
2127C
100
AcDbEntity
  8
寸法
 62
     0
 48
50.0
370
    -2
100
AcDbLine
 10
9123.600000000001
 20
7299.199110429833
 30
0.0
 11
9529.7062992126
 21
7299.199110429833
 31
0.0
  0
INSERT
  5
234C5
330
2127C
100
AcDbEntity
  8
寸法
 62
     0
 48
50.0
370
    -2
100
AcDbBlockReference
  2
_DOTSMALL
 10
9003.6
 20
7299.199110429833
 30
0.0
 41
100.0
 42
100.0
 43
100.0
 50
180.0
  0
INSERT
  5
234C6
330
2127C
100
AcDbEntity
  8
寸法
 62
     0
 48
50.0
370
    -2
100
AcDbBlockReference
  2
_DOTSMALL
 10
9123.600000000001
 20
7299.199110429833
 30
0.0
 41
100.0
 42
100.0
 43
100.0
  0
MTEXT
  5
234C7
330
2127C
100
AcDbEntity
  8
寸法
 62
     7
 48
50.0
100
AcDbMText
 10
9393.659055118112
 20
7399.210921453456
 30
0.0
 40
120.0
 41
0.0
 71
     5
 72
     1
  1
\A1;120
  7
STYLE1
 73
     1
 44
1.0
1001
ACAD
1000
MTEXTBEGIN
1070
    73
1070
     1
1070
    44
1040
1.0
1070
    74
1070
     0
1000
MTEXTEND
  0
POINT
  5
234C8
330
2127C
100
AcDbEntity
  8
DEFPOINTS
 62
     0
 48
50.0
100
AcDbPoint
 10
9123.600000000001
 20
7316.192374468664
 30
0.0
  0
POINT
  5
234C9
330
2127C
100
AcDbEntity
  8
DEFPOINTS
 62
     0
 48
50.0
100
AcDbPoint
 10
9003.6
 20
7526.907777930209
 30
0.0
  0
POINT
  5
234CA
330
2127C
100
AcDbEntity
  8
DEFPOINTS
 62
     0
 48
50.0
100
AcDbPoint
 10
9003.6
 20
7299.199110429833
 30
0.0
  0
ENDBLK
  5
21288
330
2127C
100
AcDbEntity
  8
0
 48
50.0
100
AcDbBlockEnd
  0
BLOCK
  5
21293
330
21289
100
AcDbEntity
  8
0
 48
50.0
100
AcDbBlockBegin
  2
*D28
 70
     1
 10
0.0
 20
0.0
 30
0.0
  3
*D28
  1

  0
LINE
  5
21843
330
21289
100
AcDbEntity
  8
寸法
 62
     0
 48
50.0
370
    -2
100
AcDbLine
 10
7303.6
 20
5956.907777930208
 30
0.0
 11
6681.756143596318
 21
5956.907777930208
 31
0.0
  0
LINE
  5
21844
330
21289
100
AcDbEntity
  8
寸法
 62
     0
 48
50.0
370
    -2
100
AcDbLine
 10
8103.6
 20
6856.907777930207
 30
0.0
 11
6681.75614359632
 21
6856.907777930207
 31
0.0
  0
LINE
  5
21845
330
21289
100
AcDbEntity
  8
寸法
 62
     0
 48
50.0
370
    -2
100
AcDbLine
 10
6741.756143596319
 20
5956.907777930208
 30
0.0
 11
6741.756143596319
 21
6856.907777930207
 31
0.0
  0
INSERT
  5
21846
330
21289
100
AcDbEntity
  8
寸法
 62
     0
 48
50.0
370
    -2
100
AcDbBlockReference
  2
_DOTSMALL
 10
6741.756143596319
 20
5956.907777930208
 30
0.0
 41
100.0
 42
100.0
 43
100.0
 50
270.0
  0
INSERT
  5
21847
330
21289
100
AcDbEntity
  8
寸法
 62
     0
 48
50.0
370
    -2
100
AcDbBlockReference
  2
_DOTSMALL
 10
6741.756143596319
 20
6856.907777930207
 30
0.0
 41
100.0
 42
100.0
 43
100.0
 50
90.0
  0
MTEXT
  5
21848
330
21289
100
AcDbEntity
  8
寸法
 62
     7
 48
50.0
100
AcDbMText
 10
6641.756143596317
 20
6406.907777930212
 30
0.0
 40
120.0
 41
0.0
 71
     5
 72
     1
  1
\A1;900
  7
STYLE1
 11
0.0000000000000001
 21
1.0
 31
0.0
 73
     1
 44
1.0
1001
ACAD
1000
MTEXTBEGIN
1070
    73
1070
     1
1070
    44
1040
1.0
1070
    74
1070
     0
1000
MTEXTEND
  0
POINT
  5
21849
330
21289
100
AcDbEntity
  8
DEFPOINTS
 62
     0
 48
50.0
100
AcDbPoint
 10
7323.6
 20
5956.907777930208
 30
0.0
  0
POINT
  5
2184A
330
21289
100
AcDbEntity
  8
DEFPOINTS
 62
     0
 48
50.0
100
AcDbPoint
 10
8123.600000000001
 20
6856.907777930207
 30
0.0
  0
POINT
  5
2184B
330
21289
100
AcDbEntity
  8
DEFPOINTS
 62
     0
 48
50.0
100
AcDbPoint
 10
6741.756143596319
 20
6856.907777930207
 30
0.0
  0
ENDBLK
  5
21294
330
21289
100
AcDbEntity
  8
0
 48
50.0
100
AcDbBlockEnd
  0
BLOCK
  5
212A0
330
21295
100
AcDbEntity
  8
0
 48
50.0
100
AcDbBlockBegin
  2
*D29
 70
     1
 10
0.0
 20
0.0
 30
0.0
  3
*D29
  1

  0
LINE
  5
234B7
330
21295
100
AcDbEntity
  8
寸法
 62
     0
 48
50.0
370
    -2
100
AcDbLine
 10
9003.6
 20
7506.907777930209
 30
0.0
 11
9003.6
 21
7239.199110429834
 31
0.0
  0
LINE
  5
234B8
330
21295
100
AcDbEntity
  8
寸法
 62
     0
 48
50.0
370
    -2
100
AcDbLine
 10
8893.600000000001
 20
7506.907777930206
 30
0.0
 11
8893.600000000001
 21
7239.199110429834
 31
0.0
  0
LINE
  5
234B9
330
21295
100
AcDbEntity
  8
寸法
 62
     0
 48
50.0
370
    -2
100
AcDbLine
 10
9003.6
 20
7299.199110429833
 30
0.0
 11
8893.600000000001
 21
7299.199110429833
 31
0.0
  0
LINE
  5
234BA
330
21295
100
AcDbEntity
  8
寸法
 62
     0
 48
50.0
370
    -2
100
AcDbLine
 10
8893.600000000001
 20
7299.199110429833
 30
0.0
 11
8499.493700787402
 21
7299.199110429833
 31
0.0
  0
INSERT
  5
234BB
330
21295
100
AcDbEntity
  8
寸法
 62
     0
 48
50.0
370
    -2
100
AcDbBlockReference
  2
_DOTSMALL
 10
9003.6
 20
7299.199110429833
 30
0.0
 41
100.0
 42
100.0
 43
100.0
  0
INSERT
  5
234BC
330
21295
100
AcDbEntity
  8
寸法
 62
     0
 48
50.0
370
    -2
100
AcDbBlockReference
  2
_DOTSMALL
 10
8893.600000000001
 20
7299.199110429833
 30
0.0
 41
100.0
 42
100.0
 43
100.0
 50
180.0
  0
MTEXT
  5
234BD
330
21295
100
AcDbEntity
  8
寸法
 62
     7
 48
50.0
100
AcDbMText
 10
8623.54094488189
 20
7399.199110429833
 30
0.0
 40
120.0
 41
0.0
 71
     5
 72
     1
  1
\A1;110
  7
STYLE1
 73
     1
 44
1.0
1001
ACAD
1000
MTEXTBEGIN
1070
    73
1070
     1
1070
    44
1040
1.0
1070
    74
1070
     0
1000
MTEXTEND
  0
POINT
  5
234BE
330
21295
100
AcDbEntity
  8
DEFPOINTS
 62
     0
 48
50.0
100
AcDbPoint
 10
9003.6
 20
7526.907777930209
 30
0.0
  0
POINT
  5
234BF
330
21295
100
AcDbEntity
  8
DEFPOINTS
 62
     0
 48
50.0
100
AcDbPoint
 10
8893.600000000001
 20
7526.907777930206
 30
0.0
  0
POINT
  5
234C0
330
21295
100
AcDbEntity
  8
DEFPOINTS
 62
     0
 48
50.0
100
AcDbPoint
 10
8893.600000000001
 20
7299.199110429833
 30
0.0
  0
ENDBLK
  5
212A1
330
21295
100
AcDbEntity
  8
0
 48
50.0
100
AcDbBlockEnd
  0
BLOCK
  5
212AB
330
212A2
100
AcDbEntity
  8
0
 48
50.0
100
AcDbBlockBegin
  2
*D30
 70
     1
 10
0.0
 20
0.0
 30
0.0
  3
*D30
  1

  0
LINE
  5
21830
330
212A2
100
AcDbEntity
  8
寸法
 62
     0
 48
50.0
370
    -2
100
AcDbLine
 10
9000.6
 20
7703.907777930208
 30
0.0
 11
9000.6
 21
8562.667404472289
 31
0.0
  0
LINE
  5
21831
330
212A2
100
AcDbEntity
  8
寸法
 62
     0
 48
50.0
370
    -2
100
AcDbLine
 10
7446.6
 20
7703.907777930208
 30
0.0
 11
7446.6
 21
8562.667404472289
 31
0.0
  0
LINE
  5
21832
330
212A2
100
AcDbEntity
  8
寸法
 62
     0
 48
50.0
370
    -2
100
AcDbLine
 10
9000.6
 20
8502.667404472289
 30
0.0
 11
7446.6
 21
8502.667404472289
 31
0.0
  0
INSERT
  5
21833
330
212A2
100
AcDbEntity
  8
寸法
 62
     0
 48
50.0
370
    -2
100
AcDbBlockReference
  2
_DOTSMALL
 10
9000.6
 20
8502.667404472289
 30
0.0
 41
100.0
 42
100.0
 43
100.0
  0
INSERT
  5
21834
330
212A2
100
AcDbEntity
  8
寸法
 62
     0
 48
50.0
370
    -2
100
AcDbBlockReference
  2
_DOTSMALL
 10
7446.6
 20
8502.667404472289
 30
0.0
 41
100.0
 42
100.0
 43
100.0
 50
180.0
  0
MTEXT
  5
21835
330
212A2
100
AcDbEntity
  8
寸法
 62
     7
 48
50.0
100
AcDbMText
 10
8223.600000000001
 20
8602.66740447229
 30
0.0
 40
120.0
 41
0.0
 71
     5
 72
     1
  1
\A1;1554
  7
STYLE1
 73
     1
 44
1.0
1001
ACAD
1000
MTEXTBEGIN
1070
    73
1070
     1
1070
    44
1040
1.0
1070
    74
1070
     0
1000
MTEXTEND
  0
POINT
  5
21836
330
212A2
100
AcDbEntity
  8
DEFPOINTS
 62
     0
 48
50.0
100
AcDbPoint
 10
9000.6
 20
7683.907777930208
 30
0.0
  0
POINT
  5
21837
330
212A2
100
AcDbEntity
  8
DEFPOINTS
 62
     0
 48
50.0
100
AcDbPoint
 10
7446.6
 20
7683.907777930208
 30
0.0
  0
POINT
  5
21838
330
212A2
100
AcDbEntity
  8
DEFPOINTS
 62
     0
 48
50.0
100
AcDbPoint
 10
7446.6
 20
8502.667404472289
 30
0.0
  0
ENDBLK
  5
212AC
330
212A2
100
AcDbEntity
  8
0
 48
50.0
100
AcDbBlockEnd
  0
BLOCK
  5
212B6
330
212AD
100
AcDbEntity
  8
0
 48
50.0
100
AcDbBlockBegin
  2
*D31
 70
     1
 10
0.0
 20
0.0
 30
0.0
  3
*D31
  1

  0
LINE
  5
21827
330
212AD
100
AcDbEntity
  8
寸法
 62
     0
 48
50.0
370
    -2
100
AcDbLine
 10
7323.6
 20
7776.907777930208
 30
0.0
 11
7323.6
 21
8775.128099989128
 31
0.0
  0
LINE
  5
21828
330
212AD
100
AcDbEntity
  8
寸法
 62
     0
 48
50.0
370
    -2
100
AcDbLine
 10
9123.600000000001
 20
7776.907777930208
 30
0.0
 11
9123.600000000001
 21
8775.128099989128
 31
0.0
  0
LINE
  5
21829
330
212AD
100
AcDbEntity
  8
寸法
 62
     0
 48
50.0
370
    -2
100
AcDbLine
 10
7323.6
 20
8715.128099989128
 30
0.0
 11
9123.600000000001
 21
8715.128099989128
 31
0.0
  0
INSERT
  5
2182A
330
212AD
100
AcDbEntity
  8
寸法
 62
     0
 48
50.0
370
    -2
100
AcDbBlockReference
  2
_DOTSMALL
 10
7323.6
 20
8715.128099989128
 30
0.0
 41
100.0
 42
100.0
 43
100.0
 50
180.0
  0
INSERT
  5
2182B
330
212AD
100
AcDbEntity
  8
寸法
 62
     0
 48
50.0
370
    -2
100
AcDbBlockReference
  2
_DOTSMALL
 10
9123.600000000001
 20
8715.128099989128
 30
0.0
 41
100.0
 42
100.0
 43
100.0
  0
MTEXT
  5
2182C
330
212AD
100
AcDbEntity
  8
寸法
 62
     7
 48
50.0
100
AcDbMText
 10
8223.600000000001
 20
8815.128099989129
 30
0.0
 40
120.0
 41
0.0
 71
     5
 72
     1
  1
\A1;1800
  7
STYLE1
 73
     1
 44
1.0
1001
ACAD
1000
MTEXTBEGIN
1070
    73
1070
     1
1070
    44
1040
1.0
1070
    74
1070
     0
1000
MTEXTEND
  0
POINT
  5
2182D
330
212AD
100
AcDbEntity
  8
DEFPOINTS
 62
     0
 48
50.0
100
AcDbPoint
 10
7323.6
 20
7756.907777930208
 30
0.0
  0
POINT
  5
2182E
330
212AD
100
AcDbEntity
  8
DEFPOINTS
 62
     0
 48
50.0
100
AcDbPoint
 10
9123.600000000001
 20
7756.907777930208
 30
0.0
  0
POINT
  5
2182F
330
212AD
100
AcDbEntity
  8
DEFPOINTS
 62
     0
 48
50.0
100
AcDbPoint
 10
9123.600000000001
 20
8715.128099989128
 30
0.0
  0
ENDBLK
  5
212B7
330
212AD
100
AcDbEntity
  8
0
 48
50.0
100
AcDbBlockEnd
  0
BLOCK
  5
212D0
330
212C5
100
AcDbEntity
  8
0
 48
50.0
100
AcDbBlockBegin
  2
*D32
 70
     1
 10
0.0
 20
0.0
 30
0.0
  3
*D32
  1

  0
LINE
  5
21812
330
212C5
100
AcDbEntity
  8
寸法
 62
     0
 48
50.0
370
    -2
100
AcDbLine
 10
7446.6
 20
7703.907777930208
 30
0.0
 11
7446.6
 21
8562.667404472289
 31
0.0
  0
LINE
  5
21813
330
212C5
100
AcDbEntity
  8
寸法
 62
     0
 48
50.0
370
    -2
100
AcDbLine
 10
7323.6
 20
7776.907777930208
 30
0.0
 11
7323.6
 21
8562.667404472289
 31
0.0
  0
LINE
  5
21814
330
212C5
100
AcDbEntity
  8
寸法
 62
     0
 48
50.0
370
    -2
100
AcDbLine
 10
7446.6
 20
8502.667404472289
 30
0.0
 11
7323.6
 21
8502.667404472289
 31
0.0
  0
LINE
  5
21815
330
212C5
100
AcDbEntity
  8
寸法
 62
     0
 48
50.0
370
    -2
100
AcDbLine
 10
7323.6
 20
8502.667404472289
 30
0.0
 11
6912.008116907962
 21
8502.667404472289
 31
0.0
  0
INSERT
  5
21816
330
212C5
100
AcDbEntity
  8
寸法
 62
     0
 48
50.0
370
    -2
100
AcDbBlockReference
  2
_DOTSMALL
 10
7446.6
 20
8502.667404472289
 30
0.0
 41
100.0
 42
100.0
 43
100.0
  0
INSERT
  5
21817
330
212C5
100
AcDbEntity
  8
寸法
 62
     0
 48
50.0
370
    -2
100
AcDbBlockReference
  2
_DOTSMALL
 10
7323.6
 20
8502.667404472289
 30
0.0
 41
100.0
 42
100.0
 43
100.0
 50
180.0
  0
MTEXT
  5
21818
330
212C5
100
AcDbEntity
  8
寸法
 62
     7
 48
50.0
100
AcDbMText
 10
7050.493398282203
 20
8602.679215495911
 30
0.0
 40
120.0
 41
0.0
 71
     5
 72
     1
  1
\A1;123
  7
STYLE1
 73
     1
 44
1.0
1001
ACAD
1000
MTEXTBEGIN
1070
    73
1070
     1
1070
    44
1040
1.0
1070
    74
1070
     0
1000
MTEXTEND
  0
POINT
  5
21819
330
212C5
100
AcDbEntity
  8
DEFPOINTS
 62
     0
 48
50.0
100
AcDbPoint
 10
7446.6
 20
7683.907777930208
 30
0.0
  0
POINT
  5
2181A
330
212C5
100
AcDbEntity
  8
DEFPOINTS
 62
     0
 48
50.0
100
AcDbPoint
 10
7323.6
 20
7756.907777930208
 30
0.0
  0
POINT
  5
2181B
330
212C5
100
AcDbEntity
  8
DEFPOINTS
 62
     0
 48
50.0
100
AcDbPoint
 10
7323.6
 20
8502.667404472289
 30
0.0
  0
ENDBLK
  5
212D1
330
212C5
100
AcDbEntity
  8
0
 48
50.0
100
AcDbBlockEnd
  0
BLOCK
  5
212E9
330
212DE
100
AcDbEntity
  8
0
 48
50.0
100
AcDbBlockBegin
  2
*D33
 70
     1
 10
0.0
 20
0.0
 30
0.0
  3
*D33
  1

  0
LINE
  5
217FD
330
212DE
100
AcDbEntity
  8
寸法
 62
     0
 48
50.0
370
    -2
100
AcDbLine
 10
9123.600000000001
 20
7776.907777930208
 30
0.0
 11
9123.600000000001
 21
8562.667404472289
 31
0.0
  0
LINE
  5
217FE
330
212DE
100
AcDbEntity
  8
寸法
 62
     0
 48
50.0
370
    -2
100
AcDbLine
 10
9000.6
 20
7703.907777930208
 30
0.0
 11
9000.6
 21
8562.667404472289
 31
0.0
  0
LINE
  5
217FF
330
212DE
100
AcDbEntity
  8
寸法
 62
     0
 48
50.0
370
    -2
100
AcDbLine
 10
9000.6
 20
8502.667404472289
 30
0.0
 11
9123.600000000001
 21
8502.667404472289
 31
0.0
  0
LINE
  5
21800
330
212DE
100
AcDbEntity
  8
寸法
 62
     0
 48
50.0
370
    -2
100
AcDbLine
 10
9123.600000000001
 20
8502.667404472289
 30
0.0
 11
9535.191883092037
 21
8502.667404472289
 31
0.0
  0
INSERT
  5
21801
330
212DE
100
AcDbEntity
  8
寸法
 62
     0
 48
50.0
370
    -2
100
AcDbBlockReference
  2
_DOTSMALL
 10
9000.6
 20
8502.667404472289
 30
0.0
 41
100.0
 42
100.0
 43
100.0
 50
180.0
  0
INSERT
  5
21802
330
212DE
100
AcDbEntity
  8
寸法
 62
     0
 48
50.0
370
    -2
100
AcDbBlockReference
  2
_DOTSMALL
 10
9123.600000000001
 20
8502.667404472289
 30
0.0
 41
100.0
 42
100.0
 43
100.0
  0
MTEXT
  5
21803
330
212DE
100
AcDbEntity
  8
寸法
 62
     7
 48
50.0
100
AcDbMText
 10
9396.706601717799
 20
8602.679215495911
 30
0.0
 40
120.0
 41
0.0
 71
     5
 72
     1
  1
\A1;123
  7
STYLE1
 73
     1
 44
1.0
1001
ACAD
1000
MTEXTBEGIN
1070
    73
1070
     1
1070
    44
1040
1.0
1070
    74
1070
     0
1000
MTEXTEND
  0
POINT
  5
21804
330
212DE
100
AcDbEntity
  8
DEFPOINTS
 62
     0
 48
50.0
100
AcDbPoint
 10
9123.600000000001
 20
7756.907777930208
 30
0.0
  0
POINT
  5
21805
330
212DE
100
AcDbEntity
  8
DEFPOINTS
 62
     0
 48
50.0
100
AcDbPoint
 10
9000.6
 20
7683.907777930208
 30
0.0
  0
POINT
  5
21806
330
212DE
100
AcDbEntity
  8
DEFPOINTS
 62
     0
 48
50.0
100
AcDbPoint
 10
9000.6
 20
8502.667404472289
 30
0.0
  0
ENDBLK
  5
212EA
330
212DE
100
AcDbEntity
  8
0
 48
50.0
100
AcDbBlockEnd
  0
BLOCK
  5
22289
330
2227E
100
AcDbEntity
  8
0
 48
50.0
100
AcDbBlockBegin
  2
*D34
 70
     1
 10
0.0
 20
0.0
 30
0.0
  3
*D34
  1

  0
LINE
  5
234D5
330
2227E
100
AcDbEntity
  8
寸法
 62
     0
 48
50.0
370
    -2
100
AcDbLine
 10
7573.599999999998
 20
6076.907777930227
 30
0.0
 11
7842.938460046301
 21
6076.907777930227
 31
0.0
  0
LINE
  5
234D6
330
2227E
100
AcDbEntity
  8
寸法
 62
     0
 48
50.0
370
    -2
100
AcDbLine
 10
7573.600000000038
 20
6186.907777930223
 30
0.0
 11
7842.938460046302
 21
6186.907777930223
 31
0.0
  0
LINE
  5
234D7
330
2227E
100
AcDbEntity
  8
寸法
 62
     0
 48
50.0
370
    -2
100
AcDbLine
 10
7782.938460046302
 20
6076.907777930227
 30
0.0
 11
7782.938460046302
 21
6186.907777930223
 31
0.0
  0
LINE
  5
234D8
330
2227E
100
AcDbEntity
  8
寸法
 62
     0
 48
50.0
370
    -2
100
AcDbLine
 10
7782.938460046302
 20
6186.907777930223
 30
0.0
 11
7782.938460046302
 21
6547.002266119199
 31
0.0
  0
INSERT
  5
234D9
330
2227E
100
AcDbEntity
  8
寸法
 62
     0
 48
50.0
370
    -2
100
AcDbBlockReference
  2
_DOTSMALL
 10
7782.938460046302
 20
6076.907777930227
 30
0.0
 41
100.0
 42
100.0
 43
100.0
 50
270.0
  0
INSERT
  5
234DA
330
2227E
100
AcDbEntity
  8
寸法
 62
     0
 48
50.0
370
    -2
100
AcDbBlockReference
  2
_DOTSMALL
 10
7782.938460046302
 20
6186.907777930223
 30
0.0
 41
100.0
 42
100.0
 43
100.0
 50
90.0
  0
MTEXT
  5
234DB
330
2227E
100
AcDbEntity
  8
寸法
 62
     7
 48
50.0
100
AcDbMText
 10
7682.9384600463
 20
6422.955022024712
 30
0.0
 40
120.0
 41
0.0
 71
     5
 72
     1
  1
\A1;110
  7
STYLE1
 11
0.0000000000000001
 21
1.0
 31
0.0
 73
     1
 44
1.0
1001
ACAD
1000
MTEXTBEGIN
1070
    73
1070
     1
1070
    44
1040
1.0
1070
    74
1070
     0
1000
MTEXTEND
  0
POINT
  5
234DC
330
2227E
100
AcDbEntity
  8
DEFPOINTS
 62
     0
 48
50.0
100
AcDbPoint
 10
7553.599999999997
 20
6076.907777930227
 30
0.0
  0
POINT
  5
234DD
330
2227E
100
AcDbEntity
  8
DEFPOINTS
 62
     0
 48
50.0
100
AcDbPoint
 10
7553.600000000038
 20
6186.907777930223
 30
0.0
  0
POINT
  5
234DE
330
2227E
100
AcDbEntity
  8
DEFPOINTS
 62
     0
 48
50.0
100
AcDbPoint
 10
7782.938460046302
 20
6186.907777930223
 30
0.0
  0
ENDBLK
  5
2228A
330
2227E
100
AcDbEntity
  8
0
 48
50.0
100
AcDbBlockEnd
  0
BLOCK
  5
22296
330
2228B
100
AcDbEntity
  8
0
 48
50.0
100
AcDbBlockBegin
  2
*D35
 70
     1
 10
0.0
 20
0.0
 30
0.0
  3
*D35
  1

  0
LINE
  5
234CB
330
2228B
100
AcDbEntity
  8
寸法
 62
     0
 48
50.0
370
    -2
100
AcDbLine
 10
7573.600000000036
 20
5881.907777930223
 30
0.0
 11
7842.938460046301
 21
5881.907777930223
 31
0.0
  0
LINE
  5
234CC
330
2228B
100
AcDbEntity
  8
寸法
 62
     0
 48
50.0
370
    -2
100
AcDbLine
 10
7573.599999999998
 20
6076.907777930211
 30
0.0
 11
7842.938460046301
 21
6076.907777930211
 31
0.0
  0
LINE
  5
234CD
330
2228B
100
AcDbEntity
  8
寸法
 62
     0
 48
50.0
370
    -2
100
AcDbLine
 10
7782.938460046302
 20
6076.907777930211
 30
0.0
 11
7782.938460046302
 21
5881.907777930223
 31
0.0
  0
LINE
  5
234CE
330
2228B
100
AcDbEntity
  8
寸法
 62
     0
 48
50.0
370
    -2
100
AcDbLine
 10
7782.938460046302
 20
5881.907777930223
 30
0.0
 11
7782.938460046302
 21
5504.517895522432
 31
0.0
  0
INSERT
  5
234CF
330
2228B
100
AcDbEntity
  8
寸法
 62
     0
 48
50.0
370
    -2
100
AcDbBlockReference
  2
_DOTSMALL
 10
7782.938460046302
 20
6076.907777930211
 30
0.0
 41
100.0
 42
100.0
 43
100.0
 50
90.0
  0
INSERT
  5
234D0
330
2228B
100
AcDbEntity
  8
寸法
 62
     0
 48
50.0
370
    -2
100
AcDbBlockReference
  2
_DOTSMALL
 10
7782.938460046302
 20
5881.907777930223
 30
0.0
 41
100.0
 42
100.0
 43
100.0
 50
270.0
  0
MTEXT
  5
234D1
330
2228B
100
AcDbEntity
  8
寸法
 62
     7
 48
50.0
100
AcDbMText
 10
7682.9384600463
 20
5643.212836726329
 30
0.0
 40
120.0
 41
0.0
 71
     5
 72
     1
  1
\A1;195
  7
STYLE1
 11
0.0000000000000001
 21
1.0
 31
0.0
 73
     1
 44
1.0
1001
ACAD
1000
MTEXTBEGIN
1070
    73
1070
     1
1070
    44
1040
1.0
1070
    74
1070
     0
1000
MTEXTEND
  0
POINT
  5
234D2
330
2228B
100
AcDbEntity
  8
DEFPOINTS
 62
     0
 48
50.0
100
AcDbPoint
 10
7553.600000000035
 20
5881.907777930223
 30
0.0
  0
POINT
  5
234D3
330
2228B
100
AcDbEntity
  8
DEFPOINTS
 62
     0
 48
50.0
100
AcDbPoint
 10
7553.6
 20
6076.907777930211
 30
0.0
  0
POINT
  5
234D4
330
2228B
100
AcDbEntity
  8
DEFPOINTS
 62
     0
 48
50.0
100
AcDbPoint
 10
7782.938460046302
 20
6076.907777930211
 30
0.0
  0
ENDBLK
  5
22297
330
2228B
100
AcDbEntity
  8
0
 48
50.0
100
AcDbBlockEnd
  0
BLOCK
  5
22396
330
2238C
100
AcDbEntity
  8
0
 48
50.0
100
AcDbBlockBegin
  2
*D36
 70
     1
 10
0.0
 20
0.0
 30
0.0
  3
*D36
  1

  0
LINE
  5
22474
330
2238C
100
AcDbEntity
  8
寸法
 62
     0
 48
50.0
370
    -2
100
AcDbLine
 10
9123.600000000001
 20
5861.90777793023
 30
0.0
 11
9123.600000000001
 21
5107.043474506098
 31
0.0
  0
LINE
  5
22475
330
2238C
100
AcDbEntity
  8
寸法
 62
     0
 48
50.0
370
    -2
100
AcDbLine
 10
7323.600000000036
 20
5861.907777930208
 30
0.0
 11
7323.600000000036
 21
5107.043474506098
 31
0.0
  0
LINE
  5
22476
330
2238C
100
AcDbEntity
  8
寸法
 62
     0
 48
50.0
370
    -2
100
AcDbLine
 10
9123.600000000001
 20
5167.043474506098
 30
0.0
 11
7323.600000000036
 21
5167.043474506098
 31
0.0
  0
INSERT
  5
22477
330
2238C
100
AcDbEntity
  8
寸法
 62
     0
 48
50.0
370
    -2
100
AcDbBlockReference
  2
_DOTSMALL
 10
9123.600000000001
 20
5167.043474506098
 30
0.0
 41
100.0
 42
100.0
 43
100.0
  0
INSERT
  5
22478
330
2238C
100
AcDbEntity
  8
寸法
 62
     0
 48
50.0
370
    -2
100
AcDbBlockReference
  2
_DOTSMALL
 10
7323.600000000036
 20
5167.043474506098
 30
0.0
 41
100.0
 42
100.0
 43
100.0
 50
180.0
  0
MTEXT
  5
22479
330
2238C
100
AcDbEntity
  8
寸法
 62
     7
 48
50.0
100
AcDbMText
 10
8223.600000000018
 20
5267.043474506097
 30
0.0
 40
120.0
 41
0.0
 71
     5
 72
     1
  1
\A1;扉の幅 1800
  7
STYLE1
 73
     1
 44
1.0
1001
ACAD
1000
MTEXTBEGIN
1070
    73
1070
     1
1070
    44
1040
1.0
1070
    74
1070
     0
1000
MTEXTEND
  0
POINT
  5
2247A
330
2238C
100
AcDbEntity
  8
DEFPOINTS
 62
     0
 48
50.0
100
AcDbPoint
 10
9123.600000000001
 20
5881.90777793023
 30
0.0
  0
POINT
  5
2247B
330
2238C
100
AcDbEntity
  8
DEFPOINTS
 62
     0
 48
50.0
100
AcDbPoint
 10
7323.600000000036
 20
5881.907777930208
 30
0.0
  0
POINT
  5
2247C
330
2238C
100
AcDbEntity
  8
DEFPOINTS
 62
     0
 48
50.0
100
AcDbPoint
 10
7323.600000000036
 20
5167.043474506098
 30
0.0
  0
ENDBLK
  5
22397
330
2238C
100
AcDbEntity
  8
0
 48
50.0
100
AcDbBlockEnd
  0
BLOCK
  5
22E67
330
22E5B
100
AcDbEntity
  8
0
 48
50.0
100
AcDbBlockBegin
  2
*D37
 70
     1
 10
0.0
 20
0.0
 30
0.0
  3
*D37
  1

  0
LINE
  5
23079
330
22E5B
100
AcDbEntity
  8
寸法
 62
     0
 48
50.0
370
    -2
100
AcDbLine
 10
7303.6
 20
7756.907777930208
 30
0.0
 11
6172.284356566673
 21
7756.907777930208
 31
0.0
  0
LINE
  5
2307A
330
22E5B
100
AcDbEntity
  8
寸法
 62
     0
 48
50.0
370
    -2
100
AcDbLine
 10
6464.227453286071
 20
7802.519882073109
 30
0.0
 11
6172.284356566673
 21
7802.519882073109
 31
0.0
  0
LINE
  5
2307B
330
22E5B
100
AcDbEntity
  8
寸法
 62
     0
 48
50.0
370
    -2
100
AcDbLine
 10
6232.284356566673
 20
7756.907777930208
 30
0.0
 11
6232.284356566673
 21
7656.907777930207
 31
0.0
  0
LINE
  5
2307C
330
22E5B
100
AcDbEntity
  8
寸法
 62
     0
 48
50.0
370
    -2
100
AcDbLine
 10
6232.284356566673
 20
7802.519882073109
 30
0.0
 11
6232.284356566673
 21
8139.869124478025
 31
0.0
  0
LINE
  5
2307D
330
22E5B
100
AcDbEntity
  8
寸法
 62
     0
 48
50.0
370
    -2
100
AcDbLine
 10
6232.284356566673
 20
7756.907777930208
 30
0.0
 11
6232.284356566673
 21
7802.519882073109
 31
0.0
  0
INSERT
  5
2307E
330
22E5B
100
AcDbEntity
  8
寸法
 62
     0
 48
50.0
370
    -2
100
AcDbBlockReference
  2
_DOTSMALL
 10
6232.284356566673
 20
7756.907777930208
 30
0.0
 41
100.0
 42
100.0
 43
100.0
 50
90.0
  0
INSERT
  5
2307F
330
22E5B
100
AcDbEntity
  8
寸法
 62
     0
 48
50.0
370
    -2
100
AcDbBlockReference
  2
_DOTSMALL
 10
6232.284356566673
 20
7802.519882073109
 30
0.0
 41
100.0
 42
100.0
 43
100.0
 50
270.0
  0
MTEXT
  5
23080
330
22E5B
100
AcDbEntity
  8
寸法
 62
     7
 48
50.0
100
AcDbMText
 10
6132.284356566671
 20
8073.694503275568
 30
0.0
 40
120.0
 41
0.0
 71
     5
 72
     1
  1
\A1;a
  7
STYLE1
 11
0.0000000000000001
 21
1.0
 31
0.0
 73
     1
 44
1.0
1001
ACAD
1000
MTEXTBEGIN
1070
    73
1070
     1
1070
    44
1040
1.0
1070
    74
1070
     0
1000
MTEXTEND
  0
POINT
  5
23081
330
22E5B
100
AcDbEntity
  8
DEFPOINTS
 62
     0
 48
50.0
100
AcDbPoint
 10
7323.6
 20
7756.907777930208
 30
0.0
  0
POINT
  5
23082
330
22E5B
100
AcDbEntity
  8
DEFPOINTS
 62
     0
 48
50.0
100
AcDbPoint
 10
6484.227453286071
 20
7802.519882073109
 30
0.0
  0
POINT
  5
23083
330
22E5B
100
AcDbEntity
  8
DEFPOINTS
 62
     0
 48
50.0
100
AcDbPoint
 10
6232.284356566673
 20
7802.519882073109
 30
0.0
  0
ENDBLK
  5
22E68
330
22E5B
100
AcDbEntity
  8
0
 48
50.0
100
AcDbBlockEnd
  0
BLOCK
  5
22E75
330
22E69
100
AcDbEntity
  8
0
 48
50.0
100
AcDbBlockBegin
  2
*D38
 70
     1
 10
0.0
 20
0.0
 30
0.0
  3
*D38
  1

  0
LINE
  5
2304D
330
22E69
100
AcDbEntity
  8
寸法
 62
     0
 48
50.0
370
    -2
100
AcDbLine
 10
9198.600000000002
 20
8522.667404472292
 30
0.0
 11
9198.600000000002
 21
8775.128099989128
 31
0.0
  0
LINE
  5
2304E
330
22E69
100
AcDbEntity
  8
寸法
 62
     0
 48
50.0
370
    -2
100
AcDbLine
 10
9123.600000000001
 20
7776.907777930208
 30
0.0
 11
9123.600000000001
 21
8775.128099989128
 31
0.0
  0
LINE
  5
2304F
330
22E69
100
AcDbEntity
  8
寸法
 62
     0
 48
50.0
370
    -2
100
AcDbLine
 10
9198.600000000002
 20
8715.128099989128
 30
0.0
 11
9298.600000000002
 21
8715.128099989128
 31
0.0
  0
LINE
  5
23050
330
22E69
100
AcDbEntity
  8
寸法
 62
     0
 48
50.0
370
    -2
100
AcDbLine
 10
9123.600000000001
 20
8715.128099989128
 30
0.0
 11
9023.6
 21
8715.128099989128
 31
0.0
  0
LINE
  5
23051
330
22E69
100
AcDbEntity
  8
寸法
 62
     0
 48
50.0
370
    -2
100
AcDbLine
 10
9198.600000000002
 20
8715.128099989128
 30
0.0
 11
9123.600000000001
 21
8715.128099989128
 31
0.0
  0
INSERT
  5
23052
330
22E69
100
AcDbEntity
  8
寸法
 62
     0
 48
50.0
370
    -2
100
AcDbBlockReference
  2
_DOTSMALL
 10
9198.600000000002
 20
8715.128099989128
 30
0.0
 41
100.0
 42
100.0
 43
100.0
 50
180.0
  0
INSERT
  5
23053
330
22E69
100
AcDbEntity
  8
寸法
 62
     0
 48
50.0
370
    -2
100
AcDbBlockReference
  2
_DOTSMALL
 10
9123.600000000001
 20
8715.128099989128
 30
0.0
 41
100.0
 42
100.0
 43
100.0
  0
MTEXT
  5
23054
330
22E69
100
AcDbEntity
  8
寸法
 62
     7
 48
50.0
100
AcDbMText
 10
9161.100000000002
 20
8815.128099989129
 30
0.0
 40
120.0
 41
0.0
 71
     5
 72
     1
  1
\A1;c
  7
STYLE1
 73
     1
 44
1.0
1001
ACAD
1000
MTEXTBEGIN
1070
    73
1070
     1
1070
    44
1040
1.0
1070
    74
1070
     0
1000
MTEXTEND
  0
POINT
  5
23055
330
22E69
100
AcDbEntity
  8
DEFPOINTS
 62
     0
 48
50.0
100
AcDbPoint
 10
9198.600000000002
 20
8502.66740447229
 30
0.0
  0
POINT
  5
23056
330
22E69
100
AcDbEntity
  8
DEFPOINTS
 62
     0
 48
50.0
100
AcDbPoint
 10
9123.600000000001
 20
7756.907777930208
 30
0.0
  0
POINT
  5
23057
330
22E69
100
AcDbEntity
  8
DEFPOINTS
 62
     0
 48
50.0
100
AcDbPoint
 10
9123.600000000001
 20
8715.128099989128
 30
0.0
  0
ENDBLK
  5
22E76
330
22E69
100
AcDbEntity
  8
0
 48
50.0
100
AcDbBlockEnd
  0
BLOCK
  5
22E83
330
22E77
100
AcDbEntity
  8
0
 48
50.0
100
AcDbBlockBegin
  2
*D39
 70
     1
 10
0.0
 20
0.0
 30
0.0
  3
*D39
  1

  0
LINE
  5
23058
330
22E77
100
AcDbEntity
  8
寸法
 62
     0
 48
50.0
370
    -2
100
AcDbLine
 10
7323.6
 20
7776.907777930208
 30
0.0
 11
7323.6
 21
8775.128099989128
 31
0.0
  0
LINE
  5
23059
330
22E77
100
AcDbEntity
  8
寸法
 62
     0
 48
50.0
370
    -2
100
AcDbLine
 10
7268.600000000012
 20
8522.667404472292
 30
0.0
 11
7268.600000000012
 21
8775.128099989128
 31
0.0
  0
LINE
  5
2305A
330
22E77
100
AcDbEntity
  8
寸法
 62
     0
 48
50.0
370
    -2
100
AcDbLine
 10
7323.6
 20
8715.128099989128
 30
0.0
 11
7423.6
 21
8715.128099989128
 31
0.0
  0
LINE
  5
2305B
330
22E77
100
AcDbEntity
  8
寸法
 62
     0
 48
50.0
370
    -2
100
AcDbLine
 10
7268.600000000012
 20
8715.128099989128
 30
0.0
 11
7168.600000000012
 21
8715.128099989128
 31
0.0
  0
LINE
  5
2305C
330
22E77
100
AcDbEntity
  8
寸法
 62
     0
 48
50.0
370
    -2
100
AcDbLine
 10
7323.6
 20
8715.128099989128
 30
0.0
 11
7268.600000000012
 21
8715.128099989128
 31
0.0
  0
INSERT
  5
2305D
330
22E77
100
AcDbEntity
  8
寸法
 62
     0
 48
50.0
370
    -2
100
AcDbBlockReference
  2
_DOTSMALL
 10
7323.6
 20
8715.128099989128
 30
0.0
 41
100.0
 42
100.0
 43
100.0
 50
180.0
  0
INSERT
  5
2305E
330
22E77
100
AcDbEntity
  8
寸法
 62
     0
 48
50.0
370
    -2
100
AcDbBlockReference
  2
_DOTSMALL
 10
7268.600000000012
 20
8715.128099989128
 30
0.0
 41
100.0
 42
100.0
 43
100.0
  0
MTEXT
  5
2305F
330
22E77
100
AcDbEntity
  8
寸法
 62
     7
 48
50.0
100
AcDbMText
 10
7296.100000000006
 20
8815.128099989129
 30
0.0
 40
120.0
 41
0.0
 71
     5
 72
     1
  1
\A1;b
  7
STYLE1
 73
     1
 44
1.0
1001
ACAD
1000
MTEXTBEGIN
1070
    73
1070
     1
1070
    44
1040
1.0
1070
    74
1070
     0
1000
MTEXTEND
  0
POINT
  5
23060
330
22E77
100
AcDbEntity
  8
DEFPOINTS
 62
     0
 48
50.0
100
AcDbPoint
 10
7323.6
 20
7756.907777930208
 30
0.0
  0
POINT
  5
23061
330
22E77
100
AcDbEntity
  8
DEFPOINTS
 62
     0
 48
50.0
100
AcDbPoint
 10
7268.600000000012
 20
8502.66740447229
 30
0.0
  0
POINT
  5
23062
330
22E77
100
AcDbEntity
  8
DEFPOINTS
 62
     0
 48
50.0
100
AcDbPoint
 10
7268.600000000012
 20
8715.128099989128
 30
0.0
  0
ENDBLK
  5
22E84
330
22E77
100
AcDbEntity
  8
0
 48
50.0
100
AcDbBlockEnd
  0
BLOCK
  5
22E91
330
22E85
100
AcDbEntity
  8
0
 48
50.0
100
AcDbBlockBegin
  2
*D40
 70
     1
 10
0.0
 20
0.0
 30
0.0
  3
*D40
  1

  0
LINE
  5
2308F
330
22E85
100
AcDbEntity
  8
寸法
 62
     0
 48
50.0
370
    -2
100
AcDbLine
 10
6464.227453286071
 20
5911.295673787298
 30
0.0
 11
6172.284356566673
 21
5911.295673787298
 31
0.0
  0
LINE
  5
23090
330
22E85
100
AcDbEntity
  8
寸法
 62
     0
 48
50.0
370
    -2
100
AcDbLine
 10
7302.978897305272
 20
5956.907777930208
 30
0.0
 11
6172.284356566673
 21
5956.907777930208
 31
0.0
  0
LINE
  5
23091
330
22E85
100
AcDbEntity
  8
寸法
 62
     0
 48
50.0
370
    -2
100
AcDbLine
 10
6232.284356566673
 20
5956.907777930208
 30
0.0
 11
6232.284356566673
 21
6056.907777930208
 31
0.0
  0
LINE
  5
23092
330
22E85
100
AcDbEntity
  8
寸法
 62
     0
 48
50.0
370
    -2
100
AcDbLine
 10
6232.284356566673
 20
5911.295673787298
 30
0.0
 11
6232.284356566673
 21
5578.946431382379
 31
0.0
  0
LINE
  5
23093
330
22E85
100
AcDbEntity
  8
寸法
 62
     0
 48
50.0
370
    -2
100
AcDbLine
 10
6232.284356566673
 20
5956.907777930208
 30
0.0
 11
6232.284356566673
 21
5911.295673787298
 31
0.0
  0
INSERT
  5
23094
330
22E85
100
AcDbEntity
  8
寸法
 62
     0
 48
50.0
370
    -2
100
AcDbBlockReference
  2
_DOTSMALL
 10
6232.284356566673
 20
5956.907777930208
 30
0.0
 41
100.0
 42
100.0
 43
100.0
 50
270.0
  0
INSERT
  5
23095
330
22E85
100
AcDbEntity
  8
寸法
 62
     0
 48
50.0
370
    -2
100
AcDbBlockReference
  2
_DOTSMALL
 10
6232.284356566673
 20
5911.295673787298
 30
0.0
 41
100.0
 42
100.0
 43
100.0
 50
90.0
  0
MTEXT
  5
23096
330
22E85
100
AcDbEntity
  8
寸法
 62
     7
 48
50.0
100
AcDbMText
 10
6132.284356566671
 20
5645.12105258484
 30
0.0
 40
120.0
 41
0.0
 71
     5
 72
     1
  1
\A1;a
  7
STYLE1
 11
0.0000000000000001
 21
1.0
 31
0.0
 73
     1
 44
1.0
1001
ACAD
1000
MTEXTBEGIN
1070
    73
1070
     1
1070
    44
1040
1.0
1070
    74
1070
     0
1000
MTEXTEND
  0
POINT
  5
23097
330
22E85
100
AcDbEntity
  8
DEFPOINTS
 62
     0
 48
50.0
100
AcDbPoint
 10
6484.227453286071
 20
5911.295673787298
 30
0.0
  0
POINT
  5
23098
330
22E85
100
AcDbEntity
  8
DEFPOINTS
 62
     0
 48
50.0
100
AcDbPoint
 10
7322.978897305272
 20
5956.907777930208
 30
0.0
  0
POINT
  5
23099
330
22E85
100
AcDbEntity
  8
DEFPOINTS
 62
     0
 48
50.0
100
AcDbPoint
 10
6232.284356566673
 20
5956.907777930208
 30
0.0
  0
ENDBLK
  5
22E92
330
22E85
100
AcDbEntity
  8
0
 48
50.0
100
AcDbBlockEnd
  0
BLOCK
  5
23E41
330
23E37
100
AcDbEntity
  8
0
 48
50.0
100
AcDbBlockBegin
  2
*D53
 70
     1
 10
0.0
 20
0.0
 30
0.0
  3
*D53
  1

  0
LINE
  5
23E84
330
23E37
100
AcDbEntity
  8
寸法
 62
     0
 48
50.0
370
    -2
100
AcDbLine
 10
8685.060607173166
 20
1986.186184708791
 30
0.0
 11
9226.929206942008
 21
1986.186184708791
 31
0.0
  0
LINE
  5
23E85
330
23E37
100
AcDbEntity
  8
寸法
 62
     0
 48
50.0
370
    -2
100
AcDbLine
 10
8685.060607173166
 20
1662.18618470879
 30
0.0
 11
9226.929206942008
 21
1662.18618470879
 31
0.0
  0
LINE
  5
23E86
330
23E37
100
AcDbEntity
  8
寸法
 62
     0
 48
50.0
370
    -2
100
AcDbLine
 10
9166.929206942008
 20
1986.186184708791
 30
0.0
 11
9166.929206942008
 21
1662.18618470879
 31
0.0
  0
INSERT
  5
23E87
330
23E37
100
AcDbEntity
  8
寸法
 62
     0
 48
50.0
370
    -2
100
AcDbBlockReference
  2
_DOTSMALL
 10
9166.929206942008
 20
1986.186184708791
 30
0.0
 41
100.0
 42
100.0
 43
100.0
 50
90.0
  0
INSERT
  5
23E88
330
23E37
100
AcDbEntity
  8
寸法
 62
     0
 48
50.0
370
    -2
100
AcDbBlockReference
  2
_DOTSMALL
 10
9166.929206942008
 20
1662.18618470879
 30
0.0
 41
100.0
 42
100.0
 43
100.0
 50
270.0
  0
MTEXT
  5
23E89
330
23E37
100
AcDbEntity
  8
寸法
 62
     7
 48
50.0
100
AcDbMText
 10
9066.929206942008
 20
1824.186184708792
 30
0.0
 40
120.0
 41
0.0
 71
     5
 72
     1
  1
\A1;180
  7
STYLE1
 11
0.0000000000000001
 21
1.0
 31
0.0
 73
     1
 44
1.0
1001
ACAD
1000
MTEXTBEGIN
1070
    73
1070
     1
1070
    44
1040
1.0
1070
    74
1070
     0
1000
MTEXTEND
  0
POINT
  5
23E8A
330
23E37
100
AcDbEntity
  8
DEFPOINTS
 62
     0
 48
50.0
100
AcDbPoint
 10
8665.060607173165
 20
1986.186184708791
 30
0.0
  0
POINT
  5
23E8B
330
23E37
100
AcDbEntity
  8
DEFPOINTS
 62
     0
 48
50.0
100
AcDbPoint
 10
8665.060607173165
 20
1662.18618470879
 30
0.0
  0
POINT
  5
23E8C
330
23E37
100
AcDbEntity
  8
DEFPOINTS
 62
     0
 48
50.0
100
AcDbPoint
 10
9166.929206942008
 20
1662.18618470879
 30
0.0
  0
ENDBLK
  5
23E42
330
23E37
100
AcDbEntity
  8
0
 48
50.0
100
AcDbBlockEnd
  0
BLOCK
  5
23E52
330
23E43
100
AcDbEntity
  8
0
 48
50.0
100
AcDbBlockBegin
  2
*D54
 70
     1
 10
0.0
 20
0.0
 30
0.0
  3
*D54
  1

  0
LINE
  5
23E8D
330
23E43
100
AcDbEntity
  8
寸法
 62
     0
 48
50.0
370
    -2
100
AcDbLine
 10
8497.860607173166
 20
2038.946184708792
 30
0.0
 11
9226.929206942008
 21
2038.946184708792
 31
0.0
  0
LINE
  5
23E8E
330
23E43
100
AcDbEntity
  8
寸法
 62
     0
 48
50.0
370
    -2
100
AcDbLine
 10
8685.060607173166
 20
1986.186184708791
 30
0.0
 11
9226.929206942008
 21
1986.186184708791
 31
0.0
  0
LINE
  5
23E8F
330
23E43
100
AcDbEntity
  8
寸法
 62
     0
 48
50.0
370
    -2
100
AcDbLine
 10
9166.929206942008
 20
2038.946184708792
 30
0.0
 11
9166.929206942008
 21
2138.946184708792
 31
0.0
  0
LINE
  5
23E90
330
23E43
100
AcDbEntity
  8
寸法
 62
     0
 48
50.0
370
    -2
100
AcDbLine
 10
9166.929206942008
 20
1986.186184708791
 30
0.0
 11
9166.929206942008
 21
1886.186184708791
 31
0.0
  0
LINE
  5
23E91
330
23E43
100
AcDbEntity
  8
寸法
 62
     0
 48
50.0
370
    -2
100
AcDbLine
 10
9166.929206942008
 20
2012.566184708791
 30
0.0
 11
9442.983873061036
 21
2001.062227104578
 31
0.0
  0
LINE
  5
23E92
330
23E43
100
AcDbEntity
  8
寸法
 62
     0
 48
50.0
370
    -2
100
AcDbLine
 10
9442.983873061036
 20
2001.062227104578
 30
0.0
 11
9442.983873061036
 21
1469.044420261613
 31
0.0
  0
MTEXT
  5
23E93
330
23E43
100
AcDbEntity
  8
寸法
 62
     7
 48
50.0
100
AcDbMText
 10
9342.972062037414
 20
1735.053323683097
 30
0.0
 40
120.0
 41
0.0
 71
     5
 72
     1
  1
\A1;20～25
  7
STYLE1
 11
0.0000000000000001
 21
1.0
 31
0.0
 73
     1
 44
1.0
1001
ACAD
1000
MTEXTBEGIN
1070
    73
1070
     1
1070
    44
1040
1.0
1070
    74
1070
     0
1000
MTEXTEND
  0
LINE
  5
23E94
330
23E43
100
AcDbEntity
  8
寸法
 62
     0
 48
50.0
370
    -2
100
AcDbLine
 10
9166.929206942008
 20
2038.946184708792
 30
0.0
 11
9166.929206942008
 21
1986.186184708791
 31
0.0
  0
LINE
  5
23E95
330
23E43
100
AcDbEntity
  8
寸法
 62
     0
 48
50.0
370
    -2
100
AcDbLine
 10
9166.929206942008
 20
2038.946184708792
 30
0.0
 11
9166.929206942008
 21
1986.186184708791
 31
0.0
  0
INSERT
  5
23E96
330
23E43
100
AcDbEntity
  8
寸法
 62
     0
 48
50.0
370
    -2
100
AcDbBlockReference
  2
_DOTSMALL
 10
9166.929206942008
 20
2038.946184708792
 30
0.0
 41
100.0
 42
100.0
 43
100.0
 50
270.0
  0
INSERT
  5
23E97
330
23E43
100
AcDbEntity
  8
寸法
 62
     0
 48
50.0
370
    -2
100
AcDbBlockReference
  2
_DOTSMALL
 10
9166.929206942008
 20
1986.186184708791
 30
0.0
 41
100.0
 42
100.0
 43
100.0
 50
90.0
  0
POINT
  5
23E98
330
23E43
100
AcDbEntity
  8
DEFPOINTS
 62
     0
 48
50.0
100
AcDbPoint
 10
8477.860607173168
 20
2038.946184708792
 30
0.0
  0
POINT
  5
23E99
330
23E43
100
AcDbEntity
  8
DEFPOINTS
 62
     0
 48
50.0
100
AcDbPoint
 10
8665.060607173165
 20
1986.186184708791
 30
0.0
  0
POINT
  5
23E9A
330
23E43
100
AcDbEntity
  8
DEFPOINTS
 62
     0
 48
50.0
100
AcDbPoint
 10
9166.929206942008
 20
1986.186184708791
 30
0.0
  0
ENDBLK
  5
23E53
330
23E43
100
AcDbEntity
  8
0
 48
50.0
100
AcDbBlockEnd
  0
BLOCK
  5
23E5E
330
23E54
100
AcDbEntity
  8
0
 48
50.0
100
AcDbBlockBegin
  2
*D55
 70
     1
 10
0.0
 20
0.0
 30
0.0
  3
*D55
  1

  0
LINE
  5
23E9B
330
23E54
100
AcDbEntity
  8
寸法
 62
     0
 48
50.0
370
    -2
100
AcDbLine
 10
6403.021293995971
 20
1442.186184708791
 30
0.0
 11
6220.600980263512
 21
1442.186184708791
 31
0.0
  0
LINE
  5
23E9C
330
23E54
100
AcDbEntity
  8
寸法
 62
     0
 48
50.0
370
    -2
100
AcDbLine
 10
6323.021293995974
 20
1202.186184708791
 30
0.0
 11
6220.600980263512
 21
1202.186184708791
 31
0.0
  0
LINE
  5
23E9D
330
23E54
100
AcDbEntity
  8
寸法
 62
     0
 48
50.0
370
    -2
100
AcDbLine
 10
6280.600980263511
 20
1442.186184708791
 30
0.0
 11
6280.600980263511
 21
1202.186184708791
 31
0.0
  0
MTEXT
  5
23E9E
330
23E54
100
AcDbEntity
  8
寸法
 62
     7
 48
50.0
100
AcDbMText
 10
6180.600980263512
 20
1322.186184708791
 30
0.0
 40
120.0
 41
0.0
 71
     5
 72
     1
  1
\A1;150
  7
STYLE1
 11
0.0000000000000001
 21
1.0
 31
0.0
 73
     1
 44
1.0
1001
ACAD
1000
MTEXTBEGIN
1070
    73
1070
     1
1070
    44
1040
1.0
1070
    74
1070
     0
1000
MTEXTEND
  0
INSERT
  5
23E9F
330
23E54
100
AcDbEntity
  8
寸法
 62
     0
 48
50.0
370
    -2
100
AcDbBlockReference
  2
_DOTSMALL
 10
6280.600980263511
 20
1442.186184708791
 30
0.0
 41
100.0
 42
100.0
 43
100.0
 50
90.0
  0
INSERT
  5
23EA0
330
23E54
100
AcDbEntity
  8
寸法
 62
     0
 48
50.0
370
    -2
100
AcDbBlockReference
  2
_DOTSMALL
 10
6280.600980263511
 20
1202.186184708791
 30
0.0
 41
100.0
 42
100.0
 43
100.0
 50
270.0
  0
POINT
  5
23EA1
330
23E54
100
AcDbEntity
  8
DEFPOINTS
 62
     0
 48
50.0
100
AcDbPoint
 10
6423.021293995971
 20
1442.186184708791
 30
0.0
  0
POINT
  5
23EA2
330
23E54
100
AcDbEntity
  8
DEFPOINTS
 62
     0
 48
50.0
100
AcDbPoint
 10
6343.021293995975
 20
1202.186184708791
 30
0.0
  0
POINT
  5
23EA3
330
23E54
100
AcDbEntity
  8
DEFPOINTS
 62
     0
 48
50.0
100
AcDbPoint
 10
6280.600980263511
 20
1202.186184708791
 30
0.0
  0
ENDBLK
  5
23E5F
330
23E54
100
AcDbEntity
  8
0
 48
50.0
100
AcDbBlockEnd
  0
BLOCK
  5
23E6A
330
23E60
100
AcDbEntity
  8
0
 48
50.0
100
AcDbBlockBegin
  2
*D56
 70
     1
 10
0.0
 20
0.0
 30
0.0
  3
*D56
  1

  0
LINE
  5
23EA4
330
23E60
100
AcDbEntity
  8
寸法
 62
     0
 48
50.0
370
    -2
100
AcDbLine
 10
6531.021293995971
 20
1986.186184708791
 30
0.0
 11
5755.98405543423
 21
1986.186184708791
 31
0.0
  0
LINE
  5
23EA5
330
23E60
100
AcDbEntity
  8
寸法
 62
     0
 48
50.0
370
    -2
100
AcDbLine
 10
6323.021293995974
 20
1202.186184708791
 30
0.0
 11
5755.98405543423
 21
1202.186184708791
 31
0.0
  0
LINE
  5
23EA6
330
23E60
100
AcDbEntity
  8
寸法
 62
     0
 48
50.0
370
    -2
100
AcDbLine
 10
5815.98405543423
 20
1986.186184708791
 30
0.0
 11
5815.98405543423
 21
1202.186184708791
 31
0.0
  0
MTEXT
  5
23EA7
330
23E60
100
AcDbEntity
  8
寸法
 62
     7
 48
50.0
100
AcDbMText
 10
5715.984055434231
 20
1573.726334364792
 30
0.0
 40
120.0
 41
0.0
 71
     5
 72
     1
  1
\A1;540
  7
STYLE1
 11
0.0000000000000001
 21
1.0
 31
0.0
 73
     1
 44
1.0
1001
ACAD
1000
MTEXTBEGIN
1070
    73
1070
     1
1070
    44
1040
1.0
1070
    74
1070
     0
1000
MTEXTEND
  0
INSERT
  5
23EA8
330
23E60
100
AcDbEntity
  8
寸法
 62
     0
 48
50.0
370
    -2
100
AcDbBlockReference
  2
_DOTSMALL
 10
5815.98405543423
 20
1986.186184708791
 30
0.0
 41
100.0
 42
100.0
 43
100.0
 50
90.0
  0
INSERT
  5
23EA9
330
23E60
100
AcDbEntity
  8
寸法
 62
     0
 48
50.0
370
    -2
100
AcDbBlockReference
  2
_DOTSMALL
 10
5815.98405543423
 20
1202.186184708791
 30
0.0
 41
100.0
 42
100.0
 43
100.0
 50
270.0
  0
POINT
  5
23EAA
330
23E60
100
AcDbEntity
  8
DEFPOINTS
 62
     0
 48
50.0
100
AcDbPoint
 10
6551.021293995971
 20
1986.186184708791
 30
0.0
  0
POINT
  5
23EAB
330
23E60
100
AcDbEntity
  8
DEFPOINTS
 62
     0
 48
50.0
100
AcDbPoint
 10
6343.021293995975
 20
1202.186184708791
 30
0.0
  0
POINT
  5
23EAC
330
23E60
100
AcDbEntity
  8
DEFPOINTS
 62
     0
 48
50.0
100
AcDbPoint
 10
5815.98405543423
 20
1202.186184708791
 30
0.0
  0
ENDBLK
  5
23E6B
330
23E60
100
AcDbEntity
  8
0
 48
50.0
100
AcDbBlockEnd
  0
BLOCK
  5
23E76
330
23E6C
100
AcDbEntity
  8
0
 48
50.0
100
AcDbBlockBegin
  2
*D57
 70
     1
 10
0.0
 20
0.0
 30
0.0
  3
*D57
  1

  0
LINE
  5
23EAD
330
23E6C
100
AcDbEntity
  8
寸法
 62
     0
 48
50.0
370
    -2
100
AcDbLine
 10
6423.021293995971
 20
1054.186184708791
 30
0.0
 11
6423.021293995971
 21
603.756546703631
 31
0.0
  0
LINE
  5
23EAE
330
23E6C
100
AcDbEntity
  8
寸法
 62
     0
 48
50.0
370
    -2
100
AcDbLine
 10
6871.021293995972
 20
1054.186184708791
 30
0.0
 11
6871.021293995972
 21
603.756546703631
 31
0.0
  0
LINE
  5
23EAF
330
23E6C
100
AcDbEntity
  8
寸法
 62
     0
 48
50.0
370
    -2
100
AcDbLine
 10
6423.021293995971
 20
663.7565467036311
 30
0.0
 11
6871.021293995972
 21
663.7565467036311
 31
0.0
  0
MTEXT
  5
23EB0
330
23E6C
100
AcDbEntity
  8
寸法
 62
     7
 48
50.0
100
AcDbMText
 10
6626.924535317748
 20
763.7565467036311
 30
0.0
 40
120.0
 41
0.0
 71
     5
 72
     1
  1
\A1;300
  7
STYLE1
 73
     1
 44
1.0
1001
ACAD
1000
MTEXTBEGIN
1070
    73
1070
     1
1070
    44
1040
1.0
1070
    74
1070
     0
1000
MTEXTEND
  0
INSERT
  5
23EB1
330
23E6C
100
AcDbEntity
  8
寸法
 62
     0
 48
50.0
370
    -2
100
AcDbBlockReference
  2
_DOTSMALL
 10
6423.021293995971
 20
663.7565467036311
 30
0.0
 41
100.0
 42
100.0
 43
100.0
 50
180.0
  0
INSERT
  5
23EB2
330
23E6C
100
AcDbEntity
  8
寸法
 62
     0
 48
50.0
370
    -2
100
AcDbBlockReference
  2
_DOTSMALL
 10
6871.021293995972
 20
663.7565467036311
 30
0.0
 41
100.0
 42
100.0
 43
100.0
  0
POINT
  5
23EB3
330
23E6C
100
AcDbEntity
  8
DEFPOINTS
 62
     0
 48
50.0
100
AcDbPoint
 10
6423.021293995971
 20
1074.186184708791
 30
0.0
  0
POINT
  5
23EB4
330
23E6C
100
AcDbEntity
  8
DEFPOINTS
 62
     0
 48
50.0
100
AcDbPoint
 10
6871.021293995972
 20
1074.186184708791
 30
0.0
  0
POINT
  5
23EB5
330
23E6C
100
AcDbEntity
  8
DEFPOINTS
 62
     0
 48
50.0
100
AcDbPoint
 10
6871.021293995972
 20
663.7565467036311
 30
0.0
  0
ENDBLK
  5
23E77
330
23E6C
100
AcDbEntity
  8
0
 48
50.0
100
AcDbBlockEnd
  0
BLOCK
  5
23E82
330
23E78
100
AcDbEntity
  8
0
 48
50.0
100
AcDbBlockBegin
  2
*D58
 70
     1
 10
0.0
 20
0.0
 30
0.0
  3
*D58
  1

  0
LINE
  5
23EB6
330
23E78
100
AcDbEntity
  8
寸法
 62
     0
 48
50.0
370
    -2
100
AcDbLine
 10
6743.021293995972
 20
2006.186184708791
 30
0.0
 11
6743.021293995972
 21
2366.186184708791
 31
0.0
  0
LINE
  5
23EB7
330
23E78
100
AcDbEntity
  8
寸法
 62
     0
 48
50.0
370
    -2
100
AcDbLine
 10
6551.021293995971
 20
2006.186184708791
 30
0.0
 11
6551.021293995971
 21
2366.186184708791
 31
0.0
  0
LINE
  5
23EB8
330
23E78
100
AcDbEntity
  8
寸法
 62
     0
 48
50.0
370
    -2
100
AcDbLine
 10
6743.021293995972
 20
2306.186184708791
 30
0.0
 11
6551.021293995971
 21
2306.186184708791
 31
0.0
  0
MTEXT
  5
23EB9
330
23E78
100
AcDbEntity
  8
寸法
 62
     7
 48
50.0
100
AcDbMText
 10
6658.247624341169
 20
2605.865803648794
 30
0.0
 40
120.0
 41
0.0
 71
     5
 72
     1
  1
\A1;120\P195
  7
STYLE1
 73
     1
 44
1.0
1001
ACAD
1000
MTEXTBEGIN
1070
    73
1070
     1
1070
    44
1040
1.0
1070
    74
1070
     0
1000
MTEXTEND
  0
INSERT
  5
23EBA
330
23E78
100
AcDbEntity
  8
寸法
 62
     0
 48
50.0
370
    -2
100
AcDbBlockReference
  2
_DOTSMALL
 10
6743.021293995972
 20
2306.186184708791
 30
0.0
 41
100.0
 42
100.0
 43
100.0
  0
INSERT
  5
23EBB
330
23E78
100
AcDbEntity
  8
寸法
 62
     0
 48
50.0
370
    -2
100
AcDbBlockReference
  2
_DOTSMALL
 10
6551.021293995971
 20
2306.186184708791
 30
0.0
 41
100.0
 42
100.0
 43
100.0
 50
180.0
  0
POINT
  5
23EBC
330
23E78
100
AcDbEntity
  8
DEFPOINTS
 62
     0
 48
50.0
100
AcDbPoint
 10
6743.021293995972
 20
1986.186184708791
 30
0.0
  0
POINT
  5
23EBD
330
23E78
100
AcDbEntity
  8
DEFPOINTS
 62
     0
 48
50.0
100
AcDbPoint
 10
6551.021293995971
 20
1986.186184708791
 30
0.0
  0
POINT
  5
23EBE
330
23E78
100
AcDbEntity
  8
DEFPOINTS
 62
     0
 48
50.0
100
AcDbPoint
 10
6551.021293995971
 20
2306.186184708791
 30
0.0
  0
ENDBLK
  5
23E83
330
23E78
100
AcDbEntity
  8
0
 48
50.0
100
AcDbBlockEnd
  0
ENDSEC
  0
SECTION
  2
ENTITIES
  0
MTEXT
  5
763F
330
747D
100
AcDbEntity
  8
0
100
AcDbMText
 10
302.846345836809
 20
280.1983726409901
 30
0.0
 40
3.5
 41
5.323721266742722
 71
     1
 72
     5
  1

  7
MSMINCHO
 73
     1
 44
1.0
1001
ACAD
1000
MTEXTBEGIN
1070
    73
1070
     1
1070
    44
1040
1.0
1070
    74
1070
     0
1000
MTEXTEND
  0
LINE
  5
10B57
330
747D
100
AcDbEntity
  8
補助
  6
PHANTOM
 62
   230
 48
50.0
100
AcDbLine
 10
139.9999999999995
 20
11409.6
 30
0.0
 11
16307.2
 21
11409.6
 31
0.0
  0
LINE
  5
10B59
330
747D
100
AcDbEntity
  8
仕様書枠
  6
Continuous
 48
50.0
100
AcDbLine
 10
13107.2
 20
1200.0
 30
0.0
 11
13107.2
 21
-0.0000000000000729
 31
0.0
  0
LINE
  5
10B5D
330
747D
100
AcDbEntity
  8
仕様書枠
 48
50.0
100
AcDbLine
 10
140.0
 20
0.0
 30
0.0
 11
16307.2
 21
-0.0000000000000909
 31
0.0
  0
LINE
  5
10B5E
330
747D
100
AcDbEntity
  8
補助
  6
PHANTOM
 62
   230
 48
50.0
100
AcDbLine
 10
16307.2
 20
11409.6
 30
0.0
 11
16307.2
 21
1200.0
 31
0.0
  0
LINE
  5
10B6C
330
747D
100
AcDbEntity
  8
仕様書枠
 48
50.0
100
AcDbLine
 10
13107.2
 20
1200.0
 30
0.0
 11
16307.2
 21
1200.0
 31
0.0
  0
TEXT
  5
10B73
330
747D
100
AcDbEntity
  8
文字
 62
     7
 48
50.0
100
AcDbText
 10
13162.9790565769
 20
895.0906074299405
 30
0.0
 40
200.0
  1
基 礎 図
  7
STYLE2
100
AcDbText
  0
LINE
  5
10B7B
330
747D
100
AcDbEntity
  8
仕様書枠
 48
50.0
100
AcDbLine
 10
13107.2
 20
800.0
 30
0.0
 11
14251.2
 21
800.0
 31
0.0
  0
LINE
  5
10B88
330
747D
100
AcDbEntity
  8
仕様書枠
  6
Continuous
 48
50.0
100
AcDbLine
 10
14251.2
 20
1200.0
 30
0.0
 11
14251.2
 21
800.0
 31
0.0
  0
LINE
  5
16462
330
747D
100
AcDbEntity
  8
仕様書枠
 48
50.0
100
AcDbLine
 10
16307.2
 20
1200.0
 30
0.0
 11
16307.2
 21
-0.0000000000000909
 31
0.0
  0
LINE
  5
1903B
330
747D
100
AcDbEntity
  8
補助
  6
PHANTOM
 62
   230
 48
50.0
100
AcDbLine
 10
140.0
 20
0.0
 30
0.0
 11
139.9999999999995
 21
11409.6
 31
0.0
  0
TEXT
  5
1C7A1
330
747D
100
AcDbEntity
  8
文字
 62
     7
 48
50.0
100
AcDbText
 10
13188.16259899338
 20
79.80631269190417
 30
0.0
 40
80.0
  1
※布基礎には換気口を設けてください。
  7
STYLE2
100
AcDbText
  0
TEXT
  5
1C7E7
330
747D
100
AcDbEntity
  8
文字
 62
     7
 48
50.0
100
AcDbText
 10
13188.16259899338
 20
246.7109242801889
 30
0.0
 40
80.0
  1
※寒冷地等は地域の実情に合わせた基礎にして下さい。
  7
STYLE2
100
AcDbText
  0
TEXT
  5
1C7E8
330
747D
100
AcDbEntity
  8
文字
 62
     7
 48
50.0
100
AcDbText
 10
14378.5385919608
 20
499.5983841039506
 30
0.0
 40
160.0
  1
ＮＸＮ－３２ＳＢ/ＨＢ
  7
STYLE2
100
AcDbText
  0
TEXT
  5
1C7E9
330
747D
100
AcDbEntity
  8
文字
 62
     7
 48
50.0
100
AcDbText
 10
14641.2525855784
 20
871.1744590657927
 30
0.0
 40
100.0
  1
～一般型・多雪地型～
  7
STYLE2
100
AcDbText
  0
TEXT
  5
1C7EC
330
747D
100
AcDbEntity
  8
文字
 62
     7
 48
50.0
100
AcDbText
 10
14524.131837222
 20
1031.557706291229
 30
0.0
 40
100.0
  1
      　    <縮尺> S=1/40
  7
STYLE2
100
AcDbText
  0
TEXT
  5
1C7ED
330
747D
100
AcDbEntity
  8
文字
 62
     7
 48
50.0
100
AcDbText
 10
13201.43669998441
 20
477.2740661031257
 30
0.0
 40
160.0
  1
機種名
  7
STYLE2
100
AcDbText
  0
LINE
  5
1C7EF
330
747D
100
AcDbEntity
  8
文字
 62
     7
 48
50.0
100
AcDbLine
 10
13187.2
 20
400.0
 30
0.0
 11
16227.2
 21
400.0
 31
0.0
  0
LINE
  5
2118A
102
{ACAD_REACTORS
330
23411
102
}
330
747D
100
AcDbEntity
  8
部品1
 48
50.0
100
AcDbLine
 10
8123.600000000001
 20
7636.907777930208
 30
0.0
 11
8123.600000000001
 21
7756.907777930208
 31
0.0
  0
LINE
  5
2118B
102
{ACAD_REACTORS
330
23411
102
}
330
747D
100
AcDbEntity
  8
部品1
 48
50.0
100
AcDbLine
 10
8323.6
 20
7636.907777930208
 30
0.0
 11
8323.6
 21
7756.907777930208
 31
0.0
  0
LINE
  5
2118E
330
747D
100
AcDbEntity
  8
センター
 48
2.0
100
AcDbLine
 10
9000.6
 20
7683.907777930208
 30
0.0
 11
9000.6
 21
7583.907777930209
 31
0.0
  0
LINE
  5
2118F
102
{ACAD_REACTORS
330
2342C
102
}
330
747D
100
AcDbEntity
  8
部品1
 48
50.0
100
AcDbLine
 10
9123.600000000001
 20
5956.907777930226
 30
0.0
 11
9123.600000000001
 21
7756.907777930208
 31
0.0
  0
DIMENSION
  5
21191
330
747D
100
AcDbEntity
  8
寸法
 48
50.0
100
AcDbDimension
  2
*D19
 10
6741.756143596319
 20
7756.907777930208
 30
0.0
 11
6741.756143596318
 21
7306.907777930208
 31
0.0
 70
   160
 71
     5
 42
900.0
  3
INABA_S40G
100
AcDbAlignedDimension
 13
8123.600000000001
 23
6856.907777930207
 33
0.0
 14
7323.6
 24
7756.907777930208
 34
0.0
 50
90.0
100
AcDbRotatedDimension
1001
ACAD
1000
DSTYLE
1002
{
1070
   174
1070
     0
1070
   272
1070
     1
1070
   341
1005
0
1002
}
  0
DIMENSION
  5
21192
330
747D
100
AcDbEntity
  8
寸法
 48
50.0
100
AcDbDimension
  2
*D20
 10
8223.600000000001
 20
8283.817543578534
 30
0.0
 11
8694.51852200628
 21
8283.817543578534
 31
0.0
 70
   160
 71
     5
 42
900.0
  3
INABA_S40G
100
AcDbAlignedDimension
 13
9123.600000000001
 23
7756.907777930208
 33
0.0
 14
8223.600000000001
 24
7056.907777930208
 34
0.0
100
AcDbRotatedDimension
1001
ACAD
1000
DSTYLE
1002
{
1070
   174
1070
     0
1070
   272
1070
     1
1070
   341
1005
0
1002
}
  0
LINE
  5
21193
330
747D
100
AcDbEntity
  8
センター
 48
2.0
100
AcDbLine
 10
7446.6
 20
7683.907777930208
 30
0.0
 11
7446.6
 21
7583.907777930209
 31
0.0
  0
DIMENSION
  5
21194
330
747D
100
AcDbEntity
  8
寸法
 48
50.0
100
AcDbDimension
  2
*D21
 10
6484.227453286071
 20
7633.907777930208
 30
0.0
 11
6484.22745328607
 21
8070.014379648005
 31
0.0
 70
   160
 71
     5
 42
123.0
  3
INABA_S40G
100
AcDbAlignedDimension
 13
7323.6
 23
7756.907777930208
 33
0.0
 14
7396.600000000001
 24
7633.907777930208
 34
0.0
 50
90.0
100
AcDbRotatedDimension
1001
ACAD
1000
DSTYLE
1002
{
1070
   174
1070
     0
1070
   272
1070
     1
1070
   341
1005
0
1002
}
  0
DIMENSION
  5
21195
330
747D
100
AcDbEntity
  8
寸法
 48
50.0
100
AcDbDimension
  2
*D22
 10
6232.284356566673
 20
7756.907777930208
 30
0.0
 11
6232.284356566672
 21
6856.907777930207
 31
0.0
 70
   160
 71
     5
 42
1800.0
  3
INABA_S40G
100
AcDbAlignedDimension
 13
7323.6
 23
5956.907777930208
 33
0.0
 14
7323.6
 24
7756.907777930208
 34
0.0
 50
90.0
100
AcDbRotatedDimension
1001
ACAD
1000
DSTYLE
1002
{
1070
   174
1070
     0
1070
   272
1070
     1
1070
   341
1005
0
1002
}
  0
LINE
  5
21196
102
{ACAD_REACTORS
330
23490
102
}
330
747D
100
AcDbEntity
  8
部品1
 48
50.0
100
AcDbLine
 10
7323.6
 20
5956.907777930208
 30
0.0
 11
7323.6
 21
7756.907777930208
 31
0.0
  0
DIMENSION
  5
21198
330
747D
100
AcDbEntity
  8
寸法
 48
50.0
100
AcDbDimension
  2
*D23
 10
7323.6
 20
8283.817543578534
 30
0.0
 11
7773.6
 21
8383.817543578535
 31
0.0
 70
    32
 71
     5
 42
900.0
  3
INABA_S40G
100
AcDbAlignedDimension
 13
8223.600000000001
 23
7056.907777930208
 33
0.0
 14
7323.6
 24
7756.907777930208
 34
0.0
100
AcDbRotatedDimension
1001
ACAD
1000
DSTYLE
1002
{
1070
   174
1070
     0
1070
   272
1070
     1
1070
   341
1005
0
1002
}
  0
LINE
  5
2119A
102
{ACAD_REACTORS
330
23475
102
}
330
747D
100
AcDbEntity
  8
部品1
 48
50.0
100
AcDbLine
 10
9123.600000000001
 20
5881.907777930228
 30
0.0
 11
7323.6
 21
5881.907777930208
 31
0.0
  0
DIMENSION
  5
211A1
330
747D
100
AcDbEntity
  8
寸法
 48
50.0
100
AcDbDimension
  2
*D24
 10
6979.872307120223
 20
5956.907777930208
 30
0.0
 11
6979.872307120221
 21
5348.42249655597
 31
0.0
 70
   160
  1
扉の出<>
 71
     5
 42
74.99999999998363
  3
INABA_S40G
100
AcDbAlignedDimension
 13
7323.6
 23
5881.907777930224
 33
0.0
 14
7323.6
 24
5956.907777930208
 34
0.0
 50
90.0
100
AcDbRotatedDimension
1001
ACAD
1000
DSTYLE
1002
{
1070
   174
1070
     0
1070
   272
1070
     1
1070
   341
1005
0
1002
}
  0
DIMENSION
  5
211A3
330
747D
100
AcDbEntity
  8
寸法
 48
50.0
100
AcDbDimension
  2
*D25
 10
6484.227453286071
 20
6079.907777930209
 30
0.0
 11
6484.22745328607
 21
6856.907777930207
 31
0.0
 70
   160
 71
     5
 42
1553.999999999998
  3
INABA_S40G
100
AcDbAlignedDimension
 13
7396.600000000001
 23
7633.907777930208
 33
0.0
 14
7396.600000000008
 24
6079.907777930209
 34
0.0
 50
90.0
100
AcDbRotatedDimension
1001
ACAD
1000
DSTYLE
1002
{
1070
   174
1070
     0
1070
   272
1070
     1
1070
   341
1005
0
1002
}
  0
DIMENSION
  5
211A6
330
747D
100
AcDbEntity
  8
寸法
 48
50.0
100
AcDbDimension
  2
*D26
 10
6484.227453286071
 20
5956.907777930208
 30
0.0
 11
6484.22745328607
 21
5683.801176212409
 31
0.0
 70
   160
 71
     5
 42
123.0000000000018
  3
INABA_S40G
100
AcDbAlignedDimension
 13
7396.600000000008
 23
6079.907777930209
 33
0.0
 14
7323.6
 24
5956.907777930208
 34
0.0
 50
90.0
100
AcDbRotatedDimension
1001
ACAD
1000
DSTYLE
1002
{
1070
   174
1070
     0
1070
   272
1070
     1
1070
   341
1005
0
1002
}
  0
LINE
  5
211A7
330
747D
100
AcDbEntity
  8
部品1
 48
50.0
100
AcDbLine
 10
7323.6
 20
5881.907777930224
 30
0.0
 11
7323.6
 21
5956.907777930208
 31
0.0
  0
LINE
  5
211AA
330
747D
100
AcDbEntity
  8
センター
 48
2.0
100
AcDbLine
 10
7446.600000000008
 20
6129.90777793021
 30
0.0
 11
7446.600000000008
 21
6029.907777930209
 31
0.0
  0
LINE
  5
211AB
330
747D
100
AcDbEntity
  8
部品1
 48
50.0
100
AcDbLine
 10
7553.6
 20
6076.907777930211
 30
0.0
 11
7553.6
 21
6186.907777930212
 31
0.0
  0
LINE
  5
211AC
330
747D
100
AcDbEntity
  8
センター
 48
2.0
100
AcDbLine
 10
7396.600000000008
 20
6079.907777930209
 30
0.0
 11
7496.600000000007
 21
6079.907777930209
 31
0.0
  0
CIRCLE
  5
211AD
330
747D
100
AcDbEntity
  8
部品1
 48
50.0
100
AcDbCircle
 10
7446.600000000008
 20
6079.907777930209
 30
0.0
 40
35.0
  0
LINE
  5
211AE
330
747D
100
AcDbEntity
  8
部品1
 48
50.0
100
AcDbLine
 10
7553.6
 20
6186.907777930212
 30
0.0
 11
7443.600000000002
 21
6186.907777930211
 31
0.0
  0
LINE
  5
211AF
102
{ACAD_REACTORS
330
23490
102
}
330
747D
100
AcDbEntity
  8
部品1
 48
50.0
100
AcDbLine
 10
7443.6
 20
6956.907777930216
 30
0.0
 11
7323.6
 21
6956.907777930218
 31
0.0
  0
LINE
  5
211B0
102
{ACAD_REACTORS
330
23490
102
}
330
747D
100
AcDbEntity
  8
部品1
 48
50.0
100
AcDbLine
 10
7443.6
 20
6756.907777930216
 30
0.0
 11
7323.6
 21
6756.907777930218
 31
0.0
  0
LINE
  5
211B2
330
747D
100
AcDbEntity
  8
センター
 48
2.0
100
AcDbLine
 10
7396.600000000001
 20
7633.907777930208
 30
0.0
 11
7496.6
 21
7633.907777930208
 31
0.0
  0
CIRCLE
  5
211B3
330
747D
100
AcDbEntity
  8
部品1
 48
50.0
100
AcDbCircle
 10
7446.6
 20
7633.907777930208
 30
0.0
 40
35.0
  0
LINE
  5
211B4
330
747D
100
AcDbEntity
  8
部品1
 48
50.0
100
AcDbLine
 10
7553.599999999999
 20
7526.907777930204
 30
0.0
 11
7443.6
 21
7526.907777930206
 31
0.0
  0
LINE
  5
211B5
330
747D
100
AcDbEntity
  8
部品1
 48
50.0
100
AcDbLine
 10
7553.599999999999
 20
7526.907777930204
 30
0.0
 11
7553.599999999999
 21
7636.907777930208
 31
0.0
  0
DIMENSION
  5
211B7
330
747D
100
AcDbEntity
  8
寸法
 48
50.0
100
AcDbDimension
  2
*D27
 10
9003.6
 20
7299.199110429833
 30
0.0
 11
9393.659055118112
 21
7299.199110429833
 31
0.0
 70
   160
 71
     5
 42
120.0
  3
INABA_S40G
100
AcDbAlignedDimension
 13
9123.600000000001
 23
7316.192374468664
 33
0.0
 14
9003.6
 24
7526.907777930209
 34
0.0
100
AcDbRotatedDimension
1001
ACAD
1000
DSTYLE
1002
{
1070
   174
1070
     0
1070
   272
1070
     1
1070
   341
1005
0
1002
}
  0
DIMENSION
  5
211B8
330
747D
100
AcDbEntity
  8
寸法
 48
50.0
100
AcDbDimension
  2
*D28
 10
6741.756143596319
 20
6856.907777930207
 30
0.0
 11
6741.756143596318
 21
6406.907777930212
 31
0.0
 70
   160
 71
     5
 42
900.0
  3
INABA_S40G
100
AcDbAlignedDimension
 13
7323.6
 23
5956.907777930208
 33
0.0
 14
8123.600000000001
 24
6856.907777930207
 34
0.0
 50
90.0
100
AcDbRotatedDimension
1001
ACAD
1000
DSTYLE
1002
{
1070
   174
1070
     0
1070
   272
1070
     1
1070
   341
1005
0
1002
}
  0
LINE
  5
211BB
102
{ACAD_REACTORS
330
23475
102
}
330
747D
100
AcDbEntity
  8
部品1
 48
50.0
100
AcDbLine
 10
8323.600000000018
 20
5881.907777930219
 30
0.0
 11
8323.600000000018
 21
6076.907777930219
 31
0.0
  0
LINE
  5
211BC
102
{ACAD_REACTORS
330
23475
102
}
330
747D
100
AcDbEntity
  8
部品1
 48
50.0
100
AcDbLine
 10
8123.600000000017
 20
5881.907777930217
 30
0.0
 11
8123.600000000019
 21
6076.907777930218
 31
0.0
  0
LINE
  5
211C0
330
747D
100
AcDbEntity
  8
部品1
 48
50.0
100
AcDbLine
 10
9123.600000000001
 20
5881.90777793023
 30
0.0
 11
9123.600000000001
 21
5956.907777930226
 31
0.0
  0
LINE
  5
211C1
330
747D
100
AcDbEntity
  8
センター
 48
2.0
100
AcDbLine
 10
8950.600000000006
 20
6079.907777930209
 30
0.0
 11
9050.600000000008
 21
6079.907777930209
 31
0.0
  0
CIRCLE
  5
211C2
330
747D
100
AcDbEntity
  8
部品1
 48
50.0
100
AcDbCircle
 10
9000.600000000007
 20
6079.907777930209
 30
0.0
 40
35.0
  0
LINE
  5
211C3
330
747D
100
AcDbEntity
  8
部品1
 48
50.0
100
AcDbLine
 10
9003.6
 20
6186.907777930224
 30
0.0
 11
8893.600000000001
 21
6186.907777930226
 31
0.0
  0
LINE
  5
211C4
330
747D
100
AcDbEntity
  8
部品1
 48
50.0
100
AcDbLine
 10
8893.600000000001
 20
6076.907777930223
 30
0.0
 11
8893.600000000001
 21
6186.907777930226
 31
0.0
  0
LINE
  5
211C5
330
747D
100
AcDbEntity
  8
センター
 48
2.0
100
AcDbLine
 10
9000.600000000007
 20
6129.90777793021
 30
0.0
 11
9000.600000000007
 21
6029.907777930209
 31
0.0
  0
DIMENSION
  5
211C6
330
747D
100
AcDbEntity
  8
寸法
 48
50.0
100
AcDbDimension
  2
*D29
 10
8893.600000000001
 20
7299.199110429833
 30
0.0
 11
8623.54094488189
 21
7299.199110429833
 31
0.0
 70
   160
 71
     5
 42
110.0
  3
INABA_S40G
100
AcDbAlignedDimension
 13
9003.6
 23
7526.907777930209
 33
0.0
 14
8893.600000000001
 24
7526.907777930206
 34
0.0
100
AcDbRotatedDimension
1001
ACAD
1000
DSTYLE
1002
{
1070
   174
1070
     0
1070
   272
1070
     1
1070
   341
1005
0
1002
}
  0
LINE
  5
211C7
330
747D
100
AcDbEntity
  8
部品1
 48
50.0
100
AcDbLine
 10
8323.6
 20
7056.907777930208
 30
0.0
 11
8123.600000000001
 21
7056.907777930208
 31
0.0
  0
LINE
  5
211C8
330
747D
100
AcDbEntity
  8
部品1
 48
50.0
100
AcDbLine
 10
8323.6
 20
6656.907777930206
 30
0.0
 11
8123.600000000001
 21
6656.907777930206
 31
0.0
  0
LINE
  5
211C9
330
747D
100
AcDbEntity
  8
センター
 48
2.0
100
AcDbLine
 10
8173.6
 20
6856.907777930207
 30
0.0
 11
8273.6
 21
6856.907777930207
 31
0.0
  0
LINE
  5
211CA
330
747D
100
AcDbEntity
  8
部品1
 48
50.0
100
AcDbLine
 10
8123.600000000001
 20
6656.907777930207
 30
0.0
 11
8123.600000000001
 21
7056.907777930208
 31
0.0
  0
LINE
  5
211CB
330
747D
100
AcDbEntity
  8
部品1
 48
50.0
100
AcDbLine
 10
8323.6
 20
6656.907777930206
 30
0.0
 11
8323.6
 21
7056.907777930208
 31
0.0
  0
LINE
  5
211CC
330
747D
100
AcDbEntity
  8
センター
 48
2.0
100
AcDbLine
 10
8223.600000000001
 20
6906.907777930207
 30
0.0
 11
8223.600000000001
 21
6806.907777930208
 31
0.0
  0
LINE
  5
211CE
102
{ACAD_REACTORS
330
2342C
102
}
330
747D
100
AcDbEntity
  8
部品1
 48
50.0
100
AcDbLine
 10
9123.600000000001
 20
6756.907777930218
 30
0.0
 11
9003.600000000004
 21
6756.907777930218
 31
0.0
  0
LINE
  5
211CF
102
{ACAD_REACTORS
330
2342C
102
}
330
747D
100
AcDbEntity
  8
部品1
 48
50.0
100
AcDbLine
 10
9123.600000000001
 20
6956.907777930218
 30
0.0
 11
9003.600000000004
 21
6956.907777930218
 31
0.0
  0
LINE
  5
211D0
330
747D
100
AcDbEntity
  8
センター
 48
2.0
100
AcDbLine
 10
8950.599999999999
 20
7633.907777930208
 30
0.0
 11
9050.600000000001
 21
7633.907777930208
 31
0.0
  0
CIRCLE
  5
211D1
330
747D
100
AcDbEntity
  8
部品1
 48
50.0
100
AcDbCircle
 10
9000.6
 20
7633.907777930208
 30
0.0
 40
35.0
  0
LINE
  5
211D2
330
747D
100
AcDbEntity
  8
部品1
 48
50.0
100
AcDbLine
 10
9003.6
 20
7526.907777930209
 30
0.0
 11
8893.600000000001
 21
7526.907777930206
 31
0.0
  0
LINE
  5
211D3
330
747D
100
AcDbEntity
  8
部品1
 48
50.0
100
AcDbLine
 10
8893.600000000001
 20
7526.907777930206
 30
0.0
 11
8893.600000000001
 21
7636.907777930204
 31
0.0
  0
DIMENSION
  5
211D4
330
747D
100
AcDbEntity
  8
寸法
 48
50.0
100
AcDbDimension
  2
*D30
 10
7446.6
 20
8502.667404472289
 30
0.0
 11
8223.600000000001
 21
8602.66740447229
 31
0.0
 70
    32
 71
     5
 42
1554.0
  3
INABA_S40G
100
AcDbAlignedDimension
 13
9000.6
 23
7683.907777930208
 33
0.0
 14
7446.6
 24
7683.907777930208
 34
0.0
100
AcDbRotatedDimension
1001
ACAD
1000
DSTYLE
1002
{
1070
   174
1070
     0
1070
   272
1070
     1
1070
   341
1005
0
1002
}
  0
DIMENSION
  5
211D5
330
747D
100
AcDbEntity
  8
寸法
 48
50.0
100
AcDbDimension
  2
*D31
 10
9123.600000000001
 20
8715.128099989128
 30
0.0
 11
8223.600000000001
 21
8815.128099989129
 31
0.0
 70
    32
 71
     5
 42
1800.0
  3
INABA_S40G
100
AcDbAlignedDimension
 13
7323.6
 23
7756.907777930208
 33
0.0
 14
9123.600000000001
 24
7756.907777930208
 34
0.0
100
AcDbRotatedDimension
1001
ACAD
1000
DSTYLE
1002
{
1070
   174
1070
     0
1070
   272
1070
     1
1070
   341
1005
0
1002
}
  0
LINE
  5
211D6
102
{ACAD_REACTORS
330
23411
102
}
330
747D
100
AcDbEntity
  8
部品1
 48
50.0
100
AcDbLine
 10
9123.600000000001
 20
7756.907777930208
 30
0.0
 11
7323.6
 21
7756.907777930208
 31
0.0
  0
DIMENSION
  5
211D9
330
747D
100
AcDbEntity
  8
寸法
 48
50.0
100
AcDbDimension
  2
*D32
 10
7323.6
 20
8502.667404472289
 30
0.0
 11
7050.493398282203
 21
8502.667404472289
 31
0.0
 70
   160
 71
     5
 42
123.0
  3
INABA_S40G
100
AcDbAlignedDimension
 13
7446.6
 23
7683.907777930208
 33
0.0
 14
7323.6
 24
7756.907777930208
 34
0.0
100
AcDbRotatedDimension
1001
ACAD
1000
DSTYLE
1002
{
1070
   174
1070
     0
1070
   272
1070
     1
1070
   341
1005
0
1002
}
  0
LINE
  5
211DB
330
747D
100
AcDbEntity
  8
部品1
 48
50.0
100
AcDbLine
 10
7722.928907166849
 20
7756.907777930205
 30
0.0
 11
7323.6
 21
7756.907777930208
 31
0.0
  0
DIMENSION
  5
211DC
330
747D
100
AcDbEntity
  8
寸法
 48
50.0
100
AcDbDimension
  2
*D33
 10
9000.6
 20
8502.667404472289
 30
0.0
 11
9396.706601717799
 21
8502.667404472289
 31
0.0
 70
   160
 71
     5
 42
123.0
  3
INABA_S40G
100
AcDbAlignedDimension
 13
9123.600000000001
 23
7756.907777930208
 33
0.0
 14
9000.6
 24
7683.907777930208
 34
0.0
100
AcDbRotatedDimension
1001
ACAD
1000
DSTYLE
1002
{
1070
   174
1070
     0
1070
   272
1070
     1
1070
   341
1005
0
1002
}
  0
LWPOLYLINE
  5
215A4
102
{ACAD_REACTORS
330
21CB1
102
}
330
747D
100
AcDbEntity
  8
寸法
 48
50.0
100
AcDbPolyline
 90
        3
 70
     0
 43
0.0
 10
8148.953660848182
 20
6590.739882153456
 10
8110.290584341472
 20
6443.029791380908
 10
7845.985627411508
 20
6443.029791380908
1001
ACAD
1000
DSTYLE
1002
{
1070
   341
1005
0
1070
   343
1005
0
1070
   344
1005
0
1002
}
  0
MTEXT
  5
215A5
102
{ACAD_REACTORS
330
21CB1
102
}
330
747D
100
AcDbEntity
  8
部品1
 62
     7
 48
50.0
100
AcDbMText
 10
8013.843675391418
 20
6533.819488428619
 30
0.0
 40
120.0
 41
0.0
 71
     6
 72
     1
  1
CB
  7
STYLE1
 73
     1
 44
1.0
1001
ACAD
1000
MTEXTBEGIN
1070
    73
1070
     1
1070
    44
1040
1.0
1070
    74
1070
     0
1000
MTEXTEND
  0
SOLID
  5
215A6
102
{ACAD_REACTORS
330
21CB1
102
}
330
747D
100
AcDbEntity
  8
寸法
 48
50.0
100
AcDbTrace
 10
8128.799307268314
 20
6596.015278778875
 30
0.0
 11
8180.606040600689
 21
6711.666003632659
 31
0.0
 12
8169.108014428047
 22
6585.464485528039
 32
0.0
 13
8169.108014428047
 23
6585.464485528039
 33
0.0
1001
ACAD
1000
DSTYLE
1002
{
1070
   341
1005
0
1070
   343
1005
0
1070
   344
1005
0
1002
}
  0
LEADER
  5
2171A
330
747D
100
AcDbEntity
  8
寸法
 48
50.0
100
AcDbLeader
  3
INABA_S50G
 73
     0
 74
     0
 75
     1
 40
120.0
 41
994.3492424049171
 76
     3
 10
9000.680085757009
 20
7633.921501126415
 30
0.0
 10
9174.645988304973
 20
7922.880272274156
 30
0.0
 10
9299.645988304973
 20
7922.880272274156
 30
0.0
340
2171B
1001
ACAD
1000
DSTYLE
1002
{
1070
   341
1005
0
1070
    40
1040
1.0
1070
   343
1005
0
1070
   344
1005
0
1002
}
  0
MTEXT
  5
2171B
102
{ACAD_REACTORS
330
2171A
102
}
330
747D
100
AcDbEntity
  8
部品1
 62
     7
 48
50.0
100
AcDbMText
 10
10318.99523070989
 20
8007.880272274157
 30
0.0
 40
120.0
 41
0.0
 71
     6
 72
     1
  1
アンカーボルト
  7
STYLE1
 73
     1
 44
1.0
1001
ACAD
1000
MTEXTBEGIN
1070
    73
1070
     1
1070
    44
1040
1.0
1070
    74
1070
     0
1000
MTEXTEND
  0
LEADER
  5
2171C
330
747D
100
AcDbEntity
  8
寸法
 48
50.0
100
AcDbLeader
  3
INABA_S50G
 73
     0
 74
     0
 75
     1
 40
120.0
 41
720.0000000000001
 76
     3
 10
9123.695499614996
 20
6786.436230971792
 30
0.0
 10
9280.469074001279
 20
6525.422317403959
 30
0.0
 10
9405.469074001279
 20
6525.422317403959
 30
0.0
340
2171D
1001
ACAD
1000
DSTYLE
1002
{
1070
   341
1005
0
1070
    40
1040
1.0
1070
   343
1005
0
1070
   344
1005
0
1002
}
  0
MTEXT
  5
2171D
102
{ACAD_REACTORS
330
2171C
102
}
330
747D
100
AcDbEntity
  8
部品1
 62
     7
 48
50.0
100
AcDbMText
 10
10150.46907400128
 20
6610.422317403958
 30
0.0
 40
120.0
 41
0.0
 71
     6
 72
     1
  1
\A1;床下換気口
  7
STYLE1
 73
     1
 44
1.0
1001
ACAD
1000
MTEXTBEGIN
1070
    73
1070
     1
1070
    44
1040
1.0
1070
    74
1070
     0
1000
MTEXTEND
  0
DIMENSION
  5
22224
330
747D
100
AcDbEntity
  8
寸法
 48
50.0
100
AcDbDimension
  2
*D36
 10
7323.600000000036
 20
5167.043474506098
 30
0.0
 11
8223.600000000018
 21
5267.043474506097
 31
0.0
 70
    32
  1
扉の幅 <>
 71
     5
 42
1799.999999999964
  3
INABA_S40G
100
AcDbAlignedDimension
 13
9123.600000000001
 23
5881.90777793023
 33
0.0
 14
7323.600000000036
 24
5881.907777930208
 34
0.0
100
AcDbRotatedDimension
1001
ACAD
1000
DSTYLE
1002
{
1070
   341
1005
0
1002
}
  0
TEXT
  5
22225
330
747D
100
AcDbEntity
  8
寸法
 62
     7
100
AcDbText
 10
7406.285760402179
 20
4798.079265415339
 30
0.0
 40
120.0
  1
扉位置 (1800x75)
  7
STYLE1
100
AcDbText
  0
SOLID
  5
22226
330
747D
100
AcDbEntity
  8
寸法
 48
50.0
100
AcDbTrace
 10
-7613.77106004181
 20
5756.316749025335
 30
0.0
 11
-7630.680265711799
 21
5881.907777930222
 31
0.0
 12
-7573.952845568332
 22
5768.589519994244
 32
0.0
 13
-7573.952845568332
 23
5768.589519994244
 33
0.0
210
0.0
220
0.0
230
-1.0
1001
ACAD
1000
DSTYLE
1002
{
1070
   341
1005
0
1070
    40
1040
1.0
1070
   343
1005
0
1070
   344
1005
0
1002
}
  0
LWPOLYLINE
  5
22227
330
747D
100
AcDbEntity
  8
寸法
 48
50.0
100
AcDbPolyline
 90
        3
 70
     0
 43
0.0
 10
-7630.680265711799
 20
5881.907777930222
 10
-7289.669801209424
 20
4775.811317867019
 10
-10103.73421414107
 20
4775.811317867019
210
0.0
220
0.0
230
-1.0
1001
ACAD
1000
DSTYLE
1002
{
1070
   341
1005
0
1070
    40
1040
1.0
1070
   343
1005
0
1070
   344
1005
0
1002
}
  0
TEXT
  5
22228
330
747D
100
AcDbEntity
  8
寸法
 62
     7
100
AcDbText
 10
7406.285760402179
 20
4626.475502532013
 30
0.0
 40
120.0
  1
扉の位置に合わせた基礎形状として下さい。
  7
STYLE1
100
AcDbText
  0
DIMENSION
  5
22229
330
747D
100
AcDbEntity
  8
寸法
 48
50.0
100
AcDbDimension
  2
*D34
 10
7782.938460046302
 20
6186.907777930223
 30
0.0
 11
7782.9384600463
 21
6422.955022024712
 31
0.0
 70
   160
 71
     5
 42
109.9999999999954
  3
INABA_S40G
100
AcDbAlignedDimension
 13
7553.599999999997
 23
6076.907777930227
 33
0.0
 14
7553.600000000038
 24
6186.907777930223
 34
0.0
 50
270.0
100
AcDbRotatedDimension
1001
ACAD
1000
DSTYLE
1002
{
1070
   341
1005
0
1002
}
  0
DIMENSION
  5
2222A
330
747D
100
AcDbEntity
  8
寸法
 48
50.0
100
AcDbDimension
  2
*D35
 10
7782.938460046302
 20
6076.907777930211
 30
0.0
 11
7782.9384600463
 21
5643.212836726329
 31
0.0
 70
   160
 71
     5
 42
194.9999999999882
  3
INABA_S40G
100
AcDbAlignedDimension
 13
7553.600000000035
 23
5881.907777930223
 33
0.0
 14
7553.6
 24
6076.907777930211
 34
0.0
 50
270.0
100
AcDbRotatedDimension
1001
ACAD
1000
DSTYLE
1002
{
1070
   341
1005
0
1002
}
  0
LINE
  5
22E02
330
747D
100
AcDbEntity
  8
想像線
 48
10.0
100
AcDbLine
 10
9198.600000000013
 20
7802.519882073112
 30
0.0
 11
9198.600000000013
 21
7164.531102267457
 31
0.0
  0
DIMENSION
  5
22E03
330
747D
100
AcDbEntity
  8
寸法
 48
50.0
100
AcDbDimension
  2
*D37
 10
6232.284356566673
 20
7802.519882073109
 30
0.0
 11
6232.284356566672
 21
8073.694503275568
 31
0.0
 70
   160
  1
a
 71
     5
 42
45.61210414290144
  3
INABA_S40G
100
AcDbAlignedDimension
 13
7323.6
 23
7756.907777930208
 33
0.0
 14
6484.227453286071
 24
7802.519882073109
 34
0.0
 50
90.0
100
AcDbRotatedDimension
1001
ACAD
1000
DSTYLE
1002
{
1070
   341
1005
0
1002
}
  0
LEADER
  5
22E04
330
747D
100
AcDbEntity
  8
寸法
 48
50.0
100
AcDbLeader
  3
INABA_S50G
 73
     0
 74
     0
 75
     1
 40
120.0
 41
672.0
 76
     3
 10
9198.602603499796
 20
7239.755433433815
 30
0.0
 10
9314.542615691836
 20
6980.866089970239
 30
0.0
 10
9439.542615691836
 20
6980.866089970239
 30
0.0
340
22E05
1001
ACAD
1000
DSTYLE
1002
{
1070
   341
1005
0
1070
    40
1040
1.0
1070
   343
1005
0
1070
   344
1005
0
1002
}
  0
MTEXT
  5
22E05
102
{ACAD_REACTORS
330
22E04
102
}
330
747D
100
AcDbEntity
  8
部品1
 62
     7
 48
50.0
100
AcDbMText
 10
10136.54261569183
 20
7065.866089970239
 30
0.0
 40
120.0
 41
0.0
 71
     6
 72
     1
  1
\A1;屋根の外寸
  7
STYLE1
 73
     1
 44
1.0
1001
ACAD
1000
MTEXTBEGIN
1070
    73
1070
     1
1070
    44
1040
1.0
1070
    74
1070
     0
1000
MTEXTEND
  0
TEXT
  5
22E06
330
747D
100
AcDbEntity
  8
部品1
 48
50.0
100
AcDbText
 10
9338.755419703231
 20
6886.555403037164
 30
0.0
 40
80.0
  1
※a,b,cは屋根の出幅です。
  7
STYLE1
100
AcDbText
  0
TEXT
  5
22E07
330
747D
100
AcDbEntity
  8
部品1
 48
50.0
100
AcDbText
 10
9497.334428457532
 20
6779.710182168409
 30
0.0
 40
80.0
  1
(a=45,b=55,c=75)
  7
STYLE1
100
AcDbText
  0
DIMENSION
  5
22E08
330
747D
100
AcDbEntity
  8
寸法
 48
50.0
100
AcDbDimension
  2
*D38
 10
9123.600000000001
 20
8715.128099989128
 30
0.0
 11
9161.100000000002
 21
8815.128099989129
 31
0.0
 70
    32
  1
c
 71
     5
 42
75.00000000000182
  3
INABA_S40G
100
AcDbAlignedDimension
 13
9198.600000000002
 23
8502.66740447229
 33
0.0
 14
9123.600000000001
 24
7756.907777930208
 34
0.0
100
AcDbRotatedDimension
1001
ACAD
1000
DSTYLE
1002
{
1070
   341
1005
0
1002
}
  0
DIMENSION
  5
22E09
330
747D
100
AcDbEntity
  8
寸法
 48
50.0
100
AcDbDimension
  2
*D39
 10
7268.600000000012
 20
8715.128099989128
 30
0.0
 11
7296.100000000006
 21
8815.128099989129
 31
0.0
 70
    32
  1
b
 71
     5
 42
54.99999999998817
  3
INABA_S40G
100
AcDbAlignedDimension
 13
7323.6
 23
7756.907777930208
 33
0.0
 14
7268.600000000012
 24
8502.66740447229
 34
0.0
100
AcDbRotatedDimension
1001
ACAD
1000
DSTYLE
1002
{
1070
   341
1005
0
1002
}
  0
LINE
  5
22E0A
330
747D
100
AcDbEntity
  8
想像線
 48
10.0
100
AcDbLine
 10
7268.600000000022
 20
7802.519882073112
 30
0.0
 11
9198.600000000013
 21
7802.519882073112
 31
0.0
  0
LINE
  5
22E0B
330
747D
100
AcDbEntity
  8
想像線
 48
10.0
100
AcDbLine
 10
7268.600000000022
 20
7802.519882073112
 30
0.0
 11
7268.600000000022
 21
7164.531102267457
 31
0.0
  0
DIMENSION
  5
22E0C
330
747D
100
AcDbEntity
  8
寸法
 48
50.0
100
AcDbDimension
  2
*D40
 10
6232.284356566673
 20
5956.907777930208
 30
0.0
 11
6232.284356566672
 21
5645.12105258484
 31
0.0
 70
   160
  1
a
 71
     5
 42
45.61210414290963
  3
INABA_S40G
100
AcDbAlignedDimension
 13
6484.227453286071
 23
5911.295673787298
 33
0.0
 14
7322.978897305272
 24
5956.907777930208
 34
0.0
 50
90.0
100
AcDbRotatedDimension
1001
ACAD
1000
DSTYLE
1002
{
1070
   341
1005
0
1002
}
  0
LINE
  5
233F3
102
{ACAD_REACTORS
330
23411
102
}
330
747D
100
AcDbEntity
  8
部品1
 48
50.0
100
AcDbLine
 10
8893.600000000001
 20
7636.907777930206
 30
0.0
 11
7553.6
 21
7636.907777930208
 31
0.0
  0
LINE
  5
233F4
102
{ACAD_REACTORS
330
23490
102
}
330
747D
100
AcDbEntity
  8
部品1
 48
50.0
100
AcDbLine
 10
7443.6
 20
6186.907777930209
 30
0.0
 11
7443.6
 21
7526.907777930204
 31
0.0
  0
LINE
  5
233F5
102
{ACAD_REACTORS
330
23475
102
}
330
747D
100
AcDbEntity
  8
部品1
 48
50.0
100
AcDbLine
 10
8893.600000000001
 20
6076.907777930224
 30
0.0
 11
7553.6
 21
6076.907777930212
 31
0.0
  0
LINE
  5
233F6
102
{ACAD_REACTORS
330
2342C
102
}
330
747D
100
AcDbEntity
  8
部品1
 48
50.0
100
AcDbLine
 10
9003.6
 20
6186.907777930228
 30
0.0
 11
9003.6
 21
7526.907777930208
 31
0.0
  0
HATCH
  5
23411
330
747D
100
AcDbEntity
  8
細線
 48
50.0
100
AcDbHatch
 10
0.0
 20
0.0
 30
0.0
210
0.0
220
0.0
230
1.0
  2
LINE
 70
     0
 71
     1
 91
        1
 92
        7
 72
     0
 73
     1
 93
        4
 10
8323.6
 20
7636.907777930206
 10
8323.6
 20
7756.90777793021
 10
8123.600000000001
 20
7756.90777793021
 10
8123.600000000001
 20
7636.907777930208
 97
        4
330
211D6
330
2118A
330
233F3
330
2118B
 75
     0
 76
     1
 52
45.0
 41
10.0
 77
     0
 78
     1
 53
45.0
 43
0.0
 44
0.0
 45
-22.45064030267288
 46
22.45064030267288
 79
     0
 47
4.137413167309727
 98
        1
 10
8266.195729494866
 20
7676.651900725166
  0
HATCH
  5
2342C
330
747D
100
AcDbEntity
  8
細線
 48
50.0
100
AcDbHatch
 10
0.0
 20
0.0
 30
0.0
210
0.0
220
0.0
230
1.0
  2
LINE
 70
     0
 71
     1
 91
        1
 92
        7
 72
     0
 73
     1
 93
        4
 10
9003.6
 20
6756.907777930218
 10
9123.600000000001
 20
6756.907777930216
 10
9123.599999999999
 20
6956.907777930216
 10
9003.6
 20
6956.907777930216
 97
        4
330
211CF
330
233F6
330
211CE
330
2118F
 75
     0
 76
     1
 52
45.0
 41
10.0
 77
     0
 78
     1
 53
45.0
 43
0.0
 44
0.0
 45
-22.45064030267288
 46
22.45064030267288
 79
     0
 47
4.137413167309727
 98
        1
 10
9061.003605573686
 20
6878.131148815886
  0
HATCH
  5
23475
330
747D
100
AcDbEntity
  8
細線
 48
50.0
100
AcDbHatch
 10
0.0
 20
0.0
 30
0.0
210
0.0
220
0.0
230
1.0
  2
LINE
 70
     0
 71
     1
 91
        1
 92
        7
 72
     0
 73
     1
 93
        4
 10
8123.600000000015
 20
5881.907777930217
 10
8323.600000000018
 20
5881.907777930219
 10
8323.600000000018
 20
6076.907777930219
 10
8123.600000000019
 20
6076.907777930217
 97
        4
330
233F5
330
211BC
330
2119A
330
211BB
 75
     0
 76
     1
 52
45.0
 41
10.0
 77
     0
 78
     1
 53
45.0
 43
0.0
 44
0.0
 45
-22.45064030267288
 46
22.45064030267288
 79
     0
 47
4.137413167309727
 98
        1
 10
8179.263593168085
 20
5972.037653689735
  0
HATCH
  5
23490
330
747D
100
AcDbEntity
  8
細線
 48
50.0
100
AcDbHatch
 10
0.0
 20
0.0
 30
0.0
210
0.0
220
0.0
230
1.0
  2
LINE
 70
     0
 71
     1
 91
        1
 92
        7
 72
     0
 73
     1
 93
        4
 10
7323.6
 20
6956.907777930218
 10
7323.600000000002
 20
6756.907777930218
 10
7443.599999999999
 20
6756.907777930215
 10
7443.6
 20
6956.907777930216
 97
        4
330
211AF
330
21196
330
211B0
330
233F4
 75
     0
 76
     1
 52
45.0
 41
10.0
 77
     0
 78
     1
 53
45.0
 43
0.0
 44
0.0
 45
-22.45064030267288
 46
22.45064030267288
 79
     0
 47
4.137413167309727
 98
        1
 10
7392.734953002655
 20
6923.642698207077
  0
LINE
  5
23D01
330
747D
100
AcDbEntity
  8
部品1
100
AcDbLine
 10
11551.33804057296
 20
3307.157804485636
 30
0.0
 11
5480.352855186707
 21
3307.157804485636
 31
0.0
  0
LINE
  5
23D02
330
747D
100
AcDbEntity
  8
部品1
100
AcDbLine
 10
11551.33804057296
 20
3067.157804485634
 30
0.0
 11
5480.35285518671
 21
3067.157804485635
 31
0.0
  0
LINE
  5
23D03
330
747D
100
AcDbEntity
  8
部品1
100
AcDbLine
 10
5480.352855186712
 20
342.850834900989
 30
0.0
 11
11551.33804057296
 21
342.850834900989
 31
0.0
  0
LEADER
  5
23D04
330
747D
100
AcDbEntity
  8
寸法
 48
50.0
100
AcDbLeader
  3
INABA_S50G
 73
     0
 74
     0
 75
     1
 40
102.2727272727273
 41
680.0000000000001
 76
     3
 10
8488.460607173164
 20
2385.061465817934
 30
0.0
 10
8522.814578286523
 20
2795.514276924475
 30
0.0
 10
8647.814578286523
 20
2795.514276924475
 30
0.0
340
23D05
1001
ACAD
1000
DSTYLE
1002
{
1070
   341
1005
0
1070
    40
1040
1.0
1070
   343
1005
0
1070
   344
1005
0
1002
}
  0
MTEXT
  5
23D05
102
{ACAD_REACTORS
330
23D04
102
}
330
747D
100
AcDbEntity
  8
部品1
 62
     7
 48
50.0
100
AcDbMText
 10
8672.814578286523
 20
2871.650640560839
 30
0.0
 40
80.0
 41
0.8
 71
     4
 72
     1
  1
\A1;ナット(市販品)
  7
STYLE2
 73
     1
 44
1.0
1001
ACAD
1000
MTEXTBEGIN
1070
    73
1070
     1
1070
    44
1040
1.0
1070
    74
1070
     0
1000
MTEXTEND
  0
LEADER
  5
23D06
330
747D
100
AcDbEntity
  8
寸法
 48
50.0
100
AcDbLeader
  3
INABA_S50G
 73
     0
 74
     0
 75
     1
 40
102.2727272727273
 41
906.8181818181818
 76
     3
 10
8512.460607173165
 20
2255.309473153071
 30
0.0
 10
8554.332197542004
 20
2610.545194159687
 30
0.0
 10
8679.332197542004
 20
2610.545194159687
 30
0.0
340
23D07
1001
ACAD
1000
DSTYLE
1002
{
1070
   341
1005
0
1070
    40
1040
1.0
1070
   343
1005
0
1070
   344
1005
0
1002
}
  0
MTEXT
  5
23D07
102
{ACAD_REACTORS
330
23D06
102
}
330
747D
100
AcDbEntity
  8
部品1
 62
     7
 48
50.0
100
AcDbMText
 10
8704.332197542004
 20
2686.681557796052
 30
0.0
 40
80.0
 41
0.8
 71
     4
 72
     1
  1
\A1;ワッシャー(市販品)
  7
STYLE2
 73
     1
 44
1.0
1001
ACAD
1000
MTEXTBEGIN
1070
    73
1070
     1
1070
    44
1040
1.0
1070
    74
1070
     0
1000
MTEXTEND
  0
LWPOLYLINE
  5
23D08
330
747D
100
AcDbEntity
  8
部品1
 48
50.0
100
AcDbPolyline
 90
        2
 70
     0
 43
8.0
 10
8665.060607173165
 20
1746.186184708792
 10
8958.763070572549
 20
1746.186184708792
  0
TEXT
  5
23D09
330
747D
100
AcDbEntity
  8
部品1
 48
50.0
100
AcDbText
 10
8669.414191457594
 20
2342.064865470991
 30
0.0
 40
80.0
  1
基礎ボルト(市販品)
  7
STYLE2
100
AcDbText
  0
DIMENSION
  5
23D0A
330
747D
100
AcDbEntity
  8
寸法
 48
50.0
100
AcDbDimension
  2
*D53
 10
9166.929206942008
 20
1662.18618470879
 30
0.0
 11
9066.929206942008
 21
1824.186184708792
 31
0.0
 70
    32
  1
180
 71
     5
 42
324.0000000000009
  3
INABA_S40G
100
AcDbAlignedDimension
 13
8665.060607173165
 23
1986.186184708791
 33
0.0
 14
8665.060607173165
 24
1662.18618470879
 34
0.0
 50
90.0
100
AcDbRotatedDimension
1001
ACAD
1000
DSTYLE
1002
{
1070
   174
1070
     0
1070
   272
1070
     1
1070
   279
1070
     1
1070
   288
1070
     0
1070
   341
1005
0
1002
}
  0
DIMENSION
  5
23D0B
330
747D
100
AcDbEntity
  8
寸法
 48
50.0
100
AcDbDimension
  2
*D54
 10
9166.929206942008
 20
1986.186184708791
 30
0.0
 11
9442.983873061036
 21
1961.062227104579
 31
0.0
 70
   160
  1
20～25
 71
     5
 42
52.76000000000113
  3
INABA_S40G
100
AcDbAlignedDimension
 13
8477.860607173168
 23
2038.946184708792
 33
0.0
 14
8665.060607173165
 24
1986.186184708791
 34
0.0
 50
90.0
100
AcDbRotatedDimension
1001
ACAD
1000
DSTYLE
1002
{
1070
   174
1070
     0
1070
   272
1070
     1
1070
   279
1070
     1
1070
   288
1070
     0
1070
   341
1005
0
1002
}
  0
MTEXT
  5
23D0C
102
{ACAD_REACTORS
330
23D0D
102
}
330
747D
100
AcDbEntity
  8
部品1
 62
     7
 48
50.0
100
AcDbMText
 10
8674.005069592483
 20
2250.569510862021
 30
0.0
 40
80.0
 41
0.8
 71
     4
 72
     1
  1
M10X160
  7
STYLE2
 73
     1
 44
1.0
1001
ACAD
1000
MTEXTBEGIN
1070
    73
1070
     1
1070
    44
1040
1.0
1070
    74
1070
     0
1000
MTEXTEND
  0
LEADER
  5
23D0D
330
747D
100
AcDbEntity
  8
寸法
 48
50.0
100
AcDbLeader
  3
INABA_S50G
 73
     0
 74
     0
 75
     1
 40
80.0
 41
435.0
 76
     3
 10
8481.460607173165
 20
2035.346184708792
 30
0.0
 10
8524.005069592483
 20
2185.569510862021
 30
0.0
 10
8649.005069592483
 20
2185.569510862021
 30
0.0
340
23D0C
1001
ACAD
1000
DSTYLE
1002
{
1070
   341
1005
0
1070
    40
1040
1.0
1070
   343
1005
0
1070
   344
1005
0
1002
}
  0
LINE
  5
23D0E
330
747D
100
AcDbEntity
  8
部品1
100
AcDbLine
 10
5480.352855186708
 20
3307.157804485636
 30
0.0
 11
5480.35285518671
 21
342.850834900989
 31
0.0
  0
LEADER
  5
23D0F
330
747D
100
AcDbEntity
  8
寸法
 48
50.0
100
AcDbLeader
  3
INABA_S50G
 73
     0
 75
     1
 40
113.1818181818182
 41
608.6363636363635
 76
     3
 10
8441.197357311216
 20
1935.70185806707
 30
0.0
 10
8307.393528619869
 20
2787.080940423548
 30
0.0
 10
8182.393528619869
 20
2787.080940423548
 30
0.0
340
23D10
1001
ACAD
1000
DSTYLE
1002
{
1070
   341
1005
0
1070
    40
1040
1.0
1070
   343
1005
0
1070
   344
1005
0
1002
}
  0
MTEXT
  5
23D10
102
{ACAD_REACTORS
330
23D0F
102
}
330
747D
100
AcDbEntity
  8
寸法
 62
     7
 48
50.0
100
AcDbMText
 10
8157.393528619868
 20
2868.671849514457
 30
0.0
 40
80.0
 41
0.8
 71
     6
 72
     1
  1
\A1;φ70スリーブ
  7
STYLE2
 73
     1
 44
1.0
1001
ACAD
1000
MTEXTBEGIN
1070
    73
1070
     1
1070
    44
1040
1.0
1070
    74
1070
     0
1000
MTEXTEND
  0
LWPOLYLINE
  5
23D11
330
747D
100
AcDbEntity
  8
部品1
 48
50.0
100
AcDbPolyline
 90
        2
 70
     0
 43
8.0
 10
6136.881392163014
 20
1746.186184708792
 10
6551.021293995971
 20
1746.186184708792
  0
TEXT
  5
23D12
330
747D
100
AcDbEntity
  8
部品1
 48
50.0
100
AcDbText
 10
6136.881392163014
 20
1757.425176992046
 30
0.0
 40
80.0
  1
▽G.L
  7
STYLE2
100
AcDbText
  0
DIMENSION
  5
23D13
330
747D
100
AcDbEntity
  8
寸法
 48
50.0
100
AcDbDimension
  2
*D55
 10
6280.600980263511
 20
1202.186184708791
 30
0.0
 11
6280.600980263511
 21
1322.186184708791
 31
0.0
 70
   160
  1
150
 71
     5
 42
240.0
  3
INABA_S40G
100
AcDbAlignedDimension
 13
6423.021293995971
 23
1442.186184708791
 33
0.0
 14
6343.021293995975
 24
1202.186184708791
 34
0.0
 50
90.0
100
AcDbRotatedDimension
1001
ACAD
1000
DSTYLE
1002
{
1070
   174
1070
     0
1070
   272
1070
     1
1070
   279
1070
     1
1070
   288
1070
     0
1070
   341
1005
0
1002
}
  0
LEADER
  5
23D14
330
747D
100
AcDbEntity
  8
寸法
 48
50.0
100
AcDbLeader
  3
INABA_S50G
 71
     0
 73
     0
 75
     1
 40
100.0
 41
225.0
 76
     3
 10
6518.924246348113
 20
1322.186184708791
 30
0.0
 10
6397.086267800776
 20
1058.663491090355
 30
0.0
 10
6272.086267800776
 20
1058.663491090355
 30
0.0
1001
ACAD
1000
DSTYLE
1002
{
1070
    40
1040
1.0
1070
   272
1070
     1
1070
   279
1070
     1
1070
   341
1005
0
1002
}
  0
LEADER
  5
23D15
330
747D
100
AcDbEntity
  8
寸法
 48
50.0
100
AcDbLeader
  3
INABA_S50G
 71
     0
 73
     0
 75
     1
 40
100.0
 41
222.7272727272727
 76
     3
 10
6647.021293995971
 20
1322.186184708791
 30
0.0
 10
6425.208995358211
 20
878.3473385509115
 30
0.0
 10
6300.208995358212
 20
878.3473385509115
 30
0.0
1001
ACAD
1000
DSTYLE
1002
{
1070
    40
1040
1.0
1070
   272
1070
     1
1070
   279
1070
     1
1070
   341
1005
0
1002
}
  0
MTEXT
  5
23D16
102
{ACAD_REACTORS
330
23D17
102
}
330
747D
100
AcDbEntity
  8
寸法
 62
     7
 48
50.0
100
AcDbMText
 10
6461.771239773167
 20
1587.486787526248
 30
0.0
 40
80.0
 41
0.8
 71
     6
 72
     1
  1
\A1;D10@300
  7
STYLE2
 73
     1
 44
1.0
1001
ACAD
1000
MTEXTBEGIN
1070
    73
1070
     1
1070
    44
1040
1.0
1070
    74
1070
     0
1000
MTEXTEND
  0
LEADER
  5
23D17
330
747D
100
AcDbEntity
  8
寸法
 48
50.0
100
AcDbLeader
  3
INABA_S50G
 71
     0
 73
     0
 75
     1
 40
100.0
 41
540.3409090909091
 76
     3
 10
6655.021293995971
 20
1744.313399405914
 30
0.0
 10
6597.039057467274
 20
1522.843070865109
 30
0.0
 10
6472.039057467274
 20
1522.843070865109
 30
0.0
213
-9.732182305893367
223
-4.643716661138569
233
0.0
1001
ACAD
1000
DSTYLE
1002
{
1070
    40
1040
1.0
1070
   272
1070
     1
1070
   279
1070
     1
1070
   341
1005
0
1002
}
  0
LEADER
  5
23D18
330
747D
100
AcDbEntity
  8
寸法
 48
50.0
100
AcDbLeader
  3
INABA_S50G
 71
     0
 73
     0
 75
     1
 40
130.1136363636363
 41
651.1363636363636
 76
     3
 10
6631.021293995971
 20
1986.186184708791
 30
0.0
 10
6518.596713831955
 20
2126.656950165379
 30
0.0
 10
6393.596713831954
 20
2126.656950165379
 30
0.0
1001
ACAD
1000
DSTYLE
1002
{
1070
    40
1040
1.0
1070
   272
1070
     1
1070
   279
1070
     1
1070
   341
1005
0
1002
}
  0
MTEXT
  5
23D19
102
{ACAD_REACTORS
330
23D18
102
}
330
747D
100
AcDbEntity
  8
寸法
 62
     7
 48
50.0
100
AcDbMText
 10
6330.922814512698
 20
2198.702404710834
 30
0.0
 40
80.0
 41
0.8
 71
     6
 72
     1
  1
\A1;金コテ押エ
  7
STYLE2
 73
     1
 44
1.0
1001
ACAD
1000
MTEXTBEGIN
1070
    73
1070
     1
1070
    44
1040
1.0
1070
    74
1070
     0
1000
MTEXTEND
  0
DIMENSION
  5
23D1A
330
747D
100
AcDbEntity
  8
寸法
 48
50.0
100
AcDbDimension
  2
*D56
 10
5815.98405543423
 20
1202.186184708791
 30
0.0
 11
5815.984055434231
 21
1573.726334364792
 31
0.0
 70
   160
  1
540
 71
     5
 42
784.0
  3
INABA_S40G
100
AcDbAlignedDimension
 13
6551.021293995971
 23
1986.186184708791
 33
0.0
 14
6343.021293995975
 24
1202.186184708791
 34
0.0
 50
90.0
100
AcDbRotatedDimension
1001
ACAD
1000
DSTYLE
1002
{
1070
   174
1070
     0
1070
   272
1070
     1
1070
   279
1070
     1
1070
   288
1070
     0
1070
   341
1005
0
1002
}
  0
MTEXT
  5
23D1B
102
{ACAD_REACTORS
330
23D15
102
}
330
747D
100
AcDbEntity
  8
寸法
 62
     7
 48
50.0
100
AcDbMText
 10
6280.208995358211
 20
938.3473385509114
 30
0.0
 40
80.0
 41
0.8
 71
     6
 72
     1
  1
D13
  7
STYLE2
 73
     1
 44
1.0
1001
ACAD
1000
MTEXTBEGIN
1070
    73
1070
     1
1070
    44
1040
1.0
1070
    74
1070
     0
1000
MTEXTEND
  0
MTEXT
  5
23D1C
102
{ACAD_REACTORS
330
23D14
102
}
330
747D
100
AcDbEntity
  8
寸法
 62
     7
 48
50.0
100
AcDbMText
 10
6252.086267800777
 20
1118.663491090355
 30
0.0
 40
80.0
 41
0.8
 71
     6
 72
     1
  1
D10
  7
STYLE2
 73
     1
 44
1.0
1001
ACAD
1000
MTEXTBEGIN
1070
    73
1070
     1
1070
    44
1040
1.0
1070
    74
1070
     0
1000
MTEXTEND
  0
DIMENSION
  5
23D1D
330
747D
100
AcDbEntity
  8
寸法
 48
50.0
100
AcDbDimension
  2
*D57
 10
6871.021293995972
 20
663.7565467036311
 30
0.0
 11
6626.924535317748
 21
663.7565467036311
 31
0.0
 70
   160
  1
300
 71
     5
 42
448.0
  3
INABA_S40G
100
AcDbAlignedDimension
 13
6423.021293995971
 23
1074.186184708791
 33
0.0
 14
6871.021293995972
 24
1074.186184708791
 34
0.0
100
AcDbRotatedDimension
1001
ACAD
1000
DSTYLE
1002
{
1070
   174
1070
     0
1070
   272
1070
     1
1070
   279
1070
     1
1070
   288
1070
     0
1070
   341
1005
0
1002
}
  0
MTEXT
  5
23D1E
102
{ACAD_REACTORS
330
23D1F
102
}
330
747D
100
AcDbEntity
  8
寸法
 62
     7
 48
50.0
100
AcDbMText
 10
8184.036534828226
 20
2507.987577606943
 30
0.0
 40
80.0
 41
0.8
 71
     6
 72
     1
  1
アンカープレート Ｕ
  7
STYLE2
 73
     1
 44
1.0
1001
ACAD
1000
MTEXTBEGIN
1070
    73
1070
     1
1070
    44
1040
1.0
1070
    74
1070
     0
1000
MTEXTEND
  0
LEADER
  5
23D1F
330
747D
100
AcDbEntity
  8
寸法
 48
50.0
100
AcDbLeader
  3
INABA_S50G
 73
     0
 75
     1
 40
106.3636363636363
 41
920.0
 76
     3
 10
8382.460607173165
 20
2055.746184708793
 30
0.0
 10
8334.036534828227
 20
2429.805759425125
 30
0.0
 10
8209.036534828227
 20
2429.805759425125
 30
0.0
340
23D1E
1001
ACAD
1000
DSTYLE
1002
{
1070
   341
1005
0
1070
    40
1040
1.0
1070
   343
1005
0
1070
   344
1005
0
1002
}
  0
LINE
  5
23D20
330
747D
100
AcDbEntity
  8
細線
 48
50.0
100
AcDbLine
 10
6671.021293995972
 20
1824.559077376622
 30
0.0
 11
6743.021293995972
 21
1896.559077376621
 31
0.0
  0
ARC
  5
23D21
330
747D
100
AcDbEntity
  8
部品1
 48
50.0
100
AcDbCircle
 10
6647.021293995972
 20
1846.440614103036
 30
0.0
 40
24.0
100
AcDbArc
 50
0.0
 51
180.0
  0
CIRCLE
  5
23D22
330
747D
100
AcDbEntity
  8
部品1
 48
50.0
100
AcDbCircle
 10
6647.021293995972
 20
1846.440614103036
 30
0.0
 40
8.0
  0
LINE
  5
23D23
330
747D
100
AcDbEntity
  8
部品1
 48
50.0
100
AcDbLine
 10
6551.021293995971
 20
1442.186184708791
 30
0.0
 11
6551.021293995971
 21
1986.186184708791
 31
0.0
  0
LINE
  5
23D24
330
747D
100
AcDbEntity
  8
部品1
 48
50.0
100
AcDbLine
 10
6743.021293995972
 20
1986.186184708791
 30
0.0
 11
6743.021293995972
 21
1442.186184708791
 31
0.0
  0
MTEXT
  5
23D25
102
{ACAD_REACTORS
330
23D2A
102
}
330
747D
100
AcDbEntity
  8
寸法
 62
     7
 48
50.0
100
AcDbMText
 10
6825.907231023366
 20
1847.453746007719
 30
0.0
 40
80.0
 41
0.8
 71
     4
 72
     1
  1
D13
  7
STYLE2
 73
     1
 44
1.0
1001
ACAD
1000
MTEXTBEGIN
1070
    73
1070
     1
1070
    44
1040
1.0
1070
    74
1070
     0
1000
MTEXTEND
  0
LEADER
  5
23D26
330
747D
100
AcDbEntity
  8
寸法
 48
50.0
100
AcDbLeader
  3
INABA_S50G
 71
     0
 73
     0
 74
     0
 75
     1
 40
100.0
 41
225.0
 76
     3
 10
6774.924246348113
 20
1322.186184708791
 30
0.0
 10
6829.348953802656
 20
1226.789115765819
 30
0.0
 10
6954.348953802656
 20
1226.789115765819
 30
0.0
1001
ACAD
1000
DSTYLE
1002
{
1070
    40
1040
1.0
1070
   272
1070
     1
1070
   279
1070
     1
1070
   341
1005
0
1002
}
  0
LEADER
  5
23D27
330
747D
100
AcDbEntity
  8
寸法
 48
50.0
100
AcDbLeader
  3
INABA_S50G
 71
     0
 73
     0
 74
     0
 75
     1
 40
100.0
 41
540.3409090909091
 76
     3
 10
6720.966463009145
 20
1305.445654295265
 30
0.0
 10
6839.759749857222
 20
963.8148363003683
 30
0.0
 10
6964.759749857222
 20
963.8148363003683
 30
0.0
213
0.0
223
-1.022262676269383
233
0.0
1001
ACAD
1000
DSTYLE
1002
{
1070
    40
1040
1.0
1070
   272
1070
     1
1070
   279
1070
     1
1070
   341
1005
0
1002
}
  0
MTEXT
  5
23D28
102
{ACAD_REACTORS
330
23D26
102
}
330
747D
100
AcDbEntity
  8
寸法
 62
     7
 48
50.0
100
AcDbMText
 10
6974.348953802657
 20
1286.789115765819
 30
0.0
 40
80.0
 41
0.8
 71
     4
 72
     1
  1
D10
  7
STYLE2
 73
     1
 44
1.0
1001
ACAD
1000
MTEXTBEGIN
1070
    73
1070
     1
1070
    44
1040
1.0
1070
    74
1070
     0
1000
MTEXTEND
  0
LWPOLYLINE
  5
23D29
330
747D
100
AcDbEntity
  8
部品1
 48
50.0
100
AcDbPolyline
 90
        2
 70
     0
 43
8.0
 10
6743.021293995972
 20
1746.186184708792
 10
7157.161195828928
 20
1746.186184708792
  0
LEADER
  5
23D2A
330
747D
100
AcDbEntity
  8
寸法
 48
50.0
100
AcDbLeader
  3
INABA_S50G
 71
     0
 73
     0
 74
     0
 75
     1
 40
100.0
 41
222.7272727272727
 76
     3
 10
6647.021293995971
 20
1846.440614103036
 30
0.0
 10
6680.907231023366
 20
1787.453746007719
 30
0.0
 10
6805.907231023366
 20
1787.453746007719
 30
0.0
1001
ACAD
1000
DSTYLE
1002
{
1070
    40
1040
1.0
1070
   272
1070
     1
1070
   279
1070
     1
1070
   341
1005
0
1002
}
  0
LINE
  5
23D2B
330
747D
100
AcDbEntity
  8
細線
 48
50.0
100
AcDbLine
 10
6423.021293995964
 20
1361.032930470962
 30
0.0
 11
6504.1745482338
 21
1442.186184708791
 31
0.0
  0
LINE
  5
23D2C
330
747D
100
AcDbEntity
  8
細線
 48
50.0
100
AcDbLine
 10
6630.887141473376
 20
1380.313399405914
 30
0.0
 11
6655.021293995978
 21
1404.447551928512
 31
0.0
  0
LINE
  5
23D2D
330
747D
100
AcDbEntity
  8
細線
 48
50.0
100
AcDbLine
 10
6537.819158413045
 20
1314.186184708791
 30
0.0
 11
6655.021293995972
 21
1431.388320291716
 31
0.0
  0
LINE
  5
23D2E
330
747D
100
AcDbEntity
  8
部品1
 48
50.0
100
AcDbLine
 10
6423.021293995972
 20
1202.186184708791
 30
0.0
 11
6423.021293995972
 21
1442.186184708791
 31
0.0
  0
LINE
  5
23D2F
330
747D
100
AcDbEntity
  8
細線
 48
50.0
100
AcDbLine
 10
6780.286073681915
 20
1314.186184708791
 30
0.0
 11
6871.021293995972
 21
1404.92140502285
 31
0.0
  0
LINE
  5
23D30
330
747D
100
AcDbEntity
  8
細線
 48
50.0
100
AcDbLine
 10
6753.3453053187
 20
1314.186184708791
 30
0.0
 11
6871.021293995972
 21
1431.862173386057
 31
0.0
  0
LINE
  5
23D31
330
747D
100
AcDbEntity
  8
部品1
 48
50.0
100
AcDbLine
 10
6871.021293995972
 20
1442.186184708791
 30
0.0
 11
6871.021293995972
 21
1202.186184708791
 31
0.0
  0
LINE
  5
23D32
330
747D
100
AcDbEntity
  8
部品1
 48
50.0
100
AcDbLine
 10
6671.021293995977
 20
1322.186184708791
 30
0.0
 11
6671.021293995972
 21
1846.440614103036
 31
0.0
  0
LINE
  5
23D33
330
747D
100
AcDbEntity
  8
部品1
 48
50.0
100
AcDbLine
 10
6655.021293995978
 20
1322.186184708791
 30
0.0
 11
6655.021293995964
 21
1846.440614103036
 31
0.0
  0
LINE
  5
23D34
330
747D
100
AcDbEntity
  8
細線
 48
50.0
100
AcDbLine
 10
6639.021293995972
 20
1361.506783565302
 30
0.0
 11
6655.021293995978
 21
1377.506783565302
 31
0.0
  0
LINE
  5
23D35
330
747D
100
AcDbEntity
  8
細線
 48
50.0
100
AcDbLine
 10
6628.204133491985
 20
1074.186184708791
 30
0.0
 11
6662.50163012317
 21
1202.186184708791
 31
0.0
  0
LINE
  5
23D36
330
747D
100
AcDbEntity
  8
部品1
 48
50.0
100
AcDbLine
 10
6951.021293995975
 20
1074.186184708791
 30
0.0
 11
6343.021293995974
 21
1074.186184708791
 31
0.0
  0
LINE
  5
23D37
330
747D
100
AcDbEntity
  8
部品1
 48
50.0
100
AcDbLine
 10
6479.021293995971
 20
1298.186184708791
 30
0.0
 11
6815.021293995972
 21
1298.186184708791
 31
0.0
  0
LINE
  5
23D38
330
747D
100
AcDbEntity
  8
部品1
 48
50.0
100
AcDbLine
 10
6479.021293995971
 20
1314.186184708791
 30
0.0
 11
6815.021293995972
 21
1314.186184708791
 31
0.0
  0
LINE
  5
23D39
330
747D
100
AcDbEntity
  8
部品1
 48
50.0
100
AcDbLine
 10
6951.021293995975
 20
1202.186184708791
 30
0.0
 11
6343.021293995974
 21
1202.186184708791
 31
0.0
  0
CIRCLE
  5
23D3A
330
747D
100
AcDbEntity
  8
部品1
 48
50.0
100
AcDbCircle
 10
6647.021293995972
 20
1322.186184708791
 30
0.0
 40
8.0
  0
LINE
  5
23D3B
330
747D
100
AcDbEntity
  8
細線
 48
50.0
100
AcDbLine
 10
6641.345305318705
 20
1202.186184708791
 30
0.0
 11
6737.345305318704
 21
1298.186184708791
 31
0.0
  0
LINE
  5
23D3C
330
747D
100
AcDbEntity
  8
細線
 48
50.0
100
AcDbLine
 10
6470.428043597488
 20
1074.186184708791
 30
0.0
 11
6504.725540228671
 21
1202.186184708791
 31
0.0
  0
LINE
  5
23D3D
330
747D
100
AcDbEntity
  8
細線
 48
50.0
100
AcDbLine
 10
6549.316088544734
 20
1074.186184708789
 30
0.0
 11
6583.613585175917
 21
1202.186184708789
 31
0.0
  0
LINE
  5
23D3E
330
747D
100
AcDbEntity
  8
細線
 48
50.0
100
AcDbLine
 10
6391.53999865023
 20
1074.186184708789
 30
0.0
 11
6425.837495281413
 21
1202.186184708789
 31
0.0
  0
LINE
  5
23D3F
330
747D
100
AcDbEntity
  8
部品1
 48
50.0
100
AcDbLine
 10
6343.021293995974
 20
1074.186184708791
 30
0.0
 11
6343.021293995974
 21
1202.186184708791
 31
0.0
  0
LINE
  5
23D40
330
747D
100
AcDbEntity
  8
細線
 48
50.0
100
AcDbLine
 10
6476.858824215835
 20
1098.186184708791
 30
0.0
 11
6483.289604834182
 21
1074.186184708791
 31
0.0
  0
LINE
  5
23D41
330
747D
100
AcDbEntity
  8
細線
 48
50.0
100
AcDbLine
 10
6397.970779268582
 20
1098.186184708791
 30
0.0
 11
6404.401559886929
 21
1074.186184708791
 31
0.0
  0
LINE
  5
23D42
330
747D
100
AcDbEntity
  8
細線
 48
50.0
100
AcDbLine
 10
6634.634914110339
 20
1098.186184708791
 30
0.0
 11
6641.065694728685
 21
1074.186184708791
 31
0.0
  0
LINE
  5
23D43
330
747D
100
AcDbEntity
  8
細線
 48
50.0
100
AcDbLine
 10
6555.746869163087
 20
1098.186184708791
 30
0.0
 11
6562.177649781432
 21
1074.186184708791
 31
0.0
  0
LINE
  5
23D44
330
747D
100
AcDbEntity
  8
細線
 48
50.0
100
AcDbLine
 10
6452.759926776256
 20
1202.186184708791
 30
0.0
 11
6548.759926776255
 21
1298.186184708791
 31
0.0
  0
LINE
  5
23D45
330
747D
100
AcDbEntity
  8
細線
 48
50.0
100
AcDbLine
 10
6425.819158413045
 20
1202.186184708791
 30
0.0
 11
6521.819158413045
 21
1298.186184708791
 31
0.0
  0
LINE
  5
23D46
330
747D
100
AcDbEntity
  8
部品1
 48
50.0
100
AcDbLine
 10
6479.021293995971
 20
1314.186184708791
 30
0.0
 11
6479.021293995971
 21
1298.186184708791
 31
0.0
  0
LINE
  5
23D47
330
747D
100
AcDbEntity
  8
細線
 48
50.0
100
AcDbLine
 10
6419.406714663073
 20
1178.186184708791
 30
0.0
 11
6412.975934044725
 21
1202.186184708791
 31
0.0
  0
LINE
  5
23D48
330
747D
100
AcDbEntity
  8
細線
 48
50.0
100
AcDbLine
 10
6343.021293995972
 20
1187.526105674571
 30
0.0
 11
6346.949450334168
 21
1202.186184708791
 31
0.0
  0
LINE
  5
23D49
330
747D
100
AcDbEntity
  8
部品1
 48
50.0
100
AcDbLine
 10
6639.021293995972
 20
1380.313399405914
 30
0.0
 11
6623.021293995972
 21
1380.313399405914
 31
0.0
  0
CIRCLE
  5
23D4A
330
747D
100
AcDbEntity
  8
部品1
 48
50.0
100
AcDbCircle
 10
6519.021293995972
 20
1322.186184708791
 30
0.0
 40
8.0
  0
LINE
  5
23D4B
330
747D
100
AcDbEntity
  8
細線
 48
50.0
100
AcDbLine
 10
6591.700695139461
 20
1314.186184708791
 30
0.0
 11
6623.021293995972
 21
1345.506783565302
 31
0.0
  0
ARC
  5
23D4C
330
747D
100
AcDbEntity
  8
部品1
 48
50.0
100
AcDbCircle
 10
6647.021293995972
 20
1322.186184708791
 30
0.0
 40
24.0
100
AcDbArc
 50
180.0
 51
199.4712206345112
  0
LINE
  5
23D4D
330
747D
100
AcDbEntity
  8
細線
 48
50.0
100
AcDbLine
 10
6498.294759610323
 20
1178.186184708791
 30
0.0
 11
6491.863978991976
 21
1202.186184708791
 31
0.0
  0
LINE
  5
23D4E
330
747D
100
AcDbEntity
  8
細線
 48
50.0
100
AcDbLine
 10
6577.182804557576
 20
1178.186184708791
 30
0.0
 11
6570.752023939229
 21
1202.186184708791
 31
0.0
  0
LINE
  5
23D4F
330
747D
100
AcDbEntity
  8
細線
 48
50.0
100
AcDbLine
 10
6479.70069513946
 20
1202.186184708791
 30
0.0
 11
6575.70069513946
 21
1298.186184708791
 31
0.0
  0
LINE
  5
23D50
330
747D
100
AcDbEntity
  8
部品1
 48
50.0
100
AcDbLine
 10
6623.021293995972
 20
1380.313399405914
 30
0.0
 11
6623.021293995972
 21
1322.186184708791
 31
0.0
  0
LINE
  5
23D51
330
747D
100
AcDbEntity
  8
細線
 48
50.0
100
AcDbLine
 10
6564.759926776256
 20
1314.186184708791
 30
0.0
 11
6623.021293995972
 21
1372.447551928509
 31
0.0
  0
LINE
  5
23D52
330
747D
100
AcDbEntity
  8
部品1
 48
50.0
100
AcDbLine
 10
6639.021293995972
 20
1380.313399405914
 30
0.0
 11
6639.021293995972
 21
1322.186184708791
 31
0.0
  0
LINE
  5
23D53
330
747D
100
AcDbEntity
  8
部品1
 48
50.0
100
AcDbLine
 10
6951.021293995975
 20
1202.186184708791
 30
0.0
 11
6951.021293995975
 21
1074.186184708791
 31
0.0
  0
LINE
  5
23D54
330
747D
100
AcDbEntity
  8
細線
 48
50.0
100
AcDbLine
 10
6864.868268333726
 20
1074.186184708791
 30
0.0
 11
6899.165764964911
 21
1202.186184708789
 31
0.0
  0
LINE
  5
23D55
330
747D
100
AcDbEntity
  8
細線
 48
50.0
100
AcDbLine
 10
6707.092178439231
 20
1074.186184708791
 30
0.0
 11
6741.389675070418
 21
1202.186184708789
 31
0.0
  0
LINE
  5
23D56
330
747D
100
AcDbEntity
  8
細線
 48
50.0
100
AcDbLine
 10
6785.98022338648
 20
1074.186184708789
 30
0.0
 11
6820.277720017665
 21
1202.186184708789
 31
0.0
  0
LINE
  5
23D57
330
747D
100
AcDbEntity
  8
細線
 48
50.0
100
AcDbLine
 10
6792.41100400483
 20
1098.186184708791
 30
0.0
 11
6798.841784623178
 21
1074.186184708791
 31
0.0
  0
LINE
  5
23D58
330
747D
100
AcDbEntity
  8
細線
 48
50.0
100
AcDbLine
 10
6713.522959057584
 20
1098.186184708791
 30
0.0
 11
6719.953739675931
 21
1074.186184708791
 31
0.0
  0
LINE
  5
23D59
330
747D
100
AcDbEntity
  8
細線
 48
50.0
100
AcDbLine
 10
6871.299048952078
 20
1098.186184708791
 30
0.0
 11
6877.729829570426
 21
1074.186184708791
 31
0.0
  0
LINE
  5
23D5A
330
747D
100
AcDbEntity
  8
細線
 48
50.0
100
AcDbLine
 10
6950.187093899325
 20
1098.186184708791
 30
0.0
 11
6951.021293995971
 21
1095.072907564426
 31
0.0
  0
LINE
  5
23D5B
330
747D
100
AcDbEntity
  8
細線
 48
50.0
100
AcDbLine
 10
6943.756313280974
 20
1074.186184708789
 30
0.0
 11
6951.021293995971
 21
1101.299461853179
 31
0.0
  0
LINE
  5
23D5C
330
747D
100
AcDbEntity
  8
細線
 48
50.0
100
AcDbLine
 10
6807.226842045119
 20
1314.186184708791
 30
0.0
 11
6871.021293995972
 21
1377.980636659642
 31
0.0
  0
CIRCLE
  5
23D5D
330
747D
100
AcDbEntity
  8
部品1
 48
50.0
100
AcDbCircle
 10
6775.021293995973
 20
1322.186184708791
 30
0.0
 40
8.0
  0
ARC
  5
23D5E
330
747D
100
AcDbEntity
  8
部品1
 48
50.0
100
AcDbCircle
 10
6647.021293995972
 20
1322.186184708791
 30
0.0
 40
24.0
100
AcDbArc
 50
340.5287793654888
 51
0.0
  0
LINE
  5
23D5F
330
747D
100
AcDbEntity
  8
細線
 48
50.0
100
AcDbLine
 10
6656.070849504828
 20
1178.186184708791
 30
0.0
 11
6649.640068886481
 21
1202.186184708791
 31
0.0
  0
LINE
  5
23D60
330
747D
100
AcDbEntity
  8
細線
 48
50.0
100
AcDbLine
 10
6734.958894452073
 20
1178.186184708791
 30
0.0
 11
6728.528113833728
 21
1202.186184708791
 31
0.0
  0
LINE
  5
23D61
330
747D
100
AcDbEntity
  8
細線
 48
50.0
100
AcDbLine
 10
6668.286073681915
 20
1202.186184708791
 30
0.0
 11
6764.286073681915
 21
1298.186184708791
 31
0.0
  0
LINE
  5
23D62
330
747D
100
AcDbEntity
  8
細線
 48
50.0
100
AcDbLine
 10
6695.226842045119
 20
1202.186184708791
 30
0.0
 11
6791.227729890256
 21
1298.18707255393
 31
0.0
  0
LINE
  5
23D63
330
747D
100
AcDbEntity
  8
部品1
 48
50.0
100
AcDbLine
 10
6815.021293995972
 20
1314.186184708791
 30
0.0
 11
6815.021293995972
 21
1298.186184708791
 31
0.0
  0
LINE
  5
23D64
330
747D
100
AcDbEntity
  8
細線
 48
50.0
100
AcDbLine
 10
6892.734984346566
 20
1178.186184708791
 30
0.0
 11
6886.304203728219
 21
1202.186184708791
 31
0.0
  0
LINE
  5
23D65
330
747D
100
AcDbEntity
  8
細線
 48
50.0
100
AcDbLine
 10
6856.871452224365
 20
1202.186184708791
 30
0.0
 11
6871.021293995972
 21
1216.336026480398
 31
0.0
  0
LINE
  5
23D66
330
747D
100
AcDbEntity
  8
細線
 48
50.0
100
AcDbLine
 10
6813.846939399319
 20
1178.186184708791
 30
0.0
 11
6807.416158780973
 21
1202.186184708791
 31
0.0
  0
LINE
  5
23D67
330
747D
100
AcDbEntity
  8
細線
 48
50.0
100
AcDbLine
 10
6551.021293995971
 20
1515.973698834169
 30
0.0
 11
6655.021293995978
 21
1619.973698834172
 31
0.0
  0
LINE
  5
23D68
330
747D
100
AcDbEntity
  8
細線
 48
50.0
100
AcDbLine
 10
6551.021293995971
 20
1542.914467197377
 30
0.0
 11
6655.021293995972
 21
1646.914467197377
 31
0.0
  0
LINE
  5
23D69
330
747D
100
AcDbEntity
  8
細線
 48
50.0
100
AcDbLine
 10
6551.021293995971
 20
1489.032930470962
 30
0.0
 11
6655.021293995978
 21
1593.032930470962
 31
0.0
  0
LINE
  5
23D6A
330
747D
100
AcDbEntity
  8
細線
 48
50.0
100
AcDbLine
 10
6639.021293995972
 20
1792.559077376622
 30
0.0
 11
6655.021293995972
 21
1808.559077376622
 31
0.0
  0
LINE
  5
23D6B
330
747D
100
AcDbEntity
  8
細線
 48
50.0
100
AcDbLine
 10
6639.021293995972
 20
1819.499845739828
 30
0.0
 11
6655.021293995972
 21
1835.499845739829
 31
0.0
  0
LINE
  5
23D6C
330
747D
100
AcDbEntity
  8
部品1
 48
50.0
100
AcDbLine
 10
6423.021293995972
 20
1442.186184708791
 30
0.0
 11
6551.021293995971
 21
1442.186184708791
 31
0.0
  0
LINE
  5
23D6D
330
747D
100
AcDbEntity
  8
細線
 48
50.0
100
AcDbLine
 10
6423.021293995964
 20
1387.973698834166
 30
0.0
 11
6477.233779870596
 21
1442.186184708791
 31
0.0
  0
LINE
  5
23D6E
330
747D
100
AcDbEntity
  8
細線
 48
50.0
100
AcDbLine
 10
6423.021293995964
 20
1414.914467197377
 30
0.0
 11
6450.293011507387
 21
1442.186184708791
 31
0.0
  0
LINE
  5
23D6F
330
747D
100
AcDbEntity
  8
部品1
 48
50.0
100
AcDbLine
 10
6639.021293995972
 20
1788.313399405913
 30
0.0
 11
6623.021293995972
 21
1788.313399405917
 31
0.0
  0
LINE
  5
23D70
330
747D
100
AcDbEntity
  8
細線
 48
50.0
100
AcDbLine
 10
6551.021293995971
 20
1704.559077376622
 30
0.0
 11
6634.775616025265
 21
1788.313399405913
 31
0.0
  0
LINE
  5
23D71
330
747D
100
AcDbEntity
  8
細線
 48
50.0
100
AcDbLine
 10
6551.021293995971
 20
1731.499845739829
 30
0.0
 11
6623.021293995972
 21
1803.499845739828
 31
0.0
  0
LINE
  5
23D72
330
747D
100
AcDbEntity
  8
部品1
 48
50.0
100
AcDbLine
 10
6623.021293995972
 20
1788.313399405917
 30
0.0
 11
6623.021293995972
 21
1846.440614103036
 31
0.0
  0
LINE
  5
23D73
330
747D
100
AcDbEntity
  8
細線
 48
50.0
100
AcDbLine
 10
6551.021293995971
 20
1758.440614103037
 30
0.0
 11
6623.021293995972
 21
1830.440614103036
 31
0.0
  0
LINE
  5
23D74
330
747D
100
AcDbEntity
  8
部品1
 48
50.0
100
AcDbLine
 10
6639.021293995972
 20
1788.313399405913
 30
0.0
 11
6639.021293995972
 21
1846.440614103036
 31
0.0
  0
LINE
  5
23D75
330
747D
100
AcDbEntity
  8
細線
 48
50.0
100
AcDbLine
 10
6671.021293995977
 20
1609.032930470962
 30
0.0
 11
6743.021293995965
 21
1681.032930470962
 31
0.0
  0
LINE
  5
23D76
330
747D
100
AcDbEntity
  8
部品1
 48
50.0
100
AcDbLine
 10
6743.021293995972
 20
1442.186184708791
 30
0.0
 11
6871.021293995972
 21
1442.186184708791
 31
0.0
  0
LINE
  5
23D77
330
747D
100
AcDbEntity
  8
細線
 48
50.0
100
AcDbLine
 10
6671.021293995977
 20
1420.447551928512
 30
0.0
 11
6743.021293995965
 21
1492.447551928507
 31
0.0
  0
LINE
  5
23D78
330
747D
100
AcDbEntity
  8
細線
 48
50.0
100
AcDbLine
 10
6671.021293995977
 20
1447.38832029172
 30
0.0
 11
6743.021293995965
 21
1519.388320291717
 31
0.0
  0
LINE
  5
23D79
330
747D
100
AcDbEntity
  8
細線
 48
50.0
100
AcDbLine
 10
6671.021293995977
 20
1393.506783565302
 30
0.0
 11
6743.021293995965
 21
1465.506783565303
 31
0.0
  0
LINE
  5
23D7A
330
747D
100
AcDbEntity
  8
細線
 48
50.0
100
AcDbLine
 10
6671.021293995972
 20
1662.914467197377
 30
0.0
 11
6743.021293995972
 21
1734.914467197377
 31
0.0
  0
LINE
  5
23D7B
330
747D
100
AcDbEntity
  8
細線
 48
50.0
100
AcDbLine
 10
6671.021293995977
 20
1635.973698834172
 30
0.0
 11
6743.021293995965
 21
1707.973698834166
 31
0.0
  0
MTEXT
  5
23D7C
102
{ACAD_REACTORS
330
23D27
102
}
330
747D
100
AcDbEntity
  8
寸法
 62
     7
 48
50.0
100
AcDbMText
 10
6984.759749857222
 20
1024.837098976638
 30
0.0
 40
80.0
 41
0.8
 71
     4
 72
     1
  1
\A1;D10@300
  7
STYLE2
 73
     1
 44
1.0
1001
ACAD
1000
MTEXTBEGIN
1070
    73
1070
     1
1070
    44
1040
1.0
1070
    74
1070
     0
1000
MTEXTEND
  0
DIMENSION
  5
23D7D
330
747D
100
AcDbEntity
  8
寸法
 48
50.0
100
AcDbDimension
  2
*D58
 10
6551.021293995971
 20
2306.186184708791
 30
0.0
 11
6658.247624341169
 21
2405.853992625172
 31
0.0
 70
   160
  1
120\P195
 71
     5
 42
192.0
  3
INABA_S40G
100
AcDbAlignedDimension
 13
6743.021293995972
 23
1986.186184708791
 33
0.0
 14
6551.021293995971
 24
1986.186184708791
 34
0.0
100
AcDbRotatedDimension
1001
ACAD
1000
DSTYLE
1002
{
1070
   174
1070
     0
1070
   272
1070
     1
1070
   279
1070
     1
1070
   288
1070
     0
1070
   341
1005
0
1002
}
  0
LINE
  5
23D7E
330
747D
100
AcDbEntity
  8
部品1
 48
50.0
100
AcDbLine
 10
6551.021293995971
 20
1986.186184708791
 30
0.0
 11
6743.021293995972
 21
1986.186184708791
 31
0.0
  0
LINE
  5
23D7F
330
747D
100
AcDbEntity
  8
細線
 48
50.0
100
AcDbLine
 10
6551.021293995971
 20
1947.025992645489
 30
0.0
 11
6590.181486059276
 21
1986.186184708791
 31
0.0
  0
LINE
  5
23D80
330
747D
100
AcDbEntity
  8
細線
 48
50.0
100
AcDbLine
 10
6551.021293995971
 20
1920.085224282281
 30
0.0
 11
6617.122254422482
 21
1986.186184708791
 31
0.0
  0
LINE
  5
23D81
330
747D
100
AcDbEntity
  8
細線
 48
50.0
100
AcDbLine
 10
6551.021293995971
 20
1973.966761008696
 30
0.0
 11
6563.240717696067
 21
1986.186184708791
 31
0.0
  0
LINE
  5
23D82
330
747D
100
AcDbEntity
  8
細線
 48
50.0
100
AcDbLine
 10
6670.574001261958
 20
1851.052553005813
 30
0.0
 11
6743.021293995972
 21
1923.499845739829
 31
0.0
  0
LINE
  5
23D83
330
747D
100
AcDbEntity
  8
細線
 48
50.0
100
AcDbLine
 10
6659.513716498442
 20
1866.933036605507
 30
0.0
 11
6743.021293995972
 21
1950.440614103037
 31
0.0
  0
LINE
  5
23D84
330
747D
100
AcDbEntity
  8
細線
 48
50.0
100
AcDbLine
 10
8535.460607173167
 20
1827.314467197379
 30
0.0
 11
8665.060607173165
 21
1956.914467197378
 31
0.0
  0
LINE
  5
23D85
330
747D
100
AcDbEntity
  8
部品1
100
AcDbLine
 10
8665.060607173165
 20
1442.186184708791
 30
0.0
 11
8665.060607173165
 21
1986.186184708791
 31
0.0
  0
LINE
  5
23D86
330
747D
100
AcDbEntity
  8
部品1
 48
50.0
100
AcDbLine
 10
8251.060607173165
 20
1442.186184708791
 30
0.0
 11
8251.060607173165
 21
1986.186184708791
 31
0.0
  0
LINE
  5
23D87
330
747D
100
AcDbEntity
  8
細線
 48
50.0
100
AcDbLine
 10
8251.060607173165
 20
1758.440614103037
 30
0.0
 11
8409.460607173164
 21
1916.840614103034
 31
0.0
  0
LINE
  5
23D88
330
747D
100
AcDbEntity
  8
細線
 48
50.0
100
AcDbLine
 10
8251.060607173165
 20
1731.499845739829
 30
0.0
 11
8409.460607173164
 21
1889.899845739827
 31
0.0
  0
LINE
  5
23D89
330
747D
100
AcDbEntity
  8
細線
 48
50.0
100
AcDbLine
 10
8251.060607173165
 20
1704.559077376622
 30
0.0
 11
8409.460607173162
 21
1862.959077376614
 31
0.0
  0
TEXT
  5
23D8A
330
747D
100
AcDbEntity
  8
部品1
 48
50.0
100
AcDbText
 10
7836.920705340209
 20
1757.425176992046
 30
0.0
 40
80.0
  1
▽G.L
  7
STYLE2
100
AcDbText
  0
LINE
  5
23D8B
330
747D
100
AcDbEntity
  8
部品1
100
AcDbLine
 10
8481.460607173165
 20
1761.186184708791
 30
0.0
 11
8481.460607173161
 21
2035.346184708792
 31
0.0
  0
LINE
  5
23D8C
330
747D
100
AcDbEntity
  8
部品1
100
AcDbLine
 10
8463.460607173166
 20
1761.186184708791
 30
0.0
 11
8463.460607173161
 21
2035.346184708792
 31
0.0
  0
LINE
  5
23D8D
330
747D
100
AcDbEntity
  8
細線
 48
50.0
100
AcDbLine
 10
8535.460607173167
 20
1773.43293047095
 30
0.0
 11
8665.060607173165
 21
1903.032930470941
 31
0.0
  0
LINE
  5
23D8E
330
747D
100
AcDbEntity
  8
細線
 48
50.0
100
AcDbLine
 10
8535.460607173167
 20
1800.373698834162
 30
0.0
 11
8665.060607173165
 21
1929.973698834159
 31
0.0
  0
LINE
  5
23D8F
330
747D
100
AcDbEntity
  8
部品1
100
AcDbLine
 10
8535.460607173165
 20
1662.186184708791
 30
0.0
 11
8535.460607173165
 21
1986.186184708791
 31
0.0
  0
LINE
  5
23D90
330
747D
100
AcDbEntity
  8
部品1
100
AcDbLine
 10
8409.46060717316
 20
1662.186184708791
 30
0.0
 11
8409.460607173164
 21
1986.186184708791
 31
0.0
  0
LINE
  5
23D91
330
747D
100
AcDbEntity
  8
細線
 48
50.0
100
AcDbLine
 10
8251.060607173165
 20
1515.973698834169
 30
0.0
 11
8409.460607173157
 21
1674.373698834158
 31
0.0
  0
LINE
  5
23D92
330
747D
100
AcDbEntity
  8
細線
 48
50.0
100
AcDbLine
 10
8251.060607173165
 20
1489.032930470962
 30
0.0
 11
8424.213861411001
 21
1662.186184708789
 31
0.0
  0
LINE
  5
23D93
330
747D
100
AcDbEntity
  8
細線
 48
50.0
100
AcDbLine
 10
8251.060607173165
 20
1542.914467197377
 30
0.0
 11
8409.460607173157
 21
1701.314467197372
 31
0.0
  0
LINE
  5
23D94
330
747D
100
AcDbEntity
  8
細線
 48
50.0
100
AcDbLine
 10
8179.740008316654
 20
1202.186184708791
 30
0.0
 11
8665.060607173165
 21
1687.506783565299
 31
0.0
  0
LINE
  5
23D95
330
747D
100
AcDbEntity
  8
細線
 48
50.0
100
AcDbLine
 10
8152.799239953449
 20
1202.186184708791
 30
0.0
 11
8665.060607173167
 21
1714.447551928505
 31
0.0
  0
LINE
  5
23D96
330
747D
100
AcDbEntity
  8
細線
 48
50.0
100
AcDbLine
 10
8125.858471590239
 20
1202.186184708791
 30
0.0
 11
8665.060607173165
 21
1741.388320291717
 31
0.0
  0
LINE
  5
23D97
330
747D
100
AcDbEntity
  8
部品1
 48
50.0
100
AcDbLine
 10
8873.060607173167
 20
1202.186184708791
 30
0.0
 11
8043.060607173167
 21
1202.186184708791
 31
0.0
  0
LINE
  5
23D98
330
747D
100
AcDbEntity
  8
部品1
 48
50.0
100
AcDbLine
 10
8873.060607173167
 20
1074.186184708791
 30
0.0
 11
8043.060607173167
 21
1074.186184708791
 31
0.0
  0
LINE
  5
23D99
330
747D
100
AcDbEntity
  8
細線
 48
50.0
100
AcDbLine
 10
8123.06060717316
 20
1361.032930470962
 30
0.0
 11
8204.213861410993
 21
1442.186184708791
 31
0.0
  0
LINE
  5
23D9A
330
747D
100
AcDbEntity
  8
部品1
 48
50.0
100
AcDbLine
 10
8123.060607173165
 20
1202.186184708791
 30
0.0
 11
8123.060607173165
 21
1442.186184708791
 31
0.0
  0
LINE
  5
23D9B
330
747D
100
AcDbEntity
  8
細線
 48
50.0
100
AcDbLine
 10
8170.467356774684
 20
1074.186184708791
 30
0.0
 11
8204.764853405865
 21
1202.186184708791
 31
0.0
  0
LINE
  5
23D9C
330
747D
100
AcDbEntity
  8
部品1
 48
50.0
100
AcDbLine
 10
8043.060607173167
 20
1074.186184708791
 30
0.0
 11
8043.060607173167
 21
1202.186184708791
 31
0.0
  0
LINE
  5
23D9D
330
747D
100
AcDbEntity
  8
細線
 48
50.0
100
AcDbLine
 10
8091.579311827423
 20
1074.186184708789
 30
0.0
 11
8125.876808458608
 21
1202.186184708789
 31
0.0
  0
LINE
  5
23D9E
330
747D
100
AcDbEntity
  8
細線
 48
50.0
100
AcDbLine
 10
8249.355401721928
 20
1074.186184708789
 30
0.0
 11
8283.652898353109
 21
1202.186184708789
 31
0.0
  0
LINE
  5
23D9F
330
747D
100
AcDbEntity
  8
細線
 48
50.0
100
AcDbLine
 10
8098.010092445777
 20
1098.186184708791
 30
0.0
 11
8104.440873064122
 21
1074.186184708791
 31
0.0
  0
LINE
  5
23DA0
330
747D
100
AcDbEntity
  8
細線
 48
50.0
100
AcDbLine
 10
8255.786182340282
 20
1098.186184708791
 30
0.0
 11
8262.216962958628
 21
1074.186184708791
 31
0.0
  0
LINE
  5
23DA1
330
747D
100
AcDbEntity
  8
細線
 48
50.0
100
AcDbLine
 10
8176.898137393029
 20
1098.186184708791
 30
0.0
 11
8183.328918011374
 21
1074.186184708791
 31
0.0
  0
LINE
  5
23DA2
330
747D
100
AcDbEntity
  8
細線
 48
50.0
100
AcDbLine
 10
8043.060607173165
 20
1187.526105674571
 30
0.0
 11
8046.988763511361
 21
1202.186184708791
 31
0.0
  0
LINE
  5
23DA3
330
747D
100
AcDbEntity
  8
細線
 48
50.0
100
AcDbLine
 10
8119.446027840266
 20
1178.186184708791
 30
0.0
 11
8113.01524722192
 21
1202.186184708791
 31
0.0
  0
LINE
  5
23DA4
330
747D
100
AcDbEntity
  8
細線
 48
50.0
100
AcDbLine
 10
8277.222117734771
 20
1178.186184708791
 30
0.0
 11
8270.791337116424
 21
1202.186184708791
 31
0.0
  0
LINE
  5
23DA5
330
747D
100
AcDbEntity
  8
細線
 48
50.0
100
AcDbLine
 10
8198.334072787519
 20
1178.186184708791
 30
0.0
 11
8191.903292169172
 21
1202.186184708791
 31
0.0
  0
LWPOLYLINE
  5
23DA6
330
747D
100
AcDbEntity
  8
部品1
 48
50.0
100
AcDbPolyline
 90
        2
 70
     0
 43
8.0
 10
7836.920705340209
 20
1746.186184708792
 10
8251.060607173165
 20
1746.186184708792
  0
LINE
  5
23DA7
330
747D
100
AcDbEntity
  8
細線
 48
50.0
100
AcDbLine
 10
8123.06060717316
 20
1387.973698834166
 30
0.0
 11
8177.273093047791
 21
1442.186184708791
 31
0.0
  0
LINE
  5
23DA8
330
747D
100
AcDbEntity
  8
部品1
 48
50.0
100
AcDbLine
 10
8123.060607173165
 20
1442.186184708791
 30
0.0
 11
8251.060607173165
 21
1442.186184708791
 31
0.0
  0
LINE
  5
23DA9
330
747D
100
AcDbEntity
  8
細線
 48
50.0
100
AcDbLine
 10
8123.06060717316
 20
1414.914467197377
 30
0.0
 11
8150.33232468458
 21
1442.186184708791
 31
0.0
  0
LINE
  5
23DAA
330
747D
100
AcDbEntity
  8
細線
 48
50.0
100
AcDbLine
 10
8368.32538685911
 20
1202.186184708791
 30
0.0
 11
8665.060607173165
 21
1498.921405022844
 31
0.0
  0
LINE
  5
23DAB
330
747D
100
AcDbEntity
  8
細線
 48
50.0
100
AcDbLine
 10
8395.266155222314
 20
1202.186184708791
 30
0.0
 11
8665.060607173165
 21
1471.980636659649
 31
0.0
  0
LINE
  5
23DAC
330
747D
100
AcDbEntity
  8
細線
 48
50.0
100
AcDbLine
 10
8341.384618495899
 20
1202.186184708791
 30
0.0
 11
8665.060607173165
 21
1525.862173386057
 31
0.0
  0
LINE
  5
23DAD
330
747D
100
AcDbEntity
  8
細線
 48
50.0
100
AcDbLine
 10
8556.910765401559
 20
1202.186184708791
 30
0.0
 11
8793.060607173163
 21
1438.336026480399
 31
0.0
  0
LINE
  5
23DAE
330
747D
100
AcDbEntity
  8
細線
 48
50.0
100
AcDbLine
 10
8583.85153376477
 20
1202.186184708791
 30
0.0
 11
8793.060607173163
 21
1411.395258117184
 31
0.0
  0
LINE
  5
23DAF
330
747D
100
AcDbEntity
  8
部品1
 48
50.0
100
AcDbLine
 10
8793.060607173163
 20
1442.186184708791
 30
0.0
 11
8793.060607173163
 21
1202.186184708791
 31
0.0
  0
LINE
  5
23DB0
330
747D
100
AcDbEntity
  8
細線
 48
50.0
100
AcDbLine
 10
8610.792302127974
 20
1202.186184708791
 30
0.0
 11
8793.060607173163
 21
1384.454489753987
 31
0.0
  0
LINE
  5
23DB1
330
747D
100
AcDbEntity
  8
細線
 48
50.0
100
AcDbLine
 10
8486.019536563675
 20
1074.186184708789
 30
0.0
 11
8520.317033194857
 21
1202.186184708789
 31
0.0
  0
LINE
  5
23DB2
330
747D
100
AcDbEntity
  8
細線
 48
50.0
100
AcDbLine
 10
8328.243446669182
 20
1074.186184708791
 30
0.0
 11
8362.540943300363
 21
1202.186184708791
 31
0.0
  0
LINE
  5
23DB3
330
747D
100
AcDbEntity
  8
細線
 48
50.0
100
AcDbLine
 10
8407.131491616427
 20
1074.186184708791
 30
0.0
 11
8441.428988247611
 21
1202.186184708789
 31
0.0
  0
LINE
  5
23DB4
330
747D
100
AcDbEntity
  8
細線
 48
50.0
100
AcDbLine
 10
8564.907581510917
 20
1074.186184708791
 30
0.0
 11
8599.205078142103
 21
1202.186184708789
 31
0.0
  0
LINE
  5
23DB5
330
747D
100
AcDbEntity
  8
細線
 48
50.0
100
AcDbLine
 10
8413.562272234781
 20
1098.186184708791
 30
0.0
 11
8419.993052853126
 21
1074.186184708791
 31
0.0
  0
LINE
  5
23DB6
330
747D
100
AcDbEntity
  8
細線
 48
50.0
100
AcDbLine
 10
8334.674227287534
 20
1098.186184708791
 30
0.0
 11
8341.105007905881
 21
1074.186184708791
 31
0.0
  0
LINE
  5
23DB7
330
747D
100
AcDbEntity
  8
細線
 48
50.0
100
AcDbLine
 10
8571.338362129271
 20
1098.186184708791
 30
0.0
 11
8577.769142747618
 21
1074.186184708791
 31
0.0
  0
LINE
  5
23DB8
330
747D
100
AcDbEntity
  8
細線
 48
50.0
100
AcDbLine
 10
8492.450317182024
 20
1098.186184708791
 30
0.0
 11
8498.881097800371
 21
1074.186184708791
 31
0.0
  0
LINE
  5
23DB9
330
747D
100
AcDbEntity
  8
細線
 48
50.0
100
AcDbLine
 10
8434.998207629268
 20
1178.186184708791
 30
0.0
 11
8428.567427010921
 21
1202.186184708791
 31
0.0
  0
LINE
  5
23DBA
330
747D
100
AcDbEntity
  8
細線
 48
50.0
100
AcDbLine
 10
8356.110162682021
 20
1178.186184708791
 30
0.0
 11
8349.679382063674
 21
1202.186184708791
 31
0.0
  0
LINE
  5
23DBB
330
747D
100
AcDbEntity
  8
細線
 48
50.0
100
AcDbLine
 10
8513.886252576515
 20
1178.186184708791
 30
0.0
 11
8507.455471958168
 21
1202.186184708791
 31
0.0
  0
LINE
  5
23DBC
330
747D
100
AcDbEntity
  8
細線
 48
50.0
100
AcDbLine
 10
8592.774297523758
 20
1178.186184708791
 30
0.0
 11
8586.343516905413
 21
1202.186184708791
 31
0.0
  0
LINE
  5
23DBD
330
747D
100
AcDbEntity
  8
部品1
 48
50.0
100
AcDbLine
 10
8873.060607173167
 20
1202.186184708791
 30
0.0
 11
8873.060607173167
 21
1074.186184708791
 31
0.0
  0
LINE
  5
23DBE
330
747D
100
AcDbEntity
  8
細線
 48
50.0
100
AcDbLine
 10
8801.571716352659
 20
1074.186184708789
 30
0.0
 11
8835.869212983846
 21
1202.186184708788
 31
0.0
  0
LINE
  5
23DBF
330
747D
100
AcDbEntity
  8
細線
 48
50.0
100
AcDbLine
 10
8643.795626458166
 20
1074.186184708789
 30
0.0
 11
8678.09312308934
 21
1202.186184708791
 31
0.0
  0
LINE
  5
23DC0
330
747D
100
AcDbEntity
  8
細線
 48
50.0
100
AcDbLine
 10
8722.683671405416
 20
1074.186184708788
 30
0.0
 11
8756.981168036601
 21
1202.186184708788
 31
0.0
  0
LINE
  5
23DC1
330
747D
100
AcDbEntity
  8
細線
 48
50.0
100
AcDbLine
 10
8650.226407076516
 20
1098.186184708791
 30
0.0
 11
8656.657187694873
 21
1074.186184708791
 31
0.0
  0
LINE
  5
23DC2
330
747D
100
AcDbEntity
  8
細線
 48
50.0
100
AcDbLine
 10
8729.114452023765
 20
1098.186184708789
 30
0.0
 11
8735.545232642111
 21
1074.186184708789
 31
0.0
  0
LINE
  5
23DC3
330
747D
100
AcDbEntity
  8
細線
 48
50.0
100
AcDbLine
 10
8808.002496971012
 20
1098.186184708789
 30
0.0
 11
8814.43327758936
 21
1074.186184708789
 31
0.0
  0
LINE
  5
23DC4
330
747D
100
AcDbEntity
  8
細線
 48
50.0
100
AcDbLine
 10
8671.662342470998
 20
1178.186184708791
 30
0.0
 11
8665.231561852651
 21
1202.186184708791
 31
0.0
  0
LINE
  5
23DC5
330
747D
100
AcDbEntity
  8
細線
 48
50.0
100
AcDbLine
 10
8750.550387418254
 20
1178.186184708789
 30
0.0
 11
8744.119606799909
 21
1202.186184708789
 31
0.0
  0
LINE
  5
23DC6
330
747D
100
AcDbEntity
  8
細線
 48
50.0
100
AcDbLine
 10
8829.438432365499
 20
1178.186184708789
 30
0.0
 11
8823.007651747152
 21
1202.186184708789
 31
0.0
  0
LINE
  5
23DC7
330
747D
100
AcDbEntity
  8
部品1
100
AcDbLine
 10
8535.460607173165
 20
1662.186184708789
 30
0.0
 11
8409.46060717316
 21
1662.186184708789
 31
0.0
  0
LINE
  5
23DC8
330
747D
100
AcDbEntity
  8
部品1
100
AcDbLine
 10
8517.460607173164
 20
1743.186184708791
 30
0.0
 11
8517.460607173164
 21
1761.186184708791
 31
0.0
  0
ARC
  5
23DC9
330
747D
100
AcDbEntity
  8
部品1
100
AcDbCircle
 10
8481.460607173165
 20
1761.186184708791
 30
0.0
 40
18.0
100
AcDbArc
 50
180.0
 51
270.0
  0
LINE
  5
23DCA
330
747D
100
AcDbEntity
  8
部品1
100
AcDbLine
 10
8481.460607173165
 20
1743.186184708791
 30
0.0
 11
8517.460607173164
 21
1743.186184708791
 31
0.0
  0
LINE
  5
23DCB
330
747D
100
AcDbEntity
  8
部品1
100
AcDbLine
 10
8481.460607173165
 20
1761.186184708791
 30
0.0
 11
8517.460607173164
 21
1761.186184708791
 31
0.0
  0
LINE
  5
23DCC
330
747D
100
AcDbEntity
  8
部品1
 48
50.0
100
AcDbLine
 10
8665.060607173165
 20
1442.186184708791
 30
0.0
 11
8793.060607173163
 21
1442.186184708791
 31
0.0
  0
LINE
  5
23DCD
330
747D
100
AcDbEntity
  8
部品1
100
AcDbLine
 10
8270.860607173167
 20
2076.186184708791
 30
0.0
 11
8308.660607173166
 21
2076.186184708791
 31
0.0
  0
LINE
  5
23DCE
330
747D
100
AcDbEntity
  8
細線
 48
50.0
100
AcDbLine
 10
8251.060607173165
 20
1947.025992645489
 30
0.0
 11
8290.22079923647
 21
1986.186184708791
 31
0.0
  0
LINE
  5
23DCF
330
747D
100
AcDbEntity
  8
細線
 48
50.0
100
AcDbLine
 10
8251.060607173165
 20
1920.085224282281
 30
0.0
 11
8317.161567599676
 21
1986.186184708791
 31
0.0
  0
LINE
  5
23DD0
330
747D
100
AcDbEntity
  8
部品1
 48
50.0
100
AcDbLine
 10
8251.060607173165
 20
1986.186184708791
 30
0.0
 11
8665.060607173167
 21
1986.186184708791
 31
0.0
  0
TEXT
  5
23DD1
330
747D
100
AcDbEntity
  8
部品1
 48
50.0
100
AcDbText
 10
7824.614510593675
 20
2316.746705809267
 30
0.0
 40
80.0
  1
※(別売)
  7
STYLE2
100
AcDbText
  0
LINE
  5
23DD2
330
747D
100
AcDbEntity
  8
部品1
100
AcDbLine
 10
8268.160607173166
 20
2065.386184708791
 30
0.0
 11
8268.160607173166
 21
2073.486184708791
 31
0.0
  0
ARC
  5
23DD3
330
747D
100
AcDbEntity
  8
部品1
100
AcDbCircle
 10
8270.860607173167
 20
2073.486184708791
 30
0.0
 40
2.7
100
AcDbArc
 50
90.0
 51
180.0
  0
ARC
  5
23DD4
330
747D
100
AcDbEntity
  8
部品1
100
AcDbCircle
 10
8260.060607173166
 20
2060.578088411499
 30
0.0
 40
2.7
100
AcDbArc
 50
104.0362434679067
 51
180.0
  0
LINE
  5
23DD5
330
747D
100
AcDbEntity
  8
部品1
100
AcDbLine
 10
8259.405760985567
 20
2063.197473161891
 30
0.0
 11
8268.160607173166
 21
2065.386184708791
 31
0.0
  0
ARC
  5
23DD6
330
747D
100
AcDbEntity
  8
部品1
100
AcDbCircle
 10
8260.060607173166
 20
1998.446184708791
 30
0.0
 40
2.7
100
AcDbArc
 50
180.0
 51
270.0
  0
LINE
  5
23DD7
330
747D
100
AcDbEntity
  8
細線
 48
50.0
100
AcDbLine
 10
8251.060607173165
 20
1973.966761008696
 30
0.0
 11
8263.280030873259
 21
1986.186184708791
 31
0.0
  0
LINE
  5
23DD8
330
747D
100
AcDbEntity
  8
部品1
100
AcDbLine
 10
8260.060607173166
 20
1995.746184708792
 30
0.0
 11
8271.760607173161
 21
1995.746184708792
 31
0.0
  0
LINE
  5
23DD9
330
747D
100
AcDbEntity
  8
部品1
100
AcDbLine
 10
8257.360607173167
 20
1998.446184708791
 30
0.0
 11
8257.360607173167
 21
2060.578088411499
 31
0.0
  0
LINE
  5
23DDA
330
747D
100
AcDbEntity
  8
部品1
100
AcDbLine
 10
8416.020607173159
 20
1995.746184708792
 30
0.0
 11
8617.360607173159
 21
1995.746184708792
 31
0.0
  0
LINE
  5
23DDB
330
747D
100
AcDbEntity
  8
部品1
100
AcDbLine
 10
8308.660607173166
 20
2076.186184708791
 30
0.0
 11
8308.660607173166
 21
2084.286184708792
 31
0.0
  0
LINE
  5
23DDC
330
747D
100
AcDbEntity
  8
部品1
100
AcDbLine
 10
8359.060607173166
 20
2095.086184708788
 30
0.0
 11
8359.060607173166
 21
2043.786184708792
 31
0.0
  0
LINE
  5
23DDD
330
747D
100
AcDbEntity
  8
部品1
100
AcDbLine
 10
8382.460607173165
 20
2055.746184708792
 30
0.0
 11
8410.620607173164
 21
2055.746184708792
 31
0.0
  0
ARC
  5
23DDE
330
747D
100
AcDbEntity
  8
部品1
100
AcDbCircle
 10
8382.460607173165
 20
2053.046184708792
 30
0.0
 40
2.7
100
AcDbArc
 50
90.0
 51
180.0
  0
ARC
  5
23DDF
330
747D
100
AcDbEntity
  8
部品1
100
AcDbCircle
 10
8410.620607173164
 20
2053.046184708792
 30
0.0
 40
2.7
100
AcDbArc
 50
0.0
 51
90.0
  0
LINE
  5
23DE0
330
747D
100
AcDbEntity
  8
部品1
100
AcDbLine
 10
8401.360607173167
 20
2041.086184708791
 30
0.0
 11
8401.360607173167
 21
1998.446184708791
 31
0.0
  0
LINE
  5
23DE1
330
747D
100
AcDbEntity
  8
部品1
100
AcDbLine
 10
8386.960607173165
 20
1995.746184708792
 30
0.0
 11
8398.660607173166
 21
1995.746184708792
 31
0.0
  0
ARC
  5
23DE2
330
747D
100
AcDbEntity
  8
部品1
100
AcDbCircle
 10
8416.020607173159
 20
1998.446184708791
 30
0.0
 40
2.7
100
AcDbArc
 50
180.0
 51
270.0
  0
ARC
  5
23DE3
330
747D
100
AcDbEntity
  8
部品1
100
AcDbCircle
 10
8398.660607173166
 20
1998.446184708791
 30
0.0
 40
2.7
100
AcDbArc
 50
270.0
 51
0.0
  0
LINE
  5
23DE4
330
747D
100
AcDbEntity
  8
部品1
100
AcDbLine
 10
8359.060607173166
 20
2043.786184708792
 30
0.0
 11
8398.660607173166
 21
2043.786184708792
 31
0.0
  0
ARC
  5
23DE5
330
747D
100
AcDbEntity
  8
部品1
100
AcDbCircle
 10
8398.660607173166
 20
2041.086184708791
 30
0.0
 40
2.7
100
AcDbArc
 50
0.0
 51
90.0
  0
LINE
  5
23DE6
330
747D
100
AcDbEntity
  8
部品1
100
AcDbLine
 10
8413.320607173167
 20
2053.046184708792
 30
0.0
 11
8413.320607173162
 21
1998.446184708791
 31
0.0
  0
LINE
  5
23DE7
330
747D
100
AcDbEntity
  8
部品1
100
AcDbLine
 10
8379.760607173166
 20
2053.046184708792
 30
0.0
 11
8379.760607173166
 21
2035.946184708791
 31
0.0
  0
LINE
  5
23DE8
330
747D
100
AcDbEntity
  8
細線
100
AcDbLine
 10
8477.860607173168
 20
1995.746184708792
 30
0.0
 11
8477.860607173168
 21
2038.946184708791
 31
0.0
  0
LINE
  5
23DE9
330
747D
100
AcDbEntity
  8
細線
100
AcDbLine
 10
8467.060607173166
 20
1995.746184708792
 30
0.0
 11
8467.060607173165
 21
2038.946184708791
 31
0.0
  0
LINE
  5
23DEA
330
747D
100
AcDbEntity
  8
部品1
100
AcDbLine
 10
8463.460607173166
 20
2035.346184708792
 30
0.0
 11
8481.460607173165
 21
2035.346184708792
 31
0.0
  0
LINE
  5
23DEB
330
747D
100
AcDbEntity
  8
部品1
100
AcDbLine
 10
8467.060607173165
 20
2038.946184708791
 30
0.0
 11
8477.860607173168
 21
2038.946184708791
 31
0.0
  0
ELLIPSE
  5
23DEC
330
747D
100
AcDbEntity
  8
部品1
 48
50.0
100
AcDbEllipse
 10
8472.460607173166
 20
2255.309473153064
 30
0.0
 11
40.0
 21
0.0
 31
0.0
210
0.0
220
0.0
230
1.0
 40
0.4
 41
0.0
 42
6.283185307179586
  0
ELLIPSE
  5
23DED
330
747D
100
AcDbEntity
  8
部品1
 48
50.0
100
AcDbEllipse
 10
8472.460607173166
 20
2245.709473153064
 30
0.0
 11
40.0
 21
0.0
 31
0.0
210
0.0
220
0.0
230
1.0
 40
0.4
 41
3.141592653589793
 42
6.283185307179586
  0
LINE
  5
23DEE
330
747D
100
AcDbEntity
  8
部品1
 48
50.0
100
AcDbLine
 10
8432.460607173165
 20
2255.309473153064
 30
0.0
 11
8432.460607173165
 21
2245.709473153064
 31
0.0
  0
ARC
  5
23DEF
330
747D
100
AcDbEntity
  8
部品1
100
AcDbCircle
 10
8356.360607173167
 20
2095.086184708788
 30
0.0
 40
2.7
100
AcDbArc
 50
0.0
 51
90.0
  0
ARC
  5
23DF0
330
747D
100
AcDbEntity
  8
部品1
100
AcDbCircle
 10
8314.060607173166
 20
2095.086184708791
 30
0.0
 40
2.7
100
AcDbArc
 50
90.0
 51
180.0
  0
LINE
  5
23DF1
330
747D
100
AcDbEntity
  8
部品1
100
AcDbLine
 10
8311.360607173167
 20
2086.986184708791
 30
0.0
 11
8311.360607173167
 21
2086.986184708791
 31
0.0
  0
LINE
  5
23DF2
330
747D
100
AcDbEntity
  8
部品1
100
AcDbLine
 10
8311.360607173167
 20
2086.986184708791
 30
0.0
 11
8311.360607173167
 21
2095.086184708791
 31
0.0
  0
LINE
  5
23DF3
330
747D
100
AcDbEntity
  8
部品1
100
AcDbLine
 10
8314.060607173166
 20
2097.786184708791
 30
0.0
 11
8356.360607173167
 21
2097.786184708788
 31
0.0
  0
ARC
  5
23DF4
330
747D
100
AcDbEntity
  8
部品1
100
AcDbCircle
 10
8311.360607173167
 20
2084.286184708792
 30
0.0
 40
2.7
100
AcDbArc
 50
90.0
 51
180.0
  0
ELLIPSE
  5
23DF5
330
747D
100
AcDbEntity
  8
部品1
 48
50.0
100
AcDbEllipse
 10
8472.460607173166
 20
2255.309473153064
 30
0.0
 11
18.4
 21
0.0
 31
0.0
210
0.0
220
0.0
230
1.0
 40
0.3478260869565217
 41
0.0
 42
6.283185307179586
  0
LINE
  5
23DF6
330
747D
100
AcDbEntity
  8
部品1
 48
50.0
100
AcDbLine
 10
8512.460607173165
 20
2245.709473153064
 30
0.0
 11
8512.460607173165
 21
2255.309473153064
 31
0.0
  0
LINE
  5
23DF7
330
747D
100
AcDbEntity
  8
部品1
 48
50.0
100
AcDbLine
 10
8440.460607173164
 20
2377.061465817934
 30
0.0
 11
8456.460607173164
 21
2369.061465817934
 31
0.0
  0
LINE
  5
23DF8
330
747D
100
AcDbEntity
  8
部品1
 48
50.0
100
AcDbLine
 10
8440.460607173164
 20
2345.061465817934
 30
0.0
 11
8456.460607173164
 21
2337.061465817934
 31
0.0
  0
LINE
  5
23DF9
330
747D
100
AcDbEntity
  8
部品1
 48
50.0
100
AcDbLine
 10
8440.460607173164
 20
2377.061465817934
 30
0.0
 11
8456.460607173164
 21
2385.061465817934
 31
0.0
  0
LINE
  5
23DFA
330
747D
100
AcDbEntity
  8
部品1
 48
50.0
100
AcDbLine
 10
8440.460607173164
 20
2345.061465817934
 30
0.0
 11
8440.460607173164
 21
2377.061465817934
 31
0.0
  0
LINE
  5
23DFB
330
747D
100
AcDbEntity
  8
部品1
 48
50.0
100
AcDbLine
 10
8456.460607173164
 20
2385.061465817934
 30
0.0
 11
8488.460607173164
 21
2385.061465817934
 31
0.0
  0
ELLIPSE
  5
23DFC
330
747D
100
AcDbEntity
  8
細線
 48
50.0
100
AcDbEllipse
 10
8472.460607173166
 20
2377.061465817934
 30
0.0
 11
14.76670786606846
 21
0.0
 31
0.0
210
0.0
220
0.0
230
1.0
 40
0.2071254069489396
 41
0.0
 42
6.283185307179586
  0
LINE
  5
23DFD
330
747D
100
AcDbEntity
  8
部品1
 48
50.0
100
AcDbLine
 10
8456.460607173164
 20
2337.061465817934
 30
0.0
 11
8488.460607173164
 21
2337.061465817934
 31
0.0
  0
LINE
  5
23DFE
330
747D
100
AcDbEntity
  8
部品1
 48
50.0
100
AcDbLine
 10
8488.460607173164
 20
2337.061465817934
 30
0.0
 11
8504.460607173164
 21
2345.061465817934
 31
0.0
  0
LINE
  5
23DFF
330
747D
100
AcDbEntity
  8
部品1
 48
50.0
100
AcDbLine
 10
8456.460607173164
 20
2369.061465817934
 30
0.0
 11
8488.460607173164
 21
2369.061465817934
 31
0.0
  0
LINE
  5
23E00
330
747D
100
AcDbEntity
  8
部品1
 48
50.0
100
AcDbLine
 10
8488.460607173164
 20
2369.061465817934
 30
0.0
 11
8504.460607173164
 21
2377.061465817934
 31
0.0
  0
LINE
  5
23E01
330
747D
100
AcDbEntity
  8
細線
 48
50.0
100
AcDbLine
 10
8488.460607173164
 20
2337.061465817934
 30
0.0
 11
8488.460607173164
 21
2369.061465817934
 31
0.0
  0
LINE
  5
23E02
330
747D
100
AcDbEntity
  8
部品1
 48
50.0
100
AcDbLine
 10
8504.460607173164
 20
2345.061465817934
 30
0.0
 11
8504.460607173164
 21
2377.061465817934
 31
0.0
  0
LINE
  5
23E03
330
747D
100
AcDbEntity
  8
細線
 48
50.0
100
AcDbLine
 10
8456.460607173164
 20
2337.061465817934
 30
0.0
 11
8456.460607173164
 21
2369.061465817934
 31
0.0
  0
LINE
  5
23E04
330
747D
100
AcDbEntity
  8
部品1
 48
50.0
100
AcDbLine
 10
8488.460607173164
 20
2385.061465817934
 30
0.0
 11
8504.460607173164
 21
2377.061465817934
 31
0.0
  0
TEXT
  5
23E05
330
747D
100
AcDbEntity
  8
部品1
100
AcDbText
 10
8173.232856365094
 20
3127.605872534208
 30
0.0
 40
120.0
  1
基礎詳細
  7
STYLE2
100
AcDbText
  0
LINE
  5
23E06
330
747D
100
AcDbEntity
  8
部品1
100
AcDbLine
 10
11551.33804057295
 20
342.850834900989
 30
0.0
 11
11551.33804057296
 21
3307.157804485636
 31
0.0
  0
LINE
  5
23E07
330
747D
100
AcDbEntity
  8
細線
100
AcDbLine
 10
10559.22987315271
 20
1746.186184708791
 30
0.0
 11
10364.59653947592
 21
1940.819518385574
 31
0.0
  0
LINE
  5
23E08
330
747D
100
AcDbEntity
  8
部品1
100
AcDbLine
 10
10364.59653947592
 20
1986.186184708791
 30
0.0
 11
10844.59653947592
 21
1986.186184708791
 31
0.0
  0
LINE
  5
23E09
330
747D
100
AcDbEntity
  8
細線
 48
50.0
100
AcDbLine
 10
10498.66742391918
 20
1526.487269055441
 30
0.0
 11
10532.96492055036
 21
1654.48726905544
 31
0.0
  0
LINE
  5
23E0A
330
747D
100
AcDbEntity
  8
部品1
100
AcDbLine
 10
10244.59653947592
 20
1526.487269055437
 30
0.0
 11
10964.59653947592
 21
1526.487269055441
 31
0.0
  0
LINE
  5
23E0B
330
747D
100
AcDbEntity
  8
部品1
100
AcDbLine
 10
10244.59653947592
 20
1654.487269055441
 30
0.0
 11
10964.59653947592
 21
1654.487269055444
 31
0.0
  0
LINE
  5
23E0C
330
747D
100
AcDbEntity
  8
細線
100
AcDbLine
 10
10425.51518496916
 20
1654.487269055441
 30
0.0
 11
10517.21410062251
 21
1746.186184708791
 31
0.0
  0
LWPOLYLINE
  5
23E0D
330
747D
100
AcDbEntity
  8
部品1
 48
50.0
100
AcDbPolyline
 90
        2
 70
     0
 43
12.0
 10
9979.985277375533
 20
1746.186184708791
 10
11181.07758050716
 20
1746.186184708791
  0
LINE
  5
23E0E
330
747D
100
AcDbEntity
  8
細線
100
AcDbLine
 10
10508.31818490727
 20
1746.186184708791
 30
0.0
 11
10364.59653947592
 21
1889.907830140144
 31
0.0
  0
TEXT
  5
23E0F
330
747D
100
AcDbEntity
  8
部品1
 48
50.0
100
AcDbText
 10
9600.478452717419
 20
1479.386444071482
 30
0.0
 40
80.0
  1
ボルトの出
 50
90.0
  7
STYLE2
100
AcDbText
  0
LINE
  5
23E10
330
747D
100
AcDbEntity
  8
部品1
100
AcDbLine
 10
10364.59653947592
 20
1746.186184708791
 30
0.0
 11
10364.59653947592
 21
1986.186184708791
 31
0.0
  0
LINE
  5
23E11
330
747D
100
AcDbEntity
  8
細線
 48
50.0
100
AcDbLine
 10
10340.89133402468
 20
1526.48726905544
 30
0.0
 11
10375.18883065586
 21
1654.48726905544
 31
0.0
  0
LINE
  5
23E12
330
747D
100
AcDbEntity
  8
細線
 48
50.0
100
AcDbLine
 10
10419.77937897193
 20
1526.487269055441
 30
0.0
 11
10454.07687560311
 21
1654.487269055441
 31
0.0
  0
LINE
  5
23E13
330
747D
100
AcDbEntity
  8
細線
 48
50.0
100
AcDbLine
 10
10262.00328907743
 20
1526.487269055441
 30
0.0
 11
10296.30078570862
 21
1654.487269055441
 31
0.0
  0
LINE
  5
23E14
330
747D
100
AcDbEntity
  8
部品1
100
AcDbLine
 10
10244.59653947592
 20
1526.487269055437
 30
0.0
 11
10244.59653947592
 21
1746.186184708791
 31
0.0
  0
LINE
  5
23E15
330
747D
100
AcDbEntity
  8
細線
 48
50.0
100
AcDbLine
 10
10347.32211464303
 20
1550.487269055441
 30
0.0
 11
10353.75289526138
 21
1526.487269055441
 31
0.0
  0
LINE
  5
23E16
330
747D
100
AcDbEntity
  8
細線
 48
50.0
100
AcDbLine
 10
10268.43406969578
 20
1550.487269055441
 30
0.0
 11
10274.86485031413
 21
1526.487269055441
 31
0.0
  0
LINE
  5
23E17
330
747D
100
AcDbEntity
  8
細線
 48
50.0
100
AcDbLine
 10
10426.21015959028
 20
1550.487269055441
 30
0.0
 11
10432.64094020863
 21
1526.487269055441
 31
0.0
  0
LINE
  5
23E18
330
747D
100
AcDbEntity
  8
細線
 48
50.0
100
AcDbLine
 10
10505.09820453753
 20
1550.487269055441
 30
0.0
 11
10511.52898515588
 21
1526.487269055441
 31
0.0
  0
LINE
  5
23E19
330
747D
100
AcDbEntity
  8
細線
 48
50.0
100
AcDbLine
 10
10289.87000509027
 20
1630.487269055441
 30
0.0
 11
10283.43922447192
 21
1654.487269055441
 31
0.0
  0
LINE
  5
23E1A
330
747D
100
AcDbEntity
  8
細線
 48
50.0
100
AcDbLine
 10
10447.64609498477
 20
1630.487269055441
 30
0.0
 11
10441.21531436643
 21
1654.487269055441
 31
0.0
  0
LINE
  5
23E1B
330
747D
100
AcDbEntity
  8
細線
 48
50.0
100
AcDbLine
 10
10368.75805003752
 20
1630.487269055441
 30
0.0
 11
10362.32726941917
 21
1654.487269055441
 31
0.0
  0
LINE
  5
23E1C
330
747D
100
AcDbEntity
  8
細線
100
AcDbLine
 10
10357.63293397525
 20
1654.487269055441
 30
0.0
 11
10449.3318496286
 21
1746.186184708791
 31
0.0
  0
LINE
  5
23E1D
330
747D
100
AcDbEntity
  8
細線
100
AcDbLine
 10
10391.57405947221
 20
1654.487269055441
 30
0.0
 11
10483.27297512555
 21
1746.186184708791
 31
0.0
  0
LINE
  5
23E1E
330
747D
100
AcDbEntity
  8
細線
100
AcDbLine
 10
10779.84718888291
 20
1746.186184708791
 30
0.0
 11
10539.84718888291
 21
1986.186184708791
 31
0.0
  0
LINE
  5
23E1F
330
747D
100
AcDbEntity
  8
細線
100
AcDbLine
 10
10830.75887712834
 20
1746.186184708793
 30
0.0
 11
10590.75887712834
 21
1986.186184708791
 31
0.0
  0
LINE
  5
23E20
330
747D
100
AcDbEntity
  8
部品1
100
AcDbLine
 10
10844.59653947592
 20
1986.186184708791
 30
0.0
 11
10844.59653947592
 21
1746.186184708791
 31
0.0
  0
LINE
  5
23E21
330
747D
100
AcDbEntity
  8
細線
 48
50.0
100
AcDbLine
 10
10814.21960370817
 20
1526.487269055438
 30
0.0
 11
10848.51710033935
 21
1654.487269055438
 31
0.0
  0
LINE
  5
23E22
330
747D
100
AcDbEntity
  8
細線
100
AcDbLine
 10
10785.51518496916
 20
1654.487269055443
 30
0.0
 11
10877.21410062251
 21
1746.186184708791
 31
0.0
  0
LINE
  5
23E23
330
747D
100
AcDbEntity
  8
細線
 48
50.0
100
AcDbLine
 10
10735.33155876092
 20
1526.48726905544
 30
0.0
 11
10769.62905539209
 21
1654.487269055441
 31
0.0
  0
LINE
  5
23E24
330
747D
100
AcDbEntity
  8
細線
 48
50.0
100
AcDbLine
 10
10577.55546886643
 20
1526.48726905544
 30
0.0
 11
10611.85296549761
 21
1654.48726905544
 31
0.0
  0
LINE
  5
23E25
330
747D
100
AcDbEntity
  8
細線
 48
50.0
100
AcDbLine
 10
10656.44351381367
 20
1526.487269055441
 30
0.0
 11
10690.74101044485
 21
1654.48726905544
 31
0.0
  0
LINE
  5
23E26
330
747D
100
AcDbEntity
  8
細線
 48
50.0
100
AcDbLine
 10
10662.87429443202
 20
1550.487269055441
 30
0.0
 11
10669.30507505037
 21
1526.487269055441
 31
0.0
  0
LINE
  5
23E27
330
747D
100
AcDbEntity
  8
細線
 48
50.0
100
AcDbLine
 10
10583.98624948478
 20
1550.487269055441
 30
0.0
 11
10590.41703010312
 21
1526.487269055441
 31
0.0
  0
LINE
  5
23E28
330
747D
100
AcDbEntity
  8
細線
 48
50.0
100
AcDbLine
 10
10741.76233937927
 20
1550.487269055441
 30
0.0
 11
10748.19311999763
 21
1526.487269055441
 31
0.0
  0
LINE
  5
23E29
330
747D
100
AcDbEntity
  8
細線
 48
50.0
100
AcDbLine
 10
10820.65038432652
 20
1550.48726905544
 30
0.0
 11
10827.08116494486
 21
1526.48726905544
 31
0.0
  0
LINE
  5
23E2A
330
747D
100
AcDbEntity
  8
細線
 48
50.0
100
AcDbLine
 10
10684.31022982651
 20
1630.487269055441
 30
0.0
 11
10677.87944920817
 21
1654.487269055441
 31
0.0
  0
LINE
  5
23E2B
330
747D
100
AcDbEntity
  8
細線
 48
50.0
100
AcDbLine
 10
10605.42218487927
 20
1630.487269055441
 30
0.0
 11
10598.99140426092
 21
1654.487269055441
 31
0.0
  0
LINE
  5
23E2C
330
747D
100
AcDbEntity
  8
細線
 48
50.0
100
AcDbLine
 10
10526.53413993202
 20
1630.487269055441
 30
0.0
 11
10520.10335931367
 21
1654.487269055441
 31
0.0
  0
LINE
  5
23E2D
330
747D
100
AcDbEntity
  8
細線
100
AcDbLine
 10
10751.57405947221
 20
1654.487269055443
 30
0.0
 11
10843.27297512555
 21
1746.186184708791
 31
0.0
  0
LINE
  5
23E2E
330
747D
100
AcDbEntity
  8
細線
 48
50.0
100
AcDbLine
 10
10763.19827477375
 20
1630.487269055441
 30
0.0
 11
10756.76749415541
 21
1654.487269055441
 31
0.0
  0
LINE
  5
23E2F
330
747D
100
AcDbEntity
  8
細線
100
AcDbLine
 10
10717.63293397525
 20
1654.487269055443
 30
0.0
 11
10809.3318496286
 21
1746.186184708791
 31
0.0
  0
LINE
  5
23E30
330
747D
100
AcDbEntity
  8
細線
 48
50.0
100
AcDbLine
 10
10842.08631972101
 20
1630.48726905544
 30
0.0
 11
10835.65553910266
 21
1654.48726905544
 31
0.0
  0
LINE
  5
23E31
330
747D
100
AcDbEntity
  8
細線
 48
50.0
100
AcDbLine
 10
10893.10764865541
 20
1526.48726905544
 30
0.0
 11
10927.4051452866
 21
1654.487269055438
 31
0.0
  0
LINE
  5
23E32
330
747D
100
AcDbEntity
  8
部品1
100
AcDbLine
 10
10964.59653947592
 20
1746.186184708791
 30
0.0
 11
10964.59653947592
 21
1526.487269055441
 31
0.0
  0
LINE
  5
23E33
330
747D
100
AcDbEntity
  8
細線
 48
50.0
100
AcDbLine
 10
10899.53842927376
 20
1550.48726905544
 30
0.0
 11
10905.96920989211
 21
1526.48726905544
 31
0.0
  0
LINE
  5
23E34
330
747D
100
AcDbEntity
  8
細線
 48
50.0
100
AcDbLine
 10
10920.97436466825
 20
1630.48726905544
 30
0.0
 11
10914.54358404991
 21
1654.48726905544
 31
0.0
  0
LEADER
  5
23E35
330
747D
100
AcDbEntity
  8
寸法
 48
50.0
100
AcDbLeader
  3
INABA_S50G
 73
     0
 74
     0
 75
     1
 40
120.0
 41
185.591883092037
 76
     3
 10
10775.32095109184
 20
1986.186184708791
 30
0.0
 10
10808.45915772549
 20
2158.332505389929
 30
0.0
 10
10933.45915772549
 20
2158.332505389929
 30
0.0
340
23E36
1001
ACAD
1000
DSTYLE
1002
{
1070
    40
1040
1.0
1002
}
  0
MTEXT
  5
23E36
102
{ACAD_REACTORS
330
23E35
102
}
330
747D
100
AcDbEntity
  8
寸法
 62
     7
 48
50.0
100
AcDbMText
 10
10958.45915772549
 20
2243.332505389929
 30
0.0
 40
120.0
 41
0.8
 71
     4
 72
     1
  1
\A1;C.B
  7
STYLE1
 73
     1
 44
1.0
1001
ACAD
1000
MTEXTBEGIN
1070
    73
1070
     1
1070
    44
1040
1.0
1070
    74
1070
     0
1000
MTEXTEND
  0
ENDSEC
  0
SECTION
  2
OBJECTS
  0
DICTIONARY
  5
7471
330
0
100
AcDbDictionary
281
     1
  3
ACAD_COLOR
350
173D2
  3
ACAD_GROUP
350
7472
  3
ACAD_LAYOUT
350
173D3
  3
ACAD_MATERIAL
350
173D1
  3
ACAD_MLINESTYLE
350
7473
  3
ACAD_PLOTSETTINGS
350
173D4
  3
ACAD_PLOTSTYLENAME
350
173CF
  3
ACDBHEADERROUNDTRIPXREC
350
23ECD
  3
AcDbVariableDictionary
350
23EC9
  3
CONTENTDICTIONARY
350
E71C
  3
DRAWINGVARIABLESDICT
350
F3B9
  0
DICTIONARY
  5
1758F
330
7467
100
AcDbDictionary
280
     1
281
     1
  3
ACAD_LAYERSTATES
360
17590
  0
DICTIONARY
  5
173D2
102
{ACAD_REACTORS
330
7471
102
}
330
7471
100
AcDbDictionary
281
     1
  0
DICTIONARY
  5
7472
102
{ACAD_REACTORS
330
7471
102
}
330
7471
100
AcDbDictionary
281
     1
  3
*A1
350
1D2A9
  3
*A2
350
21CB1
  0
DICTIONARY
  5
173D3
102
{ACAD_REACTORS
330
7471
102
}
330
7471
100
AcDbDictionary
281
     1
  3
Model
350
173D5
  3
レイアウト1
350
173D6
  0
DICTIONARY
  5
173D1
102
{ACAD_REACTORS
330
7471
102
}
330
7471
100
AcDbDictionary
281
     1
  0
DICTIONARY
  5
7473
102
{ACAD_REACTORS
330
7471
102
}
330
7471
100
AcDbDictionary
281
     1
  3
STANDARD
350
7480
  0
DICTIONARY
  5
173D4
102
{ACAD_REACTORS
330
7471
102
}
330
7471
100
AcDbDictionary
281
     1
  0
ACDBDICTIONARYWDFLT
  5
173CF
102
{ACAD_REACTORS
330
7471
102
}
330
7471
100
AcDbDictionary
281
     1
  3
Normal
350
173D0
100
AcDbDictionaryWithDefault
340
173D0
  0
DICTIONARY
  5
23ECD
102
{ACAD_REACTORS
330
7471
102
}
330
7471
100
AcDbDictionary
281
     1
  3
COLORDICT
350
23ECF
  3
MATERIALDICT
350
23ECE
  0
DICTIONARY
  5
23EC9
102
{ACAD_REACTORS
330
7471
102
}
330
7471
100
AcDbDictionary
281
     1
  3
DIMASSOC
350
23ECA
  3
PROJECTNAME
350
23ECB
  0
DICTIONARY
  5
E71C
102
{ACAD_REACTORS
330
7471
102
}
330
7471
100
AcDbDictionary
281
     1
  0
DICTIONARY
  5
F3B9
102
{ACAD_REACTORS
330
7471
102
}
330
7471
100
AcDbDictionary
281
     1
1001
DRAWINGVARIABLESXDATA
1000
POLARMODE
1000
1
  0
DICTIONARY
  5
17590
102
{ACAD_REACTORS
330
1758F
102
}
330
1758F
100
AcDbDictionary
281
     1
  0
GROUP
  5
1D2A9
102
{ACAD_REACTORS
330
7472
102
}
330
7472
100
AcDbGroup
300

 70
     1
 71
     1
  0
GROUP
  5
21CB1
102
{ACAD_REACTORS
330
7472
102
}
330
7472
100
AcDbGroup
300

 70
     1
 71
     1
340
215A5
340
215A4
340
215A6
  0
LAYOUT
  5
173D5
102
{ACAD_XDICTIONARY
360
23ED0
102
}
102
{ACAD_REACTORS
330
173D3
102
}
330
173D3
100
AcDbPlotSettings
  1

  2
クセロPDFよこ.pc3
  4
A3
  6

 40
3.174999952316284
 41
3.174999952316284
 42
3.17498779296875
 43
3.17498779296875
 44
419.9466552734374
 45
296.9259948730469
 46
0.0
 47
0.0
 48
0.0
 49
0.0
140
0.0
141
0.0
142
1.0
143
40.0
 70
 11952
 72
     1
 73
     0
 74
     2
  7
ACA3.ctb
 75
    24
147
0.025
148
0.0
149
0.0
100
AcDbLayout
  1
Model
 70
     1
 71
     0
 10
0.0
 20
0.0
 11
12.0
 21
9.0
 12
0.0
 22
0.0
 32
0.0
 14
0.0
 24
0.0
 34
0.0
 15
0.0
 25
0.0
 35
0.0
146
0.0
 13
0.0
 23
0.0
 33
0.0
 16
1.0
 26
0.0
 36
0.0
 17
0.0
 27
1.0
 37
0.0
 76
     0
330
747D
  0
LAYOUT
  5
173D6
102
{ACAD_XDICTIONARY
360
23ED2
102
}
102
{ACAD_REACTORS
330
173D3
102
}
330
173D3
100
AcDbPlotSettings
  1

  2
Microsoft Office Document Image Writer
  4

  6

 40
0.0
 41
0.0
 42
0.0
 43
0.0
 44
0.0
 45
0.0
 46
0.0
 47
0.0
 48
0.0
 49
0.0
140
0.0
141
0.0
142
1.0
143
1.0
 70
   688
 72
     0
 73
     0
 74
     5
  7
ACA3.ctb
 75
    16
147
1.0
148
0.0
149
0.0
100
AcDbLayout
  1
レイアウト1
 70
     0
 71
     1
 10
0.0
 20
0.0
 11
420.0
 21
297.0
 12
0.0
 22
0.0
 32
0.0
 14
1.000000000000000E+20
 24
1.000000000000000E+20
 34
1.000000000000000E+20
 15
-1.000000000000000E+20
 25
-1.000000000000000E+20
 35
-1.000000000000000E+20
146
0.0
 13
0.0
 23
0.0
 33
0.0
 16
1.0
 26
0.0
 36
0.0
 17
0.0
 27
1.0
 37
0.0
 76
     0
330
747A
  0
MLINESTYLE
  5
7480
102
{ACAD_REACTORS
330
7473
102
}
330
7473
100
AcDbMlineStyle
  2
STANDARD
 70
     0
  3

 62
     0
 51
90.0
 52
90.0
 71
     2
 49
0.5
 62
   256
  6
BYLAYER
 49
-0.5
 62
   256
  6
BYLAYER
  0
ACDBPLACEHOLDER
  5
173D0
102
{ACAD_REACTORS
330
173CF
102
}
330
173CF
  0
XRECORD
  5
23ECF
102
{ACAD_REACTORS
330
23ECD
102
}
330
23ECD
100
AcDbXrecord
280
     1
340
173D2
  0
XRECORD
  5
23ECE
102
{ACAD_REACTORS
330
23ECD
102
}
330
23ECD
100
AcDbXrecord
280
     1
340
173D1
  0
DICTIONARYVAR
  5
23ECA
102
{ACAD_REACTORS
330
23EC9
102
}
330
23EC9
100
DictionaryVariables
280
     0
  1
1
  0
DICTIONARYVAR
  5
23ECB
102
{ACAD_REACTORS
330
23EC9
102
}
330
23EC9
100
DictionaryVariables
280
     0
  1

  0
DICTIONARY
  5
23ED0
330
173D5
100
AcDbDictionary
280
     1
281
     1
  3
ACAD_XREC_ROUNDTRIP
360
23ED1
  0
DICTIONARY
  5
23ED2
330
173D6
100
AcDbDictionary
280
     1
281
     1
  3
ACAD_XREC_ROUNDTRIP
360
23ED3
  0
XRECORD
  5
23ED1
102
{ACAD_REACTORS
330
23ED0
102
}
330
23ED0
100
AcDbXrecord
280
     1
102
SHADEPLOT
 70
     0
102
SHADEPLOTRESLEVEL
 70
     2
102
SHADEPLOTCUSTOMDPI
 70
   150
  0
XRECORD
  5
23ED3
102
{ACAD_REACTORS
330
23ED2
102
}
330
23ED2
100
AcDbXrecord
280
     1
102
SHADEPLOT
 70
     0
102
SHADEPLOTRESLEVEL
 70
     2
102
SHADEPLOTCUSTOMDPI
 70
   300
  0
ENDSEC
  0
EOF
