  0
SECTION
  2
HEADER
  9
$ACADVER
  1
AC1015
  9
$ACADMAINTVER
 70
    20
  9
$DWGCODEPAGE
  3
ANSI_932
  9
$INSBASE
 10
0.0
 20
0.0
 30
0.0
  9
$EXTMIN
 10
139.9999999999995
 20
-0.0000000000000909
 30
0.0
  9
$EXTMAX
 10
16307.2
 20
11409.6
 30
0.0
  9
$LIMMIN
 10
0.0
 20
0.0
  9
$LIMMAX
 10
16800.0
 20
11880.0
  9
$ORTHOMODE
 70
     0
  9
$REGENMODE
 70
     1
  9
$FILLMODE
 70
     1
  9
$QTEXTMODE
 70
     0
  9
$MIRRTEXT
 70
     1
  9
$LTSCALE
 40
20.0
  9
$ATTMODE
 70
     1
  9
$TEXTSIZE
 40
4.0
  9
$TRACEWID
 40
1.0
  9
$TEXTSTYLE
  7
STYLE1
  9
$CLAYER
  8
細線
  9
$CELTYPE
  6
BYLAYER
  9
$CECOLOR
 62
   256
  9
$CELTSCALE
 40
50.0
  9
$DISPSILH
 70
     0
  9
$DIMSCALE
 40
40.0
  9
$DIMASZ
 40
2.5
  9
$DIMEXO
 40
0.5
  9
$DIMDLI
 40
7.0
  9
$DIMRND
 40
0.0
  9
$DIMDLE
 40
0.0
  9
$DIMEXE
 40
1.5
  9
$DIMTP
 40
0.0
  9
$DIMTM
 40
0.0
  9
$DIMTXT
 40
3.0
  9
$DIMCEN
 40
0.0
  9
$DIMTSZ
 40
0.0
  9
$DIMTOL
 70
     0
  9
$DIMLIM
 70
     0
  9
$DIMTIH
 70
     0
  9
$DIMTOH
 70
     0
  9
$DIMSE1
 70
     0
  9
$DIMSE2
 70
     0
  9
$DIMTAD
 70
     3
  9
$DIMZIN
 70
     8
  9
$DIMBLK
  1

  9
$DIMASO
 70
     1
  9
$DIMSHO
 70
     1
  9
$DIMPOST
  1

  9
$DIMAPOST
  1

  9
$DIMALT
 70
     0
  9
$DIMALTD
 70
     2
  9
$DIMALTF
 40
0.0394
  9
$DIMLFAC
 40
1.0
  9
$DIMTOFL
 70
     1
  9
$DIMTVP
 40
0.0
  9
$DIMTIX
 70
     1
  9
$DIMSOXD
 70
     0
  9
$DIMSAH
 70
     1
  9
$DIMBLK1
  1
DOTSMALL
  9
$DIMBLK2
  1
DOTSMALL
  9
$DIMSTYLE
  2
INABA_S40G
  9
$DIMCLRD
 70
     0
  9
$DIMCLRE
 70
     0
  9
$DIMCLRT
 70
     7
  9
$DIMTFAC
 40
1.0
  9
$DIMGAP
 40
1.0
  9
$DIMJUST
 70
     0
  9
$DIMSD1
 70
     0
  9
$DIMSD2
 70
     0
  9
$DIMTOLJ
 70
     1
  9
$DIMTZIN
 70
     0
  9
$DIMALTZ
 70
     0
  9
$DIMALTTZ
 70
     0
  9
$DIMUPT
 70
     0
  9
$DIMDEC
 70
     1
  9
$DIMTDEC
 70
     4
  9
$DIMALTU
 70
     2
  9
$DIMALTTD
 70
     2
  9
$DIMTXSTY
  7
STYLE1
  9
$DIMAUNIT
 70
     0
  9
$DIMADEC
 70
     0
  9
$DIMALTRND
 40
0.0
  9
$DIMAZIN
 70
     0
  9
$DIMDSEP
 70
    46
  9
$DIMATFIT
 70
     3
  9
$DIMFRAC
 70
     0
  9
$DIMLDRBLK
  1

  9
$DIMLUNIT
 70
     2
  9
$DIMLWD
 70
    -2
  9
$DIMLWE
 70
    -2
  9
$DIMTMOVE
 70
     0
  9
$LUNITS
 70
     2
  9
$LUPREC
 70
     1
  9
$SKETCHINC
 40
1.0
  9
$FILLETRAD
 40
3.0
  9
$AUNITS
 70
     0
  9
$AUPREC
 70
     0
  9
$MENU
  1
acad
  9
$ELEVATION
 40
0.0
  9
$PELEVATION
 40
0.0
  9
$THICKNESS
 40
0.0
  9
$LIMCHECK
 70
     0
  9
$CHAMFERA
 40
0.0
  9
$CHAMFERB
 40
0.0
  9
$CHAMFERC
 40
0.0
  9
$CHAMFERD
 40
0.0
  9
$SKPOLY
 70
     0
  9
$TDCREATE
 40
2451368.612993866
  9
$TDUCREATE
 40
2451368.237993866
  9
$TDUPDATE
 40
2455826.640953230
  9
$TDUUPDATE
 40
2455826.265953230
  9
$TDINDWG
 40
0.7844345486
  9
$TDUSRTIMER
 40
0.7844345486
  9
$USRTIMER
 70
     1
  9
$ANGBASE
 50
0.0
  9
$ANGDIR
 70
     0
  9
$PDMODE
 70
     3
  9
$PDSIZE
 40
2.0
  9
$PLINEWID
 40
0.0
  9
$SPLFRAME
 70
     0
  9
$SPLINETYPE
 70
     6
  9
$SPLINESEGS
 70
     8
  9
$HANDSEED
  5
23159
  9
$SURFTAB1
 70
     6
  9
$SURFTAB2
 70
     6
  9
$SURFTYPE
 70
     6
  9
$SURFU
 70
     6
  9
$SURFV
 70
     6
  9
$UCSBASE
  2

  9
$UCSNAME
  2

  9
$UCSORG
 10
0.0
 20
0.0
 30
0.0
  9
$UCSXDIR
 10
1.0
 20
0.0
 30
0.0
  9
$UCSYDIR
 10
0.0
 20
1.0
 30
0.0
  9
$UCSORTHOREF
  2

  9
$UCSORTHOVIEW
 70
     0
  9
$UCSORGTOP
 10
0.0
 20
0.0
 30
0.0
  9
$UCSORGBOTTOM
 10
0.0
 20
0.0
 30
0.0
  9
$UCSORGLEFT
 10
0.0
 20
0.0
 30
0.0
  9
$UCSORGRIGHT
 10
0.0
 20
0.0
 30
0.0
  9
$UCSORGFRONT
 10
0.0
 20
0.0
 30
0.0
  9
$UCSORGBACK
 10
0.0
 20
0.0
 30
0.0
  9
$PUCSBASE
  2

  9
$PUCSNAME
  2

  9
$PUCSORG
 10
0.0
 20
0.0
 30
0.0
  9
$PUCSXDIR
 10
1.0
 20
0.0
 30
0.0
  9
$PUCSYDIR
 10
0.0
 20
1.0
 30
0.0
  9
$PUCSORTHOREF
  2

  9
$PUCSORTHOVIEW
 70
     0
  9
$PUCSORGTOP
 10
0.0
 20
0.0
 30
0.0
  9
$PUCSORGBOTTOM
 10
0.0
 20
0.0
 30
0.0
  9
$PUCSORGLEFT
 10
0.0
 20
0.0
 30
0.0
  9
$PUCSORGRIGHT
 10
0.0
 20
0.0
 30
0.0
  9
$PUCSORGFRONT
 10
0.0
 20
0.0
 30
0.0
  9
$PUCSORGBACK
 10
0.0
 20
0.0
 30
0.0
  9
$USERI1
 70
     0
  9
$USERI2
 70
     0
  9
$USERI3
 70
     0
  9
$USERI4
 70
     0
  9
$USERI5
 70
     0
  9
$USERR1
 40
0.0
  9
$USERR2
 40
0.0
  9
$USERR3
 40
0.0
  9
$USERR4
 40
0.0
  9
$USERR5
 40
0.0
  9
$WORLDVIEW
 70
     1
  9
$SHADEDGE
 70
     3
  9
$SHADEDIF
 70
    70
  9
$TILEMODE
 70
     1
  9
$MAXACTVP
 70
    16
  9
$PINSBASE
 10
0.0
 20
0.0
 30
0.0
  9
$PLIMCHECK
 70
     0
  9
$PEXTMIN
 10
1.000000000000000E+20
 20
1.000000000000000E+20
 30
1.000000000000000E+20
  9
$PEXTMAX
 10
-1.000000000000000E+20
 20
-1.000000000000000E+20
 30
-1.000000000000000E+20
  9
$PLIMMIN
 10
0.0
 20
0.0
  9
$PLIMMAX
 10
420.0
 20
297.0
  9
$UNITMODE
 70
     0
  9
$VISRETAIN
 70
     0
  9
$PLINEGEN
 70
     0
  9
$PSLTSCALE
 70
     0
  9
$TREEDEPTH
 70
  3020
  9
$CMLSTYLE
  2
STANDARD
  9
$CMLJUST
 70
     0
  9
$CMLSCALE
 40
1.0
  9
$PROXYGRAPHICS
 70
     1
  9
$MEASUREMENT
 70
     1
  9
$CELWEIGHT
370
    -1
  9
$ENDCAPS
280
     0
  9
$JOINSTYLE
280
     0
  9
$LWDISPLAY
290
     0
  9
$INSUNITS
 70
     0
  9
$HYPERLINKBASE
  1

  9
$STYLESHEET
  1

  9
$XEDIT
290
     1
  9
$CEPSNTYPE
380
     0
  9
$PSTYLEMODE
290
     1
  9
$FINGERPRINTGUID
  2
{5EAC461A-2277-4BF8-9AB0-99C43BB394F0}
  9
$VERSIONGUID
  2
{E40DBBB6-8B19-4087-A9B8-7845E781146D}
  9
$EXTNAMES
290
     1
  9
$PSVPSCALE
 40
0.0
  9
$OLESTARTUP
290
     0
  0
ENDSEC
  0
SECTION
  2
CLASSES
  0
CLASS
  1
ACDBDICTIONARYWDFLT
  2
AcDbDictionaryWithDefault
  3
ObjectDBX Classes
 90
        0
280
     0
281
     0
  0
CLASS
  1
DICTIONARYVAR
  2
AcDbDictionaryVar
  3
ObjectDBX Classes
 90
        0
280
     0
281
     0
  0
CLASS
  1
ACDBPLACEHOLDER
  2
AcDbPlaceHolder
  3
ObjectDBX Classes
 90
        0
280
     0
281
     0
  0
CLASS
  1
LAYOUT
  2
AcDbLayout
  3
ObjectDBX Classes
 90
        0
280
     0
281
     0
  0
ENDSEC
  0
SECTION
  2
TABLES
  0
TABLE
  2
VPORT
  5
746D
330
0
100
AcDbSymbolTable
 70
     2
  0
VPORT
  5
23151
330
746D
100
AcDbSymbolTableRecord
100
AcDbViewportTableRecord
  2
*Active
 70
     0
 10
0.0
 20
0.0
 11
1.0
 21
1.0
 12
8223.761025238502
 22
5855.51892110829
 13
0.0
 23
0.0
 14
10.0
 24
10.0
 15
10.0
 25
10.0
 16
0.0
 26
0.0
 36
1.0
 17
0.0
 27
0.0
 37
0.0
 40
11801.05715611403
 41
1.522222222222222
 42
50.0
 43
0.0
 44
0.0
 50
0.0
 51
0.0
 71
     0
 72
     0
 73
     1
 74
     0
 75
     0
 76
     0
 77
     0
 78
     0
281
     0
 65
     1
110
0.0
120
0.0
130
0.0
111
1.0
121
0.0
131
0.0
112
0.0
122
1.0
132
0.0
 79
     0
146
0.0
  0
ENDTAB
  0
TABLE
  2
LTYPE
  5
746A
330
0
100
AcDbSymbolTable
 70
     5
  0
LTYPE
  5
7477
330
746A
100
AcDbSymbolTableRecord
100
AcDbLinetypeTableRecord
  2
BYBLOCK
 70
     0
  3

 72
    65
 73
     0
 40
0.0
  0
LTYPE
  5
7478
330
746A
100
AcDbSymbolTableRecord
100
AcDbLinetypeTableRecord
  2
BYLAYER
 70
     0
  3

 72
    65
 73
     0
 40
0.0
  0
LTYPE
  5
7479
330
746A
100
AcDbSymbolTableRecord
100
AcDbLinetypeTableRecord
  2
CONTINUOUS
 70
     0
  3
Solid line
 72
    65
 73
     0
 40
0.0
  0
LTYPE
  5
7816
330
746A
100
AcDbSymbolTableRecord
100
AcDbLinetypeTableRecord
  2
CENTER
 70
     0
  3
____ _ ____ _ ____ _ ____ _ ____ _ ____ _ ____ 
 72
    65
 73
     4
 40
2.0
 49
1.25
 74
     0
 49
-0.25
 74
     0
 49
0.25
 74
     0
 49
-0.25
 74
     0
  0
LTYPE
  5
781A
330
746A
100
AcDbSymbolTableRecord
100
AcDbLinetypeTableRecord
  2
HIDDEN
 70
     0
  3
__ __ __ __ __ __ __ __ __ __ __ __ __ __ __ __
 72
    65
 73
     2
 40
0.375
 49
0.25
 74
     0
 49
-0.125
 74
     0
  0
LTYPE
  5
781B
330
746A
100
AcDbSymbolTableRecord
100
AcDbLinetypeTableRecord
  2
PHANTOM
 70
     0
  3
______  __  __  ______  __  __  ______  __  __ 
 72
    65
 73
     6
 40
2.5
 49
1.25
 74
     0
 49
-0.25
 74
     0
 49
0.25
 74
     0
 49
-0.25
 74
     0
 49
0.25
 74
     0
 49
-0.25
 74
     0
  0
LTYPE
  5
12CC3
330
746A
100
AcDbSymbolTableRecord
100
AcDbLinetypeTableRecord
  2
HIDDENX2
 70
     0
  3
Hidden (2x) ____ ____ ____ ____ ____ ____ ____
 72
    65
 73
     2
 40
19.05
 49
12.7
 74
     0
 49
-6.349999999999999
 74
     0
  0
ENDTAB
  0
TABLE
  2
LAYER
  5
7467
102
{ACAD_XDICTIONARY
360
1758F
102
}
330
0
100
AcDbSymbolTable
 70
    12
  0
LAYER
  5
7474
330
7467
100
AcDbSymbolTableRecord
100
AcDbLayerTableRecord
  2
0
 70
     0
 62
     7
  6
CONTINUOUS
370
    -3
390
173D0
  0
LAYER
  5
DEB2
330
7467
100
AcDbSymbolTableRecord
100
AcDbLayerTableRecord
  2
センター
 70
     0
 62
     3
  6
CENTER
370
    -3
390
173D0
  0
LAYER
  5
DEB3
330
7467
100
AcDbSymbolTableRecord
100
AcDbLayerTableRecord
  2
寸法
 70
     0
 62
     4
  6
CONTINUOUS
370
    -3
390
173D0
  0
LAYER
  5
DEB4
330
7467
100
AcDbSymbolTableRecord
100
AcDbLayerTableRecord
  2
部品1
 70
     0
 62
     7
  6
CONTINUOUS
370
    -3
390
173D0
  0
LAYER
  5
DEB5
330
7467
100
AcDbSymbolTableRecord
100
AcDbLayerTableRecord
  2
補助
 70
     0
 62
    -1
  6
CONTINUOUS
370
    -3
390
173D0
  0
LAYER
  5
DEB6
330
7467
100
AcDbSymbolTableRecord
100
AcDbLayerTableRecord
  2
文字
 70
     0
 62
     7
  6
CONTINUOUS
370
    -3
390
173D0
  0
LAYER
  5
F255
330
7467
100
AcDbSymbolTableRecord
100
AcDbLayerTableRecord
  2
DEFPOINTS
 70
     0
 62
     7
  6
CONTINUOUS
290
     0
370
    -3
390
173D0
  0
LAYER
  5
10B54
330
7467
100
AcDbSymbolTableRecord
100
AcDbLayerTableRecord
  2
仕様書枠
 70
     0
 62
   230
  6
CONTINUOUS
370
    -3
390
173D0
  0
LAYER
  5
11729
330
7467
100
AcDbSymbolTableRecord
100
AcDbLayerTableRecord
  2
Ｇ．Ｌ
 70
     0
 62
    30
  6
CONTINUOUS
370
    -3
390
173D0
  0
LAYER
  5
1173F
330
7467
100
AcDbSymbolTableRecord
100
AcDbLayerTableRecord
  2
細線
 70
     0
 62
     5
  6
CONTINUOUS
370
    -3
390
173D0
  0
LAYER
  5
12CC4
330
7467
100
AcDbSymbolTableRecord
100
AcDbLayerTableRecord
  2
想像線
 70
     0
 62
     6
  6
PHANTOM
370
    -3
390
173D0
  0
LAYER
  5
142E2
330
7467
100
AcDbSymbolTableRecord
100
AcDbLayerTableRecord
  2
破線
 70
     0
 62
     2
  6
HIDDEN
370
    -3
390
173D0
  0
ENDTAB
  0
TABLE
  2
STYLE
  5
7468
330
0
100
AcDbSymbolTable
 70
     7
  0
STYLE
  5
7475
330
7468
100
AcDbSymbolTableRecord
100
AcDbTextStyleTableRecord
  2
STANDARD
 70
     0
 40
0.0
 41
1.0
 50
0.0
 71
     0
 42
4.0
  3
txt
  4
C:\AutoCAD LT\bigfont.shx
  0
STYLE
  5
763C
330
7468
100
AcDbSymbolTableRecord
100
AcDbTextStyleTableRecord
  2
MSMINCHO
 70
     0
 40
0.0
 41
1.0
 50
0.0
 71
     0
 42
1.199999999999999
  3
C:\AutoCAD LT\msminch2.TTF
  4

  0
STYLE
  5
F706
330
7468
100
AcDbSymbolTableRecord
100
AcDbTextStyleTableRecord
  2
STYLE1
 70
     0
 40
0.0
 41
1.0
 50
0.0
 71
     0
 42
4.0
  3
isocp.shx
  4
bigfont.shx
  0
STYLE
  5
103BF
330
7468
100
AcDbSymbolTableRecord
100
AcDbTextStyleTableRecord
  2
STYLE2
 70
     0
 40
0.0
 41
1.0
 50
0.0
 71
     0
 42
100.0
  3
MS PGothic.ttf
  4

1001
ACAD
1000
MS PGothic
1071
    32818
  0
STYLE
  5
10BAA
330
7468
100
AcDbSymbolTableRecord
100
AcDbTextStyleTableRecord
  2
STYLE3
 70
     0
 40
0.0
 41
1.0
 50
0.0
 71
     0
 42
100.0
  3

  4

1001
ACAD
1000
DFPGothic-EB
1071
    32818
  0
STYLE
  5
11A15
330
7468
100
AcDbSymbolTableRecord
100
AcDbTextStyleTableRecord
  2
MSGOTHIC
 70
     0
 40
0.0
 41
1.0
 50
0.0
 71
     0
 42
3.5
  3
msgothi2.ttf
  4

  0
STYLE
  5
13E96
330
7468
100
AcDbSymbolTableRecord
100
AcDbTextStyleTableRecord
  2
MSPゴシック
 70
     0
 40
0.0
 41
1.0
 50
0.0
 71
     0
 42
4.0
  3
MS PGothic.ttf
  4

1001
ACAD
1000
MS PGothic
1071
    32818
  0
ENDTAB
  0
TABLE
  2
VIEW
  5
746B
330
0
100
AcDbSymbolTable
 70
     0
  0
ENDTAB
  0
TABLE
  2
UCS
  5
746C
330
0
100
AcDbSymbolTable
 70
     0
  0
ENDTAB
  0
TABLE
  2
APPID
  5
746E
330
0
100
AcDbSymbolTable
 70
     6
  0
APPID
  5
7476
330
746E
100
AcDbSymbolTableRecord
100
AcDbRegAppTableRecord
  2
ACAD
 70
     0
  0
APPID
  5
DEA9
330
746E
100
AcDbSymbolTableRecord
100
AcDbRegAppTableRecord
  2
CONTENTBLOCKICON
 70
     0
  0
APPID
  5
DEAA
330
746E
100
AcDbSymbolTableRecord
100
AcDbRegAppTableRecord
  2
CONTENTBLOCKDESCRIPTION
 70
     0
  0
APPID
  5
E71D
330
746E
100
AcDbSymbolTableRecord
100
AcDbRegAppTableRecord
  2
CONTENTTABDATA
 70
     0
  0
APPID
  5
E71E
330
746E
100
AcDbSymbolTableRecord
100
AcDbRegAppTableRecord
  2
CONTENTCURRENTTAB
 70
     0
  0
APPID
  5
F3BA
330
746E
100
AcDbSymbolTableRecord
100
AcDbRegAppTableRecord
  2
DRAWINGVARIABLESXDATA
 70
     0
  0
ENDTAB
  0
TABLE
  2
DIMSTYLE
  5
746F
330
0
100
AcDbSymbolTable
 70
     6
100
AcDbDimStyleTable
 71
     1
340
F71F
  0
DIMSTYLE
105
7484
330
746F
100
AcDbSymbolTableRecord
100
AcDbDimStyleTableRecord
  2
JIS
 70
     0
 41
2.5
 42
1.0
 43
7.0
 44
1.0
 73
     0
 74
     0
 77
     1
 78
     8
140
2.5
141
0.0
143
0.0394
147
0.0
172
     1
174
     1
175
     1
340
7475
  0
DIMSTYLE
105
F236
330
746F
100
AcDbSymbolTableRecord
100
AcDbDimStyleTableRecord
  2
INABA_S40
 70
     0
 40
40.0
 41
2.5
 42
0.5
 43
7.0
 44
1.5
 73
     0
 74
     0
 77
     3
 78
     8
140
3.0
141
0.0
143
0.0394
147
1.0
172
     1
173
     1
174
     1
175
     1
178
     7
289
     0
340
7475
341
DEAC
343
DEAC
344
DEAC
  0
DIMSTYLE
105
F71F
102
{ACAD_REACTORS
330
211C6
330
211B7
330
211A6
330
211A5
330
211A3
330
211A1
330
21195
330
21194
330
211DD
330
211DC
330
211D9
330
211D8
330
211D5
330
211D4
330
21198
330
21192
330
211B8
330
21191
330
211DA
330
22229
330
2222A
330
22224
330
22FF7
330
22F84
330
22F85
330
22F8D
330
22F94
330
22F97
102
}
330
746F
100
AcDbSymbolTableRecord
100
AcDbDimStyleTableRecord
  2
INABA_S40G
 70
     0
 40
40.0
 41
2.5
 42
0.5
 43
7.0
 44
1.5
 73
     0
 74
     0
 77
     3
 78
     8
140
3.0
141
0.0
143
0.0394
147
1.0
172
     1
173
     1
174
     1
178
     7
271
     1
340
F706
341
F770
343
F770
344
F770
  0
DIMSTYLE
105
142E3
330
746F
100
AcDbSymbolTableRecord
100
AcDbDimStyleTableRecord
  2
INABA_S1
 70
     0
 40
0.0
 41
2.5
 42
0.5
 43
7.0
 44
1.5
 73
     0
 74
     0
 77
     3
 78
     8
140
3.0
141
0.0
143
0.0394
146
0.5
147
0.5
172
     1
173
     1
176
   256
177
   256
178
     7
271
     2
272
     2
284
     8
288
     1
340
7475
341
DEAC
343
DEAC
344
DEAC
  0
DIMSTYLE
105
14463
330
746F
100
AcDbSymbolTableRecord
100
AcDbDimStyleTableRecord
  2
INABA_S30G
 70
     0
 40
30.0
 41
2.5
 42
0.5
 43
7.0
 44
1.5
 73
     0
 74
     0
 77
     3
 78
     8
140
3.0
141
0.0
143
0.0394
147
1.0
172
     1
173
     1
174
     1
175
     1
178
     7
271
     1
340
F706
341
F770
343
F770
344
F770
  0
DIMSTYLE
105
1758E
330
746F
100
AcDbSymbolTableRecord
100
AcDbDimStyleTableRecord
  2
INABA_S50G
 70
     0
 41
125.0
 42
25.0
 43
7.0
 44
75.0
 73
     0
 74
     0
 77
     3
 78
     8
140
150.0
141
0.0
143
0.0394
147
25.0
172
     1
173
     1
174
     1
175
     1
178
     7
271
     1
340
F706
341
F770
343
F770
344
F770
  0
ENDTAB
  0
TABLE
  2
BLOCK_RECORD
  5
7466
330
0
100
AcDbSymbolTable
 70
    54
  0
BLOCK_RECORD
  5
747D
330
7466
100
AcDbSymbolTableRecord
100
AcDbBlockTableRecord
  2
*MODEL_SPACE
340
173D5
  0
BLOCK_RECORD
  5
747A
330
7466
100
AcDbSymbolTableRecord
100
AcDbBlockTableRecord
  2
*PAPER_SPACE
340
173D6
  0
BLOCK_RECORD
  5
DEAC
330
7466
100
AcDbSymbolTableRecord
100
AcDbBlockTableRecord
  2
_OPEN
340
0
  0
BLOCK_RECORD
  5
F770
330
7466
100
AcDbSymbolTableRecord
100
AcDbBlockTableRecord
  2
_DOTSMALL
340
0
102
{BLKREFS
331
18C65
331
18C66
331
18C59
331
18C5A
331
18C4D
331
18C4E
331
18C41
331
18C42
331
18C35
331
18C36
331
18C29
331
18C2A
331
18C1D
331
18C1E
331
18C0F
331
18C10
331
18C03
331
18C04
331
18BF5
331
18BF6
331
18BE7
331
18BE8
331
18BD9
331
18BDA
331
18BCD
331
18BCE
331
217F7
331
217F8
331
21801
331
21802
331
21816
331
21817
331
21821
331
21822
331
2182A
331
2182B
331
21833
331
21834
331
21846
331
21847
331
21864
331
21865
331
21876
331
21877
331
21894
331
21895
331
2189D
331
2189E
331
218A7
331
218A8
331
218B0
331
218B1
331
218B9
331
218BA
331
218E7
331
218E8
331
218FD
331
218FE
331
22477
331
22478
331
2288C
331
2288D
331
228AF
331
228B0
331
228B9
331
228BA
331
228C3
331
228C4
331
228CD
331
228CE
331
22CB3
331
22CB4
331
22CA8
331
22CA9
331
22C97
331
22C98
331
22C8B
331
22C8C
331
22C7F
331
22C80
331
22C73
331
22C74
331
23102
331
23103
331
2310A
331
2310B
331
23119
331
2311A
331
23122
331
23123
331
2312B
331
2312C
331
23134
331
23135
102
}
  0
BLOCK_RECORD
  5
164B4
330
7466
100
AcDbSymbolTableRecord
100
AcDbBlockTableRecord
  2
_DOT
340
0
102
{BLKREFS
331
18C73
331
18C74
102
}
  0
BLOCK_RECORD
  5
18BC8
330
7466
100
AcDbSymbolTableRecord
100
AcDbBlockTableRecord
  2
*D3
340
0
  0
BLOCK_RECORD
  5
18BD4
330
7466
100
AcDbSymbolTableRecord
100
AcDbBlockTableRecord
  2
*D4
340
0
  0
BLOCK_RECORD
  5
18BE0
330
7466
100
AcDbSymbolTableRecord
100
AcDbBlockTableRecord
  2
*D5
340
0
  0
BLOCK_RECORD
  5
18BEE
330
7466
100
AcDbSymbolTableRecord
100
AcDbBlockTableRecord
  2
*D6
340
0
  0
BLOCK_RECORD
  5
18BFC
330
7466
100
AcDbSymbolTableRecord
100
AcDbBlockTableRecord
  2
*D7
340
0
  0
BLOCK_RECORD
  5
18C0A
330
7466
100
AcDbSymbolTableRecord
100
AcDbBlockTableRecord
  2
*D8
340
0
  0
BLOCK_RECORD
  5
18C16
330
7466
100
AcDbSymbolTableRecord
100
AcDbBlockTableRecord
  2
*D9
340
0
  0
BLOCK_RECORD
  5
18C24
330
7466
100
AcDbSymbolTableRecord
100
AcDbBlockTableRecord
  2
*D10
340
0
  0
BLOCK_RECORD
  5
18C30
330
7466
100
AcDbSymbolTableRecord
100
AcDbBlockTableRecord
  2
*D11
340
0
  0
BLOCK_RECORD
  5
18C3C
330
7466
100
AcDbSymbolTableRecord
100
AcDbBlockTableRecord
  2
*D12
340
0
  0
BLOCK_RECORD
  5
18C48
330
7466
100
AcDbSymbolTableRecord
100
AcDbBlockTableRecord
  2
*D13
340
0
  0
BLOCK_RECORD
  5
18C54
330
7466
100
AcDbSymbolTableRecord
100
AcDbBlockTableRecord
  2
*D14
340
0
  0
BLOCK_RECORD
  5
18C60
330
7466
100
AcDbSymbolTableRecord
100
AcDbBlockTableRecord
  2
*D15
340
0
  0
BLOCK_RECORD
  5
18C6C
330
7466
100
AcDbSymbolTableRecord
100
AcDbBlockTableRecord
  2
*D16
340
0
  0
BLOCK_RECORD
  5
18C7A
330
7466
100
AcDbSymbolTableRecord
100
AcDbBlockTableRecord
  2
A$C3B1A506B
340
0
  0
BLOCK_RECORD
  5
1C4CA
330
7466
100
AcDbSymbolTableRecord
100
AcDbBlockTableRecord
  2
_NONE
340
0
  0
BLOCK_RECORD
  5
211EB
330
7466
100
AcDbSymbolTableRecord
100
AcDbBlockTableRecord
  2
*D19
340
0
  0
BLOCK_RECORD
  5
211F6
330
7466
100
AcDbSymbolTableRecord
100
AcDbBlockTableRecord
  2
*D20
340
0
  0
BLOCK_RECORD
  5
21202
330
7466
100
AcDbSymbolTableRecord
100
AcDbBlockTableRecord
  2
*D21
340
0
  0
BLOCK_RECORD
  5
2120F
330
7466
100
AcDbSymbolTableRecord
100
AcDbBlockTableRecord
  2
*D22
340
0
  0
BLOCK_RECORD
  5
2121A
330
7466
100
AcDbSymbolTableRecord
100
AcDbBlockTableRecord
  2
*D23
340
0
  0
BLOCK_RECORD
  5
21232
330
7466
100
AcDbSymbolTableRecord
100
AcDbBlockTableRecord
  2
*D24
340
0
  0
BLOCK_RECORD
  5
2124C
330
7466
100
AcDbSymbolTableRecord
100
AcDbBlockTableRecord
  2
*D25
340
0
  0
BLOCK_RECORD
  5
21258
330
7466
100
AcDbSymbolTableRecord
100
AcDbBlockTableRecord
  2
*D26
340
0
  0
BLOCK_RECORD
  5
21262
330
7466
100
AcDbSymbolTableRecord
100
AcDbBlockTableRecord
  2
*D27
340
0
  0
BLOCK_RECORD
  5
2127C
330
7466
100
AcDbSymbolTableRecord
100
AcDbBlockTableRecord
  2
*D28
340
0
  0
BLOCK_RECORD
  5
21289
330
7466
100
AcDbSymbolTableRecord
100
AcDbBlockTableRecord
  2
*D29
340
0
  0
BLOCK_RECORD
  5
21295
330
7466
100
AcDbSymbolTableRecord
100
AcDbBlockTableRecord
  2
*D30
340
0
  0
BLOCK_RECORD
  5
212A2
330
7466
100
AcDbSymbolTableRecord
100
AcDbBlockTableRecord
  2
*D31
340
0
  0
BLOCK_RECORD
  5
212AD
330
7466
100
AcDbSymbolTableRecord
100
AcDbBlockTableRecord
  2
*D32
340
0
  0
BLOCK_RECORD
  5
212B8
330
7466
100
AcDbSymbolTableRecord
100
AcDbBlockTableRecord
  2
*D33
340
0
  0
BLOCK_RECORD
  5
212C5
330
7466
100
AcDbSymbolTableRecord
100
AcDbBlockTableRecord
  2
*D34
340
0
  0
BLOCK_RECORD
  5
212D2
330
7466
100
AcDbSymbolTableRecord
100
AcDbBlockTableRecord
  2
*D35
340
0
  0
BLOCK_RECORD
  5
212DE
330
7466
100
AcDbSymbolTableRecord
100
AcDbBlockTableRecord
  2
*D36
340
0
  0
BLOCK_RECORD
  5
212EB
330
7466
100
AcDbSymbolTableRecord
100
AcDbBlockTableRecord
  2
*D37
340
0
  0
BLOCK_RECORD
  5
2227E
330
7466
100
AcDbSymbolTableRecord
100
AcDbBlockTableRecord
  2
*D38
340
0
  0
BLOCK_RECORD
  5
2228B
330
7466
100
AcDbSymbolTableRecord
100
AcDbBlockTableRecord
  2
*D39
340
0
  0
BLOCK_RECORD
  5
2238C
330
7466
100
AcDbSymbolTableRecord
100
AcDbBlockTableRecord
  2
*D40
340
0
  0
BLOCK_RECORD
  5
22C6D
330
7466
100
AcDbSymbolTableRecord
100
AcDbBlockTableRecord
  2
*D41
340
0
  0
BLOCK_RECORD
  5
22C79
330
7466
100
AcDbSymbolTableRecord
100
AcDbBlockTableRecord
  2
*D42
340
0
  0
BLOCK_RECORD
  5
22C85
330
7466
100
AcDbSymbolTableRecord
100
AcDbBlockTableRecord
  2
*D43
340
0
  0
BLOCK_RECORD
  5
22C91
330
7466
100
AcDbSymbolTableRecord
100
AcDbBlockTableRecord
  2
*D44
340
0
  0
BLOCK_RECORD
  5
22C9D
330
7466
100
AcDbSymbolTableRecord
100
AcDbBlockTableRecord
  2
*D45
340
0
  0
BLOCK_RECORD
  5
22CAE
330
7466
100
AcDbSymbolTableRecord
100
AcDbBlockTableRecord
  2
*D46
340
0
  0
BLOCK_RECORD
  5
22CBA
330
7466
100
AcDbSymbolTableRecord
100
AcDbBlockTableRecord
  2
A$C3DE57ED0
340
0
  0
BLOCK_RECORD
  5
230B1
330
7466
100
AcDbSymbolTableRecord
100
AcDbBlockTableRecord
  2
*D48
340
0
  0
BLOCK_RECORD
  5
230BD
330
7466
100
AcDbSymbolTableRecord
100
AcDbBlockTableRecord
  2
*D49
340
0
  0
BLOCK_RECORD
  5
230C9
330
7466
100
AcDbSymbolTableRecord
100
AcDbBlockTableRecord
  2
*D50
340
0
  0
BLOCK_RECORD
  5
230DA
330
7466
100
AcDbSymbolTableRecord
100
AcDbBlockTableRecord
  2
*D51
340
0
  0
BLOCK_RECORD
  5
230E6
330
7466
100
AcDbSymbolTableRecord
100
AcDbBlockTableRecord
  2
*D52
340
0
  0
BLOCK_RECORD
  5
230F2
330
7466
100
AcDbSymbolTableRecord
100
AcDbBlockTableRecord
  2
*D53
340
0
  0
ENDTAB
  0
ENDSEC
  0
SECTION
  2
BLOCKS
  0
BLOCK
  5
7489
330
747D
100
AcDbEntity
  8
0
100
AcDbBlockBegin
  2
*MODEL_SPACE
 70
     0
 10
0.0
 20
0.0
 30
0.0
  3
*MODEL_SPACE
  1

  0
ENDBLK
  5
748A
330
747D
100
AcDbEntity
  8
0
100
AcDbBlockEnd
  0
BLOCK
  5
7487
330
747A
100
AcDbEntity
 67
     1
  8
0
100
AcDbBlockBegin
  2
*PAPER_SPACE
 70
     0
 10
0.0
 20
0.0
 30
0.0
  3
*PAPER_SPACE
  1

  0
ENDBLK
  5
7488
330
747A
100
AcDbEntity
 67
     1
  8
0
100
AcDbBlockEnd
  0
BLOCK
  5
DEAD
330
DEAC
100
AcDbEntity
  8
0
100
AcDbBlockBegin
  2
_OPEN
 70
     0
 10
0.0
 20
0.0
 30
0.0
  3
_OPEN
  1

  0
LINE
  5
DEAE
330
DEAC
100
AcDbEntity
  8
0
  6
ByBlock
 62
     0
100
AcDbLine
 10
-1.0
 20
0.1666666666666666
 30
0.0
 11
0.0
 21
0.0
 31
0.0
  0
LINE
  5
DEAF
330
DEAC
100
AcDbEntity
  8
0
  6
ByBlock
 62
     0
100
AcDbLine
 10
0.0
 20
0.0
 30
0.0
 11
-1.0
 21
-0.1666666666666666
 31
0.0
  0
LINE
  5
DEB0
330
DEAC
100
AcDbEntity
  8
0
  6
ByBlock
 62
     0
100
AcDbLine
 10
0.0
 20
0.0
 30
0.0
 11
-1.0
 21
0.0
 31
0.0
  0
ENDBLK
  5
DEB1
330
DEAC
100
AcDbEntity
  8
0
100
AcDbBlockEnd
  0
BLOCK
  5
F771
330
F770
100
AcDbEntity
  8
0
 48
50.0
100
AcDbBlockBegin
  2
_DOTSMALL
 70
     0
 10
0.0
 20
0.0
 30
0.0
  3
_DOTSMALL
  1

  0
LWPOLYLINE
  5
F772
330
F770
100
AcDbEntity
  8
0
  6
ByBlock
 62
     0
 48
50.0
100
AcDbPolyline
 90
        2
 70
     1
 43
0.5
 10
-0.0625
 20
0.0
 42
1.0
 10
0.0625
 20
0.0
 42
1.0
  0
ENDBLK
  5
F776
330
F770
100
AcDbEntity
  8
0
 48
50.0
100
AcDbBlockEnd
  0
BLOCK
  5
164BA
330
164B4
100
AcDbEntity
  8
0
 48
50.0
100
AcDbBlockBegin
  2
_DOT
 70
     0
 10
0.0
 20
0.0
 30
0.0
  3
_DOT
  1

  0
LWPOLYLINE
  5
164B5
330
164B4
100
AcDbEntity
  8
0
  6
ByBlock
 62
     0
 48
50.0
100
AcDbPolyline
 90
        2
 70
     1
 43
0.5
 10
-0.25
 20
0.0
 42
1.0
 10
0.25
 20
0.0
 42
1.0
  0
LINE
  5
164B9
330
164B4
100
AcDbEntity
  8
0
  6
ByBlock
 62
     0
 48
50.0
100
AcDbLine
 10
-0.5
 20
0.0
 30
0.0
 11
-1.0
 21
0.0
 31
0.0
  0
ENDBLK
  5
164BB
330
164B4
100
AcDbEntity
  8
0
 48
50.0
100
AcDbBlockEnd
  0
BLOCK
  5
18BC9
330
18BC8
100
AcDbEntity
  8
0
 48
50.0
100
AcDbBlockBegin
  2
*D3
 70
     1
 10
0.0
 20
0.0
 30
0.0
  3
*D3
  1

  0
LINE
  5
18BCA
330
18BC8
100
AcDbEntity
  8
寸法
 62
     0
 48
50.0
370
    -2
100
AcDbLine
 10
7649.896575106999
 20
9636.123139034717
 30
0.0
 11
8702.429862581047
 21
9636.123139034717
 31
0.0
  0
LINE
  5
18BCB
330
18BC8
100
AcDbEntity
  8
寸法
 62
     0
 48
50.0
370
    -2
100
AcDbLine
 10
7649.896575106973
 20
7846.123139034709
 30
0.0
 11
8702.429862581047
 21
7846.123139034709
 31
0.0
  0
LINE
  5
18BCC
330
18BC8
100
AcDbEntity
  8
寸法
 62
     0
 48
50.0
370
    -2
100
AcDbLine
 10
8642.429862581046
 20
9636.123139034717
 30
0.0
 11
8642.429862581046
 21
7846.123139034709
 31
0.0
  0
INSERT
  5
18BCD
330
18BC8
100
AcDbEntity
  8
寸法
 62
     0
 48
50.0
370
    -2
100
AcDbBlockReference
  2
_DOTSMALL
 10
8642.429862581046
 20
9636.123139034717
 30
0.0
 41
100.0
 42
100.0
 43
100.0
 50
90.0
  0
INSERT
  5
18BCE
330
18BC8
100
AcDbEntity
  8
寸法
 62
     0
 48
50.0
370
    -2
100
AcDbBlockReference
  2
_DOTSMALL
 10
8642.429862581046
 20
7846.123139034709
 30
0.0
 41
100.0
 42
100.0
 43
100.0
 50
270.0
  0
MTEXT
  5
18BCF
330
18BC8
100
AcDbEntity
  8
寸法
 62
     7
 48
50.0
100
AcDbMText
 10
8542.429862581045
 20
8741.123139034712
 30
0.0
 40
120.0
 41
0.0
 71
     5
 72
     1
  1
\A1;1790
  7
STYLE1
 11
0.0000000000000001
 21
1.0
 31
0.0
 73
     1
 44
1.0
1001
ACAD
1000
MTEXTBEGIN
1070
    73
1070
     1
1070
    44
1040
1.0
1070
    74
1070
     0
1000
MTEXTEND
  0
POINT
  5
18BD0
330
18BC8
100
AcDbEntity
  8
DEFPOINTS
 62
     0
 48
50.0
100
AcDbPoint
 10
7629.896575106998
 20
9636.123139034717
 30
0.0
  0
POINT
  5
18BD1
330
18BC8
100
AcDbEntity
  8
DEFPOINTS
 62
     0
 48
50.0
100
AcDbPoint
 10
7629.896575106974
 20
7846.123139034709
 30
0.0
  0
POINT
  5
18BD2
330
18BC8
100
AcDbEntity
  8
DEFPOINTS
 62
     0
 48
50.0
100
AcDbPoint
 10
8642.429862581046
 20
7846.123139034709
 30
0.0
  0
ENDBLK
  5
18BD3
330
18BC8
100
AcDbEntity
  8
0
 48
50.0
100
AcDbBlockEnd
  0
BLOCK
  5
18BD5
330
18BD4
100
AcDbEntity
  8
0
 48
50.0
100
AcDbBlockBegin
  2
*D4
 70
     1
 10
0.0
 20
0.0
 30
0.0
  3
*D4
  1

  0
LINE
  5
18BD6
330
18BD4
100
AcDbEntity
  8
寸法
 62
     0
 48
50.0
370
    -2
100
AcDbLine
 10
4214.896575106998
 20
9656.123139034622
 30
0.0
 11
4214.896575106998
 21
10211.93135865972
 31
0.0
  0
LINE
  5
18BD7
330
18BD4
100
AcDbEntity
  8
寸法
 62
     0
 48
50.0
370
    -2
100
AcDbLine
 10
7574.896575106999
 20
9656.123139034718
 30
0.0
 11
7574.896575106999
 21
10211.93135865972
 31
0.0
  0
LINE
  5
18BD8
330
18BD4
100
AcDbEntity
  8
寸法
 62
     0
 48
50.0
370
    -2
100
AcDbLine
 10
4214.896575106998
 20
10151.93135865972
 30
0.0
 11
7574.896575106999
 21
10151.93135865972
 31
0.0
  0
INSERT
  5
18BD9
330
18BD4
100
AcDbEntity
  8
寸法
 62
     0
 48
50.0
370
    -2
100
AcDbBlockReference
  2
_DOTSMALL
 10
4214.896575106998
 20
10151.93135865972
 30
0.0
 41
100.0
 42
100.0
 43
100.0
 50
180.0
  0
INSERT
  5
18BDA
330
18BD4
100
AcDbEntity
  8
寸法
 62
     0
 48
50.0
370
    -2
100
AcDbBlockReference
  2
_DOTSMALL
 10
7574.896575106999
 20
10151.93135865972
 30
0.0
 41
100.0
 42
100.0
 43
100.0
  0
MTEXT
  5
18BDB
330
18BD4
100
AcDbEntity
  8
寸法
 62
     7
 48
50.0
100
AcDbMText
 10
5894.896575106997
 20
10251.94316968334
 30
0.0
 40
120.0
 41
0.0
 71
     5
 72
     1
  1
\A1;8X420=3360
  7
STYLE1
 73
     1
 44
1.0
1001
ACAD
1000
MTEXTBEGIN
1070
    73
1070
     1
1070
    44
1040
1.0
1070
    74
1070
     0
1000
MTEXTEND
  0
POINT
  5
18BDC
330
18BD4
100
AcDbEntity
  8
DEFPOINTS
 62
     0
 48
50.0
100
AcDbPoint
 10
4214.896575106998
 20
9636.123139034623
 30
0.0
  0
POINT
  5
18BDD
330
18BD4
100
AcDbEntity
  8
DEFPOINTS
 62
     0
 48
50.0
100
AcDbPoint
 10
7574.896575106999
 20
9636.123139034717
 30
0.0
  0
POINT
  5
18BDE
330
18BD4
100
AcDbEntity
  8
DEFPOINTS
 62
     0
 48
50.0
100
AcDbPoint
 10
7574.896575106999
 20
10151.93135865972
 30
0.0
  0
ENDBLK
  5
18BDF
330
18BD4
100
AcDbEntity
  8
0
 48
50.0
100
AcDbBlockEnd
  0
BLOCK
  5
18BE1
330
18BE0
100
AcDbEntity
  8
0
 48
50.0
100
AcDbBlockBegin
  2
*D5
 70
     1
 10
0.0
 20
0.0
 30
0.0
  3
*D5
  1

  0
LINE
  5
18BE2
330
18BE0
100
AcDbEntity
  8
寸法
 62
     0
 48
50.0
370
    -2
100
AcDbLine
 10
7574.896575106999
 20
9656.123139034718
 30
0.0
 11
7574.896575106999
 21
10211.9313586597
 31
0.0
  0
LINE
  5
18BE3
330
18BE0
100
AcDbEntity
  8
寸法
 62
     0
 48
50.0
370
    -2
100
AcDbLine
 10
7629.896575106998
 20
9656.123139034718
 30
0.0
 11
7629.896575106998
 21
10211.9313586597
 31
0.0
  0
LINE
  5
18BE4
330
18BE0
100
AcDbEntity
  8
寸法
 62
     0
 48
50.0
370
    -2
100
AcDbLine
 10
7574.896575106999
 20
10151.9313586597
 30
0.0
 11
7474.896575106999
 21
10151.9313586597
 31
0.0
  0
LINE
  5
18BE5
330
18BE0
100
AcDbEntity
  8
寸法
 62
     0
 48
50.0
370
    -2
100
AcDbLine
 10
7629.896575106998
 20
10151.9313586597
 30
0.0
 11
8046.867137855477
 21
10151.9313586597
 31
0.0
  0
LINE
  5
18BE6
330
18BE0
100
AcDbEntity
  8
寸法
 62
     0
 48
50.0
370
    -2
100
AcDbLine
 10
7574.896575106999
 20
10151.9313586597
 30
0.0
 11
7629.896575106998
 21
10151.9313586597
 31
0.0
  0
INSERT
  5
18BE7
330
18BE0
100
AcDbEntity
  8
寸法
 62
     0
 48
50.0
370
    -2
100
AcDbBlockReference
  2
_DOTSMALL
 10
7574.896575106999
 20
10151.9313586597
 30
0.0
 41
100.0
 42
100.0
 43
100.0
  0
INSERT
  5
18BE8
330
18BE0
100
AcDbEntity
  8
寸法
 62
     0
 48
50.0
370
    -2
100
AcDbBlockReference
  2
_DOTSMALL
 10
7629.896575106998
 20
10151.9313586597
 30
0.0
 41
100.0
 42
100.0
 43
100.0
 50
180.0
  0
MTEXT
  5
18BE9
330
18BE0
100
AcDbEntity
  8
寸法
 62
     7
 48
50.0
100
AcDbMText
 10
7938.381856481237
 20
10251.9313586597
 30
0.0
 40
120.0
 41
0.0
 71
     5
 72
     1
  1
\A1;55
  7
STYLE1
 73
     1
 44
1.0
1001
ACAD
1000
MTEXTBEGIN
1070
    73
1070
     1
1070
    44
1040
1.0
1070
    74
1070
     0
1000
MTEXTEND
  0
POINT
  5
18BEA
330
18BE0
100
AcDbEntity
  8
DEFPOINTS
 62
     0
 48
50.0
100
AcDbPoint
 10
7574.896575106999
 20
9636.123139034717
 30
0.0
  0
POINT
  5
18BEB
330
18BE0
100
AcDbEntity
  8
DEFPOINTS
 62
     0
 48
50.0
100
AcDbPoint
 10
7629.896575106998
 20
9636.123139034717
 30
0.0
  0
POINT
  5
18BEC
330
18BE0
100
AcDbEntity
  8
DEFPOINTS
 62
     0
 48
50.0
100
AcDbPoint
 10
7629.896575106998
 20
10151.9313586597
 30
0.0
  0
ENDBLK
  5
18BED
330
18BE0
100
AcDbEntity
  8
0
 48
50.0
100
AcDbBlockEnd
  0
BLOCK
  5
18BEF
330
18BEE
100
AcDbEntity
  8
0
 48
50.0
100
AcDbBlockBegin
  2
*D6
 70
     1
 10
0.0
 20
0.0
 30
0.0
  3
*D6
  1

  0
LINE
  5
18BF0
330
18BEE
100
AcDbEntity
  8
寸法
 62
     0
 48
50.0
370
    -2
100
AcDbLine
 10
7649.896575106999
 20
9636.123139034717
 30
0.0
 11
8337.32292084141
 21
9636.123139034717
 31
0.0
  0
LINE
  5
18BF1
330
18BEE
100
AcDbEntity
  8
寸法
 62
     0
 48
50.0
370
    -2
100
AcDbLine
 10
7649.896575106999
 20
9581.123139034721
 30
0.0
 11
8337.32292084141
 21
9581.123139034721
 31
0.0
  0
LINE
  5
18BF2
330
18BEE
100
AcDbEntity
  8
寸法
 62
     0
 48
50.0
370
    -2
100
AcDbLine
 10
8277.322920841411
 20
9581.123139034721
 30
0.0
 11
8277.322920841411
 21
9481.123139034719
 31
0.0
  0
LINE
  5
18BF3
330
18BEE
100
AcDbEntity
  8
寸法
 62
     0
 48
50.0
370
    -2
100
AcDbLine
 10
8277.322920841411
 20
9636.123139034717
 30
0.0
 11
8277.322920841411
 21
10053.09370178319
 31
0.0
  0
LINE
  5
18BF4
330
18BEE
100
AcDbEntity
  8
寸法
 62
     0
 48
50.0
370
    -2
100
AcDbLine
 10
8277.322920841411
 20
9581.123139034721
 30
0.0
 11
8277.322920841411
 21
9636.123139034717
 31
0.0
  0
INSERT
  5
18BF5
330
18BEE
100
AcDbEntity
  8
寸法
 62
     0
 48
50.0
370
    -2
100
AcDbBlockReference
  2
_DOTSMALL
 10
8277.322920841411
 20
9581.123139034721
 30
0.0
 41
100.0
 42
100.0
 43
100.0
 50
90.0
  0
INSERT
  5
18BF6
330
18BEE
100
AcDbEntity
  8
寸法
 62
     0
 48
50.0
370
    -2
100
AcDbBlockReference
  2
_DOTSMALL
 10
8277.322920841411
 20
9636.123139034717
 30
0.0
 41
100.0
 42
100.0
 43
100.0
 50
270.0
  0
MTEXT
  5
18BF7
330
18BEE
100
AcDbEntity
  8
寸法
 62
     7
 48
50.0
100
AcDbMText
 10
8177.32292084141
 20
9944.608420408957
 30
0.0
 40
120.0
 41
0.0
 71
     5
 72
     1
  1
\A1;55
  7
STYLE1
 11
0.0000000000000001
 21
1.0
 31
0.0
 73
     1
 44
1.0
1001
ACAD
1000
MTEXTBEGIN
1070
    73
1070
     1
1070
    44
1040
1.0
1070
    74
1070
     0
1000
MTEXTEND
  0
POINT
  5
18BF8
330
18BEE
100
AcDbEntity
  8
DEFPOINTS
 62
     0
 48
50.0
100
AcDbPoint
 10
7629.896575106998
 20
9636.123139034717
 30
0.0
  0
POINT
  5
18BF9
330
18BEE
100
AcDbEntity
  8
DEFPOINTS
 62
     0
 48
50.0
100
AcDbPoint
 10
7629.896575106998
 20
9581.123139034721
 30
0.0
  0
POINT
  5
18BFA
330
18BEE
100
AcDbEntity
  8
DEFPOINTS
 62
     0
 48
50.0
100
AcDbPoint
 10
8277.322920841411
 20
9581.123139034721
 30
0.0
  0
ENDBLK
  5
18BFB
330
18BEE
100
AcDbEntity
  8
0
 48
50.0
100
AcDbBlockEnd
  0
BLOCK
  5
18BFD
330
18BFC
100
AcDbEntity
  8
0
 48
50.0
100
AcDbBlockBegin
  2
*D7
 70
     1
 10
0.0
 20
0.0
 30
0.0
  3
*D7
  1

  0
LINE
  5
18BFE
330
18BFC
100
AcDbEntity
  8
寸法
 62
     0
 48
50.0
370
    -2
100
AcDbLine
 10
4159.896575106963
 20
9656.123139034622
 30
0.0
 11
4159.896575106963
 21
10211.9313586596
 31
0.0
  0
LINE
  5
18BFF
330
18BFC
100
AcDbEntity
  8
寸法
 62
     0
 48
50.0
370
    -2
100
AcDbLine
 10
4214.896575106998
 20
9656.123139034622
 30
0.0
 11
4214.896575106998
 21
10211.9313586596
 31
0.0
  0
LINE
  5
18C00
330
18BFC
100
AcDbEntity
  8
寸法
 62
     0
 48
50.0
370
    -2
100
AcDbLine
 10
4214.896575106998
 20
10151.9313586596
 30
0.0
 11
4314.896575106998
 21
10151.9313586596
 31
0.0
  0
LINE
  5
18C01
330
18BFC
100
AcDbEntity
  8
寸法
 62
     0
 48
50.0
370
    -2
100
AcDbLine
 10
4159.896575106963
 20
10151.9313586596
 30
0.0
 11
3742.926012358486
 21
10151.9313586596
 31
0.0
  0
LINE
  5
18C02
330
18BFC
100
AcDbEntity
  8
寸法
 62
     0
 48
50.0
370
    -2
100
AcDbLine
 10
4214.896575106998
 20
10151.9313586596
 30
0.0
 11
4159.896575106963
 21
10151.9313586596
 31
0.0
  0
INSERT
  5
18C03
330
18BFC
100
AcDbEntity
  8
寸法
 62
     0
 48
50.0
370
    -2
100
AcDbBlockReference
  2
_DOTSMALL
 10
4214.896575106998
 20
10151.9313586596
 30
0.0
 41
100.0
 42
100.0
 43
100.0
 50
180.0
  0
INSERT
  5
18C04
330
18BFC
100
AcDbEntity
  8
寸法
 62
     0
 48
50.0
370
    -2
100
AcDbBlockReference
  2
_DOTSMALL
 10
4159.896575106963
 20
10151.9313586596
 30
0.0
 41
100.0
 42
100.0
 43
100.0
  0
MTEXT
  5
18C05
330
18BFC
100
AcDbEntity
  8
寸法
 62
     7
 48
50.0
100
AcDbMText
 10
3851.411293732725
 20
10251.9313586596
 30
0.0
 40
120.0
 41
0.0
 71
     5
 72
     1
  1
\A1;55
  7
STYLE1
 73
     1
 44
1.0
1001
ACAD
1000
MTEXTBEGIN
1070
    73
1070
     1
1070
    44
1040
1.0
1070
    74
1070
     0
1000
MTEXTEND
  0
POINT
  5
18C06
330
18BFC
100
AcDbEntity
  8
DEFPOINTS
 62
     0
 48
50.0
100
AcDbPoint
 10
4159.896575106963
 20
9636.123139034623
 30
0.0
  0
POINT
  5
18C07
330
18BFC
100
AcDbEntity
  8
DEFPOINTS
 62
     0
 48
50.0
100
AcDbPoint
 10
4214.896575106998
 20
9636.123139034623
 30
0.0
  0
POINT
  5
18C08
330
18BFC
100
AcDbEntity
  8
DEFPOINTS
 62
     0
 48
50.0
100
AcDbPoint
 10
4214.896575106998
 20
10151.9313586596
 30
0.0
  0
ENDBLK
  5
18C09
330
18BFC
100
AcDbEntity
  8
0
 48
50.0
100
AcDbBlockEnd
  0
BLOCK
  5
18C0B
330
18C0A
100
AcDbEntity
  8
0
 48
50.0
100
AcDbBlockBegin
  2
*D8
 70
     1
 10
0.0
 20
0.0
 30
0.0
  3
*D8
  1

  0
LINE
  5
18C0C
330
18C0A
100
AcDbEntity
  8
寸法
 62
     0
 48
50.0
370
    -2
100
AcDbLine
 10
4159.896575106992
 20
7826.123139034546
 30
0.0
 11
4159.896575106992
 21
6804.372203245664
 31
0.0
  0
LINE
  5
18C0D
330
18C0A
100
AcDbEntity
  8
寸法
 62
     0
 48
50.0
370
    -2
100
AcDbLine
 10
7629.896575106974
 20
7826.123139034674
 30
0.0
 11
7629.896575106974
 21
6804.372203245664
 31
0.0
  0
LINE
  5
18C0E
330
18C0A
100
AcDbEntity
  8
寸法
 62
     0
 48
50.0
370
    -2
100
AcDbLine
 10
4159.896575106992
 20
6864.372203245665
 30
0.0
 11
7629.896575106974
 21
6864.372203245665
 31
0.0
  0
INSERT
  5
18C0F
330
18C0A
100
AcDbEntity
  8
寸法
 62
     0
 48
50.0
370
    -2
100
AcDbBlockReference
  2
_DOTSMALL
 10
4159.896575106992
 20
6864.372203245665
 30
0.0
 41
100.0
 42
100.0
 43
100.0
 50
180.0
  0
INSERT
  5
18C10
330
18C0A
100
AcDbEntity
  8
寸法
 62
     0
 48
50.0
370
    -2
100
AcDbBlockReference
  2
_DOTSMALL
 10
7629.896575106974
 20
6864.372203245665
 30
0.0
 41
100.0
 42
100.0
 43
100.0
  0
MTEXT
  5
18C11
330
18C0A
100
AcDbEntity
  8
寸法
 62
     7
 48
50.0
100
AcDbMText
 10
5911.12376113973
 20
6964.372203245665
 30
0.0
 40
120.0
 41
0.0
 71
     5
 72
     1
  1
\A1;3470
  7
STYLE1
 73
     1
 44
1.0
1001
ACAD
1000
MTEXTBEGIN
1070
    73
1070
     1
1070
    44
1040
1.0
1070
    74
1070
     0
1000
MTEXTEND
  0
POINT
  5
18C12
330
18C0A
100
AcDbEntity
  8
DEFPOINTS
 62
     0
 48
50.0
100
AcDbPoint
 10
4159.896575106992
 20
7846.123139034546
 30
0.0
  0
POINT
  5
18C13
330
18C0A
100
AcDbEntity
  8
DEFPOINTS
 62
     0
 48
50.0
100
AcDbPoint
 10
7629.896575106974
 20
7846.123139034673
 30
0.0
  0
POINT
  5
18C14
330
18C0A
100
AcDbEntity
  8
DEFPOINTS
 62
     0
 48
50.0
100
AcDbPoint
 10
7629.896575106974
 20
6864.372203245665
 30
0.0
  0
ENDBLK
  5
18C15
330
18C0A
100
AcDbEntity
  8
0
 48
50.0
100
AcDbBlockEnd
  0
BLOCK
  5
18C17
330
18C16
100
AcDbEntity
  8
0
 48
50.0
100
AcDbBlockBegin
  2
*D9
 70
     1
 10
0.0
 20
0.0
 30
0.0
  3
*D9
  1

  0
LINE
  5
18C18
330
18C16
100
AcDbEntity
  8
寸法
 62
     0
 48
50.0
370
    -2
100
AcDbLine
 10
7649.896575106973
 20
7901.123139034706
 30
0.0
 11
8337.322920841385
 21
7901.123139034706
 31
0.0
  0
LINE
  5
18C19
330
18C16
100
AcDbEntity
  8
寸法
 62
     0
 48
50.0
370
    -2
100
AcDbLine
 10
7649.896575106973
 20
7846.123139034709
 30
0.0
 11
8337.322920841385
 21
7846.123139034709
 31
0.0
  0
LINE
  5
18C1A
330
18C16
100
AcDbEntity
  8
寸法
 62
     0
 48
50.0
370
    -2
100
AcDbLine
 10
8277.322920841385
 20
7901.123139034706
 30
0.0
 11
8277.322920841385
 21
8001.123139034707
 31
0.0
  0
LINE
  5
18C1B
330
18C16
100
AcDbEntity
  8
寸法
 62
     0
 48
50.0
370
    -2
100
AcDbLine
 10
8277.322920841385
 20
7846.123139034709
 30
0.0
 11
8277.322920841385
 21
7429.152576286229
 31
0.0
  0
LINE
  5
18C1C
330
18C16
100
AcDbEntity
  8
寸法
 62
     0
 48
50.0
370
    -2
100
AcDbLine
 10
8277.322920841385
 20
7901.123139034706
 30
0.0
 11
8277.322920841385
 21
7846.123139034709
 31
0.0
  0
INSERT
  5
18C1D
330
18C16
100
AcDbEntity
  8
寸法
 62
     0
 48
50.0
370
    -2
100
AcDbBlockReference
  2
_DOTSMALL
 10
8277.322920841385
 20
7901.123139034706
 30
0.0
 41
100.0
 42
100.0
 43
100.0
 50
270.0
  0
INSERT
  5
18C1E
330
18C16
100
AcDbEntity
  8
寸法
 62
     0
 48
50.0
370
    -2
100
AcDbBlockReference
  2
_DOTSMALL
 10
8277.322920841385
 20
7846.123139034709
 30
0.0
 41
100.0
 42
100.0
 43
100.0
 50
90.0
  0
MTEXT
  5
18C1F
330
18C16
100
AcDbEntity
  8
寸法
 62
     7
 48
50.0
100
AcDbMText
 10
8177.322920841383
 20
7537.637857660469
 30
0.0
 40
120.0
 41
0.0
 71
     5
 72
     1
  1
\A1;55
  7
STYLE1
 11
0.0000000000000001
 21
1.0
 31
0.0
 73
     1
 44
1.0
1001
ACAD
1000
MTEXTBEGIN
1070
    73
1070
     1
1070
    44
1040
1.0
1070
    74
1070
     0
1000
MTEXTEND
  0
POINT
  5
18C20
330
18C16
100
AcDbEntity
  8
DEFPOINTS
 62
     0
 48
50.0
100
AcDbPoint
 10
7629.896575106974
 20
7901.123139034706
 30
0.0
  0
POINT
  5
18C21
330
18C16
100
AcDbEntity
  8
DEFPOINTS
 62
     0
 48
50.0
100
AcDbPoint
 10
7629.896575106974
 20
7846.123139034709
 30
0.0
  0
POINT
  5
18C22
330
18C16
100
AcDbEntity
  8
DEFPOINTS
 62
     0
 48
50.0
100
AcDbPoint
 10
8277.322920841385
 20
7846.123139034709
 30
0.0
  0
ENDBLK
  5
18C23
330
18C16
100
AcDbEntity
  8
0
 48
50.0
100
AcDbBlockEnd
  0
BLOCK
  5
18C25
330
18C24
100
AcDbEntity
  8
0
 48
50.0
100
AcDbBlockBegin
  2
*D10
 70
     1
 10
0.0
 20
0.0
 30
0.0
  3
*D10
  1

  0
LINE
  5
18C26
330
18C24
100
AcDbEntity
  8
寸法
 62
     0
 48
50.0
370
    -2
100
AcDbLine
 10
6533.037591258376
 20
9136.123139034728
 30
0.0
 11
6465.083950562664
 21
8882.516699399049
 31
0.0
  0
LINE
  5
18C27
330
18C24
100
AcDbEntity
  8
寸法
 62
     0
 48
50.0
370
    -2
100
AcDbLine
 10
7596.037591258388
 20
9136.123139034721
 30
0.0
 11
7528.083950562677
 21
8882.516699399049
 31
0.0
  0
LINE
  5
18C28
330
18C24
100
AcDbEntity
  8
寸法
 62
     0
 48
50.0
370
    -2
100
AcDbLine
 10
6481.160902108531
 20
8942.51669939905
 30
0.0
 11
7544.160902108544
 21
8942.51669939905
 31
0.0
  0
INSERT
  5
18C29
330
18C24
100
AcDbEntity
  8
寸法
 62
     0
 48
50.0
370
    -2
100
AcDbBlockReference
  2
_DOTSMALL
 10
6481.160902108531
 20
8942.51669939905
 30
0.0
 41
100.0
 42
100.0
 43
100.0
 50
180.0
  0
INSERT
  5
18C2A
330
18C24
100
AcDbEntity
  8
寸法
 62
     0
 48
50.0
370
    -2
100
AcDbBlockReference
  2
_DOTSMALL
 10
7544.160902108544
 20
8942.51669939905
 30
0.0
 41
100.0
 42
100.0
 43
100.0
  0
MTEXT
  5
18C2B
330
18C24
100
AcDbEntity
  8
寸法
 62
     7
 48
50.0
100
AcDbMText
 10
7061.28653022935
 20
9042.516699399049
 30
0.0
 40
120.0
 41
0.0
 71
     5
 72
     1
  1
\A1;1063
  7
STYLE1
 73
     1
 44
1.0
1001
ACAD
1000
MTEXTBEGIN
1070
    73
1070
     1
1070
    44
1040
1.0
1070
    74
1070
     0
1000
MTEXTEND
  0
POINT
  5
18C2C
330
18C24
100
AcDbEntity
  8
DEFPOINTS
 62
     0
 48
50.0
100
AcDbPoint
 10
6538.396575106998
 20
9156.123139034727
 30
0.0
  0
POINT
  5
18C2D
330
18C24
100
AcDbEntity
  8
DEFPOINTS
 62
     0
 48
50.0
100
AcDbPoint
 10
7601.39657510701
 20
9156.12313903472
 30
0.0
  0
POINT
  5
18C2E
330
18C24
100
AcDbEntity
  8
DEFPOINTS
 62
     0
 48
50.0
100
AcDbPoint
 10
7544.160902108544
 20
8942.51669939905
 30
0.0
  0
ENDBLK
  5
18C2F
330
18C24
100
AcDbEntity
  8
0
 48
50.0
100
AcDbBlockEnd
  0
BLOCK
  5
18C31
330
18C30
100
AcDbEntity
  8
0
 48
50.0
100
AcDbBlockBegin
  2
*D11
 70
     1
 10
0.0
 20
0.0
 30
0.0
  3
*D11
  1

  0
LINE
  5
18C32
330
18C30
100
AcDbEntity
  8
寸法
 62
     0
 48
50.0
370
    -2
100
AcDbLine
 10
7621.396575106999
 20
9600.764155186094
 30
0.0
 11
8016.754300969024
 21
9494.828371819961
 31
0.0
  0
LINE
  5
18C33
330
18C30
100
AcDbEntity
  8
寸法
 62
     0
 48
50.0
370
    -2
100
AcDbLine
 10
7621.396575106999
 20
9150.764155186099
 30
0.0
 11
8016.754300969024
 21
9044.828371819964
 31
0.0
  0
LINE
  5
18C34
330
18C30
100
AcDbEntity
  8
寸法
 62
     0
 48
50.0
370
    -2
100
AcDbLine
 10
7956.754300969024
 20
9510.905323365827
 30
0.0
 11
7956.754300969024
 21
9060.90532336583
 31
0.0
  0
INSERT
  5
18C35
330
18C30
100
AcDbEntity
  8
寸法
 62
     0
 48
50.0
370
    -2
100
AcDbBlockReference
  2
_DOTSMALL
 10
7956.754300969024
 20
9510.905323365827
 30
0.0
 41
100.0
 42
100.0
 43
100.0
 50
90.0
  0
INSERT
  5
18C36
330
18C30
100
AcDbEntity
  8
寸法
 62
     0
 48
50.0
370
    -2
100
AcDbBlockReference
  2
_DOTSMALL
 10
7956.754300969024
 20
9060.90532336583
 30
0.0
 41
100.0
 42
100.0
 43
100.0
 50
270.0
  0
MTEXT
  5
18C37
330
18C30
100
AcDbEntity
  8
寸法
 62
     7
 48
50.0
100
AcDbMText
 10
7856.754300969022
 20
9285.905323365829
 30
0.0
 40
120.0
 41
0.0
 71
     5
 72
     1
  1
\A1;450
  7
STYLE1
 11
0.0000000000000001
 21
1.0
 31
0.0
 73
     1
 44
1.0
1001
ACAD
1000
MTEXTBEGIN
1070
    73
1070
     1
1070
    44
1040
1.0
1070
    74
1070
     0
1000
MTEXTEND
  0
POINT
  5
18C38
330
18C30
100
AcDbEntity
  8
DEFPOINTS
 62
     0
 48
50.0
100
AcDbPoint
 10
7601.396575106999
 20
9606.123139034718
 30
0.0
  0
POINT
  5
18C39
330
18C30
100
AcDbEntity
  8
DEFPOINTS
 62
     0
 48
50.0
100
AcDbPoint
 10
7601.396575106999
 20
9156.12313903472
 30
0.0
  0
POINT
  5
18C3A
330
18C30
100
AcDbEntity
  8
DEFPOINTS
 62
     0
 48
50.0
100
AcDbPoint
 10
7956.754300969024
 20
9060.90532336583
 30
0.0
  0
ENDBLK
  5
18C3B
330
18C30
100
AcDbEntity
  8
0
 48
50.0
100
AcDbBlockEnd
  0
BLOCK
  5
18C3D
330
18C3C
100
AcDbEntity
  8
0
 48
50.0
100
AcDbBlockBegin
  2
*D12
 70
     1
 10
0.0
 20
0.0
 30
0.0
  3
*D12
  1

  0
LINE
  5
18C3E
330
18C3C
100
AcDbEntity
  8
寸法
 62
     0
 48
50.0
370
    -2
100
AcDbLine
 10
7649.896575106999
 20
9581.123139034721
 30
0.0
 11
8337.32292084141
 21
9581.123139034721
 31
0.0
  0
LINE
  5
18C3F
330
18C3C
100
AcDbEntity
  8
寸法
 62
     0
 48
50.0
370
    -2
100
AcDbLine
 10
7649.896575106973
 20
7901.123139034706
 30
0.0
 11
8337.32292084141
 21
7901.123139034706
 31
0.0
  0
LINE
  5
18C40
330
18C3C
100
AcDbEntity
  8
寸法
 62
     0
 48
50.0
370
    -2
100
AcDbLine
 10
8277.322920841411
 20
9581.123139034721
 30
0.0
 11
8277.322920841411
 21
7901.123139034706
 31
0.0
  0
INSERT
  5
18C41
330
18C3C
100
AcDbEntity
  8
寸法
 62
     0
 48
50.0
370
    -2
100
AcDbBlockReference
  2
_DOTSMALL
 10
8277.322920841411
 20
9581.123139034721
 30
0.0
 41
100.0
 42
100.0
 43
100.0
 50
90.0
  0
INSERT
  5
18C42
330
18C3C
100
AcDbEntity
  8
寸法
 62
     0
 48
50.0
370
    -2
100
AcDbBlockReference
  2
_DOTSMALL
 10
8277.322920841411
 20
7901.123139034706
 30
0.0
 41
100.0
 42
100.0
 43
100.0
 50
270.0
  0
MTEXT
  5
18C43
330
18C3C
100
AcDbEntity
  8
寸法
 62
     7
 48
50.0
100
AcDbMText
 10
8177.311109817788
 20
8741.123139034712
 30
0.0
 40
120.0
 41
0.0
 71
     5
 72
     1
  1
\A1;4X420=1680
  7
STYLE1
 11
0.0000000000000001
 21
1.0
 31
0.0
 73
     1
 44
1.0
1001
ACAD
1000
MTEXTBEGIN
1070
    73
1070
     1
1070
    44
1040
1.0
1070
    74
1070
     0
1000
MTEXTEND
  0
POINT
  5
18C44
330
18C3C
100
AcDbEntity
  8
DEFPOINTS
 62
     0
 48
50.0
100
AcDbPoint
 10
7629.896575106998
 20
9581.123139034721
 30
0.0
  0
POINT
  5
18C45
330
18C3C
100
AcDbEntity
  8
DEFPOINTS
 62
     0
 48
50.0
100
AcDbPoint
 10
7629.896575106974
 20
7901.123139034706
 30
0.0
  0
POINT
  5
18C46
330
18C3C
100
AcDbEntity
  8
DEFPOINTS
 62
     0
 48
50.0
100
AcDbPoint
 10
8277.322920841411
 20
7901.123139034706
 30
0.0
  0
ENDBLK
  5
18C47
330
18C3C
100
AcDbEntity
  8
0
 48
50.0
100
AcDbBlockEnd
  0
BLOCK
  5
18C49
330
18C48
100
AcDbEntity
  8
0
 48
50.0
100
AcDbBlockBegin
  2
*D13
 70
     1
 10
0.0
 20
0.0
 30
0.0
  3
*D13
  1

  0
LINE
  5
18C4A
330
18C48
100
AcDbEntity
  8
寸法
 62
     0
 48
50.0
370
    -2
100
AcDbLine
 10
4183.037591258377
 20
9136.123139034619
 30
0.0
 11
4115.083950562663
 21
8882.516699398941
 31
0.0
  0
LINE
  5
18C4B
330
18C48
100
AcDbEntity
  8
寸法
 62
     0
 48
50.0
370
    -2
100
AcDbLine
 10
5246.037591258307
 20
9136.123139034671
 30
0.0
 11
5178.08395056258
 21
8882.516699398941
 31
0.0
  0
LINE
  5
18C4C
330
18C48
100
AcDbEntity
  8
寸法
 62
     0
 48
50.0
370
    -2
100
AcDbLine
 10
4131.160902108532
 20
8942.516699398941
 30
0.0
 11
5194.160902108448
 21
8942.516699398941
 31
0.0
  0
INSERT
  5
18C4D
330
18C48
100
AcDbEntity
  8
寸法
 62
     0
 48
50.0
370
    -2
100
AcDbBlockReference
  2
_DOTSMALL
 10
4131.160902108532
 20
8942.516699398941
 30
0.0
 41
100.0
 42
100.0
 43
100.0
 50
180.0
  0
INSERT
  5
18C4E
330
18C48
100
AcDbEntity
  8
寸法
 62
     0
 48
50.0
370
    -2
100
AcDbBlockReference
  2
_DOTSMALL
 10
5194.160902108448
 20
8942.516699398941
 30
0.0
 41
100.0
 42
100.0
 43
100.0
  0
MTEXT
  5
18C4F
330
18C48
100
AcDbEntity
  8
寸法
 62
     7
 48
50.0
100
AcDbMText
 10
4658.986452655306
 20
9042.516699398941
 30
0.0
 40
120.0
 41
0.0
 71
     5
 72
     1
  1
\A1;1063
  7
STYLE1
 73
     1
 44
1.0
1001
ACAD
1000
MTEXTBEGIN
1070
    73
1070
     1
1070
    44
1040
1.0
1070
    74
1070
     0
1000
MTEXTEND
  0
POINT
  5
18C50
330
18C48
100
AcDbEntity
  8
DEFPOINTS
 62
     0
 48
50.0
100
AcDbPoint
 10
4188.396575106999
 20
9156.123139034617
 30
0.0
  0
POINT
  5
18C51
330
18C48
100
AcDbEntity
  8
DEFPOINTS
 62
     0
 48
50.0
100
AcDbPoint
 10
5251.396575106929
 20
9156.123139034672
 30
0.0
  0
POINT
  5
18C52
330
18C48
100
AcDbEntity
  8
DEFPOINTS
 62
     0
 48
50.0
100
AcDbPoint
 10
5194.160902108448
 20
8942.516699398941
 30
0.0
  0
ENDBLK
  5
18C53
330
18C48
100
AcDbEntity
  8
0
 48
50.0
100
AcDbBlockEnd
  0
BLOCK
  5
18C55
330
18C54
100
AcDbEntity
  8
0
 48
50.0
100
AcDbBlockBegin
  2
*D14
 70
     1
 10
0.0
 20
0.0
 30
0.0
  3
*D14
  1

  0
LINE
  5
18C56
330
18C54
100
AcDbEntity
  8
寸法
 62
     0
 48
50.0
370
    -2
100
AcDbLine
 10
5274.037591258307
 20
9136.123139034669
 30
0.0
 11
5206.08395056258
 21
8882.516699398941
 31
0.0
  0
LINE
  5
18C57
330
18C54
100
AcDbEntity
  8
寸法
 62
     0
 48
50.0
370
    -2
100
AcDbLine
 10
6505.037591258377
 20
9136.123139034662
 30
0.0
 11
6437.083950562653
 21
8882.516699398941
 31
0.0
  0
LINE
  5
18C58
330
18C54
100
AcDbEntity
  8
寸法
 62
     0
 48
50.0
370
    -2
100
AcDbLine
 10
5222.160902108448
 20
8942.516699398941
 30
0.0
 11
6453.16090210852
 21
8942.516699398941
 31
0.0
  0
INSERT
  5
18C59
330
18C54
100
AcDbEntity
  8
寸法
 62
     0
 48
50.0
370
    -2
100
AcDbBlockReference
  2
_DOTSMALL
 10
5222.160902108448
 20
8942.516699398941
 30
0.0
 41
100.0
 42
100.0
 43
100.0
 50
180.0
  0
INSERT
  5
18C5A
330
18C54
100
AcDbEntity
  8
寸法
 62
     0
 48
50.0
370
    -2
100
AcDbBlockReference
  2
_DOTSMALL
 10
6453.16090210852
 20
8942.516699398941
 30
0.0
 41
100.0
 42
100.0
 43
100.0
  0
MTEXT
  5
18C5B
330
18C54
100
AcDbEntity
  8
寸法
 62
     7
 48
50.0
100
AcDbMText
 10
6081.244808320626
 20
9042.528510422561
 30
0.0
 40
120.0
 41
0.0
 71
     5
 72
     1
  1
\A1;1231
  7
STYLE1
 73
     1
 44
1.0
1001
ACAD
1000
MTEXTBEGIN
1070
    73
1070
     1
1070
    44
1040
1.0
1070
    74
1070
     0
1000
MTEXTEND
  0
POINT
  5
18C5C
330
18C54
100
AcDbEntity
  8
DEFPOINTS
 62
     0
 48
50.0
100
AcDbPoint
 10
5279.396575106929
 20
9156.123139034669
 30
0.0
  0
POINT
  5
18C5D
330
18C54
100
AcDbEntity
  8
DEFPOINTS
 62
     0
 48
50.0
100
AcDbPoint
 10
6510.396575106999
 20
9156.123139034662
 30
0.0
  0
POINT
  5
18C5E
330
18C54
100
AcDbEntity
  8
DEFPOINTS
 62
     0
 48
50.0
100
AcDbPoint
 10
6453.16090210852
 20
8942.516699398941
 30
0.0
  0
ENDBLK
  5
18C5F
330
18C54
100
AcDbEntity
  8
0
 48
50.0
100
AcDbBlockEnd
  0
BLOCK
  5
18C61
330
18C60
100
AcDbEntity
  8
0
 48
50.0
100
AcDbBlockBegin
  2
*D15
 70
     1
 10
0.0
 20
0.0
 30
0.0
  3
*D15
  1

  0
LINE
  5
18C62
330
18C60
100
AcDbEntity
  8
寸法
 62
     0
 48
50.0
370
    -2
100
AcDbLine
 10
5065.896575106966
 20
7749.123139034579
 30
0.0
 11
5065.896575106966
 21
7099.952920982538
 31
0.0
  0
LINE
  5
18C63
330
18C60
100
AcDbEntity
  8
寸法
 62
     0
 48
50.0
370
    -2
100
AcDbLine
 10
6331.896575106966
 20
7749.123139034579
 30
0.0
 11
6331.896575106966
 21
7099.952920982538
 31
0.0
  0
LINE
  5
18C64
330
18C60
100
AcDbEntity
  8
寸法
 62
     0
 48
50.0
370
    -2
100
AcDbLine
 10
5065.896575106966
 20
7159.952920982537
 30
0.0
 11
6331.896575106966
 21
7159.952920982537
 31
0.0
  0
INSERT
  5
18C65
330
18C60
100
AcDbEntity
  8
寸法
 62
     0
 48
50.0
370
    -2
100
AcDbBlockReference
  2
_DOTSMALL
 10
5065.896575106966
 20
7159.952920982537
 30
0.0
 41
100.0
 42
100.0
 43
100.0
 50
180.0
  0
INSERT
  5
18C66
330
18C60
100
AcDbEntity
  8
寸法
 62
     0
 48
50.0
370
    -2
100
AcDbBlockReference
  2
_DOTSMALL
 10
6331.896575106966
 20
7159.952920982537
 30
0.0
 41
100.0
 42
100.0
 43
100.0
  0
MTEXT
  5
18C67
330
18C60
100
AcDbEntity
  8
寸法
 62
     7
 48
50.0
100
AcDbMText
 10
5711.986008735934
 20
7359.964732006159
 30
0.0
 40
120.0
 41
0.0
 71
     5
 72
     1
  1
\A1;有効開口部間口\P1266
  7
STYLE1
 73
     1
 44
1.0
1001
ACAD
1000
MTEXTBEGIN
1070
    73
1070
     1
1070
    44
1040
1.0
1070
    74
1070
     0
1000
MTEXTEND
  0
POINT
  5
18C68
330
18C60
100
AcDbEntity
  8
DEFPOINTS
 62
     0
 48
50.0
100
AcDbPoint
 10
5065.896575106966
 20
7769.123139034579
 30
0.0
  0
POINT
  5
18C69
330
18C60
100
AcDbEntity
  8
DEFPOINTS
 62
     0
 48
50.0
100
AcDbPoint
 10
6331.896575106966
 20
7769.123139034579
 30
0.0
  0
POINT
  5
18C6A
330
18C60
100
AcDbEntity
  8
DEFPOINTS
 62
     0
 48
50.0
100
AcDbPoint
 10
6331.896575106966
 20
7159.952920982537
 30
0.0
  0
ENDBLK
  5
18C6B
330
18C60
100
AcDbEntity
  8
0
 48
50.0
100
AcDbBlockEnd
  0
BLOCK
  5
18C6D
330
18C6C
100
AcDbEntity
  8
0
 48
50.0
100
AcDbBlockBegin
  2
*D16
 70
     1
 10
0.0
 20
0.0
 30
0.0
  3
*D16
  1

  0
LINE
  5
18C6E
330
18C6C
100
AcDbEntity
  8
寸法
 62
     0
 48
50.0
370
    -2
100
AcDbLine
 10
7200.896575106966
 20
7846.123139034578
 30
0.0
 11
7457.192158500191
 21
7846.123139034578
 31
0.0
  0
LINE
  5
18C6F
330
18C6C
100
AcDbEntity
  8
寸法
 62
     0
 48
50.0
370
    -2
100
AcDbLine
 10
7199.896575106966
 20
7769.123139034579
 30
0.0
 11
7457.192158500191
 21
7769.123139034579
 31
0.0
  0
LINE
  5
18C70
330
18C6C
100
AcDbEntity
  8
寸法
 62
     0
 48
50.0
370
    -2
100
AcDbLine
 10
7417.192158500192
 20
7866.123139034579
 30
0.0
 11
7417.192158500192
 21
7886.123139034578
 31
0.0
  0
LINE
  5
18C71
330
18C6C
100
AcDbEntity
  8
寸法
 62
     0
 48
50.0
370
    -2
100
AcDbLine
 10
7417.192158500192
 20
7749.123139034579
 30
0.0
 11
7417.192158500192
 21
7533.123139034573
 31
0.0
  0
LINE
  5
18C72
330
18C6C
100
AcDbEntity
  8
寸法
 62
     0
 48
50.0
370
    -2
100
AcDbLine
 10
7417.192158500192
 20
7846.123139034578
 30
0.0
 11
7417.192158500192
 21
7769.123139034579
 31
0.0
  0
INSERT
  5
18C73
330
18C6C
100
AcDbEntity
  8
寸法
 62
     0
 48
50.0
370
    -2
100
AcDbBlockReference
  2
_DOT
 10
7417.192158500192
 20
7846.123139034578
 30
0.0
 41
20.0
 42
20.0
 43
20.0
 50
270.0
  0
INSERT
  5
18C74
330
18C6C
100
AcDbEntity
  8
寸法
 62
     0
 48
50.0
370
    -2
100
AcDbBlockReference
  2
_DOT
 10
7417.192158500192
 20
7769.123139034579
 30
0.0
 41
20.0
 42
20.0
 43
20.0
 50
90.0
  0
MTEXT
  5
18C75
330
18C6C
100
AcDbEntity
  8
寸法
 62
     7
 48
50.0
100
AcDbMText
 10
7325.192158500191
 20
7631.123139034575
 30
0.0
 40
120.0
 41
0.0
 71
     5
 72
     1
  1
\A1;77
  7
STYLE1
 11
0.0000000000000001
 21
1.0
 31
0.0
 73
     1
 44
1.0
1001
ACAD
1000
MTEXTBEGIN
1070
    73
1070
     1
1070
    44
1040
1.0
1070
    74
1070
     0
1000
MTEXTEND
  0
POINT
  5
18C76
330
18C6C
100
AcDbEntity
  8
DEFPOINTS
 62
     0
 48
50.0
100
AcDbPoint
 10
7180.896575106967
 20
7846.123139034578
 30
0.0
  0
POINT
  5
18C77
330
18C6C
100
AcDbEntity
  8
DEFPOINTS
 62
     0
 48
50.0
100
AcDbPoint
 10
7179.896575106965
 20
7769.123139034579
 30
0.0
  0
POINT
  5
18C78
330
18C6C
100
AcDbEntity
  8
DEFPOINTS
 62
     0
 48
50.0
100
AcDbPoint
 10
7417.192158500192
 20
7769.123139034579
 30
0.0
  0
ENDBLK
  5
18C79
330
18C6C
100
AcDbEntity
  8
0
 48
50.0
100
AcDbBlockEnd
  0
BLOCK
  5
18DA0
330
18C7A
100
AcDbEntity
  8
0
 48
50.0
100
AcDbBlockBegin
  2
A$C3B1A506B
 70
     0
 10
0.0
 20
0.0
 30
0.0
  3
A$C3B1A506B
  1

  0
MTEXT
  5
18C7B
330
18C7A
100
AcDbEntity
  8
寸法
 62
     7
 48
50.0
100
AcDbMText
 10
3342.250386887194
 20
2778.329429134012
 30
0.0
 40
96.0
 41
0.0
 71
     5
 72
     1
  1
棚 2段
  7
STYLE1
 73
     1
 44
1.0
1001
ACAD
1000
MTEXTBEGIN
1070
    73
1070
     1
1070
    44
1040
1.0
1070
    74
1070
     0
1000
MTEXTEND
  0
MTEXT
  5
18C7C
330
18C7A
100
AcDbEntity
  8
寸法
 62
     7
 48
50.0
100
AcDbMText
 10
2167.25038688716
 20
2778.329429133986
 30
0.0
 40
96.0
 41
0.0
 71
     5
 72
     1
  1
棚 2段
  7
STYLE1
 73
     1
 44
1.0
1001
ACAD
1000
MTEXTBEGIN
1070
    73
1070
     1
1070
    44
1040
1.0
1070
    74
1070
     0
1000
MTEXTEND
  0
MTEXT
  5
18C7D
330
18C7A
100
AcDbEntity
  8
寸法
 62
     7
 48
50.0
100
AcDbMText
 10
992.2503868871608
 20
2778.329429133935
 30
0.0
 40
96.0
 41
0.0
 71
     5
 72
     1
  1
棚 2段
  7
STYLE1
 73
     1
 44
1.0
1001
ACAD
1000
MTEXTBEGIN
1070
    73
1070
     1
1070
    44
1040
1.0
1070
    74
1070
     0
1000
MTEXTEND
  0
LINE
  5
18C7E
330
18C7A
100
AcDbEntity
  8
細線
 48
50.0
100
AcDbLine
 10
2771.970589276527
 20
1368.994384123192
 30
0.0
 11
3398.970589276523
 21
1368.994384123192
 31
0.0
  0
LINE
  5
18C7F
330
18C7A
100
AcDbEntity
  8
細線
 48
50.0
100
AcDbLine
 10
2117.970593930113
 20
1335.285615569113
 30
0.0
 11
3398.970589276523
 21
1335.285615569113
 31
0.0
  0
LINE
  5
18C80
330
18C7A
100
AcDbEntity
  8
細線
 48
50.0
100
AcDbLine
 10
2076.970593930115
 20
1364.690523565368
 30
0.0
 11
1322.970589276523
 21
1364.690523565367
 31
0.0
  0
LINE
  5
18C81
330
18C7A
100
AcDbEntity
  8
細線
100
AcDbLine
 10
3170.720579860066
 20
1388.494284088199
 30
0.0
 11
3173.052119381877
 21
1393.494286728162
 31
0.0
  0
LINE
  5
18C82
330
18C7A
100
AcDbEntity
  8
細線
100
AcDbLine
 10
3240.720589276525
 20
1388.494269174465
 30
0.0
 11
3238.389042800336
 21
1393.494286728144
 31
0.0
  0
LINE
  5
18C83
330
18C7A
100
AcDbEntity
  8
細線
100
AcDbLine
 10
3238.389042800336
 20
1393.494286728144
 30
0.0
 11
3173.052119381862
 21
1393.494286728133
 31
0.0
  0
LINE
  5
18C84
330
18C7A
100
AcDbEntity
  8
細線
100
AcDbLine
 10
3098.389042800336
 20
1393.494286728144
 30
0.0
 11
3033.052119381862
 21
1393.494286728133
 31
0.0
  0
LINE
  5
18C85
330
18C7A
100
AcDbEntity
  8
細線
100
AcDbLine
 10
3100.720589276523
 20
1388.494269174465
 30
0.0
 11
3098.389042800336
 21
1393.494286728144
 31
0.0
  0
LINE
  5
18C86
330
18C7A
100
AcDbEntity
  8
細線
100
AcDbLine
 10
3030.720579860066
 20
1388.494284088199
 30
0.0
 11
3033.052119381875
 21
1393.494286728162
 31
0.0
  0
LINE
  5
18C87
330
18C7A
100
AcDbEntity
  8
細線
100
AcDbLine
 10
2890.720589276525
 20
1388.494269174465
 30
0.0
 11
2893.052128798336
 21
1393.494271814428
 31
0.0
  0
LINE
  5
18C88
330
18C7A
100
AcDbEntity
  8
細線
100
AcDbLine
 10
2960.720598692984
 20
1388.494254260731
 30
0.0
 11
2958.389052216793
 21
1393.49427181441
 31
0.0
  0
LINE
  5
18C89
330
18C7A
100
AcDbEntity
  8
細線
100
AcDbLine
 10
2958.389052216795
 20
1393.49427181441
 30
0.0
 11
2893.052128798321
 21
1393.494271814399
 31
0.0
  0
LINE
  5
18C8A
330
18C7A
100
AcDbEntity
  8
細線
100
AcDbLine
 10
2667.139038146739
 20
1359.494298590735
 30
0.0
 11
2601.802114728263
 21
1359.494298590724
 31
0.0
  0
LINE
  5
18C8B
330
18C7A
100
AcDbEntity
  8
細線
100
AcDbLine
 10
2669.470584622926
 20
1354.494281037055
 30
0.0
 11
2667.139038146737
 21
1359.494298590735
 31
0.0
  0
LINE
  5
18C8C
330
18C7A
100
AcDbEntity
  8
細線
100
AcDbLine
 10
2599.470575206469
 20
1354.49429595079
 30
0.0
 11
2601.802114728278
 21
1359.494298590752
 31
0.0
  0
LINE
  5
18C8D
330
18C7A
100
AcDbEntity
  8
細線
 48
50.0
100
AcDbLine
 10
2440.853968524536
 20
1372.765132327548
 30
0.0
 11
2446.609486107205
 21
1354.494281037057
 31
0.0
  0
LINE
  5
18C8E
330
18C7A
100
AcDbEntity
  8
細線
 48
50.0
100
AcDbLine
 10
2429.925520044106
 20
1372.765132327546
 30
0.0
 11
2440.853968524536
 21
1372.765132327548
 31
0.0
  0
ARC
  5
18C8F
330
18C7A
100
AcDbEntity
  8
細線
 48
50.0
100
AcDbCircle
 10
2424.471163986787
 20
1374.265132327546
 30
0.0
 40
5.0
100
AcDbArc
 50
204.6243183520723
 51
335.3756816479278
  0
ARC
  5
18C90
330
18C7A
100
AcDbEntity
  8
細線
 48
50.0
100
AcDbCircle
 10
2429.925520044106
 20
1371.765132327546
 30
0.0
 40
1.0
100
AcDbArc
 50
90.0
 51
155.3756816479277
  0
ARC
  5
18C91
330
18C7A
100
AcDbEntity
  8
細線
 48
50.0
100
AcDbCircle
 10
2419.016807929469
 20
1371.765132327546
 30
0.0
 40
1.0
100
AcDbArc
 50
24.62431835207225
 51
90.0
  0
LINE
  5
18C92
330
18C7A
100
AcDbEntity
  8
細線
 48
50.0
100
AcDbLine
 10
2408.088359449037
 20
1372.765132327548
 30
0.0
 11
2419.016807929469
 21
1372.765132327546
 31
0.0
  0
LINE
  5
18C93
330
18C7A
100
AcDbEntity
  8
細線
 48
50.0
100
AcDbLine
 10
2402.33284186637
 20
1354.494281037054
 30
0.0
 11
2408.088359449037
 21
1372.765132327548
 31
0.0
  0
LINE
  5
18C94
330
18C7A
100
AcDbEntity
  8
細線
100
AcDbLine
 10
2458.070304175992
 20
1354.494278397076
 30
0.0
 11
2460.401843697802
 21
1359.494281037039
 31
0.0
  0
LINE
  5
18C95
330
18C7A
100
AcDbEntity
  8
細線
100
AcDbLine
 10
2528.070313592451
 20
1354.494263483342
 30
0.0
 11
2525.738767116262
 21
1359.494281037021
 31
0.0
  0
LINE
  5
18C96
330
18C7A
100
AcDbEntity
  8
細線
100
AcDbLine
 10
2525.738767116262
 20
1359.494281037021
 30
0.0
 11
2460.40184369779
 21
1359.49428103701
 31
0.0
  0
LINE
  5
18C97
330
18C7A
100
AcDbEntity
  8
細線
100
AcDbLine
 10
2387.139046332155
 20
1359.494281037021
 30
0.0
 11
2321.80212291368
 21
1359.49428103701
 31
0.0
  0
LINE
  5
18C98
330
18C7A
100
AcDbEntity
  8
細線
100
AcDbLine
 10
2389.470592808342
 20
1354.494263483342
 30
0.0
 11
2387.139046332153
 21
1359.494281037021
 31
0.0
  0
LINE
  5
18C99
330
18C7A
100
AcDbEntity
  8
細線
100
AcDbLine
 10
2319.470584622926
 20
1354.494281037054
 30
0.0
 11
2321.802122913694
 21
1359.494281037039
 31
0.0
  0
LINE
  5
18C9A
330
18C7A
100
AcDbEntity
  8
細線
100
AcDbLine
 10
2179.47061994182
 20
1354.494289224422
 30
0.0
 11
2181.802158232587
 21
1359.494289224407
 31
0.0
  0
LINE
  5
18C9B
330
18C7A
100
AcDbEntity
  8
細線
100
AcDbLine
 10
2249.470628127236
 20
1354.49427167071
 30
0.0
 11
2247.139081651047
 21
1359.494289224389
 31
0.0
  0
LINE
  5
18C9C
330
18C7A
100
AcDbEntity
  8
細線
100
AcDbLine
 10
2247.139081651047
 20
1359.494289224389
 30
0.0
 11
2181.802158232573
 21
1359.494289224378
 31
0.0
  0
LINE
  5
18C9D
330
18C7A
100
AcDbEntity
  8
細線
100
AcDbLine
 10
1807.970585744697
 20
1320.494460905133
 30
0.0
 11
1810.302124035464
 21
1325.494460905118
 31
0.0
  0
LINE
  5
18C9E
330
18C7A
100
AcDbEntity
  8
細線
100
AcDbLine
 10
1877.970593930113
 20
1320.494443351421
 30
0.0
 11
1875.639047453926
 21
1325.4944609051
 31
0.0
  0
LINE
  5
18C9F
330
18C7A
100
AcDbEntity
  8
細線
100
AcDbLine
 10
1875.639047453926
 20
1325.4944609051
 30
0.0
 11
1810.302124035452
 21
1325.494460905089
 31
0.0
  0
LINE
  5
18CA0
330
18C7A
100
AcDbEntity
  8
細線
100
AcDbLine
 10
2015.639047453926
 20
1325.4944609051
 30
0.0
 11
1950.302124035452
 21
1325.494460905089
 31
0.0
  0
LINE
  5
18CA1
330
18C7A
100
AcDbEntity
  8
細線
100
AcDbLine
 10
2017.970593930113
 20
1320.494443351421
 30
0.0
 11
2015.639047453924
 21
1325.4944609051
 31
0.0
  0
LINE
  5
18CA2
330
18C7A
100
AcDbEntity
  8
細線
100
AcDbLine
 10
1947.970585744697
 20
1320.494460905133
 30
0.0
 11
1950.302124035465
 21
1325.494460905118
 31
0.0
  0
LINE
  5
18CA3
330
18C7A
100
AcDbEntity
  8
細線
100
AcDbLine
 10
1735.639047453926
 20
1325.494460905098
 30
0.0
 11
1670.302124035454
 21
1325.494460905087
 31
0.0
  0
LINE
  5
18CA4
330
18C7A
100
AcDbEntity
  8
細線
100
AcDbLine
 10
1737.970593930113
 20
1320.494443351419
 30
0.0
 11
1735.639047453926
 21
1325.494460905098
 31
0.0
  0
LINE
  5
18CA5
330
18C7A
100
AcDbEntity
  8
細線
100
AcDbLine
 10
1667.970585744697
 20
1320.494460905131
 30
0.0
 11
1670.302124035465
 21
1325.494460905116
 31
0.0
  0
LINE
  5
18CA6
330
18C7A
100
AcDbEntity
  8
細線
100
AcDbLine
 10
1527.970593930113
 20
1320.494460905133
 30
0.0
 11
1530.302132220881
 21
1325.494460905118
 31
0.0
  0
LINE
  5
18CA7
330
18C7A
100
AcDbEntity
  8
細線
100
AcDbLine
 10
1597.970602115529
 20
1320.494443351421
 30
0.0
 11
1595.639055639342
 21
1325.4944609051
 31
0.0
  0
LINE
  5
18CA8
330
18C7A
100
AcDbEntity
  8
細線
100
AcDbLine
 10
1595.639055639342
 20
1325.4944609051
 30
0.0
 11
1530.302132220869
 21
1325.494460905089
 31
0.0
  0
ARC
  5
18CA9
330
18C7A
100
AcDbEntity
  8
部品1
 48
0.01
100
AcDbCircle
 10
1483.470482677778
 20
1319.493338720063
 30
0.0
 40
0.5
100
AcDbArc
 50
270.0
 51
0.0
  0
LINE
  5
18CAA
330
18C7A
100
AcDbEntity
  8
部品1
 48
0.01
100
AcDbLine
 10
1483.970482677778
 20
1320.493338720063
 30
0.0
 11
1483.970482677778
 21
1319.493338720063
 31
0.0
  0
LINE
  5
18CAB
330
18C7A
100
AcDbEntity
  8
部品1
 48
0.01
100
AcDbLine
 10
1483.970482677778
 20
1320.493338720063
 30
0.0
 11
1483.970482677778
 21
1319.493338720063
 31
0.0
  0
LINE
  5
18CAC
330
18C7A
100
AcDbEntity
  8
部品1
 48
0.01
100
AcDbLine
 10
1483.470482677778
 20
1318.993338720063
 30
0.0
 11
1476.857977247713
 21
1318.993338720062
 31
0.0
  0
ARC
  5
18CAD
330
18C7A
100
AcDbEntity
  8
部品1
100
AcDbCircle
 10
1476.926326800494
 20
1319.993338720062
 30
0.0
 40
1.0
100
AcDbArc
 50
160.5287793655865
 51
270.0
  0
ARC
  5
18CAE
330
18C7A
100
AcDbEntity
  8
部品1
100
AcDbCircle
 10
1451.470482677778
 20
1328.993338720062
 30
0.0
 40
26.0
100
AcDbArc
 50
340.5287793655865
 51
0.0
  0
LINE
  5
18CAF
330
18C7A
100
AcDbEntity
  8
部品1
100
AcDbLine
 10
1477.470482677778
 20
1328.993338720062
 30
0.0
 11
1477.470482677778
 21
1333.993338720061
 31
0.0
  0
ARC
  5
18CB0
330
18C7A
100
AcDbEntity
  8
部品1
 48
0.01
100
AcDbCircle
 10
1475.470482677778
 20
1333.993338720061
 30
0.0
 40
2.0
100
AcDbArc
 50
0.0
 51
90.0
  0
ARC
  5
18CB1
330
18C7A
100
AcDbEntity
  8
部品1
100
AcDbCircle
 10
1473.862091052968
 20
1332.993338720062
 30
0.0
 40
3.0
100
AcDbArc
 50
90.0
 51
141.6069559808035
  0
LINE
  5
18CB2
330
18C7A
100
AcDbEntity
  8
部品1
 48
0.01
100
AcDbLine
 10
1475.470482677778
 20
1335.993338720062
 30
0.0
 11
1473.862091052968
 21
1335.993338720062
 31
0.0
  0
ARC
  5
18CB3
330
18C7A
100
AcDbEntity
  8
部品1
100
AcDbCircle
 10
1455.399768463507
 20
1332.293338720065
 30
0.0
 40
3.0
100
AcDbArc
 50
254.0576313943215
 51
270.0
  0
ARC
  5
18CB4
330
18C7A
100
AcDbEntity
  8
部品1
100
AcDbCircle
 10
1462.541196892049
 20
1332.293338720065
 30
0.0
 40
3.0
100
AcDbArc
 50
270.0
 51
285.9423686056786
  0
LINE
  5
18CB5
330
18C7A
100
AcDbEntity
  8
部品1
100
AcDbLine
 10
1462.541196892049
 20
1329.293338720064
 30
0.0
 11
1455.399768463507
 21
1329.293338720064
 31
0.0
  0
ARC
  5
18CB6
330
18C7A
100
AcDbEntity
  8
部品1
100
AcDbCircle
 10
1458.970482677778
 20
1344.793338720065
 30
0.0
 40
16.0
100
AcDbArc
 50
285.9423686056786
 51
321.6069559808035
  0
LINE
  5
18CB7
330
18C7A
100
AcDbEntity
  8
部品1
 48
0.01
100
AcDbLine
 10
1442.470482677778
 20
1335.993338720062
 30
0.0
 11
1444.078874302588
 21
1335.993338720062
 31
0.0
  0
ARC
  5
18CB8
330
18C7A
100
AcDbEntity
  8
部品1
100
AcDbCircle
 10
1444.078874302588
 20
1332.993338720062
 30
0.0
 40
3.0
100
AcDbArc
 50
38.39304401919648
 51
90.0
  0
ARC
  5
18CB9
330
18C7A
100
AcDbEntity
  8
部品1
100
AcDbCircle
 10
1458.970482677778
 20
1344.793338720065
 30
0.0
 40
16.0
100
AcDbArc
 50
218.3930440191965
 51
254.0576313943215
  0
LINE
  5
18CBA
330
18C7A
100
AcDbEntity
  8
部品1
100
AcDbLine
 10
1440.470482677778
 20
1328.993338720062
 30
0.0
 11
1440.470482677778
 21
1333.993338720061
 31
0.0
  0
ARC
  5
18CBB
330
18C7A
100
AcDbEntity
  8
部品1
 48
0.01
100
AcDbCircle
 10
1442.470482677778
 20
1333.993338720061
 30
0.0
 40
2.0
100
AcDbArc
 50
90.0
 51
180.0
  0
ARC
  5
18CBC
330
18C7A
100
AcDbEntity
  8
部品1
100
AcDbCircle
 10
1466.470482677778
 20
1328.993338720062
 30
0.0
 40
26.0
100
AcDbArc
 50
180.0
 51
199.4712206344134
  0
ARC
  5
18CBD
330
18C7A
100
AcDbEntity
  8
部品1
 48
0.01
100
AcDbCircle
 10
1434.470482677778
 20
1319.493338720063
 30
0.0
 40
0.5
100
AcDbArc
 50
180.0
 51
270.0
  0
LINE
  5
18CBE
330
18C7A
100
AcDbEntity
  8
部品1
 48
0.01
100
AcDbLine
 10
1434.470482677778
 20
1318.993338720063
 30
0.0
 11
1441.014638555061
 21
1318.993338720062
 31
0.0
  0
LINE
  5
18CBF
330
18C7A
100
AcDbEntity
  8
部品1
 48
0.01
100
AcDbLine
 10
1433.970482677778
 20
1320.493338720063
 30
0.0
 11
1433.970482677778
 21
1319.493338720063
 31
0.0
  0
ARC
  5
18CC0
330
18C7A
100
AcDbEntity
  8
部品1
100
AcDbCircle
 10
1441.014638555061
 20
1319.993338720062
 30
0.0
 40
1.0
100
AcDbArc
 50
270.0
 51
19.47122063441346
  0
LINE
  5
18CC1
330
18C7A
100
AcDbEntity
  8
細線
100
AcDbLine
 10
1479.470482677785
 20
1338.493338720065
 30
0.0
 11
1438.470482677785
 21
1338.493338720058
 31
0.0
  0
LINE
  5
18CC2
330
18C7A
100
AcDbEntity
  8
細線
100
AcDbLine
 10
1438.470482677785
 20
1338.493338720058
 30
0.0
 11
1438.470482677785
 21
1320.49333872004
 31
0.0
  0
LINE
  5
18CC3
330
18C7A
100
AcDbEntity
  8
細線
100
AcDbLine
 10
1479.470482677785
 20
1338.493338720065
 30
0.0
 11
1479.470482677785
 21
1320.49333872004
 31
0.0
  0
LINE
  5
18CC4
330
18C7A
100
AcDbEntity
  8
細線
100
AcDbLine
 10
1322.970589276523
 20
1324.494269174465
 30
0.0
 11
1322.970589276523
 21
1320.494269174513
 31
0.0
  0
LINE
  5
18CC5
330
18C7A
100
AcDbEntity
  8
寸法
 48
50.0
100
AcDbLine
 10
1746.17359555837
 20
1170.531020743327
 30
0.0
 11
1694.767587648266
 21
1170.531020743327
 31
0.0
  0
LINE
  5
18CC6
330
18C7A
100
AcDbEntity
  8
寸法
 48
50.0
100
AcDbLine
 10
1694.767587648266
 20
1170.531020743327
 30
0.0
 11
1694.767587648266
 21
1201.841179395494
 31
0.0
  0
LINE
  5
18CC7
330
18C7A
100
AcDbEntity
  8
寸法
 48
50.0
100
AcDbLine
 10
1694.767587648266
 20
1201.841179395494
 30
0.0
 11
1665.006255656843
 21
1201.841179395494
 31
0.0
  0
LINE
  5
18CC8
330
18C7A
100
AcDbEntity
  8
寸法
 48
50.0
100
AcDbLine
 10
1665.006255656843
 20
1201.841179395494
 30
0.0
 11
1720.470591603318
 21
1239.420630324105
 31
0.0
  0
LINE
  5
18CC9
330
18C7A
100
AcDbEntity
  8
寸法
 48
50.0
100
AcDbLine
 10
1775.934927549793
 20
1201.841179395494
 30
0.0
 11
1720.470591603318
 21
1239.420630324105
 31
0.0
  0
LINE
  5
18CCA
330
18C7A
100
AcDbEntity
  8
寸法
 48
50.0
100
AcDbLine
 10
1746.17359555837
 20
1201.841179395494
 30
0.0
 11
1775.934927549793
 21
1201.841179395494
 31
0.0
  0
LINE
  5
18CCB
330
18C7A
100
AcDbEntity
  8
寸法
 48
50.0
100
AcDbLine
 10
1746.17359555837
 20
1170.531020743327
 30
0.0
 11
1746.17359555837
 21
1201.841179395494
 31
0.0
  0
LINE
  5
18CCC
330
18C7A
100
AcDbEntity
  8
寸法
 48
50.0
100
AcDbLine
 10
1694.767587648266
 20
1170.531020743327
 30
0.0
 11
1746.17359555837
 21
1170.531020743327
 31
0.0
  0
LINE
  5
18CCD
330
18C7A
100
AcDbEntity
  8
寸法
 48
50.0
100
AcDbLine
 10
2025.339129835225
 20
1227.676611498152
 30
0.0
 11
2025.339129835225
 21
1174.01297691636
 31
0.0
  0
LINE
  5
18CCE
330
18C7A
100
AcDbEntity
  8
寸法
 48
50.0
100
AcDbLine
 10
2114.623348430647
 20
1203.752977228664
 30
0.0
 11
2025.339129835225
 21
1227.676611498152
 31
0.0
  0
LINE
  5
18CCF
330
18C7A
100
AcDbEntity
  8
寸法
 48
50.0
100
AcDbLine
 10
1895.471408254923
 20
1203.752977228664
 30
0.0
 11
2114.623348430647
 21
1203.752977228664
 31
0.0
  0
DIMENSION
  5
18CD0
330
18C7A
100
AcDbEntity
  8
寸法
 48
50.0
100
AcDbDimension
  2
*D15
 10
2588.970589276523
 20
706.3240511224249
 30
0.0
 11
1969.060022905491
 21
706.3240511224249
 31
0.0
 12
-3742.925985830444
 22
-6453.628869860112
 32
0.0
 70
   128
  1
有効開口部間口\P<>
 71
     5
 42
1266.0
  3
INABA_S40G
100
AcDbAlignedDimension
 13
1322.970589276523
 23
1315.494269174465
 33
0.0
 14
2588.970589276523
 24
1315.494269174465
 34
0.0
100
AcDbRotatedDimension
1001
ACAD
1000
DSTYLE
1002
{
1070
   341
1005
0
1002
}
  0
LINE
  5
18CD1
330
18C7A
100
AcDbEntity
  8
部品1
100
AcDbLine
 10
3409.970589276524
 20
1392.494269174465
 30
0.0
 11
3437.970589276523
 21
1392.494269174465
 31
0.0
  0
DIMENSION
  5
18CD2
330
18C7A
100
AcDbEntity
  8
寸法
100
AcDbDimension
  2
*D16
 10
3674.266172669749
 20
1315.494269174465
 30
0.0
 11
3674.266172669748
 21
1177.494269174462
 31
0.0
 12
-3742.925985830444
 22
-6453.628869860112
 32
0.0
 70
   128
 71
     5
 42
77.0
  3
INABA_S40
100
AcDbAlignedDimension
 13
3437.970589276523
 23
1392.494269174465
 33
0.0
 14
3436.970589276523
 24
1315.494269174465
 34
0.0
 50
90.0
100
AcDbRotatedDimension
1001
ACAD
1000
DSTYLE
1002
{
1070
    41
1040
0.5
1070
    44
1040
1.0
1070
   147
1040
0.8
1070
   271
1070
     2
1070
   272
1070
     2
1070
   289
1070
     3
1070
   340
1005
F706
1070
   343
1005
164B4
1070
   344
1005
164B4
1002
}
  0
LINE
  5
18CD3
330
18C7A
100
AcDbEntity
  8
部品1
100
AcDbLine
 10
3437.970589276523
 20
1315.494269174465
 30
0.0
 11
3437.970589276523
 21
1392.494269174465
 31
0.0
  0
LINE
  5
18CD4
330
18C7A
100
AcDbEntity
  8
部品1
100
AcDbLine
 10
3398.970589276523
 20
1388.494269174465
 30
0.0
 11
3409.970589276524
 21
1388.494269174465
 31
0.0
  0
LINE
  5
18CD5
330
18C7A
100
AcDbEntity
  8
部品1
100
AcDbLine
 10
3407.970589276523
 20
1324.494269174465
 30
0.0
 11
3407.970589276523
 21
1315.494269174465
 31
0.0
  0
LINE
  5
18CD6
330
18C7A
100
AcDbEntity
  8
部品1
100
AcDbLine
 10
3398.970589276523
 20
1324.494269174465
 30
0.0
 11
3407.970589276523
 21
1324.494269174465
 31
0.0
  0
LINE
  5
18CD7
330
18C7A
100
AcDbEntity
  8
部品1
100
AcDbLine
 10
3398.970589276523
 20
1388.494269174465
 30
0.0
 11
3398.970589276523
 21
1324.494269174465
 31
0.0
  0
LINE
  5
18CD8
330
18C7A
100
AcDbEntity
  8
部品1
100
AcDbLine
 10
3409.970589276524
 20
1419.494269174465
 30
0.0
 11
3409.970589276524
 21
1388.494269174465
 31
0.0
  0
LINE
  5
18CD9
330
18C7A
100
AcDbEntity
  8
部品1
100
AcDbLine
 10
1322.970589276523
 20
1388.494269174465
 30
0.0
 11
1311.970589276523
 21
1388.494269174465
 31
0.0
  0
LINE
  5
18CDA
330
18C7A
100
AcDbEntity
  8
部品1
100
AcDbLine
 10
1283.970589276523
 20
1392.494269174465
 30
0.0
 11
1311.970589276523
 21
1392.494269174465
 31
0.0
  0
LINE
  5
18CDB
330
18C7A
100
AcDbEntity
  8
部品1
100
AcDbLine
 10
1313.970589276523
 20
1324.494269174465
 30
0.0
 11
1313.970589276523
 21
1315.494269174465
 31
0.0
  0
LINE
  5
18CDC
330
18C7A
100
AcDbEntity
  8
部品1
100
AcDbLine
 10
1322.970589276523
 20
1324.494269174465
 30
0.0
 11
1313.970589276523
 21
1324.494269174465
 31
0.0
  0
LINE
  5
18CDD
330
18C7A
100
AcDbEntity
  8
部品1
100
AcDbLine
 10
1313.970589276523
 20
1315.494269174465
 30
0.0
 11
1283.970589276523
 21
1315.494269174465
 31
0.0
  0
LINE
  5
18CDE
330
18C7A
100
AcDbEntity
  8
部品1
100
AcDbLine
 10
1283.970589276523
 20
1315.494269174465
 30
0.0
 11
1283.970589276523
 21
1392.494269174465
 31
0.0
  0
LINE
  5
18CDF
330
18C7A
100
AcDbEntity
  8
部品1
100
AcDbLine
 10
1322.970589276523
 20
1388.494269174465
 30
0.0
 11
1322.970589276523
 21
1324.494269174465
 31
0.0
  0
LINE
  5
18CE0
330
18C7A
100
AcDbEntity
  8
部品1
100
AcDbLine
 10
1311.970589276523
 20
1419.494269174462
 30
0.0
 11
1311.970589276523
 21
1388.494269174465
 31
0.0
  0
LINE
  5
18CE1
330
18C7A
100
AcDbEntity
  8
部品1
100
AcDbLine
 10
1311.970589276523
 20
1419.494269174462
 30
0.0
 11
3409.970589276524
 21
1419.494269174465
 31
0.0
  0
LINE
  5
18CE2
330
18C7A
100
AcDbEntity
  8
部品1
100
AcDbLine
 10
3407.970589276523
 20
1315.494269174465
 30
0.0
 11
3437.970589276523
 21
1315.494269174465
 31
0.0
  0
LINE
  5
18CE3
330
18C7A
100
AcDbEntity
  8
部品1
100
AcDbLine
 10
1313.970589276523
 20
1315.494269174465
 30
0.0
 11
3410.970589276523
 21
1315.494269174465
 31
0.0
  0
LINE
  5
18CE4
330
18C7A
100
AcDbEntity
  8
細線
  6
Continuous
 62
     5
100
AcDbLine
 10
2689.970589276527
 20
1354.494269174462
 30
0.0
 11
2689.970589276527
 21
1354.494269174462
 31
0.0
  0
LINE
  5
18CE5
330
18C7A
100
AcDbEntity
  8
細線
  6
Continuous
 62
     5
100
AcDbLine
 10
2682.470589276527
 20
1354.494269174462
 30
0.0
 11
2682.470589276527
 21
1354.494269174462
 31
0.0
  0
LINE
  5
18CE6
330
18C7A
100
AcDbEntity
  8
細線
  6
Continuous
 62
     5
100
AcDbLine
 10
2676.470589276527
 20
1354.494269174462
 30
0.0
 11
2676.470589276527
 21
1354.494269174462
 31
0.0
  0
LINE
  5
18CE7
330
18C7A
100
AcDbEntity
  8
細線
  6
Continuous
 62
     5
100
AcDbLine
 10
2743.970589276527
 20
1373.494269174462
 30
0.0
 11
2743.970589276527
 21
1373.494269174462
 31
0.0
  0
LINE
  5
18CE8
330
18C7A
100
AcDbEntity
  8
細線
 48
50.0
100
AcDbLine
 10
1336.970593930116
 20
1341.094443351418
 30
0.0
 11
1336.970593930113
 21
1349.490593759059
 31
0.0
  0
LINE
  5
18CE9
330
18C7A
100
AcDbEntity
  8
細線
 48
50.0
100
AcDbLine
 10
1336.970593930113
 20
1349.490593759059
 30
0.0
 11
1322.970589276523
 21
1349.490593759057
 31
0.0
  0
LINE
  5
18CEA
330
18C7A
100
AcDbEntity
  8
細線
 48
50.0
100
AcDbLine
 10
2087.970593930113
 20
1337.644443351419
 30
0.0
 11
2087.970593930113
 21
1342.494443351421
 31
0.0
  0
LINE
  5
18CEB
330
18C7A
100
AcDbEntity
  8
細線
 48
50.0
100
AcDbLine
 10
2087.970593930113
 20
1342.494443351421
 30
0.0
 11
2102.970593930113
 21
1342.494443351421
 31
0.0
  0
LINE
  5
18CEC
330
18C7A
100
AcDbEntity
  8
細線
 48
50.0
100
AcDbLine
 10
2102.970593930113
 20
1342.494443351421
 30
0.0
 11
2102.970593930115
 21
1349.494443351419
 31
0.0
  0
LINE
  5
18CED
330
18C7A
100
AcDbEntity
  8
細線
 48
50.0
100
AcDbLine
 10
2102.970593930115
 20
1349.494443351419
 30
0.0
 11
2117.970593930113
 21
1349.494443351419
 31
0.0
  0
LINE
  5
18CEE
330
18C7A
100
AcDbEntity
  8
細線
 48
50.0
100
AcDbLine
 10
2117.970593930113
 20
1349.494443351419
 30
0.0
 11
2117.970593930113
 21
1320.494443351421
 31
0.0
  0
LINE
  5
18CEF
330
18C7A
100
AcDbEntity
  8
細線
 48
50.0
100
AcDbLine
 10
1313.970589276523
 20
1320.491777694889
 30
0.0
 11
1527.970593930113
 21
1320.494460905133
 31
0.0
  0
LINE
  5
18CF0
330
18C7A
100
AcDbEntity
  8
細線
 48
50.0
100
AcDbLine
 10
2017.970593930113
 20
1320.494443351421
 30
0.0
 11
2117.970593930113
 21
1320.494443351421
 31
0.0
  0
LINE
  5
18CF1
330
18C7A
100
AcDbEntity
  8
細線
 48
50.0
100
AcDbLine
 10
1737.970593930113
 20
1320.494443351419
 30
0.0
 11
1807.970593930113
 21
1320.494443351423
 31
0.0
  0
LINE
  5
18CF2
330
18C7A
100
AcDbEntity
  8
細線
 48
50.0
100
AcDbLine
 10
1750.832558942642
 20
1320.494443351419
 30
0.0
 11
1756.588076525309
 21
1338.765294641913
 31
0.0
  0
LINE
  5
18CF3
330
18C7A
100
AcDbEntity
  8
細線
 48
50.0
100
AcDbLine
 10
1756.588076525309
 20
1338.765294641913
 30
0.0
 11
1767.516525005743
 21
1338.765294641911
 31
0.0
  0
ARC
  5
18CF4
330
18C7A
100
AcDbEntity
  8
細線
 48
50.0
100
AcDbCircle
 10
1767.516525005743
 20
1337.765294641911
 30
0.0
 40
1.0
100
AcDbArc
 50
24.62431835207225
 51
90.0
  0
ARC
  5
18CF5
330
18C7A
100
AcDbEntity
  8
細線
 48
50.0
100
AcDbCircle
 10
1778.425237120377
 20
1337.765294641911
 30
0.0
 40
1.0
100
AcDbArc
 50
90.0
 51
155.3756816479277
  0
ARC
  5
18CF6
330
18C7A
100
AcDbEntity
  8
細線
 48
50.0
100
AcDbCircle
 10
1772.970881063058
 20
1340.265294641911
 30
0.0
 40
5.0
100
AcDbArc
 50
204.6243183520723
 51
335.3756816479278
  0
LINE
  5
18CF7
330
18C7A
100
AcDbEntity
  8
細線
 48
50.0
100
AcDbLine
 10
1778.425237120377
 20
1338.765294641911
 30
0.0
 11
1789.35368560081
 21
1338.765294641913
 31
0.0
  0
LINE
  5
18CF8
330
18C7A
100
AcDbEntity
  8
細線
 48
50.0
100
AcDbLine
 10
1789.35368560081
 20
1338.765294641913
 30
0.0
 11
1795.109203183478
 21
1320.494443351423
 31
0.0
  0
LINE
  5
18CF9
330
18C7A
100
AcDbEntity
  8
細線
 48
50.0
100
AcDbLine
 10
2087.970593930113
 20
1341.094443351419
 30
0.0
 11
1336.970593930116
 21
1341.094443351418
 31
0.0
  0
LINE
  5
18CFA
330
18C7A
100
AcDbEntity
  8
細線
 48
50.0
100
AcDbLine
 10
1947.970593930113
 20
1320.494443351421
 30
0.0
 11
1877.970593930113
 21
1320.494443351421
 31
0.0
  0
LINE
  5
18CFB
330
18C7A
100
AcDbEntity
  8
細線
100
AcDbLine
 10
1667.970593930113
 20
1320.494443351421
 30
0.0
 11
1597.970602115529
 21
1320.494443351421
 31
0.0
  0
LINE
  5
18CFC
330
18C7A
100
AcDbEntity
  8
細線
 48
50.0
100
AcDbLine
 10
2741.970584622936
 20
1375.094487209288
 30
0.0
 11
2106.970593930113
 21
1375.094487209284
 31
0.0
  0
LINE
  5
18CFD
330
18C7A
100
AcDbEntity
  8
細線
 48
50.0
100
AcDbLine
 10
2106.970593930113
 20
1371.990637616925
 30
0.0
 11
2106.970593930113
 21
1376.490637616925
 31
0.0
  0
LINE
  5
18CFE
330
18C7A
100
AcDbEntity
  8
細線
 48
50.0
100
AcDbLine
 10
2106.970593930113
 20
1376.490637616925
 30
0.0
 11
2091.970593930113
 21
1376.490637616925
 31
0.0
  0
LINE
  5
18CFF
330
18C7A
100
AcDbEntity
  8
細線
 48
50.0
100
AcDbLine
 10
2091.970593930113
 20
1376.490637616925
 30
0.0
 11
2091.970593930113
 21
1383.490637616927
 31
0.0
  0
LINE
  5
18D00
330
18C7A
100
AcDbEntity
  8
細線
 48
50.0
100
AcDbLine
 10
2091.970593930113
 20
1383.490637616927
 30
0.0
 11
2076.970593930115
 21
1383.490637616924
 31
0.0
  0
LINE
  5
18D01
330
18C7A
100
AcDbEntity
  8
細線
 48
50.0
100
AcDbLine
 10
2076.970593930115
 20
1383.490637616924
 30
0.0
 11
2076.970593930115
 21
1345.890409513813
 31
0.0
  0
LINE
  5
18D02
330
18C7A
100
AcDbEntity
  8
細線
 48
50.0
100
AcDbLine
 10
2076.970593930115
 20
1345.890409513813
 30
0.0
 11
2096.970601231289
 21
1345.890451063353
 31
0.0
  0
LINE
  5
18D03
330
18C7A
100
AcDbEntity
  8
細線
 48
50.0
100
AcDbLine
 10
2096.970556362348
 20
1354.493912699161
 30
0.0
 11
2096.970601231289
 21
1345.890451063353
 31
0.0
  0
LINE
  5
18D04
330
18C7A
100
AcDbEntity
  8
細線
 48
50.0
100
AcDbLine
 10
2741.970584622936
 20
1371.644487209287
 30
0.0
 11
2741.970584622936
 21
1376.494487209284
 31
0.0
  0
LINE
  5
18D05
330
18C7A
100
AcDbEntity
  8
細線
 48
50.0
100
AcDbLine
 10
2741.970584622936
 20
1376.494487209284
 30
0.0
 11
2756.970584622934
 21
1376.494487209285
 31
0.0
  0
LINE
  5
18D06
330
18C7A
100
AcDbEntity
  8
細線
 48
50.0
100
AcDbLine
 10
2756.970584622934
 20
1376.494487209285
 30
0.0
 11
2756.970596256909
 21
1383.494487209331
 31
0.0
  0
LINE
  5
18D07
330
18C7A
100
AcDbEntity
  8
細線
 48
50.0
100
AcDbLine
 10
2756.970596256909
 20
1383.494487209331
 30
0.0
 11
2771.970594427439
 21
1383.494487209329
 31
0.0
  0
LINE
  5
18D08
330
18C7A
100
AcDbEntity
  8
細線
 48
50.0
100
AcDbLine
 10
2771.970594427439
 20
1383.494487209329
 30
0.0
 11
2771.970584125617
 21
1354.494281037055
 31
0.0
  0
LINE
  5
18D09
330
18C7A
100
AcDbEntity
  8
細線
 48
50.0
100
AcDbLine
 10
2458.070304175992
 20
1354.494278397076
 30
0.0
 11
2389.470863838818
 21
1354.494283787084
 31
0.0
  0
LINE
  5
18D0A
330
18C7A
100
AcDbEntity
  8
細線
 48
50.0
100
AcDbLine
 10
2096.970556362348
 20
1354.493912699161
 30
0.0
 11
2108.203245717057
 21
1354.494095652309
 31
0.0
  0
ARC
  5
18D0B
330
18C7A
100
AcDbEntity
  8
細線
 48
50.0
100
AcDbCircle
 10
2114.785538024393
 20
1353.294259565922
 30
0.0
 40
1.8
100
AcDbArc
 50
270.0006665777295
 51
345.000555481349
  0
LINE
  5
18D0C
330
18C7A
100
AcDbEntity
  8
細線
 48
50.0
100
AcDbLine
 10
2116.771971470473
 20
1353.753100023201
 30
0.0
 11
2116.524209028273
 21
1352.828402141094
 31
0.0
  0
LINE
  5
18D0D
330
18C7A
100
AcDbEntity
  8
細線
 48
50.0
100
AcDbLine
 10
2114.785558965548
 20
1351.494259566043
 30
0.0
 11
2111.155631546781
 21
1351.494217335563
 31
0.0
  0
ARC
  5
18D0E
330
18C7A
100
AcDbEntity
  8
細線
 48
50.0
100
AcDbCircle
 10
2111.155610605627
 20
1353.29421733544
 30
0.0
 40
1.8
100
AcDbArc
 50
195.0010443049965
 51
270.0006665777295
  0
LINE
  5
18D0F
330
18C7A
100
AcDbEntity
  8
細線
 48
50.0
100
AcDbLine
 10
2109.169183113368
 20
1353.752932303007
 30
0.0
 11
2109.416952609882
 21
1352.828311364425
 31
0.0
  0
ARC
  5
18D10
330
18C7A
100
AcDbEntity
  8
細線
 48
50.0
100
AcDbCircle
 10
2108.203262004622
 20
1353.494095652444
 30
0.0
 40
1.0
100
AcDbArc
 50
15.00104430499651
 51
90.00093320877969
  0
LINE
  5
18D11
330
18C7A
100
AcDbEntity
  8
細線
 48
50.0
100
AcDbLine
 10
2117.737892825577
 20
1354.494290342714
 30
0.0
 11
2118.679652976481
 21
1354.494296916564
 31
0.0
  0
ARC
  5
18D12
330
18C7A
100
AcDbEntity
  8
細線
 48
50.0
100
AcDbCircle
 10
2117.737899805961
 20
1353.49429034274
 30
0.0
 40
1.0
100
AcDbArc
 50
90.0003999466794
 51
165.000555481349
  0
LINE
  5
18D13
330
18C7A
100
AcDbEntity
  8
細線
 48
50.0
100
AcDbLine
 10
2669.470584622926
 20
1354.494281037055
 30
0.0
 11
2771.970584125617
 21
1354.494281037055
 31
0.0
  0
LINE
  5
18D14
330
18C7A
100
AcDbEntity
  8
細線
 48
50.0
100
AcDbLine
 10
2179.47061994182
 20
1354.494289224422
 30
0.0
 11
2118.370558714898
 21
1354.494296916564
 31
0.0
  0
LINE
  5
18D15
330
18C7A
100
AcDbEntity
  8
細線
 48
50.0
100
AcDbLine
 10
2599.470584622926
 20
1354.494281037057
 30
0.0
 11
2529.470584622926
 21
1354.494281037055
 31
0.0
  0
LINE
  5
18D16
330
18C7A
100
AcDbEntity
  8
細線
 48
50.0
100
AcDbLine
 10
2319.470584622926
 20
1354.494281037054
 30
0.0
 11
2249.470567335051
 21
1354.494281037057
 31
0.0
  0
ARC
  5
18D17
330
18C7A
100
AcDbEntity
  8
細線
 48
50.0
100
AcDbCircle
 10
2756.170589276533
 20
1387.694269174466
 30
0.0
 40
0.8
100
AcDbArc
 50
359.9997333689499
 51
89.99986668437072
  0
ARC
  5
18D18
330
18C7A
100
AcDbEntity
  8
細線
 48
50.0
100
AcDbCircle
 10
2763.770596101631
 20
1387.694280343081
 30
0.0
 40
0.8
100
AcDbArc
 50
90.00014387753465
 51
179.9997333689498
  0
LINE
  5
18D19
330
18C7A
100
AcDbEntity
  8
細線
 48
50.0
100
AcDbLine
 10
2756.170591137969
 20
1388.494269174465
 30
0.0
 11
2750.970589276525
 21
1388.494269174465
 31
0.0
  0
ARC
  5
18D1A
330
18C7A
100
AcDbEntity
  8
細線
 48
50.0
100
AcDbCircle
 10
2757.670589276524
 20
1386.194269174464
 30
0.0
 40
0.7
100
AcDbArc
 50
180.0
 51
270.0
  0
ARC
  5
18D1B
330
18C7A
100
AcDbEntity
  8
細線
 48
50.0
100
AcDbCircle
 10
2762.270589276524
 20
1386.194269174464
 30
0.0
 40
0.7
100
AcDbArc
 50
270.0
 51
0.0
  0
LINE
  5
18D1C
330
18C7A
100
AcDbEntity
  8
細線
 48
50.0
100
AcDbLine
 10
2762.970589276525
 20
1386.194269174464
 30
0.0
 11
2762.970596101639
 21
1387.694284065954
 31
0.0
  0
LINE
  5
18D1D
330
18C7A
100
AcDbEntity
  8
細線
 48
50.0
100
AcDbLine
 10
2757.670589276524
 20
1385.494269174465
 30
0.0
 11
2762.270589276524
 21
1385.494269174465
 31
0.0
  0
LINE
  5
18D1E
330
18C7A
100
AcDbEntity
  8
細線
 48
50.0
100
AcDbLine
 10
2756.970589276525
 20
1387.694269174466
 30
0.0
 11
2756.970589276525
 21
1386.194269174464
 31
0.0
  0
LINE
  5
18D1F
330
18C7A
100
AcDbEntity
  8
細線
 48
50.0
100
AcDbLine
 10
3382.570589276527
 20
1418.494269174465
 30
0.0
 11
2745.970589276525
 21
1418.494269174463
 31
0.0
  0
LINE
  5
18D20
330
18C7A
100
AcDbEntity
  8
細線
 48
50.0
100
AcDbLine
 10
3408.470589276525
 20
1413.494269174467
 30
0.0
 11
3392.570589276527
 21
1413.494269174465
 31
0.0
  0
LINE
  5
18D21
330
18C7A
100
AcDbEntity
  8
細線
 48
50.0
100
AcDbLine
 10
3392.570589276526
 20
1413.494269174465
 30
0.0
 11
3382.570589276527
 21
1418.494269174465
 31
0.0
  0
LINE
  5
18D22
330
18C7A
100
AcDbEntity
  8
細線
100
AcDbLine
 10
2993.470589276525
 20
1388.494269174465
 30
0.0
 11
2993.470589276525
 21
1417.794269174464
 31
0.0
  0
LINE
  5
18D23
330
18C7A
100
AcDbEntity
  8
細線
100
AcDbLine
 10
2993.470589276525
 20
1417.794269174464
 30
0.0
 11
3013.470589276525
 21
1417.794269174464
 31
0.0
  0
LINE
  5
18D24
330
18C7A
100
AcDbEntity
  8
細線
100
AcDbLine
 10
3013.470589276525
 20
1388.494269174465
 30
0.0
 11
3013.470589276525
 21
1417.794269174464
 31
0.0
  0
LINE
  5
18D25
330
18C7A
100
AcDbEntity
  8
細線
100
AcDbLine
 10
3170.720589276524
 20
1388.494269174465
 30
0.0
 11
3100.720589276523
 21
1388.494269174465
 31
0.0
  0
LINE
  5
18D26
330
18C7A
100
AcDbEntity
  8
細線
 48
50.0
100
AcDbLine
 10
2890.720589276525
 20
1388.494269174465
 30
0.0
 11
2763.766368849365
 21
1388.494269174465
 31
0.0
  0
LINE
  5
18D27
330
18C7A
100
AcDbEntity
  8
細線
100
AcDbLine
 10
3030.720589276525
 20
1388.494269174465
 30
0.0
 11
2960.720589276525
 21
1388.494269174465
 31
0.0
  0
LINE
  5
18D28
330
18C7A
100
AcDbEntity
  8
細線
 48
50.0
100
AcDbLine
 10
2750.970589276525
 20
1380.494269174465
 30
0.0
 11
2750.970589276525
 21
1388.494269174465
 31
0.0
  0
LINE
  5
18D29
330
18C7A
100
AcDbEntity
  8
細線
 48
50.0
100
AcDbLine
 10
2730.970589276524
 20
1380.494269174467
 30
0.0
 11
2750.970589276525
 21
1380.494269174465
 31
0.0
  0
LINE
  5
18D2A
330
18C7A
100
AcDbEntity
  8
細線
 48
50.0
100
AcDbLine
 10
2745.970589276525
 20
1418.494269174465
 30
0.0
 11
2745.970589276525
 21
1413.494269174465
 31
0.0
  0
LINE
  5
18D2B
330
18C7A
100
AcDbEntity
  8
細線
 48
50.0
100
AcDbLine
 10
2730.970589276525
 20
1418.494269174463
 30
0.0
 11
2745.970589276525
 21
1418.494269174465
 31
0.0
  0
LINE
  5
18D2C
330
18C7A
100
AcDbEntity
  8
細線
 48
50.0
100
AcDbLine
 10
2730.970589276524
 20
1380.494269174467
 30
0.0
 11
2730.970589276525
 21
1418.494269174463
 31
0.0
  0
LINE
  5
18D2D
330
18C7A
100
AcDbEntity
  8
細線
100
AcDbLine
 10
3398.970589276523
 20
1388.494269174465
 30
0.0
 11
3240.720589276525
 21
1388.494269174465
 31
0.0
  0
LINE
  5
18D2E
330
18C7A
100
AcDbEntity
  8
細線
 48
50.0
100
AcDbLine
 10
3408.470589276525
 20
1413.494269174467
 30
0.0
 11
3408.470589276524
 21
1388.494269174465
 31
0.0
  0
TEXT
  5
18D2F
330
18C7A
100
AcDbEntity
  8
部品1
100
AcDbText
 10
1860.154865991392
 20
46.99880823813145
 30
0.0
 40
135.0
  1
平面図
  7
STYLE2
100
AcDbText
  0
LWPOLYLINE
  5
18D30
330
18C7A
100
AcDbEntity
  8
部品1
100
AcDbPolyline
 90
        4
 70
     1
 43
0.0
 10
1770.23525616235
 20
239.8923374566548
 10
1770.23525616235
 20
0.0000159111223184
 10
2533.705922390791
 20
0.0000159111223184
 10
2533.705922390791
 20
239.8923374566548
  0
LINE
  5
18D31
330
18C7A
100
AcDbEntity
  8
部品1
100
AcDbLine
 10
1534.470589276487
 20
3154.494269174626
 30
0.0
 11
2769.470589276552
 21
3154.494269174626
 31
0.0
  0
LINE
  5
18D32
330
18C7A
100
AcDbEntity
  8
部品1
 48
50.0
100
AcDbLine
 10
1311.970589276523
 20
1420.494269174462
 30
0.0
 11
3411.970589276523
 21
1420.494269174465
 31
0.0
  0
LINE
  5
18D33
330
18C7A
100
AcDbEntity
  8
部品1
 48
50.0
100
AcDbLine
 10
471.9705892765232
 20
1392.494269174465
 30
0.0
 11
1311.970589276523
 21
1392.494269174465
 31
0.0
  0
DIMENSION
  5
18D34
330
18C7A
100
AcDbEntity
  8
寸法
100
AcDbDimension
  2
*D14
 10
2710.234916278077
 20
2488.887829538828
 30
0.0
 11
2338.318822490183
 21
2488.887829538828
 31
0.0
 12
-3742.925985830444
 22
-6453.628869860112
 32
0.0
 70
   128
 71
     5
 42
1231.00000000007
  3
INABA_S40G
100
AcDbAlignedDimension
 13
1536.470589276486
 23
2702.494269174557
 33
0.0
 14
2767.470589276556
 24
2702.494269174549
 34
0.0
100
AcDbRotatedDimension
1001
ACAD
1000
DSTYLE
1002
{
1002
}
  0
LINE
  5
18D35
330
18C7A
100
AcDbEntity
  8
部品1
100
AcDbLine
 10
1536.470589276487
 20
2702.494269174557
 30
0.0
 11
2767.470589276554
 21
2702.494269174615
 31
0.0
  0
LINE
  5
18D36
330
18C7A
100
AcDbEntity
  8
部品1
100
AcDbLine
 10
1536.470589276487
 20
3152.494269174557
 30
0.0
 11
2767.470589276556
 21
3152.494269174615
 31
0.0
  0
LINE
  5
18D37
330
18C7A
100
AcDbEntity
  8
細線
 48
50.0
100
AcDbLine
 10
1508.470589276487
 20
3152.494269174558
 30
0.0
 11
445.4705892765559
 21
2702.494269174509
 31
0.0
  0
LINE
  5
18D38
330
18C7A
100
AcDbEntity
  8
細線
 48
50.0
100
AcDbLine
 10
1508.470589276487
 20
2702.494269174558
 30
0.0
 11
445.4705892765542
 21
3152.494269174509
 31
0.0
  0
LINE
  5
18D39
330
18C7A
100
AcDbEntity
  8
部品1
100
AcDbLine
 10
1556.970589276487
 20
3172.494269174611
 30
0.0
 11
1556.970589276487
 21
3154.494269174611
 31
0.0
  0
LINE
  5
18D3A
330
18C7A
100
AcDbEntity
  8
部品1
100
AcDbLine
 10
1556.970589276487
 20
3172.494269174611
 30
0.0
 11
1550.970589276487
 21
3172.494269174611
 31
0.0
  0
LINE
  5
18D3B
330
18C7A
100
AcDbEntity
  8
部品1
100
AcDbLine
 10
1534.470589276487
 20
3146.494269174608
 30
0.0
 11
1509.470589276487
 21
3146.494269174611
 31
0.0
  0
LINE
  5
18D3C
330
18C7A
100
AcDbEntity
  8
部品1
100
AcDbLine
 10
1486.970589276487
 20
3172.494269174611
 30
0.0
 11
1486.970589276487
 21
3154.494269174611
 31
0.0
  0
LINE
  5
18D3D
330
18C7A
100
AcDbEntity
  8
部品1
100
AcDbLine
 10
1492.970589276487
 20
3172.494269174611
 30
0.0
 11
1486.970589276487
 21
3172.494269174611
 31
0.0
  0
LINE
  5
18D3E
330
18C7A
100
AcDbEntity
  8
部品1
100
AcDbLine
 10
1534.470589276487
 20
2702.494269174615
 30
0.0
 11
1509.470589276487
 21
2702.494269174615
 31
0.0
  0
LINE
  5
18D3F
330
18C7A
100
AcDbEntity
  8
部品1
 48
50.0
100
AcDbLine
 10
1536.470589276487
 20
3152.494269174611
 30
0.0
 11
1536.470589276487
 21
2702.494269174615
 31
0.0
  0
LINE
  5
18D40
330
18C7A
100
AcDbEntity
  8
部品1
 48
50.0
100
AcDbLine
 10
1508.470589276487
 20
3152.494269174607
 30
0.0
 11
1508.470589276487
 21
2702.494269174615
 31
0.0
  0
LINE
  5
18D41
330
18C7A
100
AcDbEntity
  8
部品1
 48
50.0
100
AcDbLine
 10
1534.470589276487
 20
3154.494269174618
 30
0.0
 11
1534.470589276487
 21
2702.494269174615
 31
0.0
  0
LINE
  5
18D42
330
18C7A
100
AcDbEntity
  8
部品1
 48
50.0
100
AcDbLine
 10
1509.470589276487
 20
3154.494269174615
 30
0.0
 11
1509.470589276487
 21
2702.494269174615
 31
0.0
  0
LINE
  5
18D43
330
18C7A
100
AcDbEntity
  8
部品1
100
AcDbLine
 10
3411.970589276556
 20
1392.494269174582
 30
0.0
 11
3411.970589276556
 21
1420.494269174596
 31
0.0
  0
LINE
  5
18D44
330
18C7A
100
AcDbEntity
  8
部品1
100
AcDbLine
 10
1311.970589276523
 20
1392.494269174596
 30
0.0
 11
1311.970589276523
 21
1420.494269174596
 31
0.0
  0
LINE
  5
18D45
330
18C7A
100
AcDbEntity
  8
部品1
100
AcDbLine
 10
891.9705892765232
 20
1392.494269174596
 30
0.0
 11
891.9705892765232
 21
1420.494269174596
 31
0.0
  0
LINE
  5
18D46
330
18C7A
100
AcDbEntity
  8
部品1
100
AcDbLine
 10
3411.97058927652
 20
3182.494269174477
 30
0.0
 11
3411.970589276523
 21
3154.494269174477
 31
0.0
  0
LINE
  5
18D47
330
18C7A
100
AcDbEntity
  8
部品1
100
AcDbLine
 10
2571.97058927652
 20
3182.494269174477
 30
0.0
 11
2571.970589276523
 21
3154.494269174477
 31
0.0
  0
LINE
  5
18D48
330
18C7A
100
AcDbEntity
  8
部品1
100
AcDbLine
 10
2991.97058927652
 20
3182.494269174477
 30
0.0
 11
2991.970589276523
 21
3154.494269174477
 31
0.0
  0
LINE
  5
18D49
330
18C7A
100
AcDbEntity
  8
部品1
100
AcDbLine
 10
2151.970589276519
 20
3182.494269174477
 30
0.0
 11
2151.970589276523
 21
3154.494269174477
 31
0.0
  0
LINE
  5
18D4A
330
18C7A
100
AcDbEntity
  8
部品1
100
AcDbLine
 10
1731.970589276519
 20
3182.494269174477
 30
0.0
 11
1731.970589276523
 21
3154.494269174477
 31
0.0
  0
LINE
  5
18D4B
330
18C7A
100
AcDbEntity
  8
部品1
100
AcDbLine
 10
1311.970589276519
 20
3182.494269174477
 30
0.0
 11
1311.970589276523
 21
3154.494269174477
 31
0.0
  0
LINE
  5
18D4C
330
18C7A
100
AcDbEntity
  8
部品1
100
AcDbLine
 10
891.9705892765195
 20
3182.494269174477
 30
0.0
 11
891.9705892765232
 21
3154.494269174477
 31
0.0
  0
LINE
  5
18D4D
330
18C7A
100
AcDbEntity
  8
部品1
100
AcDbLine
 10
471.9705892765232
 20
1392.494269174596
 30
0.0
 11
471.9705892765232
 21
1420.494269174596
 31
0.0
  0
LINE
  5
18D4E
330
18C7A
100
AcDbEntity
  8
部品1
100
AcDbLine
 10
444.9705892765305
 20
1420.494269174558
 30
0.0
 11
3858.970589276556
 21
1420.494269174596
 31
0.0
  0
LINE
  5
18D4F
330
18C7A
100
AcDbEntity
  8
部品1
100
AcDbLine
 10
3831.970589276556
 20
1392.494269174596
 30
0.0
 11
3831.970589276556
 21
1420.494269174596
 31
0.0
  0
LINE
  5
18D50
330
18C7A
100
AcDbEntity
  8
部品1
100
AcDbLine
 10
3858.970589276556
 20
1447.494269174593
 30
0.0
 11
3886.970589276556
 21
1447.494269174593
 31
0.0
  0
LINE
  5
18D51
330
18C7A
100
AcDbEntity
  8
部品1
100
AcDbLine
 10
3858.970589276556
 20
1867.494269174607
 30
0.0
 11
3886.970589276556
 21
1867.494269174607
 31
0.0
  0
LINE
  5
18D52
330
18C7A
100
AcDbEntity
  8
部品1
100
AcDbLine
 10
444.9705892765305
 20
1867.49426917448
 30
0.0
 11
416.9705892765305
 21
1867.49426917448
 31
0.0
  0
LINE
  5
18D53
330
18C7A
100
AcDbEntity
  8
部品1
100
AcDbLine
 10
3830.470589276541
 20
1867.49426917458
 30
0.0
 11
473.4705892765396
 21
1867.49426917448
 31
0.0
  0
LINE
  5
18D54
330
18C7A
100
AcDbEntity
  8
部品1
100
AcDbLine
 10
3830.470589276541
 20
2287.49426917458
 30
0.0
 11
473.4705892765396
 21
2287.49426917448
 31
0.0
  0
LINE
  5
18D55
330
18C7A
100
AcDbEntity
  8
部品1
100
AcDbLine
 10
444.9705892765305
 20
2287.49426917448
 30
0.0
 11
416.9705892765305
 21
2287.49426917448
 31
0.0
  0
LINE
  5
18D56
330
18C7A
100
AcDbEntity
  8
部品1
100
AcDbLine
 10
3858.970589276556
 20
2287.494269174608
 30
0.0
 11
3886.970589276556
 21
2287.494269174608
 31
0.0
  0
LINE
  5
18D57
330
18C7A
100
AcDbEntity
  8
部品1
 48
50.0
100
AcDbLine
 10
2151.970589276551
 20
2702.494269174586
 30
0.0
 11
2151.970589276581
 21
1448.994269174494
 31
0.0
  0
LINE
  5
18D58
330
18C7A
100
AcDbEntity
  8
破線
 48
10.0
100
AcDbLine
 10
2959.470589276535
 20
1472.494269174522
 30
0.0
 11
2176.970589276532
 21
1472.494269174505
 31
0.0
  0
LINE
  5
18D59
330
18C7A
100
AcDbEntity
  8
破線
 48
10.0
100
AcDbLine
 10
3009.47058927653
 20
1448.994269174509
 30
0.0
 11
3009.47058927653
 21
2702.494269174615
 31
0.0
  0
LINE
  5
18D5A
330
18C7A
100
AcDbEntity
  8
破線
 48
10.0
100
AcDbLine
 10
2959.470589276535
 20
1448.994269174505
 30
0.0
 11
2959.470589276531
 21
2702.494269174615
 31
0.0
  0
LINE
  5
18D5B
330
18C7A
100
AcDbEntity
  8
破線
 48
10.0
100
AcDbLine
 10
1344.47058927653
 20
1448.994269174509
 30
0.0
 11
1344.47058927653
 21
2702.494269174615
 31
0.0
  0
LINE
  5
18D5C
330
18C7A
100
AcDbEntity
  8
破線
 48
10.0
100
AcDbLine
 10
1294.470589276534
 20
1448.994269174505
 30
0.0
 11
1294.47058927653
 21
2702.494269174615
 31
0.0
  0
DIMENSION
  5
18D5D
330
18C7A
100
AcDbEntity
  8
寸法
100
AcDbDimension
  2
*D13
 10
1451.234916278005
 20
2488.887829538828
 30
0.0
 11
916.0604668248634
 21
2488.887829538828
 31
0.0
 12
-3742.925985830444
 22
-6453.628869860112
 32
0.0
 70
   128
 71
     5
 42
1062.99999999993
  3
INABA_S40G
100
AcDbAlignedDimension
 13
445.4705892765559
 23
2702.494269174505
 33
0.0
 14
1508.470589276486
 24
2702.494269174558
 34
0.0
100
AcDbRotatedDimension
1001
ACAD
1000
DSTYLE
1002
{
1002
}
  0
LINE
  5
18D5E
330
18C7A
100
AcDbEntity
  8
破線
 48
10.0
100
AcDbLine
 10
1294.470589276534
 20
1472.494269174469
 30
0.0
 11
496.9705892765414
 21
1472.494269174476
 31
0.0
  0
LINE
  5
18D5F
330
18C7A
100
AcDbEntity
  8
部品1
100
AcDbLine
 10
3831.970589276556
 20
3182.494269174604
 30
0.0
 11
3831.970589276556
 21
3154.494269174604
 31
0.0
  0
LINE
  5
18D60
330
18C7A
100
AcDbEntity
  8
部品1
100
AcDbLine
 10
3831.970589276556
 20
3182.494269174626
 30
0.0
 11
3831.970589276556
 21
3154.494269174626
 31
0.0
  0
LINE
  5
18D61
330
18C7A
100
AcDbEntity
  8
部品1
100
AcDbLine
 10
3858.970589276556
 20
3127.494269174607
 30
0.0
 11
3886.970589276556
 21
3127.494269174607
 31
0.0
  0
LINE
  5
18D62
330
18C7A
100
AcDbEntity
  8
部品1
100
AcDbLine
 10
3858.970589276556
 20
2707.494269174608
 30
0.0
 11
3886.970589276556
 21
2707.494269174608
 31
0.0
  0
LINE
  5
18D63
330
18C7A
100
AcDbEntity
  8
部品1
100
AcDbLine
 10
3858.470589276556
 20
3152.494269174604
 30
0.0
 11
3858.470589276556
 21
2702.494269174608
 31
0.0
  0
LINE
  5
18D64
330
18C7A
100
AcDbEntity
  8
部品1
100
AcDbLine
 10
3886.970589276533
 20
1447.494269174593
 30
0.0
 11
3886.970589276531
 21
1392.494269174596
 31
0.0
  0
LINE
  5
18D65
330
18C7A
100
AcDbEntity
  8
部品1
 48
50.0
100
AcDbLine
 10
3830.470589276556
 20
1448.994269174596
 30
0.0
 11
3858.970589276554
 21
1420.494269174596
 31
0.0
  0
LINE
  5
18D66
330
18C7A
100
AcDbEntity
  8
部品1
100
AcDbLine
 10
3886.970589276531
 20
1392.494269174596
 30
0.0
 11
3835.970589276531
 21
1392.494269174596
 31
0.0
  0
LINE
  5
18D67
330
18C7A
100
AcDbEntity
  8
部品1
100
AcDbLine
 10
3858.970589276533
 20
1447.494269174593
 30
0.0
 11
3886.970589276531
 21
1447.494269174593
 31
0.0
  0
LINE
  5
18D68
330
18C7A
100
AcDbEntity
  8
部品1
100
AcDbLine
 10
3886.970589276556
 20
3182.494269174604
 30
0.0
 11
3886.970589276531
 21
1392.494269174596
 31
0.0
  0
DIMENSION
  5
18D69
330
18C7A
100
AcDbEntity
  8
寸法
100
AcDbDimension
  2
*D12
 10
4534.396935010967
 20
1447.494269174593
 30
0.0
 11
4534.396935010965
 21
2287.4942691746
 31
0.0
 12
-3742.925985830444
 22
-6453.628869860112
 32
0.0
 70
   128
  1
4X420=<>
 71
     5
 42
1680.000000000014
  3
INABA_S40G
100
AcDbAlignedDimension
 13
3886.970589276556
 23
3127.494269174607
 33
0.0
 14
3886.970589276531
 24
1447.494269174593
 34
0.0
 50
90.0
100
AcDbRotatedDimension
1001
ACAD
1000
DSTYLE
1002
{
1002
}
  0
LINE
  5
18D6A
330
18C7A
100
AcDbEntity
  8
部品1
100
AcDbLine
 10
3858.970589276556
 20
3154.494269174604
 30
0.0
 11
3858.970589276534
 21
1420.494269174596
 31
0.0
  0
DIMENSION
  5
18D6B
330
18C7A
100
AcDbEntity
  8
寸法
100
AcDbDimension
  2
*D11
 10
4213.82831513858
 20
2607.276453505718
 30
0.0
 11
4113.828315138579
 21
2832.276453505718
 31
0.0
 12
-3742.925985830444
 22
-6453.628869860112
 32
0.0
 71
     5
 42
449.9999999999963
  3
INABA_S40G
100
AcDbAlignedDimension
 13
3858.470589276556
 23
3152.494269174604
 33
0.0
 14
3858.470589276556
 24
2702.494269174608
 34
0.0
 50
90.0
100
AcDbRotatedDimension
1001
ACAD
1000
DSTYLE
1002
{
1002
}
  0
LINE
  5
18D6C
330
18C7A
100
AcDbEntity
  8
部品1
100
AcDbLine
 10
3830.470589276547
 20
2702.494269174608
 30
0.0
 11
3830.470589276556
 21
1448.994269174596
 31
0.0
  0
LINE
  5
18D6D
330
18C7A
100
AcDbEntity
  8
破線
 48
10.0
100
AcDbLine
 10
3806.970589276549
 20
2702.494269174608
 30
0.0
 11
3806.970589276558
 21
1472.494269174593
 31
0.0
  0
LINE
  5
18D6E
330
18C7A
100
AcDbEntity
  8
部品1
100
AcDbLine
 10
2769.470589276556
 20
3146.494269174608
 30
0.0
 11
2794.470589276556
 21
3146.494269174611
 31
0.0
  0
LINE
  5
18D6F
330
18C7A
100
AcDbEntity
  8
部品1
100
AcDbLine
 10
2810.970589276556
 20
3172.494269174611
 30
0.0
 11
2816.970589276556
 21
3172.494269174611
 31
0.0
  0
LINE
  5
18D70
330
18C7A
100
AcDbEntity
  8
部品1
100
AcDbLine
 10
2816.970589276556
 20
3172.494269174611
 30
0.0
 11
2816.970589276556
 21
3154.494269174611
 31
0.0
  0
LINE
  5
18D71
330
18C7A
100
AcDbEntity
  8
部品1
100
AcDbLine
 10
2746.970589276556
 20
3172.494269174611
 30
0.0
 11
2752.970589276556
 21
3172.494269174611
 31
0.0
  0
LINE
  5
18D72
330
18C7A
100
AcDbEntity
  8
部品1
100
AcDbLine
 10
2746.970589276556
 20
3172.494269174611
 30
0.0
 11
2746.970589276556
 21
3154.494269174611
 31
0.0
  0
LINE
  5
18D73
330
18C7A
100
AcDbEntity
  8
部品1
100
AcDbLine
 10
2769.470589276556
 20
2702.494269174615
 30
0.0
 11
2794.470589276556
 21
2702.494269174615
 31
0.0
  0
LINE
  5
18D74
330
18C7A
100
AcDbEntity
  8
部品1
 48
50.0
100
AcDbLine
 10
2794.470589276556
 20
3154.494269174615
 30
0.0
 11
2794.470589276556
 21
2702.494269174615
 31
0.0
  0
LINE
  5
18D75
330
18C7A
100
AcDbEntity
  8
部品1
 48
50.0
100
AcDbLine
 10
2769.470589276554
 20
3154.494269174618
 30
0.0
 11
2769.470589276556
 21
2702.494269174615
 31
0.0
  0
LINE
  5
18D76
330
18C7A
100
AcDbEntity
  8
部品1
 48
50.0
100
AcDbLine
 10
2795.470589276556
 20
3152.494269174607
 30
0.0
 11
2795.470589276556
 21
2702.494269174615
 31
0.0
  0
LINE
  5
18D77
330
18C7A
100
AcDbEntity
  8
部品1
 48
50.0
100
AcDbLine
 10
2767.470589276556
 20
3152.494269174611
 30
0.0
 11
2767.470589276556
 21
2702.494269174615
 31
0.0
  0
LINE
  5
18D78
330
18C7A
100
AcDbEntity
  8
破線
 48
10.0
100
AcDbLine
 10
2176.97058927653
 20
1448.994269174509
 30
0.0
 11
2176.97058927653
 21
2702.494269174588
 31
0.0
  0
LINE
  5
18D79
330
18C7A
100
AcDbEntity
  8
破線
 48
10.0
100
AcDbLine
 10
2126.970589276534
 20
1448.994269174505
 30
0.0
 11
2126.970589276531
 21
2702.494269174586
 31
0.0
  0
LINE
  5
18D7A
330
18C7A
100
AcDbEntity
  8
部品1
100
AcDbLine
 10
2794.470589276556
 20
3154.494269174622
 30
0.0
 11
3858.970589276556
 21
3154.494269174604
 31
0.0
  0
LINE
  5
18D7B
330
18C7A
100
AcDbEntity
  8
細線
 48
50.0
100
AcDbLine
 10
3858.470589276556
 20
2702.494269174608
 30
0.0
 11
2795.470589276556
 21
3152.494269174607
 31
0.0
  0
LINE
  5
18D7C
330
18C7A
100
AcDbEntity
  8
部品1
100
AcDbLine
 10
2795.470589276555
 20
2702.494269174615
 30
0.0
 11
3858.470589276556
 21
2702.494269174608
 31
0.0
  0
LINE
  5
18D7D
330
18C7A
100
AcDbEntity
  8
部品1
100
AcDbLine
 10
2795.470589276556
 20
3152.494269174611
 30
0.0
 11
3858.470589276556
 21
3152.494269174604
 31
0.0
  0
LINE
  5
18D7E
330
18C7A
100
AcDbEntity
  8
細線
 48
50.0
100
AcDbLine
 10
3858.470589276556
 20
3152.494269174604
 30
0.0
 11
2795.470589276555
 21
2702.494269174615
 31
0.0
  0
DIMENSION
  5
18D7F
330
18C7A
100
AcDbEntity
  8
寸法
100
AcDbDimension
  2
*D10
 10
3801.234916278101
 20
2488.887829538937
 30
0.0
 11
3318.360544398907
 21
2488.887829538937
 31
0.0
 12
-3742.925985830444
 22
-6453.628869860112
 32
0.0
 70
   128
 71
     5
 42
1063.000000000012
  3
INABA_S40G
100
AcDbAlignedDimension
 13
2795.470589276555
 23
2702.494269174615
 33
0.0
 14
3858.470589276567
 24
2702.494269174608
 34
0.0
100
AcDbRotatedDimension
1001
ACAD
1000
DSTYLE
1002
{
1002
}
  0
LINE
  5
18D80
330
18C7A
100
AcDbEntity
  8
破線
 48
10.0
100
AcDbLine
 10
3806.970589276556
 20
1472.494269174594
 30
0.0
 11
3009.47058927653
 21
1472.494269174523
 31
0.0
  0
DIMENSION
  5
18D81
330
18C7A
100
AcDbEntity
  8
寸法
100
AcDbDimension
  2
*D9
 10
4534.396935010941
 20
1392.494269174596
 30
0.0
 11
4534.39693501094
 21
1084.008987800356
 31
0.0
 12
-3742.925985830444
 22
-6453.628869860112
 32
0.0
 70
   128
 71
     5
 42
54.99999999999636
  3
INABA_S40G
100
AcDbAlignedDimension
 13
3886.970589276531
 23
1447.494269174593
 33
0.0
 14
3886.970589276531
 24
1392.494269174596
 34
0.0
 50
90.0
100
AcDbRotatedDimension
1001
ACAD
1000
DSTYLE
1002
{
1002
}
  0
LINE
  5
18D82
330
18C7A
100
AcDbEntity
  8
部品1
100
AcDbLine
 10
471.9705892765196
 20
3182.494269174477
 30
0.0
 11
471.9705892765232
 21
3154.494269174477
 31
0.0
  0
LINE
  5
18D83
330
18C7A
100
AcDbEntity
  8
部品1
100
AcDbLine
 10
471.9705892765559
 20
3182.494269174509
 30
0.0
 11
471.9705892765559
 21
3154.494269174509
 31
0.0
  0
LINE
  5
18D84
330
18C7A
100
AcDbEntity
  8
部品1
100
AcDbLine
 10
444.9705892765232
 20
3127.49426917448
 30
0.0
 11
416.9705892765232
 21
3127.49426917448
 31
0.0
  0
LINE
  5
18D85
330
18C7A
100
AcDbEntity
  8
部品1
100
AcDbLine
 10
444.9705892765305
 20
2707.49426917448
 30
0.0
 11
416.9705892765305
 21
2707.49426917448
 31
0.0
  0
LINE
  5
18D86
330
18C7A
100
AcDbEntity
  8
部品1
 48
50.0
100
AcDbLine
 10
445.4705892765542
 20
3152.494269174506
 30
0.0
 11
445.4705892765559
 21
2702.494269174505
 31
0.0
  0
LINE
  5
18D87
330
18C7A
100
AcDbEntity
  8
部品1
 48
50.0
100
AcDbLine
 10
473.470589276545
 20
1448.994269174573
 30
0.0
 11
444.970589276545
 21
1420.494269174574
 31
0.0
  0
LINE
  5
18D88
330
18C7A
100
AcDbEntity
  8
部品1
100
AcDbLine
 10
471.9705892765232
 20
1392.494269174465
 30
0.0
 11
416.9705892765486
 21
1392.494269174465
 31
0.0
  0
LINE
  5
18D89
330
18C7A
100
AcDbEntity
  8
部品1
100
AcDbLine
 10
444.9705892765305
 20
1447.494269174429
 30
0.0
 11
416.9705892765469
 21
1447.494269174429
 31
0.0
  0
LINE
  5
18D8A
330
18C7A
100
AcDbEntity
  8
部品1
100
AcDbLine
 10
444.9705892765305
 20
1447.494269174465
 30
0.0
 11
416.9705892765469
 21
1447.494269174465
 31
0.0
  0
LINE
  5
18D8B
330
18C7A
100
AcDbEntity
  8
部品1
100
AcDbLine
 10
444.9705892765469
 20
1447.49426917448
 30
0.0
 11
416.9705892765469
 21
1447.49426917448
 31
0.0
  0
LINE
  5
18D8C
330
18C7A
100
AcDbEntity
  8
部品1
100
AcDbLine
 10
416.9705892765469
 20
1447.494269174429
 30
0.0
 11
416.9705892765486
 21
1392.494269174433
 31
0.0
  0
LINE
  5
18D8D
330
18C7A
100
AcDbEntity
  8
部品1
100
AcDbLine
 10
416.9705892765196
 20
3182.494269174477
 30
0.0
 11
416.9705892765486
 21
1392.494269174465
 31
0.0
  0
LINE
  5
18D8E
330
18C7A
100
AcDbEntity
  8
部品1
100
AcDbLine
 10
444.9705892765305
 20
1420.494269174556
 30
0.0
 11
444.9705892765559
 21
3154.494269174509
 31
0.0
  0
LINE
  5
18D8F
330
18C7A
100
AcDbEntity
  8
部品1
100
AcDbLine
 10
473.4705892765323
 20
2702.494269174608
 30
0.0
 11
473.470589276545
 21
1448.994269174571
 31
0.0
  0
LINE
  5
18D90
330
18C7A
100
AcDbEntity
  8
破線
 48
10.0
100
AcDbLine
 10
496.9705892765305
 20
2702.494269174608
 30
0.0
 11
496.9705892765451
 21
1472.494269174476
 31
0.0
  0
DIMENSION
  5
18D91
330
18C7A
100
AcDbEntity
  8
寸法
100
AcDbDimension
  2
*D8
 10
3886.970589276531
 20
410.7433333855515
 30
0.0
 11
2168.197775309287
 21
410.7433333855515
 31
0.0
 12
-3742.925985830444
 22
-6453.628869860112
 32
0.0
 70
   128
 71
     5
 42
3469.999999999982
  3
INABA_S40G
100
AcDbAlignedDimension
 13
416.9705892765486
 23
1392.494269174433
 33
0.0
 14
3886.970589276531
 24
1392.49426917456
 34
0.0
100
AcDbRotatedDimension
1001
ACAD
1000
DSTYLE
1002
{
1070
   341
1005
0
1002
}
  0
LINE
  5
18D92
330
18C7A
100
AcDbEntity
  8
部品1
100
AcDbLine
 10
444.9705892765559
 20
3154.494269174624
 30
0.0
 11
1509.470589276487
 21
3154.494269174626
 31
0.0
  0
LINE
  5
18D93
330
18C7A
100
AcDbEntity
  8
部品1
100
AcDbLine
 10
3886.970589276531
 20
1392.494269174596
 30
0.0
 11
3411.970589276556
 21
1392.494269174582
 31
0.0
  0
LINE
  5
18D94
330
18C7A
100
AcDbEntity
  8
部品1
100
AcDbLine
 10
416.9705892765559
 20
3182.494269174509
 30
0.0
 11
3886.970589276556
 21
3182.494269174604
 31
0.0
  0
LINE
  5
18D95
330
18C7A
100
AcDbEntity
  8
部品1
100
AcDbLine
 10
445.4705892765559
 20
2702.494269174509
 30
0.0
 11
1508.470589276487
 21
2702.494269174558
 31
0.0
  0
LINE
  5
18D96
330
18C7A
100
AcDbEntity
  8
細線
 48
50.0
100
AcDbLine
 10
2767.470589276556
 20
3152.494269174611
 30
0.0
 11
1536.470589276487
 21
2702.494269174558
 31
0.0
  0
LINE
  5
18D97
330
18C7A
100
AcDbEntity
  8
部品1
100
AcDbLine
 10
445.4705892765542
 20
3152.494269174509
 30
0.0
 11
1508.470589276485
 21
3152.494269174558
 31
0.0
  0
LINE
  5
18D98
330
18C7A
100
AcDbEntity
  8
細線
 48
50.0
100
AcDbLine
 10
2767.470589276554
 20
2702.494269174615
 30
0.0
 11
1536.470589276485
 21
3152.494269174558
 31
0.0
  0
LINE
  5
18D99
330
18C7A
100
AcDbEntity
  8
破線
 48
10.0
100
AcDbLine
 10
2126.970589276534
 20
1472.494269174502
 30
0.0
 11
1344.47058927653
 21
1472.494269174473
 31
0.0
  0
LINE
  5
18D9A
330
18C7A
100
AcDbEntity
  8
部品1
100
AcDbLine
 10
3830.470589276556
 20
1448.994269174596
 30
0.0
 11
473.4705892764487
 21
1448.994269174476
 31
0.0
  0
DIMENSION
  5
18D9B
330
18C7A
100
AcDbEntity
  8
寸法
100
AcDbDimension
  2
*D7
 10
471.970589276555
 20
3698.302488799491
 30
0.0
 11
108.4853079022819
 21
3698.302488799491
 31
0.0
 12
-3742.925985830444
 22
-6453.628869860112
 32
0.0
 70
   128
 71
     5
 42
55.00000000003456
  3
INABA_S40G
100
AcDbAlignedDimension
 13
416.9705892765205
 23
3182.494269174509
 33
0.0
 14
471.970589276555
 24
3182.494269174509
 34
0.0
100
AcDbRotatedDimension
1001
ACAD
1000
DSTYLE
1002
{
1002
}
  0
DIMENSION
  5
18D9C
330
18C7A
100
AcDbEntity
  8
寸法
100
AcDbDimension
  2
*D6
 10
4534.396935010967
 20
3127.494269174607
 30
0.0
 11
4534.396935010965
 21
3490.979550548844
 31
0.0
 12
-3742.925985830444
 22
-6453.628869860112
 32
0.0
 70
   128
 71
     5
 42
54.99999999999636
  3
INABA_S40G
100
AcDbAlignedDimension
 13
3886.970589276556
 23
3182.494269174604
 33
0.0
 14
3886.970589276556
 24
3127.494269174607
 34
0.0
 50
90.0
100
AcDbRotatedDimension
1001
ACAD
1000
DSTYLE
1002
{
1002
}
  0
DIMENSION
  5
18D9D
330
18C7A
100
AcDbEntity
  8
寸法
100
AcDbDimension
  2
*D5
 10
3886.970589276556
 20
3698.302488799589
 30
0.0
 11
4195.455870650794
 21
3698.302488799589
 31
0.0
 12
-3742.925985830444
 22
-6453.628869860112
 32
0.0
 70
   128
 71
     5
 42
55.0
  3
INABA_S40G
100
AcDbAlignedDimension
 13
3831.970589276556
 23
3182.494269174604
 33
0.0
 14
3886.970589276556
 24
3182.494269174604
 34
0.0
100
AcDbRotatedDimension
1001
ACAD
1000
DSTYLE
1002
{
1002
}
  0
DIMENSION
  5
18D9E
330
18C7A
100
AcDbEntity
  8
寸法
100
AcDbDimension
  2
*D4
 10
3831.970589276556
 20
3698.302488799607
 30
0.0
 11
2151.970589276555
 21
3698.302488799607
 31
0.0
 12
-3742.925985830444
 22
-6453.628869860112
 32
0.0
 70
   128
  1
8X420=<>
 71
     5
 42
3360.000000000001
  3
INABA_S40G
100
AcDbAlignedDimension
 13
471.970589276555
 23
3182.494269174509
 33
0.0
 14
3831.970589276556
 24
3182.494269174604
 34
0.0
100
AcDbRotatedDimension
1001
ACAD
1000
DSTYLE
1002
{
1002
}
  0
DIMENSION
  5
18D9F
330
18C7A
100
AcDbEntity
  8
寸法
100
AcDbDimension
  2
*D3
 10
4899.503876750603
 20
1392.494269174596
 30
0.0
 11
4899.503876750601
 21
2287.4942691746
 31
0.0
 12
-3742.925985830444
 22
-6453.628869860112
 32
0.0
 70
   128
 71
     5
 42
1790.000000000007
  3
INABA_S40G
100
AcDbAlignedDimension
 13
3886.970589276556
 23
3182.494269174604
 33
0.0
 14
3886.970589276531
 24
1392.494269174596
 34
0.0
 50
90.0
100
AcDbRotatedDimension
1001
ACAD
1000
DSTYLE
1002
{
1002
}
  0
ENDBLK
  5
18DA1
330
18C7A
100
AcDbEntity
  8
0
 48
50.0
100
AcDbBlockEnd
  0
BLOCK
  5
1C4CB
330
1C4CA
100
AcDbEntity
  8
0
 48
50.0
100
AcDbBlockBegin
  2
_NONE
 70
     0
 10
0.0
 20
0.0
 30
0.0
  3
_NONE
  1

  0
CIRCLE
  5
1C4CC
330
1C4CA
100
AcDbEntity
  8
0
  6
ByBlock
 62
     0
 48
50.0
100
AcDbCircle
 10
0.0
 20
0.0
 30
0.0
 40
0.25
  0
ENDBLK
  5
1C4CD
330
1C4CA
100
AcDbEntity
  8
0
 48
50.0
100
AcDbBlockEnd
  0
BLOCK
  5
211F4
330
211EB
100
AcDbEntity
  8
0
 48
50.0
100
AcDbBlockBegin
  2
*D19
 70
     1
 10
0.0
 20
0.0
 30
0.0
  3
*D19
  1

  0
LINE
  5
218B6
330
211EB
100
AcDbEntity
  8
寸法
 62
     0
 48
50.0
370
    -2
100
AcDbLine
 10
8103.6
 20
6856.907777930207
 30
0.0
 11
6681.75614359632
 21
6856.907777930207
 31
0.0
  0
LINE
  5
218B7
330
211EB
100
AcDbEntity
  8
寸法
 62
     0
 48
50.0
370
    -2
100
AcDbLine
 10
7303.6
 20
7756.907777930208
 30
0.0
 11
6681.75614359632
 21
7756.907777930208
 31
0.0
  0
LINE
  5
218B8
330
211EB
100
AcDbEntity
  8
寸法
 62
     0
 48
50.0
370
    -2
100
AcDbLine
 10
6741.756143596319
 20
6856.907777930207
 30
0.0
 11
6741.756143596319
 21
7756.907777930208
 31
0.0
  0
INSERT
  5
218B9
330
211EB
100
AcDbEntity
  8
寸法
 62
     0
 48
50.0
370
    -2
100
AcDbBlockReference
  2
_DOTSMALL
 10
6741.756143596319
 20
6856.907777930207
 30
0.0
 41
100.0
 42
100.0
 43
100.0
 50
270.0
  0
INSERT
  5
218BA
330
211EB
100
AcDbEntity
  8
寸法
 62
     0
 48
50.0
370
    -2
100
AcDbBlockReference
  2
_DOTSMALL
 10
6741.756143596319
 20
7756.907777930208
 30
0.0
 41
100.0
 42
100.0
 43
100.0
 50
90.0
  0
MTEXT
  5
218BB
330
211EB
100
AcDbEntity
  8
寸法
 62
     7
 48
50.0
100
AcDbMText
 10
6641.756143596317
 20
7306.907777930208
 30
0.0
 40
120.0
 41
0.0
 71
     5
 72
     1
  1
\A1;900
  7
STYLE1
 11
0.0000000000000001
 21
1.0
 31
0.0
 73
     1
 44
1.0
1001
ACAD
1000
MTEXTBEGIN
1070
    73
1070
     1
1070
    44
1040
1.0
1070
    74
1070
     0
1000
MTEXTEND
  0
POINT
  5
218BC
330
211EB
100
AcDbEntity
  8
DEFPOINTS
 62
     0
 48
50.0
100
AcDbPoint
 10
8123.600000000001
 20
6856.907777930207
 30
0.0
  0
POINT
  5
218BD
330
211EB
100
AcDbEntity
  8
DEFPOINTS
 62
     0
 48
50.0
100
AcDbPoint
 10
7323.6
 20
7756.907777930208
 30
0.0
  0
POINT
  5
218BE
330
211EB
100
AcDbEntity
  8
DEFPOINTS
 62
     0
 48
50.0
100
AcDbPoint
 10
6741.756143596319
 20
7756.907777930208
 30
0.0
  0
ENDBLK
  5
211F5
330
211EB
100
AcDbEntity
  8
0
 48
50.0
100
AcDbBlockEnd
  0
BLOCK
  5
21200
330
211F6
100
AcDbEntity
  8
0
 48
50.0
100
AcDbBlockBegin
  2
*D20
 70
     1
 10
0.0
 20
0.0
 30
0.0
  3
*D20
  1

  0
LINE
  5
218AD
330
211F6
100
AcDbEntity
  8
寸法
 62
     0
 48
50.0
370
    -2
100
AcDbLine
 10
9123.600000000001
 20
7776.907777930208
 30
0.0
 11
9123.600000000001
 21
8343.817543578534
 31
0.0
  0
LINE
  5
218AE
330
211F6
100
AcDbEntity
  8
寸法
 62
     0
 48
50.0
370
    -2
100
AcDbLine
 10
8223.600000000001
 20
7076.907777930208
 30
0.0
 11
8223.600000000001
 21
8343.817543578534
 31
0.0
  0
LINE
  5
218AF
330
211F6
100
AcDbEntity
  8
寸法
 62
     0
 48
50.0
370
    -2
100
AcDbLine
 10
9123.600000000001
 20
8283.817543578534
 30
0.0
 11
8223.600000000001
 21
8283.817543578534
 31
0.0
  0
INSERT
  5
218B0
330
211F6
100
AcDbEntity
  8
寸法
 62
     0
 48
50.0
370
    -2
100
AcDbBlockReference
  2
_DOTSMALL
 10
9123.600000000001
 20
8283.817543578534
 30
0.0
 41
100.0
 42
100.0
 43
100.0
  0
INSERT
  5
218B1
330
211F6
100
AcDbEntity
  8
寸法
 62
     0
 48
50.0
370
    -2
100
AcDbBlockReference
  2
_DOTSMALL
 10
8223.600000000001
 20
8283.817543578534
 30
0.0
 41
100.0
 42
100.0
 43
100.0
 50
180.0
  0
MTEXT
  5
218B2
330
211F6
100
AcDbEntity
  8
寸法
 62
     7
 48
50.0
100
AcDbMText
 10
8694.51852200628
 20
8383.817543578535
 30
0.0
 40
120.0
 41
0.0
 71
     5
 72
     1
  1
\A1;900
  7
STYLE1
 73
     1
 44
1.0
1001
ACAD
1000
MTEXTBEGIN
1070
    73
1070
     1
1070
    44
1040
1.0
1070
    74
1070
     0
1000
MTEXTEND
  0
POINT
  5
218B3
330
211F6
100
AcDbEntity
  8
DEFPOINTS
 62
     0
 48
50.0
100
AcDbPoint
 10
9123.600000000001
 20
7756.907777930208
 30
0.0
  0
POINT
  5
218B4
330
211F6
100
AcDbEntity
  8
DEFPOINTS
 62
     0
 48
50.0
100
AcDbPoint
 10
8223.600000000001
 20
7056.907777930208
 30
0.0
  0
POINT
  5
218B5
330
211F6
100
AcDbEntity
  8
DEFPOINTS
 62
     0
 48
50.0
100
AcDbPoint
 10
8223.600000000001
 20
8283.817543578534
 30
0.0
  0
ENDBLK
  5
21201
330
211F6
100
AcDbEntity
  8
0
 48
50.0
100
AcDbBlockEnd
  0
BLOCK
  5
2120D
330
21202
100
AcDbEntity
  8
0
 48
50.0
100
AcDbBlockBegin
  2
*D21
 70
     1
 10
0.0
 20
0.0
 30
0.0
  3
*D21
  1

  0
LINE
  5
218A3
330
21202
100
AcDbEntity
  8
寸法
 62
     0
 48
50.0
370
    -2
100
AcDbLine
 10
7303.6
 20
7756.907777930208
 30
0.0
 11
6424.227453286071
 21
7756.907777930208
 31
0.0
  0
LINE
  5
218A4
330
21202
100
AcDbEntity
  8
寸法
 62
     0
 48
50.0
370
    -2
100
AcDbLine
 10
7376.6
 20
7633.907777930208
 30
0.0
 11
6424.227453286071
 21
7633.907777930208
 31
0.0
  0
LINE
  5
218A5
330
21202
100
AcDbEntity
  8
寸法
 62
     0
 48
50.0
370
    -2
100
AcDbLine
 10
6484.227453286071
 20
7633.907777930208
 30
0.0
 11
6484.227453286071
 21
7756.907777930208
 31
0.0
  0
LINE
  5
218A6
330
21202
100
AcDbEntity
  8
寸法
 62
     0
 48
50.0
370
    -2
100
AcDbLine
 10
6484.227453286071
 20
7756.907777930208
 30
0.0
 11
6484.227453286071
 21
8208.499661022242
 31
0.0
  0
INSERT
  5
218A7
330
21202
100
AcDbEntity
  8
寸法
 62
     0
 48
50.0
370
    -2
100
AcDbBlockReference
  2
_DOTSMALL
 10
6484.227453286071
 20
7633.907777930208
 30
0.0
 41
100.0
 42
100.0
 43
100.0
 50
270.0
  0
INSERT
  5
218A8
330
21202
100
AcDbEntity
  8
寸法
 62
     0
 48
50.0
370
    -2
100
AcDbBlockReference
  2
_DOTSMALL
 10
6484.227453286071
 20
7756.907777930208
 30
0.0
 41
100.0
 42
100.0
 43
100.0
 50
90.0
  0
MTEXT
  5
218A9
330
21202
100
AcDbEntity
  8
寸法
 62
     7
 48
50.0
100
AcDbMText
 10
6384.215642262448
 20
8070.014379648005
 30
0.0
 40
120.0
 41
0.0
 71
     5
 72
     1
  1
\A1;123
  7
STYLE1
 11
0.0000000000000001
 21
1.0
 31
0.0
 73
     1
 44
1.0
1001
ACAD
1000
MTEXTBEGIN
1070
    73
1070
     1
1070
    44
1040
1.0
1070
    74
1070
     0
1000
MTEXTEND
  0
POINT
  5
218AA
330
21202
100
AcDbEntity
  8
DEFPOINTS
 62
     0
 48
50.0
100
AcDbPoint
 10
7323.6
 20
7756.907777930208
 30
0.0
  0
POINT
  5
218AB
330
21202
100
AcDbEntity
  8
DEFPOINTS
 62
     0
 48
50.0
100
AcDbPoint
 10
7396.600000000001
 20
7633.907777930208
 30
0.0
  0
POINT
  5
218AC
330
21202
100
AcDbEntity
  8
DEFPOINTS
 62
     0
 48
50.0
100
AcDbPoint
 10
6484.227453286071
 20
7633.907777930208
 30
0.0
  0
ENDBLK
  5
2120E
330
21202
100
AcDbEntity
  8
0
 48
50.0
100
AcDbBlockEnd
  0
BLOCK
  5
21218
330
2120F
100
AcDbEntity
  8
0
 48
50.0
100
AcDbBlockBegin
  2
*D22
 70
     1
 10
0.0
 20
0.0
 30
0.0
  3
*D22
  1

  0
LINE
  5
2189A
330
2120F
100
AcDbEntity
  8
寸法
 62
     0
 48
50.0
370
    -2
100
AcDbLine
 10
7303.6
 20
5956.907777930208
 30
0.0
 11
6172.284356566673
 21
5956.907777930208
 31
0.0
  0
LINE
  5
2189B
330
2120F
100
AcDbEntity
  8
寸法
 62
     0
 48
50.0
370
    -2
100
AcDbLine
 10
7303.6
 20
7756.907777930208
 30
0.0
 11
6172.284356566674
 21
7756.907777930208
 31
0.0
  0
LINE
  5
2189C
330
2120F
100
AcDbEntity
  8
寸法
 62
     0
 48
50.0
370
    -2
100
AcDbLine
 10
6232.284356566673
 20
5956.907777930208
 30
0.0
 11
6232.284356566673
 21
7756.907777930208
 31
0.0
  0
INSERT
  5
2189D
330
2120F
100
AcDbEntity
  8
寸法
 62
     0
 48
50.0
370
    -2
100
AcDbBlockReference
  2
_DOTSMALL
 10
6232.284356566673
 20
5956.907777930208
 30
0.0
 41
100.0
 42
100.0
 43
100.0
 50
270.0
  0
INSERT
  5
2189E
330
2120F
100
AcDbEntity
  8
寸法
 62
     0
 48
50.0
370
    -2
100
AcDbBlockReference
  2
_DOTSMALL
 10
6232.284356566673
 20
7756.907777930208
 30
0.0
 41
100.0
 42
100.0
 43
100.0
 50
90.0
  0
MTEXT
  5
2189F
330
2120F
100
AcDbEntity
  8
寸法
 62
     7
 48
50.0
100
AcDbMText
 10
6132.284356566671
 20
6856.907777930207
 30
0.0
 40
120.0
 41
0.0
 71
     5
 72
     1
  1
\A1;1800
  7
STYLE1
 11
0.0000000000000001
 21
1.0
 31
0.0
 73
     1
 44
1.0
1001
ACAD
1000
MTEXTBEGIN
1070
    73
1070
     1
1070
    44
1040
1.0
1070
    74
1070
     0
1000
MTEXTEND
  0
POINT
  5
218A0
330
2120F
100
AcDbEntity
  8
DEFPOINTS
 62
     0
 48
50.0
100
AcDbPoint
 10
7323.6
 20
5956.907777930208
 30
0.0
  0
POINT
  5
218A1
330
2120F
100
AcDbEntity
  8
DEFPOINTS
 62
     0
 48
50.0
100
AcDbPoint
 10
7323.6
 20
7756.907777930208
 30
0.0
  0
POINT
  5
218A2
330
2120F
100
AcDbEntity
  8
DEFPOINTS
 62
     0
 48
50.0
100
AcDbPoint
 10
6232.284356566673
 20
7756.907777930208
 30
0.0
  0
ENDBLK
  5
21219
330
2120F
100
AcDbEntity
  8
0
 48
50.0
100
AcDbBlockEnd
  0
BLOCK
  5
21223
330
2121A
100
AcDbEntity
  8
0
 48
50.0
100
AcDbBlockBegin
  2
*D23
 70
     1
 10
0.0
 20
0.0
 30
0.0
  3
*D23
  1

  0
LINE
  5
21891
330
2121A
100
AcDbEntity
  8
寸法
 62
     0
 48
50.0
370
    -2
100
AcDbLine
 10
8223.600000000001
 20
7076.907777930208
 30
0.0
 11
8223.600000000001
 21
8343.817543578534
 31
0.0
  0
LINE
  5
21892
330
2121A
100
AcDbEntity
  8
寸法
 62
     0
 48
50.0
370
    -2
100
AcDbLine
 10
7323.6
 20
7776.907777930208
 30
0.0
 11
7323.6
 21
8343.817543578534
 31
0.0
  0
LINE
  5
21893
330
2121A
100
AcDbEntity
  8
寸法
 62
     0
 48
50.0
370
    -2
100
AcDbLine
 10
8223.600000000001
 20
8283.817543578534
 30
0.0
 11
7323.6
 21
8283.817543578534
 31
0.0
  0
INSERT
  5
21894
330
2121A
100
AcDbEntity
  8
寸法
 62
     0
 48
50.0
370
    -2
100
AcDbBlockReference
  2
_DOTSMALL
 10
8223.600000000001
 20
8283.817543578534
 30
0.0
 41
100.0
 42
100.0
 43
100.0
  0
INSERT
  5
21895
330
2121A
100
AcDbEntity
  8
寸法
 62
     0
 48
50.0
370
    -2
100
AcDbBlockReference
  2
_DOTSMALL
 10
7323.6
 20
8283.817543578534
 30
0.0
 41
100.0
 42
100.0
 43
100.0
 50
180.0
  0
MTEXT
  5
21896
330
2121A
100
AcDbEntity
  8
寸法
 62
     7
 48
50.0
100
AcDbMText
 10
7773.6
 20
8383.817543578535
 30
0.0
 40
120.0
 41
0.0
 71
     5
 72
     1
  1
\A1;900
  7
STYLE1
 73
     1
 44
1.0
1001
ACAD
1000
MTEXTBEGIN
1070
    73
1070
     1
1070
    44
1040
1.0
1070
    74
1070
     0
1000
MTEXTEND
  0
POINT
  5
21897
330
2121A
100
AcDbEntity
  8
DEFPOINTS
 62
     0
 48
50.0
100
AcDbPoint
 10
8223.600000000001
 20
7056.907777930208
 30
0.0
  0
POINT
  5
21898
330
2121A
100
AcDbEntity
  8
DEFPOINTS
 62
     0
 48
50.0
100
AcDbPoint
 10
7323.6
 20
7756.907777930208
 30
0.0
  0
POINT
  5
21899
330
2121A
100
AcDbEntity
  8
DEFPOINTS
 62
     0
 48
50.0
100
AcDbPoint
 10
7323.6
 20
8283.817543578534
 30
0.0
  0
ENDBLK
  5
21224
330
2121A
100
AcDbEntity
  8
0
 48
50.0
100
AcDbBlockEnd
  0
BLOCK
  5
2123D
330
21232
100
AcDbEntity
  8
0
 48
50.0
100
AcDbBlockBegin
  2
*D24
 70
     1
 10
0.0
 20
0.0
 30
0.0
  3
*D24
  1

  0
LINE
  5
22887
330
21232
100
AcDbEntity
  8
寸法
 62
     0
 48
50.0
370
    -2
100
AcDbLine
 10
7303.6
 20
5881.907777930224
 30
0.0
 11
6919.872307120224
 21
5881.907777930224
 31
0.0
  0
LINE
  5
22888
330
21232
100
AcDbEntity
  8
寸法
 62
     0
 48
50.0
370
    -2
100
AcDbLine
 10
7303.6
 20
5956.907777930208
 30
0.0
 11
6919.872307120224
 21
5956.907777930208
 31
0.0
  0
LINE
  5
22889
330
21232
100
AcDbEntity
  8
寸法
 62
     0
 48
50.0
370
    -2
100
AcDbLine
 10
6979.872307120223
 20
5956.907777930208
 30
0.0
 11
6979.872307120223
 21
6056.907777930208
 31
0.0
  0
LINE
  5
2288A
330
21232
100
AcDbEntity
  8
寸法
 62
     0
 48
50.0
370
    -2
100
AcDbLine
 10
6979.872307120223
 20
5881.907777930224
 30
0.0
 11
6979.872307120223
 21
5014.937215181731
 31
0.0
  0
LINE
  5
2288B
330
21232
100
AcDbEntity
  8
寸法
 62
     0
 48
50.0
370
    -2
100
AcDbLine
 10
6979.872307120223
 20
5956.907777930208
 30
0.0
 11
6979.872307120223
 21
5881.907777930224
 31
0.0
  0
INSERT
  5
2288C
330
21232
100
AcDbEntity
  8
寸法
 62
     0
 48
50.0
370
    -2
100
AcDbBlockReference
  2
_DOTSMALL
 10
6979.872307120223
 20
5956.907777930208
 30
0.0
 41
100.0
 42
100.0
 43
100.0
 50
270.0
  0
INSERT
  5
2288D
330
21232
100
AcDbEntity
  8
寸法
 62
     0
 48
50.0
370
    -2
100
AcDbBlockReference
  2
_DOTSMALL
 10
6979.872307120223
 20
5881.907777930224
 30
0.0
 41
100.0
 42
100.0
 43
100.0
 50
90.0
  0
MTEXT
  5
2288E
330
21232
100
AcDbEntity
  8
寸法
 62
     7
 48
50.0
100
AcDbMText
 10
6879.872307120222
 20
5348.42249655597
 30
0.0
 40
120.0
 41
0.0
 71
     5
 72
     1
  1
\A1;扉の出75
  7
STYLE1
 11
0.0000000000000001
 21
1.0
 31
0.0
 73
     1
 44
1.0
1001
ACAD
1000
MTEXTBEGIN
1070
    73
1070
     1
1070
    44
1040
1.0
1070
    74
1070
     0
1000
MTEXTEND
  0
POINT
  5
2288F
330
21232
100
AcDbEntity
  8
DEFPOINTS
 62
     0
 48
50.0
100
AcDbPoint
 10
7323.6
 20
5881.907777930224
 30
0.0
  0
POINT
  5
22890
330
21232
100
AcDbEntity
  8
DEFPOINTS
 62
     0
 48
50.0
100
AcDbPoint
 10
7323.6
 20
5956.907777930208
 30
0.0
  0
POINT
  5
22891
330
21232
100
AcDbEntity
  8
DEFPOINTS
 62
     0
 48
50.0
100
AcDbPoint
 10
6979.872307120223
 20
5956.907777930208
 30
0.0
  0
ENDBLK
  5
2123E
330
21232
100
AcDbEntity
  8
0
 48
50.0
100
AcDbBlockEnd
  0
BLOCK
  5
21256
330
2124C
100
AcDbEntity
  8
0
 48
50.0
100
AcDbBlockBegin
  2
*D25
 70
     1
 10
0.0
 20
0.0
 30
0.0
  3
*D25
  1

  0
LINE
  5
21873
330
2124C
100
AcDbEntity
  8
寸法
 62
     0
 48
50.0
370
    -2
100
AcDbLine
 10
7376.6
 20
7633.907777930208
 30
0.0
 11
6424.227453286071
 21
7633.907777930208
 31
0.0
  0
LINE
  5
21874
330
2124C
100
AcDbEntity
  8
寸法
 62
     0
 48
50.0
370
    -2
100
AcDbLine
 10
7376.600000000007
 20
6079.907777930209
 30
0.0
 11
6424.227453286071
 21
6079.907777930209
 31
0.0
  0
LINE
  5
21875
330
2124C
100
AcDbEntity
  8
寸法
 62
     0
 48
50.0
370
    -2
100
AcDbLine
 10
6484.227453286073
 20
7633.907777930208
 30
0.0
 11
6484.227453286071
 21
6079.907777930209
 31
0.0
  0
INSERT
  5
21876
330
2124C
100
AcDbEntity
  8
寸法
 62
     0
 48
50.0
370
    -2
100
AcDbBlockReference
  2
_DOTSMALL
 10
6484.227453286073
 20
7633.907777930208
 30
0.0
 41
100.0
 42
100.0
 43
100.0
 50
90.0
  0
INSERT
  5
21877
330
2124C
100
AcDbEntity
  8
寸法
 62
     0
 48
50.0
370
    -2
100
AcDbBlockReference
  2
_DOTSMALL
 10
6484.227453286071
 20
6079.907777930209
 30
0.0
 41
100.0
 42
100.0
 43
100.0
 50
270.0
  0
MTEXT
  5
21878
330
2124C
100
AcDbEntity
  8
寸法
 62
     7
 48
50.0
100
AcDbMText
 10
6384.22745328607
 20
6856.907777930207
 30
0.0
 40
120.0
 41
0.0
 71
     5
 72
     1
  1
\A1;1554
  7
STYLE1
 11
0.0000000000000001
 21
1.0
 31
0.0
 73
     1
 44
1.0
1001
ACAD
1000
MTEXTBEGIN
1070
    73
1070
     1
1070
    44
1040
1.0
1070
    74
1070
     0
1000
MTEXTEND
  0
POINT
  5
21879
330
2124C
100
AcDbEntity
  8
DEFPOINTS
 62
     0
 48
50.0
100
AcDbPoint
 10
7396.600000000001
 20
7633.907777930208
 30
0.0
  0
POINT
  5
2187A
330
2124C
100
AcDbEntity
  8
DEFPOINTS
 62
     0
 48
50.0
100
AcDbPoint
 10
7396.600000000008
 20
6079.907777930209
 30
0.0
  0
POINT
  5
2187B
330
2124C
100
AcDbEntity
  8
DEFPOINTS
 62
     0
 48
50.0
100
AcDbPoint
 10
6484.227453286071
 20
6079.907777930209
 30
0.0
  0
ENDBLK
  5
21257
330
2124C
100
AcDbEntity
  8
0
 48
50.0
100
AcDbBlockEnd
  0
BLOCK
  5
21260
330
21258
100
AcDbEntity
  8
0
 48
50.0
100
AcDbBlockBegin
  2
*D26
 70
     1
 10
0.0
 20
0.0
 30
0.0
  3
*D26
  1

  0
LINE
  5
218E2
330
21258
100
AcDbEntity
  8
寸法
 62
     0
 48
50.0
370
    -2
100
AcDbLine
 10
6464.227453286071
 20
5881.907777930208
 30
0.0
 11
6172.284356566676
 21
5881.907777930208
 31
0.0
  0
LINE
  5
218E3
330
21258
100
AcDbEntity
  8
寸法
 62
     0
 48
50.0
370
    -2
100
AcDbLine
 10
7303.6
 20
5956.907777930208
 30
0.0
 11
6172.284356566676
 21
5956.907777930208
 31
0.0
  0
LINE
  5
218E4
330
21258
100
AcDbEntity
  8
寸法
 62
     0
 48
50.0
370
    -2
100
AcDbLine
 10
6232.284356566676
 20
5881.907777930208
 30
0.0
 11
6232.284356566676
 21
5781.907777930207
 31
0.0
  0
LINE
  5
218E5
330
21258
100
AcDbEntity
  8
寸法
 62
     0
 48
50.0
370
    -2
100
AcDbLine
 10
6232.284356566676
 20
5956.907777930208
 30
0.0
 11
6232.284356566676
 21
6056.907777930208
 31
0.0
  0
LINE
  5
218E6
330
21258
100
AcDbEntity
  8
寸法
 62
     0
 48
50.0
370
    -2
100
AcDbLine
 10
6232.284356566676
 20
5881.907777930208
 30
0.0
 11
6232.284356566676
 21
5956.907777930208
 31
0.0
  0
INSERT
  5
218E7
330
21258
100
AcDbEntity
  8
寸法
 62
     0
 48
50.0
370
    -2
100
AcDbBlockReference
  2
_DOTSMALL
 10
6232.284356566676
 20
5881.907777930208
 30
0.0
 41
100.0
 42
100.0
 43
100.0
 50
90.0
  0
INSERT
  5
218E8
330
21258
100
AcDbEntity
  8
寸法
 62
     0
 48
50.0
370
    -2
100
AcDbBlockReference
  2
_DOTSMALL
 10
6232.284356566676
 20
5956.907777930208
 30
0.0
 41
100.0
 42
100.0
 43
100.0
 50
270.0
  0
MTEXT
  5
218E9
330
21258
100
AcDbEntity
  8
寸法
 62
     7
 48
50.0
100
AcDbMText
 10
6132.284356566675
 20
5919.40777793021
 30
0.0
 40
120.0
 41
0.0
 71
     5
 72
     1
  1
\A1;c
  7
STYLE1
 11
0.0000000000000001
 21
1.0
 31
0.0
 73
     1
 44
1.0
1001
ACAD
1000
MTEXTBEGIN
1070
    73
1070
     1
1070
    44
1040
1.0
1070
    74
1070
     0
1000
MTEXTEND
  0
POINT
  5
218EA
330
21258
100
AcDbEntity
  8
DEFPOINTS
 62
     0
 48
50.0
100
AcDbPoint
 10
6484.227453286071
 20
5881.907777930208
 30
0.0
  0
POINT
  5
218EB
330
21258
100
AcDbEntity
  8
DEFPOINTS
 62
     0
 48
50.0
100
AcDbPoint
 10
7323.6
 20
5956.907777930208
 30
0.0
  0
POINT
  5
218EC
330
21258
100
AcDbEntity
  8
DEFPOINTS
 62
     0
 48
50.0
100
AcDbPoint
 10
6232.284356566676
 20
5956.907777930208
 30
0.0
  0
ENDBLK
  5
21261
330
21258
100
AcDbEntity
  8
0
 48
50.0
100
AcDbBlockEnd
  0
BLOCK
  5
2126D
330
21262
100
AcDbEntity
  8
0
 48
50.0
100
AcDbBlockBegin
  2
*D27
 70
     1
 10
0.0
 20
0.0
 30
0.0
  3
*D27
  1

  0
LINE
  5
21860
330
21262
100
AcDbEntity
  8
寸法
 62
     0
 48
50.0
370
    -2
100
AcDbLine
 10
7376.600000000007
 20
6079.907777930209
 30
0.0
 11
6424.227453286071
 21
6079.907777930209
 31
0.0
  0
LINE
  5
21861
330
21262
100
AcDbEntity
  8
寸法
 62
     0
 48
50.0
370
    -2
100
AcDbLine
 10
7303.6
 20
5956.907777930208
 30
0.0
 11
6424.227453286071
 21
5956.907777930208
 31
0.0
  0
LINE
  5
21862
330
21262
100
AcDbEntity
  8
寸法
 62
     0
 48
50.0
370
    -2
100
AcDbLine
 10
6484.227453286071
 20
6079.907777930209
 30
0.0
 11
6484.227453286071
 21
5956.907777930208
 31
0.0
  0
LINE
  5
21863
330
21262
100
AcDbEntity
  8
寸法
 62
     0
 48
50.0
370
    -2
100
AcDbLine
 10
6484.227453286071
 20
5956.907777930208
 30
0.0
 11
6484.227453286071
 21
5545.315894838169
 31
0.0
  0
INSERT
  5
21864
330
21262
100
AcDbEntity
  8
寸法
 62
     0
 48
50.0
370
    -2
100
AcDbBlockReference
  2
_DOTSMALL
 10
6484.227453286071
 20
6079.907777930209
 30
0.0
 41
100.0
 42
100.0
 43
100.0
 50
90.0
  0
INSERT
  5
21865
330
21262
100
AcDbEntity
  8
寸法
 62
     0
 48
50.0
370
    -2
100
AcDbBlockReference
  2
_DOTSMALL
 10
6484.227453286071
 20
5956.907777930208
 30
0.0
 41
100.0
 42
100.0
 43
100.0
 50
270.0
  0
MTEXT
  5
21866
330
21262
100
AcDbEntity
  8
寸法
 62
     7
 48
50.0
100
AcDbMText
 10
6384.215642262448
 20
5683.801176212409
 30
0.0
 40
120.0
 41
0.0
 71
     5
 72
     1
  1
\A1;123
  7
STYLE1
 11
0.0000000000000001
 21
1.0
 31
0.0
 73
     1
 44
1.0
1001
ACAD
1000
MTEXTBEGIN
1070
    73
1070
     1
1070
    44
1040
1.0
1070
    74
1070
     0
1000
MTEXTEND
  0
POINT
  5
21867
330
21262
100
AcDbEntity
  8
DEFPOINTS
 62
     0
 48
50.0
100
AcDbPoint
 10
7396.600000000008
 20
6079.907777930209
 30
0.0
  0
POINT
  5
21868
330
21262
100
AcDbEntity
  8
DEFPOINTS
 62
     0
 48
50.0
100
AcDbPoint
 10
7323.6
 20
5956.907777930208
 30
0.0
  0
POINT
  5
21869
330
21262
100
AcDbEntity
  8
DEFPOINTS
 62
     0
 48
50.0
100
AcDbPoint
 10
6484.227453286071
 20
5956.907777930208
 30
0.0
  0
ENDBLK
  5
2126E
330
21262
100
AcDbEntity
  8
0
 48
50.0
100
AcDbBlockEnd
  0
BLOCK
  5
21287
330
2127C
100
AcDbEntity
  8
0
 48
50.0
100
AcDbBlockBegin
  2
*D28
 70
     1
 10
0.0
 20
0.0
 30
0.0
  3
*D28
  1

  0
LINE
  5
228B5
330
2127C
100
AcDbEntity
  8
寸法
 62
     0
 48
50.0
370
    -2
100
AcDbLine
 10
9123.600000000001
 20
7296.192374468664
 30
0.0
 11
9123.600000000001
 21
7239.199110429834
 31
0.0
  0
LINE
  5
228B6
330
2127C
100
AcDbEntity
  8
寸法
 62
     0
 48
50.0
370
    -2
100
AcDbLine
 10
9003.6
 20
7296.192374468666
 30
0.0
 11
9003.6
 21
7239.199110429834
 31
0.0
  0
LINE
  5
228B7
330
2127C
100
AcDbEntity
  8
寸法
 62
     0
 48
50.0
370
    -2
100
AcDbLine
 10
9003.6
 20
7299.199110429833
 30
0.0
 11
9123.600000000001
 21
7299.199110429833
 31
0.0
  0
LINE
  5
228B8
330
2127C
100
AcDbEntity
  8
寸法
 62
     0
 48
50.0
370
    -2
100
AcDbLine
 10
9123.600000000001
 20
7299.199110429833
 30
0.0
 11
9529.7062992126
 21
7299.199110429833
 31
0.0
  0
INSERT
  5
228B9
330
2127C
100
AcDbEntity
  8
寸法
 62
     0
 48
50.0
370
    -2
100
AcDbBlockReference
  2
_DOTSMALL
 10
9003.6
 20
7299.199110429833
 30
0.0
 41
100.0
 42
100.0
 43
100.0
 50
180.0
  0
INSERT
  5
228BA
330
2127C
100
AcDbEntity
  8
寸法
 62
     0
 48
50.0
370
    -2
100
AcDbBlockReference
  2
_DOTSMALL
 10
9123.600000000001
 20
7299.199110429833
 30
0.0
 41
100.0
 42
100.0
 43
100.0
  0
MTEXT
  5
228BB
330
2127C
100
AcDbEntity
  8
寸法
 62
     7
 48
50.0
100
AcDbMText
 10
9393.659055118112
 20
7399.210921453456
 30
0.0
 40
120.0
 41
0.0
 71
     5
 72
     1
  1
\A1;120
  7
STYLE1
 73
     1
 44
1.0
1001
ACAD
1000
MTEXTBEGIN
1070
    73
1070
     1
1070
    44
1040
1.0
1070
    74
1070
     0
1000
MTEXTEND
  0
POINT
  5
228BC
330
2127C
100
AcDbEntity
  8
DEFPOINTS
 62
     0
 48
50.0
100
AcDbPoint
 10
9123.600000000001
 20
7316.192374468664
 30
0.0
  0
POINT
  5
228BD
330
2127C
100
AcDbEntity
  8
DEFPOINTS
 62
     0
 48
50.0
100
AcDbPoint
 10
9003.6
 20
7316.192374468666
 30
0.0
  0
POINT
  5
228BE
330
2127C
100
AcDbEntity
  8
DEFPOINTS
 62
     0
 48
50.0
100
AcDbPoint
 10
9003.6
 20
7299.199110429833
 30
0.0
  0
ENDBLK
  5
21288
330
2127C
100
AcDbEntity
  8
0
 48
50.0
100
AcDbBlockEnd
  0
BLOCK
  5
21293
330
21289
100
AcDbEntity
  8
0
 48
50.0
100
AcDbBlockBegin
  2
*D29
 70
     1
 10
0.0
 20
0.0
 30
0.0
  3
*D29
  1

  0
LINE
  5
21843
330
21289
100
AcDbEntity
  8
寸法
 62
     0
 48
50.0
370
    -2
100
AcDbLine
 10
7303.6
 20
5956.907777930208
 30
0.0
 11
6681.756143596318
 21
5956.907777930208
 31
0.0
  0
LINE
  5
21844
330
21289
100
AcDbEntity
  8
寸法
 62
     0
 48
50.0
370
    -2
100
AcDbLine
 10
8103.6
 20
6856.907777930207
 30
0.0
 11
6681.75614359632
 21
6856.907777930207
 31
0.0
  0
LINE
  5
21845
330
21289
100
AcDbEntity
  8
寸法
 62
     0
 48
50.0
370
    -2
100
AcDbLine
 10
6741.756143596319
 20
5956.907777930208
 30
0.0
 11
6741.756143596319
 21
6856.907777930207
 31
0.0
  0
INSERT
  5
21846
330
21289
100
AcDbEntity
  8
寸法
 62
     0
 48
50.0
370
    -2
100
AcDbBlockReference
  2
_DOTSMALL
 10
6741.756143596319
 20
5956.907777930208
 30
0.0
 41
100.0
 42
100.0
 43
100.0
 50
270.0
  0
INSERT
  5
21847
330
21289
100
AcDbEntity
  8
寸法
 62
     0
 48
50.0
370
    -2
100
AcDbBlockReference
  2
_DOTSMALL
 10
6741.756143596319
 20
6856.907777930207
 30
0.0
 41
100.0
 42
100.0
 43
100.0
 50
90.0
  0
MTEXT
  5
21848
330
21289
100
AcDbEntity
  8
寸法
 62
     7
 48
50.0
100
AcDbMText
 10
6641.756143596317
 20
6406.907777930212
 30
0.0
 40
120.0
 41
0.0
 71
     5
 72
     1
  1
\A1;900
  7
STYLE1
 11
0.0000000000000001
 21
1.0
 31
0.0
 73
     1
 44
1.0
1001
ACAD
1000
MTEXTBEGIN
1070
    73
1070
     1
1070
    44
1040
1.0
1070
    74
1070
     0
1000
MTEXTEND
  0
POINT
  5
21849
330
21289
100
AcDbEntity
  8
DEFPOINTS
 62
     0
 48
50.0
100
AcDbPoint
 10
7323.6
 20
5956.907777930208
 30
0.0
  0
POINT
  5
2184A
330
21289
100
AcDbEntity
  8
DEFPOINTS
 62
     0
 48
50.0
100
AcDbPoint
 10
8123.600000000001
 20
6856.907777930207
 30
0.0
  0
POINT
  5
2184B
330
21289
100
AcDbEntity
  8
DEFPOINTS
 62
     0
 48
50.0
100
AcDbPoint
 10
6741.756143596319
 20
6856.907777930207
 30
0.0
  0
ENDBLK
  5
21294
330
21289
100
AcDbEntity
  8
0
 48
50.0
100
AcDbBlockEnd
  0
BLOCK
  5
212A0
330
21295
100
AcDbEntity
  8
0
 48
50.0
100
AcDbBlockBegin
  2
*D30
 70
     1
 10
0.0
 20
0.0
 30
0.0
  3
*D30
  1

  0
LINE
  5
228AB
330
21295
100
AcDbEntity
  8
寸法
 62
     0
 48
50.0
370
    -2
100
AcDbLine
 10
9003.6
 20
7296.192374468666
 30
0.0
 11
9003.6
 21
7239.199110429834
 31
0.0
  0
LINE
  5
228AC
330
21295
100
AcDbEntity
  8
寸法
 62
     0
 48
50.0
370
    -2
100
AcDbLine
 10
8893.600000000001
 20
7506.907777930206
 30
0.0
 11
8893.600000000001
 21
7239.199110429834
 31
0.0
  0
LINE
  5
228AD
330
21295
100
AcDbEntity
  8
寸法
 62
     0
 48
50.0
370
    -2
100
AcDbLine
 10
9003.6
 20
7299.199110429833
 30
0.0
 11
8893.600000000001
 21
7299.199110429833
 31
0.0
  0
LINE
  5
228AE
330
21295
100
AcDbEntity
  8
寸法
 62
     0
 48
50.0
370
    -2
100
AcDbLine
 10
8893.600000000001
 20
7299.199110429833
 30
0.0
 11
8499.493700787402
 21
7299.199110429833
 31
0.0
  0
INSERT
  5
228AF
330
21295
100
AcDbEntity
  8
寸法
 62
     0
 48
50.0
370
    -2
100
AcDbBlockReference
  2
_DOTSMALL
 10
9003.6
 20
7299.199110429833
 30
0.0
 41
100.0
 42
100.0
 43
100.0
  0
INSERT
  5
228B0
330
21295
100
AcDbEntity
  8
寸法
 62
     0
 48
50.0
370
    -2
100
AcDbBlockReference
  2
_DOTSMALL
 10
8893.600000000001
 20
7299.199110429833
 30
0.0
 41
100.0
 42
100.0
 43
100.0
 50
180.0
  0
MTEXT
  5
228B1
330
21295
100
AcDbEntity
  8
寸法
 62
     7
 48
50.0
100
AcDbMText
 10
8623.54094488189
 20
7399.199110429833
 30
0.0
 40
120.0
 41
0.0
 71
     5
 72
     1
  1
\A1;110
  7
STYLE1
 73
     1
 44
1.0
1001
ACAD
1000
MTEXTBEGIN
1070
    73
1070
     1
1070
    44
1040
1.0
1070
    74
1070
     0
1000
MTEXTEND
  0
POINT
  5
228B2
330
21295
100
AcDbEntity
  8
DEFPOINTS
 62
     0
 48
50.0
100
AcDbPoint
 10
9003.6
 20
7316.192374468666
 30
0.0
  0
POINT
  5
228B3
330
21295
100
AcDbEntity
  8
DEFPOINTS
 62
     0
 48
50.0
100
AcDbPoint
 10
8893.600000000001
 20
7526.907777930206
 30
0.0
  0
POINT
  5
228B4
330
21295
100
AcDbEntity
  8
DEFPOINTS
 62
     0
 48
50.0
100
AcDbPoint
 10
8893.600000000001
 20
7299.199110429833
 30
0.0
  0
ENDBLK
  5
212A1
330
21295
100
AcDbEntity
  8
0
 48
50.0
100
AcDbBlockEnd
  0
BLOCK
  5
212AB
330
212A2
100
AcDbEntity
  8
0
 48
50.0
100
AcDbBlockBegin
  2
*D31
 70
     1
 10
0.0
 20
0.0
 30
0.0
  3
*D31
  1

  0
LINE
  5
21830
330
212A2
100
AcDbEntity
  8
寸法
 62
     0
 48
50.0
370
    -2
100
AcDbLine
 10
9000.6
 20
7703.907777930208
 30
0.0
 11
9000.6
 21
8562.667404472289
 31
0.0
  0
LINE
  5
21831
330
212A2
100
AcDbEntity
  8
寸法
 62
     0
 48
50.0
370
    -2
100
AcDbLine
 10
7446.6
 20
7703.907777930208
 30
0.0
 11
7446.6
 21
8562.667404472289
 31
0.0
  0
LINE
  5
21832
330
212A2
100
AcDbEntity
  8
寸法
 62
     0
 48
50.0
370
    -2
100
AcDbLine
 10
9000.6
 20
8502.667404472289
 30
0.0
 11
7446.6
 21
8502.667404472289
 31
0.0
  0
INSERT
  5
21833
330
212A2
100
AcDbEntity
  8
寸法
 62
     0
 48
50.0
370
    -2
100
AcDbBlockReference
  2
_DOTSMALL
 10
9000.6
 20
8502.667404472289
 30
0.0
 41
100.0
 42
100.0
 43
100.0
  0
INSERT
  5
21834
330
212A2
100
AcDbEntity
  8
寸法
 62
     0
 48
50.0
370
    -2
100
AcDbBlockReference
  2
_DOTSMALL
 10
7446.6
 20
8502.667404472289
 30
0.0
 41
100.0
 42
100.0
 43
100.0
 50
180.0
  0
MTEXT
  5
21835
330
212A2
100
AcDbEntity
  8
寸法
 62
     7
 48
50.0
100
AcDbMText
 10
8223.600000000001
 20
8602.66740447229
 30
0.0
 40
120.0
 41
0.0
 71
     5
 72
     1
  1
\A1;1554
  7
STYLE1
 73
     1
 44
1.0
1001
ACAD
1000
MTEXTBEGIN
1070
    73
1070
     1
1070
    44
1040
1.0
1070
    74
1070
     0
1000
MTEXTEND
  0
POINT
  5
21836
330
212A2
100
AcDbEntity
  8
DEFPOINTS
 62
     0
 48
50.0
100
AcDbPoint
 10
9000.6
 20
7683.907777930208
 30
0.0
  0
POINT
  5
21837
330
212A2
100
AcDbEntity
  8
DEFPOINTS
 62
     0
 48
50.0
100
AcDbPoint
 10
7446.6
 20
7683.907777930208
 30
0.0
  0
POINT
  5
21838
330
212A2
100
AcDbEntity
  8
DEFPOINTS
 62
     0
 48
50.0
100
AcDbPoint
 10
7446.6
 20
8502.667404472289
 30
0.0
  0
ENDBLK
  5
212AC
330
212A2
100
AcDbEntity
  8
0
 48
50.0
100
AcDbBlockEnd
  0
BLOCK
  5
212B6
330
212AD
100
AcDbEntity
  8
0
 48
50.0
100
AcDbBlockBegin
  2
*D32
 70
     1
 10
0.0
 20
0.0
 30
0.0
  3
*D32
  1

  0
LINE
  5
21827
330
212AD
100
AcDbEntity
  8
寸法
 62
     0
 48
50.0
370
    -2
100
AcDbLine
 10
7323.6
 20
7776.907777930208
 30
0.0
 11
7323.6
 21
8775.128099989128
 31
0.0
  0
LINE
  5
21828
330
212AD
100
AcDbEntity
  8
寸法
 62
     0
 48
50.0
370
    -2
100
AcDbLine
 10
9123.600000000001
 20
7776.907777930208
 30
0.0
 11
9123.600000000001
 21
8775.128099989128
 31
0.0
  0
LINE
  5
21829
330
212AD
100
AcDbEntity
  8
寸法
 62
     0
 48
50.0
370
    -2
100
AcDbLine
 10
7323.6
 20
8715.128099989128
 30
0.0
 11
9123.600000000001
 21
8715.128099989128
 31
0.0
  0
INSERT
  5
2182A
330
212AD
100
AcDbEntity
  8
寸法
 62
     0
 48
50.0
370
    -2
100
AcDbBlockReference
  2
_DOTSMALL
 10
7323.6
 20
8715.128099989128
 30
0.0
 41
100.0
 42
100.0
 43
100.0
 50
180.0
  0
INSERT
  5
2182B
330
212AD
100
AcDbEntity
  8
寸法
 62
     0
 48
50.0
370
    -2
100
AcDbBlockReference
  2
_DOTSMALL
 10
9123.600000000001
 20
8715.128099989128
 30
0.0
 41
100.0
 42
100.0
 43
100.0
  0
MTEXT
  5
2182C
330
212AD
100
AcDbEntity
  8
寸法
 62
     7
 48
50.0
100
AcDbMText
 10
8223.600000000001
 20
8815.128099989129
 30
0.0
 40
120.0
 41
0.0
 71
     5
 72
     1
  1
\A1;1800
  7
STYLE1
 73
     1
 44
1.0
1001
ACAD
1000
MTEXTBEGIN
1070
    73
1070
     1
1070
    44
1040
1.0
1070
    74
1070
     0
1000
MTEXTEND
  0
POINT
  5
2182D
330
212AD
100
AcDbEntity
  8
DEFPOINTS
 62
     0
 48
50.0
100
AcDbPoint
 10
7323.6
 20
7756.907777930208
 30
0.0
  0
POINT
  5
2182E
330
212AD
100
AcDbEntity
  8
DEFPOINTS
 62
     0
 48
50.0
100
AcDbPoint
 10
9123.600000000001
 20
7756.907777930208
 30
0.0
  0
POINT
  5
2182F
330
212AD
100
AcDbEntity
  8
DEFPOINTS
 62
     0
 48
50.0
100
AcDbPoint
 10
9123.600000000001
 20
8715.128099989128
 30
0.0
  0
ENDBLK
  5
212B7
330
212AD
100
AcDbEntity
  8
0
 48
50.0
100
AcDbBlockEnd
  0
BLOCK
  5
212C3
330
212B8
100
AcDbEntity
  8
0
 48
50.0
100
AcDbBlockBegin
  2
*D33
 70
     1
 10
0.0
 20
0.0
 30
0.0
  3
*D33
  1

  0
LINE
  5
2181C
330
212B8
100
AcDbEntity
  8
寸法
 62
     0
 48
50.0
370
    -2
100
AcDbLine
 10
7273.6
 20
8522.667404472285
 30
0.0
 11
7273.6
 21
8775.128099989128
 31
0.0
  0
LINE
  5
2181D
330
212B8
100
AcDbEntity
  8
寸法
 62
     0
 48
50.0
370
    -2
100
AcDbLine
 10
7323.6
 20
7776.907777930208
 30
0.0
 11
7323.6
 21
8775.128099989128
 31
0.0
  0
LINE
  5
2181E
330
212B8
100
AcDbEntity
  8
寸法
 62
     0
 48
50.0
370
    -2
100
AcDbLine
 10
7323.6
 20
8715.128099989128
 30
0.0
 11
7423.6
 21
8715.128099989128
 31
0.0
  0
LINE
  5
2181F
330
212B8
100
AcDbEntity
  8
寸法
 62
     0
 48
50.0
370
    -2
100
AcDbLine
 10
7273.6
 20
8715.128099989128
 30
0.0
 11
6941.250757595082
 21
8715.128099989128
 31
0.0
  0
LINE
  5
21820
330
212B8
100
AcDbEntity
  8
寸法
 62
     0
 48
50.0
370
    -2
100
AcDbLine
 10
7323.6
 20
8715.128099989128
 30
0.0
 11
7273.6
 21
8715.128099989128
 31
0.0
  0
INSERT
  5
21821
330
212B8
100
AcDbEntity
  8
寸法
 62
     0
 48
50.0
370
    -2
100
AcDbBlockReference
  2
_DOTSMALL
 10
7323.6
 20
8715.128099989128
 30
0.0
 41
100.0
 42
100.0
 43
100.0
 50
180.0
  0
INSERT
  5
21822
330
212B8
100
AcDbEntity
  8
寸法
 62
     0
 48
50.0
370
    -2
100
AcDbBlockReference
  2
_DOTSMALL
 10
7273.6
 20
8715.128099989128
 30
0.0
 41
100.0
 42
100.0
 43
100.0
  0
MTEXT
  5
21823
330
212B8
100
AcDbEntity
  8
寸法
 62
     7
 48
50.0
100
AcDbMText
 10
7007.425378797541
 20
8815.128099989129
 30
0.0
 40
120.0
 41
0.0
 71
     5
 72
     1
  1
\A1;a
  7
STYLE1
 73
     1
 44
1.0
1001
ACAD
1000
MTEXTBEGIN
1070
    73
1070
     1
1070
    44
1040
1.0
1070
    74
1070
     0
1000
MTEXTEND
  0
POINT
  5
21824
330
212B8
100
AcDbEntity
  8
DEFPOINTS
 62
     0
 48
50.0
100
AcDbPoint
 10
7273.6
 20
8502.667404472287
 30
0.0
  0
POINT
  5
21825
330
212B8
100
AcDbEntity
  8
DEFPOINTS
 62
     0
 48
50.0
100
AcDbPoint
 10
7323.6
 20
7756.907777930208
 30
0.0
  0
POINT
  5
21826
330
212B8
100
AcDbEntity
  8
DEFPOINTS
 62
     0
 48
50.0
100
AcDbPoint
 10
7323.6
 20
8715.128099989128
 30
0.0
  0
ENDBLK
  5
212C4
330
212B8
100
AcDbEntity
  8
0
 48
50.0
100
AcDbBlockEnd
  0
BLOCK
  5
212D0
330
212C5
100
AcDbEntity
  8
0
 48
50.0
100
AcDbBlockBegin
  2
*D34
 70
     1
 10
0.0
 20
0.0
 30
0.0
  3
*D34
  1

  0
LINE
  5
21812
330
212C5
100
AcDbEntity
  8
寸法
 62
     0
 48
50.0
370
    -2
100
AcDbLine
 10
7446.6
 20
7703.907777930208
 30
0.0
 11
7446.6
 21
8562.667404472289
 31
0.0
  0
LINE
  5
21813
330
212C5
100
AcDbEntity
  8
寸法
 62
     0
 48
50.0
370
    -2
100
AcDbLine
 10
7323.6
 20
7776.907777930208
 30
0.0
 11
7323.6
 21
8562.667404472289
 31
0.0
  0
LINE
  5
21814
330
212C5
100
AcDbEntity
  8
寸法
 62
     0
 48
50.0
370
    -2
100
AcDbLine
 10
7446.6
 20
8502.667404472289
 30
0.0
 11
7323.6
 21
8502.667404472289
 31
0.0
  0
LINE
  5
21815
330
212C5
100
AcDbEntity
  8
寸法
 62
     0
 48
50.0
370
    -2
100
AcDbLine
 10
7323.6
 20
8502.667404472289
 30
0.0
 11
6912.008116907962
 21
8502.667404472289
 31
0.0
  0
INSERT
  5
21816
330
212C5
100
AcDbEntity
  8
寸法
 62
     0
 48
50.0
370
    -2
100
AcDbBlockReference
  2
_DOTSMALL
 10
7446.6
 20
8502.667404472289
 30
0.0
 41
100.0
 42
100.0
 43
100.0
  0
INSERT
  5
21817
330
212C5
100
AcDbEntity
  8
寸法
 62
     0
 48
50.0
370
    -2
100
AcDbBlockReference
  2
_DOTSMALL
 10
7323.6
 20
8502.667404472289
 30
0.0
 41
100.0
 42
100.0
 43
100.0
 50
180.0
  0
MTEXT
  5
21818
330
212C5
100
AcDbEntity
  8
寸法
 62
     7
 48
50.0
100
AcDbMText
 10
7050.493398282203
 20
8602.679215495911
 30
0.0
 40
120.0
 41
0.0
 71
     5
 72
     1
  1
\A1;123
  7
STYLE1
 73
     1
 44
1.0
1001
ACAD
1000
MTEXTBEGIN
1070
    73
1070
     1
1070
    44
1040
1.0
1070
    74
1070
     0
1000
MTEXTEND
  0
POINT
  5
21819
330
212C5
100
AcDbEntity
  8
DEFPOINTS
 62
     0
 48
50.0
100
AcDbPoint
 10
7446.6
 20
7683.907777930208
 30
0.0
  0
POINT
  5
2181A
330
212C5
100
AcDbEntity
  8
DEFPOINTS
 62
     0
 48
50.0
100
AcDbPoint
 10
7323.6
 20
7756.907777930208
 30
0.0
  0
POINT
  5
2181B
330
212C5
100
AcDbEntity
  8
DEFPOINTS
 62
     0
 48
50.0
100
AcDbPoint
 10
7323.6
 20
8502.667404472289
 30
0.0
  0
ENDBLK
  5
212D1
330
212C5
100
AcDbEntity
  8
0
 48
50.0
100
AcDbBlockEnd
  0
BLOCK
  5
212DC
330
212D2
100
AcDbEntity
  8
0
 48
50.0
100
AcDbBlockBegin
  2
*D35
 70
     1
 10
0.0
 20
0.0
 30
0.0
  3
*D35
  1

  0
LINE
  5
218F8
330
212D2
100
AcDbEntity
  8
寸法
 62
     0
 48
50.0
370
    -2
100
AcDbLine
 10
7303.6
 20
7756.907777930208
 30
0.0
 11
6172.284356566674
 21
7756.907777930208
 31
0.0
  0
LINE
  5
218F9
330
212D2
100
AcDbEntity
  8
寸法
 62
     0
 48
50.0
370
    -2
100
AcDbLine
 10
6464.227453286071
 20
7811.907777930207
 30
0.0
 11
6172.284356566674
 21
7811.907777930207
 31
0.0
  0
LINE
  5
218FA
330
212D2
100
AcDbEntity
  8
寸法
 62
     0
 48
50.0
370
    -2
100
AcDbLine
 10
6232.284356566674
 20
7756.907777930208
 30
0.0
 11
6232.284356566674
 21
7656.907777930207
 31
0.0
  0
LINE
  5
218FB
330
212D2
100
AcDbEntity
  8
寸法
 62
     0
 48
50.0
370
    -2
100
AcDbLine
 10
6232.284356566674
 20
7811.907777930207
 30
0.0
 11
6232.284356566674
 21
7911.907777930207
 31
0.0
  0
LINE
  5
218FC
330
212D2
100
AcDbEntity
  8
寸法
 62
     0
 48
50.0
370
    -2
100
AcDbLine
 10
6232.284356566674
 20
7756.907777930208
 30
0.0
 11
6232.284356566674
 21
7811.907777930207
 31
0.0
  0
INSERT
  5
218FD
330
212D2
100
AcDbEntity
  8
寸法
 62
     0
 48
50.0
370
    -2
100
AcDbBlockReference
  2
_DOTSMALL
 10
6232.284356566674
 20
7756.907777930208
 30
0.0
 41
100.0
 42
100.0
 43
100.0
 50
90.0
  0
INSERT
  5
218FE
330
212D2
100
AcDbEntity
  8
寸法
 62
     0
 48
50.0
370
    -2
100
AcDbBlockReference
  2
_DOTSMALL
 10
6232.284356566674
 20
7811.907777930207
 30
0.0
 41
100.0
 42
100.0
 43
100.0
 50
270.0
  0
MTEXT
  5
218FF
330
212D2
100
AcDbEntity
  8
寸法
 62
     7
 48
50.0
100
AcDbMText
 10
6132.284356566674
 20
7784.407777930209
 30
0.0
 40
120.0
 41
0.0
 71
     5
 72
     1
  1
\A1;b
  7
STYLE1
 11
0.0000000000000001
 21
1.0
 31
0.0
 73
     1
 44
1.0
1001
ACAD
1000
MTEXTBEGIN
1070
    73
1070
     1
1070
    44
1040
1.0
1070
    74
1070
     0
1000
MTEXTEND
  0
POINT
  5
21900
330
212D2
100
AcDbEntity
  8
DEFPOINTS
 62
     0
 48
50.0
100
AcDbPoint
 10
7323.6
 20
7756.907777930208
 30
0.0
  0
POINT
  5
21901
330
212D2
100
AcDbEntity
  8
DEFPOINTS
 62
     0
 48
50.0
100
AcDbPoint
 10
6484.227453286071
 20
7811.907777930207
 30
0.0
  0
POINT
  5
21902
330
212D2
100
AcDbEntity
  8
DEFPOINTS
 62
     0
 48
50.0
100
AcDbPoint
 10
6232.284356566674
 20
7811.907777930207
 30
0.0
  0
ENDBLK
  5
212DD
330
212D2
100
AcDbEntity
  8
0
 48
50.0
100
AcDbBlockEnd
  0
BLOCK
  5
212E9
330
212DE
100
AcDbEntity
  8
0
 48
50.0
100
AcDbBlockBegin
  2
*D36
 70
     1
 10
0.0
 20
0.0
 30
0.0
  3
*D36
  1

  0
LINE
  5
217FD
330
212DE
100
AcDbEntity
  8
寸法
 62
     0
 48
50.0
370
    -2
100
AcDbLine
 10
9123.600000000001
 20
7776.907777930208
 30
0.0
 11
9123.600000000001
 21
8562.667404472289
 31
0.0
  0
LINE
  5
217FE
330
212DE
100
AcDbEntity
  8
寸法
 62
     0
 48
50.0
370
    -2
100
AcDbLine
 10
9000.6
 20
7703.907777930208
 30
0.0
 11
9000.6
 21
8562.667404472289
 31
0.0
  0
LINE
  5
217FF
330
212DE
100
AcDbEntity
  8
寸法
 62
     0
 48
50.0
370
    -2
100
AcDbLine
 10
9000.6
 20
8502.667404472289
 30
0.0
 11
9123.600000000001
 21
8502.667404472289
 31
0.0
  0
LINE
  5
21800
330
212DE
100
AcDbEntity
  8
寸法
 62
     0
 48
50.0
370
    -2
100
AcDbLine
 10
9123.600000000001
 20
8502.667404472289
 30
0.0
 11
9535.191883092037
 21
8502.667404472289
 31
0.0
  0
INSERT
  5
21801
330
212DE
100
AcDbEntity
  8
寸法
 62
     0
 48
50.0
370
    -2
100
AcDbBlockReference
  2
_DOTSMALL
 10
9000.6
 20
8502.667404472289
 30
0.0
 41
100.0
 42
100.0
 43
100.0
 50
180.0
  0
INSERT
  5
21802
330
212DE
100
AcDbEntity
  8
寸法
 62
     0
 48
50.0
370
    -2
100
AcDbBlockReference
  2
_DOTSMALL
 10
9123.600000000001
 20
8502.667404472289
 30
0.0
 41
100.0
 42
100.0
 43
100.0
  0
MTEXT
  5
21803
330
212DE
100
AcDbEntity
  8
寸法
 62
     7
 48
50.0
100
AcDbMText
 10
9396.706601717799
 20
8602.679215495911
 30
0.0
 40
120.0
 41
0.0
 71
     5
 72
     1
  1
\A1;123
  7
STYLE1
 73
     1
 44
1.0
1001
ACAD
1000
MTEXTBEGIN
1070
    73
1070
     1
1070
    44
1040
1.0
1070
    74
1070
     0
1000
MTEXTEND
  0
POINT
  5
21804
330
212DE
100
AcDbEntity
  8
DEFPOINTS
 62
     0
 48
50.0
100
AcDbPoint
 10
9123.600000000001
 20
7756.907777930208
 30
0.0
  0
POINT
  5
21805
330
212DE
100
AcDbEntity
  8
DEFPOINTS
 62
     0
 48
50.0
100
AcDbPoint
 10
9000.6
 20
7683.907777930208
 30
0.0
  0
POINT
  5
21806
330
212DE
100
AcDbEntity
  8
DEFPOINTS
 62
     0
 48
50.0
100
AcDbPoint
 10
9000.6
 20
8502.667404472289
 30
0.0
  0
ENDBLK
  5
212EA
330
212DE
100
AcDbEntity
  8
0
 48
50.0
100
AcDbBlockEnd
  0
BLOCK
  5
212F6
330
212EB
100
AcDbEntity
  8
0
 48
50.0
100
AcDbBlockBegin
  2
*D37
 70
     1
 10
0.0
 20
0.0
 30
0.0
  3
*D37
  1

  0
LINE
  5
217F2
330
212EB
100
AcDbEntity
  8
寸法
 62
     0
 48
50.0
370
    -2
100
AcDbLine
 10
9123.600000000001
 20
7776.907777930208
 30
0.0
 11
9123.600000000001
 21
8775.128099989128
 31
0.0
  0
LINE
  5
217F3
330
212EB
100
AcDbEntity
  8
寸法
 62
     0
 48
50.0
370
    -2
100
AcDbLine
 10
9173.6
 20
8522.667404472292
 30
0.0
 11
9173.6
 21
8775.128099989128
 31
0.0
  0
LINE
  5
217F4
330
212EB
100
AcDbEntity
  8
寸法
 62
     0
 48
50.0
370
    -2
100
AcDbLine
 10
9123.600000000001
 20
8715.128099989128
 30
0.0
 11
9023.6
 21
8715.128099989128
 31
0.0
  0
LINE
  5
217F5
330
212EB
100
AcDbEntity
  8
寸法
 62
     0
 48
50.0
370
    -2
100
AcDbLine
 10
9173.6
 20
8715.128099989128
 30
0.0
 11
9505.949242404918
 21
8715.128099989128
 31
0.0
  0
LINE
  5
217F6
330
212EB
100
AcDbEntity
  8
寸法
 62
     0
 48
50.0
370
    -2
100
AcDbLine
 10
9123.600000000001
 20
8715.128099989128
 30
0.0
 11
9173.6
 21
8715.128099989128
 31
0.0
  0
INSERT
  5
217F7
330
212EB
100
AcDbEntity
  8
寸法
 62
     0
 48
50.0
370
    -2
100
AcDbBlockReference
  2
_DOTSMALL
 10
9123.600000000001
 20
8715.128099989128
 30
0.0
 41
100.0
 42
100.0
 43
100.0
  0
INSERT
  5
217F8
330
212EB
100
AcDbEntity
  8
寸法
 62
     0
 48
50.0
370
    -2
100
AcDbBlockReference
  2
_DOTSMALL
 10
9173.6
 20
8715.128099989128
 30
0.0
 41
100.0
 42
100.0
 43
100.0
 50
180.0
  0
MTEXT
  5
217F9
330
212EB
100
AcDbEntity
  8
寸法
 62
     7
 48
50.0
100
AcDbMText
 10
9439.77462120246
 20
8815.128099989129
 30
0.0
 40
120.0
 41
0.0
 71
     5
 72
     1
  1
\A1;a
  7
STYLE1
 73
     1
 44
1.0
1001
ACAD
1000
MTEXTBEGIN
1070
    73
1070
     1
1070
    44
1040
1.0
1070
    74
1070
     0
1000
MTEXTEND
  0
POINT
  5
217FA
330
212EB
100
AcDbEntity
  8
DEFPOINTS
 62
     0
 48
50.0
100
AcDbPoint
 10
9123.600000000001
 20
7756.907777930208
 30
0.0
  0
POINT
  5
217FB
330
212EB
100
AcDbEntity
  8
DEFPOINTS
 62
     0
 48
50.0
100
AcDbPoint
 10
9173.6
 20
8502.667404472294
 30
0.0
  0
POINT
  5
217FC
330
212EB
100
AcDbEntity
  8
DEFPOINTS
 62
     0
 48
50.0
100
AcDbPoint
 10
9173.6
 20
8715.128099989128
 30
0.0
  0
ENDBLK
  5
212F7
330
212EB
100
AcDbEntity
  8
0
 48
50.0
100
AcDbBlockEnd
  0
BLOCK
  5
22289
330
2227E
100
AcDbEntity
  8
0
 48
50.0
100
AcDbBlockBegin
  2
*D38
 70
     1
 10
0.0
 20
0.0
 30
0.0
  3
*D38
  1

  0
LINE
  5
228C9
330
2227E
100
AcDbEntity
  8
寸法
 62
     0
 48
50.0
370
    -2
100
AcDbLine
 10
7573.599999999998
 20
6076.907777930228
 30
0.0
 11
7842.938460046301
 21
6076.907777930228
 31
0.0
  0
LINE
  5
228CA
330
2227E
100
AcDbEntity
  8
寸法
 62
     0
 48
50.0
370
    -2
100
AcDbLine
 10
7573.600000000038
 20
6186.907777930223
 30
0.0
 11
7842.938460046302
 21
6186.907777930223
 31
0.0
  0
LINE
  5
228CB
330
2227E
100
AcDbEntity
  8
寸法
 62
     0
 48
50.0
370
    -2
100
AcDbLine
 10
7782.938460046302
 20
6076.907777930228
 30
0.0
 11
7782.938460046302
 21
6186.907777930223
 31
0.0
  0
LINE
  5
228CC
330
2227E
100
AcDbEntity
  8
寸法
 62
     0
 48
50.0
370
    -2
100
AcDbLine
 10
7782.938460046302
 20
6186.907777930223
 30
0.0
 11
7782.938460046302
 21
6547.002266119199
 31
0.0
  0
INSERT
  5
228CD
330
2227E
100
AcDbEntity
  8
寸法
 62
     0
 48
50.0
370
    -2
100
AcDbBlockReference
  2
_DOTSMALL
 10
7782.938460046302
 20
6076.907777930228
 30
0.0
 41
100.0
 42
100.0
 43
100.0
 50
270.0
  0
INSERT
  5
228CE
330
2227E
100
AcDbEntity
  8
寸法
 62
     0
 48
50.0
370
    -2
100
AcDbBlockReference
  2
_DOTSMALL
 10
7782.938460046302
 20
6186.907777930223
 30
0.0
 41
100.0
 42
100.0
 43
100.0
 50
90.0
  0
MTEXT
  5
228CF
330
2227E
100
AcDbEntity
  8
寸法
 62
     7
 48
50.0
100
AcDbMText
 10
7682.9384600463
 20
6422.955022024712
 30
0.0
 40
120.0
 41
0.0
 71
     5
 72
     1
  1
\A1;110
  7
STYLE1
 11
0.0000000000000001
 21
1.0
 31
0.0
 73
     1
 44
1.0
1001
ACAD
1000
MTEXTBEGIN
1070
    73
1070
     1
1070
    44
1040
1.0
1070
    74
1070
     0
1000
MTEXTEND
  0
POINT
  5
228D0
330
2227E
100
AcDbEntity
  8
DEFPOINTS
 62
     0
 48
50.0
100
AcDbPoint
 10
7553.599999999997
 20
6076.907777930228
 30
0.0
  0
POINT
  5
228D1
330
2227E
100
AcDbEntity
  8
DEFPOINTS
 62
     0
 48
50.0
100
AcDbPoint
 10
7553.600000000038
 20
6186.907777930223
 30
0.0
  0
POINT
  5
228D2
330
2227E
100
AcDbEntity
  8
DEFPOINTS
 62
     0
 48
50.0
100
AcDbPoint
 10
7782.938460046302
 20
6186.907777930223
 30
0.0
  0
ENDBLK
  5
2228A
330
2227E
100
AcDbEntity
  8
0
 48
50.0
100
AcDbBlockEnd
  0
BLOCK
  5
22296
330
2228B
100
AcDbEntity
  8
0
 48
50.0
100
AcDbBlockBegin
  2
*D39
 70
     1
 10
0.0
 20
0.0
 30
0.0
  3
*D39
  1

  0
LINE
  5
228BF
330
2228B
100
AcDbEntity
  8
寸法
 62
     0
 48
50.0
370
    -2
100
AcDbLine
 10
7573.600000000036
 20
5881.907777930223
 30
0.0
 11
7842.938460046301
 21
5881.907777930223
 31
0.0
  0
LINE
  5
228C0
330
2228B
100
AcDbEntity
  8
寸法
 62
     0
 48
50.0
370
    -2
100
AcDbLine
 10
7573.599999999998
 20
6076.907777930212
 30
0.0
 11
7842.938460046301
 21
6076.907777930212
 31
0.0
  0
LINE
  5
228C1
330
2228B
100
AcDbEntity
  8
寸法
 62
     0
 48
50.0
370
    -2
100
AcDbLine
 10
7782.938460046302
 20
6076.907777930212
 30
0.0
 11
7782.938460046302
 21
5881.907777930223
 31
0.0
  0
LINE
  5
228C2
330
2228B
100
AcDbEntity
  8
寸法
 62
     0
 48
50.0
370
    -2
100
AcDbLine
 10
7782.938460046302
 20
5881.907777930223
 30
0.0
 11
7782.938460046302
 21
5504.517895522432
 31
0.0
  0
INSERT
  5
228C3
330
2228B
100
AcDbEntity
  8
寸法
 62
     0
 48
50.0
370
    -2
100
AcDbBlockReference
  2
_DOTSMALL
 10
7782.938460046302
 20
6076.907777930212
 30
0.0
 41
100.0
 42
100.0
 43
100.0
 50
90.0
  0
INSERT
  5
228C4
330
2228B
100
AcDbEntity
  8
寸法
 62
     0
 48
50.0
370
    -2
100
AcDbBlockReference
  2
_DOTSMALL
 10
7782.938460046302
 20
5881.907777930223
 30
0.0
 41
100.0
 42
100.0
 43
100.0
 50
270.0
  0
MTEXT
  5
228C5
330
2228B
100
AcDbEntity
  8
寸法
 62
     7
 48
50.0
100
AcDbMText
 10
7682.9384600463
 20
5643.212836726329
 30
0.0
 40
120.0
 41
0.0
 71
     5
 72
     1
  1
\A1;195
  7
STYLE1
 11
0.0000000000000001
 21
1.0
 31
0.0
 73
     1
 44
1.0
1001
ACAD
1000
MTEXTBEGIN
1070
    73
1070
     1
1070
    44
1040
1.0
1070
    74
1070
     0
1000
MTEXTEND
  0
POINT
  5
228C6
330
2228B
100
AcDbEntity
  8
DEFPOINTS
 62
     0
 48
50.0
100
AcDbPoint
 10
7553.600000000035
 20
5881.907777930223
 30
0.0
  0
POINT
  5
228C7
330
2228B
100
AcDbEntity
  8
DEFPOINTS
 62
     0
 48
50.0
100
AcDbPoint
 10
7553.6
 20
6076.907777930212
 30
0.0
  0
POINT
  5
228C8
330
2228B
100
AcDbEntity
  8
DEFPOINTS
 62
     0
 48
50.0
100
AcDbPoint
 10
7782.938460046302
 20
6076.907777930212
 30
0.0
  0
ENDBLK
  5
22297
330
2228B
100
AcDbEntity
  8
0
 48
50.0
100
AcDbBlockEnd
  0
BLOCK
  5
22396
330
2238C
100
AcDbEntity
  8
0
 48
50.0
100
AcDbBlockBegin
  2
*D40
 70
     1
 10
0.0
 20
0.0
 30
0.0
  3
*D40
  1

  0
LINE
  5
22474
330
2238C
100
AcDbEntity
  8
寸法
 62
     0
 48
50.0
370
    -2
100
AcDbLine
 10
9123.600000000001
 20
5861.90777793023
 30
0.0
 11
9123.600000000001
 21
5107.043474506098
 31
0.0
  0
LINE
  5
22475
330
2238C
100
AcDbEntity
  8
寸法
 62
     0
 48
50.0
370
    -2
100
AcDbLine
 10
7323.600000000036
 20
5861.907777930208
 30
0.0
 11
7323.600000000036
 21
5107.043474506098
 31
0.0
  0
LINE
  5
22476
330
2238C
100
AcDbEntity
  8
寸法
 62
     0
 48
50.0
370
    -2
100
AcDbLine
 10
9123.600000000001
 20
5167.043474506098
 30
0.0
 11
7323.600000000036
 21
5167.043474506098
 31
0.0
  0
INSERT
  5
22477
330
2238C
100
AcDbEntity
  8
寸法
 62
     0
 48
50.0
370
    -2
100
AcDbBlockReference
  2
_DOTSMALL
 10
9123.600000000001
 20
5167.043474506098
 30
0.0
 41
100.0
 42
100.0
 43
100.0
  0
INSERT
  5
22478
330
2238C
100
AcDbEntity
  8
寸法
 62
     0
 48
50.0
370
    -2
100
AcDbBlockReference
  2
_DOTSMALL
 10
7323.600000000036
 20
5167.043474506098
 30
0.0
 41
100.0
 42
100.0
 43
100.0
 50
180.0
  0
MTEXT
  5
22479
330
2238C
100
AcDbEntity
  8
寸法
 62
     7
 48
50.0
100
AcDbMText
 10
8223.600000000018
 20
5267.043474506097
 30
0.0
 40
120.0
 41
0.0
 71
     5
 72
     1
  1
\A1;扉の幅 1800
  7
STYLE1
 73
     1
 44
1.0
1001
ACAD
1000
MTEXTBEGIN
1070
    73
1070
     1
1070
    44
1040
1.0
1070
    74
1070
     0
1000
MTEXTEND
  0
POINT
  5
2247A
330
2238C
100
AcDbEntity
  8
DEFPOINTS
 62
     0
 48
50.0
100
AcDbPoint
 10
9123.600000000001
 20
5881.90777793023
 30
0.0
  0
POINT
  5
2247B
330
2238C
100
AcDbEntity
  8
DEFPOINTS
 62
     0
 48
50.0
100
AcDbPoint
 10
7323.600000000036
 20
5881.907777930208
 30
0.0
  0
POINT
  5
2247C
330
2238C
100
AcDbEntity
  8
DEFPOINTS
 62
     0
 48
50.0
100
AcDbPoint
 10
7323.600000000036
 20
5167.043474506098
 30
0.0
  0
ENDBLK
  5
22397
330
2238C
100
AcDbEntity
  8
0
 48
50.0
100
AcDbBlockEnd
  0
BLOCK
  5
22C6E
330
22C6D
100
AcDbEntity
  8
0
 48
50.0
100
AcDbBlockBegin
  2
*D41
 70
     1
 10
0.0
 20
0.0
 30
0.0
  3
*D41
  1

  0
LINE
  5
22C6F
330
22C6D
100
AcDbEntity
  8
寸法
 62
     0
 48
50.0
370
    -2
100
AcDbLine
 10
6132.112944679367
 20
1948.843865597629
 30
0.0
 11
6132.112944679367
 21
2308.84386559763
 31
0.0
  0
LINE
  5
22C70
330
22C6D
100
AcDbEntity
  8
寸法
 62
     0
 48
50.0
370
    -2
100
AcDbLine
 10
5940.112944679367
 20
1948.843865597629
 30
0.0
 11
5940.112944679367
 21
2308.84386559763
 31
0.0
  0
LINE
  5
22C71
330
22C6D
100
AcDbEntity
  8
寸法
 62
     0
 48
50.0
370
    -2
100
AcDbLine
 10
6132.112944679367
 20
2248.843865597629
 30
0.0
 11
5940.112944679367
 21
2248.843865597629
 31
0.0
  0
MTEXT
  5
22C72
330
22C6D
100
AcDbEntity
  8
寸法
 62
     7
 48
50.0
100
AcDbMText
 10
6047.339275024565
 20
2548.523484537632
 30
0.0
 40
120.0
 41
0.0
 71
     5
 72
     1
  1
\A1;120\P195
  7
STYLE1
 73
     1
 44
1.0
1001
ACAD
1000
MTEXTBEGIN
1070
    73
1070
     1
1070
    44
1040
1.0
1070
    74
1070
     0
1000
MTEXTEND
  0
INSERT
  5
22C73
330
22C6D
100
AcDbEntity
  8
寸法
 62
     0
 48
50.0
370
    -2
100
AcDbBlockReference
  2
_DOTSMALL
 10
6132.112944679367
 20
2248.843865597629
 30
0.0
 41
100.0
 42
100.0
 43
100.0
  0
INSERT
  5
22C74
330
22C6D
100
AcDbEntity
  8
寸法
 62
     0
 48
50.0
370
    -2
100
AcDbBlockReference
  2
_DOTSMALL
 10
5940.112944679367
 20
2248.843865597629
 30
0.0
 41
100.0
 42
100.0
 43
100.0
 50
180.0
  0
POINT
  5
22C75
330
22C6D
100
AcDbEntity
  8
DEFPOINTS
 62
     0
 48
50.0
100
AcDbPoint
 10
6132.112944679367
 20
1928.843865597629
 30
0.0
  0
POINT
  5
22C76
330
22C6D
100
AcDbEntity
  8
DEFPOINTS
 62
     0
 48
50.0
100
AcDbPoint
 10
5940.112944679367
 20
1928.843865597629
 30
0.0
  0
POINT
  5
22C77
330
22C6D
100
AcDbEntity
  8
DEFPOINTS
 62
     0
 48
50.0
100
AcDbPoint
 10
5940.112944679367
 20
2248.843865597629
 30
0.0
  0
ENDBLK
  5
22C78
330
22C6D
100
AcDbEntity
  8
0
 48
50.0
100
AcDbBlockEnd
  0
BLOCK
  5
22C7A
330
22C79
100
AcDbEntity
  8
0
 48
50.0
100
AcDbBlockBegin
  2
*D42
 70
     1
 10
0.0
 20
0.0
 30
0.0
  3
*D42
  1

  0
LINE
  5
22C7B
330
22C79
100
AcDbEntity
  8
寸法
 62
     0
 48
50.0
370
    -2
100
AcDbLine
 10
5812.112944679367
 20
996.8438655976298
 30
0.0
 11
5812.112944679367
 21
546.4142275924696
 31
0.0
  0
LINE
  5
22C7C
330
22C79
100
AcDbEntity
  8
寸法
 62
     0
 48
50.0
370
    -2
100
AcDbLine
 10
6260.112944679367
 20
996.8438655976298
 30
0.0
 11
6260.112944679367
 21
546.4142275924696
 31
0.0
  0
LINE
  5
22C7D
330
22C79
100
AcDbEntity
  8
寸法
 62
     0
 48
50.0
370
    -2
100
AcDbLine
 10
5812.112944679367
 20
606.4142275924695
 30
0.0
 11
6260.112944679367
 21
606.4142275924695
 31
0.0
  0
MTEXT
  5
22C7E
330
22C79
100
AcDbEntity
  8
寸法
 62
     7
 48
50.0
100
AcDbMText
 10
6016.016186001144
 20
706.4142275924695
 30
0.0
 40
120.0
 41
0.0
 71
     5
 72
     1
  1
\A1;300
  7
STYLE1
 73
     1
 44
1.0
1001
ACAD
1000
MTEXTBEGIN
1070
    73
1070
     1
1070
    44
1040
1.0
1070
    74
1070
     0
1000
MTEXTEND
  0
INSERT
  5
22C7F
330
22C79
100
AcDbEntity
  8
寸法
 62
     0
 48
50.0
370
    -2
100
AcDbBlockReference
  2
_DOTSMALL
 10
5812.112944679367
 20
606.4142275924695
 30
0.0
 41
100.0
 42
100.0
 43
100.0
 50
180.0
  0
INSERT
  5
22C80
330
22C79
100
AcDbEntity
  8
寸法
 62
     0
 48
50.0
370
    -2
100
AcDbBlockReference
  2
_DOTSMALL
 10
6260.112944679367
 20
606.4142275924695
 30
0.0
 41
100.0
 42
100.0
 43
100.0
  0
POINT
  5
22C81
330
22C79
100
AcDbEntity
  8
DEFPOINTS
 62
     0
 48
50.0
100
AcDbPoint
 10
5812.112944679367
 20
1016.843865597629
 30
0.0
  0
POINT
  5
22C82
330
22C79
100
AcDbEntity
  8
DEFPOINTS
 62
     0
 48
50.0
100
AcDbPoint
 10
6260.112944679367
 20
1016.843865597629
 30
0.0
  0
POINT
  5
22C83
330
22C79
100
AcDbEntity
  8
DEFPOINTS
 62
     0
 48
50.0
100
AcDbPoint
 10
6260.112944679367
 20
606.4142275924695
 30
0.0
  0
ENDBLK
  5
22C84
330
22C79
100
AcDbEntity
  8
0
 48
50.0
100
AcDbBlockEnd
  0
BLOCK
  5
22C86
330
22C85
100
AcDbEntity
  8
0
 48
50.0
100
AcDbBlockBegin
  2
*D43
 70
     1
 10
0.0
 20
0.0
 30
0.0
  3
*D43
  1

  0
LINE
  5
22C87
330
22C85
100
AcDbEntity
  8
寸法
 62
     0
 48
50.0
370
    -2
100
AcDbLine
 10
5920.112944679368
 20
1928.843865597629
 30
0.0
 11
5145.075706117626
 21
1928.84386559763
 31
0.0
  0
LINE
  5
22C88
330
22C85
100
AcDbEntity
  8
寸法
 62
     0
 48
50.0
370
    -2
100
AcDbLine
 10
5712.112944679371
 20
1144.843865597629
 30
0.0
 11
5145.075706117626
 21
1144.84386559763
 31
0.0
  0
LINE
  5
22C89
330
22C85
100
AcDbEntity
  8
寸法
 62
     0
 48
50.0
370
    -2
100
AcDbLine
 10
5205.075706117626
 20
1928.84386559763
 30
0.0
 11
5205.075706117626
 21
1144.84386559763
 31
0.0
  0
MTEXT
  5
22C8A
330
22C85
100
AcDbEntity
  8
寸法
 62
     7
 48
50.0
100
AcDbMText
 10
5105.075706117627
 20
1516.38401525363
 30
0.0
 40
120.0
 41
0.0
 71
     5
 72
     1
  1
\A1;540
  7
STYLE1
 11
0.0000000000000001
 21
1.0
 31
0.0
 73
     1
 44
1.0
1001
ACAD
1000
MTEXTBEGIN
1070
    73
1070
     1
1070
    44
1040
1.0
1070
    74
1070
     0
1000
MTEXTEND
  0
INSERT
  5
22C8B
330
22C85
100
AcDbEntity
  8
寸法
 62
     0
 48
50.0
370
    -2
100
AcDbBlockReference
  2
_DOTSMALL
 10
5205.075706117626
 20
1928.84386559763
 30
0.0
 41
100.0
 42
100.0
 43
100.0
 50
90.0
  0
INSERT
  5
22C8C
330
22C85
100
AcDbEntity
  8
寸法
 62
     0
 48
50.0
370
    -2
100
AcDbBlockReference
  2
_DOTSMALL
 10
5205.075706117626
 20
1144.84386559763
 30
0.0
 41
100.0
 42
100.0
 43
100.0
 50
270.0
  0
POINT
  5
22C8D
330
22C85
100
AcDbEntity
  8
DEFPOINTS
 62
     0
 48
50.0
100
AcDbPoint
 10
5940.112944679367
 20
1928.843865597629
 30
0.0
  0
POINT
  5
22C8E
330
22C85
100
AcDbEntity
  8
DEFPOINTS
 62
     0
 48
50.0
100
AcDbPoint
 10
5732.112944679371
 20
1144.843865597629
 30
0.0
  0
POINT
  5
22C8F
330
22C85
100
AcDbEntity
  8
DEFPOINTS
 62
     0
 48
50.0
100
AcDbPoint
 10
5205.075706117626
 20
1144.84386559763
 30
0.0
  0
ENDBLK
  5
22C90
330
22C85
100
AcDbEntity
  8
0
 48
50.0
100
AcDbBlockEnd
  0
BLOCK
  5
22C92
330
22C91
100
AcDbEntity
  8
0
 48
50.0
100
AcDbBlockBegin
  2
*D44
 70
     1
 10
0.0
 20
0.0
 30
0.0
  3
*D44
  1

  0
LINE
  5
22C93
330
22C91
100
AcDbEntity
  8
寸法
 62
     0
 48
50.0
370
    -2
100
AcDbLine
 10
5792.112944679367
 20
1384.84386559763
 30
0.0
 11
5609.692630946908
 21
1384.84386559763
 31
0.0
  0
LINE
  5
22C94
330
22C91
100
AcDbEntity
  8
寸法
 62
     0
 48
50.0
370
    -2
100
AcDbLine
 10
5712.112944679371
 20
1144.843865597629
 30
0.0
 11
5609.692630946908
 21
1144.84386559763
 31
0.0
  0
LINE
  5
22C95
330
22C91
100
AcDbEntity
  8
寸法
 62
     0
 48
50.0
370
    -2
100
AcDbLine
 10
5669.692630946908
 20
1384.84386559763
 30
0.0
 11
5669.692630946908
 21
1144.843865597629
 31
0.0
  0
MTEXT
  5
22C96
330
22C91
100
AcDbEntity
  8
寸法
 62
     7
 48
50.0
100
AcDbMText
 10
5569.692630946908
 20
1264.84386559763
 30
0.0
 40
120.0
 41
0.0
 71
     5
 72
     1
  1
\A1;150
  7
STYLE1
 11
0.0000000000000001
 21
1.0
 31
0.0
 73
     1
 44
1.0
1001
ACAD
1000
MTEXTBEGIN
1070
    73
1070
     1
1070
    44
1040
1.0
1070
    74
1070
     0
1000
MTEXTEND
  0
INSERT
  5
22C97
330
22C91
100
AcDbEntity
  8
寸法
 62
     0
 48
50.0
370
    -2
100
AcDbBlockReference
  2
_DOTSMALL
 10
5669.692630946908
 20
1384.84386559763
 30
0.0
 41
100.0
 42
100.0
 43
100.0
 50
90.0
  0
INSERT
  5
22C98
330
22C91
100
AcDbEntity
  8
寸法
 62
     0
 48
50.0
370
    -2
100
AcDbBlockReference
  2
_DOTSMALL
 10
5669.692630946908
 20
1144.843865597629
 30
0.0
 41
100.0
 42
100.0
 43
100.0
 50
270.0
  0
POINT
  5
22C99
330
22C91
100
AcDbEntity
  8
DEFPOINTS
 62
     0
 48
50.0
100
AcDbPoint
 10
5812.112944679367
 20
1384.84386559763
 30
0.0
  0
POINT
  5
22C9A
330
22C91
100
AcDbEntity
  8
DEFPOINTS
 62
     0
 48
50.0
100
AcDbPoint
 10
5732.112944679371
 20
1144.843865597629
 30
0.0
  0
POINT
  5
22C9B
330
22C91
100
AcDbEntity
  8
DEFPOINTS
 62
     0
 48
50.0
100
AcDbPoint
 10
5669.692630946908
 20
1144.843865597629
 30
0.0
  0
ENDBLK
  5
22C9C
330
22C91
100
AcDbEntity
  8
0
 48
50.0
100
AcDbBlockEnd
  0
BLOCK
  5
22C9E
330
22C9D
100
AcDbEntity
  8
0
 48
50.0
100
AcDbBlockBegin
  2
*D45
 70
     1
 10
0.0
 20
0.0
 30
0.0
  3
*D45
  1

  0
LINE
  5
22C9F
330
22C9D
100
AcDbEntity
  8
寸法
 62
     0
 48
50.0
370
    -2
100
AcDbLine
 10
7886.952257856563
 20
1981.603865597631
 30
0.0
 11
8616.020857625406
 21
1981.603865597631
 31
0.0
  0
LINE
  5
22CA0
330
22C9D
100
AcDbEntity
  8
寸法
 62
     0
 48
50.0
370
    -2
100
AcDbLine
 10
8074.152257856562
 20
1928.843865597629
 30
0.0
 11
8616.020857625406
 21
1928.843865597629
 31
0.0
  0
LINE
  5
22CA1
330
22C9D
100
AcDbEntity
  8
寸法
 62
     0
 48
50.0
370
    -2
100
AcDbLine
 10
8556.020857625403
 20
1981.603865597631
 30
0.0
 11
8556.020857625403
 21
2081.603865597631
 31
0.0
  0
LINE
  5
22CA2
330
22C9D
100
AcDbEntity
  8
寸法
 62
     0
 48
50.0
370
    -2
100
AcDbLine
 10
8556.020857625403
 20
1928.843865597629
 30
0.0
 11
8556.020857625403
 21
1828.84386559763
 31
0.0
  0
LINE
  5
22CA3
330
22C9D
100
AcDbEntity
  8
寸法
 62
     0
 48
50.0
370
    -2
100
AcDbLine
 10
8556.020857625403
 20
1955.22386559763
 30
0.0
 11
8832.075523744432
 21
1943.719907993416
 31
0.0
  0
LINE
  5
22CA4
330
22C9D
100
AcDbEntity
  8
寸法
 62
     0
 48
50.0
370
    -2
100
AcDbLine
 10
8832.075523744432
 20
1943.719907993416
 30
0.0
 11
8832.075523744432
 21
1411.702101150451
 31
0.0
  0
MTEXT
  5
22CA5
330
22C9D
100
AcDbEntity
  8
寸法
 62
     7
 48
50.0
100
AcDbMText
 10
8732.06371272081
 20
1677.711004571935
 30
0.0
 40
120.0
 41
0.0
 71
     5
 72
     1
  1
\A1;20～25
  7
STYLE1
 11
0.0000000000000001
 21
1.0
 31
0.0
 73
     1
 44
1.0
1001
ACAD
1000
MTEXTBEGIN
1070
    73
1070
     1
1070
    44
1040
1.0
1070
    74
1070
     0
1000
MTEXTEND
  0
LINE
  5
22CA6
330
22C9D
100
AcDbEntity
  8
寸法
 62
     0
 48
50.0
370
    -2
100
AcDbLine
 10
8556.020857625403
 20
1981.603865597631
 30
0.0
 11
8556.020857625403
 21
1928.843865597629
 31
0.0
  0
LINE
  5
22CA7
330
22C9D
100
AcDbEntity
  8
寸法
 62
     0
 48
50.0
370
    -2
100
AcDbLine
 10
8556.020857625403
 20
1981.603865597631
 30
0.0
 11
8556.020857625403
 21
1928.843865597629
 31
0.0
  0
INSERT
  5
22CA8
330
22C9D
100
AcDbEntity
  8
寸法
 62
     0
 48
50.0
370
    -2
100
AcDbBlockReference
  2
_DOTSMALL
 10
8556.020857625403
 20
1981.603865597631
 30
0.0
 41
100.0
 42
100.0
 43
100.0
 50
270.0
  0
INSERT
  5
22CA9
330
22C9D
100
AcDbEntity
  8
寸法
 62
     0
 48
50.0
370
    -2
100
AcDbBlockReference
  2
_DOTSMALL
 10
8556.020857625403
 20
1928.843865597629
 30
0.0
 41
100.0
 42
100.0
 43
100.0
 50
90.0
  0
POINT
  5
22CAA
330
22C9D
100
AcDbEntity
  8
DEFPOINTS
 62
     0
 48
50.0
100
AcDbPoint
 10
7866.952257856564
 20
1981.603865597631
 30
0.0
  0
POINT
  5
22CAB
330
22C9D
100
AcDbEntity
  8
DEFPOINTS
 62
     0
 48
50.0
100
AcDbPoint
 10
8054.152257856562
 20
1928.843865597629
 30
0.0
  0
POINT
  5
22CAC
330
22C9D
100
AcDbEntity
  8
DEFPOINTS
 62
     0
 48
50.0
100
AcDbPoint
 10
8556.020857625403
 20
1928.843865597629
 30
0.0
  0
ENDBLK
  5
22CAD
330
22C9D
100
AcDbEntity
  8
0
 48
50.0
100
AcDbBlockEnd
  0
BLOCK
  5
22CAF
330
22CAE
100
AcDbEntity
  8
0
 48
50.0
100
AcDbBlockBegin
  2
*D46
 70
     1
 10
0.0
 20
0.0
 30
0.0
  3
*D46
  1

  0
LINE
  5
22CB0
330
22CAE
100
AcDbEntity
  8
寸法
 62
     0
 48
50.0
370
    -2
100
AcDbLine
 10
8074.152257856562
 20
1928.843865597629
 30
0.0
 11
8616.020857625406
 21
1928.843865597629
 31
0.0
  0
LINE
  5
22CB1
330
22CAE
100
AcDbEntity
  8
寸法
 62
     0
 48
50.0
370
    -2
100
AcDbLine
 10
8074.152257856562
 20
1604.843865597629
 30
0.0
 11
8616.020857625406
 21
1604.843865597629
 31
0.0
  0
LINE
  5
22CB2
330
22CAE
100
AcDbEntity
  8
寸法
 62
     0
 48
50.0
370
    -2
100
AcDbLine
 10
8556.020857625403
 20
1928.843865597629
 30
0.0
 11
8556.020857625403
 21
1604.843865597629
 31
0.0
  0
INSERT
  5
22CB3
330
22CAE
100
AcDbEntity
  8
寸法
 62
     0
 48
50.0
370
    -2
100
AcDbBlockReference
  2
_DOTSMALL
 10
8556.020857625403
 20
1928.843865597629
 30
0.0
 41
100.0
 42
100.0
 43
100.0
 50
90.0
  0
INSERT
  5
22CB4
330
22CAE
100
AcDbEntity
  8
寸法
 62
     0
 48
50.0
370
    -2
100
AcDbBlockReference
  2
_DOTSMALL
 10
8556.020857625403
 20
1604.843865597629
 30
0.0
 41
100.0
 42
100.0
 43
100.0
 50
270.0
  0
MTEXT
  5
22CB5
330
22CAE
100
AcDbEntity
  8
寸法
 62
     7
 48
50.0
100
AcDbMText
 10
8456.020857625404
 20
1766.84386559763
 30
0.0
 40
120.0
 41
0.0
 71
     5
 72
     1
  1
\A1;180
  7
STYLE1
 11
0.0000000000000001
 21
1.0
 31
0.0
 73
     1
 44
1.0
1001
ACAD
1000
MTEXTBEGIN
1070
    73
1070
     1
1070
    44
1040
1.0
1070
    74
1070
     0
1000
MTEXTEND
  0
POINT
  5
22CB6
330
22CAE
100
AcDbEntity
  8
DEFPOINTS
 62
     0
 48
50.0
100
AcDbPoint
 10
8054.152257856562
 20
1928.843865597629
 30
0.0
  0
POINT
  5
22CB7
330
22CAE
100
AcDbEntity
  8
DEFPOINTS
 62
     0
 48
50.0
100
AcDbPoint
 10
8054.152257856562
 20
1604.843865597629
 30
0.0
  0
POINT
  5
22CB8
330
22CAE
100
AcDbEntity
  8
DEFPOINTS
 62
     0
 48
50.0
100
AcDbPoint
 10
8556.020857625403
 20
1604.843865597629
 30
0.0
  0
ENDBLK
  5
22CB9
330
22CAE
100
AcDbEntity
  8
0
 48
50.0
100
AcDbBlockEnd
  0
BLOCK
  5
22DF1
330
22CBA
100
AcDbEntity
  8
0
 48
50.0
100
AcDbBlockBegin
  2
A$C3DE57ED0
 70
     0
 10
0.0
 20
0.0
 30
0.0
  3
A$C3DE57ED0
  1

  0
LINE
  5
22CBB
330
22CBA
100
AcDbEntity
  8
部品1
100
AcDbLine
 10
6070.985170432527
 20
2964.306983605162
 30
0.0
 11
-0.0000149537290781
 21
2964.306983605161
 31
0.0
  0
LINE
  5
22CBC
330
22CBA
100
AcDbEntity
  8
部品1
100
AcDbLine
 10
6070.985170432523
 20
2724.30698360516
 30
0.0
 11
-0.0000149537254401
 21
2724.30698360516
 31
0.0
  0
LINE
  5
22CBD
330
22CBA
100
AcDbEntity
  8
部品1
100
AcDbLine
 10
-0.0000149537236211
 20
0.0000140205147545
 30
0.0
 11
6070.985170432523
 21
0.0000140205147545
 31
0.0
  0
LEADER
  5
22CBE
330
22CBA
100
AcDbEntity
  8
寸法
 48
50.0
100
AcDbLeader
  3
INABA_S50G
 73
     0
 74
     0
 75
     1
 40
102.2727272727273
 41
680.0000000000001
 76
     3
 10
3008.107737032729
 20
2042.21064493746
 30
0.0
 10
3042.461708146087
 20
2452.663456044001
 30
0.0
 10
3167.461708146087
 20
2452.663456044001
 30
0.0
340
22CBF
1001
ACAD
1000
DSTYLE
1002
{
1070
   341
1005
0
1070
    40
1040
1.0
1070
   343
1005
0
1070
   344
1005
0
1002
}
  0
MTEXT
  5
22CBF
102
{ACAD_REACTORS
330
22CBE
102
}
330
22CBA
100
AcDbEntity
  8
部品1
 62
     7
 48
50.0
100
AcDbMText
 10
3192.461708146087
 20
2528.799819680365
 30
0.0
 40
80.0
 41
0.8
 71
     4
 72
     1
  1
\A1;ナット(市販品)
  7
STYLE2
 73
     1
 44
1.0
1001
ACAD
1000
MTEXTBEGIN
1070
    73
1070
     1
1070
    44
1040
1.0
1070
    74
1070
     0
1000
MTEXTEND
  0
LEADER
  5
22CC0
330
22CBA
100
AcDbEntity
  8
寸法
 48
50.0
100
AcDbLeader
  3
INABA_S50G
 73
     0
 74
     0
 75
     1
 40
102.2727272727273
 41
906.8181818181818
 76
     3
 10
3032.10773703273
 20
1912.458652272596
 30
0.0
 10
3073.979327401568
 20
2267.694373279213
 30
0.0
 10
3198.979327401568
 20
2267.694373279213
 30
0.0
340
22CC1
1001
ACAD
1000
DSTYLE
1002
{
1070
   341
1005
0
1070
    40
1040
1.0
1070
   343
1005
0
1070
   344
1005
0
1002
}
  0
MTEXT
  5
22CC1
102
{ACAD_REACTORS
330
22CC0
102
}
330
22CBA
100
AcDbEntity
  8
部品1
 62
     7
 48
50.0
100
AcDbMText
 10
3223.979327401568
 20
2343.830736915577
 30
0.0
 40
80.0
 41
0.8
 71
     4
 72
     1
  1
\A1;ワッシャー(市販品)
  7
STYLE2
 73
     1
 44
1.0
1001
ACAD
1000
MTEXTBEGIN
1070
    73
1070
     1
1070
    44
1040
1.0
1070
    74
1070
     0
1000
MTEXTEND
  0
LWPOLYLINE
  5
22CC2
330
22CBA
100
AcDbEntity
  8
部品1
 48
50.0
100
AcDbPolyline
 90
        2
 70
     0
 43
8.0
 10
3184.70773703273
 20
1403.335363828318
 10
3478.410200432114
 20
1403.335363828318
  0
TEXT
  5
22CC3
330
22CBA
100
AcDbEntity
  8
部品1
 48
50.0
100
AcDbText
 10
3189.061321317158
 20
1999.214044590517
 30
0.0
 40
80.0
  1
基礎ボルト(市販品)
  7
STYLE2
100
AcDbText
  0
DIMENSION
  5
22CC4
330
22CBA
100
AcDbEntity
  8
寸法
 48
50.0
100
AcDbDimension
  2
*D46
 10
3686.576336801573
 20
1319.335363828316
 30
0.0
 11
3586.576336801573
 21
1481.335363828318
 31
0.0
 12
-4869.444520823832
 22
-285.5085017693127
 32
0.0
  1
180
 71
     5
 42
324.0000000000009
  3
INABA_S40G
100
AcDbAlignedDimension
 13
3184.70773703273
 23
1643.335363828317
 33
0.0
 14
3184.70773703273
 24
1319.335363828316
 34
0.0
 50
90.0
100
AcDbRotatedDimension
1001
ACAD
1000
DSTYLE
1002
{
1070
   174
1070
     0
1070
   272
1070
     1
1070
   279
1070
     1
1070
   288
1070
     0
1070
   341
1005
0
1002
}
  0
DIMENSION
  5
22CC5
330
22CBA
100
AcDbEntity
  8
寸法
 48
50.0
100
AcDbDimension
  2
*D45
 10
3686.576336801573
 20
1643.335363828317
 30
0.0
 11
3962.6310029206
 21
1618.211406224105
 31
0.0
 12
-4869.444520823832
 22
-285.5085017693127
 32
0.0
 70
   128
  1
20～25
 71
     5
 42
52.76000000000113
  3
INABA_S40G
100
AcDbAlignedDimension
 13
2997.507737032731
 23
1696.095363828318
 33
0.0
 14
3184.70773703273
 24
1643.335363828317
 34
0.0
 50
90.0
100
AcDbRotatedDimension
1001
ACAD
1000
DSTYLE
1002
{
1070
   174
1070
     0
1070
   272
1070
     1
1070
   279
1070
     1
1070
   288
1070
     0
1070
   341
1005
0
1002
}
  0
MTEXT
  5
22CC6
102
{ACAD_REACTORS
330
22CC7
102
}
330
22CBA
100
AcDbEntity
  8
部品1
 62
     7
 48
50.0
100
AcDbMText
 10
3193.652199452048
 20
1907.718689981547
 30
0.0
 40
80.0
 41
0.8
 71
     4
 72
     1
  1
M10X160
  7
STYLE2
 73
     1
 44
1.0
1001
ACAD
1000
MTEXTBEGIN
1070
    73
1070
     1
1070
    44
1040
1.0
1070
    74
1070
     0
1000
MTEXTEND
  0
LEADER
  5
22CC7
330
22CBA
100
AcDbEntity
  8
寸法
 48
50.0
100
AcDbLeader
  3
INABA_S50G
 73
     0
 74
     0
 75
     1
 40
80.0
 41
435.0
 76
     3
 10
3001.107737032729
 20
1692.495363828317
 30
0.0
 10
3043.652199452048
 20
1842.718689981547
 30
0.0
 10
3168.652199452048
 20
1842.718689981547
 30
0.0
340
22CC6
1001
ACAD
1000
DSTYLE
1002
{
1070
   341
1005
0
1070
    40
1040
1.0
1070
   343
1005
0
1070
   344
1005
0
1002
}
  0
LINE
  5
22CC8
330
22CBA
100
AcDbEntity
  8
部品1
100
AcDbLine
 10
-0.0000149537272591
 20
2964.306983605162
 30
0.0
 11
-0.0000149537254401
 21
0.0000140205147545
 31
0.0
  0
LEADER
  5
22CC9
330
22CBA
100
AcDbEntity
  8
寸法
 48
50.0
100
AcDbLeader
  3
INABA_S50G
 73
     0
 75
     1
 40
113.1818181818182
 41
608.6363636363635
 76
     3
 10
2960.84448717078
 20
1592.851037186596
 30
0.0
 10
2827.040658479433
 20
2444.230119543074
 30
0.0
 10
2702.040658479433
 20
2444.230119543074
 30
0.0
340
22CCA
1001
ACAD
1000
DSTYLE
1002
{
1070
   341
1005
0
1070
    40
1040
1.0
1070
   343
1005
0
1070
   344
1005
0
1002
}
  0
MTEXT
  5
22CCA
102
{ACAD_REACTORS
330
22CC9
102
}
330
22CBA
100
AcDbEntity
  8
寸法
 62
     7
 48
50.0
100
AcDbMText
 10
2677.040658479433
 20
2525.821028633983
 30
0.0
 40
80.0
 41
0.8
 71
     6
 72
     1
  1
\A1;φ70スリーブ
  7
STYLE2
 73
     1
 44
1.0
1001
ACAD
1000
MTEXTBEGIN
1070
    73
1070
     1
1070
    44
1040
1.0
1070
    74
1070
     0
1000
MTEXTEND
  0
LWPOLYLINE
  5
22CCB
330
22CBA
100
AcDbEntity
  8
部品1
 48
50.0
100
AcDbPolyline
 90
        2
 70
     0
 43
8.0
 10
656.5285220225787
 20
1403.335363828318
 10
1070.668423855535
 20
1403.335363828318
  0
TEXT
  5
22CCC
330
22CBA
100
AcDbEntity
  8
部品1
 48
50.0
100
AcDbText
 10
656.5285220225787
 20
1414.574356111572
 30
0.0
 40
80.0
  1
▽G.L
  7
STYLE2
100
AcDbText
  0
DIMENSION
  5
22CCD
330
22CBA
100
AcDbEntity
  8
寸法
 48
50.0
100
AcDbDimension
  2
*D44
 10
800.248110123076
 20
859.335363828317
 30
0.0
 11
800.248110123076
 21
979.335363828317
 31
0.0
 12
-4869.444520823832
 22
-285.5085017693127
 32
0.0
 70
   128
  1
150
 71
     5
 42
240.0
  3
INABA_S40G
100
AcDbAlignedDimension
 13
942.6684238555353
 23
1099.335363828317
 33
0.0
 14
862.6684238555389
 24
859.335363828317
 34
0.0
 50
90.0
100
AcDbRotatedDimension
1001
ACAD
1000
DSTYLE
1002
{
1070
   174
1070
     0
1070
   272
1070
     1
1070
   279
1070
     1
1070
   288
1070
     0
1070
   341
1005
0
1002
}
  0
LEADER
  5
22CCE
330
22CBA
100
AcDbEntity
  8
寸法
 48
50.0
100
AcDbLeader
  3
INABA_S50G
 71
     0
 73
     0
 75
     1
 40
100.0
 41
225.0
 76
     3
 10
1038.571376207678
 20
979.335363828317
 30
0.0
 10
916.7333976603414
 20
715.8126702098806
 30
0.0
 10
791.7333976603413
 20
715.8126702098806
 30
0.0
1001
ACAD
1000
DSTYLE
1002
{
1070
    40
1040
1.0
1070
   272
1070
     1
1070
   279
1070
     1
1070
   341
1005
0
1002
}
  0
LEADER
  5
22CCF
330
22CBA
100
AcDbEntity
  8
寸法
 48
50.0
100
AcDbLeader
  3
INABA_S50G
 71
     0
 73
     0
 75
     1
 40
100.0
 41
222.7272727272727
 76
     3
 10
1166.668423855535
 20
979.335363828317
 30
0.0
 10
944.8561252177761
 20
535.4965176704372
 30
0.0
 10
819.8561252177761
 20
535.4965176704372
 30
0.0
1001
ACAD
1000
DSTYLE
1002
{
1070
    40
1040
1.0
1070
   272
1070
     1
1070
   279
1070
     1
1070
   341
1005
0
1002
}
  0
MTEXT
  5
22CD0
102
{ACAD_REACTORS
330
22CD1
102
}
330
22CBA
100
AcDbEntity
  8
寸法
 62
     7
 48
50.0
100
AcDbMText
 10
981.4183696327308
 20
1244.635966645774
 30
0.0
 40
80.0
 41
0.8
 71
     6
 72
     1
  1
\A1;D10@300
  7
STYLE2
 73
     1
 44
1.0
1001
ACAD
1000
MTEXTBEGIN
1070
    73
1070
     1
1070
    44
1040
1.0
1070
    74
1070
     0
1000
MTEXTEND
  0
LEADER
  5
22CD1
330
22CBA
100
AcDbEntity
  8
寸法
 48
50.0
100
AcDbLeader
  3
INABA_S50G
 71
     0
 73
     0
 75
     1
 40
100.0
 41
540.3409090909091
 76
     3
 10
1174.668423855535
 20
1401.46257852544
 30
0.0
 10
1116.686187326837
 20
1179.992249984635
 30
0.0
 10
991.6861873268372
 20
1179.992249984635
 30
0.0
213
-9.732182305893367
223
-4.643716661138569
233
0.0
1001
ACAD
1000
DSTYLE
1002
{
1070
    40
1040
1.0
1070
   272
1070
     1
1070
   279
1070
     1
1070
   341
1005
0
1002
}
  0
LEADER
  5
22CD2
330
22CBA
100
AcDbEntity
  8
寸法
 48
50.0
100
AcDbLeader
  3
INABA_S50G
 71
     0
 73
     0
 75
     1
 40
130.1136363636363
 41
651.1363636363636
 76
     3
 10
1150.668423855535
 20
1643.335363828317
 30
0.0
 10
1038.243843691519
 20
1783.806129284905
 30
0.0
 10
913.243843691519
 20
1783.806129284905
 30
0.0
1001
ACAD
1000
DSTYLE
1002
{
1070
    40
1040
1.0
1070
   272
1070
     1
1070
   279
1070
     1
1070
   341
1005
0
1002
}
  0
MTEXT
  5
22CD3
102
{ACAD_REACTORS
330
22CD2
102
}
330
22CBA
100
AcDbEntity
  8
寸法
 62
     7
 48
50.0
100
AcDbMText
 10
850.5699443722624
 20
1855.851583830359
 30
0.0
 40
80.0
 41
0.8
 71
     6
 72
     1
  1
\A1;金コテ押エ
  7
STYLE2
 73
     1
 44
1.0
1001
ACAD
1000
MTEXTBEGIN
1070
    73
1070
     1
1070
    44
1040
1.0
1070
    74
1070
     0
1000
MTEXTEND
  0
DIMENSION
  5
22CD4
330
22CBA
100
AcDbEntity
  8
寸法
 48
50.0
100
AcDbDimension
  2
*D43
 10
335.6311852937943
 20
859.3353638283172
 30
0.0
 11
335.6311852937952
 21
1230.875513484318
 31
0.0
 12
-4869.444520823832
 22
-285.5085017693127
 32
0.0
 70
   128
  1
540
 71
     5
 42
784.0
  3
INABA_S40G
100
AcDbAlignedDimension
 13
1070.668423855535
 23
1643.335363828317
 33
0.0
 14
862.6684238555389
 24
859.335363828317
 34
0.0
 50
90.0
100
AcDbRotatedDimension
1001
ACAD
1000
DSTYLE
1002
{
1070
   174
1070
     0
1070
   272
1070
     1
1070
   279
1070
     1
1070
   288
1070
     0
1070
   341
1005
0
1002
}
  0
MTEXT
  5
22CD5
102
{ACAD_REACTORS
330
22CCF
102
}
330
22CBA
100
AcDbEntity
  8
寸法
 62
     7
 48
50.0
100
AcDbMText
 10
799.856125217776
 20
595.4965176704372
 30
0.0
 40
80.0
 41
0.8
 71
     6
 72
     1
  1
D13
  7
STYLE2
 73
     1
 44
1.0
1001
ACAD
1000
MTEXTBEGIN
1070
    73
1070
     1
1070
    44
1040
1.0
1070
    74
1070
     0
1000
MTEXTEND
  0
MTEXT
  5
22CD6
102
{ACAD_REACTORS
330
22CCE
102
}
330
22CBA
100
AcDbEntity
  8
寸法
 62
     7
 48
50.0
100
AcDbMText
 10
771.7333976603413
 20
775.8126702098807
 30
0.0
 40
80.0
 41
0.8
 71
     6
 72
     1
  1
D10
  7
STYLE2
 73
     1
 44
1.0
1001
ACAD
1000
MTEXTBEGIN
1070
    73
1070
     1
1070
    44
1040
1.0
1070
    74
1070
     0
1000
MTEXTEND
  0
DIMENSION
  5
22CD7
330
22CBA
100
AcDbEntity
  8
寸法
 48
50.0
100
AcDbDimension
  2
*D42
 10
1390.668423855535
 20
320.9057258231569
 30
0.0
 11
1146.571665177312
 21
320.9057258231569
 31
0.0
 12
-4869.444520823832
 22
-285.5085017693127
 32
0.0
 70
   128
  1
300
 71
     5
 42
448.0
  3
INABA_S40G
100
AcDbAlignedDimension
 13
942.6684238555353
 23
731.3353638283169
 33
0.0
 14
1390.668423855535
 24
731.3353638283169
 34
0.0
100
AcDbRotatedDimension
1001
ACAD
1000
DSTYLE
1002
{
1070
   174
1070
     0
1070
   272
1070
     1
1070
   279
1070
     1
1070
   288
1070
     0
1070
   341
1005
0
1002
}
  0
MTEXT
  5
22CD8
102
{ACAD_REACTORS
330
22CD9
102
}
330
22CBA
100
AcDbEntity
  8
寸法
 62
     7
 48
50.0
100
AcDbMText
 10
2703.683664687791
 20
2165.136756726469
 30
0.0
 40
80.0
 41
0.8
 71
     6
 72
     1
  1
アンカープレート {\fArial|b0|i0|c0|p32;U}
  7
STYLE2
 73
     1
 44
1.0
1001
ACAD
1000
MTEXTBEGIN
1070
    73
1070
     1
1070
    44
1040
1.0
1070
    74
1070
     0
1000
MTEXTEND
  0
LEADER
  5
22CD9
330
22CBA
100
AcDbEntity
  8
寸法
 48
50.0
100
AcDbLeader
  3
INABA_S50G
 73
     0
 75
     1
 40
106.3636363636363
 41
903.5235024184547
 76
     3
 10
2902.107737032729
 20
1712.895363828318
 30
0.0
 10
2853.683664687791
 20
2086.95493854465
 30
0.0
 10
2728.683664687791
 20
2086.95493854465
 30
0.0
340
22CD8
1001
ACAD
1000
DSTYLE
1002
{
1070
   341
1005
0
1070
    40
1040
1.0
1070
   343
1005
0
1070
   344
1005
0
1002
}
  0
LINE
  5
22CDA
330
22CBA
100
AcDbEntity
  8
細線
 48
50.0
100
AcDbLine
 10
1190.668423855536
 20
1481.708256496147
 30
0.0
 11
1262.668423855536
 21
1553.708256496147
 31
0.0
  0
ARC
  5
22CDB
330
22CBA
100
AcDbEntity
  8
部品1
 48
50.0
100
AcDbCircle
 10
1166.668423855536
 20
1503.589793222562
 30
0.0
 40
24.0
100
AcDbArc
 50
0.0
 51
180.0
  0
CIRCLE
  5
22CDC
330
22CBA
100
AcDbEntity
  8
部品1
 48
50.0
100
AcDbCircle
 10
1166.668423855536
 20
1503.589793222562
 30
0.0
 40
8.0
  0
LINE
  5
22CDD
330
22CBA
100
AcDbEntity
  8
部品1
 48
50.0
100
AcDbLine
 10
1070.668423855536
 20
1099.335363828317
 30
0.0
 11
1070.668423855536
 21
1643.335363828317
 31
0.0
  0
LINE
  5
22CDE
330
22CBA
100
AcDbEntity
  8
部品1
 48
50.0
100
AcDbLine
 10
1262.668423855536
 20
1643.335363828317
 30
0.0
 11
1262.668423855536
 21
1099.335363828317
 31
0.0
  0
MTEXT
  5
22CDF
102
{ACAD_REACTORS
330
22CE4
102
}
330
22CBA
100
AcDbEntity
  8
寸法
 62
     7
 48
50.0
100
AcDbMText
 10
1345.55436088293
 20
1504.602925127245
 30
0.0
 40
80.0
 41
0.8
 71
     4
 72
     1
  1
D13
  7
STYLE2
 73
     1
 44
1.0
1001
ACAD
1000
MTEXTBEGIN
1070
    73
1070
     1
1070
    44
1040
1.0
1070
    74
1070
     0
1000
MTEXTEND
  0
LEADER
  5
22CE0
330
22CBA
100
AcDbEntity
  8
寸法
 48
50.0
100
AcDbLeader
  3
INABA_S50G
 71
     0
 73
     0
 74
     0
 75
     1
 40
100.0
 41
225.0
 76
     3
 10
1294.571376207678
 20
979.335363828317
 30
0.0
 10
1348.99608366222
 20
883.9382948853444
 30
0.0
 10
1473.99608366222
 20
883.9382948853444
 30
0.0
1001
ACAD
1000
DSTYLE
1002
{
1070
    40
1040
1.0
1070
   272
1070
     1
1070
   279
1070
     1
1070
   341
1005
0
1002
}
  0
LEADER
  5
22CE1
330
22CBA
100
AcDbEntity
  8
寸法
 48
50.0
100
AcDbLeader
  3
INABA_S50G
 71
     0
 73
     0
 74
     0
 75
     1
 40
100.0
 41
540.3409090909091
 76
     3
 10
1240.61359286871
 20
962.5948334147915
 30
0.0
 10
1359.406879716786
 20
620.9640154198941
 30
0.0
 10
1484.406879716786
 20
620.9640154198941
 30
0.0
213
0.0
223
-1.022262676269383
233
0.0
1001
ACAD
1000
DSTYLE
1002
{
1070
    40
1040
1.0
1070
   272
1070
     1
1070
   279
1070
     1
1070
   341
1005
0
1002
}
  0
MTEXT
  5
22CE2
102
{ACAD_REACTORS
330
22CE0
102
}
330
22CBA
100
AcDbEntity
  8
寸法
 62
     7
 48
50.0
100
AcDbMText
 10
1493.99608366222
 20
943.9382948853445
 30
0.0
 40
80.0
 41
0.8
 71
     4
 72
     1
  1
D10
  7
STYLE2
 73
     1
 44
1.0
1001
ACAD
1000
MTEXTBEGIN
1070
    73
1070
     1
1070
    44
1040
1.0
1070
    74
1070
     0
1000
MTEXTEND
  0
LWPOLYLINE
  5
22CE3
330
22CBA
100
AcDbEntity
  8
部品1
 48
50.0
100
AcDbPolyline
 90
        2
 70
     0
 43
8.0
 10
1262.668423855535
 20
1403.335363828318
 10
1676.808325688493
 20
1403.335363828318
  0
LEADER
  5
22CE4
330
22CBA
100
AcDbEntity
  8
寸法
 48
50.0
100
AcDbLeader
  3
INABA_S50G
 71
     0
 73
     0
 74
     0
 75
     1
 40
100.0
 41
222.7272727272727
 76
     3
 10
1166.668423855535
 20
1503.589793222562
 30
0.0
 10
1200.55436088293
 20
1444.602925127245
 30
0.0
 10
1325.55436088293
 20
1444.602925127245
 30
0.0
1001
ACAD
1000
DSTYLE
1002
{
1070
    40
1040
1.0
1070
   272
1070
     1
1070
   279
1070
     1
1070
   341
1005
0
1002
}
  0
LINE
  5
22CE5
330
22CBA
100
AcDbEntity
  8
細線
 48
50.0
100
AcDbLine
 10
942.668423855529
 20
1018.182109590488
 30
0.0
 11
1023.821678093364
 21
1099.335363828317
 31
0.0
  0
LINE
  5
22CE6
330
22CBA
100
AcDbEntity
  8
細線
 48
50.0
100
AcDbLine
 10
1150.53427133294
 20
1037.462578525439
 30
0.0
 11
1174.668423855542
 21
1061.596731048038
 31
0.0
  0
LINE
  5
22CE7
330
22CBA
100
AcDbEntity
  8
細線
 48
50.0
100
AcDbLine
 10
1057.466288272609
 20
971.3353638283169
 30
0.0
 11
1174.668423855536
 21
1088.537499411242
 31
0.0
  0
LINE
  5
22CE8
330
22CBA
100
AcDbEntity
  8
部品1
 48
50.0
100
AcDbLine
 10
942.6684238555363
 20
859.335363828317
 30
0.0
 11
942.6684238555363
 21
1099.335363828317
 31
0.0
  0
LINE
  5
22CE9
330
22CBA
100
AcDbEntity
  8
細線
 48
50.0
100
AcDbLine
 10
1299.93320354148
 20
971.3353638283169
 30
0.0
 11
1390.668423855536
 21
1062.070584142376
 31
0.0
  0
LINE
  5
22CEA
330
22CBA
100
AcDbEntity
  8
細線
 48
50.0
100
AcDbLine
 10
1272.992435178264
 20
971.3353638283169
 30
0.0
 11
1390.668423855536
 21
1089.011352505583
 31
0.0
  0
LINE
  5
22CEB
330
22CBA
100
AcDbEntity
  8
部品1
 48
50.0
100
AcDbLine
 10
1390.668423855536
 20
1099.335363828317
 30
0.0
 11
1390.668423855536
 21
859.335363828317
 31
0.0
  0
LINE
  5
22CEC
330
22CBA
100
AcDbEntity
  8
部品1
 48
50.0
100
AcDbLine
 10
1190.668423855542
 20
979.335363828317
 30
0.0
 11
1190.668423855536
 21
1503.589793222562
 31
0.0
  0
LINE
  5
22CED
330
22CBA
100
AcDbEntity
  8
部品1
 48
50.0
100
AcDbLine
 10
1174.668423855542
 20
979.335363828317
 30
0.0
 11
1174.668423855529
 21
1503.589793222562
 31
0.0
  0
LINE
  5
22CEE
330
22CBA
100
AcDbEntity
  8
細線
 48
50.0
100
AcDbLine
 10
1158.668423855536
 20
1018.655962684828
 30
0.0
 11
1174.668423855542
 21
1034.655962684828
 31
0.0
  0
LINE
  5
22CEF
330
22CBA
100
AcDbEntity
  8
細線
 48
50.0
100
AcDbLine
 10
1147.85126335155
 20
731.3353638283169
 30
0.0
 11
1182.148759982733
 21
859.335363828317
 31
0.0
  0
LINE
  5
22CF0
330
22CBA
100
AcDbEntity
  8
部品1
 48
50.0
100
AcDbLine
 10
1470.66842385554
 20
731.3353638283169
 30
0.0
 11
862.668423855538
 21
731.3353638283169
 31
0.0
  0
LINE
  5
22CF1
330
22CBA
100
AcDbEntity
  8
部品1
 48
50.0
100
AcDbLine
 10
998.6684238555362
 20
955.3353638283169
 30
0.0
 11
1334.668423855536
 21
955.3353638283169
 31
0.0
  0
LINE
  5
22CF2
330
22CBA
100
AcDbEntity
  8
部品1
 48
50.0
100
AcDbLine
 10
998.6684238555362
 20
971.3353638283169
 30
0.0
 11
1334.668423855536
 21
971.3353638283169
 31
0.0
  0
LINE
  5
22CF3
330
22CBA
100
AcDbEntity
  8
部品1
 48
50.0
100
AcDbLine
 10
1470.66842385554
 20
859.335363828317
 30
0.0
 11
862.668423855538
 21
859.335363828317
 31
0.0
  0
CIRCLE
  5
22CF4
330
22CBA
100
AcDbEntity
  8
部品1
 48
50.0
100
AcDbCircle
 10
1166.668423855536
 20
979.335363828317
 30
0.0
 40
8.0
  0
LINE
  5
22CF5
330
22CBA
100
AcDbEntity
  8
細線
 48
50.0
100
AcDbLine
 10
1160.992435178269
 20
859.335363828317
 30
0.0
 11
1256.992435178269
 21
955.3353638283169
 31
0.0
  0
LINE
  5
22CF6
330
22CBA
100
AcDbEntity
  8
細線
 48
50.0
100
AcDbLine
 10
990.0751734570521
 20
731.3353638283169
 30
0.0
 11
1024.372670088235
 21
859.335363828317
 31
0.0
  0
LINE
  5
22CF7
330
22CBA
100
AcDbEntity
  8
細線
 48
50.0
100
AcDbLine
 10
1068.963218404297
 20
731.3353638283151
 30
0.0
 11
1103.26071503548
 21
859.3353638283151
 31
0.0
  0
LINE
  5
22CF8
330
22CBA
100
AcDbEntity
  8
細線
 48
50.0
100
AcDbLine
 10
911.187128509794
 20
731.3353638283151
 30
0.0
 11
945.4846251409772
 21
859.3353638283151
 31
0.0
  0
LINE
  5
22CF9
330
22CBA
100
AcDbEntity
  8
部品1
 48
50.0
100
AcDbLine
 10
862.668423855538
 20
731.3353638283169
 30
0.0
 11
862.668423855538
 21
859.335363828317
 31
0.0
  0
LINE
  5
22CFA
330
22CBA
100
AcDbEntity
  8
細線
 48
50.0
100
AcDbLine
 10
996.5059540753982
 20
755.3353638283169
 30
0.0
 11
1002.936734693746
 21
731.3353638283169
 31
0.0
  0
LINE
  5
22CFB
330
22CBA
100
AcDbEntity
  8
細線
 48
50.0
100
AcDbLine
 10
917.6179091281474
 20
755.3353638283169
 30
0.0
 11
924.0486897464935
 21
731.3353638283169
 31
0.0
  0
LINE
  5
22CFC
330
22CBA
100
AcDbEntity
  8
細線
 48
50.0
100
AcDbLine
 10
1154.282043969903
 20
755.3353638283169
 30
0.0
 11
1160.712824588249
 21
731.3353638283169
 31
0.0
  0
LINE
  5
22CFD
330
22CBA
100
AcDbEntity
  8
細線
 48
50.0
100
AcDbLine
 10
1075.393999022651
 20
755.3353638283169
 30
0.0
 11
1081.824779640997
 21
731.3353638283169
 31
0.0
  0
LINE
  5
22CFE
330
22CBA
100
AcDbEntity
  8
細線
 48
50.0
100
AcDbLine
 10
972.4070566358195
 20
859.335363828317
 30
0.0
 11
1068.407056635819
 21
955.3353638283169
 31
0.0
  0
LINE
  5
22CFF
330
22CBA
100
AcDbEntity
  8
細線
 48
50.0
100
AcDbLine
 10
945.4662882726088
 20
859.335363828317
 30
0.0
 11
1041.466288272609
 21
955.3353638283169
 31
0.0
  0
LINE
  5
22D00
330
22CBA
100
AcDbEntity
  8
部品1
 48
50.0
100
AcDbLine
 10
998.6684238555362
 20
971.3353638283169
 30
0.0
 11
998.6684238555362
 21
955.3353638283169
 31
0.0
  0
LINE
  5
22D01
330
22CBA
100
AcDbEntity
  8
細線
 48
50.0
100
AcDbLine
 10
939.0538445226367
 20
835.335363828317
 30
0.0
 11
932.6230639042888
 21
859.335363828317
 31
0.0
  0
LINE
  5
22D02
330
22CBA
100
AcDbEntity
  8
細線
 48
50.0
100
AcDbLine
 10
862.6684238555363
 20
844.675284794097
 30
0.0
 11
866.5965801937318
 21
859.335363828317
 31
0.0
  0
LINE
  5
22D03
330
22CBA
100
AcDbEntity
  8
部品1
 48
50.0
100
AcDbLine
 10
1158.668423855536
 20
1037.462578525439
 30
0.0
 11
1142.668423855536
 21
1037.462578525439
 31
0.0
  0
CIRCLE
  5
22D04
330
22CBA
100
AcDbEntity
  8
部品1
 48
50.0
100
AcDbCircle
 10
1038.668423855536
 20
979.335363828317
 30
0.0
 40
8.0
  0
LINE
  5
22D05
330
22CBA
100
AcDbEntity
  8
細線
 48
50.0
100
AcDbLine
 10
1111.347824999025
 20
971.3353638283169
 30
0.0
 11
1142.668423855536
 21
1002.655962684828
 31
0.0
  0
ARC
  5
22D06
330
22CBA
100
AcDbEntity
  8
部品1
 48
50.0
100
AcDbCircle
 10
1166.668423855536
 20
979.335363828317
 30
0.0
 40
24.0
100
AcDbArc
 50
180.0
 51
199.4712206344958
  0
LINE
  5
22D07
330
22CBA
100
AcDbEntity
  8
細線
 48
50.0
100
AcDbLine
 10
1017.941889469887
 20
835.335363828317
 30
0.0
 11
1011.511108851541
 21
859.335363828317
 31
0.0
  0
LINE
  5
22D08
330
22CBA
100
AcDbEntity
  8
細線
 48
50.0
100
AcDbLine
 10
1096.82993441714
 20
835.335363828317
 30
0.0
 11
1090.399153798794
 21
859.335363828317
 31
0.0
  0
LINE
  5
22D09
330
22CBA
100
AcDbEntity
  8
細線
 48
50.0
100
AcDbLine
 10
999.3478249990248
 20
859.335363828317
 30
0.0
 11
1095.347824999025
 21
955.3353638283169
 31
0.0
  0
LINE
  5
22D0A
330
22CBA
100
AcDbEntity
  8
部品1
 48
50.0
100
AcDbLine
 10
1142.668423855536
 20
1037.462578525439
 30
0.0
 11
1142.668423855536
 21
979.335363828317
 31
0.0
  0
LINE
  5
22D0B
330
22CBA
100
AcDbEntity
  8
細線
 48
50.0
100
AcDbLine
 10
1084.407056635819
 20
971.3353638283169
 30
0.0
 11
1142.668423855536
 21
1029.596731048035
 31
0.0
  0
LINE
  5
22D0C
330
22CBA
100
AcDbEntity
  8
部品1
 48
50.0
100
AcDbLine
 10
1158.668423855536
 20
1037.462578525439
 30
0.0
 11
1158.668423855536
 21
979.335363828317
 31
0.0
  0
LINE
  5
22D0D
330
22CBA
100
AcDbEntity
  8
部品1
 48
50.0
100
AcDbLine
 10
1470.66842385554
 20
859.335363828317
 30
0.0
 11
1470.66842385554
 21
731.3353638283169
 31
0.0
  0
LINE
  5
22D0E
330
22CBA
100
AcDbEntity
  8
細線
 48
50.0
100
AcDbLine
 10
1384.51539819329
 20
731.3353638283169
 30
0.0
 11
1418.812894824475
 21
859.3353638283151
 31
0.0
  0
LINE
  5
22D0F
330
22CBA
100
AcDbEntity
  8
細線
 48
50.0
100
AcDbLine
 10
1226.739308298795
 20
731.3353638283169
 30
0.0
 11
1261.036804929982
 21
859.3353638283151
 31
0.0
  0
LINE
  5
22D10
330
22CBA
100
AcDbEntity
  8
細線
 48
50.0
100
AcDbLine
 10
1305.627353246044
 20
731.3353638283151
 30
0.0
 11
1339.924849877229
 21
859.3353638283151
 31
0.0
  0
LINE
  5
22D11
330
22CBA
100
AcDbEntity
  8
細線
 48
50.0
100
AcDbLine
 10
1312.058133864394
 20
755.3353638283169
 30
0.0
 11
1318.488914482742
 21
731.3353638283169
 31
0.0
  0
LINE
  5
22D12
330
22CBA
100
AcDbEntity
  8
細線
 48
50.0
100
AcDbLine
 10
1233.170088917149
 20
755.3353638283169
 30
0.0
 11
1239.600869535495
 21
731.3353638283169
 31
0.0
  0
LINE
  5
22D13
330
22CBA
100
AcDbEntity
  8
細線
 48
50.0
100
AcDbLine
 10
1390.946178811641
 20
755.3353638283169
 30
0.0
 11
1397.376959429989
 21
731.3353638283169
 31
0.0
  0
LINE
  5
22D14
330
22CBA
100
AcDbEntity
  8
細線
 48
50.0
100
AcDbLine
 10
1469.834223758888
 20
755.3353638283169
 30
0.0
 11
1470.668423855536
 21
752.2220866839525
 31
0.0
  0
LINE
  5
22D15
330
22CBA
100
AcDbEntity
  8
細線
 48
50.0
100
AcDbLine
 10
1463.403443140539
 20
731.3353638283151
 30
0.0
 11
1470.668423855536
 21
758.4486409727051
 31
0.0
  0
LINE
  5
22D16
330
22CBA
100
AcDbEntity
  8
細線
 48
50.0
100
AcDbLine
 10
1326.873971904683
 20
971.3353638283169
 30
0.0
 11
1390.668423855536
 21
1035.129815779168
 31
0.0
  0
CIRCLE
  5
22D17
330
22CBA
100
AcDbEntity
  8
部品1
 48
50.0
100
AcDbCircle
 10
1294.668423855536
 20
979.335363828317
 30
0.0
 40
8.0
  0
ARC
  5
22D18
330
22CBA
100
AcDbEntity
  8
部品1
 48
50.0
100
AcDbCircle
 10
1166.668423855536
 20
979.335363828317
 30
0.0
 40
24.0
100
AcDbArc
 50
340.5287793655042
 51
0.0
  0
LINE
  5
22D19
330
22CBA
100
AcDbEntity
  8
細線
 48
50.0
100
AcDbLine
 10
1175.717979364392
 20
835.335363828317
 30
0.0
 11
1169.287198746045
 21
859.335363828317
 31
0.0
  0
LINE
  5
22D1A
330
22CBA
100
AcDbEntity
  8
細線
 48
50.0
100
AcDbLine
 10
1254.606024311638
 20
835.335363828317
 30
0.0
 11
1248.175243693292
 21
859.335363828317
 31
0.0
  0
LINE
  5
22D1B
330
22CBA
100
AcDbEntity
  8
細線
 48
50.0
100
AcDbLine
 10
1187.93320354148
 20
859.335363828317
 30
0.0
 11
1283.93320354148
 21
955.3353638283169
 31
0.0
  0
LINE
  5
22D1C
330
22CBA
100
AcDbEntity
  8
細線
 48
50.0
100
AcDbLine
 10
1214.873971904683
 20
859.335363828317
 30
0.0
 11
1310.87485974982
 21
955.336251673456
 31
0.0
  0
LINE
  5
22D1D
330
22CBA
100
AcDbEntity
  8
部品1
 48
50.0
100
AcDbLine
 10
1334.668423855536
 20
971.3353638283169
 30
0.0
 11
1334.668423855536
 21
955.3353638283169
 31
0.0
  0
LINE
  5
22D1E
330
22CBA
100
AcDbEntity
  8
細線
 48
50.0
100
AcDbLine
 10
1412.38211420613
 20
835.335363828317
 30
0.0
 11
1405.951333587783
 21
859.335363828317
 31
0.0
  0
LINE
  5
22D1F
330
22CBA
100
AcDbEntity
  8
細線
 48
50.0
100
AcDbLine
 10
1376.51858208393
 20
859.335363828317
 30
0.0
 11
1390.668423855536
 21
873.4852055999235
 31
0.0
  0
LINE
  5
22D20
330
22CBA
100
AcDbEntity
  8
細線
 48
50.0
100
AcDbLine
 10
1333.494069258883
 20
835.335363828317
 30
0.0
 11
1327.063288640537
 21
859.335363828317
 31
0.0
  0
LINE
  5
22D21
330
22CBA
100
AcDbEntity
  8
細線
 48
50.0
100
AcDbLine
 10
1070.668423855536
 20
1173.122877953695
 30
0.0
 11
1174.668423855542
 21
1277.122877953698
 31
0.0
  0
LINE
  5
22D22
330
22CBA
100
AcDbEntity
  8
細線
 48
50.0
100
AcDbLine
 10
1070.668423855536
 20
1200.063646316903
 30
0.0
 11
1174.668423855536
 21
1304.063646316903
 31
0.0
  0
LINE
  5
22D23
330
22CBA
100
AcDbEntity
  8
細線
 48
50.0
100
AcDbLine
 10
1070.668423855536
 20
1146.182109590488
 30
0.0
 11
1174.668423855542
 21
1250.182109590488
 31
0.0
  0
LINE
  5
22D24
330
22CBA
100
AcDbEntity
  8
細線
 48
50.0
100
AcDbLine
 10
1158.668423855536
 20
1449.708256496147
 30
0.0
 11
1174.668423855536
 21
1465.708256496147
 31
0.0
  0
LINE
  5
22D25
330
22CBA
100
AcDbEntity
  8
細線
 48
50.0
100
AcDbLine
 10
1158.668423855536
 20
1476.649024859354
 30
0.0
 11
1174.668423855536
 21
1492.649024859354
 31
0.0
  0
LINE
  5
22D26
330
22CBA
100
AcDbEntity
  8
部品1
 48
50.0
100
AcDbLine
 10
942.6684238555363
 20
1099.335363828317
 30
0.0
 11
1070.668423855536
 21
1099.335363828317
 31
0.0
  0
LINE
  5
22D27
330
22CBA
100
AcDbEntity
  8
細線
 48
50.0
100
AcDbLine
 10
942.668423855529
 20
1045.122877953692
 30
0.0
 11
996.880909730161
 21
1099.335363828317
 31
0.0
  0
LINE
  5
22D28
330
22CBA
100
AcDbEntity
  8
細線
 48
50.0
100
AcDbLine
 10
942.668423855529
 20
1072.063646316903
 30
0.0
 11
969.9401413669502
 21
1099.335363828317
 31
0.0
  0
LINE
  5
22D29
330
22CBA
100
AcDbEntity
  8
部品1
 48
50.0
100
AcDbLine
 10
1158.668423855536
 20
1445.462578525439
 30
0.0
 11
1142.668423855536
 21
1445.462578525443
 31
0.0
  0
LINE
  5
22D2A
330
22CBA
100
AcDbEntity
  8
細線
 48
50.0
100
AcDbLine
 10
1070.668423855536
 20
1361.708256496147
 30
0.0
 11
1154.42274588483
 21
1445.462578525439
 31
0.0
  0
LINE
  5
22D2B
330
22CBA
100
AcDbEntity
  8
細線
 48
50.0
100
AcDbLine
 10
1070.668423855536
 20
1388.649024859354
 30
0.0
 11
1142.668423855536
 21
1460.649024859354
 31
0.0
  0
LINE
  5
22D2C
330
22CBA
100
AcDbEntity
  8
部品1
 48
50.0
100
AcDbLine
 10
1142.668423855536
 20
1445.462578525443
 30
0.0
 11
1142.668423855536
 21
1503.589793222562
 31
0.0
  0
LINE
  5
22D2D
330
22CBA
100
AcDbEntity
  8
細線
 48
50.0
100
AcDbLine
 10
1070.668423855536
 20
1415.589793222562
 30
0.0
 11
1142.668423855536
 21
1487.589793222563
 31
0.0
  0
LINE
  5
22D2E
330
22CBA
100
AcDbEntity
  8
部品1
 48
50.0
100
AcDbLine
 10
1158.668423855536
 20
1445.462578525439
 30
0.0
 11
1158.668423855536
 21
1503.589793222562
 31
0.0
  0
LINE
  5
22D2F
330
22CBA
100
AcDbEntity
  8
細線
 48
50.0
100
AcDbLine
 10
1190.668423855542
 20
1266.182109590488
 30
0.0
 11
1262.668423855529
 21
1338.182109590488
 31
0.0
  0
LINE
  5
22D30
330
22CBA
100
AcDbEntity
  8
部品1
 48
50.0
100
AcDbLine
 10
1262.668423855536
 20
1099.335363828317
 30
0.0
 11
1390.668423855536
 21
1099.335363828317
 31
0.0
  0
LINE
  5
22D31
330
22CBA
100
AcDbEntity
  8
細線
 48
50.0
100
AcDbLine
 10
1190.668423855542
 20
1077.596731048038
 30
0.0
 11
1262.668423855529
 21
1149.596731048033
 31
0.0
  0
LINE
  5
22D32
330
22CBA
100
AcDbEntity
  8
細線
 48
50.0
100
AcDbLine
 10
1190.668423855542
 20
1104.537499411246
 30
0.0
 11
1262.668423855529
 21
1176.537499411242
 31
0.0
  0
LINE
  5
22D33
330
22CBA
100
AcDbEntity
  8
細線
 48
50.0
100
AcDbLine
 10
1190.668423855542
 20
1050.655962684828
 30
0.0
 11
1262.668423855529
 21
1122.655962684828
 31
0.0
  0
LINE
  5
22D34
330
22CBA
100
AcDbEntity
  8
細線
 48
50.0
100
AcDbLine
 10
1190.668423855536
 20
1320.063646316903
 30
0.0
 11
1262.668423855536
 21
1392.063646316903
 31
0.0
  0
LINE
  5
22D35
330
22CBA
100
AcDbEntity
  8
細線
 48
50.0
100
AcDbLine
 10
1190.668423855542
 20
1293.122877953698
 30
0.0
 11
1262.668423855529
 21
1365.122877953692
 31
0.0
  0
MTEXT
  5
22D36
102
{ACAD_REACTORS
330
22CE1
102
}
330
22CBA
100
AcDbEntity
  8
寸法
 62
     7
 48
50.0
100
AcDbMText
 10
1504.406879716786
 20
681.9862780961639
 30
0.0
 40
80.0
 41
0.8
 71
     4
 72
     1
  1
\A1;D10@300
  7
STYLE2
 73
     1
 44
1.0
1001
ACAD
1000
MTEXTBEGIN
1070
    73
1070
     1
1070
    44
1040
1.0
1070
    74
1070
     0
1000
MTEXTEND
  0
DIMENSION
  5
22D37
330
22CBA
100
AcDbEntity
  8
寸法
 48
50.0
100
AcDbDimension
  2
*D41
 10
1070.668423855535
 20
1963.335363828317
 30
0.0
 11
1177.894754200732
 21
2063.003171744697
 31
0.0
 12
-4869.444520823832
 22
-285.5085017693127
 32
0.0
 70
   128
  1
120\P195
 71
     5
 42
192.0
  3
INABA_S40G
100
AcDbAlignedDimension
 13
1262.668423855535
 23
1643.335363828317
 33
0.0
 14
1070.668423855535
 24
1643.335363828317
 34
0.0
100
AcDbRotatedDimension
1001
ACAD
1000
DSTYLE
1002
{
1070
   174
1070
     0
1070
   272
1070
     1
1070
   279
1070
     1
1070
   288
1070
     0
1070
   341
1005
0
1002
}
  0
LINE
  5
22D38
330
22CBA
100
AcDbEntity
  8
部品1
 48
50.0
100
AcDbLine
 10
1070.668423855536
 20
1643.335363828317
 30
0.0
 11
1262.668423855536
 21
1643.335363828317
 31
0.0
  0
LINE
  5
22D39
330
22CBA
100
AcDbEntity
  8
細線
 48
50.0
100
AcDbLine
 10
1070.668423855536
 20
1604.175171765015
 30
0.0
 11
1109.82861591884
 21
1643.335363828317
 31
0.0
  0
LINE
  5
22D3A
330
22CBA
100
AcDbEntity
  8
細線
 48
50.0
100
AcDbLine
 10
1070.668423855536
 20
1577.234403401807
 30
0.0
 11
1136.769384282045
 21
1643.335363828317
 31
0.0
  0
LINE
  5
22D3B
330
22CBA
100
AcDbEntity
  8
細線
 48
50.0
100
AcDbLine
 10
1070.668423855536
 20
1631.115940128222
 30
0.0
 11
1082.887847555631
 21
1643.335363828317
 31
0.0
  0
LINE
  5
22D3C
330
22CBA
100
AcDbEntity
  8
細線
 48
50.0
100
AcDbLine
 10
1190.221131121522
 20
1508.201732125339
 30
0.0
 11
1262.668423855536
 21
1580.649024859354
 31
0.0
  0
LINE
  5
22D3D
330
22CBA
100
AcDbEntity
  8
細線
 48
50.0
100
AcDbLine
 10
1179.160846358006
 20
1524.082215725033
 30
0.0
 11
1262.668423855536
 21
1607.589793222562
 31
0.0
  0
LINE
  5
22D3E
330
22CBA
100
AcDbEntity
  8
細線
 48
50.0
100
AcDbLine
 10
3055.107737032731
 20
1484.463646316905
 30
0.0
 11
3184.70773703273
 21
1614.063646316903
 31
0.0
  0
LINE
  5
22D3F
330
22CBA
100
AcDbEntity
  8
部品1
100
AcDbLine
 10
3184.707737032728
 20
1099.335363828317
 30
0.0
 11
3184.70773703273
 21
1643.335363828317
 31
0.0
  0
LINE
  5
22D40
330
22CBA
100
AcDbEntity
  8
部品1
 48
50.0
100
AcDbLine
 10
2770.70773703273
 20
1099.335363828317
 30
0.0
 11
2770.70773703273
 21
1643.335363828317
 31
0.0
  0
LINE
  5
22D41
330
22CBA
100
AcDbEntity
  8
細線
 48
50.0
100
AcDbLine
 10
2770.70773703273
 20
1415.589793222562
 30
0.0
 11
2929.10773703273
 21
1573.989793222559
 31
0.0
  0
LINE
  5
22D42
330
22CBA
100
AcDbEntity
  8
細線
 48
50.0
100
AcDbLine
 10
2770.70773703273
 20
1388.649024859354
 30
0.0
 11
2929.10773703273
 21
1547.049024859352
 31
0.0
  0
LINE
  5
22D43
330
22CBA
100
AcDbEntity
  8
細線
 48
50.0
100
AcDbLine
 10
2770.70773703273
 20
1361.708256496147
 30
0.0
 11
2929.107737032726
 21
1520.10825649614
 31
0.0
  0
TEXT
  5
22D44
330
22CBA
100
AcDbEntity
  8
部品1
 48
50.0
100
AcDbText
 10
2356.567835199774
 20
1414.574356111572
 30
0.0
 40
80.0
  1
▽G.L
  7
STYLE2
100
AcDbText
  0
LINE
  5
22D45
330
22CBA
100
AcDbEntity
  8
部品1
100
AcDbLine
 10
3001.107737032729
 20
1418.335363828317
 30
0.0
 11
3001.107737032726
 21
1692.495363828317
 31
0.0
  0
LINE
  5
22D46
330
22CBA
100
AcDbEntity
  8
部品1
100
AcDbLine
 10
2983.10773703273
 20
1418.335363828317
 30
0.0
 11
2983.107737032726
 21
1692.495363828317
 31
0.0
  0
LINE
  5
22D47
330
22CBA
100
AcDbEntity
  8
細線
 48
50.0
100
AcDbLine
 10
3055.107737032731
 20
1430.582109590476
 30
0.0
 11
3184.70773703273
 21
1560.182109590467
 31
0.0
  0
LINE
  5
22D48
330
22CBA
100
AcDbEntity
  8
細線
 48
50.0
100
AcDbLine
 10
3055.107737032731
 20
1457.522877953688
 30
0.0
 11
3184.70773703273
 21
1587.122877953685
 31
0.0
  0
LINE
  5
22D49
330
22CBA
100
AcDbEntity
  8
部品1
100
AcDbLine
 10
3055.107737032729
 20
1319.335363828317
 30
0.0
 11
3055.107737032729
 21
1643.335363828317
 31
0.0
  0
LINE
  5
22D4A
330
22CBA
100
AcDbEntity
  8
部品1
100
AcDbLine
 10
2929.107737032724
 20
1319.335363828317
 30
0.0
 11
2929.10773703273
 21
1643.335363828317
 31
0.0
  0
LINE
  5
22D4B
330
22CBA
100
AcDbEntity
  8
細線
 48
50.0
100
AcDbLine
 10
2770.70773703273
 20
1173.122877953695
 30
0.0
 11
2929.107737032722
 21
1331.522877953684
 31
0.0
  0
LINE
  5
22D4C
330
22CBA
100
AcDbEntity
  8
細線
 48
50.0
100
AcDbLine
 10
2770.70773703273
 20
1146.182109590488
 30
0.0
 11
2943.860991270565
 21
1319.335363828315
 31
0.0
  0
LINE
  5
22D4D
330
22CBA
100
AcDbEntity
  8
細線
 48
50.0
100
AcDbLine
 10
2770.70773703273
 20
1200.063646316903
 30
0.0
 11
2929.107737032722
 21
1358.463646316898
 31
0.0
  0
LINE
  5
22D4E
330
22CBA
100
AcDbEntity
  8
細線
 48
50.0
100
AcDbLine
 10
2699.387138176219
 20
859.335363828317
 30
0.0
 11
3184.70773703273
 21
1344.655962684825
 31
0.0
  0
LINE
  5
22D4F
330
22CBA
100
AcDbEntity
  8
細線
 48
50.0
100
AcDbLine
 10
2672.446369813013
 20
859.335363828317
 30
0.0
 11
3184.707737032732
 21
1371.596731048031
 31
0.0
  0
LINE
  5
22D50
330
22CBA
100
AcDbEntity
  8
細線
 48
50.0
100
AcDbLine
 10
2645.505601449804
 20
859.335363828317
 30
0.0
 11
3184.707737032728
 21
1398.537499411242
 31
0.0
  0
LINE
  5
22D51
330
22CBA
100
AcDbEntity
  8
部品1
 48
50.0
100
AcDbLine
 10
3392.707737032732
 20
859.335363828317
 30
0.0
 11
2562.707737032732
 21
859.335363828317
 31
0.0
  0
LINE
  5
22D52
330
22CBA
100
AcDbEntity
  8
部品1
 48
50.0
100
AcDbLine
 10
3392.707737032732
 20
731.3353638283169
 30
0.0
 11
2562.707737032732
 21
731.3353638283169
 31
0.0
  0
LINE
  5
22D53
330
22CBA
100
AcDbEntity
  8
細線
 48
50.0
100
AcDbLine
 10
2642.707737032724
 20
1018.182109590488
 30
0.0
 11
2723.860991270558
 21
1099.335363828317
 31
0.0
  0
LINE
  5
22D54
330
22CBA
100
AcDbEntity
  8
部品1
 48
50.0
100
AcDbLine
 10
2642.70773703273
 20
859.335363828317
 30
0.0
 11
2642.70773703273
 21
1099.335363828317
 31
0.0
  0
LINE
  5
22D55
330
22CBA
100
AcDbEntity
  8
細線
 48
50.0
100
AcDbLine
 10
2690.114486634247
 20
731.3353638283169
 30
0.0
 11
2724.411983265429
 21
859.335363828317
 31
0.0
  0
LINE
  5
22D56
330
22CBA
100
AcDbEntity
  8
部品1
 48
50.0
100
AcDbLine
 10
2562.707737032732
 20
731.3353638283169
 30
0.0
 11
2562.707737032732
 21
859.335363828317
 31
0.0
  0
LINE
  5
22D57
330
22CBA
100
AcDbEntity
  8
細線
 48
50.0
100
AcDbLine
 10
2611.226441686988
 20
731.3353638283151
 30
0.0
 11
2645.523938318172
 21
859.3353638283151
 31
0.0
  0
LINE
  5
22D58
330
22CBA
100
AcDbEntity
  8
細線
 48
50.0
100
AcDbLine
 10
2769.002531581493
 20
731.3353638283151
 30
0.0
 11
2803.300028212674
 21
859.3353638283151
 31
0.0
  0
LINE
  5
22D59
330
22CBA
100
AcDbEntity
  8
細線
 48
50.0
100
AcDbLine
 10
2617.657222305341
 20
755.3353638283169
 30
0.0
 11
2624.088002923687
 21
731.3353638283169
 31
0.0
  0
LINE
  5
22D5A
330
22CBA
100
AcDbEntity
  8
細線
 48
50.0
100
AcDbLine
 10
2775.433312199846
 20
755.3353638283169
 30
0.0
 11
2781.864092818192
 21
731.3353638283169
 31
0.0
  0
LINE
  5
22D5B
330
22CBA
100
AcDbEntity
  8
細線
 48
50.0
100
AcDbLine
 10
2696.545267252594
 20
755.3353638283169
 30
0.0
 11
2702.97604787094
 21
731.3353638283169
 31
0.0
  0
LINE
  5
22D5C
330
22CBA
100
AcDbEntity
  8
細線
 48
50.0
100
AcDbLine
 10
2562.70773703273
 20
844.675284794097
 30
0.0
 11
2566.635893370925
 21
859.335363828317
 31
0.0
  0
LINE
  5
22D5D
330
22CBA
100
AcDbEntity
  8
細線
 48
50.0
100
AcDbLine
 10
2639.09315769983
 20
835.335363828317
 30
0.0
 11
2632.662377081484
 21
859.335363828317
 31
0.0
  0
LINE
  5
22D5E
330
22CBA
100
AcDbEntity
  8
細線
 48
50.0
100
AcDbLine
 10
2796.869247594335
 20
835.335363828317
 30
0.0
 11
2790.438466975988
 21
859.335363828317
 31
0.0
  0
LINE
  5
22D5F
330
22CBA
100
AcDbEntity
  8
細線
 48
50.0
100
AcDbLine
 10
2717.981202647083
 20
835.335363828317
 30
0.0
 11
2711.550422028737
 21
859.335363828317
 31
0.0
  0
LWPOLYLINE
  5
22D60
330
22CBA
100
AcDbEntity
  8
部品1
 48
50.0
100
AcDbPolyline
 90
        2
 70
     0
 43
8.0
 10
2356.567835199774
 20
1403.335363828318
 10
2770.70773703273
 20
1403.335363828318
  0
LINE
  5
22D61
330
22CBA
100
AcDbEntity
  8
細線
 48
50.0
100
AcDbLine
 10
2642.707737032724
 20
1045.122877953692
 30
0.0
 11
2696.920222907355
 21
1099.335363828317
 31
0.0
  0
LINE
  5
22D62
330
22CBA
100
AcDbEntity
  8
部品1
 48
50.0
100
AcDbLine
 10
2642.70773703273
 20
1099.335363828317
 30
0.0
 11
2770.70773703273
 21
1099.335363828317
 31
0.0
  0
LINE
  5
22D63
330
22CBA
100
AcDbEntity
  8
細線
 48
50.0
100
AcDbLine
 10
2642.707737032724
 20
1072.063646316903
 30
0.0
 11
2669.979454544144
 21
1099.335363828317
 31
0.0
  0
LINE
  5
22D64
330
22CBA
100
AcDbEntity
  8
細線
 48
50.0
100
AcDbLine
 10
2887.972516718674
 20
859.335363828317
 30
0.0
 11
3184.70773703273
 21
1156.070584142369
 31
0.0
  0
LINE
  5
22D65
330
22CBA
100
AcDbEntity
  8
細線
 48
50.0
100
AcDbLine
 10
2914.913285081879
 20
859.335363828317
 30
0.0
 11
3184.70773703273
 21
1129.129815779174
 31
0.0
  0
LINE
  5
22D66
330
22CBA
100
AcDbEntity
  8
細線
 48
50.0
100
AcDbLine
 10
2861.031748355465
 20
859.335363828317
 30
0.0
 11
3184.707737032728
 21
1183.011352505583
 31
0.0
  0
LINE
  5
22D67
330
22CBA
100
AcDbEntity
  8
細線
 48
50.0
100
AcDbLine
 10
3076.557895261123
 20
859.335363828317
 30
0.0
 11
3312.707737032728
 21
1095.485205599925
 31
0.0
  0
LINE
  5
22D68
330
22CBA
100
AcDbEntity
  8
細線
 48
50.0
100
AcDbLine
 10
3103.498663624334
 20
859.335363828317
 30
0.0
 11
3312.707737032728
 21
1068.54443723671
 31
0.0
  0
LINE
  5
22D69
330
22CBA
100
AcDbEntity
  8
部品1
 48
50.0
100
AcDbLine
 10
3312.707737032728
 20
1099.335363828317
 30
0.0
 11
3312.707737032728
 21
859.335363828317
 31
0.0
  0
LINE
  5
22D6A
330
22CBA
100
AcDbEntity
  8
細線
 48
50.0
100
AcDbLine
 10
3130.439431987539
 20
859.335363828317
 30
0.0
 11
3312.707737032728
 21
1041.603668873513
 31
0.0
  0
LINE
  5
22D6B
330
22CBA
100
AcDbEntity
  8
細線
 48
50.0
100
AcDbLine
 10
3005.66666642324
 20
731.3353638283151
 30
0.0
 11
3039.964163054421
 21
859.3353638283151
 31
0.0
  0
LINE
  5
22D6C
330
22CBA
100
AcDbEntity
  8
細線
 48
50.0
100
AcDbLine
 10
2847.890576528746
 20
731.3353638283169
 30
0.0
 11
2882.188073159927
 21
859.335363828317
 31
0.0
  0
LINE
  5
22D6D
330
22CBA
100
AcDbEntity
  8
細線
 48
50.0
100
AcDbLine
 10
2926.778621475991
 20
731.3353638283169
 30
0.0
 11
2961.076118107176
 21
859.3353638283151
 31
0.0
  0
LINE
  5
22D6E
330
22CBA
100
AcDbEntity
  8
細線
 48
50.0
100
AcDbLine
 10
3084.554711370481
 20
731.3353638283169
 30
0.0
 11
3118.852208001668
 21
859.3353638283151
 31
0.0
  0
LINE
  5
22D6F
330
22CBA
100
AcDbEntity
  8
細線
 48
50.0
100
AcDbLine
 10
2933.209402094344
 20
755.3353638283169
 30
0.0
 11
2939.64018271269
 21
731.3353638283169
 31
0.0
  0
LINE
  5
22D70
330
22CBA
100
AcDbEntity
  8
細線
 48
50.0
100
AcDbLine
 10
2854.321357147097
 20
755.3353638283169
 30
0.0
 11
2860.752137765445
 21
731.3353638283169
 31
0.0
  0
LINE
  5
22D71
330
22CBA
100
AcDbEntity
  8
細線
 48
50.0
100
AcDbLine
 10
3090.985491988835
 20
755.3353638283169
 30
0.0
 11
3097.416272607181
 21
731.3353638283169
 31
0.0
  0
LINE
  5
22D72
330
22CBA
100
AcDbEntity
  8
細線
 48
50.0
100
AcDbLine
 10
3012.09744704159
 20
755.3353638283169
 30
0.0
 11
3018.528227659936
 21
731.3353638283169
 31
0.0
  0
LINE
  5
22D73
330
22CBA
100
AcDbEntity
  8
細線
 48
50.0
100
AcDbLine
 10
2954.645337488834
 20
835.335363828317
 30
0.0
 11
2948.214556870486
 21
859.335363828317
 31
0.0
  0
LINE
  5
22D74
330
22CBA
100
AcDbEntity
  8
細線
 48
50.0
100
AcDbLine
 10
2875.757292541586
 20
835.335363828317
 30
0.0
 11
2869.326511923238
 21
859.335363828317
 31
0.0
  0
LINE
  5
22D75
330
22CBA
100
AcDbEntity
  8
細線
 48
50.0
100
AcDbLine
 10
3033.533382436079
 20
835.335363828317
 30
0.0
 11
3027.102601817733
 21
859.335363828317
 31
0.0
  0
LINE
  5
22D76
330
22CBA
100
AcDbEntity
  8
細線
 48
50.0
100
AcDbLine
 10
3112.421427383325
 20
835.335363828317
 30
0.0
 11
3105.990646764978
 21
859.335363828317
 31
0.0
  0
LINE
  5
22D77
330
22CBA
100
AcDbEntity
  8
部品1
 48
50.0
100
AcDbLine
 10
3392.707737032732
 20
859.335363828317
 30
0.0
 11
3392.707737032732
 21
731.3353638283169
 31
0.0
  0
LINE
  5
22D78
330
22CBA
100
AcDbEntity
  8
細線
 48
50.0
100
AcDbLine
 10
3321.218846212225
 20
731.3353638283151
 30
0.0
 11
3355.51634284341
 21
859.3353638283142
 31
0.0
  0
LINE
  5
22D79
330
22CBA
100
AcDbEntity
  8
細線
 48
50.0
100
AcDbLine
 10
3163.44275631773
 20
731.3353638283151
 30
0.0
 11
3197.740252948904
 21
859.335363828317
 31
0.0
  0
LINE
  5
22D7A
330
22CBA
100
AcDbEntity
  8
細線
 48
50.0
100
AcDbLine
 10
3242.33080126498
 20
731.3353638283142
 30
0.0
 11
3276.628297896165
 21
859.3353638283142
 31
0.0
  0
LINE
  5
22D7B
330
22CBA
100
AcDbEntity
  8
細線
 48
50.0
100
AcDbLine
 10
3169.87353693608
 20
755.3353638283169
 30
0.0
 11
3176.304317554437
 21
731.3353638283169
 31
0.0
  0
LINE
  5
22D7C
330
22CBA
100
AcDbEntity
  8
細線
 48
50.0
100
AcDbLine
 10
3248.761581883329
 20
755.3353638283152
 30
0.0
 11
3255.192362501676
 21
731.3353638283151
 31
0.0
  0
LINE
  5
22D7D
330
22CBA
100
AcDbEntity
  8
細線
 48
50.0
100
AcDbLine
 10
3327.649626830575
 20
755.3353638283152
 30
0.0
 11
3334.080407448924
 21
731.3353638283151
 31
0.0
  0
LINE
  5
22D7E
330
22CBA
100
AcDbEntity
  8
細線
 48
50.0
100
AcDbLine
 10
3191.309472330563
 20
835.335363828317
 30
0.0
 11
3184.878691712216
 21
859.335363828317
 31
0.0
  0
LINE
  5
22D7F
330
22CBA
100
AcDbEntity
  8
細線
 48
50.0
100
AcDbLine
 10
3270.197517277818
 20
835.3353638283151
 30
0.0
 11
3263.766736659473
 21
859.3353638283151
 31
0.0
  0
LINE
  5
22D80
330
22CBA
100
AcDbEntity
  8
細線
 48
50.0
100
AcDbLine
 10
3349.085562225063
 20
835.3353638283151
 30
0.0
 11
3342.654781606718
 21
859.3353638283151
 31
0.0
  0
LINE
  5
22D81
330
22CBA
100
AcDbEntity
  8
部品1
100
AcDbLine
 10
3055.107737032729
 20
1319.335363828315
 30
0.0
 11
2929.107737032724
 21
1319.335363828315
 31
0.0
  0
LINE
  5
22D82
330
22CBA
100
AcDbEntity
  8
部品1
100
AcDbLine
 10
3037.10773703273
 20
1400.335363828317
 30
0.0
 11
3037.10773703273
 21
1418.335363828317
 31
0.0
  0
ARC
  5
22D83
330
22CBA
100
AcDbEntity
  8
部品1
100
AcDbCircle
 10
3001.107737032729
 20
1418.335363828317
 30
0.0
 40
18.0
100
AcDbArc
 50
180.0
 51
270.0
  0
LINE
  5
22D84
330
22CBA
100
AcDbEntity
  8
部品1
100
AcDbLine
 10
3001.107737032729
 20
1400.335363828317
 30
0.0
 11
3037.10773703273
 21
1400.335363828317
 31
0.0
  0
LINE
  5
22D85
330
22CBA
100
AcDbEntity
  8
部品1
100
AcDbLine
 10
3001.107737032729
 20
1418.335363828317
 30
0.0
 11
3037.10773703273
 21
1418.335363828317
 31
0.0
  0
LINE
  5
22D86
330
22CBA
100
AcDbEntity
  8
部品1
 48
50.0
100
AcDbLine
 10
3184.70773703273
 20
1099.335363828317
 30
0.0
 11
3312.707737032728
 21
1099.335363828317
 31
0.0
  0
LINE
  5
22D87
330
22CBA
100
AcDbEntity
  8
部品1
100
AcDbLine
 10
2790.507737032731
 20
1733.335363828317
 30
0.0
 11
2828.30773703273
 21
1733.335363828317
 31
0.0
  0
LINE
  5
22D88
330
22CBA
100
AcDbEntity
  8
細線
 48
50.0
100
AcDbLine
 10
2770.70773703273
 20
1604.175171765015
 30
0.0
 11
2809.867929096036
 21
1643.335363828317
 31
0.0
  0
LINE
  5
22D89
330
22CBA
100
AcDbEntity
  8
細線
 48
50.0
100
AcDbLine
 10
2770.70773703273
 20
1577.234403401807
 30
0.0
 11
2836.808697459241
 21
1643.335363828317
 31
0.0
  0
LINE
  5
22D8A
330
22CBA
100
AcDbEntity
  8
部品1
 48
50.0
100
AcDbLine
 10
2770.70773703273
 20
1643.335363828317
 30
0.0
 11
3184.707737032732
 21
1643.335363828317
 31
0.0
  0
TEXT
  5
22D8B
330
22CBA
100
AcDbEntity
  8
部品1
 48
50.0
100
AcDbText
 10
2344.261640453238
 20
1973.895884928793
 30
0.0
 40
80.0
  1
※(別売)
  7
STYLE2
100
AcDbText
  0
LINE
  5
22D8C
330
22CBA
100
AcDbEntity
  8
部品1
100
AcDbLine
 10
2787.80773703273
 20
1722.535363828316
 30
0.0
 11
2787.80773703273
 21
1730.635363828317
 31
0.0
  0
ARC
  5
22D8D
330
22CBA
100
AcDbEntity
  8
部品1
100
AcDbCircle
 10
2790.507737032731
 20
1730.635363828317
 30
0.0
 40
2.7
100
AcDbArc
 50
90.0
 51
180.0
  0
ARC
  5
22D8E
330
22CBA
100
AcDbEntity
  8
部品1
100
AcDbCircle
 10
2779.70773703273
 20
1717.727267531025
 30
0.0
 40
2.7
100
AcDbArc
 50
104.0362434679067
 51
180.0
  0
LINE
  5
22D8F
330
22CBA
100
AcDbEntity
  8
部品1
100
AcDbLine
 10
2779.052890845131
 20
1720.346652281417
 30
0.0
 11
2787.80773703273
 21
1722.535363828316
 31
0.0
  0
ARC
  5
22D90
330
22CBA
100
AcDbEntity
  8
部品1
100
AcDbCircle
 10
2779.70773703273
 20
1655.595363828317
 30
0.0
 40
2.7
100
AcDbArc
 50
180.0
 51
270.0
  0
LINE
  5
22D91
330
22CBA
100
AcDbEntity
  8
細線
 48
50.0
100
AcDbLine
 10
2770.70773703273
 20
1631.115940128222
 30
0.0
 11
2782.927160732825
 21
1643.335363828317
 31
0.0
  0
LINE
  5
22D92
330
22CBA
100
AcDbEntity
  8
部品1
100
AcDbLine
 10
2779.70773703273
 20
1652.895363828317
 30
0.0
 11
2791.407737032725
 21
1652.895363828317
 31
0.0
  0
LINE
  5
22D93
330
22CBA
100
AcDbEntity
  8
部品1
100
AcDbLine
 10
2777.007737032731
 20
1655.595363828317
 30
0.0
 11
2777.007737032731
 21
1717.727267531025
 31
0.0
  0
LINE
  5
22D94
330
22CBA
100
AcDbEntity
  8
部品1
100
AcDbLine
 10
2935.667737032723
 20
1652.895363828317
 30
0.0
 11
3137.007737032724
 21
1652.895363828317
 31
0.0
  0
LINE
  5
22D95
330
22CBA
100
AcDbEntity
  8
部品1
100
AcDbLine
 10
2828.30773703273
 20
1733.335363828317
 30
0.0
 11
2828.30773703273
 21
1741.435363828317
 31
0.0
  0
LINE
  5
22D96
330
22CBA
100
AcDbEntity
  8
部品1
100
AcDbLine
 10
2878.70773703273
 20
1752.235363828314
 30
0.0
 11
2878.70773703273
 21
1700.935363828317
 31
0.0
  0
LINE
  5
22D97
330
22CBA
100
AcDbEntity
  8
部品1
100
AcDbLine
 10
2902.107737032729
 20
1712.895363828317
 30
0.0
 11
2930.267737032729
 21
1712.895363828317
 31
0.0
  0
ARC
  5
22D98
330
22CBA
100
AcDbEntity
  8
部品1
100
AcDbCircle
 10
2902.107737032729
 20
1710.195363828318
 30
0.0
 40
2.7
100
AcDbArc
 50
90.0
 51
180.0
  0
ARC
  5
22D99
330
22CBA
100
AcDbEntity
  8
部品1
100
AcDbCircle
 10
2930.267737032729
 20
1710.195363828318
 30
0.0
 40
2.7
100
AcDbArc
 50
0.0
 51
90.0
  0
LINE
  5
22D9A
330
22CBA
100
AcDbEntity
  8
部品1
100
AcDbLine
 10
2921.007737032731
 20
1698.235363828316
 30
0.0
 11
2921.007737032731
 21
1655.595363828317
 31
0.0
  0
LINE
  5
22D9B
330
22CBA
100
AcDbEntity
  8
部品1
100
AcDbLine
 10
2906.607737032729
 20
1652.895363828317
 30
0.0
 11
2918.30773703273
 21
1652.895363828317
 31
0.0
  0
ARC
  5
22D9C
330
22CBA
100
AcDbEntity
  8
部品1
100
AcDbCircle
 10
2935.667737032723
 20
1655.595363828317
 30
0.0
 40
2.7
100
AcDbArc
 50
180.0
 51
270.0
  0
ARC
  5
22D9D
330
22CBA
100
AcDbEntity
  8
部品1
100
AcDbCircle
 10
2918.30773703273
 20
1655.595363828317
 30
0.0
 40
2.7
100
AcDbArc
 50
270.0
 51
0.0
  0
LINE
  5
22D9E
330
22CBA
100
AcDbEntity
  8
部品1
100
AcDbLine
 10
2878.70773703273
 20
1700.935363828317
 30
0.0
 11
2918.30773703273
 21
1700.935363828317
 31
0.0
  0
ARC
  5
22D9F
330
22CBA
100
AcDbEntity
  8
部品1
100
AcDbCircle
 10
2918.30773703273
 20
1698.235363828316
 30
0.0
 40
2.7
100
AcDbArc
 50
0.0
 51
90.0
  0
LINE
  5
22DA0
330
22CBA
100
AcDbEntity
  8
部品1
100
AcDbLine
 10
2932.96773703273
 20
1710.195363828318
 30
0.0
 11
2932.967737032726
 21
1655.595363828317
 31
0.0
  0
LINE
  5
22DA1
330
22CBA
100
AcDbEntity
  8
部品1
100
AcDbLine
 10
2899.407737032729
 20
1710.195363828318
 30
0.0
 11
2899.407737032729
 21
1693.095363828317
 31
0.0
  0
LINE
  5
22DA2
330
22CBA
100
AcDbEntity
  8
細線
100
AcDbLine
 10
2997.507737032731
 20
1652.895363828317
 30
0.0
 11
2997.507737032731
 21
1696.095363828317
 31
0.0
  0
LINE
  5
22DA3
330
22CBA
100
AcDbEntity
  8
細線
100
AcDbLine
 10
2986.707737032732
 20
1652.895363828317
 30
0.0
 11
2986.70773703273
 21
1696.095363828317
 31
0.0
  0
LINE
  5
22DA4
330
22CBA
100
AcDbEntity
  8
部品1
100
AcDbLine
 10
2983.10773703273
 20
1692.495363828317
 30
0.0
 11
3001.107737032729
 21
1692.495363828317
 31
0.0
  0
LINE
  5
22DA5
330
22CBA
100
AcDbEntity
  8
部品1
100
AcDbLine
 10
2986.70773703273
 20
1696.095363828317
 30
0.0
 11
2997.507737032731
 21
1696.095363828317
 31
0.0
  0
ELLIPSE
  5
22DA6
330
22CBA
100
AcDbEntity
  8
部品1
 48
50.0
100
AcDbEllipse
 10
2992.107737032729
 20
1912.458652272589
 30
0.0
 11
40.0
 21
0.0
 31
0.0
210
0.0
220
0.0
230
1.0
 40
0.4
 41
0.0
 42
6.283185307179586
  0
ELLIPSE
  5
22DA7
330
22CBA
100
AcDbEntity
  8
部品1
 48
50.0
100
AcDbEllipse
 10
2992.107737032729
 20
1902.85865227259
 30
0.0
 11
40.0
 21
0.0
 31
0.0
210
0.0
220
0.0
230
1.0
 40
0.4
 41
3.141592653589793
 42
6.283185307179586
  0
LINE
  5
22DA8
330
22CBA
100
AcDbEntity
  8
部品1
 48
50.0
100
AcDbLine
 10
2952.10773703273
 20
1912.458652272589
 30
0.0
 11
2952.10773703273
 21
1902.858652272589
 31
0.0
  0
ARC
  5
22DA9
330
22CBA
100
AcDbEntity
  8
部品1
100
AcDbCircle
 10
2876.007737032731
 20
1752.235363828314
 30
0.0
 40
2.7
100
AcDbArc
 50
0.0
 51
90.0
  0
ARC
  5
22DAA
330
22CBA
100
AcDbEntity
  8
部品1
100
AcDbCircle
 10
2833.70773703273
 20
1752.235363828317
 30
0.0
 40
2.7
100
AcDbArc
 50
90.0
 51
180.0
  0
LINE
  5
22DAB
330
22CBA
100
AcDbEntity
  8
部品1
100
AcDbLine
 10
2831.007737032731
 20
1744.135363828317
 30
0.0
 11
2831.007737032731
 21
1744.135363828317
 31
0.0
  0
LINE
  5
22DAC
330
22CBA
100
AcDbEntity
  8
部品1
100
AcDbLine
 10
2831.007737032731
 20
1744.135363828317
 30
0.0
 11
2831.007737032731
 21
1752.235363828317
 31
0.0
  0
LINE
  5
22DAD
330
22CBA
100
AcDbEntity
  8
部品1
100
AcDbLine
 10
2833.70773703273
 20
1754.935363828317
 30
0.0
 11
2876.007737032731
 21
1754.935363828314
 31
0.0
  0
ARC
  5
22DAE
330
22CBA
100
AcDbEntity
  8
部品1
100
AcDbCircle
 10
2831.007737032731
 20
1741.435363828317
 30
0.0
 40
2.7
100
AcDbArc
 50
90.0
 51
180.0
  0
ELLIPSE
  5
22DAF
330
22CBA
100
AcDbEntity
  8
部品1
 48
50.0
100
AcDbEllipse
 10
2992.107737032729
 20
1912.458652272589
 30
0.0
 11
18.4
 21
0.0
 31
0.0
210
0.0
220
0.0
230
1.0
 40
0.3478260869565217
 41
0.0
 42
6.283185307179586
  0
LINE
  5
22DB0
330
22CBA
100
AcDbEntity
  8
部品1
 48
50.0
100
AcDbLine
 10
3032.10773703273
 20
1902.858652272589
 30
0.0
 11
3032.10773703273
 21
1912.458652272589
 31
0.0
  0
LINE
  5
22DB1
330
22CBA
100
AcDbEntity
  8
部品1
 48
50.0
100
AcDbLine
 10
2960.107737032729
 20
2034.21064493746
 30
0.0
 11
2976.107737032729
 21
2026.21064493746
 31
0.0
  0
LINE
  5
22DB2
330
22CBA
100
AcDbEntity
  8
部品1
 48
50.0
100
AcDbLine
 10
2960.107737032729
 20
2002.21064493746
 30
0.0
 11
2976.107737032729
 21
1994.210644937459
 31
0.0
  0
LINE
  5
22DB3
330
22CBA
100
AcDbEntity
  8
部品1
 48
50.0
100
AcDbLine
 10
2960.107737032729
 20
2034.21064493746
 30
0.0
 11
2976.107737032729
 21
2042.21064493746
 31
0.0
  0
LINE
  5
22DB4
330
22CBA
100
AcDbEntity
  8
部品1
 48
50.0
100
AcDbLine
 10
2960.107737032729
 20
2002.21064493746
 30
0.0
 11
2960.107737032729
 21
2034.21064493746
 31
0.0
  0
LINE
  5
22DB5
330
22CBA
100
AcDbEntity
  8
部品1
 48
50.0
100
AcDbLine
 10
2976.107737032729
 20
2042.21064493746
 30
0.0
 11
3008.107737032729
 21
2042.21064493746
 31
0.0
  0
ELLIPSE
  5
22DB6
330
22CBA
100
AcDbEntity
  8
細線
 48
50.0
100
AcDbEllipse
 10
2992.107737032729
 20
2034.21064493746
 30
0.0
 11
14.76670786606846
 21
0.0
 31
0.0
210
0.0
220
0.0
230
1.0
 40
0.2071254069489396
 41
0.0
 42
6.283185307179586
  0
LINE
  5
22DB7
330
22CBA
100
AcDbEntity
  8
部品1
 48
50.0
100
AcDbLine
 10
2976.107737032729
 20
1994.210644937459
 30
0.0
 11
3008.107737032729
 21
1994.210644937459
 31
0.0
  0
LINE
  5
22DB8
330
22CBA
100
AcDbEntity
  8
部品1
 48
50.0
100
AcDbLine
 10
3008.107737032729
 20
1994.210644937459
 30
0.0
 11
3024.107737032729
 21
2002.21064493746
 31
0.0
  0
LINE
  5
22DB9
330
22CBA
100
AcDbEntity
  8
部品1
 48
50.0
100
AcDbLine
 10
2976.107737032729
 20
2026.21064493746
 30
0.0
 11
3008.107737032729
 21
2026.21064493746
 31
0.0
  0
LINE
  5
22DBA
330
22CBA
100
AcDbEntity
  8
部品1
 48
50.0
100
AcDbLine
 10
3008.107737032729
 20
2026.21064493746
 30
0.0
 11
3024.107737032729
 21
2034.21064493746
 31
0.0
  0
LINE
  5
22DBB
330
22CBA
100
AcDbEntity
  8
細線
 48
50.0
100
AcDbLine
 10
3008.107737032729
 20
1994.210644937459
 30
0.0
 11
3008.107737032729
 21
2026.21064493746
 31
0.0
  0
LINE
  5
22DBC
330
22CBA
100
AcDbEntity
  8
部品1
 48
50.0
100
AcDbLine
 10
3024.107737032729
 20
2002.21064493746
 30
0.0
 11
3024.107737032729
 21
2034.21064493746
 31
0.0
  0
LINE
  5
22DBD
330
22CBA
100
AcDbEntity
  8
細線
 48
50.0
100
AcDbLine
 10
2976.107737032729
 20
1994.210644937459
 30
0.0
 11
2976.107737032729
 21
2026.21064493746
 31
0.0
  0
LINE
  5
22DBE
330
22CBA
100
AcDbEntity
  8
部品1
 48
50.0
100
AcDbLine
 10
3008.107737032729
 20
2042.21064493746
 30
0.0
 11
3024.107737032729
 21
2034.21064493746
 31
0.0
  0
TEXT
  5
22DBF
330
22CBA
100
AcDbEntity
  8
部品1
100
AcDbText
 10
2692.87998622466
 20
2784.755051653734
 30
0.0
 40
120.0
  1
基礎詳細
  7
STYLE2
100
AcDbText
  0
LINE
  5
22DC0
330
22CBA
100
AcDbEntity
  8
部品1
100
AcDbLine
 10
6070.985170432519
 20
0.0000140205147545
 30
0.0
 11
6070.985170432527
 21
2964.306983605162
 31
0.0
  0
LINE
  5
22DC1
330
22CBA
100
AcDbEntity
  8
細線
100
AcDbLine
 10
5078.877003012273
 20
1403.335363828317
 30
0.0
 11
4884.243669335487
 21
1597.9686975051
 31
0.0
  0
LINE
  5
22DC2
330
22CBA
100
AcDbEntity
  8
部品1
100
AcDbLine
 10
4884.243669335487
 20
1643.335363828317
 30
0.0
 11
5364.243669335486
 21
1643.335363828317
 31
0.0
  0
LINE
  5
22DC3
330
22CBA
100
AcDbEntity
  8
細線
 48
50.0
100
AcDbLine
 10
5018.314553778746
 20
1183.636448174967
 30
0.0
 11
5052.612050409931
 21
1311.636448174966
 31
0.0
  0
LINE
  5
22DC4
330
22CBA
100
AcDbEntity
  8
部品1
100
AcDbLine
 10
4764.243669335487
 20
1183.636448174963
 30
0.0
 11
5484.243669335487
 21
1183.636448174967
 31
0.0
  0
LINE
  5
22DC5
330
22CBA
100
AcDbEntity
  8
部品1
100
AcDbLine
 10
4764.243669335487
 20
1311.636448174967
 30
0.0
 11
5484.243669335487
 21
1311.63644817497
 31
0.0
  0
LINE
  5
22DC6
330
22CBA
100
AcDbEntity
  8
細線
100
AcDbLine
 10
4945.162314828729
 20
1311.636448174967
 30
0.0
 11
5036.861230482074
 21
1403.335363828317
 31
0.0
  0
LWPOLYLINE
  5
22DC7
330
22CBA
100
AcDbEntity
  8
部品1
 48
50.0
100
AcDbPolyline
 90
        2
 70
     0
 43
12.0
 10
4499.632407235098
 20
1403.335363828317
 10
5700.724710366725
 20
1403.335363828317
  0
LINE
  5
22DC8
330
22CBA
100
AcDbEntity
  8
細線
100
AcDbLine
 10
5027.96531476684
 20
1403.335363828317
 30
0.0
 11
4884.243669335487
 21
1547.05700925967
 31
0.0
  0
TEXT
  5
22DC9
330
22CBA
100
AcDbEntity
  8
部品1
 48
50.0
100
AcDbText
 10
4120.125582576984
 20
1136.535623191008
 30
0.0
 40
80.0
  1
ボルトの出
 50
90.0
  7
STYLE2
100
AcDbText
  0
LINE
  5
22DCA
330
22CBA
100
AcDbEntity
  8
部品1
100
AcDbLine
 10
4884.243669335487
 20
1403.335363828317
 30
0.0
 11
4884.243669335487
 21
1643.335363828317
 31
0.0
  0
LINE
  5
22DCB
330
22CBA
100
AcDbEntity
  8
細線
 48
50.0
100
AcDbLine
 10
4860.538463884248
 20
1183.636448174966
 30
0.0
 11
4894.835960515429
 21
1311.636448174966
 31
0.0
  0
LINE
  5
22DCC
330
22CBA
100
AcDbEntity
  8
細線
 48
50.0
100
AcDbLine
 10
4939.426508831497
 20
1183.636448174967
 30
0.0
 11
4973.724005462681
 21
1311.636448174967
 31
0.0
  0
LINE
  5
22DCD
330
22CBA
100
AcDbEntity
  8
細線
 48
50.0
100
AcDbLine
 10
4781.650418936999
 20
1183.636448174967
 30
0.0
 11
4815.947915568184
 21
1311.636448174967
 31
0.0
  0
LINE
  5
22DCE
330
22CBA
100
AcDbEntity
  8
部品1
100
AcDbLine
 10
4764.243669335487
 20
1183.636448174963
 30
0.0
 11
4764.243669335487
 21
1403.335363828317
 31
0.0
  0
LINE
  5
22DCF
330
22CBA
100
AcDbEntity
  8
細線
 48
50.0
100
AcDbLine
 10
4866.969244502598
 20
1207.636448174967
 30
0.0
 11
4873.400025120947
 21
1183.636448174967
 31
0.0
  0
LINE
  5
22DD0
330
22CBA
100
AcDbEntity
  8
細線
 48
50.0
100
AcDbLine
 10
4788.081199555349
 20
1207.636448174967
 30
0.0
 11
4794.511980173695
 21
1183.636448174967
 31
0.0
  0
LINE
  5
22DD1
330
22CBA
100
AcDbEntity
  8
細線
 48
50.0
100
AcDbLine
 10
4945.85728944985
 20
1207.636448174967
 30
0.0
 11
4952.288070068196
 21
1183.636448174967
 31
0.0
  0
LINE
  5
22DD2
330
22CBA
100
AcDbEntity
  8
細線
 48
50.0
100
AcDbLine
 10
5024.745334397096
 20
1207.636448174967
 30
0.0
 11
5031.176115015445
 21
1183.636448174967
 31
0.0
  0
LINE
  5
22DD3
330
22CBA
100
AcDbEntity
  8
細線
 48
50.0
100
AcDbLine
 10
4809.517134949838
 20
1287.636448174967
 30
0.0
 11
4803.086354331488
 21
1311.636448174967
 31
0.0
  0
LINE
  5
22DD4
330
22CBA
100
AcDbEntity
  8
細線
 48
50.0
100
AcDbLine
 10
4967.29322484434
 20
1287.636448174967
 30
0.0
 11
4960.862444225994
 21
1311.636448174967
 31
0.0
  0
LINE
  5
22DD5
330
22CBA
100
AcDbEntity
  8
細線
 48
50.0
100
AcDbLine
 10
4888.405179897087
 20
1287.636448174967
 30
0.0
 11
4881.974399278741
 21
1311.636448174967
 31
0.0
  0
LINE
  5
22DD6
330
22CBA
100
AcDbEntity
  8
細線
100
AcDbLine
 10
4877.280063834817
 20
1311.636448174967
 30
0.0
 11
4968.978979488166
 21
1403.335363828317
 31
0.0
  0
LINE
  5
22DD7
330
22CBA
100
AcDbEntity
  8
細線
100
AcDbLine
 10
4911.221189331772
 20
1311.636448174967
 30
0.0
 11
5002.920104985118
 21
1403.335363828317
 31
0.0
  0
LINE
  5
22DD8
330
22CBA
100
AcDbEntity
  8
細線
100
AcDbLine
 10
5299.494318742476
 20
1403.335363828317
 30
0.0
 11
5059.494318742476
 21
1643.335363828317
 31
0.0
  0
LINE
  5
22DD9
330
22CBA
100
AcDbEntity
  8
細線
100
AcDbLine
 10
5350.406006987905
 20
1403.335363828318
 30
0.0
 11
5110.406006987909
 21
1643.335363828317
 31
0.0
  0
LINE
  5
22DDA
330
22CBA
100
AcDbEntity
  8
部品1
100
AcDbLine
 10
5364.243669335486
 20
1643.335363828317
 30
0.0
 11
5364.243669335486
 21
1403.335363828317
 31
0.0
  0
LINE
  5
22DDB
330
22CBA
100
AcDbEntity
  8
細線
 48
50.0
100
AcDbLine
 10
5333.866733567734
 20
1183.636448174964
 30
0.0
 11
5368.16423019892
 21
1311.636448174964
 31
0.0
  0
LINE
  5
22DDC
330
22CBA
100
AcDbEntity
  8
細線
100
AcDbLine
 10
5305.162314828729
 20
1311.636448174969
 30
0.0
 11
5396.861230482074
 21
1403.335363828317
 31
0.0
  0
LINE
  5
22DDD
330
22CBA
100
AcDbEntity
  8
細線
 48
50.0
100
AcDbLine
 10
5254.978688620486
 20
1183.636448174966
 30
0.0
 11
5289.27618525166
 21
1311.636448174967
 31
0.0
  0
LINE
  5
22DDE
330
22CBA
100
AcDbEntity
  8
細線
 48
50.0
100
AcDbLine
 10
5097.202598725995
 20
1183.636448174966
 30
0.0
 11
5131.500095357176
 21
1311.636448174966
 31
0.0
  0
LINE
  5
22DDF
330
22CBA
100
AcDbEntity
  8
細線
 48
50.0
100
AcDbLine
 10
5176.090643673237
 20
1183.636448174967
 30
0.0
 11
5210.388140304422
 21
1311.636448174966
 31
0.0
  0
LINE
  5
22DE0
330
22CBA
100
AcDbEntity
  8
細線
 48
50.0
100
AcDbLine
 10
5182.521424291589
 20
1207.636448174967
 30
0.0
 11
5188.952204909936
 21
1183.636448174967
 31
0.0
  0
LINE
  5
22DE1
330
22CBA
100
AcDbEntity
  8
細線
 48
50.0
100
AcDbLine
 10
5103.633379344344
 20
1207.636448174967
 30
0.0
 11
5110.06415996269
 21
1183.636448174967
 31
0.0
  0
LINE
  5
22DE2
330
22CBA
100
AcDbEntity
  8
細線
 48
50.0
100
AcDbLine
 10
5261.409469238835
 20
1207.636448174967
 30
0.0
 11
5267.840249857193
 21
1183.636448174967
 31
0.0
  0
LINE
  5
22DE3
330
22CBA
100
AcDbEntity
  8
細線
 48
50.0
100
AcDbLine
 10
5340.297514186084
 20
1207.636448174966
 30
0.0
 11
5346.728294804431
 21
1183.636448174966
 31
0.0
  0
LINE
  5
22DE4
330
22CBA
100
AcDbEntity
  8
細線
 48
50.0
100
AcDbLine
 10
5203.957359686079
 20
1287.636448174967
 30
0.0
 11
5197.526579067734
 21
1311.636448174967
 31
0.0
  0
LINE
  5
22DE5
330
22CBA
100
AcDbEntity
  8
細線
 48
50.0
100
AcDbLine
 10
5125.069314738833
 20
1287.636448174967
 30
0.0
 11
5118.638534120488
 21
1311.636448174967
 31
0.0
  0
LINE
  5
22DE6
330
22CBA
100
AcDbEntity
  8
細線
 48
50.0
100
AcDbLine
 10
5046.181269791585
 20
1287.636448174967
 30
0.0
 11
5039.750489173239
 21
1311.636448174967
 31
0.0
  0
LINE
  5
22DE7
330
22CBA
100
AcDbEntity
  8
細線
100
AcDbLine
 10
5271.221189331776
 20
1311.636448174969
 30
0.0
 11
5362.920104985118
 21
1403.335363828317
 31
0.0
  0
LINE
  5
22DE8
330
22CBA
100
AcDbEntity
  8
細線
 48
50.0
100
AcDbLine
 10
5282.845404633317
 20
1287.636448174967
 30
0.0
 11
5276.414624014972
 21
1311.636448174967
 31
0.0
  0
LINE
  5
22DE9
330
22CBA
100
AcDbEntity
  8
細線
100
AcDbLine
 10
5237.28006383482
 20
1311.636448174969
 30
0.0
 11
5328.978979488166
 21
1403.335363828317
 31
0.0
  0
LINE
  5
22DEA
330
22CBA
100
AcDbEntity
  8
細線
 48
50.0
100
AcDbLine
 10
5361.733449580573
 20
1287.636448174966
 30
0.0
 11
5355.302668962227
 21
1311.636448174966
 31
0.0
  0
LINE
  5
22DEB
330
22CBA
100
AcDbEntity
  8
細線
 48
50.0
100
AcDbLine
 10
5412.75477851498
 20
1183.636448174966
 30
0.0
 11
5447.052275146165
 21
1311.636448174964
 31
0.0
  0
LINE
  5
22DEC
330
22CBA
100
AcDbEntity
  8
部品1
100
AcDbLine
 10
5484.243669335487
 20
1403.335363828317
 30
0.0
 11
5484.243669335491
 21
1183.636448174967
 31
0.0
  0
LINE
  5
22DED
330
22CBA
100
AcDbEntity
  8
細線
 48
50.0
100
AcDbLine
 10
5419.18555913333
 20
1207.636448174966
 30
0.0
 11
5425.616339751679
 21
1183.636448174966
 31
0.0
  0
LINE
  5
22DEE
330
22CBA
100
AcDbEntity
  8
細線
 48
50.0
100
AcDbLine
 10
5440.621494527818
 20
1287.636448174966
 30
0.0
 11
5434.190713909472
 21
1311.636448174966
 31
0.0
  0
LEADER
  5
22DEF
330
22CBA
100
AcDbEntity
  8
寸法
 48
50.0
100
AcDbLeader
  3
INABA_S50G
 73
     0
 74
     0
 75
     1
 40
120.0
 41
185.591883092037
 76
     3
 10
5294.96808095141
 20
1643.335363828317
 30
0.0
 10
5328.106287585055
 20
1815.481684509455
 30
0.0
 10
5453.106287585055
 20
1815.481684509455
 30
0.0
340
22DF0
1001
ACAD
1000
DSTYLE
1002
{
1070
    40
1040
1.0
1002
}
  0
MTEXT
  5
22DF0
102
{ACAD_REACTORS
330
22DEF
102
}
330
22CBA
100
AcDbEntity
  8
寸法
 62
     7
 48
50.0
100
AcDbMText
 10
5478.106287585055
 20
1900.481684509455
 30
0.0
 40
120.0
 41
0.8
 71
     4
 72
     1
  1
\A1;C.B
  7
STYLE1
 73
     1
 44
1.0
1001
ACAD
1000
MTEXTBEGIN
1070
    73
1070
     1
1070
    44
1040
1.0
1070
    74
1070
     0
1000
MTEXTEND
  0
ENDBLK
  5
22DF2
330
22CBA
100
AcDbEntity
  8
0
 48
50.0
100
AcDbBlockEnd
  0
BLOCK
  5
230BB
330
230B1
100
AcDbEntity
  8
0
 48
50.0
100
AcDbBlockBegin
  2
*D48
 70
     1
 10
0.0
 20
0.0
 30
0.0
  3
*D48
  1

  0
LINE
  5
230FE
330
230B1
100
AcDbEntity
  8
寸法
 62
     0
 48
50.0
370
    -2
100
AcDbLine
 10
6509.821094427123
 20
2131.551604364636
 30
0.0
 11
6509.821094427123
 21
2491.551604364637
 31
0.0
  0
LINE
  5
230FF
330
230B1
100
AcDbEntity
  8
寸法
 62
     0
 48
50.0
370
    -2
100
AcDbLine
 10
6317.821094427124
 20
2131.551604364636
 30
0.0
 11
6317.821094427124
 21
2491.551604364637
 31
0.0
  0
LINE
  5
23100
330
230B1
100
AcDbEntity
  8
寸法
 62
     0
 48
50.0
370
    -2
100
AcDbLine
 10
6509.821094427123
 20
2431.551604364637
 30
0.0
 11
6317.821094427124
 21
2431.551604364637
 31
0.0
  0
MTEXT
  5
23101
330
230B1
100
AcDbEntity
  8
寸法
 62
     7
 48
50.0
100
AcDbMText
 10
6425.04742477232
 20
2731.231223304639
 30
0.0
 40
120.0
 41
0.0
 71
     5
 72
     1
  1
\A1;120\P195
  7
STYLE1
 73
     1
 44
1.0
1001
ACAD
1000
MTEXTBEGIN
1070
    73
1070
     1
1070
    44
1040
1.0
1070
    74
1070
     0
1000
MTEXTEND
  0
INSERT
  5
23102
330
230B1
100
AcDbEntity
  8
寸法
 62
     0
 48
50.0
370
    -2
100
AcDbBlockReference
  2
_DOTSMALL
 10
6509.821094427123
 20
2431.551604364637
 30
0.0
 41
100.0
 42
100.0
 43
100.0
  0
INSERT
  5
23103
330
230B1
100
AcDbEntity
  8
寸法
 62
     0
 48
50.0
370
    -2
100
AcDbBlockReference
  2
_DOTSMALL
 10
6317.821094427124
 20
2431.551604364637
 30
0.0
 41
100.0
 42
100.0
 43
100.0
 50
180.0
  0
POINT
  5
23104
330
230B1
100
AcDbEntity
  8
DEFPOINTS
 62
     0
 48
50.0
100
AcDbPoint
 10
6509.821094427123
 20
2111.551604364636
 30
0.0
  0
POINT
  5
23105
330
230B1
100
AcDbEntity
  8
DEFPOINTS
 62
     0
 48
50.0
100
AcDbPoint
 10
6317.821094427124
 20
2111.551604364636
 30
0.0
  0
POINT
  5
23106
330
230B1
100
AcDbEntity
  8
DEFPOINTS
 62
     0
 48
50.0
100
AcDbPoint
 10
6317.821094427124
 20
2431.551604364637
 30
0.0
  0
ENDBLK
  5
230BC
330
230B1
100
AcDbEntity
  8
0
 48
50.0
100
AcDbBlockEnd
  0
BLOCK
  5
230C7
330
230BD
100
AcDbEntity
  8
0
 48
50.0
100
AcDbBlockBegin
  2
*D49
 70
     1
 10
0.0
 20
0.0
 30
0.0
  3
*D49
  1

  0
LINE
  5
23107
330
230BD
100
AcDbEntity
  8
寸法
 62
     0
 48
50.0
370
    -2
100
AcDbLine
 10
8451.860407604318
 20
2111.551604364636
 30
0.0
 11
8993.729007373159
 21
2111.551604364636
 31
0.0
  0
LINE
  5
23108
330
230BD
100
AcDbEntity
  8
寸法
 62
     0
 48
50.0
370
    -2
100
AcDbLine
 10
8451.860407604318
 20
1787.551604364636
 30
0.0
 11
8993.729007373159
 21
1787.551604364636
 31
0.0
  0
LINE
  5
23109
330
230BD
100
AcDbEntity
  8
寸法
 62
     0
 48
50.0
370
    -2
100
AcDbLine
 10
8933.729007373161
 20
2111.551604364636
 30
0.0
 11
8933.729007373161
 21
1787.551604364636
 31
0.0
  0
INSERT
  5
2310A
330
230BD
100
AcDbEntity
  8
寸法
 62
     0
 48
50.0
370
    -2
100
AcDbBlockReference
  2
_DOTSMALL
 10
8933.729007373161
 20
2111.551604364636
 30
0.0
 41
100.0
 42
100.0
 43
100.0
 50
90.0
  0
INSERT
  5
2310B
330
230BD
100
AcDbEntity
  8
寸法
 62
     0
 48
50.0
370
    -2
100
AcDbBlockReference
  2
_DOTSMALL
 10
8933.729007373161
 20
1787.551604364636
 30
0.0
 41
100.0
 42
100.0
 43
100.0
 50
270.0
  0
MTEXT
  5
2310C
330
230BD
100
AcDbEntity
  8
寸法
 62
     7
 48
50.0
100
AcDbMText
 10
8833.729007373161
 20
1949.551604364637
 30
0.0
 40
120.0
 41
0.0
 71
     5
 72
     1
  1
\A1;180
  7
STYLE1
 11
0.0000000000000001
 21
1.0
 31
0.0
 73
     1
 44
1.0
1001
ACAD
1000
MTEXTBEGIN
1070
    73
1070
     1
1070
    44
1040
1.0
1070
    74
1070
     0
1000
MTEXTEND
  0
POINT
  5
2310D
330
230BD
100
AcDbEntity
  8
DEFPOINTS
 62
     0
 48
50.0
100
AcDbPoint
 10
8431.860407604316
 20
2111.551604364636
 30
0.0
  0
POINT
  5
2310E
330
230BD
100
AcDbEntity
  8
DEFPOINTS
 62
     0
 48
50.0
100
AcDbPoint
 10
8431.860407604316
 20
1787.551604364636
 30
0.0
  0
POINT
  5
2310F
330
230BD
100
AcDbEntity
  8
DEFPOINTS
 62
     0
 48
50.0
100
AcDbPoint
 10
8933.729007373161
 20
1787.551604364636
 30
0.0
  0
ENDBLK
  5
230C8
330
230BD
100
AcDbEntity
  8
0
 48
50.0
100
AcDbBlockEnd
  0
BLOCK
  5
230D8
330
230C9
100
AcDbEntity
  8
0
 48
50.0
100
AcDbBlockBegin
  2
*D50
 70
     1
 10
0.0
 20
0.0
 30
0.0
  3
*D50
  1

  0
LINE
  5
23110
330
230C9
100
AcDbEntity
  8
寸法
 62
     0
 48
50.0
370
    -2
100
AcDbLine
 10
8264.660407604319
 20
2164.311604364638
 30
0.0
 11
8993.729007373159
 21
2164.311604364638
 31
0.0
  0
LINE
  5
23111
330
230C9
100
AcDbEntity
  8
寸法
 62
     0
 48
50.0
370
    -2
100
AcDbLine
 10
8451.860407604318
 20
2111.551604364636
 30
0.0
 11
8993.729007373159
 21
2111.551604364636
 31
0.0
  0
LINE
  5
23112
330
230C9
100
AcDbEntity
  8
寸法
 62
     0
 48
50.0
370
    -2
100
AcDbLine
 10
8933.729007373161
 20
2164.311604364638
 30
0.0
 11
8933.729007373161
 21
2264.311604364638
 31
0.0
  0
LINE
  5
23113
330
230C9
100
AcDbEntity
  8
寸法
 62
     0
 48
50.0
370
    -2
100
AcDbLine
 10
8933.729007373161
 20
2111.551604364636
 30
0.0
 11
8933.729007373161
 21
2011.551604364637
 31
0.0
  0
LINE
  5
23114
330
230C9
100
AcDbEntity
  8
寸法
 62
     0
 48
50.0
370
    -2
100
AcDbLine
 10
8933.729007373161
 20
2137.931604364637
 30
0.0
 11
9209.783673492188
 21
2126.427646760424
 31
0.0
  0
LINE
  5
23115
330
230C9
100
AcDbEntity
  8
寸法
 62
     0
 48
50.0
370
    -2
100
AcDbLine
 10
9209.783673492188
 20
2126.427646760424
 30
0.0
 11
9209.783673492188
 21
1594.409839917458
 31
0.0
  0
MTEXT
  5
23116
330
230C9
100
AcDbEntity
  8
寸法
 62
     7
 48
50.0
100
AcDbMText
 10
9109.771862468566
 20
1860.418743338942
 30
0.0
 40
120.0
 41
0.0
 71
     5
 72
     1
  1
\A1;20～25
  7
STYLE1
 11
0.0000000000000001
 21
1.0
 31
0.0
 73
     1
 44
1.0
1001
ACAD
1000
MTEXTBEGIN
1070
    73
1070
     1
1070
    44
1040
1.0
1070
    74
1070
     0
1000
MTEXTEND
  0
LINE
  5
23117
330
230C9
100
AcDbEntity
  8
寸法
 62
     0
 48
50.0
370
    -2
100
AcDbLine
 10
8933.729007373161
 20
2164.311604364638
 30
0.0
 11
8933.729007373161
 21
2111.551604364636
 31
0.0
  0
LINE
  5
23118
330
230C9
100
AcDbEntity
  8
寸法
 62
     0
 48
50.0
370
    -2
100
AcDbLine
 10
8933.729007373161
 20
2164.311604364638
 30
0.0
 11
8933.729007373161
 21
2111.551604364636
 31
0.0
  0
INSERT
  5
23119
330
230C9
100
AcDbEntity
  8
寸法
 62
     0
 48
50.0
370
    -2
100
AcDbBlockReference
  2
_DOTSMALL
 10
8933.729007373161
 20
2164.311604364638
 30
0.0
 41
100.0
 42
100.0
 43
100.0
 50
270.0
  0
INSERT
  5
2311A
330
230C9
100
AcDbEntity
  8
寸法
 62
     0
 48
50.0
370
    -2
100
AcDbBlockReference
  2
_DOTSMALL
 10
8933.729007373161
 20
2111.551604364636
 30
0.0
 41
100.0
 42
100.0
 43
100.0
 50
90.0
  0
POINT
  5
2311B
330
230C9
100
AcDbEntity
  8
DEFPOINTS
 62
     0
 48
50.0
100
AcDbPoint
 10
8244.660407604319
 20
2164.311604364638
 30
0.0
  0
POINT
  5
2311C
330
230C9
100
AcDbEntity
  8
DEFPOINTS
 62
     0
 48
50.0
100
AcDbPoint
 10
8431.860407604316
 20
2111.551604364636
 30
0.0
  0
POINT
  5
2311D
330
230C9
100
AcDbEntity
  8
DEFPOINTS
 62
     0
 48
50.0
100
AcDbPoint
 10
8933.729007373161
 20
2111.551604364636
 30
0.0
  0
ENDBLK
  5
230D9
330
230C9
100
AcDbEntity
  8
0
 48
50.0
100
AcDbBlockEnd
  0
BLOCK
  5
230E4
330
230DA
100
AcDbEntity
  8
0
 48
50.0
100
AcDbBlockBegin
  2
*D51
 70
     1
 10
0.0
 20
0.0
 30
0.0
  3
*D51
  1

  0
LINE
  5
2311E
330
230DA
100
AcDbEntity
  8
寸法
 62
     0
 48
50.0
370
    -2
100
AcDbLine
 10
6169.821094427123
 20
1567.551604364636
 30
0.0
 11
5987.400780694663
 21
1567.551604364636
 31
0.0
  0
LINE
  5
2311F
330
230DA
100
AcDbEntity
  8
寸法
 62
     0
 48
50.0
370
    -2
100
AcDbLine
 10
6089.821094427127
 20
1327.551604364636
 30
0.0
 11
5987.400780694663
 21
1327.551604364636
 31
0.0
  0
LINE
  5
23120
330
230DA
100
AcDbEntity
  8
寸法
 62
     0
 48
50.0
370
    -2
100
AcDbLine
 10
6047.400780694664
 20
1567.551604364636
 30
0.0
 11
6047.400780694664
 21
1327.551604364636
 31
0.0
  0
MTEXT
  5
23121
330
230DA
100
AcDbEntity
  8
寸法
 62
     7
 48
50.0
100
AcDbMText
 10
5947.400780694664
 20
1447.551604364637
 30
0.0
 40
120.0
 41
0.0
 71
     5
 72
     1
  1
\A1;150
  7
STYLE1
 11
0.0000000000000001
 21
1.0
 31
0.0
 73
     1
 44
1.0
1001
ACAD
1000
MTEXTBEGIN
1070
    73
1070
     1
1070
    44
1040
1.0
1070
    74
1070
     0
1000
MTEXTEND
  0
INSERT
  5
23122
330
230DA
100
AcDbEntity
  8
寸法
 62
     0
 48
50.0
370
    -2
100
AcDbBlockReference
  2
_DOTSMALL
 10
6047.400780694664
 20
1567.551604364636
 30
0.0
 41
100.0
 42
100.0
 43
100.0
 50
90.0
  0
INSERT
  5
23123
330
230DA
100
AcDbEntity
  8
寸法
 62
     0
 48
50.0
370
    -2
100
AcDbBlockReference
  2
_DOTSMALL
 10
6047.400780694664
 20
1327.551604364636
 30
0.0
 41
100.0
 42
100.0
 43
100.0
 50
270.0
  0
POINT
  5
23124
330
230DA
100
AcDbEntity
  8
DEFPOINTS
 62
     0
 48
50.0
100
AcDbPoint
 10
6189.821094427124
 20
1567.551604364636
 30
0.0
  0
POINT
  5
23125
330
230DA
100
AcDbEntity
  8
DEFPOINTS
 62
     0
 48
50.0
100
AcDbPoint
 10
6109.821094427127
 20
1327.551604364636
 30
0.0
  0
POINT
  5
23126
330
230DA
100
AcDbEntity
  8
DEFPOINTS
 62
     0
 48
50.0
100
AcDbPoint
 10
6047.400780694664
 20
1327.551604364636
 30
0.0
  0
ENDBLK
  5
230E5
330
230DA
100
AcDbEntity
  8
0
 48
50.0
100
AcDbBlockEnd
  0
BLOCK
  5
230F0
330
230E6
100
AcDbEntity
  8
0
 48
50.0
100
AcDbBlockBegin
  2
*D52
 70
     1
 10
0.0
 20
0.0
 30
0.0
  3
*D52
  1

  0
LINE
  5
23127
330
230E6
100
AcDbEntity
  8
寸法
 62
     0
 48
50.0
370
    -2
100
AcDbLine
 10
6297.821094427123
 20
2111.551604364636
 30
0.0
 11
5522.783855865383
 21
2111.551604364636
 31
0.0
  0
LINE
  5
23128
330
230E6
100
AcDbEntity
  8
寸法
 62
     0
 48
50.0
370
    -2
100
AcDbLine
 10
6089.821094427127
 20
1327.551604364636
 30
0.0
 11
5522.783855865382
 21
1327.551604364637
 31
0.0
  0
LINE
  5
23129
330
230E6
100
AcDbEntity
  8
寸法
 62
     0
 48
50.0
370
    -2
100
AcDbLine
 10
5582.783855865383
 20
2111.551604364636
 30
0.0
 11
5582.783855865383
 21
1327.551604364637
 31
0.0
  0
MTEXT
  5
2312A
330
230E6
100
AcDbEntity
  8
寸法
 62
     7
 48
50.0
100
AcDbMText
 10
5482.783855865383
 20
1699.091754020637
 30
0.0
 40
120.0
 41
0.0
 71
     5
 72
     1
  1
\A1;540
  7
STYLE1
 11
0.0000000000000001
 21
1.0
 31
0.0
 73
     1
 44
1.0
1001
ACAD
1000
MTEXTBEGIN
1070
    73
1070
     1
1070
    44
1040
1.0
1070
    74
1070
     0
1000
MTEXTEND
  0
INSERT
  5
2312B
330
230E6
100
AcDbEntity
  8
寸法
 62
     0
 48
50.0
370
    -2
100
AcDbBlockReference
  2
_DOTSMALL
 10
5582.783855865383
 20
2111.551604364636
 30
0.0
 41
100.0
 42
100.0
 43
100.0
 50
90.0
  0
INSERT
  5
2312C
330
230E6
100
AcDbEntity
  8
寸法
 62
     0
 48
50.0
370
    -2
100
AcDbBlockReference
  2
_DOTSMALL
 10
5582.783855865383
 20
1327.551604364637
 30
0.0
 41
100.0
 42
100.0
 43
100.0
 50
270.0
  0
POINT
  5
2312D
330
230E6
100
AcDbEntity
  8
DEFPOINTS
 62
     0
 48
50.0
100
AcDbPoint
 10
6317.821094427124
 20
2111.551604364636
 30
0.0
  0
POINT
  5
2312E
330
230E6
100
AcDbEntity
  8
DEFPOINTS
 62
     0
 48
50.0
100
AcDbPoint
 10
6109.821094427127
 20
1327.551604364636
 30
0.0
  0
POINT
  5
2312F
330
230E6
100
AcDbEntity
  8
DEFPOINTS
 62
     0
 48
50.0
100
AcDbPoint
 10
5582.783855865383
 20
1327.551604364637
 30
0.0
  0
ENDBLK
  5
230F1
330
230E6
100
AcDbEntity
  8
0
 48
50.0
100
AcDbBlockEnd
  0
BLOCK
  5
230FC
330
230F2
100
AcDbEntity
  8
0
 48
50.0
100
AcDbBlockBegin
  2
*D53
 70
     1
 10
0.0
 20
0.0
 30
0.0
  3
*D53
  1

  0
LINE
  5
23130
330
230F2
100
AcDbEntity
  8
寸法
 62
     0
 48
50.0
370
    -2
100
AcDbLine
 10
6189.821094427124
 20
1179.551604364637
 30
0.0
 11
6189.821094427124
 21
729.1219663594765
 31
0.0
  0
LINE
  5
23131
330
230F2
100
AcDbEntity
  8
寸法
 62
     0
 48
50.0
370
    -2
100
AcDbLine
 10
6637.821094427123
 20
1179.551604364637
 30
0.0
 11
6637.821094427123
 21
729.1219663594765
 31
0.0
  0
LINE
  5
23132
330
230F2
100
AcDbEntity
  8
寸法
 62
     0
 48
50.0
370
    -2
100
AcDbLine
 10
6189.821094427124
 20
789.1219663594766
 30
0.0
 11
6637.821094427123
 21
789.1219663594766
 31
0.0
  0
MTEXT
  5
23133
330
230F2
100
AcDbEntity
  8
寸法
 62
     7
 48
50.0
100
AcDbMText
 10
6393.724335748899
 20
889.1219663594766
 30
0.0
 40
120.0
 41
0.0
 71
     5
 72
     1
  1
\A1;300
  7
STYLE1
 73
     1
 44
1.0
1001
ACAD
1000
MTEXTBEGIN
1070
    73
1070
     1
1070
    44
1040
1.0
1070
    74
1070
     0
1000
MTEXTEND
  0
INSERT
  5
23134
330
230F2
100
AcDbEntity
  8
寸法
 62
     0
 48
50.0
370
    -2
100
AcDbBlockReference
  2
_DOTSMALL
 10
6189.821094427124
 20
789.1219663594766
 30
0.0
 41
100.0
 42
100.0
 43
100.0
 50
180.0
  0
INSERT
  5
23135
330
230F2
100
AcDbEntity
  8
寸法
 62
     0
 48
50.0
370
    -2
100
AcDbBlockReference
  2
_DOTSMALL
 10
6637.821094427123
 20
789.1219663594766
 30
0.0
 41
100.0
 42
100.0
 43
100.0
  0
POINT
  5
23136
330
230F2
100
AcDbEntity
  8
DEFPOINTS
 62
     0
 48
50.0
100
AcDbPoint
 10
6189.821094427124
 20
1199.551604364637
 30
0.0
  0
POINT
  5
23137
330
230F2
100
AcDbEntity
  8
DEFPOINTS
 62
     0
 48
50.0
100
AcDbPoint
 10
6637.821094427123
 20
1199.551604364637
 30
0.0
  0
POINT
  5
23138
330
230F2
100
AcDbEntity
  8
DEFPOINTS
 62
     0
 48
50.0
100
AcDbPoint
 10
6637.821094427123
 20
789.1219663594766
 30
0.0
  0
ENDBLK
  5
230FD
330
230F2
100
AcDbEntity
  8
0
 48
50.0
100
AcDbBlockEnd
  0
ENDSEC
  0
SECTION
  2
ENTITIES
  0
MTEXT
  5
763F
330
747D
100
AcDbEntity
  8
0
100
AcDbMText
 10
302.846345836809
 20
280.1983726409901
 30
0.0
 40
3.5
 41
5.323721266742722
 71
     1
 72
     5
  1

  7
MSMINCHO
 73
     1
 44
1.0
1001
ACAD
1000
MTEXTBEGIN
1070
    73
1070
     1
1070
    44
1040
1.0
1070
    74
1070
     0
1000
MTEXTEND
  0
LINE
  5
10B57
330
747D
100
AcDbEntity
  8
補助
  6
PHANTOM
 62
   230
 48
50.0
100
AcDbLine
 10
139.9999999999995
 20
11409.6
 30
0.0
 11
16307.2
 21
11409.6
 31
0.0
  0
LINE
  5
10B59
330
747D
100
AcDbEntity
  8
仕様書枠
  6
Continuous
 48
50.0
100
AcDbLine
 10
13107.2
 20
1200.0
 30
0.0
 11
13107.2
 21
-0.0000000000000729
 31
0.0
  0
LINE
  5
10B5D
330
747D
100
AcDbEntity
  8
仕様書枠
 48
50.0
100
AcDbLine
 10
140.0
 20
0.0
 30
0.0
 11
16307.2
 21
-0.0000000000000909
 31
0.0
  0
LINE
  5
10B5E
330
747D
100
AcDbEntity
  8
補助
  6
PHANTOM
 62
   230
 48
50.0
100
AcDbLine
 10
16307.2
 20
11409.6
 30
0.0
 11
16307.2
 21
1200.0
 31
0.0
  0
LINE
  5
10B6C
330
747D
100
AcDbEntity
  8
仕様書枠
 48
50.0
100
AcDbLine
 10
13107.2
 20
1200.0
 30
0.0
 11
16307.2
 21
1200.0
 31
0.0
  0
TEXT
  5
10B73
330
747D
100
AcDbEntity
  8
文字
 62
     7
 48
50.0
100
AcDbText
 10
13162.9790565769
 20
895.0906074299405
 30
0.0
 40
200.0
  1
基 礎 図
  7
STYLE2
100
AcDbText
  0
LINE
  5
10B7B
330
747D
100
AcDbEntity
  8
仕様書枠
 48
50.0
100
AcDbLine
 10
13107.2
 20
800.0
 30
0.0
 11
14251.2
 21
800.0
 31
0.0
  0
LINE
  5
10B88
330
747D
100
AcDbEntity
  8
仕様書枠
  6
Continuous
 48
50.0
100
AcDbLine
 10
14251.2
 20
1200.0
 30
0.0
 11
14251.2
 21
800.0
 31
0.0
  0
LINE
  5
16462
330
747D
100
AcDbEntity
  8
仕様書枠
 48
50.0
100
AcDbLine
 10
16307.2
 20
1200.0
 30
0.0
 11
16307.2
 21
-0.0000000000000909
 31
0.0
  0
LINE
  5
1903B
330
747D
100
AcDbEntity
  8
補助
  6
PHANTOM
 62
   230
 48
50.0
100
AcDbLine
 10
140.0
 20
0.0
 30
0.0
 11
139.9999999999995
 21
11409.6
 31
0.0
  0
TEXT
  5
1C7A1
330
747D
100
AcDbEntity
  8
文字
 62
     7
 48
50.0
100
AcDbText
 10
13188.16259899338
 20
79.80631269190417
 30
0.0
 40
80.0
  1
※布基礎には換気口を設けてください。
  7
STYLE2
100
AcDbText
  0
TEXT
  5
1C7E7
330
747D
100
AcDbEntity
  8
文字
 62
     7
 48
50.0
100
AcDbText
 10
13188.16259899338
 20
246.7109242801889
 30
0.0
 40
80.0
  1
※寒冷地等は地域の実情に合わせた基礎にして下さい。
  7
STYLE2
100
AcDbText
  0
TEXT
  5
1C7E8
330
747D
100
AcDbEntity
  8
文字
 62
     7
 48
50.0
100
AcDbText
 10
14298.15898004396
 20
499.5983841039506
 30
0.0
 40
160.0
  1
ＮＸＮ－３２ＳＡ/ＨＡ
  7
STYLE2
100
AcDbText
  0
TEXT
  5
1C7E9
330
747D
100
AcDbEntity
  8
文字
 62
     7
 48
50.0
100
AcDbText
 10
14641.2525855784
 20
871.1744590657927
 30
0.0
 40
100.0
  1
～一般型・多雪地型～
  7
STYLE2
100
AcDbText
  0
TEXT
  5
1C7EC
330
747D
100
AcDbEntity
  8
文字
 62
     7
 48
50.0
100
AcDbText
 10
14524.131837222
 20
1031.557706291229
 30
0.0
 40
100.0
  1
 　    <縮尺> S=1/40
  7
STYLE2
100
AcDbText
  0
TEXT
  5
1C7ED
330
747D
100
AcDbEntity
  8
文字
 62
     7
 48
50.0
100
AcDbText
 10
13201.43669998441
 20
477.2740661031257
 30
0.0
 40
160.0
  1
機種名
  7
STYLE2
100
AcDbText
  0
LINE
  5
1C7EF
330
747D
100
AcDbEntity
  8
文字
 62
     7
 48
50.0
100
AcDbLine
 10
13187.2
 20
400.0
 30
0.0
 11
16227.2
 21
400.0
 31
0.0
  0
LINE
  5
2118A
102
{ACAD_REACTORS
330
22C3E
102
}
330
747D
100
AcDbEntity
  8
部品1
 48
50.0
100
AcDbLine
 10
8123.600000000001
 20
7636.907777930208
 30
0.0
 11
8123.600000000001
 21
7756.907777930208
 31
0.0
  0
LINE
  5
2118B
102
{ACAD_REACTORS
330
22C3E
102
}
330
747D
100
AcDbEntity
  8
部品1
 48
50.0
100
AcDbLine
 10
8323.6
 20
7636.907777930208
 30
0.0
 11
8323.6
 21
7756.907777930208
 31
0.0
  0
LINE
  5
2118E
330
747D
100
AcDbEntity
  8
センター
 48
2.0
100
AcDbLine
 10
9000.6
 20
7683.907777930208
 30
0.0
 11
9000.6
 21
7583.907777930209
 31
0.0
  0
LINE
  5
2118F
102
{ACAD_REACTORS
330
22C28
102
}
330
747D
100
AcDbEntity
  8
部品1
 48
50.0
100
AcDbLine
 10
9123.600000000001
 20
5956.907777930226
 30
0.0
 11
9123.600000000001
 21
7756.907777930208
 31
0.0
  0
LINE
  5
21190
330
747D
100
AcDbEntity
  8
想像線
 48
10.0
100
AcDbLine
 10
9173.600000000002
 20
7811.907777930213
 30
0.0
 11
9173.600000000005
 21
5881.907777930204
 31
0.0
  0
DIMENSION
  5
21191
330
747D
100
AcDbEntity
  8
寸法
 48
50.0
100
AcDbDimension
  2
*D19
 10
6741.756143596319
 20
7756.907777930208
 30
0.0
 11
6741.756143596318
 21
7306.907777930208
 31
0.0
 70
   160
 71
     5
 42
900.0
  3
INABA_S40G
100
AcDbAlignedDimension
 13
8123.600000000001
 23
6856.907777930207
 33
0.0
 14
7323.6
 24
7756.907777930208
 34
0.0
 50
90.0
100
AcDbRotatedDimension
1001
ACAD
1000
DSTYLE
1002
{
1070
   174
1070
     0
1070
   272
1070
     1
1070
   341
1005
0
1002
}
  0
DIMENSION
  5
21192
330
747D
100
AcDbEntity
  8
寸法
 48
50.0
100
AcDbDimension
  2
*D20
 10
8223.600000000001
 20
8283.817543578534
 30
0.0
 11
8694.51852200628
 21
8283.817543578534
 31
0.0
 70
   160
 71
     5
 42
900.0
  3
INABA_S40G
100
AcDbAlignedDimension
 13
9123.600000000001
 23
7756.907777930208
 33
0.0
 14
8223.600000000001
 24
7056.907777930208
 34
0.0
100
AcDbRotatedDimension
1001
ACAD
1000
DSTYLE
1002
{
1070
   174
1070
     0
1070
   272
1070
     1
1070
   341
1005
0
1002
}
  0
LINE
  5
21193
330
747D
100
AcDbEntity
  8
センター
 48
2.0
100
AcDbLine
 10
7446.6
 20
7683.907777930208
 30
0.0
 11
7446.6
 21
7583.907777930209
 31
0.0
  0
DIMENSION
  5
21194
330
747D
100
AcDbEntity
  8
寸法
 48
50.0
100
AcDbDimension
  2
*D21
 10
6484.227453286071
 20
7633.907777930208
 30
0.0
 11
6484.22745328607
 21
8070.014379648005
 31
0.0
 70
   160
 71
     5
 42
123.0
  3
INABA_S40G
100
AcDbAlignedDimension
 13
7323.6
 23
7756.907777930208
 33
0.0
 14
7396.600000000001
 24
7633.907777930208
 34
0.0
 50
90.0
100
AcDbRotatedDimension
1001
ACAD
1000
DSTYLE
1002
{
1070
   174
1070
     0
1070
   272
1070
     1
1070
   341
1005
0
1002
}
  0
DIMENSION
  5
21195
330
747D
100
AcDbEntity
  8
寸法
 48
50.0
100
AcDbDimension
  2
*D22
 10
6232.284356566673
 20
7756.907777930208
 30
0.0
 11
6232.284356566672
 21
6856.907777930207
 31
0.0
 70
   160
 71
     5
 42
1800.0
  3
INABA_S40G
100
AcDbAlignedDimension
 13
7323.6
 23
5956.907777930208
 33
0.0
 14
7323.6
 24
7756.907777930208
 34
0.0
 50
90.0
100
AcDbRotatedDimension
1001
ACAD
1000
DSTYLE
1002
{
1070
   174
1070
     0
1070
   272
1070
     1
1070
   341
1005
0
1002
}
  0
LINE
  5
21196
102
{ACAD_REACTORS
330
22C54
102
}
330
747D
100
AcDbEntity
  8
部品1
 48
50.0
100
AcDbLine
 10
7323.6
 20
5956.907777930208
 30
0.0
 11
7323.6
 21
7756.907777930208
 31
0.0
  0
DIMENSION
  5
21198
330
747D
100
AcDbEntity
  8
寸法
 48
50.0
100
AcDbDimension
  2
*D23
 10
7323.6
 20
8283.817543578534
 30
0.0
 11
7773.6
 21
8383.817543578535
 31
0.0
 70
    32
 71
     5
 42
900.0
  3
INABA_S40G
100
AcDbAlignedDimension
 13
8223.600000000001
 23
7056.907777930208
 33
0.0
 14
7323.6
 24
7756.907777930208
 34
0.0
100
AcDbRotatedDimension
1001
ACAD
1000
DSTYLE
1002
{
1070
   174
1070
     0
1070
   272
1070
     1
1070
   341
1005
0
1002
}
  0
LINE
  5
2119A
102
{ACAD_REACTORS
330
22C63
102
}
330
747D
100
AcDbEntity
  8
部品1
 48
50.0
100
AcDbLine
 10
9123.600000000001
 20
5881.907777930228
 30
0.0
 11
7323.6
 21
5881.907777930208
 31
0.0
  0
DIMENSION
  5
211A1
330
747D
100
AcDbEntity
  8
寸法
 48
50.0
100
AcDbDimension
  2
*D24
 10
6979.872307120223
 20
5956.907777930208
 30
0.0
 11
6979.872307120221
 21
5348.42249655597
 31
0.0
 70
   160
  1
扉の出<>
 71
     5
 42
74.99999999998363
  3
INABA_S40G
100
AcDbAlignedDimension
 13
7323.6
 23
5881.907777930224
 33
0.0
 14
7323.6
 24
5956.907777930208
 34
0.0
 50
90.0
100
AcDbRotatedDimension
1001
ACAD
1000
DSTYLE
1002
{
1070
   174
1070
     0
1070
   272
1070
     1
1070
   341
1005
0
1002
}
  0
DIMENSION
  5
211A3
330
747D
100
AcDbEntity
  8
寸法
 48
50.0
100
AcDbDimension
  2
*D25
 10
6484.227453286071
 20
6079.907777930209
 30
0.0
 11
6484.22745328607
 21
6856.907777930207
 31
0.0
 70
   160
 71
     5
 42
1553.999999999998
  3
INABA_S40G
100
AcDbAlignedDimension
 13
7396.600000000001
 23
7633.907777930208
 33
0.0
 14
7396.600000000008
 24
6079.907777930209
 34
0.0
 50
90.0
100
AcDbRotatedDimension
1001
ACAD
1000
DSTYLE
1002
{
1070
   174
1070
     0
1070
   272
1070
     1
1070
   341
1005
0
1002
}
  0
DIMENSION
  5
211A5
330
747D
100
AcDbEntity
  8
寸法
 48
50.0
100
AcDbDimension
  2
*D26
 10
6232.284356566676
 20
5956.907777930208
 30
0.0
 11
6232.284356566675
 21
5919.40777793021
 31
0.0
 70
   160
  1
c
 71
     5
 42
75.0
  3
INABA_S40G
100
AcDbAlignedDimension
 13
6484.227453286071
 23
5881.907777930208
 33
0.0
 14
7323.6
 24
5956.907777930208
 34
0.0
 50
90.0
100
AcDbRotatedDimension
1001
ACAD
1000
DSTYLE
1002
{
1070
   174
1070
     0
1070
   272
1070
     1
1070
   341
1005
0
1002
}
  0
DIMENSION
  5
211A6
330
747D
100
AcDbEntity
  8
寸法
 48
50.0
100
AcDbDimension
  2
*D27
 10
6484.227453286071
 20
5956.907777930208
 30
0.0
 11
6484.22745328607
 21
5683.801176212409
 31
0.0
 70
   160
 71
     5
 42
123.0000000000018
  3
INABA_S40G
100
AcDbAlignedDimension
 13
7396.600000000008
 23
6079.907777930209
 33
0.0
 14
7323.6
 24
5956.907777930208
 34
0.0
 50
90.0
100
AcDbRotatedDimension
1001
ACAD
1000
DSTYLE
1002
{
1070
   174
1070
     0
1070
   272
1070
     1
1070
   341
1005
0
1002
}
  0
LINE
  5
211A7
330
747D
100
AcDbEntity
  8
部品1
 48
50.0
100
AcDbLine
 10
7323.6
 20
5881.907777930224
 30
0.0
 11
7323.6
 21
5956.907777930208
 31
0.0
  0
LINE
  5
211AA
330
747D
100
AcDbEntity
  8
センター
 48
2.0
100
AcDbLine
 10
7446.600000000008
 20
6129.90777793021
 30
0.0
 11
7446.600000000008
 21
6029.907777930209
 31
0.0
  0
LINE
  5
211AB
330
747D
100
AcDbEntity
  8
部品1
 48
50.0
100
AcDbLine
 10
7553.6
 20
6076.907777930211
 30
0.0
 11
7553.6
 21
6186.907777930212
 31
0.0
  0
LINE
  5
211AC
330
747D
100
AcDbEntity
  8
センター
 48
2.0
100
AcDbLine
 10
7396.600000000008
 20
6079.907777930209
 30
0.0
 11
7496.600000000007
 21
6079.907777930209
 31
0.0
  0
CIRCLE
  5
211AD
330
747D
100
AcDbEntity
  8
部品1
 48
50.0
100
AcDbCircle
 10
7446.600000000008
 20
6079.907777930209
 30
0.0
 40
35.0
  0
LINE
  5
211AE
330
747D
100
AcDbEntity
  8
部品1
 48
50.0
100
AcDbLine
 10
7553.6
 20
6186.907777930212
 30
0.0
 11
7443.600000000002
 21
6186.907777930211
 31
0.0
  0
LINE
  5
211AF
102
{ACAD_REACTORS
330
22C54
102
}
330
747D
100
AcDbEntity
  8
部品1
 48
50.0
100
AcDbLine
 10
7443.6
 20
6956.907777930216
 30
0.0
 11
7323.6
 21
6956.907777930218
 31
0.0
  0
LINE
  5
211B0
102
{ACAD_REACTORS
330
22C54
102
}
330
747D
100
AcDbEntity
  8
部品1
 48
50.0
100
AcDbLine
 10
7443.6
 20
6756.907777930216
 30
0.0
 11
7323.6
 21
6756.907777930218
 31
0.0
  0
LINE
  5
211B2
330
747D
100
AcDbEntity
  8
センター
 48
2.0
100
AcDbLine
 10
7396.600000000001
 20
7633.907777930208
 30
0.0
 11
7496.6
 21
7633.907777930208
 31
0.0
  0
CIRCLE
  5
211B3
330
747D
100
AcDbEntity
  8
部品1
 48
50.0
100
AcDbCircle
 10
7446.6
 20
7633.907777930208
 30
0.0
 40
35.0
  0
LINE
  5
211B4
330
747D
100
AcDbEntity
  8
部品1
 48
50.0
100
AcDbLine
 10
7553.599999999999
 20
7526.907777930204
 30
0.0
 11
7443.6
 21
7526.907777930206
 31
0.0
  0
LINE
  5
211B5
330
747D
100
AcDbEntity
  8
部品1
 48
50.0
100
AcDbLine
 10
7553.599999999999
 20
7526.907777930204
 30
0.0
 11
7553.599999999999
 21
7636.907777930208
 31
0.0
  0
DIMENSION
  5
211B7
330
747D
100
AcDbEntity
  8
寸法
 48
50.0
100
AcDbDimension
  2
*D28
 10
9003.6
 20
7299.199110429833
 30
0.0
 11
9393.659055118112
 21
7299.199110429833
 31
0.0
 70
   160
 71
     5
 42
120.0
  3
INABA_S40G
100
AcDbAlignedDimension
 13
9123.600000000001
 23
7316.192374468664
 33
0.0
 14
9003.6
 24
7316.192374468666
 34
0.0
100
AcDbRotatedDimension
1001
ACAD
1000
DSTYLE
1002
{
1070
   174
1070
     0
1070
   272
1070
     1
1070
   341
1005
0
1002
}
  0
DIMENSION
  5
211B8
330
747D
100
AcDbEntity
  8
寸法
 48
50.0
100
AcDbDimension
  2
*D29
 10
6741.756143596319
 20
6856.907777930207
 30
0.0
 11
6741.756143596318
 21
6406.907777930212
 31
0.0
 70
   160
 71
     5
 42
900.0
  3
INABA_S40G
100
AcDbAlignedDimension
 13
7323.6
 23
5956.907777930208
 33
0.0
 14
8123.600000000001
 24
6856.907777930207
 34
0.0
 50
90.0
100
AcDbRotatedDimension
1001
ACAD
1000
DSTYLE
1002
{
1070
   174
1070
     0
1070
   272
1070
     1
1070
   341
1005
0
1002
}
  0
LINE
  5
211BB
102
{ACAD_REACTORS
330
22C63
102
}
330
747D
100
AcDbEntity
  8
部品1
 48
50.0
100
AcDbLine
 10
8323.600000000018
 20
5881.907777930219
 30
0.0
 11
8323.600000000018
 21
6076.907777930219
 31
0.0
  0
LINE
  5
211BC
102
{ACAD_REACTORS
330
22C63
102
}
330
747D
100
AcDbEntity
  8
部品1
 48
50.0
100
AcDbLine
 10
8123.600000000017
 20
5881.907777930217
 30
0.0
 11
8123.600000000019
 21
6076.907777930218
 31
0.0
  0
LINE
  5
211C0
330
747D
100
AcDbEntity
  8
部品1
 48
50.0
100
AcDbLine
 10
9123.600000000001
 20
5881.90777793023
 30
0.0
 11
9123.600000000001
 21
5956.907777930226
 31
0.0
  0
LINE
  5
211C1
330
747D
100
AcDbEntity
  8
センター
 48
2.0
100
AcDbLine
 10
8950.600000000006
 20
6079.907777930209
 30
0.0
 11
9050.600000000008
 21
6079.907777930209
 31
0.0
  0
CIRCLE
  5
211C2
330
747D
100
AcDbEntity
  8
部品1
 48
50.0
100
AcDbCircle
 10
9000.600000000007
 20
6079.907777930209
 30
0.0
 40
35.0
  0
LINE
  5
211C3
330
747D
100
AcDbEntity
  8
部品1
 48
50.0
100
AcDbLine
 10
9003.6
 20
6186.907777930224
 30
0.0
 11
8893.600000000001
 21
6186.907777930226
 31
0.0
  0
LINE
  5
211C4
330
747D
100
AcDbEntity
  8
部品1
 48
50.0
100
AcDbLine
 10
8893.600000000001
 20
6076.907777930223
 30
0.0
 11
8893.600000000001
 21
6186.907777930226
 31
0.0
  0
LINE
  5
211C5
330
747D
100
AcDbEntity
  8
センター
 48
2.0
100
AcDbLine
 10
9000.600000000007
 20
6129.90777793021
 30
0.0
 11
9000.600000000007
 21
6029.907777930209
 31
0.0
  0
DIMENSION
  5
211C6
330
747D
100
AcDbEntity
  8
寸法
 48
50.0
100
AcDbDimension
  2
*D30
 10
8893.600000000001
 20
7299.199110429833
 30
0.0
 11
8623.54094488189
 21
7299.199110429833
 31
0.0
 70
   160
 71
     5
 42
110.0
  3
INABA_S40G
100
AcDbAlignedDimension
 13
9003.6
 23
7316.192374468666
 33
0.0
 14
8893.600000000001
 24
7526.907777930206
 34
0.0
100
AcDbRotatedDimension
1001
ACAD
1000
DSTYLE
1002
{
1070
   174
1070
     0
1070
   272
1070
     1
1070
   341
1005
0
1002
}
  0
LINE
  5
211C7
330
747D
100
AcDbEntity
  8
部品1
 48
50.0
100
AcDbLine
 10
8323.6
 20
7056.907777930208
 30
0.0
 11
8123.600000000001
 21
7056.907777930208
 31
0.0
  0
LINE
  5
211C8
330
747D
100
AcDbEntity
  8
部品1
 48
50.0
100
AcDbLine
 10
8323.6
 20
6656.907777930206
 30
0.0
 11
8123.600000000001
 21
6656.907777930206
 31
0.0
  0
LINE
  5
211C9
330
747D
100
AcDbEntity
  8
センター
 48
2.0
100
AcDbLine
 10
8173.6
 20
6856.907777930207
 30
0.0
 11
8273.6
 21
6856.907777930207
 31
0.0
  0
LINE
  5
211CA
330
747D
100
AcDbEntity
  8
部品1
 48
50.0
100
AcDbLine
 10
8123.600000000001
 20
6656.907777930207
 30
0.0
 11
8123.600000000001
 21
7056.907777930208
 31
0.0
  0
LINE
  5
211CB
330
747D
100
AcDbEntity
  8
部品1
 48
50.0
100
AcDbLine
 10
8323.6
 20
6656.907777930206
 30
0.0
 11
8323.6
 21
7056.907777930208
 31
0.0
  0
LINE
  5
211CC
330
747D
100
AcDbEntity
  8
センター
 48
2.0
100
AcDbLine
 10
8223.600000000001
 20
6906.907777930207
 30
0.0
 11
8223.600000000001
 21
6806.907777930208
 31
0.0
  0
LINE
  5
211CE
102
{ACAD_REACTORS
330
22C28
102
}
330
747D
100
AcDbEntity
  8
部品1
 48
50.0
100
AcDbLine
 10
9123.600000000001
 20
6756.907777930218
 30
0.0
 11
9003.600000000004
 21
6756.907777930218
 31
0.0
  0
LINE
  5
211CF
102
{ACAD_REACTORS
330
22C28
102
}
330
747D
100
AcDbEntity
  8
部品1
 48
50.0
100
AcDbLine
 10
9123.600000000001
 20
6956.907777930218
 30
0.0
 11
9003.600000000004
 21
6956.907777930218
 31
0.0
  0
LINE
  5
211D0
330
747D
100
AcDbEntity
  8
センター
 48
2.0
100
AcDbLine
 10
8950.599999999999
 20
7633.907777930208
 30
0.0
 11
9050.600000000001
 21
7633.907777930208
 31
0.0
  0
CIRCLE
  5
211D1
330
747D
100
AcDbEntity
  8
部品1
 48
50.0
100
AcDbCircle
 10
9000.6
 20
7633.907777930208
 30
0.0
 40
35.0
  0
LINE
  5
211D2
330
747D
100
AcDbEntity
  8
部品1
 48
50.0
100
AcDbLine
 10
9003.6
 20
7526.907777930209
 30
0.0
 11
8893.600000000001
 21
7526.907777930206
 31
0.0
  0
LINE
  5
211D3
330
747D
100
AcDbEntity
  8
部品1
 48
50.0
100
AcDbLine
 10
8893.600000000001
 20
7526.907777930206
 30
0.0
 11
8893.600000000001
 21
7636.907777930204
 31
0.0
  0
DIMENSION
  5
211D4
330
747D
100
AcDbEntity
  8
寸法
 48
50.0
100
AcDbDimension
  2
*D31
 10
7446.6
 20
8502.667404472289
 30
0.0
 11
8223.600000000001
 21
8602.66740447229
 31
0.0
 70
    32
 71
     5
 42
1554.0
  3
INABA_S40G
100
AcDbAlignedDimension
 13
9000.6
 23
7683.907777930208
 33
0.0
 14
7446.6
 24
7683.907777930208
 34
0.0
100
AcDbRotatedDimension
1001
ACAD
1000
DSTYLE
1002
{
1070
   174
1070
     0
1070
   272
1070
     1
1070
   341
1005
0
1002
}
  0
DIMENSION
  5
211D5
330
747D
100
AcDbEntity
  8
寸法
 48
50.0
100
AcDbDimension
  2
*D32
 10
9123.600000000001
 20
8715.128099989128
 30
0.0
 11
8223.600000000001
 21
8815.128099989129
 31
0.0
 70
    32
 71
     5
 42
1800.0
  3
INABA_S40G
100
AcDbAlignedDimension
 13
7323.6
 23
7756.907777930208
 33
0.0
 14
9123.600000000001
 24
7756.907777930208
 34
0.0
100
AcDbRotatedDimension
1001
ACAD
1000
DSTYLE
1002
{
1070
   174
1070
     0
1070
   272
1070
     1
1070
   341
1005
0
1002
}
  0
LINE
  5
211D6
102
{ACAD_REACTORS
330
22C3E
102
}
330
747D
100
AcDbEntity
  8
部品1
 48
50.0
100
AcDbLine
 10
9123.600000000001
 20
7756.907777930208
 30
0.0
 11
7323.6
 21
7756.907777930208
 31
0.0
  0
DIMENSION
  5
211D8
330
747D
100
AcDbEntity
  8
寸法
 48
50.0
100
AcDbDimension
  2
*D33
 10
7323.6
 20
8715.128099989128
 30
0.0
 11
7007.425378797541
 21
8715.128099989128
 31
0.0
 70
   160
  1
a
 71
     5
 42
50.0
  3
INABA_S40G
100
AcDbAlignedDimension
 13
7273.6
 23
8502.667404472287
 33
0.0
 14
7323.6
 24
7756.907777930208
 34
0.0
100
AcDbRotatedDimension
1001
ACAD
1000
DSTYLE
1002
{
1070
   174
1070
     0
1070
   272
1070
     1
1070
   341
1005
0
1002
}
  0
DIMENSION
  5
211D9
330
747D
100
AcDbEntity
  8
寸法
 48
50.0
100
AcDbDimension
  2
*D34
 10
7323.6
 20
8502.667404472289
 30
0.0
 11
7050.493398282203
 21
8502.667404472289
 31
0.0
 70
   160
 71
     5
 42
123.0
  3
INABA_S40G
100
AcDbAlignedDimension
 13
7446.6
 23
7683.907777930208
 33
0.0
 14
7323.6
 24
7756.907777930208
 34
0.0
100
AcDbRotatedDimension
1001
ACAD
1000
DSTYLE
1002
{
1070
   174
1070
     0
1070
   272
1070
     1
1070
   341
1005
0
1002
}
  0
DIMENSION
  5
211DA
330
747D
100
AcDbEntity
  8
寸法
 48
50.0
100
AcDbDimension
  2
*D35
 10
6232.284356566674
 20
7811.907777930207
 30
0.0
 11
6232.284356566673
 21
7784.407777930209
 31
0.0
 70
   160
  1
b
 71
     5
 42
55.0
  3
INABA_S40G
100
AcDbAlignedDimension
 13
7323.6
 23
7756.907777930208
 33
0.0
 14
6484.227453286071
 24
7811.907777930207
 34
0.0
 50
90.0
100
AcDbRotatedDimension
1001
ACAD
1000
DSTYLE
1002
{
1070
   174
1070
     0
1070
   272
1070
     1
1070
   341
1005
0
1002
}
  0
LINE
  5
211DB
330
747D
100
AcDbEntity
  8
部品1
 48
50.0
100
AcDbLine
 10
7722.928907166849
 20
7756.907777930205
 30
0.0
 11
7323.6
 21
7756.907777930208
 31
0.0
  0
DIMENSION
  5
211DC
330
747D
100
AcDbEntity
  8
寸法
 48
50.0
100
AcDbDimension
  2
*D36
 10
9000.6
 20
8502.667404472289
 30
0.0
 11
9396.706601717799
 21
8502.667404472289
 31
0.0
 70
   160
 71
     5
 42
123.0
  3
INABA_S40G
100
AcDbAlignedDimension
 13
9123.600000000001
 23
7756.907777930208
 33
0.0
 14
9000.6
 24
7683.907777930208
 34
0.0
100
AcDbRotatedDimension
1001
ACAD
1000
DSTYLE
1002
{
1070
   174
1070
     0
1070
   272
1070
     1
1070
   341
1005
0
1002
}
  0
DIMENSION
  5
211DD
330
747D
100
AcDbEntity
  8
寸法
 48
50.0
100
AcDbDimension
  2
*D37
 10
9173.6
 20
8715.128099989128
 30
0.0
 11
9439.77462120246
 21
8715.128099989128
 31
0.0
 70
   160
  1
a
 71
     5
 42
50.0
  3
INABA_S40G
100
AcDbAlignedDimension
 13
9123.600000000001
 23
7756.907777930208
 33
0.0
 14
9173.6
 24
8502.667404472294
 34
0.0
100
AcDbRotatedDimension
1001
ACAD
1000
DSTYLE
1002
{
1070
   174
1070
     0
1070
   272
1070
     1
1070
   341
1005
0
1002
}
  0
LWPOLYLINE
  5
215A4
102
{ACAD_REACTORS
330
21CB1
102
}
330
747D
100
AcDbEntity
  8
寸法
 48
50.0
100
AcDbPolyline
 90
        3
 70
     0
 43
0.0
 10
8148.953660848182
 20
6590.739882153456
 10
8110.290584341472
 20
6443.029791380908
 10
7845.985627411508
 20
6443.029791380908
1001
ACAD
1000
DSTYLE
1002
{
1070
   341
1005
0
1070
   343
1005
0
1070
   344
1005
0
1002
}
  0
MTEXT
  5
215A5
102
{ACAD_REACTORS
330
21CB1
102
}
330
747D
100
AcDbEntity
  8
部品1
 62
     7
 48
50.0
100
AcDbMText
 10
8013.843675391418
 20
6533.819488428619
 30
0.0
 40
120.0
 41
0.0
 71
     6
 72
     1
  1
CB
  7
STYLE1
 73
     1
 44
1.0
1001
ACAD
1000
MTEXTBEGIN
1070
    73
1070
     1
1070
    44
1040
1.0
1070
    74
1070
     0
1000
MTEXTEND
  0
SOLID
  5
215A6
102
{ACAD_REACTORS
330
21CB1
102
}
330
747D
100
AcDbEntity
  8
寸法
 48
50.0
100
AcDbTrace
 10
8128.799307268314
 20
6596.015278778875
 30
0.0
 11
8180.606040600689
 21
6711.666003632659
 31
0.0
 12
8169.108014428047
 22
6585.464485528039
 32
0.0
 13
8169.108014428047
 23
6585.464485528039
 33
0.0
1001
ACAD
1000
DSTYLE
1002
{
1070
   341
1005
0
1070
   343
1005
0
1070
   344
1005
0
1002
}
  0
LEADER
  5
2171A
330
747D
100
AcDbEntity
  8
寸法
 48
50.0
100
AcDbLeader
  3
INABA_S50G
 73
     0
 74
     0
 75
     1
 40
120.0
 41
994.3492424049171
 76
     3
 10
9000.680085757009
 20
7633.921501126415
 30
0.0
 10
9174.645988304973
 20
7922.880272274156
 30
0.0
 10
9299.645988304973
 20
7922.880272274156
 30
0.0
340
2171B
1001
ACAD
1000
DSTYLE
1002
{
1070
   341
1005
0
1070
    40
1040
1.0
1070
   343
1005
0
1070
   344
1005
0
1002
}
  0
MTEXT
  5
2171B
102
{ACAD_REACTORS
330
2171A
102
}
330
747D
100
AcDbEntity
  8
部品1
 62
     7
 48
50.0
100
AcDbMText
 10
10318.99523070989
 20
8007.880272274157
 30
0.0
 40
120.0
 41
0.0
 71
     6
 72
     1
  1
アンカーボルト
  7
STYLE1
 73
     1
 44
1.0
1001
ACAD
1000
MTEXTBEGIN
1070
    73
1070
     1
1070
    44
1040
1.0
1070
    74
1070
     0
1000
MTEXTEND
  0
LEADER
  5
2171C
330
747D
100
AcDbEntity
  8
寸法
 48
50.0
100
AcDbLeader
  3
INABA_S50G
 73
     0
 74
     0
 75
     1
 40
120.0
 41
720.0000000000001
 76
     3
 10
9123.695499614996
 20
6892.665324718881
 30
0.0
 10
9280.469074001279
 20
6631.651411151048
 30
0.0
 10
9405.469074001279
 20
6631.651411151048
 30
0.0
340
2171D
1001
ACAD
1000
DSTYLE
1002
{
1070
   341
1005
0
1070
    40
1040
1.0
1070
   343
1005
0
1070
   344
1005
0
1002
}
  0
MTEXT
  5
2171D
102
{ACAD_REACTORS
330
2171C
102
}
330
747D
100
AcDbEntity
  8
部品1
 62
     7
 48
50.0
100
AcDbMText
 10
10150.46907400128
 20
6716.651411151049
 30
0.0
 40
120.0
 41
0.0
 71
     6
 72
     1
  1
\A1;床下換気口
  7
STYLE1
 73
     1
 44
1.0
1001
ACAD
1000
MTEXTBEGIN
1070
    73
1070
     1
1070
    44
1040
1.0
1070
    74
1070
     0
1000
MTEXTEND
  0
LEADER
  5
2171E
330
747D
100
AcDbEntity
  8
寸法
 48
50.0
100
AcDbLeader
  3
INABA_S50G
 73
     0
 74
     0
 75
     1
 40
120.0
 41
672.0
 76
     3
 10
9173.698313503427
 20
6185.332001126488
 30
0.0
 10
9289.638325695467
 20
5926.442657662912
 30
0.0
 10
9414.638325695467
 20
5926.442657662912
 30
0.0
340
2171F
1001
ACAD
1000
DSTYLE
1002
{
1070
   341
1005
0
1070
    40
1040
1.0
1070
   343
1005
0
1070
   344
1005
0
1002
}
  0
MTEXT
  5
2171F
102
{ACAD_REACTORS
330
2171E
102
}
330
747D
100
AcDbEntity
  8
部品1
 62
     7
 48
50.0
100
AcDbMText
 10
10111.63832569546
 20
6011.442657662912
 30
0.0
 40
120.0
 41
0.0
 71
     6
 72
     1
  1
\A1;屋根の外寸
  7
STYLE1
 73
     1
 44
1.0
1001
ACAD
1000
MTEXTBEGIN
1070
    73
1070
     1
1070
    44
1040
1.0
1070
    74
1070
     0
1000
MTEXTEND
  0
TEXT
  5
21720
330
747D
100
AcDbEntity
  8
部品1
 48
50.0
100
AcDbText
 10
9313.85112970686
 20
5832.131970729837
 30
0.0
 40
80.0
  1
※a,b,cは屋根の出幅です。
  7
STYLE1
100
AcDbText
  0
TEXT
  5
21721
330
747D
100
AcDbEntity
  8
部品1
 48
50.0
100
AcDbText
 10
9472.430138461161
 20
5725.286749861083
 30
0.0
 40
80.0
  1
(a=45,b=55,c=75)
  7
STYLE1
100
AcDbText
  0
DIMENSION
  5
22224
330
747D
100
AcDbEntity
  8
寸法
 48
50.0
100
AcDbDimension
  2
*D40
 10
7323.600000000036
 20
5167.043474506098
 30
0.0
 11
8223.600000000018
 21
5267.043474506097
 31
0.0
 70
    32
  1
扉の幅 <>
 71
     5
 42
1799.999999999964
  3
INABA_S40G
100
AcDbAlignedDimension
 13
9123.600000000001
 23
5881.90777793023
 33
0.0
 14
7323.600000000036
 24
5881.907777930208
 34
0.0
100
AcDbRotatedDimension
1001
ACAD
1000
DSTYLE
1002
{
1070
   341
1005
0
1002
}
  0
TEXT
  5
22225
330
747D
100
AcDbEntity
  8
寸法
 62
     7
100
AcDbText
 10
7406.285760402179
 20
4798.079265415339
 30
0.0
 40
120.0
  1
扉位置 (1800x75)
  7
STYLE1
100
AcDbText
  0
SOLID
  5
22226
330
747D
100
AcDbEntity
  8
寸法
 48
50.0
100
AcDbTrace
 10
-7613.77106004181
 20
5756.316749025335
 30
0.0
 11
-7630.680265711799
 21
5881.907777930222
 31
0.0
 12
-7573.952845568332
 22
5768.589519994244
 32
0.0
 13
-7573.952845568332
 23
5768.589519994244
 33
0.0
210
0.0
220
0.0
230
-1.0
1001
ACAD
1000
DSTYLE
1002
{
1070
   341
1005
0
1070
    40
1040
1.0
1070
   343
1005
0
1070
   344
1005
0
1002
}
  0
LWPOLYLINE
  5
22227
330
747D
100
AcDbEntity
  8
寸法
 48
50.0
100
AcDbPolyline
 90
        3
 70
     0
 43
0.0
 10
-7630.680265711799
 20
5881.907777930222
 10
-7289.669801209424
 20
4775.811317867019
 10
-10103.73421414107
 20
4775.811317867019
210
0.0
220
0.0
230
-1.0
1001
ACAD
1000
DSTYLE
1002
{
1070
   341
1005
0
1070
    40
1040
1.0
1070
   343
1005
0
1070
   344
1005
0
1002
}
  0
TEXT
  5
22228
330
747D
100
AcDbEntity
  8
寸法
 62
     7
100
AcDbText
 10
7406.285760402179
 20
4626.475502532013
 30
0.0
 40
120.0
  1
扉の位置に合わせた基礎形状として下さい。
  7
STYLE1
100
AcDbText
  0
DIMENSION
  5
22229
330
747D
100
AcDbEntity
  8
寸法
 48
50.0
100
AcDbDimension
  2
*D38
 10
7782.938460046302
 20
6186.907777930223
 30
0.0
 11
7782.9384600463
 21
6422.955022024712
 31
0.0
 70
   160
 71
     5
 42
109.9999999999945
  3
INABA_S40G
100
AcDbAlignedDimension
 13
7553.599999999997
 23
6076.907777930228
 33
0.0
 14
7553.600000000038
 24
6186.907777930223
 34
0.0
 50
270.0
100
AcDbRotatedDimension
1001
ACAD
1000
DSTYLE
1002
{
1070
   341
1005
0
1002
}
  0
DIMENSION
  5
2222A
330
747D
100
AcDbEntity
  8
寸法
 48
50.0
100
AcDbDimension
  2
*D39
 10
7782.938460046302
 20
6076.907777930212
 30
0.0
 11
7782.9384600463
 21
5643.212836726329
 31
0.0
 70
   160
 71
     5
 42
194.9999999999891
  3
INABA_S40G
100
AcDbAlignedDimension
 13
7553.600000000035
 23
5881.907777930223
 33
0.0
 14
7553.6
 24
6076.907777930212
 34
0.0
 50
270.0
100
AcDbRotatedDimension
1001
ACAD
1000
DSTYLE
1002
{
1070
   341
1005
0
1002
}
  0
LINE
  5
2262A
330
747D
100
AcDbEntity
  8
想像線
 48
10.0
100
AcDbLine
 10
8674.139106188311
 20
7811.90777793021
 30
0.0
 11
9173.599999999984
 21
7811.90777793021
 31
0.0
  0
LINE
  5
22892
330
747D
100
AcDbEntity
  8
想像線
 48
10.0
100
AcDbLine
 10
8674.139106188313
 20
5881.907777930202
 30
0.0
 11
9173.599999999986
 21
5881.907777930202
 31
0.0
  0
LINE
  5
228A7
102
{ACAD_REACTORS
330
22C28
102
}
330
747D
100
AcDbEntity
  8
部品1
 48
50.0
100
AcDbLine
 10
9003.6
 20
6186.907777930228
 30
0.0
 11
9003.6
 21
7526.907777930208
 31
0.0
  0
LINE
  5
228A8
102
{ACAD_REACTORS
330
22C3E
102
}
330
747D
100
AcDbEntity
  8
部品1
 48
50.0
100
AcDbLine
 10
8893.600000000001
 20
7636.907777930206
 30
0.0
 11
7553.6
 21
7636.907777930208
 31
0.0
  0
LINE
  5
228A9
102
{ACAD_REACTORS
330
22C54
102
}
330
747D
100
AcDbEntity
  8
部品1
 48
50.0
100
AcDbLine
 10
7443.6
 20
6186.907777930209
 30
0.0
 11
7443.6
 21
7526.907777930204
 31
0.0
  0
LINE
  5
228AA
102
{ACAD_REACTORS
330
22C63
102
}
330
747D
100
AcDbEntity
  8
部品1
 48
50.0
100
AcDbLine
 10
8893.600000000001
 20
6076.907777930224
 30
0.0
 11
7553.6
 21
6076.907777930212
 31
0.0
  0
HATCH
  5
22C28
330
747D
100
AcDbEntity
  8
細線
 48
50.0
100
AcDbHatch
 10
0.0
 20
0.0
 30
0.0
210
0.0
220
0.0
230
1.0
  2
LINE
 70
     0
 71
     1
 91
        1
 92
        7
 72
     0
 73
     1
 93
        4
 10
9123.600000000001
 20
6956.907777930218
 10
9003.6
 20
6956.907777930216
 10
9003.6
 20
6756.907777930218
 10
9123.600000000001
 20
6756.907777930216
 97
        4
330
211CF
330
228A7
330
211CE
330
2118F
 75
     0
 76
     1
 52
45.0
 41
10.0
 77
     0
 78
     1
 53
45.0
 43
0.0
 44
0.0
 45
-22.45064030267288
 46
22.45064030267288
 79
     0
 47
2.537461131562667
 98
        1
 10
9061.624299324744
 20
6840.820041123471
  0
HATCH
  5
22C3E
330
747D
100
AcDbEntity
  8
細線
 48
50.0
100
AcDbHatch
 10
0.0
 20
0.0
 30
0.0
210
0.0
220
0.0
230
1.0
  2
LINE
 70
     0
 71
     1
 91
        1
 92
        7
 72
     0
 73
     1
 93
        4
 10
8323.6
 20
7756.907777930208
 10
8123.600000000001
 20
7756.907777930209
 10
8123.600000000001
 20
7636.907777930208
 10
8323.6
 20
7636.907777930208
 97
        4
330
211D6
330
2118A
330
228A8
330
2118B
 75
     0
 76
     1
 52
45.0
 41
10.0
 77
     0
 78
     1
 53
45.0
 43
0.0
 44
0.0
 45
-22.45064030267288
 46
22.45064030267288
 79
     0
 47
2.537461131562673
 98
        1
 10
8296.455011379157
 20
7696.289576123989
  0
HATCH
  5
22C54
330
747D
100
AcDbEntity
  8
細線
 48
50.0
100
AcDbHatch
 10
0.0
 20
0.0
 30
0.0
210
0.0
220
0.0
230
1.0
  2
LINE
 70
     0
 71
     1
 91
        1
 92
        7
 72
     0
 73
     1
 93
        4
 10
7443.6
 20
6956.907777930216
 10
7323.599999999998
 20
6956.907777930218
 10
7323.6
 20
6756.907777930218
 10
7443.599999999998
 20
6756.907777930215
 97
        4
330
211AF
330
21196
330
211B0
330
228A9
 75
     0
 76
     1
 52
45.0
 41
10.0
 77
     0
 78
     1
 53
45.0
 43
0.0
 44
0.0
 45
-22.45064030267288
 46
22.45064030267288
 79
     0
 47
2.537461131562673
 98
        1
 10
7418.084527926215
 20
6891.914389280613
  0
HATCH
  5
22C63
330
747D
100
AcDbEntity
  8
細線
 48
50.0
100
AcDbHatch
 10
0.0
 20
0.0
 30
0.0
210
0.0
220
0.0
230
1.0
  2
LINE
 70
     0
 71
     1
 91
        1
 92
        7
 72
     0
 73
     1
 93
        4
 10
8323.600000000018
 20
6076.907777930219
 10
8123.600000000019
 20
6076.907777930217
 10
8123.600000000017
 20
5881.907777930217
 10
8323.600000000018
 20
5881.907777930219
 97
        4
330
228AA
330
211BC
330
2119A
330
211BB
 75
     0
 76
     1
 52
45.0
 41
10.0
 77
     0
 78
     1
 53
45.0
 43
0.0
 44
0.0
 45
-22.45064030267288
 46
22.45064030267288
 79
     0
 47
1.999507776067741
 98
        1
 10
8210.1213756785
 20
5948.55594810336
  0
LINE
  5
22F7B
330
747D
100
AcDbEntity
  8
部品1
100
AcDbLine
 10
11318.13784100411
 20
3432.523224141482
 30
0.0
 11
5247.152655617859
 21
3432.523224141481
 31
0.0
  0
LINE
  5
22F7C
330
747D
100
AcDbEntity
  8
部品1
100
AcDbLine
 10
11318.13784100411
 20
3192.52322414148
 30
0.0
 11
5247.152655617862
 21
3192.52322414148
 31
0.0
  0
LINE
  5
22F7D
330
747D
100
AcDbEntity
  8
部品1
100
AcDbLine
 10
5247.152655617864
 20
468.2162545568344
 30
0.0
 11
11318.13784100411
 21
468.2162545568344
 31
0.0
  0
LEADER
  5
22F7E
330
747D
100
AcDbEntity
  8
寸法
 48
50.0
100
AcDbLeader
  3
INABA_S50G
 73
     0
 74
     0
 75
     1
 40
102.2727272727273
 41
680.0000000000001
 76
     3
 10
8255.260407604316
 20
2510.426885473779
 30
0.0
 10
8289.614378717676
 20
2920.87969658032
 30
0.0
 10
8414.614378717676
 20
2920.87969658032
 30
0.0
340
22F7F
1001
ACAD
1000
DSTYLE
1002
{
1070
   341
1005
0
1070
    40
1040
1.0
1070
   343
1005
0
1070
   344
1005
0
1002
}
  0
MTEXT
  5
22F7F
102
{ACAD_REACTORS
330
22F7E
102
}
330
747D
100
AcDbEntity
  8
部品1
 62
     7
 48
50.0
100
AcDbMText
 10
8439.614378717676
 20
2997.016060216684
 30
0.0
 40
80.0
 41
0.8
 71
     4
 72
     1
  1
\A1;ナット(市販品)
  7
STYLE2
 73
     1
 44
1.0
1001
ACAD
1000
MTEXTBEGIN
1070
    73
1070
     1
1070
    44
1040
1.0
1070
    74
1070
     0
1000
MTEXTEND
  0
LEADER
  5
22F80
330
747D
100
AcDbEntity
  8
寸法
 48
50.0
100
AcDbLeader
  3
INABA_S50G
 73
     0
 74
     0
 75
     1
 40
102.2727272727273
 41
906.8181818181818
 76
     3
 10
8279.260407604317
 20
2380.674892808916
 30
0.0
 10
8321.131997973155
 20
2735.910613815533
 30
0.0
 10
8446.131997973155
 20
2735.910613815533
 30
0.0
340
22F81
1001
ACAD
1000
DSTYLE
1002
{
1070
   341
1005
0
1070
    40
1040
1.0
1070
   343
1005
0
1070
   344
1005
0
1002
}
  0
MTEXT
  5
22F81
102
{ACAD_REACTORS
330
22F80
102
}
330
747D
100
AcDbEntity
  8
部品1
 62
     7
 48
50.0
100
AcDbMText
 10
8471.131997973156
 20
2812.046977451897
 30
0.0
 40
80.0
 41
0.8
 71
     4
 72
     1
  1
\A1;ワッシャー(市販品)
  7
STYLE2
 73
     1
 44
1.0
1001
ACAD
1000
MTEXTBEGIN
1070
    73
1070
     1
1070
    44
1040
1.0
1070
    74
1070
     0
1000
MTEXTEND
  0
LWPOLYLINE
  5
22F82
330
747D
100
AcDbEntity
  8
部品1
 48
50.0
100
AcDbPolyline
 90
        2
 70
     0
 43
8.0
 10
8431.860407604316
 20
1871.551604364637
 10
8725.562871003701
 20
1871.551604364637
  0
TEXT
  5
22F83
330
747D
100
AcDbEntity
  8
部品1
 48
50.0
100
AcDbText
 10
8436.213991888747
 20
2467.430285126837
 30
0.0
 40
80.0
  1
基礎ボルト(市販品)
  7
STYLE2
100
AcDbText
  0
DIMENSION
  5
22F84
330
747D
100
AcDbEntity
  8
寸法
 48
50.0
100
AcDbDimension
  2
*D49
 10
8933.729007373161
 20
1787.551604364636
 30
0.0
 11
8833.729007373161
 21
1949.551604364637
 31
0.0
 70
    32
  1
180
 71
     5
 42
324.0000000000009
  3
INABA_S40G
100
AcDbAlignedDimension
 13
8431.860407604316
 23
2111.551604364636
 33
0.0
 14
8431.860407604316
 24
1787.551604364636
 34
0.0
 50
90.0
100
AcDbRotatedDimension
1001
ACAD
1000
DSTYLE
1002
{
1070
   174
1070
     0
1070
   272
1070
     1
1070
   279
1070
     1
1070
   288
1070
     0
1070
   341
1005
0
1002
}
  0
DIMENSION
  5
22F85
330
747D
100
AcDbEntity
  8
寸法
 48
50.0
100
AcDbDimension
  2
*D50
 10
8933.729007373161
 20
2111.551604364636
 30
0.0
 11
9209.783673492188
 21
2086.427646760425
 31
0.0
 70
   160
  1
20～25
 71
     5
 42
52.76000000000113
  3
INABA_S40G
100
AcDbAlignedDimension
 13
8244.660407604319
 23
2164.311604364638
 33
0.0
 14
8431.860407604316
 24
2111.551604364636
 34
0.0
 50
90.0
100
AcDbRotatedDimension
1001
ACAD
1000
DSTYLE
1002
{
1070
   174
1070
     0
1070
   272
1070
     1
1070
   279
1070
     1
1070
   288
1070
     0
1070
   341
1005
0
1002
}
  0
MTEXT
  5
22F86
102
{ACAD_REACTORS
330
22F87
102
}
330
747D
100
AcDbEntity
  8
部品1
 62
     7
 48
50.0
100
AcDbMText
 10
8440.804870023637
 20
2375.934930517867
 30
0.0
 40
80.0
 41
0.8
 71
     4
 72
     1
  1
M10X160
  7
STYLE2
 73
     1
 44
1.0
1001
ACAD
1000
MTEXTBEGIN
1070
    73
1070
     1
1070
    44
1040
1.0
1070
    74
1070
     0
1000
MTEXTEND
  0
LEADER
  5
22F87
330
747D
100
AcDbEntity
  8
寸法
 48
50.0
100
AcDbLeader
  3
INABA_S50G
 73
     0
 74
     0
 75
     1
 40
80.0
 41
435.0
 76
     3
 10
8248.260407604318
 20
2160.711604364637
 30
0.0
 10
8290.804870023636
 20
2310.934930517867
 30
0.0
 10
8415.804870023636
 20
2310.934930517867
 30
0.0
340
22F86
1001
ACAD
1000
DSTYLE
1002
{
1070
   341
1005
0
1070
    40
1040
1.0
1070
   343
1005
0
1070
   344
1005
0
1002
}
  0
LINE
  5
22F88
330
747D
100
AcDbEntity
  8
部品1
100
AcDbLine
 10
5247.152655617861
 20
3432.523224141482
 30
0.0
 11
5247.152655617862
 21
468.2162545568344
 31
0.0
  0
LEADER
  5
22F89
330
747D
100
AcDbEntity
  8
寸法
 48
50.0
100
AcDbLeader
  3
INABA_S50G
 73
     0
 75
     1
 40
113.1818181818182
 41
608.6363636363635
 76
     3
 10
8207.997157742367
 20
2061.067277722916
 30
0.0
 10
8074.19332905102
 20
2912.446360079393
 30
0.0
 10
7949.19332905102
 20
2912.446360079393
 30
0.0
340
22F8A
1001
ACAD
1000
DSTYLE
1002
{
1070
   341
1005
0
1070
    40
1040
1.0
1070
   343
1005
0
1070
   344
1005
0
1002
}
  0
MTEXT
  5
22F8A
102
{ACAD_REACTORS
330
22F89
102
}
330
747D
100
AcDbEntity
  8
寸法
 62
     7
 48
50.0
100
AcDbMText
 10
7924.19332905102
 20
2994.037269170302
 30
0.0
 40
80.0
 41
0.8
 71
     6
 72
     1
  1
\A1;φ70スリーブ
  7
STYLE2
 73
     1
 44
1.0
1001
ACAD
1000
MTEXTBEGIN
1070
    73
1070
     1
1070
    44
1040
1.0
1070
    74
1070
     0
1000
MTEXTEND
  0
LWPOLYLINE
  5
22F8B
330
747D
100
AcDbEntity
  8
部品1
 48
50.0
100
AcDbPolyline
 90
        2
 70
     0
 43
8.0
 10
5903.681192594167
 20
1871.551604364637
 10
6317.821094427124
 20
1871.551604364637
  0
TEXT
  5
22F8C
330
747D
100
AcDbEntity
  8
部品1
 48
50.0
100
AcDbText
 10
5903.681192594167
 20
1882.790596647892
 30
0.0
 40
80.0
  1
▽G.L
  7
STYLE2
100
AcDbText
  0
DIMENSION
  5
22F8D
330
747D
100
AcDbEntity
  8
寸法
 48
50.0
100
AcDbDimension
  2
*D51
 10
6047.400780694664
 20
1327.551604364636
 30
0.0
 11
6047.400780694664
 21
1447.551604364637
 31
0.0
 70
   160
  1
150
 71
     5
 42
240.0
  3
INABA_S40G
100
AcDbAlignedDimension
 13
6189.821094427124
 23
1567.551604364636
 33
0.0
 14
6109.821094427127
 24
1327.551604364636
 34
0.0
 50
90.0
100
AcDbRotatedDimension
1001
ACAD
1000
DSTYLE
1002
{
1070
   174
1070
     0
1070
   272
1070
     1
1070
   279
1070
     1
1070
   288
1070
     0
1070
   341
1005
0
1002
}
  0
LEADER
  5
22F8E
330
747D
100
AcDbEntity
  8
寸法
 48
50.0
100
AcDbLeader
  3
INABA_S50G
 71
     0
 73
     0
 75
     1
 40
100.0
 41
225.0
 76
     3
 10
6285.724046779266
 20
1447.551604364637
 30
0.0
 10
6163.886068231929
 20
1184.0289107462
 30
0.0
 10
6038.886068231929
 20
1184.0289107462
 30
0.0
1001
ACAD
1000
DSTYLE
1002
{
1070
    40
1040
1.0
1070
   272
1070
     1
1070
   279
1070
     1
1070
   341
1005
0
1002
}
  0
LEADER
  5
22F8F
330
747D
100
AcDbEntity
  8
寸法
 48
50.0
100
AcDbLeader
  3
INABA_S50G
 71
     0
 73
     0
 75
     1
 40
100.0
 41
222.7272727272727
 76
     3
 10
6413.821094427124
 20
1447.551604364637
 30
0.0
 10
6192.008795789364
 20
1003.712758206757
 30
0.0
 10
6067.008795789364
 20
1003.712758206757
 30
0.0
1001
ACAD
1000
DSTYLE
1002
{
1070
    40
1040
1.0
1070
   272
1070
     1
1070
   279
1070
     1
1070
   341
1005
0
1002
}
  0
MTEXT
  5
22F90
102
{ACAD_REACTORS
330
22F91
102
}
330
747D
100
AcDbEntity
  8
寸法
 62
     7
 48
50.0
100
AcDbMText
 10
6228.571040204318
 20
1712.852207182093
 30
0.0
 40
80.0
 41
0.8
 71
     6
 72
     1
  1
\A1;D10@300
  7
STYLE2
 73
     1
 44
1.0
1001
ACAD
1000
MTEXTBEGIN
1070
    73
1070
     1
1070
    44
1040
1.0
1070
    74
1070
     0
1000
MTEXTEND
  0
LEADER
  5
22F91
330
747D
100
AcDbEntity
  8
寸法
 48
50.0
100
AcDbLeader
  3
INABA_S50G
 71
     0
 73
     0
 75
     1
 40
100.0
 41
540.3409090909091
 76
     3
 10
6421.821094427123
 20
1869.67881906176
 30
0.0
 10
6363.838857898425
 20
1648.208490520955
 30
0.0
 10
6238.838857898425
 20
1648.208490520955
 30
0.0
213
-9.732182305893367
223
-4.643716661138569
233
0.0
1001
ACAD
1000
DSTYLE
1002
{
1070
    40
1040
1.0
1070
   272
1070
     1
1070
   279
1070
     1
1070
   341
1005
0
1002
}
  0
LEADER
  5
22F92
330
747D
100
AcDbEntity
  8
寸法
 48
50.0
100
AcDbLeader
  3
INABA_S50G
 71
     0
 73
     0
 75
     1
 40
130.1136363636363
 41
651.1363636363636
 76
     3
 10
6397.821094427123
 20
2111.551604364636
 30
0.0
 10
6285.396514263107
 20
2252.022369821225
 30
0.0
 10
6160.396514263107
 20
2252.022369821225
 30
0.0
1001
ACAD
1000
DSTYLE
1002
{
1070
    40
1040
1.0
1070
   272
1070
     1
1070
   279
1070
     1
1070
   341
1005
0
1002
}
  0
MTEXT
  5
22F93
102
{ACAD_REACTORS
330
22F92
102
}
330
747D
100
AcDbEntity
  8
寸法
 62
     7
 48
50.0
100
AcDbMText
 10
6097.72261494385
 20
2324.067824366679
 30
0.0
 40
80.0
 41
0.8
 71
     6
 72
     1
  1
\A1;金コテ押エ
  7
STYLE2
 73
     1
 44
1.0
1001
ACAD
1000
MTEXTBEGIN
1070
    73
1070
     1
1070
    44
1040
1.0
1070
    74
1070
     0
1000
MTEXTEND
  0
DIMENSION
  5
22F94
330
747D
100
AcDbEntity
  8
寸法
 48
50.0
100
AcDbDimension
  2
*D52
 10
5582.783855865383
 20
1327.551604364637
 30
0.0
 11
5582.783855865383
 21
1699.091754020637
 31
0.0
 70
   160
  1
540
 71
     5
 42
784.0
  3
INABA_S40G
100
AcDbAlignedDimension
 13
6317.821094427124
 23
2111.551604364636
 33
0.0
 14
6109.821094427127
 24
1327.551604364636
 34
0.0
 50
90.0
100
AcDbRotatedDimension
1001
ACAD
1000
DSTYLE
1002
{
1070
   174
1070
     0
1070
   272
1070
     1
1070
   279
1070
     1
1070
   288
1070
     0
1070
   341
1005
0
1002
}
  0
MTEXT
  5
22F95
102
{ACAD_REACTORS
330
22F8F
102
}
330
747D
100
AcDbEntity
  8
寸法
 62
     7
 48
50.0
100
AcDbMText
 10
6047.008795789364
 20
1063.712758206757
 30
0.0
 40
80.0
 41
0.8
 71
     6
 72
     1
  1
D13
  7
STYLE2
 73
     1
 44
1.0
1001
ACAD
1000
MTEXTBEGIN
1070
    73
1070
     1
1070
    44
1040
1.0
1070
    74
1070
     0
1000
MTEXTEND
  0
MTEXT
  5
22F96
102
{ACAD_REACTORS
330
22F8E
102
}
330
747D
100
AcDbEntity
  8
寸法
 62
     7
 48
50.0
100
AcDbMText
 10
6018.886068231929
 20
1244.0289107462
 30
0.0
 40
80.0
 41
0.8
 71
     6
 72
     1
  1
D10
  7
STYLE2
 73
     1
 44
1.0
1001
ACAD
1000
MTEXTBEGIN
1070
    73
1070
     1
1070
    44
1040
1.0
1070
    74
1070
     0
1000
MTEXTEND
  0
DIMENSION
  5
22F97
330
747D
100
AcDbEntity
  8
寸法
 48
50.0
100
AcDbDimension
  2
*D53
 10
6637.821094427123
 20
789.1219663594766
 30
0.0
 11
6393.724335748899
 21
789.1219663594766
 31
0.0
 70
   160
  1
300
 71
     5
 42
448.0
  3
INABA_S40G
100
AcDbAlignedDimension
 13
6189.821094427124
 23
1199.551604364637
 33
0.0
 14
6637.821094427123
 24
1199.551604364637
 34
0.0
100
AcDbRotatedDimension
1001
ACAD
1000
DSTYLE
1002
{
1070
   174
1070
     0
1070
   272
1070
     1
1070
   279
1070
     1
1070
   288
1070
     0
1070
   341
1005
0
1002
}
  0
MTEXT
  5
22F98
102
{ACAD_REACTORS
330
22F99
102
}
330
747D
100
AcDbEntity
  8
寸法
 62
     7
 48
50.0
100
AcDbMText
 10
7950.836335259379
 20
2633.352997262789
 30
0.0
 40
80.0
 41
0.8
 71
     6
 72
     1
  1
アンカープレート {\fArial|b0|i0|c0|p32;U}
  7
STYLE2
 73
     1
 44
1.0
1001
ACAD
1000
MTEXTBEGIN
1070
    73
1070
     1
1070
    44
1040
1.0
1070
    74
1070
     0
1000
MTEXTEND
  0
LEADER
  5
22F99
330
747D
100
AcDbEntity
  8
寸法
 48
50.0
100
AcDbLeader
  3
INABA_S50G
 73
     0
 75
     1
 40
106.3636363636363
 41
903.5235024184547
 76
     3
 10
8149.260407604318
 20
2181.111604364638
 30
0.0
 10
8100.836335259378
 20
2555.17117908097
 30
0.0
 10
7975.836335259379
 20
2555.17117908097
 30
0.0
340
22F98
1001
ACAD
1000
DSTYLE
1002
{
1070
   341
1005
0
1070
    40
1040
1.0
1070
   343
1005
0
1070
   344
1005
0
1002
}
  0
LINE
  5
22F9A
330
747D
100
AcDbEntity
  8
細線
 48
50.0
100
AcDbLine
 10
6437.821094427125
 20
1949.924497032467
 30
0.0
 11
6509.821094427124
 21
2021.924497032467
 31
0.0
  0
ARC
  5
22F9B
330
747D
100
AcDbEntity
  8
部品1
 48
50.0
100
AcDbCircle
 10
6413.821094427124
 20
1971.806033758882
 30
0.0
 40
24.0
100
AcDbArc
 50
0.0
 51
180.0
  0
CIRCLE
  5
22F9C
330
747D
100
AcDbEntity
  8
部品1
 48
50.0
100
AcDbCircle
 10
6413.821094427124
 20
1971.806033758882
 30
0.0
 40
8.0
  0
LINE
  5
22F9D
330
747D
100
AcDbEntity
  8
部品1
 48
50.0
100
AcDbLine
 10
6317.821094427124
 20
1567.551604364636
 30
0.0
 11
6317.821094427124
 21
2111.551604364636
 31
0.0
  0
LINE
  5
22F9E
330
747D
100
AcDbEntity
  8
部品1
 48
50.0
100
AcDbLine
 10
6509.821094427124
 20
2111.551604364636
 30
0.0
 11
6509.821094427124
 21
1567.551604364636
 31
0.0
  0
MTEXT
  5
22F9F
102
{ACAD_REACTORS
330
22FA4
102
}
330
747D
100
AcDbEntity
  8
寸法
 62
     7
 48
50.0
100
AcDbMText
 10
6592.707031454517
 20
1972.819165663564
 30
0.0
 40
80.0
 41
0.8
 71
     4
 72
     1
  1
D13
  7
STYLE2
 73
     1
 44
1.0
1001
ACAD
1000
MTEXTBEGIN
1070
    73
1070
     1
1070
    44
1040
1.0
1070
    74
1070
     0
1000
MTEXTEND
  0
LEADER
  5
22FA0
330
747D
100
AcDbEntity
  8
寸法
 48
50.0
100
AcDbLeader
  3
INABA_S50G
 71
     0
 73
     0
 74
     0
 75
     1
 40
100.0
 41
225.0
 76
     3
 10
6541.724046779266
 20
1447.551604364637
 30
0.0
 10
6596.148754233808
 20
1352.154535421664
 30
0.0
 10
6721.148754233808
 20
1352.154535421664
 30
0.0
1001
ACAD
1000
DSTYLE
1002
{
1070
    40
1040
1.0
1070
   272
1070
     1
1070
   279
1070
     1
1070
   341
1005
0
1002
}
  0
LEADER
  5
22FA1
330
747D
100
AcDbEntity
  8
寸法
 48
50.0
100
AcDbLeader
  3
INABA_S50G
 71
     0
 73
     0
 74
     0
 75
     1
 40
100.0
 41
540.3409090909091
 76
     3
 10
6487.766263440298
 20
1430.811073951111
 30
0.0
 10
6606.559550288373
 20
1089.180255956214
 30
0.0
 10
6731.559550288373
 20
1089.180255956214
 30
0.0
213
0.0
223
-1.022262676269383
233
0.0
1001
ACAD
1000
DSTYLE
1002
{
1070
    40
1040
1.0
1070
   272
1070
     1
1070
   279
1070
     1
1070
   341
1005
0
1002
}
  0
MTEXT
  5
22FA2
102
{ACAD_REACTORS
330
22FA0
102
}
330
747D
100
AcDbEntity
  8
寸法
 62
     7
 48
50.0
100
AcDbMText
 10
6741.148754233808
 20
1412.154535421664
 30
0.0
 40
80.0
 41
0.8
 71
     4
 72
     1
  1
D10
  7
STYLE2
 73
     1
 44
1.0
1001
ACAD
1000
MTEXTBEGIN
1070
    73
1070
     1
1070
    44
1040
1.0
1070
    74
1070
     0
1000
MTEXTEND
  0
LWPOLYLINE
  5
22FA3
330
747D
100
AcDbEntity
  8
部品1
 48
50.0
100
AcDbPolyline
 90
        2
 70
     0
 43
8.0
 10
6509.821094427123
 20
1871.551604364637
 10
6923.960996260081
 20
1871.551604364637
  0
LEADER
  5
22FA4
330
747D
100
AcDbEntity
  8
寸法
 48
50.0
100
AcDbLeader
  3
INABA_S50G
 71
     0
 73
     0
 74
     0
 75
     1
 40
100.0
 41
222.7272727272727
 76
     3
 10
6413.821094427124
 20
1971.806033758882
 30
0.0
 10
6447.707031454519
 20
1912.819165663565
 30
0.0
 10
6572.707031454519
 20
1912.819165663565
 30
0.0
1001
ACAD
1000
DSTYLE
1002
{
1070
    40
1040
1.0
1070
   272
1070
     1
1070
   279
1070
     1
1070
   341
1005
0
1002
}
  0
LINE
  5
22FA5
330
747D
100
AcDbEntity
  8
細線
 48
50.0
100
AcDbLine
 10
6189.821094427117
 20
1486.398350126808
 30
0.0
 11
6270.974348664952
 21
1567.551604364636
 31
0.0
  0
LINE
  5
22FA6
330
747D
100
AcDbEntity
  8
細線
 48
50.0
100
AcDbLine
 10
6397.686941904527
 20
1505.678819061759
 30
0.0
 11
6421.821094427129
 21
1529.812971584358
 31
0.0
  0
LINE
  5
22FA7
330
747D
100
AcDbEntity
  8
細線
 48
50.0
100
AcDbLine
 10
6304.618958844197
 20
1439.551604364637
 30
0.0
 11
6421.821094427125
 21
1556.753739947562
 31
0.0
  0
LINE
  5
22FA8
330
747D
100
AcDbEntity
  8
部品1
 48
50.0
100
AcDbLine
 10
6189.821094427124
 20
1327.551604364636
 30
0.0
 11
6189.821094427124
 21
1567.551604364636
 31
0.0
  0
LINE
  5
22FA9
330
747D
100
AcDbEntity
  8
細線
 48
50.0
100
AcDbLine
 10
6547.085874113069
 20
1439.551604364637
 30
0.0
 11
6637.821094427124
 21
1530.286824678696
 31
0.0
  0
LINE
  5
22FAA
330
747D
100
AcDbEntity
  8
細線
 48
50.0
100
AcDbLine
 10
6520.145105749851
 20
1439.551604364637
 30
0.0
 11
6637.821094427124
 21
1557.227593041903
 31
0.0
  0
LINE
  5
22FAB
330
747D
100
AcDbEntity
  8
部品1
 48
50.0
100
AcDbLine
 10
6637.821094427124
 20
1567.551604364636
 30
0.0
 11
6637.821094427124
 21
1327.551604364636
 31
0.0
  0
LINE
  5
22FAC
330
747D
100
AcDbEntity
  8
部品1
 48
50.0
100
AcDbLine
 10
6437.82109442713
 20
1447.551604364637
 30
0.0
 11
6437.821094427125
 21
1971.806033758882
 31
0.0
  0
LINE
  5
22FAD
330
747D
100
AcDbEntity
  8
部品1
 48
50.0
100
AcDbLine
 10
6421.821094427129
 20
1447.551604364637
 30
0.0
 11
6421.821094427116
 21
1971.806033758882
 31
0.0
  0
LINE
  5
22FAE
330
747D
100
AcDbEntity
  8
細線
 48
50.0
100
AcDbLine
 10
6405.821094427124
 20
1486.872203221148
 30
0.0
 11
6421.821094427129
 21
1502.872203221148
 31
0.0
  0
LINE
  5
22FAF
330
747D
100
AcDbEntity
  8
細線
 48
50.0
100
AcDbLine
 10
6395.003933923138
 20
1199.551604364637
 30
0.0
 11
6429.301430554321
 21
1327.551604364636
 31
0.0
  0
LINE
  5
22FB0
330
747D
100
AcDbEntity
  8
部品1
 48
50.0
100
AcDbLine
 10
6717.821094427129
 20
1199.551604364637
 30
0.0
 11
6109.821094427125
 21
1199.551604364637
 31
0.0
  0
LINE
  5
22FB1
330
747D
100
AcDbEntity
  8
部品1
 48
50.0
100
AcDbLine
 10
6245.821094427125
 20
1423.551604364637
 30
0.0
 11
6581.821094427124
 21
1423.551604364637
 31
0.0
  0
LINE
  5
22FB2
330
747D
100
AcDbEntity
  8
部品1
 48
50.0
100
AcDbLine
 10
6245.821094427125
 20
1439.551604364637
 30
0.0
 11
6581.821094427124
 21
1439.551604364637
 31
0.0
  0
LINE
  5
22FB3
330
747D
100
AcDbEntity
  8
部品1
 48
50.0
100
AcDbLine
 10
6717.821094427129
 20
1327.551604364636
 30
0.0
 11
6109.821094427125
 21
1327.551604364636
 31
0.0
  0
CIRCLE
  5
22FB4
330
747D
100
AcDbEntity
  8
部品1
 48
50.0
100
AcDbCircle
 10
6413.821094427124
 20
1447.551604364637
 30
0.0
 40
8.0
  0
LINE
  5
22FB5
330
747D
100
AcDbEntity
  8
細線
 48
50.0
100
AcDbLine
 10
6408.145105749857
 20
1327.551604364636
 30
0.0
 11
6504.145105749858
 21
1423.551604364637
 31
0.0
  0
LINE
  5
22FB6
330
747D
100
AcDbEntity
  8
細線
 48
50.0
100
AcDbLine
 10
6237.22784402864
 20
1199.551604364637
 30
0.0
 11
6271.525340659823
 21
1327.551604364636
 31
0.0
  0
LINE
  5
22FB7
330
747D
100
AcDbEntity
  8
細線
 48
50.0
100
AcDbLine
 10
6316.115888975885
 20
1199.551604364635
 30
0.0
 11
6350.413385607069
 21
1327.551604364635
 31
0.0
  0
LINE
  5
22FB8
330
747D
100
AcDbEntity
  8
細線
 48
50.0
100
AcDbLine
 10
6158.339799081382
 20
1199.551604364635
 30
0.0
 11
6192.637295712565
 21
1327.551604364635
 31
0.0
  0
LINE
  5
22FB9
330
747D
100
AcDbEntity
  8
部品1
 48
50.0
100
AcDbLine
 10
6109.821094427125
 20
1199.551604364637
 30
0.0
 11
6109.821094427125
 21
1327.551604364636
 31
0.0
  0
LINE
  5
22FBA
330
747D
100
AcDbEntity
  8
細線
 48
50.0
100
AcDbLine
 10
6243.658624646986
 20
1223.551604364637
 30
0.0
 11
6250.089405265335
 21
1199.551604364637
 31
0.0
  0
LINE
  5
22FBB
330
747D
100
AcDbEntity
  8
細線
 48
50.0
100
AcDbLine
 10
6164.770579699735
 20
1223.551604364637
 30
0.0
 11
6171.201360318081
 21
1199.551604364637
 31
0.0
  0
LINE
  5
22FBC
330
747D
100
AcDbEntity
  8
細線
 48
50.0
100
AcDbLine
 10
6401.434714541491
 20
1223.551604364637
 30
0.0
 11
6407.865495159838
 21
1199.551604364637
 31
0.0
  0
LINE
  5
22FBD
330
747D
100
AcDbEntity
  8
細線
 48
50.0
100
AcDbLine
 10
6322.546669594238
 20
1223.551604364637
 30
0.0
 11
6328.977450212585
 21
1199.551604364637
 31
0.0
  0
LINE
  5
22FBE
330
747D
100
AcDbEntity
  8
細線
 48
50.0
100
AcDbLine
 10
6219.559727207407
 20
1327.551604364636
 30
0.0
 11
6315.559727207407
 21
1423.551604364637
 31
0.0
  0
LINE
  5
22FBF
330
747D
100
AcDbEntity
  8
細線
 48
50.0
100
AcDbLine
 10
6192.618958844196
 20
1327.551604364636
 30
0.0
 11
6288.618958844196
 21
1423.551604364637
 31
0.0
  0
LINE
  5
22FC0
330
747D
100
AcDbEntity
  8
部品1
 48
50.0
100
AcDbLine
 10
6245.821094427125
 20
1439.551604364637
 30
0.0
 11
6245.821094427125
 21
1423.551604364637
 31
0.0
  0
LINE
  5
22FC1
330
747D
100
AcDbEntity
  8
細線
 48
50.0
100
AcDbLine
 10
6186.206515094224
 20
1303.551604364637
 30
0.0
 11
6179.775734475876
 21
1327.551604364636
 31
0.0
  0
LINE
  5
22FC2
330
747D
100
AcDbEntity
  8
細線
 48
50.0
100
AcDbLine
 10
6109.821094427124
 20
1312.891525330417
 30
0.0
 11
6113.749250765319
 21
1327.551604364636
 31
0.0
  0
LINE
  5
22FC3
330
747D
100
AcDbEntity
  8
部品1
 48
50.0
100
AcDbLine
 10
6405.821094427124
 20
1505.678819061759
 30
0.0
 11
6389.821094427124
 21
1505.678819061759
 31
0.0
  0
CIRCLE
  5
22FC4
330
747D
100
AcDbEntity
  8
部品1
 48
50.0
100
AcDbCircle
 10
6285.821094427124
 20
1447.551604364637
 30
0.0
 40
8.0
  0
LINE
  5
22FC5
330
747D
100
AcDbEntity
  8
細線
 48
50.0
100
AcDbLine
 10
6358.500495570613
 20
1439.551604364637
 30
0.0
 11
6389.821094427124
 21
1470.872203221148
 31
0.0
  0
ARC
  5
22FC6
330
747D
100
AcDbEntity
  8
部品1
 48
50.0
100
AcDbCircle
 10
6413.821094427124
 20
1447.551604364637
 30
0.0
 40
24.0
100
AcDbArc
 50
180.0
 51
199.4712206344927
  0
LINE
  5
22FC7
330
747D
100
AcDbEntity
  8
細線
 48
50.0
100
AcDbLine
 10
6265.094560041475
 20
1303.551604364637
 30
0.0
 11
6258.663779423129
 21
1327.551604364636
 31
0.0
  0
LINE
  5
22FC8
330
747D
100
AcDbEntity
  8
細線
 48
50.0
100
AcDbLine
 10
6343.982604988728
 20
1303.551604364637
 30
0.0
 11
6337.551824370383
 21
1327.551604364636
 31
0.0
  0
LINE
  5
22FC9
330
747D
100
AcDbEntity
  8
細線
 48
50.0
100
AcDbLine
 10
6246.500495570613
 20
1327.551604364636
 30
0.0
 11
6342.500495570613
 21
1423.551604364637
 31
0.0
  0
LINE
  5
22FCA
330
747D
100
AcDbEntity
  8
部品1
 48
50.0
100
AcDbLine
 10
6389.821094427124
 20
1505.678819061759
 30
0.0
 11
6389.821094427124
 21
1447.551604364637
 31
0.0
  0
LINE
  5
22FCB
330
747D
100
AcDbEntity
  8
細線
 48
50.0
100
AcDbLine
 10
6331.559727207407
 20
1439.551604364637
 30
0.0
 11
6389.821094427124
 21
1497.812971584355
 31
0.0
  0
LINE
  5
22FCC
330
747D
100
AcDbEntity
  8
部品1
 48
50.0
100
AcDbLine
 10
6405.821094427124
 20
1505.678819061759
 30
0.0
 11
6405.821094427124
 21
1447.551604364637
 31
0.0
  0
LINE
  5
22FCD
330
747D
100
AcDbEntity
  8
部品1
 48
50.0
100
AcDbLine
 10
6717.821094427129
 20
1327.551604364636
 30
0.0
 11
6717.821094427129
 21
1199.551604364637
 31
0.0
  0
LINE
  5
22FCE
330
747D
100
AcDbEntity
  8
細線
 48
50.0
100
AcDbLine
 10
6631.668068764878
 20
1199.551604364637
 30
0.0
 11
6665.965565396063
 21
1327.551604364635
 31
0.0
  0
LINE
  5
22FCF
330
747D
100
AcDbEntity
  8
細線
 48
50.0
100
AcDbLine
 10
6473.891978870383
 20
1199.551604364637
 30
0.0
 11
6508.18947550157
 21
1327.551604364635
 31
0.0
  0
LINE
  5
22FD0
330
747D
100
AcDbEntity
  8
細線
 48
50.0
100
AcDbLine
 10
6552.780023817632
 20
1199.551604364635
 30
0.0
 11
6587.077520448817
 21
1327.551604364635
 31
0.0
  0
LINE
  5
22FD1
330
747D
100
AcDbEntity
  8
細線
 48
50.0
100
AcDbLine
 10
6559.210804435982
 20
1223.551604364637
 30
0.0
 11
6565.641585054329
 21
1199.551604364637
 31
0.0
  0
LINE
  5
22FD2
330
747D
100
AcDbEntity
  8
細線
 48
50.0
100
AcDbLine
 10
6480.322759488737
 20
1223.551604364637
 30
0.0
 11
6486.753540107082
 21
1199.551604364637
 31
0.0
  0
LINE
  5
22FD3
330
747D
100
AcDbEntity
  8
細線
 48
50.0
100
AcDbLine
 10
6638.098849383229
 20
1223.551604364637
 30
0.0
 11
6644.529630001577
 21
1199.551604364637
 31
0.0
  0
LINE
  5
22FD4
330
747D
100
AcDbEntity
  8
細線
 48
50.0
100
AcDbLine
 10
6716.986894330476
 20
1223.551604364637
 30
0.0
 11
6717.821094427124
 21
1220.438327220272
 31
0.0
  0
LINE
  5
22FD5
330
747D
100
AcDbEntity
  8
細線
 48
50.0
100
AcDbLine
 10
6710.556113712127
 20
1199.551604364635
 30
0.0
 11
6717.821094427124
 21
1226.664881509025
 31
0.0
  0
LINE
  5
22FD6
330
747D
100
AcDbEntity
  8
細線
 48
50.0
100
AcDbLine
 10
6574.026642476271
 20
1439.551604364637
 30
0.0
 11
6637.821094427124
 21
1503.346056315488
 31
0.0
  0
CIRCLE
  5
22FD7
330
747D
100
AcDbEntity
  8
部品1
 48
50.0
100
AcDbCircle
 10
6541.821094427124
 20
1447.551604364637
 30
0.0
 40
8.0
  0
ARC
  5
22FD8
330
747D
100
AcDbEntity
  8
部品1
 48
50.0
100
AcDbCircle
 10
6413.821094427124
 20
1447.551604364637
 30
0.0
 40
24.0
100
AcDbArc
 50
340.5287793655072
 51
0.0
  0
LINE
  5
22FD9
330
747D
100
AcDbEntity
  8
細線
 48
50.0
100
AcDbLine
 10
6422.87064993598
 20
1303.551604364637
 30
0.0
 11
6416.439869317632
 21
1327.551604364636
 31
0.0
  0
LINE
  5
22FDA
330
747D
100
AcDbEntity
  8
細線
 48
50.0
100
AcDbLine
 10
6501.758694883226
 20
1303.551604364637
 30
0.0
 11
6495.32791426488
 21
1327.551604364636
 31
0.0
  0
LINE
  5
22FDB
330
747D
100
AcDbEntity
  8
細線
 48
50.0
100
AcDbLine
 10
6435.085874113068
 20
1327.551604364636
 30
0.0
 11
6531.085874113067
 21
1423.551604364637
 31
0.0
  0
LINE
  5
22FDC
330
747D
100
AcDbEntity
  8
細線
 48
50.0
100
AcDbLine
 10
6462.026642476272
 20
1327.551604364636
 30
0.0
 11
6558.027530321408
 21
1423.552492209775
 31
0.0
  0
LINE
  5
22FDD
330
747D
100
AcDbEntity
  8
部品1
 48
50.0
100
AcDbLine
 10
6581.821094427124
 20
1439.551604364637
 30
0.0
 11
6581.821094427124
 21
1423.551604364637
 31
0.0
  0
LINE
  5
22FDE
330
747D
100
AcDbEntity
  8
細線
 48
50.0
100
AcDbLine
 10
6659.534784777719
 20
1303.551604364637
 30
0.0
 11
6653.104004159371
 21
1327.551604364636
 31
0.0
  0
LINE
  5
22FDF
330
747D
100
AcDbEntity
  8
細線
 48
50.0
100
AcDbLine
 10
6623.671252655518
 20
1327.551604364636
 30
0.0
 11
6637.821094427124
 21
1341.701446136243
 31
0.0
  0
LINE
  5
22FE0
330
747D
100
AcDbEntity
  8
細線
 48
50.0
100
AcDbLine
 10
6580.646739830472
 20
1303.551604364637
 30
0.0
 11
6574.215959212125
 21
1327.551604364636
 31
0.0
  0
LINE
  5
22FE1
330
747D
100
AcDbEntity
  8
細線
 48
50.0
100
AcDbLine
 10
6317.821094427124
 20
1641.339118490014
 30
0.0
 11
6421.821094427129
 21
1745.339118490017
 31
0.0
  0
LINE
  5
22FE2
330
747D
100
AcDbEntity
  8
細線
 48
50.0
100
AcDbLine
 10
6317.821094427124
 20
1668.279886853223
 30
0.0
 11
6421.821094427125
 21
1772.279886853223
 31
0.0
  0
LINE
  5
22FE3
330
747D
100
AcDbEntity
  8
細線
 48
50.0
100
AcDbLine
 10
6317.821094427124
 20
1614.398350126807
 30
0.0
 11
6421.821094427129
 21
1718.398350126808
 31
0.0
  0
LINE
  5
22FE4
330
747D
100
AcDbEntity
  8
細線
 48
50.0
100
AcDbLine
 10
6405.821094427124
 20
1917.924497032467
 30
0.0
 11
6421.821094427125
 21
1933.924497032467
 31
0.0
  0
LINE
  5
22FE5
330
747D
100
AcDbEntity
  8
細線
 48
50.0
100
AcDbLine
 10
6405.821094427124
 20
1944.865265395674
 30
0.0
 11
6421.821094427125
 21
1960.865265395674
 31
0.0
  0
LINE
  5
22FE6
330
747D
100
AcDbEntity
  8
部品1
 48
50.0
100
AcDbLine
 10
6189.821094427124
 20
1567.551604364636
 30
0.0
 11
6317.821094427124
 21
1567.551604364636
 31
0.0
  0
LINE
  5
22FE7
330
747D
100
AcDbEntity
  8
細線
 48
50.0
100
AcDbLine
 10
6189.821094427117
 20
1513.339118490012
 30
0.0
 11
6244.033580301749
 21
1567.551604364636
 31
0.0
  0
LINE
  5
22FE8
330
747D
100
AcDbEntity
  8
細線
 48
50.0
100
AcDbLine
 10
6189.821094427117
 20
1540.279886853222
 30
0.0
 11
6217.092811938538
 21
1567.551604364636
 31
0.0
  0
LINE
  5
22FE9
330
747D
100
AcDbEntity
  8
部品1
 48
50.0
100
AcDbLine
 10
6405.821094427124
 20
1913.678819061759
 30
0.0
 11
6389.821094427124
 21
1913.678819061762
 31
0.0
  0
LINE
  5
22FEA
330
747D
100
AcDbEntity
  8
細線
 48
50.0
100
AcDbLine
 10
6317.821094427124
 20
1829.924497032467
 30
0.0
 11
6401.575416456418
 21
1913.678819061759
 31
0.0
  0
LINE
  5
22FEB
330
747D
100
AcDbEntity
  8
細線
 48
50.0
100
AcDbLine
 10
6317.821094427124
 20
1856.865265395674
 30
0.0
 11
6389.821094427124
 21
1928.865265395674
 31
0.0
  0
LINE
  5
22FEC
330
747D
100
AcDbEntity
  8
部品1
 48
50.0
100
AcDbLine
 10
6389.821094427124
 20
1913.678819061762
 30
0.0
 11
6389.821094427124
 21
1971.806033758882
 31
0.0
  0
LINE
  5
22FED
330
747D
100
AcDbEntity
  8
細線
 48
50.0
100
AcDbLine
 10
6317.821094427124
 20
1883.806033758882
 30
0.0
 11
6389.821094427124
 21
1955.806033758882
 31
0.0
  0
LINE
  5
22FEE
330
747D
100
AcDbEntity
  8
部品1
 48
50.0
100
AcDbLine
 10
6405.821094427124
 20
1913.678819061759
 30
0.0
 11
6405.821094427124
 21
1971.806033758882
 31
0.0
  0
LINE
  5
22FEF
330
747D
100
AcDbEntity
  8
細線
 48
50.0
100
AcDbLine
 10
6437.82109442713
 20
1734.398350126808
 30
0.0
 11
6509.821094427117
 21
1806.398350126807
 31
0.0
  0
LINE
  5
22FF0
330
747D
100
AcDbEntity
  8
部品1
 48
50.0
100
AcDbLine
 10
6509.821094427124
 20
1567.551604364636
 30
0.0
 11
6637.821094427124
 21
1567.551604364636
 31
0.0
  0
LINE
  5
22FF1
330
747D
100
AcDbEntity
  8
細線
 48
50.0
100
AcDbLine
 10
6437.82109442713
 20
1545.812971584358
 30
0.0
 11
6509.821094427117
 21
1617.812971584352
 31
0.0
  0
LINE
  5
22FF2
330
747D
100
AcDbEntity
  8
細線
 48
50.0
100
AcDbLine
 10
6437.82109442713
 20
1572.753739947566
 30
0.0
 11
6509.821094427117
 21
1644.753739947562
 31
0.0
  0
LINE
  5
22FF3
330
747D
100
AcDbEntity
  8
細線
 48
50.0
100
AcDbLine
 10
6437.82109442713
 20
1518.872203221148
 30
0.0
 11
6509.821094427117
 21
1590.872203221148
 31
0.0
  0
LINE
  5
22FF4
330
747D
100
AcDbEntity
  8
細線
 48
50.0
100
AcDbLine
 10
6437.821094427125
 20
1788.279886853223
 30
0.0
 11
6509.821094427124
 21
1860.279886853223
 31
0.0
  0
LINE
  5
22FF5
330
747D
100
AcDbEntity
  8
細線
 48
50.0
100
AcDbLine
 10
6437.82109442713
 20
1761.339118490017
 30
0.0
 11
6509.821094427117
 21
1833.339118490012
 31
0.0
  0
MTEXT
  5
22FF6
102
{ACAD_REACTORS
330
22FA1
102
}
330
747D
100
AcDbEntity
  8
寸法
 62
     7
 48
50.0
100
AcDbMText
 10
6751.559550288374
 20
1150.202518632483
 30
0.0
 40
80.0
 41
0.8
 71
     4
 72
     1
  1
\A1;D10@300
  7
STYLE2
 73
     1
 44
1.0
1001
ACAD
1000
MTEXTBEGIN
1070
    73
1070
     1
1070
    44
1040
1.0
1070
    74
1070
     0
1000
MTEXTEND
  0
DIMENSION
  5
22FF7
330
747D
100
AcDbEntity
  8
寸法
 48
50.0
100
AcDbDimension
  2
*D48
 10
6317.821094427124
 20
2431.551604364637
 30
0.0
 11
6425.04742477232
 21
2531.219412281017
 31
0.0
 70
   160
  1
120\P195
 71
     5
 42
192.0
  3
INABA_S40G
100
AcDbAlignedDimension
 13
6509.821094427123
 23
2111.551604364636
 33
0.0
 14
6317.821094427124
 24
2111.551604364636
 34
0.0
100
AcDbRotatedDimension
1001
ACAD
1000
DSTYLE
1002
{
1070
   174
1070
     0
1070
   272
1070
     1
1070
   279
1070
     1
1070
   288
1070
     0
1070
   341
1005
0
1002
}
  0
LINE
  5
22FF8
330
747D
100
AcDbEntity
  8
部品1
 48
50.0
100
AcDbLine
 10
6317.821094427124
 20
2111.551604364636
 30
0.0
 11
6509.821094427124
 21
2111.551604364636
 31
0.0
  0
LINE
  5
22FF9
330
747D
100
AcDbEntity
  8
細線
 48
50.0
100
AcDbLine
 10
6317.821094427124
 20
2072.391412301335
 30
0.0
 11
6356.981286490428
 21
2111.551604364636
 31
0.0
  0
LINE
  5
22FFA
330
747D
100
AcDbEntity
  8
細線
 48
50.0
100
AcDbLine
 10
6317.821094427124
 20
2045.450643938127
 30
0.0
 11
6383.922054853633
 21
2111.551604364636
 31
0.0
  0
LINE
  5
22FFB
330
747D
100
AcDbEntity
  8
細線
 48
50.0
100
AcDbLine
 10
6317.821094427124
 20
2099.332180664542
 30
0.0
 11
6330.040518127219
 21
2111.551604364636
 31
0.0
  0
LINE
  5
22FFC
330
747D
100
AcDbEntity
  8
細線
 48
50.0
100
AcDbLine
 10
6437.37380169311
 20
1976.417972661658
 30
0.0
 11
6509.821094427124
 21
2048.865265395674
 31
0.0
  0
LINE
  5
22FFD
330
747D
100
AcDbEntity
  8
細線
 48
50.0
100
AcDbLine
 10
6426.313516929593
 20
1992.298456261353
 30
0.0
 11
6509.821094427124
 21
2075.806033758882
 31
0.0
  0
LINE
  5
22FFE
330
747D
100
AcDbEntity
  8
細線
 48
50.0
100
AcDbLine
 10
8302.26040760432
 20
1952.679886853225
 30
0.0
 11
8431.860407604316
 21
2082.279886853223
 31
0.0
  0
LINE
  5
22FFF
330
747D
100
AcDbEntity
  8
部品1
100
AcDbLine
 10
8431.860407604316
 20
1567.551604364636
 30
0.0
 11
8431.860407604316
 21
2111.551604364636
 31
0.0
  0
LINE
  5
23000
330
747D
100
AcDbEntity
  8
部品1
 48
50.0
100
AcDbLine
 10
8017.860407604317
 20
1567.551604364636
 30
0.0
 11
8017.860407604317
 21
2111.551604364636
 31
0.0
  0
LINE
  5
23001
330
747D
100
AcDbEntity
  8
細線
 48
50.0
100
AcDbLine
 10
8017.860407604317
 20
1883.806033758882
 30
0.0
 11
8176.260407604317
 21
2042.206033758879
 31
0.0
  0
LINE
  5
23002
330
747D
100
AcDbEntity
  8
細線
 48
50.0
100
AcDbLine
 10
8017.860407604317
 20
1856.865265395674
 30
0.0
 11
8176.260407604317
 21
2015.265265395672
 31
0.0
  0
LINE
  5
23003
330
747D
100
AcDbEntity
  8
細線
 48
50.0
100
AcDbLine
 10
8017.860407604317
 20
1829.924497032467
 30
0.0
 11
8176.260407604313
 21
1988.324497032459
 31
0.0
  0
TEXT
  5
23004
330
747D
100
AcDbEntity
  8
部品1
 48
50.0
100
AcDbText
 10
7603.720505771362
 20
1882.790596647892
 30
0.0
 40
80.0
  1
▽G.L
  7
STYLE2
100
AcDbText
  0
LINE
  5
23005
330
747D
100
AcDbEntity
  8
部品1
100
AcDbLine
 10
8248.260407604318
 20
1886.551604364636
 30
0.0
 11
8248.260407604313
 21
2160.711604364637
 31
0.0
  0
LINE
  5
23006
330
747D
100
AcDbEntity
  8
部品1
100
AcDbLine
 10
8230.260407604317
 20
1886.551604364636
 30
0.0
 11
8230.260407604314
 21
2160.711604364637
 31
0.0
  0
LINE
  5
23007
330
747D
100
AcDbEntity
  8
細線
 48
50.0
100
AcDbLine
 10
8302.26040760432
 20
1898.798350126795
 30
0.0
 11
8431.860407604316
 21
2028.398350126787
 31
0.0
  0
LINE
  5
23008
330
747D
100
AcDbEntity
  8
細線
 48
50.0
100
AcDbLine
 10
8302.26040760432
 20
1925.739118490008
 30
0.0
 11
8431.860407604316
 21
2055.339118490005
 31
0.0
  0
LINE
  5
23009
330
747D
100
AcDbEntity
  8
部品1
100
AcDbLine
 10
8302.260407604318
 20
1787.551604364637
 30
0.0
 11
8302.260407604318
 21
2111.551604364636
 31
0.0
  0
LINE
  5
2300A
330
747D
100
AcDbEntity
  8
部品1
100
AcDbLine
 10
8176.260407604312
 20
1787.551604364637
 30
0.0
 11
8176.260407604317
 21
2111.551604364636
 31
0.0
  0
LINE
  5
2300B
330
747D
100
AcDbEntity
  8
細線
 48
50.0
100
AcDbLine
 10
8017.860407604317
 20
1641.339118490014
 30
0.0
 11
8176.26040760431
 21
1799.739118490003
 31
0.0
  0
LINE
  5
2300C
330
747D
100
AcDbEntity
  8
細線
 48
50.0
100
AcDbLine
 10
8017.860407604317
 20
1614.398350126807
 30
0.0
 11
8191.013661842154
 21
1787.551604364635
 31
0.0
  0
LINE
  5
2300D
330
747D
100
AcDbEntity
  8
細線
 48
50.0
100
AcDbLine
 10
8017.860407604317
 20
1668.279886853223
 30
0.0
 11
8176.26040760431
 21
1826.679886853218
 31
0.0
  0
LINE
  5
2300E
330
747D
100
AcDbEntity
  8
細線
 48
50.0
100
AcDbLine
 10
7946.539808747806
 20
1327.551604364636
 30
0.0
 11
8431.860407604316
 21
1812.872203221144
 31
0.0
  0
LINE
  5
2300F
330
747D
100
AcDbEntity
  8
細線
 48
50.0
100
AcDbLine
 10
7919.599040384601
 20
1327.551604364636
 30
0.0
 11
8431.86040760432
 21
1839.81297158435
 31
0.0
  0
LINE
  5
23010
330
747D
100
AcDbEntity
  8
細線
 48
50.0
100
AcDbLine
 10
7892.658272021392
 20
1327.551604364636
 30
0.0
 11
8431.860407604316
 21
1866.753739947562
 31
0.0
  0
LINE
  5
23011
330
747D
100
AcDbEntity
  8
部品1
 48
50.0
100
AcDbLine
 10
8639.86040760432
 20
1327.551604364636
 30
0.0
 11
7809.86040760432
 21
1327.551604364636
 31
0.0
  0
LINE
  5
23012
330
747D
100
AcDbEntity
  8
部品1
 48
50.0
100
AcDbLine
 10
8639.86040760432
 20
1199.551604364637
 30
0.0
 11
7809.86040760432
 21
1199.551604364637
 31
0.0
  0
LINE
  5
23013
330
747D
100
AcDbEntity
  8
細線
 48
50.0
100
AcDbLine
 10
7889.860407604313
 20
1486.398350126808
 30
0.0
 11
7971.013661842146
 21
1567.551604364636
 31
0.0
  0
LINE
  5
23014
330
747D
100
AcDbEntity
  8
部品1
 48
50.0
100
AcDbLine
 10
7889.860407604317
 20
1327.551604364636
 30
0.0
 11
7889.860407604317
 21
1567.551604364636
 31
0.0
  0
LINE
  5
23015
330
747D
100
AcDbEntity
  8
細線
 48
50.0
100
AcDbLine
 10
7937.267157205835
 20
1199.551604364637
 30
0.0
 11
7971.564653837017
 21
1327.551604364636
 31
0.0
  0
LINE
  5
23016
330
747D
100
AcDbEntity
  8
部品1
 48
50.0
100
AcDbLine
 10
7809.86040760432
 20
1199.551604364637
 30
0.0
 11
7809.86040760432
 21
1327.551604364636
 31
0.0
  0
LINE
  5
23017
330
747D
100
AcDbEntity
  8
細線
 48
50.0
100
AcDbLine
 10
7858.379112258575
 20
1199.551604364635
 30
0.0
 11
7892.676608889761
 21
1327.551604364635
 31
0.0
  0
LINE
  5
23018
330
747D
100
AcDbEntity
  8
細線
 48
50.0
100
AcDbLine
 10
8016.155202153081
 20
1199.551604364635
 30
0.0
 11
8050.452698784262
 21
1327.551604364635
 31
0.0
  0
LINE
  5
23019
330
747D
100
AcDbEntity
  8
細線
 48
50.0
100
AcDbLine
 10
7864.809892876928
 20
1223.551604364637
 30
0.0
 11
7871.240673495275
 21
1199.551604364637
 31
0.0
  0
LINE
  5
2301A
330
747D
100
AcDbEntity
  8
細線
 48
50.0
100
AcDbLine
 10
8022.585982771435
 20
1223.551604364637
 30
0.0
 11
8029.01676338978
 21
1199.551604364637
 31
0.0
  0
LINE
  5
2301B
330
747D
100
AcDbEntity
  8
細線
 48
50.0
100
AcDbLine
 10
7943.697937824182
 20
1223.551604364637
 30
0.0
 11
7950.128718442527
 21
1199.551604364637
 31
0.0
  0
LINE
  5
2301C
330
747D
100
AcDbEntity
  8
細線
 48
50.0
100
AcDbLine
 10
7809.860407604317
 20
1312.891525330417
 30
0.0
 11
7813.788563942513
 21
1327.551604364636
 31
0.0
  0
LINE
  5
2301D
330
747D
100
AcDbEntity
  8
細線
 48
50.0
100
AcDbLine
 10
7886.245828271419
 20
1303.551604364637
 30
0.0
 11
7879.815047653072
 21
1327.551604364636
 31
0.0
  0
LINE
  5
2301E
330
747D
100
AcDbEntity
  8
細線
 48
50.0
100
AcDbLine
 10
8044.021918165922
 20
1303.551604364637
 30
0.0
 11
8037.591137547575
 21
1327.551604364636
 31
0.0
  0
LINE
  5
2301F
330
747D
100
AcDbEntity
  8
細線
 48
50.0
100
AcDbLine
 10
7965.13387321867
 20
1303.551604364637
 30
0.0
 11
7958.703092600325
 21
1327.551604364636
 31
0.0
  0
LWPOLYLINE
  5
23020
330
747D
100
AcDbEntity
  8
部品1
 48
50.0
100
AcDbPolyline
 90
        2
 70
     0
 43
8.0
 10
7603.720505771362
 20
1871.551604364637
 10
8017.860407604317
 20
1871.551604364637
  0
LINE
  5
23021
330
747D
100
AcDbEntity
  8
細線
 48
50.0
100
AcDbLine
 10
7889.860407604313
 20
1513.339118490012
 30
0.0
 11
7944.072893478942
 21
1567.551604364636
 31
0.0
  0
LINE
  5
23022
330
747D
100
AcDbEntity
  8
部品1
 48
50.0
100
AcDbLine
 10
7889.860407604317
 20
1567.551604364636
 30
0.0
 11
8017.860407604317
 21
1567.551604364636
 31
0.0
  0
LINE
  5
23023
330
747D
100
AcDbEntity
  8
細線
 48
50.0
100
AcDbLine
 10
7889.860407604313
 20
1540.279886853222
 30
0.0
 11
7917.132125115732
 21
1567.551604364636
 31
0.0
  0
LINE
  5
23024
330
747D
100
AcDbEntity
  8
細線
 48
50.0
100
AcDbLine
 10
8135.125187290261
 20
1327.551604364636
 30
0.0
 11
8431.860407604316
 21
1624.286824678689
 31
0.0
  0
LINE
  5
23025
330
747D
100
AcDbEntity
  8
細線
 48
50.0
100
AcDbLine
 10
8162.065955653465
 20
1327.551604364636
 30
0.0
 11
8431.860407604316
 21
1597.346056315494
 31
0.0
  0
LINE
  5
23026
330
747D
100
AcDbEntity
  8
細線
 48
50.0
100
AcDbLine
 10
8108.184418927052
 20
1327.551604364636
 30
0.0
 11
8431.860407604316
 21
1651.227593041903
 31
0.0
  0
LINE
  5
23027
330
747D
100
AcDbEntity
  8
細線
 48
50.0
100
AcDbLine
 10
8323.71056583271
 20
1327.551604364636
 30
0.0
 11
8559.860407604316
 21
1563.701446136245
 31
0.0
  0
LINE
  5
23028
330
747D
100
AcDbEntity
  8
細線
 48
50.0
100
AcDbLine
 10
8350.651334195921
 20
1327.551604364636
 30
0.0
 11
8559.860407604316
 21
1536.76067777303
 31
0.0
  0
LINE
  5
23029
330
747D
100
AcDbEntity
  8
部品1
 48
50.0
100
AcDbLine
 10
8559.860407604316
 20
1567.551604364636
 30
0.0
 11
8559.860407604316
 21
1327.551604364636
 31
0.0
  0
LINE
  5
2302A
330
747D
100
AcDbEntity
  8
細線
 48
50.0
100
AcDbLine
 10
8377.592102559127
 20
1327.551604364636
 30
0.0
 11
8559.860407604316
 21
1509.819909409833
 31
0.0
  0
LINE
  5
2302B
330
747D
100
AcDbEntity
  8
細線
 48
50.0
100
AcDbLine
 10
8252.819336994829
 20
1199.551604364635
 30
0.0
 11
8287.116833626008
 21
1327.551604364635
 31
0.0
  0
LINE
  5
2302C
330
747D
100
AcDbEntity
  8
細線
 48
50.0
100
AcDbLine
 10
8095.043247100333
 20
1199.551604364637
 30
0.0
 11
8129.340743731516
 21
1327.551604364636
 31
0.0
  0
LINE
  5
2302D
330
747D
100
AcDbEntity
  8
細線
 48
50.0
100
AcDbLine
 10
8173.931292047578
 20
1199.551604364637
 30
0.0
 11
8208.228788678765
 21
1327.551604364635
 31
0.0
  0
LINE
  5
2302E
330
747D
100
AcDbEntity
  8
細線
 48
50.0
100
AcDbLine
 10
8331.70738194207
 20
1199.551604364637
 30
0.0
 11
8366.004878573255
 21
1327.551604364635
 31
0.0
  0
LINE
  5
2302F
330
747D
100
AcDbEntity
  8
細線
 48
50.0
100
AcDbLine
 10
8180.362072665932
 20
1223.551604364637
 30
0.0
 11
8186.792853284279
 21
1199.551604364637
 31
0.0
  0
LINE
  5
23030
330
747D
100
AcDbEntity
  8
細線
 48
50.0
100
AcDbLine
 10
8101.474027718685
 20
1223.551604364637
 30
0.0
 11
8107.904808337032
 21
1199.551604364637
 31
0.0
  0
LINE
  5
23031
330
747D
100
AcDbEntity
  8
細線
 48
50.0
100
AcDbLine
 10
8338.138162560424
 20
1223.551604364637
 30
0.0
 11
8344.568943178769
 21
1199.551604364637
 31
0.0
  0
LINE
  5
23032
330
747D
100
AcDbEntity
  8
細線
 48
50.0
100
AcDbLine
 10
8259.250117613177
 20
1223.551604364637
 30
0.0
 11
8265.680898231524
 21
1199.551604364637
 31
0.0
  0
LINE
  5
23033
330
747D
100
AcDbEntity
  8
細線
 48
50.0
100
AcDbLine
 10
8201.798008060421
 20
1303.551604364637
 30
0.0
 11
8195.367227442075
 21
1327.551604364636
 31
0.0
  0
LINE
  5
23034
330
747D
100
AcDbEntity
  8
細線
 48
50.0
100
AcDbLine
 10
8122.909963113174
 20
1303.551604364637
 30
0.0
 11
8116.479182494826
 21
1327.551604364636
 31
0.0
  0
LINE
  5
23035
330
747D
100
AcDbEntity
  8
細線
 48
50.0
100
AcDbLine
 10
8280.686053007666
 20
1303.551604364637
 30
0.0
 11
8274.255272389321
 21
1327.551604364636
 31
0.0
  0
LINE
  5
23036
330
747D
100
AcDbEntity
  8
細線
 48
50.0
100
AcDbLine
 10
8359.574097954912
 20
1303.551604364637
 30
0.0
 11
8353.143317336565
 21
1327.551604364636
 31
0.0
  0
LINE
  5
23037
330
747D
100
AcDbEntity
  8
部品1
 48
50.0
100
AcDbLine
 10
8639.86040760432
 20
1327.551604364636
 30
0.0
 11
8639.86040760432
 21
1199.551604364637
 31
0.0
  0
LINE
  5
23038
330
747D
100
AcDbEntity
  8
細線
 48
50.0
100
AcDbLine
 10
8568.371516783813
 20
1199.551604364635
 30
0.0
 11
8602.669013414997
 21
1327.551604364634
 31
0.0
  0
LINE
  5
23039
330
747D
100
AcDbEntity
  8
細線
 48
50.0
100
AcDbLine
 10
8410.595426889319
 20
1199.551604364635
 30
0.0
 11
8444.892923520493
 21
1327.551604364636
 31
0.0
  0
LINE
  5
2303A
330
747D
100
AcDbEntity
  8
細線
 48
50.0
100
AcDbLine
 10
8489.483471836567
 20
1199.551604364634
 30
0.0
 11
8523.780968467752
 21
1327.551604364634
 31
0.0
  0
LINE
  5
2303B
330
747D
100
AcDbEntity
  8
細線
 48
50.0
100
AcDbLine
 10
8417.026207507667
 20
1223.551604364637
 30
0.0
 11
8423.456988126025
 21
1199.551604364637
 31
0.0
  0
LINE
  5
2303C
330
747D
100
AcDbEntity
  8
細線
 48
50.0
100
AcDbLine
 10
8495.914252454916
 20
1223.551604364635
 30
0.0
 11
8502.345033073263
 21
1199.551604364635
 31
0.0
  0
LINE
  5
2303D
330
747D
100
AcDbEntity
  8
細線
 48
50.0
100
AcDbLine
 10
8574.802297402163
 20
1223.551604364635
 30
0.0
 11
8581.233078020511
 21
1199.551604364635
 31
0.0
  0
LINE
  5
2303E
330
747D
100
AcDbEntity
  8
細線
 48
50.0
100
AcDbLine
 10
8438.462142902151
 20
1303.551604364637
 30
0.0
 11
8432.031362283805
 21
1327.551604364636
 31
0.0
  0
LINE
  5
2303F
330
747D
100
AcDbEntity
  8
細線
 48
50.0
100
AcDbLine
 10
8517.350187849407
 20
1303.551604364635
 30
0.0
 11
8510.91940723106
 21
1327.551604364635
 31
0.0
  0
LINE
  5
23040
330
747D
100
AcDbEntity
  8
細線
 48
50.0
100
AcDbLine
 10
8596.238232796652
 20
1303.551604364635
 30
0.0
 11
8589.807452178305
 21
1327.551604364635
 31
0.0
  0
LINE
  5
23041
330
747D
100
AcDbEntity
  8
部品1
100
AcDbLine
 10
8302.260407604318
 20
1787.551604364635
 30
0.0
 11
8176.260407604312
 21
1787.551604364635
 31
0.0
  0
LINE
  5
23042
330
747D
100
AcDbEntity
  8
部品1
100
AcDbLine
 10
8284.260407604318
 20
1868.551604364636
 30
0.0
 11
8284.260407604318
 21
1886.551604364636
 31
0.0
  0
ARC
  5
23043
330
747D
100
AcDbEntity
  8
部品1
100
AcDbCircle
 10
8248.260407604318
 20
1886.551604364636
 30
0.0
 40
18.0
100
AcDbArc
 50
180.0
 51
270.0
  0
LINE
  5
23044
330
747D
100
AcDbEntity
  8
部品1
100
AcDbLine
 10
8248.260407604318
 20
1868.551604364636
 30
0.0
 11
8284.260407604318
 21
1868.551604364636
 31
0.0
  0
LINE
  5
23045
330
747D
100
AcDbEntity
  8
部品1
100
AcDbLine
 10
8248.260407604318
 20
1886.551604364636
 30
0.0
 11
8284.260407604318
 21
1886.551604364636
 31
0.0
  0
LINE
  5
23046
330
747D
100
AcDbEntity
  8
部品1
 48
50.0
100
AcDbLine
 10
8431.860407604316
 20
1567.551604364636
 30
0.0
 11
8559.860407604316
 21
1567.551604364636
 31
0.0
  0
LINE
  5
23047
330
747D
100
AcDbEntity
  8
部品1
100
AcDbLine
 10
8037.660407604318
 20
2201.551604364637
 30
0.0
 11
8075.460407604317
 21
2201.551604364637
 31
0.0
  0
LINE
  5
23048
330
747D
100
AcDbEntity
  8
細線
 48
50.0
100
AcDbLine
 10
8017.860407604317
 20
2072.391412301335
 30
0.0
 11
8057.020599667623
 21
2111.551604364636
 31
0.0
  0
LINE
  5
23049
330
747D
100
AcDbEntity
  8
細線
 48
50.0
100
AcDbLine
 10
8017.860407604317
 20
2045.450643938127
 30
0.0
 11
8083.961368030829
 21
2111.551604364636
 31
0.0
  0
LINE
  5
2304A
330
747D
100
AcDbEntity
  8
部品1
 48
50.0
100
AcDbLine
 10
8017.860407604317
 20
2111.551604364636
 30
0.0
 11
8431.86040760432
 21
2111.551604364636
 31
0.0
  0
TEXT
  5
2304B
330
747D
100
AcDbEntity
  8
部品1
 48
50.0
100
AcDbText
 10
7591.414311024826
 20
2442.112125465113
 30
0.0
 40
80.0
  1
※(別売)
  7
STYLE2
100
AcDbText
  0
LINE
  5
2304C
330
747D
100
AcDbEntity
  8
部品1
100
AcDbLine
 10
8034.960407604318
 20
2190.751604364637
 30
0.0
 11
8034.960407604318
 21
2198.851604364637
 31
0.0
  0
ARC
  5
2304D
330
747D
100
AcDbEntity
  8
部品1
100
AcDbCircle
 10
8037.660407604318
 20
2198.851604364637
 30
0.0
 40
2.7
100
AcDbArc
 50
90.0
 51
180.0
  0
ARC
  5
2304E
330
747D
100
AcDbEntity
  8
部品1
100
AcDbCircle
 10
8026.860407604317
 20
2185.943508067345
 30
0.0
 40
2.7
100
AcDbArc
 50
104.0362434679067
 51
180.0
  0
LINE
  5
2304F
330
747D
100
AcDbEntity
  8
部品1
100
AcDbLine
 10
8026.205561416718
 20
2188.562892817737
 30
0.0
 11
8034.960407604318
 21
2190.751604364637
 31
0.0
  0
ARC
  5
23050
330
747D
100
AcDbEntity
  8
部品1
100
AcDbCircle
 10
8026.860407604317
 20
2123.811604364637
 30
0.0
 40
2.7
100
AcDbArc
 50
180.0
 51
270.0
  0
LINE
  5
23051
330
747D
100
AcDbEntity
  8
細線
 48
50.0
100
AcDbLine
 10
8017.860407604317
 20
2099.332180664542
 30
0.0
 11
8030.079831304412
 21
2111.551604364636
 31
0.0
  0
LINE
  5
23052
330
747D
100
AcDbEntity
  8
部品1
100
AcDbLine
 10
8026.860407604317
 20
2121.111604364637
 30
0.0
 11
8038.560407604313
 21
2121.111604364637
 31
0.0
  0
LINE
  5
23053
330
747D
100
AcDbEntity
  8
部品1
100
AcDbLine
 10
8024.160407604318
 20
2123.811604364637
 30
0.0
 11
8024.160407604318
 21
2185.943508067345
 31
0.0
  0
LINE
  5
23054
330
747D
100
AcDbEntity
  8
部品1
100
AcDbLine
 10
8182.82040760431
 20
2121.111604364637
 30
0.0
 11
8384.16040760431
 21
2121.111604364637
 31
0.0
  0
LINE
  5
23055
330
747D
100
AcDbEntity
  8
部品1
100
AcDbLine
 10
8075.460407604317
 20
2201.551604364637
 30
0.0
 11
8075.460407604317
 21
2209.651604364637
 31
0.0
  0
LINE
  5
23056
330
747D
100
AcDbEntity
  8
部品1
100
AcDbLine
 10
8125.860407604317
 20
2220.451604364634
 30
0.0
 11
8125.860407604317
 21
2169.151604364637
 31
0.0
  0
LINE
  5
23057
330
747D
100
AcDbEntity
  8
部品1
100
AcDbLine
 10
8149.260407604318
 20
2181.111604364637
 30
0.0
 11
8177.420407604317
 21
2181.111604364637
 31
0.0
  0
ARC
  5
23058
330
747D
100
AcDbEntity
  8
部品1
100
AcDbCircle
 10
8149.260407604318
 20
2178.411604364637
 30
0.0
 40
2.7
100
AcDbArc
 50
90.0
 51
180.0
  0
ARC
  5
23059
330
747D
100
AcDbEntity
  8
部品1
100
AcDbCircle
 10
8177.420407604317
 20
2178.411604364637
 30
0.0
 40
2.7
100
AcDbArc
 50
0.0
 51
90.0
  0
LINE
  5
2305A
330
747D
100
AcDbEntity
  8
部品1
100
AcDbLine
 10
8168.160407604318
 20
2166.451604364636
 30
0.0
 11
8168.160407604318
 21
2123.811604364637
 31
0.0
  0
LINE
  5
2305B
330
747D
100
AcDbEntity
  8
部品1
100
AcDbLine
 10
8153.760407604316
 20
2121.111604364637
 30
0.0
 11
8165.460407604319
 21
2121.111604364637
 31
0.0
  0
ARC
  5
2305C
330
747D
100
AcDbEntity
  8
部品1
100
AcDbCircle
 10
8182.82040760431
 20
2123.811604364637
 30
0.0
 40
2.7
100
AcDbArc
 50
180.0
 51
270.0
  0
ARC
  5
2305D
330
747D
100
AcDbEntity
  8
部品1
100
AcDbCircle
 10
8165.460407604319
 20
2123.811604364637
 30
0.0
 40
2.7
100
AcDbArc
 50
270.0
 51
0.0
  0
LINE
  5
2305E
330
747D
100
AcDbEntity
  8
部品1
100
AcDbLine
 10
8125.860407604317
 20
2169.151604364637
 30
0.0
 11
8165.460407604319
 21
2169.151604364637
 31
0.0
  0
ARC
  5
2305F
330
747D
100
AcDbEntity
  8
部品1
100
AcDbCircle
 10
8165.460407604319
 20
2166.451604364636
 30
0.0
 40
2.7
100
AcDbArc
 50
0.0
 51
90.0
  0
LINE
  5
23060
330
747D
100
AcDbEntity
  8
部品1
100
AcDbLine
 10
8180.120407604318
 20
2178.411604364637
 30
0.0
 11
8180.120407604315
 21
2123.811604364637
 31
0.0
  0
LINE
  5
23061
330
747D
100
AcDbEntity
  8
部品1
100
AcDbLine
 10
8146.560407604317
 20
2178.411604364637
 30
0.0
 11
8146.560407604317
 21
2161.311604364637
 31
0.0
  0
LINE
  5
23062
330
747D
100
AcDbEntity
  8
細線
100
AcDbLine
 10
8244.660407604319
 20
2121.111604364637
 30
0.0
 11
8244.660407604319
 21
2164.311604364637
 31
0.0
  0
LINE
  5
23063
330
747D
100
AcDbEntity
  8
細線
100
AcDbLine
 10
8233.86040760432
 20
2121.111604364637
 30
0.0
 11
8233.860407604318
 21
2164.311604364637
 31
0.0
  0
LINE
  5
23064
330
747D
100
AcDbEntity
  8
部品1
100
AcDbLine
 10
8230.260407604317
 20
2160.711604364637
 30
0.0
 11
8248.260407604318
 21
2160.711604364637
 31
0.0
  0
LINE
  5
23065
330
747D
100
AcDbEntity
  8
部品1
100
AcDbLine
 10
8233.860407604318
 20
2164.311604364637
 30
0.0
 11
8244.660407604319
 21
2164.311604364637
 31
0.0
  0
ELLIPSE
  5
23066
330
747D
100
AcDbEntity
  8
部品1
 48
50.0
100
AcDbEllipse
 10
8239.260407604318
 20
2380.674892808909
 30
0.0
 11
40.0
 21
0.0
 31
0.0
210
0.0
220
0.0
230
1.0
 40
0.4
 41
0.0
 42
6.283185307179586
  0
ELLIPSE
  5
23067
330
747D
100
AcDbEntity
  8
部品1
 48
50.0
100
AcDbEllipse
 10
8239.260407604318
 20
2371.07489280891
 30
0.0
 11
40.0
 21
0.0
 31
0.0
210
0.0
220
0.0
230
1.0
 40
0.4
 41
3.141592653589793
 42
6.283185307179586
  0
LINE
  5
23068
330
747D
100
AcDbEntity
  8
部品1
 48
50.0
100
AcDbLine
 10
8199.260407604318
 20
2380.674892808909
 30
0.0
 11
8199.260407604318
 21
2371.074892808909
 31
0.0
  0
ARC
  5
23069
330
747D
100
AcDbEntity
  8
部品1
100
AcDbCircle
 10
8123.160407604318
 20
2220.451604364634
 30
0.0
 40
2.7
100
AcDbArc
 50
0.0
 51
90.0
  0
ARC
  5
2306A
330
747D
100
AcDbEntity
  8
部品1
100
AcDbCircle
 10
8080.860407604317
 20
2220.451604364637
 30
0.0
 40
2.7
100
AcDbArc
 50
90.0
 51
180.0
  0
LINE
  5
2306B
330
747D
100
AcDbEntity
  8
部品1
100
AcDbLine
 10
8078.16040760432
 20
2212.351604364637
 30
0.0
 11
8078.16040760432
 21
2212.351604364637
 31
0.0
  0
LINE
  5
2306C
330
747D
100
AcDbEntity
  8
部品1
100
AcDbLine
 10
8078.16040760432
 20
2212.351604364637
 30
0.0
 11
8078.16040760432
 21
2220.451604364637
 31
0.0
  0
LINE
  5
2306D
330
747D
100
AcDbEntity
  8
部品1
100
AcDbLine
 10
8080.860407604317
 20
2223.151604364637
 30
0.0
 11
8123.160407604318
 21
2223.151604364633
 31
0.0
  0
ARC
  5
2306E
330
747D
100
AcDbEntity
  8
部品1
100
AcDbCircle
 10
8078.16040760432
 20
2209.651604364637
 30
0.0
 40
2.7
100
AcDbArc
 50
90.0
 51
180.0
  0
ELLIPSE
  5
2306F
330
747D
100
AcDbEntity
  8
部品1
 48
50.0
100
AcDbEllipse
 10
8239.260407604318
 20
2380.674892808909
 30
0.0
 11
18.4
 21
0.0
 31
0.0
210
0.0
220
0.0
230
1.0
 40
0.3478260869565217
 41
0.0
 42
6.283185307179586
  0
LINE
  5
23070
330
747D
100
AcDbEntity
  8
部品1
 48
50.0
100
AcDbLine
 10
8279.260407604317
 20
2371.074892808909
 30
0.0
 11
8279.260407604317
 21
2380.674892808909
 31
0.0
  0
LINE
  5
23071
330
747D
100
AcDbEntity
  8
部品1
 48
50.0
100
AcDbLine
 10
8207.260407604318
 20
2502.426885473779
 30
0.0
 11
8223.260407604318
 21
2494.426885473779
 31
0.0
  0
LINE
  5
23072
330
747D
100
AcDbEntity
  8
部品1
 48
50.0
100
AcDbLine
 10
8207.260407604318
 20
2470.426885473779
 30
0.0
 11
8223.260407604318
 21
2462.426885473779
 31
0.0
  0
LINE
  5
23073
330
747D
100
AcDbEntity
  8
部品1
 48
50.0
100
AcDbLine
 10
8207.260407604318
 20
2502.426885473779
 30
0.0
 11
8223.260407604318
 21
2510.426885473779
 31
0.0
  0
LINE
  5
23074
330
747D
100
AcDbEntity
  8
部品1
 48
50.0
100
AcDbLine
 10
8207.260407604318
 20
2470.426885473779
 30
0.0
 11
8207.260407604318
 21
2502.426885473779
 31
0.0
  0
LINE
  5
23075
330
747D
100
AcDbEntity
  8
部品1
 48
50.0
100
AcDbLine
 10
8223.260407604318
 20
2510.426885473779
 30
0.0
 11
8255.260407604316
 21
2510.426885473779
 31
0.0
  0
ELLIPSE
  5
23076
330
747D
100
AcDbEntity
  8
細線
 48
50.0
100
AcDbEllipse
 10
8239.260407604318
 20
2502.426885473779
 30
0.0
 11
14.76670786606846
 21
0.0
 31
0.0
210
0.0
220
0.0
230
1.0
 40
0.2071254069489396
 41
0.0
 42
6.283185307179586
  0
LINE
  5
23077
330
747D
100
AcDbEntity
  8
部品1
 48
50.0
100
AcDbLine
 10
8223.260407604318
 20
2462.426885473779
 30
0.0
 11
8255.260407604316
 21
2462.426885473779
 31
0.0
  0
LINE
  5
23078
330
747D
100
AcDbEntity
  8
部品1
 48
50.0
100
AcDbLine
 10
8255.260407604316
 20
2462.426885473779
 30
0.0
 11
8271.260407604318
 21
2470.426885473779
 31
0.0
  0
LINE
  5
23079
330
747D
100
AcDbEntity
  8
部品1
 48
50.0
100
AcDbLine
 10
8223.260407604318
 20
2494.426885473779
 30
0.0
 11
8255.260407604316
 21
2494.426885473779
 31
0.0
  0
LINE
  5
2307A
330
747D
100
AcDbEntity
  8
部品1
 48
50.0
100
AcDbLine
 10
8255.260407604316
 20
2494.426885473779
 30
0.0
 11
8271.260407604318
 21
2502.426885473779
 31
0.0
  0
LINE
  5
2307B
330
747D
100
AcDbEntity
  8
細線
 48
50.0
100
AcDbLine
 10
8255.260407604316
 20
2462.426885473779
 30
0.0
 11
8255.260407604316
 21
2494.426885473779
 31
0.0
  0
LINE
  5
2307C
330
747D
100
AcDbEntity
  8
部品1
 48
50.0
100
AcDbLine
 10
8271.260407604318
 20
2470.426885473779
 30
0.0
 11
8271.260407604318
 21
2502.426885473779
 31
0.0
  0
LINE
  5
2307D
330
747D
100
AcDbEntity
  8
細線
 48
50.0
100
AcDbLine
 10
8223.260407604318
 20
2462.426885473779
 30
0.0
 11
8223.260407604318
 21
2494.426885473779
 31
0.0
  0
LINE
  5
2307E
330
747D
100
AcDbEntity
  8
部品1
 48
50.0
100
AcDbLine
 10
8255.260407604316
 20
2510.426885473779
 30
0.0
 11
8271.260407604318
 21
2502.426885473779
 31
0.0
  0
TEXT
  5
2307F
330
747D
100
AcDbEntity
  8
部品1
100
AcDbText
 10
7940.032656796248
 20
3252.971292190054
 30
0.0
 40
120.0
  1
基礎詳細
  7
STYLE2
100
AcDbText
  0
LINE
  5
23080
330
747D
100
AcDbEntity
  8
部品1
100
AcDbLine
 10
11318.13784100411
 20
468.2162545568344
 30
0.0
 11
11318.13784100411
 21
3432.523224141482
 31
0.0
  0
LINE
  5
23081
330
747D
100
AcDbEntity
  8
細線
100
AcDbLine
 10
10326.02967358386
 20
1871.551604364636
 30
0.0
 11
10131.39633990707
 21
2066.18493804142
 31
0.0
  0
LINE
  5
23082
330
747D
100
AcDbEntity
  8
部品1
100
AcDbLine
 10
10131.39633990707
 20
2111.551604364636
 30
0.0
 11
10611.39633990707
 21
2111.551604364636
 31
0.0
  0
LINE
  5
23083
330
747D
100
AcDbEntity
  8
細線
 48
50.0
100
AcDbLine
 10
10265.46722435033
 20
1651.852688711286
 30
0.0
 11
10299.76472098152
 21
1779.852688711286
 31
0.0
  0
LINE
  5
23084
330
747D
100
AcDbEntity
  8
部品1
100
AcDbLine
 10
10011.39633990707
 20
1651.852688711283
 30
0.0
 11
10731.39633990707
 21
1651.852688711286
 31
0.0
  0
LINE
  5
23085
330
747D
100
AcDbEntity
  8
部品1
100
AcDbLine
 10
10011.39633990707
 20
1779.852688711287
 30
0.0
 11
10731.39633990707
 21
1779.852688711289
 31
0.0
  0
LINE
  5
23086
330
747D
100
AcDbEntity
  8
細線
100
AcDbLine
 10
10192.31498540031
 20
1779.852688711287
 30
0.0
 11
10284.01390105366
 21
1871.551604364636
 31
0.0
  0
LWPOLYLINE
  5
23087
330
747D
100
AcDbEntity
  8
部品1
 48
50.0
100
AcDbPolyline
 90
        2
 70
     0
 43
12.0
 10
9746.785077806686
 20
1871.551604364636
 10
10947.87738093831
 20
1871.551604364636
  0
LINE
  5
23088
330
747D
100
AcDbEntity
  8
細線
100
AcDbLine
 10
10275.11798533843
 20
1871.551604364636
 30
0.0
 11
10131.39633990707
 21
2015.27324979599
 31
0.0
  0
TEXT
  5
23089
330
747D
100
AcDbEntity
  8
部品1
 48
50.0
100
AcDbText
 10
9367.278253148572
 20
1604.751863727328
 30
0.0
 40
80.0
  1
ボルトの出
 50
90.0
  7
STYLE2
100
AcDbText
  0
LINE
  5
2308A
330
747D
100
AcDbEntity
  8
部品1
100
AcDbLine
 10
10131.39633990707
 20
1871.551604364636
 30
0.0
 11
10131.39633990707
 21
2111.551604364636
 31
0.0
  0
LINE
  5
2308B
330
747D
100
AcDbEntity
  8
細線
 48
50.0
100
AcDbLine
 10
10107.69113445583
 20
1651.852688711286
 30
0.0
 11
10141.98863108701
 21
1779.852688711286
 31
0.0
  0
LINE
  5
2308C
330
747D
100
AcDbEntity
  8
細線
 48
50.0
100
AcDbLine
 10
10186.57917940308
 20
1651.852688711286
 30
0.0
 11
10220.87667603427
 21
1779.852688711287
 31
0.0
  0
LINE
  5
2308D
330
747D
100
AcDbEntity
  8
細線
 48
50.0
100
AcDbLine
 10
10028.80308950858
 20
1651.852688711286
 30
0.0
 11
10063.10058613977
 21
1779.852688711287
 31
0.0
  0
LINE
  5
2308E
330
747D
100
AcDbEntity
  8
部品1
100
AcDbLine
 10
10011.39633990707
 20
1651.852688711283
 30
0.0
 11
10011.39633990707
 21
1871.551604364636
 31
0.0
  0
LINE
  5
2308F
330
747D
100
AcDbEntity
  8
細線
 48
50.0
100
AcDbLine
 10
10114.12191507418
 20
1675.852688711287
 30
0.0
 11
10120.55269569253
 21
1651.852688711286
 31
0.0
  0
LINE
  5
23090
330
747D
100
AcDbEntity
  8
細線
 48
50.0
100
AcDbLine
 10
10035.23387012693
 20
1675.852688711287
 30
0.0
 11
10041.66465074528
 21
1651.852688711286
 31
0.0
  0
LINE
  5
23091
330
747D
100
AcDbEntity
  8
細線
 48
50.0
100
AcDbLine
 10
10193.00996002143
 20
1675.852688711287
 30
0.0
 11
10199.44074063978
 21
1651.852688711286
 31
0.0
  0
LINE
  5
23092
330
747D
100
AcDbEntity
  8
細線
 48
50.0
100
AcDbLine
 10
10271.89800496868
 20
1675.852688711287
 30
0.0
 11
10278.32878558703
 21
1651.852688711286
 31
0.0
  0
LINE
  5
23093
330
747D
100
AcDbEntity
  8
細線
 48
50.0
100
AcDbLine
 10
10056.66980552142
 20
1755.852688711286
 30
0.0
 11
10050.23902490307
 21
1779.852688711287
 31
0.0
  0
LINE
  5
23094
330
747D
100
AcDbEntity
  8
細線
 48
50.0
100
AcDbLine
 10
10214.44589541592
 20
1755.852688711286
 30
0.0
 11
10208.01511479758
 21
1779.852688711287
 31
0.0
  0
LINE
  5
23095
330
747D
100
AcDbEntity
  8
細線
 48
50.0
100
AcDbLine
 10
10135.55785046867
 20
1755.852688711286
 30
0.0
 11
10129.12706985033
 21
1779.852688711287
 31
0.0
  0
LINE
  5
23096
330
747D
100
AcDbEntity
  8
細線
100
AcDbLine
 10
10124.4327344064
 20
1779.852688711287
 30
0.0
 11
10216.13165005975
 21
1871.551604364636
 31
0.0
  0
LINE
  5
23097
330
747D
100
AcDbEntity
  8
細線
100
AcDbLine
 10
10158.37385990336
 20
1779.852688711287
 30
0.0
 11
10250.0727755567
 21
1871.551604364636
 31
0.0
  0
LINE
  5
23098
330
747D
100
AcDbEntity
  8
細線
100
AcDbLine
 10
10546.64698931406
 20
1871.551604364636
 30
0.0
 11
10306.64698931406
 21
2111.551604364636
 31
0.0
  0
LINE
  5
23099
330
747D
100
AcDbEntity
  8
細線
100
AcDbLine
 10
10597.55867755949
 20
1871.551604364638
 30
0.0
 11
10357.55867755949
 21
2111.551604364636
 31
0.0
  0
LINE
  5
2309A
330
747D
100
AcDbEntity
  8
部品1
100
AcDbLine
 10
10611.39633990707
 20
2111.551604364636
 30
0.0
 11
10611.39633990707
 21
1871.551604364636
 31
0.0
  0
LINE
  5
2309B
330
747D
100
AcDbEntity
  8
細線
 48
50.0
100
AcDbLine
 10
10581.01940413932
 20
1651.852688711284
 30
0.0
 11
10615.31690077051
 21
1779.852688711284
 31
0.0
  0
LINE
  5
2309C
330
747D
100
AcDbEntity
  8
細線
100
AcDbLine
 10
10552.31498540031
 20
1779.852688711288
 30
0.0
 11
10644.01390105366
 21
1871.551604364636
 31
0.0
  0
LINE
  5
2309D
330
747D
100
AcDbEntity
  8
細線
 48
50.0
100
AcDbLine
 10
10502.13135919207
 20
1651.852688711286
 30
0.0
 11
10536.42885582324
 21
1779.852688711287
 31
0.0
  0
LINE
  5
2309E
330
747D
100
AcDbEntity
  8
細線
 48
50.0
100
AcDbLine
 10
10344.35526929758
 20
1651.852688711286
 30
0.0
 11
10378.65276592876
 21
1779.852688711286
 31
0.0
  0
LINE
  5
2309F
330
747D
100
AcDbEntity
  8
細線
 48
50.0
100
AcDbLine
 10
10423.24331424482
 20
1651.852688711286
 30
0.0
 11
10457.54081087601
 21
1779.852688711286
 31
0.0
  0
LINE
  5
230A0
330
747D
100
AcDbEntity
  8
細線
 48
50.0
100
AcDbLine
 10
10429.67409486317
 20
1675.852688711287
 30
0.0
 11
10436.10487548152
 21
1651.852688711286
 31
0.0
  0
LINE
  5
230A1
330
747D
100
AcDbEntity
  8
細線
 48
50.0
100
AcDbLine
 10
10350.78604991593
 20
1675.852688711287
 30
0.0
 11
10357.21683053428
 21
1651.852688711286
 31
0.0
  0
LINE
  5
230A2
330
747D
100
AcDbEntity
  8
細線
 48
50.0
100
AcDbLine
 10
10508.56213981042
 20
1675.852688711287
 30
0.0
 11
10514.99292042878
 21
1651.852688711286
 31
0.0
  0
LINE
  5
230A3
330
747D
100
AcDbEntity
  8
細線
 48
50.0
100
AcDbLine
 10
10587.45018475767
 20
1675.852688711286
 30
0.0
 11
10593.88096537602
 21
1651.852688711286
 31
0.0
  0
LINE
  5
230A4
330
747D
100
AcDbEntity
  8
細線
 48
50.0
100
AcDbLine
 10
10451.11003025766
 20
1755.852688711286
 30
0.0
 11
10444.67924963932
 21
1779.852688711287
 31
0.0
  0
LINE
  5
230A5
330
747D
100
AcDbEntity
  8
細線
 48
50.0
100
AcDbLine
 10
10372.22198531042
 20
1755.852688711286
 30
0.0
 11
10365.79120469207
 21
1779.852688711287
 31
0.0
  0
LINE
  5
230A6
330
747D
100
AcDbEntity
  8
細線
 48
50.0
100
AcDbLine
 10
10293.33394036317
 20
1755.852688711286
 30
0.0
 11
10286.90315974482
 21
1779.852688711287
 31
0.0
  0
LINE
  5
230A7
330
747D
100
AcDbEntity
  8
細線
100
AcDbLine
 10
10518.37385990336
 20
1779.852688711288
 30
0.0
 11
10610.0727755567
 21
1871.551604364636
 31
0.0
  0
LINE
  5
230A8
330
747D
100
AcDbEntity
  8
細線
 48
50.0
100
AcDbLine
 10
10529.9980752049
 20
1755.852688711286
 30
0.0
 11
10523.56729458656
 21
1779.852688711287
 31
0.0
  0
LINE
  5
230A9
330
747D
100
AcDbEntity
  8
細線
100
AcDbLine
 10
10484.43273440641
 20
1779.852688711288
 30
0.0
 11
10576.13165005975
 21
1871.551604364636
 31
0.0
  0
LINE
  5
230AA
330
747D
100
AcDbEntity
  8
細線
 48
50.0
100
AcDbLine
 10
10608.88612015216
 20
1755.852688711286
 30
0.0
 11
10602.45533953381
 21
1779.852688711286
 31
0.0
  0
LINE
  5
230AB
330
747D
100
AcDbEntity
  8
細線
 48
50.0
100
AcDbLine
 10
10659.90744908656
 20
1651.852688711286
 30
0.0
 11
10694.20494571775
 21
1779.852688711284
 31
0.0
  0
LINE
  5
230AC
330
747D
100
AcDbEntity
  8
部品1
100
AcDbLine
 10
10731.39633990707
 20
1871.551604364636
 30
0.0
 11
10731.39633990707
 21
1651.852688711286
 31
0.0
  0
LINE
  5
230AD
330
747D
100
AcDbEntity
  8
細線
 48
50.0
100
AcDbLine
 10
10666.33822970491
 20
1675.852688711286
 30
0.0
 11
10672.76901032327
 21
1651.852688711286
 31
0.0
  0
LINE
  5
230AE
330
747D
100
AcDbEntity
  8
細線
 48
50.0
100
AcDbLine
 10
10687.7741650994
 20
1755.852688711286
 30
0.0
 11
10681.34338448106
 21
1779.852688711286
 31
0.0
  0
LEADER
  5
230AF
330
747D
100
AcDbEntity
  8
寸法
 48
50.0
100
AcDbLeader
  3
INABA_S50G
 73
     0
 74
     0
 75
     1
 40
120.0
 41
185.591883092037
 76
     3
 10
10542.120751523
 20
2111.551604364636
 30
0.0
 10
10575.25895815664
 20
2283.697925045775
 30
0.0
 10
10700.25895815664
 20
2283.697925045775
 30
0.0
340
230B0
1001
ACAD
1000
DSTYLE
1002
{
1070
    40
1040
1.0
1002
}
  0
MTEXT
  5
230B0
102
{ACAD_REACTORS
330
230AF
102
}
330
747D
100
AcDbEntity
  8
寸法
 62
     7
 48
50.0
100
AcDbMText
 10
10725.25895815664
 20
2368.697925045774
 30
0.0
 40
120.0
 41
0.8
 71
     4
 72
     1
  1
\A1;C.B
  7
STYLE1
 73
     1
 44
1.0
1001
ACAD
1000
MTEXTBEGIN
1070
    73
1070
     1
1070
    44
1040
1.0
1070
    74
1070
     0
1000
MTEXTEND
  0
ENDSEC
  0
SECTION
  2
OBJECTS
  0
DICTIONARY
  5
7471
330
0
100
AcDbDictionary
281
     1
  3
ACAD_COLOR
350
173D2
  3
ACAD_GROUP
350
7472
  3
ACAD_LAYOUT
350
173D3
  3
ACAD_MATERIAL
350
173D1
  3
ACAD_MLINESTYLE
350
7473
  3
ACAD_PLOTSETTINGS
350
173D4
  3
ACAD_PLOTSTYLENAME
350
173CF
  3
ACDBHEADERROUNDTRIPXREC
350
23152
  3
AcDbVariableDictionary
350
2314E
  3
CONTENTDICTIONARY
350
E71C
  3
DRAWINGVARIABLESDICT
350
F3B9
  0
DICTIONARY
  5
1758F
330
7467
100
AcDbDictionary
280
     1
281
     1
  3
ACAD_LAYERSTATES
360
17590
  0
DICTIONARY
  5
173D2
102
{ACAD_REACTORS
330
7471
102
}
330
7471
100
AcDbDictionary
281
     1
  0
DICTIONARY
  5
7472
102
{ACAD_REACTORS
330
7471
102
}
330
7471
100
AcDbDictionary
281
     1
  3
*A1
350
1D2A9
  3
*A2
350
21CB1
  0
DICTIONARY
  5
173D3
102
{ACAD_REACTORS
330
7471
102
}
330
7471
100
AcDbDictionary
281
     1
  3
Model
350
173D5
  3
レイアウト1
350
173D6
  0
DICTIONARY
  5
173D1
102
{ACAD_REACTORS
330
7471
102
}
330
7471
100
AcDbDictionary
281
     1
  0
DICTIONARY
  5
7473
102
{ACAD_REACTORS
330
7471
102
}
330
7471
100
AcDbDictionary
281
     1
  3
STANDARD
350
7480
  0
DICTIONARY
  5
173D4
102
{ACAD_REACTORS
330
7471
102
}
330
7471
100
AcDbDictionary
281
     1
  0
ACDBDICTIONARYWDFLT
  5
173CF
102
{ACAD_REACTORS
330
7471
102
}
330
7471
100
AcDbDictionary
281
     1
  3
Normal
350
173D0
100
AcDbDictionaryWithDefault
340
173D0
  0
DICTIONARY
  5
23152
102
{ACAD_REACTORS
330
7471
102
}
330
7471
100
AcDbDictionary
281
     1
  3
COLORDICT
350
23154
  3
MATERIALDICT
350
23153
  0
DICTIONARY
  5
2314E
102
{ACAD_REACTORS
330
7471
102
}
330
7471
100
AcDbDictionary
281
     1
  3
DIMASSOC
350
2314F
  3
PROJECTNAME
350
23150
  0
DICTIONARY
  5
E71C
102
{ACAD_REACTORS
330
7471
102
}
330
7471
100
AcDbDictionary
281
     1
  0
DICTIONARY
  5
F3B9
102
{ACAD_REACTORS
330
7471
102
}
330
7471
100
AcDbDictionary
281
     1
1001
DRAWINGVARIABLESXDATA
1000
POLARMODE
1000
1
  0
DICTIONARY
  5
17590
102
{ACAD_REACTORS
330
1758F
102
}
330
1758F
100
AcDbDictionary
281
     1
  0
GROUP
  5
1D2A9
102
{ACAD_REACTORS
330
7472
102
}
330
7472
100
AcDbGroup
300

 70
     1
 71
     1
  0
GROUP
  5
21CB1
102
{ACAD_REACTORS
330
7472
102
}
330
7472
100
AcDbGroup
300

 70
     1
 71
     1
340
215A5
340
215A4
340
215A6
  0
LAYOUT
  5
173D5
102
{ACAD_XDICTIONARY
360
23155
102
}
102
{ACAD_REACTORS
330
173D3
102
}
330
173D3
100
AcDbPlotSettings
  1

  2
Microsoft Office Document Image Writer
  4

  6

 40
0.0
 41
0.0
 42
0.0
 43
0.0
 44
0.0
 45
0.0
 46
0.0
 47
0.0
 48
0.0
 49
0.0
140
0.0
141
0.0
142
1.0
143
1.0
 70
  1712
 72
     0
 73
     0
 74
     0
  7

 75
     0
147
1.0
148
0.0
149
0.0
100
AcDbLayout
  1
Model
 70
     1
 71
     0
 10
0.0
 20
0.0
 11
12.0
 21
9.0
 12
0.0
 22
0.0
 32
0.0
 14
0.0
 24
0.0
 34
0.0
 15
0.0
 25
0.0
 35
0.0
146
0.0
 13
0.0
 23
0.0
 33
0.0
 16
1.0
 26
0.0
 36
0.0
 17
0.0
 27
1.0
 37
0.0
 76
     0
330
747D
  0
LAYOUT
  5
173D6
102
{ACAD_XDICTIONARY
360
23157
102
}
102
{ACAD_REACTORS
330
173D3
102
}
330
173D3
100
AcDbPlotSettings
  1

  2
Microsoft Office Document Image Writer
  4

  6

 40
0.0
 41
0.0
 42
0.0
 43
0.0
 44
0.0
 45
0.0
 46
0.0
 47
0.0
 48
0.0
 49
0.0
140
0.0
141
0.0
142
1.0
143
1.0
 70
   688
 72
     0
 73
     0
 74
     5
  7

 75
    16
147
1.0
148
0.0
149
0.0
100
AcDbLayout
  1
レイアウト1
 70
     0
 71
     1
 10
0.0
 20
0.0
 11
420.0
 21
297.0
 12
0.0
 22
0.0
 32
0.0
 14
1.000000000000000E+20
 24
1.000000000000000E+20
 34
1.000000000000000E+20
 15
-1.000000000000000E+20
 25
-1.000000000000000E+20
 35
-1.000000000000000E+20
146
0.0
 13
0.0
 23
0.0
 33
0.0
 16
1.0
 26
0.0
 36
0.0
 17
0.0
 27
1.0
 37
0.0
 76
     0
330
747A
  0
MLINESTYLE
  5
7480
102
{ACAD_REACTORS
330
7473
102
}
330
7473
100
AcDbMlineStyle
  2
STANDARD
 70
     0
  3

 62
     0
 51
90.0
 52
90.0
 71
     2
 49
0.5
 62
   256
  6
BYLAYER
 49
-0.5
 62
   256
  6
BYLAYER
  0
ACDBPLACEHOLDER
  5
173D0
102
{ACAD_REACTORS
330
173CF
102
}
330
173CF
  0
XRECORD
  5
23154
102
{ACAD_REACTORS
330
23152
102
}
330
23152
100
AcDbXrecord
280
     1
340
173D2
  0
XRECORD
  5
23153
102
{ACAD_REACTORS
330
23152
102
}
330
23152
100
AcDbXrecord
280
     1
340
173D1
  0
DICTIONARYVAR
  5
2314F
102
{ACAD_REACTORS
330
2314E
102
}
330
2314E
100
DictionaryVariables
280
     0
  1
1
  0
DICTIONARYVAR
  5
23150
102
{ACAD_REACTORS
330
2314E
102
}
330
2314E
100
DictionaryVariables
280
     0
  1

  0
DICTIONARY
  5
23155
330
173D5
100
AcDbDictionary
280
     1
281
     1
  3
ACAD_XREC_ROUNDTRIP
360
23156
  0
DICTIONARY
  5
23157
330
173D6
100
AcDbDictionary
280
     1
281
     1
  3
ACAD_XREC_ROUNDTRIP
360
23158
  0
XRECORD
  5
23156
102
{ACAD_REACTORS
330
23155
102
}
330
23155
100
AcDbXrecord
280
     1
102
SHADEPLOT
 70
     0
102
SHADEPLOTRESLEVEL
 70
     2
102
SHADEPLOTCUSTOMDPI
 70
   300
  0
XRECORD
  5
23158
102
{ACAD_REACTORS
330
23157
102
}
330
23157
100
AcDbXrecord
280
     1
102
SHADEPLOT
 70
     0
102
SHADEPLOTRESLEVEL
 70
     2
102
SHADEPLOTCUSTOMDPI
 70
   300
  0
ENDSEC
  0
EOF
