  0
SECTION
  2
HEADER
  9
$ACADVER
  1
AC1015
  9
$ACADMAINTVER
 70
    20
  9
$DWGCODEPAGE
  3
ANSI_932
  9
$INSBASE
 10
0.0
 20
0.0
 30
0.0
  9
$EXTMIN
 10
139.9999999999995
 20
-0.0000000000000909
 30
0.0
  9
$EXTMAX
 10
16307.2
 20
11409.6
 30
0.0
  9
$LIMMIN
 10
0.0
 20
0.0
  9
$LIMMAX
 10
16800.0
 20
11880.0
  9
$ORTHOMODE
 70
     0
  9
$REGENMODE
 70
     1
  9
$FILLMODE
 70
     1
  9
$QTEXTMODE
 70
     0
  9
$MIRRTEXT
 70
     1
  9
$LTSCALE
 40
20.0
  9
$ATTMODE
 70
     1
  9
$TEXTSIZE
 40
4.0
  9
$TRACEWID
 40
1.0
  9
$TEXTSTYLE
  7
STYLE1
  9
$CLAYER
  8
細線
  9
$CELTYPE
  6
BYLAYER
  9
$CECOLOR
 62
   256
  9
$CELTSCALE
 40
50.0
  9
$DISPSILH
 70
     0
  9
$DIMSCALE
 40
40.0
  9
$DIMASZ
 40
2.5
  9
$DIMEXO
 40
0.5
  9
$DIMDLI
 40
7.0
  9
$DIMRND
 40
0.0
  9
$DIMDLE
 40
0.0
  9
$DIMEXE
 40
1.5
  9
$DIMTP
 40
0.0
  9
$DIMTM
 40
0.0
  9
$DIMTXT
 40
3.0
  9
$DIMCEN
 40
0.0
  9
$DIMTSZ
 40
0.0
  9
$DIMTOL
 70
     0
  9
$DIMLIM
 70
     0
  9
$DIMTIH
 70
     0
  9
$DIMTOH
 70
     0
  9
$DIMSE1
 70
     0
  9
$DIMSE2
 70
     0
  9
$DIMTAD
 70
     3
  9
$DIMZIN
 70
     8
  9
$DIMBLK
  1

  9
$DIMASO
 70
     1
  9
$DIMSHO
 70
     1
  9
$DIMPOST
  1

  9
$DIMAPOST
  1

  9
$DIMALT
 70
     0
  9
$DIMALTD
 70
     2
  9
$DIMALTF
 40
0.0394
  9
$DIMLFAC
 40
1.0
  9
$DIMTOFL
 70
     1
  9
$DIMTVP
 40
0.0
  9
$DIMTIX
 70
     1
  9
$DIMSOXD
 70
     0
  9
$DIMSAH
 70
     1
  9
$DIMBLK1
  1
DOTSMALL
  9
$DIMBLK2
  1
DOTSMALL
  9
$DIMSTYLE
  2
INABA_S40G
  9
$DIMCLRD
 70
     0
  9
$DIMCLRE
 70
     0
  9
$DIMCLRT
 70
     7
  9
$DIMTFAC
 40
1.0
  9
$DIMGAP
 40
1.0
  9
$DIMJUST
 70
     0
  9
$DIMSD1
 70
     0
  9
$DIMSD2
 70
     0
  9
$DIMTOLJ
 70
     1
  9
$DIMTZIN
 70
     0
  9
$DIMALTZ
 70
     0
  9
$DIMALTTZ
 70
     0
  9
$DIMUPT
 70
     0
  9
$DIMDEC
 70
     1
  9
$DIMTDEC
 70
     4
  9
$DIMALTU
 70
     2
  9
$DIMALTTD
 70
     2
  9
$DIMTXSTY
  7
STYLE1
  9
$DIMAUNIT
 70
     0
  9
$DIMADEC
 70
     0
  9
$DIMALTRND
 40
0.0
  9
$DIMAZIN
 70
     0
  9
$DIMDSEP
 70
    46
  9
$DIMATFIT
 70
     3
  9
$DIMFRAC
 70
     0
  9
$DIMLDRBLK
  1

  9
$DIMLUNIT
 70
     2
  9
$DIMLWD
 70
    -2
  9
$DIMLWE
 70
    -2
  9
$DIMTMOVE
 70
     0
  9
$LUNITS
 70
     2
  9
$LUPREC
 70
     1
  9
$SKETCHINC
 40
1.0
  9
$FILLETRAD
 40
3.0
  9
$AUNITS
 70
     0
  9
$AUPREC
 70
     0
  9
$MENU
  1
acad
  9
$ELEVATION
 40
0.0
  9
$PELEVATION
 40
0.0
  9
$THICKNESS
 40
0.0
  9
$LIMCHECK
 70
     0
  9
$CHAMFERA
 40
0.0
  9
$CHAMFERB
 40
0.0
  9
$CHAMFERC
 40
0.0
  9
$CHAMFERD
 40
0.0
  9
$SKPOLY
 70
     0
  9
$TDCREATE
 40
2451368.612993866
  9
$TDUCREATE
 40
2451368.237993866
  9
$TDUPDATE
 40
2455826.640856840
  9
$TDUUPDATE
 40
2455826.265856841
  9
$TDINDWG
 40
0.7008415046
  9
$TDUSRTIMER
 40
0.7008415046
  9
$USRTIMER
 70
     1
  9
$ANGBASE
 50
0.0
  9
$ANGDIR
 70
     0
  9
$PDMODE
 70
     3
  9
$PDSIZE
 40
2.0
  9
$PLINEWID
 40
0.0
  9
$SPLFRAME
 70
     0
  9
$SPLINETYPE
 70
     6
  9
$SPLINESEGS
 70
     8
  9
$HANDSEED
  5
217A5
  9
$SURFTAB1
 70
     6
  9
$SURFTAB2
 70
     6
  9
$SURFTYPE
 70
     6
  9
$SURFU
 70
     6
  9
$SURFV
 70
     6
  9
$UCSBASE
  2

  9
$UCSNAME
  2

  9
$UCSORG
 10
0.0
 20
0.0
 30
0.0
  9
$UCSXDIR
 10
1.0
 20
0.0
 30
0.0
  9
$UCSYDIR
 10
0.0
 20
1.0
 30
0.0
  9
$UCSORTHOREF
  2

  9
$UCSORTHOVIEW
 70
     0
  9
$UCSORGTOP
 10
0.0
 20
0.0
 30
0.0
  9
$UCSORGBOTTOM
 10
0.0
 20
0.0
 30
0.0
  9
$UCSORGLEFT
 10
0.0
 20
0.0
 30
0.0
  9
$UCSORGRIGHT
 10
0.0
 20
0.0
 30
0.0
  9
$UCSORGFRONT
 10
0.0
 20
0.0
 30
0.0
  9
$UCSORGBACK
 10
0.0
 20
0.0
 30
0.0
  9
$PUCSBASE
  2

  9
$PUCSNAME
  2

  9
$PUCSORG
 10
0.0
 20
0.0
 30
0.0
  9
$PUCSXDIR
 10
1.0
 20
0.0
 30
0.0
  9
$PUCSYDIR
 10
0.0
 20
1.0
 30
0.0
  9
$PUCSORTHOREF
  2

  9
$PUCSORTHOVIEW
 70
     0
  9
$PUCSORGTOP
 10
0.0
 20
0.0
 30
0.0
  9
$PUCSORGBOTTOM
 10
0.0
 20
0.0
 30
0.0
  9
$PUCSORGLEFT
 10
0.0
 20
0.0
 30
0.0
  9
$PUCSORGRIGHT
 10
0.0
 20
0.0
 30
0.0
  9
$PUCSORGFRONT
 10
0.0
 20
0.0
 30
0.0
  9
$PUCSORGBACK
 10
0.0
 20
0.0
 30
0.0
  9
$USERI1
 70
     0
  9
$USERI2
 70
     0
  9
$USERI3
 70
     0
  9
$USERI4
 70
     0
  9
$USERI5
 70
     0
  9
$USERR1
 40
0.0
  9
$USERR2
 40
0.0
  9
$USERR3
 40
0.0
  9
$USERR4
 40
0.0
  9
$USERR5
 40
0.0
  9
$WORLDVIEW
 70
     1
  9
$SHADEDGE
 70
     3
  9
$SHADEDIF
 70
    70
  9
$TILEMODE
 70
     1
  9
$MAXACTVP
 70
    16
  9
$PINSBASE
 10
0.0
 20
0.0
 30
0.0
  9
$PLIMCHECK
 70
     0
  9
$PEXTMIN
 10
1.000000000000000E+20
 20
1.000000000000000E+20
 30
1.000000000000000E+20
  9
$PEXTMAX
 10
-1.000000000000000E+20
 20
-1.000000000000000E+20
 30
-1.000000000000000E+20
  9
$PLIMMIN
 10
0.0
 20
0.0
  9
$PLIMMAX
 10
420.0
 20
297.0
  9
$UNITMODE
 70
     0
  9
$VISRETAIN
 70
     0
  9
$PLINEGEN
 70
     0
  9
$PSLTSCALE
 70
     0
  9
$TREEDEPTH
 70
  3020
  9
$CMLSTYLE
  2
STANDARD
  9
$CMLJUST
 70
     0
  9
$CMLSCALE
 40
1.0
  9
$PROXYGRAPHICS
 70
     1
  9
$MEASUREMENT
 70
     1
  9
$CELWEIGHT
370
    -1
  9
$ENDCAPS
280
     0
  9
$JOINSTYLE
280
     0
  9
$LWDISPLAY
290
     0
  9
$INSUNITS
 70
     0
  9
$HYPERLINKBASE
  1

  9
$STYLESHEET
  1

  9
$XEDIT
290
     1
  9
$CEPSNTYPE
380
     0
  9
$PSTYLEMODE
290
     1
  9
$FINGERPRINTGUID
  2
{5EAC461A-2277-4BF8-9AB0-99C43BB394F0}
  9
$VERSIONGUID
  2
{A6DAB634-035C-4E89-81C5-5B502B13E4DB}
  9
$EXTNAMES
290
     1
  9
$PSVPSCALE
 40
0.0
  9
$OLESTARTUP
290
     0
  0
ENDSEC
  0
SECTION
  2
CLASSES
  0
CLASS
  1
ACDBDICTIONARYWDFLT
  2
AcDbDictionaryWithDefault
  3
ObjectDBX Classes
 90
        0
280
     0
281
     0
  0
CLASS
  1
DICTIONARYVAR
  2
AcDbDictionaryVar
  3
ObjectDBX Classes
 90
        0
280
     0
281
     0
  0
CLASS
  1
ACDBPLACEHOLDER
  2
AcDbPlaceHolder
  3
ObjectDBX Classes
 90
        0
280
     0
281
     0
  0
CLASS
  1
LAYOUT
  2
AcDbLayout
  3
ObjectDBX Classes
 90
        0
280
     0
281
     0
  0
ENDSEC
  0
SECTION
  2
TABLES
  0
TABLE
  2
VPORT
  5
746D
330
0
100
AcDbSymbolTable
 70
     2
  0
VPORT
  5
2179D
330
746D
100
AcDbSymbolTableRecord
100
AcDbViewportTableRecord
  2
*Active
 70
     0
 10
0.0
 20
0.0
 11
1.0
 21
1.0
 12
8223.761025238502
 22
5855.702754043946
 13
0.0
 23
0.0
 14
10.0
 24
10.0
 15
10.0
 25
10.0
 16
0.0
 26
0.0
 36
1.0
 17
0.0
 27
0.0
 37
0.0
 40
11800.69705489494
 41
1.522222222222222
 42
50.0
 43
0.0
 44
0.0
 50
0.0
 51
0.0
 71
     0
 72
     0
 73
     1
 74
     0
 75
     0
 76
     0
 77
     0
 78
     0
281
     0
 65
     1
110
0.0
120
0.0
130
0.0
111
1.0
121
0.0
131
0.0
112
0.0
122
1.0
132
0.0
 79
     0
146
0.0
  0
ENDTAB
  0
TABLE
  2
LTYPE
  5
746A
330
0
100
AcDbSymbolTable
 70
     5
  0
LTYPE
  5
7477
330
746A
100
AcDbSymbolTableRecord
100
AcDbLinetypeTableRecord
  2
BYBLOCK
 70
     0
  3

 72
    65
 73
     0
 40
0.0
  0
LTYPE
  5
7478
330
746A
100
AcDbSymbolTableRecord
100
AcDbLinetypeTableRecord
  2
BYLAYER
 70
     0
  3

 72
    65
 73
     0
 40
0.0
  0
LTYPE
  5
7479
330
746A
100
AcDbSymbolTableRecord
100
AcDbLinetypeTableRecord
  2
CONTINUOUS
 70
     0
  3
Solid line
 72
    65
 73
     0
 40
0.0
  0
LTYPE
  5
7816
330
746A
100
AcDbSymbolTableRecord
100
AcDbLinetypeTableRecord
  2
CENTER
 70
     0
  3
____ _ ____ _ ____ _ ____ _ ____ _ ____ _ ____ 
 72
    65
 73
     4
 40
2.0
 49
1.25
 74
     0
 49
-0.25
 74
     0
 49
0.25
 74
     0
 49
-0.25
 74
     0
  0
LTYPE
  5
781A
330
746A
100
AcDbSymbolTableRecord
100
AcDbLinetypeTableRecord
  2
HIDDEN
 70
     0
  3
__ __ __ __ __ __ __ __ __ __ __ __ __ __ __ __
 72
    65
 73
     2
 40
0.375
 49
0.25
 74
     0
 49
-0.125
 74
     0
  0
LTYPE
  5
781B
330
746A
100
AcDbSymbolTableRecord
100
AcDbLinetypeTableRecord
  2
PHANTOM
 70
     0
  3
______  __  __  ______  __  __  ______  __  __ 
 72
    65
 73
     6
 40
2.5
 49
1.25
 74
     0
 49
-0.25
 74
     0
 49
0.25
 74
     0
 49
-0.25
 74
     0
 49
0.25
 74
     0
 49
-0.25
 74
     0
  0
LTYPE
  5
12CC3
330
746A
100
AcDbSymbolTableRecord
100
AcDbLinetypeTableRecord
  2
HIDDENX2
 70
     0
  3
Hidden (2x) ____ ____ ____ ____ ____ ____ ____
 72
    65
 73
     2
 40
19.05
 49
12.7
 74
     0
 49
-6.349999999999999
 74
     0
  0
ENDTAB
  0
TABLE
  2
LAYER
  5
7467
102
{ACAD_XDICTIONARY
360
1758F
102
}
330
0
100
AcDbSymbolTable
 70
    12
  0
LAYER
  5
7474
330
7467
100
AcDbSymbolTableRecord
100
AcDbLayerTableRecord
  2
0
 70
     0
 62
     7
  6
CONTINUOUS
370
    -3
390
173D0
  0
LAYER
  5
DEB2
330
7467
100
AcDbSymbolTableRecord
100
AcDbLayerTableRecord
  2
センター
 70
     0
 62
     3
  6
CENTER
370
    -3
390
173D0
  0
LAYER
  5
DEB3
330
7467
100
AcDbSymbolTableRecord
100
AcDbLayerTableRecord
  2
寸法
 70
     0
 62
     4
  6
CONTINUOUS
370
    -3
390
173D0
  0
LAYER
  5
DEB4
330
7467
100
AcDbSymbolTableRecord
100
AcDbLayerTableRecord
  2
部品1
 70
     0
 62
     7
  6
CONTINUOUS
370
    -3
390
173D0
  0
LAYER
  5
DEB5
330
7467
100
AcDbSymbolTableRecord
100
AcDbLayerTableRecord
  2
補助
 70
     0
 62
    -1
  6
CONTINUOUS
370
    -3
390
173D0
  0
LAYER
  5
DEB6
330
7467
100
AcDbSymbolTableRecord
100
AcDbLayerTableRecord
  2
文字
 70
     0
 62
     7
  6
CONTINUOUS
370
    -3
390
173D0
  0
LAYER
  5
F255
330
7467
100
AcDbSymbolTableRecord
100
AcDbLayerTableRecord
  2
DEFPOINTS
 70
     0
 62
     7
  6
CONTINUOUS
290
     0
370
    -3
390
173D0
  0
LAYER
  5
10B54
330
7467
100
AcDbSymbolTableRecord
100
AcDbLayerTableRecord
  2
仕様書枠
 70
     0
 62
   230
  6
CONTINUOUS
370
    -3
390
173D0
  0
LAYER
  5
11729
330
7467
100
AcDbSymbolTableRecord
100
AcDbLayerTableRecord
  2
Ｇ．Ｌ
 70
     0
 62
    30
  6
CONTINUOUS
370
    -3
390
173D0
  0
LAYER
  5
1173F
330
7467
100
AcDbSymbolTableRecord
100
AcDbLayerTableRecord
  2
細線
 70
     0
 62
     5
  6
CONTINUOUS
370
    -3
390
173D0
  0
LAYER
  5
12CC4
330
7467
100
AcDbSymbolTableRecord
100
AcDbLayerTableRecord
  2
想像線
 70
     0
 62
     6
  6
PHANTOM
370
    -3
390
173D0
  0
LAYER
  5
142E2
330
7467
100
AcDbSymbolTableRecord
100
AcDbLayerTableRecord
  2
破線
 70
     0
 62
     2
  6
HIDDEN
370
    -3
390
173D0
  0
ENDTAB
  0
TABLE
  2
STYLE
  5
7468
330
0
100
AcDbSymbolTable
 70
     7
  0
STYLE
  5
7475
330
7468
100
AcDbSymbolTableRecord
100
AcDbTextStyleTableRecord
  2
STANDARD
 70
     0
 40
0.0
 41
1.0
 50
0.0
 71
     0
 42
4.0
  3
txt
  4
C:\AutoCAD LT\bigfont.shx
  0
STYLE
  5
763C
330
7468
100
AcDbSymbolTableRecord
100
AcDbTextStyleTableRecord
  2
MSMINCHO
 70
     0
 40
0.0
 41
1.0
 50
0.0
 71
     0
 42
1.199999999999999
  3
C:\AutoCAD LT\msminch2.TTF
  4

  0
STYLE
  5
F706
330
7468
100
AcDbSymbolTableRecord
100
AcDbTextStyleTableRecord
  2
STYLE1
 70
     0
 40
0.0
 41
1.0
 50
0.0
 71
     0
 42
4.0
  3
isocp.shx
  4
bigfont.shx
  0
STYLE
  5
103BF
330
7468
100
AcDbSymbolTableRecord
100
AcDbTextStyleTableRecord
  2
STYLE2
 70
     0
 40
0.0
 41
1.0
 50
0.0
 71
     0
 42
100.0
  3
MS PGothic.ttf
  4

1001
ACAD
1000
MS PGothic
1071
    32818
  0
STYLE
  5
10BAA
330
7468
100
AcDbSymbolTableRecord
100
AcDbTextStyleTableRecord
  2
STYLE3
 70
     0
 40
0.0
 41
1.0
 50
0.0
 71
     0
 42
100.0
  3

  4

1001
ACAD
1000
DFPGothic-EB
1071
    32818
  0
STYLE
  5
11A15
330
7468
100
AcDbSymbolTableRecord
100
AcDbTextStyleTableRecord
  2
MSGOTHIC
 70
     0
 40
0.0
 41
1.0
 50
0.0
 71
     0
 42
3.5
  3
msgothi2.ttf
  4

  0
STYLE
  5
13E96
330
7468
100
AcDbSymbolTableRecord
100
AcDbTextStyleTableRecord
  2
MSPゴシック
 70
     0
 40
0.0
 41
1.0
 50
0.0
 71
     0
 42
4.0
  3
MS PGothic.ttf
  4

1001
ACAD
1000
MS PGothic
1071
    32818
  0
ENDTAB
  0
TABLE
  2
VIEW
  5
746B
330
0
100
AcDbSymbolTable
 70
     0
  0
ENDTAB
  0
TABLE
  2
UCS
  5
746C
330
0
100
AcDbSymbolTable
 70
     0
  0
ENDTAB
  0
TABLE
  2
APPID
  5
746E
330
0
100
AcDbSymbolTable
 70
     6
  0
APPID
  5
7476
330
746E
100
AcDbSymbolTableRecord
100
AcDbRegAppTableRecord
  2
ACAD
 70
     0
  0
APPID
  5
DEA9
330
746E
100
AcDbSymbolTableRecord
100
AcDbRegAppTableRecord
  2
CONTENTBLOCKICON
 70
     0
  0
APPID
  5
DEAA
330
746E
100
AcDbSymbolTableRecord
100
AcDbRegAppTableRecord
  2
CONTENTBLOCKDESCRIPTION
 70
     0
  0
APPID
  5
E71D
330
746E
100
AcDbSymbolTableRecord
100
AcDbRegAppTableRecord
  2
CONTENTTABDATA
 70
     0
  0
APPID
  5
E71E
330
746E
100
AcDbSymbolTableRecord
100
AcDbRegAppTableRecord
  2
CONTENTCURRENTTAB
 70
     0
  0
APPID
  5
F3BA
330
746E
100
AcDbSymbolTableRecord
100
AcDbRegAppTableRecord
  2
DRAWINGVARIABLESXDATA
 70
     0
  0
ENDTAB
  0
TABLE
  2
DIMSTYLE
  5
746F
330
0
100
AcDbSymbolTable
 70
     6
100
AcDbDimStyleTable
 71
     1
340
F71F
  0
DIMSTYLE
105
7484
330
746F
100
AcDbSymbolTableRecord
100
AcDbDimStyleTableRecord
  2
JIS
 70
     0
 41
2.5
 42
1.0
 43
7.0
 44
1.0
 73
     0
 74
     0
 77
     1
 78
     8
140
2.5
141
0.0
143
0.0394
147
0.0
172
     1
174
     1
175
     1
340
7475
  0
DIMSTYLE
105
F236
330
746F
100
AcDbSymbolTableRecord
100
AcDbDimStyleTableRecord
  2
INABA_S40
 70
     0
 40
40.0
 41
2.5
 42
0.5
 43
7.0
 44
1.5
 73
     0
 74
     0
 77
     3
 78
     8
140
3.0
141
0.0
143
0.0394
147
1.0
172
     1
173
     1
174
     1
175
     1
178
     7
289
     0
340
7475
341
DEAC
343
DEAC
344
DEAC
  0
DIMSTYLE
105
F71F
102
{ACAD_REACTORS
330
1DD07
330
1DCFE
330
1EE10
330
1EE04
330
1E90B
330
1F75A
330
1F75B
330
1F799
330
1F7A3
330
1F7AA
330
1F7AD
330
1F7AF
330
1F7B1
330
1F7B6
330
1F7B9
330
20426
330
2042E
330
206ED
330
2071E
330
2073D
330
20A00
330
20A2F
330
20A34
330
215D0
330
215D1
330
215D9
330
215E0
330
215E3
330
21643
102
}
330
746F
100
AcDbSymbolTableRecord
100
AcDbDimStyleTableRecord
  2
INABA_S40G
 70
     0
 40
40.0
 41
2.5
 42
0.5
 43
7.0
 44
1.5
 73
     0
 74
     0
 77
     3
 78
     8
140
3.0
141
0.0
143
0.0394
147
1.0
172
     1
173
     1
174
     1
178
     7
271
     1
340
F706
341
F770
343
F770
344
F770
  0
DIMSTYLE
105
142E3
330
746F
100
AcDbSymbolTableRecord
100
AcDbDimStyleTableRecord
  2
INABA_S1
 70
     0
 40
0.0
 41
2.5
 42
0.5
 43
7.0
 44
1.5
 73
     0
 74
     0
 77
     3
 78
     8
140
3.0
141
0.0
143
0.0394
146
0.5
147
0.5
172
     1
173
     1
176
   256
177
   256
178
     7
271
     2
272
     2
284
     8
288
     1
340
7475
341
DEAC
343
DEAC
344
DEAC
  0
DIMSTYLE
105
14463
330
746F
100
AcDbSymbolTableRecord
100
AcDbDimStyleTableRecord
  2
INABA_S30G
 70
     0
 40
30.0
 41
2.5
 42
0.5
 43
7.0
 44
1.5
 73
     0
 74
     0
 77
     3
 78
     8
140
3.0
141
0.0
143
0.0394
147
1.0
172
     1
173
     1
174
     1
175
     1
178
     7
271
     1
340
F706
341
F770
343
F770
344
F770
  0
DIMSTYLE
105
1758E
330
746F
100
AcDbSymbolTableRecord
100
AcDbDimStyleTableRecord
  2
INABA_S50G
 70
     0
 41
125.0
 42
25.0
 43
7.0
 44
75.0
 73
     0
 74
     0
 77
     3
 78
     8
140
150.0
141
0.0
143
0.0394
147
25.0
172
     1
173
     1
174
     1
175
     1
178
     7
271
     1
340
F706
341
F770
343
F770
344
F770
  0
ENDTAB
  0
TABLE
  2
BLOCK_RECORD
  5
7466
330
0
100
AcDbSymbolTable
 70
    48
  0
BLOCK_RECORD
  5
747D
330
7466
100
AcDbSymbolTableRecord
100
AcDbBlockTableRecord
  2
*MODEL_SPACE
340
173D5
  0
BLOCK_RECORD
  5
747A
330
7466
100
AcDbSymbolTableRecord
100
AcDbBlockTableRecord
  2
*PAPER_SPACE
340
173D6
  0
BLOCK_RECORD
  5
DEAC
330
7466
100
AcDbSymbolTableRecord
100
AcDbBlockTableRecord
  2
_OPEN
340
0
  0
BLOCK_RECORD
  5
F770
330
7466
100
AcDbSymbolTableRecord
100
AcDbBlockTableRecord
  2
_DOTSMALL
340
0
102
{BLKREFS
331
18C65
331
18C66
331
18C59
331
18C5A
331
18C4D
331
18C4E
331
18C41
331
18C42
331
18C35
331
18C36
331
18C29
331
18C2A
331
18C1D
331
18C1E
331
18C0F
331
18C10
331
18C03
331
18C04
331
18BF5
331
18BF6
331
18BE7
331
18BE8
331
18BD9
331
18BDA
331
18BCD
331
18BCE
331
1FE40
331
1FE41
331
1FE49
331
1FE4A
331
1FE53
331
1FE54
331
1FE8E
331
1FE8F
331
2068A
331
2068B
331
20695
331
20696
331
20795
331
20796
331
2079E
331
2079F
331
207A8
331
207A9
331
207B2
331
207B3
331
207BD
331
207BE
331
207C8
331
207C9
331
20854
331
20855
331
2085D
331
2085E
331
20866
331
20867
331
2086F
331
20870
331
20878
331
20879
331
20C4E
331
20C4F
331
21063
331
21064
331
210CD
331
210CE
331
210D7
331
210D8
331
210E1
331
210E2
331
210EB
331
210EC
331
2174D
331
2174E
331
2175C
331
2175D
331
21765
331
21766
331
2176E
331
2176F
331
21777
331
21778
331
21780
331
21781
102
}
  0
BLOCK_RECORD
  5
164B4
330
7466
100
AcDbSymbolTableRecord
100
AcDbBlockTableRecord
  2
_DOT
340
0
102
{BLKREFS
331
18C73
331
18C74
102
}
  0
BLOCK_RECORD
  5
18BC8
330
7466
100
AcDbSymbolTableRecord
100
AcDbBlockTableRecord
  2
*D3
340
0
  0
BLOCK_RECORD
  5
18BD4
330
7466
100
AcDbSymbolTableRecord
100
AcDbBlockTableRecord
  2
*D4
340
0
  0
BLOCK_RECORD
  5
18BE0
330
7466
100
AcDbSymbolTableRecord
100
AcDbBlockTableRecord
  2
*D5
340
0
  0
BLOCK_RECORD
  5
18BEE
330
7466
100
AcDbSymbolTableRecord
100
AcDbBlockTableRecord
  2
*D6
340
0
  0
BLOCK_RECORD
  5
18BFC
330
7466
100
AcDbSymbolTableRecord
100
AcDbBlockTableRecord
  2
*D7
340
0
  0
BLOCK_RECORD
  5
18C0A
330
7466
100
AcDbSymbolTableRecord
100
AcDbBlockTableRecord
  2
*D8
340
0
  0
BLOCK_RECORD
  5
18C16
330
7466
100
AcDbSymbolTableRecord
100
AcDbBlockTableRecord
  2
*D9
340
0
  0
BLOCK_RECORD
  5
18C24
330
7466
100
AcDbSymbolTableRecord
100
AcDbBlockTableRecord
  2
*D10
340
0
  0
BLOCK_RECORD
  5
18C30
330
7466
100
AcDbSymbolTableRecord
100
AcDbBlockTableRecord
  2
*D11
340
0
  0
BLOCK_RECORD
  5
18C3C
330
7466
100
AcDbSymbolTableRecord
100
AcDbBlockTableRecord
  2
*D12
340
0
  0
BLOCK_RECORD
  5
18C48
330
7466
100
AcDbSymbolTableRecord
100
AcDbBlockTableRecord
  2
*D13
340
0
  0
BLOCK_RECORD
  5
18C54
330
7466
100
AcDbSymbolTableRecord
100
AcDbBlockTableRecord
  2
*D14
340
0
  0
BLOCK_RECORD
  5
18C60
330
7466
100
AcDbSymbolTableRecord
100
AcDbBlockTableRecord
  2
*D15
340
0
  0
BLOCK_RECORD
  5
18C6C
330
7466
100
AcDbSymbolTableRecord
100
AcDbBlockTableRecord
  2
*D16
340
0
  0
BLOCK_RECORD
  5
18C7A
330
7466
100
AcDbSymbolTableRecord
100
AcDbBlockTableRecord
  2
A$C3B1A506B
340
0
  0
BLOCK_RECORD
  5
1C4CA
330
7466
100
AcDbSymbolTableRecord
100
AcDbBlockTableRecord
  2
_NONE
340
0
  0
BLOCK_RECORD
  5
1DDB5
330
7466
100
AcDbSymbolTableRecord
100
AcDbBlockTableRecord
  2
*D19
340
0
  0
BLOCK_RECORD
  5
1DDE3
330
7466
100
AcDbSymbolTableRecord
100
AcDbBlockTableRecord
  2
*D20
340
0
  0
BLOCK_RECORD
  5
1E963
330
7466
100
AcDbSymbolTableRecord
100
AcDbBlockTableRecord
  2
*D21
340
0
  0
BLOCK_RECORD
  5
1EE9F
330
7466
100
AcDbSymbolTableRecord
100
AcDbBlockTableRecord
  2
*D22
340
0
  0
BLOCK_RECORD
  5
1EEE2
330
7466
100
AcDbSymbolTableRecord
100
AcDbBlockTableRecord
  2
*D23
340
0
  0
BLOCK_RECORD
  5
1F7BC
330
7466
100
AcDbSymbolTableRecord
100
AcDbBlockTableRecord
  2
*D24
340
0
  0
BLOCK_RECORD
  5
1F7C8
330
7466
100
AcDbSymbolTableRecord
100
AcDbBlockTableRecord
  2
*D25
340
0
  0
BLOCK_RECORD
  5
1F820
330
7466
100
AcDbSymbolTableRecord
100
AcDbBlockTableRecord
  2
*D26
340
0
  0
BLOCK_RECORD
  5
1F83B
330
7466
100
AcDbSymbolTableRecord
100
AcDbBlockTableRecord
  2
*D27
340
0
  0
BLOCK_RECORD
  5
1F856
330
7466
100
AcDbSymbolTableRecord
100
AcDbBlockTableRecord
  2
*D28
340
0
  0
BLOCK_RECORD
  5
1F863
330
7466
100
AcDbSymbolTableRecord
100
AcDbBlockTableRecord
  2
*D29
340
0
  0
BLOCK_RECORD
  5
1F86F
330
7466
100
AcDbSymbolTableRecord
100
AcDbBlockTableRecord
  2
*D30
340
0
  0
BLOCK_RECORD
  5
1F889
330
7466
100
AcDbSymbolTableRecord
100
AcDbBlockTableRecord
  2
*D31
340
0
  0
BLOCK_RECORD
  5
1F896
330
7466
100
AcDbSymbolTableRecord
100
AcDbBlockTableRecord
  2
*D32
340
0
  0
BLOCK_RECORD
  5
1F8A2
330
7466
100
AcDbSymbolTableRecord
100
AcDbBlockTableRecord
  2
*D33
340
0
  0
BLOCK_RECORD
  5
2048A
330
7466
100
AcDbSymbolTableRecord
100
AcDbBlockTableRecord
  2
*D34
340
0
  0
BLOCK_RECORD
  5
204A6
330
7466
100
AcDbSymbolTableRecord
100
AcDbBlockTableRecord
  2
*D35
340
0
  0
BLOCK_RECORD
  5
206EE
330
7466
100
AcDbSymbolTableRecord
100
AcDbBlockTableRecord
  2
*D36
340
0
  0
BLOCK_RECORD
  5
2071F
330
7466
100
AcDbSymbolTableRecord
100
AcDbBlockTableRecord
  2
*D37
340
0
  0
BLOCK_RECORD
  5
2073E
330
7466
100
AcDbSymbolTableRecord
100
AcDbBlockTableRecord
  2
*D38
340
0
  0
BLOCK_RECORD
  5
20A59
330
7466
100
AcDbSymbolTableRecord
100
AcDbBlockTableRecord
  2
*D39
340
0
  0
BLOCK_RECORD
  5
20AB7
330
7466
100
AcDbSymbolTableRecord
100
AcDbBlockTableRecord
  2
*D40
340
0
  0
BLOCK_RECORD
  5
20AD0
330
7466
100
AcDbSymbolTableRecord
100
AcDbBlockTableRecord
  2
*D41
340
0
  0
BLOCK_RECORD
  5
216FD
330
7466
100
AcDbSymbolTableRecord
100
AcDbBlockTableRecord
  2
*D42
340
0
  0
BLOCK_RECORD
  5
21709
330
7466
100
AcDbSymbolTableRecord
100
AcDbBlockTableRecord
  2
*D43
340
0
  0
BLOCK_RECORD
  5
2171A
330
7466
100
AcDbSymbolTableRecord
100
AcDbBlockTableRecord
  2
*D44
340
0
  0
BLOCK_RECORD
  5
21726
330
7466
100
AcDbSymbolTableRecord
100
AcDbBlockTableRecord
  2
*D45
340
0
  0
BLOCK_RECORD
  5
21732
330
7466
100
AcDbSymbolTableRecord
100
AcDbBlockTableRecord
  2
*D46
340
0
  0
BLOCK_RECORD
  5
2173E
330
7466
100
AcDbSymbolTableRecord
100
AcDbBlockTableRecord
  2
*D47
340
0
  0
ENDTAB
  0
ENDSEC
  0
SECTION
  2
BLOCKS
  0
BLOCK
  5
7489
330
747D
100
AcDbEntity
  8
0
100
AcDbBlockBegin
  2
*MODEL_SPACE
 70
     0
 10
0.0
 20
0.0
 30
0.0
  3
*MODEL_SPACE
  1

  0
ENDBLK
  5
748A
330
747D
100
AcDbEntity
  8
0
100
AcDbBlockEnd
  0
BLOCK
  5
7487
330
747A
100
AcDbEntity
 67
     1
  8
0
100
AcDbBlockBegin
  2
*PAPER_SPACE
 70
     0
 10
0.0
 20
0.0
 30
0.0
  3
*PAPER_SPACE
  1

  0
ENDBLK
  5
7488
330
747A
100
AcDbEntity
 67
     1
  8
0
100
AcDbBlockEnd
  0
BLOCK
  5
DEAD
330
DEAC
100
AcDbEntity
  8
0
100
AcDbBlockBegin
  2
_OPEN
 70
     0
 10
0.0
 20
0.0
 30
0.0
  3
_OPEN
  1

  0
LINE
  5
DEAE
330
DEAC
100
AcDbEntity
  8
0
  6
ByBlock
 62
     0
100
AcDbLine
 10
-1.0
 20
0.1666666666666666
 30
0.0
 11
0.0
 21
0.0
 31
0.0
  0
LINE
  5
DEAF
330
DEAC
100
AcDbEntity
  8
0
  6
ByBlock
 62
     0
100
AcDbLine
 10
0.0
 20
0.0
 30
0.0
 11
-1.0
 21
-0.1666666666666666
 31
0.0
  0
LINE
  5
DEB0
330
DEAC
100
AcDbEntity
  8
0
  6
ByBlock
 62
     0
100
AcDbLine
 10
0.0
 20
0.0
 30
0.0
 11
-1.0
 21
0.0
 31
0.0
  0
ENDBLK
  5
DEB1
330
DEAC
100
AcDbEntity
  8
0
100
AcDbBlockEnd
  0
BLOCK
  5
F771
330
F770
100
AcDbEntity
  8
0
 48
50.0
100
AcDbBlockBegin
  2
_DOTSMALL
 70
     0
 10
0.0
 20
0.0
 30
0.0
  3
_DOTSMALL
  1

  0
LWPOLYLINE
  5
F772
330
F770
100
AcDbEntity
  8
0
  6
ByBlock
 62
     0
 48
50.0
100
AcDbPolyline
 90
        2
 70
     1
 43
0.5
 10
-0.0625
 20
0.0
 42
1.0
 10
0.0625
 20
0.0
 42
1.0
  0
ENDBLK
  5
F776
330
F770
100
AcDbEntity
  8
0
 48
50.0
100
AcDbBlockEnd
  0
BLOCK
  5
164BA
330
164B4
100
AcDbEntity
  8
0
 48
50.0
100
AcDbBlockBegin
  2
_DOT
 70
     0
 10
0.0
 20
0.0
 30
0.0
  3
_DOT
  1

  0
LWPOLYLINE
  5
164B5
330
164B4
100
AcDbEntity
  8
0
  6
ByBlock
 62
     0
 48
50.0
100
AcDbPolyline
 90
        2
 70
     1
 43
0.5
 10
-0.25
 20
0.0
 42
1.0
 10
0.25
 20
0.0
 42
1.0
  0
LINE
  5
164B9
330
164B4
100
AcDbEntity
  8
0
  6
ByBlock
 62
     0
 48
50.0
100
AcDbLine
 10
-0.5
 20
0.0
 30
0.0
 11
-1.0
 21
0.0
 31
0.0
  0
ENDBLK
  5
164BB
330
164B4
100
AcDbEntity
  8
0
 48
50.0
100
AcDbBlockEnd
  0
BLOCK
  5
18BC9
330
18BC8
100
AcDbEntity
  8
0
 48
50.0
100
AcDbBlockBegin
  2
*D3
 70
     1
 10
0.0
 20
0.0
 30
0.0
  3
*D3
  1

  0
LINE
  5
18BCA
330
18BC8
100
AcDbEntity
  8
寸法
 62
     0
 48
50.0
370
    -2
100
AcDbLine
 10
7649.896575106999
 20
9636.123139034717
 30
0.0
 11
8702.429862581047
 21
9636.123139034717
 31
0.0
  0
LINE
  5
18BCB
330
18BC8
100
AcDbEntity
  8
寸法
 62
     0
 48
50.0
370
    -2
100
AcDbLine
 10
7649.896575106973
 20
7846.123139034709
 30
0.0
 11
8702.429862581047
 21
7846.123139034709
 31
0.0
  0
LINE
  5
18BCC
330
18BC8
100
AcDbEntity
  8
寸法
 62
     0
 48
50.0
370
    -2
100
AcDbLine
 10
8642.429862581046
 20
9636.123139034717
 30
0.0
 11
8642.429862581046
 21
7846.123139034709
 31
0.0
  0
INSERT
  5
18BCD
330
18BC8
100
AcDbEntity
  8
寸法
 62
     0
 48
50.0
370
    -2
100
AcDbBlockReference
  2
_DOTSMALL
 10
8642.429862581046
 20
9636.123139034717
 30
0.0
 41
100.0
 42
100.0
 43
100.0
 50
90.0
  0
INSERT
  5
18BCE
330
18BC8
100
AcDbEntity
  8
寸法
 62
     0
 48
50.0
370
    -2
100
AcDbBlockReference
  2
_DOTSMALL
 10
8642.429862581046
 20
7846.123139034709
 30
0.0
 41
100.0
 42
100.0
 43
100.0
 50
270.0
  0
MTEXT
  5
18BCF
330
18BC8
100
AcDbEntity
  8
寸法
 62
     7
 48
50.0
100
AcDbMText
 10
8542.429862581045
 20
8741.123139034712
 30
0.0
 40
120.0
 41
0.0
 71
     5
 72
     1
  1
\A1;1790
  7
STYLE1
 11
0.0000000000000001
 21
1.0
 31
0.0
 73
     1
 44
1.0
1001
ACAD
1000
MTEXTBEGIN
1070
    73
1070
     1
1070
    44
1040
1.0
1070
    74
1070
     0
1000
MTEXTEND
  0
POINT
  5
18BD0
330
18BC8
100
AcDbEntity
  8
DEFPOINTS
 62
     0
 48
50.0
100
AcDbPoint
 10
7629.896575106998
 20
9636.123139034717
 30
0.0
  0
POINT
  5
18BD1
330
18BC8
100
AcDbEntity
  8
DEFPOINTS
 62
     0
 48
50.0
100
AcDbPoint
 10
7629.896575106974
 20
7846.123139034709
 30
0.0
  0
POINT
  5
18BD2
330
18BC8
100
AcDbEntity
  8
DEFPOINTS
 62
     0
 48
50.0
100
AcDbPoint
 10
8642.429862581046
 20
7846.123139034709
 30
0.0
  0
ENDBLK
  5
18BD3
330
18BC8
100
AcDbEntity
  8
0
 48
50.0
100
AcDbBlockEnd
  0
BLOCK
  5
18BD5
330
18BD4
100
AcDbEntity
  8
0
 48
50.0
100
AcDbBlockBegin
  2
*D4
 70
     1
 10
0.0
 20
0.0
 30
0.0
  3
*D4
  1

  0
LINE
  5
18BD6
330
18BD4
100
AcDbEntity
  8
寸法
 62
     0
 48
50.0
370
    -2
100
AcDbLine
 10
4214.896575106998
 20
9656.123139034622
 30
0.0
 11
4214.896575106998
 21
10211.93135865972
 31
0.0
  0
LINE
  5
18BD7
330
18BD4
100
AcDbEntity
  8
寸法
 62
     0
 48
50.0
370
    -2
100
AcDbLine
 10
7574.896575106999
 20
9656.123139034718
 30
0.0
 11
7574.896575106999
 21
10211.93135865972
 31
0.0
  0
LINE
  5
18BD8
330
18BD4
100
AcDbEntity
  8
寸法
 62
     0
 48
50.0
370
    -2
100
AcDbLine
 10
4214.896575106998
 20
10151.93135865972
 30
0.0
 11
7574.896575106999
 21
10151.93135865972
 31
0.0
  0
INSERT
  5
18BD9
330
18BD4
100
AcDbEntity
  8
寸法
 62
     0
 48
50.0
370
    -2
100
AcDbBlockReference
  2
_DOTSMALL
 10
4214.896575106998
 20
10151.93135865972
 30
0.0
 41
100.0
 42
100.0
 43
100.0
 50
180.0
  0
INSERT
  5
18BDA
330
18BD4
100
AcDbEntity
  8
寸法
 62
     0
 48
50.0
370
    -2
100
AcDbBlockReference
  2
_DOTSMALL
 10
7574.896575106999
 20
10151.93135865972
 30
0.0
 41
100.0
 42
100.0
 43
100.0
  0
MTEXT
  5
18BDB
330
18BD4
100
AcDbEntity
  8
寸法
 62
     7
 48
50.0
100
AcDbMText
 10
5894.896575106997
 20
10251.94316968334
 30
0.0
 40
120.0
 41
0.0
 71
     5
 72
     1
  1
\A1;8X420=3360
  7
STYLE1
 73
     1
 44
1.0
1001
ACAD
1000
MTEXTBEGIN
1070
    73
1070
     1
1070
    44
1040
1.0
1070
    74
1070
     0
1000
MTEXTEND
  0
POINT
  5
18BDC
330
18BD4
100
AcDbEntity
  8
DEFPOINTS
 62
     0
 48
50.0
100
AcDbPoint
 10
4214.896575106998
 20
9636.123139034623
 30
0.0
  0
POINT
  5
18BDD
330
18BD4
100
AcDbEntity
  8
DEFPOINTS
 62
     0
 48
50.0
100
AcDbPoint
 10
7574.896575106999
 20
9636.123139034717
 30
0.0
  0
POINT
  5
18BDE
330
18BD4
100
AcDbEntity
  8
DEFPOINTS
 62
     0
 48
50.0
100
AcDbPoint
 10
7574.896575106999
 20
10151.93135865972
 30
0.0
  0
ENDBLK
  5
18BDF
330
18BD4
100
AcDbEntity
  8
0
 48
50.0
100
AcDbBlockEnd
  0
BLOCK
  5
18BE1
330
18BE0
100
AcDbEntity
  8
0
 48
50.0
100
AcDbBlockBegin
  2
*D5
 70
     1
 10
0.0
 20
0.0
 30
0.0
  3
*D5
  1

  0
LINE
  5
18BE2
330
18BE0
100
AcDbEntity
  8
寸法
 62
     0
 48
50.0
370
    -2
100
AcDbLine
 10
7574.896575106999
 20
9656.123139034718
 30
0.0
 11
7574.896575106999
 21
10211.9313586597
 31
0.0
  0
LINE
  5
18BE3
330
18BE0
100
AcDbEntity
  8
寸法
 62
     0
 48
50.0
370
    -2
100
AcDbLine
 10
7629.896575106998
 20
9656.123139034718
 30
0.0
 11
7629.896575106998
 21
10211.9313586597
 31
0.0
  0
LINE
  5
18BE4
330
18BE0
100
AcDbEntity
  8
寸法
 62
     0
 48
50.0
370
    -2
100
AcDbLine
 10
7574.896575106999
 20
10151.9313586597
 30
0.0
 11
7474.896575106999
 21
10151.9313586597
 31
0.0
  0
LINE
  5
18BE5
330
18BE0
100
AcDbEntity
  8
寸法
 62
     0
 48
50.0
370
    -2
100
AcDbLine
 10
7629.896575106998
 20
10151.9313586597
 30
0.0
 11
8046.867137855477
 21
10151.9313586597
 31
0.0
  0
LINE
  5
18BE6
330
18BE0
100
AcDbEntity
  8
寸法
 62
     0
 48
50.0
370
    -2
100
AcDbLine
 10
7574.896575106999
 20
10151.9313586597
 30
0.0
 11
7629.896575106998
 21
10151.9313586597
 31
0.0
  0
INSERT
  5
18BE7
330
18BE0
100
AcDbEntity
  8
寸法
 62
     0
 48
50.0
370
    -2
100
AcDbBlockReference
  2
_DOTSMALL
 10
7574.896575106999
 20
10151.9313586597
 30
0.0
 41
100.0
 42
100.0
 43
100.0
  0
INSERT
  5
18BE8
330
18BE0
100
AcDbEntity
  8
寸法
 62
     0
 48
50.0
370
    -2
100
AcDbBlockReference
  2
_DOTSMALL
 10
7629.896575106998
 20
10151.9313586597
 30
0.0
 41
100.0
 42
100.0
 43
100.0
 50
180.0
  0
MTEXT
  5
18BE9
330
18BE0
100
AcDbEntity
  8
寸法
 62
     7
 48
50.0
100
AcDbMText
 10
7938.381856481237
 20
10251.9313586597
 30
0.0
 40
120.0
 41
0.0
 71
     5
 72
     1
  1
\A1;55
  7
STYLE1
 73
     1
 44
1.0
1001
ACAD
1000
MTEXTBEGIN
1070
    73
1070
     1
1070
    44
1040
1.0
1070
    74
1070
     0
1000
MTEXTEND
  0
POINT
  5
18BEA
330
18BE0
100
AcDbEntity
  8
DEFPOINTS
 62
     0
 48
50.0
100
AcDbPoint
 10
7574.896575106999
 20
9636.123139034717
 30
0.0
  0
POINT
  5
18BEB
330
18BE0
100
AcDbEntity
  8
DEFPOINTS
 62
     0
 48
50.0
100
AcDbPoint
 10
7629.896575106998
 20
9636.123139034717
 30
0.0
  0
POINT
  5
18BEC
330
18BE0
100
AcDbEntity
  8
DEFPOINTS
 62
     0
 48
50.0
100
AcDbPoint
 10
7629.896575106998
 20
10151.9313586597
 30
0.0
  0
ENDBLK
  5
18BED
330
18BE0
100
AcDbEntity
  8
0
 48
50.0
100
AcDbBlockEnd
  0
BLOCK
  5
18BEF
330
18BEE
100
AcDbEntity
  8
0
 48
50.0
100
AcDbBlockBegin
  2
*D6
 70
     1
 10
0.0
 20
0.0
 30
0.0
  3
*D6
  1

  0
LINE
  5
18BF0
330
18BEE
100
AcDbEntity
  8
寸法
 62
     0
 48
50.0
370
    -2
100
AcDbLine
 10
7649.896575106999
 20
9636.123139034717
 30
0.0
 11
8337.32292084141
 21
9636.123139034717
 31
0.0
  0
LINE
  5
18BF1
330
18BEE
100
AcDbEntity
  8
寸法
 62
     0
 48
50.0
370
    -2
100
AcDbLine
 10
7649.896575106999
 20
9581.123139034721
 30
0.0
 11
8337.32292084141
 21
9581.123139034721
 31
0.0
  0
LINE
  5
18BF2
330
18BEE
100
AcDbEntity
  8
寸法
 62
     0
 48
50.0
370
    -2
100
AcDbLine
 10
8277.322920841411
 20
9581.123139034721
 30
0.0
 11
8277.322920841411
 21
9481.123139034719
 31
0.0
  0
LINE
  5
18BF3
330
18BEE
100
AcDbEntity
  8
寸法
 62
     0
 48
50.0
370
    -2
100
AcDbLine
 10
8277.322920841411
 20
9636.123139034717
 30
0.0
 11
8277.322920841411
 21
10053.09370178319
 31
0.0
  0
LINE
  5
18BF4
330
18BEE
100
AcDbEntity
  8
寸法
 62
     0
 48
50.0
370
    -2
100
AcDbLine
 10
8277.322920841411
 20
9581.123139034721
 30
0.0
 11
8277.322920841411
 21
9636.123139034717
 31
0.0
  0
INSERT
  5
18BF5
330
18BEE
100
AcDbEntity
  8
寸法
 62
     0
 48
50.0
370
    -2
100
AcDbBlockReference
  2
_DOTSMALL
 10
8277.322920841411
 20
9581.123139034721
 30
0.0
 41
100.0
 42
100.0
 43
100.0
 50
90.0
  0
INSERT
  5
18BF6
330
18BEE
100
AcDbEntity
  8
寸法
 62
     0
 48
50.0
370
    -2
100
AcDbBlockReference
  2
_DOTSMALL
 10
8277.322920841411
 20
9636.123139034717
 30
0.0
 41
100.0
 42
100.0
 43
100.0
 50
270.0
  0
MTEXT
  5
18BF7
330
18BEE
100
AcDbEntity
  8
寸法
 62
     7
 48
50.0
100
AcDbMText
 10
8177.32292084141
 20
9944.608420408957
 30
0.0
 40
120.0
 41
0.0
 71
     5
 72
     1
  1
\A1;55
  7
STYLE1
 11
0.0000000000000001
 21
1.0
 31
0.0
 73
     1
 44
1.0
1001
ACAD
1000
MTEXTBEGIN
1070
    73
1070
     1
1070
    44
1040
1.0
1070
    74
1070
     0
1000
MTEXTEND
  0
POINT
  5
18BF8
330
18BEE
100
AcDbEntity
  8
DEFPOINTS
 62
     0
 48
50.0
100
AcDbPoint
 10
7629.896575106998
 20
9636.123139034717
 30
0.0
  0
POINT
  5
18BF9
330
18BEE
100
AcDbEntity
  8
DEFPOINTS
 62
     0
 48
50.0
100
AcDbPoint
 10
7629.896575106998
 20
9581.123139034721
 30
0.0
  0
POINT
  5
18BFA
330
18BEE
100
AcDbEntity
  8
DEFPOINTS
 62
     0
 48
50.0
100
AcDbPoint
 10
8277.322920841411
 20
9581.123139034721
 30
0.0
  0
ENDBLK
  5
18BFB
330
18BEE
100
AcDbEntity
  8
0
 48
50.0
100
AcDbBlockEnd
  0
BLOCK
  5
18BFD
330
18BFC
100
AcDbEntity
  8
0
 48
50.0
100
AcDbBlockBegin
  2
*D7
 70
     1
 10
0.0
 20
0.0
 30
0.0
  3
*D7
  1

  0
LINE
  5
18BFE
330
18BFC
100
AcDbEntity
  8
寸法
 62
     0
 48
50.0
370
    -2
100
AcDbLine
 10
4159.896575106963
 20
9656.123139034622
 30
0.0
 11
4159.896575106963
 21
10211.9313586596
 31
0.0
  0
LINE
  5
18BFF
330
18BFC
100
AcDbEntity
  8
寸法
 62
     0
 48
50.0
370
    -2
100
AcDbLine
 10
4214.896575106998
 20
9656.123139034622
 30
0.0
 11
4214.896575106998
 21
10211.9313586596
 31
0.0
  0
LINE
  5
18C00
330
18BFC
100
AcDbEntity
  8
寸法
 62
     0
 48
50.0
370
    -2
100
AcDbLine
 10
4214.896575106998
 20
10151.9313586596
 30
0.0
 11
4314.896575106998
 21
10151.9313586596
 31
0.0
  0
LINE
  5
18C01
330
18BFC
100
AcDbEntity
  8
寸法
 62
     0
 48
50.0
370
    -2
100
AcDbLine
 10
4159.896575106963
 20
10151.9313586596
 30
0.0
 11
3742.926012358486
 21
10151.9313586596
 31
0.0
  0
LINE
  5
18C02
330
18BFC
100
AcDbEntity
  8
寸法
 62
     0
 48
50.0
370
    -2
100
AcDbLine
 10
4214.896575106998
 20
10151.9313586596
 30
0.0
 11
4159.896575106963
 21
10151.9313586596
 31
0.0
  0
INSERT
  5
18C03
330
18BFC
100
AcDbEntity
  8
寸法
 62
     0
 48
50.0
370
    -2
100
AcDbBlockReference
  2
_DOTSMALL
 10
4214.896575106998
 20
10151.9313586596
 30
0.0
 41
100.0
 42
100.0
 43
100.0
 50
180.0
  0
INSERT
  5
18C04
330
18BFC
100
AcDbEntity
  8
寸法
 62
     0
 48
50.0
370
    -2
100
AcDbBlockReference
  2
_DOTSMALL
 10
4159.896575106963
 20
10151.9313586596
 30
0.0
 41
100.0
 42
100.0
 43
100.0
  0
MTEXT
  5
18C05
330
18BFC
100
AcDbEntity
  8
寸法
 62
     7
 48
50.0
100
AcDbMText
 10
3851.411293732725
 20
10251.9313586596
 30
0.0
 40
120.0
 41
0.0
 71
     5
 72
     1
  1
\A1;55
  7
STYLE1
 73
     1
 44
1.0
1001
ACAD
1000
MTEXTBEGIN
1070
    73
1070
     1
1070
    44
1040
1.0
1070
    74
1070
     0
1000
MTEXTEND
  0
POINT
  5
18C06
330
18BFC
100
AcDbEntity
  8
DEFPOINTS
 62
     0
 48
50.0
100
AcDbPoint
 10
4159.896575106963
 20
9636.123139034623
 30
0.0
  0
POINT
  5
18C07
330
18BFC
100
AcDbEntity
  8
DEFPOINTS
 62
     0
 48
50.0
100
AcDbPoint
 10
4214.896575106998
 20
9636.123139034623
 30
0.0
  0
POINT
  5
18C08
330
18BFC
100
AcDbEntity
  8
DEFPOINTS
 62
     0
 48
50.0
100
AcDbPoint
 10
4214.896575106998
 20
10151.9313586596
 30
0.0
  0
ENDBLK
  5
18C09
330
18BFC
100
AcDbEntity
  8
0
 48
50.0
100
AcDbBlockEnd
  0
BLOCK
  5
18C0B
330
18C0A
100
AcDbEntity
  8
0
 48
50.0
100
AcDbBlockBegin
  2
*D8
 70
     1
 10
0.0
 20
0.0
 30
0.0
  3
*D8
  1

  0
LINE
  5
18C0C
330
18C0A
100
AcDbEntity
  8
寸法
 62
     0
 48
50.0
370
    -2
100
AcDbLine
 10
4159.896575106992
 20
7826.123139034546
 30
0.0
 11
4159.896575106992
 21
6804.372203245664
 31
0.0
  0
LINE
  5
18C0D
330
18C0A
100
AcDbEntity
  8
寸法
 62
     0
 48
50.0
370
    -2
100
AcDbLine
 10
7629.896575106974
 20
7826.123139034674
 30
0.0
 11
7629.896575106974
 21
6804.372203245664
 31
0.0
  0
LINE
  5
18C0E
330
18C0A
100
AcDbEntity
  8
寸法
 62
     0
 48
50.0
370
    -2
100
AcDbLine
 10
4159.896575106992
 20
6864.372203245665
 30
0.0
 11
7629.896575106974
 21
6864.372203245665
 31
0.0
  0
INSERT
  5
18C0F
330
18C0A
100
AcDbEntity
  8
寸法
 62
     0
 48
50.0
370
    -2
100
AcDbBlockReference
  2
_DOTSMALL
 10
4159.896575106992
 20
6864.372203245665
 30
0.0
 41
100.0
 42
100.0
 43
100.0
 50
180.0
  0
INSERT
  5
18C10
330
18C0A
100
AcDbEntity
  8
寸法
 62
     0
 48
50.0
370
    -2
100
AcDbBlockReference
  2
_DOTSMALL
 10
7629.896575106974
 20
6864.372203245665
 30
0.0
 41
100.0
 42
100.0
 43
100.0
  0
MTEXT
  5
18C11
330
18C0A
100
AcDbEntity
  8
寸法
 62
     7
 48
50.0
100
AcDbMText
 10
5911.12376113973
 20
6964.372203245665
 30
0.0
 40
120.0
 41
0.0
 71
     5
 72
     1
  1
\A1;3470
  7
STYLE1
 73
     1
 44
1.0
1001
ACAD
1000
MTEXTBEGIN
1070
    73
1070
     1
1070
    44
1040
1.0
1070
    74
1070
     0
1000
MTEXTEND
  0
POINT
  5
18C12
330
18C0A
100
AcDbEntity
  8
DEFPOINTS
 62
     0
 48
50.0
100
AcDbPoint
 10
4159.896575106992
 20
7846.123139034546
 30
0.0
  0
POINT
  5
18C13
330
18C0A
100
AcDbEntity
  8
DEFPOINTS
 62
     0
 48
50.0
100
AcDbPoint
 10
7629.896575106974
 20
7846.123139034673
 30
0.0
  0
POINT
  5
18C14
330
18C0A
100
AcDbEntity
  8
DEFPOINTS
 62
     0
 48
50.0
100
AcDbPoint
 10
7629.896575106974
 20
6864.372203245665
 30
0.0
  0
ENDBLK
  5
18C15
330
18C0A
100
AcDbEntity
  8
0
 48
50.0
100
AcDbBlockEnd
  0
BLOCK
  5
18C17
330
18C16
100
AcDbEntity
  8
0
 48
50.0
100
AcDbBlockBegin
  2
*D9
 70
     1
 10
0.0
 20
0.0
 30
0.0
  3
*D9
  1

  0
LINE
  5
18C18
330
18C16
100
AcDbEntity
  8
寸法
 62
     0
 48
50.0
370
    -2
100
AcDbLine
 10
7649.896575106973
 20
7901.123139034706
 30
0.0
 11
8337.322920841385
 21
7901.123139034706
 31
0.0
  0
LINE
  5
18C19
330
18C16
100
AcDbEntity
  8
寸法
 62
     0
 48
50.0
370
    -2
100
AcDbLine
 10
7649.896575106973
 20
7846.123139034709
 30
0.0
 11
8337.322920841385
 21
7846.123139034709
 31
0.0
  0
LINE
  5
18C1A
330
18C16
100
AcDbEntity
  8
寸法
 62
     0
 48
50.0
370
    -2
100
AcDbLine
 10
8277.322920841385
 20
7901.123139034706
 30
0.0
 11
8277.322920841385
 21
8001.123139034707
 31
0.0
  0
LINE
  5
18C1B
330
18C16
100
AcDbEntity
  8
寸法
 62
     0
 48
50.0
370
    -2
100
AcDbLine
 10
8277.322920841385
 20
7846.123139034709
 30
0.0
 11
8277.322920841385
 21
7429.152576286229
 31
0.0
  0
LINE
  5
18C1C
330
18C16
100
AcDbEntity
  8
寸法
 62
     0
 48
50.0
370
    -2
100
AcDbLine
 10
8277.322920841385
 20
7901.123139034706
 30
0.0
 11
8277.322920841385
 21
7846.123139034709
 31
0.0
  0
INSERT
  5
18C1D
330
18C16
100
AcDbEntity
  8
寸法
 62
     0
 48
50.0
370
    -2
100
AcDbBlockReference
  2
_DOTSMALL
 10
8277.322920841385
 20
7901.123139034706
 30
0.0
 41
100.0
 42
100.0
 43
100.0
 50
270.0
  0
INSERT
  5
18C1E
330
18C16
100
AcDbEntity
  8
寸法
 62
     0
 48
50.0
370
    -2
100
AcDbBlockReference
  2
_DOTSMALL
 10
8277.322920841385
 20
7846.123139034709
 30
0.0
 41
100.0
 42
100.0
 43
100.0
 50
90.0
  0
MTEXT
  5
18C1F
330
18C16
100
AcDbEntity
  8
寸法
 62
     7
 48
50.0
100
AcDbMText
 10
8177.322920841383
 20
7537.637857660469
 30
0.0
 40
120.0
 41
0.0
 71
     5
 72
     1
  1
\A1;55
  7
STYLE1
 11
0.0000000000000001
 21
1.0
 31
0.0
 73
     1
 44
1.0
1001
ACAD
1000
MTEXTBEGIN
1070
    73
1070
     1
1070
    44
1040
1.0
1070
    74
1070
     0
1000
MTEXTEND
  0
POINT
  5
18C20
330
18C16
100
AcDbEntity
  8
DEFPOINTS
 62
     0
 48
50.0
100
AcDbPoint
 10
7629.896575106974
 20
7901.123139034706
 30
0.0
  0
POINT
  5
18C21
330
18C16
100
AcDbEntity
  8
DEFPOINTS
 62
     0
 48
50.0
100
AcDbPoint
 10
7629.896575106974
 20
7846.123139034709
 30
0.0
  0
POINT
  5
18C22
330
18C16
100
AcDbEntity
  8
DEFPOINTS
 62
     0
 48
50.0
100
AcDbPoint
 10
8277.322920841385
 20
7846.123139034709
 30
0.0
  0
ENDBLK
  5
18C23
330
18C16
100
AcDbEntity
  8
0
 48
50.0
100
AcDbBlockEnd
  0
BLOCK
  5
18C25
330
18C24
100
AcDbEntity
  8
0
 48
50.0
100
AcDbBlockBegin
  2
*D10
 70
     1
 10
0.0
 20
0.0
 30
0.0
  3
*D10
  1

  0
LINE
  5
18C26
330
18C24
100
AcDbEntity
  8
寸法
 62
     0
 48
50.0
370
    -2
100
AcDbLine
 10
6533.037591258376
 20
9136.123139034728
 30
0.0
 11
6465.083950562664
 21
8882.516699399049
 31
0.0
  0
LINE
  5
18C27
330
18C24
100
AcDbEntity
  8
寸法
 62
     0
 48
50.0
370
    -2
100
AcDbLine
 10
7596.037591258388
 20
9136.123139034721
 30
0.0
 11
7528.083950562677
 21
8882.516699399049
 31
0.0
  0
LINE
  5
18C28
330
18C24
100
AcDbEntity
  8
寸法
 62
     0
 48
50.0
370
    -2
100
AcDbLine
 10
6481.160902108531
 20
8942.51669939905
 30
0.0
 11
7544.160902108544
 21
8942.51669939905
 31
0.0
  0
INSERT
  5
18C29
330
18C24
100
AcDbEntity
  8
寸法
 62
     0
 48
50.0
370
    -2
100
AcDbBlockReference
  2
_DOTSMALL
 10
6481.160902108531
 20
8942.51669939905
 30
0.0
 41
100.0
 42
100.0
 43
100.0
 50
180.0
  0
INSERT
  5
18C2A
330
18C24
100
AcDbEntity
  8
寸法
 62
     0
 48
50.0
370
    -2
100
AcDbBlockReference
  2
_DOTSMALL
 10
7544.160902108544
 20
8942.51669939905
 30
0.0
 41
100.0
 42
100.0
 43
100.0
  0
MTEXT
  5
18C2B
330
18C24
100
AcDbEntity
  8
寸法
 62
     7
 48
50.0
100
AcDbMText
 10
7061.28653022935
 20
9042.516699399049
 30
0.0
 40
120.0
 41
0.0
 71
     5
 72
     1
  1
\A1;1063
  7
STYLE1
 73
     1
 44
1.0
1001
ACAD
1000
MTEXTBEGIN
1070
    73
1070
     1
1070
    44
1040
1.0
1070
    74
1070
     0
1000
MTEXTEND
  0
POINT
  5
18C2C
330
18C24
100
AcDbEntity
  8
DEFPOINTS
 62
     0
 48
50.0
100
AcDbPoint
 10
6538.396575106998
 20
9156.123139034727
 30
0.0
  0
POINT
  5
18C2D
330
18C24
100
AcDbEntity
  8
DEFPOINTS
 62
     0
 48
50.0
100
AcDbPoint
 10
7601.39657510701
 20
9156.12313903472
 30
0.0
  0
POINT
  5
18C2E
330
18C24
100
AcDbEntity
  8
DEFPOINTS
 62
     0
 48
50.0
100
AcDbPoint
 10
7544.160902108544
 20
8942.51669939905
 30
0.0
  0
ENDBLK
  5
18C2F
330
18C24
100
AcDbEntity
  8
0
 48
50.0
100
AcDbBlockEnd
  0
BLOCK
  5
18C31
330
18C30
100
AcDbEntity
  8
0
 48
50.0
100
AcDbBlockBegin
  2
*D11
 70
     1
 10
0.0
 20
0.0
 30
0.0
  3
*D11
  1

  0
LINE
  5
18C32
330
18C30
100
AcDbEntity
  8
寸法
 62
     0
 48
50.0
370
    -2
100
AcDbLine
 10
7621.396575106999
 20
9600.764155186094
 30
0.0
 11
8016.754300969024
 21
9494.828371819961
 31
0.0
  0
LINE
  5
18C33
330
18C30
100
AcDbEntity
  8
寸法
 62
     0
 48
50.0
370
    -2
100
AcDbLine
 10
7621.396575106999
 20
9150.764155186099
 30
0.0
 11
8016.754300969024
 21
9044.828371819964
 31
0.0
  0
LINE
  5
18C34
330
18C30
100
AcDbEntity
  8
寸法
 62
     0
 48
50.0
370
    -2
100
AcDbLine
 10
7956.754300969024
 20
9510.905323365827
 30
0.0
 11
7956.754300969024
 21
9060.90532336583
 31
0.0
  0
INSERT
  5
18C35
330
18C30
100
AcDbEntity
  8
寸法
 62
     0
 48
50.0
370
    -2
100
AcDbBlockReference
  2
_DOTSMALL
 10
7956.754300969024
 20
9510.905323365827
 30
0.0
 41
100.0
 42
100.0
 43
100.0
 50
90.0
  0
INSERT
  5
18C36
330
18C30
100
AcDbEntity
  8
寸法
 62
     0
 48
50.0
370
    -2
100
AcDbBlockReference
  2
_DOTSMALL
 10
7956.754300969024
 20
9060.90532336583
 30
0.0
 41
100.0
 42
100.0
 43
100.0
 50
270.0
  0
MTEXT
  5
18C37
330
18C30
100
AcDbEntity
  8
寸法
 62
     7
 48
50.0
100
AcDbMText
 10
7856.754300969022
 20
9285.905323365829
 30
0.0
 40
120.0
 41
0.0
 71
     5
 72
     1
  1
\A1;450
  7
STYLE1
 11
0.0000000000000001
 21
1.0
 31
0.0
 73
     1
 44
1.0
1001
ACAD
1000
MTEXTBEGIN
1070
    73
1070
     1
1070
    44
1040
1.0
1070
    74
1070
     0
1000
MTEXTEND
  0
POINT
  5
18C38
330
18C30
100
AcDbEntity
  8
DEFPOINTS
 62
     0
 48
50.0
100
AcDbPoint
 10
7601.396575106999
 20
9606.123139034718
 30
0.0
  0
POINT
  5
18C39
330
18C30
100
AcDbEntity
  8
DEFPOINTS
 62
     0
 48
50.0
100
AcDbPoint
 10
7601.396575106999
 20
9156.12313903472
 30
0.0
  0
POINT
  5
18C3A
330
18C30
100
AcDbEntity
  8
DEFPOINTS
 62
     0
 48
50.0
100
AcDbPoint
 10
7956.754300969024
 20
9060.90532336583
 30
0.0
  0
ENDBLK
  5
18C3B
330
18C30
100
AcDbEntity
  8
0
 48
50.0
100
AcDbBlockEnd
  0
BLOCK
  5
18C3D
330
18C3C
100
AcDbEntity
  8
0
 48
50.0
100
AcDbBlockBegin
  2
*D12
 70
     1
 10
0.0
 20
0.0
 30
0.0
  3
*D12
  1

  0
LINE
  5
18C3E
330
18C3C
100
AcDbEntity
  8
寸法
 62
     0
 48
50.0
370
    -2
100
AcDbLine
 10
7649.896575106999
 20
9581.123139034721
 30
0.0
 11
8337.32292084141
 21
9581.123139034721
 31
0.0
  0
LINE
  5
18C3F
330
18C3C
100
AcDbEntity
  8
寸法
 62
     0
 48
50.0
370
    -2
100
AcDbLine
 10
7649.896575106973
 20
7901.123139034706
 30
0.0
 11
8337.32292084141
 21
7901.123139034706
 31
0.0
  0
LINE
  5
18C40
330
18C3C
100
AcDbEntity
  8
寸法
 62
     0
 48
50.0
370
    -2
100
AcDbLine
 10
8277.322920841411
 20
9581.123139034721
 30
0.0
 11
8277.322920841411
 21
7901.123139034706
 31
0.0
  0
INSERT
  5
18C41
330
18C3C
100
AcDbEntity
  8
寸法
 62
     0
 48
50.0
370
    -2
100
AcDbBlockReference
  2
_DOTSMALL
 10
8277.322920841411
 20
9581.123139034721
 30
0.0
 41
100.0
 42
100.0
 43
100.0
 50
90.0
  0
INSERT
  5
18C42
330
18C3C
100
AcDbEntity
  8
寸法
 62
     0
 48
50.0
370
    -2
100
AcDbBlockReference
  2
_DOTSMALL
 10
8277.322920841411
 20
7901.123139034706
 30
0.0
 41
100.0
 42
100.0
 43
100.0
 50
270.0
  0
MTEXT
  5
18C43
330
18C3C
100
AcDbEntity
  8
寸法
 62
     7
 48
50.0
100
AcDbMText
 10
8177.311109817788
 20
8741.123139034712
 30
0.0
 40
120.0
 41
0.0
 71
     5
 72
     1
  1
\A1;4X420=1680
  7
STYLE1
 11
0.0000000000000001
 21
1.0
 31
0.0
 73
     1
 44
1.0
1001
ACAD
1000
MTEXTBEGIN
1070
    73
1070
     1
1070
    44
1040
1.0
1070
    74
1070
     0
1000
MTEXTEND
  0
POINT
  5
18C44
330
18C3C
100
AcDbEntity
  8
DEFPOINTS
 62
     0
 48
50.0
100
AcDbPoint
 10
7629.896575106998
 20
9581.123139034721
 30
0.0
  0
POINT
  5
18C45
330
18C3C
100
AcDbEntity
  8
DEFPOINTS
 62
     0
 48
50.0
100
AcDbPoint
 10
7629.896575106974
 20
7901.123139034706
 30
0.0
  0
POINT
  5
18C46
330
18C3C
100
AcDbEntity
  8
DEFPOINTS
 62
     0
 48
50.0
100
AcDbPoint
 10
8277.322920841411
 20
7901.123139034706
 30
0.0
  0
ENDBLK
  5
18C47
330
18C3C
100
AcDbEntity
  8
0
 48
50.0
100
AcDbBlockEnd
  0
BLOCK
  5
18C49
330
18C48
100
AcDbEntity
  8
0
 48
50.0
100
AcDbBlockBegin
  2
*D13
 70
     1
 10
0.0
 20
0.0
 30
0.0
  3
*D13
  1

  0
LINE
  5
18C4A
330
18C48
100
AcDbEntity
  8
寸法
 62
     0
 48
50.0
370
    -2
100
AcDbLine
 10
4183.037591258377
 20
9136.123139034619
 30
0.0
 11
4115.083950562663
 21
8882.516699398941
 31
0.0
  0
LINE
  5
18C4B
330
18C48
100
AcDbEntity
  8
寸法
 62
     0
 48
50.0
370
    -2
100
AcDbLine
 10
5246.037591258307
 20
9136.123139034671
 30
0.0
 11
5178.08395056258
 21
8882.516699398941
 31
0.0
  0
LINE
  5
18C4C
330
18C48
100
AcDbEntity
  8
寸法
 62
     0
 48
50.0
370
    -2
100
AcDbLine
 10
4131.160902108532
 20
8942.516699398941
 30
0.0
 11
5194.160902108448
 21
8942.516699398941
 31
0.0
  0
INSERT
  5
18C4D
330
18C48
100
AcDbEntity
  8
寸法
 62
     0
 48
50.0
370
    -2
100
AcDbBlockReference
  2
_DOTSMALL
 10
4131.160902108532
 20
8942.516699398941
 30
0.0
 41
100.0
 42
100.0
 43
100.0
 50
180.0
  0
INSERT
  5
18C4E
330
18C48
100
AcDbEntity
  8
寸法
 62
     0
 48
50.0
370
    -2
100
AcDbBlockReference
  2
_DOTSMALL
 10
5194.160902108448
 20
8942.516699398941
 30
0.0
 41
100.0
 42
100.0
 43
100.0
  0
MTEXT
  5
18C4F
330
18C48
100
AcDbEntity
  8
寸法
 62
     7
 48
50.0
100
AcDbMText
 10
4658.986452655306
 20
9042.516699398941
 30
0.0
 40
120.0
 41
0.0
 71
     5
 72
     1
  1
\A1;1063
  7
STYLE1
 73
     1
 44
1.0
1001
ACAD
1000
MTEXTBEGIN
1070
    73
1070
     1
1070
    44
1040
1.0
1070
    74
1070
     0
1000
MTEXTEND
  0
POINT
  5
18C50
330
18C48
100
AcDbEntity
  8
DEFPOINTS
 62
     0
 48
50.0
100
AcDbPoint
 10
4188.396575106999
 20
9156.123139034617
 30
0.0
  0
POINT
  5
18C51
330
18C48
100
AcDbEntity
  8
DEFPOINTS
 62
     0
 48
50.0
100
AcDbPoint
 10
5251.396575106929
 20
9156.123139034672
 30
0.0
  0
POINT
  5
18C52
330
18C48
100
AcDbEntity
  8
DEFPOINTS
 62
     0
 48
50.0
100
AcDbPoint
 10
5194.160902108448
 20
8942.516699398941
 30
0.0
  0
ENDBLK
  5
18C53
330
18C48
100
AcDbEntity
  8
0
 48
50.0
100
AcDbBlockEnd
  0
BLOCK
  5
18C55
330
18C54
100
AcDbEntity
  8
0
 48
50.0
100
AcDbBlockBegin
  2
*D14
 70
     1
 10
0.0
 20
0.0
 30
0.0
  3
*D14
  1

  0
LINE
  5
18C56
330
18C54
100
AcDbEntity
  8
寸法
 62
     0
 48
50.0
370
    -2
100
AcDbLine
 10
5274.037591258307
 20
9136.123139034669
 30
0.0
 11
5206.08395056258
 21
8882.516699398941
 31
0.0
  0
LINE
  5
18C57
330
18C54
100
AcDbEntity
  8
寸法
 62
     0
 48
50.0
370
    -2
100
AcDbLine
 10
6505.037591258377
 20
9136.123139034662
 30
0.0
 11
6437.083950562653
 21
8882.516699398941
 31
0.0
  0
LINE
  5
18C58
330
18C54
100
AcDbEntity
  8
寸法
 62
     0
 48
50.0
370
    -2
100
AcDbLine
 10
5222.160902108448
 20
8942.516699398941
 30
0.0
 11
6453.16090210852
 21
8942.516699398941
 31
0.0
  0
INSERT
  5
18C59
330
18C54
100
AcDbEntity
  8
寸法
 62
     0
 48
50.0
370
    -2
100
AcDbBlockReference
  2
_DOTSMALL
 10
5222.160902108448
 20
8942.516699398941
 30
0.0
 41
100.0
 42
100.0
 43
100.0
 50
180.0
  0
INSERT
  5
18C5A
330
18C54
100
AcDbEntity
  8
寸法
 62
     0
 48
50.0
370
    -2
100
AcDbBlockReference
  2
_DOTSMALL
 10
6453.16090210852
 20
8942.516699398941
 30
0.0
 41
100.0
 42
100.0
 43
100.0
  0
MTEXT
  5
18C5B
330
18C54
100
AcDbEntity
  8
寸法
 62
     7
 48
50.0
100
AcDbMText
 10
6081.244808320626
 20
9042.528510422561
 30
0.0
 40
120.0
 41
0.0
 71
     5
 72
     1
  1
\A1;1231
  7
STYLE1
 73
     1
 44
1.0
1001
ACAD
1000
MTEXTBEGIN
1070
    73
1070
     1
1070
    44
1040
1.0
1070
    74
1070
     0
1000
MTEXTEND
  0
POINT
  5
18C5C
330
18C54
100
AcDbEntity
  8
DEFPOINTS
 62
     0
 48
50.0
100
AcDbPoint
 10
5279.396575106929
 20
9156.123139034669
 30
0.0
  0
POINT
  5
18C5D
330
18C54
100
AcDbEntity
  8
DEFPOINTS
 62
     0
 48
50.0
100
AcDbPoint
 10
6510.396575106999
 20
9156.123139034662
 30
0.0
  0
POINT
  5
18C5E
330
18C54
100
AcDbEntity
  8
DEFPOINTS
 62
     0
 48
50.0
100
AcDbPoint
 10
6453.16090210852
 20
8942.516699398941
 30
0.0
  0
ENDBLK
  5
18C5F
330
18C54
100
AcDbEntity
  8
0
 48
50.0
100
AcDbBlockEnd
  0
BLOCK
  5
18C61
330
18C60
100
AcDbEntity
  8
0
 48
50.0
100
AcDbBlockBegin
  2
*D15
 70
     1
 10
0.0
 20
0.0
 30
0.0
  3
*D15
  1

  0
LINE
  5
18C62
330
18C60
100
AcDbEntity
  8
寸法
 62
     0
 48
50.0
370
    -2
100
AcDbLine
 10
5065.896575106966
 20
7749.123139034579
 30
0.0
 11
5065.896575106966
 21
7099.952920982538
 31
0.0
  0
LINE
  5
18C63
330
18C60
100
AcDbEntity
  8
寸法
 62
     0
 48
50.0
370
    -2
100
AcDbLine
 10
6331.896575106966
 20
7749.123139034579
 30
0.0
 11
6331.896575106966
 21
7099.952920982538
 31
0.0
  0
LINE
  5
18C64
330
18C60
100
AcDbEntity
  8
寸法
 62
     0
 48
50.0
370
    -2
100
AcDbLine
 10
5065.896575106966
 20
7159.952920982537
 30
0.0
 11
6331.896575106966
 21
7159.952920982537
 31
0.0
  0
INSERT
  5
18C65
330
18C60
100
AcDbEntity
  8
寸法
 62
     0
 48
50.0
370
    -2
100
AcDbBlockReference
  2
_DOTSMALL
 10
5065.896575106966
 20
7159.952920982537
 30
0.0
 41
100.0
 42
100.0
 43
100.0
 50
180.0
  0
INSERT
  5
18C66
330
18C60
100
AcDbEntity
  8
寸法
 62
     0
 48
50.0
370
    -2
100
AcDbBlockReference
  2
_DOTSMALL
 10
6331.896575106966
 20
7159.952920982537
 30
0.0
 41
100.0
 42
100.0
 43
100.0
  0
MTEXT
  5
18C67
330
18C60
100
AcDbEntity
  8
寸法
 62
     7
 48
50.0
100
AcDbMText
 10
5711.986008735934
 20
7359.964732006159
 30
0.0
 40
120.0
 41
0.0
 71
     5
 72
     1
  1
\A1;有効開口部間口\P1266
  7
STYLE1
 73
     1
 44
1.0
1001
ACAD
1000
MTEXTBEGIN
1070
    73
1070
     1
1070
    44
1040
1.0
1070
    74
1070
     0
1000
MTEXTEND
  0
POINT
  5
18C68
330
18C60
100
AcDbEntity
  8
DEFPOINTS
 62
     0
 48
50.0
100
AcDbPoint
 10
5065.896575106966
 20
7769.123139034579
 30
0.0
  0
POINT
  5
18C69
330
18C60
100
AcDbEntity
  8
DEFPOINTS
 62
     0
 48
50.0
100
AcDbPoint
 10
6331.896575106966
 20
7769.123139034579
 30
0.0
  0
POINT
  5
18C6A
330
18C60
100
AcDbEntity
  8
DEFPOINTS
 62
     0
 48
50.0
100
AcDbPoint
 10
6331.896575106966
 20
7159.952920982537
 30
0.0
  0
ENDBLK
  5
18C6B
330
18C60
100
AcDbEntity
  8
0
 48
50.0
100
AcDbBlockEnd
  0
BLOCK
  5
18C6D
330
18C6C
100
AcDbEntity
  8
0
 48
50.0
100
AcDbBlockBegin
  2
*D16
 70
     1
 10
0.0
 20
0.0
 30
0.0
  3
*D16
  1

  0
LINE
  5
18C6E
330
18C6C
100
AcDbEntity
  8
寸法
 62
     0
 48
50.0
370
    -2
100
AcDbLine
 10
7200.896575106966
 20
7846.123139034578
 30
0.0
 11
7457.192158500191
 21
7846.123139034578
 31
0.0
  0
LINE
  5
18C6F
330
18C6C
100
AcDbEntity
  8
寸法
 62
     0
 48
50.0
370
    -2
100
AcDbLine
 10
7199.896575106966
 20
7769.123139034579
 30
0.0
 11
7457.192158500191
 21
7769.123139034579
 31
0.0
  0
LINE
  5
18C70
330
18C6C
100
AcDbEntity
  8
寸法
 62
     0
 48
50.0
370
    -2
100
AcDbLine
 10
7417.192158500192
 20
7866.123139034579
 30
0.0
 11
7417.192158500192
 21
7886.123139034578
 31
0.0
  0
LINE
  5
18C71
330
18C6C
100
AcDbEntity
  8
寸法
 62
     0
 48
50.0
370
    -2
100
AcDbLine
 10
7417.192158500192
 20
7749.123139034579
 30
0.0
 11
7417.192158500192
 21
7533.123139034573
 31
0.0
  0
LINE
  5
18C72
330
18C6C
100
AcDbEntity
  8
寸法
 62
     0
 48
50.0
370
    -2
100
AcDbLine
 10
7417.192158500192
 20
7846.123139034578
 30
0.0
 11
7417.192158500192
 21
7769.123139034579
 31
0.0
  0
INSERT
  5
18C73
330
18C6C
100
AcDbEntity
  8
寸法
 62
     0
 48
50.0
370
    -2
100
AcDbBlockReference
  2
_DOT
 10
7417.192158500192
 20
7846.123139034578
 30
0.0
 41
20.0
 42
20.0
 43
20.0
 50
270.0
  0
INSERT
  5
18C74
330
18C6C
100
AcDbEntity
  8
寸法
 62
     0
 48
50.0
370
    -2
100
AcDbBlockReference
  2
_DOT
 10
7417.192158500192
 20
7769.123139034579
 30
0.0
 41
20.0
 42
20.0
 43
20.0
 50
90.0
  0
MTEXT
  5
18C75
330
18C6C
100
AcDbEntity
  8
寸法
 62
     7
 48
50.0
100
AcDbMText
 10
7325.192158500191
 20
7631.123139034575
 30
0.0
 40
120.0
 41
0.0
 71
     5
 72
     1
  1
\A1;77
  7
STYLE1
 11
0.0000000000000001
 21
1.0
 31
0.0
 73
     1
 44
1.0
1001
ACAD
1000
MTEXTBEGIN
1070
    73
1070
     1
1070
    44
1040
1.0
1070
    74
1070
     0
1000
MTEXTEND
  0
POINT
  5
18C76
330
18C6C
100
AcDbEntity
  8
DEFPOINTS
 62
     0
 48
50.0
100
AcDbPoint
 10
7180.896575106967
 20
7846.123139034578
 30
0.0
  0
POINT
  5
18C77
330
18C6C
100
AcDbEntity
  8
DEFPOINTS
 62
     0
 48
50.0
100
AcDbPoint
 10
7179.896575106965
 20
7769.123139034579
 30
0.0
  0
POINT
  5
18C78
330
18C6C
100
AcDbEntity
  8
DEFPOINTS
 62
     0
 48
50.0
100
AcDbPoint
 10
7417.192158500192
 20
7769.123139034579
 30
0.0
  0
ENDBLK
  5
18C79
330
18C6C
100
AcDbEntity
  8
0
 48
50.0
100
AcDbBlockEnd
  0
BLOCK
  5
18DA0
330
18C7A
100
AcDbEntity
  8
0
 48
50.0
100
AcDbBlockBegin
  2
A$C3B1A506B
 70
     0
 10
0.0
 20
0.0
 30
0.0
  3
A$C3B1A506B
  1

  0
MTEXT
  5
18C7B
330
18C7A
100
AcDbEntity
  8
寸法
 62
     7
 48
50.0
100
AcDbMText
 10
3342.250386887194
 20
2778.329429134012
 30
0.0
 40
96.0
 41
0.0
 71
     5
 72
     1
  1
棚 2段
  7
STYLE1
 73
     1
 44
1.0
1001
ACAD
1000
MTEXTBEGIN
1070
    73
1070
     1
1070
    44
1040
1.0
1070
    74
1070
     0
1000
MTEXTEND
  0
MTEXT
  5
18C7C
330
18C7A
100
AcDbEntity
  8
寸法
 62
     7
 48
50.0
100
AcDbMText
 10
2167.25038688716
 20
2778.329429133986
 30
0.0
 40
96.0
 41
0.0
 71
     5
 72
     1
  1
棚 2段
  7
STYLE1
 73
     1
 44
1.0
1001
ACAD
1000
MTEXTBEGIN
1070
    73
1070
     1
1070
    44
1040
1.0
1070
    74
1070
     0
1000
MTEXTEND
  0
MTEXT
  5
18C7D
330
18C7A
100
AcDbEntity
  8
寸法
 62
     7
 48
50.0
100
AcDbMText
 10
992.2503868871608
 20
2778.329429133935
 30
0.0
 40
96.0
 41
0.0
 71
     5
 72
     1
  1
棚 2段
  7
STYLE1
 73
     1
 44
1.0
1001
ACAD
1000
MTEXTBEGIN
1070
    73
1070
     1
1070
    44
1040
1.0
1070
    74
1070
     0
1000
MTEXTEND
  0
LINE
  5
18C7E
330
18C7A
100
AcDbEntity
  8
細線
 48
50.0
100
AcDbLine
 10
2771.970589276527
 20
1368.994384123192
 30
0.0
 11
3398.970589276523
 21
1368.994384123192
 31
0.0
  0
LINE
  5
18C7F
330
18C7A
100
AcDbEntity
  8
細線
 48
50.0
100
AcDbLine
 10
2117.970593930113
 20
1335.285615569113
 30
0.0
 11
3398.970589276523
 21
1335.285615569113
 31
0.0
  0
LINE
  5
18C80
330
18C7A
100
AcDbEntity
  8
細線
 48
50.0
100
AcDbLine
 10
2076.970593930115
 20
1364.690523565368
 30
0.0
 11
1322.970589276523
 21
1364.690523565367
 31
0.0
  0
LINE
  5
18C81
330
18C7A
100
AcDbEntity
  8
細線
100
AcDbLine
 10
3170.720579860066
 20
1388.494284088199
 30
0.0
 11
3173.052119381877
 21
1393.494286728162
 31
0.0
  0
LINE
  5
18C82
330
18C7A
100
AcDbEntity
  8
細線
100
AcDbLine
 10
3240.720589276525
 20
1388.494269174465
 30
0.0
 11
3238.389042800336
 21
1393.494286728144
 31
0.0
  0
LINE
  5
18C83
330
18C7A
100
AcDbEntity
  8
細線
100
AcDbLine
 10
3238.389042800336
 20
1393.494286728144
 30
0.0
 11
3173.052119381862
 21
1393.494286728133
 31
0.0
  0
LINE
  5
18C84
330
18C7A
100
AcDbEntity
  8
細線
100
AcDbLine
 10
3098.389042800336
 20
1393.494286728144
 30
0.0
 11
3033.052119381862
 21
1393.494286728133
 31
0.0
  0
LINE
  5
18C85
330
18C7A
100
AcDbEntity
  8
細線
100
AcDbLine
 10
3100.720589276523
 20
1388.494269174465
 30
0.0
 11
3098.389042800336
 21
1393.494286728144
 31
0.0
  0
LINE
  5
18C86
330
18C7A
100
AcDbEntity
  8
細線
100
AcDbLine
 10
3030.720579860066
 20
1388.494284088199
 30
0.0
 11
3033.052119381875
 21
1393.494286728162
 31
0.0
  0
LINE
  5
18C87
330
18C7A
100
AcDbEntity
  8
細線
100
AcDbLine
 10
2890.720589276525
 20
1388.494269174465
 30
0.0
 11
2893.052128798336
 21
1393.494271814428
 31
0.0
  0
LINE
  5
18C88
330
18C7A
100
AcDbEntity
  8
細線
100
AcDbLine
 10
2960.720598692984
 20
1388.494254260731
 30
0.0
 11
2958.389052216793
 21
1393.49427181441
 31
0.0
  0
LINE
  5
18C89
330
18C7A
100
AcDbEntity
  8
細線
100
AcDbLine
 10
2958.389052216795
 20
1393.49427181441
 30
0.0
 11
2893.052128798321
 21
1393.494271814399
 31
0.0
  0
LINE
  5
18C8A
330
18C7A
100
AcDbEntity
  8
細線
100
AcDbLine
 10
2667.139038146739
 20
1359.494298590735
 30
0.0
 11
2601.802114728263
 21
1359.494298590724
 31
0.0
  0
LINE
  5
18C8B
330
18C7A
100
AcDbEntity
  8
細線
100
AcDbLine
 10
2669.470584622926
 20
1354.494281037055
 30
0.0
 11
2667.139038146737
 21
1359.494298590735
 31
0.0
  0
LINE
  5
18C8C
330
18C7A
100
AcDbEntity
  8
細線
100
AcDbLine
 10
2599.470575206469
 20
1354.49429595079
 30
0.0
 11
2601.802114728278
 21
1359.494298590752
 31
0.0
  0
LINE
  5
18C8D
330
18C7A
100
AcDbEntity
  8
細線
 48
50.0
100
AcDbLine
 10
2440.853968524536
 20
1372.765132327548
 30
0.0
 11
2446.609486107205
 21
1354.494281037057
 31
0.0
  0
LINE
  5
18C8E
330
18C7A
100
AcDbEntity
  8
細線
 48
50.0
100
AcDbLine
 10
2429.925520044106
 20
1372.765132327546
 30
0.0
 11
2440.853968524536
 21
1372.765132327548
 31
0.0
  0
ARC
  5
18C8F
330
18C7A
100
AcDbEntity
  8
細線
 48
50.0
100
AcDbCircle
 10
2424.471163986787
 20
1374.265132327546
 30
0.0
 40
5.0
100
AcDbArc
 50
204.6243183520723
 51
335.3756816479278
  0
ARC
  5
18C90
330
18C7A
100
AcDbEntity
  8
細線
 48
50.0
100
AcDbCircle
 10
2429.925520044106
 20
1371.765132327546
 30
0.0
 40
1.0
100
AcDbArc
 50
90.0
 51
155.3756816479277
  0
ARC
  5
18C91
330
18C7A
100
AcDbEntity
  8
細線
 48
50.0
100
AcDbCircle
 10
2419.016807929469
 20
1371.765132327546
 30
0.0
 40
1.0
100
AcDbArc
 50
24.62431835207225
 51
90.0
  0
LINE
  5
18C92
330
18C7A
100
AcDbEntity
  8
細線
 48
50.0
100
AcDbLine
 10
2408.088359449037
 20
1372.765132327548
 30
0.0
 11
2419.016807929469
 21
1372.765132327546
 31
0.0
  0
LINE
  5
18C93
330
18C7A
100
AcDbEntity
  8
細線
 48
50.0
100
AcDbLine
 10
2402.33284186637
 20
1354.494281037054
 30
0.0
 11
2408.088359449037
 21
1372.765132327548
 31
0.0
  0
LINE
  5
18C94
330
18C7A
100
AcDbEntity
  8
細線
100
AcDbLine
 10
2458.070304175992
 20
1354.494278397076
 30
0.0
 11
2460.401843697802
 21
1359.494281037039
 31
0.0
  0
LINE
  5
18C95
330
18C7A
100
AcDbEntity
  8
細線
100
AcDbLine
 10
2528.070313592451
 20
1354.494263483342
 30
0.0
 11
2525.738767116262
 21
1359.494281037021
 31
0.0
  0
LINE
  5
18C96
330
18C7A
100
AcDbEntity
  8
細線
100
AcDbLine
 10
2525.738767116262
 20
1359.494281037021
 30
0.0
 11
2460.40184369779
 21
1359.49428103701
 31
0.0
  0
LINE
  5
18C97
330
18C7A
100
AcDbEntity
  8
細線
100
AcDbLine
 10
2387.139046332155
 20
1359.494281037021
 30
0.0
 11
2321.80212291368
 21
1359.49428103701
 31
0.0
  0
LINE
  5
18C98
330
18C7A
100
AcDbEntity
  8
細線
100
AcDbLine
 10
2389.470592808342
 20
1354.494263483342
 30
0.0
 11
2387.139046332153
 21
1359.494281037021
 31
0.0
  0
LINE
  5
18C99
330
18C7A
100
AcDbEntity
  8
細線
100
AcDbLine
 10
2319.470584622926
 20
1354.494281037054
 30
0.0
 11
2321.802122913694
 21
1359.494281037039
 31
0.0
  0
LINE
  5
18C9A
330
18C7A
100
AcDbEntity
  8
細線
100
AcDbLine
 10
2179.47061994182
 20
1354.494289224422
 30
0.0
 11
2181.802158232587
 21
1359.494289224407
 31
0.0
  0
LINE
  5
18C9B
330
18C7A
100
AcDbEntity
  8
細線
100
AcDbLine
 10
2249.470628127236
 20
1354.49427167071
 30
0.0
 11
2247.139081651047
 21
1359.494289224389
 31
0.0
  0
LINE
  5
18C9C
330
18C7A
100
AcDbEntity
  8
細線
100
AcDbLine
 10
2247.139081651047
 20
1359.494289224389
 30
0.0
 11
2181.802158232573
 21
1359.494289224378
 31
0.0
  0
LINE
  5
18C9D
330
18C7A
100
AcDbEntity
  8
細線
100
AcDbLine
 10
1807.970585744697
 20
1320.494460905133
 30
0.0
 11
1810.302124035464
 21
1325.494460905118
 31
0.0
  0
LINE
  5
18C9E
330
18C7A
100
AcDbEntity
  8
細線
100
AcDbLine
 10
1877.970593930113
 20
1320.494443351421
 30
0.0
 11
1875.639047453926
 21
1325.4944609051
 31
0.0
  0
LINE
  5
18C9F
330
18C7A
100
AcDbEntity
  8
細線
100
AcDbLine
 10
1875.639047453926
 20
1325.4944609051
 30
0.0
 11
1810.302124035452
 21
1325.494460905089
 31
0.0
  0
LINE
  5
18CA0
330
18C7A
100
AcDbEntity
  8
細線
100
AcDbLine
 10
2015.639047453926
 20
1325.4944609051
 30
0.0
 11
1950.302124035452
 21
1325.494460905089
 31
0.0
  0
LINE
  5
18CA1
330
18C7A
100
AcDbEntity
  8
細線
100
AcDbLine
 10
2017.970593930113
 20
1320.494443351421
 30
0.0
 11
2015.639047453924
 21
1325.4944609051
 31
0.0
  0
LINE
  5
18CA2
330
18C7A
100
AcDbEntity
  8
細線
100
AcDbLine
 10
1947.970585744697
 20
1320.494460905133
 30
0.0
 11
1950.302124035465
 21
1325.494460905118
 31
0.0
  0
LINE
  5
18CA3
330
18C7A
100
AcDbEntity
  8
細線
100
AcDbLine
 10
1735.639047453926
 20
1325.494460905098
 30
0.0
 11
1670.302124035454
 21
1325.494460905087
 31
0.0
  0
LINE
  5
18CA4
330
18C7A
100
AcDbEntity
  8
細線
100
AcDbLine
 10
1737.970593930113
 20
1320.494443351419
 30
0.0
 11
1735.639047453926
 21
1325.494460905098
 31
0.0
  0
LINE
  5
18CA5
330
18C7A
100
AcDbEntity
  8
細線
100
AcDbLine
 10
1667.970585744697
 20
1320.494460905131
 30
0.0
 11
1670.302124035465
 21
1325.494460905116
 31
0.0
  0
LINE
  5
18CA6
330
18C7A
100
AcDbEntity
  8
細線
100
AcDbLine
 10
1527.970593930113
 20
1320.494460905133
 30
0.0
 11
1530.302132220881
 21
1325.494460905118
 31
0.0
  0
LINE
  5
18CA7
330
18C7A
100
AcDbEntity
  8
細線
100
AcDbLine
 10
1597.970602115529
 20
1320.494443351421
 30
0.0
 11
1595.639055639342
 21
1325.4944609051
 31
0.0
  0
LINE
  5
18CA8
330
18C7A
100
AcDbEntity
  8
細線
100
AcDbLine
 10
1595.639055639342
 20
1325.4944609051
 30
0.0
 11
1530.302132220869
 21
1325.494460905089
 31
0.0
  0
ARC
  5
18CA9
330
18C7A
100
AcDbEntity
  8
部品1
 48
0.01
100
AcDbCircle
 10
1483.470482677778
 20
1319.493338720063
 30
0.0
 40
0.5
100
AcDbArc
 50
270.0
 51
0.0
  0
LINE
  5
18CAA
330
18C7A
100
AcDbEntity
  8
部品1
 48
0.01
100
AcDbLine
 10
1483.970482677778
 20
1320.493338720063
 30
0.0
 11
1483.970482677778
 21
1319.493338720063
 31
0.0
  0
LINE
  5
18CAB
330
18C7A
100
AcDbEntity
  8
部品1
 48
0.01
100
AcDbLine
 10
1483.970482677778
 20
1320.493338720063
 30
0.0
 11
1483.970482677778
 21
1319.493338720063
 31
0.0
  0
LINE
  5
18CAC
330
18C7A
100
AcDbEntity
  8
部品1
 48
0.01
100
AcDbLine
 10
1483.470482677778
 20
1318.993338720063
 30
0.0
 11
1476.857977247713
 21
1318.993338720062
 31
0.0
  0
ARC
  5
18CAD
330
18C7A
100
AcDbEntity
  8
部品1
100
AcDbCircle
 10
1476.926326800494
 20
1319.993338720062
 30
0.0
 40
1.0
100
AcDbArc
 50
160.5287793655865
 51
270.0
  0
ARC
  5
18CAE
330
18C7A
100
AcDbEntity
  8
部品1
100
AcDbCircle
 10
1451.470482677778
 20
1328.993338720062
 30
0.0
 40
26.0
100
AcDbArc
 50
340.5287793655865
 51
0.0
  0
LINE
  5
18CAF
330
18C7A
100
AcDbEntity
  8
部品1
100
AcDbLine
 10
1477.470482677778
 20
1328.993338720062
 30
0.0
 11
1477.470482677778
 21
1333.993338720061
 31
0.0
  0
ARC
  5
18CB0
330
18C7A
100
AcDbEntity
  8
部品1
 48
0.01
100
AcDbCircle
 10
1475.470482677778
 20
1333.993338720061
 30
0.0
 40
2.0
100
AcDbArc
 50
0.0
 51
90.0
  0
ARC
  5
18CB1
330
18C7A
100
AcDbEntity
  8
部品1
100
AcDbCircle
 10
1473.862091052968
 20
1332.993338720062
 30
0.0
 40
3.0
100
AcDbArc
 50
90.0
 51
141.6069559808035
  0
LINE
  5
18CB2
330
18C7A
100
AcDbEntity
  8
部品1
 48
0.01
100
AcDbLine
 10
1475.470482677778
 20
1335.993338720062
 30
0.0
 11
1473.862091052968
 21
1335.993338720062
 31
0.0
  0
ARC
  5
18CB3
330
18C7A
100
AcDbEntity
  8
部品1
100
AcDbCircle
 10
1455.399768463507
 20
1332.293338720065
 30
0.0
 40
3.0
100
AcDbArc
 50
254.0576313943215
 51
270.0
  0
ARC
  5
18CB4
330
18C7A
100
AcDbEntity
  8
部品1
100
AcDbCircle
 10
1462.541196892049
 20
1332.293338720065
 30
0.0
 40
3.0
100
AcDbArc
 50
270.0
 51
285.9423686056786
  0
LINE
  5
18CB5
330
18C7A
100
AcDbEntity
  8
部品1
100
AcDbLine
 10
1462.541196892049
 20
1329.293338720064
 30
0.0
 11
1455.399768463507
 21
1329.293338720064
 31
0.0
  0
ARC
  5
18CB6
330
18C7A
100
AcDbEntity
  8
部品1
100
AcDbCircle
 10
1458.970482677778
 20
1344.793338720065
 30
0.0
 40
16.0
100
AcDbArc
 50
285.9423686056786
 51
321.6069559808035
  0
LINE
  5
18CB7
330
18C7A
100
AcDbEntity
  8
部品1
 48
0.01
100
AcDbLine
 10
1442.470482677778
 20
1335.993338720062
 30
0.0
 11
1444.078874302588
 21
1335.993338720062
 31
0.0
  0
ARC
  5
18CB8
330
18C7A
100
AcDbEntity
  8
部品1
100
AcDbCircle
 10
1444.078874302588
 20
1332.993338720062
 30
0.0
 40
3.0
100
AcDbArc
 50
38.39304401919648
 51
90.0
  0
ARC
  5
18CB9
330
18C7A
100
AcDbEntity
  8
部品1
100
AcDbCircle
 10
1458.970482677778
 20
1344.793338720065
 30
0.0
 40
16.0
100
AcDbArc
 50
218.3930440191965
 51
254.0576313943215
  0
LINE
  5
18CBA
330
18C7A
100
AcDbEntity
  8
部品1
100
AcDbLine
 10
1440.470482677778
 20
1328.993338720062
 30
0.0
 11
1440.470482677778
 21
1333.993338720061
 31
0.0
  0
ARC
  5
18CBB
330
18C7A
100
AcDbEntity
  8
部品1
 48
0.01
100
AcDbCircle
 10
1442.470482677778
 20
1333.993338720061
 30
0.0
 40
2.0
100
AcDbArc
 50
90.0
 51
180.0
  0
ARC
  5
18CBC
330
18C7A
100
AcDbEntity
  8
部品1
100
AcDbCircle
 10
1466.470482677778
 20
1328.993338720062
 30
0.0
 40
26.0
100
AcDbArc
 50
180.0
 51
199.4712206344134
  0
ARC
  5
18CBD
330
18C7A
100
AcDbEntity
  8
部品1
 48
0.01
100
AcDbCircle
 10
1434.470482677778
 20
1319.493338720063
 30
0.0
 40
0.5
100
AcDbArc
 50
180.0
 51
270.0
  0
LINE
  5
18CBE
330
18C7A
100
AcDbEntity
  8
部品1
 48
0.01
100
AcDbLine
 10
1434.470482677778
 20
1318.993338720063
 30
0.0
 11
1441.014638555061
 21
1318.993338720062
 31
0.0
  0
LINE
  5
18CBF
330
18C7A
100
AcDbEntity
  8
部品1
 48
0.01
100
AcDbLine
 10
1433.970482677778
 20
1320.493338720063
 30
0.0
 11
1433.970482677778
 21
1319.493338720063
 31
0.0
  0
ARC
  5
18CC0
330
18C7A
100
AcDbEntity
  8
部品1
100
AcDbCircle
 10
1441.014638555061
 20
1319.993338720062
 30
0.0
 40
1.0
100
AcDbArc
 50
270.0
 51
19.47122063441346
  0
LINE
  5
18CC1
330
18C7A
100
AcDbEntity
  8
細線
100
AcDbLine
 10
1479.470482677785
 20
1338.493338720065
 30
0.0
 11
1438.470482677785
 21
1338.493338720058
 31
0.0
  0
LINE
  5
18CC2
330
18C7A
100
AcDbEntity
  8
細線
100
AcDbLine
 10
1438.470482677785
 20
1338.493338720058
 30
0.0
 11
1438.470482677785
 21
1320.49333872004
 31
0.0
  0
LINE
  5
18CC3
330
18C7A
100
AcDbEntity
  8
細線
100
AcDbLine
 10
1479.470482677785
 20
1338.493338720065
 30
0.0
 11
1479.470482677785
 21
1320.49333872004
 31
0.0
  0
LINE
  5
18CC4
330
18C7A
100
AcDbEntity
  8
細線
100
AcDbLine
 10
1322.970589276523
 20
1324.494269174465
 30
0.0
 11
1322.970589276523
 21
1320.494269174513
 31
0.0
  0
LINE
  5
18CC5
330
18C7A
100
AcDbEntity
  8
寸法
 48
50.0
100
AcDbLine
 10
1746.17359555837
 20
1170.531020743327
 30
0.0
 11
1694.767587648266
 21
1170.531020743327
 31
0.0
  0
LINE
  5
18CC6
330
18C7A
100
AcDbEntity
  8
寸法
 48
50.0
100
AcDbLine
 10
1694.767587648266
 20
1170.531020743327
 30
0.0
 11
1694.767587648266
 21
1201.841179395494
 31
0.0
  0
LINE
  5
18CC7
330
18C7A
100
AcDbEntity
  8
寸法
 48
50.0
100
AcDbLine
 10
1694.767587648266
 20
1201.841179395494
 30
0.0
 11
1665.006255656843
 21
1201.841179395494
 31
0.0
  0
LINE
  5
18CC8
330
18C7A
100
AcDbEntity
  8
寸法
 48
50.0
100
AcDbLine
 10
1665.006255656843
 20
1201.841179395494
 30
0.0
 11
1720.470591603318
 21
1239.420630324105
 31
0.0
  0
LINE
  5
18CC9
330
18C7A
100
AcDbEntity
  8
寸法
 48
50.0
100
AcDbLine
 10
1775.934927549793
 20
1201.841179395494
 30
0.0
 11
1720.470591603318
 21
1239.420630324105
 31
0.0
  0
LINE
  5
18CCA
330
18C7A
100
AcDbEntity
  8
寸法
 48
50.0
100
AcDbLine
 10
1746.17359555837
 20
1201.841179395494
 30
0.0
 11
1775.934927549793
 21
1201.841179395494
 31
0.0
  0
LINE
  5
18CCB
330
18C7A
100
AcDbEntity
  8
寸法
 48
50.0
100
AcDbLine
 10
1746.17359555837
 20
1170.531020743327
 30
0.0
 11
1746.17359555837
 21
1201.841179395494
 31
0.0
  0
LINE
  5
18CCC
330
18C7A
100
AcDbEntity
  8
寸法
 48
50.0
100
AcDbLine
 10
1694.767587648266
 20
1170.531020743327
 30
0.0
 11
1746.17359555837
 21
1170.531020743327
 31
0.0
  0
LINE
  5
18CCD
330
18C7A
100
AcDbEntity
  8
寸法
 48
50.0
100
AcDbLine
 10
2025.339129835225
 20
1227.676611498152
 30
0.0
 11
2025.339129835225
 21
1174.01297691636
 31
0.0
  0
LINE
  5
18CCE
330
18C7A
100
AcDbEntity
  8
寸法
 48
50.0
100
AcDbLine
 10
2114.623348430647
 20
1203.752977228664
 30
0.0
 11
2025.339129835225
 21
1227.676611498152
 31
0.0
  0
LINE
  5
18CCF
330
18C7A
100
AcDbEntity
  8
寸法
 48
50.0
100
AcDbLine
 10
1895.471408254923
 20
1203.752977228664
 30
0.0
 11
2114.623348430647
 21
1203.752977228664
 31
0.0
  0
DIMENSION
  5
18CD0
330
18C7A
100
AcDbEntity
  8
寸法
 48
50.0
100
AcDbDimension
  2
*D15
 10
2588.970589276523
 20
706.3240511224249
 30
0.0
 11
1969.060022905491
 21
706.3240511224249
 31
0.0
 12
-3742.925985830444
 22
-6453.628869860112
 32
0.0
 70
   128
  1
有効開口部間口\P<>
 71
     5
 42
1266.0
  3
INABA_S40G
100
AcDbAlignedDimension
 13
1322.970589276523
 23
1315.494269174465
 33
0.0
 14
2588.970589276523
 24
1315.494269174465
 34
0.0
100
AcDbRotatedDimension
1001
ACAD
1000
DSTYLE
1002
{
1070
   341
1005
0
1002
}
  0
LINE
  5
18CD1
330
18C7A
100
AcDbEntity
  8
部品1
100
AcDbLine
 10
3409.970589276524
 20
1392.494269174465
 30
0.0
 11
3437.970589276523
 21
1392.494269174465
 31
0.0
  0
DIMENSION
  5
18CD2
330
18C7A
100
AcDbEntity
  8
寸法
100
AcDbDimension
  2
*D16
 10
3674.266172669749
 20
1315.494269174465
 30
0.0
 11
3674.266172669748
 21
1177.494269174462
 31
0.0
 12
-3742.925985830444
 22
-6453.628869860112
 32
0.0
 70
   128
 71
     5
 42
77.0
  3
INABA_S40
100
AcDbAlignedDimension
 13
3437.970589276523
 23
1392.494269174465
 33
0.0
 14
3436.970589276523
 24
1315.494269174465
 34
0.0
 50
90.0
100
AcDbRotatedDimension
1001
ACAD
1000
DSTYLE
1002
{
1070
    41
1040
0.5
1070
    44
1040
1.0
1070
   147
1040
0.8
1070
   271
1070
     2
1070
   272
1070
     2
1070
   289
1070
     3
1070
   340
1005
F706
1070
   343
1005
164B4
1070
   344
1005
164B4
1002
}
  0
LINE
  5
18CD3
330
18C7A
100
AcDbEntity
  8
部品1
100
AcDbLine
 10
3437.970589276523
 20
1315.494269174465
 30
0.0
 11
3437.970589276523
 21
1392.494269174465
 31
0.0
  0
LINE
  5
18CD4
330
18C7A
100
AcDbEntity
  8
部品1
100
AcDbLine
 10
3398.970589276523
 20
1388.494269174465
 30
0.0
 11
3409.970589276524
 21
1388.494269174465
 31
0.0
  0
LINE
  5
18CD5
330
18C7A
100
AcDbEntity
  8
部品1
100
AcDbLine
 10
3407.970589276523
 20
1324.494269174465
 30
0.0
 11
3407.970589276523
 21
1315.494269174465
 31
0.0
  0
LINE
  5
18CD6
330
18C7A
100
AcDbEntity
  8
部品1
100
AcDbLine
 10
3398.970589276523
 20
1324.494269174465
 30
0.0
 11
3407.970589276523
 21
1324.494269174465
 31
0.0
  0
LINE
  5
18CD7
330
18C7A
100
AcDbEntity
  8
部品1
100
AcDbLine
 10
3398.970589276523
 20
1388.494269174465
 30
0.0
 11
3398.970589276523
 21
1324.494269174465
 31
0.0
  0
LINE
  5
18CD8
330
18C7A
100
AcDbEntity
  8
部品1
100
AcDbLine
 10
3409.970589276524
 20
1419.494269174465
 30
0.0
 11
3409.970589276524
 21
1388.494269174465
 31
0.0
  0
LINE
  5
18CD9
330
18C7A
100
AcDbEntity
  8
部品1
100
AcDbLine
 10
1322.970589276523
 20
1388.494269174465
 30
0.0
 11
1311.970589276523
 21
1388.494269174465
 31
0.0
  0
LINE
  5
18CDA
330
18C7A
100
AcDbEntity
  8
部品1
100
AcDbLine
 10
1283.970589276523
 20
1392.494269174465
 30
0.0
 11
1311.970589276523
 21
1392.494269174465
 31
0.0
  0
LINE
  5
18CDB
330
18C7A
100
AcDbEntity
  8
部品1
100
AcDbLine
 10
1313.970589276523
 20
1324.494269174465
 30
0.0
 11
1313.970589276523
 21
1315.494269174465
 31
0.0
  0
LINE
  5
18CDC
330
18C7A
100
AcDbEntity
  8
部品1
100
AcDbLine
 10
1322.970589276523
 20
1324.494269174465
 30
0.0
 11
1313.970589276523
 21
1324.494269174465
 31
0.0
  0
LINE
  5
18CDD
330
18C7A
100
AcDbEntity
  8
部品1
100
AcDbLine
 10
1313.970589276523
 20
1315.494269174465
 30
0.0
 11
1283.970589276523
 21
1315.494269174465
 31
0.0
  0
LINE
  5
18CDE
330
18C7A
100
AcDbEntity
  8
部品1
100
AcDbLine
 10
1283.970589276523
 20
1315.494269174465
 30
0.0
 11
1283.970589276523
 21
1392.494269174465
 31
0.0
  0
LINE
  5
18CDF
330
18C7A
100
AcDbEntity
  8
部品1
100
AcDbLine
 10
1322.970589276523
 20
1388.494269174465
 30
0.0
 11
1322.970589276523
 21
1324.494269174465
 31
0.0
  0
LINE
  5
18CE0
330
18C7A
100
AcDbEntity
  8
部品1
100
AcDbLine
 10
1311.970589276523
 20
1419.494269174462
 30
0.0
 11
1311.970589276523
 21
1388.494269174465
 31
0.0
  0
LINE
  5
18CE1
330
18C7A
100
AcDbEntity
  8
部品1
100
AcDbLine
 10
1311.970589276523
 20
1419.494269174462
 30
0.0
 11
3409.970589276524
 21
1419.494269174465
 31
0.0
  0
LINE
  5
18CE2
330
18C7A
100
AcDbEntity
  8
部品1
100
AcDbLine
 10
3407.970589276523
 20
1315.494269174465
 30
0.0
 11
3437.970589276523
 21
1315.494269174465
 31
0.0
  0
LINE
  5
18CE3
330
18C7A
100
AcDbEntity
  8
部品1
100
AcDbLine
 10
1313.970589276523
 20
1315.494269174465
 30
0.0
 11
3410.970589276523
 21
1315.494269174465
 31
0.0
  0
LINE
  5
18CE4
330
18C7A
100
AcDbEntity
  8
細線
  6
Continuous
 62
     5
100
AcDbLine
 10
2689.970589276527
 20
1354.494269174462
 30
0.0
 11
2689.970589276527
 21
1354.494269174462
 31
0.0
  0
LINE
  5
18CE5
330
18C7A
100
AcDbEntity
  8
細線
  6
Continuous
 62
     5
100
AcDbLine
 10
2682.470589276527
 20
1354.494269174462
 30
0.0
 11
2682.470589276527
 21
1354.494269174462
 31
0.0
  0
LINE
  5
18CE6
330
18C7A
100
AcDbEntity
  8
細線
  6
Continuous
 62
     5
100
AcDbLine
 10
2676.470589276527
 20
1354.494269174462
 30
0.0
 11
2676.470589276527
 21
1354.494269174462
 31
0.0
  0
LINE
  5
18CE7
330
18C7A
100
AcDbEntity
  8
細線
  6
Continuous
 62
     5
100
AcDbLine
 10
2743.970589276527
 20
1373.494269174462
 30
0.0
 11
2743.970589276527
 21
1373.494269174462
 31
0.0
  0
LINE
  5
18CE8
330
18C7A
100
AcDbEntity
  8
細線
 48
50.0
100
AcDbLine
 10
1336.970593930116
 20
1341.094443351418
 30
0.0
 11
1336.970593930113
 21
1349.490593759059
 31
0.0
  0
LINE
  5
18CE9
330
18C7A
100
AcDbEntity
  8
細線
 48
50.0
100
AcDbLine
 10
1336.970593930113
 20
1349.490593759059
 30
0.0
 11
1322.970589276523
 21
1349.490593759057
 31
0.0
  0
LINE
  5
18CEA
330
18C7A
100
AcDbEntity
  8
細線
 48
50.0
100
AcDbLine
 10
2087.970593930113
 20
1337.644443351419
 30
0.0
 11
2087.970593930113
 21
1342.494443351421
 31
0.0
  0
LINE
  5
18CEB
330
18C7A
100
AcDbEntity
  8
細線
 48
50.0
100
AcDbLine
 10
2087.970593930113
 20
1342.494443351421
 30
0.0
 11
2102.970593930113
 21
1342.494443351421
 31
0.0
  0
LINE
  5
18CEC
330
18C7A
100
AcDbEntity
  8
細線
 48
50.0
100
AcDbLine
 10
2102.970593930113
 20
1342.494443351421
 30
0.0
 11
2102.970593930115
 21
1349.494443351419
 31
0.0
  0
LINE
  5
18CED
330
18C7A
100
AcDbEntity
  8
細線
 48
50.0
100
AcDbLine
 10
2102.970593930115
 20
1349.494443351419
 30
0.0
 11
2117.970593930113
 21
1349.494443351419
 31
0.0
  0
LINE
  5
18CEE
330
18C7A
100
AcDbEntity
  8
細線
 48
50.0
100
AcDbLine
 10
2117.970593930113
 20
1349.494443351419
 30
0.0
 11
2117.970593930113
 21
1320.494443351421
 31
0.0
  0
LINE
  5
18CEF
330
18C7A
100
AcDbEntity
  8
細線
 48
50.0
100
AcDbLine
 10
1313.970589276523
 20
1320.491777694889
 30
0.0
 11
1527.970593930113
 21
1320.494460905133
 31
0.0
  0
LINE
  5
18CF0
330
18C7A
100
AcDbEntity
  8
細線
 48
50.0
100
AcDbLine
 10
2017.970593930113
 20
1320.494443351421
 30
0.0
 11
2117.970593930113
 21
1320.494443351421
 31
0.0
  0
LINE
  5
18CF1
330
18C7A
100
AcDbEntity
  8
細線
 48
50.0
100
AcDbLine
 10
1737.970593930113
 20
1320.494443351419
 30
0.0
 11
1807.970593930113
 21
1320.494443351423
 31
0.0
  0
LINE
  5
18CF2
330
18C7A
100
AcDbEntity
  8
細線
 48
50.0
100
AcDbLine
 10
1750.832558942642
 20
1320.494443351419
 30
0.0
 11
1756.588076525309
 21
1338.765294641913
 31
0.0
  0
LINE
  5
18CF3
330
18C7A
100
AcDbEntity
  8
細線
 48
50.0
100
AcDbLine
 10
1756.588076525309
 20
1338.765294641913
 30
0.0
 11
1767.516525005743
 21
1338.765294641911
 31
0.0
  0
ARC
  5
18CF4
330
18C7A
100
AcDbEntity
  8
細線
 48
50.0
100
AcDbCircle
 10
1767.516525005743
 20
1337.765294641911
 30
0.0
 40
1.0
100
AcDbArc
 50
24.62431835207225
 51
90.0
  0
ARC
  5
18CF5
330
18C7A
100
AcDbEntity
  8
細線
 48
50.0
100
AcDbCircle
 10
1778.425237120377
 20
1337.765294641911
 30
0.0
 40
1.0
100
AcDbArc
 50
90.0
 51
155.3756816479277
  0
ARC
  5
18CF6
330
18C7A
100
AcDbEntity
  8
細線
 48
50.0
100
AcDbCircle
 10
1772.970881063058
 20
1340.265294641911
 30
0.0
 40
5.0
100
AcDbArc
 50
204.6243183520723
 51
335.3756816479278
  0
LINE
  5
18CF7
330
18C7A
100
AcDbEntity
  8
細線
 48
50.0
100
AcDbLine
 10
1778.425237120377
 20
1338.765294641911
 30
0.0
 11
1789.35368560081
 21
1338.765294641913
 31
0.0
  0
LINE
  5
18CF8
330
18C7A
100
AcDbEntity
  8
細線
 48
50.0
100
AcDbLine
 10
1789.35368560081
 20
1338.765294641913
 30
0.0
 11
1795.109203183478
 21
1320.494443351423
 31
0.0
  0
LINE
  5
18CF9
330
18C7A
100
AcDbEntity
  8
細線
 48
50.0
100
AcDbLine
 10
2087.970593930113
 20
1341.094443351419
 30
0.0
 11
1336.970593930116
 21
1341.094443351418
 31
0.0
  0
LINE
  5
18CFA
330
18C7A
100
AcDbEntity
  8
細線
 48
50.0
100
AcDbLine
 10
1947.970593930113
 20
1320.494443351421
 30
0.0
 11
1877.970593930113
 21
1320.494443351421
 31
0.0
  0
LINE
  5
18CFB
330
18C7A
100
AcDbEntity
  8
細線
100
AcDbLine
 10
1667.970593930113
 20
1320.494443351421
 30
0.0
 11
1597.970602115529
 21
1320.494443351421
 31
0.0
  0
LINE
  5
18CFC
330
18C7A
100
AcDbEntity
  8
細線
 48
50.0
100
AcDbLine
 10
2741.970584622936
 20
1375.094487209288
 30
0.0
 11
2106.970593930113
 21
1375.094487209284
 31
0.0
  0
LINE
  5
18CFD
330
18C7A
100
AcDbEntity
  8
細線
 48
50.0
100
AcDbLine
 10
2106.970593930113
 20
1371.990637616925
 30
0.0
 11
2106.970593930113
 21
1376.490637616925
 31
0.0
  0
LINE
  5
18CFE
330
18C7A
100
AcDbEntity
  8
細線
 48
50.0
100
AcDbLine
 10
2106.970593930113
 20
1376.490637616925
 30
0.0
 11
2091.970593930113
 21
1376.490637616925
 31
0.0
  0
LINE
  5
18CFF
330
18C7A
100
AcDbEntity
  8
細線
 48
50.0
100
AcDbLine
 10
2091.970593930113
 20
1376.490637616925
 30
0.0
 11
2091.970593930113
 21
1383.490637616927
 31
0.0
  0
LINE
  5
18D00
330
18C7A
100
AcDbEntity
  8
細線
 48
50.0
100
AcDbLine
 10
2091.970593930113
 20
1383.490637616927
 30
0.0
 11
2076.970593930115
 21
1383.490637616924
 31
0.0
  0
LINE
  5
18D01
330
18C7A
100
AcDbEntity
  8
細線
 48
50.0
100
AcDbLine
 10
2076.970593930115
 20
1383.490637616924
 30
0.0
 11
2076.970593930115
 21
1345.890409513813
 31
0.0
  0
LINE
  5
18D02
330
18C7A
100
AcDbEntity
  8
細線
 48
50.0
100
AcDbLine
 10
2076.970593930115
 20
1345.890409513813
 30
0.0
 11
2096.970601231289
 21
1345.890451063353
 31
0.0
  0
LINE
  5
18D03
330
18C7A
100
AcDbEntity
  8
細線
 48
50.0
100
AcDbLine
 10
2096.970556362348
 20
1354.493912699161
 30
0.0
 11
2096.970601231289
 21
1345.890451063353
 31
0.0
  0
LINE
  5
18D04
330
18C7A
100
AcDbEntity
  8
細線
 48
50.0
100
AcDbLine
 10
2741.970584622936
 20
1371.644487209287
 30
0.0
 11
2741.970584622936
 21
1376.494487209284
 31
0.0
  0
LINE
  5
18D05
330
18C7A
100
AcDbEntity
  8
細線
 48
50.0
100
AcDbLine
 10
2741.970584622936
 20
1376.494487209284
 30
0.0
 11
2756.970584622934
 21
1376.494487209285
 31
0.0
  0
LINE
  5
18D06
330
18C7A
100
AcDbEntity
  8
細線
 48
50.0
100
AcDbLine
 10
2756.970584622934
 20
1376.494487209285
 30
0.0
 11
2756.970596256909
 21
1383.494487209331
 31
0.0
  0
LINE
  5
18D07
330
18C7A
100
AcDbEntity
  8
細線
 48
50.0
100
AcDbLine
 10
2756.970596256909
 20
1383.494487209331
 30
0.0
 11
2771.970594427439
 21
1383.494487209329
 31
0.0
  0
LINE
  5
18D08
330
18C7A
100
AcDbEntity
  8
細線
 48
50.0
100
AcDbLine
 10
2771.970594427439
 20
1383.494487209329
 30
0.0
 11
2771.970584125617
 21
1354.494281037055
 31
0.0
  0
LINE
  5
18D09
330
18C7A
100
AcDbEntity
  8
細線
 48
50.0
100
AcDbLine
 10
2458.070304175992
 20
1354.494278397076
 30
0.0
 11
2389.470863838818
 21
1354.494283787084
 31
0.0
  0
LINE
  5
18D0A
330
18C7A
100
AcDbEntity
  8
細線
 48
50.0
100
AcDbLine
 10
2096.970556362348
 20
1354.493912699161
 30
0.0
 11
2108.203245717057
 21
1354.494095652309
 31
0.0
  0
ARC
  5
18D0B
330
18C7A
100
AcDbEntity
  8
細線
 48
50.0
100
AcDbCircle
 10
2114.785538024393
 20
1353.294259565922
 30
0.0
 40
1.8
100
AcDbArc
 50
270.0006665777295
 51
345.000555481349
  0
LINE
  5
18D0C
330
18C7A
100
AcDbEntity
  8
細線
 48
50.0
100
AcDbLine
 10
2116.771971470473
 20
1353.753100023201
 30
0.0
 11
2116.524209028273
 21
1352.828402141094
 31
0.0
  0
LINE
  5
18D0D
330
18C7A
100
AcDbEntity
  8
細線
 48
50.0
100
AcDbLine
 10
2114.785558965548
 20
1351.494259566043
 30
0.0
 11
2111.155631546781
 21
1351.494217335563
 31
0.0
  0
ARC
  5
18D0E
330
18C7A
100
AcDbEntity
  8
細線
 48
50.0
100
AcDbCircle
 10
2111.155610605627
 20
1353.29421733544
 30
0.0
 40
1.8
100
AcDbArc
 50
195.0010443049965
 51
270.0006665777295
  0
LINE
  5
18D0F
330
18C7A
100
AcDbEntity
  8
細線
 48
50.0
100
AcDbLine
 10
2109.169183113368
 20
1353.752932303007
 30
0.0
 11
2109.416952609882
 21
1352.828311364425
 31
0.0
  0
ARC
  5
18D10
330
18C7A
100
AcDbEntity
  8
細線
 48
50.0
100
AcDbCircle
 10
2108.203262004622
 20
1353.494095652444
 30
0.0
 40
1.0
100
AcDbArc
 50
15.00104430499651
 51
90.00093320877969
  0
LINE
  5
18D11
330
18C7A
100
AcDbEntity
  8
細線
 48
50.0
100
AcDbLine
 10
2117.737892825577
 20
1354.494290342714
 30
0.0
 11
2118.679652976481
 21
1354.494296916564
 31
0.0
  0
ARC
  5
18D12
330
18C7A
100
AcDbEntity
  8
細線
 48
50.0
100
AcDbCircle
 10
2117.737899805961
 20
1353.49429034274
 30
0.0
 40
1.0
100
AcDbArc
 50
90.0003999466794
 51
165.000555481349
  0
LINE
  5
18D13
330
18C7A
100
AcDbEntity
  8
細線
 48
50.0
100
AcDbLine
 10
2669.470584622926
 20
1354.494281037055
 30
0.0
 11
2771.970584125617
 21
1354.494281037055
 31
0.0
  0
LINE
  5
18D14
330
18C7A
100
AcDbEntity
  8
細線
 48
50.0
100
AcDbLine
 10
2179.47061994182
 20
1354.494289224422
 30
0.0
 11
2118.370558714898
 21
1354.494296916564
 31
0.0
  0
LINE
  5
18D15
330
18C7A
100
AcDbEntity
  8
細線
 48
50.0
100
AcDbLine
 10
2599.470584622926
 20
1354.494281037057
 30
0.0
 11
2529.470584622926
 21
1354.494281037055
 31
0.0
  0
LINE
  5
18D16
330
18C7A
100
AcDbEntity
  8
細線
 48
50.0
100
AcDbLine
 10
2319.470584622926
 20
1354.494281037054
 30
0.0
 11
2249.470567335051
 21
1354.494281037057
 31
0.0
  0
ARC
  5
18D17
330
18C7A
100
AcDbEntity
  8
細線
 48
50.0
100
AcDbCircle
 10
2756.170589276533
 20
1387.694269174466
 30
0.0
 40
0.8
100
AcDbArc
 50
359.9997333689499
 51
89.99986668437072
  0
ARC
  5
18D18
330
18C7A
100
AcDbEntity
  8
細線
 48
50.0
100
AcDbCircle
 10
2763.770596101631
 20
1387.694280343081
 30
0.0
 40
0.8
100
AcDbArc
 50
90.00014387753465
 51
179.9997333689498
  0
LINE
  5
18D19
330
18C7A
100
AcDbEntity
  8
細線
 48
50.0
100
AcDbLine
 10
2756.170591137969
 20
1388.494269174465
 30
0.0
 11
2750.970589276525
 21
1388.494269174465
 31
0.0
  0
ARC
  5
18D1A
330
18C7A
100
AcDbEntity
  8
細線
 48
50.0
100
AcDbCircle
 10
2757.670589276524
 20
1386.194269174464
 30
0.0
 40
0.7
100
AcDbArc
 50
180.0
 51
270.0
  0
ARC
  5
18D1B
330
18C7A
100
AcDbEntity
  8
細線
 48
50.0
100
AcDbCircle
 10
2762.270589276524
 20
1386.194269174464
 30
0.0
 40
0.7
100
AcDbArc
 50
270.0
 51
0.0
  0
LINE
  5
18D1C
330
18C7A
100
AcDbEntity
  8
細線
 48
50.0
100
AcDbLine
 10
2762.970589276525
 20
1386.194269174464
 30
0.0
 11
2762.970596101639
 21
1387.694284065954
 31
0.0
  0
LINE
  5
18D1D
330
18C7A
100
AcDbEntity
  8
細線
 48
50.0
100
AcDbLine
 10
2757.670589276524
 20
1385.494269174465
 30
0.0
 11
2762.270589276524
 21
1385.494269174465
 31
0.0
  0
LINE
  5
18D1E
330
18C7A
100
AcDbEntity
  8
細線
 48
50.0
100
AcDbLine
 10
2756.970589276525
 20
1387.694269174466
 30
0.0
 11
2756.970589276525
 21
1386.194269174464
 31
0.0
  0
LINE
  5
18D1F
330
18C7A
100
AcDbEntity
  8
細線
 48
50.0
100
AcDbLine
 10
3382.570589276527
 20
1418.494269174465
 30
0.0
 11
2745.970589276525
 21
1418.494269174463
 31
0.0
  0
LINE
  5
18D20
330
18C7A
100
AcDbEntity
  8
細線
 48
50.0
100
AcDbLine
 10
3408.470589276525
 20
1413.494269174467
 30
0.0
 11
3392.570589276527
 21
1413.494269174465
 31
0.0
  0
LINE
  5
18D21
330
18C7A
100
AcDbEntity
  8
細線
 48
50.0
100
AcDbLine
 10
3392.570589276526
 20
1413.494269174465
 30
0.0
 11
3382.570589276527
 21
1418.494269174465
 31
0.0
  0
LINE
  5
18D22
330
18C7A
100
AcDbEntity
  8
細線
100
AcDbLine
 10
2993.470589276525
 20
1388.494269174465
 30
0.0
 11
2993.470589276525
 21
1417.794269174464
 31
0.0
  0
LINE
  5
18D23
330
18C7A
100
AcDbEntity
  8
細線
100
AcDbLine
 10
2993.470589276525
 20
1417.794269174464
 30
0.0
 11
3013.470589276525
 21
1417.794269174464
 31
0.0
  0
LINE
  5
18D24
330
18C7A
100
AcDbEntity
  8
細線
100
AcDbLine
 10
3013.470589276525
 20
1388.494269174465
 30
0.0
 11
3013.470589276525
 21
1417.794269174464
 31
0.0
  0
LINE
  5
18D25
330
18C7A
100
AcDbEntity
  8
細線
100
AcDbLine
 10
3170.720589276524
 20
1388.494269174465
 30
0.0
 11
3100.720589276523
 21
1388.494269174465
 31
0.0
  0
LINE
  5
18D26
330
18C7A
100
AcDbEntity
  8
細線
 48
50.0
100
AcDbLine
 10
2890.720589276525
 20
1388.494269174465
 30
0.0
 11
2763.766368849365
 21
1388.494269174465
 31
0.0
  0
LINE
  5
18D27
330
18C7A
100
AcDbEntity
  8
細線
100
AcDbLine
 10
3030.720589276525
 20
1388.494269174465
 30
0.0
 11
2960.720589276525
 21
1388.494269174465
 31
0.0
  0
LINE
  5
18D28
330
18C7A
100
AcDbEntity
  8
細線
 48
50.0
100
AcDbLine
 10
2750.970589276525
 20
1380.494269174465
 30
0.0
 11
2750.970589276525
 21
1388.494269174465
 31
0.0
  0
LINE
  5
18D29
330
18C7A
100
AcDbEntity
  8
細線
 48
50.0
100
AcDbLine
 10
2730.970589276524
 20
1380.494269174467
 30
0.0
 11
2750.970589276525
 21
1380.494269174465
 31
0.0
  0
LINE
  5
18D2A
330
18C7A
100
AcDbEntity
  8
細線
 48
50.0
100
AcDbLine
 10
2745.970589276525
 20
1418.494269174465
 30
0.0
 11
2745.970589276525
 21
1413.494269174465
 31
0.0
  0
LINE
  5
18D2B
330
18C7A
100
AcDbEntity
  8
細線
 48
50.0
100
AcDbLine
 10
2730.970589276525
 20
1418.494269174463
 30
0.0
 11
2745.970589276525
 21
1418.494269174465
 31
0.0
  0
LINE
  5
18D2C
330
18C7A
100
AcDbEntity
  8
細線
 48
50.0
100
AcDbLine
 10
2730.970589276524
 20
1380.494269174467
 30
0.0
 11
2730.970589276525
 21
1418.494269174463
 31
0.0
  0
LINE
  5
18D2D
330
18C7A
100
AcDbEntity
  8
細線
100
AcDbLine
 10
3398.970589276523
 20
1388.494269174465
 30
0.0
 11
3240.720589276525
 21
1388.494269174465
 31
0.0
  0
LINE
  5
18D2E
330
18C7A
100
AcDbEntity
  8
細線
 48
50.0
100
AcDbLine
 10
3408.470589276525
 20
1413.494269174467
 30
0.0
 11
3408.470589276524
 21
1388.494269174465
 31
0.0
  0
TEXT
  5
18D2F
330
18C7A
100
AcDbEntity
  8
部品1
100
AcDbText
 10
1860.154865991392
 20
46.99880823813145
 30
0.0
 40
135.0
  1
平面図
  7
STYLE2
100
AcDbText
  0
LWPOLYLINE
  5
18D30
330
18C7A
100
AcDbEntity
  8
部品1
100
AcDbPolyline
 90
        4
 70
     1
 43
0.0
 10
1770.23525616235
 20
239.8923374566548
 10
1770.23525616235
 20
0.0000159111223184
 10
2533.705922390791
 20
0.0000159111223184
 10
2533.705922390791
 20
239.8923374566548
  0
LINE
  5
18D31
330
18C7A
100
AcDbEntity
  8
部品1
100
AcDbLine
 10
1534.470589276487
 20
3154.494269174626
 30
0.0
 11
2769.470589276552
 21
3154.494269174626
 31
0.0
  0
LINE
  5
18D32
330
18C7A
100
AcDbEntity
  8
部品1
 48
50.0
100
AcDbLine
 10
1311.970589276523
 20
1420.494269174462
 30
0.0
 11
3411.970589276523
 21
1420.494269174465
 31
0.0
  0
LINE
  5
18D33
330
18C7A
100
AcDbEntity
  8
部品1
 48
50.0
100
AcDbLine
 10
471.9705892765232
 20
1392.494269174465
 30
0.0
 11
1311.970589276523
 21
1392.494269174465
 31
0.0
  0
DIMENSION
  5
18D34
330
18C7A
100
AcDbEntity
  8
寸法
100
AcDbDimension
  2
*D14
 10
2710.234916278077
 20
2488.887829538828
 30
0.0
 11
2338.318822490183
 21
2488.887829538828
 31
0.0
 12
-3742.925985830444
 22
-6453.628869860112
 32
0.0
 70
   128
 71
     5
 42
1231.00000000007
  3
INABA_S40G
100
AcDbAlignedDimension
 13
1536.470589276486
 23
2702.494269174557
 33
0.0
 14
2767.470589276556
 24
2702.494269174549
 34
0.0
100
AcDbRotatedDimension
1001
ACAD
1000
DSTYLE
1002
{
1002
}
  0
LINE
  5
18D35
330
18C7A
100
AcDbEntity
  8
部品1
100
AcDbLine
 10
1536.470589276487
 20
2702.494269174557
 30
0.0
 11
2767.470589276554
 21
2702.494269174615
 31
0.0
  0
LINE
  5
18D36
330
18C7A
100
AcDbEntity
  8
部品1
100
AcDbLine
 10
1536.470589276487
 20
3152.494269174557
 30
0.0
 11
2767.470589276556
 21
3152.494269174615
 31
0.0
  0
LINE
  5
18D37
330
18C7A
100
AcDbEntity
  8
細線
 48
50.0
100
AcDbLine
 10
1508.470589276487
 20
3152.494269174558
 30
0.0
 11
445.4705892765559
 21
2702.494269174509
 31
0.0
  0
LINE
  5
18D38
330
18C7A
100
AcDbEntity
  8
細線
 48
50.0
100
AcDbLine
 10
1508.470589276487
 20
2702.494269174558
 30
0.0
 11
445.4705892765542
 21
3152.494269174509
 31
0.0
  0
LINE
  5
18D39
330
18C7A
100
AcDbEntity
  8
部品1
100
AcDbLine
 10
1556.970589276487
 20
3172.494269174611
 30
0.0
 11
1556.970589276487
 21
3154.494269174611
 31
0.0
  0
LINE
  5
18D3A
330
18C7A
100
AcDbEntity
  8
部品1
100
AcDbLine
 10
1556.970589276487
 20
3172.494269174611
 30
0.0
 11
1550.970589276487
 21
3172.494269174611
 31
0.0
  0
LINE
  5
18D3B
330
18C7A
100
AcDbEntity
  8
部品1
100
AcDbLine
 10
1534.470589276487
 20
3146.494269174608
 30
0.0
 11
1509.470589276487
 21
3146.494269174611
 31
0.0
  0
LINE
  5
18D3C
330
18C7A
100
AcDbEntity
  8
部品1
100
AcDbLine
 10
1486.970589276487
 20
3172.494269174611
 30
0.0
 11
1486.970589276487
 21
3154.494269174611
 31
0.0
  0
LINE
  5
18D3D
330
18C7A
100
AcDbEntity
  8
部品1
100
AcDbLine
 10
1492.970589276487
 20
3172.494269174611
 30
0.0
 11
1486.970589276487
 21
3172.494269174611
 31
0.0
  0
LINE
  5
18D3E
330
18C7A
100
AcDbEntity
  8
部品1
100
AcDbLine
 10
1534.470589276487
 20
2702.494269174615
 30
0.0
 11
1509.470589276487
 21
2702.494269174615
 31
0.0
  0
LINE
  5
18D3F
330
18C7A
100
AcDbEntity
  8
部品1
 48
50.0
100
AcDbLine
 10
1536.470589276487
 20
3152.494269174611
 30
0.0
 11
1536.470589276487
 21
2702.494269174615
 31
0.0
  0
LINE
  5
18D40
330
18C7A
100
AcDbEntity
  8
部品1
 48
50.0
100
AcDbLine
 10
1508.470589276487
 20
3152.494269174607
 30
0.0
 11
1508.470589276487
 21
2702.494269174615
 31
0.0
  0
LINE
  5
18D41
330
18C7A
100
AcDbEntity
  8
部品1
 48
50.0
100
AcDbLine
 10
1534.470589276487
 20
3154.494269174618
 30
0.0
 11
1534.470589276487
 21
2702.494269174615
 31
0.0
  0
LINE
  5
18D42
330
18C7A
100
AcDbEntity
  8
部品1
 48
50.0
100
AcDbLine
 10
1509.470589276487
 20
3154.494269174615
 30
0.0
 11
1509.470589276487
 21
2702.494269174615
 31
0.0
  0
LINE
  5
18D43
330
18C7A
100
AcDbEntity
  8
部品1
100
AcDbLine
 10
3411.970589276556
 20
1392.494269174582
 30
0.0
 11
3411.970589276556
 21
1420.494269174596
 31
0.0
  0
LINE
  5
18D44
330
18C7A
100
AcDbEntity
  8
部品1
100
AcDbLine
 10
1311.970589276523
 20
1392.494269174596
 30
0.0
 11
1311.970589276523
 21
1420.494269174596
 31
0.0
  0
LINE
  5
18D45
330
18C7A
100
AcDbEntity
  8
部品1
100
AcDbLine
 10
891.9705892765232
 20
1392.494269174596
 30
0.0
 11
891.9705892765232
 21
1420.494269174596
 31
0.0
  0
LINE
  5
18D46
330
18C7A
100
AcDbEntity
  8
部品1
100
AcDbLine
 10
3411.97058927652
 20
3182.494269174477
 30
0.0
 11
3411.970589276523
 21
3154.494269174477
 31
0.0
  0
LINE
  5
18D47
330
18C7A
100
AcDbEntity
  8
部品1
100
AcDbLine
 10
2571.97058927652
 20
3182.494269174477
 30
0.0
 11
2571.970589276523
 21
3154.494269174477
 31
0.0
  0
LINE
  5
18D48
330
18C7A
100
AcDbEntity
  8
部品1
100
AcDbLine
 10
2991.97058927652
 20
3182.494269174477
 30
0.0
 11
2991.970589276523
 21
3154.494269174477
 31
0.0
  0
LINE
  5
18D49
330
18C7A
100
AcDbEntity
  8
部品1
100
AcDbLine
 10
2151.970589276519
 20
3182.494269174477
 30
0.0
 11
2151.970589276523
 21
3154.494269174477
 31
0.0
  0
LINE
  5
18D4A
330
18C7A
100
AcDbEntity
  8
部品1
100
AcDbLine
 10
1731.970589276519
 20
3182.494269174477
 30
0.0
 11
1731.970589276523
 21
3154.494269174477
 31
0.0
  0
LINE
  5
18D4B
330
18C7A
100
AcDbEntity
  8
部品1
100
AcDbLine
 10
1311.970589276519
 20
3182.494269174477
 30
0.0
 11
1311.970589276523
 21
3154.494269174477
 31
0.0
  0
LINE
  5
18D4C
330
18C7A
100
AcDbEntity
  8
部品1
100
AcDbLine
 10
891.9705892765195
 20
3182.494269174477
 30
0.0
 11
891.9705892765232
 21
3154.494269174477
 31
0.0
  0
LINE
  5
18D4D
330
18C7A
100
AcDbEntity
  8
部品1
100
AcDbLine
 10
471.9705892765232
 20
1392.494269174596
 30
0.0
 11
471.9705892765232
 21
1420.494269174596
 31
0.0
  0
LINE
  5
18D4E
330
18C7A
100
AcDbEntity
  8
部品1
100
AcDbLine
 10
444.9705892765305
 20
1420.494269174558
 30
0.0
 11
3858.970589276556
 21
1420.494269174596
 31
0.0
  0
LINE
  5
18D4F
330
18C7A
100
AcDbEntity
  8
部品1
100
AcDbLine
 10
3831.970589276556
 20
1392.494269174596
 30
0.0
 11
3831.970589276556
 21
1420.494269174596
 31
0.0
  0
LINE
  5
18D50
330
18C7A
100
AcDbEntity
  8
部品1
100
AcDbLine
 10
3858.970589276556
 20
1447.494269174593
 30
0.0
 11
3886.970589276556
 21
1447.494269174593
 31
0.0
  0
LINE
  5
18D51
330
18C7A
100
AcDbEntity
  8
部品1
100
AcDbLine
 10
3858.970589276556
 20
1867.494269174607
 30
0.0
 11
3886.970589276556
 21
1867.494269174607
 31
0.0
  0
LINE
  5
18D52
330
18C7A
100
AcDbEntity
  8
部品1
100
AcDbLine
 10
444.9705892765305
 20
1867.49426917448
 30
0.0
 11
416.9705892765305
 21
1867.49426917448
 31
0.0
  0
LINE
  5
18D53
330
18C7A
100
AcDbEntity
  8
部品1
100
AcDbLine
 10
3830.470589276541
 20
1867.49426917458
 30
0.0
 11
473.4705892765396
 21
1867.49426917448
 31
0.0
  0
LINE
  5
18D54
330
18C7A
100
AcDbEntity
  8
部品1
100
AcDbLine
 10
3830.470589276541
 20
2287.49426917458
 30
0.0
 11
473.4705892765396
 21
2287.49426917448
 31
0.0
  0
LINE
  5
18D55
330
18C7A
100
AcDbEntity
  8
部品1
100
AcDbLine
 10
444.9705892765305
 20
2287.49426917448
 30
0.0
 11
416.9705892765305
 21
2287.49426917448
 31
0.0
  0
LINE
  5
18D56
330
18C7A
100
AcDbEntity
  8
部品1
100
AcDbLine
 10
3858.970589276556
 20
2287.494269174608
 30
0.0
 11
3886.970589276556
 21
2287.494269174608
 31
0.0
  0
LINE
  5
18D57
330
18C7A
100
AcDbEntity
  8
部品1
 48
50.0
100
AcDbLine
 10
2151.970589276551
 20
2702.494269174586
 30
0.0
 11
2151.970589276581
 21
1448.994269174494
 31
0.0
  0
LINE
  5
18D58
330
18C7A
100
AcDbEntity
  8
破線
 48
10.0
100
AcDbLine
 10
2959.470589276535
 20
1472.494269174522
 30
0.0
 11
2176.970589276532
 21
1472.494269174505
 31
0.0
  0
LINE
  5
18D59
330
18C7A
100
AcDbEntity
  8
破線
 48
10.0
100
AcDbLine
 10
3009.47058927653
 20
1448.994269174509
 30
0.0
 11
3009.47058927653
 21
2702.494269174615
 31
0.0
  0
LINE
  5
18D5A
330
18C7A
100
AcDbEntity
  8
破線
 48
10.0
100
AcDbLine
 10
2959.470589276535
 20
1448.994269174505
 30
0.0
 11
2959.470589276531
 21
2702.494269174615
 31
0.0
  0
LINE
  5
18D5B
330
18C7A
100
AcDbEntity
  8
破線
 48
10.0
100
AcDbLine
 10
1344.47058927653
 20
1448.994269174509
 30
0.0
 11
1344.47058927653
 21
2702.494269174615
 31
0.0
  0
LINE
  5
18D5C
330
18C7A
100
AcDbEntity
  8
破線
 48
10.0
100
AcDbLine
 10
1294.470589276534
 20
1448.994269174505
 30
0.0
 11
1294.47058927653
 21
2702.494269174615
 31
0.0
  0
DIMENSION
  5
18D5D
330
18C7A
100
AcDbEntity
  8
寸法
100
AcDbDimension
  2
*D13
 10
1451.234916278005
 20
2488.887829538828
 30
0.0
 11
916.0604668248634
 21
2488.887829538828
 31
0.0
 12
-3742.925985830444
 22
-6453.628869860112
 32
0.0
 70
   128
 71
     5
 42
1062.99999999993
  3
INABA_S40G
100
AcDbAlignedDimension
 13
445.4705892765559
 23
2702.494269174505
 33
0.0
 14
1508.470589276486
 24
2702.494269174558
 34
0.0
100
AcDbRotatedDimension
1001
ACAD
1000
DSTYLE
1002
{
1002
}
  0
LINE
  5
18D5E
330
18C7A
100
AcDbEntity
  8
破線
 48
10.0
100
AcDbLine
 10
1294.470589276534
 20
1472.494269174469
 30
0.0
 11
496.9705892765414
 21
1472.494269174476
 31
0.0
  0
LINE
  5
18D5F
330
18C7A
100
AcDbEntity
  8
部品1
100
AcDbLine
 10
3831.970589276556
 20
3182.494269174604
 30
0.0
 11
3831.970589276556
 21
3154.494269174604
 31
0.0
  0
LINE
  5
18D60
330
18C7A
100
AcDbEntity
  8
部品1
100
AcDbLine
 10
3831.970589276556
 20
3182.494269174626
 30
0.0
 11
3831.970589276556
 21
3154.494269174626
 31
0.0
  0
LINE
  5
18D61
330
18C7A
100
AcDbEntity
  8
部品1
100
AcDbLine
 10
3858.970589276556
 20
3127.494269174607
 30
0.0
 11
3886.970589276556
 21
3127.494269174607
 31
0.0
  0
LINE
  5
18D62
330
18C7A
100
AcDbEntity
  8
部品1
100
AcDbLine
 10
3858.970589276556
 20
2707.494269174608
 30
0.0
 11
3886.970589276556
 21
2707.494269174608
 31
0.0
  0
LINE
  5
18D63
330
18C7A
100
AcDbEntity
  8
部品1
100
AcDbLine
 10
3858.470589276556
 20
3152.494269174604
 30
0.0
 11
3858.470589276556
 21
2702.494269174608
 31
0.0
  0
LINE
  5
18D64
330
18C7A
100
AcDbEntity
  8
部品1
100
AcDbLine
 10
3886.970589276533
 20
1447.494269174593
 30
0.0
 11
3886.970589276531
 21
1392.494269174596
 31
0.0
  0
LINE
  5
18D65
330
18C7A
100
AcDbEntity
  8
部品1
 48
50.0
100
AcDbLine
 10
3830.470589276556
 20
1448.994269174596
 30
0.0
 11
3858.970589276554
 21
1420.494269174596
 31
0.0
  0
LINE
  5
18D66
330
18C7A
100
AcDbEntity
  8
部品1
100
AcDbLine
 10
3886.970589276531
 20
1392.494269174596
 30
0.0
 11
3835.970589276531
 21
1392.494269174596
 31
0.0
  0
LINE
  5
18D67
330
18C7A
100
AcDbEntity
  8
部品1
100
AcDbLine
 10
3858.970589276533
 20
1447.494269174593
 30
0.0
 11
3886.970589276531
 21
1447.494269174593
 31
0.0
  0
LINE
  5
18D68
330
18C7A
100
AcDbEntity
  8
部品1
100
AcDbLine
 10
3886.970589276556
 20
3182.494269174604
 30
0.0
 11
3886.970589276531
 21
1392.494269174596
 31
0.0
  0
DIMENSION
  5
18D69
330
18C7A
100
AcDbEntity
  8
寸法
100
AcDbDimension
  2
*D12
 10
4534.396935010967
 20
1447.494269174593
 30
0.0
 11
4534.396935010965
 21
2287.4942691746
 31
0.0
 12
-3742.925985830444
 22
-6453.628869860112
 32
0.0
 70
   128
  1
4X420=<>
 71
     5
 42
1680.000000000014
  3
INABA_S40G
100
AcDbAlignedDimension
 13
3886.970589276556
 23
3127.494269174607
 33
0.0
 14
3886.970589276531
 24
1447.494269174593
 34
0.0
 50
90.0
100
AcDbRotatedDimension
1001
ACAD
1000
DSTYLE
1002
{
1002
}
  0
LINE
  5
18D6A
330
18C7A
100
AcDbEntity
  8
部品1
100
AcDbLine
 10
3858.970589276556
 20
3154.494269174604
 30
0.0
 11
3858.970589276534
 21
1420.494269174596
 31
0.0
  0
DIMENSION
  5
18D6B
330
18C7A
100
AcDbEntity
  8
寸法
100
AcDbDimension
  2
*D11
 10
4213.82831513858
 20
2607.276453505718
 30
0.0
 11
4113.828315138579
 21
2832.276453505718
 31
0.0
 12
-3742.925985830444
 22
-6453.628869860112
 32
0.0
 71
     5
 42
449.9999999999963
  3
INABA_S40G
100
AcDbAlignedDimension
 13
3858.470589276556
 23
3152.494269174604
 33
0.0
 14
3858.470589276556
 24
2702.494269174608
 34
0.0
 50
90.0
100
AcDbRotatedDimension
1001
ACAD
1000
DSTYLE
1002
{
1002
}
  0
LINE
  5
18D6C
330
18C7A
100
AcDbEntity
  8
部品1
100
AcDbLine
 10
3830.470589276547
 20
2702.494269174608
 30
0.0
 11
3830.470589276556
 21
1448.994269174596
 31
0.0
  0
LINE
  5
18D6D
330
18C7A
100
AcDbEntity
  8
破線
 48
10.0
100
AcDbLine
 10
3806.970589276549
 20
2702.494269174608
 30
0.0
 11
3806.970589276558
 21
1472.494269174593
 31
0.0
  0
LINE
  5
18D6E
330
18C7A
100
AcDbEntity
  8
部品1
100
AcDbLine
 10
2769.470589276556
 20
3146.494269174608
 30
0.0
 11
2794.470589276556
 21
3146.494269174611
 31
0.0
  0
LINE
  5
18D6F
330
18C7A
100
AcDbEntity
  8
部品1
100
AcDbLine
 10
2810.970589276556
 20
3172.494269174611
 30
0.0
 11
2816.970589276556
 21
3172.494269174611
 31
0.0
  0
LINE
  5
18D70
330
18C7A
100
AcDbEntity
  8
部品1
100
AcDbLine
 10
2816.970589276556
 20
3172.494269174611
 30
0.0
 11
2816.970589276556
 21
3154.494269174611
 31
0.0
  0
LINE
  5
18D71
330
18C7A
100
AcDbEntity
  8
部品1
100
AcDbLine
 10
2746.970589276556
 20
3172.494269174611
 30
0.0
 11
2752.970589276556
 21
3172.494269174611
 31
0.0
  0
LINE
  5
18D72
330
18C7A
100
AcDbEntity
  8
部品1
100
AcDbLine
 10
2746.970589276556
 20
3172.494269174611
 30
0.0
 11
2746.970589276556
 21
3154.494269174611
 31
0.0
  0
LINE
  5
18D73
330
18C7A
100
AcDbEntity
  8
部品1
100
AcDbLine
 10
2769.470589276556
 20
2702.494269174615
 30
0.0
 11
2794.470589276556
 21
2702.494269174615
 31
0.0
  0
LINE
  5
18D74
330
18C7A
100
AcDbEntity
  8
部品1
 48
50.0
100
AcDbLine
 10
2794.470589276556
 20
3154.494269174615
 30
0.0
 11
2794.470589276556
 21
2702.494269174615
 31
0.0
  0
LINE
  5
18D75
330
18C7A
100
AcDbEntity
  8
部品1
 48
50.0
100
AcDbLine
 10
2769.470589276554
 20
3154.494269174618
 30
0.0
 11
2769.470589276556
 21
2702.494269174615
 31
0.0
  0
LINE
  5
18D76
330
18C7A
100
AcDbEntity
  8
部品1
 48
50.0
100
AcDbLine
 10
2795.470589276556
 20
3152.494269174607
 30
0.0
 11
2795.470589276556
 21
2702.494269174615
 31
0.0
  0
LINE
  5
18D77
330
18C7A
100
AcDbEntity
  8
部品1
 48
50.0
100
AcDbLine
 10
2767.470589276556
 20
3152.494269174611
 30
0.0
 11
2767.470589276556
 21
2702.494269174615
 31
0.0
  0
LINE
  5
18D78
330
18C7A
100
AcDbEntity
  8
破線
 48
10.0
100
AcDbLine
 10
2176.97058927653
 20
1448.994269174509
 30
0.0
 11
2176.97058927653
 21
2702.494269174588
 31
0.0
  0
LINE
  5
18D79
330
18C7A
100
AcDbEntity
  8
破線
 48
10.0
100
AcDbLine
 10
2126.970589276534
 20
1448.994269174505
 30
0.0
 11
2126.970589276531
 21
2702.494269174586
 31
0.0
  0
LINE
  5
18D7A
330
18C7A
100
AcDbEntity
  8
部品1
100
AcDbLine
 10
2794.470589276556
 20
3154.494269174622
 30
0.0
 11
3858.970589276556
 21
3154.494269174604
 31
0.0
  0
LINE
  5
18D7B
330
18C7A
100
AcDbEntity
  8
細線
 48
50.0
100
AcDbLine
 10
3858.470589276556
 20
2702.494269174608
 30
0.0
 11
2795.470589276556
 21
3152.494269174607
 31
0.0
  0
LINE
  5
18D7C
330
18C7A
100
AcDbEntity
  8
部品1
100
AcDbLine
 10
2795.470589276555
 20
2702.494269174615
 30
0.0
 11
3858.470589276556
 21
2702.494269174608
 31
0.0
  0
LINE
  5
18D7D
330
18C7A
100
AcDbEntity
  8
部品1
100
AcDbLine
 10
2795.470589276556
 20
3152.494269174611
 30
0.0
 11
3858.470589276556
 21
3152.494269174604
 31
0.0
  0
LINE
  5
18D7E
330
18C7A
100
AcDbEntity
  8
細線
 48
50.0
100
AcDbLine
 10
3858.470589276556
 20
3152.494269174604
 30
0.0
 11
2795.470589276555
 21
2702.494269174615
 31
0.0
  0
DIMENSION
  5
18D7F
330
18C7A
100
AcDbEntity
  8
寸法
100
AcDbDimension
  2
*D10
 10
3801.234916278101
 20
2488.887829538937
 30
0.0
 11
3318.360544398907
 21
2488.887829538937
 31
0.0
 12
-3742.925985830444
 22
-6453.628869860112
 32
0.0
 70
   128
 71
     5
 42
1063.000000000012
  3
INABA_S40G
100
AcDbAlignedDimension
 13
2795.470589276555
 23
2702.494269174615
 33
0.0
 14
3858.470589276567
 24
2702.494269174608
 34
0.0
100
AcDbRotatedDimension
1001
ACAD
1000
DSTYLE
1002
{
1002
}
  0
LINE
  5
18D80
330
18C7A
100
AcDbEntity
  8
破線
 48
10.0
100
AcDbLine
 10
3806.970589276556
 20
1472.494269174594
 30
0.0
 11
3009.47058927653
 21
1472.494269174523
 31
0.0
  0
DIMENSION
  5
18D81
330
18C7A
100
AcDbEntity
  8
寸法
100
AcDbDimension
  2
*D9
 10
4534.396935010941
 20
1392.494269174596
 30
0.0
 11
4534.39693501094
 21
1084.008987800356
 31
0.0
 12
-3742.925985830444
 22
-6453.628869860112
 32
0.0
 70
   128
 71
     5
 42
54.99999999999636
  3
INABA_S40G
100
AcDbAlignedDimension
 13
3886.970589276531
 23
1447.494269174593
 33
0.0
 14
3886.970589276531
 24
1392.494269174596
 34
0.0
 50
90.0
100
AcDbRotatedDimension
1001
ACAD
1000
DSTYLE
1002
{
1002
}
  0
LINE
  5
18D82
330
18C7A
100
AcDbEntity
  8
部品1
100
AcDbLine
 10
471.9705892765196
 20
3182.494269174477
 30
0.0
 11
471.9705892765232
 21
3154.494269174477
 31
0.0
  0
LINE
  5
18D83
330
18C7A
100
AcDbEntity
  8
部品1
100
AcDbLine
 10
471.9705892765559
 20
3182.494269174509
 30
0.0
 11
471.9705892765559
 21
3154.494269174509
 31
0.0
  0
LINE
  5
18D84
330
18C7A
100
AcDbEntity
  8
部品1
100
AcDbLine
 10
444.9705892765232
 20
3127.49426917448
 30
0.0
 11
416.9705892765232
 21
3127.49426917448
 31
0.0
  0
LINE
  5
18D85
330
18C7A
100
AcDbEntity
  8
部品1
100
AcDbLine
 10
444.9705892765305
 20
2707.49426917448
 30
0.0
 11
416.9705892765305
 21
2707.49426917448
 31
0.0
  0
LINE
  5
18D86
330
18C7A
100
AcDbEntity
  8
部品1
 48
50.0
100
AcDbLine
 10
445.4705892765542
 20
3152.494269174506
 30
0.0
 11
445.4705892765559
 21
2702.494269174505
 31
0.0
  0
LINE
  5
18D87
330
18C7A
100
AcDbEntity
  8
部品1
 48
50.0
100
AcDbLine
 10
473.470589276545
 20
1448.994269174573
 30
0.0
 11
444.970589276545
 21
1420.494269174574
 31
0.0
  0
LINE
  5
18D88
330
18C7A
100
AcDbEntity
  8
部品1
100
AcDbLine
 10
471.9705892765232
 20
1392.494269174465
 30
0.0
 11
416.9705892765486
 21
1392.494269174465
 31
0.0
  0
LINE
  5
18D89
330
18C7A
100
AcDbEntity
  8
部品1
100
AcDbLine
 10
444.9705892765305
 20
1447.494269174429
 30
0.0
 11
416.9705892765469
 21
1447.494269174429
 31
0.0
  0
LINE
  5
18D8A
330
18C7A
100
AcDbEntity
  8
部品1
100
AcDbLine
 10
444.9705892765305
 20
1447.494269174465
 30
0.0
 11
416.9705892765469
 21
1447.494269174465
 31
0.0
  0
LINE
  5
18D8B
330
18C7A
100
AcDbEntity
  8
部品1
100
AcDbLine
 10
444.9705892765469
 20
1447.49426917448
 30
0.0
 11
416.9705892765469
 21
1447.49426917448
 31
0.0
  0
LINE
  5
18D8C
330
18C7A
100
AcDbEntity
  8
部品1
100
AcDbLine
 10
416.9705892765469
 20
1447.494269174429
 30
0.0
 11
416.9705892765486
 21
1392.494269174433
 31
0.0
  0
LINE
  5
18D8D
330
18C7A
100
AcDbEntity
  8
部品1
100
AcDbLine
 10
416.9705892765196
 20
3182.494269174477
 30
0.0
 11
416.9705892765486
 21
1392.494269174465
 31
0.0
  0
LINE
  5
18D8E
330
18C7A
100
AcDbEntity
  8
部品1
100
AcDbLine
 10
444.9705892765305
 20
1420.494269174556
 30
0.0
 11
444.9705892765559
 21
3154.494269174509
 31
0.0
  0
LINE
  5
18D8F
330
18C7A
100
AcDbEntity
  8
部品1
100
AcDbLine
 10
473.4705892765323
 20
2702.494269174608
 30
0.0
 11
473.470589276545
 21
1448.994269174571
 31
0.0
  0
LINE
  5
18D90
330
18C7A
100
AcDbEntity
  8
破線
 48
10.0
100
AcDbLine
 10
496.9705892765305
 20
2702.494269174608
 30
0.0
 11
496.9705892765451
 21
1472.494269174476
 31
0.0
  0
DIMENSION
  5
18D91
330
18C7A
100
AcDbEntity
  8
寸法
100
AcDbDimension
  2
*D8
 10
3886.970589276531
 20
410.7433333855515
 30
0.0
 11
2168.197775309287
 21
410.7433333855515
 31
0.0
 12
-3742.925985830444
 22
-6453.628869860112
 32
0.0
 70
   128
 71
     5
 42
3469.999999999982
  3
INABA_S40G
100
AcDbAlignedDimension
 13
416.9705892765486
 23
1392.494269174433
 33
0.0
 14
3886.970589276531
 24
1392.49426917456
 34
0.0
100
AcDbRotatedDimension
1001
ACAD
1000
DSTYLE
1002
{
1070
   341
1005
0
1002
}
  0
LINE
  5
18D92
330
18C7A
100
AcDbEntity
  8
部品1
100
AcDbLine
 10
444.9705892765559
 20
3154.494269174624
 30
0.0
 11
1509.470589276487
 21
3154.494269174626
 31
0.0
  0
LINE
  5
18D93
330
18C7A
100
AcDbEntity
  8
部品1
100
AcDbLine
 10
3886.970589276531
 20
1392.494269174596
 30
0.0
 11
3411.970589276556
 21
1392.494269174582
 31
0.0
  0
LINE
  5
18D94
330
18C7A
100
AcDbEntity
  8
部品1
100
AcDbLine
 10
416.9705892765559
 20
3182.494269174509
 30
0.0
 11
3886.970589276556
 21
3182.494269174604
 31
0.0
  0
LINE
  5
18D95
330
18C7A
100
AcDbEntity
  8
部品1
100
AcDbLine
 10
445.4705892765559
 20
2702.494269174509
 30
0.0
 11
1508.470589276487
 21
2702.494269174558
 31
0.0
  0
LINE
  5
18D96
330
18C7A
100
AcDbEntity
  8
細線
 48
50.0
100
AcDbLine
 10
2767.470589276556
 20
3152.494269174611
 30
0.0
 11
1536.470589276487
 21
2702.494269174558
 31
0.0
  0
LINE
  5
18D97
330
18C7A
100
AcDbEntity
  8
部品1
100
AcDbLine
 10
445.4705892765542
 20
3152.494269174509
 30
0.0
 11
1508.470589276485
 21
3152.494269174558
 31
0.0
  0
LINE
  5
18D98
330
18C7A
100
AcDbEntity
  8
細線
 48
50.0
100
AcDbLine
 10
2767.470589276554
 20
2702.494269174615
 30
0.0
 11
1536.470589276485
 21
3152.494269174558
 31
0.0
  0
LINE
  5
18D99
330
18C7A
100
AcDbEntity
  8
破線
 48
10.0
100
AcDbLine
 10
2126.970589276534
 20
1472.494269174502
 30
0.0
 11
1344.47058927653
 21
1472.494269174473
 31
0.0
  0
LINE
  5
18D9A
330
18C7A
100
AcDbEntity
  8
部品1
100
AcDbLine
 10
3830.470589276556
 20
1448.994269174596
 30
0.0
 11
473.4705892764487
 21
1448.994269174476
 31
0.0
  0
DIMENSION
  5
18D9B
330
18C7A
100
AcDbEntity
  8
寸法
100
AcDbDimension
  2
*D7
 10
471.970589276555
 20
3698.302488799491
 30
0.0
 11
108.4853079022819
 21
3698.302488799491
 31
0.0
 12
-3742.925985830444
 22
-6453.628869860112
 32
0.0
 70
   128
 71
     5
 42
55.00000000003456
  3
INABA_S40G
100
AcDbAlignedDimension
 13
416.9705892765205
 23
3182.494269174509
 33
0.0
 14
471.970589276555
 24
3182.494269174509
 34
0.0
100
AcDbRotatedDimension
1001
ACAD
1000
DSTYLE
1002
{
1002
}
  0
DIMENSION
  5
18D9C
330
18C7A
100
AcDbEntity
  8
寸法
100
AcDbDimension
  2
*D6
 10
4534.396935010967
 20
3127.494269174607
 30
0.0
 11
4534.396935010965
 21
3490.979550548844
 31
0.0
 12
-3742.925985830444
 22
-6453.628869860112
 32
0.0
 70
   128
 71
     5
 42
54.99999999999636
  3
INABA_S40G
100
AcDbAlignedDimension
 13
3886.970589276556
 23
3182.494269174604
 33
0.0
 14
3886.970589276556
 24
3127.494269174607
 34
0.0
 50
90.0
100
AcDbRotatedDimension
1001
ACAD
1000
DSTYLE
1002
{
1002
}
  0
DIMENSION
  5
18D9D
330
18C7A
100
AcDbEntity
  8
寸法
100
AcDbDimension
  2
*D5
 10
3886.970589276556
 20
3698.302488799589
 30
0.0
 11
4195.455870650794
 21
3698.302488799589
 31
0.0
 12
-3742.925985830444
 22
-6453.628869860112
 32
0.0
 70
   128
 71
     5
 42
55.0
  3
INABA_S40G
100
AcDbAlignedDimension
 13
3831.970589276556
 23
3182.494269174604
 33
0.0
 14
3886.970589276556
 24
3182.494269174604
 34
0.0
100
AcDbRotatedDimension
1001
ACAD
1000
DSTYLE
1002
{
1002
}
  0
DIMENSION
  5
18D9E
330
18C7A
100
AcDbEntity
  8
寸法
100
AcDbDimension
  2
*D4
 10
3831.970589276556
 20
3698.302488799607
 30
0.0
 11
2151.970589276555
 21
3698.302488799607
 31
0.0
 12
-3742.925985830444
 22
-6453.628869860112
 32
0.0
 70
   128
  1
8X420=<>
 71
     5
 42
3360.000000000001
  3
INABA_S40G
100
AcDbAlignedDimension
 13
471.970589276555
 23
3182.494269174509
 33
0.0
 14
3831.970589276556
 24
3182.494269174604
 34
0.0
100
AcDbRotatedDimension
1001
ACAD
1000
DSTYLE
1002
{
1002
}
  0
DIMENSION
  5
18D9F
330
18C7A
100
AcDbEntity
  8
寸法
100
AcDbDimension
  2
*D3
 10
4899.503876750603
 20
1392.494269174596
 30
0.0
 11
4899.503876750601
 21
2287.4942691746
 31
0.0
 12
-3742.925985830444
 22
-6453.628869860112
 32
0.0
 70
   128
 71
     5
 42
1790.000000000007
  3
INABA_S40G
100
AcDbAlignedDimension
 13
3886.970589276556
 23
3182.494269174604
 33
0.0
 14
3886.970589276531
 24
1392.494269174596
 34
0.0
 50
90.0
100
AcDbRotatedDimension
1001
ACAD
1000
DSTYLE
1002
{
1002
}
  0
ENDBLK
  5
18DA1
330
18C7A
100
AcDbEntity
  8
0
 48
50.0
100
AcDbBlockEnd
  0
BLOCK
  5
1C4CB
330
1C4CA
100
AcDbEntity
  8
0
 48
50.0
100
AcDbBlockBegin
  2
_NONE
 70
     0
 10
0.0
 20
0.0
 30
0.0
  3
_NONE
  1

  0
CIRCLE
  5
1C4CC
330
1C4CA
100
AcDbEntity
  8
0
  6
ByBlock
 62
     0
 48
50.0
100
AcDbCircle
 10
0.0
 20
0.0
 30
0.0
 40
0.25
  0
ENDBLK
  5
1C4CD
330
1C4CA
100
AcDbEntity
  8
0
 48
50.0
100
AcDbBlockEnd
  0
BLOCK
  5
1DDC0
330
1DDB5
100
AcDbEntity
  8
0
 48
50.0
100
AcDbBlockBegin
  2
*D19
 70
     1
 10
0.0
 20
0.0
 30
0.0
  3
*D19
  1

  0
LINE
  5
210D3
330
1DDB5
100
AcDbEntity
  8
寸法
 62
     0
 48
50.0
370
    -2
100
AcDbLine
 10
8793.599999999999
 20
7716.907777930209
 30
0.0
 11
8793.599999999999
 21
7506.106208443712
 31
0.0
  0
LINE
  5
210D4
330
1DDB5
100
AcDbEntity
  8
寸法
 62
     0
 48
50.0
370
    -2
100
AcDbLine
 10
8913.600000000009
 20
7691.907777930206
 30
0.0
 11
8913.600000000009
 21
7506.106208443712
 31
0.0
  0
LINE
  5
210D5
330
1DDB5
100
AcDbEntity
  8
寸法
 62
     0
 48
50.0
370
    -2
100
AcDbLine
 10
8793.599999999999
 20
7566.106208443713
 30
0.0
 11
8913.600000000009
 21
7566.106208443713
 31
0.0
  0
LINE
  5
210D6
330
1DDB5
100
AcDbEntity
  8
寸法
 62
     0
 48
50.0
370
    -2
100
AcDbLine
 10
8913.600000000009
 20
7566.106208443713
 30
0.0
 11
9327.73078736738
 21
7566.106208443713
 31
0.0
  0
INSERT
  5
210D7
330
1DDB5
100
AcDbEntity
  8
寸法
 62
     0
 48
50.0
370
    -2
100
AcDbBlockReference
  2
_DOTSMALL
 10
8793.599999999999
 20
7566.106208443713
 30
0.0
 41
100.0
 42
100.0
 43
100.0
 50
180.0
  0
INSERT
  5
210D8
330
1DDB5
100
AcDbEntity
  8
寸法
 62
     0
 48
50.0
370
    -2
100
AcDbBlockReference
  2
_DOTSMALL
 10
8913.600000000009
 20
7566.106208443713
 30
0.0
 41
100.0
 42
100.0
 43
100.0
  0
MTEXT
  5
210D9
330
1DDB5
100
AcDbEntity
  8
寸法
 62
     7
 48
50.0
100
AcDbMText
 10
9191.683543272892
 20
7666.118019467335
 30
0.0
 40
120.0
 41
0.0
 71
     5
 72
     1
  1
\A1;120
  7
STYLE1
 73
     1
 44
1.0
1001
ACAD
1000
MTEXTBEGIN
1070
    73
1070
     1
1070
    44
1040
1.0
1070
    74
1070
     0
1000
MTEXTEND
  0
POINT
  5
210DA
330
1DDB5
100
AcDbEntity
  8
DEFPOINTS
 62
     0
 48
50.0
100
AcDbPoint
 10
8793.599999999999
 20
7736.90777793021
 30
0.0
  0
POINT
  5
210DB
330
1DDB5
100
AcDbEntity
  8
DEFPOINTS
 62
     0
 48
50.0
100
AcDbPoint
 10
8913.600000000009
 20
7711.907777930206
 30
0.0
  0
POINT
  5
210DC
330
1DDB5
100
AcDbEntity
  8
DEFPOINTS
 62
     0
 48
50.0
100
AcDbPoint
 10
8913.600000000009
 20
7566.106208443713
 30
0.0
  0
ENDBLK
  5
1DDC1
330
1DDB5
100
AcDbEntity
  8
0
 48
50.0
100
AcDbBlockEnd
  0
BLOCK
  5
1DDEE
330
1DDE3
100
AcDbEntity
  8
0
 48
50.0
100
AcDbBlockBegin
  2
*D20
 70
     1
 10
0.0
 20
0.0
 30
0.0
  3
*D20
  1

  0
LINE
  5
210C9
330
1DDE3
100
AcDbEntity
  8
寸法
 62
     0
 48
50.0
370
    -2
100
AcDbLine
 10
8793.600000000001
 20
7716.907777930209
 30
0.0
 11
8793.600000000001
 21
7506.106208443712
 31
0.0
  0
LINE
  5
210CA
330
1DDE3
100
AcDbEntity
  8
寸法
 62
     0
 48
50.0
370
    -2
100
AcDbLine
 10
8683.600000000009
 20
7716.907777930209
 30
0.0
 11
8683.600000000009
 21
7506.106208443712
 31
0.0
  0
LINE
  5
210CB
330
1DDE3
100
AcDbEntity
  8
寸法
 62
     0
 48
50.0
370
    -2
100
AcDbLine
 10
8793.600000000001
 20
7566.106208443713
 30
0.0
 11
8683.600000000009
 21
7566.106208443713
 31
0.0
  0
LINE
  5
210CC
330
1DDE3
100
AcDbEntity
  8
寸法
 62
     0
 48
50.0
370
    -2
100
AcDbLine
 10
8683.600000000009
 20
7566.106208443713
 30
0.0
 11
8323.505511811031
 21
7566.106208443713
 31
0.0
  0
INSERT
  5
210CD
330
1DDE3
100
AcDbEntity
  8
寸法
 62
     0
 48
50.0
370
    -2
100
AcDbBlockReference
  2
_DOTSMALL
 10
8793.600000000001
 20
7566.106208443713
 30
0.0
 41
100.0
 42
100.0
 43
100.0
  0
INSERT
  5
210CE
330
1DDE3
100
AcDbEntity
  8
寸法
 62
     0
 48
50.0
370
    -2
100
AcDbBlockReference
  2
_DOTSMALL
 10
8683.600000000009
 20
7566.106208443713
 30
0.0
 41
100.0
 42
100.0
 43
100.0
 50
180.0
  0
MTEXT
  5
210CF
330
1DDE3
100
AcDbEntity
  8
寸法
 62
     7
 48
50.0
100
AcDbMText
 10
8447.552755905519
 20
7666.106208443713
 30
0.0
 40
120.0
 41
0.0
 71
     5
 72
     1
  1
\A1;110
  7
STYLE1
 73
     1
 44
1.0
1001
ACAD
1000
MTEXTBEGIN
1070
    73
1070
     1
1070
    44
1040
1.0
1070
    74
1070
     0
1000
MTEXTEND
  0
POINT
  5
210D0
330
1DDE3
100
AcDbEntity
  8
DEFPOINTS
 62
     0
 48
50.0
100
AcDbPoint
 10
8793.600000000001
 20
7736.90777793021
 30
0.0
  0
POINT
  5
210D1
330
1DDE3
100
AcDbEntity
  8
DEFPOINTS
 62
     0
 48
50.0
100
AcDbPoint
 10
8683.600000000009
 20
7736.907777930207
 30
0.0
  0
POINT
  5
210D2
330
1DDE3
100
AcDbEntity
  8
DEFPOINTS
 62
     0
 48
50.0
100
AcDbPoint
 10
8683.600000000009
 20
7566.106208443713
 30
0.0
  0
ENDBLK
  5
1DDEF
330
1DDE3
100
AcDbEntity
  8
0
 48
50.0
100
AcDbBlockEnd
  0
BLOCK
  5
1E96F
330
1E963
100
AcDbEntity
  8
0
 48
50.0
100
AcDbBlockBegin
  2
*D21
 70
     1
 10
0.0
 20
0.0
 30
0.0
  3
*D21
  1

  0
LINE
  5
2105E
330
1E963
100
AcDbEntity
  8
寸法
 62
     0
 48
50.0
370
    -2
100
AcDbLine
 10
7513.600000000001
 20
5671.90777793021
 30
0.0
 11
7179.276532889156
 21
5671.90777793021
 31
0.0
  0
LINE
  5
2105F
330
1E963
100
AcDbEntity
  8
寸法
 62
     0
 48
50.0
370
    -2
100
AcDbLine
 10
7513.600000000036
 20
5746.907777930211
 30
0.0
 11
7179.276532889156
 21
5746.907777930211
 31
0.0
  0
LINE
  5
21060
330
1E963
100
AcDbEntity
  8
寸法
 62
     0
 48
50.0
370
    -2
100
AcDbLine
 10
7239.276532889156
 20
5746.907777930211
 30
0.0
 11
7239.276532889156
 21
5846.90777793021
 31
0.0
  0
LINE
  5
21061
330
1E963
100
AcDbEntity
  8
寸法
 62
     0
 48
50.0
370
    -2
100
AcDbLine
 10
7239.276532889156
 20
5671.90777793021
 30
0.0
 11
7239.276532889156
 21
4804.937215181732
 31
0.0
  0
LINE
  5
21062
330
1E963
100
AcDbEntity
  8
寸法
 62
     0
 48
50.0
370
    -2
100
AcDbLine
 10
7239.276532889156
 20
5746.907777930211
 30
0.0
 11
7239.276532889156
 21
5671.90777793021
 31
0.0
  0
INSERT
  5
21063
330
1E963
100
AcDbEntity
  8
寸法
 62
     0
 48
50.0
370
    -2
100
AcDbBlockReference
  2
_DOTSMALL
 10
7239.276532889156
 20
5746.907777930211
 30
0.0
 41
100.0
 42
100.0
 43
100.0
 50
270.0
  0
INSERT
  5
21064
330
1E963
100
AcDbEntity
  8
寸法
 62
     0
 48
50.0
370
    -2
100
AcDbBlockReference
  2
_DOTSMALL
 10
7239.276532889156
 20
5671.90777793021
 30
0.0
 41
100.0
 42
100.0
 43
100.0
 50
90.0
  0
MTEXT
  5
21065
330
1E963
100
AcDbEntity
  8
寸法
 62
     7
 48
50.0
100
AcDbMText
 10
7139.276532889154
 20
5138.422496555973
 30
0.0
 40
120.0
 41
0.0
 71
     5
 72
     1
  1
\A1;扉の出75
  7
STYLE1
 11
0.0000000000000001
 21
1.0
 31
0.0
 73
     1
 44
1.0
1001
ACAD
1000
MTEXTBEGIN
1070
    73
1070
     1
1070
    44
1040
1.0
1070
    74
1070
     0
1000
MTEXTEND
  0
POINT
  5
21066
330
1E963
100
AcDbEntity
  8
DEFPOINTS
 62
     0
 48
50.0
100
AcDbPoint
 10
7533.599999999999
 20
5671.90777793021
 30
0.0
  0
POINT
  5
21067
330
1E963
100
AcDbEntity
  8
DEFPOINTS
 62
     0
 48
50.0
100
AcDbPoint
 10
7533.600000000035
 20
5746.907777930211
 30
0.0
  0
POINT
  5
21068
330
1E963
100
AcDbEntity
  8
DEFPOINTS
 62
     0
 48
50.0
100
AcDbPoint
 10
7239.276532889156
 20
5746.907777930211
 30
0.0
  0
ENDBLK
  5
1E970
330
1E963
100
AcDbEntity
  8
0
 48
50.0
100
AcDbBlockEnd
  0
BLOCK
  5
1EEAB
330
1EE9F
100
AcDbEntity
  8
0
 48
50.0
100
AcDbBlockBegin
  2
*D22
 70
     1
 10
0.0
 20
0.0
 30
0.0
  3
*D22
  1

  0
LINE
  5
207B8
330
1EE9F
100
AcDbEntity
  8
寸法
 62
     0
 48
50.0
370
    -2
100
AcDbLine
 10
6717.657733986179
 20
8021.907777930197
 30
0.0
 11
6432.16493184821
 21
8021.907777930197
 31
0.0
  0
LINE
  5
207B9
330
1EE9F
100
AcDbEntity
  8
寸法
 62
     0
 48
50.0
370
    -2
100
AcDbLine
 10
6684.625627365048
 20
7966.907777930209
 30
0.0
 11
6432.16493184821
 21
7966.907777930209
 31
0.0
  0
LINE
  5
207BA
330
1EE9F
100
AcDbEntity
  8
寸法
 62
     0
 48
50.0
370
    -2
100
AcDbLine
 10
6492.164931848211
 20
8021.907777930197
 30
0.0
 11
6492.164931848211
 21
8121.907777930196
 31
0.0
  0
LINE
  5
207BB
330
1EE9F
100
AcDbEntity
  8
寸法
 62
     0
 48
50.0
370
    -2
100
AcDbLine
 10
6492.164931848211
 20
7966.907777930209
 30
0.0
 11
6492.164931848211
 21
7866.907777930208
 31
0.0
  0
LINE
  5
207BC
330
1EE9F
100
AcDbEntity
  8
寸法
 62
     0
 48
50.0
370
    -2
100
AcDbLine
 10
6492.164931848211
 20
8021.907777930197
 30
0.0
 11
6492.164931848211
 21
7966.907777930209
 31
0.0
  0
INSERT
  5
207BD
330
1EE9F
100
AcDbEntity
  8
寸法
 62
     0
 48
50.0
370
    -2
100
AcDbBlockReference
  2
_DOTSMALL
 10
6492.164931848211
 20
8021.907777930197
 30
0.0
 41
100.0
 42
100.0
 43
100.0
 50
270.0
  0
INSERT
  5
207BE
330
1EE9F
100
AcDbEntity
  8
寸法
 62
     0
 48
50.0
370
    -2
100
AcDbBlockReference
  2
_DOTSMALL
 10
6492.164931848211
 20
7966.907777930209
 30
0.0
 41
100.0
 42
100.0
 43
100.0
 50
90.0
  0
MTEXT
  5
207BF
330
1EE9F
100
AcDbEntity
  8
寸法
 62
     7
 48
50.0
100
AcDbMText
 10
6392.16493184821
 20
7994.407777930205
 30
0.0
 40
120.0
 41
0.0
 71
     5
 72
     1
  1
\A1;b
  7
STYLE1
 11
0.0000000000000001
 21
1.0
 31
0.0
 73
     1
 44
1.0
1001
ACAD
1000
MTEXTBEGIN
1070
    73
1070
     1
1070
    44
1040
1.0
1070
    74
1070
     0
1000
MTEXTEND
  0
POINT
  5
207C0
330
1EE9F
100
AcDbEntity
  8
DEFPOINTS
 62
     0
 48
50.0
100
AcDbPoint
 10
6737.657733986179
 20
8021.907777930197
 30
0.0
  0
POINT
  5
207C1
330
1EE9F
100
AcDbEntity
  8
DEFPOINTS
 62
     0
 48
50.0
100
AcDbPoint
 10
6704.625627365048
 20
7966.907777930209
 30
0.0
  0
POINT
  5
207C2
330
1EE9F
100
AcDbEntity
  8
DEFPOINTS
 62
     0
 48
50.0
100
AcDbPoint
 10
6492.164931848211
 20
7966.907777930209
 30
0.0
  0
ENDBLK
  5
1EEAC
330
1EE9F
100
AcDbEntity
  8
0
 48
50.0
100
AcDbBlockEnd
  0
BLOCK
  5
1EEEE
330
1EEE2
100
AcDbEntity
  8
0
 48
50.0
100
AcDbBlockBegin
  2
*D23
 70
     1
 10
0.0
 20
0.0
 30
0.0
  3
*D23
  1

  0
LINE
  5
207C3
330
1EEE2
100
AcDbEntity
  8
寸法
 62
     0
 48
50.0
370
    -2
100
AcDbLine
 10
6684.625627365048
 20
5746.907777930209
 30
0.0
 11
6432.164931848213
 21
5746.907777930209
 31
0.0
  0
LINE
  5
207C4
330
1EEE2
100
AcDbEntity
  8
寸法
 62
     0
 48
50.0
370
    -2
100
AcDbLine
 10
6717.657733986179
 20
5671.907777930207
 30
0.0
 11
6432.164931848213
 21
5671.907777930207
 31
0.0
  0
LINE
  5
207C5
330
1EEE2
100
AcDbEntity
  8
寸法
 62
     0
 48
50.0
370
    -2
100
AcDbLine
 10
6492.164931848212
 20
5746.907777930209
 30
0.0
 11
6492.164931848212
 21
5846.907777930208
 31
0.0
  0
LINE
  5
207C6
330
1EEE2
100
AcDbEntity
  8
寸法
 62
     0
 48
50.0
370
    -2
100
AcDbLine
 10
6492.164931848212
 20
5671.907777930207
 30
0.0
 11
6492.164931848212
 21
5571.907777930206
 31
0.0
  0
LINE
  5
207C7
330
1EEE2
100
AcDbEntity
  8
寸法
 62
     0
 48
50.0
370
    -2
100
AcDbLine
 10
6492.164931848212
 20
5746.907777930209
 30
0.0
 11
6492.164931848212
 21
5671.907777930207
 31
0.0
  0
INSERT
  5
207C8
330
1EEE2
100
AcDbEntity
  8
寸法
 62
     0
 48
50.0
370
    -2
100
AcDbBlockReference
  2
_DOTSMALL
 10
6492.164931848212
 20
5746.907777930209
 30
0.0
 41
100.0
 42
100.0
 43
100.0
 50
270.0
  0
INSERT
  5
207C9
330
1EEE2
100
AcDbEntity
  8
寸法
 62
     0
 48
50.0
370
    -2
100
AcDbBlockReference
  2
_DOTSMALL
 10
6492.164931848212
 20
5671.907777930207
 30
0.0
 41
100.0
 42
100.0
 43
100.0
 50
90.0
  0
MTEXT
  5
207CA
330
1EEE2
100
AcDbEntity
  8
寸法
 62
     7
 48
50.0
100
AcDbMText
 10
6392.164931848212
 20
5709.407777930209
 30
0.0
 40
120.0
 41
0.0
 71
     5
 72
     1
  1
\A1;c
  7
STYLE1
 11
0.0000000000000001
 21
1.0
 31
0.0
 73
     1
 44
1.0
1001
ACAD
1000
MTEXTBEGIN
1070
    73
1070
     1
1070
    44
1040
1.0
1070
    74
1070
     0
1000
MTEXTEND
  0
POINT
  5
207CB
330
1EEE2
100
AcDbEntity
  8
DEFPOINTS
 62
     0
 48
50.0
100
AcDbPoint
 10
6704.625627365048
 20
5746.907777930209
 30
0.0
  0
POINT
  5
207CC
330
1EEE2
100
AcDbEntity
  8
DEFPOINTS
 62
     0
 48
50.0
100
AcDbPoint
 10
6737.657733986178
 20
5671.907777930207
 30
0.0
  0
POINT
  5
207CD
330
1EEE2
100
AcDbEntity
  8
DEFPOINTS
 62
     0
 48
50.0
100
AcDbPoint
 10
6492.164931848212
 20
5671.907777930207
 30
0.0
  0
ENDBLK
  5
1EEEF
330
1EEE2
100
AcDbEntity
  8
0
 48
50.0
100
AcDbBlockEnd
  0
BLOCK
  5
1F7C6
330
1F7BC
100
AcDbEntity
  8
0
 48
50.0
100
AcDbBlockBegin
  2
*D24
 70
     1
 10
0.0
 20
0.0
 30
0.0
  3
*D24
  1

  0
LINE
  5
20875
330
1F7BC
100
AcDbEntity
  8
寸法
 62
     0
 48
50.0
370
    -2
100
AcDbLine
 10
8223.600000000001
 20
7322.907777930208
 30
0.0
 11
8223.600000000001
 21
8605.196807820888
 31
0.0
  0
LINE
  5
20876
330
1F7BC
100
AcDbEntity
  8
寸法
 62
     0
 48
50.0
370
    -2
100
AcDbLine
 10
8913.6
 20
7986.907777930207
 30
0.0
 11
8913.6
 21
8605.196807820888
 31
0.0
  0
LINE
  5
20877
330
1F7BC
100
AcDbEntity
  8
寸法
 62
     0
 48
50.0
370
    -2
100
AcDbLine
 10
8223.600000000001
 20
8545.196807820888
 30
0.0
 11
8913.6
 21
8545.196807820888
 31
0.0
  0
INSERT
  5
20878
330
1F7BC
100
AcDbEntity
  8
寸法
 62
     0
 48
50.0
370
    -2
100
AcDbBlockReference
  2
_DOTSMALL
 10
8223.600000000001
 20
8545.196807820888
 30
0.0
 41
100.0
 42
100.0
 43
100.0
 50
180.0
  0
INSERT
  5
20879
330
1F7BC
100
AcDbEntity
  8
寸法
 62
     0
 48
50.0
370
    -2
100
AcDbBlockReference
  2
_DOTSMALL
 10
8913.6
 20
8545.196807820888
 30
0.0
 41
100.0
 42
100.0
 43
100.0
  0
MTEXT
  5
2087A
330
1F7BC
100
AcDbEntity
  8
寸法
 62
     7
 48
50.0
100
AcDbMText
 10
8568.600000000001
 20
8645.196807820887
 30
0.0
 40
120.0
 41
0.0
 71
     5
 72
     1
  1
\A1;690
  7
STYLE1
 73
     1
 44
1.0
1001
ACAD
1000
MTEXTBEGIN
1070
    73
1070
     1
1070
    44
1040
1.0
1070
    74
1070
     0
1000
MTEXTEND
  0
POINT
  5
2087B
330
1F7BC
100
AcDbEntity
  8
DEFPOINTS
 62
     0
 48
50.0
100
AcDbPoint
 10
8223.600000000001
 20
7302.907777930208
 30
0.0
  0
POINT
  5
2087C
330
1F7BC
100
AcDbEntity
  8
DEFPOINTS
 62
     0
 48
50.0
100
AcDbPoint
 10
8913.6
 20
7966.907777930209
 30
0.0
  0
POINT
  5
2087D
330
1F7BC
100
AcDbEntity
  8
DEFPOINTS
 62
     0
 48
50.0
100
AcDbPoint
 10
8913.6
 20
8545.196807820888
 30
0.0
  0
ENDBLK
  5
1F7C7
330
1F7BC
100
AcDbEntity
  8
0
 48
50.0
100
AcDbBlockEnd
  0
BLOCK
  5
1F7D2
330
1F7C8
100
AcDbEntity
  8
0
 48
50.0
100
AcDbBlockBegin
  2
*D25
 70
     1
 10
0.0
 20
0.0
 30
0.0
  3
*D25
  1

  0
LINE
  5
2086C
330
1F7C8
100
AcDbEntity
  8
寸法
 62
     0
 48
50.0
370
    -2
100
AcDbLine
 10
7533.599999999999
 20
7986.907777930207
 30
0.0
 11
7533.599999999999
 21
8605.196807820888
 31
0.0
  0
LINE
  5
2086D
330
1F7C8
100
AcDbEntity
  8
寸法
 62
     0
 48
50.0
370
    -2
100
AcDbLine
 10
8223.600000000001
 20
7322.907777930208
 30
0.0
 11
8223.600000000001
 21
8605.196807820888
 31
0.0
  0
LINE
  5
2086E
330
1F7C8
100
AcDbEntity
  8
寸法
 62
     0
 48
50.0
370
    -2
100
AcDbLine
 10
7533.599999999999
 20
8545.196807820888
 30
0.0
 11
8223.600000000001
 21
8545.196807820888
 31
0.0
  0
INSERT
  5
2086F
330
1F7C8
100
AcDbEntity
  8
寸法
 62
     0
 48
50.0
370
    -2
100
AcDbBlockReference
  2
_DOTSMALL
 10
7533.599999999999
 20
8545.196807820888
 30
0.0
 41
100.0
 42
100.0
 43
100.0
 50
180.0
  0
INSERT
  5
20870
330
1F7C8
100
AcDbEntity
  8
寸法
 62
     0
 48
50.0
370
    -2
100
AcDbBlockReference
  2
_DOTSMALL
 10
8223.600000000001
 20
8545.196807820888
 30
0.0
 41
100.0
 42
100.0
 43
100.0
  0
MTEXT
  5
20871
330
1F7C8
100
AcDbEntity
  8
寸法
 62
     7
 48
50.0
100
AcDbMText
 10
7878.6
 20
8645.196807820887
 30
0.0
 40
120.0
 41
0.0
 71
     5
 72
     1
  1
\A1;690
  7
STYLE1
 73
     1
 44
1.0
1001
ACAD
1000
MTEXTBEGIN
1070
    73
1070
     1
1070
    44
1040
1.0
1070
    74
1070
     0
1000
MTEXTEND
  0
POINT
  5
20872
330
1F7C8
100
AcDbEntity
  8
DEFPOINTS
 62
     0
 48
50.0
100
AcDbPoint
 10
7533.599999999999
 20
7966.907777930209
 30
0.0
  0
POINT
  5
20873
330
1F7C8
100
AcDbEntity
  8
DEFPOINTS
 62
     0
 48
50.0
100
AcDbPoint
 10
8223.600000000001
 20
7302.907777930208
 30
0.0
  0
POINT
  5
20874
330
1F7C8
100
AcDbEntity
  8
DEFPOINTS
 62
     0
 48
50.0
100
AcDbPoint
 10
8223.600000000001
 20
8545.196807820888
 30
0.0
  0
ENDBLK
  5
1F7D3
330
1F7C8
100
AcDbEntity
  8
0
 48
50.0
100
AcDbBlockEnd
  0
BLOCK
  5
1F82B
330
1F820
100
AcDbEntity
  8
0
 48
50.0
100
AcDbBlockBegin
  2
*D26
 70
     1
 10
0.0
 20
0.0
 30
0.0
  3
*D26
  1

  0
LINE
  5
1FE8A
330
1F820
100
AcDbEntity
  8
寸法
 62
     0
 48
50.0
370
    -2
100
AcDbLine
 10
8913.6
 20
7986.907777930207
 30
0.0
 11
8913.6
 21
8831.968388320138
 31
0.0
  0
LINE
  5
1FE8B
330
1F820
100
AcDbEntity
  8
寸法
 62
     0
 48
50.0
370
    -2
100
AcDbLine
 10
8790.600000000001
 20
7913.907777930209
 30
0.0
 11
8790.600000000001
 21
8831.968388320138
 31
0.0
  0
LINE
  5
1FE8C
330
1F820
100
AcDbEntity
  8
寸法
 62
     0
 48
50.0
370
    -2
100
AcDbLine
 10
8790.600000000001
 20
8771.968388320138
 30
0.0
 11
8913.6
 21
8771.968388320138
 31
0.0
  0
LINE
  5
1FE8D
330
1F820
100
AcDbEntity
  8
寸法
 62
     0
 48
50.0
370
    -2
100
AcDbLine
 10
8913.6
 20
8771.968388320138
 30
0.0
 11
9290.570562748476
 21
8771.968388320138
 31
0.0
  0
INSERT
  5
1FE8E
330
1F820
100
AcDbEntity
  8
寸法
 62
     0
 48
50.0
370
    -2
100
AcDbBlockReference
  2
_DOTSMALL
 10
8790.600000000001
 20
8771.968388320138
 30
0.0
 41
100.0
 42
100.0
 43
100.0
 50
180.0
  0
INSERT
  5
1FE8F
330
1F820
100
AcDbEntity
  8
寸法
 62
     0
 48
50.0
370
    -2
100
AcDbBlockReference
  2
_DOTSMALL
 10
8913.6
 20
8771.968388320138
 30
0.0
 41
100.0
 42
100.0
 43
100.0
  0
MTEXT
  5
1FE90
330
1F820
100
AcDbEntity
  8
寸法
 62
     7
 48
50.0
100
AcDbMText
 10
9152.085281374239
 20
8871.980199343759
 30
0.0
 40
120.0
 41
0.0
 71
     5
 72
     1
  1
\A1;123
  7
STYLE1
 73
     1
 44
1.0
1001
ACAD
1000
MTEXTBEGIN
1070
    73
1070
     1
1070
    44
1040
1.0
1070
    74
1070
     0
1000
MTEXTEND
  0
POINT
  5
1FE91
330
1F820
100
AcDbEntity
  8
DEFPOINTS
 62
     0
 48
50.0
100
AcDbPoint
 10
8913.6
 20
7966.907777930209
 30
0.0
  0
POINT
  5
1FE92
330
1F820
100
AcDbEntity
  8
DEFPOINTS
 62
     0
 48
50.0
100
AcDbPoint
 10
8790.600000000001
 20
7893.907777930208
 30
0.0
  0
POINT
  5
1FE93
330
1F820
100
AcDbEntity
  8
DEFPOINTS
 62
     0
 48
50.0
100
AcDbPoint
 10
8790.600000000001
 20
8771.968388320138
 30
0.0
  0
ENDBLK
  5
1F82C
330
1F820
100
AcDbEntity
  8
0
 48
50.0
100
AcDbBlockEnd
  0
BLOCK
  5
1F846
330
1F83B
100
AcDbEntity
  8
0
 48
50.0
100
AcDbBlockBegin
  2
*D27
 70
     1
 10
0.0
 20
0.0
 30
0.0
  3
*D27
  1

  0
LINE
  5
207AE
330
1F83B
100
AcDbEntity
  8
寸法
 62
     0
 48
50.0
370
    -2
100
AcDbLine
 10
7513.600000000001
 20
7966.907777930209
 30
0.0
 11
6677.657733986179
 21
7966.907777930209
 31
0.0
  0
LINE
  5
207AF
330
1F83B
100
AcDbEntity
  8
寸法
 62
     0
 48
50.0
370
    -2
100
AcDbLine
 10
7586.6
 20
7843.907777930208
 30
0.0
 11
6677.657733986179
 21
7843.907777930208
 31
0.0
  0
LINE
  5
207B0
330
1F83B
100
AcDbEntity
  8
寸法
 62
     0
 48
50.0
370
    -2
100
AcDbLine
 10
6737.657733986178
 20
7843.907777930208
 30
0.0
 11
6737.657733986178
 21
7966.907777930209
 31
0.0
  0
LINE
  5
207B1
330
1F83B
100
AcDbEntity
  8
寸法
 62
     0
 48
50.0
370
    -2
100
AcDbLine
 10
6737.657733986178
 20
7966.907777930209
 30
0.0
 11
6737.657733986178
 21
8343.878340678683
 31
0.0
  0
INSERT
  5
207B2
330
1F83B
100
AcDbEntity
  8
寸法
 62
     0
 48
50.0
370
    -2
100
AcDbBlockReference
  2
_DOTSMALL
 10
6737.657733986178
 20
7843.907777930208
 30
0.0
 41
100.0
 42
100.0
 43
100.0
 50
270.0
  0
INSERT
  5
207B3
330
1F83B
100
AcDbEntity
  8
寸法
 62
     0
 48
50.0
370
    -2
100
AcDbBlockReference
  2
_DOTSMALL
 10
6737.657733986178
 20
7966.907777930209
 30
0.0
 41
100.0
 42
100.0
 43
100.0
 50
90.0
  0
MTEXT
  5
207B4
330
1F83B
100
AcDbEntity
  8
寸法
 62
     7
 48
50.0
100
AcDbMText
 10
6637.645922962557
 20
8205.393059304448
 30
0.0
 40
120.0
 41
0.0
 71
     5
 72
     1
  1
\A1;123
  7
STYLE1
 11
0.0000000000000001
 21
1.0
 31
0.0
 73
     1
 44
1.0
1001
ACAD
1000
MTEXTBEGIN
1070
    73
1070
     1
1070
    44
1040
1.0
1070
    74
1070
     0
1000
MTEXTEND
  0
POINT
  5
207B5
330
1F83B
100
AcDbEntity
  8
DEFPOINTS
 62
     0
 48
50.0
100
AcDbPoint
 10
7533.599999999999
 20
7966.907777930209
 30
0.0
  0
POINT
  5
207B6
330
1F83B
100
AcDbEntity
  8
DEFPOINTS
 62
     0
 48
50.0
100
AcDbPoint
 10
7606.6
 20
7843.907777930208
 30
0.0
  0
POINT
  5
207B7
330
1F83B
100
AcDbEntity
  8
DEFPOINTS
 62
     0
 48
50.0
100
AcDbPoint
 10
6737.657733986178
 20
7843.907777930208
 30
0.0
  0
ENDBLK
  5
1F847
330
1F83B
100
AcDbEntity
  8
0
 48
50.0
100
AcDbBlockEnd
  0
BLOCK
  5
1F861
330
1F856
100
AcDbEntity
  8
0
 48
50.0
100
AcDbBlockBegin
  2
*D28
 70
     1
 10
0.0
 20
0.0
 30
0.0
  3
*D28
  1

  0
LINE
  5
207A4
330
1F856
100
AcDbEntity
  8
寸法
 62
     0
 48
50.0
370
    -2
100
AcDbLine
 10
7586.600000000008
 20
5869.90777793021
 30
0.0
 11
6677.657733986179
 21
5869.90777793021
 31
0.0
  0
LINE
  5
207A5
330
1F856
100
AcDbEntity
  8
寸法
 62
     0
 48
50.0
370
    -2
100
AcDbLine
 10
7513.600000000001
 20
5746.907777930208
 30
0.0
 11
6677.657733986179
 21
5746.907777930208
 31
0.0
  0
LINE
  5
207A6
330
1F856
100
AcDbEntity
  8
寸法
 62
     0
 48
50.0
370
    -2
100
AcDbLine
 10
6737.657733986178
 20
5869.90777793021
 30
0.0
 11
6737.657733986178
 21
5746.907777930208
 31
0.0
  0
LINE
  5
207A7
330
1F856
100
AcDbEntity
  8
寸法
 62
     0
 48
50.0
370
    -2
100
AcDbLine
 10
6737.657733986178
 20
5746.907777930208
 30
0.0
 11
6737.657733986178
 21
5369.93721518173
 31
0.0
  0
INSERT
  5
207A8
330
1F856
100
AcDbEntity
  8
寸法
 62
     0
 48
50.0
370
    -2
100
AcDbBlockReference
  2
_DOTSMALL
 10
6737.657733986178
 20
5869.90777793021
 30
0.0
 41
100.0
 42
100.0
 43
100.0
 50
90.0
  0
INSERT
  5
207A9
330
1F856
100
AcDbEntity
  8
寸法
 62
     0
 48
50.0
370
    -2
100
AcDbBlockReference
  2
_DOTSMALL
 10
6737.657733986178
 20
5746.907777930208
 30
0.0
 41
100.0
 42
100.0
 43
100.0
 50
270.0
  0
MTEXT
  5
207AA
330
1F856
100
AcDbEntity
  8
寸法
 62
     7
 48
50.0
100
AcDbMText
 10
6637.645922962557
 20
5508.42249655597
 30
0.0
 40
120.0
 41
0.0
 71
     5
 72
     1
  1
\A1;123
  7
STYLE1
 11
0.0000000000000001
 21
1.0
 31
0.0
 73
     1
 44
1.0
1001
ACAD
1000
MTEXTBEGIN
1070
    73
1070
     1
1070
    44
1040
1.0
1070
    74
1070
     0
1000
MTEXTEND
  0
POINT
  5
207AB
330
1F856
100
AcDbEntity
  8
DEFPOINTS
 62
     0
 48
50.0
100
AcDbPoint
 10
7606.600000000007
 20
5869.90777793021
 30
0.0
  0
POINT
  5
207AC
330
1F856
100
AcDbEntity
  8
DEFPOINTS
 62
     0
 48
50.0
100
AcDbPoint
 10
7533.599999999999
 20
5746.907777930208
 30
0.0
  0
POINT
  5
207AD
330
1F856
100
AcDbEntity
  8
DEFPOINTS
 62
     0
 48
50.0
100
AcDbPoint
 10
6737.657733986178
 20
5746.907777930208
 30
0.0
  0
ENDBLK
  5
1F862
330
1F856
100
AcDbEntity
  8
0
 48
50.0
100
AcDbBlockEnd
  0
BLOCK
  5
1F86D
330
1F863
100
AcDbEntity
  8
0
 48
50.0
100
AcDbBlockBegin
  2
*D29
 70
     1
 10
0.0
 20
0.0
 30
0.0
  3
*D29
  1

  0
LINE
  5
2079B
330
1F863
100
AcDbEntity
  8
寸法
 62
     0
 48
50.0
370
    -2
100
AcDbLine
 10
7513.600000000001
 20
7966.907777930209
 30
0.0
 11
6432.164931848213
 21
7966.907777930209
 31
0.0
  0
LINE
  5
2079C
330
1F863
100
AcDbEntity
  8
寸法
 62
     0
 48
50.0
370
    -2
100
AcDbLine
 10
7513.600000000001
 20
5746.907777930208
 30
0.0
 11
6432.164931848213
 21
5746.907777930208
 31
0.0
  0
LINE
  5
2079D
330
1F863
100
AcDbEntity
  8
寸法
 62
     0
 48
50.0
370
    -2
100
AcDbLine
 10
6492.164931848214
 20
7966.907777930209
 30
0.0
 11
6492.164931848212
 21
5746.907777930208
 31
0.0
  0
INSERT
  5
2079E
330
1F863
100
AcDbEntity
  8
寸法
 62
     0
 48
50.0
370
    -2
100
AcDbBlockReference
  2
_DOTSMALL
 10
6492.164931848214
 20
7966.907777930209
 30
0.0
 41
100.0
 42
100.0
 43
100.0
 50
90.0
  0
INSERT
  5
2079F
330
1F863
100
AcDbEntity
  8
寸法
 62
     0
 48
50.0
370
    -2
100
AcDbBlockReference
  2
_DOTSMALL
 10
6492.164931848212
 20
5746.907777930208
 30
0.0
 41
100.0
 42
100.0
 43
100.0
 50
270.0
  0
MTEXT
  5
207A0
330
1F863
100
AcDbEntity
  8
寸法
 62
     7
 48
50.0
100
AcDbMText
 10
6392.153120824589
 20
6911.474447586923
 30
0.0
 40
120.0
 41
0.0
 71
     5
 72
     1
  1
\A1;2220
  7
STYLE1
 11
0.0000000000000001
 21
1.0
 31
0.0
 73
     1
 44
1.0
1001
ACAD
1000
MTEXTBEGIN
1070
    73
1070
     1
1070
    44
1040
1.0
1070
    74
1070
     0
1000
MTEXTEND
  0
POINT
  5
207A1
330
1F863
100
AcDbEntity
  8
DEFPOINTS
 62
     0
 48
50.0
100
AcDbPoint
 10
7533.599999999999
 20
7966.907777930209
 30
0.0
  0
POINT
  5
207A2
330
1F863
100
AcDbEntity
  8
DEFPOINTS
 62
     0
 48
50.0
100
AcDbPoint
 10
7533.599999999999
 20
5746.907777930208
 30
0.0
  0
POINT
  5
207A3
330
1F863
100
AcDbEntity
  8
DEFPOINTS
 62
     0
 48
50.0
100
AcDbPoint
 10
6492.164931848212
 20
5746.907777930208
 30
0.0
  0
ENDBLK
  5
1F86E
330
1F863
100
AcDbEntity
  8
0
 48
50.0
100
AcDbBlockEnd
  0
BLOCK
  5
1F879
330
1F86F
100
AcDbEntity
  8
0
 48
50.0
100
AcDbBlockBegin
  2
*D30
 70
     1
 10
0.0
 20
0.0
 30
0.0
  3
*D30
  1

  0
LINE
  5
20792
330
1F86F
100
AcDbEntity
  8
寸法
 62
     0
 48
50.0
370
    -2
100
AcDbLine
 10
7586.6
 20
7843.907777930208
 30
0.0
 11
6677.65773398618
 21
7843.907777930208
 31
0.0
  0
LINE
  5
20793
330
1F86F
100
AcDbEntity
  8
寸法
 62
     0
 48
50.0
370
    -2
100
AcDbLine
 10
7586.600000000008
 20
5869.90777793021
 30
0.0
 11
6677.657733986179
 21
5869.90777793021
 31
0.0
  0
LINE
  5
20794
330
1F86F
100
AcDbEntity
  8
寸法
 62
     0
 48
50.0
370
    -2
100
AcDbLine
 10
6737.657733986179
 20
7843.907777930208
 30
0.0
 11
6737.657733986178
 21
5869.90777793021
 31
0.0
  0
INSERT
  5
20795
330
1F86F
100
AcDbEntity
  8
寸法
 62
     0
 48
50.0
370
    -2
100
AcDbBlockReference
  2
_DOTSMALL
 10
6737.657733986179
 20
7843.907777930208
 30
0.0
 41
100.0
 42
100.0
 43
100.0
 50
90.0
  0
INSERT
  5
20796
330
1F86F
100
AcDbEntity
  8
寸法
 62
     0
 48
50.0
370
    -2
100
AcDbBlockReference
  2
_DOTSMALL
 10
6737.657733986178
 20
5869.90777793021
 30
0.0
 41
100.0
 42
100.0
 43
100.0
 50
270.0
  0
MTEXT
  5
20797
330
1F86F
100
AcDbEntity
  8
寸法
 62
     7
 48
50.0
100
AcDbMText
 10
6637.657733986178
 20
6911.474447586923
 30
0.0
 40
120.0
 41
0.0
 71
     5
 72
     1
  1
\A1;1974
  7
STYLE1
 11
0.0000000000000001
 21
1.0
 31
0.0
 73
     1
 44
1.0
1001
ACAD
1000
MTEXTBEGIN
1070
    73
1070
     1
1070
    44
1040
1.0
1070
    74
1070
     0
1000
MTEXTEND
  0
POINT
  5
20798
330
1F86F
100
AcDbEntity
  8
DEFPOINTS
 62
     0
 48
50.0
100
AcDbPoint
 10
7606.6
 20
7843.907777930208
 30
0.0
  0
POINT
  5
20799
330
1F86F
100
AcDbEntity
  8
DEFPOINTS
 62
     0
 48
50.0
100
AcDbPoint
 10
7606.600000000007
 20
5869.90777793021
 30
0.0
  0
POINT
  5
2079A
330
1F86F
100
AcDbEntity
  8
DEFPOINTS
 62
     0
 48
50.0
100
AcDbPoint
 10
6737.657733986178
 20
5869.90777793021
 30
0.0
  0
ENDBLK
  5
1F87A
330
1F86F
100
AcDbEntity
  8
0
 48
50.0
100
AcDbBlockEnd
  0
BLOCK
  5
1F894
330
1F889
100
AcDbEntity
  8
0
 48
50.0
100
AcDbBlockBegin
  2
*D31
 70
     1
 10
0.0
 20
0.0
 30
0.0
  3
*D31
  1

  0
LINE
  5
1FE4F
330
1F889
100
AcDbEntity
  8
寸法
 62
     0
 48
50.0
370
    -2
100
AcDbLine
 10
7656.6
 20
7913.907777930209
 30
0.0
 11
7656.6
 21
8831.968388320138
 31
0.0
  0
LINE
  5
1FE50
330
1F889
100
AcDbEntity
  8
寸法
 62
     0
 48
50.0
370
    -2
100
AcDbLine
 10
7533.599999999999
 20
7986.907777930207
 30
0.0
 11
7533.599999999999
 21
8831.968388320138
 31
0.0
  0
LINE
  5
1FE51
330
1F889
100
AcDbEntity
  8
寸法
 62
     0
 48
50.0
370
    -2
100
AcDbLine
 10
7656.6
 20
8771.968388320138
 30
0.0
 11
7533.599999999999
 21
8771.968388320138
 31
0.0
  0
LINE
  5
1FE52
330
1F889
100
AcDbEntity
  8
寸法
 62
     0
 48
50.0
370
    -2
100
AcDbLine
 10
7533.599999999999
 20
8771.968388320138
 30
0.0
 11
7156.629437251523
 21
8771.968388320138
 31
0.0
  0
INSERT
  5
1FE53
330
1F889
100
AcDbEntity
  8
寸法
 62
     0
 48
50.0
370
    -2
100
AcDbBlockReference
  2
_DOTSMALL
 10
7656.6
 20
8771.968388320138
 30
0.0
 41
100.0
 42
100.0
 43
100.0
  0
INSERT
  5
1FE54
330
1F889
100
AcDbEntity
  8
寸法
 62
     0
 48
50.0
370
    -2
100
AcDbBlockReference
  2
_DOTSMALL
 10
7533.599999999999
 20
8771.968388320138
 30
0.0
 41
100.0
 42
100.0
 43
100.0
 50
180.0
  0
MTEXT
  5
1FE55
330
1F889
100
AcDbEntity
  8
寸法
 62
     7
 48
50.0
100
AcDbMText
 10
7295.114718625763
 20
8871.980199343759
 30
0.0
 40
120.0
 41
0.0
 71
     5
 72
     1
  1
\A1;123
  7
STYLE1
 73
     1
 44
1.0
1001
ACAD
1000
MTEXTBEGIN
1070
    73
1070
     1
1070
    44
1040
1.0
1070
    74
1070
     0
1000
MTEXTEND
  0
POINT
  5
1FE56
330
1F889
100
AcDbEntity
  8
DEFPOINTS
 62
     0
 48
50.0
100
AcDbPoint
 10
7656.6
 20
7893.907777930208
 30
0.0
  0
POINT
  5
1FE57
330
1F889
100
AcDbEntity
  8
DEFPOINTS
 62
     0
 48
50.0
100
AcDbPoint
 10
7533.599999999999
 20
7966.907777930209
 30
0.0
  0
POINT
  5
1FE58
330
1F889
100
AcDbEntity
  8
DEFPOINTS
 62
     0
 48
50.0
100
AcDbPoint
 10
7533.599999999999
 20
8771.968388320138
 30
0.0
  0
ENDBLK
  5
1F895
330
1F889
100
AcDbEntity
  8
0
 48
50.0
100
AcDbBlockEnd
  0
BLOCK
  5
1F8A0
330
1F896
100
AcDbEntity
  8
0
 48
50.0
100
AcDbBlockBegin
  2
*D32
 70
     1
 10
0.0
 20
0.0
 30
0.0
  3
*D32
  1

  0
LINE
  5
1FE46
330
1F896
100
AcDbEntity
  8
寸法
 62
     0
 48
50.0
370
    -2
100
AcDbLine
 10
7533.599999999999
 20
7986.907777930207
 30
0.0
 11
7533.599999999999
 21
9044.429083836973
 31
0.0
  0
LINE
  5
1FE47
330
1F896
100
AcDbEntity
  8
寸法
 62
     0
 48
50.0
370
    -2
100
AcDbLine
 10
8913.6
 20
7986.907777930207
 30
0.0
 11
8913.6
 21
9044.429083836973
 31
0.0
  0
LINE
  5
1FE48
330
1F896
100
AcDbEntity
  8
寸法
 62
     0
 48
50.0
370
    -2
100
AcDbLine
 10
7533.599999999999
 20
8984.429083836975
 30
0.0
 11
8913.6
 21
8984.429083836975
 31
0.0
  0
INSERT
  5
1FE49
330
1F896
100
AcDbEntity
  8
寸法
 62
     0
 48
50.0
370
    -2
100
AcDbBlockReference
  2
_DOTSMALL
 10
7533.599999999999
 20
8984.429083836975
 30
0.0
 41
100.0
 42
100.0
 43
100.0
 50
180.0
  0
INSERT
  5
1FE4A
330
1F896
100
AcDbEntity
  8
寸法
 62
     0
 48
50.0
370
    -2
100
AcDbBlockReference
  2
_DOTSMALL
 10
8913.6
 20
8984.429083836975
 30
0.0
 41
100.0
 42
100.0
 43
100.0
  0
MTEXT
  5
1FE4B
330
1F896
100
AcDbEntity
  8
寸法
 62
     7
 48
50.0
100
AcDbMText
 10
8223.600000000001
 20
9084.429083836974
 30
0.0
 40
120.0
 41
0.0
 71
     5
 72
     1
  1
\A1;1380
  7
STYLE1
 73
     1
 44
1.0
1001
ACAD
1000
MTEXTBEGIN
1070
    73
1070
     1
1070
    44
1040
1.0
1070
    74
1070
     0
1000
MTEXTEND
  0
POINT
  5
1FE4C
330
1F896
100
AcDbEntity
  8
DEFPOINTS
 62
     0
 48
50.0
100
AcDbPoint
 10
7533.599999999999
 20
7966.907777930209
 30
0.0
  0
POINT
  5
1FE4D
330
1F896
100
AcDbEntity
  8
DEFPOINTS
 62
     0
 48
50.0
100
AcDbPoint
 10
8913.6
 20
7966.907777930209
 30
0.0
  0
POINT
  5
1FE4E
330
1F896
100
AcDbEntity
  8
DEFPOINTS
 62
     0
 48
50.0
100
AcDbPoint
 10
8913.6
 20
8984.429083836975
 30
0.0
  0
ENDBLK
  5
1F8A1
330
1F896
100
AcDbEntity
  8
0
 48
50.0
100
AcDbBlockEnd
  0
BLOCK
  5
1F8AC
330
1F8A2
100
AcDbEntity
  8
0
 48
50.0
100
AcDbBlockBegin
  2
*D33
 70
     1
 10
0.0
 20
0.0
 30
0.0
  3
*D33
  1

  0
LINE
  5
1FE3D
330
1F8A2
100
AcDbEntity
  8
寸法
 62
     0
 48
50.0
370
    -2
100
AcDbLine
 10
8790.600000000001
 20
7913.907777930209
 30
0.0
 11
8790.600000000001
 21
8831.968388320138
 31
0.0
  0
LINE
  5
1FE3E
330
1F8A2
100
AcDbEntity
  8
寸法
 62
     0
 48
50.0
370
    -2
100
AcDbLine
 10
7656.6
 20
7913.907777930209
 30
0.0
 11
7656.6
 21
8831.968388320138
 31
0.0
  0
LINE
  5
1FE3F
330
1F8A2
100
AcDbEntity
  8
寸法
 62
     0
 48
50.0
370
    -2
100
AcDbLine
 10
8790.600000000001
 20
8771.968388320138
 30
0.0
 11
7656.6
 21
8771.968388320138
 31
0.0
  0
INSERT
  5
1FE40
330
1F8A2
100
AcDbEntity
  8
寸法
 62
     0
 48
50.0
370
    -2
100
AcDbBlockReference
  2
_DOTSMALL
 10
8790.600000000001
 20
8771.968388320138
 30
0.0
 41
100.0
 42
100.0
 43
100.0
  0
INSERT
  5
1FE41
330
1F8A2
100
AcDbEntity
  8
寸法
 62
     0
 48
50.0
370
    -2
100
AcDbBlockReference
  2
_DOTSMALL
 10
7656.6
 20
8771.968388320138
 30
0.0
 41
100.0
 42
100.0
 43
100.0
 50
180.0
  0
MTEXT
  5
1FE42
330
1F8A2
100
AcDbEntity
  8
寸法
 62
     7
 48
50.0
100
AcDbMText
 10
8223.600000000001
 20
8871.968388320139
 30
0.0
 40
120.0
 41
0.0
 71
     5
 72
     1
  1
\A1;1134
  7
STYLE1
 73
     1
 44
1.0
1001
ACAD
1000
MTEXTBEGIN
1070
    73
1070
     1
1070
    44
1040
1.0
1070
    74
1070
     0
1000
MTEXTEND
  0
POINT
  5
1FE43
330
1F8A2
100
AcDbEntity
  8
DEFPOINTS
 62
     0
 48
50.0
100
AcDbPoint
 10
8790.600000000001
 20
7893.907777930208
 30
0.0
  0
POINT
  5
1FE44
330
1F8A2
100
AcDbEntity
  8
DEFPOINTS
 62
     0
 48
50.0
100
AcDbPoint
 10
7656.6
 20
7893.907777930208
 30
0.0
  0
POINT
  5
1FE45
330
1F8A2
100
AcDbEntity
  8
DEFPOINTS
 62
     0
 48
50.0
100
AcDbPoint
 10
7656.6
 20
8771.968388320138
 30
0.0
  0
ENDBLK
  5
1F8AD
330
1F8A2
100
AcDbEntity
  8
0
 48
50.0
100
AcDbBlockEnd
  0
BLOCK
  5
20496
330
2048A
100
AcDbEntity
  8
0
 48
50.0
100
AcDbBlockBegin
  2
*D34
 70
     1
 10
0.0
 20
0.0
 30
0.0
  3
*D34
  1

  0
LINE
  5
20690
330
2048A
100
AcDbEntity
  8
寸法
 62
     0
 48
50.0
370
    -2
100
AcDbLine
 10
7488.600000000002
 20
8791.968388320139
 30
0.0
 11
7488.600000000002
 21
9044.429083836973
 31
0.0
  0
LINE
  5
20691
330
2048A
100
AcDbEntity
  8
寸法
 62
     0
 48
50.0
370
    -2
100
AcDbLine
 10
7533.599999999999
 20
7986.907777930207
 30
0.0
 11
7533.599999999999
 21
9044.429083836973
 31
0.0
  0
LINE
  5
20692
330
2048A
100
AcDbEntity
  8
寸法
 62
     0
 48
50.0
370
    -2
100
AcDbLine
 10
7533.599999999999
 20
8984.429083836975
 30
0.0
 11
7633.6
 21
8984.429083836975
 31
0.0
  0
LINE
  5
20693
330
2048A
100
AcDbEntity
  8
寸法
 62
     0
 48
50.0
370
    -2
100
AcDbLine
 10
7488.600000000002
 20
8984.429083836975
 30
0.0
 11
7151.250757595083
 21
8984.429083836975
 31
0.0
  0
LINE
  5
20694
330
2048A
100
AcDbEntity
  8
寸法
 62
     0
 48
50.0
370
    -2
100
AcDbLine
 10
7533.599999999999
 20
8984.429083836975
 30
0.0
 11
7488.600000000002
 21
8984.429083836975
 31
0.0
  0
INSERT
  5
20695
330
2048A
100
AcDbEntity
  8
寸法
 62
     0
 48
50.0
370
    -2
100
AcDbBlockReference
  2
_DOTSMALL
 10
7533.599999999999
 20
8984.429083836975
 30
0.0
 41
100.0
 42
100.0
 43
100.0
 50
180.0
  0
INSERT
  5
20696
330
2048A
100
AcDbEntity
  8
寸法
 62
     0
 48
50.0
370
    -2
100
AcDbBlockReference
  2
_DOTSMALL
 10
7488.600000000002
 20
8984.429083836975
 30
0.0
 41
100.0
 42
100.0
 43
100.0
  0
MTEXT
  5
20697
330
2048A
100
AcDbEntity
  8
寸法
 62
     7
 48
50.0
100
AcDbMText
 10
7217.425378797542
 20
9084.429083836974
 30
0.0
 40
120.0
 41
0.0
 71
     5
 72
     1
  1
\A1;a
  7
STYLE1
 73
     1
 44
1.0
1001
ACAD
1000
MTEXTBEGIN
1070
    73
1070
     1
1070
    44
1040
1.0
1070
    74
1070
     0
1000
MTEXTEND
  0
POINT
  5
20698
330
2048A
100
AcDbEntity
  8
DEFPOINTS
 62
     0
 48
50.0
100
AcDbPoint
 10
7488.600000000002
 20
8771.968388320138
 30
0.0
  0
POINT
  5
20699
330
2048A
100
AcDbEntity
  8
DEFPOINTS
 62
     0
 48
50.0
100
AcDbPoint
 10
7533.599999999999
 20
7966.907777930209
 30
0.0
  0
POINT
  5
2069A
330
2048A
100
AcDbEntity
  8
DEFPOINTS
 62
     0
 48
50.0
100
AcDbPoint
 10
7533.599999999999
 20
8984.429083836975
 30
0.0
  0
ENDBLK
  5
20497
330
2048A
100
AcDbEntity
  8
0
 48
50.0
100
AcDbBlockEnd
  0
BLOCK
  5
204B2
330
204A6
100
AcDbEntity
  8
0
 48
50.0
100
AcDbBlockBegin
  2
*D35
 70
     1
 10
0.0
 20
0.0
 30
0.0
  3
*D35
  1

  0
LINE
  5
20685
330
204A6
100
AcDbEntity
  8
寸法
 62
     0
 48
50.0
370
    -2
100
AcDbLine
 10
8913.599999999989
 20
7986.907777930207
 30
0.0
 11
8913.599999999989
 21
9044.429083836973
 31
0.0
  0
LINE
  5
20686
330
204A6
100
AcDbEntity
  8
寸法
 62
     0
 48
50.0
370
    -2
100
AcDbLine
 10
8958.6
 20
8791.968388320139
 30
0.0
 11
8958.6
 21
9044.429083836973
 31
0.0
  0
LINE
  5
20687
330
204A6
100
AcDbEntity
  8
寸法
 62
     0
 48
50.0
370
    -2
100
AcDbLine
 10
8913.599999999989
 20
8984.429083836975
 30
0.0
 11
8813.59999999999
 21
8984.429083836975
 31
0.0
  0
LINE
  5
20688
330
204A6
100
AcDbEntity
  8
寸法
 62
     0
 48
50.0
370
    -2
100
AcDbLine
 10
8958.6
 20
8984.429083836975
 30
0.0
 11
9295.949242404919
 21
8984.429083836975
 31
0.0
  0
LINE
  5
20689
330
204A6
100
AcDbEntity
  8
寸法
 62
     0
 48
50.0
370
    -2
100
AcDbLine
 10
8913.599999999989
 20
8984.429083836975
 30
0.0
 11
8958.6
 21
8984.429083836975
 31
0.0
  0
INSERT
  5
2068A
330
204A6
100
AcDbEntity
  8
寸法
 62
     0
 48
50.0
370
    -2
100
AcDbBlockReference
  2
_DOTSMALL
 10
8913.599999999989
 20
8984.429083836975
 30
0.0
 41
100.0
 42
100.0
 43
100.0
  0
INSERT
  5
2068B
330
204A6
100
AcDbEntity
  8
寸法
 62
     0
 48
50.0
370
    -2
100
AcDbBlockReference
  2
_DOTSMALL
 10
8958.6
 20
8984.429083836975
 30
0.0
 41
100.0
 42
100.0
 43
100.0
 50
180.0
  0
MTEXT
  5
2068C
330
204A6
100
AcDbEntity
  8
寸法
 62
     7
 48
50.0
100
AcDbMText
 10
9229.774621202459
 20
9084.429083836974
 30
0.0
 40
120.0
 41
0.0
 71
     5
 72
     1
  1
\A1;a
  7
STYLE1
 73
     1
 44
1.0
1001
ACAD
1000
MTEXTBEGIN
1070
    73
1070
     1
1070
    44
1040
1.0
1070
    74
1070
     0
1000
MTEXTEND
  0
POINT
  5
2068D
330
204A6
100
AcDbEntity
  8
DEFPOINTS
 62
     0
 48
50.0
100
AcDbPoint
 10
8913.599999999989
 20
7966.907777930207
 30
0.0
  0
POINT
  5
2068E
330
204A6
100
AcDbEntity
  8
DEFPOINTS
 62
     0
 48
50.0
100
AcDbPoint
 10
8958.6
 20
8771.968388320138
 30
0.0
  0
POINT
  5
2068F
330
204A6
100
AcDbEntity
  8
DEFPOINTS
 62
     0
 48
50.0
100
AcDbPoint
 10
8958.6
 20
8984.429083836975
 30
0.0
  0
ENDBLK
  5
204B3
330
204A6
100
AcDbEntity
  8
0
 48
50.0
100
AcDbBlockEnd
  0
BLOCK
  5
206F8
330
206EE
100
AcDbEntity
  8
0
 48
50.0
100
AcDbBlockBegin
  2
*D36
 70
     1
 10
0.0
 20
0.0
 30
0.0
  3
*D36
  1

  0
LINE
  5
20851
330
206EE
100
AcDbEntity
  8
寸法
 62
     0
 48
50.0
370
    -2
100
AcDbLine
 10
7513.600000000036
 20
5746.907777930211
 30
0.0
 11
6922.503367597602
 21
5746.907777930211
 31
0.0
  0
LINE
  5
20852
330
206EE
100
AcDbEntity
  8
寸法
 62
     0
 48
50.0
370
    -2
100
AcDbLine
 10
8103.6
 20
6510.907777930208
 30
0.0
 11
6922.503367597603
 21
6510.907777930208
 31
0.0
  0
LINE
  5
20853
330
206EE
100
AcDbEntity
  8
寸法
 62
     0
 48
50.0
370
    -2
100
AcDbLine
 10
6982.503367597601
 20
5746.907777930211
 30
0.0
 11
6982.503367597603
 21
6510.907777930208
 31
0.0
  0
INSERT
  5
20854
330
206EE
100
AcDbEntity
  8
寸法
 62
     0
 48
50.0
370
    -2
100
AcDbBlockReference
  2
_DOTSMALL
 10
6982.503367597601
 20
5746.907777930211
 30
0.0
 41
100.0
 42
100.0
 43
100.0
 50
270.0
  0
INSERT
  5
20855
330
206EE
100
AcDbEntity
  8
寸法
 62
     0
 48
50.0
370
    -2
100
AcDbBlockReference
  2
_DOTSMALL
 10
6982.503367597603
 20
6510.907777930208
 30
0.0
 41
100.0
 42
100.0
 43
100.0
 50
90.0
  0
MTEXT
  5
20856
330
206EE
100
AcDbEntity
  8
寸法
 62
     7
 48
50.0
100
AcDbMText
 10
6882.503367597601
 20
6200.010127818401
 30
0.0
 40
120.0
 41
0.0
 71
     5
 72
     1
  1
\A1;764
  7
STYLE1
 11
0.0000000000000001
 21
1.0
 31
0.0
 73
     1
 44
1.0
1001
ACAD
1000
MTEXTBEGIN
1070
    73
1070
     1
1070
    44
1040
1.0
1070
    74
1070
     0
1000
MTEXTEND
  0
POINT
  5
20857
330
206EE
100
AcDbEntity
  8
DEFPOINTS
 62
     0
 48
50.0
100
AcDbPoint
 10
7533.600000000035
 20
5746.907777930211
 30
0.0
  0
POINT
  5
20858
330
206EE
100
AcDbEntity
  8
DEFPOINTS
 62
     0
 48
50.0
100
AcDbPoint
 10
8123.600000000001
 20
6510.907777930208
 30
0.0
  0
POINT
  5
20859
330
206EE
100
AcDbEntity
  8
DEFPOINTS
 62
     0
 48
50.0
100
AcDbPoint
 10
6982.503367597603
 20
6510.907777930208
 30
0.0
  0
ENDBLK
  5
206F9
330
206EE
100
AcDbEntity
  8
0
 48
50.0
100
AcDbBlockEnd
  0
BLOCK
  5
20729
330
2071F
100
AcDbEntity
  8
0
 48
50.0
100
AcDbBlockBegin
  2
*D37
 70
     1
 10
0.0
 20
0.0
 30
0.0
  3
*D37
  1

  0
LINE
  5
20863
330
2071F
100
AcDbEntity
  8
寸法
 62
     0
 48
50.0
370
    -2
100
AcDbLine
 10
8103.6
 20
7202.907777930208
 30
0.0
 11
6922.503367597603
 21
7202.907777930208
 31
0.0
  0
LINE
  5
20864
330
2071F
100
AcDbEntity
  8
寸法
 62
     0
 48
50.0
370
    -2
100
AcDbLine
 10
7513.600000000001
 20
7966.907777930209
 30
0.0
 11
6922.503367597603
 21
7966.907777930209
 31
0.0
  0
LINE
  5
20865
330
2071F
100
AcDbEntity
  8
寸法
 62
     0
 48
50.0
370
    -2
100
AcDbLine
 10
6982.503367597603
 20
7202.907777930208
 30
0.0
 11
6982.503367597603
 21
7966.907777930209
 31
0.0
  0
INSERT
  5
20866
330
2071F
100
AcDbEntity
  8
寸法
 62
     0
 48
50.0
370
    -2
100
AcDbBlockReference
  2
_DOTSMALL
 10
6982.503367597603
 20
7202.907777930208
 30
0.0
 41
100.0
 42
100.0
 43
100.0
 50
270.0
  0
INSERT
  5
20867
330
2071F
100
AcDbEntity
  8
寸法
 62
     0
 48
50.0
370
    -2
100
AcDbBlockReference
  2
_DOTSMALL
 10
6982.503367597603
 20
7966.907777930209
 30
0.0
 41
100.0
 42
100.0
 43
100.0
 50
90.0
  0
MTEXT
  5
20868
330
2071F
100
AcDbEntity
  8
寸法
 62
     7
 48
50.0
100
AcDbMText
 10
6882.503367597601
 20
7584.907777930209
 30
0.0
 40
120.0
 41
0.0
 71
     5
 72
     1
  1
\A1;764
  7
STYLE1
 11
0.0000000000000001
 21
1.0
 31
0.0
 73
     1
 44
1.0
1001
ACAD
1000
MTEXTBEGIN
1070
    73
1070
     1
1070
    44
1040
1.0
1070
    74
1070
     0
1000
MTEXTEND
  0
POINT
  5
20869
330
2071F
100
AcDbEntity
  8
DEFPOINTS
 62
     0
 48
50.0
100
AcDbPoint
 10
8123.600000000001
 20
7202.907777930208
 30
0.0
  0
POINT
  5
2086A
330
2071F
100
AcDbEntity
  8
DEFPOINTS
 62
     0
 48
50.0
100
AcDbPoint
 10
7533.599999999999
 20
7966.907777930209
 30
0.0
  0
POINT
  5
2086B
330
2071F
100
AcDbEntity
  8
DEFPOINTS
 62
     0
 48
50.0
100
AcDbPoint
 10
6982.503367597603
 20
7966.907777930209
 30
0.0
  0
ENDBLK
  5
2072A
330
2071F
100
AcDbEntity
  8
0
 48
50.0
100
AcDbBlockEnd
  0
BLOCK
  5
20748
330
2073E
100
AcDbEntity
  8
0
 48
50.0
100
AcDbBlockBegin
  2
*D38
 70
     1
 10
0.0
 20
0.0
 30
0.0
  3
*D38
  1

  0
LINE
  5
2085A
330
2073E
100
AcDbEntity
  8
寸法
 62
     0
 48
50.0
370
    -2
100
AcDbLine
 10
8103.6
 20
6510.907777930208
 30
0.0
 11
6922.503367597605
 21
6510.907777930208
 31
0.0
  0
LINE
  5
2085B
330
2073E
100
AcDbEntity
  8
寸法
 62
     0
 48
50.0
370
    -2
100
AcDbLine
 10
8103.6
 20
7202.907777930208
 30
0.0
 11
6922.503367597605
 21
7202.907777930208
 31
0.0
  0
LINE
  5
2085C
330
2073E
100
AcDbEntity
  8
寸法
 62
     0
 48
50.0
370
    -2
100
AcDbLine
 10
6982.503367597605
 20
6510.907777930208
 30
0.0
 11
6982.503367597605
 21
7202.907777930208
 31
0.0
  0
INSERT
  5
2085D
330
2073E
100
AcDbEntity
  8
寸法
 62
     0
 48
50.0
370
    -2
100
AcDbBlockReference
  2
_DOTSMALL
 10
6982.503367597605
 20
6510.907777930208
 30
0.0
 41
100.0
 42
100.0
 43
100.0
 50
270.0
  0
INSERT
  5
2085E
330
2073E
100
AcDbEntity
  8
寸法
 62
     0
 48
50.0
370
    -2
100
AcDbBlockReference
  2
_DOTSMALL
 10
6982.503367597605
 20
7202.907777930208
 30
0.0
 41
100.0
 42
100.0
 43
100.0
 50
90.0
  0
MTEXT
  5
2085F
330
2073E
100
AcDbEntity
  8
寸法
 62
     7
 48
50.0
100
AcDbMText
 10
6882.462555032799
 20
6856.907777930207
 30
0.0
 40
120.0
 41
0.0
 71
     5
 72
     1
  1
\A1;692
  7
STYLE1
 11
0.0000000000000001
 21
1.0
 31
0.0
 73
     1
 44
1.0
1001
ACAD
1000
MTEXTBEGIN
1070
    73
1070
     1
1070
    44
1040
1.0
1070
    74
1070
     0
1000
MTEXTEND
  0
POINT
  5
20860
330
2073E
100
AcDbEntity
  8
DEFPOINTS
 62
     0
 48
50.0
100
AcDbPoint
 10
8123.600000000001
 20
6510.907777930208
 30
0.0
  0
POINT
  5
20861
330
2073E
100
AcDbEntity
  8
DEFPOINTS
 62
     0
 48
50.0
100
AcDbPoint
 10
8123.600000000001
 20
7202.907777930208
 30
0.0
  0
POINT
  5
20862
330
2073E
100
AcDbEntity
  8
DEFPOINTS
 62
     0
 48
50.0
100
AcDbPoint
 10
6982.503367597605
 20
7202.907777930208
 30
0.0
  0
ENDBLK
  5
20749
330
2073E
100
AcDbEntity
  8
0
 48
50.0
100
AcDbBlockEnd
  0
BLOCK
  5
20A63
330
20A59
100
AcDbEntity
  8
0
 48
50.0
100
AcDbBlockBegin
  2
*D39
 70
     1
 10
0.0
 20
0.0
 30
0.0
  3
*D39
  1

  0
LINE
  5
20C4B
330
20A59
100
AcDbEntity
  8
寸法
 62
     0
 48
50.0
370
    -2
100
AcDbLine
 10
8913.600000000018
 20
5651.907777930227
 30
0.0
 11
8913.600000000018
 21
4897.043474506101
 31
0.0
  0
LINE
  5
20C4C
330
20A59
100
AcDbEntity
  8
寸法
 62
     0
 48
50.0
370
    -2
100
AcDbLine
 10
7533.600000000035
 20
5651.907777930211
 30
0.0
 11
7533.600000000035
 21
4897.043474506101
 31
0.0
  0
LINE
  5
20C4D
330
20A59
100
AcDbEntity
  8
寸法
 62
     0
 48
50.0
370
    -2
100
AcDbLine
 10
8913.600000000018
 20
4957.0434745061
 30
0.0
 11
7533.600000000035
 21
4957.0434745061
 31
0.0
  0
INSERT
  5
20C4E
330
20A59
100
AcDbEntity
  8
寸法
 62
     0
 48
50.0
370
    -2
100
AcDbBlockReference
  2
_DOTSMALL
 10
8913.600000000018
 20
4957.0434745061
 30
0.0
 41
100.0
 42
100.0
 43
100.0
  0
INSERT
  5
20C4F
330
20A59
100
AcDbEntity
  8
寸法
 62
     0
 48
50.0
370
    -2
100
AcDbBlockReference
  2
_DOTSMALL
 10
7533.600000000035
 20
4957.0434745061
 30
0.0
 41
100.0
 42
100.0
 43
100.0
 50
180.0
  0
MTEXT
  5
20C50
330
20A59
100
AcDbEntity
  8
寸法
 62
     7
 48
50.0
100
AcDbMText
 10
8223.600000000027
 20
5057.0434745061
 30
0.0
 40
120.0
 41
0.0
 71
     5
 72
     1
  1
\A1;扉の幅 1380
  7
STYLE1
 73
     1
 44
1.0
1001
ACAD
1000
MTEXTBEGIN
1070
    73
1070
     1
1070
    44
1040
1.0
1070
    74
1070
     0
1000
MTEXTEND
  0
POINT
  5
20C51
330
20A59
100
AcDbEntity
  8
DEFPOINTS
 62
     0
 48
50.0
100
AcDbPoint
 10
8913.600000000018
 20
5671.907777930226
 30
0.0
  0
POINT
  5
20C52
330
20A59
100
AcDbEntity
  8
DEFPOINTS
 62
     0
 48
50.0
100
AcDbPoint
 10
7533.600000000035
 20
5671.90777793021
 30
0.0
  0
POINT
  5
20C53
330
20A59
100
AcDbEntity
  8
DEFPOINTS
 62
     0
 48
50.0
100
AcDbPoint
 10
7533.600000000035
 20
4957.0434745061
 30
0.0
  0
ENDBLK
  5
20A64
330
20A59
100
AcDbEntity
  8
0
 48
50.0
100
AcDbBlockEnd
  0
BLOCK
  5
20AC2
330
20AB7
100
AcDbEntity
  8
0
 48
50.0
100
AcDbBlockBegin
  2
*D40
 70
     1
 10
0.0
 20
0.0
 30
0.0
  3
*D40
  1

  0
LINE
  5
210E7
330
20AB7
100
AcDbEntity
  8
寸法
 62
     0
 48
50.0
370
    -2
100
AcDbLine
 10
7783.600000000034
 20
5866.907777930228
 30
0.0
 11
8052.9384600463
 21
5866.907777930228
 31
0.0
  0
LINE
  5
210E8
330
20AB7
100
AcDbEntity
  8
寸法
 62
     0
 48
50.0
370
    -2
100
AcDbLine
 10
7783.600000000038
 20
5976.907777930225
 30
0.0
 11
8052.9384600463
 21
5976.907777930225
 31
0.0
  0
LINE
  5
210E9
330
20AB7
100
AcDbEntity
  8
寸法
 62
     0
 48
50.0
370
    -2
100
AcDbLine
 10
7992.938460046301
 20
5866.907777930228
 30
0.0
 11
7992.938460046301
 21
5976.907777930225
 31
0.0
  0
LINE
  5
210EA
330
20AB7
100
AcDbEntity
  8
寸法
 62
     0
 48
50.0
370
    -2
100
AcDbLine
 10
7992.938460046301
 20
5976.907777930225
 30
0.0
 11
7992.938460046302
 21
6337.002266119202
 31
0.0
  0
INSERT
  5
210EB
330
20AB7
100
AcDbEntity
  8
寸法
 62
     0
 48
50.0
370
    -2
100
AcDbBlockReference
  2
_DOTSMALL
 10
7992.938460046301
 20
5866.907777930228
 30
0.0
 41
100.0
 42
100.0
 43
100.0
 50
270.0
  0
INSERT
  5
210EC
330
20AB7
100
AcDbEntity
  8
寸法
 62
     0
 48
50.0
370
    -2
100
AcDbBlockReference
  2
_DOTSMALL
 10
7992.938460046301
 20
5976.907777930225
 30
0.0
 41
100.0
 42
100.0
 43
100.0
 50
90.0
  0
MTEXT
  5
210ED
330
20AB7
100
AcDbEntity
  8
寸法
 62
     7
 48
50.0
100
AcDbMText
 10
7892.938460046299
 20
6212.955022024715
 30
0.0
 40
120.0
 41
0.0
 71
     5
 72
     1
  1
\A1;110
  7
STYLE1
 11
0.0000000000000001
 21
1.0
 31
0.0
 73
     1
 44
1.0
1001
ACAD
1000
MTEXTBEGIN
1070
    73
1070
     1
1070
    44
1040
1.0
1070
    74
1070
     0
1000
MTEXTEND
  0
POINT
  5
210EE
330
20AB7
100
AcDbEntity
  8
DEFPOINTS
 62
     0
 48
50.0
100
AcDbPoint
 10
7763.600000000034
 20
5866.907777930228
 30
0.0
  0
POINT
  5
210EF
330
20AB7
100
AcDbEntity
  8
DEFPOINTS
 62
     0
 48
50.0
100
AcDbPoint
 10
7763.600000000038
 20
5976.907777930225
 30
0.0
  0
POINT
  5
210F0
330
20AB7
100
AcDbEntity
  8
DEFPOINTS
 62
     0
 48
50.0
100
AcDbPoint
 10
7992.938460046301
 20
5976.907777930225
 30
0.0
  0
ENDBLK
  5
20AC3
330
20AB7
100
AcDbEntity
  8
0
 48
50.0
100
AcDbBlockEnd
  0
BLOCK
  5
20ADB
330
20AD0
100
AcDbEntity
  8
0
 48
50.0
100
AcDbBlockBegin
  2
*D41
 70
     1
 10
0.0
 20
0.0
 30
0.0
  3
*D41
  1

  0
LINE
  5
210DD
330
20AD0
100
AcDbEntity
  8
寸法
 62
     0
 48
50.0
370
    -2
100
AcDbLine
 10
7783.600000000035
 20
5671.907777930226
 30
0.0
 11
8052.9384600463
 21
5671.907777930226
 31
0.0
  0
LINE
  5
210DE
330
20AD0
100
AcDbEntity
  8
寸法
 62
     0
 48
50.0
370
    -2
100
AcDbLine
 10
7783.600000000035
 20
5866.907777930212
 30
0.0
 11
8052.9384600463
 21
5866.907777930212
 31
0.0
  0
LINE
  5
210DF
330
20AD0
100
AcDbEntity
  8
寸法
 62
     0
 48
50.0
370
    -2
100
AcDbLine
 10
7992.938460046301
 20
5866.907777930212
 30
0.0
 11
7992.938460046301
 21
5671.907777930226
 31
0.0
  0
LINE
  5
210E0
330
20AD0
100
AcDbEntity
  8
寸法
 62
     0
 48
50.0
370
    -2
100
AcDbLine
 10
7992.938460046301
 20
5671.907777930226
 30
0.0
 11
7992.938460046301
 21
5294.517895522435
 31
0.0
  0
INSERT
  5
210E1
330
20AD0
100
AcDbEntity
  8
寸法
 62
     0
 48
50.0
370
    -2
100
AcDbBlockReference
  2
_DOTSMALL
 10
7992.938460046301
 20
5866.907777930212
 30
0.0
 41
100.0
 42
100.0
 43
100.0
 50
90.0
  0
INSERT
  5
210E2
330
20AD0
100
AcDbEntity
  8
寸法
 62
     0
 48
50.0
370
    -2
100
AcDbBlockReference
  2
_DOTSMALL
 10
7992.938460046301
 20
5671.907777930226
 30
0.0
 41
100.0
 42
100.0
 43
100.0
 50
270.0
  0
MTEXT
  5
210E3
330
20AD0
100
AcDbEntity
  8
寸法
 62
     7
 48
50.0
100
AcDbMText
 10
7892.938460046299
 20
5433.212836726331
 30
0.0
 40
120.0
 41
0.0
 71
     5
 72
     1
  1
\A1;195
  7
STYLE1
 11
0.0000000000000001
 21
1.0
 31
0.0
 73
     1
 44
1.0
1001
ACAD
1000
MTEXTBEGIN
1070
    73
1070
     1
1070
    44
1040
1.0
1070
    74
1070
     0
1000
MTEXTEND
  0
POINT
  5
210E4
330
20AD0
100
AcDbEntity
  8
DEFPOINTS
 62
     0
 48
50.0
100
AcDbPoint
 10
7763.600000000036
 20
5671.907777930226
 30
0.0
  0
POINT
  5
210E5
330
20AD0
100
AcDbEntity
  8
DEFPOINTS
 62
     0
 48
50.0
100
AcDbPoint
 10
7763.600000000036
 20
5866.907777930212
 30
0.0
  0
POINT
  5
210E6
330
20AD0
100
AcDbEntity
  8
DEFPOINTS
 62
     0
 48
50.0
100
AcDbPoint
 10
7992.938460046301
 20
5866.907777930212
 30
0.0
  0
ENDBLK
  5
20ADC
330
20AD0
100
AcDbEntity
  8
0
 48
50.0
100
AcDbBlockEnd
  0
BLOCK
  5
21707
330
216FD
100
AcDbEntity
  8
0
 48
50.0
100
AcDbBlockBegin
  2
*D42
 70
     1
 10
0.0
 20
0.0
 30
0.0
  3
*D42
  1

  0
LINE
  5
2174A
330
216FD
100
AcDbEntity
  8
寸法
 62
     0
 48
50.0
370
    -2
100
AcDbLine
 10
8243.59501187803
 20
2141.651134999944
 30
0.0
 11
8785.463611646873
 21
2141.651134999944
 31
0.0
  0
LINE
  5
2174B
330
216FD
100
AcDbEntity
  8
寸法
 62
     0
 48
50.0
370
    -2
100
AcDbLine
 10
8243.59501187803
 20
1817.651134999942
 30
0.0
 11
8785.463611646873
 21
1817.651134999942
 31
0.0
  0
LINE
  5
2174C
330
216FD
100
AcDbEntity
  8
寸法
 62
     0
 48
50.0
370
    -2
100
AcDbLine
 10
8725.463611646871
 20
2141.651134999944
 30
0.0
 11
8725.463611646871
 21
1817.651134999942
 31
0.0
  0
INSERT
  5
2174D
330
216FD
100
AcDbEntity
  8
寸法
 62
     0
 48
50.0
370
    -2
100
AcDbBlockReference
  2
_DOTSMALL
 10
8725.463611646871
 20
2141.651134999944
 30
0.0
 41
100.0
 42
100.0
 43
100.0
 50
90.0
  0
INSERT
  5
2174E
330
216FD
100
AcDbEntity
  8
寸法
 62
     0
 48
50.0
370
    -2
100
AcDbBlockReference
  2
_DOTSMALL
 10
8725.463611646871
 20
1817.651134999942
 30
0.0
 41
100.0
 42
100.0
 43
100.0
 50
270.0
  0
MTEXT
  5
2174F
330
216FD
100
AcDbEntity
  8
寸法
 62
     7
 48
50.0
100
AcDbMText
 10
8625.463611646871
 20
1979.651134999944
 30
0.0
 40
120.0
 41
0.0
 71
     5
 72
     1
  1
\A1;180
  7
STYLE1
 11
0.0000000000000001
 21
1.0
 31
0.0
 73
     1
 44
1.0
1001
ACAD
1000
MTEXTBEGIN
1070
    73
1070
     1
1070
    44
1040
1.0
1070
    74
1070
     0
1000
MTEXTEND
  0
POINT
  5
21750
330
216FD
100
AcDbEntity
  8
DEFPOINTS
 62
     0
 48
50.0
100
AcDbPoint
 10
8223.59501187803
 20
2141.651134999944
 30
0.0
  0
POINT
  5
21751
330
216FD
100
AcDbEntity
  8
DEFPOINTS
 62
     0
 48
50.0
100
AcDbPoint
 10
8223.59501187803
 20
1817.651134999942
 30
0.0
  0
POINT
  5
21752
330
216FD
100
AcDbEntity
  8
DEFPOINTS
 62
     0
 48
50.0
100
AcDbPoint
 10
8725.463611646871
 20
1817.651134999942
 30
0.0
  0
ENDBLK
  5
21708
330
216FD
100
AcDbEntity
  8
0
 48
50.0
100
AcDbBlockEnd
  0
BLOCK
  5
21718
330
21709
100
AcDbEntity
  8
0
 48
50.0
100
AcDbBlockBegin
  2
*D43
 70
     1
 10
0.0
 20
0.0
 30
0.0
  3
*D43
  1

  0
LINE
  5
21753
330
21709
100
AcDbEntity
  8
寸法
 62
     0
 48
50.0
370
    -2
100
AcDbLine
 10
8056.395011878031
 20
2194.411134999945
 30
0.0
 11
8785.463611646873
 21
2194.411134999945
 31
0.0
  0
LINE
  5
21754
330
21709
100
AcDbEntity
  8
寸法
 62
     0
 48
50.0
370
    -2
100
AcDbLine
 10
8243.59501187803
 20
2141.651134999944
 30
0.0
 11
8785.463611646873
 21
2141.651134999944
 31
0.0
  0
LINE
  5
21755
330
21709
100
AcDbEntity
  8
寸法
 62
     0
 48
50.0
370
    -2
100
AcDbLine
 10
8725.463611646871
 20
2194.411134999945
 30
0.0
 11
8725.463611646871
 21
2294.411134999945
 31
0.0
  0
LINE
  5
21756
330
21709
100
AcDbEntity
  8
寸法
 62
     0
 48
50.0
370
    -2
100
AcDbLine
 10
8725.463611646871
 20
2141.651134999944
 30
0.0
 11
8725.463611646871
 21
2041.651134999943
 31
0.0
  0
LINE
  5
21757
330
21709
100
AcDbEntity
  8
寸法
 62
     0
 48
50.0
370
    -2
100
AcDbLine
 10
8725.463611646871
 20
2168.031134999944
 30
0.0
 11
9001.518277765899
 21
2156.527177395731
 31
0.0
  0
LINE
  5
21758
330
21709
100
AcDbEntity
  8
寸法
 62
     0
 48
50.0
370
    -2
100
AcDbLine
 10
9001.518277765899
 20
2156.527177395731
 30
0.0
 11
9001.518277765899
 21
1624.509370552765
 31
0.0
  0
MTEXT
  5
21759
330
21709
100
AcDbEntity
  8
寸法
 62
     7
 48
50.0
100
AcDbMText
 10
8901.506466742278
 20
1890.518273974249
 30
0.0
 40
120.0
 41
0.0
 71
     5
 72
     1
  1
\A1;20～25
  7
STYLE1
 11
0.0000000000000001
 21
1.0
 31
0.0
 73
     1
 44
1.0
1001
ACAD
1000
MTEXTBEGIN
1070
    73
1070
     1
1070
    44
1040
1.0
1070
    74
1070
     0
1000
MTEXTEND
  0
LINE
  5
2175A
330
21709
100
AcDbEntity
  8
寸法
 62
     0
 48
50.0
370
    -2
100
AcDbLine
 10
8725.463611646871
 20
2194.411134999945
 30
0.0
 11
8725.463611646871
 21
2141.651134999944
 31
0.0
  0
LINE
  5
2175B
330
21709
100
AcDbEntity
  8
寸法
 62
     0
 48
50.0
370
    -2
100
AcDbLine
 10
8725.463611646871
 20
2194.411134999945
 30
0.0
 11
8725.463611646871
 21
2141.651134999944
 31
0.0
  0
INSERT
  5
2175C
330
21709
100
AcDbEntity
  8
寸法
 62
     0
 48
50.0
370
    -2
100
AcDbBlockReference
  2
_DOTSMALL
 10
8725.463611646871
 20
2194.411134999945
 30
0.0
 41
100.0
 42
100.0
 43
100.0
 50
270.0
  0
INSERT
  5
2175D
330
21709
100
AcDbEntity
  8
寸法
 62
     0
 48
50.0
370
    -2
100
AcDbBlockReference
  2
_DOTSMALL
 10
8725.463611646871
 20
2141.651134999944
 30
0.0
 41
100.0
 42
100.0
 43
100.0
 50
90.0
  0
POINT
  5
2175E
330
21709
100
AcDbEntity
  8
DEFPOINTS
 62
     0
 48
50.0
100
AcDbPoint
 10
8036.395011878031
 20
2194.411134999945
 30
0.0
  0
POINT
  5
2175F
330
21709
100
AcDbEntity
  8
DEFPOINTS
 62
     0
 48
50.0
100
AcDbPoint
 10
8223.59501187803
 20
2141.651134999944
 30
0.0
  0
POINT
  5
21760
330
21709
100
AcDbEntity
  8
DEFPOINTS
 62
     0
 48
50.0
100
AcDbPoint
 10
8725.463611646871
 20
2141.651134999944
 30
0.0
  0
ENDBLK
  5
21719
330
21709
100
AcDbEntity
  8
0
 48
50.0
100
AcDbBlockEnd
  0
BLOCK
  5
21724
330
2171A
100
AcDbEntity
  8
0
 48
50.0
100
AcDbBlockBegin
  2
*D44
 70
     1
 10
0.0
 20
0.0
 30
0.0
  3
*D44
  1

  0
LINE
  5
21761
330
2171A
100
AcDbEntity
  8
寸法
 62
     0
 48
50.0
370
    -2
100
AcDbLine
 10
5961.555698700834
 20
1597.651134999944
 30
0.0
 11
5779.135384968376
 21
1597.651134999944
 31
0.0
  0
LINE
  5
21762
330
2171A
100
AcDbEntity
  8
寸法
 62
     0
 48
50.0
370
    -2
100
AcDbLine
 10
5881.555698700839
 20
1357.651134999944
 30
0.0
 11
5779.135384968376
 21
1357.651134999944
 31
0.0
  0
LINE
  5
21763
330
2171A
100
AcDbEntity
  8
寸法
 62
     0
 48
50.0
370
    -2
100
AcDbLine
 10
5839.135384968376
 20
1597.651134999944
 30
0.0
 11
5839.135384968376
 21
1357.651134999944
 31
0.0
  0
MTEXT
  5
21764
330
2171A
100
AcDbEntity
  8
寸法
 62
     7
 48
50.0
100
AcDbMText
 10
5739.135384968375
 20
1477.651134999943
 30
0.0
 40
120.0
 41
0.0
 71
     5
 72
     1
  1
\A1;150
  7
STYLE1
 11
0.0000000000000001
 21
1.0
 31
0.0
 73
     1
 44
1.0
1001
ACAD
1000
MTEXTBEGIN
1070
    73
1070
     1
1070
    44
1040
1.0
1070
    74
1070
     0
1000
MTEXTEND
  0
INSERT
  5
21765
330
2171A
100
AcDbEntity
  8
寸法
 62
     0
 48
50.0
370
    -2
100
AcDbBlockReference
  2
_DOTSMALL
 10
5839.135384968376
 20
1597.651134999944
 30
0.0
 41
100.0
 42
100.0
 43
100.0
 50
90.0
  0
INSERT
  5
21766
330
2171A
100
AcDbEntity
  8
寸法
 62
     0
 48
50.0
370
    -2
100
AcDbBlockReference
  2
_DOTSMALL
 10
5839.135384968376
 20
1357.651134999944
 30
0.0
 41
100.0
 42
100.0
 43
100.0
 50
270.0
  0
POINT
  5
21767
330
2171A
100
AcDbEntity
  8
DEFPOINTS
 62
     0
 48
50.0
100
AcDbPoint
 10
5981.555698700835
 20
1597.651134999944
 30
0.0
  0
POINT
  5
21768
330
2171A
100
AcDbEntity
  8
DEFPOINTS
 62
     0
 48
50.0
100
AcDbPoint
 10
5901.555698700839
 20
1357.651134999944
 30
0.0
  0
POINT
  5
21769
330
2171A
100
AcDbEntity
  8
DEFPOINTS
 62
     0
 48
50.0
100
AcDbPoint
 10
5839.135384968376
 20
1357.651134999944
 30
0.0
  0
ENDBLK
  5
21725
330
2171A
100
AcDbEntity
  8
0
 48
50.0
100
AcDbBlockEnd
  0
BLOCK
  5
21730
330
21726
100
AcDbEntity
  8
0
 48
50.0
100
AcDbBlockBegin
  2
*D45
 70
     1
 10
0.0
 20
0.0
 30
0.0
  3
*D45
  1

  0
LINE
  5
2176A
330
21726
100
AcDbEntity
  8
寸法
 62
     0
 48
50.0
370
    -2
100
AcDbLine
 10
6089.555698700834
 20
2141.651134999944
 30
0.0
 11
5314.518460139095
 21
2141.651134999944
 31
0.0
  0
LINE
  5
2176B
330
21726
100
AcDbEntity
  8
寸法
 62
     0
 48
50.0
370
    -2
100
AcDbLine
 10
5881.555698700839
 20
1357.651134999944
 30
0.0
 11
5314.518460139094
 21
1357.651134999944
 31
0.0
  0
LINE
  5
2176C
330
21726
100
AcDbEntity
  8
寸法
 62
     0
 48
50.0
370
    -2
100
AcDbLine
 10
5374.518460139094
 20
2141.651134999944
 30
0.0
 11
5374.518460139094
 21
1357.651134999944
 31
0.0
  0
MTEXT
  5
2176D
330
21726
100
AcDbEntity
  8
寸法
 62
     7
 48
50.0
100
AcDbMText
 10
5274.518460139095
 20
1729.191284655944
 30
0.0
 40
120.0
 41
0.0
 71
     5
 72
     1
  1
\A1;540
  7
STYLE1
 11
0.0000000000000001
 21
1.0
 31
0.0
 73
     1
 44
1.0
1001
ACAD
1000
MTEXTBEGIN
1070
    73
1070
     1
1070
    44
1040
1.0
1070
    74
1070
     0
1000
MTEXTEND
  0
INSERT
  5
2176E
330
21726
100
AcDbEntity
  8
寸法
 62
     0
 48
50.0
370
    -2
100
AcDbBlockReference
  2
_DOTSMALL
 10
5374.518460139094
 20
2141.651134999944
 30
0.0
 41
100.0
 42
100.0
 43
100.0
 50
90.0
  0
INSERT
  5
2176F
330
21726
100
AcDbEntity
  8
寸法
 62
     0
 48
50.0
370
    -2
100
AcDbBlockReference
  2
_DOTSMALL
 10
5374.518460139094
 20
1357.651134999944
 30
0.0
 41
100.0
 42
100.0
 43
100.0
 50
270.0
  0
POINT
  5
21770
330
21726
100
AcDbEntity
  8
DEFPOINTS
 62
     0
 48
50.0
100
AcDbPoint
 10
6109.555698700835
 20
2141.651134999944
 30
0.0
  0
POINT
  5
21771
330
21726
100
AcDbEntity
  8
DEFPOINTS
 62
     0
 48
50.0
100
AcDbPoint
 10
5901.555698700839
 20
1357.651134999944
 30
0.0
  0
POINT
  5
21772
330
21726
100
AcDbEntity
  8
DEFPOINTS
 62
     0
 48
50.0
100
AcDbPoint
 10
5374.518460139094
 20
1357.651134999944
 30
0.0
  0
ENDBLK
  5
21731
330
21726
100
AcDbEntity
  8
0
 48
50.0
100
AcDbBlockEnd
  0
BLOCK
  5
2173C
330
21732
100
AcDbEntity
  8
0
 48
50.0
100
AcDbBlockBegin
  2
*D46
 70
     1
 10
0.0
 20
0.0
 30
0.0
  3
*D46
  1

  0
LINE
  5
21773
330
21732
100
AcDbEntity
  8
寸法
 62
     0
 48
50.0
370
    -2
100
AcDbLine
 10
5981.555698700835
 20
1209.651134999943
 30
0.0
 11
5981.555698700835
 21
759.2214969947836
 31
0.0
  0
LINE
  5
21774
330
21732
100
AcDbEntity
  8
寸法
 62
     0
 48
50.0
370
    -2
100
AcDbLine
 10
6429.555698700835
 20
1209.651134999943
 30
0.0
 11
6429.555698700835
 21
759.2214969947836
 31
0.0
  0
LINE
  5
21775
330
21732
100
AcDbEntity
  8
寸法
 62
     0
 48
50.0
370
    -2
100
AcDbLine
 10
5981.555698700835
 20
819.2214969947835
 30
0.0
 11
6429.555698700835
 21
819.2214969947835
 31
0.0
  0
MTEXT
  5
21776
330
21732
100
AcDbEntity
  8
寸法
 62
     7
 48
50.0
100
AcDbMText
 10
6185.458940022612
 20
919.2214969947835
 30
0.0
 40
120.0
 41
0.0
 71
     5
 72
     1
  1
\A1;300
  7
STYLE1
 73
     1
 44
1.0
1001
ACAD
1000
MTEXTBEGIN
1070
    73
1070
     1
1070
    44
1040
1.0
1070
    74
1070
     0
1000
MTEXTEND
  0
INSERT
  5
21777
330
21732
100
AcDbEntity
  8
寸法
 62
     0
 48
50.0
370
    -2
100
AcDbBlockReference
  2
_DOTSMALL
 10
5981.555698700835
 20
819.2214969947835
 30
0.0
 41
100.0
 42
100.0
 43
100.0
 50
180.0
  0
INSERT
  5
21778
330
21732
100
AcDbEntity
  8
寸法
 62
     0
 48
50.0
370
    -2
100
AcDbBlockReference
  2
_DOTSMALL
 10
6429.555698700835
 20
819.2214969947835
 30
0.0
 41
100.0
 42
100.0
 43
100.0
  0
POINT
  5
21779
330
21732
100
AcDbEntity
  8
DEFPOINTS
 62
     0
 48
50.0
100
AcDbPoint
 10
5981.555698700835
 20
1229.651134999943
 30
0.0
  0
POINT
  5
2177A
330
21732
100
AcDbEntity
  8
DEFPOINTS
 62
     0
 48
50.0
100
AcDbPoint
 10
6429.555698700835
 20
1229.651134999943
 30
0.0
  0
POINT
  5
2177B
330
21732
100
AcDbEntity
  8
DEFPOINTS
 62
     0
 48
50.0
100
AcDbPoint
 10
6429.555698700835
 20
819.2214969947835
 30
0.0
  0
ENDBLK
  5
2173D
330
21732
100
AcDbEntity
  8
0
 48
50.0
100
AcDbBlockEnd
  0
BLOCK
  5
21748
330
2173E
100
AcDbEntity
  8
0
 48
50.0
100
AcDbBlockBegin
  2
*D47
 70
     1
 10
0.0
 20
0.0
 30
0.0
  3
*D47
  1

  0
LINE
  5
2177C
330
2173E
100
AcDbEntity
  8
寸法
 62
     0
 48
50.0
370
    -2
100
AcDbLine
 10
6301.555698700835
 20
2161.651134999944
 30
0.0
 11
6301.555698700835
 21
2521.651134999944
 31
0.0
  0
LINE
  5
2177D
330
2173E
100
AcDbEntity
  8
寸法
 62
     0
 48
50.0
370
    -2
100
AcDbLine
 10
6109.555698700835
 20
2161.651134999944
 30
0.0
 11
6109.555698700835
 21
2521.651134999944
 31
0.0
  0
LINE
  5
2177E
330
2173E
100
AcDbEntity
  8
寸法
 62
     0
 48
50.0
370
    -2
100
AcDbLine
 10
6301.555698700835
 20
2461.651134999944
 30
0.0
 11
6109.555698700835
 21
2461.651134999944
 31
0.0
  0
MTEXT
  5
2177F
330
2173E
100
AcDbEntity
  8
寸法
 62
     7
 48
50.0
100
AcDbMText
 10
6216.782029046033
 20
2761.330753939946
 30
0.0
 40
120.0
 41
0.0
 71
     5
 72
     1
  1
\A1;120\P195
  7
STYLE1
 73
     1
 44
1.0
1001
ACAD
1000
MTEXTBEGIN
1070
    73
1070
     1
1070
    44
1040
1.0
1070
    74
1070
     0
1000
MTEXTEND
  0
INSERT
  5
21780
330
2173E
100
AcDbEntity
  8
寸法
 62
     0
 48
50.0
370
    -2
100
AcDbBlockReference
  2
_DOTSMALL
 10
6301.555698700835
 20
2461.651134999944
 30
0.0
 41
100.0
 42
100.0
 43
100.0
  0
INSERT
  5
21781
330
2173E
100
AcDbEntity
  8
寸法
 62
     0
 48
50.0
370
    -2
100
AcDbBlockReference
  2
_DOTSMALL
 10
6109.555698700835
 20
2461.651134999944
 30
0.0
 41
100.0
 42
100.0
 43
100.0
 50
180.0
  0
POINT
  5
21782
330
2173E
100
AcDbEntity
  8
DEFPOINTS
 62
     0
 48
50.0
100
AcDbPoint
 10
6301.555698700835
 20
2141.651134999944
 30
0.0
  0
POINT
  5
21783
330
2173E
100
AcDbEntity
  8
DEFPOINTS
 62
     0
 48
50.0
100
AcDbPoint
 10
6109.555698700835
 20
2141.651134999944
 30
0.0
  0
POINT
  5
21784
330
2173E
100
AcDbEntity
  8
DEFPOINTS
 62
     0
 48
50.0
100
AcDbPoint
 10
6109.555698700835
 20
2461.651134999944
 30
0.0
  0
ENDBLK
  5
21749
330
2173E
100
AcDbEntity
  8
0
 48
50.0
100
AcDbBlockEnd
  0
ENDSEC
  0
SECTION
  2
ENTITIES
  0
MTEXT
  5
763F
330
747D
100
AcDbEntity
  8
0
100
AcDbMText
 10
302.846345836809
 20
280.1983726409901
 30
0.0
 40
3.5
 41
5.323721266742722
 71
     1
 72
     5
  1

  7
MSMINCHO
 73
     1
 44
1.0
1001
ACAD
1000
MTEXTBEGIN
1070
    73
1070
     1
1070
    44
1040
1.0
1070
    74
1070
     0
1000
MTEXTEND
  0
LINE
  5
10B57
330
747D
100
AcDbEntity
  8
補助
  6
PHANTOM
 62
   230
 48
50.0
100
AcDbLine
 10
139.9999999999995
 20
11409.6
 30
0.0
 11
16307.2
 21
11409.6
 31
0.0
  0
LINE
  5
10B59
330
747D
100
AcDbEntity
  8
仕様書枠
  6
Continuous
 48
50.0
100
AcDbLine
 10
13107.2
 20
1200.0
 30
0.0
 11
13107.2
 21
-0.0000000000000729
 31
0.0
  0
LINE
  5
10B5D
330
747D
100
AcDbEntity
  8
仕様書枠
 48
50.0
100
AcDbLine
 10
140.0
 20
0.0
 30
0.0
 11
16307.2
 21
-0.0000000000000909
 31
0.0
  0
LINE
  5
10B5E
330
747D
100
AcDbEntity
  8
補助
  6
PHANTOM
 62
   230
 48
50.0
100
AcDbLine
 10
16307.2
 20
11409.6
 30
0.0
 11
16307.2
 21
1200.0
 31
0.0
  0
LINE
  5
10B6C
330
747D
100
AcDbEntity
  8
仕様書枠
 48
50.0
100
AcDbLine
 10
13107.2
 20
1200.0
 30
0.0
 11
16307.2
 21
1200.0
 31
0.0
  0
TEXT
  5
10B73
330
747D
100
AcDbEntity
  8
文字
 62
     7
 48
50.0
100
AcDbText
 10
13162.9790565769
 20
895.0906074299405
 30
0.0
 40
200.0
  1
基 礎 図
  7
STYLE2
100
AcDbText
  0
LINE
  5
10B7B
330
747D
100
AcDbEntity
  8
仕様書枠
 48
50.0
100
AcDbLine
 10
13107.2
 20
800.0
 30
0.0
 11
14251.2
 21
800.0
 31
0.0
  0
LINE
  5
10B88
330
747D
100
AcDbEntity
  8
仕様書枠
  6
Continuous
 48
50.0
100
AcDbLine
 10
14251.2
 20
1200.0
 30
0.0
 11
14251.2
 21
800.0
 31
0.0
  0
LINE
  5
16462
330
747D
100
AcDbEntity
  8
仕様書枠
 48
50.0
100
AcDbLine
 10
16307.2
 20
1200.0
 30
0.0
 11
16307.2
 21
-0.0000000000000909
 31
0.0
  0
LINE
  5
1903B
330
747D
100
AcDbEntity
  8
補助
  6
PHANTOM
 62
   230
 48
50.0
100
AcDbLine
 10
140.0
 20
0.0
 30
0.0
 11
139.9999999999995
 21
11409.6
 31
0.0
  0
TEXT
  5
1C7A1
330
747D
100
AcDbEntity
  8
文字
 62
     7
 48
50.0
100
AcDbText
 10
13188.16259899338
 20
79.80631269190417
 30
0.0
 40
80.0
  1
※布基礎には換気口を設けてください。
  7
STYLE2
100
AcDbText
  0
TEXT
  5
1C7E7
330
747D
100
AcDbEntity
  8
文字
 62
     7
 48
50.0
100
AcDbText
 10
13188.16259899338
 20
246.7109242801889
 30
0.0
 40
80.0
  1
※寒冷地等は地域の実情に合わせた基礎にして下さい。
  7
STYLE2
100
AcDbText
  0
TEXT
  5
1C7E8
330
747D
100
AcDbEntity
  8
文字
 62
     7
 48
50.0
100
AcDbText
 10
14478.98566430227
 20
499.5983841039506
 30
0.0
 40
160.0
  1
ＮＸＮ－３０ＣＳＡ
  7
STYLE2
100
AcDbText
  0
TEXT
  5
1C7E9
330
747D
100
AcDbEntity
  8
文字
 62
     7
 48
50.0
100
AcDbText
 10
14641.2525855784
 20
871.1744590657927
 30
0.0
 40
100.0
  1
～一般型・多雪地型～
  7
STYLE2
100
AcDbText
  0
TEXT
  5
1C7EC
330
747D
100
AcDbEntity
  8
文字
 62
     7
 48
50.0
100
AcDbText
 10
14524.131837222
 20
1031.557706291229
 30
0.0
 40
100.0
  1
      <縮尺> S=1/40
  7
STYLE2
100
AcDbText
  0
TEXT
  5
1C7ED
330
747D
100
AcDbEntity
  8
文字
 62
     7
 48
50.0
100
AcDbText
 10
13201.43669998441
 20
477.2740661031257
 30
0.0
 40
160.0
  1
機種名
  7
STYLE2
100
AcDbText
  0
LINE
  5
1C7EF
330
747D
100
AcDbEntity
  8
文字
 62
     7
 48
50.0
100
AcDbLine
 10
13187.2
 20
400.0
 30
0.0
 11
16227.2
 21
400.0
 31
0.0
  0
DIMENSION
  5
1DCFE
330
747D
100
AcDbEntity
  8
寸法
 48
50.0
100
AcDbDimension
  2
*D19
 10
8913.600000000009
 20
7566.106208443713
 30
0.0
 11
9191.683543272892
 21
7566.106208443713
 31
0.0
 70
   160
 71
     5
 42
120.0000000000109
  3
INABA_S40G
100
AcDbAlignedDimension
 13
8793.599999999999
 23
7736.90777793021
 33
0.0
 14
8913.600000000009
 24
7711.907777930206
 34
0.0
 50
180.0
100
AcDbRotatedDimension
1001
ACAD
1000
DSTYLE
1002
{
1070
   341
1005
0
1002
}
  0
DIMENSION
  5
1DD07
330
747D
100
AcDbEntity
  8
寸法
 48
50.0
100
AcDbDimension
  2
*D20
 10
8683.600000000009
 20
7566.106208443713
 30
0.0
 11
8447.552755905519
 21
7566.106208443713
 31
0.0
 70
   160
 71
     5
 42
109.9999999999927
  3
INABA_S40G
100
AcDbAlignedDimension
 13
8793.600000000001
 23
7736.90777793021
 33
0.0
 14
8683.600000000009
 24
7736.907777930207
 34
0.0
 50
180.0
100
AcDbRotatedDimension
1001
ACAD
1000
DSTYLE
1002
{
1070
   341
1005
0
1002
}
  0
LINE
  5
1DD3B
102
{ACAD_REACTORS
330
210B4
102
}
330
747D
100
AcDbEntity
  8
部品1
 48
50.0
100
AcDbLine
 10
8323.600000000025
 20
5671.907777930219
 30
0.0
 11
8323.600000000025
 21
5866.90777793022
 31
0.0
  0
LINE
  5
1DD44
102
{ACAD_REACTORS
330
210B4
102
}
330
747D
100
AcDbEntity
  8
部品1
 48
50.0
100
AcDbLine
 10
8123.600000000028
 20
5671.907777930217
 30
0.0
 11
8123.600000000028
 21
5866.907777930216
 31
0.0
  0
DIMENSION
  5
1E90B
330
747D
100
AcDbEntity
  8
寸法
 48
50.0
100
AcDbDimension
  2
*D21
 10
7239.276532889156
 20
5746.907777930211
 30
0.0
 11
7239.276532889154
 21
5138.422496555973
 31
0.0
 70
   160
  1
扉の出<>
 71
     5
 42
75.0
  3
INABA_S40G
100
AcDbAlignedDimension
 13
7533.599999999999
 23
5671.90777793021
 33
0.0
 14
7533.600000000035
 24
5746.907777930211
 34
0.0
 50
90.0
100
AcDbRotatedDimension
1001
ACAD
1000
DSTYLE
1002
{
1070
   341
1005
0
1002
}
  0
LINE
  5
1EC47
102
{ACAD_REACTORS
330
210B4
102
}
330
747D
100
AcDbEntity
  8
部品1
 48
50.0
100
AcDbLine
 10
8913.600000000018
 20
5671.907777930226
 30
0.0
 11
7533.600000000035
 21
5671.90777793021
 31
0.0
  0
LEADER
  5
1EDB1
330
747D
100
AcDbEntity
  8
寸法
 48
50.0
100
AcDbLeader
  3
INABA_S50G
 73
     0
 74
     0
 75
     1
 40
120.0
 41
994.3492424049171
 76
     3
 10
8790.680085757008
 20
7843.921501126415
 30
0.0
 10
8964.645988304974
 20
8132.880272274157
 30
0.0
 10
9089.645988304974
 20
8132.880272274157
 30
0.0
340
1EDB2
1001
ACAD
1000
DSTYLE
1002
{
1070
   341
1005
0
1070
    40
1040
1.0
1070
   343
1005
0
1070
   344
1005
0
1002
}
  0
MTEXT
  5
1EDB2
102
{ACAD_REACTORS
330
1EDB1
102
}
330
747D
100
AcDbEntity
  8
部品1
 62
     7
 48
50.0
100
AcDbMText
 10
10108.99523070989
 20
8217.880272274156
 30
0.0
 40
120.0
 41
0.0
 71
     6
 72
     1
  1
アンカーボルト
  7
STYLE1
 73
     1
 44
1.0
1001
ACAD
1000
MTEXTBEGIN
1070
    73
1070
     1
1070
    44
1040
1.0
1070
    74
1070
     0
1000
MTEXTEND
  0
LEADER
  5
1EDEF
330
747D
100
AcDbEntity
  8
寸法
 48
50.0
100
AcDbLeader
  3
INABA_S50G
 73
     0
 74
     0
 75
     1
 40
120.0
 41
672.0
 76
     3
 10
8958.69831350344
 20
5980.332001126508
 30
0.0
 10
9074.638325695481
 20
5721.442657662932
 30
0.0
 10
9199.638325695481
 20
5721.442657662932
 30
0.0
340
1EDF0
1001
ACAD
1000
DSTYLE
1002
{
1070
   341
1005
0
1070
    40
1040
1.0
1070
   343
1005
0
1070
   344
1005
0
1002
}
  0
MTEXT
  5
1EDF0
102
{ACAD_REACTORS
330
1EDEF
102
}
330
747D
100
AcDbEntity
  8
部品1
 62
     7
 48
50.0
100
AcDbMText
 10
9896.638325695482
 20
5806.442657662932
 30
0.0
 40
120.0
 41
0.0
 71
     6
 72
     1
  1
\A1;屋根の外寸
  7
STYLE1
 73
     1
 44
1.0
1001
ACAD
1000
MTEXTBEGIN
1070
    73
1070
     1
1070
    44
1040
1.0
1070
    74
1070
     0
1000
MTEXTEND
  0
TEXT
  5
1EDF1
330
747D
100
AcDbEntity
  8
部品1
 48
50.0
100
AcDbText
 10
9098.851129706874
 20
5627.131970729857
 30
0.0
 40
80.0
  1
※a,b,cは屋根の出幅です。
  7
STYLE1
100
AcDbText
  0
TEXT
  5
1EDF2
330
747D
100
AcDbEntity
  8
部品1
 48
50.0
100
AcDbText
 10
9257.430138461177
 20
5520.286749861102
 30
0.0
 40
80.0
  1
(a=45,b=55,c=75)
  7
STYLE1
100
AcDbText
  0
MTEXT
  5
1EDF3
102
{ACAD_REACTORS
330
1EDF4
102
}
330
747D
100
AcDbEntity
  8
部品1
 62
     7
 48
50.0
100
AcDbMText
 10
9940.469074001279
 20
6679.15141115105
 30
0.0
 40
120.0
 41
0.0
 71
     6
 72
     1
  1
\A1;床下換気口
  7
STYLE1
 73
     1
 44
1.0
1001
ACAD
1000
MTEXTBEGIN
1070
    73
1070
     1
1070
    44
1040
1.0
1070
    74
1070
     0
1000
MTEXTEND
  0
LEADER
  5
1EDF4
330
747D
100
AcDbEntity
  8
寸法
 48
50.0
100
AcDbLeader
  3
INABA_S50G
 73
     0
 74
     0
 75
     1
 40
120.0
 41
720.0000000000001
 76
     3
 10
8913.695499614997
 20
6855.165324718881
 30
0.0
 10
9070.469074001278
 20
6594.151411151049
 30
0.0
 10
9195.469074001278
 20
6594.151411151049
 30
0.0
340
1EDF3
1001
ACAD
1000
DSTYLE
1002
{
1070
   341
1005
0
1070
    40
1040
1.0
1070
   343
1005
0
1070
   344
1005
0
1002
}
  0
DIMENSION
  5
1EE04
330
747D
100
AcDbEntity
  8
寸法
 48
50.0
100
AcDbDimension
  2
*D23
 10
6492.164931848212
 20
5671.907777930207
 30
0.0
 11
6392.164931848212
 21
5709.407777930209
 31
0.0
 70
    32
  1
c
 71
     5
 42
75.00000000000182
  3
INABA_S40G
100
AcDbAlignedDimension
 13
6704.625627365048
 23
5746.907777930209
 33
0.0
 14
6737.657733986178
 24
5671.907777930207
 34
0.0
 50
90.0
100
AcDbRotatedDimension
1001
ACAD
1000
DSTYLE
1002
{
1070
   341
1005
0
1002
}
  0
DIMENSION
  5
1EE10
330
747D
100
AcDbEntity
  8
寸法
 48
50.0
100
AcDbDimension
  2
*D22
 10
6492.164931848211
 20
7966.907777930209
 30
0.0
 11
6392.16493184821
 21
7994.407777930205
 31
0.0
 70
    32
  1
b
 71
     5
 42
54.99999999998817
  3
INABA_S40G
100
AcDbAlignedDimension
 13
6737.657733986179
 23
8021.907777930197
 33
0.0
 14
6704.625627365048
 24
7966.907777930209
 34
0.0
 50
90.0
100
AcDbRotatedDimension
1001
ACAD
1000
DSTYLE
1002
{
1070
   341
1005
0
1002
}
  0
DIMENSION
  5
1F75A
330
747D
100
AcDbEntity
  8
寸法
 48
50.0
100
AcDbDimension
  2
*D24
 10
8913.6
 20
8545.196807820888
 30
0.0
 11
8568.600000000001
 21
8645.196807820887
 31
0.0
 70
    32
 71
     5
 42
690.0
  3
INABA_S40G
100
AcDbAlignedDimension
 13
8223.600000000001
 23
7302.907777930208
 33
0.0
 14
8913.6
 24
7966.907777930209
 34
0.0
100
AcDbRotatedDimension
1001
ACAD
1000
DSTYLE
1002
{
1070
   174
1070
     0
1070
   272
1070
     1
1070
   279
1070
     1
1070
   288
1070
     0
1070
   341
1005
0
1002
}
  0
DIMENSION
  5
1F75B
330
747D
100
AcDbEntity
  8
寸法
 48
50.0
100
AcDbDimension
  2
*D25
 10
8223.600000000001
 20
8545.196807820888
 30
0.0
 11
7878.6
 21
8645.196807820887
 31
0.0
 70
    32
 71
     5
 42
690.0
  3
INABA_S40G
100
AcDbAlignedDimension
 13
7533.599999999999
 23
7966.907777930209
 33
0.0
 14
8223.600000000001
 24
7302.907777930208
 34
0.0
100
AcDbRotatedDimension
1001
ACAD
1000
DSTYLE
1002
{
1070
   174
1070
     0
1070
   272
1070
     1
1070
   279
1070
     1
1070
   288
1070
     0
1070
   341
1005
0
1002
}
  0
LINE
  5
1F75D
330
747D
100
AcDbEntity
  8
部品1
 48
50.0
100
AcDbLine
 10
8323.6
 20
6410.907777930205
 30
0.0
 11
8323.6
 21
6610.907777930208
 31
0.0
  0
LINE
  5
1F75E
330
747D
100
AcDbEntity
  8
センター
 48
2.0
100
AcDbLine
 10
8173.6
 20
6510.907777930208
 30
0.0
 11
8273.6
 21
6510.907777930208
 31
0.0
  0
LINE
  5
1F75F
330
747D
100
AcDbEntity
  8
センター
 48
2.0
100
AcDbLine
 10
8223.600000000001
 20
6560.907777930208
 30
0.0
 11
8223.600000000001
 21
6460.907777930208
 31
0.0
  0
LINE
  5
1F760
330
747D
100
AcDbEntity
  8
部品1
 48
50.0
100
AcDbLine
 10
8123.600000000001
 20
6410.907777930209
 30
0.0
 11
8123.600000000001
 21
6610.907777930208
 31
0.0
  0
LINE
  5
1F761
330
747D
100
AcDbEntity
  8
部品1
 48
50.0
100
AcDbLine
 10
8323.6
 20
6610.907777930208
 30
0.0
 11
8123.600000000001
 21
6610.907777930208
 31
0.0
  0
LINE
  5
1F762
330
747D
100
AcDbEntity
  8
部品1
 48
50.0
100
AcDbLine
 10
8323.6
 20
6410.907777930205
 30
0.0
 11
8123.600000000001
 21
6410.907777930205
 31
0.0
  0
LINE
  5
1F771
330
747D
100
AcDbEntity
  8
部品1
 48
50.0
100
AcDbLine
 10
8323.6
 20
7102.907777930205
 30
0.0
 11
8123.600000000001
 21
7102.907777930205
 31
0.0
  0
LINE
  5
1F772
330
747D
100
AcDbEntity
  8
部品1
 48
50.0
100
AcDbLine
 10
8323.6
 20
7302.907777930208
 30
0.0
 11
8123.600000000001
 21
7302.907777930208
 31
0.0
  0
LINE
  5
1F773
330
747D
100
AcDbEntity
  8
部品1
 48
50.0
100
AcDbLine
 10
8123.600000000001
 20
7102.907777930209
 30
0.0
 11
8123.600000000001
 21
7302.907777930208
 31
0.0
  0
LINE
  5
1F774
330
747D
100
AcDbEntity
  8
センター
 48
2.0
100
AcDbLine
 10
8223.600000000001
 20
7252.907777930208
 30
0.0
 11
8223.600000000001
 21
7152.907777930209
 31
0.0
  0
LINE
  5
1F775
330
747D
100
AcDbEntity
  8
センター
 48
2.0
100
AcDbLine
 10
8173.6
 20
7202.907777930208
 30
0.0
 11
8273.6
 21
7202.907777930208
 31
0.0
  0
LINE
  5
1F776
330
747D
100
AcDbEntity
  8
部品1
 48
50.0
100
AcDbLine
 10
8323.6
 20
7102.907777930205
 30
0.0
 11
8323.6
 21
7302.907777930208
 31
0.0
  0
LINE
  5
1F779
330
747D
100
AcDbEntity
  8
センター
 48
2.0
100
AcDbLine
 10
8790.600000000001
 20
7893.907777930208
 30
0.0
 11
8790.600000000001
 21
7793.907777930208
 31
0.0
  0
LINE
  5
1F77B
102
{ACAD_REACTORS
330
210C8
102
}
330
747D
100
AcDbEntity
  8
部品1
 48
50.0
100
AcDbLine
 10
8913.6
 20
6756.907777930208
 30
0.0
 11
8793.599999999999
 21
6756.907777930209
 31
0.0
  0
LINE
  5
1F77C
102
{ACAD_REACTORS
330
210C8
102
}
330
747D
100
AcDbEntity
  8
部品1
 48
50.0
100
AcDbLine
 10
8913.6
 20
6956.907777930208
 30
0.0
 11
8793.599999999999
 21
6956.907777930208
 31
0.0
  0
LINE
  5
1F77D
330
747D
100
AcDbEntity
  8
部品1
 48
50.0
100
AcDbLine
 10
8683.6
 20
7736.907777930206
 30
0.0
 11
8683.6
 21
7846.907777930207
 31
0.0
  0
LINE
  5
1F77E
330
747D
100
AcDbEntity
  8
部品1
 48
50.0
100
AcDbLine
 10
8793.600000000001
 20
7736.90777793021
 30
0.0
 11
8683.6
 21
7736.907777930206
 31
0.0
  0
CIRCLE
  5
1F77F
330
747D
100
AcDbEntity
  8
部品1
 48
50.0
100
AcDbCircle
 10
8790.600000000001
 20
7843.907777930208
 30
0.0
 40
35.0
  0
LINE
  5
1F780
330
747D
100
AcDbEntity
  8
センター
 48
2.0
100
AcDbLine
 10
8740.6
 20
7843.907777930208
 30
0.0
 11
8840.6
 21
7843.907777930208
 31
0.0
  0
LINE
  5
1F783
102
{ACAD_REACTORS
330
21098
102
}
330
747D
100
AcDbEntity
  8
部品1
 48
50.0
100
AcDbLine
 10
8123.600000000001
 20
7846.907777930208
 30
0.0
 11
8123.600000000001
 21
7966.907777930209
 31
0.0
  0
LINE
  5
1F784
102
{ACAD_REACTORS
330
21098
102
}
330
747D
100
AcDbEntity
  8
部品1
 48
50.0
100
AcDbLine
 10
8323.6
 20
7846.907777930207
 30
0.0
 11
8323.6
 21
7966.907777930209
 31
0.0
  0
LINE
  5
1F785
330
747D
100
AcDbEntity
  8
センター
 48
2.0
100
AcDbLine
 10
8790.600000000008
 20
5919.90777793021
 30
0.0
 11
8790.600000000008
 21
5819.90777793021
 31
0.0
  0
LINE
  5
1F786
330
747D
100
AcDbEntity
  8
部品1
 48
50.0
100
AcDbLine
 10
8683.6
 20
5866.907777930224
 30
0.0
 11
8683.6
 21
5976.907777930226
 31
0.0
  0
LINE
  5
1F787
330
747D
100
AcDbEntity
  8
部品1
 48
50.0
100
AcDbLine
 10
8793.599999999999
 20
5976.907777930225
 30
0.0
 11
8683.6
 21
5976.907777930226
 31
0.0
  0
CIRCLE
  5
1F788
330
747D
100
AcDbEntity
  8
部品1
 48
50.0
100
AcDbCircle
 10
8790.600000000008
 20
5869.90777793021
 30
0.0
 40
35.0
  0
LINE
  5
1F789
330
747D
100
AcDbEntity
  8
センター
 48
2.0
100
AcDbLine
 10
8740.600000000007
 20
5869.90777793021
 30
0.0
 11
8840.600000000007
 21
5869.90777793021
 31
0.0
  0
LINE
  5
1F78E
330
747D
100
AcDbEntity
  8
想像線
 48
10.0
100
AcDbLine
 10
8958.600000000002
 20
8021.907777930213
 30
0.0
 11
8958.600000000005
 21
5671.907777930225
 31
0.0
  0
LINE
  5
1F78F
102
{ACAD_REACTORS
330
210C8
102
}
330
747D
100
AcDbEntity
  8
部品1
 48
50.0
100
AcDbLine
 10
8913.6
 20
5671.907777930226
 30
0.0
 11
8913.6
 21
7966.907777930209
 31
0.0
  0
DIMENSION
  5
1F799
330
747D
100
AcDbEntity
  8
寸法
 48
50.0
100
AcDbDimension
  2
*D26
 10
8790.600000000001
 20
8771.968388320138
 30
0.0
 11
9152.085281374239
 21
8771.968388320138
 31
0.0
 70
   160
 71
     5
 42
123.0
  3
INABA_S40G
100
AcDbAlignedDimension
 13
8913.6
 23
7966.907777930209
 33
0.0
 14
8790.600000000001
 24
7893.907777930208
 34
0.0
100
AcDbRotatedDimension
1001
ACAD
1000
DSTYLE
1002
{
1070
   174
1070
     0
1070
   272
1070
     1
1070
   288
1070
     0
1070
   341
1005
0
1002
}
  0
LINE
  5
1F79A
330
747D
100
AcDbEntity
  8
部品1
 48
50.0
100
AcDbLine
 10
7763.600000000001
 20
7736.907777930205
 30
0.0
 11
7763.600000000001
 21
7846.907777930208
 31
0.0
  0
LINE
  5
1F79B
330
747D
100
AcDbEntity
  8
部品1
 48
50.0
100
AcDbLine
 10
7763.600000000001
 20
7736.907777930205
 30
0.0
 11
7653.6
 21
7736.907777930207
 31
0.0
  0
CIRCLE
  5
1F79C
330
747D
100
AcDbEntity
  8
部品1
 48
50.0
100
AcDbCircle
 10
7656.6
 20
7843.907777930208
 30
0.0
 40
35.0
  0
LINE
  5
1F79D
330
747D
100
AcDbEntity
  8
センター
 48
2.0
100
AcDbLine
 10
7606.6
 20
7843.907777930208
 30
0.0
 11
7706.6
 21
7843.907777930208
 31
0.0
  0
LINE
  5
1F79E
330
747D
100
AcDbEntity
  8
センター
 48
2.0
100
AcDbLine
 10
7656.6
 20
7893.907777930208
 30
0.0
 11
7656.6
 21
7793.907777930208
 31
0.0
  0
LINE
  5
1F7A0
102
{ACAD_REACTORS
330
210A5
102
}
330
747D
100
AcDbEntity
  8
部品1
 48
50.0
100
AcDbLine
 10
7653.600000000001
 20
6756.907777930209
 30
0.0
 11
7533.599999999999
 21
6756.907777930208
 31
0.0
  0
LINE
  5
1F7A1
102
{ACAD_REACTORS
330
210A5
102
}
330
747D
100
AcDbEntity
  8
部品1
 48
50.0
100
AcDbLine
 10
7653.600000000001
 20
6956.907777930209
 30
0.0
 11
7533.599999999999
 21
6956.907777930208
 31
0.0
  0
DIMENSION
  5
1F7A3
330
747D
100
AcDbEntity
  8
寸法
 48
50.0
100
AcDbDimension
  2
*D27
 10
6737.657733986178
 20
7843.907777930208
 30
0.0
 11
6737.657733986178
 21
8205.393059304448
 31
0.0
 70
   160
 71
     5
 42
123.0
  3
INABA_S40G
100
AcDbAlignedDimension
 13
7533.599999999999
 23
7966.907777930209
 33
0.0
 14
7606.6
 24
7843.907777930208
 34
0.0
 50
90.0
100
AcDbRotatedDimension
1001
ACAD
1000
DSTYLE
1002
{
1070
   174
1070
     0
1070
   272
1070
     1
1070
   288
1070
     0
1070
   341
1005
0
1002
}
  0
LINE
  5
1F7A4
330
747D
100
AcDbEntity
  8
部品1
 48
50.0
100
AcDbLine
 10
7763.600000000001
 20
5866.907777930212
 30
0.0
 11
7763.600000000001
 21
5976.907777930211
 31
0.0
  0
LINE
  5
1F7A5
330
747D
100
AcDbEntity
  8
部品1
 48
50.0
100
AcDbLine
 10
7763.600000000001
 20
5976.907777930211
 30
0.0
 11
7653.6
 21
5976.90777793021
 31
0.0
  0
CIRCLE
  5
1F7A6
330
747D
100
AcDbEntity
  8
部品1
 48
50.0
100
AcDbCircle
 10
7656.600000000008
 20
5869.90777793021
 30
0.0
 40
35.0
  0
LINE
  5
1F7A7
330
747D
100
AcDbEntity
  8
センター
 48
2.0
100
AcDbLine
 10
7606.600000000007
 20
5869.90777793021
 30
0.0
 11
7706.600000000007
 21
5869.90777793021
 31
0.0
  0
LINE
  5
1F7A8
330
747D
100
AcDbEntity
  8
センター
 48
2.0
100
AcDbLine
 10
7656.600000000008
 20
5919.90777793021
 30
0.0
 11
7656.600000000008
 21
5819.90777793021
 31
0.0
  0
DIMENSION
  5
1F7AA
330
747D
100
AcDbEntity
  8
寸法
 48
50.0
100
AcDbDimension
  2
*D28
 10
6737.657733986178
 20
5746.907777930208
 30
0.0
 11
6737.657733986178
 21
5508.42249655597
 31
0.0
 70
   160
 71
     5
 42
123.0000000000018
  3
INABA_S40G
100
AcDbAlignedDimension
 13
7606.600000000007
 23
5869.90777793021
 33
0.0
 14
7533.599999999999
 24
5746.907777930208
 34
0.0
 50
90.0
100
AcDbRotatedDimension
1001
ACAD
1000
DSTYLE
1002
{
1070
   174
1070
     0
1070
   272
1070
     1
1070
   288
1070
     0
1070
   341
1005
0
1002
}
  0
LINE
  5
1F7AC
102
{ACAD_REACTORS
330
210A5
102
}
330
747D
100
AcDbEntity
  8
部品1
 48
50.0
100
AcDbLine
 10
7533.599999999999
 20
5671.907777930225
 30
0.0
 11
7533.599999999999
 21
7966.907777930209
 31
0.0
  0
DIMENSION
  5
1F7AD
330
747D
100
AcDbEntity
  8
寸法
 48
50.0
100
AcDbDimension
  2
*D29
 10
6492.164931848212
 20
5746.907777930208
 30
0.0
 11
6492.164931848211
 21
6911.474447586923
 31
0.0
 70
   160
 71
     5
 42
2220.0
  3
INABA_S40G
100
AcDbAlignedDimension
 13
7533.599999999999
 23
7966.907777930209
 33
0.0
 14
7533.599999999999
 24
5746.907777930208
 34
0.0
 50
90.0
100
AcDbRotatedDimension
1001
ACAD
1000
DSTYLE
1002
{
1070
   174
1070
     0
1070
   272
1070
     1
1070
   288
1070
     0
1070
   341
1005
0
1002
}
  0
DIMENSION
  5
1F7AF
330
747D
100
AcDbEntity
  8
寸法
 48
50.0
100
AcDbDimension
  2
*D30
 10
6737.657733986178
 20
5869.90777793021
 30
0.0
 11
6737.657733986178
 21
6911.474447586923
 31
0.0
 70
   160
 71
     5
 42
1973.999999999998
  3
INABA_S40G
100
AcDbAlignedDimension
 13
7606.6
 23
7843.907777930208
 33
0.0
 14
7606.600000000007
 24
5869.90777793021
 34
0.0
 50
90.0
100
AcDbRotatedDimension
1001
ACAD
1000
DSTYLE
1002
{
1070
   174
1070
     0
1070
   272
1070
     1
1070
   288
1070
     0
1070
   341
1005
0
1002
}
  0
DIMENSION
  5
1F7B1
330
747D
100
AcDbEntity
  8
寸法
 48
50.0
100
AcDbDimension
  2
*D31
 10
7533.599999999999
 20
8771.968388320138
 30
0.0
 11
7295.114718625763
 21
8771.968388320138
 31
0.0
 70
   160
 71
     5
 42
123.0
  3
INABA_S40G
100
AcDbAlignedDimension
 13
7656.6
 23
7893.907777930208
 33
0.0
 14
7533.599999999999
 24
7966.907777930209
 34
0.0
100
AcDbRotatedDimension
1001
ACAD
1000
DSTYLE
1002
{
1070
   174
1070
     0
1070
   272
1070
     1
1070
   288
1070
     0
1070
   341
1005
0
1002
}
  0
LINE
  5
1F7B4
102
{ACAD_REACTORS
330
21098
102
}
330
747D
100
AcDbEntity
  8
部品1
 48
50.0
100
AcDbLine
 10
8913.6
 20
7966.907777930209
 30
0.0
 11
7533.599999999999
 21
7966.907777930209
 31
0.0
  0
DIMENSION
  5
1F7B6
330
747D
100
AcDbEntity
  8
寸法
 48
50.0
100
AcDbDimension
  2
*D32
 10
8913.6
 20
8984.429083836975
 30
0.0
 11
8223.600000000001
 21
9084.429083836974
 31
0.0
 70
    32
 71
     5
 42
1380.0
  3
INABA_S40G
100
AcDbAlignedDimension
 13
7533.599999999999
 23
7966.907777930209
 33
0.0
 14
8913.6
 24
7966.907777930209
 34
0.0
100
AcDbRotatedDimension
1001
ACAD
1000
DSTYLE
1002
{
1070
   174
1070
     0
1070
   272
1070
     1
1070
   288
1070
     0
1070
   341
1005
0
1002
}
  0
DIMENSION
  5
1F7B9
330
747D
100
AcDbEntity
  8
寸法
 48
50.0
100
AcDbDimension
  2
*D33
 10
7656.6
 20
8771.968388320138
 30
0.0
 11
8223.600000000001
 21
8871.968388320139
 31
0.0
 70
    32
 71
     5
 42
1134.0
  3
INABA_S40G
100
AcDbAlignedDimension
 13
8790.600000000001
 23
7893.907777930208
 33
0.0
 14
7656.6
 24
7893.907777930208
 34
0.0
100
AcDbRotatedDimension
1001
ACAD
1000
DSTYLE
1002
{
1070
   174
1070
     0
1070
   272
1070
     1
1070
   288
1070
     0
1070
   341
1005
0
1002
}
  0
DIMENSION
  5
20426
330
747D
100
AcDbEntity
  8
寸法
 48
50.0
100
AcDbDimension
  2
*D34
 10
7533.599999999999
 20
8984.429083836975
 30
0.0
 11
7217.425378797542
 21
8984.429083836975
 31
0.0
 70
   160
  1
a
 71
     5
 42
44.99999999999817
  3
INABA_S40G
100
AcDbAlignedDimension
 13
7488.600000000002
 23
8771.968388320138
 33
0.0
 14
7533.599999999999
 24
7966.907777930209
 34
0.0
100
AcDbRotatedDimension
1001
ACAD
1000
DSTYLE
1002
{
1070
   341
1005
0
1002
}
  0
DIMENSION
  5
2042E
330
747D
100
AcDbEntity
  8
寸法
 48
50.0
100
AcDbDimension
  2
*D35
 10
8958.6
 20
8984.429083836975
 30
0.0
 11
9229.774621202459
 21
8984.429083836975
 31
0.0
 70
   160
  1
a
 71
     5
 42
45.00000000001091
  3
INABA_S40G
100
AcDbAlignedDimension
 13
8913.599999999989
 23
7966.907777930207
 33
0.0
 14
8958.6
 24
8771.968388320138
 34
0.0
100
AcDbRotatedDimension
1001
ACAD
1000
DSTYLE
1002
{
1070
   341
1005
0
1002
}
  0
MTEXT
  5
20431
102
{ACAD_REACTORS
330
20432
102
}
330
747D
100
AcDbEntity
  8
部品1
 62
     7
 48
50.0
100
AcDbMText
 10
8722.598109025666
 20
6883.985602051288
 30
0.0
 40
120.0
 41
0.0
 71
     6
 72
     1
  1
CB
  7
STYLE1
 73
     1
 44
1.0
1001
ACAD
1000
MTEXTBEGIN
1070
    73
1070
     1
1070
    44
1040
1.0
1070
    74
1070
     0
1000
MTEXTEND
  0
LEADER
  5
20432
330
747D
100
AcDbEntity
  8
寸法
 48
50.0
100
AcDbLeader
  3
INABA_S50G
 73
     0
 74
     0
 75
     1
 40
120.0
 41
149.591883092037
 76
     3
 10
8282.446997869088
 20
6575.568134216104
 30
0.0
 10
8423.006225933631
 20
6798.985602051287
 30
0.0
 10
8548.006225933631
 20
6798.985602051287
 30
0.0
340
20431
1001
ACAD
1000
DSTYLE
1002
{
1070
   341
1005
0
1070
    40
1040
1.0
1070
   343
1005
0
1070
   344
1005
0
1002
}
  0
DIMENSION
  5
206ED
330
747D
100
AcDbEntity
  8
寸法
 48
50.0
100
AcDbDimension
  2
*D36
 10
6982.503367597603
 20
6510.907777930208
 30
0.0
 11
6982.503367597601
 21
6200.010127818401
 31
0.0
 70
   160
 71
     5
 42
763.9999999999973
  3
INABA_S40G
100
AcDbAlignedDimension
 13
7533.600000000035
 23
5746.907777930211
 33
0.0
 14
8123.600000000001
 24
6510.907777930208
 34
0.0
 50
270.0
100
AcDbRotatedDimension
1001
ACAD
1000
DSTYLE
1002
{
1070
   341
1005
0
1002
}
  0
DIMENSION
  5
2071E
330
747D
100
AcDbEntity
  8
寸法
 48
50.0
100
AcDbDimension
  2
*D37
 10
6982.503367597603
 20
7966.907777930209
 30
0.0
 11
6882.503367597601
 21
7584.907777930209
 31
0.0
 70
    32
 71
     5
 42
764.0
  3
INABA_S40G
100
AcDbAlignedDimension
 13
8123.600000000001
 23
7202.907777930208
 33
0.0
 14
7533.599999999999
 24
7966.907777930209
 34
0.0
 50
270.0
100
AcDbRotatedDimension
1001
ACAD
1000
DSTYLE
1002
{
1070
   341
1005
0
1002
}
  0
DIMENSION
  5
2073D
330
747D
100
AcDbEntity
  8
寸法
 48
50.0
100
AcDbDimension
  2
*D38
 10
6982.503367597605
 20
7202.907777930208
 30
0.0
 11
6982.503367597603
 21
6856.907777930207
 31
0.0
 70
   160
 71
     5
 42
692.0
  3
INABA_S40G
100
AcDbAlignedDimension
 13
8123.600000000001
 23
6510.907777930208
 33
0.0
 14
8123.600000000001
 24
7202.907777930208
 34
0.0
 50
270.0
100
AcDbRotatedDimension
1001
ACAD
1000
DSTYLE
1002
{
1070
   341
1005
0
1002
}
  0
DIMENSION
  5
20A00
330
747D
100
AcDbEntity
  8
寸法
 48
50.0
100
AcDbDimension
  2
*D39
 10
7533.600000000035
 20
4957.0434745061
 30
0.0
 11
8223.600000000027
 21
5057.0434745061
 31
0.0
 70
    32
  1
扉の幅 <>
 71
     5
 42
1379.999999999983
  3
INABA_S40G
100
AcDbAlignedDimension
 13
8913.600000000018
 23
5671.907777930226
 33
0.0
 14
7533.600000000035
 24
5671.90777793021
 34
0.0
100
AcDbRotatedDimension
1001
ACAD
1000
DSTYLE
1002
{
1070
   341
1005
0
1002
}
  0
TEXT
  5
20A01
330
747D
100
AcDbEntity
  8
寸法
 62
     7
100
AcDbText
 10
7616.285760402178
 20
4588.079265415341
 30
0.0
 40
120.0
  1
扉位置 (1380x75)
  7
STYLE1
100
AcDbText
  0
SOLID
  5
20A02
330
747D
100
AcDbEntity
  8
寸法
 48
50.0
100
AcDbTrace
 10
-7823.771060041811
 20
5546.316749025338
 30
0.0
 11
-7840.680265711798
 21
5671.907777930225
 31
0.0
 12
-7783.952845568333
 22
5558.589519994247
 32
0.0
 13
-7783.952845568333
 23
5558.589519994247
 33
0.0
210
0.0
220
0.0
230
-1.0
1001
ACAD
1000
DSTYLE
1002
{
1070
   341
1005
0
1070
    40
1040
1.0
1070
   343
1005
0
1070
   344
1005
0
1002
}
  0
LWPOLYLINE
  5
20A03
330
747D
100
AcDbEntity
  8
寸法
 48
50.0
100
AcDbPolyline
 90
        3
 70
     0
 43
0.0
 10
-7840.680265711798
 20
5671.907777930225
 10
-7499.669801209425
 20
4565.811317867022
 10
-10313.73421414107
 20
4565.811317867022
210
0.0
220
0.0
230
-1.0
1001
ACAD
1000
DSTYLE
1002
{
1070
   341
1005
0
1070
    40
1040
1.0
1070
   343
1005
0
1070
   344
1005
0
1002
}
  0
TEXT
  5
20A04
330
747D
100
AcDbEntity
  8
寸法
 62
     7
100
AcDbText
 10
7616.285760402178
 20
4416.475502532017
 30
0.0
 40
120.0
  1
扉の位置に合わせた基礎形状として下さい。
  7
STYLE1
100
AcDbText
  0
DIMENSION
  5
20A2F
330
747D
100
AcDbEntity
  8
寸法
 48
50.0
100
AcDbDimension
  2
*D40
 10
7992.938460046301
 20
5976.907777930225
 30
0.0
 11
7992.9384600463
 21
6212.955022024715
 31
0.0
 70
   160
 71
     5
 42
109.9999999999972
  3
INABA_S40G
100
AcDbAlignedDimension
 13
7763.600000000034
 23
5866.907777930228
 33
0.0
 14
7763.600000000038
 24
5976.907777930225
 34
0.0
 50
270.0
100
AcDbRotatedDimension
1001
ACAD
1000
DSTYLE
1002
{
1070
   341
1005
0
1002
}
  0
DIMENSION
  5
20A34
330
747D
100
AcDbEntity
  8
寸法
 48
50.0
100
AcDbDimension
  2
*D41
 10
7992.938460046301
 20
5866.907777930212
 30
0.0
 11
7992.9384600463
 21
5433.212836726331
 31
0.0
 70
   160
 71
     5
 42
194.9999999999863
  3
INABA_S40G
100
AcDbAlignedDimension
 13
7763.600000000036
 23
5671.907777930226
 33
0.0
 14
7763.600000000036
 24
5866.907777930212
 34
0.0
 50
270.0
100
AcDbRotatedDimension
1001
ACAD
1000
DSTYLE
1002
{
1070
   341
1005
0
1002
}
  0
LINE
  5
21069
330
747D
100
AcDbEntity
  8
想像線
 48
10.0
100
AcDbLine
 10
8459.139106188329
 20
8021.907777930213
 30
0.0
 11
8958.600000000002
 21
8021.907777930213
 31
0.0
  0
LINE
  5
2106A
330
747D
100
AcDbEntity
  8
想像線
 48
10.0
100
AcDbLine
 10
8459.139106188333
 20
5671.907777930225
 30
0.0
 11
8958.600000000005
 21
5671.907777930225
 31
0.0
  0
LINE
  5
2107F
102
{ACAD_REACTORS
330
210C8
102
}
330
747D
100
AcDbEntity
  8
部品1
 48
50.0
100
AcDbLine
 10
8793.599999999999
 20
5976.907777930224
 30
0.0
 11
8793.600000000001
 21
7736.907777930207
 31
0.0
  0
LINE
  5
21080
102
{ACAD_REACTORS
330
21098
102
}
330
747D
100
AcDbEntity
  8
部品1
 48
50.0
100
AcDbLine
 10
8683.6
 20
7846.907777930207
 30
0.0
 11
7763.600000000001
 21
7846.907777930208
 31
0.0
  0
LINE
  5
21081
102
{ACAD_REACTORS
330
210A5
102
}
330
747D
100
AcDbEntity
  8
部品1
 48
50.0
100
AcDbLine
 10
7653.6
 20
5976.907777930208
 30
0.0
 11
7653.6
 21
7736.907777930205
 31
0.0
  0
LINE
  5
21083
102
{ACAD_REACTORS
330
210B4
102
}
330
747D
100
AcDbEntity
  8
部品1
 48
50.0
100
AcDbLine
 10
8683.6
 20
5866.907777930224
 30
0.0
 11
7763.600000000001
 21
5866.907777930212
 31
0.0
  0
HATCH
  5
21098
330
747D
100
AcDbEntity
  8
細線
 48
50.0
100
AcDbHatch
 10
0.0
 20
0.0
 30
0.0
210
0.0
220
0.0
230
1.0
  2
LINE
 70
     0
 71
     1
 91
        1
 92
        7
 72
     0
 73
     1
 93
        4
 10
8323.6
 20
7966.907777930209
 10
8123.599999999999
 20
7966.907777930207
 10
8123.600000000001
 20
7846.907777930207
 10
8323.600000000002
 20
7846.907777930208
 97
        4
330
1F7B4
330
1F783
330
21080
330
1F784
 75
     0
 76
     1
 52
45.0
 41
10.0
 77
     0
 78
     1
 53
45.0
 43
0.0
 44
0.0
 45
-22.45064030267288
 46
22.45064030267288
 79
     0
 47
4.461334538610249
 98
        1
 10
8183.396606545809
 20
7895.523019238328
  0
HATCH
  5
210A5
330
747D
100
AcDbEntity
  8
細線
 48
50.0
100
AcDbHatch
 10
0.0
 20
0.0
 30
0.0
210
0.0
220
0.0
230
1.0
  2
LINE
 70
     0
 71
     1
 91
        1
 92
        7
 72
     0
 73
     1
 93
        4
 10
7653.599999999999
 20
6956.907777930208
 10
7533.599999999999
 20
6956.907777930208
 10
7533.599999999998
 20
6756.907777930208
 10
7653.600000000001
 20
6756.907777930209
 97
        4
330
1F7A1
330
1F7AC
330
1F7A0
330
21081
 75
     0
 76
     1
 52
45.0
 41
10.0
 77
     0
 78
     1
 53
45.0
 43
0.0
 44
0.0
 45
-22.45064030267288
 46
22.45064030267288
 79
     0
 47
1.732816051979006
 98
        1
 10
7588.495416291691
 20
6864.675565995686
  0
HATCH
  5
210B4
330
747D
100
AcDbEntity
  8
細線
 48
50.0
100
AcDbHatch
 10
0.0
 20
0.0
 30
0.0
210
0.0
220
0.0
230
1.0
  2
LINE
 70
     0
 71
     1
 91
        1
 92
        7
 72
     0
 73
     1
 93
        4
 10
8323.600000000027
 20
5866.907777930219
 10
8123.600000000029
 20
5866.907777930217
 10
8123.600000000028
 20
5671.907777930217
 10
8323.600000000025
 20
5671.907777930219
 97
        4
330
21083
330
1DD44
330
1EC47
330
1DD3B
 75
     0
 76
     1
 52
45.0
 41
10.0
 77
     0
 78
     1
 53
45.0
 43
0.0
 44
0.0
 45
-22.45064030267288
 46
22.45064030267288
 79
     0
 47
2.770206741057349
 98
        1
 10
8271.20902860946
 20
5755.271087773955
  0
HATCH
  5
210C8
330
747D
100
AcDbEntity
  8
細線
 48
50.0
100
AcDbHatch
 10
0.0
 20
0.0
 30
0.0
210
0.0
220
0.0
230
1.0
  2
LINE
 70
     0
 71
     1
 91
        1
 92
        7
 72
     0
 73
     1
 93
        4
 10
8913.599999999998
 20
6956.907777930208
 10
8793.599999999999
 20
6956.907777930209
 10
8793.599999999999
 20
6756.907777930208
 10
8913.6
 20
6756.907777930208
 97
        4
330
1F77C
330
2107F
330
1F77B
330
1F78F
 75
     0
 76
     1
 52
45.0
 41
10.0
 77
     0
 78
     1
 53
45.0
 43
0.0
 44
0.0
 45
-22.45064030267288
 46
22.45064030267288
 79
     0
 47
2.770206741057345
 98
        1
 10
8900.952440047914
 20
6840.76150685197
  0
LINE
  5
215C7
330
747D
100
AcDbEntity
  8
部品1
100
AcDbLine
 10
11109.87244527782
 20
3462.622754776788
 30
0.0
 11
5038.88725989157
 21
3462.622754776788
 31
0.0
  0
LINE
  5
215C8
330
747D
100
AcDbEntity
  8
部品1
100
AcDbLine
 10
11109.87244527782
 20
3222.622754776786
 30
0.0
 11
5038.887259891573
 21
3222.622754776787
 31
0.0
  0
LINE
  5
215C9
330
747D
100
AcDbEntity
  8
部品1
100
AcDbLine
 10
5038.887259891576
 20
498.3157851921414
 30
0.0
 11
11109.87244527782
 21
498.3157851921414
 31
0.0
  0
LEADER
  5
215CA
330
747D
100
AcDbEntity
  8
寸法
 48
50.0
100
AcDbLeader
  3
INABA_S50G
 73
     0
 74
     0
 75
     1
 40
102.2727272727273
 41
680.0000000000001
 76
     3
 10
8046.99501187803
 20
2540.526416109087
 30
0.0
 10
8081.348982991388
 20
2950.979227215628
 30
0.0
 10
8206.348982991388
 20
2950.979227215628
 30
0.0
340
215CB
1001
ACAD
1000
DSTYLE
1002
{
1070
   341
1005
0
1070
    40
1040
1.0
1070
   343
1005
0
1070
   344
1005
0
1002
}
  0
MTEXT
  5
215CB
102
{ACAD_REACTORS
330
215CA
102
}
330
747D
100
AcDbEntity
  8
部品1
 62
     7
 48
50.0
100
AcDbMText
 10
8231.348982991388
 20
3027.115590851991
 30
0.0
 40
80.0
 41
0.8
 71
     4
 72
     1
  1
\A1;ナット(市販品)
  7
STYLE2
 73
     1
 44
1.0
1001
ACAD
1000
MTEXTBEGIN
1070
    73
1070
     1
1070
    44
1040
1.0
1070
    74
1070
     0
1000
MTEXTEND
  0
LEADER
  5
215CC
330
747D
100
AcDbEntity
  8
寸法
 48
50.0
100
AcDbLeader
  3
INABA_S50G
 73
     0
 74
     0
 75
     1
 40
102.2727272727273
 41
906.8181818181818
 76
     3
 10
8070.995011878029
 20
2410.774423444224
 30
0.0
 10
8112.866602246867
 20
2766.01014445084
 30
0.0
 10
8237.866602246867
 20
2766.01014445084
 30
0.0
340
215CD
1001
ACAD
1000
DSTYLE
1002
{
1070
   341
1005
0
1070
    40
1040
1.0
1070
   343
1005
0
1070
   344
1005
0
1002
}
  0
MTEXT
  5
215CD
102
{ACAD_REACTORS
330
215CC
102
}
330
747D
100
AcDbEntity
  8
部品1
 62
     7
 48
50.0
100
AcDbMText
 10
8262.866602246868
 20
2842.146508087204
 30
0.0
 40
80.0
 41
0.8
 71
     4
 72
     1
  1
\A1;ワッシャー(市販品)
  7
STYLE2
 73
     1
 44
1.0
1001
ACAD
1000
MTEXTBEGIN
1070
    73
1070
     1
1070
    44
1040
1.0
1070
    74
1070
     0
1000
MTEXTEND
  0
LWPOLYLINE
  5
215CE
330
747D
100
AcDbEntity
  8
部品1
 48
50.0
100
AcDbPolyline
 90
        2
 70
     0
 43
8.0
 10
8223.59501187803
 20
1901.651134999944
 10
8517.297475277414
 20
1901.651134999944
  0
TEXT
  5
215CF
330
747D
100
AcDbEntity
  8
部品1
 48
50.0
100
AcDbText
 10
8227.948596162457
 20
2497.529815762144
 30
0.0
 40
80.0
  1
基礎ボルト(市販品)
  7
STYLE2
100
AcDbText
  0
DIMENSION
  5
215D0
330
747D
100
AcDbEntity
  8
寸法
 48
50.0
100
AcDbDimension
  2
*D42
 10
8725.463611646871
 20
1817.651134999942
 30
0.0
 11
8625.463611646871
 21
1979.651134999944
 31
0.0
 70
    32
  1
180
 71
     5
 42
324.0000000000009
  3
INABA_S40G
100
AcDbAlignedDimension
 13
8223.59501187803
 23
2141.651134999944
 33
0.0
 14
8223.59501187803
 24
1817.651134999942
 34
0.0
 50
90.0
100
AcDbRotatedDimension
1001
ACAD
1000
DSTYLE
1002
{
1070
   174
1070
     0
1070
   272
1070
     1
1070
   279
1070
     1
1070
   288
1070
     0
1070
   341
1005
0
1002
}
  0
DIMENSION
  5
215D1
330
747D
100
AcDbEntity
  8
寸法
 48
50.0
100
AcDbDimension
  2
*D43
 10
8725.463611646871
 20
2141.651134999944
 30
0.0
 11
9001.518277765899
 21
2116.527177395732
 31
0.0
 70
   160
  1
20～25
 71
     5
 42
52.76000000000113
  3
INABA_S40G
100
AcDbAlignedDimension
 13
8036.395011878031
 23
2194.411134999945
 33
0.0
 14
8223.59501187803
 24
2141.651134999944
 34
0.0
 50
90.0
100
AcDbRotatedDimension
1001
ACAD
1000
DSTYLE
1002
{
1070
   174
1070
     0
1070
   272
1070
     1
1070
   279
1070
     1
1070
   288
1070
     0
1070
   341
1005
0
1002
}
  0
MTEXT
  5
215D2
102
{ACAD_REACTORS
330
215D3
102
}
330
747D
100
AcDbEntity
  8
部品1
 62
     7
 48
50.0
100
AcDbMText
 10
8232.539474297347
 20
2406.034461153174
 30
0.0
 40
80.0
 41
0.8
 71
     4
 72
     1
  1
M10X160
  7
STYLE2
 73
     1
 44
1.0
1001
ACAD
1000
MTEXTBEGIN
1070
    73
1070
     1
1070
    44
1040
1.0
1070
    74
1070
     0
1000
MTEXTEND
  0
LEADER
  5
215D3
330
747D
100
AcDbEntity
  8
寸法
 48
50.0
100
AcDbLeader
  3
INABA_S50G
 73
     0
 74
     0
 75
     1
 40
80.0
 41
435.0
 76
     3
 10
8039.99501187803
 20
2190.811134999945
 30
0.0
 10
8082.539474297346
 20
2341.034461153174
 30
0.0
 10
8207.539474297346
 20
2341.034461153174
 30
0.0
340
215D2
1001
ACAD
1000
DSTYLE
1002
{
1070
   341
1005
0
1070
    40
1040
1.0
1070
   343
1005
0
1070
   344
1005
0
1002
}
  0
LINE
  5
215D4
330
747D
100
AcDbEntity
  8
部品1
100
AcDbLine
 10
5038.887259891573
 20
3462.622754776788
 30
0.0
 11
5038.887259891573
 21
498.3157851921414
 31
0.0
  0
LEADER
  5
215D5
330
747D
100
AcDbEntity
  8
寸法
 48
50.0
100
AcDbLeader
  3
INABA_S50G
 73
     0
 75
     1
 40
113.1818181818182
 41
608.6363636363635
 76
     3
 10
7999.73176201608
 20
2091.166808358223
 30
0.0
 10
7865.927933324733
 20
2942.545890714701
 30
0.0
 10
7740.927933324733
 20
2942.545890714701
 30
0.0
340
215D6
1001
ACAD
1000
DSTYLE
1002
{
1070
   341
1005
0
1070
    40
1040
1.0
1070
   343
1005
0
1070
   344
1005
0
1002
}
  0
MTEXT
  5
215D6
102
{ACAD_REACTORS
330
215D5
102
}
330
747D
100
AcDbEntity
  8
寸法
 62
     7
 48
50.0
100
AcDbMText
 10
7715.927933324732
 20
3024.13679980561
 30
0.0
 40
80.0
 41
0.8
 71
     6
 72
     1
  1
\A1;φ70スリーブ
  7
STYLE2
 73
     1
 44
1.0
1001
ACAD
1000
MTEXTBEGIN
1070
    73
1070
     1
1070
    44
1040
1.0
1070
    74
1070
     0
1000
MTEXTEND
  0
LWPOLYLINE
  5
215D7
330
747D
100
AcDbEntity
  8
部品1
 48
50.0
100
AcDbPolyline
 90
        2
 70
     0
 43
8.0
 10
5695.415796867878
 20
1901.651134999944
 10
6109.555698700835
 20
1901.651134999944
  0
TEXT
  5
215D8
330
747D
100
AcDbEntity
  8
部品1
 48
50.0
100
AcDbText
 10
5695.415796867878
 20
1912.890127283199
 30
0.0
 40
80.0
  1
▽G.L
  7
STYLE2
100
AcDbText
  0
DIMENSION
  5
215D9
330
747D
100
AcDbEntity
  8
寸法
 48
50.0
100
AcDbDimension
  2
*D44
 10
5839.135384968376
 20
1357.651134999944
 30
0.0
 11
5839.135384968376
 21
1477.651134999943
 31
0.0
 70
   160
  1
150
 71
     5
 42
240.0
  3
INABA_S40G
100
AcDbAlignedDimension
 13
5981.555698700835
 23
1597.651134999944
 33
0.0
 14
5901.555698700839
 24
1357.651134999944
 34
0.0
 50
90.0
100
AcDbRotatedDimension
1001
ACAD
1000
DSTYLE
1002
{
1070
   174
1070
     0
1070
   272
1070
     1
1070
   279
1070
     1
1070
   288
1070
     0
1070
   341
1005
0
1002
}
  0
LEADER
  5
215DA
330
747D
100
AcDbEntity
  8
寸法
 48
50.0
100
AcDbLeader
  3
INABA_S50G
 71
     0
 73
     0
 75
     1
 40
100.0
 41
225.0
 76
     3
 10
6077.458651052978
 20
1477.651134999943
 30
0.0
 10
5955.620672505641
 20
1214.128441381507
 30
0.0
 10
5830.620672505641
 20
1214.128441381507
 30
0.0
1001
ACAD
1000
DSTYLE
1002
{
1070
    40
1040
1.0
1070
   272
1070
     1
1070
   279
1070
     1
1070
   341
1005
0
1002
}
  0
LEADER
  5
215DB
330
747D
100
AcDbEntity
  8
寸法
 48
50.0
100
AcDbLeader
  3
INABA_S50G
 71
     0
 73
     0
 75
     1
 40
100.0
 41
222.7272727272727
 76
     3
 10
6205.555698700835
 20
1477.651134999943
 30
0.0
 10
5983.743400063076
 20
1033.812288842064
 30
0.0
 10
5858.743400063076
 20
1033.812288842064
 30
0.0
1001
ACAD
1000
DSTYLE
1002
{
1070
    40
1040
1.0
1070
   272
1070
     1
1070
   279
1070
     1
1070
   341
1005
0
1002
}
  0
MTEXT
  5
215DC
102
{ACAD_REACTORS
330
215DD
102
}
330
747D
100
AcDbEntity
  8
寸法
 62
     7
 48
50.0
100
AcDbMText
 10
6020.305644478031
 20
1742.9517378174
 30
0.0
 40
80.0
 41
0.8
 71
     6
 72
     1
  1
\A1;D10@300
  7
STYLE2
 73
     1
 44
1.0
1001
ACAD
1000
MTEXTBEGIN
1070
    73
1070
     1
1070
    44
1040
1.0
1070
    74
1070
     0
1000
MTEXTEND
  0
LEADER
  5
215DD
330
747D
100
AcDbEntity
  8
寸法
 48
50.0
100
AcDbLeader
  3
INABA_S50G
 71
     0
 73
     0
 75
     1
 40
100.0
 41
540.3409090909091
 76
     3
 10
6213.555698700835
 20
1899.778349697067
 30
0.0
 10
6155.573462172137
 20
1678.308021156262
 30
0.0
 10
6030.573462172137
 20
1678.308021156262
 30
0.0
213
-9.732182305893367
223
-4.643716661138569
233
0.0
1001
ACAD
1000
DSTYLE
1002
{
1070
    40
1040
1.0
1070
   272
1070
     1
1070
   279
1070
     1
1070
   341
1005
0
1002
}
  0
LEADER
  5
215DE
330
747D
100
AcDbEntity
  8
寸法
 48
50.0
100
AcDbLeader
  3
INABA_S50G
 71
     0
 73
     0
 75
     1
 40
130.1136363636363
 41
651.1363636363636
 76
     3
 10
6189.555698700835
 20
2141.651134999944
 30
0.0
 10
6077.131118536819
 20
2282.121900456532
 30
0.0
 10
5952.131118536819
 20
2282.121900456532
 30
0.0
1001
ACAD
1000
DSTYLE
1002
{
1070
    40
1040
1.0
1070
   272
1070
     1
1070
   279
1070
     1
1070
   341
1005
0
1002
}
  0
MTEXT
  5
215DF
102
{ACAD_REACTORS
330
215DE
102
}
330
747D
100
AcDbEntity
  8
寸法
 62
     7
 48
50.0
100
AcDbMText
 10
5889.457219217562
 20
2354.167355001986
 30
0.0
 40
80.0
 41
0.8
 71
     6
 72
     1
  1
\A1;金コテ押エ
  7
STYLE2
 73
     1
 44
1.0
1001
ACAD
1000
MTEXTBEGIN
1070
    73
1070
     1
1070
    44
1040
1.0
1070
    74
1070
     0
1000
MTEXTEND
  0
DIMENSION
  5
215E0
330
747D
100
AcDbEntity
  8
寸法
 48
50.0
100
AcDbDimension
  2
*D45
 10
5374.518460139094
 20
1357.651134999944
 30
0.0
 11
5374.518460139094
 21
1729.191284655944
 31
0.0
 70
   160
  1
540
 71
     5
 42
784.0
  3
INABA_S40G
100
AcDbAlignedDimension
 13
6109.555698700835
 23
2141.651134999944
 33
0.0
 14
5901.555698700839
 24
1357.651134999944
 34
0.0
 50
90.0
100
AcDbRotatedDimension
1001
ACAD
1000
DSTYLE
1002
{
1070
   174
1070
     0
1070
   272
1070
     1
1070
   279
1070
     1
1070
   288
1070
     0
1070
   341
1005
0
1002
}
  0
MTEXT
  5
215E1
102
{ACAD_REACTORS
330
215DB
102
}
330
747D
100
AcDbEntity
  8
寸法
 62
     7
 48
50.0
100
AcDbMText
 10
5838.743400063076
 20
1093.812288842064
 30
0.0
 40
80.0
 41
0.8
 71
     6
 72
     1
  1
D13
  7
STYLE2
 73
     1
 44
1.0
1001
ACAD
1000
MTEXTBEGIN
1070
    73
1070
     1
1070
    44
1040
1.0
1070
    74
1070
     0
1000
MTEXTEND
  0
MTEXT
  5
215E2
102
{ACAD_REACTORS
330
215DA
102
}
330
747D
100
AcDbEntity
  8
寸法
 62
     7
 48
50.0
100
AcDbMText
 10
5810.620672505641
 20
1274.128441381507
 30
0.0
 40
80.0
 41
0.8
 71
     6
 72
     1
  1
D10
  7
STYLE2
 73
     1
 44
1.0
1001
ACAD
1000
MTEXTBEGIN
1070
    73
1070
     1
1070
    44
1040
1.0
1070
    74
1070
     0
1000
MTEXTEND
  0
DIMENSION
  5
215E3
330
747D
100
AcDbEntity
  8
寸法
 48
50.0
100
AcDbDimension
  2
*D46
 10
6429.555698700835
 20
819.2214969947835
 30
0.0
 11
6185.458940022612
 21
819.2214969947835
 31
0.0
 70
   160
  1
300
 71
     5
 42
448.0
  3
INABA_S40G
100
AcDbAlignedDimension
 13
5981.555698700835
 23
1229.651134999943
 33
0.0
 14
6429.555698700835
 24
1229.651134999943
 34
0.0
100
AcDbRotatedDimension
1001
ACAD
1000
DSTYLE
1002
{
1070
   174
1070
     0
1070
   272
1070
     1
1070
   279
1070
     1
1070
   288
1070
     0
1070
   341
1005
0
1002
}
  0
MTEXT
  5
215E4
102
{ACAD_REACTORS
330
215E5
102
}
330
747D
100
AcDbEntity
  8
寸法
 62
     7
 48
50.0
100
AcDbMText
 10
7742.570939533091
 20
2663.452527898096
 30
0.0
 40
80.0
 41
0.8
 71
     6
 72
     1
  1
アンカープレート {\fArial|b0|i0|c0|p32;U}
  7
STYLE2
 73
     1
 44
1.0
1001
ACAD
1000
MTEXTBEGIN
1070
    73
1070
     1
1070
    44
1040
1.0
1070
    74
1070
     0
1000
MTEXTEND
  0
LEADER
  5
215E5
330
747D
100
AcDbEntity
  8
寸法
 48
50.0
100
AcDbLeader
  3
INABA_S50G
 73
     0
 75
     1
 40
106.3636363636363
 41
903.5235024184547
 76
     3
 10
7940.995011878029
 20
2211.211134999945
 30
0.0
 10
7892.570939533091
 20
2585.270709716277
 30
0.0
 10
7767.570939533091
 20
2585.270709716277
 30
0.0
340
215E4
1001
ACAD
1000
DSTYLE
1002
{
1070
   341
1005
0
1070
    40
1040
1.0
1070
   343
1005
0
1070
   344
1005
0
1002
}
  0
LINE
  5
215E6
330
747D
100
AcDbEntity
  8
細線
 48
50.0
100
AcDbLine
 10
6229.555698700836
 20
1980.024027667774
 30
0.0
 11
6301.555698700836
 21
2052.024027667775
 31
0.0
  0
ARC
  5
215E7
330
747D
100
AcDbEntity
  8
部品1
 48
50.0
100
AcDbCircle
 10
6205.555698700836
 20
2001.905564394189
 30
0.0
 40
24.0
100
AcDbArc
 50
0.0
 51
180.0
  0
CIRCLE
  5
215E8
330
747D
100
AcDbEntity
  8
部品1
 48
50.0
100
AcDbCircle
 10
6205.555698700836
 20
2001.905564394189
 30
0.0
 40
8.0
  0
LINE
  5
215E9
330
747D
100
AcDbEntity
  8
部品1
 48
50.0
100
AcDbLine
 10
6109.555698700836
 20
1597.651134999944
 30
0.0
 11
6109.555698700836
 21
2141.651134999944
 31
0.0
  0
LINE
  5
215EA
330
747D
100
AcDbEntity
  8
部品1
 48
50.0
100
AcDbLine
 10
6301.555698700836
 20
2141.651134999944
 30
0.0
 11
6301.555698700836
 21
1597.651134999944
 31
0.0
  0
MTEXT
  5
215EB
102
{ACAD_REACTORS
330
215F0
102
}
330
747D
100
AcDbEntity
  8
寸法
 62
     7
 48
50.0
100
AcDbMText
 10
6384.441635728229
 20
2002.918696298872
 30
0.0
 40
80.0
 41
0.8
 71
     4
 72
     1
  1
D13
  7
STYLE2
 73
     1
 44
1.0
1001
ACAD
1000
MTEXTBEGIN
1070
    73
1070
     1
1070
    44
1040
1.0
1070
    74
1070
     0
1000
MTEXTEND
  0
LEADER
  5
215EC
330
747D
100
AcDbEntity
  8
寸法
 48
50.0
100
AcDbLeader
  3
INABA_S50G
 71
     0
 73
     0
 74
     0
 75
     1
 40
100.0
 41
225.0
 76
     3
 10
6333.458651052978
 20
1477.651134999943
 30
0.0
 10
6387.88335850752
 20
1382.254066056971
 30
0.0
 10
6512.88335850752
 20
1382.254066056971
 30
0.0
1001
ACAD
1000
DSTYLE
1002
{
1070
    40
1040
1.0
1070
   272
1070
     1
1070
   279
1070
     1
1070
   341
1005
0
1002
}
  0
LEADER
  5
215ED
330
747D
100
AcDbEntity
  8
寸法
 48
50.0
100
AcDbLeader
  3
INABA_S50G
 71
     0
 73
     0
 74
     0
 75
     1
 40
100.0
 41
540.3409090909091
 76
     3
 10
6279.500867714009
 20
1460.910604586418
 30
0.0
 10
6398.294154562086
 20
1119.279786591521
 30
0.0
 10
6523.294154562086
 20
1119.279786591521
 30
0.0
213
0.0
223
-1.022262676269383
233
0.0
1001
ACAD
1000
DSTYLE
1002
{
1070
    40
1040
1.0
1070
   272
1070
     1
1070
   279
1070
     1
1070
   341
1005
0
1002
}
  0
MTEXT
  5
215EE
102
{ACAD_REACTORS
330
215EC
102
}
330
747D
100
AcDbEntity
  8
寸法
 62
     7
 48
50.0
100
AcDbMText
 10
6532.88335850752
 20
1442.254066056971
 30
0.0
 40
80.0
 41
0.8
 71
     4
 72
     1
  1
D10
  7
STYLE2
 73
     1
 44
1.0
1001
ACAD
1000
MTEXTBEGIN
1070
    73
1070
     1
1070
    44
1040
1.0
1070
    74
1070
     0
1000
MTEXTEND
  0
LWPOLYLINE
  5
215EF
330
747D
100
AcDbEntity
  8
部品1
 48
50.0
100
AcDbPolyline
 90
        2
 70
     0
 43
8.0
 10
6301.555698700835
 20
1901.651134999944
 10
6715.695600533793
 20
1901.651134999944
  0
LEADER
  5
215F0
330
747D
100
AcDbEntity
  8
寸法
 48
50.0
100
AcDbLeader
  3
INABA_S50G
 71
     0
 73
     0
 74
     0
 75
     1
 40
100.0
 41
222.7272727272727
 76
     3
 10
6205.555698700835
 20
2001.905564394189
 30
0.0
 10
6239.44163572823
 20
1942.918696298871
 30
0.0
 10
6364.44163572823
 20
1942.918696298871
 30
0.0
1001
ACAD
1000
DSTYLE
1002
{
1070
    40
1040
1.0
1070
   272
1070
     1
1070
   279
1070
     1
1070
   341
1005
0
1002
}
  0
LINE
  5
215F1
330
747D
100
AcDbEntity
  8
細線
 48
50.0
100
AcDbLine
 10
5981.555698700828
 20
1516.497880762115
 30
0.0
 11
6062.708952938663
 21
1597.651134999944
 31
0.0
  0
LINE
  5
215F2
330
747D
100
AcDbEntity
  8
細線
 48
50.0
100
AcDbLine
 10
6189.421546178239
 20
1535.778349697066
 30
0.0
 11
6213.555698700841
 21
1559.912502219665
 31
0.0
  0
LINE
  5
215F3
330
747D
100
AcDbEntity
  8
細線
 48
50.0
100
AcDbLine
 10
6096.353563117908
 20
1469.651134999943
 30
0.0
 11
6213.555698700836
 21
1586.853270582869
 31
0.0
  0
LINE
  5
215F4
330
747D
100
AcDbEntity
  8
部品1
 48
50.0
100
AcDbLine
 10
5981.555698700836
 20
1357.651134999944
 30
0.0
 11
5981.555698700836
 21
1597.651134999944
 31
0.0
  0
LINE
  5
215F5
330
747D
100
AcDbEntity
  8
細線
 48
50.0
100
AcDbLine
 10
6338.82047838678
 20
1469.651134999943
 30
0.0
 11
6429.555698700835
 21
1560.386355314002
 31
0.0
  0
LINE
  5
215F6
330
747D
100
AcDbEntity
  8
細線
 48
50.0
100
AcDbLine
 10
6311.879710023563
 20
1469.651134999943
 30
0.0
 11
6429.555698700835
 21
1587.32712367721
 31
0.0
  0
LINE
  5
215F7
330
747D
100
AcDbEntity
  8
部品1
 48
50.0
100
AcDbLine
 10
6429.555698700835
 20
1597.651134999944
 30
0.0
 11
6429.555698700835
 21
1357.651134999944
 31
0.0
  0
LINE
  5
215F8
330
747D
100
AcDbEntity
  8
部品1
 48
50.0
100
AcDbLine
 10
6229.555698700842
 20
1477.651134999943
 30
0.0
 11
6229.555698700836
 21
2001.905564394189
 31
0.0
  0
LINE
  5
215F9
330
747D
100
AcDbEntity
  8
部品1
 48
50.0
100
AcDbLine
 10
6213.555698700841
 20
1477.651134999943
 30
0.0
 11
6213.555698700829
 21
2001.905564394189
 31
0.0
  0
LINE
  5
215FA
330
747D
100
AcDbEntity
  8
細線
 48
50.0
100
AcDbLine
 10
6197.555698700836
 20
1516.971733856455
 30
0.0
 11
6213.555698700841
 21
1532.971733856455
 31
0.0
  0
LINE
  5
215FB
330
747D
100
AcDbEntity
  8
細線
 48
50.0
100
AcDbLine
 10
6186.738538196849
 20
1229.651134999943
 30
0.0
 11
6221.036034828033
 21
1357.651134999944
 31
0.0
  0
LINE
  5
215FC
330
747D
100
AcDbEntity
  8
部品1
 48
50.0
100
AcDbLine
 10
6509.55569870084
 20
1229.651134999943
 30
0.0
 11
5901.555698700838
 21
1229.651134999943
 31
0.0
  0
LINE
  5
215FD
330
747D
100
AcDbEntity
  8
部品1
 48
50.0
100
AcDbLine
 10
6037.555698700836
 20
1453.651134999943
 30
0.0
 11
6373.555698700836
 21
1453.651134999943
 31
0.0
  0
LINE
  5
215FE
330
747D
100
AcDbEntity
  8
部品1
 48
50.0
100
AcDbLine
 10
6037.555698700836
 20
1469.651134999943
 30
0.0
 11
6373.555698700836
 21
1469.651134999943
 31
0.0
  0
LINE
  5
215FF
330
747D
100
AcDbEntity
  8
部品1
 48
50.0
100
AcDbLine
 10
6509.55569870084
 20
1357.651134999944
 30
0.0
 11
5901.555698700838
 21
1357.651134999944
 31
0.0
  0
CIRCLE
  5
21600
330
747D
100
AcDbEntity
  8
部品1
 48
50.0
100
AcDbCircle
 10
6205.555698700836
 20
1477.651134999943
 30
0.0
 40
8.0
  0
LINE
  5
21601
330
747D
100
AcDbEntity
  8
細線
 48
50.0
100
AcDbLine
 10
6199.879710023569
 20
1357.651134999944
 30
0.0
 11
6295.879710023569
 21
1453.651134999943
 31
0.0
  0
LINE
  5
21602
330
747D
100
AcDbEntity
  8
細線
 48
50.0
100
AcDbLine
 10
6028.962448302351
 20
1229.651134999943
 30
0.0
 11
6063.259944933535
 21
1357.651134999944
 31
0.0
  0
LINE
  5
21603
330
747D
100
AcDbEntity
  8
細線
 48
50.0
100
AcDbLine
 10
6107.850493249597
 20
1229.651134999942
 30
0.0
 11
6142.14798988078
 21
1357.651134999942
 31
0.0
  0
LINE
  5
21604
330
747D
100
AcDbEntity
  8
細線
 48
50.0
100
AcDbLine
 10
5950.074403355094
 20
1229.651134999942
 30
0.0
 11
5984.371899986276
 21
1357.651134999942
 31
0.0
  0
LINE
  5
21605
330
747D
100
AcDbEntity
  8
部品1
 48
50.0
100
AcDbLine
 10
5901.555698700838
 20
1229.651134999943
 30
0.0
 11
5901.555698700838
 21
1357.651134999944
 31
0.0
  0
LINE
  5
21606
330
747D
100
AcDbEntity
  8
細線
 48
50.0
100
AcDbLine
 10
6035.393228920698
 20
1253.651134999943
 30
0.0
 11
6041.824009539046
 21
1229.651134999943
 31
0.0
  0
LINE
  5
21607
330
747D
100
AcDbEntity
  8
細線
 48
50.0
100
AcDbLine
 10
5956.505183973447
 20
1253.651134999943
 30
0.0
 11
5962.935964591792
 21
1229.651134999943
 31
0.0
  0
LINE
  5
21608
330
747D
100
AcDbEntity
  8
細線
 48
50.0
100
AcDbLine
 10
6193.169318815203
 20
1253.651134999943
 30
0.0
 11
6199.600099433549
 21
1229.651134999943
 31
0.0
  0
LINE
  5
21609
330
747D
100
AcDbEntity
  8
細線
 48
50.0
100
AcDbLine
 10
6114.28127386795
 20
1253.651134999943
 30
0.0
 11
6120.712054486297
 21
1229.651134999943
 31
0.0
  0
LINE
  5
2160A
330
747D
100
AcDbEntity
  8
細線
 48
50.0
100
AcDbLine
 10
6011.294331481119
 20
1357.651134999944
 30
0.0
 11
6107.294331481119
 21
1453.651134999943
 31
0.0
  0
LINE
  5
2160B
330
747D
100
AcDbEntity
  8
細線
 48
50.0
100
AcDbLine
 10
5984.353563117909
 20
1357.651134999944
 30
0.0
 11
6080.353563117909
 21
1453.651134999943
 31
0.0
  0
LINE
  5
2160C
330
747D
100
AcDbEntity
  8
部品1
 48
50.0
100
AcDbLine
 10
6037.555698700836
 20
1469.651134999943
 30
0.0
 11
6037.555698700836
 21
1453.651134999943
 31
0.0
  0
LINE
  5
2160D
330
747D
100
AcDbEntity
  8
細線
 48
50.0
100
AcDbLine
 10
5977.941119367937
 20
1333.651134999944
 30
0.0
 11
5971.510338749588
 21
1357.651134999944
 31
0.0
  0
LINE
  5
2160E
330
747D
100
AcDbEntity
  8
細線
 48
50.0
100
AcDbLine
 10
5901.555698700835
 20
1342.991055965724
 30
0.0
 11
5905.483855039031
 21
1357.651134999944
 31
0.0
  0
LINE
  5
2160F
330
747D
100
AcDbEntity
  8
部品1
 48
50.0
100
AcDbLine
 10
6197.555698700836
 20
1535.778349697066
 30
0.0
 11
6181.555698700836
 21
1535.778349697066
 31
0.0
  0
CIRCLE
  5
21610
330
747D
100
AcDbEntity
  8
部品1
 48
50.0
100
AcDbCircle
 10
6077.555698700836
 20
1477.651134999943
 30
0.0
 40
8.0
  0
LINE
  5
21611
330
747D
100
AcDbEntity
  8
細線
 48
50.0
100
AcDbLine
 10
6150.235099844325
 20
1469.651134999943
 30
0.0
 11
6181.555698700836
 21
1500.971733856455
 31
0.0
  0
ARC
  5
21612
330
747D
100
AcDbEntity
  8
部品1
 48
50.0
100
AcDbCircle
 10
6205.555698700836
 20
1477.651134999943
 30
0.0
 40
24.0
100
AcDbArc
 50
180.0
 51
199.4712206344927
  0
LINE
  5
21613
330
747D
100
AcDbEntity
  8
細線
 48
50.0
100
AcDbLine
 10
6056.829164315187
 20
1333.651134999944
 30
0.0
 11
6050.39838369684
 21
1357.651134999944
 31
0.0
  0
LINE
  5
21614
330
747D
100
AcDbEntity
  8
細線
 48
50.0
100
AcDbLine
 10
6135.717209262439
 20
1333.651134999944
 30
0.0
 11
6129.286428644094
 21
1357.651134999944
 31
0.0
  0
LINE
  5
21615
330
747D
100
AcDbEntity
  8
細線
 48
50.0
100
AcDbLine
 10
6038.235099844325
 20
1357.651134999944
 30
0.0
 11
6134.235099844325
 21
1453.651134999943
 31
0.0
  0
LINE
  5
21616
330
747D
100
AcDbEntity
  8
部品1
 48
50.0
100
AcDbLine
 10
6181.555698700836
 20
1535.778349697066
 30
0.0
 11
6181.555698700836
 21
1477.651134999943
 31
0.0
  0
LINE
  5
21617
330
747D
100
AcDbEntity
  8
細線
 48
50.0
100
AcDbLine
 10
6123.294331481119
 20
1469.651134999943
 30
0.0
 11
6181.555698700836
 21
1527.912502219662
 31
0.0
  0
LINE
  5
21618
330
747D
100
AcDbEntity
  8
部品1
 48
50.0
100
AcDbLine
 10
6197.555698700836
 20
1535.778349697066
 30
0.0
 11
6197.555698700836
 21
1477.651134999943
 31
0.0
  0
LINE
  5
21619
330
747D
100
AcDbEntity
  8
部品1
 48
50.0
100
AcDbLine
 10
6509.55569870084
 20
1357.651134999944
 30
0.0
 11
6509.55569870084
 21
1229.651134999943
 31
0.0
  0
LINE
  5
2161A
330
747D
100
AcDbEntity
  8
細線
 48
50.0
100
AcDbLine
 10
6423.402673038589
 20
1229.651134999943
 30
0.0
 11
6457.700169669775
 21
1357.651134999942
 31
0.0
  0
LINE
  5
2161B
330
747D
100
AcDbEntity
  8
細線
 48
50.0
100
AcDbLine
 10
6265.626583144095
 20
1229.651134999943
 30
0.0
 11
6299.924079775282
 21
1357.651134999942
 31
0.0
  0
LINE
  5
2161C
330
747D
100
AcDbEntity
  8
細線
 48
50.0
100
AcDbLine
 10
6344.514628091344
 20
1229.651134999942
 30
0.0
 11
6378.812124722529
 21
1357.651134999942
 31
0.0
  0
LINE
  5
2161D
330
747D
100
AcDbEntity
  8
細線
 48
50.0
100
AcDbLine
 10
6350.945408709694
 20
1253.651134999943
 30
0.0
 11
6357.376189328042
 21
1229.651134999943
 31
0.0
  0
LINE
  5
2161E
330
747D
100
AcDbEntity
  8
細線
 48
50.0
100
AcDbLine
 10
6272.057363762448
 20
1253.651134999943
 30
0.0
 11
6278.488144380794
 21
1229.651134999943
 31
0.0
  0
LINE
  5
2161F
330
747D
100
AcDbEntity
  8
細線
 48
50.0
100
AcDbLine
 10
6429.833453656941
 20
1253.651134999943
 30
0.0
 11
6436.264234275289
 21
1229.651134999943
 31
0.0
  0
LINE
  5
21620
330
747D
100
AcDbEntity
  8
細線
 48
50.0
100
AcDbLine
 10
6508.721498604188
 20
1253.651134999943
 30
0.0
 11
6509.555698700836
 21
1250.537857855579
 31
0.0
  0
LINE
  5
21621
330
747D
100
AcDbEntity
  8
細線
 48
50.0
100
AcDbLine
 10
6502.290717985838
 20
1229.651134999942
 30
0.0
 11
6509.555698700836
 21
1256.764412144332
 31
0.0
  0
LINE
  5
21622
330
747D
100
AcDbEntity
  8
細線
 48
50.0
100
AcDbLine
 10
6365.761246749983
 20
1469.651134999943
 30
0.0
 11
6429.555698700835
 21
1533.445586950795
 31
0.0
  0
CIRCLE
  5
21623
330
747D
100
AcDbEntity
  8
部品1
 48
50.0
100
AcDbCircle
 10
6333.555698700836
 20
1477.651134999943
 30
0.0
 40
8.0
  0
ARC
  5
21624
330
747D
100
AcDbEntity
  8
部品1
 48
50.0
100
AcDbCircle
 10
6205.555698700836
 20
1477.651134999943
 30
0.0
 40
24.0
100
AcDbArc
 50
340.5287793655072
 51
0.0
  0
LINE
  5
21625
330
747D
100
AcDbEntity
  8
細線
 48
50.0
100
AcDbLine
 10
6214.605254209693
 20
1333.651134999944
 30
0.0
 11
6208.174473591345
 21
1357.651134999944
 31
0.0
  0
LINE
  5
21626
330
747D
100
AcDbEntity
  8
細線
 48
50.0
100
AcDbLine
 10
6293.493299156938
 20
1333.651134999944
 30
0.0
 11
6287.062518538592
 21
1357.651134999944
 31
0.0
  0
LINE
  5
21627
330
747D
100
AcDbEntity
  8
細線
 48
50.0
100
AcDbLine
 10
6226.820478386779
 20
1357.651134999944
 30
0.0
 11
6322.82047838678
 21
1453.651134999943
 31
0.0
  0
LINE
  5
21628
330
747D
100
AcDbEntity
  8
細線
 48
50.0
100
AcDbLine
 10
6253.761246749983
 20
1357.651134999944
 30
0.0
 11
6349.76213459512
 21
1453.652022845083
 31
0.0
  0
LINE
  5
21629
330
747D
100
AcDbEntity
  8
部品1
 48
50.0
100
AcDbLine
 10
6373.555698700836
 20
1469.651134999943
 30
0.0
 11
6373.555698700836
 21
1453.651134999943
 31
0.0
  0
LINE
  5
2162A
330
747D
100
AcDbEntity
  8
細線
 48
50.0
100
AcDbLine
 10
6451.26938905143
 20
1333.651134999944
 30
0.0
 11
6444.838608433082
 21
1357.651134999944
 31
0.0
  0
LINE
  5
2162B
330
747D
100
AcDbEntity
  8
細線
 48
50.0
100
AcDbLine
 10
6415.405856929229
 20
1357.651134999944
 30
0.0
 11
6429.555698700835
 21
1371.80097677155
 31
0.0
  0
LINE
  5
2162C
330
747D
100
AcDbEntity
  8
細線
 48
50.0
100
AcDbLine
 10
6372.381344104184
 20
1333.651134999944
 30
0.0
 11
6365.950563485837
 21
1357.651134999944
 31
0.0
  0
LINE
  5
2162D
330
747D
100
AcDbEntity
  8
細線
 48
50.0
100
AcDbLine
 10
6109.555698700836
 20
1671.438649125322
 30
0.0
 11
6213.555698700841
 21
1775.438649125324
 31
0.0
  0
LINE
  5
2162E
330
747D
100
AcDbEntity
  8
細線
 48
50.0
100
AcDbLine
 10
6109.555698700836
 20
1698.37941748853
 30
0.0
 11
6213.555698700836
 21
1802.379417488529
 31
0.0
  0
LINE
  5
2162F
330
747D
100
AcDbEntity
  8
細線
 48
50.0
100
AcDbLine
 10
6109.555698700836
 20
1644.497880762115
 30
0.0
 11
6213.555698700841
 21
1748.497880762115
 31
0.0
  0
LINE
  5
21630
330
747D
100
AcDbEntity
  8
細線
 48
50.0
100
AcDbLine
 10
6197.555698700836
 20
1948.024027667774
 30
0.0
 11
6213.555698700836
 21
1964.024027667774
 31
0.0
  0
LINE
  5
21631
330
747D
100
AcDbEntity
  8
細線
 48
50.0
100
AcDbLine
 10
6197.555698700836
 20
1974.964796030981
 30
0.0
 11
6213.555698700836
 21
1990.964796030981
 31
0.0
  0
LINE
  5
21632
330
747D
100
AcDbEntity
  8
部品1
 48
50.0
100
AcDbLine
 10
5981.555698700836
 20
1597.651134999944
 30
0.0
 11
6109.555698700836
 21
1597.651134999944
 31
0.0
  0
LINE
  5
21633
330
747D
100
AcDbEntity
  8
細線
 48
50.0
100
AcDbLine
 10
5981.555698700828
 20
1543.438649125319
 30
0.0
 11
6035.76818457546
 21
1597.651134999944
 31
0.0
  0
LINE
  5
21634
330
747D
100
AcDbEntity
  8
細線
 48
50.0
100
AcDbLine
 10
5981.555698700828
 20
1570.37941748853
 30
0.0
 11
6008.82741621225
 21
1597.651134999944
 31
0.0
  0
LINE
  5
21635
330
747D
100
AcDbEntity
  8
部品1
 48
50.0
100
AcDbLine
 10
6197.555698700836
 20
1943.778349697066
 30
0.0
 11
6181.555698700836
 21
1943.778349697069
 31
0.0
  0
LINE
  5
21636
330
747D
100
AcDbEntity
  8
細線
 48
50.0
100
AcDbLine
 10
6109.555698700836
 20
1860.024027667774
 30
0.0
 11
6193.310020730129
 21
1943.778349697066
 31
0.0
  0
LINE
  5
21637
330
747D
100
AcDbEntity
  8
細線
 48
50.0
100
AcDbLine
 10
6109.555698700836
 20
1886.964796030981
 30
0.0
 11
6181.555698700836
 21
1958.964796030981
 31
0.0
  0
LINE
  5
21638
330
747D
100
AcDbEntity
  8
部品1
 48
50.0
100
AcDbLine
 10
6181.555698700836
 20
1943.778349697069
 30
0.0
 11
6181.555698700836
 21
2001.905564394189
 31
0.0
  0
LINE
  5
21639
330
747D
100
AcDbEntity
  8
細線
 48
50.0
100
AcDbLine
 10
6109.555698700836
 20
1913.905564394189
 30
0.0
 11
6181.555698700836
 21
1985.905564394189
 31
0.0
  0
LINE
  5
2163A
330
747D
100
AcDbEntity
  8
部品1
 48
50.0
100
AcDbLine
 10
6197.555698700836
 20
1943.778349697066
 30
0.0
 11
6197.555698700836
 21
2001.905564394189
 31
0.0
  0
LINE
  5
2163B
330
747D
100
AcDbEntity
  8
細線
 48
50.0
100
AcDbLine
 10
6229.555698700842
 20
1764.497880762115
 30
0.0
 11
6301.555698700829
 21
1836.497880762114
 31
0.0
  0
LINE
  5
2163C
330
747D
100
AcDbEntity
  8
部品1
 48
50.0
100
AcDbLine
 10
6301.555698700836
 20
1597.651134999944
 30
0.0
 11
6429.555698700835
 21
1597.651134999944
 31
0.0
  0
LINE
  5
2163D
330
747D
100
AcDbEntity
  8
細線
 48
50.0
100
AcDbLine
 10
6229.555698700842
 20
1575.912502219665
 30
0.0
 11
6301.555698700829
 21
1647.912502219659
 31
0.0
  0
LINE
  5
2163E
330
747D
100
AcDbEntity
  8
細線
 48
50.0
100
AcDbLine
 10
6229.555698700842
 20
1602.853270582873
 30
0.0
 11
6301.555698700829
 21
1674.853270582869
 31
0.0
  0
LINE
  5
2163F
330
747D
100
AcDbEntity
  8
細線
 48
50.0
100
AcDbLine
 10
6229.555698700842
 20
1548.971733856455
 30
0.0
 11
6301.555698700829
 21
1620.971733856455
 31
0.0
  0
LINE
  5
21640
330
747D
100
AcDbEntity
  8
細線
 48
50.0
100
AcDbLine
 10
6229.555698700836
 20
1818.379417488529
 30
0.0
 11
6301.555698700836
 21
1890.37941748853
 31
0.0
  0
LINE
  5
21641
330
747D
100
AcDbEntity
  8
細線
 48
50.0
100
AcDbLine
 10
6229.555698700842
 20
1791.438649125324
 30
0.0
 11
6301.555698700829
 21
1863.438649125319
 31
0.0
  0
MTEXT
  5
21642
102
{ACAD_REACTORS
330
215ED
102
}
330
747D
100
AcDbEntity
  8
寸法
 62
     7
 48
50.0
100
AcDbMText
 10
6543.294154562087
 20
1180.30204926779
 30
0.0
 40
80.0
 41
0.8
 71
     4
 72
     1
  1
\A1;D10@300
  7
STYLE2
 73
     1
 44
1.0
1001
ACAD
1000
MTEXTBEGIN
1070
    73
1070
     1
1070
    44
1040
1.0
1070
    74
1070
     0
1000
MTEXTEND
  0
DIMENSION
  5
21643
330
747D
100
AcDbEntity
  8
寸法
 48
50.0
100
AcDbDimension
  2
*D47
 10
6109.555698700835
 20
2461.651134999944
 30
0.0
 11
6216.782029046033
 21
2561.318942916325
 31
0.0
 70
   160
  1
120\P195
 71
     5
 42
192.0
  3
INABA_S40G
100
AcDbAlignedDimension
 13
6301.555698700835
 23
2141.651134999944
 33
0.0
 14
6109.555698700835
 24
2141.651134999944
 34
0.0
100
AcDbRotatedDimension
1001
ACAD
1000
DSTYLE
1002
{
1070
   174
1070
     0
1070
   272
1070
     1
1070
   279
1070
     1
1070
   288
1070
     0
1070
   341
1005
0
1002
}
  0
LINE
  5
21644
330
747D
100
AcDbEntity
  8
部品1
 48
50.0
100
AcDbLine
 10
6109.555698700836
 20
2141.651134999944
 30
0.0
 11
6301.555698700836
 21
2141.651134999944
 31
0.0
  0
LINE
  5
21645
330
747D
100
AcDbEntity
  8
細線
 48
50.0
100
AcDbLine
 10
6109.555698700836
 20
2102.490942936642
 30
0.0
 11
6148.71589076414
 21
2141.651134999944
 31
0.0
  0
LINE
  5
21646
330
747D
100
AcDbEntity
  8
細線
 48
50.0
100
AcDbLine
 10
6109.555698700836
 20
2075.550174573434
 30
0.0
 11
6175.656659127344
 21
2141.651134999944
 31
0.0
  0
LINE
  5
21647
330
747D
100
AcDbEntity
  8
細線
 48
50.0
100
AcDbLine
 10
6109.555698700836
 20
2129.431711299849
 30
0.0
 11
6121.77512240093
 21
2141.651134999944
 31
0.0
  0
LINE
  5
21648
330
747D
100
AcDbEntity
  8
細線
 48
50.0
100
AcDbLine
 10
6229.108405966822
 20
2006.517503296965
 30
0.0
 11
6301.555698700836
 21
2078.964796030982
 31
0.0
  0
LINE
  5
21649
330
747D
100
AcDbEntity
  8
細線
 48
50.0
100
AcDbLine
 10
6218.048121203306
 20
2022.39798689666
 30
0.0
 11
6301.555698700836
 21
2105.905564394189
 31
0.0
  0
LINE
  5
2164A
330
747D
100
AcDbEntity
  8
細線
 48
50.0
100
AcDbLine
 10
8093.99501187803
 20
1982.779417488532
 30
0.0
 11
8223.59501187803
 21
2112.379417488531
 31
0.0
  0
LINE
  5
2164B
330
747D
100
AcDbEntity
  8
部品1
100
AcDbLine
 10
8223.595011878028
 20
1597.651134999944
 30
0.0
 11
8223.59501187803
 21
2141.651134999944
 31
0.0
  0
LINE
  5
2164C
330
747D
100
AcDbEntity
  8
部品1
 48
50.0
100
AcDbLine
 10
7809.595011878029
 20
1597.651134999944
 30
0.0
 11
7809.595011878029
 21
2141.651134999944
 31
0.0
  0
LINE
  5
2164D
330
747D
100
AcDbEntity
  8
細線
 48
50.0
100
AcDbLine
 10
7809.595011878029
 20
1913.905564394189
 30
0.0
 11
7967.99501187803
 21
2072.305564394186
 31
0.0
  0
LINE
  5
2164E
330
747D
100
AcDbEntity
  8
細線
 48
50.0
100
AcDbLine
 10
7809.595011878029
 20
1886.964796030981
 30
0.0
 11
7967.99501187803
 21
2045.364796030979
 31
0.0
  0
LINE
  5
2164F
330
747D
100
AcDbEntity
  8
細線
 48
50.0
100
AcDbLine
 10
7809.595011878029
 20
1860.024027667774
 30
0.0
 11
7967.995011878025
 21
2018.424027667767
 31
0.0
  0
TEXT
  5
21650
330
747D
100
AcDbEntity
  8
部品1
 48
50.0
100
AcDbText
 10
7395.455110045074
 20
1912.890127283199
 30
0.0
 40
80.0
  1
▽G.L
  7
STYLE2
100
AcDbText
  0
LINE
  5
21651
330
747D
100
AcDbEntity
  8
部品1
100
AcDbLine
 10
8039.99501187803
 20
1916.651134999943
 30
0.0
 11
8039.995011878025
 21
2190.811134999945
 31
0.0
  0
LINE
  5
21652
330
747D
100
AcDbEntity
  8
部品1
100
AcDbLine
 10
8021.995011878029
 20
1916.651134999943
 30
0.0
 11
8021.995011878026
 21
2190.811134999945
 31
0.0
  0
LINE
  5
21653
330
747D
100
AcDbEntity
  8
細線
 48
50.0
100
AcDbLine
 10
8093.99501187803
 20
1928.897880762102
 30
0.0
 11
8223.59501187803
 21
2058.497880762094
 31
0.0
  0
LINE
  5
21654
330
747D
100
AcDbEntity
  8
細線
 48
50.0
100
AcDbLine
 10
8093.99501187803
 20
1955.838649125315
 30
0.0
 11
8223.59501187803
 21
2085.438649125312
 31
0.0
  0
LINE
  5
21655
330
747D
100
AcDbEntity
  8
部品1
100
AcDbLine
 10
8093.995011878028
 20
1817.651134999944
 30
0.0
 11
8093.995011878028
 21
2141.651134999944
 31
0.0
  0
LINE
  5
21656
330
747D
100
AcDbEntity
  8
部品1
100
AcDbLine
 10
7967.995011878024
 20
1817.651134999944
 30
0.0
 11
7967.99501187803
 21
2141.651134999944
 31
0.0
  0
LINE
  5
21657
330
747D
100
AcDbEntity
  8
細線
 48
50.0
100
AcDbLine
 10
7809.595011878029
 20
1671.438649125322
 30
0.0
 11
7967.995011878021
 21
1829.83864912531
 31
0.0
  0
LINE
  5
21658
330
747D
100
AcDbEntity
  8
細線
 48
50.0
100
AcDbLine
 10
7809.595011878029
 20
1644.497880762115
 30
0.0
 11
7982.748266115866
 21
1817.651134999942
 31
0.0
  0
LINE
  5
21659
330
747D
100
AcDbEntity
  8
細線
 48
50.0
100
AcDbLine
 10
7809.595011878029
 20
1698.37941748853
 30
0.0
 11
7967.995011878021
 21
1856.779417488525
 31
0.0
  0
LINE
  5
2165A
330
747D
100
AcDbEntity
  8
細線
 48
50.0
100
AcDbLine
 10
7738.274413021518
 20
1357.651134999944
 30
0.0
 11
8223.59501187803
 21
1842.971733856451
 31
0.0
  0
LINE
  5
2165B
330
747D
100
AcDbEntity
  8
細線
 48
50.0
100
AcDbLine
 10
7711.333644658314
 20
1357.651134999944
 30
0.0
 11
8223.59501187803
 21
1869.912502219657
 31
0.0
  0
LINE
  5
2165C
330
747D
100
AcDbEntity
  8
細線
 48
50.0
100
AcDbLine
 10
7684.392876295103
 20
1357.651134999944
 30
0.0
 11
8223.595011878028
 21
1896.853270582869
 31
0.0
  0
LINE
  5
2165D
330
747D
100
AcDbEntity
  8
部品1
 48
50.0
100
AcDbLine
 10
8431.59501187803
 20
1357.651134999944
 30
0.0
 11
7601.595011878031
 21
1357.651134999944
 31
0.0
  0
LINE
  5
2165E
330
747D
100
AcDbEntity
  8
部品1
 48
50.0
100
AcDbLine
 10
8431.59501187803
 20
1229.651134999943
 30
0.0
 11
7601.595011878031
 21
1229.651134999943
 31
0.0
  0
LINE
  5
2165F
330
747D
100
AcDbEntity
  8
細線
 48
50.0
100
AcDbLine
 10
7681.595011878023
 20
1516.497880762115
 30
0.0
 11
7762.748266115858
 21
1597.651134999944
 31
0.0
  0
LINE
  5
21660
330
747D
100
AcDbEntity
  8
部品1
 48
50.0
100
AcDbLine
 10
7681.595011878029
 20
1357.651134999944
 30
0.0
 11
7681.595011878029
 21
1597.651134999944
 31
0.0
  0
LINE
  5
21661
330
747D
100
AcDbEntity
  8
細線
 48
50.0
100
AcDbLine
 10
7729.001761479548
 20
1229.651134999943
 30
0.0
 11
7763.299258110729
 21
1357.651134999944
 31
0.0
  0
LINE
  5
21662
330
747D
100
AcDbEntity
  8
部品1
 48
50.0
100
AcDbLine
 10
7601.595011878031
 20
1229.651134999943
 30
0.0
 11
7601.595011878031
 21
1357.651134999944
 31
0.0
  0
LINE
  5
21663
330
747D
100
AcDbEntity
  8
細線
 48
50.0
100
AcDbLine
 10
7650.113716532287
 20
1229.651134999942
 30
0.0
 11
7684.411213163471
 21
1357.651134999942
 31
0.0
  0
LINE
  5
21664
330
747D
100
AcDbEntity
  8
細線
 48
50.0
100
AcDbLine
 10
7807.889806426793
 20
1229.651134999942
 30
0.0
 11
7842.187303057973
 21
1357.651134999942
 31
0.0
  0
LINE
  5
21665
330
747D
100
AcDbEntity
  8
細線
 48
50.0
100
AcDbLine
 10
7656.54449715064
 20
1253.651134999943
 30
0.0
 11
7662.975277768985
 21
1229.651134999943
 31
0.0
  0
LINE
  5
21666
330
747D
100
AcDbEntity
  8
細線
 48
50.0
100
AcDbLine
 10
7814.320587045145
 20
1253.651134999943
 30
0.0
 11
7820.751367663492
 21
1229.651134999943
 31
0.0
  0
LINE
  5
21667
330
747D
100
AcDbEntity
  8
細線
 48
50.0
100
AcDbLine
 10
7735.432542097893
 20
1253.651134999943
 30
0.0
 11
7741.863322716239
 21
1229.651134999943
 31
0.0
  0
LINE
  5
21668
330
747D
100
AcDbEntity
  8
細線
 48
50.0
100
AcDbLine
 10
7601.595011878029
 20
1342.991055965724
 30
0.0
 11
7605.523168216224
 21
1357.651134999944
 31
0.0
  0
LINE
  5
21669
330
747D
100
AcDbEntity
  8
細線
 48
50.0
100
AcDbLine
 10
7677.98043254513
 20
1333.651134999944
 30
0.0
 11
7671.549651926783
 21
1357.651134999944
 31
0.0
  0
LINE
  5
2166A
330
747D
100
AcDbEntity
  8
細線
 48
50.0
100
AcDbLine
 10
7835.756522439635
 20
1333.651134999944
 30
0.0
 11
7829.325741821287
 21
1357.651134999944
 31
0.0
  0
LINE
  5
2166B
330
747D
100
AcDbEntity
  8
細線
 48
50.0
100
AcDbLine
 10
7756.868477492382
 20
1333.651134999944
 30
0.0
 11
7750.437696874036
 21
1357.651134999944
 31
0.0
  0
LWPOLYLINE
  5
2166C
330
747D
100
AcDbEntity
  8
部品1
 48
50.0
100
AcDbPolyline
 90
        2
 70
     0
 43
8.0
 10
7395.455110045074
 20
1901.651134999944
 10
7809.595011878029
 20
1901.651134999944
  0
LINE
  5
2166D
330
747D
100
AcDbEntity
  8
細線
 48
50.0
100
AcDbLine
 10
7681.595011878023
 20
1543.438649125319
 30
0.0
 11
7735.807497752654
 21
1597.651134999944
 31
0.0
  0
LINE
  5
2166E
330
747D
100
AcDbEntity
  8
部品1
 48
50.0
100
AcDbLine
 10
7681.595011878029
 20
1597.651134999944
 30
0.0
 11
7809.595011878029
 21
1597.651134999944
 31
0.0
  0
LINE
  5
2166F
330
747D
100
AcDbEntity
  8
細線
 48
50.0
100
AcDbLine
 10
7681.595011878023
 20
1570.37941748853
 30
0.0
 11
7708.866729389443
 21
1597.651134999944
 31
0.0
  0
LINE
  5
21670
330
747D
100
AcDbEntity
  8
細線
 48
50.0
100
AcDbLine
 10
7926.859791563973
 20
1357.651134999944
 30
0.0
 11
8223.59501187803
 21
1654.386355313996
 31
0.0
  0
LINE
  5
21671
330
747D
100
AcDbEntity
  8
細線
 48
50.0
100
AcDbLine
 10
7953.800559927178
 20
1357.651134999944
 30
0.0
 11
8223.59501187803
 21
1627.445586950801
 31
0.0
  0
LINE
  5
21672
330
747D
100
AcDbEntity
  8
細線
 48
50.0
100
AcDbLine
 10
7899.919023200765
 20
1357.651134999944
 30
0.0
 11
8223.595011878028
 21
1681.32712367721
 31
0.0
  0
LINE
  5
21673
330
747D
100
AcDbEntity
  8
細線
 48
50.0
100
AcDbLine
 10
8115.445170106424
 20
1357.651134999944
 30
0.0
 11
8351.595011878028
 21
1593.800976771552
 31
0.0
  0
LINE
  5
21674
330
747D
100
AcDbEntity
  8
細線
 48
50.0
100
AcDbLine
 10
8142.385938469635
 20
1357.651134999944
 30
0.0
 11
8351.595011878028
 21
1566.860208408337
 31
0.0
  0
LINE
  5
21675
330
747D
100
AcDbEntity
  8
部品1
 48
50.0
100
AcDbLine
 10
8351.595011878028
 20
1597.651134999944
 30
0.0
 11
8351.595011878028
 21
1357.651134999944
 31
0.0
  0
LINE
  5
21676
330
747D
100
AcDbEntity
  8
細線
 48
50.0
100
AcDbLine
 10
8169.326706832839
 20
1357.651134999944
 30
0.0
 11
8351.595011878028
 21
1539.91944004514
 31
0.0
  0
LINE
  5
21677
330
747D
100
AcDbEntity
  8
細線
 48
50.0
100
AcDbLine
 10
8044.553941268539
 20
1229.651134999942
 30
0.0
 11
8078.85143789972
 21
1357.651134999942
 31
0.0
  0
LINE
  5
21678
330
747D
100
AcDbEntity
  8
細線
 48
50.0
100
AcDbLine
 10
7886.777851374045
 20
1229.651134999943
 30
0.0
 11
7921.075348005226
 21
1357.651134999944
 31
0.0
  0
LINE
  5
21679
330
747D
100
AcDbEntity
  8
細線
 48
50.0
100
AcDbLine
 10
7965.66589632129
 20
1229.651134999943
 30
0.0
 11
7999.963392952475
 21
1357.651134999942
 31
0.0
  0
LINE
  5
2167A
330
747D
100
AcDbEntity
  8
細線
 48
50.0
100
AcDbLine
 10
8123.44198621578
 20
1229.651134999943
 30
0.0
 11
8157.739482846968
 21
1357.651134999942
 31
0.0
  0
LINE
  5
2167B
330
747D
100
AcDbEntity
  8
細線
 48
50.0
100
AcDbLine
 10
7972.096676939644
 20
1253.651134999943
 30
0.0
 11
7978.527457557991
 21
1229.651134999943
 31
0.0
  0
LINE
  5
2167C
330
747D
100
AcDbEntity
  8
細線
 48
50.0
100
AcDbLine
 10
7893.208631992397
 20
1253.651134999943
 30
0.0
 11
7899.639412610745
 21
1229.651134999943
 31
0.0
  0
LINE
  5
2167D
330
747D
100
AcDbEntity
  8
細線
 48
50.0
100
AcDbLine
 10
8129.872766834134
 20
1253.651134999943
 30
0.0
 11
8136.303547452481
 21
1229.651134999943
 31
0.0
  0
LINE
  5
2167E
330
747D
100
AcDbEntity
  8
細線
 48
50.0
100
AcDbLine
 10
8050.984721886889
 20
1253.651134999943
 30
0.0
 11
8057.415502505234
 21
1229.651134999943
 31
0.0
  0
LINE
  5
2167F
330
747D
100
AcDbEntity
  8
細線
 48
50.0
100
AcDbLine
 10
7993.532612334132
 20
1333.651134999944
 30
0.0
 11
7987.101831715785
 21
1357.651134999944
 31
0.0
  0
LINE
  5
21680
330
747D
100
AcDbEntity
  8
細線
 48
50.0
100
AcDbLine
 10
7914.644567386885
 20
1333.651134999944
 30
0.0
 11
7908.213786768538
 21
1357.651134999944
 31
0.0
  0
LINE
  5
21681
330
747D
100
AcDbEntity
  8
細線
 48
50.0
100
AcDbLine
 10
8072.420657281378
 20
1333.651134999944
 30
0.0
 11
8065.989876663032
 21
1357.651134999944
 31
0.0
  0
LINE
  5
21682
330
747D
100
AcDbEntity
  8
細線
 48
50.0
100
AcDbLine
 10
8151.308702228623
 20
1333.651134999944
 30
0.0
 11
8144.877921610278
 21
1357.651134999944
 31
0.0
  0
LINE
  5
21683
330
747D
100
AcDbEntity
  8
部品1
 48
50.0
100
AcDbLine
 10
8431.59501187803
 20
1357.651134999944
 30
0.0
 11
8431.59501187803
 21
1229.651134999943
 31
0.0
  0
LINE
  5
21684
330
747D
100
AcDbEntity
  8
細線
 48
50.0
100
AcDbLine
 10
8360.106121057524
 20
1229.651134999942
 30
0.0
 11
8394.403617688709
 21
1357.651134999941
 31
0.0
  0
LINE
  5
21685
330
747D
100
AcDbEntity
  8
細線
 48
50.0
100
AcDbLine
 10
8202.330031163031
 20
1229.651134999942
 30
0.0
 11
8236.627527794203
 21
1357.651134999944
 31
0.0
  0
LINE
  5
21686
330
747D
100
AcDbEntity
  8
細線
 48
50.0
100
AcDbLine
 10
8281.218076110279
 20
1229.651134999941
 30
0.0
 11
8315.515572741464
 21
1357.651134999941
 31
0.0
  0
LINE
  5
21687
330
747D
100
AcDbEntity
  8
細線
 48
50.0
100
AcDbLine
 10
8208.760811781379
 20
1253.651134999943
 30
0.0
 11
8215.191592399737
 21
1229.651134999943
 31
0.0
  0
LINE
  5
21688
330
747D
100
AcDbEntity
  8
細線
 48
50.0
100
AcDbLine
 10
8287.648856728628
 20
1253.651134999942
 30
0.0
 11
8294.079637346975
 21
1229.651134999942
 31
0.0
  0
LINE
  5
21689
330
747D
100
AcDbEntity
  8
細線
 48
50.0
100
AcDbLine
 10
8366.536901675875
 20
1253.651134999942
 30
0.0
 11
8372.967682294223
 21
1229.651134999942
 31
0.0
  0
LINE
  5
2168A
330
747D
100
AcDbEntity
  8
細線
 48
50.0
100
AcDbLine
 10
8230.196747175861
 20
1333.651134999944
 30
0.0
 11
8223.765966557515
 21
1357.651134999944
 31
0.0
  0
LINE
  5
2168B
330
747D
100
AcDbEntity
  8
細線
 48
50.0
100
AcDbLine
 10
8309.084792123119
 20
1333.651134999942
 30
0.0
 11
8302.654011504772
 21
1357.651134999942
 31
0.0
  0
LINE
  5
2168C
330
747D
100
AcDbEntity
  8
細線
 48
50.0
100
AcDbLine
 10
8387.972837070362
 20
1333.651134999942
 30
0.0
 11
8381.542056452017
 21
1357.651134999942
 31
0.0
  0
LINE
  5
2168D
330
747D
100
AcDbEntity
  8
部品1
100
AcDbLine
 10
8093.995011878028
 20
1817.651134999942
 30
0.0
 11
7967.995011878024
 21
1817.651134999942
 31
0.0
  0
LINE
  5
2168E
330
747D
100
AcDbEntity
  8
部品1
100
AcDbLine
 10
8075.995011878029
 20
1898.651134999943
 30
0.0
 11
8075.995011878029
 21
1916.651134999943
 31
0.0
  0
ARC
  5
2168F
330
747D
100
AcDbEntity
  8
部品1
100
AcDbCircle
 10
8039.99501187803
 20
1916.651134999943
 30
0.0
 40
18.0
100
AcDbArc
 50
180.0
 51
270.0
  0
LINE
  5
21690
330
747D
100
AcDbEntity
  8
部品1
100
AcDbLine
 10
8039.99501187803
 20
1898.651134999943
 30
0.0
 11
8075.995011878029
 21
1898.651134999943
 31
0.0
  0
LINE
  5
21691
330
747D
100
AcDbEntity
  8
部品1
100
AcDbLine
 10
8039.99501187803
 20
1916.651134999943
 30
0.0
 11
8075.995011878029
 21
1916.651134999943
 31
0.0
  0
LINE
  5
21692
330
747D
100
AcDbEntity
  8
部品1
 48
50.0
100
AcDbLine
 10
8223.59501187803
 20
1597.651134999944
 30
0.0
 11
8351.595011878028
 21
1597.651134999944
 31
0.0
  0
LINE
  5
21693
330
747D
100
AcDbEntity
  8
部品1
100
AcDbLine
 10
7829.39501187803
 20
2231.651134999944
 30
0.0
 11
7867.19501187803
 21
2231.651134999944
 31
0.0
  0
LINE
  5
21694
330
747D
100
AcDbEntity
  8
細線
 48
50.0
100
AcDbLine
 10
7809.595011878029
 20
2102.490942936642
 30
0.0
 11
7848.755203941334
 21
2141.651134999944
 31
0.0
  0
LINE
  5
21695
330
747D
100
AcDbEntity
  8
細線
 48
50.0
100
AcDbLine
 10
7809.595011878029
 20
2075.550174573434
 30
0.0
 11
7875.69597230454
 21
2141.651134999944
 31
0.0
  0
LINE
  5
21696
330
747D
100
AcDbEntity
  8
部品1
 48
50.0
100
AcDbLine
 10
7809.595011878029
 20
2141.651134999944
 30
0.0
 11
8223.59501187803
 21
2141.651134999944
 31
0.0
  0
TEXT
  5
21697
330
747D
100
AcDbEntity
  8
部品1
 48
50.0
100
AcDbText
 10
7383.148915298538
 20
2472.21165610042
 30
0.0
 40
80.0
  1
※(別売)
  7
STYLE2
100
AcDbText
  0
LINE
  5
21698
330
747D
100
AcDbEntity
  8
部品1
100
AcDbLine
 10
7826.69501187803
 20
2220.851134999944
 30
0.0
 11
7826.69501187803
 21
2228.951134999944
 31
0.0
  0
ARC
  5
21699
330
747D
100
AcDbEntity
  8
部品1
100
AcDbCircle
 10
7829.39501187803
 20
2228.951134999944
 30
0.0
 40
2.7
100
AcDbArc
 50
90.0
 51
180.0
  0
ARC
  5
2169A
330
747D
100
AcDbEntity
  8
部品1
100
AcDbCircle
 10
7818.59501187803
 20
2216.043038702652
 30
0.0
 40
2.7
100
AcDbArc
 50
104.0362434679067
 51
180.0
  0
LINE
  5
2169B
330
747D
100
AcDbEntity
  8
部品1
100
AcDbLine
 10
7817.94016569043
 20
2218.662423453044
 30
0.0
 11
7826.69501187803
 21
2220.851134999944
 31
0.0
  0
ARC
  5
2169C
330
747D
100
AcDbEntity
  8
部品1
100
AcDbCircle
 10
7818.59501187803
 20
2153.911134999944
 30
0.0
 40
2.7
100
AcDbArc
 50
180.0
 51
270.0
  0
LINE
  5
2169D
330
747D
100
AcDbEntity
  8
細線
 48
50.0
100
AcDbLine
 10
7809.595011878029
 20
2129.431711299849
 30
0.0
 11
7821.814435578125
 21
2141.651134999944
 31
0.0
  0
LINE
  5
2169E
330
747D
100
AcDbEntity
  8
部品1
100
AcDbLine
 10
7818.59501187803
 20
2151.211134999944
 30
0.0
 11
7830.295011878025
 21
2151.211134999944
 31
0.0
  0
LINE
  5
2169F
330
747D
100
AcDbEntity
  8
部品1
100
AcDbLine
 10
7815.895011878031
 20
2153.911134999944
 30
0.0
 11
7815.895011878031
 21
2216.043038702652
 31
0.0
  0
LINE
  5
216A0
330
747D
100
AcDbEntity
  8
部品1
100
AcDbLine
 10
7974.555011878023
 20
2151.211134999944
 30
0.0
 11
8175.895011878024
 21
2151.211134999944
 31
0.0
  0
LINE
  5
216A1
330
747D
100
AcDbEntity
  8
部品1
100
AcDbLine
 10
7867.19501187803
 20
2231.651134999944
 30
0.0
 11
7867.19501187803
 21
2239.751134999944
 31
0.0
  0
LINE
  5
216A2
330
747D
100
AcDbEntity
  8
部品1
100
AcDbLine
 10
7917.595011878029
 20
2250.551134999941
 30
0.0
 11
7917.595011878029
 21
2199.251134999944
 31
0.0
  0
LINE
  5
216A3
330
747D
100
AcDbEntity
  8
部品1
100
AcDbLine
 10
7940.995011878029
 20
2211.211134999944
 30
0.0
 11
7969.155011878028
 21
2211.211134999944
 31
0.0
  0
ARC
  5
216A4
330
747D
100
AcDbEntity
  8
部品1
100
AcDbCircle
 10
7940.995011878029
 20
2208.511134999945
 30
0.0
 40
2.7
100
AcDbArc
 50
90.0
 51
180.0
  0
ARC
  5
216A5
330
747D
100
AcDbEntity
  8
部品1
100
AcDbCircle
 10
7969.155011878028
 20
2208.511134999945
 30
0.0
 40
2.7
100
AcDbArc
 50
0.0
 51
90.0
  0
LINE
  5
216A6
330
747D
100
AcDbEntity
  8
部品1
100
AcDbLine
 10
7959.895011878031
 20
2196.551134999944
 30
0.0
 11
7959.895011878031
 21
2153.911134999944
 31
0.0
  0
LINE
  5
216A7
330
747D
100
AcDbEntity
  8
部品1
100
AcDbLine
 10
7945.495011878029
 20
2151.211134999944
 30
0.0
 11
7957.195011878029
 21
2151.211134999944
 31
0.0
  0
ARC
  5
216A8
330
747D
100
AcDbEntity
  8
部品1
100
AcDbCircle
 10
7974.555011878023
 20
2153.911134999944
 30
0.0
 40
2.7
100
AcDbArc
 50
180.0
 51
270.0
  0
ARC
  5
216A9
330
747D
100
AcDbEntity
  8
部品1
100
AcDbCircle
 10
7957.195011878029
 20
2153.911134999944
 30
0.0
 40
2.7
100
AcDbArc
 50
270.0
 51
0.0
  0
LINE
  5
216AA
330
747D
100
AcDbEntity
  8
部品1
100
AcDbLine
 10
7917.595011878029
 20
2199.251134999944
 30
0.0
 11
7957.195011878029
 21
2199.251134999944
 31
0.0
  0
ARC
  5
216AB
330
747D
100
AcDbEntity
  8
部品1
100
AcDbCircle
 10
7957.195011878029
 20
2196.551134999944
 30
0.0
 40
2.7
100
AcDbArc
 50
0.0
 51
90.0
  0
LINE
  5
216AC
330
747D
100
AcDbEntity
  8
部品1
100
AcDbLine
 10
7971.85501187803
 20
2208.511134999945
 30
0.0
 11
7971.855011878026
 21
2153.911134999944
 31
0.0
  0
LINE
  5
216AD
330
747D
100
AcDbEntity
  8
部品1
100
AcDbLine
 10
7938.295011878029
 20
2208.511134999945
 30
0.0
 11
7938.295011878029
 21
2191.411134999944
 31
0.0
  0
LINE
  5
216AE
330
747D
100
AcDbEntity
  8
細線
100
AcDbLine
 10
8036.395011878031
 20
2151.211134999944
 30
0.0
 11
8036.395011878031
 21
2194.411134999944
 31
0.0
  0
LINE
  5
216AF
330
747D
100
AcDbEntity
  8
細線
100
AcDbLine
 10
8025.595011878031
 20
2151.211134999944
 30
0.0
 11
8025.59501187803
 21
2194.411134999944
 31
0.0
  0
LINE
  5
216B0
330
747D
100
AcDbEntity
  8
部品1
100
AcDbLine
 10
8021.995011878029
 20
2190.811134999945
 30
0.0
 11
8039.99501187803
 21
2190.811134999945
 31
0.0
  0
LINE
  5
216B1
330
747D
100
AcDbEntity
  8
部品1
100
AcDbLine
 10
8025.59501187803
 20
2194.411134999944
 30
0.0
 11
8036.395011878031
 21
2194.411134999944
 31
0.0
  0
ELLIPSE
  5
216B2
330
747D
100
AcDbEntity
  8
部品1
 48
50.0
100
AcDbEllipse
 10
8030.995011878029
 20
2410.774423444216
 30
0.0
 11
40.0
 21
0.0
 31
0.0
210
0.0
220
0.0
230
1.0
 40
0.4
 41
0.0
 42
6.283185307179586
  0
ELLIPSE
  5
216B3
330
747D
100
AcDbEntity
  8
部品1
 48
50.0
100
AcDbEllipse
 10
8030.995011878029
 20
2401.174423444217
 30
0.0
 11
40.0
 21
0.0
 31
0.0
210
0.0
220
0.0
230
1.0
 40
0.4
 41
3.141592653589793
 42
6.283185307179586
  0
LINE
  5
216B4
330
747D
100
AcDbEntity
  8
部品1
 48
50.0
100
AcDbLine
 10
7990.995011878029
 20
2410.774423444216
 30
0.0
 11
7990.995011878029
 21
2401.174423444216
 31
0.0
  0
ARC
  5
216B5
330
747D
100
AcDbEntity
  8
部品1
100
AcDbCircle
 10
7914.89501187803
 20
2250.551134999941
 30
0.0
 40
2.7
100
AcDbArc
 50
0.0
 51
90.0
  0
ARC
  5
216B6
330
747D
100
AcDbEntity
  8
部品1
100
AcDbCircle
 10
7872.595011878029
 20
2250.551134999943
 30
0.0
 40
2.7
100
AcDbArc
 50
90.0
 51
180.0
  0
LINE
  5
216B7
330
747D
100
AcDbEntity
  8
部品1
100
AcDbLine
 10
7869.89501187803
 20
2242.451134999944
 30
0.0
 11
7869.89501187803
 21
2242.451134999944
 31
0.0
  0
LINE
  5
216B8
330
747D
100
AcDbEntity
  8
部品1
100
AcDbLine
 10
7869.89501187803
 20
2242.451134999944
 30
0.0
 11
7869.89501187803
 21
2250.551134999943
 31
0.0
  0
LINE
  5
216B9
330
747D
100
AcDbEntity
  8
部品1
100
AcDbLine
 10
7872.595011878029
 20
2253.251134999944
 30
0.0
 11
7914.89501187803
 21
2253.25113499994
 31
0.0
  0
ARC
  5
216BA
330
747D
100
AcDbEntity
  8
部品1
100
AcDbCircle
 10
7869.89501187803
 20
2239.751134999944
 30
0.0
 40
2.7
100
AcDbArc
 50
90.0
 51
180.0
  0
ELLIPSE
  5
216BB
330
747D
100
AcDbEntity
  8
部品1
 48
50.0
100
AcDbEllipse
 10
8030.995011878029
 20
2410.774423444216
 30
0.0
 11
18.4
 21
0.0
 31
0.0
210
0.0
220
0.0
230
1.0
 40
0.3478260869565217
 41
0.0
 42
6.283185307179586
  0
LINE
  5
216BC
330
747D
100
AcDbEntity
  8
部品1
 48
50.0
100
AcDbLine
 10
8070.995011878029
 20
2401.174423444216
 30
0.0
 11
8070.995011878029
 21
2410.774423444216
 31
0.0
  0
LINE
  5
216BD
330
747D
100
AcDbEntity
  8
部品1
 48
50.0
100
AcDbLine
 10
7998.995011878029
 20
2532.526416109087
 30
0.0
 11
8014.995011878029
 21
2524.526416109087
 31
0.0
  0
LINE
  5
216BE
330
747D
100
AcDbEntity
  8
部品1
 48
50.0
100
AcDbLine
 10
7998.995011878029
 20
2500.526416109086
 30
0.0
 11
8014.995011878029
 21
2492.526416109086
 31
0.0
  0
LINE
  5
216BF
330
747D
100
AcDbEntity
  8
部品1
 48
50.0
100
AcDbLine
 10
7998.995011878029
 20
2532.526416109087
 30
0.0
 11
8014.995011878029
 21
2540.526416109087
 31
0.0
  0
LINE
  5
216C0
330
747D
100
AcDbEntity
  8
部品1
 48
50.0
100
AcDbLine
 10
7998.995011878029
 20
2500.526416109086
 30
0.0
 11
7998.995011878029
 21
2532.526416109087
 31
0.0
  0
LINE
  5
216C1
330
747D
100
AcDbEntity
  8
部品1
 48
50.0
100
AcDbLine
 10
8014.995011878029
 20
2540.526416109087
 30
0.0
 11
8046.99501187803
 21
2540.526416109087
 31
0.0
  0
ELLIPSE
  5
216C2
330
747D
100
AcDbEntity
  8
細線
 48
50.0
100
AcDbEllipse
 10
8030.995011878029
 20
2532.526416109087
 30
0.0
 11
14.76670786606846
 21
0.0
 31
0.0
210
0.0
220
0.0
230
1.0
 40
0.2071254069489396
 41
0.0
 42
6.283185307179586
  0
LINE
  5
216C3
330
747D
100
AcDbEntity
  8
部品1
 48
50.0
100
AcDbLine
 10
8014.995011878029
 20
2492.526416109086
 30
0.0
 11
8046.99501187803
 21
2492.526416109086
 31
0.0
  0
LINE
  5
216C4
330
747D
100
AcDbEntity
  8
部品1
 48
50.0
100
AcDbLine
 10
8046.99501187803
 20
2492.526416109086
 30
0.0
 11
8062.995011878028
 21
2500.526416109086
 31
0.0
  0
LINE
  5
216C5
330
747D
100
AcDbEntity
  8
部品1
 48
50.0
100
AcDbLine
 10
8014.995011878029
 20
2524.526416109087
 30
0.0
 11
8046.99501187803
 21
2524.526416109087
 31
0.0
  0
LINE
  5
216C6
330
747D
100
AcDbEntity
  8
部品1
 48
50.0
100
AcDbLine
 10
8046.99501187803
 20
2524.526416109087
 30
0.0
 11
8062.995011878028
 21
2532.526416109087
 31
0.0
  0
LINE
  5
216C7
330
747D
100
AcDbEntity
  8
細線
 48
50.0
100
AcDbLine
 10
8046.99501187803
 20
2492.526416109086
 30
0.0
 11
8046.99501187803
 21
2524.526416109087
 31
0.0
  0
LINE
  5
216C8
330
747D
100
AcDbEntity
  8
部品1
 48
50.0
100
AcDbLine
 10
8062.995011878028
 20
2500.526416109086
 30
0.0
 11
8062.995011878028
 21
2532.526416109087
 31
0.0
  0
LINE
  5
216C9
330
747D
100
AcDbEntity
  8
細線
 48
50.0
100
AcDbLine
 10
8014.995011878029
 20
2492.526416109086
 30
0.0
 11
8014.995011878029
 21
2524.526416109087
 31
0.0
  0
LINE
  5
216CA
330
747D
100
AcDbEntity
  8
部品1
 48
50.0
100
AcDbLine
 10
8046.99501187803
 20
2540.526416109087
 30
0.0
 11
8062.995011878028
 21
2532.526416109087
 31
0.0
  0
TEXT
  5
216CB
330
747D
100
AcDbEntity
  8
部品1
100
AcDbText
 10
7731.767261069959
 20
3283.070822825361
 30
0.0
 40
120.0
  1
基礎詳細
  7
STYLE2
100
AcDbText
  0
LINE
  5
216CC
330
747D
100
AcDbEntity
  8
部品1
100
AcDbLine
 10
11109.87244527782
 20
498.3157851921414
 30
0.0
 11
11109.87244527782
 21
3462.622754776788
 31
0.0
  0
LINE
  5
216CD
330
747D
100
AcDbEntity
  8
細線
100
AcDbLine
 10
10117.76427785757
 20
1901.651134999944
 30
0.0
 11
9923.130944180787
 21
2096.284468676727
 31
0.0
  0
LINE
  5
216CE
330
747D
100
AcDbEntity
  8
部品1
100
AcDbLine
 10
9923.130944180787
 20
2141.651134999944
 30
0.0
 11
10403.13094418078
 21
2141.651134999944
 31
0.0
  0
LINE
  5
216CF
330
747D
100
AcDbEntity
  8
細線
 48
50.0
100
AcDbLine
 10
10057.20182862404
 20
1681.952219346593
 30
0.0
 11
10091.49932525523
 21
1809.952219346592
 31
0.0
  0
LINE
  5
216D0
330
747D
100
AcDbEntity
  8
部品1
100
AcDbLine
 10
9803.130944180786
 20
1681.95221934659
 30
0.0
 11
10523.13094418078
 21
1681.952219346593
 31
0.0
  0
LINE
  5
216D1
330
747D
100
AcDbEntity
  8
部品1
100
AcDbLine
 10
9803.130944180786
 20
1809.952219346594
 30
0.0
 11
10523.13094418078
 21
1809.952219346596
 31
0.0
  0
LINE
  5
216D2
330
747D
100
AcDbEntity
  8
細線
100
AcDbLine
 10
9984.049589674029
 20
1809.952219346594
 30
0.0
 11
10075.74850532737
 21
1901.651134999944
 31
0.0
  0
LWPOLYLINE
  5
216D3
330
747D
100
AcDbEntity
  8
部品1
 48
50.0
100
AcDbPolyline
 90
        2
 70
     0
 43
12.0
 10
9538.519682080398
 20
1901.651134999944
 10
10739.61198521202
 20
1901.651134999944
  0
LINE
  5
216D4
330
747D
100
AcDbEntity
  8
細線
100
AcDbLine
 10
10066.85258961214
 20
1901.651134999944
 30
0.0
 11
9923.130944180787
 21
2045.372780431296
 31
0.0
  0
TEXT
  5
216D5
330
747D
100
AcDbEntity
  8
部品1
 48
50.0
100
AcDbText
 10
9159.012857422283
 20
1634.851394362635
 30
0.0
 40
80.0
  1
ボルトの出
 50
90.0
  7
STYLE2
100
AcDbText
  0
LINE
  5
216D6
330
747D
100
AcDbEntity
  8
部品1
100
AcDbLine
 10
9923.130944180787
 20
1901.651134999944
 30
0.0
 11
9923.130944180787
 21
2141.651134999944
 31
0.0
  0
LINE
  5
216D7
330
747D
100
AcDbEntity
  8
細線
 48
50.0
100
AcDbLine
 10
9899.425738729547
 20
1681.952219346593
 30
0.0
 11
9933.72323536073
 21
1809.952219346592
 31
0.0
  0
LINE
  5
216D8
330
747D
100
AcDbEntity
  8
細線
 48
50.0
100
AcDbLine
 10
9978.313783676796
 20
1681.952219346593
 30
0.0
 11
10012.61128030798
 21
1809.952219346594
 31
0.0
  0
LINE
  5
216D9
330
747D
100
AcDbEntity
  8
細線
 48
50.0
100
AcDbLine
 10
9820.537693782299
 20
1681.952219346593
 30
0.0
 11
9854.835190413483
 21
1809.952219346594
 31
0.0
  0
LINE
  5
216DA
330
747D
100
AcDbEntity
  8
部品1
100
AcDbLine
 10
9803.130944180786
 20
1681.95221934659
 30
0.0
 11
9803.130944180786
 21
1901.651134999944
 31
0.0
  0
LINE
  5
216DB
330
747D
100
AcDbEntity
  8
細線
 48
50.0
100
AcDbLine
 10
9905.856519347898
 20
1705.952219346594
 30
0.0
 11
9912.287299966248
 21
1681.952219346593
 31
0.0
  0
LINE
  5
216DC
330
747D
100
AcDbEntity
  8
細線
 48
50.0
100
AcDbLine
 10
9826.968474400649
 20
1705.952219346594
 30
0.0
 11
9833.399255018996
 21
1681.952219346593
 31
0.0
  0
LINE
  5
216DD
330
747D
100
AcDbEntity
  8
細線
 48
50.0
100
AcDbLine
 10
9984.74456429515
 20
1705.952219346594
 30
0.0
 11
9991.175344913497
 21
1681.952219346593
 31
0.0
  0
LINE
  5
216DE
330
747D
100
AcDbEntity
  8
細線
 48
50.0
100
AcDbLine
 10
10063.63260924239
 20
1705.952219346594
 30
0.0
 11
10070.06338986074
 21
1681.952219346593
 31
0.0
  0
LINE
  5
216DF
330
747D
100
AcDbEntity
  8
細線
 48
50.0
100
AcDbLine
 10
9848.404409795136
 20
1785.952219346594
 30
0.0
 11
9841.973629176788
 21
1809.952219346594
 31
0.0
  0
LINE
  5
216E0
330
747D
100
AcDbEntity
  8
細線
 48
50.0
100
AcDbLine
 10
10006.18049968964
 20
1785.952219346594
 30
0.0
 11
9999.749719071294
 21
1809.952219346594
 31
0.0
  0
LINE
  5
216E1
330
747D
100
AcDbEntity
  8
細線
 48
50.0
100
AcDbLine
 10
9927.292454742387
 20
1785.952219346594
 30
0.0
 11
9920.86167412404
 21
1809.952219346594
 31
0.0
  0
LINE
  5
216E2
330
747D
100
AcDbEntity
  8
細線
100
AcDbLine
 10
9916.167338680116
 20
1809.952219346594
 30
0.0
 11
10007.86625433346
 21
1901.651134999944
 31
0.0
  0
LINE
  5
216E3
330
747D
100
AcDbEntity
  8
細線
100
AcDbLine
 10
9950.108464177072
 20
1809.952219346594
 30
0.0
 11
10041.80737983042
 21
1901.651134999944
 31
0.0
  0
LINE
  5
216E4
330
747D
100
AcDbEntity
  8
細線
100
AcDbLine
 10
10338.38159358777
 20
1901.651134999944
 30
0.0
 11
10098.38159358777
 21
2141.651134999944
 31
0.0
  0
LINE
  5
216E5
330
747D
100
AcDbEntity
  8
細線
100
AcDbLine
 10
10389.2932818332
 20
1901.651134999945
 30
0.0
 11
10149.29328183321
 21
2141.651134999944
 31
0.0
  0
LINE
  5
216E6
330
747D
100
AcDbEntity
  8
部品1
100
AcDbLine
 10
10403.13094418078
 20
2141.651134999944
 30
0.0
 11
10403.13094418078
 21
1901.651134999944
 31
0.0
  0
LINE
  5
216E7
330
747D
100
AcDbEntity
  8
細線
 48
50.0
100
AcDbLine
 10
10372.75400841303
 20
1681.952219346591
 30
0.0
 11
10407.05150504422
 21
1809.952219346591
 31
0.0
  0
LINE
  5
216E8
330
747D
100
AcDbEntity
  8
細線
100
AcDbLine
 10
10344.04958967403
 20
1809.952219346595
 30
0.0
 11
10435.74850532737
 21
1901.651134999944
 31
0.0
  0
LINE
  5
216E9
330
747D
100
AcDbEntity
  8
細線
 48
50.0
100
AcDbLine
 10
10293.86596346578
 20
1681.952219346593
 30
0.0
 11
10328.16346009696
 21
1809.952219346594
 31
0.0
  0
LINE
  5
216EA
330
747D
100
AcDbEntity
  8
細線
 48
50.0
100
AcDbLine
 10
10136.08987357129
 20
1681.952219346593
 30
0.0
 11
10170.38737020247
 21
1809.952219346592
 31
0.0
  0
LINE
  5
216EB
330
747D
100
AcDbEntity
  8
細線
 48
50.0
100
AcDbLine
 10
10214.97791851853
 20
1681.952219346593
 30
0.0
 11
10249.27541514972
 21
1809.952219346592
 31
0.0
  0
LINE
  5
216EC
330
747D
100
AcDbEntity
  8
細線
 48
50.0
100
AcDbLine
 10
10221.40869913689
 20
1705.952219346594
 30
0.0
 11
10227.83947975523
 21
1681.952219346593
 31
0.0
  0
LINE
  5
216ED
330
747D
100
AcDbEntity
  8
細線
 48
50.0
100
AcDbLine
 10
10142.52065418964
 20
1705.952219346594
 30
0.0
 11
10148.95143480799
 21
1681.952219346593
 31
0.0
  0
LINE
  5
216EE
330
747D
100
AcDbEntity
  8
細線
 48
50.0
100
AcDbLine
 10
10300.29674408413
 20
1705.952219346594
 30
0.0
 11
10306.72752470249
 21
1681.952219346593
 31
0.0
  0
LINE
  5
216EF
330
747D
100
AcDbEntity
  8
細線
 48
50.0
100
AcDbLine
 10
10379.18478903138
 20
1705.952219346593
 30
0.0
 11
10385.61556964973
 21
1681.952219346593
 31
0.0
  0
LINE
  5
216F0
330
747D
100
AcDbEntity
  8
細線
 48
50.0
100
AcDbLine
 10
10242.84463453138
 20
1785.952219346594
 30
0.0
 11
10236.41385391303
 21
1809.952219346594
 31
0.0
  0
LINE
  5
216F1
330
747D
100
AcDbEntity
  8
細線
 48
50.0
100
AcDbLine
 10
10163.95658958413
 20
1785.952219346594
 30
0.0
 11
10157.52580896579
 21
1809.952219346594
 31
0.0
  0
LINE
  5
216F2
330
747D
100
AcDbEntity
  8
細線
 48
50.0
100
AcDbLine
 10
10085.06854463688
 20
1785.952219346594
 30
0.0
 11
10078.63776401854
 21
1809.952219346594
 31
0.0
  0
LINE
  5
216F3
330
747D
100
AcDbEntity
  8
細線
100
AcDbLine
 10
10310.10846417707
 20
1809.952219346595
 30
0.0
 11
10401.80737983042
 21
1901.651134999944
 31
0.0
  0
LINE
  5
216F4
330
747D
100
AcDbEntity
  8
細線
 48
50.0
100
AcDbLine
 10
10321.73267947861
 20
1785.952219346594
 30
0.0
 11
10315.30189886027
 21
1809.952219346594
 31
0.0
  0
LINE
  5
216F5
330
747D
100
AcDbEntity
  8
細線
100
AcDbLine
 10
10276.16733868012
 20
1809.952219346595
 30
0.0
 11
10367.86625433346
 21
1901.651134999944
 31
0.0
  0
LINE
  5
216F6
330
747D
100
AcDbEntity
  8
細線
 48
50.0
100
AcDbLine
 10
10400.62072442587
 20
1785.952219346593
 30
0.0
 11
10394.18994380753
 21
1809.952219346592
 31
0.0
  0
LINE
  5
216F7
330
747D
100
AcDbEntity
  8
細線
 48
50.0
100
AcDbLine
 10
10451.64205336028
 20
1681.952219346593
 30
0.0
 11
10485.93954999146
 21
1809.952219346591
 31
0.0
  0
LINE
  5
216F8
330
747D
100
AcDbEntity
  8
部品1
100
AcDbLine
 10
10523.13094418078
 20
1901.651134999944
 30
0.0
 11
10523.13094418079
 21
1681.952219346593
 31
0.0
  0
LINE
  5
216F9
330
747D
100
AcDbEntity
  8
細線
 48
50.0
100
AcDbLine
 10
10458.07283397863
 20
1705.952219346593
 30
0.0
 11
10464.50361459698
 21
1681.952219346593
 31
0.0
  0
LINE
  5
216FA
330
747D
100
AcDbEntity
  8
細線
 48
50.0
100
AcDbLine
 10
10479.50876937312
 20
1785.952219346593
 30
0.0
 11
10473.07798875477
 21
1809.952219346592
 31
0.0
  0
LEADER
  5
216FB
330
747D
100
AcDbEntity
  8
寸法
 48
50.0
100
AcDbLeader
  3
INABA_S50G
 73
     0
 74
     0
 75
     1
 40
120.0
 41
185.591883092037
 76
     3
 10
10333.85535579671
 20
2141.651134999944
 30
0.0
 10
10366.99356243035
 20
2313.797455681081
 30
0.0
 10
10491.99356243035
 20
2313.797455681081
 30
0.0
340
216FC
1001
ACAD
1000
DSTYLE
1002
{
1070
    40
1040
1.0
1002
}
  0
MTEXT
  5
216FC
102
{ACAD_REACTORS
330
216FB
102
}
330
747D
100
AcDbEntity
  8
寸法
 62
     7
 48
50.0
100
AcDbMText
 10
10516.99356243035
 20
2398.797455681082
 30
0.0
 40
120.0
 41
0.8
 71
     4
 72
     1
  1
\A1;C.B
  7
STYLE1
 73
     1
 44
1.0
1001
ACAD
1000
MTEXTBEGIN
1070
    73
1070
     1
1070
    44
1040
1.0
1070
    74
1070
     0
1000
MTEXTEND
  0
ENDSEC
  0
SECTION
  2
OBJECTS
  0
DICTIONARY
  5
7471
330
0
100
AcDbDictionary
281
     1
  3
ACAD_COLOR
350
173D2
  3
ACAD_GROUP
350
7472
  3
ACAD_LAYOUT
350
173D3
  3
ACAD_MATERIAL
350
173D1
  3
ACAD_MLINESTYLE
350
7473
  3
ACAD_PLOTSETTINGS
350
173D4
  3
ACAD_PLOTSTYLENAME
350
173CF
  3
ACDBHEADERROUNDTRIPXREC
350
2179E
  3
AcDbVariableDictionary
350
2179A
  3
CONTENTDICTIONARY
350
E71C
  3
DRAWINGVARIABLESDICT
350
F3B9
  0
DICTIONARY
  5
1758F
330
7467
100
AcDbDictionary
280
     1
281
     1
  3
ACAD_LAYERSTATES
360
17590
  0
DICTIONARY
  5
173D2
102
{ACAD_REACTORS
330
7471
102
}
330
7471
100
AcDbDictionary
281
     1
  0
DICTIONARY
  5
7472
102
{ACAD_REACTORS
330
7471
102
}
330
7471
100
AcDbDictionary
281
     1
  3
*A1
350
1D2A9
  0
DICTIONARY
  5
173D3
102
{ACAD_REACTORS
330
7471
102
}
330
7471
100
AcDbDictionary
281
     1
  3
Model
350
173D5
  3
レイアウト1
350
173D6
  0
DICTIONARY
  5
173D1
102
{ACAD_REACTORS
330
7471
102
}
330
7471
100
AcDbDictionary
281
     1
  0
DICTIONARY
  5
7473
102
{ACAD_REACTORS
330
7471
102
}
330
7471
100
AcDbDictionary
281
     1
  3
STANDARD
350
7480
  0
DICTIONARY
  5
173D4
102
{ACAD_REACTORS
330
7471
102
}
330
7471
100
AcDbDictionary
281
     1
  0
ACDBDICTIONARYWDFLT
  5
173CF
102
{ACAD_REACTORS
330
7471
102
}
330
7471
100
AcDbDictionary
281
     1
  3
Normal
350
173D0
100
AcDbDictionaryWithDefault
340
173D0
  0
DICTIONARY
  5
2179E
102
{ACAD_REACTORS
330
7471
102
}
330
7471
100
AcDbDictionary
281
     1
  3
COLORDICT
350
217A0
  3
MATERIALDICT
350
2179F
  0
DICTIONARY
  5
2179A
102
{ACAD_REACTORS
330
7471
102
}
330
7471
100
AcDbDictionary
281
     1
  3
DIMASSOC
350
2179B
  3
PROJECTNAME
350
2179C
  0
DICTIONARY
  5
E71C
102
{ACAD_REACTORS
330
7471
102
}
330
7471
100
AcDbDictionary
281
     1
  0
DICTIONARY
  5
F3B9
102
{ACAD_REACTORS
330
7471
102
}
330
7471
100
AcDbDictionary
281
     1
1001
DRAWINGVARIABLESXDATA
1000
POLARMODE
1000
1
  0
DICTIONARY
  5
17590
102
{ACAD_REACTORS
330
1758F
102
}
330
1758F
100
AcDbDictionary
281
     1
  0
GROUP
  5
1D2A9
102
{ACAD_REACTORS
330
7472
102
}
330
7472
100
AcDbGroup
300

 70
     1
 71
     1
  0
LAYOUT
  5
173D5
102
{ACAD_XDICTIONARY
360
217A1
102
}
102
{ACAD_REACTORS
330
173D3
102
}
330
173D3
100
AcDbPlotSettings
  1

  2
Microsoft Office Document Image Writer
  4

  6

 40
0.0
 41
0.0
 42
0.0
 43
0.0
 44
0.0
 45
0.0
 46
0.0
 47
0.0
 48
0.0
 49
0.0
140
0.0
141
0.0
142
1.0
143
1.0
 70
  1712
 72
     0
 73
     0
 74
     0
  7

 75
     0
147
1.0
148
0.0
149
0.0
100
AcDbLayout
  1
Model
 70
     1
 71
     0
 10
0.0
 20
0.0
 11
12.0
 21
9.0
 12
0.0
 22
0.0
 32
0.0
 14
0.0
 24
0.0
 34
0.0
 15
0.0
 25
0.0
 35
0.0
146
0.0
 13
0.0
 23
0.0
 33
0.0
 16
1.0
 26
0.0
 36
0.0
 17
0.0
 27
1.0
 37
0.0
 76
     0
330
747D
  0
LAYOUT
  5
173D6
102
{ACAD_XDICTIONARY
360
217A3
102
}
102
{ACAD_REACTORS
330
173D3
102
}
330
173D3
100
AcDbPlotSettings
  1

  2
Microsoft Office Document Image Writer
  4

  6

 40
0.0
 41
0.0
 42
0.0
 43
0.0
 44
0.0
 45
0.0
 46
0.0
 47
0.0
 48
0.0
 49
0.0
140
0.0
141
0.0
142
1.0
143
1.0
 70
   688
 72
     0
 73
     0
 74
     5
  7

 75
    16
147
1.0
148
0.0
149
0.0
100
AcDbLayout
  1
レイアウト1
 70
     0
 71
     1
 10
0.0
 20
0.0
 11
420.0
 21
297.0
 12
0.0
 22
0.0
 32
0.0
 14
1.000000000000000E+20
 24
1.000000000000000E+20
 34
1.000000000000000E+20
 15
-1.000000000000000E+20
 25
-1.000000000000000E+20
 35
-1.000000000000000E+20
146
0.0
 13
0.0
 23
0.0
 33
0.0
 16
1.0
 26
0.0
 36
0.0
 17
0.0
 27
1.0
 37
0.0
 76
     0
330
747A
  0
MLINESTYLE
  5
7480
102
{ACAD_REACTORS
330
7473
102
}
330
7473
100
AcDbMlineStyle
  2
STANDARD
 70
     0
  3

 62
     0
 51
90.0
 52
90.0
 71
     2
 49
0.5
 62
   256
  6
BYLAYER
 49
-0.5
 62
   256
  6
BYLAYER
  0
ACDBPLACEHOLDER
  5
173D0
102
{ACAD_REACTORS
330
173CF
102
}
330
173CF
  0
XRECORD
  5
217A0
102
{ACAD_REACTORS
330
2179E
102
}
330
2179E
100
AcDbXrecord
280
     1
340
173D2
  0
XRECORD
  5
2179F
102
{ACAD_REACTORS
330
2179E
102
}
330
2179E
100
AcDbXrecord
280
     1
340
173D1
  0
DICTIONARYVAR
  5
2179B
102
{ACAD_REACTORS
330
2179A
102
}
330
2179A
100
DictionaryVariables
280
     0
  1
1
  0
DICTIONARYVAR
  5
2179C
102
{ACAD_REACTORS
330
2179A
102
}
330
2179A
100
DictionaryVariables
280
     0
  1

  0
DICTIONARY
  5
217A1
330
173D5
100
AcDbDictionary
280
     1
281
     1
  3
ACAD_XREC_ROUNDTRIP
360
217A2
  0
DICTIONARY
  5
217A3
330
173D6
100
AcDbDictionary
280
     1
281
     1
  3
ACAD_XREC_ROUNDTRIP
360
217A4
  0
XRECORD
  5
217A2
102
{ACAD_REACTORS
330
217A1
102
}
330
217A1
100
AcDbXrecord
280
     1
102
SHADEPLOT
 70
     0
102
SHADEPLOTRESLEVEL
 70
     2
102
SHADEPLOTCUSTOMDPI
 70
   300
  0
XRECORD
  5
217A4
102
{ACAD_REACTORS
330
217A3
102
}
330
217A3
100
AcDbXrecord
280
     1
102
SHADEPLOT
 70
     0
102
SHADEPLOTRESLEVEL
 70
     2
102
SHADEPLOTCUSTOMDPI
 70
   300
  0
ENDSEC
  0
EOF
