  0
SECTION
  2
HEADER
  9
$ACADVER
  1
AC1015
  9
$ACADMAINTVER
 70
    20
  9
$DWGCODEPAGE
  3
ANSI_932
  9
$INSBASE
 10
0.0
 20
0.0
 30
0.0
  9
$EXTMIN
 10
139.9999999999995
 20
-0.0000000000000909
 30
0.0
  9
$EXTMAX
 10
16307.2
 20
11409.6
 30
0.0
  9
$LIMMIN
 10
0.0
 20
0.0
  9
$LIMMAX
 10
16800.0
 20
11880.0
  9
$ORTHOMODE
 70
     0
  9
$REGENMODE
 70
     1
  9
$FILLMODE
 70
     1
  9
$QTEXTMODE
 70
     0
  9
$MIRRTEXT
 70
     1
  9
$LTSCALE
 40
20.0
  9
$ATTMODE
 70
     1
  9
$TEXTSIZE
 40
100.0
  9
$TRACEWID
 40
1.0
  9
$TEXTSTYLE
  7
STYLE2
  9
$CLAYER
  8
細線
  9
$CELTYPE
  6
BYLAYER
  9
$CECOLOR
 62
   256
  9
$CELTSCALE
 40
50.0
  9
$DISPSILH
 70
     0
  9
$DIMSCALE
 40
40.0
  9
$DIMASZ
 40
2.5
  9
$DIMEXO
 40
0.5
  9
$DIMDLI
 40
7.0
  9
$DIMRND
 40
0.0
  9
$DIMDLE
 40
0.0
  9
$DIMEXE
 40
1.5
  9
$DIMTP
 40
0.0
  9
$DIMTM
 40
0.0
  9
$DIMTXT
 40
3.0
  9
$DIMCEN
 40
0.0
  9
$DIMTSZ
 40
0.0
  9
$DIMTOL
 70
     0
  9
$DIMLIM
 70
     0
  9
$DIMTIH
 70
     0
  9
$DIMTOH
 70
     0
  9
$DIMSE1
 70
     0
  9
$DIMSE2
 70
     0
  9
$DIMTAD
 70
     3
  9
$DIMZIN
 70
     8
  9
$DIMBLK
  1

  9
$DIMASO
 70
     1
  9
$DIMSHO
 70
     1
  9
$DIMPOST
  1

  9
$DIMAPOST
  1

  9
$DIMALT
 70
     0
  9
$DIMALTD
 70
     2
  9
$DIMALTF
 40
0.0394
  9
$DIMLFAC
 40
1.0
  9
$DIMTOFL
 70
     1
  9
$DIMTVP
 40
0.0
  9
$DIMTIX
 70
     0
  9
$DIMSOXD
 70
     0
  9
$DIMSAH
 70
     1
  9
$DIMBLK1
  1
DOTSMALL
  9
$DIMBLK2
  1
DOTSMALL
  9
$DIMSTYLE
  2
INABA_S40G
  9
$DIMCLRD
 70
     0
  9
$DIMCLRE
 70
     0
  9
$DIMCLRT
 70
     7
  9
$DIMTFAC
 40
1.0
  9
$DIMGAP
 40
1.0
  9
$DIMJUST
 70
     0
  9
$DIMSD1
 70
     0
  9
$DIMSD2
 70
     0
  9
$DIMTOLJ
 70
     1
  9
$DIMTZIN
 70
     0
  9
$DIMALTZ
 70
     0
  9
$DIMALTTZ
 70
     0
  9
$DIMUPT
 70
     0
  9
$DIMDEC
 70
     1
  9
$DIMTDEC
 70
     1
  9
$DIMALTU
 70
     2
  9
$DIMALTTD
 70
     2
  9
$DIMTXSTY
  7
STYLE1
  9
$DIMAUNIT
 70
     0
  9
$DIMADEC
 70
     0
  9
$DIMALTRND
 40
0.0
  9
$DIMAZIN
 70
     0
  9
$DIMDSEP
 70
    46
  9
$DIMATFIT
 70
     3
  9
$DIMFRAC
 70
     0
  9
$DIMLDRBLK
  1

  9
$DIMLUNIT
 70
     2
  9
$DIMLWD
 70
    -2
  9
$DIMLWE
 70
    -2
  9
$DIMTMOVE
 70
     1
  9
$LUNITS
 70
     2
  9
$LUPREC
 70
     1
  9
$SKETCHINC
 40
1.0
  9
$FILLETRAD
 40
2.299999999999999
  9
$AUNITS
 70
     0
  9
$AUPREC
 70
     0
  9
$MENU
  1
acad
  9
$ELEVATION
 40
0.0
  9
$PELEVATION
 40
0.0
  9
$THICKNESS
 40
0.0
  9
$LIMCHECK
 70
     0
  9
$CHAMFERA
 40
3.0
  9
$CHAMFERB
 40
3.0
  9
$CHAMFERC
 40
0.0
  9
$CHAMFERD
 40
0.0
  9
$SKPOLY
 70
     0
  9
$TDCREATE
 40
2451368.612993866
  9
$TDUCREATE
 40
2451368.237993866
  9
$TDUPDATE
 40
2455826.654035544
  9
$TDUUPDATE
 40
2455826.279035544
  9
$TDINDWG
 40
1.6360739005
  9
$TDUSRTIMER
 40
1.6360739005
  9
$USRTIMER
 70
     1
  9
$ANGBASE
 50
0.0
  9
$ANGDIR
 70
     0
  9
$PDMODE
 70
     3
  9
$PDSIZE
 40
2.0
  9
$PLINEWID
 40
0.0
  9
$SPLFRAME
 70
     0
  9
$SPLINETYPE
 70
     6
  9
$SPLINESEGS
 70
     8
  9
$HANDSEED
  5
1F517
  9
$SURFTAB1
 70
     6
  9
$SURFTAB2
 70
     6
  9
$SURFTYPE
 70
     6
  9
$SURFU
 70
     6
  9
$SURFV
 70
     6
  9
$UCSBASE
  2

  9
$UCSNAME
  2

  9
$UCSORG
 10
0.0
 20
0.0
 30
0.0
  9
$UCSXDIR
 10
1.0
 20
0.0
 30
0.0
  9
$UCSYDIR
 10
0.0
 20
1.0
 30
0.0
  9
$UCSORTHOREF
  2

  9
$UCSORTHOVIEW
 70
     0
  9
$UCSORGTOP
 10
0.0
 20
0.0
 30
0.0
  9
$UCSORGBOTTOM
 10
0.0
 20
0.0
 30
0.0
  9
$UCSORGLEFT
 10
0.0
 20
0.0
 30
0.0
  9
$UCSORGRIGHT
 10
0.0
 20
0.0
 30
0.0
  9
$UCSORGFRONT
 10
0.0
 20
0.0
 30
0.0
  9
$UCSORGBACK
 10
0.0
 20
0.0
 30
0.0
  9
$PUCSBASE
  2

  9
$PUCSNAME
  2

  9
$PUCSORG
 10
0.0
 20
0.0
 30
0.0
  9
$PUCSXDIR
 10
1.0
 20
0.0
 30
0.0
  9
$PUCSYDIR
 10
0.0
 20
1.0
 30
0.0
  9
$PUCSORTHOREF
  2

  9
$PUCSORTHOVIEW
 70
     0
  9
$PUCSORGTOP
 10
0.0
 20
0.0
 30
0.0
  9
$PUCSORGBOTTOM
 10
0.0
 20
0.0
 30
0.0
  9
$PUCSORGLEFT
 10
0.0
 20
0.0
 30
0.0
  9
$PUCSORGRIGHT
 10
0.0
 20
0.0
 30
0.0
  9
$PUCSORGFRONT
 10
0.0
 20
0.0
 30
0.0
  9
$PUCSORGBACK
 10
0.0
 20
0.0
 30
0.0
  9
$USERI1
 70
     0
  9
$USERI2
 70
     0
  9
$USERI3
 70
     0
  9
$USERI4
 70
     0
  9
$USERI5
 70
     0
  9
$USERR1
 40
0.0
  9
$USERR2
 40
0.0
  9
$USERR3
 40
0.0
  9
$USERR4
 40
0.0
  9
$USERR5
 40
0.0
  9
$WORLDVIEW
 70
     1
  9
$SHADEDGE
 70
     3
  9
$SHADEDIF
 70
    70
  9
$TILEMODE
 70
     1
  9
$MAXACTVP
 70
    16
  9
$PINSBASE
 10
0.0
 20
0.0
 30
0.0
  9
$PLIMCHECK
 70
     0
  9
$PEXTMIN
 10
1.000000000000000E+20
 20
1.000000000000000E+20
 30
1.000000000000000E+20
  9
$PEXTMAX
 10
-1.000000000000000E+20
 20
-1.000000000000000E+20
 30
-1.000000000000000E+20
  9
$PLIMMIN
 10
0.0
 20
0.0
  9
$PLIMMAX
 10
420.0
 20
297.0
  9
$UNITMODE
 70
     0
  9
$VISRETAIN
 70
     0
  9
$PLINEGEN
 70
     0
  9
$PSLTSCALE
 70
     0
  9
$TREEDEPTH
 70
  3020
  9
$CMLSTYLE
  2
STANDARD
  9
$CMLJUST
 70
     0
  9
$CMLSCALE
 40
1.0
  9
$PROXYGRAPHICS
 70
     1
  9
$MEASUREMENT
 70
     1
  9
$CELWEIGHT
370
    -1
  9
$ENDCAPS
280
     0
  9
$JOINSTYLE
280
     0
  9
$LWDISPLAY
290
     0
  9
$INSUNITS
 70
     0
  9
$HYPERLINKBASE
  1

  9
$STYLESHEET
  1
inaba.ctb
  9
$XEDIT
290
     1
  9
$CEPSNTYPE
380
     0
  9
$PSTYLEMODE
290
     1
  9
$FINGERPRINTGUID
  2
{3B57B35E-7D77-4BBF-81B7-6C583B9EB24C}
  9
$VERSIONGUID
  2
{63011FC4-D056-4F11-96FE-3FBE9868B385}
  9
$EXTNAMES
290
     1
  9
$PSVPSCALE
 40
0.0
  9
$OLESTARTUP
290
     0
  0
ENDSEC
  0
SECTION
  2
CLASSES
  0
CLASS
  1
ACDBDICTIONARYWDFLT
  2
AcDbDictionaryWithDefault
  3
ObjectDBX Classes
 90
        0
280
     0
281
     0
  0
CLASS
  1
DICTIONARYVAR
  2
AcDbDictionaryVar
  3
ObjectDBX Classes
 90
        0
280
     0
281
     0
  0
CLASS
  1
ACDBPLACEHOLDER
  2
AcDbPlaceHolder
  3
ObjectDBX Classes
 90
        0
280
     0
281
     0
  0
CLASS
  1
LAYOUT
  2
AcDbLayout
  3
ObjectDBX Classes
 90
        0
280
     0
281
     0
  0
ENDSEC
  0
SECTION
  2
TABLES
  0
TABLE
  2
VPORT
  5
746D
330
0
100
AcDbSymbolTable
 70
     2
  0
VPORT
  5
1F50F
330
746D
100
AcDbSymbolTableRecord
100
AcDbViewportTableRecord
  2
*Active
 70
     0
 10
0.0
 20
0.0
 11
1.0
 21
1.0
 12
8280.017288868741
 22
5755.813081555709
 13
0.0
 23
0.0
 14
10.0
 24
10.0
 15
10.0
 25
10.0
 16
0.0
 26
0.0
 36
1.0
 17
0.0
 27
0.0
 37
0.0
 40
11596.40360371615
 41
1.522222222222222
 42
50.0
 43
0.0
 44
0.0
 50
0.0
 51
0.0
 71
     0
 72
     0
 73
     1
 74
     0
 75
     0
 76
     0
 77
     0
 78
     0
281
     0
 65
     1
110
0.0
120
0.0
130
0.0
111
1.0
121
0.0
131
0.0
112
0.0
122
1.0
132
0.0
 79
     0
146
0.0
  0
ENDTAB
  0
TABLE
  2
LTYPE
  5
746A
330
0
100
AcDbSymbolTable
 70
     4
  0
LTYPE
  5
7477
330
746A
100
AcDbSymbolTableRecord
100
AcDbLinetypeTableRecord
  2
BYBLOCK
 70
     0
  3

 72
    65
 73
     0
 40
0.0
  0
LTYPE
  5
7478
330
746A
100
AcDbSymbolTableRecord
100
AcDbLinetypeTableRecord
  2
BYLAYER
 70
     0
  3

 72
    65
 73
     0
 40
0.0
  0
LTYPE
  5
7479
330
746A
100
AcDbSymbolTableRecord
100
AcDbLinetypeTableRecord
  2
CONTINUOUS
 70
     0
  3
Solid line
 72
    65
 73
     0
 40
0.0
  0
LTYPE
  5
7816
330
746A
100
AcDbSymbolTableRecord
100
AcDbLinetypeTableRecord
  2
CENTER
 70
     0
  3
____ _ ____ _ ____ _ ____ _ ____ _ ____ _ ____ 
 72
    65
 73
     4
 40
2.0
 49
1.25
 74
     0
 49
-0.25
 74
     0
 49
0.25
 74
     0
 49
-0.25
 74
     0
  0
LTYPE
  5
781A
330
746A
100
AcDbSymbolTableRecord
100
AcDbLinetypeTableRecord
  2
HIDDEN
 70
     0
  3
__ __ __ __ __ __ __ __ __ __ __ __ __ __ __ __
 72
    65
 73
     2
 40
0.375
 49
0.25
 74
     0
 49
-0.125
 74
     0
  0
LTYPE
  5
781B
330
746A
100
AcDbSymbolTableRecord
100
AcDbLinetypeTableRecord
  2
PHANTOM
 70
     0
  3
______  __  __  ______  __  __  ______  __  __ 
 72
    65
 73
     6
 40
2.5
 49
1.25
 74
     0
 49
-0.25
 74
     0
 49
0.25
 74
     0
 49
-0.25
 74
     0
 49
0.25
 74
     0
 49
-0.25
 74
     0
  0
ENDTAB
  0
TABLE
  2
LAYER
  5
7467
102
{ACAD_XDICTIONARY
360
1F1AD
102
}
330
0
100
AcDbSymbolTable
 70
    12
  0
LAYER
  5
7474
330
7467
100
AcDbSymbolTableRecord
100
AcDbLayerTableRecord
  2
0
 70
     0
 62
     7
  6
CONTINUOUS
370
    -3
390
159AE
  0
LAYER
  5
DEB2
330
7467
100
AcDbSymbolTableRecord
100
AcDbLayerTableRecord
  2
センター
 70
     0
 62
     3
  6
CENTER
370
    -3
390
159AE
  0
LAYER
  5
DEB3
330
7467
100
AcDbSymbolTableRecord
100
AcDbLayerTableRecord
  2
寸法
 70
     0
 62
     4
  6
CONTINUOUS
370
    -3
390
159AE
  0
LAYER
  5
DEB4
330
7467
100
AcDbSymbolTableRecord
100
AcDbLayerTableRecord
  2
部品1
 70
     0
 62
     7
  6
CONTINUOUS
370
    -3
390
159AE
  0
LAYER
  5
DEB5
330
7467
100
AcDbSymbolTableRecord
100
AcDbLayerTableRecord
  2
補助
 70
     0
 62
    -1
  6
CONTINUOUS
370
    -3
390
159AE
  0
LAYER
  5
DEB6
330
7467
100
AcDbSymbolTableRecord
100
AcDbLayerTableRecord
  2
文字
 70
     0
 62
     7
  6
CONTINUOUS
370
    -3
390
159AE
  0
LAYER
  5
F255
330
7467
100
AcDbSymbolTableRecord
100
AcDbLayerTableRecord
  2
DEFPOINTS
 70
     0
 62
     7
  6
CONTINUOUS
290
     0
370
    -3
390
159AE
  0
LAYER
  5
10B54
330
7467
100
AcDbSymbolTableRecord
100
AcDbLayerTableRecord
  2
仕様書枠
 70
     0
 62
   230
  6
CONTINUOUS
370
    -3
390
159AE
  0
LAYER
  5
11729
330
7467
100
AcDbSymbolTableRecord
100
AcDbLayerTableRecord
  2
Ｇ．Ｌ
 70
     0
 62
    30
  6
CONTINUOUS
370
    -3
390
159AE
  0
LAYER
  5
1173F
330
7467
100
AcDbSymbolTableRecord
100
AcDbLayerTableRecord
  2
細線
 70
     0
 62
     5
  6
CONTINUOUS
370
    -3
390
159AE
  0
LAYER
  5
12CC4
330
7467
100
AcDbSymbolTableRecord
100
AcDbLayerTableRecord
  2
想像線
 70
     0
 62
     6
  6
PHANTOM
370
    -3
390
159AE
  0
LAYER
  5
142E2
330
7467
100
AcDbSymbolTableRecord
100
AcDbLayerTableRecord
  2
破線
 70
     0
 62
     2
  6
HIDDEN
370
    -3
390
159AE
  0
ENDTAB
  0
TABLE
  2
STYLE
  5
7468
330
0
100
AcDbSymbolTable
 70
     3
  0
STYLE
  5
7475
330
7468
100
AcDbSymbolTableRecord
100
AcDbTextStyleTableRecord
  2
STANDARD
 70
     0
 40
0.0
 41
1.0
 50
0.0
 71
     0
 42
4.0
  3
txt
  4
C:\AutoCAD LT\bigfont.shx
  0
STYLE
  5
F706
330
7468
100
AcDbSymbolTableRecord
100
AcDbTextStyleTableRecord
  2
STYLE1
 70
     0
 40
0.0
 41
1.0
 50
0.0
 71
     0
 42
100.0
  3
isocp.shx
  4
bigfont.shx
  0
STYLE
  5
103BF
330
7468
100
AcDbSymbolTableRecord
100
AcDbTextStyleTableRecord
  2
STYLE2
 70
     0
 40
0.0
 41
1.0
 50
0.0
 71
     0
 42
100.0
  3
MS PGothic.ttf
  4

1001
ACAD
1000
MS PGothic
1071
    32818
  0
ENDTAB
  0
TABLE
  2
VIEW
  5
746B
330
0
100
AcDbSymbolTable
 70
     0
  0
ENDTAB
  0
TABLE
  2
UCS
  5
746C
330
0
100
AcDbSymbolTable
 70
     0
  0
ENDTAB
  0
TABLE
  2
APPID
  5
746E
330
0
100
AcDbSymbolTable
 70
     6
  0
APPID
  5
7476
330
746E
100
AcDbSymbolTableRecord
100
AcDbRegAppTableRecord
  2
ACAD
 70
     0
  0
APPID
  5
DEA9
330
746E
100
AcDbSymbolTableRecord
100
AcDbRegAppTableRecord
  2
CONTENTBLOCKICON
 70
     0
  0
APPID
  5
DEAA
330
746E
100
AcDbSymbolTableRecord
100
AcDbRegAppTableRecord
  2
CONTENTBLOCKDESCRIPTION
 70
     0
  0
APPID
  5
E71D
330
746E
100
AcDbSymbolTableRecord
100
AcDbRegAppTableRecord
  2
CONTENTTABDATA
 70
     0
  0
APPID
  5
E71E
330
746E
100
AcDbSymbolTableRecord
100
AcDbRegAppTableRecord
  2
CONTENTCURRENTTAB
 70
     0
  0
APPID
  5
F3BA
330
746E
100
AcDbSymbolTableRecord
100
AcDbRegAppTableRecord
  2
DRAWINGVARIABLESXDATA
 70
     0
  0
ENDTAB
  0
TABLE
  2
DIMSTYLE
  5
746F
330
0
100
AcDbSymbolTable
 70
     2
100
AcDbDimStyleTable
 71
     1
340
F71F
  0
DIMSTYLE
105
F71F
102
{ACAD_REACTORS
330
1D93F
330
1D93E
330
1D926
330
1D925
330
1D920
330
1D91D
330
1D934
330
1D933
330
1D92D
330
1D92C
330
1D929
330
1D927
330
1D91C
330
1D91B
330
1D948
330
1D947
330
1D959
330
1D942
330
1D940
330
1F344
330
1F3A4
330
1F3A7
330
1F3AE
330
1F3B6
330
1F3B7
102
}
330
746F
100
AcDbSymbolTableRecord
100
AcDbDimStyleTableRecord
  2
INABA_S40G
 70
     0
 40
40.0
 41
2.5
 42
0.5
 43
7.0
 44
1.5
 73
     0
 74
     0
 77
     3
 78
     8
140
3.0
141
0.0
143
0.0394
147
1.0
172
     1
173
     1
174
     1
178
     7
271
     1
288
     1
340
F706
341
F770
343
F770
344
F770
  0
DIMSTYLE
105
1C645
330
746F
100
AcDbSymbolTableRecord
100
AcDbDimStyleTableRecord
  2
INABA_S50G
 70
     0
 40
0.0
 41
125.0
 42
25.0
 43
7.0
 44
75.0
 73
     0
 74
     0
 77
     3
 78
     8
140
150.0
141
0.0
143
0.0394
147
25.0
172
     1
173
     1
174
     1
178
     7
271
     1
340
F706
341
F770
343
F770
344
F770
  0
ENDTAB
  0
TABLE
  2
BLOCK_RECORD
  5
7466
330
0
100
AcDbSymbolTable
 70
    26
  0
BLOCK_RECORD
  5
747D
330
7466
100
AcDbSymbolTableRecord
100
AcDbBlockTableRecord
  2
*MODEL_SPACE
340
159B3
  0
BLOCK_RECORD
  5
747A
330
7466
100
AcDbSymbolTableRecord
100
AcDbBlockTableRecord
  2
*PAPER_SPACE
340
159B4
  0
BLOCK_RECORD
  5
F770
330
7466
100
AcDbSymbolTableRecord
100
AcDbBlockTableRecord
  2
_DOTSMALL
340
0
102
{BLKREFS
331
1F090
331
1F091
331
1F09A
331
1F09B
331
1F0A5
331
1F0A6
331
1F0AF
331
1F0B0
331
1F0BA
331
1F0BB
331
1F0C4
331
1F0C5
331
1F0CD
331
1F0CE
331
1F0D6
331
1F0D7
331
1F0E1
331
1F0E2
331
1F0EB
331
1F0EC
331
1F0F4
331
1F0F5
331
1F0FD
331
1F0FE
331
1F107
331
1F108
331
1F111
331
1F112
331
1F44C
331
1F44D
331
1F45B
331
1F45C
331
1F464
331
1F465
331
1F46D
331
1F46E
331
1F476
331
1F477
331
1F47F
331
1F480
331
1F488
331
1F489
331
1F492
331
1F493
331
1F49C
331
1F49D
331
1F4A6
331
1F4A7
102
}
  0
BLOCK_RECORD
  5
1C530
330
7466
100
AcDbSymbolTableRecord
100
AcDbBlockTableRecord
  2
_NONE
340
0
  0
BLOCK_RECORD
  5
1DA44
330
7466
100
AcDbSymbolTableRecord
100
AcDbBlockTableRecord
  2
*D2
340
0
  0
BLOCK_RECORD
  5
1DA51
330
7466
100
AcDbSymbolTableRecord
100
AcDbBlockTableRecord
  2
*D3
340
0
  0
BLOCK_RECORD
  5
1DA5E
330
7466
100
AcDbSymbolTableRecord
100
AcDbBlockTableRecord
  2
*D4
340
0
  0
BLOCK_RECORD
  5
1DA69
330
7466
100
AcDbSymbolTableRecord
100
AcDbBlockTableRecord
  2
*D5
340
0
  0
BLOCK_RECORD
  5
1DA74
330
7466
100
AcDbSymbolTableRecord
100
AcDbBlockTableRecord
  2
*D6
340
0
  0
BLOCK_RECORD
  5
1DA81
330
7466
100
AcDbSymbolTableRecord
100
AcDbBlockTableRecord
  2
*D7
340
0
  0
BLOCK_RECORD
  5
1DA8E
330
7466
100
AcDbSymbolTableRecord
100
AcDbBlockTableRecord
  2
*D8
340
0
  0
BLOCK_RECORD
  5
1DA9A
330
7466
100
AcDbSymbolTableRecord
100
AcDbBlockTableRecord
  2
*D9
340
0
  0
BLOCK_RECORD
  5
1DAA5
330
7466
100
AcDbSymbolTableRecord
100
AcDbBlockTableRecord
  2
*D10
340
0
  0
BLOCK_RECORD
  5
1DAB2
330
7466
100
AcDbSymbolTableRecord
100
AcDbBlockTableRecord
  2
*D11
340
0
  0
BLOCK_RECORD
  5
1DABE
330
7466
100
AcDbSymbolTableRecord
100
AcDbBlockTableRecord
  2
*D12
340
0
  0
BLOCK_RECORD
  5
1DACB
330
7466
100
AcDbSymbolTableRecord
100
AcDbBlockTableRecord
  2
*D13
340
0
  0
BLOCK_RECORD
  5
1DAD9
330
7466
100
AcDbSymbolTableRecord
100
AcDbBlockTableRecord
  2
*D14
340
0
  0
BLOCK_RECORD
  5
1DAE6
330
7466
100
AcDbSymbolTableRecord
100
AcDbBlockTableRecord
  2
*D15
340
0
  0
BLOCK_RECORD
  5
1DAF3
330
7466
100
AcDbSymbolTableRecord
100
AcDbBlockTableRecord
  2
*D16
340
0
  0
BLOCK_RECORD
  5
1DB00
330
7466
100
AcDbSymbolTableRecord
100
AcDbBlockTableRecord
  2
*D17
340
0
  0
BLOCK_RECORD
  5
1DB0D
330
7466
100
AcDbSymbolTableRecord
100
AcDbBlockTableRecord
  2
*D18
340
0
  0
BLOCK_RECORD
  5
1DB1A
330
7466
100
AcDbSymbolTableRecord
100
AcDbBlockTableRecord
  2
*D19
340
0
  0
BLOCK_RECORD
  5
1F3C1
330
7466
100
AcDbSymbolTableRecord
100
AcDbBlockTableRecord
  2
*D20
340
0
  0
BLOCK_RECORD
  5
1F3CD
330
7466
100
AcDbSymbolTableRecord
100
AcDbBlockTableRecord
  2
*D21
340
0
  0
BLOCK_RECORD
  5
1F3D9
330
7466
100
AcDbSymbolTableRecord
100
AcDbBlockTableRecord
  2
*D22
340
0
  0
BLOCK_RECORD
  5
1F3E5
330
7466
100
AcDbSymbolTableRecord
100
AcDbBlockTableRecord
  2
*D23
340
0
  0
BLOCK_RECORD
  5
1F3F1
330
7466
100
AcDbSymbolTableRecord
100
AcDbBlockTableRecord
  2
*D24
340
0
  0
BLOCK_RECORD
  5
1F402
330
7466
100
AcDbSymbolTableRecord
100
AcDbBlockTableRecord
  2
*D25
340
0
  0
ENDTAB
  0
ENDSEC
  0
SECTION
  2
BLOCKS
  0
BLOCK
  5
7489
330
747D
100
AcDbEntity
  8
0
100
AcDbBlockBegin
  2
*MODEL_SPACE
 70
     0
 10
0.0
 20
0.0
 30
0.0
  3
*MODEL_SPACE
  1

  0
ENDBLK
  5
748A
330
747D
100
AcDbEntity
  8
0
100
AcDbBlockEnd
  0
BLOCK
  5
7487
330
747A
100
AcDbEntity
 67
     1
  8
0
100
AcDbBlockBegin
  2
*PAPER_SPACE
 70
     0
 10
0.0
 20
0.0
 30
0.0
  3
*PAPER_SPACE
  1

  0
ENDBLK
  5
7488
330
747A
100
AcDbEntity
 67
     1
  8
0
100
AcDbBlockEnd
  0
BLOCK
  5
F771
330
F770
100
AcDbEntity
  8
0
 48
50.0
100
AcDbBlockBegin
  2
_DOTSMALL
 70
     0
 10
0.0
 20
0.0
 30
0.0
  3
_DOTSMALL
  1

  0
LWPOLYLINE
  5
F772
330
F770
100
AcDbEntity
  8
0
  6
ByBlock
 62
     0
 48
50.0
100
AcDbPolyline
 90
        2
 70
     1
 43
0.5
 10
-0.0625
 20
0.0
 42
1.0
 10
0.0625
 20
0.0
 42
1.0
  0
ENDBLK
  5
F776
330
F770
100
AcDbEntity
  8
0
 48
50.0
100
AcDbBlockEnd
  0
BLOCK
  5
1C531
330
1C530
100
AcDbEntity
  8
0
 48
50.0
100
AcDbBlockBegin
  2
_NONE
 70
     0
 10
0.0
 20
0.0
 30
0.0
  3
_NONE
  1

  0
CIRCLE
  5
1C532
330
1C530
100
AcDbEntity
  8
0
  6
ByBlock
 62
     0
 48
50.0
100
AcDbCircle
 10
0.0
 20
0.0
 30
0.0
 40
0.25
  0
ENDBLK
  5
1C533
330
1C530
100
AcDbEntity
  8
0
 48
50.0
100
AcDbBlockEnd
  0
BLOCK
  5
1DA4F
330
1DA44
100
AcDbEntity
  8
0
 48
50.0
100
AcDbBlockBegin
  2
*D2
 70
     1
 10
0.0
 20
0.0
 30
0.0
  3
*D2
  1

  0
LINE
  5
1F10D
330
1DA44
100
AcDbEntity
  8
寸法
 62
     0
 48
50.0
370
    -2
100
AcDbLine
 10
6667.690951563672
 20
5669.999999999994
 30
0.0
 11
6924.39820143977
 21
5669.999999999994
 31
0.0
  0
LINE
  5
1F10E
330
1DA44
100
AcDbEntity
  8
寸法
 62
     0
 48
50.0
370
    -2
100
AcDbLine
 10
6667.690951563672
 20
5799.999999999996
 30
0.0
 11
6924.39820143977
 21
5799.999999999996
 31
0.0
  0
LINE
  5
1F10F
330
1DA44
100
AcDbEntity
  8
寸法
 62
     0
 48
50.0
370
    -2
100
AcDbLine
 10
6864.398201439771
 20
5669.999999999994
 30
0.0
 11
6864.398201439771
 21
5799.999999999996
 31
0.0
  0
LINE
  5
1F110
330
1DA44
100
AcDbEntity
  8
寸法
 62
     0
 48
50.0
370
    -2
100
AcDbLine
 10
6864.398201439771
 20
5799.999999999996
 30
0.0
 11
6864.398201439772
 21
6172.094488188972
 31
0.0
  0
INSERT
  5
1F111
330
1DA44
100
AcDbEntity
  8
寸法
 62
     0
 48
50.0
370
    -2
100
AcDbBlockReference
  2
_DOTSMALL
 10
6864.398201439771
 20
5669.999999999994
 30
0.0
 41
100.0
 42
100.0
 43
100.0
 50
270.0
  0
INSERT
  5
1F112
330
1DA44
100
AcDbEntity
  8
寸法
 62
     0
 48
50.0
370
    -2
100
AcDbBlockReference
  2
_DOTSMALL
 10
6864.398201439771
 20
5799.999999999996
 30
0.0
 41
100.0
 42
100.0
 43
100.0
 50
90.0
  0
MTEXT
  5
1F113
330
1DA44
100
AcDbEntity
  8
寸法
 62
     7
 48
50.0
100
AcDbMText
 10
6764.398201439769
 20
6036.047244094486
 30
0.0
 40
120.0
 41
0.0
 71
     5
 72
     1
  1
\A1;130
  7
STYLE1
 11
0.0000000000000001
 21
1.0
 31
0.0
 73
     1
 44
1.0
1001
ACAD
1000
MTEXTBEGIN
1070
    73
1070
     1
1070
    44
1040
1.0
1070
    74
1070
     0
1000
MTEXTEND
  0
POINT
  5
1F114
330
1DA44
100
AcDbEntity
  8
DEFPOINTS
 62
     0
 48
50.0
100
AcDbPoint
 10
6647.690951563672
 20
5669.999999999994
 30
0.0
  0
POINT
  5
1F115
330
1DA44
100
AcDbEntity
  8
DEFPOINTS
 62
     0
 48
50.0
100
AcDbPoint
 10
6647.690951563672
 20
5799.999999999996
 30
0.0
  0
POINT
  5
1F116
330
1DA44
100
AcDbEntity
  8
DEFPOINTS
 62
     0
 48
50.0
100
AcDbPoint
 10
6864.398201439771
 20
5799.999999999996
 30
0.0
  0
ENDBLK
  5
1DA50
330
1DA44
100
AcDbEntity
  8
0
 48
50.0
100
AcDbBlockEnd
  0
BLOCK
  5
1DA5C
330
1DA51
100
AcDbEntity
  8
0
 48
50.0
100
AcDbBlockBegin
  2
*D3
 70
     1
 10
0.0
 20
0.0
 30
0.0
  3
*D3
  1

  0
LINE
  5
1F103
330
1DA51
100
AcDbEntity
  8
寸法
 62
     0
 48
50.0
370
    -2
100
AcDbLine
 10
6667.690951563672
 20
5669.999999999995
 30
0.0
 11
6924.39820143977
 21
5669.999999999995
 31
0.0
  0
LINE
  5
1F104
330
1DA51
100
AcDbEntity
  8
寸法
 62
     0
 48
50.0
370
    -2
100
AcDbLine
 10
6667.690951563672
 20
5499.999999999993
 30
0.0
 11
6924.39820143977
 21
5499.999999999993
 31
0.0
  0
LINE
  5
1F105
330
1DA51
100
AcDbEntity
  8
寸法
 62
     0
 48
50.0
370
    -2
100
AcDbLine
 10
6864.398201439771
 20
5669.999999999995
 30
0.0
 11
6864.398201439771
 21
5499.999999999993
 31
0.0
  0
LINE
  5
1F106
330
1DA51
100
AcDbEntity
  8
寸法
 62
     0
 48
50.0
370
    -2
100
AcDbLine
 10
6864.398201439771
 20
5499.999999999993
 30
0.0
 11
6864.398201439771
 21
5127.905511811016
 31
0.0
  0
INSERT
  5
1F107
330
1DA51
100
AcDbEntity
  8
寸法
 62
     0
 48
50.0
370
    -2
100
AcDbBlockReference
  2
_DOTSMALL
 10
6864.398201439771
 20
5669.999999999995
 30
0.0
 41
100.0
 42
100.0
 43
100.0
 50
90.0
  0
INSERT
  5
1F108
330
1DA51
100
AcDbEntity
  8
寸法
 62
     0
 48
50.0
370
    -2
100
AcDbBlockReference
  2
_DOTSMALL
 10
6864.398201439771
 20
5499.999999999993
 30
0.0
 41
100.0
 42
100.0
 43
100.0
 50
270.0
  0
MTEXT
  5
1F109
330
1DA51
100
AcDbEntity
  8
寸法
 62
     7
 48
50.0
100
AcDbMText
 10
6764.398201439769
 20
5263.952755905506
 30
0.0
 40
120.0
 41
0.0
 71
     5
 72
     1
  1
\A1;170
  7
STYLE1
 11
0.0000000000000001
 21
1.0
 31
0.0
 73
     1
 44
1.0
1001
ACAD
1000
MTEXTBEGIN
1070
    73
1070
     1
1070
    44
1040
1.0
1070
    74
1070
     0
1000
MTEXTEND
  0
POINT
  5
1F10A
330
1DA51
100
AcDbEntity
  8
DEFPOINTS
 62
     0
 48
50.0
100
AcDbPoint
 10
6647.690951563672
 20
5669.999999999995
 30
0.0
  0
POINT
  5
1F10B
330
1DA51
100
AcDbEntity
  8
DEFPOINTS
 62
     0
 48
50.0
100
AcDbPoint
 10
6647.690951563672
 20
5499.999999999993
 30
0.0
  0
POINT
  5
1F10C
330
1DA51
100
AcDbEntity
  8
DEFPOINTS
 62
     0
 48
50.0
100
AcDbPoint
 10
6864.398201439771
 20
5499.999999999993
 30
0.0
  0
ENDBLK
  5
1DA5D
330
1DA51
100
AcDbEntity
  8
0
 48
50.0
100
AcDbBlockEnd
  0
BLOCK
  5
1DA67
330
1DA5E
100
AcDbEntity
  8
0
 48
50.0
100
AcDbBlockBegin
  2
*D4
 70
     1
 10
0.0
 20
0.0
 30
0.0
  3
*D4
  1

  0
LINE
  5
1F0FA
330
1DA5E
100
AcDbEntity
  8
寸法
 62
     0
 48
50.0
370
    -2
100
AcDbLine
 10
9354.690951563673
 20
6406.999999999991
 30
0.0
 11
9354.690951563673
 21
7125.060610389922
 31
0.0
  0
LINE
  5
1F0FB
330
1DA5E
100
AcDbEntity
  8
寸法
 62
     0
 48
50.0
370
    -2
100
AcDbLine
 10
6540.690951563672
 20
6406.999999999992
 30
0.0
 11
6540.690951563672
 21
7125.060610389922
 31
0.0
  0
LINE
  5
1F0FC
330
1DA5E
100
AcDbEntity
  8
寸法
 62
     0
 48
50.0
370
    -2
100
AcDbLine
 10
9354.690951563673
 20
7065.06061038992
 30
0.0
 11
6540.690951563672
 21
7065.06061038992
 31
0.0
  0
INSERT
  5
1F0FD
330
1DA5E
100
AcDbEntity
  8
寸法
 62
     0
 48
50.0
370
    -2
100
AcDbBlockReference
  2
_DOTSMALL
 10
9354.690951563673
 20
7065.06061038992
 30
0.0
 41
100.0
 42
100.0
 43
100.0
  0
INSERT
  5
1F0FE
330
1DA5E
100
AcDbEntity
  8
寸法
 62
     0
 48
50.0
370
    -2
100
AcDbBlockReference
  2
_DOTSMALL
 10
6540.690951563672
 20
7065.06061038992
 30
0.0
 41
100.0
 42
100.0
 43
100.0
 50
180.0
  0
MTEXT
  5
1F0FF
330
1DA5E
100
AcDbEntity
  8
寸法
 62
     7
 48
50.0
100
AcDbMText
 10
7947.690951563673
 20
7165.072421413542
 30
0.0
 40
120.0
 41
0.0
 71
     5
 72
     1
  1
\A1;2814
  7
STYLE1
 73
     1
 44
1.0
1001
ACAD
1000
MTEXTBEGIN
1070
    73
1070
     1
1070
    44
1040
1.0
1070
    74
1070
     0
1000
MTEXTEND
  0
POINT
  5
1F100
330
1DA5E
100
AcDbEntity
  8
DEFPOINTS
 62
     0
 48
50.0
100
AcDbPoint
 10
9354.690951563673
 20
6386.999999999991
 30
0.0
  0
POINT
  5
1F101
330
1DA5E
100
AcDbEntity
  8
DEFPOINTS
 62
     0
 48
50.0
100
AcDbPoint
 10
6540.690951563672
 20
6386.999999999992
 30
0.0
  0
POINT
  5
1F102
330
1DA5E
100
AcDbEntity
  8
DEFPOINTS
 62
     0
 48
50.0
100
AcDbPoint
 10
6540.690951563672
 20
7065.06061038992
 30
0.0
  0
ENDBLK
  5
1DA68
330
1DA5E
100
AcDbEntity
  8
0
 48
50.0
100
AcDbBlockEnd
  0
BLOCK
  5
1DA72
330
1DA69
100
AcDbEntity
  8
0
 48
50.0
100
AcDbBlockBegin
  2
*D5
 70
     1
 10
0.0
 20
0.0
 30
0.0
  3
*D5
  1

  0
LINE
  5
1F0F1
330
1DA69
100
AcDbEntity
  8
寸法
 62
     0
 48
50.0
370
    -2
100
AcDbLine
 10
6417.690951563672
 20
6479.999999999993
 30
0.0
 11
6417.690951563672
 21
7337.521305906758
 31
0.0
  0
LINE
  5
1F0F2
330
1DA69
100
AcDbEntity
  8
寸法
 62
     0
 48
50.0
370
    -2
100
AcDbLine
 10
9477.690951563673
 20
6479.999999999991
 30
0.0
 11
9477.690951563673
 21
7337.521305906758
 31
0.0
  0
LINE
  5
1F0F3
330
1DA69
100
AcDbEntity
  8
寸法
 62
     0
 48
50.0
370
    -2
100
AcDbLine
 10
6417.690951563672
 20
7277.521305906758
 30
0.0
 11
9477.690951563673
 21
7277.521305906758
 31
0.0
  0
INSERT
  5
1F0F4
330
1DA69
100
AcDbEntity
  8
寸法
 62
     0
 48
50.0
370
    -2
100
AcDbBlockReference
  2
_DOTSMALL
 10
6417.690951563672
 20
7277.521305906758
 30
0.0
 41
100.0
 42
100.0
 43
100.0
 50
180.0
  0
INSERT
  5
1F0F5
330
1DA69
100
AcDbEntity
  8
寸法
 62
     0
 48
50.0
370
    -2
100
AcDbBlockReference
  2
_DOTSMALL
 10
9477.690951563673
 20
7277.521305906758
 30
0.0
 41
100.0
 42
100.0
 43
100.0
  0
MTEXT
  5
1F0F6
330
1DA69
100
AcDbEntity
  8
寸法
 62
     7
 48
50.0
100
AcDbMText
 10
7947.690951563673
 20
7377.521305906758
 30
0.0
 40
120.0
 41
0.0
 71
     5
 72
     1
  1
\A1;3060
  7
STYLE1
 73
     1
 44
1.0
1001
ACAD
1000
MTEXTBEGIN
1070
    73
1070
     1
1070
    44
1040
1.0
1070
    74
1070
     0
1000
MTEXTEND
  0
POINT
  5
1F0F7
330
1DA69
100
AcDbEntity
  8
DEFPOINTS
 62
     0
 48
50.0
100
AcDbPoint
 10
6417.690951563672
 20
6459.999999999992
 30
0.0
  0
POINT
  5
1F0F8
330
1DA69
100
AcDbEntity
  8
DEFPOINTS
 62
     0
 48
50.0
100
AcDbPoint
 10
9477.690951563673
 20
6459.999999999991
 30
0.0
  0
POINT
  5
1F0F9
330
1DA69
100
AcDbEntity
  8
DEFPOINTS
 62
     0
 48
50.0
100
AcDbPoint
 10
9477.690951563673
 20
7277.521305906758
 30
0.0
  0
ENDBLK
  5
1DA73
330
1DA69
100
AcDbEntity
  8
0
 48
50.0
100
AcDbBlockEnd
  0
BLOCK
  5
1DA7F
330
1DA74
100
AcDbEntity
  8
0
 48
50.0
100
AcDbBlockBegin
  2
*D6
 70
     1
 10
0.0
 20
0.0
 30
0.0
  3
*D6
  1

  0
LINE
  5
1F0E7
330
1DA74
100
AcDbEntity
  8
寸法
 62
     0
 48
50.0
370
    -2
100
AcDbLine
 10
6540.690951563672
 20
6406.999999999992
 30
0.0
 11
6540.690951563672
 21
7125.060610389922
 31
0.0
  0
LINE
  5
1F0E8
330
1DA74
100
AcDbEntity
  8
寸法
 62
     0
 48
50.0
370
    -2
100
AcDbLine
 10
6417.690951563672
 20
6479.999999999993
 30
0.0
 11
6417.690951563672
 21
7125.060610389922
 31
0.0
  0
LINE
  5
1F0E9
330
1DA74
100
AcDbEntity
  8
寸法
 62
     0
 48
50.0
370
    -2
100
AcDbLine
 10
6540.690951563672
 20
7065.060610389922
 30
0.0
 11
6417.690951563672
 21
7065.060610389922
 31
0.0
  0
LINE
  5
1F0EA
330
1DA74
100
AcDbEntity
  8
寸法
 62
     0
 48
50.0
370
    -2
100
AcDbLine
 10
6417.690951563672
 20
7065.060610389922
 30
0.0
 11
6040.720388815195
 21
7065.060610389922
 31
0.0
  0
INSERT
  5
1F0EB
330
1DA74
100
AcDbEntity
  8
寸法
 62
     0
 48
50.0
370
    -2
100
AcDbBlockReference
  2
_DOTSMALL
 10
6540.690951563672
 20
7065.060610389922
 30
0.0
 41
100.0
 42
100.0
 43
100.0
  0
INSERT
  5
1F0EC
330
1DA74
100
AcDbEntity
  8
寸法
 62
     0
 48
50.0
370
    -2
100
AcDbBlockReference
  2
_DOTSMALL
 10
6417.690951563672
 20
7065.060610389922
 30
0.0
 41
100.0
 42
100.0
 43
100.0
 50
180.0
  0
MTEXT
  5
1F0ED
330
1DA74
100
AcDbEntity
  8
寸法
 62
     7
 48
50.0
100
AcDbMText
 10
6179.205670189435
 20
7165.072421413544
 30
0.0
 40
120.0
 41
0.0
 71
     5
 72
     1
  1
\A1;123
  7
STYLE1
 73
     1
 44
1.0
1001
ACAD
1000
MTEXTBEGIN
1070
    73
1070
     1
1070
    44
1040
1.0
1070
    74
1070
     0
1000
MTEXTEND
  0
POINT
  5
1F0EE
330
1DA74
100
AcDbEntity
  8
DEFPOINTS
 62
     0
 48
50.0
100
AcDbPoint
 10
6540.690951563672
 20
6386.999999999992
 30
0.0
  0
POINT
  5
1F0EF
330
1DA74
100
AcDbEntity
  8
DEFPOINTS
 62
     0
 48
50.0
100
AcDbPoint
 10
6417.690951563672
 20
6459.999999999992
 30
0.0
  0
POINT
  5
1F0F0
330
1DA74
100
AcDbEntity
  8
DEFPOINTS
 62
     0
 48
50.0
100
AcDbPoint
 10
6417.690951563672
 20
7065.060610389922
 30
0.0
  0
ENDBLK
  5
1DA80
330
1DA74
100
AcDbEntity
  8
0
 48
50.0
100
AcDbBlockEnd
  0
BLOCK
  5
1DA8C
330
1DA81
100
AcDbEntity
  8
0
 48
50.0
100
AcDbBlockBegin
  2
*D7
 70
     1
 10
0.0
 20
0.0
 30
0.0
  3
*D7
  1

  0
LINE
  5
1F0DC
330
1DA81
100
AcDbEntity
  8
寸法
 62
     0
 48
50.0
370
    -2
100
AcDbLine
 10
6372.690951563669
 20
7085.060610389922
 30
0.0
 11
6372.690951563669
 21
7337.52130590676
 31
0.0
  0
LINE
  5
1F0DD
330
1DA81
100
AcDbEntity
  8
寸法
 62
     0
 48
50.0
370
    -2
100
AcDbLine
 10
6417.690951563672
 20
6479.999999999993
 30
0.0
 11
6417.690951563672
 21
7337.52130590676
 31
0.0
  0
LINE
  5
1F0DE
330
1DA81
100
AcDbEntity
  8
寸法
 62
     0
 48
50.0
370
    -2
100
AcDbLine
 10
6372.690951563669
 20
7277.521305906759
 30
0.0
 11
6272.690951563669
 21
7277.521305906759
 31
0.0
  0
LINE
  5
1F0DF
330
1DA81
100
AcDbEntity
  8
寸法
 62
     0
 48
50.0
370
    -2
100
AcDbLine
 10
6417.690951563672
 20
7277.521305906759
 30
0.0
 11
6517.690951563672
 21
7277.521305906759
 31
0.0
  0
LINE
  5
1F0E0
330
1DA81
100
AcDbEntity
  8
寸法
 62
     0
 48
50.0
370
    -2
100
AcDbLine
 10
6372.690951563669
 20
7277.521305906759
 30
0.0
 11
6417.690951563672
 21
7277.521305906759
 31
0.0
  0
INSERT
  5
1F0E1
330
1DA81
100
AcDbEntity
  8
寸法
 62
     0
 48
50.0
370
    -2
100
AcDbBlockReference
  2
_DOTSMALL
 10
6372.690951563669
 20
7277.521305906759
 30
0.0
 41
100.0
 42
100.0
 43
100.0
  0
INSERT
  5
1F0E2
330
1DA81
100
AcDbEntity
  8
寸法
 62
     0
 48
50.0
370
    -2
100
AcDbBlockReference
  2
_DOTSMALL
 10
6417.690951563672
 20
7277.521305906759
 30
0.0
 41
100.0
 42
100.0
 43
100.0
 50
180.0
  0
MTEXT
  5
1F0E3
330
1DA81
100
AcDbEntity
  8
寸法
 62
     7
 48
50.0
100
AcDbMText
 10
6395.19095156367
 20
7377.52130590676
 30
0.0
 40
120.0
 41
0.0
 71
     5
 72
     1
  1
\A1;a
  7
STYLE1
 73
     1
 44
1.0
1001
ACAD
1000
MTEXTBEGIN
1070
    73
1070
     1
1070
    44
1040
1.0
1070
    74
1070
     0
1000
MTEXTEND
  0
POINT
  5
1F0E4
330
1DA81
100
AcDbEntity
  8
DEFPOINTS
 62
     0
 48
50.0
100
AcDbPoint
 10
6372.690951563669
 20
7065.060610389922
 30
0.0
  0
POINT
  5
1F0E5
330
1DA81
100
AcDbEntity
  8
DEFPOINTS
 62
     0
 48
50.0
100
AcDbPoint
 10
6417.690951563672
 20
6459.999999999992
 30
0.0
  0
POINT
  5
1F0E6
330
1DA81
100
AcDbEntity
  8
DEFPOINTS
 62
     0
 48
50.0
100
AcDbPoint
 10
6417.690951563672
 20
7277.521305906759
 30
0.0
  0
ENDBLK
  5
1DA8D
330
1DA81
100
AcDbEntity
  8
0
 48
50.0
100
AcDbBlockEnd
  0
BLOCK
  5
1DA98
330
1DA8E
100
AcDbEntity
  8
0
 48
50.0
100
AcDbBlockBegin
  2
*D8
 70
     1
 10
0.0
 20
0.0
 30
0.0
  3
*D8
  1

  0
LINE
  5
1F0D3
330
1DA8E
100
AcDbEntity
  8
寸法
 62
     0
 48
50.0
370
    -2
100
AcDbLine
 10
6470.690951563672
 20
6336.999999999992
 30
0.0
 11
5861.748685549851
 21
6336.999999999992
 31
0.0
  0
LINE
  5
1F0D4
330
1DA8E
100
AcDbEntity
  8
寸法
 62
     0
 48
50.0
370
    -2
100
AcDbLine
 10
6470.690951563679
 20
5697.999999999994
 30
0.0
 11
5861.748685549851
 21
5697.999999999995
 31
0.0
  0
LINE
  5
1F0D5
330
1DA8E
100
AcDbEntity
  8
寸法
 62
     0
 48
50.0
370
    -2
100
AcDbLine
 10
5921.748685549852
 20
6336.999999999992
 30
0.0
 11
5921.748685549851
 21
5697.999999999995
 31
0.0
  0
INSERT
  5
1F0D6
330
1DA8E
100
AcDbEntity
  8
寸法
 62
     0
 48
50.0
370
    -2
100
AcDbBlockReference
  2
_DOTSMALL
 10
5921.748685549852
 20
6336.999999999992
 30
0.0
 41
100.0
 42
100.0
 43
100.0
 50
90.0
  0
INSERT
  5
1F0D7
330
1DA8E
100
AcDbEntity
  8
寸法
 62
     0
 48
50.0
370
    -2
100
AcDbBlockReference
  2
_DOTSMALL
 10
5921.748685549851
 20
5697.999999999995
 30
0.0
 41
100.0
 42
100.0
 43
100.0
 50
270.0
  0
MTEXT
  5
1F0D8
330
1DA8E
100
AcDbEntity
  8
寸法
 62
     7
 48
50.0
100
AcDbMText
 10
5821.74868554985
 20
6024.668633536566
 30
0.0
 40
120.0
 41
0.0
 71
     5
 72
     1
  1
\A1;639
  7
STYLE1
 11
0.0000000000000001
 21
1.0
 31
0.0
 73
     1
 44
1.0
1001
ACAD
1000
MTEXTBEGIN
1070
    73
1070
     1
1070
    44
1040
1.0
1070
    74
1070
     0
1000
MTEXTEND
  0
POINT
  5
1F0D9
330
1DA8E
100
AcDbEntity
  8
DEFPOINTS
 62
     0
 48
50.0
100
AcDbPoint
 10
6490.690951563673
 20
6336.999999999992
 30
0.0
  0
POINT
  5
1F0DA
330
1DA8E
100
AcDbEntity
  8
DEFPOINTS
 62
     0
 48
50.0
100
AcDbPoint
 10
6490.69095156368
 20
5697.999999999994
 30
0.0
  0
POINT
  5
1F0DB
330
1DA8E
100
AcDbEntity
  8
DEFPOINTS
 62
     0
 48
50.0
100
AcDbPoint
 10
5921.748685549851
 20
5697.999999999995
 30
0.0
  0
ENDBLK
  5
1DA99
330
1DA8E
100
AcDbEntity
  8
0
 48
50.0
100
AcDbBlockEnd
  0
BLOCK
  5
1DAA3
330
1DA9A
100
AcDbEntity
  8
0
 48
50.0
100
AcDbBlockBegin
  2
*D9
 70
     1
 10
0.0
 20
0.0
 30
0.0
  3
*D9
  1

  0
LINE
  5
1F0CA
330
1DA9A
100
AcDbEntity
  8
寸法
 62
     0
 48
50.0
370
    -2
100
AcDbLine
 10
6397.690951563673
 20
6459.999999999992
 30
0.0
 11
5616.255883411884
 21
6459.999999999992
 31
0.0
  0
LINE
  5
1F0CB
330
1DA9A
100
AcDbEntity
  8
寸法
 62
     0
 48
50.0
370
    -2
100
AcDbLine
 10
6397.690951563673
 20
5499.999999999992
 30
0.0
 11
5616.255883411884
 21
5499.999999999992
 31
0.0
  0
LINE
  5
1F0CC
330
1DA9A
100
AcDbEntity
  8
寸法
 62
     0
 48
50.0
370
    -2
100
AcDbLine
 10
5676.255883411885
 20
6459.999999999992
 30
0.0
 11
5676.255883411883
 21
5499.999999999992
 31
0.0
  0
INSERT
  5
1F0CD
330
1DA9A
100
AcDbEntity
  8
寸法
 62
     0
 48
50.0
370
    -2
100
AcDbBlockReference
  2
_DOTSMALL
 10
5676.255883411885
 20
6459.999999999992
 30
0.0
 41
100.0
 42
100.0
 43
100.0
 50
90.0
  0
INSERT
  5
1F0CE
330
1DA9A
100
AcDbEntity
  8
寸法
 62
     0
 48
50.0
370
    -2
100
AcDbBlockReference
  2
_DOTSMALL
 10
5676.255883411883
 20
5499.999999999992
 30
0.0
 41
100.0
 42
100.0
 43
100.0
 50
270.0
  0
MTEXT
  5
1F0CF
330
1DA9A
100
AcDbEntity
  8
寸法
 62
     7
 48
50.0
100
AcDbMText
 10
5576.255883411882
 20
6024.668633536566
 30
0.0
 40
120.0
 41
0.0
 71
     5
 72
     1
  1
\A1;960
  7
STYLE1
 11
0.0000000000000001
 21
1.0
 31
0.0
 73
     1
 44
1.0
1001
ACAD
1000
MTEXTBEGIN
1070
    73
1070
     1
1070
    44
1040
1.0
1070
    74
1070
     0
1000
MTEXTEND
  0
POINT
  5
1F0D0
330
1DA9A
100
AcDbEntity
  8
DEFPOINTS
 62
     0
 48
50.0
100
AcDbPoint
 10
6417.690951563672
 20
6459.999999999992
 30
0.0
  0
POINT
  5
1F0D1
330
1DA9A
100
AcDbEntity
  8
DEFPOINTS
 62
     0
 48
50.0
100
AcDbPoint
 10
6417.690951563672
 20
5499.999999999992
 30
0.0
  0
POINT
  5
1F0D2
330
1DA9A
100
AcDbEntity
  8
DEFPOINTS
 62
     0
 48
50.0
100
AcDbPoint
 10
5676.255883411883
 20
5499.999999999992
 30
0.0
  0
ENDBLK
  5
1DAA4
330
1DA9A
100
AcDbEntity
  8
0
 48
50.0
100
AcDbBlockEnd
  0
BLOCK
  5
1DAB0
330
1DAA5
100
AcDbEntity
  8
0
 48
50.0
100
AcDbBlockBegin
  2
*D10
 70
     1
 10
0.0
 20
0.0
 30
0.0
  3
*D10
  1

  0
LINE
  5
1F0C0
330
1DAA5
100
AcDbEntity
  8
寸法
 62
     0
 48
50.0
370
    -2
100
AcDbLine
 10
6470.690951563679
 20
5697.999999999994
 30
0.0
 11
5861.748685549851
 21
5697.999999999995
 31
0.0
  0
LINE
  5
1F0C1
330
1DAA5
100
AcDbEntity
  8
寸法
 62
     0
 48
50.0
370
    -2
100
AcDbLine
 10
6397.690951563673
 20
5499.999999999992
 30
0.0
 11
5861.748685549851
 21
5499.999999999992
 31
0.0
  0
LINE
  5
1F0C2
330
1DAA5
100
AcDbEntity
  8
寸法
 62
     0
 48
50.0
370
    -2
100
AcDbLine
 10
5921.748685549851
 20
5697.999999999995
 30
0.0
 11
5921.748685549851
 21
5499.999999999992
 31
0.0
  0
LINE
  5
1F0C3
330
1DAA5
100
AcDbEntity
  8
寸法
 62
     0
 48
50.0
370
    -2
100
AcDbLine
 10
5921.748685549851
 20
5499.999999999992
 30
0.0
 11
5921.748685549851
 21
5127.580680340679
 31
0.0
  0
INSERT
  5
1F0C4
330
1DAA5
100
AcDbEntity
  8
寸法
 62
     0
 48
50.0
370
    -2
100
AcDbBlockReference
  2
_DOTSMALL
 10
5921.748685549851
 20
5697.999999999995
 30
0.0
 41
100.0
 42
100.0
 43
100.0
 50
90.0
  0
INSERT
  5
1F0C5
330
1DAA5
100
AcDbEntity
  8
寸法
 62
     0
 48
50.0
370
    -2
100
AcDbBlockReference
  2
_DOTSMALL
 10
5921.748685549851
 20
5499.999999999992
 30
0.0
 41
100.0
 42
100.0
 43
100.0
 50
270.0
  0
MTEXT
  5
1F0C6
330
1DAA5
100
AcDbEntity
  8
寸法
 62
     7
 48
50.0
100
AcDbMText
 10
5821.74868554985
 20
5263.790340170337
 30
0.0
 40
120.0
 41
0.0
 71
     5
 72
     1
  1
\A1;198
  7
STYLE1
 11
0.0000000000000001
 21
1.0
 31
0.0
 73
     1
 44
1.0
1001
ACAD
1000
MTEXTBEGIN
1070
    73
1070
     1
1070
    44
1040
1.0
1070
    74
1070
     0
1000
MTEXTEND
  0
POINT
  5
1F0C7
330
1DAA5
100
AcDbEntity
  8
DEFPOINTS
 62
     0
 48
50.0
100
AcDbPoint
 10
6490.69095156368
 20
5697.999999999994
 30
0.0
  0
POINT
  5
1F0C8
330
1DAA5
100
AcDbEntity
  8
DEFPOINTS
 62
     0
 48
50.0
100
AcDbPoint
 10
6417.690951563672
 20
5499.999999999992
 30
0.0
  0
POINT
  5
1F0C9
330
1DAA5
100
AcDbEntity
  8
DEFPOINTS
 62
     0
 48
50.0
100
AcDbPoint
 10
5921.748685549851
 20
5499.999999999992
 30
0.0
  0
ENDBLK
  5
1DAB1
330
1DAA5
100
AcDbEntity
  8
0
 48
50.0
100
AcDbBlockEnd
  0
BLOCK
  5
1DABC
330
1DAB2
100
AcDbEntity
  8
0
 48
50.0
100
AcDbBlockBegin
  2
*D11
 70
     1
 10
0.0
 20
0.0
 30
0.0
  3
*D11
  1

  0
LINE
  5
1F0B5
330
1DAB2
100
AcDbEntity
  8
寸法
 62
     0
 48
50.0
370
    -2
100
AcDbLine
 10
6397.690951563673
 20
5499.999999999992
 30
0.0
 11
5616.255883411884
 21
5499.999999999992
 31
0.0
  0
LINE
  5
1F0B6
330
1DAB2
100
AcDbEntity
  8
寸法
 62
     0
 48
50.0
370
    -2
100
AcDbLine
 10
5901.748685549851
 20
5444.999999999992
 30
0.0
 11
5616.255883411884
 21
5444.999999999992
 31
0.0
  0
LINE
  5
1F0B7
330
1DAB2
100
AcDbEntity
  8
寸法
 62
     0
 48
50.0
370
    -2
100
AcDbLine
 10
5676.255883411885
 20
5499.999999999992
 30
0.0
 11
5676.255883411885
 21
5599.999999999993
 31
0.0
  0
LINE
  5
1F0B8
330
1DAB2
100
AcDbEntity
  8
寸法
 62
     0
 48
50.0
370
    -2
100
AcDbLine
 10
5676.255883411885
 20
5444.999999999992
 30
0.0
 11
5676.255883411885
 21
5344.999999999991
 31
0.0
  0
LINE
  5
1F0B9
330
1DAB2
100
AcDbEntity
  8
寸法
 62
     0
 48
50.0
370
    -2
100
AcDbLine
 10
5676.255883411885
 20
5499.999999999992
 30
0.0
 11
5676.255883411885
 21
5444.999999999992
 31
0.0
  0
INSERT
  5
1F0BA
330
1DAB2
100
AcDbEntity
  8
寸法
 62
     0
 48
50.0
370
    -2
100
AcDbBlockReference
  2
_DOTSMALL
 10
5676.255883411885
 20
5499.999999999992
 30
0.0
 41
100.0
 42
100.0
 43
100.0
 50
270.0
  0
INSERT
  5
1F0BB
330
1DAB2
100
AcDbEntity
  8
寸法
 62
     0
 48
50.0
370
    -2
100
AcDbBlockReference
  2
_DOTSMALL
 10
5676.255883411885
 20
5444.999999999992
 30
0.0
 41
100.0
 42
100.0
 43
100.0
 50
90.0
  0
MTEXT
  5
1F0BC
330
1DAB2
100
AcDbEntity
  8
寸法
 62
     7
 48
50.0
100
AcDbMText
 10
5576.255883411883
 20
5472.499999999993
 30
0.0
 40
120.0
 41
0.0
 71
     5
 72
     1
  1
\A1;b
  7
STYLE1
 11
0.0000000000000001
 21
1.0
 31
0.0
 73
     1
 44
1.0
1001
ACAD
1000
MTEXTBEGIN
1070
    73
1070
     1
1070
    44
1040
1.0
1070
    74
1070
     0
1000
MTEXTEND
  0
POINT
  5
1F0BD
330
1DAB2
100
AcDbEntity
  8
DEFPOINTS
 62
     0
 48
50.0
100
AcDbPoint
 10
6417.690951563672
 20
5499.999999999992
 30
0.0
  0
POINT
  5
1F0BE
330
1DAB2
100
AcDbEntity
  8
DEFPOINTS
 62
     0
 48
50.0
100
AcDbPoint
 10
5921.748685549851
 20
5444.999999999992
 30
0.0
  0
POINT
  5
1F0BF
330
1DAB2
100
AcDbEntity
  8
DEFPOINTS
 62
     0
 48
50.0
100
AcDbPoint
 10
5676.255883411885
 20
5444.999999999992
 30
0.0
  0
ENDBLK
  5
1DABD
330
1DAB2
100
AcDbEntity
  8
0
 48
50.0
100
AcDbBlockEnd
  0
BLOCK
  5
1DAC9
330
1DABE
100
AcDbEntity
  8
0
 48
50.0
100
AcDbBlockBegin
  2
*D12
 70
     1
 10
0.0
 20
0.0
 30
0.0
  3
*D12
  1

  0
LINE
  5
1F0AB
330
1DABE
100
AcDbEntity
  8
寸法
 62
     0
 48
50.0
370
    -2
100
AcDbLine
 10
6397.690951563673
 20
6459.999999999992
 30
0.0
 11
5861.748685549851
 21
6459.999999999992
 31
0.0
  0
LINE
  5
1F0AC
330
1DABE
100
AcDbEntity
  8
寸法
 62
     0
 48
50.0
370
    -2
100
AcDbLine
 10
6470.690951563672
 20
6336.999999999992
 30
0.0
 11
5861.748685549851
 21
6336.999999999992
 31
0.0
  0
LINE
  5
1F0AD
330
1DABE
100
AcDbEntity
  8
寸法
 62
     0
 48
50.0
370
    -2
100
AcDbLine
 10
5921.748685549852
 20
6336.999999999992
 30
0.0
 11
5921.748685549852
 21
6459.999999999992
 31
0.0
  0
LINE
  5
1F0AE
330
1DABE
100
AcDbEntity
  8
寸法
 62
     0
 48
50.0
370
    -2
100
AcDbLine
 10
5921.748685549852
 20
6459.999999999992
 30
0.0
 11
5921.748685549852
 21
6836.97056274847
 31
0.0
  0
INSERT
  5
1F0AF
330
1DABE
100
AcDbEntity
  8
寸法
 62
     0
 48
50.0
370
    -2
100
AcDbBlockReference
  2
_DOTSMALL
 10
5921.748685549852
 20
6336.999999999992
 30
0.0
 41
100.0
 42
100.0
 43
100.0
 50
270.0
  0
INSERT
  5
1F0B0
330
1DABE
100
AcDbEntity
  8
寸法
 62
     0
 48
50.0
370
    -2
100
AcDbBlockReference
  2
_DOTSMALL
 10
5921.748685549852
 20
6459.999999999992
 30
0.0
 41
100.0
 42
100.0
 43
100.0
 50
90.0
  0
MTEXT
  5
1F0B1
330
1DABE
100
AcDbEntity
  8
寸法
 62
     7
 48
50.0
100
AcDbMText
 10
5821.736874526228
 20
6698.485281374232
 30
0.0
 40
120.0
 41
0.0
 71
     5
 72
     1
  1
\A1;123
  7
STYLE1
 11
0.0000000000000001
 21
1.0
 31
0.0
 73
     1
 44
1.0
1001
ACAD
1000
MTEXTBEGIN
1070
    73
1070
     1
1070
    44
1040
1.0
1070
    74
1070
     0
1000
MTEXTEND
  0
POINT
  5
1F0B2
330
1DABE
100
AcDbEntity
  8
DEFPOINTS
 62
     0
 48
50.0
100
AcDbPoint
 10
6417.690951563672
 20
6459.999999999992
 30
0.0
  0
POINT
  5
1F0B3
330
1DABE
100
AcDbEntity
  8
DEFPOINTS
 62
     0
 48
50.0
100
AcDbPoint
 10
6490.690951563673
 20
6336.999999999992
 30
0.0
  0
POINT
  5
1F0B4
330
1DABE
100
AcDbEntity
  8
DEFPOINTS
 62
     0
 48
50.0
100
AcDbPoint
 10
5921.748685549852
 20
6336.999999999992
 30
0.0
  0
ENDBLK
  5
1DACA
330
1DABE
100
AcDbEntity
  8
0
 48
50.0
100
AcDbBlockEnd
  0
BLOCK
  5
1DAD7
330
1DACB
100
AcDbEntity
  8
0
 48
50.0
100
AcDbBlockBegin
  2
*D13
 70
     1
 10
0.0
 20
0.0
 30
0.0
  3
*D13
  1

  0
LINE
  5
1F0A0
330
1DACB
100
AcDbEntity
  8
寸法
 62
     0
 48
50.0
370
    -2
100
AcDbLine
 10
5901.748685549851
 20
6534.999999999993
 30
0.0
 11
5616.255883411884
 21
6534.999999999993
 31
0.0
  0
LINE
  5
1F0A1
330
1DACB
100
AcDbEntity
  8
寸法
 62
     0
 48
50.0
370
    -2
100
AcDbLine
 10
6397.690951563673
 20
6459.999999999992
 30
0.0
 11
5616.255883411884
 21
6459.999999999992
 31
0.0
  0
LINE
  5
1F0A2
330
1DACB
100
AcDbEntity
  8
寸法
 62
     0
 48
50.0
370
    -2
100
AcDbLine
 10
5676.255883411885
 20
6534.999999999993
 30
0.0
 11
5676.255883411885
 21
6634.999999999992
 31
0.0
  0
LINE
  5
1F0A3
330
1DACB
100
AcDbEntity
  8
寸法
 62
     0
 48
50.0
370
    -2
100
AcDbLine
 10
5676.255883411885
 20
6459.999999999992
 30
0.0
 11
5676.255883411885
 21
6359.999999999993
 31
0.0
  0
LINE
  5
1F0A4
330
1DACB
100
AcDbEntity
  8
寸法
 62
     0
 48
50.0
370
    -2
100
AcDbLine
 10
5676.255883411885
 20
6534.999999999993
 30
0.0
 11
5676.255883411885
 21
6459.999999999992
 31
0.0
  0
INSERT
  5
1F0A5
330
1DACB
100
AcDbEntity
  8
寸法
 62
     0
 48
50.0
370
    -2
100
AcDbBlockReference
  2
_DOTSMALL
 10
5676.255883411885
 20
6534.999999999993
 30
0.0
 41
100.0
 42
100.0
 43
100.0
 50
270.0
  0
INSERT
  5
1F0A6
330
1DACB
100
AcDbEntity
  8
寸法
 62
     0
 48
50.0
370
    -2
100
AcDbBlockReference
  2
_DOTSMALL
 10
5676.255883411885
 20
6459.999999999992
 30
0.0
 41
100.0
 42
100.0
 43
100.0
 50
90.0
  0
MTEXT
  5
1F0A7
330
1DACB
100
AcDbEntity
  8
寸法
 62
     7
 48
50.0
100
AcDbMText
 10
5576.255883411882
 20
6497.499999999992
 30
0.0
 40
120.0
 41
0.0
 71
     5
 72
     1
  1
\A1;c
  7
STYLE1
 11
0.0000000000000001
 21
1.0
 31
0.0
 73
     1
 44
1.0
1001
ACAD
1000
MTEXTBEGIN
1070
    73
1070
     1
1070
    44
1040
1.0
1070
    74
1070
     0
1000
MTEXTEND
  0
POINT
  5
1F0A8
330
1DACB
100
AcDbEntity
  8
DEFPOINTS
 62
     0
 48
50.0
100
AcDbPoint
 10
5921.748685549852
 20
6534.999999999993
 30
0.0
  0
POINT
  5
1F0A9
330
1DACB
100
AcDbEntity
  8
DEFPOINTS
 62
     0
 48
50.0
100
AcDbPoint
 10
6417.690951563672
 20
6459.999999999992
 30
0.0
  0
POINT
  5
1F0AA
330
1DACB
100
AcDbEntity
  8
DEFPOINTS
 62
     0
 48
50.0
100
AcDbPoint
 10
5676.255883411885
 20
6459.999999999992
 30
0.0
  0
ENDBLK
  5
1DAD8
330
1DACB
100
AcDbEntity
  8
0
 48
50.0
100
AcDbBlockEnd
  0
BLOCK
  5
1DAE4
330
1DAD9
100
AcDbEntity
  8
0
 48
50.0
100
AcDbBlockBegin
  2
*D14
 70
     1
 10
0.0
 20
0.0
 30
0.0
  3
*D14
  1

  0
LINE
  5
1F096
330
1DAD9
100
AcDbEntity
  8
寸法
 62
     0
 48
50.0
370
    -2
100
AcDbLine
 10
9477.690951563673
 20
6479.999999999991
 30
0.0
 11
9477.690951563673
 21
7125.060610389922
 31
0.0
  0
LINE
  5
1F097
330
1DAD9
100
AcDbEntity
  8
寸法
 62
     0
 48
50.0
370
    -2
100
AcDbLine
 10
9354.690951563673
 20
6406.999999999991
 30
0.0
 11
9354.690951563673
 21
7125.060610389922
 31
0.0
  0
LINE
  5
1F098
330
1DAD9
100
AcDbEntity
  8
寸法
 62
     0
 48
50.0
370
    -2
100
AcDbLine
 10
9354.690951563673
 20
7065.06061038992
 30
0.0
 11
9477.690951563673
 21
7065.06061038992
 31
0.0
  0
LINE
  5
1F099
330
1DAD9
100
AcDbEntity
  8
寸法
 62
     0
 48
50.0
370
    -2
100
AcDbLine
 10
9477.690951563673
 20
7065.06061038992
 30
0.0
 11
9854.661514312148
 21
7065.06061038992
 31
0.0
  0
INSERT
  5
1F09A
330
1DAD9
100
AcDbEntity
  8
寸法
 62
     0
 48
50.0
370
    -2
100
AcDbBlockReference
  2
_DOTSMALL
 10
9354.690951563673
 20
7065.06061038992
 30
0.0
 41
100.0
 42
100.0
 43
100.0
 50
180.0
  0
INSERT
  5
1F09B
330
1DAD9
100
AcDbEntity
  8
寸法
 62
     0
 48
50.0
370
    -2
100
AcDbBlockReference
  2
_DOTSMALL
 10
9477.690951563673
 20
7065.06061038992
 30
0.0
 41
100.0
 42
100.0
 43
100.0
  0
MTEXT
  5
1F09C
330
1DAD9
100
AcDbEntity
  8
寸法
 62
     7
 48
50.0
100
AcDbMText
 10
9716.176232937911
 20
7165.072421413542
 30
0.0
 40
120.0
 41
0.0
 71
     5
 72
     1
  1
\A1;123
  7
STYLE1
 73
     1
 44
1.0
1001
ACAD
1000
MTEXTBEGIN
1070
    73
1070
     1
1070
    44
1040
1.0
1070
    74
1070
     0
1000
MTEXTEND
  0
POINT
  5
1F09D
330
1DAD9
100
AcDbEntity
  8
DEFPOINTS
 62
     0
 48
50.0
100
AcDbPoint
 10
9477.690951563673
 20
6459.999999999991
 30
0.0
  0
POINT
  5
1F09E
330
1DAD9
100
AcDbEntity
  8
DEFPOINTS
 62
     0
 48
50.0
100
AcDbPoint
 10
9354.690951563673
 20
6386.999999999991
 30
0.0
  0
POINT
  5
1F09F
330
1DAD9
100
AcDbEntity
  8
DEFPOINTS
 62
     0
 48
50.0
100
AcDbPoint
 10
9354.690951563673
 20
7065.06061038992
 30
0.0
  0
ENDBLK
  5
1DAE5
330
1DAD9
100
AcDbEntity
  8
0
 48
50.0
100
AcDbBlockEnd
  0
BLOCK
  5
1DAF1
330
1DAE6
100
AcDbEntity
  8
0
 48
50.0
100
AcDbBlockBegin
  2
*D15
 70
     1
 10
0.0
 20
0.0
 30
0.0
  3
*D15
  1

  0
LINE
  5
1F08B
330
1DAE6
100
AcDbEntity
  8
寸法
 62
     0
 48
50.0
370
    -2
100
AcDbLine
 10
9477.690951563673
 20
6479.999999999991
 30
0.0
 11
9477.690951563673
 21
7337.521305906758
 31
0.0
  0
LINE
  5
1F08C
330
1DAE6
100
AcDbEntity
  8
寸法
 62
     0
 48
50.0
370
    -2
100
AcDbLine
 10
9522.690951563673
 20
7085.060610389921
 30
0.0
 11
9522.690951563673
 21
7337.521305906758
 31
0.0
  0
LINE
  5
1F08D
330
1DAE6
100
AcDbEntity
  8
寸法
 62
     0
 48
50.0
370
    -2
100
AcDbLine
 10
9477.690951563673
 20
7277.521305906758
 30
0.0
 11
9377.690951563673
 21
7277.521305906758
 31
0.0
  0
LINE
  5
1F08E
330
1DAE6
100
AcDbEntity
  8
寸法
 62
     0
 48
50.0
370
    -2
100
AcDbLine
 10
9522.690951563673
 20
7277.521305906758
 30
0.0
 11
9622.690951563674
 21
7277.521305906758
 31
0.0
  0
LINE
  5
1F08F
330
1DAE6
100
AcDbEntity
  8
寸法
 62
     0
 48
50.0
370
    -2
100
AcDbLine
 10
9477.690951563673
 20
7277.521305906758
 30
0.0
 11
9522.690951563673
 21
7277.521305906758
 31
0.0
  0
INSERT
  5
1F090
330
1DAE6
100
AcDbEntity
  8
寸法
 62
     0
 48
50.0
370
    -2
100
AcDbBlockReference
  2
_DOTSMALL
 10
9477.690951563673
 20
7277.521305906758
 30
0.0
 41
100.0
 42
100.0
 43
100.0
  0
INSERT
  5
1F091
330
1DAE6
100
AcDbEntity
  8
寸法
 62
     0
 48
50.0
370
    -2
100
AcDbBlockReference
  2
_DOTSMALL
 10
9522.690951563673
 20
7277.521305906758
 30
0.0
 41
100.0
 42
100.0
 43
100.0
 50
180.0
  0
MTEXT
  5
1F092
330
1DAE6
100
AcDbEntity
  8
寸法
 62
     7
 48
50.0
100
AcDbMText
 10
9500.190951563672
 20
7377.521305906758
 30
0.0
 40
120.0
 41
0.0
 71
     5
 72
     1
  1
\A1;a
  7
STYLE1
 73
     1
 44
1.0
1001
ACAD
1000
MTEXTBEGIN
1070
    73
1070
     1
1070
    44
1040
1.0
1070
    74
1070
     0
1000
MTEXTEND
  0
POINT
  5
1F093
330
1DAE6
100
AcDbEntity
  8
DEFPOINTS
 62
     0
 48
50.0
100
AcDbPoint
 10
9477.690951563673
 20
6459.999999999991
 30
0.0
  0
POINT
  5
1F094
330
1DAE6
100
AcDbEntity
  8
DEFPOINTS
 62
     0
 48
50.0
100
AcDbPoint
 10
9522.690951563673
 20
7065.06061038992
 30
0.0
  0
POINT
  5
1F095
330
1DAE6
100
AcDbEntity
  8
DEFPOINTS
 62
     0
 48
50.0
100
AcDbPoint
 10
9522.690951563673
 20
7277.521305906758
 30
0.0
  0
ENDBLK
  5
1DAF2
330
1DAE6
100
AcDbEntity
  8
0
 48
50.0
100
AcDbBlockEnd
  0
BLOCK
  5
1DAFE
330
1DAF3
100
AcDbEntity
  8
0
 48
50.0
100
AcDbBlockBegin
  2
*D16
 70
     1
 10
0.0
 20
0.0
 30
0.0
  3
*D16
  1

  0
LINE
  5
1F48E
330
1DAF3
100
AcDbEntity
  8
寸法
 62
     0
 48
50.0
370
    -2
100
AcDbLine
 10
9477.690951563673
 20
5960.0
 30
0.0
 11
9477.690951563673
 21
5861.503367980584
 31
0.0
  0
LINE
  5
1F48F
330
1DAF3
100
AcDbEntity
  8
寸法
 62
     0
 48
50.0
370
    -2
100
AcDbLine
 10
9357.690951563673
 20
5961.467651971857
 30
0.0
 11
9357.690951563673
 21
5861.503367980584
 31
0.0
  0
LINE
  5
1F490
330
1DAF3
100
AcDbEntity
  8
寸法
 62
     0
 48
50.0
370
    -2
100
AcDbLine
 10
9357.690951563673
 20
5921.503367980584
 30
0.0
 11
9477.690951563673
 21
5921.503367980584
 31
0.0
  0
LINE
  5
1F491
330
1DAF3
100
AcDbEntity
  8
寸法
 62
     0
 48
50.0
370
    -2
100
AcDbLine
 10
9477.690951563673
 20
5921.503367980584
 30
0.0
 11
9849.78543975265
 21
5921.503367980584
 31
0.0
  0
INSERT
  5
1F492
330
1DAF3
100
AcDbEntity
  8
寸法
 62
     0
 48
50.0
370
    -2
100
AcDbBlockReference
  2
_DOTSMALL
 10
9357.690951563673
 20
5921.503367980584
 30
0.0
 41
100.0
 42
100.0
 43
100.0
 50
180.0
  0
INSERT
  5
1F493
330
1DAF3
100
AcDbEntity
  8
寸法
 62
     0
 48
50.0
370
    -2
100
AcDbBlockReference
  2
_DOTSMALL
 10
9477.690951563673
 20
5921.503367980584
 30
0.0
 41
100.0
 42
100.0
 43
100.0
  0
MTEXT
  5
1F494
330
1DAF3
100
AcDbEntity
  8
寸法
 62
     7
 48
50.0
100
AcDbMText
 10
9713.738195658162
 20
6021.515179004206
 30
0.0
 40
120.0
 41
0.0
 71
     5
 72
     1
  1
\A1;120
  7
STYLE1
 73
     1
 44
1.0
1001
ACAD
1000
MTEXTBEGIN
1070
    73
1070
     1
1070
    44
1040
1.0
1070
    74
1070
     0
1000
MTEXTEND
  0
POINT
  5
1F495
330
1DAF3
100
AcDbEntity
  8
DEFPOINTS
 62
     0
 48
50.0
100
AcDbPoint
 10
9477.690951563673
 20
5980.0
 30
0.0
  0
POINT
  5
1F496
330
1DAF3
100
AcDbEntity
  8
DEFPOINTS
 62
     0
 48
50.0
100
AcDbPoint
 10
9357.690951563673
 20
5981.467651971857
 30
0.0
  0
POINT
  5
1F497
330
1DAF3
100
AcDbEntity
  8
DEFPOINTS
 62
     0
 48
50.0
100
AcDbPoint
 10
9357.690951563673
 20
5921.503367980584
 30
0.0
  0
ENDBLK
  5
1DAFF
330
1DAF3
100
AcDbEntity
  8
0
 48
50.0
100
AcDbBlockEnd
  0
BLOCK
  5
1DB0B
330
1DB00
100
AcDbEntity
  8
0
 48
50.0
100
AcDbBlockBegin
  2
*D17
 70
     1
 10
0.0
 20
0.0
 30
0.0
  3
*D17
  1

  0
LINE
  5
1F4A2
330
1DB00
100
AcDbEntity
  8
寸法
 62
     0
 48
50.0
370
    -2
100
AcDbLine
 10
8598.18271077955
 20
6339.99999999999
 30
0.0
 11
8697.1920816149
 21
6339.99999999999
 31
0.0
  0
LINE
  5
1F4A3
330
1DB00
100
AcDbEntity
  8
寸法
 62
     0
 48
50.0
370
    -2
100
AcDbLine
 10
9227.690951563673
 20
6229.999999999989
 30
0.0
 11
8577.192081614901
 21
6229.999999999989
 31
0.0
  0
LINE
  5
1F4A4
330
1DB00
100
AcDbEntity
  8
寸法
 62
     0
 48
50.0
370
    -2
100
AcDbLine
 10
8637.192081614902
 20
6339.99999999999
 30
0.0
 11
8637.192081614902
 21
6229.999999999989
 31
0.0
  0
LINE
  5
1F4A5
330
1DB00
100
AcDbEntity
  8
寸法
 62
     0
 48
50.0
370
    -2
100
AcDbLine
 10
8637.192081614902
 20
6229.999999999989
 30
0.0
 11
8637.192081614902
 21
5869.905511811013
 31
0.0
  0
INSERT
  5
1F4A6
330
1DB00
100
AcDbEntity
  8
寸法
 62
     0
 48
50.0
370
    -2
100
AcDbBlockReference
  2
_DOTSMALL
 10
8637.192081614902
 20
6339.99999999999
 30
0.0
 41
100.0
 42
100.0
 43
100.0
 50
90.0
  0
INSERT
  5
1F4A7
330
1DB00
100
AcDbEntity
  8
寸法
 62
     0
 48
50.0
370
    -2
100
AcDbBlockReference
  2
_DOTSMALL
 10
8637.192081614902
 20
6229.999999999989
 30
0.0
 41
100.0
 42
100.0
 43
100.0
 50
270.0
  0
MTEXT
  5
1F4A8
330
1DB00
100
AcDbEntity
  8
寸法
 62
     7
 48
50.0
100
AcDbMText
 10
8537.1920816149
 20
5993.952755905501
 30
0.0
 40
120.0
 41
0.0
 71
     5
 72
     1
  1
\A1;110
  7
STYLE1
 11
0.0000000000000001
 21
1.0
 31
0.0
 73
     1
 44
1.0
1001
ACAD
1000
MTEXTBEGIN
1070
    73
1070
     1
1070
    44
1040
1.0
1070
    74
1070
     0
1000
MTEXTEND
  0
POINT
  5
1F4A9
330
1DB00
100
AcDbEntity
  8
DEFPOINTS
 62
     0
 48
50.0
100
AcDbPoint
 10
8578.182710779548
 20
6339.99999999999
 30
0.0
  0
POINT
  5
1F4AA
330
1DB00
100
AcDbEntity
  8
DEFPOINTS
 62
     0
 48
50.0
100
AcDbPoint
 10
9247.690951563674
 20
6229.999999999989
 30
0.0
  0
POINT
  5
1F4AB
330
1DB00
100
AcDbEntity
  8
DEFPOINTS
 62
     0
 48
50.0
100
AcDbPoint
 10
8637.192081614902
 20
6229.999999999989
 30
0.0
  0
ENDBLK
  5
1DB0C
330
1DB00
100
AcDbEntity
  8
0
 48
50.0
100
AcDbBlockEnd
  0
BLOCK
  5
1DB18
330
1DB0D
100
AcDbEntity
  8
0
 48
50.0
100
AcDbBlockBegin
  2
*D18
 70
     1
 10
0.0
 20
0.0
 30
0.0
  3
*D18
  1

  0
LINE
  5
1F484
330
1DB0D
100
AcDbEntity
  8
寸法
 62
     0
 48
50.0
370
    -2
100
AcDbLine
 10
9357.690951563673
 20
5961.467651971857
 30
0.0
 11
9357.690951563673
 21
5861.503367980584
 31
0.0
  0
LINE
  5
1F485
330
1DB0D
100
AcDbEntity
  8
寸法
 62
     0
 48
50.0
370
    -2
100
AcDbLine
 10
9247.690951563674
 20
6209.99999999999
 30
0.0
 11
9247.690951563674
 21
5861.503367980584
 31
0.0
  0
LINE
  5
1F486
330
1DB0D
100
AcDbEntity
  8
寸法
 62
     0
 48
50.0
370
    -2
100
AcDbLine
 10
9357.690951563673
 20
5921.503367980584
 30
0.0
 11
9247.690951563674
 21
5921.503367980584
 31
0.0
  0
LINE
  5
1F487
330
1DB0D
100
AcDbEntity
  8
寸法
 62
     0
 48
50.0
370
    -2
100
AcDbLine
 10
9247.690951563674
 20
5921.503367980584
 30
0.0
 11
8887.596463374697
 21
5921.503367980584
 31
0.0
  0
INSERT
  5
1F488
330
1DB0D
100
AcDbEntity
  8
寸法
 62
     0
 48
50.0
370
    -2
100
AcDbBlockReference
  2
_DOTSMALL
 10
9357.690951563673
 20
5921.503367980584
 30
0.0
 41
100.0
 42
100.0
 43
100.0
  0
INSERT
  5
1F489
330
1DB0D
100
AcDbEntity
  8
寸法
 62
     0
 48
50.0
370
    -2
100
AcDbBlockReference
  2
_DOTSMALL
 10
9247.690951563674
 20
5921.503367980584
 30
0.0
 41
100.0
 42
100.0
 43
100.0
 50
180.0
  0
MTEXT
  5
1F48A
330
1DB0D
100
AcDbEntity
  8
寸法
 62
     7
 48
50.0
100
AcDbMText
 10
9011.643707469184
 20
6021.503367980584
 30
0.0
 40
120.0
 41
0.0
 71
     5
 72
     1
  1
\A1;110
  7
STYLE1
 73
     1
 44
1.0
1001
ACAD
1000
MTEXTBEGIN
1070
    73
1070
     1
1070
    44
1040
1.0
1070
    74
1070
     0
1000
MTEXTEND
  0
POINT
  5
1F48B
330
1DB0D
100
AcDbEntity
  8
DEFPOINTS
 62
     0
 48
50.0
100
AcDbPoint
 10
9357.690951563673
 20
5981.467651971857
 30
0.0
  0
POINT
  5
1F48C
330
1DB0D
100
AcDbEntity
  8
DEFPOINTS
 62
     0
 48
50.0
100
AcDbPoint
 10
9247.690951563674
 20
6229.999999999989
 30
0.0
  0
POINT
  5
1F48D
330
1DB0D
100
AcDbEntity
  8
DEFPOINTS
 62
     0
 48
50.0
100
AcDbPoint
 10
9247.690951563674
 20
5921.503367980584
 30
0.0
  0
ENDBLK
  5
1DB19
330
1DB0D
100
AcDbEntity
  8
0
 48
50.0
100
AcDbBlockEnd
  0
BLOCK
  5
1DB25
330
1DB1A
100
AcDbEntity
  8
0
 48
50.0
100
AcDbBlockBegin
  2
*D19
 70
     1
 10
0.0
 20
0.0
 30
0.0
  3
*D19
  1

  0
LINE
  5
1F498
330
1DB1A
100
AcDbEntity
  8
寸法
 62
     0
 48
50.0
370
    -2
100
AcDbLine
 10
8597.690951563674
 20
6459.999999999991
 30
0.0
 11
8697.1920816149
 21
6459.999999999991
 31
0.0
  0
LINE
  5
1F499
330
1DB1A
100
AcDbEntity
  8
寸法
 62
     0
 48
50.0
370
    -2
100
AcDbLine
 10
8598.18271077955
 20
6339.99999999999
 30
0.0
 11
8697.1920816149
 21
6339.99999999999
 31
0.0
  0
LINE
  5
1F49A
330
1DB1A
100
AcDbEntity
  8
寸法
 62
     0
 48
50.0
370
    -2
100
AcDbLine
 10
8637.192081614902
 20
6339.99999999999
 30
0.0
 11
8637.192081614902
 21
6459.999999999991
 31
0.0
  0
LINE
  5
1F49B
330
1DB1A
100
AcDbEntity
  8
寸法
 62
     0
 48
50.0
370
    -2
100
AcDbLine
 10
8637.192081614902
 20
6459.999999999991
 30
0.0
 11
8637.192081614902
 21
6832.094488188968
 31
0.0
  0
INSERT
  5
1F49C
330
1DB1A
100
AcDbEntity
  8
寸法
 62
     0
 48
50.0
370
    -2
100
AcDbBlockReference
  2
_DOTSMALL
 10
8637.192081614902
 20
6339.99999999999
 30
0.0
 41
100.0
 42
100.0
 43
100.0
 50
270.0
  0
INSERT
  5
1F49D
330
1DB1A
100
AcDbEntity
  8
寸法
 62
     0
 48
50.0
370
    -2
100
AcDbBlockReference
  2
_DOTSMALL
 10
8637.192081614902
 20
6459.999999999991
 30
0.0
 41
100.0
 42
100.0
 43
100.0
 50
90.0
  0
MTEXT
  5
1F49E
330
1DB1A
100
AcDbEntity
  8
寸法
 62
     7
 48
50.0
100
AcDbMText
 10
8537.180270591278
 20
6696.047244094481
 30
0.0
 40
120.0
 41
0.0
 71
     5
 72
     1
  1
\A1;120
  7
STYLE1
 11
0.0000000000000001
 21
1.0
 31
0.0
 73
     1
 44
1.0
1001
ACAD
1000
MTEXTBEGIN
1070
    73
1070
     1
1070
    44
1040
1.0
1070
    74
1070
     0
1000
MTEXTEND
  0
POINT
  5
1F49F
330
1DB1A
100
AcDbEntity
  8
DEFPOINTS
 62
     0
 48
50.0
100
AcDbPoint
 10
8577.690951563672
 20
6459.999999999991
 30
0.0
  0
POINT
  5
1F4A0
330
1DB1A
100
AcDbEntity
  8
DEFPOINTS
 62
     0
 48
50.0
100
AcDbPoint
 10
8578.182710779548
 20
6339.99999999999
 30
0.0
  0
POINT
  5
1F4A1
330
1DB1A
100
AcDbEntity
  8
DEFPOINTS
 62
     0
 48
50.0
100
AcDbPoint
 10
8637.192081614902
 20
6339.99999999999
 30
0.0
  0
ENDBLK
  5
1DB26
330
1DB1A
100
AcDbEntity
  8
0
 48
50.0
100
AcDbBlockEnd
  0
BLOCK
  5
1F3CB
330
1F3C1
100
AcDbEntity
  8
0
 48
50.0
100
AcDbBlockBegin
  2
*D20
 70
     1
 10
0.0
 20
0.0
 30
0.0
  3
*D20
  1

  0
LINE
  5
1F47B
330
1F3C1
100
AcDbEntity
  8
寸法
 62
     0
 48
50.0
370
    -2
100
AcDbLine
 10
6792.696641379698
 20
1911.609523707815
 30
0.0
 11
6792.696641379698
 21
2271.609523707815
 31
0.0
  0
LINE
  5
1F47C
330
1F3C1
100
AcDbEntity
  8
寸法
 62
     0
 48
50.0
370
    -2
100
AcDbLine
 10
6600.696641379697
 20
1911.609523707815
 30
0.0
 11
6600.696641379697
 21
2271.609523707815
 31
0.0
  0
LINE
  5
1F47D
330
1F3C1
100
AcDbEntity
  8
寸法
 62
     0
 48
50.0
370
    -2
100
AcDbLine
 10
6792.696641379698
 20
2211.609523707815
 30
0.0
 11
6600.696641379697
 21
2211.609523707815
 31
0.0
  0
MTEXT
  5
1F47E
330
1F3C1
100
AcDbEntity
  8
寸法
 62
     7
 48
50.0
100
AcDbMText
 10
6699.162917879267
 20
2450.415058594074
 30
0.0
 40
120.0
 41
0.0
 71
     5
 72
     1
  1
\A1;120\P170
  7
STYLE1
 73
     1
 44
1.0
1001
ACAD
1000
MTEXTBEGIN
1070
    73
1070
     1
1070
    44
1040
1.0
1070
    74
1070
     0
1000
MTEXTEND
  0
INSERT
  5
1F47F
330
1F3C1
100
AcDbEntity
  8
寸法
 62
     0
 48
50.0
370
    -2
100
AcDbBlockReference
  2
_DOTSMALL
 10
6792.696641379698
 20
2211.609523707815
 30
0.0
 41
100.0
 42
100.0
 43
100.0
  0
INSERT
  5
1F480
330
1F3C1
100
AcDbEntity
  8
寸法
 62
     0
 48
50.0
370
    -2
100
AcDbBlockReference
  2
_DOTSMALL
 10
6600.696641379697
 20
2211.609523707815
 30
0.0
 41
100.0
 42
100.0
 43
100.0
 50
180.0
  0
POINT
  5
1F481
330
1F3C1
100
AcDbEntity
  8
DEFPOINTS
 62
     0
 48
50.0
100
AcDbPoint
 10
6792.696641379698
 20
1891.609523707815
 30
0.0
  0
POINT
  5
1F482
330
1F3C1
100
AcDbEntity
  8
DEFPOINTS
 62
     0
 48
50.0
100
AcDbPoint
 10
6600.696641379697
 20
1891.609523707815
 30
0.0
  0
POINT
  5
1F483
330
1F3C1
100
AcDbEntity
  8
DEFPOINTS
 62
     0
 48
50.0
100
AcDbPoint
 10
6600.696641379697
 20
2211.609523707815
 30
0.0
  0
ENDBLK
  5
1F3CC
330
1F3C1
100
AcDbEntity
  8
0
 48
50.0
100
AcDbBlockEnd
  0
BLOCK
  5
1F3D7
330
1F3CD
100
AcDbEntity
  8
0
 48
50.0
100
AcDbBlockBegin
  2
*D21
 70
     1
 10
0.0
 20
0.0
 30
0.0
  3
*D21
  1

  0
LINE
  5
1F472
330
1F3CD
100
AcDbEntity
  8
寸法
 62
     0
 48
50.0
370
    -2
100
AcDbLine
 10
6472.696641379697
 20
959.6095237078152
 30
0.0
 11
6472.696641379697
 21
509.1798857026551
 31
0.0
  0
LINE
  5
1F473
330
1F3CD
100
AcDbEntity
  8
寸法
 62
     0
 48
50.0
370
    -2
100
AcDbLine
 10
6920.696641379698
 20
959.6095237078152
 30
0.0
 11
6920.696641379698
 21
509.1798857026551
 31
0.0
  0
LINE
  5
1F474
330
1F3CD
100
AcDbEntity
  8
寸法
 62
     0
 48
50.0
370
    -2
100
AcDbLine
 10
6472.696641379697
 20
569.1798857026551
 30
0.0
 11
6920.696641379698
 21
569.1798857026551
 31
0.0
  0
MTEXT
  5
1F475
330
1F3CD
100
AcDbEntity
  8
寸法
 62
     7
 48
50.0
100
AcDbMText
 10
6676.599882701474
 20
669.1798857026551
 30
0.0
 40
120.0
 41
0.0
 71
     5
 72
     1
  1
\A1;300
  7
STYLE1
 73
     1
 44
1.0
1001
ACAD
1000
MTEXTBEGIN
1070
    73
1070
     1
1070
    44
1040
1.0
1070
    74
1070
     0
1000
MTEXTEND
  0
INSERT
  5
1F476
330
1F3CD
100
AcDbEntity
  8
寸法
 62
     0
 48
50.0
370
    -2
100
AcDbBlockReference
  2
_DOTSMALL
 10
6472.696641379697
 20
569.1798857026551
 30
0.0
 41
100.0
 42
100.0
 43
100.0
 50
180.0
  0
INSERT
  5
1F477
330
1F3CD
100
AcDbEntity
  8
寸法
 62
     0
 48
50.0
370
    -2
100
AcDbBlockReference
  2
_DOTSMALL
 10
6920.696641379698
 20
569.1798857026551
 30
0.0
 41
100.0
 42
100.0
 43
100.0
  0
POINT
  5
1F478
330
1F3CD
100
AcDbEntity
  8
DEFPOINTS
 62
     0
 48
50.0
100
AcDbPoint
 10
6472.696641379697
 20
979.6095237078151
 30
0.0
  0
POINT
  5
1F479
330
1F3CD
100
AcDbEntity
  8
DEFPOINTS
 62
     0
 48
50.0
100
AcDbPoint
 10
6920.696641379698
 20
979.6095237078151
 30
0.0
  0
POINT
  5
1F47A
330
1F3CD
100
AcDbEntity
  8
DEFPOINTS
 62
     0
 48
50.0
100
AcDbPoint
 10
6920.696641379698
 20
569.1798857026551
 30
0.0
  0
ENDBLK
  5
1F3D8
330
1F3CD
100
AcDbEntity
  8
0
 48
50.0
100
AcDbBlockEnd
  0
BLOCK
  5
1F3E3
330
1F3D9
100
AcDbEntity
  8
0
 48
50.0
100
AcDbBlockBegin
  2
*D22
 70
     1
 10
0.0
 20
0.0
 30
0.0
  3
*D22
  1

  0
LINE
  5
1F469
330
1F3D9
100
AcDbEntity
  8
寸法
 62
     0
 48
50.0
370
    -2
100
AcDbLine
 10
6580.696641379697
 20
1891.609523707815
 30
0.0
 11
5805.659402817958
 21
1891.609523707815
 31
0.0
  0
LINE
  5
1F46A
330
1F3D9
100
AcDbEntity
  8
寸法
 62
     0
 48
50.0
370
    -2
100
AcDbLine
 10
6372.6966413797
 20
1107.609523707815
 30
0.0
 11
5805.659402817958
 21
1107.609523707815
 31
0.0
  0
LINE
  5
1F46B
330
1F3D9
100
AcDbEntity
  8
寸法
 62
     0
 48
50.0
370
    -2
100
AcDbLine
 10
5865.659402817957
 20
1891.609523707815
 30
0.0
 11
5865.659402817957
 21
1107.609523707815
 31
0.0
  0
MTEXT
  5
1F46C
330
1F3D9
100
AcDbEntity
  8
寸法
 62
     7
 48
50.0
100
AcDbMText
 10
5765.659402817957
 20
1479.149673363816
 30
0.0
 40
120.0
 41
0.0
 71
     5
 72
     1
  1
\A1;540
  7
STYLE1
 11
0.0000000000000001
 21
1.0
 31
0.0
 73
     1
 44
1.0
1001
ACAD
1000
MTEXTBEGIN
1070
    73
1070
     1
1070
    44
1040
1.0
1070
    74
1070
     0
1000
MTEXTEND
  0
INSERT
  5
1F46D
330
1F3D9
100
AcDbEntity
  8
寸法
 62
     0
 48
50.0
370
    -2
100
AcDbBlockReference
  2
_DOTSMALL
 10
5865.659402817957
 20
1891.609523707815
 30
0.0
 41
100.0
 42
100.0
 43
100.0
 50
90.0
  0
INSERT
  5
1F46E
330
1F3D9
100
AcDbEntity
  8
寸法
 62
     0
 48
50.0
370
    -2
100
AcDbBlockReference
  2
_DOTSMALL
 10
5865.659402817957
 20
1107.609523707815
 30
0.0
 41
100.0
 42
100.0
 43
100.0
 50
270.0
  0
POINT
  5
1F46F
330
1F3D9
100
AcDbEntity
  8
DEFPOINTS
 62
     0
 48
50.0
100
AcDbPoint
 10
6600.696641379697
 20
1891.609523707815
 30
0.0
  0
POINT
  5
1F470
330
1F3D9
100
AcDbEntity
  8
DEFPOINTS
 62
     0
 48
50.0
100
AcDbPoint
 10
6392.696641379701
 20
1107.609523707815
 30
0.0
  0
POINT
  5
1F471
330
1F3D9
100
AcDbEntity
  8
DEFPOINTS
 62
     0
 48
50.0
100
AcDbPoint
 10
5865.659402817957
 20
1107.609523707815
 30
0.0
  0
ENDBLK
  5
1F3E4
330
1F3D9
100
AcDbEntity
  8
0
 48
50.0
100
AcDbBlockEnd
  0
BLOCK
  5
1F3EF
330
1F3E5
100
AcDbEntity
  8
0
 48
50.0
100
AcDbBlockBegin
  2
*D23
 70
     1
 10
0.0
 20
0.0
 30
0.0
  3
*D23
  1

  0
LINE
  5
1F460
330
1F3E5
100
AcDbEntity
  8
寸法
 62
     0
 48
50.0
370
    -2
100
AcDbLine
 10
6452.696641379697
 20
1347.609523707815
 30
0.0
 11
6270.276327647238
 21
1347.609523707815
 31
0.0
  0
LINE
  5
1F461
330
1F3E5
100
AcDbEntity
  8
寸法
 62
     0
 48
50.0
370
    -2
100
AcDbLine
 10
6372.6966413797
 20
1107.609523707815
 30
0.0
 11
6270.276327647238
 21
1107.609523707815
 31
0.0
  0
LINE
  5
1F462
330
1F3E5
100
AcDbEntity
  8
寸法
 62
     0
 48
50.0
370
    -2
100
AcDbLine
 10
6330.276327647238
 20
1347.609523707815
 30
0.0
 11
6330.276327647238
 21
1107.609523707815
 31
0.0
  0
MTEXT
  5
1F463
330
1F3E5
100
AcDbEntity
  8
寸法
 62
     7
 48
50.0
100
AcDbMText
 10
6230.276327647239
 20
1227.609523707815
 30
0.0
 40
120.0
 41
0.0
 71
     5
 72
     1
  1
\A1;150
  7
STYLE1
 11
0.0000000000000001
 21
1.0
 31
0.0
 73
     1
 44
1.0
1001
ACAD
1000
MTEXTBEGIN
1070
    73
1070
     1
1070
    44
1040
1.0
1070
    74
1070
     0
1000
MTEXTEND
  0
INSERT
  5
1F464
330
1F3E5
100
AcDbEntity
  8
寸法
 62
     0
 48
50.0
370
    -2
100
AcDbBlockReference
  2
_DOTSMALL
 10
6330.276327647238
 20
1347.609523707815
 30
0.0
 41
100.0
 42
100.0
 43
100.0
 50
90.0
  0
INSERT
  5
1F465
330
1F3E5
100
AcDbEntity
  8
寸法
 62
     0
 48
50.0
370
    -2
100
AcDbBlockReference
  2
_DOTSMALL
 10
6330.276327647238
 20
1107.609523707815
 30
0.0
 41
100.0
 42
100.0
 43
100.0
 50
270.0
  0
POINT
  5
1F466
330
1F3E5
100
AcDbEntity
  8
DEFPOINTS
 62
     0
 48
50.0
100
AcDbPoint
 10
6472.696641379697
 20
1347.609523707815
 30
0.0
  0
POINT
  5
1F467
330
1F3E5
100
AcDbEntity
  8
DEFPOINTS
 62
     0
 48
50.0
100
AcDbPoint
 10
6392.696641379701
 20
1107.609523707815
 30
0.0
  0
POINT
  5
1F468
330
1F3E5
100
AcDbEntity
  8
DEFPOINTS
 62
     0
 48
50.0
100
AcDbPoint
 10
6330.276327647238
 20
1107.609523707815
 30
0.0
  0
ENDBLK
  5
1F3F0
330
1F3E5
100
AcDbEntity
  8
0
 48
50.0
100
AcDbBlockEnd
  0
BLOCK
  5
1F400
330
1F3F1
100
AcDbEntity
  8
0
 48
50.0
100
AcDbBlockBegin
  2
*D24
 70
     1
 10
0.0
 20
0.0
 30
0.0
  3
*D24
  1

  0
LINE
  5
1F452
330
1F3F1
100
AcDbEntity
  8
寸法
 62
     0
 48
50.0
370
    -2
100
AcDbLine
 10
8756.811257923029
 20
1944.369523707816
 30
0.0
 11
9485.879857691873
 21
1944.369523707816
 31
0.0
  0
LINE
  5
1F453
330
1F3F1
100
AcDbEntity
  8
寸法
 62
     0
 48
50.0
370
    -2
100
AcDbLine
 10
8944.011257923028
 20
1891.609523707815
 30
0.0
 11
9485.879857691873
 21
1891.609523707815
 31
0.0
  0
LINE
  5
1F454
330
1F3F1
100
AcDbEntity
  8
寸法
 62
     0
 48
50.0
370
    -2
100
AcDbLine
 10
9425.879857691873
 20
1944.369523707816
 30
0.0
 11
9425.879857691873
 21
2044.369523707816
 31
0.0
  0
LINE
  5
1F455
330
1F3F1
100
AcDbEntity
  8
寸法
 62
     0
 48
50.0
370
    -2
100
AcDbLine
 10
9425.879857691873
 20
1891.609523707815
 30
0.0
 11
9425.879857691873
 21
1791.609523707815
 31
0.0
  0
LINE
  5
1F456
330
1F3F1
100
AcDbEntity
  8
寸法
 62
     0
 48
50.0
370
    -2
100
AcDbLine
 10
9425.879857691873
 20
1917.989523707816
 30
0.0
 11
9701.9345238109
 21
1906.485566103602
 31
0.0
  0
LINE
  5
1F457
330
1F3F1
100
AcDbEntity
  8
寸法
 62
     0
 48
50.0
370
    -2
100
AcDbLine
 10
9701.9345238109
 20
1906.485566103602
 30
0.0
 11
9701.9345238109
 21
1374.467759260637
 31
0.0
  0
MTEXT
  5
1F458
330
1F3F1
100
AcDbEntity
  8
寸法
 62
     7
 48
50.0
100
AcDbMText
 10
9601.922712787278
 20
1640.476662682121
 30
0.0
 40
120.0
 41
0.0
 71
     5
 72
     1
  1
\A1;20～25
  7
STYLE1
 11
0.0000000000000001
 21
1.0
 31
0.0
 73
     1
 44
1.0
1001
ACAD
1000
MTEXTBEGIN
1070
    73
1070
     1
1070
    44
1040
1.0
1070
    74
1070
     0
1000
MTEXTEND
  0
LINE
  5
1F459
330
1F3F1
100
AcDbEntity
  8
寸法
 62
     0
 48
50.0
370
    -2
100
AcDbLine
 10
9425.879857691873
 20
1944.369523707816
 30
0.0
 11
9425.879857691873
 21
1891.609523707815
 31
0.0
  0
LINE
  5
1F45A
330
1F3F1
100
AcDbEntity
  8
寸法
 62
     0
 48
50.0
370
    -2
100
AcDbLine
 10
9425.879857691873
 20
1944.369523707816
 30
0.0
 11
9425.879857691873
 21
1891.609523707815
 31
0.0
  0
INSERT
  5
1F45B
330
1F3F1
100
AcDbEntity
  8
寸法
 62
     0
 48
50.0
370
    -2
100
AcDbBlockReference
  2
_DOTSMALL
 10
9425.879857691873
 20
1944.369523707816
 30
0.0
 41
100.0
 42
100.0
 43
100.0
 50
270.0
  0
INSERT
  5
1F45C
330
1F3F1
100
AcDbEntity
  8
寸法
 62
     0
 48
50.0
370
    -2
100
AcDbBlockReference
  2
_DOTSMALL
 10
9425.879857691873
 20
1891.609523707815
 30
0.0
 41
100.0
 42
100.0
 43
100.0
 50
90.0
  0
POINT
  5
1F45D
330
1F3F1
100
AcDbEntity
  8
DEFPOINTS
 62
     0
 48
50.0
100
AcDbPoint
 10
8736.811257923029
 20
1944.369523707816
 30
0.0
  0
POINT
  5
1F45E
330
1F3F1
100
AcDbEntity
  8
DEFPOINTS
 62
     0
 48
50.0
100
AcDbPoint
 10
8924.011257923028
 20
1891.609523707815
 30
0.0
  0
POINT
  5
1F45F
330
1F3F1
100
AcDbEntity
  8
DEFPOINTS
 62
     0
 48
50.0
100
AcDbPoint
 10
9425.879857691873
 20
1891.609523707815
 30
0.0
  0
ENDBLK
  5
1F401
330
1F3F1
100
AcDbEntity
  8
0
 48
50.0
100
AcDbBlockEnd
  0
BLOCK
  5
1F40C
330
1F402
100
AcDbEntity
  8
0
 48
50.0
100
AcDbBlockBegin
  2
*D25
 70
     1
 10
0.0
 20
0.0
 30
0.0
  3
*D25
  1

  0
LINE
  5
1F449
330
1F402
100
AcDbEntity
  8
寸法
 62
     0
 48
50.0
370
    -2
100
AcDbLine
 10
8944.011257923028
 20
1891.609523707815
 30
0.0
 11
9485.879857691873
 21
1891.609523707815
 31
0.0
  0
LINE
  5
1F44A
330
1F402
100
AcDbEntity
  8
寸法
 62
     0
 48
50.0
370
    -2
100
AcDbLine
 10
8944.011257923028
 20
1567.609523707814
 30
0.0
 11
9485.879857691873
 21
1567.609523707814
 31
0.0
  0
LINE
  5
1F44B
330
1F402
100
AcDbEntity
  8
寸法
 62
     0
 48
50.0
370
    -2
100
AcDbLine
 10
9425.879857691873
 20
1891.609523707815
 30
0.0
 11
9425.879857691873
 21
1567.609523707814
 31
0.0
  0
INSERT
  5
1F44C
330
1F402
100
AcDbEntity
  8
寸法
 62
     0
 48
50.0
370
    -2
100
AcDbBlockReference
  2
_DOTSMALL
 10
9425.879857691873
 20
1891.609523707815
 30
0.0
 41
100.0
 42
100.0
 43
100.0
 50
90.0
  0
INSERT
  5
1F44D
330
1F402
100
AcDbEntity
  8
寸法
 62
     0
 48
50.0
370
    -2
100
AcDbBlockReference
  2
_DOTSMALL
 10
9425.879857691873
 20
1567.609523707814
 30
0.0
 41
100.0
 42
100.0
 43
100.0
 50
270.0
  0
MTEXT
  5
1F44E
330
1F402
100
AcDbEntity
  8
寸法
 62
     7
 48
50.0
100
AcDbMText
 10
9325.879857691871
 20
1729.609523707816
 30
0.0
 40
120.0
 41
0.0
 71
     5
 72
     1
  1
\A1;180
  7
STYLE1
 11
0.0000000000000001
 21
1.0
 31
0.0
 73
     1
 44
1.0
1001
ACAD
1000
MTEXTBEGIN
1070
    73
1070
     1
1070
    44
1040
1.0
1070
    74
1070
     0
1000
MTEXTEND
  0
POINT
  5
1F44F
330
1F402
100
AcDbEntity
  8
DEFPOINTS
 62
     0
 48
50.0
100
AcDbPoint
 10
8924.011257923028
 20
1891.609523707815
 30
0.0
  0
POINT
  5
1F450
330
1F402
100
AcDbEntity
  8
DEFPOINTS
 62
     0
 48
50.0
100
AcDbPoint
 10
8924.011257923028
 20
1567.609523707814
 30
0.0
  0
POINT
  5
1F451
330
1F402
100
AcDbEntity
  8
DEFPOINTS
 62
     0
 48
50.0
100
AcDbPoint
 10
9425.879857691873
 20
1567.609523707814
 30
0.0
  0
ENDBLK
  5
1F40D
330
1F402
100
AcDbEntity
  8
0
 48
50.0
100
AcDbBlockEnd
  0
ENDSEC
  0
SECTION
  2
ENTITIES
  0
LINE
  5
10B57
330
747D
100
AcDbEntity
  8
補助
  6
PHANTOM
 62
   230
 48
50.0
100
AcDbLine
 10
139.9999999999995
 20
11409.6
 30
0.0
 11
16307.2
 21
11409.6
 31
0.0
  0
LINE
  5
10B59
330
747D
100
AcDbEntity
  8
仕様書枠
  6
Continuous
 48
50.0
100
AcDbLine
 10
13107.2
 20
1200.0
 30
0.0
 11
13107.2
 21
-0.0000000000000729
 31
0.0
  0
LINE
  5
10B5C
330
747D
100
AcDbEntity
  8
仕様書枠
 48
50.0
100
AcDbLine
 10
16307.2
 20
1200.0
 30
0.0
 11
16307.2
 21
-0.0000000000000909
 31
0.0
  0
LINE
  5
10B5D
330
747D
100
AcDbEntity
  8
仕様書枠
 48
50.0
100
AcDbLine
 10
140.0
 20
0.0
 30
0.0
 11
16307.2
 21
-0.0000000000000909
 31
0.0
  0
LINE
  5
10B5E
330
747D
100
AcDbEntity
  8
補助
  6
PHANTOM
 62
   230
 48
50.0
100
AcDbLine
 10
16307.2
 20
11409.6
 30
0.0
 11
16307.2
 21
1200.0
 31
0.0
  0
LINE
  5
10B6C
330
747D
100
AcDbEntity
  8
仕様書枠
 48
50.0
100
AcDbLine
 10
13107.2
 20
1200.0
 30
0.0
 11
16307.2
 21
1200.0
 31
0.0
  0
LINE
  5
10B6D
330
747D
100
AcDbEntity
  8
補助
  6
PHANTOM
 62
   230
 48
50.0
100
AcDbLine
 10
13107.2
 20
11409.6
 30
0.0
 11
13107.2
 21
4800.0
 31
0.0
  0
LINE
  5
10B6F
330
747D
100
AcDbEntity
  8
補助
  6
PHANTOM
 62
   230
 48
50.0
100
AcDbLine
 10
13107.2
 20
4800.0
 30
0.0
 11
16307.2
 21
4800.0
 31
0.0
  0
LINE
  5
10B72
330
747D
100
AcDbEntity
  8
文字
 62
     7
 48
50.0
100
AcDbLine
 10
13187.2
 20
400.0
 30
0.0
 11
16227.2
 21
400.0
 31
0.0
  0
TEXT
  5
10B73
330
747D
100
AcDbEntity
  8
文字
 62
     7
 48
50.0
100
AcDbText
 10
13162.9790565769
 20
895.0906074299405
 30
0.0
 40
200.0
  1
基 礎 図
  7
STYLE2
100
AcDbText
  0
TEXT
  5
10B74
330
747D
100
AcDbEntity
  8
文字
 62
     7
 48
50.0
100
AcDbText
 10
13201.43669998441
 20
477.2740661031255
 30
0.0
 40
160.0
  1
機種名
  7
STYLE2
100
AcDbText
  0
TEXT
  5
10B79
330
747D
100
AcDbEntity
  8
文字
 62
     7
 48
50.0
100
AcDbText
 10
14524.131837222
 20
1031.557706291228
 30
0.0
 40
100.0
  1
     <縮尺> S=1/40
  7
STYLE2
100
AcDbText
  0
LINE
  5
10B7B
330
747D
100
AcDbEntity
  8
仕様書枠
 48
50.0
100
AcDbLine
 10
13107.2
 20
800.0
 30
0.0
 11
14251.2
 21
800.0
 31
0.0
  0
LINE
  5
10B88
330
747D
100
AcDbEntity
  8
仕様書枠
  6
Continuous
 48
50.0
100
AcDbLine
 10
14251.2
 20
1200.0
 30
0.0
 11
14251.2
 21
800.0
 31
0.0
  0
TEXT
  5
14DEF
330
747D
100
AcDbEntity
  8
文字
 62
     7
 48
50.0
100
AcDbText
 10
14907.52304019411
 20
871.1744590657925
 30
0.0
 40
100.0
  1
～一般型～
  7
STYLE2
100
AcDbText
  0
TEXT
  5
15A76
330
747D
100
AcDbEntity
  8
文字
 62
     7
 48
50.0
100
AcDbText
 10
14422.5807159189
 20
483.8967129911411
 30
0.0
 40
160.0
  1
ＮＸＮ－２９Ｓ
  7
STYLE2
100
AcDbText
  0
TEXT
  5
1D002
330
747D
100
AcDbEntity
  8
文字
 62
     7
 48
50.0
100
AcDbText
 10
13188.16259899338
 20
246.7109242801889
 30
0.0
 40
80.0
  1
※寒冷地等は地域の実情に合わせた基礎にして下さい。
  7
STYLE2
100
AcDbText
  0
DIMENSION
  5
1D91B
330
747D
100
AcDbEntity
  8
寸法
 48
50.0
100
AcDbDimension
  2
*D2
 10
6864.398201439771
 20
5799.999999999996
 30
0.0
 11
6864.398201439769
 21
6036.047244094486
 31
0.0
 70
   160
 71
     5
 42
130.0000000000018
  3
INABA_S40G
100
AcDbAlignedDimension
 13
6647.690951563672
 23
5669.999999999994
 33
0.0
 14
6647.690951563672
 24
5799.999999999996
 34
0.0
 50
90.0
100
AcDbRotatedDimension
1001
ACAD
1000
DSTYLE
1002
{
1070
   174
1070
     0
1070
   272
1070
     1
1070
   288
1070
     0
1070
   341
1005
0
1002
}
  0
DIMENSION
  5
1D91C
330
747D
100
AcDbEntity
  8
寸法
 48
50.0
100
AcDbDimension
  2
*D3
 10
6864.398201439771
 20
5499.999999999993
 30
0.0
 11
6864.398201439769
 21
5263.952755905506
 31
0.0
 70
   160
 71
     5
 42
170.0000000000018
  3
INABA_S40G
100
AcDbAlignedDimension
 13
6647.690951563672
 23
5669.999999999995
 33
0.0
 14
6647.690951563672
 24
5499.999999999993
 34
0.0
 50
90.0
100
AcDbRotatedDimension
1001
ACAD
1000
DSTYLE
1002
{
1070
   174
1070
     0
1070
   272
1070
     1
1070
   288
1070
     0
1070
   341
1005
0
1002
}
  0
DIMENSION
  5
1D91D
330
747D
100
AcDbEntity
  8
寸法
 48
50.0
100
AcDbDimension
  2
*D4
 10
6540.690951563672
 20
7065.06061038992
 30
0.0
 11
7947.690951563673
 21
7165.072421413542
 31
0.0
 70
    32
 71
     5
 42
2814.0
  3
INABA_S40G
100
AcDbAlignedDimension
 13
9354.690951563673
 23
6386.999999999991
 33
0.0
 14
6540.690951563672
 24
6386.999999999992
 34
0.0
100
AcDbRotatedDimension
1001
ACAD
1000
DSTYLE
1002
{
1070
   174
1070
     0
1070
   272
1070
     1
1070
   288
1070
     0
1070
   341
1005
0
1002
}
  0
LINE
  5
1D91E
330
747D
100
AcDbEntity
  8
部品1
 48
50.0
100
AcDbLine
 10
9247.690951563674
 20
5670.000000000007
 30
0.0
 11
6647.690951563672
 21
5669.999999999989
 31
0.0
  0
LINE
  5
1D91F
330
747D
100
AcDbEntity
  8
部品1
 48
50.0
100
AcDbLine
 10
9247.690951563674
 20
6339.999999999989
 30
0.0
 11
6647.690951563672
 21
6339.999999999991
 31
0.0
  0
DIMENSION
  5
1D920
330
747D
100
AcDbEntity
  8
寸法
 48
50.0
100
AcDbDimension
  2
*D5
 10
9477.690951563673
 20
7277.521305906758
 30
0.0
 11
7947.690951563673
 21
7377.521305906758
 31
0.0
 70
    32
 71
     5
 42
3060.0
  3
INABA_S40G
100
AcDbAlignedDimension
 13
6417.690951563672
 23
6459.999999999992
 33
0.0
 14
9477.690951563673
 24
6459.999999999991
 34
0.0
100
AcDbRotatedDimension
1001
ACAD
1000
DSTYLE
1002
{
1070
   174
1070
     0
1070
   272
1070
     1
1070
   288
1070
     0
1070
   341
1005
0
1002
}
  0
LINE
  5
1D921
330
747D
100
AcDbEntity
  8
部品1
 48
50.0
100
AcDbLine
 10
9477.690951563673
 20
5500.000000000009
 30
0.0
 11
6420.690951563672
 21
5499.999999999986
 31
0.0
  0
LINE
  5
1D922
330
747D
100
AcDbEntity
  8
部品1
 48
50.0
100
AcDbLine
 10
9477.690951563673
 20
6459.999999999991
 30
0.0
 11
6417.690951563674
 21
6459.999999999992
 31
0.0
  0
LINE
  5
1D923
330
747D
100
AcDbEntity
  8
想像線
 48
10.0
100
AcDbLine
 10
9522.690951563673
 20
5444.999999999987
 30
0.0
 11
6375.690951563673
 21
5444.999999999992
 31
0.0
  0
LINE
  5
1D924
330
747D
100
AcDbEntity
  8
想像線
 48
10.0
100
AcDbLine
 10
6375.690951563672
 20
6534.999999999989
 30
0.0
 11
9522.690951563676
 21
6534.999999999995
 31
0.0
  0
DIMENSION
  5
1D925
330
747D
100
AcDbEntity
  8
寸法
 48
50.0
100
AcDbDimension
  2
*D6
 10
6417.690951563672
 20
7065.060610389922
 30
0.0
 11
6179.205670189435
 21
7065.060610389922
 31
0.0
 70
   160
 71
     5
 42
123.0
  3
INABA_S40G
100
AcDbAlignedDimension
 13
6540.690951563672
 23
6386.999999999992
 33
0.0
 14
6417.690951563672
 24
6459.999999999992
 34
0.0
100
AcDbRotatedDimension
1001
ACAD
1000
DSTYLE
1002
{
1070
   174
1070
     0
1070
   272
1070
     1
1070
   288
1070
     0
1070
   341
1005
0
1002
}
  0
DIMENSION
  5
1D926
330
747D
100
AcDbEntity
  8
寸法
 48
50.0
100
AcDbDimension
  2
*D7
 10
6417.690951563672
 20
7277.521305906759
 30
0.0
 11
6395.19095156367
 21
7277.521305906759
 31
0.0
 70
   160
  1
a
 71
     5
 42
45.00000000000364
  3
INABA_S40G
100
AcDbAlignedDimension
 13
6372.690951563669
 23
7065.060610389922
 33
0.0
 14
6417.690951563672
 24
6459.999999999992
 34
0.0
100
AcDbRotatedDimension
1001
ACAD
1000
DSTYLE
1002
{
1070
   174
1070
     0
1070
   272
1070
     1
1070
   288
1070
     0
1070
   341
1005
0
1002
}
  0
DIMENSION
  5
1D927
330
747D
100
AcDbEntity
  8
寸法
 48
50.0
100
AcDbDimension
  2
*D8
 10
5921.748685549851
 20
5697.999999999995
 30
0.0
 11
5921.74868554985
 21
6024.668633536566
 31
0.0
 70
   160
 71
     5
 42
638.9999999999981
  3
INABA_S40G
100
AcDbAlignedDimension
 13
6490.690951563673
 23
6336.999999999992
 33
0.0
 14
6490.69095156368
 24
5697.999999999994
 34
0.0
 50
90.0
100
AcDbRotatedDimension
1001
ACAD
1000
DSTYLE
1002
{
1070
   174
1070
     0
1070
   272
1070
     1
1070
   288
1070
     0
1070
   341
1005
0
1002
}
  0
LINE
  5
1D928
330
747D
100
AcDbEntity
  8
部品1
 48
50.0
100
AcDbLine
 10
6537.690951563672
 20
5799.999999999993
 30
0.0
 11
6537.690951563672
 21
6229.999999999988
 31
0.0
  0
DIMENSION
  5
1D929
330
747D
100
AcDbEntity
  8
寸法
 48
50.0
100
AcDbDimension
  2
*D9
 10
5676.255883411883
 20
5499.999999999992
 30
0.0
 11
5676.255883411883
 21
6024.668633536566
 31
0.0
 70
   160
 71
     5
 42
960.0
  3
INABA_S40G
100
AcDbAlignedDimension
 13
6417.690951563672
 23
6459.999999999992
 33
0.0
 14
6417.690951563672
 24
5499.999999999992
 34
0.0
 50
90.0
100
AcDbRotatedDimension
1001
ACAD
1000
DSTYLE
1002
{
1070
   174
1070
     0
1070
   272
1070
     1
1070
   288
1070
     0
1070
   341
1005
0
1002
}
  0
LINE
  5
1D92A
330
747D
100
AcDbEntity
  8
部品1
 48
50.0
100
AcDbLine
 10
6417.690951563672
 20
5502.999999999986
 30
0.0
 11
6417.690951563674
 21
6459.999999999992
 31
0.0
  0
LINE
  5
1D92B
330
747D
100
AcDbEntity
  8
想像線
 48
10.0
100
AcDbLine
 10
6372.690951563673
 20
5447.999999999992
 30
0.0
 11
6372.690951563672
 21
6531.999999999991
 31
0.0
  0
DIMENSION
  5
1D92C
330
747D
100
AcDbEntity
  8
寸法
 48
50.0
100
AcDbDimension
  2
*D10
 10
5921.748685549851
 20
5499.999999999992
 30
0.0
 11
5921.74868554985
 21
5263.790340170337
 31
0.0
 70
   160
 71
     5
 42
198.0000000000018
  3
INABA_S40G
100
AcDbAlignedDimension
 13
6490.69095156368
 23
5697.999999999994
 33
0.0
 14
6417.690951563672
 24
5499.999999999992
 34
0.0
 50
90.0
100
AcDbRotatedDimension
1001
ACAD
1000
DSTYLE
1002
{
1070
   174
1070
     0
1070
   272
1070
     1
1070
   288
1070
     0
1070
   341
1005
0
1002
}
  0
DIMENSION
  5
1D92D
330
747D
100
AcDbEntity
  8
寸法
 48
50.0
100
AcDbDimension
  2
*D11
 10
5676.255883411885
 20
5444.999999999992
 30
0.0
 11
5676.255883411883
 21
5472.499999999993
 31
0.0
 70
   160
  1
b
 71
     5
 42
55.00000000000091
  3
INABA_S40G
100
AcDbAlignedDimension
 13
6417.690951563672
 23
5499.999999999992
 33
0.0
 14
5921.748685549851
 24
5444.999999999992
 34
0.0
 50
90.0
100
AcDbRotatedDimension
1001
ACAD
1000
DSTYLE
1002
{
1070
   174
1070
     0
1070
   272
1070
     1
1070
   288
1070
     0
1070
   341
1005
0
1002
}
  0
LINE
  5
1D92E
330
747D
100
AcDbEntity
  8
センター
 48
2.0
100
AcDbLine
 10
6540.690951563679
 20
5747.999999999994
 30
0.0
 11
6540.690951563679
 21
5647.999999999994
 31
0.0
  0
LINE
  5
1D92F
330
747D
100
AcDbEntity
  8
センター
 48
2.0
100
AcDbLine
 10
6490.69095156368
 20
5697.999999999994
 30
0.0
 11
6590.690951563679
 21
5697.999999999994
 31
0.0
  0
CIRCLE
  5
1D930
330
747D
100
AcDbEntity
  8
部品1
 48
50.0
100
AcDbCircle
 10
6540.690951563679
 20
5697.999999999994
 30
0.0
 40
35.0
  0
LINE
  5
1D931
330
747D
100
AcDbEntity
  8
部品1
 48
50.0
100
AcDbLine
 10
6647.690951563672
 20
5799.999999999996
 30
0.0
 11
6537.690951563674
 21
5799.999999999993
 31
0.0
  0
LINE
  5
1D932
330
747D
100
AcDbEntity
  8
部品1
 48
50.0
100
AcDbLine
 10
6647.690951563672
 20
5669.999999999989
 30
0.0
 11
6647.690951563672
 21
5799.999999999996
 31
0.0
  0
DIMENSION
  5
1D933
330
747D
100
AcDbEntity
  8
寸法
 48
50.0
100
AcDbDimension
  2
*D12
 10
5921.748685549852
 20
6336.999999999992
 30
0.0
 11
5921.74868554985
 21
6698.485281374232
 31
0.0
 70
   160
 71
     5
 42
123.0
  3
INABA_S40G
100
AcDbAlignedDimension
 13
6417.690951563672
 23
6459.999999999992
 33
0.0
 14
6490.690951563673
 24
6336.999999999992
 34
0.0
 50
90.0
100
AcDbRotatedDimension
1001
ACAD
1000
DSTYLE
1002
{
1070
   174
1070
     0
1070
   272
1070
     1
1070
   288
1070
     0
1070
   341
1005
0
1002
}
  0
DIMENSION
  5
1D934
330
747D
100
AcDbEntity
  8
寸法
 48
50.0
100
AcDbDimension
  2
*D13
 10
5676.255883411885
 20
6459.999999999992
 30
0.0
 11
5676.255883411883
 21
6497.499999999992
 31
0.0
 70
   160
  1
c
 71
     5
 42
74.99999999999909
  3
INABA_S40G
100
AcDbAlignedDimension
 13
5921.748685549852
 23
6534.999999999993
 33
0.0
 14
6417.690951563672
 24
6459.999999999992
 34
0.0
 50
90.0
100
AcDbRotatedDimension
1001
ACAD
1000
DSTYLE
1002
{
1070
   174
1070
     0
1070
   272
1070
     1
1070
   288
1070
     0
1070
   341
1005
0
1002
}
  0
LINE
  5
1D935
330
747D
100
AcDbEntity
  8
部品1
 48
50.0
100
AcDbLine
 10
6537.690951563674
 20
6079.999999999992
 30
0.0
 11
6417.690951563672
 21
6079.999999999992
 31
0.0
  0
LINE
  5
1D936
330
747D
100
AcDbEntity
  8
部品1
 48
50.0
100
AcDbLine
 10
6537.690951563674
 20
5879.999999999992
 30
0.0
 11
6417.690951563672
 21
5879.999999999991
 31
0.0
  0
LINE
  5
1D938
330
747D
100
AcDbEntity
  8
センター
 48
2.0
100
AcDbLine
 10
6540.690951563672
 20
6386.999999999992
 30
0.0
 11
6540.690951563672
 21
6286.999999999991
 31
0.0
  0
LINE
  5
1D939
330
747D
100
AcDbEntity
  8
センター
 48
2.0
100
AcDbLine
 10
6490.690951563673
 20
6336.999999999992
 30
0.0
 11
6590.690951563672
 21
6336.999999999992
 31
0.0
  0
CIRCLE
  5
1D93A
330
747D
100
AcDbEntity
  8
部品1
 48
50.0
100
AcDbCircle
 10
6540.690951563672
 20
6336.999999999992
 30
0.0
 40
35.0
  0
LINE
  5
1D93B
330
747D
100
AcDbEntity
  8
部品1
 48
50.0
100
AcDbLine
 10
6647.690951563672
 20
6229.999999999988
 30
0.0
 11
6537.690951563674
 21
6229.999999999992
 31
0.0
  0
LINE
  5
1D93C
330
747D
100
AcDbEntity
  8
部品1
 48
50.0
100
AcDbLine
 10
6647.690951563672
 20
6229.999999999988
 30
0.0
 11
6647.690951563672
 21
6339.999999999991
 31
0.0
  0
DIMENSION
  5
1D93E
330
747D
100
AcDbEntity
  8
寸法
 48
50.0
100
AcDbDimension
  2
*D14
 10
9354.690951563673
 20
7065.06061038992
 30
0.0
 11
9716.176232937911
 21
7065.06061038992
 31
0.0
 70
   160
 71
     5
 42
123.0
  3
INABA_S40G
100
AcDbAlignedDimension
 13
9477.690951563673
 23
6459.999999999991
 33
0.0
 14
9354.690951563673
 24
6386.999999999991
 34
0.0
100
AcDbRotatedDimension
1001
ACAD
1000
DSTYLE
1002
{
1070
   174
1070
     0
1070
   272
1070
     1
1070
   288
1070
     0
1070
   341
1005
0
1002
}
  0
DIMENSION
  5
1D93F
330
747D
100
AcDbEntity
  8
寸法
 48
50.0
100
AcDbDimension
  2
*D15
 10
9522.690951563673
 20
7277.521305906758
 30
0.0
 11
9500.190951563672
 21
7277.521305906758
 31
0.0
 70
   160
  1
a
 71
     5
 42
45.0
  3
INABA_S40G
100
AcDbAlignedDimension
 13
9477.690951563673
 23
6459.999999999991
 33
0.0
 14
9522.690951563673
 24
7065.06061038992
 34
0.0
100
AcDbRotatedDimension
1001
ACAD
1000
DSTYLE
1002
{
1070
   174
1070
     0
1070
   272
1070
     1
1070
   288
1070
     0
1070
   341
1005
0
1002
}
  0
LEADER
  5
1D940
330
747D
100
AcDbEntity
  8
寸法
 48
50.0
100
AcDbLeader
  3
INABA_S40G
 71
     0
 73
     0
 74
     0
 75
     1
 40
120.0
 41
720.0000000000001
 76
     3
 10
9477.690951563673
 20
5980.0
 30
0.0
 10
9727.239115047916
 20
6224.308542911245
 30
0.0
 10
9827.239115047916
 20
6224.308542911245
 30
0.0
340
1D941
1001
ACAD
1000
DSTYLE
1002
{
1070
   174
1070
     0
1070
   272
1070
     1
1070
   288
1070
     0
1070
   341
1005
0
1002
}
  0
MTEXT
  5
1D941
102
{ACAD_REACTORS
330
1D940
102
}
330
747D
100
AcDbEntity
  8
部品1
 62
     7
 48
50.0
100
AcDbMText
 10
10587.23911504791
 20
6324.308542911246
 30
0.0
 40
120.0
 41
0.0
 71
     6
 72
     1
  1
\A1;床下換気口
  7
STYLE1
 73
     1
 44
1.0
1001
ACAD
1000
MTEXTBEGIN
1070
    73
1070
     1
1070
    44
1040
1.0
1070
    74
1070
     0
1000
MTEXTEND
  0
DIMENSION
  5
1D942
330
747D
100
AcDbEntity
  8
寸法
 48
50.0
100
AcDbDimension
  2
*D16
 10
9357.690951563673
 20
5921.503367980584
 30
0.0
 11
9713.738195658162
 21
5921.503367980584
 31
0.0
 70
   160
 71
     5
 42
120.0
  3
INABA_S40G
100
AcDbAlignedDimension
 13
9477.690951563673
 23
5980.0
 33
0.0
 14
9357.690951563673
 24
5981.467651971857
 34
0.0
100
AcDbRotatedDimension
1001
ACAD
1000
DSTYLE
1002
{
1070
   174
1070
     0
1070
   272
1070
     1
1070
   288
1070
     0
1070
   341
1005
0
1002
}
  0
TEXT
  5
1D943
330
747D
100
AcDbEntity
  8
部品1
 48
50.0
100
AcDbText
 10
9564.511018242074
 20
4805.113203220717
 30
0.0
 40
80.0
  1
(a=45,b=55,c=75)
  7
STYLE1
100
AcDbText
  0
TEXT
  5
1D944
330
747D
100
AcDbEntity
  8
部品1
 48
50.0
100
AcDbText
 10
9494.634130637191
 20
4924.844249373856
 30
0.0
 40
80.0
  1
※a,b,cは屋根の出幅です。
  7
STYLE1
100
AcDbText
  0
MTEXT
  5
1D945
102
{ACAD_REACTORS
330
1D946
102
}
330
747D
100
AcDbEntity
  8
部品1
 62
     7
 48
50.0
100
AcDbMText
 10
10359.81672610199
 20
5148.982608040199
 30
0.0
 40
120.0
 41
0.0
 71
     6
 72
     1
  1
\A1;屋根の外寸
  7
STYLE1
 73
     1
 44
1.0
1001
ACAD
1000
MTEXTBEGIN
1070
    73
1070
     1
1070
    44
1040
1.0
1070
    74
1070
     0
1000
MTEXTEND
  0
LEADER
  5
1D946
330
747D
100
AcDbEntity
  8
寸法
 48
50.0
100
AcDbLeader
  3
INABA_S50G
 71
     0
 73
     0
 74
     0
 75
     1
 40
120.0
 41
672.0
 76
     3
 10
9289.5795394975
 20
5443.999999999991
 30
0.0
 10
9537.816726101992
 20
5063.9826080402
 30
0.0
 10
9662.816726101993
 20
5063.9826080402
 30
0.0
340
1D945
1001
ACAD
1000
DSTYLE
1002
{
1070
   341
1005
1C530
1070
    40
1040
1.0
1070
   343
1005
1C530
1070
   344
1005
1C530
1002
}
  0
DIMENSION
  5
1D947
330
747D
100
AcDbEntity
  8
寸法
 48
50.0
100
AcDbDimension
  2
*D17
 10
8637.192081614902
 20
6229.999999999989
 30
0.0
 11
8637.1920816149
 21
5993.952755905501
 31
0.0
 70
   160
 71
     5
 42
110.0000000000009
  3
INABA_S40G
100
AcDbAlignedDimension
 13
8578.182710779548
 23
6339.99999999999
 33
0.0
 14
9247.690951563674
 24
6229.999999999989
 34
0.0
 50
90.0
100
AcDbRotatedDimension
1001
ACAD
1000
DSTYLE
1002
{
1070
   174
1070
     0
1070
   272
1070
     1
1070
   288
1070
     0
1070
   341
1005
0
1002
}
  0
DIMENSION
  5
1D948
330
747D
100
AcDbEntity
  8
寸法
 48
50.0
100
AcDbDimension
  2
*D18
 10
9247.690951563674
 20
5921.503367980584
 30
0.0
 11
9011.643707469184
 21
5921.503367980584
 31
0.0
 70
   160
 71
     5
 42
110.0
  3
INABA_S40G
100
AcDbAlignedDimension
 13
9357.690951563673
 23
5981.467651971857
 33
0.0
 14
9247.690951563674
 24
6229.999999999989
 34
0.0
100
AcDbRotatedDimension
1001
ACAD
1000
DSTYLE
1002
{
1070
   174
1070
     0
1070
   272
1070
     1
1070
   288
1070
     0
1070
   341
1005
0
1002
}
  0
LINE
  5
1D949
330
747D
100
AcDbEntity
  8
部品1
 48
50.0
100
AcDbLine
 10
9357.690951563673
 20
5800.000000000011
 30
0.0
 11
9357.690951563673
 21
6229.999999999991
 31
0.0
  0
LINE
  5
1D94A
330
747D
100
AcDbEntity
  8
部品1
 48
50.0
100
AcDbLine
 10
9477.690951563673
 20
5500.000000000009
 30
0.0
 11
9477.690951563673
 21
6459.999999999991
 31
0.0
  0
LINE
  5
1D94B
330
747D
100
AcDbEntity
  8
想像線
 48
10.0
100
AcDbLine
 10
9522.690951563673
 20
6534.999999999995
 30
0.0
 11
9522.690951563676
 21
5444.999999999991
 31
0.0
  0
TEXT
  5
1D94C
330
747D
100
AcDbEntity
  8
部品1
 48
50.0
100
AcDbText
 10
7819.690951563657
 20
5238.547498596531
 30
0.0
 40
120.0
  1
扉面
  7
STYLE1
 72
     1
 11
7947.690951563657
 21
5222.547498596531
 31
0.0
100
AcDbText
 73
     1
  0
HATCH
  5
1D94E
330
747D
100
AcDbEntity
  8
細線
 48
50.0
100
AcDbHatch
 10
0.0
 20
0.0
 30
0.0
210
0.0
220
0.0
230
1.0
  2
LINE
 70
     0
 71
     0
 91
        1
 92
        7
 72
     0
 73
     1
 93
        4
 10
8047.690951563673
 20
5500.0
 10
8047.690951563673
 20
5669.999999999998
 10
7847.690951563672
 20
5669.999999999997
 10
7847.690951563672
 20
5499.999999999994
 97
        0
 75
     0
 76
     1
 52
45.0
 41
10.0
 77
     0
 78
     1
 53
45.0
 43
4344.579390577148
 44
-5651.541555076297
 45
-22.45064030267288
 46
22.45064030267288
 79
     0
 47
2.903594399684136
 98
        1
 10
7960.800951566759
 20
5539.027055432439
  0
LINE
  5
1D94F
330
747D
100
AcDbEntity
  8
部品1
 48
50.0
100
AcDbLine
 10
7847.690951563672
 20
5500.0
 30
0.0
 11
7847.690951563672
 21
5669.999999999994
 31
0.0
  0
LINE
  5
1D950
330
747D
100
AcDbEntity
  8
部品1
 48
50.0
100
AcDbLine
 10
8047.690951563673
 20
5500.0
 30
0.0
 11
8047.690951563673
 21
5669.999999999998
 31
0.0
  0
LINE
  5
1D951
330
747D
100
AcDbEntity
  8
センター
 48
2.0
100
AcDbLine
 10
9304.69095156368
 20
5697.999999999993
 30
0.0
 11
9404.690951563679
 21
5697.999999999993
 31
0.0
  0
CIRCLE
  5
1D952
330
747D
100
AcDbEntity
  8
部品1
 48
50.0
100
AcDbCircle
 10
9354.69095156368
 20
5697.999999999993
 30
0.0
 40
35.0
  0
LINE
  5
1D953
330
747D
100
AcDbEntity
  8
部品1
 48
50.0
100
AcDbLine
 10
9357.690951563673
 20
5800.000000000009
 30
0.0
 11
9247.690951563674
 21
5800.000000000009
 31
0.0
  0
LINE
  5
1D954
330
747D
100
AcDbEntity
  8
部品1
 48
50.0
100
AcDbLine
 10
9247.690951563674
 20
5670.000000000007
 30
0.0
 11
9247.690951563674
 21
5800.000000000009
 31
0.0
  0
LINE
  5
1D955
330
747D
100
AcDbEntity
  8
センター
 48
2.0
100
AcDbLine
 10
9354.69095156368
 20
5747.999999999993
 30
0.0
 11
9354.69095156368
 21
5647.999999999992
 31
0.0
  0
LINE
  5
1D956
330
747D
100
AcDbEntity
  8
部品1
 48
50.0
100
AcDbLine
 10
8047.690951563659
 20
6339.999999999991
 30
0.0
 11
8047.690951563657
 21
6459.999999999991
 31
0.0
  0
LINE
  5
1D957
330
747D
100
AcDbEntity
  8
部品1
 48
50.0
100
AcDbLine
 10
7847.690951563658
 20
6339.999999999991
 30
0.0
 11
7847.690951563658
 21
6459.999999999991
 31
0.0
  0
DIMENSION
  5
1D959
330
747D
100
AcDbEntity
  8
寸法
 48
50.0
100
AcDbDimension
  2
*D19
 10
8637.192081614902
 20
6339.99999999999
 30
0.0
 11
8637.1920816149
 21
6696.047244094481
 31
0.0
 70
   160
 71
     5
 42
120.0000000000009
  3
INABA_S40G
100
AcDbAlignedDimension
 13
8577.690951563672
 23
6459.999999999991
 33
0.0
 14
8578.182710779548
 24
6339.99999999999
 34
0.0
 50
90.0
100
AcDbRotatedDimension
1001
ACAD
1000
DSTYLE
1002
{
1070
   174
1070
     0
1070
   272
1070
     1
1070
   288
1070
     0
1070
   341
1005
0
1002
}
  0
LINE
  5
1D95A
330
747D
100
AcDbEntity
  8
センター
 48
2.0
100
AcDbLine
 10
9304.690951563673
 20
6336.999999999991
 30
0.0
 11
9404.690951563672
 21
6336.999999999991
 31
0.0
  0
CIRCLE
  5
1D95B
330
747D
100
AcDbEntity
  8
部品1
 48
50.0
100
AcDbCircle
 10
9354.690951563673
 20
6336.999999999991
 30
0.0
 40
35.0
  0
LINE
  5
1D95C
330
747D
100
AcDbEntity
  8
部品1
 48
50.0
100
AcDbLine
 10
9357.690951563673
 20
6229.999999999993
 30
0.0
 11
9247.690951563674
 21
6229.999999999989
 31
0.0
  0
LINE
  5
1D95D
330
747D
100
AcDbEntity
  8
部品1
 48
50.0
100
AcDbLine
 10
9247.690951563674
 20
6229.999999999989
 30
0.0
 11
9247.69095156367
 21
6339.99999999999
 31
0.0
  0
LINE
  5
1D95E
330
747D
100
AcDbEntity
  8
部品1
 48
50.0
100
AcDbLine
 10
9477.690951563673
 20
6079.999999999991
 30
0.0
 11
9357.690951563673
 21
6079.999999999991
 31
0.0
  0
LINE
  5
1D95F
330
747D
100
AcDbEntity
  8
部品1
 48
50.0
100
AcDbLine
 10
9477.690951563673
 20
5879.999999999991
 30
0.0
 11
9357.690951563673
 21
5879.999999999991
 31
0.0
  0
LINE
  5
1D961
330
747D
100
AcDbEntity
  8
センター
 48
2.0
100
AcDbLine
 10
9354.690951563673
 20
6386.999999999991
 30
0.0
 11
9354.690951563673
 21
6286.999999999991
 31
0.0
  0
TEXT
  5
1DEDA
330
747D
100
AcDbEntity
  8
文字
 62
     7
 48
50.0
100
AcDbText
 10
13188.16259899338
 20
79.80631269190325
 30
0.0
 40
80.0
  1
※布基礎には換気口を設けてください。
  7
STYLE2
100
AcDbText
  0
MTEXT
  5
1E700
102
{ACAD_REACTORS
330
1E701
102
}
330
747D
100
AcDbEntity
  8
部品1
 62
     7
 48
50.0
100
AcDbMText
 10
10527.50793099978
 20
6703.025443807942
 30
0.0
 40
120.0
 41
0.0
 71
     6
 72
     1
  1
基礎ボルト芯
  7
STYLE1
 73
     1
 44
1.0
1001
ACAD
1000
MTEXTBEGIN
1070
    73
1070
     1
1070
    44
1040
1.0
1070
    74
1070
     0
1000
MTEXTEND
  0
LEADER
  5
1E701
330
747D
100
AcDbEntity
  8
寸法
 48
50.0
100
AcDbLeader
  3
INABA_S40G
 71
     0
 73
     0
 74
     0
 75
     1
 40
120.0
 41
846.0000000000002
 76
     3
 10
9354.690951563673
 20
6336.999999999991
 30
0.0
 10
9541.507930999781
 20
6603.025443807942
 30
0.0
 10
9641.507930999781
 20
6603.025443807942
 30
0.0
340
1E700
1001
ACAD
1000
DSTYLE
1002
{
1070
   174
1070
     0
1070
   272
1070
     1
1070
   288
1070
     0
1070
   341
1005
0
1002
}
  0
LINE
  5
1EB68
330
747D
100
AcDbEntity
  8
想像線
 48
10.0
100
AcDbLine
 10
6375.690951563672
 20
6534.999999999989
 30
0.0
 11
6372.690951563672
 21
6531.999999999991
 31
0.0
  0
LINE
  5
1EB6B
330
747D
100
AcDbEntity
  8
部品1
 48
50.0
100
AcDbLine
 10
6417.690951563672
 20
5502.999999999986
 30
0.0
 11
6420.690951563672
 21
5499.999999999986
 31
0.0
  0
LINE
  5
1EB6C
330
747D
100
AcDbEntity
  8
想像線
 48
10.0
100
AcDbLine
 10
6372.690951563673
 20
5447.999999999992
 30
0.0
 11
6375.690951563673
 21
5444.999999999992
 31
0.0
  0
TEXT
  5
1F2BA
330
747D
100
AcDbEntity
  8
部品1
 48
50.0
100
AcDbText
 10
9859.429103467284
 20
1384.809783070506
 30
0.0
 40
80.0
  1
ボルトの出
 50
90.0
  7
STYLE2
100
AcDbText
  0
LINE
  5
1F2BB
330
747D
100
AcDbEntity
  8
部品1
100
AcDbLine
 10
10383.26690092247
 20
356.426698543527
 30
0.0
 11
10383.26690092248
 21
3212.581143484661
 31
0.0
  0
TEXT
  5
1F2BC
330
747D
100
AcDbEntity
  8
部品1
100
AcDbText
 10
7608.596112910388
 20
3033.029211533233
 30
0.0
 40
120.0
  1
基礎詳細
  7
STYLE2
100
AcDbText
  0
LINE
  5
1F2BD
330
747D
100
AcDbEntity
  8
部品1
 48
50.0
100
AcDbLine
 10
8747.41125792303
 20
2290.484804816959
 30
0.0
 11
8763.41125792303
 21
2282.484804816959
 31
0.0
  0
LINE
  5
1F2BE
330
747D
100
AcDbEntity
  8
細線
 48
50.0
100
AcDbLine
 10
8715.41125792303
 20
2242.484804816958
 30
0.0
 11
8715.41125792303
 21
2274.484804816959
 31
0.0
  0
LINE
  5
1F2BF
330
747D
100
AcDbEntity
  8
部品1
 48
50.0
100
AcDbLine
 10
8763.41125792303
 20
2250.484804816958
 30
0.0
 11
8763.41125792303
 21
2282.484804816959
 31
0.0
  0
LINE
  5
1F2C0
330
747D
100
AcDbEntity
  8
細線
 48
50.0
100
AcDbLine
 10
8747.41125792303
 20
2242.484804816958
 30
0.0
 11
8747.41125792303
 21
2274.484804816959
 31
0.0
  0
LINE
  5
1F2C1
330
747D
100
AcDbEntity
  8
部品1
 48
50.0
100
AcDbLine
 10
8747.41125792303
 20
2274.484804816959
 30
0.0
 11
8763.41125792303
 21
2282.484804816959
 31
0.0
  0
LINE
  5
1F2C2
330
747D
100
AcDbEntity
  8
部品1
 48
50.0
100
AcDbLine
 10
8715.41125792303
 20
2274.484804816959
 30
0.0
 11
8747.41125792303
 21
2274.484804816959
 31
0.0
  0
LINE
  5
1F2C3
330
747D
100
AcDbEntity
  8
部品1
 48
50.0
100
AcDbLine
 10
8747.41125792303
 20
2242.484804816958
 30
0.0
 11
8763.41125792303
 21
2250.484804816958
 31
0.0
  0
LINE
  5
1F2C4
330
747D
100
AcDbEntity
  8
部品1
 48
50.0
100
AcDbLine
 10
8715.41125792303
 20
2242.484804816958
 30
0.0
 11
8747.41125792303
 21
2242.484804816958
 31
0.0
  0
ELLIPSE
  5
1F2C5
330
747D
100
AcDbEntity
  8
細線
 48
50.0
100
AcDbEllipse
 10
8731.411257923028
 20
2282.484804816958
 30
0.0
 11
14.76670786606846
 21
0.0
 31
0.0
210
0.0
220
0.0
230
1.0
 40
0.2071254069489396
 41
0.0
 42
6.283185307179586
  0
LINE
  5
1F2C6
330
747D
100
AcDbEntity
  8
部品1
 48
50.0
100
AcDbLine
 10
8715.41125792303
 20
2290.484804816959
 30
0.0
 11
8747.41125792303
 21
2290.484804816959
 31
0.0
  0
LINE
  5
1F2C7
330
747D
100
AcDbEntity
  8
部品1
 48
50.0
100
AcDbLine
 10
8699.41125792303
 20
2250.484804816958
 30
0.0
 11
8699.41125792303
 21
2282.484804816959
 31
0.0
  0
LINE
  5
1F2C8
330
747D
100
AcDbEntity
  8
部品1
 48
50.0
100
AcDbLine
 10
8699.41125792303
 20
2282.484804816959
 30
0.0
 11
8715.41125792303
 21
2290.484804816959
 31
0.0
  0
LINE
  5
1F2C9
330
747D
100
AcDbEntity
  8
部品1
 48
50.0
100
AcDbLine
 10
8699.41125792303
 20
2250.484804816958
 30
0.0
 11
8715.41125792303
 21
2242.484804816958
 31
0.0
  0
LINE
  5
1F2CA
330
747D
100
AcDbEntity
  8
部品1
 48
50.0
100
AcDbLine
 10
8699.41125792303
 20
2282.484804816959
 30
0.0
 11
8715.41125792303
 21
2274.484804816959
 31
0.0
  0
LINE
  5
1F2CB
330
747D
100
AcDbEntity
  8
部品1
 48
50.0
100
AcDbLine
 10
8771.411257923031
 20
2151.132812152087
 30
0.0
 11
8771.411257923031
 21
2160.732812152088
 31
0.0
  0
ELLIPSE
  5
1F2CC
330
747D
100
AcDbEntity
  8
部品1
 48
50.0
100
AcDbEllipse
 10
8731.411257923028
 20
2160.732812152088
 30
0.0
 11
18.4
 21
0.0
 31
0.0
210
0.0
220
0.0
230
1.0
 40
0.3478260869565217
 41
0.0
 42
6.283185307179586
  0
ARC
  5
1F2CD
330
747D
100
AcDbEntity
  8
部品1
100
AcDbCircle
 10
8570.311257923028
 20
1989.709523707816
 30
0.0
 40
2.7
100
AcDbArc
 50
90.0
 51
180.0
  0
LINE
  5
1F2CE
330
747D
100
AcDbEntity
  8
部品1
100
AcDbLine
 10
8573.011257923029
 20
2003.209523707816
 30
0.0
 11
8615.31125792303
 21
2003.209523707812
 31
0.0
  0
LINE
  5
1F2CF
330
747D
100
AcDbEntity
  8
部品1
100
AcDbLine
 10
8570.311257923028
 20
1992.409523707815
 30
0.0
 11
8570.311257923028
 21
2000.509523707815
 31
0.0
  0
LINE
  5
1F2D0
330
747D
100
AcDbEntity
  8
部品1
100
AcDbLine
 10
8570.311257923028
 20
1992.409523707815
 30
0.0
 11
8570.311257923028
 21
1992.409523707815
 31
0.0
  0
ARC
  5
1F2D1
330
747D
100
AcDbEntity
  8
部品1
100
AcDbCircle
 10
8573.011257923029
 20
2000.509523707815
 30
0.0
 40
2.7
100
AcDbArc
 50
90.0
 51
180.0
  0
ARC
  5
1F2D2
330
747D
100
AcDbEntity
  8
部品1
100
AcDbCircle
 10
8615.31125792303
 20
2000.509523707812
 30
0.0
 40
2.7
100
AcDbArc
 50
0.0
 51
90.0
  0
LINE
  5
1F2D3
330
747D
100
AcDbEntity
  8
部品1
 48
50.0
100
AcDbLine
 10
8691.411257923029
 20
2160.732812152088
 30
0.0
 11
8691.411257923029
 21
2151.132812152087
 31
0.0
  0
ELLIPSE
  5
1F2D4
330
747D
100
AcDbEntity
  8
部品1
 48
50.0
100
AcDbEllipse
 10
8731.411257923028
 20
2151.132812152088
 30
0.0
 11
40.0
 21
0.0
 31
0.0
210
0.0
220
0.0
230
1.0
 40
0.4
 41
3.141592653589793
 42
6.283185307179586
  0
ELLIPSE
  5
1F2D5
330
747D
100
AcDbEntity
  8
部品1
 48
50.0
100
AcDbEllipse
 10
8731.411257923028
 20
2160.732812152088
 30
0.0
 11
40.0
 21
0.0
 31
0.0
210
0.0
220
0.0
230
1.0
 40
0.4
 41
0.0
 42
6.283185307179586
  0
LINE
  5
1F2D6
330
747D
100
AcDbEntity
  8
部品1
100
AcDbLine
 10
8726.01125792303
 20
1944.369523707815
 30
0.0
 11
8736.811257923029
 21
1944.369523707815
 31
0.0
  0
LINE
  5
1F2D7
330
747D
100
AcDbEntity
  8
部品1
100
AcDbLine
 10
8722.411257923029
 20
1940.769523707816
 30
0.0
 11
8740.41125792303
 21
1940.769523707816
 31
0.0
  0
LINE
  5
1F2D8
330
747D
100
AcDbEntity
  8
細線
100
AcDbLine
 10
8726.011257923032
 20
1901.169523707816
 30
0.0
 11
8726.01125792303
 21
1944.369523707815
 31
0.0
  0
LINE
  5
1F2D9
330
747D
100
AcDbEntity
  8
細線
100
AcDbLine
 10
8736.811257923029
 20
1901.169523707816
 30
0.0
 11
8736.811257923029
 21
1944.369523707815
 31
0.0
  0
LINE
  5
1F2DA
330
747D
100
AcDbEntity
  8
部品1
100
AcDbLine
 10
8638.711257923029
 20
1958.469523707815
 30
0.0
 11
8638.711257923029
 21
1941.369523707815
 31
0.0
  0
LINE
  5
1F2DB
330
747D
100
AcDbEntity
  8
部品1
100
AcDbLine
 10
8672.27125792303
 20
1958.469523707815
 30
0.0
 11
8672.271257923027
 21
1903.869523707815
 31
0.0
  0
ARC
  5
1F2DC
330
747D
100
AcDbEntity
  8
部品1
100
AcDbCircle
 10
8657.611257923027
 20
1946.509523707815
 30
0.0
 40
2.7
100
AcDbArc
 50
0.0
 51
90.0
  0
LINE
  5
1F2DD
330
747D
100
AcDbEntity
  8
部品1
100
AcDbLine
 10
8618.011257923029
 20
1949.209523707816
 30
0.0
 11
8657.611257923027
 21
1949.209523707816
 31
0.0
  0
ARC
  5
1F2DE
330
747D
100
AcDbEntity
  8
部品1
100
AcDbCircle
 10
8657.611257923027
 20
1903.869523707815
 30
0.0
 40
2.7
100
AcDbArc
 50
270.0
 51
0.0
  0
ARC
  5
1F2DF
330
747D
100
AcDbEntity
  8
部品1
100
AcDbCircle
 10
8674.971257923024
 20
1903.869523707815
 30
0.0
 40
2.7
100
AcDbArc
 50
180.0
 51
270.0
  0
LINE
  5
1F2E0
330
747D
100
AcDbEntity
  8
部品1
100
AcDbLine
 10
8645.91125792303
 20
1901.169523707816
 30
0.0
 11
8657.611257923027
 21
1901.169523707816
 31
0.0
  0
LINE
  5
1F2E1
330
747D
100
AcDbEntity
  8
部品1
100
AcDbLine
 10
8660.31125792303
 20
1946.509523707815
 30
0.0
 11
8660.31125792303
 21
1903.869523707815
 31
0.0
  0
ARC
  5
1F2E2
330
747D
100
AcDbEntity
  8
部品1
100
AcDbCircle
 10
8669.571257923029
 20
1958.469523707815
 30
0.0
 40
2.7
100
AcDbArc
 50
0.0
 51
90.0
  0
ARC
  5
1F2E3
330
747D
100
AcDbEntity
  8
部品1
100
AcDbCircle
 10
8641.41125792303
 20
1958.469523707815
 30
0.0
 40
2.7
100
AcDbArc
 50
90.0
 51
180.0
  0
LINE
  5
1F2E4
330
747D
100
AcDbEntity
  8
部品1
100
AcDbLine
 10
8641.41125792303
 20
1961.169523707815
 30
0.0
 11
8669.571257923029
 21
1961.169523707815
 31
0.0
  0
LINE
  5
1F2E5
330
747D
100
AcDbEntity
  8
部品1
100
AcDbLine
 10
8618.011257923029
 20
2000.509523707812
 30
0.0
 11
8618.011257923029
 21
1949.209523707816
 31
0.0
  0
LINE
  5
1F2E6
330
747D
100
AcDbEntity
  8
部品1
100
AcDbLine
 10
8567.611257923029
 20
1981.609523707815
 30
0.0
 11
8567.611257923029
 21
1989.709523707816
 31
0.0
  0
LINE
  5
1F2E7
330
747D
100
AcDbEntity
  8
部品1
100
AcDbLine
 10
8674.971257923024
 20
1901.169523707816
 30
0.0
 11
8876.311257923024
 21
1901.169523707816
 31
0.0
  0
LINE
  5
1F2E8
330
747D
100
AcDbEntity
  8
部品1
100
AcDbLine
 10
8516.311257923028
 20
1903.869523707815
 30
0.0
 11
8516.311257923028
 21
1966.001427410523
 31
0.0
  0
LINE
  5
1F2E9
330
747D
100
AcDbEntity
  8
部品1
100
AcDbLine
 10
8519.011257923031
 20
1901.169523707816
 30
0.0
 11
8530.711257923023
 21
1901.169523707816
 31
0.0
  0
LINE
  5
1F2EA
330
747D
100
AcDbEntity
  8
細線
 48
50.0
100
AcDbLine
 10
8510.01125792303
 20
1879.39010000772
 30
0.0
 11
8522.230681623126
 21
1891.609523707815
 31
0.0
  0
ARC
  5
1F2EB
330
747D
100
AcDbEntity
  8
部品1
100
AcDbCircle
 10
8519.011257923031
 20
1903.869523707815
 30
0.0
 40
2.7
100
AcDbArc
 50
180.0
 51
270.0
  0
LINE
  5
1F2EC
330
747D
100
AcDbEntity
  8
部品1
100
AcDbLine
 10
8518.35641173543
 20
1968.620812160915
 30
0.0
 11
8527.11125792303
 21
1970.809523707815
 31
0.0
  0
ARC
  5
1F2ED
330
747D
100
AcDbEntity
  8
部品1
100
AcDbCircle
 10
8519.011257923031
 20
1966.001427410523
 30
0.0
 40
2.7
100
AcDbArc
 50
104.0362434679075
 51
180.0
  0
ARC
  5
1F2EE
330
747D
100
AcDbEntity
  8
部品1
100
AcDbCircle
 10
8529.811257923029
 20
1978.909523707815
 30
0.0
 40
2.7
100
AcDbArc
 50
90.0
 51
180.0
  0
LINE
  5
1F2EF
330
747D
100
AcDbEntity
  8
部品1
100
AcDbLine
 10
8527.11125792303
 20
1970.809523707815
 30
0.0
 11
8527.11125792303
 21
1978.909523707815
 31
0.0
  0
TEXT
  5
1F2F0
330
747D
100
AcDbEntity
  8
部品1
 48
50.0
100
AcDbText
 10
8083.565161343537
 20
2222.170044808291
 30
0.0
 40
80.0
  1
※(別売)
  7
STYLE2
100
AcDbText
  0
LINE
  5
1F2F1
330
747D
100
AcDbEntity
  8
部品1
 48
50.0
100
AcDbLine
 10
8510.01125792303
 20
1891.609523707815
 30
0.0
 11
8924.011257923032
 21
1891.609523707815
 31
0.0
  0
LINE
  5
1F2F2
330
747D
100
AcDbEntity
  8
細線
 48
50.0
100
AcDbLine
 10
8510.01125792303
 20
1825.508563281305
 30
0.0
 11
8576.112218349539
 21
1891.609523707815
 31
0.0
  0
LINE
  5
1F2F3
330
747D
100
AcDbEntity
  8
細線
 48
50.0
100
AcDbLine
 10
8510.01125792303
 20
1852.449331644513
 30
0.0
 11
8549.171449986333
 21
1891.609523707815
 31
0.0
  0
LINE
  5
1F2F4
330
747D
100
AcDbEntity
  8
部品1
100
AcDbLine
 10
8529.811257923029
 20
1981.609523707815
 30
0.0
 11
8567.611257923029
 21
1981.609523707815
 31
0.0
  0
LINE
  5
1F2F5
330
747D
100
AcDbEntity
  8
部品1
 48
50.0
100
AcDbLine
 10
8924.011257923028
 20
1347.609523707815
 30
0.0
 11
9052.011257923028
 21
1347.609523707815
 31
0.0
  0
LINE
  5
1F2F6
330
747D
100
AcDbEntity
  8
部品1
100
AcDbLine
 10
8740.41125792303
 20
1666.609523707815
 30
0.0
 11
8776.41125792303
 21
1666.609523707815
 31
0.0
  0
LINE
  5
1F2F7
330
747D
100
AcDbEntity
  8
部品1
100
AcDbLine
 10
8740.41125792303
 20
1648.609523707815
 30
0.0
 11
8776.41125792303
 21
1648.609523707815
 31
0.0
  0
ARC
  5
1F2F8
330
747D
100
AcDbEntity
  8
部品1
100
AcDbCircle
 10
8740.41125792303
 20
1666.609523707815
 30
0.0
 40
18.0
100
AcDbArc
 50
180.0
 51
270.0
  0
LINE
  5
1F2F9
330
747D
100
AcDbEntity
  8
部品1
100
AcDbLine
 10
8776.41125792303
 20
1648.609523707815
 30
0.0
 11
8776.41125792303
 21
1666.609523707815
 31
0.0
  0
LINE
  5
1F2FA
330
747D
100
AcDbEntity
  8
部品1
100
AcDbLine
 10
8794.411257923028
 20
1567.609523707813
 30
0.0
 11
8668.411257923024
 21
1567.609523707813
 31
0.0
  0
LINE
  5
1F2FB
330
747D
100
AcDbEntity
  8
細線
 48
50.0
100
AcDbLine
 10
9088.389083115364
 20
1083.609523707813
 30
0.0
 11
9081.958302497019
 21
1107.609523707813
 31
0.0
  0
LINE
  5
1F2FC
330
747D
100
AcDbEntity
  8
細線
 48
50.0
100
AcDbLine
 10
9009.501038168119
 20
1083.609523707813
 30
0.0
 11
9003.070257549772
 21
1107.609523707813
 31
0.0
  0
LINE
  5
1F2FD
330
747D
100
AcDbEntity
  8
細線
 48
50.0
100
AcDbLine
 10
8930.612993220861
 20
1083.609523707815
 30
0.0
 11
8924.182212602515
 21
1107.609523707815
 31
0.0
  0
LINE
  5
1F2FE
330
747D
100
AcDbEntity
  8
細線
 48
50.0
100
AcDbLine
 10
9066.953147720875
 20
1003.609523707813
 30
0.0
 11
9073.383928339223
 21
979.6095237078134
 31
0.0
  0
LINE
  5
1F2FF
330
747D
100
AcDbEntity
  8
細線
 48
50.0
100
AcDbLine
 10
8988.06510277363
 20
1003.609523707813
 30
0.0
 11
8994.495883391975
 21
979.6095237078134
 31
0.0
  0
LINE
  5
1F300
330
747D
100
AcDbEntity
  8
細線
 48
50.0
100
AcDbLine
 10
8909.177057826381
 20
1003.609523707815
 30
0.0
 11
8915.607838444737
 21
979.6095237078151
 31
0.0
  0
LINE
  5
1F301
330
747D
100
AcDbEntity
  8
細線
 48
50.0
100
AcDbLine
 10
8981.634322155279
 20
979.6095237078125
 30
0.0
 11
9015.931818786462
 21
1107.609523707812
 31
0.0
  0
LINE
  5
1F302
330
747D
100
AcDbEntity
  8
細線
 48
50.0
100
AcDbLine
 10
8902.746277208031
 20
979.6095237078134
 30
0.0
 11
8937.043773839205
 21
1107.609523707815
 31
0.0
  0
LINE
  5
1F303
330
747D
100
AcDbEntity
  8
細線
 48
50.0
100
AcDbLine
 10
9060.522367102523
 20
979.6095237078134
 30
0.0
 11
9094.819863733709
 21
1107.609523707812
 31
0.0
  0
LINE
  5
1F304
330
747D
100
AcDbEntity
  8
部品1
 48
50.0
100
AcDbLine
 10
9132.011257923032
 20
1107.609523707815
 30
0.0
 11
9132.011257923032
 21
979.6095237078151
 31
0.0
  0
LINE
  5
1F305
330
747D
100
AcDbEntity
  8
細線
 48
50.0
100
AcDbLine
 10
8851.724948273625
 20
1083.609523707815
 30
0.0
 11
8845.294167655278
 21
1107.609523707815
 31
0.0
  0
LINE
  5
1F306
330
747D
100
AcDbEntity
  8
細線
 48
50.0
100
AcDbLine
 10
8772.836903326377
 20
1083.609523707815
 30
0.0
 11
8766.406122708032
 21
1107.609523707815
 31
0.0
  0
LINE
  5
1F307
330
747D
100
AcDbEntity
  8
細線
 48
50.0
100
AcDbLine
 10
8615.060813431886
 20
1083.609523707815
 30
0.0
 11
8608.630032813538
 21
1107.609523707815
 31
0.0
  0
LINE
  5
1F308
330
747D
100
AcDbEntity
  8
細線
 48
50.0
100
AcDbLine
 10
8693.948858379132
 20
1083.609523707815
 30
0.0
 11
8687.518077760785
 21
1107.609523707815
 31
0.0
  0
LINE
  5
1F309
330
747D
100
AcDbEntity
  8
細線
 48
50.0
100
AcDbLine
 10
8751.400967931887
 20
1003.609523707815
 30
0.0
 11
8757.831748550236
 21
979.6095237078151
 31
0.0
  0
LINE
  5
1F30A
330
747D
100
AcDbEntity
  8
細線
 48
50.0
100
AcDbLine
 10
8830.289012879134
 20
1003.609523707815
 30
0.0
 11
8836.719793497481
 21
979.6095237078151
 31
0.0
  0
LINE
  5
1F30B
330
747D
100
AcDbEntity
  8
細線
 48
50.0
100
AcDbLine
 10
8593.624878037397
 20
1003.609523707815
 30
0.0
 11
8600.055658655744
 21
979.6095237078151
 31
0.0
  0
LINE
  5
1F30C
330
747D
100
AcDbEntity
  8
細線
 48
50.0
100
AcDbLine
 10
8672.512922984642
 20
1003.609523707815
 30
0.0
 11
8678.943703602987
 21
979.6095237078151
 31
0.0
  0
LINE
  5
1F30D
330
747D
100
AcDbEntity
  8
細線
 48
50.0
100
AcDbLine
 10
8823.858232260782
 20
979.6095237078151
 30
0.0
 11
8858.155728891967
 21
1107.609523707813
 31
0.0
  0
LINE
  5
1F30E
330
747D
100
AcDbEntity
  8
細線
 48
50.0
100
AcDbLine
 10
8666.08214236629
 20
979.6095237078151
 30
0.0
 11
8700.379638997477
 21
1107.609523707813
 31
0.0
  0
LINE
  5
1F30F
330
747D
100
AcDbEntity
  8
細線
 48
50.0
100
AcDbLine
 10
8587.194097419043
 20
979.6095237078151
 30
0.0
 11
8621.491594050226
 21
1107.609523707815
 31
0.0
  0
LINE
  5
1F310
330
747D
100
AcDbEntity
  8
細線
 48
50.0
100
AcDbLine
 10
8744.970187313539
 20
979.6095237078134
 30
0.0
 11
8779.267683944722
 21
1107.609523707813
 31
0.0
  0
LINE
  5
1F311
330
747D
100
AcDbEntity
  8
細線
 48
50.0
100
AcDbLine
 10
8869.742952877837
 20
1107.609523707815
 30
0.0
 11
9052.011257923028
 21
1289.877828753011
 31
0.0
  0
LINE
  5
1F312
330
747D
100
AcDbEntity
  8
部品1
 48
50.0
100
AcDbLine
 10
9052.011257923028
 20
1347.609523707815
 30
0.0
 11
9052.011257923028
 21
1107.609523707815
 31
0.0
  0
LINE
  5
1F313
330
747D
100
AcDbEntity
  8
細線
 48
50.0
100
AcDbLine
 10
8842.802184514635
 20
1107.609523707815
 30
0.0
 11
9052.011257923028
 21
1316.818597116208
 31
0.0
  0
LINE
  5
1F314
330
747D
100
AcDbEntity
  8
細線
 48
50.0
100
AcDbLine
 10
8815.861416151422
 20
1107.609523707815
 30
0.0
 11
9052.011257923028
 21
1343.759365479423
 31
0.0
  0
LINE
  5
1F315
330
747D
100
AcDbEntity
  8
細線
 48
50.0
100
AcDbLine
 10
8600.335269245762
 20
1107.609523707815
 30
0.0
 11
8924.011257923028
 21
1431.285512385081
 31
0.0
  0
LINE
  5
1F316
330
747D
100
AcDbEntity
  8
細線
 48
50.0
100
AcDbLine
 10
8654.216805972177
 20
1107.609523707815
 30
0.0
 11
8924.011257923028
 21
1377.403975658672
 31
0.0
  0
LINE
  5
1F317
330
747D
100
AcDbEntity
  8
細線
 48
50.0
100
AcDbLine
 10
8627.276037608973
 20
1107.609523707815
 30
0.0
 11
8924.011257923028
 21
1404.344744021868
 31
0.0
  0
LINE
  5
1F318
330
747D
100
AcDbEntity
  8
細線
 48
50.0
100
AcDbLine
 10
8382.011257923023
 20
1320.337806196401
 30
0.0
 11
8409.282975434443
 21
1347.609523707815
 31
0.0
  0
LINE
  5
1F319
330
747D
100
AcDbEntity
  8
部品1
 48
50.0
100
AcDbLine
 10
8382.01125792303
 20
1347.609523707815
 30
0.0
 11
8510.01125792303
 21
1347.609523707815
 31
0.0
  0
LINE
  5
1F31A
330
747D
100
AcDbEntity
  8
細線
 48
50.0
100
AcDbLine
 10
8382.011257923023
 20
1293.39703783319
 30
0.0
 11
8436.223743797654
 21
1347.609523707815
 31
0.0
  0
LWPOLYLINE
  5
1F31B
330
747D
100
AcDbEntity
  8
部品1
 48
50.0
100
AcDbPolyline
 90
        2
 70
     0
 43
8.0
 10
8095.871356090071
 20
1651.609523707816
 10
8510.01125792303
 20
1651.609523707816
  0
LINE
  5
1F31C
330
747D
100
AcDbEntity
  8
細線
 48
50.0
100
AcDbLine
 10
8457.284723537382
 20
1083.609523707815
 30
0.0
 11
8450.853942919035
 21
1107.609523707815
 31
0.0
  0
LINE
  5
1F31D
330
747D
100
AcDbEntity
  8
細線
 48
50.0
100
AcDbLine
 10
8536.172768484634
 20
1083.609523707815
 30
0.0
 11
8529.741987866287
 21
1107.609523707815
 31
0.0
  0
LINE
  5
1F31E
330
747D
100
AcDbEntity
  8
細線
 48
50.0
100
AcDbLine
 10
8378.39667859013
 20
1083.609523707815
 30
0.0
 11
8371.965897971781
 21
1107.609523707815
 31
0.0
  0
LINE
  5
1F31F
330
747D
100
AcDbEntity
  8
細線
 48
50.0
100
AcDbLine
 10
8302.01125792303
 20
1092.949444673595
 30
0.0
 11
8305.939414261226
 21
1107.609523707815
 31
0.0
  0
LINE
  5
1F320
330
747D
100
AcDbEntity
  8
細線
 48
50.0
100
AcDbLine
 10
8435.848788142891
 20
1003.609523707815
 30
0.0
 11
8442.279568761239
 21
979.6095237078151
 31
0.0
  0
LINE
  5
1F321
330
747D
100
AcDbEntity
  8
細線
 48
50.0
100
AcDbLine
 10
8514.736833090145
 20
1003.609523707815
 30
0.0
 11
8521.16761370849
 21
979.6095237078151
 31
0.0
  0
LINE
  5
1F322
330
747D
100
AcDbEntity
  8
細線
 48
50.0
100
AcDbLine
 10
8356.96074319564
 20
1003.609523707815
 30
0.0
 11
8363.391523813987
 21
979.6095237078151
 31
0.0
  0
LINE
  5
1F323
330
747D
100
AcDbEntity
  8
細線
 48
50.0
100
AcDbLine
 10
8508.306052471791
 20
979.6095237078134
 30
0.0
 11
8542.603549102976
 21
1107.609523707813
 31
0.0
  0
LINE
  5
1F324
330
747D
100
AcDbEntity
  8
細線
 48
50.0
100
AcDbLine
 10
8350.529962577288
 20
979.6095237078134
 30
0.0
 11
8384.827459208471
 21
1107.609523707813
 31
0.0
  0
LINE
  5
1F325
330
747D
100
AcDbEntity
  8
部品1
 48
50.0
100
AcDbLine
 10
8302.011257923032
 20
979.6095237078151
 30
0.0
 11
8302.011257923032
 21
1107.609523707815
 31
0.0
  0
LINE
  5
1F326
330
747D
100
AcDbEntity
  8
細線
 48
50.0
100
AcDbLine
 10
8429.418007524546
 20
979.6095237078151
 30
0.0
 11
8463.715504155729
 21
1107.609523707815
 31
0.0
  0
LINE
  5
1F327
330
747D
100
AcDbEntity
  8
部品1
 48
50.0
100
AcDbLine
 10
8382.01125792303
 20
1107.609523707815
 30
0.0
 11
8382.01125792303
 21
1347.609523707815
 31
0.0
  0
LINE
  5
1F328
330
747D
100
AcDbEntity
  8
細線
 48
50.0
100
AcDbLine
 10
8382.011257923023
 20
1266.456269469986
 30
0.0
 11
8463.164512160858
 21
1347.609523707815
 31
0.0
  0
LINE
  5
1F329
330
747D
100
AcDbEntity
  8
部品1
 48
50.0
100
AcDbLine
 10
9132.011257923032
 20
979.6095237078151
 30
0.0
 11
8302.011257923032
 21
979.6095237078151
 31
0.0
  0
LINE
  5
1F32A
330
747D
100
AcDbEntity
  8
部品1
 48
50.0
100
AcDbLine
 10
9132.011257923032
 20
1107.609523707815
 30
0.0
 11
8302.011257923032
 21
1107.609523707815
 31
0.0
  0
LINE
  5
1F32B
330
747D
100
AcDbEntity
  8
細線
 48
50.0
100
AcDbLine
 10
8384.809122340103
 20
1107.609523707815
 30
0.0
 11
8924.011257923028
 21
1646.811659290741
 31
0.0
  0
LINE
  5
1F32C
330
747D
100
AcDbEntity
  8
細線
 48
50.0
100
AcDbLine
 10
8411.749890703314
 20
1107.609523707815
 30
0.0
 11
8924.011257923032
 21
1619.870890927529
 31
0.0
  0
LINE
  5
1F32D
330
747D
100
AcDbEntity
  8
細線
 48
50.0
100
AcDbLine
 10
8438.690659066519
 20
1107.609523707815
 30
0.0
 11
8924.011257923028
 21
1592.930122564323
 31
0.0
  0
LINE
  5
1F32E
330
747D
100
AcDbEntity
  8
細線
 48
50.0
100
AcDbLine
 10
8510.01125792303
 20
1448.337806196401
 30
0.0
 11
8668.411257923024
 21
1606.737806196396
 31
0.0
  0
LINE
  5
1F32F
330
747D
100
AcDbEntity
  8
細線
 48
50.0
100
AcDbLine
 10
8510.01125792303
 20
1394.456269469986
 30
0.0
 11
8683.164512160866
 21
1567.609523707813
 31
0.0
  0
LINE
  5
1F330
330
747D
100
AcDbEntity
  8
細線
 48
50.0
100
AcDbLine
 10
8510.01125792303
 20
1421.397037833193
 30
0.0
 11
8668.411257923024
 21
1579.797037833182
 31
0.0
  0
LINE
  5
1F331
330
747D
100
AcDbEntity
  8
部品1
100
AcDbLine
 10
8668.411257923024
 20
1567.609523707815
 30
0.0
 11
8668.411257923031
 21
1891.609523707815
 31
0.0
  0
LINE
  5
1F332
330
747D
100
AcDbEntity
  8
部品1
100
AcDbLine
 10
8794.411257923028
 20
1567.609523707815
 30
0.0
 11
8794.411257923028
 21
1891.609523707815
 31
0.0
  0
LINE
  5
1F333
330
747D
100
AcDbEntity
  8
細線
 48
50.0
100
AcDbLine
 10
8794.411257923032
 20
1705.797037833186
 30
0.0
 11
8924.011257923028
 21
1835.397037833183
 31
0.0
  0
LINE
  5
1F334
330
747D
100
AcDbEntity
  8
細線
 48
50.0
100
AcDbLine
 10
8794.411257923032
 20
1678.856269469974
 30
0.0
 11
8924.011257923028
 21
1808.456269469965
 31
0.0
  0
LINE
  5
1F335
330
747D
100
AcDbEntity
  8
部品1
100
AcDbLine
 10
8722.411257923029
 20
1666.609523707815
 30
0.0
 11
8722.411257923026
 21
1940.769523707816
 31
0.0
  0
LINE
  5
1F336
330
747D
100
AcDbEntity
  8
部品1
100
AcDbLine
 10
8740.41125792303
 20
1666.609523707815
 30
0.0
 11
8740.411257923026
 21
1940.769523707816
 31
0.0
  0
TEXT
  5
1F337
330
747D
100
AcDbEntity
  8
部品1
 48
50.0
100
AcDbText
 10
8095.871356090071
 20
1662.84851599107
 30
0.0
 40
80.0
  1
▽G.L
  7
STYLE2
100
AcDbText
  0
LINE
  5
1F338
330
747D
100
AcDbEntity
  8
細線
 48
50.0
100
AcDbLine
 10
8510.01125792303
 20
1609.982416375646
 30
0.0
 11
8668.411257923025
 21
1768.382416375638
 31
0.0
  0
LINE
  5
1F339
330
747D
100
AcDbEntity
  8
細線
 48
50.0
100
AcDbLine
 10
8510.01125792303
 20
1636.923184738853
 30
0.0
 11
8668.411257923027
 21
1795.32318473885
 31
0.0
  0
LINE
  5
1F33A
330
747D
100
AcDbEntity
  8
細線
 48
50.0
100
AcDbLine
 10
8510.01125792303
 20
1663.863953102061
 30
0.0
 11
8668.411257923027
 21
1822.263953102057
 31
0.0
  0
LINE
  5
1F33B
330
747D
100
AcDbEntity
  8
部品1
 48
50.0
100
AcDbLine
 10
8510.01125792303
 20
1347.609523707815
 30
0.0
 11
8510.01125792303
 21
1891.609523707815
 31
0.0
  0
LINE
  5
1F33C
330
747D
100
AcDbEntity
  8
部品1
100
AcDbLine
 10
8924.011257923028
 20
1347.609523707815
 30
0.0
 11
8924.011257923028
 21
1891.609523707815
 31
0.0
  0
LINE
  5
1F33D
330
747D
100
AcDbEntity
  8
細線
 48
50.0
100
AcDbLine
 10
8794.411257923032
 20
1732.737806196404
 30
0.0
 11
8924.011257923028
 21
1862.337806196402
 31
0.0
  0
LINE
  5
1F33E
330
747D
100
AcDbEntity
  8
細線
 48
50.0
100
AcDbLine
 10
6709.189063882168
 20
1772.356375604531
 30
0.0
 11
6792.696641379698
 21
1855.863953102061
 31
0.0
  0
LINE
  5
1F33F
330
747D
100
AcDbEntity
  8
細線
 48
50.0
100
AcDbLine
 10
6720.249348645684
 20
1756.475892004837
 30
0.0
 11
6792.696641379698
 21
1828.923184738853
 31
0.0
  0
LINE
  5
1F340
330
747D
100
AcDbEntity
  8
細線
 48
50.0
100
AcDbLine
 10
6600.696641379698
 20
1879.39010000772
 30
0.0
 11
6612.916065079793
 21
1891.609523707815
 31
0.0
  0
LINE
  5
1F341
330
747D
100
AcDbEntity
  8
細線
 48
50.0
100
AcDbLine
 10
6600.696641379698
 20
1825.508563281305
 30
0.0
 11
6666.797601806208
 21
1891.609523707815
 31
0.0
  0
LINE
  5
1F342
330
747D
100
AcDbEntity
  8
細線
 48
50.0
100
AcDbLine
 10
6600.696641379698
 20
1852.449331644513
 30
0.0
 11
6639.856833443002
 21
1891.609523707815
 31
0.0
  0
LINE
  5
1F343
330
747D
100
AcDbEntity
  8
部品1
 48
50.0
100
AcDbLine
 10
6600.696641379698
 20
1891.609523707815
 30
0.0
 11
6792.696641379698
 21
1891.609523707815
 31
0.0
  0
DIMENSION
  5
1F344
330
747D
100
AcDbEntity
  8
寸法
 48
50.0
100
AcDbDimension
  2
*D20
 10
6600.696641379697
 20
2211.609523707815
 30
0.0
 11
6699.162917879267
 21
2250.403247570452
 31
0.0
 70
   160
  1
120\P170
 71
     5
 42
192.0
  3
INABA_S40G
100
AcDbAlignedDimension
 13
6792.696641379698
 23
1891.609523707815
 33
0.0
 14
6600.696641379697
 24
1891.609523707815
 34
0.0
100
AcDbRotatedDimension
1001
ACAD
1000
DSTYLE
1002
{
1070
   174
1070
     0
1070
   272
1070
     1
1070
   279
1070
     1
1070
   288
1070
     0
1070
   341
1005
0
1002
}
  0
MTEXT
  5
1F345
102
{ACAD_REACTORS
330
1F39A
102
}
330
747D
100
AcDbEntity
  8
寸法
 62
     7
 48
50.0
100
AcDbMText
 10
7034.435097240948
 20
930.2604379756621
 30
0.0
 40
80.0
 41
0.8
 71
     4
 72
     1
  1
\A1;D10@300
  7
STYLE2
 73
     1
 44
1.0
1001
ACAD
1000
MTEXTBEGIN
1070
    73
1070
     1
1070
    44
1040
1.0
1070
    74
1070
     0
1000
MTEXTEND
  0
LINE
  5
1F346
330
747D
100
AcDbEntity
  8
細線
 48
50.0
100
AcDbLine
 10
6720.696641379703
 20
1541.397037833196
 30
0.0
 11
6792.69664137969
 21
1613.39703783319
 31
0.0
  0
LINE
  5
1F347
330
747D
100
AcDbEntity
  8
細線
 48
50.0
100
AcDbLine
 10
6720.696641379698
 20
1568.337806196401
 30
0.0
 11
6792.696641379698
 21
1640.337806196401
 31
0.0
  0
LINE
  5
1F348
330
747D
100
AcDbEntity
  8
細線
 48
50.0
100
AcDbLine
 10
6720.696641379703
 20
1298.930122564327
 30
0.0
 11
6792.69664137969
 21
1370.930122564327
 31
0.0
  0
LINE
  5
1F349
330
747D
100
AcDbEntity
  8
細線
 48
50.0
100
AcDbLine
 10
6720.696641379703
 20
1352.811659290744
 30
0.0
 11
6792.69664137969
 21
1424.811659290741
 31
0.0
  0
LINE
  5
1F34A
330
747D
100
AcDbEntity
  8
細線
 48
50.0
100
AcDbLine
 10
6720.696641379703
 20
1325.870890927536
 30
0.0
 11
6792.69664137969
 21
1397.870890927531
 31
0.0
  0
LINE
  5
1F34B
330
747D
100
AcDbEntity
  8
部品1
 48
50.0
100
AcDbLine
 10
6792.696641379698
 20
1347.609523707815
 30
0.0
 11
6920.696641379698
 21
1347.609523707815
 31
0.0
  0
LINE
  5
1F34C
330
747D
100
AcDbEntity
  8
細線
 48
50.0
100
AcDbLine
 10
6720.696641379703
 20
1514.456269469986
 30
0.0
 11
6792.69664137969
 21
1586.456269469986
 31
0.0
  0
LINE
  5
1F34D
330
747D
100
AcDbEntity
  8
部品1
 48
50.0
100
AcDbLine
 10
6688.696641379698
 20
1693.736738404937
 30
0.0
 11
6688.696641379698
 21
1751.863953102061
 31
0.0
  0
LINE
  5
1F34E
330
747D
100
AcDbEntity
  8
細線
 48
50.0
100
AcDbLine
 10
6600.696641379698
 20
1663.863953102061
 30
0.0
 11
6672.696641379698
 21
1735.86395310206
 31
0.0
  0
LINE
  5
1F34F
330
747D
100
AcDbEntity
  8
部品1
 48
50.0
100
AcDbLine
 10
6672.696641379698
 20
1693.736738404941
 30
0.0
 11
6672.696641379698
 21
1751.863953102061
 31
0.0
  0
LINE
  5
1F350
330
747D
100
AcDbEntity
  8
細線
 48
50.0
100
AcDbLine
 10
6600.696641379698
 20
1636.923184738853
 30
0.0
 11
6672.696641379698
 21
1708.923184738853
 31
0.0
  0
LINE
  5
1F351
330
747D
100
AcDbEntity
  8
細線
 48
50.0
100
AcDbLine
 10
6600.696641379698
 20
1609.982416375646
 30
0.0
 11
6684.450963408991
 21
1693.736738404937
 31
0.0
  0
LINE
  5
1F352
330
747D
100
AcDbEntity
  8
部品1
 48
50.0
100
AcDbLine
 10
6688.696641379698
 20
1693.736738404937
 30
0.0
 11
6672.696641379698
 21
1693.736738404941
 31
0.0
  0
LINE
  5
1F353
330
747D
100
AcDbEntity
  8
細線
 48
50.0
100
AcDbLine
 10
6472.696641379691
 20
1320.337806196401
 30
0.0
 11
6499.968358891113
 21
1347.609523707815
 31
0.0
  0
LINE
  5
1F354
330
747D
100
AcDbEntity
  8
細線
 48
50.0
100
AcDbLine
 10
6472.696641379691
 20
1293.39703783319
 30
0.0
 11
6526.909127254324
 21
1347.609523707815
 31
0.0
  0
LINE
  5
1F355
330
747D
100
AcDbEntity
  8
部品1
 48
50.0
100
AcDbLine
 10
6472.696641379698
 20
1347.609523707815
 30
0.0
 11
6600.696641379698
 21
1347.609523707815
 31
0.0
  0
LINE
  5
1F356
330
747D
100
AcDbEntity
  8
細線
 48
50.0
100
AcDbLine
 10
6688.696641379698
 20
1724.923184738853
 30
0.0
 11
6704.696641379698
 21
1740.923184738853
 31
0.0
  0
LINE
  5
1F357
330
747D
100
AcDbEntity
  8
細線
 48
50.0
100
AcDbLine
 10
6688.696641379698
 20
1697.982416375646
 30
0.0
 11
6704.696641379698
 21
1713.982416375646
 31
0.0
  0
LINE
  5
1F358
330
747D
100
AcDbEntity
  8
細線
 48
50.0
100
AcDbLine
 10
6600.696641379698
 20
1394.456269469986
 30
0.0
 11
6704.696641379704
 21
1498.456269469986
 31
0.0
  0
LINE
  5
1F359
330
747D
100
AcDbEntity
  8
細線
 48
50.0
100
AcDbLine
 10
6600.696641379698
 20
1448.337806196401
 30
0.0
 11
6704.696641379698
 21
1552.337806196401
 31
0.0
  0
LINE
  5
1F35A
330
747D
100
AcDbEntity
  8
細線
 48
50.0
100
AcDbLine
 10
6600.696641379698
 20
1421.397037833193
 30
0.0
 11
6704.696641379704
 21
1525.397037833196
 31
0.0
  0
LINE
  5
1F35B
330
747D
100
AcDbEntity
  8
細線
 48
50.0
100
AcDbLine
 10
6863.522286783044
 20
1083.609523707815
 30
0.0
 11
6857.091506164699
 21
1107.609523707815
 31
0.0
  0
LINE
  5
1F35C
330
747D
100
AcDbEntity
  8
細線
 48
50.0
100
AcDbLine
 10
6906.546799608091
 20
1107.609523707815
 30
0.0
 11
6920.696641379698
 21
1121.759365479422
 31
0.0
  0
LINE
  5
1F35D
330
747D
100
AcDbEntity
  8
細線
 48
50.0
100
AcDbLine
 10
6942.410331730292
 20
1083.609523707815
 30
0.0
 11
6935.979551111945
 21
1107.609523707815
 31
0.0
  0
LINE
  5
1F35E
330
747D
100
AcDbEntity
  8
部品1
 48
50.0
100
AcDbLine
 10
6864.696641379699
 20
1219.609523707815
 30
0.0
 11
6864.696641379699
 21
1203.609523707815
 31
0.0
  0
LINE
  5
1F35F
330
747D
100
AcDbEntity
  8
細線
 48
50.0
100
AcDbLine
 10
6744.902189428845
 20
1107.609523707815
 30
0.0
 11
6840.903077273982
 21
1203.610411552954
 31
0.0
  0
LINE
  5
1F360
330
747D
100
AcDbEntity
  8
細線
 48
50.0
100
AcDbLine
 10
6717.961421065642
 20
1107.609523707815
 30
0.0
 11
6813.961421065641
 21
1203.609523707815
 31
0.0
  0
LINE
  5
1F361
330
747D
100
AcDbEntity
  8
細線
 48
50.0
100
AcDbLine
 10
6784.6342418358
 20
1083.609523707815
 30
0.0
 11
6778.203461217454
 21
1107.609523707815
 31
0.0
  0
LINE
  5
1F362
330
747D
100
AcDbEntity
  8
細線
 48
50.0
100
AcDbLine
 10
6705.746196888554
 20
1083.609523707815
 30
0.0
 11
6699.315416270207
 21
1107.609523707815
 31
0.0
  0
ARC
  5
1F363
330
747D
100
AcDbEntity
  8
部品1
 48
50.0
100
AcDbCircle
 10
6696.696641379698
 20
1227.609523707815
 30
0.0
 40
24.0
100
AcDbArc
 50
340.5287793655042
 51
0.0
  0
CIRCLE
  5
1F364
330
747D
100
AcDbEntity
  8
部品1
 48
50.0
100
AcDbCircle
 10
6824.696641379699
 20
1227.609523707815
 30
0.0
 40
8.0
  0
LINE
  5
1F365
330
747D
100
AcDbEntity
  8
細線
 48
50.0
100
AcDbLine
 10
6856.902189428845
 20
1219.609523707815
 30
0.0
 11
6920.696641379698
 21
1283.403975658666
 31
0.0
  0
LINE
  5
1F366
330
747D
100
AcDbEntity
  8
細線
 48
50.0
100
AcDbLine
 10
6993.431660664701
 20
979.6095237078134
 30
0.0
 11
7000.696641379699
 21
1006.722800852203
 31
0.0
  0
LINE
  5
1F367
330
747D
100
AcDbEntity
  8
細線
 48
50.0
100
AcDbLine
 10
6999.862441283051
 20
1003.609523707815
 30
0.0
 11
7000.696641379699
 21
1000.496246563451
 31
0.0
  0
LINE
  5
1F368
330
747D
100
AcDbEntity
  8
細線
 48
50.0
100
AcDbLine
 10
6920.974396335804
 20
1003.609523707815
 30
0.0
 11
6927.405176954152
 21
979.6095237078151
 31
0.0
  0
LINE
  5
1F369
330
747D
100
AcDbEntity
  8
細線
 48
50.0
100
AcDbLine
 10
6763.19830644131
 20
1003.609523707815
 30
0.0
 11
6769.629087059657
 21
979.6095237078151
 31
0.0
  0
LINE
  5
1F36A
330
747D
100
AcDbEntity
  8
細線
 48
50.0
100
AcDbLine
 10
6842.086351388556
 20
1003.609523707815
 30
0.0
 11
6848.517132006904
 21
979.6095237078151
 31
0.0
  0
LINE
  5
1F36B
330
747D
100
AcDbEntity
  8
細線
 48
50.0
100
AcDbLine
 10
6835.655570770207
 20
979.6095237078134
 30
0.0
 11
6869.953067401391
 21
1107.609523707813
 31
0.0
  0
LINE
  5
1F36C
330
747D
100
AcDbEntity
  8
細線
 48
50.0
100
AcDbLine
 10
6756.767525822957
 20
979.6095237078151
 30
0.0
 11
6791.065022454144
 21
1107.609523707813
 31
0.0
  0
LINE
  5
1F36D
330
747D
100
AcDbEntity
  8
細線
 48
50.0
100
AcDbLine
 10
6914.543615717452
 20
979.6095237078151
 30
0.0
 11
6948.841112348637
 21
1107.609523707813
 31
0.0
  0
LINE
  5
1F36E
330
747D
100
AcDbEntity
  8
部品1
 48
50.0
100
AcDbLine
 10
7000.696641379701
 20
1107.609523707815
 30
0.0
 11
7000.696641379701
 21
979.6095237078151
 31
0.0
  0
LINE
  5
1F36F
330
747D
100
AcDbEntity
  8
部品1
 48
50.0
100
AcDbLine
 10
6688.696641379698
 20
1285.736738404937
 30
0.0
 11
6688.696641379698
 21
1227.609523707815
 31
0.0
  0
LINE
  5
1F370
330
747D
100
AcDbEntity
  8
細線
 48
50.0
100
AcDbLine
 10
6614.435274159982
 20
1219.609523707815
 30
0.0
 11
6672.696641379698
 21
1277.870890927534
 31
0.0
  0
LINE
  5
1F371
330
747D
100
AcDbEntity
  8
部品1
 48
50.0
100
AcDbLine
 10
6672.696641379698
 20
1285.736738404937
 30
0.0
 11
6672.696641379698
 21
1227.609523707815
 31
0.0
  0
LINE
  5
1F372
330
747D
100
AcDbEntity
  8
細線
 48
50.0
100
AcDbLine
 10
6529.376042523186
 20
1107.609523707815
 30
0.0
 11
6625.376042523187
 21
1203.609523707815
 31
0.0
  0
LINE
  5
1F373
330
747D
100
AcDbEntity
  8
細線
 48
50.0
100
AcDbLine
 10
6626.858151941302
 20
1083.609523707815
 30
0.0
 11
6620.427371322955
 21
1107.609523707815
 31
0.0
  0
LINE
  5
1F374
330
747D
100
AcDbEntity
  8
細線
 48
50.0
100
AcDbLine
 10
6547.970106994049
 20
1083.609523707815
 30
0.0
 11
6541.539326375704
 21
1107.609523707815
 31
0.0
  0
ARC
  5
1F375
330
747D
100
AcDbEntity
  8
部品1
 48
50.0
100
AcDbCircle
 10
6696.696641379698
 20
1227.609523707815
 30
0.0
 40
24.0
100
AcDbArc
 50
180.0
 51
199.4712206344958
  0
LINE
  5
1F376
330
747D
100
AcDbEntity
  8
細線
 48
50.0
100
AcDbLine
 10
6641.376042523187
 20
1219.609523707815
 30
0.0
 11
6672.696641379698
 21
1250.930122564327
 31
0.0
  0
CIRCLE
  5
1F377
330
747D
100
AcDbEntity
  8
部品1
 48
50.0
100
AcDbCircle
 10
6568.696641379698
 20
1227.609523707815
 30
0.0
 40
8.0
  0
LINE
  5
1F378
330
747D
100
AcDbEntity
  8
部品1
 48
50.0
100
AcDbLine
 10
6688.696641379698
 20
1285.736738404937
 30
0.0
 11
6672.696641379698
 21
1285.736738404937
 31
0.0
  0
LINE
  5
1F379
330
747D
100
AcDbEntity
  8
細線
 48
50.0
100
AcDbLine
 10
6392.696641379698
 20
1092.949444673595
 30
0.0
 11
6396.624797717894
 21
1107.609523707815
 31
0.0
  0
LINE
  5
1F37A
330
747D
100
AcDbEntity
  8
細線
 48
50.0
100
AcDbLine
 10
6469.082062046799
 20
1083.609523707815
 30
0.0
 11
6462.651281428451
 21
1107.609523707815
 31
0.0
  0
LINE
  5
1F37B
330
747D
100
AcDbEntity
  8
部品1
 48
50.0
100
AcDbLine
 10
6528.696641379699
 20
1219.609523707815
 30
0.0
 11
6528.696641379699
 21
1203.609523707815
 31
0.0
  0
LINE
  5
1F37C
330
747D
100
AcDbEntity
  8
細線
 48
50.0
100
AcDbLine
 10
6475.49450579677
 20
1107.609523707815
 30
0.0
 11
6571.494505796771
 21
1203.609523707815
 31
0.0
  0
LINE
  5
1F37D
330
747D
100
AcDbEntity
  8
細線
 48
50.0
100
AcDbLine
 10
6502.435274159982
 20
1107.609523707815
 30
0.0
 11
6598.435274159982
 21
1203.609523707815
 31
0.0
  0
LINE
  5
1F37E
330
747D
100
AcDbEntity
  8
細線
 48
50.0
100
AcDbLine
 10
6605.422216546813
 20
1003.609523707815
 30
0.0
 11
6611.852997165158
 21
979.6095237078151
 31
0.0
  0
LINE
  5
1F37F
330
747D
100
AcDbEntity
  8
細線
 48
50.0
100
AcDbLine
 10
6684.310261494065
 20
1003.609523707815
 30
0.0
 11
6690.741042112411
 21
979.6095237078151
 31
0.0
  0
LINE
  5
1F380
330
747D
100
AcDbEntity
  8
細線
 48
50.0
100
AcDbLine
 10
6447.646126652308
 20
1003.609523707815
 30
0.0
 11
6454.076907270655
 21
979.6095237078151
 31
0.0
  0
LINE
  5
1F381
330
747D
100
AcDbEntity
  8
細線
 48
50.0
100
AcDbLine
 10
6526.534171599561
 20
1003.609523707815
 30
0.0
 11
6532.964952217908
 21
979.6095237078151
 31
0.0
  0
LINE
  5
1F382
330
747D
100
AcDbEntity
  8
部品1
 48
50.0
100
AcDbLine
 10
6392.6966413797
 20
979.6095237078151
 30
0.0
 11
6392.6966413797
 21
1107.609523707815
 31
0.0
  0
LINE
  5
1F383
330
747D
100
AcDbEntity
  8
細線
 48
50.0
100
AcDbLine
 10
6441.215346033956
 20
979.6095237078134
 30
0.0
 11
6475.512842665139
 21
1107.609523707813
 31
0.0
  0
LINE
  5
1F384
330
747D
100
AcDbEntity
  8
細線
 48
50.0
100
AcDbLine
 10
6598.99143592846
 20
979.6095237078134
 30
0.0
 11
6633.288932559643
 21
1107.609523707813
 31
0.0
  0
LINE
  5
1F385
330
747D
100
AcDbEntity
  8
細線
 48
50.0
100
AcDbLine
 10
6520.103390981214
 20
979.6095237078151
 30
0.0
 11
6554.400887612397
 21
1107.609523707815
 31
0.0
  0
LINE
  5
1F386
330
747D
100
AcDbEntity
  8
細線
 48
50.0
100
AcDbLine
 10
6691.020652702431
 20
1107.609523707815
 30
0.0
 11
6787.02065270243
 21
1203.609523707815
 31
0.0
  0
CIRCLE
  5
1F387
330
747D
100
AcDbEntity
  8
部品1
 48
50.0
100
AcDbCircle
 10
6696.696641379698
 20
1227.609523707815
 30
0.0
 40
8.0
  0
LINE
  5
1F388
330
747D
100
AcDbEntity
  8
部品1
 48
50.0
100
AcDbLine
 10
7000.696641379701
 20
1107.609523707815
 30
0.0
 11
6392.6966413797
 21
1107.609523707815
 31
0.0
  0
LINE
  5
1F389
330
747D
100
AcDbEntity
  8
部品1
 48
50.0
100
AcDbLine
 10
6528.696641379699
 20
1219.609523707815
 30
0.0
 11
6864.696641379699
 21
1219.609523707815
 31
0.0
  0
LINE
  5
1F38A
330
747D
100
AcDbEntity
  8
部品1
 48
50.0
100
AcDbLine
 10
6528.696641379699
 20
1203.609523707815
 30
0.0
 11
6864.696641379699
 21
1203.609523707815
 31
0.0
  0
LINE
  5
1F38B
330
747D
100
AcDbEntity
  8
部品1
 48
50.0
100
AcDbLine
 10
7000.696641379701
 20
979.6095237078151
 30
0.0
 11
6392.6966413797
 21
979.6095237078151
 31
0.0
  0
LINE
  5
1F38C
330
747D
100
AcDbEntity
  8
細線
 48
50.0
100
AcDbLine
 10
6677.879480875713
 20
979.6095237078151
 30
0.0
 11
6712.176977506896
 21
1107.609523707815
 31
0.0
  0
LINE
  5
1F38D
330
747D
100
AcDbEntity
  8
細線
 48
50.0
100
AcDbLine
 10
6688.696641379698
 20
1266.930122564327
 30
0.0
 11
6704.696641379704
 21
1282.930122564327
 31
0.0
  0
LINE
  5
1F38E
330
747D
100
AcDbEntity
  8
部品1
 48
50.0
100
AcDbLine
 10
6704.696641379704
 20
1227.609523707815
 30
0.0
 11
6704.69664137969
 21
1751.863953102061
 31
0.0
  0
LINE
  5
1F38F
330
747D
100
AcDbEntity
  8
部品1
 48
50.0
100
AcDbLine
 10
6720.696641379703
 20
1227.609523707815
 30
0.0
 11
6720.696641379698
 21
1751.863953102061
 31
0.0
  0
LINE
  5
1F390
330
747D
100
AcDbEntity
  8
部品1
 48
50.0
100
AcDbLine
 10
6920.696641379698
 20
1347.609523707815
 30
0.0
 11
6920.696641379698
 21
1107.609523707815
 31
0.0
  0
LINE
  5
1F391
330
747D
100
AcDbEntity
  8
細線
 48
50.0
100
AcDbLine
 10
6803.020652702426
 20
1219.609523707815
 30
0.0
 11
6920.696641379698
 21
1337.285512385081
 31
0.0
  0
LINE
  5
1F392
330
747D
100
AcDbEntity
  8
細線
 48
50.0
100
AcDbLine
 10
6829.961421065641
 20
1219.609523707815
 30
0.0
 11
6920.696641379698
 21
1310.344744021874
 31
0.0
  0
LINE
  5
1F393
330
747D
100
AcDbEntity
  8
部品1
 48
50.0
100
AcDbLine
 10
6472.696641379698
 20
1107.609523707815
 30
0.0
 11
6472.696641379698
 21
1347.609523707815
 31
0.0
  0
LINE
  5
1F394
330
747D
100
AcDbEntity
  8
細線
 48
50.0
100
AcDbLine
 10
6587.494505796771
 20
1219.609523707815
 30
0.0
 11
6704.696641379698
 21
1336.811659290741
 31
0.0
  0
LINE
  5
1F395
330
747D
100
AcDbEntity
  8
細線
 48
50.0
100
AcDbLine
 10
6680.562488857102
 20
1285.736738404937
 30
0.0
 11
6704.696641379704
 21
1309.870890927536
 31
0.0
  0
LINE
  5
1F396
330
747D
100
AcDbEntity
  8
細線
 48
50.0
100
AcDbLine
 10
6472.696641379691
 20
1266.456269469986
 30
0.0
 11
6553.849895617526
 21
1347.609523707815
 31
0.0
  0
LEADER
  5
1F397
330
747D
100
AcDbEntity
  8
寸法
 48
50.0
100
AcDbLeader
  3
INABA_S40G
 71
     0
 73
     0
 74
     0
 75
     1
 40
100.0
 41
222.7272727272727
 76
     3
 10
6696.696641379697
 20
1751.863953102061
 30
0.0
 10
6755.582578407092
 20
1692.877085006743
 30
0.0
 10
6855.582578407092
 20
1692.877085006743
 30
0.0
1001
ACAD
1000
DSTYLE
1002
{
1070
   174
1070
     0
1070
   272
1070
     1
1070
   279
1070
     1
1070
   288
1070
     0
1070
   341
1005
0
1002
}
  0
LWPOLYLINE
  5
1F398
330
747D
100
AcDbEntity
  8
部品1
 48
50.0
100
AcDbPolyline
 90
        2
 70
     0
 43
8.0
 10
6792.696641379698
 20
1651.609523707816
 10
7206.836543212656
 20
1651.609523707816
  0
MTEXT
  5
1F399
102
{ACAD_REACTORS
330
1F39B
102
}
330
747D
100
AcDbEntity
  8
寸法
 62
     7
 48
50.0
100
AcDbMText
 10
7024.024301186383
 20
1192.212454764843
 30
0.0
 40
80.0
 41
0.8
 71
     4
 72
     1
  1
D10
  7
STYLE2
 73
     1
 44
1.0
1001
ACAD
1000
MTEXTBEGIN
1070
    73
1070
     1
1070
    44
1040
1.0
1070
    74
1070
     0
1000
MTEXTEND
  0
LEADER
  5
1F39A
330
747D
100
AcDbEntity
  8
寸法
 48
50.0
100
AcDbLeader
  3
INABA_S40G
 71
     0
 73
     0
 74
     0
 75
     1
 40
100.0
 41
540.3409090909091
 76
     3
 10
6770.641810392871
 20
1210.86899329429
 30
0.0
 10
6914.435097240948
 20
869.2381752993924
 30
0.0
 10
7014.435097240948
 20
869.2381752993924
 30
0.0
213
0.0
223
-1.022262676269383
233
0.0
1001
ACAD
1000
DSTYLE
1002
{
1070
   174
1070
     0
1070
   272
1070
     1
1070
   279
1070
     1
1070
   288
1070
     0
1070
   341
1005
0
1002
}
  0
LEADER
  5
1F39B
330
747D
100
AcDbEntity
  8
寸法
 48
50.0
100
AcDbLeader
  3
INABA_S40G
 71
     0
 73
     0
 74
     0
 75
     1
 40
100.0
 41
225.0
 76
     3
 10
6824.599593731839
 20
1227.609523707815
 30
0.0
 10
6904.024301186382
 20
1132.212454764842
 30
0.0
 10
7004.024301186382
 20
1132.212454764842
 30
0.0
1001
ACAD
1000
DSTYLE
1002
{
1070
   174
1070
     0
1070
   272
1070
     1
1070
   279
1070
     1
1070
   288
1070
     0
1070
   341
1005
0
1002
}
  0
MTEXT
  5
1F39C
102
{ACAD_REACTORS
330
1F397
102
}
330
747D
100
AcDbEntity
  8
寸法
 62
     7
 48
50.0
100
AcDbMText
 10
6875.582578407092
 20
1752.877085006743
 30
0.0
 40
80.0
 41
0.8
 71
     4
 72
     1
  1
D13
  7
STYLE2
 73
     1
 44
1.0
1001
ACAD
1000
MTEXTBEGIN
1070
    73
1070
     1
1070
    44
1040
1.0
1070
    74
1070
     0
1000
MTEXTEND
  0
LINE
  5
1F39D
330
747D
100
AcDbEntity
  8
部品1
 48
50.0
100
AcDbLine
 10
6792.696641379698
 20
1891.609523707815
 30
0.0
 11
6792.696641379698
 21
1347.609523707815
 31
0.0
  0
LINE
  5
1F39E
330
747D
100
AcDbEntity
  8
部品1
 48
50.0
100
AcDbLine
 10
6600.696641379698
 20
1347.609523707815
 30
0.0
 11
6600.696641379698
 21
1891.609523707815
 31
0.0
  0
CIRCLE
  5
1F39F
330
747D
100
AcDbEntity
  8
部品1
 48
50.0
100
AcDbCircle
 10
6696.696641379698
 20
1751.863953102061
 30
0.0
 40
8.0
  0
ARC
  5
1F3A0
330
747D
100
AcDbEntity
  8
部品1
 48
50.0
100
AcDbCircle
 10
6696.696641379698
 20
1751.863953102061
 30
0.0
 40
24.0
100
AcDbArc
 50
0.0
 51
180.0
  0
LINE
  5
1F3A1
330
747D
100
AcDbEntity
  8
細線
 48
50.0
100
AcDbLine
 10
6720.696641379698
 20
1729.982416375646
 30
0.0
 11
6792.696641379698
 21
1801.982416375645
 31
0.0
  0
LEADER
  5
1F3A2
330
747D
100
AcDbEntity
  8
寸法
 48
50.0
100
AcDbLeader
  3
INABA_S40G
 73
     0
 75
     1
 40
106.3636363636363
 41
903.5235024184547
 76
     3
 10
8641.411257923028
 20
1961.169523707816
 30
0.0
 10
8582.98718557809
 20
2320.229098424149
 30
0.0
 10
8482.987185578091
 20
2320.229098424149
 30
0.0
1001
ACAD
1000
DSTYLE
1002
{
1070
   174
1070
     0
1070
   272
1070
     1
1070
   279
1070
     1
1070
   288
1070
     0
1070
   341
1005
0
1002
}
  0
MTEXT
  5
1F3A3
102
{ACAD_REACTORS
330
1F3A2
102
}
330
747D
100
AcDbEntity
  8
寸法
 62
     7
 48
50.0
100
AcDbMText
 10
8442.987185578092
 20
2413.410916605967
 30
0.0
 40
80.0
 41
0.8
 71
     6
 72
     1
  1
アンカープレート {\fArial|b0|i0|c0|p32;U}
  7
STYLE2
 73
     1
 44
1.0
1001
ACAD
1000
MTEXTBEGIN
1070
    73
1070
     1
1070
    44
1040
1.0
1070
    74
1070
     0
1000
MTEXTEND
  0
DIMENSION
  5
1F3A4
330
747D
100
AcDbEntity
  8
寸法
 48
50.0
100
AcDbDimension
  2
*D21
 10
6920.696641379698
 20
569.1798857026551
 30
0.0
 11
6676.599882701474
 21
569.1798857026551
 31
0.0
 70
   160
  1
300
 71
     5
 42
448.0
  3
INABA_S40G
100
AcDbAlignedDimension
 13
6472.696641379697
 23
979.6095237078151
 33
0.0
 14
6920.696641379698
 24
979.6095237078151
 34
0.0
100
AcDbRotatedDimension
1001
ACAD
1000
DSTYLE
1002
{
1070
   174
1070
     0
1070
   272
1070
     1
1070
   279
1070
     1
1070
   288
1070
     0
1070
   341
1005
0
1002
}
  0
MTEXT
  5
1F3A5
102
{ACAD_REACTORS
330
1F3AD
102
}
330
747D
100
AcDbEntity
  8
寸法
 62
     7
 48
50.0
100
AcDbMText
 10
6301.761615184503
 20
1024.086830089379
 30
0.0
 40
80.0
 41
0.8
 71
     6
 72
     1
  1
D10
  7
STYLE2
 73
     1
 44
1.0
1001
ACAD
1000
MTEXTBEGIN
1070
    73
1070
     1
1070
    44
1040
1.0
1070
    74
1070
     0
1000
MTEXTEND
  0
MTEXT
  5
1F3A6
102
{ACAD_REACTORS
330
1F3AC
102
}
330
747D
100
AcDbEntity
  8
寸法
 62
     7
 48
50.0
100
AcDbMText
 10
6329.884342741937
 20
843.7706775499355
 30
0.0
 40
80.0
 41
0.8
 71
     6
 72
     1
  1
D13
  7
STYLE2
 73
     1
 44
1.0
1001
ACAD
1000
MTEXTBEGIN
1070
    73
1070
     1
1070
    44
1040
1.0
1070
    74
1070
     0
1000
MTEXTEND
  0
DIMENSION
  5
1F3A7
330
747D
100
AcDbEntity
  8
寸法
 48
50.0
100
AcDbDimension
  2
*D22
 10
5865.659402817957
 20
1107.609523707815
 30
0.0
 11
5865.659402817957
 21
1479.149673363816
 31
0.0
 70
   160
  1
540
 71
     5
 42
784.0
  3
INABA_S40G
100
AcDbAlignedDimension
 13
6600.696641379697
 23
1891.609523707815
 33
0.0
 14
6392.696641379701
 24
1107.609523707815
 34
0.0
 50
90.0
100
AcDbRotatedDimension
1001
ACAD
1000
DSTYLE
1002
{
1070
   174
1070
     0
1070
   272
1070
     1
1070
   279
1070
     1
1070
   288
1070
     0
1070
   341
1005
0
1002
}
  0
MTEXT
  5
1F3A8
102
{ACAD_REACTORS
330
1F3A9
102
}
330
747D
100
AcDbEntity
  8
寸法
 62
     7
 48
50.0
100
AcDbMText
 10
6380.598161896425
 20
2104.125743709857
 30
0.0
 40
80.0
 41
0.8
 71
     6
 72
     1
  1
\A1;金コテ押エ
  7
STYLE2
 73
     1
 44
1.0
1001
ACAD
1000
MTEXTBEGIN
1070
    73
1070
     1
1070
    44
1040
1.0
1070
    74
1070
     0
1000
MTEXTEND
  0
LEADER
  5
1F3A9
330
747D
100
AcDbEntity
  8
寸法
 48
50.0
100
AcDbLeader
  3
INABA_S40G
 71
     0
 73
     0
 75
     1
 40
130.1136363636363
 41
651.1363636363636
 76
     3
 10
6680.696641379697
 20
1891.609523707815
 30
0.0
 10
6543.272061215681
 20
2032.080289164404
 30
0.0
 10
6443.272061215681
 20
2032.080289164404
 30
0.0
1001
ACAD
1000
DSTYLE
1002
{
1070
   174
1070
     0
1070
   272
1070
     1
1070
   279
1070
     1
1070
   288
1070
     0
1070
   341
1005
0
1002
}
  0
LEADER
  5
1F3AA
330
747D
100
AcDbEntity
  8
寸法
 48
50.0
100
AcDbLeader
  3
INABA_S40G
 71
     0
 73
     0
 75
     1
 40
100.0
 41
540.3409090909091
 76
     3
 10
6704.696641379698
 20
1649.736738404939
 30
0.0
 10
6621.714404850999
 20
1428.266409864133
 30
0.0
 10
6521.714404851
 20
1428.266409864133
 30
0.0
213
-9.732182305893367
223
-4.643716661138569
233
0.0
1001
ACAD
1000
DSTYLE
1002
{
1070
   174
1070
     0
1070
   272
1070
     1
1070
   279
1070
     1
1070
   288
1070
     0
1070
   341
1005
0
1002
}
  0
MTEXT
  5
1F3AB
102
{ACAD_REACTORS
330
1F3AA
102
}
330
747D
100
AcDbEntity
  8
寸法
 62
     7
 48
50.0
100
AcDbMText
 10
6511.446587156893
 20
1492.910126525272
 30
0.0
 40
80.0
 41
0.8
 71
     6
 72
     1
  1
\A1;D10@300
  7
STYLE2
 73
     1
 44
1.0
1001
ACAD
1000
MTEXTBEGIN
1070
    73
1070
     1
1070
    44
1040
1.0
1070
    74
1070
     0
1000
MTEXTEND
  0
LEADER
  5
1F3AC
330
747D
100
AcDbEntity
  8
寸法
 48
50.0
100
AcDbLeader
  3
INABA_S40G
 71
     0
 73
     0
 75
     1
 40
100.0
 41
222.7272727272727
 76
     3
 10
6696.696641379697
 20
1227.609523707815
 30
0.0
 10
6449.884342741937
 20
783.7706775499355
 30
0.0
 10
6349.884342741938
 20
783.7706775499355
 30
0.0
1001
ACAD
1000
DSTYLE
1002
{
1070
   174
1070
     0
1070
   272
1070
     1
1070
   279
1070
     1
1070
   288
1070
     0
1070
   341
1005
0
1002
}
  0
LEADER
  5
1F3AD
330
747D
100
AcDbEntity
  8
寸法
 48
50.0
100
AcDbLeader
  3
INABA_S40G
 71
     0
 73
     0
 75
     1
 40
100.0
 41
225.0
 76
     3
 10
6568.599593731841
 20
1227.609523707815
 30
0.0
 10
6421.761615184504
 20
964.0868300893789
 30
0.0
 10
6321.761615184503
 20
964.0868300893789
 30
0.0
1001
ACAD
1000
DSTYLE
1002
{
1070
   174
1070
     0
1070
   272
1070
     1
1070
   279
1070
     1
1070
   288
1070
     0
1070
   341
1005
0
1002
}
  0
DIMENSION
  5
1F3AE
330
747D
100
AcDbEntity
  8
寸法
 48
50.0
100
AcDbDimension
  2
*D23
 10
6330.276327647238
 20
1107.609523707815
 30
0.0
 11
6330.276327647238
 21
1227.609523707815
 31
0.0
 70
   160
  1
150
 71
     5
 42
240.0
  3
INABA_S40G
100
AcDbAlignedDimension
 13
6472.696641379697
 23
1347.609523707815
 33
0.0
 14
6392.696641379701
 24
1107.609523707815
 34
0.0
 50
90.0
100
AcDbRotatedDimension
1001
ACAD
1000
DSTYLE
1002
{
1070
   174
1070
     0
1070
   272
1070
     1
1070
   279
1070
     1
1070
   288
1070
     0
1070
   341
1005
0
1002
}
  0
TEXT
  5
1F3AF
330
747D
100
AcDbEntity
  8
部品1
 48
50.0
100
AcDbText
 10
6186.556739546741
 20
1662.84851599107
 30
0.0
 40
80.0
  1
▽G.L
  7
STYLE2
100
AcDbText
  0
LWPOLYLINE
  5
1F3B0
330
747D
100
AcDbEntity
  8
部品1
 48
50.0
100
AcDbPolyline
 90
        2
 70
     0
 43
8.0
 10
6186.556739546741
 20
1651.609523707816
 10
6600.696641379697
 20
1651.609523707816
  0
MTEXT
  5
1F3B1
102
{ACAD_REACTORS
330
1F3B2
102
}
330
747D
100
AcDbEntity
  8
寸法
 62
     7
 48
50.0
100
AcDbMText
 10
8416.344179369732
 20
2774.095188513481
 30
0.0
 40
80.0
 41
0.8
 71
     6
 72
     1
  1
\A1;φ70スリーブ
  7
STYLE2
 73
     1
 44
1.0
1001
ACAD
1000
MTEXTBEGIN
1070
    73
1070
     1
1070
    44
1040
1.0
1070
    74
1070
     0
1000
MTEXTEND
  0
LEADER
  5
1F3B2
330
747D
100
AcDbEntity
  8
寸法
 48
50.0
100
AcDbLeader
  3
INABA_S40G
 73
     0
 75
     1
 40
113.1818181818182
 41
608.6363636363635
 76
     3
 10
8700.148008061079
 20
1841.125197066094
 30
0.0
 10
8556.34417936973
 20
2677.504279422572
 30
0.0
 10
8456.344179369731
 20
2677.504279422572
 30
0.0
1001
ACAD
1000
DSTYLE
1002
{
1070
   174
1070
     0
1070
   272
1070
     1
1070
   279
1070
     1
1070
   288
1070
     0
1070
   341
1005
0
1002
}
  0
LINE
  5
1F3B3
330
747D
100
AcDbEntity
  8
部品1
100
AcDbLine
 10
5530.028202570434
 20
3212.581143484661
 30
0.0
 11
5530.028202570435
 21
356.426698543527
 31
0.0
  0
LEADER
  5
1F3B4
330
747D
100
AcDbEntity
  8
寸法
 48
50.0
100
AcDbLeader
  3
INABA_S40G
 73
     0
 74
     0
 75
     1
 40
80.0
 41
435.0
 76
     3
 10
8740.411257923026
 20
1940.769523707816
 30
0.0
 10
8792.955720342348
 20
2075.992849861045
 30
0.0
 10
8892.955720342348
 20
2075.992849861045
 30
0.0
1001
ACAD
1000
DSTYLE
1002
{
1070
   174
1070
     0
1070
   272
1070
     1
1070
   279
1070
     1
1070
   288
1070
     0
1070
   341
1005
0
1002
}
  0
MTEXT
  5
1F3B5
102
{ACAD_REACTORS
330
1F3B4
102
}
330
747D
100
AcDbEntity
  8
部品1
 62
     7
 48
50.0
100
AcDbMText
 10
8932.955720342349
 20
2155.992849861045
 30
0.0
 40
80.0
 41
0.8
 71
     4
 72
     1
  1
M10X160
  7
STYLE2
 73
     1
 44
1.0
1001
ACAD
1000
MTEXTBEGIN
1070
    73
1070
     1
1070
    44
1040
1.0
1070
    74
1070
     0
1000
MTEXTEND
  0
DIMENSION
  5
1F3B6
330
747D
100
AcDbEntity
  8
寸法
 48
50.0
100
AcDbDimension
  2
*D24
 10
9425.879857691873
 20
1891.609523707815
 30
0.0
 11
9701.9345238109
 21
1866.485566103603
 31
0.0
 70
   160
  1
20～25
 71
     5
 42
52.76000000000113
  3
INABA_S40G
100
AcDbAlignedDimension
 13
8736.811257923029
 23
1944.369523707816
 33
0.0
 14
8924.011257923028
 24
1891.609523707815
 34
0.0
 50
90.0
100
AcDbRotatedDimension
1001
ACAD
1000
DSTYLE
1002
{
1070
   174
1070
     0
1070
   272
1070
     1
1070
   279
1070
     1
1070
   288
1070
     0
1070
   341
1005
0
1002
}
  0
DIMENSION
  5
1F3B7
330
747D
100
AcDbEntity
  8
寸法
 48
50.0
100
AcDbDimension
  2
*D25
 10
9425.879857691873
 20
1567.609523707814
 30
0.0
 11
9325.879857691871
 21
1729.609523707816
 31
0.0
 70
    32
  1
180
 71
     5
 42
324.0000000000009
  3
INABA_S40G
100
AcDbAlignedDimension
 13
8924.011257923028
 23
1891.609523707815
 33
0.0
 14
8924.011257923028
 24
1567.609523707814
 34
0.0
 50
90.0
100
AcDbRotatedDimension
1001
ACAD
1000
DSTYLE
1002
{
1070
   174
1070
     0
1070
   272
1070
     1
1070
   279
1070
     1
1070
   288
1070
     0
1070
   341
1005
0
1002
}
  0
TEXT
  5
1F3B8
330
747D
100
AcDbEntity
  8
部品1
 48
50.0
100
AcDbText
 10
8928.364842207455
 20
2247.488204470015
 30
0.0
 40
80.0
  1
基礎ボルト(市販品)
  7
STYLE2
100
AcDbText
  0
LWPOLYLINE
  5
1F3B9
330
747D
100
AcDbEntity
  8
部品1
 48
50.0
100
AcDbPolyline
 90
        2
 70
     0
 43
8.0
 10
8924.011257923028
 20
1651.609523707816
 10
9217.713721322413
 20
1651.609523707816
  0
MTEXT
  5
1F3BA
102
{ACAD_REACTORS
330
1F3BB
102
}
330
747D
100
AcDbEntity
  8
部品1
 62
     7
 48
50.0
100
AcDbMText
 10
8963.282848291868
 20
2592.104896795076
 30
0.0
 40
80.0
 41
0.8
 71
     4
 72
     1
  1
\A1;ワッシャー(市販品)
  7
STYLE2
 73
     1
 44
1.0
1001
ACAD
1000
MTEXTBEGIN
1070
    73
1070
     1
1070
    44
1040
1.0
1070
    74
1070
     0
1000
MTEXTEND
  0
LEADER
  5
1F3BB
330
747D
100
AcDbEntity
  8
寸法
 48
50.0
100
AcDbLeader
  3
INABA_S40G
 73
     0
 74
     0
 75
     1
 40
102.2727272727273
 41
906.8181818181818
 76
     3
 10
8771.411257923027
 20
2160.732812152095
 30
0.0
 10
8823.282848291869
 20
2500.968533158712
 30
0.0
 10
8923.282848291869
 20
2500.968533158712
 30
0.0
1001
ACAD
1000
DSTYLE
1002
{
1070
   174
1070
     0
1070
   272
1070
     1
1070
   279
1070
     1
1070
   288
1070
     0
1070
   341
1005
0
1002
}
  0
MTEXT
  5
1F3BC
102
{ACAD_REACTORS
330
1F3BD
102
}
330
747D
100
AcDbEntity
  8
部品1
 62
     7
 48
50.0
100
AcDbMText
 10
8931.765229036384
 20
2777.073979559863
 30
0.0
 40
80.0
 41
0.8
 71
     4
 72
     1
  1
\A1;ナット(市販品)
  7
STYLE2
 73
     1
 44
1.0
1001
ACAD
1000
MTEXTBEGIN
1070
    73
1070
     1
1070
    44
1040
1.0
1070
    74
1070
     0
1000
MTEXTEND
  0
LEADER
  5
1F3BD
330
747D
100
AcDbEntity
  8
寸法
 48
50.0
100
AcDbLeader
  3
INABA_S40G
 73
     0
 74
     0
 75
     1
 40
102.2727272727273
 41
680.0000000000001
 76
     3
 10
8747.411257923028
 20
2290.484804816958
 30
0.0
 10
8791.765229036386
 20
2685.937615923499
 30
0.0
 10
8891.765229036385
 20
2685.937615923499
 30
0.0
1001
ACAD
1000
DSTYLE
1002
{
1070
   174
1070
     0
1070
   272
1070
     1
1070
   279
1070
     1
1070
   288
1070
     0
1070
   341
1005
0
1002
}
  0
LINE
  5
1F3BE
330
747D
100
AcDbEntity
  8
部品1
100
AcDbLine
 10
5530.028202570436
 20
356.4266985435275
 30
0.0
 11
10383.26690092247
 21
356.4266985435275
 31
0.0
  0
LINE
  5
1F3BF
330
747D
100
AcDbEntity
  8
部品1
100
AcDbLine
 10
10383.26690092248
 20
2972.581143484659
 30
0.0
 11
5530.028202570436
 21
2972.581143484659
 31
0.0
  0
LINE
  5
1F3C0
330
747D
100
AcDbEntity
  8
部品1
100
AcDbLine
 10
10383.26690092248
 20
3212.581143484659
 30
0.0
 11
5530.028202570433
 21
3212.581143484661
 31
0.0
  0
HATCH
  5
1F4C2
330
747D
100
AcDbEntity
  8
細線
 48
50.0
100
AcDbHatch
 10
0.0
 20
0.0
 30
0.0
210
0.0
220
0.0
230
1.0
  2
LINE
 70
     0
 71
     0
 91
        1
 92
        7
 72
     0
 73
     1
 93
        4
 10
8047.69095156366
 20
6459.999999999992
 10
7847.690951563658
 20
6459.999999999992
 10
7847.690951563656
 20
6339.99999999999
 10
8047.690951563657
 20
6339.99999999999
 97
        0
 75
     0
 76
     1
 52
45.0
 41
10.0
 77
     0
 78
     1
 53
45.0
 43
0.0
 44
0.0
 45
-22.45064030267288
 46
22.45064030267288
 79
     0
 47
4.702626270807464
 98
        1
 10
7961.415468579478
 20
6371.074841224025
  0
HATCH
  5
1F4D9
330
747D
100
AcDbEntity
  8
細線
 48
50.0
100
AcDbHatch
 10
0.0
 20
0.0
 30
0.0
210
0.0
220
0.0
230
1.0
  2
LINE
 70
     0
 71
     0
 91
        1
 92
        7
 72
     0
 73
     1
 93
        4
 10
9477.690951563673
 20
6079.999999999992
 10
9357.690951563673
 20
6079.999999999991
 10
9357.690951563673
 20
5879.999999999991
 10
9477.690951563673
 20
5879.999999999991
 97
        0
 75
     0
 76
     1
 52
45.0
 41
10.0
 77
     0
 78
     1
 53
45.0
 43
0.0
 44
0.0
 45
-22.45064030267288
 46
22.45064030267288
 79
     0
 47
4.702626270807464
 98
        1
 10
9415.1448254523
 20
5999.56735348811
  0
HATCH
  5
1F4F0
330
747D
100
AcDbEntity
  8
細線
 48
50.0
100
AcDbHatch
 10
0.0
 20
0.0
 30
0.0
210
0.0
220
0.0
230
1.0
  2
LINE
 70
     0
 71
     0
 91
        1
 92
        7
 72
     0
 73
     1
 93
        4
 10
6537.690951563672
 20
6079.999999999994
 10
6417.690951563672
 20
6079.999999999992
 10
6417.690951563674
 20
5879.999999999992
 10
6537.690951563672
 20
5879.999999999992
 97
        0
 75
     0
 76
     1
 52
45.0
 41
10.0
 77
     0
 78
     1
 53
45.0
 43
0.0
 44
0.0
 45
-22.45064030267288
 46
22.45064030267288
 79
     0
 47
4.702626270807464
 98
        1
 10
6465.344526739231
 20
6013.675233785547
  0
ENDSEC
  0
SECTION
  2
OBJECTS
  0
DICTIONARY
  5
7471
330
0
100
AcDbDictionary
281
     1
  3
ACAD_COLOR
350
159B0
  3
ACAD_GROUP
350
7472
  3
ACAD_LAYOUT
350
159B1
  3
ACAD_MATERIAL
350
159AF
  3
ACAD_MLINESTYLE
350
7473
  3
ACAD_PLOTSETTINGS
350
159B2
  3
ACAD_PLOTSTYLENAME
350
159AD
  3
ACDBHEADERROUNDTRIPXREC
350
1F510
  3
AcDbVariableDictionary
350
1F141
  3
CONTENTDICTIONARY
350
E71C
  3
DRAWINGVARIABLESDICT
350
F3B9
  0
DICTIONARY
  5
1F1AD
330
7467
100
AcDbDictionary
280
     1
281
     1
  3
ACAD_LAYERSTATES
360
1F1AE
  0
DICTIONARY
  5
159B0
102
{ACAD_REACTORS
330
7471
102
}
330
7471
100
AcDbDictionary
281
     1
  0
DICTIONARY
  5
7472
102
{ACAD_REACTORS
330
7471
102
}
330
7471
100
AcDbDictionary
281
     1
  0
DICTIONARY
  5
159B1
102
{ACAD_REACTORS
330
7471
102
}
330
7471
100
AcDbDictionary
281
     1
  3
Model
350
159B3
  3
レイアウト1
350
159B4
  0
DICTIONARY
  5
159AF
102
{ACAD_REACTORS
330
7471
102
}
330
7471
100
AcDbDictionary
281
     1
  0
DICTIONARY
  5
7473
102
{ACAD_REACTORS
330
7471
102
}
330
7471
100
AcDbDictionary
281
     1
  3
STANDARD
350
7480
  0
DICTIONARY
  5
159B2
102
{ACAD_REACTORS
330
7471
102
}
330
7471
100
AcDbDictionary
281
     1
  0
ACDBDICTIONARYWDFLT
  5
159AD
102
{ACAD_REACTORS
330
7471
102
}
330
7471
100
AcDbDictionary
281
     1
  3
Normal
350
159AE
100
AcDbDictionaryWithDefault
340
159AE
  0
DICTIONARY
  5
1F510
102
{ACAD_REACTORS
330
7471
102
}
330
7471
100
AcDbDictionary
281
     1
  3
COLORDICT
350
1F512
  3
MATERIALDICT
350
1F511
  0
DICTIONARY
  5
1F141
102
{ACAD_REACTORS
330
7471
102
}
330
7471
100
AcDbDictionary
281
     1
  3
DIMASSOC
350
1F142
  3
PROJECTNAME
350
1F143
  0
DICTIONARY
  5
E71C
102
{ACAD_REACTORS
330
7471
102
}
330
7471
100
AcDbDictionary
281
     1
  0
DICTIONARY
  5
F3B9
102
{ACAD_REACTORS
330
7471
102
}
330
7471
100
AcDbDictionary
281
     1
1001
DRAWINGVARIABLESXDATA
1000
POLARMODE
1000
1
  0
DICTIONARY
  5
1F1AE
102
{ACAD_REACTORS
330
1F1AD
102
}
330
1F1AD
100
AcDbDictionary
281
     1
  0
LAYOUT
  5
159B3
102
{ACAD_XDICTIONARY
360
1F513
102
}
102
{ACAD_REACTORS
330
159B1
102
}
330
159B1
100
AcDbPlotSettings
  1

  2
none_device
  4
Letter_(8.50_x_11.00_Inches)
  6

 40
6.349999904632568
 41
6.349999904632568
 42
6.350006103515625
 43
6.350006103515625
 44
215.8999938964844
 45
279.3999938964844
 46
0.0
 47
0.0
 48
0.0
 49
0.0
140
0.0
141
0.0
142
1.0
143
1.0
 70
 11952
 72
     1
 73
     1
 74
     0
  7

 75
     0
147
1.0
148
-4149.571981164617
149
65.56433826894044
100
AcDbLayout
  1
Model
 70
     1
 71
     0
 10
0.0
 20
0.0
 11
12.0
 21
9.0
 12
0.0
 22
0.0
 32
0.0
 14
0.0
 24
0.0
 34
0.0
 15
0.0
 25
0.0
 35
0.0
146
0.0
 13
0.0
 23
0.0
 33
0.0
 16
1.0
 26
0.0
 36
0.0
 17
0.0
 27
1.0
 37
0.0
 76
     0
330
747D
  0
LAYOUT
  5
159B4
102
{ACAD_XDICTIONARY
360
1F515
102
}
102
{ACAD_REACTORS
330
159B1
102
}
330
159B1
100
AcDbPlotSettings
  1

  2
自動 EPSON LP-8400FX (TATENO 上)
  4

  6

 40
0.0
 41
0.0
 42
0.0
 43
0.0
 44
0.0
 45
0.0
 46
0.0
 47
0.0
 48
0.0
 49
0.0
140
0.0
141
0.0
142
1.0
143
1.0
 70
   688
 72
     0
 73
     0
 74
     5
  7
inaba.ctb
 75
    16
147
1.0
148
0.0
149
0.0
100
AcDbLayout
  1
レイアウト1
 70
     0
 71
     1
 10
0.0
 20
0.0
 11
420.0
 21
297.0
 12
0.0
 22
0.0
 32
0.0
 14
1.000000000000000E+20
 24
1.000000000000000E+20
 34
1.000000000000000E+20
 15
-1.000000000000000E+20
 25
-1.000000000000000E+20
 35
-1.000000000000000E+20
146
0.0
 13
0.0
 23
0.0
 33
0.0
 16
1.0
 26
0.0
 36
0.0
 17
0.0
 27
1.0
 37
0.0
 76
     0
330
747A
  0
MLINESTYLE
  5
7480
102
{ACAD_REACTORS
330
7473
102
}
330
7473
100
AcDbMlineStyle
  2
STANDARD
 70
     0
  3

 62
     0
 51
90.0
 52
90.0
 71
     2
 49
0.5
 62
   256
  6
BYLAYER
 49
-0.5
 62
   256
  6
BYLAYER
  0
ACDBPLACEHOLDER
  5
159AE
102
{ACAD_REACTORS
330
159AD
102
}
330
159AD
  0
XRECORD
  5
1F512
102
{ACAD_REACTORS
330
1F510
102
}
330
1F510
100
AcDbXrecord
280
     1
340
159B0
  0
XRECORD
  5
1F511
102
{ACAD_REACTORS
330
1F510
102
}
330
1F510
100
AcDbXrecord
280
     1
340
159AF
  0
DICTIONARYVAR
  5
1F142
102
{ACAD_REACTORS
330
1F141
102
}
330
1F141
100
DictionaryVariables
280
     0
  1
1
  0
DICTIONARYVAR
  5
1F143
102
{ACAD_REACTORS
330
1F141
102
}
330
1F141
100
DictionaryVariables
280
     0
  1

  0
DICTIONARY
  5
1F513
330
159B3
100
AcDbDictionary
280
     1
281
     1
  3
ACAD_XREC_ROUNDTRIP
360
1F514
  0
DICTIONARY
  5
1F515
330
159B4
100
AcDbDictionary
280
     1
281
     1
  3
ACAD_XREC_ROUNDTRIP
360
1F516
  0
XRECORD
  5
1F514
102
{ACAD_REACTORS
330
1F513
102
}
330
1F513
100
AcDbXrecord
280
     1
102
SHADEPLOT
 70
     0
102
SHADEPLOTRESLEVEL
 70
     2
102
SHADEPLOTCUSTOMDPI
 70
   300
  0
XRECORD
  5
1F516
102
{ACAD_REACTORS
330
1F515
102
}
330
1F515
100
AcDbXrecord
280
     1
102
SHADEPLOT
 70
     0
102
SHADEPLOTRESLEVEL
 70
     2
102
SHADEPLOTCUSTOMDPI
 70
   300
  0
ENDSEC
  0
EOF
