  0
SECTION
  2
HEADER
  9
$ACADVER
  1
AC1015
  9
$ACADMAINTVER
 70
    20
  9
$DWGCODEPAGE
  3
ANSI_932
  9
$INSBASE
 10
0.0
 20
0.0
 30
0.0
  9
$EXTMIN
 10
139.196816621341
 20
-0.1811693038616795
 30
-0.0000000000112498
  9
$EXTMAX
 10
16308.32523385566
 20
11409.92678395885
 30
0.0000000000002956
  9
$LIMMIN
 10
0.0
 20
0.0
  9
$LIMMAX
 10
16800.0
 20
11880.0
  9
$ORTHOMODE
 70
     0
  9
$REGENMODE
 70
     1
  9
$FILLMODE
 70
     1
  9
$QTEXTMODE
 70
     0
  9
$MIRRTEXT
 70
     1
  9
$LTSCALE
 40
20.0
  9
$ATTMODE
 70
     1
  9
$TEXTSIZE
 40
100.0
  9
$TRACEWID
 40
1.0
  9
$TEXTSTYLE
  7
STYLE2
  9
$CLAYER
  8
細線
  9
$CELTYPE
  6
BYLAYER
  9
$CECOLOR
 62
   256
  9
$CELTSCALE
 40
50.0
  9
$DISPSILH
 70
     0
  9
$DIMSCALE
 40
40.0
  9
$DIMASZ
 40
2.5
  9
$DIMEXO
 40
0.5
  9
$DIMDLI
 40
7.0
  9
$DIMRND
 40
0.0
  9
$DIMDLE
 40
0.0
  9
$DIMEXE
 40
1.5
  9
$DIMTP
 40
0.0
  9
$DIMTM
 40
0.0
  9
$DIMTXT
 40
3.0
  9
$DIMCEN
 40
0.0
  9
$DIMTSZ
 40
0.0
  9
$DIMTOL
 70
     0
  9
$DIMLIM
 70
     0
  9
$DIMTIH
 70
     0
  9
$DIMTOH
 70
     0
  9
$DIMSE1
 70
     0
  9
$DIMSE2
 70
     0
  9
$DIMTAD
 70
     3
  9
$DIMZIN
 70
     8
  9
$DIMBLK
  1

  9
$DIMASO
 70
     1
  9
$DIMSHO
 70
     1
  9
$DIMPOST
  1

  9
$DIMAPOST
  1

  9
$DIMALT
 70
     0
  9
$DIMALTD
 70
     2
  9
$DIMALTF
 40
0.0394
  9
$DIMLFAC
 40
1.0
  9
$DIMTOFL
 70
     1
  9
$DIMTVP
 40
0.0
  9
$DIMTIX
 70
     1
  9
$DIMSOXD
 70
     0
  9
$DIMSAH
 70
     1
  9
$DIMBLK1
  1
DOTSMALL
  9
$DIMBLK2
  1
DOTSMALL
  9
$DIMSTYLE
  2
INABA_S40G
  9
$DIMCLRD
 70
     0
  9
$DIMCLRE
 70
     0
  9
$DIMCLRT
 70
     7
  9
$DIMTFAC
 40
1.0
  9
$DIMGAP
 40
1.0
  9
$DIMJUST
 70
     0
  9
$DIMSD1
 70
     0
  9
$DIMSD2
 70
     0
  9
$DIMTOLJ
 70
     1
  9
$DIMTZIN
 70
     0
  9
$DIMALTZ
 70
     0
  9
$DIMALTTZ
 70
     0
  9
$DIMUPT
 70
     1
  9
$DIMDEC
 70
     1
  9
$DIMTDEC
 70
     4
  9
$DIMALTU
 70
     2
  9
$DIMALTTD
 70
     2
  9
$DIMTXSTY
  7
STYLE1
  9
$DIMAUNIT
 70
     0
  9
$DIMADEC
 70
     0
  9
$DIMALTRND
 40
0.0
  9
$DIMAZIN
 70
     0
  9
$DIMDSEP
 70
    46
  9
$DIMATFIT
 70
     3
  9
$DIMFRAC
 70
     0
  9
$DIMLDRBLK
  1
DOTSMALL
  9
$DIMLUNIT
 70
     2
  9
$DIMLWD
 70
    -2
  9
$DIMLWE
 70
    -2
  9
$DIMTMOVE
 70
     0
  9
$LUNITS
 70
     2
  9
$LUPREC
 70
     1
  9
$SKETCHINC
 40
1.0
  9
$FILLETRAD
 40
2.299999999999999
  9
$AUNITS
 70
     0
  9
$AUPREC
 70
     0
  9
$MENU
  1
acad
  9
$ELEVATION
 40
0.0
  9
$PELEVATION
 40
0.0
  9
$THICKNESS
 40
0.0
  9
$LIMCHECK
 70
     0
  9
$CHAMFERA
 40
3.0
  9
$CHAMFERB
 40
3.0
  9
$CHAMFERC
 40
0.0
  9
$CHAMFERD
 40
0.0
  9
$SKPOLY
 70
     0
  9
$TDCREATE
 40
2451368.612993866
  9
$TDUCREATE
 40
2451368.237993866
  9
$TDUPDATE
 40
2455765.638329896
  9
$TDUUPDATE
 40
2455765.263329896
  9
$TDINDWG
 40
1.6672281250
  9
$TDUSRTIMER
 40
1.6672281250
  9
$USRTIMER
 70
     1
  9
$ANGBASE
 50
0.0
  9
$ANGDIR
 70
     0
  9
$PDMODE
 70
     3
  9
$PDSIZE
 40
2.0
  9
$PLINEWID
 40
0.0
  9
$SPLFRAME
 70
     0
  9
$SPLINETYPE
 70
     6
  9
$SPLINESEGS
 70
     8
  9
$HANDSEED
  5
20456
  9
$SURFTAB1
 70
     6
  9
$SURFTAB2
 70
     6
  9
$SURFTYPE
 70
     6
  9
$SURFU
 70
     6
  9
$SURFV
 70
     6
  9
$UCSBASE
  2

  9
$UCSNAME
  2

  9
$UCSORG
 10
0.0
 20
0.0
 30
0.0
  9
$UCSXDIR
 10
1.0
 20
0.0
 30
0.0
  9
$UCSYDIR
 10
0.0
 20
1.0
 30
0.0
  9
$UCSORTHOREF
  2

  9
$UCSORTHOVIEW
 70
     0
  9
$UCSORGTOP
 10
0.0
 20
0.0
 30
0.0
  9
$UCSORGBOTTOM
 10
0.0
 20
0.0
 30
0.0
  9
$UCSORGLEFT
 10
0.0
 20
0.0
 30
0.0
  9
$UCSORGRIGHT
 10
0.0
 20
0.0
 30
0.0
  9
$UCSORGFRONT
 10
0.0
 20
0.0
 30
0.0
  9
$UCSORGBACK
 10
0.0
 20
0.0
 30
0.0
  9
$PUCSBASE
  2

  9
$PUCSNAME
  2

  9
$PUCSORG
 10
0.0
 20
0.0
 30
0.0
  9
$PUCSXDIR
 10
1.0
 20
0.0
 30
0.0
  9
$PUCSYDIR
 10
0.0
 20
1.0
 30
0.0
  9
$PUCSORTHOREF
  2

  9
$PUCSORTHOVIEW
 70
     0
  9
$PUCSORGTOP
 10
0.0
 20
0.0
 30
0.0
  9
$PUCSORGBOTTOM
 10
0.0
 20
0.0
 30
0.0
  9
$PUCSORGLEFT
 10
0.0
 20
0.0
 30
0.0
  9
$PUCSORGRIGHT
 10
0.0
 20
0.0
 30
0.0
  9
$PUCSORGFRONT
 10
0.0
 20
0.0
 30
0.0
  9
$PUCSORGBACK
 10
0.0
 20
0.0
 30
0.0
  9
$USERI1
 70
     0
  9
$USERI2
 70
     0
  9
$USERI3
 70
     0
  9
$USERI4
 70
     0
  9
$USERI5
 70
     0
  9
$USERR1
 40
0.0
  9
$USERR2
 40
0.0
  9
$USERR3
 40
0.0
  9
$USERR4
 40
0.0
  9
$USERR5
 40
0.0
  9
$WORLDVIEW
 70
     1
  9
$SHADEDGE
 70
     3
  9
$SHADEDIF
 70
    70
  9
$TILEMODE
 70
     1
  9
$MAXACTVP
 70
    16
  9
$PINSBASE
 10
0.0
 20
0.0
 30
0.0
  9
$PLIMCHECK
 70
     0
  9
$PEXTMIN
 10
1.000000000000000E+20
 20
1.000000000000000E+20
 30
1.000000000000000E+20
  9
$PEXTMAX
 10
-1.000000000000000E+20
 20
-1.000000000000000E+20
 30
-1.000000000000000E+20
  9
$PLIMMIN
 10
0.0
 20
0.0
  9
$PLIMMAX
 10
420.0
 20
297.0
  9
$UNITMODE
 70
     0
  9
$VISRETAIN
 70
     0
  9
$PLINEGEN
 70
     0
  9
$PSLTSCALE
 70
     0
  9
$TREEDEPTH
 70
  3020
  9
$CMLSTYLE
  2
STANDARD
  9
$CMLJUST
 70
     0
  9
$CMLSCALE
 40
1.0
  9
$PROXYGRAPHICS
 70
     1
  9
$MEASUREMENT
 70
     1
  9
$CELWEIGHT
370
    -1
  9
$ENDCAPS
280
     0
  9
$JOINSTYLE
280
     0
  9
$LWDISPLAY
290
     0
  9
$INSUNITS
 70
     0
  9
$HYPERLINKBASE
  1

  9
$STYLESHEET
  1
inaba.ctb
  9
$XEDIT
290
     1
  9
$CEPSNTYPE
380
     0
  9
$PSTYLEMODE
290
     1
  9
$FINGERPRINTGUID
  2
{3B57B35E-7D77-4BBF-81B7-6C583B9EB24C}
  9
$VERSIONGUID
  2
{616E47ED-5EED-4B70-A85B-46941E1EFE03}
  9
$EXTNAMES
290
     1
  9
$PSVPSCALE
 40
0.0
  9
$OLESTARTUP
290
     0
  0
ENDSEC
  0
SECTION
  2
CLASSES
  0
CLASS
  1
ACDBDICTIONARYWDFLT
  2
AcDbDictionaryWithDefault
  3
ObjectDBX Classes
 90
        0
280
     0
281
     0
  0
CLASS
  1
DICTIONARYVAR
  2
AcDbDictionaryVar
  3
ObjectDBX Classes
 90
        0
280
     0
281
     0
  0
CLASS
  1
ACDBPLACEHOLDER
  2
AcDbPlaceHolder
  3
ObjectDBX Classes
 90
        0
280
     0
281
     0
  0
CLASS
  1
LAYOUT
  2
AcDbLayout
  3
ObjectDBX Classes
 90
        0
280
     0
281
     0
  0
ENDSEC
  0
SECTION
  2
TABLES
  0
TABLE
  2
VPORT
  5
746D
330
0
100
AcDbSymbolTable
 70
     3
  0
VPORT
  5
2044E
330
746D
100
AcDbSymbolTableRecord
100
AcDbViewportTableRecord
  2
*Active
 70
     0
 10
0.0
 20
0.0
 11
1.0
 21
1.0
 12
8223.761025238502
 22
5704.872807327498
 13
0.0
 23
0.0
 14
10.0
 24
10.0
 15
10.0
 25
10.0
 16
0.0
 26
0.0
 36
1.0
 17
0.0
 27
0.0
 37
0.0
 40
11496.76700100902
 41
1.528517110266159
 42
50.0
 43
0.0
 44
0.0
 50
0.0
 51
0.0
 71
     0
 72
     0
 73
     1
 74
     0
 75
     0
 76
     0
 77
     0
 78
     0
281
     0
 65
     1
110
0.0
120
0.0
130
0.0
111
1.0
121
0.0
131
0.0
112
0.0
122
1.0
132
0.0
 79
     0
146
0.0
  0
ENDTAB
  0
TABLE
  2
LTYPE
  5
746A
330
0
100
AcDbSymbolTable
 70
     3
  0
LTYPE
  5
7477
330
746A
100
AcDbSymbolTableRecord
100
AcDbLinetypeTableRecord
  2
BYBLOCK
 70
     0
  3

 72
    65
 73
     0
 40
0.0
  0
LTYPE
  5
7478
330
746A
100
AcDbSymbolTableRecord
100
AcDbLinetypeTableRecord
  2
BYLAYER
 70
     0
  3

 72
    65
 73
     0
 40
0.0
  0
LTYPE
  5
7479
330
746A
100
AcDbSymbolTableRecord
100
AcDbLinetypeTableRecord
  2
CONTINUOUS
 70
     0
  3
Solid line
 72
    65
 73
     0
 40
0.0
  0
LTYPE
  5
7816
330
746A
100
AcDbSymbolTableRecord
100
AcDbLinetypeTableRecord
  2
CENTER
 70
     0
  3
____ _ ____ _ ____ _ ____ _ ____ _ ____ _ ____ 
 72
    65
 73
     4
 40
2.0
 49
1.25
 74
     0
 49
-0.25
 74
     0
 49
0.25
 74
     0
 49
-0.25
 74
     0
  0
LTYPE
  5
781B
330
746A
100
AcDbSymbolTableRecord
100
AcDbLinetypeTableRecord
  2
PHANTOM
 70
     0
  3
______  __  __  ______  __  __  ______  __  __ 
 72
    65
 73
     6
 40
2.5
 49
1.25
 74
     0
 49
-0.25
 74
     0
 49
0.25
 74
     0
 49
-0.25
 74
     0
 49
0.25
 74
     0
 49
-0.25
 74
     0
  0
ENDTAB
  0
TABLE
  2
LAYER
  5
7467
102
{ACAD_XDICTIONARY
360
1FF38
102
}
330
0
100
AcDbSymbolTable
 70
    10
  0
LAYER
  5
7474
330
7467
100
AcDbSymbolTableRecord
100
AcDbLayerTableRecord
  2
0
 70
     0
 62
     7
  6
CONTINUOUS
370
    -3
390
159AE
  0
LAYER
  5
DEB2
330
7467
100
AcDbSymbolTableRecord
100
AcDbLayerTableRecord
  2
センター
 70
     0
 62
     3
  6
CENTER
370
    -3
390
159AE
  0
LAYER
  5
DEB3
330
7467
100
AcDbSymbolTableRecord
100
AcDbLayerTableRecord
  2
寸法
 70
     0
 62
     4
  6
CONTINUOUS
370
    -3
390
159AE
  0
LAYER
  5
DEB4
330
7467
100
AcDbSymbolTableRecord
100
AcDbLayerTableRecord
  2
部品1
 70
     0
 62
     7
  6
CONTINUOUS
370
    -3
390
159AE
  0
LAYER
  5
DEB5
330
7467
100
AcDbSymbolTableRecord
100
AcDbLayerTableRecord
  2
補助
 70
     0
 62
    -1
  6
CONTINUOUS
370
    -3
390
159AE
  0
LAYER
  5
DEB6
330
7467
100
AcDbSymbolTableRecord
100
AcDbLayerTableRecord
  2
文字
 70
     0
 62
     7
  6
CONTINUOUS
370
    -3
390
159AE
  0
LAYER
  5
F255
330
7467
100
AcDbSymbolTableRecord
100
AcDbLayerTableRecord
  2
DEFPOINTS
 70
     0
 62
     7
  6
CONTINUOUS
290
     0
370
    -3
390
159AE
  0
LAYER
  5
10B54
330
7467
100
AcDbSymbolTableRecord
100
AcDbLayerTableRecord
  2
仕様書枠
 70
     0
 62
   230
  6
CONTINUOUS
370
    -3
390
159AE
  0
LAYER
  5
1173F
330
7467
100
AcDbSymbolTableRecord
100
AcDbLayerTableRecord
  2
細線
 70
     0
 62
     5
  6
CONTINUOUS
370
    -3
390
159AE
  0
LAYER
  5
12CC4
330
7467
100
AcDbSymbolTableRecord
100
AcDbLayerTableRecord
  2
想像線
 70
     0
 62
     6
  6
PHANTOM
370
    -3
390
159AE
  0
ENDTAB
  0
TABLE
  2
STYLE
  5
7468
330
0
100
AcDbSymbolTable
 70
     3
  0
STYLE
  5
7475
330
7468
100
AcDbSymbolTableRecord
100
AcDbTextStyleTableRecord
  2
STANDARD
 70
     0
 40
0.0
 41
1.0
 50
0.0
 71
     0
 42
4.0
  3
txt
  4
C:\AutoCAD LT\bigfont.shx
  0
STYLE
  5
F706
330
7468
100
AcDbSymbolTableRecord
100
AcDbTextStyleTableRecord
  2
STYLE1
 70
     0
 40
0.0
 41
1.0
 50
0.0
 71
     0
 42
100.0
  3
isocp.shx
  4
bigfont.shx
  0
STYLE
  5
103BF
330
7468
100
AcDbSymbolTableRecord
100
AcDbTextStyleTableRecord
  2
STYLE2
 70
     0
 40
0.0
 41
1.0
 50
0.0
 71
     0
 42
100.0
  3
MS PGothic.ttf
  4

1001
ACAD
1000
MS PGothic
1071
    32818
  0
ENDTAB
  0
TABLE
  2
VIEW
  5
746B
330
0
100
AcDbSymbolTable
 70
     0
  0
ENDTAB
  0
TABLE
  2
UCS
  5
746C
330
0
100
AcDbSymbolTable
 70
     0
  0
ENDTAB
  0
TABLE
  2
APPID
  5
746E
330
0
100
AcDbSymbolTable
 70
     6
  0
APPID
  5
7476
330
746E
100
AcDbSymbolTableRecord
100
AcDbRegAppTableRecord
  2
ACAD
 70
     0
  0
APPID
  5
DEA9
330
746E
100
AcDbSymbolTableRecord
100
AcDbRegAppTableRecord
  2
CONTENTBLOCKICON
 70
     0
  0
APPID
  5
DEAA
330
746E
100
AcDbSymbolTableRecord
100
AcDbRegAppTableRecord
  2
CONTENTBLOCKDESCRIPTION
 70
     0
  0
APPID
  5
E71D
330
746E
100
AcDbSymbolTableRecord
100
AcDbRegAppTableRecord
  2
CONTENTTABDATA
 70
     0
  0
APPID
  5
E71E
330
746E
100
AcDbSymbolTableRecord
100
AcDbRegAppTableRecord
  2
CONTENTCURRENTTAB
 70
     0
  0
APPID
  5
F3BA
330
746E
100
AcDbSymbolTableRecord
100
AcDbRegAppTableRecord
  2
DRAWINGVARIABLESXDATA
 70
     0
  0
ENDTAB
  0
TABLE
  2
DIMSTYLE
  5
746F
330
0
100
AcDbSymbolTable
 70
     1
100
AcDbDimStyleTable
 71
     1
340
F71F
  0
DIMSTYLE
105
F71F
102
{ACAD_REACTORS
330
20234
330
201A6
330
201A4
330
201A0
330
2019F
330
2019D
330
2019B
330
20197
330
20196
330
20195
330
20193
330
20192
330
20190
330
2018D
330
2018B
330
20184
330
20183
330
20180
330
2012D
330
20075
330
1FC96
330
1FB1E
330
1FACB
330
1FA72
330
1FA65
330
1E701
330
1D959
330
1D947
330
1D946
330
1D942
330
1D940
330
1D93F
330
1D93E
330
1D934
330
1D933
330
1D92D
330
1D92C
330
1D929
330
1D927
330
1D926
330
1D925
330
1D920
330
1D91D
330
1D91C
330
1D91B
102
}
330
746F
100
AcDbSymbolTableRecord
100
AcDbDimStyleTableRecord
  2
INABA_S40G
 70
     0
 40
40.0
 41
2.5
 42
0.5
 43
7.0
 44
1.5
 73
     0
 74
     0
 77
     3
 78
     8
140
3.0
141
0.0
143
0.0394
147
1.0
172
     1
173
     1
174
     1
178
     7
271
     1
288
     1
340
F706
341
F770
343
F770
344
F770
  0
ENDTAB
  0
TABLE
  2
BLOCK_RECORD
  5
7466
330
0
100
AcDbSymbolTable
 70
    30
  0
BLOCK_RECORD
  5
747D
330
7466
100
AcDbSymbolTableRecord
100
AcDbBlockTableRecord
  2
*MODEL_SPACE
340
159B3
  0
BLOCK_RECORD
  5
747A
330
7466
100
AcDbSymbolTableRecord
100
AcDbBlockTableRecord
  2
*PAPER_SPACE
340
159B4
  0
BLOCK_RECORD
  5
F770
330
7466
100
AcDbSymbolTableRecord
100
AcDbBlockTableRecord
  2
_DOTSMALL
340
0
102
{BLKREFS
331
202FF
331
20300
331
2030A
331
2030B
331
20313
331
20314
331
2031C
331
2031D
331
20325
331
20326
331
2032E
331
2032F
331
20337
331
20338
331
20340
331
20341
331
20349
331
2034A
331
20352
331
20353
331
2035C
331
2035D
331
20366
331
20367
331
20370
331
20371
331
2037B
331
2037C
331
20385
331
20386
331
20390
331
20391
331
2039A
331
2039B
331
203A5
331
203A6
331
203AF
331
203B0
331
203B8
331
203B9
331
203C1
331
203C2
331
203CC
331
203CD
331
203D6
331
203D7
331
203DF
331
203E0
331
203E8
331
203E9
331
203F2
331
203F3
331
203FC
331
203FD
331
2041A
331
2041B
102
}
  0
BLOCK_RECORD
  5
1DA44
330
7466
100
AcDbSymbolTableRecord
100
AcDbBlockTableRecord
  2
*D1
340
0
  0
BLOCK_RECORD
  5
1DA51
330
7466
100
AcDbSymbolTableRecord
100
AcDbBlockTableRecord
  2
*D2
340
0
  0
BLOCK_RECORD
  5
1DA5E
330
7466
100
AcDbSymbolTableRecord
100
AcDbBlockTableRecord
  2
*D3
340
0
  0
BLOCK_RECORD
  5
1DA69
330
7466
100
AcDbSymbolTableRecord
100
AcDbBlockTableRecord
  2
*D4
340
0
  0
BLOCK_RECORD
  5
1DA74
330
7466
100
AcDbSymbolTableRecord
100
AcDbBlockTableRecord
  2
*D5
340
0
  0
BLOCK_RECORD
  5
1DA81
330
7466
100
AcDbSymbolTableRecord
100
AcDbBlockTableRecord
  2
*D6
340
0
  0
BLOCK_RECORD
  5
1DA8E
330
7466
100
AcDbSymbolTableRecord
100
AcDbBlockTableRecord
  2
*D7
340
0
  0
BLOCK_RECORD
  5
1DA9A
330
7466
100
AcDbSymbolTableRecord
100
AcDbBlockTableRecord
  2
*D8
340
0
  0
BLOCK_RECORD
  5
1DAA5
330
7466
100
AcDbSymbolTableRecord
100
AcDbBlockTableRecord
  2
*D9
340
0
  0
BLOCK_RECORD
  5
1DAB2
330
7466
100
AcDbSymbolTableRecord
100
AcDbBlockTableRecord
  2
*D10
340
0
  0
BLOCK_RECORD
  5
1DABE
330
7466
100
AcDbSymbolTableRecord
100
AcDbBlockTableRecord
  2
*D11
340
0
  0
BLOCK_RECORD
  5
1DACB
330
7466
100
AcDbSymbolTableRecord
100
AcDbBlockTableRecord
  2
*D12
340
0
  0
BLOCK_RECORD
  5
1DAD9
330
7466
100
AcDbSymbolTableRecord
100
AcDbBlockTableRecord
  2
*D13
340
0
  0
BLOCK_RECORD
  5
1DAE6
330
7466
100
AcDbSymbolTableRecord
100
AcDbBlockTableRecord
  2
*D14
340
0
  0
BLOCK_RECORD
  5
1DAF3
330
7466
100
AcDbSymbolTableRecord
100
AcDbBlockTableRecord
  2
*D15
340
0
  0
BLOCK_RECORD
  5
1DB00
330
7466
100
AcDbSymbolTableRecord
100
AcDbBlockTableRecord
  2
*D16
340
0
  0
BLOCK_RECORD
  5
1DB1A
330
7466
100
AcDbSymbolTableRecord
100
AcDbBlockTableRecord
  2
*D17
340
0
  0
BLOCK_RECORD
  5
1FA66
330
7466
100
AcDbSymbolTableRecord
100
AcDbBlockTableRecord
  2
*D18
340
0
  0
BLOCK_RECORD
  5
1FA73
330
7466
100
AcDbSymbolTableRecord
100
AcDbBlockTableRecord
  2
*D19
340
0
  0
BLOCK_RECORD
  5
1FACC
330
7466
100
AcDbSymbolTableRecord
100
AcDbBlockTableRecord
  2
*D20
340
0
  0
BLOCK_RECORD
  5
1FB1F
330
7466
100
AcDbSymbolTableRecord
100
AcDbBlockTableRecord
  2
*D21
340
0
  0
BLOCK_RECORD
  5
201AA
330
7466
100
AcDbSymbolTableRecord
100
AcDbBlockTableRecord
  2
*D22
340
0
  0
BLOCK_RECORD
  5
201B6
330
7466
100
AcDbSymbolTableRecord
100
AcDbBlockTableRecord
  2
*D23
340
0
  0
BLOCK_RECORD
  5
201C2
330
7466
100
AcDbSymbolTableRecord
100
AcDbBlockTableRecord
  2
*D24
340
0
  0
BLOCK_RECORD
  5
201CE
330
7466
100
AcDbSymbolTableRecord
100
AcDbBlockTableRecord
  2
*D25
340
0
  0
BLOCK_RECORD
  5
201DC
330
7466
100
AcDbSymbolTableRecord
100
AcDbBlockTableRecord
  2
*D26
340
0
  0
BLOCK_RECORD
  5
201E7
330
7466
100
AcDbSymbolTableRecord
100
AcDbBlockTableRecord
  2
*D27
340
0
  0
BLOCK_RECORD
  5
20235
330
7466
100
AcDbSymbolTableRecord
100
AcDbBlockTableRecord
  2
*D28
340
0
  0
ENDTAB
  0
ENDSEC
  0
SECTION
  2
BLOCKS
  0
BLOCK
  5
7489
330
747D
100
AcDbEntity
  8
0
100
AcDbBlockBegin
  2
*MODEL_SPACE
 70
     0
 10
0.0
 20
0.0
 30
0.0
  3
*MODEL_SPACE
  1

  0
ENDBLK
  5
748A
330
747D
100
AcDbEntity
  8
0
100
AcDbBlockEnd
  0
BLOCK
  5
7487
330
747A
100
AcDbEntity
 67
     1
  8
0
100
AcDbBlockBegin
  2
*PAPER_SPACE
 70
     0
 10
0.0
 20
0.0
 30
0.0
  3
*PAPER_SPACE
  1

  0
ENDBLK
  5
7488
330
747A
100
AcDbEntity
 67
     1
  8
0
100
AcDbBlockEnd
  0
BLOCK
  5
F771
330
F770
100
AcDbEntity
  8
0
 48
50.0
100
AcDbBlockBegin
  2
_DOTSMALL
 70
     0
 10
0.0
 20
0.0
 30
0.0
  3
_DOTSMALL
  1

  0
LWPOLYLINE
  5
F772
330
F770
100
AcDbEntity
  8
0
  6
ByBlock
 62
     0
 48
50.0
100
AcDbPolyline
 90
        2
 70
     1
 43
0.5
 10
-0.0625
 20
0.0
 42
1.0
 10
0.0625
 20
0.0
 42
1.0
  0
ENDBLK
  5
F776
330
F770
100
AcDbEntity
  8
0
 48
50.0
100
AcDbBlockEnd
  0
BLOCK
  5
1DA4F
330
1DA44
100
AcDbEntity
  8
0
 48
50.0
100
AcDbBlockBegin
  2
*D1
 70
     1
 10
0.0
 20
0.0
 30
0.0
  3
*D1
  1

  0
LINE
  5
203F8
330
1DA44
100
AcDbEntity
  8
寸法
 62
     0
 48
50.0
370
    -2
100
AcDbLine
 10
7573.599999999998
 20
5389.246300175036
 30
0.0
 11
7830.307249876097
 21
5389.246300175036
 31
0.0
  0
LINE
  5
203F9
330
1DA44
100
AcDbEntity
  8
寸法
 62
     0
 48
50.0
370
    -2
100
AcDbLine
 10
7573.599999999998
 20
5519.246300175038
 30
0.0
 11
7830.307249876097
 21
5519.246300175038
 31
0.0
  0
LINE
  5
203FA
330
1DA44
100
AcDbEntity
  8
寸法
 62
     0
 48
50.0
370
    -2
100
AcDbLine
 10
7770.307249876097
 20
5389.246300175036
 30
0.0
 11
7770.307249876097
 21
5519.246300175038
 31
0.0
  0
LINE
  5
203FB
330
1DA44
100
AcDbEntity
  8
寸法
 62
     0
 48
50.0
370
    -2
100
AcDbLine
 10
7770.307249876097
 20
5519.246300175038
 30
0.0
 11
7770.307249876097
 21
5891.340788364015
 31
0.0
  0
INSERT
  5
203FC
330
1DA44
100
AcDbEntity
  8
寸法
 62
     0
 48
50.0
370
    -2
100
AcDbBlockReference
  2
_DOTSMALL
 10
7770.307249876097
 20
5389.246300175036
 30
0.0
 41
100.0
 42
100.0
 43
100.0
 50
270.0
  0
INSERT
  5
203FD
330
1DA44
100
AcDbEntity
  8
寸法
 62
     0
 48
50.0
370
    -2
100
AcDbBlockReference
  2
_DOTSMALL
 10
7770.307249876097
 20
5519.246300175038
 30
0.0
 41
100.0
 42
100.0
 43
100.0
 50
90.0
  0
MTEXT
  5
203FE
330
1DA44
100
AcDbEntity
  8
寸法
 62
     7
 48
50.0
100
AcDbMText
 10
7670.307249876096
 20
5755.293544269528
 30
0.0
 40
120.0
 41
0.0
 71
     5
 72
     1
  1
\A1;130
  7
STYLE1
 11
0.0000000000000001
 21
1.0
 31
0.0
 73
     1
 44
1.0
1001
ACAD
1000
MTEXTBEGIN
1070
    73
1070
     1
1070
    44
1040
1.0
1070
    74
1070
     0
1000
MTEXTEND
  0
POINT
  5
203FF
330
1DA44
100
AcDbEntity
  8
DEFPOINTS
 62
     0
 48
50.0
100
AcDbPoint
 10
7553.599999999999
 20
5389.246300175036
 30
0.0
  0
POINT
  5
20400
330
1DA44
100
AcDbEntity
  8
DEFPOINTS
 62
     0
 48
50.0
100
AcDbPoint
 10
7553.599999999999
 20
5519.246300175038
 30
0.0
  0
POINT
  5
20401
330
1DA44
100
AcDbEntity
  8
DEFPOINTS
 62
     0
 48
50.0
100
AcDbPoint
 10
7770.307249876097
 20
5519.246300175038
 30
0.0
  0
ENDBLK
  5
1DA50
330
1DA44
100
AcDbEntity
  8
0
 48
50.0
100
AcDbBlockEnd
  0
BLOCK
  5
1DA5C
330
1DA51
100
AcDbEntity
  8
0
 48
50.0
100
AcDbBlockBegin
  2
*D2
 70
     1
 10
0.0
 20
0.0
 30
0.0
  3
*D2
  1

  0
LINE
  5
203EE
330
1DA51
100
AcDbEntity
  8
寸法
 62
     0
 48
50.0
370
    -2
100
AcDbLine
 10
7573.599999999998
 20
5389.246300175038
 30
0.0
 11
7830.307249876097
 21
5389.246300175038
 31
0.0
  0
LINE
  5
203EF
330
1DA51
100
AcDbEntity
  8
寸法
 62
     0
 48
50.0
370
    -2
100
AcDbLine
 10
7573.599999999998
 20
5219.246300175036
 30
0.0
 11
7830.307249876097
 21
5219.246300175036
 31
0.0
  0
LINE
  5
203F0
330
1DA51
100
AcDbEntity
  8
寸法
 62
     0
 48
50.0
370
    -2
100
AcDbLine
 10
7770.307249876097
 20
5389.246300175038
 30
0.0
 11
7770.307249876097
 21
5219.246300175036
 31
0.0
  0
LINE
  5
203F1
330
1DA51
100
AcDbEntity
  8
寸法
 62
     0
 48
50.0
370
    -2
100
AcDbLine
 10
7770.307249876097
 20
5219.246300175036
 30
0.0
 11
7770.307249876097
 21
4847.15181198606
 31
0.0
  0
INSERT
  5
203F2
330
1DA51
100
AcDbEntity
  8
寸法
 62
     0
 48
50.0
370
    -2
100
AcDbBlockReference
  2
_DOTSMALL
 10
7770.307249876097
 20
5389.246300175038
 30
0.0
 41
100.0
 42
100.0
 43
100.0
 50
90.0
  0
INSERT
  5
203F3
330
1DA51
100
AcDbEntity
  8
寸法
 62
     0
 48
50.0
370
    -2
100
AcDbBlockReference
  2
_DOTSMALL
 10
7770.307249876097
 20
5219.246300175036
 30
0.0
 41
100.0
 42
100.0
 43
100.0
 50
270.0
  0
MTEXT
  5
203F4
330
1DA51
100
AcDbEntity
  8
寸法
 62
     7
 48
50.0
100
AcDbMText
 10
7670.307249876096
 20
4983.199056080549
 30
0.0
 40
120.0
 41
0.0
 71
     5
 72
     1
  1
\A1;170
  7
STYLE1
 11
0.0000000000000001
 21
1.0
 31
0.0
 73
     1
 44
1.0
1001
ACAD
1000
MTEXTBEGIN
1070
    73
1070
     1
1070
    44
1040
1.0
1070
    74
1070
     0
1000
MTEXTEND
  0
POINT
  5
203F5
330
1DA51
100
AcDbEntity
  8
DEFPOINTS
 62
     0
 48
50.0
100
AcDbPoint
 10
7553.599999999999
 20
5389.246300175038
 30
0.0
  0
POINT
  5
203F6
330
1DA51
100
AcDbEntity
  8
DEFPOINTS
 62
     0
 48
50.0
100
AcDbPoint
 10
7553.599999999999
 20
5219.246300175036
 30
0.0
  0
POINT
  5
203F7
330
1DA51
100
AcDbEntity
  8
DEFPOINTS
 62
     0
 48
50.0
100
AcDbPoint
 10
7770.307249876097
 20
5219.246300175036
 30
0.0
  0
ENDBLK
  5
1DA5D
330
1DA51
100
AcDbEntity
  8
0
 48
50.0
100
AcDbBlockEnd
  0
BLOCK
  5
1DA67
330
1DA5E
100
AcDbEntity
  8
0
 48
50.0
100
AcDbBlockBegin
  2
*D3
 70
     1
 10
0.0
 20
0.0
 30
0.0
  3
*D3
  1

  0
LINE
  5
203E5
330
1DA5E
100
AcDbEntity
  8
寸法
 62
     0
 48
50.0
370
    -2
100
AcDbLine
 10
8740.599999999998
 20
6966.246300175035
 30
0.0
 11
8740.599999999998
 21
7884.306910564965
 31
0.0
  0
LINE
  5
203E6
330
1DA5E
100
AcDbEntity
  8
寸法
 62
     0
 48
50.0
370
    -2
100
AcDbLine
 10
7446.6
 20
6966.246300175035
 30
0.0
 11
7446.6
 21
7884.306910564965
 31
0.0
  0
LINE
  5
203E7
330
1DA5E
100
AcDbEntity
  8
寸法
 62
     0
 48
50.0
370
    -2
100
AcDbLine
 10
8740.599999999998
 20
7824.306910564965
 30
0.0
 11
7446.6
 21
7824.306910564965
 31
0.0
  0
INSERT
  5
203E8
330
1DA5E
100
AcDbEntity
  8
寸法
 62
     0
 48
50.0
370
    -2
100
AcDbBlockReference
  2
_DOTSMALL
 10
8740.599999999998
 20
7824.306910564965
 30
0.0
 41
100.0
 42
100.0
 43
100.0
  0
INSERT
  5
203E9
330
1DA5E
100
AcDbEntity
  8
寸法
 62
     0
 48
50.0
370
    -2
100
AcDbBlockReference
  2
_DOTSMALL
 10
7446.6
 20
7824.306910564965
 30
0.0
 41
100.0
 42
100.0
 43
100.0
 50
180.0
  0
MTEXT
  5
203EA
330
1DA5E
100
AcDbEntity
  8
寸法
 62
     7
 48
50.0
100
AcDbMText
 10
8093.6
 20
7924.318721588587
 30
0.0
 40
120.0
 41
0.0
 71
     5
 72
     1
  1
\A1;1294
  7
STYLE1
 73
     1
 44
1.0
1001
ACAD
1000
MTEXTBEGIN
1070
    73
1070
     1
1070
    44
1040
1.0
1070
    74
1070
     0
1000
MTEXTEND
  0
POINT
  5
203EB
330
1DA5E
100
AcDbEntity
  8
DEFPOINTS
 62
     0
 48
50.0
100
AcDbPoint
 10
8740.599999999998
 20
6946.246300175035
 30
0.0
  0
POINT
  5
203EC
330
1DA5E
100
AcDbEntity
  8
DEFPOINTS
 62
     0
 48
50.0
100
AcDbPoint
 10
7446.6
 20
6946.246300175035
 30
0.0
  0
POINT
  5
203ED
330
1DA5E
100
AcDbEntity
  8
DEFPOINTS
 62
     0
 48
50.0
100
AcDbPoint
 10
7446.6
 20
7824.306910564965
 30
0.0
  0
ENDBLK
  5
1DA68
330
1DA5E
100
AcDbEntity
  8
0
 48
50.0
100
AcDbBlockEnd
  0
BLOCK
  5
1DA72
330
1DA69
100
AcDbEntity
  8
0
 48
50.0
100
AcDbBlockBegin
  2
*D4
 70
     1
 10
0.0
 20
0.0
 30
0.0
  3
*D4
  1

  0
LINE
  5
203DC
330
1DA69
100
AcDbEntity
  8
寸法
 62
     0
 48
50.0
370
    -2
100
AcDbLine
 10
7323.599999999998
 20
7039.246300175034
 30
0.0
 11
7323.599999999998
 21
8096.767606081801
 31
0.0
  0
LINE
  5
203DD
330
1DA69
100
AcDbEntity
  8
寸法
 62
     0
 48
50.0
370
    -2
100
AcDbLine
 10
8863.599999999998
 20
7039.246300175034
 30
0.0
 11
8863.599999999998
 21
8096.767606081801
 31
0.0
  0
LINE
  5
203DE
330
1DA69
100
AcDbEntity
  8
寸法
 62
     0
 48
50.0
370
    -2
100
AcDbLine
 10
7323.599999999998
 20
8036.7676060818
 30
0.0
 11
8863.599999999998
 21
8036.7676060818
 31
0.0
  0
INSERT
  5
203DF
330
1DA69
100
AcDbEntity
  8
寸法
 62
     0
 48
50.0
370
    -2
100
AcDbBlockReference
  2
_DOTSMALL
 10
7323.599999999998
 20
8036.7676060818
 30
0.0
 41
100.0
 42
100.0
 43
100.0
 50
180.0
  0
INSERT
  5
203E0
330
1DA69
100
AcDbEntity
  8
寸法
 62
     0
 48
50.0
370
    -2
100
AcDbBlockReference
  2
_DOTSMALL
 10
8863.599999999998
 20
8036.7676060818
 30
0.0
 41
100.0
 42
100.0
 43
100.0
  0
MTEXT
  5
203E1
330
1DA69
100
AcDbEntity
  8
寸法
 62
     7
 48
50.0
100
AcDbMText
 10
8093.6
 20
8136.767606081802
 30
0.0
 40
120.0
 41
0.0
 71
     5
 72
     1
  1
\A1;1540
  7
STYLE1
 73
     1
 44
1.0
1001
ACAD
1000
MTEXTBEGIN
1070
    73
1070
     1
1070
    44
1040
1.0
1070
    74
1070
     0
1000
MTEXTEND
  0
POINT
  5
203E2
330
1DA69
100
AcDbEntity
  8
DEFPOINTS
 62
     0
 48
50.0
100
AcDbPoint
 10
7323.599999999998
 20
7019.246300175035
 30
0.0
  0
POINT
  5
203E3
330
1DA69
100
AcDbEntity
  8
DEFPOINTS
 62
     0
 48
50.0
100
AcDbPoint
 10
8863.599999999998
 20
7019.246300175035
 30
0.0
  0
POINT
  5
203E4
330
1DA69
100
AcDbEntity
  8
DEFPOINTS
 62
     0
 48
50.0
100
AcDbPoint
 10
8863.599999999998
 20
8036.7676060818
 30
0.0
  0
ENDBLK
  5
1DA73
330
1DA69
100
AcDbEntity
  8
0
 48
50.0
100
AcDbBlockEnd
  0
BLOCK
  5
1DA7F
330
1DA74
100
AcDbEntity
  8
0
 48
50.0
100
AcDbBlockBegin
  2
*D5
 70
     1
 10
0.0
 20
0.0
 30
0.0
  3
*D5
  1

  0
LINE
  5
203D2
330
1DA74
100
AcDbEntity
  8
寸法
 62
     0
 48
50.0
370
    -2
100
AcDbLine
 10
7446.6
 20
6966.246300175035
 30
0.0
 11
7446.6
 21
7884.306910564965
 31
0.0
  0
LINE
  5
203D3
330
1DA74
100
AcDbEntity
  8
寸法
 62
     0
 48
50.0
370
    -2
100
AcDbLine
 10
7323.599999999998
 20
7039.246300175034
 30
0.0
 11
7323.599999999998
 21
7884.306910564965
 31
0.0
  0
LINE
  5
203D4
330
1DA74
100
AcDbEntity
  8
寸法
 62
     0
 48
50.0
370
    -2
100
AcDbLine
 10
7446.6
 20
7824.306910564965
 30
0.0
 11
7323.599999999998
 21
7824.306910564965
 31
0.0
  0
LINE
  5
203D5
330
1DA74
100
AcDbEntity
  8
寸法
 62
     0
 48
50.0
370
    -2
100
AcDbLine
 10
7323.599999999998
 20
7824.306910564965
 30
0.0
 11
6946.62943725152
 21
7824.306910564965
 31
0.0
  0
INSERT
  5
203D6
330
1DA74
100
AcDbEntity
  8
寸法
 62
     0
 48
50.0
370
    -2
100
AcDbBlockReference
  2
_DOTSMALL
 10
7446.6
 20
7824.306910564965
 30
0.0
 41
100.0
 42
100.0
 43
100.0
  0
INSERT
  5
203D7
330
1DA74
100
AcDbEntity
  8
寸法
 62
     0
 48
50.0
370
    -2
100
AcDbBlockReference
  2
_DOTSMALL
 10
7323.599999999998
 20
7824.306910564965
 30
0.0
 41
100.0
 42
100.0
 43
100.0
 50
180.0
  0
MTEXT
  5
203D8
330
1DA74
100
AcDbEntity
  8
寸法
 62
     7
 48
50.0
100
AcDbMText
 10
7085.11471862576
 20
7924.318721588587
 30
0.0
 40
120.0
 41
0.0
 71
     5
 72
     1
  1
\A1;123
  7
STYLE1
 73
     1
 44
1.0
1001
ACAD
1000
MTEXTBEGIN
1070
    73
1070
     1
1070
    44
1040
1.0
1070
    74
1070
     0
1000
MTEXTEND
  0
POINT
  5
203D9
330
1DA74
100
AcDbEntity
  8
DEFPOINTS
 62
     0
 48
50.0
100
AcDbPoint
 10
7446.6
 20
6946.246300175035
 30
0.0
  0
POINT
  5
203DA
330
1DA74
100
AcDbEntity
  8
DEFPOINTS
 62
     0
 48
50.0
100
AcDbPoint
 10
7323.599999999998
 20
7019.246300175035
 30
0.0
  0
POINT
  5
203DB
330
1DA74
100
AcDbEntity
  8
DEFPOINTS
 62
     0
 48
50.0
100
AcDbPoint
 10
7323.599999999998
 20
7824.306910564965
 30
0.0
  0
ENDBLK
  5
1DA80
330
1DA74
100
AcDbEntity
  8
0
 48
50.0
100
AcDbBlockEnd
  0
BLOCK
  5
1DA8C
330
1DA81
100
AcDbEntity
  8
0
 48
50.0
100
AcDbBlockBegin
  2
*D6
 70
     1
 10
0.0
 20
0.0
 30
0.0
  3
*D6
  1

  0
LINE
  5
203C7
330
1DA81
100
AcDbEntity
  8
寸法
 62
     0
 48
50.0
370
    -2
100
AcDbLine
 10
7278.599999999994
 20
7844.306910564966
 30
0.0
 11
7278.599999999994
 21
8096.767606081803
 31
0.0
  0
LINE
  5
203C8
330
1DA81
100
AcDbEntity
  8
寸法
 62
     0
 48
50.0
370
    -2
100
AcDbLine
 10
7323.599999999998
 20
7039.246300175034
 30
0.0
 11
7323.599999999998
 21
8096.767606081803
 31
0.0
  0
LINE
  5
203C9
330
1DA81
100
AcDbEntity
  8
寸法
 62
     0
 48
50.0
370
    -2
100
AcDbLine
 10
7278.599999999994
 20
8036.767606081802
 30
0.0
 11
7178.599999999994
 21
8036.767606081802
 31
0.0
  0
LINE
  5
203CA
330
1DA81
100
AcDbEntity
  8
寸法
 62
     0
 48
50.0
370
    -2
100
AcDbLine
 10
7323.599999999998
 20
8036.767606081802
 30
0.0
 11
7423.599999999999
 21
8036.767606081802
 31
0.0
  0
LINE
  5
203CB
330
1DA81
100
AcDbEntity
  8
寸法
 62
     0
 48
50.0
370
    -2
100
AcDbLine
 10
7278.599999999994
 20
8036.767606081802
 30
0.0
 11
7323.599999999998
 21
8036.767606081802
 31
0.0
  0
INSERT
  5
203CC
330
1DA81
100
AcDbEntity
  8
寸法
 62
     0
 48
50.0
370
    -2
100
AcDbBlockReference
  2
_DOTSMALL
 10
7278.599999999994
 20
8036.767606081802
 30
0.0
 41
100.0
 42
100.0
 43
100.0
  0
INSERT
  5
203CD
330
1DA81
100
AcDbEntity
  8
寸法
 62
     0
 48
50.0
370
    -2
100
AcDbBlockReference
  2
_DOTSMALL
 10
7323.599999999998
 20
8036.767606081802
 30
0.0
 41
100.0
 42
100.0
 43
100.0
 50
180.0
  0
MTEXT
  5
203CE
330
1DA81
100
AcDbEntity
  8
寸法
 62
     7
 48
50.0
100
AcDbMText
 10
7301.099999999997
 20
8136.767606081802
 30
0.0
 40
120.0
 41
0.0
 71
     5
 72
     1
  1
\A1;a
  7
STYLE1
 73
     1
 44
1.0
1001
ACAD
1000
MTEXTBEGIN
1070
    73
1070
     1
1070
    44
1040
1.0
1070
    74
1070
     0
1000
MTEXTEND
  0
POINT
  5
203CF
330
1DA81
100
AcDbEntity
  8
DEFPOINTS
 62
     0
 48
50.0
100
AcDbPoint
 10
7278.599999999994
 20
7824.306910564965
 30
0.0
  0
POINT
  5
203D0
330
1DA81
100
AcDbEntity
  8
DEFPOINTS
 62
     0
 48
50.0
100
AcDbPoint
 10
7323.599999999998
 20
7019.246300175035
 30
0.0
  0
POINT
  5
203D1
330
1DA81
100
AcDbEntity
  8
DEFPOINTS
 62
     0
 48
50.0
100
AcDbPoint
 10
7323.599999999998
 20
8036.767606081802
 30
0.0
  0
ENDBLK
  5
1DA8D
330
1DA81
100
AcDbEntity
  8
0
 48
50.0
100
AcDbBlockEnd
  0
BLOCK
  5
1DA98
330
1DA8E
100
AcDbEntity
  8
0
 48
50.0
100
AcDbBlockBegin
  2
*D7
 70
     1
 10
0.0
 20
0.0
 30
0.0
  3
*D7
  1

  0
LINE
  5
203BE
330
1DA8E
100
AcDbEntity
  8
寸法
 62
     0
 48
50.0
370
    -2
100
AcDbLine
 10
7376.599999999999
 20
6896.246300175035
 30
0.0
 11
6767.657733986178
 21
6896.246300175035
 31
0.0
  0
LINE
  5
203BF
330
1DA8E
100
AcDbEntity
  8
寸法
 62
     0
 48
50.0
370
    -2
100
AcDbLine
 10
7376.600000000006
 20
5417.246300175037
 30
0.0
 11
6767.657733986176
 21
5417.246300175037
 31
0.0
  0
LINE
  5
203C0
330
1DA8E
100
AcDbEntity
  8
寸法
 62
     0
 48
50.0
370
    -2
100
AcDbLine
 10
6827.657733986177
 20
6896.246300175035
 30
0.0
 11
6827.657733986177
 21
5417.246300175037
 31
0.0
  0
INSERT
  5
203C1
330
1DA8E
100
AcDbEntity
  8
寸法
 62
     0
 48
50.0
370
    -2
100
AcDbBlockReference
  2
_DOTSMALL
 10
6827.657733986177
 20
6896.246300175035
 30
0.0
 41
100.0
 42
100.0
 43
100.0
 50
90.0
  0
INSERT
  5
203C2
330
1DA8E
100
AcDbEntity
  8
寸法
 62
     0
 48
50.0
370
    -2
100
AcDbBlockReference
  2
_DOTSMALL
 10
6827.657733986177
 20
5417.246300175037
 30
0.0
 41
100.0
 42
100.0
 43
100.0
 50
270.0
  0
MTEXT
  5
203C3
330
1DA8E
100
AcDbEntity
  8
寸法
 62
     7
 48
50.0
100
AcDbMText
 10
6727.657733986176
 20
6119.246300175034
 30
0.0
 40
120.0
 41
0.0
 71
     5
 72
     1
  1
\A1;1479
  7
STYLE1
 11
0.0000000000000001
 21
1.0
 31
0.0
 73
     1
 44
1.0
1001
ACAD
1000
MTEXTBEGIN
1070
    73
1070
     1
1070
    44
1040
1.0
1070
    74
1070
     0
1000
MTEXTEND
  0
POINT
  5
203C4
330
1DA8E
100
AcDbEntity
  8
DEFPOINTS
 62
     0
 48
50.0
100
AcDbPoint
 10
7396.599999999999
 20
6896.246300175035
 30
0.0
  0
POINT
  5
203C5
330
1DA8E
100
AcDbEntity
  8
DEFPOINTS
 62
     0
 48
50.0
100
AcDbPoint
 10
7396.600000000006
 20
5417.246300175037
 30
0.0
  0
POINT
  5
203C6
330
1DA8E
100
AcDbEntity
  8
DEFPOINTS
 62
     0
 48
50.0
100
AcDbPoint
 10
6827.657733986177
 20
5417.246300175037
 30
0.0
  0
ENDBLK
  5
1DA99
330
1DA8E
100
AcDbEntity
  8
0
 48
50.0
100
AcDbBlockEnd
  0
BLOCK
  5
1DAA3
330
1DA9A
100
AcDbEntity
  8
0
 48
50.0
100
AcDbBlockBegin
  2
*D8
 70
     1
 10
0.0
 20
0.0
 30
0.0
  3
*D8
  1

  0
LINE
  5
203B5
330
1DA9A
100
AcDbEntity
  8
寸法
 62
     0
 48
50.0
370
    -2
100
AcDbLine
 10
7303.599999999999
 20
7019.246300175035
 30
0.0
 11
6522.164931848216
 21
7019.246300175035
 31
0.0
  0
LINE
  5
203B6
330
1DA9A
100
AcDbEntity
  8
寸法
 62
     0
 48
50.0
370
    -2
100
AcDbLine
 10
7303.599999999999
 20
5219.246300175035
 30
0.0
 11
6522.164931848215
 21
5219.246300175035
 31
0.0
  0
LINE
  5
203B7
330
1DA9A
100
AcDbEntity
  8
寸法
 62
     0
 48
50.0
370
    -2
100
AcDbLine
 10
6582.164931848216
 20
7019.246300175035
 30
0.0
 11
6582.164931848215
 21
5219.246300175035
 31
0.0
  0
INSERT
  5
203B8
330
1DA9A
100
AcDbEntity
  8
寸法
 62
     0
 48
50.0
370
    -2
100
AcDbBlockReference
  2
_DOTSMALL
 10
6582.164931848216
 20
7019.246300175035
 30
0.0
 41
100.0
 42
100.0
 43
100.0
 50
90.0
  0
INSERT
  5
203B9
330
1DA9A
100
AcDbEntity
  8
寸法
 62
     0
 48
50.0
370
    -2
100
AcDbBlockReference
  2
_DOTSMALL
 10
6582.164931848215
 20
5219.246300175035
 30
0.0
 41
100.0
 42
100.0
 43
100.0
 50
270.0
  0
MTEXT
  5
203BA
330
1DA9A
100
AcDbEntity
  8
寸法
 62
     7
 48
50.0
100
AcDbMText
 10
6482.164931848214
 20
6119.246300175035
 30
0.0
 40
120.0
 41
0.0
 71
     5
 72
     1
  1
\A1;1800
  7
STYLE1
 11
0.0000000000000001
 21
1.0
 31
0.0
 73
     1
 44
1.0
1001
ACAD
1000
MTEXTBEGIN
1070
    73
1070
     1
1070
    44
1040
1.0
1070
    74
1070
     0
1000
MTEXTEND
  0
POINT
  5
203BB
330
1DA9A
100
AcDbEntity
  8
DEFPOINTS
 62
     0
 48
50.0
100
AcDbPoint
 10
7323.599999999998
 20
7019.246300175035
 30
0.0
  0
POINT
  5
203BC
330
1DA9A
100
AcDbEntity
  8
DEFPOINTS
 62
     0
 48
50.0
100
AcDbPoint
 10
7323.599999999998
 20
5219.246300175035
 30
0.0
  0
POINT
  5
203BD
330
1DA9A
100
AcDbEntity
  8
DEFPOINTS
 62
     0
 48
50.0
100
AcDbPoint
 10
6582.164931848215
 20
5219.246300175035
 30
0.0
  0
ENDBLK
  5
1DAA4
330
1DA9A
100
AcDbEntity
  8
0
 48
50.0
100
AcDbBlockEnd
  0
BLOCK
  5
1DAB0
330
1DAA5
100
AcDbEntity
  8
0
 48
50.0
100
AcDbBlockBegin
  2
*D9
 70
     1
 10
0.0
 20
0.0
 30
0.0
  3
*D9
  1

  0
LINE
  5
203AB
330
1DAA5
100
AcDbEntity
  8
寸法
 62
     0
 48
50.0
370
    -2
100
AcDbLine
 10
7376.600000000006
 20
5417.246300175037
 30
0.0
 11
6767.657733986176
 21
5417.246300175037
 31
0.0
  0
LINE
  5
203AC
330
1DAA5
100
AcDbEntity
  8
寸法
 62
     0
 48
50.0
370
    -2
100
AcDbLine
 10
7303.599999999999
 20
5219.246300175035
 30
0.0
 11
6767.657733986176
 21
5219.246300175035
 31
0.0
  0
LINE
  5
203AD
330
1DAA5
100
AcDbEntity
  8
寸法
 62
     0
 48
50.0
370
    -2
100
AcDbLine
 10
6827.657733986177
 20
5417.246300175037
 30
0.0
 11
6827.657733986177
 21
5219.246300175035
 31
0.0
  0
LINE
  5
203AE
330
1DAA5
100
AcDbEntity
  8
寸法
 62
     0
 48
50.0
370
    -2
100
AcDbLine
 10
6827.657733986177
 20
5219.246300175035
 30
0.0
 11
6827.657733986177
 21
4846.826980515722
 31
0.0
  0
INSERT
  5
203AF
330
1DAA5
100
AcDbEntity
  8
寸法
 62
     0
 48
50.0
370
    -2
100
AcDbBlockReference
  2
_DOTSMALL
 10
6827.657733986177
 20
5417.246300175037
 30
0.0
 41
100.0
 42
100.0
 43
100.0
 50
90.0
  0
INSERT
  5
203B0
330
1DAA5
100
AcDbEntity
  8
寸法
 62
     0
 48
50.0
370
    -2
100
AcDbBlockReference
  2
_DOTSMALL
 10
6827.657733986177
 20
5219.246300175035
 30
0.0
 41
100.0
 42
100.0
 43
100.0
 50
270.0
  0
MTEXT
  5
203B1
330
1DAA5
100
AcDbEntity
  8
寸法
 62
     7
 48
50.0
100
AcDbMText
 10
6727.657733986176
 20
4983.03664034538
 30
0.0
 40
120.0
 41
0.0
 71
     5
 72
     1
  1
\A1;198
  7
STYLE1
 11
0.0000000000000001
 21
1.0
 31
0.0
 73
     1
 44
1.0
1001
ACAD
1000
MTEXTBEGIN
1070
    73
1070
     1
1070
    44
1040
1.0
1070
    74
1070
     0
1000
MTEXTEND
  0
POINT
  5
203B2
330
1DAA5
100
AcDbEntity
  8
DEFPOINTS
 62
     0
 48
50.0
100
AcDbPoint
 10
7396.600000000006
 20
5417.246300175037
 30
0.0
  0
POINT
  5
203B3
330
1DAA5
100
AcDbEntity
  8
DEFPOINTS
 62
     0
 48
50.0
100
AcDbPoint
 10
7323.599999999998
 20
5219.246300175035
 30
0.0
  0
POINT
  5
203B4
330
1DAA5
100
AcDbEntity
  8
DEFPOINTS
 62
     0
 48
50.0
100
AcDbPoint
 10
6827.657733986177
 20
5219.246300175035
 30
0.0
  0
ENDBLK
  5
1DAB1
330
1DAA5
100
AcDbEntity
  8
0
 48
50.0
100
AcDbBlockEnd
  0
BLOCK
  5
1DABC
330
1DAB2
100
AcDbEntity
  8
0
 48
50.0
100
AcDbBlockBegin
  2
*D10
 70
     1
 10
0.0
 20
0.0
 30
0.0
  3
*D10
  1

  0
LINE
  5
203A0
330
1DAB2
100
AcDbEntity
  8
寸法
 62
     0
 48
50.0
370
    -2
100
AcDbLine
 10
7303.599999999999
 20
5219.246300175035
 30
0.0
 11
6522.164931848211
 21
5219.246300175035
 31
0.0
  0
LINE
  5
203A1
330
1DAB2
100
AcDbEntity
  8
寸法
 62
     0
 48
50.0
370
    -2
100
AcDbLine
 10
6807.657733986177
 20
5164.246300175035
 30
0.0
 11
6522.164931848211
 21
5164.246300175035
 31
0.0
  0
LINE
  5
203A2
330
1DAB2
100
AcDbEntity
  8
寸法
 62
     0
 48
50.0
370
    -2
100
AcDbLine
 10
6582.16493184821
 20
5219.246300175035
 30
0.0
 11
6582.16493184821
 21
5319.246300175034
 31
0.0
  0
LINE
  5
203A3
330
1DAB2
100
AcDbEntity
  8
寸法
 62
     0
 48
50.0
370
    -2
100
AcDbLine
 10
6582.16493184821
 20
5164.246300175035
 30
0.0
 11
6582.16493184821
 21
5064.246300175035
 31
0.0
  0
LINE
  5
203A4
330
1DAB2
100
AcDbEntity
  8
寸法
 62
     0
 48
50.0
370
    -2
100
AcDbLine
 10
6582.16493184821
 20
5219.246300175035
 30
0.0
 11
6582.16493184821
 21
5164.246300175035
 31
0.0
  0
INSERT
  5
203A5
330
1DAB2
100
AcDbEntity
  8
寸法
 62
     0
 48
50.0
370
    -2
100
AcDbBlockReference
  2
_DOTSMALL
 10
6582.16493184821
 20
5219.246300175035
 30
0.0
 41
100.0
 42
100.0
 43
100.0
 50
270.0
  0
INSERT
  5
203A6
330
1DAB2
100
AcDbEntity
  8
寸法
 62
     0
 48
50.0
370
    -2
100
AcDbBlockReference
  2
_DOTSMALL
 10
6582.16493184821
 20
5164.246300175035
 30
0.0
 41
100.0
 42
100.0
 43
100.0
 50
90.0
  0
MTEXT
  5
203A7
330
1DAB2
100
AcDbEntity
  8
寸法
 62
     7
 48
50.0
100
AcDbMText
 10
6482.16493184821
 20
5191.746300175037
 30
0.0
 40
120.0
 41
0.0
 71
     5
 72
     1
  1
\A1;b
  7
STYLE1
 11
0.0000000000000001
 21
1.0
 31
0.0
 73
     1
 44
1.0
1001
ACAD
1000
MTEXTBEGIN
1070
    73
1070
     1
1070
    44
1040
1.0
1070
    74
1070
     0
1000
MTEXTEND
  0
POINT
  5
203A8
330
1DAB2
100
AcDbEntity
  8
DEFPOINTS
 62
     0
 48
50.0
100
AcDbPoint
 10
7323.599999999998
 20
5219.246300175035
 30
0.0
  0
POINT
  5
203A9
330
1DAB2
100
AcDbEntity
  8
DEFPOINTS
 62
     0
 48
50.0
100
AcDbPoint
 10
6827.657733986177
 20
5164.246300175035
 30
0.0
  0
POINT
  5
203AA
330
1DAB2
100
AcDbEntity
  8
DEFPOINTS
 62
     0
 48
50.0
100
AcDbPoint
 10
6582.16493184821
 20
5164.246300175035
 30
0.0
  0
ENDBLK
  5
1DABD
330
1DAB2
100
AcDbEntity
  8
0
 48
50.0
100
AcDbBlockEnd
  0
BLOCK
  5
1DAC9
330
1DABE
100
AcDbEntity
  8
0
 48
50.0
100
AcDbBlockBegin
  2
*D11
 70
     1
 10
0.0
 20
0.0
 30
0.0
  3
*D11
  1

  0
LINE
  5
20396
330
1DABE
100
AcDbEntity
  8
寸法
 62
     0
 48
50.0
370
    -2
100
AcDbLine
 10
7303.599999999999
 20
7019.246300175035
 30
0.0
 11
6767.657733986178
 21
7019.246300175035
 31
0.0
  0
LINE
  5
20397
330
1DABE
100
AcDbEntity
  8
寸法
 62
     0
 48
50.0
370
    -2
100
AcDbLine
 10
7376.599999999999
 20
6896.246300175035
 30
0.0
 11
6767.657733986178
 21
6896.246300175035
 31
0.0
  0
LINE
  5
20398
330
1DABE
100
AcDbEntity
  8
寸法
 62
     0
 48
50.0
370
    -2
100
AcDbLine
 10
6827.657733986177
 20
6896.246300175035
 30
0.0
 11
6827.657733986177
 21
7019.246300175035
 31
0.0
  0
LINE
  5
20399
330
1DABE
100
AcDbEntity
  8
寸法
 62
     0
 48
50.0
370
    -2
100
AcDbLine
 10
6827.657733986177
 20
7019.246300175035
 30
0.0
 11
6827.657733986177
 21
7396.216862923512
 31
0.0
  0
INSERT
  5
2039A
330
1DABE
100
AcDbEntity
  8
寸法
 62
     0
 48
50.0
370
    -2
100
AcDbBlockReference
  2
_DOTSMALL
 10
6827.657733986177
 20
6896.246300175035
 30
0.0
 41
100.0
 42
100.0
 43
100.0
 50
270.0
  0
INSERT
  5
2039B
330
1DABE
100
AcDbEntity
  8
寸法
 62
     0
 48
50.0
370
    -2
100
AcDbBlockReference
  2
_DOTSMALL
 10
6827.657733986177
 20
7019.246300175035
 30
0.0
 41
100.0
 42
100.0
 43
100.0
 50
90.0
  0
MTEXT
  5
2039C
330
1DABE
100
AcDbEntity
  8
寸法
 62
     7
 48
50.0
100
AcDbMText
 10
6727.645922962555
 20
7257.731581549276
 30
0.0
 40
120.0
 41
0.0
 71
     5
 72
     1
  1
\A1;123
  7
STYLE1
 11
0.0000000000000001
 21
1.0
 31
0.0
 73
     1
 44
1.0
1001
ACAD
1000
MTEXTBEGIN
1070
    73
1070
     1
1070
    44
1040
1.0
1070
    74
1070
     0
1000
MTEXTEND
  0
POINT
  5
2039D
330
1DABE
100
AcDbEntity
  8
DEFPOINTS
 62
     0
 48
50.0
100
AcDbPoint
 10
7323.599999999998
 20
7019.246300175035
 30
0.0
  0
POINT
  5
2039E
330
1DABE
100
AcDbEntity
  8
DEFPOINTS
 62
     0
 48
50.0
100
AcDbPoint
 10
7396.599999999999
 20
6896.246300175035
 30
0.0
  0
POINT
  5
2039F
330
1DABE
100
AcDbEntity
  8
DEFPOINTS
 62
     0
 48
50.0
100
AcDbPoint
 10
6827.657733986177
 20
6896.246300175035
 30
0.0
  0
ENDBLK
  5
1DACA
330
1DABE
100
AcDbEntity
  8
0
 48
50.0
100
AcDbBlockEnd
  0
BLOCK
  5
1DAD7
330
1DACB
100
AcDbEntity
  8
0
 48
50.0
100
AcDbBlockBegin
  2
*D12
 70
     1
 10
0.0
 20
0.0
 30
0.0
  3
*D12
  1

  0
LINE
  5
2038B
330
1DACB
100
AcDbEntity
  8
寸法
 62
     0
 48
50.0
370
    -2
100
AcDbLine
 10
6807.657733986179
 20
7094.246300175035
 30
0.0
 11
6522.164931848211
 21
7094.246300175035
 31
0.0
  0
LINE
  5
2038C
330
1DACB
100
AcDbEntity
  8
寸法
 62
     0
 48
50.0
370
    -2
100
AcDbLine
 10
7303.599999999999
 20
7019.246300175035
 30
0.0
 11
6522.164931848211
 21
7019.246300175035
 31
0.0
  0
LINE
  5
2038D
330
1DACB
100
AcDbEntity
  8
寸法
 62
     0
 48
50.0
370
    -2
100
AcDbLine
 10
6582.16493184821
 20
7094.246300175035
 30
0.0
 11
6582.16493184821
 21
7194.246300175035
 31
0.0
  0
LINE
  5
2038E
330
1DACB
100
AcDbEntity
  8
寸法
 62
     0
 48
50.0
370
    -2
100
AcDbLine
 10
6582.16493184821
 20
7019.246300175035
 30
0.0
 11
6582.16493184821
 21
6919.246300175036
 31
0.0
  0
LINE
  5
2038F
330
1DACB
100
AcDbEntity
  8
寸法
 62
     0
 48
50.0
370
    -2
100
AcDbLine
 10
6582.16493184821
 20
7094.246300175035
 30
0.0
 11
6582.16493184821
 21
7019.246300175035
 31
0.0
  0
INSERT
  5
20390
330
1DACB
100
AcDbEntity
  8
寸法
 62
     0
 48
50.0
370
    -2
100
AcDbBlockReference
  2
_DOTSMALL
 10
6582.16493184821
 20
7094.246300175035
 30
0.0
 41
100.0
 42
100.0
 43
100.0
 50
270.0
  0
INSERT
  5
20391
330
1DACB
100
AcDbEntity
  8
寸法
 62
     0
 48
50.0
370
    -2
100
AcDbBlockReference
  2
_DOTSMALL
 10
6582.16493184821
 20
7019.246300175035
 30
0.0
 41
100.0
 42
100.0
 43
100.0
 50
90.0
  0
MTEXT
  5
20392
330
1DACB
100
AcDbEntity
  8
寸法
 62
     7
 48
50.0
100
AcDbMText
 10
6482.164931848209
 20
7056.746300175037
 30
0.0
 40
120.0
 41
0.0
 71
     5
 72
     1
  1
\A1;c
  7
STYLE1
 11
0.0000000000000001
 21
1.0
 31
0.0
 73
     1
 44
1.0
1001
ACAD
1000
MTEXTBEGIN
1070
    73
1070
     1
1070
    44
1040
1.0
1070
    74
1070
     0
1000
MTEXTEND
  0
POINT
  5
20393
330
1DACB
100
AcDbEntity
  8
DEFPOINTS
 62
     0
 48
50.0
100
AcDbPoint
 10
6827.657733986177
 20
7094.246300175035
 30
0.0
  0
POINT
  5
20394
330
1DACB
100
AcDbEntity
  8
DEFPOINTS
 62
     0
 48
50.0
100
AcDbPoint
 10
7323.599999999998
 20
7019.246300175035
 30
0.0
  0
POINT
  5
20395
330
1DACB
100
AcDbEntity
  8
DEFPOINTS
 62
     0
 48
50.0
100
AcDbPoint
 10
6582.16493184821
 20
7019.246300175035
 30
0.0
  0
ENDBLK
  5
1DAD8
330
1DACB
100
AcDbEntity
  8
0
 48
50.0
100
AcDbBlockEnd
  0
BLOCK
  5
1DAE4
330
1DAD9
100
AcDbEntity
  8
0
 48
50.0
100
AcDbBlockBegin
  2
*D13
 70
     1
 10
0.0
 20
0.0
 30
0.0
  3
*D13
  1

  0
LINE
  5
20381
330
1DAD9
100
AcDbEntity
  8
寸法
 62
     0
 48
50.0
370
    -2
100
AcDbLine
 10
8863.599999999998
 20
7039.246300175034
 30
0.0
 11
8863.599999999998
 21
7884.306910564965
 31
0.0
  0
LINE
  5
20382
330
1DAD9
100
AcDbEntity
  8
寸法
 62
     0
 48
50.0
370
    -2
100
AcDbLine
 10
8740.599999999998
 20
6966.246300175035
 30
0.0
 11
8740.599999999998
 21
7884.306910564965
 31
0.0
  0
LINE
  5
20383
330
1DAD9
100
AcDbEntity
  8
寸法
 62
     0
 48
50.0
370
    -2
100
AcDbLine
 10
8740.599999999998
 20
7824.306910564965
 30
0.0
 11
8863.599999999998
 21
7824.306910564965
 31
0.0
  0
LINE
  5
20384
330
1DAD9
100
AcDbEntity
  8
寸法
 62
     0
 48
50.0
370
    -2
100
AcDbLine
 10
8863.599999999998
 20
7824.306910564965
 30
0.0
 11
9240.570562748475
 21
7824.306910564965
 31
0.0
  0
INSERT
  5
20385
330
1DAD9
100
AcDbEntity
  8
寸法
 62
     0
 48
50.0
370
    -2
100
AcDbBlockReference
  2
_DOTSMALL
 10
8740.599999999998
 20
7824.306910564965
 30
0.0
 41
100.0
 42
100.0
 43
100.0
 50
180.0
  0
INSERT
  5
20386
330
1DAD9
100
AcDbEntity
  8
寸法
 62
     0
 48
50.0
370
    -2
100
AcDbBlockReference
  2
_DOTSMALL
 10
8863.599999999998
 20
7824.306910564965
 30
0.0
 41
100.0
 42
100.0
 43
100.0
  0
MTEXT
  5
20387
330
1DAD9
100
AcDbEntity
  8
寸法
 62
     7
 48
50.0
100
AcDbMText
 10
9102.085281374236
 20
7924.318721588587
 30
0.0
 40
120.0
 41
0.0
 71
     5
 72
     1
  1
\A1;123
  7
STYLE1
 73
     1
 44
1.0
1001
ACAD
1000
MTEXTBEGIN
1070
    73
1070
     1
1070
    44
1040
1.0
1070
    74
1070
     0
1000
MTEXTEND
  0
POINT
  5
20388
330
1DAD9
100
AcDbEntity
  8
DEFPOINTS
 62
     0
 48
50.0
100
AcDbPoint
 10
8863.599999999998
 20
7019.246300175035
 30
0.0
  0
POINT
  5
20389
330
1DAD9
100
AcDbEntity
  8
DEFPOINTS
 62
     0
 48
50.0
100
AcDbPoint
 10
8740.599999999998
 20
6946.246300175035
 30
0.0
  0
POINT
  5
2038A
330
1DAD9
100
AcDbEntity
  8
DEFPOINTS
 62
     0
 48
50.0
100
AcDbPoint
 10
8740.599999999998
 20
7824.306910564965
 30
0.0
  0
ENDBLK
  5
1DAE5
330
1DAD9
100
AcDbEntity
  8
0
 48
50.0
100
AcDbBlockEnd
  0
BLOCK
  5
1DAF1
330
1DAE6
100
AcDbEntity
  8
0
 48
50.0
100
AcDbBlockBegin
  2
*D14
 70
     1
 10
0.0
 20
0.0
 30
0.0
  3
*D14
  1

  0
LINE
  5
20376
330
1DAE6
100
AcDbEntity
  8
寸法
 62
     0
 48
50.0
370
    -2
100
AcDbLine
 10
8863.599999999998
 20
7039.246300175034
 30
0.0
 11
8863.599999999998
 21
8096.767606081801
 31
0.0
  0
LINE
  5
20377
330
1DAE6
100
AcDbEntity
  8
寸法
 62
     0
 48
50.0
370
    -2
100
AcDbLine
 10
8908.599999999998
 20
7844.306910564966
 30
0.0
 11
8908.599999999998
 21
8096.767606081801
 31
0.0
  0
LINE
  5
20378
330
1DAE6
100
AcDbEntity
  8
寸法
 62
     0
 48
50.0
370
    -2
100
AcDbLine
 10
8863.599999999998
 20
8036.7676060818
 30
0.0
 11
8763.599999999998
 21
8036.7676060818
 31
0.0
  0
LINE
  5
20379
330
1DAE6
100
AcDbEntity
  8
寸法
 62
     0
 48
50.0
370
    -2
100
AcDbLine
 10
8908.599999999998
 20
8036.7676060818
 30
0.0
 11
9008.599999999999
 21
8036.7676060818
 31
0.0
  0
LINE
  5
2037A
330
1DAE6
100
AcDbEntity
  8
寸法
 62
     0
 48
50.0
370
    -2
100
AcDbLine
 10
8863.599999999998
 20
8036.7676060818
 30
0.0
 11
8908.599999999998
 21
8036.7676060818
 31
0.0
  0
INSERT
  5
2037B
330
1DAE6
100
AcDbEntity
  8
寸法
 62
     0
 48
50.0
370
    -2
100
AcDbBlockReference
  2
_DOTSMALL
 10
8863.599999999998
 20
8036.7676060818
 30
0.0
 41
100.0
 42
100.0
 43
100.0
  0
INSERT
  5
2037C
330
1DAE6
100
AcDbEntity
  8
寸法
 62
     0
 48
50.0
370
    -2
100
AcDbBlockReference
  2
_DOTSMALL
 10
8908.599999999998
 20
8036.7676060818
 30
0.0
 41
100.0
 42
100.0
 43
100.0
 50
180.0
  0
MTEXT
  5
2037D
330
1DAE6
100
AcDbEntity
  8
寸法
 62
     7
 48
50.0
100
AcDbMText
 10
8886.099999999998
 20
8136.767606081802
 30
0.0
 40
120.0
 41
0.0
 71
     5
 72
     1
  1
\A1;a
  7
STYLE1
 73
     1
 44
1.0
1001
ACAD
1000
MTEXTBEGIN
1070
    73
1070
     1
1070
    44
1040
1.0
1070
    74
1070
     0
1000
MTEXTEND
  0
POINT
  5
2037E
330
1DAE6
100
AcDbEntity
  8
DEFPOINTS
 62
     0
 48
50.0
100
AcDbPoint
 10
8863.599999999998
 20
7019.246300175035
 30
0.0
  0
POINT
  5
2037F
330
1DAE6
100
AcDbEntity
  8
DEFPOINTS
 62
     0
 48
50.0
100
AcDbPoint
 10
8908.599999999998
 20
7824.306910564965
 30
0.0
  0
POINT
  5
20380
330
1DAE6
100
AcDbEntity
  8
DEFPOINTS
 62
     0
 48
50.0
100
AcDbPoint
 10
8908.599999999998
 20
8036.7676060818
 30
0.0
  0
ENDBLK
  5
1DAF2
330
1DAE6
100
AcDbEntity
  8
0
 48
50.0
100
AcDbBlockEnd
  0
BLOCK
  5
1DAFE
330
1DAF3
100
AcDbEntity
  8
0
 48
50.0
100
AcDbBlockBegin
  2
*D15
 70
     1
 10
0.0
 20
0.0
 30
0.0
  3
*D15
  1

  0
LINE
  5
2036C
330
1DAF3
100
AcDbEntity
  8
寸法
 62
     0
 48
50.0
370
    -2
100
AcDbLine
 10
8863.599999999998
 20
6769.246300175035
 30
0.0
 11
8863.599999999998
 21
6459.236577146963
 31
0.0
  0
LINE
  5
2036D
330
1DAF3
100
AcDbEntity
  8
寸法
 62
     0
 48
50.0
370
    -2
100
AcDbLine
 10
8743.599999999998
 20
6769.246300175035
 30
0.0
 11
8743.599999999998
 21
6459.236577146963
 31
0.0
  0
LINE
  5
2036E
330
1DAF3
100
AcDbEntity
  8
寸法
 62
     0
 48
50.0
370
    -2
100
AcDbLine
 10
8743.599999999998
 20
6519.236577146964
 30
0.0
 11
8863.599999999998
 21
6519.236577146964
 31
0.0
  0
LINE
  5
2036F
330
1DAF3
100
AcDbEntity
  8
寸法
 62
     0
 48
50.0
370
    -2
100
AcDbLine
 10
8863.599999999998
 20
6519.236577146964
 30
0.0
 11
9235.694488188975
 21
6519.236577146964
 31
0.0
  0
INSERT
  5
20370
330
1DAF3
100
AcDbEntity
  8
寸法
 62
     0
 48
50.0
370
    -2
100
AcDbBlockReference
  2
_DOTSMALL
 10
8743.599999999998
 20
6519.236577146964
 30
0.0
 41
100.0
 42
100.0
 43
100.0
 50
180.0
  0
INSERT
  5
20371
330
1DAF3
100
AcDbEntity
  8
寸法
 62
     0
 48
50.0
370
    -2
100
AcDbBlockReference
  2
_DOTSMALL
 10
8863.599999999998
 20
6519.236577146964
 30
0.0
 41
100.0
 42
100.0
 43
100.0
  0
MTEXT
  5
20372
330
1DAF3
100
AcDbEntity
  8
寸法
 62
     7
 48
50.0
100
AcDbMText
 10
9099.647244094487
 20
6619.248388170586
 30
0.0
 40
120.0
 41
0.0
 71
     5
 72
     1
  1
\A1;120
  7
STYLE1
 73
     1
 44
1.0
1001
ACAD
1000
MTEXTBEGIN
1070
    73
1070
     1
1070
    44
1040
1.0
1070
    74
1070
     0
1000
MTEXTEND
  0
POINT
  5
20373
330
1DAF3
100
AcDbEntity
  8
DEFPOINTS
 62
     0
 48
50.0
100
AcDbPoint
 10
8863.599999999998
 20
6789.246300175034
 30
0.0
  0
POINT
  5
20374
330
1DAF3
100
AcDbEntity
  8
DEFPOINTS
 62
     0
 48
50.0
100
AcDbPoint
 10
8743.599999999998
 20
6789.246300175036
 30
0.0
  0
POINT
  5
20375
330
1DAF3
100
AcDbEntity
  8
DEFPOINTS
 62
     0
 48
50.0
100
AcDbPoint
 10
8743.599999999998
 20
6519.236577146964
 30
0.0
  0
ENDBLK
  5
1DAFF
330
1DAF3
100
AcDbEntity
  8
0
 48
50.0
100
AcDbBlockEnd
  0
BLOCK
  5
1DB0B
330
1DB00
100
AcDbEntity
  8
0
 48
50.0
100
AcDbBlockBegin
  2
*D16
 70
     1
 10
0.0
 20
0.0
 30
0.0
  3
*D16
  1

  0
LINE
  5
20362
330
1DB00
100
AcDbEntity
  8
寸法
 62
     0
 48
50.0
370
    -2
100
AcDbLine
 10
7573.599999999998
 20
6899.246300175035
 30
0.0
 11
7846.890767703563
 21
6899.246300175035
 31
0.0
  0
LINE
  5
20363
330
1DB00
100
AcDbEntity
  8
寸法
 62
     0
 48
50.0
370
    -2
100
AcDbLine
 10
7573.599999999998
 20
6789.246300175031
 30
0.0
 11
7846.890767703563
 21
6789.246300175031
 31
0.0
  0
LINE
  5
20364
330
1DB00
100
AcDbEntity
  8
寸法
 62
     0
 48
50.0
370
    -2
100
AcDbLine
 10
7786.890767703562
 20
6899.246300175035
 30
0.0
 11
7786.890767703562
 21
6789.246300175031
 31
0.0
  0
LINE
  5
20365
330
1DB00
100
AcDbEntity
  8
寸法
 62
     0
 48
50.0
370
    -2
100
AcDbLine
 10
7786.890767703562
 20
6789.246300175031
 30
0.0
 11
7786.890767703562
 21
6429.151811986056
 31
0.0
  0
INSERT
  5
20366
330
1DB00
100
AcDbEntity
  8
寸法
 62
     0
 48
50.0
370
    -2
100
AcDbBlockReference
  2
_DOTSMALL
 10
7786.890767703562
 20
6899.246300175035
 30
0.0
 41
100.0
 42
100.0
 43
100.0
 50
90.0
  0
INSERT
  5
20367
330
1DB00
100
AcDbEntity
  8
寸法
 62
     0
 48
50.0
370
    -2
100
AcDbBlockReference
  2
_DOTSMALL
 10
7786.890767703562
 20
6789.246300175031
 30
0.0
 41
100.0
 42
100.0
 43
100.0
 50
270.0
  0
MTEXT
  5
20368
330
1DB00
100
AcDbEntity
  8
寸法
 62
     7
 48
50.0
100
AcDbMText
 10
7686.890767703561
 20
6553.199056080543
 30
0.0
 40
120.0
 41
0.0
 71
     5
 72
     1
  1
\A1;110
  7
STYLE1
 11
0.0000000000000001
 21
1.0
 31
0.0
 73
     1
 44
1.0
1001
ACAD
1000
MTEXTBEGIN
1070
    73
1070
     1
1070
    44
1040
1.0
1070
    74
1070
     0
1000
MTEXTEND
  0
POINT
  5
20369
330
1DB00
100
AcDbEntity
  8
DEFPOINTS
 62
     0
 48
50.0
100
AcDbPoint
 10
7553.599999999999
 20
6899.246300175035
 30
0.0
  0
POINT
  5
2036A
330
1DB00
100
AcDbEntity
  8
DEFPOINTS
 62
     0
 48
50.0
100
AcDbPoint
 10
7553.599999999999
 20
6789.246300175031
 30
0.0
  0
POINT
  5
2036B
330
1DB00
100
AcDbEntity
  8
DEFPOINTS
 62
     0
 48
50.0
100
AcDbPoint
 10
7786.890767703562
 20
6789.246300175031
 30
0.0
  0
ENDBLK
  5
1DB0C
330
1DB00
100
AcDbEntity
  8
0
 48
50.0
100
AcDbBlockEnd
  0
BLOCK
  5
1DB25
330
1DB1A
100
AcDbEntity
  8
0
 48
50.0
100
AcDbBlockBegin
  2
*D17
 70
     1
 10
0.0
 20
0.0
 30
0.0
  3
*D17
  1

  0
LINE
  5
20358
330
1DB1A
100
AcDbEntity
  8
寸法
 62
     0
 48
50.0
370
    -2
100
AcDbLine
 10
7545.599999999999
 20
7019.246300175033
 30
0.0
 11
7846.890767703563
 21
7019.246300175033
 31
0.0
  0
LINE
  5
20359
330
1DB1A
100
AcDbEntity
  8
寸法
 62
     0
 48
50.0
370
    -2
100
AcDbLine
 10
7573.599999999998
 20
6899.246300175035
 30
0.0
 11
7846.890767703563
 21
6899.246300175035
 31
0.0
  0
LINE
  5
2035A
330
1DB1A
100
AcDbEntity
  8
寸法
 62
     0
 48
50.0
370
    -2
100
AcDbLine
 10
7786.890767703562
 20
6899.246300175035
 30
0.0
 11
7786.890767703562
 21
7019.246300175033
 31
0.0
  0
LINE
  5
2035B
330
1DB1A
100
AcDbEntity
  8
寸法
 62
     0
 48
50.0
370
    -2
100
AcDbLine
 10
7786.890767703562
 20
7019.246300175033
 30
0.0
 11
7786.890767703562
 21
7391.340788364011
 31
0.0
  0
INSERT
  5
2035C
330
1DB1A
100
AcDbEntity
  8
寸法
 62
     0
 48
50.0
370
    -2
100
AcDbBlockReference
  2
_DOTSMALL
 10
7786.890767703562
 20
6899.246300175035
 30
0.0
 41
100.0
 42
100.0
 43
100.0
 50
270.0
  0
INSERT
  5
2035D
330
1DB1A
100
AcDbEntity
  8
寸法
 62
     0
 48
50.0
370
    -2
100
AcDbBlockReference
  2
_DOTSMALL
 10
7786.890767703562
 20
7019.246300175033
 30
0.0
 41
100.0
 42
100.0
 43
100.0
 50
90.0
  0
MTEXT
  5
2035E
330
1DB1A
100
AcDbEntity
  8
寸法
 62
     7
 48
50.0
100
AcDbMText
 10
7686.878956679939
 20
7255.293544269524
 30
0.0
 40
120.0
 41
0.0
 71
     5
 72
     1
  1
\A1;120
  7
STYLE1
 11
0.0000000000000001
 21
1.0
 31
0.0
 73
     1
 44
1.0
1001
ACAD
1000
MTEXTBEGIN
1070
    73
1070
     1
1070
    44
1040
1.0
1070
    74
1070
     0
1000
MTEXTEND
  0
POINT
  5
2035F
330
1DB1A
100
AcDbEntity
  8
DEFPOINTS
 62
     0
 48
50.0
100
AcDbPoint
 10
7525.599999999998
 20
7019.246300175033
 30
0.0
  0
POINT
  5
20360
330
1DB1A
100
AcDbEntity
  8
DEFPOINTS
 62
     0
 48
50.0
100
AcDbPoint
 10
7553.599999999999
 20
6899.246300175035
 30
0.0
  0
POINT
  5
20361
330
1DB1A
100
AcDbEntity
  8
DEFPOINTS
 62
     0
 48
50.0
100
AcDbPoint
 10
7786.890767703562
 20
6899.246300175035
 30
0.0
  0
ENDBLK
  5
1DB26
330
1DB1A
100
AcDbEntity
  8
0
 48
50.0
100
AcDbBlockEnd
  0
BLOCK
  5
1FA70
330
1FA66
100
AcDbEntity
  8
0
 48
50.0
100
AcDbBlockBegin
  2
*D18
 70
     1
 10
0.0
 20
0.0
 30
0.0
  3
*D18
  1

  0
LINE
  5
2034F
330
1FA66
100
AcDbEntity
  8
寸法
 62
     0
 48
50.0
370
    -2
100
AcDbLine
 10
8213.599999999997
 20
7019.246300175035
 30
0.0
 11
8438.513450988699
 21
7019.246300175035
 31
0.0
  0
LINE
  5
20350
330
1FA66
100
AcDbEntity
  8
寸法
 62
     0
 48
50.0
370
    -2
100
AcDbLine
 10
8163.599999999998
 20
6156.246300175035
 30
0.0
 11
8438.513450988699
 21
6156.246300175035
 31
0.0
  0
LINE
  5
20351
330
1FA66
100
AcDbEntity
  8
寸法
 62
     0
 48
50.0
370
    -2
100
AcDbLine
 10
8378.5134509887
 20
7019.246300175035
 30
0.0
 11
8378.5134509887
 21
6156.246300175035
 31
0.0
  0
INSERT
  5
20352
330
1FA66
100
AcDbEntity
  8
寸法
 62
     0
 48
50.0
370
    -2
100
AcDbBlockReference
  2
_DOTSMALL
 10
8378.5134509887
 20
7019.246300175035
 30
0.0
 41
100.0
 42
100.0
 43
100.0
 50
90.0
  0
INSERT
  5
20353
330
1FA66
100
AcDbEntity
  8
寸法
 62
     0
 48
50.0
370
    -2
100
AcDbBlockReference
  2
_DOTSMALL
 10
8378.5134509887
 20
6156.246300175035
 30
0.0
 41
100.0
 42
100.0
 43
100.0
 50
270.0
  0
MTEXT
  5
20354
330
1FA66
100
AcDbEntity
  8
寸法
 62
     7
 48
50.0
100
AcDbMText
 10
8278.513450988697
 20
6587.746300175036
 30
0.0
 40
120.0
 41
0.0
 71
     5
 72
     1
  1
\A1;863
  7
STYLE1
 11
0.0000000000000001
 21
1.0
 31
0.0
 73
     1
 44
1.0
1001
ACAD
1000
MTEXTBEGIN
1070
    73
1070
     1
1070
    44
1040
1.0
1070
    74
1070
     0
1000
MTEXTEND
  0
POINT
  5
20355
330
1FA66
100
AcDbEntity
  8
DEFPOINTS
 62
     0
 48
50.0
100
AcDbPoint
 10
8193.599999999999
 20
7019.246300175035
 30
0.0
  0
POINT
  5
20356
330
1FA66
100
AcDbEntity
  8
DEFPOINTS
 62
     0
 48
50.0
100
AcDbPoint
 10
8143.599999999999
 20
6156.246300175035
 30
0.0
  0
POINT
  5
20357
330
1FA66
100
AcDbEntity
  8
DEFPOINTS
 62
     0
 48
50.0
100
AcDbPoint
 10
8378.5134509887
 20
6156.246300175035
 30
0.0
  0
ENDBLK
  5
1FA71
330
1FA66
100
AcDbEntity
  8
0
 48
50.0
100
AcDbBlockEnd
  0
BLOCK
  5
1FA7D
330
1FA73
100
AcDbEntity
  8
0
 48
50.0
100
AcDbBlockBegin
  2
*D19
 70
     1
 10
0.0
 20
0.0
 30
0.0
  3
*D19
  1

  0
LINE
  5
20346
330
1FA73
100
AcDbEntity
  8
寸法
 62
     0
 48
50.0
370
    -2
100
AcDbLine
 10
8163.599999999998
 20
6156.246300175035
 30
0.0
 11
8438.513450988699
 21
6156.246300175035
 31
0.0
  0
LINE
  5
20347
330
1FA73
100
AcDbEntity
  8
寸法
 62
     0
 48
50.0
370
    -2
100
AcDbLine
 10
8213.600000000013
 20
5219.246300175043
 30
0.0
 11
8438.513450988699
 21
5219.246300175043
 31
0.0
  0
LINE
  5
20348
330
1FA73
100
AcDbEntity
  8
寸法
 62
     0
 48
50.0
370
    -2
100
AcDbLine
 10
8378.5134509887
 20
6156.246300175035
 30
0.0
 11
8378.5134509887
 21
5219.246300175043
 31
0.0
  0
INSERT
  5
20349
330
1FA73
100
AcDbEntity
  8
寸法
 62
     0
 48
50.0
370
    -2
100
AcDbBlockReference
  2
_DOTSMALL
 10
8378.5134509887
 20
6156.246300175035
 30
0.0
 41
100.0
 42
100.0
 43
100.0
 50
90.0
  0
INSERT
  5
2034A
330
1FA73
100
AcDbEntity
  8
寸法
 62
     0
 48
50.0
370
    -2
100
AcDbBlockReference
  2
_DOTSMALL
 10
8378.5134509887
 20
5219.246300175043
 30
0.0
 41
100.0
 42
100.0
 43
100.0
 50
270.0
  0
MTEXT
  5
2034B
330
1FA73
100
AcDbEntity
  8
寸法
 62
     7
 48
50.0
100
AcDbMText
 10
8278.513450988697
 20
5687.746300175041
 30
0.0
 40
120.0
 41
0.0
 71
     5
 72
     1
  1
\A1;937
  7
STYLE1
 11
0.0000000000000001
 21
1.0
 31
0.0
 73
     1
 44
1.0
1001
ACAD
1000
MTEXTBEGIN
1070
    73
1070
     1
1070
    44
1040
1.0
1070
    74
1070
     0
1000
MTEXTEND
  0
POINT
  5
2034C
330
1FA73
100
AcDbEntity
  8
DEFPOINTS
 62
     0
 48
50.0
100
AcDbPoint
 10
8143.599999999999
 20
6156.246300175035
 30
0.0
  0
POINT
  5
2034D
330
1FA73
100
AcDbEntity
  8
DEFPOINTS
 62
     0
 48
50.0
100
AcDbPoint
 10
8193.600000000014
 20
5219.246300175043
 30
0.0
  0
POINT
  5
2034E
330
1FA73
100
AcDbEntity
  8
DEFPOINTS
 62
     0
 48
50.0
100
AcDbPoint
 10
8378.5134509887
 20
5219.246300175043
 30
0.0
  0
ENDBLK
  5
1FA7E
330
1FA73
100
AcDbEntity
  8
0
 48
50.0
100
AcDbBlockEnd
  0
BLOCK
  5
1FAD6
330
1FACC
100
AcDbEntity
  8
0
 48
50.0
100
AcDbBlockBegin
  2
*D20
 70
     1
 10
0.0
 20
0.0
 30
0.0
  3
*D20
  1

  0
LINE
  5
2033D
330
1FACC
100
AcDbEntity
  8
寸法
 62
     0
 48
50.0
370
    -2
100
AcDbLine
 10
7323.599999999998
 20
7039.246300175034
 30
0.0
 11
7323.599999999998
 21
7645.786216729473
 31
0.0
  0
LINE
  5
2033E
330
1FACC
100
AcDbEntity
  8
寸法
 62
     0
 48
50.0
370
    -2
100
AcDbLine
 10
8093.6
 20
6226.246300175034
 30
0.0
 11
8093.6
 21
7645.786216729473
 31
0.0
  0
LINE
  5
2033F
330
1FACC
100
AcDbEntity
  8
寸法
 62
     0
 48
50.0
370
    -2
100
AcDbLine
 10
7323.599999999998
 20
7585.786216729474
 30
0.0
 11
8093.6
 21
7585.786216729474
 31
0.0
  0
INSERT
  5
20340
330
1FACC
100
AcDbEntity
  8
寸法
 62
     0
 48
50.0
370
    -2
100
AcDbBlockReference
  2
_DOTSMALL
 10
7323.599999999998
 20
7585.786216729474
 30
0.0
 41
100.0
 42
100.0
 43
100.0
 50
180.0
  0
INSERT
  5
20341
330
1FACC
100
AcDbEntity
  8
寸法
 62
     0
 48
50.0
370
    -2
100
AcDbBlockReference
  2
_DOTSMALL
 10
8093.6
 20
7585.786216729474
 30
0.0
 41
100.0
 42
100.0
 43
100.0
  0
MTEXT
  5
20342
330
1FACC
100
AcDbEntity
  8
寸法
 62
     7
 48
50.0
100
AcDbMText
 10
7708.599999999998
 20
7685.786216729474
 30
0.0
 40
120.0
 41
0.0
 71
     5
 72
     1
  1
\A1;770
  7
STYLE1
 73
     1
 44
1.0
1001
ACAD
1000
MTEXTBEGIN
1070
    73
1070
     1
1070
    44
1040
1.0
1070
    74
1070
     0
1000
MTEXTEND
  0
POINT
  5
20343
330
1FACC
100
AcDbEntity
  8
DEFPOINTS
 62
     0
 48
50.0
100
AcDbPoint
 10
7323.599999999998
 20
7019.246300175035
 30
0.0
  0
POINT
  5
20344
330
1FACC
100
AcDbEntity
  8
DEFPOINTS
 62
     0
 48
50.0
100
AcDbPoint
 10
8093.6
 20
6206.246300175035
 30
0.0
  0
POINT
  5
20345
330
1FACC
100
AcDbEntity
  8
DEFPOINTS
 62
     0
 48
50.0
100
AcDbPoint
 10
8093.6
 20
7585.786216729474
 30
0.0
  0
ENDBLK
  5
1FAD7
330
1FACC
100
AcDbEntity
  8
0
 48
50.0
100
AcDbBlockEnd
  0
BLOCK
  5
1FB29
330
1FB1F
100
AcDbEntity
  8
0
 48
50.0
100
AcDbBlockBegin
  2
*D21
 70
     1
 10
0.0
 20
0.0
 30
0.0
  3
*D21
  1

  0
LINE
  5
20334
330
1FB1F
100
AcDbEntity
  8
寸法
 62
     0
 48
50.0
370
    -2
100
AcDbLine
 10
8093.6
 20
6226.246300175034
 30
0.0
 11
8093.6
 21
7645.786216729473
 31
0.0
  0
LINE
  5
20335
330
1FB1F
100
AcDbEntity
  8
寸法
 62
     0
 48
50.0
370
    -2
100
AcDbLine
 10
8863.599999999998
 20
7039.246300175034
 30
0.0
 11
8863.599999999998
 21
7645.786216729473
 31
0.0
  0
LINE
  5
20336
330
1FB1F
100
AcDbEntity
  8
寸法
 62
     0
 48
50.0
370
    -2
100
AcDbLine
 10
8093.6
 20
7585.786216729474
 30
0.0
 11
8863.599999999998
 21
7585.786216729474
 31
0.0
  0
INSERT
  5
20337
330
1FB1F
100
AcDbEntity
  8
寸法
 62
     0
 48
50.0
370
    -2
100
AcDbBlockReference
  2
_DOTSMALL
 10
8093.6
 20
7585.786216729474
 30
0.0
 41
100.0
 42
100.0
 43
100.0
 50
180.0
  0
INSERT
  5
20338
330
1FB1F
100
AcDbEntity
  8
寸法
 62
     0
 48
50.0
370
    -2
100
AcDbBlockReference
  2
_DOTSMALL
 10
8863.599999999998
 20
7585.786216729474
 30
0.0
 41
100.0
 42
100.0
 43
100.0
  0
MTEXT
  5
20339
330
1FB1F
100
AcDbEntity
  8
寸法
 62
     7
 48
50.0
100
AcDbMText
 10
8478.599999999998
 20
7685.786216729474
 30
0.0
 40
120.0
 41
0.0
 71
     5
 72
     1
  1
\A1;770
  7
STYLE1
 73
     1
 44
1.0
1001
ACAD
1000
MTEXTBEGIN
1070
    73
1070
     1
1070
    44
1040
1.0
1070
    74
1070
     0
1000
MTEXTEND
  0
POINT
  5
2033A
330
1FB1F
100
AcDbEntity
  8
DEFPOINTS
 62
     0
 48
50.0
100
AcDbPoint
 10
8093.6
 20
6206.246300175035
 30
0.0
  0
POINT
  5
2033B
330
1FB1F
100
AcDbEntity
  8
DEFPOINTS
 62
     0
 48
50.0
100
AcDbPoint
 10
8863.599999999998
 20
7019.246300175035
 30
0.0
  0
POINT
  5
2033C
330
1FB1F
100
AcDbEntity
  8
DEFPOINTS
 62
     0
 48
50.0
100
AcDbPoint
 10
8863.599999999998
 20
7585.786216729474
 30
0.0
  0
ENDBLK
  5
1FB2A
330
1FB1F
100
AcDbEntity
  8
0
 48
50.0
100
AcDbBlockEnd
  0
BLOCK
  5
201B4
330
201AA
100
AcDbEntity
  8
0
 48
50.0
100
AcDbBlockBegin
  2
*D22
 70
     1
 10
0.0
 20
0.0
 30
0.0
  3
*D22
  1

  0
LINE
  5
20322
330
201AA
100
AcDbEntity
  8
寸法
 62
     0
 48
50.0
370
    -2
100
AcDbLine
 10
5694.90322103495
 20
1230.100633851594
 30
0.0
 11
5694.90322103495
 21
779.6709958464344
 31
0.0
  0
LINE
  5
20323
330
201AA
100
AcDbEntity
  8
寸法
 62
     0
 48
50.0
370
    -2
100
AcDbLine
 10
6142.903221034949
 20
1230.100633851594
 30
0.0
 11
6142.903221034949
 21
779.6709958464344
 31
0.0
  0
LINE
  5
20324
330
201AA
100
AcDbEntity
  8
寸法
 62
     0
 48
50.0
370
    -2
100
AcDbLine
 10
5694.90322103495
 20
839.6709958464343
 30
0.0
 11
6142.903221034949
 21
839.6709958464343
 31
0.0
  0
INSERT
  5
20325
330
201AA
100
AcDbEntity
  8
寸法
 62
     0
 48
50.0
370
    -2
100
AcDbBlockReference
  2
_DOTSMALL
 10
5694.90322103495
 20
839.6709958464343
 30
0.0
 41
100.0
 42
100.0
 43
100.0
 50
180.0
  0
INSERT
  5
20326
330
201AA
100
AcDbEntity
  8
寸法
 62
     0
 48
50.0
370
    -2
100
AcDbBlockReference
  2
_DOTSMALL
 10
6142.903221034949
 20
839.6709958464343
 30
0.0
 41
100.0
 42
100.0
 43
100.0
  0
MTEXT
  5
20327
330
201AA
100
AcDbEntity
  8
寸法
 62
     7
 48
50.0
100
AcDbMText
 10
5898.806462356726
 20
939.6709958464343
 30
0.0
 40
120.0
 41
0.0
 71
     5
 72
     1
  1
\A1;300
  7
STYLE1
 73
     1
 44
1.0
1001
ACAD
1000
MTEXTBEGIN
1070
    73
1070
     1
1070
    44
1040
1.0
1070
    74
1070
     0
1000
MTEXTEND
  0
POINT
  5
20328
330
201AA
100
AcDbEntity
  8
DEFPOINTS
 62
     0
 48
50.0
100
AcDbPoint
 10
5694.90322103495
 20
1250.100633851594
 30
0.0
  0
POINT
  5
20329
330
201AA
100
AcDbEntity
  8
DEFPOINTS
 62
     0
 48
50.0
100
AcDbPoint
 10
6142.903221034949
 20
1250.100633851594
 30
0.0
  0
POINT
  5
2032A
330
201AA
100
AcDbEntity
  8
DEFPOINTS
 62
     0
 48
50.0
100
AcDbPoint
 10
6142.903221034949
 20
839.6709958464343
 30
0.0
  0
ENDBLK
  5
201B5
330
201AA
100
AcDbEntity
  8
0
 48
50.0
100
AcDbBlockEnd
  0
BLOCK
  5
201C0
330
201B6
100
AcDbEntity
  8
0
 48
50.0
100
AcDbBlockBegin
  2
*D23
 70
     1
 10
0.0
 20
0.0
 30
0.0
  3
*D23
  1

  0
LINE
  5
20319
330
201B6
100
AcDbEntity
  8
寸法
 62
     0
 48
50.0
370
    -2
100
AcDbLine
 10
5802.90322103495
 20
2162.100633851594
 30
0.0
 11
5027.86598247321
 21
2162.100633851595
 31
0.0
  0
LINE
  5
2031A
330
201B6
100
AcDbEntity
  8
寸法
 62
     0
 48
50.0
370
    -2
100
AcDbLine
 10
5594.903221034954
 20
1378.100633851594
 30
0.0
 11
5027.865982473209
 21
1378.100633851594
 31
0.0
  0
LINE
  5
2031B
330
201B6
100
AcDbEntity
  8
寸法
 62
     0
 48
50.0
370
    -2
100
AcDbLine
 10
5087.865982473211
 20
2162.100633851595
 30
0.0
 11
5087.86598247321
 21
1378.100633851594
 31
0.0
  0
INSERT
  5
2031C
330
201B6
100
AcDbEntity
  8
寸法
 62
     0
 48
50.0
370
    -2
100
AcDbBlockReference
  2
_DOTSMALL
 10
5087.865982473211
 20
2162.100633851595
 30
0.0
 41
100.0
 42
100.0
 43
100.0
 50
90.0
  0
INSERT
  5
2031D
330
201B6
100
AcDbEntity
  8
寸法
 62
     0
 48
50.0
370
    -2
100
AcDbBlockReference
  2
_DOTSMALL
 10
5087.86598247321
 20
1378.100633851594
 30
0.0
 41
100.0
 42
100.0
 43
100.0
 50
270.0
  0
MTEXT
  5
2031E
330
201B6
100
AcDbEntity
  8
寸法
 62
     7
 48
50.0
100
AcDbMText
 10
4987.865982473209
 20
1749.640783507595
 30
0.0
 40
120.0
 41
0.0
 71
     5
 72
     1
  1
\A1;540
  7
STYLE1
 11
0.0000000000000001
 21
1.0
 31
0.0
 73
     1
 44
1.0
1001
ACAD
1000
MTEXTBEGIN
1070
    73
1070
     1
1070
    44
1040
1.0
1070
    74
1070
     0
1000
MTEXTEND
  0
POINT
  5
2031F
330
201B6
100
AcDbEntity
  8
DEFPOINTS
 62
     0
 48
50.0
100
AcDbPoint
 10
5822.903221034949
 20
2162.100633851594
 30
0.0
  0
POINT
  5
20320
330
201B6
100
AcDbEntity
  8
DEFPOINTS
 62
     0
 48
50.0
100
AcDbPoint
 10
5614.903221034953
 20
1378.100633851594
 30
0.0
  0
POINT
  5
20321
330
201B6
100
AcDbEntity
  8
DEFPOINTS
 62
     0
 48
50.0
100
AcDbPoint
 10
5087.86598247321
 20
1378.100633851594
 30
0.0
  0
ENDBLK
  5
201C1
330
201B6
100
AcDbEntity
  8
0
 48
50.0
100
AcDbBlockEnd
  0
BLOCK
  5
201CC
330
201C2
100
AcDbEntity
  8
0
 48
50.0
100
AcDbBlockBegin
  2
*D24
 70
     1
 10
0.0
 20
0.0
 30
0.0
  3
*D24
  1

  0
LINE
  5
20310
330
201C2
100
AcDbEntity
  8
寸法
 62
     0
 48
50.0
370
    -2
100
AcDbLine
 10
5674.903221034949
 20
1618.100633851594
 30
0.0
 11
5492.48290730249
 21
1618.100633851594
 31
0.0
  0
LINE
  5
20311
330
201C2
100
AcDbEntity
  8
寸法
 62
     0
 48
50.0
370
    -2
100
AcDbLine
 10
5594.903221034954
 20
1378.100633851594
 30
0.0
 11
5492.48290730249
 21
1378.100633851594
 31
0.0
  0
LINE
  5
20312
330
201C2
100
AcDbEntity
  8
寸法
 62
     0
 48
50.0
370
    -2
100
AcDbLine
 10
5552.48290730249
 20
1618.100633851594
 30
0.0
 11
5552.48290730249
 21
1378.100633851594
 31
0.0
  0
INSERT
  5
20313
330
201C2
100
AcDbEntity
  8
寸法
 62
     0
 48
50.0
370
    -2
100
AcDbBlockReference
  2
_DOTSMALL
 10
5552.48290730249
 20
1618.100633851594
 30
0.0
 41
100.0
 42
100.0
 43
100.0
 50
90.0
  0
INSERT
  5
20314
330
201C2
100
AcDbEntity
  8
寸法
 62
     0
 48
50.0
370
    -2
100
AcDbBlockReference
  2
_DOTSMALL
 10
5552.48290730249
 20
1378.100633851594
 30
0.0
 41
100.0
 42
100.0
 43
100.0
 50
270.0
  0
MTEXT
  5
20315
330
201C2
100
AcDbEntity
  8
寸法
 62
     7
 48
50.0
100
AcDbMText
 10
5452.48290730249
 20
1498.100633851595
 30
0.0
 40
120.0
 41
0.0
 71
     5
 72
     1
  1
\A1;150
  7
STYLE1
 11
0.0000000000000001
 21
1.0
 31
0.0
 73
     1
 44
1.0
1001
ACAD
1000
MTEXTBEGIN
1070
    73
1070
     1
1070
    44
1040
1.0
1070
    74
1070
     0
1000
MTEXTEND
  0
POINT
  5
20316
330
201C2
100
AcDbEntity
  8
DEFPOINTS
 62
     0
 48
50.0
100
AcDbPoint
 10
5694.90322103495
 20
1618.100633851594
 30
0.0
  0
POINT
  5
20317
330
201C2
100
AcDbEntity
  8
DEFPOINTS
 62
     0
 48
50.0
100
AcDbPoint
 10
5614.903221034953
 20
1378.100633851594
 30
0.0
  0
POINT
  5
20318
330
201C2
100
AcDbEntity
  8
DEFPOINTS
 62
     0
 48
50.0
100
AcDbPoint
 10
5552.48290730249
 20
1378.100633851594
 30
0.0
  0
ENDBLK
  5
201CD
330
201C2
100
AcDbEntity
  8
0
 48
50.0
100
AcDbBlockEnd
  0
BLOCK
  5
201DA
330
201CE
100
AcDbEntity
  8
0
 48
50.0
100
AcDbBlockBegin
  2
*D25
 70
     1
 10
0.0
 20
0.0
 30
0.0
  3
*D25
  1

  0
LINE
  5
20305
330
201CE
100
AcDbEntity
  8
寸法
 62
     0
 48
50.0
370
    -2
100
AcDbLine
 10
7769.742534212145
 20
2214.860633851596
 30
0.0
 11
8774.865800100014
 21
2214.860633851596
 31
0.0
  0
LINE
  5
20306
330
201CE
100
AcDbEntity
  8
寸法
 62
     0
 48
50.0
370
    -2
100
AcDbLine
 10
7956.942534212145
 20
2162.100633851594
 30
0.0
 11
8774.865800100014
 21
2162.100633851594
 31
0.0
  0
LINE
  5
20307
330
201CE
100
AcDbEntity
  8
寸法
 62
     0
 48
50.0
370
    -2
100
AcDbLine
 10
8714.865800100016
 20
2214.860633851596
 30
0.0
 11
8714.865800100016
 21
2314.860633851596
 31
0.0
  0
LINE
  5
20308
330
201CE
100
AcDbEntity
  8
寸法
 62
     0
 48
50.0
370
    -2
100
AcDbLine
 10
8714.865800100016
 20
2162.100633851594
 30
0.0
 11
8714.865800100016
 21
1430.082827008629
 31
0.0
  0
LINE
  5
20309
330
201CE
100
AcDbEntity
  8
寸法
 62
     0
 48
50.0
370
    -2
100
AcDbLine
 10
8714.865800100016
 20
2214.860633851596
 30
0.0
 11
8714.865800100016
 21
2162.100633851594
 31
0.0
  0
INSERT
  5
2030A
330
201CE
100
AcDbEntity
  8
寸法
 62
     0
 48
50.0
370
    -2
100
AcDbBlockReference
  2
_DOTSMALL
 10
8714.865800100016
 20
2214.860633851596
 30
0.0
 41
100.0
 42
100.0
 43
100.0
 50
270.0
  0
INSERT
  5
2030B
330
201CE
100
AcDbEntity
  8
寸法
 62
     0
 48
50.0
370
    -2
100
AcDbBlockReference
  2
_DOTSMALL
 10
8714.865800100016
 20
2162.100633851594
 30
0.0
 41
100.0
 42
100.0
 43
100.0
 50
90.0
  0
MTEXT
  5
2030C
330
201CE
100
AcDbEntity
  8
寸法
 62
     7
 48
50.0
100
AcDbMText
 10
8614.853989076392
 20
1696.091730430113
 30
0.0
 40
120.0
 41
0.0
 71
     5
 72
     1
  1
\A1;20～25
  7
STYLE1
 11
0.0000000000000001
 21
1.0
 31
0.0
 73
     1
 44
1.0
1001
ACAD
1000
MTEXTBEGIN
1070
    73
1070
     1
1070
    44
1040
1.0
1070
    74
1070
     0
1000
MTEXTEND
  0
POINT
  5
2030D
330
201CE
100
AcDbEntity
  8
DEFPOINTS
 62
     0
 48
50.0
100
AcDbPoint
 10
7749.742534212145
 20
2214.860633851596
 30
0.0
  0
POINT
  5
2030E
330
201CE
100
AcDbEntity
  8
DEFPOINTS
 62
     0
 48
50.0
100
AcDbPoint
 10
7936.942534212144
 20
2162.100633851594
 30
0.0
  0
POINT
  5
2030F
330
201CE
100
AcDbEntity
  8
DEFPOINTS
 62
     0
 48
50.0
100
AcDbPoint
 10
8714.865800100016
 20
2162.100633851594
 30
0.0
  0
ENDBLK
  5
201DB
330
201CE
100
AcDbEntity
  8
0
 48
50.0
100
AcDbBlockEnd
  0
BLOCK
  5
201E5
330
201DC
100
AcDbEntity
  8
0
 48
50.0
100
AcDbBlockBegin
  2
*D26
 70
     1
 10
0.0
 20
0.0
 30
0.0
  3
*D26
  1

  0
LINE
  5
202FC
330
201DC
100
AcDbEntity
  8
寸法
 62
     0
 48
50.0
370
    -2
100
AcDbLine
 10
7956.942534212145
 20
2162.100633851594
 30
0.0
 11
8498.811133980987
 21
2162.100633851594
 31
0.0
  0
LINE
  5
202FD
330
201DC
100
AcDbEntity
  8
寸法
 62
     0
 48
50.0
370
    -2
100
AcDbLine
 10
7956.942534212145
 20
1838.100633851593
 30
0.0
 11
8498.811133980987
 21
1838.100633851593
 31
0.0
  0
LINE
  5
202FE
330
201DC
100
AcDbEntity
  8
寸法
 62
     0
 48
50.0
370
    -2
100
AcDbLine
 10
8438.811133980989
 20
2162.100633851594
 30
0.0
 11
8438.811133980989
 21
1838.100633851593
 31
0.0
  0
INSERT
  5
202FF
330
201DC
100
AcDbEntity
  8
寸法
 62
     0
 48
50.0
370
    -2
100
AcDbBlockReference
  2
_DOTSMALL
 10
8438.811133980989
 20
2162.100633851594
 30
0.0
 41
100.0
 42
100.0
 43
100.0
 50
90.0
  0
INSERT
  5
20300
330
201DC
100
AcDbEntity
  8
寸法
 62
     0
 48
50.0
370
    -2
100
AcDbBlockReference
  2
_DOTSMALL
 10
8438.811133980989
 20
1838.100633851593
 30
0.0
 41
100.0
 42
100.0
 43
100.0
 50
270.0
  0
MTEXT
  5
20301
330
201DC
100
AcDbEntity
  8
寸法
 62
     7
 48
50.0
100
AcDbMText
 10
8338.811133980987
 20
2000.100633851595
 30
0.0
 40
120.0
 41
0.0
 71
     5
 72
     1
  1
\A1;180
  7
STYLE1
 11
0.0000000000000001
 21
1.0
 31
0.0
 73
     1
 44
1.0
1001
ACAD
1000
MTEXTBEGIN
1070
    73
1070
     1
1070
    44
1040
1.0
1070
    74
1070
     0
1000
MTEXTEND
  0
POINT
  5
20302
330
201DC
100
AcDbEntity
  8
DEFPOINTS
 62
     0
 48
50.0
100
AcDbPoint
 10
7936.942534212144
 20
2162.100633851594
 30
0.0
  0
POINT
  5
20303
330
201DC
100
AcDbEntity
  8
DEFPOINTS
 62
     0
 48
50.0
100
AcDbPoint
 10
7936.942534212144
 20
1838.100633851593
 30
0.0
  0
POINT
  5
20304
330
201DC
100
AcDbEntity
  8
DEFPOINTS
 62
     0
 48
50.0
100
AcDbPoint
 10
8438.811133980989
 20
1838.100633851593
 30
0.0
  0
ENDBLK
  5
201E6
330
201DC
100
AcDbEntity
  8
0
 48
50.0
100
AcDbBlockEnd
  0
BLOCK
  5
201F1
330
201E7
100
AcDbEntity
  8
0
 48
50.0
100
AcDbBlockBegin
  2
*D27
 70
     1
 10
0.0
 20
0.0
 30
0.0
  3
*D27
  1

  0
LINE
  5
2032B
330
201E7
100
AcDbEntity
  8
寸法
 62
     0
 48
50.0
370
    -2
100
AcDbLine
 10
6014.903221034949
 20
2182.100633851595
 30
0.0
 11
6014.903221034949
 21
2641.768441767975
 31
0.0
  0
LINE
  5
2032C
330
201E7
100
AcDbEntity
  8
寸法
 62
     0
 48
50.0
370
    -2
100
AcDbLine
 10
5822.903221034949
 20
2182.100633851595
 30
0.0
 11
5822.903221034949
 21
2641.768441767975
 31
0.0
  0
LINE
  5
2032D
330
201E7
100
AcDbEntity
  8
寸法
 62
     0
 48
50.0
370
    -2
100
AcDbLine
 10
6014.903221034949
 20
2581.768441767975
 30
0.0
 11
5822.903221034949
 21
2581.768441767975
 31
0.0
  0
INSERT
  5
2032E
330
201E7
100
AcDbEntity
  8
寸法
 62
     0
 48
50.0
370
    -2
100
AcDbBlockReference
  2
_DOTSMALL
 10
6014.903221034949
 20
2581.768441767975
 30
0.0
 41
100.0
 42
100.0
 43
100.0
  0
INSERT
  5
2032F
330
201E7
100
AcDbEntity
  8
寸法
 62
     0
 48
50.0
370
    -2
100
AcDbBlockReference
  2
_DOTSMALL
 10
5822.903221034949
 20
2581.768441767975
 30
0.0
 41
100.0
 42
100.0
 43
100.0
 50
180.0
  0
MTEXT
  5
20330
330
201E7
100
AcDbEntity
  8
寸法
 62
     7
 48
50.0
100
AcDbMText
 10
5918.903221034949
 20
2781.780252791597
 30
0.0
 40
120.0
 41
0.0
 71
     5
 72
     1
  1
\A1;120\P170
  7
STYLE1
 73
     1
 44
1.0
1001
ACAD
1000
MTEXTBEGIN
1070
    73
1070
     1
1070
    44
1040
1.0
1070
    74
1070
     0
1000
MTEXTEND
  0
POINT
  5
20331
330
201E7
100
AcDbEntity
  8
DEFPOINTS
 62
     0
 48
50.0
100
AcDbPoint
 10
6014.903221034949
 20
2162.100633851594
 30
0.0
  0
POINT
  5
20332
330
201E7
100
AcDbEntity
  8
DEFPOINTS
 62
     0
 48
50.0
100
AcDbPoint
 10
5822.903221034949
 20
2162.100633851594
 30
0.0
  0
POINT
  5
20333
330
201E7
100
AcDbEntity
  8
DEFPOINTS
 62
     0
 48
50.0
100
AcDbPoint
 10
5822.903221034949
 20
2581.768441767975
 30
0.0
  0
ENDBLK
  5
201F2
330
201E7
100
AcDbEntity
  8
0
 48
50.0
100
AcDbBlockEnd
  0
BLOCK
  5
20241
330
20235
100
AcDbEntity
  8
0
 48
50.0
100
AcDbBlockBegin
  2
*D28
 70
     1
 10
0.0
 20
0.0
 30
0.0
  3
*D28
  1

  0
LINE
  5
20416
330
20235
100
AcDbEntity
  8
寸法
 62
     0
 48
50.0
370
    -2
100
AcDbLine
 10
8633.599999999999
 20
6769.246300175033
 30
0.0
 11
8633.599999999999
 21
6459.236577146963
 31
0.0
  0
LINE
  5
20417
330
20235
100
AcDbEntity
  8
寸法
 62
     0
 48
50.0
370
    -2
100
AcDbLine
 10
8743.599999999998
 20
6769.246300175035
 30
0.0
 11
8743.599999999998
 21
6459.236577146963
 31
0.0
  0
LINE
  5
20418
330
20235
100
AcDbEntity
  8
寸法
 62
     0
 48
50.0
370
    -2
100
AcDbLine
 10
8633.599999999999
 20
6519.236577146964
 30
0.0
 11
8743.599999999998
 21
6519.236577146964
 31
0.0
  0
MTEXT
  5
20419
330
20235
100
AcDbEntity
  8
寸法
 62
     7
 48
50.0
100
AcDbMText
 10
8609.639422424182
 20
6416.661833760099
 30
0.0
 40
120.0
 41
0.0
 71
     5
 72
     1
  1
\A1;110
  7
STYLE1
 73
     1
 44
1.0
1001
ACAD
1000
MTEXTBEGIN
1070
    73
1070
     1
1070
    44
1040
1.0
1070
    74
1070
     0
1000
MTEXTEND
  0
INSERT
  5
2041A
330
20235
100
AcDbEntity
  8
寸法
 62
     0
 48
50.0
370
    -2
100
AcDbBlockReference
  2
_DOTSMALL
 10
8633.599999999999
 20
6519.236577146964
 30
0.0
 41
100.0
 42
100.0
 43
100.0
 50
180.0
  0
INSERT
  5
2041B
330
20235
100
AcDbEntity
  8
寸法
 62
     0
 48
50.0
370
    -2
100
AcDbBlockReference
  2
_DOTSMALL
 10
8743.599999999998
 20
6519.236577146964
 30
0.0
 41
100.0
 42
100.0
 43
100.0
  0
POINT
  5
2041C
330
20235
100
AcDbEntity
  8
DEFPOINTS
 62
     0
 48
50.0
100
AcDbPoint
 10
8633.599999999999
 20
6789.246300175033
 30
0.0
  0
POINT
  5
2041D
330
20235
100
AcDbEntity
  8
DEFPOINTS
 62
     0
 48
50.0
100
AcDbPoint
 10
8743.599999999998
 20
6789.246300175034
 30
0.0
  0
POINT
  5
2041E
330
20235
100
AcDbEntity
  8
DEFPOINTS
 62
     0
 48
50.0
100
AcDbPoint
 10
8743.599999999998
 20
6519.236577146964
 30
0.0
  0
ENDBLK
  5
20242
330
20235
100
AcDbEntity
  8
0
 48
50.0
100
AcDbBlockEnd
  0
ENDSEC
  0
SECTION
  2
ENTITIES
  0
LINE
  5
10B57
330
747D
100
AcDbEntity
  8
補助
  6
PHANTOM
 62
   230
 48
50.0
100
AcDbLine
 10
139.9999999999995
 20
11409.6
 30
0.0
 11
16307.2
 21
11409.6
 31
0.0
  0
LINE
  5
10B59
330
747D
100
AcDbEntity
  8
仕様書枠
  6
Continuous
 48
50.0
100
AcDbLine
 10
13107.2
 20
1200.0
 30
0.0
 11
13107.2
 21
-0.0000000000000729
 31
0.0
  0
LINE
  5
10B5C
330
747D
100
AcDbEntity
  8
仕様書枠
 48
50.0
100
AcDbLine
 10
16307.2
 20
1200.0
 30
0.0
 11
16307.2
 21
-0.0000000000000909
 31
0.0
  0
LINE
  5
10B5D
330
747D
100
AcDbEntity
  8
仕様書枠
 48
50.0
100
AcDbLine
 10
140.0
 20
0.0
 30
0.0
 11
16307.2
 21
-0.0000000000000909
 31
0.0
  0
LINE
  5
10B5E
330
747D
100
AcDbEntity
  8
補助
  6
PHANTOM
 62
   230
 48
50.0
100
AcDbLine
 10
16307.2
 20
11409.6
 30
0.0
 11
16307.2
 21
1200.0
 31
0.0
  0
LINE
  5
10B6C
330
747D
100
AcDbEntity
  8
仕様書枠
 48
50.0
100
AcDbLine
 10
13107.2
 20
1200.0
 30
0.0
 11
16307.2
 21
1200.0
 31
0.0
  0
LINE
  5
10B6D
330
747D
100
AcDbEntity
  8
補助
  6
PHANTOM
 62
   230
 48
50.0
100
AcDbLine
 10
13107.2
 20
11409.6
 30
0.0
 11
13107.2
 21
4800.0
 31
0.0
  0
LINE
  5
10B6F
330
747D
100
AcDbEntity
  8
補助
  6
PHANTOM
 62
   230
 48
50.0
100
AcDbLine
 10
13107.2
 20
4800.0
 30
0.0
 11
16307.2
 21
4800.0
 31
0.0
  0
LINE
  5
10B72
330
747D
100
AcDbEntity
  8
文字
 62
     7
 48
50.0
100
AcDbLine
 10
13187.2
 20
400.0
 30
0.0
 11
16227.2
 21
400.0
 31
0.0
  0
TEXT
  5
10B73
330
747D
100
AcDbEntity
  8
文字
 62
     7
 48
50.0
100
AcDbText
 10
13162.9790565769
 20
895.0906074299405
 30
0.0
 40
200.0
  1
基 礎 図
  7
STYLE2
100
AcDbText
  0
TEXT
  5
10B74
330
747D
100
AcDbEntity
  8
文字
 62
     7
 48
50.0
100
AcDbText
 10
13201.43669998441
 20
477.2740661031255
 30
0.0
 40
160.0
  1
機種名
  7
STYLE2
100
AcDbText
  0
LINE
  5
10B7B
330
747D
100
AcDbEntity
  8
仕様書枠
 48
50.0
100
AcDbLine
 10
13107.2
 20
800.0
 30
0.0
 11
14251.2
 21
800.0
 31
0.0
  0
LINE
  5
10B88
330
747D
100
AcDbEntity
  8
仕様書枠
  6
Continuous
 48
50.0
100
AcDbLine
 10
14251.2
 20
1200.0
 30
0.0
 11
14251.2
 21
800.0
 31
0.0
  0
TEXT
  5
14DEF
330
747D
100
AcDbEntity
  8
文字
 62
     7
 48
50.0
100
AcDbText
 10
14641.2525855784
 20
871.1744590657925
 30
0.0
 40
100.0
  1
～一般型・多雪地型～
  7
STYLE2
100
AcDbText
  0
TEXT
  5
15A76
330
747D
100
AcDbEntity
  8
文字
 62
     7
 48
50.0
100
AcDbText
 10
14478.98566430227
 20
499.5983841039501
 30
0.0
 40
160.0
  1
ＮＸＮ－２８CＳ
  7
STYLE2
100
AcDbText
  0
TEXT
  5
1D002
330
747D
100
AcDbEntity
  8
文字
 62
     7
 48
50.0
100
AcDbText
 10
13188.16259899338
 20
246.7109242801889
 30
0.0
 40
80.0
  1
※寒冷地等は地域の実情に合わせた基礎にして下さい。
  7
STYLE2
100
AcDbText
  0
DIMENSION
  5
1D91B
330
747D
100
AcDbEntity
  8
寸法
 48
50.0
100
AcDbDimension
  2
*D1
 10
7770.307249876097
 20
5519.246300175038
 30
0.0
 11
7770.307249876096
 21
5755.293544269528
 31
0.0
 70
   160
 71
     5
 42
130.0000000000018
  3
INABA_S40G
100
AcDbAlignedDimension
 13
7553.599999999999
 23
5389.246300175036
 33
0.0
 14
7553.599999999999
 24
5519.246300175038
 34
0.0
 50
90.0
100
AcDbRotatedDimension
  0
DIMENSION
  5
1D91C
330
747D
100
AcDbEntity
  8
寸法
 48
50.0
100
AcDbDimension
  2
*D2
 10
7770.307249876097
 20
5219.246300175036
 30
0.0
 11
7770.307249876096
 21
4983.199056080549
 31
0.0
 70
   160
 71
     5
 42
170.0000000000018
  3
INABA_S40G
100
AcDbAlignedDimension
 13
7553.599999999999
 23
5389.246300175038
 33
0.0
 14
7553.599999999999
 24
5219.246300175036
 34
0.0
 50
90.0
100
AcDbRotatedDimension
  0
DIMENSION
  5
1D91D
330
747D
100
AcDbEntity
  8
寸法
 48
50.0
100
AcDbDimension
  2
*D3
 10
7446.6
 20
7824.306910564965
 30
0.0
 11
8093.6
 21
7924.318721588587
 31
0.0
 70
    32
 71
     5
 42
1294.0
  3
INABA_S40G
100
AcDbAlignedDimension
 13
8740.599999999998
 23
6946.246300175035
 33
0.0
 14
7446.6
 24
6946.246300175035
 34
0.0
100
AcDbRotatedDimension
  0
LINE
  5
1D91E
330
747D
100
AcDbEntity
  8
部品1
 48
50.0
100
AcDbLine
 10
8633.599999999999
 20
5389.246300175051
 30
0.0
 11
7553.599999999997
 21
5389.246300175036
 31
0.0
  0
LINE
  5
1D91F
330
747D
100
AcDbEntity
  8
部品1
 48
50.0
100
AcDbLine
 10
8633.599999999999
 20
6899.246300175033
 30
0.0
 11
7553.599999999997
 21
6899.246300175035
 31
0.0
  0
DIMENSION
  5
1D920
330
747D
100
AcDbEntity
  8
寸法
 48
50.0
100
AcDbDimension
  2
*D4
 10
8863.599999999998
 20
8036.7676060818
 30
0.0
 11
8093.6
 21
8136.767606081802
 31
0.0
 70
    32
 71
     5
 42
1540.0
  3
INABA_S40G
100
AcDbAlignedDimension
 13
7323.599999999998
 23
7019.246300175035
 33
0.0
 14
8863.599999999998
 24
7019.246300175035
 34
0.0
100
AcDbRotatedDimension
  0
LINE
  5
1D921
330
747D
100
AcDbEntity
  8
部品1
 48
50.0
100
AcDbLine
 10
8863.599999999998
 20
5219.246300175053
 30
0.0
 11
7323.599999999998
 21
5219.246300175032
 31
0.0
  0
LINE
  5
1D922
330
747D
100
AcDbEntity
  8
部品1
 48
50.0
100
AcDbLine
 10
8863.599999999998
 20
7019.246300175035
 30
0.0
 11
7323.599999999998
 21
7019.246300175034
 31
0.0
  0
LINE
  5
1D923
330
747D
100
AcDbEntity
  8
想像線
 48
10.0
100
AcDbLine
 10
8908.599999999998
 20
5164.246300175031
 30
0.0
 11
7278.6
 21
5164.246300175036
 31
0.0
  0
LINE
  5
1D924
330
747D
100
AcDbEntity
  8
想像線
 48
10.0
100
AcDbLine
 10
7278.6
 20
7094.246300175035
 30
0.0
 11
8908.600000000003
 21
7094.246300175038
 31
0.0
  0
DIMENSION
  5
1D925
330
747D
100
AcDbEntity
  8
寸法
 48
50.0
100
AcDbDimension
  2
*D5
 10
7323.599999999998
 20
7824.306910564965
 30
0.0
 11
7085.11471862576
 21
7824.306910564965
 31
0.0
 70
   160
 71
     5
 42
123.0
  3
INABA_S40G
100
AcDbAlignedDimension
 13
7446.6
 23
6946.246300175035
 33
0.0
 14
7323.599999999998
 24
7019.246300175035
 34
0.0
100
AcDbRotatedDimension
  0
DIMENSION
  5
1D926
330
747D
100
AcDbEntity
  8
寸法
 48
50.0
100
AcDbDimension
  2
*D6
 10
7323.599999999998
 20
8036.767606081802
 30
0.0
 11
7301.099999999997
 21
8036.767606081802
 31
0.0
 70
   160
  1
a
 71
     5
 42
45.00000000000364
  3
INABA_S40G
100
AcDbAlignedDimension
 13
7278.599999999994
 23
7824.306910564965
 33
0.0
 14
7323.599999999998
 24
7019.246300175035
 34
0.0
100
AcDbRotatedDimension
  0
DIMENSION
  5
1D927
330
747D
100
AcDbEntity
  8
寸法
 48
50.0
100
AcDbDimension
  2
*D7
 10
6827.657733986177
 20
5417.246300175037
 30
0.0
 11
6827.657733986176
 21
6119.246300175034
 31
0.0
 70
   160
 71
     5
 42
1478.999999999998
  3
INABA_S40G
100
AcDbAlignedDimension
 13
7396.599999999999
 23
6896.246300175035
 33
0.0
 14
7396.600000000006
 24
5417.246300175037
 34
0.0
 50
90.0
100
AcDbRotatedDimension
  0
LINE
  5
1D928
330
747D
100
AcDbEntity
  8
部品1
 48
50.0
100
AcDbLine
 10
7443.599999999999
 20
5519.246300175037
 30
0.0
 11
7443.599999999999
 21
6789.246300175031
 31
0.0
  0
DIMENSION
  5
1D929
330
747D
100
AcDbEntity
  8
寸法
 48
50.0
100
AcDbDimension
  2
*D8
 10
6582.164931848215
 20
5219.246300175035
 30
0.0
 11
6582.164931848215
 21
6119.246300175035
 31
0.0
 70
   160
 71
     5
 42
1800.0
  3
INABA_S40G
100
AcDbAlignedDimension
 13
7323.599999999998
 23
7019.246300175035
 33
0.0
 14
7323.599999999998
 24
5219.246300175035
 34
0.0
 50
90.0
100
AcDbRotatedDimension
  0
LINE
  5
1D92A
330
747D
100
AcDbEntity
  8
部品1
 48
50.0
100
AcDbLine
 10
7323.599999999998
 20
5219.246300175035
 30
0.0
 11
7323.599999999998
 21
7019.246300175034
 31
0.0
  0
LINE
  5
1D92B
330
747D
100
AcDbEntity
  8
想像線
 48
10.0
100
AcDbLine
 10
7278.599999999999
 20
5164.246300175035
 30
0.0
 11
7278.599999999999
 21
7094.246300175038
 31
0.0
  0
DIMENSION
  5
1D92C
330
747D
100
AcDbEntity
  8
寸法
 48
50.0
100
AcDbDimension
  2
*D9
 10
6827.657733986177
 20
5219.246300175035
 30
0.0
 11
6827.657733986176
 21
4983.03664034538
 31
0.0
 70
   160
 71
     5
 42
198.0000000000018
  3
INABA_S40G
100
AcDbAlignedDimension
 13
7396.600000000006
 23
5417.246300175037
 33
0.0
 14
7323.599999999998
 24
5219.246300175035
 34
0.0
 50
90.0
100
AcDbRotatedDimension
  0
DIMENSION
  5
1D92D
330
747D
100
AcDbEntity
  8
寸法
 48
50.0
100
AcDbDimension
  2
*D10
 10
6582.16493184821
 20
5164.246300175035
 30
0.0
 11
6582.16493184821
 21
5191.746300175037
 31
0.0
 70
   160
  1
b
 71
     5
 42
55.0
  3
INABA_S40G
100
AcDbAlignedDimension
 13
7323.599999999998
 23
5219.246300175035
 33
0.0
 14
6827.657733986177
 24
5164.246300175035
 34
0.0
 50
90.0
100
AcDbRotatedDimension
  0
LINE
  5
1D92E
330
747D
100
AcDbEntity
  8
センター
 48
2.0
100
AcDbLine
 10
7446.600000000007
 20
5467.246300175037
 30
0.0
 11
7446.600000000007
 21
5367.246300175036
 31
0.0
  0
LINE
  5
1D92F
330
747D
100
AcDbEntity
  8
センター
 48
2.0
100
AcDbLine
 10
7396.600000000006
 20
5417.246300175037
 30
0.0
 11
7496.600000000007
 21
5417.246300175037
 31
0.0
  0
CIRCLE
  5
1D930
330
747D
100
AcDbEntity
  8
部品1
 48
50.0
100
AcDbCircle
 10
7446.600000000007
 20
5417.246300175037
 30
0.0
 40
35.0
  0
LINE
  5
1D931
330
747D
100
AcDbEntity
  8
部品1
 48
50.0
100
AcDbLine
 10
7553.599999999999
 20
5519.246300175038
 30
0.0
 11
7443.599999999998
 21
5519.246300175037
 31
0.0
  0
LINE
  5
1D932
330
747D
100
AcDbEntity
  8
部品1
 48
50.0
100
AcDbLine
 10
7553.599999999999
 20
5389.246300175036
 30
0.0
 11
7553.599999999999
 21
5519.246300175038
 31
0.0
  0
DIMENSION
  5
1D933
330
747D
100
AcDbEntity
  8
寸法
 48
50.0
100
AcDbDimension
  2
*D11
 10
6827.657733986177
 20
6896.246300175035
 30
0.0
 11
6827.657733986176
 21
7257.731581549276
 31
0.0
 70
   160
 71
     5
 42
123.0
  3
INABA_S40G
100
AcDbAlignedDimension
 13
7323.599999999998
 23
7019.246300175035
 33
0.0
 14
7396.599999999999
 24
6896.246300175035
 34
0.0
 50
90.0
100
AcDbRotatedDimension
  0
DIMENSION
  5
1D934
330
747D
100
AcDbEntity
  8
寸法
 48
50.0
100
AcDbDimension
  2
*D12
 10
6582.16493184821
 20
7019.246300175035
 30
0.0
 11
6582.164931848208
 21
7056.746300175037
 31
0.0
 70
   160
  1
c
 71
     5
 42
75.0
  3
INABA_S40G
100
AcDbAlignedDimension
 13
6827.657733986177
 23
7094.246300175035
 33
0.0
 14
7323.599999999998
 24
7019.246300175035
 34
0.0
 50
90.0
100
AcDbRotatedDimension
  0
LINE
  5
1D935
330
747D
100
AcDbEntity
  8
部品1
 48
50.0
100
AcDbLine
 10
7443.599999999999
 20
6219.246300175036
 30
0.0
 11
7323.599999999998
 21
6219.246300175035
 31
0.0
  0
LINE
  5
1D936
330
747D
100
AcDbEntity
  8
部品1
 48
50.0
100
AcDbLine
 10
7443.599999999999
 20
6019.246300175034
 30
0.0
 11
7323.599999999998
 21
6019.246300175034
 31
0.0
  0
LINE
  5
1D938
330
747D
100
AcDbEntity
  8
センター
 48
2.0
100
AcDbLine
 10
7446.6
 20
6946.246300175035
 30
0.0
 11
7446.6
 21
6846.246300175035
 31
0.0
  0
LINE
  5
1D939
330
747D
100
AcDbEntity
  8
センター
 48
2.0
100
AcDbLine
 10
7396.599999999999
 20
6896.246300175035
 30
0.0
 11
7496.599999999999
 21
6896.246300175035
 31
0.0
  0
CIRCLE
  5
1D93A
330
747D
100
AcDbEntity
  8
部品1
 48
50.0
100
AcDbCircle
 10
7446.6
 20
6896.246300175035
 30
0.0
 40
35.0
  0
LINE
  5
1D93B
330
747D
100
AcDbEntity
  8
部品1
 48
50.0
100
AcDbLine
 10
7553.599999999999
 20
6789.246300175031
 30
0.0
 11
7443.599999999998
 21
6789.246300175034
 31
0.0
  0
LINE
  5
1D93C
330
747D
100
AcDbEntity
  8
部品1
 48
50.0
100
AcDbLine
 10
7553.599999999999
 20
6789.246300175031
 30
0.0
 11
7553.599999999997
 21
6899.246300175035
 31
0.0
  0
DIMENSION
  5
1D93E
330
747D
100
AcDbEntity
  8
寸法
 48
50.0
100
AcDbDimension
  2
*D13
 10
8740.599999999998
 20
7824.306910564965
 30
0.0
 11
9102.085281374236
 21
7824.306910564965
 31
0.0
 70
   160
 71
     5
 42
123.0
  3
INABA_S40G
100
AcDbAlignedDimension
 13
8863.599999999998
 23
7019.246300175035
 33
0.0
 14
8740.599999999998
 24
6946.246300175035
 34
0.0
100
AcDbRotatedDimension
  0
DIMENSION
  5
1D93F
330
747D
100
AcDbEntity
  8
寸法
 48
50.0
100
AcDbDimension
  2
*D14
 10
8908.599999999998
 20
8036.7676060818
 30
0.0
 11
8886.099999999998
 21
8036.7676060818
 31
0.0
 70
   160
  1
a
 71
     5
 42
45.0
  3
INABA_S40G
100
AcDbAlignedDimension
 13
8863.599999999998
 23
7019.246300175035
 33
0.0
 14
8908.599999999998
 24
7824.306910564965
 34
0.0
100
AcDbRotatedDimension
  0
LEADER
  5
1D940
330
747D
100
AcDbEntity
  8
寸法
 48
50.0
100
AcDbLeader
  3
INABA_S40G
 71
     0
 73
     0
 74
     0
 75
     1
 40
120.0
 41
720.0000000000001
 76
     3
 10
8863.599999999998
 20
6119.246300175044
 30
0.0
 10
9113.148163484241
 20
5806.202358910128
 30
0.0
 10
9213.148163484241
 20
5806.202358910128
 30
0.0
340
1D941
  0
MTEXT
  5
1D941
102
{ACAD_REACTORS
330
1D940
102
}
330
747D
100
AcDbEntity
  8
部品1
 62
     7
 48
50.0
100
AcDbMText
 10
9973.148163484243
 20
5906.202358910128
 30
0.0
 40
120.0
 41
0.0
 71
     6
 72
     1
  1
\A1;床下換気口
  7
STYLE1
 73
     1
 44
1.0
1001
ACAD
1000
MTEXTBEGIN
1070
    73
1070
     1
1070
    44
1040
1.0
1070
    74
1070
     0
1000
MTEXTEND
  0
DIMENSION
  5
1D942
330
747D
100
AcDbEntity
  8
寸法
 48
50.0
100
AcDbDimension
  2
*D15
 10
8743.599999999998
 20
6519.236577146964
 30
0.0
 11
9099.647244094487
 21
6519.236577146964
 31
0.0
 70
   160
 71
     5
 42
120.0
  3
INABA_S40G
100
AcDbAlignedDimension
 13
8863.599999999998
 23
6789.246300175034
 33
0.0
 14
8743.599999999998
 24
6789.246300175036
 34
0.0
100
AcDbRotatedDimension
  0
TEXT
  5
1D943
330
747D
100
AcDbEntity
  8
部品1
 48
50.0
100
AcDbText
 10
8950.4200666784
 20
4524.359503395761
 30
0.0
 40
80.0
  1
(a=45,b=55,c=75)
  7
STYLE1
100
AcDbText
  0
TEXT
  5
1D944
330
747D
100
AcDbEntity
  8
部品1
 48
50.0
100
AcDbText
 10
8880.543179073518
 20
4644.0905495489
 30
0.0
 40
80.0
  1
※a,b,cは屋根の出幅です。
  7
STYLE1
100
AcDbText
  0
MTEXT
  5
1D945
102
{ACAD_REACTORS
330
1D946
102
}
330
747D
100
AcDbEntity
  8
部品1
 62
     7
 48
50.0
100
AcDbMText
 10
9745.725774538318
 20
4868.228908215243
 30
0.0
 40
120.0
 41
0.0
 71
     6
 72
     1
  1
\A1;屋根の外寸
  7
STYLE1
 73
     1
 44
1.0
1001
ACAD
1000
MTEXTBEGIN
1070
    73
1070
     1
1070
    44
1040
1.0
1070
    74
1070
     0
1000
MTEXTEND
  0
LEADER
  5
1D946
330
747D
100
AcDbEntity
  8
寸法
 48
50.0
100
AcDbLeader
  3
INABA_S40G
 71
     0
 73
     0
 74
     0
 75
     1
 40
120.0
 41
672.0
 76
     3
 10
8675.488587933825
 20
5163.246300175035
 30
0.0
 10
8933.725774538318
 20
4768.228908215244
 30
0.0
 10
9033.725774538318
 20
4768.228908215244
 30
0.0
340
1D945
  0
DIMENSION
  5
1D947
330
747D
100
AcDbEntity
  8
寸法
 48
50.0
100
AcDbDimension
  2
*D16
 10
7786.890767703562
 20
6789.246300175031
 30
0.0
 11
7786.89076770356
 21
6553.199056080543
 31
0.0
 70
   160
 71
     5
 42
110.0000000000045
  3
INABA_S40G
100
AcDbAlignedDimension
 13
7553.599999999999
 23
6899.246300175035
 33
0.0
 14
7553.599999999999
 24
6789.246300175031
 34
0.0
 50
90.0
100
AcDbRotatedDimension
  0
LINE
  5
1D949
330
747D
100
AcDbEntity
  8
部品1
 48
50.0
100
AcDbLine
 10
8743.599999999998
 20
5519.246300175055
 30
0.0
 11
8743.599999999998
 21
6789.246300175034
 31
0.0
  0
LINE
  5
1D94A
330
747D
100
AcDbEntity
  8
部品1
 48
50.0
100
AcDbLine
 10
8863.599999999998
 20
5219.246300175053
 30
0.0
 11
8863.599999999998
 21
7019.246300175035
 31
0.0
  0
LINE
  5
1D94B
330
747D
100
AcDbEntity
  8
想像線
 48
10.0
100
AcDbLine
 10
8908.599999999998
 20
7094.246300175038
 30
0.0
 11
8908.600000000003
 21
5164.246300175035
 31
0.0
  0
TEXT
  5
1D94C
330
747D
100
AcDbEntity
  8
部品1
 48
50.0
100
AcDbText
 10
7974.294671087948
 20
5011.864036896353
 30
0.0
 40
120.0
  1
扉面
  7
STYLE1
 72
     1
 11
8102.294671087948
 21
4995.864036896353
 31
0.0
100
AcDbText
 73
     1
  0
HATCH
  5
1D94E
330
747D
100
AcDbEntity
  8
細線
 48
50.0
100
AcDbHatch
 10
0.0
 20
0.0
 30
0.0
210
0.0
220
0.0
230
1.0
  2
LINE
 70
     0
 71
     0
 91
        1
 92
        7
 72
     0
 73
     1
 93
        4
 10
8193.600000000014
 20
5219.246300175043
 10
8193.600000000014
 20
5389.246300175042
 10
7993.600000000014
 20
5389.24630017504
 10
7993.600000000014
 20
5219.246300175038
 97
        0
 75
     0
 76
     1
 52
45.0
 41
10.0
 77
     0
 78
     1
 53
45.0
 43
4490.48843901349
 44
-5932.295254901253
 45
-22.45064030267288
 46
22.45064030267288
 79
     0
 47
2.903594399684136
 98
        1
 10
8106.710000003099
 20
5258.273355607483
  0
LINE
  5
1D94F
330
747D
100
AcDbEntity
  8
部品1
 48
50.0
100
AcDbLine
 10
7993.600000000014
 20
5219.246300175043
 30
0.0
 11
7993.600000000014
 21
5389.246300175038
 31
0.0
  0
LINE
  5
1D950
330
747D
100
AcDbEntity
  8
部品1
 48
50.0
100
AcDbLine
 10
8193.600000000014
 20
5219.246300175043
 30
0.0
 11
8193.600000000014
 21
5389.246300175042
 31
0.0
  0
LINE
  5
1D951
330
747D
100
AcDbEntity
  8
センター
 48
2.0
100
AcDbLine
 10
8690.600000000006
 20
5417.246300175037
 30
0.0
 11
8790.600000000006
 21
5417.246300175037
 31
0.0
  0
CIRCLE
  5
1D952
330
747D
100
AcDbEntity
  8
部品1
 48
50.0
100
AcDbCircle
 10
8740.600000000005
 20
5417.246300175037
 30
0.0
 40
35.0
  0
LINE
  5
1D953
330
747D
100
AcDbEntity
  8
部品1
 48
50.0
100
AcDbLine
 10
8743.599999999998
 20
5519.246300175052
 30
0.0
 11
8633.599999999999
 21
5519.246300175053
 31
0.0
  0
LINE
  5
1D954
330
747D
100
AcDbEntity
  8
部品1
 48
50.0
100
AcDbLine
 10
8633.599999999999
 20
5389.246300175051
 30
0.0
 11
8633.599999999999
 21
5519.246300175053
 31
0.0
  0
LINE
  5
1D955
330
747D
100
AcDbEntity
  8
センター
 48
2.0
100
AcDbLine
 10
8740.600000000005
 20
5467.246300175037
 30
0.0
 11
8740.600000000005
 21
5367.246300175036
 31
0.0
  0
LINE
  5
1D956
330
747D
100
AcDbEntity
  8
部品1
 48
50.0
100
AcDbLine
 10
8193.599999999999
 20
6899.246300175033
 30
0.0
 11
8193.599999999999
 21
7019.246300175035
 31
0.0
  0
LINE
  5
1D957
330
747D
100
AcDbEntity
  8
部品1
 48
50.0
100
AcDbLine
 10
7993.599999999999
 20
6899.246300175035
 30
0.0
 11
7993.599999999999
 21
7019.246300175035
 31
0.0
  0
DIMENSION
  5
1D959
330
747D
100
AcDbEntity
  8
寸法
 48
50.0
100
AcDbDimension
  2
*D17
 10
7786.890767703562
 20
6899.246300175035
 30
0.0
 11
7786.89076770356
 21
7255.293544269524
 31
0.0
 70
   160
 71
     5
 42
119.9999999999972
  3
INABA_S40G
100
AcDbAlignedDimension
 13
7525.599999999998
 23
7019.246300175033
 33
0.0
 14
7553.599999999999
 24
6899.246300175035
 34
0.0
 50
90.0
100
AcDbRotatedDimension
  0
LINE
  5
1D95A
330
747D
100
AcDbEntity
  8
センター
 48
2.0
100
AcDbLine
 10
8690.599999999999
 20
6896.246300175035
 30
0.0
 11
8790.599999999999
 21
6896.246300175035
 31
0.0
  0
CIRCLE
  5
1D95B
330
747D
100
AcDbEntity
  8
部品1
 48
50.0
100
AcDbCircle
 10
8740.599999999998
 20
6896.246300175035
 30
0.0
 40
35.0
  0
LINE
  5
1D95C
330
747D
100
AcDbEntity
  8
部品1
 48
50.0
100
AcDbLine
 10
8743.599999999998
 20
6789.246300175034
 30
0.0
 11
8633.599999999999
 21
6789.246300175033
 31
0.0
  0
LINE
  5
1D95D
330
747D
100
AcDbEntity
  8
部品1
 48
50.0
100
AcDbLine
 10
8633.599999999999
 20
6789.246300175033
 30
0.0
 11
8633.599999999999
 21
6919.246300175036
 31
0.0
  0
LINE
  5
1D95E
330
747D
100
AcDbEntity
  8
部品1
 48
50.0
100
AcDbLine
 10
8863.599999999998
 20
6219.246300175035
 30
0.0
 11
8743.599999999998
 21
6219.246300175036
 31
0.0
  0
LINE
  5
1D95F
330
747D
100
AcDbEntity
  8
部品1
 48
50.0
100
AcDbLine
 10
8863.599999999998
 20
6019.246300175034
 30
0.0
 11
8743.599999999998
 21
6019.246300175034
 31
0.0
  0
LINE
  5
1D961
330
747D
100
AcDbEntity
  8
センター
 48
2.0
100
AcDbLine
 10
8740.599999999998
 20
6946.246300175035
 30
0.0
 11
8740.599999999998
 21
6846.246300175035
 31
0.0
  0
TEXT
  5
1DEDA
330
747D
100
AcDbEntity
  8
文字
 62
     7
 48
50.0
100
AcDbText
 10
13188.16259899338
 20
79.80631269190325
 30
0.0
 40
80.0
  1
※布基礎には換気口を設けてください。
  7
STYLE2
100
AcDbText
  0
MTEXT
  5
1E700
102
{ACAD_REACTORS
330
1E701
102
}
330
747D
100
AcDbEntity
  8
部品1
 62
     7
 48
50.0
100
AcDbMText
 10
9913.416979436107
 20
7262.271743982987
 30
0.0
 40
120.0
 41
0.0
 71
     6
 72
     1
  1
基礎ボルト芯
  7
STYLE1
 73
     1
 44
1.0
1001
ACAD
1000
MTEXTBEGIN
1070
    73
1070
     1
1070
    44
1040
1.0
1070
    74
1070
     0
1000
MTEXTEND
  0
LEADER
  5
1E701
330
747D
100
AcDbEntity
  8
寸法
 48
50.0
100
AcDbLeader
  3
INABA_S40G
 71
     0
 73
     0
 74
     0
 75
     1
 40
120.0
 41
846.0000000000002
 76
     3
 10
8740.599999999998
 20
6896.246300175035
 30
0.0
 10
8927.416979436106
 20
7162.271743982987
 30
0.0
 10
9027.416979436106
 20
7162.271743982987
 30
0.0
340
1E700
  0
LINE
  5
1FA5F
330
747D
100
AcDbEntity
  8
部品1
 48
50.0
100
AcDbLine
 10
8193.599999999999
 20
6256.246300175035
 30
0.0
 11
7993.599999999999
 21
6256.246300175035
 31
0.0
  0
LINE
  5
1FA60
330
747D
100
AcDbEntity
  8
センター
 48
2.0
100
AcDbLine
 10
8093.6
 20
6206.246300175035
 30
0.0
 11
8093.6
 21
6106.246300175035
 31
0.0
  0
LINE
  5
1FA61
330
747D
100
AcDbEntity
  8
センター
 48
2.0
100
AcDbLine
 10
8043.599999999999
 20
6156.246300175035
 30
0.0
 11
8143.599999999999
 21
6156.246300175035
 31
0.0
  0
LINE
  5
1FA62
330
747D
100
AcDbEntity
  8
部品1
 48
50.0
100
AcDbLine
 10
8193.599999999999
 20
6056.246300175033
 30
0.0
 11
7993.599999999999
 21
6056.246300175033
 31
0.0
  0
LINE
  5
1FA63
330
747D
100
AcDbEntity
  8
部品1
 48
50.0
100
AcDbLine
 10
7993.599999999999
 20
6056.246300175035
 30
0.0
 11
7993.599999999999
 21
6256.246300175035
 31
0.0
  0
LINE
  5
1FA64
330
747D
100
AcDbEntity
  8
部品1
 48
50.0
100
AcDbLine
 10
8193.599999999999
 20
6056.246300175033
 30
0.0
 11
8193.599999999999
 21
6256.246300175035
 31
0.0
  0
DIMENSION
  5
1FA65
330
747D
100
AcDbEntity
  8
寸法
 48
50.0
100
AcDbDimension
  2
*D18
 10
8378.5134509887
 20
6156.246300175035
 30
0.0
 11
8278.513450988697
 21
6587.746300175036
 31
0.0
 70
    32
 71
     5
 42
863.0
  3
INABA_S40G
100
AcDbAlignedDimension
 13
8193.599999999999
 23
7019.246300175035
 33
0.0
 14
8143.599999999999
 24
6156.246300175035
 34
0.0
 50
90.0
100
AcDbRotatedDimension
  0
DIMENSION
  5
1FA72
330
747D
100
AcDbEntity
  8
寸法
 48
50.0
100
AcDbDimension
  2
*D19
 10
8378.5134509887
 20
5219.246300175043
 30
0.0
 11
8278.513450988697
 21
5687.746300175041
 31
0.0
 70
    32
 71
     5
 42
936.9999999999908
  3
INABA_S40G
100
AcDbAlignedDimension
 13
8143.599999999999
 23
6156.246300175035
 33
0.0
 14
8193.600000000014
 24
5219.246300175043
 34
0.0
 50
90.0
100
AcDbRotatedDimension
  0
DIMENSION
  5
1FACB
330
747D
100
AcDbEntity
  8
寸法
 48
50.0
100
AcDbDimension
  2
*D20
 10
8093.6
 20
7585.786216729474
 30
0.0
 11
7708.599999999998
 21
7685.786216729474
 31
0.0
 70
    32
 71
     5
 42
770.0
  3
INABA_S40G
100
AcDbAlignedDimension
 13
7323.599999999998
 23
7019.246300175035
 33
0.0
 14
8093.6
 24
6206.246300175035
 34
0.0
100
AcDbRotatedDimension
  0
DIMENSION
  5
1FB1E
330
747D
100
AcDbEntity
  8
寸法
 48
50.0
100
AcDbDimension
  2
*D21
 10
8863.599999999998
 20
7585.786216729474
 30
0.0
 11
8478.599999999998
 21
7685.786216729474
 31
0.0
 70
    32
 71
     5
 42
770.0
  3
INABA_S40G
100
AcDbAlignedDimension
 13
8093.6
 23
6206.246300175035
 33
0.0
 14
8863.599999999998
 24
7019.246300175035
 34
0.0
100
AcDbRotatedDimension
  0
LEADER
  5
1FC96
330
747D
100
AcDbEntity
  8
寸法
 48
50.0
100
AcDbLeader
  3
INABA_S40G
 71
     0
 73
     0
 75
     1
 40
120.0
 41
185.591883092037
 76
     3
 10
8030.88216719823
 20
6107.535634406501
 30
0.0
 10
7960.963922672274
 20
5960.094685977511
 30
0.0
 10
7860.963922672273
 20
5960.094685977511
 30
0.0
340
1FC97
210
0.0
220
0.0
230
-1.0
213
-71.41935944326269
223
-47.92531579249407
233
0.0
  0
MTEXT
  5
1FC97
102
{ACAD_REACTORS
330
1FC96
102
}
330
747D
100
AcDbEntity
  8
部品1
 62
     7
 48
50.0
100
AcDbMText
 10
7892.383282115537
 20
6028.020001770005
 30
0.0
 40
120.0
 41
0.0
 71
     6
 72
     1
  1
\A1;C.B
  7
STYLE1
 73
     1
 44
1.0
1001
ACAD
1000
MTEXTBEGIN
1070
    73
1070
     1
1070
    44
1040
1.0
1070
    74
1070
     0
1000
MTEXTEND
  0
MTEXT
  5
20074
102
{ACAD_REACTORS
330
20075
102
}
330
747D
100
AcDbEntity
  8
寸法
 62
     7
 48
50.0
100
AcDbMText
 10
10230.34108476447
 20
2419.246954532733
 30
0.0
 40
120.0
 41
0.8
 71
     4
 72
     1
  1
\A1;C.B
  7
STYLE1
 73
     1
 44
1.0
1001
ACAD
1000
MTEXTBEGIN
1070
    73
1070
     1
1070
    44
1040
1.0
1070
    74
1070
     0
1000
MTEXTEND
  0
LEADER
  5
20075
330
747D
100
AcDbEntity
  8
寸法
 48
50.0
100
AcDbLeader
  3
INABA_S40G
 73
     0
 74
     0
 75
     1
 40
120.0
 41
185.591883092037
 76
     3
 10
10047.20287813082
 20
2162.100633851594
 30
0.0
 10
10090.34108476447
 20
2319.246954532732
 30
0.0
 10
10190.34108476447
 20
2319.246954532732
 30
0.0
340
20074
  0
LINE
  5
20076
330
747D
100
AcDbEntity
  8
細線
 48
50.0
100
AcDbLine
 10
10192.85629170723
 20
1806.401718198243
 30
0.0
 11
10186.42551108889
 21
1830.401718198243
 31
0.0
  0
LINE
  5
20077
330
747D
100
AcDbEntity
  8
細線
 48
50.0
100
AcDbLine
 10
10171.42035631274
 20
1726.401718198243
 30
0.0
 11
10177.85113693109
 21
1702.401718198244
 31
0.0
  0
LINE
  5
20078
330
747D
100
AcDbEntity
  8
部品1
100
AcDbLine
 10
10236.4784665149
 20
1922.100633851594
 30
0.0
 11
10236.4784665149
 21
1702.401718198244
 31
0.0
  0
LINE
  5
20079
330
747D
100
AcDbEntity
  8
細線
 48
50.0
100
AcDbLine
 10
10164.98957569439
 20
1702.401718198244
 30
0.0
 11
10199.28707232558
 21
1830.401718198242
 31
0.0
  0
LINE
  5
2007A
330
747D
100
AcDbEntity
  8
細線
 48
50.0
100
AcDbLine
 10
10113.96824675999
 20
1806.401718198243
 30
0.0
 11
10107.53746614164
 21
1830.401718198243
 31
0.0
  0
LINE
  5
2007B
330
747D
100
AcDbEntity
  8
細線
100
AcDbLine
 10
9989.514861014235
 20
1830.401718198246
 30
0.0
 11
10081.21377666758
 21
1922.100633851594
 31
0.0
  0
LINE
  5
2007C
330
747D
100
AcDbEntity
  8
細線
 48
50.0
100
AcDbLine
 10
10035.08020181273
 20
1806.401718198245
 30
0.0
 11
10028.64942119438
 21
1830.401718198244
 31
0.0
  0
LINE
  5
2007D
330
747D
100
AcDbEntity
  8
細線
100
AcDbLine
 10
10023.45598651119
 20
1830.401718198246
 30
0.0
 11
10115.15490216453
 21
1922.100633851594
 31
0.0
  0
LINE
  5
2007E
330
747D
100
AcDbEntity
  8
細線
 48
50.0
100
AcDbLine
 10
9798.416066971
 20
1806.401718198245
 30
0.0
 11
9791.985286352655
 21
1830.401718198244
 31
0.0
  0
LINE
  5
2007F
330
747D
100
AcDbEntity
  8
細線
 48
50.0
100
AcDbLine
 10
9877.304111918249
 20
1806.401718198245
 30
0.0
 11
9870.873331299902
 21
1830.401718198244
 31
0.0
  0
LINE
  5
20080
330
747D
100
AcDbEntity
  8
細線
 48
50.0
100
AcDbLine
 10
9956.192156865492
 20
1806.401718198245
 30
0.0
 11
9949.761376247147
 21
1830.401718198244
 31
0.0
  0
LINE
  5
20081
330
747D
100
AcDbEntity
  8
細線
 48
50.0
100
AcDbLine
 10
10092.5323113655
 20
1726.401718198243
 30
0.0
 11
10098.96309198384
 21
1702.401718198244
 31
0.0
  0
LINE
  5
20082
330
747D
100
AcDbEntity
  8
細線
 48
50.0
100
AcDbLine
 10
10013.64426641825
 20
1726.401718198244
 30
0.0
 11
10020.0750470366
 21
1702.401718198244
 31
0.0
  0
LINE
  5
20083
330
747D
100
AcDbEntity
  8
細線
 48
50.0
100
AcDbLine
 10
9855.868176523758
 20
1726.401718198244
 30
0.0
 11
9862.298957142105
 21
1702.401718198244
 31
0.0
  0
LINE
  5
20084
330
747D
100
AcDbEntity
  8
細線
 48
50.0
100
AcDbLine
 10
9934.756221471005
 20
1726.401718198244
 30
0.0
 11
9941.187002089352
 21
1702.401718198244
 31
0.0
  0
LINE
  5
20085
330
747D
100
AcDbEntity
  8
細線
 48
50.0
100
AcDbLine
 10
9928.325440852653
 20
1702.401718198244
 30
0.0
 11
9962.622937483837
 21
1830.401718198243
 31
0.0
  0
LINE
  5
20086
330
747D
100
AcDbEntity
  8
細線
 48
50.0
100
AcDbLine
 10
9849.437395905409
 20
1702.401718198244
 30
0.0
 11
9883.734892536592
 21
1830.401718198243
 31
0.0
  0
LINE
  5
20087
330
747D
100
AcDbEntity
  8
細線
 48
50.0
100
AcDbLine
 10
10007.2134857999
 20
1702.401718198244
 30
0.0
 11
10041.51098243107
 21
1830.401718198244
 31
0.0
  0
LINE
  5
20088
330
747D
100
AcDbEntity
  8
細線
100
AcDbLine
 10
10057.39711200814
 20
1830.401718198246
 30
0.0
 11
10149.09602766149
 21
1922.100633851594
 31
0.0
  0
LINE
  5
20089
330
747D
100
AcDbEntity
  8
細線
 48
50.0
100
AcDbLine
 10
10086.10153074715
 20
1702.401718198242
 30
0.0
 11
10120.39902737833
 21
1830.401718198242
 31
0.0
  0
LINE
  5
2008A
330
747D
100
AcDbEntity
  8
部品1
100
AcDbLine
 10
10116.4784665149
 20
2162.100633851594
 30
0.0
 11
10116.4784665149
 21
1922.100633851594
 31
0.0
  0
LINE
  5
2008B
330
747D
100
AcDbEntity
  8
細線
100
AcDbLine
 10
10102.64080416732
 20
1922.100633851596
 30
0.0
 11
9862.640804167323
 21
2162.100633851594
 31
0.0
  0
LINE
  5
2008C
330
747D
100
AcDbEntity
  8
細線
100
AcDbLine
 10
10051.72911592189
 20
1922.100633851594
 30
0.0
 11
9811.729115921892
 21
2162.100633851594
 31
0.0
  0
LINE
  5
2008D
330
747D
100
AcDbEntity
  8
細線
100
AcDbLine
 10
9663.455986511188
 20
1830.401718198244
 30
0.0
 11
9755.154902164534
 21
1922.100633851594
 31
0.0
  0
LINE
  5
2008E
330
747D
100
AcDbEntity
  8
細線
100
AcDbLine
 10
9629.514861014229
 20
1830.401718198244
 30
0.0
 11
9721.213776667582
 21
1922.100633851594
 31
0.0
  0
LINE
  5
2008F
330
747D
100
AcDbEntity
  8
細線
 48
50.0
100
AcDbLine
 10
9640.639977076503
 20
1806.401718198245
 30
0.0
 11
9634.209196458156
 21
1830.401718198244
 31
0.0
  0
LINE
  5
20090
330
747D
100
AcDbEntity
  8
細線
 48
50.0
100
AcDbLine
 10
9719.528022023755
 20
1806.401718198245
 30
0.0
 11
9713.097241405408
 21
1830.401718198244
 31
0.0
  0
LINE
  5
20091
330
747D
100
AcDbEntity
  8
細線
 48
50.0
100
AcDbLine
 10
9561.751932129253
 20
1806.401718198245
 30
0.0
 11
9555.321151510904
 21
1830.401718198244
 31
0.0
  0
LINE
  5
20092
330
747D
100
AcDbEntity
  8
細線
 48
50.0
100
AcDbLine
 10
9776.980131576511
 20
1726.401718198244
 30
0.0
 11
9783.41091219486
 21
1702.401718198244
 31
0.0
  0
LINE
  5
20093
330
747D
100
AcDbEntity
  8
細線
 48
50.0
100
AcDbLine
 10
9698.092086629266
 20
1726.401718198244
 30
0.0
 11
9704.522867247611
 21
1702.401718198244
 31
0.0
  0
LINE
  5
20094
330
747D
100
AcDbEntity
  8
細線
 48
50.0
100
AcDbLine
 10
9540.315996734761
 20
1726.401718198244
 30
0.0
 11
9546.74677735311
 21
1702.401718198244
 31
0.0
  0
LINE
  5
20095
330
747D
100
AcDbEntity
  8
細線
 48
50.0
100
AcDbLine
 10
9619.204041682014
 20
1726.401718198244
 30
0.0
 11
9625.634822300362
 21
1702.401718198244
 31
0.0
  0
LINE
  5
20096
330
747D
100
AcDbEntity
  8
部品1
100
AcDbLine
 10
9516.478466514902
 20
1702.401718198241
 30
0.0
 11
9516.478466514902
 21
1922.100633851594
 31
0.0
  0
LINE
  5
20097
330
747D
100
AcDbEntity
  8
細線
 48
50.0
100
AcDbLine
 10
9533.885216116415
 20
1702.401718198244
 30
0.0
 11
9568.182712747599
 21
1830.401718198244
 31
0.0
  0
LINE
  5
20098
330
747D
100
AcDbEntity
  8
細線
 48
50.0
100
AcDbLine
 10
9691.661306010914
 20
1702.401718198244
 30
0.0
 11
9725.958802642097
 21
1830.401718198244
 31
0.0
  0
LINE
  5
20099
330
747D
100
AcDbEntity
  8
細線
 48
50.0
100
AcDbLine
 10
9612.773261063662
 20
1702.401718198244
 30
0.0
 11
9647.070757694844
 21
1830.401718198243
 31
0.0
  0
LINE
  5
2009A
330
747D
100
AcDbEntity
  8
部品1
100
AcDbLine
 10
9636.478466514901
 20
1922.100633851594
 30
0.0
 11
9636.478466514901
 21
2162.100633851594
 31
0.0
  0
TEXT
  5
2009B
330
747D
100
AcDbEntity
  8
部品1
 48
50.0
100
AcDbText
 10
8872.360379756399
 20
1655.300893214285
 30
0.0
 40
80.0
  1
ボルトの出
 50
90.0
  7
STYLE2
100
AcDbText
  0
LINE
  5
2009C
330
747D
100
AcDbEntity
  8
細線
100
AcDbLine
 10
9780.200111946255
 20
1922.100633851594
 30
0.0
 11
9636.478466514901
 21
2065.822279282947
 31
0.0
  0
LWPOLYLINE
  5
2009D
330
747D
100
AcDbEntity
  8
部品1
 48
50.0
100
AcDbPolyline
 90
        2
 70
     0
 43
12.0
 10
9251.867204414514
 20
1922.100633851594
 10
10452.95950754614
 20
1922.100633851594
  0
LINE
  5
2009E
330
747D
100
AcDbEntity
  8
細線
100
AcDbLine
 10
9697.397112008145
 20
1830.401718198244
 30
0.0
 11
9789.096027661491
 21
1922.100633851594
 31
0.0
  0
LINE
  5
2009F
330
747D
100
AcDbEntity
  8
部品1
100
AcDbLine
 10
9516.478466514902
 20
1830.401718198244
 30
0.0
 11
10236.4784665149
 21
1830.401718198247
 31
0.0
  0
LINE
  5
200A0
330
747D
100
AcDbEntity
  8
部品1
100
AcDbLine
 10
9516.478466514902
 20
1702.401718198241
 30
0.0
 11
10236.4784665149
 21
1702.401718198244
 31
0.0
  0
LINE
  5
200A1
330
747D
100
AcDbEntity
  8
細線
 48
50.0
100
AcDbLine
 10
9770.549350958161
 20
1702.401718198244
 30
0.0
 11
9804.846847589345
 21
1830.401718198243
 31
0.0
  0
LINE
  5
200A2
330
747D
100
AcDbEntity
  8
部品1
100
AcDbLine
 10
9636.478466514901
 20
2162.100633851594
 30
0.0
 11
10116.4784665149
 21
2162.100633851594
 31
0.0
  0
LINE
  5
200A3
330
747D
100
AcDbEntity
  8
細線
100
AcDbLine
 10
9831.111800191685
 20
1922.100633851594
 30
0.0
 11
9636.478466514901
 21
2116.733967528377
 31
0.0
  0
LINE
  5
200A4
330
747D
100
AcDbEntity
  8
部品1
100
AcDbLine
 10
10823.21996761193
 20
518.7652840437922
 30
0.0
 11
10823.21996761194
 21
3483.072253628439
 31
0.0
  0
TEXT
  5
200A5
330
747D
100
AcDbEntity
  8
部品1
100
AcDbText
 10
7445.114783404074
 20
3303.520321677011
 30
0.0
 40
120.0
  1
基礎詳細
  7
STYLE2
100
AcDbText
  0
LINE
  5
200A6
330
747D
100
AcDbEntity
  8
部品1
 48
50.0
100
AcDbLine
 10
7760.342534212144
 20
2560.975914960737
 30
0.0
 11
7776.342534212145
 21
2552.975914960737
 31
0.0
  0
LINE
  5
200A7
330
747D
100
AcDbEntity
  8
細線
 48
50.0
100
AcDbLine
 10
7728.342534212145
 20
2512.975914960737
 30
0.0
 11
7728.342534212145
 21
2544.975914960737
 31
0.0
  0
LINE
  5
200A8
330
747D
100
AcDbEntity
  8
部品1
 48
50.0
100
AcDbLine
 10
7776.342534212145
 20
2520.975914960737
 30
0.0
 11
7776.342534212145
 21
2552.975914960737
 31
0.0
  0
LINE
  5
200A9
330
747D
100
AcDbEntity
  8
細線
 48
50.0
100
AcDbLine
 10
7760.342534212144
 20
2512.975914960737
 30
0.0
 11
7760.342534212144
 21
2544.975914960737
 31
0.0
  0
LINE
  5
200AA
330
747D
100
AcDbEntity
  8
部品1
 48
50.0
100
AcDbLine
 10
7760.342534212144
 20
2544.975914960737
 30
0.0
 11
7776.342534212145
 21
2552.975914960737
 31
0.0
  0
LINE
  5
200AB
330
747D
100
AcDbEntity
  8
部品1
 48
50.0
100
AcDbLine
 10
7728.342534212145
 20
2544.975914960737
 30
0.0
 11
7760.342534212144
 21
2544.975914960737
 31
0.0
  0
LINE
  5
200AC
330
747D
100
AcDbEntity
  8
部品1
 48
50.0
100
AcDbLine
 10
7760.342534212144
 20
2512.975914960737
 30
0.0
 11
7776.342534212145
 21
2520.975914960737
 31
0.0
  0
LINE
  5
200AD
330
747D
100
AcDbEntity
  8
部品1
 48
50.0
100
AcDbLine
 10
7728.342534212145
 20
2512.975914960737
 30
0.0
 11
7760.342534212144
 21
2512.975914960737
 31
0.0
  0
ELLIPSE
  5
200AE
330
747D
100
AcDbEntity
  8
細線
 48
50.0
100
AcDbEllipse
 10
7744.342534212144
 20
2552.975914960737
 30
0.0
 11
14.76670786606846
 21
0.0
 31
0.0
210
0.0
220
0.0
230
1.0
 40
0.2071254069489396
 41
0.0
 42
6.283185307179586
  0
LINE
  5
200AF
330
747D
100
AcDbEntity
  8
部品1
 48
50.0
100
AcDbLine
 10
7728.342534212145
 20
2560.975914960737
 30
0.0
 11
7760.342534212144
 21
2560.975914960737
 31
0.0
  0
LINE
  5
200B0
330
747D
100
AcDbEntity
  8
部品1
 48
50.0
100
AcDbLine
 10
7712.342534212145
 20
2520.975914960737
 30
0.0
 11
7712.342534212145
 21
2552.975914960737
 31
0.0
  0
LINE
  5
200B1
330
747D
100
AcDbEntity
  8
部品1
 48
50.0
100
AcDbLine
 10
7712.342534212145
 20
2552.975914960737
 30
0.0
 11
7728.342534212145
 21
2560.975914960737
 31
0.0
  0
LINE
  5
200B2
330
747D
100
AcDbEntity
  8
部品1
 48
50.0
100
AcDbLine
 10
7712.342534212145
 20
2520.975914960737
 30
0.0
 11
7728.342534212145
 21
2512.975914960737
 31
0.0
  0
LINE
  5
200B3
330
747D
100
AcDbEntity
  8
部品1
 48
50.0
100
AcDbLine
 10
7712.342534212145
 20
2552.975914960737
 30
0.0
 11
7728.342534212145
 21
2544.975914960737
 31
0.0
  0
LINE
  5
200B4
330
747D
100
AcDbEntity
  8
部品1
 48
50.0
100
AcDbLine
 10
7784.342534212145
 20
2421.623922295867
 30
0.0
 11
7784.342534212145
 21
2431.223922295867
 31
0.0
  0
ELLIPSE
  5
200B5
330
747D
100
AcDbEntity
  8
部品1
 48
50.0
100
AcDbEllipse
 10
7744.342534212144
 20
2431.223922295867
 30
0.0
 11
18.4
 21
0.0
 31
0.0
210
0.0
220
0.0
230
1.0
 40
0.3478260869565217
 41
0.0
 42
6.283185307179586
  0
ARC
  5
200B6
330
747D
100
AcDbEntity
  8
部品1
100
AcDbCircle
 10
7583.242534212144
 20
2260.200633851595
 30
0.0
 40
2.7
100
AcDbArc
 50
90.0
 51
180.0
  0
LINE
  5
200B7
330
747D
100
AcDbEntity
  8
部品1
100
AcDbLine
 10
7585.942534212144
 20
2273.700633851595
 30
0.0
 11
7628.242534212144
 21
2273.700633851591
 31
0.0
  0
LINE
  5
200B8
330
747D
100
AcDbEntity
  8
部品1
100
AcDbLine
 10
7583.242534212144
 20
2262.900633851595
 30
0.0
 11
7583.242534212144
 21
2271.000633851594
 31
0.0
  0
LINE
  5
200B9
330
747D
100
AcDbEntity
  8
部品1
100
AcDbLine
 10
7583.242534212144
 20
2262.900633851595
 30
0.0
 11
7583.242534212144
 21
2262.900633851595
 31
0.0
  0
ARC
  5
200BA
330
747D
100
AcDbEntity
  8
部品1
100
AcDbCircle
 10
7585.942534212144
 20
2271.000633851594
 30
0.0
 40
2.7
100
AcDbArc
 50
90.0
 51
180.0
  0
ARC
  5
200BB
330
747D
100
AcDbEntity
  8
部品1
100
AcDbCircle
 10
7628.242534212144
 20
2271.000633851592
 30
0.0
 40
2.7
100
AcDbArc
 50
0.0
 51
90.0
  0
LINE
  5
200BC
330
747D
100
AcDbEntity
  8
部品1
 48
50.0
100
AcDbLine
 10
7704.342534212145
 20
2431.223922295867
 30
0.0
 11
7704.342534212145
 21
2421.623922295867
 31
0.0
  0
ELLIPSE
  5
200BD
330
747D
100
AcDbEntity
  8
部品1
 48
50.0
100
AcDbEllipse
 10
7744.342534212144
 20
2421.623922295868
 30
0.0
 11
40.0
 21
0.0
 31
0.0
210
0.0
220
0.0
230
1.0
 40
0.4
 41
3.141592653589793
 42
6.283185307179586
  0
ELLIPSE
  5
200BE
330
747D
100
AcDbEntity
  8
部品1
 48
50.0
100
AcDbEllipse
 10
7744.342534212144
 20
2431.223922295867
 30
0.0
 11
40.0
 21
0.0
 31
0.0
210
0.0
220
0.0
230
1.0
 40
0.4
 41
0.0
 42
6.283185307179586
  0
LINE
  5
200BF
330
747D
100
AcDbEntity
  8
部品1
100
AcDbLine
 10
7738.942534212144
 20
2214.860633851595
 30
0.0
 11
7749.742534212145
 21
2214.860633851595
 31
0.0
  0
LINE
  5
200C0
330
747D
100
AcDbEntity
  8
部品1
100
AcDbLine
 10
7735.342534212144
 20
2211.260633851595
 30
0.0
 11
7753.342534212144
 21
2211.260633851595
 31
0.0
  0
LINE
  5
200C1
330
747D
100
AcDbEntity
  8
細線
100
AcDbLine
 10
7738.942534212147
 20
2171.660633851595
 30
0.0
 11
7738.942534212144
 21
2214.860633851595
 31
0.0
  0
LINE
  5
200C2
330
747D
100
AcDbEntity
  8
細線
100
AcDbLine
 10
7749.742534212145
 20
2171.660633851595
 30
0.0
 11
7749.742534212145
 21
2214.860633851595
 31
0.0
  0
LINE
  5
200C3
330
747D
100
AcDbEntity
  8
部品1
100
AcDbLine
 10
7651.642534212143
 20
2228.960633851595
 30
0.0
 11
7651.642534212143
 21
2211.860633851594
 31
0.0
  0
LINE
  5
200C4
330
747D
100
AcDbEntity
  8
部品1
100
AcDbLine
 10
7685.202534212145
 20
2228.960633851595
 30
0.0
 11
7685.202534212142
 21
2174.360633851595
 31
0.0
  0
ARC
  5
200C5
330
747D
100
AcDbEntity
  8
部品1
100
AcDbCircle
 10
7670.542534212144
 20
2217.000633851594
 30
0.0
 40
2.7
100
AcDbArc
 50
0.0
 51
90.0
  0
LINE
  5
200C6
330
747D
100
AcDbEntity
  8
部品1
100
AcDbLine
 10
7630.942534212144
 20
2219.700633851595
 30
0.0
 11
7670.542534212144
 21
2219.700633851595
 31
0.0
  0
ARC
  5
200C7
330
747D
100
AcDbEntity
  8
部品1
100
AcDbCircle
 10
7670.542534212144
 20
2174.360633851595
 30
0.0
 40
2.7
100
AcDbArc
 50
270.0
 51
0.0
  0
ARC
  5
200C8
330
747D
100
AcDbEntity
  8
部品1
100
AcDbCircle
 10
7687.902534212138
 20
2174.360633851595
 30
0.0
 40
2.7
100
AcDbArc
 50
180.0
 51
270.0
  0
LINE
  5
200C9
330
747D
100
AcDbEntity
  8
部品1
100
AcDbLine
 10
7658.842534212145
 20
2171.660633851595
 30
0.0
 11
7670.542534212144
 21
2171.660633851595
 31
0.0
  0
LINE
  5
200CA
330
747D
100
AcDbEntity
  8
部品1
100
AcDbLine
 10
7673.242534212144
 20
2217.000633851594
 30
0.0
 11
7673.242534212144
 21
2174.360633851595
 31
0.0
  0
ARC
  5
200CB
330
747D
100
AcDbEntity
  8
部品1
100
AcDbCircle
 10
7682.502534212145
 20
2228.960633851595
 30
0.0
 40
2.7
100
AcDbArc
 50
0.0
 51
90.0
  0
ARC
  5
200CC
330
747D
100
AcDbEntity
  8
部品1
100
AcDbCircle
 10
7654.342534212145
 20
2228.960633851595
 30
0.0
 40
2.7
100
AcDbArc
 50
90.0
 51
180.0
  0
LINE
  5
200CD
330
747D
100
AcDbEntity
  8
部品1
100
AcDbLine
 10
7654.342534212145
 20
2231.660633851595
 30
0.0
 11
7682.502534212145
 21
2231.660633851595
 31
0.0
  0
LINE
  5
200CE
330
747D
100
AcDbEntity
  8
部品1
100
AcDbLine
 10
7630.942534212144
 20
2271.000633851592
 30
0.0
 11
7630.942534212144
 21
2219.700633851595
 31
0.0
  0
LINE
  5
200CF
330
747D
100
AcDbEntity
  8
部品1
100
AcDbLine
 10
7580.542534212144
 20
2252.100633851595
 30
0.0
 11
7580.542534212144
 21
2260.200633851595
 31
0.0
  0
LINE
  5
200D0
330
747D
100
AcDbEntity
  8
部品1
100
AcDbLine
 10
7687.902534212138
 20
2171.660633851595
 30
0.0
 11
7889.242534212138
 21
2171.660633851595
 31
0.0
  0
LINE
  5
200D1
330
747D
100
AcDbEntity
  8
部品1
100
AcDbLine
 10
7529.242534212144
 20
2174.360633851595
 30
0.0
 11
7529.242534212144
 21
2236.492537554303
 31
0.0
  0
LINE
  5
200D2
330
747D
100
AcDbEntity
  8
部品1
100
AcDbLine
 10
7531.942534212145
 20
2171.660633851595
 30
0.0
 11
7543.642534212138
 21
2171.660633851595
 31
0.0
  0
LINE
  5
200D3
330
747D
100
AcDbEntity
  8
細線
 48
50.0
100
AcDbLine
 10
7522.942534212145
 20
2149.8812101515
 30
0.0
 11
7535.161957912238
 21
2162.100633851594
 31
0.0
  0
ARC
  5
200D4
330
747D
100
AcDbEntity
  8
部品1
100
AcDbCircle
 10
7531.942534212145
 20
2174.360633851595
 30
0.0
 40
2.7
100
AcDbArc
 50
180.0
 51
270.0
  0
LINE
  5
200D5
330
747D
100
AcDbEntity
  8
部品1
100
AcDbLine
 10
7531.287688024545
 20
2239.111922304695
 30
0.0
 11
7540.042534212145
 21
2241.300633851594
 31
0.0
  0
ARC
  5
200D6
330
747D
100
AcDbEntity
  8
部品1
100
AcDbCircle
 10
7531.942534212145
 20
2236.492537554303
 30
0.0
 40
2.7
100
AcDbArc
 50
104.0362434679059
 51
180.0
  0
ARC
  5
200D7
330
747D
100
AcDbEntity
  8
部品1
100
AcDbCircle
 10
7542.742534212144
 20
2249.400633851595
 30
0.0
 40
2.7
100
AcDbArc
 50
90.0
 51
180.0
  0
LINE
  5
200D8
330
747D
100
AcDbEntity
  8
部品1
100
AcDbLine
 10
7540.042534212145
 20
2241.300633851594
 30
0.0
 11
7540.042534212145
 21
2249.400633851595
 31
0.0
  0
TEXT
  5
200D9
330
747D
100
AcDbEntity
  8
部品1
 48
50.0
100
AcDbText
 10
7096.496437632652
 20
2492.661154952071
 30
0.0
 40
80.0
  1
※(別売)
  7
STYLE2
100
AcDbText
  0
LINE
  5
200DA
330
747D
100
AcDbEntity
  8
部品1
 48
50.0
100
AcDbLine
 10
7522.942534212145
 20
2162.100633851594
 30
0.0
 11
7936.942534212146
 21
2162.100633851594
 31
0.0
  0
LINE
  5
200DB
330
747D
100
AcDbEntity
  8
細線
 48
50.0
100
AcDbLine
 10
7522.942534212145
 20
2095.999673425084
 30
0.0
 11
7589.043494638655
 21
2162.100633851594
 31
0.0
  0
LINE
  5
200DC
330
747D
100
AcDbEntity
  8
細線
 48
50.0
100
AcDbLine
 10
7522.942534212145
 20
2122.940441788292
 30
0.0
 11
7562.102726275449
 21
2162.100633851594
 31
0.0
  0
LINE
  5
200DD
330
747D
100
AcDbEntity
  8
部品1
100
AcDbLine
 10
7542.742534212144
 20
2252.100633851595
 30
0.0
 11
7580.542534212144
 21
2252.100633851595
 31
0.0
  0
LINE
  5
200DE
330
747D
100
AcDbEntity
  8
部品1
 48
50.0
100
AcDbLine
 10
7936.942534212144
 20
1618.100633851594
 30
0.0
 11
8064.942534212143
 21
1618.100633851594
 31
0.0
  0
LINE
  5
200DF
330
747D
100
AcDbEntity
  8
部品1
100
AcDbLine
 10
7753.342534212144
 20
1937.100633851594
 30
0.0
 11
7789.342534212145
 21
1937.100633851594
 31
0.0
  0
LINE
  5
200E0
330
747D
100
AcDbEntity
  8
部品1
100
AcDbLine
 10
7753.342534212144
 20
1919.100633851594
 30
0.0
 11
7789.342534212145
 21
1919.100633851594
 31
0.0
  0
ARC
  5
200E1
330
747D
100
AcDbEntity
  8
部品1
100
AcDbCircle
 10
7753.342534212144
 20
1937.100633851594
 30
0.0
 40
18.0
100
AcDbArc
 50
180.0
 51
270.0
  0
LINE
  5
200E2
330
747D
100
AcDbEntity
  8
部品1
100
AcDbLine
 10
7789.342534212145
 20
1919.100633851594
 30
0.0
 11
7789.342534212145
 21
1937.100633851594
 31
0.0
  0
LINE
  5
200E3
330
747D
100
AcDbEntity
  8
部品1
100
AcDbLine
 10
7807.342534212145
 20
1838.100633851593
 30
0.0
 11
7681.342534212138
 21
1838.100633851593
 31
0.0
  0
LINE
  5
200E4
330
747D
100
AcDbEntity
  8
細線
 48
50.0
100
AcDbLine
 10
8101.32035940448
 20
1354.100633851593
 30
0.0
 11
8094.889578786133
 21
1378.100633851592
 31
0.0
  0
LINE
  5
200E5
330
747D
100
AcDbEntity
  8
細線
 48
50.0
100
AcDbLine
 10
8022.432314457233
 20
1354.100633851593
 30
0.0
 11
8016.001533838887
 21
1378.100633851592
 31
0.0
  0
LINE
  5
200E6
330
747D
100
AcDbEntity
  8
細線
 48
50.0
100
AcDbLine
 10
7943.544269509977
 20
1354.100633851594
 30
0.0
 11
7937.11348889163
 21
1378.100633851594
 31
0.0
  0
LINE
  5
200E7
330
747D
100
AcDbEntity
  8
細線
 48
50.0
100
AcDbLine
 10
8079.884424009989
 20
1274.100633851593
 30
0.0
 11
8086.315204628338
 21
1250.100633851592
 31
0.0
  0
LINE
  5
200E8
330
747D
100
AcDbEntity
  8
細線
 48
50.0
100
AcDbLine
 10
8000.996379062746
 20
1274.100633851593
 30
0.0
 11
8007.427159681091
 21
1250.100633851592
 31
0.0
  0
LINE
  5
200E9
330
747D
100
AcDbEntity
  8
細線
 48
50.0
100
AcDbLine
 10
7922.108334115495
 20
1274.100633851594
 30
0.0
 11
7928.539114733853
 21
1250.100633851594
 31
0.0
  0
LINE
  5
200EA
330
747D
100
AcDbEntity
  8
細線
 48
50.0
100
AcDbLine
 10
7994.565598444395
 20
1250.100633851592
 30
0.0
 11
8028.863095075577
 21
1378.100633851591
 31
0.0
  0
LINE
  5
200EB
330
747D
100
AcDbEntity
  8
細線
 48
50.0
100
AcDbLine
 10
7915.677553497146
 20
1250.100633851592
 30
0.0
 11
7949.97505012832
 21
1378.100633851594
 31
0.0
  0
LINE
  5
200EC
330
747D
100
AcDbEntity
  8
細線
 48
50.0
100
AcDbLine
 10
8073.453643391639
 20
1250.100633851592
 30
0.0
 11
8107.751140022825
 21
1378.100633851591
 31
0.0
  0
LINE
  5
200ED
330
747D
100
AcDbEntity
  8
部品1
 48
50.0
100
AcDbLine
 10
8144.942534212146
 20
1378.100633851594
 30
0.0
 11
8144.942534212146
 21
1250.100633851594
 31
0.0
  0
LINE
  5
200EE
330
747D
100
AcDbEntity
  8
細線
 48
50.0
100
AcDbLine
 10
7864.65622456274
 20
1354.100633851594
 30
0.0
 11
7858.225443944393
 21
1378.100633851594
 31
0.0
  0
LINE
  5
200EF
330
747D
100
AcDbEntity
  8
細線
 48
50.0
100
AcDbLine
 10
7785.768179615494
 20
1354.100633851594
 30
0.0
 11
7779.337398997146
 21
1378.100633851594
 31
0.0
  0
LINE
  5
200F0
330
747D
100
AcDbEntity
  8
細線
 48
50.0
100
AcDbLine
 10
7627.992089721001
 20
1354.100633851594
 30
0.0
 11
7621.561309102654
 21
1378.100633851594
 31
0.0
  0
LINE
  5
200F1
330
747D
100
AcDbEntity
  8
細線
 48
50.0
100
AcDbLine
 10
7706.880134668246
 20
1354.100633851594
 30
0.0
 11
7700.4493540499
 21
1378.100633851594
 31
0.0
  0
LINE
  5
200F2
330
747D
100
AcDbEntity
  8
細線
 48
50.0
100
AcDbLine
 10
7764.332244221003
 20
1274.100633851594
 30
0.0
 11
7770.763024839351
 21
1250.100633851594
 31
0.0
  0
LINE
  5
200F3
330
747D
100
AcDbEntity
  8
細線
 48
50.0
100
AcDbLine
 10
7843.22028916825
 20
1274.100633851594
 30
0.0
 11
7849.651069786595
 21
1250.100633851594
 31
0.0
  0
LINE
  5
200F4
330
747D
100
AcDbEntity
  8
細線
 48
50.0
100
AcDbLine
 10
7606.556154326511
 20
1274.100633851594
 30
0.0
 11
7612.986934944858
 21
1250.100633851594
 31
0.0
  0
LINE
  5
200F5
330
747D
100
AcDbEntity
  8
細線
 48
50.0
100
AcDbLine
 10
7685.444199273757
 20
1274.100633851594
 30
0.0
 11
7691.874979892104
 21
1250.100633851594
 31
0.0
  0
LINE
  5
200F6
330
747D
100
AcDbEntity
  8
細線
 48
50.0
100
AcDbLine
 10
7836.789508549897
 20
1250.100633851594
 30
0.0
 11
7871.087005181083
 21
1378.100633851592
 31
0.0
  0
LINE
  5
200F7
330
747D
100
AcDbEntity
  8
細線
 48
50.0
100
AcDbLine
 10
7679.013418655405
 20
1250.100633851594
 30
0.0
 11
7713.310915286591
 21
1378.100633851592
 31
0.0
  0
LINE
  5
200F8
330
747D
100
AcDbEntity
  8
細線
 48
50.0
100
AcDbLine
 10
7600.125373708158
 20
1250.100633851594
 30
0.0
 11
7634.422870339342
 21
1378.100633851594
 31
0.0
  0
LINE
  5
200F9
330
747D
100
AcDbEntity
  8
細線
 48
50.0
100
AcDbLine
 10
7757.901463602654
 20
1250.100633851592
 30
0.0
 11
7792.198960233837
 21
1378.100633851592
 31
0.0
  0
LINE
  5
200FA
330
747D
100
AcDbEntity
  8
細線
 48
50.0
100
AcDbLine
 10
7882.674229166953
 20
1378.100633851594
 30
0.0
 11
8064.942534212143
 21
1560.36893889679
 31
0.0
  0
LINE
  5
200FB
330
747D
100
AcDbEntity
  8
部品1
 48
50.0
100
AcDbLine
 10
8064.942534212143
 20
1618.100633851594
 30
0.0
 11
8064.942534212143
 21
1378.100633851594
 31
0.0
  0
LINE
  5
200FC
330
747D
100
AcDbEntity
  8
細線
 48
50.0
100
AcDbLine
 10
7855.733460803747
 20
1378.100633851594
 30
0.0
 11
8064.942534212143
 21
1587.309707259987
 31
0.0
  0
LINE
  5
200FD
330
747D
100
AcDbEntity
  8
細線
 48
50.0
100
AcDbLine
 10
7828.792692440536
 20
1378.100633851594
 30
0.0
 11
8064.942534212143
 21
1614.250475623203
 31
0.0
  0
LINE
  5
200FE
330
747D
100
AcDbEntity
  8
細線
 48
50.0
100
AcDbLine
 10
7613.266545534878
 20
1378.100633851594
 30
0.0
 11
7936.942534212143
 21
1701.776622528861
 31
0.0
  0
LINE
  5
200FF
330
747D
100
AcDbEntity
  8
細線
 48
50.0
100
AcDbLine
 10
7667.148082261293
 20
1378.100633851594
 30
0.0
 11
7936.942534212144
 21
1647.895085802452
 31
0.0
  0
LINE
  5
20100
330
747D
100
AcDbEntity
  8
細線
 48
50.0
100
AcDbLine
 10
7640.207313898088
 20
1378.100633851594
 30
0.0
 11
7936.942534212144
 21
1674.835854165647
 31
0.0
  0
LINE
  5
20101
330
747D
100
AcDbEntity
  8
細線
 48
50.0
100
AcDbLine
 10
7394.942534212138
 20
1590.82891634018
 30
0.0
 11
7422.214251723559
 21
1618.100633851594
 31
0.0
  0
LINE
  5
20102
330
747D
100
AcDbEntity
  8
部品1
 48
50.0
100
AcDbLine
 10
7394.942534212145
 20
1618.100633851594
 30
0.0
 11
7522.942534212145
 21
1618.100633851594
 31
0.0
  0
LINE
  5
20103
330
747D
100
AcDbEntity
  8
細線
 48
50.0
100
AcDbLine
 10
7394.942534212138
 20
1563.888147976969
 30
0.0
 11
7449.155020086769
 21
1618.100633851594
 31
0.0
  0
LWPOLYLINE
  5
20104
330
747D
100
AcDbEntity
  8
部品1
 48
50.0
100
AcDbPolyline
 90
        2
 70
     0
 43
8.0
 10
7108.802632379187
 20
1922.100633851595
 10
7522.942534212145
 20
1922.100633851595
  0
LINE
  5
20105
330
747D
100
AcDbEntity
  8
細線
 48
50.0
100
AcDbLine
 10
7470.215999826497
 20
1354.100633851594
 30
0.0
 11
7463.785219208149
 21
1378.100633851594
 31
0.0
  0
LINE
  5
20106
330
747D
100
AcDbEntity
  8
細線
 48
50.0
100
AcDbLine
 10
7549.104044773748
 20
1354.100633851594
 30
0.0
 11
7542.673264155403
 21
1378.100633851594
 31
0.0
  0
LINE
  5
20107
330
747D
100
AcDbEntity
  8
細線
 48
50.0
100
AcDbLine
 10
7391.327954879246
 20
1354.100633851594
 30
0.0
 11
7384.897174260898
 21
1378.100633851594
 31
0.0
  0
LINE
  5
20108
330
747D
100
AcDbEntity
  8
細線
 48
50.0
100
AcDbLine
 10
7314.942534212145
 20
1363.440554817374
 30
0.0
 11
7318.87069055034
 21
1378.100633851594
 31
0.0
  0
LINE
  5
20109
330
747D
100
AcDbEntity
  8
細線
 48
50.0
100
AcDbLine
 10
7448.780064432007
 20
1274.100633851594
 30
0.0
 11
7455.210845050356
 21
1250.100633851594
 31
0.0
  0
LINE
  5
2010A
330
747D
100
AcDbEntity
  8
細線
 48
50.0
100
AcDbLine
 10
7527.668109379259
 20
1274.100633851594
 30
0.0
 11
7534.098889997607
 21
1250.100633851594
 31
0.0
  0
LINE
  5
2010B
330
747D
100
AcDbEntity
  8
細線
 48
50.0
100
AcDbLine
 10
7369.892019484756
 20
1274.100633851594
 30
0.0
 11
7376.322800103102
 21
1250.100633851594
 31
0.0
  0
LINE
  5
2010C
330
747D
100
AcDbEntity
  8
細線
 48
50.0
100
AcDbLine
 10
7521.237328760907
 20
1250.100633851592
 30
0.0
 11
7555.53482539209
 21
1378.100633851592
 31
0.0
  0
LINE
  5
2010D
330
747D
100
AcDbEntity
  8
細線
 48
50.0
100
AcDbLine
 10
7363.461238866403
 20
1250.100633851592
 30
0.0
 11
7397.758735497586
 21
1378.100633851592
 31
0.0
  0
LINE
  5
2010E
330
747D
100
AcDbEntity
  8
部品1
 48
50.0
100
AcDbLine
 10
7314.942534212147
 20
1250.100633851594
 30
0.0
 11
7314.942534212147
 21
1378.100633851594
 31
0.0
  0
LINE
  5
2010F
330
747D
100
AcDbEntity
  8
細線
 48
50.0
100
AcDbLine
 10
7442.349283813661
 20
1250.100633851594
 30
0.0
 11
7476.646780444844
 21
1378.100633851594
 31
0.0
  0
LINE
  5
20110
330
747D
100
AcDbEntity
  8
部品1
 48
50.0
100
AcDbLine
 10
7394.942534212145
 20
1378.100633851594
 30
0.0
 11
7394.942534212145
 21
1618.100633851594
 31
0.0
  0
LINE
  5
20111
330
747D
100
AcDbEntity
  8
細線
 48
50.0
100
AcDbLine
 10
7394.942534212138
 20
1536.947379613765
 30
0.0
 11
7476.095788449973
 21
1618.100633851594
 31
0.0
  0
LINE
  5
20112
330
747D
100
AcDbEntity
  8
部品1
 48
50.0
100
AcDbLine
 10
8144.942534212146
 20
1250.100633851594
 30
0.0
 11
7314.942534212147
 21
1250.100633851594
 31
0.0
  0
LINE
  5
20113
330
747D
100
AcDbEntity
  8
部品1
 48
50.0
100
AcDbLine
 10
8144.942534212146
 20
1378.100633851594
 30
0.0
 11
7314.942534212147
 21
1378.100633851594
 31
0.0
  0
LINE
  5
20114
330
747D
100
AcDbEntity
  8
細線
 48
50.0
100
AcDbLine
 10
7397.740398629219
 20
1378.100633851594
 30
0.0
 11
7936.942534212143
 21
1917.30276943452
 31
0.0
  0
LINE
  5
20115
330
747D
100
AcDbEntity
  8
細線
 48
50.0
100
AcDbLine
 10
7424.681166992428
 20
1378.100633851594
 30
0.0
 11
7936.942534212146
 21
1890.362001071308
 31
0.0
  0
LINE
  5
20116
330
747D
100
AcDbEntity
  8
細線
 48
50.0
100
AcDbLine
 10
7451.621935355634
 20
1378.100633851594
 30
0.0
 11
7936.942534212144
 21
1863.421232708102
 31
0.0
  0
LINE
  5
20117
330
747D
100
AcDbEntity
  8
細線
 48
50.0
100
AcDbLine
 10
7522.942534212145
 20
1718.82891634018
 30
0.0
 11
7681.342534212138
 21
1877.228916340175
 31
0.0
  0
LINE
  5
20118
330
747D
100
AcDbEntity
  8
細線
 48
50.0
100
AcDbLine
 10
7522.942534212145
 20
1664.947379613765
 30
0.0
 11
7696.09578844998
 21
1838.100633851593
 31
0.0
  0
LINE
  5
20119
330
747D
100
AcDbEntity
  8
細線
 48
50.0
100
AcDbLine
 10
7522.942534212145
 20
1691.888147976972
 30
0.0
 11
7681.342534212138
 21
1850.288147976961
 31
0.0
  0
LINE
  5
2011A
330
747D
100
AcDbEntity
  8
部品1
100
AcDbLine
 10
7681.342534212138
 20
1838.100633851594
 30
0.0
 11
7681.342534212145
 21
2162.100633851594
 31
0.0
  0
LINE
  5
2011B
330
747D
100
AcDbEntity
  8
部品1
100
AcDbLine
 10
7807.342534212145
 20
1838.100633851594
 30
0.0
 11
7807.342534212145
 21
2162.100633851594
 31
0.0
  0
LINE
  5
2011C
330
747D
100
AcDbEntity
  8
細線
 48
50.0
100
AcDbLine
 10
7807.342534212145
 20
1976.288147976966
 30
0.0
 11
7936.942534212144
 21
2105.888147976962
 31
0.0
  0
LINE
  5
2011D
330
747D
100
AcDbEntity
  8
細線
 48
50.0
100
AcDbLine
 10
7807.342534212145
 20
1949.347379613753
 30
0.0
 11
7936.942534212144
 21
2078.947379613745
 31
0.0
  0
LINE
  5
2011E
330
747D
100
AcDbEntity
  8
部品1
100
AcDbLine
 10
7735.342534212144
 20
1937.100633851594
 30
0.0
 11
7735.342534212141
 21
2211.260633851595
 31
0.0
  0
LINE
  5
2011F
330
747D
100
AcDbEntity
  8
部品1
100
AcDbLine
 10
7753.342534212144
 20
1937.100633851594
 30
0.0
 11
7753.342534212141
 21
2211.260633851595
 31
0.0
  0
TEXT
  5
20120
330
747D
100
AcDbEntity
  8
部品1
 48
50.0
100
AcDbText
 10
7108.802632379187
 20
1933.33962613485
 30
0.0
 40
80.0
  1
▽G.L
  7
STYLE2
100
AcDbText
  0
LINE
  5
20121
330
747D
100
AcDbEntity
  8
細線
 48
50.0
100
AcDbLine
 10
7522.942534212145
 20
1880.473526519425
 30
0.0
 11
7681.342534212141
 21
2038.873526519418
 31
0.0
  0
LINE
  5
20122
330
747D
100
AcDbEntity
  8
細線
 48
50.0
100
AcDbLine
 10
7522.942534212145
 20
1907.414294882632
 30
0.0
 11
7681.342534212143
 21
2065.81429488263
 31
0.0
  0
LINE
  5
20123
330
747D
100
AcDbEntity
  8
細線
 48
50.0
100
AcDbLine
 10
7522.942534212145
 20
1934.35506324584
 30
0.0
 11
7681.342534212143
 21
2092.755063245837
 31
0.0
  0
LINE
  5
20124
330
747D
100
AcDbEntity
  8
部品1
 48
50.0
100
AcDbLine
 10
7522.942534212145
 20
1618.100633851594
 30
0.0
 11
7522.942534212145
 21
2162.100633851594
 31
0.0
  0
LINE
  5
20125
330
747D
100
AcDbEntity
  8
部品1
100
AcDbLine
 10
7936.942534212143
 20
1618.100633851594
 30
0.0
 11
7936.942534212144
 21
2162.100633851594
 31
0.0
  0
LINE
  5
20126
330
747D
100
AcDbEntity
  8
細線
 48
50.0
100
AcDbLine
 10
7807.342534212145
 20
2003.228916340183
 30
0.0
 11
7936.942534212144
 21
2132.828916340182
 31
0.0
  0
LINE
  5
20127
330
747D
100
AcDbEntity
  8
細線
 48
50.0
100
AcDbLine
 10
5931.39564353742
 20
2042.84748574831
 30
0.0
 11
6014.90322103495
 21
2126.35506324584
 31
0.0
  0
LINE
  5
20128
330
747D
100
AcDbEntity
  8
細線
 48
50.0
100
AcDbLine
 10
5942.455928300937
 20
2026.967002148616
 30
0.0
 11
6014.90322103495
 21
2099.414294882632
 31
0.0
  0
LINE
  5
20129
330
747D
100
AcDbEntity
  8
細線
 48
50.0
100
AcDbLine
 10
5822.903221034951
 20
2149.8812101515
 30
0.0
 11
5835.122644735045
 21
2162.100633851594
 31
0.0
  0
LINE
  5
2012A
330
747D
100
AcDbEntity
  8
細線
 48
50.0
100
AcDbLine
 10
5822.903221034951
 20
2095.999673425084
 30
0.0
 11
5889.004181461459
 21
2162.100633851594
 31
0.0
  0
LINE
  5
2012B
330
747D
100
AcDbEntity
  8
細線
 48
50.0
100
AcDbLine
 10
5822.903221034951
 20
2122.940441788292
 30
0.0
 11
5862.063413098255
 21
2162.100633851594
 31
0.0
  0
LINE
  5
2012C
330
747D
100
AcDbEntity
  8
部品1
 48
50.0
100
AcDbLine
 10
5822.903221034951
 20
2162.100633851594
 30
0.0
 11
6014.90322103495
 21
2162.100633851594
 31
0.0
  0
DIMENSION
  5
2012D
330
747D
100
AcDbEntity
  8
寸法
 48
50.0
100
AcDbDimension
  2
*D27
 10
5822.903221034949
 20
2581.768441767975
 30
0.0
 11
5918.903221034949
 21
2581.768441767975
 31
0.0
 70
   160
  1
120\P170
 71
     5
 42
192.0
  3
INABA_S40G
100
AcDbAlignedDimension
 13
6014.903221034949
 23
2162.100633851594
 33
0.0
 14
5822.903221034949
 24
2162.100633851594
 34
0.0
100
AcDbRotatedDimension
  0
MTEXT
  5
2012E
102
{ACAD_REACTORS
330
20183
102
}
330
747D
100
AcDbEntity
  8
寸法
 62
     7
 48
50.0
100
AcDbMText
 10
6256.641676896201
 20
1200.751548119441
 30
0.0
 40
80.0
 41
0.8
 71
     4
 72
     1
  1
\A1;D10@300
  7
STYLE2
 73
     1
 44
1.0
1001
ACAD
1000
MTEXTBEGIN
1070
    73
1070
     1
1070
    44
1040
1.0
1070
    74
1070
     0
1000
MTEXTEND
  0
LINE
  5
2012F
330
747D
100
AcDbEntity
  8
細線
 48
50.0
100
AcDbLine
 10
5942.903221034956
 20
1811.888147976975
 30
0.0
 11
6014.903221034943
 21
1883.88814797697
 31
0.0
  0
LINE
  5
20130
330
747D
100
AcDbEntity
  8
細線
 48
50.0
100
AcDbLine
 10
5942.90322103495
 20
1838.82891634018
 30
0.0
 11
6014.90322103495
 21
1910.828916340181
 31
0.0
  0
LINE
  5
20131
330
747D
100
AcDbEntity
  8
細線
 48
50.0
100
AcDbLine
 10
5942.903221034956
 20
1569.421232708106
 30
0.0
 11
6014.903221034943
 21
1641.421232708106
 31
0.0
  0
LINE
  5
20132
330
747D
100
AcDbEntity
  8
細線
 48
50.0
100
AcDbLine
 10
5942.903221034956
 20
1623.302769434524
 30
0.0
 11
6014.903221034943
 21
1695.30276943452
 31
0.0
  0
LINE
  5
20133
330
747D
100
AcDbEntity
  8
細線
 48
50.0
100
AcDbLine
 10
5942.903221034956
 20
1596.362001071315
 30
0.0
 11
6014.903221034943
 21
1668.36200107131
 31
0.0
  0
LINE
  5
20134
330
747D
100
AcDbEntity
  8
部品1
 48
50.0
100
AcDbLine
 10
6014.90322103495
 20
1618.100633851594
 30
0.0
 11
6142.90322103495
 21
1618.100633851594
 31
0.0
  0
LINE
  5
20135
330
747D
100
AcDbEntity
  8
細線
 48
50.0
100
AcDbLine
 10
5942.903221034956
 20
1784.947379613765
 30
0.0
 11
6014.903221034943
 21
1856.947379613765
 31
0.0
  0
LINE
  5
20136
330
747D
100
AcDbEntity
  8
部品1
 48
50.0
100
AcDbLine
 10
5910.90322103495
 20
1964.227848548716
 30
0.0
 11
5910.90322103495
 21
2022.35506324584
 31
0.0
  0
LINE
  5
20137
330
747D
100
AcDbEntity
  8
細線
 48
50.0
100
AcDbLine
 10
5822.903221034951
 20
1934.35506324584
 30
0.0
 11
5894.903221034951
 21
2006.35506324584
 31
0.0
  0
LINE
  5
20138
330
747D
100
AcDbEntity
  8
部品1
 48
50.0
100
AcDbLine
 10
5894.903221034951
 20
1964.22784854872
 30
0.0
 11
5894.903221034951
 21
2022.35506324584
 31
0.0
  0
LINE
  5
20139
330
747D
100
AcDbEntity
  8
細線
 48
50.0
100
AcDbLine
 10
5822.903221034951
 20
1907.414294882632
 30
0.0
 11
5894.903221034951
 21
1979.414294882632
 31
0.0
  0
LINE
  5
2013A
330
747D
100
AcDbEntity
  8
細線
 48
50.0
100
AcDbLine
 10
5822.903221034951
 20
1880.473526519425
 30
0.0
 11
5906.657543064245
 21
1964.227848548716
 31
0.0
  0
LINE
  5
2013B
330
747D
100
AcDbEntity
  8
部品1
 48
50.0
100
AcDbLine
 10
5910.90322103495
 20
1964.227848548716
 30
0.0
 11
5894.903221034951
 21
1964.22784854872
 31
0.0
  0
LINE
  5
2013C
330
747D
100
AcDbEntity
  8
細線
 48
50.0
100
AcDbLine
 10
5694.903221034944
 20
1590.82891634018
 30
0.0
 11
5722.174938546364
 21
1618.100633851594
 31
0.0
  0
LINE
  5
2013D
330
747D
100
AcDbEntity
  8
細線
 48
50.0
100
AcDbLine
 10
5694.903221034944
 20
1563.888147976969
 30
0.0
 11
5749.115706909575
 21
1618.100633851594
 31
0.0
  0
LINE
  5
2013E
330
747D
100
AcDbEntity
  8
部品1
 48
50.0
100
AcDbLine
 10
5694.903221034951
 20
1618.100633851594
 30
0.0
 11
5822.903221034951
 21
1618.100633851594
 31
0.0
  0
LINE
  5
2013F
330
747D
100
AcDbEntity
  8
細線
 48
50.0
100
AcDbLine
 10
5910.90322103495
 20
1995.414294882632
 30
0.0
 11
5926.903221034951
 21
2011.414294882632
 31
0.0
  0
LINE
  5
20140
330
747D
100
AcDbEntity
  8
細線
 48
50.0
100
AcDbLine
 10
5910.90322103495
 20
1968.473526519425
 30
0.0
 11
5926.903221034951
 21
1984.473526519425
 31
0.0
  0
LINE
  5
20141
330
747D
100
AcDbEntity
  8
細線
 48
50.0
100
AcDbLine
 10
5822.903221034951
 20
1664.947379613765
 30
0.0
 11
5926.903221034956
 21
1768.947379613765
 31
0.0
  0
LINE
  5
20142
330
747D
100
AcDbEntity
  8
細線
 48
50.0
100
AcDbLine
 10
5822.903221034951
 20
1718.82891634018
 30
0.0
 11
5926.903221034951
 21
1822.82891634018
 31
0.0
  0
LINE
  5
20143
330
747D
100
AcDbEntity
  8
細線
 48
50.0
100
AcDbLine
 10
5822.903221034951
 20
1691.888147976972
 30
0.0
 11
5926.903221034956
 21
1795.888147976975
 31
0.0
  0
LINE
  5
20144
330
747D
100
AcDbEntity
  8
細線
 48
50.0
100
AcDbLine
 10
6085.728866438298
 20
1354.100633851594
 30
0.0
 11
6079.298085819952
 21
1378.100633851594
 31
0.0
  0
LINE
  5
20145
330
747D
100
AcDbEntity
  8
細線
 48
50.0
100
AcDbLine
 10
6128.753379263343
 20
1378.100633851594
 30
0.0
 11
6142.90322103495
 21
1392.250475623201
 31
0.0
  0
LINE
  5
20146
330
747D
100
AcDbEntity
  8
細線
 48
50.0
100
AcDbLine
 10
6164.616911385545
 20
1354.100633851594
 30
0.0
 11
6158.186130767197
 21
1378.100633851594
 31
0.0
  0
LINE
  5
20147
330
747D
100
AcDbEntity
  8
部品1
 48
50.0
100
AcDbLine
 10
6086.903221034951
 20
1490.100633851594
 30
0.0
 11
6086.903221034951
 21
1474.100633851594
 31
0.0
  0
LINE
  5
20148
330
747D
100
AcDbEntity
  8
細線
 48
50.0
100
AcDbLine
 10
5967.108769084098
 20
1378.100633851594
 30
0.0
 11
6063.109656929235
 21
1474.101521696733
 31
0.0
  0
LINE
  5
20149
330
747D
100
AcDbEntity
  8
細線
 48
50.0
100
AcDbLine
 10
5940.168000720895
 20
1378.100633851594
 30
0.0
 11
6036.168000720895
 21
1474.100633851594
 31
0.0
  0
LINE
  5
2014A
330
747D
100
AcDbEntity
  8
細線
 48
50.0
100
AcDbLine
 10
6006.840821491053
 20
1354.100633851594
 30
0.0
 11
6000.410040872706
 21
1378.100633851594
 31
0.0
  0
LINE
  5
2014B
330
747D
100
AcDbEntity
  8
細線
 48
50.0
100
AcDbLine
 10
5927.952776543807
 20
1354.100633851594
 30
0.0
 11
5921.521995925459
 21
1378.100633851594
 31
0.0
  0
ARC
  5
2014C
330
747D
100
AcDbEntity
  8
部品1
 48
50.0
100
AcDbCircle
 10
5918.903221034951
 20
1498.100633851594
 30
0.0
 40
24.0
100
AcDbArc
 50
340.528779365498
 51
0.0
  0
CIRCLE
  5
2014D
330
747D
100
AcDbEntity
  8
部品1
 48
50.0
100
AcDbCircle
 10
6046.90322103495
 20
1498.100633851594
 30
0.0
 40
8.0
  0
LINE
  5
2014E
330
747D
100
AcDbEntity
  8
細線
 48
50.0
100
AcDbLine
 10
6079.108769084098
 20
1490.100633851594
 30
0.0
 11
6142.90322103495
 21
1553.895085802445
 31
0.0
  0
LINE
  5
2014F
330
747D
100
AcDbEntity
  8
細線
 48
50.0
100
AcDbLine
 10
6215.638240319954
 20
1250.100633851592
 30
0.0
 11
6222.90322103495
 21
1277.213910995982
 31
0.0
  0
LINE
  5
20150
330
747D
100
AcDbEntity
  8
細線
 48
50.0
100
AcDbLine
 10
6222.069020938302
 20
1274.100633851594
 30
0.0
 11
6222.90322103495
 21
1270.98735670723
 31
0.0
  0
LINE
  5
20151
330
747D
100
AcDbEntity
  8
細線
 48
50.0
100
AcDbLine
 10
6143.180975991056
 20
1274.100633851594
 30
0.0
 11
6149.611756609403
 21
1250.100633851594
 31
0.0
  0
LINE
  5
20152
330
747D
100
AcDbEntity
  8
細線
 48
50.0
100
AcDbLine
 10
5985.404886096564
 20
1274.100633851594
 30
0.0
 11
5991.835666714909
 21
1250.100633851594
 31
0.0
  0
LINE
  5
20153
330
747D
100
AcDbEntity
  8
細線
 48
50.0
100
AcDbLine
 10
6064.292931043809
 20
1274.100633851594
 30
0.0
 11
6070.723711662156
 21
1250.100633851594
 31
0.0
  0
LINE
  5
20154
330
747D
100
AcDbEntity
  8
細線
 48
50.0
100
AcDbLine
 10
6057.862150425459
 20
1250.100633851592
 30
0.0
 11
6092.159647056644
 21
1378.100633851592
 31
0.0
  0
LINE
  5
20155
330
747D
100
AcDbEntity
  8
細線
 48
50.0
100
AcDbLine
 10
5978.97410547821
 20
1250.100633851594
 30
0.0
 11
6013.271602109397
 21
1378.100633851592
 31
0.0
  0
LINE
  5
20156
330
747D
100
AcDbEntity
  8
細線
 48
50.0
100
AcDbLine
 10
6136.750195372704
 20
1250.100633851594
 30
0.0
 11
6171.047692003889
 21
1378.100633851592
 31
0.0
  0
LINE
  5
20157
330
747D
100
AcDbEntity
  8
部品1
 48
50.0
100
AcDbLine
 10
6222.903221034954
 20
1378.100633851594
 30
0.0
 11
6222.903221034954
 21
1250.100633851594
 31
0.0
  0
LINE
  5
20158
330
747D
100
AcDbEntity
  8
部品1
 48
50.0
100
AcDbLine
 10
5910.90322103495
 20
1556.227848548717
 30
0.0
 11
5910.90322103495
 21
1498.100633851594
 31
0.0
  0
LINE
  5
20159
330
747D
100
AcDbEntity
  8
細線
 48
50.0
100
AcDbLine
 10
5836.641853815233
 20
1490.100633851594
 30
0.0
 11
5894.903221034951
 21
1548.362001071313
 31
0.0
  0
LINE
  5
2015A
330
747D
100
AcDbEntity
  8
部品1
 48
50.0
100
AcDbLine
 10
5894.903221034951
 20
1556.227848548717
 30
0.0
 11
5894.903221034951
 21
1498.100633851594
 31
0.0
  0
LINE
  5
2015B
330
747D
100
AcDbEntity
  8
細線
 48
50.0
100
AcDbLine
 10
5751.582622178439
 20
1378.100633851594
 30
0.0
 11
5847.582622178439
 21
1474.100633851594
 31
0.0
  0
LINE
  5
2015C
330
747D
100
AcDbEntity
  8
細線
 48
50.0
100
AcDbLine
 10
5849.064731596555
 20
1354.100633851594
 30
0.0
 11
5842.633950978208
 21
1378.100633851594
 31
0.0
  0
LINE
  5
2015D
330
747D
100
AcDbEntity
  8
細線
 48
50.0
100
AcDbLine
 10
5770.176686649302
 20
1354.100633851594
 30
0.0
 11
5763.745906030956
 21
1378.100633851594
 31
0.0
  0
ARC
  5
2015E
330
747D
100
AcDbEntity
  8
部品1
 48
50.0
100
AcDbCircle
 10
5918.903221034951
 20
1498.100633851594
 30
0.0
 40
24.0
100
AcDbArc
 50
180.0
 51
199.471220634502
  0
LINE
  5
2015F
330
747D
100
AcDbEntity
  8
細線
 48
50.0
100
AcDbLine
 10
5863.582622178439
 20
1490.100633851594
 30
0.0
 11
5894.903221034951
 21
1521.421232708106
 31
0.0
  0
CIRCLE
  5
20160
330
747D
100
AcDbEntity
  8
部品1
 48
50.0
100
AcDbCircle
 10
5790.903221034951
 20
1498.100633851594
 30
0.0
 40
8.0
  0
LINE
  5
20161
330
747D
100
AcDbEntity
  8
部品1
 48
50.0
100
AcDbLine
 10
5910.90322103495
 20
1556.227848548717
 30
0.0
 11
5894.903221034951
 21
1556.227848548717
 31
0.0
  0
LINE
  5
20162
330
747D
100
AcDbEntity
  8
細線
 48
50.0
100
AcDbLine
 10
5614.90322103495
 20
1363.440554817374
 30
0.0
 11
5618.831377373147
 21
1378.100633851594
 31
0.0
  0
LINE
  5
20163
330
747D
100
AcDbEntity
  8
細線
 48
50.0
100
AcDbLine
 10
5691.288641702051
 20
1354.100633851594
 30
0.0
 11
5684.857861083703
 21
1378.100633851594
 31
0.0
  0
LINE
  5
20164
330
747D
100
AcDbEntity
  8
部品1
 48
50.0
100
AcDbLine
 10
5750.903221034951
 20
1490.100633851594
 30
0.0
 11
5750.903221034951
 21
1474.100633851594
 31
0.0
  0
LINE
  5
20165
330
747D
100
AcDbEntity
  8
細線
 48
50.0
100
AcDbLine
 10
5697.701085452023
 20
1378.100633851594
 30
0.0
 11
5793.701085452023
 21
1474.100633851594
 31
0.0
  0
LINE
  5
20166
330
747D
100
AcDbEntity
  8
細線
 48
50.0
100
AcDbLine
 10
5724.641853815234
 20
1378.100633851594
 30
0.0
 11
5820.641853815234
 21
1474.100633851594
 31
0.0
  0
LINE
  5
20167
330
747D
100
AcDbEntity
  8
細線
 48
50.0
100
AcDbLine
 10
5827.628796202065
 20
1274.100633851594
 30
0.0
 11
5834.059576820411
 21
1250.100633851594
 31
0.0
  0
LINE
  5
20168
330
747D
100
AcDbEntity
  8
細線
 48
50.0
100
AcDbLine
 10
5906.516841149318
 20
1274.100633851594
 30
0.0
 11
5912.947621767663
 21
1250.100633851594
 31
0.0
  0
LINE
  5
20169
330
747D
100
AcDbEntity
  8
細線
 48
50.0
100
AcDbLine
 10
5669.852706307562
 20
1274.100633851594
 30
0.0
 11
5676.283486925908
 21
1250.100633851594
 31
0.0
  0
LINE
  5
2016A
330
747D
100
AcDbEntity
  8
細線
 48
50.0
100
AcDbLine
 10
5748.740751254812
 20
1274.100633851594
 30
0.0
 11
5755.17153187316
 21
1250.100633851594
 31
0.0
  0
LINE
  5
2016B
330
747D
100
AcDbEntity
  8
部品1
 48
50.0
100
AcDbLine
 10
5614.903221034952
 20
1250.100633851594
 30
0.0
 11
5614.903221034952
 21
1378.100633851594
 31
0.0
  0
LINE
  5
2016C
330
747D
100
AcDbEntity
  8
細線
 48
50.0
100
AcDbLine
 10
5663.421925689209
 20
1250.100633851592
 30
0.0
 11
5697.719422320392
 21
1378.100633851592
 31
0.0
  0
LINE
  5
2016D
330
747D
100
AcDbEntity
  8
細線
 48
50.0
100
AcDbLine
 10
5821.198015583711
 20
1250.100633851592
 30
0.0
 11
5855.495512214895
 21
1378.100633851592
 31
0.0
  0
LINE
  5
2016E
330
747D
100
AcDbEntity
  8
細線
 48
50.0
100
AcDbLine
 10
5742.309970636466
 20
1250.100633851594
 30
0.0
 11
5776.607467267649
 21
1378.100633851594
 31
0.0
  0
LINE
  5
2016F
330
747D
100
AcDbEntity
  8
細線
 48
50.0
100
AcDbLine
 10
5913.227232357684
 20
1378.100633851594
 30
0.0
 11
6009.227232357684
 21
1474.100633851594
 31
0.0
  0
CIRCLE
  5
20170
330
747D
100
AcDbEntity
  8
部品1
 48
50.0
100
AcDbCircle
 10
5918.903221034951
 20
1498.100633851594
 30
0.0
 40
8.0
  0
LINE
  5
20171
330
747D
100
AcDbEntity
  8
部品1
 48
50.0
100
AcDbLine
 10
6222.903221034954
 20
1378.100633851594
 30
0.0
 11
5614.903221034952
 21
1378.100633851594
 31
0.0
  0
LINE
  5
20172
330
747D
100
AcDbEntity
  8
部品1
 48
50.0
100
AcDbLine
 10
5750.903221034951
 20
1490.100633851594
 30
0.0
 11
6086.903221034951
 21
1490.100633851594
 31
0.0
  0
LINE
  5
20173
330
747D
100
AcDbEntity
  8
部品1
 48
50.0
100
AcDbLine
 10
5750.903221034951
 20
1474.100633851594
 30
0.0
 11
6086.903221034951
 21
1474.100633851594
 31
0.0
  0
LINE
  5
20174
330
747D
100
AcDbEntity
  8
部品1
 48
50.0
100
AcDbLine
 10
6222.903221034954
 20
1250.100633851594
 30
0.0
 11
5614.903221034952
 21
1250.100633851594
 31
0.0
  0
LINE
  5
20175
330
747D
100
AcDbEntity
  8
細線
 48
50.0
100
AcDbLine
 10
5900.086060530965
 20
1250.100633851594
 30
0.0
 11
5934.383557162147
 21
1378.100633851594
 31
0.0
  0
LINE
  5
20176
330
747D
100
AcDbEntity
  8
細線
 48
50.0
100
AcDbLine
 10
5910.90322103495
 20
1537.421232708106
 30
0.0
 11
5926.903221034956
 21
1553.421232708106
 31
0.0
  0
LINE
  5
20177
330
747D
100
AcDbEntity
  8
部品1
 48
50.0
100
AcDbLine
 10
5926.903221034956
 20
1498.100633851594
 30
0.0
 11
5926.903221034944
 21
2022.35506324584
 31
0.0
  0
LINE
  5
20178
330
747D
100
AcDbEntity
  8
部品1
 48
50.0
100
AcDbLine
 10
5942.903221034956
 20
1498.100633851594
 30
0.0
 11
5942.90322103495
 21
2022.35506324584
 31
0.0
  0
LINE
  5
20179
330
747D
100
AcDbEntity
  8
部品1
 48
50.0
100
AcDbLine
 10
6142.90322103495
 20
1618.100633851594
 30
0.0
 11
6142.90322103495
 21
1378.100633851594
 31
0.0
  0
LINE
  5
2017A
330
747D
100
AcDbEntity
  8
細線
 48
50.0
100
AcDbLine
 10
6025.227232357678
 20
1490.100633851594
 30
0.0
 11
6142.90322103495
 21
1607.77662252886
 31
0.0
  0
LINE
  5
2017B
330
747D
100
AcDbEntity
  8
細線
 48
50.0
100
AcDbLine
 10
6052.168000720894
 20
1490.100633851594
 30
0.0
 11
6142.90322103495
 21
1580.835854165653
 31
0.0
  0
LINE
  5
2017C
330
747D
100
AcDbEntity
  8
部品1
 48
50.0
100
AcDbLine
 10
5694.903221034951
 20
1378.100633851594
 30
0.0
 11
5694.903221034951
 21
1618.100633851594
 31
0.0
  0
LINE
  5
2017D
330
747D
100
AcDbEntity
  8
細線
 48
50.0
100
AcDbLine
 10
5809.701085452023
 20
1490.100633851594
 30
0.0
 11
5926.903221034951
 21
1607.30276943452
 31
0.0
  0
LINE
  5
2017E
330
747D
100
AcDbEntity
  8
細線
 48
50.0
100
AcDbLine
 10
5902.769068512355
 20
1556.227848548717
 30
0.0
 11
5926.903221034956
 21
1580.362001071315
 31
0.0
  0
LINE
  5
2017F
330
747D
100
AcDbEntity
  8
細線
 48
50.0
100
AcDbLine
 10
5694.903221034944
 20
1536.947379613765
 30
0.0
 11
5776.056475272778
 21
1618.100633851594
 31
0.0
  0
LEADER
  5
20180
330
747D
100
AcDbEntity
  8
寸法
 48
50.0
100
AcDbLeader
  3
INABA_S40G
 71
     0
 73
     0
 74
     0
 75
     1
 40
100.0
 41
222.7272727272727
 76
     3
 10
5918.903221034949
 20
2022.35506324584
 30
0.0
 10
5977.789158062345
 20
1963.368195150522
 30
0.0
 10
6077.789158062344
 20
1963.368195150522
 30
0.0
  0
LWPOLYLINE
  5
20181
330
747D
100
AcDbEntity
  8
部品1
 48
50.0
100
AcDbPolyline
 90
        2
 70
     0
 43
8.0
 10
6014.903221034949
 20
1922.100633851595
 10
6429.043122867907
 20
1922.100633851595
  0
MTEXT
  5
20182
102
{ACAD_REACTORS
330
20184
102
}
330
747D
100
AcDbEntity
  8
寸法
 62
     7
 48
50.0
100
AcDbMText
 10
6246.230880841634
 20
1462.703564908622
 30
0.0
 40
80.0
 41
0.8
 71
     4
 72
     1
  1
D10
  7
STYLE2
 73
     1
 44
1.0
1001
ACAD
1000
MTEXTBEGIN
1070
    73
1070
     1
1070
    44
1040
1.0
1070
    74
1070
     0
1000
MTEXTEND
  0
LEADER
  5
20183
330
747D
100
AcDbEntity
  8
寸法
 48
50.0
100
AcDbLeader
  3
INABA_S40G
 71
     0
 73
     0
 74
     0
 75
     1
 40
100.0
 41
540.3409090909091
 76
     3
 10
5992.848390048123
 20
1481.360103438069
 30
0.0
 10
6136.641676896201
 20
1139.729285443171
 30
0.0
 10
6236.641676896201
 20
1139.729285443171
 30
0.0
213
0.0
223
-1.022262676269383
233
0.0
  0
LEADER
  5
20184
330
747D
100
AcDbEntity
  8
寸法
 48
50.0
100
AcDbLeader
  3
INABA_S40G
 71
     0
 73
     0
 74
     0
 75
     1
 40
100.0
 41
225.0
 76
     3
 10
6046.806173387093
 20
1498.100633851594
 30
0.0
 10
6126.230880841635
 20
1402.703564908622
 30
0.0
 10
6226.230880841635
 20
1402.703564908622
 30
0.0
  0
MTEXT
  5
20185
102
{ACAD_REACTORS
330
20180
102
}
330
747D
100
AcDbEntity
  8
寸法
 62
     7
 48
50.0
100
AcDbMText
 10
6097.789158062345
 20
2023.368195150522
 30
0.0
 40
80.0
 41
0.8
 71
     4
 72
     1
  1
D13
  7
STYLE2
 73
     1
 44
1.0
1001
ACAD
1000
MTEXTBEGIN
1070
    73
1070
     1
1070
    44
1040
1.0
1070
    74
1070
     0
1000
MTEXTEND
  0
LINE
  5
20186
330
747D
100
AcDbEntity
  8
部品1
 48
50.0
100
AcDbLine
 10
6014.90322103495
 20
2162.100633851594
 30
0.0
 11
6014.90322103495
 21
1618.100633851594
 31
0.0
  0
LINE
  5
20187
330
747D
100
AcDbEntity
  8
部品1
 48
50.0
100
AcDbLine
 10
5822.903221034951
 20
1618.100633851594
 30
0.0
 11
5822.903221034951
 21
2162.100633851594
 31
0.0
  0
CIRCLE
  5
20188
330
747D
100
AcDbEntity
  8
部品1
 48
50.0
100
AcDbCircle
 10
5918.903221034951
 20
2022.35506324584
 30
0.0
 40
8.0
  0
ARC
  5
20189
330
747D
100
AcDbEntity
  8
部品1
 48
50.0
100
AcDbCircle
 10
5918.903221034951
 20
2022.35506324584
 30
0.0
 40
24.0
100
AcDbArc
 50
0.0
 51
180.0
  0
LINE
  5
2018A
330
747D
100
AcDbEntity
  8
細線
 48
50.0
100
AcDbLine
 10
5942.90322103495
 20
2000.473526519425
 30
0.0
 11
6014.90322103495
 21
2072.473526519425
 31
0.0
  0
LEADER
  5
2018B
330
747D
100
AcDbEntity
  8
寸法
 48
50.0
100
AcDbLeader
  3
INABA_S40G
 73
     0
 75
     1
 40
106.3636363636363
 41
903.5235024184547
 76
     3
 10
7654.342534212144
 20
2231.660633851596
 30
0.0
 10
7595.918461867205
 20
2590.720208567928
 30
0.0
 10
7495.918461867205
 20
2590.720208567928
 30
0.0
340
2018C
  0
MTEXT
  5
2018C
102
{ACAD_REACTORS
330
2018B
102
}
330
747D
100
AcDbEntity
  8
寸法
 62
     7
 48
50.0
100
AcDbMText
 10
7455.918461867205
 20
2683.902026749747
 30
0.0
 40
80.0
 41
0.8
 71
     6
 72
     1
  1
アンカープレート {\fArial|b0|i0|c0|p32;U}
  7
STYLE2
 73
     1
 44
1.0
1001
ACAD
1000
MTEXTBEGIN
1070
    73
1070
     1
1070
    44
1040
1.0
1070
    74
1070
     0
1000
MTEXTEND
  0
DIMENSION
  5
2018D
330
747D
100
AcDbEntity
  8
寸法
 48
50.0
100
AcDbDimension
  2
*D22
 10
6142.903221034949
 20
839.6709958464343
 30
0.0
 11
5898.806462356726
 21
839.6709958464343
 31
0.0
 70
   160
  1
300
 71
     5
 42
448.0
  3
INABA_S40G
100
AcDbAlignedDimension
 13
5694.90322103495
 23
1250.100633851594
 33
0.0
 14
6142.903221034949
 24
1250.100633851594
 34
0.0
100
AcDbRotatedDimension
  0
MTEXT
  5
2018E
102
{ACAD_REACTORS
330
20196
102
}
330
747D
100
AcDbEntity
  8
寸法
 62
     7
 48
50.0
100
AcDbMText
 10
5523.968194839756
 20
1294.577940233158
 30
0.0
 40
80.0
 41
0.8
 71
     6
 72
     1
  1
D10
  7
STYLE2
 73
     1
 44
1.0
1001
ACAD
1000
MTEXTBEGIN
1070
    73
1070
     1
1070
    44
1040
1.0
1070
    74
1070
     0
1000
MTEXTEND
  0
MTEXT
  5
2018F
102
{ACAD_REACTORS
330
20195
102
}
330
747D
100
AcDbEntity
  8
寸法
 62
     7
 48
50.0
100
AcDbMText
 10
5552.090922397191
 20
1114.261787693715
 30
0.0
 40
80.0
 41
0.8
 71
     6
 72
     1
  1
D13
  7
STYLE2
 73
     1
 44
1.0
1001
ACAD
1000
MTEXTBEGIN
1070
    73
1070
     1
1070
    44
1040
1.0
1070
    74
1070
     0
1000
MTEXTEND
  0
DIMENSION
  5
20190
330
747D
100
AcDbEntity
  8
寸法
 48
50.0
100
AcDbDimension
  2
*D23
 10
5087.86598247321
 20
1378.100633851594
 30
0.0
 11
5087.86598247321
 21
1749.640783507595
 31
0.0
 70
   160
  1
540
 71
     5
 42
784.0000000000002
  3
INABA_S40G
100
AcDbAlignedDimension
 13
5822.903221034949
 23
2162.100633851594
 33
0.0
 14
5614.903221034953
 24
1378.100633851594
 34
0.0
 50
90.0
100
AcDbRotatedDimension
  0
MTEXT
  5
20191
102
{ACAD_REACTORS
330
20192
102
}
330
747D
100
AcDbEntity
  8
寸法
 62
     7
 48
50.0
100
AcDbMText
 10
5602.804741551676
 20
2374.616853853637
 30
0.0
 40
80.0
 41
0.8
 71
     6
 72
     1
  1
\A1;金コテ押エ
  7
STYLE2
 73
     1
 44
1.0
1001
ACAD
1000
MTEXTBEGIN
1070
    73
1070
     1
1070
    44
1040
1.0
1070
    74
1070
     0
1000
MTEXTEND
  0
LEADER
  5
20192
330
747D
100
AcDbEntity
  8
寸法
 48
50.0
100
AcDbLeader
  3
INABA_S40G
 71
     0
 73
     0
 75
     1
 40
130.1136363636363
 41
651.1363636363636
 76
     3
 10
5902.90322103495
 20
2162.100633851594
 30
0.0
 10
5765.478640870933
 20
2302.571399308183
 30
0.0
 10
5665.478640870933
 20
2302.571399308183
 30
0.0
  0
LEADER
  5
20193
330
747D
100
AcDbEntity
  8
寸法
 48
50.0
100
AcDbLeader
  3
INABA_S40G
 71
     0
 73
     0
 75
     1
 40
100.0
 41
540.3409090909091
 76
     3
 10
5926.90322103495
 20
1920.227848548718
 30
0.0
 10
5843.920984506251
 20
1698.757520007912
 30
0.0
 10
5743.920984506251
 20
1698.757520007912
 30
0.0
213
-9.732182305893367
223
-4.643716661138569
233
0.0
  0
MTEXT
  5
20194
102
{ACAD_REACTORS
330
20193
102
}
330
747D
100
AcDbEntity
  8
寸法
 62
     7
 48
50.0
100
AcDbMText
 10
5733.653166812145
 20
1763.401236669051
 30
0.0
 40
80.0
 41
0.8
 71
     6
 72
     1
  1
\A1;D10@300
  7
STYLE2
 73
     1
 44
1.0
1001
ACAD
1000
MTEXTBEGIN
1070
    73
1070
     1
1070
    44
1040
1.0
1070
    74
1070
     0
1000
MTEXTEND
  0
LEADER
  5
20195
330
747D
100
AcDbEntity
  8
寸法
 48
50.0
100
AcDbLeader
  3
INABA_S40G
 71
     0
 73
     0
 75
     1
 40
100.0
 41
222.7272727272727
 76
     3
 10
5918.903221034949
 20
1498.100633851594
 30
0.0
 10
5672.09092239719
 20
1054.261787693715
 30
0.0
 10
5572.09092239719
 20
1054.261787693715
 30
0.0
  0
LEADER
  5
20196
330
747D
100
AcDbEntity
  8
寸法
 48
50.0
100
AcDbLeader
  3
INABA_S40G
 71
     0
 73
     0
 75
     1
 40
100.0
 41
225.0
 76
     3
 10
5790.806173387093
 20
1498.100633851594
 30
0.0
 10
5643.968194839755
 20
1234.577940233158
 30
0.0
 10
5543.968194839756
 20
1234.577940233158
 30
0.0
  0
DIMENSION
  5
20197
330
747D
100
AcDbEntity
  8
寸法
 48
50.0
100
AcDbDimension
  2
*D24
 10
5552.48290730249
 20
1378.100633851594
 30
0.0
 11
5552.48290730249
 21
1498.100633851595
 31
0.0
 70
   160
  1
150
 71
     5
 42
240.0000000000002
  3
INABA_S40G
100
AcDbAlignedDimension
 13
5694.90322103495
 23
1618.100633851594
 33
0.0
 14
5614.903221034953
 24
1378.100633851594
 34
0.0
 50
90.0
100
AcDbRotatedDimension
  0
TEXT
  5
20198
330
747D
100
AcDbEntity
  8
部品1
 48
50.0
100
AcDbText
 10
5408.763319201993
 20
1933.33962613485
 30
0.0
 40
80.0
  1
▽G.L
  7
STYLE2
100
AcDbText
  0
LWPOLYLINE
  5
20199
330
747D
100
AcDbEntity
  8
部品1
 48
50.0
100
AcDbPolyline
 90
        2
 70
     0
 43
8.0
 10
5408.763319201993
 20
1922.100633851595
 10
5822.903221034949
 20
1922.100633851595
  0
MTEXT
  5
2019A
102
{ACAD_REACTORS
330
2019B
102
}
330
747D
100
AcDbEntity
  8
寸法
 62
     7
 48
50.0
100
AcDbMText
 10
7429.275455658846
 20
3044.58629865726
 30
0.0
 40
80.0
 41
0.8
 71
     6
 72
     1
  1
\A1;φ70スリーブ
  7
STYLE2
 73
     1
 44
1.0
1001
ACAD
1000
MTEXTBEGIN
1070
    73
1070
     1
1070
    44
1040
1.0
1070
    74
1070
     0
1000
MTEXTEND
  0
LEADER
  5
2019B
330
747D
100
AcDbEntity
  8
寸法
 48
50.0
100
AcDbLeader
  3
INABA_S40G
 73
     0
 75
     1
 40
113.1818181818182
 41
608.6363636363635
 76
     3
 10
7713.079284350193
 20
2111.616307209874
 30
0.0
 10
7569.275455658846
 20
2947.995389566351
 30
0.0
 10
7469.275455658847
 20
2947.995389566351
 30
0.0
340
2019A
  0
LINE
  5
2019C
330
747D
100
AcDbEntity
  8
部品1
100
AcDbLine
 10
4752.234782225687
 20
3483.072253628439
 30
0.0
 11
4752.234782225689
 21
518.7652840437922
 31
0.0
  0
LEADER
  5
2019D
330
747D
100
AcDbEntity
  8
寸法
 48
50.0
100
AcDbLeader
  3
INABA_S40G
 73
     0
 74
     0
 75
     1
 40
80.0
 41
435.0
 76
     3
 10
7753.342534212143
 20
2211.260633851595
 30
0.0
 10
7805.886996631463
 20
2346.483960004825
 30
0.0
 10
7905.886996631463
 20
2346.483960004825
 30
0.0
340
2019E
  0
MTEXT
  5
2019E
102
{ACAD_REACTORS
330
2019D
102
}
330
747D
100
AcDbEntity
  8
部品1
 62
     7
 48
50.0
100
AcDbMText
 10
7945.886996631462
 20
2426.483960004825
 30
0.0
 40
80.0
 41
0.8
 71
     4
 72
     1
  1
M10X160
  7
STYLE2
 73
     1
 44
1.0
1001
ACAD
1000
MTEXTBEGIN
1070
    73
1070
     1
1070
    44
1040
1.0
1070
    74
1070
     0
1000
MTEXTEND
  0
DIMENSION
  5
2019F
330
747D
100
AcDbEntity
  8
寸法
 48
50.0
100
AcDbDimension
  2
*D25
 10
8714.865800100016
 20
2162.100633851594
 30
0.0
 11
8714.865800100016
 21
1696.091730430113
 31
0.0
 70
   160
  1
20～25
 71
     5
 42
52.76000000000113
  3
INABA_S40G
100
AcDbAlignedDimension
 13
7749.742534212145
 23
2214.860633851596
 33
0.0
 14
7936.942534212144
 24
2162.100633851594
 34
0.0
 50
90.0
100
AcDbRotatedDimension
  0
DIMENSION
  5
201A0
330
747D
100
AcDbEntity
  8
寸法
 48
50.0
100
AcDbDimension
  2
*D26
 10
8438.811133980989
 20
1838.100633851593
 30
0.0
 11
8338.811133980987
 21
2000.100633851595
 31
0.0
 70
    32
  1
180
 71
     5
 42
324.0000000000009
  3
INABA_S40G
100
AcDbAlignedDimension
 13
7936.942534212144
 23
2162.100633851594
 33
0.0
 14
7936.942534212144
 24
1838.100633851593
 34
0.0
 50
90.0
100
AcDbRotatedDimension
  0
TEXT
  5
201A1
330
747D
100
AcDbEntity
  8
部品1
 48
50.0
100
AcDbText
 10
7941.296118496572
 20
2517.979314613795
 30
0.0
 40
80.0
  1
基礎ボルト(市販品)
  7
STYLE2
100
AcDbText
  0
LWPOLYLINE
  5
201A2
330
747D
100
AcDbEntity
  8
部品1
 48
50.0
100
AcDbPolyline
 90
        2
 70
     0
 43
8.0
 10
7936.942534212144
 20
1922.100633851595
 10
8230.644997611527
 20
1922.100633851595
  0
MTEXT
  5
201A3
102
{ACAD_REACTORS
330
201A4
102
}
330
747D
100
AcDbEntity
  8
部品1
 62
     7
 48
50.0
100
AcDbMText
 10
7976.214124580984
 20
2862.596006938855
 30
0.0
 40
80.0
 41
0.8
 71
     4
 72
     1
  1
\A1;ワッシャー(市販品)
  7
STYLE2
 73
     1
 44
1.0
1001
ACAD
1000
MTEXTBEGIN
1070
    73
1070
     1
1070
    44
1040
1.0
1070
    74
1070
     0
1000
MTEXTEND
  0
LEADER
  5
201A4
330
747D
100
AcDbEntity
  8
寸法
 48
50.0
100
AcDbLeader
  3
INABA_S40G
 73
     0
 74
     0
 75
     1
 40
102.2727272727273
 41
906.8181818181818
 76
     3
 10
7784.342534212143
 20
2431.223922295874
 30
0.0
 10
7836.214124580983
 20
2771.459643302491
 30
0.0
 10
7936.214124580984
 20
2771.459643302491
 30
0.0
340
201A3
  0
MTEXT
  5
201A5
102
{ACAD_REACTORS
330
201A6
102
}
330
747D
100
AcDbEntity
  8
部品1
 62
     7
 48
50.0
100
AcDbMText
 10
7944.696505325501
 20
3047.565089703642
 30
0.0
 40
80.0
 41
0.8
 71
     4
 72
     1
  1
\A1;ナット(市販品)
  7
STYLE2
 73
     1
 44
1.0
1001
ACAD
1000
MTEXTBEGIN
1070
    73
1070
     1
1070
    44
1040
1.0
1070
    74
1070
     0
1000
MTEXTEND
  0
LEADER
  5
201A6
330
747D
100
AcDbEntity
  8
寸法
 48
50.0
100
AcDbLeader
  3
INABA_S40G
 73
     0
 74
     0
 75
     1
 40
102.2727272727273
 41
680.0000000000001
 76
     3
 10
7760.342534212144
 20
2560.975914960737
 30
0.0
 10
7804.696505325502
 20
2956.428726067278
 30
0.0
 10
7904.696505325502
 20
2956.428726067278
 30
0.0
340
201A5
  0
LINE
  5
201A7
330
747D
100
AcDbEntity
  8
部品1
100
AcDbLine
 10
4752.23478222569
 20
518.7652840437922
 30
0.0
 11
10823.21996761193
 21
518.7652840437922
 31
0.0
  0
LINE
  5
201A8
330
747D
100
AcDbEntity
  8
部品1
100
AcDbLine
 10
10823.21996761193
 20
3243.072253628437
 30
0.0
 11
4752.234782225689
 21
3243.072253628438
 31
0.0
  0
LINE
  5
201A9
330
747D
100
AcDbEntity
  8
部品1
100
AcDbLine
 10
10823.21996761194
 20
3483.072253628439
 30
0.0
 11
4752.234782225685
 21
3483.072253628439
 31
0.0
  0
DIMENSION
  5
20234
330
747D
100
AcDbEntity
  8
寸法
 48
50.0
100
AcDbDimension
  2
*D28
 10
8743.599999999998
 20
6519.236577146964
 30
0.0
 11
8609.639422424182
 21
6416.661833760099
 31
0.0
 70
   160
 71
     5
 42
110.0
  3
INABA_S40G
100
AcDbAlignedDimension
 13
8633.599999999999
 23
6789.246300175033
 33
0.0
 14
8743.599999999998
 24
6789.246300175034
 34
0.0
100
AcDbRotatedDimension
1001
ACAD
1000
DSTYLE
1002
{
1070
   279
1070
     2
1002
}
  0
HATCH
  5
20281
330
747D
100
AcDbEntity
  8
細線
 48
50.0
100
AcDbHatch
 10
0.0
 20
0.0
 30
0.0
210
0.0
220
0.0
230
1.0
  2
LINE
 70
     0
 71
     0
 91
        1
 92
        7
 72
     0
 73
     1
 93
        4
 10
8193.600000000001
 20
7019.246300175037
 10
7993.599999999998
 20
7019.246300175035
 10
7993.6
 20
6899.246300175033
 10
8193.599999999999
 20
6899.246300175035
 97
        0
 75
     0
 76
     1
 52
45.0
 41
10.0
 77
     0
 78
     1
 53
45.0
 43
0.0
 44
0.0
 45
-22.45064030267288
 46
22.45064030267288
 79
     0
 47
3.603504510437718
 98
        1
 10
8149.799991850537
 20
6962.508385037345
  0
HATCH
  5
2028C
330
747D
100
AcDbEntity
  8
細線
 48
50.0
100
AcDbHatch
 10
0.0
 20
0.0
 30
0.0
210
0.0
220
0.0
230
1.0
  2
LINE
 70
     0
 71
     0
 91
        1
 92
        7
 72
     0
 73
     1
 93
        4
 10
8863.600000000001
 20
6219.246300175036
 10
8743.599999999998
 20
6219.246300175036
 10
8743.599999999998
 20
6019.246300175035
 10
8863.599999999998
 20
6019.246300175034
 97
        0
 75
     0
 76
     1
 52
45.0
 41
10.0
 77
     0
 78
     1
 53
45.0
 43
0.0
 44
0.0
 45
-22.45064030267288
 46
22.45064030267288
 79
     0
 47
1.564161596655694
 98
        1
 10
8810.886285332774
 20
6130.393932416671
  0
HATCH
  5
202A7
330
747D
100
AcDbEntity
  8
細線
 48
50.0
100
AcDbHatch
 10
0.0
 20
0.0
 30
0.0
210
0.0
220
0.0
230
1.0
  2
LINE
 70
     0
 71
     0
 91
        1
 92
        7
 72
     0
 73
     1
 93
        4
 10
7443.599999999999
 20
6219.246300175036
 10
7323.599999999998
 20
6219.246300175036
 10
7323.599999999998
 20
6019.246300175034
 10
7443.599999999996
 20
6019.246300175034
 97
        0
 75
     0
 76
     1
 52
45.0
 41
10.0
 77
     0
 78
     1
 53
45.0
 43
0.0
 44
0.0
 45
-22.45064030267288
 46
22.45064030267288
 79
     0
 47
4.004253640379584
 98
        1
 10
7366.50474014489
 20
6145.649882801746
  0
TEXT
  5
2044C
330
747D
100
AcDbEntity
  8
文字
 62
     7
 48
50.0
100
AcDbText
 10
14816.49629419351
 20
1031.557706291228
 30
0.0
 40
100.0
  1
 <縮尺> S=1/40
  7
STYLE2
100
AcDbText
  0
ENDSEC
  0
SECTION
  2
OBJECTS
  0
DICTIONARY
  5
7471
330
0
100
AcDbDictionary
281
     1
  3
ACAD_COLOR
350
159B0
  3
ACAD_GROUP
350
7472
  3
ACAD_LAYOUT
350
159B1
  3
ACAD_MATERIAL
350
159AF
  3
ACAD_MLINESTYLE
350
7473
  3
ACAD_PLOTSETTINGS
350
159B2
  3
ACAD_PLOTSTYLENAME
350
159AD
  3
ACDBHEADERROUNDTRIPXREC
350
2044F
  3
AcDbVariableDictionary
350
1FED9
  3
CONTENTDICTIONARY
350
E71C
  3
DRAWINGVARIABLESDICT
350
F3B9
  0
DICTIONARY
  5
1FF38
330
7467
100
AcDbDictionary
280
     1
281
     1
  3
ACAD_LAYERSTATES
360
1FF39
  0
DICTIONARY
  5
159B0
102
{ACAD_REACTORS
330
7471
102
}
330
7471
100
AcDbDictionary
281
     1
  0
DICTIONARY
  5
7472
102
{ACAD_REACTORS
330
7471
102
}
330
7471
100
AcDbDictionary
281
     1
  0
DICTIONARY
  5
159B1
102
{ACAD_REACTORS
330
7471
102
}
330
7471
100
AcDbDictionary
281
     1
  3
Model
350
159B3
  3
レイアウト1
350
159B4
  0
DICTIONARY
  5
159AF
102
{ACAD_REACTORS
330
7471
102
}
330
7471
100
AcDbDictionary
281
     1
  0
DICTIONARY
  5
7473
102
{ACAD_REACTORS
330
7471
102
}
330
7471
100
AcDbDictionary
281
     1
  3
STANDARD
350
7480
  0
DICTIONARY
  5
159B2
102
{ACAD_REACTORS
330
7471
102
}
330
7471
100
AcDbDictionary
281
     1
  0
ACDBDICTIONARYWDFLT
  5
159AD
102
{ACAD_REACTORS
330
7471
102
}
330
7471
100
AcDbDictionary
281
     1
  3
Normal
350
159AE
100
AcDbDictionaryWithDefault
340
159AE
  0
DICTIONARY
  5
2044F
102
{ACAD_REACTORS
330
7471
102
}
330
7471
100
AcDbDictionary
281
     1
  3
COLORDICT
350
20451
  3
MATERIALDICT
350
20450
  0
DICTIONARY
  5
1FED9
102
{ACAD_REACTORS
330
7471
102
}
330
7471
100
AcDbDictionary
281
     1
  3
DIMASSOC
350
1FEDA
  3
PROJECTNAME
350
1FEDB
  0
DICTIONARY
  5
E71C
102
{ACAD_REACTORS
330
7471
102
}
330
7471
100
AcDbDictionary
281
     1
  0
DICTIONARY
  5
F3B9
102
{ACAD_REACTORS
330
7471
102
}
330
7471
100
AcDbDictionary
281
     1
1001
DRAWINGVARIABLESXDATA
1000
POLARMODE
1000
1
  0
DICTIONARY
  5
1FF39
102
{ACAD_REACTORS
330
1FF38
102
}
330
1FF38
100
AcDbDictionary
281
     1
  0
LAYOUT
  5
159B3
102
{ACAD_XDICTIONARY
360
20452
102
}
102
{ACAD_REACTORS
330
159B1
102
}
330
159B1
100
AcDbPlotSettings
  1

  2
クセロPDF
  4
A3
  6

 40
3.174999952316284
 41
3.174999952316284
 42
3.17498779296875
 43
3.17498779296875
 44
419.9466552734374
 45
296.9259948730469
 46
0.0
 47
0.0
 48
4642.187503212656
 49
4154.992190764132
140
4729.542942495195
141
4373.285230072328
142
1.0
143
40.0
 70
 11952
 72
     1
 73
     0
 74
     2
  7
inaba.ctb
 75
    24
147
0.025
148
0.0
149
0.0
100
AcDbLayout
  1
Model
 70
     1
 71
     0
 10
0.0
 20
0.0
 11
12.0
 21
9.0
 12
0.0
 22
0.0
 32
0.0
 14
0.0
 24
0.0
 34
0.0
 15
0.0
 25
0.0
 35
0.0
146
0.0
 13
0.0
 23
0.0
 33
0.0
 16
1.0
 26
0.0
 36
0.0
 17
0.0
 27
1.0
 37
0.0
 76
     0
330
747D
  0
LAYOUT
  5
159B4
102
{ACAD_XDICTIONARY
360
20454
102
}
102
{ACAD_REACTORS
330
159B1
102
}
330
159B1
100
AcDbPlotSettings
  1

  2
自動 EPSON LP-8400FX (TATENO 上)
  4

  6

 40
0.0
 41
0.0
 42
0.0
 43
0.0
 44
0.0
 45
0.0
 46
0.0
 47
0.0
 48
0.0
 49
0.0
140
0.0
141
0.0
142
1.0
143
1.0
 70
   688
 72
     0
 73
     0
 74
     5
  7
inaba.ctb
 75
    16
147
1.0
148
0.0
149
0.0
100
AcDbLayout
  1
レイアウト1
 70
     0
 71
     1
 10
0.0
 20
0.0
 11
420.0
 21
297.0
 12
0.0
 22
0.0
 32
0.0
 14
1.000000000000000E+20
 24
1.000000000000000E+20
 34
1.000000000000000E+20
 15
-1.000000000000000E+20
 25
-1.000000000000000E+20
 35
-1.000000000000000E+20
146
0.0
 13
0.0
 23
0.0
 33
0.0
 16
1.0
 26
0.0
 36
0.0
 17
0.0
 27
1.0
 37
0.0
 76
     0
330
747A
  0
MLINESTYLE
  5
7480
102
{ACAD_REACTORS
330
7473
102
}
330
7473
100
AcDbMlineStyle
  2
STANDARD
 70
     0
  3

 62
     0
 51
90.0
 52
90.0
 71
     2
 49
0.5
 62
   256
  6
BYLAYER
 49
-0.5
 62
   256
  6
BYLAYER
  0
ACDBPLACEHOLDER
  5
159AE
102
{ACAD_REACTORS
330
159AD
102
}
330
159AD
  0
XRECORD
  5
20451
102
{ACAD_REACTORS
330
2044F
102
}
330
2044F
100
AcDbXrecord
280
     1
340
159B0
  0
XRECORD
  5
20450
102
{ACAD_REACTORS
330
2044F
102
}
330
2044F
100
AcDbXrecord
280
     1
340
159AF
  0
DICTIONARYVAR
  5
1FEDA
102
{ACAD_REACTORS
330
1FED9
102
}
330
1FED9
100
DictionaryVariables
280
     0
  1
1
  0
DICTIONARYVAR
  5
1FEDB
102
{ACAD_REACTORS
330
1FED9
102
}
330
1FED9
100
DictionaryVariables
280
     0
  1

  0
DICTIONARY
  5
20452
330
159B3
100
AcDbDictionary
280
     1
281
     1
  3
ACAD_XREC_ROUNDTRIP
360
20453
  0
DICTIONARY
  5
20454
330
159B4
100
AcDbDictionary
280
     1
281
     1
  3
ACAD_XREC_ROUNDTRIP
360
20455
  0
XRECORD
  5
20453
102
{ACAD_REACTORS
330
20452
102
}
330
20452
100
AcDbXrecord
280
     1
102
SHADEPLOT
 70
     0
102
SHADEPLOTRESLEVEL
 70
     2
102
SHADEPLOTCUSTOMDPI
 70
   150
  0
XRECORD
  5
20455
102
{ACAD_REACTORS
330
20454
102
}
330
20454
100
AcDbXrecord
280
     1
102
SHADEPLOT
 70
     0
102
SHADEPLOTRESLEVEL
 70
     2
102
SHADEPLOTCUSTOMDPI
 70
   300
  0
ENDSEC
  0
EOF
