  0
SECTION
  2
HEADER
  9
$ACADVER
  1
AC1015
  9
$ACADMAINTVER
 70
    20
  9
$DWGCODEPAGE
  3
ANSI_932
  9
$INSBASE
 10
0.0
 20
0.0
 30
0.0
  9
$EXTMIN
 10
139.196816621341
 20
-0.3625211682701774
 30
-0.0015258207003583
  9
$EXTMAX
 10
16308.32523385566
 20
11409.95547144901
 30
0.0000000349246037
  9
$LIMMIN
 10
0.0
 20
0.0
  9
$LIMMAX
 10
16800.0
 20
11880.0
  9
$ORTHOMODE
 70
     0
  9
$REGENMODE
 70
     1
  9
$FILLMODE
 70
     1
  9
$QTEXTMODE
 70
     0
  9
$MIRRTEXT
 70
     1
  9
$LTSCALE
 40
20.0
  9
$ATTMODE
 70
     1
  9
$TEXTSIZE
 40
100.0
  9
$TRACEWID
 40
1.0
  9
$TEXTSTYLE
  7
STYLE2
  9
$CLAYER
  8
寸法
  9
$CELTYPE
  6
BYLAYER
  9
$CECOLOR
 62
   256
  9
$CELTSCALE
 40
50.0
  9
$DISPSILH
 70
     0
  9
$DIMSCALE
 40
40.0
  9
$DIMASZ
 40
2.5
  9
$DIMEXO
 40
0.5
  9
$DIMDLI
 40
7.0
  9
$DIMRND
 40
0.0
  9
$DIMDLE
 40
0.0
  9
$DIMEXE
 40
1.5
  9
$DIMTP
 40
0.0
  9
$DIMTM
 40
0.0
  9
$DIMTXT
 40
3.0
  9
$DIMCEN
 40
0.0
  9
$DIMTSZ
 40
0.0
  9
$DIMTOL
 70
     0
  9
$DIMLIM
 70
     0
  9
$DIMTIH
 70
     0
  9
$DIMTOH
 70
     0
  9
$DIMSE1
 70
     0
  9
$DIMSE2
 70
     0
  9
$DIMTAD
 70
     3
  9
$DIMZIN
 70
     8
  9
$DIMBLK
  1

  9
$DIMASO
 70
     1
  9
$DIMSHO
 70
     1
  9
$DIMPOST
  1

  9
$DIMAPOST
  1

  9
$DIMALT
 70
     0
  9
$DIMALTD
 70
     2
  9
$DIMALTF
 40
0.0394
  9
$DIMLFAC
 40
1.0
  9
$DIMTOFL
 70
     1
  9
$DIMTVP
 40
0.0
  9
$DIMTIX
 70
     0
  9
$DIMSOXD
 70
     0
  9
$DIMSAH
 70
     1
  9
$DIMBLK1
  1
DOTSMALL
  9
$DIMBLK2
  1
DOTSMALL
  9
$DIMSTYLE
  2
INABA_S40G
  9
$DIMCLRD
 70
     0
  9
$DIMCLRE
 70
     0
  9
$DIMCLRT
 70
     7
  9
$DIMTFAC
 40
1.0
  9
$DIMGAP
 40
1.0
  9
$DIMJUST
 70
     0
  9
$DIMSD1
 70
     0
  9
$DIMSD2
 70
     0
  9
$DIMTOLJ
 70
     1
  9
$DIMTZIN
 70
     0
  9
$DIMALTZ
 70
     0
  9
$DIMALTTZ
 70
     0
  9
$DIMUPT
 70
     0
  9
$DIMDEC
 70
     1
  9
$DIMTDEC
 70
     1
  9
$DIMALTU
 70
     2
  9
$DIMALTTD
 70
     2
  9
$DIMTXSTY
  7
STYLE1
  9
$DIMAUNIT
 70
     0
  9
$DIMADEC
 70
     0
  9
$DIMALTRND
 40
0.0
  9
$DIMAZIN
 70
     0
  9
$DIMDSEP
 70
    46
  9
$DIMATFIT
 70
     3
  9
$DIMFRAC
 70
     0
  9
$DIMLDRBLK
  1

  9
$DIMLUNIT
 70
     2
  9
$DIMLWD
 70
    -2
  9
$DIMLWE
 70
    -2
  9
$DIMTMOVE
 70
     1
  9
$LUNITS
 70
     2
  9
$LUPREC
 70
     1
  9
$SKETCHINC
 40
1.0
  9
$FILLETRAD
 40
2.299999999999999
  9
$AUNITS
 70
     0
  9
$AUPREC
 70
     0
  9
$MENU
  1
acad
  9
$ELEVATION
 40
0.0
  9
$PELEVATION
 40
0.0
  9
$THICKNESS
 40
0.0
  9
$LIMCHECK
 70
     0
  9
$CHAMFERA
 40
3.0
  9
$CHAMFERB
 40
3.0
  9
$CHAMFERC
 40
0.0
  9
$CHAMFERD
 40
0.0
  9
$SKPOLY
 70
     0
  9
$TDCREATE
 40
2451368.612993866
  9
$TDUCREATE
 40
2451368.237993866
  9
$TDUPDATE
 40
2455757.552082604
  9
$TDUUPDATE
 40
2455757.177082604
  9
$TDINDWG
 40
1.6599789005
  9
$TDUSRTIMER
 40
1.6599789005
  9
$USRTIMER
 70
     1
  9
$ANGBASE
 50
0.0
  9
$ANGDIR
 70
     0
  9
$PDMODE
 70
     3
  9
$PDSIZE
 40
2.0
  9
$PLINEWID
 40
0.0
  9
$SPLFRAME
 70
     0
  9
$SPLINETYPE
 70
     6
  9
$SPLINESEGS
 70
     8
  9
$HANDSEED
  5
1FC7F
  9
$SURFTAB1
 70
     6
  9
$SURFTAB2
 70
     6
  9
$SURFTYPE
 70
     6
  9
$SURFU
 70
     6
  9
$SURFV
 70
     6
  9
$UCSBASE
  2

  9
$UCSNAME
  2

  9
$UCSORG
 10
0.0
 20
0.0
 30
0.0
  9
$UCSXDIR
 10
1.0
 20
0.0
 30
0.0
  9
$UCSYDIR
 10
0.0
 20
1.0
 30
0.0
  9
$UCSORTHOREF
  2

  9
$UCSORTHOVIEW
 70
     0
  9
$UCSORGTOP
 10
0.0
 20
0.0
 30
0.0
  9
$UCSORGBOTTOM
 10
0.0
 20
0.0
 30
0.0
  9
$UCSORGLEFT
 10
0.0
 20
0.0
 30
0.0
  9
$UCSORGRIGHT
 10
0.0
 20
0.0
 30
0.0
  9
$UCSORGFRONT
 10
0.0
 20
0.0
 30
0.0
  9
$UCSORGBACK
 10
0.0
 20
0.0
 30
0.0
  9
$PUCSBASE
  2

  9
$PUCSNAME
  2

  9
$PUCSORG
 10
0.0
 20
0.0
 30
0.0
  9
$PUCSXDIR
 10
1.0
 20
0.0
 30
0.0
  9
$PUCSYDIR
 10
0.0
 20
1.0
 30
0.0
  9
$PUCSORTHOREF
  2

  9
$PUCSORTHOVIEW
 70
     0
  9
$PUCSORGTOP
 10
0.0
 20
0.0
 30
0.0
  9
$PUCSORGBOTTOM
 10
0.0
 20
0.0
 30
0.0
  9
$PUCSORGLEFT
 10
0.0
 20
0.0
 30
0.0
  9
$PUCSORGRIGHT
 10
0.0
 20
0.0
 30
0.0
  9
$PUCSORGFRONT
 10
0.0
 20
0.0
 30
0.0
  9
$PUCSORGBACK
 10
0.0
 20
0.0
 30
0.0
  9
$USERI1
 70
     0
  9
$USERI2
 70
     0
  9
$USERI3
 70
     0
  9
$USERI4
 70
     0
  9
$USERI5
 70
     0
  9
$USERR1
 40
0.0
  9
$USERR2
 40
0.0
  9
$USERR3
 40
0.0
  9
$USERR4
 40
0.0
  9
$USERR5
 40
0.0
  9
$WORLDVIEW
 70
     1
  9
$SHADEDGE
 70
     3
  9
$SHADEDIF
 70
    70
  9
$TILEMODE
 70
     1
  9
$MAXACTVP
 70
    16
  9
$PINSBASE
 10
0.0
 20
0.0
 30
0.0
  9
$PLIMCHECK
 70
     0
  9
$PEXTMIN
 10
1.000000000000000E+20
 20
1.000000000000000E+20
 30
1.000000000000000E+20
  9
$PEXTMAX
 10
-1.000000000000000E+20
 20
-1.000000000000000E+20
 30
-1.000000000000000E+20
  9
$PLIMMIN
 10
0.0
 20
0.0
  9
$PLIMMAX
 10
420.0
 20
297.0
  9
$UNITMODE
 70
     0
  9
$VISRETAIN
 70
     0
  9
$PLINEGEN
 70
     0
  9
$PSLTSCALE
 70
     0
  9
$TREEDEPTH
 70
  3020
  9
$CMLSTYLE
  2
STANDARD
  9
$CMLJUST
 70
     0
  9
$CMLSCALE
 40
1.0
  9
$PROXYGRAPHICS
 70
     1
  9
$MEASUREMENT
 70
     1
  9
$CELWEIGHT
370
    -1
  9
$ENDCAPS
280
     0
  9
$JOINSTYLE
280
     0
  9
$LWDISPLAY
290
     0
  9
$INSUNITS
 70
     0
  9
$HYPERLINKBASE
  1

  9
$STYLESHEET
  1
inaba.ctb
  9
$XEDIT
290
     1
  9
$CEPSNTYPE
380
     0
  9
$PSTYLEMODE
290
     1
  9
$FINGERPRINTGUID
  2
{3B57B35E-7D77-4BBF-81B7-6C583B9EB24C}
  9
$VERSIONGUID
  2
{066A8197-692F-4443-B21C-CDCD85449451}
  9
$EXTNAMES
290
     1
  9
$PSVPSCALE
 40
0.0
  9
$OLESTARTUP
290
     0
  0
ENDSEC
  0
SECTION
  2
CLASSES
  0
CLASS
  1
ACDBDICTIONARYWDFLT
  2
AcDbDictionaryWithDefault
  3
ObjectDBX Classes
 90
        0
280
     0
281
     0
  0
CLASS
  1
DICTIONARYVAR
  2
AcDbDictionaryVar
  3
ObjectDBX Classes
 90
        0
280
     0
281
     0
  0
CLASS
  1
ACDBPLACEHOLDER
  2
AcDbPlaceHolder
  3
ObjectDBX Classes
 90
        0
280
     0
281
     0
  0
CLASS
  1
LAYOUT
  2
AcDbLayout
  3
ObjectDBX Classes
 90
        0
280
     0
281
     0
  0
ENDSEC
  0
SECTION
  2
TABLES
  0
TABLE
  2
VPORT
  5
746D
330
0
100
AcDbSymbolTable
 70
     4
  0
VPORT
  5
1FC77
330
746D
100
AcDbSymbolTableRecord
100
AcDbViewportTableRecord
  2
*Active
 70
     0
 10
0.0
 20
0.0
 11
1.0
 21
1.0
 12
8223.761025238502
 22
5704.605641957225
 13
0.0
 23
0.0
 14
10.0
 24
10.0
 15
10.0
 25
10.0
 16
0.0
 26
0.0
 36
1.0
 17
0.0
 27
0.0
 37
0.0
 40
11500.7306638161
 41
1.528517110266159
 42
50.0
 43
0.0
 44
0.0
 50
0.0
 51
0.0
 71
     0
 72
     0
 73
     1
 74
     0
 75
     0
 76
     0
 77
     0
 78
     0
281
     0
 65
     1
110
0.0
120
0.0
130
0.0
111
1.0
121
0.0
131
0.0
112
0.0
122
1.0
132
0.0
 79
     0
146
0.0
  0
ENDTAB
  0
TABLE
  2
LTYPE
  5
746A
330
0
100
AcDbSymbolTable
 70
     3
  0
LTYPE
  5
7477
330
746A
100
AcDbSymbolTableRecord
100
AcDbLinetypeTableRecord
  2
BYBLOCK
 70
     0
  3

 72
    65
 73
     0
 40
0.0
  0
LTYPE
  5
7478
330
746A
100
AcDbSymbolTableRecord
100
AcDbLinetypeTableRecord
  2
BYLAYER
 70
     0
  3

 72
    65
 73
     0
 40
0.0
  0
LTYPE
  5
7479
330
746A
100
AcDbSymbolTableRecord
100
AcDbLinetypeTableRecord
  2
CONTINUOUS
 70
     0
  3
Solid line
 72
    65
 73
     0
 40
0.0
  0
LTYPE
  5
7816
330
746A
100
AcDbSymbolTableRecord
100
AcDbLinetypeTableRecord
  2
CENTER
 70
     0
  3
____ _ ____ _ ____ _ ____ _ ____ _ ____ _ ____ 
 72
    65
 73
     4
 40
2.0
 49
1.25
 74
     0
 49
-0.25
 74
     0
 49
0.25
 74
     0
 49
-0.25
 74
     0
  0
LTYPE
  5
781B
330
746A
100
AcDbSymbolTableRecord
100
AcDbLinetypeTableRecord
  2
PHANTOM
 70
     0
  3
______  __  __  ______  __  __  ______  __  __ 
 72
    65
 73
     6
 40
2.5
 49
1.25
 74
     0
 49
-0.25
 74
     0
 49
0.25
 74
     0
 49
-0.25
 74
     0
 49
0.25
 74
     0
 49
-0.25
 74
     0
  0
ENDTAB
  0
TABLE
  2
LAYER
  5
7467
102
{ACAD_XDICTIONARY
360
1F929
102
}
330
0
100
AcDbSymbolTable
 70
    10
  0
LAYER
  5
7474
330
7467
100
AcDbSymbolTableRecord
100
AcDbLayerTableRecord
  2
0
 70
     0
 62
     7
  6
CONTINUOUS
370
    -3
390
159AE
  0
LAYER
  5
DEB2
330
7467
100
AcDbSymbolTableRecord
100
AcDbLayerTableRecord
  2
センター
 70
     0
 62
     3
  6
CENTER
370
    -3
390
159AE
  0
LAYER
  5
DEB3
330
7467
100
AcDbSymbolTableRecord
100
AcDbLayerTableRecord
  2
寸法
 70
     0
 62
     4
  6
CONTINUOUS
370
    -3
390
159AE
  0
LAYER
  5
DEB4
330
7467
100
AcDbSymbolTableRecord
100
AcDbLayerTableRecord
  2
部品1
 70
     0
 62
     7
  6
CONTINUOUS
370
    -3
390
159AE
  0
LAYER
  5
DEB5
330
7467
100
AcDbSymbolTableRecord
100
AcDbLayerTableRecord
  2
補助
 70
     0
 62
    -1
  6
CONTINUOUS
370
    -3
390
159AE
  0
LAYER
  5
DEB6
330
7467
100
AcDbSymbolTableRecord
100
AcDbLayerTableRecord
  2
文字
 70
     0
 62
     7
  6
CONTINUOUS
370
    -3
390
159AE
  0
LAYER
  5
F255
330
7467
100
AcDbSymbolTableRecord
100
AcDbLayerTableRecord
  2
DEFPOINTS
 70
     0
 62
     7
  6
CONTINUOUS
290
     0
370
    -3
390
159AE
  0
LAYER
  5
10B54
330
7467
100
AcDbSymbolTableRecord
100
AcDbLayerTableRecord
  2
仕様書枠
 70
     0
 62
   230
  6
CONTINUOUS
370
    -3
390
159AE
  0
LAYER
  5
1173F
330
7467
100
AcDbSymbolTableRecord
100
AcDbLayerTableRecord
  2
細線
 70
     0
 62
     5
  6
CONTINUOUS
370
    -3
390
159AE
  0
LAYER
  5
12CC4
330
7467
100
AcDbSymbolTableRecord
100
AcDbLayerTableRecord
  2
想像線
 70
     0
 62
     6
  6
PHANTOM
370
    -3
390
159AE
  0
ENDTAB
  0
TABLE
  2
STYLE
  5
7468
330
0
100
AcDbSymbolTable
 70
     3
  0
STYLE
  5
7475
330
7468
100
AcDbSymbolTableRecord
100
AcDbTextStyleTableRecord
  2
STANDARD
 70
     0
 40
0.0
 41
1.0
 50
0.0
 71
     0
 42
4.0
  3
txt
  4
C:\AutoCAD LT\bigfont.shx
  0
STYLE
  5
F706
330
7468
100
AcDbSymbolTableRecord
100
AcDbTextStyleTableRecord
  2
STYLE1
 70
     0
 40
0.0
 41
1.0
 50
0.0
 71
     0
 42
100.0
  3
isocp.shx
  4
bigfont.shx
  0
STYLE
  5
103BF
330
7468
100
AcDbSymbolTableRecord
100
AcDbTextStyleTableRecord
  2
STYLE2
 70
     0
 40
0.0
 41
1.0
 50
0.0
 71
     0
 42
100.0
  3
MS PGothic.ttf
  4

1001
ACAD
1000
MS PGothic
1071
    32818
  0
ENDTAB
  0
TABLE
  2
VIEW
  5
746B
330
0
100
AcDbSymbolTable
 70
     0
  0
ENDTAB
  0
TABLE
  2
UCS
  5
746C
330
0
100
AcDbSymbolTable
 70
     0
  0
ENDTAB
  0
TABLE
  2
APPID
  5
746E
330
0
100
AcDbSymbolTable
 70
     6
  0
APPID
  5
7476
330
746E
100
AcDbSymbolTableRecord
100
AcDbRegAppTableRecord
  2
ACAD
 70
     0
  0
APPID
  5
DEA9
330
746E
100
AcDbSymbolTableRecord
100
AcDbRegAppTableRecord
  2
CONTENTBLOCKICON
 70
     0
  0
APPID
  5
DEAA
330
746E
100
AcDbSymbolTableRecord
100
AcDbRegAppTableRecord
  2
CONTENTBLOCKDESCRIPTION
 70
     0
  0
APPID
  5
E71D
330
746E
100
AcDbSymbolTableRecord
100
AcDbRegAppTableRecord
  2
CONTENTTABDATA
 70
     0
  0
APPID
  5
E71E
330
746E
100
AcDbSymbolTableRecord
100
AcDbRegAppTableRecord
  2
CONTENTCURRENTTAB
 70
     0
  0
APPID
  5
F3BA
330
746E
100
AcDbSymbolTableRecord
100
AcDbRegAppTableRecord
  2
DRAWINGVARIABLESXDATA
 70
     0
  0
ENDTAB
  0
TABLE
  2
DIMSTYLE
  5
746F
330
0
100
AcDbSymbolTable
 70
     2
100
AcDbDimStyleTable
 71
     1
340
F71F
  0
DIMSTYLE
105
F71F
102
{ACAD_REACTORS
330
1D93F
330
1D93E
330
1D926
330
1D925
330
1D920
330
1D91D
330
1D934
330
1D933
330
1D92D
330
1D92C
330
1D929
330
1D927
330
1D91C
330
1D91B
330
1D959
330
1D942
330
1D940
330
1F2B6
330
1F2D0
330
1F6E5
330
1F6F2
330
1F7B3
330
1F7C2
330
1FB1E
330
1FB7E
330
1FB81
330
1FB88
330
1FB90
330
1FB91
102
}
330
746F
100
AcDbSymbolTableRecord
100
AcDbDimStyleTableRecord
  2
INABA_S40G
 70
     0
 40
40.0
 41
2.5
 42
0.5
 43
7.0
 44
1.5
 73
     0
 74
     0
 77
     3
 78
     8
140
3.0
141
0.0
143
0.0394
147
1.0
172
     1
173
     1
174
     1
178
     7
271
     1
288
     1
340
F706
341
F770
343
F770
344
F770
  0
DIMSTYLE
105
1C645
330
746F
100
AcDbSymbolTableRecord
100
AcDbDimStyleTableRecord
  2
INABA_S50G
 70
     0
 40
0.0
 41
125.0
 42
25.0
 43
7.0
 44
75.0
 73
     0
 74
     0
 77
     3
 78
     8
140
150.0
141
0.0
143
0.0394
147
25.0
172
     1
173
     1
174
     1
178
     7
271
     1
340
F706
341
F770
343
F770
344
F770
  0
ENDTAB
  0
TABLE
  2
BLOCK_RECORD
  5
7466
330
0
100
AcDbSymbolTable
 70
    31
  0
BLOCK_RECORD
  5
747D
330
7466
100
AcDbSymbolTableRecord
100
AcDbBlockTableRecord
  2
*MODEL_SPACE
340
159B3
  0
BLOCK_RECORD
  5
747A
330
7466
100
AcDbSymbolTableRecord
100
AcDbBlockTableRecord
  2
*PAPER_SPACE
340
159B4
  0
BLOCK_RECORD
  5
F770
330
7466
100
AcDbSymbolTableRecord
100
AcDbBlockTableRecord
  2
_DOTSMALL
340
0
102
{BLKREFS
331
1ED64
331
1ED65
331
1ED6E
331
1ED6F
331
1EDB1
331
1EDB2
331
1F17B
331
1F17C
331
1F185
331
1F186
331
1F2BB
331
1F2BC
331
1F2D5
331
1F2D6
331
1F305
331
1F306
331
1F30E
331
1F30F
331
1F6AE
331
1F6AF
331
1F6B8
331
1F6B9
331
1F6C3
331
1F6C4
331
1F6CD
331
1F6CE
331
1F6D6
331
1F6D7
331
1F6DF
331
1F6E0
331
1F6EA
331
1F6EB
331
1F6F7
331
1F6F8
331
1F7AD
331
1F7AE
331
1F7F3
331
1F7F4
331
1F853
331
1F854
331
1F8BB
331
1F8BC
331
1F8D7
331
1F8D8
331
1FBEC
331
1FBED
331
1FBF5
331
1FBF6
331
1FBFE
331
1FBFF
331
1FC07
331
1FC08
331
1FC15
331
1FC16
331
1FC1D
331
1FC1E
102
}
  0
BLOCK_RECORD
  5
1C530
330
7466
100
AcDbSymbolTableRecord
100
AcDbBlockTableRecord
  2
_NONE
340
0
  0
BLOCK_RECORD
  5
1DA44
330
7466
100
AcDbSymbolTableRecord
100
AcDbBlockTableRecord
  2
*D2
340
0
  0
BLOCK_RECORD
  5
1DA51
330
7466
100
AcDbSymbolTableRecord
100
AcDbBlockTableRecord
  2
*D3
340
0
  0
BLOCK_RECORD
  5
1DA5E
330
7466
100
AcDbSymbolTableRecord
100
AcDbBlockTableRecord
  2
*D4
340
0
  0
BLOCK_RECORD
  5
1DA69
330
7466
100
AcDbSymbolTableRecord
100
AcDbBlockTableRecord
  2
*D5
340
0
  0
BLOCK_RECORD
  5
1DA74
330
7466
100
AcDbSymbolTableRecord
100
AcDbBlockTableRecord
  2
*D6
340
0
  0
BLOCK_RECORD
  5
1DA81
330
7466
100
AcDbSymbolTableRecord
100
AcDbBlockTableRecord
  2
*D7
340
0
  0
BLOCK_RECORD
  5
1DA8E
330
7466
100
AcDbSymbolTableRecord
100
AcDbBlockTableRecord
  2
*D8
340
0
  0
BLOCK_RECORD
  5
1DA9A
330
7466
100
AcDbSymbolTableRecord
100
AcDbBlockTableRecord
  2
*D9
340
0
  0
BLOCK_RECORD
  5
1DAA5
330
7466
100
AcDbSymbolTableRecord
100
AcDbBlockTableRecord
  2
*D10
340
0
  0
BLOCK_RECORD
  5
1DAB2
330
7466
100
AcDbSymbolTableRecord
100
AcDbBlockTableRecord
  2
*D11
340
0
  0
BLOCK_RECORD
  5
1DABE
330
7466
100
AcDbSymbolTableRecord
100
AcDbBlockTableRecord
  2
*D12
340
0
  0
BLOCK_RECORD
  5
1DACB
330
7466
100
AcDbSymbolTableRecord
100
AcDbBlockTableRecord
  2
*D13
340
0
  0
BLOCK_RECORD
  5
1DAD9
330
7466
100
AcDbSymbolTableRecord
100
AcDbBlockTableRecord
  2
*D14
340
0
  0
BLOCK_RECORD
  5
1DAE6
330
7466
100
AcDbSymbolTableRecord
100
AcDbBlockTableRecord
  2
*D15
340
0
  0
BLOCK_RECORD
  5
1DAF3
330
7466
100
AcDbSymbolTableRecord
100
AcDbBlockTableRecord
  2
*D16
340
0
  0
BLOCK_RECORD
  5
1DB1A
330
7466
100
AcDbSymbolTableRecord
100
AcDbBlockTableRecord
  2
*D17
340
0
  0
BLOCK_RECORD
  5
1F2B7
330
7466
100
AcDbSymbolTableRecord
100
AcDbBlockTableRecord
  2
*D18
340
0
  0
BLOCK_RECORD
  5
1F2D1
330
7466
100
AcDbSymbolTableRecord
100
AcDbBlockTableRecord
  2
*D19
340
0
  0
BLOCK_RECORD
  5
1F6E6
330
7466
100
AcDbSymbolTableRecord
100
AcDbBlockTableRecord
  2
*D20
340
0
  0
BLOCK_RECORD
  5
1F6F3
330
7466
100
AcDbSymbolTableRecord
100
AcDbBlockTableRecord
  2
*D21
340
0
  0
BLOCK_RECORD
  5
1F7B4
330
7466
100
AcDbSymbolTableRecord
100
AcDbBlockTableRecord
  2
*D22
340
0
  0
BLOCK_RECORD
  5
1F7C3
330
7466
100
AcDbSymbolTableRecord
100
AcDbBlockTableRecord
  2
*D23
340
0
  0
BLOCK_RECORD
  5
1FB9B
330
7466
100
AcDbSymbolTableRecord
100
AcDbBlockTableRecord
  2
*D24
340
0
  0
BLOCK_RECORD
  5
1FBA7
330
7466
100
AcDbSymbolTableRecord
100
AcDbBlockTableRecord
  2
*D25
340
0
  0
BLOCK_RECORD
  5
1FBB3
330
7466
100
AcDbSymbolTableRecord
100
AcDbBlockTableRecord
  2
*D26
340
0
  0
BLOCK_RECORD
  5
1FBBF
330
7466
100
AcDbSymbolTableRecord
100
AcDbBlockTableRecord
  2
*D27
340
0
  0
BLOCK_RECORD
  5
1FBCB
330
7466
100
AcDbSymbolTableRecord
100
AcDbBlockTableRecord
  2
*D28
340
0
  0
BLOCK_RECORD
  5
1FBDC
330
7466
100
AcDbSymbolTableRecord
100
AcDbBlockTableRecord
  2
*D29
340
0
  0
ENDTAB
  0
ENDSEC
  0
SECTION
  2
BLOCKS
  0
BLOCK
  5
7489
330
747D
100
AcDbEntity
  8
0
100
AcDbBlockBegin
  2
*MODEL_SPACE
 70
     0
 10
0.0
 20
0.0
 30
0.0
  3
*MODEL_SPACE
  1

  0
ENDBLK
  5
748A
330
747D
100
AcDbEntity
  8
0
100
AcDbBlockEnd
  0
BLOCK
  5
7487
330
747A
100
AcDbEntity
 67
     1
  8
0
100
AcDbBlockBegin
  2
*PAPER_SPACE
 70
     0
 10
0.0
 20
0.0
 30
0.0
  3
*PAPER_SPACE
  1

  0
ENDBLK
  5
7488
330
747A
100
AcDbEntity
 67
     1
  8
0
100
AcDbBlockEnd
  0
BLOCK
  5
F771
330
F770
100
AcDbEntity
  8
0
 48
50.0
100
AcDbBlockBegin
  2
_DOTSMALL
 70
     0
 10
0.0
 20
0.0
 30
0.0
  3
_DOTSMALL
  1

  0
LWPOLYLINE
  5
F772
330
F770
100
AcDbEntity
  8
0
  6
ByBlock
 62
     0
 48
50.0
100
AcDbPolyline
 90
        2
 70
     1
 43
0.5
 10
-0.0625
 20
0.0
 42
1.0
 10
0.0625
 20
0.0
 42
1.0
  0
ENDBLK
  5
F776
330
F770
100
AcDbEntity
  8
0
 48
50.0
100
AcDbBlockEnd
  0
BLOCK
  5
1C531
330
1C530
100
AcDbEntity
  8
0
 48
50.0
100
AcDbBlockBegin
  2
_NONE
 70
     0
 10
0.0
 20
0.0
 30
0.0
  3
_NONE
  1

  0
CIRCLE
  5
1C532
330
1C530
100
AcDbEntity
  8
0
  6
ByBlock
 62
     0
 48
50.0
100
AcDbCircle
 10
0.0
 20
0.0
 30
0.0
 40
0.25
  0
ENDBLK
  5
1C533
330
1C530
100
AcDbEntity
  8
0
 48
50.0
100
AcDbBlockEnd
  0
BLOCK
  5
1DA4F
330
1DA44
100
AcDbEntity
  8
0
 48
50.0
100
AcDbBlockBegin
  2
*D2
 70
     1
 10
0.0
 20
0.0
 30
0.0
  3
*D2
  1

  0
LINE
  5
1F7EF
330
1DA44
100
AcDbEntity
  8
寸法
 62
     0
 48
50.0
370
    -2
100
AcDbLine
 10
7573.599999999998
 20
6290.878363921547
 30
0.0
 11
7830.307249876099
 21
6290.878363921547
 31
0.0
  0
LINE
  5
1F7F0
330
1DA44
100
AcDbEntity
  8
寸法
 62
     0
 48
50.0
370
    -2
100
AcDbLine
 10
7573.599999999998
 20
6420.878363921549
 30
0.0
 11
7830.307249876099
 21
6420.878363921549
 31
0.0
  0
LINE
  5
1F7F1
330
1DA44
100
AcDbEntity
  8
寸法
 62
     0
 48
50.0
370
    -2
100
AcDbLine
 10
7770.307249876099
 20
6290.878363921547
 30
0.0
 11
7770.307249876099
 21
6420.878363921549
 31
0.0
  0
LINE
  5
1F7F2
330
1DA44
100
AcDbEntity
  8
寸法
 62
     0
 48
50.0
370
    -2
100
AcDbLine
 10
7770.307249876099
 20
6420.878363921549
 30
0.0
 11
7770.307249876099
 21
6792.972852110526
 31
0.0
  0
INSERT
  5
1F7F3
330
1DA44
100
AcDbEntity
  8
寸法
 62
     0
 48
50.0
370
    -2
100
AcDbBlockReference
  2
_DOTSMALL
 10
7770.307249876099
 20
6290.878363921547
 30
0.0
 41
100.0
 42
100.0
 43
100.0
 50
270.0
  0
INSERT
  5
1F7F4
330
1DA44
100
AcDbEntity
  8
寸法
 62
     0
 48
50.0
370
    -2
100
AcDbBlockReference
  2
_DOTSMALL
 10
7770.307249876099
 20
6420.878363921549
 30
0.0
 41
100.0
 42
100.0
 43
100.0
 50
90.0
  0
MTEXT
  5
1F7F5
330
1DA44
100
AcDbEntity
  8
寸法
 62
     7
 48
50.0
100
AcDbMText
 10
7670.307249876097
 20
6656.925608016038
 30
0.0
 40
120.0
 41
0.0
 71
     5
 72
     1
  1
\A1;130
  7
STYLE1
 11
0.0000000000000001
 21
1.0
 31
0.0
 73
     1
 44
1.0
1001
ACAD
1000
MTEXTBEGIN
1070
    73
1070
     1
1070
    44
1040
1.0
1070
    74
1070
     0
1000
MTEXTEND
  0
POINT
  5
1F7F6
330
1DA44
100
AcDbEntity
  8
DEFPOINTS
 62
     0
 48
50.0
100
AcDbPoint
 10
7553.599999999999
 20
6290.878363921547
 30
0.0
  0
POINT
  5
1F7F7
330
1DA44
100
AcDbEntity
  8
DEFPOINTS
 62
     0
 48
50.0
100
AcDbPoint
 10
7553.599999999999
 20
6420.878363921549
 30
0.0
  0
POINT
  5
1F7F8
330
1DA44
100
AcDbEntity
  8
DEFPOINTS
 62
     0
 48
50.0
100
AcDbPoint
 10
7770.307249876099
 20
6420.878363921549
 30
0.0
  0
ENDBLK
  5
1DA50
330
1DA44
100
AcDbEntity
  8
0
 48
50.0
100
AcDbBlockEnd
  0
BLOCK
  5
1DA5C
330
1DA51
100
AcDbEntity
  8
0
 48
50.0
100
AcDbBlockBegin
  2
*D3
 70
     1
 10
0.0
 20
0.0
 30
0.0
  3
*D3
  1

  0
LINE
  5
1EDAD
330
1DA51
100
AcDbEntity
  8
寸法
 62
     0
 48
50.0
370
    -2
100
AcDbLine
 10
7573.599999999998
 20
6290.878363921549
 30
0.0
 11
7830.307249876098
 21
6290.878363921549
 31
0.0
  0
LINE
  5
1EDAE
330
1DA51
100
AcDbEntity
  8
寸法
 62
     0
 48
50.0
370
    -2
100
AcDbLine
 10
7573.599999999998
 20
6120.878363921548
 30
0.0
 11
7830.307249876097
 21
6120.878363921548
 31
0.0
  0
LINE
  5
1EDAF
330
1DA51
100
AcDbEntity
  8
寸法
 62
     0
 48
50.0
370
    -2
100
AcDbLine
 10
7770.307249876097
 20
6290.878363921549
 30
0.0
 11
7770.307249876097
 21
6120.878363921548
 31
0.0
  0
LINE
  5
1EDB0
330
1DA51
100
AcDbEntity
  8
寸法
 62
     0
 48
50.0
370
    -2
100
AcDbLine
 10
7770.307249876097
 20
6120.878363921548
 30
0.0
 11
7770.307249876097
 21
5748.783875732571
 31
0.0
  0
INSERT
  5
1EDB1
330
1DA51
100
AcDbEntity
  8
寸法
 62
     0
 48
50.0
370
    -2
100
AcDbBlockReference
  2
_DOTSMALL
 10
7770.307249876097
 20
6290.878363921549
 30
0.0
 41
100.0
 42
100.0
 43
100.0
 50
90.0
  0
INSERT
  5
1EDB2
330
1DA51
100
AcDbEntity
  8
寸法
 62
     0
 48
50.0
370
    -2
100
AcDbBlockReference
  2
_DOTSMALL
 10
7770.307249876097
 20
6120.878363921548
 30
0.0
 41
100.0
 42
100.0
 43
100.0
 50
270.0
  0
MTEXT
  5
1EDB3
330
1DA51
100
AcDbEntity
  8
寸法
 62
     7
 48
50.0
100
AcDbMText
 10
7670.307249876096
 20
5884.831119827059
 30
0.0
 40
120.0
 41
0.0
 71
     5
 72
     1
  1
\A1;170
  7
STYLE1
 11
0.0000000000000001
 21
1.0
 31
0.0
 73
     1
 44
1.0
1001
ACAD
1000
MTEXTBEGIN
1070
    73
1070
     1
1070
    44
1040
1.0
1070
    74
1070
     0
1000
MTEXTEND
  0
POINT
  5
1EDB4
330
1DA51
100
AcDbEntity
  8
DEFPOINTS
 62
     0
 48
50.0
100
AcDbPoint
 10
7553.599999999999
 20
6290.878363921549
 30
0.0
  0
POINT
  5
1EDB5
330
1DA51
100
AcDbEntity
  8
DEFPOINTS
 62
     0
 48
50.0
100
AcDbPoint
 10
7553.599999999999
 20
6120.878363921548
 30
0.0
  0
POINT
  5
1EDB6
330
1DA51
100
AcDbEntity
  8
DEFPOINTS
 62
     0
 48
50.0
100
AcDbPoint
 10
7770.307249876097
 20
6120.878363921548
 30
0.0
  0
ENDBLK
  5
1DA5D
330
1DA51
100
AcDbEntity
  8
0
 48
50.0
100
AcDbBlockEnd
  0
BLOCK
  5
1DA67
330
1DA5E
100
AcDbEntity
  8
0
 48
50.0
100
AcDbBlockBegin
  2
*D4
 70
     1
 10
0.0
 20
0.0
 30
0.0
  3
*D4
  1

  0
LINE
  5
1F6DC
330
1DA5E
100
AcDbEntity
  8
寸法
 62
     0
 48
50.0
370
    -2
100
AcDbLine
 10
8580.599999999998
 20
7867.878363921545
 30
0.0
 11
8580.599999999998
 21
8785.938974311475
 31
0.0
  0
LINE
  5
1F6DD
330
1DA5E
100
AcDbEntity
  8
寸法
 62
     0
 48
50.0
370
    -2
100
AcDbLine
 10
7446.6
 20
7867.878363921545
 30
0.0
 11
7446.6
 21
8785.938974311475
 31
0.0
  0
LINE
  5
1F6DE
330
1DA5E
100
AcDbEntity
  8
寸法
 62
     0
 48
50.0
370
    -2
100
AcDbLine
 10
8580.599999999998
 20
8725.938974311475
 30
0.0
 11
7446.6
 21
8725.938974311475
 31
0.0
  0
INSERT
  5
1F6DF
330
1DA5E
100
AcDbEntity
  8
寸法
 62
     0
 48
50.0
370
    -2
100
AcDbBlockReference
  2
_DOTSMALL
 10
8580.599999999998
 20
8725.938974311475
 30
0.0
 41
100.0
 42
100.0
 43
100.0
  0
INSERT
  5
1F6E0
330
1DA5E
100
AcDbEntity
  8
寸法
 62
     0
 48
50.0
370
    -2
100
AcDbBlockReference
  2
_DOTSMALL
 10
7446.6
 20
8725.938974311475
 30
0.0
 41
100.0
 42
100.0
 43
100.0
 50
180.0
  0
MTEXT
  5
1F6E1
330
1DA5E
100
AcDbEntity
  8
寸法
 62
     7
 48
50.0
100
AcDbMText
 10
8013.599999999998
 20
8825.938974311474
 30
0.0
 40
120.0
 41
0.0
 71
     5
 72
     1
  1
\A1;1134
  7
STYLE1
 73
     1
 44
1.0
1001
ACAD
1000
MTEXTBEGIN
1070
    73
1070
     1
1070
    44
1040
1.0
1070
    74
1070
     0
1000
MTEXTEND
  0
POINT
  5
1F6E2
330
1DA5E
100
AcDbEntity
  8
DEFPOINTS
 62
     0
 48
50.0
100
AcDbPoint
 10
8580.599999999998
 20
7847.878363921545
 30
0.0
  0
POINT
  5
1F6E3
330
1DA5E
100
AcDbEntity
  8
DEFPOINTS
 62
     0
 48
50.0
100
AcDbPoint
 10
7446.6
 20
7847.878363921545
 30
0.0
  0
POINT
  5
1F6E4
330
1DA5E
100
AcDbEntity
  8
DEFPOINTS
 62
     0
 48
50.0
100
AcDbPoint
 10
7446.6
 20
8725.938974311475
 30
0.0
  0
ENDBLK
  5
1DA68
330
1DA5E
100
AcDbEntity
  8
0
 48
50.0
100
AcDbBlockEnd
  0
BLOCK
  5
1DA72
330
1DA69
100
AcDbEntity
  8
0
 48
50.0
100
AcDbBlockBegin
  2
*D5
 70
     1
 10
0.0
 20
0.0
 30
0.0
  3
*D5
  1

  0
LINE
  5
1F6D3
330
1DA69
100
AcDbEntity
  8
寸法
 62
     0
 48
50.0
370
    -2
100
AcDbLine
 10
7323.599999999998
 20
7940.878363921545
 30
0.0
 11
7323.599999999998
 21
8998.399669828312
 31
0.0
  0
LINE
  5
1F6D4
330
1DA69
100
AcDbEntity
  8
寸法
 62
     0
 48
50.0
370
    -2
100
AcDbLine
 10
8703.599999999999
 20
7940.878363921545
 30
0.0
 11
8703.599999999999
 21
8998.399669828312
 31
0.0
  0
LINE
  5
1F6D5
330
1DA69
100
AcDbEntity
  8
寸法
 62
     0
 48
50.0
370
    -2
100
AcDbLine
 10
7323.599999999998
 20
8938.399669828312
 30
0.0
 11
8703.599999999999
 21
8938.399669828312
 31
0.0
  0
INSERT
  5
1F6D6
330
1DA69
100
AcDbEntity
  8
寸法
 62
     0
 48
50.0
370
    -2
100
AcDbBlockReference
  2
_DOTSMALL
 10
7323.599999999998
 20
8938.399669828312
 30
0.0
 41
100.0
 42
100.0
 43
100.0
 50
180.0
  0
INSERT
  5
1F6D7
330
1DA69
100
AcDbEntity
  8
寸法
 62
     0
 48
50.0
370
    -2
100
AcDbBlockReference
  2
_DOTSMALL
 10
8703.599999999999
 20
8938.399669828312
 30
0.0
 41
100.0
 42
100.0
 43
100.0
  0
MTEXT
  5
1F6D8
330
1DA69
100
AcDbEntity
  8
寸法
 62
     7
 48
50.0
100
AcDbMText
 10
8013.599999999998
 20
9038.399669828311
 30
0.0
 40
120.0
 41
0.0
 71
     5
 72
     1
  1
\A1;1380
  7
STYLE1
 73
     1
 44
1.0
1001
ACAD
1000
MTEXTBEGIN
1070
    73
1070
     1
1070
    44
1040
1.0
1070
    74
1070
     0
1000
MTEXTEND
  0
POINT
  5
1F6D9
330
1DA69
100
AcDbEntity
  8
DEFPOINTS
 62
     0
 48
50.0
100
AcDbPoint
 10
7323.599999999998
 20
7920.878363921545
 30
0.0
  0
POINT
  5
1F6DA
330
1DA69
100
AcDbEntity
  8
DEFPOINTS
 62
     0
 48
50.0
100
AcDbPoint
 10
8703.599999999999
 20
7920.878363921545
 30
0.0
  0
POINT
  5
1F6DB
330
1DA69
100
AcDbEntity
  8
DEFPOINTS
 62
     0
 48
50.0
100
AcDbPoint
 10
8703.599999999999
 20
8938.399669828312
 30
0.0
  0
ENDBLK
  5
1DA73
330
1DA69
100
AcDbEntity
  8
0
 48
50.0
100
AcDbBlockEnd
  0
BLOCK
  5
1DA7F
330
1DA74
100
AcDbEntity
  8
0
 48
50.0
100
AcDbBlockBegin
  2
*D6
 70
     1
 10
0.0
 20
0.0
 30
0.0
  3
*D6
  1

  0
LINE
  5
1F6C9
330
1DA74
100
AcDbEntity
  8
寸法
 62
     0
 48
50.0
370
    -2
100
AcDbLine
 10
7446.6
 20
7867.878363921545
 30
0.0
 11
7446.6
 21
8785.938974311475
 31
0.0
  0
LINE
  5
1F6CA
330
1DA74
100
AcDbEntity
  8
寸法
 62
     0
 48
50.0
370
    -2
100
AcDbLine
 10
7323.599999999998
 20
7940.878363921545
 30
0.0
 11
7323.599999999998
 21
8785.938974311475
 31
0.0
  0
LINE
  5
1F6CB
330
1DA74
100
AcDbEntity
  8
寸法
 62
     0
 48
50.0
370
    -2
100
AcDbLine
 10
7446.6
 20
8725.938974311475
 30
0.0
 11
7323.599999999998
 21
8725.938974311475
 31
0.0
  0
LINE
  5
1F6CC
330
1DA74
100
AcDbEntity
  8
寸法
 62
     0
 48
50.0
370
    -2
100
AcDbLine
 10
7323.599999999998
 20
8725.938974311475
 30
0.0
 11
6946.62943725152
 21
8725.938974311475
 31
0.0
  0
INSERT
  5
1F6CD
330
1DA74
100
AcDbEntity
  8
寸法
 62
     0
 48
50.0
370
    -2
100
AcDbBlockReference
  2
_DOTSMALL
 10
7446.6
 20
8725.938974311475
 30
0.0
 41
100.0
 42
100.0
 43
100.0
  0
INSERT
  5
1F6CE
330
1DA74
100
AcDbEntity
  8
寸法
 62
     0
 48
50.0
370
    -2
100
AcDbBlockReference
  2
_DOTSMALL
 10
7323.599999999998
 20
8725.938974311475
 30
0.0
 41
100.0
 42
100.0
 43
100.0
 50
180.0
  0
MTEXT
  5
1F6CF
330
1DA74
100
AcDbEntity
  8
寸法
 62
     7
 48
50.0
100
AcDbMText
 10
7085.11471862576
 20
8825.950785335097
 30
0.0
 40
120.0
 41
0.0
 71
     5
 72
     1
  1
\A1;123
  7
STYLE1
 73
     1
 44
1.0
1001
ACAD
1000
MTEXTBEGIN
1070
    73
1070
     1
1070
    44
1040
1.0
1070
    74
1070
     0
1000
MTEXTEND
  0
POINT
  5
1F6D0
330
1DA74
100
AcDbEntity
  8
DEFPOINTS
 62
     0
 48
50.0
100
AcDbPoint
 10
7446.6
 20
7847.878363921545
 30
0.0
  0
POINT
  5
1F6D1
330
1DA74
100
AcDbEntity
  8
DEFPOINTS
 62
     0
 48
50.0
100
AcDbPoint
 10
7323.599999999998
 20
7920.878363921545
 30
0.0
  0
POINT
  5
1F6D2
330
1DA74
100
AcDbEntity
  8
DEFPOINTS
 62
     0
 48
50.0
100
AcDbPoint
 10
7323.599999999998
 20
8725.938974311475
 30
0.0
  0
ENDBLK
  5
1DA80
330
1DA74
100
AcDbEntity
  8
0
 48
50.0
100
AcDbBlockEnd
  0
BLOCK
  5
1DA8C
330
1DA81
100
AcDbEntity
  8
0
 48
50.0
100
AcDbBlockBegin
  2
*D7
 70
     1
 10
0.0
 20
0.0
 30
0.0
  3
*D7
  1

  0
LINE
  5
1F6BE
330
1DA81
100
AcDbEntity
  8
寸法
 62
     0
 48
50.0
370
    -2
100
AcDbLine
 10
7278.599999999994
 20
8745.938974311476
 30
0.0
 11
7278.599999999994
 21
8998.399669828314
 31
0.0
  0
LINE
  5
1F6BF
330
1DA81
100
AcDbEntity
  8
寸法
 62
     0
 48
50.0
370
    -2
100
AcDbLine
 10
7323.599999999998
 20
7940.878363921545
 30
0.0
 11
7323.599999999998
 21
8998.399669828314
 31
0.0
  0
LINE
  5
1F6C0
330
1DA81
100
AcDbEntity
  8
寸法
 62
     0
 48
50.0
370
    -2
100
AcDbLine
 10
7278.599999999994
 20
8938.399669828314
 30
0.0
 11
7178.599999999994
 21
8938.399669828314
 31
0.0
  0
LINE
  5
1F6C1
330
1DA81
100
AcDbEntity
  8
寸法
 62
     0
 48
50.0
370
    -2
100
AcDbLine
 10
7323.599999999998
 20
8938.399669828314
 30
0.0
 11
7423.599999999999
 21
8938.399669828314
 31
0.0
  0
LINE
  5
1F6C2
330
1DA81
100
AcDbEntity
  8
寸法
 62
     0
 48
50.0
370
    -2
100
AcDbLine
 10
7278.599999999994
 20
8938.399669828314
 30
0.0
 11
7323.599999999998
 21
8938.399669828314
 31
0.0
  0
INSERT
  5
1F6C3
330
1DA81
100
AcDbEntity
  8
寸法
 62
     0
 48
50.0
370
    -2
100
AcDbBlockReference
  2
_DOTSMALL
 10
7278.599999999994
 20
8938.399669828314
 30
0.0
 41
100.0
 42
100.0
 43
100.0
  0
INSERT
  5
1F6C4
330
1DA81
100
AcDbEntity
  8
寸法
 62
     0
 48
50.0
370
    -2
100
AcDbBlockReference
  2
_DOTSMALL
 10
7323.599999999998
 20
8938.399669828314
 30
0.0
 41
100.0
 42
100.0
 43
100.0
 50
180.0
  0
MTEXT
  5
1F6C5
330
1DA81
100
AcDbEntity
  8
寸法
 62
     7
 48
50.0
100
AcDbMText
 10
7301.099999999997
 20
9038.399669828313
 30
0.0
 40
120.0
 41
0.0
 71
     5
 72
     1
  1
\A1;a
  7
STYLE1
 73
     1
 44
1.0
1001
ACAD
1000
MTEXTBEGIN
1070
    73
1070
     1
1070
    44
1040
1.0
1070
    74
1070
     0
1000
MTEXTEND
  0
POINT
  5
1F6C6
330
1DA81
100
AcDbEntity
  8
DEFPOINTS
 62
     0
 48
50.0
100
AcDbPoint
 10
7278.599999999994
 20
8725.938974311475
 30
0.0
  0
POINT
  5
1F6C7
330
1DA81
100
AcDbEntity
  8
DEFPOINTS
 62
     0
 48
50.0
100
AcDbPoint
 10
7323.599999999998
 20
7920.878363921545
 30
0.0
  0
POINT
  5
1F6C8
330
1DA81
100
AcDbEntity
  8
DEFPOINTS
 62
     0
 48
50.0
100
AcDbPoint
 10
7323.599999999998
 20
8938.399669828314
 30
0.0
  0
ENDBLK
  5
1DA8D
330
1DA81
100
AcDbEntity
  8
0
 48
50.0
100
AcDbBlockEnd
  0
BLOCK
  5
1DA98
330
1DA8E
100
AcDbEntity
  8
0
 48
50.0
100
AcDbBlockBegin
  2
*D8
 70
     1
 10
0.0
 20
0.0
 30
0.0
  3
*D8
  1

  0
LINE
  5
1F302
330
1DA8E
100
AcDbEntity
  8
寸法
 62
     0
 48
50.0
370
    -2
100
AcDbLine
 10
7376.599999999999
 20
7797.878363921545
 30
0.0
 11
6767.657733986178
 21
7797.878363921545
 31
0.0
  0
LINE
  5
1F303
330
1DA8E
100
AcDbEntity
  8
寸法
 62
     0
 48
50.0
370
    -2
100
AcDbLine
 10
7376.600000000006
 20
6318.878363921547
 30
0.0
 11
6767.657733986178
 21
6318.878363921547
 31
0.0
  0
LINE
  5
1F304
330
1DA8E
100
AcDbEntity
  8
寸法
 62
     0
 48
50.0
370
    -2
100
AcDbLine
 10
6827.657733986177
 20
7797.878363921545
 30
0.0
 11
6827.657733986177
 21
6318.878363921547
 31
0.0
  0
INSERT
  5
1F305
330
1DA8E
100
AcDbEntity
  8
寸法
 62
     0
 48
50.0
370
    -2
100
AcDbBlockReference
  2
_DOTSMALL
 10
6827.657733986177
 20
7797.878363921545
 30
0.0
 41
100.0
 42
100.0
 43
100.0
 50
90.0
  0
INSERT
  5
1F306
330
1DA8E
100
AcDbEntity
  8
寸法
 62
     0
 48
50.0
370
    -2
100
AcDbBlockReference
  2
_DOTSMALL
 10
6827.657733986177
 20
6318.878363921547
 30
0.0
 41
100.0
 42
100.0
 43
100.0
 50
270.0
  0
MTEXT
  5
1F307
330
1DA8E
100
AcDbEntity
  8
寸法
 62
     7
 48
50.0
100
AcDbMText
 10
6727.657733986176
 20
7029.959587441503
 30
0.0
 40
120.0
 41
0.0
 71
     5
 72
     1
  1
\A1;1479
  7
STYLE1
 11
0.0000000000000001
 21
1.0
 31
0.0
 73
     1
 44
1.0
1001
ACAD
1000
MTEXTBEGIN
1070
    73
1070
     1
1070
    44
1040
1.0
1070
    74
1070
     0
1000
MTEXTEND
  0
POINT
  5
1F308
330
1DA8E
100
AcDbEntity
  8
DEFPOINTS
 62
     0
 48
50.0
100
AcDbPoint
 10
7396.599999999999
 20
7797.878363921545
 30
0.0
  0
POINT
  5
1F309
330
1DA8E
100
AcDbEntity
  8
DEFPOINTS
 62
     0
 48
50.0
100
AcDbPoint
 10
7396.600000000006
 20
6318.878363921547
 30
0.0
  0
POINT
  5
1F30A
330
1DA8E
100
AcDbEntity
  8
DEFPOINTS
 62
     0
 48
50.0
100
AcDbPoint
 10
6827.657733986177
 20
6318.878363921547
 30
0.0
  0
ENDBLK
  5
1DA99
330
1DA8E
100
AcDbEntity
  8
0
 48
50.0
100
AcDbBlockEnd
  0
BLOCK
  5
1DAA3
330
1DA9A
100
AcDbEntity
  8
0
 48
50.0
100
AcDbBlockBegin
  2
*D9
 70
     1
 10
0.0
 20
0.0
 30
0.0
  3
*D9
  1

  0
LINE
  5
1F30B
330
1DA9A
100
AcDbEntity
  8
寸法
 62
     0
 48
50.0
370
    -2
100
AcDbLine
 10
7303.599999999999
 20
7920.878363921545
 30
0.0
 11
6522.164931848212
 21
7920.878363921545
 31
0.0
  0
LINE
  5
1F30C
330
1DA9A
100
AcDbEntity
  8
寸法
 62
     0
 48
50.0
370
    -2
100
AcDbLine
 10
7303.599999999999
 20
6120.878363921545
 30
0.0
 11
6522.164931848211
 21
6120.878363921545
 31
0.0
  0
LINE
  5
1F30D
330
1DA9A
100
AcDbEntity
  8
寸法
 62
     0
 48
50.0
370
    -2
100
AcDbLine
 10
6582.164931848211
 20
7920.878363921545
 30
0.0
 11
6582.16493184821
 21
6120.878363921545
 31
0.0
  0
INSERT
  5
1F30E
330
1DA9A
100
AcDbEntity
  8
寸法
 62
     0
 48
50.0
370
    -2
100
AcDbBlockReference
  2
_DOTSMALL
 10
6582.164931848211
 20
7920.878363921545
 30
0.0
 41
100.0
 42
100.0
 43
100.0
 50
90.0
  0
INSERT
  5
1F30F
330
1DA9A
100
AcDbEntity
  8
寸法
 62
     0
 48
50.0
370
    -2
100
AcDbBlockReference
  2
_DOTSMALL
 10
6582.16493184821
 20
6120.878363921545
 30
0.0
 41
100.0
 42
100.0
 43
100.0
 50
270.0
  0
MTEXT
  5
1F310
330
1DA9A
100
AcDbEntity
  8
寸法
 62
     7
 48
50.0
100
AcDbMText
 10
6482.16493184821
 20
7013.305234467698
 30
0.0
 40
120.0
 41
0.0
 71
     5
 72
     1
  1
\A1;1800
  7
STYLE1
 11
0.0000000000000001
 21
1.0
 31
0.0
 73
     1
 44
1.0
1001
ACAD
1000
MTEXTBEGIN
1070
    73
1070
     1
1070
    44
1040
1.0
1070
    74
1070
     0
1000
MTEXTEND
  0
POINT
  5
1F311
330
1DA9A
100
AcDbEntity
  8
DEFPOINTS
 62
     0
 48
50.0
100
AcDbPoint
 10
7323.599999999998
 20
7920.878363921545
 30
0.0
  0
POINT
  5
1F312
330
1DA9A
100
AcDbEntity
  8
DEFPOINTS
 62
     0
 48
50.0
100
AcDbPoint
 10
7323.599999999998
 20
6120.878363921545
 30
0.0
  0
POINT
  5
1F313
330
1DA9A
100
AcDbEntity
  8
DEFPOINTS
 62
     0
 48
50.0
100
AcDbPoint
 10
6582.16493184821
 20
6120.878363921545
 30
0.0
  0
ENDBLK
  5
1DAA4
330
1DA9A
100
AcDbEntity
  8
0
 48
50.0
100
AcDbBlockEnd
  0
BLOCK
  5
1DAB0
330
1DAA5
100
AcDbEntity
  8
0
 48
50.0
100
AcDbBlockBegin
  2
*D10
 70
     1
 10
0.0
 20
0.0
 30
0.0
  3
*D10
  1

  0
LINE
  5
1ED6A
330
1DAA5
100
AcDbEntity
  8
寸法
 62
     0
 48
50.0
370
    -2
100
AcDbLine
 10
7376.600000000006
 20
6318.878363921547
 30
0.0
 11
6767.657733986178
 21
6318.878363921547
 31
0.0
  0
LINE
  5
1ED6B
330
1DAA5
100
AcDbEntity
  8
寸法
 62
     0
 48
50.0
370
    -2
100
AcDbLine
 10
7303.599999999999
 20
6120.878363921545
 30
0.0
 11
6767.657733986176
 21
6120.878363921545
 31
0.0
  0
LINE
  5
1ED6C
330
1DAA5
100
AcDbEntity
  8
寸法
 62
     0
 48
50.0
370
    -2
100
AcDbLine
 10
6827.657733986177
 20
6318.878363921547
 30
0.0
 11
6827.657733986177
 21
6120.878363921545
 31
0.0
  0
LINE
  5
1ED6D
330
1DAA5
100
AcDbEntity
  8
寸法
 62
     0
 48
50.0
370
    -2
100
AcDbLine
 10
6827.657733986177
 20
6120.878363921545
 30
0.0
 11
6827.657733986177
 21
5748.459044262232
 31
0.0
  0
INSERT
  5
1ED6E
330
1DAA5
100
AcDbEntity
  8
寸法
 62
     0
 48
50.0
370
    -2
100
AcDbBlockReference
  2
_DOTSMALL
 10
6827.657733986177
 20
6318.878363921547
 30
0.0
 41
100.0
 42
100.0
 43
100.0
 50
90.0
  0
INSERT
  5
1ED6F
330
1DAA5
100
AcDbEntity
  8
寸法
 62
     0
 48
50.0
370
    -2
100
AcDbBlockReference
  2
_DOTSMALL
 10
6827.657733986177
 20
6120.878363921545
 30
0.0
 41
100.0
 42
100.0
 43
100.0
 50
270.0
  0
MTEXT
  5
1ED70
330
1DAA5
100
AcDbEntity
  8
寸法
 62
     7
 48
50.0
100
AcDbMText
 10
6727.657733986176
 20
5884.668704091891
 30
0.0
 40
120.0
 41
0.0
 71
     5
 72
     1
  1
\A1;198
  7
STYLE1
 11
0.0000000000000001
 21
1.0
 31
0.0
 73
     1
 44
1.0
1001
ACAD
1000
MTEXTBEGIN
1070
    73
1070
     1
1070
    44
1040
1.0
1070
    74
1070
     0
1000
MTEXTEND
  0
POINT
  5
1ED71
330
1DAA5
100
AcDbEntity
  8
DEFPOINTS
 62
     0
 48
50.0
100
AcDbPoint
 10
7396.600000000006
 20
6318.878363921547
 30
0.0
  0
POINT
  5
1ED72
330
1DAA5
100
AcDbEntity
  8
DEFPOINTS
 62
     0
 48
50.0
100
AcDbPoint
 10
7323.599999999998
 20
6120.878363921545
 30
0.0
  0
POINT
  5
1ED73
330
1DAA5
100
AcDbEntity
  8
DEFPOINTS
 62
     0
 48
50.0
100
AcDbPoint
 10
6827.657733986177
 20
6120.878363921545
 30
0.0
  0
ENDBLK
  5
1DAB1
330
1DAA5
100
AcDbEntity
  8
0
 48
50.0
100
AcDbBlockEnd
  0
BLOCK
  5
1DABC
330
1DAB2
100
AcDbEntity
  8
0
 48
50.0
100
AcDbBlockBegin
  2
*D11
 70
     1
 10
0.0
 20
0.0
 30
0.0
  3
*D11
  1

  0
LINE
  5
1ED5F
330
1DAB2
100
AcDbEntity
  8
寸法
 62
     0
 48
50.0
370
    -2
100
AcDbLine
 10
7303.599999999999
 20
6120.878363921545
 30
0.0
 11
6522.164931848211
 21
6120.878363921545
 31
0.0
  0
LINE
  5
1ED60
330
1DAB2
100
AcDbEntity
  8
寸法
 62
     0
 48
50.0
370
    -2
100
AcDbLine
 10
6807.657733986177
 20
6065.878363921545
 30
0.0
 11
6522.164931848211
 21
6065.878363921545
 31
0.0
  0
LINE
  5
1ED61
330
1DAB2
100
AcDbEntity
  8
寸法
 62
     0
 48
50.0
370
    -2
100
AcDbLine
 10
6582.16493184821
 20
6120.878363921545
 30
0.0
 11
6582.164931848211
 21
6220.878363921546
 31
0.0
  0
LINE
  5
1ED62
330
1DAB2
100
AcDbEntity
  8
寸法
 62
     0
 48
50.0
370
    -2
100
AcDbLine
 10
6582.16493184821
 20
6065.878363921545
 30
0.0
 11
6582.16493184821
 21
5965.878363921546
 31
0.0
  0
LINE
  5
1ED63
330
1DAB2
100
AcDbEntity
  8
寸法
 62
     0
 48
50.0
370
    -2
100
AcDbLine
 10
6582.16493184821
 20
6120.878363921545
 30
0.0
 11
6582.16493184821
 21
6065.878363921545
 31
0.0
  0
INSERT
  5
1ED64
330
1DAB2
100
AcDbEntity
  8
寸法
 62
     0
 48
50.0
370
    -2
100
AcDbBlockReference
  2
_DOTSMALL
 10
6582.16493184821
 20
6120.878363921545
 30
0.0
 41
100.0
 42
100.0
 43
100.0
 50
270.0
  0
INSERT
  5
1ED65
330
1DAB2
100
AcDbEntity
  8
寸法
 62
     0
 48
50.0
370
    -2
100
AcDbBlockReference
  2
_DOTSMALL
 10
6582.16493184821
 20
6065.878363921545
 30
0.0
 41
100.0
 42
100.0
 43
100.0
 50
90.0
  0
MTEXT
  5
1ED66
330
1DAB2
100
AcDbEntity
  8
寸法
 62
     7
 48
50.0
100
AcDbMText
 10
6482.16493184821
 20
6093.378363921547
 30
0.0
 40
120.0
 41
0.0
 71
     5
 72
     1
  1
\A1;b
  7
STYLE1
 11
0.0000000000000001
 21
1.0
 31
0.0
 73
     1
 44
1.0
1001
ACAD
1000
MTEXTBEGIN
1070
    73
1070
     1
1070
    44
1040
1.0
1070
    74
1070
     0
1000
MTEXTEND
  0
POINT
  5
1ED67
330
1DAB2
100
AcDbEntity
  8
DEFPOINTS
 62
     0
 48
50.0
100
AcDbPoint
 10
7323.599999999998
 20
6120.878363921545
 30
0.0
  0
POINT
  5
1ED68
330
1DAB2
100
AcDbEntity
  8
DEFPOINTS
 62
     0
 48
50.0
100
AcDbPoint
 10
6827.657733986177
 20
6065.878363921545
 30
0.0
  0
POINT
  5
1ED69
330
1DAB2
100
AcDbEntity
  8
DEFPOINTS
 62
     0
 48
50.0
100
AcDbPoint
 10
6582.16493184821
 20
6065.878363921545
 30
0.0
  0
ENDBLK
  5
1DABD
330
1DAB2
100
AcDbEntity
  8
0
 48
50.0
100
AcDbBlockEnd
  0
BLOCK
  5
1DAC9
330
1DABE
100
AcDbEntity
  8
0
 48
50.0
100
AcDbBlockBegin
  2
*D12
 70
     1
 10
0.0
 20
0.0
 30
0.0
  3
*D12
  1

  0
LINE
  5
1F181
330
1DABE
100
AcDbEntity
  8
寸法
 62
     0
 48
50.0
370
    -2
100
AcDbLine
 10
7303.599999999999
 20
7920.878363921545
 30
0.0
 11
6767.657733986176
 21
7920.878363921545
 31
0.0
  0
LINE
  5
1F182
330
1DABE
100
AcDbEntity
  8
寸法
 62
     0
 48
50.0
370
    -2
100
AcDbLine
 10
7376.599999999999
 20
7797.878363921545
 30
0.0
 11
6767.657733986176
 21
7797.878363921545
 31
0.0
  0
LINE
  5
1F183
330
1DABE
100
AcDbEntity
  8
寸法
 62
     0
 48
50.0
370
    -2
100
AcDbLine
 10
6827.657733986177
 20
7797.878363921545
 30
0.0
 11
6827.657733986177
 21
7920.878363921545
 31
0.0
  0
LINE
  5
1F184
330
1DABE
100
AcDbEntity
  8
寸法
 62
     0
 48
50.0
370
    -2
100
AcDbLine
 10
6827.657733986177
 20
7920.878363921545
 30
0.0
 11
6827.657733986177
 21
8297.848926670022
 31
0.0
  0
INSERT
  5
1F185
330
1DABE
100
AcDbEntity
  8
寸法
 62
     0
 48
50.0
370
    -2
100
AcDbBlockReference
  2
_DOTSMALL
 10
6827.657733986177
 20
7797.878363921545
 30
0.0
 41
100.0
 42
100.0
 43
100.0
 50
270.0
  0
INSERT
  5
1F186
330
1DABE
100
AcDbEntity
  8
寸法
 62
     0
 48
50.0
370
    -2
100
AcDbBlockReference
  2
_DOTSMALL
 10
6827.657733986177
 20
7920.878363921545
 30
0.0
 41
100.0
 42
100.0
 43
100.0
 50
90.0
  0
MTEXT
  5
1F187
330
1DABE
100
AcDbEntity
  8
寸法
 62
     7
 48
50.0
100
AcDbMText
 10
6727.645922962555
 20
8159.363645295785
 30
0.0
 40
120.0
 41
0.0
 71
     5
 72
     1
  1
\A1;123
  7
STYLE1
 11
0.0000000000000001
 21
1.0
 31
0.0
 73
     1
 44
1.0
1001
ACAD
1000
MTEXTBEGIN
1070
    73
1070
     1
1070
    44
1040
1.0
1070
    74
1070
     0
1000
MTEXTEND
  0
POINT
  5
1F188
330
1DABE
100
AcDbEntity
  8
DEFPOINTS
 62
     0
 48
50.0
100
AcDbPoint
 10
7323.599999999998
 20
7920.878363921545
 30
0.0
  0
POINT
  5
1F189
330
1DABE
100
AcDbEntity
  8
DEFPOINTS
 62
     0
 48
50.0
100
AcDbPoint
 10
7396.599999999999
 20
7797.878363921545
 30
0.0
  0
POINT
  5
1F18A
330
1DABE
100
AcDbEntity
  8
DEFPOINTS
 62
     0
 48
50.0
100
AcDbPoint
 10
6827.657733986177
 20
7797.878363921545
 30
0.0
  0
ENDBLK
  5
1DACA
330
1DABE
100
AcDbEntity
  8
0
 48
50.0
100
AcDbBlockEnd
  0
BLOCK
  5
1DAD7
330
1DACB
100
AcDbEntity
  8
0
 48
50.0
100
AcDbBlockBegin
  2
*D13
 70
     1
 10
0.0
 20
0.0
 30
0.0
  3
*D13
  1

  0
LINE
  5
1F176
330
1DACB
100
AcDbEntity
  8
寸法
 62
     0
 48
50.0
370
    -2
100
AcDbLine
 10
6807.657733986179
 20
7995.878363921545
 30
0.0
 11
6522.164931848209
 21
7995.878363921545
 31
0.0
  0
LINE
  5
1F177
330
1DACB
100
AcDbEntity
  8
寸法
 62
     0
 48
50.0
370
    -2
100
AcDbLine
 10
7303.599999999999
 20
7920.878363921545
 30
0.0
 11
6522.164931848209
 21
7920.878363921545
 31
0.0
  0
LINE
  5
1F178
330
1DACB
100
AcDbEntity
  8
寸法
 62
     0
 48
50.0
370
    -2
100
AcDbLine
 10
6582.16493184821
 20
7995.878363921545
 30
0.0
 11
6582.16493184821
 21
8095.878363921546
 31
0.0
  0
LINE
  5
1F179
330
1DACB
100
AcDbEntity
  8
寸法
 62
     0
 48
50.0
370
    -2
100
AcDbLine
 10
6582.16493184821
 20
7920.878363921545
 30
0.0
 11
6582.16493184821
 21
7820.878363921545
 31
0.0
  0
LINE
  5
1F17A
330
1DACB
100
AcDbEntity
  8
寸法
 62
     0
 48
50.0
370
    -2
100
AcDbLine
 10
6582.16493184821
 20
7995.878363921545
 30
0.0
 11
6582.16493184821
 21
7920.878363921545
 31
0.0
  0
INSERT
  5
1F17B
330
1DACB
100
AcDbEntity
  8
寸法
 62
     0
 48
50.0
370
    -2
100
AcDbBlockReference
  2
_DOTSMALL
 10
6582.16493184821
 20
7995.878363921545
 30
0.0
 41
100.0
 42
100.0
 43
100.0
 50
270.0
  0
INSERT
  5
1F17C
330
1DACB
100
AcDbEntity
  8
寸法
 62
     0
 48
50.0
370
    -2
100
AcDbBlockReference
  2
_DOTSMALL
 10
6582.16493184821
 20
7920.878363921545
 30
0.0
 41
100.0
 42
100.0
 43
100.0
 50
90.0
  0
MTEXT
  5
1F17D
330
1DACB
100
AcDbEntity
  8
寸法
 62
     7
 48
50.0
100
AcDbMText
 10
6482.164931848209
 20
7958.378363921546
 30
0.0
 40
120.0
 41
0.0
 71
     5
 72
     1
  1
\A1;c
  7
STYLE1
 11
0.0000000000000001
 21
1.0
 31
0.0
 73
     1
 44
1.0
1001
ACAD
1000
MTEXTBEGIN
1070
    73
1070
     1
1070
    44
1040
1.0
1070
    74
1070
     0
1000
MTEXTEND
  0
POINT
  5
1F17E
330
1DACB
100
AcDbEntity
  8
DEFPOINTS
 62
     0
 48
50.0
100
AcDbPoint
 10
6827.657733986177
 20
7995.878363921545
 30
0.0
  0
POINT
  5
1F17F
330
1DACB
100
AcDbEntity
  8
DEFPOINTS
 62
     0
 48
50.0
100
AcDbPoint
 10
7323.599999999998
 20
7920.878363921545
 30
0.0
  0
POINT
  5
1F180
330
1DACB
100
AcDbEntity
  8
DEFPOINTS
 62
     0
 48
50.0
100
AcDbPoint
 10
6582.16493184821
 20
7920.878363921545
 30
0.0
  0
ENDBLK
  5
1DAD8
330
1DACB
100
AcDbEntity
  8
0
 48
50.0
100
AcDbBlockEnd
  0
BLOCK
  5
1DAE4
330
1DAD9
100
AcDbEntity
  8
0
 48
50.0
100
AcDbBlockBegin
  2
*D14
 70
     1
 10
0.0
 20
0.0
 30
0.0
  3
*D14
  1

  0
LINE
  5
1F6B4
330
1DAD9
100
AcDbEntity
  8
寸法
 62
     0
 48
50.0
370
    -2
100
AcDbLine
 10
8703.599999999999
 20
7940.878363921545
 30
0.0
 11
8703.599999999999
 21
8785.938974311475
 31
0.0
  0
LINE
  5
1F6B5
330
1DAD9
100
AcDbEntity
  8
寸法
 62
     0
 48
50.0
370
    -2
100
AcDbLine
 10
8580.599999999998
 20
7867.878363921545
 30
0.0
 11
8580.599999999998
 21
8785.938974311475
 31
0.0
  0
LINE
  5
1F6B6
330
1DAD9
100
AcDbEntity
  8
寸法
 62
     0
 48
50.0
370
    -2
100
AcDbLine
 10
8580.599999999998
 20
8725.938974311475
 30
0.0
 11
8703.599999999999
 21
8725.938974311475
 31
0.0
  0
LINE
  5
1F6B7
330
1DAD9
100
AcDbEntity
  8
寸法
 62
     0
 48
50.0
370
    -2
100
AcDbLine
 10
8703.599999999999
 20
8725.938974311475
 30
0.0
 11
9080.570562748475
 21
8725.938974311475
 31
0.0
  0
INSERT
  5
1F6B8
330
1DAD9
100
AcDbEntity
  8
寸法
 62
     0
 48
50.0
370
    -2
100
AcDbBlockReference
  2
_DOTSMALL
 10
8580.599999999998
 20
8725.938974311475
 30
0.0
 41
100.0
 42
100.0
 43
100.0
 50
180.0
  0
INSERT
  5
1F6B9
330
1DAD9
100
AcDbEntity
  8
寸法
 62
     0
 48
50.0
370
    -2
100
AcDbBlockReference
  2
_DOTSMALL
 10
8703.599999999999
 20
8725.938974311475
 30
0.0
 41
100.0
 42
100.0
 43
100.0
  0
MTEXT
  5
1F6BA
330
1DAD9
100
AcDbEntity
  8
寸法
 62
     7
 48
50.0
100
AcDbMText
 10
8942.085281374238
 20
8825.950785335097
 30
0.0
 40
120.0
 41
0.0
 71
     5
 72
     1
  1
\A1;123
  7
STYLE1
 73
     1
 44
1.0
1001
ACAD
1000
MTEXTBEGIN
1070
    73
1070
     1
1070
    44
1040
1.0
1070
    74
1070
     0
1000
MTEXTEND
  0
POINT
  5
1F6BB
330
1DAD9
100
AcDbEntity
  8
DEFPOINTS
 62
     0
 48
50.0
100
AcDbPoint
 10
8703.599999999999
 20
7920.878363921545
 30
0.0
  0
POINT
  5
1F6BC
330
1DAD9
100
AcDbEntity
  8
DEFPOINTS
 62
     0
 48
50.0
100
AcDbPoint
 10
8580.599999999998
 20
7847.878363921545
 30
0.0
  0
POINT
  5
1F6BD
330
1DAD9
100
AcDbEntity
  8
DEFPOINTS
 62
     0
 48
50.0
100
AcDbPoint
 10
8580.599999999998
 20
8725.938974311475
 30
0.0
  0
ENDBLK
  5
1DAE5
330
1DAD9
100
AcDbEntity
  8
0
 48
50.0
100
AcDbBlockEnd
  0
BLOCK
  5
1DAF1
330
1DAE6
100
AcDbEntity
  8
0
 48
50.0
100
AcDbBlockBegin
  2
*D15
 70
     1
 10
0.0
 20
0.0
 30
0.0
  3
*D15
  1

  0
LINE
  5
1F6A9
330
1DAE6
100
AcDbEntity
  8
寸法
 62
     0
 48
50.0
370
    -2
100
AcDbLine
 10
8703.599999999999
 20
7940.878363921545
 30
0.0
 11
8703.599999999999
 21
8998.399669828312
 31
0.0
  0
LINE
  5
1F6AA
330
1DAE6
100
AcDbEntity
  8
寸法
 62
     0
 48
50.0
370
    -2
100
AcDbLine
 10
8748.599999999999
 20
8745.938974311476
 30
0.0
 11
8748.599999999999
 21
8998.399669828312
 31
0.0
  0
LINE
  5
1F6AB
330
1DAE6
100
AcDbEntity
  8
寸法
 62
     0
 48
50.0
370
    -2
100
AcDbLine
 10
8703.599999999999
 20
8938.399669828312
 30
0.0
 11
8603.599999999998
 21
8938.399669828312
 31
0.0
  0
LINE
  5
1F6AC
330
1DAE6
100
AcDbEntity
  8
寸法
 62
     0
 48
50.0
370
    -2
100
AcDbLine
 10
8748.599999999999
 20
8938.399669828312
 30
0.0
 11
8848.599999999999
 21
8938.399669828312
 31
0.0
  0
LINE
  5
1F6AD
330
1DAE6
100
AcDbEntity
  8
寸法
 62
     0
 48
50.0
370
    -2
100
AcDbLine
 10
8703.599999999999
 20
8938.399669828312
 30
0.0
 11
8748.599999999999
 21
8938.399669828312
 31
0.0
  0
INSERT
  5
1F6AE
330
1DAE6
100
AcDbEntity
  8
寸法
 62
     0
 48
50.0
370
    -2
100
AcDbBlockReference
  2
_DOTSMALL
 10
8703.599999999999
 20
8938.399669828312
 30
0.0
 41
100.0
 42
100.0
 43
100.0
  0
INSERT
  5
1F6AF
330
1DAE6
100
AcDbEntity
  8
寸法
 62
     0
 48
50.0
370
    -2
100
AcDbBlockReference
  2
_DOTSMALL
 10
8748.599999999999
 20
8938.399669828312
 30
0.0
 41
100.0
 42
100.0
 43
100.0
 50
180.0
  0
MTEXT
  5
1F6B0
330
1DAE6
100
AcDbEntity
  8
寸法
 62
     7
 48
50.0
100
AcDbMText
 10
8726.099999999998
 20
9038.399669828311
 30
0.0
 40
120.0
 41
0.0
 71
     5
 72
     1
  1
\A1;a
  7
STYLE1
 73
     1
 44
1.0
1001
ACAD
1000
MTEXTBEGIN
1070
    73
1070
     1
1070
    44
1040
1.0
1070
    74
1070
     0
1000
MTEXTEND
  0
POINT
  5
1F6B1
330
1DAE6
100
AcDbEntity
  8
DEFPOINTS
 62
     0
 48
50.0
100
AcDbPoint
 10
8703.599999999999
 20
7920.878363921545
 30
0.0
  0
POINT
  5
1F6B2
330
1DAE6
100
AcDbEntity
  8
DEFPOINTS
 62
     0
 48
50.0
100
AcDbPoint
 10
8748.599999999999
 20
8725.938974311475
 30
0.0
  0
POINT
  5
1F6B3
330
1DAE6
100
AcDbEntity
  8
DEFPOINTS
 62
     0
 48
50.0
100
AcDbPoint
 10
8748.599999999999
 20
8938.399669828312
 30
0.0
  0
ENDBLK
  5
1DAF2
330
1DAE6
100
AcDbEntity
  8
0
 48
50.0
100
AcDbBlockEnd
  0
BLOCK
  5
1DAFE
330
1DAF3
100
AcDbEntity
  8
0
 48
50.0
100
AcDbBlockBegin
  2
*D16
 70
     1
 10
0.0
 20
0.0
 30
0.0
  3
*D16
  1

  0
LINE
  5
1F8B7
330
1DAF3
100
AcDbEntity
  8
寸法
 62
     0
 48
50.0
370
    -2
100
AcDbLine
 10
8703.599999999999
 20
6430.450970087466
 30
0.0
 11
8703.599999999999
 21
6636.093489298957
 31
0.0
  0
LINE
  5
1F8B8
330
1DAF3
100
AcDbEntity
  8
寸法
 62
     0
 48
50.0
370
    -2
100
AcDbLine
 10
8583.599999999998
 20
6440.878363921562
 30
0.0
 11
8583.599999999998
 21
6636.093489298957
 31
0.0
  0
LINE
  5
1F8B9
330
1DAF3
100
AcDbEntity
  8
寸法
 62
     0
 48
50.0
370
    -2
100
AcDbLine
 10
8583.599999999998
 20
6576.093489298957
 30
0.0
 11
8703.599999999999
 21
6576.093489298957
 31
0.0
  0
LINE
  5
1F8BA
330
1DAF3
100
AcDbEntity
  8
寸法
 62
     0
 48
50.0
370
    -2
100
AcDbLine
 10
8703.599999999999
 20
6576.093489298957
 30
0.0
 11
9075.694488188977
 21
6576.093489298957
 31
0.0
  0
INSERT
  5
1F8BB
330
1DAF3
100
AcDbEntity
  8
寸法
 62
     0
 48
50.0
370
    -2
100
AcDbBlockReference
  2
_DOTSMALL
 10
8583.599999999998
 20
6576.093489298957
 30
0.0
 41
100.0
 42
100.0
 43
100.0
 50
180.0
  0
INSERT
  5
1F8BC
330
1DAF3
100
AcDbEntity
  8
寸法
 62
     0
 48
50.0
370
    -2
100
AcDbBlockReference
  2
_DOTSMALL
 10
8703.599999999999
 20
6576.093489298957
 30
0.0
 41
100.0
 42
100.0
 43
100.0
  0
MTEXT
  5
1F8BD
330
1DAF3
100
AcDbEntity
  8
寸法
 62
     7
 48
50.0
100
AcDbMText
 10
8939.647244094487
 20
6676.105300322578
 30
0.0
 40
120.0
 41
0.0
 71
     5
 72
     1
  1
\A1;120
  7
STYLE1
 73
     1
 44
1.0
1001
ACAD
1000
MTEXTBEGIN
1070
    73
1070
     1
1070
    44
1040
1.0
1070
    74
1070
     0
1000
MTEXTEND
  0
POINT
  5
1F8BE
330
1DAF3
100
AcDbEntity
  8
DEFPOINTS
 62
     0
 48
50.0
100
AcDbPoint
 10
8703.599999999999
 20
6410.450970087466
 30
0.0
  0
POINT
  5
1F8BF
330
1DAF3
100
AcDbEntity
  8
DEFPOINTS
 62
     0
 48
50.0
100
AcDbPoint
 10
8583.599999999998
 20
6420.878363921563
 30
0.0
  0
POINT
  5
1F8C0
330
1DAF3
100
AcDbEntity
  8
DEFPOINTS
 62
     0
 48
50.0
100
AcDbPoint
 10
8583.599999999998
 20
6576.093489298957
 30
0.0
  0
ENDBLK
  5
1DAFF
330
1DAF3
100
AcDbEntity
  8
0
 48
50.0
100
AcDbBlockEnd
  0
BLOCK
  5
1DB25
330
1DB1A
100
AcDbEntity
  8
0
 48
50.0
100
AcDbBlockBegin
  2
*D17
 70
     1
 10
0.0
 20
0.0
 30
0.0
  3
*D17
  1

  0
LINE
  5
1F7A9
330
1DB1A
100
AcDbEntity
  8
寸法
 62
     0
 48
50.0
370
    -2
100
AcDbLine
 10
8560.599999999999
 20
7920.878363921545
 30
0.0
 11
8327.488445638419
 21
7920.878363921545
 31
0.0
  0
LINE
  5
1F7AA
330
1DB1A
100
AcDbEntity
  8
寸法
 62
     0
 48
50.0
370
    -2
100
AcDbLine
 10
8453.599999999999
 20
7800.878363921545
 30
0.0
 11
8327.488445638419
 21
7800.878363921545
 31
0.0
  0
LINE
  5
1F7AB
330
1DB1A
100
AcDbEntity
  8
寸法
 62
     0
 48
50.0
370
    -2
100
AcDbLine
 10
8387.488445638419
 20
7800.878363921545
 30
0.0
 11
8387.488445638419
 21
7920.878363921545
 31
0.0
  0
LINE
  5
1F7AC
330
1DB1A
100
AcDbEntity
  8
寸法
 62
     0
 48
50.0
370
    -2
100
AcDbLine
 10
8387.488445638419
 20
7920.878363921545
 30
0.0
 11
8387.488445638419
 21
8292.972852110523
 31
0.0
  0
INSERT
  5
1F7AD
330
1DB1A
100
AcDbEntity
  8
寸法
 62
     0
 48
50.0
370
    -2
100
AcDbBlockReference
  2
_DOTSMALL
 10
8387.488445638419
 20
7800.878363921545
 30
0.0
 41
100.0
 42
100.0
 43
100.0
 50
270.0
  0
INSERT
  5
1F7AE
330
1DB1A
100
AcDbEntity
  8
寸法
 62
     0
 48
50.0
370
    -2
100
AcDbBlockReference
  2
_DOTSMALL
 10
8387.488445638419
 20
7920.878363921545
 30
0.0
 41
100.0
 42
100.0
 43
100.0
 50
90.0
  0
MTEXT
  5
1F7AF
330
1DB1A
100
AcDbEntity
  8
寸法
 62
     7
 48
50.0
100
AcDbMText
 10
8287.476634614796
 20
8156.925608016035
 30
0.0
 40
120.0
 41
0.0
 71
     5
 72
     1
  1
\A1;120
  7
STYLE1
 11
0.0000000000000001
 21
1.0
 31
0.0
 73
     1
 44
1.0
1001
ACAD
1000
MTEXTBEGIN
1070
    73
1070
     1
1070
    44
1040
1.0
1070
    74
1070
     0
1000
MTEXTEND
  0
POINT
  5
1F7B0
330
1DB1A
100
AcDbEntity
  8
DEFPOINTS
 62
     0
 48
50.0
100
AcDbPoint
 10
8580.599999999998
 20
7920.878363921545
 30
0.0
  0
POINT
  5
1F7B1
330
1DB1A
100
AcDbEntity
  8
DEFPOINTS
 62
     0
 48
50.0
100
AcDbPoint
 10
8473.599999999999
 20
7800.878363921545
 30
0.0
  0
POINT
  5
1F7B2
330
1DB1A
100
AcDbEntity
  8
DEFPOINTS
 62
     0
 48
50.0
100
AcDbPoint
 10
8387.488445638419
 20
7800.878363921545
 30
0.0
  0
ENDBLK
  5
1DB26
330
1DB1A
100
AcDbEntity
  8
0
 48
50.0
100
AcDbBlockEnd
  0
BLOCK
  5
1F2C1
330
1F2B7
100
AcDbEntity
  8
0
 48
50.0
100
AcDbBlockBegin
  2
*D18
 70
     1
 10
0.0
 20
0.0
 30
0.0
  3
*D18
  1

  0
LINE
  5
1F2B8
330
1F2B7
100
AcDbEntity
  8
寸法
 62
     0
 48
50.0
370
    -2
100
AcDbLine
 10
8083.599999999998
 20
7057.878363921545
 30
0.0
 11
8261.156431984797
 21
7057.878363921545
 31
0.0
  0
LINE
  5
1F2B9
330
1F2B7
100
AcDbEntity
  8
寸法
 62
     0
 48
50.0
370
    -2
100
AcDbLine
 10
8133.599999999999
 20
7920.878363921545
 30
0.0
 11
8261.156431984797
 21
7920.878363921545
 31
0.0
  0
LINE
  5
1F2BA
330
1F2B7
100
AcDbEntity
  8
寸法
 62
     0
 48
50.0
370
    -2
100
AcDbLine
 10
8201.156431984797
 20
7057.878363921545
 30
0.0
 11
8201.156431984797
 21
7920.878363921545
 31
0.0
  0
INSERT
  5
1F2BB
330
1F2B7
100
AcDbEntity
  8
寸法
 62
     0
 48
50.0
370
    -2
100
AcDbBlockReference
  2
_DOTSMALL
 10
8201.156431984797
 20
7057.878363921545
 30
0.0
 41
100.0
 42
100.0
 43
100.0
 50
270.0
  0
INSERT
  5
1F2BC
330
1F2B7
100
AcDbEntity
  8
寸法
 62
     0
 48
50.0
370
    -2
100
AcDbBlockReference
  2
_DOTSMALL
 10
8201.156431984797
 20
7920.878363921545
 30
0.0
 41
100.0
 42
100.0
 43
100.0
 50
90.0
  0
MTEXT
  5
1F2BD
330
1F2B7
100
AcDbEntity
  8
寸法
 62
     7
 48
50.0
100
AcDbMText
 10
8101.156431984795
 20
7489.378363921547
 30
0.0
 40
120.0
 41
0.0
 71
     5
 72
     1
  1
\A1;863
  7
STYLE1
 11
0.0000000000000001
 21
1.0
 31
0.0
 73
     1
 44
1.0
1001
ACAD
1000
MTEXTBEGIN
1070
    73
1070
     1
1070
    44
1040
1.0
1070
    74
1070
     0
1000
MTEXTEND
  0
POINT
  5
1F2BE
330
1F2B7
100
AcDbEntity
  8
DEFPOINTS
 62
     0
 48
50.0
100
AcDbPoint
 10
8063.599999999999
 20
7057.878363921545
 30
0.0
  0
POINT
  5
1F2BF
330
1F2B7
100
AcDbEntity
  8
DEFPOINTS
 62
     0
 48
50.0
100
AcDbPoint
 10
8113.599999999998
 20
7920.878363921545
 30
0.0
  0
POINT
  5
1F2C0
330
1F2B7
100
AcDbEntity
  8
DEFPOINTS
 62
     0
 48
50.0
100
AcDbPoint
 10
8201.156431984797
 20
7920.878363921545
 30
0.0
  0
ENDBLK
  5
1F2C2
330
1F2B7
100
AcDbEntity
  8
0
 48
50.0
100
AcDbBlockEnd
  0
BLOCK
  5
1F2DB
330
1F2D1
100
AcDbEntity
  8
0
 48
50.0
100
AcDbBlockBegin
  2
*D19
 70
     1
 10
0.0
 20
0.0
 30
0.0
  3
*D19
  1

  0
LINE
  5
1F2D2
330
1F2D1
100
AcDbEntity
  8
寸法
 62
     0
 48
50.0
370
    -2
100
AcDbLine
 10
8083.599999999998
 20
7057.878363921545
 30
0.0
 11
8261.156431984797
 21
7057.878363921545
 31
0.0
  0
LINE
  5
1F2D3
330
1F2D1
100
AcDbEntity
  8
寸法
 62
     0
 48
50.0
370
    -2
100
AcDbLine
 10
8133.600000000013
 20
6120.878363921555
 30
0.0
 11
8261.156431984797
 21
6120.878363921555
 31
0.0
  0
LINE
  5
1F2D4
330
1F2D1
100
AcDbEntity
  8
寸法
 62
     0
 48
50.0
370
    -2
100
AcDbLine
 10
8201.156431984797
 20
7057.878363921545
 30
0.0
 11
8201.156431984797
 21
6120.878363921555
 31
0.0
  0
INSERT
  5
1F2D5
330
1F2D1
100
AcDbEntity
  8
寸法
 62
     0
 48
50.0
370
    -2
100
AcDbBlockReference
  2
_DOTSMALL
 10
8201.156431984797
 20
7057.878363921545
 30
0.0
 41
100.0
 42
100.0
 43
100.0
 50
90.0
  0
INSERT
  5
1F2D6
330
1F2D1
100
AcDbEntity
  8
寸法
 62
     0
 48
50.0
370
    -2
100
AcDbBlockReference
  2
_DOTSMALL
 10
8201.156431984797
 20
6120.878363921555
 30
0.0
 41
100.0
 42
100.0
 43
100.0
 50
270.0
  0
MTEXT
  5
1F2D7
330
1F2D1
100
AcDbEntity
  8
寸法
 62
     7
 48
50.0
100
AcDbMText
 10
8101.156431984795
 20
6589.378363921551
 30
0.0
 40
120.0
 41
0.0
 71
     5
 72
     1
  1
\A1;937
  7
STYLE1
 11
0.0000000000000001
 21
1.0
 31
0.0
 73
     1
 44
1.0
1001
ACAD
1000
MTEXTBEGIN
1070
    73
1070
     1
1070
    44
1040
1.0
1070
    74
1070
     0
1000
MTEXTEND
  0
POINT
  5
1F2D8
330
1F2D1
100
AcDbEntity
  8
DEFPOINTS
 62
     0
 48
50.0
100
AcDbPoint
 10
8063.599999999999
 20
7057.878363921545
 30
0.0
  0
POINT
  5
1F2D9
330
1F2D1
100
AcDbEntity
  8
DEFPOINTS
 62
     0
 48
50.0
100
AcDbPoint
 10
8113.600000000014
 20
6120.878363921555
 30
0.0
  0
POINT
  5
1F2DA
330
1F2D1
100
AcDbEntity
  8
DEFPOINTS
 62
     0
 48
50.0
100
AcDbPoint
 10
8201.156431984797
 20
6120.878363921555
 30
0.0
  0
ENDBLK
  5
1F2DC
330
1F2D1
100
AcDbEntity
  8
0
 48
50.0
100
AcDbBlockEnd
  0
BLOCK
  5
1F6F0
330
1F6E6
100
AcDbEntity
  8
0
 48
50.0
100
AcDbBlockBegin
  2
*D20
 70
     1
 10
0.0
 20
0.0
 30
0.0
  3
*D20
  1

  0
LINE
  5
1F6E7
330
1F6E6
100
AcDbEntity
  8
寸法
 62
     0
 48
50.0
370
    -2
100
AcDbLine
 10
7323.599999999998
 20
7940.878363921545
 30
0.0
 11
7323.599999999998
 21
8570.492239328247
 31
0.0
  0
LINE
  5
1F6E8
330
1F6E6
100
AcDbEntity
  8
寸法
 62
     0
 48
50.0
370
    -2
100
AcDbLine
 10
8013.599999999998
 20
7127.878363921546
 30
0.0
 11
8013.599999999998
 21
8570.492239328247
 31
0.0
  0
LINE
  5
1F6E9
330
1F6E6
100
AcDbEntity
  8
寸法
 62
     0
 48
50.0
370
    -2
100
AcDbLine
 10
7323.599999999998
 20
8510.492239328247
 30
0.0
 11
8013.599999999998
 21
8510.492239328247
 31
0.0
  0
INSERT
  5
1F6EA
330
1F6E6
100
AcDbEntity
  8
寸法
 62
     0
 48
50.0
370
    -2
100
AcDbBlockReference
  2
_DOTSMALL
 10
7323.599999999998
 20
8510.492239328247
 30
0.0
 41
100.0
 42
100.0
 43
100.0
 50
180.0
  0
INSERT
  5
1F6EB
330
1F6E6
100
AcDbEntity
  8
寸法
 62
     0
 48
50.0
370
    -2
100
AcDbBlockReference
  2
_DOTSMALL
 10
8013.599999999998
 20
8510.492239328247
 30
0.0
 41
100.0
 42
100.0
 43
100.0
  0
MTEXT
  5
1F6EC
330
1F6E6
100
AcDbEntity
  8
寸法
 62
     7
 48
50.0
100
AcDbMText
 10
7668.599999999999
 20
8610.492239328246
 30
0.0
 40
120.0
 41
0.0
 71
     5
 72
     1
  1
\A1;690
  7
STYLE1
 73
     1
 44
1.0
1001
ACAD
1000
MTEXTBEGIN
1070
    73
1070
     1
1070
    44
1040
1.0
1070
    74
1070
     0
1000
MTEXTEND
  0
POINT
  5
1F6ED
330
1F6E6
100
AcDbEntity
  8
DEFPOINTS
 62
     0
 48
50.0
100
AcDbPoint
 10
7323.599999999998
 20
7920.878363921545
 30
0.0
  0
POINT
  5
1F6EE
330
1F6E6
100
AcDbEntity
  8
DEFPOINTS
 62
     0
 48
50.0
100
AcDbPoint
 10
8013.599999999998
 20
7107.878363921546
 30
0.0
  0
POINT
  5
1F6EF
330
1F6E6
100
AcDbEntity
  8
DEFPOINTS
 62
     0
 48
50.0
100
AcDbPoint
 10
8013.599999999998
 20
8510.492239328247
 30
0.0
  0
ENDBLK
  5
1F6F1
330
1F6E6
100
AcDbEntity
  8
0
 48
50.0
100
AcDbBlockEnd
  0
BLOCK
  5
1F6FD
330
1F6F3
100
AcDbEntity
  8
0
 48
50.0
100
AcDbBlockBegin
  2
*D21
 70
     1
 10
0.0
 20
0.0
 30
0.0
  3
*D21
  1

  0
LINE
  5
1F6F4
330
1F6F3
100
AcDbEntity
  8
寸法
 62
     0
 48
50.0
370
    -2
100
AcDbLine
 10
8013.599999999998
 20
7127.878363921546
 30
0.0
 11
8013.599999999998
 21
8570.492239328247
 31
0.0
  0
LINE
  5
1F6F5
330
1F6F3
100
AcDbEntity
  8
寸法
 62
     0
 48
50.0
370
    -2
100
AcDbLine
 10
8703.599999999999
 20
7940.878363921545
 30
0.0
 11
8703.599999999999
 21
8570.492239328247
 31
0.0
  0
LINE
  5
1F6F6
330
1F6F3
100
AcDbEntity
  8
寸法
 62
     0
 48
50.0
370
    -2
100
AcDbLine
 10
8013.599999999998
 20
8510.492239328247
 30
0.0
 11
8703.599999999999
 21
8510.492239328247
 31
0.0
  0
INSERT
  5
1F6F7
330
1F6F3
100
AcDbEntity
  8
寸法
 62
     0
 48
50.0
370
    -2
100
AcDbBlockReference
  2
_DOTSMALL
 10
8013.599999999998
 20
8510.492239328247
 30
0.0
 41
100.0
 42
100.0
 43
100.0
 50
180.0
  0
INSERT
  5
1F6F8
330
1F6F3
100
AcDbEntity
  8
寸法
 62
     0
 48
50.0
370
    -2
100
AcDbBlockReference
  2
_DOTSMALL
 10
8703.599999999999
 20
8510.492239328247
 30
0.0
 41
100.0
 42
100.0
 43
100.0
  0
MTEXT
  5
1F6F9
330
1F6F3
100
AcDbEntity
  8
寸法
 62
     7
 48
50.0
100
AcDbMText
 10
8358.599999999999
 20
8610.492239328246
 30
0.0
 40
120.0
 41
0.0
 71
     5
 72
     1
  1
\A1;690
  7
STYLE1
 73
     1
 44
1.0
1001
ACAD
1000
MTEXTBEGIN
1070
    73
1070
     1
1070
    44
1040
1.0
1070
    74
1070
     0
1000
MTEXTEND
  0
POINT
  5
1F6FA
330
1F6F3
100
AcDbEntity
  8
DEFPOINTS
 62
     0
 48
50.0
100
AcDbPoint
 10
8013.599999999998
 20
7107.878363921546
 30
0.0
  0
POINT
  5
1F6FB
330
1F6F3
100
AcDbEntity
  8
DEFPOINTS
 62
     0
 48
50.0
100
AcDbPoint
 10
8703.599999999999
 20
7920.878363921545
 30
0.0
  0
POINT
  5
1F6FC
330
1F6F3
100
AcDbEntity
  8
DEFPOINTS
 62
     0
 48
50.0
100
AcDbPoint
 10
8703.599999999999
 20
8510.492239328247
 30
0.0
  0
ENDBLK
  5
1F6FE
330
1F6F3
100
AcDbEntity
  8
0
 48
50.0
100
AcDbBlockEnd
  0
BLOCK
  5
1F7C0
330
1F7B4
100
AcDbEntity
  8
0
 48
50.0
100
AcDbBlockBegin
  2
*D22
 70
     1
 10
0.0
 20
0.0
 30
0.0
  3
*D22
  1

  0
LINE
  5
1F84F
330
1F7B4
100
AcDbEntity
  8
寸法
 62
     0
 48
50.0
370
    -2
100
AcDbLine
 10
8453.599999999999
 20
7800.878363921544
 30
0.0
 11
8327.488445638421
 21
7800.878363921544
 31
0.0
  0
LINE
  5
1F850
330
1F7B4
100
AcDbEntity
  8
寸法
 62
     0
 48
50.0
370
    -2
100
AcDbLine
 10
8453.599999999999
 20
7690.878363921545
 30
0.0
 11
8327.488445638421
 21
7690.878363921545
 31
0.0
  0
LINE
  5
1F851
330
1F7B4
100
AcDbEntity
  8
寸法
 62
     0
 48
50.0
370
    -2
100
AcDbLine
 10
8387.488445638421
 20
7800.878363921544
 30
0.0
 11
8387.488445638421
 21
7690.878363921545
 31
0.0
  0
MTEXT
  5
1F852
330
1F7B4
100
AcDbEntity
  8
寸法
 62
     7
 48
50.0
100
AcDbMText
 10
8287.488445638421
 20
7690.878363921545
 30
0.0
 40
120.0
 41
0.0
 71
     5
 72
     1
  1
\A1;110
  7
STYLE1
 11
0.0000000000000001
 21
1.0
 31
0.0
 73
     1
 44
1.0
1001
ACAD
1000
MTEXTBEGIN
1070
    73
1070
     1
1070
    44
1040
1.0
1070
    74
1070
     0
1000
MTEXTEND
  0
INSERT
  5
1F853
330
1F7B4
100
AcDbEntity
  8
寸法
 62
     0
 48
50.0
370
    -2
100
AcDbBlockReference
  2
_DOTSMALL
 10
8387.488445638421
 20
7800.878363921544
 30
0.0
 41
100.0
 42
100.0
 43
100.0
 50
90.0
  0
INSERT
  5
1F854
330
1F7B4
100
AcDbEntity
  8
寸法
 62
     0
 48
50.0
370
    -2
100
AcDbBlockReference
  2
_DOTSMALL
 10
8387.488445638421
 20
7690.878363921545
 30
0.0
 41
100.0
 42
100.0
 43
100.0
 50
270.0
  0
POINT
  5
1F855
330
1F7B4
100
AcDbEntity
  8
DEFPOINTS
 62
     0
 48
50.0
100
AcDbPoint
 10
8473.599999999999
 20
7800.878363921544
 30
0.0
  0
POINT
  5
1F856
330
1F7B4
100
AcDbEntity
  8
DEFPOINTS
 62
     0
 48
50.0
100
AcDbPoint
 10
8473.599999999999
 20
7690.878363921545
 30
0.0
  0
POINT
  5
1F857
330
1F7B4
100
AcDbEntity
  8
DEFPOINTS
 62
     0
 48
50.0
100
AcDbPoint
 10
8387.488445638421
 20
7690.878363921545
 30
0.0
  0
ENDBLK
  5
1F7C1
330
1F7B4
100
AcDbEntity
  8
0
 48
50.0
100
AcDbBlockEnd
  0
BLOCK
  5
1F7CF
330
1F7C3
100
AcDbEntity
  8
0
 48
50.0
100
AcDbBlockBegin
  2
*D23
 70
     1
 10
0.0
 20
0.0
 30
0.0
  3
*D23
  1

  0
LINE
  5
1F8D3
330
1F7C3
100
AcDbEntity
  8
寸法
 62
     0
 48
50.0
370
    -2
100
AcDbLine
 10
8473.599999999999
 20
6440.878363921564
 30
0.0
 11
8473.599999999999
 21
6636.093489298957
 31
0.0
  0
LINE
  5
1F8D4
330
1F7C3
100
AcDbEntity
  8
寸法
 62
     0
 48
50.0
370
    -2
100
AcDbLine
 10
8583.599999999998
 20
6440.878363921562
 30
0.0
 11
8583.599999999998
 21
6636.093489298957
 31
0.0
  0
LINE
  5
1F8D5
330
1F7C3
100
AcDbEntity
  8
寸法
 62
     0
 48
50.0
370
    -2
100
AcDbLine
 10
8473.599999999999
 20
6576.093489298957
 30
0.0
 11
8583.599999999998
 21
6576.093489298957
 31
0.0
  0
MTEXT
  5
1F8D6
330
1F7C3
100
AcDbEntity
  8
寸法
 62
     7
 48
50.0
100
AcDbMText
 10
8493.201468801883
 20
6679.487482684253
 30
0.0
 40
120.0
 41
0.0
 71
     5
 72
     1
  1
\A1;110
  7
STYLE1
 73
     1
 44
1.0
1001
ACAD
1000
MTEXTBEGIN
1070
    73
1070
     1
1070
    44
1040
1.0
1070
    74
1070
     0
1000
MTEXTEND
  0
INSERT
  5
1F8D7
330
1F7C3
100
AcDbEntity
  8
寸法
 62
     0
 48
50.0
370
    -2
100
AcDbBlockReference
  2
_DOTSMALL
 10
8473.599999999999
 20
6576.093489298957
 30
0.0
 41
100.0
 42
100.0
 43
100.0
 50
180.0
  0
INSERT
  5
1F8D8
330
1F7C3
100
AcDbEntity
  8
寸法
 62
     0
 48
50.0
370
    -2
100
AcDbBlockReference
  2
_DOTSMALL
 10
8583.599999999998
 20
6576.093489298957
 30
0.0
 41
100.0
 42
100.0
 43
100.0
  0
POINT
  5
1F8D9
330
1F7C3
100
AcDbEntity
  8
DEFPOINTS
 62
     0
 48
50.0
100
AcDbPoint
 10
8473.599999999999
 20
6420.878363921564
 30
0.0
  0
POINT
  5
1F8DA
330
1F7C3
100
AcDbEntity
  8
DEFPOINTS
 62
     0
 48
50.0
100
AcDbPoint
 10
8583.599999999998
 20
6420.878363921563
 30
0.0
  0
POINT
  5
1F8DB
330
1F7C3
100
AcDbEntity
  8
DEFPOINTS
 62
     0
 48
50.0
100
AcDbPoint
 10
8583.599999999998
 20
6576.093489298957
 30
0.0
  0
ENDBLK
  5
1F7D0
330
1F7C3
100
AcDbEntity
  8
0
 48
50.0
100
AcDbBlockEnd
  0
BLOCK
  5
1FBA5
330
1FB9B
100
AcDbEntity
  8
0
 48
50.0
100
AcDbBlockBegin
  2
*D24
 70
     1
 10
0.0
 20
0.0
 30
0.0
  3
*D24
  1

  0
LINE
  5
1FBE8
330
1FB9B
100
AcDbEntity
  8
寸法
 62
     0
 48
50.0
370
    -2
100
AcDbLine
 10
6104.729800951022
 20
1958.852053616276
 30
0.0
 11
6104.729800951022
 21
2318.852053616276
 31
0.0
  0
LINE
  5
1FBE9
330
1FB9B
100
AcDbEntity
  8
寸法
 62
     0
 48
50.0
370
    -2
100
AcDbLine
 10
5912.729800951023
 20
1958.852053616276
 30
0.0
 11
5912.729800951023
 21
2318.852053616276
 31
0.0
  0
LINE
  5
1FBEA
330
1FB9B
100
AcDbEntity
  8
寸法
 62
     0
 48
50.0
370
    -2
100
AcDbLine
 10
6104.729800951022
 20
2258.852053616276
 30
0.0
 11
5912.729800951023
 21
2258.852053616276
 31
0.0
  0
MTEXT
  5
1FBEB
330
1FB9B
100
AcDbEntity
  8
寸法
 62
     7
 48
50.0
100
AcDbMText
 10
6019.956131296219
 20
2558.531672556279
 30
0.0
 40
120.0
 41
0.0
 71
     5
 72
     1
  1
\A1;120\P170
  7
STYLE1
 73
     1
 44
1.0
1001
ACAD
1000
MTEXTBEGIN
1070
    73
1070
     1
1070
    44
1040
1.0
1070
    74
1070
     0
1000
MTEXTEND
  0
INSERT
  5
1FBEC
330
1FB9B
100
AcDbEntity
  8
寸法
 62
     0
 48
50.0
370
    -2
100
AcDbBlockReference
  2
_DOTSMALL
 10
6104.729800951022
 20
2258.852053616276
 30
0.0
 41
100.0
 42
100.0
 43
100.0
  0
INSERT
  5
1FBED
330
1FB9B
100
AcDbEntity
  8
寸法
 62
     0
 48
50.0
370
    -2
100
AcDbBlockReference
  2
_DOTSMALL
 10
5912.729800951023
 20
2258.852053616276
 30
0.0
 41
100.0
 42
100.0
 43
100.0
 50
180.0
  0
POINT
  5
1FBEE
330
1FB9B
100
AcDbEntity
  8
DEFPOINTS
 62
     0
 48
50.0
100
AcDbPoint
 10
6104.729800951022
 20
1938.852053616276
 30
0.0
  0
POINT
  5
1FBEF
330
1FB9B
100
AcDbEntity
  8
DEFPOINTS
 62
     0
 48
50.0
100
AcDbPoint
 10
5912.729800951023
 20
1938.852053616276
 30
0.0
  0
POINT
  5
1FBF0
330
1FB9B
100
AcDbEntity
  8
DEFPOINTS
 62
     0
 48
50.0
100
AcDbPoint
 10
5912.729800951023
 20
2258.852053616276
 30
0.0
  0
ENDBLK
  5
1FBA6
330
1FB9B
100
AcDbEntity
  8
0
 48
50.0
100
AcDbBlockEnd
  0
BLOCK
  5
1FBB1
330
1FBA7
100
AcDbEntity
  8
0
 48
50.0
100
AcDbBlockBegin
  2
*D25
 70
     1
 10
0.0
 20
0.0
 30
0.0
  3
*D25
  1

  0
LINE
  5
1FBF1
330
1FBA7
100
AcDbEntity
  8
寸法
 62
     0
 48
50.0
370
    -2
100
AcDbLine
 10
5784.729800951023
 20
1006.852053616276
 30
0.0
 11
5784.729800951023
 21
556.4224156111158
 31
0.0
  0
LINE
  5
1FBF2
330
1FBA7
100
AcDbEntity
  8
寸法
 62
     0
 48
50.0
370
    -2
100
AcDbLine
 10
6232.729800951022
 20
1006.852053616276
 30
0.0
 11
6232.729800951022
 21
556.4224156111158
 31
0.0
  0
LINE
  5
1FBF3
330
1FBA7
100
AcDbEntity
  8
寸法
 62
     0
 48
50.0
370
    -2
100
AcDbLine
 10
5784.729800951023
 20
616.4224156111158
 30
0.0
 11
6232.729800951022
 21
616.4224156111158
 31
0.0
  0
MTEXT
  5
1FBF4
330
1FBA7
100
AcDbEntity
  8
寸法
 62
     7
 48
50.0
100
AcDbMText
 10
5988.633042272798
 20
716.4224156111158
 30
0.0
 40
120.0
 41
0.0
 71
     5
 72
     1
  1
\A1;300
  7
STYLE1
 73
     1
 44
1.0
1001
ACAD
1000
MTEXTBEGIN
1070
    73
1070
     1
1070
    44
1040
1.0
1070
    74
1070
     0
1000
MTEXTEND
  0
INSERT
  5
1FBF5
330
1FBA7
100
AcDbEntity
  8
寸法
 62
     0
 48
50.0
370
    -2
100
AcDbBlockReference
  2
_DOTSMALL
 10
5784.729800951023
 20
616.4224156111158
 30
0.0
 41
100.0
 42
100.0
 43
100.0
 50
180.0
  0
INSERT
  5
1FBF6
330
1FBA7
100
AcDbEntity
  8
寸法
 62
     0
 48
50.0
370
    -2
100
AcDbBlockReference
  2
_DOTSMALL
 10
6232.729800951022
 20
616.4224156111158
 30
0.0
 41
100.0
 42
100.0
 43
100.0
  0
POINT
  5
1FBF7
330
1FBA7
100
AcDbEntity
  8
DEFPOINTS
 62
     0
 48
50.0
100
AcDbPoint
 10
5784.729800951023
 20
1026.852053616276
 30
0.0
  0
POINT
  5
1FBF8
330
1FBA7
100
AcDbEntity
  8
DEFPOINTS
 62
     0
 48
50.0
100
AcDbPoint
 10
6232.729800951022
 20
1026.852053616276
 30
0.0
  0
POINT
  5
1FBF9
330
1FBA7
100
AcDbEntity
  8
DEFPOINTS
 62
     0
 48
50.0
100
AcDbPoint
 10
6232.729800951022
 20
616.4224156111158
 30
0.0
  0
ENDBLK
  5
1FBB2
330
1FBA7
100
AcDbEntity
  8
0
 48
50.0
100
AcDbBlockEnd
  0
BLOCK
  5
1FBBD
330
1FBB3
100
AcDbEntity
  8
0
 48
50.0
100
AcDbBlockBegin
  2
*D26
 70
     1
 10
0.0
 20
0.0
 30
0.0
  3
*D26
  1

  0
LINE
  5
1FBFA
330
1FBB3
100
AcDbEntity
  8
寸法
 62
     0
 48
50.0
370
    -2
100
AcDbLine
 10
5892.729800951022
 20
1938.852053616276
 30
0.0
 11
5117.692562389281
 21
1938.852053616276
 31
0.0
  0
LINE
  5
1FBFB
330
1FBB3
100
AcDbEntity
  8
寸法
 62
     0
 48
50.0
370
    -2
100
AcDbLine
 10
5684.729800951026
 20
1154.852053616276
 30
0.0
 11
5117.692562389281
 21
1154.852053616276
 31
0.0
  0
LINE
  5
1FBFC
330
1FBB3
100
AcDbEntity
  8
寸法
 62
     0
 48
50.0
370
    -2
100
AcDbLine
 10
5177.692562389282
 20
1938.852053616276
 30
0.0
 11
5177.692562389282
 21
1154.852053616276
 31
0.0
  0
MTEXT
  5
1FBFD
330
1FBB3
100
AcDbEntity
  8
寸法
 62
     7
 48
50.0
100
AcDbMText
 10
5077.692562389282
 20
1526.392203272276
 30
0.0
 40
120.0
 41
0.0
 71
     5
 72
     1
  1
\A1;540
  7
STYLE1
 11
0.0000000000000001
 21
1.0
 31
0.0
 73
     1
 44
1.0
1001
ACAD
1000
MTEXTBEGIN
1070
    73
1070
     1
1070
    44
1040
1.0
1070
    74
1070
     0
1000
MTEXTEND
  0
INSERT
  5
1FBFE
330
1FBB3
100
AcDbEntity
  8
寸法
 62
     0
 48
50.0
370
    -2
100
AcDbBlockReference
  2
_DOTSMALL
 10
5177.692562389282
 20
1938.852053616276
 30
0.0
 41
100.0
 42
100.0
 43
100.0
 50
90.0
  0
INSERT
  5
1FBFF
330
1FBB3
100
AcDbEntity
  8
寸法
 62
     0
 48
50.0
370
    -2
100
AcDbBlockReference
  2
_DOTSMALL
 10
5177.692562389282
 20
1154.852053616276
 30
0.0
 41
100.0
 42
100.0
 43
100.0
 50
270.0
  0
POINT
  5
1FC00
330
1FBB3
100
AcDbEntity
  8
DEFPOINTS
 62
     0
 48
50.0
100
AcDbPoint
 10
5912.729800951023
 20
1938.852053616276
 30
0.0
  0
POINT
  5
1FC01
330
1FBB3
100
AcDbEntity
  8
DEFPOINTS
 62
     0
 48
50.0
100
AcDbPoint
 10
5704.729800951025
 20
1154.852053616276
 30
0.0
  0
POINT
  5
1FC02
330
1FBB3
100
AcDbEntity
  8
DEFPOINTS
 62
     0
 48
50.0
100
AcDbPoint
 10
5177.692562389282
 20
1154.852053616276
 30
0.0
  0
ENDBLK
  5
1FBBE
330
1FBB3
100
AcDbEntity
  8
0
 48
50.0
100
AcDbBlockEnd
  0
BLOCK
  5
1FBC9
330
1FBBF
100
AcDbEntity
  8
0
 48
50.0
100
AcDbBlockBegin
  2
*D27
 70
     1
 10
0.0
 20
0.0
 30
0.0
  3
*D27
  1

  0
LINE
  5
1FC03
330
1FBBF
100
AcDbEntity
  8
寸法
 62
     0
 48
50.0
370
    -2
100
AcDbLine
 10
5764.729800951022
 20
1394.852053616276
 30
0.0
 11
5582.309487218562
 21
1394.852053616276
 31
0.0
  0
LINE
  5
1FC04
330
1FBBF
100
AcDbEntity
  8
寸法
 62
     0
 48
50.0
370
    -2
100
AcDbLine
 10
5684.729800951026
 20
1154.852053616276
 30
0.0
 11
5582.309487218562
 21
1154.852053616276
 31
0.0
  0
LINE
  5
1FC05
330
1FBBF
100
AcDbEntity
  8
寸法
 62
     0
 48
50.0
370
    -2
100
AcDbLine
 10
5642.309487218563
 20
1394.852053616276
 30
0.0
 11
5642.309487218563
 21
1154.852053616276
 31
0.0
  0
MTEXT
  5
1FC06
330
1FBBF
100
AcDbEntity
  8
寸法
 62
     7
 48
50.0
100
AcDbMText
 10
5542.309487218563
 20
1274.852053616276
 30
0.0
 40
120.0
 41
0.0
 71
     5
 72
     1
  1
\A1;150
  7
STYLE1
 11
0.0000000000000001
 21
1.0
 31
0.0
 73
     1
 44
1.0
1001
ACAD
1000
MTEXTBEGIN
1070
    73
1070
     1
1070
    44
1040
1.0
1070
    74
1070
     0
1000
MTEXTEND
  0
INSERT
  5
1FC07
330
1FBBF
100
AcDbEntity
  8
寸法
 62
     0
 48
50.0
370
    -2
100
AcDbBlockReference
  2
_DOTSMALL
 10
5642.309487218563
 20
1394.852053616276
 30
0.0
 41
100.0
 42
100.0
 43
100.0
 50
90.0
  0
INSERT
  5
1FC08
330
1FBBF
100
AcDbEntity
  8
寸法
 62
     0
 48
50.0
370
    -2
100
AcDbBlockReference
  2
_DOTSMALL
 10
5642.309487218563
 20
1154.852053616276
 30
0.0
 41
100.0
 42
100.0
 43
100.0
 50
270.0
  0
POINT
  5
1FC09
330
1FBBF
100
AcDbEntity
  8
DEFPOINTS
 62
     0
 48
50.0
100
AcDbPoint
 10
5784.729800951023
 20
1394.852053616276
 30
0.0
  0
POINT
  5
1FC0A
330
1FBBF
100
AcDbEntity
  8
DEFPOINTS
 62
     0
 48
50.0
100
AcDbPoint
 10
5704.729800951025
 20
1154.852053616276
 30
0.0
  0
POINT
  5
1FC0B
330
1FBBF
100
AcDbEntity
  8
DEFPOINTS
 62
     0
 48
50.0
100
AcDbPoint
 10
5642.309487218563
 20
1154.852053616276
 30
0.0
  0
ENDBLK
  5
1FBCA
330
1FBBF
100
AcDbEntity
  8
0
 48
50.0
100
AcDbBlockEnd
  0
BLOCK
  5
1FBDA
330
1FBCB
100
AcDbEntity
  8
0
 48
50.0
100
AcDbBlockBegin
  2
*D28
 70
     1
 10
0.0
 20
0.0
 30
0.0
  3
*D28
  1

  0
LINE
  5
1FC0C
330
1FBCB
100
AcDbEntity
  8
寸法
 62
     0
 48
50.0
370
    -2
100
AcDbLine
 10
7859.569114128217
 20
1991.612053616277
 30
0.0
 11
8588.63771389706
 21
1991.612053616277
 31
0.0
  0
LINE
  5
1FC0D
330
1FBCB
100
AcDbEntity
  8
寸法
 62
     0
 48
50.0
370
    -2
100
AcDbLine
 10
8046.769114128215
 20
1938.852053616276
 30
0.0
 11
8588.63771389706
 21
1938.852053616276
 31
0.0
  0
LINE
  5
1FC0E
330
1FBCB
100
AcDbEntity
  8
寸法
 62
     0
 48
50.0
370
    -2
100
AcDbLine
 10
8528.63771389706
 20
1991.612053616277
 30
0.0
 11
8528.63771389706
 21
2091.612053616277
 31
0.0
  0
LINE
  5
1FC0F
330
1FBCB
100
AcDbEntity
  8
寸法
 62
     0
 48
50.0
370
    -2
100
AcDbLine
 10
8528.63771389706
 20
1938.852053616276
 30
0.0
 11
8528.63771389706
 21
1838.852053616276
 31
0.0
  0
LINE
  5
1FC10
330
1FBCB
100
AcDbEntity
  8
寸法
 62
     0
 48
50.0
370
    -2
100
AcDbLine
 10
8528.63771389706
 20
1965.232053616276
 30
0.0
 11
8804.692380016089
 21
1953.728096012062
 31
0.0
  0
LINE
  5
1FC11
330
1FBCB
100
AcDbEntity
  8
寸法
 62
     0
 48
50.0
370
    -2
100
AcDbLine
 10
8804.692380016089
 20
1953.728096012062
 30
0.0
 11
8804.692380016089
 21
1421.710289169097
 31
0.0
  0
MTEXT
  5
1FC12
330
1FBCB
100
AcDbEntity
  8
寸法
 62
     7
 48
50.0
100
AcDbMText
 10
8704.680568992465
 20
1687.719192590581
 30
0.0
 40
120.0
 41
0.0
 71
     5
 72
     1
  1
\A1;20～25
  7
STYLE1
 11
0.0000000000000001
 21
1.0
 31
0.0
 73
     1
 44
1.0
1001
ACAD
1000
MTEXTBEGIN
1070
    73
1070
     1
1070
    44
1040
1.0
1070
    74
1070
     0
1000
MTEXTEND
  0
LINE
  5
1FC13
330
1FBCB
100
AcDbEntity
  8
寸法
 62
     0
 48
50.0
370
    -2
100
AcDbLine
 10
8528.63771389706
 20
1991.612053616277
 30
0.0
 11
8528.63771389706
 21
1938.852053616276
 31
0.0
  0
LINE
  5
1FC14
330
1FBCB
100
AcDbEntity
  8
寸法
 62
     0
 48
50.0
370
    -2
100
AcDbLine
 10
8528.63771389706
 20
1991.612053616277
 30
0.0
 11
8528.63771389706
 21
1938.852053616276
 31
0.0
  0
INSERT
  5
1FC15
330
1FBCB
100
AcDbEntity
  8
寸法
 62
     0
 48
50.0
370
    -2
100
AcDbBlockReference
  2
_DOTSMALL
 10
8528.63771389706
 20
1991.612053616277
 30
0.0
 41
100.0
 42
100.0
 43
100.0
 50
270.0
  0
INSERT
  5
1FC16
330
1FBCB
100
AcDbEntity
  8
寸法
 62
     0
 48
50.0
370
    -2
100
AcDbBlockReference
  2
_DOTSMALL
 10
8528.63771389706
 20
1938.852053616276
 30
0.0
 41
100.0
 42
100.0
 43
100.0
 50
90.0
  0
POINT
  5
1FC17
330
1FBCB
100
AcDbEntity
  8
DEFPOINTS
 62
     0
 48
50.0
100
AcDbPoint
 10
7839.569114128217
 20
1991.612053616277
 30
0.0
  0
POINT
  5
1FC18
330
1FBCB
100
AcDbEntity
  8
DEFPOINTS
 62
     0
 48
50.0
100
AcDbPoint
 10
8026.769114128216
 20
1938.852053616276
 30
0.0
  0
POINT
  5
1FC19
330
1FBCB
100
AcDbEntity
  8
DEFPOINTS
 62
     0
 48
50.0
100
AcDbPoint
 10
8528.63771389706
 20
1938.852053616276
 30
0.0
  0
ENDBLK
  5
1FBDB
330
1FBCB
100
AcDbEntity
  8
0
 48
50.0
100
AcDbBlockEnd
  0
BLOCK
  5
1FBE6
330
1FBDC
100
AcDbEntity
  8
0
 48
50.0
100
AcDbBlockBegin
  2
*D29
 70
     1
 10
0.0
 20
0.0
 30
0.0
  3
*D29
  1

  0
LINE
  5
1FC1A
330
1FBDC
100
AcDbEntity
  8
寸法
 62
     0
 48
50.0
370
    -2
100
AcDbLine
 10
8046.769114128215
 20
1938.852053616276
 30
0.0
 11
8588.63771389706
 21
1938.852053616276
 31
0.0
  0
LINE
  5
1FC1B
330
1FBDC
100
AcDbEntity
  8
寸法
 62
     0
 48
50.0
370
    -2
100
AcDbLine
 10
8046.769114128215
 20
1614.852053616275
 30
0.0
 11
8588.63771389706
 21
1614.852053616275
 31
0.0
  0
LINE
  5
1FC1C
330
1FBDC
100
AcDbEntity
  8
寸法
 62
     0
 48
50.0
370
    -2
100
AcDbLine
 10
8528.63771389706
 20
1938.852053616276
 30
0.0
 11
8528.63771389706
 21
1614.852053616275
 31
0.0
  0
INSERT
  5
1FC1D
330
1FBDC
100
AcDbEntity
  8
寸法
 62
     0
 48
50.0
370
    -2
100
AcDbBlockReference
  2
_DOTSMALL
 10
8528.63771389706
 20
1938.852053616276
 30
0.0
 41
100.0
 42
100.0
 43
100.0
 50
90.0
  0
INSERT
  5
1FC1E
330
1FBDC
100
AcDbEntity
  8
寸法
 62
     0
 48
50.0
370
    -2
100
AcDbBlockReference
  2
_DOTSMALL
 10
8528.63771389706
 20
1614.852053616275
 30
0.0
 41
100.0
 42
100.0
 43
100.0
 50
270.0
  0
MTEXT
  5
1FC1F
330
1FBDC
100
AcDbEntity
  8
寸法
 62
     7
 48
50.0
100
AcDbMText
 10
8428.63771389706
 20
1776.852053616277
 30
0.0
 40
120.0
 41
0.0
 71
     5
 72
     1
  1
\A1;180
  7
STYLE1
 11
0.0000000000000001
 21
1.0
 31
0.0
 73
     1
 44
1.0
1001
ACAD
1000
MTEXTBEGIN
1070
    73
1070
     1
1070
    44
1040
1.0
1070
    74
1070
     0
1000
MTEXTEND
  0
POINT
  5
1FC20
330
1FBDC
100
AcDbEntity
  8
DEFPOINTS
 62
     0
 48
50.0
100
AcDbPoint
 10
8026.769114128216
 20
1938.852053616276
 30
0.0
  0
POINT
  5
1FC21
330
1FBDC
100
AcDbEntity
  8
DEFPOINTS
 62
     0
 48
50.0
100
AcDbPoint
 10
8026.769114128216
 20
1614.852053616275
 30
0.0
  0
POINT
  5
1FC22
330
1FBDC
100
AcDbEntity
  8
DEFPOINTS
 62
     0
 48
50.0
100
AcDbPoint
 10
8528.63771389706
 20
1614.852053616275
 30
0.0
  0
ENDBLK
  5
1FBE7
330
1FBDC
100
AcDbEntity
  8
0
 48
50.0
100
AcDbBlockEnd
  0
ENDSEC
  0
SECTION
  2
ENTITIES
  0
LINE
  5
10B57
330
747D
100
AcDbEntity
  8
補助
  6
PHANTOM
 62
   230
 48
50.0
100
AcDbLine
 10
139.9999999999995
 20
11409.6
 30
0.0
 11
16307.2
 21
11409.6
 31
0.0
  0
LINE
  5
10B59
330
747D
100
AcDbEntity
  8
仕様書枠
  6
Continuous
 48
50.0
100
AcDbLine
 10
13107.2
 20
1200.0
 30
0.0
 11
13107.2
 21
-0.0000000000000729
 31
0.0
  0
LINE
  5
10B5C
330
747D
100
AcDbEntity
  8
仕様書枠
 48
50.0
100
AcDbLine
 10
16307.2
 20
1200.0
 30
0.0
 11
16307.2
 21
-0.0000000000000909
 31
0.0
  0
LINE
  5
10B5D
330
747D
100
AcDbEntity
  8
仕様書枠
 48
50.0
100
AcDbLine
 10
140.0
 20
0.0
 30
0.0
 11
16307.2
 21
-0.0000000000000909
 31
0.0
  0
LINE
  5
10B5E
330
747D
100
AcDbEntity
  8
補助
  6
PHANTOM
 62
   230
 48
50.0
100
AcDbLine
 10
16307.2
 20
11409.6
 30
0.0
 11
16307.2
 21
1200.0
 31
0.0
  0
LINE
  5
10B6C
330
747D
100
AcDbEntity
  8
仕様書枠
 48
50.0
100
AcDbLine
 10
13107.2
 20
1200.0
 30
0.0
 11
16307.2
 21
1200.0
 31
0.0
  0
LINE
  5
10B6D
330
747D
100
AcDbEntity
  8
補助
  6
PHANTOM
 62
   230
 48
50.0
100
AcDbLine
 10
13107.2
 20
11409.6
 30
0.0
 11
13107.2
 21
4800.0
 31
0.0
  0
LINE
  5
10B6F
330
747D
100
AcDbEntity
  8
補助
  6
PHANTOM
 62
   230
 48
50.0
100
AcDbLine
 10
13107.2
 20
4800.0
 30
0.0
 11
16307.2
 21
4800.0
 31
0.0
  0
LINE
  5
10B72
330
747D
100
AcDbEntity
  8
文字
 62
     7
 48
50.0
100
AcDbLine
 10
13187.2
 20
400.0
 30
0.0
 11
16227.2
 21
400.0
 31
0.0
  0
TEXT
  5
10B73
330
747D
100
AcDbEntity
  8
文字
 62
     7
 48
50.0
100
AcDbText
 10
13162.9790565769
 20
895.0906074299405
 30
0.0
 40
200.0
  1
基 礎 図
  7
STYLE2
100
AcDbText
  0
TEXT
  5
10B74
330
747D
100
AcDbEntity
  8
文字
 62
     7
 48
50.0
100
AcDbText
 10
13201.43669998441
 20
477.2740661031255
 30
0.0
 40
160.0
  1
機種名
  7
STYLE2
100
AcDbText
  0
LINE
  5
10B7B
330
747D
100
AcDbEntity
  8
仕様書枠
 48
50.0
100
AcDbLine
 10
13107.2
 20
800.0
 30
0.0
 11
14251.2
 21
800.0
 31
0.0
  0
LINE
  5
10B88
330
747D
100
AcDbEntity
  8
仕様書枠
  6
Continuous
 48
50.0
100
AcDbLine
 10
14251.2
 20
1200.0
 30
0.0
 11
14251.2
 21
800.0
 31
0.0
  0
TEXT
  5
14DEF
330
747D
100
AcDbEntity
  8
文字
 62
     7
 48
50.0
100
AcDbText
 10
14641.2525855784
 20
871.1744590657925
 30
0.0
 40
100.0
  1
～一般型・多雪地型～
  7
STYLE2
100
AcDbText
  0
TEXT
  5
15A76
330
747D
100
AcDbEntity
  8
文字
 62
     7
 48
50.0
100
AcDbText
 10
14478.98566430227
 20
499.5983841039501
 30
0.0
 40
160.0
  1
ＮＸＮ－２５CＳ
  7
STYLE2
100
AcDbText
  0
TEXT
  5
1D002
330
747D
100
AcDbEntity
  8
文字
 62
     7
 48
50.0
100
AcDbText
 10
13188.16259899338
 20
246.7109242801889
 30
0.0
 40
80.0
  1
※寒冷地等は地域の実情に合わせた基礎にして下さい。
  7
STYLE2
100
AcDbText
  0
DIMENSION
  5
1D91B
330
747D
100
AcDbEntity
  8
寸法
 48
50.0
100
AcDbDimension
  2
*D2
 10
7770.307249876099
 20
6420.878363921549
 30
0.0
 11
7770.307249876097
 21
6656.925608016038
 31
0.0
 70
   160
 71
     5
 42
130.0000000000018
  3
INABA_S40G
100
AcDbAlignedDimension
 13
7553.599999999999
 23
6290.878363921547
 33
0.0
 14
7553.599999999999
 24
6420.878363921549
 34
0.0
 50
90.0
100
AcDbRotatedDimension
1001
ACAD
1000
DSTYLE
1002
{
1070
   174
1070
     0
1070
   272
1070
     1
1070
   288
1070
     0
1070
   341
1005
0
1002
}
  0
DIMENSION
  5
1D91C
330
747D
100
AcDbEntity
  8
寸法
 48
50.0
100
AcDbDimension
  2
*D3
 10
7770.307249876097
 20
6120.878363921548
 30
0.0
 11
7770.307249876096
 21
5884.831119827059
 31
0.0
 70
   160
 71
     5
 42
170.0000000000018
  3
INABA_S40G
100
AcDbAlignedDimension
 13
7553.599999999999
 23
6290.878363921549
 33
0.0
 14
7553.599999999999
 24
6120.878363921548
 34
0.0
 50
90.0
100
AcDbRotatedDimension
1001
ACAD
1000
DSTYLE
1002
{
1070
   174
1070
     0
1070
   272
1070
     1
1070
   288
1070
     0
1070
   341
1005
0
1002
}
  0
DIMENSION
  5
1D91D
330
747D
100
AcDbEntity
  8
寸法
 48
50.0
100
AcDbDimension
  2
*D4
 10
7446.6
 20
8725.938974311475
 30
0.0
 11
8013.599999999998
 21
8825.938974311474
 31
0.0
 70
    32
 71
     5
 42
1134.0
  3
INABA_S40G
100
AcDbAlignedDimension
 13
8580.599999999998
 23
7847.878363921545
 33
0.0
 14
7446.6
 24
7847.878363921545
 34
0.0
100
AcDbRotatedDimension
1001
ACAD
1000
DSTYLE
1002
{
1070
   174
1070
     0
1070
   272
1070
     1
1070
   288
1070
     0
1070
   341
1005
0
1002
}
  0
LINE
  5
1D91E
330
747D
100
AcDbEntity
  8
部品1
 48
50.0
100
AcDbLine
 10
8473.599999999999
 20
6290.878363921562
 30
0.0
 11
7553.599999999999
 21
6290.878363921549
 31
0.0
  0
LINE
  5
1D91F
330
747D
100
AcDbEntity
  8
部品1
 48
50.0
100
AcDbLine
 10
8473.599999999999
 20
7800.878363921544
 30
0.0
 11
7553.599999999999
 21
7800.878363921545
 31
0.0
  0
DIMENSION
  5
1D920
330
747D
100
AcDbEntity
  8
寸法
 48
50.0
100
AcDbDimension
  2
*D5
 10
8703.599999999999
 20
8938.399669828312
 30
0.0
 11
8013.599999999998
 21
9038.399669828311
 31
0.0
 70
    32
 71
     5
 42
1380.0
  3
INABA_S40G
100
AcDbAlignedDimension
 13
7323.599999999998
 23
7920.878363921545
 33
0.0
 14
8703.599999999999
 24
7920.878363921545
 34
0.0
100
AcDbRotatedDimension
1001
ACAD
1000
DSTYLE
1002
{
1070
   174
1070
     0
1070
   272
1070
     1
1070
   288
1070
     0
1070
   341
1005
0
1002
}
  0
LINE
  5
1D921
330
747D
100
AcDbEntity
  8
部品1
 48
50.0
100
AcDbLine
 10
8703.599999999999
 20
6120.878363921564
 30
0.0
 11
7323.599999999998
 21
6120.878363921545
 31
0.0
  0
LINE
  5
1D922
330
747D
100
AcDbEntity
  8
部品1
 48
50.0
100
AcDbLine
 10
8703.599999999999
 20
7920.878363921545
 30
0.0
 11
7323.599999999998
 21
7920.878363921545
 31
0.0
  0
LINE
  5
1D923
330
747D
100
AcDbEntity
  8
想像線
 48
10.0
100
AcDbLine
 10
8748.599999999999
 20
6065.878363921541
 30
0.0
 11
7278.599999999999
 21
6065.878363921545
 31
0.0
  0
LINE
  5
1D924
330
747D
100
AcDbEntity
  8
想像線
 48
10.0
100
AcDbLine
 10
7278.599999999994
 20
7995.878363921545
 30
0.0
 11
8748.600000000001
 21
7995.87836392155
 31
0.0
  0
DIMENSION
  5
1D925
330
747D
100
AcDbEntity
  8
寸法
 48
50.0
100
AcDbDimension
  2
*D6
 10
7323.599999999998
 20
8725.938974311475
 30
0.0
 11
7085.11471862576
 21
8725.938974311475
 31
0.0
 70
   160
 71
     5
 42
123.0
  3
INABA_S40G
100
AcDbAlignedDimension
 13
7446.6
 23
7847.878363921545
 33
0.0
 14
7323.599999999998
 24
7920.878363921545
 34
0.0
100
AcDbRotatedDimension
1001
ACAD
1000
DSTYLE
1002
{
1070
   174
1070
     0
1070
   272
1070
     1
1070
   288
1070
     0
1070
   341
1005
0
1002
}
  0
DIMENSION
  5
1D926
330
747D
100
AcDbEntity
  8
寸法
 48
50.0
100
AcDbDimension
  2
*D7
 10
7323.599999999998
 20
8938.399669828314
 30
0.0
 11
7301.099999999997
 21
8938.399669828314
 31
0.0
 70
   160
  1
a
 71
     5
 42
45.00000000000364
  3
INABA_S40G
100
AcDbAlignedDimension
 13
7278.599999999994
 23
8725.938974311475
 33
0.0
 14
7323.599999999998
 24
7920.878363921545
 34
0.0
100
AcDbRotatedDimension
1001
ACAD
1000
DSTYLE
1002
{
1070
   174
1070
     0
1070
   272
1070
     1
1070
   288
1070
     0
1070
   341
1005
0
1002
}
  0
DIMENSION
  5
1D927
330
747D
100
AcDbEntity
  8
寸法
 48
50.0
100
AcDbDimension
  2
*D8
 10
6827.657733986177
 20
6318.878363921547
 30
0.0
 11
6827.657733986176
 21
7029.959587441503
 31
0.0
 70
   160
 71
     5
 42
1478.999999999998
  3
INABA_S40G
100
AcDbAlignedDimension
 13
7396.599999999999
 23
7797.878363921545
 33
0.0
 14
7396.600000000006
 24
6318.878363921547
 34
0.0
 50
90.0
100
AcDbRotatedDimension
1001
ACAD
1000
DSTYLE
1002
{
1070
   174
1070
     0
1070
   272
1070
     1
1070
   288
1070
     0
1070
   341
1005
0
1002
}
  0
LINE
  5
1D928
330
747D
100
AcDbEntity
  8
部品1
 48
50.0
100
AcDbLine
 10
7443.599999999999
 20
6420.878363921547
 30
0.0
 11
7443.599999999999
 21
7690.878363921541
 31
0.0
  0
DIMENSION
  5
1D929
330
747D
100
AcDbEntity
  8
寸法
 48
50.0
100
AcDbDimension
  2
*D9
 10
6582.16493184821
 20
6120.878363921545
 30
0.0
 11
6582.16493184821
 21
7013.305234467698
 31
0.0
 70
   160
 71
     5
 42
1800.0
  3
INABA_S40G
100
AcDbAlignedDimension
 13
7323.599999999998
 23
7920.878363921545
 33
0.0
 14
7323.599999999998
 24
6120.878363921545
 34
0.0
 50
90.0
100
AcDbRotatedDimension
1001
ACAD
1000
DSTYLE
1002
{
1070
   174
1070
     0
1070
   272
1070
     1
1070
   288
1070
     0
1070
   341
1005
0
1002
}
  0
LINE
  5
1D92A
330
747D
100
AcDbEntity
  8
部品1
 48
50.0
100
AcDbLine
 10
7323.599999999998
 20
6120.878363921545
 30
0.0
 11
7323.599999999998
 21
7920.878363921545
 31
0.0
  0
LINE
  5
1D92B
330
747D
100
AcDbEntity
  8
想像線
 48
10.0
100
AcDbLine
 10
7278.599999999999
 20
6065.878363921545
 30
0.0
 11
7278.599999999999
 21
7995.87836392155
 31
0.0
  0
DIMENSION
  5
1D92C
330
747D
100
AcDbEntity
  8
寸法
 48
50.0
100
AcDbDimension
  2
*D10
 10
6827.657733986177
 20
6120.878363921545
 30
0.0
 11
6827.657733986176
 21
5884.668704091891
 31
0.0
 70
   160
 71
     5
 42
198.0000000000018
  3
INABA_S40G
100
AcDbAlignedDimension
 13
7396.600000000006
 23
6318.878363921547
 33
0.0
 14
7323.599999999998
 24
6120.878363921545
 34
0.0
 50
90.0
100
AcDbRotatedDimension
1001
ACAD
1000
DSTYLE
1002
{
1070
   174
1070
     0
1070
   272
1070
     1
1070
   288
1070
     0
1070
   341
1005
0
1002
}
  0
DIMENSION
  5
1D92D
330
747D
100
AcDbEntity
  8
寸法
 48
50.0
100
AcDbDimension
  2
*D11
 10
6582.16493184821
 20
6065.878363921545
 30
0.0
 11
6582.16493184821
 21
6093.378363921547
 31
0.0
 70
   160
  1
b
 71
     5
 42
55.0
  3
INABA_S40G
100
AcDbAlignedDimension
 13
7323.599999999998
 23
6120.878363921545
 33
0.0
 14
6827.657733986177
 24
6065.878363921545
 34
0.0
 50
90.0
100
AcDbRotatedDimension
1001
ACAD
1000
DSTYLE
1002
{
1070
   174
1070
     0
1070
   272
1070
     1
1070
   288
1070
     0
1070
   341
1005
0
1002
}
  0
LINE
  5
1D92E
330
747D
100
AcDbEntity
  8
センター
 48
2.0
100
AcDbLine
 10
7446.600000000007
 20
6368.878363921547
 30
0.0
 11
7446.600000000007
 21
6268.878363921547
 31
0.0
  0
LINE
  5
1D92F
330
747D
100
AcDbEntity
  8
センター
 48
2.0
100
AcDbLine
 10
7396.600000000006
 20
6318.878363921547
 30
0.0
 11
7496.600000000007
 21
6318.878363921547
 31
0.0
  0
CIRCLE
  5
1D930
330
747D
100
AcDbEntity
  8
部品1
 48
50.0
100
AcDbCircle
 10
7446.600000000007
 20
6318.878363921547
 30
0.0
 40
35.0
  0
LINE
  5
1D931
330
747D
100
AcDbEntity
  8
部品1
 48
50.0
100
AcDbLine
 10
7553.599999999999
 20
6420.878363921549
 30
0.0
 11
7443.599999999998
 21
6420.878363921547
 31
0.0
  0
LINE
  5
1D932
330
747D
100
AcDbEntity
  8
部品1
 48
50.0
100
AcDbLine
 10
7553.599999999999
 20
6290.878363921547
 30
0.0
 11
7553.599999999999
 21
6420.878363921549
 31
0.0
  0
DIMENSION
  5
1D933
330
747D
100
AcDbEntity
  8
寸法
 48
50.0
100
AcDbDimension
  2
*D12
 10
6827.657733986177
 20
7797.878363921545
 30
0.0
 11
6827.657733986176
 21
8159.363645295785
 31
0.0
 70
   160
 71
     5
 42
123.0
  3
INABA_S40G
100
AcDbAlignedDimension
 13
7323.599999999998
 23
7920.878363921545
 33
0.0
 14
7396.599999999999
 24
7797.878363921545
 34
0.0
 50
90.0
100
AcDbRotatedDimension
1001
ACAD
1000
DSTYLE
1002
{
1070
   174
1070
     0
1070
   272
1070
     1
1070
   288
1070
     0
1070
   341
1005
0
1002
}
  0
DIMENSION
  5
1D934
330
747D
100
AcDbEntity
  8
寸法
 48
50.0
100
AcDbDimension
  2
*D13
 10
6582.16493184821
 20
7920.878363921545
 30
0.0
 11
6582.164931848208
 21
7958.378363921546
 31
0.0
 70
   160
  1
c
 71
     5
 42
75.0
  3
INABA_S40G
100
AcDbAlignedDimension
 13
6827.657733986177
 23
7995.878363921545
 33
0.0
 14
7323.599999999998
 24
7920.878363921545
 34
0.0
 50
90.0
100
AcDbRotatedDimension
1001
ACAD
1000
DSTYLE
1002
{
1070
   174
1070
     0
1070
   272
1070
     1
1070
   288
1070
     0
1070
   341
1005
0
1002
}
  0
LINE
  5
1D935
330
747D
100
AcDbEntity
  8
部品1
 48
50.0
100
AcDbLine
 10
7443.599999999999
 20
7120.878363921545
 30
0.0
 11
7323.599999999998
 21
7120.878363921545
 31
0.0
  0
LINE
  5
1D936
330
747D
100
AcDbEntity
  8
部品1
 48
50.0
100
AcDbLine
 10
7443.599999999999
 20
6920.878363921545
 30
0.0
 11
7323.599999999998
 21
6920.878363921545
 31
0.0
  0
LINE
  5
1D938
330
747D
100
AcDbEntity
  8
センター
 48
2.0
100
AcDbLine
 10
7446.6
 20
7847.878363921545
 30
0.0
 11
7446.6
 21
7747.878363921545
 31
0.0
  0
LINE
  5
1D939
330
747D
100
AcDbEntity
  8
センター
 48
2.0
100
AcDbLine
 10
7396.599999999999
 20
7797.878363921545
 30
0.0
 11
7496.599999999999
 21
7797.878363921545
 31
0.0
  0
CIRCLE
  5
1D93A
330
747D
100
AcDbEntity
  8
部品1
 48
50.0
100
AcDbCircle
 10
7446.6
 20
7797.878363921545
 30
0.0
 40
35.0
  0
LINE
  5
1D93B
330
747D
100
AcDbEntity
  8
部品1
 48
50.0
100
AcDbLine
 10
7553.599999999999
 20
7690.878363921541
 30
0.0
 11
7443.599999999998
 21
7690.878363921545
 31
0.0
  0
LINE
  5
1D93C
330
747D
100
AcDbEntity
  8
部品1
 48
50.0
100
AcDbLine
 10
7553.599999999999
 20
7690.878363921541
 30
0.0
 11
7553.599999999997
 21
7800.878363921547
 31
0.0
  0
DIMENSION
  5
1D93E
330
747D
100
AcDbEntity
  8
寸法
 48
50.0
100
AcDbDimension
  2
*D14
 10
8580.599999999998
 20
8725.938974311475
 30
0.0
 11
8942.085281374238
 21
8725.938974311475
 31
0.0
 70
   160
 71
     5
 42
123.0
  3
INABA_S40G
100
AcDbAlignedDimension
 13
8703.599999999999
 23
7920.878363921545
 33
0.0
 14
8580.599999999998
 24
7847.878363921545
 34
0.0
100
AcDbRotatedDimension
1001
ACAD
1000
DSTYLE
1002
{
1070
   174
1070
     0
1070
   272
1070
     1
1070
   288
1070
     0
1070
   341
1005
0
1002
}
  0
DIMENSION
  5
1D93F
330
747D
100
AcDbEntity
  8
寸法
 48
50.0
100
AcDbDimension
  2
*D15
 10
8748.599999999999
 20
8938.399669828312
 30
0.0
 11
8726.099999999998
 21
8938.399669828312
 31
0.0
 70
   160
  1
a
 71
     5
 42
45.0
  3
INABA_S40G
100
AcDbAlignedDimension
 13
8703.599999999999
 23
7920.878363921545
 33
0.0
 14
8748.599999999999
 24
8725.938974311475
 34
0.0
100
AcDbRotatedDimension
1001
ACAD
1000
DSTYLE
1002
{
1070
   174
1070
     0
1070
   272
1070
     1
1070
   288
1070
     0
1070
   341
1005
0
1002
}
  0
LEADER
  5
1D940
330
747D
100
AcDbEntity
  8
寸法
 48
50.0
100
AcDbLeader
  3
INABA_S40G
 71
     0
 73
     0
 74
     0
 75
     1
 40
120.0
 41
720.0000000000001
 76
     3
 10
8703.599999999999
 20
7042.252617602205
 30
0.0
 10
8933.678753888482
 20
7178.766472690502
 30
0.0
 10
9033.678753888482
 20
7178.766472690502
 30
0.0
340
1D941
213
22.68964701588266
223
-10.9596981814102
233
0.0
1001
ACAD
1000
DSTYLE
1002
{
1070
   174
1070
     0
1070
   272
1070
     1
1070
   288
1070
     0
1070
   341
1005
0
1002
}
  0
MTEXT
  5
1D941
102
{ACAD_REACTORS
330
1D940
102
}
330
747D
100
AcDbEntity
  8
部品1
 62
     7
 48
50.0
100
AcDbMText
 10
9770.989106872599
 20
7289.726170871912
 30
0.0
 40
120.0
 41
0.0
 71
     6
 72
     1
  1
\A1;床下換気口
  7
STYLE1
 73
     1
 44
1.0
1001
ACAD
1000
MTEXTBEGIN
1070
    73
1070
     1
1070
    44
1040
1.0
1070
    74
1070
     0
1000
MTEXTEND
  0
DIMENSION
  5
1D942
330
747D
100
AcDbEntity
  8
寸法
 48
50.0
100
AcDbDimension
  2
*D16
 10
8583.599999999998
 20
6576.093489298957
 30
0.0
 11
8939.647244094487
 21
6576.093489298957
 31
0.0
 70
   160
 71
     5
 42
120.0
  3
INABA_S40G
100
AcDbAlignedDimension
 13
8703.599999999999
 23
6410.450970087466
 33
0.0
 14
8583.599999999998
 24
6420.878363921563
 34
0.0
100
AcDbRotatedDimension
1001
ACAD
1000
DSTYLE
1002
{
1070
   174
1070
     0
1070
   272
1070
     1
1070
   288
1070
     0
1070
   341
1005
0
1002
}
  0
TEXT
  5
1D943
330
747D
100
AcDbEntity
  8
部品1
 48
50.0
100
AcDbText
 10
8790.4200666784
 20
5425.991567142272
 30
0.0
 40
80.0
  1
(a=45,b=55,c=75)
  7
STYLE1
100
AcDbText
  0
TEXT
  5
1D944
330
747D
100
AcDbEntity
  8
部品1
 48
50.0
100
AcDbText
 10
8720.543179073516
 20
5545.722613295411
 30
0.0
 40
80.0
  1
※a,b,cは屋根の出幅です。
  7
STYLE1
100
AcDbText
  0
MTEXT
  5
1D945
102
{ACAD_REACTORS
330
1D946
102
}
330
747D
100
AcDbEntity
  8
部品1
 62
     7
 48
50.0
100
AcDbMText
 10
9585.725774538317
 20
5769.860971961755
 30
0.0
 40
120.0
 41
0.0
 71
     6
 72
     1
  1
\A1;屋根の外寸
  7
STYLE1
 73
     1
 44
1.0
1001
ACAD
1000
MTEXTBEGIN
1070
    73
1070
     1
1070
    44
1040
1.0
1070
    74
1070
     0
1000
MTEXTEND
  0
LEADER
  5
1D946
330
747D
100
AcDbEntity
  8
寸法
 48
50.0
100
AcDbLeader
  3
INABA_S50G
 71
     0
 73
     0
 74
     0
 75
     1
 40
120.0
 41
672.0
 76
     3
 10
8515.488587933825
 20
6064.878363921545
 30
0.0
 10
8763.725774538318
 20
5684.860971961754
 30
0.0
 10
8888.725774538318
 20
5684.860971961754
 30
0.0
340
1D945
1001
ACAD
1000
DSTYLE
1002
{
1070
   341
1005
1C530
1070
    40
1040
1.0
1070
   343
1005
1C530
1070
   344
1005
1C530
1002
}
  0
LINE
  5
1D949
330
747D
100
AcDbEntity
  8
部品1
 48
50.0
100
AcDbLine
 10
8583.599999999998
 20
6420.878363921565
 30
0.0
 11
8583.599999999998
 21
7690.878363921545
 31
0.0
  0
LINE
  5
1D94A
330
747D
100
AcDbEntity
  8
部品1
 48
50.0
100
AcDbLine
 10
8703.599999999999
 20
6120.878363921564
 30
0.0
 11
8703.599999999999
 21
7920.878363921545
 31
0.0
  0
LINE
  5
1D94B
330
747D
100
AcDbEntity
  8
想像線
 48
10.0
100
AcDbLine
 10
8748.599999999999
 20
7995.87836392155
 30
0.0
 11
8748.600000000001
 21
6065.878363921545
 31
0.0
  0
TEXT
  5
1D94C
330
747D
100
AcDbEntity
  8
部品1
 48
50.0
100
AcDbText
 10
7894.294671087948
 20
5913.496100642864
 30
0.0
 40
120.0
  1
扉面
  7
STYLE1
 72
     1
 11
8022.294671087948
 21
5897.496100642865
 31
0.0
100
AcDbText
 73
     1
  0
HATCH
  5
1D94E
330
747D
100
AcDbEntity
  8
細線
 48
50.0
100
AcDbHatch
 10
0.0
 20
0.0
 30
0.0
210
0.0
220
0.0
230
1.0
  2
LINE
 70
     0
 71
     0
 91
        1
 92
        7
 72
     0
 73
     1
 93
        4
 10
8113.600000000014
 20
6120.878363921555
 10
8113.600000000014
 20
6290.878363921553
 10
7913.600000000013
 20
6290.87836392155
 10
7913.600000000013
 20
6120.878363921549
 97
        0
 75
     0
 76
     1
 52
45.0
 41
10.0
 77
     0
 78
     1
 53
45.0
 43
4410.48843901349
 44
-5030.663191154743
 45
-22.45064030267288
 46
22.45064030267288
 79
     0
 47
2.903594399684136
 98
        1
 10
8026.710000003099
 20
6159.905419353994
  0
LINE
  5
1D94F
330
747D
100
AcDbEntity
  8
部品1
 48
50.0
100
AcDbLine
 10
7913.600000000013
 20
6120.878363921555
 30
0.0
 11
7913.600000000013
 21
6290.878363921549
 31
0.0
  0
LINE
  5
1D950
330
747D
100
AcDbEntity
  8
部品1
 48
50.0
100
AcDbLine
 10
8113.600000000014
 20
6120.878363921555
 30
0.0
 11
8113.600000000014
 21
6290.878363921553
 31
0.0
  0
LINE
  5
1D951
330
747D
100
AcDbEntity
  8
センター
 48
2.0
100
AcDbLine
 10
8530.600000000005
 20
6318.878363921547
 30
0.0
 11
8630.600000000006
 21
6318.878363921547
 31
0.0
  0
CIRCLE
  5
1D952
330
747D
100
AcDbEntity
  8
部品1
 48
50.0
100
AcDbCircle
 10
8580.600000000005
 20
6318.878363921547
 30
0.0
 40
35.0
  0
LINE
  5
1D953
330
747D
100
AcDbEntity
  8
部品1
 48
50.0
100
AcDbLine
 10
8583.599999999998
 20
6420.878363921563
 30
0.0
 11
8473.599999999999
 21
6420.878363921564
 31
0.0
  0
LINE
  5
1D954
330
747D
100
AcDbEntity
  8
部品1
 48
50.0
100
AcDbLine
 10
8473.599999999999
 20
6290.878363921562
 30
0.0
 11
8473.599999999999
 21
6420.878363921564
 31
0.0
  0
LINE
  5
1D955
330
747D
100
AcDbEntity
  8
センター
 48
2.0
100
AcDbLine
 10
8580.600000000005
 20
6368.878363921547
 30
0.0
 11
8580.600000000005
 21
6268.878363921547
 31
0.0
  0
LINE
  5
1D956
330
747D
100
AcDbEntity
  8
部品1
 48
50.0
100
AcDbLine
 10
8113.599999999999
 20
7800.878363921545
 30
0.0
 11
8113.599999999998
 21
7920.878363921545
 31
0.0
  0
LINE
  5
1D957
330
747D
100
AcDbEntity
  8
部品1
 48
50.0
100
AcDbLine
 10
7913.599999999999
 20
7800.878363921545
 30
0.0
 11
7913.599999999998
 21
7920.878363921545
 31
0.0
  0
DIMENSION
  5
1D959
330
747D
100
AcDbEntity
  8
寸法
 48
50.0
100
AcDbDimension
  2
*D17
 10
8387.488445638419
 20
7800.878363921545
 30
0.0
 11
8387.488445638416
 21
8156.925608016035
 31
0.0
 70
   160
 71
     5
 42
120.0000000000009
  3
INABA_S40G
100
AcDbAlignedDimension
 13
8580.599999999998
 23
7920.878363921545
 33
0.0
 14
8473.599999999999
 24
7800.878363921545
 34
0.0
 50
90.0
100
AcDbRotatedDimension
1001
ACAD
1000
DSTYLE
1002
{
1070
   174
1070
     0
1070
   272
1070
     1
1070
   288
1070
     0
1070
   341
1005
0
1002
}
  0
LINE
  5
1D95A
330
747D
100
AcDbEntity
  8
センター
 48
2.0
100
AcDbLine
 10
8530.599999999997
 20
7797.878363921545
 30
0.0
 11
8630.599999999999
 21
7797.878363921545
 31
0.0
  0
CIRCLE
  5
1D95B
330
747D
100
AcDbEntity
  8
部品1
 48
50.0
100
AcDbCircle
 10
8580.599999999998
 20
7797.878363921545
 30
0.0
 40
35.0
  0
LINE
  5
1D95C
330
747D
100
AcDbEntity
  8
部品1
 48
50.0
100
AcDbLine
 10
8583.599999999998
 20
7690.878363921545
 30
0.0
 11
8473.599999999999
 21
7690.878363921545
 31
0.0
  0
LINE
  5
1D95D
330
747D
100
AcDbEntity
  8
部品1
 48
50.0
100
AcDbLine
 10
8473.599999999999
 20
7690.878363921545
 30
0.0
 11
8473.599999999999
 21
7800.878363921545
 31
0.0
  0
LINE
  5
1D95E
330
747D
100
AcDbEntity
  8
部品1
 48
50.0
100
AcDbLine
 10
8703.599999999999
 20
7120.878363921545
 30
0.0
 11
8583.599999999998
 21
7120.878363921547
 31
0.0
  0
LINE
  5
1D95F
330
747D
100
AcDbEntity
  8
部品1
 48
50.0
100
AcDbLine
 10
8703.599999999999
 20
6920.878363921545
 30
0.0
 11
8583.599999999998
 21
6920.878363921545
 31
0.0
  0
LINE
  5
1D961
330
747D
100
AcDbEntity
  8
センター
 48
2.0
100
AcDbLine
 10
8580.599999999998
 20
7847.878363921545
 30
0.0
 11
8580.599999999998
 21
7747.878363921545
 31
0.0
  0
TEXT
  5
1DEDA
330
747D
100
AcDbEntity
  8
文字
 62
     7
 48
50.0
100
AcDbText
 10
13188.16259899338
 20
79.80631269190325
 30
0.0
 40
80.0
  1
※布基礎には換気口を設けてください。
  7
STYLE2
100
AcDbText
  0
MTEXT
  5
1E700
102
{ACAD_REACTORS
330
1E701
102
}
330
747D
100
AcDbEntity
  8
部品1
 62
     7
 48
50.0
100
AcDbMText
 10
9753.416979436106
 20
8163.903807729496
 30
0.0
 40
120.0
 41
0.0
 71
     6
 72
     1
  1
基礎ボルト芯
  7
STYLE1
 73
     1
 44
1.0
1001
ACAD
1000
MTEXTBEGIN
1070
    73
1070
     1
1070
    44
1040
1.0
1070
    74
1070
     0
1000
MTEXTEND
  0
LEADER
  5
1E701
330
747D
100
AcDbEntity
  8
寸法
 48
50.0
100
AcDbLeader
  3
INABA_S40G
 71
     0
 73
     0
 74
     0
 75
     1
 40
120.0
 41
846.0000000000002
 76
     3
 10
8580.599999999998
 20
7797.878363921545
 30
0.0
 10
8767.416979436106
 20
8063.903807729497
 30
0.0
 10
8867.416979436105
 20
8063.903807729497
 30
0.0
340
1E700
1001
ACAD
1000
DSTYLE
1002
{
1070
   174
1070
     0
1070
   272
1070
     1
1070
   288
1070
     0
1070
   341
1005
0
1002
}
  0
LINE
  5
1F232
330
747D
100
AcDbEntity
  8
部品1
 48
50.0
100
AcDbLine
 10
8113.599999999998
 20
6957.878363921543
 30
0.0
 11
8113.599999999998
 21
7157.878363921546
 31
0.0
  0
LINE
  5
1F233
330
747D
100
AcDbEntity
  8
センター
 48
2.0
100
AcDbLine
 10
7963.599999999998
 20
7057.878363921545
 30
0.0
 11
8063.599999999999
 21
7057.878363921545
 31
0.0
  0
LINE
  5
1F234
330
747D
100
AcDbEntity
  8
センター
 48
2.0
100
AcDbLine
 10
8013.599999999998
 20
7107.878363921546
 30
0.0
 11
8013.599999999998
 21
7007.878363921546
 31
0.0
  0
LINE
  5
1F235
330
747D
100
AcDbEntity
  8
部品1
 48
50.0
100
AcDbLine
 10
7913.599999999998
 20
6957.878363921546
 30
0.0
 11
7913.599999999998
 21
7157.878363921546
 31
0.0
  0
LINE
  5
1F236
330
747D
100
AcDbEntity
  8
部品1
 48
50.0
100
AcDbLine
 10
8113.599999999998
 20
7157.878363921546
 30
0.0
 11
7913.599999999998
 21
7157.878363921546
 31
0.0
  0
LINE
  5
1F237
330
747D
100
AcDbEntity
  8
部品1
 48
50.0
100
AcDbLine
 10
8113.599999999998
 20
6957.878363921543
 30
0.0
 11
7913.599999999998
 21
6957.878363921543
 31
0.0
  0
DIMENSION
  5
1F2B6
330
747D
100
AcDbEntity
  8
寸法
 48
50.0
100
AcDbDimension
  2
*D18
 10
8201.156431984797
 20
7920.878363921545
 30
0.0
 11
8101.156431984795
 21
7489.378363921547
 31
0.0
 70
    32
 71
     5
 42
863.0
  3
INABA_S40G
100
AcDbAlignedDimension
 13
8063.599999999999
 23
7057.878363921545
 33
0.0
 14
8113.599999999998
 24
7920.878363921545
 34
0.0
 50
90.0
100
AcDbRotatedDimension
1001
ACAD
1000
DSTYLE
1002
{
1070
   174
1070
     0
1070
   272
1070
     1
1070
   279
1070
     1
1070
   288
1070
     0
1070
   341
1005
0
1002
}
  0
DIMENSION
  5
1F2D0
330
747D
100
AcDbEntity
  8
寸法
 48
50.0
100
AcDbDimension
  2
*D19
 10
8201.156431984797
 20
6120.878363921555
 30
0.0
 11
8101.156431984795
 21
6589.378363921551
 31
0.0
 70
    32
 71
     5
 42
936.9999999999908
  3
INABA_S40G
100
AcDbAlignedDimension
 13
8063.599999999999
 23
7057.878363921545
 33
0.0
 14
8113.600000000014
 24
6120.878363921555
 34
0.0
 50
90.0
100
AcDbRotatedDimension
1001
ACAD
1000
DSTYLE
1002
{
1070
   174
1070
     0
1070
   272
1070
     1
1070
   279
1070
     1
1070
   288
1070
     0
1070
   341
1005
0
1002
}
  0
DIMENSION
  5
1F6E5
330
747D
100
AcDbEntity
  8
寸法
 48
50.0
100
AcDbDimension
  2
*D20
 10
8013.599999999998
 20
8510.492239328247
 30
0.0
 11
7668.599999999999
 21
8610.492239328246
 31
0.0
 70
    32
 71
     5
 42
690.0
  3
INABA_S40G
100
AcDbAlignedDimension
 13
7323.599999999998
 23
7920.878363921545
 33
0.0
 14
8013.599999999998
 24
7107.878363921546
 34
0.0
100
AcDbRotatedDimension
1001
ACAD
1000
DSTYLE
1002
{
1070
   174
1070
     0
1070
   272
1070
     1
1070
   279
1070
     1
1070
   288
1070
     0
1070
   341
1005
0
1002
}
  0
DIMENSION
  5
1F6F2
330
747D
100
AcDbEntity
  8
寸法
 48
50.0
100
AcDbDimension
  2
*D21
 10
8703.599999999999
 20
8510.492239328247
 30
0.0
 11
8358.599999999999
 21
8610.492239328246
 31
0.0
 70
    32
 71
     5
 42
690.0
  3
INABA_S40G
100
AcDbAlignedDimension
 13
8013.599999999998
 23
7107.878363921546
 33
0.0
 14
8703.599999999999
 24
7920.878363921545
 34
0.0
100
AcDbRotatedDimension
1001
ACAD
1000
DSTYLE
1002
{
1070
   174
1070
     0
1070
   272
1070
     1
1070
   279
1070
     1
1070
   288
1070
     0
1070
   341
1005
0
1002
}
  0
MTEXT
  5
1F710
102
{ACAD_REACTORS
330
1F711
102
}
330
747D
100
AcDbEntity
  8
部品1
 62
     7
 48
50.0
100
AcDbMText
 10
8421.73108710452
 20
6878.53752285337
 30
0.0
 40
120.0
 41
0.0
 71
     6
 72
     1
  1
\A1;C.B
  7
STYLE1
 73
     1
 44
1.0
1001
ACAD
1000
MTEXTBEGIN
1070
    73
1070
     1
1070
    44
1040
1.0
1070
    74
1070
     0
1000
MTEXTEND
  0
LEADER
  5
1F711
330
747D
100
AcDbEntity
  8
寸法
 48
50.0
100
AcDbLeader
  3
INABA_S50G
 71
     0
 73
     0
 74
     0
 75
     1
 40
120.0
 41
185.591883092037
 76
     3
 10
7950.88216719823
 20
7009.167698153011
 30
0.0
 10
8014.719844569219
 20
6795.612207060876
 30
0.0
 10
8139.719844569219
 20
6795.612207060876
 30
0.0
340
1F710
210
0.0
220
0.0
230
-1.0
213
-71.41935944326269
223
-47.92531579249407
233
0.0
1001
ACAD
1000
DSTYLE
1002
{
1070
   341
1005
1C530
1070
    40
1040
1.0
1070
   343
1005
1C530
1070
   344
1005
1C530
1002
}
  0
HATCH
  5
1F764
330
747D
100
AcDbEntity
  8
細線
 48
50.0
100
AcDbHatch
 10
0.0
 20
0.0
 30
0.0
210
0.0
220
0.0
230
1.0
  2
LINE
 70
     0
 71
     0
 91
        1
 92
        7
 72
     0
 73
     1
 93
        4
 10
8703.599999999999
 20
7120.878363921547
 10
8583.599999999998
 20
7120.878363921547
 10
8583.599999999998
 20
6920.878363921547
 10
8703.599999999999
 20
6920.878363921545
 97
        0
 75
     0
 76
     1
 52
45.0
 41
10.0
 77
     0
 78
     1
 53
45.0
 43
0.0
 44
0.0
 45
-22.45064030267288
 46
22.45064030267288
 79
     0
 47
2.342965331093004
 98
        1
 10
8625.283135770542
 20
7031.506824992819
  0
HATCH
  5
1F781
330
747D
100
AcDbEntity
  8
細線
 48
50.0
100
AcDbHatch
 10
0.0
 20
0.0
 30
0.0
210
0.0
220
0.0
230
1.0
  2
LINE
 70
     0
 71
     0
 91
        1
 92
        7
 72
     0
 73
     1
 93
        4
 10
7443.599999999999
 20
7120.878363921547
 10
7323.599999999998
 20
7120.878363921545
 10
7323.599999999998
 20
6920.878363921547
 10
7443.599999999996
 20
6920.878363921544
 97
        0
 75
     0
 76
     1
 52
45.0
 41
10.0
 77
     0
 78
     1
 53
45.0
 43
0.0
 44
0.0
 45
-22.45064030267288
 46
22.45064030267288
 79
     0
 47
2.342965331093004
 98
        1
 10
7378.236486655201
 20
7029.163874887996
  0
HATCH
  5
1F79E
330
747D
100
AcDbEntity
  8
細線
 48
50.0
100
AcDbHatch
 10
0.0
 20
0.0
 30
0.0
210
0.0
220
0.0
230
1.0
  2
LINE
 70
     0
 71
     0
 91
        1
 92
        7
 72
     0
 73
     1
 93
        4
 10
8113.600000000001
 20
7920.878363921547
 10
7913.599999999998
 20
7920.878363921545
 10
7913.599999999998
 20
7800.878363921547
 10
8113.600000000001
 20
7800.878363921545
 97
        0
 75
     0
 76
     1
 52
45.0
 41
10.0
 77
     0
 78
     1
 53
45.0
 43
0.0
 44
0.0
 45
-22.45064030267288
 46
22.45064030267288
 79
     0
 47
2.342965331093004
 98
        1
 10
7999.41572286318
 20
7886.689198281183
  0
DIMENSION
  5
1F7B3
330
747D
100
AcDbEntity
  8
寸法
 48
50.0
100
AcDbDimension
  2
*D22
 10
8387.488445638421
 20
7690.878363921545
 30
0.0
 11
8387.488445638421
 21
7690.878363921545
 31
0.0
 70
   160
 71
     5
 42
110.0
  3
INABA_S40G
100
AcDbAlignedDimension
 13
8473.599999999999
 23
7800.878363921544
 33
0.0
 14
8473.599999999999
 24
7690.878363921545
 34
0.0
 50
90.0
100
AcDbRotatedDimension
1001
ACAD
1000
DSTYLE
1002
{
1070
   174
1070
     0
1070
   272
1070
     1
1070
   279
1070
     1
1070
   288
1070
     0
1070
   341
1005
0
1002
}
  0
DIMENSION
  5
1F7C2
330
747D
100
AcDbEntity
  8
寸法
 48
50.0
100
AcDbDimension
  2
*D23
 10
8583.599999999998
 20
6576.093489298957
 30
0.0
 11
8493.201468801883
 21
6679.487482684253
 31
0.0
 70
   160
 71
     5
 42
110.0
  3
INABA_S40G
100
AcDbAlignedDimension
 13
8473.599999999999
 23
6420.878363921564
 33
0.0
 14
8583.599999999998
 24
6420.878363921563
 34
0.0
100
AcDbRotatedDimension
1001
ACAD
1000
DSTYLE
1002
{
1070
   174
1070
     0
1070
   272
1070
     1
1070
   279
1070
     2
1070
   288
1070
     0
1070
   341
1005
0
1002
}
  0
MTEXT
  5
1FA65
102
{ACAD_REACTORS
330
1FA66
102
}
330
747D
100
AcDbEntity
  8
寸法
 62
     7
 48
50.0
100
AcDbMText
 10
10320.16766468054
 20
2195.998374297414
 30
0.0
 40
120.0
 41
0.8
 71
     4
 72
     1
  1
\A1;C.B
  7
STYLE1
 73
     1
 44
1.0
1001
ACAD
1000
MTEXTBEGIN
1070
    73
1070
     1
1070
    44
1040
1.0
1070
    74
1070
     0
1000
MTEXTEND
  0
LEADER
  5
1FA66
330
747D
100
AcDbEntity
  8
寸法
 48
50.0
100
AcDbLeader
  3
INABA_S50G
 73
     0
 74
     0
 75
     1
 40
120.0
 41
185.591883092037
 76
     3
 10
10137.0294580469
 20
1938.852053616276
 30
0.0
 10
10170.16766468054
 20
2110.998374297414
 30
0.0
 10
10295.16766468054
 20
2110.998374297414
 30
0.0
340
1FA65
1001
ACAD
1000
DSTYLE
1002
{
1070
    40
1040
1.0
1002
}
  0
LINE
  5
1FA67
330
747D
100
AcDbEntity
  8
細線
 48
50.0
100
AcDbLine
 10
10282.6828716233
 20
1583.153137962925
 30
0.0
 11
10276.25209100496
 21
1607.153137962925
 31
0.0
  0
LINE
  5
1FA68
330
747D
100
AcDbEntity
  8
細線
 48
50.0
100
AcDbLine
 10
10261.24693622882
 20
1503.153137962925
 30
0.0
 11
10267.67771684716
 21
1479.153137962925
 31
0.0
  0
LINE
  5
1FA69
330
747D
100
AcDbEntity
  8
部品1
100
AcDbLine
 10
10326.30504643097
 20
1698.852053616276
 30
0.0
 11
10326.30504643097
 21
1479.153137962926
 31
0.0
  0
LINE
  5
1FA6A
330
747D
100
AcDbEntity
  8
細線
 48
50.0
100
AcDbLine
 10
10254.81615561046
 20
1479.153137962925
 30
0.0
 11
10289.11365224165
 21
1607.153137962923
 31
0.0
  0
LINE
  5
1FA6B
330
747D
100
AcDbEntity
  8
細線
 48
50.0
100
AcDbLine
 10
10203.79482667606
 20
1583.153137962925
 30
0.0
 11
10197.36404605771
 21
1607.153137962925
 31
0.0
  0
LINE
  5
1FA6C
330
747D
100
AcDbEntity
  8
細線
100
AcDbLine
 10
10079.3414409303
 20
1607.153137962928
 30
0.0
 11
10171.04035658365
 21
1698.852053616276
 31
0.0
  0
LINE
  5
1FA6D
330
747D
100
AcDbEntity
  8
細線
 48
50.0
100
AcDbLine
 10
10124.9067817288
 20
1583.153137962926
 30
0.0
 11
10118.47600111045
 21
1607.153137962926
 31
0.0
  0
LINE
  5
1FA6E
330
747D
100
AcDbEntity
  8
細線
100
AcDbLine
 10
10113.28256642726
 20
1607.153137962928
 30
0.0
 11
10204.9814820806
 21
1698.852053616276
 31
0.0
  0
LINE
  5
1FA6F
330
747D
100
AcDbEntity
  8
細線
 48
50.0
100
AcDbLine
 10
9888.242646887073
 20
1583.153137962926
 30
0.0
 11
9881.811866268726
 21
1607.153137962926
 31
0.0
  0
LINE
  5
1FA70
330
747D
100
AcDbEntity
  8
細線
 48
50.0
100
AcDbLine
 10
9967.13069183432
 20
1583.153137962926
 30
0.0
 11
9960.699911215975
 21
1607.153137962926
 31
0.0
  0
LINE
  5
1FA71
330
747D
100
AcDbEntity
  8
細線
 48
50.0
100
AcDbLine
 10
10046.01873678156
 20
1583.153137962926
 30
0.0
 11
10039.58795616322
 21
1607.153137962926
 31
0.0
  0
LINE
  5
1FA72
330
747D
100
AcDbEntity
  8
細線
 48
50.0
100
AcDbLine
 10
10182.35889128157
 20
1503.153137962925
 30
0.0
 11
10188.78967189992
 21
1479.153137962925
 31
0.0
  0
LINE
  5
1FA73
330
747D
100
AcDbEntity
  8
細線
 48
50.0
100
AcDbLine
 10
10103.47084633432
 20
1503.153137962926
 30
0.0
 11
10109.90162695268
 21
1479.153137962926
 31
0.0
  0
LINE
  5
1FA74
330
747D
100
AcDbEntity
  8
細線
 48
50.0
100
AcDbLine
 10
9945.694756439831
 20
1503.153137962926
 30
0.0
 11
9952.125537058178
 21
1479.153137962926
 31
0.0
  0
LINE
  5
1FA75
330
747D
100
AcDbEntity
  8
細線
 48
50.0
100
AcDbLine
 10
10024.58280138707
 20
1503.153137962926
 30
0.0
 11
10031.01358200542
 21
1479.153137962926
 31
0.0
  0
LINE
  5
1FA76
330
747D
100
AcDbEntity
  8
細線
 48
50.0
100
AcDbLine
 10
10018.15202076872
 20
1479.153137962926
 30
0.0
 11
10052.44951739991
 21
1607.153137962925
 31
0.0
  0
LINE
  5
1FA77
330
747D
100
AcDbEntity
  8
細線
 48
50.0
100
AcDbLine
 10
9939.263975821482
 20
1479.153137962925
 30
0.0
 11
9973.561472452665
 21
1607.153137962925
 31
0.0
  0
LINE
  5
1FA78
330
747D
100
AcDbEntity
  8
細線
 48
50.0
100
AcDbLine
 10
10097.04006571597
 20
1479.153137962925
 30
0.0
 11
10131.33756234714
 21
1607.153137962926
 31
0.0
  0
LINE
  5
1FA79
330
747D
100
AcDbEntity
  8
細線
100
AcDbLine
 10
10147.22369192421
 20
1607.153137962928
 30
0.0
 11
10238.92260757756
 21
1698.852053616276
 31
0.0
  0
LINE
  5
1FA7A
330
747D
100
AcDbEntity
  8
細線
 48
50.0
100
AcDbLine
 10
10175.92811066322
 20
1479.153137962923
 30
0.0
 11
10210.2256072944
 21
1607.153137962923
 31
0.0
  0
LINE
  5
1FA7B
330
747D
100
AcDbEntity
  8
部品1
100
AcDbLine
 10
10206.30504643097
 20
1938.852053616276
 30
0.0
 11
10206.30504643097
 21
1698.852053616276
 31
0.0
  0
LINE
  5
1FA7C
330
747D
100
AcDbEntity
  8
細線
100
AcDbLine
 10
10192.46738408339
 20
1698.852053616278
 30
0.0
 11
9952.467384083396
 21
1938.852053616276
 31
0.0
  0
LINE
  5
1FA7D
330
747D
100
AcDbEntity
  8
細線
100
AcDbLine
 10
10141.55569583796
 20
1698.852053616276
 30
0.0
 11
9901.555695837965
 21
1938.852053616276
 31
0.0
  0
LINE
  5
1FA7E
330
747D
100
AcDbEntity
  8
細線
100
AcDbLine
 10
9753.282566427261
 20
1607.153137962926
 30
0.0
 11
9844.981482080607
 21
1698.852053616276
 31
0.0
  0
LINE
  5
1FA7F
330
747D
100
AcDbEntity
  8
細線
100
AcDbLine
 10
9719.341440930303
 20
1607.153137962926
 30
0.0
 11
9811.040356583653
 21
1698.852053616276
 31
0.0
  0
LINE
  5
1FA80
330
747D
100
AcDbEntity
  8
細線
 48
50.0
100
AcDbLine
 10
9730.466556992574
 20
1583.153137962926
 30
0.0
 11
9724.035776374229
 21
1607.153137962926
 31
0.0
  0
LINE
  5
1FA81
330
747D
100
AcDbEntity
  8
細線
 48
50.0
100
AcDbLine
 10
9809.354601939828
 20
1583.153137962926
 30
0.0
 11
9802.923821321481
 21
1607.153137962926
 31
0.0
  0
LINE
  5
1FA82
330
747D
100
AcDbEntity
  8
細線
 48
50.0
100
AcDbLine
 10
9651.578512045325
 20
1583.153137962926
 30
0.0
 11
9645.147731426977
 21
1607.153137962926
 31
0.0
  0
LINE
  5
1FA83
330
747D
100
AcDbEntity
  8
細線
 48
50.0
100
AcDbLine
 10
9866.806711492584
 20
1503.153137962926
 30
0.0
 11
9873.237492110931
 21
1479.153137962926
 31
0.0
  0
LINE
  5
1FA84
330
747D
100
AcDbEntity
  8
細線
 48
50.0
100
AcDbLine
 10
9787.918666545339
 20
1503.153137962926
 30
0.0
 11
9794.349447163684
 21
1479.153137962926
 31
0.0
  0
LINE
  5
1FA85
330
747D
100
AcDbEntity
  8
細線
 48
50.0
100
AcDbLine
 10
9630.142576650834
 20
1503.153137962926
 30
0.0
 11
9636.573357269183
 21
1479.153137962926
 31
0.0
  0
LINE
  5
1FA86
330
747D
100
AcDbEntity
  8
細線
 48
50.0
100
AcDbLine
 10
9709.030621598087
 20
1503.153137962926
 30
0.0
 11
9715.461402216433
 21
1479.153137962926
 31
0.0
  0
LINE
  5
1FA87
330
747D
100
AcDbEntity
  8
部品1
100
AcDbLine
 10
9606.305046430975
 20
1479.153137962922
 30
0.0
 11
9606.305046430975
 21
1698.852053616276
 31
0.0
  0
LINE
  5
1FA88
330
747D
100
AcDbEntity
  8
細線
 48
50.0
100
AcDbLine
 10
9623.711796032488
 20
1479.153137962926
 30
0.0
 11
9658.009292663672
 21
1607.153137962926
 31
0.0
  0
LINE
  5
1FA89
330
747D
100
AcDbEntity
  8
細線
 48
50.0
100
AcDbLine
 10
9781.487885926985
 20
1479.153137962926
 30
0.0
 11
9815.78538255817
 21
1607.153137962926
 31
0.0
  0
LINE
  5
1FA8A
330
747D
100
AcDbEntity
  8
細線
 48
50.0
100
AcDbLine
 10
9702.599840979734
 20
1479.153137962925
 30
0.0
 11
9736.897337610917
 21
1607.153137962925
 31
0.0
  0
LINE
  5
1FA8B
330
747D
100
AcDbEntity
  8
部品1
100
AcDbLine
 10
9726.305046430974
 20
1698.852053616276
 30
0.0
 11
9726.305046430974
 21
1938.852053616276
 31
0.0
  0
TEXT
  5
1FA8C
330
747D
100
AcDbEntity
  8
部品1
 48
50.0
100
AcDbText
 10
8962.186959672472
 20
1432.052312978967
 30
0.0
 40
80.0
  1
ボルトの出
 50
90.0
  7
STYLE2
100
AcDbText
  0
LINE
  5
1FA8D
330
747D
100
AcDbEntity
  8
細線
100
AcDbLine
 10
9870.026691862328
 20
1698.852053616276
 30
0.0
 11
9726.305046430974
 21
1842.573699047629
 31
0.0
  0
LWPOLYLINE
  5
1FA8E
330
747D
100
AcDbEntity
  8
部品1
 48
50.0
100
AcDbPolyline
 90
        2
 70
     0
 43
8.0
 10
9341.693784330585
 20
1698.852053616276
 10
10542.78608746221
 20
1698.852053616276
  0
LINE
  5
1FA8F
330
747D
100
AcDbEntity
  8
細線
100
AcDbLine
 10
9787.223691924218
 20
1607.153137962926
 30
0.0
 11
9878.922607577564
 21
1698.852053616276
 31
0.0
  0
LINE
  5
1FA90
330
747D
100
AcDbEntity
  8
部品1
100
AcDbLine
 10
9606.305046430975
 20
1607.153137962926
 30
0.0
 11
10326.30504643097
 21
1607.153137962929
 31
0.0
  0
LINE
  5
1FA91
330
747D
100
AcDbEntity
  8
部品1
100
AcDbLine
 10
9606.305046430975
 20
1479.153137962922
 30
0.0
 11
10326.30504643097
 21
1479.153137962926
 31
0.0
  0
LINE
  5
1FA92
330
747D
100
AcDbEntity
  8
細線
 48
50.0
100
AcDbLine
 10
9860.375930874234
 20
1479.153137962926
 30
0.0
 11
9894.673427505418
 21
1607.153137962925
 31
0.0
  0
LINE
  5
1FA93
330
747D
100
AcDbEntity
  8
部品1
100
AcDbLine
 10
9726.305046430974
 20
1938.852053616276
 30
0.0
 11
10206.30504643097
 21
1938.852053616276
 31
0.0
  0
LINE
  5
1FA94
330
747D
100
AcDbEntity
  8
細線
100
AcDbLine
 10
9920.938380107759
 20
1698.852053616276
 30
0.0
 11
9726.305046430974
 21
1893.485387293059
 31
0.0
  0
LINE
  5
1FA95
330
747D
100
AcDbEntity
  8
部品1
100
AcDbLine
 10
10913.046547528
 20
370.8026331538358
 30
0.0
 11
10913.04654752801
 21
3335.109602738483
 31
0.0
  0
TEXT
  5
1FA96
330
747D
100
AcDbEntity
  8
部品1
100
AcDbText
 10
7534.941363320147
 20
3155.557670787055
 30
0.0
 40
120.0
  1
基礎詳細
  7
STYLE2
100
AcDbText
  0
LINE
  5
1FA97
330
747D
100
AcDbEntity
  8
部品1
 48
50.0
100
AcDbLine
 10
7850.169114128218
 20
2337.727334725419
 30
0.0
 11
7866.169114128218
 21
2329.727334725419
 31
0.0
  0
LINE
  5
1FA98
330
747D
100
AcDbEntity
  8
細線
 48
50.0
100
AcDbLine
 10
7818.169114128217
 20
2289.727334725419
 30
0.0
 11
7818.169114128217
 21
2321.727334725419
 31
0.0
  0
LINE
  5
1FA99
330
747D
100
AcDbEntity
  8
部品1
 48
50.0
100
AcDbLine
 10
7866.169114128218
 20
2297.727334725419
 30
0.0
 11
7866.169114128218
 21
2329.727334725419
 31
0.0
  0
LINE
  5
1FA9A
330
747D
100
AcDbEntity
  8
細線
 48
50.0
100
AcDbLine
 10
7850.169114128218
 20
2289.727334725419
 30
0.0
 11
7850.169114128218
 21
2321.727334725419
 31
0.0
  0
LINE
  5
1FA9B
330
747D
100
AcDbEntity
  8
部品1
 48
50.0
100
AcDbLine
 10
7850.169114128218
 20
2321.727334725419
 30
0.0
 11
7866.169114128218
 21
2329.727334725419
 31
0.0
  0
LINE
  5
1FA9C
330
747D
100
AcDbEntity
  8
部品1
 48
50.0
100
AcDbLine
 10
7818.169114128217
 20
2321.727334725419
 30
0.0
 11
7850.169114128218
 21
2321.727334725419
 31
0.0
  0
LINE
  5
1FA9D
330
747D
100
AcDbEntity
  8
部品1
 48
50.0
100
AcDbLine
 10
7850.169114128218
 20
2289.727334725419
 30
0.0
 11
7866.169114128218
 21
2297.727334725419
 31
0.0
  0
LINE
  5
1FA9E
330
747D
100
AcDbEntity
  8
部品1
 48
50.0
100
AcDbLine
 10
7818.169114128217
 20
2289.727334725419
 30
0.0
 11
7850.169114128218
 21
2289.727334725419
 31
0.0
  0
ELLIPSE
  5
1FA9F
330
747D
100
AcDbEntity
  8
細線
 48
50.0
100
AcDbEllipse
 10
7834.169114128217
 20
2329.727334725419
 30
0.0
 11
14.76670786606846
 21
0.0
 31
0.0
210
0.0
220
0.0
230
1.0
 40
0.2071254069489396
 41
0.0
 42
6.283185307179586
  0
LINE
  5
1FAA0
330
747D
100
AcDbEntity
  8
部品1
 48
50.0
100
AcDbLine
 10
7818.169114128217
 20
2337.727334725419
 30
0.0
 11
7850.169114128218
 21
2337.727334725419
 31
0.0
  0
LINE
  5
1FAA1
330
747D
100
AcDbEntity
  8
部品1
 48
50.0
100
AcDbLine
 10
7802.169114128218
 20
2297.727334725419
 30
0.0
 11
7802.169114128218
 21
2329.727334725419
 31
0.0
  0
LINE
  5
1FAA2
330
747D
100
AcDbEntity
  8
部品1
 48
50.0
100
AcDbLine
 10
7802.169114128218
 20
2329.727334725419
 30
0.0
 11
7818.169114128217
 21
2337.727334725419
 31
0.0
  0
LINE
  5
1FAA3
330
747D
100
AcDbEntity
  8
部品1
 48
50.0
100
AcDbLine
 10
7802.169114128218
 20
2297.727334725419
 30
0.0
 11
7818.169114128217
 21
2289.727334725419
 31
0.0
  0
LINE
  5
1FAA4
330
747D
100
AcDbEntity
  8
部品1
 48
50.0
100
AcDbLine
 10
7802.169114128218
 20
2329.727334725419
 30
0.0
 11
7818.169114128217
 21
2321.727334725419
 31
0.0
  0
LINE
  5
1FAA5
330
747D
100
AcDbEntity
  8
部品1
 48
50.0
100
AcDbLine
 10
7874.169114128218
 20
2198.375342060548
 30
0.0
 11
7874.169114128218
 21
2207.975342060549
 31
0.0
  0
ELLIPSE
  5
1FAA6
330
747D
100
AcDbEntity
  8
部品1
 48
50.0
100
AcDbEllipse
 10
7834.169114128217
 20
2207.975342060549
 30
0.0
 11
18.4
 21
0.0
 31
0.0
210
0.0
220
0.0
230
1.0
 40
0.3478260869565217
 41
0.0
 42
6.283185307179586
  0
ARC
  5
1FAA7
330
747D
100
AcDbEntity
  8
部品1
100
AcDbCircle
 10
7673.069114128217
 20
2036.952053616277
 30
0.0
 40
2.7
100
AcDbArc
 50
90.0
 51
180.0
  0
LINE
  5
1FAA8
330
747D
100
AcDbEntity
  8
部品1
100
AcDbLine
 10
7675.769114128216
 20
2050.452053616277
 30
0.0
 11
7718.069114128216
 21
2050.452053616273
 31
0.0
  0
LINE
  5
1FAA9
330
747D
100
AcDbEntity
  8
部品1
100
AcDbLine
 10
7673.069114128217
 20
2039.652053616276
 30
0.0
 11
7673.069114128217
 21
2047.752053616276
 31
0.0
  0
LINE
  5
1FAAA
330
747D
100
AcDbEntity
  8
部品1
100
AcDbLine
 10
7673.069114128217
 20
2039.652053616276
 30
0.0
 11
7673.069114128217
 21
2039.652053616276
 31
0.0
  0
ARC
  5
1FAAB
330
747D
100
AcDbEntity
  8
部品1
100
AcDbCircle
 10
7675.769114128216
 20
2047.752053616276
 30
0.0
 40
2.7
100
AcDbArc
 50
90.0
 51
180.0
  0
ARC
  5
1FAAC
330
747D
100
AcDbEntity
  8
部品1
100
AcDbCircle
 10
7718.069114128216
 20
2047.752053616273
 30
0.0
 40
2.7
100
AcDbArc
 50
0.0
 51
90.0
  0
LINE
  5
1FAAD
330
747D
100
AcDbEntity
  8
部品1
 48
50.0
100
AcDbLine
 10
7794.169114128218
 20
2207.975342060549
 30
0.0
 11
7794.169114128218
 21
2198.375342060548
 31
0.0
  0
ELLIPSE
  5
1FAAE
330
747D
100
AcDbEntity
  8
部品1
 48
50.0
100
AcDbEllipse
 10
7834.169114128217
 20
2198.375342060549
 30
0.0
 11
40.0
 21
0.0
 31
0.0
210
0.0
220
0.0
230
1.0
 40
0.4
 41
3.141592653589793
 42
6.283185307179586
  0
ELLIPSE
  5
1FAAF
330
747D
100
AcDbEntity
  8
部品1
 48
50.0
100
AcDbEllipse
 10
7834.169114128217
 20
2207.975342060549
 30
0.0
 11
40.0
 21
0.0
 31
0.0
210
0.0
220
0.0
230
1.0
 40
0.4
 41
0.0
 42
6.283185307179586
  0
LINE
  5
1FAB0
330
747D
100
AcDbEntity
  8
部品1
100
AcDbLine
 10
7828.769114128217
 20
1991.612053616276
 30
0.0
 11
7839.569114128217
 21
1991.612053616276
 31
0.0
  0
LINE
  5
1FAB1
330
747D
100
AcDbEntity
  8
部品1
100
AcDbLine
 10
7825.169114128218
 20
1988.012053616277
 30
0.0
 11
7843.169114128217
 21
1988.012053616277
 31
0.0
  0
LINE
  5
1FAB2
330
747D
100
AcDbEntity
  8
細線
100
AcDbLine
 10
7828.76911412822
 20
1948.412053616276
 30
0.0
 11
7828.769114128217
 21
1991.612053616276
 31
0.0
  0
LINE
  5
1FAB3
330
747D
100
AcDbEntity
  8
細線
100
AcDbLine
 10
7839.569114128217
 20
1948.412053616276
 30
0.0
 11
7839.569114128217
 21
1991.612053616276
 31
0.0
  0
LINE
  5
1FAB4
330
747D
100
AcDbEntity
  8
部品1
100
AcDbLine
 10
7741.469114128216
 20
2005.712053616277
 30
0.0
 11
7741.469114128216
 21
1988.612053616276
 31
0.0
  0
LINE
  5
1FAB5
330
747D
100
AcDbEntity
  8
部品1
100
AcDbLine
 10
7775.029114128217
 20
2005.712053616277
 30
0.0
 11
7775.029114128215
 21
1951.112053616276
 31
0.0
  0
ARC
  5
1FAB6
330
747D
100
AcDbEntity
  8
部品1
100
AcDbCircle
 10
7760.369114128216
 20
1993.752053616276
 30
0.0
 40
2.7
100
AcDbArc
 50
0.0
 51
90.0
  0
LINE
  5
1FAB7
330
747D
100
AcDbEntity
  8
部品1
100
AcDbLine
 10
7720.769114128216
 20
1996.452053616276
 30
0.0
 11
7760.369114128216
 21
1996.452053616276
 31
0.0
  0
ARC
  5
1FAB8
330
747D
100
AcDbEntity
  8
部品1
100
AcDbCircle
 10
7760.369114128216
 20
1951.112053616276
 30
0.0
 40
2.7
100
AcDbArc
 50
270.0
 51
0.0
  0
ARC
  5
1FAB9
330
747D
100
AcDbEntity
  8
部品1
100
AcDbCircle
 10
7777.729114128212
 20
1951.112053616276
 30
0.0
 40
2.7
100
AcDbArc
 50
180.0
 51
270.0
  0
LINE
  5
1FABA
330
747D
100
AcDbEntity
  8
部品1
100
AcDbLine
 10
7748.669114128218
 20
1948.412053616276
 30
0.0
 11
7760.369114128216
 21
1948.412053616276
 31
0.0
  0
LINE
  5
1FABB
330
747D
100
AcDbEntity
  8
部品1
100
AcDbLine
 10
7763.069114128217
 20
1993.752053616276
 30
0.0
 11
7763.069114128217
 21
1951.112053616276
 31
0.0
  0
ARC
  5
1FABC
330
747D
100
AcDbEntity
  8
部品1
100
AcDbCircle
 10
7772.329114128218
 20
2005.712053616277
 30
0.0
 40
2.7
100
AcDbArc
 50
0.0
 51
90.0
  0
ARC
  5
1FABD
330
747D
100
AcDbEntity
  8
部品1
100
AcDbCircle
 10
7744.169114128218
 20
2005.712053616277
 30
0.0
 40
2.7
100
AcDbArc
 50
90.0
 51
180.0
  0
LINE
  5
1FABE
330
747D
100
AcDbEntity
  8
部品1
100
AcDbLine
 10
7744.169114128218
 20
2008.412053616277
 30
0.0
 11
7772.329114128218
 21
2008.412053616277
 31
0.0
  0
LINE
  5
1FABF
330
747D
100
AcDbEntity
  8
部品1
100
AcDbLine
 10
7720.769114128216
 20
2047.752053616273
 30
0.0
 11
7720.769114128216
 21
1996.452053616276
 31
0.0
  0
LINE
  5
1FAC0
330
747D
100
AcDbEntity
  8
部品1
100
AcDbLine
 10
7670.369114128217
 20
2028.852053616276
 30
0.0
 11
7670.369114128217
 21
2036.952053616277
 31
0.0
  0
LINE
  5
1FAC1
330
747D
100
AcDbEntity
  8
部品1
100
AcDbLine
 10
7777.729114128212
 20
1948.412053616276
 30
0.0
 11
7979.069114128211
 21
1948.412053616276
 31
0.0
  0
LINE
  5
1FAC2
330
747D
100
AcDbEntity
  8
部品1
100
AcDbLine
 10
7619.069114128217
 20
1951.112053616276
 30
0.0
 11
7619.069114128217
 21
2013.243957318984
 31
0.0
  0
LINE
  5
1FAC3
330
747D
100
AcDbEntity
  8
部品1
100
AcDbLine
 10
7621.769114128217
 20
1948.412053616276
 30
0.0
 11
7633.46911412821
 21
1948.412053616276
 31
0.0
  0
LINE
  5
1FAC4
330
747D
100
AcDbEntity
  8
細線
 48
50.0
100
AcDbLine
 10
7612.769114128217
 20
1926.632629916181
 30
0.0
 11
7624.988537828311
 21
1938.852053616276
 31
0.0
  0
ARC
  5
1FAC5
330
747D
100
AcDbEntity
  8
部品1
100
AcDbCircle
 10
7621.769114128217
 20
1951.112053616276
 30
0.0
 40
2.7
100
AcDbArc
 50
180.0
 51
270.0
  0
LINE
  5
1FAC6
330
747D
100
AcDbEntity
  8
部品1
100
AcDbLine
 10
7621.114267940618
 20
2015.863342069376
 30
0.0
 11
7629.869114128218
 21
2018.052053616276
 31
0.0
  0
ARC
  5
1FAC7
330
747D
100
AcDbEntity
  8
部品1
100
AcDbCircle
 10
7621.769114128217
 20
2013.243957318984
 30
0.0
 40
2.7
100
AcDbArc
 50
104.0362434679067
 51
180.0
  0
ARC
  5
1FAC8
330
747D
100
AcDbEntity
  8
部品1
100
AcDbCircle
 10
7632.569114128216
 20
2026.152053616276
 30
0.0
 40
2.7
100
AcDbArc
 50
90.0
 51
180.0
  0
LINE
  5
1FAC9
330
747D
100
AcDbEntity
  8
部品1
100
AcDbLine
 10
7629.869114128218
 20
2018.052053616276
 30
0.0
 11
7629.869114128218
 21
2026.152053616276
 31
0.0
  0
TEXT
  5
1FACA
330
747D
100
AcDbEntity
  8
部品1
 48
50.0
100
AcDbText
 10
7186.323017548726
 20
2269.412574716752
 30
0.0
 40
80.0
  1
※(別売)
  7
STYLE2
100
AcDbText
  0
LINE
  5
1FACB
330
747D
100
AcDbEntity
  8
部品1
 48
50.0
100
AcDbLine
 10
7612.769114128217
 20
1938.852053616276
 30
0.0
 11
8026.769114128219
 21
1938.852053616276
 31
0.0
  0
LINE
  5
1FACC
330
747D
100
AcDbEntity
  8
細線
 48
50.0
100
AcDbLine
 10
7612.769114128217
 20
1872.751093189766
 30
0.0
 11
7678.870074554727
 21
1938.852053616276
 31
0.0
  0
LINE
  5
1FACD
330
747D
100
AcDbEntity
  8
細線
 48
50.0
100
AcDbLine
 10
7612.769114128217
 20
1899.691861552974
 30
0.0
 11
7651.929306191522
 21
1938.852053616276
 31
0.0
  0
LINE
  5
1FACE
330
747D
100
AcDbEntity
  8
部品1
100
AcDbLine
 10
7632.569114128216
 20
2028.852053616276
 30
0.0
 11
7670.369114128217
 21
2028.852053616276
 31
0.0
  0
LINE
  5
1FACF
330
747D
100
AcDbEntity
  8
部品1
 48
50.0
100
AcDbLine
 10
8026.769114128216
 20
1394.852053616276
 30
0.0
 11
8154.769114128216
 21
1394.852053616276
 31
0.0
  0
LINE
  5
1FAD0
330
747D
100
AcDbEntity
  8
部品1
100
AcDbLine
 10
7843.169114128217
 20
1713.852053616276
 30
0.0
 11
7879.169114128217
 21
1713.852053616276
 31
0.0
  0
LINE
  5
1FAD1
330
747D
100
AcDbEntity
  8
部品1
100
AcDbLine
 10
7843.169114128217
 20
1695.852053616276
 30
0.0
 11
7879.169114128217
 21
1695.852053616276
 31
0.0
  0
ARC
  5
1FAD2
330
747D
100
AcDbEntity
  8
部品1
100
AcDbCircle
 10
7843.169114128217
 20
1713.852053616276
 30
0.0
 40
18.0
100
AcDbArc
 50
180.0
 51
270.0
  0
LINE
  5
1FAD3
330
747D
100
AcDbEntity
  8
部品1
100
AcDbLine
 10
7879.169114128217
 20
1695.852053616276
 30
0.0
 11
7879.169114128217
 21
1713.852053616276
 31
0.0
  0
LINE
  5
1FAD4
330
747D
100
AcDbEntity
  8
部品1
100
AcDbLine
 10
7897.169114128217
 20
1614.852053616274
 30
0.0
 11
7771.169114128212
 21
1614.852053616274
 31
0.0
  0
LINE
  5
1FAD5
330
747D
100
AcDbEntity
  8
細線
 48
50.0
100
AcDbLine
 10
8191.146939320551
 20
1130.852053616274
 30
0.0
 11
8184.716158702206
 21
1154.852053616274
 31
0.0
  0
LINE
  5
1FAD6
330
747D
100
AcDbEntity
  8
細線
 48
50.0
100
AcDbLine
 10
8112.258894373306
 20
1130.852053616274
 30
0.0
 11
8105.828113754959
 21
1154.852053616274
 31
0.0
  0
LINE
  5
1FAD7
330
747D
100
AcDbEntity
  8
細線
 48
50.0
100
AcDbLine
 10
8033.37084942605
 20
1130.852053616276
 30
0.0
 11
8026.940068807702
 21
1154.852053616276
 31
0.0
  0
LINE
  5
1FAD8
330
747D
100
AcDbEntity
  8
細線
 48
50.0
100
AcDbLine
 10
8169.711003926062
 20
1050.852053616274
 30
0.0
 11
8176.141784544411
 21
1026.852053616274
 31
0.0
  0
LINE
  5
1FAD9
330
747D
100
AcDbEntity
  8
細線
 48
50.0
100
AcDbLine
 10
8090.822958978817
 20
1050.852053616274
 30
0.0
 11
8097.253739597162
 21
1026.852053616274
 31
0.0
  0
LINE
  5
1FADA
330
747D
100
AcDbEntity
  8
細線
 48
50.0
100
AcDbLine
 10
8011.934914031568
 20
1050.852053616276
 30
0.0
 11
8018.365694649926
 21
1026.852053616276
 31
0.0
  0
LINE
  5
1FADB
330
747D
100
AcDbEntity
  8
細線
 48
50.0
100
AcDbLine
 10
8084.392178360467
 20
1026.852053616273
 30
0.0
 11
8118.689674991649
 21
1154.852053616273
 31
0.0
  0
LINE
  5
1FADC
330
747D
100
AcDbEntity
  8
細線
 48
50.0
100
AcDbLine
 10
8005.504133413218
 20
1026.852053616274
 30
0.0
 11
8039.801630044392
 21
1154.852053616276
 31
0.0
  0
LINE
  5
1FADD
330
747D
100
AcDbEntity
  8
細線
 48
50.0
100
AcDbLine
 10
8163.280223307712
 20
1026.852053616274
 30
0.0
 11
8197.577719938896
 21
1154.852053616273
 31
0.0
  0
LINE
  5
1FADE
330
747D
100
AcDbEntity
  8
部品1
 48
50.0
100
AcDbLine
 10
8234.769114128219
 20
1154.852053616276
 30
0.0
 11
8234.769114128219
 21
1026.852053616276
 31
0.0
  0
LINE
  5
1FADF
330
747D
100
AcDbEntity
  8
細線
 48
50.0
100
AcDbLine
 10
7954.482804478812
 20
1130.852053616276
 30
0.0
 11
7948.052023860466
 21
1154.852053616276
 31
0.0
  0
LINE
  5
1FAE0
330
747D
100
AcDbEntity
  8
細線
 48
50.0
100
AcDbLine
 10
7875.594759531566
 20
1130.852053616276
 30
0.0
 11
7869.163978913218
 21
1154.852053616276
 31
0.0
  0
LINE
  5
1FAE1
330
747D
100
AcDbEntity
  8
細線
 48
50.0
100
AcDbLine
 10
7717.818669637073
 20
1130.852053616276
 30
0.0
 11
7711.387889018727
 21
1154.852053616276
 31
0.0
  0
LINE
  5
1FAE2
330
747D
100
AcDbEntity
  8
細線
 48
50.0
100
AcDbLine
 10
7796.706714584319
 20
1130.852053616276
 30
0.0
 11
7790.275933965972
 21
1154.852053616276
 31
0.0
  0
LINE
  5
1FAE3
330
747D
100
AcDbEntity
  8
細線
 48
50.0
100
AcDbLine
 10
7854.158824137076
 20
1050.852053616276
 30
0.0
 11
7860.589604755424
 21
1026.852053616276
 31
0.0
  0
LINE
  5
1FAE4
330
747D
100
AcDbEntity
  8
細線
 48
50.0
100
AcDbLine
 10
7933.046869084323
 20
1050.852053616276
 30
0.0
 11
7939.477649702668
 21
1026.852053616276
 31
0.0
  0
LINE
  5
1FAE5
330
747D
100
AcDbEntity
  8
細線
 48
50.0
100
AcDbLine
 10
7696.382734242584
 20
1050.852053616276
 30
0.0
 11
7702.813514860931
 21
1026.852053616276
 31
0.0
  0
LINE
  5
1FAE6
330
747D
100
AcDbEntity
  8
細線
 48
50.0
100
AcDbLine
 10
7775.27077918983
 20
1050.852053616276
 30
0.0
 11
7781.701559808176
 21
1026.852053616276
 31
0.0
  0
LINE
  5
1FAE7
330
747D
100
AcDbEntity
  8
細線
 48
50.0
100
AcDbLine
 10
7926.616088465969
 20
1026.852053616276
 30
0.0
 11
7960.913585097154
 21
1154.852053616274
 31
0.0
  0
LINE
  5
1FAE8
330
747D
100
AcDbEntity
  8
細線
 48
50.0
100
AcDbLine
 10
7768.839998571478
 20
1026.852053616276
 30
0.0
 11
7803.137495202664
 21
1154.852053616274
 31
0.0
  0
LINE
  5
1FAE9
330
747D
100
AcDbEntity
  8
細線
 48
50.0
100
AcDbLine
 10
7689.951953624232
 20
1026.852053616276
 30
0.0
 11
7724.249450255415
 21
1154.852053616276
 31
0.0
  0
LINE
  5
1FAEA
330
747D
100
AcDbEntity
  8
細線
 48
50.0
100
AcDbLine
 10
7847.728043518727
 20
1026.852053616274
 30
0.0
 11
7882.02554014991
 21
1154.852053616274
 31
0.0
  0
LINE
  5
1FAEB
330
747D
100
AcDbEntity
  8
細線
 48
50.0
100
AcDbLine
 10
7972.500809083026
 20
1154.852053616276
 30
0.0
 11
8154.769114128216
 21
1337.120358661472
 31
0.0
  0
LINE
  5
1FAEC
330
747D
100
AcDbEntity
  8
部品1
 48
50.0
100
AcDbLine
 10
8154.769114128216
 20
1394.852053616276
 30
0.0
 11
8154.769114128216
 21
1154.852053616276
 31
0.0
  0
LINE
  5
1FAED
330
747D
100
AcDbEntity
  8
細線
 48
50.0
100
AcDbLine
 10
7945.560040719822
 20
1154.852053616276
 30
0.0
 11
8154.769114128216
 21
1364.061127024669
 31
0.0
  0
LINE
  5
1FAEE
330
747D
100
AcDbEntity
  8
細線
 48
50.0
100
AcDbLine
 10
7918.619272356609
 20
1154.852053616276
 30
0.0
 11
8154.769114128216
 21
1391.001895387884
 31
0.0
  0
LINE
  5
1FAEF
330
747D
100
AcDbEntity
  8
細線
 48
50.0
100
AcDbLine
 10
7703.093125450951
 20
1154.852053616276
 30
0.0
 11
8026.769114128216
 21
1478.528042293542
 31
0.0
  0
LINE
  5
1FAF0
330
747D
100
AcDbEntity
  8
細線
 48
50.0
100
AcDbLine
 10
7756.974662177366
 20
1154.852053616276
 30
0.0
 11
8026.769114128216
 21
1424.646505567133
 31
0.0
  0
LINE
  5
1FAF1
330
747D
100
AcDbEntity
  8
細線
 48
50.0
100
AcDbLine
 10
7730.033893814162
 20
1154.852053616276
 30
0.0
 11
8026.769114128216
 21
1451.587273930329
 31
0.0
  0
LINE
  5
1FAF2
330
747D
100
AcDbEntity
  8
細線
 48
50.0
100
AcDbLine
 10
7484.769114128211
 20
1367.580336104862
 30
0.0
 11
7512.040831639632
 21
1394.852053616276
 31
0.0
  0
LINE
  5
1FAF3
330
747D
100
AcDbEntity
  8
部品1
 48
50.0
100
AcDbLine
 10
7484.769114128217
 20
1394.852053616276
 30
0.0
 11
7612.769114128217
 21
1394.852053616276
 31
0.0
  0
LINE
  5
1FAF4
330
747D
100
AcDbEntity
  8
細線
 48
50.0
100
AcDbLine
 10
7484.769114128211
 20
1340.639567741651
 30
0.0
 11
7538.981600002841
 21
1394.852053616276
 31
0.0
  0
LWPOLYLINE
  5
1FAF5
330
747D
100
AcDbEntity
  8
部品1
 48
50.0
100
AcDbPolyline
 90
        2
 70
     0
 43
8.0
 10
7198.62921229526
 20
1698.852053616277
 10
7612.769114128217
 20
1698.852053616277
  0
LINE
  5
1FAF6
330
747D
100
AcDbEntity
  8
細線
 48
50.0
100
AcDbLine
 10
7560.04257974257
 20
1130.852053616276
 30
0.0
 11
7553.611799124222
 21
1154.852053616276
 31
0.0
  0
LINE
  5
1FAF7
330
747D
100
AcDbEntity
  8
細線
 48
50.0
100
AcDbLine
 10
7638.930624689821
 20
1130.852053616276
 30
0.0
 11
7632.499844071475
 21
1154.852053616276
 31
0.0
  0
LINE
  5
1FAF8
330
747D
100
AcDbEntity
  8
細線
 48
50.0
100
AcDbLine
 10
7481.154534795319
 20
1130.852053616276
 30
0.0
 11
7474.72375417697
 21
1154.852053616276
 31
0.0
  0
LINE
  5
1FAF9
330
747D
100
AcDbEntity
  8
細線
 48
50.0
100
AcDbLine
 10
7404.769114128217
 20
1140.191974582056
 30
0.0
 11
7408.697270466412
 21
1154.852053616276
 31
0.0
  0
LINE
  5
1FAFA
330
747D
100
AcDbEntity
  8
細線
 48
50.0
100
AcDbLine
 10
7538.60664434808
 20
1050.852053616276
 30
0.0
 11
7545.037424966428
 21
1026.852053616276
 31
0.0
  0
LINE
  5
1FAFB
330
747D
100
AcDbEntity
  8
細線
 48
50.0
100
AcDbLine
 10
7617.494689295333
 20
1050.852053616276
 30
0.0
 11
7623.925469913679
 21
1026.852053616276
 31
0.0
  0
LINE
  5
1FAFC
330
747D
100
AcDbEntity
  8
細線
 48
50.0
100
AcDbLine
 10
7459.718599400829
 20
1050.852053616276
 30
0.0
 11
7466.149380019174
 21
1026.852053616276
 31
0.0
  0
LINE
  5
1FAFD
330
747D
100
AcDbEntity
  8
細線
 48
50.0
100
AcDbLine
 10
7611.063908676979
 20
1026.852053616274
 30
0.0
 11
7645.361405308162
 21
1154.852053616274
 31
0.0
  0
LINE
  5
1FAFE
330
747D
100
AcDbEntity
  8
細線
 48
50.0
100
AcDbLine
 10
7453.287818782475
 20
1026.852053616274
 30
0.0
 11
7487.585315413659
 21
1154.852053616274
 31
0.0
  0
LINE
  5
1FAFF
330
747D
100
AcDbEntity
  8
部品1
 48
50.0
100
AcDbLine
 10
7404.76911412822
 20
1026.852053616276
 30
0.0
 11
7404.76911412822
 21
1154.852053616276
 31
0.0
  0
LINE
  5
1FB00
330
747D
100
AcDbEntity
  8
細線
 48
50.0
100
AcDbLine
 10
7532.175863729733
 20
1026.852053616276
 30
0.0
 11
7566.473360360916
 21
1154.852053616276
 31
0.0
  0
LINE
  5
1FB01
330
747D
100
AcDbEntity
  8
部品1
 48
50.0
100
AcDbLine
 10
7484.769114128217
 20
1154.852053616276
 30
0.0
 11
7484.769114128217
 21
1394.852053616276
 31
0.0
  0
LINE
  5
1FB02
330
747D
100
AcDbEntity
  8
細線
 48
50.0
100
AcDbLine
 10
7484.769114128211
 20
1313.698799378447
 30
0.0
 11
7565.922368366045
 21
1394.852053616276
 31
0.0
  0
LINE
  5
1FB03
330
747D
100
AcDbEntity
  8
部品1
 48
50.0
100
AcDbLine
 10
8234.769114128219
 20
1026.852053616276
 30
0.0
 11
7404.76911412822
 21
1026.852053616276
 31
0.0
  0
LINE
  5
1FB04
330
747D
100
AcDbEntity
  8
部品1
 48
50.0
100
AcDbLine
 10
8234.769114128219
 20
1154.852053616276
 30
0.0
 11
7404.76911412822
 21
1154.852053616276
 31
0.0
  0
LINE
  5
1FB05
330
747D
100
AcDbEntity
  8
細線
 48
50.0
100
AcDbLine
 10
7487.566978545292
 20
1154.852053616276
 30
0.0
 11
8026.769114128216
 21
1694.054189199201
 31
0.0
  0
LINE
  5
1FB06
330
747D
100
AcDbEntity
  8
細線
 48
50.0
100
AcDbLine
 10
7514.507746908501
 20
1154.852053616276
 30
0.0
 11
8026.769114128219
 21
1667.11342083599
 31
0.0
  0
LINE
  5
1FB07
330
747D
100
AcDbEntity
  8
細線
 48
50.0
100
AcDbLine
 10
7541.448515271707
 20
1154.852053616276
 30
0.0
 11
8026.769114128216
 21
1640.172652472784
 31
0.0
  0
LINE
  5
1FB08
330
747D
100
AcDbEntity
  8
細線
 48
50.0
100
AcDbLine
 10
7612.769114128217
 20
1495.580336104862
 30
0.0
 11
7771.16911412821
 21
1653.980336104857
 31
0.0
  0
LINE
  5
1FB09
330
747D
100
AcDbEntity
  8
細線
 48
50.0
100
AcDbLine
 10
7612.769114128217
 20
1441.698799378447
 30
0.0
 11
7785.922368366053
 21
1614.852053616274
 31
0.0
  0
LINE
  5
1FB0A
330
747D
100
AcDbEntity
  8
細線
 48
50.0
100
AcDbLine
 10
7612.769114128217
 20
1468.639567741654
 30
0.0
 11
7771.16911412821
 21
1627.039567741643
 31
0.0
  0
LINE
  5
1FB0B
330
747D
100
AcDbEntity
  8
部品1
100
AcDbLine
 10
7771.169114128212
 20
1614.852053616276
 30
0.0
 11
7771.169114128217
 21
1938.852053616276
 31
0.0
  0
LINE
  5
1FB0C
330
747D
100
AcDbEntity
  8
部品1
100
AcDbLine
 10
7897.169114128217
 20
1614.852053616276
 30
0.0
 11
7897.169114128217
 21
1938.852053616276
 31
0.0
  0
LINE
  5
1FB0D
330
747D
100
AcDbEntity
  8
細線
 48
50.0
100
AcDbLine
 10
7897.169114128217
 20
1753.039567741647
 30
0.0
 11
8026.769114128216
 21
1882.639567741644
 31
0.0
  0
LINE
  5
1FB0E
330
747D
100
AcDbEntity
  8
細線
 48
50.0
100
AcDbLine
 10
7897.169114128217
 20
1726.098799378435
 30
0.0
 11
8026.769114128216
 21
1855.698799378426
 31
0.0
  0
LINE
  5
1FB0F
330
747D
100
AcDbEntity
  8
部品1
100
AcDbLine
 10
7825.169114128218
 20
1713.852053616276
 30
0.0
 11
7825.169114128214
 21
1988.012053616277
 31
0.0
  0
LINE
  5
1FB10
330
747D
100
AcDbEntity
  8
部品1
100
AcDbLine
 10
7843.169114128217
 20
1713.852053616276
 30
0.0
 11
7843.169114128214
 21
1988.012053616277
 31
0.0
  0
TEXT
  5
1FB11
330
747D
100
AcDbEntity
  8
部品1
 48
50.0
100
AcDbText
 10
7198.62921229526
 20
1710.091045899531
 30
0.0
 40
80.0
  1
▽G.L
  7
STYLE2
100
AcDbText
  0
LINE
  5
1FB12
330
747D
100
AcDbEntity
  8
細線
 48
50.0
100
AcDbLine
 10
7612.769114128217
 20
1657.224946284106
 30
0.0
 11
7771.169114128213
 21
1815.624946284099
 31
0.0
  0
LINE
  5
1FB13
330
747D
100
AcDbEntity
  8
細線
 48
50.0
100
AcDbLine
 10
7612.769114128217
 20
1684.165714647313
 30
0.0
 11
7771.169114128216
 21
1842.565714647311
 31
0.0
  0
LINE
  5
1FB14
330
747D
100
AcDbEntity
  8
細線
 48
50.0
100
AcDbLine
 10
7612.769114128217
 20
1711.106483010522
 30
0.0
 11
7771.169114128216
 21
1869.506483010518
 31
0.0
  0
LINE
  5
1FB15
330
747D
100
AcDbEntity
  8
部品1
 48
50.0
100
AcDbLine
 10
7612.769114128217
 20
1394.852053616276
 30
0.0
 11
7612.769114128217
 21
1938.852053616276
 31
0.0
  0
LINE
  5
1FB16
330
747D
100
AcDbEntity
  8
部品1
100
AcDbLine
 10
8026.769114128216
 20
1394.852053616276
 30
0.0
 11
8026.769114128216
 21
1938.852053616276
 31
0.0
  0
LINE
  5
1FB17
330
747D
100
AcDbEntity
  8
細線
 48
50.0
100
AcDbLine
 10
7897.169114128217
 20
1779.980336104864
 30
0.0
 11
8026.769114128216
 21
1909.580336104863
 31
0.0
  0
LINE
  5
1FB18
330
747D
100
AcDbEntity
  8
細線
 48
50.0
100
AcDbLine
 10
6021.222223453492
 20
1819.598905512992
 30
0.0
 11
6104.729800951023
 21
1903.106483010521
 31
0.0
  0
LINE
  5
1FB19
330
747D
100
AcDbEntity
  8
細線
 48
50.0
100
AcDbLine
 10
6032.282508217009
 20
1803.718421913298
 30
0.0
 11
6104.729800951023
 21
1876.165714647314
 31
0.0
  0
LINE
  5
1FB1A
330
747D
100
AcDbEntity
  8
細線
 48
50.0
100
AcDbLine
 10
5912.729800951023
 20
1926.632629916181
 30
0.0
 11
5924.949224651118
 21
1938.852053616276
 31
0.0
  0
LINE
  5
1FB1B
330
747D
100
AcDbEntity
  8
細線
 48
50.0
100
AcDbLine
 10
5912.729800951023
 20
1872.751093189766
 30
0.0
 11
5978.830761377532
 21
1938.852053616276
 31
0.0
  0
LINE
  5
1FB1C
330
747D
100
AcDbEntity
  8
細線
 48
50.0
100
AcDbLine
 10
5912.729800951023
 20
1899.691861552974
 30
0.0
 11
5951.889993014327
 21
1938.852053616276
 31
0.0
  0
LINE
  5
1FB1D
330
747D
100
AcDbEntity
  8
部品1
 48
50.0
100
AcDbLine
 10
5912.729800951023
 20
1938.852053616276
 30
0.0
 11
6104.729800951023
 21
1938.852053616276
 31
0.0
  0
DIMENSION
  5
1FB1E
330
747D
100
AcDbEntity
  8
寸法
 48
50.0
100
AcDbDimension
  2
*D24
 10
5912.729800951023
 20
2258.852053616276
 30
0.0
 11
6019.956131296219
 21
2358.519861532656
 31
0.0
 70
   160
  1
120\P170
 71
     5
 42
192.0
  3
INABA_S40G
100
AcDbAlignedDimension
 13
6104.729800951022
 23
1938.852053616276
 33
0.0
 14
5912.729800951023
 24
1938.852053616276
 34
0.0
100
AcDbRotatedDimension
1001
ACAD
1000
DSTYLE
1002
{
1070
   174
1070
     0
1070
   272
1070
     1
1070
   279
1070
     1
1070
   288
1070
     0
1070
   341
1005
0
1002
}
  0
MTEXT
  5
1FB1F
102
{ACAD_REACTORS
330
1FB74
102
}
330
747D
100
AcDbEntity
  8
寸法
 62
     7
 48
50.0
100
AcDbMText
 10
6346.468256812273
 20
977.5029678841228
 30
0.0
 40
80.0
 41
0.8
 71
     4
 72
     1
  1
\A1;D10@300
  7
STYLE2
 73
     1
 44
1.0
1001
ACAD
1000
MTEXTBEGIN
1070
    73
1070
     1
1070
    44
1040
1.0
1070
    74
1070
     0
1000
MTEXTEND
  0
LINE
  5
1FB20
330
747D
100
AcDbEntity
  8
細線
 48
50.0
100
AcDbLine
 10
6032.729800951028
 20
1588.639567741657
 30
0.0
 11
6104.729800951016
 21
1660.639567741651
 31
0.0
  0
LINE
  5
1FB21
330
747D
100
AcDbEntity
  8
細線
 48
50.0
100
AcDbLine
 10
6032.729800951023
 20
1615.580336104862
 30
0.0
 11
6104.729800951023
 21
1687.580336104862
 31
0.0
  0
LINE
  5
1FB22
330
747D
100
AcDbEntity
  8
細線
 48
50.0
100
AcDbLine
 10
6032.729800951028
 20
1346.172652472787
 30
0.0
 11
6104.729800951016
 21
1418.172652472787
 31
0.0
  0
LINE
  5
1FB23
330
747D
100
AcDbEntity
  8
細線
 48
50.0
100
AcDbLine
 10
6032.729800951028
 20
1400.054189199205
 30
0.0
 11
6104.729800951016
 21
1472.054189199201
 31
0.0
  0
LINE
  5
1FB24
330
747D
100
AcDbEntity
  8
細線
 48
50.0
100
AcDbLine
 10
6032.729800951028
 20
1373.113420835997
 30
0.0
 11
6104.729800951016
 21
1445.113420835992
 31
0.0
  0
LINE
  5
1FB25
330
747D
100
AcDbEntity
  8
部品1
 48
50.0
100
AcDbLine
 10
6104.729800951023
 20
1394.852053616276
 30
0.0
 11
6232.729800951023
 21
1394.852053616276
 31
0.0
  0
LINE
  5
1FB26
330
747D
100
AcDbEntity
  8
細線
 48
50.0
100
AcDbLine
 10
6032.729800951028
 20
1561.698799378447
 30
0.0
 11
6104.729800951016
 21
1633.698799378447
 31
0.0
  0
LINE
  5
1FB27
330
747D
100
AcDbEntity
  8
部品1
 48
50.0
100
AcDbLine
 10
6000.729800951024
 20
1740.979268313398
 30
0.0
 11
6000.729800951024
 21
1799.106483010521
 31
0.0
  0
LINE
  5
1FB28
330
747D
100
AcDbEntity
  8
細線
 48
50.0
100
AcDbLine
 10
5912.729800951023
 20
1711.106483010522
 30
0.0
 11
5984.729800951023
 21
1783.106483010521
 31
0.0
  0
LINE
  5
1FB29
330
747D
100
AcDbEntity
  8
部品1
 48
50.0
100
AcDbLine
 10
5984.729800951023
 20
1740.979268313402
 30
0.0
 11
5984.729800951023
 21
1799.106483010521
 31
0.0
  0
LINE
  5
1FB2A
330
747D
100
AcDbEntity
  8
細線
 48
50.0
100
AcDbLine
 10
5912.729800951023
 20
1684.165714647313
 30
0.0
 11
5984.729800951023
 21
1756.165714647313
 31
0.0
  0
LINE
  5
1FB2B
330
747D
100
AcDbEntity
  8
細線
 48
50.0
100
AcDbLine
 10
5912.729800951023
 20
1657.224946284106
 30
0.0
 11
5996.484122980317
 21
1740.979268313398
 31
0.0
  0
LINE
  5
1FB2C
330
747D
100
AcDbEntity
  8
部品1
 48
50.0
100
AcDbLine
 10
6000.729800951024
 20
1740.979268313398
 30
0.0
 11
5984.729800951023
 21
1740.979268313402
 31
0.0
  0
LINE
  5
1FB2D
330
747D
100
AcDbEntity
  8
細線
 48
50.0
100
AcDbLine
 10
5784.729800951016
 20
1367.580336104862
 30
0.0
 11
5812.001518462437
 21
1394.852053616276
 31
0.0
  0
LINE
  5
1FB2E
330
747D
100
AcDbEntity
  8
細線
 48
50.0
100
AcDbLine
 10
5784.729800951016
 20
1340.639567741651
 30
0.0
 11
5838.942286825648
 21
1394.852053616276
 31
0.0
  0
LINE
  5
1FB2F
330
747D
100
AcDbEntity
  8
部品1
 48
50.0
100
AcDbLine
 10
5784.729800951023
 20
1394.852053616276
 30
0.0
 11
5912.729800951023
 21
1394.852053616276
 31
0.0
  0
LINE
  5
1FB30
330
747D
100
AcDbEntity
  8
細線
 48
50.0
100
AcDbLine
 10
6000.729800951024
 20
1772.165714647313
 30
0.0
 11
6016.729800951023
 21
1788.165714647313
 31
0.0
  0
LINE
  5
1FB31
330
747D
100
AcDbEntity
  8
細線
 48
50.0
100
AcDbLine
 10
6000.729800951024
 20
1745.224946284106
 30
0.0
 11
6016.729800951023
 21
1761.224946284106
 31
0.0
  0
LINE
  5
1FB32
330
747D
100
AcDbEntity
  8
細線
 48
50.0
100
AcDbLine
 10
5912.729800951023
 20
1441.698799378447
 30
0.0
 11
6016.729800951029
 21
1545.698799378447
 31
0.0
  0
LINE
  5
1FB33
330
747D
100
AcDbEntity
  8
細線
 48
50.0
100
AcDbLine
 10
5912.729800951023
 20
1495.580336104862
 30
0.0
 11
6016.729800951023
 21
1599.580336104862
 31
0.0
  0
LINE
  5
1FB34
330
747D
100
AcDbEntity
  8
細線
 48
50.0
100
AcDbLine
 10
5912.729800951023
 20
1468.639567741654
 30
0.0
 11
6016.729800951029
 21
1572.639567741657
 31
0.0
  0
LINE
  5
1FB35
330
747D
100
AcDbEntity
  8
細線
 48
50.0
100
AcDbLine
 10
6175.55544635437
 20
1130.852053616276
 30
0.0
 11
6169.124665736024
 21
1154.852053616276
 31
0.0
  0
LINE
  5
1FB36
330
747D
100
AcDbEntity
  8
細線
 48
50.0
100
AcDbLine
 10
6218.579959179416
 20
1154.852053616276
 30
0.0
 11
6232.729800951023
 21
1169.001895387882
 31
0.0
  0
LINE
  5
1FB37
330
747D
100
AcDbEntity
  8
細線
 48
50.0
100
AcDbLine
 10
6254.443491301618
 20
1130.852053616276
 30
0.0
 11
6248.012710683269
 21
1154.852053616276
 31
0.0
  0
LINE
  5
1FB38
330
747D
100
AcDbEntity
  8
部品1
 48
50.0
100
AcDbLine
 10
6176.729800951023
 20
1266.852053616276
 30
0.0
 11
6176.729800951023
 21
1250.852053616276
 31
0.0
  0
LINE
  5
1FB39
330
747D
100
AcDbEntity
  8
細線
 48
50.0
100
AcDbLine
 10
6056.93534900017
 20
1154.852053616276
 30
0.0
 11
6152.936236845308
 21
1250.852941461415
 31
0.0
  0
LINE
  5
1FB3A
330
747D
100
AcDbEntity
  8
細線
 48
50.0
100
AcDbLine
 10
6029.994580636967
 20
1154.852053616276
 30
0.0
 11
6125.994580636967
 21
1250.852053616276
 31
0.0
  0
LINE
  5
1FB3B
330
747D
100
AcDbEntity
  8
細線
 48
50.0
100
AcDbLine
 10
6096.667401407125
 20
1130.852053616276
 30
0.0
 11
6090.236620788779
 21
1154.852053616276
 31
0.0
  0
LINE
  5
1FB3C
330
747D
100
AcDbEntity
  8
細線
 48
50.0
100
AcDbLine
 10
6017.77935645988
 20
1130.852053616276
 30
0.0
 11
6011.348575841532
 21
1154.852053616276
 31
0.0
  0
ARC
  5
1FB3D
330
747D
100
AcDbEntity
  8
部品1
 48
50.0
100
AcDbCircle
 10
6008.729800951023
 20
1274.852053616276
 30
0.0
 40
24.0
100
AcDbArc
 50
340.5287793654858
 51
0.0
  0
CIRCLE
  5
1FB3E
330
747D
100
AcDbEntity
  8
部品1
 48
50.0
100
AcDbCircle
 10
6136.729800951023
 20
1274.852053616276
 30
0.0
 40
8.0
  0
LINE
  5
1FB3F
330
747D
100
AcDbEntity
  8
細線
 48
50.0
100
AcDbLine
 10
6168.935349000171
 20
1266.852053616276
 30
0.0
 11
6232.729800951023
 21
1330.646505567127
 31
0.0
  0
LINE
  5
1FB40
330
747D
100
AcDbEntity
  8
細線
 48
50.0
100
AcDbLine
 10
6305.464820236026
 20
1026.852053616274
 30
0.0
 11
6312.729800951023
 21
1053.965330760664
 31
0.0
  0
LINE
  5
1FB41
330
747D
100
AcDbEntity
  8
細線
 48
50.0
100
AcDbLine
 10
6311.895600854375
 20
1050.852053616276
 30
0.0
 11
6312.729800951023
 21
1047.738776471911
 31
0.0
  0
LINE
  5
1FB42
330
747D
100
AcDbEntity
  8
細線
 48
50.0
100
AcDbLine
 10
6233.007555907128
 20
1050.852053616276
 30
0.0
 11
6239.438336525476
 21
1026.852053616276
 31
0.0
  0
LINE
  5
1FB43
330
747D
100
AcDbEntity
  8
細線
 48
50.0
100
AcDbLine
 10
6075.231466012636
 20
1050.852053616276
 30
0.0
 11
6081.662246630981
 21
1026.852053616276
 31
0.0
  0
LINE
  5
1FB44
330
747D
100
AcDbEntity
  8
細線
 48
50.0
100
AcDbLine
 10
6154.119510959881
 20
1050.852053616276
 30
0.0
 11
6160.550291578228
 21
1026.852053616276
 31
0.0
  0
LINE
  5
1FB45
330
747D
100
AcDbEntity
  8
細線
 48
50.0
100
AcDbLine
 10
6147.688730341531
 20
1026.852053616274
 30
0.0
 11
6181.986226972717
 21
1154.852053616274
 31
0.0
  0
LINE
  5
1FB46
330
747D
100
AcDbEntity
  8
細線
 48
50.0
100
AcDbLine
 10
6068.800685394283
 20
1026.852053616276
 30
0.0
 11
6103.098182025469
 21
1154.852053616274
 31
0.0
  0
LINE
  5
1FB47
330
747D
100
AcDbEntity
  8
細線
 48
50.0
100
AcDbLine
 10
6226.576775288776
 20
1026.852053616276
 30
0.0
 11
6260.874271919962
 21
1154.852053616274
 31
0.0
  0
LINE
  5
1FB48
330
747D
100
AcDbEntity
  8
部品1
 48
50.0
100
AcDbLine
 10
6312.729800951027
 20
1154.852053616276
 30
0.0
 11
6312.729800951027
 21
1026.852053616276
 31
0.0
  0
LINE
  5
1FB49
330
747D
100
AcDbEntity
  8
部品1
 48
50.0
100
AcDbLine
 10
6000.729800951024
 20
1332.979268313398
 30
0.0
 11
6000.729800951024
 21
1274.852053616276
 31
0.0
  0
LINE
  5
1FB4A
330
747D
100
AcDbEntity
  8
細線
 48
50.0
100
AcDbLine
 10
5926.468433731306
 20
1266.852053616276
 30
0.0
 11
5984.729800951023
 21
1325.113420835994
 31
0.0
  0
LINE
  5
1FB4B
330
747D
100
AcDbEntity
  8
部品1
 48
50.0
100
AcDbLine
 10
5984.729800951023
 20
1332.979268313398
 30
0.0
 11
5984.729800951023
 21
1274.852053616276
 31
0.0
  0
LINE
  5
1FB4C
330
747D
100
AcDbEntity
  8
細線
 48
50.0
100
AcDbLine
 10
5841.409202094512
 20
1154.852053616276
 30
0.0
 11
5937.409202094512
 21
1250.852053616276
 31
0.0
  0
LINE
  5
1FB4D
330
747D
100
AcDbEntity
  8
細線
 48
50.0
100
AcDbLine
 10
5938.891311512627
 20
1130.852053616276
 30
0.0
 11
5932.460530894281
 21
1154.852053616276
 31
0.0
  0
LINE
  5
1FB4E
330
747D
100
AcDbEntity
  8
細線
 48
50.0
100
AcDbLine
 10
5860.003266565374
 20
1130.852053616276
 30
0.0
 11
5853.572485947029
 21
1154.852053616276
 31
0.0
  0
ARC
  5
1FB4F
330
747D
100
AcDbEntity
  8
部品1
 48
50.0
100
AcDbCircle
 10
6008.729800951023
 20
1274.852053616276
 30
0.0
 40
24.0
100
AcDbArc
 50
180.0
 51
199.4712206345143
  0
LINE
  5
1FB50
330
747D
100
AcDbEntity
  8
細線
 48
50.0
100
AcDbLine
 10
5953.409202094512
 20
1266.852053616276
 30
0.0
 11
5984.729800951023
 21
1298.172652472787
 31
0.0
  0
CIRCLE
  5
1FB51
330
747D
100
AcDbEntity
  8
部品1
 48
50.0
100
AcDbCircle
 10
5880.729800951023
 20
1274.852053616276
 30
0.0
 40
8.0
  0
LINE
  5
1FB52
330
747D
100
AcDbEntity
  8
部品1
 48
50.0
100
AcDbLine
 10
6000.729800951024
 20
1332.979268313398
 30
0.0
 11
5984.729800951023
 21
1332.979268313398
 31
0.0
  0
LINE
  5
1FB53
330
747D
100
AcDbEntity
  8
細線
 48
50.0
100
AcDbLine
 10
5704.729800951024
 20
1140.191974582056
 30
0.0
 11
5708.657957289219
 21
1154.852053616276
 31
0.0
  0
LINE
  5
1FB54
330
747D
100
AcDbEntity
  8
細線
 48
50.0
100
AcDbLine
 10
5781.115221618123
 20
1130.852053616276
 30
0.0
 11
5774.684440999775
 21
1154.852053616276
 31
0.0
  0
LINE
  5
1FB55
330
747D
100
AcDbEntity
  8
部品1
 48
50.0
100
AcDbLine
 10
5840.729800951024
 20
1266.852053616276
 30
0.0
 11
5840.729800951024
 21
1250.852053616276
 31
0.0
  0
LINE
  5
1FB56
330
747D
100
AcDbEntity
  8
細線
 48
50.0
100
AcDbLine
 10
5787.527665368095
 20
1154.852053616276
 30
0.0
 11
5883.527665368095
 21
1250.852053616276
 31
0.0
  0
LINE
  5
1FB57
330
747D
100
AcDbEntity
  8
細線
 48
50.0
100
AcDbLine
 10
5814.468433731306
 20
1154.852053616276
 30
0.0
 11
5910.468433731306
 21
1250.852053616276
 31
0.0
  0
LINE
  5
1FB58
330
747D
100
AcDbEntity
  8
細線
 48
50.0
100
AcDbLine
 10
5917.455376118137
 20
1050.852053616276
 30
0.0
 11
5923.886156736483
 21
1026.852053616276
 31
0.0
  0
LINE
  5
1FB59
330
747D
100
AcDbEntity
  8
細線
 48
50.0
100
AcDbLine
 10
5996.34342106539
 20
1050.852053616276
 30
0.0
 11
6002.774201683736
 21
1026.852053616276
 31
0.0
  0
LINE
  5
1FB5A
330
747D
100
AcDbEntity
  8
細線
 48
50.0
100
AcDbLine
 10
5759.679286223634
 20
1050.852053616276
 30
0.0
 11
5766.110066841981
 21
1026.852053616276
 31
0.0
  0
LINE
  5
1FB5B
330
747D
100
AcDbEntity
  8
細線
 48
50.0
100
AcDbLine
 10
5838.567331170885
 20
1050.852053616276
 30
0.0
 11
5844.998111789233
 21
1026.852053616276
 31
0.0
  0
LINE
  5
1FB5C
330
747D
100
AcDbEntity
  8
部品1
 48
50.0
100
AcDbLine
 10
5704.729800951024
 20
1026.852053616276
 30
0.0
 11
5704.729800951024
 21
1154.852053616276
 31
0.0
  0
LINE
  5
1FB5D
330
747D
100
AcDbEntity
  8
細線
 48
50.0
100
AcDbLine
 10
5753.248505605281
 20
1026.852053616274
 30
0.0
 11
5787.546002236464
 21
1154.852053616274
 31
0.0
  0
LINE
  5
1FB5E
330
747D
100
AcDbEntity
  8
細線
 48
50.0
100
AcDbLine
 10
5911.024595499784
 20
1026.852053616274
 30
0.0
 11
5945.322092130968
 21
1154.852053616274
 31
0.0
  0
LINE
  5
1FB5F
330
747D
100
AcDbEntity
  8
細線
 48
50.0
100
AcDbLine
 10
5832.136550552539
 20
1026.852053616276
 30
0.0
 11
5866.434047183722
 21
1154.852053616276
 31
0.0
  0
LINE
  5
1FB60
330
747D
100
AcDbEntity
  8
細線
 48
50.0
100
AcDbLine
 10
6003.053812273756
 20
1154.852053616276
 30
0.0
 11
6099.053812273756
 21
1250.852053616276
 31
0.0
  0
CIRCLE
  5
1FB61
330
747D
100
AcDbEntity
  8
部品1
 48
50.0
100
AcDbCircle
 10
6008.729800951023
 20
1274.852053616276
 30
0.0
 40
8.0
  0
LINE
  5
1FB62
330
747D
100
AcDbEntity
  8
部品1
 48
50.0
100
AcDbLine
 10
6312.729800951027
 20
1154.852053616276
 30
0.0
 11
5704.729800951024
 21
1154.852053616276
 31
0.0
  0
LINE
  5
1FB63
330
747D
100
AcDbEntity
  8
部品1
 48
50.0
100
AcDbLine
 10
5840.729800951024
 20
1266.852053616276
 30
0.0
 11
6176.729800951023
 21
1266.852053616276
 31
0.0
  0
LINE
  5
1FB64
330
747D
100
AcDbEntity
  8
部品1
 48
50.0
100
AcDbLine
 10
5840.729800951024
 20
1250.852053616276
 30
0.0
 11
6176.729800951023
 21
1250.852053616276
 31
0.0
  0
LINE
  5
1FB65
330
747D
100
AcDbEntity
  8
部品1
 48
50.0
100
AcDbLine
 10
6312.729800951027
 20
1026.852053616276
 30
0.0
 11
5704.729800951024
 21
1026.852053616276
 31
0.0
  0
LINE
  5
1FB66
330
747D
100
AcDbEntity
  8
細線
 48
50.0
100
AcDbLine
 10
5989.912640447037
 20
1026.852053616276
 30
0.0
 11
6024.21013707822
 21
1154.852053616276
 31
0.0
  0
LINE
  5
1FB67
330
747D
100
AcDbEntity
  8
細線
 48
50.0
100
AcDbLine
 10
6000.729800951024
 20
1314.172652472787
 30
0.0
 11
6016.729800951029
 21
1330.172652472787
 31
0.0
  0
LINE
  5
1FB68
330
747D
100
AcDbEntity
  8
部品1
 48
50.0
100
AcDbLine
 10
6016.729800951029
 20
1274.852053616276
 30
0.0
 11
6016.729800951016
 21
1799.106483010521
 31
0.0
  0
LINE
  5
1FB69
330
747D
100
AcDbEntity
  8
部品1
 48
50.0
100
AcDbLine
 10
6032.729800951028
 20
1274.852053616276
 30
0.0
 11
6032.729800951023
 21
1799.106483010521
 31
0.0
  0
LINE
  5
1FB6A
330
747D
100
AcDbEntity
  8
部品1
 48
50.0
100
AcDbLine
 10
6232.729800951023
 20
1394.852053616276
 30
0.0
 11
6232.729800951023
 21
1154.852053616276
 31
0.0
  0
LINE
  5
1FB6B
330
747D
100
AcDbEntity
  8
細線
 48
50.0
100
AcDbLine
 10
6115.05381227375
 20
1266.852053616276
 30
0.0
 11
6232.729800951023
 21
1384.528042293542
 31
0.0
  0
LINE
  5
1FB6C
330
747D
100
AcDbEntity
  8
細線
 48
50.0
100
AcDbLine
 10
6141.994580636967
 20
1266.852053616276
 30
0.0
 11
6232.729800951023
 21
1357.587273930335
 31
0.0
  0
LINE
  5
1FB6D
330
747D
100
AcDbEntity
  8
部品1
 48
50.0
100
AcDbLine
 10
5784.729800951023
 20
1154.852053616276
 30
0.0
 11
5784.729800951023
 21
1394.852053616276
 31
0.0
  0
LINE
  5
1FB6E
330
747D
100
AcDbEntity
  8
細線
 48
50.0
100
AcDbLine
 10
5899.527665368096
 20
1266.852053616276
 30
0.0
 11
6016.729800951023
 21
1384.054189199201
 31
0.0
  0
LINE
  5
1FB6F
330
747D
100
AcDbEntity
  8
細線
 48
50.0
100
AcDbLine
 10
5992.595648428427
 20
1332.979268313398
 30
0.0
 11
6016.729800951029
 21
1357.113420835997
 31
0.0
  0
LINE
  5
1FB70
330
747D
100
AcDbEntity
  8
細線
 48
50.0
100
AcDbLine
 10
5784.729800951016
 20
1313.698799378447
 30
0.0
 11
5865.883055188851
 21
1394.852053616276
 31
0.0
  0
LEADER
  5
1FB71
330
747D
100
AcDbEntity
  8
寸法
 48
50.0
100
AcDbLeader
  3
INABA_S50G
 71
     0
 73
     0
 74
     0
 75
     1
 40
100.0
 41
222.7272727272727
 76
     3
 10
6008.729800951022
 20
1799.106483010521
 30
0.0
 10
6042.615737978417
 20
1740.119614915204
 30
0.0
 10
6167.615737978417
 20
1740.119614915204
 30
0.0
1001
ACAD
1000
DSTYLE
1002
{
1070
    40
1040
1.0
1070
   272
1070
     1
1070
   279
1070
     1
1070
   341
1005
0
1002
}
  0
LWPOLYLINE
  5
1FB72
330
747D
100
AcDbEntity
  8
部品1
 48
50.0
100
AcDbPolyline
 90
        2
 70
     0
 43
8.0
 10
6104.729800951022
 20
1698.852053616277
 10
6518.869702783979
 20
1698.852053616277
  0
MTEXT
  5
1FB73
102
{ACAD_REACTORS
330
1FB75
102
}
330
747D
100
AcDbEntity
  8
寸法
 62
     7
 48
50.0
100
AcDbMText
 10
6336.057460757707
 20
1239.454984673303
 30
0.0
 40
80.0
 41
0.8
 71
     4
 72
     1
  1
D10
  7
STYLE2
 73
     1
 44
1.0
1001
ACAD
1000
MTEXTBEGIN
1070
    73
1070
     1
1070
    44
1040
1.0
1070
    74
1070
     0
1000
MTEXTEND
  0
LEADER
  5
1FB74
330
747D
100
AcDbEntity
  8
寸法
 48
50.0
100
AcDbLeader
  3
INABA_S50G
 71
     0
 73
     0
 74
     0
 75
     1
 40
100.0
 41
540.3409090909091
 76
     3
 10
6082.674969964197
 20
1258.11152320275
 30
0.0
 10
6201.468256812273
 20
916.4807052078531
 30
0.0
 10
6326.468256812273
 20
916.4807052078531
 30
0.0
213
0.0
223
-1.022262676269383
233
0.0
1001
ACAD
1000
DSTYLE
1002
{
1070
    40
1040
1.0
1070
   272
1070
     1
1070
   279
1070
     1
1070
   341
1005
0
1002
}
  0
LEADER
  5
1FB75
330
747D
100
AcDbEntity
  8
寸法
 48
50.0
100
AcDbLeader
  3
INABA_S50G
 71
     0
 73
     0
 74
     0
 75
     1
 40
100.0
 41
225.0
 76
     3
 10
6136.632753303166
 20
1274.852053616276
 30
0.0
 10
6191.057460757708
 20
1179.454984673303
 30
0.0
 10
6316.057460757708
 20
1179.454984673303
 30
0.0
1001
ACAD
1000
DSTYLE
1002
{
1070
    40
1040
1.0
1070
   272
1070
     1
1070
   279
1070
     1
1070
   341
1005
0
1002
}
  0
MTEXT
  5
1FB76
102
{ACAD_REACTORS
330
1FB71
102
}
330
747D
100
AcDbEntity
  8
寸法
 62
     7
 48
50.0
100
AcDbMText
 10
6187.615737978418
 20
1800.119614915203
 30
0.0
 40
80.0
 41
0.8
 71
     4
 72
     1
  1
D13
  7
STYLE2
 73
     1
 44
1.0
1001
ACAD
1000
MTEXTBEGIN
1070
    73
1070
     1
1070
    44
1040
1.0
1070
    74
1070
     0
1000
MTEXTEND
  0
LINE
  5
1FB77
330
747D
100
AcDbEntity
  8
部品1
 48
50.0
100
AcDbLine
 10
6104.729800951023
 20
1938.852053616276
 30
0.0
 11
6104.729800951023
 21
1394.852053616276
 31
0.0
  0
LINE
  5
1FB78
330
747D
100
AcDbEntity
  8
部品1
 48
50.0
100
AcDbLine
 10
5912.729800951023
 20
1394.852053616276
 30
0.0
 11
5912.729800951023
 21
1938.852053616276
 31
0.0
  0
CIRCLE
  5
1FB79
330
747D
100
AcDbEntity
  8
部品1
 48
50.0
100
AcDbCircle
 10
6008.729800951023
 20
1799.106483010521
 30
0.0
 40
8.0
  0
ARC
  5
1FB7A
330
747D
100
AcDbEntity
  8
部品1
 48
50.0
100
AcDbCircle
 10
6008.729800951023
 20
1799.106483010521
 30
0.0
 40
24.0
100
AcDbArc
 50
0.0
 51
180.0
  0
LINE
  5
1FB7B
330
747D
100
AcDbEntity
  8
細線
 48
50.0
100
AcDbLine
 10
6032.729800951023
 20
1777.224946284106
 30
0.0
 11
6104.729800951023
 21
1849.224946284106
 31
0.0
  0
LEADER
  5
1FB7C
330
747D
100
AcDbEntity
  8
寸法
 48
50.0
100
AcDbLeader
  3
INABA_S50G
 73
     0
 75
     1
 40
106.3636363636363
 41
903.5235024184547
 76
     3
 10
7744.169114128216
 20
2008.412053616277
 30
0.0
 10
7695.745041783277
 20
2382.471628332609
 30
0.0
 10
7570.745041783277
 20
2382.471628332609
 30
0.0
340
1FB7D
1001
ACAD
1000
DSTYLE
1002
{
1070
   341
1005
0
1070
    40
1040
1.0
1070
   343
1005
0
1070
   344
1005
0
1002
}
  0
MTEXT
  5
1FB7D
102
{ACAD_REACTORS
330
1FB7C
102
}
330
747D
100
AcDbEntity
  8
寸法
 62
     7
 48
50.0
100
AcDbMText
 10
7545.745041783277
 20
2460.653446514428
 30
0.0
 40
80.0
 41
0.8
 71
     6
 72
     1
  1
アンカープレート {\fArial|b0|i0|c0|p32;U}
  7
STYLE2
 73
     1
 44
1.0
1001
ACAD
1000
MTEXTBEGIN
1070
    73
1070
     1
1070
    44
1040
1.0
1070
    74
1070
     0
1000
MTEXTEND
  0
DIMENSION
  5
1FB7E
330
747D
100
AcDbEntity
  8
寸法
 48
50.0
100
AcDbDimension
  2
*D25
 10
6232.729800951022
 20
616.4224156111158
 30
0.0
 11
5988.633042272798
 21
616.4224156111158
 31
0.0
 70
   160
  1
300
 71
     5
 42
448.0
  3
INABA_S40G
100
AcDbAlignedDimension
 13
5784.729800951023
 23
1026.852053616276
 33
0.0
 14
6232.729800951022
 24
1026.852053616276
 34
0.0
100
AcDbRotatedDimension
1001
ACAD
1000
DSTYLE
1002
{
1070
   174
1070
     0
1070
   272
1070
     1
1070
   279
1070
     1
1070
   288
1070
     0
1070
   341
1005
0
1002
}
  0
MTEXT
  5
1FB7F
102
{ACAD_REACTORS
330
1FB87
102
}
330
747D
100
AcDbEntity
  8
寸法
 62
     7
 48
50.0
100
AcDbMText
 10
5613.794774755828
 20
1071.329359997839
 30
0.0
 40
80.0
 41
0.8
 71
     6
 72
     1
  1
D10
  7
STYLE2
 73
     1
 44
1.0
1001
ACAD
1000
MTEXTBEGIN
1070
    73
1070
     1
1070
    44
1040
1.0
1070
    74
1070
     0
1000
MTEXTEND
  0
MTEXT
  5
1FB80
102
{ACAD_REACTORS
330
1FB86
102
}
330
747D
100
AcDbEntity
  8
寸法
 62
     7
 48
50.0
100
AcDbMText
 10
5641.917502313263
 20
891.0132074583962
 30
0.0
 40
80.0
 41
0.8
 71
     6
 72
     1
  1
D13
  7
STYLE2
 73
     1
 44
1.0
1001
ACAD
1000
MTEXTBEGIN
1070
    73
1070
     1
1070
    44
1040
1.0
1070
    74
1070
     0
1000
MTEXTEND
  0
DIMENSION
  5
1FB81
330
747D
100
AcDbEntity
  8
寸法
 48
50.0
100
AcDbDimension
  2
*D26
 10
5177.692562389282
 20
1154.852053616276
 30
0.0
 11
5177.692562389282
 21
1526.392203272276
 31
0.0
 70
   160
  1
540
 71
     5
 42
784.0
  3
INABA_S40G
100
AcDbAlignedDimension
 13
5912.729800951023
 23
1938.852053616276
 33
0.0
 14
5704.729800951025
 24
1154.852053616276
 34
0.0
 50
90.0
100
AcDbRotatedDimension
1001
ACAD
1000
DSTYLE
1002
{
1070
   174
1070
     0
1070
   272
1070
     1
1070
   279
1070
     1
1070
   288
1070
     0
1070
   341
1005
0
1002
}
  0
MTEXT
  5
1FB82
102
{ACAD_REACTORS
330
1FB83
102
}
330
747D
100
AcDbEntity
  8
寸法
 62
     7
 48
50.0
100
AcDbMText
 10
5692.631321467749
 20
2151.368273618318
 30
0.0
 40
80.0
 41
0.8
 71
     6
 72
     1
  1
\A1;金コテ押エ
  7
STYLE2
 73
     1
 44
1.0
1001
ACAD
1000
MTEXTBEGIN
1070
    73
1070
     1
1070
    44
1040
1.0
1070
    74
1070
     0
1000
MTEXTEND
  0
LEADER
  5
1FB83
330
747D
100
AcDbEntity
  8
寸法
 48
50.0
100
AcDbLeader
  3
INABA_S50G
 71
     0
 73
     0
 75
     1
 40
130.1136363636363
 41
651.1363636363636
 76
     3
 10
5992.729800951022
 20
1938.852053616276
 30
0.0
 10
5880.305220787006
 20
2079.322819072864
 30
0.0
 10
5755.305220787006
 20
2079.322819072864
 30
0.0
1001
ACAD
1000
DSTYLE
1002
{
1070
    40
1040
1.0
1070
   272
1070
     1
1070
   279
1070
     1
1070
   341
1005
0
1002
}
  0
LEADER
  5
1FB84
330
747D
100
AcDbEntity
  8
寸法
 48
50.0
100
AcDbLeader
  3
INABA_S50G
 71
     0
 73
     0
 75
     1
 40
100.0
 41
540.3409090909091
 76
     3
 10
6016.729800951022
 20
1696.979268313399
 30
0.0
 10
5958.747564422324
 20
1475.508939772594
 30
0.0
 10
5833.747564422324
 20
1475.508939772594
 30
0.0
213
-9.732182305893367
223
-4.643716661138569
233
0.0
1001
ACAD
1000
DSTYLE
1002
{
1070
    40
1040
1.0
1070
   272
1070
     1
1070
   279
1070
     1
1070
   341
1005
0
1002
}
  0
MTEXT
  5
1FB85
102
{ACAD_REACTORS
330
1FB84
102
}
330
747D
100
AcDbEntity
  8
寸法
 62
     7
 48
50.0
100
AcDbMText
 10
5823.479746728217
 20
1540.152656433733
 30
0.0
 40
80.0
 41
0.8
 71
     6
 72
     1
  1
\A1;D10@300
  7
STYLE2
 73
     1
 44
1.0
1001
ACAD
1000
MTEXTBEGIN
1070
    73
1070
     1
1070
    44
1040
1.0
1070
    74
1070
     0
1000
MTEXTEND
  0
LEADER
  5
1FB86
330
747D
100
AcDbEntity
  8
寸法
 48
50.0
100
AcDbLeader
  3
INABA_S50G
 71
     0
 73
     0
 75
     1
 40
100.0
 41
222.7272727272727
 76
     3
 10
6008.729800951022
 20
1274.852053616276
 30
0.0
 10
5786.917502313263
 20
831.0132074583961
 30
0.0
 10
5661.917502313263
 20
831.0132074583961
 30
0.0
1001
ACAD
1000
DSTYLE
1002
{
1070
    40
1040
1.0
1070
   272
1070
     1
1070
   279
1070
     1
1070
   341
1005
0
1002
}
  0
LEADER
  5
1FB87
330
747D
100
AcDbEntity
  8
寸法
 48
50.0
100
AcDbLeader
  3
INABA_S50G
 71
     0
 73
     0
 75
     1
 40
100.0
 41
225.0
 76
     3
 10
5880.632753303165
 20
1274.852053616276
 30
0.0
 10
5758.794774755828
 20
1011.329359997839
 30
0.0
 10
5633.794774755828
 20
1011.329359997839
 30
0.0
1001
ACAD
1000
DSTYLE
1002
{
1070
    40
1040
1.0
1070
   272
1070
     1
1070
   279
1070
     1
1070
   341
1005
0
1002
}
  0
DIMENSION
  5
1FB88
330
747D
100
AcDbEntity
  8
寸法
 48
50.0
100
AcDbDimension
  2
*D27
 10
5642.309487218563
 20
1154.852053616276
 30
0.0
 11
5642.309487218563
 21
1274.852053616276
 31
0.0
 70
   160
  1
150
 71
     5
 42
240.0
  3
INABA_S40G
100
AcDbAlignedDimension
 13
5784.729800951023
 23
1394.852053616276
 33
0.0
 14
5704.729800951025
 24
1154.852053616276
 34
0.0
 50
90.0
100
AcDbRotatedDimension
1001
ACAD
1000
DSTYLE
1002
{
1070
   174
1070
     0
1070
   272
1070
     1
1070
   279
1070
     1
1070
   288
1070
     0
1070
   341
1005
0
1002
}
  0
TEXT
  5
1FB89
330
747D
100
AcDbEntity
  8
部品1
 48
50.0
100
AcDbText
 10
5498.589899118066
 20
1710.091045899531
 30
0.0
 40
80.0
  1
▽G.L
  7
STYLE2
100
AcDbText
  0
LWPOLYLINE
  5
1FB8A
330
747D
100
AcDbEntity
  8
部品1
 48
50.0
100
AcDbPolyline
 90
        2
 70
     0
 43
8.0
 10
5498.589899118066
 20
1698.852053616277
 10
5912.729800951023
 20
1698.852053616277
  0
MTEXT
  5
1FB8B
102
{ACAD_REACTORS
330
1FB8C
102
}
330
747D
100
AcDbEntity
  8
寸法
 62
     7
 48
50.0
100
AcDbMText
 10
7519.102035574919
 20
2821.337718421942
 30
0.0
 40
80.0
 41
0.8
 71
     6
 72
     1
  1
\A1;φ70スリーブ
  7
STYLE2
 73
     1
 44
1.0
1001
ACAD
1000
MTEXTBEGIN
1070
    73
1070
     1
1070
    44
1040
1.0
1070
    74
1070
     0
1000
MTEXTEND
  0
LEADER
  5
1FB8C
330
747D
100
AcDbEntity
  8
寸法
 48
50.0
100
AcDbLeader
  3
INABA_S50G
 73
     0
 75
     1
 40
113.1818181818182
 41
608.6363636363635
 76
     3
 10
7802.905864266266
 20
1888.367726974555
 30
0.0
 10
7669.102035574919
 20
2739.746809331033
 30
0.0
 10
7544.102035574919
 20
2739.746809331033
 30
0.0
340
1FB8B
1001
ACAD
1000
DSTYLE
1002
{
1070
   341
1005
0
1070
    40
1040
1.0
1070
   343
1005
0
1070
   344
1005
0
1002
}
  0
LINE
  5
1FB8D
330
747D
100
AcDbEntity
  8
部品1
100
AcDbLine
 10
4842.06136214176
 20
3335.109602738483
 30
0.0
 11
4842.061362141762
 21
370.8026331538358
 31
0.0
  0
LEADER
  5
1FB8E
330
747D
100
AcDbEntity
  8
寸法
 48
50.0
100
AcDbLeader
  3
INABA_S50G
 73
     0
 74
     0
 75
     1
 40
80.0
 41
435.0
 76
     3
 10
7843.169114128215
 20
1988.012053616277
 30
0.0
 10
7885.713576547536
 20
2138.235379769506
 30
0.0
 10
8010.713576547535
 20
2138.235379769506
 30
0.0
340
1FB8F
1001
ACAD
1000
DSTYLE
1002
{
1070
   341
1005
0
1070
    40
1040
1.0
1070
   343
1005
0
1070
   344
1005
0
1002
}
  0
MTEXT
  5
1FB8F
102
{ACAD_REACTORS
330
1FB8E
102
}
330
747D
100
AcDbEntity
  8
部品1
 62
     7
 48
50.0
100
AcDbMText
 10
8035.713576547536
 20
2203.235379769506
 30
0.0
 40
80.0
 41
0.8
 71
     4
 72
     1
  1
M10X160
  7
STYLE2
 73
     1
 44
1.0
1001
ACAD
1000
MTEXTBEGIN
1070
    73
1070
     1
1070
    44
1040
1.0
1070
    74
1070
     0
1000
MTEXTEND
  0
DIMENSION
  5
1FB90
330
747D
100
AcDbEntity
  8
寸法
 48
50.0
100
AcDbDimension
  2
*D28
 10
8528.63771389706
 20
1938.852053616276
 30
0.0
 11
8804.692380016089
 21
1913.728096012064
 31
0.0
 70
   160
  1
20～25
 71
     5
 42
52.76000000000113
  3
INABA_S40G
100
AcDbAlignedDimension
 13
7839.569114128217
 23
1991.612053616277
 33
0.0
 14
8026.769114128216
 24
1938.852053616276
 34
0.0
 50
90.0
100
AcDbRotatedDimension
1001
ACAD
1000
DSTYLE
1002
{
1070
   174
1070
     0
1070
   272
1070
     1
1070
   279
1070
     1
1070
   288
1070
     0
1070
   341
1005
0
1002
}
  0
DIMENSION
  5
1FB91
330
747D
100
AcDbEntity
  8
寸法
 48
50.0
100
AcDbDimension
  2
*D29
 10
8528.63771389706
 20
1614.852053616275
 30
0.0
 11
8428.63771389706
 21
1776.852053616277
 31
0.0
 70
    32
  1
180
 71
     5
 42
324.0000000000009
  3
INABA_S40G
100
AcDbAlignedDimension
 13
8026.769114128216
 23
1938.852053616276
 33
0.0
 14
8026.769114128216
 24
1614.852053616275
 34
0.0
 50
90.0
100
AcDbRotatedDimension
1001
ACAD
1000
DSTYLE
1002
{
1070
   174
1070
     0
1070
   272
1070
     1
1070
   279
1070
     1
1070
   288
1070
     0
1070
   341
1005
0
1002
}
  0
TEXT
  5
1FB92
330
747D
100
AcDbEntity
  8
部品1
 48
50.0
100
AcDbText
 10
8031.122698412644
 20
2294.730734378476
 30
0.0
 40
80.0
  1
基礎ボルト(市販品)
  7
STYLE2
100
AcDbText
  0
LWPOLYLINE
  5
1FB93
330
747D
100
AcDbEntity
  8
部品1
 48
50.0
100
AcDbPolyline
 90
        2
 70
     0
 43
8.0
 10
8026.769114128216
 20
1698.852053616277
 10
8320.4715775276
 20
1698.852053616277
  0
MTEXT
  5
1FB94
102
{ACAD_REACTORS
330
1FB95
102
}
330
747D
100
AcDbEntity
  8
部品1
 62
     7
 48
50.0
100
AcDbMText
 10
8066.040704497057
 20
2639.347426703536
 30
0.0
 40
80.0
 41
0.8
 71
     4
 72
     1
  1
\A1;ワッシャー(市販品)
  7
STYLE2
 73
     1
 44
1.0
1001
ACAD
1000
MTEXTBEGIN
1070
    73
1070
     1
1070
    44
1040
1.0
1070
    74
1070
     0
1000
MTEXTEND
  0
LEADER
  5
1FB95
330
747D
100
AcDbEntity
  8
寸法
 48
50.0
100
AcDbLeader
  3
INABA_S50G
 73
     0
 74
     0
 75
     1
 40
102.2727272727273
 41
906.8181818181818
 76
     3
 10
7874.169114128216
 20
2207.975342060556
 30
0.0
 10
7916.040704497056
 20
2563.211063067172
 30
0.0
 10
8041.040704497056
 20
2563.211063067172
 30
0.0
340
1FB94
1001
ACAD
1000
DSTYLE
1002
{
1070
   341
1005
0
1070
    40
1040
1.0
1070
   343
1005
0
1070
   344
1005
0
1002
}
  0
MTEXT
  5
1FB96
102
{ACAD_REACTORS
330
1FB97
102
}
330
747D
100
AcDbEntity
  8
部品1
 62
     7
 48
50.0
100
AcDbMText
 10
8034.523085241573
 20
2824.316509468324
 30
0.0
 40
80.0
 41
0.8
 71
     4
 72
     1
  1
\A1;ナット(市販品)
  7
STYLE2
 73
     1
 44
1.0
1001
ACAD
1000
MTEXTBEGIN
1070
    73
1070
     1
1070
    44
1040
1.0
1070
    74
1070
     0
1000
MTEXTEND
  0
LEADER
  5
1FB97
330
747D
100
AcDbEntity
  8
寸法
 48
50.0
100
AcDbLeader
  3
INABA_S50G
 73
     0
 74
     0
 75
     1
 40
102.2727272727273
 41
680.0000000000001
 76
     3
 10
7850.169114128217
 20
2337.727334725419
 30
0.0
 10
7884.523085241574
 20
2748.18014583196
 30
0.0
 10
8009.523085241573
 20
2748.18014583196
 30
0.0
340
1FB96
1001
ACAD
1000
DSTYLE
1002
{
1070
   341
1005
0
1070
    40
1040
1.0
1070
   343
1005
0
1070
   344
1005
0
1002
}
  0
LINE
  5
1FB98
330
747D
100
AcDbEntity
  8
部品1
100
AcDbLine
 10
4842.061362141763
 20
370.8026331538358
 30
0.0
 11
10913.04654752801
 21
370.8026331538358
 31
0.0
  0
LINE
  5
1FB99
330
747D
100
AcDbEntity
  8
部品1
100
AcDbLine
 10
10913.04654752801
 20
3095.109602738481
 30
0.0
 11
4842.061362141762
 21
3095.109602738481
 31
0.0
  0
LINE
  5
1FB9A
330
747D
100
AcDbEntity
  8
部品1
100
AcDbLine
 10
10913.04654752801
 20
3335.109602738483
 30
0.0
 11
4842.061362141758
 21
3335.109602738483
 31
0.0
  0
TEXT
  5
1FC74
330
747D
100
AcDbEntity
  8
文字
 62
     7
 48
50.0
100
AcDbText
 10
14816.49629419351
 20
1031.557706291228
 30
0.0
 40
100.0
  1
 <縮尺> S=1/40
  7
STYLE2
100
AcDbText
  0
ENDSEC
  0
SECTION
  2
OBJECTS
  0
DICTIONARY
  5
7471
330
0
100
AcDbDictionary
281
     1
  3
ACAD_COLOR
350
159B0
  3
ACAD_GROUP
350
7472
  3
ACAD_LAYOUT
350
159B1
  3
ACAD_MATERIAL
350
159AF
  3
ACAD_MLINESTYLE
350
7473
  3
ACAD_PLOTSETTINGS
350
159B2
  3
ACAD_PLOTSTYLENAME
350
159AD
  3
ACDBHEADERROUNDTRIPXREC
350
1FC78
  3
AcDbVariableDictionary
350
1F733
  3
CONTENTDICTIONARY
350
E71C
  3
DRAWINGVARIABLESDICT
350
F3B9
  0
DICTIONARY
  5
1F929
330
7467
100
AcDbDictionary
280
     1
281
     1
  3
ACAD_LAYERSTATES
360
1F92A
  0
DICTIONARY
  5
159B0
102
{ACAD_REACTORS
330
7471
102
}
330
7471
100
AcDbDictionary
281
     1
  0
DICTIONARY
  5
7472
102
{ACAD_REACTORS
330
7471
102
}
330
7471
100
AcDbDictionary
281
     1
  0
DICTIONARY
  5
159B1
102
{ACAD_REACTORS
330
7471
102
}
330
7471
100
AcDbDictionary
281
     1
  3
Model
350
159B3
  3
レイアウト1
350
159B4
  0
DICTIONARY
  5
159AF
102
{ACAD_REACTORS
330
7471
102
}
330
7471
100
AcDbDictionary
281
     1
  0
DICTIONARY
  5
7473
102
{ACAD_REACTORS
330
7471
102
}
330
7471
100
AcDbDictionary
281
     1
  3
STANDARD
350
7480
  0
DICTIONARY
  5
159B2
102
{ACAD_REACTORS
330
7471
102
}
330
7471
100
AcDbDictionary
281
     1
  0
ACDBDICTIONARYWDFLT
  5
159AD
102
{ACAD_REACTORS
330
7471
102
}
330
7471
100
AcDbDictionary
281
     1
  3
Normal
350
159AE
100
AcDbDictionaryWithDefault
340
159AE
  0
DICTIONARY
  5
1FC78
102
{ACAD_REACTORS
330
7471
102
}
330
7471
100
AcDbDictionary
281
     1
  3
COLORDICT
350
1FC7A
  3
MATERIALDICT
350
1FC79
  0
DICTIONARY
  5
1F733
102
{ACAD_REACTORS
330
7471
102
}
330
7471
100
AcDbDictionary
281
     1
  3
DIMASSOC
350
1F734
  3
PROJECTNAME
350
1F735
  0
DICTIONARY
  5
E71C
102
{ACAD_REACTORS
330
7471
102
}
330
7471
100
AcDbDictionary
281
     1
  0
DICTIONARY
  5
F3B9
102
{ACAD_REACTORS
330
7471
102
}
330
7471
100
AcDbDictionary
281
     1
1001
DRAWINGVARIABLESXDATA
1000
POLARMODE
1000
1
  0
DICTIONARY
  5
1F92A
102
{ACAD_REACTORS
330
1F929
102
}
330
1F929
100
AcDbDictionary
281
     1
  0
LAYOUT
  5
159B3
102
{ACAD_XDICTIONARY
360
1FC7B
102
}
102
{ACAD_REACTORS
330
159B1
102
}
330
159B1
100
AcDbPlotSettings
  1

  2
クセロPDF
  4
A3
  6

 40
3.174999952316284
 41
3.174999952316284
 42
3.17498779296875
 43
3.17498779296875
 44
419.9466552734374
 45
296.9259948730469
 46
0.0
 47
0.0
 48
0.0
 49
0.0
140
0.0
141
0.0
142
1.0
143
40.88431153497317
 70
 11952
 72
     1
 73
     0
 74
     2
  7
inaba.ctb
 75
     0
147
0.0244592598592392
148
0.0
149
0.0
100
AcDbLayout
  1
Model
 70
     1
 71
     0
 10
0.0
 20
0.0
 11
12.0
 21
9.0
 12
0.0
 22
0.0
 32
0.0
 14
0.0
 24
0.0
 34
0.0
 15
0.0
 25
0.0
 35
0.0
146
0.0
 13
0.0
 23
0.0
 33
0.0
 16
1.0
 26
0.0
 36
0.0
 17
0.0
 27
1.0
 37
0.0
 76
     0
330
747D
  0
LAYOUT
  5
159B4
102
{ACAD_XDICTIONARY
360
1FC7D
102
}
102
{ACAD_REACTORS
330
159B1
102
}
330
159B1
100
AcDbPlotSettings
  1

  2
自動 EPSON LP-8400FX (TATENO 上)
  4

  6

 40
0.0
 41
0.0
 42
0.0
 43
0.0
 44
0.0
 45
0.0
 46
0.0
 47
0.0
 48
0.0
 49
0.0
140
0.0
141
0.0
142
1.0
143
1.0
 70
   688
 72
     0
 73
     0
 74
     5
  7
inaba.ctb
 75
    16
147
1.0
148
0.0
149
0.0
100
AcDbLayout
  1
レイアウト1
 70
     0
 71
     1
 10
0.0
 20
0.0
 11
420.0
 21
297.0
 12
0.0
 22
0.0
 32
0.0
 14
1.000000000000000E+20
 24
1.000000000000000E+20
 34
1.000000000000000E+20
 15
-1.000000000000000E+20
 25
-1.000000000000000E+20
 35
-1.000000000000000E+20
146
0.0
 13
0.0
 23
0.0
 33
0.0
 16
1.0
 26
0.0
 36
0.0
 17
0.0
 27
1.0
 37
0.0
 76
     0
330
747A
  0
MLINESTYLE
  5
7480
102
{ACAD_REACTORS
330
7473
102
}
330
7473
100
AcDbMlineStyle
  2
STANDARD
 70
     0
  3

 62
     0
 51
90.0
 52
90.0
 71
     2
 49
0.5
 62
   256
  6
BYLAYER
 49
-0.5
 62
   256
  6
BYLAYER
  0
ACDBPLACEHOLDER
  5
159AE
102
{ACAD_REACTORS
330
159AD
102
}
330
159AD
  0
XRECORD
  5
1FC7A
102
{ACAD_REACTORS
330
1FC78
102
}
330
1FC78
100
AcDbXrecord
280
     1
340
159B0
  0
XRECORD
  5
1FC79
102
{ACAD_REACTORS
330
1FC78
102
}
330
1FC78
100
AcDbXrecord
280
     1
340
159AF
  0
DICTIONARYVAR
  5
1F734
102
{ACAD_REACTORS
330
1F733
102
}
330
1F733
100
DictionaryVariables
280
     0
  1
1
  0
DICTIONARYVAR
  5
1F735
102
{ACAD_REACTORS
330
1F733
102
}
330
1F733
100
DictionaryVariables
280
     0
  1

  0
DICTIONARY
  5
1FC7B
330
159B3
100
AcDbDictionary
280
     1
281
     1
  3
ACAD_XREC_ROUNDTRIP
360
1FC7C
  0
DICTIONARY
  5
1FC7D
330
159B4
100
AcDbDictionary
280
     1
281
     1
  3
ACAD_XREC_ROUNDTRIP
360
1FC7E
  0
XRECORD
  5
1FC7C
102
{ACAD_REACTORS
330
1FC7B
102
}
330
1FC7B
100
AcDbXrecord
280
     1
102
SHADEPLOT
 70
     1
102
SHADEPLOTRESLEVEL
 70
     2
102
SHADEPLOTCUSTOMDPI
 70
   300
  0
XRECORD
  5
1FC7E
102
{ACAD_REACTORS
330
1FC7D
102
}
330
1FC7D
100
AcDbXrecord
280
     1
102
SHADEPLOT
 70
     0
102
SHADEPLOTRESLEVEL
 70
     2
102
SHADEPLOTCUSTOMDPI
 70
   300
  0
ENDSEC
  0
EOF
