  0
SECTION
  2
HEADER
  9
$ACADVER
  1
AC1015
  9
$ACADMAINTVER
 70
    20
  9
$DWGCODEPAGE
  3
ANSI_932
  9
$INSBASE
 10
0.0
 20
0.0
 30
0.0
  9
$EXTMIN
 10
139.9999999999995
 20
-0.0000000000000909
 30
0.0
  9
$EXTMAX
 10
16307.2
 20
11409.6
 30
0.0
  9
$LIMMIN
 10
0.0
 20
0.0
  9
$LIMMAX
 10
16800.0
 20
11880.0
  9
$ORTHOMODE
 70
     0
  9
$REGENMODE
 70
     1
  9
$FILLMODE
 70
     1
  9
$QTEXTMODE
 70
     0
  9
$MIRRTEXT
 70
     1
  9
$LTSCALE
 40
20.0
  9
$ATTMODE
 70
     1
  9
$TEXTSIZE
 40
100.0
  9
$TRACEWID
 40
1.0
  9
$TEXTSTYLE
  7
STYLE2
  9
$CLAYER
  8
部品1
  9
$CELTYPE
  6
BYLAYER
  9
$CECOLOR
 62
   256
  9
$CELTSCALE
 40
50.0
  9
$DISPSILH
 70
     0
  9
$DIMSCALE
 40
40.0
  9
$DIMASZ
 40
2.5
  9
$DIMEXO
 40
0.5
  9
$DIMDLI
 40
7.0
  9
$DIMRND
 40
0.0
  9
$DIMDLE
 40
0.0
  9
$DIMEXE
 40
1.5
  9
$DIMTP
 40
0.0
  9
$DIMTM
 40
0.0
  9
$DIMTXT
 40
3.0
  9
$DIMCEN
 40
0.0
  9
$DIMTSZ
 40
0.0
  9
$DIMTOL
 70
     0
  9
$DIMLIM
 70
     0
  9
$DIMTIH
 70
     0
  9
$DIMTOH
 70
     0
  9
$DIMSE1
 70
     0
  9
$DIMSE2
 70
     0
  9
$DIMTAD
 70
     3
  9
$DIMZIN
 70
     8
  9
$DIMBLK
  1

  9
$DIMASO
 70
     1
  9
$DIMSHO
 70
     1
  9
$DIMPOST
  1

  9
$DIMAPOST
  1

  9
$DIMALT
 70
     0
  9
$DIMALTD
 70
     2
  9
$DIMALTF
 40
0.0394
  9
$DIMLFAC
 40
1.0
  9
$DIMTOFL
 70
     1
  9
$DIMTVP
 40
0.0
  9
$DIMTIX
 70
     0
  9
$DIMSOXD
 70
     0
  9
$DIMSAH
 70
     1
  9
$DIMBLK1
  1
DOTSMALL
  9
$DIMBLK2
  1
DOTSMALL
  9
$DIMSTYLE
  2
INABA_S40G
  9
$DIMCLRD
 70
     0
  9
$DIMCLRE
 70
     0
  9
$DIMCLRT
 70
     7
  9
$DIMTFAC
 40
1.0
  9
$DIMGAP
 40
1.0
  9
$DIMJUST
 70
     0
  9
$DIMSD1
 70
     0
  9
$DIMSD2
 70
     0
  9
$DIMTOLJ
 70
     1
  9
$DIMTZIN
 70
     0
  9
$DIMALTZ
 70
     0
  9
$DIMALTTZ
 70
     0
  9
$DIMUPT
 70
     0
  9
$DIMDEC
 70
     1
  9
$DIMTDEC
 70
     1
  9
$DIMALTU
 70
     2
  9
$DIMALTTD
 70
     2
  9
$DIMTXSTY
  7
STYLE1
  9
$DIMAUNIT
 70
     0
  9
$DIMADEC
 70
     0
  9
$DIMALTRND
 40
0.0
  9
$DIMAZIN
 70
     0
  9
$DIMDSEP
 70
    46
  9
$DIMATFIT
 70
     3
  9
$DIMFRAC
 70
     0
  9
$DIMLDRBLK
  1

  9
$DIMLUNIT
 70
     2
  9
$DIMLWD
 70
    -2
  9
$DIMLWE
 70
    -2
  9
$DIMTMOVE
 70
     1
  9
$LUNITS
 70
     2
  9
$LUPREC
 70
     1
  9
$SKETCHINC
 40
1.0
  9
$FILLETRAD
 40
2.299999999999999
  9
$AUNITS
 70
     0
  9
$AUPREC
 70
     0
  9
$MENU
  1
acad
  9
$ELEVATION
 40
0.0
  9
$PELEVATION
 40
0.0
  9
$THICKNESS
 40
0.0
  9
$LIMCHECK
 70
     0
  9
$CHAMFERA
 40
3.0
  9
$CHAMFERB
 40
3.0
  9
$CHAMFERC
 40
0.0
  9
$CHAMFERD
 40
0.0
  9
$SKPOLY
 70
     0
  9
$TDCREATE
 40
2451368.612993866
  9
$TDUCREATE
 40
2451368.237993866
  9
$TDUPDATE
 40
2455817.627856435
  9
$TDUUPDATE
 40
2455817.252856435
  9
$TDINDWG
 40
1.6323348611
  9
$TDUSRTIMER
 40
1.6323348611
  9
$USRTIMER
 70
     1
  9
$ANGBASE
 50
0.0
  9
$ANGDIR
 70
     0
  9
$PDMODE
 70
     3
  9
$PDSIZE
 40
2.0
  9
$PLINEWID
 40
0.0
  9
$SPLFRAME
 70
     0
  9
$SPLINETYPE
 70
     6
  9
$SPLINESEGS
 70
     8
  9
$HANDSEED
  5
1EFFF
  9
$SURFTAB1
 70
     6
  9
$SURFTAB2
 70
     6
  9
$SURFTYPE
 70
     6
  9
$SURFU
 70
     6
  9
$SURFV
 70
     6
  9
$UCSBASE
  2

  9
$UCSNAME
  2

  9
$UCSORG
 10
0.0
 20
0.0
 30
0.0
  9
$UCSXDIR
 10
1.0
 20
0.0
 30
0.0
  9
$UCSYDIR
 10
0.0
 20
1.0
 30
0.0
  9
$UCSORTHOREF
  2

  9
$UCSORTHOVIEW
 70
     0
  9
$UCSORGTOP
 10
0.0
 20
0.0
 30
0.0
  9
$UCSORGBOTTOM
 10
0.0
 20
0.0
 30
0.0
  9
$UCSORGLEFT
 10
0.0
 20
0.0
 30
0.0
  9
$UCSORGRIGHT
 10
0.0
 20
0.0
 30
0.0
  9
$UCSORGFRONT
 10
0.0
 20
0.0
 30
0.0
  9
$UCSORGBACK
 10
0.0
 20
0.0
 30
0.0
  9
$PUCSBASE
  2

  9
$PUCSNAME
  2

  9
$PUCSORG
 10
0.0
 20
0.0
 30
0.0
  9
$PUCSXDIR
 10
1.0
 20
0.0
 30
0.0
  9
$PUCSYDIR
 10
0.0
 20
1.0
 30
0.0
  9
$PUCSORTHOREF
  2

  9
$PUCSORTHOVIEW
 70
     0
  9
$PUCSORGTOP
 10
0.0
 20
0.0
 30
0.0
  9
$PUCSORGBOTTOM
 10
0.0
 20
0.0
 30
0.0
  9
$PUCSORGLEFT
 10
0.0
 20
0.0
 30
0.0
  9
$PUCSORGRIGHT
 10
0.0
 20
0.0
 30
0.0
  9
$PUCSORGFRONT
 10
0.0
 20
0.0
 30
0.0
  9
$PUCSORGBACK
 10
0.0
 20
0.0
 30
0.0
  9
$USERI1
 70
     0
  9
$USERI2
 70
     0
  9
$USERI3
 70
     0
  9
$USERI4
 70
     0
  9
$USERI5
 70
     0
  9
$USERR1
 40
0.0
  9
$USERR2
 40
0.0
  9
$USERR3
 40
0.0
  9
$USERR4
 40
0.0
  9
$USERR5
 40
0.0
  9
$WORLDVIEW
 70
     1
  9
$SHADEDGE
 70
     3
  9
$SHADEDIF
 70
    70
  9
$TILEMODE
 70
     1
  9
$MAXACTVP
 70
    16
  9
$PINSBASE
 10
0.0
 20
0.0
 30
0.0
  9
$PLIMCHECK
 70
     0
  9
$PEXTMIN
 10
1.000000000000000E+20
 20
1.000000000000000E+20
 30
1.000000000000000E+20
  9
$PEXTMAX
 10
-1.000000000000000E+20
 20
-1.000000000000000E+20
 30
-1.000000000000000E+20
  9
$PLIMMIN
 10
0.0
 20
0.0
  9
$PLIMMAX
 10
420.0
 20
297.0
  9
$UNITMODE
 70
     0
  9
$VISRETAIN
 70
     0
  9
$PLINEGEN
 70
     0
  9
$PSLTSCALE
 70
     0
  9
$TREEDEPTH
 70
  3020
  9
$CMLSTYLE
  2
STANDARD
  9
$CMLJUST
 70
     0
  9
$CMLSCALE
 40
1.0
  9
$PROXYGRAPHICS
 70
     1
  9
$MEASUREMENT
 70
     1
  9
$CELWEIGHT
370
    -1
  9
$ENDCAPS
280
     0
  9
$JOINSTYLE
280
     0
  9
$LWDISPLAY
290
     0
  9
$INSUNITS
 70
     0
  9
$HYPERLINKBASE
  1

  9
$STYLESHEET
  1
inaba.ctb
  9
$XEDIT
290
     1
  9
$CEPSNTYPE
380
     0
  9
$PSTYLEMODE
290
     1
  9
$FINGERPRINTGUID
  2
{3B57B35E-7D77-4BBF-81B7-6C583B9EB24C}
  9
$VERSIONGUID
  2
{B6FCA27D-F7F8-4A77-B8FF-C19E318A51BD}
  9
$EXTNAMES
290
     1
  9
$PSVPSCALE
 40
0.0
  9
$OLESTARTUP
290
     0
  0
ENDSEC
  0
SECTION
  2
CLASSES
  0
CLASS
  1
ACDBDICTIONARYWDFLT
  2
AcDbDictionaryWithDefault
  3
ObjectDBX Classes
 90
        0
280
     0
281
     0
  0
CLASS
  1
DICTIONARYVAR
  2
AcDbDictionaryVar
  3
ObjectDBX Classes
 90
        0
280
     0
281
     0
  0
CLASS
  1
ACDBPLACEHOLDER
  2
AcDbPlaceHolder
  3
ObjectDBX Classes
 90
        0
280
     0
281
     0
  0
CLASS
  1
LAYOUT
  2
AcDbLayout
  3
ObjectDBX Classes
 90
        0
280
     0
281
     0
  0
ENDSEC
  0
SECTION
  2
TABLES
  0
TABLE
  2
VPORT
  5
746D
330
0
100
AcDbSymbolTable
 70
     2
  0
VPORT
  5
1EFF7
330
746D
100
AcDbSymbolTableRecord
100
AcDbViewportTableRecord
  2
*Active
 70
     0
 10
0.0
 20
0.0
 11
1.0
 21
1.0
 12
8528.952504443974
 22
5704.608037261909
 13
0.0
 23
0.0
 14
10.0
 24
10.0
 15
10.0
 25
10.0
 16
0.0
 26
0.0
 36
1.0
 17
0.0
 27
0.0
 37
0.0
 40
11497.32946877482
 41
1.58160621761658
 42
50.0
 43
0.0
 44
0.0
 50
0.0
 51
0.0
 71
     0
 72
     0
 73
     1
 74
     0
 75
     0
 76
     0
 77
     0
 78
     0
281
     0
 65
     1
110
0.0
120
0.0
130
0.0
111
1.0
121
0.0
131
0.0
112
0.0
122
1.0
132
0.0
 79
     0
146
0.0
  0
ENDTAB
  0
TABLE
  2
LTYPE
  5
746A
330
0
100
AcDbSymbolTable
 70
     4
  0
LTYPE
  5
7477
330
746A
100
AcDbSymbolTableRecord
100
AcDbLinetypeTableRecord
  2
BYBLOCK
 70
     0
  3

 72
    65
 73
     0
 40
0.0
  0
LTYPE
  5
7478
330
746A
100
AcDbSymbolTableRecord
100
AcDbLinetypeTableRecord
  2
BYLAYER
 70
     0
  3

 72
    65
 73
     0
 40
0.0
  0
LTYPE
  5
7479
330
746A
100
AcDbSymbolTableRecord
100
AcDbLinetypeTableRecord
  2
CONTINUOUS
 70
     0
  3
Solid line
 72
    65
 73
     0
 40
0.0
  0
LTYPE
  5
7816
330
746A
100
AcDbSymbolTableRecord
100
AcDbLinetypeTableRecord
  2
CENTER
 70
     0
  3
____ _ ____ _ ____ _ ____ _ ____ _ ____ _ ____ 
 72
    65
 73
     4
 40
2.0
 49
1.25
 74
     0
 49
-0.25
 74
     0
 49
0.25
 74
     0
 49
-0.25
 74
     0
  0
LTYPE
  5
781A
330
746A
100
AcDbSymbolTableRecord
100
AcDbLinetypeTableRecord
  2
HIDDEN
 70
     0
  3
__ __ __ __ __ __ __ __ __ __ __ __ __ __ __ __
 72
    65
 73
     2
 40
0.375
 49
0.25
 74
     0
 49
-0.125
 74
     0
  0
LTYPE
  5
781B
330
746A
100
AcDbSymbolTableRecord
100
AcDbLinetypeTableRecord
  2
PHANTOM
 70
     0
  3
______  __  __  ______  __  __  ______  __  __ 
 72
    65
 73
     6
 40
2.5
 49
1.25
 74
     0
 49
-0.25
 74
     0
 49
0.25
 74
     0
 49
-0.25
 74
     0
 49
0.25
 74
     0
 49
-0.25
 74
     0
  0
ENDTAB
  0
TABLE
  2
LAYER
  5
7467
102
{ACAD_XDICTIONARY
360
1ECD9
102
}
330
0
100
AcDbSymbolTable
 70
    12
  0
LAYER
  5
7474
330
7467
100
AcDbSymbolTableRecord
100
AcDbLayerTableRecord
  2
0
 70
     0
 62
     7
  6
CONTINUOUS
370
    -3
390
159AE
  0
LAYER
  5
DEB2
330
7467
100
AcDbSymbolTableRecord
100
AcDbLayerTableRecord
  2
センター
 70
     0
 62
     3
  6
CENTER
370
    -3
390
159AE
  0
LAYER
  5
DEB3
330
7467
100
AcDbSymbolTableRecord
100
AcDbLayerTableRecord
  2
寸法
 70
     0
 62
     4
  6
CONTINUOUS
370
    -3
390
159AE
  0
LAYER
  5
DEB4
330
7467
100
AcDbSymbolTableRecord
100
AcDbLayerTableRecord
  2
部品1
 70
     0
 62
     7
  6
CONTINUOUS
370
    -3
390
159AE
  0
LAYER
  5
DEB5
330
7467
100
AcDbSymbolTableRecord
100
AcDbLayerTableRecord
  2
補助
 70
     0
 62
    -1
  6
CONTINUOUS
370
    -3
390
159AE
  0
LAYER
  5
DEB6
330
7467
100
AcDbSymbolTableRecord
100
AcDbLayerTableRecord
  2
文字
 70
     0
 62
     7
  6
CONTINUOUS
370
    -3
390
159AE
  0
LAYER
  5
F255
330
7467
100
AcDbSymbolTableRecord
100
AcDbLayerTableRecord
  2
DEFPOINTS
 70
     0
 62
     7
  6
CONTINUOUS
290
     0
370
    -3
390
159AE
  0
LAYER
  5
10B54
330
7467
100
AcDbSymbolTableRecord
100
AcDbLayerTableRecord
  2
仕様書枠
 70
     0
 62
   230
  6
CONTINUOUS
370
    -3
390
159AE
  0
LAYER
  5
11729
330
7467
100
AcDbSymbolTableRecord
100
AcDbLayerTableRecord
  2
Ｇ．Ｌ
 70
     0
 62
    30
  6
CONTINUOUS
370
    -3
390
159AE
  0
LAYER
  5
1173F
330
7467
100
AcDbSymbolTableRecord
100
AcDbLayerTableRecord
  2
細線
 70
     0
 62
     5
  6
CONTINUOUS
370
    -3
390
159AE
  0
LAYER
  5
12CC4
330
7467
100
AcDbSymbolTableRecord
100
AcDbLayerTableRecord
  2
想像線
 70
     0
 62
     6
  6
PHANTOM
370
    -3
390
159AE
  0
LAYER
  5
142E2
330
7467
100
AcDbSymbolTableRecord
100
AcDbLayerTableRecord
  2
破線
 70
     0
 62
     2
  6
HIDDEN
370
    -3
390
159AE
  0
ENDTAB
  0
TABLE
  2
STYLE
  5
7468
330
0
100
AcDbSymbolTable
 70
     3
  0
STYLE
  5
7475
330
7468
100
AcDbSymbolTableRecord
100
AcDbTextStyleTableRecord
  2
STANDARD
 70
     0
 40
0.0
 41
1.0
 50
0.0
 71
     0
 42
4.0
  3
txt
  4
C:\AutoCAD LT\bigfont.shx
  0
STYLE
  5
F706
330
7468
100
AcDbSymbolTableRecord
100
AcDbTextStyleTableRecord
  2
STYLE1
 70
     0
 40
0.0
 41
1.0
 50
0.0
 71
     0
 42
100.0
  3
isocp.shx
  4
bigfont.shx
  0
STYLE
  5
103BF
330
7468
100
AcDbSymbolTableRecord
100
AcDbTextStyleTableRecord
  2
STYLE2
 70
     0
 40
0.0
 41
1.0
 50
0.0
 71
     0
 42
100.0
  3
MS PGothic.ttf
  4

1001
ACAD
1000
MS PGothic
1071
    32818
  0
ENDTAB
  0
TABLE
  2
VIEW
  5
746B
330
0
100
AcDbSymbolTable
 70
     0
  0
ENDTAB
  0
TABLE
  2
UCS
  5
746C
330
0
100
AcDbSymbolTable
 70
     0
  0
ENDTAB
  0
TABLE
  2
APPID
  5
746E
330
0
100
AcDbSymbolTable
 70
     6
  0
APPID
  5
7476
330
746E
100
AcDbSymbolTableRecord
100
AcDbRegAppTableRecord
  2
ACAD
 70
     0
  0
APPID
  5
DEA9
330
746E
100
AcDbSymbolTableRecord
100
AcDbRegAppTableRecord
  2
CONTENTBLOCKICON
 70
     0
  0
APPID
  5
DEAA
330
746E
100
AcDbSymbolTableRecord
100
AcDbRegAppTableRecord
  2
CONTENTBLOCKDESCRIPTION
 70
     0
  0
APPID
  5
E71D
330
746E
100
AcDbSymbolTableRecord
100
AcDbRegAppTableRecord
  2
CONTENTTABDATA
 70
     0
  0
APPID
  5
E71E
330
746E
100
AcDbSymbolTableRecord
100
AcDbRegAppTableRecord
  2
CONTENTCURRENTTAB
 70
     0
  0
APPID
  5
F3BA
330
746E
100
AcDbSymbolTableRecord
100
AcDbRegAppTableRecord
  2
DRAWINGVARIABLESXDATA
 70
     0
  0
ENDTAB
  0
TABLE
  2
DIMSTYLE
  5
746F
330
0
100
AcDbSymbolTable
 70
     2
100
AcDbDimStyleTable
 71
     1
340
F71F
  0
DIMSTYLE
105
F71F
102
{ACAD_REACTORS
330
1D93F
330
1D93E
330
1D926
330
1D925
330
1D920
330
1D91D
330
1D934
330
1D933
330
1D92D
330
1D92C
330
1D929
330
1D927
330
1D91C
330
1D91B
330
1D948
330
1D947
330
1D959
330
1D942
330
1D940
330
1EE70
330
1EED0
330
1EED3
330
1EEDA
330
1EEE2
330
1EEE3
102
}
330
746F
100
AcDbSymbolTableRecord
100
AcDbDimStyleTableRecord
  2
INABA_S40G
 70
     0
 40
40.0
 41
2.5
 42
0.5
 43
7.0
 44
1.5
 73
     0
 74
     0
 77
     3
 78
     8
140
3.0
141
0.0
143
0.0394
147
1.0
172
     1
173
     1
174
     1
178
     7
271
     1
288
     1
340
F706
341
F770
343
F770
344
F770
  0
DIMSTYLE
105
1C645
330
746F
100
AcDbSymbolTableRecord
100
AcDbDimStyleTableRecord
  2
INABA_S50G
 70
     0
 40
0.0
 41
125.0
 42
25.0
 43
7.0
 44
75.0
 73
     0
 74
     0
 77
     3
 78
     8
140
150.0
141
0.0
143
0.0394
147
25.0
172
     1
173
     1
174
     1
178
     7
271
     1
340
F706
341
F770
343
F770
344
F770
  0
ENDTAB
  0
TABLE
  2
BLOCK_RECORD
  5
7466
330
0
100
AcDbSymbolTable
 70
    26
  0
BLOCK_RECORD
  5
747D
330
7466
100
AcDbSymbolTableRecord
100
AcDbBlockTableRecord
  2
*MODEL_SPACE
340
159B3
  0
BLOCK_RECORD
  5
747A
330
7466
100
AcDbSymbolTableRecord
100
AcDbBlockTableRecord
  2
*PAPER_SPACE
340
159B4
  0
BLOCK_RECORD
  5
F770
330
7466
100
AcDbSymbolTableRecord
100
AcDbBlockTableRecord
  2
_DOTSMALL
340
0
102
{BLKREFS
331
1EBAE
331
1EBAF
331
1EBB8
331
1EBB9
331
1EBC3
331
1EBC4
331
1EBCD
331
1EBCE
331
1EBD8
331
1EBD9
331
1EBE2
331
1EBE3
331
1EBEB
331
1EBEC
331
1EBF4
331
1EBF5
331
1EBFF
331
1EC00
331
1EC09
331
1EC0A
331
1EC12
331
1EC13
331
1EC1B
331
1EC1C
331
1EC25
331
1EC26
331
1EC2F
331
1EC30
331
1EF3A
331
1EF3B
331
1EF43
331
1EF44
331
1EF4C
331
1EF4D
331
1EF55
331
1EF56
331
1EF60
331
1EF61
331
1EF69
331
1EF6A
331
1EFB8
331
1EFB9
331
1EFC2
331
1EFC3
331
1EFCC
331
1EFCD
331
1EFD6
331
1EFD7
102
}
  0
BLOCK_RECORD
  5
1C530
330
7466
100
AcDbSymbolTableRecord
100
AcDbBlockTableRecord
  2
_NONE
340
0
  0
BLOCK_RECORD
  5
1DA44
330
7466
100
AcDbSymbolTableRecord
100
AcDbBlockTableRecord
  2
*D2
340
0
  0
BLOCK_RECORD
  5
1DA51
330
7466
100
AcDbSymbolTableRecord
100
AcDbBlockTableRecord
  2
*D3
340
0
  0
BLOCK_RECORD
  5
1DA5E
330
7466
100
AcDbSymbolTableRecord
100
AcDbBlockTableRecord
  2
*D4
340
0
  0
BLOCK_RECORD
  5
1DA69
330
7466
100
AcDbSymbolTableRecord
100
AcDbBlockTableRecord
  2
*D5
340
0
  0
BLOCK_RECORD
  5
1DA74
330
7466
100
AcDbSymbolTableRecord
100
AcDbBlockTableRecord
  2
*D6
340
0
  0
BLOCK_RECORD
  5
1DA81
330
7466
100
AcDbSymbolTableRecord
100
AcDbBlockTableRecord
  2
*D7
340
0
  0
BLOCK_RECORD
  5
1DA8E
330
7466
100
AcDbSymbolTableRecord
100
AcDbBlockTableRecord
  2
*D8
340
0
  0
BLOCK_RECORD
  5
1DA9A
330
7466
100
AcDbSymbolTableRecord
100
AcDbBlockTableRecord
  2
*D9
340
0
  0
BLOCK_RECORD
  5
1DAA5
330
7466
100
AcDbSymbolTableRecord
100
AcDbBlockTableRecord
  2
*D10
340
0
  0
BLOCK_RECORD
  5
1DAB2
330
7466
100
AcDbSymbolTableRecord
100
AcDbBlockTableRecord
  2
*D11
340
0
  0
BLOCK_RECORD
  5
1DABE
330
7466
100
AcDbSymbolTableRecord
100
AcDbBlockTableRecord
  2
*D12
340
0
  0
BLOCK_RECORD
  5
1DACB
330
7466
100
AcDbSymbolTableRecord
100
AcDbBlockTableRecord
  2
*D13
340
0
  0
BLOCK_RECORD
  5
1DAD9
330
7466
100
AcDbSymbolTableRecord
100
AcDbBlockTableRecord
  2
*D14
340
0
  0
BLOCK_RECORD
  5
1DAE6
330
7466
100
AcDbSymbolTableRecord
100
AcDbBlockTableRecord
  2
*D15
340
0
  0
BLOCK_RECORD
  5
1DAF3
330
7466
100
AcDbSymbolTableRecord
100
AcDbBlockTableRecord
  2
*D16
340
0
  0
BLOCK_RECORD
  5
1DB00
330
7466
100
AcDbSymbolTableRecord
100
AcDbBlockTableRecord
  2
*D17
340
0
  0
BLOCK_RECORD
  5
1DB0D
330
7466
100
AcDbSymbolTableRecord
100
AcDbBlockTableRecord
  2
*D18
340
0
  0
BLOCK_RECORD
  5
1DB1A
330
7466
100
AcDbSymbolTableRecord
100
AcDbBlockTableRecord
  2
*D19
340
0
  0
BLOCK_RECORD
  5
1EEED
330
7466
100
AcDbSymbolTableRecord
100
AcDbBlockTableRecord
  2
*D20
340
0
  0
BLOCK_RECORD
  5
1EEF9
330
7466
100
AcDbSymbolTableRecord
100
AcDbBlockTableRecord
  2
*D21
340
0
  0
BLOCK_RECORD
  5
1EF05
330
7466
100
AcDbSymbolTableRecord
100
AcDbBlockTableRecord
  2
*D22
340
0
  0
BLOCK_RECORD
  5
1EF11
330
7466
100
AcDbSymbolTableRecord
100
AcDbBlockTableRecord
  2
*D23
340
0
  0
BLOCK_RECORD
  5
1EF1D
330
7466
100
AcDbSymbolTableRecord
100
AcDbBlockTableRecord
  2
*D24
340
0
  0
BLOCK_RECORD
  5
1EF2B
330
7466
100
AcDbSymbolTableRecord
100
AcDbBlockTableRecord
  2
*D25
340
0
  0
ENDTAB
  0
ENDSEC
  0
SECTION
  2
BLOCKS
  0
BLOCK
  5
7489
330
747D
100
AcDbEntity
  8
0
100
AcDbBlockBegin
  2
*MODEL_SPACE
 70
     0
 10
0.0
 20
0.0
 30
0.0
  3
*MODEL_SPACE
  1

  0
ENDBLK
  5
748A
330
747D
100
AcDbEntity
  8
0
100
AcDbBlockEnd
  0
BLOCK
  5
7487
330
747A
100
AcDbEntity
 67
     1
  8
0
100
AcDbBlockBegin
  2
*PAPER_SPACE
 70
     0
 10
0.0
 20
0.0
 30
0.0
  3
*PAPER_SPACE
  1

  0
ENDBLK
  5
7488
330
747A
100
AcDbEntity
 67
     1
  8
0
100
AcDbBlockEnd
  0
BLOCK
  5
F771
330
F770
100
AcDbEntity
  8
0
 48
50.0
100
AcDbBlockBegin
  2
_DOTSMALL
 70
     0
 10
0.0
 20
0.0
 30
0.0
  3
_DOTSMALL
  1

  0
LWPOLYLINE
  5
F772
330
F770
100
AcDbEntity
  8
0
  6
ByBlock
 62
     0
 48
50.0
100
AcDbPolyline
 90
        2
 70
     1
 43
0.5
 10
-0.0625
 20
0.0
 42
1.0
 10
0.0625
 20
0.0
 42
1.0
  0
ENDBLK
  5
F776
330
F770
100
AcDbEntity
  8
0
 48
50.0
100
AcDbBlockEnd
  0
BLOCK
  5
1C531
330
1C530
100
AcDbEntity
  8
0
 48
50.0
100
AcDbBlockBegin
  2
_NONE
 70
     0
 10
0.0
 20
0.0
 30
0.0
  3
_NONE
  1

  0
CIRCLE
  5
1C532
330
1C530
100
AcDbEntity
  8
0
  6
ByBlock
 62
     0
 48
50.0
100
AcDbCircle
 10
0.0
 20
0.0
 30
0.0
 40
0.25
  0
ENDBLK
  5
1C533
330
1C530
100
AcDbEntity
  8
0
 48
50.0
100
AcDbBlockEnd
  0
BLOCK
  5
1DA4F
330
1DA44
100
AcDbEntity
  8
0
 48
50.0
100
AcDbBlockBegin
  2
*D2
 70
     1
 10
0.0
 20
0.0
 30
0.0
  3
*D2
  1

  0
LINE
  5
1EC2B
330
1DA44
100
AcDbEntity
  8
寸法
 62
     0
 48
50.0
370
    -2
100
AcDbLine
 10
7339.602433408254
 20
5669.999999999994
 30
0.0
 11
7596.309683284352
 21
5669.999999999994
 31
0.0
  0
LINE
  5
1EC2C
330
1DA44
100
AcDbEntity
  8
寸法
 62
     0
 48
50.0
370
    -2
100
AcDbLine
 10
7339.602433408254
 20
5799.999999999996
 30
0.0
 11
7596.309683284352
 21
5799.999999999996
 31
0.0
  0
LINE
  5
1EC2D
330
1DA44
100
AcDbEntity
  8
寸法
 62
     0
 48
50.0
370
    -2
100
AcDbLine
 10
7536.309683284352
 20
5669.999999999994
 30
0.0
 11
7536.309683284352
 21
5799.999999999996
 31
0.0
  0
LINE
  5
1EC2E
330
1DA44
100
AcDbEntity
  8
寸法
 62
     0
 48
50.0
370
    -2
100
AcDbLine
 10
7536.309683284352
 20
5799.999999999996
 30
0.0
 11
7536.309683284354
 21
6172.094488188973
 31
0.0
  0
INSERT
  5
1EC2F
330
1DA44
100
AcDbEntity
  8
寸法
 62
     0
 48
50.0
370
    -2
100
AcDbBlockReference
  2
_DOTSMALL
 10
7536.309683284352
 20
5669.999999999994
 30
0.0
 41
100.0
 42
100.0
 43
100.0
 50
270.0
  0
INSERT
  5
1EC30
330
1DA44
100
AcDbEntity
  8
寸法
 62
     0
 48
50.0
370
    -2
100
AcDbBlockReference
  2
_DOTSMALL
 10
7536.309683284352
 20
5799.999999999996
 30
0.0
 41
100.0
 42
100.0
 43
100.0
 50
90.0
  0
MTEXT
  5
1EC31
330
1DA44
100
AcDbEntity
  8
寸法
 62
     7
 48
50.0
100
AcDbMText
 10
7436.309683284351
 20
6036.047244094486
 30
0.0
 40
120.0
 41
0.0
 71
     5
 72
     1
  1
\A1;130
  7
STYLE1
 11
0.0000000000000001
 21
1.0
 31
0.0
 73
     1
 44
1.0
1001
ACAD
1000
MTEXTBEGIN
1070
    73
1070
     1
1070
    44
1040
1.0
1070
    74
1070
     0
1000
MTEXTEND
  0
POINT
  5
1EC32
330
1DA44
100
AcDbEntity
  8
DEFPOINTS
 62
     0
 48
50.0
100
AcDbPoint
 10
7319.602433408253
 20
5669.999999999994
 30
0.0
  0
POINT
  5
1EC33
330
1DA44
100
AcDbEntity
  8
DEFPOINTS
 62
     0
 48
50.0
100
AcDbPoint
 10
7319.602433408253
 20
5799.999999999996
 30
0.0
  0
POINT
  5
1EC34
330
1DA44
100
AcDbEntity
  8
DEFPOINTS
 62
     0
 48
50.0
100
AcDbPoint
 10
7536.309683284352
 20
5799.999999999996
 30
0.0
  0
ENDBLK
  5
1DA50
330
1DA44
100
AcDbEntity
  8
0
 48
50.0
100
AcDbBlockEnd
  0
BLOCK
  5
1DA5C
330
1DA51
100
AcDbEntity
  8
0
 48
50.0
100
AcDbBlockBegin
  2
*D3
 70
     1
 10
0.0
 20
0.0
 30
0.0
  3
*D3
  1

  0
LINE
  5
1EC21
330
1DA51
100
AcDbEntity
  8
寸法
 62
     0
 48
50.0
370
    -2
100
AcDbLine
 10
7339.602433408254
 20
5669.999999999995
 30
0.0
 11
7596.309683284352
 21
5669.999999999995
 31
0.0
  0
LINE
  5
1EC22
330
1DA51
100
AcDbEntity
  8
寸法
 62
     0
 48
50.0
370
    -2
100
AcDbLine
 10
7339.602433408254
 20
5499.999999999993
 30
0.0
 11
7596.309683284352
 21
5499.999999999993
 31
0.0
  0
LINE
  5
1EC23
330
1DA51
100
AcDbEntity
  8
寸法
 62
     0
 48
50.0
370
    -2
100
AcDbLine
 10
7536.309683284352
 20
5669.999999999995
 30
0.0
 11
7536.309683284352
 21
5499.999999999993
 31
0.0
  0
LINE
  5
1EC24
330
1DA51
100
AcDbEntity
  8
寸法
 62
     0
 48
50.0
370
    -2
100
AcDbLine
 10
7536.309683284352
 20
5499.999999999993
 30
0.0
 11
7536.309683284352
 21
5127.905511811017
 31
0.0
  0
INSERT
  5
1EC25
330
1DA51
100
AcDbEntity
  8
寸法
 62
     0
 48
50.0
370
    -2
100
AcDbBlockReference
  2
_DOTSMALL
 10
7536.309683284352
 20
5669.999999999995
 30
0.0
 41
100.0
 42
100.0
 43
100.0
 50
90.0
  0
INSERT
  5
1EC26
330
1DA51
100
AcDbEntity
  8
寸法
 62
     0
 48
50.0
370
    -2
100
AcDbBlockReference
  2
_DOTSMALL
 10
7536.309683284352
 20
5499.999999999993
 30
0.0
 41
100.0
 42
100.0
 43
100.0
 50
270.0
  0
MTEXT
  5
1EC27
330
1DA51
100
AcDbEntity
  8
寸法
 62
     7
 48
50.0
100
AcDbMText
 10
7436.309683284351
 20
5263.952755905506
 30
0.0
 40
120.0
 41
0.0
 71
     5
 72
     1
  1
\A1;170
  7
STYLE1
 11
0.0000000000000001
 21
1.0
 31
0.0
 73
     1
 44
1.0
1001
ACAD
1000
MTEXTBEGIN
1070
    73
1070
     1
1070
    44
1040
1.0
1070
    74
1070
     0
1000
MTEXTEND
  0
POINT
  5
1EC28
330
1DA51
100
AcDbEntity
  8
DEFPOINTS
 62
     0
 48
50.0
100
AcDbPoint
 10
7319.602433408253
 20
5669.999999999995
 30
0.0
  0
POINT
  5
1EC29
330
1DA51
100
AcDbEntity
  8
DEFPOINTS
 62
     0
 48
50.0
100
AcDbPoint
 10
7319.602433408253
 20
5499.999999999993
 30
0.0
  0
POINT
  5
1EC2A
330
1DA51
100
AcDbEntity
  8
DEFPOINTS
 62
     0
 48
50.0
100
AcDbPoint
 10
7536.309683284352
 20
5499.999999999993
 30
0.0
  0
ENDBLK
  5
1DA5D
330
1DA51
100
AcDbEntity
  8
0
 48
50.0
100
AcDbBlockEnd
  0
BLOCK
  5
1DA67
330
1DA5E
100
AcDbEntity
  8
0
 48
50.0
100
AcDbBlockBegin
  2
*D4
 70
     1
 10
0.0
 20
0.0
 30
0.0
  3
*D4
  1

  0
LINE
  5
1EC18
330
1DA5E
100
AcDbEntity
  8
寸法
 62
     0
 48
50.0
370
    -2
100
AcDbLine
 10
9186.602433408253
 20
6406.999999999991
 30
0.0
 11
9186.602433408253
 21
7125.060610389922
 31
0.0
  0
LINE
  5
1EC19
330
1DA5E
100
AcDbEntity
  8
寸法
 62
     0
 48
50.0
370
    -2
100
AcDbLine
 10
7212.602433408254
 20
6406.999999999992
 30
0.0
 11
7212.602433408254
 21
7125.060610389922
 31
0.0
  0
LINE
  5
1EC1A
330
1DA5E
100
AcDbEntity
  8
寸法
 62
     0
 48
50.0
370
    -2
100
AcDbLine
 10
9186.602433408253
 20
7065.06061038992
 30
0.0
 11
7212.602433408254
 21
7065.06061038992
 31
0.0
  0
INSERT
  5
1EC1B
330
1DA5E
100
AcDbEntity
  8
寸法
 62
     0
 48
50.0
370
    -2
100
AcDbBlockReference
  2
_DOTSMALL
 10
9186.602433408253
 20
7065.06061038992
 30
0.0
 41
100.0
 42
100.0
 43
100.0
  0
INSERT
  5
1EC1C
330
1DA5E
100
AcDbEntity
  8
寸法
 62
     0
 48
50.0
370
    -2
100
AcDbBlockReference
  2
_DOTSMALL
 10
7212.602433408254
 20
7065.06061038992
 30
0.0
 41
100.0
 42
100.0
 43
100.0
 50
180.0
  0
MTEXT
  5
1EC1D
330
1DA5E
100
AcDbEntity
  8
寸法
 62
     7
 48
50.0
100
AcDbMText
 10
8199.602433408255
 20
7165.060610389921
 30
0.0
 40
120.0
 41
0.0
 71
     5
 72
     1
  1
\A1;1974
  7
STYLE1
 73
     1
 44
1.0
1001
ACAD
1000
MTEXTBEGIN
1070
    73
1070
     1
1070
    44
1040
1.0
1070
    74
1070
     0
1000
MTEXTEND
  0
POINT
  5
1EC1E
330
1DA5E
100
AcDbEntity
  8
DEFPOINTS
 62
     0
 48
50.0
100
AcDbPoint
 10
9186.602433408253
 20
6386.999999999991
 30
0.0
  0
POINT
  5
1EC1F
330
1DA5E
100
AcDbEntity
  8
DEFPOINTS
 62
     0
 48
50.0
100
AcDbPoint
 10
7212.602433408254
 20
6386.999999999992
 30
0.0
  0
POINT
  5
1EC20
330
1DA5E
100
AcDbEntity
  8
DEFPOINTS
 62
     0
 48
50.0
100
AcDbPoint
 10
7212.602433408254
 20
7065.06061038992
 30
0.0
  0
ENDBLK
  5
1DA68
330
1DA5E
100
AcDbEntity
  8
0
 48
50.0
100
AcDbBlockEnd
  0
BLOCK
  5
1DA72
330
1DA69
100
AcDbEntity
  8
0
 48
50.0
100
AcDbBlockBegin
  2
*D5
 70
     1
 10
0.0
 20
0.0
 30
0.0
  3
*D5
  1

  0
LINE
  5
1EC0F
330
1DA69
100
AcDbEntity
  8
寸法
 62
     0
 48
50.0
370
    -2
100
AcDbLine
 10
7089.602433408254
 20
6479.999999999993
 30
0.0
 11
7089.602433408254
 21
7337.521305906758
 31
0.0
  0
LINE
  5
1EC10
330
1DA69
100
AcDbEntity
  8
寸法
 62
     0
 48
50.0
370
    -2
100
AcDbLine
 10
9309.602433408254
 20
6479.999999999991
 30
0.0
 11
9309.602433408254
 21
7337.521305906758
 31
0.0
  0
LINE
  5
1EC11
330
1DA69
100
AcDbEntity
  8
寸法
 62
     0
 48
50.0
370
    -2
100
AcDbLine
 10
7089.602433408254
 20
7277.521305906758
 30
0.0
 11
9309.602433408254
 21
7277.521305906758
 31
0.0
  0
INSERT
  5
1EC12
330
1DA69
100
AcDbEntity
  8
寸法
 62
     0
 48
50.0
370
    -2
100
AcDbBlockReference
  2
_DOTSMALL
 10
7089.602433408254
 20
7277.521305906758
 30
0.0
 41
100.0
 42
100.0
 43
100.0
 50
180.0
  0
INSERT
  5
1EC13
330
1DA69
100
AcDbEntity
  8
寸法
 62
     0
 48
50.0
370
    -2
100
AcDbBlockReference
  2
_DOTSMALL
 10
9309.602433408254
 20
7277.521305906758
 30
0.0
 41
100.0
 42
100.0
 43
100.0
  0
MTEXT
  5
1EC14
330
1DA69
100
AcDbEntity
  8
寸法
 62
     7
 48
50.0
100
AcDbMText
 10
8199.602433408255
 20
7377.533116930379
 30
0.0
 40
120.0
 41
0.0
 71
     5
 72
     1
  1
\A1;2220
  7
STYLE1
 73
     1
 44
1.0
1001
ACAD
1000
MTEXTBEGIN
1070
    73
1070
     1
1070
    44
1040
1.0
1070
    74
1070
     0
1000
MTEXTEND
  0
POINT
  5
1EC15
330
1DA69
100
AcDbEntity
  8
DEFPOINTS
 62
     0
 48
50.0
100
AcDbPoint
 10
7089.602433408254
 20
6459.999999999992
 30
0.0
  0
POINT
  5
1EC16
330
1DA69
100
AcDbEntity
  8
DEFPOINTS
 62
     0
 48
50.0
100
AcDbPoint
 10
9309.602433408254
 20
6459.999999999991
 30
0.0
  0
POINT
  5
1EC17
330
1DA69
100
AcDbEntity
  8
DEFPOINTS
 62
     0
 48
50.0
100
AcDbPoint
 10
9309.602433408254
 20
7277.521305906758
 30
0.0
  0
ENDBLK
  5
1DA73
330
1DA69
100
AcDbEntity
  8
0
 48
50.0
100
AcDbBlockEnd
  0
BLOCK
  5
1DA7F
330
1DA74
100
AcDbEntity
  8
0
 48
50.0
100
AcDbBlockBegin
  2
*D6
 70
     1
 10
0.0
 20
0.0
 30
0.0
  3
*D6
  1

  0
LINE
  5
1EC05
330
1DA74
100
AcDbEntity
  8
寸法
 62
     0
 48
50.0
370
    -2
100
AcDbLine
 10
7212.602433408254
 20
6406.999999999992
 30
0.0
 11
7212.602433408254
 21
7125.060610389922
 31
0.0
  0
LINE
  5
1EC06
330
1DA74
100
AcDbEntity
  8
寸法
 62
     0
 48
50.0
370
    -2
100
AcDbLine
 10
7089.602433408254
 20
6479.999999999993
 30
0.0
 11
7089.602433408254
 21
7125.060610389922
 31
0.0
  0
LINE
  5
1EC07
330
1DA74
100
AcDbEntity
  8
寸法
 62
     0
 48
50.0
370
    -2
100
AcDbLine
 10
7212.602433408254
 20
7065.060610389922
 30
0.0
 11
7089.602433408254
 21
7065.060610389922
 31
0.0
  0
LINE
  5
1EC08
330
1DA74
100
AcDbEntity
  8
寸法
 62
     0
 48
50.0
370
    -2
100
AcDbLine
 10
7089.602433408254
 20
7065.060610389922
 30
0.0
 11
6712.631870659777
 21
7065.060610389922
 31
0.0
  0
INSERT
  5
1EC09
330
1DA74
100
AcDbEntity
  8
寸法
 62
     0
 48
50.0
370
    -2
100
AcDbBlockReference
  2
_DOTSMALL
 10
7212.602433408254
 20
7065.060610389922
 30
0.0
 41
100.0
 42
100.0
 43
100.0
  0
INSERT
  5
1EC0A
330
1DA74
100
AcDbEntity
  8
寸法
 62
     0
 48
50.0
370
    -2
100
AcDbBlockReference
  2
_DOTSMALL
 10
7089.602433408254
 20
7065.060610389922
 30
0.0
 41
100.0
 42
100.0
 43
100.0
 50
180.0
  0
MTEXT
  5
1EC0B
330
1DA74
100
AcDbEntity
  8
寸法
 62
     7
 48
50.0
100
AcDbMText
 10
6851.117152034015
 20
7165.072421413544
 30
0.0
 40
120.0
 41
0.0
 71
     5
 72
     1
  1
\A1;123
  7
STYLE1
 73
     1
 44
1.0
1001
ACAD
1000
MTEXTBEGIN
1070
    73
1070
     1
1070
    44
1040
1.0
1070
    74
1070
     0
1000
MTEXTEND
  0
POINT
  5
1EC0C
330
1DA74
100
AcDbEntity
  8
DEFPOINTS
 62
     0
 48
50.0
100
AcDbPoint
 10
7212.602433408254
 20
6386.999999999992
 30
0.0
  0
POINT
  5
1EC0D
330
1DA74
100
AcDbEntity
  8
DEFPOINTS
 62
     0
 48
50.0
100
AcDbPoint
 10
7089.602433408254
 20
6459.999999999992
 30
0.0
  0
POINT
  5
1EC0E
330
1DA74
100
AcDbEntity
  8
DEFPOINTS
 62
     0
 48
50.0
100
AcDbPoint
 10
7089.602433408254
 20
7065.060610389922
 30
0.0
  0
ENDBLK
  5
1DA80
330
1DA74
100
AcDbEntity
  8
0
 48
50.0
100
AcDbBlockEnd
  0
BLOCK
  5
1DA8C
330
1DA81
100
AcDbEntity
  8
0
 48
50.0
100
AcDbBlockBegin
  2
*D7
 70
     1
 10
0.0
 20
0.0
 30
0.0
  3
*D7
  1

  0
LINE
  5
1EBFA
330
1DA81
100
AcDbEntity
  8
寸法
 62
     0
 48
50.0
370
    -2
100
AcDbLine
 10
7044.60243340825
 20
7085.060610389922
 30
0.0
 11
7044.60243340825
 21
7337.52130590676
 31
0.0
  0
LINE
  5
1EBFB
330
1DA81
100
AcDbEntity
  8
寸法
 62
     0
 48
50.0
370
    -2
100
AcDbLine
 10
7089.602433408254
 20
6479.999999999993
 30
0.0
 11
7089.602433408254
 21
7337.52130590676
 31
0.0
  0
LINE
  5
1EBFC
330
1DA81
100
AcDbEntity
  8
寸法
 62
     0
 48
50.0
370
    -2
100
AcDbLine
 10
7044.60243340825
 20
7277.521305906759
 30
0.0
 11
6944.602433408251
 21
7277.521305906759
 31
0.0
  0
LINE
  5
1EBFD
330
1DA81
100
AcDbEntity
  8
寸法
 62
     0
 48
50.0
370
    -2
100
AcDbLine
 10
7089.602433408254
 20
7277.521305906759
 30
0.0
 11
7189.602433408254
 21
7277.521305906759
 31
0.0
  0
LINE
  5
1EBFE
330
1DA81
100
AcDbEntity
  8
寸法
 62
     0
 48
50.0
370
    -2
100
AcDbLine
 10
7044.60243340825
 20
7277.521305906759
 30
0.0
 11
7089.602433408254
 21
7277.521305906759
 31
0.0
  0
INSERT
  5
1EBFF
330
1DA81
100
AcDbEntity
  8
寸法
 62
     0
 48
50.0
370
    -2
100
AcDbBlockReference
  2
_DOTSMALL
 10
7044.60243340825
 20
7277.521305906759
 30
0.0
 41
100.0
 42
100.0
 43
100.0
  0
INSERT
  5
1EC00
330
1DA81
100
AcDbEntity
  8
寸法
 62
     0
 48
50.0
370
    -2
100
AcDbBlockReference
  2
_DOTSMALL
 10
7089.602433408254
 20
7277.521305906759
 30
0.0
 41
100.0
 42
100.0
 43
100.0
 50
180.0
  0
MTEXT
  5
1EC01
330
1DA81
100
AcDbEntity
  8
寸法
 62
     7
 48
50.0
100
AcDbMText
 10
7067.102433408251
 20
7377.52130590676
 30
0.0
 40
120.0
 41
0.0
 71
     5
 72
     1
  1
\A1;a
  7
STYLE1
 73
     1
 44
1.0
1001
ACAD
1000
MTEXTBEGIN
1070
    73
1070
     1
1070
    44
1040
1.0
1070
    74
1070
     0
1000
MTEXTEND
  0
POINT
  5
1EC02
330
1DA81
100
AcDbEntity
  8
DEFPOINTS
 62
     0
 48
50.0
100
AcDbPoint
 10
7044.60243340825
 20
7065.060610389922
 30
0.0
  0
POINT
  5
1EC03
330
1DA81
100
AcDbEntity
  8
DEFPOINTS
 62
     0
 48
50.0
100
AcDbPoint
 10
7089.602433408254
 20
6459.999999999992
 30
0.0
  0
POINT
  5
1EC04
330
1DA81
100
AcDbEntity
  8
DEFPOINTS
 62
     0
 48
50.0
100
AcDbPoint
 10
7089.602433408254
 20
7277.521305906759
 30
0.0
  0
ENDBLK
  5
1DA8D
330
1DA81
100
AcDbEntity
  8
0
 48
50.0
100
AcDbBlockEnd
  0
BLOCK
  5
1DA98
330
1DA8E
100
AcDbEntity
  8
0
 48
50.0
100
AcDbBlockBegin
  2
*D8
 70
     1
 10
0.0
 20
0.0
 30
0.0
  3
*D8
  1

  0
LINE
  5
1EBF1
330
1DA8E
100
AcDbEntity
  8
寸法
 62
     0
 48
50.0
370
    -2
100
AcDbLine
 10
7142.602433408254
 20
6336.999999999992
 30
0.0
 11
6533.660167394433
 21
6336.999999999992
 31
0.0
  0
LINE
  5
1EBF2
330
1DA8E
100
AcDbEntity
  8
寸法
 62
     0
 48
50.0
370
    -2
100
AcDbLine
 10
7142.602433408261
 20
5697.999999999994
 30
0.0
 11
6533.660167394433
 21
5697.999999999994
 31
0.0
  0
LINE
  5
1EBF3
330
1DA8E
100
AcDbEntity
  8
寸法
 62
     0
 48
50.0
370
    -2
100
AcDbLine
 10
6593.660167394434
 20
6336.999999999992
 30
0.0
 11
6593.660167394432
 21
5697.999999999994
 31
0.0
  0
INSERT
  5
1EBF4
330
1DA8E
100
AcDbEntity
  8
寸法
 62
     0
 48
50.0
370
    -2
100
AcDbBlockReference
  2
_DOTSMALL
 10
6593.660167394434
 20
6336.999999999992
 30
0.0
 41
100.0
 42
100.0
 43
100.0
 50
90.0
  0
INSERT
  5
1EBF5
330
1DA8E
100
AcDbEntity
  8
寸法
 62
     0
 48
50.0
370
    -2
100
AcDbBlockReference
  2
_DOTSMALL
 10
6593.660167394432
 20
5697.999999999994
 30
0.0
 41
100.0
 42
100.0
 43
100.0
 50
270.0
  0
MTEXT
  5
1EBF6
330
1DA8E
100
AcDbEntity
  8
寸法
 62
     7
 48
50.0
100
AcDbMText
 10
6493.66016739443
 20
6024.668633536566
 30
0.0
 40
120.0
 41
0.0
 71
     5
 72
     1
  1
\A1;639
  7
STYLE1
 11
0.0000000000000001
 21
1.0
 31
0.0
 73
     1
 44
1.0
1001
ACAD
1000
MTEXTBEGIN
1070
    73
1070
     1
1070
    44
1040
1.0
1070
    74
1070
     0
1000
MTEXTEND
  0
POINT
  5
1EBF7
330
1DA8E
100
AcDbEntity
  8
DEFPOINTS
 62
     0
 48
50.0
100
AcDbPoint
 10
7162.602433408254
 20
6336.999999999992
 30
0.0
  0
POINT
  5
1EBF8
330
1DA8E
100
AcDbEntity
  8
DEFPOINTS
 62
     0
 48
50.0
100
AcDbPoint
 10
7162.602433408261
 20
5697.999999999994
 30
0.0
  0
POINT
  5
1EBF9
330
1DA8E
100
AcDbEntity
  8
DEFPOINTS
 62
     0
 48
50.0
100
AcDbPoint
 10
6593.660167394432
 20
5697.999999999994
 30
0.0
  0
ENDBLK
  5
1DA99
330
1DA8E
100
AcDbEntity
  8
0
 48
50.0
100
AcDbBlockEnd
  0
BLOCK
  5
1DAA3
330
1DA9A
100
AcDbEntity
  8
0
 48
50.0
100
AcDbBlockBegin
  2
*D9
 70
     1
 10
0.0
 20
0.0
 30
0.0
  3
*D9
  1

  0
LINE
  5
1EBE8
330
1DA9A
100
AcDbEntity
  8
寸法
 62
     0
 48
50.0
370
    -2
100
AcDbLine
 10
7069.602433408253
 20
6459.999999999992
 30
0.0
 11
6288.167365256466
 21
6459.999999999992
 31
0.0
  0
LINE
  5
1EBE9
330
1DA9A
100
AcDbEntity
  8
寸法
 62
     0
 48
50.0
370
    -2
100
AcDbLine
 10
7069.602433408253
 20
5499.999999999992
 30
0.0
 11
6288.167365256465
 21
5499.999999999992
 31
0.0
  0
LINE
  5
1EBEA
330
1DA9A
100
AcDbEntity
  8
寸法
 62
     0
 48
50.0
370
    -2
100
AcDbLine
 10
6348.167365256466
 20
6459.999999999992
 30
0.0
 11
6348.167365256465
 21
5499.999999999992
 31
0.0
  0
INSERT
  5
1EBEB
330
1DA9A
100
AcDbEntity
  8
寸法
 62
     0
 48
50.0
370
    -2
100
AcDbBlockReference
  2
_DOTSMALL
 10
6348.167365256466
 20
6459.999999999992
 30
0.0
 41
100.0
 42
100.0
 43
100.0
 50
90.0
  0
INSERT
  5
1EBEC
330
1DA9A
100
AcDbEntity
  8
寸法
 62
     0
 48
50.0
370
    -2
100
AcDbBlockReference
  2
_DOTSMALL
 10
6348.167365256465
 20
5499.999999999992
 30
0.0
 41
100.0
 42
100.0
 43
100.0
 50
270.0
  0
MTEXT
  5
1EBED
330
1DA9A
100
AcDbEntity
  8
寸法
 62
     7
 48
50.0
100
AcDbMText
 10
6248.167365256464
 20
6024.668633536566
 30
0.0
 40
120.0
 41
0.0
 71
     5
 72
     1
  1
\A1;960
  7
STYLE1
 11
0.0000000000000001
 21
1.0
 31
0.0
 73
     1
 44
1.0
1001
ACAD
1000
MTEXTBEGIN
1070
    73
1070
     1
1070
    44
1040
1.0
1070
    74
1070
     0
1000
MTEXTEND
  0
POINT
  5
1EBEE
330
1DA9A
100
AcDbEntity
  8
DEFPOINTS
 62
     0
 48
50.0
100
AcDbPoint
 10
7089.602433408254
 20
6459.999999999992
 30
0.0
  0
POINT
  5
1EBEF
330
1DA9A
100
AcDbEntity
  8
DEFPOINTS
 62
     0
 48
50.0
100
AcDbPoint
 10
7089.602433408254
 20
5499.999999999992
 30
0.0
  0
POINT
  5
1EBF0
330
1DA9A
100
AcDbEntity
  8
DEFPOINTS
 62
     0
 48
50.0
100
AcDbPoint
 10
6348.167365256465
 20
5499.999999999992
 30
0.0
  0
ENDBLK
  5
1DAA4
330
1DA9A
100
AcDbEntity
  8
0
 48
50.0
100
AcDbBlockEnd
  0
BLOCK
  5
1DAB0
330
1DAA5
100
AcDbEntity
  8
0
 48
50.0
100
AcDbBlockBegin
  2
*D10
 70
     1
 10
0.0
 20
0.0
 30
0.0
  3
*D10
  1

  0
LINE
  5
1EBDE
330
1DAA5
100
AcDbEntity
  8
寸法
 62
     0
 48
50.0
370
    -2
100
AcDbLine
 10
7142.602433408261
 20
5697.999999999994
 30
0.0
 11
6533.660167394433
 21
5697.999999999994
 31
0.0
  0
LINE
  5
1EBDF
330
1DAA5
100
AcDbEntity
  8
寸法
 62
     0
 48
50.0
370
    -2
100
AcDbLine
 10
7069.602433408253
 20
5499.999999999992
 30
0.0
 11
6533.660167394433
 21
5499.999999999992
 31
0.0
  0
LINE
  5
1EBE0
330
1DAA5
100
AcDbEntity
  8
寸法
 62
     0
 48
50.0
370
    -2
100
AcDbLine
 10
6593.660167394432
 20
5697.999999999994
 30
0.0
 11
6593.660167394432
 21
5499.999999999992
 31
0.0
  0
LINE
  5
1EBE1
330
1DAA5
100
AcDbEntity
  8
寸法
 62
     0
 48
50.0
370
    -2
100
AcDbLine
 10
6593.660167394432
 20
5499.999999999992
 30
0.0
 11
6593.660167394432
 21
5127.580680340678
 31
0.0
  0
INSERT
  5
1EBE2
330
1DAA5
100
AcDbEntity
  8
寸法
 62
     0
 48
50.0
370
    -2
100
AcDbBlockReference
  2
_DOTSMALL
 10
6593.660167394432
 20
5697.999999999994
 30
0.0
 41
100.0
 42
100.0
 43
100.0
 50
90.0
  0
INSERT
  5
1EBE3
330
1DAA5
100
AcDbEntity
  8
寸法
 62
     0
 48
50.0
370
    -2
100
AcDbBlockReference
  2
_DOTSMALL
 10
6593.660167394432
 20
5499.999999999992
 30
0.0
 41
100.0
 42
100.0
 43
100.0
 50
270.0
  0
MTEXT
  5
1EBE4
330
1DAA5
100
AcDbEntity
  8
寸法
 62
     7
 48
50.0
100
AcDbMText
 10
6493.66016739443
 20
5263.790340170337
 30
0.0
 40
120.0
 41
0.0
 71
     5
 72
     1
  1
\A1;198
  7
STYLE1
 11
0.0000000000000001
 21
1.0
 31
0.0
 73
     1
 44
1.0
1001
ACAD
1000
MTEXTBEGIN
1070
    73
1070
     1
1070
    44
1040
1.0
1070
    74
1070
     0
1000
MTEXTEND
  0
POINT
  5
1EBE5
330
1DAA5
100
AcDbEntity
  8
DEFPOINTS
 62
     0
 48
50.0
100
AcDbPoint
 10
7162.602433408261
 20
5697.999999999994
 30
0.0
  0
POINT
  5
1EBE6
330
1DAA5
100
AcDbEntity
  8
DEFPOINTS
 62
     0
 48
50.0
100
AcDbPoint
 10
7089.602433408254
 20
5499.999999999992
 30
0.0
  0
POINT
  5
1EBE7
330
1DAA5
100
AcDbEntity
  8
DEFPOINTS
 62
     0
 48
50.0
100
AcDbPoint
 10
6593.660167394432
 20
5499.999999999992
 30
0.0
  0
ENDBLK
  5
1DAB1
330
1DAA5
100
AcDbEntity
  8
0
 48
50.0
100
AcDbBlockEnd
  0
BLOCK
  5
1DABC
330
1DAB2
100
AcDbEntity
  8
0
 48
50.0
100
AcDbBlockBegin
  2
*D11
 70
     1
 10
0.0
 20
0.0
 30
0.0
  3
*D11
  1

  0
LINE
  5
1EBD3
330
1DAB2
100
AcDbEntity
  8
寸法
 62
     0
 48
50.0
370
    -2
100
AcDbLine
 10
7069.602433408253
 20
5499.999999999992
 30
0.0
 11
6288.167365256466
 21
5499.999999999992
 31
0.0
  0
LINE
  5
1EBD4
330
1DAB2
100
AcDbEntity
  8
寸法
 62
     0
 48
50.0
370
    -2
100
AcDbLine
 10
6573.660167394432
 20
5444.999999999992
 30
0.0
 11
6288.167365256466
 21
5444.999999999992
 31
0.0
  0
LINE
  5
1EBD5
330
1DAB2
100
AcDbEntity
  8
寸法
 62
     0
 48
50.0
370
    -2
100
AcDbLine
 10
6348.167365256466
 20
5499.999999999992
 30
0.0
 11
6348.167365256466
 21
5599.999999999992
 31
0.0
  0
LINE
  5
1EBD6
330
1DAB2
100
AcDbEntity
  8
寸法
 62
     0
 48
50.0
370
    -2
100
AcDbLine
 10
6348.167365256466
 20
5444.999999999992
 30
0.0
 11
6348.167365256466
 21
5344.999999999991
 31
0.0
  0
LINE
  5
1EBD7
330
1DAB2
100
AcDbEntity
  8
寸法
 62
     0
 48
50.0
370
    -2
100
AcDbLine
 10
6348.167365256466
 20
5499.999999999992
 30
0.0
 11
6348.167365256466
 21
5444.999999999992
 31
0.0
  0
INSERT
  5
1EBD8
330
1DAB2
100
AcDbEntity
  8
寸法
 62
     0
 48
50.0
370
    -2
100
AcDbBlockReference
  2
_DOTSMALL
 10
6348.167365256466
 20
5499.999999999992
 30
0.0
 41
100.0
 42
100.0
 43
100.0
 50
270.0
  0
INSERT
  5
1EBD9
330
1DAB2
100
AcDbEntity
  8
寸法
 62
     0
 48
50.0
370
    -2
100
AcDbBlockReference
  2
_DOTSMALL
 10
6348.167365256466
 20
5444.999999999992
 30
0.0
 41
100.0
 42
100.0
 43
100.0
 50
90.0
  0
MTEXT
  5
1EBDA
330
1DAB2
100
AcDbEntity
  8
寸法
 62
     7
 48
50.0
100
AcDbMText
 10
6248.167365256465
 20
5472.499999999993
 30
0.0
 40
120.0
 41
0.0
 71
     5
 72
     1
  1
\A1;b
  7
STYLE1
 11
0.0000000000000001
 21
1.0
 31
0.0
 73
     1
 44
1.0
1001
ACAD
1000
MTEXTBEGIN
1070
    73
1070
     1
1070
    44
1040
1.0
1070
    74
1070
     0
1000
MTEXTEND
  0
POINT
  5
1EBDB
330
1DAB2
100
AcDbEntity
  8
DEFPOINTS
 62
     0
 48
50.0
100
AcDbPoint
 10
7089.602433408254
 20
5499.999999999992
 30
0.0
  0
POINT
  5
1EBDC
330
1DAB2
100
AcDbEntity
  8
DEFPOINTS
 62
     0
 48
50.0
100
AcDbPoint
 10
6593.660167394432
 20
5444.999999999992
 30
0.0
  0
POINT
  5
1EBDD
330
1DAB2
100
AcDbEntity
  8
DEFPOINTS
 62
     0
 48
50.0
100
AcDbPoint
 10
6348.167365256466
 20
5444.999999999992
 30
0.0
  0
ENDBLK
  5
1DABD
330
1DAB2
100
AcDbEntity
  8
0
 48
50.0
100
AcDbBlockEnd
  0
BLOCK
  5
1DAC9
330
1DABE
100
AcDbEntity
  8
0
 48
50.0
100
AcDbBlockBegin
  2
*D12
 70
     1
 10
0.0
 20
0.0
 30
0.0
  3
*D12
  1

  0
LINE
  5
1EBC9
330
1DABE
100
AcDbEntity
  8
寸法
 62
     0
 48
50.0
370
    -2
100
AcDbLine
 10
7069.602433408253
 20
6459.999999999992
 30
0.0
 11
6533.660167394433
 21
6459.999999999992
 31
0.0
  0
LINE
  5
1EBCA
330
1DABE
100
AcDbEntity
  8
寸法
 62
     0
 48
50.0
370
    -2
100
AcDbLine
 10
7142.602433408254
 20
6336.999999999992
 30
0.0
 11
6533.660167394433
 21
6336.999999999992
 31
0.0
  0
LINE
  5
1EBCB
330
1DABE
100
AcDbEntity
  8
寸法
 62
     0
 48
50.0
370
    -2
100
AcDbLine
 10
6593.660167394434
 20
6336.999999999992
 30
0.0
 11
6593.660167394434
 21
6459.999999999992
 31
0.0
  0
LINE
  5
1EBCC
330
1DABE
100
AcDbEntity
  8
寸法
 62
     0
 48
50.0
370
    -2
100
AcDbLine
 10
6593.660167394434
 20
6459.999999999992
 30
0.0
 11
6593.660167394434
 21
6836.970562748469
 31
0.0
  0
INSERT
  5
1EBCD
330
1DABE
100
AcDbEntity
  8
寸法
 62
     0
 48
50.0
370
    -2
100
AcDbBlockReference
  2
_DOTSMALL
 10
6593.660167394434
 20
6336.999999999992
 30
0.0
 41
100.0
 42
100.0
 43
100.0
 50
270.0
  0
INSERT
  5
1EBCE
330
1DABE
100
AcDbEntity
  8
寸法
 62
     0
 48
50.0
370
    -2
100
AcDbBlockReference
  2
_DOTSMALL
 10
6593.660167394434
 20
6459.999999999992
 30
0.0
 41
100.0
 42
100.0
 43
100.0
 50
90.0
  0
MTEXT
  5
1EBCF
330
1DABE
100
AcDbEntity
  8
寸法
 62
     7
 48
50.0
100
AcDbMText
 10
6493.648356370809
 20
6698.485281374232
 30
0.0
 40
120.0
 41
0.0
 71
     5
 72
     1
  1
\A1;123
  7
STYLE1
 11
0.0000000000000001
 21
1.0
 31
0.0
 73
     1
 44
1.0
1001
ACAD
1000
MTEXTBEGIN
1070
    73
1070
     1
1070
    44
1040
1.0
1070
    74
1070
     0
1000
MTEXTEND
  0
POINT
  5
1EBD0
330
1DABE
100
AcDbEntity
  8
DEFPOINTS
 62
     0
 48
50.0
100
AcDbPoint
 10
7089.602433408254
 20
6459.999999999992
 30
0.0
  0
POINT
  5
1EBD1
330
1DABE
100
AcDbEntity
  8
DEFPOINTS
 62
     0
 48
50.0
100
AcDbPoint
 10
7162.602433408254
 20
6336.999999999992
 30
0.0
  0
POINT
  5
1EBD2
330
1DABE
100
AcDbEntity
  8
DEFPOINTS
 62
     0
 48
50.0
100
AcDbPoint
 10
6593.660167394434
 20
6336.999999999992
 30
0.0
  0
ENDBLK
  5
1DACA
330
1DABE
100
AcDbEntity
  8
0
 48
50.0
100
AcDbBlockEnd
  0
BLOCK
  5
1DAD7
330
1DACB
100
AcDbEntity
  8
0
 48
50.0
100
AcDbBlockBegin
  2
*D13
 70
     1
 10
0.0
 20
0.0
 30
0.0
  3
*D13
  1

  0
LINE
  5
1EBBE
330
1DACB
100
AcDbEntity
  8
寸法
 62
     0
 48
50.0
370
    -2
100
AcDbLine
 10
6573.660167394433
 20
6534.999999999993
 30
0.0
 11
6288.167365256466
 21
6534.999999999993
 31
0.0
  0
LINE
  5
1EBBF
330
1DACB
100
AcDbEntity
  8
寸法
 62
     0
 48
50.0
370
    -2
100
AcDbLine
 10
7069.602433408253
 20
6459.999999999992
 30
0.0
 11
6288.167365256466
 21
6459.999999999992
 31
0.0
  0
LINE
  5
1EBC0
330
1DACB
100
AcDbEntity
  8
寸法
 62
     0
 48
50.0
370
    -2
100
AcDbLine
 10
6348.167365256466
 20
6534.999999999993
 30
0.0
 11
6348.167365256466
 21
6634.999999999992
 31
0.0
  0
LINE
  5
1EBC1
330
1DACB
100
AcDbEntity
  8
寸法
 62
     0
 48
50.0
370
    -2
100
AcDbLine
 10
6348.167365256466
 20
6459.999999999992
 30
0.0
 11
6348.167365256466
 21
6359.999999999992
 31
0.0
  0
LINE
  5
1EBC2
330
1DACB
100
AcDbEntity
  8
寸法
 62
     0
 48
50.0
370
    -2
100
AcDbLine
 10
6348.167365256466
 20
6534.999999999993
 30
0.0
 11
6348.167365256466
 21
6459.999999999992
 31
0.0
  0
INSERT
  5
1EBC3
330
1DACB
100
AcDbEntity
  8
寸法
 62
     0
 48
50.0
370
    -2
100
AcDbBlockReference
  2
_DOTSMALL
 10
6348.167365256466
 20
6534.999999999993
 30
0.0
 41
100.0
 42
100.0
 43
100.0
 50
270.0
  0
INSERT
  5
1EBC4
330
1DACB
100
AcDbEntity
  8
寸法
 62
     0
 48
50.0
370
    -2
100
AcDbBlockReference
  2
_DOTSMALL
 10
6348.167365256466
 20
6459.999999999992
 30
0.0
 41
100.0
 42
100.0
 43
100.0
 50
90.0
  0
MTEXT
  5
1EBC5
330
1DACB
100
AcDbEntity
  8
寸法
 62
     7
 48
50.0
100
AcDbMText
 10
6248.167365256464
 20
6497.499999999994
 30
0.0
 40
120.0
 41
0.0
 71
     5
 72
     1
  1
\A1;c
  7
STYLE1
 11
0.0000000000000001
 21
1.0
 31
0.0
 73
     1
 44
1.0
1001
ACAD
1000
MTEXTBEGIN
1070
    73
1070
     1
1070
    44
1040
1.0
1070
    74
1070
     0
1000
MTEXTEND
  0
POINT
  5
1EBC6
330
1DACB
100
AcDbEntity
  8
DEFPOINTS
 62
     0
 48
50.0
100
AcDbPoint
 10
6593.660167394434
 20
6534.999999999993
 30
0.0
  0
POINT
  5
1EBC7
330
1DACB
100
AcDbEntity
  8
DEFPOINTS
 62
     0
 48
50.0
100
AcDbPoint
 10
7089.602433408254
 20
6459.999999999992
 30
0.0
  0
POINT
  5
1EBC8
330
1DACB
100
AcDbEntity
  8
DEFPOINTS
 62
     0
 48
50.0
100
AcDbPoint
 10
6348.167365256466
 20
6459.999999999992
 30
0.0
  0
ENDBLK
  5
1DAD8
330
1DACB
100
AcDbEntity
  8
0
 48
50.0
100
AcDbBlockEnd
  0
BLOCK
  5
1DAE4
330
1DAD9
100
AcDbEntity
  8
0
 48
50.0
100
AcDbBlockBegin
  2
*D14
 70
     1
 10
0.0
 20
0.0
 30
0.0
  3
*D14
  1

  0
LINE
  5
1EBB4
330
1DAD9
100
AcDbEntity
  8
寸法
 62
     0
 48
50.0
370
    -2
100
AcDbLine
 10
9309.602433408254
 20
6479.999999999991
 30
0.0
 11
9309.602433408254
 21
7125.060610389922
 31
0.0
  0
LINE
  5
1EBB5
330
1DAD9
100
AcDbEntity
  8
寸法
 62
     0
 48
50.0
370
    -2
100
AcDbLine
 10
9186.602433408253
 20
6406.999999999991
 30
0.0
 11
9186.602433408253
 21
7125.060610389922
 31
0.0
  0
LINE
  5
1EBB6
330
1DAD9
100
AcDbEntity
  8
寸法
 62
     0
 48
50.0
370
    -2
100
AcDbLine
 10
9186.602433408253
 20
7065.06061038992
 30
0.0
 11
9309.602433408254
 21
7065.06061038992
 31
0.0
  0
LINE
  5
1EBB7
330
1DAD9
100
AcDbEntity
  8
寸法
 62
     0
 48
50.0
370
    -2
100
AcDbLine
 10
9309.602433408254
 20
7065.06061038992
 30
0.0
 11
9686.572996156732
 21
7065.06061038992
 31
0.0
  0
INSERT
  5
1EBB8
330
1DAD9
100
AcDbEntity
  8
寸法
 62
     0
 48
50.0
370
    -2
100
AcDbBlockReference
  2
_DOTSMALL
 10
9186.602433408253
 20
7065.06061038992
 30
0.0
 41
100.0
 42
100.0
 43
100.0
 50
180.0
  0
INSERT
  5
1EBB9
330
1DAD9
100
AcDbEntity
  8
寸法
 62
     0
 48
50.0
370
    -2
100
AcDbBlockReference
  2
_DOTSMALL
 10
9309.602433408254
 20
7065.06061038992
 30
0.0
 41
100.0
 42
100.0
 43
100.0
  0
MTEXT
  5
1EBBA
330
1DAD9
100
AcDbEntity
  8
寸法
 62
     7
 48
50.0
100
AcDbMText
 10
9548.087714782493
 20
7165.072421413542
 30
0.0
 40
120.0
 41
0.0
 71
     5
 72
     1
  1
\A1;123
  7
STYLE1
 73
     1
 44
1.0
1001
ACAD
1000
MTEXTBEGIN
1070
    73
1070
     1
1070
    44
1040
1.0
1070
    74
1070
     0
1000
MTEXTEND
  0
POINT
  5
1EBBB
330
1DAD9
100
AcDbEntity
  8
DEFPOINTS
 62
     0
 48
50.0
100
AcDbPoint
 10
9309.602433408254
 20
6459.999999999991
 30
0.0
  0
POINT
  5
1EBBC
330
1DAD9
100
AcDbEntity
  8
DEFPOINTS
 62
     0
 48
50.0
100
AcDbPoint
 10
9186.602433408253
 20
6386.999999999991
 30
0.0
  0
POINT
  5
1EBBD
330
1DAD9
100
AcDbEntity
  8
DEFPOINTS
 62
     0
 48
50.0
100
AcDbPoint
 10
9186.602433408253
 20
7065.06061038992
 30
0.0
  0
ENDBLK
  5
1DAE5
330
1DAD9
100
AcDbEntity
  8
0
 48
50.0
100
AcDbBlockEnd
  0
BLOCK
  5
1DAF1
330
1DAE6
100
AcDbEntity
  8
0
 48
50.0
100
AcDbBlockBegin
  2
*D15
 70
     1
 10
0.0
 20
0.0
 30
0.0
  3
*D15
  1

  0
LINE
  5
1EBA9
330
1DAE6
100
AcDbEntity
  8
寸法
 62
     0
 48
50.0
370
    -2
100
AcDbLine
 10
9309.602433408254
 20
6479.999999999991
 30
0.0
 11
9309.602433408254
 21
7337.521305906758
 31
0.0
  0
LINE
  5
1EBAA
330
1DAE6
100
AcDbEntity
  8
寸法
 62
     0
 48
50.0
370
    -2
100
AcDbLine
 10
9354.602433408254
 20
7085.060610389921
 30
0.0
 11
9354.602433408254
 21
7337.521305906758
 31
0.0
  0
LINE
  5
1EBAB
330
1DAE6
100
AcDbEntity
  8
寸法
 62
     0
 48
50.0
370
    -2
100
AcDbLine
 10
9309.602433408254
 20
7277.521305906758
 30
0.0
 11
9209.602433408255
 21
7277.521305906758
 31
0.0
  0
LINE
  5
1EBAC
330
1DAE6
100
AcDbEntity
  8
寸法
 62
     0
 48
50.0
370
    -2
100
AcDbLine
 10
9354.602433408254
 20
7277.521305906758
 30
0.0
 11
9454.602433408254
 21
7277.521305906758
 31
0.0
  0
LINE
  5
1EBAD
330
1DAE6
100
AcDbEntity
  8
寸法
 62
     0
 48
50.0
370
    -2
100
AcDbLine
 10
9309.602433408254
 20
7277.521305906758
 30
0.0
 11
9354.602433408254
 21
7277.521305906758
 31
0.0
  0
INSERT
  5
1EBAE
330
1DAE6
100
AcDbEntity
  8
寸法
 62
     0
 48
50.0
370
    -2
100
AcDbBlockReference
  2
_DOTSMALL
 10
9309.602433408254
 20
7277.521305906758
 30
0.0
 41
100.0
 42
100.0
 43
100.0
  0
INSERT
  5
1EBAF
330
1DAE6
100
AcDbEntity
  8
寸法
 62
     0
 48
50.0
370
    -2
100
AcDbBlockReference
  2
_DOTSMALL
 10
9354.602433408254
 20
7277.521305906758
 30
0.0
 41
100.0
 42
100.0
 43
100.0
 50
180.0
  0
MTEXT
  5
1EBB0
330
1DAE6
100
AcDbEntity
  8
寸法
 62
     7
 48
50.0
100
AcDbMText
 10
9332.102433408254
 20
7377.521305906758
 30
0.0
 40
120.0
 41
0.0
 71
     5
 72
     1
  1
\A1;a
  7
STYLE1
 73
     1
 44
1.0
1001
ACAD
1000
MTEXTBEGIN
1070
    73
1070
     1
1070
    44
1040
1.0
1070
    74
1070
     0
1000
MTEXTEND
  0
POINT
  5
1EBB1
330
1DAE6
100
AcDbEntity
  8
DEFPOINTS
 62
     0
 48
50.0
100
AcDbPoint
 10
9309.602433408254
 20
6459.999999999991
 30
0.0
  0
POINT
  5
1EBB2
330
1DAE6
100
AcDbEntity
  8
DEFPOINTS
 62
     0
 48
50.0
100
AcDbPoint
 10
9354.602433408254
 20
7065.06061038992
 30
0.0
  0
POINT
  5
1EBB3
330
1DAE6
100
AcDbEntity
  8
DEFPOINTS
 62
     0
 48
50.0
100
AcDbPoint
 10
9354.602433408254
 20
7277.521305906758
 30
0.0
  0
ENDBLK
  5
1DAF2
330
1DAE6
100
AcDbEntity
  8
0
 48
50.0
100
AcDbBlockEnd
  0
BLOCK
  5
1DAFE
330
1DAF3
100
AcDbEntity
  8
0
 48
50.0
100
AcDbBlockBegin
  2
*D16
 70
     1
 10
0.0
 20
0.0
 30
0.0
  3
*D16
  1

  0
LINE
  5
1EFBE
330
1DAF3
100
AcDbEntity
  8
寸法
 62
     0
 48
50.0
370
    -2
100
AcDbLine
 10
9309.602433408254
 20
5960.0
 30
0.0
 11
9309.602433408254
 21
5861.503367980584
 31
0.0
  0
LINE
  5
1EFBF
330
1DAF3
100
AcDbEntity
  8
寸法
 62
     0
 48
50.0
370
    -2
100
AcDbLine
 10
9189.602433408254
 20
5963.708180407764
 30
0.0
 11
9189.602433408254
 21
5861.503367980584
 31
0.0
  0
LINE
  5
1EFC0
330
1DAF3
100
AcDbEntity
  8
寸法
 62
     0
 48
50.0
370
    -2
100
AcDbLine
 10
9189.602433408254
 20
5921.503367980584
 30
0.0
 11
9309.602433408254
 21
5921.503367980584
 31
0.0
  0
LINE
  5
1EFC1
330
1DAF3
100
AcDbEntity
  8
寸法
 62
     0
 48
50.0
370
    -2
100
AcDbLine
 10
9309.602433408254
 20
5921.503367980584
 30
0.0
 11
9681.696921597232
 21
5921.503367980584
 31
0.0
  0
INSERT
  5
1EFC2
330
1DAF3
100
AcDbEntity
  8
寸法
 62
     0
 48
50.0
370
    -2
100
AcDbBlockReference
  2
_DOTSMALL
 10
9189.602433408254
 20
5921.503367980584
 30
0.0
 41
100.0
 42
100.0
 43
100.0
 50
180.0
  0
INSERT
  5
1EFC3
330
1DAF3
100
AcDbEntity
  8
寸法
 62
     0
 48
50.0
370
    -2
100
AcDbBlockReference
  2
_DOTSMALL
 10
9309.602433408254
 20
5921.503367980584
 30
0.0
 41
100.0
 42
100.0
 43
100.0
  0
MTEXT
  5
1EFC4
330
1DAF3
100
AcDbEntity
  8
寸法
 62
     7
 48
50.0
100
AcDbMText
 10
9545.649677502742
 20
6021.515179004206
 30
0.0
 40
120.0
 41
0.0
 71
     5
 72
     1
  1
\A1;120
  7
STYLE1
 73
     1
 44
1.0
1001
ACAD
1000
MTEXTBEGIN
1070
    73
1070
     1
1070
    44
1040
1.0
1070
    74
1070
     0
1000
MTEXTEND
  0
POINT
  5
1EFC5
330
1DAF3
100
AcDbEntity
  8
DEFPOINTS
 62
     0
 48
50.0
100
AcDbPoint
 10
9309.602433408254
 20
5980.0
 30
0.0
  0
POINT
  5
1EFC6
330
1DAF3
100
AcDbEntity
  8
DEFPOINTS
 62
     0
 48
50.0
100
AcDbPoint
 10
9189.602433408254
 20
5983.708180407764
 30
0.0
  0
POINT
  5
1EFC7
330
1DAF3
100
AcDbEntity
  8
DEFPOINTS
 62
     0
 48
50.0
100
AcDbPoint
 10
9189.602433408254
 20
5921.503367980584
 30
0.0
  0
ENDBLK
  5
1DAFF
330
1DAF3
100
AcDbEntity
  8
0
 48
50.0
100
AcDbBlockEnd
  0
BLOCK
  5
1DB0B
330
1DB00
100
AcDbEntity
  8
0
 48
50.0
100
AcDbBlockBegin
  2
*D17
 70
     1
 10
0.0
 20
0.0
 30
0.0
  3
*D17
  1

  0
LINE
  5
1EFD2
330
1DB00
100
AcDbEntity
  8
寸法
 62
     0
 48
50.0
370
    -2
100
AcDbLine
 10
8431.017960730853
 20
6339.999999999991
 30
0.0
 11
8529.103563459484
 21
6339.999999999991
 31
0.0
  0
LINE
  5
1EFD3
330
1DB00
100
AcDbEntity
  8
寸法
 62
     0
 48
50.0
370
    -2
100
AcDbLine
 10
9059.602433408254
 20
6229.999999999989
 30
0.0
 11
8409.103563459483
 21
6229.999999999989
 31
0.0
  0
LINE
  5
1EFD4
330
1DB00
100
AcDbEntity
  8
寸法
 62
     0
 48
50.0
370
    -2
100
AcDbLine
 10
8469.103563459482
 20
6339.999999999991
 30
0.0
 11
8469.103563459482
 21
6229.999999999989
 31
0.0
  0
LINE
  5
1EFD5
330
1DB00
100
AcDbEntity
  8
寸法
 62
     0
 48
50.0
370
    -2
100
AcDbLine
 10
8469.103563459482
 20
6229.999999999989
 30
0.0
 11
8469.103563459482
 21
5869.905511811013
 31
0.0
  0
INSERT
  5
1EFD6
330
1DB00
100
AcDbEntity
  8
寸法
 62
     0
 48
50.0
370
    -2
100
AcDbBlockReference
  2
_DOTSMALL
 10
8469.103563459482
 20
6339.999999999991
 30
0.0
 41
100.0
 42
100.0
 43
100.0
 50
90.0
  0
INSERT
  5
1EFD7
330
1DB00
100
AcDbEntity
  8
寸法
 62
     0
 48
50.0
370
    -2
100
AcDbBlockReference
  2
_DOTSMALL
 10
8469.103563459482
 20
6229.999999999989
 30
0.0
 41
100.0
 42
100.0
 43
100.0
 50
270.0
  0
MTEXT
  5
1EFD8
330
1DB00
100
AcDbEntity
  8
寸法
 62
     7
 48
50.0
100
AcDbMText
 10
8369.10356345948
 20
5993.952755905501
 30
0.0
 40
120.0
 41
0.0
 71
     5
 72
     1
  1
\A1;110
  7
STYLE1
 11
0.0000000000000001
 21
1.0
 31
0.0
 73
     1
 44
1.0
1001
ACAD
1000
MTEXTBEGIN
1070
    73
1070
     1
1070
    44
1040
1.0
1070
    74
1070
     0
1000
MTEXTEND
  0
POINT
  5
1EFD9
330
1DB00
100
AcDbEntity
  8
DEFPOINTS
 62
     0
 48
50.0
100
AcDbPoint
 10
8411.017960730852
 20
6339.999999999991
 30
0.0
  0
POINT
  5
1EFDA
330
1DB00
100
AcDbEntity
  8
DEFPOINTS
 62
     0
 48
50.0
100
AcDbPoint
 10
9079.602433408254
 20
6229.999999999989
 30
0.0
  0
POINT
  5
1EFDB
330
1DB00
100
AcDbEntity
  8
DEFPOINTS
 62
     0
 48
50.0
100
AcDbPoint
 10
8469.103563459482
 20
6229.999999999989
 30
0.0
  0
ENDBLK
  5
1DB0C
330
1DB00
100
AcDbEntity
  8
0
 48
50.0
100
AcDbBlockEnd
  0
BLOCK
  5
1DB18
330
1DB0D
100
AcDbEntity
  8
0
 48
50.0
100
AcDbBlockBegin
  2
*D18
 70
     1
 10
0.0
 20
0.0
 30
0.0
  3
*D18
  1

  0
LINE
  5
1EFB4
330
1DB0D
100
AcDbEntity
  8
寸法
 62
     0
 48
50.0
370
    -2
100
AcDbLine
 10
9189.602433408254
 20
5963.708180407764
 30
0.0
 11
9189.602433408254
 21
5861.503367980584
 31
0.0
  0
LINE
  5
1EFB5
330
1DB0D
100
AcDbEntity
  8
寸法
 62
     0
 48
50.0
370
    -2
100
AcDbLine
 10
9079.602433408254
 20
6209.99999999999
 30
0.0
 11
9079.602433408254
 21
5861.503367980584
 31
0.0
  0
LINE
  5
1EFB6
330
1DB0D
100
AcDbEntity
  8
寸法
 62
     0
 48
50.0
370
    -2
100
AcDbLine
 10
9189.602433408254
 20
5921.503367980584
 30
0.0
 11
9079.602433408254
 21
5921.503367980584
 31
0.0
  0
LINE
  5
1EFB7
330
1DB0D
100
AcDbEntity
  8
寸法
 62
     0
 48
50.0
370
    -2
100
AcDbLine
 10
9079.602433408254
 20
5921.503367980584
 30
0.0
 11
8719.507945219277
 21
5921.503367980584
 31
0.0
  0
INSERT
  5
1EFB8
330
1DB0D
100
AcDbEntity
  8
寸法
 62
     0
 48
50.0
370
    -2
100
AcDbBlockReference
  2
_DOTSMALL
 10
9189.602433408254
 20
5921.503367980584
 30
0.0
 41
100.0
 42
100.0
 43
100.0
  0
INSERT
  5
1EFB9
330
1DB0D
100
AcDbEntity
  8
寸法
 62
     0
 48
50.0
370
    -2
100
AcDbBlockReference
  2
_DOTSMALL
 10
9079.602433408254
 20
5921.503367980584
 30
0.0
 41
100.0
 42
100.0
 43
100.0
 50
180.0
  0
MTEXT
  5
1EFBA
330
1DB0D
100
AcDbEntity
  8
寸法
 62
     7
 48
50.0
100
AcDbMText
 10
8843.555189313766
 20
6021.503367980584
 30
0.0
 40
120.0
 41
0.0
 71
     5
 72
     1
  1
\A1;110
  7
STYLE1
 73
     1
 44
1.0
1001
ACAD
1000
MTEXTBEGIN
1070
    73
1070
     1
1070
    44
1040
1.0
1070
    74
1070
     0
1000
MTEXTEND
  0
POINT
  5
1EFBB
330
1DB0D
100
AcDbEntity
  8
DEFPOINTS
 62
     0
 48
50.0
100
AcDbPoint
 10
9189.602433408254
 20
5983.708180407764
 30
0.0
  0
POINT
  5
1EFBC
330
1DB0D
100
AcDbEntity
  8
DEFPOINTS
 62
     0
 48
50.0
100
AcDbPoint
 10
9079.602433408254
 20
6229.999999999989
 30
0.0
  0
POINT
  5
1EFBD
330
1DB0D
100
AcDbEntity
  8
DEFPOINTS
 62
     0
 48
50.0
100
AcDbPoint
 10
9079.602433408254
 20
5921.503367980584
 30
0.0
  0
ENDBLK
  5
1DB19
330
1DB0D
100
AcDbEntity
  8
0
 48
50.0
100
AcDbBlockEnd
  0
BLOCK
  5
1DB25
330
1DB1A
100
AcDbEntity
  8
0
 48
50.0
100
AcDbBlockBegin
  2
*D19
 70
     1
 10
0.0
 20
0.0
 30
0.0
  3
*D19
  1

  0
LINE
  5
1EFC8
330
1DB1A
100
AcDbEntity
  8
寸法
 62
     0
 48
50.0
370
    -2
100
AcDbLine
 10
8429.602433408254
 20
6459.999999999991
 30
0.0
 11
8529.103563459484
 21
6459.999999999991
 31
0.0
  0
LINE
  5
1EFC9
330
1DB1A
100
AcDbEntity
  8
寸法
 62
     0
 48
50.0
370
    -2
100
AcDbLine
 10
8431.017960730853
 20
6339.999999999991
 30
0.0
 11
8529.103563459484
 21
6339.999999999991
 31
0.0
  0
LINE
  5
1EFCA
330
1DB1A
100
AcDbEntity
  8
寸法
 62
     0
 48
50.0
370
    -2
100
AcDbLine
 10
8469.103563459482
 20
6339.999999999991
 30
0.0
 11
8469.103563459482
 21
6459.999999999991
 31
0.0
  0
LINE
  5
1EFCB
330
1DB1A
100
AcDbEntity
  8
寸法
 62
     0
 48
50.0
370
    -2
100
AcDbLine
 10
8469.103563459482
 20
6459.999999999991
 30
0.0
 11
8469.103563459482
 21
6832.094488188968
 31
0.0
  0
INSERT
  5
1EFCC
330
1DB1A
100
AcDbEntity
  8
寸法
 62
     0
 48
50.0
370
    -2
100
AcDbBlockReference
  2
_DOTSMALL
 10
8469.103563459482
 20
6339.999999999991
 30
0.0
 41
100.0
 42
100.0
 43
100.0
 50
270.0
  0
INSERT
  5
1EFCD
330
1DB1A
100
AcDbEntity
  8
寸法
 62
     0
 48
50.0
370
    -2
100
AcDbBlockReference
  2
_DOTSMALL
 10
8469.103563459482
 20
6459.999999999991
 30
0.0
 41
100.0
 42
100.0
 43
100.0
 50
90.0
  0
MTEXT
  5
1EFCE
330
1DB1A
100
AcDbEntity
  8
寸法
 62
     7
 48
50.0
100
AcDbMText
 10
8369.09175243586
 20
6696.047244094481
 30
0.0
 40
120.0
 41
0.0
 71
     5
 72
     1
  1
\A1;120
  7
STYLE1
 11
0.0000000000000001
 21
1.0
 31
0.0
 73
     1
 44
1.0
1001
ACAD
1000
MTEXTBEGIN
1070
    73
1070
     1
1070
    44
1040
1.0
1070
    74
1070
     0
1000
MTEXTEND
  0
POINT
  5
1EFCF
330
1DB1A
100
AcDbEntity
  8
DEFPOINTS
 62
     0
 48
50.0
100
AcDbPoint
 10
8409.602433408254
 20
6459.999999999991
 30
0.0
  0
POINT
  5
1EFD0
330
1DB1A
100
AcDbEntity
  8
DEFPOINTS
 62
     0
 48
50.0
100
AcDbPoint
 10
8411.017960730852
 20
6339.999999999991
 30
0.0
  0
POINT
  5
1EFD1
330
1DB1A
100
AcDbEntity
  8
DEFPOINTS
 62
     0
 48
50.0
100
AcDbPoint
 10
8469.103563459482
 20
6339.999999999991
 30
0.0
  0
ENDBLK
  5
1DB26
330
1DB1A
100
AcDbEntity
  8
0
 48
50.0
100
AcDbBlockEnd
  0
BLOCK
  5
1EEF7
330
1EEED
100
AcDbEntity
  8
0
 48
50.0
100
AcDbBlockBegin
  2
*D20
 70
     1
 10
0.0
 20
0.0
 30
0.0
  3
*D20
  1

  0
LINE
  5
1EF37
330
1EEED
100
AcDbEntity
  8
寸法
 62
     0
 48
50.0
370
    -2
100
AcDbLine
 10
7561.84543427687
 20
2124.825434096547
 30
0.0
 11
7561.84543427687
 21
2584.493242012927
 31
0.0
  0
LINE
  5
1EF38
330
1EEED
100
AcDbEntity
  8
寸法
 62
     0
 48
50.0
370
    -2
100
AcDbLine
 10
7369.84543427687
 20
2124.825434096547
 30
0.0
 11
7369.84543427687
 21
2584.493242012927
 31
0.0
  0
LINE
  5
1EF39
330
1EEED
100
AcDbEntity
  8
寸法
 62
     0
 48
50.0
370
    -2
100
AcDbLine
 10
7561.84543427687
 20
2524.493242012927
 30
0.0
 11
7369.84543427687
 21
2524.493242012927
 31
0.0
  0
INSERT
  5
1EF3A
330
1EEED
100
AcDbEntity
  8
寸法
 62
     0
 48
50.0
370
    -2
100
AcDbBlockReference
  2
_DOTSMALL
 10
7561.84543427687
 20
2524.493242012927
 30
0.0
 41
100.0
 42
100.0
 43
100.0
  0
INSERT
  5
1EF3B
330
1EEED
100
AcDbEntity
  8
寸法
 62
     0
 48
50.0
370
    -2
100
AcDbBlockReference
  2
_DOTSMALL
 10
7369.84543427687
 20
2524.493242012927
 30
0.0
 41
100.0
 42
100.0
 43
100.0
 50
180.0
  0
MTEXT
  5
1EF3C
330
1EEED
100
AcDbEntity
  8
寸法
 62
     7
 48
50.0
100
AcDbMText
 10
7465.845434276871
 20
2724.505053036549
 30
0.0
 40
120.0
 41
0.0
 71
     5
 72
     1
  1
\A1;120\P170
  7
STYLE1
 73
     1
 44
1.0
1001
ACAD
1000
MTEXTBEGIN
1070
    73
1070
     1
1070
    44
1040
1.0
1070
    74
1070
     0
1000
MTEXTEND
  0
POINT
  5
1EF3D
330
1EEED
100
AcDbEntity
  8
DEFPOINTS
 62
     0
 48
50.0
100
AcDbPoint
 10
7561.84543427687
 20
2104.825434096547
 30
0.0
  0
POINT
  5
1EF3E
330
1EEED
100
AcDbEntity
  8
DEFPOINTS
 62
     0
 48
50.0
100
AcDbPoint
 10
7369.84543427687
 20
2104.825434096547
 30
0.0
  0
POINT
  5
1EF3F
330
1EEED
100
AcDbEntity
  8
DEFPOINTS
 62
     0
 48
50.0
100
AcDbPoint
 10
7369.84543427687
 20
2524.493242012927
 30
0.0
  0
ENDBLK
  5
1EEF8
330
1EEED
100
AcDbEntity
  8
0
 48
50.0
100
AcDbBlockEnd
  0
BLOCK
  5
1EF03
330
1EEF9
100
AcDbEntity
  8
0
 48
50.0
100
AcDbBlockBegin
  2
*D21
 70
     1
 10
0.0
 20
0.0
 30
0.0
  3
*D21
  1

  0
LINE
  5
1EF40
330
1EEF9
100
AcDbEntity
  8
寸法
 62
     0
 48
50.0
370
    -2
100
AcDbLine
 10
7241.84543427687
 20
1172.825434096547
 30
0.0
 11
7241.84543427687
 21
722.3957960913867
 31
0.0
  0
LINE
  5
1EF41
330
1EEF9
100
AcDbEntity
  8
寸法
 62
     0
 48
50.0
370
    -2
100
AcDbLine
 10
7689.84543427687
 20
1172.825434096547
 30
0.0
 11
7689.84543427687
 21
722.3957960913867
 31
0.0
  0
LINE
  5
1EF42
330
1EEF9
100
AcDbEntity
  8
寸法
 62
     0
 48
50.0
370
    -2
100
AcDbLine
 10
7241.84543427687
 20
782.3957960913867
 30
0.0
 11
7689.84543427687
 21
782.3957960913867
 31
0.0
  0
INSERT
  5
1EF43
330
1EEF9
100
AcDbEntity
  8
寸法
 62
     0
 48
50.0
370
    -2
100
AcDbBlockReference
  2
_DOTSMALL
 10
7241.84543427687
 20
782.3957960913867
 30
0.0
 41
100.0
 42
100.0
 43
100.0
 50
180.0
  0
INSERT
  5
1EF44
330
1EEF9
100
AcDbEntity
  8
寸法
 62
     0
 48
50.0
370
    -2
100
AcDbBlockReference
  2
_DOTSMALL
 10
7689.84543427687
 20
782.3957960913867
 30
0.0
 41
100.0
 42
100.0
 43
100.0
  0
MTEXT
  5
1EF45
330
1EEF9
100
AcDbEntity
  8
寸法
 62
     7
 48
50.0
100
AcDbMText
 10
7445.748675598647
 20
882.3957960913867
 30
0.0
 40
120.0
 41
0.0
 71
     5
 72
     1
  1
\A1;300
  7
STYLE1
 73
     1
 44
1.0
1001
ACAD
1000
MTEXTBEGIN
1070
    73
1070
     1
1070
    44
1040
1.0
1070
    74
1070
     0
1000
MTEXTEND
  0
POINT
  5
1EF46
330
1EEF9
100
AcDbEntity
  8
DEFPOINTS
 62
     0
 48
50.0
100
AcDbPoint
 10
7241.84543427687
 20
1192.825434096547
 30
0.0
  0
POINT
  5
1EF47
330
1EEF9
100
AcDbEntity
  8
DEFPOINTS
 62
     0
 48
50.0
100
AcDbPoint
 10
7689.84543427687
 20
1192.825434096547
 30
0.0
  0
POINT
  5
1EF48
330
1EEF9
100
AcDbEntity
  8
DEFPOINTS
 62
     0
 48
50.0
100
AcDbPoint
 10
7689.84543427687
 20
782.3957960913867
 30
0.0
  0
ENDBLK
  5
1EF04
330
1EEF9
100
AcDbEntity
  8
0
 48
50.0
100
AcDbBlockEnd
  0
BLOCK
  5
1EF0F
330
1EF05
100
AcDbEntity
  8
0
 48
50.0
100
AcDbBlockBegin
  2
*D22
 70
     1
 10
0.0
 20
0.0
 30
0.0
  3
*D22
  1

  0
LINE
  5
1EF49
330
1EF05
100
AcDbEntity
  8
寸法
 62
     0
 48
50.0
370
    -2
100
AcDbLine
 10
7349.845434276869
 20
2104.825434096547
 30
0.0
 11
6574.808195715132
 21
2104.825434096547
 31
0.0
  0
LINE
  5
1EF4A
330
1EF05
100
AcDbEntity
  8
寸法
 62
     0
 48
50.0
370
    -2
100
AcDbLine
 10
7141.845434276874
 20
1320.825434096547
 30
0.0
 11
6574.80819571513
 21
1320.825434096547
 31
0.0
  0
LINE
  5
1EF4B
330
1EF05
100
AcDbEntity
  8
寸法
 62
     0
 48
50.0
370
    -2
100
AcDbLine
 10
6634.80819571513
 20
2104.825434096547
 30
0.0
 11
6634.808195715129
 21
1320.825434096547
 31
0.0
  0
INSERT
  5
1EF4C
330
1EF05
100
AcDbEntity
  8
寸法
 62
     0
 48
50.0
370
    -2
100
AcDbBlockReference
  2
_DOTSMALL
 10
6634.80819571513
 20
2104.825434096547
 30
0.0
 41
100.0
 42
100.0
 43
100.0
 50
90.0
  0
INSERT
  5
1EF4D
330
1EF05
100
AcDbEntity
  8
寸法
 62
     0
 48
50.0
370
    -2
100
AcDbBlockReference
  2
_DOTSMALL
 10
6634.808195715129
 20
1320.825434096547
 30
0.0
 41
100.0
 42
100.0
 43
100.0
 50
270.0
  0
MTEXT
  5
1EF4E
330
1EF05
100
AcDbEntity
  8
寸法
 62
     7
 48
50.0
100
AcDbMText
 10
6534.808195715129
 20
1692.365583752548
 30
0.0
 40
120.0
 41
0.0
 71
     5
 72
     1
  1
\A1;540
  7
STYLE1
 11
0.0000000000000001
 21
1.0
 31
0.0
 73
     1
 44
1.0
1001
ACAD
1000
MTEXTBEGIN
1070
    73
1070
     1
1070
    44
1040
1.0
1070
    74
1070
     0
1000
MTEXTEND
  0
POINT
  5
1EF4F
330
1EF05
100
AcDbEntity
  8
DEFPOINTS
 62
     0
 48
50.0
100
AcDbPoint
 10
7369.84543427687
 20
2104.825434096547
 30
0.0
  0
POINT
  5
1EF50
330
1EF05
100
AcDbEntity
  8
DEFPOINTS
 62
     0
 48
50.0
100
AcDbPoint
 10
7161.845434276874
 20
1320.825434096547
 30
0.0
  0
POINT
  5
1EF51
330
1EF05
100
AcDbEntity
  8
DEFPOINTS
 62
     0
 48
50.0
100
AcDbPoint
 10
6634.808195715129
 20
1320.825434096547
 30
0.0
  0
ENDBLK
  5
1EF10
330
1EF05
100
AcDbEntity
  8
0
 48
50.0
100
AcDbBlockEnd
  0
BLOCK
  5
1EF1B
330
1EF11
100
AcDbEntity
  8
0
 48
50.0
100
AcDbBlockBegin
  2
*D23
 70
     1
 10
0.0
 20
0.0
 30
0.0
  3
*D23
  1

  0
LINE
  5
1EF52
330
1EF11
100
AcDbEntity
  8
寸法
 62
     0
 48
50.0
370
    -2
100
AcDbLine
 10
7221.845434276871
 20
1560.825434096547
 30
0.0
 11
7039.425120544411
 21
1560.825434096547
 31
0.0
  0
LINE
  5
1EF53
330
1EF11
100
AcDbEntity
  8
寸法
 62
     0
 48
50.0
370
    -2
100
AcDbLine
 10
7141.845434276874
 20
1320.825434096547
 30
0.0
 11
7039.425120544411
 21
1320.825434096547
 31
0.0
  0
LINE
  5
1EF54
330
1EF11
100
AcDbEntity
  8
寸法
 62
     0
 48
50.0
370
    -2
100
AcDbLine
 10
7099.425120544411
 20
1560.825434096547
 30
0.0
 11
7099.425120544411
 21
1320.825434096547
 31
0.0
  0
INSERT
  5
1EF55
330
1EF11
100
AcDbEntity
  8
寸法
 62
     0
 48
50.0
370
    -2
100
AcDbBlockReference
  2
_DOTSMALL
 10
7099.425120544411
 20
1560.825434096547
 30
0.0
 41
100.0
 42
100.0
 43
100.0
 50
90.0
  0
INSERT
  5
1EF56
330
1EF11
100
AcDbEntity
  8
寸法
 62
     0
 48
50.0
370
    -2
100
AcDbBlockReference
  2
_DOTSMALL
 10
7099.425120544411
 20
1320.825434096547
 30
0.0
 41
100.0
 42
100.0
 43
100.0
 50
270.0
  0
MTEXT
  5
1EF57
330
1EF11
100
AcDbEntity
  8
寸法
 62
     7
 48
50.0
100
AcDbMText
 10
6999.425120544412
 20
1440.825434096548
 30
0.0
 40
120.0
 41
0.0
 71
     5
 72
     1
  1
\A1;150
  7
STYLE1
 11
0.0000000000000001
 21
1.0
 31
0.0
 73
     1
 44
1.0
1001
ACAD
1000
MTEXTBEGIN
1070
    73
1070
     1
1070
    44
1040
1.0
1070
    74
1070
     0
1000
MTEXTEND
  0
POINT
  5
1EF58
330
1EF11
100
AcDbEntity
  8
DEFPOINTS
 62
     0
 48
50.0
100
AcDbPoint
 10
7241.84543427687
 20
1560.825434096547
 30
0.0
  0
POINT
  5
1EF59
330
1EF11
100
AcDbEntity
  8
DEFPOINTS
 62
     0
 48
50.0
100
AcDbPoint
 10
7161.845434276874
 20
1320.825434096547
 30
0.0
  0
POINT
  5
1EF5A
330
1EF11
100
AcDbEntity
  8
DEFPOINTS
 62
     0
 48
50.0
100
AcDbPoint
 10
7099.425120544411
 20
1320.825434096547
 30
0.0
  0
ENDBLK
  5
1EF1C
330
1EF11
100
AcDbEntity
  8
0
 48
50.0
100
AcDbBlockEnd
  0
BLOCK
  5
1EF29
330
1EF1D
100
AcDbEntity
  8
0
 48
50.0
100
AcDbBlockBegin
  2
*D24
 70
     1
 10
0.0
 20
0.0
 30
0.0
  3
*D24
  1

  0
LINE
  5
1EF5B
330
1EF1D
100
AcDbEntity
  8
寸法
 62
     0
 48
50.0
370
    -2
100
AcDbLine
 10
9316.684747454065
 20
2157.585434096548
 30
0.0
 11
10321.80801334193
 21
2157.585434096548
 31
0.0
  0
LINE
  5
1EF5C
330
1EF1D
100
AcDbEntity
  8
寸法
 62
     0
 48
50.0
370
    -2
100
AcDbLine
 10
9503.884747454064
 20
2104.825434096547
 30
0.0
 11
10321.80801334193
 21
2104.825434096547
 31
0.0
  0
LINE
  5
1EF5D
330
1EF1D
100
AcDbEntity
  8
寸法
 62
     0
 48
50.0
370
    -2
100
AcDbLine
 10
10261.80801334193
 20
2157.585434096548
 30
0.0
 11
10261.80801334193
 21
2257.585434096548
 31
0.0
  0
LINE
  5
1EF5E
330
1EF1D
100
AcDbEntity
  8
寸法
 62
     0
 48
50.0
370
    -2
100
AcDbLine
 10
10261.80801334193
 20
2104.825434096547
 30
0.0
 11
10261.80801334193
 21
1372.80762725358
 31
0.0
  0
LINE
  5
1EF5F
330
1EF1D
100
AcDbEntity
  8
寸法
 62
     0
 48
50.0
370
    -2
100
AcDbLine
 10
10261.80801334193
 20
2157.585434096548
 30
0.0
 11
10261.80801334193
 21
2104.825434096547
 31
0.0
  0
INSERT
  5
1EF60
330
1EF1D
100
AcDbEntity
  8
寸法
 62
     0
 48
50.0
370
    -2
100
AcDbBlockReference
  2
_DOTSMALL
 10
10261.80801334193
 20
2157.585434096548
 30
0.0
 41
100.0
 42
100.0
 43
100.0
 50
270.0
  0
INSERT
  5
1EF61
330
1EF1D
100
AcDbEntity
  8
寸法
 62
     0
 48
50.0
370
    -2
100
AcDbBlockReference
  2
_DOTSMALL
 10
10261.80801334193
 20
2104.825434096547
 30
0.0
 41
100.0
 42
100.0
 43
100.0
 50
90.0
  0
MTEXT
  5
1EF62
330
1EF1D
100
AcDbEntity
  8
寸法
 62
     7
 48
50.0
100
AcDbMText
 10
10161.79620231831
 20
1638.816530675065
 30
0.0
 40
120.0
 41
0.0
 71
     5
 72
     1
  1
\A1;20～25
  7
STYLE1
 11
0.0000000000000001
 21
1.0
 31
0.0
 73
     1
 44
1.0
1001
ACAD
1000
MTEXTBEGIN
1070
    73
1070
     1
1070
    44
1040
1.0
1070
    74
1070
     0
1000
MTEXTEND
  0
POINT
  5
1EF63
330
1EF1D
100
AcDbEntity
  8
DEFPOINTS
 62
     0
 48
50.0
100
AcDbPoint
 10
9296.684747454063
 20
2157.585434096548
 30
0.0
  0
POINT
  5
1EF64
330
1EF1D
100
AcDbEntity
  8
DEFPOINTS
 62
     0
 48
50.0
100
AcDbPoint
 10
9483.884747454064
 20
2104.825434096547
 30
0.0
  0
POINT
  5
1EF65
330
1EF1D
100
AcDbEntity
  8
DEFPOINTS
 62
     0
 48
50.0
100
AcDbPoint
 10
10261.80801334193
 20
2104.825434096547
 30
0.0
  0
ENDBLK
  5
1EF2A
330
1EF1D
100
AcDbEntity
  8
0
 48
50.0
100
AcDbBlockEnd
  0
BLOCK
  5
1EF35
330
1EF2B
100
AcDbEntity
  8
0
 48
50.0
100
AcDbBlockBegin
  2
*D25
 70
     1
 10
0.0
 20
0.0
 30
0.0
  3
*D25
  1

  0
LINE
  5
1EF66
330
1EF2B
100
AcDbEntity
  8
寸法
 62
     0
 48
50.0
370
    -2
100
AcDbLine
 10
9503.884747454064
 20
2104.825434096547
 30
0.0
 11
10045.7533472229
 21
2104.825434096547
 31
0.0
  0
LINE
  5
1EF67
330
1EF2B
100
AcDbEntity
  8
寸法
 62
     0
 48
50.0
370
    -2
100
AcDbLine
 10
9503.884747454064
 20
1780.825434096546
 30
0.0
 11
10045.7533472229
 21
1780.825434096546
 31
0.0
  0
LINE
  5
1EF68
330
1EF2B
100
AcDbEntity
  8
寸法
 62
     0
 48
50.0
370
    -2
100
AcDbLine
 10
9985.753347222908
 20
2104.825434096547
 30
0.0
 11
9985.753347222908
 21
1780.825434096546
 31
0.0
  0
INSERT
  5
1EF69
330
1EF2B
100
AcDbEntity
  8
寸法
 62
     0
 48
50.0
370
    -2
100
AcDbBlockReference
  2
_DOTSMALL
 10
9985.753347222908
 20
2104.825434096547
 30
0.0
 41
100.0
 42
100.0
 43
100.0
 50
90.0
  0
INSERT
  5
1EF6A
330
1EF2B
100
AcDbEntity
  8
寸法
 62
     0
 48
50.0
370
    -2
100
AcDbBlockReference
  2
_DOTSMALL
 10
9985.753347222908
 20
1780.825434096546
 30
0.0
 41
100.0
 42
100.0
 43
100.0
 50
270.0
  0
MTEXT
  5
1EF6B
330
1EF2B
100
AcDbEntity
  8
寸法
 62
     7
 48
50.0
100
AcDbMText
 10
9885.753347222909
 20
1942.825434096548
 30
0.0
 40
120.0
 41
0.0
 71
     5
 72
     1
  1
\A1;180
  7
STYLE1
 11
0.0000000000000001
 21
1.0
 31
0.0
 73
     1
 44
1.0
1001
ACAD
1000
MTEXTBEGIN
1070
    73
1070
     1
1070
    44
1040
1.0
1070
    74
1070
     0
1000
MTEXTEND
  0
POINT
  5
1EF6C
330
1EF2B
100
AcDbEntity
  8
DEFPOINTS
 62
     0
 48
50.0
100
AcDbPoint
 10
9483.884747454064
 20
2104.825434096547
 30
0.0
  0
POINT
  5
1EF6D
330
1EF2B
100
AcDbEntity
  8
DEFPOINTS
 62
     0
 48
50.0
100
AcDbPoint
 10
9483.884747454064
 20
1780.825434096546
 30
0.0
  0
POINT
  5
1EF6E
330
1EF2B
100
AcDbEntity
  8
DEFPOINTS
 62
     0
 48
50.0
100
AcDbPoint
 10
9985.753347222908
 20
1780.825434096546
 30
0.0
  0
ENDBLK
  5
1EF36
330
1EF2B
100
AcDbEntity
  8
0
 48
50.0
100
AcDbBlockEnd
  0
ENDSEC
  0
SECTION
  2
ENTITIES
  0
LINE
  5
10B57
330
747D
100
AcDbEntity
  8
補助
  6
PHANTOM
 62
   230
 48
50.0
100
AcDbLine
 10
139.9999999999995
 20
11409.6
 30
0.0
 11
16307.2
 21
11409.6
 31
0.0
  0
LINE
  5
10B59
330
747D
100
AcDbEntity
  8
仕様書枠
  6
Continuous
 48
50.0
100
AcDbLine
 10
13107.2
 20
1200.0
 30
0.0
 11
13107.2
 21
-0.0000000000000729
 31
0.0
  0
LINE
  5
10B5C
330
747D
100
AcDbEntity
  8
仕様書枠
 48
50.0
100
AcDbLine
 10
16307.2
 20
1200.0
 30
0.0
 11
16307.2
 21
-0.0000000000000909
 31
0.0
  0
LINE
  5
10B5D
330
747D
100
AcDbEntity
  8
仕様書枠
 48
50.0
100
AcDbLine
 10
140.0
 20
0.0
 30
0.0
 11
16307.2
 21
-0.0000000000000909
 31
0.0
  0
LINE
  5
10B5E
330
747D
100
AcDbEntity
  8
補助
  6
PHANTOM
 62
   230
 48
50.0
100
AcDbLine
 10
16307.2
 20
11409.6
 30
0.0
 11
16307.2
 21
1200.0
 31
0.0
  0
LINE
  5
10B6C
330
747D
100
AcDbEntity
  8
仕様書枠
 48
50.0
100
AcDbLine
 10
13107.2
 20
1200.0
 30
0.0
 11
16307.2
 21
1200.0
 31
0.0
  0
LINE
  5
10B6D
330
747D
100
AcDbEntity
  8
補助
  6
PHANTOM
 62
   230
 48
50.0
100
AcDbLine
 10
13107.2
 20
11409.6
 30
0.0
 11
13107.2
 21
4800.0
 31
0.0
  0
LINE
  5
10B6F
330
747D
100
AcDbEntity
  8
補助
  6
PHANTOM
 62
   230
 48
50.0
100
AcDbLine
 10
13107.2
 20
4800.0
 30
0.0
 11
16307.2
 21
4800.0
 31
0.0
  0
LINE
  5
10B72
330
747D
100
AcDbEntity
  8
文字
 62
     7
 48
50.0
100
AcDbLine
 10
13187.2
 20
400.0
 30
0.0
 11
16227.2
 21
400.0
 31
0.0
  0
TEXT
  5
10B73
330
747D
100
AcDbEntity
  8
文字
 62
     7
 48
50.0
100
AcDbText
 10
13162.9790565769
 20
895.0906074299405
 30
0.0
 40
200.0
  1
基 礎 図
  7
STYLE2
100
AcDbText
  0
TEXT
  5
10B74
330
747D
100
AcDbEntity
  8
文字
 62
     7
 48
50.0
100
AcDbText
 10
13201.43669998441
 20
477.2740661031255
 30
0.0
 40
160.0
  1
機種名
  7
STYLE2
100
AcDbText
  0
LINE
  5
10B7B
330
747D
100
AcDbEntity
  8
仕様書枠
 48
50.0
100
AcDbLine
 10
13107.2
 20
800.0
 30
0.0
 11
14251.2
 21
800.0
 31
0.0
  0
LINE
  5
10B88
330
747D
100
AcDbEntity
  8
仕様書枠
  6
Continuous
 48
50.0
100
AcDbLine
 10
14251.2
 20
1200.0
 30
0.0
 11
14251.2
 21
800.0
 31
0.0
  0
TEXT
  5
14DEF
330
747D
100
AcDbEntity
  8
文字
 62
     7
 48
50.0
100
AcDbText
 10
14641.2525855784
 20
871.1744590657925
 30
0.0
 40
100.0
  1
～一般型・多雪地型～
  7
STYLE2
100
AcDbText
  0
TEXT
  5
15A76
330
747D
100
AcDbEntity
  8
文字
 62
     7
 48
50.0
100
AcDbText
 10
14422.5807159189
 20
483.8967129911411
 30
0.0
 40
160.0
  1
ＮＸＮ－２１Ｓ
  7
STYLE2
100
AcDbText
  0
TEXT
  5
1D002
330
747D
100
AcDbEntity
  8
文字
 62
     7
 48
50.0
100
AcDbText
 10
13188.16259899338
 20
246.7109242801889
 30
0.0
 40
80.0
  1
※寒冷地等は地域の実情に合わせた基礎にして下さい。
  7
STYLE2
100
AcDbText
  0
DIMENSION
  5
1D91B
330
747D
100
AcDbEntity
  8
寸法
 48
50.0
100
AcDbDimension
  2
*D2
 10
7536.309683284352
 20
5799.999999999996
 30
0.0
 11
7536.309683284351
 21
6036.047244094486
 31
0.0
 70
   160
 71
     5
 42
130.0000000000018
  3
INABA_S40G
100
AcDbAlignedDimension
 13
7319.602433408253
 23
5669.999999999994
 33
0.0
 14
7319.602433408253
 24
5799.999999999996
 34
0.0
 50
90.0
100
AcDbRotatedDimension
1001
ACAD
1000
DSTYLE
1002
{
1070
   174
1070
     0
1070
   272
1070
     1
1070
   288
1070
     0
1070
   341
1005
0
1002
}
  0
DIMENSION
  5
1D91C
330
747D
100
AcDbEntity
  8
寸法
 48
50.0
100
AcDbDimension
  2
*D3
 10
7536.309683284352
 20
5499.999999999993
 30
0.0
 11
7536.309683284351
 21
5263.952755905506
 31
0.0
 70
   160
 71
     5
 42
170.0000000000018
  3
INABA_S40G
100
AcDbAlignedDimension
 13
7319.602433408253
 23
5669.999999999995
 33
0.0
 14
7319.602433408253
 24
5499.999999999993
 34
0.0
 50
90.0
100
AcDbRotatedDimension
1001
ACAD
1000
DSTYLE
1002
{
1070
   174
1070
     0
1070
   272
1070
     1
1070
   288
1070
     0
1070
   341
1005
0
1002
}
  0
DIMENSION
  5
1D91D
330
747D
100
AcDbEntity
  8
寸法
 48
50.0
100
AcDbDimension
  2
*D4
 10
7212.602433408254
 20
7065.06061038992
 30
0.0
 11
8199.602433408255
 21
7165.060610389921
 31
0.0
 70
    32
 71
     5
 42
1974.0
  3
INABA_S40G
100
AcDbAlignedDimension
 13
9186.602433408253
 23
6386.999999999991
 33
0.0
 14
7212.602433408254
 24
6386.999999999992
 34
0.0
100
AcDbRotatedDimension
1001
ACAD
1000
DSTYLE
1002
{
1070
   174
1070
     0
1070
   272
1070
     1
1070
   288
1070
     0
1070
   341
1005
0
1002
}
  0
LINE
  5
1D91E
330
747D
100
AcDbEntity
  8
部品1
 48
50.0
100
AcDbLine
 10
9079.602433408254
 20
5670.000000000007
 30
0.0
 11
7319.602433408253
 21
5669.999999999989
 31
0.0
  0
LINE
  5
1D91F
330
747D
100
AcDbEntity
  8
部品1
 48
50.0
100
AcDbLine
 10
9079.602433408254
 20
6339.999999999989
 30
0.0
 11
7319.602433408253
 21
6339.999999999991
 31
0.0
  0
DIMENSION
  5
1D920
330
747D
100
AcDbEntity
  8
寸法
 48
50.0
100
AcDbDimension
  2
*D5
 10
9309.602433408254
 20
7277.521305906758
 30
0.0
 11
8199.602433408255
 21
7377.533116930379
 31
0.0
 70
    32
 71
     5
 42
2220.0
  3
INABA_S40G
100
AcDbAlignedDimension
 13
7089.602433408254
 23
6459.999999999992
 33
0.0
 14
9309.602433408254
 24
6459.999999999991
 34
0.0
100
AcDbRotatedDimension
1001
ACAD
1000
DSTYLE
1002
{
1070
   174
1070
     0
1070
   272
1070
     1
1070
   288
1070
     0
1070
   341
1005
0
1002
}
  0
LINE
  5
1D921
330
747D
100
AcDbEntity
  8
部品1
 48
50.0
100
AcDbLine
 10
9309.602433408254
 20
5500.000000000009
 30
0.0
 11
7092.602433408252
 21
5499.999999999986
 31
0.0
  0
LINE
  5
1D922
330
747D
100
AcDbEntity
  8
部品1
 48
50.0
100
AcDbLine
 10
9309.602433408254
 20
6459.999999999991
 30
0.0
 11
7089.602433408256
 21
6459.999999999991
 31
0.0
  0
LINE
  5
1D923
330
747D
100
AcDbEntity
  8
想像線
 48
10.0
100
AcDbLine
 10
9354.602433408254
 20
5444.999999999987
 30
0.0
 11
7047.602433408255
 21
5444.999999999992
 31
0.0
  0
LINE
  5
1D924
330
747D
100
AcDbEntity
  8
想像線
 48
10.0
100
AcDbLine
 10
7047.602433408254
 20
6534.999999999989
 30
0.0
 11
9354.602433408258
 21
6534.999999999995
 31
0.0
  0
DIMENSION
  5
1D925
330
747D
100
AcDbEntity
  8
寸法
 48
50.0
100
AcDbDimension
  2
*D6
 10
7089.602433408254
 20
7065.060610389922
 30
0.0
 11
6851.117152034015
 21
7065.060610389922
 31
0.0
 70
   160
 71
     5
 42
123.0
  3
INABA_S40G
100
AcDbAlignedDimension
 13
7212.602433408254
 23
6386.999999999992
 33
0.0
 14
7089.602433408254
 24
6459.999999999992
 34
0.0
100
AcDbRotatedDimension
1001
ACAD
1000
DSTYLE
1002
{
1070
   174
1070
     0
1070
   272
1070
     1
1070
   288
1070
     0
1070
   341
1005
0
1002
}
  0
DIMENSION
  5
1D926
330
747D
100
AcDbEntity
  8
寸法
 48
50.0
100
AcDbDimension
  2
*D7
 10
7089.602433408254
 20
7277.521305906759
 30
0.0
 11
7067.102433408251
 21
7277.521305906759
 31
0.0
 70
   160
  1
a
 71
     5
 42
45.00000000000364
  3
INABA_S40G
100
AcDbAlignedDimension
 13
7044.60243340825
 23
7065.060610389922
 33
0.0
 14
7089.602433408254
 24
6459.999999999992
 34
0.0
100
AcDbRotatedDimension
1001
ACAD
1000
DSTYLE
1002
{
1070
   174
1070
     0
1070
   272
1070
     1
1070
   288
1070
     0
1070
   341
1005
0
1002
}
  0
DIMENSION
  5
1D927
330
747D
100
AcDbEntity
  8
寸法
 48
50.0
100
AcDbDimension
  2
*D8
 10
6593.660167394432
 20
5697.999999999994
 30
0.0
 11
6593.660167394431
 21
6024.668633536566
 31
0.0
 70
   160
 71
     5
 42
638.9999999999981
  3
INABA_S40G
100
AcDbAlignedDimension
 13
7162.602433408254
 23
6336.999999999992
 33
0.0
 14
7162.602433408261
 24
5697.999999999994
 34
0.0
 50
90.0
100
AcDbRotatedDimension
1001
ACAD
1000
DSTYLE
1002
{
1070
   174
1070
     0
1070
   272
1070
     1
1070
   288
1070
     0
1070
   341
1005
0
1002
}
  0
LINE
  5
1D928
330
747D
100
AcDbEntity
  8
部品1
 48
50.0
100
AcDbLine
 10
7209.602433408254
 20
5799.999999999993
 30
0.0
 11
7209.602433408254
 21
6229.999999999988
 31
0.0
  0
DIMENSION
  5
1D929
330
747D
100
AcDbEntity
  8
寸法
 48
50.0
100
AcDbDimension
  2
*D9
 10
6348.167365256465
 20
5499.999999999992
 30
0.0
 11
6348.167365256465
 21
6024.668633536566
 31
0.0
 70
   160
 71
     5
 42
960.0
  3
INABA_S40G
100
AcDbAlignedDimension
 13
7089.602433408254
 23
6459.999999999992
 33
0.0
 14
7089.602433408254
 24
5499.999999999992
 34
0.0
 50
90.0
100
AcDbRotatedDimension
1001
ACAD
1000
DSTYLE
1002
{
1070
   174
1070
     0
1070
   272
1070
     1
1070
   288
1070
     0
1070
   341
1005
0
1002
}
  0
LINE
  5
1D92A
330
747D
100
AcDbEntity
  8
部品1
 48
50.0
100
AcDbLine
 10
7089.602433408252
 20
5502.999999999986
 30
0.0
 11
7089.602433408256
 21
6459.999999999991
 31
0.0
  0
LINE
  5
1D92B
330
747D
100
AcDbEntity
  8
想像線
 48
10.0
100
AcDbLine
 10
7044.602433408255
 20
5447.999999999992
 30
0.0
 11
7044.602433408254
 21
6531.999999999991
 31
0.0
  0
DIMENSION
  5
1D92C
330
747D
100
AcDbEntity
  8
寸法
 48
50.0
100
AcDbDimension
  2
*D10
 10
6593.660167394432
 20
5499.999999999992
 30
0.0
 11
6593.660167394431
 21
5263.790340170337
 31
0.0
 70
   160
 71
     5
 42
198.0000000000018
  3
INABA_S40G
100
AcDbAlignedDimension
 13
7162.602433408261
 23
5697.999999999994
 33
0.0
 14
7089.602433408254
 24
5499.999999999992
 34
0.0
 50
90.0
100
AcDbRotatedDimension
1001
ACAD
1000
DSTYLE
1002
{
1070
   174
1070
     0
1070
   272
1070
     1
1070
   288
1070
     0
1070
   341
1005
0
1002
}
  0
DIMENSION
  5
1D92D
330
747D
100
AcDbEntity
  8
寸法
 48
50.0
100
AcDbDimension
  2
*D11
 10
6348.167365256466
 20
5444.999999999992
 30
0.0
 11
6348.167365256465
 21
5472.499999999993
 31
0.0
 70
   160
  1
b
 71
     5
 42
55.0
  3
INABA_S40G
100
AcDbAlignedDimension
 13
7089.602433408254
 23
5499.999999999992
 33
0.0
 14
6593.660167394432
 24
5444.999999999992
 34
0.0
 50
90.0
100
AcDbRotatedDimension
1001
ACAD
1000
DSTYLE
1002
{
1070
   174
1070
     0
1070
   272
1070
     1
1070
   288
1070
     0
1070
   341
1005
0
1002
}
  0
LINE
  5
1D92E
330
747D
100
AcDbEntity
  8
センター
 48
2.0
100
AcDbLine
 10
7212.602433408261
 20
5747.999999999994
 30
0.0
 11
7212.602433408261
 21
5647.999999999994
 31
0.0
  0
LINE
  5
1D92F
330
747D
100
AcDbEntity
  8
センター
 48
2.0
100
AcDbLine
 10
7162.602433408261
 20
5697.999999999994
 30
0.0
 11
7262.602433408261
 21
5697.999999999994
 31
0.0
  0
CIRCLE
  5
1D930
330
747D
100
AcDbEntity
  8
部品1
 48
50.0
100
AcDbCircle
 10
7212.602433408261
 20
5697.999999999994
 30
0.0
 40
35.0
  0
LINE
  5
1D931
330
747D
100
AcDbEntity
  8
部品1
 48
50.0
100
AcDbLine
 10
7319.602433408253
 20
5799.999999999996
 30
0.0
 11
7209.602433408253
 21
5799.999999999994
 31
0.0
  0
LINE
  5
1D932
330
747D
100
AcDbEntity
  8
部品1
 48
50.0
100
AcDbLine
 10
7319.602433408253
 20
5669.999999999989
 30
0.0
 11
7319.602433408253
 21
5799.999999999996
 31
0.0
  0
DIMENSION
  5
1D933
330
747D
100
AcDbEntity
  8
寸法
 48
50.0
100
AcDbDimension
  2
*D12
 10
6593.660167394434
 20
6336.999999999992
 30
0.0
 11
6593.660167394431
 21
6698.485281374232
 31
0.0
 70
   160
 71
     5
 42
123.0
  3
INABA_S40G
100
AcDbAlignedDimension
 13
7089.602433408254
 23
6459.999999999992
 33
0.0
 14
7162.602433408254
 24
6336.999999999992
 34
0.0
 50
90.0
100
AcDbRotatedDimension
1001
ACAD
1000
DSTYLE
1002
{
1070
   174
1070
     0
1070
   272
1070
     1
1070
   288
1070
     0
1070
   341
1005
0
1002
}
  0
DIMENSION
  5
1D934
330
747D
100
AcDbEntity
  8
寸法
 48
50.0
100
AcDbDimension
  2
*D13
 10
6348.167365256466
 20
6459.999999999992
 30
0.0
 11
6348.167365256465
 21
6497.499999999994
 31
0.0
 70
   160
  1
c
 71
     5
 42
75.0
  3
INABA_S40G
100
AcDbAlignedDimension
 13
6593.660167394434
 23
6534.999999999993
 33
0.0
 14
7089.602433408254
 24
6459.999999999992
 34
0.0
 50
90.0
100
AcDbRotatedDimension
1001
ACAD
1000
DSTYLE
1002
{
1070
   174
1070
     0
1070
   272
1070
     1
1070
   288
1070
     0
1070
   341
1005
0
1002
}
  0
LINE
  5
1D935
330
747D
100
AcDbEntity
  8
部品1
 48
50.0
100
AcDbLine
 10
7209.602433408254
 20
6079.999999999992
 30
0.0
 11
7089.602433408254
 21
6079.999999999992
 31
0.0
  0
LINE
  5
1D936
330
747D
100
AcDbEntity
  8
部品1
 48
50.0
100
AcDbLine
 10
7209.602433408254
 20
5879.999999999992
 30
0.0
 11
7089.602433408254
 21
5879.999999999991
 31
0.0
  0
LINE
  5
1D938
330
747D
100
AcDbEntity
  8
センター
 48
2.0
100
AcDbLine
 10
7212.602433408254
 20
6386.999999999992
 30
0.0
 11
7212.602433408254
 21
6286.999999999991
 31
0.0
  0
LINE
  5
1D939
330
747D
100
AcDbEntity
  8
センター
 48
2.0
100
AcDbLine
 10
7162.602433408254
 20
6336.999999999992
 30
0.0
 11
7262.602433408254
 21
6336.999999999992
 31
0.0
  0
CIRCLE
  5
1D93A
330
747D
100
AcDbEntity
  8
部品1
 48
50.0
100
AcDbCircle
 10
7212.602433408254
 20
6336.999999999992
 30
0.0
 40
35.0
  0
LINE
  5
1D93B
330
747D
100
AcDbEntity
  8
部品1
 48
50.0
100
AcDbLine
 10
7319.602433408253
 20
6229.999999999988
 30
0.0
 11
7209.602433408253
 21
6229.999999999992
 31
0.0
  0
LINE
  5
1D93C
330
747D
100
AcDbEntity
  8
部品1
 48
50.0
100
AcDbLine
 10
7319.602433408253
 20
6229.999999999988
 30
0.0
 11
7319.602433408253
 21
6339.999999999992
 31
0.0
  0
DIMENSION
  5
1D93E
330
747D
100
AcDbEntity
  8
寸法
 48
50.0
100
AcDbDimension
  2
*D14
 10
9186.602433408253
 20
7065.06061038992
 30
0.0
 11
9548.087714782493
 21
7065.06061038992
 31
0.0
 70
   160
 71
     5
 42
123.0
  3
INABA_S40G
100
AcDbAlignedDimension
 13
9309.602433408254
 23
6459.999999999991
 33
0.0
 14
9186.602433408253
 24
6386.999999999991
 34
0.0
100
AcDbRotatedDimension
1001
ACAD
1000
DSTYLE
1002
{
1070
   174
1070
     0
1070
   272
1070
     1
1070
   288
1070
     0
1070
   341
1005
0
1002
}
  0
DIMENSION
  5
1D93F
330
747D
100
AcDbEntity
  8
寸法
 48
50.0
100
AcDbDimension
  2
*D15
 10
9354.602433408254
 20
7277.521305906758
 30
0.0
 11
9332.102433408254
 21
7277.521305906758
 31
0.0
 70
   160
  1
a
 71
     5
 42
45.0
  3
INABA_S40G
100
AcDbAlignedDimension
 13
9309.602433408254
 23
6459.999999999991
 33
0.0
 14
9354.602433408254
 24
7065.06061038992
 34
0.0
100
AcDbRotatedDimension
1001
ACAD
1000
DSTYLE
1002
{
1070
   174
1070
     0
1070
   272
1070
     1
1070
   288
1070
     0
1070
   341
1005
0
1002
}
  0
LEADER
  5
1D940
330
747D
100
AcDbEntity
  8
寸法
 48
50.0
100
AcDbLeader
  3
INABA_S40G
 71
     0
 73
     0
 74
     0
 75
     1
 40
120.0
 41
720.0000000000001
 76
     3
 10
9309.602433408254
 20
5980.0
 30
0.0
 10
9559.150596892498
 20
6224.308542911245
 30
0.0
 10
9659.150596892498
 20
6224.308542911245
 30
0.0
340
1D941
1001
ACAD
1000
DSTYLE
1002
{
1070
   174
1070
     0
1070
   272
1070
     1
1070
   288
1070
     0
1070
   341
1005
0
1002
}
  0
MTEXT
  5
1D941
102
{ACAD_REACTORS
330
1D940
102
}
330
747D
100
AcDbEntity
  8
部品1
 62
     7
 48
50.0
100
AcDbMText
 10
10419.1505968925
 20
6324.308542911246
 30
0.0
 40
120.0
 41
0.0
 71
     6
 72
     1
  1
\A1;床下換気口
  7
STYLE1
 73
     1
 44
1.0
1001
ACAD
1000
MTEXTBEGIN
1070
    73
1070
     1
1070
    44
1040
1.0
1070
    74
1070
     0
1000
MTEXTEND
  0
DIMENSION
  5
1D942
330
747D
100
AcDbEntity
  8
寸法
 48
50.0
100
AcDbDimension
  2
*D16
 10
9189.602433408254
 20
5921.503367980584
 30
0.0
 11
9545.649677502742
 21
5921.503367980584
 31
0.0
 70
   160
 71
     5
 42
120.0
  3
INABA_S40G
100
AcDbAlignedDimension
 13
9309.602433408254
 23
5980.0
 33
0.0
 14
9189.602433408254
 24
5983.708180407764
 34
0.0
100
AcDbRotatedDimension
1001
ACAD
1000
DSTYLE
1002
{
1070
   174
1070
     0
1070
   272
1070
     1
1070
   288
1070
     0
1070
   341
1005
0
1002
}
  0
TEXT
  5
1D943
330
747D
100
AcDbEntity
  8
部品1
 48
50.0
100
AcDbText
 10
9396.422500086655
 20
4805.113203220717
 30
0.0
 40
80.0
  1
(a=45,b=55,c=75)
  7
STYLE1
100
AcDbText
  0
TEXT
  5
1D944
330
747D
100
AcDbEntity
  8
部品1
 48
50.0
100
AcDbText
 10
9326.545612481771
 20
4924.844249373856
 30
0.0
 40
80.0
  1
※a,b,cは屋根の出幅です。
  7
STYLE1
100
AcDbText
  0
MTEXT
  5
1D945
102
{ACAD_REACTORS
330
1D946
102
}
330
747D
100
AcDbEntity
  8
部品1
 62
     7
 48
50.0
100
AcDbMText
 10
10191.72820794657
 20
5148.982608040199
 30
0.0
 40
120.0
 41
0.0
 71
     6
 72
     1
  1
\A1;屋根の外寸
  7
STYLE1
 73
     1
 44
1.0
1001
ACAD
1000
MTEXTBEGIN
1070
    73
1070
     1
1070
    44
1040
1.0
1070
    74
1070
     0
1000
MTEXTEND
  0
LEADER
  5
1D946
330
747D
100
AcDbEntity
  8
寸法
 48
50.0
100
AcDbLeader
  3
INABA_S50G
 71
     0
 73
     0
 74
     0
 75
     1
 40
120.0
 41
672.0
 76
     3
 10
9121.49102134208
 20
5443.999999999991
 30
0.0
 10
9369.728207946574
 20
5063.9826080402
 30
0.0
 10
9494.728207946574
 20
5063.9826080402
 30
0.0
340
1D945
1001
ACAD
1000
DSTYLE
1002
{
1070
   341
1005
1C530
1070
    40
1040
1.0
1070
   343
1005
1C530
1070
   344
1005
1C530
1002
}
  0
DIMENSION
  5
1D947
330
747D
100
AcDbEntity
  8
寸法
 48
50.0
100
AcDbDimension
  2
*D17
 10
8469.103563459482
 20
6229.999999999989
 30
0.0
 11
8469.103563459482
 21
5993.952755905501
 31
0.0
 70
   160
 71
     5
 42
110.0000000000018
  3
INABA_S40G
100
AcDbAlignedDimension
 13
8411.017960730852
 23
6339.999999999991
 33
0.0
 14
9079.602433408254
 24
6229.999999999989
 34
0.0
 50
90.0
100
AcDbRotatedDimension
1001
ACAD
1000
DSTYLE
1002
{
1070
   174
1070
     0
1070
   272
1070
     1
1070
   288
1070
     0
1070
   341
1005
0
1002
}
  0
DIMENSION
  5
1D948
330
747D
100
AcDbEntity
  8
寸法
 48
50.0
100
AcDbDimension
  2
*D18
 10
9079.602433408254
 20
5921.503367980584
 30
0.0
 11
8843.555189313766
 21
5921.503367980584
 31
0.0
 70
   160
 71
     5
 42
110.0
  3
INABA_S40G
100
AcDbAlignedDimension
 13
9189.602433408254
 23
5983.708180407764
 33
0.0
 14
9079.602433408254
 24
6229.999999999989
 34
0.0
100
AcDbRotatedDimension
1001
ACAD
1000
DSTYLE
1002
{
1070
   174
1070
     0
1070
   272
1070
     1
1070
   288
1070
     0
1070
   341
1005
0
1002
}
  0
LINE
  5
1D949
330
747D
100
AcDbEntity
  8
部品1
 48
50.0
100
AcDbLine
 10
9189.602433408254
 20
5800.000000000011
 30
0.0
 11
9189.602433408254
 21
6229.999999999991
 31
0.0
  0
LINE
  5
1D94A
330
747D
100
AcDbEntity
  8
部品1
 48
50.0
100
AcDbLine
 10
9309.602433408254
 20
5500.000000000009
 30
0.0
 11
9309.602433408254
 21
6459.999999999991
 31
0.0
  0
LINE
  5
1D94B
330
747D
100
AcDbEntity
  8
想像線
 48
10.0
100
AcDbLine
 10
9354.602433408254
 20
6534.999999999995
 30
0.0
 11
9354.602433408258
 21
5444.999999999991
 31
0.0
  0
TEXT
  5
1D94C
330
747D
100
AcDbEntity
  8
部品1
 48
50.0
100
AcDbText
 10
8071.602433408239
 20
5238.547498596531
 30
0.0
 40
120.0
  1
扉面
  7
STYLE1
 72
     1
 11
8199.602433408239
 21
5222.547498596531
 31
0.0
100
AcDbText
 73
     1
  0
HATCH
  5
1D94E
330
747D
100
AcDbEntity
  8
細線
 48
50.0
100
AcDbHatch
 10
0.0
 20
0.0
 30
0.0
210
0.0
220
0.0
230
1.0
  2
LINE
 70
     0
 71
     0
 91
        1
 92
        7
 72
     0
 73
     1
 93
        4
 10
8299.602433408255
 20
5500.0
 10
8299.602433408255
 20
5669.999999999998
 10
8099.602433408254
 20
5669.999999999997
 10
8099.602433408254
 20
5499.999999999994
 97
        0
 75
     0
 76
     1
 52
45.0
 41
10.0
 77
     0
 78
     1
 53
45.0
 43
4596.49087242173
 44
-5651.541555076297
 45
-22.45064030267288
 46
22.45064030267288
 79
     0
 47
2.903594399684136
 98
        1
 10
8212.71243341134
 20
5539.027055432439
  0
LINE
  5
1D94F
330
747D
100
AcDbEntity
  8
部品1
 48
50.0
100
AcDbLine
 10
8099.602433408254
 20
5500.0
 30
0.0
 11
8099.602433408254
 21
5669.999999999994
 31
0.0
  0
LINE
  5
1D950
330
747D
100
AcDbEntity
  8
部品1
 48
50.0
100
AcDbLine
 10
8299.602433408255
 20
5500.0
 30
0.0
 11
8299.602433408255
 21
5669.999999999998
 31
0.0
  0
LINE
  5
1D951
330
747D
100
AcDbEntity
  8
センター
 48
2.0
100
AcDbLine
 10
9136.602433408262
 20
5697.999999999993
 30
0.0
 11
9236.602433408261
 21
5697.999999999993
 31
0.0
  0
CIRCLE
  5
1D952
330
747D
100
AcDbEntity
  8
部品1
 48
50.0
100
AcDbCircle
 10
9186.60243340826
 20
5697.999999999993
 30
0.0
 40
35.0
  0
LINE
  5
1D953
330
747D
100
AcDbEntity
  8
部品1
 48
50.0
100
AcDbLine
 10
9189.602433408255
 20
5800.000000000009
 30
0.0
 11
9079.602433408254
 21
5800.000000000009
 31
0.0
  0
LINE
  5
1D954
330
747D
100
AcDbEntity
  8
部品1
 48
50.0
100
AcDbLine
 10
9079.602433408254
 20
5670.000000000007
 30
0.0
 11
9079.602433408254
 21
5800.000000000009
 31
0.0
  0
LINE
  5
1D955
330
747D
100
AcDbEntity
  8
センター
 48
2.0
100
AcDbLine
 10
9186.60243340826
 20
5747.999999999993
 30
0.0
 11
9186.60243340826
 21
5647.999999999992
 31
0.0
  0
LINE
  5
1D956
330
747D
100
AcDbEntity
  8
部品1
 48
50.0
100
AcDbLine
 10
8299.602433408239
 20
6339.999999999992
 30
0.0
 11
8299.602433408239
 21
6459.999999999991
 31
0.0
  0
LINE
  5
1D957
330
747D
100
AcDbEntity
  8
部品1
 48
50.0
100
AcDbLine
 10
8099.602433408239
 20
6339.999999999992
 30
0.0
 11
8099.602433408239
 21
6459.999999999991
 31
0.0
  0
DIMENSION
  5
1D959
330
747D
100
AcDbEntity
  8
寸法
 48
50.0
100
AcDbDimension
  2
*D19
 10
8469.103563459482
 20
6339.999999999991
 30
0.0
 11
8469.103563459482
 21
6696.047244094481
 31
0.0
 70
   160
 71
     5
 42
120.0
  3
INABA_S40G
100
AcDbAlignedDimension
 13
8409.602433408254
 23
6459.999999999991
 33
0.0
 14
8411.017960730852
 24
6339.999999999991
 34
0.0
 50
90.0
100
AcDbRotatedDimension
1001
ACAD
1000
DSTYLE
1002
{
1070
   174
1070
     0
1070
   272
1070
     1
1070
   288
1070
     0
1070
   341
1005
0
1002
}
  0
LINE
  5
1D95A
330
747D
100
AcDbEntity
  8
センター
 48
2.0
100
AcDbLine
 10
9136.602433408254
 20
6336.999999999991
 30
0.0
 11
9236.602433408254
 21
6336.999999999991
 31
0.0
  0
CIRCLE
  5
1D95B
330
747D
100
AcDbEntity
  8
部品1
 48
50.0
100
AcDbCircle
 10
9186.602433408253
 20
6336.999999999991
 30
0.0
 40
35.0
  0
LINE
  5
1D95C
330
747D
100
AcDbEntity
  8
部品1
 48
50.0
100
AcDbLine
 10
9189.602433408255
 20
6229.999999999993
 30
0.0
 11
9079.602433408254
 21
6229.999999999989
 31
0.0
  0
LINE
  5
1D95D
330
747D
100
AcDbEntity
  8
部品1
 48
50.0
100
AcDbLine
 10
9079.602433408254
 20
6229.999999999989
 30
0.0
 11
9079.602433408254
 21
6339.999999999989
 31
0.0
  0
LINE
  5
1D95E
330
747D
100
AcDbEntity
  8
部品1
 48
50.0
100
AcDbLine
 10
9309.602433408254
 20
6079.999999999991
 30
0.0
 11
9189.602433408254
 21
6079.999999999991
 31
0.0
  0
LINE
  5
1D95F
330
747D
100
AcDbEntity
  8
部品1
 48
50.0
100
AcDbLine
 10
9309.602433408254
 20
5879.999999999991
 30
0.0
 11
9189.602433408254
 21
5879.999999999991
 31
0.0
  0
LINE
  5
1D961
330
747D
100
AcDbEntity
  8
センター
 48
2.0
100
AcDbLine
 10
9186.602433408253
 20
6386.999999999991
 30
0.0
 11
9186.602433408253
 21
6286.999999999991
 31
0.0
  0
TEXT
  5
1DEDA
330
747D
100
AcDbEntity
  8
文字
 62
     7
 48
50.0
100
AcDbText
 10
13188.16259899338
 20
79.80631269190325
 30
0.0
 40
80.0
  1
※布基礎には換気口を設けてください。
  7
STYLE2
100
AcDbText
  0
MTEXT
  5
1E700
102
{ACAD_REACTORS
330
1E701
102
}
330
747D
100
AcDbEntity
  8
部品1
 62
     7
 48
50.0
100
AcDbMText
 10
10359.41941284436
 20
6703.025443807942
 30
0.0
 40
120.0
 41
0.0
 71
     6
 72
     1
  1
基礎ボルト芯
  7
STYLE1
 73
     1
 44
1.0
1001
ACAD
1000
MTEXTBEGIN
1070
    73
1070
     1
1070
    44
1040
1.0
1070
    74
1070
     0
1000
MTEXTEND
  0
LEADER
  5
1E701
330
747D
100
AcDbEntity
  8
寸法
 48
50.0
100
AcDbLeader
  3
INABA_S40G
 71
     0
 73
     0
 74
     0
 75
     1
 40
120.0
 41
846.0000000000002
 76
     3
 10
9186.602433408253
 20
6336.999999999991
 30
0.0
 10
9373.419412844361
 20
6603.025443807942
 30
0.0
 10
9473.419412844362
 20
6603.025443807942
 30
0.0
340
1E700
1001
ACAD
1000
DSTYLE
1002
{
1070
   174
1070
     0
1070
   272
1070
     1
1070
   288
1070
     0
1070
   341
1005
0
1002
}
  0
LINE
  5
1EB68
330
747D
100
AcDbEntity
  8
想像線
 48
10.0
100
AcDbLine
 10
7047.602433408254
 20
6534.999999999989
 30
0.0
 11
7044.602433408254
 21
6531.999999999991
 31
0.0
  0
LINE
  5
1EB6B
330
747D
100
AcDbEntity
  8
部品1
 48
50.0
100
AcDbLine
 10
7089.602433408252
 20
5502.999999999986
 30
0.0
 11
7092.602433408252
 21
5499.999999999986
 31
0.0
  0
LINE
  5
1EB6C
330
747D
100
AcDbEntity
  8
想像線
 48
10.0
100
AcDbLine
 10
7044.602433408255
 20
5447.999999999992
 30
0.0
 11
7047.602433408255
 21
5444.999999999992
 31
0.0
  0
TEXT
  5
1EDE6
330
747D
100
AcDbEntity
  8
部品1
 48
50.0
100
AcDbText
 10
10419.30259299832
 20
1598.025693459238
 30
0.0
 40
80.0
  1
ボルトの出
 50
90.0
  7
STYLE2
100
AcDbText
  0
LINE
  5
1EDE7
330
747D
100
AcDbEntity
  8
部品1
100
AcDbLine
 10
10950.42489610585
 20
578.6491834024126
 30
0.0
 11
10950.42489610585
 21
3425.797053873392
 31
0.0
  0
TEXT
  5
1EDE8
330
747D
100
AcDbEntity
  8
部品1
100
AcDbText
 10
8279.115753731623
 20
3246.245121921964
 30
0.0
 40
120.0
  1
基礎詳細
  7
STYLE2
100
AcDbText
  0
LINE
  5
1EDE9
330
747D
100
AcDbEntity
  8
部品1
 48
50.0
100
AcDbLine
 10
9307.284747454065
 20
2503.70071520569
 30
0.0
 11
9323.284747454065
 21
2495.70071520569
 31
0.0
  0
LINE
  5
1EDEA
330
747D
100
AcDbEntity
  8
細線
 48
50.0
100
AcDbLine
 10
9275.284747454064
 20
2455.700715205689
 30
0.0
 11
9275.284747454064
 21
2487.70071520569
 31
0.0
  0
LINE
  5
1EDEB
330
747D
100
AcDbEntity
  8
部品1
 48
50.0
100
AcDbLine
 10
9323.284747454065
 20
2463.70071520569
 30
0.0
 11
9323.284747454065
 21
2495.70071520569
 31
0.0
  0
LINE
  5
1EDEC
330
747D
100
AcDbEntity
  8
細線
 48
50.0
100
AcDbLine
 10
9307.284747454065
 20
2455.700715205689
 30
0.0
 11
9307.284747454065
 21
2487.70071520569
 31
0.0
  0
LINE
  5
1EDED
330
747D
100
AcDbEntity
  8
部品1
 48
50.0
100
AcDbLine
 10
9307.284747454065
 20
2487.70071520569
 30
0.0
 11
9323.284747454065
 21
2495.70071520569
 31
0.0
  0
LINE
  5
1EDEE
330
747D
100
AcDbEntity
  8
部品1
 48
50.0
100
AcDbLine
 10
9275.284747454064
 20
2487.70071520569
 30
0.0
 11
9307.284747454065
 21
2487.70071520569
 31
0.0
  0
LINE
  5
1EDEF
330
747D
100
AcDbEntity
  8
部品1
 48
50.0
100
AcDbLine
 10
9307.284747454065
 20
2455.700715205689
 30
0.0
 11
9323.284747454065
 21
2463.70071520569
 31
0.0
  0
LINE
  5
1EDF0
330
747D
100
AcDbEntity
  8
部品1
 48
50.0
100
AcDbLine
 10
9275.284747454064
 20
2455.700715205689
 30
0.0
 11
9307.284747454065
 21
2455.700715205689
 31
0.0
  0
ELLIPSE
  5
1EDF1
330
747D
100
AcDbEntity
  8
細線
 48
50.0
100
AcDbEllipse
 10
9291.284747454065
 20
2495.70071520569
 30
0.0
 11
14.76670786606846
 21
0.0
 31
0.0
210
0.0
220
0.0
230
1.0
 40
0.2071254069489396
 41
0.0
 42
6.283185307179586
  0
LINE
  5
1EDF2
330
747D
100
AcDbEntity
  8
部品1
 48
50.0
100
AcDbLine
 10
9275.284747454064
 20
2503.70071520569
 30
0.0
 11
9307.284747454065
 21
2503.70071520569
 31
0.0
  0
LINE
  5
1EDF3
330
747D
100
AcDbEntity
  8
部品1
 48
50.0
100
AcDbLine
 10
9259.284747454065
 20
2463.70071520569
 30
0.0
 11
9259.284747454065
 21
2495.70071520569
 31
0.0
  0
LINE
  5
1EDF4
330
747D
100
AcDbEntity
  8
部品1
 48
50.0
100
AcDbLine
 10
9259.284747454065
 20
2495.70071520569
 30
0.0
 11
9275.284747454064
 21
2503.70071520569
 31
0.0
  0
LINE
  5
1EDF5
330
747D
100
AcDbEntity
  8
部品1
 48
50.0
100
AcDbLine
 10
9259.284747454065
 20
2463.70071520569
 30
0.0
 11
9275.284747454064
 21
2455.700715205689
 31
0.0
  0
LINE
  5
1EDF6
330
747D
100
AcDbEntity
  8
部品1
 48
50.0
100
AcDbLine
 10
9259.284747454065
 20
2495.70071520569
 30
0.0
 11
9275.284747454064
 21
2487.70071520569
 31
0.0
  0
LINE
  5
1EDF7
330
747D
100
AcDbEntity
  8
部品1
 48
50.0
100
AcDbLine
 10
9331.284747454064
 20
2364.348722540819
 30
0.0
 11
9331.284747454064
 21
2373.94872254082
 31
0.0
  0
ELLIPSE
  5
1EDF8
330
747D
100
AcDbEntity
  8
部品1
 48
50.0
100
AcDbEllipse
 10
9291.284747454065
 20
2373.94872254082
 30
0.0
 11
18.4
 21
0.0
 31
0.0
210
0.0
220
0.0
230
1.0
 40
0.3478260869565217
 41
0.0
 42
6.283185307179586
  0
ARC
  5
1EDF9
330
747D
100
AcDbEntity
  8
部品1
100
AcDbCircle
 10
9130.184747454064
 20
2202.925434096547
 30
0.0
 40
2.7
100
AcDbArc
 50
90.0
 51
180.0
  0
LINE
  5
1EDFA
330
747D
100
AcDbEntity
  8
部品1
100
AcDbLine
 10
9132.884747454063
 20
2216.425434096547
 30
0.0
 11
9175.184747454066
 21
2216.425434096544
 31
0.0
  0
LINE
  5
1EDFB
330
747D
100
AcDbEntity
  8
部品1
100
AcDbLine
 10
9130.184747454064
 20
2205.625434096547
 30
0.0
 11
9130.184747454064
 21
2213.725434096547
 31
0.0
  0
LINE
  5
1EDFC
330
747D
100
AcDbEntity
  8
部品1
100
AcDbLine
 10
9130.184747454064
 20
2205.625434096547
 30
0.0
 11
9130.184747454064
 21
2205.625434096547
 31
0.0
  0
ARC
  5
1EDFD
330
747D
100
AcDbEntity
  8
部品1
100
AcDbCircle
 10
9132.884747454063
 20
2213.725434096547
 30
0.0
 40
2.7
100
AcDbArc
 50
90.0
 51
180.0
  0
ARC
  5
1EDFE
330
747D
100
AcDbEntity
  8
部品1
100
AcDbCircle
 10
9175.184747454066
 20
2213.725434096544
 30
0.0
 40
2.7
100
AcDbArc
 50
0.0
 51
90.0
  0
LINE
  5
1EDFF
330
747D
100
AcDbEntity
  8
部品1
 48
50.0
100
AcDbLine
 10
9251.284747454064
 20
2373.94872254082
 30
0.0
 11
9251.284747454064
 21
2364.348722540819
 31
0.0
  0
ELLIPSE
  5
1EE00
330
747D
100
AcDbEntity
  8
部品1
 48
50.0
100
AcDbEllipse
 10
9291.284747454065
 20
2364.34872254082
 30
0.0
 11
40.0
 21
0.0
 31
0.0
210
0.0
220
0.0
230
1.0
 40
0.4
 41
3.141592653589793
 42
6.283185307179586
  0
ELLIPSE
  5
1EE01
330
747D
100
AcDbEntity
  8
部品1
 48
50.0
100
AcDbEllipse
 10
9291.284747454065
 20
2373.94872254082
 30
0.0
 11
40.0
 21
0.0
 31
0.0
210
0.0
220
0.0
230
1.0
 40
0.4
 41
0.0
 42
6.283185307179586
  0
LINE
  5
1EE02
330
747D
100
AcDbEntity
  8
部品1
100
AcDbLine
 10
9285.884747454064
 20
2157.585434096547
 30
0.0
 11
9296.684747454063
 21
2157.585434096547
 31
0.0
  0
LINE
  5
1EE03
330
747D
100
AcDbEntity
  8
部品1
100
AcDbLine
 10
9282.284747454065
 20
2153.985434096548
 30
0.0
 11
9300.284747454064
 21
2153.985434096548
 31
0.0
  0
LINE
  5
1EE04
330
747D
100
AcDbEntity
  8
細線
100
AcDbLine
 10
9285.884747454067
 20
2114.385434096547
 30
0.0
 11
9285.884747454064
 21
2157.585434096547
 31
0.0
  0
LINE
  5
1EE05
330
747D
100
AcDbEntity
  8
細線
100
AcDbLine
 10
9296.684747454063
 20
2114.385434096547
 30
0.0
 11
9296.684747454063
 21
2157.585434096547
 31
0.0
  0
LINE
  5
1EE06
330
747D
100
AcDbEntity
  8
部品1
100
AcDbLine
 10
9198.584747454065
 20
2171.685434096548
 30
0.0
 11
9198.584747454065
 21
2154.585434096547
 31
0.0
  0
LINE
  5
1EE07
330
747D
100
AcDbEntity
  8
部品1
100
AcDbLine
 10
9232.144747454066
 20
2171.685434096548
 30
0.0
 11
9232.144747454062
 21
2117.085434096547
 31
0.0
  0
ARC
  5
1EE08
330
747D
100
AcDbEntity
  8
部品1
100
AcDbCircle
 10
9217.484747454065
 20
2159.725434096547
 30
0.0
 40
2.7
100
AcDbArc
 50
0.0
 51
90.0
  0
LINE
  5
1EE09
330
747D
100
AcDbEntity
  8
部品1
100
AcDbLine
 10
9177.884747454063
 20
2162.425434096547
 30
0.0
 11
9217.484747454065
 21
2162.425434096547
 31
0.0
  0
ARC
  5
1EE0A
330
747D
100
AcDbEntity
  8
部品1
100
AcDbCircle
 10
9217.484747454065
 20
2117.085434096547
 30
0.0
 40
2.7
100
AcDbArc
 50
270.0
 51
0.0
  0
ARC
  5
1EE0B
330
747D
100
AcDbEntity
  8
部品1
100
AcDbCircle
 10
9234.84474745406
 20
2117.085434096547
 30
0.0
 40
2.7
100
AcDbArc
 50
180.0
 51
270.0
  0
LINE
  5
1EE0C
330
747D
100
AcDbEntity
  8
部品1
100
AcDbLine
 10
9205.784747454066
 20
2114.385434096547
 30
0.0
 11
9217.484747454065
 21
2114.385434096547
 31
0.0
  0
LINE
  5
1EE0D
330
747D
100
AcDbEntity
  8
部品1
100
AcDbLine
 10
9220.184747454064
 20
2159.725434096547
 30
0.0
 11
9220.184747454064
 21
2117.085434096547
 31
0.0
  0
ARC
  5
1EE0E
330
747D
100
AcDbEntity
  8
部品1
100
AcDbCircle
 10
9229.444747454065
 20
2171.685434096548
 30
0.0
 40
2.7
100
AcDbArc
 50
0.0
 51
90.0
  0
ARC
  5
1EE0F
330
747D
100
AcDbEntity
  8
部品1
100
AcDbCircle
 10
9201.284747454065
 20
2171.685434096548
 30
0.0
 40
2.7
100
AcDbArc
 50
90.0
 51
180.0
  0
LINE
  5
1EE10
330
747D
100
AcDbEntity
  8
部品1
100
AcDbLine
 10
9201.284747454065
 20
2174.385434096548
 30
0.0
 11
9229.444747454065
 21
2174.385434096548
 31
0.0
  0
LINE
  5
1EE11
330
747D
100
AcDbEntity
  8
部品1
100
AcDbLine
 10
9177.884747454063
 20
2213.725434096544
 30
0.0
 11
9177.884747454063
 21
2162.425434096547
 31
0.0
  0
LINE
  5
1EE12
330
747D
100
AcDbEntity
  8
部品1
100
AcDbLine
 10
9127.484747454067
 20
2194.825434096547
 30
0.0
 11
9127.484747454067
 21
2202.925434096547
 31
0.0
  0
LINE
  5
1EE13
330
747D
100
AcDbEntity
  8
部品1
100
AcDbLine
 10
9234.84474745406
 20
2114.385434096547
 30
0.0
 11
9436.18474745406
 21
2114.385434096547
 31
0.0
  0
LINE
  5
1EE14
330
747D
100
AcDbEntity
  8
部品1
100
AcDbLine
 10
9076.184747454064
 20
2117.085434096547
 30
0.0
 11
9076.184747454064
 21
2179.217337799255
 31
0.0
  0
LINE
  5
1EE15
330
747D
100
AcDbEntity
  8
部品1
100
AcDbLine
 10
9078.884747454063
 20
2114.385434096547
 30
0.0
 11
9090.584747454059
 21
2114.385434096547
 31
0.0
  0
LINE
  5
1EE16
330
747D
100
AcDbEntity
  8
細線
 48
50.0
100
AcDbLine
 10
9069.884747454064
 20
2092.606010396452
 30
0.0
 11
9082.104171154158
 21
2104.825434096547
 31
0.0
  0
ARC
  5
1EE17
330
747D
100
AcDbEntity
  8
部品1
100
AcDbCircle
 10
9078.884747454063
 20
2117.085434096547
 30
0.0
 40
2.7
100
AcDbArc
 50
180.0
 51
270.0
  0
LINE
  5
1EE18
330
747D
100
AcDbEntity
  8
部品1
100
AcDbLine
 10
9078.229901266466
 20
2181.836722549647
 30
0.0
 11
9086.984747454065
 21
2184.025434096547
 31
0.0
  0
ARC
  5
1EE19
330
747D
100
AcDbEntity
  8
部品1
100
AcDbCircle
 10
9078.884747454063
 20
2179.217337799255
 30
0.0
 40
2.7
100
AcDbArc
 50
104.0362434679059
 51
180.0
  0
ARC
  5
1EE1A
330
747D
100
AcDbEntity
  8
部品1
100
AcDbCircle
 10
9089.684747454064
 20
2192.125434096547
 30
0.0
 40
2.7
100
AcDbArc
 50
90.0
 51
180.0
  0
LINE
  5
1EE1B
330
747D
100
AcDbEntity
  8
部品1
100
AcDbLine
 10
9086.984747454065
 20
2184.025434096547
 30
0.0
 11
9086.984747454065
 21
2192.125434096547
 31
0.0
  0
TEXT
  5
1EE1C
330
747D
100
AcDbEntity
  8
部品1
 48
50.0
100
AcDbText
 10
8643.438650874575
 20
2435.385955197023
 30
0.0
 40
80.0
  1
※(別売)
  7
STYLE2
100
AcDbText
  0
LINE
  5
1EE1D
330
747D
100
AcDbEntity
  8
部品1
 48
50.0
100
AcDbLine
 10
9069.884747454064
 20
2104.825434096547
 30
0.0
 11
9483.884747454068
 21
2104.825434096547
 31
0.0
  0
LINE
  5
1EE1E
330
747D
100
AcDbEntity
  8
細線
 48
50.0
100
AcDbLine
 10
9069.884747454064
 20
2038.724473670037
 30
0.0
 11
9135.985707880575
 21
2104.825434096547
 31
0.0
  0
LINE
  5
1EE1F
330
747D
100
AcDbEntity
  8
細線
 48
50.0
100
AcDbLine
 10
9069.884747454064
 20
2065.665242033245
 30
0.0
 11
9109.044939517371
 21
2104.825434096547
 31
0.0
  0
LINE
  5
1EE20
330
747D
100
AcDbEntity
  8
部品1
100
AcDbLine
 10
9089.684747454064
 20
2194.825434096547
 30
0.0
 11
9127.484747454067
 21
2194.825434096547
 31
0.0
  0
LINE
  5
1EE21
330
747D
100
AcDbEntity
  8
部品1
 48
50.0
100
AcDbLine
 10
9483.884747454064
 20
1560.825434096547
 30
0.0
 11
9611.884747454064
 21
1560.825434096547
 31
0.0
  0
LINE
  5
1EE22
330
747D
100
AcDbEntity
  8
部品1
100
AcDbLine
 10
9300.284747454064
 20
1879.825434096547
 30
0.0
 11
9336.284747454065
 21
1879.825434096547
 31
0.0
  0
LINE
  5
1EE23
330
747D
100
AcDbEntity
  8
部品1
100
AcDbLine
 10
9300.284747454064
 20
1861.825434096546
 30
0.0
 11
9336.284747454065
 21
1861.825434096546
 31
0.0
  0
ARC
  5
1EE24
330
747D
100
AcDbEntity
  8
部品1
100
AcDbCircle
 10
9300.284747454064
 20
1879.825434096547
 30
0.0
 40
18.0
100
AcDbArc
 50
180.0
 51
270.0
  0
LINE
  5
1EE25
330
747D
100
AcDbEntity
  8
部品1
100
AcDbLine
 10
9336.284747454065
 20
1861.825434096546
 30
0.0
 11
9336.284747454065
 21
1879.825434096547
 31
0.0
  0
LINE
  5
1EE26
330
747D
100
AcDbEntity
  8
部品1
100
AcDbLine
 10
9354.284747454064
 20
1780.825434096545
 30
0.0
 11
9228.284747454058
 21
1780.825434096545
 31
0.0
  0
LINE
  5
1EE27
330
747D
100
AcDbEntity
  8
細線
 48
50.0
100
AcDbLine
 10
9648.2625726464
 20
1296.825434096545
 30
0.0
 11
9641.831792028053
 21
1320.825434096545
 31
0.0
  0
LINE
  5
1EE28
330
747D
100
AcDbEntity
  8
細線
 48
50.0
100
AcDbLine
 10
9569.374527699153
 20
1296.825434096545
 30
0.0
 11
9562.943747080808
 21
1320.825434096545
 31
0.0
  0
LINE
  5
1EE29
330
747D
100
AcDbEntity
  8
細線
 48
50.0
100
AcDbLine
 10
9490.486482751897
 20
1296.825434096547
 30
0.0
 11
9484.05570213355
 21
1320.825434096547
 31
0.0
  0
LINE
  5
1EE2A
330
747D
100
AcDbEntity
  8
細線
 48
50.0
100
AcDbLine
 10
9626.826637251911
 20
1216.825434096545
 30
0.0
 11
9633.257417870259
 21
1192.825434096545
 31
0.0
  0
LINE
  5
1EE2B
330
747D
100
AcDbEntity
  8
細線
 48
50.0
100
AcDbLine
 10
9547.938592304666
 20
1216.825434096545
 30
0.0
 11
9554.369372923011
 21
1192.825434096545
 31
0.0
  0
LINE
  5
1EE2C
330
747D
100
AcDbEntity
  8
細線
 48
50.0
100
AcDbLine
 10
9469.050547357417
 20
1216.825434096547
 30
0.0
 11
9475.481327975773
 21
1192.825434096547
 31
0.0
  0
LINE
  5
1EE2D
330
747D
100
AcDbEntity
  8
細線
 48
50.0
100
AcDbLine
 10
9541.507811686315
 20
1192.825434096544
 30
0.0
 11
9575.805308317498
 21
1320.825434096544
 31
0.0
  0
LINE
  5
1EE2E
330
747D
100
AcDbEntity
  8
細線
 48
50.0
100
AcDbLine
 10
9462.619766739065
 20
1192.825434096545
 30
0.0
 11
9496.917263370241
 21
1320.825434096547
 31
0.0
  0
LINE
  5
1EE2F
330
747D
100
AcDbEntity
  8
細線
 48
50.0
100
AcDbLine
 10
9620.395856633559
 20
1192.825434096545
 30
0.0
 11
9654.693353264747
 21
1320.825434096544
 31
0.0
  0
LINE
  5
1EE30
330
747D
100
AcDbEntity
  8
部品1
 48
50.0
100
AcDbLine
 10
9691.884747454068
 20
1320.825434096547
 30
0.0
 11
9691.884747454068
 21
1192.825434096547
 31
0.0
  0
LINE
  5
1EE31
330
747D
100
AcDbEntity
  8
細線
 48
50.0
100
AcDbLine
 10
9411.598437804661
 20
1296.825434096547
 30
0.0
 11
9405.167657186314
 21
1320.825434096547
 31
0.0
  0
LINE
  5
1EE32
330
747D
100
AcDbEntity
  8
細線
 48
50.0
100
AcDbLine
 10
9332.710392857414
 20
1296.825434096547
 30
0.0
 11
9326.279612239067
 21
1320.825434096547
 31
0.0
  0
LINE
  5
1EE33
330
747D
100
AcDbEntity
  8
細線
 48
50.0
100
AcDbLine
 10
9174.93430296292
 20
1296.825434096547
 30
0.0
 11
9168.503522344574
 21
1320.825434096547
 31
0.0
  0
LINE
  5
1EE34
330
747D
100
AcDbEntity
  8
細線
 48
50.0
100
AcDbLine
 10
9253.822347910167
 20
1296.825434096547
 30
0.0
 11
9247.391567291819
 21
1320.825434096547
 31
0.0
  0
LINE
  5
1EE35
330
747D
100
AcDbEntity
  8
細線
 48
50.0
100
AcDbLine
 10
9311.274457462925
 20
1216.825434096547
 30
0.0
 11
9317.705238081272
 21
1192.825434096547
 31
0.0
  0
LINE
  5
1EE36
330
747D
100
AcDbEntity
  8
細線
 48
50.0
100
AcDbLine
 10
9390.16250241017
 20
1216.825434096547
 30
0.0
 11
9396.593283028517
 21
1192.825434096547
 31
0.0
  0
LINE
  5
1EE37
330
747D
100
AcDbEntity
  8
細線
 48
50.0
100
AcDbLine
 10
9153.498367568429
 20
1216.825434096547
 30
0.0
 11
9159.929148186778
 21
1192.825434096547
 31
0.0
  0
LINE
  5
1EE38
330
747D
100
AcDbEntity
  8
細線
 48
50.0
100
AcDbLine
 10
9232.386412515678
 20
1216.825434096547
 30
0.0
 11
9238.817193134025
 21
1192.825434096547
 31
0.0
  0
LINE
  5
1EE39
330
747D
100
AcDbEntity
  8
細線
 48
50.0
100
AcDbLine
 10
9383.731721791816
 20
1192.825434096547
 30
0.0
 11
9418.029218423003
 21
1320.825434096545
 31
0.0
  0
LINE
  5
1EE3A
330
747D
100
AcDbEntity
  8
細線
 48
50.0
100
AcDbLine
 10
9225.955631897326
 20
1192.825434096547
 30
0.0
 11
9260.253128528511
 21
1320.825434096545
 31
0.0
  0
LINE
  5
1EE3B
330
747D
100
AcDbEntity
  8
細線
 48
50.0
100
AcDbLine
 10
9147.067586950079
 20
1192.825434096547
 30
0.0
 11
9181.365083581262
 21
1320.825434096547
 31
0.0
  0
LINE
  5
1EE3C
330
747D
100
AcDbEntity
  8
細線
 48
50.0
100
AcDbLine
 10
9304.843676844575
 20
1192.825434096545
 30
0.0
 11
9339.141173475757
 21
1320.825434096545
 31
0.0
  0
LINE
  5
1EE3D
330
747D
100
AcDbEntity
  8
細線
 48
50.0
100
AcDbLine
 10
9429.616442408873
 20
1320.825434096547
 30
0.0
 11
9611.884747454064
 21
1503.093739141743
 31
0.0
  0
LINE
  5
1EE3E
330
747D
100
AcDbEntity
  8
部品1
 48
50.0
100
AcDbLine
 10
9611.884747454064
 20
1560.825434096547
 30
0.0
 11
9611.884747454064
 21
1320.825434096547
 31
0.0
  0
LINE
  5
1EE3F
330
747D
100
AcDbEntity
  8
細線
 48
50.0
100
AcDbLine
 10
9402.675674045669
 20
1320.825434096547
 30
0.0
 11
9611.884747454064
 21
1530.03450750494
 31
0.0
  0
LINE
  5
1EE40
330
747D
100
AcDbEntity
  8
細線
 48
50.0
100
AcDbLine
 10
9375.734905682456
 20
1320.825434096547
 30
0.0
 11
9611.884747454064
 21
1556.975275868155
 31
0.0
  0
LINE
  5
1EE41
330
747D
100
AcDbEntity
  8
細線
 48
50.0
100
AcDbLine
 10
9160.208758776798
 20
1320.825434096547
 30
0.0
 11
9483.884747454064
 21
1644.501422773813
 31
0.0
  0
LINE
  5
1EE42
330
747D
100
AcDbEntity
  8
細線
 48
50.0
100
AcDbLine
 10
9214.090295503215
 20
1320.825434096547
 30
0.0
 11
9483.884747454064
 21
1590.619886047404
 31
0.0
  0
LINE
  5
1EE43
330
747D
100
AcDbEntity
  8
細線
 48
50.0
100
AcDbLine
 10
9187.149527140009
 20
1320.825434096547
 30
0.0
 11
9483.884747454064
 21
1617.560654410599
 31
0.0
  0
LINE
  5
1EE44
330
747D
100
AcDbEntity
  8
細線
 48
50.0
100
AcDbLine
 10
8941.884747454059
 20
1533.553716585133
 30
0.0
 11
8969.156464965479
 21
1560.825434096547
 31
0.0
  0
LINE
  5
1EE45
330
747D
100
AcDbEntity
  8
部品1
 48
50.0
100
AcDbLine
 10
8941.884747454064
 20
1560.825434096547
 30
0.0
 11
9069.884747454064
 21
1560.825434096547
 31
0.0
  0
LINE
  5
1EE46
330
747D
100
AcDbEntity
  8
細線
 48
50.0
100
AcDbLine
 10
8941.884747454059
 20
1506.612948221922
 30
0.0
 11
8996.097233328688
 21
1560.825434096547
 31
0.0
  0
LWPOLYLINE
  5
1EE47
330
747D
100
AcDbEntity
  8
部品1
 48
50.0
100
AcDbPolyline
 90
        2
 70
     0
 43
8.0
 10
8655.744845621107
 20
1864.825434096547
 10
9069.884747454064
 20
1864.825434096547
  0
LINE
  5
1EE48
330
747D
100
AcDbEntity
  8
細線
 48
50.0
100
AcDbLine
 10
9017.158213068418
 20
1296.825434096547
 30
0.0
 11
9010.727432450071
 21
1320.825434096547
 31
0.0
  0
LINE
  5
1EE49
330
747D
100
AcDbEntity
  8
細線
 48
50.0
100
AcDbLine
 10
9096.046258015668
 20
1296.825434096547
 30
0.0
 11
9089.615477397321
 21
1320.825434096547
 31
0.0
  0
LINE
  5
1EE4A
330
747D
100
AcDbEntity
  8
細線
 48
50.0
100
AcDbLine
 10
8938.270168121166
 20
1296.825434096547
 30
0.0
 11
8931.839387502819
 21
1320.825434096547
 31
0.0
  0
LINE
  5
1EE4B
330
747D
100
AcDbEntity
  8
細線
 48
50.0
100
AcDbLine
 10
8861.884747454062
 20
1306.165355062327
 30
0.0
 11
8865.812903792258
 21
1320.825434096547
 31
0.0
  0
LINE
  5
1EE4C
330
747D
100
AcDbEntity
  8
細線
 48
50.0
100
AcDbLine
 10
8995.722277673928
 20
1216.825434096547
 30
0.0
 11
9002.153058292275
 21
1192.825434096547
 31
0.0
  0
LINE
  5
1EE4D
330
747D
100
AcDbEntity
  8
細線
 48
50.0
100
AcDbLine
 10
9074.610322621181
 20
1216.825434096547
 30
0.0
 11
9081.041103239527
 21
1192.825434096547
 31
0.0
  0
LINE
  5
1EE4E
330
747D
100
AcDbEntity
  8
細線
 48
50.0
100
AcDbLine
 10
8916.834232726676
 20
1216.825434096547
 30
0.0
 11
8923.265013345021
 21
1192.825434096547
 31
0.0
  0
LINE
  5
1EE4F
330
747D
100
AcDbEntity
  8
細線
 48
50.0
100
AcDbLine
 10
9068.179542002829
 20
1192.825434096545
 30
0.0
 11
9102.47703863401
 21
1320.825434096545
 31
0.0
  0
LINE
  5
1EE50
330
747D
100
AcDbEntity
  8
細線
 48
50.0
100
AcDbLine
 10
8910.403452108324
 20
1192.825434096545
 30
0.0
 11
8944.700948739507
 21
1320.825434096545
 31
0.0
  0
LINE
  5
1EE51
330
747D
100
AcDbEntity
  8
部品1
 48
50.0
100
AcDbLine
 10
8861.884747454068
 20
1192.825434096547
 30
0.0
 11
8861.884747454068
 21
1320.825434096547
 31
0.0
  0
LINE
  5
1EE52
330
747D
100
AcDbEntity
  8
細線
 48
50.0
100
AcDbLine
 10
8989.29149705558
 20
1192.825434096547
 30
0.0
 11
9023.588993686765
 21
1320.825434096547
 31
0.0
  0
LINE
  5
1EE53
330
747D
100
AcDbEntity
  8
部品1
 48
50.0
100
AcDbLine
 10
8941.884747454064
 20
1320.825434096547
 30
0.0
 11
8941.884747454064
 21
1560.825434096547
 31
0.0
  0
LINE
  5
1EE54
330
747D
100
AcDbEntity
  8
細線
 48
50.0
100
AcDbLine
 10
8941.884747454059
 20
1479.672179858718
 30
0.0
 11
9023.038001691894
 21
1560.825434096547
 31
0.0
  0
LINE
  5
1EE55
330
747D
100
AcDbEntity
  8
部品1
 48
50.0
100
AcDbLine
 10
9691.884747454068
 20
1192.825434096547
 30
0.0
 11
8861.884747454068
 21
1192.825434096547
 31
0.0
  0
LINE
  5
1EE56
330
747D
100
AcDbEntity
  8
部品1
 48
50.0
100
AcDbLine
 10
9691.884747454068
 20
1320.825434096547
 30
0.0
 11
8861.884747454068
 21
1320.825434096547
 31
0.0
  0
LINE
  5
1EE57
330
747D
100
AcDbEntity
  8
細線
 48
50.0
100
AcDbLine
 10
8944.68261187114
 20
1320.825434096547
 30
0.0
 11
9483.884747454064
 21
1860.027569679472
 31
0.0
  0
LINE
  5
1EE58
330
747D
100
AcDbEntity
  8
細線
 48
50.0
100
AcDbLine
 10
8971.623380234348
 20
1320.825434096547
 30
0.0
 11
9483.884747454068
 21
1833.086801316261
 31
0.0
  0
LINE
  5
1EE59
330
747D
100
AcDbEntity
  8
細線
 48
50.0
100
AcDbLine
 10
8998.564148597553
 20
1320.825434096547
 30
0.0
 11
9483.884747454064
 21
1806.146032953055
 31
0.0
  0
LINE
  5
1EE5A
330
747D
100
AcDbEntity
  8
細線
 48
50.0
100
AcDbLine
 10
9069.884747454064
 20
1661.553716585133
 30
0.0
 11
9228.284747454058
 21
1819.953716585128
 31
0.0
  0
LINE
  5
1EE5B
330
747D
100
AcDbEntity
  8
細線
 48
50.0
100
AcDbLine
 10
9069.884747454064
 20
1607.672179858718
 30
0.0
 11
9243.0380016919
 21
1780.825434096545
 31
0.0
  0
LINE
  5
1EE5C
330
747D
100
AcDbEntity
  8
細線
 48
50.0
100
AcDbLine
 10
9069.884747454064
 20
1634.612948221924
 30
0.0
 11
9228.284747454058
 21
1793.012948221913
 31
0.0
  0
LINE
  5
1EE5D
330
747D
100
AcDbEntity
  8
部品1
100
AcDbLine
 10
9228.284747454058
 20
1780.825434096547
 30
0.0
 11
9228.284747454065
 21
2104.825434096547
 31
0.0
  0
LINE
  5
1EE5E
330
747D
100
AcDbEntity
  8
部品1
100
AcDbLine
 10
9354.284747454064
 20
1780.825434096547
 30
0.0
 11
9354.284747454064
 21
2104.825434096547
 31
0.0
  0
LINE
  5
1EE5F
330
747D
100
AcDbEntity
  8
細線
 48
50.0
100
AcDbLine
 10
9354.284747454064
 20
1919.012948221918
 30
0.0
 11
9483.884747454064
 21
2048.612948221915
 31
0.0
  0
LINE
  5
1EE60
330
747D
100
AcDbEntity
  8
細線
 48
50.0
100
AcDbLine
 10
9354.284747454064
 20
1892.072179858705
 30
0.0
 11
9483.884747454064
 21
2021.672179858697
 31
0.0
  0
LINE
  5
1EE61
330
747D
100
AcDbEntity
  8
部品1
100
AcDbLine
 10
9282.284747454065
 20
1879.825434096547
 30
0.0
 11
9282.284747454061
 21
2153.985434096548
 31
0.0
  0
LINE
  5
1EE62
330
747D
100
AcDbEntity
  8
部品1
100
AcDbLine
 10
9300.284747454064
 20
1879.825434096547
 30
0.0
 11
9300.284747454062
 21
2153.985434096548
 31
0.0
  0
TEXT
  5
1EE63
330
747D
100
AcDbEntity
  8
部品1
 48
50.0
100
AcDbText
 10
8655.744845621107
 20
1876.064426379802
 30
0.0
 40
80.0
  1
▽G.L
  7
STYLE2
100
AcDbText
  0
LINE
  5
1EE64
330
747D
100
AcDbEntity
  8
細線
 48
50.0
100
AcDbLine
 10
9069.884747454064
 20
1823.198326764377
 30
0.0
 11
9228.284747454061
 21
1981.59832676437
 31
0.0
  0
LINE
  5
1EE65
330
747D
100
AcDbEntity
  8
細線
 48
50.0
100
AcDbLine
 10
9069.884747454064
 20
1850.139095127584
 30
0.0
 11
9228.284747454063
 21
2008.539095127582
 31
0.0
  0
LINE
  5
1EE66
330
747D
100
AcDbEntity
  8
細線
 48
50.0
100
AcDbLine
 10
9069.884747454064
 20
1877.079863490792
 30
0.0
 11
9228.284747454063
 21
2035.47986349079
 31
0.0
  0
LINE
  5
1EE67
330
747D
100
AcDbEntity
  8
部品1
 48
50.0
100
AcDbLine
 10
9069.884747454064
 20
1560.825434096547
 30
0.0
 11
9069.884747454064
 21
2104.825434096547
 31
0.0
  0
LINE
  5
1EE68
330
747D
100
AcDbEntity
  8
部品1
100
AcDbLine
 10
9483.884747454064
 20
1560.825434096547
 30
0.0
 11
9483.884747454064
 21
2104.825434096547
 31
0.0
  0
LINE
  5
1EE69
330
747D
100
AcDbEntity
  8
細線
 48
50.0
100
AcDbLine
 10
9354.284747454064
 20
1945.953716585135
 30
0.0
 11
9483.884747454064
 21
2075.553716585134
 31
0.0
  0
LINE
  5
1EE6A
330
747D
100
AcDbEntity
  8
細線
 48
50.0
100
AcDbLine
 10
7478.33785677934
 20
1985.572285993263
 30
0.0
 11
7561.845434276872
 21
2069.079863490792
 31
0.0
  0
LINE
  5
1EE6B
330
747D
100
AcDbEntity
  8
細線
 48
50.0
100
AcDbLine
 10
7489.398141542856
 20
1969.691802393569
 30
0.0
 11
7561.845434276872
 21
2042.139095127584
 31
0.0
  0
LINE
  5
1EE6C
330
747D
100
AcDbEntity
  8
細線
 48
50.0
100
AcDbLine
 10
7369.845434276871
 20
2092.606010396452
 30
0.0
 11
7382.064857976967
 21
2104.825434096547
 31
0.0
  0
LINE
  5
1EE6D
330
747D
100
AcDbEntity
  8
細線
 48
50.0
100
AcDbLine
 10
7369.845434276871
 20
2038.724473670037
 30
0.0
 11
7435.94639470338
 21
2104.825434096547
 31
0.0
  0
LINE
  5
1EE6E
330
747D
100
AcDbEntity
  8
細線
 48
50.0
100
AcDbLine
 10
7369.845434276871
 20
2065.665242033245
 30
0.0
 11
7409.005626340174
 21
2104.825434096547
 31
0.0
  0
LINE
  5
1EE6F
330
747D
100
AcDbEntity
  8
部品1
 48
50.0
100
AcDbLine
 10
7369.845434276871
 20
2104.825434096547
 30
0.0
 11
7561.845434276872
 21
2104.825434096547
 31
0.0
  0
DIMENSION
  5
1EE70
330
747D
100
AcDbEntity
  8
寸法
 48
50.0
100
AcDbDimension
  2
*D20
 10
7369.84543427687
 20
2524.493242012927
 30
0.0
 11
7465.845434276871
 21
2524.493242012927
 31
0.0
 70
   160
  1
120\P170
 71
     5
 42
192.0
  3
INABA_S40G
100
AcDbAlignedDimension
 13
7561.84543427687
 23
2104.825434096547
 33
0.0
 14
7369.84543427687
 24
2104.825434096547
 34
0.0
100
AcDbRotatedDimension
  0
MTEXT
  5
1EE71
102
{ACAD_REACTORS
330
1EEC6
102
}
330
747D
100
AcDbEntity
  8
寸法
 62
     7
 48
50.0
100
AcDbMText
 10
7803.583890138121
 20
1143.476348364393
 30
0.0
 40
80.0
 41
0.8
 71
     4
 72
     1
  1
\A1;D10@300
  7
STYLE2
 73
     1
 44
1.0
1001
ACAD
1000
MTEXTBEGIN
1070
    73
1070
     1
1070
    44
1040
1.0
1070
    74
1070
     0
1000
MTEXTEND
  0
LINE
  5
1EE72
330
747D
100
AcDbEntity
  8
細線
 48
50.0
100
AcDbLine
 10
7489.845434276877
 20
1754.612948221927
 30
0.0
 11
7561.845434276865
 21
1826.612948221922
 31
0.0
  0
LINE
  5
1EE73
330
747D
100
AcDbEntity
  8
細線
 48
50.0
100
AcDbLine
 10
7489.845434276872
 20
1781.553716585133
 30
0.0
 11
7561.845434276872
 21
1853.553716585133
 31
0.0
  0
LINE
  5
1EE74
330
747D
100
AcDbEntity
  8
細線
 48
50.0
100
AcDbLine
 10
7489.845434276877
 20
1512.146032953058
 30
0.0
 11
7561.845434276865
 21
1584.146032953058
 31
0.0
  0
LINE
  5
1EE75
330
747D
100
AcDbEntity
  8
細線
 48
50.0
100
AcDbLine
 10
7489.845434276877
 20
1566.027569679476
 30
0.0
 11
7561.845434276865
 21
1638.027569679472
 31
0.0
  0
LINE
  5
1EE76
330
747D
100
AcDbEntity
  8
細線
 48
50.0
100
AcDbLine
 10
7489.845434276877
 20
1539.086801316268
 30
0.0
 11
7561.845434276865
 21
1611.086801316262
 31
0.0
  0
LINE
  5
1EE77
330
747D
100
AcDbEntity
  8
部品1
 48
50.0
100
AcDbLine
 10
7561.845434276872
 20
1560.825434096547
 30
0.0
 11
7689.845434276872
 21
1560.825434096547
 31
0.0
  0
LINE
  5
1EE78
330
747D
100
AcDbEntity
  8
細線
 48
50.0
100
AcDbLine
 10
7489.845434276877
 20
1727.672179858718
 30
0.0
 11
7561.845434276865
 21
1799.672179858718
 31
0.0
  0
LINE
  5
1EE79
330
747D
100
AcDbEntity
  8
部品1
 48
50.0
100
AcDbLine
 10
7457.845434276871
 20
1906.952648793669
 30
0.0
 11
7457.845434276871
 21
1965.079863490792
 31
0.0
  0
LINE
  5
1EE7A
330
747D
100
AcDbEntity
  8
細線
 48
50.0
100
AcDbLine
 10
7369.845434276871
 20
1877.079863490792
 30
0.0
 11
7441.845434276871
 21
1949.079863490792
 31
0.0
  0
LINE
  5
1EE7B
330
747D
100
AcDbEntity
  8
部品1
 48
50.0
100
AcDbLine
 10
7441.845434276871
 20
1906.952648793673
 30
0.0
 11
7441.845434276871
 21
1965.079863490792
 31
0.0
  0
LINE
  5
1EE7C
330
747D
100
AcDbEntity
  8
細線
 48
50.0
100
AcDbLine
 10
7369.845434276871
 20
1850.139095127584
 30
0.0
 11
7441.845434276871
 21
1922.139095127584
 31
0.0
  0
LINE
  5
1EE7D
330
747D
100
AcDbEntity
  8
細線
 48
50.0
100
AcDbLine
 10
7369.845434276871
 20
1823.198326764377
 30
0.0
 11
7453.599756306164
 21
1906.952648793669
 31
0.0
  0
LINE
  5
1EE7E
330
747D
100
AcDbEntity
  8
部品1
 48
50.0
100
AcDbLine
 10
7457.845434276871
 20
1906.952648793669
 30
0.0
 11
7441.845434276871
 21
1906.952648793673
 31
0.0
  0
LINE
  5
1EE7F
330
747D
100
AcDbEntity
  8
細線
 48
50.0
100
AcDbLine
 10
7241.845434276864
 20
1533.553716585133
 30
0.0
 11
7269.117151788285
 21
1560.825434096547
 31
0.0
  0
LINE
  5
1EE80
330
747D
100
AcDbEntity
  8
細線
 48
50.0
100
AcDbLine
 10
7241.845434276864
 20
1506.612948221922
 30
0.0
 11
7296.057920151496
 21
1560.825434096547
 31
0.0
  0
LINE
  5
1EE81
330
747D
100
AcDbEntity
  8
部品1
 48
50.0
100
AcDbLine
 10
7241.845434276871
 20
1560.825434096547
 30
0.0
 11
7369.845434276871
 21
1560.825434096547
 31
0.0
  0
LINE
  5
1EE82
330
747D
100
AcDbEntity
  8
細線
 48
50.0
100
AcDbLine
 10
7457.845434276871
 20
1938.139095127584
 30
0.0
 11
7473.845434276871
 21
1954.139095127584
 31
0.0
  0
LINE
  5
1EE83
330
747D
100
AcDbEntity
  8
細線
 48
50.0
100
AcDbLine
 10
7457.845434276871
 20
1911.198326764377
 30
0.0
 11
7473.845434276871
 21
1927.198326764377
 31
0.0
  0
LINE
  5
1EE84
330
747D
100
AcDbEntity
  8
細線
 48
50.0
100
AcDbLine
 10
7369.845434276871
 20
1607.672179858718
 30
0.0
 11
7473.845434276876
 21
1711.672179858718
 31
0.0
  0
LINE
  5
1EE85
330
747D
100
AcDbEntity
  8
細線
 48
50.0
100
AcDbLine
 10
7369.845434276871
 20
1661.553716585133
 30
0.0
 11
7473.845434276871
 21
1765.553716585133
 31
0.0
  0
LINE
  5
1EE86
330
747D
100
AcDbEntity
  8
細線
 48
50.0
100
AcDbLine
 10
7369.845434276871
 20
1634.612948221924
 30
0.0
 11
7473.845434276876
 21
1738.612948221927
 31
0.0
  0
LINE
  5
1EE87
330
747D
100
AcDbEntity
  8
細線
 48
50.0
100
AcDbLine
 10
7632.671079680219
 20
1296.825434096547
 30
0.0
 11
7626.240299061873
 21
1320.825434096547
 31
0.0
  0
LINE
  5
1EE88
330
747D
100
AcDbEntity
  8
細線
 48
50.0
100
AcDbLine
 10
7675.695592505265
 20
1320.825434096547
 30
0.0
 11
7689.845434276872
 21
1334.975275868153
 31
0.0
  0
LINE
  5
1EE89
330
747D
100
AcDbEntity
  8
細線
 48
50.0
100
AcDbLine
 10
7711.559124627466
 20
1296.825434096547
 30
0.0
 11
7705.128344009118
 21
1320.825434096547
 31
0.0
  0
LINE
  5
1EE8A
330
747D
100
AcDbEntity
  8
部品1
 48
50.0
100
AcDbLine
 10
7633.845434276871
 20
1432.825434096547
 30
0.0
 11
7633.845434276871
 21
1416.825434096547
 31
0.0
  0
LINE
  5
1EE8B
330
747D
100
AcDbEntity
  8
細線
 48
50.0
100
AcDbLine
 10
7514.050982326018
 20
1320.825434096547
 30
0.0
 11
7610.051870171155
 21
1416.826321941686
 31
0.0
  0
LINE
  5
1EE8C
330
747D
100
AcDbEntity
  8
細線
 48
50.0
100
AcDbLine
 10
7487.110213962814
 20
1320.825434096547
 30
0.0
 11
7583.110213962815
 21
1416.825434096547
 31
0.0
  0
LINE
  5
1EE8D
330
747D
100
AcDbEntity
  8
細線
 48
50.0
100
AcDbLine
 10
7553.783034732973
 20
1296.825434096547
 30
0.0
 11
7547.352254114627
 21
1320.825434096547
 31
0.0
  0
LINE
  5
1EE8E
330
747D
100
AcDbEntity
  8
細線
 48
50.0
100
AcDbLine
 10
7474.894989785727
 20
1296.825434096547
 30
0.0
 11
7468.464209167379
 21
1320.825434096547
 31
0.0
  0
ARC
  5
1EE8F
330
747D
100
AcDbEntity
  8
部品1
 48
50.0
100
AcDbCircle
 10
7465.845434276871
 20
1440.825434096547
 30
0.0
 40
24.0
100
AcDbArc
 50
340.5287793655103
 51
0.0
  0
CIRCLE
  5
1EE90
330
747D
100
AcDbEntity
  8
部品1
 48
50.0
100
AcDbCircle
 10
7593.845434276871
 20
1440.825434096547
 30
0.0
 40
8.0
  0
LINE
  5
1EE91
330
747D
100
AcDbEntity
  8
細線
 48
50.0
100
AcDbLine
 10
7626.050982326018
 20
1432.825434096547
 30
0.0
 11
7689.845434276872
 21
1496.619886047398
 31
0.0
  0
LINE
  5
1EE92
330
747D
100
AcDbEntity
  8
細線
 48
50.0
100
AcDbLine
 10
7762.580453561874
 20
1192.825434096545
 30
0.0
 11
7769.845434276871
 21
1219.938711240935
 31
0.0
  0
LINE
  5
1EE93
330
747D
100
AcDbEntity
  8
細線
 48
50.0
100
AcDbLine
 10
7769.011234180223
 20
1216.825434096547
 30
0.0
 11
7769.845434276871
 21
1213.712156952182
 31
0.0
  0
LINE
  5
1EE94
330
747D
100
AcDbEntity
  8
細線
 48
50.0
100
AcDbLine
 10
7690.123189232976
 20
1216.825434096547
 30
0.0
 11
7696.553969851324
 21
1192.825434096547
 31
0.0
  0
LINE
  5
1EE95
330
747D
100
AcDbEntity
  8
細線
 48
50.0
100
AcDbLine
 10
7532.347099338483
 20
1216.825434096547
 30
0.0
 11
7538.777879956829
 21
1192.825434096547
 31
0.0
  0
LINE
  5
1EE96
330
747D
100
AcDbEntity
  8
細線
 48
50.0
100
AcDbLine
 10
7611.235144285728
 20
1216.825434096547
 30
0.0
 11
7617.665924904077
 21
1192.825434096547
 31
0.0
  0
LINE
  5
1EE97
330
747D
100
AcDbEntity
  8
細線
 48
50.0
100
AcDbLine
 10
7604.80436366738
 20
1192.825434096545
 30
0.0
 11
7639.101860298564
 21
1320.825434096545
 31
0.0
  0
LINE
  5
1EE98
330
747D
100
AcDbEntity
  8
細線
 48
50.0
100
AcDbLine
 10
7525.916318720131
 20
1192.825434096547
 30
0.0
 11
7560.213815351317
 21
1320.825434096545
 31
0.0
  0
LINE
  5
1EE99
330
747D
100
AcDbEntity
  8
細線
 48
50.0
100
AcDbLine
 10
7683.692408614625
 20
1192.825434096547
 30
0.0
 11
7717.98990524581
 21
1320.825434096545
 31
0.0
  0
LINE
  5
1EE9A
330
747D
100
AcDbEntity
  8
部品1
 48
50.0
100
AcDbLine
 10
7769.845434276874
 20
1320.825434096547
 30
0.0
 11
7769.845434276874
 21
1192.825434096547
 31
0.0
  0
LINE
  5
1EE9B
330
747D
100
AcDbEntity
  8
部品1
 48
50.0
100
AcDbLine
 10
7457.845434276871
 20
1498.952648793669
 30
0.0
 11
7457.845434276871
 21
1440.825434096547
 31
0.0
  0
LINE
  5
1EE9C
330
747D
100
AcDbEntity
  8
細線
 48
50.0
100
AcDbLine
 10
7383.584067057154
 20
1432.825434096547
 30
0.0
 11
7441.845434276871
 21
1491.086801316265
 31
0.0
  0
LINE
  5
1EE9D
330
747D
100
AcDbEntity
  8
部品1
 48
50.0
100
AcDbLine
 10
7441.845434276871
 20
1498.952648793669
 30
0.0
 11
7441.845434276871
 21
1440.825434096547
 31
0.0
  0
LINE
  5
1EE9E
330
747D
100
AcDbEntity
  8
細線
 48
50.0
100
AcDbLine
 10
7298.524835420359
 20
1320.825434096547
 30
0.0
 11
7394.52483542036
 21
1416.825434096547
 31
0.0
  0
LINE
  5
1EE9F
330
747D
100
AcDbEntity
  8
細線
 48
50.0
100
AcDbLine
 10
7396.006944838474
 20
1296.825434096547
 30
0.0
 11
7389.576164220129
 21
1320.825434096547
 31
0.0
  0
LINE
  5
1EEA0
330
747D
100
AcDbEntity
  8
細線
 48
50.0
100
AcDbLine
 10
7317.118899891223
 20
1296.825434096547
 30
0.0
 11
7310.688119272876
 21
1320.825434096547
 31
0.0
  0
ARC
  5
1EEA1
330
747D
100
AcDbEntity
  8
部品1
 48
50.0
100
AcDbCircle
 10
7465.845434276871
 20
1440.825434096547
 30
0.0
 40
24.0
100
AcDbArc
 50
180.0
 51
199.4712206344897
  0
LINE
  5
1EEA2
330
747D
100
AcDbEntity
  8
細線
 48
50.0
100
AcDbLine
 10
7410.52483542036
 20
1432.825434096547
 30
0.0
 11
7441.845434276871
 21
1464.146032953058
 31
0.0
  0
CIRCLE
  5
1EEA3
330
747D
100
AcDbEntity
  8
部品1
 48
50.0
100
AcDbCircle
 10
7337.845434276871
 20
1440.825434096547
 30
0.0
 40
8.0
  0
LINE
  5
1EEA4
330
747D
100
AcDbEntity
  8
部品1
 48
50.0
100
AcDbLine
 10
7457.845434276871
 20
1498.952648793669
 30
0.0
 11
7441.845434276871
 21
1498.952648793669
 31
0.0
  0
LINE
  5
1EEA5
330
747D
100
AcDbEntity
  8
細線
 48
50.0
100
AcDbLine
 10
7161.845434276871
 20
1306.165355062327
 30
0.0
 11
7165.773590615066
 21
1320.825434096547
 31
0.0
  0
LINE
  5
1EEA6
330
747D
100
AcDbEntity
  8
細線
 48
50.0
100
AcDbLine
 10
7238.230854943971
 20
1296.825434096547
 30
0.0
 11
7231.800074325623
 21
1320.825434096547
 31
0.0
  0
LINE
  5
1EEA7
330
747D
100
AcDbEntity
  8
部品1
 48
50.0
100
AcDbLine
 10
7297.845434276871
 20
1432.825434096547
 30
0.0
 11
7297.845434276871
 21
1416.825434096547
 31
0.0
  0
LINE
  5
1EEA8
330
747D
100
AcDbEntity
  8
細線
 48
50.0
100
AcDbLine
 10
7244.643298693944
 20
1320.825434096547
 30
0.0
 11
7340.643298693944
 21
1416.825434096547
 31
0.0
  0
LINE
  5
1EEA9
330
747D
100
AcDbEntity
  8
細線
 48
50.0
100
AcDbLine
 10
7271.584067057154
 20
1320.825434096547
 30
0.0
 11
7367.584067057155
 21
1416.825434096547
 31
0.0
  0
LINE
  5
1EEAA
330
747D
100
AcDbEntity
  8
細線
 48
50.0
100
AcDbLine
 10
7374.571009443986
 20
1216.825434096547
 30
0.0
 11
7381.001790062332
 21
1192.825434096547
 31
0.0
  0
LINE
  5
1EEAB
330
747D
100
AcDbEntity
  8
細線
 48
50.0
100
AcDbLine
 10
7453.459054391238
 20
1216.825434096547
 30
0.0
 11
7459.889835009583
 21
1192.825434096547
 31
0.0
  0
LINE
  5
1EEAC
330
747D
100
AcDbEntity
  8
細線
 48
50.0
100
AcDbLine
 10
7216.794919549482
 20
1216.825434096547
 30
0.0
 11
7223.225700167827
 21
1192.825434096547
 31
0.0
  0
LINE
  5
1EEAD
330
747D
100
AcDbEntity
  8
細線
 48
50.0
100
AcDbLine
 10
7295.682964496733
 20
1216.825434096547
 30
0.0
 11
7302.113745115081
 21
1192.825434096547
 31
0.0
  0
LINE
  5
1EEAE
330
747D
100
AcDbEntity
  8
部品1
 48
50.0
100
AcDbLine
 10
7161.845434276873
 20
1192.825434096547
 30
0.0
 11
7161.845434276873
 21
1320.825434096547
 31
0.0
  0
LINE
  5
1EEAF
330
747D
100
AcDbEntity
  8
細線
 48
50.0
100
AcDbLine
 10
7210.364138931129
 20
1192.825434096545
 30
0.0
 11
7244.661635562312
 21
1320.825434096545
 31
0.0
  0
LINE
  5
1EEB0
330
747D
100
AcDbEntity
  8
細線
 48
50.0
100
AcDbLine
 10
7368.140228825632
 20
1192.825434096545
 30
0.0
 11
7402.437725456815
 21
1320.825434096545
 31
0.0
  0
LINE
  5
1EEB1
330
747D
100
AcDbEntity
  8
細線
 48
50.0
100
AcDbLine
 10
7289.252183878386
 20
1192.825434096547
 30
0.0
 11
7323.549680509571
 21
1320.825434096547
 31
0.0
  0
LINE
  5
1EEB2
330
747D
100
AcDbEntity
  8
細線
 48
50.0
100
AcDbLine
 10
7460.169445599603
 20
1320.825434096547
 30
0.0
 11
7556.169445599604
 21
1416.825434096547
 31
0.0
  0
CIRCLE
  5
1EEB3
330
747D
100
AcDbEntity
  8
部品1
 48
50.0
100
AcDbCircle
 10
7465.845434276871
 20
1440.825434096547
 30
0.0
 40
8.0
  0
LINE
  5
1EEB4
330
747D
100
AcDbEntity
  8
部品1
 48
50.0
100
AcDbLine
 10
7769.845434276874
 20
1320.825434096547
 30
0.0
 11
7161.845434276873
 21
1320.825434096547
 31
0.0
  0
LINE
  5
1EEB5
330
747D
100
AcDbEntity
  8
部品1
 48
50.0
100
AcDbLine
 10
7297.845434276871
 20
1432.825434096547
 30
0.0
 11
7633.845434276871
 21
1432.825434096547
 31
0.0
  0
LINE
  5
1EEB6
330
747D
100
AcDbEntity
  8
部品1
 48
50.0
100
AcDbLine
 10
7297.845434276871
 20
1416.825434096547
 30
0.0
 11
7633.845434276871
 21
1416.825434096547
 31
0.0
  0
LINE
  5
1EEB7
330
747D
100
AcDbEntity
  8
部品1
 48
50.0
100
AcDbLine
 10
7769.845434276874
 20
1192.825434096547
 30
0.0
 11
7161.845434276873
 21
1192.825434096547
 31
0.0
  0
LINE
  5
1EEB8
330
747D
100
AcDbEntity
  8
細線
 48
50.0
100
AcDbLine
 10
7447.028273772885
 20
1192.825434096547
 30
0.0
 11
7481.325770404068
 21
1320.825434096547
 31
0.0
  0
LINE
  5
1EEB9
330
747D
100
AcDbEntity
  8
細線
 48
50.0
100
AcDbLine
 10
7457.845434276871
 20
1480.146032953058
 30
0.0
 11
7473.845434276876
 21
1496.146032953058
 31
0.0
  0
LINE
  5
1EEBA
330
747D
100
AcDbEntity
  8
部品1
 48
50.0
100
AcDbLine
 10
7473.845434276876
 20
1440.825434096547
 30
0.0
 11
7473.845434276864
 21
1965.079863490792
 31
0.0
  0
LINE
  5
1EEBB
330
747D
100
AcDbEntity
  8
部品1
 48
50.0
100
AcDbLine
 10
7489.845434276877
 20
1440.825434096547
 30
0.0
 11
7489.845434276872
 21
1965.079863490792
 31
0.0
  0
LINE
  5
1EEBC
330
747D
100
AcDbEntity
  8
部品1
 48
50.0
100
AcDbLine
 10
7689.845434276872
 20
1560.825434096547
 30
0.0
 11
7689.845434276872
 21
1320.825434096547
 31
0.0
  0
LINE
  5
1EEBD
330
747D
100
AcDbEntity
  8
細線
 48
50.0
100
AcDbLine
 10
7572.169445599598
 20
1432.825434096547
 30
0.0
 11
7689.845434276872
 21
1550.501422773813
 31
0.0
  0
LINE
  5
1EEBE
330
747D
100
AcDbEntity
  8
細線
 48
50.0
100
AcDbLine
 10
7599.110213962815
 20
1432.825434096547
 30
0.0
 11
7689.845434276872
 21
1523.560654410606
 31
0.0
  0
LINE
  5
1EEBF
330
747D
100
AcDbEntity
  8
部品1
 48
50.0
100
AcDbLine
 10
7241.845434276871
 20
1320.825434096547
 30
0.0
 11
7241.845434276871
 21
1560.825434096547
 31
0.0
  0
LINE
  5
1EEC0
330
747D
100
AcDbEntity
  8
細線
 48
50.0
100
AcDbLine
 10
7356.643298693943
 20
1432.825434096547
 30
0.0
 11
7473.845434276871
 21
1550.027569679472
 31
0.0
  0
LINE
  5
1EEC1
330
747D
100
AcDbEntity
  8
細線
 48
50.0
100
AcDbLine
 10
7449.711281754274
 20
1498.952648793669
 30
0.0
 11
7473.845434276876
 21
1523.086801316268
 31
0.0
  0
LINE
  5
1EEC2
330
747D
100
AcDbEntity
  8
細線
 48
50.0
100
AcDbLine
 10
7241.845434276864
 20
1479.672179858718
 30
0.0
 11
7322.9986885147
 21
1560.825434096547
 31
0.0
  0
LEADER
  5
1EEC3
330
747D
100
AcDbEntity
  8
寸法
 48
50.0
100
AcDbLeader
  3
INABA_S40G
 71
     0
 73
     0
 74
     0
 75
     1
 40
100.0
 41
222.7272727272727
 76
     3
 10
7465.845434276871
 20
1965.079863490792
 30
0.0
 10
7524.731371304266
 20
1906.092995395475
 30
0.0
 10
7624.731371304266
 20
1906.092995395475
 30
0.0
  0
LWPOLYLINE
  5
1EEC4
330
747D
100
AcDbEntity
  8
部品1
 48
50.0
100
AcDbPolyline
 90
        2
 70
     0
 43
8.0
 10
7561.84543427687
 20
1864.825434096547
 10
7975.985336109828
 20
1864.825434096547
  0
MTEXT
  5
1EEC5
102
{ACAD_REACTORS
330
1EEC7
102
}
330
747D
100
AcDbEntity
  8
寸法
 62
     7
 48
50.0
100
AcDbMText
 10
7793.173094083555
 20
1405.428365153574
 30
0.0
 40
80.0
 41
0.8
 71
     4
 72
     1
  1
D10
  7
STYLE2
 73
     1
 44
1.0
1001
ACAD
1000
MTEXTBEGIN
1070
    73
1070
     1
1070
    44
1040
1.0
1070
    74
1070
     0
1000
MTEXTEND
  0
LEADER
  5
1EEC6
330
747D
100
AcDbEntity
  8
寸法
 48
50.0
100
AcDbLeader
  3
INABA_S40G
 71
     0
 73
     0
 74
     0
 75
     1
 40
100.0
 41
540.3409090909091
 76
     3
 10
7539.790603290045
 20
1424.084903683021
 30
0.0
 10
7683.583890138121
 20
1082.454085688124
 30
0.0
 10
7783.583890138121
 20
1082.454085688124
 30
0.0
213
0.0
223
-1.022262676269383
233
0.0
  0
LEADER
  5
1EEC7
330
747D
100
AcDbEntity
  8
寸法
 48
50.0
100
AcDbLeader
  3
INABA_S40G
 71
     0
 73
     0
 74
     0
 75
     1
 40
100.0
 41
225.0
 76
     3
 10
7593.748386629013
 20
1440.825434096547
 30
0.0
 10
7673.173094083555
 20
1345.428365153574
 30
0.0
 10
7773.173094083555
 20
1345.428365153574
 30
0.0
  0
MTEXT
  5
1EEC8
102
{ACAD_REACTORS
330
1EEC3
102
}
330
747D
100
AcDbEntity
  8
寸法
 62
     7
 48
50.0
100
AcDbMText
 10
7644.731371304264
 20
1966.092995395474
 30
0.0
 40
80.0
 41
0.8
 71
     4
 72
     1
  1
D13
  7
STYLE2
 73
     1
 44
1.0
1001
ACAD
1000
MTEXTBEGIN
1070
    73
1070
     1
1070
    44
1040
1.0
1070
    74
1070
     0
1000
MTEXTEND
  0
LINE
  5
1EEC9
330
747D
100
AcDbEntity
  8
部品1
 48
50.0
100
AcDbLine
 10
7561.845434276872
 20
2104.825434096547
 30
0.0
 11
7561.845434276872
 21
1560.825434096547
 31
0.0
  0
LINE
  5
1EECA
330
747D
100
AcDbEntity
  8
部品1
 48
50.0
100
AcDbLine
 10
7369.845434276871
 20
1560.825434096547
 30
0.0
 11
7369.845434276871
 21
2104.825434096547
 31
0.0
  0
CIRCLE
  5
1EECB
330
747D
100
AcDbEntity
  8
部品1
 48
50.0
100
AcDbCircle
 10
7465.845434276871
 20
1965.079863490792
 30
0.0
 40
8.0
  0
ARC
  5
1EECC
330
747D
100
AcDbEntity
  8
部品1
 48
50.0
100
AcDbCircle
 10
7465.845434276871
 20
1965.079863490792
 30
0.0
 40
24.0
100
AcDbArc
 50
0.0
 51
180.0
  0
LINE
  5
1EECD
330
747D
100
AcDbEntity
  8
細線
 48
50.0
100
AcDbLine
 10
7489.845434276872
 20
1943.198326764377
 30
0.0
 11
7561.845434276872
 21
2015.198326764377
 31
0.0
  0
LEADER
  5
1EECE
330
747D
100
AcDbEntity
  8
寸法
 48
50.0
100
AcDbLeader
  3
INABA_S40G
 73
     0
 75
     1
 40
106.3636363636363
 41
893.1818181818181
 76
     3
 10
9201.284747454065
 20
2174.385434096548
 30
0.0
 10
9142.860675109124
 20
2533.44500881288
 30
0.0
 10
9042.860675109125
 20
2533.44500881288
 30
0.0
  0
MTEXT
  5
1EECF
102
{ACAD_REACTORS
330
1EECE
102
}
330
747D
100
AcDbEntity
  8
寸法
 62
     7
 48
50.0
100
AcDbMText
 10
9002.860675109124
 20
2626.626826994699
 30
0.0
 40
80.0
 41
0.8
 71
     6
 72
     1
  1
アンカープレート {\fArial|b0|i0|c0|p32;U}
  7
STYLE2
 73
     1
 44
1.0
1001
ACAD
1000
MTEXTBEGIN
1070
    73
1070
     1
1070
    44
1040
1.0
1070
    74
1070
     0
1000
MTEXTEND
  0
DIMENSION
  5
1EED0
330
747D
100
AcDbEntity
  8
寸法
 48
50.0
100
AcDbDimension
  2
*D21
 10
7689.84543427687
 20
782.3957960913867
 30
0.0
 11
7445.748675598647
 21
782.3957960913867
 31
0.0
 70
   160
  1
300
 71
     5
 42
448.0
  3
INABA_S40G
100
AcDbAlignedDimension
 13
7241.84543427687
 23
1192.825434096547
 33
0.0
 14
7689.84543427687
 24
1192.825434096547
 34
0.0
100
AcDbRotatedDimension
  0
MTEXT
  5
1EED1
102
{ACAD_REACTORS
330
1EED9
102
}
330
747D
100
AcDbEntity
  8
寸法
 62
     7
 48
50.0
100
AcDbMText
 10
7070.910408081676
 20
1237.30274047811
 30
0.0
 40
80.0
 41
0.8
 71
     6
 72
     1
  1
D10
  7
STYLE2
 73
     1
 44
1.0
1001
ACAD
1000
MTEXTBEGIN
1070
    73
1070
     1
1070
    44
1040
1.0
1070
    74
1070
     0
1000
MTEXTEND
  0
MTEXT
  5
1EED2
102
{ACAD_REACTORS
330
1EED8
102
}
330
747D
100
AcDbEntity
  8
寸法
 62
     7
 48
50.0
100
AcDbMText
 10
7099.03313563911
 20
1056.986587938667
 30
0.0
 40
80.0
 41
0.8
 71
     6
 72
     1
  1
D13
  7
STYLE2
 73
     1
 44
1.0
1001
ACAD
1000
MTEXTBEGIN
1070
    73
1070
     1
1070
    44
1040
1.0
1070
    74
1070
     0
1000
MTEXTEND
  0
DIMENSION
  5
1EED3
330
747D
100
AcDbEntity
  8
寸法
 48
50.0
100
AcDbDimension
  2
*D22
 10
6634.808195715129
 20
1320.825434096547
 30
0.0
 11
6634.808195715129
 21
1692.365583752548
 31
0.0
 70
   160
  1
540
 71
     5
 42
784.0000000000002
  3
INABA_S40G
100
AcDbAlignedDimension
 13
7369.84543427687
 23
2104.825434096547
 33
0.0
 14
7161.845434276874
 24
1320.825434096547
 34
0.0
 50
90.0
100
AcDbRotatedDimension
  0
MTEXT
  5
1EED4
102
{ACAD_REACTORS
330
1EED5
102
}
330
747D
100
AcDbEntity
  8
寸法
 62
     7
 48
50.0
100
AcDbMText
 10
7149.746954793598
 20
2317.341654098589
 30
0.0
 40
80.0
 41
0.8
 71
     6
 72
     1
  1
\A1;金コテ押エ
  7
STYLE2
 73
     1
 44
1.0
1001
ACAD
1000
MTEXTBEGIN
1070
    73
1070
     1
1070
    44
1040
1.0
1070
    74
1070
     0
1000
MTEXTEND
  0
LEADER
  5
1EED5
330
747D
100
AcDbEntity
  8
寸法
 48
50.0
100
AcDbLeader
  3
INABA_S40G
 71
     0
 73
     0
 75
     1
 40
130.1136363636363
 41
651.1363636363636
 76
     3
 10
7449.84543427687
 20
2104.825434096547
 30
0.0
 10
7312.420854112854
 20
2245.296199553135
 30
0.0
 10
7212.420854112854
 20
2245.296199553135
 30
0.0
  0
LEADER
  5
1EED6
330
747D
100
AcDbEntity
  8
寸法
 48
50.0
100
AcDbLeader
  3
INABA_S40G
 71
     0
 73
     0
 75
     1
 40
100.0
 41
540.3409090909091
 76
     3
 10
7473.845434276871
 20
1862.95264879367
 30
0.0
 10
7390.863197748172
 20
1641.482320252865
 30
0.0
 10
7290.863197748172
 20
1641.482320252865
 30
0.0
213
-9.732182305893367
223
-4.643716661138569
233
0.0
  0
MTEXT
  5
1EED7
102
{ACAD_REACTORS
330
1EED6
102
}
330
747D
100
AcDbEntity
  8
寸法
 62
     7
 48
50.0
100
AcDbMText
 10
7280.595380054066
 20
1706.126036914003
 30
0.0
 40
80.0
 41
0.8
 71
     6
 72
     1
  1
\A1;D10@300
  7
STYLE2
 73
     1
 44
1.0
1001
ACAD
1000
MTEXTBEGIN
1070
    73
1070
     1
1070
    44
1040
1.0
1070
    74
1070
     0
1000
MTEXTEND
  0
LEADER
  5
1EED8
330
747D
100
AcDbEntity
  8
寸法
 48
50.0
100
AcDbLeader
  3
INABA_S40G
 71
     0
 73
     0
 75
     1
 40
100.0
 41
222.7272727272727
 76
     3
 10
7465.845434276871
 20
1440.825434096547
 30
0.0
 10
7219.033135639111
 20
996.986587938667
 30
0.0
 10
7119.033135639111
 20
996.986587938667
 30
0.0
  0
LEADER
  5
1EED9
330
747D
100
AcDbEntity
  8
寸法
 48
50.0
100
AcDbLeader
  3
INABA_S40G
 71
     0
 73
     0
 75
     1
 40
100.0
 41
225.0
 76
     3
 10
7337.748386629013
 20
1440.825434096547
 30
0.0
 10
7190.910408081676
 20
1177.30274047811
 30
0.0
 10
7090.910408081676
 20
1177.30274047811
 30
0.0
  0
DIMENSION
  5
1EEDA
330
747D
100
AcDbEntity
  8
寸法
 48
50.0
100
AcDbDimension
  2
*D23
 10
7099.425120544411
 20
1320.825434096547
 30
0.0
 11
7099.425120544411
 21
1440.825434096548
 31
0.0
 70
   160
  1
150
 71
     5
 42
240.0
  3
INABA_S40G
100
AcDbAlignedDimension
 13
7241.84543427687
 23
1560.825434096547
 33
0.0
 14
7161.845434276874
 24
1320.825434096547
 34
0.0
 50
90.0
100
AcDbRotatedDimension
  0
TEXT
  5
1EEDB
330
747D
100
AcDbEntity
  8
部品1
 48
50.0
100
AcDbText
 10
6955.705532443913
 20
1876.064426379802
 30
0.0
 40
80.0
  1
▽G.L
  7
STYLE2
100
AcDbText
  0
LWPOLYLINE
  5
1EEDC
330
747D
100
AcDbEntity
  8
部品1
 48
50.0
100
AcDbPolyline
 90
        2
 70
     0
 43
8.0
 10
6955.705532443913
 20
1864.825434096547
 10
7369.84543427687
 20
1864.825434096547
  0
MTEXT
  5
1EEDD
102
{ACAD_REACTORS
330
1EEDE
102
}
330
747D
100
AcDbEntity
  8
寸法
 62
     7
 48
50.0
100
AcDbMText
 10
8976.217668900766
 20
2987.311098902213
 30
0.0
 40
80.0
 41
0.8
 71
     6
 72
     1
  1
\A1;φ70スリーブ
  7
STYLE2
 73
     1
 44
1.0
1001
ACAD
1000
MTEXTBEGIN
1070
    73
1070
     1
1070
    44
1040
1.0
1070
    74
1070
     0
1000
MTEXTEND
  0
LEADER
  5
1EEDE
330
747D
100
AcDbEntity
  8
寸法
 48
50.0
100
AcDbLeader
  3
INABA_S40G
 73
     0
 75
     1
 40
113.1818181818182
 41
608.6363636363635
 76
     3
 10
9260.021497592116
 20
2054.341107454826
 30
0.0
 10
9116.217668900766
 20
2890.720189811304
 30
0.0
 10
9016.217668900766
 20
2890.720189811304
 30
0.0
  0
LINE
  5
1EEDF
330
747D
100
AcDbEntity
  8
部品1
100
AcDbLine
 10
6299.176995467608
 20
3425.797053873392
 30
0.0
 11
6299.176995467609
 21
578.6491834024126
 31
0.0
  0
LEADER
  5
1EEE0
330
747D
100
AcDbEntity
  8
寸法
 48
50.0
100
AcDbLeader
  3
INABA_S40G
 73
     0
 74
     0
 75
     1
 40
80.0
 41
435.0
 76
     3
 10
9300.284747454064
 20
2153.985434096548
 30
0.0
 10
9352.829209873384
 20
2289.208760249777
 30
0.0
 10
9452.829209873383
 20
2289.208760249777
 30
0.0
  0
MTEXT
  5
1EEE1
102
{ACAD_REACTORS
330
1EEE0
102
}
330
747D
100
AcDbEntity
  8
部品1
 62
     7
 48
50.0
100
AcDbMText
 10
9492.829209873383
 20
2369.208760249777
 30
0.0
 40
80.0
 41
0.8
 71
     4
 72
     1
  1
M10X160
  7
STYLE2
 73
     1
 44
1.0
1001
ACAD
1000
MTEXTBEGIN
1070
    73
1070
     1
1070
    44
1040
1.0
1070
    74
1070
     0
1000
MTEXTEND
  0
DIMENSION
  5
1EEE2
330
747D
100
AcDbEntity
  8
寸法
 48
50.0
100
AcDbDimension
  2
*D24
 10
10261.80801334193
 20
2104.825434096547
 30
0.0
 11
10261.80801334193
 21
1638.816530675065
 31
0.0
 70
   160
  1
20～25
 71
     5
 42
52.76000000000113
  3
INABA_S40G
100
AcDbAlignedDimension
 13
9296.684747454063
 23
2157.585434096548
 33
0.0
 14
9483.884747454064
 24
2104.825434096547
 34
0.0
 50
90.0
100
AcDbRotatedDimension
  0
DIMENSION
  5
1EEE3
330
747D
100
AcDbEntity
  8
寸法
 48
50.0
100
AcDbDimension
  2
*D25
 10
9985.753347222908
 20
1780.825434096546
 30
0.0
 11
9885.753347222909
 21
1942.825434096548
 31
0.0
 70
    32
  1
180
 71
     5
 42
324.0000000000011
  3
INABA_S40G
100
AcDbAlignedDimension
 13
9483.884747454064
 23
2104.825434096547
 33
0.0
 14
9483.884747454064
 24
1780.825434096546
 34
0.0
 50
90.0
100
AcDbRotatedDimension
  0
TEXT
  5
1EEE4
330
747D
100
AcDbEntity
  8
部品1
 48
50.0
100
AcDbText
 10
9488.238331738491
 20
2460.704114858747
 30
0.0
 40
80.0
  1
基礎ボルト(市販品)
  7
STYLE2
100
AcDbText
  0
LWPOLYLINE
  5
1EEE5
330
747D
100
AcDbEntity
  8
部品1
 48
50.0
100
AcDbPolyline
 90
        2
 70
     0
 43
8.0
 10
9483.884747454064
 20
1864.825434096547
 10
9777.587210853448
 20
1864.825434096547
  0
MTEXT
  5
1EEE6
102
{ACAD_REACTORS
330
1EEE7
102
}
330
747D
100
AcDbEntity
  8
部品1
 62
     7
 48
50.0
100
AcDbMText
 10
9523.156337822904
 20
2805.320807183807
 30
0.0
 40
80.0
 41
0.8
 71
     4
 72
     1
  1
\A1;ワッシャー(市販品)
  7
STYLE2
 73
     1
 44
1.0
1001
ACAD
1000
MTEXTBEGIN
1070
    73
1070
     1
1070
    44
1040
1.0
1070
    74
1070
     0
1000
MTEXTEND
  0
LEADER
  5
1EEE7
330
747D
100
AcDbEntity
  8
寸法
 48
50.0
100
AcDbLeader
  3
INABA_S40G
 73
     0
 74
     0
 75
     1
 40
102.2727272727273
 41
906.8181818181818
 76
     3
 10
9331.284747454064
 20
2373.948722540827
 30
0.0
 10
9383.156337822903
 20
2714.184443547444
 30
0.0
 10
9483.156337822903
 20
2714.184443547444
 30
0.0
  0
MTEXT
  5
1EEE8
102
{ACAD_REACTORS
330
1EEE9
102
}
330
747D
100
AcDbEntity
  8
部品1
 62
     7
 48
50.0
100
AcDbMText
 10
9491.63871856742
 20
2990.289889948595
 30
0.0
 40
80.0
 41
0.8
 71
     4
 72
     1
  1
\A1;ナット(市販品)
  7
STYLE2
 73
     1
 44
1.0
1001
ACAD
1000
MTEXTBEGIN
1070
    73
1070
     1
1070
    44
1040
1.0
1070
    74
1070
     0
1000
MTEXTEND
  0
LEADER
  5
1EEE9
330
747D
100
AcDbEntity
  8
寸法
 48
50.0
100
AcDbLeader
  3
INABA_S40G
 73
     0
 74
     0
 75
     1
 40
102.2727272727273
 41
680.0000000000001
 76
     3
 10
9307.284747454065
 20
2503.70071520569
 30
0.0
 10
9351.638718567421
 20
2899.153526312231
 30
0.0
 10
9451.638718567421
 20
2899.153526312231
 30
0.0
  0
LINE
  5
1EEEA
330
747D
100
AcDbEntity
  8
部品1
100
AcDbLine
 10
6299.176995467611
 20
578.6491834024126
 30
0.0
 11
10950.42489610585
 21
578.6491834024127
 31
0.0
  0
LINE
  5
1EEEB
330
747D
100
AcDbEntity
  8
部品1
100
AcDbLine
 10
10950.42489610585
 20
3185.79705387339
 30
0.0
 11
6299.176995467609
 21
3185.79705387339
 31
0.0
  0
LINE
  5
1EEEC
330
747D
100
AcDbEntity
  8
部品1
100
AcDbLine
 10
10950.42489610585
 20
3425.797053873392
 30
0.0
 11
6299.176995467606
 21
3425.797053873392
 31
0.0
  0
HATCH
  5
1EF85
330
747D
100
AcDbEntity
  8
細線
 48
50.0
100
AcDbHatch
 10
0.0
 20
0.0
 30
0.0
210
0.0
220
0.0
230
1.0
  2
LINE
 70
     0
 71
     0
 91
        1
 92
        7
 72
     0
 73
     1
 93
        4
 10
8299.602433408242
 20
6459.99999999999
 10
8099.602433408238
 20
6459.99999999999
 10
8099.602433408239
 20
6339.999999999992
 10
8299.602433408239
 20
6339.999999999992
 97
        0
 75
     0
 76
     1
 52
45.0
 41
10.0
 77
     0
 78
     1
 53
45.0
 43
0.0
 44
0.0
 45
-22.45064030267288
 46
22.45064030267288
 79
     0
 47
3.808270996174667
 98
        1
 10
8175.365016904086
 20
6383.706747989065
  0
HATCH
  5
1EF9C
330
747D
100
AcDbEntity
  8
細線
 48
50.0
100
AcDbHatch
 10
0.0
 20
0.0
 30
0.0
210
0.0
220
0.0
230
1.0
  2
LINE
 70
     0
 71
     0
 91
        1
 92
        7
 72
     0
 73
     1
 93
        4
 10
9309.602433408254
 20
6079.999999999992
 10
9189.602433408254
 20
6079.999999999991
 10
9189.602433408254
 20
5879.999999999991
 10
9309.602433408253
 20
5879.999999999991
 97
        0
 75
     0
 76
     1
 52
45.0
 41
10.0
 77
     0
 78
     1
 53
45.0
 43
0.0
 44
0.0
 45
-22.45064030267288
 46
22.45064030267288
 79
     0
 47
3.808270996174667
 98
        1
 10
9276.423291078421
 20
6006.687930152239
  0
HATCH
  5
1EFB3
330
747D
100
AcDbEntity
  8
細線
 48
50.0
100
AcDbHatch
 10
0.0
 20
0.0
 30
0.0
210
0.0
220
0.0
230
1.0
  2
LINE
 70
     0
 71
     0
 91
        1
 92
        7
 72
     0
 73
     1
 93
        4
 10
7209.602433408253
 20
6079.999999999992
 10
7089.602433408254
 20
6079.999999999992
 10
7089.602433408254
 20
5879.999999999991
 10
7209.602433408254
 20
5879.999999999994
 97
        0
 75
     0
 76
     1
 52
45.0
 41
10.0
 77
     0
 78
     1
 53
45.0
 43
0.0
 44
0.0
 45
-22.45064030267288
 46
22.45064030267288
 79
     0
 47
3.808270996174667
 98
        1
 10
7177.17380428929
 20
5995.263105185248
  0
TEXT
  5
1EFEB
330
747D
100
AcDbEntity
  8
文字
 62
     7
 48
50.0
100
AcDbText
 10
14816.49629419351
 20
1031.557706291228
 30
0.0
 40
100.0
  1
 <縮尺> S=1/40
  7
STYLE2
100
AcDbText
  0
ENDSEC
  0
SECTION
  2
OBJECTS
  0
DICTIONARY
  5
7471
330
0
100
AcDbDictionary
281
     1
  3
ACAD_COLOR
350
159B0
  3
ACAD_GROUP
350
7472
  3
ACAD_LAYOUT
350
159B1
  3
ACAD_MATERIAL
350
159AF
  3
ACAD_MLINESTYLE
350
7473
  3
ACAD_PLOTSETTINGS
350
159B2
  3
ACAD_PLOTSTYLENAME
350
159AD
  3
ACDBHEADERROUNDTRIPXREC
350
1EFF8
  3
AcDbVariableDictionary
350
1EC7A
  3
CONTENTDICTIONARY
350
E71C
  3
DRAWINGVARIABLESDICT
350
F3B9
  0
DICTIONARY
  5
1ECD9
330
7467
100
AcDbDictionary
280
     1
281
     1
  3
ACAD_LAYERSTATES
360
1ECDA
  0
DICTIONARY
  5
159B0
102
{ACAD_REACTORS
330
7471
102
}
330
7471
100
AcDbDictionary
281
     1
  0
DICTIONARY
  5
7472
102
{ACAD_REACTORS
330
7471
102
}
330
7471
100
AcDbDictionary
281
     1
  0
DICTIONARY
  5
159B1
102
{ACAD_REACTORS
330
7471
102
}
330
7471
100
AcDbDictionary
281
     1
  3
Model
350
159B3
  3
レイアウト1
350
159B4
  0
DICTIONARY
  5
159AF
102
{ACAD_REACTORS
330
7471
102
}
330
7471
100
AcDbDictionary
281
     1
  0
DICTIONARY
  5
7473
102
{ACAD_REACTORS
330
7471
102
}
330
7471
100
AcDbDictionary
281
     1
  3
STANDARD
350
7480
  0
DICTIONARY
  5
159B2
102
{ACAD_REACTORS
330
7471
102
}
330
7471
100
AcDbDictionary
281
     1
  0
ACDBDICTIONARYWDFLT
  5
159AD
102
{ACAD_REACTORS
330
7471
102
}
330
7471
100
AcDbDictionary
281
     1
  3
Normal
350
159AE
100
AcDbDictionaryWithDefault
340
159AE
  0
DICTIONARY
  5
1EFF8
102
{ACAD_REACTORS
330
7471
102
}
330
7471
100
AcDbDictionary
281
     1
  3
COLORDICT
350
1EFFA
  3
MATERIALDICT
350
1EFF9
  0
DICTIONARY
  5
1EC7A
102
{ACAD_REACTORS
330
7471
102
}
330
7471
100
AcDbDictionary
281
     1
  3
DIMASSOC
350
1EC7B
  3
PROJECTNAME
350
1EC7C
  0
DICTIONARY
  5
E71C
102
{ACAD_REACTORS
330
7471
102
}
330
7471
100
AcDbDictionary
281
     1
  0
DICTIONARY
  5
F3B9
102
{ACAD_REACTORS
330
7471
102
}
330
7471
100
AcDbDictionary
281
     1
1001
DRAWINGVARIABLESXDATA
1000
POLARMODE
1000
1
  0
DICTIONARY
  5
1ECDA
102
{ACAD_REACTORS
330
1ECD9
102
}
330
1ECD9
100
AcDbDictionary
281
     1
  0
LAYOUT
  5
159B3
102
{ACAD_XDICTIONARY
360
1EFFB
102
}
102
{ACAD_REACTORS
330
159B1
102
}
330
159B1
100
AcDbPlotSettings
  1

  2
none_device
  4
Letter_(8.50_x_11.00_Inches)
  6

 40
6.349999904632568
 41
6.349999904632568
 42
6.350006103515625
 43
6.350006103515625
 44
215.8999938964844
 45
279.3999938964844
 46
0.0
 47
0.0
 48
0.0
 49
0.0
140
0.0
141
0.0
142
1.0
143
1.0
 70
 11952
 72
     1
 73
     1
 74
     0
  7

 75
     0
147
1.0
148
-4149.571981164617
149
65.56433826894044
100
AcDbLayout
  1
Model
 70
     1
 71
     0
 10
0.0
 20
0.0
 11
12.0
 21
9.0
 12
0.0
 22
0.0
 32
0.0
 14
0.0
 24
0.0
 34
0.0
 15
0.0
 25
0.0
 35
0.0
146
0.0
 13
0.0
 23
0.0
 33
0.0
 16
1.0
 26
0.0
 36
0.0
 17
0.0
 27
1.0
 37
0.0
 76
     0
330
747D
  0
LAYOUT
  5
159B4
102
{ACAD_XDICTIONARY
360
1EFFD
102
}
102
{ACAD_REACTORS
330
159B1
102
}
330
159B1
100
AcDbPlotSettings
  1

  2
自動 EPSON LP-8400FX (TATENO 上)
  4

  6

 40
0.0
 41
0.0
 42
0.0
 43
0.0
 44
0.0
 45
0.0
 46
0.0
 47
0.0
 48
0.0
 49
0.0
140
0.0
141
0.0
142
1.0
143
1.0
 70
   688
 72
     0
 73
     0
 74
     5
  7
inaba.ctb
 75
    16
147
1.0
148
0.0
149
0.0
100
AcDbLayout
  1
レイアウト1
 70
     0
 71
     1
 10
0.0
 20
0.0
 11
420.0
 21
297.0
 12
0.0
 22
0.0
 32
0.0
 14
1.000000000000000E+20
 24
1.000000000000000E+20
 34
1.000000000000000E+20
 15
-1.000000000000000E+20
 25
-1.000000000000000E+20
 35
-1.000000000000000E+20
146
0.0
 13
0.0
 23
0.0
 33
0.0
 16
1.0
 26
0.0
 36
0.0
 17
0.0
 27
1.0
 37
0.0
 76
     0
330
747A
  0
MLINESTYLE
  5
7480
102
{ACAD_REACTORS
330
7473
102
}
330
7473
100
AcDbMlineStyle
  2
STANDARD
 70
     0
  3

 62
     0
 51
90.0
 52
90.0
 71
     2
 49
0.5
 62
   256
  6
BYLAYER
 49
-0.5
 62
   256
  6
BYLAYER
  0
ACDBPLACEHOLDER
  5
159AE
102
{ACAD_REACTORS
330
159AD
102
}
330
159AD
  0
XRECORD
  5
1EFFA
102
{ACAD_REACTORS
330
1EFF8
102
}
330
1EFF8
100
AcDbXrecord
280
     1
340
159B0
  0
XRECORD
  5
1EFF9
102
{ACAD_REACTORS
330
1EFF8
102
}
330
1EFF8
100
AcDbXrecord
280
     1
340
159AF
  0
DICTIONARYVAR
  5
1EC7B
102
{ACAD_REACTORS
330
1EC7A
102
}
330
1EC7A
100
DictionaryVariables
280
     0
  1
1
  0
DICTIONARYVAR
  5
1EC7C
102
{ACAD_REACTORS
330
1EC7A
102
}
330
1EC7A
100
DictionaryVariables
280
     0
  1

  0
DICTIONARY
  5
1EFFB
330
159B3
100
AcDbDictionary
280
     1
281
     1
  3
ACAD_XREC_ROUNDTRIP
360
1EFFC
  0
DICTIONARY
  5
1EFFD
330
159B4
100
AcDbDictionary
280
     1
281
     1
  3
ACAD_XREC_ROUNDTRIP
360
1EFFE
  0
XRECORD
  5
1EFFC
102
{ACAD_REACTORS
330
1EFFB
102
}
330
1EFFB
100
AcDbXrecord
280
     1
102
SHADEPLOT
 70
     0
102
SHADEPLOTRESLEVEL
 70
     2
102
SHADEPLOTCUSTOMDPI
 70
   300
  0
XRECORD
  5
1EFFE
102
{ACAD_REACTORS
330
1EFFD
102
}
330
1EFFD
100
AcDbXrecord
280
     1
102
SHADEPLOT
 70
     0
102
SHADEPLOTRESLEVEL
 70
     2
102
SHADEPLOTCUSTOMDPI
 70
   300
  0
ENDSEC
  0
EOF
