  0
SECTION
  2
HEADER
  9
$ACADVER
  1
AC1015
  9
$ACADMAINTVER
 70
    20
  9
$DWGCODEPAGE
  3
ANSI_932
  9
$INSBASE
 10
0.0
 20
0.0
 30
0.0
  9
$EXTMIN
 10
139.196816621341
 20
-0.1811693038616795
 30
-0.0000000000112498
  9
$EXTMAX
 10
16308.32523385566
 20
11409.92678395885
 30
0.0000000000002956
  9
$LIMMIN
 10
0.0
 20
0.0
  9
$LIMMAX
 10
16800.0
 20
11880.0
  9
$ORTHOMODE
 70
     0
  9
$REGENMODE
 70
     1
  9
$FILLMODE
 70
     1
  9
$QTEXTMODE
 70
     0
  9
$MIRRTEXT
 70
     1
  9
$LTSCALE
 40
20.0
  9
$ATTMODE
 70
     1
  9
$TEXTSIZE
 40
100.0
  9
$TRACEWID
 40
1.0
  9
$TEXTSTYLE
  7
STYLE2
  9
$CLAYER
  8
細線
  9
$CELTYPE
  6
BYLAYER
  9
$CECOLOR
 62
   256
  9
$CELTSCALE
 40
50.0
  9
$DISPSILH
 70
     0
  9
$DIMSCALE
 40
40.0
  9
$DIMASZ
 40
2.5
  9
$DIMEXO
 40
0.5
  9
$DIMDLI
 40
7.0
  9
$DIMRND
 40
0.0
  9
$DIMDLE
 40
0.0
  9
$DIMEXE
 40
1.5
  9
$DIMTP
 40
0.0
  9
$DIMTM
 40
0.0
  9
$DIMTXT
 40
3.0
  9
$DIMCEN
 40
0.0
  9
$DIMTSZ
 40
0.0
  9
$DIMTOL
 70
     0
  9
$DIMLIM
 70
     0
  9
$DIMTIH
 70
     0
  9
$DIMTOH
 70
     0
  9
$DIMSE1
 70
     0
  9
$DIMSE2
 70
     0
  9
$DIMTAD
 70
     3
  9
$DIMZIN
 70
     8
  9
$DIMBLK
  1

  9
$DIMASO
 70
     1
  9
$DIMSHO
 70
     1
  9
$DIMPOST
  1

  9
$DIMAPOST
  1

  9
$DIMALT
 70
     0
  9
$DIMALTD
 70
     2
  9
$DIMALTF
 40
0.0394
  9
$DIMLFAC
 40
1.0
  9
$DIMTOFL
 70
     1
  9
$DIMTVP
 40
0.0
  9
$DIMTIX
 70
     0
  9
$DIMSOXD
 70
     0
  9
$DIMSAH
 70
     1
  9
$DIMBLK1
  1
DOTSMALL
  9
$DIMBLK2
  1
DOTSMALL
  9
$DIMSTYLE
  2
INABA_S40G
  9
$DIMCLRD
 70
     0
  9
$DIMCLRE
 70
     0
  9
$DIMCLRT
 70
     7
  9
$DIMTFAC
 40
1.0
  9
$DIMGAP
 40
1.0
  9
$DIMJUST
 70
     0
  9
$DIMSD1
 70
     0
  9
$DIMSD2
 70
     0
  9
$DIMTOLJ
 70
     1
  9
$DIMTZIN
 70
     0
  9
$DIMALTZ
 70
     0
  9
$DIMALTTZ
 70
     0
  9
$DIMUPT
 70
     0
  9
$DIMDEC
 70
     1
  9
$DIMTDEC
 70
     1
  9
$DIMALTU
 70
     2
  9
$DIMALTTD
 70
     2
  9
$DIMTXSTY
  7
STYLE1
  9
$DIMAUNIT
 70
     0
  9
$DIMADEC
 70
     0
  9
$DIMALTRND
 40
0.0
  9
$DIMAZIN
 70
     0
  9
$DIMDSEP
 70
    46
  9
$DIMATFIT
 70
     3
  9
$DIMFRAC
 70
     0
  9
$DIMLDRBLK
  1

  9
$DIMLUNIT
 70
     2
  9
$DIMLWD
 70
    -2
  9
$DIMLWE
 70
    -2
  9
$DIMTMOVE
 70
     1
  9
$LUNITS
 70
     2
  9
$LUPREC
 70
     1
  9
$SKETCHINC
 40
1.0
  9
$FILLETRAD
 40
2.299999999999999
  9
$AUNITS
 70
     0
  9
$AUPREC
 70
     0
  9
$MENU
  1
acad
  9
$ELEVATION
 40
0.0
  9
$PELEVATION
 40
0.0
  9
$THICKNESS
 40
0.0
  9
$LIMCHECK
 70
     0
  9
$CHAMFERA
 40
3.0
  9
$CHAMFERB
 40
3.0
  9
$CHAMFERC
 40
0.0
  9
$CHAMFERD
 40
0.0
  9
$SKPOLY
 70
     0
  9
$TDCREATE
 40
2451368.612993866
  9
$TDUCREATE
 40
2451368.237993866
  9
$TDUPDATE
 40
2455765.638461551
  9
$TDUUPDATE
 40
2455765.263461551
  9
$TDINDWG
 40
1.6555169444
  9
$TDUSRTIMER
 40
1.6555169444
  9
$USRTIMER
 70
     1
  9
$ANGBASE
 50
0.0
  9
$ANGDIR
 70
     0
  9
$PDMODE
 70
     3
  9
$PDSIZE
 40
2.0
  9
$PLINEWID
 40
0.0
  9
$SPLFRAME
 70
     0
  9
$SPLINETYPE
 70
     6
  9
$SPLINESEGS
 70
     8
  9
$HANDSEED
  5
1FCB3
  9
$SURFTAB1
 70
     6
  9
$SURFTAB2
 70
     6
  9
$SURFTYPE
 70
     6
  9
$SURFU
 70
     6
  9
$SURFV
 70
     6
  9
$UCSBASE
  2

  9
$UCSNAME
  2

  9
$UCSORG
 10
0.0
 20
0.0
 30
0.0
  9
$UCSXDIR
 10
1.0
 20
0.0
 30
0.0
  9
$UCSYDIR
 10
0.0
 20
1.0
 30
0.0
  9
$UCSORTHOREF
  2

  9
$UCSORTHOVIEW
 70
     0
  9
$UCSORGTOP
 10
0.0
 20
0.0
 30
0.0
  9
$UCSORGBOTTOM
 10
0.0
 20
0.0
 30
0.0
  9
$UCSORGLEFT
 10
0.0
 20
0.0
 30
0.0
  9
$UCSORGRIGHT
 10
0.0
 20
0.0
 30
0.0
  9
$UCSORGFRONT
 10
0.0
 20
0.0
 30
0.0
  9
$UCSORGBACK
 10
0.0
 20
0.0
 30
0.0
  9
$PUCSBASE
  2

  9
$PUCSNAME
  2

  9
$PUCSORG
 10
0.0
 20
0.0
 30
0.0
  9
$PUCSXDIR
 10
1.0
 20
0.0
 30
0.0
  9
$PUCSYDIR
 10
0.0
 20
1.0
 30
0.0
  9
$PUCSORTHOREF
  2

  9
$PUCSORTHOVIEW
 70
     0
  9
$PUCSORGTOP
 10
0.0
 20
0.0
 30
0.0
  9
$PUCSORGBOTTOM
 10
0.0
 20
0.0
 30
0.0
  9
$PUCSORGLEFT
 10
0.0
 20
0.0
 30
0.0
  9
$PUCSORGRIGHT
 10
0.0
 20
0.0
 30
0.0
  9
$PUCSORGFRONT
 10
0.0
 20
0.0
 30
0.0
  9
$PUCSORGBACK
 10
0.0
 20
0.0
 30
0.0
  9
$USERI1
 70
     0
  9
$USERI2
 70
     0
  9
$USERI3
 70
     0
  9
$USERI4
 70
     0
  9
$USERI5
 70
     0
  9
$USERR1
 40
0.0
  9
$USERR2
 40
0.0
  9
$USERR3
 40
0.0
  9
$USERR4
 40
0.0
  9
$USERR5
 40
0.0
  9
$WORLDVIEW
 70
     1
  9
$SHADEDGE
 70
     3
  9
$SHADEDIF
 70
    70
  9
$TILEMODE
 70
     1
  9
$MAXACTVP
 70
    16
  9
$PINSBASE
 10
0.0
 20
0.0
 30
0.0
  9
$PLIMCHECK
 70
     0
  9
$PEXTMIN
 10
1.000000000000000E+20
 20
1.000000000000000E+20
 30
1.000000000000000E+20
  9
$PEXTMAX
 10
-1.000000000000000E+20
 20
-1.000000000000000E+20
 30
-1.000000000000000E+20
  9
$PLIMMIN
 10
0.0
 20
0.0
  9
$PLIMMAX
 10
420.0
 20
297.0
  9
$UNITMODE
 70
     0
  9
$VISRETAIN
 70
     0
  9
$PLINEGEN
 70
     0
  9
$PSLTSCALE
 70
     0
  9
$TREEDEPTH
 70
  3020
  9
$CMLSTYLE
  2
STANDARD
  9
$CMLJUST
 70
     0
  9
$CMLSCALE
 40
1.0
  9
$PROXYGRAPHICS
 70
     1
  9
$MEASUREMENT
 70
     1
  9
$CELWEIGHT
370
    -1
  9
$ENDCAPS
280
     0
  9
$JOINSTYLE
280
     0
  9
$LWDISPLAY
290
     0
  9
$INSUNITS
 70
     0
  9
$HYPERLINKBASE
  1

  9
$STYLESHEET
  1
inaba.ctb
  9
$XEDIT
290
     1
  9
$CEPSNTYPE
380
     0
  9
$PSTYLEMODE
290
     1
  9
$FINGERPRINTGUID
  2
{3B57B35E-7D77-4BBF-81B7-6C583B9EB24C}
  9
$VERSIONGUID
  2
{7114DAC2-708F-49F5-B255-AAD4AA6BE602}
  9
$EXTNAMES
290
     1
  9
$PSVPSCALE
 40
0.0
  9
$OLESTARTUP
290
     0
  0
ENDSEC
  0
SECTION
  2
CLASSES
  0
CLASS
  1
ACDBDICTIONARYWDFLT
  2
AcDbDictionaryWithDefault
  3
ObjectDBX Classes
 90
        0
280
     0
281
     0
  0
CLASS
  1
DICTIONARYVAR
  2
AcDbDictionaryVar
  3
ObjectDBX Classes
 90
        0
280
     0
281
     0
  0
CLASS
  1
ACDBPLACEHOLDER
  2
AcDbPlaceHolder
  3
ObjectDBX Classes
 90
        0
280
     0
281
     0
  0
CLASS
  1
LAYOUT
  2
AcDbLayout
  3
ObjectDBX Classes
 90
        0
280
     0
281
     0
  0
ENDSEC
  0
SECTION
  2
TABLES
  0
TABLE
  2
VPORT
  5
746D
330
0
100
AcDbSymbolTable
 70
     3
  0
VPORT
  5
1FCAB
330
746D
100
AcDbSymbolTableRecord
100
AcDbViewportTableRecord
  2
*Active
 70
     0
 10
0.0
 20
0.0
 11
1.0
 21
1.0
 12
8223.761025238502
 22
5704.872807327498
 13
0.0
 23
0.0
 14
10.0
 24
10.0
 15
10.0
 25
10.0
 16
0.0
 26
0.0
 36
1.0
 17
0.0
 27
0.0
 37
0.0
 40
11496.76700100902
 41
1.528517110266159
 42
50.0
 43
0.0
 44
0.0
 50
0.0
 51
0.0
 71
     0
 72
     0
 73
     1
 74
     0
 75
     0
 76
     0
 77
     0
 78
     0
281
     0
 65
     1
110
0.0
120
0.0
130
0.0
111
1.0
121
0.0
131
0.0
112
0.0
122
1.0
132
0.0
 79
     0
146
0.0
  0
ENDTAB
  0
TABLE
  2
LTYPE
  5
746A
330
0
100
AcDbSymbolTable
 70
     4
  0
LTYPE
  5
7477
330
746A
100
AcDbSymbolTableRecord
100
AcDbLinetypeTableRecord
  2
BYBLOCK
 70
     0
  3

 72
    65
 73
     0
 40
0.0
  0
LTYPE
  5
7478
330
746A
100
AcDbSymbolTableRecord
100
AcDbLinetypeTableRecord
  2
BYLAYER
 70
     0
  3

 72
    65
 73
     0
 40
0.0
  0
LTYPE
  5
7479
330
746A
100
AcDbSymbolTableRecord
100
AcDbLinetypeTableRecord
  2
CONTINUOUS
 70
     0
  3
Solid line
 72
    65
 73
     0
 40
0.0
  0
LTYPE
  5
7816
330
746A
100
AcDbSymbolTableRecord
100
AcDbLinetypeTableRecord
  2
CENTER
 70
     0
  3
____ _ ____ _ ____ _ ____ _ ____ _ ____ _ ____ 
 72
    65
 73
     4
 40
2.0
 49
1.25
 74
     0
 49
-0.25
 74
     0
 49
0.25
 74
     0
 49
-0.25
 74
     0
  0
LTYPE
  5
781A
330
746A
100
AcDbSymbolTableRecord
100
AcDbLinetypeTableRecord
  2
HIDDEN
 70
     0
  3
__ __ __ __ __ __ __ __ __ __ __ __ __ __ __ __
 72
    65
 73
     2
 40
0.375
 49
0.25
 74
     0
 49
-0.125
 74
     0
  0
LTYPE
  5
781B
330
746A
100
AcDbSymbolTableRecord
100
AcDbLinetypeTableRecord
  2
PHANTOM
 70
     0
  3
______  __  __  ______  __  __  ______  __  __ 
 72
    65
 73
     6
 40
2.5
 49
1.25
 74
     0
 49
-0.25
 74
     0
 49
0.25
 74
     0
 49
-0.25
 74
     0
 49
0.25
 74
     0
 49
-0.25
 74
     0
  0
ENDTAB
  0
TABLE
  2
LAYER
  5
7467
102
{ACAD_XDICTIONARY
360
1F6B4
102
}
330
0
100
AcDbSymbolTable
 70
    12
  0
LAYER
  5
7474
330
7467
100
AcDbSymbolTableRecord
100
AcDbLayerTableRecord
  2
0
 70
     0
 62
     7
  6
CONTINUOUS
370
    -3
390
159AE
  0
LAYER
  5
DEB2
330
7467
100
AcDbSymbolTableRecord
100
AcDbLayerTableRecord
  2
センター
 70
     0
 62
     3
  6
CENTER
370
    -3
390
159AE
  0
LAYER
  5
DEB3
330
7467
100
AcDbSymbolTableRecord
100
AcDbLayerTableRecord
  2
寸法
 70
     0
 62
     4
  6
CONTINUOUS
370
    -3
390
159AE
  0
LAYER
  5
DEB4
330
7467
100
AcDbSymbolTableRecord
100
AcDbLayerTableRecord
  2
部品1
 70
     0
 62
     7
  6
CONTINUOUS
370
    -3
390
159AE
  0
LAYER
  5
DEB5
330
7467
100
AcDbSymbolTableRecord
100
AcDbLayerTableRecord
  2
補助
 70
     0
 62
    -1
  6
CONTINUOUS
370
    -3
390
159AE
  0
LAYER
  5
DEB6
330
7467
100
AcDbSymbolTableRecord
100
AcDbLayerTableRecord
  2
文字
 70
     0
 62
     7
  6
CONTINUOUS
370
    -3
390
159AE
  0
LAYER
  5
F255
330
7467
100
AcDbSymbolTableRecord
100
AcDbLayerTableRecord
  2
DEFPOINTS
 70
     0
 62
     7
  6
CONTINUOUS
290
     0
370
    -3
390
159AE
  0
LAYER
  5
10B54
330
7467
100
AcDbSymbolTableRecord
100
AcDbLayerTableRecord
  2
仕様書枠
 70
     0
 62
   230
  6
CONTINUOUS
370
    -3
390
159AE
  0
LAYER
  5
11729
330
7467
100
AcDbSymbolTableRecord
100
AcDbLayerTableRecord
  2
Ｇ．Ｌ
 70
     0
 62
    30
  6
CONTINUOUS
370
    -3
390
159AE
  0
LAYER
  5
1173F
330
7467
100
AcDbSymbolTableRecord
100
AcDbLayerTableRecord
  2
細線
 70
     0
 62
     5
  6
CONTINUOUS
370
    -3
390
159AE
  0
LAYER
  5
12CC4
330
7467
100
AcDbSymbolTableRecord
100
AcDbLayerTableRecord
  2
想像線
 70
     0
 62
     6
  6
PHANTOM
370
    -3
390
159AE
  0
LAYER
  5
142E2
330
7467
100
AcDbSymbolTableRecord
100
AcDbLayerTableRecord
  2
破線
 70
     0
 62
     2
  6
HIDDEN
370
    -3
390
159AE
  0
ENDTAB
  0
TABLE
  2
STYLE
  5
7468
330
0
100
AcDbSymbolTable
 70
     4
  0
STYLE
  5
7475
330
7468
100
AcDbSymbolTableRecord
100
AcDbTextStyleTableRecord
  2
STANDARD
 70
     0
 40
0.0
 41
1.0
 50
0.0
 71
     0
 42
4.0
  3
txt
  4
C:\AutoCAD LT\bigfont.shx
  0
STYLE
  5
F706
330
7468
100
AcDbSymbolTableRecord
100
AcDbTextStyleTableRecord
  2
STYLE1
 70
     0
 40
0.0
 41
1.0
 50
0.0
 71
     0
 42
100.0
  3
isocp.shx
  4
bigfont.shx
  0
STYLE
  5
103BF
330
7468
100
AcDbSymbolTableRecord
100
AcDbTextStyleTableRecord
  2
STYLE2
 70
     0
 40
0.0
 41
1.0
 50
0.0
 71
     0
 42
100.0
  3
MS PGothic.ttf
  4

1001
ACAD
1000
MS PGothic
1071
    32818
  0
STYLE
  5
1F6B1
330
7468
100
AcDbSymbolTableRecord
100
AcDbTextStyleTableRecord
  2
STYLE3
 70
     0
 40
0.0
 41
1.0
 50
0.0
 71
     0
 42
100.0
  3
DFPGothic-EB.ttf
  4

1001
ACAD
1000
DFPGothic-EB
1071
    32818
  0
ENDTAB
  0
TABLE
  2
VIEW
  5
746B
330
0
100
AcDbSymbolTable
 70
     0
  0
ENDTAB
  0
TABLE
  2
UCS
  5
746C
330
0
100
AcDbSymbolTable
 70
     0
  0
ENDTAB
  0
TABLE
  2
APPID
  5
746E
330
0
100
AcDbSymbolTable
 70
     6
  0
APPID
  5
7476
330
746E
100
AcDbSymbolTableRecord
100
AcDbRegAppTableRecord
  2
ACAD
 70
     0
  0
APPID
  5
DEA9
330
746E
100
AcDbSymbolTableRecord
100
AcDbRegAppTableRecord
  2
CONTENTBLOCKICON
 70
     0
  0
APPID
  5
DEAA
330
746E
100
AcDbSymbolTableRecord
100
AcDbRegAppTableRecord
  2
CONTENTBLOCKDESCRIPTION
 70
     0
  0
APPID
  5
E71D
330
746E
100
AcDbSymbolTableRecord
100
AcDbRegAppTableRecord
  2
CONTENTTABDATA
 70
     0
  0
APPID
  5
E71E
330
746E
100
AcDbSymbolTableRecord
100
AcDbRegAppTableRecord
  2
CONTENTCURRENTTAB
 70
     0
  0
APPID
  5
F3BA
330
746E
100
AcDbSymbolTableRecord
100
AcDbRegAppTableRecord
  2
DRAWINGVARIABLESXDATA
 70
     0
  0
ENDTAB
  0
TABLE
  2
DIMSTYLE
  5
746F
330
0
100
AcDbSymbolTable
 70
     4
100
AcDbDimStyleTable
 71
     1
340
F71F
  0
DIMSTYLE
105
F71F
102
{ACAD_REACTORS
330
1D93F
330
1D93E
330
1D926
330
1D925
330
1D920
330
1D91D
330
1D934
330
1D933
330
1D92D
330
1D92C
330
1D929
330
1D927
330
1D91C
330
1D91B
330
1D947
330
1D942
330
1D940
330
1F7B4
330
1F821
330
1F82E
330
1F861
330
1F86E
330
1FBFB
102
}
330
746F
100
AcDbSymbolTableRecord
100
AcDbDimStyleTableRecord
  2
INABA_S40G
 70
     0
 40
40.0
 41
2.5
 42
0.5
 43
7.0
 44
1.5
 73
     0
 74
     0
 77
     3
 78
     8
140
3.0
141
0.0
143
0.0394
147
1.0
172
     1
173
     1
174
     1
178
     7
271
     1
288
     1
340
F706
341
F770
343
F770
344
F770
  0
DIMSTYLE
105
1C645
102
{ACAD_REACTORS
330
1FAC2
330
1FB22
330
1FB25
330
1FB2C
330
1FB34
330
1FB35
102
}
330
746F
100
AcDbSymbolTableRecord
100
AcDbDimStyleTableRecord
  2
INABA_S50G
 70
     0
 40
0.0
 41
125.0
 42
25.0
 43
7.0
 44
75.0
 73
     0
 74
     0
 77
     3
 78
     8
140
150.0
141
0.0
143
0.0394
147
25.0
172
     1
173
     1
174
     1
178
     7
271
     1
340
F706
341
F770
343
F770
344
F770
  0
DIMSTYLE
105
1F6B2
330
746F
100
AcDbSymbolTableRecord
100
AcDbDimStyleTableRecord
  2
INABA_S100G
 70
     0
 40
100.0
 41
2.5
 42
0.5
 43
7.0
 44
1.5
 73
     0
 74
     0
 77
     3
 78
     8
140
3.0
141
0.0
143
0.0394
147
1.0
172
     1
173
     1
174
     1
178
     7
271
     1
340
F706
341
F770
343
F770
344
F770
  0
DIMSTYLE
105
1F6B3
330
746F
100
AcDbSymbolTableRecord
100
AcDbDimStyleTableRecord
  2
INABA_S100Gsmall
 70
     0
 40
100.0
 41
1.5
 42
0.5
 43
7.0
 44
0.5
 73
     0
 74
     0
 77
     3
 78
     8
140
2.0
141
0.0
143
0.0394
147
0.5
172
     1
173
     1
174
     1
178
     7
271
     1
272
     1
279
     2
340
F706
343
F770
344
F770
  0
ENDTAB
  0
TABLE
  2
BLOCK_RECORD
  5
7466
330
0
100
AcDbSymbolTable
 70
    31
  0
BLOCK_RECORD
  5
747D
330
7466
100
AcDbSymbolTableRecord
100
AcDbBlockTableRecord
  2
*MODEL_SPACE
340
159B3
  0
BLOCK_RECORD
  5
747A
330
7466
100
AcDbSymbolTableRecord
100
AcDbBlockTableRecord
  2
*PAPER_SPACE
340
159B4
  0
BLOCK_RECORD
  5
F770
330
7466
100
AcDbSymbolTableRecord
100
AcDbBlockTableRecord
  2
_DOTSMALL
340
0
102
{BLKREFS
331
1F20A
331
1F20B
331
1F214
331
1F215
331
1F21F
331
1F220
331
1F229
331
1F22A
331
1F25B
331
1F25C
331
1F265
331
1F266
331
1F26E
331
1F26F
331
1F277
331
1F278
331
1F5B3
331
1F5B4
331
1F5BD
331
1F5BE
331
1F65B
331
1F65C
331
1F676
331
1F677
331
1F6F8
331
1F6F9
331
1F702
331
1F703
331
1F826
331
1F827
331
1F833
331
1F834
331
1F866
331
1F867
331
1F873
331
1F874
331
1FB8C
331
1FB8D
331
1FB94
331
1FB95
331
1FB9D
331
1FB9E
331
1FBA7
331
1FBA8
331
1FBB2
331
1FBB3
331
1FBB9
331
1FBBA
331
1FBC3
331
1FBC4
331
1FBEB
331
1FBEC
331
1FBF5
331
1FBF6
331
1FC22
331
1FC23
102
}
  0
BLOCK_RECORD
  5
1C530
330
7466
100
AcDbSymbolTableRecord
100
AcDbBlockTableRecord
  2
_NONE
340
0
  0
BLOCK_RECORD
  5
1DA44
330
7466
100
AcDbSymbolTableRecord
100
AcDbBlockTableRecord
  2
*D2
340
0
  0
BLOCK_RECORD
  5
1DA51
330
7466
100
AcDbSymbolTableRecord
100
AcDbBlockTableRecord
  2
*D3
340
0
  0
BLOCK_RECORD
  5
1DA5E
330
7466
100
AcDbSymbolTableRecord
100
AcDbBlockTableRecord
  2
*D4
340
0
  0
BLOCK_RECORD
  5
1DA69
330
7466
100
AcDbSymbolTableRecord
100
AcDbBlockTableRecord
  2
*D5
340
0
  0
BLOCK_RECORD
  5
1DA74
330
7466
100
AcDbSymbolTableRecord
100
AcDbBlockTableRecord
  2
*D6
340
0
  0
BLOCK_RECORD
  5
1DA81
330
7466
100
AcDbSymbolTableRecord
100
AcDbBlockTableRecord
  2
*D7
340
0
  0
BLOCK_RECORD
  5
1DA8E
330
7466
100
AcDbSymbolTableRecord
100
AcDbBlockTableRecord
  2
*D8
340
0
  0
BLOCK_RECORD
  5
1DA9A
330
7466
100
AcDbSymbolTableRecord
100
AcDbBlockTableRecord
  2
*D9
340
0
  0
BLOCK_RECORD
  5
1DAA5
330
7466
100
AcDbSymbolTableRecord
100
AcDbBlockTableRecord
  2
*D10
340
0
  0
BLOCK_RECORD
  5
1DAB2
330
7466
100
AcDbSymbolTableRecord
100
AcDbBlockTableRecord
  2
*D11
340
0
  0
BLOCK_RECORD
  5
1DABE
330
7466
100
AcDbSymbolTableRecord
100
AcDbBlockTableRecord
  2
*D12
340
0
  0
BLOCK_RECORD
  5
1DACB
330
7466
100
AcDbSymbolTableRecord
100
AcDbBlockTableRecord
  2
*D13
340
0
  0
BLOCK_RECORD
  5
1DAD9
330
7466
100
AcDbSymbolTableRecord
100
AcDbBlockTableRecord
  2
*D14
340
0
  0
BLOCK_RECORD
  5
1DAE6
330
7466
100
AcDbSymbolTableRecord
100
AcDbBlockTableRecord
  2
*D15
340
0
  0
BLOCK_RECORD
  5
1DAF3
330
7466
100
AcDbSymbolTableRecord
100
AcDbBlockTableRecord
  2
*D16
340
0
  0
BLOCK_RECORD
  5
1DB00
330
7466
100
AcDbSymbolTableRecord
100
AcDbBlockTableRecord
  2
*D17
340
0
  0
BLOCK_RECORD
  5
1F7B5
330
7466
100
AcDbSymbolTableRecord
100
AcDbBlockTableRecord
  2
*D18
340
0
  0
BLOCK_RECORD
  5
1F822
330
7466
100
AcDbSymbolTableRecord
100
AcDbBlockTableRecord
  2
*D19
340
0
  0
BLOCK_RECORD
  5
1F82F
330
7466
100
AcDbSymbolTableRecord
100
AcDbBlockTableRecord
  2
*D20
340
0
  0
BLOCK_RECORD
  5
1F862
330
7466
100
AcDbSymbolTableRecord
100
AcDbBlockTableRecord
  2
*D21
340
0
  0
BLOCK_RECORD
  5
1F86F
330
7466
100
AcDbSymbolTableRecord
100
AcDbBlockTableRecord
  2
*D22
340
0
  0
BLOCK_RECORD
  5
1FB3F
330
7466
100
AcDbSymbolTableRecord
100
AcDbBlockTableRecord
  2
*D23
340
0
  0
BLOCK_RECORD
  5
1FB4B
330
7466
100
AcDbSymbolTableRecord
100
AcDbBlockTableRecord
  2
*D24
340
0
  0
BLOCK_RECORD
  5
1FB57
330
7466
100
AcDbSymbolTableRecord
100
AcDbBlockTableRecord
  2
*D25
340
0
  0
BLOCK_RECORD
  5
1FB63
330
7466
100
AcDbSymbolTableRecord
100
AcDbBlockTableRecord
  2
*D26
340
0
  0
BLOCK_RECORD
  5
1FB6F
330
7466
100
AcDbSymbolTableRecord
100
AcDbBlockTableRecord
  2
*D27
340
0
  0
BLOCK_RECORD
  5
1FB7D
330
7466
100
AcDbSymbolTableRecord
100
AcDbBlockTableRecord
  2
*D28
340
0
  0
BLOCK_RECORD
  5
1FBFC
330
7466
100
AcDbSymbolTableRecord
100
AcDbBlockTableRecord
  2
*D29
340
0
  0
ENDTAB
  0
ENDSEC
  0
SECTION
  2
BLOCKS
  0
BLOCK
  5
7489
330
747D
100
AcDbEntity
  8
0
100
AcDbBlockBegin
  2
*MODEL_SPACE
 70
     0
 10
0.0
 20
0.0
 30
0.0
  3
*MODEL_SPACE
  1

  0
ENDBLK
  5
748A
330
747D
100
AcDbEntity
  8
0
100
AcDbBlockEnd
  0
BLOCK
  5
7487
330
747A
100
AcDbEntity
 67
     1
  8
0
100
AcDbBlockBegin
  2
*PAPER_SPACE
 70
     0
 10
0.0
 20
0.0
 30
0.0
  3
*PAPER_SPACE
  1

  0
ENDBLK
  5
7488
330
747A
100
AcDbEntity
 67
     1
  8
0
100
AcDbBlockEnd
  0
BLOCK
  5
F771
330
F770
100
AcDbEntity
  8
0
 48
50.0
100
AcDbBlockBegin
  2
_DOTSMALL
 70
     0
 10
0.0
 20
0.0
 30
0.0
  3
_DOTSMALL
  1

  0
LWPOLYLINE
  5
F772
330
F770
100
AcDbEntity
  8
0
  6
ByBlock
 62
     0
 48
50.0
100
AcDbPolyline
 90
        2
 70
     1
 43
0.5
 10
-0.0625
 20
0.0
 42
1.0
 10
0.0625
 20
0.0
 42
1.0
  0
ENDBLK
  5
F776
330
F770
100
AcDbEntity
  8
0
 48
50.0
100
AcDbBlockEnd
  0
BLOCK
  5
1C531
330
1C530
100
AcDbEntity
  8
0
 48
50.0
100
AcDbBlockBegin
  2
_NONE
 70
     0
 10
0.0
 20
0.0
 30
0.0
  3
_NONE
  1

  0
CIRCLE
  5
1C532
330
1C530
100
AcDbEntity
  8
0
  6
ByBlock
 62
     0
 48
50.0
100
AcDbCircle
 10
0.0
 20
0.0
 30
0.0
 40
0.25
  0
ENDBLK
  5
1C533
330
1C530
100
AcDbEntity
  8
0
 48
50.0
100
AcDbBlockEnd
  0
BLOCK
  5
1DA4F
330
1DA44
100
AcDbEntity
  8
0
 48
50.0
100
AcDbBlockBegin
  2
*D2
 70
     1
 10
0.0
 20
0.0
 30
0.0
  3
*D2
  1

  0
LINE
  5
1F6F4
330
1DA44
100
AcDbEntity
  8
寸法
 62
     0
 48
50.0
370
    -2
100
AcDbLine
 10
7573.599999999998
 20
5809.246300175036
 30
0.0
 11
7778.331217406069
 21
5809.246300175036
 31
0.0
  0
LINE
  5
1F6F5
330
1DA44
100
AcDbEntity
  8
寸法
 62
     0
 48
50.0
370
    -2
100
AcDbLine
 10
7573.599999999998
 20
5939.246300175039
 30
0.0
 11
7778.331217406069
 21
5939.246300175039
 31
0.0
  0
LINE
  5
1F6F6
330
1DA44
100
AcDbEntity
  8
寸法
 62
     0
 48
50.0
370
    -2
100
AcDbLine
 10
7718.33121740607
 20
5809.246300175036
 30
0.0
 11
7718.33121740607
 21
5939.246300175039
 31
0.0
  0
LINE
  5
1F6F7
330
1DA44
100
AcDbEntity
  8
寸法
 62
     0
 48
50.0
370
    -2
100
AcDbLine
 10
7718.33121740607
 20
5939.246300175039
 30
0.0
 11
7718.331217406071
 21
6311.340788364015
 31
0.0
  0
INSERT
  5
1F6F8
330
1DA44
100
AcDbEntity
  8
寸法
 62
     0
 48
50.0
370
    -2
100
AcDbBlockReference
  2
_DOTSMALL
 10
7718.33121740607
 20
5809.246300175036
 30
0.0
 41
100.0
 42
100.0
 43
100.0
 50
270.0
  0
INSERT
  5
1F6F9
330
1DA44
100
AcDbEntity
  8
寸法
 62
     0
 48
50.0
370
    -2
100
AcDbBlockReference
  2
_DOTSMALL
 10
7718.33121740607
 20
5939.246300175039
 30
0.0
 41
100.0
 42
100.0
 43
100.0
 50
90.0
  0
MTEXT
  5
1F6FA
330
1DA44
100
AcDbEntity
  8
寸法
 62
     7
 48
50.0
100
AcDbMText
 10
7618.331217406069
 20
6175.293544269528
 30
0.0
 40
120.0
 41
0.0
 71
     5
 72
     1
  1
\A1;130
  7
STYLE1
 11
0.0000000000000001
 21
1.0
 31
0.0
 73
     1
 44
1.0
1001
ACAD
1000
MTEXTBEGIN
1070
    73
1070
     1
1070
    44
1040
1.0
1070
    74
1070
     0
1000
MTEXTEND
  0
POINT
  5
1F6FB
330
1DA44
100
AcDbEntity
  8
DEFPOINTS
 62
     0
 48
50.0
100
AcDbPoint
 10
7553.599999999999
 20
5809.246300175036
 30
0.0
  0
POINT
  5
1F6FC
330
1DA44
100
AcDbEntity
  8
DEFPOINTS
 62
     0
 48
50.0
100
AcDbPoint
 10
7553.599999999999
 20
5939.246300175039
 30
0.0
  0
POINT
  5
1F6FD
330
1DA44
100
AcDbEntity
  8
DEFPOINTS
 62
     0
 48
50.0
100
AcDbPoint
 10
7718.33121740607
 20
5939.246300175039
 30
0.0
  0
ENDBLK
  5
1DA50
330
1DA44
100
AcDbEntity
  8
0
 48
50.0
100
AcDbBlockEnd
  0
BLOCK
  5
1DA5C
330
1DA51
100
AcDbEntity
  8
0
 48
50.0
100
AcDbBlockBegin
  2
*D3
 70
     1
 10
0.0
 20
0.0
 30
0.0
  3
*D3
  1

  0
LINE
  5
1F6FE
330
1DA51
100
AcDbEntity
  8
寸法
 62
     0
 48
50.0
370
    -2
100
AcDbLine
 10
7573.599999999998
 20
5809.246300175039
 30
0.0
 11
7778.331217406069
 21
5809.246300175039
 31
0.0
  0
LINE
  5
1F6FF
330
1DA51
100
AcDbEntity
  8
寸法
 62
     0
 48
50.0
370
    -2
100
AcDbLine
 10
7573.599999999998
 20
5639.246300175036
 30
0.0
 11
7778.331217406069
 21
5639.246300175036
 31
0.0
  0
LINE
  5
1F700
330
1DA51
100
AcDbEntity
  8
寸法
 62
     0
 48
50.0
370
    -2
100
AcDbLine
 10
7718.33121740607
 20
5809.246300175039
 30
0.0
 11
7718.33121740607
 21
5639.246300175036
 31
0.0
  0
LINE
  5
1F701
330
1DA51
100
AcDbEntity
  8
寸法
 62
     0
 48
50.0
370
    -2
100
AcDbLine
 10
7718.33121740607
 20
5639.246300175036
 30
0.0
 11
7718.33121740607
 21
5267.151811986058
 31
0.0
  0
INSERT
  5
1F702
330
1DA51
100
AcDbEntity
  8
寸法
 62
     0
 48
50.0
370
    -2
100
AcDbBlockReference
  2
_DOTSMALL
 10
7718.33121740607
 20
5809.246300175039
 30
0.0
 41
100.0
 42
100.0
 43
100.0
 50
90.0
  0
INSERT
  5
1F703
330
1DA51
100
AcDbEntity
  8
寸法
 62
     0
 48
50.0
370
    -2
100
AcDbBlockReference
  2
_DOTSMALL
 10
7718.33121740607
 20
5639.246300175036
 30
0.0
 41
100.0
 42
100.0
 43
100.0
 50
270.0
  0
MTEXT
  5
1F704
330
1DA51
100
AcDbEntity
  8
寸法
 62
     7
 48
50.0
100
AcDbMText
 10
7618.331217406069
 20
5403.199056080547
 30
0.0
 40
120.0
 41
0.0
 71
     5
 72
     1
  1
\A1;170
  7
STYLE1
 11
0.0000000000000001
 21
1.0
 31
0.0
 73
     1
 44
1.0
1001
ACAD
1000
MTEXTBEGIN
1070
    73
1070
     1
1070
    44
1040
1.0
1070
    74
1070
     0
1000
MTEXTEND
  0
POINT
  5
1F705
330
1DA51
100
AcDbEntity
  8
DEFPOINTS
 62
     0
 48
50.0
100
AcDbPoint
 10
7553.599999999999
 20
5809.246300175039
 30
0.0
  0
POINT
  5
1F706
330
1DA51
100
AcDbEntity
  8
DEFPOINTS
 62
     0
 48
50.0
100
AcDbPoint
 10
7553.599999999999
 20
5639.246300175036
 30
0.0
  0
POINT
  5
1F707
330
1DA51
100
AcDbEntity
  8
DEFPOINTS
 62
     0
 48
50.0
100
AcDbPoint
 10
7718.33121740607
 20
5639.246300175036
 30
0.0
  0
ENDBLK
  5
1DA5D
330
1DA51
100
AcDbEntity
  8
0
 48
50.0
100
AcDbBlockEnd
  0
BLOCK
  5
1DA67
330
1DA5E
100
AcDbEntity
  8
0
 48
50.0
100
AcDbBlockBegin
  2
*D4
 70
     1
 10
0.0
 20
0.0
 30
0.0
  3
*D4
  1

  0
LINE
  5
1F274
330
1DA5E
100
AcDbEntity
  8
寸法
 62
     0
 48
50.0
370
    -2
100
AcDbLine
 10
8740.599999999998
 20
6966.246300175035
 30
0.0
 11
8740.599999999998
 21
7684.306910564965
 31
0.0
  0
LINE
  5
1F275
330
1DA5E
100
AcDbEntity
  8
寸法
 62
     0
 48
50.0
370
    -2
100
AcDbLine
 10
7446.6
 20
6966.246300175035
 30
0.0
 11
7446.6
 21
7684.306910564965
 31
0.0
  0
LINE
  5
1F276
330
1DA5E
100
AcDbEntity
  8
寸法
 62
     0
 48
50.0
370
    -2
100
AcDbLine
 10
8740.599999999998
 20
7624.306910564965
 30
0.0
 11
7446.6
 21
7624.306910564965
 31
0.0
  0
INSERT
  5
1F277
330
1DA5E
100
AcDbEntity
  8
寸法
 62
     0
 48
50.0
370
    -2
100
AcDbBlockReference
  2
_DOTSMALL
 10
8740.599999999998
 20
7624.306910564965
 30
0.0
 41
100.0
 42
100.0
 43
100.0
  0
INSERT
  5
1F278
330
1DA5E
100
AcDbEntity
  8
寸法
 62
     0
 48
50.0
370
    -2
100
AcDbBlockReference
  2
_DOTSMALL
 10
7446.6
 20
7624.306910564965
 30
0.0
 41
100.0
 42
100.0
 43
100.0
 50
180.0
  0
MTEXT
  5
1F279
330
1DA5E
100
AcDbEntity
  8
寸法
 62
     7
 48
50.0
100
AcDbMText
 10
8093.6
 20
7724.318721588587
 30
0.0
 40
120.0
 41
0.0
 71
     5
 72
     1
  1
\A1;1294
  7
STYLE1
 73
     1
 44
1.0
1001
ACAD
1000
MTEXTBEGIN
1070
    73
1070
     1
1070
    44
1040
1.0
1070
    74
1070
     0
1000
MTEXTEND
  0
POINT
  5
1F27A
330
1DA5E
100
AcDbEntity
  8
DEFPOINTS
 62
     0
 48
50.0
100
AcDbPoint
 10
8740.599999999998
 20
6946.246300175035
 30
0.0
  0
POINT
  5
1F27B
330
1DA5E
100
AcDbEntity
  8
DEFPOINTS
 62
     0
 48
50.0
100
AcDbPoint
 10
7446.6
 20
6946.246300175035
 30
0.0
  0
POINT
  5
1F27C
330
1DA5E
100
AcDbEntity
  8
DEFPOINTS
 62
     0
 48
50.0
100
AcDbPoint
 10
7446.6
 20
7624.306910564965
 30
0.0
  0
ENDBLK
  5
1DA68
330
1DA5E
100
AcDbEntity
  8
0
 48
50.0
100
AcDbBlockEnd
  0
BLOCK
  5
1DA72
330
1DA69
100
AcDbEntity
  8
0
 48
50.0
100
AcDbBlockBegin
  2
*D5
 70
     1
 10
0.0
 20
0.0
 30
0.0
  3
*D5
  1

  0
LINE
  5
1F26B
330
1DA69
100
AcDbEntity
  8
寸法
 62
     0
 48
50.0
370
    -2
100
AcDbLine
 10
7323.599999999998
 20
7039.246300175034
 30
0.0
 11
7323.599999999998
 21
7896.767606081801
 31
0.0
  0
LINE
  5
1F26C
330
1DA69
100
AcDbEntity
  8
寸法
 62
     0
 48
50.0
370
    -2
100
AcDbLine
 10
8863.599999999998
 20
7039.246300175034
 30
0.0
 11
8863.599999999998
 21
7896.767606081801
 31
0.0
  0
LINE
  5
1F26D
330
1DA69
100
AcDbEntity
  8
寸法
 62
     0
 48
50.0
370
    -2
100
AcDbLine
 10
7323.599999999998
 20
7836.767606081801
 30
0.0
 11
8863.599999999998
 21
7836.767606081801
 31
0.0
  0
INSERT
  5
1F26E
330
1DA69
100
AcDbEntity
  8
寸法
 62
     0
 48
50.0
370
    -2
100
AcDbBlockReference
  2
_DOTSMALL
 10
7323.599999999998
 20
7836.767606081801
 30
0.0
 41
100.0
 42
100.0
 43
100.0
 50
180.0
  0
INSERT
  5
1F26F
330
1DA69
100
AcDbEntity
  8
寸法
 62
     0
 48
50.0
370
    -2
100
AcDbBlockReference
  2
_DOTSMALL
 10
8863.599999999998
 20
7836.767606081801
 30
0.0
 41
100.0
 42
100.0
 43
100.0
  0
MTEXT
  5
1F270
330
1DA69
100
AcDbEntity
  8
寸法
 62
     7
 48
50.0
100
AcDbMText
 10
8093.6
 20
7936.767606081801
 30
0.0
 40
120.0
 41
0.0
 71
     5
 72
     1
  1
\A1;1540
  7
STYLE1
 73
     1
 44
1.0
1001
ACAD
1000
MTEXTBEGIN
1070
    73
1070
     1
1070
    44
1040
1.0
1070
    74
1070
     0
1000
MTEXTEND
  0
POINT
  5
1F271
330
1DA69
100
AcDbEntity
  8
DEFPOINTS
 62
     0
 48
50.0
100
AcDbPoint
 10
7323.599999999998
 20
7019.246300175035
 30
0.0
  0
POINT
  5
1F272
330
1DA69
100
AcDbEntity
  8
DEFPOINTS
 62
     0
 48
50.0
100
AcDbPoint
 10
8863.599999999998
 20
7019.246300175035
 30
0.0
  0
POINT
  5
1F273
330
1DA69
100
AcDbEntity
  8
DEFPOINTS
 62
     0
 48
50.0
100
AcDbPoint
 10
8863.599999999998
 20
7836.767606081801
 30
0.0
  0
ENDBLK
  5
1DA73
330
1DA69
100
AcDbEntity
  8
0
 48
50.0
100
AcDbBlockEnd
  0
BLOCK
  5
1DA7F
330
1DA74
100
AcDbEntity
  8
0
 48
50.0
100
AcDbBlockBegin
  2
*D6
 70
     1
 10
0.0
 20
0.0
 30
0.0
  3
*D6
  1

  0
LINE
  5
1F261
330
1DA74
100
AcDbEntity
  8
寸法
 62
     0
 48
50.0
370
    -2
100
AcDbLine
 10
7446.6
 20
6966.246300175035
 30
0.0
 11
7446.6
 21
7684.306910564965
 31
0.0
  0
LINE
  5
1F262
330
1DA74
100
AcDbEntity
  8
寸法
 62
     0
 48
50.0
370
    -2
100
AcDbLine
 10
7323.599999999998
 20
7039.246300175034
 30
0.0
 11
7323.599999999998
 21
7684.306910564965
 31
0.0
  0
LINE
  5
1F263
330
1DA74
100
AcDbEntity
  8
寸法
 62
     0
 48
50.0
370
    -2
100
AcDbLine
 10
7446.6
 20
7624.306910564965
 30
0.0
 11
7323.599999999998
 21
7624.306910564965
 31
0.0
  0
LINE
  5
1F264
330
1DA74
100
AcDbEntity
  8
寸法
 62
     0
 48
50.0
370
    -2
100
AcDbLine
 10
7323.599999999998
 20
7624.306910564965
 30
0.0
 11
6946.62943725152
 21
7624.306910564965
 31
0.0
  0
INSERT
  5
1F265
330
1DA74
100
AcDbEntity
  8
寸法
 62
     0
 48
50.0
370
    -2
100
AcDbBlockReference
  2
_DOTSMALL
 10
7446.6
 20
7624.306910564965
 30
0.0
 41
100.0
 42
100.0
 43
100.0
  0
INSERT
  5
1F266
330
1DA74
100
AcDbEntity
  8
寸法
 62
     0
 48
50.0
370
    -2
100
AcDbBlockReference
  2
_DOTSMALL
 10
7323.599999999998
 20
7624.306910564965
 30
0.0
 41
100.0
 42
100.0
 43
100.0
 50
180.0
  0
MTEXT
  5
1F267
330
1DA74
100
AcDbEntity
  8
寸法
 62
     7
 48
50.0
100
AcDbMText
 10
7085.11471862576
 20
7724.318721588587
 30
0.0
 40
120.0
 41
0.0
 71
     5
 72
     1
  1
\A1;123
  7
STYLE1
 73
     1
 44
1.0
1001
ACAD
1000
MTEXTBEGIN
1070
    73
1070
     1
1070
    44
1040
1.0
1070
    74
1070
     0
1000
MTEXTEND
  0
POINT
  5
1F268
330
1DA74
100
AcDbEntity
  8
DEFPOINTS
 62
     0
 48
50.0
100
AcDbPoint
 10
7446.6
 20
6946.246300175035
 30
0.0
  0
POINT
  5
1F269
330
1DA74
100
AcDbEntity
  8
DEFPOINTS
 62
     0
 48
50.0
100
AcDbPoint
 10
7323.599999999998
 20
7019.246300175035
 30
0.0
  0
POINT
  5
1F26A
330
1DA74
100
AcDbEntity
  8
DEFPOINTS
 62
     0
 48
50.0
100
AcDbPoint
 10
7323.599999999998
 20
7624.306910564965
 30
0.0
  0
ENDBLK
  5
1DA80
330
1DA74
100
AcDbEntity
  8
0
 48
50.0
100
AcDbBlockEnd
  0
BLOCK
  5
1DA8C
330
1DA81
100
AcDbEntity
  8
0
 48
50.0
100
AcDbBlockBegin
  2
*D7
 70
     1
 10
0.0
 20
0.0
 30
0.0
  3
*D7
  1

  0
LINE
  5
1F256
330
1DA81
100
AcDbEntity
  8
寸法
 62
     0
 48
50.0
370
    -2
100
AcDbLine
 10
7278.599999999994
 20
7644.306910564965
 30
0.0
 11
7278.599999999994
 21
7896.767606081803
 31
0.0
  0
LINE
  5
1F257
330
1DA81
100
AcDbEntity
  8
寸法
 62
     0
 48
50.0
370
    -2
100
AcDbLine
 10
7323.599999999998
 20
7039.246300175034
 30
0.0
 11
7323.599999999998
 21
7896.767606081803
 31
0.0
  0
LINE
  5
1F258
330
1DA81
100
AcDbEntity
  8
寸法
 62
     0
 48
50.0
370
    -2
100
AcDbLine
 10
7278.599999999994
 20
7836.767606081803
 30
0.0
 11
7178.599999999994
 21
7836.767606081803
 31
0.0
  0
LINE
  5
1F259
330
1DA81
100
AcDbEntity
  8
寸法
 62
     0
 48
50.0
370
    -2
100
AcDbLine
 10
7323.599999999998
 20
7836.767606081803
 30
0.0
 11
7423.599999999999
 21
7836.767606081803
 31
0.0
  0
LINE
  5
1F25A
330
1DA81
100
AcDbEntity
  8
寸法
 62
     0
 48
50.0
370
    -2
100
AcDbLine
 10
7278.599999999994
 20
7836.767606081803
 30
0.0
 11
7323.599999999998
 21
7836.767606081803
 31
0.0
  0
INSERT
  5
1F25B
330
1DA81
100
AcDbEntity
  8
寸法
 62
     0
 48
50.0
370
    -2
100
AcDbBlockReference
  2
_DOTSMALL
 10
7278.599999999994
 20
7836.767606081803
 30
0.0
 41
100.0
 42
100.0
 43
100.0
  0
INSERT
  5
1F25C
330
1DA81
100
AcDbEntity
  8
寸法
 62
     0
 48
50.0
370
    -2
100
AcDbBlockReference
  2
_DOTSMALL
 10
7323.599999999998
 20
7836.767606081803
 30
0.0
 41
100.0
 42
100.0
 43
100.0
 50
180.0
  0
MTEXT
  5
1F25D
330
1DA81
100
AcDbEntity
  8
寸法
 62
     7
 48
50.0
100
AcDbMText
 10
7301.099999999997
 20
7936.767606081803
 30
0.0
 40
120.0
 41
0.0
 71
     5
 72
     1
  1
\A1;a
  7
STYLE1
 73
     1
 44
1.0
1001
ACAD
1000
MTEXTBEGIN
1070
    73
1070
     1
1070
    44
1040
1.0
1070
    74
1070
     0
1000
MTEXTEND
  0
POINT
  5
1F25E
330
1DA81
100
AcDbEntity
  8
DEFPOINTS
 62
     0
 48
50.0
100
AcDbPoint
 10
7278.599999999994
 20
7624.306910564965
 30
0.0
  0
POINT
  5
1F25F
330
1DA81
100
AcDbEntity
  8
DEFPOINTS
 62
     0
 48
50.0
100
AcDbPoint
 10
7323.599999999998
 20
7019.246300175035
 30
0.0
  0
POINT
  5
1F260
330
1DA81
100
AcDbEntity
  8
DEFPOINTS
 62
     0
 48
50.0
100
AcDbPoint
 10
7323.599999999998
 20
7836.767606081803
 30
0.0
  0
ENDBLK
  5
1DA8D
330
1DA81
100
AcDbEntity
  8
0
 48
50.0
100
AcDbBlockEnd
  0
BLOCK
  5
1DA98
330
1DA8E
100
AcDbEntity
  8
0
 48
50.0
100
AcDbBlockBegin
  2
*D8
 70
     1
 10
0.0
 20
0.0
 30
0.0
  3
*D8
  1

  0
LINE
  5
1F673
330
1DA8E
100
AcDbEntity
  8
寸法
 62
     0
 48
50.0
370
    -2
100
AcDbLine
 10
7376.599999999999
 20
6896.246300175035
 30
0.0
 11
6767.657733986178
 21
6896.246300175035
 31
0.0
  0
LINE
  5
1F674
330
1DA8E
100
AcDbEntity
  8
寸法
 62
     0
 48
50.0
370
    -2
100
AcDbLine
 10
7376.600000000006
 20
5837.246300175037
 30
0.0
 11
6767.657733986176
 21
5837.246300175037
 31
0.0
  0
LINE
  5
1F675
330
1DA8E
100
AcDbEntity
  8
寸法
 62
     0
 48
50.0
370
    -2
100
AcDbLine
 10
6827.657733986177
 20
6896.246300175035
 30
0.0
 11
6827.657733986177
 21
5837.246300175037
 31
0.0
  0
INSERT
  5
1F676
330
1DA8E
100
AcDbEntity
  8
寸法
 62
     0
 48
50.0
370
    -2
100
AcDbBlockReference
  2
_DOTSMALL
 10
6827.657733986177
 20
6896.246300175035
 30
0.0
 41
100.0
 42
100.0
 43
100.0
 50
90.0
  0
INSERT
  5
1F677
330
1DA8E
100
AcDbEntity
  8
寸法
 62
     0
 48
50.0
370
    -2
100
AcDbBlockReference
  2
_DOTSMALL
 10
6827.657733986177
 20
5837.246300175037
 30
0.0
 41
100.0
 42
100.0
 43
100.0
 50
270.0
  0
MTEXT
  5
1F678
330
1DA8E
100
AcDbEntity
  8
寸法
 62
     7
 48
50.0
100
AcDbMText
 10
6727.657733986176
 20
6329.246300175035
 30
0.0
 40
120.0
 41
0.0
 71
     5
 72
     1
  1
\A1;1059
  7
STYLE1
 11
0.0000000000000001
 21
1.0
 31
0.0
 73
     1
 44
1.0
1001
ACAD
1000
MTEXTBEGIN
1070
    73
1070
     1
1070
    44
1040
1.0
1070
    74
1070
     0
1000
MTEXTEND
  0
POINT
  5
1F679
330
1DA8E
100
AcDbEntity
  8
DEFPOINTS
 62
     0
 48
50.0
100
AcDbPoint
 10
7396.599999999999
 20
6896.246300175035
 30
0.0
  0
POINT
  5
1F67A
330
1DA8E
100
AcDbEntity
  8
DEFPOINTS
 62
     0
 48
50.0
100
AcDbPoint
 10
7396.600000000006
 20
5837.246300175037
 30
0.0
  0
POINT
  5
1F67B
330
1DA8E
100
AcDbEntity
  8
DEFPOINTS
 62
     0
 48
50.0
100
AcDbPoint
 10
6827.657733986177
 20
5837.246300175037
 30
0.0
  0
ENDBLK
  5
1DA99
330
1DA8E
100
AcDbEntity
  8
0
 48
50.0
100
AcDbBlockEnd
  0
BLOCK
  5
1DAA3
330
1DA9A
100
AcDbEntity
  8
0
 48
50.0
100
AcDbBlockBegin
  2
*D9
 70
     1
 10
0.0
 20
0.0
 30
0.0
  3
*D9
  1

  0
LINE
  5
1F658
330
1DA9A
100
AcDbEntity
  8
寸法
 62
     0
 48
50.0
370
    -2
100
AcDbLine
 10
7303.599999999999
 20
7019.246300175035
 30
0.0
 11
6522.164931848213
 21
7019.246300175035
 31
0.0
  0
LINE
  5
1F659
330
1DA9A
100
AcDbEntity
  8
寸法
 62
     0
 48
50.0
370
    -2
100
AcDbLine
 10
7303.599999999999
 20
5639.246300175035
 30
0.0
 11
6522.164931848213
 21
5639.246300175035
 31
0.0
  0
LINE
  5
1F65A
330
1DA9A
100
AcDbEntity
  8
寸法
 62
     0
 48
50.0
370
    -2
100
AcDbLine
 10
6582.164931848215
 20
7019.246300175035
 30
0.0
 11
6582.164931848213
 21
5639.246300175035
 31
0.0
  0
INSERT
  5
1F65B
330
1DA9A
100
AcDbEntity
  8
寸法
 62
     0
 48
50.0
370
    -2
100
AcDbBlockReference
  2
_DOTSMALL
 10
6582.164931848215
 20
7019.246300175035
 30
0.0
 41
100.0
 42
100.0
 43
100.0
 50
90.0
  0
INSERT
  5
1F65C
330
1DA9A
100
AcDbEntity
  8
寸法
 62
     0
 48
50.0
370
    -2
100
AcDbBlockReference
  2
_DOTSMALL
 10
6582.164931848213
 20
5639.246300175035
 30
0.0
 41
100.0
 42
100.0
 43
100.0
 50
270.0
  0
MTEXT
  5
1F65D
330
1DA9A
100
AcDbEntity
  8
寸法
 62
     7
 48
50.0
100
AcDbMText
 10
6482.164931848213
 20
6329.246300175035
 30
0.0
 40
120.0
 41
0.0
 71
     5
 72
     1
  1
\A1;1380
  7
STYLE1
 11
0.0000000000000001
 21
1.0
 31
0.0
 73
     1
 44
1.0
1001
ACAD
1000
MTEXTBEGIN
1070
    73
1070
     1
1070
    44
1040
1.0
1070
    74
1070
     0
1000
MTEXTEND
  0
POINT
  5
1F65E
330
1DA9A
100
AcDbEntity
  8
DEFPOINTS
 62
     0
 48
50.0
100
AcDbPoint
 10
7323.599999999998
 20
7019.246300175035
 30
0.0
  0
POINT
  5
1F65F
330
1DA9A
100
AcDbEntity
  8
DEFPOINTS
 62
     0
 48
50.0
100
AcDbPoint
 10
7323.599999999998
 20
5639.246300175035
 30
0.0
  0
POINT
  5
1F660
330
1DA9A
100
AcDbEntity
  8
DEFPOINTS
 62
     0
 48
50.0
100
AcDbPoint
 10
6582.164931848213
 20
5639.246300175035
 30
0.0
  0
ENDBLK
  5
1DAA4
330
1DA9A
100
AcDbEntity
  8
0
 48
50.0
100
AcDbBlockEnd
  0
BLOCK
  5
1DAB0
330
1DAA5
100
AcDbEntity
  8
0
 48
50.0
100
AcDbBlockBegin
  2
*D10
 70
     1
 10
0.0
 20
0.0
 30
0.0
  3
*D10
  1

  0
LINE
  5
1F5B9
330
1DAA5
100
AcDbEntity
  8
寸法
 62
     0
 48
50.0
370
    -2
100
AcDbLine
 10
7376.600000000006
 20
5837.246300175037
 30
0.0
 11
6767.657733986176
 21
5837.246300175037
 31
0.0
  0
LINE
  5
1F5BA
330
1DAA5
100
AcDbEntity
  8
寸法
 62
     0
 48
50.0
370
    -2
100
AcDbLine
 10
7303.599999999999
 20
5639.246300175035
 30
0.0
 11
6767.657733986176
 21
5639.246300175035
 31
0.0
  0
LINE
  5
1F5BB
330
1DAA5
100
AcDbEntity
  8
寸法
 62
     0
 48
50.0
370
    -2
100
AcDbLine
 10
6827.657733986177
 20
5837.246300175037
 30
0.0
 11
6827.657733986177
 21
5639.246300175035
 31
0.0
  0
LINE
  5
1F5BC
330
1DAA5
100
AcDbEntity
  8
寸法
 62
     0
 48
50.0
370
    -2
100
AcDbLine
 10
6827.657733986177
 20
5639.246300175035
 30
0.0
 11
6827.657733986177
 21
5266.826980515721
 31
0.0
  0
INSERT
  5
1F5BD
330
1DAA5
100
AcDbEntity
  8
寸法
 62
     0
 48
50.0
370
    -2
100
AcDbBlockReference
  2
_DOTSMALL
 10
6827.657733986177
 20
5837.246300175037
 30
0.0
 41
100.0
 42
100.0
 43
100.0
 50
90.0
  0
INSERT
  5
1F5BE
330
1DAA5
100
AcDbEntity
  8
寸法
 62
     0
 48
50.0
370
    -2
100
AcDbBlockReference
  2
_DOTSMALL
 10
6827.657733986177
 20
5639.246300175035
 30
0.0
 41
100.0
 42
100.0
 43
100.0
 50
270.0
  0
MTEXT
  5
1F5BF
330
1DAA5
100
AcDbEntity
  8
寸法
 62
     7
 48
50.0
100
AcDbMText
 10
6727.657733986176
 20
5403.03664034538
 30
0.0
 40
120.0
 41
0.0
 71
     5
 72
     1
  1
\A1;198
  7
STYLE1
 11
0.0000000000000001
 21
1.0
 31
0.0
 73
     1
 44
1.0
1001
ACAD
1000
MTEXTBEGIN
1070
    73
1070
     1
1070
    44
1040
1.0
1070
    74
1070
     0
1000
MTEXTEND
  0
POINT
  5
1F5C0
330
1DAA5
100
AcDbEntity
  8
DEFPOINTS
 62
     0
 48
50.0
100
AcDbPoint
 10
7396.600000000006
 20
5837.246300175037
 30
0.0
  0
POINT
  5
1F5C1
330
1DAA5
100
AcDbEntity
  8
DEFPOINTS
 62
     0
 48
50.0
100
AcDbPoint
 10
7323.599999999998
 20
5639.246300175035
 30
0.0
  0
POINT
  5
1F5C2
330
1DAA5
100
AcDbEntity
  8
DEFPOINTS
 62
     0
 48
50.0
100
AcDbPoint
 10
6827.657733986177
 20
5639.246300175035
 30
0.0
  0
ENDBLK
  5
1DAB1
330
1DAA5
100
AcDbEntity
  8
0
 48
50.0
100
AcDbBlockEnd
  0
BLOCK
  5
1DABC
330
1DAB2
100
AcDbEntity
  8
0
 48
50.0
100
AcDbBlockBegin
  2
*D11
 70
     1
 10
0.0
 20
0.0
 30
0.0
  3
*D11
  1

  0
LINE
  5
1F5AE
330
1DAB2
100
AcDbEntity
  8
寸法
 62
     0
 48
50.0
370
    -2
100
AcDbLine
 10
7303.599999999999
 20
5639.246300175035
 30
0.0
 11
6522.164931848211
 21
5639.246300175035
 31
0.0
  0
LINE
  5
1F5AF
330
1DAB2
100
AcDbEntity
  8
寸法
 62
     0
 48
50.0
370
    -2
100
AcDbLine
 10
6807.657733986177
 20
5584.246300175035
 30
0.0
 11
6522.164931848211
 21
5584.246300175035
 31
0.0
  0
LINE
  5
1F5B0
330
1DAB2
100
AcDbEntity
  8
寸法
 62
     0
 48
50.0
370
    -2
100
AcDbLine
 10
6582.16493184821
 20
5639.246300175035
 30
0.0
 11
6582.16493184821
 21
5739.246300175035
 31
0.0
  0
LINE
  5
1F5B1
330
1DAB2
100
AcDbEntity
  8
寸法
 62
     0
 48
50.0
370
    -2
100
AcDbLine
 10
6582.16493184821
 20
5584.246300175035
 30
0.0
 11
6582.16493184821
 21
5484.246300175034
 31
0.0
  0
LINE
  5
1F5B2
330
1DAB2
100
AcDbEntity
  8
寸法
 62
     0
 48
50.0
370
    -2
100
AcDbLine
 10
6582.16493184821
 20
5639.246300175035
 30
0.0
 11
6582.16493184821
 21
5584.246300175035
 31
0.0
  0
INSERT
  5
1F5B3
330
1DAB2
100
AcDbEntity
  8
寸法
 62
     0
 48
50.0
370
    -2
100
AcDbBlockReference
  2
_DOTSMALL
 10
6582.16493184821
 20
5639.246300175035
 30
0.0
 41
100.0
 42
100.0
 43
100.0
 50
270.0
  0
INSERT
  5
1F5B4
330
1DAB2
100
AcDbEntity
  8
寸法
 62
     0
 48
50.0
370
    -2
100
AcDbBlockReference
  2
_DOTSMALL
 10
6582.16493184821
 20
5584.246300175035
 30
0.0
 41
100.0
 42
100.0
 43
100.0
 50
90.0
  0
MTEXT
  5
1F5B5
330
1DAB2
100
AcDbEntity
  8
寸法
 62
     7
 48
50.0
100
AcDbMText
 10
6482.16493184821
 20
5611.746300175036
 30
0.0
 40
120.0
 41
0.0
 71
     5
 72
     1
  1
\A1;b
  7
STYLE1
 11
0.0000000000000001
 21
1.0
 31
0.0
 73
     1
 44
1.0
1001
ACAD
1000
MTEXTBEGIN
1070
    73
1070
     1
1070
    44
1040
1.0
1070
    74
1070
     0
1000
MTEXTEND
  0
POINT
  5
1F5B6
330
1DAB2
100
AcDbEntity
  8
DEFPOINTS
 62
     0
 48
50.0
100
AcDbPoint
 10
7323.599999999998
 20
5639.246300175035
 30
0.0
  0
POINT
  5
1F5B7
330
1DAB2
100
AcDbEntity
  8
DEFPOINTS
 62
     0
 48
50.0
100
AcDbPoint
 10
6827.657733986177
 20
5584.246300175035
 30
0.0
  0
POINT
  5
1F5B8
330
1DAB2
100
AcDbEntity
  8
DEFPOINTS
 62
     0
 48
50.0
100
AcDbPoint
 10
6582.16493184821
 20
5584.246300175035
 30
0.0
  0
ENDBLK
  5
1DABD
330
1DAB2
100
AcDbEntity
  8
0
 48
50.0
100
AcDbBlockEnd
  0
BLOCK
  5
1DAC9
330
1DABE
100
AcDbEntity
  8
0
 48
50.0
100
AcDbBlockBegin
  2
*D12
 70
     1
 10
0.0
 20
0.0
 30
0.0
  3
*D12
  1

  0
LINE
  5
1F225
330
1DABE
100
AcDbEntity
  8
寸法
 62
     0
 48
50.0
370
    -2
100
AcDbLine
 10
7303.599999999999
 20
7019.246300175035
 30
0.0
 11
6767.657733986178
 21
7019.246300175035
 31
0.0
  0
LINE
  5
1F226
330
1DABE
100
AcDbEntity
  8
寸法
 62
     0
 48
50.0
370
    -2
100
AcDbLine
 10
7376.599999999999
 20
6896.246300175035
 30
0.0
 11
6767.657733986178
 21
6896.246300175035
 31
0.0
  0
LINE
  5
1F227
330
1DABE
100
AcDbEntity
  8
寸法
 62
     0
 48
50.0
370
    -2
100
AcDbLine
 10
6827.657733986177
 20
6896.246300175035
 30
0.0
 11
6827.657733986177
 21
7019.246300175035
 31
0.0
  0
LINE
  5
1F228
330
1DABE
100
AcDbEntity
  8
寸法
 62
     0
 48
50.0
370
    -2
100
AcDbLine
 10
6827.657733986177
 20
7019.246300175035
 30
0.0
 11
6827.657733986177
 21
7396.216862923512
 31
0.0
  0
INSERT
  5
1F229
330
1DABE
100
AcDbEntity
  8
寸法
 62
     0
 48
50.0
370
    -2
100
AcDbBlockReference
  2
_DOTSMALL
 10
6827.657733986177
 20
6896.246300175035
 30
0.0
 41
100.0
 42
100.0
 43
100.0
 50
270.0
  0
INSERT
  5
1F22A
330
1DABE
100
AcDbEntity
  8
寸法
 62
     0
 48
50.0
370
    -2
100
AcDbBlockReference
  2
_DOTSMALL
 10
6827.657733986177
 20
7019.246300175035
 30
0.0
 41
100.0
 42
100.0
 43
100.0
 50
90.0
  0
MTEXT
  5
1F22B
330
1DABE
100
AcDbEntity
  8
寸法
 62
     7
 48
50.0
100
AcDbMText
 10
6727.645922962555
 20
7257.731581549276
 30
0.0
 40
120.0
 41
0.0
 71
     5
 72
     1
  1
\A1;123
  7
STYLE1
 11
0.0000000000000001
 21
1.0
 31
0.0
 73
     1
 44
1.0
1001
ACAD
1000
MTEXTBEGIN
1070
    73
1070
     1
1070
    44
1040
1.0
1070
    74
1070
     0
1000
MTEXTEND
  0
POINT
  5
1F22C
330
1DABE
100
AcDbEntity
  8
DEFPOINTS
 62
     0
 48
50.0
100
AcDbPoint
 10
7323.599999999998
 20
7019.246300175035
 30
0.0
  0
POINT
  5
1F22D
330
1DABE
100
AcDbEntity
  8
DEFPOINTS
 62
     0
 48
50.0
100
AcDbPoint
 10
7396.599999999999
 20
6896.246300175035
 30
0.0
  0
POINT
  5
1F22E
330
1DABE
100
AcDbEntity
  8
DEFPOINTS
 62
     0
 48
50.0
100
AcDbPoint
 10
6827.657733986177
 20
6896.246300175035
 30
0.0
  0
ENDBLK
  5
1DACA
330
1DABE
100
AcDbEntity
  8
0
 48
50.0
100
AcDbBlockEnd
  0
BLOCK
  5
1DAD7
330
1DACB
100
AcDbEntity
  8
0
 48
50.0
100
AcDbBlockBegin
  2
*D13
 70
     1
 10
0.0
 20
0.0
 30
0.0
  3
*D13
  1

  0
LINE
  5
1F21A
330
1DACB
100
AcDbEntity
  8
寸法
 62
     0
 48
50.0
370
    -2
100
AcDbLine
 10
6807.657733986179
 20
7094.246300175035
 30
0.0
 11
6522.164931848211
 21
7094.246300175035
 31
0.0
  0
LINE
  5
1F21B
330
1DACB
100
AcDbEntity
  8
寸法
 62
     0
 48
50.0
370
    -2
100
AcDbLine
 10
7303.599999999999
 20
7019.246300175035
 30
0.0
 11
6522.164931848211
 21
7019.246300175035
 31
0.0
  0
LINE
  5
1F21C
330
1DACB
100
AcDbEntity
  8
寸法
 62
     0
 48
50.0
370
    -2
100
AcDbLine
 10
6582.16493184821
 20
7094.246300175035
 30
0.0
 11
6582.16493184821
 21
7194.246300175035
 31
0.0
  0
LINE
  5
1F21D
330
1DACB
100
AcDbEntity
  8
寸法
 62
     0
 48
50.0
370
    -2
100
AcDbLine
 10
6582.16493184821
 20
7019.246300175035
 30
0.0
 11
6582.16493184821
 21
6919.246300175036
 31
0.0
  0
LINE
  5
1F21E
330
1DACB
100
AcDbEntity
  8
寸法
 62
     0
 48
50.0
370
    -2
100
AcDbLine
 10
6582.16493184821
 20
7094.246300175035
 30
0.0
 11
6582.16493184821
 21
7019.246300175035
 31
0.0
  0
INSERT
  5
1F21F
330
1DACB
100
AcDbEntity
  8
寸法
 62
     0
 48
50.0
370
    -2
100
AcDbBlockReference
  2
_DOTSMALL
 10
6582.16493184821
 20
7094.246300175035
 30
0.0
 41
100.0
 42
100.0
 43
100.0
 50
270.0
  0
INSERT
  5
1F220
330
1DACB
100
AcDbEntity
  8
寸法
 62
     0
 48
50.0
370
    -2
100
AcDbBlockReference
  2
_DOTSMALL
 10
6582.16493184821
 20
7019.246300175035
 30
0.0
 41
100.0
 42
100.0
 43
100.0
 50
90.0
  0
MTEXT
  5
1F221
330
1DACB
100
AcDbEntity
  8
寸法
 62
     7
 48
50.0
100
AcDbMText
 10
6482.164931848209
 20
7056.746300175037
 30
0.0
 40
120.0
 41
0.0
 71
     5
 72
     1
  1
\A1;c
  7
STYLE1
 11
0.0000000000000001
 21
1.0
 31
0.0
 73
     1
 44
1.0
1001
ACAD
1000
MTEXTBEGIN
1070
    73
1070
     1
1070
    44
1040
1.0
1070
    74
1070
     0
1000
MTEXTEND
  0
POINT
  5
1F222
330
1DACB
100
AcDbEntity
  8
DEFPOINTS
 62
     0
 48
50.0
100
AcDbPoint
 10
6827.657733986177
 20
7094.246300175035
 30
0.0
  0
POINT
  5
1F223
330
1DACB
100
AcDbEntity
  8
DEFPOINTS
 62
     0
 48
50.0
100
AcDbPoint
 10
7323.599999999998
 20
7019.246300175035
 30
0.0
  0
POINT
  5
1F224
330
1DACB
100
AcDbEntity
  8
DEFPOINTS
 62
     0
 48
50.0
100
AcDbPoint
 10
6582.16493184821
 20
7019.246300175035
 30
0.0
  0
ENDBLK
  5
1DAD8
330
1DACB
100
AcDbEntity
  8
0
 48
50.0
100
AcDbBlockEnd
  0
BLOCK
  5
1DAE4
330
1DAD9
100
AcDbEntity
  8
0
 48
50.0
100
AcDbBlockBegin
  2
*D14
 70
     1
 10
0.0
 20
0.0
 30
0.0
  3
*D14
  1

  0
LINE
  5
1F210
330
1DAD9
100
AcDbEntity
  8
寸法
 62
     0
 48
50.0
370
    -2
100
AcDbLine
 10
8863.599999999998
 20
7039.246300175034
 30
0.0
 11
8863.599999999998
 21
7684.306910564965
 31
0.0
  0
LINE
  5
1F211
330
1DAD9
100
AcDbEntity
  8
寸法
 62
     0
 48
50.0
370
    -2
100
AcDbLine
 10
8740.599999999998
 20
6966.246300175035
 30
0.0
 11
8740.599999999998
 21
7684.306910564965
 31
0.0
  0
LINE
  5
1F212
330
1DAD9
100
AcDbEntity
  8
寸法
 62
     0
 48
50.0
370
    -2
100
AcDbLine
 10
8740.599999999998
 20
7624.306910564965
 30
0.0
 11
8863.599999999998
 21
7624.306910564965
 31
0.0
  0
LINE
  5
1F213
330
1DAD9
100
AcDbEntity
  8
寸法
 62
     0
 48
50.0
370
    -2
100
AcDbLine
 10
8863.599999999998
 20
7624.306910564965
 30
0.0
 11
9240.570562748475
 21
7624.306910564965
 31
0.0
  0
INSERT
  5
1F214
330
1DAD9
100
AcDbEntity
  8
寸法
 62
     0
 48
50.0
370
    -2
100
AcDbBlockReference
  2
_DOTSMALL
 10
8740.599999999998
 20
7624.306910564965
 30
0.0
 41
100.0
 42
100.0
 43
100.0
 50
180.0
  0
INSERT
  5
1F215
330
1DAD9
100
AcDbEntity
  8
寸法
 62
     0
 48
50.0
370
    -2
100
AcDbBlockReference
  2
_DOTSMALL
 10
8863.599999999998
 20
7624.306910564965
 30
0.0
 41
100.0
 42
100.0
 43
100.0
  0
MTEXT
  5
1F216
330
1DAD9
100
AcDbEntity
  8
寸法
 62
     7
 48
50.0
100
AcDbMText
 10
9102.085281374236
 20
7724.318721588587
 30
0.0
 40
120.0
 41
0.0
 71
     5
 72
     1
  1
\A1;123
  7
STYLE1
 73
     1
 44
1.0
1001
ACAD
1000
MTEXTBEGIN
1070
    73
1070
     1
1070
    44
1040
1.0
1070
    74
1070
     0
1000
MTEXTEND
  0
POINT
  5
1F217
330
1DAD9
100
AcDbEntity
  8
DEFPOINTS
 62
     0
 48
50.0
100
AcDbPoint
 10
8863.599999999998
 20
7019.246300175035
 30
0.0
  0
POINT
  5
1F218
330
1DAD9
100
AcDbEntity
  8
DEFPOINTS
 62
     0
 48
50.0
100
AcDbPoint
 10
8740.599999999998
 20
6946.246300175035
 30
0.0
  0
POINT
  5
1F219
330
1DAD9
100
AcDbEntity
  8
DEFPOINTS
 62
     0
 48
50.0
100
AcDbPoint
 10
8740.599999999998
 20
7624.306910564965
 30
0.0
  0
ENDBLK
  5
1DAE5
330
1DAD9
100
AcDbEntity
  8
0
 48
50.0
100
AcDbBlockEnd
  0
BLOCK
  5
1DAF1
330
1DAE6
100
AcDbEntity
  8
0
 48
50.0
100
AcDbBlockBegin
  2
*D15
 70
     1
 10
0.0
 20
0.0
 30
0.0
  3
*D15
  1

  0
LINE
  5
1F205
330
1DAE6
100
AcDbEntity
  8
寸法
 62
     0
 48
50.0
370
    -2
100
AcDbLine
 10
8863.599999999998
 20
7039.246300175034
 30
0.0
 11
8863.599999999998
 21
7896.767606081801
 31
0.0
  0
LINE
  5
1F206
330
1DAE6
100
AcDbEntity
  8
寸法
 62
     0
 48
50.0
370
    -2
100
AcDbLine
 10
8908.599999999998
 20
7644.306910564965
 30
0.0
 11
8908.599999999998
 21
7896.767606081801
 31
0.0
  0
LINE
  5
1F207
330
1DAE6
100
AcDbEntity
  8
寸法
 62
     0
 48
50.0
370
    -2
100
AcDbLine
 10
8863.599999999998
 20
7836.767606081801
 30
0.0
 11
8763.599999999998
 21
7836.767606081801
 31
0.0
  0
LINE
  5
1F208
330
1DAE6
100
AcDbEntity
  8
寸法
 62
     0
 48
50.0
370
    -2
100
AcDbLine
 10
8908.599999999998
 20
7836.767606081801
 30
0.0
 11
9008.599999999999
 21
7836.767606081801
 31
0.0
  0
LINE
  5
1F209
330
1DAE6
100
AcDbEntity
  8
寸法
 62
     0
 48
50.0
370
    -2
100
AcDbLine
 10
8863.599999999998
 20
7836.767606081801
 30
0.0
 11
8908.599999999998
 21
7836.767606081801
 31
0.0
  0
INSERT
  5
1F20A
330
1DAE6
100
AcDbEntity
  8
寸法
 62
     0
 48
50.0
370
    -2
100
AcDbBlockReference
  2
_DOTSMALL
 10
8863.599999999998
 20
7836.767606081801
 30
0.0
 41
100.0
 42
100.0
 43
100.0
  0
INSERT
  5
1F20B
330
1DAE6
100
AcDbEntity
  8
寸法
 62
     0
 48
50.0
370
    -2
100
AcDbBlockReference
  2
_DOTSMALL
 10
8908.599999999998
 20
7836.767606081801
 30
0.0
 41
100.0
 42
100.0
 43
100.0
 50
180.0
  0
MTEXT
  5
1F20C
330
1DAE6
100
AcDbEntity
  8
寸法
 62
     7
 48
50.0
100
AcDbMText
 10
8886.099999999998
 20
7936.767606081801
 30
0.0
 40
120.0
 41
0.0
 71
     5
 72
     1
  1
\A1;a
  7
STYLE1
 73
     1
 44
1.0
1001
ACAD
1000
MTEXTBEGIN
1070
    73
1070
     1
1070
    44
1040
1.0
1070
    74
1070
     0
1000
MTEXTEND
  0
POINT
  5
1F20D
330
1DAE6
100
AcDbEntity
  8
DEFPOINTS
 62
     0
 48
50.0
100
AcDbPoint
 10
8863.599999999998
 20
7019.246300175035
 30
0.0
  0
POINT
  5
1F20E
330
1DAE6
100
AcDbEntity
  8
DEFPOINTS
 62
     0
 48
50.0
100
AcDbPoint
 10
8908.599999999998
 20
7624.306910564965
 30
0.0
  0
POINT
  5
1F20F
330
1DAE6
100
AcDbEntity
  8
DEFPOINTS
 62
     0
 48
50.0
100
AcDbPoint
 10
8908.599999999998
 20
7836.767606081801
 30
0.0
  0
ENDBLK
  5
1DAF2
330
1DAE6
100
AcDbEntity
  8
0
 48
50.0
100
AcDbBlockEnd
  0
BLOCK
  5
1DAFE
330
1DAF3
100
AcDbEntity
  8
0
 48
50.0
100
AcDbBlockBegin
  2
*D16
 70
     1
 10
0.0
 20
0.0
 30
0.0
  3
*D16
  1

  0
LINE
  5
1FBF1
330
1DAF3
100
AcDbEntity
  8
寸法
 62
     0
 48
50.0
370
    -2
100
AcDbLine
 10
8863.599999999998
 20
6769.246300175035
 30
0.0
 11
8863.599999999998
 21
6528.46495758829
 31
0.0
  0
LINE
  5
1FBF2
330
1DAF3
100
AcDbEntity
  8
寸法
 62
     0
 48
50.0
370
    -2
100
AcDbLine
 10
8743.6
 20
6769.246300175037
 30
0.0
 11
8743.6
 21
6528.46495758829
 31
0.0
  0
LINE
  5
1FBF3
330
1DAF3
100
AcDbEntity
  8
寸法
 62
     0
 48
50.0
370
    -2
100
AcDbLine
 10
8743.6
 20
6588.46495758829
 30
0.0
 11
8863.599999999998
 21
6588.46495758829
 31
0.0
  0
LINE
  5
1FBF4
330
1DAF3
100
AcDbEntity
  8
寸法
 62
     0
 48
50.0
370
    -2
100
AcDbLine
 10
8863.599999999998
 20
6588.46495758829
 30
0.0
 11
9235.694488188993
 21
6588.46495758829
 31
0.0
  0
INSERT
  5
1FBF5
330
1DAF3
100
AcDbEntity
  8
寸法
 62
     0
 48
50.0
370
    -2
100
AcDbBlockReference
  2
_DOTSMALL
 10
8743.6
 20
6588.46495758829
 30
0.0
 41
100.0
 42
100.0
 43
100.0
 50
180.0
  0
INSERT
  5
1FBF6
330
1DAF3
100
AcDbEntity
  8
寸法
 62
     0
 48
50.0
370
    -2
100
AcDbBlockReference
  2
_DOTSMALL
 10
8863.599999999998
 20
6588.46495758829
 30
0.0
 41
100.0
 42
100.0
 43
100.0
  0
MTEXT
  5
1FBF7
330
1DAF3
100
AcDbEntity
  8
寸法
 62
     7
 48
50.0
100
AcDbMText
 10
9099.647244094503
 20
6688.476768611912
 30
0.0
 40
120.0
 41
0.0
 71
     5
 72
     1
  1
\A1;120
  7
STYLE1
 73
     1
 44
1.0
1001
ACAD
1000
MTEXTBEGIN
1070
    73
1070
     1
1070
    44
1040
1.0
1070
    74
1070
     0
1000
MTEXTEND
  0
POINT
  5
1FBF8
330
1DAF3
100
AcDbEntity
  8
DEFPOINTS
 62
     0
 48
50.0
100
AcDbPoint
 10
8863.599999999998
 20
6789.246300175034
 30
0.0
  0
POINT
  5
1FBF9
330
1DAF3
100
AcDbEntity
  8
DEFPOINTS
 62
     0
 48
50.0
100
AcDbPoint
 10
8743.6
 20
6789.246300175037
 30
0.0
  0
POINT
  5
1FBFA
330
1DAF3
100
AcDbEntity
  8
DEFPOINTS
 62
     0
 48
50.0
100
AcDbPoint
 10
8743.6
 20
6588.46495758829
 30
0.0
  0
ENDBLK
  5
1DAFF
330
1DAF3
100
AcDbEntity
  8
0
 48
50.0
100
AcDbBlockEnd
  0
BLOCK
  5
1DB0B
330
1DB00
100
AcDbEntity
  8
0
 48
50.0
100
AcDbBlockBegin
  2
*D17
 70
     1
 10
0.0
 20
0.0
 30
0.0
  3
*D17
  1

  0
LINE
  5
1FBBF
330
1DB00
100
AcDbEntity
  8
寸法
 62
     0
 48
50.0
370
    -2
100
AcDbLine
 10
7573.599999999998
 20
6899.246300175035
 30
0.0
 11
7777.031549279723
 21
6899.246300175035
 31
0.0
  0
LINE
  5
1FBC0
330
1DB00
100
AcDbEntity
  8
寸法
 62
     0
 48
50.0
370
    -2
100
AcDbLine
 10
7573.599999999998
 20
6789.246300175033
 30
0.0
 11
7777.031549279723
 21
6789.246300175033
 31
0.0
  0
LINE
  5
1FBC1
330
1DB00
100
AcDbEntity
  8
寸法
 62
     0
 48
50.0
370
    -2
100
AcDbLine
 10
7717.031549279724
 20
6899.246300175035
 30
0.0
 11
7717.031549279724
 21
6789.246300175033
 31
0.0
  0
LINE
  5
1FBC2
330
1DB00
100
AcDbEntity
  8
寸法
 62
     0
 48
50.0
370
    -2
100
AcDbLine
 10
7717.031549279724
 20
6789.246300175033
 30
0.0
 11
7717.031549279724
 21
6415.052484940116
 31
0.0
  0
INSERT
  5
1FBC3
330
1DB00
100
AcDbEntity
  8
寸法
 62
     0
 48
50.0
370
    -2
100
AcDbBlockReference
  2
_DOTSMALL
 10
7717.031549279724
 20
6899.246300175035
 30
0.0
 41
100.0
 42
100.0
 43
100.0
 50
90.0
  0
INSERT
  5
1FBC4
330
1DB00
100
AcDbEntity
  8
寸法
 62
     0
 48
50.0
370
    -2
100
AcDbBlockReference
  2
_DOTSMALL
 10
7717.031549279724
 20
6789.246300175033
 30
0.0
 41
100.0
 42
100.0
 43
100.0
 50
270.0
  0
MTEXT
  5
1FBC5
330
1DB00
100
AcDbEntity
  8
寸法
 62
     7
 48
50.0
100
AcDbMText
 10
7617.031549279722
 20
6539.099729034605
 30
0.0
 40
120.0
 41
0.0
 71
     5
 72
     1
  1
\A1;110
  7
STYLE1
 11
0.0000000000000001
 21
1.0
 31
0.0
 73
     1
 44
1.0
1001
ACAD
1000
MTEXTBEGIN
1070
    73
1070
     1
1070
    44
1040
1.0
1070
    74
1070
     0
1000
MTEXTEND
  0
POINT
  5
1FBC6
330
1DB00
100
AcDbEntity
  8
DEFPOINTS
 62
     0
 48
50.0
100
AcDbPoint
 10
7553.599999999997
 20
6899.246300175035
 30
0.0
  0
POINT
  5
1FBC7
330
1DB00
100
AcDbEntity
  8
DEFPOINTS
 62
     0
 48
50.0
100
AcDbPoint
 10
7553.599999999999
 20
6789.246300175033
 30
0.0
  0
POINT
  5
1FBC8
330
1DB00
100
AcDbEntity
  8
DEFPOINTS
 62
     0
 48
50.0
100
AcDbPoint
 10
7717.031549279724
 20
6789.246300175033
 30
0.0
  0
ENDBLK
  5
1DB0C
330
1DB00
100
AcDbEntity
  8
0
 48
50.0
100
AcDbBlockEnd
  0
BLOCK
  5
1F7C0
330
1F7B5
100
AcDbEntity
  8
0
 48
50.0
100
AcDbBlockBegin
  2
*D18
 70
     1
 10
0.0
 20
0.0
 30
0.0
  3
*D18
  1

  0
LINE
  5
1FBE7
330
1F7B5
100
AcDbEntity
  8
寸法
 62
     0
 48
50.0
370
    -2
100
AcDbLine
 10
7653.599999999999
 20
7019.246300175035
 30
0.0
 11
7777.031549279723
 21
7019.246300175035
 31
0.0
  0
LINE
  5
1FBE8
330
1F7B5
100
AcDbEntity
  8
寸法
 62
     0
 48
50.0
370
    -2
100
AcDbLine
 10
7573.599999999998
 20
6899.246300175035
 30
0.0
 11
7777.031549279723
 21
6899.246300175035
 31
0.0
  0
LINE
  5
1FBE9
330
1F7B5
100
AcDbEntity
  8
寸法
 62
     0
 48
50.0
370
    -2
100
AcDbLine
 10
7717.031549279724
 20
6899.246300175035
 30
0.0
 11
7717.031549279724
 21
7019.246300175035
 31
0.0
  0
LINE
  5
1FBEA
330
1F7B5
100
AcDbEntity
  8
寸法
 62
     0
 48
50.0
370
    -2
100
AcDbLine
 10
7717.031549279724
 20
7019.246300175035
 30
0.0
 11
7717.031549279724
 21
7426.755203596518
 31
0.0
  0
INSERT
  5
1FBEB
330
1F7B5
100
AcDbEntity
  8
寸法
 62
     0
 48
50.0
370
    -2
100
AcDbBlockReference
  2
_DOTSMALL
 10
7717.031549279724
 20
6899.246300175035
 30
0.0
 41
100.0
 42
100.0
 43
100.0
 50
270.0
  0
INSERT
  5
1FBEC
330
1F7B5
100
AcDbEntity
  8
寸法
 62
     0
 48
50.0
370
    -2
100
AcDbBlockReference
  2
_DOTSMALL
 10
7717.031549279724
 20
7019.246300175035
 30
0.0
 41
100.0
 42
100.0
 43
100.0
 50
90.0
  0
MTEXT
  5
1FBED
330
1F7B5
100
AcDbEntity
  8
寸法
 62
     7
 48
50.0
100
AcDbMText
 10
7617.0197382561
 20
7290.707959502032
 30
0.0
 40
120.0
 41
0.0
 71
     5
 72
     1
  1
\A1;120
  7
STYLE1
 11
0.0000000000000001
 21
1.0
 31
0.0
 73
     1
 44
1.0
1001
ACAD
1000
MTEXTBEGIN
1070
    73
1070
     1
1070
    44
1040
1.0
1070
    74
1070
     0
1000
MTEXTEND
  0
POINT
  5
1FBEE
330
1F7B5
100
AcDbEntity
  8
DEFPOINTS
 62
     0
 48
50.0
100
AcDbPoint
 10
7633.599999999998
 20
7019.246300175035
 30
0.0
  0
POINT
  5
1FBEF
330
1F7B5
100
AcDbEntity
  8
DEFPOINTS
 62
     0
 48
50.0
100
AcDbPoint
 10
7553.599999999997
 20
6899.246300175035
 30
0.0
  0
POINT
  5
1FBF0
330
1F7B5
100
AcDbEntity
  8
DEFPOINTS
 62
     0
 48
50.0
100
AcDbPoint
 10
7717.031549279724
 20
6899.246300175035
 30
0.0
  0
ENDBLK
  5
1F7C1
330
1F7B5
100
AcDbEntity
  8
0
 48
50.0
100
AcDbBlockEnd
  0
BLOCK
  5
1F82C
330
1F822
100
AcDbEntity
  8
0
 48
50.0
100
AcDbBlockBegin
  2
*D19
 70
     1
 10
0.0
 20
0.0
 30
0.0
  3
*D19
  1

  0
LINE
  5
1F823
330
1F822
100
AcDbEntity
  8
寸法
 62
     0
 48
50.0
370
    -2
100
AcDbLine
 10
8288.787070312938
 20
7019.246300175035
 30
0.0
 11
8410.676791458099
 21
7019.246300175035
 31
0.0
  0
LINE
  5
1F824
330
1F822
100
AcDbEntity
  8
寸法
 62
     0
 48
50.0
370
    -2
100
AcDbLine
 10
8163.599999999998
 20
6366.246300175031
 30
0.0
 11
8410.676791458099
 21
6366.246300175031
 31
0.0
  0
LINE
  5
1F825
330
1F822
100
AcDbEntity
  8
寸法
 62
     0
 48
50.0
370
    -2
100
AcDbLine
 10
8350.6767914581
 20
7019.246300175035
 30
0.0
 11
8350.6767914581
 21
6366.246300175031
 31
0.0
  0
INSERT
  5
1F826
330
1F822
100
AcDbEntity
  8
寸法
 62
     0
 48
50.0
370
    -2
100
AcDbBlockReference
  2
_DOTSMALL
 10
8350.6767914581
 20
7019.246300175035
 30
0.0
 41
100.0
 42
100.0
 43
100.0
 50
90.0
  0
INSERT
  5
1F827
330
1F822
100
AcDbEntity
  8
寸法
 62
     0
 48
50.0
370
    -2
100
AcDbBlockReference
  2
_DOTSMALL
 10
8350.6767914581
 20
6366.246300175031
 30
0.0
 41
100.0
 42
100.0
 43
100.0
 50
270.0
  0
MTEXT
  5
1F828
330
1F822
100
AcDbEntity
  8
寸法
 62
     7
 48
50.0
100
AcDbMText
 10
8250.676791458097
 20
6692.746300175034
 30
0.0
 40
120.0
 41
0.0
 71
     5
 72
     1
  1
\A1;653
  7
STYLE1
 11
0.0000000000000001
 21
1.0
 31
0.0
 73
     1
 44
1.0
1001
ACAD
1000
MTEXTBEGIN
1070
    73
1070
     1
1070
    44
1040
1.0
1070
    74
1070
     0
1000
MTEXTEND
  0
POINT
  5
1F829
330
1F822
100
AcDbEntity
  8
DEFPOINTS
 62
     0
 48
50.0
100
AcDbPoint
 10
8268.787070312937
 20
7019.246300175035
 30
0.0
  0
POINT
  5
1F82A
330
1F822
100
AcDbEntity
  8
DEFPOINTS
 62
     0
 48
50.0
100
AcDbPoint
 10
8143.599999999999
 20
6366.246300175031
 30
0.0
  0
POINT
  5
1F82B
330
1F822
100
AcDbEntity
  8
DEFPOINTS
 62
     0
 48
50.0
100
AcDbPoint
 10
8350.6767914581
 20
6366.246300175031
 30
0.0
  0
ENDBLK
  5
1F82D
330
1F822
100
AcDbEntity
  8
0
 48
50.0
100
AcDbBlockEnd
  0
BLOCK
  5
1F839
330
1F82F
100
AcDbEntity
  8
0
 48
50.0
100
AcDbBlockBegin
  2
*D20
 70
     1
 10
0.0
 20
0.0
 30
0.0
  3
*D20
  1

  0
LINE
  5
1F830
330
1F82F
100
AcDbEntity
  8
寸法
 62
     0
 48
50.0
370
    -2
100
AcDbLine
 10
8163.599999999998
 20
6366.246300175031
 30
0.0
 11
8410.676791458099
 21
6366.246300175031
 31
0.0
  0
LINE
  5
1F831
330
1F82F
100
AcDbEntity
  8
寸法
 62
     0
 48
50.0
370
    -2
100
AcDbLine
 10
8330.676791458113
 20
5639.246300175045
 30
0.0
 11
8290.6767914581
 21
5639.246300175045
 31
0.0
  0
LINE
  5
1F832
330
1F82F
100
AcDbEntity
  8
寸法
 62
     0
 48
50.0
370
    -2
100
AcDbLine
 10
8350.6767914581
 20
6366.246300175031
 30
0.0
 11
8350.6767914581
 21
5639.246300175045
 31
0.0
  0
INSERT
  5
1F833
330
1F82F
100
AcDbEntity
  8
寸法
 62
     0
 48
50.0
370
    -2
100
AcDbBlockReference
  2
_DOTSMALL
 10
8350.6767914581
 20
6366.246300175031
 30
0.0
 41
100.0
 42
100.0
 43
100.0
 50
90.0
  0
INSERT
  5
1F834
330
1F82F
100
AcDbEntity
  8
寸法
 62
     0
 48
50.0
370
    -2
100
AcDbBlockReference
  2
_DOTSMALL
 10
8350.6767914581
 20
5639.246300175045
 30
0.0
 41
100.0
 42
100.0
 43
100.0
 50
270.0
  0
MTEXT
  5
1F835
330
1F82F
100
AcDbEntity
  8
寸法
 62
     7
 48
50.0
100
AcDbMText
 10
8250.664980434477
 20
6002.746300175039
 30
0.0
 40
120.0
 41
0.0
 71
     5
 72
     1
  1
\A1;727
  7
STYLE1
 11
0.0000000000000001
 21
1.0
 31
0.0
 73
     1
 44
1.0
1001
ACAD
1000
MTEXTBEGIN
1070
    73
1070
     1
1070
    44
1040
1.0
1070
    74
1070
     0
1000
MTEXTEND
  0
POINT
  5
1F836
330
1F82F
100
AcDbEntity
  8
DEFPOINTS
 62
     0
 48
50.0
100
AcDbPoint
 10
8143.599999999999
 20
6366.246300175031
 30
0.0
  0
POINT
  5
1F837
330
1F82F
100
AcDbEntity
  8
DEFPOINTS
 62
     0
 48
50.0
100
AcDbPoint
 10
8350.676791458111
 20
5639.246300175045
 30
0.0
  0
POINT
  5
1F838
330
1F82F
100
AcDbEntity
  8
DEFPOINTS
 62
     0
 48
50.0
100
AcDbPoint
 10
8350.6767914581
 20
5639.246300175045
 30
0.0
  0
ENDBLK
  5
1F83A
330
1F82F
100
AcDbEntity
  8
0
 48
50.0
100
AcDbBlockEnd
  0
BLOCK
  5
1F86C
330
1F862
100
AcDbEntity
  8
0
 48
50.0
100
AcDbBlockBegin
  2
*D21
 70
     1
 10
0.0
 20
0.0
 30
0.0
  3
*D21
  1

  0
LINE
  5
1F863
330
1F862
100
AcDbEntity
  8
寸法
 62
     0
 48
50.0
370
    -2
100
AcDbLine
 10
7323.599999999998
 20
7039.246300175034
 30
0.0
 11
7323.599999999998
 21
7495.122805256065
 31
0.0
  0
LINE
  5
1F864
330
1F862
100
AcDbEntity
  8
寸法
 62
     0
 48
50.0
370
    -2
100
AcDbLine
 10
8093.6
 20
6436.246300175032
 30
0.0
 11
8093.6
 21
7495.122805256065
 31
0.0
  0
LINE
  5
1F865
330
1F862
100
AcDbEntity
  8
寸法
 62
     0
 48
50.0
370
    -2
100
AcDbLine
 10
7323.599999999998
 20
7435.122805256066
 30
0.0
 11
8093.6
 21
7435.122805256066
 31
0.0
  0
INSERT
  5
1F866
330
1F862
100
AcDbEntity
  8
寸法
 62
     0
 48
50.0
370
    -2
100
AcDbBlockReference
  2
_DOTSMALL
 10
7323.599999999998
 20
7435.122805256066
 30
0.0
 41
100.0
 42
100.0
 43
100.0
 50
180.0
  0
INSERT
  5
1F867
330
1F862
100
AcDbEntity
  8
寸法
 62
     0
 48
50.0
370
    -2
100
AcDbBlockReference
  2
_DOTSMALL
 10
8093.6
 20
7435.122805256066
 30
0.0
 41
100.0
 42
100.0
 43
100.0
  0
MTEXT
  5
1F868
330
1F862
100
AcDbEntity
  8
寸法
 62
     7
 48
50.0
100
AcDbMText
 10
7708.599999999998
 20
7535.122805256065
 30
0.0
 40
120.0
 41
0.0
 71
     5
 72
     1
  1
\A1;770
  7
STYLE1
 73
     1
 44
1.0
1001
ACAD
1000
MTEXTBEGIN
1070
    73
1070
     1
1070
    44
1040
1.0
1070
    74
1070
     0
1000
MTEXTEND
  0
POINT
  5
1F869
330
1F862
100
AcDbEntity
  8
DEFPOINTS
 62
     0
 48
50.0
100
AcDbPoint
 10
7323.599999999998
 20
7019.246300175034
 30
0.0
  0
POINT
  5
1F86A
330
1F862
100
AcDbEntity
  8
DEFPOINTS
 62
     0
 48
50.0
100
AcDbPoint
 10
8093.6
 20
6416.246300175031
 30
0.0
  0
POINT
  5
1F86B
330
1F862
100
AcDbEntity
  8
DEFPOINTS
 62
     0
 48
50.0
100
AcDbPoint
 10
8093.6
 20
7435.122805256066
 30
0.0
  0
ENDBLK
  5
1F86D
330
1F862
100
AcDbEntity
  8
0
 48
50.0
100
AcDbBlockEnd
  0
BLOCK
  5
1F879
330
1F86F
100
AcDbEntity
  8
0
 48
50.0
100
AcDbBlockBegin
  2
*D22
 70
     1
 10
0.0
 20
0.0
 30
0.0
  3
*D22
  1

  0
LINE
  5
1F870
330
1F86F
100
AcDbEntity
  8
寸法
 62
     0
 48
50.0
370
    -2
100
AcDbLine
 10
8093.6
 20
6436.246300175032
 30
0.0
 11
8093.6
 21
7495.122805256065
 31
0.0
  0
LINE
  5
1F871
330
1F86F
100
AcDbEntity
  8
寸法
 62
     0
 48
50.0
370
    -2
100
AcDbLine
 10
8863.599999999998
 20
7039.246300175034
 30
0.0
 11
8863.599999999998
 21
7495.122805256065
 31
0.0
  0
LINE
  5
1F872
330
1F86F
100
AcDbEntity
  8
寸法
 62
     0
 48
50.0
370
    -2
100
AcDbLine
 10
8093.6
 20
7435.122805256066
 30
0.0
 11
8863.599999999998
 21
7435.122805256066
 31
0.0
  0
INSERT
  5
1F873
330
1F86F
100
AcDbEntity
  8
寸法
 62
     0
 48
50.0
370
    -2
100
AcDbBlockReference
  2
_DOTSMALL
 10
8093.6
 20
7435.122805256066
 30
0.0
 41
100.0
 42
100.0
 43
100.0
 50
180.0
  0
INSERT
  5
1F874
330
1F86F
100
AcDbEntity
  8
寸法
 62
     0
 48
50.0
370
    -2
100
AcDbBlockReference
  2
_DOTSMALL
 10
8863.599999999998
 20
7435.122805256066
 30
0.0
 41
100.0
 42
100.0
 43
100.0
  0
MTEXT
  5
1F875
330
1F86F
100
AcDbEntity
  8
寸法
 62
     7
 48
50.0
100
AcDbMText
 10
8478.599999999998
 20
7535.122805256065
 30
0.0
 40
120.0
 41
0.0
 71
     5
 72
     1
  1
\A1;770
  7
STYLE1
 73
     1
 44
1.0
1001
ACAD
1000
MTEXTBEGIN
1070
    73
1070
     1
1070
    44
1040
1.0
1070
    74
1070
     0
1000
MTEXTEND
  0
POINT
  5
1F876
330
1F86F
100
AcDbEntity
  8
DEFPOINTS
 62
     0
 48
50.0
100
AcDbPoint
 10
8093.6
 20
6416.246300175031
 30
0.0
  0
POINT
  5
1F877
330
1F86F
100
AcDbEntity
  8
DEFPOINTS
 62
     0
 48
50.0
100
AcDbPoint
 10
8863.599999999998
 20
7019.246300175035
 30
0.0
  0
POINT
  5
1F878
330
1F86F
100
AcDbEntity
  8
DEFPOINTS
 62
     0
 48
50.0
100
AcDbPoint
 10
8863.599999999998
 20
7435.122805256066
 30
0.0
  0
ENDBLK
  5
1F87A
330
1F86F
100
AcDbEntity
  8
0
 48
50.0
100
AcDbBlockEnd
  0
BLOCK
  5
1FB49
330
1FB3F
100
AcDbEntity
  8
0
 48
50.0
100
AcDbBlockBegin
  2
*D23
 70
     1
 10
0.0
 20
0.0
 30
0.0
  3
*D23
  1

  0
LINE
  5
1FB88
330
1FB3F
100
AcDbEntity
  8
寸法
 62
     0
 48
50.0
370
    -2
100
AcDbLine
 10
6153.219423345707
 20
2395.092144512237
 30
0.0
 11
6153.219423345707
 21
2765.092144512237
 31
0.0
  0
LINE
  5
1FB89
330
1FB3F
100
AcDbEntity
  8
寸法
 62
     0
 48
50.0
370
    -2
100
AcDbLine
 10
5961.219423345707
 20
2395.092144512237
 30
0.0
 11
5961.219423345707
 21
2765.092144512237
 31
0.0
  0
LINE
  5
1FB8A
330
1FB3F
100
AcDbEntity
  8
寸法
 62
     0
 48
50.0
370
    -2
100
AcDbLine
 10
6153.219423345707
 20
2690.092144512237
 30
0.0
 11
5961.219423345707
 21
2690.092144512237
 31
0.0
  0
MTEXT
  5
1FB8B
330
1FB3F
100
AcDbEntity
  8
寸法
 62
     7
 48
50.0
100
AcDbMText
 10
6068.445753690905
 20
3014.774716208145
 30
0.0
 40
150.0
 41
0.0
 71
     5
 72
     1
  1
\A1;120\P170
  7
STYLE1
 73
     1
 44
1.0
1001
ACAD
1000
MTEXTBEGIN
1070
    73
1070
     1
1070
    44
1040
1.0
1070
    74
1070
     0
1000
MTEXTEND
  0
INSERT
  5
1FB8C
330
1FB3F
100
AcDbEntity
  8
寸法
 62
     0
 48
50.0
370
    -2
100
AcDbBlockReference
  2
_DOTSMALL
 10
6153.219423345707
 20
2690.092144512237
 30
0.0
 41
125.0
 42
125.0
 43
125.0
  0
INSERT
  5
1FB8D
330
1FB3F
100
AcDbEntity
  8
寸法
 62
     0
 48
50.0
370
    -2
100
AcDbBlockReference
  2
_DOTSMALL
 10
5961.219423345707
 20
2690.092144512237
 30
0.0
 41
125.0
 42
125.0
 43
125.0
 50
180.0
  0
POINT
  5
1FB8E
330
1FB3F
100
AcDbEntity
  8
DEFPOINTS
 62
     0
 48
50.0
100
AcDbPoint
 10
6153.219423345707
 20
2370.092144512237
 30
0.0
  0
POINT
  5
1FB8F
330
1FB3F
100
AcDbEntity
  8
DEFPOINTS
 62
     0
 48
50.0
100
AcDbPoint
 10
5961.219423345707
 20
2370.092144512237
 30
0.0
  0
POINT
  5
1FB90
330
1FB3F
100
AcDbEntity
  8
DEFPOINTS
 62
     0
 48
50.0
100
AcDbPoint
 10
5961.219423345707
 20
2690.092144512237
 30
0.0
  0
ENDBLK
  5
1FB4A
330
1FB3F
100
AcDbEntity
  8
0
 48
50.0
100
AcDbBlockEnd
  0
BLOCK
  5
1FB55
330
1FB4B
100
AcDbEntity
  8
0
 48
50.0
100
AcDbBlockBegin
  2
*D24
 70
     1
 10
0.0
 20
0.0
 30
0.0
  3
*D24
  1

  0
LINE
  5
1FB91
330
1FB4B
100
AcDbEntity
  8
寸法
 62
     0
 48
50.0
370
    -2
100
AcDbLine
 10
5833.219423345707
 20
1433.092144512237
 30
0.0
 11
5833.219423345707
 21
972.6625065070766
 31
0.0
  0
LINE
  5
1FB92
330
1FB4B
100
AcDbEntity
  8
寸法
 62
     0
 48
50.0
370
    -2
100
AcDbLine
 10
6281.219423345707
 20
1433.092144512237
 30
0.0
 11
6281.219423345707
 21
972.6625065070766
 31
0.0
  0
LINE
  5
1FB93
330
1FB4B
100
AcDbEntity
  8
寸法
 62
     0
 48
50.0
370
    -2
100
AcDbLine
 10
5833.219423345707
 20
1047.662506507077
 30
0.0
 11
6281.219423345707
 21
1047.662506507077
 31
0.0
  0
INSERT
  5
1FB94
330
1FB4B
100
AcDbEntity
  8
寸法
 62
     0
 48
50.0
370
    -2
100
AcDbBlockReference
  2
_DOTSMALL
 10
5833.219423345707
 20
1047.662506507077
 30
0.0
 41
125.0
 42
125.0
 43
125.0
 50
180.0
  0
INSERT
  5
1FB95
330
1FB4B
100
AcDbEntity
  8
寸法
 62
     0
 48
50.0
370
    -2
100
AcDbBlockReference
  2
_DOTSMALL
 10
6281.219423345707
 20
1047.662506507077
 30
0.0
 41
125.0
 42
125.0
 43
125.0
  0
MTEXT
  5
1FB96
330
1FB4B
100
AcDbEntity
  8
寸法
 62
     7
 48
50.0
100
AcDbMText
 10
6037.122664667484
 20
1147.662506507076
 30
0.0
 40
150.0
 41
0.0
 71
     5
 72
     1
  1
\A1;300
  7
STYLE1
 73
     1
 44
1.0
1001
ACAD
1000
MTEXTBEGIN
1070
    73
1070
     1
1070
    44
1040
1.0
1070
    74
1070
     0
1000
MTEXTEND
  0
POINT
  5
1FB97
330
1FB4B
100
AcDbEntity
  8
DEFPOINTS
 62
     0
 48
50.0
100
AcDbPoint
 10
5833.219423345707
 20
1458.092144512237
 30
0.0
  0
POINT
  5
1FB98
330
1FB4B
100
AcDbEntity
  8
DEFPOINTS
 62
     0
 48
50.0
100
AcDbPoint
 10
6281.219423345707
 20
1458.092144512237
 30
0.0
  0
POINT
  5
1FB99
330
1FB4B
100
AcDbEntity
  8
DEFPOINTS
 62
     0
 48
50.0
100
AcDbPoint
 10
6281.219423345707
 20
1047.662506507077
 30
0.0
  0
ENDBLK
  5
1FB56
330
1FB4B
100
AcDbEntity
  8
0
 48
50.0
100
AcDbBlockEnd
  0
BLOCK
  5
1FB61
330
1FB57
100
AcDbEntity
  8
0
 48
50.0
100
AcDbBlockBegin
  2
*D25
 70
     1
 10
0.0
 20
0.0
 30
0.0
  3
*D25
  1

  0
LINE
  5
1FB9A
330
1FB57
100
AcDbEntity
  8
寸法
 62
     0
 48
50.0
370
    -2
100
AcDbLine
 10
5936.219423345708
 20
2370.092144512237
 30
0.0
 11
5151.182184783968
 21
2370.092144512237
 31
0.0
  0
LINE
  5
1FB9B
330
1FB57
100
AcDbEntity
  8
寸法
 62
     0
 48
50.0
370
    -2
100
AcDbLine
 10
5728.219423345711
 20
1586.092144512236
 30
0.0
 11
5151.182184783968
 21
1586.092144512237
 31
0.0
  0
LINE
  5
1FB9C
330
1FB57
100
AcDbEntity
  8
寸法
 62
     0
 48
50.0
370
    -2
100
AcDbLine
 10
5226.182184783969
 20
2370.092144512237
 30
0.0
 11
5226.182184783968
 21
1586.092144512237
 31
0.0
  0
INSERT
  5
1FB9D
330
1FB57
100
AcDbEntity
  8
寸法
 62
     0
 48
50.0
370
    -2
100
AcDbBlockReference
  2
_DOTSMALL
 10
5226.182184783969
 20
2370.092144512237
 30
0.0
 41
125.0
 42
125.0
 43
125.0
 50
90.0
  0
INSERT
  5
1FB9E
330
1FB57
100
AcDbEntity
  8
寸法
 62
     0
 48
50.0
370
    -2
100
AcDbBlockReference
  2
_DOTSMALL
 10
5226.182184783968
 20
1586.092144512237
 30
0.0
 41
125.0
 42
125.0
 43
125.0
 50
270.0
  0
MTEXT
  5
1FB9F
330
1FB57
100
AcDbEntity
  8
寸法
 62
     7
 48
50.0
100
AcDbMText
 10
5126.182184783967
 20
1957.632294168237
 30
0.0
 40
150.0
 41
0.0
 71
     5
 72
     1
  1
\A1;540
  7
STYLE1
 11
0.0000000000000001
 21
1.0
 31
0.0
 73
     1
 44
1.0
1001
ACAD
1000
MTEXTBEGIN
1070
    73
1070
     1
1070
    44
1040
1.0
1070
    74
1070
     0
1000
MTEXTEND
  0
POINT
  5
1FBA0
330
1FB57
100
AcDbEntity
  8
DEFPOINTS
 62
     0
 48
50.0
100
AcDbPoint
 10
5961.219423345707
 20
2370.092144512237
 30
0.0
  0
POINT
  5
1FBA1
330
1FB57
100
AcDbEntity
  8
DEFPOINTS
 62
     0
 48
50.0
100
AcDbPoint
 10
5753.219423345711
 20
1586.092144512236
 30
0.0
  0
POINT
  5
1FBA2
330
1FB57
100
AcDbEntity
  8
DEFPOINTS
 62
     0
 48
50.0
100
AcDbPoint
 10
5226.182184783968
 20
1586.092144512237
 30
0.0
  0
ENDBLK
  5
1FB62
330
1FB57
100
AcDbEntity
  8
0
 48
50.0
100
AcDbBlockEnd
  0
BLOCK
  5
1FB6D
330
1FB63
100
AcDbEntity
  8
0
 48
50.0
100
AcDbBlockBegin
  2
*D26
 70
     1
 10
0.0
 20
0.0
 30
0.0
  3
*D26
  1

  0
LINE
  5
1FBA3
330
1FB63
100
AcDbEntity
  8
寸法
 62
     0
 48
50.0
370
    -2
100
AcDbLine
 10
5808.219423345708
 20
1826.092144512237
 30
0.0
 11
5615.799109613249
 21
1826.092144512237
 31
0.0
  0
LINE
  5
1FBA4
330
1FB63
100
AcDbEntity
  8
寸法
 62
     0
 48
50.0
370
    -2
100
AcDbLine
 10
5728.219423345711
 20
1586.092144512236
 30
0.0
 11
5615.799109613249
 21
1586.092144512237
 31
0.0
  0
LINE
  5
1FBA5
330
1FB63
100
AcDbEntity
  8
寸法
 62
     0
 48
50.0
370
    -2
100
AcDbLine
 10
5690.799109613248
 20
1826.092144512237
 30
0.0
 11
5690.799109613248
 21
1586.092144512236
 31
0.0
  0
MTEXT
  5
1FBA6
330
1FB63
100
AcDbEntity
  8
寸法
 62
     7
 48
50.0
100
AcDbMText
 10
5590.799109613248
 20
1706.092144512236
 30
0.0
 40
150.0
 41
0.0
 71
     5
 72
     1
  1
\A1;150
  7
STYLE1
 11
0.0000000000000001
 21
1.0
 31
0.0
 73
     1
 44
1.0
1001
ACAD
1000
MTEXTBEGIN
1070
    73
1070
     1
1070
    44
1040
1.0
1070
    74
1070
     0
1000
MTEXTEND
  0
INSERT
  5
1FBA7
330
1FB63
100
AcDbEntity
  8
寸法
 62
     0
 48
50.0
370
    -2
100
AcDbBlockReference
  2
_DOTSMALL
 10
5690.799109613248
 20
1826.092144512237
 30
0.0
 41
125.0
 42
125.0
 43
125.0
 50
90.0
  0
INSERT
  5
1FBA8
330
1FB63
100
AcDbEntity
  8
寸法
 62
     0
 48
50.0
370
    -2
100
AcDbBlockReference
  2
_DOTSMALL
 10
5690.799109613248
 20
1586.092144512236
 30
0.0
 41
125.0
 42
125.0
 43
125.0
 50
270.0
  0
POINT
  5
1FBA9
330
1FB63
100
AcDbEntity
  8
DEFPOINTS
 62
     0
 48
50.0
100
AcDbPoint
 10
5833.219423345707
 20
1826.092144512237
 30
0.0
  0
POINT
  5
1FBAA
330
1FB63
100
AcDbEntity
  8
DEFPOINTS
 62
     0
 48
50.0
100
AcDbPoint
 10
5753.219423345711
 20
1586.092144512236
 30
0.0
  0
POINT
  5
1FBAB
330
1FB63
100
AcDbEntity
  8
DEFPOINTS
 62
     0
 48
50.0
100
AcDbPoint
 10
5690.799109613248
 20
1586.092144512236
 30
0.0
  0
ENDBLK
  5
1FB6E
330
1FB63
100
AcDbEntity
  8
0
 48
50.0
100
AcDbBlockEnd
  0
BLOCK
  5
1FB7B
330
1FB6F
100
AcDbEntity
  8
0
 48
50.0
100
AcDbBlockBegin
  2
*D27
 70
     1
 10
0.0
 20
0.0
 30
0.0
  3
*D27
  1

  0
LINE
  5
1FBAC
330
1FB6F
100
AcDbEntity
  8
寸法
 62
     0
 48
50.0
370
    -2
100
AcDbLine
 10
7913.058736522902
 20
2422.852144512238
 30
0.0
 11
8652.127336291746
 21
2422.852144512238
 31
0.0
  0
LINE
  5
1FBAD
330
1FB6F
100
AcDbEntity
  8
寸法
 62
     0
 48
50.0
370
    -2
100
AcDbLine
 10
8100.258736522901
 20
2370.092144512237
 30
0.0
 11
8652.127336291746
 21
2370.092144512237
 31
0.0
  0
LINE
  5
1FBAE
330
1FB6F
100
AcDbEntity
  8
寸法
 62
     0
 48
50.0
370
    -2
100
AcDbLine
 10
8577.127336291745
 20
2422.852144512238
 30
0.0
 11
8577.127336291745
 21
2370.092144512237
 31
0.0
  0
LINE
  5
1FBAF
330
1FB6F
100
AcDbEntity
  8
寸法
 62
     0
 48
50.0
370
    -2
100
AcDbLine
 10
8577.127336291745
 20
2396.472144512237
 30
0.0
 11
8853.182002410774
 21
2369.968186908024
 31
0.0
  0
LINE
  5
1FBB0
330
1FB6F
100
AcDbEntity
  8
寸法
 62
     0
 48
50.0
370
    -2
100
AcDbLine
 10
8853.182002410774
 20
2369.968186908024
 30
0.0
 11
8853.182002410774
 21
1754.945928354317
 31
0.0
  0
MTEXT
  5
1FBB1
330
1FB6F
100
AcDbEntity
  8
寸法
 62
     7
 48
50.0
100
AcDbMText
 10
8753.167238631247
 20
2062.457057631172
 30
0.0
 40
150.0
 41
0.0
 71
     5
 72
     1
  1
\A1;20～25
  7
STYLE1
 11
0.0000000000000001
 21
1.0
 31
0.0
 73
     1
 44
1.0
1001
ACAD
1000
MTEXTBEGIN
1070
    73
1070
     1
1070
    44
1040
1.0
1070
    74
1070
     0
1000
MTEXTEND
  0
INSERT
  5
1FBB2
330
1FB6F
100
AcDbEntity
  8
寸法
 62
     0
 48
50.0
370
    -2
100
AcDbBlockReference
  2
_DOTSMALL
 10
8577.127336291745
 20
2422.852144512238
 30
0.0
 41
125.0
 42
125.0
 43
125.0
 50
90.0
  0
INSERT
  5
1FBB3
330
1FB6F
100
AcDbEntity
  8
寸法
 62
     0
 48
50.0
370
    -2
100
AcDbBlockReference
  2
_DOTSMALL
 10
8577.127336291745
 20
2370.092144512237
 30
0.0
 41
125.0
 42
125.0
 43
125.0
 50
270.0
  0
POINT
  5
1FBB4
330
1FB6F
100
AcDbEntity
  8
DEFPOINTS
 62
     0
 48
50.0
100
AcDbPoint
 10
7888.058736522902
 20
2422.852144512238
 30
0.0
  0
POINT
  5
1FBB5
330
1FB6F
100
AcDbEntity
  8
DEFPOINTS
 62
     0
 48
50.0
100
AcDbPoint
 10
8075.258736522902
 20
2370.092144512237
 30
0.0
  0
POINT
  5
1FBB6
330
1FB6F
100
AcDbEntity
  8
DEFPOINTS
 62
     0
 48
50.0
100
AcDbPoint
 10
8577.127336291745
 20
2370.092144512237
 30
0.0
  0
ENDBLK
  5
1FB7C
330
1FB6F
100
AcDbEntity
  8
0
 48
50.0
100
AcDbBlockEnd
  0
BLOCK
  5
1FB86
330
1FB7D
100
AcDbEntity
  8
0
 48
50.0
100
AcDbBlockBegin
  2
*D28
 70
     1
 10
0.0
 20
0.0
 30
0.0
  3
*D28
  1

  0
LINE
  5
1FBB7
330
1FB7D
100
AcDbEntity
  8
寸法
 62
     0
 48
50.0
370
    -2
100
AcDbLine
 10
8100.258736522901
 20
2046.092144512236
 30
0.0
 11
8652.127336291746
 21
2046.092144512236
 31
0.0
  0
LINE
  5
1FBB8
330
1FB7D
100
AcDbEntity
  8
寸法
 62
     0
 48
50.0
370
    -2
100
AcDbLine
 10
8577.127336291745
 20
2370.092144512237
 30
0.0
 11
8577.127336291745
 21
2046.092144512236
 31
0.0
  0
INSERT
  5
1FBB9
330
1FB7D
100
AcDbEntity
  8
寸法
 62
     0
 48
50.0
370
    -2
100
AcDbBlockReference
  2
_DOTSMALL
 10
8577.127336291745
 20
2370.092144512237
 30
0.0
 41
125.0
 42
125.0
 43
125.0
 50
90.0
  0
INSERT
  5
1FBBA
330
1FB7D
100
AcDbEntity
  8
寸法
 62
     0
 48
50.0
370
    -2
100
AcDbBlockReference
  2
_DOTSMALL
 10
8577.127336291745
 20
2046.092144512236
 30
0.0
 41
125.0
 42
125.0
 43
125.0
 50
270.0
  0
MTEXT
  5
1FBBB
330
1FB7D
100
AcDbEntity
  8
寸法
 62
     7
 48
50.0
100
AcDbMText
 10
8477.127336291745
 20
2208.092144512238
 30
0.0
 40
150.0
 41
0.0
 71
     5
 72
     1
  1
\A1;180
  7
STYLE1
 11
0.0000000000000001
 21
1.0
 31
0.0
 73
     1
 44
1.0
1001
ACAD
1000
MTEXTBEGIN
1070
    73
1070
     1
1070
    44
1040
1.0
1070
    74
1070
     0
1000
MTEXTEND
  0
POINT
  5
1FBBC
330
1FB7D
100
AcDbEntity
  8
DEFPOINTS
 62
     0
 48
50.0
100
AcDbPoint
 10
8075.258736522902
 20
2370.092144512237
 30
0.0
  0
POINT
  5
1FBBD
330
1FB7D
100
AcDbEntity
  8
DEFPOINTS
 62
     0
 48
50.0
100
AcDbPoint
 10
8075.258736522902
 20
2046.092144512236
 30
0.0
  0
POINT
  5
1FBBE
330
1FB7D
100
AcDbEntity
  8
DEFPOINTS
 62
     0
 48
50.0
100
AcDbPoint
 10
8577.127336291745
 20
2046.092144512236
 30
0.0
  0
ENDBLK
  5
1FB87
330
1FB7D
100
AcDbEntity
  8
0
 48
50.0
100
AcDbBlockEnd
  0
BLOCK
  5
1FC08
330
1FBFC
100
AcDbEntity
  8
0
 48
50.0
100
AcDbBlockBegin
  2
*D29
 70
     1
 10
0.0
 20
0.0
 30
0.0
  3
*D29
  1

  0
LINE
  5
1FC1E
330
1FBFC
100
AcDbEntity
  8
寸法
 62
     0
 48
50.0
370
    -2
100
AcDbLine
 10
8633.599999999999
 20
6769.246300175033
 30
0.0
 11
8633.599999999999
 21
6528.46495758829
 31
0.0
  0
LINE
  5
1FC1F
330
1FBFC
100
AcDbEntity
  8
寸法
 62
     0
 48
50.0
370
    -2
100
AcDbLine
 10
8743.599999999998
 20
6769.246300175035
 30
0.0
 11
8743.599999999998
 21
6528.46495758829
 31
0.0
  0
LINE
  5
1FC20
330
1FBFC
100
AcDbEntity
  8
寸法
 62
     0
 48
50.0
370
    -2
100
AcDbLine
 10
8633.599999999999
 20
6588.46495758829
 30
0.0
 11
8743.599999999998
 21
6588.46495758829
 31
0.0
  0
MTEXT
  5
1FC21
330
1FBFC
100
AcDbEntity
  8
寸法
 62
     7
 48
50.0
100
AcDbMText
 10
8519.011190266654
 20
6642.926744252149
 30
0.0
 40
120.0
 41
0.0
 71
     5
 72
     1
  1
\A1;110
  7
STYLE1
 73
     1
 44
1.0
1001
ACAD
1000
MTEXTBEGIN
1070
    73
1070
     1
1070
    44
1040
1.0
1070
    74
1070
     0
1000
MTEXTEND
  0
INSERT
  5
1FC22
330
1FBFC
100
AcDbEntity
  8
寸法
 62
     0
 48
50.0
370
    -2
100
AcDbBlockReference
  2
_DOTSMALL
 10
8633.599999999999
 20
6588.46495758829
 30
0.0
 41
100.0
 42
100.0
 43
100.0
 50
180.0
  0
INSERT
  5
1FC23
330
1FBFC
100
AcDbEntity
  8
寸法
 62
     0
 48
50.0
370
    -2
100
AcDbBlockReference
  2
_DOTSMALL
 10
8743.599999999998
 20
6588.46495758829
 30
0.0
 41
100.0
 42
100.0
 43
100.0
  0
POINT
  5
1FC24
330
1FBFC
100
AcDbEntity
  8
DEFPOINTS
 62
     0
 48
50.0
100
AcDbPoint
 10
8633.599999999999
 20
6789.246300175033
 30
0.0
  0
POINT
  5
1FC25
330
1FBFC
100
AcDbEntity
  8
DEFPOINTS
 62
     0
 48
50.0
100
AcDbPoint
 10
8743.599999999998
 20
6789.246300175034
 30
0.0
  0
POINT
  5
1FC26
330
1FBFC
100
AcDbEntity
  8
DEFPOINTS
 62
     0
 48
50.0
100
AcDbPoint
 10
8743.599999999998
 20
6588.46495758829
 30
0.0
  0
ENDBLK
  5
1FC09
330
1FBFC
100
AcDbEntity
  8
0
 48
50.0
100
AcDbBlockEnd
  0
ENDSEC
  0
SECTION
  2
ENTITIES
  0
LINE
  5
10B57
330
747D
100
AcDbEntity
  8
補助
  6
PHANTOM
 62
   230
 48
50.0
100
AcDbLine
 10
139.9999999999995
 20
11409.6
 30
0.0
 11
16307.2
 21
11409.6
 31
0.0
  0
LINE
  5
10B59
330
747D
100
AcDbEntity
  8
仕様書枠
  6
Continuous
 48
50.0
100
AcDbLine
 10
13107.2
 20
1200.0
 30
0.0
 11
13107.2
 21
-0.0000000000000729
 31
0.0
  0
LINE
  5
10B5C
330
747D
100
AcDbEntity
  8
仕様書枠
 48
50.0
100
AcDbLine
 10
16307.2
 20
1200.0
 30
0.0
 11
16307.2
 21
-0.0000000000000909
 31
0.0
  0
LINE
  5
10B5D
330
747D
100
AcDbEntity
  8
仕様書枠
 48
50.0
100
AcDbLine
 10
140.0
 20
0.0
 30
0.0
 11
16307.2
 21
-0.0000000000000909
 31
0.0
  0
LINE
  5
10B5E
330
747D
100
AcDbEntity
  8
補助
  6
PHANTOM
 62
   230
 48
50.0
100
AcDbLine
 10
16307.2
 20
11409.6
 30
0.0
 11
16307.2
 21
1200.0
 31
0.0
  0
LINE
  5
10B6C
330
747D
100
AcDbEntity
  8
仕様書枠
 48
50.0
100
AcDbLine
 10
13107.2
 20
1200.0
 30
0.0
 11
16307.2
 21
1200.0
 31
0.0
  0
LINE
  5
10B6D
330
747D
100
AcDbEntity
  8
補助
  6
PHANTOM
 62
   230
 48
50.0
100
AcDbLine
 10
13107.2
 20
11409.6
 30
0.0
 11
13107.2
 21
4800.0
 31
0.0
  0
LINE
  5
10B6F
330
747D
100
AcDbEntity
  8
補助
  6
PHANTOM
 62
   230
 48
50.0
100
AcDbLine
 10
13107.2
 20
4800.0
 30
0.0
 11
16307.2
 21
4800.0
 31
0.0
  0
LINE
  5
10B72
330
747D
100
AcDbEntity
  8
文字
 62
     7
 48
50.0
100
AcDbLine
 10
13187.2
 20
400.0
 30
0.0
 11
16227.2
 21
400.0
 31
0.0
  0
TEXT
  5
10B73
330
747D
100
AcDbEntity
  8
文字
 62
     7
 48
50.0
100
AcDbText
 10
13162.9790565769
 20
895.0906074299405
 30
0.0
 40
200.0
  1
基 礎 図
  7
STYLE2
100
AcDbText
  0
TEXT
  5
10B74
330
747D
100
AcDbEntity
  8
文字
 62
     7
 48
50.0
100
AcDbText
 10
13201.43669998441
 20
477.2740661031255
 30
0.0
 40
160.0
  1
機種名
  7
STYLE2
100
AcDbText
  0
LINE
  5
10B7B
330
747D
100
AcDbEntity
  8
仕様書枠
 48
50.0
100
AcDbLine
 10
13107.2
 20
800.0
 30
0.0
 11
14251.2
 21
800.0
 31
0.0
  0
LINE
  5
10B88
330
747D
100
AcDbEntity
  8
仕様書枠
  6
Continuous
 48
50.0
100
AcDbLine
 10
14251.2
 20
1200.0
 30
0.0
 11
14251.2
 21
800.0
 31
0.0
  0
TEXT
  5
14DEF
330
747D
100
AcDbEntity
  8
文字
 62
     7
 48
50.0
100
AcDbText
 10
14641.2525855784
 20
871.1744590657925
 30
0.0
 40
100.0
  1
～一般型・多雪地型～
  7
STYLE2
100
AcDbText
  0
TEXT
  5
15A76
330
747D
100
AcDbEntity
  8
文字
 62
     7
 48
50.0
100
AcDbText
 10
14478.98566430227
 20
499.5983841039501
 30
0.0
 40
160.0
  1
ＮＸＮ－２０Ｓ
  7
STYLE2
100
AcDbText
  0
TEXT
  5
1D002
330
747D
100
AcDbEntity
  8
文字
 62
     7
 48
50.0
100
AcDbText
 10
13188.16259899338
 20
246.7109242801889
 30
0.0
 40
80.0
  1
※寒冷地等は地域の実情に合わせた基礎にして下さい。
  7
STYLE2
100
AcDbText
  0
DIMENSION
  5
1D91B
330
747D
100
AcDbEntity
  8
寸法
 48
50.0
100
AcDbDimension
  2
*D2
 10
7718.33121740607
 20
5939.246300175039
 30
0.0
 11
7718.331217406069
 21
6175.293544269528
 31
0.0
 70
   160
 71
     5
 42
130.0000000000018
  3
INABA_S40G
100
AcDbAlignedDimension
 13
7553.599999999999
 23
5809.246300175036
 33
0.0
 14
7553.599999999999
 24
5939.246300175039
 34
0.0
 50
90.0
100
AcDbRotatedDimension
1001
ACAD
1000
DSTYLE
1002
{
1070
   174
1070
     0
1070
   272
1070
     1
1070
   288
1070
     0
1070
   341
1005
0
1002
}
  0
DIMENSION
  5
1D91C
330
747D
100
AcDbEntity
  8
寸法
 48
50.0
100
AcDbDimension
  2
*D3
 10
7718.33121740607
 20
5639.246300175036
 30
0.0
 11
7718.331217406069
 21
5403.199056080547
 31
0.0
 70
   160
 71
     5
 42
170.0000000000018
  3
INABA_S40G
100
AcDbAlignedDimension
 13
7553.599999999999
 23
5809.246300175039
 33
0.0
 14
7553.599999999999
 24
5639.246300175036
 34
0.0
 50
90.0
100
AcDbRotatedDimension
1001
ACAD
1000
DSTYLE
1002
{
1070
   174
1070
     0
1070
   272
1070
     1
1070
   288
1070
     0
1070
   341
1005
0
1002
}
  0
DIMENSION
  5
1D91D
330
747D
100
AcDbEntity
  8
寸法
 48
50.0
100
AcDbDimension
  2
*D4
 10
7446.6
 20
7624.306910564965
 30
0.0
 11
8093.6
 21
7724.318721588587
 31
0.0
 70
    32
 71
     5
 42
1294.0
  3
INABA_S40G
100
AcDbAlignedDimension
 13
8740.599999999998
 23
6946.246300175035
 33
0.0
 14
7446.6
 24
6946.246300175035
 34
0.0
100
AcDbRotatedDimension
1001
ACAD
1000
DSTYLE
1002
{
1070
   174
1070
     0
1070
   272
1070
     1
1070
   288
1070
     0
1070
   341
1005
0
1002
}
  0
LINE
  5
1D91E
330
747D
100
AcDbEntity
  8
部品1
 48
50.0
100
AcDbLine
 10
8633.599999999999
 20
5809.24630017505
 30
0.0
 11
7553.599999999997
 21
5809.246300175036
 31
0.0
  0
LINE
  5
1D91F
330
747D
100
AcDbEntity
  8
部品1
 48
50.0
100
AcDbLine
 10
8633.599999999999
 20
6899.246300175033
 30
0.0
 11
7553.599999999997
 21
6899.246300175035
 31
0.0
  0
DIMENSION
  5
1D920
330
747D
100
AcDbEntity
  8
寸法
 48
50.0
100
AcDbDimension
  2
*D5
 10
8863.599999999998
 20
7836.767606081801
 30
0.0
 11
8093.6
 21
7936.767606081801
 31
0.0
 70
    32
 71
     5
 42
1540.0
  3
INABA_S40G
100
AcDbAlignedDimension
 13
7323.599999999998
 23
7019.246300175035
 33
0.0
 14
8863.599999999998
 24
7019.246300175035
 34
0.0
100
AcDbRotatedDimension
1001
ACAD
1000
DSTYLE
1002
{
1070
   174
1070
     0
1070
   272
1070
     1
1070
   288
1070
     0
1070
   341
1005
0
1002
}
  0
LINE
  5
1D921
330
747D
100
AcDbEntity
  8
部品1
 48
50.0
100
AcDbLine
 10
8863.599999999998
 20
5639.246300175052
 30
0.0
 11
7323.599999999998
 21
5639.246300175032
 31
0.0
  0
LINE
  5
1D922
330
747D
100
AcDbEntity
  8
部品1
 48
50.0
100
AcDbLine
 10
8863.599999999998
 20
7019.246300175035
 30
0.0
 11
7323.599999999998
 21
7019.246300175034
 31
0.0
  0
LINE
  5
1D923
330
747D
100
AcDbEntity
  8
想像線
 48
10.0
100
AcDbLine
 10
8908.599999999998
 20
5584.246300175031
 30
0.0
 11
7278.6
 21
5584.246300175036
 31
0.0
  0
LINE
  5
1D924
330
747D
100
AcDbEntity
  8
想像線
 48
10.0
100
AcDbLine
 10
7278.6
 20
7094.246300175035
 30
0.0
 11
8908.600000000003
 21
7094.246300175038
 31
0.0
  0
DIMENSION
  5
1D925
330
747D
100
AcDbEntity
  8
寸法
 48
50.0
100
AcDbDimension
  2
*D6
 10
7323.599999999998
 20
7624.306910564965
 30
0.0
 11
7085.11471862576
 21
7624.306910564965
 31
0.0
 70
   160
 71
     5
 42
123.0
  3
INABA_S40G
100
AcDbAlignedDimension
 13
7446.6
 23
6946.246300175035
 33
0.0
 14
7323.599999999998
 24
7019.246300175035
 34
0.0
100
AcDbRotatedDimension
1001
ACAD
1000
DSTYLE
1002
{
1070
   174
1070
     0
1070
   272
1070
     1
1070
   288
1070
     0
1070
   341
1005
0
1002
}
  0
DIMENSION
  5
1D926
330
747D
100
AcDbEntity
  8
寸法
 48
50.0
100
AcDbDimension
  2
*D7
 10
7323.599999999998
 20
7836.767606081803
 30
0.0
 11
7301.099999999997
 21
7836.767606081803
 31
0.0
 70
   160
  1
a
 71
     5
 42
45.00000000000364
  3
INABA_S40G
100
AcDbAlignedDimension
 13
7278.599999999994
 23
7624.306910564965
 33
0.0
 14
7323.599999999998
 24
7019.246300175035
 34
0.0
100
AcDbRotatedDimension
1001
ACAD
1000
DSTYLE
1002
{
1070
   174
1070
     0
1070
   272
1070
     1
1070
   288
1070
     0
1070
   341
1005
0
1002
}
  0
DIMENSION
  5
1D927
330
747D
100
AcDbEntity
  8
寸法
 48
50.0
100
AcDbDimension
  2
*D8
 10
6827.657733986177
 20
5837.246300175037
 30
0.0
 11
6827.657733986176
 21
6329.246300175035
 31
0.0
 70
   160
 71
     5
 42
1058.999999999998
  3
INABA_S40G
100
AcDbAlignedDimension
 13
7396.599999999999
 23
6896.246300175035
 33
0.0
 14
7396.600000000006
 24
5837.246300175037
 34
0.0
 50
90.0
100
AcDbRotatedDimension
1001
ACAD
1000
DSTYLE
1002
{
1070
   174
1070
     0
1070
   272
1070
     1
1070
   288
1070
     0
1070
   341
1005
0
1002
}
  0
LINE
  5
1D928
330
747D
100
AcDbEntity
  8
部品1
 48
50.0
100
AcDbLine
 10
7443.599999999999
 20
5939.246300175036
 30
0.0
 11
7443.599999999999
 21
6789.246300175031
 31
0.0
  0
DIMENSION
  5
1D929
330
747D
100
AcDbEntity
  8
寸法
 48
50.0
100
AcDbDimension
  2
*D9
 10
6582.164931848213
 20
5639.246300175035
 30
0.0
 11
6582.164931848213
 21
6329.246300175035
 31
0.0
 70
   160
 71
     5
 42
1380.0
  3
INABA_S40G
100
AcDbAlignedDimension
 13
7323.599999999998
 23
7019.246300175035
 33
0.0
 14
7323.599999999998
 24
5639.246300175035
 34
0.0
 50
90.0
100
AcDbRotatedDimension
1001
ACAD
1000
DSTYLE
1002
{
1070
   174
1070
     0
1070
   272
1070
     1
1070
   288
1070
     0
1070
   341
1005
0
1002
}
  0
LINE
  5
1D92A
330
747D
100
AcDbEntity
  8
部品1
 48
50.0
100
AcDbLine
 10
7323.599999999998
 20
5639.246300175035
 30
0.0
 11
7323.599999999998
 21
7019.246300175034
 31
0.0
  0
LINE
  5
1D92B
330
747D
100
AcDbEntity
  8
想像線
 48
10.0
100
AcDbLine
 10
7278.599999999999
 20
5584.246300175035
 30
0.0
 11
7278.599999999999
 21
7094.246300175038
 31
0.0
  0
DIMENSION
  5
1D92C
330
747D
100
AcDbEntity
  8
寸法
 48
50.0
100
AcDbDimension
  2
*D10
 10
6827.657733986177
 20
5639.246300175035
 30
0.0
 11
6827.657733986176
 21
5403.03664034538
 31
0.0
 70
   160
 71
     5
 42
198.0000000000018
  3
INABA_S40G
100
AcDbAlignedDimension
 13
7396.600000000006
 23
5837.246300175037
 33
0.0
 14
7323.599999999998
 24
5639.246300175035
 34
0.0
 50
90.0
100
AcDbRotatedDimension
1001
ACAD
1000
DSTYLE
1002
{
1070
   174
1070
     0
1070
   272
1070
     1
1070
   288
1070
     0
1070
   341
1005
0
1002
}
  0
DIMENSION
  5
1D92D
330
747D
100
AcDbEntity
  8
寸法
 48
50.0
100
AcDbDimension
  2
*D11
 10
6582.16493184821
 20
5584.246300175035
 30
0.0
 11
6582.16493184821
 21
5611.746300175036
 31
0.0
 70
   160
  1
b
 71
     5
 42
55.0
  3
INABA_S40G
100
AcDbAlignedDimension
 13
7323.599999999998
 23
5639.246300175035
 33
0.0
 14
6827.657733986177
 24
5584.246300175035
 34
0.0
 50
90.0
100
AcDbRotatedDimension
1001
ACAD
1000
DSTYLE
1002
{
1070
   174
1070
     0
1070
   272
1070
     1
1070
   288
1070
     0
1070
   341
1005
0
1002
}
  0
LINE
  5
1D92E
330
747D
100
AcDbEntity
  8
センター
 48
2.0
100
AcDbLine
 10
7446.600000000007
 20
5887.246300175037
 30
0.0
 11
7446.600000000007
 21
5787.246300175037
 31
0.0
  0
LINE
  5
1D92F
330
747D
100
AcDbEntity
  8
センター
 48
2.0
100
AcDbLine
 10
7396.600000000006
 20
5837.246300175037
 30
0.0
 11
7496.600000000007
 21
5837.246300175037
 31
0.0
  0
CIRCLE
  5
1D930
330
747D
100
AcDbEntity
  8
部品1
 48
50.0
100
AcDbCircle
 10
7446.600000000007
 20
5837.246300175037
 30
0.0
 40
35.0
  0
LINE
  5
1D931
330
747D
100
AcDbEntity
  8
部品1
 48
50.0
100
AcDbLine
 10
7553.599999999999
 20
5939.246300175039
 30
0.0
 11
7443.599999999999
 21
5939.246300175038
 31
0.0
  0
LINE
  5
1D932
330
747D
100
AcDbEntity
  8
部品1
 48
50.0
100
AcDbLine
 10
7553.599999999999
 20
5809.246300175036
 30
0.0
 11
7553.599999999999
 21
5939.246300175039
 31
0.0
  0
DIMENSION
  5
1D933
330
747D
100
AcDbEntity
  8
寸法
 48
50.0
100
AcDbDimension
  2
*D12
 10
6827.657733986177
 20
6896.246300175035
 30
0.0
 11
6827.657733986176
 21
7257.731581549276
 31
0.0
 70
   160
 71
     5
 42
123.0
  3
INABA_S40G
100
AcDbAlignedDimension
 13
7323.599999999998
 23
7019.246300175035
 33
0.0
 14
7396.599999999999
 24
6896.246300175035
 34
0.0
 50
90.0
100
AcDbRotatedDimension
1001
ACAD
1000
DSTYLE
1002
{
1070
   174
1070
     0
1070
   272
1070
     1
1070
   288
1070
     0
1070
   341
1005
0
1002
}
  0
DIMENSION
  5
1D934
330
747D
100
AcDbEntity
  8
寸法
 48
50.0
100
AcDbDimension
  2
*D13
 10
6582.16493184821
 20
7019.246300175035
 30
0.0
 11
6582.164931848208
 21
7056.746300175037
 31
0.0
 70
   160
  1
c
 71
     5
 42
75.0
  3
INABA_S40G
100
AcDbAlignedDimension
 13
6827.657733986177
 23
7094.246300175035
 33
0.0
 14
7323.599999999998
 24
7019.246300175035
 34
0.0
 50
90.0
100
AcDbRotatedDimension
1001
ACAD
1000
DSTYLE
1002
{
1070
   174
1070
     0
1070
   272
1070
     1
1070
   288
1070
     0
1070
   341
1005
0
1002
}
  0
LINE
  5
1D935
330
747D
100
AcDbEntity
  8
部品1
 48
50.0
100
AcDbLine
 10
7443.599999999999
 20
6429.246300175036
 30
0.0
 11
7323.599999999998
 21
6429.246300175035
 31
0.0
  0
LINE
  5
1D936
330
747D
100
AcDbEntity
  8
部品1
 48
50.0
100
AcDbLine
 10
7443.599999999998
 20
6229.246300175034
 30
0.0
 11
7323.599999999998
 21
6229.246300175034
 31
0.0
  0
LINE
  5
1D938
330
747D
100
AcDbEntity
  8
センター
 48
2.0
100
AcDbLine
 10
7446.6
 20
6946.246300175035
 30
0.0
 11
7446.6
 21
6846.246300175035
 31
0.0
  0
LINE
  5
1D939
330
747D
100
AcDbEntity
  8
センター
 48
2.0
100
AcDbLine
 10
7396.599999999999
 20
6896.246300175035
 30
0.0
 11
7496.599999999999
 21
6896.246300175035
 31
0.0
  0
CIRCLE
  5
1D93A
330
747D
100
AcDbEntity
  8
部品1
 48
50.0
100
AcDbCircle
 10
7446.6
 20
6896.246300175035
 30
0.0
 40
35.0
  0
LINE
  5
1D93B
330
747D
100
AcDbEntity
  8
部品1
 48
50.0
100
AcDbLine
 10
7553.599999999999
 20
6789.246300175031
 30
0.0
 11
7443.599999999999
 21
6789.246300175034
 31
0.0
  0
LINE
  5
1D93C
330
747D
100
AcDbEntity
  8
部品1
 48
50.0
100
AcDbLine
 10
7553.599999999999
 20
6789.246300175031
 30
0.0
 11
7553.599999999997
 21
6899.246300175035
 31
0.0
  0
DIMENSION
  5
1D93E
330
747D
100
AcDbEntity
  8
寸法
 48
50.0
100
AcDbDimension
  2
*D14
 10
8740.599999999998
 20
7624.306910564965
 30
0.0
 11
9102.085281374236
 21
7624.306910564965
 31
0.0
 70
   160
 71
     5
 42
123.0
  3
INABA_S40G
100
AcDbAlignedDimension
 13
8863.599999999998
 23
7019.246300175035
 33
0.0
 14
8740.599999999998
 24
6946.246300175035
 34
0.0
100
AcDbRotatedDimension
1001
ACAD
1000
DSTYLE
1002
{
1070
   174
1070
     0
1070
   272
1070
     1
1070
   288
1070
     0
1070
   341
1005
0
1002
}
  0
DIMENSION
  5
1D93F
330
747D
100
AcDbEntity
  8
寸法
 48
50.0
100
AcDbDimension
  2
*D15
 10
8908.599999999998
 20
7836.767606081801
 30
0.0
 11
8886.099999999998
 21
7836.767606081801
 31
0.0
 70
   160
  1
a
 71
     5
 42
45.0
  3
INABA_S40G
100
AcDbAlignedDimension
 13
8863.599999999998
 23
7019.246300175035
 33
0.0
 14
8908.599999999998
 24
7624.306910564965
 34
0.0
100
AcDbRotatedDimension
1001
ACAD
1000
DSTYLE
1002
{
1070
   174
1070
     0
1070
   272
1070
     1
1070
   288
1070
     0
1070
   341
1005
0
1002
}
  0
LEADER
  5
1D940
330
747D
100
AcDbEntity
  8
寸法
 48
50.0
100
AcDbLeader
  3
INABA_S40G
 71
     0
 73
     0
 74
     0
 75
     1
 40
120.0
 41
720.0000000000001
 76
     3
 10
8863.599999999998
 20
6329.246300175044
 30
0.0
 10
9113.148163484241
 20
6016.202358910128
 30
0.0
 10
9213.148163484241
 20
6016.202358910128
 30
0.0
340
1D941
1001
ACAD
1000
DSTYLE
1002
{
1070
   174
1070
     0
1070
   272
1070
     1
1070
   288
1070
     0
1070
   341
1005
0
1002
}
  0
MTEXT
  5
1D941
102
{ACAD_REACTORS
330
1D940
102
}
330
747D
100
AcDbEntity
  8
部品1
 62
     7
 48
50.0
100
AcDbMText
 10
9973.148163484243
 20
6116.202358910128
 30
0.0
 40
120.0
 41
0.0
 71
     6
 72
     1
  1
\A1;床下換気口
  7
STYLE1
 73
     1
 44
1.0
1001
ACAD
1000
MTEXTBEGIN
1070
    73
1070
     1
1070
    44
1040
1.0
1070
    74
1070
     0
1000
MTEXTEND
  0
DIMENSION
  5
1D942
330
747D
100
AcDbEntity
  8
寸法
 48
50.0
100
AcDbDimension
  2
*D16
 10
8743.6
 20
6588.46495758829
 30
0.0
 11
9099.647244094503
 21
6588.46495758829
 31
0.0
 70
   160
 71
     5
 42
119.9999999999981
  3
INABA_S40G
100
AcDbAlignedDimension
 13
8863.599999999998
 23
6789.246300175034
 33
0.0
 14
8743.6
 24
6789.246300175037
 34
0.0
100
AcDbRotatedDimension
1001
ACAD
1000
DSTYLE
1002
{
1070
   174
1070
     0
1070
   272
1070
     1
1070
   288
1070
     0
1070
   341
1005
0
1002
}
  0
TEXT
  5
1D943
330
747D
100
AcDbEntity
  8
部品1
 48
50.0
100
AcDbText
 10
8950.4200666784
 20
4944.359503395761
 30
0.0
 40
80.0
  1
(a=45,b=55,c=75)
  7
STYLE1
100
AcDbText
  0
TEXT
  5
1D944
330
747D
100
AcDbEntity
  8
部品1
 48
50.0
100
AcDbText
 10
8880.543179073518
 20
5064.0905495489
 30
0.0
 40
80.0
  1
※a,b,cは屋根の出幅です。
  7
STYLE1
100
AcDbText
  0
MTEXT
  5
1D945
102
{ACAD_REACTORS
330
1D946
102
}
330
747D
100
AcDbEntity
  8
部品1
 62
     7
 48
50.0
100
AcDbMText
 10
9745.725774538318
 20
5288.228908215244
 30
0.0
 40
120.0
 41
0.0
 71
     6
 72
     1
  1
\A1;屋根の外寸
  7
STYLE1
 73
     1
 44
1.0
1001
ACAD
1000
MTEXTBEGIN
1070
    73
1070
     1
1070
    44
1040
1.0
1070
    74
1070
     0
1000
MTEXTEND
  0
LEADER
  5
1D946
330
747D
100
AcDbEntity
  8
寸法
 48
50.0
100
AcDbLeader
  3
INABA_S50G
 71
     0
 73
     0
 74
     0
 75
     1
 40
120.0
 41
672.0
 76
     3
 10
8675.488587933825
 20
5583.246300175034
 30
0.0
 10
8923.725774538317
 20
5203.228908215244
 30
0.0
 10
9048.725774538317
 20
5203.228908215244
 30
0.0
340
1D945
1001
ACAD
1000
DSTYLE
1002
{
1070
   341
1005
1C530
1070
    40
1040
1.0
1070
   343
1005
1C530
1070
   344
1005
1C530
1002
}
  0
DIMENSION
  5
1D947
330
747D
100
AcDbEntity
  8
寸法
 48
50.0
100
AcDbDimension
  2
*D17
 10
7717.031549279724
 20
6789.246300175033
 30
0.0
 11
7717.031549279721
 21
6539.099729034605
 31
0.0
 70
   160
 71
     5
 42
110.0000000000027
  3
INABA_S40G
100
AcDbAlignedDimension
 13
7553.599999999997
 23
6899.246300175035
 33
0.0
 14
7553.599999999999
 24
6789.246300175033
 34
0.0
 50
90.0
100
AcDbRotatedDimension
1001
ACAD
1000
DSTYLE
1002
{
1070
   174
1070
     0
1070
   272
1070
     1
1070
   288
1070
     0
1070
   341
1005
0
1002
}
  0
LINE
  5
1D949
330
747D
100
AcDbEntity
  8
部品1
 48
50.0
100
AcDbLine
 10
8743.599999999998
 20
5939.246300175055
 30
0.0
 11
8743.599999999998
 21
6789.246300175034
 31
0.0
  0
LINE
  5
1D94A
330
747D
100
AcDbEntity
  8
部品1
 48
50.0
100
AcDbLine
 10
8863.599999999998
 20
5639.246300175052
 30
0.0
 11
8863.599999999998
 21
7019.246300175035
 31
0.0
  0
LINE
  5
1D94B
330
747D
100
AcDbEntity
  8
想像線
 48
10.0
100
AcDbLine
 10
8908.599999999998
 20
7094.246300175038
 30
0.0
 11
8908.600000000003
 21
5584.246300175035
 31
0.0
  0
TEXT
  5
1D94C
330
747D
100
AcDbEntity
  8
部品1
 48
50.0
100
AcDbText
 10
7974.294671087948
 20
5431.864036896353
 30
0.0
 40
120.0
  1
扉面
  7
STYLE1
 72
     1
 11
8102.294671087948
 21
5415.864036896353
 31
0.0
100
AcDbText
 73
     1
  0
HATCH
  5
1D94E
330
747D
100
AcDbEntity
  8
細線
 48
50.0
100
AcDbHatch
 10
0.0
 20
0.0
 30
0.0
210
0.0
220
0.0
230
1.0
  2
LINE
 70
     0
 71
     0
 91
        1
 92
        7
 72
     0
 73
     1
 93
        4
 10
8193.600000000014
 20
5639.246300175044
 10
8193.600000000014
 20
5809.246300175042
 10
7993.600000000014
 20
5809.24630017504
 10
7993.600000000014
 20
5639.246300175038
 97
        0
 75
     0
 76
     1
 52
45.0
 41
10.0
 77
     0
 78
     1
 53
45.0
 43
4490.48843901349
 44
-5512.295254901253
 45
-22.45064030267288
 46
22.45064030267288
 79
     0
 47
2.903594399684136
 98
        1
 10
8106.710000003099
 20
5678.273355607483
  0
LINE
  5
1D94F
330
747D
100
AcDbEntity
  8
部品1
 48
50.0
100
AcDbLine
 10
7993.600000000014
 20
5639.246300175044
 30
0.0
 11
7993.600000000014
 21
5809.246300175039
 31
0.0
  0
LINE
  5
1D950
330
747D
100
AcDbEntity
  8
部品1
 48
50.0
100
AcDbLine
 10
8193.600000000014
 20
5639.246300175044
 30
0.0
 11
8193.600000000014
 21
5809.246300175042
 31
0.0
  0
LINE
  5
1D951
330
747D
100
AcDbEntity
  8
センター
 48
2.0
100
AcDbLine
 10
8690.600000000006
 20
5837.246300175037
 30
0.0
 11
8790.600000000006
 21
5837.246300175037
 31
0.0
  0
CIRCLE
  5
1D952
330
747D
100
AcDbEntity
  8
部品1
 48
50.0
100
AcDbCircle
 10
8740.600000000005
 20
5837.246300175037
 30
0.0
 40
35.0
  0
LINE
  5
1D953
330
747D
100
AcDbEntity
  8
部品1
 48
50.0
100
AcDbLine
 10
8743.6
 20
5939.246300175053
 30
0.0
 11
8633.599999999999
 21
5939.246300175053
 31
0.0
  0
LINE
  5
1D954
330
747D
100
AcDbEntity
  8
部品1
 48
50.0
100
AcDbLine
 10
8633.599999999999
 20
5809.24630017505
 30
0.0
 11
8633.599999999999
 21
5939.246300175053
 31
0.0
  0
LINE
  5
1D955
330
747D
100
AcDbEntity
  8
センター
 48
2.0
100
AcDbLine
 10
8740.600000000005
 20
5887.246300175037
 30
0.0
 11
8740.600000000005
 21
5787.246300175037
 31
0.0
  0
LINE
  5
1D956
330
747D
100
AcDbEntity
  8
部品1
 48
50.0
100
AcDbLine
 10
8193.599999999999
 20
6899.246300175033
 30
0.0
 11
8193.599999999999
 21
7019.246300175035
 31
0.0
  0
LINE
  5
1D957
330
747D
100
AcDbEntity
  8
部品1
 48
50.0
100
AcDbLine
 10
7993.599999999999
 20
6899.246300175035
 30
0.0
 11
7993.599999999999
 21
7019.246300175035
 31
0.0
  0
LINE
  5
1D95A
330
747D
100
AcDbEntity
  8
センター
 48
2.0
100
AcDbLine
 10
8690.599999999999
 20
6896.246300175035
 30
0.0
 11
8790.599999999999
 21
6896.246300175035
 31
0.0
  0
CIRCLE
  5
1D95B
330
747D
100
AcDbEntity
  8
部品1
 48
50.0
100
AcDbCircle
 10
8740.599999999998
 20
6896.246300175035
 30
0.0
 40
35.0
  0
LINE
  5
1D95C
330
747D
100
AcDbEntity
  8
部品1
 48
50.0
100
AcDbLine
 10
8743.6
 20
6789.246300175037
 30
0.0
 11
8633.599999999999
 21
6789.246300175033
 31
0.0
  0
LINE
  5
1D95D
330
747D
100
AcDbEntity
  8
部品1
 48
50.0
100
AcDbLine
 10
8633.599999999999
 20
6789.246300175033
 30
0.0
 11
8633.599999999999
 21
6899.246300175033
 31
0.0
  0
LINE
  5
1D95E
330
747D
100
AcDbEntity
  8
部品1
 48
50.0
100
AcDbLine
 10
8863.599999999998
 20
6429.246300175035
 30
0.0
 11
8743.599999999998
 21
6429.246300175036
 31
0.0
  0
LINE
  5
1D95F
330
747D
100
AcDbEntity
  8
部品1
 48
50.0
100
AcDbLine
 10
8863.599999999998
 20
6229.246300175034
 30
0.0
 11
8743.599999999998
 21
6229.246300175035
 31
0.0
  0
LINE
  5
1D961
330
747D
100
AcDbEntity
  8
センター
 48
2.0
100
AcDbLine
 10
8740.599999999998
 20
6946.246300175035
 30
0.0
 11
8740.599999999998
 21
6846.246300175035
 31
0.0
  0
TEXT
  5
1DEDA
330
747D
100
AcDbEntity
  8
文字
 62
     7
 48
50.0
100
AcDbText
 10
13188.16259899338
 20
79.80631269190325
 30
0.0
 40
80.0
  1
※布基礎には換気口を設けてください。
  7
STYLE2
100
AcDbText
  0
MTEXT
  5
1E700
102
{ACAD_REACTORS
330
1E701
102
}
330
747D
100
AcDbEntity
  8
部品1
 62
     7
 48
50.0
100
AcDbMText
 10
9913.416979436107
 20
7262.271743982987
 30
0.0
 40
120.0
 41
0.0
 71
     6
 72
     1
  1
基礎ボルト芯
  7
STYLE1
 73
     1
 44
1.0
1001
ACAD
1000
MTEXTBEGIN
1070
    73
1070
     1
1070
    44
1040
1.0
1070
    74
1070
     0
1000
MTEXTEND
  0
LEADER
  5
1E701
330
747D
100
AcDbEntity
  8
寸法
 48
50.0
100
AcDbLeader
  3
INABA_S40G
 71
     0
 73
     0
 74
     0
 75
     1
 40
120.0
 41
846.0000000000002
 76
     3
 10
8740.599999999998
 20
6896.246300175035
 30
0.0
 10
8927.416979436106
 20
7162.271743982987
 30
0.0
 10
9027.416979436106
 20
7162.271743982987
 30
0.0
340
1E700
1001
ACAD
1000
DSTYLE
1002
{
1070
   174
1070
     0
1070
   272
1070
     1
1070
   288
1070
     0
1070
   341
1005
0
1002
}
  0
LINE
  5
1F6C0
330
747D
100
AcDbEntity
  8
部品1
 48
50.0
100
AcDbLine
 10
8188.599999999999
 20
6271.246300175032
 30
0.0
 11
8188.599999999999
 21
6461.246300175031
 31
0.0
  0
LINE
  5
1F6C1
330
747D
100
AcDbEntity
  8
センター
 48
2.0
100
AcDbLine
 10
8043.599999999999
 20
6366.246300175031
 30
0.0
 11
8143.599999999999
 21
6366.246300175031
 31
0.0
  0
LINE
  5
1F6C2
330
747D
100
AcDbEntity
  8
センター
 48
2.0
100
AcDbLine
 10
8093.6
 20
6416.246300175031
 30
0.0
 11
8093.6
 21
6316.246300175031
 31
0.0
  0
LINE
  5
1F6C3
330
747D
100
AcDbEntity
  8
部品1
 48
50.0
100
AcDbLine
 10
8188.599999999999
 20
6461.246300175031
 30
0.0
 11
7998.599999999999
 21
6461.246300175031
 31
0.0
  0
LINE
  5
1F6C4
330
747D
100
AcDbEntity
  8
部品1
 48
50.0
100
AcDbLine
 10
8188.599999999999
 20
6271.246300175032
 30
0.0
 11
7998.599999999999
 21
6271.246300175032
 31
0.0
  0
LINE
  5
1F6C5
330
747D
100
AcDbEntity
  8
部品1
 48
50.0
100
AcDbLine
 10
7998.599999999999
 20
6271.246300175032
 30
0.0
 11
7998.599999999999
 21
6461.246300175031
 31
0.0
  0
DIMENSION
  5
1F7B4
330
747D
100
AcDbEntity
  8
寸法
 48
50.0
100
AcDbDimension
  2
*D18
 10
7717.031549279724
 20
6899.246300175035
 30
0.0
 11
7717.031549279721
 21
7290.707959502032
 31
0.0
 70
   160
 71
     5
 42
120.0
  3
INABA_S40G
100
AcDbAlignedDimension
 13
7633.599999999998
 23
7019.246300175035
 33
0.0
 14
7553.599999999997
 24
6899.246300175035
 34
0.0
 50
90.0
100
AcDbRotatedDimension
1001
ACAD
1000
DSTYLE
1002
{
1070
   174
1070
     0
1070
   272
1070
     1
1070
   288
1070
     0
1070
   341
1005
0
1002
}
  0
DIMENSION
  5
1F821
330
747D
100
AcDbEntity
  8
寸法
 48
50.0
100
AcDbDimension
  2
*D19
 10
8350.6767914581
 20
6366.246300175031
 30
0.0
 11
8250.676791458097
 21
6692.746300175034
 31
0.0
 70
    32
 71
     5
 42
653.0000000000036
  3
INABA_S40G
100
AcDbAlignedDimension
 13
8268.787070312937
 23
7019.246300175035
 33
0.0
 14
8143.599999999999
 24
6366.246300175031
 34
0.0
 50
90.0
100
AcDbRotatedDimension
1001
ACAD
1000
DSTYLE
1002
{
1070
   174
1070
     0
1070
   272
1070
     1
1070
   279
1070
     1
1070
   288
1070
     0
1070
   341
1005
0
1002
}
  0
DIMENSION
  5
1F82E
330
747D
100
AcDbEntity
  8
寸法
 48
50.0
100
AcDbDimension
  2
*D20
 10
8350.6767914581
 20
5639.246300175045
 30
0.0
 11
8250.664980434477
 21
6002.746300175039
 31
0.0
 70
    32
 71
     5
 42
726.9999999999854
  3
INABA_S40G
100
AcDbAlignedDimension
 13
8143.599999999999
 23
6366.246300175031
 33
0.0
 14
8350.676791458111
 24
5639.246300175045
 34
0.0
 50
90.0
100
AcDbRotatedDimension
1001
ACAD
1000
DSTYLE
1002
{
1070
   174
1070
     0
1070
   272
1070
     1
1070
   279
1070
     1
1070
   288
1070
     0
1070
   341
1005
0
1002
}
  0
MTEXT
  5
1F841
102
{ACAD_REACTORS
330
1F842
102
}
330
747D
100
AcDbEntity
  8
部品1
 62
     7
 48
50.0
100
AcDbMText
 10
8013.980802751531
 20
6213.068171066095
 30
0.0
 40
120.0
 41
0.0
 71
     6
 72
     1
  1
\A1;C.B
  7
STYLE1
 73
     1
 44
1.0
1001
ACAD
1000
MTEXTBEGIN
1070
    73
1070
     1
1070
    44
1040
1.0
1070
    74
1070
     0
1000
MTEXTEND
  0
LEADER
  5
1F842
330
747D
100
AcDbEntity
  8
寸法
 48
50.0
100
AcDbLeader
  3
INABA_S50G
 71
     0
 73
     0
 75
     1
 40
120.0
 41
185.591883092037
 76
     3
 10
8152.479687834222
 20
6292.583803702591
 30
0.0
 10
8092.561443308268
 20
6130.1428552736
 30
0.0
 10
7967.561443308267
 20
6130.1428552736
 30
0.0
340
1F841
210
0.0
220
0.0
230
-1.0
213
-71.41935944326269
223
-47.92531579249407
233
0.0
1001
ACAD
1000
DSTYLE
1002
{
1070
   341
1005
1C530
1070
    40
1040
1.0
1070
   343
1005
1C530
1070
   344
1005
1C530
1002
}
  0
DIMENSION
  5
1F861
330
747D
100
AcDbEntity
  8
寸法
 48
50.0
100
AcDbDimension
  2
*D21
 10
8093.6
 20
7435.122805256066
 30
0.0
 11
7708.599999999998
 21
7535.122805256065
 31
0.0
 70
    32
 71
     5
 42
770.0
  3
INABA_S40G
100
AcDbAlignedDimension
 13
7323.599999999998
 23
7019.246300175034
 33
0.0
 14
8093.6
 24
6416.246300175031
 34
0.0
100
AcDbRotatedDimension
1001
ACAD
1000
DSTYLE
1002
{
1070
   174
1070
     0
1070
   272
1070
     1
1070
   279
1070
     1
1070
   288
1070
     0
1070
   341
1005
0
1002
}
  0
DIMENSION
  5
1F86E
330
747D
100
AcDbEntity
  8
寸法
 48
50.0
100
AcDbDimension
  2
*D22
 10
8863.599999999998
 20
7435.122805256066
 30
0.0
 11
8478.599999999998
 21
7535.122805256065
 31
0.0
 70
    32
 71
     5
 42
770.0
  3
INABA_S40G
100
AcDbAlignedDimension
 13
8093.6
 23
6416.246300175031
 33
0.0
 14
8863.599999999998
 24
7019.246300175035
 34
0.0
100
AcDbRotatedDimension
1001
ACAD
1000
DSTYLE
1002
{
1070
   174
1070
     0
1070
   272
1070
     1
1070
   279
1070
     1
1070
   288
1070
     0
1070
   341
1005
0
1002
}
  0
MTEXT
  5
1FA09
102
{ACAD_REACTORS
330
1FA0A
102
}
330
747D
100
AcDbEntity
  8
寸法
 62
     7
 48
50.0
100
AcDbMText
 10
10368.65728707522
 20
2627.238465193375
 30
0.0
 40
120.0
 41
0.8
 71
     4
 72
     1
  1
\A1;C.B
  7
STYLE1
 73
     1
 44
1.0
1001
ACAD
1000
MTEXTBEGIN
1070
    73
1070
     1
1070
    44
1040
1.0
1070
    74
1070
     0
1000
MTEXTEND
  0
LEADER
  5
1FA0A
330
747D
100
AcDbEntity
  8
寸法
 48
50.0
100
AcDbLeader
  3
INABA_S50G
 73
     0
 74
     0
 75
     1
 40
120.0
 41
185.591883092037
 76
     3
 10
10185.51908044158
 20
2370.092144512237
 30
0.0
 10
10218.65728707522
 20
2542.238465193375
 30
0.0
 10
10343.65728707522
 20
2542.238465193375
 30
0.0
340
1FA09
1001
ACAD
1000
DSTYLE
1002
{
1070
    40
1040
1.0
1002
}
  0
LINE
  5
1FA0B
330
747D
100
AcDbEntity
  8
細線
 48
50.0
100
AcDbLine
 10
10331.17249401799
 20
2014.393228858886
 30
0.0
 11
10324.74171339964
 21
2038.393228858886
 31
0.0
  0
LINE
  5
1FA0C
330
747D
100
AcDbEntity
  8
細線
 48
50.0
100
AcDbLine
 10
10309.7365586235
 20
1934.393228858885
 30
0.0
 11
10316.16733924185
 21
1910.393228858886
 31
0.0
  0
LINE
  5
1FA0D
330
747D
100
AcDbEntity
  8
部品1
100
AcDbLine
 10
10374.79466882566
 20
2130.092144512237
 30
0.0
 11
10374.79466882566
 21
1910.393228858887
 31
0.0
  0
LINE
  5
1FA0E
330
747D
100
AcDbEntity
  8
細線
 48
50.0
100
AcDbLine
 10
10303.30577800515
 20
1910.393228858886
 30
0.0
 11
10337.60327463633
 21
2038.393228858884
 31
0.0
  0
LINE
  5
1FA0F
330
747D
100
AcDbEntity
  8
細線
 48
50.0
100
AcDbLine
 10
10252.28444907074
 20
2014.393228858886
 30
0.0
 11
10245.8536684524
 21
2038.393228858886
 31
0.0
  0
LINE
  5
1FA10
330
747D
100
AcDbEntity
  8
細線
100
AcDbLine
 10
10127.83106332499
 20
2038.393228858888
 30
0.0
 11
10219.52997897833
 21
2130.092144512237
 31
0.0
  0
LINE
  5
1FA11
330
747D
100
AcDbEntity
  8
細線
 48
50.0
100
AcDbLine
 10
10173.39640412349
 20
2014.393228858887
 30
0.0
 11
10166.96562350514
 21
2038.393228858887
 31
0.0
  0
LINE
  5
1FA12
330
747D
100
AcDbEntity
  8
細線
100
AcDbLine
 10
10161.77218882195
 20
2038.393228858888
 30
0.0
 11
10253.47110447529
 21
2130.092144512237
 31
0.0
  0
LINE
  5
1FA13
330
747D
100
AcDbEntity
  8
細線
 48
50.0
100
AcDbLine
 10
9936.732269281758
 20
2014.393228858887
 30
0.0
 11
9930.301488663412
 21
2038.393228858887
 31
0.0
  0
LINE
  5
1FA14
330
747D
100
AcDbEntity
  8
細線
 48
50.0
100
AcDbLine
 10
10015.620314229
 20
2014.393228858887
 30
0.0
 11
10009.18953361066
 21
2038.393228858887
 31
0.0
  0
LINE
  5
1FA15
330
747D
100
AcDbEntity
  8
細線
 48
50.0
100
AcDbLine
 10
10094.50835917625
 20
2014.393228858887
 30
0.0
 11
10088.0775785579
 21
2038.393228858887
 31
0.0
  0
LINE
  5
1FA16
330
747D
100
AcDbEntity
  8
細線
 48
50.0
100
AcDbLine
 10
10230.84851367626
 20
1934.393228858885
 30
0.0
 11
10237.2792942946
 21
1910.393228858886
 31
0.0
  0
LINE
  5
1FA17
330
747D
100
AcDbEntity
  8
細線
 48
50.0
100
AcDbLine
 10
10151.96046872901
 20
1934.393228858887
 30
0.0
 11
10158.39124934736
 21
1910.393228858887
 31
0.0
  0
LINE
  5
1FA18
330
747D
100
AcDbEntity
  8
細線
 48
50.0
100
AcDbLine
 10
9994.184378834518
 20
1934.393228858887
 30
0.0
 11
10000.61515945286
 21
1910.393228858887
 31
0.0
  0
LINE
  5
1FA19
330
747D
100
AcDbEntity
  8
細線
 48
50.0
100
AcDbLine
 10
10073.07242378176
 20
1934.393228858887
 30
0.0
 11
10079.50320440011
 21
1910.393228858887
 31
0.0
  0
LINE
  5
1FA1A
330
747D
100
AcDbEntity
  8
細線
 48
50.0
100
AcDbLine
 10
10066.64164316341
 20
1910.393228858887
 30
0.0
 11
10100.93913979459
 21
2038.393228858886
 31
0.0
  0
LINE
  5
1FA1B
330
747D
100
AcDbEntity
  8
細線
 48
50.0
100
AcDbLine
 10
9987.753598216166
 20
1910.393228858886
 30
0.0
 11
10022.05109484735
 21
2038.393228858886
 31
0.0
  0
LINE
  5
1FA1C
330
747D
100
AcDbEntity
  8
細線
 48
50.0
100
AcDbLine
 10
10145.52968811066
 20
1910.393228858886
 30
0.0
 11
10179.82718474183
 21
2038.393228858887
 31
0.0
  0
LINE
  5
1FA1D
330
747D
100
AcDbEntity
  8
細線
100
AcDbLine
 10
10195.7133143189
 20
2038.393228858888
 30
0.0
 11
10287.41222997224
 21
2130.092144512237
 31
0.0
  0
LINE
  5
1FA1E
330
747D
100
AcDbEntity
  8
細線
 48
50.0
100
AcDbLine
 10
10224.41773305791
 20
1910.393228858884
 30
0.0
 11
10258.71522968909
 21
2038.393228858884
 31
0.0
  0
LINE
  5
1FA1F
330
747D
100
AcDbEntity
  8
部品1
100
AcDbLine
 10
10254.79466882566
 20
2370.092144512237
 30
0.0
 11
10254.79466882566
 21
2130.092144512237
 31
0.0
  0
LINE
  5
1FA20
330
747D
100
AcDbEntity
  8
細線
100
AcDbLine
 10
10240.95700647808
 20
2130.092144512238
 30
0.0
 11
10000.95700647808
 21
2370.092144512237
 31
0.0
  0
LINE
  5
1FA21
330
747D
100
AcDbEntity
  8
細線
100
AcDbLine
 10
10190.04531823265
 20
2130.092144512237
 30
0.0
 11
9950.04531823265
 21
2370.092144512237
 31
0.0
  0
LINE
  5
1FA22
330
747D
100
AcDbEntity
  8
細線
100
AcDbLine
 10
9801.772188821946
 20
2038.393228858887
 30
0.0
 11
9893.471104475292
 21
2130.092144512237
 31
0.0
  0
LINE
  5
1FA23
330
747D
100
AcDbEntity
  8
細線
100
AcDbLine
 10
9767.831063324988
 20
2038.393228858887
 30
0.0
 11
9859.529978978338
 21
2130.092144512237
 31
0.0
  0
LINE
  5
1FA24
330
747D
100
AcDbEntity
  8
細線
 48
50.0
100
AcDbLine
 10
9778.956179387261
 20
2014.393228858887
 30
0.0
 11
9772.525398768914
 21
2038.393228858887
 31
0.0
  0
LINE
  5
1FA25
330
747D
100
AcDbEntity
  8
細線
 48
50.0
100
AcDbLine
 10
9857.844224334513
 20
2014.393228858887
 30
0.0
 11
9851.413443716168
 21
2038.393228858887
 31
0.0
  0
LINE
  5
1FA26
330
747D
100
AcDbEntity
  8
細線
 48
50.0
100
AcDbLine
 10
9700.068134440009
 20
2014.393228858887
 30
0.0
 11
9693.637353821662
 21
2038.393228858887
 31
0.0
  0
LINE
  5
1FA27
330
747D
100
AcDbEntity
  8
細線
 48
50.0
100
AcDbLine
 10
9915.296333887269
 20
1934.393228858887
 30
0.0
 11
9921.727114505618
 21
1910.393228858887
 31
0.0
  0
LINE
  5
1FA28
330
747D
100
AcDbEntity
  8
細線
 48
50.0
100
AcDbLine
 10
9836.408288940024
 20
1934.393228858887
 30
0.0
 11
9842.839069558371
 21
1910.393228858887
 31
0.0
  0
LINE
  5
1FA29
330
747D
100
AcDbEntity
  8
細線
 48
50.0
100
AcDbLine
 10
9678.632199045521
 20
1934.393228858887
 30
0.0
 11
9685.062979663868
 21
1910.393228858887
 31
0.0
  0
LINE
  5
1FA2A
330
747D
100
AcDbEntity
  8
細線
 48
50.0
100
AcDbLine
 10
9757.520243992772
 20
1934.393228858887
 30
0.0
 11
9763.951024611118
 21
1910.393228858887
 31
0.0
  0
LINE
  5
1FA2B
330
747D
100
AcDbEntity
  8
部品1
100
AcDbLine
 10
9654.79466882566
 20
1910.393228858883
 30
0.0
 11
9654.79466882566
 21
2130.092144512237
 31
0.0
  0
LINE
  5
1FA2C
330
747D
100
AcDbEntity
  8
細線
 48
50.0
100
AcDbLine
 10
9672.201418427173
 20
1910.393228858887
 30
0.0
 11
9706.498915058357
 21
2038.393228858887
 31
0.0
  0
LINE
  5
1FA2D
330
747D
100
AcDbEntity
  8
細線
 48
50.0
100
AcDbLine
 10
9829.97750832167
 20
1910.393228858887
 30
0.0
 11
9864.275004952856
 21
2038.393228858887
 31
0.0
  0
LINE
  5
1FA2E
330
747D
100
AcDbEntity
  8
細線
 48
50.0
100
AcDbLine
 10
9751.08946337442
 20
1910.393228858886
 30
0.0
 11
9785.386960005602
 21
2038.393228858886
 31
0.0
  0
LINE
  5
1FA2F
330
747D
100
AcDbEntity
  8
部品1
100
AcDbLine
 10
9774.794668825661
 20
2130.092144512237
 30
0.0
 11
9774.794668825661
 21
2370.092144512237
 31
0.0
  0
TEXT
  5
1FA30
330
747D
100
AcDbEntity
  8
部品1
 48
50.0
100
AcDbText
 10
9010.676582067157
 20
1863.292403874928
 30
0.0
 40
80.0
  1
ボルトの出
 50
90.0
  7
STYLE2
100
AcDbText
  0
LINE
  5
1FA31
330
747D
100
AcDbEntity
  8
細線
100
AcDbLine
 10
9918.516314257013
 20
2130.092144512237
 30
0.0
 11
9774.794668825661
 21
2273.81378994359
 31
0.0
  0
LWPOLYLINE
  5
1FA32
330
747D
100
AcDbEntity
  8
部品1
 48
50.0
100
AcDbPolyline
 90
        2
 70
     0
 43
12.0
 10
9390.18340672527
 20
2130.092144512237
 10
10591.27570985689
 20
2130.092144512237
  0
LINE
  5
1FA33
330
747D
100
AcDbEntity
  8
細線
100
AcDbLine
 10
9835.713314318901
 20
2038.393228858887
 30
0.0
 11
9927.412229972247
 21
2130.092144512237
 31
0.0
  0
LINE
  5
1FA34
330
747D
100
AcDbEntity
  8
部品1
100
AcDbLine
 10
9654.79466882566
 20
2038.393228858887
 30
0.0
 11
10374.79466882566
 21
2038.39322885889
 31
0.0
  0
LINE
  5
1FA35
330
747D
100
AcDbEntity
  8
部品1
100
AcDbLine
 10
9654.79466882566
 20
1910.393228858883
 30
0.0
 11
10374.79466882566
 21
1910.393228858887
 31
0.0
  0
LINE
  5
1FA36
330
747D
100
AcDbEntity
  8
細線
 48
50.0
100
AcDbLine
 10
9908.865553268917
 20
1910.393228858887
 30
0.0
 11
9943.163049900105
 21
2038.393228858886
 31
0.0
  0
LINE
  5
1FA37
330
747D
100
AcDbEntity
  8
部品1
100
AcDbLine
 10
9774.794668825661
 20
2370.092144512237
 30
0.0
 11
10254.79466882566
 21
2370.092144512237
 31
0.0
  0
LINE
  5
1FA38
330
747D
100
AcDbEntity
  8
細線
100
AcDbLine
 10
9969.428002502445
 20
2130.092144512237
 30
0.0
 11
9774.794668825661
 21
2324.72547818902
 31
0.0
  0
LINE
  5
1FA39
330
747D
100
AcDbEntity
  8
部品1
100
AcDbLine
 10
10961.53616992269
 20
726.7567947044344
 30
0.0
 11
10961.5361699227
 21
3691.063764289082
 31
0.0
  0
TEXT
  5
1FA3A
330
747D
100
AcDbEntity
  8
部品1
100
AcDbText
 10
7583.430985714833
 20
3511.511832337653
 30
0.0
 40
120.0
  1
基礎詳細
  7
STYLE2
100
AcDbText
  0
LINE
  5
1FA3B
330
747D
100
AcDbEntity
  8
部品1
 48
50.0
100
AcDbLine
 10
7898.658736522903
 20
2768.96742562138
 30
0.0
 11
7914.658736522902
 21
2760.967425621379
 31
0.0
  0
LINE
  5
1FA3C
330
747D
100
AcDbEntity
  8
細線
 48
50.0
100
AcDbLine
 10
7866.658736522902
 20
2720.96742562138
 30
0.0
 11
7866.658736522902
 21
2752.96742562138
 31
0.0
  0
LINE
  5
1FA3D
330
747D
100
AcDbEntity
  8
部品1
 48
50.0
100
AcDbLine
 10
7914.658736522902
 20
2728.967425621379
 30
0.0
 11
7914.658736522902
 21
2760.967425621379
 31
0.0
  0
LINE
  5
1FA3E
330
747D
100
AcDbEntity
  8
細線
 48
50.0
100
AcDbLine
 10
7898.658736522903
 20
2720.96742562138
 30
0.0
 11
7898.658736522903
 21
2752.96742562138
 31
0.0
  0
LINE
  5
1FA3F
330
747D
100
AcDbEntity
  8
部品1
 48
50.0
100
AcDbLine
 10
7898.658736522903
 20
2752.96742562138
 30
0.0
 11
7914.658736522902
 21
2760.967425621379
 31
0.0
  0
LINE
  5
1FA40
330
747D
100
AcDbEntity
  8
部品1
 48
50.0
100
AcDbLine
 10
7866.658736522902
 20
2752.96742562138
 30
0.0
 11
7898.658736522903
 21
2752.96742562138
 31
0.0
  0
LINE
  5
1FA41
330
747D
100
AcDbEntity
  8
部品1
 48
50.0
100
AcDbLine
 10
7898.658736522903
 20
2720.96742562138
 30
0.0
 11
7914.658736522902
 21
2728.967425621379
 31
0.0
  0
LINE
  5
1FA42
330
747D
100
AcDbEntity
  8
部品1
 48
50.0
100
AcDbLine
 10
7866.658736522902
 20
2720.96742562138
 30
0.0
 11
7898.658736522903
 21
2720.96742562138
 31
0.0
  0
ELLIPSE
  5
1FA43
330
747D
100
AcDbEntity
  8
細線
 48
50.0
100
AcDbEllipse
 10
7882.658736522902
 20
2760.967425621379
 30
0.0
 11
14.76670786606846
 21
0.0
 31
0.0
210
0.0
220
0.0
230
1.0
 40
0.2071254069489396
 41
0.0
 42
6.283185307179586
  0
LINE
  5
1FA44
330
747D
100
AcDbEntity
  8
部品1
 48
50.0
100
AcDbLine
 10
7866.658736522902
 20
2768.96742562138
 30
0.0
 11
7898.658736522903
 21
2768.96742562138
 31
0.0
  0
LINE
  5
1FA45
330
747D
100
AcDbEntity
  8
部品1
 48
50.0
100
AcDbLine
 10
7850.658736522902
 20
2728.967425621379
 30
0.0
 11
7850.658736522902
 21
2760.967425621379
 31
0.0
  0
LINE
  5
1FA46
330
747D
100
AcDbEntity
  8
部品1
 48
50.0
100
AcDbLine
 10
7850.658736522902
 20
2760.967425621379
 30
0.0
 11
7866.658736522902
 21
2768.96742562138
 31
0.0
  0
LINE
  5
1FA47
330
747D
100
AcDbEntity
  8
部品1
 48
50.0
100
AcDbLine
 10
7850.658736522902
 20
2728.967425621379
 30
0.0
 11
7866.658736522902
 21
2720.96742562138
 31
0.0
  0
LINE
  5
1FA48
330
747D
100
AcDbEntity
  8
部品1
 48
50.0
100
AcDbLine
 10
7850.658736522902
 20
2760.967425621379
 30
0.0
 11
7866.658736522902
 21
2752.96742562138
 31
0.0
  0
LINE
  5
1FA49
330
747D
100
AcDbEntity
  8
部品1
 48
50.0
100
AcDbLine
 10
7922.658736522902
 20
2629.615432956509
 30
0.0
 11
7922.658736522902
 21
2639.215432956509
 31
0.0
  0
ELLIPSE
  5
1FA4A
330
747D
100
AcDbEntity
  8
部品1
 48
50.0
100
AcDbEllipse
 10
7882.658736522902
 20
2639.215432956509
 30
0.0
 11
18.4
 21
0.0
 31
0.0
210
0.0
220
0.0
230
1.0
 40
0.3478260869565217
 41
0.0
 42
6.283185307179586
  0
ARC
  5
1FA4B
330
747D
100
AcDbEntity
  8
部品1
100
AcDbCircle
 10
7721.558736522903
 20
2468.192144512237
 30
0.0
 40
2.7
100
AcDbArc
 50
90.0
 51
180.0
  0
LINE
  5
1FA4C
330
747D
100
AcDbEntity
  8
部品1
100
AcDbLine
 10
7724.258736522902
 20
2481.692144512237
 30
0.0
 11
7766.558736522902
 21
2481.692144512234
 31
0.0
  0
LINE
  5
1FA4D
330
747D
100
AcDbEntity
  8
部品1
100
AcDbLine
 10
7721.558736522903
 20
2470.892144512237
 30
0.0
 11
7721.558736522903
 21
2478.992144512237
 31
0.0
  0
LINE
  5
1FA4E
330
747D
100
AcDbEntity
  8
部品1
100
AcDbLine
 10
7721.558736522903
 20
2470.892144512237
 30
0.0
 11
7721.558736522903
 21
2470.892144512237
 31
0.0
  0
ARC
  5
1FA4F
330
747D
100
AcDbEntity
  8
部品1
100
AcDbCircle
 10
7724.258736522902
 20
2478.992144512237
 30
0.0
 40
2.7
100
AcDbArc
 50
90.0
 51
180.0
  0
ARC
  5
1FA50
330
747D
100
AcDbEntity
  8
部品1
100
AcDbCircle
 10
7766.558736522902
 20
2478.992144512234
 30
0.0
 40
2.7
100
AcDbArc
 50
0.0
 51
90.0
  0
LINE
  5
1FA51
330
747D
100
AcDbEntity
  8
部品1
 48
50.0
100
AcDbLine
 10
7842.658736522903
 20
2639.215432956509
 30
0.0
 11
7842.658736522903
 21
2629.615432956509
 31
0.0
  0
ELLIPSE
  5
1FA52
330
747D
100
AcDbEntity
  8
部品1
 48
50.0
100
AcDbEllipse
 10
7882.658736522902
 20
2629.61543295651
 30
0.0
 11
40.0
 21
0.0
 31
0.0
210
0.0
220
0.0
230
1.0
 40
0.4
 41
3.141592653589793
 42
6.283185307179586
  0
ELLIPSE
  5
1FA53
330
747D
100
AcDbEntity
  8
部品1
 48
50.0
100
AcDbEllipse
 10
7882.658736522902
 20
2639.215432956509
 30
0.0
 11
40.0
 21
0.0
 31
0.0
210
0.0
220
0.0
230
1.0
 40
0.4
 41
0.0
 42
6.283185307179586
  0
LINE
  5
1FA54
330
747D
100
AcDbEntity
  8
部品1
100
AcDbLine
 10
7877.258736522901
 20
2422.852144512237
 30
0.0
 11
7888.058736522902
 21
2422.852144512237
 31
0.0
  0
LINE
  5
1FA55
330
747D
100
AcDbEntity
  8
部品1
100
AcDbLine
 10
7873.658736522902
 20
2419.252144512237
 30
0.0
 11
7891.658736522902
 21
2419.252144512237
 31
0.0
  0
LINE
  5
1FA56
330
747D
100
AcDbEntity
  8
細線
100
AcDbLine
 10
7877.258736522904
 20
2379.652144512237
 30
0.0
 11
7877.258736522901
 21
2422.852144512237
 31
0.0
  0
LINE
  5
1FA57
330
747D
100
AcDbEntity
  8
細線
100
AcDbLine
 10
7888.058736522902
 20
2379.652144512237
 30
0.0
 11
7888.058736522902
 21
2422.852144512237
 31
0.0
  0
LINE
  5
1FA58
330
747D
100
AcDbEntity
  8
部品1
100
AcDbLine
 10
7789.958736522902
 20
2436.952144512237
 30
0.0
 11
7789.958736522902
 21
2419.852144512237
 31
0.0
  0
LINE
  5
1FA59
330
747D
100
AcDbEntity
  8
部品1
100
AcDbLine
 10
7823.518736522903
 20
2436.952144512237
 30
0.0
 11
7823.518736522899
 21
2382.352144512237
 31
0.0
  0
ARC
  5
1FA5A
330
747D
100
AcDbEntity
  8
部品1
100
AcDbCircle
 10
7808.858736522903
 20
2424.992144512236
 30
0.0
 40
2.7
100
AcDbArc
 50
0.0
 51
90.0
  0
LINE
  5
1FA5B
330
747D
100
AcDbEntity
  8
部品1
100
AcDbLine
 10
7769.258736522901
 20
2427.692144512237
 30
0.0
 11
7808.858736522903
 21
2427.692144512237
 31
0.0
  0
ARC
  5
1FA5C
330
747D
100
AcDbEntity
  8
部品1
100
AcDbCircle
 10
7808.858736522903
 20
2382.352144512237
 30
0.0
 40
2.7
100
AcDbArc
 50
270.0
 51
0.0
  0
ARC
  5
1FA5D
330
747D
100
AcDbEntity
  8
部品1
100
AcDbCircle
 10
7826.218736522896
 20
2382.352144512237
 30
0.0
 40
2.7
100
AcDbArc
 50
180.0
 51
270.0
  0
LINE
  5
1FA5E
330
747D
100
AcDbEntity
  8
部品1
100
AcDbLine
 10
7797.158736522902
 20
2379.652144512237
 30
0.0
 11
7808.858736522903
 21
2379.652144512237
 31
0.0
  0
LINE
  5
1FA5F
330
747D
100
AcDbEntity
  8
部品1
100
AcDbLine
 10
7811.558736522902
 20
2424.992144512236
 30
0.0
 11
7811.558736522902
 21
2382.352144512237
 31
0.0
  0
ARC
  5
1FA60
330
747D
100
AcDbEntity
  8
部品1
100
AcDbCircle
 10
7820.818736522902
 20
2436.952144512237
 30
0.0
 40
2.7
100
AcDbArc
 50
0.0
 51
90.0
  0
ARC
  5
1FA61
330
747D
100
AcDbEntity
  8
部品1
100
AcDbCircle
 10
7792.658736522902
 20
2436.952144512237
 30
0.0
 40
2.7
100
AcDbArc
 50
90.0
 51
180.0
  0
LINE
  5
1FA62
330
747D
100
AcDbEntity
  8
部品1
100
AcDbLine
 10
7792.658736522902
 20
2439.652144512237
 30
0.0
 11
7820.818736522902
 21
2439.652144512237
 31
0.0
  0
LINE
  5
1FA63
330
747D
100
AcDbEntity
  8
部品1
100
AcDbLine
 10
7769.258736522901
 20
2478.992144512234
 30
0.0
 11
7769.258736522901
 21
2427.692144512237
 31
0.0
  0
LINE
  5
1FA64
330
747D
100
AcDbEntity
  8
部品1
100
AcDbLine
 10
7718.858736522903
 20
2460.092144512237
 30
0.0
 11
7718.858736522903
 21
2468.192144512237
 31
0.0
  0
LINE
  5
1FA65
330
747D
100
AcDbEntity
  8
部品1
100
AcDbLine
 10
7826.218736522896
 20
2379.652144512237
 30
0.0
 11
8027.558736522896
 21
2379.652144512237
 31
0.0
  0
LINE
  5
1FA66
330
747D
100
AcDbEntity
  8
部品1
100
AcDbLine
 10
7667.558736522902
 20
2382.352144512237
 30
0.0
 11
7667.558736522902
 21
2444.484048214945
 31
0.0
  0
LINE
  5
1FA67
330
747D
100
AcDbEntity
  8
部品1
100
AcDbLine
 10
7670.258736522902
 20
2379.652144512237
 30
0.0
 11
7681.958736522897
 21
2379.652144512237
 31
0.0
  0
LINE
  5
1FA68
330
747D
100
AcDbEntity
  8
細線
 48
50.0
100
AcDbLine
 10
7661.258736522902
 20
2357.872720812142
 30
0.0
 11
7673.478160222997
 21
2370.092144512237
 31
0.0
  0
ARC
  5
1FA69
330
747D
100
AcDbEntity
  8
部品1
100
AcDbCircle
 10
7670.258736522902
 20
2382.352144512237
 30
0.0
 40
2.7
100
AcDbArc
 50
180.0
 51
270.0
  0
LINE
  5
1FA6A
330
747D
100
AcDbEntity
  8
部品1
100
AcDbLine
 10
7669.603890335302
 20
2447.103432965337
 30
0.0
 11
7678.358736522902
 21
2449.292144512237
 31
0.0
  0
ARC
  5
1FA6B
330
747D
100
AcDbEntity
  8
部品1
100
AcDbCircle
 10
7670.258736522902
 20
2444.484048214945
 30
0.0
 40
2.7
100
AcDbArc
 50
104.0362434679059
 51
180.0
  0
ARC
  5
1FA6C
330
747D
100
AcDbEntity
  8
部品1
100
AcDbCircle
 10
7681.058736522903
 20
2457.392144512237
 30
0.0
 40
2.7
100
AcDbArc
 50
90.0
 51
180.0
  0
LINE
  5
1FA6D
330
747D
100
AcDbEntity
  8
部品1
100
AcDbLine
 10
7678.358736522902
 20
2449.292144512237
 30
0.0
 11
7678.358736522902
 21
2457.392144512237
 31
0.0
  0
TEXT
  5
1FA6E
330
747D
100
AcDbEntity
  8
部品1
 48
50.0
100
AcDbText
 10
7234.81263994341
 20
2700.652665612713
 30
0.0
 40
80.0
  1
※(別売)
  7
STYLE2
100
AcDbText
  0
LINE
  5
1FA6F
330
747D
100
AcDbEntity
  8
部品1
 48
50.0
100
AcDbLine
 10
7661.258736522902
 20
2370.092144512237
 30
0.0
 11
8075.258736522902
 21
2370.092144512237
 31
0.0
  0
LINE
  5
1FA70
330
747D
100
AcDbEntity
  8
細線
 48
50.0
100
AcDbLine
 10
7661.258736522902
 20
2303.991184085727
 30
0.0
 11
7727.359696949412
 21
2370.092144512237
 31
0.0
  0
LINE
  5
1FA71
330
747D
100
AcDbEntity
  8
細線
 48
50.0
100
AcDbLine
 10
7661.258736522902
 20
2330.931952448935
 30
0.0
 11
7700.418928586208
 21
2370.092144512237
 31
0.0
  0
LINE
  5
1FA72
330
747D
100
AcDbEntity
  8
部品1
100
AcDbLine
 10
7681.058736522903
 20
2460.092144512237
 30
0.0
 11
7718.858736522903
 21
2460.092144512237
 31
0.0
  0
LINE
  5
1FA73
330
747D
100
AcDbEntity
  8
部品1
 48
50.0
100
AcDbLine
 10
8075.258736522902
 20
1826.092144512237
 30
0.0
 11
8203.258736522901
 21
1826.092144512237
 31
0.0
  0
LINE
  5
1FA74
330
747D
100
AcDbEntity
  8
部品1
100
AcDbLine
 10
7891.658736522902
 20
2145.092144512237
 30
0.0
 11
7927.658736522902
 21
2145.092144512237
 31
0.0
  0
LINE
  5
1FA75
330
747D
100
AcDbEntity
  8
部品1
100
AcDbLine
 10
7891.658736522902
 20
2127.092144512237
 30
0.0
 11
7927.658736522902
 21
2127.092144512237
 31
0.0
  0
ARC
  5
1FA76
330
747D
100
AcDbEntity
  8
部品1
100
AcDbCircle
 10
7891.658736522902
 20
2145.092144512237
 30
0.0
 40
18.0
100
AcDbArc
 50
180.0
 51
270.0
  0
LINE
  5
1FA77
330
747D
100
AcDbEntity
  8
部品1
100
AcDbLine
 10
7927.658736522902
 20
2127.092144512237
 30
0.0
 11
7927.658736522902
 21
2145.092144512237
 31
0.0
  0
LINE
  5
1FA78
330
747D
100
AcDbEntity
  8
部品1
100
AcDbLine
 10
7945.658736522902
 20
2046.092144512235
 30
0.0
 11
7819.658736522896
 21
2046.092144512235
 31
0.0
  0
LINE
  5
1FA79
330
747D
100
AcDbEntity
  8
細線
 48
50.0
100
AcDbLine
 10
8239.636561715236
 20
1562.092144512235
 30
0.0
 11
8233.20578109689
 21
1586.092144512235
 31
0.0
  0
LINE
  5
1FA7A
330
747D
100
AcDbEntity
  8
細線
 48
50.0
100
AcDbLine
 10
8160.748516767991
 20
1562.092144512235
 30
0.0
 11
8154.317736149646
 21
1586.092144512235
 31
0.0
  0
LINE
  5
1FA7B
330
747D
100
AcDbEntity
  8
細線
 48
50.0
100
AcDbLine
 10
8081.860471820734
 20
1562.092144512236
 30
0.0
 11
8075.429691202387
 21
1586.092144512236
 31
0.0
  0
LINE
  5
1FA7C
330
747D
100
AcDbEntity
  8
細線
 48
50.0
100
AcDbLine
 10
8218.200626320749
 20
1482.092144512235
 30
0.0
 11
8224.631406939096
 21
1458.092144512235
 31
0.0
  0
LINE
  5
1FA7D
330
747D
100
AcDbEntity
  8
細線
 48
50.0
100
AcDbLine
 10
8139.312581373502
 20
1482.092144512235
 30
0.0
 11
8145.743361991849
 21
1458.092144512235
 31
0.0
  0
LINE
  5
1FA7E
330
747D
100
AcDbEntity
  8
細線
 48
50.0
100
AcDbLine
 10
8060.424536426253
 20
1482.092144512237
 30
0.0
 11
8066.855317044611
 21
1458.092144512237
 31
0.0
  0
LINE
  5
1FA7F
330
747D
100
AcDbEntity
  8
細線
 48
50.0
100
AcDbLine
 10
8132.881800755153
 20
1458.092144512234
 30
0.0
 11
8167.179297386336
 21
1586.092144512234
 31
0.0
  0
LINE
  5
1FA80
330
747D
100
AcDbEntity
  8
細線
 48
50.0
100
AcDbLine
 10
8053.993755807903
 20
1458.092144512235
 30
0.0
 11
8088.291252439077
 21
1586.092144512236
 31
0.0
  0
LINE
  5
1FA81
330
747D
100
AcDbEntity
  8
細線
 48
50.0
100
AcDbLine
 10
8211.769845702397
 20
1458.092144512235
 30
0.0
 11
8246.067342333583
 21
1586.092144512234
 31
0.0
  0
LINE
  5
1FA82
330
747D
100
AcDbEntity
  8
部品1
 48
50.0
100
AcDbLine
 10
8283.258736522904
 20
1586.092144512236
 30
0.0
 11
8283.258736522904
 21
1458.092144512237
 31
0.0
  0
LINE
  5
1FA83
330
747D
100
AcDbEntity
  8
細線
 48
50.0
100
AcDbLine
 10
8002.972426873496
 20
1562.092144512236
 30
0.0
 11
7996.54164625515
 21
1586.092144512236
 31
0.0
  0
LINE
  5
1FA84
330
747D
100
AcDbEntity
  8
細線
 48
50.0
100
AcDbLine
 10
7924.084381926251
 20
1562.092144512236
 30
0.0
 11
7917.653601307904
 21
1586.092144512236
 31
0.0
  0
LINE
  5
1FA85
330
747D
100
AcDbEntity
  8
細線
 48
50.0
100
AcDbLine
 10
7766.308292031759
 20
1562.092144512236
 30
0.0
 11
7759.877511413411
 21
1586.092144512236
 31
0.0
  0
LINE
  5
1FA86
330
747D
100
AcDbEntity
  8
細線
 48
50.0
100
AcDbLine
 10
7845.196336979005
 20
1562.092144512236
 30
0.0
 11
7838.765556360657
 21
1586.092144512236
 31
0.0
  0
LINE
  5
1FA87
330
747D
100
AcDbEntity
  8
細線
 48
50.0
100
AcDbLine
 10
7902.648446531762
 20
1482.092144512237
 30
0.0
 11
7909.079227150108
 21
1458.092144512237
 31
0.0
  0
LINE
  5
1FA88
330
747D
100
AcDbEntity
  8
細線
 48
50.0
100
AcDbLine
 10
7981.536491479008
 20
1482.092144512237
 30
0.0
 11
7987.967272097354
 21
1458.092144512237
 31
0.0
  0
LINE
  5
1FA89
330
747D
100
AcDbEntity
  8
細線
 48
50.0
100
AcDbLine
 10
7744.872356637269
 20
1482.092144512237
 30
0.0
 11
7751.303137255615
 21
1458.092144512237
 31
0.0
  0
LINE
  5
1FA8A
330
747D
100
AcDbEntity
  8
細線
 48
50.0
100
AcDbLine
 10
7823.760401584515
 20
1482.092144512237
 30
0.0
 11
7830.191182202863
 21
1458.092144512237
 31
0.0
  0
LINE
  5
1FA8B
330
747D
100
AcDbEntity
  8
細線
 48
50.0
100
AcDbLine
 10
7975.105710860654
 20
1458.092144512237
 30
0.0
 11
8009.403207491841
 21
1586.092144512235
 31
0.0
  0
LINE
  5
1FA8C
330
747D
100
AcDbEntity
  8
細線
 48
50.0
100
AcDbLine
 10
7817.329620966162
 20
1458.092144512237
 30
0.0
 11
7851.627117597349
 21
1586.092144512235
 31
0.0
  0
LINE
  5
1FA8D
330
747D
100
AcDbEntity
  8
細線
 48
50.0
100
AcDbLine
 10
7738.441576018917
 20
1458.092144512237
 30
0.0
 11
7772.7390726501
 21
1586.092144512236
 31
0.0
  0
LINE
  5
1FA8E
330
747D
100
AcDbEntity
  8
細線
 48
50.0
100
AcDbLine
 10
7896.217665913411
 20
1458.092144512235
 30
0.0
 11
7930.515162544594
 21
1586.092144512235
 31
0.0
  0
LINE
  5
1FA8F
330
747D
100
AcDbEntity
  8
細線
 48
50.0
100
AcDbLine
 10
8020.990431477711
 20
1586.092144512236
 30
0.0
 11
8203.258736522901
 21
1768.360449557433
 31
0.0
  0
LINE
  5
1FA90
330
747D
100
AcDbEntity
  8
部品1
 48
50.0
100
AcDbLine
 10
8203.258736522901
 20
1826.092144512237
 30
0.0
 11
8203.258736522901
 21
1586.092144512236
 31
0.0
  0
LINE
  5
1FA91
330
747D
100
AcDbEntity
  8
細線
 48
50.0
100
AcDbLine
 10
7994.049663114506
 20
1586.092144512236
 30
0.0
 11
8203.258736522901
 21
1795.30121792063
 31
0.0
  0
LINE
  5
1FA92
330
747D
100
AcDbEntity
  8
細線
 48
50.0
100
AcDbLine
 10
7967.108894751295
 20
1586.092144512236
 30
0.0
 11
8203.258736522901
 21
1822.241986283845
 31
0.0
  0
LINE
  5
1FA93
330
747D
100
AcDbEntity
  8
細線
 48
50.0
100
AcDbLine
 10
7751.582747845636
 20
1586.092144512236
 30
0.0
 11
8075.258736522902
 21
1909.768133189503
 31
0.0
  0
LINE
  5
1FA94
330
747D
100
AcDbEntity
  8
細線
 48
50.0
100
AcDbLine
 10
7805.46428457205
 20
1586.092144512236
 30
0.0
 11
8075.258736522902
 21
1855.886596463094
 31
0.0
  0
LINE
  5
1FA95
330
747D
100
AcDbEntity
  8
細線
 48
50.0
100
AcDbLine
 10
7778.523516208847
 20
1586.092144512236
 30
0.0
 11
8075.258736522902
 21
1882.827364826289
 31
0.0
  0
LINE
  5
1FA96
330
747D
100
AcDbEntity
  8
細線
 48
50.0
100
AcDbLine
 10
7533.258736522896
 20
1798.820427000823
 30
0.0
 11
7560.530454034317
 21
1826.092144512237
 31
0.0
  0
LINE
  5
1FA97
330
747D
100
AcDbEntity
  8
部品1
 48
50.0
100
AcDbLine
 10
7533.258736522902
 20
1826.092144512237
 30
0.0
 11
7661.258736522902
 21
1826.092144512237
 31
0.0
  0
LINE
  5
1FA98
330
747D
100
AcDbEntity
  8
細線
 48
50.0
100
AcDbLine
 10
7533.258736522896
 20
1771.879658637612
 30
0.0
 11
7587.471222397526
 21
1826.092144512237
 31
0.0
  0
LWPOLYLINE
  5
1FA99
330
747D
100
AcDbEntity
  8
部品1
 48
50.0
100
AcDbPolyline
 90
        2
 70
     0
 43
8.0
 10
7247.118834689945
 20
2130.092144512238
 10
7661.258736522902
 20
2130.092144512238
  0
LINE
  5
1FA9A
330
747D
100
AcDbEntity
  8
細線
 48
50.0
100
AcDbLine
 10
7608.532202137254
 20
1562.092144512236
 30
0.0
 11
7602.101421518908
 21
1586.092144512236
 31
0.0
  0
LINE
  5
1FA9B
330
747D
100
AcDbEntity
  8
細線
 48
50.0
100
AcDbLine
 10
7687.420247084506
 20
1562.092144512236
 30
0.0
 11
7680.98946646616
 21
1586.092144512236
 31
0.0
  0
LINE
  5
1FA9C
330
747D
100
AcDbEntity
  8
細線
 48
50.0
100
AcDbLine
 10
7529.644157190003
 20
1562.092144512236
 30
0.0
 11
7523.213376571657
 21
1586.092144512236
 31
0.0
  0
LINE
  5
1FA9D
330
747D
100
AcDbEntity
  8
細線
 48
50.0
100
AcDbLine
 10
7453.258736522902
 20
1571.432065478017
 30
0.0
 11
7457.186892861098
 21
1586.092144512236
 31
0.0
  0
LINE
  5
1FA9E
330
747D
100
AcDbEntity
  8
細線
 48
50.0
100
AcDbLine
 10
7587.096266742766
 20
1482.092144512237
 30
0.0
 11
7593.527047361113
 21
1458.092144512237
 31
0.0
  0
LINE
  5
1FA9F
330
747D
100
AcDbEntity
  8
細線
 48
50.0
100
AcDbLine
 10
7665.984311690017
 20
1482.092144512237
 30
0.0
 11
7672.415092308364
 21
1458.092144512237
 31
0.0
  0
LINE
  5
1FAA0
330
747D
100
AcDbEntity
  8
細線
 48
50.0
100
AcDbLine
 10
7508.208221795515
 20
1482.092144512237
 30
0.0
 11
7514.63900241386
 21
1458.092144512237
 31
0.0
  0
LINE
  5
1FAA1
330
747D
100
AcDbEntity
  8
細線
 48
50.0
100
AcDbLine
 10
7659.553531071665
 20
1458.092144512235
 30
0.0
 11
7693.851027702847
 21
1586.092144512235
 31
0.0
  0
LINE
  5
1FAA2
330
747D
100
AcDbEntity
  8
細線
 48
50.0
100
AcDbLine
 10
7501.777441177161
 20
1458.092144512235
 30
0.0
 11
7536.074937808344
 21
1586.092144512235
 31
0.0
  0
LINE
  5
1FAA3
330
747D
100
AcDbEntity
  8
部品1
 48
50.0
100
AcDbLine
 10
7453.258736522904
 20
1458.092144512237
 30
0.0
 11
7453.258736522904
 21
1586.092144512236
 31
0.0
  0
LINE
  5
1FAA4
330
747D
100
AcDbEntity
  8
細線
 48
50.0
100
AcDbLine
 10
7580.665486124418
 20
1458.092144512237
 30
0.0
 11
7614.962982755603
 21
1586.092144512236
 31
0.0
  0
LINE
  5
1FAA5
330
747D
100
AcDbEntity
  8
部品1
 48
50.0
100
AcDbLine
 10
7533.258736522902
 20
1586.092144512236
 30
0.0
 11
7533.258736522902
 21
1826.092144512237
 31
0.0
  0
LINE
  5
1FAA6
330
747D
100
AcDbEntity
  8
細線
 48
50.0
100
AcDbLine
 10
7533.258736522896
 20
1744.938890274407
 30
0.0
 11
7614.41199076073
 21
1826.092144512237
 31
0.0
  0
LINE
  5
1FAA7
330
747D
100
AcDbEntity
  8
部品1
 48
50.0
100
AcDbLine
 10
8283.258736522904
 20
1458.092144512237
 30
0.0
 11
7453.258736522904
 21
1458.092144512237
 31
0.0
  0
LINE
  5
1FAA8
330
747D
100
AcDbEntity
  8
部品1
 48
50.0
100
AcDbLine
 10
8283.258736522904
 20
1586.092144512236
 30
0.0
 11
7453.258736522904
 21
1586.092144512236
 31
0.0
  0
LINE
  5
1FAA9
330
747D
100
AcDbEntity
  8
細線
 48
50.0
100
AcDbLine
 10
7536.056600939976
 20
1586.092144512236
 30
0.0
 11
8075.258736522902
 21
2125.294280095162
 31
0.0
  0
LINE
  5
1FAAA
330
747D
100
AcDbEntity
  8
細線
 48
50.0
100
AcDbLine
 10
7562.997369303186
 20
1586.092144512236
 30
0.0
 11
8075.258736522902
 21
2098.353511731951
 31
0.0
  0
LINE
  5
1FAAB
330
747D
100
AcDbEntity
  8
細線
 48
50.0
100
AcDbLine
 10
7589.938137666391
 20
1586.092144512236
 30
0.0
 11
8075.258736522902
 21
2071.412743368744
 31
0.0
  0
LINE
  5
1FAAC
330
747D
100
AcDbEntity
  8
細線
 48
50.0
100
AcDbLine
 10
7661.258736522902
 20
1926.820427000822
 30
0.0
 11
7819.658736522895
 21
2085.220427000818
 31
0.0
  0
LINE
  5
1FAAD
330
747D
100
AcDbEntity
  8
細線
 48
50.0
100
AcDbLine
 10
7661.258736522902
 20
1872.938890274408
 30
0.0
 11
7834.411990760738
 21
2046.092144512235
 31
0.0
  0
LINE
  5
1FAAE
330
747D
100
AcDbEntity
  8
細線
 48
50.0
100
AcDbLine
 10
7661.258736522902
 20
1899.879658637615
 30
0.0
 11
7819.658736522895
 21
2058.279658637603
 31
0.0
  0
LINE
  5
1FAAF
330
747D
100
AcDbEntity
  8
部品1
100
AcDbLine
 10
7819.658736522896
 20
2046.092144512237
 30
0.0
 11
7819.658736522902
 21
2370.092144512237
 31
0.0
  0
LINE
  5
1FAB0
330
747D
100
AcDbEntity
  8
部品1
100
AcDbLine
 10
7945.658736522902
 20
2046.092144512237
 30
0.0
 11
7945.658736522902
 21
2370.092144512237
 31
0.0
  0
LINE
  5
1FAB1
330
747D
100
AcDbEntity
  8
細線
 48
50.0
100
AcDbLine
 10
7945.658736522904
 20
2184.279658637608
 30
0.0
 11
8075.258736522902
 21
2313.879658637605
 31
0.0
  0
LINE
  5
1FAB2
330
747D
100
AcDbEntity
  8
細線
 48
50.0
100
AcDbLine
 10
7945.658736522904
 20
2157.338890274395
 30
0.0
 11
8075.258736522902
 21
2286.938890274387
 31
0.0
  0
LINE
  5
1FAB3
330
747D
100
AcDbEntity
  8
部品1
100
AcDbLine
 10
7873.658736522902
 20
2145.092144512237
 30
0.0
 11
7873.658736522898
 21
2419.252144512237
 31
0.0
  0
LINE
  5
1FAB4
330
747D
100
AcDbEntity
  8
部品1
100
AcDbLine
 10
7891.658736522902
 20
2145.092144512237
 30
0.0
 11
7891.658736522899
 21
2419.252144512237
 31
0.0
  0
TEXT
  5
1FAB5
330
747D
100
AcDbEntity
  8
部品1
 48
50.0
100
AcDbText
 10
7247.118834689945
 20
2141.331136795492
 30
0.0
 40
80.0
  1
▽G.L
  7
STYLE2
100
AcDbText
  0
LINE
  5
1FAB6
330
747D
100
AcDbEntity
  8
細線
 48
50.0
100
AcDbLine
 10
7661.258736522902
 20
2088.465037180067
 30
0.0
 11
7819.658736522899
 21
2246.86503718006
 31
0.0
  0
LINE
  5
1FAB7
330
747D
100
AcDbEntity
  8
細線
 48
50.0
100
AcDbLine
 10
7661.258736522902
 20
2115.405805543274
 30
0.0
 11
7819.6587365229
 21
2273.805805543272
 31
0.0
  0
LINE
  5
1FAB8
330
747D
100
AcDbEntity
  8
細線
 48
50.0
100
AcDbLine
 10
7661.258736522902
 20
2142.346573906483
 30
0.0
 11
7819.6587365229
 21
2300.746573906479
 31
0.0
  0
LINE
  5
1FAB9
330
747D
100
AcDbEntity
  8
部品1
 48
50.0
100
AcDbLine
 10
7661.258736522902
 20
1826.092144512237
 30
0.0
 11
7661.258736522902
 21
2370.092144512237
 31
0.0
  0
LINE
  5
1FABA
330
747D
100
AcDbEntity
  8
部品1
100
AcDbLine
 10
8075.258736522902
 20
1826.092144512237
 30
0.0
 11
8075.258736522902
 21
2370.092144512237
 31
0.0
  0
LINE
  5
1FABB
330
747D
100
AcDbEntity
  8
細線
 48
50.0
100
AcDbLine
 10
7945.658736522904
 20
2211.220427000825
 30
0.0
 11
8075.258736522902
 21
2340.820427000824
 31
0.0
  0
LINE
  5
1FABC
330
747D
100
AcDbEntity
  8
細線
 48
50.0
100
AcDbLine
 10
6069.711845848178
 20
2250.838996408953
 30
0.0
 11
6153.219423345708
 21
2334.346573906482
 31
0.0
  0
LINE
  5
1FABD
330
747D
100
AcDbEntity
  8
細線
 48
50.0
100
AcDbLine
 10
6080.772130611695
 20
2234.958512809258
 30
0.0
 11
6153.219423345708
 21
2307.405805543274
 31
0.0
  0
LINE
  5
1FABE
330
747D
100
AcDbEntity
  8
細線
 48
50.0
100
AcDbLine
 10
5961.219423345709
 20
2357.872720812142
 30
0.0
 11
5973.438847045803
 21
2370.092144512237
 31
0.0
  0
LINE
  5
1FABF
330
747D
100
AcDbEntity
  8
細線
 48
50.0
100
AcDbLine
 10
5961.219423345709
 20
2303.991184085727
 30
0.0
 11
6027.320383772218
 21
2370.092144512237
 31
0.0
  0
LINE
  5
1FAC0
330
747D
100
AcDbEntity
  8
細線
 48
50.0
100
AcDbLine
 10
5961.219423345709
 20
2330.931952448935
 30
0.0
 11
6000.379615409013
 21
2370.092144512237
 31
0.0
  0
LINE
  5
1FAC1
330
747D
100
AcDbEntity
  8
部品1
 48
50.0
100
AcDbLine
 10
5961.219423345709
 20
2370.092144512237
 30
0.0
 11
6153.219423345708
 21
2370.092144512237
 31
0.0
  0
DIMENSION
  5
1FAC2
330
747D
100
AcDbEntity
  8
寸法
 48
50.0
100
AcDbDimension
  2
*D23
 10
5961.219423345707
 20
2690.092144512237
 30
0.0
 11
6068.445753690905
 21
2789.759952428617
 31
0.0
 70
   160
  1
120\P170
 71
     5
 42
192.0
  3
INABA_S50G
100
AcDbAlignedDimension
 13
6153.219423345707
 23
2370.092144512237
 33
0.0
 14
5961.219423345707
 24
2370.092144512237
 34
0.0
100
AcDbRotatedDimension
1001
ACAD
1000
DSTYLE
1002
{
1070
    40
1040
1.0
1070
   272
1070
     1
1070
   279
1070
     1
1070
   341
1005
0
1002
}
  0
MTEXT
  5
1FAC3
102
{ACAD_REACTORS
330
1FB18
102
}
330
747D
100
AcDbEntity
  8
寸法
 62
     7
 48
50.0
100
AcDbMText
 10
6394.957879206959
 20
1408.743058780084
 30
0.0
 40
80.0
 41
0.8
 71
     4
 72
     1
  1
\A1;D10@300
  7
STYLE2
 73
     1
 44
1.0
1001
ACAD
1000
MTEXTBEGIN
1070
    73
1070
     1
1070
    44
1040
1.0
1070
    74
1070
     0
1000
MTEXTEND
  0
LINE
  5
1FAC4
330
747D
100
AcDbEntity
  8
細線
 48
50.0
100
AcDbLine
 10
6081.219423345714
 20
2019.879658637618
 30
0.0
 11
6153.219423345701
 21
2091.879658637612
 31
0.0
  0
LINE
  5
1FAC5
330
747D
100
AcDbEntity
  8
細線
 48
50.0
100
AcDbLine
 10
6081.219423345708
 20
2046.820427000823
 30
0.0
 11
6153.219423345708
 21
2118.820427000823
 31
0.0
  0
LINE
  5
1FAC6
330
747D
100
AcDbEntity
  8
細線
 48
50.0
100
AcDbLine
 10
6081.219423345714
 20
1777.412743368748
 30
0.0
 11
6153.219423345701
 21
1849.412743368748
 31
0.0
  0
LINE
  5
1FAC7
330
747D
100
AcDbEntity
  8
細線
 48
50.0
100
AcDbLine
 10
6081.219423345714
 20
1831.294280095166
 30
0.0
 11
6153.219423345701
 21
1903.294280095162
 31
0.0
  0
LINE
  5
1FAC8
330
747D
100
AcDbEntity
  8
細線
 48
50.0
100
AcDbLine
 10
6081.219423345714
 20
1804.353511731958
 30
0.0
 11
6153.219423345701
 21
1876.353511731952
 31
0.0
  0
LINE
  5
1FAC9
330
747D
100
AcDbEntity
  8
部品1
 48
50.0
100
AcDbLine
 10
6153.219423345708
 20
1826.092144512237
 30
0.0
 11
6281.219423345708
 21
1826.092144512237
 31
0.0
  0
LINE
  5
1FACA
330
747D
100
AcDbEntity
  8
細線
 48
50.0
100
AcDbLine
 10
6081.219423345714
 20
1992.938890274407
 30
0.0
 11
6153.219423345701
 21
2064.938890274408
 31
0.0
  0
LINE
  5
1FACB
330
747D
100
AcDbEntity
  8
部品1
 48
50.0
100
AcDbLine
 10
6049.219423345708
 20
2172.219359209359
 30
0.0
 11
6049.219423345708
 21
2230.346573906482
 31
0.0
  0
LINE
  5
1FACC
330
747D
100
AcDbEntity
  8
細線
 48
50.0
100
AcDbLine
 10
5961.219423345709
 20
2142.346573906483
 30
0.0
 11
6033.219423345709
 21
2214.346573906482
 31
0.0
  0
LINE
  5
1FACD
330
747D
100
AcDbEntity
  8
部品1
 48
50.0
100
AcDbLine
 10
6033.219423345709
 20
2172.219359209363
 30
0.0
 11
6033.219423345709
 21
2230.346573906482
 31
0.0
  0
LINE
  5
1FACE
330
747D
100
AcDbEntity
  8
細線
 48
50.0
100
AcDbLine
 10
5961.219423345709
 20
2115.405805543274
 30
0.0
 11
6033.219423345709
 21
2187.405805543274
 31
0.0
  0
LINE
  5
1FACF
330
747D
100
AcDbEntity
  8
細線
 48
50.0
100
AcDbLine
 10
5961.219423345709
 20
2088.465037180067
 30
0.0
 11
6044.973745375003
 21
2172.219359209359
 31
0.0
  0
LINE
  5
1FAD0
330
747D
100
AcDbEntity
  8
部品1
 48
50.0
100
AcDbLine
 10
6049.219423345708
 20
2172.219359209359
 30
0.0
 11
6033.219423345709
 21
2172.219359209363
 31
0.0
  0
LINE
  5
1FAD1
330
747D
100
AcDbEntity
  8
細線
 48
50.0
100
AcDbLine
 10
5833.219423345702
 20
1798.820427000823
 30
0.0
 11
5860.491140857122
 21
1826.092144512237
 31
0.0
  0
LINE
  5
1FAD2
330
747D
100
AcDbEntity
  8
細線
 48
50.0
100
AcDbLine
 10
5833.219423345702
 20
1771.879658637612
 30
0.0
 11
5887.431909220333
 21
1826.092144512237
 31
0.0
  0
LINE
  5
1FAD3
330
747D
100
AcDbEntity
  8
部品1
 48
50.0
100
AcDbLine
 10
5833.219423345709
 20
1826.092144512237
 30
0.0
 11
5961.219423345709
 21
1826.092144512237
 31
0.0
  0
LINE
  5
1FAD4
330
747D
100
AcDbEntity
  8
細線
 48
50.0
100
AcDbLine
 10
6049.219423345708
 20
2203.405805543274
 30
0.0
 11
6065.219423345709
 21
2219.405805543274
 31
0.0
  0
LINE
  5
1FAD5
330
747D
100
AcDbEntity
  8
細線
 48
50.0
100
AcDbLine
 10
6049.219423345708
 20
2176.465037180067
 30
0.0
 11
6065.219423345709
 21
2192.465037180067
 31
0.0
  0
LINE
  5
1FAD6
330
747D
100
AcDbEntity
  8
細線
 48
50.0
100
AcDbLine
 10
5961.219423345709
 20
1872.938890274408
 30
0.0
 11
6065.219423345713
 21
1976.938890274407
 31
0.0
  0
LINE
  5
1FAD7
330
747D
100
AcDbEntity
  8
細線
 48
50.0
100
AcDbLine
 10
5961.219423345709
 20
1926.820427000822
 30
0.0
 11
6065.219423345709
 21
2030.820427000823
 31
0.0
  0
LINE
  5
1FAD8
330
747D
100
AcDbEntity
  8
細線
 48
50.0
100
AcDbLine
 10
5961.219423345709
 20
1899.879658637615
 30
0.0
 11
6065.219423345713
 21
2003.879658637618
 31
0.0
  0
LINE
  5
1FAD9
330
747D
100
AcDbEntity
  8
細線
 48
50.0
100
AcDbLine
 10
6224.045068749056
 20
1562.092144512236
 30
0.0
 11
6217.61428813071
 21
1586.092144512236
 31
0.0
  0
LINE
  5
1FADA
330
747D
100
AcDbEntity
  8
細線
 48
50.0
100
AcDbLine
 10
6267.069581574101
 20
1586.092144512236
 30
0.0
 11
6281.219423345708
 21
1600.241986283843
 31
0.0
  0
LINE
  5
1FADB
330
747D
100
AcDbEntity
  8
細線
 48
50.0
100
AcDbLine
 10
6302.933113696303
 20
1562.092144512236
 30
0.0
 11
6296.502333077955
 21
1586.092144512236
 31
0.0
  0
LINE
  5
1FADC
330
747D
100
AcDbEntity
  8
部品1
 48
50.0
100
AcDbLine
 10
6225.219423345709
 20
1698.092144512236
 30
0.0
 11
6225.219423345709
 21
1682.092144512236
 31
0.0
  0
LINE
  5
1FADD
330
747D
100
AcDbEntity
  8
細線
 48
50.0
100
AcDbLine
 10
6105.424971394856
 20
1586.092144512236
 30
0.0
 11
6201.425859239993
 21
1682.093032357376
 31
0.0
  0
LINE
  5
1FADE
330
747D
100
AcDbEntity
  8
細線
 48
50.0
100
AcDbLine
 10
6078.484203031653
 20
1586.092144512236
 30
0.0
 11
6174.484203031653
 21
1682.092144512236
 31
0.0
  0
LINE
  5
1FADF
330
747D
100
AcDbEntity
  8
細線
 48
50.0
100
AcDbLine
 10
6145.157023801811
 20
1562.092144512236
 30
0.0
 11
6138.726243183464
 21
1586.092144512236
 31
0.0
  0
LINE
  5
1FAE0
330
747D
100
AcDbEntity
  8
細線
 48
50.0
100
AcDbLine
 10
6066.268978854565
 20
1562.092144512236
 30
0.0
 11
6059.838198236217
 21
1586.092144512236
 31
0.0
  0
ARC
  5
1FAE1
330
747D
100
AcDbEntity
  8
部品1
 48
50.0
100
AcDbCircle
 10
6057.219423345708
 20
1706.092144512236
 30
0.0
 40
24.0
100
AcDbArc
 50
340.528779365498
 51
0.0
  0
CIRCLE
  5
1FAE2
330
747D
100
AcDbEntity
  8
部品1
 48
50.0
100
AcDbCircle
 10
6185.219423345708
 20
1706.092144512236
 30
0.0
 40
8.0
  0
LINE
  5
1FAE3
330
747D
100
AcDbEntity
  8
細線
 48
50.0
100
AcDbLine
 10
6217.424971394855
 20
1698.092144512236
 30
0.0
 11
6281.219423345708
 21
1761.886596463088
 31
0.0
  0
LINE
  5
1FAE4
330
747D
100
AcDbEntity
  8
細線
 48
50.0
100
AcDbLine
 10
6353.954442630711
 20
1458.092144512235
 30
0.0
 11
6361.219423345708
 21
1485.205421656625
 31
0.0
  0
LINE
  5
1FAE5
330
747D
100
AcDbEntity
  8
細線
 48
50.0
100
AcDbLine
 10
6360.38522324906
 20
1482.092144512237
 30
0.0
 11
6361.219423345708
 21
1478.978867367872
 31
0.0
  0
LINE
  5
1FAE6
330
747D
100
AcDbEntity
  8
細線
 48
50.0
100
AcDbLine
 10
6281.497178301814
 20
1482.092144512237
 30
0.0
 11
6287.927958920161
 21
1458.092144512237
 31
0.0
  0
LINE
  5
1FAE7
330
747D
100
AcDbEntity
  8
細線
 48
50.0
100
AcDbLine
 10
6123.721088407322
 20
1482.092144512237
 30
0.0
 11
6130.151869025667
 21
1458.092144512237
 31
0.0
  0
LINE
  5
1FAE8
330
747D
100
AcDbEntity
  8
細線
 48
50.0
100
AcDbLine
 10
6202.609133354567
 20
1482.092144512237
 30
0.0
 11
6209.039913972914
 21
1458.092144512237
 31
0.0
  0
LINE
  5
1FAE9
330
747D
100
AcDbEntity
  8
細線
 48
50.0
100
AcDbLine
 10
6196.178352736217
 20
1458.092144512235
 30
0.0
 11
6230.475849367401
 21
1586.092144512235
 31
0.0
  0
LINE
  5
1FAEA
330
747D
100
AcDbEntity
  8
細線
 48
50.0
100
AcDbLine
 10
6117.290307788968
 20
1458.092144512237
 30
0.0
 11
6151.587804420155
 21
1586.092144512235
 31
0.0
  0
LINE
  5
1FAEB
330
747D
100
AcDbEntity
  8
細線
 48
50.0
100
AcDbLine
 10
6275.066397683462
 20
1458.092144512237
 30
0.0
 11
6309.363894314647
 21
1586.092144512235
 31
0.0
  0
LINE
  5
1FAEC
330
747D
100
AcDbEntity
  8
部品1
 48
50.0
100
AcDbLine
 10
6361.219423345712
 20
1586.092144512236
 30
0.0
 11
6361.219423345712
 21
1458.092144512237
 31
0.0
  0
LINE
  5
1FAED
330
747D
100
AcDbEntity
  8
部品1
 48
50.0
100
AcDbLine
 10
6049.219423345708
 20
1764.219359209359
 30
0.0
 11
6049.219423345708
 21
1706.092144512236
 31
0.0
  0
LINE
  5
1FAEE
330
747D
100
AcDbEntity
  8
細線
 48
50.0
100
AcDbLine
 10
5974.958056125991
 20
1698.092144512236
 30
0.0
 11
6033.219423345709
 21
1756.353511731955
 31
0.0
  0
LINE
  5
1FAEF
330
747D
100
AcDbEntity
  8
部品1
 48
50.0
100
AcDbLine
 10
6033.219423345709
 20
1764.219359209359
 30
0.0
 11
6033.219423345709
 21
1706.092144512236
 31
0.0
  0
LINE
  5
1FAF0
330
747D
100
AcDbEntity
  8
細線
 48
50.0
100
AcDbLine
 10
5889.898824489197
 20
1586.092144512236
 30
0.0
 11
5985.898824489197
 21
1682.092144512236
 31
0.0
  0
LINE
  5
1FAF1
330
747D
100
AcDbEntity
  8
細線
 48
50.0
100
AcDbLine
 10
5987.380933907313
 20
1562.092144512236
 30
0.0
 11
5980.950153288966
 21
1586.092144512236
 31
0.0
  0
LINE
  5
1FAF2
330
747D
100
AcDbEntity
  8
細線
 48
50.0
100
AcDbLine
 10
5908.49288896006
 20
1562.092144512236
 30
0.0
 11
5902.062108341714
 21
1586.092144512236
 31
0.0
  0
ARC
  5
1FAF3
330
747D
100
AcDbEntity
  8
部品1
 48
50.0
100
AcDbCircle
 10
6057.219423345708
 20
1706.092144512236
 30
0.0
 40
24.0
100
AcDbArc
 50
180.0
 51
199.471220634502
  0
LINE
  5
1FAF4
330
747D
100
AcDbEntity
  8
細線
 48
50.0
100
AcDbLine
 10
6001.898824489197
 20
1698.092144512236
 30
0.0
 11
6033.219423345709
 21
1729.412743368748
 31
0.0
  0
CIRCLE
  5
1FAF5
330
747D
100
AcDbEntity
  8
部品1
 48
50.0
100
AcDbCircle
 10
5929.219423345709
 20
1706.092144512236
 30
0.0
 40
8.0
  0
LINE
  5
1FAF6
330
747D
100
AcDbEntity
  8
部品1
 48
50.0
100
AcDbLine
 10
6049.219423345708
 20
1764.219359209359
 30
0.0
 11
6033.219423345709
 21
1764.219359209359
 31
0.0
  0
LINE
  5
1FAF7
330
747D
100
AcDbEntity
  8
細線
 48
50.0
100
AcDbLine
 10
5753.219423345708
 20
1571.432065478017
 30
0.0
 11
5757.147579683904
 21
1586.092144512236
 31
0.0
  0
LINE
  5
1FAF8
330
747D
100
AcDbEntity
  8
細線
 48
50.0
100
AcDbLine
 10
5829.604844012809
 20
1562.092144512236
 30
0.0
 11
5823.174063394461
 21
1586.092144512236
 31
0.0
  0
LINE
  5
1FAF9
330
747D
100
AcDbEntity
  8
部品1
 48
50.0
100
AcDbLine
 10
5889.219423345708
 20
1698.092144512236
 30
0.0
 11
5889.219423345708
 21
1682.092144512236
 31
0.0
  0
LINE
  5
1FAFA
330
747D
100
AcDbEntity
  8
細線
 48
50.0
100
AcDbLine
 10
5836.017287762781
 20
1586.092144512236
 30
0.0
 11
5932.017287762781
 21
1682.092144512236
 31
0.0
  0
LINE
  5
1FAFB
330
747D
100
AcDbEntity
  8
細線
 48
50.0
100
AcDbLine
 10
5862.958056125992
 20
1586.092144512236
 30
0.0
 11
5958.958056125992
 21
1682.092144512236
 31
0.0
  0
LINE
  5
1FAFC
330
747D
100
AcDbEntity
  8
細線
 48
50.0
100
AcDbLine
 10
5965.944998512823
 20
1482.092144512237
 30
0.0
 11
5972.375779131169
 21
1458.092144512237
 31
0.0
  0
LINE
  5
1FAFD
330
747D
100
AcDbEntity
  8
細線
 48
50.0
100
AcDbLine
 10
6044.833043460076
 20
1482.092144512237
 30
0.0
 11
6051.263824078422
 21
1458.092144512237
 31
0.0
  0
LINE
  5
1FAFE
330
747D
100
AcDbEntity
  8
細線
 48
50.0
100
AcDbLine
 10
5808.16890861832
 20
1482.092144512237
 30
0.0
 11
5814.599689236666
 21
1458.092144512237
 31
0.0
  0
LINE
  5
1FAFF
330
747D
100
AcDbEntity
  8
細線
 48
50.0
100
AcDbLine
 10
5887.05695356557
 20
1482.092144512237
 30
0.0
 11
5893.487734183918
 21
1458.092144512237
 31
0.0
  0
LINE
  5
1FB00
330
747D
100
AcDbEntity
  8
部品1
 48
50.0
100
AcDbLine
 10
5753.219423345711
 20
1458.092144512237
 30
0.0
 11
5753.219423345711
 21
1586.092144512236
 31
0.0
  0
LINE
  5
1FB01
330
747D
100
AcDbEntity
  8
細線
 48
50.0
100
AcDbLine
 10
5801.738127999966
 20
1458.092144512235
 30
0.0
 11
5836.03562463115
 21
1586.092144512235
 31
0.0
  0
LINE
  5
1FB02
330
747D
100
AcDbEntity
  8
細線
 48
50.0
100
AcDbLine
 10
5959.51421789447
 20
1458.092144512235
 30
0.0
 11
5993.811714525652
 21
1586.092144512235
 31
0.0
  0
LINE
  5
1FB03
330
747D
100
AcDbEntity
  8
細線
 48
50.0
100
AcDbLine
 10
5880.626172947224
 20
1458.092144512237
 30
0.0
 11
5914.923669578407
 21
1586.092144512236
 31
0.0
  0
LINE
  5
1FB04
330
747D
100
AcDbEntity
  8
細線
 48
50.0
100
AcDbLine
 10
6051.543434668442
 20
1586.092144512236
 30
0.0
 11
6147.543434668442
 21
1682.092144512236
 31
0.0
  0
CIRCLE
  5
1FB05
330
747D
100
AcDbEntity
  8
部品1
 48
50.0
100
AcDbCircle
 10
6057.219423345708
 20
1706.092144512236
 30
0.0
 40
8.0
  0
LINE
  5
1FB06
330
747D
100
AcDbEntity
  8
部品1
 48
50.0
100
AcDbLine
 10
6361.219423345712
 20
1586.092144512236
 30
0.0
 11
5753.219423345711
 21
1586.092144512236
 31
0.0
  0
LINE
  5
1FB07
330
747D
100
AcDbEntity
  8
部品1
 48
50.0
100
AcDbLine
 10
5889.219423345708
 20
1698.092144512236
 30
0.0
 11
6225.219423345709
 21
1698.092144512236
 31
0.0
  0
LINE
  5
1FB08
330
747D
100
AcDbEntity
  8
部品1
 48
50.0
100
AcDbLine
 10
5889.219423345708
 20
1682.092144512236
 30
0.0
 11
6225.219423345709
 21
1682.092144512236
 31
0.0
  0
LINE
  5
1FB09
330
747D
100
AcDbEntity
  8
部品1
 48
50.0
100
AcDbLine
 10
6361.219423345712
 20
1458.092144512237
 30
0.0
 11
5753.219423345711
 21
1458.092144512237
 31
0.0
  0
LINE
  5
1FB0A
330
747D
100
AcDbEntity
  8
細線
 48
50.0
100
AcDbLine
 10
6038.402262841723
 20
1458.092144512237
 30
0.0
 11
6072.699759472905
 21
1586.092144512236
 31
0.0
  0
LINE
  5
1FB0B
330
747D
100
AcDbEntity
  8
細線
 48
50.0
100
AcDbLine
 10
6049.219423345708
 20
1745.412743368748
 30
0.0
 11
6065.219423345713
 21
1761.412743368748
 31
0.0
  0
LINE
  5
1FB0C
330
747D
100
AcDbEntity
  8
部品1
 48
50.0
100
AcDbLine
 10
6065.219423345713
 20
1706.092144512236
 30
0.0
 11
6065.219423345701
 21
2230.346573906482
 31
0.0
  0
LINE
  5
1FB0D
330
747D
100
AcDbEntity
  8
部品1
 48
50.0
100
AcDbLine
 10
6081.219423345714
 20
1706.092144512236
 30
0.0
 11
6081.219423345708
 21
2230.346573906482
 31
0.0
  0
LINE
  5
1FB0E
330
747D
100
AcDbEntity
  8
部品1
 48
50.0
100
AcDbLine
 10
6281.219423345708
 20
1826.092144512237
 30
0.0
 11
6281.219423345708
 21
1586.092144512236
 31
0.0
  0
LINE
  5
1FB0F
330
747D
100
AcDbEntity
  8
細線
 48
50.0
100
AcDbLine
 10
6163.543434668437
 20
1698.092144512236
 30
0.0
 11
6281.219423345708
 21
1815.768133189503
 31
0.0
  0
LINE
  5
1FB10
330
747D
100
AcDbEntity
  8
細線
 48
50.0
100
AcDbLine
 10
6190.484203031652
 20
1698.092144512236
 30
0.0
 11
6281.219423345708
 21
1788.827364826295
 31
0.0
  0
LINE
  5
1FB11
330
747D
100
AcDbEntity
  8
部品1
 48
50.0
100
AcDbLine
 10
5833.219423345709
 20
1586.092144512236
 30
0.0
 11
5833.219423345709
 21
1826.092144512237
 31
0.0
  0
LINE
  5
1FB12
330
747D
100
AcDbEntity
  8
細線
 48
50.0
100
AcDbLine
 10
5948.01728776278
 20
1698.092144512236
 30
0.0
 11
6065.219423345709
 21
1815.294280095162
 31
0.0
  0
LINE
  5
1FB13
330
747D
100
AcDbEntity
  8
細線
 48
50.0
100
AcDbLine
 10
6041.085270823113
 20
1764.219359209359
 30
0.0
 11
6065.219423345713
 21
1788.353511731958
 31
0.0
  0
LINE
  5
1FB14
330
747D
100
AcDbEntity
  8
細線
 48
50.0
100
AcDbLine
 10
5833.219423345702
 20
1744.938890274407
 30
0.0
 11
5914.372677583537
 21
1826.092144512237
 31
0.0
  0
LEADER
  5
1FB15
330
747D
100
AcDbEntity
  8
寸法
 48
50.0
100
AcDbLeader
  3
INABA_S50G
 71
     0
 73
     0
 74
     0
 75
     1
 40
100.0
 41
222.7272727272727
 76
     3
 10
6057.219423345707
 20
2230.346573906482
 30
0.0
 10
6091.105360373102
 20
2171.359705811164
 30
0.0
 10
6216.105360373102
 20
2171.359705811164
 30
0.0
1001
ACAD
1000
DSTYLE
1002
{
1070
    40
1040
1.0
1070
   272
1070
     1
1070
   279
1070
     1
1070
   341
1005
0
1002
}
  0
LWPOLYLINE
  5
1FB16
330
747D
100
AcDbEntity
  8
部品1
 48
50.0
100
AcDbPolyline
 90
        2
 70
     0
 43
8.0
 10
6153.219423345707
 20
2130.092144512238
 10
6567.359325178665
 20
2130.092144512238
  0
MTEXT
  5
1FB17
102
{ACAD_REACTORS
330
1FB19
102
}
330
747D
100
AcDbEntity
  8
寸法
 62
     7
 48
50.0
100
AcDbMText
 10
6384.547083152392
 20
1670.695075569264
 30
0.0
 40
80.0
 41
0.8
 71
     4
 72
     1
  1
D10
  7
STYLE2
 73
     1
 44
1.0
1001
ACAD
1000
MTEXTBEGIN
1070
    73
1070
     1
1070
    44
1040
1.0
1070
    74
1070
     0
1000
MTEXTEND
  0
LEADER
  5
1FB18
330
747D
100
AcDbEntity
  8
寸法
 48
50.0
100
AcDbLeader
  3
INABA_S50G
 71
     0
 73
     0
 74
     0
 75
     1
 40
100.0
 41
540.3409090909091
 76
     3
 10
6131.164592358882
 20
1689.351614098711
 30
0.0
 10
6249.957879206959
 20
1347.720796103814
 30
0.0
 10
6374.957879206959
 20
1347.720796103814
 30
0.0
213
0.0
223
-1.022262676269383
233
0.0
1001
ACAD
1000
DSTYLE
1002
{
1070
    40
1040
1.0
1070
   272
1070
     1
1070
   279
1070
     1
1070
   341
1005
0
1002
}
  0
LEADER
  5
1FB19
330
747D
100
AcDbEntity
  8
寸法
 48
50.0
100
AcDbLeader
  3
INABA_S50G
 71
     0
 73
     0
 74
     0
 75
     1
 40
100.0
 41
225.0
 76
     3
 10
6185.122375697851
 20
1706.092144512236
 30
0.0
 10
6239.547083152393
 20
1610.695075569264
 30
0.0
 10
6364.547083152393
 20
1610.695075569264
 30
0.0
1001
ACAD
1000
DSTYLE
1002
{
1070
    40
1040
1.0
1070
   272
1070
     1
1070
   279
1070
     1
1070
   341
1005
0
1002
}
  0
MTEXT
  5
1FB1A
102
{ACAD_REACTORS
330
1FB15
102
}
330
747D
100
AcDbEntity
  8
寸法
 62
     7
 48
50.0
100
AcDbMText
 10
6236.105360373103
 20
2231.359705811165
 30
0.0
 40
80.0
 41
0.8
 71
     4
 72
     1
  1
D13
  7
STYLE2
 73
     1
 44
1.0
1001
ACAD
1000
MTEXTBEGIN
1070
    73
1070
     1
1070
    44
1040
1.0
1070
    74
1070
     0
1000
MTEXTEND
  0
LINE
  5
1FB1B
330
747D
100
AcDbEntity
  8
部品1
 48
50.0
100
AcDbLine
 10
6153.219423345708
 20
2370.092144512237
 30
0.0
 11
6153.219423345708
 21
1826.092144512237
 31
0.0
  0
LINE
  5
1FB1C
330
747D
100
AcDbEntity
  8
部品1
 48
50.0
100
AcDbLine
 10
5961.219423345709
 20
1826.092144512237
 30
0.0
 11
5961.219423345709
 21
2370.092144512237
 31
0.0
  0
CIRCLE
  5
1FB1D
330
747D
100
AcDbEntity
  8
部品1
 48
50.0
100
AcDbCircle
 10
6057.219423345708
 20
2230.346573906482
 30
0.0
 40
8.0
  0
ARC
  5
1FB1E
330
747D
100
AcDbEntity
  8
部品1
 48
50.0
100
AcDbCircle
 10
6057.219423345708
 20
2230.346573906482
 30
0.0
 40
24.0
100
AcDbArc
 50
0.0
 51
180.0
  0
LINE
  5
1FB1F
330
747D
100
AcDbEntity
  8
細線
 48
50.0
100
AcDbLine
 10
6081.219423345708
 20
2208.465037180067
 30
0.0
 11
6153.219423345708
 21
2280.465037180067
 31
0.0
  0
LEADER
  5
1FB20
330
747D
100
AcDbEntity
  8
寸法
 48
50.0
100
AcDbLeader
  3
INABA_S50G
 73
     0
 75
     1
 40
106.3636363636363
 41
903.5235024184547
 76
     3
 10
7792.658736522901
 20
2439.652144512238
 30
0.0
 10
7744.234664177963
 20
2813.71171922857
 30
0.0
 10
7619.234664177963
 20
2813.71171922857
 30
0.0
340
1FB21
1001
ACAD
1000
DSTYLE
1002
{
1070
   341
1005
0
1070
    40
1040
1.0
1070
   343
1005
0
1070
   344
1005
0
1002
}
  0
MTEXT
  5
1FB21
102
{ACAD_REACTORS
330
1FB20
102
}
330
747D
100
AcDbEntity
  8
寸法
 62
     7
 48
50.0
100
AcDbMText
 10
7594.234664177964
 20
2891.893537410389
 30
0.0
 40
80.0
 41
0.8
 71
     6
 72
     1
  1
アンカープレート {\fArial|b0|i0|c0|p32;U}
  7
STYLE2
 73
     1
 44
1.0
1001
ACAD
1000
MTEXTBEGIN
1070
    73
1070
     1
1070
    44
1040
1.0
1070
    74
1070
     0
1000
MTEXTEND
  0
DIMENSION
  5
1FB22
330
747D
100
AcDbEntity
  8
寸法
 48
50.0
100
AcDbDimension
  2
*D24
 10
6281.219423345707
 20
1047.662506507077
 30
0.0
 11
6037.122664667484
 21
1047.662506507077
 31
0.0
 70
   160
  1
300
 71
     5
 42
448.0
  3
INABA_S50G
100
AcDbAlignedDimension
 13
5833.219423345707
 23
1458.092144512237
 33
0.0
 14
6281.219423345707
 24
1458.092144512237
 34
0.0
100
AcDbRotatedDimension
1001
ACAD
1000
DSTYLE
1002
{
1070
    40
1040
1.0
1070
   272
1070
     1
1070
   341
1005
0
1002
}
  0
MTEXT
  5
1FB23
102
{ACAD_REACTORS
330
1FB2B
102
}
330
747D
100
AcDbEntity
  8
寸法
 62
     7
 48
50.0
100
AcDbMText
 10
5662.284397150513
 20
1502.5694508938
 30
0.0
 40
80.0
 41
0.8
 71
     6
 72
     1
  1
D10
  7
STYLE2
 73
     1
 44
1.0
1001
ACAD
1000
MTEXTBEGIN
1070
    73
1070
     1
1070
    44
1040
1.0
1070
    74
1070
     0
1000
MTEXTEND
  0
MTEXT
  5
1FB24
102
{ACAD_REACTORS
330
1FB2A
102
}
330
747D
100
AcDbEntity
  8
寸法
 62
     7
 48
50.0
100
AcDbMText
 10
5690.407124707949
 20
1322.253298354357
 30
0.0
 40
80.0
 41
0.8
 71
     6
 72
     1
  1
D13
  7
STYLE2
 73
     1
 44
1.0
1001
ACAD
1000
MTEXTBEGIN
1070
    73
1070
     1
1070
    44
1040
1.0
1070
    74
1070
     0
1000
MTEXTEND
  0
DIMENSION
  5
1FB25
330
747D
100
AcDbEntity
  8
寸法
 48
50.0
100
AcDbDimension
  2
*D25
 10
5226.182184783968
 20
1586.092144512237
 30
0.0
 11
5226.182184783968
 21
1957.632294168237
 31
0.0
 70
   160
  1
540
 71
     5
 42
784.0
  3
INABA_S50G
100
AcDbAlignedDimension
 13
5961.219423345707
 23
2370.092144512237
 33
0.0
 14
5753.219423345711
 24
1586.092144512236
 34
0.0
 50
90.0
100
AcDbRotatedDimension
1001
ACAD
1000
DSTYLE
1002
{
1070
    40
1040
1.0
1070
   272
1070
     1
1070
   341
1005
0
1002
}
  0
MTEXT
  5
1FB26
102
{ACAD_REACTORS
330
1FB27
102
}
330
747D
100
AcDbEntity
  8
寸法
 62
     7
 48
50.0
100
AcDbMText
 10
5741.120943862434
 20
2582.608364514279
 30
0.0
 40
80.0
 41
0.8
 71
     6
 72
     1
  1
\A1;金コテ押エ
  7
STYLE2
 73
     1
 44
1.0
1001
ACAD
1000
MTEXTBEGIN
1070
    73
1070
     1
1070
    44
1040
1.0
1070
    74
1070
     0
1000
MTEXTEND
  0
LEADER
  5
1FB27
330
747D
100
AcDbEntity
  8
寸法
 48
50.0
100
AcDbLeader
  3
INABA_S50G
 71
     0
 73
     0
 75
     1
 40
130.1136363636363
 41
651.1363636363636
 76
     3
 10
6041.219423345708
 20
2370.092144512237
 30
0.0
 10
5928.794843181691
 20
2510.562909968825
 30
0.0
 10
5803.794843181691
 20
2510.562909968825
 30
0.0
1001
ACAD
1000
DSTYLE
1002
{
1070
    40
1040
1.0
1070
   272
1070
     1
1070
   279
1070
     1
1070
   341
1005
0
1002
}
  0
LEADER
  5
1FB28
330
747D
100
AcDbEntity
  8
寸法
 48
50.0
100
AcDbLeader
  3
INABA_S50G
 71
     0
 73
     0
 75
     1
 40
100.0
 41
540.3409090909091
 76
     3
 10
6065.219423345707
 20
2128.21935920936
 30
0.0
 10
6007.237186817009
 20
1906.749030668555
 30
0.0
 10
5882.237186817009
 20
1906.749030668555
 30
0.0
213
-9.732182305893367
223
-4.643716661138569
233
0.0
1001
ACAD
1000
DSTYLE
1002
{
1070
    40
1040
1.0
1070
   272
1070
     1
1070
   279
1070
     1
1070
   341
1005
0
1002
}
  0
MTEXT
  5
1FB29
102
{ACAD_REACTORS
330
1FB28
102
}
330
747D
100
AcDbEntity
  8
寸法
 62
     7
 48
50.0
100
AcDbMText
 10
5871.969369122903
 20
1971.392747329693
 30
0.0
 40
80.0
 41
0.8
 71
     6
 72
     1
  1
\A1;D10@300
  7
STYLE2
 73
     1
 44
1.0
1001
ACAD
1000
MTEXTBEGIN
1070
    73
1070
     1
1070
    44
1040
1.0
1070
    74
1070
     0
1000
MTEXTEND
  0
LEADER
  5
1FB2A
330
747D
100
AcDbEntity
  8
寸法
 48
50.0
100
AcDbLeader
  3
INABA_S50G
 71
     0
 73
     0
 75
     1
 40
100.0
 41
222.7272727272727
 76
     3
 10
6057.219423345707
 20
1706.092144512236
 30
0.0
 10
5835.407124707948
 20
1262.253298354357
 30
0.0
 10
5710.407124707948
 20
1262.253298354357
 30
0.0
1001
ACAD
1000
DSTYLE
1002
{
1070
    40
1040
1.0
1070
   272
1070
     1
1070
   279
1070
     1
1070
   341
1005
0
1002
}
  0
LEADER
  5
1FB2B
330
747D
100
AcDbEntity
  8
寸法
 48
50.0
100
AcDbLeader
  3
INABA_S50G
 71
     0
 73
     0
 75
     1
 40
100.0
 41
225.0
 76
     3
 10
5929.122375697851
 20
1706.092144512236
 30
0.0
 10
5807.284397150514
 20
1442.5694508938
 30
0.0
 10
5682.284397150514
 20
1442.5694508938
 30
0.0
1001
ACAD
1000
DSTYLE
1002
{
1070
    40
1040
1.0
1070
   272
1070
     1
1070
   279
1070
     1
1070
   341
1005
0
1002
}
  0
DIMENSION
  5
1FB2C
330
747D
100
AcDbEntity
  8
寸法
 48
50.0
100
AcDbDimension
  2
*D26
 10
5690.799109613248
 20
1586.092144512236
 30
0.0
 11
5690.799109613248
 21
1706.092144512236
 31
0.0
 70
   160
  1
150
 71
     5
 42
240.0
  3
INABA_S50G
100
AcDbAlignedDimension
 13
5833.219423345707
 23
1826.092144512237
 33
0.0
 14
5753.219423345711
 24
1586.092144512236
 34
0.0
 50
90.0
100
AcDbRotatedDimension
1001
ACAD
1000
DSTYLE
1002
{
1070
    40
1040
1.0
1070
   272
1070
     1
1070
   279
1070
     1
1070
   341
1005
0
1002
}
  0
TEXT
  5
1FB2D
330
747D
100
AcDbEntity
  8
部品1
 48
50.0
100
AcDbText
 10
5547.079521512751
 20
2141.331136795492
 30
0.0
 40
80.0
  1
▽G.L
  7
STYLE2
100
AcDbText
  0
LWPOLYLINE
  5
1FB2E
330
747D
100
AcDbEntity
  8
部品1
 48
50.0
100
AcDbPolyline
 90
        2
 70
     0
 43
8.0
 10
5547.079521512751
 20
2130.092144512238
 10
5961.219423345707
 20
2130.092144512238
  0
MTEXT
  5
1FB2F
102
{ACAD_REACTORS
330
1FB30
102
}
330
747D
100
AcDbEntity
  8
寸法
 62
     7
 48
50.0
100
AcDbMText
 10
7567.591657969604
 20
3252.577809317903
 30
0.0
 40
80.0
 41
0.8
 71
     6
 72
     1
  1
\A1;φ70スリーブ
  7
STYLE2
 73
     1
 44
1.0
1001
ACAD
1000
MTEXTBEGIN
1070
    73
1070
     1
1070
    44
1040
1.0
1070
    74
1070
     0
1000
MTEXTEND
  0
LEADER
  5
1FB30
330
747D
100
AcDbEntity
  8
寸法
 48
50.0
100
AcDbLeader
  3
INABA_S50G
 73
     0
 75
     1
 40
113.1818181818182
 41
608.6363636363635
 76
     3
 10
7851.395486660952
 20
2319.607817870516
 30
0.0
 10
7717.591657969603
 20
3170.986900226993
 30
0.0
 10
7592.591657969603
 20
3170.986900226993
 30
0.0
340
1FB2F
1001
ACAD
1000
DSTYLE
1002
{
1070
   341
1005
0
1070
    40
1040
1.0
1070
   343
1005
0
1070
   344
1005
0
1002
}
  0
LINE
  5
1FB31
330
747D
100
AcDbEntity
  8
部品1
100
AcDbLine
 10
4890.550984536445
 20
3691.063764289082
 30
0.0
 11
4890.550984536447
 21
726.7567947044344
 31
0.0
  0
LEADER
  5
1FB32
330
747D
100
AcDbEntity
  8
寸法
 48
50.0
100
AcDbLeader
  3
INABA_S50G
 73
     0
 74
     0
 75
     1
 40
80.0
 41
435.0
 76
     3
 10
7891.658736522902
 20
2419.252144512237
 30
0.0
 10
7934.203198942221
 20
2569.475470665467
 30
0.0
 10
8059.203198942221
 20
2569.475470665467
 30
0.0
340
1FB33
1001
ACAD
1000
DSTYLE
1002
{
1070
   341
1005
0
1070
    40
1040
1.0
1070
   343
1005
0
1070
   344
1005
0
1002
}
  0
MTEXT
  5
1FB33
102
{ACAD_REACTORS
330
1FB32
102
}
330
747D
100
AcDbEntity
  8
部品1
 62
     7
 48
50.0
100
AcDbMText
 10
8084.203198942221
 20
2634.475470665467
 30
0.0
 40
80.0
 41
0.8
 71
     4
 72
     1
  1
M10X160
  7
STYLE2
 73
     1
 44
1.0
1001
ACAD
1000
MTEXTBEGIN
1070
    73
1070
     1
1070
    44
1040
1.0
1070
    74
1070
     0
1000
MTEXTEND
  0
DIMENSION
  5
1FB34
330
747D
100
AcDbEntity
  8
寸法
 48
50.0
100
AcDbDimension
  2
*D27
 10
8577.127336291745
 20
2370.092144512237
 30
0.0
 11
8853.182002410774
 21
2344.968186908025
 31
0.0
 70
   160
  1
20～25
 71
     5
 42
52.76000000000113
  3
INABA_S50G
100
AcDbAlignedDimension
 13
7888.058736522902
 23
2422.852144512238
 33
0.0
 14
8075.258736522902
 24
2370.092144512237
 34
0.0
 50
90.0
100
AcDbRotatedDimension
1001
ACAD
1000
DSTYLE
1002
{
1070
    40
1040
1.0
1070
   279
1070
     1
1002
}
  0
DIMENSION
  5
1FB35
330
747D
100
AcDbEntity
  8
寸法
 48
50.0
100
AcDbDimension
  2
*D28
 10
8577.127336291745
 20
2046.092144512236
 30
0.0
 11
8477.127336291745
 21
2208.092144512238
 31
0.0
 70
    32
  1
180
 71
     5
 42
324.0000000000009
  3
INABA_S50G
100
AcDbAlignedDimension
 13
8075.258736522902
 23
2370.092144512237
 33
0.0
 14
8075.258736522902
 24
2046.092144512236
 34
0.0
 50
90.0
100
AcDbRotatedDimension
1001
ACAD
1000
DSTYLE
1002
{
1070
    40
1040
1.0
1070
    75
1070
     1
1070
   279
1070
     1
1002
}
  0
TEXT
  5
1FB36
330
747D
100
AcDbEntity
  8
部品1
 48
50.0
100
AcDbText
 10
8079.612320807331
 20
2725.970825274437
 30
0.0
 40
80.0
  1
基礎ボルト(市販品)
  7
STYLE2
100
AcDbText
  0
LWPOLYLINE
  5
1FB37
330
747D
100
AcDbEntity
  8
部品1
 48
50.0
100
AcDbPolyline
 90
        2
 70
     0
 43
8.0
 10
8075.258736522902
 20
2130.092144512238
 10
8368.961199922285
 20
2130.092144512238
  0
MTEXT
  5
1FB38
102
{ACAD_REACTORS
330
1FB39
102
}
330
747D
100
AcDbEntity
  8
部品1
 62
     7
 48
50.0
100
AcDbMText
 10
8114.530326891742
 20
3070.587517599497
 30
0.0
 40
80.0
 41
0.8
 71
     4
 72
     1
  1
\A1;ワッシャー(市販品)
  7
STYLE2
 73
     1
 44
1.0
1001
ACAD
1000
MTEXTBEGIN
1070
    73
1070
     1
1070
    44
1040
1.0
1070
    74
1070
     0
1000
MTEXTEND
  0
LEADER
  5
1FB39
330
747D
100
AcDbEntity
  8
寸法
 48
50.0
100
AcDbLeader
  3
INABA_S50G
 73
     0
 74
     0
 75
     1
 40
102.2727272727273
 41
906.8181818181818
 76
     3
 10
7922.658736522902
 20
2639.215432956517
 30
0.0
 10
7964.530326891742
 20
2994.451153963133
 30
0.0
 10
8089.530326891742
 20
2994.451153963133
 30
0.0
340
1FB38
1001
ACAD
1000
DSTYLE
1002
{
1070
   341
1005
0
1070
    40
1040
1.0
1070
   343
1005
0
1070
   344
1005
0
1002
}
  0
MTEXT
  5
1FB3A
102
{ACAD_REACTORS
330
1FB3B
102
}
330
747D
100
AcDbEntity
  8
部品1
 62
     7
 48
50.0
100
AcDbMText
 10
8083.01270763626
 20
3255.556600364285
 30
0.0
 40
80.0
 41
0.8
 71
     4
 72
     1
  1
\A1;ナット(市販品)
  7
STYLE2
 73
     1
 44
1.0
1001
ACAD
1000
MTEXTBEGIN
1070
    73
1070
     1
1070
    44
1040
1.0
1070
    74
1070
     0
1000
MTEXTEND
  0
LEADER
  5
1FB3B
330
747D
100
AcDbEntity
  8
寸法
 48
50.0
100
AcDbLeader
  3
INABA_S50G
 73
     0
 74
     0
 75
     1
 40
102.2727272727273
 41
680.0000000000001
 76
     3
 10
7898.658736522901
 20
2768.96742562138
 30
0.0
 10
7933.01270763626
 20
3179.420236727921
 30
0.0
 10
8058.01270763626
 20
3179.420236727921
 30
0.0
340
1FB3A
1001
ACAD
1000
DSTYLE
1002
{
1070
   341
1005
0
1070
    40
1040
1.0
1070
   343
1005
0
1070
   344
1005
0
1002
}
  0
LINE
  5
1FB3C
330
747D
100
AcDbEntity
  8
部品1
100
AcDbLine
 10
4890.550984536448
 20
726.7567947044344
 30
0.0
 11
10961.53616992269
 21
726.7567947044344
 31
0.0
  0
LINE
  5
1FB3D
330
747D
100
AcDbEntity
  8
部品1
100
AcDbLine
 10
10961.53616992269
 20
3451.06376428908
 30
0.0
 11
4890.550984536447
 21
3451.06376428908
 31
0.0
  0
LINE
  5
1FB3E
330
747D
100
AcDbEntity
  8
部品1
100
AcDbLine
 10
10961.5361699227
 20
3691.063764289082
 30
0.0
 11
4890.550984536443
 21
3691.063764289082
 31
0.0
  0
DIMENSION
  5
1FBFB
330
747D
100
AcDbEntity
  8
寸法
 48
50.0
100
AcDbDimension
  2
*D29
 10
8743.599999999998
 20
6588.46495758829
 30
0.0
 11
8519.011190266654
 21
6642.926744252149
 31
0.0
 70
   160
 71
     5
 42
110.0
  3
INABA_S40G
100
AcDbAlignedDimension
 13
8633.599999999999
 23
6789.246300175033
 33
0.0
 14
8743.599999999998
 24
6789.246300175034
 34
0.0
100
AcDbRotatedDimension
1001
ACAD
1000
DSTYLE
1002
{
1070
   174
1070
     0
1070
   272
1070
     1
1070
   279
1070
     2
1070
   288
1070
     0
1070
   341
1005
0
1002
}
  0
HATCH
  5
1FC41
330
747D
100
AcDbEntity
  8
細線
 48
50.0
100
AcDbHatch
 10
0.0
 20
0.0
 30
0.0
210
0.0
220
0.0
230
1.0
  2
LINE
 70
     0
 71
     0
 91
        1
 92
        7
 72
     0
 73
     1
 93
        4
 10
8863.599999999998
 20
6429.246300175035
 10
8743.599999999998
 20
6429.246300175037
 10
8743.599999999998
 20
6229.246300175037
 10
8863.599999999998
 20
6229.246300175034
 97
        0
 75
     0
 76
     1
 52
45.0
 41
10.0
 77
     0
 78
     1
 53
45.0
 43
0.0
 44
0.0
 45
-22.45064030267288
 46
22.45064030267288
 79
     0
 47
3.6736423943132
 98
        1
 10
8792.457475758107
 20
6356.003179178224
  0
HATCH
  5
1FC5C
330
747D
100
AcDbEntity
  8
細線
 48
50.0
100
AcDbHatch
 10
0.0
 20
0.0
 30
0.0
210
0.0
220
0.0
230
1.0
  2
LINE
 70
     0
 71
     0
 91
        1
 92
        7
 72
     0
 73
     1
 93
        4
 10
8193.600000000001
 20
7019.246300175035
 10
7993.599999999998
 20
7019.246300175035
 10
7993.6
 20
6899.246300175033
 10
8193.599999999999
 20
6899.246300175035
 97
        0
 75
     0
 76
     1
 52
45.0
 41
10.0
 77
     0
 78
     1
 53
45.0
 43
0.0
 44
0.0
 45
-22.45064030267288
 46
22.45064030267288
 79
     0
 47
3.6736423943132
 98
        1
 10
8013.314130842969
 20
6947.459602750972
  0
HATCH
  5
1FC77
330
747D
100
AcDbEntity
  8
細線
 48
50.0
100
AcDbHatch
 10
0.0
 20
0.0
 30
0.0
210
0.0
220
0.0
230
1.0
  2
LINE
 70
     0
 71
     0
 91
        1
 92
        7
 72
     0
 73
     1
 93
        4
 10
7443.599999999999
 20
6429.246300175036
 10
7323.599999999998
 20
6429.246300175035
 10
7323.599999999998
 20
6229.246300175034
 10
7443.599999999999
 20
6229.246300175033
 97
        0
 75
     0
 76
     1
 52
45.0
 41
10.0
 77
     0
 78
     1
 53
45.0
 43
0.0
 44
0.0
 45
-22.45064030267288
 46
22.45064030267288
 79
     0
 47
3.6736423943132
 98
        1
 10
7392.204617286167
 20
6337.634949303057
  0
TEXT
  5
1FCA9
330
747D
100
AcDbEntity
  8
文字
 62
     7
 48
50.0
100
AcDbText
 10
14816.49629419351
 20
1031.557706291228
 30
0.0
 40
100.0
  1
 <縮尺> S=1/40
  7
STYLE2
100
AcDbText
  0
ENDSEC
  0
SECTION
  2
OBJECTS
  0
DICTIONARY
  5
7471
330
0
100
AcDbDictionary
281
     1
  3
ACAD_COLOR
350
159B0
  3
ACAD_GROUP
350
7472
  3
ACAD_LAYOUT
350
159B1
  3
ACAD_MATERIAL
350
159AF
  3
ACAD_MLINESTYLE
350
7473
  3
ACAD_PLOTSETTINGS
350
159B2
  3
ACAD_PLOTSTYLENAME
350
159AD
  3
ACDBHEADERROUNDTRIPXREC
350
1FCAC
  3
AcDbVariableDictionary
350
1F6A6
  3
CONTENTDICTIONARY
350
E71C
  3
DRAWINGVARIABLESDICT
350
F3B9
  0
DICTIONARY
  5
1F6B4
330
7467
100
AcDbDictionary
280
     1
281
     1
  3
ACAD_LAYERSTATES
360
1F6B5
  0
DICTIONARY
  5
159B0
102
{ACAD_REACTORS
330
7471
102
}
330
7471
100
AcDbDictionary
281
     1
  0
DICTIONARY
  5
7472
102
{ACAD_REACTORS
330
7471
102
}
330
7471
100
AcDbDictionary
281
     1
  0
DICTIONARY
  5
159B1
102
{ACAD_REACTORS
330
7471
102
}
330
7471
100
AcDbDictionary
281
     1
  3
Model
350
159B3
  3
レイアウト1
350
159B4
  0
DICTIONARY
  5
159AF
102
{ACAD_REACTORS
330
7471
102
}
330
7471
100
AcDbDictionary
281
     1
  0
DICTIONARY
  5
7473
102
{ACAD_REACTORS
330
7471
102
}
330
7471
100
AcDbDictionary
281
     1
  3
STANDARD
350
7480
  0
DICTIONARY
  5
159B2
102
{ACAD_REACTORS
330
7471
102
}
330
7471
100
AcDbDictionary
281
     1
  0
ACDBDICTIONARYWDFLT
  5
159AD
102
{ACAD_REACTORS
330
7471
102
}
330
7471
100
AcDbDictionary
281
     1
  3
Normal
350
159AE
100
AcDbDictionaryWithDefault
340
159AE
  0
DICTIONARY
  5
1FCAC
102
{ACAD_REACTORS
330
7471
102
}
330
7471
100
AcDbDictionary
281
     1
  3
COLORDICT
350
1FCAE
  3
MATERIALDICT
350
1FCAD
  0
DICTIONARY
  5
1F6A6
102
{ACAD_REACTORS
330
7471
102
}
330
7471
100
AcDbDictionary
281
     1
  3
DIMASSOC
350
1F6A7
  3
PROJECTNAME
350
1F6A8
  0
DICTIONARY
  5
E71C
102
{ACAD_REACTORS
330
7471
102
}
330
7471
100
AcDbDictionary
281
     1
  0
DICTIONARY
  5
F3B9
102
{ACAD_REACTORS
330
7471
102
}
330
7471
100
AcDbDictionary
281
     1
1001
DRAWINGVARIABLESXDATA
1000
POLARMODE
1000
1
  0
DICTIONARY
  5
1F6B5
102
{ACAD_REACTORS
330
1F6B4
102
}
330
1F6B4
100
AcDbDictionary
281
     1
  0
LAYOUT
  5
159B3
102
{ACAD_XDICTIONARY
360
1FCAF
102
}
102
{ACAD_REACTORS
330
159B1
102
}
330
159B1
100
AcDbPlotSettings
  1

  2
クセロPDF
  4
A3
  6

 40
3.174999952316284
 41
3.174999952316284
 42
3.17498779296875
 43
3.17498779296875
 44
419.9466552734374
 45
296.9259948730469
 46
0.0
 47
0.0
 48
4642.187503212656
 49
4154.992190764132
140
4729.542942495195
141
4373.285230072328
142
1.0
143
40.0
 70
 11952
 72
     1
 73
     0
 74
     2
  7
inaba.ctb
 75
    24
147
0.025
148
0.0
149
0.0
100
AcDbLayout
  1
Model
 70
     1
 71
     0
 10
0.0
 20
0.0
 11
12.0
 21
9.0
 12
0.0
 22
0.0
 32
0.0
 14
0.0
 24
0.0
 34
0.0
 15
0.0
 25
0.0
 35
0.0
146
0.0
 13
0.0
 23
0.0
 33
0.0
 16
1.0
 26
0.0
 36
0.0
 17
0.0
 27
1.0
 37
0.0
 76
     0
330
747D
  0
LAYOUT
  5
159B4
102
{ACAD_XDICTIONARY
360
1FCB1
102
}
102
{ACAD_REACTORS
330
159B1
102
}
330
159B1
100
AcDbPlotSettings
  1

  2
自動 EPSON LP-8400FX (TATENO 上)
  4

  6

 40
0.0
 41
0.0
 42
0.0
 43
0.0
 44
0.0
 45
0.0
 46
0.0
 47
0.0
 48
0.0
 49
0.0
140
0.0
141
0.0
142
1.0
143
1.0
 70
   688
 72
     0
 73
     0
 74
     5
  7
inaba.ctb
 75
    16
147
1.0
148
0.0
149
0.0
100
AcDbLayout
  1
レイアウト1
 70
     0
 71
     1
 10
0.0
 20
0.0
 11
420.0
 21
297.0
 12
0.0
 22
0.0
 32
0.0
 14
1.000000000000000E+20
 24
1.000000000000000E+20
 34
1.000000000000000E+20
 15
-1.000000000000000E+20
 25
-1.000000000000000E+20
 35
-1.000000000000000E+20
146
0.0
 13
0.0
 23
0.0
 33
0.0
 16
1.0
 26
0.0
 36
0.0
 17
0.0
 27
1.0
 37
0.0
 76
     0
330
747A
  0
MLINESTYLE
  5
7480
102
{ACAD_REACTORS
330
7473
102
}
330
7473
100
AcDbMlineStyle
  2
STANDARD
 70
     0
  3

 62
     0
 51
90.0
 52
90.0
 71
     2
 49
0.5
 62
   256
  6
BYLAYER
 49
-0.5
 62
   256
  6
BYLAYER
  0
ACDBPLACEHOLDER
  5
159AE
102
{ACAD_REACTORS
330
159AD
102
}
330
159AD
  0
XRECORD
  5
1FCAE
102
{ACAD_REACTORS
330
1FCAC
102
}
330
1FCAC
100
AcDbXrecord
280
     1
340
159B0
  0
XRECORD
  5
1FCAD
102
{ACAD_REACTORS
330
1FCAC
102
}
330
1FCAC
100
AcDbXrecord
280
     1
340
159AF
  0
DICTIONARYVAR
  5
1F6A7
102
{ACAD_REACTORS
330
1F6A6
102
}
330
1F6A6
100
DictionaryVariables
280
     0
  1
1
  0
DICTIONARYVAR
  5
1F6A8
102
{ACAD_REACTORS
330
1F6A6
102
}
330
1F6A6
100
DictionaryVariables
280
     0
  1

  0
DICTIONARY
  5
1FCAF
330
159B3
100
AcDbDictionary
280
     1
281
     1
  3
ACAD_XREC_ROUNDTRIP
360
1FCB0
  0
DICTIONARY
  5
1FCB1
330
159B4
100
AcDbDictionary
280
     1
281
     1
  3
ACAD_XREC_ROUNDTRIP
360
1FCB2
  0
XRECORD
  5
1FCB0
102
{ACAD_REACTORS
330
1FCAF
102
}
330
1FCAF
100
AcDbXrecord
280
     1
102
SHADEPLOT
 70
     0
102
SHADEPLOTRESLEVEL
 70
     2
102
SHADEPLOTCUSTOMDPI
 70
   150
  0
XRECORD
  5
1FCB2
102
{ACAD_REACTORS
330
1FCB1
102
}
330
1FCB1
100
AcDbXrecord
280
     1
102
SHADEPLOT
 70
     0
102
SHADEPLOTRESLEVEL
 70
     2
102
SHADEPLOTCUSTOMDPI
 70
   300
  0
ENDSEC
  0
EOF
