  0
SECTION
  2
HEADER
  9
$ACADVER
  1
AC1015
  9
$ACADMAINTVER
 70
    20
  9
$DWGCODEPAGE
  3
ANSI_932
  9
$INSBASE
 10
0.0
 20
0.0
 30
0.0
  9
$EXTMIN
 10
139.9999999999995
 20
-0.0000000000000909
 30
0.0
  9
$EXTMAX
 10
16307.2
 20
11409.6
 30
0.0
  9
$LIMMIN
 10
0.0
 20
0.0
  9
$LIMMAX
 10
16800.0
 20
11880.0
  9
$ORTHOMODE
 70
     0
  9
$REGENMODE
 70
     1
  9
$FILLMODE
 70
     1
  9
$QTEXTMODE
 70
     0
  9
$MIRRTEXT
 70
     1
  9
$LTSCALE
 40
20.0
  9
$ATTMODE
 70
     1
  9
$TEXTSIZE
 40
4.0
  9
$TRACEWID
 40
1.0
  9
$TEXTSTYLE
  7
STYLE1
  9
$CLAYER
  8
寸法
  9
$CELTYPE
  6
BYLAYER
  9
$CECOLOR
 62
   256
  9
$CELTSCALE
 40
50.0
  9
$DISPSILH
 70
     0
  9
$DIMSCALE
 40
40.0
  9
$DIMASZ
 40
2.5
  9
$DIMEXO
 40
0.5
  9
$DIMDLI
 40
7.0
  9
$DIMRND
 40
0.0
  9
$DIMDLE
 40
0.0
  9
$DIMEXE
 40
1.5
  9
$DIMTP
 40
0.0
  9
$DIMTM
 40
0.0
  9
$DIMTXT
 40
3.0
  9
$DIMCEN
 40
0.0
  9
$DIMTSZ
 40
0.0
  9
$DIMTOL
 70
     0
  9
$DIMLIM
 70
     0
  9
$DIMTIH
 70
     0
  9
$DIMTOH
 70
     0
  9
$DIMSE1
 70
     0
  9
$DIMSE2
 70
     0
  9
$DIMTAD
 70
     3
  9
$DIMZIN
 70
     8
  9
$DIMBLK
  1

  9
$DIMASO
 70
     1
  9
$DIMSHO
 70
     1
  9
$DIMPOST
  1

  9
$DIMAPOST
  1

  9
$DIMALT
 70
     0
  9
$DIMALTD
 70
     2
  9
$DIMALTF
 40
0.0394
  9
$DIMLFAC
 40
1.0
  9
$DIMTOFL
 70
     1
  9
$DIMTVP
 40
0.0
  9
$DIMTIX
 70
     1
  9
$DIMSOXD
 70
     0
  9
$DIMSAH
 70
     1
  9
$DIMBLK1
  1
DOTSMALL
  9
$DIMBLK2
  1
DOTSMALL
  9
$DIMSTYLE
  2
INABA_S40G
  9
$DIMCLRD
 70
     0
  9
$DIMCLRE
 70
     0
  9
$DIMCLRT
 70
     7
  9
$DIMTFAC
 40
1.0
  9
$DIMGAP
 40
1.0
  9
$DIMJUST
 70
     0
  9
$DIMSD1
 70
     0
  9
$DIMSD2
 70
     0
  9
$DIMTOLJ
 70
     1
  9
$DIMTZIN
 70
     0
  9
$DIMALTZ
 70
     0
  9
$DIMALTTZ
 70
     0
  9
$DIMUPT
 70
     0
  9
$DIMDEC
 70
     1
  9
$DIMTDEC
 70
     4
  9
$DIMALTU
 70
     2
  9
$DIMALTTD
 70
     2
  9
$DIMTXSTY
  7
STYLE1
  9
$DIMAUNIT
 70
     0
  9
$DIMADEC
 70
     0
  9
$DIMALTRND
 40
0.0
  9
$DIMAZIN
 70
     0
  9
$DIMDSEP
 70
    46
  9
$DIMATFIT
 70
     3
  9
$DIMFRAC
 70
     0
  9
$DIMLDRBLK
  1
DOTSMALL
  9
$DIMLUNIT
 70
     2
  9
$DIMLWD
 70
    -2
  9
$DIMLWE
 70
    -2
  9
$DIMTMOVE
 70
     0
  9
$LUNITS
 70
     2
  9
$LUPREC
 70
     1
  9
$SKETCHINC
 40
1.0
  9
$FILLETRAD
 40
3.0
  9
$AUNITS
 70
     0
  9
$AUPREC
 70
     0
  9
$MENU
  1
acad
  9
$ELEVATION
 40
0.0
  9
$PELEVATION
 40
0.0
  9
$THICKNESS
 40
0.0
  9
$LIMCHECK
 70
     0
  9
$CHAMFERA
 40
0.0
  9
$CHAMFERB
 40
0.0
  9
$CHAMFERC
 40
0.0
  9
$CHAMFERD
 40
0.0
  9
$SKPOLY
 70
     0
  9
$TDCREATE
 40
2451368.612993866
  9
$TDUCREATE
 40
2451368.237993866
  9
$TDUPDATE
 40
2455827.787984803
  9
$TDUUPDATE
 40
2455827.412984803
  9
$TDINDWG
 40
0.7378331366
  9
$TDUSRTIMER
 40
0.7378331366
  9
$USRTIMER
 70
     1
  9
$ANGBASE
 50
0.0
  9
$ANGDIR
 70
     0
  9
$PDMODE
 70
     3
  9
$PDSIZE
 40
2.0
  9
$PLINEWID
 40
0.0
  9
$SPLFRAME
 70
     0
  9
$SPLINETYPE
 70
     6
  9
$SPLINESEGS
 70
     8
  9
$HANDSEED
  5
1FE21
  9
$SURFTAB1
 70
     6
  9
$SURFTAB2
 70
     6
  9
$SURFTYPE
 70
     6
  9
$SURFU
 70
     6
  9
$SURFV
 70
     6
  9
$UCSBASE
  2

  9
$UCSNAME
  2

  9
$UCSORG
 10
0.0
 20
0.0
 30
0.0
  9
$UCSXDIR
 10
1.0
 20
0.0
 30
0.0
  9
$UCSYDIR
 10
0.0
 20
1.0
 30
0.0
  9
$UCSORTHOREF
  2

  9
$UCSORTHOVIEW
 70
     0
  9
$UCSORGTOP
 10
0.0
 20
0.0
 30
0.0
  9
$UCSORGBOTTOM
 10
0.0
 20
0.0
 30
0.0
  9
$UCSORGLEFT
 10
0.0
 20
0.0
 30
0.0
  9
$UCSORGRIGHT
 10
0.0
 20
0.0
 30
0.0
  9
$UCSORGFRONT
 10
0.0
 20
0.0
 30
0.0
  9
$UCSORGBACK
 10
0.0
 20
0.0
 30
0.0
  9
$PUCSBASE
  2

  9
$PUCSNAME
  2

  9
$PUCSORG
 10
0.0
 20
0.0
 30
0.0
  9
$PUCSXDIR
 10
1.0
 20
0.0
 30
0.0
  9
$PUCSYDIR
 10
0.0
 20
1.0
 30
0.0
  9
$PUCSORTHOREF
  2

  9
$PUCSORTHOVIEW
 70
     0
  9
$PUCSORGTOP
 10
0.0
 20
0.0
 30
0.0
  9
$PUCSORGBOTTOM
 10
0.0
 20
0.0
 30
0.0
  9
$PUCSORGLEFT
 10
0.0
 20
0.0
 30
0.0
  9
$PUCSORGRIGHT
 10
0.0
 20
0.0
 30
0.0
  9
$PUCSORGFRONT
 10
0.0
 20
0.0
 30
0.0
  9
$PUCSORGBACK
 10
0.0
 20
0.0
 30
0.0
  9
$USERI1
 70
     0
  9
$USERI2
 70
     0
  9
$USERI3
 70
     0
  9
$USERI4
 70
     0
  9
$USERI5
 70
     0
  9
$USERR1
 40
0.0
  9
$USERR2
 40
0.0
  9
$USERR3
 40
0.0
  9
$USERR4
 40
0.0
  9
$USERR5
 40
0.0
  9
$WORLDVIEW
 70
     1
  9
$SHADEDGE
 70
     3
  9
$SHADEDIF
 70
    70
  9
$TILEMODE
 70
     1
  9
$MAXACTVP
 70
    16
  9
$PINSBASE
 10
0.0
 20
0.0
 30
0.0
  9
$PLIMCHECK
 70
     0
  9
$PEXTMIN
 10
1.000000000000000E+20
 20
1.000000000000000E+20
 30
1.000000000000000E+20
  9
$PEXTMAX
 10
-1.000000000000000E+20
 20
-1.000000000000000E+20
 30
-1.000000000000000E+20
  9
$PLIMMIN
 10
0.0
 20
0.0
  9
$PLIMMAX
 10
420.0
 20
297.0
  9
$UNITMODE
 70
     0
  9
$VISRETAIN
 70
     0
  9
$PLINEGEN
 70
     0
  9
$PSLTSCALE
 70
     0
  9
$TREEDEPTH
 70
  3020
  9
$CMLSTYLE
  2
STANDARD
  9
$CMLJUST
 70
     0
  9
$CMLSCALE
 40
1.0
  9
$PROXYGRAPHICS
 70
     1
  9
$MEASUREMENT
 70
     1
  9
$CELWEIGHT
370
    -1
  9
$ENDCAPS
280
     0
  9
$JOINSTYLE
280
     0
  9
$LWDISPLAY
290
     0
  9
$INSUNITS
 70
     0
  9
$HYPERLINKBASE
  1

  9
$STYLESHEET
  1
inaba.ctb
  9
$XEDIT
290
     1
  9
$CEPSNTYPE
380
     0
  9
$PSTYLEMODE
290
     1
  9
$FINGERPRINTGUID
  2
{5EAC461A-2277-4BF8-9AB0-99C43BB394F0}
  9
$VERSIONGUID
  2
{1619E6FA-E04F-421A-8796-ABEAC1A8A94E}
  9
$EXTNAMES
290
     1
  9
$PSVPSCALE
 40
0.0
  9
$OLESTARTUP
290
     0
  0
ENDSEC
  0
SECTION
  2
CLASSES
  0
CLASS
  1
ACDBDICTIONARYWDFLT
  2
AcDbDictionaryWithDefault
  3
ObjectDBX Classes
 90
        0
280
     0
281
     0
  0
CLASS
  1
DICTIONARYVAR
  2
AcDbDictionaryVar
  3
ObjectDBX Classes
 90
        0
280
     0
281
     0
  0
CLASS
  1
ACDBPLACEHOLDER
  2
AcDbPlaceHolder
  3
ObjectDBX Classes
 90
        0
280
     0
281
     0
  0
CLASS
  1
LAYOUT
  2
AcDbLayout
  3
ObjectDBX Classes
 90
        0
280
     0
281
     0
  0
ENDSEC
  0
SECTION
  2
TABLES
  0
TABLE
  2
VPORT
  5
746D
330
0
100
AcDbSymbolTable
 70
     2
  0
VPORT
  5
1FE19
330
746D
100
AcDbSymbolTableRecord
100
AcDbViewportTableRecord
  2
*Active
 70
     0
 10
0.0
 20
0.0
 11
1.0
 21
1.0
 12
8223.761025238502
 22
5704.608037261908
 13
0.0
 23
0.0
 14
10.0
 24
10.0
 15
10.0
 25
10.0
 16
0.0
 26
0.0
 36
1.0
 17
0.0
 27
0.0
 37
0.0
 40
11495.08541324274
 41
1.522222222222221
 42
50.0
 43
0.0
 44
0.0
 50
0.0
 51
0.0
 71
     0
 72
     0
 73
     1
 74
     0
 75
     0
 76
     0
 77
     0
 78
     0
281
     0
 65
     1
110
0.0
120
0.0
130
0.0
111
1.0
121
0.0
131
0.0
112
0.0
122
1.0
132
0.0
 79
     0
146
0.0
  0
ENDTAB
  0
TABLE
  2
LTYPE
  5
746A
330
0
100
AcDbSymbolTable
 70
     3
  0
LTYPE
  5
7477
330
746A
100
AcDbSymbolTableRecord
100
AcDbLinetypeTableRecord
  2
BYBLOCK
 70
     0
  3

 72
    65
 73
     0
 40
0.0
  0
LTYPE
  5
7478
330
746A
100
AcDbSymbolTableRecord
100
AcDbLinetypeTableRecord
  2
BYLAYER
 70
     0
  3

 72
    65
 73
     0
 40
0.0
  0
LTYPE
  5
7479
330
746A
100
AcDbSymbolTableRecord
100
AcDbLinetypeTableRecord
  2
CONTINUOUS
 70
     0
  3
Solid line
 72
    65
 73
     0
 40
0.0
  0
LTYPE
  5
7816
330
746A
100
AcDbSymbolTableRecord
100
AcDbLinetypeTableRecord
  2
CENTER
 70
     0
  3
____ _ ____ _ ____ _ ____ _ ____ _ ____ _ ____ 
 72
    65
 73
     4
 40
2.0
 49
1.25
 74
     0
 49
-0.25
 74
     0
 49
0.25
 74
     0
 49
-0.25
 74
     0
  0
LTYPE
  5
781B
330
746A
100
AcDbSymbolTableRecord
100
AcDbLinetypeTableRecord
  2
PHANTOM
 70
     0
  3
______  __  __  ______  __  __  ______  __  __ 
 72
    65
 73
     6
 40
2.5
 49
1.25
 74
     0
 49
-0.25
 74
     0
 49
0.25
 74
     0
 49
-0.25
 74
     0
 49
0.25
 74
     0
 49
-0.25
 74
     0
  0
ENDTAB
  0
TABLE
  2
LAYER
  5
7467
102
{ACAD_XDICTIONARY
360
1758F
102
}
330
0
100
AcDbSymbolTable
 70
    11
  0
LAYER
  5
7474
330
7467
100
AcDbSymbolTableRecord
100
AcDbLayerTableRecord
  2
0
 70
     0
 62
     7
  6
CONTINUOUS
370
    -3
390
173D0
  0
LAYER
  5
DEB2
330
7467
100
AcDbSymbolTableRecord
100
AcDbLayerTableRecord
  2
センター
 70
     0
 62
     3
  6
CENTER
370
    -3
390
173D0
  0
LAYER
  5
DEB3
330
7467
100
AcDbSymbolTableRecord
100
AcDbLayerTableRecord
  2
寸法
 70
     0
 62
     4
  6
CONTINUOUS
370
    -3
390
173D0
  0
LAYER
  5
DEB4
330
7467
100
AcDbSymbolTableRecord
100
AcDbLayerTableRecord
  2
部品1
 70
     0
 62
     7
  6
CONTINUOUS
370
    -3
390
173D0
  0
LAYER
  5
DEB5
330
7467
100
AcDbSymbolTableRecord
100
AcDbLayerTableRecord
  2
補助
 70
     0
 62
    -1
  6
CONTINUOUS
370
    -3
390
173D0
  0
LAYER
  5
DEB6
330
7467
100
AcDbSymbolTableRecord
100
AcDbLayerTableRecord
  2
文字
 70
     0
 62
     7
  6
CONTINUOUS
370
    -3
390
173D0
  0
LAYER
  5
F255
330
7467
100
AcDbSymbolTableRecord
100
AcDbLayerTableRecord
  2
DEFPOINTS
 70
     0
 62
     7
  6
CONTINUOUS
290
     0
370
    -3
390
173D0
  0
LAYER
  5
10B54
330
7467
100
AcDbSymbolTableRecord
100
AcDbLayerTableRecord
  2
仕様書枠
 70
     0
 62
   230
  6
CONTINUOUS
370
    -3
390
173D0
  0
LAYER
  5
11729
330
7467
100
AcDbSymbolTableRecord
100
AcDbLayerTableRecord
  2
Ｇ．Ｌ
 70
     0
 62
    30
  6
CONTINUOUS
370
    -3
390
173D0
  0
LAYER
  5
1173F
330
7467
100
AcDbSymbolTableRecord
100
AcDbLayerTableRecord
  2
細線
 70
     0
 62
     5
  6
CONTINUOUS
370
    -3
390
173D0
  0
LAYER
  5
12CC4
330
7467
100
AcDbSymbolTableRecord
100
AcDbLayerTableRecord
  2
想像線
 70
     0
 62
     6
  6
PHANTOM
370
    -3
390
173D0
  0
ENDTAB
  0
TABLE
  2
STYLE
  5
7468
330
0
100
AcDbSymbolTable
 70
     4
  0
STYLE
  5
7475
330
7468
100
AcDbSymbolTableRecord
100
AcDbTextStyleTableRecord
  2
STANDARD
 70
     0
 40
0.0
 41
1.0
 50
0.0
 71
     0
 42
4.0
  3
txt
  4
C:\AutoCAD LT\bigfont.shx
  0
STYLE
  5
763C
330
7468
100
AcDbSymbolTableRecord
100
AcDbTextStyleTableRecord
  2
MSMINCHO
 70
     0
 40
0.0
 41
1.0
 50
0.0
 71
     0
 42
1.199999999999999
  3
C:\AutoCAD LT\msminch2.TTF
  4

  0
STYLE
  5
F706
330
7468
100
AcDbSymbolTableRecord
100
AcDbTextStyleTableRecord
  2
STYLE1
 70
     0
 40
0.0
 41
1.0
 50
0.0
 71
     0
 42
4.0
  3
isocp.shx
  4
bigfont.shx
  0
STYLE
  5
103BF
330
7468
100
AcDbSymbolTableRecord
100
AcDbTextStyleTableRecord
  2
STYLE2
 70
     0
 40
0.0
 41
1.0
 50
0.0
 71
     0
 42
100.0
  3
MS PGothic.ttf
  4

1001
ACAD
1000
MS PGothic
1071
    32818
  0
ENDTAB
  0
TABLE
  2
VIEW
  5
746B
330
0
100
AcDbSymbolTable
 70
     0
  0
ENDTAB
  0
TABLE
  2
UCS
  5
746C
330
0
100
AcDbSymbolTable
 70
     0
  0
ENDTAB
  0
TABLE
  2
APPID
  5
746E
330
0
100
AcDbSymbolTable
 70
     6
  0
APPID
  5
7476
330
746E
100
AcDbSymbolTableRecord
100
AcDbRegAppTableRecord
  2
ACAD
 70
     0
  0
APPID
  5
DEA9
330
746E
100
AcDbSymbolTableRecord
100
AcDbRegAppTableRecord
  2
CONTENTBLOCKICON
 70
     0
  0
APPID
  5
DEAA
330
746E
100
AcDbSymbolTableRecord
100
AcDbRegAppTableRecord
  2
CONTENTBLOCKDESCRIPTION
 70
     0
  0
APPID
  5
E71D
330
746E
100
AcDbSymbolTableRecord
100
AcDbRegAppTableRecord
  2
CONTENTTABDATA
 70
     0
  0
APPID
  5
E71E
330
746E
100
AcDbSymbolTableRecord
100
AcDbRegAppTableRecord
  2
CONTENTCURRENTTAB
 70
     0
  0
APPID
  5
F3BA
330
746E
100
AcDbSymbolTableRecord
100
AcDbRegAppTableRecord
  2
DRAWINGVARIABLESXDATA
 70
     0
  0
ENDTAB
  0
TABLE
  2
DIMSTYLE
  5
746F
330
0
100
AcDbSymbolTable
 70
     1
100
AcDbDimStyleTable
 71
     1
340
F71F
  0
DIMSTYLE
105
F71F
102
{ACAD_REACTORS
330
1D333
330
1D2D6
330
1AC2C
330
1AC27
330
1FB3D
330
1FB46
330
1FB47
330
1FB5C
330
1FBB6
330
1FBBC
330
1AE6B
330
1AE6C
330
1AE6D
330
1AE6E
330
1AE6F
330
1AE70
330
1AE71
330
1AE72
330
1AE73
330
1AE74
330
1AE75
330
1AE76
330
1AEB7
330
1AEB8
330
1AEB9
330
1AEBA
330
1AEBB
330
1AEBC
330
1AFCE
330
1B078
330
1B07C
330
1B090
330
1B12E
330
1B12F
330
1DAC7
330
1DAC8
330
1DAC9
330
1DACA
330
1EF6D
330
1F812
102
}
330
746F
100
AcDbSymbolTableRecord
100
AcDbDimStyleTableRecord
  2
INABA_S40G
 70
     0
 40
40.0
 41
2.5
 42
0.5
 43
7.0
 44
1.5
 73
     0
 74
     0
 77
     3
 78
     8
140
3.0
141
0.0
143
0.0394
147
1.0
172
     1
173
     1
174
     1
178
     7
271
     1
340
F706
341
F770
343
F770
344
F770
  0
ENDTAB
  0
TABLE
  2
BLOCK_RECORD
  5
7466
330
0
100
AcDbSymbolTable
 70
    37
  0
BLOCK_RECORD
  5
747D
330
7466
100
AcDbSymbolTableRecord
100
AcDbBlockTableRecord
  2
*MODEL_SPACE
340
173D5
  0
BLOCK_RECORD
  5
747A
330
7466
100
AcDbSymbolTableRecord
100
AcDbBlockTableRecord
  2
*PAPER_SPACE
340
173D6
  0
BLOCK_RECORD
  5
F770
330
7466
100
AcDbSymbolTableRecord
100
AcDbBlockTableRecord
  2
_DOTSMALL
340
0
102
{BLKREFS
331
1F865
331
1F866
331
1F8A8
331
1F8A9
331
1F8BD
331
1F8BE
331
1F8DA
331
1F8DB
331
1F8E3
331
1F8E4
331
1F8F6
331
1F8F7
331
1F8FF
331
1F900
331
1F908
331
1F909
331
1F911
331
1F912
331
1F91C
331
1F91D
331
1F926
331
1F927
331
1F931
331
1F932
331
1F93A
331
1F93B
331
1F943
331
1F944
331
1F94C
331
1F94D
331
1F955
331
1F956
331
1F95F
331
1F960
331
1F969
331
1F96A
331
1F974
331
1F975
331
1F987
331
1F988
331
1F990
331
1F991
331
1F99B
331
1F99C
331
1F9A5
331
1F9A6
331
1FCB2
331
1FCB3
331
1FCBB
331
1FCBC
331
1FCC4
331
1FCC5
331
1FCCD
331
1FCCE
331
1FCD6
331
1FCD7
331
1FCE1
331
1FCE2
331
1FD83
331
1FD84
331
1FD8D
331
1FD8E
331
1FD97
331
1FD98
331
1FDA1
331
1FDA2
331
1FDC9
331
1FDCA
331
1FDDD
331
1FDDE
331
1FDE7
331
1FDE8
102
}
  0
BLOCK_RECORD
  5
1B685
330
7466
100
AcDbSymbolTableRecord
100
AcDbBlockTableRecord
  2
*D1
340
0
  0
BLOCK_RECORD
  5
1B692
330
7466
100
AcDbSymbolTableRecord
100
AcDbBlockTableRecord
  2
*D2
340
0
  0
BLOCK_RECORD
  5
1B69F
330
7466
100
AcDbSymbolTableRecord
100
AcDbBlockTableRecord
  2
*D3
340
0
  0
BLOCK_RECORD
  5
1B6AB
330
7466
100
AcDbSymbolTableRecord
100
AcDbBlockTableRecord
  2
*D4
340
0
  0
BLOCK_RECORD
  5
1B6B7
330
7466
100
AcDbSymbolTableRecord
100
AcDbBlockTableRecord
  2
*D5
340
0
  0
BLOCK_RECORD
  5
1B6C4
330
7466
100
AcDbSymbolTableRecord
100
AcDbBlockTableRecord
  2
*D6
340
0
  0
BLOCK_RECORD
  5
1B6D1
330
7466
100
AcDbSymbolTableRecord
100
AcDbBlockTableRecord
  2
*D7
340
0
  0
BLOCK_RECORD
  5
1B6DE
330
7466
100
AcDbSymbolTableRecord
100
AcDbBlockTableRecord
  2
*D8
340
0
  0
BLOCK_RECORD
  5
1B6EB
330
7466
100
AcDbSymbolTableRecord
100
AcDbBlockTableRecord
  2
*D9
340
0
  0
BLOCK_RECORD
  5
1B6F6
330
7466
100
AcDbSymbolTableRecord
100
AcDbBlockTableRecord
  2
*D10
340
0
  0
BLOCK_RECORD
  5
1B701
330
7466
100
AcDbSymbolTableRecord
100
AcDbBlockTableRecord
  2
*D11
340
0
  0
BLOCK_RECORD
  5
1B70C
330
7466
100
AcDbSymbolTableRecord
100
AcDbBlockTableRecord
  2
*D12
340
0
  0
BLOCK_RECORD
  5
1B724
330
7466
100
AcDbSymbolTableRecord
100
AcDbBlockTableRecord
  2
*D13
340
0
  0
BLOCK_RECORD
  5
1B72E
330
7466
100
AcDbSymbolTableRecord
100
AcDbBlockTableRecord
  2
*D14
340
0
  0
BLOCK_RECORD
  5
1B73B
330
7466
100
AcDbSymbolTableRecord
100
AcDbBlockTableRecord
  2
*D15
340
0
  0
BLOCK_RECORD
  5
1B747
330
7466
100
AcDbSymbolTableRecord
100
AcDbBlockTableRecord
  2
*D16
340
0
  0
BLOCK_RECORD
  5
1B753
330
7466
100
AcDbSymbolTableRecord
100
AcDbBlockTableRecord
  2
*D17
340
0
  0
BLOCK_RECORD
  5
1B75E
330
7466
100
AcDbSymbolTableRecord
100
AcDbBlockTableRecord
  2
*D18
340
0
  0
BLOCK_RECORD
  5
1B783
330
7466
100
AcDbSymbolTableRecord
100
AcDbBlockTableRecord
  2
*D19
340
0
  0
BLOCK_RECORD
  5
1B78F
330
7466
100
AcDbSymbolTableRecord
100
AcDbBlockTableRecord
  2
*D20
340
0
  0
BLOCK_RECORD
  5
1B79C
330
7466
100
AcDbSymbolTableRecord
100
AcDbBlockTableRecord
  2
*D21
340
0
  0
BLOCK_RECORD
  5
1B7A8
330
7466
100
AcDbSymbolTableRecord
100
AcDbBlockTableRecord
  2
*D22
340
0
  0
BLOCK_RECORD
  5
1B7CC
330
7466
100
AcDbSymbolTableRecord
100
AcDbBlockTableRecord
  2
*D23
340
0
  0
BLOCK_RECORD
  5
1B7D9
330
7466
100
AcDbSymbolTableRecord
100
AcDbBlockTableRecord
  2
*D24
340
0
  0
BLOCK_RECORD
  5
1DACB
330
7466
100
AcDbSymbolTableRecord
100
AcDbBlockTableRecord
  2
*D25
340
0
  0
BLOCK_RECORD
  5
1DAD7
330
7466
100
AcDbSymbolTableRecord
100
AcDbBlockTableRecord
  2
*D26
340
0
  0
BLOCK_RECORD
  5
1DAE5
330
7466
100
AcDbSymbolTableRecord
100
AcDbBlockTableRecord
  2
*D27
340
0
  0
BLOCK_RECORD
  5
1DAF2
330
7466
100
AcDbSymbolTableRecord
100
AcDbBlockTableRecord
  2
*D28
340
0
  0
BLOCK_RECORD
  5
1EF6E
330
7466
100
AcDbSymbolTableRecord
100
AcDbBlockTableRecord
  2
*D29
340
0
  0
BLOCK_RECORD
  5
1F813
330
7466
100
AcDbSymbolTableRecord
100
AcDbBlockTableRecord
  2
*D30
340
0
  0
BLOCK_RECORD
  5
1FC65
330
7466
100
AcDbSymbolTableRecord
100
AcDbBlockTableRecord
  2
*D31
340
0
  0
BLOCK_RECORD
  5
1FC71
330
7466
100
AcDbSymbolTableRecord
100
AcDbBlockTableRecord
  2
*D32
340
0
  0
BLOCK_RECORD
  5
1FC7D
330
7466
100
AcDbSymbolTableRecord
100
AcDbBlockTableRecord
  2
*D33
340
0
  0
BLOCK_RECORD
  5
1FC89
330
7466
100
AcDbSymbolTableRecord
100
AcDbBlockTableRecord
  2
*D34
340
0
  0
BLOCK_RECORD
  5
1FC95
330
7466
100
AcDbSymbolTableRecord
100
AcDbBlockTableRecord
  2
*D35
340
0
  0
BLOCK_RECORD
  5
1FCA1
330
7466
100
AcDbSymbolTableRecord
100
AcDbBlockTableRecord
  2
*D36
340
0
  0
ENDTAB
  0
ENDSEC
  0
SECTION
  2
BLOCKS
  0
BLOCK
  5
7489
330
747D
100
AcDbEntity
  8
0
100
AcDbBlockBegin
  2
*MODEL_SPACE
 70
     0
 10
0.0
 20
0.0
 30
0.0
  3
*MODEL_SPACE
  1

  0
ENDBLK
  5
748A
330
747D
100
AcDbEntity
  8
0
100
AcDbBlockEnd
  0
BLOCK
  5
7487
330
747A
100
AcDbEntity
 67
     1
  8
0
100
AcDbBlockBegin
  2
*PAPER_SPACE
 70
     0
 10
0.0
 20
0.0
 30
0.0
  3
*PAPER_SPACE
  1

  0
ENDBLK
  5
7488
330
747A
100
AcDbEntity
 67
     1
  8
0
100
AcDbBlockEnd
  0
BLOCK
  5
F771
330
F770
100
AcDbEntity
  8
0
 48
50.0
100
AcDbBlockBegin
  2
_DOTSMALL
 70
     0
 10
0.0
 20
0.0
 30
0.0
  3
_DOTSMALL
  1

  0
LWPOLYLINE
  5
F772
330
F770
100
AcDbEntity
  8
0
  6
ByBlock
 62
     0
 48
50.0
100
AcDbPolyline
 90
        2
 70
     1
 43
0.5
 10
-0.0625
 20
0.0
 42
1.0
 10
0.0625
 20
0.0
 42
1.0
  0
ENDBLK
  5
F776
330
F770
100
AcDbEntity
  8
0
 48
50.0
100
AcDbBlockEnd
  0
BLOCK
  5
1B690
330
1B685
100
AcDbEntity
  8
0
 48
50.0
100
AcDbBlockBegin
  2
*D1
 70
     1
 10
0.0
 20
0.0
 30
0.0
  3
*D1
  1

  0
LINE
  5
1F9A1
330
1B685
100
AcDbEntity
  8
寸法
 62
     0
 48
50.0
370
    -2
100
AcDbLine
 10
9963.600000000001
 20
8603.269226480636
 30
0.0
 11
9963.600000000001
 21
9389.02885302272
 31
0.0
  0
LINE
  5
1F9A2
330
1B685
100
AcDbEntity
  8
寸法
 62
     0
 48
50.0
370
    -2
100
AcDbLine
 10
9840.600000000002
 20
8530.269226480635
 30
0.0
 11
9840.600000000002
 21
9389.02885302272
 31
0.0
  0
LINE
  5
1F9A3
330
1B685
100
AcDbEntity
  8
寸法
 62
     0
 48
50.0
370
    -2
100
AcDbLine
 10
9840.600000000002
 20
9329.028853022718
 30
0.0
 11
9963.600000000001
 21
9329.028853022718
 31
0.0
  0
LINE
  5
1F9A4
330
1B685
100
AcDbEntity
  8
寸法
 62
     0
 48
50.0
370
    -2
100
AcDbLine
 10
9963.600000000001
 20
9329.028853022718
 30
0.0
 11
10375.19188309203
 21
9329.028853022718
 31
0.0
  0
INSERT
  5
1F9A5
330
1B685
100
AcDbEntity
  8
寸法
 62
     0
 48
50.0
370
    -2
100
AcDbBlockReference
  2
_DOTSMALL
 10
9840.600000000002
 20
9329.028853022718
 30
0.0
 41
100.0
 42
100.0
 43
100.0
 50
180.0
  0
INSERT
  5
1F9A6
330
1B685
100
AcDbEntity
  8
寸法
 62
     0
 48
50.0
370
    -2
100
AcDbBlockReference
  2
_DOTSMALL
 10
9963.600000000001
 20
9329.028853022718
 30
0.0
 41
100.0
 42
100.0
 43
100.0
  0
MTEXT
  5
1F9A7
330
1B685
100
AcDbEntity
  8
寸法
 62
     7
 48
50.0
100
AcDbMText
 10
10236.7066017178
 20
9429.04066404634
 30
0.0
 40
120.0
 41
0.0
 71
     5
 72
     1
  1
\A1;123
  7
STYLE1
 73
     1
 44
1.0
1001
ACAD
1000
MTEXTBEGIN
1070
    73
1070
     1
1070
    44
1040
1.0
1070
    74
1070
     0
1000
MTEXTEND
  0
POINT
  5
1F9A8
330
1B685
100
AcDbEntity
  8
DEFPOINTS
 62
     0
 48
50.0
100
AcDbPoint
 10
9963.600000000001
 20
8583.269226480636
 30
0.0
  0
POINT
  5
1F9A9
330
1B685
100
AcDbEntity
  8
DEFPOINTS
 62
     0
 48
50.0
100
AcDbPoint
 10
9840.600000000002
 20
8510.269226480636
 30
0.0
  0
POINT
  5
1F9AA
330
1B685
100
AcDbEntity
  8
DEFPOINTS
 62
     0
 48
50.0
100
AcDbPoint
 10
9840.600000000002
 20
9329.028853022718
 30
0.0
  0
ENDBLK
  5
1B691
330
1B685
100
AcDbEntity
  8
0
 48
50.0
100
AcDbBlockEnd
  0
BLOCK
  5
1B69D
330
1B692
100
AcDbEntity
  8
0
 48
50.0
100
AcDbBlockBegin
  2
*D2
 70
     1
 10
0.0
 20
0.0
 30
0.0
  3
*D2
  1

  0
LINE
  5
1F996
330
1B692
100
AcDbEntity
  8
寸法
 62
     0
 48
50.0
370
    -2
100
AcDbLine
 10
9963.600000000001
 20
8603.269226480636
 30
0.0
 11
9963.600000000001
 21
9601.489548539557
 31
0.0
  0
LINE
  5
1F997
330
1B692
100
AcDbEntity
  8
寸法
 62
     0
 48
50.0
370
    -2
100
AcDbLine
 10
10008.6
 20
9349.028853022719
 30
0.0
 11
10008.6
 21
9601.489548539557
 31
0.0
  0
LINE
  5
1F998
330
1B692
100
AcDbEntity
  8
寸法
 62
     0
 48
50.0
370
    -2
100
AcDbLine
 10
9963.600000000001
 20
9541.489548539557
 30
0.0
 11
9863.600000000001
 21
9541.489548539557
 31
0.0
  0
LINE
  5
1F999
330
1B692
100
AcDbEntity
  8
寸法
 62
     0
 48
50.0
370
    -2
100
AcDbLine
 10
10008.6
 20
9541.489548539557
 30
0.0
 11
10345.94924240492
 21
9541.489548539557
 31
0.0
  0
LINE
  5
1F99A
330
1B692
100
AcDbEntity
  8
寸法
 62
     0
 48
50.0
370
    -2
100
AcDbLine
 10
9963.600000000001
 20
9541.489548539557
 30
0.0
 11
10008.6
 21
9541.489548539557
 31
0.0
  0
INSERT
  5
1F99B
330
1B692
100
AcDbEntity
  8
寸法
 62
     0
 48
50.0
370
    -2
100
AcDbBlockReference
  2
_DOTSMALL
 10
9963.600000000001
 20
9541.489548539557
 30
0.0
 41
100.0
 42
100.0
 43
100.0
  0
INSERT
  5
1F99C
330
1B692
100
AcDbEntity
  8
寸法
 62
     0
 48
50.0
370
    -2
100
AcDbBlockReference
  2
_DOTSMALL
 10
10008.6
 20
9541.489548539557
 30
0.0
 41
100.0
 42
100.0
 43
100.0
 50
180.0
  0
MTEXT
  5
1F99D
330
1B692
100
AcDbEntity
  8
寸法
 62
     7
 48
50.0
100
AcDbMText
 10
10279.77462120246
 20
9641.489548539558
 30
0.0
 40
120.0
 41
0.0
 71
     5
 72
     1
  1
\A1;a
  7
STYLE1
 73
     1
 44
1.0
1001
ACAD
1000
MTEXTBEGIN
1070
    73
1070
     1
1070
    44
1040
1.0
1070
    74
1070
     0
1000
MTEXTEND
  0
POINT
  5
1F99E
330
1B692
100
AcDbEntity
  8
DEFPOINTS
 62
     0
 48
50.0
100
AcDbPoint
 10
9963.600000000001
 20
8583.269226480636
 30
0.0
  0
POINT
  5
1F99F
330
1B692
100
AcDbEntity
  8
DEFPOINTS
 62
     0
 48
50.0
100
AcDbPoint
 10
10008.6
 20
9329.028853022718
 30
0.0
  0
POINT
  5
1F9A0
330
1B692
100
AcDbEntity
  8
DEFPOINTS
 62
     0
 48
50.0
100
AcDbPoint
 10
10008.6
 20
9541.489548539557
 30
0.0
  0
ENDBLK
  5
1B69E
330
1B692
100
AcDbEntity
  8
0
 48
50.0
100
AcDbBlockEnd
  0
BLOCK
  5
1B6A9
330
1B69F
100
AcDbEntity
  8
0
 48
50.0
100
AcDbBlockBegin
  2
*D3
 70
     1
 10
0.0
 20
0.0
 30
0.0
  3
*D3
  1

  0
LINE
  5
1F98D
330
1B69F
100
AcDbEntity
  8
寸法
 62
     0
 48
50.0
370
    -2
100
AcDbLine
 10
9963.600000000001
 20
8603.269226480636
 30
0.0
 11
9963.600000000001
 21
9170.178992128965
 31
0.0
  0
LINE
  5
1F98E
330
1B69F
100
AcDbEntity
  8
寸法
 62
     0
 48
50.0
370
    -2
100
AcDbLine
 10
9055.600000000001
 20
8073.269226480636
 30
0.0
 11
9055.600000000001
 21
9170.178992128965
 31
0.0
  0
LINE
  5
1F98F
330
1B69F
100
AcDbEntity
  8
寸法
 62
     0
 48
50.0
370
    -2
100
AcDbLine
 10
9963.600000000001
 20
9110.178992128963
 30
0.0
 11
9055.600000000001
 21
9110.178992128963
 31
0.0
  0
INSERT
  5
1F990
330
1B69F
100
AcDbEntity
  8
寸法
 62
     0
 48
50.0
370
    -2
100
AcDbBlockReference
  2
_DOTSMALL
 10
9963.600000000001
 20
9110.178992128963
 30
0.0
 41
100.0
 42
100.0
 43
100.0
  0
INSERT
  5
1F991
330
1B69F
100
AcDbEntity
  8
寸法
 62
     0
 48
50.0
370
    -2
100
AcDbBlockReference
  2
_DOTSMALL
 10
9055.600000000001
 20
9110.178992128963
 30
0.0
 41
100.0
 42
100.0
 43
100.0
 50
180.0
  0
MTEXT
  5
1F992
330
1B69F
100
AcDbEntity
  8
寸法
 62
     7
 48
50.0
100
AcDbMText
 10
9534.51852200628
 20
9210.178992128964
 30
0.0
 40
120.0
 41
0.0
 71
     5
 72
     1
  1
\A1;908
  7
STYLE1
 73
     1
 44
1.0
1001
ACAD
1000
MTEXTBEGIN
1070
    73
1070
     1
1070
    44
1040
1.0
1070
    74
1070
     0
1000
MTEXTEND
  0
POINT
  5
1F993
330
1B69F
100
AcDbEntity
  8
DEFPOINTS
 62
     0
 48
50.0
100
AcDbPoint
 10
9963.600000000001
 20
8583.269226480636
 30
0.0
  0
POINT
  5
1F994
330
1B69F
100
AcDbEntity
  8
DEFPOINTS
 62
     0
 48
50.0
100
AcDbPoint
 10
9055.600000000001
 20
8053.269226480635
 30
0.0
  0
POINT
  5
1F995
330
1B69F
100
AcDbEntity
  8
DEFPOINTS
 62
     0
 48
50.0
100
AcDbPoint
 10
9055.600000000001
 20
9110.178992128963
 30
0.0
  0
ENDBLK
  5
1B6AA
330
1B69F
100
AcDbEntity
  8
0
 48
50.0
100
AcDbBlockEnd
  0
BLOCK
  5
1B6B5
330
1B6AB
100
AcDbEntity
  8
0
 48
50.0
100
AcDbBlockBegin
  2
*D4
 70
     1
 10
0.0
 20
0.0
 30
0.0
  3
*D4
  1

  0
LINE
  5
1F984
330
1B6AB
100
AcDbEntity
  8
寸法
 62
     0
 48
50.0
370
    -2
100
AcDbLine
 10
9055.600000000001
 20
8073.269226480636
 30
0.0
 11
9055.600000000001
 21
9170.178992128965
 31
0.0
  0
LINE
  5
1F985
330
1B6AB
100
AcDbEntity
  8
寸法
 62
     0
 48
50.0
370
    -2
100
AcDbLine
 10
8223.600000000001
 20
8073.269226480636
 30
0.0
 11
8223.600000000001
 21
9170.178992128965
 31
0.0
  0
LINE
  5
1F986
330
1B6AB
100
AcDbEntity
  8
寸法
 62
     0
 48
50.0
370
    -2
100
AcDbLine
 10
9055.600000000001
 20
9110.178992128963
 30
0.0
 11
8223.600000000001
 21
9110.178992128963
 31
0.0
  0
INSERT
  5
1F987
330
1B6AB
100
AcDbEntity
  8
寸法
 62
     0
 48
50.0
370
    -2
100
AcDbBlockReference
  2
_DOTSMALL
 10
9055.600000000001
 20
9110.178992128963
 30
0.0
 41
100.0
 42
100.0
 43
100.0
  0
INSERT
  5
1F988
330
1B6AB
100
AcDbEntity
  8
寸法
 62
     0
 48
50.0
370
    -2
100
AcDbBlockReference
  2
_DOTSMALL
 10
8223.600000000001
 20
9110.178992128963
 30
0.0
 41
100.0
 42
100.0
 43
100.0
 50
180.0
  0
MTEXT
  5
1F989
330
1B6AB
100
AcDbEntity
  8
寸法
 62
     7
 48
50.0
100
AcDbMText
 10
8639.599999999999
 20
9210.190803152585
 30
0.0
 40
120.0
 41
0.0
 71
     5
 72
     1
  1
\A1;832
  7
STYLE1
 73
     1
 44
1.0
1001
ACAD
1000
MTEXTBEGIN
1070
    73
1070
     1
1070
    44
1040
1.0
1070
    74
1070
     0
1000
MTEXTEND
  0
POINT
  5
1F98A
330
1B6AB
100
AcDbEntity
  8
DEFPOINTS
 62
     0
 48
50.0
100
AcDbPoint
 10
9055.600000000001
 20
8053.269226480635
 30
0.0
  0
POINT
  5
1F98B
330
1B6AB
100
AcDbEntity
  8
DEFPOINTS
 62
     0
 48
50.0
100
AcDbPoint
 10
8223.600000000001
 20
8053.269226480635
 30
0.0
  0
POINT
  5
1F98C
330
1B6AB
100
AcDbEntity
  8
DEFPOINTS
 62
     0
 48
50.0
100
AcDbPoint
 10
8223.600000000001
 20
9110.178992128963
 30
0.0
  0
ENDBLK
  5
1B6B6
330
1B6AB
100
AcDbEntity
  8
0
 48
50.0
100
AcDbBlockEnd
  0
BLOCK
  5
1B6C2
330
1B6B7
100
AcDbEntity
  8
0
 48
50.0
100
AcDbBlockBegin
  2
*D5
 70
     1
 10
0.0
 20
0.0
 30
0.0
  3
*D5
  1

  0
LINE
  5
1FD89
330
1B6B7
100
AcDbEntity
  8
寸法
 62
     0
 48
50.0
370
    -2
100
AcDbLine
 10
6733.6
 20
8463.269226480633
 30
0.0
 11
6990.307249876099
 21
8463.269226480633
 31
0.0
  0
LINE
  5
1FD8A
330
1B6B7
100
AcDbEntity
  8
寸法
 62
     0
 48
50.0
370
    -2
100
AcDbLine
 10
6733.600000000002
 20
8583.269226480634
 30
0.0
 11
6990.307249876099
 21
8583.269226480634
 31
0.0
  0
LINE
  5
1FD8B
330
1B6B7
100
AcDbEntity
  8
寸法
 62
     0
 48
50.0
370
    -2
100
AcDbLine
 10
6930.307249876098
 20
8463.269226480633
 30
0.0
 11
6930.307249876098
 21
8583.269226480634
 31
0.0
  0
LINE
  5
1FD8C
330
1B6B7
100
AcDbEntity
  8
寸法
 62
     0
 48
50.0
370
    -2
100
AcDbLine
 10
6930.307249876098
 20
8583.269226480634
 30
0.0
 11
6930.307249876098
 21
8997.400013848007
 31
0.0
  0
INSERT
  5
1FD8D
330
1B6B7
100
AcDbEntity
  8
寸法
 62
     0
 48
50.0
370
    -2
100
AcDbBlockReference
  2
_DOTSMALL
 10
6930.307249876098
 20
8463.269226480633
 30
0.0
 41
100.0
 42
100.0
 43
100.0
 50
270.0
  0
INSERT
  5
1FD8E
330
1B6B7
100
AcDbEntity
  8
寸法
 62
     0
 48
50.0
370
    -2
100
AcDbBlockReference
  2
_DOTSMALL
 10
6930.307249876098
 20
8583.269226480634
 30
0.0
 41
100.0
 42
100.0
 43
100.0
 50
90.0
  0
MTEXT
  5
1FD8F
330
1B6B7
100
AcDbEntity
  8
寸法
 62
     7
 48
50.0
100
AcDbMText
 10
6830.295438852475
 20
8861.352769753521
 30
0.0
 40
120.0
 41
0.0
 71
     5
 72
     1
  1
\A1;120
  7
STYLE1
 11
0.0000000000000001
 21
1.0
 31
0.0
 73
     1
 44
1.0
1001
ACAD
1000
MTEXTBEGIN
1070
    73
1070
     1
1070
    44
1040
1.0
1070
    74
1070
     0
1000
MTEXTEND
  0
POINT
  5
1FD90
330
1B6B7
100
AcDbEntity
  8
DEFPOINTS
 62
     0
 48
50.0
100
AcDbPoint
 10
6713.600000000001
 20
8463.269226480633
 30
0.0
  0
POINT
  5
1FD91
330
1B6B7
100
AcDbEntity
  8
DEFPOINTS
 62
     0
 48
50.0
100
AcDbPoint
 10
6713.600000000003
 20
8583.269226480634
 30
0.0
  0
POINT
  5
1FD92
330
1B6B7
100
AcDbEntity
  8
DEFPOINTS
 62
     0
 48
50.0
100
AcDbPoint
 10
6930.307249876098
 20
8583.269226480634
 30
0.0
  0
ENDBLK
  5
1B6C3
330
1B6B7
100
AcDbEntity
  8
0
 48
50.0
100
AcDbBlockEnd
  0
BLOCK
  5
1B6CF
330
1B6C4
100
AcDbEntity
  8
0
 48
50.0
100
AcDbBlockBegin
  2
*D6
 70
     1
 10
0.0
 20
0.0
 30
0.0
  3
*D6
  1

  0
LINE
  5
1F96F
330
1B6C4
100
AcDbEntity
  8
寸法
 62
     0
 48
50.0
370
    -2
100
AcDbLine
 10
6438.600000000002
 20
9349.028853022719
 30
0.0
 11
6438.600000000002
 21
9601.489548539557
 31
0.0
  0
LINE
  5
1F970
330
1B6C4
100
AcDbEntity
  8
寸法
 62
     0
 48
50.0
370
    -2
100
AcDbLine
 10
6483.6
 20
8603.269226480636
 30
0.0
 11
6483.6
 21
9601.489548539557
 31
0.0
  0
LINE
  5
1F971
330
1B6C4
100
AcDbEntity
  8
寸法
 62
     0
 48
50.0
370
    -2
100
AcDbLine
 10
6483.6
 20
9541.489548539557
 30
0.0
 11
6583.6
 21
9541.489548539557
 31
0.0
  0
LINE
  5
1F972
330
1B6C4
100
AcDbEntity
  8
寸法
 62
     0
 48
50.0
370
    -2
100
AcDbLine
 10
6438.600000000002
 20
9541.489548539557
 30
0.0
 11
6101.250757595083
 21
9541.489548539557
 31
0.0
  0
LINE
  5
1F973
330
1B6C4
100
AcDbEntity
  8
寸法
 62
     0
 48
50.0
370
    -2
100
AcDbLine
 10
6483.6
 20
9541.489548539557
 30
0.0
 11
6438.600000000002
 21
9541.489548539557
 31
0.0
  0
INSERT
  5
1F974
330
1B6C4
100
AcDbEntity
  8
寸法
 62
     0
 48
50.0
370
    -2
100
AcDbBlockReference
  2
_DOTSMALL
 10
6483.6
 20
9541.489548539557
 30
0.0
 41
100.0
 42
100.0
 43
100.0
 50
180.0
  0
INSERT
  5
1F975
330
1B6C4
100
AcDbEntity
  8
寸法
 62
     0
 48
50.0
370
    -2
100
AcDbBlockReference
  2
_DOTSMALL
 10
6438.600000000002
 20
9541.489548539557
 30
0.0
 41
100.0
 42
100.0
 43
100.0
  0
MTEXT
  5
1F976
330
1B6C4
100
AcDbEntity
  8
寸法
 62
     7
 48
50.0
100
AcDbMText
 10
6167.425378797542
 20
9641.489548539558
 30
0.0
 40
120.0
 41
0.0
 71
     5
 72
     1
  1
\A1;a
  7
STYLE1
 73
     1
 44
1.0
1001
ACAD
1000
MTEXTBEGIN
1070
    73
1070
     1
1070
    44
1040
1.0
1070
    74
1070
     0
1000
MTEXTEND
  0
POINT
  5
1F977
330
1B6C4
100
AcDbEntity
  8
DEFPOINTS
 62
     0
 48
50.0
100
AcDbPoint
 10
6438.600000000002
 20
9329.028853022718
 30
0.0
  0
POINT
  5
1F978
330
1B6C4
100
AcDbEntity
  8
DEFPOINTS
 62
     0
 48
50.0
100
AcDbPoint
 10
6483.6
 20
8583.269226480636
 30
0.0
  0
POINT
  5
1F979
330
1B6C4
100
AcDbEntity
  8
DEFPOINTS
 62
     0
 48
50.0
100
AcDbPoint
 10
6483.6
 20
9541.489548539557
 30
0.0
  0
ENDBLK
  5
1B6D0
330
1B6C4
100
AcDbEntity
  8
0
 48
50.0
100
AcDbBlockEnd
  0
BLOCK
  5
1B6DC
330
1B6D1
100
AcDbEntity
  8
0
 48
50.0
100
AcDbBlockBegin
  2
*D7
 70
     1
 10
0.0
 20
0.0
 30
0.0
  3
*D7
  1

  0
LINE
  5
1F965
330
1B6D1
100
AcDbEntity
  8
寸法
 62
     0
 48
50.0
370
    -2
100
AcDbLine
 10
6463.600000000001
 20
8583.269226480636
 30
0.0
 11
5927.657733986179
 21
8583.269226480636
 31
0.0
  0
LINE
  5
1F966
330
1B6D1
100
AcDbEntity
  8
寸法
 62
     0
 48
50.0
370
    -2
100
AcDbLine
 10
6536.599999999999
 20
8460.269226480635
 30
0.0
 11
5927.657733986179
 21
8460.269226480635
 31
0.0
  0
LINE
  5
1F967
330
1B6D1
100
AcDbEntity
  8
寸法
 62
     0
 48
50.0
370
    -2
100
AcDbLine
 10
5987.657733986178
 20
8460.269226480635
 30
0.0
 11
5987.657733986178
 21
8583.269226480636
 31
0.0
  0
LINE
  5
1F968
330
1B6D1
100
AcDbEntity
  8
寸法
 62
     0
 48
50.0
370
    -2
100
AcDbLine
 10
5987.657733986178
 20
8583.269226480636
 30
0.0
 11
5987.657733986178
 21
8994.861109572672
 31
0.0
  0
INSERT
  5
1F969
330
1B6D1
100
AcDbEntity
  8
寸法
 62
     0
 48
50.0
370
    -2
100
AcDbBlockReference
  2
_DOTSMALL
 10
5987.657733986178
 20
8460.269226480635
 30
0.0
 41
100.0
 42
100.0
 43
100.0
 50
270.0
  0
INSERT
  5
1F96A
330
1B6D1
100
AcDbEntity
  8
寸法
 62
     0
 48
50.0
370
    -2
100
AcDbBlockReference
  2
_DOTSMALL
 10
5987.657733986178
 20
8583.269226480636
 30
0.0
 41
100.0
 42
100.0
 43
100.0
 50
90.0
  0
MTEXT
  5
1F96B
330
1B6D1
100
AcDbEntity
  8
寸法
 62
     7
 48
50.0
100
AcDbMText
 10
5887.645922962556
 20
8856.375828198435
 30
0.0
 40
120.0
 41
0.0
 71
     5
 72
     1
  1
\A1;123
  7
STYLE1
 11
0.0000000000000001
 21
1.0
 31
0.0
 73
     1
 44
1.0
1001
ACAD
1000
MTEXTBEGIN
1070
    73
1070
     1
1070
    44
1040
1.0
1070
    74
1070
     0
1000
MTEXTEND
  0
POINT
  5
1F96C
330
1B6D1
100
AcDbEntity
  8
DEFPOINTS
 62
     0
 48
50.0
100
AcDbPoint
 10
6483.6
 20
8583.269226480636
 30
0.0
  0
POINT
  5
1F96D
330
1B6D1
100
AcDbEntity
  8
DEFPOINTS
 62
     0
 48
50.0
100
AcDbPoint
 10
6556.6
 20
8460.269226480635
 30
0.0
  0
POINT
  5
1F96E
330
1B6D1
100
AcDbEntity
  8
DEFPOINTS
 62
     0
 48
50.0
100
AcDbPoint
 10
5987.657733986178
 20
8460.269226480635
 30
0.0
  0
ENDBLK
  5
1B6DD
330
1B6D1
100
AcDbEntity
  8
0
 48
50.0
100
AcDbBlockEnd
  0
BLOCK
  5
1B6E9
330
1B6DE
100
AcDbEntity
  8
0
 48
50.0
100
AcDbBlockBegin
  2
*D8
 70
     1
 10
0.0
 20
0.0
 30
0.0
  3
*D8
  1

  0
LINE
  5
1F95B
330
1B6DE
100
AcDbEntity
  8
寸法
 62
     0
 48
50.0
370
    -2
100
AcDbLine
 10
6606.6
 20
8530.269226480635
 30
0.0
 11
6606.6
 21
9389.02885302272
 31
0.0
  0
LINE
  5
1F95C
330
1B6DE
100
AcDbEntity
  8
寸法
 62
     0
 48
50.0
370
    -2
100
AcDbLine
 10
6483.6
 20
8603.269226480636
 30
0.0
 11
6483.6
 21
9389.02885302272
 31
0.0
  0
LINE
  5
1F95D
330
1B6DE
100
AcDbEntity
  8
寸法
 62
     0
 48
50.0
370
    -2
100
AcDbLine
 10
6606.6
 20
9329.028853022718
 30
0.0
 11
6483.6
 21
9329.028853022718
 31
0.0
  0
LINE
  5
1F95E
330
1B6DE
100
AcDbEntity
  8
寸法
 62
     0
 48
50.0
370
    -2
100
AcDbLine
 10
6483.6
 20
9329.028853022718
 30
0.0
 11
6072.008116907963
 21
9329.028853022718
 31
0.0
  0
INSERT
  5
1F95F
330
1B6DE
100
AcDbEntity
  8
寸法
 62
     0
 48
50.0
370
    -2
100
AcDbBlockReference
  2
_DOTSMALL
 10
6606.6
 20
9329.028853022718
 30
0.0
 41
100.0
 42
100.0
 43
100.0
  0
INSERT
  5
1F960
330
1B6DE
100
AcDbEntity
  8
寸法
 62
     0
 48
50.0
370
    -2
100
AcDbBlockReference
  2
_DOTSMALL
 10
6483.6
 20
9329.028853022718
 30
0.0
 41
100.0
 42
100.0
 43
100.0
 50
180.0
  0
MTEXT
  5
1F961
330
1B6DE
100
AcDbEntity
  8
寸法
 62
     7
 48
50.0
100
AcDbMText
 10
6210.493398282203
 20
9429.04066404634
 30
0.0
 40
120.0
 41
0.0
 71
     5
 72
     1
  1
\A1;123
  7
STYLE1
 73
     1
 44
1.0
1001
ACAD
1000
MTEXTBEGIN
1070
    73
1070
     1
1070
    44
1040
1.0
1070
    74
1070
     0
1000
MTEXTEND
  0
POINT
  5
1F962
330
1B6DE
100
AcDbEntity
  8
DEFPOINTS
 62
     0
 48
50.0
100
AcDbPoint
 10
6606.6
 20
8510.269226480636
 30
0.0
  0
POINT
  5
1F963
330
1B6DE
100
AcDbEntity
  8
DEFPOINTS
 62
     0
 48
50.0
100
AcDbPoint
 10
6483.6
 20
8583.269226480636
 30
0.0
  0
POINT
  5
1F964
330
1B6DE
100
AcDbEntity
  8
DEFPOINTS
 62
     0
 48
50.0
100
AcDbPoint
 10
6483.6
 20
9329.028853022718
 30
0.0
  0
ENDBLK
  5
1B6EA
330
1B6DE
100
AcDbEntity
  8
0
 48
50.0
100
AcDbBlockEnd
  0
BLOCK
  5
1B6F4
330
1B6EB
100
AcDbEntity
  8
0
 48
50.0
100
AcDbBlockBegin
  2
*D9
 70
     1
 10
0.0
 20
0.0
 30
0.0
  3
*D9
  1

  0
LINE
  5
1F952
330
1B6EB
100
AcDbEntity
  8
寸法
 62
     0
 48
50.0
370
    -2
100
AcDbLine
 10
7391.600000000001
 20
8073.269226480636
 30
0.0
 11
7391.600000000001
 21
9170.178992128965
 31
0.0
  0
LINE
  5
1F953
330
1B6EB
100
AcDbEntity
  8
寸法
 62
     0
 48
50.0
370
    -2
100
AcDbLine
 10
6483.6
 20
8603.269226480636
 30
0.0
 11
6483.6
 21
9170.178992128965
 31
0.0
  0
LINE
  5
1F954
330
1B6EB
100
AcDbEntity
  8
寸法
 62
     0
 48
50.0
370
    -2
100
AcDbLine
 10
7391.600000000001
 20
9110.178992128963
 30
0.0
 11
6483.6
 21
9110.178992128963
 31
0.0
  0
INSERT
  5
1F955
330
1B6EB
100
AcDbEntity
  8
寸法
 62
     0
 48
50.0
370
    -2
100
AcDbBlockReference
  2
_DOTSMALL
 10
7391.600000000001
 20
9110.178992128963
 30
0.0
 41
100.0
 42
100.0
 43
100.0
  0
INSERT
  5
1F956
330
1B6EB
100
AcDbEntity
  8
寸法
 62
     0
 48
50.0
370
    -2
100
AcDbBlockReference
  2
_DOTSMALL
 10
6483.6
 20
9110.178992128963
 30
0.0
 41
100.0
 42
100.0
 43
100.0
 50
180.0
  0
MTEXT
  5
1F957
330
1B6EB
100
AcDbEntity
  8
寸法
 62
     7
 48
50.0
100
AcDbMText
 10
6937.6
 20
9210.178992128964
 30
0.0
 40
120.0
 41
0.0
 71
     5
 72
     1
  1
\A1;908
  7
STYLE1
 73
     1
 44
1.0
1001
ACAD
1000
MTEXTBEGIN
1070
    73
1070
     1
1070
    44
1040
1.0
1070
    74
1070
     0
1000
MTEXTEND
  0
POINT
  5
1F958
330
1B6EB
100
AcDbEntity
  8
DEFPOINTS
 62
     0
 48
50.0
100
AcDbPoint
 10
7391.600000000001
 20
8053.269226480635
 30
0.0
  0
POINT
  5
1F959
330
1B6EB
100
AcDbEntity
  8
DEFPOINTS
 62
     0
 48
50.0
100
AcDbPoint
 10
6483.6
 20
8583.269226480636
 30
0.0
  0
POINT
  5
1F95A
330
1B6EB
100
AcDbEntity
  8
DEFPOINTS
 62
     0
 48
50.0
100
AcDbPoint
 10
6483.6
 20
9110.178992128963
 30
0.0
  0
ENDBLK
  5
1B6F5
330
1B6EB
100
AcDbEntity
  8
0
 48
50.0
100
AcDbBlockEnd
  0
BLOCK
  5
1B6FF
330
1B6F6
100
AcDbEntity
  8
0
 48
50.0
100
AcDbBlockBegin
  2
*D10
 70
     1
 10
0.0
 20
0.0
 30
0.0
  3
*D10
  1

  0
LINE
  5
1F949
330
1B6F6
100
AcDbEntity
  8
寸法
 62
     0
 48
50.0
370
    -2
100
AcDbLine
 10
9840.600000000002
 20
8530.269226480635
 30
0.0
 11
9840.600000000002
 21
9389.02885302272
 31
0.0
  0
LINE
  5
1F94A
330
1B6F6
100
AcDbEntity
  8
寸法
 62
     0
 48
50.0
370
    -2
100
AcDbLine
 10
6606.6
 20
8530.269226480635
 30
0.0
 11
6606.6
 21
9389.02885302272
 31
0.0
  0
LINE
  5
1F94B
330
1B6F6
100
AcDbEntity
  8
寸法
 62
     0
 48
50.0
370
    -2
100
AcDbLine
 10
9840.600000000002
 20
9329.028853022718
 30
0.0
 11
6606.6
 21
9329.028853022718
 31
0.0
  0
INSERT
  5
1F94C
330
1B6F6
100
AcDbEntity
  8
寸法
 62
     0
 48
50.0
370
    -2
100
AcDbBlockReference
  2
_DOTSMALL
 10
9840.600000000002
 20
9329.028853022718
 30
0.0
 41
100.0
 42
100.0
 43
100.0
  0
INSERT
  5
1F94D
330
1B6F6
100
AcDbEntity
  8
寸法
 62
     0
 48
50.0
370
    -2
100
AcDbBlockReference
  2
_DOTSMALL
 10
6606.6
 20
9329.028853022718
 30
0.0
 41
100.0
 42
100.0
 43
100.0
 50
180.0
  0
MTEXT
  5
1F94E
330
1B6F6
100
AcDbEntity
  8
寸法
 62
     7
 48
50.0
100
AcDbMText
 10
8223.600000000001
 20
9429.04066404634
 30
0.0
 40
120.0
 41
0.0
 71
     5
 72
     1
  1
\A1;3234
  7
STYLE1
 73
     1
 44
1.0
1001
ACAD
1000
MTEXTBEGIN
1070
    73
1070
     1
1070
    44
1040
1.0
1070
    74
1070
     0
1000
MTEXTEND
  0
POINT
  5
1F94F
330
1B6F6
100
AcDbEntity
  8
DEFPOINTS
 62
     0
 48
50.0
100
AcDbPoint
 10
9840.600000000002
 20
8510.269226480636
 30
0.0
  0
POINT
  5
1F950
330
1B6F6
100
AcDbEntity
  8
DEFPOINTS
 62
     0
 48
50.0
100
AcDbPoint
 10
6606.6
 20
8510.269226480636
 30
0.0
  0
POINT
  5
1F951
330
1B6F6
100
AcDbEntity
  8
DEFPOINTS
 62
     0
 48
50.0
100
AcDbPoint
 10
6606.6
 20
9329.028853022718
 30
0.0
  0
ENDBLK
  5
1B700
330
1B6F6
100
AcDbEntity
  8
0
 48
50.0
100
AcDbBlockEnd
  0
BLOCK
  5
1B70A
330
1B701
100
AcDbEntity
  8
0
 48
50.0
100
AcDbBlockBegin
  2
*D11
 70
     1
 10
0.0
 20
0.0
 30
0.0
  3
*D11
  1

  0
LINE
  5
1F940
330
1B701
100
AcDbEntity
  8
寸法
 62
     0
 48
50.0
370
    -2
100
AcDbLine
 10
6483.6
 20
8603.269226480636
 30
0.0
 11
6483.6
 21
9601.489548539555
 31
0.0
  0
LINE
  5
1F941
330
1B701
100
AcDbEntity
  8
寸法
 62
     0
 48
50.0
370
    -2
100
AcDbLine
 10
9963.600000000001
 20
8603.269226480636
 30
0.0
 11
9963.600000000001
 21
9601.489548539555
 31
0.0
  0
LINE
  5
1F942
330
1B701
100
AcDbEntity
  8
寸法
 62
     0
 48
50.0
370
    -2
100
AcDbLine
 10
6483.6
 20
9541.489548539557
 30
0.0
 11
9963.600000000001
 21
9541.489548539557
 31
0.0
  0
INSERT
  5
1F943
330
1B701
100
AcDbEntity
  8
寸法
 62
     0
 48
50.0
370
    -2
100
AcDbBlockReference
  2
_DOTSMALL
 10
6483.6
 20
9541.489548539557
 30
0.0
 41
100.0
 42
100.0
 43
100.0
 50
180.0
  0
INSERT
  5
1F944
330
1B701
100
AcDbEntity
  8
寸法
 62
     0
 48
50.0
370
    -2
100
AcDbBlockReference
  2
_DOTSMALL
 10
9963.600000000001
 20
9541.489548539557
 30
0.0
 41
100.0
 42
100.0
 43
100.0
  0
MTEXT
  5
1F945
330
1B701
100
AcDbEntity
  8
寸法
 62
     7
 48
50.0
100
AcDbMText
 10
8223.600000000001
 20
9641.489548539556
 30
0.0
 40
120.0
 41
0.0
 71
     5
 72
     1
  1
\A1;3480
  7
STYLE1
 73
     1
 44
1.0
1001
ACAD
1000
MTEXTBEGIN
1070
    73
1070
     1
1070
    44
1040
1.0
1070
    74
1070
     0
1000
MTEXTEND
  0
POINT
  5
1F946
330
1B701
100
AcDbEntity
  8
DEFPOINTS
 62
     0
 48
50.0
100
AcDbPoint
 10
6483.6
 20
8583.269226480636
 30
0.0
  0
POINT
  5
1F947
330
1B701
100
AcDbEntity
  8
DEFPOINTS
 62
     0
 48
50.0
100
AcDbPoint
 10
9963.600000000001
 20
8583.269226480636
 30
0.0
  0
POINT
  5
1F948
330
1B701
100
AcDbEntity
  8
DEFPOINTS
 62
     0
 48
50.0
100
AcDbPoint
 10
9963.600000000001
 20
9541.489548539557
 30
0.0
  0
ENDBLK
  5
1B70B
330
1B701
100
AcDbEntity
  8
0
 48
50.0
100
AcDbBlockEnd
  0
BLOCK
  5
1B716
330
1B70C
100
AcDbEntity
  8
0
 48
50.0
100
AcDbBlockBegin
  2
*D12
 70
     1
 10
0.0
 20
0.0
 30
0.0
  3
*D12
  1

  0
LINE
  5
1F937
330
1B70C
100
AcDbEntity
  8
寸法
 62
     0
 48
50.0
370
    -2
100
AcDbLine
 10
8223.600000000001
 20
8073.269226480636
 30
0.0
 11
8223.600000000001
 21
9170.178992128965
 31
0.0
  0
LINE
  5
1F938
330
1B70C
100
AcDbEntity
  8
寸法
 62
     0
 48
50.0
370
    -2
100
AcDbLine
 10
7391.600000000001
 20
8073.269226480636
 30
0.0
 11
7391.600000000001
 21
9170.178992128965
 31
0.0
  0
LINE
  5
1F939
330
1B70C
100
AcDbEntity
  8
寸法
 62
     0
 48
50.0
370
    -2
100
AcDbLine
 10
8223.600000000001
 20
9110.178992128963
 30
0.0
 11
7391.600000000001
 21
9110.178992128963
 31
0.0
  0
INSERT
  5
1F93A
330
1B70C
100
AcDbEntity
  8
寸法
 62
     0
 48
50.0
370
    -2
100
AcDbBlockReference
  2
_DOTSMALL
 10
8223.600000000001
 20
9110.178992128963
 30
0.0
 41
100.0
 42
100.0
 43
100.0
  0
INSERT
  5
1F93B
330
1B70C
100
AcDbEntity
  8
寸法
 62
     0
 48
50.0
370
    -2
100
AcDbBlockReference
  2
_DOTSMALL
 10
7391.600000000001
 20
9110.178992128963
 30
0.0
 41
100.0
 42
100.0
 43
100.0
 50
180.0
  0
MTEXT
  5
1F93C
330
1B70C
100
AcDbEntity
  8
寸法
 62
     7
 48
50.0
100
AcDbMText
 10
7807.6
 20
9210.190803152585
 30
0.0
 40
120.0
 41
0.0
 71
     5
 72
     1
  1
\A1;832
  7
STYLE1
 73
     1
 44
1.0
1001
ACAD
1000
MTEXTBEGIN
1070
    73
1070
     1
1070
    44
1040
1.0
1070
    74
1070
     0
1000
MTEXTEND
  0
POINT
  5
1F93D
330
1B70C
100
AcDbEntity
  8
DEFPOINTS
 62
     0
 48
50.0
100
AcDbPoint
 10
8223.600000000001
 20
8053.269226480635
 30
0.0
  0
POINT
  5
1F93E
330
1B70C
100
AcDbEntity
  8
DEFPOINTS
 62
     0
 48
50.0
100
AcDbPoint
 10
7391.600000000001
 20
8053.269226480635
 30
0.0
  0
POINT
  5
1F93F
330
1B70C
100
AcDbEntity
  8
DEFPOINTS
 62
     0
 48
50.0
100
AcDbPoint
 10
7391.600000000001
 20
9110.178992128963
 30
0.0
  0
ENDBLK
  5
1B717
330
1B70C
100
AcDbEntity
  8
0
 48
50.0
100
AcDbBlockEnd
  0
BLOCK
  5
1B72C
330
1B724
100
AcDbEntity
  8
0
 48
50.0
100
AcDbBlockBegin
  2
*D13
 70
     1
 10
0.0
 20
0.0
 30
0.0
  3
*D13
  1

  0
LINE
  5
1F92C
330
1B724
100
AcDbEntity
  8
寸法
 62
     0
 48
50.0
370
    -2
100
AcDbLine
 10
5967.657733986179
 20
8658.269226480639
 30
0.0
 11
5682.164931848211
 21
8658.269226480639
 31
0.0
  0
LINE
  5
1F92D
330
1B724
100
AcDbEntity
  8
寸法
 62
     0
 48
50.0
370
    -2
100
AcDbLine
 10
6463.600000000001
 20
8583.269226480636
 30
0.0
 11
5682.164931848211
 21
8583.269226480636
 31
0.0
  0
LINE
  5
1F92E
330
1B724
100
AcDbEntity
  8
寸法
 62
     0
 48
50.0
370
    -2
100
AcDbLine
 10
5742.16493184821
 20
8658.269226480639
 30
0.0
 11
5742.16493184821
 21
8758.26922648064
 31
0.0
  0
LINE
  5
1F92F
330
1B724
100
AcDbEntity
  8
寸法
 62
     0
 48
50.0
370
    -2
100
AcDbLine
 10
5742.16493184821
 20
8583.269226480636
 30
0.0
 11
5742.16493184821
 21
8483.269226480635
 31
0.0
  0
LINE
  5
1F930
330
1B724
100
AcDbEntity
  8
寸法
 62
     0
 48
50.0
370
    -2
100
AcDbLine
 10
5742.16493184821
 20
8658.269226480639
 30
0.0
 11
5742.16493184821
 21
8583.269226480636
 31
0.0
  0
INSERT
  5
1F931
330
1B724
100
AcDbEntity
  8
寸法
 62
     0
 48
50.0
370
    -2
100
AcDbBlockReference
  2
_DOTSMALL
 10
5742.16493184821
 20
8658.269226480639
 30
0.0
 41
100.0
 42
100.0
 43
100.0
 50
270.0
  0
INSERT
  5
1F932
330
1B724
100
AcDbEntity
  8
寸法
 62
     0
 48
50.0
370
    -2
100
AcDbBlockReference
  2
_DOTSMALL
 10
5742.16493184821
 20
8583.269226480636
 30
0.0
 41
100.0
 42
100.0
 43
100.0
 50
90.0
  0
MTEXT
  5
1F933
330
1B724
100
AcDbEntity
  8
寸法
 62
     7
 48
50.0
100
AcDbMText
 10
5642.16493184821
 20
8620.769226480639
 30
0.0
 40
120.0
 41
0.0
 71
     5
 72
     1
  1
\A1;c
  7
STYLE1
 11
0.0000000000000001
 21
1.0
 31
0.0
 73
     1
 44
1.0
1001
ACAD
1000
MTEXTBEGIN
1070
    73
1070
     1
1070
    44
1040
1.0
1070
    74
1070
     0
1000
MTEXTEND
  0
POINT
  5
1F934
330
1B724
100
AcDbEntity
  8
DEFPOINTS
 62
     0
 48
50.0
100
AcDbPoint
 10
5987.657733986178
 20
8658.269226480639
 30
0.0
  0
POINT
  5
1F935
330
1B724
100
AcDbEntity
  8
DEFPOINTS
 62
     0
 48
50.0
100
AcDbPoint
 10
6483.6
 20
8583.269226480636
 30
0.0
  0
POINT
  5
1F936
330
1B724
100
AcDbEntity
  8
DEFPOINTS
 62
     0
 48
50.0
100
AcDbPoint
 10
5742.16493184821
 20
8583.269226480636
 30
0.0
  0
ENDBLK
  5
1B72D
330
1B724
100
AcDbEntity
  8
0
 48
50.0
100
AcDbBlockEnd
  0
BLOCK
  5
1B739
330
1B72E
100
AcDbEntity
  8
0
 48
50.0
100
AcDbBlockBegin
  2
*D14
 70
     1
 10
0.0
 20
0.0
 30
0.0
  3
*D14
  1

  0
LINE
  5
1F922
330
1B72E
100
AcDbEntity
  8
寸法
 62
     0
 48
50.0
370
    -2
100
AcDbLine
 10
6536.600000000007
 20
5646.269226480638
 30
0.0
 11
5927.657733986179
 21
5646.269226480638
 31
0.0
  0
LINE
  5
1F923
330
1B72E
100
AcDbEntity
  8
寸法
 62
     0
 48
50.0
370
    -2
100
AcDbLine
 10
6463.600000000001
 20
5523.269226480636
 30
0.0
 11
5927.657733986179
 21
5523.269226480636
 31
0.0
  0
LINE
  5
1F924
330
1B72E
100
AcDbEntity
  8
寸法
 62
     0
 48
50.0
370
    -2
100
AcDbLine
 10
5987.657733986178
 20
5646.269226480638
 30
0.0
 11
5987.657733986178
 21
5523.269226480636
 31
0.0
  0
LINE
  5
1F925
330
1B72E
100
AcDbEntity
  8
寸法
 62
     0
 48
50.0
370
    -2
100
AcDbLine
 10
5987.657733986178
 20
5523.269226480636
 30
0.0
 11
5987.657733986178
 21
5049.252996263803
 31
0.0
  0
INSERT
  5
1F926
330
1B72E
100
AcDbEntity
  8
寸法
 62
     0
 48
50.0
370
    -2
100
AcDbBlockReference
  2
_DOTSMALL
 10
5987.657733986178
 20
5646.269226480638
 30
0.0
 41
100.0
 42
100.0
 43
100.0
 50
90.0
  0
INSERT
  5
1F927
330
1B72E
100
AcDbEntity
  8
寸法
 62
     0
 48
50.0
370
    -2
100
AcDbBlockReference
  2
_DOTSMALL
 10
5987.657733986178
 20
5523.269226480636
 30
0.0
 41
100.0
 42
100.0
 43
100.0
 50
270.0
  0
MTEXT
  5
1F928
330
1B72E
100
AcDbEntity
  8
寸法
 62
     7
 48
50.0
100
AcDbMText
 10
5887.645922962556
 20
5187.738277638043
 30
0.0
 40
120.0
 41
0.0
 71
     5
 72
     1
  1
\A1;123
  7
STYLE1
 11
0.0000000000000001
 21
1.0
 31
0.0
 73
     1
 44
1.0
1001
ACAD
1000
MTEXTBEGIN
1070
    73
1070
     1
1070
    44
1040
1.0
1070
    74
1070
     0
1000
MTEXTEND
  0
POINT
  5
1F929
330
1B72E
100
AcDbEntity
  8
DEFPOINTS
 62
     0
 48
50.0
100
AcDbPoint
 10
6556.600000000007
 20
5646.269226480638
 30
0.0
  0
POINT
  5
1F92A
330
1B72E
100
AcDbEntity
  8
DEFPOINTS
 62
     0
 48
50.0
100
AcDbPoint
 10
6483.6
 20
5523.269226480636
 30
0.0
  0
POINT
  5
1F92B
330
1B72E
100
AcDbEntity
  8
DEFPOINTS
 62
     0
 48
50.0
100
AcDbPoint
 10
5987.657733986178
 20
5523.269226480636
 30
0.0
  0
ENDBLK
  5
1B73A
330
1B72E
100
AcDbEntity
  8
0
 48
50.0
100
AcDbBlockEnd
  0
BLOCK
  5
1B745
330
1B73B
100
AcDbEntity
  8
0
 48
50.0
100
AcDbBlockBegin
  2
*D15
 70
     1
 10
0.0
 20
0.0
 30
0.0
  3
*D15
  1

  0
LINE
  5
1F917
330
1B73B
100
AcDbEntity
  8
寸法
 62
     0
 48
50.0
370
    -2
100
AcDbLine
 10
6463.600000000001
 20
5523.269226480636
 30
0.0
 11
5682.164931848211
 21
5523.269226480636
 31
0.0
  0
LINE
  5
1F918
330
1B73B
100
AcDbEntity
  8
寸法
 62
     0
 48
50.0
370
    -2
100
AcDbLine
 10
5967.657733986179
 20
5468.269226480646
 30
0.0
 11
5682.164931848211
 21
5468.269226480646
 31
0.0
  0
LINE
  5
1F919
330
1B73B
100
AcDbEntity
  8
寸法
 62
     0
 48
50.0
370
    -2
100
AcDbLine
 10
5742.16493184821
 20
5523.269226480636
 30
0.0
 11
5742.16493184821
 21
5623.269226480637
 31
0.0
  0
LINE
  5
1F91A
330
1B73B
100
AcDbEntity
  8
寸法
 62
     0
 48
50.0
370
    -2
100
AcDbLine
 10
5742.16493184821
 20
5468.269226480646
 30
0.0
 11
5742.16493184821
 21
5368.269226480646
 31
0.0
  0
LINE
  5
1F91B
330
1B73B
100
AcDbEntity
  8
寸法
 62
     0
 48
50.0
370
    -2
100
AcDbLine
 10
5742.16493184821
 20
5523.269226480636
 30
0.0
 11
5742.16493184821
 21
5468.269226480646
 31
0.0
  0
INSERT
  5
1F91C
330
1B73B
100
AcDbEntity
  8
寸法
 62
     0
 48
50.0
370
    -2
100
AcDbBlockReference
  2
_DOTSMALL
 10
5742.16493184821
 20
5523.269226480636
 30
0.0
 41
100.0
 42
100.0
 43
100.0
 50
270.0
  0
INSERT
  5
1F91D
330
1B73B
100
AcDbEntity
  8
寸法
 62
     0
 48
50.0
370
    -2
100
AcDbBlockReference
  2
_DOTSMALL
 10
5742.16493184821
 20
5468.269226480646
 30
0.0
 41
100.0
 42
100.0
 43
100.0
 50
90.0
  0
MTEXT
  5
1F91E
330
1B73B
100
AcDbEntity
  8
寸法
 62
     7
 48
50.0
100
AcDbMText
 10
5642.16493184821
 20
5495.769226480643
 30
0.0
 40
120.0
 41
0.0
 71
     5
 72
     1
  1
\A1;b
  7
STYLE1
 11
0.0000000000000001
 21
1.0
 31
0.0
 73
     1
 44
1.0
1001
ACAD
1000
MTEXTBEGIN
1070
    73
1070
     1
1070
    44
1040
1.0
1070
    74
1070
     0
1000
MTEXTEND
  0
POINT
  5
1F91F
330
1B73B
100
AcDbEntity
  8
DEFPOINTS
 62
     0
 48
50.0
100
AcDbPoint
 10
6483.6
 20
5523.269226480636
 30
0.0
  0
POINT
  5
1F920
330
1B73B
100
AcDbEntity
  8
DEFPOINTS
 62
     0
 48
50.0
100
AcDbPoint
 10
5987.657733986178
 20
5468.269226480646
 30
0.0
  0
POINT
  5
1F921
330
1B73B
100
AcDbEntity
  8
DEFPOINTS
 62
     0
 48
50.0
100
AcDbPoint
 10
5742.16493184821
 20
5468.269226480646
 30
0.0
  0
ENDBLK
  5
1B746
330
1B73B
100
AcDbEntity
  8
0
 48
50.0
100
AcDbBlockEnd
  0
BLOCK
  5
1B751
330
1B747
100
AcDbEntity
  8
0
 48
50.0
100
AcDbBlockBegin
  2
*D16
 70
     1
 10
0.0
 20
0.0
 30
0.0
  3
*D16
  1

  0
LINE
  5
1F90E
330
1B747
100
AcDbEntity
  8
寸法
 62
     0
 48
50.0
370
    -2
100
AcDbLine
 10
6536.599999999999
 20
8460.269226480635
 30
0.0
 11
5927.657733986179
 21
8460.269226480635
 31
0.0
  0
LINE
  5
1F90F
330
1B747
100
AcDbEntity
  8
寸法
 62
     0
 48
50.0
370
    -2
100
AcDbLine
 10
6536.600000000007
 20
5646.269226480638
 30
0.0
 11
5927.657733986178
 21
5646.269226480638
 31
0.0
  0
LINE
  5
1F910
330
1B747
100
AcDbEntity
  8
寸法
 62
     0
 48
50.0
370
    -2
100
AcDbLine
 10
5987.657733986178
 20
8460.269226480635
 30
0.0
 11
5987.657733986178
 21
5646.269226480638
 31
0.0
  0
INSERT
  5
1F911
330
1B747
100
AcDbEntity
  8
寸法
 62
     0
 48
50.0
370
    -2
100
AcDbBlockReference
  2
_DOTSMALL
 10
5987.657733986178
 20
8460.269226480635
 30
0.0
 41
100.0
 42
100.0
 43
100.0
 50
90.0
  0
INSERT
  5
1F912
330
1B747
100
AcDbEntity
  8
寸法
 62
     0
 48
50.0
370
    -2
100
AcDbBlockReference
  2
_DOTSMALL
 10
5987.657733986178
 20
5646.269226480638
 30
0.0
 41
100.0
 42
100.0
 43
100.0
 50
270.0
  0
MTEXT
  5
1F913
330
1B747
100
AcDbEntity
  8
寸法
 62
     7
 48
50.0
100
AcDbMText
 10
5887.645922962555
 20
7053.269226480638
 30
0.0
 40
120.0
 41
0.0
 71
     5
 72
     1
  1
\A1;2814
  7
STYLE1
 11
0.0000000000000001
 21
1.0
 31
0.0
 73
     1
 44
1.0
1001
ACAD
1000
MTEXTBEGIN
1070
    73
1070
     1
1070
    44
1040
1.0
1070
    74
1070
     0
1000
MTEXTEND
  0
POINT
  5
1F914
330
1B747
100
AcDbEntity
  8
DEFPOINTS
 62
     0
 48
50.0
100
AcDbPoint
 10
6556.6
 20
8460.269226480635
 30
0.0
  0
POINT
  5
1F915
330
1B747
100
AcDbEntity
  8
DEFPOINTS
 62
     0
 48
50.0
100
AcDbPoint
 10
6556.600000000007
 20
5646.269226480638
 30
0.0
  0
POINT
  5
1F916
330
1B747
100
AcDbEntity
  8
DEFPOINTS
 62
     0
 48
50.0
100
AcDbPoint
 10
5987.657733986178
 20
5646.269226480638
 30
0.0
  0
ENDBLK
  5
1B752
330
1B747
100
AcDbEntity
  8
0
 48
50.0
100
AcDbBlockEnd
  0
BLOCK
  5
1B75C
330
1B753
100
AcDbEntity
  8
0
 48
50.0
100
AcDbBlockBegin
  2
*D17
 70
     1
 10
0.0
 20
0.0
 30
0.0
  3
*D17
  1

  0
LINE
  5
1F905
330
1B753
100
AcDbEntity
  8
寸法
 62
     0
 48
50.0
370
    -2
100
AcDbLine
 10
6463.600000000001
 20
8583.269226480636
 30
0.0
 11
5682.164931848212
 21
8583.269226480636
 31
0.0
  0
LINE
  5
1F906
330
1B753
100
AcDbEntity
  8
寸法
 62
     0
 48
50.0
370
    -2
100
AcDbLine
 10
6463.600000000001
 20
5523.269226480636
 30
0.0
 11
5682.164931848211
 21
5523.269226480636
 31
0.0
  0
LINE
  5
1F907
330
1B753
100
AcDbEntity
  8
寸法
 62
     0
 48
50.0
370
    -2
100
AcDbLine
 10
5742.164931848211
 20
8583.269226480636
 30
0.0
 11
5742.16493184821
 21
5523.269226480636
 31
0.0
  0
INSERT
  5
1F908
330
1B753
100
AcDbEntity
  8
寸法
 62
     0
 48
50.0
370
    -2
100
AcDbBlockReference
  2
_DOTSMALL
 10
5742.164931848211
 20
8583.269226480636
 30
0.0
 41
100.0
 42
100.0
 43
100.0
 50
90.0
  0
INSERT
  5
1F909
330
1B753
100
AcDbEntity
  8
寸法
 62
     0
 48
50.0
370
    -2
100
AcDbBlockReference
  2
_DOTSMALL
 10
5742.16493184821
 20
5523.269226480636
 30
0.0
 41
100.0
 42
100.0
 43
100.0
 50
270.0
  0
MTEXT
  5
1F90A
330
1B753
100
AcDbEntity
  8
寸法
 62
     7
 48
50.0
100
AcDbMText
 10
5642.16493184821
 20
7053.269226480637
 30
0.0
 40
120.0
 41
0.0
 71
     5
 72
     1
  1
\A1;3060
  7
STYLE1
 11
0.0000000000000001
 21
1.0
 31
0.0
 73
     1
 44
1.0
1001
ACAD
1000
MTEXTBEGIN
1070
    73
1070
     1
1070
    44
1040
1.0
1070
    74
1070
     0
1000
MTEXTEND
  0
POINT
  5
1F90B
330
1B753
100
AcDbEntity
  8
DEFPOINTS
 62
     0
 48
50.0
100
AcDbPoint
 10
6483.6
 20
8583.269226480636
 30
0.0
  0
POINT
  5
1F90C
330
1B753
100
AcDbEntity
  8
DEFPOINTS
 62
     0
 48
50.0
100
AcDbPoint
 10
6483.6
 20
5523.269226480636
 30
0.0
  0
POINT
  5
1F90D
330
1B753
100
AcDbEntity
  8
DEFPOINTS
 62
     0
 48
50.0
100
AcDbPoint
 10
5742.16493184821
 20
5523.269226480636
 30
0.0
  0
ENDBLK
  5
1B75D
330
1B753
100
AcDbEntity
  8
0
 48
50.0
100
AcDbBlockEnd
  0
BLOCK
  5
1B768
330
1B75E
100
AcDbEntity
  8
0
 48
50.0
100
AcDbBlockBegin
  2
*D18
 70
     1
 10
0.0
 20
0.0
 30
0.0
  3
*D18
  1

  0
LINE
  5
1F8FC
330
1B75E
100
AcDbEntity
  8
寸法
 62
     0
 48
50.0
370
    -2
100
AcDbLine
 10
7271.600000000001
 20
6253.269226480636
 30
0.0
 11
7100.234378033494
 21
6253.269226480636
 31
0.0
  0
LINE
  5
1F8FD
330
1B75E
100
AcDbEntity
  8
寸法
 62
     0
 48
50.0
370
    -2
100
AcDbLine
 10
7271.600000000001
 20
7053.269226480636
 30
0.0
 11
7100.234378033494
 21
7053.269226480636
 31
0.0
  0
LINE
  5
1F8FE
330
1B75E
100
AcDbEntity
  8
寸法
 62
     0
 48
50.0
370
    -2
100
AcDbLine
 10
7160.234378033493
 20
6253.269226480636
 30
0.0
 11
7160.234378033493
 21
7053.269226480636
 31
0.0
  0
INSERT
  5
1F8FF
330
1B75E
100
AcDbEntity
  8
寸法
 62
     0
 48
50.0
370
    -2
100
AcDbBlockReference
  2
_DOTSMALL
 10
7160.234378033493
 20
6253.269226480636
 30
0.0
 41
100.0
 42
100.0
 43
100.0
 50
270.0
  0
INSERT
  5
1F900
330
1B75E
100
AcDbEntity
  8
寸法
 62
     0
 48
50.0
370
    -2
100
AcDbBlockReference
  2
_DOTSMALL
 10
7160.234378033493
 20
7053.269226480636
 30
0.0
 41
100.0
 42
100.0
 43
100.0
 50
90.0
  0
MTEXT
  5
1F901
330
1B75E
100
AcDbEntity
  8
寸法
 62
     7
 48
50.0
100
AcDbMText
 10
7060.234378033491
 20
6653.269226480637
 30
0.0
 40
120.0
 41
0.0
 71
     5
 72
     1
  1
\A1;800
  7
STYLE1
 11
0.0000000000000001
 21
1.0
 31
0.0
 73
     1
 44
1.0
1001
ACAD
1000
MTEXTBEGIN
1070
    73
1070
     1
1070
    44
1040
1.0
1070
    74
1070
     0
1000
MTEXTEND
  0
POINT
  5
1F902
330
1B75E
100
AcDbEntity
  8
DEFPOINTS
 62
     0
 48
50.0
100
AcDbPoint
 10
7291.600000000001
 20
6253.269226480636
 30
0.0
  0
POINT
  5
1F903
330
1B75E
100
AcDbEntity
  8
DEFPOINTS
 62
     0
 48
50.0
100
AcDbPoint
 10
7291.600000000001
 20
7053.269226480636
 30
0.0
  0
POINT
  5
1F904
330
1B75E
100
AcDbEntity
  8
DEFPOINTS
 62
     0
 48
50.0
100
AcDbPoint
 10
7160.234378033493
 20
7053.269226480636
 30
0.0
  0
ENDBLK
  5
1B769
330
1B75E
100
AcDbEntity
  8
0
 48
50.0
100
AcDbBlockEnd
  0
BLOCK
  5
1B78D
330
1B783
100
AcDbEntity
  8
0
 48
50.0
100
AcDbBlockBegin
  2
*D19
 70
     1
 10
0.0
 20
0.0
 30
0.0
  3
*D19
  1

  0
LINE
  5
1F8F3
330
1B783
100
AcDbEntity
  8
寸法
 62
     0
 48
50.0
370
    -2
100
AcDbLine
 10
6990.488508201206
 20
5523.269226480644
 30
0.0
 11
7220.234378033492
 21
5523.269226480644
 31
0.0
  0
LINE
  5
1F8F4
330
1B783
100
AcDbEntity
  8
寸法
 62
     0
 48
50.0
370
    -2
100
AcDbLine
 10
7271.600000000001
 20
6253.269226480636
 30
0.0
 11
7100.234378033494
 21
6253.269226480636
 31
0.0
  0
LINE
  5
1F8F5
330
1B783
100
AcDbEntity
  8
寸法
 62
     0
 48
50.0
370
    -2
100
AcDbLine
 10
7160.234378033492
 20
5523.269226480644
 30
0.0
 11
7160.234378033493
 21
6253.269226480636
 31
0.0
  0
INSERT
  5
1F8F6
330
1B783
100
AcDbEntity
  8
寸法
 62
     0
 48
50.0
370
    -2
100
AcDbBlockReference
  2
_DOTSMALL
 10
7160.234378033492
 20
5523.269226480644
 30
0.0
 41
100.0
 42
100.0
 43
100.0
 50
270.0
  0
INSERT
  5
1F8F7
330
1B783
100
AcDbEntity
  8
寸法
 62
     0
 48
50.0
370
    -2
100
AcDbBlockReference
  2
_DOTSMALL
 10
7160.234378033493
 20
6253.269226480636
 30
0.0
 41
100.0
 42
100.0
 43
100.0
 50
90.0
  0
MTEXT
  5
1F8F8
330
1B783
100
AcDbEntity
  8
寸法
 62
     7
 48
50.0
100
AcDbMText
 10
7060.234378033491
 20
5888.269226480642
 30
0.0
 40
120.0
 41
0.0
 71
     5
 72
     1
  1
\A1;730
  7
STYLE1
 11
0.0000000000000001
 21
1.0
 31
0.0
 73
     1
 44
1.0
1001
ACAD
1000
MTEXTBEGIN
1070
    73
1070
     1
1070
    44
1040
1.0
1070
    74
1070
     0
1000
MTEXTEND
  0
POINT
  5
1F8F9
330
1B783
100
AcDbEntity
  8
DEFPOINTS
 62
     0
 48
50.0
100
AcDbPoint
 10
6970.488508201206
 20
5523.269226480644
 30
0.0
  0
POINT
  5
1F8FA
330
1B783
100
AcDbEntity
  8
DEFPOINTS
 62
     0
 48
50.0
100
AcDbPoint
 10
7291.600000000001
 20
6253.269226480636
 30
0.0
  0
POINT
  5
1F8FB
330
1B783
100
AcDbEntity
  8
DEFPOINTS
 62
     0
 48
50.0
100
AcDbPoint
 10
7160.234378033493
 20
6253.269226480636
 30
0.0
  0
ENDBLK
  5
1B78E
330
1B783
100
AcDbEntity
  8
0
 48
50.0
100
AcDbBlockEnd
  0
BLOCK
  5
1B79A
330
1B78F
100
AcDbEntity
  8
0
 48
50.0
100
AcDbBlockBegin
  2
*D20
 70
     1
 10
0.0
 20
0.0
 30
0.0
  3
*D20
  1

  0
LINE
  5
1FD7F
330
1B78F
100
AcDbEntity
  8
寸法
 62
     0
 48
50.0
370
    -2
100
AcDbLine
 10
6733.6
 20
8463.269226480635
 30
0.0
 11
6990.307249876099
 21
8463.269226480635
 31
0.0
  0
LINE
  5
1FD80
330
1B78F
100
AcDbEntity
  8
寸法
 62
     0
 48
50.0
370
    -2
100
AcDbLine
 10
6733.6
 20
8353.269226480632
 30
0.0
 11
6990.307249876099
 21
8353.269226480632
 31
0.0
  0
LINE
  5
1FD81
330
1B78F
100
AcDbEntity
  8
寸法
 62
     0
 48
50.0
370
    -2
100
AcDbLine
 10
6930.307249876098
 20
8463.269226480635
 30
0.0
 11
6930.307249876098
 21
8353.269226480632
 31
0.0
  0
LINE
  5
1FD82
330
1B78F
100
AcDbEntity
  8
寸法
 62
     0
 48
50.0
370
    -2
100
AcDbLine
 10
6930.307249876098
 20
8353.269226480632
 30
0.0
 11
6930.307249876098
 21
7889.162927268031
 31
0.0
  0
INSERT
  5
1FD83
330
1B78F
100
AcDbEntity
  8
寸法
 62
     0
 48
50.0
370
    -2
100
AcDbBlockReference
  2
_DOTSMALL
 10
6930.307249876098
 20
8463.269226480635
 30
0.0
 41
100.0
 42
100.0
 43
100.0
 50
90.0
  0
INSERT
  5
1FD84
330
1B78F
100
AcDbEntity
  8
寸法
 62
     0
 48
50.0
370
    -2
100
AcDbBlockReference
  2
_DOTSMALL
 10
6930.307249876098
 20
8353.269226480632
 30
0.0
 41
100.0
 42
100.0
 43
100.0
 50
270.0
  0
MTEXT
  5
1FD85
330
1B78F
100
AcDbEntity
  8
寸法
 62
     7
 48
50.0
100
AcDbMText
 10
6830.307249876098
 20
8013.210171362521
 30
0.0
 40
120.0
 41
0.0
 71
     5
 72
     1
  1
\A1;110
  7
STYLE1
 11
0.0000000000000001
 21
1.0
 31
0.0
 73
     1
 44
1.0
1001
ACAD
1000
MTEXTBEGIN
1070
    73
1070
     1
1070
    44
1040
1.0
1070
    74
1070
     0
1000
MTEXTEND
  0
POINT
  5
1FD86
330
1B78F
100
AcDbEntity
  8
DEFPOINTS
 62
     0
 48
50.0
100
AcDbPoint
 10
6713.600000000001
 20
8463.269226480635
 30
0.0
  0
POINT
  5
1FD87
330
1B78F
100
AcDbEntity
  8
DEFPOINTS
 62
     0
 48
50.0
100
AcDbPoint
 10
6713.600000000001
 20
8353.269226480632
 30
0.0
  0
POINT
  5
1FD88
330
1B78F
100
AcDbEntity
  8
DEFPOINTS
 62
     0
 48
50.0
100
AcDbPoint
 10
6930.307249876098
 20
8353.269226480632
 30
0.0
  0
ENDBLK
  5
1B79B
330
1B78F
100
AcDbEntity
  8
0
 48
50.0
100
AcDbBlockEnd
  0
BLOCK
  5
1B7A6
330
1B79C
100
AcDbEntity
  8
0
 48
50.0
100
AcDbBlockBegin
  2
*D21
 70
     1
 10
0.0
 20
0.0
 30
0.0
  3
*D21
  1

  0
LINE
  5
1F8E0
330
1B79C
100
AcDbEntity
  8
寸法
 62
     0
 48
50.0
370
    -2
100
AcDbLine
 10
7271.600000000001
 20
7053.269226480636
 30
0.0
 11
7100.234378033494
 21
7053.269226480636
 31
0.0
  0
LINE
  5
1F8E1
330
1B79C
100
AcDbEntity
  8
寸法
 62
     0
 48
50.0
370
    -2
100
AcDbLine
 10
7271.600000000001
 20
7853.269226480636
 30
0.0
 11
7100.234378033494
 21
7853.269226480636
 31
0.0
  0
LINE
  5
1F8E2
330
1B79C
100
AcDbEntity
  8
寸法
 62
     0
 48
50.0
370
    -2
100
AcDbLine
 10
7160.234378033493
 20
7053.269226480636
 30
0.0
 11
7160.234378033493
 21
7853.269226480636
 31
0.0
  0
INSERT
  5
1F8E3
330
1B79C
100
AcDbEntity
  8
寸法
 62
     0
 48
50.0
370
    -2
100
AcDbBlockReference
  2
_DOTSMALL
 10
7160.234378033493
 20
7053.269226480636
 30
0.0
 41
100.0
 42
100.0
 43
100.0
 50
270.0
  0
INSERT
  5
1F8E4
330
1B79C
100
AcDbEntity
  8
寸法
 62
     0
 48
50.0
370
    -2
100
AcDbBlockReference
  2
_DOTSMALL
 10
7160.234378033493
 20
7853.269226480636
 30
0.0
 41
100.0
 42
100.0
 43
100.0
 50
90.0
  0
MTEXT
  5
1F8E5
330
1B79C
100
AcDbEntity
  8
寸法
 62
     7
 48
50.0
100
AcDbMText
 10
7060.234378033491
 20
7453.269226480637
 30
0.0
 40
120.0
 41
0.0
 71
     5
 72
     1
  1
\A1;800
  7
STYLE1
 11
0.0000000000000001
 21
1.0
 31
0.0
 73
     1
 44
1.0
1001
ACAD
1000
MTEXTBEGIN
1070
    73
1070
     1
1070
    44
1040
1.0
1070
    74
1070
     0
1000
MTEXTEND
  0
POINT
  5
1F8E6
330
1B79C
100
AcDbEntity
  8
DEFPOINTS
 62
     0
 48
50.0
100
AcDbPoint
 10
7291.600000000001
 20
7053.269226480636
 30
0.0
  0
POINT
  5
1F8E7
330
1B79C
100
AcDbEntity
  8
DEFPOINTS
 62
     0
 48
50.0
100
AcDbPoint
 10
7291.600000000001
 20
7853.269226480636
 30
0.0
  0
POINT
  5
1F8E8
330
1B79C
100
AcDbEntity
  8
DEFPOINTS
 62
     0
 48
50.0
100
AcDbPoint
 10
7160.234378033493
 20
7853.269226480636
 30
0.0
  0
ENDBLK
  5
1B7A7
330
1B79C
100
AcDbEntity
  8
0
 48
50.0
100
AcDbBlockEnd
  0
BLOCK
  5
1B7B1
330
1B7A8
100
AcDbEntity
  8
0
 48
50.0
100
AcDbBlockBegin
  2
*D22
 70
     1
 10
0.0
 20
0.0
 30
0.0
  3
*D22
  1

  0
LINE
  5
1F8D7
330
1B7A8
100
AcDbEntity
  8
寸法
 62
     0
 48
50.0
370
    -2
100
AcDbLine
 10
7271.600000000001
 20
7853.269226480636
 30
0.0
 11
7100.234378033494
 21
7853.269226480636
 31
0.0
  0
LINE
  5
1F8D8
330
1B7A8
100
AcDbEntity
  8
寸法
 62
     0
 48
50.0
370
    -2
100
AcDbLine
 10
6894.600000000001
 20
8583.269226480636
 30
0.0
 11
7220.234378033492
 21
8583.269226480636
 31
0.0
  0
LINE
  5
1F8D9
330
1B7A8
100
AcDbEntity
  8
寸法
 62
     0
 48
50.0
370
    -2
100
AcDbLine
 10
7160.234378033493
 20
7853.269226480636
 30
0.0
 11
7160.234378033493
 21
8583.269226480636
 31
0.0
  0
INSERT
  5
1F8DA
330
1B7A8
100
AcDbEntity
  8
寸法
 62
     0
 48
50.0
370
    -2
100
AcDbBlockReference
  2
_DOTSMALL
 10
7160.234378033493
 20
7853.269226480636
 30
0.0
 41
100.0
 42
100.0
 43
100.0
 50
270.0
  0
INSERT
  5
1F8DB
330
1B7A8
100
AcDbEntity
  8
寸法
 62
     0
 48
50.0
370
    -2
100
AcDbBlockReference
  2
_DOTSMALL
 10
7160.234378033493
 20
8583.269226480636
 30
0.0
 41
100.0
 42
100.0
 43
100.0
 50
90.0
  0
MTEXT
  5
1F8DC
330
1B7A8
100
AcDbEntity
  8
寸法
 62
     7
 48
50.0
100
AcDbMText
 10
7060.234378033491
 20
8221.481703070734
 30
0.0
 40
120.0
 41
0.0
 71
     5
 72
     1
  1
\A1;730
  7
STYLE1
 11
0.0000000000000001
 21
1.0
 31
0.0
 73
     1
 44
1.0
1001
ACAD
1000
MTEXTBEGIN
1070
    73
1070
     1
1070
    44
1040
1.0
1070
    74
1070
     0
1000
MTEXTEND
  0
POINT
  5
1F8DD
330
1B7A8
100
AcDbEntity
  8
DEFPOINTS
 62
     0
 48
50.0
100
AcDbPoint
 10
7291.600000000001
 20
7853.269226480636
 30
0.0
  0
POINT
  5
1F8DE
330
1B7A8
100
AcDbEntity
  8
DEFPOINTS
 62
     0
 48
50.0
100
AcDbPoint
 10
6874.6
 20
8583.269226480636
 30
0.0
  0
POINT
  5
1F8DF
330
1B7A8
100
AcDbEntity
  8
DEFPOINTS
 62
     0
 48
50.0
100
AcDbPoint
 10
7160.234378033493
 20
8583.269226480636
 30
0.0
  0
ENDBLK
  5
1B7B2
330
1B7A8
100
AcDbEntity
  8
0
 48
50.0
100
AcDbBlockEnd
  0
BLOCK
  5
1B7D7
330
1B7CC
100
AcDbEntity
  8
0
 48
50.0
100
AcDbBlockBegin
  2
*D23
 70
     1
 10
0.0
 20
0.0
 30
0.0
  3
*D23
  1

  0
LINE
  5
1FD9D
330
1B7CC
100
AcDbEntity
  8
寸法
 62
     0
 48
50.0
370
    -2
100
AcDbLine
 10
9963.600000000001
 20
8122.553823019092
 30
0.0
 11
9963.600000000001
 21
8065.560558980262
 31
0.0
  0
LINE
  5
1FD9E
330
1B7CC
100
AcDbEntity
  8
寸法
 62
     0
 48
50.0
370
    -2
100
AcDbLine
 10
9843.600000000002
 20
8333.269226480636
 30
0.0
 11
9843.600000000002
 21
8065.560558980262
 31
0.0
  0
LINE
  5
1FD9F
330
1B7CC
100
AcDbEntity
  8
寸法
 62
     0
 48
50.0
370
    -2
100
AcDbLine
 10
9843.600000000002
 20
8125.560558980261
 30
0.0
 11
9963.600000000001
 21
8125.560558980261
 31
0.0
  0
LINE
  5
1FDA0
330
1B7CC
100
AcDbEntity
  8
寸法
 62
     0
 48
50.0
370
    -2
100
AcDbLine
 10
9963.600000000001
 20
8125.560558980261
 30
0.0
 11
10369.7062992126
 21
8125.560558980261
 31
0.0
  0
INSERT
  5
1FDA1
330
1B7CC
100
AcDbEntity
  8
寸法
 62
     0
 48
50.0
370
    -2
100
AcDbBlockReference
  2
_DOTSMALL
 10
9843.600000000002
 20
8125.560558980261
 30
0.0
 41
100.0
 42
100.0
 43
100.0
 50
180.0
  0
INSERT
  5
1FDA2
330
1B7CC
100
AcDbEntity
  8
寸法
 62
     0
 48
50.0
370
    -2
100
AcDbBlockReference
  2
_DOTSMALL
 10
9963.600000000001
 20
8125.560558980261
 30
0.0
 41
100.0
 42
100.0
 43
100.0
  0
MTEXT
  5
1FDA3
330
1B7CC
100
AcDbEntity
  8
寸法
 62
     7
 48
50.0
100
AcDbMText
 10
10233.65905511811
 20
8225.572370003884
 30
0.0
 40
120.0
 41
0.0
 71
     5
 72
     1
  1
\A1;120
  7
STYLE1
 73
     1
 44
1.0
1001
ACAD
1000
MTEXTBEGIN
1070
    73
1070
     1
1070
    44
1040
1.0
1070
    74
1070
     0
1000
MTEXTEND
  0
POINT
  5
1FDA4
330
1B7CC
100
AcDbEntity
  8
DEFPOINTS
 62
     0
 48
50.0
100
AcDbPoint
 10
9963.600000000001
 20
8142.553823019092
 30
0.0
  0
POINT
  5
1FDA5
330
1B7CC
100
AcDbEntity
  8
DEFPOINTS
 62
     0
 48
50.0
100
AcDbPoint
 10
9843.600000000002
 20
8353.269226480636
 30
0.0
  0
POINT
  5
1FDA6
330
1B7CC
100
AcDbEntity
  8
DEFPOINTS
 62
     0
 48
50.0
100
AcDbPoint
 10
9843.600000000002
 20
8125.560558980261
 30
0.0
  0
ENDBLK
  5
1B7D8
330
1B7CC
100
AcDbEntity
  8
0
 48
50.0
100
AcDbBlockEnd
  0
BLOCK
  5
1B7E4
330
1B7D9
100
AcDbEntity
  8
0
 48
50.0
100
AcDbBlockBegin
  2
*D24
 70
     1
 10
0.0
 20
0.0
 30
0.0
  3
*D24
  1

  0
LINE
  5
1FD93
330
1B7D9
100
AcDbEntity
  8
寸法
 62
     0
 48
50.0
370
    -2
100
AcDbLine
 10
9843.600000000002
 20
8333.269226480636
 30
0.0
 11
9843.600000000002
 21
8065.560558980262
 31
0.0
  0
LINE
  5
1FD94
330
1B7D9
100
AcDbEntity
  8
寸法
 62
     0
 48
50.0
370
    -2
100
AcDbLine
 10
9733.600000000002
 20
8333.269226480634
 30
0.0
 11
9733.600000000002
 21
8065.560558980262
 31
0.0
  0
LINE
  5
1FD95
330
1B7D9
100
AcDbEntity
  8
寸法
 62
     0
 48
50.0
370
    -2
100
AcDbLine
 10
9843.600000000002
 20
8125.560558980261
 30
0.0
 11
9733.600000000002
 21
8125.560558980261
 31
0.0
  0
LINE
  5
1FD96
330
1B7D9
100
AcDbEntity
  8
寸法
 62
     0
 48
50.0
370
    -2
100
AcDbLine
 10
9733.600000000002
 20
8125.560558980261
 30
0.0
 11
9339.493700787402
 21
8125.560558980261
 31
0.0
  0
INSERT
  5
1FD97
330
1B7D9
100
AcDbEntity
  8
寸法
 62
     0
 48
50.0
370
    -2
100
AcDbBlockReference
  2
_DOTSMALL
 10
9843.600000000002
 20
8125.560558980261
 30
0.0
 41
100.0
 42
100.0
 43
100.0
  0
INSERT
  5
1FD98
330
1B7D9
100
AcDbEntity
  8
寸法
 62
     0
 48
50.0
370
    -2
100
AcDbBlockReference
  2
_DOTSMALL
 10
9733.600000000002
 20
8125.560558980261
 30
0.0
 41
100.0
 42
100.0
 43
100.0
 50
180.0
  0
MTEXT
  5
1FD99
330
1B7D9
100
AcDbEntity
  8
寸法
 62
     7
 48
50.0
100
AcDbMText
 10
9463.54094488189
 20
8225.56055898026
 30
0.0
 40
120.0
 41
0.0
 71
     5
 72
     1
  1
\A1;110
  7
STYLE1
 73
     1
 44
1.0
1001
ACAD
1000
MTEXTBEGIN
1070
    73
1070
     1
1070
    44
1040
1.0
1070
    74
1070
     0
1000
MTEXTEND
  0
POINT
  5
1FD9A
330
1B7D9
100
AcDbEntity
  8
DEFPOINTS
 62
     0
 48
50.0
100
AcDbPoint
 10
9843.600000000002
 20
8353.269226480636
 30
0.0
  0
POINT
  5
1FD9B
330
1B7D9
100
AcDbEntity
  8
DEFPOINTS
 62
     0
 48
50.0
100
AcDbPoint
 10
9733.600000000002
 20
8353.269226480634
 30
0.0
  0
POINT
  5
1FD9C
330
1B7D9
100
AcDbEntity
  8
DEFPOINTS
 62
     0
 48
50.0
100
AcDbPoint
 10
9733.600000000002
 20
8125.560558980261
 30
0.0
  0
ENDBLK
  5
1B7E5
330
1B7D9
100
AcDbEntity
  8
0
 48
50.0
100
AcDbBlockEnd
  0
BLOCK
  5
1DAD5
330
1DACB
100
AcDbEntity
  8
0
 48
50.0
100
AcDbBlockBegin
  2
*D25
 70
     1
 10
0.0
 20
0.0
 30
0.0
  3
*D25
  1

  0
LINE
  5
1F8A5
330
1DACB
100
AcDbEntity
  8
寸法
 62
     0
 48
50.0
370
    -2
100
AcDbLine
 10
7356.599999999999
 20
5428.269226480654
 30
0.0
 11
7356.599999999999
 21
4673.404923056525
 31
0.0
  0
LINE
  5
1F8A6
330
1DACB
100
AcDbEntity
  8
寸法
 62
     0
 48
50.0
370
    -2
100
AcDbLine
 10
6483.6
 20
5503.269226480636
 30
0.0
 11
6483.6
 21
4673.404923056525
 31
0.0
  0
LINE
  5
1F8A7
330
1DACB
100
AcDbEntity
  8
寸法
 62
     0
 48
50.0
370
    -2
100
AcDbLine
 10
7356.599999999999
 20
4733.404923056524
 30
0.0
 11
6483.6
 21
4733.404923056524
 31
0.0
  0
INSERT
  5
1F8A8
330
1DACB
100
AcDbEntity
  8
寸法
 62
     0
 48
50.0
370
    -2
100
AcDbBlockReference
  2
_DOTSMALL
 10
7356.599999999999
 20
4733.404923056524
 30
0.0
 41
100.0
 42
100.0
 43
100.0
  0
INSERT
  5
1F8A9
330
1DACB
100
AcDbEntity
  8
寸法
 62
     0
 48
50.0
370
    -2
100
AcDbBlockReference
  2
_DOTSMALL
 10
6483.6
 20
4733.404923056524
 30
0.0
 41
100.0
 42
100.0
 43
100.0
 50
180.0
  0
MTEXT
  5
1F8AA
330
1DACB
100
AcDbEntity
  8
寸法
 62
     7
 48
50.0
100
AcDbMText
 10
6920.099999999999
 20
4833.404923056526
 30
0.0
 40
120.0
 41
0.0
 71
     5
 72
     1
  1
\A1;873
  7
STYLE1
 73
     1
 44
1.0
1001
ACAD
1000
MTEXTBEGIN
1070
    73
1070
     1
1070
    44
1040
1.0
1070
    74
1070
     0
1000
MTEXTEND
  0
POINT
  5
1F8AB
330
1DACB
100
AcDbEntity
  8
DEFPOINTS
 62
     0
 48
50.0
100
AcDbPoint
 10
7356.599999999999
 20
5448.269226480654
 30
0.0
  0
POINT
  5
1F8AC
330
1DACB
100
AcDbEntity
  8
DEFPOINTS
 62
     0
 48
50.0
100
AcDbPoint
 10
6483.6
 20
5523.269226480636
 30
0.0
  0
POINT
  5
1F8AD
330
1DACB
100
AcDbEntity
  8
DEFPOINTS
 62
     0
 48
50.0
100
AcDbPoint
 10
6483.6
 20
4733.404923056524
 30
0.0
  0
ENDBLK
  5
1DAD6
330
1DACB
100
AcDbEntity
  8
0
 48
50.0
100
AcDbBlockEnd
  0
BLOCK
  5
1DAE3
330
1DAD7
100
AcDbEntity
  8
0
 48
50.0
100
AcDbBlockBegin
  2
*D26
 70
     1
 10
0.0
 20
0.0
 30
0.0
  3
*D26
  1

  0
LINE
  5
1F8B8
330
1DAD7
100
AcDbEntity
  8
寸法
 62
     0
 48
50.0
370
    -2
100
AcDbLine
 10
9531.599999999999
 20
5448.269226480652
 30
0.0
 11
9838.202780124333
 21
5448.269226480652
 31
0.0
  0
LINE
  5
1F8B9
330
1DAD7
100
AcDbEntity
  8
寸法
 62
     0
 48
50.0
370
    -2
100
AcDbLine
 10
9531.600000000002
 20
5523.269226480653
 30
0.0
 11
9838.202780124333
 21
5523.269226480653
 31
0.0
  0
LINE
  5
1F8BA
330
1DAD7
100
AcDbEntity
  8
寸法
 62
     0
 48
50.0
370
    -2
100
AcDbLine
 10
9778.202780124333
 20
5523.269226480653
 30
0.0
 11
9778.202780124333
 21
5623.269226480653
 31
0.0
  0
LINE
  5
1F8BB
330
1DAD7
100
AcDbEntity
  8
寸法
 62
     0
 48
50.0
370
    -2
100
AcDbLine
 10
9778.202780124333
 20
5448.269226480652
 30
0.0
 11
9778.202780124333
 21
4581.298663732175
 31
0.0
  0
LINE
  5
1F8BC
330
1DAD7
100
AcDbEntity
  8
寸法
 62
     0
 48
50.0
370
    -2
100
AcDbLine
 10
9778.202780124333
 20
5523.269226480653
 30
0.0
 11
9778.202780124333
 21
5448.269226480652
 31
0.0
  0
INSERT
  5
1F8BD
330
1DAD7
100
AcDbEntity
  8
寸法
 62
     0
 48
50.0
370
    -2
100
AcDbBlockReference
  2
_DOTSMALL
 10
9778.202780124333
 20
5523.269226480653
 30
0.0
 41
100.0
 42
100.0
 43
100.0
 50
270.0
  0
INSERT
  5
1F8BE
330
1DAD7
100
AcDbEntity
  8
寸法
 62
     0
 48
50.0
370
    -2
100
AcDbBlockReference
  2
_DOTSMALL
 10
9778.202780124333
 20
5448.269226480652
 30
0.0
 41
100.0
 42
100.0
 43
100.0
 50
90.0
  0
MTEXT
  5
1F8BF
330
1DAD7
100
AcDbEntity
  8
寸法
 62
     7
 48
50.0
100
AcDbMText
 10
9678.202780124331
 20
4914.783945106414
 30
0.0
 40
120.0
 41
0.0
 71
     5
 72
     1
  1
\A1;扉の出75
  7
STYLE1
 11
0.0000000000000001
 21
1.0
 31
0.0
 73
     1
 44
1.0
1001
ACAD
1000
MTEXTBEGIN
1070
    73
1070
     1
1070
    44
1040
1.0
1070
    74
1070
     0
1000
MTEXTEND
  0
POINT
  5
1F8C0
330
1DAD7
100
AcDbEntity
  8
DEFPOINTS
 62
     0
 48
50.0
100
AcDbPoint
 10
9511.599999999999
 20
5448.269226480652
 30
0.0
  0
POINT
  5
1F8C1
330
1DAD7
100
AcDbEntity
  8
DEFPOINTS
 62
     0
 48
50.0
100
AcDbPoint
 10
9511.600000000003
 20
5523.269226480653
 30
0.0
  0
POINT
  5
1F8C2
330
1DAD7
100
AcDbEntity
  8
DEFPOINTS
 62
     0
 48
50.0
100
AcDbPoint
 10
9778.202780124333
 20
5523.269226480653
 30
0.0
  0
ENDBLK
  5
1DAE4
330
1DAD7
100
AcDbEntity
  8
0
 48
50.0
100
AcDbBlockEnd
  0
BLOCK
  5
1DAF0
330
1DAE5
100
AcDbEntity
  8
0
 48
50.0
100
AcDbBlockBegin
  2
*D27
 70
     1
 10
0.0
 20
0.0
 30
0.0
  3
*D27
  1

  0
LINE
  5
1FDD9
330
1DAE5
100
AcDbEntity
  8
寸法
 62
     0
 48
50.0
370
    -2
100
AcDbLine
 10
6733.6
 20
5643.269226480639
 30
0.0
 11
6990.307249876096
 21
5643.269226480639
 31
0.0
  0
LINE
  5
1FDDA
330
1DAE5
100
AcDbEntity
  8
寸法
 62
     0
 48
50.0
370
    -2
100
AcDbLine
 10
6733.599999999999
 20
5753.269226480639
 30
0.0
 11
6990.307249876096
 21
5753.269226480639
 31
0.0
  0
LINE
  5
1FDDB
330
1DAE5
100
AcDbEntity
  8
寸法
 62
     0
 48
50.0
370
    -2
100
AcDbLine
 10
6930.307249876097
 20
5643.269226480639
 30
0.0
 11
6930.307249876097
 21
5753.269226480639
 31
0.0
  0
LINE
  5
1FDDC
330
1DAE5
100
AcDbEntity
  8
寸法
 62
     0
 48
50.0
370
    -2
100
AcDbLine
 10
6930.307249876097
 20
5753.269226480639
 30
0.0
 11
6930.307249876098
 21
6147.37552569325
 31
0.0
  0
INSERT
  5
1FDDD
330
1DAE5
100
AcDbEntity
  8
寸法
 62
     0
 48
50.0
370
    -2
100
AcDbBlockReference
  2
_DOTSMALL
 10
6930.307249876097
 20
5643.269226480639
 30
0.0
 41
100.0
 42
100.0
 43
100.0
 50
270.0
  0
INSERT
  5
1FDDE
330
1DAE5
100
AcDbEntity
  8
寸法
 62
     0
 48
50.0
370
    -2
100
AcDbBlockReference
  2
_DOTSMALL
 10
6930.307249876097
 20
5753.269226480639
 30
0.0
 41
100.0
 42
100.0
 43
100.0
 50
90.0
  0
MTEXT
  5
1FDDF
330
1DAE5
100
AcDbEntity
  8
寸法
 62
     7
 48
50.0
100
AcDbMText
 10
6830.307249876096
 20
6023.328281598764
 30
0.0
 40
120.0
 41
0.0
 71
     5
 72
     1
  1
\A1;110
  7
STYLE1
 11
0.0000000000000001
 21
1.0
 31
0.0
 73
     1
 44
1.0
1001
ACAD
1000
MTEXTBEGIN
1070
    73
1070
     1
1070
    44
1040
1.0
1070
    74
1070
     0
1000
MTEXTEND
  0
POINT
  5
1FDE0
330
1DAE5
100
AcDbEntity
  8
DEFPOINTS
 62
     0
 48
50.0
100
AcDbPoint
 10
6713.600000000001
 20
5643.269226480639
 30
0.0
  0
POINT
  5
1FDE1
330
1DAE5
100
AcDbEntity
  8
DEFPOINTS
 62
     0
 48
50.0
100
AcDbPoint
 10
6713.599999999998
 20
5753.269226480639
 30
0.0
  0
POINT
  5
1FDE2
330
1DAE5
100
AcDbEntity
  8
DEFPOINTS
 62
     0
 48
50.0
100
AcDbPoint
 10
6930.307249876097
 20
5753.269226480639
 30
0.0
  0
ENDBLK
  5
1DAF1
330
1DAE5
100
AcDbEntity
  8
0
 48
50.0
100
AcDbBlockEnd
  0
BLOCK
  5
1DAFD
330
1DAF2
100
AcDbEntity
  8
0
 48
50.0
100
AcDbBlockBegin
  2
*D28
 70
     1
 10
0.0
 20
0.0
 30
0.0
  3
*D28
  1

  0
LINE
  5
1FDC5
330
1DAF2
100
AcDbEntity
  8
寸法
 62
     0
 48
50.0
370
    -2
100
AcDbLine
 10
6805.419180988153
 20
5523.269226480648
 30
0.0
 11
6990.307249876096
 21
5523.269226480648
 31
0.0
  0
LINE
  5
1FDC6
330
1DAF2
100
AcDbEntity
  8
寸法
 62
     0
 48
50.0
370
    -2
100
AcDbLine
 10
6733.6
 20
5643.269226480639
 30
0.0
 11
6990.307249876096
 21
5643.269226480639
 31
0.0
  0
LINE
  5
1FDC7
330
1DAF2
100
AcDbEntity
  8
寸法
 62
     0
 48
50.0
370
    -2
100
AcDbLine
 10
6930.307249876097
 20
5643.269226480639
 30
0.0
 11
6930.307249876097
 21
5523.269226480648
 31
0.0
  0
LINE
  5
1FDC8
330
1DAF2
100
AcDbEntity
  8
寸法
 62
     0
 48
50.0
370
    -2
100
AcDbLine
 10
6930.307249876097
 20
5523.269226480648
 30
0.0
 11
6930.307249876097
 21
5050.933677418191
 31
0.0
  0
INSERT
  5
1FDC9
330
1DAF2
100
AcDbEntity
  8
寸法
 62
     0
 48
50.0
370
    -2
100
AcDbBlockReference
  2
_DOTSMALL
 10
6930.307249876097
 20
5643.269226480639
 30
0.0
 41
100.0
 42
100.0
 43
100.0
 50
90.0
  0
INSERT
  5
1FDCA
330
1DAF2
100
AcDbEntity
  8
寸法
 62
     0
 48
50.0
370
    -2
100
AcDbBlockReference
  2
_DOTSMALL
 10
6930.307249876097
 20
5523.269226480648
 30
0.0
 41
100.0
 42
100.0
 43
100.0
 50
270.0
  0
MTEXT
  5
1FDCB
330
1DAF2
100
AcDbEntity
  8
寸法
 62
     7
 48
50.0
100
AcDbMText
 10
6830.295438852473
 20
5186.980921512681
 30
0.0
 40
120.0
 41
0.0
 71
     5
 72
     1
  1
\A1;120
  7
STYLE1
 11
0.0000000000000001
 21
1.0
 31
0.0
 73
     1
 44
1.0
1001
ACAD
1000
MTEXTBEGIN
1070
    73
1070
     1
1070
    44
1040
1.0
1070
    74
1070
     0
1000
MTEXTEND
  0
POINT
  5
1FDCC
330
1DAF2
100
AcDbEntity
  8
DEFPOINTS
 62
     0
 48
50.0
100
AcDbPoint
 10
6785.419180988153
 20
5523.269226480648
 30
0.0
  0
POINT
  5
1FDCD
330
1DAF2
100
AcDbEntity
  8
DEFPOINTS
 62
     0
 48
50.0
100
AcDbPoint
 10
6713.600000000001
 20
5643.269226480639
 30
0.0
  0
POINT
  5
1FDCE
330
1DAF2
100
AcDbEntity
  8
DEFPOINTS
 62
     0
 48
50.0
100
AcDbPoint
 10
6930.307249876097
 20
5643.269226480639
 30
0.0
  0
ENDBLK
  5
1DAFE
330
1DAF2
100
AcDbEntity
  8
0
 48
50.0
100
AcDbBlockEnd
  0
BLOCK
  5
1EF7A
330
1EF6E
100
AcDbEntity
  8
0
 48
50.0
100
AcDbBlockBegin
  2
*D29
 70
     1
 10
0.0
 20
0.0
 30
0.0
  3
*D29
  1

  0
LINE
  5
1FDE3
330
1EF6E
100
AcDbEntity
  8
寸法
 62
     0
 48
50.0
370
    -2
100
AcDbLine
 10
7424.99324975737
 20
5448.269226480637
 30
0.0
 11
7706.070780372816
 21
5448.269226480637
 31
0.0
  0
LINE
  5
1FDE4
330
1EF6E
100
AcDbEntity
  8
寸法
 62
     0
 48
50.0
370
    -2
100
AcDbLine
 10
7425.960885310472
 20
5643.269226480643
 30
0.0
 11
7706.070780372816
 21
5643.269226480643
 31
0.0
  0
LINE
  5
1FDE5
330
1EF6E
100
AcDbEntity
  8
寸法
 62
     0
 48
50.0
370
    -2
100
AcDbLine
 10
7646.070780372816
 20
5643.269226480643
 30
0.0
 11
7646.070780372816
 21
5448.269226480637
 31
0.0
  0
LINE
  5
1FDE6
330
1EF6E
100
AcDbEntity
  8
寸法
 62
     0
 48
50.0
370
    -2
100
AcDbLine
 10
7646.070780372816
 20
5448.269226480637
 30
0.0
 11
7646.070780372816
 21
5070.879344072847
 31
0.0
  0
INSERT
  5
1FDE7
330
1EF6E
100
AcDbEntity
  8
寸法
 62
     0
 48
50.0
370
    -2
100
AcDbBlockReference
  2
_DOTSMALL
 10
7646.070780372816
 20
5643.269226480643
 30
0.0
 41
100.0
 42
100.0
 43
100.0
 50
90.0
  0
INSERT
  5
1FDE8
330
1EF6E
100
AcDbEntity
  8
寸法
 62
     0
 48
50.0
370
    -2
100
AcDbBlockReference
  2
_DOTSMALL
 10
7646.070780372816
 20
5448.269226480637
 30
0.0
 41
100.0
 42
100.0
 43
100.0
 50
270.0
  0
MTEXT
  5
1FDE9
330
1EF6E
100
AcDbEntity
  8
寸法
 62
     7
 48
50.0
100
AcDbMText
 10
7546.070780372814
 20
5209.574285276744
 30
0.0
 40
120.0
 41
0.0
 71
     5
 72
     1
  1
\A1;195
  7
STYLE1
 11
0.0000000000000001
 21
1.0
 31
0.0
 73
     1
 44
1.0
1001
ACAD
1000
MTEXTBEGIN
1070
    73
1070
     1
1070
    44
1040
1.0
1070
    74
1070
     0
1000
MTEXTEND
  0
POINT
  5
1FDEA
330
1EF6E
100
AcDbEntity
  8
DEFPOINTS
 62
     0
 48
50.0
100
AcDbPoint
 10
7404.993249757371
 20
5448.269226480637
 30
0.0
  0
POINT
  5
1FDEB
330
1EF6E
100
AcDbEntity
  8
DEFPOINTS
 62
     0
 48
50.0
100
AcDbPoint
 10
7405.960885310474
 20
5643.269226480643
 30
0.0
  0
POINT
  5
1FDEC
330
1EF6E
100
AcDbEntity
  8
DEFPOINTS
 62
     0
 48
50.0
100
AcDbPoint
 10
7646.070780372816
 20
5643.269226480643
 30
0.0
  0
ENDBLK
  5
1EF7B
330
1EF6E
100
AcDbEntity
  8
0
 48
50.0
100
AcDbBlockEnd
  0
BLOCK
  5
1F81D
330
1F813
100
AcDbEntity
  8
0
 48
50.0
100
AcDbBlockBegin
  2
*D30
 70
     1
 10
0.0
 20
0.0
 30
0.0
  3
*D30
  1

  0
LINE
  5
1F862
330
1F813
100
AcDbEntity
  8
寸法
 62
     0
 48
50.0
370
    -2
100
AcDbLine
 10
9511.599999999999
 20
5428.269226480652
 30
0.0
 11
9511.599999999999
 21
4673.404923056525
 31
0.0
  0
LINE
  5
1F863
330
1F813
100
AcDbEntity
  8
寸法
 62
     0
 48
50.0
370
    -2
100
AcDbLine
 10
7356.599999999999
 20
5428.269226480637
 30
0.0
 11
7356.599999999999
 21
4673.404923056525
 31
0.0
  0
LINE
  5
1F864
330
1F813
100
AcDbEntity
  8
寸法
 62
     0
 48
50.0
370
    -2
100
AcDbLine
 10
9511.599999999999
 20
4733.404923056524
 30
0.0
 11
7356.599999999999
 21
4733.404923056524
 31
0.0
  0
INSERT
  5
1F865
330
1F813
100
AcDbEntity
  8
寸法
 62
     0
 48
50.0
370
    -2
100
AcDbBlockReference
  2
_DOTSMALL
 10
9511.599999999999
 20
4733.404923056524
 30
0.0
 41
100.0
 42
100.0
 43
100.0
  0
INSERT
  5
1F866
330
1F813
100
AcDbEntity
  8
寸法
 62
     0
 48
50.0
370
    -2
100
AcDbBlockReference
  2
_DOTSMALL
 10
7356.599999999999
 20
4733.404923056524
 30
0.0
 41
100.0
 42
100.0
 43
100.0
 50
180.0
  0
MTEXT
  5
1F867
330
1F813
100
AcDbEntity
  8
寸法
 62
     7
 48
50.0
100
AcDbMText
 10
8434.099999999999
 20
4833.416734080147
 30
0.0
 40
120.0
 41
0.0
 71
     5
 72
     1
  1
\A1;扉の幅 2155
  7
STYLE1
 73
     1
 44
1.0
1001
ACAD
1000
MTEXTBEGIN
1070
    73
1070
     1
1070
    44
1040
1.0
1070
    74
1070
     0
1000
MTEXTEND
  0
POINT
  5
1F868
330
1F813
100
AcDbEntity
  8
DEFPOINTS
 62
     0
 48
50.0
100
AcDbPoint
 10
9511.599999999999
 20
5448.269226480652
 30
0.0
  0
POINT
  5
1F869
330
1F813
100
AcDbEntity
  8
DEFPOINTS
 62
     0
 48
50.0
100
AcDbPoint
 10
7356.599999999999
 20
5448.269226480637
 30
0.0
  0
POINT
  5
1F86A
330
1F813
100
AcDbEntity
  8
DEFPOINTS
 62
     0
 48
50.0
100
AcDbPoint
 10
7356.599999999999
 20
4733.404923056524
 30
0.0
  0
ENDBLK
  5
1F81E
330
1F813
100
AcDbEntity
  8
0
 48
50.0
100
AcDbBlockEnd
  0
BLOCK
  5
1FC6F
330
1FC65
100
AcDbEntity
  8
0
 48
50.0
100
AcDbBlockBegin
  2
*D31
 70
     1
 10
0.0
 20
0.0
 30
0.0
  3
*D31
  1

  0
LINE
  5
1FCAF
330
1FC65
100
AcDbEntity
  8
寸法
 62
     0
 48
50.0
370
    -2
100
AcDbLine
 10
5679.254079578027
 20
2040.174090103021
 30
0.0
 11
5679.254079578027
 21
2604.758849998497
 31
0.0
  0
LINE
  5
1FCB0
330
1FC65
100
AcDbEntity
  8
寸法
 62
     0
 48
50.0
370
    -2
100
AcDbLine
 10
5439.254079578027
 20
2040.174090103021
 30
0.0
 11
5439.254079578027
 21
2604.758849998497
 31
0.0
  0
LINE
  5
1FCB1
330
1FC65
100
AcDbEntity
  8
寸法
 62
     0
 48
50.0
370
    -2
100
AcDbLine
 10
5679.254079578027
 20
2544.758849998496
 30
0.0
 11
5439.254079578027
 21
2544.758849998496
 31
0.0
  0
INSERT
  5
1FCB2
330
1FC65
100
AcDbEntity
  8
寸法
 62
     0
 48
50.0
370
    -2
100
AcDbBlockReference
  2
_DOTSMALL
 10
5679.254079578027
 20
2544.758849998496
 30
0.0
 41
100.0
 42
100.0
 43
100.0
  0
INSERT
  5
1FCB3
330
1FC65
100
AcDbEntity
  8
寸法
 62
     0
 48
50.0
370
    -2
100
AcDbBlockReference
  2
_DOTSMALL
 10
5439.254079578027
 20
2544.758849998496
 30
0.0
 41
100.0
 42
100.0
 43
100.0
 50
180.0
  0
MTEXT
  5
1FCB4
330
1FC65
100
AcDbEntity
  8
寸法
 62
     7
 48
50.0
100
AcDbMText
 10
5559.254079578027
 20
2750.7996625633
 30
0.0
 40
120.0
 41
0.0
 71
     5
 72
     1
  1
\A1;120\P(195)
  7
STYLE1
 73
     1
 44
1.0
1001
ACAD
1000
MTEXTBEGIN
1070
    73
1070
     1
1070
    44
1040
1.0
1070
    74
1070
     0
1000
MTEXTEND
  0
POINT
  5
1FCB5
330
1FC65
100
AcDbEntity
  8
DEFPOINTS
 62
     0
 48
50.0
100
AcDbPoint
 10
5679.254079578027
 20
2020.174090103021
 30
0.0
  0
POINT
  5
1FCB6
330
1FC65
100
AcDbEntity
  8
DEFPOINTS
 62
     0
 48
50.0
100
AcDbPoint
 10
5439.254079578027
 20
2020.174090103021
 30
0.0
  0
POINT
  5
1FCB7
330
1FC65
100
AcDbEntity
  8
DEFPOINTS
 62
     0
 48
50.0
100
AcDbPoint
 10
5439.254079578027
 20
2544.758849998496
 30
0.0
  0
ENDBLK
  5
1FC70
330
1FC65
100
AcDbEntity
  8
0
 48
50.0
100
AcDbBlockEnd
  0
BLOCK
  5
1FC7B
330
1FC71
100
AcDbEntity
  8
0
 48
50.0
100
AcDbBlockBegin
  2
*D32
 70
     1
 10
0.0
 20
0.0
 30
0.0
  3
*D32
  1

  0
LINE
  5
1FCB8
330
1FC71
100
AcDbEntity
  8
寸法
 62
     0
 48
50.0
370
    -2
100
AcDbLine
 10
5259.254079578028
 20
1340.17409010302
 30
0.0
 11
5041.228687412453
 21
1340.17409010302
 31
0.0
  0
LINE
  5
1FCB9
330
1FC71
100
AcDbEntity
  8
寸法
 62
     0
 48
50.0
370
    -2
100
AcDbLine
 10
5159.254079578031
 20
1040.17409010302
 30
0.0
 11
5041.228687412453
 21
1040.17409010302
 31
0.0
  0
LINE
  5
1FCBA
330
1FC71
100
AcDbEntity
  8
寸法
 62
     0
 48
50.0
370
    -2
100
AcDbLine
 10
5101.228687412453
 20
1340.17409010302
 30
0.0
 11
5101.228687412453
 21
1040.17409010302
 31
0.0
  0
INSERT
  5
1FCBB
330
1FC71
100
AcDbEntity
  8
寸法
 62
     0
 48
50.0
370
    -2
100
AcDbBlockReference
  2
_DOTSMALL
 10
5101.228687412453
 20
1340.17409010302
 30
0.0
 41
100.0
 42
100.0
 43
100.0
 50
90.0
  0
INSERT
  5
1FCBC
330
1FC71
100
AcDbEntity
  8
寸法
 62
     0
 48
50.0
370
    -2
100
AcDbBlockReference
  2
_DOTSMALL
 10
5101.228687412453
 20
1040.17409010302
 30
0.0
 41
100.0
 42
100.0
 43
100.0
 50
270.0
  0
MTEXT
  5
1FCBD
330
1FC71
100
AcDbEntity
  8
寸法
 62
     7
 48
50.0
100
AcDbMText
 10
5001.228687412453
 20
1190.174090103019
 30
0.0
 40
120.0
 41
0.0
 71
     5
 72
     1
  1
\A1;150
  7
STYLE1
 11
0.0000000000000001
 21
1.0
 31
0.0
 73
     1
 44
1.0
1001
ACAD
1000
MTEXTBEGIN
1070
    73
1070
     1
1070
    44
1040
1.0
1070
    74
1070
     0
1000
MTEXTEND
  0
POINT
  5
1FCBE
330
1FC71
100
AcDbEntity
  8
DEFPOINTS
 62
     0
 48
50.0
100
AcDbPoint
 10
5279.254079578027
 20
1340.17409010302
 30
0.0
  0
POINT
  5
1FCBF
330
1FC71
100
AcDbEntity
  8
DEFPOINTS
 62
     0
 48
50.0
100
AcDbPoint
 10
5179.254079578032
 20
1040.17409010302
 30
0.0
  0
POINT
  5
1FCC0
330
1FC71
100
AcDbEntity
  8
DEFPOINTS
 62
     0
 48
50.0
100
AcDbPoint
 10
5101.228687412453
 20
1040.17409010302
 30
0.0
  0
ENDBLK
  5
1FC7C
330
1FC71
100
AcDbEntity
  8
0
 48
50.0
100
AcDbBlockEnd
  0
BLOCK
  5
1FC87
330
1FC7D
100
AcDbEntity
  8
0
 48
50.0
100
AcDbBlockBegin
  2
*D33
 70
     1
 10
0.0
 20
0.0
 30
0.0
  3
*D33
  1

  0
LINE
  5
1FCC1
330
1FC7D
100
AcDbEntity
  8
寸法
 62
     0
 48
50.0
370
    -2
100
AcDbLine
 10
5419.254079578027
 20
2020.174090103021
 30
0.0
 11
4618.609141541963
 21
2020.174090103021
 31
0.0
  0
LINE
  5
1FCC2
330
1FC7D
100
AcDbEntity
  8
寸法
 62
     0
 48
50.0
370
    -2
100
AcDbLine
 10
5159.254079578031
 20
1040.17409010302
 30
0.0
 11
4618.609141541963
 21
1040.17409010302
 31
0.0
  0
LINE
  5
1FCC3
330
1FC7D
100
AcDbEntity
  8
寸法
 62
     0
 48
50.0
370
    -2
100
AcDbLine
 10
4678.609141541963
 20
2020.174090103021
 30
0.0
 11
4678.609141541963
 21
1040.17409010302
 31
0.0
  0
INSERT
  5
1FCC4
330
1FC7D
100
AcDbEntity
  8
寸法
 62
     0
 48
50.0
370
    -2
100
AcDbBlockReference
  2
_DOTSMALL
 10
4678.609141541963
 20
2020.174090103021
 30
0.0
 41
100.0
 42
100.0
 43
100.0
 50
90.0
  0
INSERT
  5
1FCC5
330
1FC7D
100
AcDbEntity
  8
寸法
 62
     0
 48
50.0
370
    -2
100
AcDbBlockReference
  2
_DOTSMALL
 10
4678.609141541963
 20
1040.17409010302
 30
0.0
 41
100.0
 42
100.0
 43
100.0
 50
270.0
  0
MTEXT
  5
1FCC6
330
1FC7D
100
AcDbEntity
  8
寸法
 62
     7
 48
50.0
100
AcDbMText
 10
4578.609141541963
 20
1530.17409010302
 30
0.0
 40
120.0
 41
0.0
 71
     5
 72
     1
  1
\A1;540
  7
STYLE1
 11
0.0000000000000001
 21
1.0
 31
0.0
 73
     1
 44
1.0
1001
ACAD
1000
MTEXTBEGIN
1070
    73
1070
     1
1070
    44
1040
1.0
1070
    74
1070
     0
1000
MTEXTEND
  0
POINT
  5
1FCC7
330
1FC7D
100
AcDbEntity
  8
DEFPOINTS
 62
     0
 48
50.0
100
AcDbPoint
 10
5439.254079578027
 20
2020.174090103021
 30
0.0
  0
POINT
  5
1FCC8
330
1FC7D
100
AcDbEntity
  8
DEFPOINTS
 62
     0
 48
50.0
100
AcDbPoint
 10
5179.254079578032
 20
1040.17409010302
 30
0.0
  0
POINT
  5
1FCC9
330
1FC7D
100
AcDbEntity
  8
DEFPOINTS
 62
     0
 48
50.0
100
AcDbPoint
 10
4678.609141541963
 20
1040.17409010302
 30
0.0
  0
ENDBLK
  5
1FC88
330
1FC7D
100
AcDbEntity
  8
0
 48
50.0
100
AcDbBlockEnd
  0
BLOCK
  5
1FC93
330
1FC89
100
AcDbEntity
  8
0
 48
50.0
100
AcDbBlockBegin
  2
*D34
 70
     1
 10
0.0
 20
0.0
 30
0.0
  3
*D34
  1

  0
LINE
  5
1FCCA
330
1FC89
100
AcDbEntity
  8
寸法
 62
     0
 48
50.0
370
    -2
100
AcDbLine
 10
5279.254079578027
 20
860.1740901030197
 30
0.0
 11
5279.254079578027
 21
521.2219836470867
 31
0.0
  0
LINE
  5
1FCCB
330
1FC89
100
AcDbEntity
  8
寸法
 62
     0
 48
50.0
370
    -2
100
AcDbLine
 10
5839.254079578028
 20
860.1740901030197
 30
0.0
 11
5839.254079578028
 21
521.2219836470867
 31
0.0
  0
LINE
  5
1FCCC
330
1FC89
100
AcDbEntity
  8
寸法
 62
     0
 48
50.0
370
    -2
100
AcDbLine
 10
5279.254079578027
 20
581.2219836470867
 30
0.0
 11
5839.254079578028
 21
581.2219836470867
 31
0.0
  0
INSERT
  5
1FCCD
330
1FC89
100
AcDbEntity
  8
寸法
 62
     0
 48
50.0
370
    -2
100
AcDbBlockReference
  2
_DOTSMALL
 10
5279.254079578027
 20
581.2219836470867
 30
0.0
 41
100.0
 42
100.0
 43
100.0
 50
180.0
  0
INSERT
  5
1FCCE
330
1FC89
100
AcDbEntity
  8
寸法
 62
     0
 48
50.0
370
    -2
100
AcDbBlockReference
  2
_DOTSMALL
 10
5839.254079578028
 20
581.2219836470867
 30
0.0
 41
100.0
 42
100.0
 43
100.0
  0
MTEXT
  5
1FCCF
330
1FC89
100
AcDbEntity
  8
寸法
 62
     7
 48
50.0
100
AcDbMText
 10
5559.254079578027
 20
681.2219836470867
 30
0.0
 40
120.0
 41
0.0
 71
     5
 72
     1
  1
\A1;300
  7
STYLE1
 73
     1
 44
1.0
1001
ACAD
1000
MTEXTBEGIN
1070
    73
1070
     1
1070
    44
1040
1.0
1070
    74
1070
     0
1000
MTEXTEND
  0
POINT
  5
1FCD0
330
1FC89
100
AcDbEntity
  8
DEFPOINTS
 62
     0
 48
50.0
100
AcDbPoint
 10
5279.254079578027
 20
880.1740901030198
 30
0.0
  0
POINT
  5
1FCD1
330
1FC89
100
AcDbEntity
  8
DEFPOINTS
 62
     0
 48
50.0
100
AcDbPoint
 10
5839.254079578028
 20
880.1740901030198
 30
0.0
  0
POINT
  5
1FCD2
330
1FC89
100
AcDbEntity
  8
DEFPOINTS
 62
     0
 48
50.0
100
AcDbPoint
 10
5839.254079578028
 20
581.2219836470867
 30
0.0
  0
ENDBLK
  5
1FC94
330
1FC89
100
AcDbEntity
  8
0
 48
50.0
100
AcDbBlockEnd
  0
BLOCK
  5
1FC9F
330
1FC95
100
AcDbEntity
  8
0
 48
50.0
100
AcDbBlockBegin
  2
*D35
 70
     1
 10
0.0
 20
0.0
 30
0.0
  3
*D35
  1

  0
LINE
  5
1FCD3
330
1FC95
100
AcDbEntity
  8
寸法
 62
     0
 48
50.0
370
    -2
100
AcDbLine
 10
8101.80322104952
 20
2020.174090103021
 30
0.0
 11
8769.138970760577
 21
2020.174090103021
 31
0.0
  0
LINE
  5
1FCD4
330
1FC95
100
AcDbEntity
  8
寸法
 62
     0
 48
50.0
370
    -2
100
AcDbLine
 10
8101.80322104952
 20
1615.174090103019
 30
0.0
 11
8769.138970760577
 21
1615.174090103019
 31
0.0
  0
LINE
  5
1FCD5
330
1FC95
100
AcDbEntity
  8
寸法
 62
     0
 48
50.0
370
    -2
100
AcDbLine
 10
8709.138970760575
 20
2020.174090103021
 30
0.0
 11
8709.138970760575
 21
1615.174090103019
 31
0.0
  0
INSERT
  5
1FCD6
330
1FC95
100
AcDbEntity
  8
寸法
 62
     0
 48
50.0
370
    -2
100
AcDbBlockReference
  2
_DOTSMALL
 10
8709.138970760575
 20
2020.174090103021
 30
0.0
 41
100.0
 42
100.0
 43
100.0
 50
90.0
  0
INSERT
  5
1FCD7
330
1FC95
100
AcDbEntity
  8
寸法
 62
     0
 48
50.0
370
    -2
100
AcDbBlockReference
  2
_DOTSMALL
 10
8709.138970760575
 20
1615.174090103019
 30
0.0
 41
100.0
 42
100.0
 43
100.0
 50
270.0
  0
MTEXT
  5
1FCD8
330
1FC95
100
AcDbEntity
  8
寸法
 62
     7
 48
50.0
100
AcDbMText
 10
8609.138970760575
 20
1817.674090103021
 30
0.0
 40
120.0
 41
0.0
 71
     5
 72
     1
  1
\A1;180
  7
STYLE1
 11
0.0000000000000001
 21
1.0
 31
0.0
 73
     1
 44
1.0
1001
ACAD
1000
MTEXTBEGIN
1070
    73
1070
     1
1070
    44
1040
1.0
1070
    74
1070
     0
1000
MTEXTEND
  0
POINT
  5
1FCD9
330
1FC95
100
AcDbEntity
  8
DEFPOINTS
 62
     0
 48
50.0
100
AcDbPoint
 10
8081.80322104952
 20
2020.174090103021
 30
0.0
  0
POINT
  5
1FCDA
330
1FC95
100
AcDbEntity
  8
DEFPOINTS
 62
     0
 48
50.0
100
AcDbPoint
 10
8081.80322104952
 20
1615.174090103019
 30
0.0
  0
POINT
  5
1FCDB
330
1FC95
100
AcDbEntity
  8
DEFPOINTS
 62
     0
 48
50.0
100
AcDbPoint
 10
8709.138970760575
 20
1615.174090103019
 30
0.0
  0
ENDBLK
  5
1FCA0
330
1FC95
100
AcDbEntity
  8
0
 48
50.0
100
AcDbBlockEnd
  0
BLOCK
  5
1FCAD
330
1FCA1
100
AcDbEntity
  8
0
 48
50.0
100
AcDbBlockBegin
  2
*D36
 70
     1
 10
0.0
 20
0.0
 30
0.0
  3
*D36
  1

  0
LINE
  5
1FCDC
330
1FCA1
100
AcDbEntity
  8
寸法
 62
     0
 48
50.0
370
    -2
100
AcDbLine
 10
7867.80322104952
 20
2086.124090103021
 30
0.0
 11
9114.20730340936
 21
2086.124090103021
 31
0.0
  0
LINE
  5
1FCDD
330
1FCA1
100
AcDbEntity
  8
寸法
 62
     0
 48
50.0
370
    -2
100
AcDbLine
 10
8101.80322104952
 20
2020.174090103021
 30
0.0
 11
9114.20730340936
 21
2020.174090103021
 31
0.0
  0
LINE
  5
1FCDE
330
1FCA1
100
AcDbEntity
  8
寸法
 62
     0
 48
50.0
370
    -2
100
AcDbLine
 10
9054.207303409359
 20
2086.124090103021
 30
0.0
 11
9054.207303409359
 21
2186.124090103021
 31
0.0
  0
LINE
  5
1FCDF
330
1FCA1
100
AcDbEntity
  8
寸法
 62
     0
 48
50.0
370
    -2
100
AcDbLine
 10
9054.207303409359
 20
2020.174090103021
 30
0.0
 11
9054.207303409359
 21
1288.156283260055
 31
0.0
  0
LINE
  5
1FCE0
330
1FCA1
100
AcDbEntity
  8
寸法
 62
     0
 48
50.0
370
    -2
100
AcDbLine
 10
9054.207303409359
 20
2086.124090103021
 30
0.0
 11
9054.207303409359
 21
2020.174090103021
 31
0.0
  0
INSERT
  5
1FCE1
330
1FCA1
100
AcDbEntity
  8
寸法
 62
     0
 48
50.0
370
    -2
100
AcDbBlockReference
  2
_DOTSMALL
 10
9054.207303409359
 20
2086.124090103021
 30
0.0
 41
100.0
 42
100.0
 43
100.0
 50
270.0
  0
INSERT
  5
1FCE2
330
1FCA1
100
AcDbEntity
  8
寸法
 62
     0
 48
50.0
370
    -2
100
AcDbBlockReference
  2
_DOTSMALL
 10
9054.207303409359
 20
2020.174090103021
 30
0.0
 41
100.0
 42
100.0
 43
100.0
 50
90.0
  0
MTEXT
  5
1FCE3
330
1FCA1
100
AcDbEntity
  8
寸法
 62
     7
 48
50.0
100
AcDbMText
 10
8954.195492385737
 20
1554.165186681539
 30
0.0
 40
120.0
 41
0.0
 71
     5
 72
     1
  1
\A1;20～25
  7
STYLE1
 11
0.0000000000000001
 21
1.0
 31
0.0
 73
     1
 44
1.0
1001
ACAD
1000
MTEXTBEGIN
1070
    73
1070
     1
1070
    44
1040
1.0
1070
    74
1070
     0
1000
MTEXTEND
  0
POINT
  5
1FCE4
330
1FCA1
100
AcDbEntity
  8
DEFPOINTS
 62
     0
 48
50.0
100
AcDbPoint
 10
7847.80322104952
 20
2086.124090103021
 30
0.0
  0
POINT
  5
1FCE5
330
1FCA1
100
AcDbEntity
  8
DEFPOINTS
 62
     0
 48
50.0
100
AcDbPoint
 10
8081.80322104952
 20
2020.174090103021
 30
0.0
  0
POINT
  5
1FCE6
330
1FCA1
100
AcDbEntity
  8
DEFPOINTS
 62
     0
 48
50.0
100
AcDbPoint
 10
9054.207303409359
 20
2020.174090103021
 30
0.0
  0
ENDBLK
  5
1FCAE
330
1FCA1
100
AcDbEntity
  8
0
 48
50.0
100
AcDbBlockEnd
  0
ENDSEC
  0
SECTION
  2
ENTITIES
  0
MTEXT
  5
763F
330
747D
100
AcDbEntity
  8
0
100
AcDbMText
 10
302.846345836809
 20
280.1983726409901
 30
0.0
 40
3.5
 41
5.323721266742722
 71
     1
 72
     5
  1

  7
MSMINCHO
 73
     1
 44
1.0
1001
ACAD
1000
MTEXTBEGIN
1070
    73
1070
     1
1070
    44
1040
1.0
1070
    74
1070
     0
1000
MTEXTEND
  0
LINE
  5
10B57
330
747D
100
AcDbEntity
  8
補助
  6
PHANTOM
 62
   230
 48
50.0
100
AcDbLine
 10
139.9999999999995
 20
11409.6
 30
0.0
 11
16307.2
 21
11409.6
 31
0.0
  0
LINE
  5
10B59
330
747D
100
AcDbEntity
  8
仕様書枠
  6
Continuous
 48
50.0
100
AcDbLine
 10
13107.2
 20
1200.0
 30
0.0
 11
13107.2
 21
-0.0000000000000729
 31
0.0
  0
LINE
  5
10B5D
330
747D
100
AcDbEntity
  8
仕様書枠
 48
50.0
100
AcDbLine
 10
140.0
 20
0.0
 30
0.0
 11
16307.2
 21
-0.0000000000000909
 31
0.0
  0
LINE
  5
10B5E
330
747D
100
AcDbEntity
  8
補助
  6
PHANTOM
 62
   230
 48
50.0
100
AcDbLine
 10
16307.2
 20
11409.6
 30
0.0
 11
16307.2
 21
1200.0
 31
0.0
  0
LINE
  5
10B6C
330
747D
100
AcDbEntity
  8
仕様書枠
 48
50.0
100
AcDbLine
 10
13107.2
 20
1200.0
 30
0.0
 11
16307.2
 21
1200.0
 31
0.0
  0
TEXT
  5
10B73
330
747D
100
AcDbEntity
  8
文字
 62
     7
 48
50.0
100
AcDbText
 10
13162.9790565769
 20
895.0906074299405
 30
0.0
 40
200.0
  1
基 礎 図
  7
STYLE2
100
AcDbText
  0
LINE
  5
10B7B
330
747D
100
AcDbEntity
  8
仕様書枠
 48
50.0
100
AcDbLine
 10
13107.2
 20
800.0
 30
0.0
 11
14251.2
 21
800.0
 31
0.0
  0
LINE
  5
10B88
330
747D
100
AcDbEntity
  8
仕様書枠
  6
Continuous
 48
50.0
100
AcDbLine
 10
14251.2
 20
1200.0
 30
0.0
 11
14251.2
 21
800.0
 31
0.0
  0
LINE
  5
16462
330
747D
100
AcDbEntity
  8
仕様書枠
 48
50.0
100
AcDbLine
 10
16307.2
 20
1200.0
 30
0.0
 11
16307.2
 21
-0.0000000000000909
 31
0.0
  0
LINE
  5
1903B
330
747D
100
AcDbEntity
  8
補助
  6
PHANTOM
 62
   230
 48
50.0
100
AcDbLine
 10
140.0
 20
0.0
 30
0.0
 11
139.9999999999995
 21
11409.6
 31
0.0
  0
LEADER
  5
1AC27
330
747D
100
AcDbEntity
  8
寸法
 48
50.0
100
AcDbLeader
  3
INABA_S40G
 73
     0
 74
     0
 75
     1
 40
120.0
 41
720.0000000000001
 76
     3
 10
9963.695499614997
 20
7092.92186850879
 30
0.0
 10
10130.46907400128
 20
6816.907954940957
 30
0.0
 10
10230.46907400128
 20
6816.907954940957
 30
0.0
340
1AC28
  0
MTEXT
  5
1AC28
102
{ACAD_REACTORS
330
1AC27
102
}
330
747D
100
AcDbEntity
  8
部品1
 62
     7
 48
50.0
100
AcDbMText
 10
10990.46907400128
 20
6916.907954940957
 30
0.0
 40
120.0
 41
0.0
 71
     6
 72
     1
  1
\A1;床下換気口
  7
STYLE1
 73
     1
 44
1.0
1001
ACAD
1000
MTEXTBEGIN
1070
    73
1070
     1
1070
    44
1040
1.0
1070
    74
1070
     0
1000
MTEXTEND
  0
TEXT
  5
1AC29
330
747D
100
AcDbEntity
  8
部品1
 48
50.0
100
AcDbText
 10
10307.43013846117
 20
5781.549479016877
 30
0.0
 40
80.0
  1
(a=45,b=55,c=75)
  7
STYLE1
100
AcDbText
  0
TEXT
  5
1AC2A
330
747D
100
AcDbEntity
  8
部品1
 48
50.0
100
AcDbText
 10
10148.85112970688
 20
5888.394699885632
 30
0.0
 40
80.0
  1
※a,b,cは屋根の出幅です。
  7
STYLE1
100
AcDbText
  0
MTEXT
  5
1AC2B
102
{ACAD_REACTORS
330
1AC2C
102
}
330
747D
100
AcDbEntity
  8
部品1
 62
     7
 48
50.0
100
AcDbMText
 10
10946.63832569548
 20
6067.705386818706
 30
0.0
 40
120.0
 41
0.0
 71
     6
 72
     1
  1
\A1;屋根の外寸
  7
STYLE1
 73
     1
 44
1.0
1001
ACAD
1000
MTEXTBEGIN
1070
    73
1070
     1
1070
    44
1040
1.0
1070
    74
1070
     0
1000
MTEXTEND
  0
LEADER
  5
1AC2C
330
747D
100
AcDbEntity
  8
寸法
 48
50.0
100
AcDbLeader
  3
INABA_S40G
 73
     0
 74
     0
 75
     1
 40
120.0
 41
672.0
 76
     3
 10
10008.69831350344
 20
6241.594730282282
 30
0.0
 10
10134.63832569548
 20
5967.705386818707
 30
0.0
 10
10234.63832569548
 20
5967.705386818707
 30
0.0
340
1AC2B
  0
DIMENSION
  5
1AE6B
330
747D
100
AcDbEntity
  8
寸法
 48
50.0
100
AcDbDimension
  2
*D1
 10
9840.600000000002
 20
9329.028853022718
 30
0.0
 11
10236.7066017178
 21
9329.028853022718
 31
0.0
 70
   160
 71
     5
 42
123.0
  3
INABA_S40G
100
AcDbAlignedDimension
 13
9963.600000000001
 23
8583.269226480636
 33
0.0
 14
9840.600000000002
 24
8510.269226480636
 34
0.0
100
AcDbRotatedDimension
  0
DIMENSION
  5
1AE6C
330
747D
100
AcDbEntity
  8
寸法
 48
50.0
100
AcDbDimension
  2
*D2
 10
10008.6
 20
9541.489548539557
 30
0.0
 11
10279.77462120246
 21
9541.489548539557
 31
0.0
 70
   160
  1
a
 71
     5
 42
45.0
  3
INABA_S40G
100
AcDbAlignedDimension
 13
9963.600000000001
 23
8583.269226480636
 33
0.0
 14
10008.6
 24
9329.028853022718
 34
0.0
100
AcDbRotatedDimension
  0
DIMENSION
  5
1AE6D
330
747D
100
AcDbEntity
  8
寸法
 48
50.0
100
AcDbDimension
  2
*D3
 10
9055.600000000001
 20
9110.178992128963
 30
0.0
 11
9534.51852200628
 21
9110.178992128963
 31
0.0
 70
   160
 71
     5
 42
908.0
  3
INABA_S40G
100
AcDbAlignedDimension
 13
9963.600000000001
 23
8583.269226480636
 33
0.0
 14
9055.600000000001
 24
8053.269226480635
 34
0.0
100
AcDbRotatedDimension
  0
DIMENSION
  5
1AE6E
330
747D
100
AcDbEntity
  8
寸法
 48
50.0
100
AcDbDimension
  2
*D4
 10
8223.600000000001
 20
9110.178992128963
 30
0.0
 11
8639.599999999999
 21
9210.190803152585
 31
0.0
 70
    32
 71
     5
 42
832.0
  3
INABA_S40G
100
AcDbAlignedDimension
 13
9055.600000000001
 23
8053.269226480635
 33
0.0
 14
8223.600000000001
 24
8053.269226480635
 34
0.0
100
AcDbRotatedDimension
  0
DIMENSION
  5
1AE6F
330
747D
100
AcDbEntity
  8
寸法
 48
50.0
100
AcDbDimension
  2
*D5
 10
6930.307249876098
 20
8583.269226480634
 30
0.0
 11
6930.307249876098
 21
8861.352769753521
 31
0.0
 70
   160
 71
     5
 42
120.0
  3
INABA_S40G
100
AcDbAlignedDimension
 13
6713.600000000001
 23
8463.269226480633
 33
0.0
 14
6713.600000000003
 24
8583.269226480634
 34
0.0
 50
90.0
100
AcDbRotatedDimension
  0
DIMENSION
  5
1AE70
330
747D
100
AcDbEntity
  8
寸法
 48
50.0
100
AcDbDimension
  2
*D6
 10
6483.6
 20
9541.489548539557
 30
0.0
 11
6167.425378797542
 21
9541.489548539557
 31
0.0
 70
   160
  1
a
 71
     5
 42
44.99999999999817
  3
INABA_S40G
100
AcDbAlignedDimension
 13
6438.600000000002
 23
9329.028853022718
 33
0.0
 14
6483.6
 24
8583.269226480636
 34
0.0
100
AcDbRotatedDimension
  0
DIMENSION
  5
1AE71
330
747D
100
AcDbEntity
  8
寸法
 48
50.0
100
AcDbDimension
  2
*D7
 10
5987.657733986178
 20
8460.269226480635
 30
0.0
 11
5987.657733986178
 21
8856.375828198435
 31
0.0
 70
   160
 71
     5
 42
123.0
  3
INABA_S40G
100
AcDbAlignedDimension
 13
6483.6
 23
8583.269226480636
 33
0.0
 14
6556.6
 24
8460.269226480635
 34
0.0
 50
90.0
100
AcDbRotatedDimension
  0
DIMENSION
  5
1AE72
330
747D
100
AcDbEntity
  8
寸法
 48
50.0
100
AcDbDimension
  2
*D8
 10
6483.6
 20
9329.028853022718
 30
0.0
 11
6210.493398282203
 21
9329.028853022718
 31
0.0
 70
   160
 71
     5
 42
123.0
  3
INABA_S40G
100
AcDbAlignedDimension
 13
6606.6
 23
8510.269226480636
 33
0.0
 14
6483.6
 24
8583.269226480636
 34
0.0
100
AcDbRotatedDimension
  0
DIMENSION
  5
1AE73
330
747D
100
AcDbEntity
  8
寸法
 48
50.0
100
AcDbDimension
  2
*D9
 10
6483.6
 20
9110.178992128963
 30
0.0
 11
6937.6
 21
9210.178992128964
 31
0.0
 70
    32
 71
     5
 42
908.0
  3
INABA_S40G
100
AcDbAlignedDimension
 13
7391.600000000001
 23
8053.269226480635
 33
0.0
 14
6483.6
 24
8583.269226480636
 34
0.0
100
AcDbRotatedDimension
  0
DIMENSION
  5
1AE74
330
747D
100
AcDbEntity
  8
寸法
 48
50.0
100
AcDbDimension
  2
*D10
 10
6606.6
 20
9329.028853022718
 30
0.0
 11
8223.600000000001
 21
9429.04066404634
 31
0.0
 70
    32
 71
     5
 42
3234.0
  3
INABA_S40G
100
AcDbAlignedDimension
 13
9840.600000000002
 23
8510.269226480636
 33
0.0
 14
6606.6
 24
8510.269226480636
 34
0.0
100
AcDbRotatedDimension
  0
DIMENSION
  5
1AE75
330
747D
100
AcDbEntity
  8
寸法
 48
50.0
100
AcDbDimension
  2
*D11
 10
9963.600000000001
 20
9541.489548539557
 30
0.0
 11
8223.600000000001
 21
9641.489548539556
 31
0.0
 70
    32
 71
     5
 42
3480.0
  3
INABA_S40G
100
AcDbAlignedDimension
 13
6483.6
 23
8583.269226480636
 33
0.0
 14
9963.600000000001
 24
8583.269226480636
 34
0.0
100
AcDbRotatedDimension
  0
DIMENSION
  5
1AE76
330
747D
100
AcDbEntity
  8
寸法
 48
50.0
100
AcDbDimension
  2
*D12
 10
7391.600000000001
 20
9110.178992128963
 30
0.0
 11
7807.6
 21
9210.190803152585
 31
0.0
 70
    32
 71
     5
 42
832.0
  3
INABA_S40G
100
AcDbAlignedDimension
 13
8223.600000000001
 23
8053.269226480635
 33
0.0
 14
7391.600000000001
 24
8053.269226480635
 34
0.0
100
AcDbRotatedDimension
  0
LINE
  5
1AE79
330
747D
100
AcDbEntity
  8
センター
 48
2.0
100
AcDbLine
 10
9005.600000000001
 20
7053.269226480636
 30
0.0
 11
9105.6
 21
7053.269226480636
 31
0.0
  0
LINE
  5
1AE7A
330
747D
100
AcDbEntity
  8
部品1
 48
50.0
100
AcDbLine
 10
9155.600000000001
 20
6853.269226480634
 30
0.0
 11
8955.600000000002
 21
6853.269226480634
 31
0.0
  0
LINE
  5
1AE7B
330
747D
100
AcDbEntity
  8
部品1
 48
50.0
100
AcDbLine
 10
9155.600000000001
 20
7253.269226480636
 30
0.0
 11
8955.600000000002
 21
7253.269226480636
 31
0.0
  0
LINE
  5
1AE7C
330
747D
100
AcDbEntity
  8
センター
 48
2.0
100
AcDbLine
 10
9005.600000000001
 20
7853.269226480636
 30
0.0
 11
9105.6
 21
7853.269226480636
 31
0.0
  0
LINE
  5
1AE7D
330
747D
100
AcDbEntity
  8
部品1
 48
50.0
100
AcDbLine
 10
9155.600000000001
 20
6453.269226480635
 30
0.0
 11
8955.600000000002
 21
6453.269226480635
 31
0.0
  0
LINE
  5
1AE7E
330
747D
100
AcDbEntity
  8
部品1
 48
50.0
100
AcDbLine
 10
9155.600000000001
 20
8053.269226480635
 30
0.0
 11
8955.600000000002
 21
8053.269226480635
 31
0.0
  0
LINE
  5
1AE7F
330
747D
100
AcDbEntity
  8
部品1
 48
50.0
100
AcDbLine
 10
9155.600000000001
 20
7653.269226480635
 30
0.0
 11
8955.600000000002
 21
7653.269226480635
 31
0.0
  0
LINE
  5
1AE80
330
747D
100
AcDbEntity
  8
センター
 48
2.0
100
AcDbLine
 10
9005.600000000001
 20
6253.269226480636
 30
0.0
 11
9105.6
 21
6253.269226480636
 31
0.0
  0
LINE
  5
1AE81
330
747D
100
AcDbEntity
  8
部品1
 48
50.0
100
AcDbLine
 10
9155.600000000001
 20
6053.269226480633
 30
0.0
 11
8955.600000000002
 21
6053.269226480633
 31
0.0
  0
LINE
  5
1AE83
330
747D
100
AcDbEntity
  8
部品1
 48
50.0
100
AcDbLine
 10
9733.600000000002
 20
8463.269226480633
 30
0.0
 11
6713.600000000001
 21
8463.269226480635
 31
0.0
  0
LINE
  5
1AE84
330
747D
100
AcDbEntity
  8
部品1
 48
50.0
100
AcDbLine
 10
9963.600000000001
 20
8583.269226480636
 30
0.0
 11
6483.6
 21
8583.269226480636
 31
0.0
  0
LINE
  5
1AE86
330
747D
100
AcDbEntity
  8
部品1
 48
50.0
100
AcDbLine
 10
9511.599999999999
 20
5448.269226480652
 30
0.0
 11
7356.6
 21
5448.269226480637
 31
0.0
  0
LINE
  5
1AE87
330
747D
100
AcDbEntity
  8
部品1
 48
50.0
100
AcDbLine
 10
9733.600000000002
 20
5643.269226480652
 30
0.0
 11
6713.600000000001
 21
5643.269226480639
 31
0.0
  0
DIMENSION
  5
1AEB7
330
747D
100
AcDbEntity
  8
寸法
 48
50.0
100
AcDbDimension
  2
*D13
 10
5742.16493184821
 20
8583.269226480636
 30
0.0
 11
5642.16493184821
 21
8620.769226480639
 31
0.0
 70
    32
  1
c
 71
     5
 42
75.00000000000364
  3
INABA_S40G
100
AcDbAlignedDimension
 13
5987.657733986178
 23
8658.269226480639
 33
0.0
 14
6483.6
 24
8583.269226480636
 34
0.0
 50
90.0
100
AcDbRotatedDimension
  0
DIMENSION
  5
1AEB8
330
747D
100
AcDbEntity
  8
寸法
 48
50.0
100
AcDbDimension
  2
*D14
 10
5987.657733986178
 20
5523.269226480636
 30
0.0
 11
5987.657733986178
 21
5187.738277638043
 31
0.0
 70
   160
 71
     5
 42
123.0000000000018
  3
INABA_S40G
100
AcDbAlignedDimension
 13
6556.600000000007
 23
5646.269226480638
 33
0.0
 14
6483.6
 24
5523.269226480636
 34
0.0
 50
90.0
100
AcDbRotatedDimension
  0
DIMENSION
  5
1AEB9
330
747D
100
AcDbEntity
  8
寸法
 48
50.0
100
AcDbDimension
  2
*D15
 10
5742.16493184821
 20
5468.269226480646
 30
0.0
 11
5642.16493184821
 21
5495.769226480643
 31
0.0
 70
    32
  1
b
 71
     5
 42
54.99999999998999
  3
INABA_S40G
100
AcDbAlignedDimension
 13
6483.6
 23
5523.269226480636
 33
0.0
 14
5987.657733986178
 24
5468.269226480646
 34
0.0
 50
90.0
100
AcDbRotatedDimension
  0
DIMENSION
  5
1AEBA
330
747D
100
AcDbEntity
  8
寸法
 48
50.0
100
AcDbDimension
  2
*D16
 10
5987.657733986178
 20
5646.269226480638
 30
0.0
 11
5887.645922962555
 21
7053.269226480638
 31
0.0
 70
    32
 71
     5
 42
2813.999999999998
  3
INABA_S40G
100
AcDbAlignedDimension
 13
6556.6
 23
8460.269226480635
 33
0.0
 14
6556.600000000007
 24
5646.269226480638
 34
0.0
 50
90.0
100
AcDbRotatedDimension
  0
DIMENSION
  5
1AEBB
330
747D
100
AcDbEntity
  8
寸法
 48
50.0
100
AcDbDimension
  2
*D17
 10
5742.16493184821
 20
5523.269226480636
 30
0.0
 11
5642.16493184821
 21
7053.269226480637
 31
0.0
 70
    32
 71
     5
 42
3060.0
  3
INABA_S40G
100
AcDbAlignedDimension
 13
6483.6
 23
8583.269226480636
 33
0.0
 14
6483.6
 24
5523.269226480636
 34
0.0
 50
90.0
100
AcDbRotatedDimension
  0
DIMENSION
  5
1AEBC
330
747D
100
AcDbEntity
  8
寸法
 48
50.0
100
AcDbDimension
  2
*D18
 10
7160.234378033493
 20
7053.269226480636
 30
0.0
 11
7060.234378033491
 21
6653.269226480637
 31
0.0
 70
    32
 71
     5
 42
800.0
  3
INABA_S40G
100
AcDbAlignedDimension
 13
7291.600000000001
 23
6253.269226480636
 33
0.0
 14
7291.600000000001
 24
7053.269226480636
 34
0.0
 50
90.0
100
AcDbRotatedDimension
  0
LINE
  5
1AEBD
330
747D
100
AcDbEntity
  8
部品1
 48
50.0
100
AcDbLine
 10
6483.6
 20
5523.269226480636
 30
0.0
 11
6483.6
 21
8583.269226480636
 31
0.0
  0
LINE
  5
1AEBE
330
747D
100
AcDbEntity
  8
部品1
 48
50.0
100
AcDbLine
 10
6603.6
 20
5753.269226480637
 30
0.0
 11
6603.6
 21
8353.269226480632
 31
0.0
  0
LINE
  5
1AEC0
330
747D
100
AcDbEntity
  8
部品1
 48
50.0
100
AcDbLine
 10
7491.600000000001
 20
6453.269226480635
 30
0.0
 11
7291.600000000001
 21
6453.269226480635
 31
0.0
  0
LINE
  5
1AEC2
330
747D
100
AcDbEntity
  8
部品1
 48
50.0
100
AcDbLine
 10
7491.600000000001
 20
6053.269226480633
 30
0.0
 11
7291.600000000001
 21
6053.269226480633
 31
0.0
  0
LINE
  5
1AEC5
330
747D
100
AcDbEntity
  8
部品1
 48
50.0
100
AcDbLine
 10
6713.600000000001
 20
5753.269226480639
 30
0.0
 11
6603.6
 21
5753.269226480637
 31
0.0
  0
LINE
  5
1AEC6
330
747D
100
AcDbEntity
  8
センター
 48
2.0
100
AcDbLine
 10
6556.600000000007
 20
5646.269226480638
 30
0.0
 11
6656.600000000008
 21
5646.269226480638
 31
0.0
  0
CIRCLE
  5
1AEC7
330
747D
100
AcDbEntity
  8
部品1
 48
50.0
100
AcDbCircle
 10
6606.600000000007
 20
5646.269226480638
 30
0.0
 40
35.0
  0
LINE
  5
1AEC8
330
747D
100
AcDbEntity
  8
部品1
 48
50.0
100
AcDbLine
 10
7356.6
 20
5523.269226480637
 30
0.0
 11
6483.6
 21
5523.269226480636
 31
0.0
  0
LINE
  5
1AEC9
330
747D
100
AcDbEntity
  8
センター
 48
2.0
100
AcDbLine
 10
6606.600000000007
 20
5696.269226480637
 30
0.0
 11
6606.600000000007
 21
5596.269226480638
 31
0.0
  0
LINE
  5
1AECA
330
747D
100
AcDbEntity
  8
部品1
 48
50.0
100
AcDbLine
 10
6713.599999999999
 20
5643.269226480639
 30
0.0
 11
6713.600000000001
 21
5753.269226480639
 31
0.0
  0
LINE
  5
1AEEC
330
747D
100
AcDbEntity
  8
部品1
 48
50.0
100
AcDbLine
 10
7356.6
 20
5448.269226480654
 30
0.0
 11
7356.6
 21
5523.269226480637
 31
0.0
  0
LINE
  5
1AEED
330
747D
100
AcDbEntity
  8
センター
 48
2.0
100
AcDbLine
 10
7391.600000000001
 20
6303.269226480636
 30
0.0
 11
7391.600000000001
 21
6203.269226480635
 31
0.0
  0
LINE
  5
1AEEE
330
747D
100
AcDbEntity
  8
部品1
 48
50.0
100
AcDbLine
 10
7291.600000000001
 20
6053.269226480636
 30
0.0
 11
7291.600000000001
 21
6453.269226480635
 31
0.0
  0
LINE
  5
1AEEF
330
747D
100
AcDbEntity
  8
センター
 48
2.0
100
AcDbLine
 10
7341.600000000001
 20
6253.269226480636
 30
0.0
 11
7441.600000000001
 21
6253.269226480636
 31
0.0
  0
LINE
  5
1AEF1
330
747D
100
AcDbEntity
  8
細線
 48
50.0
100
AcDbLine
 10
8123.600000000019
 20
5458.05693529965
 30
0.0
 11
8288.812291181018
 21
5623.26922648065
 31
0.0
  0
LINE
  5
1AEF2
330
747D
100
AcDbEntity
  8
細線
 48
50.0
100
AcDbLine
 10
8248.516132997051
 20
5448.269226480643
 30
0.0
 11
8323.600000000022
 21
5523.353093483616
 31
0.0
  0
LINE
  5
1AEF3
330
747D
100
AcDbEntity
  8
細線
 48
50.0
100
AcDbLine
 10
8203.614852391702
 20
5448.269226480647
 30
0.0
 11
8323.600000000022
 21
5568.254374088963
 31
0.0
  0
LINE
  5
1AEF4
330
747D
100
AcDbEntity
  8
細線
 48
50.0
100
AcDbLine
 10
8158.713571786359
 20
5448.269226480643
 30
0.0
 11
8323.600000000022
 21
5613.155654694306
 31
0.0
  0
LINE
  5
1AEF5
330
747D
100
AcDbEntity
  8
部品1
 48
50.0
100
AcDbLine
 10
8323.6
 20
6453.269226480635
 30
0.0
 11
8123.600000000001
 21
6453.269226480635
 31
0.0
  0
LINE
  5
1AEF6
330
747D
100
AcDbEntity
  8
部品1
 48
50.0
100
AcDbLine
 10
8323.6
 20
6053.269226480633
 30
0.0
 11
8123.600000000001
 21
6053.269226480633
 31
0.0
  0
LINE
  5
1AFC6
330
747D
100
AcDbEntity
  8
部品1
 48
50.0
100
AcDbLine
 10
8123.600000000019
 20
5448.269226480643
 30
0.0
 11
8123.600000000019
 21
5623.269226480647
 31
0.0
  0
LINE
  5
1AFC7
330
747D
100
AcDbEntity
  8
細線
 48
50.0
100
AcDbLine
 10
8123.600000000019
 20
5502.958215904997
 30
0.0
 11
8243.911010575672
 21
5623.26922648065
 31
0.0
  0
LINE
  5
1AFC8
330
747D
100
AcDbEntity
  8
細線
 48
50.0
100
AcDbLine
 10
8123.600000000019
 20
5547.859496510341
 30
0.0
 11
8199.00972997032
 21
5623.269226480647
 31
0.0
  0
LINE
  5
1AFC9
330
747D
100
AcDbEntity
  8
細線
 48
50.0
100
AcDbLine
 10
8123.600000000019
 20
5592.760777115687
 30
0.0
 11
8154.108449364981
 21
5623.26922648065
 31
0.0
  0
LINE
  5
1AFCA
330
747D
100
AcDbEntity
  8
部品1
 48
50.0
100
AcDbLine
 10
7491.600000000001
 20
6053.269226480633
 30
0.0
 11
7491.600000000001
 21
6453.269226480635
 31
0.0
  0
LINE
  5
1AFCB
330
747D
100
AcDbEntity
  8
センター
 48
2.0
100
AcDbLine
 10
8223.600000000001
 20
6303.269226480636
 30
0.0
 11
8223.600000000001
 21
6203.269226480635
 31
0.0
  0
LINE
  5
1AFCC
330
747D
100
AcDbEntity
  8
部品1
 48
50.0
100
AcDbLine
 10
8123.600000000001
 20
6053.269226480636
 30
0.0
 11
8123.600000000001
 21
6453.269226480635
 31
0.0
  0
LINE
  5
1AFCD
330
747D
100
AcDbEntity
  8
センター
 48
2.0
100
AcDbLine
 10
8173.6
 20
6253.269226480636
 30
0.0
 11
8273.6
 21
6253.269226480636
 31
0.0
  0
DIMENSION
  5
1AFCE
330
747D
100
AcDbEntity
  8
寸法
 48
50.0
100
AcDbDimension
  2
*D19
 10
7160.234378033493
 20
6253.269226480636
 30
0.0
 11
7060.234378033491
 21
5888.269226480642
 31
0.0
 70
    32
 71
     5
 42
729.9999999999909
  3
INABA_S40G
100
AcDbAlignedDimension
 13
6970.488508201206
 23
5523.269226480644
 33
0.0
 14
7291.600000000001
 24
6253.269226480636
 34
0.0
 50
90.0
100
AcDbRotatedDimension
  0
LINE
  5
1AFD0
330
747D
100
AcDbEntity
  8
部品1
 48
50.0
100
AcDbLine
 10
8323.600000000018
 20
5448.269226480643
 30
0.0
 11
8323.600000000018
 21
5623.269226480647
 31
0.0
  0
LINE
  5
1AFD1
330
747D
100
AcDbEntity
  8
細線
 48
50.0
100
AcDbLine
 10
8293.417413602396
 20
5448.269226480647
 30
0.0
 11
8323.600000000022
 21
5478.451812878269
 31
0.0
  0
LINE
  5
1B063
330
747D
100
AcDbEntity
  8
部品1
 48
50.0
100
AcDbLine
 10
8323.6
 20
6053.269226480633
 30
0.0
 11
8323.6
 21
6453.269226480635
 31
0.0
  0
LINE
  5
1B064
330
747D
100
AcDbEntity
  8
センター
 48
2.0
100
AcDbLine
 10
9055.600000000001
 20
6303.269226480636
 30
0.0
 11
9055.600000000001
 21
6203.269226480635
 31
0.0
  0
LINE
  5
1B065
330
747D
100
AcDbEntity
  8
部品1
 48
50.0
100
AcDbLine
 10
8955.600000000002
 20
6053.269226480636
 30
0.0
 11
8955.600000000002
 21
6453.269226480635
 31
0.0
  0
LINE
  5
1B066
330
747D
100
AcDbEntity
  8
部品1
 48
50.0
100
AcDbLine
 10
7491.600000000001
 20
6853.269226480634
 30
0.0
 11
7291.600000000001
 21
6853.269226480634
 31
0.0
  0
LINE
  5
1B067
330
747D
100
AcDbEntity
  8
部品1
 48
50.0
100
AcDbLine
 10
7491.600000000001
 20
7253.269226480636
 30
0.0
 11
7291.600000000001
 21
7253.269226480636
 31
0.0
  0
LINE
  5
1B06A
330
747D
100
AcDbEntity
  8
部品1
 48
50.0
100
AcDbLine
 10
7491.600000000001
 20
8053.269226480635
 30
0.0
 11
7291.600000000001
 21
8053.269226480635
 31
0.0
  0
LINE
  5
1B06B
330
747D
100
AcDbEntity
  8
部品1
 48
50.0
100
AcDbLine
 10
7491.600000000001
 20
7653.269226480635
 30
0.0
 11
7291.600000000001
 21
7653.269226480635
 31
0.0
  0
LINE
  5
1B06C
330
747D
100
AcDbEntity
  8
部品1
 48
50.0
100
AcDbLine
 10
7291.600000000001
 20
7653.269226480635
 30
0.0
 11
7291.600000000001
 21
8053.269226480635
 31
0.0
  0
LINE
  5
1B06E
330
747D
100
AcDbEntity
  8
部品1
 48
50.0
100
AcDbLine
 10
6603.600000000001
 20
6953.269226480635
 30
0.0
 11
6483.599999999999
 21
6953.269226480635
 31
0.0
  0
LINE
  5
1B06F
330
747D
100
AcDbEntity
  8
部品1
 48
50.0
100
AcDbLine
 10
6603.600000000001
 20
7153.269226480635
 30
0.0
 11
6483.599999999999
 21
7153.269226480635
 31
0.0
  0
LINE
  5
1B070
330
747D
100
AcDbEntity
  8
センター
 48
2.0
100
AcDbLine
 10
7391.600000000001
 20
7103.269226480636
 30
0.0
 11
7391.600000000001
 21
7003.269226480636
 31
0.0
  0
LINE
  5
1B071
330
747D
100
AcDbEntity
  8
部品1
 48
50.0
100
AcDbLine
 10
7291.600000000001
 20
6853.269226480636
 30
0.0
 11
7291.600000000001
 21
7253.269226480636
 31
0.0
  0
LINE
  5
1B072
330
747D
100
AcDbEntity
  8
センター
 48
2.0
100
AcDbLine
 10
7341.600000000001
 20
7053.269226480636
 30
0.0
 11
7441.600000000001
 21
7053.269226480636
 31
0.0
  0
LINE
  5
1B073
330
747D
100
AcDbEntity
  8
センター
 48
2.0
100
AcDbLine
 10
6556.6
 20
8460.269226480635
 30
0.0
 11
6656.6
 21
8460.269226480635
 31
0.0
  0
LINE
  5
1B074
330
747D
100
AcDbEntity
  8
部品1
 48
50.0
100
AcDbLine
 10
6713.599999999998
 20
8353.269226480632
 30
0.0
 11
6603.6
 21
8353.269226480636
 31
0.0
  0
CIRCLE
  5
1B075
330
747D
100
AcDbEntity
  8
部品1
 48
50.0
100
AcDbCircle
 10
6606.6
 20
8460.269226480635
 30
0.0
 40
35.0
  0
LINE
  5
1B076
330
747D
100
AcDbEntity
  8
部品1
 48
50.0
100
AcDbLine
 10
6882.928907166848
 20
8583.269226480632
 30
0.0
 11
6483.6
 21
8583.269226480636
 31
0.0
  0
LINE
  5
1B077
330
747D
100
AcDbEntity
  8
センター
 48
2.0
100
AcDbLine
 10
6606.6
 20
8510.269226480636
 30
0.0
 11
6606.6
 21
8410.269226480634
 31
0.0
  0
DIMENSION
  5
1B078
330
747D
100
AcDbEntity
  8
寸法
 48
50.0
100
AcDbDimension
  2
*D20
 10
6930.307249876098
 20
8353.269226480632
 30
0.0
 11
6930.307249876098
 21
8013.210171362521
 31
0.0
 70
   160
 71
     5
 42
110.0000000000036
  3
INABA_S40G
100
AcDbAlignedDimension
 13
6713.600000000001
 23
8463.269226480635
 33
0.0
 14
6713.600000000001
 24
8353.269226480632
 34
0.0
 50
90.0
100
AcDbRotatedDimension
  0
LINE
  5
1B079
330
747D
100
AcDbEntity
  8
センター
 48
2.0
100
AcDbLine
 10
7391.600000000001
 20
7903.269226480635
 30
0.0
 11
7391.600000000001
 21
7803.269226480636
 31
0.0
  0
LINE
  5
1B07A
330
747D
100
AcDbEntity
  8
センター
 48
2.0
100
AcDbLine
 10
7341.600000000001
 20
7853.269226480636
 30
0.0
 11
7441.600000000001
 21
7853.269226480636
 31
0.0
  0
LINE
  5
1B07B
330
747D
100
AcDbEntity
  8
部品1
 48
50.0
100
AcDbLine
 10
6713.599999999998
 20
8353.269226480632
 30
0.0
 11
6713.599999999999
 21
8463.269226480633
 31
0.0
  0
DIMENSION
  5
1B07C
330
747D
100
AcDbEntity
  8
寸法
 48
50.0
100
AcDbDimension
  2
*D21
 10
7160.234378033493
 20
7853.269226480636
 30
0.0
 11
7060.234378033491
 21
7453.269226480637
 31
0.0
 70
    32
 71
     5
 42
800.0
  3
INABA_S40G
100
AcDbAlignedDimension
 13
7291.600000000001
 23
7053.269226480636
 33
0.0
 14
7291.600000000001
 24
7853.269226480636
 34
0.0
 50
90.0
100
AcDbRotatedDimension
  0
LINE
  5
1B07D
330
747D
100
AcDbEntity
  8
部品1
 48
50.0
100
AcDbLine
 10
8323.6
 20
7653.269226480635
 30
0.0
 11
8323.6
 21
8053.269226480635
 31
0.0
  0
LINE
  5
1B07E
330
747D
100
AcDbEntity
  8
部品1
 48
50.0
100
AcDbLine
 10
8955.600000000002
 20
7653.269226480635
 30
0.0
 11
8955.600000000002
 21
8053.269226480635
 31
0.0
  0
LINE
  5
1B07F
330
747D
100
AcDbEntity
  8
部品1
 48
50.0
100
AcDbLine
 10
7491.600000000001
 20
7653.269226480635
 30
0.0
 11
7491.600000000001
 21
8053.269226480635
 31
0.0
  0
LINE
  5
1B080
330
747D
100
AcDbEntity
  8
部品1
 48
50.0
100
AcDbLine
 10
8123.600000000001
 20
7653.269226480635
 30
0.0
 11
8123.600000000001
 21
8053.269226480635
 31
0.0
  0
LINE
  5
1B081
330
747D
100
AcDbEntity
  8
部品1
 48
50.0
100
AcDbLine
 10
8323.6
 20
6853.269226480634
 30
0.0
 11
8123.600000000001
 21
6853.269226480634
 31
0.0
  0
LINE
  5
1B082
330
747D
100
AcDbEntity
  8
部品1
 48
50.0
100
AcDbLine
 10
8323.6
 20
7253.269226480636
 30
0.0
 11
8123.600000000001
 21
7253.269226480636
 31
0.0
  0
LINE
  5
1B083
330
747D
100
AcDbEntity
  8
部品1
 48
50.0
100
AcDbLine
 10
8323.6
 20
7653.269226480635
 30
0.0
 11
8123.600000000001
 21
7653.269226480635
 31
0.0
  0
LINE
  5
1B084
330
747D
100
AcDbEntity
  8
センター
 48
2.0
100
AcDbLine
 10
8223.600000000001
 20
7103.269226480636
 30
0.0
 11
8223.600000000001
 21
7003.269226480636
 31
0.0
  0
LINE
  5
1B085
330
747D
100
AcDbEntity
  8
部品1
 48
50.0
100
AcDbLine
 10
8123.600000000001
 20
6853.269226480636
 30
0.0
 11
8123.600000000001
 21
7253.269226480636
 31
0.0
  0
LINE
  5
1B086
330
747D
100
AcDbEntity
  8
部品1
 48
50.0
100
AcDbLine
 10
7491.600000000001
 20
6853.269226480634
 30
0.0
 11
7491.600000000001
 21
7253.269226480636
 31
0.0
  0
LINE
  5
1B087
330
747D
100
AcDbEntity
  8
センター
 48
2.0
100
AcDbLine
 10
8173.6
 20
7053.269226480636
 30
0.0
 11
8273.6
 21
7053.269226480636
 31
0.0
  0
LINE
  5
1B088
330
747D
100
AcDbEntity
  8
センター
 48
2.0
100
AcDbLine
 10
9055.600000000001
 20
7103.269226480636
 30
0.0
 11
9055.600000000001
 21
7003.269226480636
 31
0.0
  0
LINE
  5
1B089
330
747D
100
AcDbEntity
  8
部品1
 48
50.0
100
AcDbLine
 10
8955.600000000002
 20
6853.269226480636
 30
0.0
 11
8955.600000000002
 21
7253.269226480636
 31
0.0
  0
LINE
  5
1B08A
330
747D
100
AcDbEntity
  8
部品1
 48
50.0
100
AcDbLine
 10
8323.6
 20
6853.269226480634
 30
0.0
 11
8323.6
 21
7253.269226480636
 31
0.0
  0
LINE
  5
1B08C
330
747D
100
AcDbEntity
  8
部品1
 48
50.0
100
AcDbLine
 10
8323.6
 20
8053.269226480635
 30
0.0
 11
8123.600000000001
 21
8053.269226480635
 31
0.0
  0
LINE
  5
1B08D
330
747D
100
AcDbEntity
  8
センター
 48
2.0
100
AcDbLine
 10
8223.600000000001
 20
7903.269226480635
 30
0.0
 11
8223.600000000001
 21
7803.269226480636
 31
0.0
  0
LINE
  5
1B08E
330
747D
100
AcDbEntity
  8
センター
 48
2.0
100
AcDbLine
 10
8173.6
 20
7853.269226480636
 30
0.0
 11
8273.6
 21
7853.269226480636
 31
0.0
  0
LINE
  5
1B08F
330
747D
100
AcDbEntity
  8
部品1
 48
50.0
100
AcDbLine
 10
8123.599999999997
 20
8463.269226480633
 30
0.0
 11
8123.599999999999
 21
8583.269226480636
 31
0.0
  0
DIMENSION
  5
1B090
330
747D
100
AcDbEntity
  8
寸法
 48
50.0
100
AcDbDimension
  2
*D22
 10
7160.234378033493
 20
8583.269226480636
 30
0.0
 11
7160.234378033492
 21
8221.481703070734
 31
0.0
 70
   160
 71
     5
 42
730.0
  3
INABA_S40G
100
AcDbAlignedDimension
 13
7291.600000000001
 23
7853.269226480636
 33
0.0
 14
6874.6
 24
8583.269226480636
 34
0.0
 50
90.0
100
AcDbRotatedDimension
  0
LINE
  5
1B091
330
747D
100
AcDbEntity
  8
センター
 48
2.0
100
AcDbLine
 10
9055.600000000001
 20
7903.269226480635
 30
0.0
 11
9055.600000000001
 21
7803.269226480636
 31
0.0
  0
LINE
  5
1B092
330
747D
100
AcDbEntity
  8
部品1
 48
50.0
100
AcDbLine
 10
8323.599999999998
 20
8463.269226480633
 30
0.0
 11
8323.599999999998
 21
8583.269226480636
 31
0.0
  0
LINE
  5
1B099
330
747D
100
AcDbEntity
  8
部品1
 48
50.0
100
AcDbLine
 10
9963.600000000001
 20
5523.269226480653
 30
0.0
 11
9963.600000000001
 21
8583.269226480636
 31
0.0
  0
LINE
  5
1B09A
330
747D
100
AcDbEntity
  8
部品1
 48
50.0
100
AcDbLine
 10
9843.600000000002
 20
5753.269226480655
 30
0.0
 11
9843.600000000002
 21
8353.269226480636
 31
0.0
  0
LINE
  5
1B09E
330
747D
100
AcDbEntity
  8
部品1
 48
50.0
100
AcDbLine
 10
9963.600000000001
 20
5523.269226480653
 30
0.0
 11
9511.599999999999
 21
5523.269226480648
 31
0.0
  0
CIRCLE
  5
1B122
330
747D
100
AcDbEntity
  8
部品1
 48
50.0
100
AcDbCircle
 10
9840.600000000009
 20
5646.269226480638
 30
0.0
 40
35.0
  0
LINE
  5
1B123
330
747D
100
AcDbEntity
  8
センター
 48
2.0
100
AcDbLine
 10
9840.600000000009
 20
5696.269226480637
 30
0.0
 11
9840.600000000009
 21
5596.269226480638
 31
0.0
  0
LINE
  5
1B124
330
747D
100
AcDbEntity
  8
部品1
 48
50.0
100
AcDbLine
 10
9733.600000000002
 20
5643.269226480652
 30
0.0
 11
9733.600000000002
 21
5753.269226480654
 31
0.0
  0
LINE
  5
1B125
330
747D
100
AcDbEntity
  8
部品1
 48
50.0
100
AcDbLine
 10
9511.599999999999
 20
5448.269226480654
 30
0.0
 11
9511.599999999999
 21
5523.26922648065
 31
0.0
  0
LINE
  5
1B126
330
747D
100
AcDbEntity
  8
部品1
 48
50.0
100
AcDbLine
 10
9843.600000000002
 20
5753.269226480653
 30
0.0
 11
9733.600000000002
 21
5753.269226480654
 31
0.0
  0
LINE
  5
1B127
330
747D
100
AcDbEntity
  8
センター
 48
2.0
100
AcDbLine
 10
9790.600000000008
 20
5646.269226480638
 30
0.0
 11
9890.600000000008
 21
5646.269226480638
 31
0.0
  0
LINE
  5
1B128
330
747D
100
AcDbEntity
  8
部品1
 48
50.0
100
AcDbLine
 10
9155.600000000001
 20
6053.269226480633
 30
0.0
 11
9155.600000000001
 21
6453.269226480635
 31
0.0
  0
LINE
  5
1B129
330
747D
100
AcDbEntity
  8
部品1
 48
50.0
100
AcDbLine
 10
9155.600000000001
 20
7653.269226480635
 30
0.0
 11
9155.600000000001
 21
8053.269226480635
 31
0.0
  0
LINE
  5
1B12B
330
747D
100
AcDbEntity
  8
部品1
 48
50.0
100
AcDbLine
 10
9963.600000000001
 20
6953.269226480635
 30
0.0
 11
9843.600000000002
 21
6953.269226480634
 31
0.0
  0
LINE
  5
1B12C
330
747D
100
AcDbEntity
  8
部品1
 48
50.0
100
AcDbLine
 10
9963.600000000001
 20
7153.269226480635
 30
0.0
 11
9843.600000000002
 21
7153.269226480635
 31
0.0
  0
LINE
  5
1B12D
330
747D
100
AcDbEntity
  8
部品1
 48
50.0
100
AcDbLine
 10
9155.600000000001
 20
6853.269226480634
 30
0.0
 11
9155.600000000001
 21
7253.269226480636
 31
0.0
  0
DIMENSION
  5
1B12E
330
747D
100
AcDbEntity
  8
寸法
 48
50.0
100
AcDbDimension
  2
*D23
 10
9843.600000000002
 20
8125.560558980261
 30
0.0
 11
10233.65905511811
 21
8125.560558980261
 31
0.0
 70
   160
 71
     5
 42
120.0
  3
INABA_S40G
100
AcDbAlignedDimension
 13
9963.600000000001
 23
8142.553823019092
 33
0.0
 14
9843.600000000002
 24
8353.269226480636
 34
0.0
100
AcDbRotatedDimension
  0
DIMENSION
  5
1B12F
330
747D
100
AcDbEntity
  8
寸法
 48
50.0
100
AcDbDimension
  2
*D24
 10
9733.600000000002
 20
8125.560558980261
 30
0.0
 11
9463.54094488189
 21
8125.560558980261
 31
0.0
 70
   160
 71
     5
 42
110.0
  3
INABA_S40G
100
AcDbAlignedDimension
 13
9843.600000000002
 23
8353.269226480636
 33
0.0
 14
9733.600000000002
 24
8353.269226480634
 34
0.0
100
AcDbRotatedDimension
  0
CIRCLE
  5
1B130
330
747D
100
AcDbEntity
  8
部品1
 48
50.0
100
AcDbCircle
 10
9840.600000000002
 20
8460.269226480635
 30
0.0
 40
35.0
  0
LINE
  5
1B131
330
747D
100
AcDbEntity
  8
センター
 48
2.0
100
AcDbLine
 10
9840.600000000002
 20
8510.269226480636
 30
0.0
 11
9840.600000000002
 21
8410.269226480634
 31
0.0
  0
LINE
  5
1B132
330
747D
100
AcDbEntity
  8
部品1
 48
50.0
100
AcDbLine
 10
9733.600000000002
 20
8353.269226480634
 30
0.0
 11
9733.600000000002
 21
8463.269226480633
 31
0.0
  0
LINE
  5
1B133
330
747D
100
AcDbEntity
  8
センター
 48
2.0
100
AcDbLine
 10
9790.600000000001
 20
8460.269226480635
 30
0.0
 11
9890.6
 21
8460.269226480635
 31
0.0
  0
LINE
  5
1B134
330
747D
100
AcDbEntity
  8
部品1
 48
50.0
100
AcDbLine
 10
9843.600000000002
 20
8353.269226480636
 30
0.0
 11
9733.600000000002
 21
8353.269226480634
 31
0.0
  0
TEXT
  5
1C7A1
330
747D
100
AcDbEntity
  8
文字
 62
     7
 48
50.0
100
AcDbText
 10
13188.16259899338
 20
79.80631269190417
 30
0.0
 40
80.0
  1
※布基礎には換気口を設けてください。
  7
STYLE2
100
AcDbText
  0
TEXT
  5
1C7E7
330
747D
100
AcDbEntity
  8
文字
 62
     7
 48
50.0
100
AcDbText
 10
13188.16259899338
 20
246.7109242801889
 30
0.0
 40
80.0
  1
※寒冷地等は地域の実情に合わせた基礎にして下さい。
  7
STYLE2
100
AcDbText
  0
TEXT
  5
1C7E8
330
747D
100
AcDbEntity
  8
文字
 62
     7
 48
50.0
100
AcDbText
 10
14478.98566430227
 20
499.5983841039506
 30
0.0
 40
160.0
  1
ＮＸＮ－１０５Ｓ・Ｈ
  7
STYLE2
100
AcDbText
  0
TEXT
  5
1C7E9
330
747D
100
AcDbEntity
  8
文字
 62
     7
 48
50.0
100
AcDbText
 10
14899.46056312468
 20
871.1744590657927
 30
0.0
 40
100.0
  1
～一般型～
  7
STYLE2
100
AcDbText
  0
TEXT
  5
1C7EC
330
747D
100
AcDbEntity
  8
文字
 62
     7
 48
50.0
100
AcDbText
 10
14524.131837222
 20
1031.557706291229
 30
0.0
 40
100.0
  1
      <縮尺> S=1/40
  7
STYLE2
100
AcDbText
  0
TEXT
  5
1C7ED
330
747D
100
AcDbEntity
  8
文字
 62
     7
 48
50.0
100
AcDbText
 10
13201.43669998441
 20
477.2740661031257
 30
0.0
 40
160.0
  1
機種名
  7
STYLE2
100
AcDbText
  0
LINE
  5
1C7EF
330
747D
100
AcDbEntity
  8
文字
 62
     7
 48
50.0
100
AcDbLine
 10
13187.2
 20
400.0
 30
0.0
 11
16227.2
 21
400.0
 31
0.0
  0
LINE
  5
1D2D0
330
747D
100
AcDbEntity
  8
想像線
 48
10.0
100
AcDbLine
 10
10008.6
 20
5468.269226480652
 30
0.0
 11
10008.6
 21
8658.269226480635
 31
0.0
  0
MTEXT
  5
1D2D5
102
{ACAD_REACTORS
330
1D2D6
102
}
330
747D
100
AcDbEntity
  8
部品1
 62
     7
 48
50.0
100
AcDbMText
 10
11158.99523070988
 20
8871.118659964155
 30
0.0
 40
120.0
 41
0.0
 71
     6
 72
     1
  1
アンカーボルト
  7
STYLE1
 73
     1
 44
1.0
1001
ACAD
1000
MTEXTBEGIN
1070
    73
1070
     1
1070
    44
1040
1.0
1070
    74
1070
     0
1000
MTEXTEND
  0
LEADER
  5
1D2D6
330
747D
100
AcDbEntity
  8
寸法
 48
50.0
100
AcDbLeader
  3
INABA_S40G
 71
     0
 73
     0
 74
     0
 75
     1
 40
120.0
 41
994.3492424049171
 76
     3
 10
9840.680085757
 20
8460.477070839344
 30
0.0
 10
10024.64598830496
 20
8771.118659964155
 30
0.0
 10
10124.64598830496
 20
8771.118659964155
 30
0.0
340
1D2D5
  0
MTEXT
  5
1D332
102
{ACAD_REACTORS
330
1D333
102
}
330
747D
100
AcDbEntity
  8
部品1
 62
     7
 48
50.0
100
AcDbMText
 10
8625.440328953418
 20
7515.279990217107
 30
0.0
 40
120.0
 41
0.0
 71
     6
 72
     1
  1
CB
  7
STYLE1
 73
     1
 44
1.0
1001
ACAD
1000
MTEXTBEGIN
1070
    73
1070
     1
1070
    44
1040
1.0
1070
    74
1070
     0
1000
MTEXTEND
  0
LEADER
  5
1D333
330
747D
100
AcDbEntity
  8
寸法
 48
50.0
100
AcDbLeader
  3
INABA_S40G
 73
     0
 74
     0
 75
     1
 40
120.0
 41
149.591883092037
 76
     3
 10
8198.565642998737
 20
7691.29390378494
 30
0.0
 10
8335.848445861381
 20
7415.279990217107
 30
0.0
 10
8435.848445861381
 20
7415.279990217107
 30
0.0
340
1D332
  0
DIMENSION
  5
1DAC7
330
747D
100
AcDbEntity
  8
寸法
 48
50.0
100
AcDbDimension
  2
*D26
 10
9778.202780124333
 20
5523.269226480653
 30
0.0
 11
9778.202780124331
 21
4914.783945106414
 31
0.0
 70
   160
  1
扉の出<>
 71
     5
 42
75.00000000000091
  3
INABA_S40G
100
AcDbAlignedDimension
 13
9511.599999999999
 23
5448.269226480652
 33
0.0
 14
9511.600000000003
 24
5523.269226480653
 34
0.0
 50
90.0
100
AcDbRotatedDimension
  0
DIMENSION
  5
1DAC8
330
747D
100
AcDbEntity
  8
寸法
 48
50.0
100
AcDbDimension
  2
*D28
 10
6930.307249876097
 20
5643.269226480639
 30
0.0
 11
6930.307249876095
 21
5186.980921512681
 31
0.0
 70
   160
 71
     5
 42
119.9999999999909
  3
INABA_S40G
100
AcDbAlignedDimension
 13
6785.419180988153
 23
5523.269226480648
 33
0.0
 14
6713.600000000001
 24
5643.269226480639
 34
0.0
 50
90.0
100
AcDbRotatedDimension
  0
DIMENSION
  5
1DAC9
330
747D
100
AcDbEntity
  8
寸法
 48
50.0
100
AcDbDimension
  2
*D25
 10
6483.6
 20
4733.404923056524
 30
0.0
 11
6920.099999999999
 21
4833.404923056526
 31
0.0
 70
    32
 71
     5
 42
872.9999999999982
  3
INABA_S40G
100
AcDbAlignedDimension
 13
7356.599999999999
 23
5448.269226480654
 33
0.0
 14
6483.6
 24
5523.269226480636
 34
0.0
100
AcDbRotatedDimension
  0
DIMENSION
  5
1DACA
330
747D
100
AcDbEntity
  8
寸法
 48
50.0
100
AcDbDimension
  2
*D27
 10
6930.307249876097
 20
5753.269226480639
 30
0.0
 11
6930.307249876095
 21
6023.328281598764
 31
0.0
 70
   160
 71
     5
 42
110.0
  3
INABA_S40G
100
AcDbAlignedDimension
 13
6713.600000000001
 23
5643.269226480639
 33
0.0
 14
6713.599999999998
 24
5753.269226480639
 34
0.0
 50
90.0
100
AcDbRotatedDimension
  0
DIMENSION
  5
1EF6D
330
747D
100
AcDbEntity
  8
寸法
 48
50.0
100
AcDbDimension
  2
*D29
 10
7646.070780372816
 20
5643.269226480643
 30
0.0
 11
7646.070780372814
 21
5209.574285276744
 31
0.0
 70
   160
 71
     5
 42
195.0000000000054
  3
INABA_S40G
100
AcDbAlignedDimension
 13
7404.993249757371
 23
5448.269226480637
 33
0.0
 14
7405.960885310474
 24
5643.269226480643
 34
0.0
 50
90.0
100
AcDbRotatedDimension
  0
LINE
  5
1F492
330
747D
100
AcDbEntity
  8
想像線
 48
10.0
100
AcDbLine
 10
9849.451083471681
 20
5468.269226480653
 30
0.0
 11
10008.6
 21
5468.269226480652
 31
0.0
  0
LINE
  5
1F494
330
747D
100
AcDbEntity
  8
想像線
 48
10.0
100
AcDbLine
 10
9171.641447616334
 20
8658.269226480634
 30
0.0
 11
10008.6
 21
8658.269226480635
 31
0.0
  0
TEXT
  5
1F495
330
747D
100
AcDbEntity
  8
寸法
 62
     7
100
AcDbText
 10
7740.750754363529
 20
4364.440713965758
 30
0.0
 40
120.0
  1
扉位置 (2155x75)
  7
STYLE1
100
AcDbText
  0
SOLID
  5
1F496
330
747D
100
AcDbEntity
  8
寸法
 48
50.0
100
AcDbTrace
 10
-7948.236054003162
 20
5322.678197575754
 30
0.0
 11
-7965.145259673149
 21
5448.26922648064
 31
0.0
 12
-7908.417839529684
 22
5334.950968544663
 32
0.0
 13
-7908.417839529684
 23
5334.950968544663
 33
0.0
210
0.0
220
0.0
230
-1.0
1001
ACAD
1000
DSTYLE
1002
{
1070
   341
1005
0
1070
    40
1040
1.0
1070
   343
1005
0
1070
   344
1005
0
1002
}
  0
LWPOLYLINE
  5
1F497
330
747D
100
AcDbEntity
  8
寸法
 48
50.0
100
AcDbPolyline
 90
        3
 70
     0
 43
0.0
 10
-7965.145259673149
 20
5448.26922648064
 10
-7624.134795170776
 20
4342.172766417437
 10
-10438.19920810242
 20
4342.172766417437
210
0.0
220
0.0
230
-1.0
1001
ACAD
1000
DSTYLE
1002
{
1070
   341
1005
0
1070
    40
1040
1.0
1070
   343
1005
0
1070
   344
1005
0
1002
}
  0
TEXT
  5
1F498
330
747D
100
AcDbEntity
  8
寸法
 62
     7
100
AcDbText
 10
7740.750754363529
 20
4192.836951082433
 30
0.0
 40
120.0
  1
扉の位置に合わせた基礎形状として下さい。
  7
STYLE1
100
AcDbText
  0
DIMENSION
  5
1F812
330
747D
100
AcDbEntity
  8
寸法
 48
50.0
100
AcDbDimension
  2
*D30
 10
7356.599999999999
 20
4733.404923056524
 30
0.0
 11
8434.099999999999
 21
4833.416734080147
 31
0.0
 70
    32
  1
扉の幅 <>
 71
     5
 42
2155.0
  3
INABA_S40G
100
AcDbAlignedDimension
 13
9511.599999999999
 23
5448.269226480652
 33
0.0
 14
7356.599999999999
 24
5448.269226480637
 34
0.0
100
AcDbRotatedDimension
  0
LINE
  5
1FB30
330
747D
100
AcDbEntity
  8
細線
100
AcDbLine
 10
10119.70882340111
 20
1720.17409010302
 30
0.0
 11
9876.417156305137
 21
1963.465757198999
 31
0.0
  0
LINE
  5
1FB31
330
747D
100
AcDbEntity
  8
細線
100
AcDbLine
 10
10056.06921309432
 20
1720.17409010302
 30
0.0
 11
9876.417156305137
 21
1899.826146892211
 31
0.0
  0
LINE
  5
1FB32
330
747D
100
AcDbEntity
  8
部品1
100
AcDbLine
 10
9876.417156305137
 20
2020.174090103021
 30
0.0
 11
10476.41715630514
 21
2020.174090103021
 31
0.0
  0
LINE
  5
1FB33
330
747D
100
AcDbEntity
  8
細線
100
AcDbLine
 10
9867.712649429298
 20
1605.550445536333
 30
0.0
 11
9982.336293995988
 21
1720.17409010302
 31
0.0
  0
LWPOLYLINE
  5
1FB34
330
747D
100
AcDbEntity
  8
部品1
 48
50.0
100
AcDbPolyline
 90
        2
 70
     0
 43
15.0
 10
9395.653078679654
 20
1720.17409010302
 10
10897.01845759418
 20
1720.17409010302
  0
LINE
  5
1FB35
330
747D
100
AcDbEntity
  8
部品1
100
AcDbLine
 10
9726.417156305139
 20
1605.550445536333
 30
0.0
 11
10626.41715630513
 21
1605.550445536336
 31
0.0
  0
LINE
  5
1FB36
330
747D
100
AcDbEntity
  8
部品1
100
AcDbLine
 10
9726.417156305139
 20
1445.550445536329
 30
0.0
 11
10626.41715630513
 21
1445.550445536333
 31
0.0
  0
LINE
  5
1FB37
330
747D
100
AcDbEntity
  8
部品1
100
AcDbLine
 10
4320.453388026244
 20
412.3191154693886
 30
0.0
 11
11216.92808412427
 21
412.3191154693886
 31
0.0
  0
LINE
  5
1FB38
330
747D
100
AcDbEntity
  8
部品1
100
AcDbLine
 10
11216.92808412427
 20
3371.388614824076
 30
0.0
 11
4320.453388026244
 21
3371.388614824076
 31
0.0
  0
LINE
  5
1FB39
330
747D
100
AcDbEntity
  8
部品1
100
AcDbLine
 10
11216.92808412427
 20
3671.388614824078
 30
0.0
 11
4320.453388026244
 21
3671.388614824076
 31
0.0
  0
LEADER
  5
1FB3A
330
747D
100
AcDbEntity
  8
寸法
 48
50.0
100
AcDbLeader
  3
INABA_S40G
 73
     0
 75
     1
 40
141.4772727272727
 41
760.7954545454546
 76
     3
 10
7801.974158722082
 20
1957.068681800869
 30
0.0
 10
7587.219372857899
 20
3012.542534746467
 30
0.0
 10
7487.219372857899
 20
3012.542534746467
 30
0.0
1001
ACAD
1000
DSTYLE
1002
{
1070
   341
1005
0
1002
}
  0
MTEXT
  5
1FB3B
102
{ACAD_REACTORS
330
1FB3A
102
}
330
747D
100
AcDbEntity
  8
寸法
 62
     7
 48
50.0
100
AcDbMText
 10
7447.219372857898
 20
3123.281171110103
 30
0.0
 40
100.0
 41
1.0
 71
     6
 72
     1
  1
\A1;φ70スリーブ
  7
STYLE2
 73
     1
 44
1.0
1001
ACAD
1000
MTEXTBEGIN
1070
    73
1070
     1
1070
    44
1040
1.0
1070
    74
1070
     0
1000
MTEXTEND
  0
LINE
  5
1FB3C
330
747D
100
AcDbEntity
  8
部品1
100
AcDbLine
 10
4320.453388026248
 20
3671.388614824076
 30
0.0
 11
4320.453388026248
 21
412.3191154693886
 31
0.0
  0
DIMENSION
  5
1FB3D
330
747D
100
AcDbEntity
  8
寸法
 48
50.0
100
AcDbDimension
  2
*D31
 10
5439.254079578027
 20
2544.758849998496
 30
0.0
 11
5559.254079578027
 21
2544.758849998496
 31
0.0
 70
   160
  1
120\P(195)
 71
     5
 42
240.0
  3
INABA_S40G
100
AcDbAlignedDimension
 13
5679.254079578027
 23
2020.174090103021
 33
0.0
 14
5439.254079578027
 24
2020.174090103021
 34
0.0
100
AcDbRotatedDimension
1001
ACAD
1000
DSTYLE
1002
{
1070
   341
1005
0
1002
}
  0
LEADER
  5
1FB3E
330
747D
100
AcDbEntity
  8
寸法
 48
50.0
100
AcDbLeader
  3
INABA_S40G
 73
     0
 74
     0
 75
     1
 40
127.8409090909091
 41
1133.522727272727
 76
     3
 10
7891.053221049521
 20
2356.578200658371
 30
0.0
 10
7990.892709010572
 20
2791.872851916642
 30
0.0
 10
8090.892709010573
 20
2791.872851916642
 30
0.0
1001
ACAD
1000
DSTYLE
1002
{
1070
   341
1005
0
1002
}
  0
MTEXT
  5
1FB3F
102
{ACAD_REACTORS
330
1FB3E
102
}
330
747D
100
AcDbEntity
  8
部品1
 62
     7
 48
50.0
100
AcDbMText
 10
8130.892709010572
 20
2895.793306462096
 30
0.0
 40
100.0
 41
1.0
 71
     4
 72
     1
  1
\A1;ワッシャー(市販品)
  7
STYLE2
 73
     1
 44
1.0
1001
ACAD
1000
MTEXTBEGIN
1070
    73
1070
     1
1070
    44
1040
1.0
1070
    74
1070
     0
1000
MTEXTEND
  0
LEADER
  5
1FB40
330
747D
100
AcDbEntity
  8
寸法
 48
50.0
100
AcDbLeader
  3
INABA_S40G
 73
     0
 74
     0
 75
     1
 40
127.8409090909091
 41
850.0
 76
     3
 10
7861.05322104952
 20
2518.76819148945
 30
0.0
 10
7951.495684941217
 20
3023.084205372626
 30
0.0
 10
8051.495684941217
 20
3023.084205372626
 30
0.0
1001
ACAD
1000
DSTYLE
1002
{
1070
   341
1005
0
1002
}
  0
MTEXT
  5
1FB41
102
{ACAD_REACTORS
330
1FB40
102
}
330
747D
100
AcDbEntity
  8
部品1
 62
     7
 48
50.0
100
AcDbMText
 10
8091.495684941218
 20
3127.004659918081
 30
0.0
 40
100.0
 41
1.0
 71
     4
 72
     1
  1
\A1;ナット(市販品)
  7
STYLE2
 73
     1
 44
1.0
1001
ACAD
1000
MTEXTBEGIN
1070
    73
1070
     1
1070
    44
1040
1.0
1070
    74
1070
     0
1000
MTEXTEND
  0
MTEXT
  5
1FB42
102
{ACAD_REACTORS
330
1FB43
102
}
330
747D
100
AcDbEntity
  8
寸法
 62
     7
 48
50.0
100
AcDbMText
 10
7480.523130618347
 20
2672.425831225709
 30
0.0
 40
100.0
 41
1.0
 71
     6
 72
     1
  1
アンカープレート {\fArial|b0|i0|c0|p32;L}
  7
STYLE2
 73
     1
 44
1.0
1001
ACAD
1000
MTEXTBEGIN
1070
    73
1070
     1
1070
    44
1040
1.0
1070
    74
1070
     0
1000
MTEXTEND
  0
LEADER
  5
1FB43
330
747D
100
AcDbEntity
  8
寸法
 48
50.0
100
AcDbLeader
  3
INABA_S40G
 73
     0
 75
     1
 40
132.9545454545455
 41
1129.404378023068
 76
     3
 10
7728.55322104952
 20
2107.124090103021
 30
0.0
 10
7620.523130618346
 20
2565.948558498436
 30
0.0
 10
7520.523130618347
 20
2565.948558498436
 30
0.0
1001
ACAD
1000
DSTYLE
1002
{
1070
   341
1005
0
1002
}
  0
TEXT
  5
1FB44
330
747D
100
AcDbEntity
  8
部品1
 48
50.0
100
AcDbText
 10
4921.579202286832
 20
1734.22283045709
 30
0.0
 40
100.0
  1
▽G.L
  7
STYLE2
100
AcDbText
  0
LWPOLYLINE
  5
1FB45
330
747D
100
AcDbEntity
  8
部品1
 48
50.0
100
AcDbPolyline
 90
        2
 70
     0
 43
10.0
 10
4921.579202286832
 20
1720.174090103023
 10
5439.254079578027
 20
1720.174090103023
  0
DIMENSION
  5
1FB46
330
747D
100
AcDbEntity
  8
寸法
 48
50.0
100
AcDbDimension
  2
*D32
 10
5101.228687412453
 20
1040.17409010302
 30
0.0
 11
5101.228687412453
 21
1190.174090103019
 31
0.0
 70
   160
  1
150
 71
     5
 42
300.0
  3
INABA_S40G
100
AcDbAlignedDimension
 13
5279.254079578027
 23
1340.17409010302
 33
0.0
 14
5179.254079578032
 24
1040.17409010302
 34
0.0
 50
90.0
100
AcDbRotatedDimension
1001
ACAD
1000
DSTYLE
1002
{
1070
   341
1005
0
1002
}
  0
DIMENSION
  5
1FB47
330
747D
100
AcDbEntity
  8
寸法
 48
50.0
100
AcDbDimension
  2
*D33
 10
4678.609141541963
 20
1040.17409010302
 30
0.0
 11
4678.609141541963
 21
1530.17409010302
 31
0.0
 70
   160
  1
540
 71
     5
 42
980.0000000000013
  3
INABA_S40G
100
AcDbAlignedDimension
 13
5439.254079578027
 23
2020.174090103021
 33
0.0
 14
5179.254079578032
 24
1040.17409010302
 34
0.0
 50
90.0
100
AcDbRotatedDimension
1001
ACAD
1000
DSTYLE
1002
{
1070
   341
1005
0
1002
}
  0
MTEXT
  5
1FB48
102
{ACAD_REACTORS
330
1FB49
102
}
330
747D
100
AcDbEntity
  8
寸法
 62
     7
 48
50.0
100
AcDbMText
 10
5355.336079659745
 20
2285.819365105574
 30
0.0
 40
100.0
 41
1.0
 71
     6
 72
     1
  1
\A1;金コテ押エ
  7
STYLE2
 73
     1
 44
1.0
1001
ACAD
1000
MTEXTBEGIN
1070
    73
1070
     1
1070
    44
1040
1.0
1070
    74
1070
     0
1000
MTEXTEND
  0
LEADER
  5
1FB49
330
747D
100
AcDbEntity
  8
寸法
 48
50.0
100
AcDbLeader
  3
INABA_S40G
 71
     0
 73
     0
 75
     1
 40
130.1136363636363
 41
651.1363636363636
 76
     3
 10
5539.254079578028
 20
2020.174090103021
 30
0.0
 10
5480.336079659745
 20
2195.762546923755
 30
0.0
 10
5380.336079659745
 20
2195.762546923755
 30
0.0
1001
ACAD
1000
DSTYLE
1002
{
1070
   341
1005
0
1002
}
  0
LEADER
  5
1FB4A
330
747D
100
AcDbEntity
  8
寸法
 48
50.0
100
AcDbLeader
  3
INABA_S40G
 71
     0
 73
     0
 75
     1
 40
100.0
 41
540.3409090909091
 76
     3
 10
5569.254079578028
 20
1717.833108474424
 30
0.0
 10
5440.526283917155
 20
1440.995197798419
 30
0.0
 10
5340.526283917156
 20
1440.995197798419
 30
0.0
213
-12.16522788236671
223
-5.804645826423211
233
0.0
1001
ACAD
1000
DSTYLE
1002
{
1070
   341
1005
0
1002
}
  0
MTEXT
  5
1FB4B
102
{ACAD_REACTORS
330
1FB4A
102
}
330
747D
100
AcDbEntity
  8
寸法
 62
     7
 48
50.0
100
AcDbMText
 10
5327.691511799521
 20
1521.79984362484
 30
0.0
 40
100.0
 41
1.0
 71
     6
 72
     1
  1
\A1;D10@300
  7
STYLE2
 73
     1
 44
1.0
1001
ACAD
1000
MTEXTBEGIN
1070
    73
1070
     1
1070
    44
1040
1.0
1070
    74
1070
     0
1000
MTEXTEND
  0
MTEXT
  5
1FB4C
102
{ACAD_REACTORS
330
1FB4D
102
}
330
747D
100
AcDbEntity
  8
寸法
 62
     7
 48
50.0
100
AcDbMText
 10
5100.738706280829
 20
710.375532405671
 30
0.0
 40
100.0
 41
1.0
 71
     6
 72
     1
  1
D13
  7
STYLE2
 73
     1
 44
1.0
1001
ACAD
1000
MTEXTBEGIN
1070
    73
1070
     1
1070
    44
1040
1.0
1070
    74
1070
     0
1000
MTEXTEND
  0
LEADER
  5
1FB4D
330
747D
100
AcDbEntity
  8
寸法
 48
50.0
100
AcDbLeader
  3
INABA_S40G
 71
     0
 73
     0
 75
     1
 40
100.0
 41
222.7272727272727
 76
     3
 10
5559.254079578027
 20
1190.174090103019
 30
0.0
 10
5225.738706280829
 20
635.375532405671
 30
0.0
 10
5125.738706280828
 20
635.375532405671
 30
0.0
1001
ACAD
1000
DSTYLE
1002
{
1070
   341
1005
0
1002
}
  0
LEADER
  5
1FB4E
330
747D
100
AcDbEntity
  8
寸法
 48
50.0
100
AcDbLeader
  3
INABA_S40G
 71
     0
 73
     0
 75
     1
 40
100.0
 41
225.0
 76
     3
 10
5399.132770018207
 20
1190.174090103019
 30
0.0
 10
5190.585296834034
 20
860.7707230799752
 30
0.0
 10
5090.585296834034
 20
860.7707230799752
 30
0.0
1001
ACAD
1000
DSTYLE
1002
{
1070
   341
1005
0
1002
}
  0
MTEXT
  5
1FB4F
102
{ACAD_REACTORS
330
1FB4E
102
}
330
747D
100
AcDbEntity
  8
寸法
 62
     7
 48
50.0
100
AcDbMText
 10
5065.585296834036
 20
935.7707230799752
 30
0.0
 40
100.0
 41
1.0
 71
     6
 72
     1
  1
D10
  7
STYLE2
 73
     1
 44
1.0
1001
ACAD
1000
MTEXTBEGIN
1070
    73
1070
     1
1070
    44
1040
1.0
1070
    74
1070
     0
1000
MTEXTEND
  0
LINE
  5
1FB50
330
747D
100
AcDbEntity
  8
部品1
 48
50.0
100
AcDbLine
 10
5679.254079578027
 20
2020.174090103021
 30
0.0
 11
5679.254079578027
 21
1340.17409010302
 31
0.0
  0
LINE
  5
1FB51
330
747D
100
AcDbEntity
  8
細線
 48
50.0
100
AcDbLine
 10
5439.254079578027
 20
1398.732522305734
 30
0.0
 11
5569.254079578035
 21
1528.732522305734
 31
0.0
  0
LINE
  5
1FB52
330
747D
100
AcDbEntity
  8
細線
 48
50.0
100
AcDbLine
 10
5439.254079578027
 20
1466.084443213753
 30
0.0
 11
5569.254079578028
 21
1596.084443213753
 31
0.0
  0
LINE
  5
1FB53
330
747D
100
AcDbEntity
  8
細線
 48
50.0
100
AcDbLine
 10
5439.254079578027
 20
1432.408482759743
 30
0.0
 11
5569.254079578035
 21
1562.408482759747
 31
0.0
  0
LINE
  5
1FB54
330
747D
100
AcDbEntity
  8
部品1
 48
50.0
100
AcDbLine
 10
5439.254079578027
 20
1340.17409010302
 30
0.0
 11
5439.254079578027
 21
2020.174090103021
 31
0.0
  0
LINE
  5
1FB55
330
747D
100
AcDbEntity
  8
部品1
 48
50.0
100
AcDbLine
 10
5569.254079578035
 20
1190.174090103019
 30
0.0
 11
5569.25407957802
 21
1845.492126845827
 31
0.0
  0
LINE
  5
1FB56
330
747D
100
AcDbEntity
  8
部品1
 48
50.0
100
AcDbLine
 10
5589.254079578035
 20
1190.174090103019
 30
0.0
 11
5589.254079578028
 21
1845.492126845827
 31
0.0
  0
LINE
  5
1FB57
330
747D
100
AcDbEntity
  8
部品1
 48
50.0
100
AcDbLine
 10
5679.254079578027
 20
1340.17409010302
 30
0.0
 11
5839.254079578028
 21
1340.17409010302
 31
0.0
  0
LINE
  5
1FB58
330
747D
100
AcDbEntity
  8
細線
 48
50.0
100
AcDbLine
 10
5725.835054185458
 20
1180.17409010302
 30
0.0
 11
5839.254079578028
 21
1293.593115495594
 31
0.0
  0
LINE
  5
1FB59
330
747D
100
AcDbEntity
  8
細線
 48
50.0
100
AcDbLine
 10
5759.511014639464
 20
1180.17409010302
 30
0.0
 11
5839.254079578028
 21
1259.917155041585
 31
0.0
  0
LINE
  5
1FB5A
330
747D
100
AcDbEntity
  8
細線
 48
50.0
100
AcDbLine
 10
5692.159093731437
 20
1180.17409010302
 30
0.0
 11
5839.254079578028
 21
1327.269075949603
 31
0.0
  0
LEADER
  5
1FB5B
330
747D
100
AcDbEntity
  8
寸法
 48
50.0
100
AcDbLeader
  3
INABA_S40G
 71
     0
 73
     0
 74
     0
 75
     1
 40
100.0
 41
225.0
 76
     3
 10
5719.132770018206
 20
1190.174090103019
 30
0.0
 10
5843.413654336384
 20
1070.927753924305
 30
0.0
 10
5943.413654336384
 20
1070.927753924305
 30
0.0
1001
ACAD
1000
DSTYLE
1002
{
1070
   341
1005
0
1002
}
  0
DIMENSION
  5
1FB5C
330
747D
100
AcDbEntity
  8
寸法
 48
50.0
100
AcDbDimension
  2
*D34
 10
5839.254079578028
 20
581.2219836470867
 30
0.0
 11
5559.254079578027
 21
581.2219836470867
 31
0.0
 70
   160
  1
300
 71
     5
 42
560.0000000000009
  3
INABA_S40G
100
AcDbAlignedDimension
 13
5279.254079578027
 23
880.1740901030198
 33
0.0
 14
5839.254079578028
 24
880.1740901030198
 34
0.0
100
AcDbRotatedDimension
1001
ACAD
1000
DSTYLE
1002
{
1070
   341
1005
0
1002
}
  0
LEADER
  5
1FB5D
330
747D
100
AcDbEntity
  8
寸法
 48
50.0
100
AcDbLeader
  3
INABA_S40G
 71
     0
 73
     0
 74
     0
 75
     1
 40
100.0
 41
540.3409090909091
 76
     3
 10
5651.685540844495
 20
1169.248427086113
 30
0.0
 10
5856.427149404591
 20
742.2099045924915
 30
0.0
 10
5956.427149404592
 20
742.2099045924915
 30
0.0
213
0.0
223
-1.277828345336728
233
0.0
1001
ACAD
1000
DSTYLE
1002
{
1070
   341
1005
0
1002
}
  0
LINE
  5
1FB5E
330
747D
100
AcDbEntity
  8
部品1
 48
50.0
100
AcDbLine
 10
5939.254079578031
 20
1040.17409010302
 30
0.0
 11
5179.254079578032
 21
1040.17409010302
 31
0.0
  0
LINE
  5
1FB5F
330
747D
100
AcDbEntity
  8
部品1
 48
50.0
100
AcDbLine
 10
5939.254079578031
 20
880.1740901030198
 30
0.0
 11
5179.254079578032
 21
880.1740901030198
 31
0.0
  0
LINE
  5
1FB60
330
747D
100
AcDbEntity
  8
細線
 48
50.0
100
AcDbLine
 10
5732.952741316164
 20
880.1740901030189
 30
0.0
 11
5775.824612105143
 21
1040.174090103019
 31
0.0
  0
LINE
  5
1FB61
330
747D
100
AcDbEntity
  8
細線
 48
50.0
100
AcDbLine
 10
5535.732628948046
 20
880.1740901030198
 30
0.0
 11
5578.604499737025
 21
1040.17409010302
 31
0.0
  0
LINE
  5
1FB62
330
747D
100
AcDbEntity
  8
部品1
 48
50.0
100
AcDbLine
 10
5179.254079578032
 20
880.1740901030198
 30
0.0
 11
5179.254079578032
 21
1040.17409010302
 31
0.0
  0
LINE
  5
1FB63
330
747D
100
AcDbEntity
  8
細線
 48
50.0
100
AcDbLine
 10
5239.902460395851
 20
880.1740901030189
 30
0.0
 11
5282.77433118483
 21
1040.174090103019
 31
0.0
  0
LINE
  5
1FB64
330
747D
100
AcDbEntity
  8
細線
 48
50.0
100
AcDbLine
 10
5437.122572763981
 20
880.1740901030189
 30
0.0
 11
5479.99444355296
 21
1040.174090103019
 31
0.0
  0
LINE
  5
1FB65
330
747D
100
AcDbEntity
  8
細線
 48
50.0
100
AcDbLine
 10
5338.512516579924
 20
880.1740901030198
 30
0.0
 11
5381.384387368902
 21
1040.17409010302
 31
0.0
  0
LINE
  5
1FB66
330
747D
100
AcDbEntity
  8
細線
 48
50.0
100
AcDbLine
 10
5634.342685132104
 20
880.1740901030198
 30
0.0
 11
5677.214555921086
 21
1040.174090103019
 31
0.0
  0
LINE
  5
1FB67
330
747D
100
AcDbEntity
  8
細線
 48
50.0
100
AcDbLine
 10
5346.550992352857
 20
910.1740901030197
 30
0.0
 11
5354.589468125791
 21
880.1740901030198
 31
0.0
  0
LINE
  5
1FB68
330
747D
100
AcDbEntity
  8
細線
 48
50.0
100
AcDbLine
 10
5247.940936168792
 20
910.1740901030197
 30
0.0
 11
5255.979411941726
 21
880.1740901030198
 31
0.0
  0
LINE
  5
1FB69
330
747D
100
AcDbEntity
  8
細線
 48
50.0
100
AcDbLine
 10
5543.771104720986
 20
910.1740901030197
 30
0.0
 11
5551.80958049392
 21
880.1740901030198
 31
0.0
  0
LINE
  5
1FB6A
330
747D
100
AcDbEntity
  8
細線
 48
50.0
100
AcDbLine
 10
5445.161048536922
 20
910.1740901030197
 30
0.0
 11
5453.199524309855
 21
880.1740901030198
 31
0.0
  0
LINE
  5
1FB6B
330
747D
100
AcDbEntity
  8
細線
 48
50.0
100
AcDbLine
 10
5740.991217089102
 20
910.1740901030197
 30
0.0
 11
5749.029692862035
 21
880.1740901030198
 31
0.0
  0
LINE
  5
1FB6C
330
747D
100
AcDbEntity
  8
細線
 48
50.0
100
AcDbLine
 10
5642.381160905045
 20
910.1740901030197
 30
0.0
 11
5650.419636677978
 21
880.1740901030198
 31
0.0
  0
LINE
  5
1FB6D
330
747D
100
AcDbEntity
  8
部品1
 48
50.0
100
AcDbLine
 10
5279.254079578027
 20
1340.17409010302
 30
0.0
 11
5439.254079578027
 21
1340.17409010302
 31
0.0
  0
LINE
  5
1FB6E
330
747D
100
AcDbEntity
  8
細線
 48
50.0
100
AcDbLine
 10
5282.75141009937
 20
1040.17409010302
 30
0.0
 11
5402.75141009937
 21
1160.174090103019
 31
0.0
  0
LINE
  5
1FB6F
330
747D
100
AcDbEntity
  8
細線
 48
50.0
100
AcDbLine
 10
5316.427370553384
 20
1040.17409010302
 30
0.0
 11
5436.427370553383
 21
1160.174090103019
 31
0.0
  0
CIRCLE
  5
1FB70
330
747D
100
AcDbEntity
  8
部品1
 48
50.0
100
AcDbCircle
 10
5399.254079578028
 20
1190.174090103019
 30
0.0
 40
10.0
  0
LINE
  5
1FB71
330
747D
100
AcDbEntity
  8
細線
 48
50.0
100
AcDbLine
 10
5350.103331007389
 20
1040.17409010302
 30
0.0
 11
5470.103331007389
 21
1160.174090103019
 31
0.0
  0
LINE
  5
1FB72
330
747D
100
AcDbEntity
  8
部品1
 48
50.0
100
AcDbLine
 10
5349.254079578027
 20
1180.17409010302
 30
0.0
 11
5769.254079578028
 21
1180.17409010302
 31
0.0
  0
LINE
  5
1FB73
330
747D
100
AcDbEntity
  8
部品1
 48
50.0
100
AcDbLine
 10
5349.254079578027
 20
1160.174090103019
 30
0.0
 11
5769.254079578028
 21
1160.174090103019
 31
0.0
  0
LINE
  5
1FB74
330
747D
100
AcDbEntity
  8
部品1
 48
50.0
100
AcDbLine
 10
5279.254079578027
 20
1040.17409010302
 30
0.0
 11
5279.254079578027
 21
1340.17409010302
 31
0.0
  0
LINE
  5
1FB75
330
747D
100
AcDbEntity
  8
細線
 48
50.0
100
AcDbLine
 10
5179.254079578027
 20
1021.848991310245
 30
0.0
 11
5184.164275000772
 21
1040.17409010302
 31
0.0
  0
LINE
  5
1FB76
330
747D
100
AcDbEntity
  8
細線
 48
50.0
100
AcDbLine
 10
5274.735855411904
 20
1010.174090103021
 30
0.0
 11
5266.69737963897
 21
1040.17409010302
 31
0.0
  0
LINE
  5
1FB77
330
747D
100
AcDbEntity
  8
細線
 48
50.0
100
AcDbLine
 10
5373.345911595968
 20
1010.174090103021
 30
0.0
 11
5365.307435823035
 21
1040.17409010302
 31
0.0
  0
LINE
  5
1FB78
330
747D
100
AcDbEntity
  8
部品1
 48
50.0
100
AcDbLine
 10
5349.254079578027
 20
1180.17409010302
 30
0.0
 11
5349.254079578027
 21
1160.174090103019
 31
0.0
  0
LINE
  5
1FB79
330
747D
100
AcDbEntity
  8
細線
 48
50.0
100
AcDbLine
 10
5279.25407957802
 20
1238.732522305734
 30
0.0
 11
5380.695647375315
 21
1340.17409010302
 31
0.0
  0
LINE
  5
1FB7A
330
747D
100
AcDbEntity
  8
細線
 48
50.0
100
AcDbLine
 10
5279.25407957802
 20
1306.084443213753
 30
0.0
 11
5313.343726467295
 21
1340.17409010302
 31
0.0
  0
LINE
  5
1FB7B
330
747D
100
AcDbEntity
  8
細線
 48
50.0
100
AcDbLine
 10
5279.25407957802
 20
1272.40848275974
 30
0.0
 11
5347.019686921309
 21
1340.17409010302
 31
0.0
  0
LINE
  5
1FB7C
330
747D
100
AcDbEntity
  8
部品1
 48
50.0
100
AcDbLine
 10
5549.254079578028
 20
1262.833108474424
 30
0.0
 11
5549.254079578028
 21
1190.174090103019
 31
0.0
  0
LINE
  5
1FB7D
330
747D
100
AcDbEntity
  8
細線
 48
50.0
100
AcDbLine
 10
5456.427370553384
 20
1180.17409010302
 30
0.0
 11
5529.254079578027
 21
1253.000799127669
 31
0.0
  0
LINE
  5
1FB7E
330
747D
100
AcDbEntity
  8
部品1
 48
50.0
100
AcDbLine
 10
5529.254079578027
 20
1262.833108474424
 30
0.0
 11
5529.254079578027
 21
1190.174090103019
 31
0.0
  0
LINE
  5
1FB7F
330
747D
100
AcDbEntity
  8
細線
 48
50.0
100
AcDbLine
 10
5490.103331007389
 20
1180.17409010302
 30
0.0
 11
5529.254079578027
 21
1219.324838673659
 31
0.0
  0
LINE
  5
1FB80
330
747D
100
AcDbEntity
  8
細線
 48
50.0
100
AcDbLine
 10
5422.75141009937
 20
1180.17409010302
 30
0.0
 11
5569.254079578028
 21
1326.676759581678
 31
0.0
  0
LINE
  5
1FB81
330
747D
100
AcDbEntity
  8
細線
 48
50.0
100
AcDbLine
 10
5552.159093731445
 20
1040.17409010302
 30
0.0
 11
5672.159093731445
 21
1160.174090103019
 31
0.0
  0
LINE
  5
1FB82
330
747D
100
AcDbEntity
  8
細線
 48
50.0
100
AcDbLine
 10
5585.835054185458
 20
1040.17409010302
 30
0.0
 11
5705.835054185458
 21
1160.174090103019
 31
0.0
  0
CIRCLE
  5
1FB83
330
747D
100
AcDbEntity
  8
部品1
 48
50.0
100
AcDbCircle
 10
5559.254079578028
 20
1190.174090103019
 30
0.0
 40
10.0
  0
LINE
  5
1FB84
330
747D
100
AcDbEntity
  8
細線
 48
50.0
100
AcDbLine
 10
5471.955967780033
 20
1010.174090103021
 30
0.0
 11
5463.9174920071
 21
1040.17409010302
 31
0.0
  0
ARC
  5
1FB85
330
747D
100
AcDbEntity
  8
部品1
 48
50.0
100
AcDbCircle
 10
5559.254079578028
 20
1190.174090103019
 30
0.0
 40
30.0
100
AcDbArc
 50
180.0
 51
199.4712206345204
  0
LINE
  5
1FB86
330
747D
100
AcDbEntity
  8
細線
 48
50.0
100
AcDbLine
 10
5570.566023964098
 20
1010.174090103021
 30
0.0
 11
5562.527548191165
 21
1040.17409010302
 31
0.0
  0
ARC
  5
1FB87
330
747D
100
AcDbEntity
  8
部品1
 48
50.0
100
AcDbCircle
 10
5559.254079578028
 20
1190.174090103019
 30
0.0
 40
30.0
100
AcDbArc
 50
340.5287793654796
 51
0.0
  0
LINE
  5
1FB88
330
747D
100
AcDbEntity
  8
細線
 48
50.0
100
AcDbLine
 10
5669.176080148156
 20
1010.174090103021
 30
0.0
 11
5661.137604375222
 21
1040.17409010302
 31
0.0
  0
CIRCLE
  5
1FB89
330
747D
100
AcDbEntity
  8
部品1
 48
50.0
100
AcDbCircle
 10
5719.254079578028
 20
1190.174090103019
 30
0.0
 40
10.0
  0
LINE
  5
1FB8A
330
747D
100
AcDbEntity
  8
細線
 48
50.0
100
AcDbLine
 10
5767.786136332214
 20
1010.174090103021
 30
0.0
 11
5759.747660559281
 21
1040.17409010302
 31
0.0
  0
LINE
  5
1FB8B
330
747D
100
AcDbEntity
  8
部品1
 48
50.0
100
AcDbLine
 10
5769.254079578028
 20
1180.17409010302
 30
0.0
 11
5769.254079578028
 21
1160.174090103019
 31
0.0
  0
LINE
  5
1FB8C
330
747D
100
AcDbEntity
  8
細線
 48
50.0
100
AcDbLine
 10
5619.511014639464
 20
1040.17409010302
 30
0.0
 11
5739.512124445884
 21
1160.175199909445
 31
0.0
  0
LINE
  5
1FB8D
330
747D
100
AcDbEntity
  8
細線
 48
50.0
100
AcDbLine
 10
5589.254079578035
 20
1279.324838673659
 30
0.0
 11
5679.25407957802
 21
1369.324838673659
 31
0.0
  0
LINE
  5
1FB8E
330
747D
100
AcDbEntity
  8
細線
 48
50.0
100
AcDbLine
 10
5589.254079578035
 20
1346.676759581682
 30
0.0
 11
5679.25407957802
 21
1436.676759581678
 31
0.0
  0
LINE
  5
1FB8F
330
747D
100
AcDbEntity
  8
細線
 48
50.0
100
AcDbLine
 10
5589.254079578035
 20
1313.000799127672
 30
0.0
 11
5679.25407957802
 21
1403.000799127665
 31
0.0
  0
LINE
  5
1FB90
330
747D
100
AcDbEntity
  8
細線
 48
50.0
100
AcDbLine
 10
5549.254079578028
 20
1239.324838673659
 30
0.0
 11
5569.254079578035
 21
1259.324838673659
 31
0.0
  0
LINE
  5
1FB91
330
747D
100
AcDbEntity
  8
細線
 48
50.0
100
AcDbLine
 10
5539.086388924783
 20
1262.833108474424
 30
0.0
 11
5569.254079578035
 21
1293.000799127672
 31
0.0
  0
LINE
  5
1FB92
330
747D
100
AcDbEntity
  8
部品1
 48
50.0
100
AcDbLine
 10
5549.254079578028
 20
1262.833108474424
 30
0.0
 11
5529.254079578027
 21
1262.833108474424
 31
0.0
  0
LINE
  5
1FB93
330
747D
100
AcDbEntity
  8
細線
 48
50.0
100
AcDbLine
 10
5831.562797500219
 20
880.1740901030198
 30
0.0
 11
5874.4346682892
 21
1040.174090103019
 31
0.0
  0
LINE
  5
1FB94
330
747D
100
AcDbEntity
  8
部品1
 48
50.0
100
AcDbLine
 10
5939.254079578031
 20
1040.17409010302
 30
0.0
 11
5939.254079578031
 21
880.1740901030198
 31
0.0
  0
MTEXT
  5
1FB95
102
{ACAD_REACTORS
330
1FB5D
102
}
330
747D
100
AcDbEntity
  8
寸法
 62
     7
 48
50.0
100
AcDbMText
 10
5981.427149404591
 20
818.4877329378286
 30
0.0
 40
100.0
 41
1.0
 71
     4
 72
     1
  1
\A1;D10@300
  7
STYLE2
 73
     1
 44
1.0
1001
ACAD
1000
MTEXTBEGIN
1070
    73
1070
     1
1070
    44
1040
1.0
1070
    74
1070
     0
1000
MTEXTEND
  0
LINE
  5
1FB96
330
747D
100
AcDbEntity
  8
細線
 48
50.0
100
AcDbLine
 10
5930.172853684283
 20
880.1740901030189
 30
0.0
 11
5939.254079578027
 21
914.0656865335058
 31
0.0
  0
LINE
  5
1FB97
330
747D
100
AcDbEntity
  8
細線
 48
50.0
100
AcDbLine
 10
5938.211329457217
 20
910.1740901030197
 30
0.0
 11
5939.254079578027
 21
906.2824936725647
 31
0.0
  0
LINE
  5
1FB98
330
747D
100
AcDbEntity
  8
細線
 48
50.0
100
AcDbLine
 10
5839.60127327316
 20
910.1740901030197
 30
0.0
 11
5847.639749046093
 21
880.1740901030198
 31
0.0
  0
LINE
  5
1FB99
330
747D
100
AcDbEntity
  8
部品1
 48
50.0
100
AcDbLine
 10
5839.254079578028
 20
1340.17409010302
 30
0.0
 11
5839.254079578028
 21
1040.17409010302
 31
0.0
  0
MTEXT
  5
1FB9A
102
{ACAD_REACTORS
330
1FB5B
102
}
330
747D
100
AcDbEntity
  8
寸法
 62
     7
 48
50.0
100
AcDbMText
 10
5968.413654336384
 20
1145.927753924304
 30
0.0
 40
100.0
 41
1.0
 71
     4
 72
     1
  1
D10
  7
STYLE2
 73
     1
 44
1.0
1001
ACAD
1000
MTEXTBEGIN
1070
    73
1070
     1
1070
    44
1040
1.0
1070
    74
1070
     0
1000
MTEXTEND
  0
LINE
  5
1FB9B
330
747D
100
AcDbEntity
  8
細線
 48
50.0
100
AcDbLine
 10
5821.56677736352
 20
1040.17409010302
 30
0.0
 11
5839.254079578028
 21
1057.861392317529
 31
0.0
  0
LINE
  5
1FB9C
330
747D
100
AcDbEntity
  8
細線
 48
50.0
100
AcDbLine
 10
5866.396192516273
 20
1010.174090103021
 30
0.0
 11
5858.357716743338
 21
1040.17409010302
 31
0.0
  0
MTEXT
  5
1FB9D
102
{ACAD_REACTORS
330
1FB9F
102
}
330
747D
100
AcDbEntity
  8
寸法
 62
     7
 48
50.0
100
AcDbMText
 10
5782.861500862271
 20
1846.75854172668
 30
0.0
 40
100.0
 41
1.0
 71
     4
 72
     1
  1
D13
  7
STYLE2
 73
     1
 44
1.0
1001
ACAD
1000
MTEXTBEGIN
1070
    73
1070
     1
1070
    44
1040
1.0
1070
    74
1070
     0
1000
MTEXTEND
  0
LWPOLYLINE
  5
1FB9E
330
747D
100
AcDbEntity
  8
部品1
 48
50.0
100
AcDbPolyline
 90
        2
 70
     0
 43
10.0
 10
5679.254079578027
 20
1720.174090103023
 10
6196.928956869225
 20
1720.174090103023
  0
LEADER
  5
1FB9F
330
747D
100
AcDbEntity
  8
寸法
 48
50.0
100
AcDbLeader
  3
INABA_S40G
 71
     0
 73
     0
 74
     0
 75
     1
 40
100.0
 41
222.7272727272727
 76
     3
 10
5559.254079578027
 20
1845.492126845827
 30
0.0
 10
5657.861500862271
 20
1771.75854172668
 30
0.0
 10
5757.861500862271
 20
1771.75854172668
 30
0.0
1001
ACAD
1000
DSTYLE
1002
{
1070
   341
1005
0
1002
}
  0
LINE
  5
1FBA0
330
747D
100
AcDbEntity
  8
部品1
 48
50.0
100
AcDbLine
 10
5549.254079578028
 20
1772.833108474424
 30
0.0
 11
5549.254079578028
 21
1845.492126845827
 31
0.0
  0
LINE
  5
1FBA1
330
747D
100
AcDbEntity
  8
部品1
 48
50.0
100
AcDbLine
 10
5529.254079578027
 20
1772.833108474428
 30
0.0
 11
5529.254079578027
 21
1845.492126845827
 31
0.0
  0
LINE
  5
1FBA2
330
747D
100
AcDbEntity
  8
細線
 48
50.0
100
AcDbLine
 10
5549.254079578028
 20
1778.140205937809
 30
0.0
 11
5569.254079578028
 21
1798.140205937809
 31
0.0
  0
LINE
  5
1FBA3
330
747D
100
AcDbEntity
  8
細線
 48
50.0
100
AcDbLine
 10
5439.254079578027
 20
1735.492126845827
 30
0.0
 11
5529.254079578027
 21
1825.492126845827
 31
0.0
  0
LINE
  5
1FBA4
330
747D
100
AcDbEntity
  8
細線
 48
50.0
100
AcDbLine
 10
5439.254079578027
 20
1701.816166391818
 30
0.0
 11
5529.254079578027
 21
1791.816166391818
 31
0.0
  0
LINE
  5
1FBA5
330
747D
100
AcDbEntity
  8
細線
 48
50.0
100
AcDbLine
 10
5589.254079578035
 20
1582.408482759747
 30
0.0
 11
5679.25407957802
 21
1672.40848275974
 31
0.0
  0
LINE
  5
1FBA6
330
747D
100
AcDbEntity
  8
細線
 48
50.0
100
AcDbLine
 10
5589.254079578028
 20
1616.084443213752
 30
0.0
 11
5679.254079578027
 21
1706.084443213753
 31
0.0
  0
LINE
  5
1FBA7
330
747D
100
AcDbEntity
  8
細線
 48
50.0
100
AcDbLine
 10
5589.254079578035
 20
1548.732522305734
 30
0.0
 11
5679.25407957802
 21
1638.732522305734
 31
0.0
  0
LINE
  5
1FBA8
330
747D
100
AcDbEntity
  8
部品1
 48
50.0
100
AcDbLine
 10
5549.254079578028
 20
1772.833108474424
 30
0.0
 11
5529.254079578027
 21
1772.833108474428
 31
0.0
  0
LINE
  5
1FBA9
330
747D
100
AcDbEntity
  8
細線
 48
50.0
100
AcDbLine
 10
5439.254079578027
 20
1668.140205937809
 30
0.0
 11
5543.946982114647
 21
1772.833108474424
 31
0.0
  0
LINE
  5
1FBAA
330
747D
100
AcDbEntity
  8
部品1
 48
50.0
100
AcDbLine
 10
5439.254079578027
 20
2020.174090103021
 30
0.0
 11
5679.254079578027
 21
2020.174090103021
 31
0.0
  0
LINE
  5
1FBAB
330
747D
100
AcDbEntity
  8
細線
 48
50.0
100
AcDbLine
 10
5574.869607706116
 20
1871.107654973915
 30
0.0
 11
5679.254079578027
 21
1975.492126845827
 31
0.0
  0
LINE
  5
1FBAC
330
747D
100
AcDbEntity
  8
細線
 48
50.0
100
AcDbLine
 10
5588.694963660511
 20
1851.257050474298
 30
0.0
 11
5679.254079578027
 21
1941.816166391818
 31
0.0
  0
LINE
  5
1FBAD
330
747D
100
AcDbEntity
  8
細線
 48
50.0
100
AcDbLine
 10
5589.254079578028
 20
1818.140205937808
 30
0.0
 11
5679.254079578027
 21
1908.140205937809
 31
0.0
  0
LINE
  5
1FBAE
330
747D
100
AcDbEntity
  8
細線
 48
50.0
100
AcDbLine
 10
5549.254079578028
 20
1811.816166391818
 30
0.0
 11
5569.254079578028
 21
1831.816166391818
 31
0.0
  0
CIRCLE
  5
1FBAF
330
747D
100
AcDbEntity
  8
部品1
 48
50.0
100
AcDbCircle
 10
5559.254079578028
 20
1845.492126845827
 30
0.0
 40
10.0
  0
ARC
  5
1FBB0
330
747D
100
AcDbEntity
  8
部品1
 48
50.0
100
AcDbCircle
 10
5559.254079578028
 20
1845.492126845827
 30
0.0
 40
30.0
100
AcDbArc
 50
0.0
 51
180.0
  0
LINE
  5
1FBB1
330
747D
100
AcDbEntity
  8
細線
 48
50.0
100
AcDbLine
 10
5439.254079578027
 20
2004.899810477902
 30
0.0
 11
5454.528359203147
 21
2020.174090103021
 31
0.0
  0
LINE
  5
1FBB2
330
747D
100
AcDbEntity
  8
細線
 48
50.0
100
AcDbLine
 10
5439.254079578027
 20
1937.547889569883
 30
0.0
 11
5521.880280111165
 21
2020.174090103021
 31
0.0
  0
LINE
  5
1FBB3
330
747D
100
AcDbEntity
  8
細線
 48
50.0
100
AcDbLine
 10
5439.254079578027
 20
1971.223850023893
 30
0.0
 11
5488.204319657159
 21
2020.174090103021
 31
0.0
  0
LEADER
  5
1FBB4
330
747D
100
AcDbEntity
  8
寸法
 48
50.0
100
AcDbLeader
  3
INABA_S40G
 73
     0
 74
     0
 75
     1
 40
100.0
 41
543.75
 76
     3
 10
7852.30322104952
 20
2081.624090103021
 30
0.0
 10
7952.98379907367
 20
2260.653247794559
 30
0.0
 10
8052.98379907367
 20
2260.653247794559
 30
0.0
1001
ACAD
1000
DSTYLE
1002
{
1070
   341
1005
0
1002
}
  0
MTEXT
  5
1FBB5
102
{ACAD_REACTORS
330
1FBB4
102
}
330
747D
100
AcDbEntity
  8
部品1
 62
     7
 48
50.0
100
AcDbMText
 10
8092.983799073669
 20
2350.653247794559
 30
0.0
 40
100.0
 41
1.0
 71
     4
 72
     1
  1
M10X160
  7
STYLE2
 73
     1
 44
1.0
1001
ACAD
1000
MTEXTBEGIN
1070
    73
1070
     1
1070
    44
1040
1.0
1070
    74
1070
     0
1000
MTEXTEND
  0
DIMENSION
  5
1FBB6
330
747D
100
AcDbEntity
  8
寸法
 48
50.0
100
AcDbDimension
  2
*D35
 10
8709.138970760575
 20
1615.174090103019
 30
0.0
 11
8609.138970760575
 21
1817.674090103021
 31
0.0
 70
    32
  1
180
 71
     5
 42
405.0000000000022
  3
INABA_S40G
100
AcDbAlignedDimension
 13
8081.80322104952
 23
2020.174090103021
 33
0.0
 14
8081.80322104952
 24
1615.174090103019
 34
0.0
 50
90.0
100
AcDbRotatedDimension
1001
ACAD
1000
DSTYLE
1002
{
1070
   341
1005
0
1002
}
  0
LWPOLYLINE
  5
1FBB7
330
747D
100
AcDbEntity
  8
部品1
 48
50.0
100
AcDbPolyline
 90
        2
 70
     0
 43
10.0
 10
8081.80322104952
 20
1720.174090103023
 10
8448.931300298751
 20
1720.174090103023
  0
LINE
  5
1FBB8
330
747D
100
AcDbEntity
  8
部品1
 48
50.0
100
AcDbLine
 10
8341.803221049524
 20
1040.17409010302
 30
0.0
 11
7304.303221049524
 21
1040.17409010302
 31
0.0
  0
LINE
  5
1FBB9
330
747D
100
AcDbEntity
  8
細線
 48
50.0
100
AcDbLine
 10
8260.480583296828
 20
910.1740901030188
 30
0.0
 11
8268.519059069761
 21
880.1740901030189
 31
0.0
  0
LINE
  5
1FBBA
330
747D
100
AcDbEntity
  8
部品1
 48
50.0
100
AcDbLine
 10
8341.803221049524
 20
880.1740901030198
 30
0.0
 11
7304.303221049524
 21
880.1740901030198
 31
0.0
  0
LINE
  5
1FBBB
330
747D
100
AcDbEntity
  8
細線
 48
50.0
100
AcDbLine
 10
8252.442107523888
 20
880.1740901030189
 30
0.0
 11
8295.31397831287
 21
1040.174090103017
 31
0.0
  0
DIMENSION
  5
1FBBC
330
747D
100
AcDbEntity
  8
寸法
 48
50.0
100
AcDbDimension
  2
*D36
 10
9054.207303409359
 20
2020.174090103021
 30
0.0
 11
9054.207303409359
 21
1554.165186681539
 31
0.0
 70
   160
  1
20～25
 71
     5
 42
65.94999999999981
  3
INABA_S40G
100
AcDbAlignedDimension
 13
7847.80322104952
 23
2086.124090103021
 33
0.0
 14
8081.80322104952
 24
2020.174090103021
 34
0.0
 50
90.0
100
AcDbRotatedDimension
1001
ACAD
1000
DSTYLE
1002
{
1070
   341
1005
0
1002
}
  0
TEXT
  5
1FBBD
330
747D
100
AcDbEntity
  8
部品1
 48
50.0
100
AcDbText
 10
8087.245201405057
 20
2465.022441055771
 30
0.0
 40
100.0
  1
基礎ボルト(市販品)
  7
STYLE2
100
AcDbText
  0
LINE
  5
1FBBE
330
747D
100
AcDbEntity
  8
細線
 48
50.0
100
AcDbLine
 10
7441.476512024874
 20
1040.17409010302
 30
0.0
 11
8081.803221049524
 21
1680.500799127664
 31
0.0
  0
LINE
  5
1FBBF
330
747D
100
AcDbEntity
  8
細線
 48
50.0
100
AcDbLine
 10
7475.152472478882
 20
1040.17409010302
 30
0.0
 11
8081.80322104952
 21
1646.824838673656
 31
0.0
  0
LINE
  5
1FBC0
330
747D
100
AcDbEntity
  8
細線
 48
50.0
100
AcDbLine
 10
7564.30322104952
 20
1466.084443213753
 30
0.0
 11
7762.303221049511
 21
1664.084443213746
 31
0.0
  0
LINE
  5
1FBC1
330
747D
100
AcDbEntity
  8
細線
 48
50.0
100
AcDbLine
 10
7564.30322104952
 20
1398.732522305734
 30
0.0
 11
7780.744788846814
 21
1615.174090103019
 31
0.0
  0
LINE
  5
1FBC2
330
747D
100
AcDbEntity
  8
細線
 48
50.0
100
AcDbLine
 10
7564.30322104952
 20
1432.408482759743
 30
0.0
 11
7762.303221049511
 21
1630.408482759729
 31
0.0
  0
LINE
  5
1FBC3
330
747D
100
AcDbEntity
  8
部品1
 48
50.0
100
AcDbLine
 10
7564.30322104952
 20
1340.17409010302
 30
0.0
 11
7564.30322104952
 21
2020.174090103021
 31
0.0
  0
LINE
  5
1FBC4
330
747D
100
AcDbEntity
  8
部品1
100
AcDbLine
 10
8081.803221049518
 20
1340.17409010302
 30
0.0
 11
8081.80322104952
 21
2020.174090103021
 31
0.0
  0
LINE
  5
1FBC5
330
747D
100
AcDbEntity
  8
細線
 48
50.0
100
AcDbLine
 10
7407.800551570862
 20
1040.17409010302
 30
0.0
 11
8081.803221049518
 21
1714.176759581677
 31
0.0
  0
LINE
  5
1FBC6
330
747D
100
AcDbEntity
  8
部品1
 48
50.0
100
AcDbLine
 10
7404.30322104952
 20
1340.17409010302
 30
0.0
 11
7564.30322104952
 21
1340.17409010302
 31
0.0
  0
LINE
  5
1FBC7
330
747D
100
AcDbEntity
  8
細線
 48
50.0
100
AcDbLine
 10
7404.303221049513
 20
1238.732522305734
 30
0.0
 11
7505.744788846808
 21
1340.17409010302
 31
0.0
  0
LINE
  5
1FBC8
330
747D
100
AcDbEntity
  8
細線
 48
50.0
100
AcDbLine
 10
7404.303221049513
 20
1272.40848275974
 30
0.0
 11
7472.068828392801
 21
1340.17409010302
 31
0.0
  0
LINE
  5
1FBC9
330
747D
100
AcDbEntity
  8
細線
 48
50.0
100
AcDbLine
 10
7364.951601867343
 20
880.1740901030189
 30
0.0
 11
7407.823472656322
 21
1040.174090103019
 31
0.0
  0
LINE
  5
1FBCA
330
747D
100
AcDbEntity
  8
部品1
 48
50.0
100
AcDbLine
 10
7304.303221049524
 20
880.1740901030198
 30
0.0
 11
7304.303221049524
 21
1040.17409010302
 31
0.0
  0
LINE
  5
1FBCB
330
747D
100
AcDbEntity
  8
細線
 48
50.0
100
AcDbLine
 10
7372.990077640285
 20
910.1740901030197
 30
0.0
 11
7381.028553413218
 21
880.1740901030198
 31
0.0
  0
LINE
  5
1FBCC
330
747D
100
AcDbEntity
  8
部品1
 48
50.0
100
AcDbLine
 10
7404.30322104952
 20
1040.17409010302
 30
0.0
 11
7404.30322104952
 21
1340.17409010302
 31
0.0
  0
LINE
  5
1FBCD
330
747D
100
AcDbEntity
  8
細線
 48
50.0
100
AcDbLine
 10
7399.784996883396
 20
1010.174090103021
 30
0.0
 11
7391.746521110462
 21
1040.17409010302
 31
0.0
  0
LINE
  5
1FBCE
330
747D
100
AcDbEntity
  8
細線
 48
50.0
100
AcDbLine
 10
7304.30322104952
 20
1021.848991310245
 30
0.0
 11
7309.213416472265
 21
1040.17409010302
 31
0.0
  0
LINE
  5
1FBCF
330
747D
100
AcDbEntity
  8
細線
 48
50.0
100
AcDbLine
 10
7404.303221049513
 20
1306.084443213753
 30
0.0
 11
7438.392867938787
 21
1340.17409010302
 31
0.0
  0
LINE
  5
1FBD0
330
747D
100
AcDbEntity
  8
細線
 48
50.0
100
AcDbLine
 10
7562.171714235472
 20
880.1740901030189
 30
0.0
 11
7605.043585024453
 21
1040.174090103019
 31
0.0
  0
LINE
  5
1FBD1
330
747D
100
AcDbEntity
  8
細線
 48
50.0
100
AcDbLine
 10
7463.561658051417
 20
880.1740901030198
 30
0.0
 11
7506.433528840395
 21
1040.17409010302
 31
0.0
  0
LINE
  5
1FBD2
330
747D
100
AcDbEntity
  8
細線
 48
50.0
100
AcDbLine
 10
7956.61193897171
 20
880.1740901030198
 30
0.0
 11
7999.483809760693
 21
1040.174090103019
 31
0.0
  0
LINE
  5
1FBD3
330
747D
100
AcDbEntity
  8
細線
 48
50.0
100
AcDbLine
 10
7759.391826603597
 20
880.1740901030198
 30
0.0
 11
7802.263697392579
 21
1040.174090103019
 31
0.0
  0
LINE
  5
1FBD4
330
747D
100
AcDbEntity
  8
細線
 48
50.0
100
AcDbLine
 10
7660.781770419538
 20
880.1740901030198
 30
0.0
 11
7703.653641208517
 21
1040.17409010302
 31
0.0
  0
LINE
  5
1FBD5
330
747D
100
AcDbEntity
  8
細線
 48
50.0
100
AcDbLine
 10
7858.001882787657
 20
880.1740901030189
 30
0.0
 11
7900.873753576637
 21
1040.174090103019
 31
0.0
  0
LINE
  5
1FBD6
330
747D
100
AcDbEntity
  8
細線
 48
50.0
100
AcDbLine
 10
8153.832051339835
 20
880.174090103017
 30
0.0
 11
8196.703922128811
 21
1040.174090103017
 31
0.0
  0
LINE
  5
1FBD7
330
747D
100
AcDbEntity
  8
細線
 48
50.0
100
AcDbLine
 10
8055.221995155774
 20
880.1740901030189
 30
0.0
 11
8098.09386594474
 21
1040.17409010302
 31
0.0
  0
LINE
  5
1FBD8
330
747D
100
AcDbEntity
  8
細線
 48
50.0
100
AcDbLine
 10
7570.210190008414
 20
910.1740901030197
 30
0.0
 11
7578.248665781349
 21
880.1740901030198
 31
0.0
  0
LINE
  5
1FBD9
330
747D
100
AcDbEntity
  8
細線
 48
50.0
100
AcDbLine
 10
7471.60013382435
 20
910.1740901030197
 30
0.0
 11
7479.638609597284
 21
880.1740901030198
 31
0.0
  0
LINE
  5
1FBDA
330
747D
100
AcDbEntity
  8
細線
 48
50.0
100
AcDbLine
 10
7767.430302376538
 20
910.1740901030197
 30
0.0
 11
7775.468778149471
 21
880.1740901030198
 31
0.0
  0
LINE
  5
1FBDB
330
747D
100
AcDbEntity
  8
細線
 48
50.0
100
AcDbLine
 10
7668.820246192479
 20
910.1740901030197
 30
0.0
 11
7676.858721965412
 21
880.1740901030198
 31
0.0
  0
LINE
  5
1FBDC
330
747D
100
AcDbEntity
  8
細線
 48
50.0
100
AcDbLine
 10
7964.650414744652
 20
910.1740901030197
 30
0.0
 11
7972.688890517585
 21
880.1740901030198
 31
0.0
  0
LINE
  5
1FBDD
330
747D
100
AcDbEntity
  8
細線
 48
50.0
100
AcDbLine
 10
7866.040358560593
 20
910.1740901030197
 30
0.0
 11
7874.078834333528
 21
880.1740901030198
 31
0.0
  0
LINE
  5
1FBDE
330
747D
100
AcDbEntity
  8
細線
 48
50.0
100
AcDbLine
 10
8161.870527112771
 20
910.1740901030188
 30
0.0
 11
8169.909002885704
 21
880.1740901030189
 31
0.0
  0
LINE
  5
1FBDF
330
747D
100
AcDbEntity
  8
細線
 48
50.0
100
AcDbLine
 10
8063.260470928709
 20
910.1740901030197
 30
0.0
 11
8071.298946701658
 21
880.1740901030198
 31
0.0
  0
LINE
  5
1FBE0
330
747D
100
AcDbEntity
  8
細線
 48
50.0
100
AcDbLine
 10
7744.560156110956
 20
1040.17409010302
 30
0.0
 11
8081.80322104952
 21
1377.417155041592
 31
0.0
  0
LINE
  5
1FBE1
330
747D
100
AcDbEntity
  8
細線
 48
50.0
100
AcDbLine
 10
7710.884195656949
 20
1040.17409010302
 30
0.0
 11
8081.80322104952
 21
1411.093115495586
 31
0.0
  0
LINE
  5
1FBE2
330
747D
100
AcDbEntity
  8
細線
 48
50.0
100
AcDbLine
 10
7677.208235202937
 20
1040.17409010302
 30
0.0
 11
8081.803221049518
 21
1444.769075949603
 31
0.0
  0
LINE
  5
1FBE3
330
747D
100
AcDbEntity
  8
細線
 48
50.0
100
AcDbLine
 10
7597.005109251526
 20
1010.174090103021
 30
0.0
 11
7588.966633478593
 21
1040.17409010302
 31
0.0
  0
LINE
  5
1FBE4
330
747D
100
AcDbEntity
  8
細線
 48
50.0
100
AcDbLine
 10
7498.395053067461
 20
1010.174090103021
 30
0.0
 11
7490.356577294527
 21
1040.17409010302
 31
0.0
  0
LINE
  5
1FBE5
330
747D
100
AcDbEntity
  8
細線
 48
50.0
100
AcDbLine
 10
7794.225221619647
 20
1010.174090103021
 30
0.0
 11
7786.186745846714
 21
1040.17409010302
 31
0.0
  0
LINE
  5
1FBE6
330
747D
100
AcDbEntity
  8
細線
 48
50.0
100
AcDbLine
 10
7695.61516543559
 20
1010.174090103021
 30
0.0
 11
7687.576689662659
 21
1040.17409010302
 31
0.0
  0
LINE
  5
1FBE7
330
747D
100
AcDbEntity
  8
部品1
 48
50.0
100
AcDbLine
 10
8241.80322104952
 20
1340.17409010302
 30
0.0
 11
8241.80322104952
 21
1040.17409010302
 31
0.0
  0
LINE
  5
1FBE8
330
747D
100
AcDbEntity
  8
細線
 48
50.0
100
AcDbLine
 10
8013.967839743029
 20
1040.17409010302
 30
0.0
 11
8241.80322104952
 21
1268.009471409516
 31
0.0
  0
LINE
  5
1FBE9
330
747D
100
AcDbEntity
  8
細線
 48
50.0
100
AcDbLine
 10
7980.291879289025
 20
1040.17409010302
 30
0.0
 11
8241.80322104952
 21
1301.685431863513
 31
0.0
  0
LINE
  5
1FBEA
330
747D
100
AcDbEntity
  8
細線
 48
50.0
100
AcDbLine
 10
7946.615918835012
 20
1040.17409010302
 30
0.0
 11
8241.80322104952
 21
1335.36139231753
 31
0.0
  0
LINE
  5
1FBEB
330
747D
100
AcDbEntity
  8
細線
 48
50.0
100
AcDbLine
 10
7991.445333987764
 20
1010.174090103021
 30
0.0
 11
7983.406858214831
 21
1040.17409010302
 31
0.0
  0
LINE
  5
1FBEC
330
747D
100
AcDbEntity
  8
細線
 48
50.0
100
AcDbLine
 10
7892.835277803706
 20
1010.174090103021
 30
0.0
 11
7884.796802030774
 21
1040.17409010302
 31
0.0
  0
LINE
  5
1FBED
330
747D
100
AcDbEntity
  8
細線
 48
50.0
100
AcDbLine
 10
8188.665446355882
 20
1010.174090103019
 30
0.0
 11
8180.626970582949
 21
1040.174090103019
 31
0.0
  0
LINE
  5
1FBEE
330
747D
100
AcDbEntity
  8
細線
 48
50.0
100
AcDbLine
 10
8090.055390171809
 20
1010.174090103021
 30
0.0
 11
8082.016914398876
 21
1040.17409010302
 31
0.0
  0
LINE
  5
1FBEF
330
747D
100
AcDbEntity
  8
部品1
 48
50.0
100
AcDbLine
 10
8081.80322104952
 20
1340.17409010302
 30
0.0
 11
8241.80322104952
 21
1340.17409010302
 31
0.0
  0
LWPOLYLINE
  5
1FBF0
330
747D
100
AcDbEntity
  8
部品1
 48
50.0
100
AcDbPolyline
 90
        2
 70
     0
 43
10.0
 10
7046.628343758325
 20
1720.174090103023
 10
7564.30322104952
 20
1720.174090103023
  0
TEXT
  5
1FBF1
330
747D
100
AcDbEntity
  8
部品1
 48
50.0
100
AcDbText
 10
7046.628343758325
 20
1734.22283045709
 30
0.0
 40
100.0
  1
▽G.L
  7
STYLE2
100
AcDbText
  0
LINE
  5
1FBF2
330
747D
100
AcDbEntity
  8
部品1
100
AcDbLine
 10
7829.80322104952
 20
1738.92409010302
 30
0.0
 11
7829.803221049516
 21
2081.624090103021
 31
0.0
  0
LINE
  5
1FBF3
330
747D
100
AcDbEntity
  8
部品1
100
AcDbLine
 10
7852.30322104952
 20
1738.92409010302
 30
0.0
 11
7852.303221049517
 21
2081.624090103021
 31
0.0
  0
LINE
  5
1FBF4
330
747D
100
AcDbEntity
  8
部品1
100
AcDbLine
 10
7767.128221049524
 20
2103.749090103022
 30
0.0
 11
7767.128221049516
 21
2035.499090103021
 31
0.0
  0
LINE
  5
1FBF5
330
747D
100
AcDbEntity
  8
部品1
100
AcDbLine
 10
7752.17822104952
 20
2088.799090103021
 30
0.0
 11
7752.17822104952
 21
2035.499090103021
 31
0.0
  0
LINE
  5
1FBF6
330
747D
100
AcDbEntity
  8
細線
100
AcDbLine
 10
7834.303221049523
 20
2032.124090103021
 30
0.0
 11
7834.303221049521
 21
2086.124090103021
 31
0.0
  0
LINE
  5
1FBF7
330
747D
100
AcDbEntity
  8
細線
100
AcDbLine
 10
7847.80322104952
 20
2032.124090103021
 30
0.0
 11
7847.80322104952
 21
2086.124090103021
 31
0.0
  0
LINE
  5
1FBF8
330
747D
100
AcDbEntity
  8
部品1
100
AcDbLine
 10
7572.17822104952
 20
2035.499090103021
 30
0.0
 11
7572.17822104952
 21
2113.163969731406
 31
0.0
  0
LINE
  5
1FBF9
330
747D
100
AcDbEntity
  8
部品1
100
AcDbLine
 10
7852.30322104952
 20
1738.92409010302
 30
0.0
 11
7897.30322104952
 21
1738.92409010302
 31
0.0
  0
LINE
  5
1FBFA
330
747D
100
AcDbEntity
  8
部品1
100
AcDbLine
 10
7852.30322104952
 20
1716.42409010302
 30
0.0
 11
7897.30322104952
 21
1716.42409010302
 31
0.0
  0
LINE
  5
1FBFB
330
747D
100
AcDbEntity
  8
部品1
100
AcDbLine
 10
7770.503221049513
 20
2032.124090103021
 30
0.0
 11
8022.178221049513
 21
2032.124090103021
 31
0.0
  0
LINE
  5
1FBFC
330
747D
100
AcDbEntity
  8
部品1
 48
50.0
100
AcDbLine
 10
7564.30322104952
 20
2020.174090103021
 30
0.0
 11
8081.803221049524
 21
2020.174090103021
 31
0.0
  0
LINE
  5
1FBFD
330
747D
100
AcDbEntity
  8
部品1
100
AcDbLine
 10
7919.803221049519
 20
1615.174090103019
 30
0.0
 11
7762.303221049513
 21
1615.174090103019
 31
0.0
  0
LINE
  5
1FBFE
330
747D
100
AcDbEntity
  8
細線
 48
50.0
100
AcDbLine
 10
7564.30322104952
 20
1701.816166391818
 30
0.0
 11
7762.303221049518
 21
1899.816166391815
 31
0.0
  0
LINE
  5
1FBFF
330
747D
100
AcDbEntity
  8
細線
 48
50.0
100
AcDbLine
 10
7564.30322104952
 20
1735.492126845827
 30
0.0
 11
7762.303221049518
 21
1933.492126845824
 31
0.0
  0
LINE
  5
1FC00
330
747D
100
AcDbEntity
  8
部品1
100
AcDbLine
 10
7762.303221049513
 20
1615.174090103019
 30
0.0
 11
7762.303221049521
 21
2020.174090103021
 31
0.0
  0
LINE
  5
1FC01
330
747D
100
AcDbEntity
  8
細線
 48
50.0
100
AcDbLine
 10
7564.30322104952
 20
1668.140205937809
 30
0.0
 11
7762.303221049517
 21
1866.140205937799
 31
0.0
  0
ARC
  5
1FC02
330
747D
100
AcDbEntity
  8
部品1
100
AcDbCircle
 10
7852.30322104952
 20
1738.92409010302
 30
0.0
 40
22.5
100
AcDbArc
 50
180.0
 51
270.0
  0
LINE
  5
1FC03
330
747D
100
AcDbEntity
  8
細線
 48
50.0
100
AcDbLine
 10
7564.30322104952
 20
1937.547889569883
 30
0.0
 11
7646.929421582658
 21
2020.174090103021
 31
0.0
  0
LINE
  5
1FC04
330
747D
100
AcDbEntity
  8
細線
 48
50.0
100
AcDbLine
 10
7564.30322104952
 20
1971.223850023893
 30
0.0
 11
7613.253461128651
 21
2020.174090103021
 31
0.0
  0
LINE
  5
1FC05
330
747D
100
AcDbEntity
  8
部品1
100
AcDbLine
 10
7575.553221049521
 20
2032.124090103021
 30
0.0
 11
7590.178221049512
 21
2032.124090103021
 31
0.0
  0
LINE
  5
1FC06
330
747D
100
AcDbEntity
  8
細線
 48
50.0
100
AcDbLine
 10
7564.30322104952
 20
2004.899810477902
 30
0.0
 11
7579.577500674639
 21
2020.174090103021
 31
0.0
  0
ARC
  5
1FC07
330
747D
100
AcDbEntity
  8
部品1
100
AcDbCircle
 10
7575.553221049521
 20
2035.499090103021
 30
0.0
 40
3.375
100
AcDbArc
 50
180.0
 51
270.0
  0
ARC
  5
1FC08
330
747D
100
AcDbEntity
  8
部品1
100
AcDbCircle
 10
7748.80322104952
 20
2035.499090103021
 30
0.0
 40
3.375
100
AcDbArc
 50
270.0
 51
0.0
  0
ARC
  5
1FC09
330
747D
100
AcDbEntity
  8
部品1
100
AcDbCircle
 10
7770.503221049513
 20
2035.499090103021
 30
0.0
 40
3.375
100
AcDbArc
 50
180.0
 51
270.0
  0
LINE
  5
1FC0A
330
747D
100
AcDbEntity
  8
部品1
100
AcDbLine
 10
7734.178221049521
 20
2032.124090103021
 30
0.0
 11
7748.80322104952
 21
2032.124090103021
 31
0.0
  0
LINE
  5
1FC0B
330
747D
100
AcDbEntity
  8
細線
 48
50.0
100
AcDbLine
 10
7919.803221049523
 20
1754.232522305718
 30
0.0
 11
8081.80322104952
 21
1916.232522305708
 31
0.0
  0
LINE
  5
1FC0C
330
747D
100
AcDbEntity
  8
部品1
100
AcDbLine
 10
7919.803221049519
 20
1615.174090103019
 30
0.0
 11
7919.803221049519
 21
2020.174090103021
 31
0.0
  0
LINE
  5
1FC0D
330
747D
100
AcDbEntity
  8
部品1
100
AcDbLine
 10
7897.30322104952
 20
1716.42409010302
 30
0.0
 11
7897.30322104952
 21
1738.92409010302
 31
0.0
  0
LINE
  5
1FC0E
330
747D
100
AcDbEntity
  8
細線
 48
50.0
100
AcDbLine
 10
7919.803221049523
 20
1787.908482759735
 30
0.0
 11
8081.80322104952
 21
1949.908482759731
 31
0.0
  0
LINE
  5
1FC0F
330
747D
100
AcDbEntity
  8
細線
 48
50.0
100
AcDbLine
 10
7919.803221049523
 20
1821.584443213756
 30
0.0
 11
8081.80322104952
 21
1983.584443213755
 31
0.0
  0
LINE
  5
1FC10
330
747D
100
AcDbEntity
  8
部品1
 48
50.0
100
AcDbLine
 10
7821.05322104952
 20
2498.768191489449
 30
0.0
 11
7861.05322104952
 21
2498.768191489449
 31
0.0
  0
LINE
  5
1FC11
330
747D
100
AcDbEntity
  8
部品1
 48
50.0
100
AcDbLine
 10
7821.05322104952
 20
2458.768191489449
 30
0.0
 11
7861.05322104952
 21
2458.768191489449
 31
0.0
  0
ELLIPSE
  5
1FC12
330
747D
100
AcDbEntity
  8
細線
 48
50.0
100
AcDbEllipse
 10
7841.05322104952
 20
2508.76819148945
 30
0.0
 11
18.45838483258558
 21
0.0
 31
0.0
210
0.0
220
0.0
230
1.0
 40
0.2071254069489396
 41
0.0
 42
6.283185307179585
  0
LINE
  5
1FC13
330
747D
100
AcDbEntity
  8
部品1
 48
50.0
100
AcDbLine
 10
7821.05322104952
 20
2518.768191489449
 30
0.0
 11
7861.05322104952
 21
2518.768191489449
 31
0.0
  0
ELLIPSE
  5
1FC14
330
747D
100
AcDbEntity
  8
部品1
 48
50.0
100
AcDbEllipse
 10
7841.05322104952
 20
2344.578200658361
 30
0.0
 11
50.0
 21
0.0
 31
0.0
210
0.0
220
0.0
230
1.0
 40
0.4
 41
3.141592653589792
 42
6.283185307179585
  0
ELLIPSE
  5
1FC15
330
747D
100
AcDbEntity
  8
部品1
 48
50.0
100
AcDbEllipse
 10
7841.05322104952
 20
2356.578200658361
 30
0.0
 11
50.0
 21
0.0
 31
0.0
210
0.0
220
0.0
230
1.0
 40
0.4
 41
0.0
 42
6.283185307179585
  0
ELLIPSE
  5
1FC16
330
747D
100
AcDbEntity
  8
部品1
 48
50.0
100
AcDbEllipse
 10
7841.05322104952
 20
2356.578200658361
 30
0.0
 11
23.0
 21
0.0
 31
0.0
210
0.0
220
0.0
230
1.0
 40
0.3478260869565217
 41
0.0
 42
6.283185307179585
  0
LINE
  5
1FC17
330
747D
100
AcDbEntity
  8
部品1
100
AcDbLine
 10
7643.05322104952
 20
2159.67409010302
 30
0.0
 11
7695.92822104952
 21
2159.674090103017
 31
0.0
  0
LINE
  5
1FC18
330
747D
100
AcDbEntity
  8
部品1
100
AcDbLine
 10
7589.053221049521
 20
2132.674090103021
 30
0.0
 11
7636.30322104952
 21
2132.674090103021
 31
0.0
  0
LINE
  5
1FC19
330
747D
100
AcDbEntity
  8
部品1
100
AcDbLine
 10
7574.734663315021
 20
2116.438200669396
 30
0.0
 11
7585.678221049521
 21
2119.174090103021
 31
0.0
  0
ARC
  5
1FC1A
330
747D
100
AcDbEntity
  8
部品1
100
AcDbCircle
 10
7575.553221049521
 20
2113.163969731406
 30
0.0
 40
3.375
100
AcDbArc
 50
104.0362434679067
 51
180.0
  0
ARC
  5
1FC1B
330
747D
100
AcDbEntity
  8
部品1
100
AcDbCircle
 10
7589.053221049521
 20
2129.299090103021
 30
0.0
 40
3.375
100
AcDbArc
 50
90.0
 51
180.0
  0
LINE
  5
1FC1C
330
747D
100
AcDbEntity
  8
部品1
100
AcDbLine
 10
7585.678221049521
 20
2119.174090103021
 30
0.0
 11
7585.678221049521
 21
2129.299090103021
 31
0.0
  0
ARC
  5
1FC1D
330
747D
100
AcDbEntity
  8
部品1
100
AcDbCircle
 10
7639.67822104952
 20
2142.799090103022
 30
0.0
 40
3.375
100
AcDbArc
 50
90.0
 51
180.0
  0
LINE
  5
1FC1E
330
747D
100
AcDbEntity
  8
部品1
100
AcDbLine
 10
7636.30322104952
 20
2132.674090103021
 30
0.0
 11
7636.30322104952
 21
2142.799090103022
 31
0.0
  0
LINE
  5
1FC1F
330
747D
100
AcDbEntity
  8
部品1
100
AcDbLine
 10
7639.67822104952
 20
2146.174090103021
 30
0.0
 11
7639.67822104952
 21
2156.299090103021
 31
0.0
  0
LINE
  5
1FC20
330
747D
100
AcDbEntity
  8
部品1
100
AcDbLine
 10
7639.67822104952
 20
2146.174090103021
 30
0.0
 11
7639.67822104952
 21
2146.174090103021
 31
0.0
  0
ARC
  5
1FC21
330
747D
100
AcDbEntity
  8
部品1
100
AcDbCircle
 10
7643.05322104952
 20
2156.299090103021
 30
0.0
 40
3.375
100
AcDbArc
 50
90.0
 51
180.0
  0
LINE
  5
1FC22
330
747D
100
AcDbEntity
  8
部品1
100
AcDbLine
 10
7725.178221049521
 20
2103.749090103022
 30
0.0
 11
7725.178221049521
 21
2082.374090103021
 31
0.0
  0
ARC
  5
1FC23
330
747D
100
AcDbEntity
  8
部品1
100
AcDbCircle
 10
7748.80322104952
 20
2088.799090103021
 30
0.0
 40
3.375
100
AcDbArc
 50
0.0
 51
90.0
  0
LINE
  5
1FC24
330
747D
100
AcDbEntity
  8
部品1
100
AcDbLine
 10
7834.303221049521
 20
2086.124090103021
 30
0.0
 11
7847.80322104952
 21
2086.124090103021
 31
0.0
  0
LINE
  5
1FC25
330
747D
100
AcDbEntity
  8
部品1
100
AcDbLine
 10
7829.80322104952
 20
2081.624090103021
 30
0.0
 11
7852.30322104952
 21
2081.624090103021
 31
0.0
  0
ARC
  5
1FC26
330
747D
100
AcDbEntity
  8
部品1
100
AcDbCircle
 10
7763.753221049523
 20
2103.749090103022
 30
0.0
 40
3.375
100
AcDbArc
 50
0.0
 51
90.0
  0
ARC
  5
1FC27
330
747D
100
AcDbEntity
  8
部品1
100
AcDbCircle
 10
7728.55322104952
 20
2103.749090103022
 30
0.0
 40
3.375
100
AcDbArc
 50
90.0
 51
180.0
  0
LINE
  5
1FC28
330
747D
100
AcDbEntity
  8
部品1
100
AcDbLine
 10
7728.55322104952
 20
2107.124090103021
 30
0.0
 11
7763.753221049523
 21
2107.124090103021
 31
0.0
  0
LINE
  5
1FC29
330
747D
100
AcDbEntity
  8
部品1
 48
50.0
100
AcDbLine
 10
7791.05322104952
 20
2356.578200658361
 30
0.0
 11
7791.05322104952
 21
2344.578200658361
 31
0.0
  0
LINE
  5
1FC2A
330
747D
100
AcDbEntity
  8
部品1
100
AcDbLine
 10
7699.30322104952
 20
2156.299090103017
 30
0.0
 11
7699.30322104952
 21
2092.174090103021
 31
0.0
  0
ARC
  5
1FC2B
330
747D
100
AcDbEntity
  8
部品1
100
AcDbCircle
 10
7695.92822104952
 20
2156.299090103017
 30
0.0
 40
3.375
100
AcDbArc
 50
0.0
 51
90.0
  0
LINE
  5
1FC2C
330
747D
100
AcDbEntity
  8
部品1
100
AcDbLine
 10
7699.30322104952
 20
2092.174090103021
 30
0.0
 11
7748.80322104952
 21
2092.174090103021
 31
0.0
  0
LINE
  5
1FC2D
330
747D
100
AcDbEntity
  8
部品1
 48
50.0
100
AcDbLine
 10
7801.05322104952
 20
2508.768191489451
 30
0.0
 11
7821.05322104952
 21
2518.768191489449
 31
0.0
  0
LINE
  5
1FC2E
330
747D
100
AcDbEntity
  8
部品1
 48
50.0
100
AcDbLine
 10
7801.05322104952
 20
2468.768191489449
 30
0.0
 11
7821.05322104952
 21
2458.768191489449
 31
0.0
  0
LINE
  5
1FC2F
330
747D
100
AcDbEntity
  8
部品1
 48
50.0
100
AcDbLine
 10
7801.05322104952
 20
2508.768191489451
 30
0.0
 11
7821.05322104952
 21
2498.768191489449
 31
0.0
  0
LINE
  5
1FC30
330
747D
100
AcDbEntity
  8
部品1
 48
50.0
100
AcDbLine
 10
7801.05322104952
 20
2468.768191489449
 30
0.0
 11
7801.05322104952
 21
2508.768191489451
 31
0.0
  0
LINE
  5
1FC31
330
747D
100
AcDbEntity
  8
細線
 48
50.0
100
AcDbLine
 10
7821.05322104952
 20
2458.768191489449
 30
0.0
 11
7821.05322104952
 21
2498.768191489449
 31
0.0
  0
LINE
  5
1FC32
330
747D
100
AcDbEntity
  8
部品1
 48
50.0
100
AcDbLine
 10
7891.053221049521
 20
2344.578200658361
 30
0.0
 11
7891.053221049521
 21
2356.578200658361
 31
0.0
  0
LINE
  5
1FC33
330
747D
100
AcDbEntity
  8
部品1
 48
50.0
100
AcDbLine
 10
7861.05322104952
 20
2518.768191489449
 30
0.0
 11
7881.053221049521
 21
2508.768191489451
 31
0.0
  0
LINE
  5
1FC34
330
747D
100
AcDbEntity
  8
部品1
 48
50.0
100
AcDbLine
 10
7881.053221049521
 20
2468.768191489449
 30
0.0
 11
7881.053221049521
 21
2508.768191489451
 31
0.0
  0
LINE
  5
1FC35
330
747D
100
AcDbEntity
  8
細線
 48
50.0
100
AcDbLine
 10
7861.05322104952
 20
2458.768191489449
 30
0.0
 11
7861.05322104952
 21
2498.768191489449
 31
0.0
  0
LINE
  5
1FC36
330
747D
100
AcDbEntity
  8
部品1
 48
50.0
100
AcDbLine
 10
7861.05322104952
 20
2498.768191489449
 30
0.0
 11
7881.053221049521
 21
2508.768191489451
 31
0.0
  0
LINE
  5
1FC37
330
747D
100
AcDbEntity
  8
部品1
 48
50.0
100
AcDbLine
 10
7861.05322104952
 20
2458.768191489449
 30
0.0
 11
7881.053221049521
 21
2468.768191489449
 31
0.0
  0
LINE
  5
1FC38
330
747D
100
AcDbEntity
  8
細線
 48
50.0
100
AcDbLine
 10
9846.785649491087
 20
1445.550445536331
 30
0.0
 11
9889.657520280067
 21
1605.550445536331
 31
0.0
  0
TEXT
  5
1FC39
330
747D
100
AcDbEntity
  8
部品1
 48
50.0
100
AcDbText
 10
9251.075527979837
 20
1386.674414306384
 30
0.0
 40
100.0
  1
ボルトの出
 50
90.0
  7
STYLE2
100
AcDbText
  0
LINE
  5
1FC3A
330
747D
100
AcDbEntity
  8
部品1
100
AcDbLine
 10
9726.417156305139
 20
1445.550445536329
 30
0.0
 11
9726.417156305139
 21
1720.17409010302
 31
0.0
  0
LINE
  5
1FC3B
330
747D
100
AcDbEntity
  8
細線
 48
50.0
100
AcDbLine
 10
9748.175593307026
 20
1445.550445536333
 30
0.0
 11
9791.047464096006
 21
1605.550445536333
 31
0.0
  0
LINE
  5
1FC3C
330
747D
100
AcDbEntity
  8
部品1
 48
50.0
100
AcDbLine
 10
8341.803221049524
 20
1040.17409010302
 30
0.0
 11
8341.803221049524
 21
880.1740901030198
 31
0.0
  0
LINE
  5
1FC3D
330
747D
100
AcDbEntity
  8
細線
 48
50.0
100
AcDbLine
 10
8287.275502539939
 20
1010.174090103019
 30
0.0
 11
8279.237026767008
 21
1040.174090103019
 31
0.0
  0
LINE
  5
1FC3E
330
747D
100
AcDbEntity
  8
細線
 48
50.0
100
AcDbLine
 10
9854.824125264025
 20
1475.550445536333
 30
0.0
 11
9862.862601036956
 21
1445.550445536333
 31
0.0
  0
LINE
  5
1FC3F
330
747D
100
AcDbEntity
  8
細線
 48
50.0
100
AcDbLine
 10
9756.214069079966
 20
1475.550445536333
 30
0.0
 11
9764.252544852896
 21
1445.550445536333
 31
0.0
  0
LINE
  5
1FC40
330
747D
100
AcDbEntity
  8
部品1
100
AcDbLine
 10
9876.417156305137
 20
1720.17409010302
 30
0.0
 11
9876.417156305137
 21
2020.174090103021
 31
0.0
  0
LINE
  5
1FC41
330
747D
100
AcDbEntity
  8
細線
 48
50.0
100
AcDbLine
 10
9783.008988323075
 20
1575.550445536333
 30
0.0
 11
9774.970512550137
 21
1605.550445536333
 31
0.0
  0
LINE
  5
1FC42
330
747D
100
AcDbEntity
  8
細線
 48
50.0
100
AcDbLine
 10
9881.619044507138
 20
1575.550445536333
 30
0.0
 11
9873.580568734205
 21
1605.550445536333
 31
0.0
  0
TEXT
  5
1FC43
330
747D
100
AcDbEntity
  8
部品1
100
AcDbText
 10
7326.382496542892
 20
3446.948699884791
 30
0.0
 40
150.0
  1
基礎詳細
  7
STYLE2
100
AcDbText
  0
LINE
  5
1FC44
330
747D
100
AcDbEntity
  8
部品1
100
AcDbLine
 10
11216.92808412427
 20
412.3191120759875
 30
0.0
 11
11216.92808412427
 21
3671.388614824078
 31
0.0
  0
LINE
  5
1FC45
330
747D
100
AcDbEntity
  8
部品1
100
AcDbLine
 10
10626.41715630513
 20
1720.17409010302
 30
0.0
 11
10626.41715630513
 21
1445.550445536333
 31
0.0
  0
LINE
  5
1FC46
330
747D
100
AcDbEntity
  8
細線
 48
50.0
100
AcDbLine
 10
10438.44598659545
 20
1445.550445536329
 30
0.0
 11
10481.31785738442
 21
1605.550445536328
 31
0.0
  0
LINE
  5
1FC47
330
747D
100
AcDbEntity
  8
細線
 48
50.0
100
AcDbLine
 10
10537.0560427795
 20
1445.550445536331
 30
0.0
 11
10579.92791356848
 21
1605.550445536328
 31
0.0
  0
LINE
  5
1FC48
330
747D
100
AcDbEntity
  8
細線
 48
50.0
100
AcDbLine
 10
10241.22587422732
 20
1445.550445536333
 30
0.0
 11
10284.0977450163
 21
1605.550445536331
 31
0.0
  0
LINE
  5
1FC49
330
747D
100
AcDbEntity
  8
細線
 48
50.0
100
AcDbLine
 10
10339.83593041138
 20
1445.550445536331
 30
0.0
 11
10382.70780120035
 21
1605.550445536333
 31
0.0
  0
LINE
  5
1FC4A
330
747D
100
AcDbEntity
  8
細線
 48
50.0
100
AcDbLine
 10
10044.0057618592
 20
1445.550445536333
 30
0.0
 11
10086.87763264819
 21
1605.550445536331
 31
0.0
  0
LINE
  5
1FC4B
330
747D
100
AcDbEntity
  8
細線
 48
50.0
100
AcDbLine
 10
9945.395705675155
 20
1445.550445536333
 30
0.0
 11
9988.267576464126
 21
1605.550445536333
 31
0.0
  0
LINE
  5
1FC4C
330
747D
100
AcDbEntity
  8
細線
 48
50.0
100
AcDbLine
 10
10142.61581804327
 20
1445.550445536331
 30
0.0
 11
10185.48768883224
 21
1605.550445536331
 31
0.0
  0
LINE
  5
1FC4D
330
747D
100
AcDbEntity
  8
細線
 48
50.0
100
AcDbLine
 10
10052.04423763214
 20
1475.550445536333
 30
0.0
 11
10060.08271340508
 21
1445.550445536333
 31
0.0
  0
LINE
  5
1FC4E
330
747D
100
AcDbEntity
  8
細線
 48
50.0
100
AcDbLine
 10
9953.434181448097
 20
1475.550445536333
 30
0.0
 11
9961.472657221026
 21
1445.550445536333
 31
0.0
  0
LINE
  5
1FC4F
330
747D
100
AcDbEntity
  8
細線
 48
50.0
100
AcDbLine
 10
10249.26435000026
 20
1475.550445536333
 30
0.0
 11
10257.3028257732
 21
1445.550445536333
 31
0.0
  0
LINE
  5
1FC50
330
747D
100
AcDbEntity
  8
細線
 48
50.0
100
AcDbLine
 10
10150.6542938162
 20
1475.550445536333
 30
0.0
 11
10158.69276958913
 21
1445.550445536333
 31
0.0
  0
LINE
  5
1FC51
330
747D
100
AcDbEntity
  8
細線
 48
50.0
100
AcDbLine
 10
10446.48446236838
 20
1475.550445536331
 30
0.0
 11
10454.52293814131
 21
1445.550445536331
 31
0.0
  0
LINE
  5
1FC52
330
747D
100
AcDbEntity
  8
細線
 48
50.0
100
AcDbLine
 10
10347.87440618432
 20
1475.550445536333
 30
0.0
 11
10355.91288195726
 21
1445.550445536333
 31
0.0
  0
LINE
  5
1FC53
330
747D
100
AcDbEntity
  8
細線
 48
50.0
100
AcDbLine
 10
10545.09451855244
 20
1475.550445536331
 30
0.0
 11
10553.13299432537
 21
1445.550445536331
 31
0.0
  0
MTEXT
  5
1FC54
102
{ACAD_REACTORS
330
1FC55
102
}
330
747D
100
AcDbEntity
  8
寸法
 62
     7
 48
50.0
100
AcDbMText
 10
10618.74542911709
 20
2341.606990954443
 30
0.0
 40
150.0
 41
1.0
 71
     4
 72
     1
  1
\A1;C.B
  7
STYLE1
 73
     1
 44
1.0
1001
ACAD
1000
MTEXTBEGIN
1070
    73
1070
     1
1070
    44
1040
1.0
1070
    74
1070
     0
1000
MTEXTEND
  0
LEADER
  5
1FC55
330
747D
100
AcDbEntity
  8
寸法
 48
50.0
100
AcDbLeader
  3
INABA_S40G
 73
     0
 74
     0
 75
     1
 40
150.0
 41
231.9898538650463
 76
     3
 10
10389.82267082503
 20
2020.174090103021
 30
0.0
 10
10478.74542911709
 20
2226.606990954443
 30
0.0
 10
10578.74542911709
 20
2226.606990954443
 30
0.0
1001
ACAD
1000
DSTYLE
1002
{
1070
   341
1005
0
1002
}
  0
LINE
  5
1FC56
330
747D
100
AcDbEntity
  8
細線
100
AcDbLine
 10
10459.12007837066
 20
1720.174090103023
 30
0.0
 11
10159.12007837066
 21
2020.174090103021
 31
0.0
  0
LINE
  5
1FC57
330
747D
100
AcDbEntity
  8
細線
100
AcDbLine
 10
10395.48046806388
 20
1720.17409010302
 30
0.0
 11
10095.48046806387
 21
2020.174090103021
 31
0.0
  0
LINE
  5
1FC58
330
747D
100
AcDbEntity
  8
細線
 48
50.0
100
AcDbLine
 10
9980.229100691206
 20
1575.550445536333
 30
0.0
 11
9972.190624918267
 21
1605.550445536333
 31
0.0
  0
LINE
  5
1FC59
330
747D
100
AcDbEntity
  8
細線
 48
50.0
100
AcDbLine
 10
10078.83915687525
 20
1575.550445536333
 30
0.0
 11
10070.80068110232
 21
1605.550445536333
 31
0.0
  0
LINE
  5
1FC5A
330
747D
100
AcDbEntity
  8
細線
100
AcDbLine
 10
9952.565463171687
 20
1605.550445536334
 30
0.0
 11
10067.18910773836
 21
1720.17409010302
 31
0.0
  0
LINE
  5
1FC5B
330
747D
100
AcDbEntity
  8
細線
100
AcDbLine
 10
9910.139056300497
 20
1605.550445536334
 30
0.0
 11
10024.76270086717
 21
1720.17409010302
 31
0.0
  0
LINE
  5
1FC5C
330
747D
100
AcDbEntity
  8
細線
 48
50.0
100
AcDbLine
 10
10276.05926924337
 20
1575.550445536333
 30
0.0
 11
10268.02079347044
 21
1605.550445536333
 31
0.0
  0
LINE
  5
1FC5D
330
747D
100
AcDbEntity
  8
細線
 48
50.0
100
AcDbLine
 10
10177.44921305931
 20
1575.550445536333
 30
0.0
 11
10169.41073728638
 21
1605.550445536333
 31
0.0
  0
LINE
  5
1FC5E
330
747D
100
AcDbEntity
  8
部品1
100
AcDbLine
 10
10476.41715630514
 20
2020.174090103021
 30
0.0
 11
10476.41715630514
 21
1720.17409010302
 31
0.0
  0
LINE
  5
1FC5F
330
747D
100
AcDbEntity
  8
細線
 48
50.0
100
AcDbLine
 10
10473.27938161149
 20
1575.550445536331
 30
0.0
 11
10465.24090583855
 21
1605.550445536331
 31
0.0
  0
LINE
  5
1FC60
330
747D
100
AcDbEntity
  8
細線
 48
50.0
100
AcDbLine
 10
10374.66932542743
 20
1575.550445536333
 30
0.0
 11
10366.63084965448
 21
1605.550445536333
 31
0.0
  0
LINE
  5
1FC61
330
747D
100
AcDbEntity
  8
細線
100
AcDbLine
 10
10402.56546317168
 20
1605.550445536335
 30
0.0
 11
10517.18910773836
 21
1720.17409010302
 31
0.0
  0
LINE
  5
1FC62
330
747D
100
AcDbEntity
  8
細線
100
AcDbLine
 10
10317.7126494293
 20
1605.550445536335
 30
0.0
 11
10432.33629399598
 21
1720.17409010302
 31
0.0
  0
LINE
  5
1FC63
330
747D
100
AcDbEntity
  8
細線
100
AcDbLine
 10
10360.13905630049
 20
1605.550445536335
 30
0.0
 11
10474.76270086717
 21
1720.17409010302
 31
0.0
  0
LINE
  5
1FC64
330
747D
100
AcDbEntity
  8
細線
 48
50.0
100
AcDbLine
 10
10571.88943779555
 20
1575.550445536331
 30
0.0
 11
10563.85096202261
 21
1605.550445536331
 31
0.0
  0
HATCH
  5
1FD4A
330
747D
100
AcDbEntity
  8
細線
 48
50.0
100
AcDbHatch
 10
0.0
 20
0.0
 30
0.0
210
0.0
220
0.0
230
1.0
  2
LINE
 70
     0
 71
     0
 91
        1
 92
        7
 72
     0
 73
     1
 93
        4
 10
8323.599999999998
 20
8583.269226480634
 10
8123.599999999999
 20
8583.269226480636
 10
8123.599999999999
 20
8463.269226480633
 10
8323.599999999998
 20
8463.269226480633
 97
        0
 75
     0
 76
     1
 52
45.0
 41
10.0
 77
     0
 78
     1
 53
45.0
 43
0.0
 44
0.0
 45
-22.45064030267288
 46
22.45064030267288
 79
     0
 47
3.361690950618994
 98
        1
 10
8273.673764457621
 20
8505.807697933869
  0
HATCH
  5
1FD64
330
747D
100
AcDbEntity
  8
細線
 48
50.0
100
AcDbHatch
 10
0.0
 20
0.0
 30
0.0
210
0.0
220
0.0
230
1.0
  2
LINE
 70
     0
 71
     0
 91
        1
 92
        7
 72
     0
 73
     1
 93
        4
 10
9963.600000000003
 20
7153.269226480637
 10
9843.600000000002
 20
7153.269226480635
 10
9843.600000000002
 20
6953.269226480634
 10
9963.600000000003
 20
6953.269226480635
 97
        0
 75
     0
 76
     1
 52
45.0
 41
10.0
 77
     0
 78
     1
 53
45.0
 43
0.0
 44
0.0
 45
-22.45064030267288
 46
22.45064030267288
 79
     0
 47
3.361690950618994
 98
        1
 10
9874.519000727865
 20
7060.280565175144
  0
HATCH
  5
1FD7E
330
747D
100
AcDbEntity
  8
細線
 48
50.0
100
AcDbHatch
 10
0.0
 20
0.0
 30
0.0
210
0.0
220
0.0
230
1.0
  2
LINE
 70
     0
 71
     0
 91
        1
 92
        7
 72
     0
 73
     1
 93
        4
 10
6603.600000000001
 20
7153.269226480635
 10
6483.600000000001
 20
7153.269226480637
 10
6483.6
 20
6953.269226480634
 10
6603.600000000001
 20
6953.269226480635
 97
        0
 75
     0
 76
     1
 52
45.0
 41
10.0
 77
     0
 78
     1
 53
45.0
 43
0.0
 44
0.0
 45
-22.45064030267288
 46
22.45064030267288
 79
     0
 47
3.361690950618994
 98
        1
 10
6511.398732586321
 20
7080.45071612125
  0
ENDSEC
  0
SECTION
  2
OBJECTS
  0
DICTIONARY
  5
7471
330
0
100
AcDbDictionary
281
     1
  3
ACAD_COLOR
350
173D2
  3
ACAD_GROUP
350
7472
  3
ACAD_LAYOUT
350
173D3
  3
ACAD_MATERIAL
350
173D1
  3
ACAD_MLINESTYLE
350
7473
  3
ACAD_PLOTSETTINGS
350
173D4
  3
ACAD_PLOTSTYLENAME
350
173CF
  3
ACDBHEADERROUNDTRIPXREC
350
1FE1A
  3
AcDbVariableDictionary
350
1FE16
  3
CONTENTDICTIONARY
350
E71C
  3
DRAWINGVARIABLESDICT
350
F3B9
  0
DICTIONARY
  5
1758F
330
7467
100
AcDbDictionary
280
     1
281
     1
  3
ACAD_LAYERSTATES
360
17590
  0
DICTIONARY
  5
173D2
102
{ACAD_REACTORS
330
7471
102
}
330
7471
100
AcDbDictionary
281
     1
  0
DICTIONARY
  5
7472
102
{ACAD_REACTORS
330
7471
102
}
330
7471
100
AcDbDictionary
281
     1
  3
*A1
350
1D2A9
  0
DICTIONARY
  5
173D3
102
{ACAD_REACTORS
330
7471
102
}
330
7471
100
AcDbDictionary
281
     1
  3
Model
350
173D5
  3
レイアウト1
350
173D6
  0
DICTIONARY
  5
173D1
102
{ACAD_REACTORS
330
7471
102
}
330
7471
100
AcDbDictionary
281
     1
  0
DICTIONARY
  5
7473
102
{ACAD_REACTORS
330
7471
102
}
330
7471
100
AcDbDictionary
281
     1
  3
STANDARD
350
7480
  0
DICTIONARY
  5
173D4
102
{ACAD_REACTORS
330
7471
102
}
330
7471
100
AcDbDictionary
281
     1
  0
ACDBDICTIONARYWDFLT
  5
173CF
102
{ACAD_REACTORS
330
7471
102
}
330
7471
100
AcDbDictionary
281
     1
  3
Normal
350
173D0
100
AcDbDictionaryWithDefault
340
173D0
  0
DICTIONARY
  5
1FE1A
102
{ACAD_REACTORS
330
7471
102
}
330
7471
100
AcDbDictionary
281
     1
  3
COLORDICT
350
1FE1C
  3
MATERIALDICT
350
1FE1B
  0
DICTIONARY
  5
1FE16
102
{ACAD_REACTORS
330
7471
102
}
330
7471
100
AcDbDictionary
281
     1
  3
DIMASSOC
350
1FE17
  3
PROJECTNAME
350
1FE18
  0
DICTIONARY
  5
E71C
102
{ACAD_REACTORS
330
7471
102
}
330
7471
100
AcDbDictionary
281
     1
  0
DICTIONARY
  5
F3B9
102
{ACAD_REACTORS
330
7471
102
}
330
7471
100
AcDbDictionary
281
     1
1001
DRAWINGVARIABLESXDATA
1000
POLARMODE
1000
1
  0
DICTIONARY
  5
17590
102
{ACAD_REACTORS
330
1758F
102
}
330
1758F
100
AcDbDictionary
281
     1
  0
GROUP
  5
1D2A9
102
{ACAD_REACTORS
330
7472
102
}
330
7472
100
AcDbGroup
300

 70
     1
 71
     1
  0
LAYOUT
  5
173D5
102
{ACAD_XDICTIONARY
360
1FE1D
102
}
102
{ACAD_REACTORS
330
173D3
102
}
330
173D3
100
AcDbPlotSettings
  1

  2
クセロPDF
  4
A3
  6

 40
3.174999999999999
 41
3.174999999999999
 42
3.174987999999999
 43
3.174987999999999
 44
419.946655
 45
296.925995
 46
0.0
 47
0.0
 48
0.0
 49
0.0
140
0.0
141
0.0
142
1.0
143
40.88431155294937
 70
 11952
 72
     1
 73
     0
 74
     2
  7
inaba.ctb
 75
     0
147
0.0244592598484849
148
0.0
149
0.0
100
AcDbLayout
  1
Model
 70
     1
 71
     0
 10
0.0
 20
0.0
 11
12.0
 21
9.0
 12
0.0
 22
0.0
 32
0.0
 14
0.0
 24
0.0
 34
0.0
 15
0.0
 25
0.0
 35
0.0
146
0.0
 13
0.0
 23
0.0
 33
0.0
 16
1.0
 26
0.0
 36
0.0
 17
0.0
 27
1.0
 37
0.0
 76
     0
330
747D
  0
LAYOUT
  5
173D6
102
{ACAD_XDICTIONARY
360
1FE1F
102
}
102
{ACAD_REACTORS
330
173D3
102
}
330
173D3
100
AcDbPlotSettings
  1

  2
Microsoft Office Document Image Writer
  4

  6

 40
0.0
 41
0.0
 42
0.0
 43
0.0
 44
0.0
 45
0.0
 46
0.0
 47
0.0
 48
0.0
 49
0.0
140
0.0
141
0.0
142
1.0
143
1.0
 70
   688
 72
     0
 73
     0
 74
     5
  7

 75
    16
147
1.0
148
0.0
149
0.0
100
AcDbLayout
  1
レイアウト1
 70
     0
 71
     1
 10
0.0
 20
0.0
 11
420.0
 21
297.0
 12
0.0
 22
0.0
 32
0.0
 14
1.000000000000000E+20
 24
1.000000000000000E+20
 34
1.000000000000000E+20
 15
-1.000000000000000E+20
 25
-1.000000000000000E+20
 35
-1.000000000000000E+20
146
0.0
 13
0.0
 23
0.0
 33
0.0
 16
1.0
 26
0.0
 36
0.0
 17
0.0
 27
1.0
 37
0.0
 76
     0
330
747A
  0
MLINESTYLE
  5
7480
102
{ACAD_REACTORS
330
7473
102
}
330
7473
100
AcDbMlineStyle
  2
STANDARD
 70
     0
  3

 62
     0
 51
90.0
 52
90.0
 71
     2
 49
0.5
 62
   256
  6
BYLAYER
 49
-0.5
 62
   256
  6
BYLAYER
  0
ACDBPLACEHOLDER
  5
173D0
102
{ACAD_REACTORS
330
173CF
102
}
330
173CF
  0
XRECORD
  5
1FE1C
102
{ACAD_REACTORS
330
1FE1A
102
}
330
1FE1A
100
AcDbXrecord
280
     1
340
173D2
  0
XRECORD
  5
1FE1B
102
{ACAD_REACTORS
330
1FE1A
102
}
330
1FE1A
100
AcDbXrecord
280
     1
340
173D1
  0
DICTIONARYVAR
  5
1FE17
102
{ACAD_REACTORS
330
1FE16
102
}
330
1FE16
100
DictionaryVariables
280
     0
  1
1
  0
DICTIONARYVAR
  5
1FE18
102
{ACAD_REACTORS
330
1FE16
102
}
330
1FE16
100
DictionaryVariables
280
     0
  1

  0
DICTIONARY
  5
1FE1D
330
173D5
100
AcDbDictionary
280
     1
281
     1
  3
ACAD_XREC_ROUNDTRIP
360
1FE1E
  0
DICTIONARY
  5
1FE1F
330
173D6
100
AcDbDictionary
280
     1
281
     1
  3
ACAD_XREC_ROUNDTRIP
360
1FE20
  0
XRECORD
  5
1FE1E
102
{ACAD_REACTORS
330
1FE1D
102
}
330
1FE1D
100
AcDbXrecord
280
     1
102
SHADEPLOT
 70
     1
102
SHADEPLOTRESLEVEL
 70
     2
102
SHADEPLOTCUSTOMDPI
 70
   300
  0
XRECORD
  5
1FE20
102
{ACAD_REACTORS
330
1FE1F
102
}
330
1FE1F
100
AcDbXrecord
280
     1
102
SHADEPLOT
 70
     0
102
SHADEPLOTRESLEVEL
 70
     2
102
SHADEPLOTCUSTOMDPI
 70
   300
  0
ENDSEC
  0
EOF
