  0
SECTION
  2
HEADER
  9
$ACADVER
  1
AC1015
  9
$ACADMAINTVER
 70
    20
  9
$DWGCODEPAGE
  3
ANSI_932
  9
$INSBASE
 10
0.0
 20
0.0
 30
0.0
  9
$EXTMIN
 10
139.9999999999995
 20
-0.0000000000000909
 30
0.0
  9
$EXTMAX
 10
16307.2
 20
11409.6
 30
0.0
  9
$LIMMIN
 10
0.0
 20
0.0
  9
$LIMMAX
 10
16800.0
 20
11880.0
  9
$ORTHOMODE
 70
     0
  9
$REGENMODE
 70
     1
  9
$FILLMODE
 70
     1
  9
$QTEXTMODE
 70
     0
  9
$MIRRTEXT
 70
     1
  9
$LTSCALE
 40
20.0
  9
$ATTMODE
 70
     1
  9
$TEXTSIZE
 40
100.0
  9
$TRACEWID
 40
1.0
  9
$TEXTSTYLE
  7
STYLE2
  9
$CLAYER
  8
寸法
  9
$CELTYPE
  6
BYLAYER
  9
$CECOLOR
 62
   256
  9
$CELTSCALE
 40
50.0
  9
$DISPSILH
 70
     0
  9
$DIMSCALE
 40
40.0
  9
$DIMASZ
 40
2.5
  9
$DIMEXO
 40
0.5
  9
$DIMDLI
 40
7.0
  9
$DIMRND
 40
0.0
  9
$DIMDLE
 40
0.0
  9
$DIMEXE
 40
1.5
  9
$DIMTP
 40
0.0
  9
$DIMTM
 40
0.0
  9
$DIMTXT
 40
3.0
  9
$DIMCEN
 40
0.0
  9
$DIMTSZ
 40
0.0
  9
$DIMTOL
 70
     0
  9
$DIMLIM
 70
     0
  9
$DIMTIH
 70
     0
  9
$DIMTOH
 70
     0
  9
$DIMSE1
 70
     0
  9
$DIMSE2
 70
     0
  9
$DIMTAD
 70
     3
  9
$DIMZIN
 70
     8
  9
$DIMBLK
  1

  9
$DIMASO
 70
     1
  9
$DIMSHO
 70
     1
  9
$DIMPOST
  1

  9
$DIMAPOST
  1

  9
$DIMALT
 70
     0
  9
$DIMALTD
 70
     2
  9
$DIMALTF
 40
0.0394
  9
$DIMLFAC
 40
1.0
  9
$DIMTOFL
 70
     1
  9
$DIMTVP
 40
0.0
  9
$DIMTIX
 70
     0
  9
$DIMSOXD
 70
     0
  9
$DIMSAH
 70
     1
  9
$DIMBLK1
  1
DOTSMALL
  9
$DIMBLK2
  1
DOTSMALL
  9
$DIMSTYLE
  2
INABA_S40G
  9
$DIMCLRD
 70
     0
  9
$DIMCLRE
 70
     0
  9
$DIMCLRT
 70
     7
  9
$DIMTFAC
 40
1.0
  9
$DIMGAP
 40
1.0
  9
$DIMJUST
 70
     0
  9
$DIMSD1
 70
     0
  9
$DIMSD2
 70
     0
  9
$DIMTOLJ
 70
     1
  9
$DIMTZIN
 70
     0
  9
$DIMALTZ
 70
     0
  9
$DIMALTTZ
 70
     0
  9
$DIMUPT
 70
     0
  9
$DIMDEC
 70
     1
  9
$DIMTDEC
 70
     1
  9
$DIMALTU
 70
     2
  9
$DIMALTTD
 70
     2
  9
$DIMTXSTY
  7
STYLE1
  9
$DIMAUNIT
 70
     0
  9
$DIMADEC
 70
     0
  9
$DIMALTRND
 40
0.0
  9
$DIMAZIN
 70
     0
  9
$DIMDSEP
 70
    46
  9
$DIMATFIT
 70
     3
  9
$DIMFRAC
 70
     0
  9
$DIMLDRBLK
  1

  9
$DIMLUNIT
 70
     2
  9
$DIMLWD
 70
    -2
  9
$DIMLWE
 70
    -2
  9
$DIMTMOVE
 70
     0
  9
$LUNITS
 70
     2
  9
$LUPREC
 70
     1
  9
$SKETCHINC
 40
1.0
  9
$FILLETRAD
 40
0.0
  9
$AUNITS
 70
     0
  9
$AUPREC
 70
     0
  9
$MENU
  1
acad
  9
$ELEVATION
 40
0.0
  9
$PELEVATION
 40
0.0
  9
$THICKNESS
 40
0.0
  9
$LIMCHECK
 70
     0
  9
$CHAMFERA
 40
3.0
  9
$CHAMFERB
 40
3.0
  9
$CHAMFERC
 40
0.0
  9
$CHAMFERD
 40
0.0
  9
$SKPOLY
 70
     0
  9
$TDCREATE
 40
2451368.612993866
  9
$TDUCREATE
 40
2451368.237993866
  9
$TDUPDATE
 40
2455575.707624595
  9
$TDUUPDATE
 40
2455575.332624595
  9
$TDINDWG
 40
1.4231097917
  9
$TDUSRTIMER
 40
1.4231097917
  9
$USRTIMER
 70
     1
  9
$ANGBASE
 50
0.0
  9
$ANGDIR
 70
     0
  9
$PDMODE
 70
     3
  9
$PDSIZE
 40
2.0
  9
$PLINEWID
 40
0.0
  9
$SPLFRAME
 70
     0
  9
$SPLINETYPE
 70
     6
  9
$SPLINESEGS
 70
     8
  9
$HANDSEED
  5
21999
  9
$SURFTAB1
 70
     6
  9
$SURFTAB2
 70
     6
  9
$SURFTYPE
 70
     6
  9
$SURFU
 70
     6
  9
$SURFV
 70
     6
  9
$UCSBASE
  2

  9
$UCSNAME
  2

  9
$UCSORG
 10
0.0
 20
0.0
 30
0.0
  9
$UCSXDIR
 10
1.0
 20
0.0
 30
0.0
  9
$UCSYDIR
 10
0.0
 20
1.0
 30
0.0
  9
$UCSORTHOREF
  2

  9
$UCSORTHOVIEW
 70
     0
  9
$UCSORGTOP
 10
0.0
 20
0.0
 30
0.0
  9
$UCSORGBOTTOM
 10
0.0
 20
0.0
 30
0.0
  9
$UCSORGLEFT
 10
0.0
 20
0.0
 30
0.0
  9
$UCSORGRIGHT
 10
0.0
 20
0.0
 30
0.0
  9
$UCSORGFRONT
 10
0.0
 20
0.0
 30
0.0
  9
$UCSORGBACK
 10
0.0
 20
0.0
 30
0.0
  9
$PUCSBASE
  2

  9
$PUCSNAME
  2

  9
$PUCSORG
 10
0.0
 20
0.0
 30
0.0
  9
$PUCSXDIR
 10
1.0
 20
0.0
 30
0.0
  9
$PUCSYDIR
 10
0.0
 20
1.0
 30
0.0
  9
$PUCSORTHOREF
  2

  9
$PUCSORTHOVIEW
 70
     0
  9
$PUCSORGTOP
 10
0.0
 20
0.0
 30
0.0
  9
$PUCSORGBOTTOM
 10
0.0
 20
0.0
 30
0.0
  9
$PUCSORGLEFT
 10
0.0
 20
0.0
 30
0.0
  9
$PUCSORGRIGHT
 10
0.0
 20
0.0
 30
0.0
  9
$PUCSORGFRONT
 10
0.0
 20
0.0
 30
0.0
  9
$PUCSORGBACK
 10
0.0
 20
0.0
 30
0.0
  9
$USERI1
 70
     0
  9
$USERI2
 70
     0
  9
$USERI3
 70
     0
  9
$USERI4
 70
     0
  9
$USERI5
 70
     0
  9
$USERR1
 40
0.0
  9
$USERR2
 40
0.0
  9
$USERR3
 40
0.0
  9
$USERR4
 40
0.0
  9
$USERR5
 40
0.0
  9
$WORLDVIEW
 70
     1
  9
$SHADEDGE
 70
     3
  9
$SHADEDIF
 70
    70
  9
$TILEMODE
 70
     1
  9
$MAXACTVP
 70
    16
  9
$PINSBASE
 10
0.0
 20
0.0
 30
0.0
  9
$PLIMCHECK
 70
     0
  9
$PEXTMIN
 10
1.000000000000000E+20
 20
1.000000000000000E+20
 30
1.000000000000000E+20
  9
$PEXTMAX
 10
-1.000000000000000E+20
 20
-1.000000000000000E+20
 30
-1.000000000000000E+20
  9
$PLIMMIN
 10
0.0
 20
0.0
  9
$PLIMMAX
 10
420.0
 20
297.0
  9
$UNITMODE
 70
     0
  9
$VISRETAIN
 70
     0
  9
$PLINEGEN
 70
     0
  9
$PSLTSCALE
 70
     0
  9
$TREEDEPTH
 70
  3020
  9
$CMLSTYLE
  2
STANDARD
  9
$CMLJUST
 70
     0
  9
$CMLSCALE
 40
1.0
  9
$PROXYGRAPHICS
 70
     1
  9
$MEASUREMENT
 70
     1
  9
$CELWEIGHT
370
    -1
  9
$ENDCAPS
280
     0
  9
$JOINSTYLE
280
     0
  9
$LWDISPLAY
290
     0
  9
$INSUNITS
 70
     0
  9
$HYPERLINKBASE
  1

  9
$STYLESHEET
  1
inaba.ctb
  9
$XEDIT
290
     1
  9
$CEPSNTYPE
380
     0
  9
$PSTYLEMODE
290
     1
  9
$FINGERPRINTGUID
  2
{3B57B35E-7D77-4BBF-81B7-6C583B9EB24C}
  9
$VERSIONGUID
  2
{6AE29B67-D36E-4E22-9226-DB7A7C7D6E80}
  9
$EXTNAMES
290
     1
  9
$PSVPSCALE
 40
0.0
  9
$OLESTARTUP
290
     0
  0
ENDSEC
  0
SECTION
  2
CLASSES
  0
CLASS
  1
ACDBDICTIONARYWDFLT
  2
AcDbDictionaryWithDefault
  3
ObjectDBX Classes
 90
        0
280
     0
281
     0
  0
CLASS
  1
DICTIONARYVAR
  2
AcDbDictionaryVar
  3
ObjectDBX Classes
 90
        0
280
     0
281
     0
  0
CLASS
  1
ACDBPLACEHOLDER
  2
AcDbPlaceHolder
  3
ObjectDBX Classes
 90
        0
280
     0
281
     0
  0
CLASS
  1
LAYOUT
  2
AcDbLayout
  3
ObjectDBX Classes
 90
        0
280
     0
281
     0
  0
ENDSEC
  0
SECTION
  2
TABLES
  0
TABLE
  2
VPORT
  5
746D
330
0
100
AcDbSymbolTable
 70
     2
  0
VPORT
  5
21991
330
746D
100
AcDbSymbolTableRecord
100
AcDbViewportTableRecord
  2
*Active
 70
     0
 10
0.0
 20
0.0
 11
1.0
 21
1.0
 12
8223.7610252385
 22
6621.602224354759
 13
0.0
 23
0.0
 14
10.0
 24
10.0
 15
10.0
 25
10.0
 16
0.0
 26
0.0
 36
1.0
 17
0.0
 27
0.0
 37
0.0
 40
13357.65359064025
 41
1.525925925925925
 42
50.0
 43
0.0
 44
0.0
 50
0.0
 51
0.0
 71
     0
 72
     0
 73
     1
 74
     0
 75
     0
 76
     0
 77
     0
 78
     0
281
     0
 65
     1
110
0.0
120
0.0
130
0.0
111
1.0
121
0.0
131
0.0
112
0.0
122
1.0
132
0.0
 79
     0
146
0.0
  0
ENDTAB
  0
TABLE
  2
LTYPE
  5
746A
330
0
100
AcDbSymbolTable
 70
     4
  0
LTYPE
  5
7477
330
746A
100
AcDbSymbolTableRecord
100
AcDbLinetypeTableRecord
  2
BYBLOCK
 70
     0
  3

 72
    65
 73
     0
 40
0.0
  0
LTYPE
  5
7478
330
746A
100
AcDbSymbolTableRecord
100
AcDbLinetypeTableRecord
  2
BYLAYER
 70
     0
  3

 72
    65
 73
     0
 40
0.0
  0
LTYPE
  5
7479
330
746A
100
AcDbSymbolTableRecord
100
AcDbLinetypeTableRecord
  2
CONTINUOUS
 70
     0
  3
Solid line
 72
    65
 73
     0
 40
0.0
  0
LTYPE
  5
7816
330
746A
100
AcDbSymbolTableRecord
100
AcDbLinetypeTableRecord
  2
CENTER
 70
     0
  3
____ _ ____ _ ____ _ ____ _ ____ _ ____ _ ____ 
 72
    65
 73
     4
 40
2.0
 49
1.25
 74
     0
 49
-0.25
 74
     0
 49
0.25
 74
     0
 49
-0.25
 74
     0
  0
LTYPE
  5
781A
330
746A
100
AcDbSymbolTableRecord
100
AcDbLinetypeTableRecord
  2
HIDDEN
 70
     0
  3
__ __ __ __ __ __ __ __ __ __ __ __ __ __ __ __
 72
    65
 73
     2
 40
0.375
 49
0.25
 74
     0
 49
-0.125
 74
     0
  0
LTYPE
  5
781B
330
746A
100
AcDbSymbolTableRecord
100
AcDbLinetypeTableRecord
  2
PHANTOM
 70
     0
  3
______  __  __  ______  __  __  ______  __  __ 
 72
    65
 73
     6
 40
2.5
 49
1.25
 74
     0
 49
-0.25
 74
     0
 49
0.25
 74
     0
 49
-0.25
 74
     0
 49
0.25
 74
     0
 49
-0.25
 74
     0
  0
ENDTAB
  0
TABLE
  2
LAYER
  5
7467
102
{ACAD_XDICTIONARY
360
1ED5D
102
}
330
0
100
AcDbSymbolTable
 70
    13
  0
LAYER
  5
7474
330
7467
100
AcDbSymbolTableRecord
100
AcDbLayerTableRecord
  2
0
 70
     0
 62
     7
  6
CONTINUOUS
370
    -3
390
159AE
  0
LAYER
  5
DEB2
330
7467
100
AcDbSymbolTableRecord
100
AcDbLayerTableRecord
  2
センター
 70
     0
 62
     3
  6
CENTER
370
    -3
390
159AE
  0
LAYER
  5
DEB3
330
7467
100
AcDbSymbolTableRecord
100
AcDbLayerTableRecord
  2
寸法
 70
     0
 62
     4
  6
CONTINUOUS
370
    -3
390
159AE
  0
LAYER
  5
DEB4
330
7467
100
AcDbSymbolTableRecord
100
AcDbLayerTableRecord
  2
部品1
 70
     0
 62
     7
  6
CONTINUOUS
370
    -3
390
159AE
  0
LAYER
  5
DEB5
330
7467
100
AcDbSymbolTableRecord
100
AcDbLayerTableRecord
  2
補助
 70
     0
 62
    -1
  6
CONTINUOUS
370
    -3
390
159AE
  0
LAYER
  5
DEB6
330
7467
100
AcDbSymbolTableRecord
100
AcDbLayerTableRecord
  2
文字
 70
     0
 62
     7
  6
CONTINUOUS
370
    -3
390
159AE
  0
LAYER
  5
F255
330
7467
100
AcDbSymbolTableRecord
100
AcDbLayerTableRecord
  2
DEFPOINTS
 70
     0
 62
     7
  6
CONTINUOUS
290
     0
370
    -3
390
159AE
  0
LAYER
  5
10B54
330
7467
100
AcDbSymbolTableRecord
100
AcDbLayerTableRecord
  2
仕様書枠
 70
     0
 62
   230
  6
CONTINUOUS
370
    -3
390
159AE
  0
LAYER
  5
11729
330
7467
100
AcDbSymbolTableRecord
100
AcDbLayerTableRecord
  2
Ｇ．Ｌ
 70
     0
 62
    30
  6
CONTINUOUS
370
    -3
390
159AE
  0
LAYER
  5
1173F
330
7467
100
AcDbSymbolTableRecord
100
AcDbLayerTableRecord
  2
細線
 70
     0
 62
     5
  6
CONTINUOUS
370
    -3
390
159AE
  0
LAYER
  5
12CC4
330
7467
100
AcDbSymbolTableRecord
100
AcDbLayerTableRecord
  2
想像線
 70
     0
 62
     6
  6
PHANTOM
370
    -3
390
159AE
  0
LAYER
  5
142E2
330
7467
100
AcDbSymbolTableRecord
100
AcDbLayerTableRecord
  2
破線
 70
     0
 62
     2
  6
HIDDEN
370
    -3
390
159AE
  0
LAYER
  5
1C644
330
7467
100
AcDbSymbolTableRecord
100
AcDbLayerTableRecord
  2
点線
 70
     0
 62
     2
  6
HIDDEN
370
    -3
390
159AE
  0
ENDTAB
  0
TABLE
  2
STYLE
  5
7468
330
0
100
AcDbSymbolTable
 70
     3
  0
STYLE
  5
7475
330
7468
100
AcDbSymbolTableRecord
100
AcDbTextStyleTableRecord
  2
STANDARD
 70
     0
 40
0.0
 41
1.0
 50
0.0
 71
     0
 42
4.0
  3
txt
  4
C:\AutoCAD LT\bigfont.shx
  0
STYLE
  5
F706
330
7468
100
AcDbSymbolTableRecord
100
AcDbTextStyleTableRecord
  2
STYLE1
 70
     0
 40
0.0
 41
1.0
 50
0.0
 71
     0
 42
100.0
  3
isocp.shx
  4
bigfont.shx
  0
STYLE
  5
103BF
330
7468
100
AcDbSymbolTableRecord
100
AcDbTextStyleTableRecord
  2
STYLE2
 70
     0
 40
0.0
 41
1.0
 50
0.0
 71
     0
 42
100.0
  3
MS PGothic.ttf
  4

1001
ACAD
1000
MS PGothic
1071
    32818
  0
ENDTAB
  0
TABLE
  2
VIEW
  5
746B
330
0
100
AcDbSymbolTable
 70
     0
  0
ENDTAB
  0
TABLE
  2
UCS
  5
746C
330
0
100
AcDbSymbolTable
 70
     0
  0
ENDTAB
  0
TABLE
  2
APPID
  5
746E
330
0
100
AcDbSymbolTable
 70
     6
  0
APPID
  5
7476
330
746E
100
AcDbSymbolTableRecord
100
AcDbRegAppTableRecord
  2
ACAD
 70
     0
  0
APPID
  5
DEA9
330
746E
100
AcDbSymbolTableRecord
100
AcDbRegAppTableRecord
  2
CONTENTBLOCKICON
 70
     0
  0
APPID
  5
DEAA
330
746E
100
AcDbSymbolTableRecord
100
AcDbRegAppTableRecord
  2
CONTENTBLOCKDESCRIPTION
 70
     0
  0
APPID
  5
E71D
330
746E
100
AcDbSymbolTableRecord
100
AcDbRegAppTableRecord
  2
CONTENTTABDATA
 70
     0
  0
APPID
  5
E71E
330
746E
100
AcDbSymbolTableRecord
100
AcDbRegAppTableRecord
  2
CONTENTCURRENTTAB
 70
     0
  0
APPID
  5
F3BA
330
746E
100
AcDbSymbolTableRecord
100
AcDbRegAppTableRecord
  2
DRAWINGVARIABLESXDATA
 70
     0
  0
ENDTAB
  0
TABLE
  2
DIMSTYLE
  5
746F
330
0
100
AcDbSymbolTable
 70
     2
100
AcDbDimStyleTable
 71
     1
340
F71F
  0
DIMSTYLE
105
F71F
102
{ACAD_REACTORS
330
200DF
330
20141
330
201A9
330
20206
330
20408
330
203F9
330
203F8
330
203F6
330
203F5
330
203B0
330
203B6
330
203E9
330
20F62
330
20F92
330
20FBA
330
20FEA
330
2178E
102
}
330
746F
100
AcDbSymbolTableRecord
100
AcDbDimStyleTableRecord
  2
INABA_S40G
 70
     0
 40
40.0
 41
2.5
 42
0.5
 43
7.0
 44
1.5
 73
     0
 74
     0
 77
     3
 78
     8
140
3.0
141
0.0
143
0.0394
147
1.0
172
     1
173
     1
174
     1
178
     7
271
     1
288
     1
340
F706
341
F770
343
F770
344
F770
  0
DIMSTYLE
105
1C645
330
746F
100
AcDbSymbolTableRecord
100
AcDbDimStyleTableRecord
  2
INABA_S50G
 70
     0
 40
0.0
 41
125.0
 42
25.0
 43
7.0
 44
75.0
 73
     0
 74
     0
 77
     3
 78
     8
140
150.0
141
0.0
143
0.0394
147
25.0
172
     1
173
     1
174
     1
178
     7
271
     1
340
F706
341
F770
343
F770
344
F770
  0
ENDTAB
  0
TABLE
  2
BLOCK_RECORD
  5
7466
330
0
100
AcDbSymbolTable
 70
    41
  0
BLOCK_RECORD
  5
747D
330
7466
100
AcDbSymbolTableRecord
100
AcDbBlockTableRecord
  2
*MODEL_SPACE
340
159B3
  0
BLOCK_RECORD
  5
747A
330
7466
100
AcDbSymbolTableRecord
100
AcDbBlockTableRecord
  2
*PAPER_SPACE
340
159B4
  0
BLOCK_RECORD
  5
F770
330
7466
100
AcDbSymbolTableRecord
100
AcDbBlockTableRecord
  2
_DOTSMALL
340
0
102
{BLKREFS
331
1E214
331
1E215
331
1E1AD
331
1E1AE
331
1E1D1
331
1E1D2
331
1E1C6
331
1E1C7
331
1E187
331
1E188
331
1E1BA
331
1E1BB
331
1E1DF
331
1E1E0
331
1E1A1
331
1E1A2
331
1E194
331
1E195
331
1E220
331
1E221
331
1E24F
331
1E250
331
1E1FA
331
1E1FB
331
1E1ED
331
1E1EE
331
1E207
331
1E208
331
1E22B
331
1E22C
331
1E242
331
1E243
331
1E17A
331
1E17B
331
1E16D
331
1E16E
331
1E160
331
1E161
331
1E155
331
1E156
331
1E236
331
1E237
331
20269
331
2026A
331
20272
331
20273
331
2027B
331
2027C
331
20284
331
20285
331
20F27
331
20F28
331
20F8C
331
20F8D
331
21029
331
2102A
331
21615
331
21616
331
21620
331
21621
331
21629
331
2162A
331
21632
331
21633
331
2163B
331
2163C
331
21644
331
21645
331
2164D
331
2164E
331
21656
331
21657
331
2165F
331
21660
331
21924
331
21925
102
}
  0
BLOCK_RECORD
  5
1C530
330
7466
100
AcDbSymbolTableRecord
100
AcDbBlockTableRecord
  2
_NONE
340
0
  0
BLOCK_RECORD
  5
1E151
330
7466
100
AcDbSymbolTableRecord
100
AcDbBlockTableRecord
  2
*D2
340
0
  0
BLOCK_RECORD
  5
1E15C
330
7466
100
AcDbSymbolTableRecord
100
AcDbBlockTableRecord
  2
*D3
340
0
  0
BLOCK_RECORD
  5
1E167
330
7466
100
AcDbSymbolTableRecord
100
AcDbBlockTableRecord
  2
*D4
340
0
  0
BLOCK_RECORD
  5
1E174
330
7466
100
AcDbSymbolTableRecord
100
AcDbBlockTableRecord
  2
*D5
340
0
  0
BLOCK_RECORD
  5
1E181
330
7466
100
AcDbSymbolTableRecord
100
AcDbBlockTableRecord
  2
*D6
340
0
  0
BLOCK_RECORD
  5
1E18E
330
7466
100
AcDbSymbolTableRecord
100
AcDbBlockTableRecord
  2
*D7
340
0
  0
BLOCK_RECORD
  5
1E19B
330
7466
100
AcDbSymbolTableRecord
100
AcDbBlockTableRecord
  2
*D8
340
0
  0
BLOCK_RECORD
  5
1E1A8
330
7466
100
AcDbSymbolTableRecord
100
AcDbBlockTableRecord
  2
*D9
340
0
  0
BLOCK_RECORD
  5
1E1B4
330
7466
100
AcDbSymbolTableRecord
100
AcDbBlockTableRecord
  2
*D10
340
0
  0
BLOCK_RECORD
  5
1E1C1
330
7466
100
AcDbSymbolTableRecord
100
AcDbBlockTableRecord
  2
*D11
340
0
  0
BLOCK_RECORD
  5
1E1CD
330
7466
100
AcDbSymbolTableRecord
100
AcDbBlockTableRecord
  2
*D12
340
0
  0
BLOCK_RECORD
  5
1E1D8
330
7466
100
AcDbSymbolTableRecord
100
AcDbBlockTableRecord
  2
*D13
340
0
  0
BLOCK_RECORD
  5
1E1E6
330
7466
100
AcDbSymbolTableRecord
100
AcDbBlockTableRecord
  2
*D14
340
0
  0
BLOCK_RECORD
  5
1E1F4
330
7466
100
AcDbSymbolTableRecord
100
AcDbBlockTableRecord
  2
*D15
340
0
  0
BLOCK_RECORD
  5
1E201
330
7466
100
AcDbSymbolTableRecord
100
AcDbBlockTableRecord
  2
*D16
340
0
  0
BLOCK_RECORD
  5
1E20E
330
7466
100
AcDbSymbolTableRecord
100
AcDbBlockTableRecord
  2
*D17
340
0
  0
BLOCK_RECORD
  5
1E21B
330
7466
100
AcDbSymbolTableRecord
100
AcDbBlockTableRecord
  2
*D18
340
0
  0
BLOCK_RECORD
  5
1E227
330
7466
100
AcDbSymbolTableRecord
100
AcDbBlockTableRecord
  2
*D19
340
0
  0
BLOCK_RECORD
  5
1E232
330
7466
100
AcDbSymbolTableRecord
100
AcDbBlockTableRecord
  2
*D20
340
0
  0
BLOCK_RECORD
  5
1E23D
330
7466
100
AcDbSymbolTableRecord
100
AcDbBlockTableRecord
  2
*D21
340
0
  0
BLOCK_RECORD
  5
1E249
330
7466
100
AcDbSymbolTableRecord
100
AcDbBlockTableRecord
  2
*D22
340
0
  0
BLOCK_RECORD
  5
1E256
330
7466
100
AcDbSymbolTableRecord
100
AcDbBlockTableRecord
  2
A$C56A41A26
340
0
  0
BLOCK_RECORD
  5
20211
330
7466
100
AcDbSymbolTableRecord
100
AcDbBlockTableRecord
  2
*D24
340
0
  0
BLOCK_RECORD
  5
2021D
330
7466
100
AcDbSymbolTableRecord
100
AcDbBlockTableRecord
  2
*D25
340
0
  0
BLOCK_RECORD
  5
20229
330
7466
100
AcDbSymbolTableRecord
100
AcDbBlockTableRecord
  2
*D26
340
0
  0
BLOCK_RECORD
  5
20235
330
7466
100
AcDbSymbolTableRecord
100
AcDbBlockTableRecord
  2
*D27
340
0
  0
BLOCK_RECORD
  5
20438
330
7466
100
AcDbSymbolTableRecord
100
AcDbBlockTableRecord
  2
*D28
340
0
  0
BLOCK_RECORD
  5
20443
330
7466
100
AcDbSymbolTableRecord
100
AcDbBlockTableRecord
  2
*D29
340
0
  0
BLOCK_RECORD
  5
2045D
330
7466
100
AcDbSymbolTableRecord
100
AcDbBlockTableRecord
  2
*D30
340
0
  0
BLOCK_RECORD
  5
20469
330
7466
100
AcDbSymbolTableRecord
100
AcDbBlockTableRecord
  2
*D31
340
0
  0
BLOCK_RECORD
  5
20475
330
7466
100
AcDbSymbolTableRecord
100
AcDbBlockTableRecord
  2
*D32
340
0
  0
BLOCK_RECORD
  5
20480
330
7466
100
AcDbSymbolTableRecord
100
AcDbBlockTableRecord
  2
*D33
340
0
  0
BLOCK_RECORD
  5
2048B
330
7466
100
AcDbSymbolTableRecord
100
AcDbBlockTableRecord
  2
*D34
340
0
  0
BLOCK_RECORD
  5
204A3
330
7466
100
AcDbSymbolTableRecord
100
AcDbBlockTableRecord
  2
*D35
340
0
  0
BLOCK_RECORD
  5
20F63
330
7466
100
AcDbSymbolTableRecord
100
AcDbBlockTableRecord
  2
*D36
340
0
  0
BLOCK_RECORD
  5
20F93
330
7466
100
AcDbSymbolTableRecord
100
AcDbBlockTableRecord
  2
*D37
340
0
  0
BLOCK_RECORD
  5
20FBB
330
7466
100
AcDbSymbolTableRecord
100
AcDbBlockTableRecord
  2
*D38
340
0
  0
BLOCK_RECORD
  5
20FEB
330
7466
100
AcDbSymbolTableRecord
100
AcDbBlockTableRecord
  2
*D39
340
0
  0
BLOCK_RECORD
  5
21830
330
7466
100
AcDbSymbolTableRecord
100
AcDbBlockTableRecord
  2
*D40
340
0
  0
ENDTAB
  0
ENDSEC
  0
SECTION
  2
BLOCKS
  0
BLOCK
  5
7489
330
747D
100
AcDbEntity
  8
0
100
AcDbBlockBegin
  2
*MODEL_SPACE
 70
     0
 10
0.0
 20
0.0
 30
0.0
  3
*MODEL_SPACE
  1

  0
ENDBLK
  5
748A
330
747D
100
AcDbEntity
  8
0
100
AcDbBlockEnd
  0
BLOCK
  5
7487
330
747A
100
AcDbEntity
 67
     1
  8
0
100
AcDbBlockBegin
  2
*PAPER_SPACE
 70
     0
 10
0.0
 20
0.0
 30
0.0
  3
*PAPER_SPACE
  1

  0
ENDBLK
  5
7488
330
747A
100
AcDbEntity
 67
     1
  8
0
100
AcDbBlockEnd
  0
BLOCK
  5
F771
330
F770
100
AcDbEntity
  8
0
 48
50.0
100
AcDbBlockBegin
  2
_DOTSMALL
 70
     0
 10
0.0
 20
0.0
 30
0.0
  3
_DOTSMALL
  1

  0
LWPOLYLINE
  5
F772
330
F770
100
AcDbEntity
  8
0
  6
ByBlock
 62
     0
 48
50.0
100
AcDbPolyline
 90
        2
 70
     1
 43
0.5
 10
-0.0625
 20
0.0
 42
1.0
 10
0.0625
 20
0.0
 42
1.0
  0
ENDBLK
  5
F776
330
F770
100
AcDbEntity
  8
0
 48
50.0
100
AcDbBlockEnd
  0
BLOCK
  5
1C531
330
1C530
100
AcDbEntity
  8
0
 48
50.0
100
AcDbBlockBegin
  2
_NONE
 70
     0
 10
0.0
 20
0.0
 30
0.0
  3
_NONE
  1

  0
CIRCLE
  5
1C532
330
1C530
100
AcDbEntity
  8
0
  6
ByBlock
 62
     0
 48
50.0
100
AcDbCircle
 10
0.0
 20
0.0
 30
0.0
 40
0.25
  0
ENDBLK
  5
1C533
330
1C530
100
AcDbEntity
  8
0
 48
50.0
100
AcDbBlockEnd
  0
BLOCK
  5
1E152
330
1E151
100
AcDbEntity
  8
0
 48
50.0
100
AcDbBlockBegin
  2
*D2
 70
     1
 10
0.0
 20
0.0
 30
0.0
  3
*D2
  1

  0
LINE
  5
1E153
330
1E151
100
AcDbEntity
  8
0
  6
ByBlock
 62
     0
 48
50.0
100
AcDbLine
 10
5296.0
 20
8029.0
 30
0.0
 11
5296.0
 21
9017.667619817153
 31
0.0
  0
LINE
  5
1E154
330
1E151
100
AcDbEntity
  8
0
  6
ByBlock
 62
     0
 48
50.0
100
AcDbLine
 10
3496.0
 20
8942.667619817154
 30
0.0
 11
5296.0
 21
8942.667619817154
 31
0.0
  0
INSERT
  5
1E155
330
1E151
100
AcDbEntity
  8
0
  6
ByBlock
 62
     0
 48
50.0
100
AcDbBlockReference
  2
_DOTSMALL
 10
3496.0
 20
8942.667619817154
 30
0.0
 41
125.0
 42
125.0
 43
125.0
 50
180.0
  0
INSERT
  5
1E156
330
1E151
100
AcDbEntity
  8
0
  6
ByBlock
 62
     0
 48
50.0
100
AcDbBlockReference
  2
_DOTSMALL
 10
5296.0
 20
8942.667619817154
 30
0.0
 41
125.0
 42
125.0
 43
125.0
  0
MTEXT
  5
1E157
330
1E151
100
AcDbEntity
  8
0
  6
ByBlock
 62
     7
 48
50.0
100
AcDbMText
 10
4396.0
 20
9042.667619817153
 30
0.0
 40
150.0
 41
0.0
 71
     5
 72
     1
  1
\A1;1800
  7
STYLE1
 73
     1
 44
1.0
1001
ACAD
1000
MTEXTBEGIN
1070
    73
1070
     1
1070
    44
1040
1.0
1070
    74
1070
     0
1000
MTEXTEND
  0
POINT
  5
1E158
330
1E151
100
AcDbEntity
  8
DEFPOINTS
  6
ByBlock
 62
     0
 48
50.0
100
AcDbPoint
 10
3496.0
 20
8004.0
 30
0.0
  0
POINT
  5
1E159
330
1E151
100
AcDbEntity
  8
DEFPOINTS
  6
ByBlock
 62
     0
 48
50.0
100
AcDbPoint
 10
5296.0
 20
8004.0
 30
0.0
  0
POINT
  5
1E15A
330
1E151
100
AcDbEntity
  8
DEFPOINTS
  6
ByBlock
 62
     0
 48
50.0
100
AcDbPoint
 10
5296.0
 20
8942.667619817154
 30
0.0
  0
ENDBLK
  5
1E15B
330
1E151
100
AcDbEntity
  8
0
 48
50.0
100
AcDbBlockEnd
  0
BLOCK
  5
1E15D
330
1E15C
100
AcDbEntity
  8
0
 48
50.0
100
AcDbBlockBegin
  2
*D3
 70
     1
 10
0.0
 20
0.0
 30
0.0
  3
*D3
  1

  0
LINE
  5
1E15E
330
1E15C
100
AcDbEntity
  8
0
  6
ByBlock
 62
     0
 48
50.0
100
AcDbLine
 10
3619.0
 20
7956.0
 30
0.0
 11
3619.0
 21
8805.206924300318
 31
0.0
  0
LINE
  5
1E15F
330
1E15C
100
AcDbEntity
  8
0
  6
ByBlock
 62
     0
 48
50.0
100
AcDbLine
 10
5173.0
 20
8730.206924300317
 30
0.0
 11
3619.0
 21
8730.206924300317
 31
0.0
  0
INSERT
  5
1E160
330
1E15C
100
AcDbEntity
  8
0
  6
ByBlock
 62
     0
 48
50.0
100
AcDbBlockReference
  2
_DOTSMALL
 10
5173.0
 20
8730.206924300317
 30
0.0
 41
125.0
 42
125.0
 43
125.0
  0
INSERT
  5
1E161
330
1E15C
100
AcDbEntity
  8
0
  6
ByBlock
 62
     0
 48
50.0
100
AcDbBlockReference
  2
_DOTSMALL
 10
3619.0
 20
8730.206924300317
 30
0.0
 41
125.0
 42
125.0
 43
125.0
 50
180.0
  0
MTEXT
  5
1E162
330
1E15C
100
AcDbEntity
  8
0
  6
ByBlock
 62
     7
 48
50.0
100
AcDbMText
 10
4396.0
 20
8830.206924300318
 30
0.0
 40
150.0
 41
0.0
 71
     5
 72
     1
  1
\A1;1554
  7
STYLE1
 73
     1
 44
1.0
1001
ACAD
1000
MTEXTBEGIN
1070
    73
1070
     1
1070
    44
1040
1.0
1070
    74
1070
     0
1000
MTEXTEND
  0
POINT
  5
1E163
330
1E15C
100
AcDbEntity
  8
DEFPOINTS
  6
ByBlock
 62
     0
 48
50.0
100
AcDbPoint
 10
5173.0
 20
7931.0
 30
0.0
  0
POINT
  5
1E164
330
1E15C
100
AcDbEntity
  8
DEFPOINTS
  6
ByBlock
 62
     0
 48
50.0
100
AcDbPoint
 10
3619.0
 20
7931.0
 30
0.0
  0
POINT
  5
1E165
330
1E15C
100
AcDbEntity
  8
DEFPOINTS
  6
ByBlock
 62
     0
 48
50.0
100
AcDbPoint
 10
3619.0
 20
8730.206924300317
 30
0.0
  0
ENDBLK
  5
1E166
330
1E15C
100
AcDbEntity
  8
0
 48
50.0
100
AcDbBlockEnd
  0
BLOCK
  5
1E168
330
1E167
100
AcDbEntity
  8
0
 48
50.0
100
AcDbBlockBegin
  2
*D4
 70
     1
 10
0.0
 20
0.0
 30
0.0
  3
*D4
  1

  0
LINE
  5
1E169
330
1E167
100
AcDbEntity
  8
0
  6
ByBlock
 62
     0
 48
50.0
100
AcDbLine
 10
3751.000000000001
 20
2304.000000000004
 30
0.0
 11
4106.75372407693
 21
2304.000000000004
 31
0.0
  0
LINE
  5
1E16A
330
1E167
100
AcDbEntity
  8
0
  6
ByBlock
 62
     0
 48
50.0
100
AcDbLine
 10
3821.000000000001
 20
2504.000000000007
 30
0.0
 11
4106.75372407693
 21
2504.000000000007
 31
0.0
  0
LINE
  5
1E16B
330
1E167
100
AcDbEntity
  8
0
  6
ByBlock
 62
     0
 48
50.0
100
AcDbLine
 10
4031.753724076931
 20
2304.000000000004
 30
0.0
 11
4031.753724076931
 21
2504.000000000007
 31
0.0
  0
LINE
  5
1E16C
330
1E167
100
AcDbEntity
  8
0
  6
ByBlock
 62
     0
 48
50.0
100
AcDbLine
 10
4031.753724076931
 20
2504.000000000007
 30
0.0
 11
4031.753724076931
 21
2952.927165354338
 31
0.0
  0
INSERT
  5
1E16D
330
1E167
100
AcDbEntity
  8
0
  6
ByBlock
 62
     0
 48
50.0
100
AcDbBlockReference
  2
_DOTSMALL
 10
4031.753724076931
 20
2304.000000000004
 30
0.0
 41
125.0
 42
125.0
 43
125.0
 50
270.0
  0
INSERT
  5
1E16E
330
1E167
100
AcDbEntity
  8
0
  6
ByBlock
 62
     0
 48
50.0
100
AcDbBlockReference
  2
_DOTSMALL
 10
4031.753724076931
 20
2504.000000000007
 30
0.0
 41
125.0
 42
125.0
 43
125.0
 50
90.0
  0
MTEXT
  5
1E16F
330
1E167
100
AcDbEntity
  8
0
  6
ByBlock
 62
     7
 48
50.0
100
AcDbMText
 10
3931.738960297403
 20
2790.963582677173
 30
0.0
 40
150.0
 41
0.0
 71
     5
 72
     1
  1
\A1;200
  7
STYLE1
 11
0.0000000000000001
 21
1.0
 31
0.0
 73
     1
 44
1.0
1001
ACAD
1000
MTEXTBEGIN
1070
    73
1070
     1
1070
    44
1040
1.0
1070
    74
1070
     0
1000
MTEXTEND
  0
POINT
  5
1E170
330
1E167
100
AcDbEntity
  8
DEFPOINTS
  6
ByBlock
 62
     0
 48
50.0
100
AcDbPoint
 10
3726.000000000001
 20
2304.000000000004
 30
0.0
  0
POINT
  5
1E171
330
1E167
100
AcDbEntity
  8
DEFPOINTS
  6
ByBlock
 62
     0
 48
50.0
100
AcDbPoint
 10
3796.000000000001
 20
2504.000000000007
 30
0.0
  0
POINT
  5
1E172
330
1E167
100
AcDbEntity
  8
DEFPOINTS
  6
ByBlock
 62
     0
 48
50.0
100
AcDbPoint
 10
4031.753724076931
 20
2504.000000000007
 30
0.0
  0
ENDBLK
  5
1E173
330
1E167
100
AcDbEntity
  8
0
 48
50.0
100
AcDbBlockEnd
  0
BLOCK
  5
1E175
330
1E174
100
AcDbEntity
  8
0
 48
50.0
100
AcDbBlockBegin
  2
*D5
 70
     1
 10
0.0
 20
0.0
 30
0.0
  3
*D5
  1

  0
LINE
  5
1E176
330
1E174
100
AcDbEntity
  8
0
  6
ByBlock
 62
     0
 48
50.0
100
AcDbLine
 10
3751.000000000001
 20
6724.000000000005
 30
0.0
 11
4106.75372407693
 21
6724.000000000005
 31
0.0
  0
LINE
  5
1E177
330
1E174
100
AcDbEntity
  8
0
  6
ByBlock
 62
     0
 48
50.0
100
AcDbLine
 10
3751.000000000002
 20
6624.000000000002
 30
0.0
 11
4106.75372407693
 21
6624.000000000002
 31
0.0
  0
LINE
  5
1E178
330
1E174
100
AcDbEntity
  8
0
  6
ByBlock
 62
     0
 48
50.0
100
AcDbLine
 10
4031.753724076931
 20
6724.000000000005
 30
0.0
 11
4031.753724076931
 21
6624.000000000002
 31
0.0
  0
LINE
  5
1E179
330
1E174
100
AcDbEntity
  8
0
  6
ByBlock
 62
     0
 48
50.0
100
AcDbLine
 10
4031.753724076931
 20
6624.000000000002
 30
0.0
 11
4031.753724076931
 21
6200.857401609004
 31
0.0
  0
INSERT
  5
1E17A
330
1E174
100
AcDbEntity
  8
0
  6
ByBlock
 62
     0
 48
50.0
100
AcDbBlockReference
  2
_DOTSMALL
 10
4031.753724076931
 20
6724.000000000005
 30
0.0
 41
125.0
 42
125.0
 43
125.0
 50
90.0
  0
INSERT
  5
1E17B
330
1E174
100
AcDbEntity
  8
0
  6
ByBlock
 62
     0
 48
50.0
100
AcDbBlockReference
  2
_DOTSMALL
 10
4031.753724076931
 20
6624.000000000002
 30
0.0
 41
125.0
 42
125.0
 43
125.0
 50
270.0
  0
MTEXT
  5
1E17C
330
1E174
100
AcDbEntity
  8
0
  6
ByBlock
 62
     7
 48
50.0
100
AcDbMText
 10
3931.75372407693
 20
6345.916456727114
 30
0.0
 40
150.0
 41
0.0
 71
     5
 72
     1
  1
\A1;100
  7
STYLE1
 11
0.0000000000000001
 21
1.0
 31
0.0
 73
     1
 44
1.0
1001
ACAD
1000
MTEXTBEGIN
1070
    73
1070
     1
1070
    44
1040
1.0
1070
    74
1070
     0
1000
MTEXTEND
  0
POINT
  5
1E17D
330
1E174
100
AcDbEntity
  8
DEFPOINTS
  6
ByBlock
 62
     0
 48
50.0
100
AcDbPoint
 10
3726.000000000001
 20
6724.000000000005
 30
0.0
  0
POINT
  5
1E17E
330
1E174
100
AcDbEntity
  8
DEFPOINTS
  6
ByBlock
 62
     0
 48
50.0
100
AcDbPoint
 10
3726.000000000002
 20
6624.000000000002
 30
0.0
  0
POINT
  5
1E17F
330
1E174
100
AcDbEntity
  8
DEFPOINTS
  6
ByBlock
 62
     0
 48
50.0
100
AcDbPoint
 10
4031.753724076931
 20
6624.000000000002
 30
0.0
  0
ENDBLK
  5
1E180
330
1E174
100
AcDbEntity
  8
0
 48
50.0
100
AcDbBlockEnd
  0
BLOCK
  5
1E182
330
1E181
100
AcDbEntity
  8
0
 48
50.0
100
AcDbBlockBegin
  2
*D6
 70
     1
 10
0.0
 20
0.0
 30
0.0
  3
*D6
  1

  0
LINE
  5
1E183
330
1E181
100
AcDbEntity
  8
0
  6
ByBlock
 62
     0
 48
50.0
100
AcDbLine
 10
3544.000000000006
 20
6822.000000000001
 30
0.0
 11
2925.057733986177
 21
6822.000000000001
 31
0.0
  0
LINE
  5
1E184
330
1E181
100
AcDbEntity
  8
0
  6
ByBlock
 62
     0
 48
50.0
100
AcDbLine
 10
3471.0
 20
6624.0
 30
0.0
 11
2925.057733986177
 21
6624.0
 31
0.0
  0
LINE
  5
1E185
330
1E181
100
AcDbEntity
  8
0
  6
ByBlock
 62
     0
 48
50.0
100
AcDbLine
 10
3000.057733986178
 20
6822.000000000001
 30
0.0
 11
3000.057733986178
 21
6624.0
 31
0.0
  0
LINE
  5
1E186
330
1E181
100
AcDbEntity
  8
0
  6
ByBlock
 62
     0
 48
50.0
100
AcDbLine
 10
3000.057733986178
 20
6624.0
 30
0.0
 11
3000.057733986178
 21
6143.206976370337
 31
0.0
  0
INSERT
  5
1E187
330
1E181
100
AcDbEntity
  8
0
  6
ByBlock
 62
     0
 48
50.0
100
AcDbBlockReference
  2
_DOTSMALL
 10
3000.057733986178
 20
6822.000000000001
 30
0.0
 41
125.0
 42
125.0
 43
125.0
 50
90.0
  0
INSERT
  5
1E188
330
1E181
100
AcDbEntity
  8
0
  6
ByBlock
 62
     0
 48
50.0
100
AcDbBlockReference
  2
_DOTSMALL
 10
3000.057733986178
 20
6624.0
 30
0.0
 41
125.0
 42
125.0
 43
125.0
 50
270.0
  0
MTEXT
  5
1E189
330
1E181
100
AcDbEntity
  8
0
  6
ByBlock
 62
     7
 48
50.0
100
AcDbMText
 10
2900.057733986177
 20
6288.469051157409
 30
0.0
 40
150.0
 41
0.0
 71
     5
 72
     1
  1
\A1;198
  7
STYLE1
 11
0.0000000000000001
 21
1.0
 31
0.0
 73
     1
 44
1.0
1001
ACAD
1000
MTEXTBEGIN
1070
    73
1070
     1
1070
    44
1040
1.0
1070
    74
1070
     0
1000
MTEXTEND
  0
POINT
  5
1E18A
330
1E181
100
AcDbEntity
  8
DEFPOINTS
  6
ByBlock
 62
     0
 48
50.0
100
AcDbPoint
 10
3569.000000000006
 20
6822.000000000001
 30
0.0
  0
POINT
  5
1E18B
330
1E181
100
AcDbEntity
  8
DEFPOINTS
  6
ByBlock
 62
     0
 48
50.0
100
AcDbPoint
 10
3496.0
 20
6624.0
 30
0.0
  0
POINT
  5
1E18C
330
1E181
100
AcDbEntity
  8
DEFPOINTS
  6
ByBlock
 62
     0
 48
50.0
100
AcDbPoint
 10
3000.057733986178
 20
6624.0
 30
0.0
  0
ENDBLK
  5
1E18D
330
1E181
100
AcDbEntity
  8
0
 48
50.0
100
AcDbBlockEnd
  0
BLOCK
  5
1E18F
330
1E18E
100
AcDbEntity
  8
0
 48
50.0
100
AcDbBlockBegin
  2
*D7
 70
     1
 10
0.0
 20
0.0
 30
0.0
  3
*D7
  1

  0
LINE
  5
1E190
330
1E18E
100
AcDbEntity
  8
0
  6
ByBlock
 62
     0
 48
50.0
100
AcDbLine
 10
3438.740228660987
 20
8755.206924300313
 30
0.0
 11
3438.740228660987
 21
9017.667619817155
 31
0.0
  0
LINE
  5
1E191
330
1E18E
100
AcDbEntity
  8
0
  6
ByBlock
 62
     0
 48
50.0
100
AcDbLine
 10
3496.0
 20
8029.0
 30
0.0
 11
3496.0
 21
9017.667619817155
 31
0.0
  0
LINE
  5
1E192
330
1E18E
100
AcDbEntity
  8
0
  6
ByBlock
 62
     0
 48
50.0
100
AcDbLine
 10
3496.0
 20
8942.667619817155
 30
0.0
 11
3438.740228660987
 21
8942.667619817155
 31
0.0
  0
LINE
  5
1E193
330
1E18E
100
AcDbEntity
  8
0
  6
ByBlock
 62
     0
 48
50.0
100
AcDbLine
 10
3438.740228660987
 20
8942.667619817155
 30
0.0
 11
3198.30367565484
 21
8942.667619817155
 31
0.0
  0
INSERT
  5
1E194
330
1E18E
100
AcDbEntity
  8
0
  6
ByBlock
 62
     0
 48
50.0
100
AcDbBlockReference
  2
_DOTSMALL
 10
3496.0
 20
8942.667619817155
 30
0.0
 41
125.0
 42
125.0
 43
125.0
  0
INSERT
  5
1E195
330
1E18E
100
AcDbEntity
  8
0
  6
ByBlock
 62
     0
 48
50.0
100
AcDbBlockReference
  2
_DOTSMALL
 10
3438.740228660987
 20
8942.667619817155
 30
0.0
 41
125.0
 42
125.0
 43
125.0
 50
180.0
  0
MTEXT
  5
1E196
330
1E18E
100
AcDbEntity
  8
0
  6
ByBlock
 62
     7
 48
50.0
100
AcDbMText
 10
3256.021952157913
 20
9042.667619817155
 30
0.0
 40
150.0
 41
0.0
 71
     5
 72
     1
  1
\A1;a
  7
STYLE1
 73
     1
 44
1.0
1001
ACAD
1000
MTEXTBEGIN
1070
    73
1070
     1
1070
    44
1040
1.0
1070
    74
1070
     0
1000
MTEXTEND
  0
POINT
  5
1E197
330
1E18E
100
AcDbEntity
  8
DEFPOINTS
  6
ByBlock
 62
     0
 48
50.0
100
AcDbPoint
 10
3438.740228660987
 20
8730.206924300313
 30
0.0
  0
POINT
  5
1E198
330
1E18E
100
AcDbEntity
  8
DEFPOINTS
  6
ByBlock
 62
     0
 48
50.0
100
AcDbPoint
 10
3496.0
 20
8004.0
 30
0.0
  0
POINT
  5
1E199
330
1E18E
100
AcDbEntity
  8
DEFPOINTS
  6
ByBlock
 62
     0
 48
50.0
100
AcDbPoint
 10
3496.0
 20
8942.667619817155
 30
0.0
  0
ENDBLK
  5
1E19A
330
1E18E
100
AcDbEntity
  8
0
 48
50.0
100
AcDbBlockEnd
  0
BLOCK
  5
1E19C
330
1E19B
100
AcDbEntity
  8
0
 48
50.0
100
AcDbBlockBegin
  2
*D8
 70
     1
 10
0.0
 20
0.0
 30
0.0
  3
*D8
  1

  0
LINE
  5
1E19D
330
1E19B
100
AcDbEntity
  8
0
  6
ByBlock
 62
     0
 48
50.0
100
AcDbLine
 10
3619.0
 20
7956.0
 30
0.0
 11
3619.0
 21
8805.206924300318
 31
0.0
  0
LINE
  5
1E19E
330
1E19B
100
AcDbEntity
  8
0
  6
ByBlock
 62
     0
 48
50.0
100
AcDbLine
 10
3496.0
 20
8029.0
 30
0.0
 11
3496.0
 21
8805.206924300318
 31
0.0
  0
LINE
  5
1E19F
330
1E19B
100
AcDbEntity
  8
0
  6
ByBlock
 62
     0
 48
50.0
100
AcDbLine
 10
3619.0
 20
8730.206924300317
 30
0.0
 11
3496.0
 21
8730.206924300317
 31
0.0
  0
LINE
  5
1E1A0
330
1E19B
100
AcDbEntity
  8
0
  6
ByBlock
 62
     0
 48
50.0
100
AcDbLine
 10
3496.0
 20
8730.206924300317
 30
0.0
 11
3067.527025225391
 21
8730.206924300317
 31
0.0
  0
INSERT
  5
1E1A1
330
1E19B
100
AcDbEntity
  8
0
  6
ByBlock
 62
     0
 48
50.0
100
AcDbBlockReference
  2
_DOTSMALL
 10
3619.0
 20
8730.206924300317
 30
0.0
 41
125.0
 42
125.0
 43
125.0
  0
INSERT
  5
1E1A2
330
1E19B
100
AcDbEntity
  8
0
  6
ByBlock
 62
     0
 48
50.0
100
AcDbBlockReference
  2
_DOTSMALL
 10
3496.0
 20
8730.206924300317
 30
0.0
 41
125.0
 42
125.0
 43
125.0
 50
180.0
  0
MTEXT
  5
1E1A3
330
1E19B
100
AcDbEntity
  8
0
  6
ByBlock
 62
     7
 48
50.0
100
AcDbMText
 10
3215.633626943189
 20
8830.221688079843
 30
0.0
 40
150.0
 41
0.0
 71
     5
 72
     1
  1
\A1;123
  7
STYLE1
 73
     1
 44
1.0
1001
ACAD
1000
MTEXTBEGIN
1070
    73
1070
     1
1070
    44
1040
1.0
1070
    74
1070
     0
1000
MTEXTEND
  0
POINT
  5
1E1A4
330
1E19B
100
AcDbEntity
  8
DEFPOINTS
  6
ByBlock
 62
     0
 48
50.0
100
AcDbPoint
 10
3619.0
 20
7931.0
 30
0.0
  0
POINT
  5
1E1A5
330
1E19B
100
AcDbEntity
  8
DEFPOINTS
  6
ByBlock
 62
     0
 48
50.0
100
AcDbPoint
 10
3496.0
 20
8004.0
 30
0.0
  0
POINT
  5
1E1A6
330
1E19B
100
AcDbEntity
  8
DEFPOINTS
  6
ByBlock
 62
     0
 48
50.0
100
AcDbPoint
 10
3496.0
 20
8730.206924300317
 30
0.0
  0
ENDBLK
  5
1E1A7
330
1E19B
100
AcDbEntity
  8
0
 48
50.0
100
AcDbBlockEnd
  0
BLOCK
  5
1E1A9
330
1E1A8
100
AcDbEntity
  8
0
 48
50.0
100
AcDbBlockBegin
  2
*D9
 70
     1
 10
0.0
 20
0.0
 30
0.0
  3
*D9
  1

  0
LINE
  5
1E1AA
330
1E1A8
100
AcDbEntity
  8
0
  6
ByBlock
 62
     0
 48
50.0
100
AcDbLine
 10
3544.0
 20
3881.0
 30
0.0
 11
2925.057733986178
 21
3881.0
 31
0.0
  0
LINE
  5
1E1AB
330
1E1A8
100
AcDbEntity
  8
0
  6
ByBlock
 62
     0
 48
50.0
100
AcDbLine
 10
3544.000000000006
 20
2402.000000000002
 30
0.0
 11
2925.057733986177
 21
2402.000000000002
 31
0.0
  0
LINE
  5
1E1AC
330
1E1A8
100
AcDbEntity
  8
0
  6
ByBlock
 62
     0
 48
50.0
100
AcDbLine
 10
3000.057733986178
 20
3881.0
 30
0.0
 11
3000.057733986178
 21
2402.000000000002
 31
0.0
  0
INSERT
  5
1E1AD
330
1E1A8
100
AcDbEntity
  8
0
  6
ByBlock
 62
     0
 48
50.0
100
AcDbBlockReference
  2
_DOTSMALL
 10
3000.057733986178
 20
3881.0
 30
0.0
 41
125.0
 42
125.0
 43
125.0
 50
90.0
  0
INSERT
  5
1E1AE
330
1E1A8
100
AcDbEntity
  8
0
  6
ByBlock
 62
     0
 48
50.0
100
AcDbBlockReference
  2
_DOTSMALL
 10
3000.057733986178
 20
2402.000000000002
 30
0.0
 41
125.0
 42
125.0
 43
125.0
 50
270.0
  0
MTEXT
  5
1E1AF
330
1E1A8
100
AcDbEntity
  8
0
  6
ByBlock
 62
     7
 48
50.0
100
AcDbMText
 10
2900.057733986177
 20
3104.0
 30
0.0
 40
150.0
 41
0.0
 71
     5
 72
     1
  1
\A1;1479
  7
STYLE1
 11
0.0000000000000001
 21
1.0
 31
0.0
 73
     1
 44
1.0
1001
ACAD
1000
MTEXTBEGIN
1070
    73
1070
     1
1070
    44
1040
1.0
1070
    74
1070
     0
1000
MTEXTEND
  0
POINT
  5
1E1B0
330
1E1A8
100
AcDbEntity
  8
DEFPOINTS
  6
ByBlock
 62
     0
 48
50.0
100
AcDbPoint
 10
3569.0
 20
3881.0
 30
0.0
  0
POINT
  5
1E1B1
330
1E1A8
100
AcDbEntity
  8
DEFPOINTS
  6
ByBlock
 62
     0
 48
50.0
100
AcDbPoint
 10
3569.000000000006
 20
2402.000000000002
 30
0.0
  0
POINT
  5
1E1B2
330
1E1A8
100
AcDbEntity
  8
DEFPOINTS
  6
ByBlock
 62
     0
 48
50.0
100
AcDbPoint
 10
3000.057733986178
 20
2402.000000000002
 30
0.0
  0
ENDBLK
  5
1E1B3
330
1E1A8
100
AcDbEntity
  8
0
 48
50.0
100
AcDbBlockEnd
  0
BLOCK
  5
1E1B5
330
1E1B4
100
AcDbEntity
  8
0
 48
50.0
100
AcDbBlockBegin
  2
*D10
 70
     1
 10
0.0
 20
0.0
 30
0.0
  3
*D10
  1

  0
LINE
  5
1E1B6
330
1E1B4
100
AcDbEntity
  8
0
  6
ByBlock
 62
     0
 48
50.0
100
AcDbLine
 10
3471.0
 20
8004.0
 30
0.0
 11
2925.057733986177
 21
8004.0
 31
0.0
  0
LINE
  5
1E1B7
330
1E1B4
100
AcDbEntity
  8
0
  6
ByBlock
 62
     0
 48
50.0
100
AcDbLine
 10
3544.0
 20
7881.0
 30
0.0
 11
2925.057733986177
 21
7881.0
 31
0.0
  0
LINE
  5
1E1B8
330
1E1B4
100
AcDbEntity
  8
0
  6
ByBlock
 62
     0
 48
50.0
100
AcDbLine
 10
3000.057733986178
 20
7881.0
 30
0.0
 11
3000.057733986178
 21
8004.0
 31
0.0
  0
LINE
  5
1E1B9
330
1E1B4
100
AcDbEntity
  8
0
  6
ByBlock
 62
     0
 48
50.0
100
AcDbLine
 10
3000.057733986178
 20
8004.0
 30
0.0
 11
3000.057733986178
 21
8425.213203435596
 31
0.0
  0
INSERT
  5
1E1BA
330
1E1B4
100
AcDbEntity
  8
0
  6
ByBlock
 62
     0
 48
50.0
100
AcDbBlockReference
  2
_DOTSMALL
 10
3000.057733986178
 20
7881.0
 30
0.0
 41
125.0
 42
125.0
 43
125.0
 50
270.0
  0
INSERT
  5
1E1BB
330
1E1B4
100
AcDbEntity
  8
0
  6
ByBlock
 62
     0
 48
50.0
100
AcDbBlockReference
  2
_DOTSMALL
 10
3000.057733986178
 20
8004.0
 30
0.0
 41
125.0
 42
125.0
 43
125.0
 50
90.0
  0
MTEXT
  5
1E1BC
330
1E1B4
100
AcDbEntity
  8
0
  6
ByBlock
 62
     7
 48
50.0
100
AcDbMText
 10
2900.04297020665
 20
8277.106601717798
 30
0.0
 40
150.0
 41
0.0
 71
     5
 72
     1
  1
\A1;123
  7
STYLE1
 11
0.0000000000000001
 21
1.0
 31
0.0
 73
     1
 44
1.0
1001
ACAD
1000
MTEXTBEGIN
1070
    73
1070
     1
1070
    44
1040
1.0
1070
    74
1070
     0
1000
MTEXTEND
  0
POINT
  5
1E1BD
330
1E1B4
100
AcDbEntity
  8
DEFPOINTS
  6
ByBlock
 62
     0
 48
50.0
100
AcDbPoint
 10
3496.0
 20
8004.0
 30
0.0
  0
POINT
  5
1E1BE
330
1E1B4
100
AcDbEntity
  8
DEFPOINTS
  6
ByBlock
 62
     0
 48
50.0
100
AcDbPoint
 10
3569.0
 20
7881.0
 30
0.0
  0
POINT
  5
1E1BF
330
1E1B4
100
AcDbEntity
  8
DEFPOINTS
  6
ByBlock
 62
     0
 48
50.0
100
AcDbPoint
 10
3000.057733986178
 20
7881.0
 30
0.0
  0
ENDBLK
  5
1E1C0
330
1E1B4
100
AcDbEntity
  8
0
 48
50.0
100
AcDbBlockEnd
  0
BLOCK
  5
1E1C2
330
1E1C1
100
AcDbEntity
  8
0
 48
50.0
100
AcDbBlockBegin
  2
*D11
 70
     1
 10
0.0
 20
0.0
 30
0.0
  3
*D11
  1

  0
LINE
  5
1E1C3
330
1E1C1
100
AcDbEntity
  8
0
  6
ByBlock
 62
     0
 48
50.0
100
AcDbLine
 10
3471.0
 20
6624.0
 30
0.0
 11
2679.56493184821
 21
6624.0
 31
0.0
  0
LINE
  5
1E1C4
330
1E1C1
100
AcDbEntity
  8
0
  6
ByBlock
 62
     0
 48
50.0
100
AcDbLine
 10
2975.057733986178
 20
6494.0
 30
0.0
 11
2679.56493184821
 21
6494.0
 31
0.0
  0
LINE
  5
1E1C5
330
1E1C1
100
AcDbEntity
  8
0
  6
ByBlock
 62
     0
 48
50.0
100
AcDbLine
 10
2754.56493184821
 20
6624.0
 30
0.0
 11
2754.56493184821
 21
6494.0
 31
0.0
  0
INSERT
  5
1E1C6
330
1E1C1
100
AcDbEntity
  8
0
  6
ByBlock
 62
     0
 48
50.0
100
AcDbBlockReference
  2
_DOTSMALL
 10
2754.56493184821
 20
6624.0
 30
0.0
 41
125.0
 42
125.0
 43
125.0
 50
90.0
  0
INSERT
  5
1E1C7
330
1E1C1
100
AcDbEntity
  8
0
  6
ByBlock
 62
     0
 48
50.0
100
AcDbBlockReference
  2
_DOTSMALL
 10
2754.56493184821
 20
6494.0
 30
0.0
 41
125.0
 42
125.0
 43
125.0
 50
270.0
  0
MTEXT
  5
1E1C8
330
1E1C1
100
AcDbEntity
  8
0
  6
ByBlock
 62
     7
 48
50.0
100
AcDbMText
 10
2654.56493184821
 20
6559.0
 30
0.0
 40
150.0
 41
0.0
 71
     5
 72
     1
  1
\A1;b
  7
STYLE1
 11
0.0000000000000001
 21
1.0
 31
0.0
 73
     1
 44
1.0
1001
ACAD
1000
MTEXTBEGIN
1070
    73
1070
     1
1070
    44
1040
1.0
1070
    74
1070
     0
1000
MTEXTEND
  0
POINT
  5
1E1C9
330
1E1C1
100
AcDbEntity
  8
DEFPOINTS
  6
ByBlock
 62
     0
 48
50.0
100
AcDbPoint
 10
3496.0
 20
6624.0
 30
0.0
  0
POINT
  5
1E1CA
330
1E1C1
100
AcDbEntity
  8
DEFPOINTS
  6
ByBlock
 62
     0
 48
50.0
100
AcDbPoint
 10
3000.057733986178
 20
6494.0
 30
0.0
  0
POINT
  5
1E1CB
330
1E1C1
100
AcDbEntity
  8
DEFPOINTS
  6
ByBlock
 62
     0
 48
50.0
100
AcDbPoint
 10
2754.56493184821
 20
6494.0
 30
0.0
  0
ENDBLK
  5
1E1CC
330
1E1C1
100
AcDbEntity
  8
0
 48
50.0
100
AcDbBlockEnd
  0
BLOCK
  5
1E1CE
330
1E1CD
100
AcDbEntity
  8
0
 48
50.0
100
AcDbBlockBegin
  2
*D12
 70
     1
 10
0.0
 20
0.0
 30
0.0
  3
*D12
  1

  0
LINE
  5
1E1CF
330
1E1CD
100
AcDbEntity
  8
0
  6
ByBlock
 62
     0
 48
50.0
100
AcDbLine
 10
3471.0
 20
2204.0
 30
0.0
 11
2679.56493184821
 21
2204.0
 31
0.0
  0
LINE
  5
1E1D0
330
1E1CD
100
AcDbEntity
  8
0
  6
ByBlock
 62
     0
 48
50.0
100
AcDbLine
 10
2754.564931848211
 20
4004.0
 30
0.0
 11
2754.56493184821
 21
2204.0
 31
0.0
  0
INSERT
  5
1E1D1
330
1E1CD
100
AcDbEntity
  8
0
  6
ByBlock
 62
     0
 48
50.0
100
AcDbBlockReference
  2
_DOTSMALL
 10
2754.564931848211
 20
4004.0
 30
0.0
 41
125.0
 42
125.0
 43
125.0
 50
90.0
  0
INSERT
  5
1E1D2
330
1E1CD
100
AcDbEntity
  8
0
  6
ByBlock
 62
     0
 48
50.0
100
AcDbBlockReference
  2
_DOTSMALL
 10
2754.56493184821
 20
2204.0
 30
0.0
 41
125.0
 42
125.0
 43
125.0
 50
270.0
  0
MTEXT
  5
1E1D3
330
1E1CD
100
AcDbEntity
  8
0
  6
ByBlock
 62
     7
 48
50.0
100
AcDbMText
 10
2654.56493184821
 20
3104.0
 30
0.0
 40
150.0
 41
0.0
 71
     5
 72
     1
  1
\A1;1800
  7
STYLE1
 11
0.0000000000000001
 21
1.0
 31
0.0
 73
     1
 44
1.0
1001
ACAD
1000
MTEXTBEGIN
1070
    73
1070
     1
1070
    44
1040
1.0
1070
    74
1070
     0
1000
MTEXTEND
  0
POINT
  5
1E1D4
330
1E1CD
100
AcDbEntity
  8
DEFPOINTS
  6
ByBlock
 62
     0
 48
50.0
100
AcDbPoint
 10
3496.0
 20
4004.0
 30
0.0
  0
POINT
  5
1E1D5
330
1E1CD
100
AcDbEntity
  8
DEFPOINTS
  6
ByBlock
 62
     0
 48
50.0
100
AcDbPoint
 10
3496.0
 20
2204.0
 30
0.0
  0
POINT
  5
1E1D6
330
1E1CD
100
AcDbEntity
  8
DEFPOINTS
  6
ByBlock
 62
     0
 48
50.0
100
AcDbPoint
 10
2754.56493184821
 20
2204.0
 30
0.0
  0
ENDBLK
  5
1E1D7
330
1E1CD
100
AcDbEntity
  8
0
 48
50.0
100
AcDbBlockEnd
  0
BLOCK
  5
1E1D9
330
1E1D8
100
AcDbEntity
  8
0
 48
50.0
100
AcDbBlockBegin
  2
*D13
 70
     1
 10
0.0
 20
0.0
 30
0.0
  3
*D13
  1

  0
LINE
  5
1E1DA
330
1E1D8
100
AcDbEntity
  8
0
  6
ByBlock
 62
     0
 48
50.0
100
AcDbLine
 10
2975.057733986178
 20
8093.999999999997
 30
0.0
 11
2679.56493184821
 21
8093.999999999997
 31
0.0
  0
LINE
  5
1E1DB
330
1E1D8
100
AcDbEntity
  8
0
  6
ByBlock
 62
     0
 48
50.0
100
AcDbLine
 10
3471.0
 20
8004.0
 30
0.0
 11
2679.56493184821
 21
8004.0
 31
0.0
  0
LINE
  5
1E1DC
330
1E1D8
100
AcDbEntity
  8
0
  6
ByBlock
 62
     0
 48
50.0
100
AcDbLine
 10
2754.56493184821
 20
8093.999999999997
 30
0.0
 11
2754.56493184821
 21
8218.999999999997
 31
0.0
  0
LINE
  5
1E1DD
330
1E1D8
100
AcDbEntity
  8
0
  6
ByBlock
 62
     0
 48
50.0
100
AcDbLine
 10
2754.56493184821
 20
8004.0
 30
0.0
 11
2754.56493184821
 21
7879.0
 31
0.0
  0
LINE
  5
1E1DE
330
1E1D8
100
AcDbEntity
  8
0
  6
ByBlock
 62
     0
 48
50.0
100
AcDbLine
 10
2754.56493184821
 20
8093.999999999997
 30
0.0
 11
2754.56493184821
 21
8004.0
 31
0.0
  0
INSERT
  5
1E1DF
330
1E1D8
100
AcDbEntity
  8
0
  6
ByBlock
 62
     0
 48
50.0
100
AcDbBlockReference
  2
_DOTSMALL
 10
2754.56493184821
 20
8093.999999999997
 30
0.0
 41
125.0
 42
125.0
 43
125.0
 50
270.0
  0
INSERT
  5
1E1E0
330
1E1D8
100
AcDbEntity
  8
0
  6
ByBlock
 62
     0
 48
50.0
100
AcDbBlockReference
  2
_DOTSMALL
 10
2754.56493184821
 20
8004.0
 30
0.0
 41
125.0
 42
125.0
 43
125.0
 50
90.0
  0
MTEXT
  5
1E1E1
330
1E1D8
100
AcDbEntity
  8
0
  6
ByBlock
 62
     7
 48
50.0
100
AcDbMText
 10
2654.56493184821
 20
8048.999999999997
 30
0.0
 40
150.0
 41
0.0
 71
     5
 72
     1
  1
\A1;c
  7
STYLE1
 11
0.0000000000000001
 21
1.0
 31
0.0
 73
     1
 44
1.0
1001
ACAD
1000
MTEXTBEGIN
1070
    73
1070
     1
1070
    44
1040
1.0
1070
    74
1070
     0
1000
MTEXTEND
  0
POINT
  5
1E1E2
330
1E1D8
100
AcDbEntity
  8
DEFPOINTS
  6
ByBlock
 62
     0
 48
50.0
100
AcDbPoint
 10
3000.057733986178
 20
8093.999999999997
 30
0.0
  0
POINT
  5
1E1E3
330
1E1D8
100
AcDbEntity
  8
DEFPOINTS
  6
ByBlock
 62
     0
 48
50.0
100
AcDbPoint
 10
3496.0
 20
8004.0
 30
0.0
  0
POINT
  5
1E1E4
330
1E1D8
100
AcDbEntity
  8
DEFPOINTS
  6
ByBlock
 62
     0
 48
50.0
100
AcDbPoint
 10
2754.56493184821
 20
8004.0
 30
0.0
  0
ENDBLK
  5
1E1E5
330
1E1D8
100
AcDbEntity
  8
0
 48
50.0
100
AcDbBlockEnd
  0
BLOCK
  5
1E1E7
330
1E1E6
100
AcDbEntity
  8
0
 48
50.0
100
AcDbBlockBegin
  2
*D14
 70
     1
 10
0.0
 20
0.0
 30
0.0
  3
*D14
  1

  0
LINE
  5
1E1E8
330
1E1E6
100
AcDbEntity
  8
0
  6
ByBlock
 62
     0
 48
50.0
100
AcDbLine
 10
5296.0
 20
8029.0
 30
0.0
 11
5296.0
 21
9017.667619817155
 31
0.0
  0
LINE
  5
1E1E9
330
1E1E6
100
AcDbEntity
  8
0
  6
ByBlock
 62
     0
 48
50.0
100
AcDbLine
 10
5338.740228660987
 20
8755.206924300319
 30
0.0
 11
5338.740228660987
 21
9017.667619817155
 31
0.0
  0
LINE
  5
1E1EA
330
1E1E6
100
AcDbEntity
  8
0
  6
ByBlock
 62
     0
 48
50.0
100
AcDbLine
 10
5296.0
 20
8942.667619817155
 30
0.0
 11
5171.0
 21
8942.667619817155
 31
0.0
  0
LINE
  5
1E1EB
330
1E1E6
100
AcDbEntity
  8
0
  6
ByBlock
 62
     0
 48
50.0
100
AcDbLine
 10
5338.740228660987
 20
8942.667619817155
 30
0.0
 11
5704.176781667134
 21
8942.667619817155
 31
0.0
  0
LINE
  5
1E1EC
330
1E1E6
100
AcDbEntity
  8
0
  6
ByBlock
 62
     0
 48
50.0
100
AcDbLine
 10
5296.0
 20
8942.667619817155
 30
0.0
 11
5338.740228660987
 21
8942.667619817155
 31
0.0
  0
INSERT
  5
1E1ED
330
1E1E6
100
AcDbEntity
  8
0
  6
ByBlock
 62
     0
 48
50.0
100
AcDbBlockReference
  2
_DOTSMALL
 10
5296.0
 20
8942.667619817155
 30
0.0
 41
125.0
 42
125.0
 43
125.0
  0
INSERT
  5
1E1EE
330
1E1E6
100
AcDbEntity
  8
0
  6
ByBlock
 62
     0
 48
50.0
100
AcDbBlockReference
  2
_DOTSMALL
 10
5338.740228660987
 20
8942.667619817155
 30
0.0
 41
125.0
 42
125.0
 43
125.0
 50
180.0
  0
MTEXT
  5
1E1EF
330
1E1E6
100
AcDbEntity
  8
0
  6
ByBlock
 62
     7
 48
50.0
100
AcDbMText
 10
5646.45850516406
 20
9042.667619817155
 30
0.0
 40
150.0
 41
0.0
 71
     5
 72
     1
  1
\A1;a
  7
STYLE1
 73
     1
 44
1.0
1001
ACAD
1000
MTEXTBEGIN
1070
    73
1070
     1
1070
    44
1040
1.0
1070
    74
1070
     0
1000
MTEXTEND
  0
POINT
  5
1E1F0
330
1E1E6
100
AcDbEntity
  8
DEFPOINTS
  6
ByBlock
 62
     0
 48
50.0
100
AcDbPoint
 10
5296.0
 20
8004.0
 30
0.0
  0
POINT
  5
1E1F1
330
1E1E6
100
AcDbEntity
  8
DEFPOINTS
  6
ByBlock
 62
     0
 48
50.0
100
AcDbPoint
 10
5338.740228660987
 20
8730.206924300318
 30
0.0
  0
POINT
  5
1E1F2
330
1E1E6
100
AcDbEntity
  8
DEFPOINTS
  6
ByBlock
 62
     0
 48
50.0
100
AcDbPoint
 10
5338.740228660987
 20
8942.667619817155
 30
0.0
  0
ENDBLK
  5
1E1F3
330
1E1E6
100
AcDbEntity
  8
0
 48
50.0
100
AcDbBlockEnd
  0
BLOCK
  5
1E1F5
330
1E1F4
100
AcDbEntity
  8
0
 48
50.0
100
AcDbBlockBegin
  2
*D15
 70
     1
 10
0.0
 20
0.0
 30
0.0
  3
*D15
  1

  0
LINE
  5
1E1F6
330
1E1F4
100
AcDbEntity
  8
0
  6
ByBlock
 62
     0
 48
50.0
100
AcDbLine
 10
5296.0
 20
8029.0
 30
0.0
 11
5296.0
 21
8805.206924300318
 31
0.0
  0
LINE
  5
1E1F7
330
1E1F4
100
AcDbEntity
  8
0
  6
ByBlock
 62
     0
 48
50.0
100
AcDbLine
 10
5173.0
 20
7956.0
 30
0.0
 11
5173.0
 21
8805.206924300318
 31
0.0
  0
LINE
  5
1E1F8
330
1E1F4
100
AcDbEntity
  8
0
  6
ByBlock
 62
     0
 48
50.0
100
AcDbLine
 10
5173.0
 20
8730.206924300317
 30
0.0
 11
5296.0
 21
8730.206924300317
 31
0.0
  0
LINE
  5
1E1F9
330
1E1F4
100
AcDbEntity
  8
0
  6
ByBlock
 62
     0
 48
50.0
100
AcDbLine
 10
5296.0
 20
8730.206924300317
 30
0.0
 11
5717.213203435597
 21
8730.206924300317
 31
0.0
  0
INSERT
  5
1E1FA
330
1E1F4
100
AcDbEntity
  8
0
  6
ByBlock
 62
     0
 48
50.0
100
AcDbBlockReference
  2
_DOTSMALL
 10
5173.0
 20
8730.206924300317
 30
0.0
 41
125.0
 42
125.0
 43
125.0
 50
180.0
  0
INSERT
  5
1E1FB
330
1E1F4
100
AcDbEntity
  8
0
  6
ByBlock
 62
     0
 48
50.0
100
AcDbBlockReference
  2
_DOTSMALL
 10
5296.0
 20
8730.206924300317
 30
0.0
 41
125.0
 42
125.0
 43
125.0
  0
MTEXT
  5
1E1FC
330
1E1F4
100
AcDbEntity
  8
0
  6
ByBlock
 62
     7
 48
50.0
100
AcDbMText
 10
5569.106601717798
 20
8830.221688079843
 30
0.0
 40
150.0
 41
0.0
 71
     5
 72
     1
  1
\A1;123
  7
STYLE1
 73
     1
 44
1.0
1001
ACAD
1000
MTEXTBEGIN
1070
    73
1070
     1
1070
    44
1040
1.0
1070
    74
1070
     0
1000
MTEXTEND
  0
POINT
  5
1E1FD
330
1E1F4
100
AcDbEntity
  8
DEFPOINTS
  6
ByBlock
 62
     0
 48
50.0
100
AcDbPoint
 10
5296.0
 20
8004.0
 30
0.0
  0
POINT
  5
1E1FE
330
1E1F4
100
AcDbEntity
  8
DEFPOINTS
  6
ByBlock
 62
     0
 48
50.0
100
AcDbPoint
 10
5173.0
 20
7931.0
 30
0.0
  0
POINT
  5
1E1FF
330
1E1F4
100
AcDbEntity
  8
DEFPOINTS
  6
ByBlock
 62
     0
 48
50.0
100
AcDbPoint
 10
5173.0
 20
8730.206924300317
 30
0.0
  0
ENDBLK
  5
1E200
330
1E1F4
100
AcDbEntity
  8
0
 48
50.0
100
AcDbBlockEnd
  0
BLOCK
  5
1E202
330
1E201
100
AcDbEntity
  8
0
 48
50.0
100
AcDbBlockBegin
  2
*D16
 70
     1
 10
0.0
 20
0.0
 30
0.0
  3
*D16
  1

  0
LINE
  5
1E203
330
1E201
100
AcDbEntity
  8
0
  6
ByBlock
 62
     0
 48
50.0
100
AcDbLine
 10
4765.91864628953
 20
8004.0
 30
0.0
 11
5028.847448568776
 21
8004.0
 31
0.0
  0
LINE
  5
1E204
330
1E201
100
AcDbEntity
  8
0
  6
ByBlock
 62
     0
 48
50.0
100
AcDbLine
 10
4765.91864628953
 20
7903.999999999998
 30
0.0
 11
5028.847448568776
 21
7903.999999999998
 31
0.0
  0
LINE
  5
1E205
330
1E201
100
AcDbEntity
  8
0
  6
ByBlock
 62
     0
 48
50.0
100
AcDbLine
 10
4953.847448568776
 20
7903.999999999998
 30
0.0
 11
4953.847448568776
 21
8004.0
 31
0.0
  0
LINE
  5
1E206
330
1E201
100
AcDbEntity
  8
0
  6
ByBlock
 62
     0
 48
50.0
100
AcDbLine
 10
4953.847448568776
 20
8004.0
 30
0.0
 11
4953.847448568776
 21
8419.118110236221
 31
0.0
  0
INSERT
  5
1E207
330
1E201
100
AcDbEntity
  8
0
  6
ByBlock
 62
     0
 48
50.0
100
AcDbBlockReference
  2
_DOTSMALL
 10
4953.847448568776
 20
7903.999999999998
 30
0.0
 41
125.0
 42
125.0
 43
125.0
 50
270.0
  0
INSERT
  5
1E208
330
1E201
100
AcDbEntity
  8
0
  6
ByBlock
 62
     0
 48
50.0
100
AcDbBlockReference
  2
_DOTSMALL
 10
4953.847448568776
 20
8004.0
 30
0.0
 41
125.0
 42
125.0
 43
125.0
 50
90.0
  0
MTEXT
  5
1E209
330
1E201
100
AcDbEntity
  8
0
  6
ByBlock
 62
     7
 48
50.0
100
AcDbMText
 10
4853.847448568776
 20
8274.05905511811
 30
0.0
 40
150.0
 41
0.0
 71
     5
 72
     1
  1
\A1;100
  7
STYLE1
 11
0.0000000000000001
 21
1.0
 31
0.0
 73
     1
 44
1.0
1001
ACAD
1000
MTEXTBEGIN
1070
    73
1070
     1
1070
    44
1040
1.0
1070
    74
1070
     0
1000
MTEXTEND
  0
POINT
  5
1E20A
330
1E201
100
AcDbEntity
  8
DEFPOINTS
  6
ByBlock
 62
     0
 48
50.0
100
AcDbPoint
 10
4740.91864628953
 20
8004.0
 30
0.0
  0
POINT
  5
1E20B
330
1E201
100
AcDbEntity
  8
DEFPOINTS
  6
ByBlock
 62
     0
 48
50.0
100
AcDbPoint
 10
4740.91864628953
 20
7903.999999999998
 30
0.0
  0
POINT
  5
1E20C
330
1E201
100
AcDbEntity
  8
DEFPOINTS
  6
ByBlock
 62
     0
 48
50.0
100
AcDbPoint
 10
4953.847448568776
 20
7903.999999999998
 30
0.0
  0
ENDBLK
  5
1E20D
330
1E201
100
AcDbEntity
  8
0
 48
50.0
100
AcDbBlockEnd
  0
BLOCK
  5
1E20F
330
1E20E
100
AcDbEntity
  8
0
 48
50.0
100
AcDbBlockBegin
  2
*D17
 70
     1
 10
0.0
 20
0.0
 30
0.0
  3
*D17
  1

  0
LINE
  5
1E210
330
1E20E
100
AcDbEntity
  8
0
  6
ByBlock
 62
     0
 48
50.0
100
AcDbLine
 10
3796.000000000001
 20
2529.000000000007
 30
0.0
 11
3796.000000000001
 21
2931.6104948313
 31
0.0
  0
LINE
  5
1E211
330
1E20E
100
AcDbEntity
  8
0
  6
ByBlock
 62
     0
 48
50.0
100
AcDbLine
 10
3595.999999999998
 20
2529.000000000004
 30
0.0
 11
3595.999999999998
 21
2931.6104948313
 31
0.0
  0
LINE
  5
1E212
330
1E20E
100
AcDbEntity
  8
0
  6
ByBlock
 62
     0
 48
50.0
100
AcDbLine
 10
3796.000000000001
 20
2856.610494831301
 30
0.0
 11
3595.999999999998
 21
2856.610494831301
 31
0.0
  0
LINE
  5
1E213
330
1E20E
100
AcDbEntity
  8
0
  6
ByBlock
 62
     0
 48
50.0
100
AcDbLine
 10
3595.999999999998
 20
2856.610494831301
 30
0.0
 11
3122.996254565651
 21
2856.610494831301
 31
0.0
  0
INSERT
  5
1E214
330
1E20E
100
AcDbEntity
  8
0
  6
ByBlock
 62
     0
 48
50.0
100
AcDbBlockReference
  2
_DOTSMALL
 10
3796.000000000001
 20
2856.610494831301
 30
0.0
 41
125.0
 42
125.0
 43
125.0
  0
INSERT
  5
1E215
330
1E20E
100
AcDbEntity
  8
0
  6
ByBlock
 62
     0
 48
50.0
100
AcDbBlockReference
  2
_DOTSMALL
 10
3595.999999999998
 20
2856.610494831301
 30
0.0
 41
125.0
 42
125.0
 43
125.0
 50
180.0
  0
MTEXT
  5
1E216
330
1E20E
100
AcDbEntity
  8
0
  6
ByBlock
 62
     7
 48
50.0
100
AcDbMText
 10
3284.959837242816
 20
2956.625258610828
 30
0.0
 40
150.0
 41
0.0
 71
     5
 72
     1
  1
\A1;200
  7
STYLE1
 73
     1
 44
1.0
1001
ACAD
1000
MTEXTBEGIN
1070
    73
1070
     1
1070
    44
1040
1.0
1070
    74
1070
     0
1000
MTEXTEND
  0
POINT
  5
1E217
330
1E20E
100
AcDbEntity
  8
DEFPOINTS
  6
ByBlock
 62
     0
 48
50.0
100
AcDbPoint
 10
3796.000000000001
 20
2504.000000000007
 30
0.0
  0
POINT
  5
1E218
330
1E20E
100
AcDbEntity
  8
DEFPOINTS
  6
ByBlock
 62
     0
 48
50.0
100
AcDbPoint
 10
3595.999999999998
 20
2504.000000000004
 30
0.0
  0
POINT
  5
1E219
330
1E20E
100
AcDbEntity
  8
DEFPOINTS
  6
ByBlock
 62
     0
 48
50.0
100
AcDbPoint
 10
3595.999999999998
 20
2856.610494831301
 30
0.0
  0
ENDBLK
  5
1E21A
330
1E20E
100
AcDbEntity
  8
0
 48
50.0
100
AcDbBlockEnd
  0
BLOCK
  5
1E21C
330
1E21B
100
AcDbEntity
  8
0
 48
50.0
100
AcDbBlockBegin
  2
*D18
 70
     1
 10
0.0
 20
0.0
 30
0.0
  3
*D18
  1

  0
LINE
  5
1E21D
330
1E21B
100
AcDbEntity
  8
0
  6
ByBlock
 62
     0
 48
50.0
100
AcDbLine
 10
4421.0
 20
2204.000000000009
 30
0.0
 11
4870.266817430558
 21
2204.000000000009
 31
0.0
  0
LINE
  5
1E21E
330
1E21B
100
AcDbEntity
  8
0
  6
ByBlock
 62
     0
 48
50.0
100
AcDbLine
 10
4471.0
 20
3104.0
 30
0.0
 11
4870.266817430558
 21
3104.0
 31
0.0
  0
LINE
  5
1E21F
330
1E21B
100
AcDbEntity
  8
0
  6
ByBlock
 62
     0
 48
50.0
100
AcDbLine
 10
4795.266817430558
 20
2204.000000000009
 30
0.0
 11
4795.266817430558
 21
3104.0
 31
0.0
  0
INSERT
  5
1E220
330
1E21B
100
AcDbEntity
  8
0
  6
ByBlock
 62
     0
 48
50.0
100
AcDbBlockReference
  2
_DOTSMALL
 10
4795.266817430558
 20
2204.000000000009
 30
0.0
 41
125.0
 42
125.0
 43
125.0
 50
270.0
  0
INSERT
  5
1E221
330
1E21B
100
AcDbEntity
  8
0
  6
ByBlock
 62
     0
 48
50.0
100
AcDbBlockReference
  2
_DOTSMALL
 10
4795.266817430558
 20
3104.0
 30
0.0
 41
125.0
 42
125.0
 43
125.0
 50
90.0
  0
MTEXT
  5
1E222
330
1E21B
100
AcDbEntity
  8
0
  6
ByBlock
 62
     7
 48
50.0
100
AcDbMText
 10
4695.266817430558
 20
2654.000000000005
 30
0.0
 40
150.0
 41
0.0
 71
     5
 72
     1
  1
\A1;900
  7
STYLE1
 11
0.0000000000000001
 21
1.0
 31
0.0
 73
     1
 44
1.0
1001
ACAD
1000
MTEXTBEGIN
1070
    73
1070
     1
1070
    44
1040
1.0
1070
    74
1070
     0
1000
MTEXTEND
  0
POINT
  5
1E223
330
1E21B
100
AcDbEntity
  8
DEFPOINTS
  6
ByBlock
 62
     0
 48
50.0
100
AcDbPoint
 10
4396.0
 20
2204.000000000009
 30
0.0
  0
POINT
  5
1E224
330
1E21B
100
AcDbEntity
  8
DEFPOINTS
  6
ByBlock
 62
     0
 48
50.0
100
AcDbPoint
 10
4446.0
 20
3104.0
 30
0.0
  0
POINT
  5
1E225
330
1E21B
100
AcDbEntity
  8
DEFPOINTS
  6
ByBlock
 62
     0
 48
50.0
100
AcDbPoint
 10
4795.266817430558
 20
3104.0
 30
0.0
  0
ENDBLK
  5
1E226
330
1E21B
100
AcDbEntity
  8
0
 48
50.0
100
AcDbBlockEnd
  0
BLOCK
  5
1E228
330
1E227
100
AcDbEntity
  8
0
 48
50.0
100
AcDbBlockBegin
  2
*D19
 70
     1
 10
0.0
 20
0.0
 30
0.0
  3
*D19
  1

  0
LINE
  5
1E229
330
1E227
100
AcDbEntity
  8
0
  6
ByBlock
 62
     0
 48
50.0
100
AcDbLine
 10
4421.0
 20
4004.0
 30
0.0
 11
4870.266817430558
 21
4004.0
 31
0.0
  0
LINE
  5
1E22A
330
1E227
100
AcDbEntity
  8
0
  6
ByBlock
 62
     0
 48
50.0
100
AcDbLine
 10
4795.266817430558
 20
3104.0
 30
0.0
 11
4795.266817430558
 21
4004.0
 31
0.0
  0
INSERT
  5
1E22B
330
1E227
100
AcDbEntity
  8
0
  6
ByBlock
 62
     0
 48
50.0
100
AcDbBlockReference
  2
_DOTSMALL
 10
4795.266817430558
 20
3104.0
 30
0.0
 41
125.0
 42
125.0
 43
125.0
 50
270.0
  0
INSERT
  5
1E22C
330
1E227
100
AcDbEntity
  8
0
  6
ByBlock
 62
     0
 48
50.0
100
AcDbBlockReference
  2
_DOTSMALL
 10
4795.266817430558
 20
4004.0
 30
0.0
 41
125.0
 42
125.0
 43
125.0
 50
90.0
  0
MTEXT
  5
1E22D
330
1E227
100
AcDbEntity
  8
0
  6
ByBlock
 62
     7
 48
50.0
100
AcDbMText
 10
4695.266817430558
 20
3554.0
 30
0.0
 40
150.0
 41
0.0
 71
     5
 72
     1
  1
\A1;900
  7
STYLE1
 11
0.0000000000000001
 21
1.0
 31
0.0
 73
     1
 44
1.0
1001
ACAD
1000
MTEXTBEGIN
1070
    73
1070
     1
1070
    44
1040
1.0
1070
    74
1070
     0
1000
MTEXTEND
  0
POINT
  5
1E22E
330
1E227
100
AcDbEntity
  8
DEFPOINTS
  6
ByBlock
 62
     0
 48
50.0
100
AcDbPoint
 10
4446.0
 20
3104.0
 30
0.0
  0
POINT
  5
1E22F
330
1E227
100
AcDbEntity
  8
DEFPOINTS
  6
ByBlock
 62
     0
 48
50.0
100
AcDbPoint
 10
4396.0
 20
4004.0
 30
0.0
  0
POINT
  5
1E230
330
1E227
100
AcDbEntity
  8
DEFPOINTS
  6
ByBlock
 62
     0
 48
50.0
100
AcDbPoint
 10
4795.266817430558
 20
4004.0
 30
0.0
  0
ENDBLK
  5
1E231
330
1E227
100
AcDbEntity
  8
0
 48
50.0
100
AcDbBlockEnd
  0
BLOCK
  5
1E233
330
1E232
100
AcDbEntity
  8
0
 48
50.0
100
AcDbBlockBegin
  2
*D20
 70
     1
 10
0.0
 20
0.0
 30
0.0
  3
*D20
  1

  0
LINE
  5
1E234
330
1E232
100
AcDbEntity
  8
0
  6
ByBlock
 62
     0
 48
50.0
100
AcDbLine
 10
3496.0
 20
4029.0
 30
0.0
 11
3496.0
 21
4605.909765648328
 31
0.0
  0
LINE
  5
1E235
330
1E232
100
AcDbEntity
  8
0
  6
ByBlock
 62
     0
 48
50.0
100
AcDbLine
 10
4396.0
 20
4530.909765648328
 30
0.0
 11
3496.0
 21
4530.909765648328
 31
0.0
  0
INSERT
  5
1E236
330
1E232
100
AcDbEntity
  8
0
  6
ByBlock
 62
     0
 48
50.0
100
AcDbBlockReference
  2
_DOTSMALL
 10
4396.0
 20
4530.909765648328
 30
0.0
 41
125.0
 42
125.0
 43
125.0
  0
INSERT
  5
1E237
330
1E232
100
AcDbEntity
  8
0
  6
ByBlock
 62
     0
 48
50.0
100
AcDbBlockReference
  2
_DOTSMALL
 10
3496.0
 20
4530.909765648328
 30
0.0
 41
125.0
 42
125.0
 43
125.0
 50
180.0
  0
MTEXT
  5
1E238
330
1E232
100
AcDbEntity
  8
0
  6
ByBlock
 62
     7
 48
50.0
100
AcDbMText
 10
3946.0
 20
4630.909765648328
 30
0.0
 40
150.0
 41
0.0
 71
     5
 72
     1
  1
\A1;900
  7
STYLE1
 73
     1
 44
1.0
1001
ACAD
1000
MTEXTBEGIN
1070
    73
1070
     1
1070
    44
1040
1.0
1070
    74
1070
     0
1000
MTEXTEND
  0
POINT
  5
1E239
330
1E232
100
AcDbEntity
  8
DEFPOINTS
  6
ByBlock
 62
     0
 48
50.0
100
AcDbPoint
 10
4396.0
 20
3304.0
 30
0.0
  0
POINT
  5
1E23A
330
1E232
100
AcDbEntity
  8
DEFPOINTS
  6
ByBlock
 62
     0
 48
50.0
100
AcDbPoint
 10
3496.0
 20
4004.0
 30
0.0
  0
POINT
  5
1E23B
330
1E232
100
AcDbEntity
  8
DEFPOINTS
  6
ByBlock
 62
     0
 48
50.0
100
AcDbPoint
 10
3496.0
 20
4530.909765648328
 30
0.0
  0
ENDBLK
  5
1E23C
330
1E232
100
AcDbEntity
  8
0
 48
50.0
100
AcDbBlockEnd
  0
BLOCK
  5
1E23E
330
1E23D
100
AcDbEntity
  8
0
 48
50.0
100
AcDbBlockBegin
  2
*D21
 70
     1
 10
0.0
 20
0.0
 30
0.0
  3
*D21
  1

  0
LINE
  5
1E23F
330
1E23D
100
AcDbEntity
  8
0
  6
ByBlock
 62
     0
 48
50.0
100
AcDbLine
 10
5296.0
 20
4029.0
 30
0.0
 11
5296.0
 21
4605.909765648328
 31
0.0
  0
LINE
  5
1E240
330
1E23D
100
AcDbEntity
  8
0
  6
ByBlock
 62
     0
 48
50.0
100
AcDbLine
 10
4396.0
 20
3329.0
 30
0.0
 11
4396.0
 21
4605.909765648328
 31
0.0
  0
LINE
  5
1E241
330
1E23D
100
AcDbEntity
  8
0
  6
ByBlock
 62
     0
 48
50.0
100
AcDbLine
 10
5296.0
 20
4530.909765648328
 30
0.0
 11
4396.0
 21
4530.909765648328
 31
0.0
  0
INSERT
  5
1E242
330
1E23D
100
AcDbEntity
  8
0
  6
ByBlock
 62
     0
 48
50.0
100
AcDbBlockReference
  2
_DOTSMALL
 10
5296.0
 20
4530.909765648328
 30
0.0
 41
125.0
 42
125.0
 43
125.0
  0
INSERT
  5
1E243
330
1E23D
100
AcDbEntity
  8
0
  6
ByBlock
 62
     0
 48
50.0
100
AcDbBlockReference
  2
_DOTSMALL
 10
4396.0
 20
4530.909765648328
 30
0.0
 41
125.0
 42
125.0
 43
125.0
 50
180.0
  0
MTEXT
  5
1E244
330
1E23D
100
AcDbEntity
  8
0
  6
ByBlock
 62
     7
 48
50.0
100
AcDbMText
 10
4866.91852200628
 20
4630.909765648328
 30
0.0
 40
150.0
 41
0.0
 71
     5
 72
     1
  1
\A1;900
  7
STYLE1
 73
     1
 44
1.0
1001
ACAD
1000
MTEXTBEGIN
1070
    73
1070
     1
1070
    44
1040
1.0
1070
    74
1070
     0
1000
MTEXTEND
  0
POINT
  5
1E245
330
1E23D
100
AcDbEntity
  8
DEFPOINTS
  6
ByBlock
 62
     0
 48
50.0
100
AcDbPoint
 10
5296.0
 20
4004.0
 30
0.0
  0
POINT
  5
1E246
330
1E23D
100
AcDbEntity
  8
DEFPOINTS
  6
ByBlock
 62
     0
 48
50.0
100
AcDbPoint
 10
4396.0
 20
3304.0
 30
0.0
  0
POINT
  5
1E247
330
1E23D
100
AcDbEntity
  8
DEFPOINTS
  6
ByBlock
 62
     0
 48
50.0
100
AcDbPoint
 10
4396.0
 20
4530.909765648328
 30
0.0
  0
ENDBLK
  5
1E248
330
1E23D
100
AcDbEntity
  8
0
 48
50.0
100
AcDbBlockEnd
  0
BLOCK
  5
1E24A
330
1E249
100
AcDbEntity
  8
0
 48
50.0
100
AcDbBlockBegin
  2
*D22
 70
     1
 10
0.0
 20
0.0
 30
0.0
  3
*D22
  1

  0
LINE
  5
1E24B
330
1E249
100
AcDbEntity
  8
0
  6
ByBlock
 62
     0
 48
50.0
100
AcDbLine
 10
5196.0
 20
7079.000000000007
 30
0.0
 11
5196.0
 21
6928.700321064884
 31
0.0
  0
LINE
  5
1E24C
330
1E249
100
AcDbEntity
  8
0
  6
ByBlock
 62
     0
 48
50.0
100
AcDbLine
 10
5296.0
 20
7079.000000000007
 30
0.0
 11
5296.0
 21
6928.700321064884
 31
0.0
  0
LINE
  5
1E24D
330
1E249
100
AcDbEntity
  8
0
  6
ByBlock
 62
     0
 48
50.0
100
AcDbLine
 10
5196.0
 20
7003.700321064883
 30
0.0
 11
5296.0
 21
7003.700321064883
 31
0.0
  0
LINE
  5
1E24E
330
1E249
100
AcDbEntity
  8
0
  6
ByBlock
 62
     0
 48
50.0
100
AcDbLine
 10
5296.0
 20
7003.700321064883
 30
0.0
 11
5711.11811023622
 21
7003.700321064883
 31
0.0
  0
INSERT
  5
1E24F
330
1E249
100
AcDbEntity
  8
0
  6
ByBlock
 62
     0
 48
50.0
100
AcDbBlockReference
  2
_DOTSMALL
 10
5196.0
 20
7003.700321064883
 30
0.0
 41
125.0
 42
125.0
 43
125.0
 50
180.0
  0
INSERT
  5
1E250
330
1E249
100
AcDbEntity
  8
0
  6
ByBlock
 62
     0
 48
50.0
100
AcDbBlockReference
  2
_DOTSMALL
 10
5296.0
 20
7003.700321064883
 30
0.0
 41
125.0
 42
125.0
 43
125.0
  0
MTEXT
  5
1E251
330
1E249
100
AcDbEntity
  8
0
  6
ByBlock
 62
     7
 48
50.0
100
AcDbMText
 10
5566.05905511811
 20
7103.700321064883
 30
0.0
 40
150.0
 41
0.0
 71
     5
 72
     1
  1
\A1;100
  7
STYLE1
 73
     1
 44
1.0
1001
ACAD
1000
MTEXTBEGIN
1070
    73
1070
     1
1070
    44
1040
1.0
1070
    74
1070
     0
1000
MTEXTEND
  0
POINT
  5
1E252
330
1E249
100
AcDbEntity
  8
DEFPOINTS
  6
ByBlock
 62
     0
 48
50.0
100
AcDbPoint
 10
5196.0
 20
7104.000000000008
 30
0.0
  0
POINT
  5
1E253
330
1E249
100
AcDbEntity
  8
DEFPOINTS
  6
ByBlock
 62
     0
 48
50.0
100
AcDbPoint
 10
5296.0
 20
7104.000000000008
 30
0.0
  0
POINT
  5
1E254
330
1E249
100
AcDbEntity
  8
DEFPOINTS
  6
ByBlock
 62
     0
 48
50.0
100
AcDbPoint
 10
5296.0
 20
7003.700321064883
 30
0.0
  0
ENDBLK
  5
1E255
330
1E249
100
AcDbEntity
  8
0
 48
50.0
100
AcDbBlockEnd
  0
BLOCK
  5
1E2A5
330
1E256
100
AcDbEntity
  8
0
 48
50.0
100
AcDbBlockBegin
  2
A$C56A41A26
 70
     0
 10
0.0
 20
0.0
 30
0.0
  3
A$C56A41A26
  1

  0
LINE
  5
1E257
330
1E256
100
AcDbEntity
  8
部品1
 48
50.0
100
AcDbLine
 10
2708.994140400603
 20
2627.271234847374
 30
0.0
 11
908.9941404006022
 21
2627.271234847374
 31
0.0
  0
LINE
  5
1E258
330
1E256
100
AcDbEntity
  8
部品1
 48
50.0
100
AcDbLine
 10
2708.994140400602
 20
2727.271234847376
 30
0.0
 11
908.9941404006022
 21
2727.271234847376
 31
0.0
  0
LINE
  5
1E259
330
1E256
100
AcDbEntity
  8
想像線
 48
10.0
100
AcDbLine
 10
858.9941404005985
 20
2817.271234847376
 30
0.0
 11
2758.994140400606
 21
2817.27123484738
 31
0.0
  0
LINE
  5
1E25A
330
1E256
100
AcDbEntity
  8
想像線
 48
10.0
100
AcDbLine
 10
2758.994140400603
 20
797.2712348473724
 30
0.0
 11
858.9941404006022
 21
797.271234847376
 31
0.0
  0
LINE
  5
1E25B
330
1E256
100
AcDbEntity
  8
部品1
 48
50.0
100
AcDbLine
 10
2708.994140400602
 20
927.2712348473943
 30
0.0
 11
908.9941404006022
 21
927.271234847376
 31
0.0
  0
DIMENSION
  5
1E25C
330
1E256
100
AcDbEntity
  8
寸法
 48
50.0
100
AcDbDimension
  2
*D5
 10
1444.747864477533
 20
927.2712348473778
 30
0.0
 11
1444.747864477533
 21
649.1876915744906
 31
0.0
 12
-2587.005859599398
 22
-5696.728765152624
 32
0.0
 70
   128
 71
     5
 42
-1.0
  3
INABA_S50G
100
AcDbAlignedDimension
 13
1138.994140400603
 23
1027.271234847381
 33
0.0
 14
1138.994140400604
 24
927.2712348473778
 34
0.0
 50
90.0
100
AcDbRotatedDimension
1001
ACAD
1000
DSTYLE
1002
{
1070
   288
1070
     1
1070
    40
1040
1.0
1002
}
  0
LINE
  5
1E25D
330
1E256
100
AcDbEntity
  8
部品1
 48
50.0
100
AcDbLine
 10
2708.994140400603
 20
1027.271234847398
 30
0.0
 11
908.9941404006022
 21
1027.27123484738
 31
0.0
  0
DIMENSION
  5
1E25E
330
1E256
100
AcDbEntity
  8
寸法
 48
50.0
100
AcDbDimension
  2
*D4
 10
1444.747864477533
 20
1227.271234847383
 30
0.0
 11
1444.747864477533
 21
1514.234817524549
 31
0.0
 12
-2587.005859599398
 22
-1276.728765152624
 32
0.0
 70
   128
 71
     5
 42
-1.0
  3
INABA_S50G
100
AcDbAlignedDimension
 13
1138.994140400603
 23
1027.27123484738
 33
0.0
 14
1208.994140400603
 24
1227.271234847383
 34
0.0
 50
90.0
100
AcDbRotatedDimension
1001
ACAD
1000
DSTYLE
1002
{
1070
   288
1070
     1
1070
    40
1040
1.0
1002
}
  0
MTEXT
  5
1E25F
102
{ACAD_REACTORS
330
1E260
102
}
330
1E256
100
AcDbEntity
  8
寸法
 62
     7
 48
50.0
100
AcDbMText
 10
1566.166025099446
 20
2207.190649171135
 30
0.0
 40
150.0
 41
0.0
 71
     6
 72
     1
  1
\A1;C.B
  7
STYLE1
 73
     1
 44
1.0
1001
ACAD
1000
MTEXTBEGIN
1070
    73
1070
     1
1070
    44
1040
1.0
1070
    74
1070
     0
1000
MTEXTEND
  0
LEADER
  5
1E260
330
1E256
100
AcDbEntity
  8
寸法
 48
50.0
100
AcDbLeader
  3
INABA_S50G
 73
     0
 75
     1
 40
150.0
 41
231.9898538650463
 76
     3
 10
1759.920575772113
 20
1978.037610834701
 30
0.0
 10
1716.166025099446
 20
2107.190649171135
 30
0.0
 10
1591.166025099446
 20
2107.190649171135
 30
0.0
340
1E25F
1001
ACAD
1000
DSTYLE
1002
{
1070
    40
1040
1.0
1002
}
  0
DIMENSION
  5
1E261
330
1E256
100
AcDbEntity
  8
寸法
 48
50.0
100
AcDbDimension
  2
*D3
 10
1031.994140400602
 20
3453.478159147693
 30
0.0
 11
1808.994140400602
 21
3553.478159147693
 31
0.0
 12
-2587.005859599398
 22
-5276.728765152624
 32
0.0
 71
     5
 42
-1.0
  3
INABA_S50G
100
AcDbAlignedDimension
 13
2585.994140400603
 23
2654.271234847376
 33
0.0
 14
1031.994140400602
 24
2654.271234847376
 34
0.0
100
AcDbRotatedDimension
1001
ACAD
1000
DSTYLE
1002
{
1070
    40
1040
1.0
1070
    75
1070
     1
1070
   279
1070
     1
1002
}
  0
DIMENSION
  5
1E262
330
1E256
100
AcDbEntity
  8
寸法
 48
50.0
100
AcDbDimension
  2
*D2
 10
2708.994140400602
 20
3665.93885466453
 30
0.0
 11
1808.994140400602
 21
3765.93885466453
 31
0.0
 12
-2587.005859599398
 22
-5276.728765152624
 32
0.0
 71
     5
 42
-1.0
  3
INABA_S50G
100
AcDbAlignedDimension
 13
908.9941404006022
 23
2727.271234847376
 33
0.0
 14
2708.994140400602
 24
2727.271234847376
 34
0.0
100
AcDbRotatedDimension
1001
ACAD
1000
DSTYLE
1002
{
1070
    40
1040
1.0
1070
    75
1070
     1
1070
   279
1070
     1
1002
}
  0
DIMENSION
  5
1E263
330
1E256
100
AcDbEntity
  8
寸法
 48
50.0
100
AcDbDimension
  2
*D20
 10
908.9941404006022
 20
3254.181000495704
 30
0.0
 11
1358.994140400602
 21
3354.181000495704
 31
0.0
 12
-2587.005859599398
 22
-1276.728765152624
 32
0.0
 71
     5
 42
-1.0
  3
INABA_S50G
100
AcDbAlignedDimension
 13
1808.994140400602
 23
2027.271234847376
 33
0.0
 14
908.9941404006022
 24
2727.271234847376
 34
0.0
100
AcDbRotatedDimension
1001
ACAD
1000
DSTYLE
1002
{
1070
    40
1040
1.0
1070
    75
1070
     1
1070
   279
1070
     1
1070
   288
1070
     1
1002
}
  0
DIMENSION
  5
1E264
330
1E256
100
AcDbEntity
  8
寸法
 48
50.0
100
AcDbDimension
  2
*D17
 10
1008.9941404006
 20
1579.881729678676
 30
0.0
 11
697.9539776434176
 21
1579.881729678676
 31
0.0
 12
-2587.005859599398
 22
-1276.728765152624
 32
0.0
 70
   128
 71
     5
 42
-1.0
  3
INABA_S50G
100
AcDbAlignedDimension
 13
1208.994140400603
 23
1227.271234847383
 33
0.0
 14
1008.9941404006
 24
1227.271234847379
 34
0.0
100
AcDbRotatedDimension
1001
ACAD
1000
DSTYLE
1002
{
1070
    40
1040
1.0
1002
}
  0
LINE
  5
1E265
330
1E256
100
AcDbEntity
  8
部品1
 48
50.0
100
AcDbLine
 10
1008.994140400602
 20
1027.27123484738
 30
0.0
 11
1008.994140400602
 21
2627.271234847373
 31
0.0
  0
DIMENSION
  5
1E266
330
1E256
100
AcDbEntity
  8
寸法
 48
50.0
100
AcDbDimension
  2
*D9
 10
413.0518743867797
 20
1125.271234847378
 30
0.0
 11
413.0518743867797
 21
1827.271234847376
 31
0.0
 12
-2587.005859599398
 22
-1276.728765152624
 32
0.0
 70
   128
 71
     5
 42
-1.0
  3
INABA_S50G
100
AcDbAlignedDimension
 13
981.9941404006021
 23
2604.271234847376
 33
0.0
 14
981.9941404006085
 24
1125.271234847378
 34
0.0
 50
90.0
100
AcDbRotatedDimension
1001
ACAD
1000
DSTYLE
1002
{
1070
   288
1070
     1
1070
    40
1040
1.0
1002
}
  0
DIMENSION
  5
1E267
330
1E256
100
AcDbEntity
  8
寸法
 48
50.0
100
AcDbDimension
  2
*D12
 10
167.5590722488123
 20
927.271234847376
 30
0.0
 11
67.5590722488123
 21
1827.271234847376
 31
0.0
 12
-2587.005859599398
 22
-1276.728765152624
 32
0.0
 71
     5
 42
-1.0
  3
INABA_S50G
100
AcDbAlignedDimension
 13
908.9941404006022
 23
2727.271234847376
 33
0.0
 14
908.9941404006022
 24
927.271234847376
 34
0.0
 50
90.0
100
AcDbRotatedDimension
1001
ACAD
1000
DSTYLE
1002
{
1070
    40
1040
1.0
1070
    75
1070
     1
1070
   279
1070
     1
1002
}
  0
LINE
  5
1E268
330
1E256
100
AcDbEntity
  8
想像線
 48
10.0
100
AcDbLine
 10
858.9941404006022
 20
797.271234847376
 30
0.0
 11
858.9941404006022
 21
2817.27123484738
 31
0.0
  0
LINE
  5
1E269
330
1E256
100
AcDbEntity
  8
部品1
 48
50.0
100
AcDbLine
 10
908.9941404006022
 20
927.271234847376
 30
0.0
 11
908.9941404006022
 21
2727.271234847376
 31
0.0
  0
DIMENSION
  5
1E26A
330
1E256
100
AcDbEntity
  8
寸法
 48
50.0
100
AcDbDimension
  2
*D11
 10
167.5590722488123
 20
797.271234847376
 30
0.0
 11
67.5590722488123
 21
1282.271234847376
 31
0.0
 12
-2587.005859599398
 22
-5696.728765152624
 32
0.0
  1
b
 71
     5
 42
-1.0
  3
INABA_S50G
100
AcDbAlignedDimension
 13
908.9941404006022
 23
927.271234847376
 33
0.0
 14
413.0518743867797
 24
797.271234847376
 34
0.0
 50
90.0
100
AcDbRotatedDimension
1001
ACAD
1000
DSTYLE
1002
{
1070
    40
1040
1.0
1002
}
  0
DIMENSION
  5
1E26B
330
1E256
100
AcDbEntity
  8
寸法
 48
50.0
100
AcDbDimension
  2
*D6
 10
413.0518743867797
 20
927.271234847376
 30
0.0
 11
413.0518743867797
 21
591.7402860047841
 31
0.0
 12
-2587.005859599398
 22
-5696.728765152624
 32
0.0
 70
   128
 71
     5
 42
-1.0
  3
INABA_S50G
100
AcDbAlignedDimension
 13
981.9941404006085
 23
1125.271234847378
 33
0.0
 14
908.9941404006022
 24
927.271234847376
 34
0.0
 50
90.0
100
AcDbRotatedDimension
1001
ACAD
1000
DSTYLE
1002
{
1070
    40
1040
1.0
1002
}
  0
LINE
  5
1E26C
330
1E256
100
AcDbEntity
  8
部品1
 48
50.0
100
AcDbLine
 10
1008.994140400602
 20
1427.27123484738
 30
0.0
 11
908.9941404006022
 21
1427.27123484738
 31
0.0
  0
LINE
  5
1E26D
330
1E256
100
AcDbEntity
  8
点線
 48
10.0
100
AcDbLine
 10
1208.994140400603
 20
1027.27123484738
 30
0.0
 11
1208.994140400603
 21
1227.271234847383
 31
0.0
  0
LINE
  5
1E26E
330
1E256
100
AcDbEntity
  8
センター
 48
2.0
100
AcDbLine
 10
981.9941404006085
 20
1125.271234847378
 30
0.0
 11
1081.994140400608
 21
1125.271234847378
 31
0.0
  0
LINE
  5
1E26F
330
1E256
100
AcDbEntity
  8
センター
 48
2.0
100
AcDbLine
 10
1031.994140400608
 20
1175.271234847378
 30
0.0
 11
1031.994140400608
 21
1075.271234847378
 31
0.0
  0
LINE
  5
1E270
330
1E256
100
AcDbEntity
  8
部品1
 48
50.0
100
AcDbLine
 10
1308.994140400602
 20
927.271234847376
 30
0.0
 11
1308.994140400602
 21
1027.271234847383
 31
0.0
  0
LINE
  5
1E271
330
1E256
100
AcDbEntity
  8
点線
 48
10.0
100
AcDbLine
 10
1208.994140400603
 20
1227.271234847383
 30
0.0
 11
1008.9941404006
 21
1227.271234847379
 31
0.0
  0
LINE
  5
1E272
330
1E256
100
AcDbEntity
  8
部品1
 48
50.0
100
AcDbLine
 10
1308.994140400602
 20
2627.271234847374
 30
0.0
 11
1308.994140400602
 21
2727.271234847382
 31
0.0
  0
DIMENSION
  5
1E273
330
1E256
100
AcDbEntity
  8
寸法
 48
50.0
100
AcDbDimension
  2
*D10
 10
413.0518743867797
 20
2604.271234847376
 30
0.0
 11
413.0518743867797
 21
3000.377836565175
 31
0.0
 12
-2587.005859599398
 22
-5276.728765152624
 32
0.0
 70
   128
 71
     5
 42
-1.0
  3
INABA_S50G
100
AcDbAlignedDimension
 13
908.9941404006022
 23
2727.271234847376
 33
0.0
 14
981.9941404006021
 24
2604.271234847376
 34
0.0
 50
90.0
100
AcDbRotatedDimension
1001
ACAD
1000
DSTYLE
1002
{
1070
    40
1040
1.0
1002
}
  0
DIMENSION
  5
1E274
330
1E256
100
AcDbEntity
  8
寸法
 48
50.0
100
AcDbDimension
  2
*D13
 10
167.5590722488123
 20
2727.271234847376
 30
0.0
 11
67.5590722488123
 21
2772.271234847374
 31
0.0
 12
-2587.005859599398
 22
-5276.728765152624
 32
0.0
  1
c
 71
     5
 42
-1.0
  3
INABA_S50G
100
AcDbAlignedDimension
 13
413.0518743867797
 23
2817.271234847373
 33
0.0
 14
908.9941404006022
 24
2727.271234847376
 34
0.0
 50
90.0
100
AcDbRotatedDimension
1001
ACAD
1000
DSTYLE
1002
{
1070
    40
1040
1.0
1002
}
  0
DIMENSION
  5
1E275
330
1E256
100
AcDbEntity
  8
寸法
 48
50.0
100
AcDbDimension
  2
*D8
 10
908.9941404006022
 20
3453.478159147693
 30
0.0
 11
628.6277673437908
 21
3453.478159147693
 31
0.0
 12
-2587.005859599398
 22
-5276.728765152624
 32
0.0
 70
   128
 71
     5
 42
-1.0
  3
INABA_S50G
100
AcDbAlignedDimension
 13
1031.994140400602
 23
2654.271234847376
 33
0.0
 14
908.9941404006022
 24
2727.271234847376
 34
0.0
100
AcDbRotatedDimension
1001
ACAD
1000
DSTYLE
1002
{
1070
    40
1040
1.0
1002
}
  0
LINE
  5
1E276
330
1E256
100
AcDbEntity
  8
部品1
 48
50.0
100
AcDbLine
 10
1008.994140400602
 20
1827.271234847379
 30
0.0
 11
908.9941404006022
 21
1827.271234847379
 31
0.0
  0
LINE
  5
1E277
330
1E256
100
AcDbEntity
  8
部品1
 48
50.0
100
AcDbLine
 10
1008.994140400602
 20
2227.271234847375
 30
0.0
 11
908.9941404006022
 21
2227.271234847374
 31
0.0
  0
LINE
  5
1E278
330
1E256
100
AcDbEntity
  8
点線
 48
10.0
100
AcDbLine
 10
1208.994140400601
 20
2427.271234847373
 30
0.0
 11
1008.994140400602
 21
2427.271234847375
 31
0.0
  0
LINE
  5
1E279
330
1E256
100
AcDbEntity
  8
センター
 48
2.0
100
AcDbLine
 10
1031.994140400602
 20
2654.271234847376
 30
0.0
 11
1031.994140400602
 21
2554.271234847376
 31
0.0
  0
LINE
  5
1E27A
330
1E256
100
AcDbEntity
  8
センター
 48
2.0
100
AcDbLine
 10
981.9941404006021
 20
2604.271234847376
 30
0.0
 11
1081.994140400602
 21
2604.271234847376
 31
0.0
  0
LINE
  5
1E27B
330
1E256
100
AcDbEntity
  8
点線
 48
10.0
100
AcDbLine
 10
1208.994140400601
 20
2427.271234847373
 30
0.0
 11
1208.994140400602
 21
2627.271234847373
 31
0.0
  0
DIMENSION
  5
1E27C
330
1E256
100
AcDbEntity
  8
寸法
 48
50.0
100
AcDbDimension
  2
*D7
 10
908.9941404006022
 20
3665.938854664532
 30
0.0
 11
669.0160925585151
 21
3665.938854664532
 31
0.0
 12
-2587.005859599398
 22
-5276.728765152624
 32
0.0
 70
   128
  1
a
 71
     5
 42
-1.0
  3
INABA_S50G
100
AcDbAlignedDimension
 13
851.734369061589
 23
3453.478159147689
 33
0.0
 14
908.9941404006022
 24
2727.271234847376
 34
0.0
100
AcDbRotatedDimension
1001
ACAD
1000
DSTYLE
1002
{
1070
    40
1040
1.0
1002
}
  0
LINE
  5
1E27D
330
1E256
100
AcDbEntity
  8
部品1
 48
50.0
100
AcDbLine
 10
1312.994140400602
 20
2727.271234847373
 30
0.0
 11
908.9941404006022
 21
2727.271234847376
 31
0.0
  0
LINE
  5
1E27E
330
1E256
100
AcDbEntity
  8
部品1
 48
50.0
100
AcDbLine
 10
2608.994140400602
 20
1027.271234847396
 30
0.0
 11
2608.994140400601
 21
2627.271234847373
 31
0.0
  0
LINE
  5
1E27F
330
1E256
100
AcDbEntity
  8
想像線
 48
10.0
100
AcDbLine
 10
2758.994140400603
 20
2817.27123484738
 30
0.0
 11
2758.994140400606
 21
797.271234847376
 31
0.0
  0
LINE
  5
1E280
330
1E256
100
AcDbEntity
  8
部品1
 48
50.0
100
AcDbLine
 10
2708.994140400602
 20
927.2712348473943
 30
0.0
 11
2708.994140400602
 21
2727.271234847376
 31
0.0
  0
DIMENSION
  5
1E281
330
1E256
100
AcDbEntity
  8
寸法
 48
50.0
100
AcDbDimension
  2
*D18
 10
2208.260957831161
 20
1827.271234847376
 30
0.0
 11
2208.260957831161
 21
1377.271234847381
 31
0.0
 12
-2587.005859599398
 22
-1276.728765152624
 32
0.0
 70
   128
 71
     5
 42
-1.0
  3
INABA_S50G
100
AcDbAlignedDimension
 13
1808.994140400602
 23
927.271234847385
 33
0.0
 14
1858.994140400602
 24
1827.271234847376
 34
0.0
 50
90.0
100
AcDbRotatedDimension
1001
ACAD
1000
DSTYLE
1002
{
1070
   288
1070
     1
1070
    40
1040
1.0
1002
}
  0
DIMENSION
  5
1E282
330
1E256
100
AcDbEntity
  8
寸法
 48
50.0
100
AcDbDimension
  2
*D22
 10
2708.994140400602
 20
1306.97155591226
 30
0.0
 11
2979.053195518713
 21
1306.97155591226
 31
0.0
 12
-2587.005859599398
 22
-5696.728765152624
 32
0.0
 70
   128
 71
     5
 42
-1.0
  3
INABA_S50G
100
AcDbAlignedDimension
 13
2608.994140400602
 23
1407.271234847383
 33
0.0
 14
2708.994140400602
 24
1407.271234847383
 34
0.0
100
AcDbRotatedDimension
1001
ACAD
1000
DSTYLE
1002
{
1070
    40
1040
1.0
1002
}
  0
TEXT
  5
1E283
330
1E256
100
AcDbEntity
  8
寸法
 48
50.0
100
AcDbText
 10
1431.428391756737
 20
210.9080740941899
 30
0.0
 40
150.0
  1
MBW-32
  7
STYLE2
100
AcDbText
  0
TEXT
  5
1E284
330
1E256
100
AcDbEntity
  8
寸法
 48
50.0
100
AcDbText
 10
1431.428391756737
 20
40.90807409418994
 30
0.0
 40
150.0
  1
MBW-32H
  7
STYLE2
100
AcDbText
  0
TEXT
  5
1E285
330
1E256
100
AcDbEntity
  8
寸法
 48
50.0
100
AcDbText
 10
1679.121083237383
 20
648.2218646227884
 30
0.0
 40
120.0
  1
扉面
  7
STYLE1
100
AcDbText
  0
LINE
  5
1E286
330
1E256
100
AcDbEntity
  8
部品1
 48
50.0
100
AcDbLine
 10
1908.994140400602
 20
1127.27123484739
 30
0.0
 11
1708.994140400602
 21
1127.271234847389
 31
0.0
  0
LINE
  5
1E287
330
1E256
100
AcDbEntity
  8
部品1
 48
50.0
100
AcDbLine
 10
1708.994140400602
 20
1127.271234847389
 30
0.0
 11
1708.994140400602
 21
1027.271234847389
 31
0.0
  0
LINE
  5
1E288
330
1E256
100
AcDbEntity
  8
部品1
 48
50.0
100
AcDbLine
 10
1708.994140400602
 20
927.2712348473797
 30
0.0
 11
1708.994140400602
 21
1027.271234847387
 31
0.0
  0
LINE
  5
1E289
330
1E256
100
AcDbEntity
  8
部品1
 48
50.0
100
AcDbLine
 10
1908.994140400602
 20
1127.271234847389
 30
0.0
 11
1908.994140400602
 21
1027.271234847389
 31
0.0
  0
LINE
  5
1E28A
330
1E256
100
AcDbEntity
  8
部品1
 48
50.0
100
AcDbLine
 10
2108.994140400602
 20
927.271234847376
 30
0.0
 11
2108.994140400602
 21
1027.271234847383
 31
0.0
  0
LINE
  5
1E28B
330
1E256
100
AcDbEntity
  8
センター
 48
2.0
100
AcDbLine
 10
2535.994140400609
 20
1125.271234847378
 30
0.0
 11
2635.994140400609
 21
1125.271234847378
 31
0.0
  0
LINE
  5
1E28C
330
1E256
100
AcDbEntity
  8
点線
 48
10.0
100
AcDbLine
 10
2608.9941404006
 20
1227.271234847396
 30
0.0
 11
2408.994140400601
 21
1227.271234847394
 31
0.0
  0
LINE
  5
1E28D
330
1E256
100
AcDbEntity
  8
点線
 48
10.0
100
AcDbLine
 10
2408.994140400603
 20
1027.271234847396
 30
0.0
 11
2408.994140400601
 21
1227.271234847394
 31
0.0
  0
LINE
  5
1E28E
330
1E256
100
AcDbEntity
  8
部品1
 48
50.0
100
AcDbLine
 10
2308.994140400602
 20
927.2712348473943
 30
0.0
 11
2308.994140400602
 21
1027.27123484739
 31
0.0
  0
LINE
  5
1E28F
330
1E256
100
AcDbEntity
  8
センター
 48
2.0
100
AcDbLine
 10
2585.994140400609
 20
1175.271234847378
 30
0.0
 11
2585.994140400609
 21
1075.271234847378
 31
0.0
  0
LINE
  5
1E290
330
1E256
100
AcDbEntity
  8
部品1
 48
50.0
100
AcDbLine
 10
2708.994140400603
 20
1427.271234847398
 30
0.0
 11
2608.994140400601
 21
1427.271234847396
 31
0.0
  0
DIMENSION
  5
1E291
330
1E256
100
AcDbEntity
  8
寸法
 48
50.0
100
AcDbDimension
  2
*D15
 10
2585.994140400603
 20
3453.478159147693
 30
0.0
 11
2982.100742118401
 21
3453.478159147693
 31
0.0
 12
-2587.005859599398
 22
-5276.728765152624
 32
0.0
 70
   128
 71
     5
 42
-1.0
  3
INABA_S50G
100
AcDbAlignedDimension
 13
2708.994140400602
 23
2727.271234847376
 33
0.0
 14
2585.994140400603
 24
2654.271234847376
 34
0.0
100
AcDbRotatedDimension
1001
ACAD
1000
DSTYLE
1002
{
1070
    40
1040
1.0
1002
}
  0
DIMENSION
  5
1E292
330
1E256
100
AcDbEntity
  8
寸法
 48
50.0
100
AcDbDimension
  2
*D14
 10
2751.734369061589
 20
3665.938854664532
 30
0.0
 11
3059.452645564663
 21
3665.938854664532
 31
0.0
 12
-2587.005859599398
 22
-5276.728765152624
 32
0.0
 70
   128
  1
a
 71
     5
 42
-1.0
  3
INABA_S50G
100
AcDbAlignedDimension
 13
2708.994140400602
 23
2727.271234847376
 33
0.0
 14
2751.734369061589
 24
3453.478159147695
 34
0.0
100
AcDbRotatedDimension
1001
ACAD
1000
DSTYLE
1002
{
1070
    40
1040
1.0
1002
}
  0
LINE
  5
1E293
330
1E256
100
AcDbEntity
  8
部品1
 48
50.0
100
AcDbLine
 10
2308.994140400602
 20
2627.271234847392
 30
0.0
 11
2308.994140400602
 21
2727.271234847389
 31
0.0
  0
LINE
  5
1E294
330
1E256
100
AcDbEntity
  8
部品1
 48
50.0
100
AcDbLine
 10
2108.994140400602
 20
2627.271234847374
 30
0.0
 11
2108.994140400602
 21
2727.271234847382
 31
0.0
  0
LINE
  5
1E295
330
1E256
100
AcDbEntity
  8
部品1
 48
50.0
100
AcDbLine
 10
1708.994140400602
 20
2627.271234847378
 30
0.0
 11
1708.994140400602
 21
2727.271234847385
 31
0.0
  0
DIMENSION
  5
1E296
330
1E256
100
AcDbEntity
  8
寸法
 48
50.0
100
AcDbDimension
  2
*D16
 10
2366.841588969379
 20
2627.271234847374
 30
0.0
 11
2366.841588969379
 21
2997.330289965487
 31
0.0
 12
-2587.005859599398
 22
-5276.728765152624
 32
0.0
 70
   128
 71
     5
 42
-1.0
  3
INABA_S50G
100
AcDbAlignedDimension
 13
2153.912786690133
 23
2727.271234847376
 33
0.0
 14
2153.912786690133
 24
2627.271234847374
 34
0.0
 50
90.0
100
AcDbRotatedDimension
1001
ACAD
1000
DSTYLE
1002
{
1070
    40
1040
1.0
1002
}
  0
DIMENSION
  5
1E297
330
1E256
100
AcDbEntity
  8
寸法
 48
50.0
100
AcDbDimension
  2
*D19
 10
2208.260957831161
 20
2727.271234847376
 30
0.0
 11
2108.260957831161
 21
2277.271234847376
 31
0.0
 12
-2587.005859599398
 22
-1276.728765152624
 32
0.0
 71
     5
 42
-1.0
  3
INABA_S50G
100
AcDbAlignedDimension
 13
1858.994140400602
 23
1827.271234847376
 33
0.0
 14
1808.994140400602
 24
2727.271234847376
 34
0.0
 50
90.0
100
AcDbRotatedDimension
1001
ACAD
1000
DSTYLE
1002
{
1070
    40
1040
1.0
1070
    75
1070
     1
1070
   279
1070
     1
1070
   288
1070
     1
1002
}
  0
DIMENSION
  5
1E298
330
1E256
100
AcDbEntity
  8
寸法
 48
50.0
100
AcDbDimension
  2
*D21
 10
1808.994140400602
 20
3254.181000495704
 30
0.0
 11
2279.912662406881
 21
3254.181000495704
 31
0.0
 12
-2587.005859599398
 22
-1276.728765152624
 32
0.0
 70
   128
 71
     5
 42
-1.0
  3
INABA_S50G
100
AcDbAlignedDimension
 13
2708.994140400602
 23
2727.271234847376
 33
0.0
 14
1808.994140400602
 24
2027.271234847376
 34
0.0
100
AcDbRotatedDimension
1001
ACAD
1000
DSTYLE
1002
{
1070
   288
1070
     1
1070
    40
1040
1.0
1002
}
  0
LINE
  5
1E299
330
1E256
100
AcDbEntity
  8
部品1
 48
50.0
100
AcDbLine
 10
1908.994140400602
 20
2027.271234847376
 30
0.0
 11
1708.994140400602
 21
2027.271234847376
 31
0.0
  0
LINE
  5
1E29A
330
1E256
100
AcDbEntity
  8
部品1
 48
50.0
100
AcDbLine
 10
1908.994140400602
 20
1627.271234847374
 30
0.0
 11
1708.994140400602
 21
1627.271234847374
 31
0.0
  0
LINE
  5
1E29B
330
1E256
100
AcDbEntity
  8
センター
 48
2.0
100
AcDbLine
 10
1758.994140400602
 20
1827.271234847376
 30
0.0
 11
1858.994140400602
 21
1827.271234847376
 31
0.0
  0
LINE
  5
1E29C
330
1E256
100
AcDbEntity
  8
部品1
 48
50.0
100
AcDbLine
 10
1708.994140400602
 20
1627.271234847376
 30
0.0
 11
1708.994140400602
 21
2027.271234847376
 31
0.0
  0
LINE
  5
1E29D
330
1E256
100
AcDbEntity
  8
部品1
 48
50.0
100
AcDbLine
 10
1908.994140400602
 20
1627.271234847374
 30
0.0
 11
1908.994140400602
 21
2027.271234847376
 31
0.0
  0
LINE
  5
1E29E
330
1E256
100
AcDbEntity
  8
センター
 48
2.0
100
AcDbLine
 10
1808.994140400602
 20
1877.271234847376
 30
0.0
 11
1808.994140400602
 21
1777.271234847376
 31
0.0
  0
LINE
  5
1E29F
330
1E256
100
AcDbEntity
  8
部品1
 48
50.0
100
AcDbLine
 10
2708.994140400603
 20
1827.271234847398
 30
0.0
 11
2608.994140400601
 21
1827.271234847396
 31
0.0
  0
LINE
  5
1E2A0
330
1E256
100
AcDbEntity
  8
点線
 48
10.0
100
AcDbLine
 10
2608.994140400601
 20
2427.271234847375
 30
0.0
 11
2408.994140400603
 21
2427.271234847375
 31
0.0
  0
LINE
  5
1E2A1
330
1E256
100
AcDbEntity
  8
センター
 48
2.0
100
AcDbLine
 10
2535.994140400602
 20
2604.271234847376
 30
0.0
 11
2635.994140400602
 21
2604.271234847376
 31
0.0
  0
LINE
  5
1E2A2
330
1E256
100
AcDbEntity
  8
点線
 48
10.0
100
AcDbLine
 10
2408.994140400603
 20
2427.271234847375
 30
0.0
 11
2408.994140400601
 21
2627.271234847373
 31
0.0
  0
LINE
  5
1E2A3
330
1E256
100
AcDbEntity
  8
部品1
 48
50.0
100
AcDbLine
 10
2708.994140400603
 20
2227.271234847374
 30
0.0
 11
2608.994140400602
 21
2227.271234847374
 31
0.0
  0
LINE
  5
1E2A4
330
1E256
100
AcDbEntity
  8
センター
 48
2.0
100
AcDbLine
 10
2585.994140400603
 20
2654.271234847376
 30
0.0
 11
2585.994140400603
 21
2554.271234847376
 31
0.0
  0
ENDBLK
  5
1E2A6
330
1E256
100
AcDbEntity
  8
0
 48
50.0
100
AcDbBlockEnd
  0
BLOCK
  5
2021B
330
20211
100
AcDbEntity
  8
0
 48
50.0
100
AcDbBlockBegin
  2
*D24
 70
     1
 10
0.0
 20
0.0
 30
0.0
  3
*D24
  1

  0
LINE
  5
20281
330
20211
100
AcDbEntity
  8
寸法
 62
     0
 48
50.0
370
    -2
100
AcDbLine
 10
6025.356359188782
 20
1140.760787611754
 30
0.0
 11
5892.026612113252
 21
1140.760787611754
 31
0.0
  0
LINE
  5
20282
330
20211
100
AcDbEntity
  8
寸法
 62
     0
 48
50.0
370
    -2
100
AcDbLine
 10
6175.356359188782
 20
740.7607876117545
 30
0.0
 11
5892.026612113252
 21
740.7607876117545
 31
0.0
  0
LINE
  5
20283
330
20211
100
AcDbEntity
  8
寸法
 62
     0
 48
50.0
370
    -2
100
AcDbLine
 10
5952.026612113252
 20
1140.760787611754
 30
0.0
 11
5952.026612113252
 21
740.7607876117545
 31
0.0
  0
INSERT
  5
20284
330
20211
100
AcDbEntity
  8
寸法
 62
     0
 48
50.0
370
    -2
100
AcDbBlockReference
  2
_DOTSMALL
 10
5952.026612113252
 20
1140.760787611754
 30
0.0
 41
100.0
 42
100.0
 43
100.0
 50
90.0
  0
INSERT
  5
20285
330
20211
100
AcDbEntity
  8
寸法
 62
     0
 48
50.0
370
    -2
100
AcDbBlockReference
  2
_DOTSMALL
 10
5952.026612113252
 20
740.7607876117545
 30
0.0
 41
100.0
 42
100.0
 43
100.0
 50
270.0
  0
MTEXT
  5
20286
330
20211
100
AcDbEntity
  8
寸法
 62
     7
 48
50.0
100
AcDbMText
 10
5852.01480108963
 20
928.3854207276599
 30
0.0
 40
120.0
 41
0.0
 71
     5
 72
     1
  1
\A1;200
  7
STYLE1
 11
0.0000000000000001
 21
1.0
 31
0.0
 73
     1
 44
1.0
1001
ACAD
1000
MTEXTBEGIN
1070
    73
1070
     1
1070
    44
1040
1.0
1070
    74
1070
     0
1000
MTEXTEND
  0
POINT
  5
20287
330
20211
100
AcDbEntity
  8
DEFPOINTS
 62
     0
 48
50.0
100
AcDbPoint
 10
6045.356359188781
 20
1140.760787611754
 30
0.0
  0
POINT
  5
20288
330
20211
100
AcDbEntity
  8
DEFPOINTS
 62
     0
 48
50.0
100
AcDbPoint
 10
6195.356359188782
 20
740.7607876117545
 30
0.0
  0
POINT
  5
20289
330
20211
100
AcDbEntity
  8
DEFPOINTS
 62
     0
 48
50.0
100
AcDbPoint
 10
5952.026612113252
 20
740.7607876117545
 30
0.0
  0
ENDBLK
  5
2021C
330
20211
100
AcDbEntity
  8
0
 48
50.0
100
AcDbBlockEnd
  0
BLOCK
  5
20227
330
2021D
100
AcDbEntity
  8
0
 48
50.0
100
AcDbBlockBegin
  2
*D25
 70
     1
 10
0.0
 20
0.0
 30
0.0
  3
*D25
  1

  0
LINE
  5
20278
330
2021D
100
AcDbEntity
  8
寸法
 62
     0
 48
50.0
370
    -2
100
AcDbLine
 10
8078.96262330739
 20
1340.760787611756
 30
0.0
 11
8341.175870770291
 21
1340.760787611756
 31
0.0
  0
LINE
  5
20279
330
2021D
100
AcDbEntity
  8
寸法
 62
     0
 48
50.0
370
    -2
100
AcDbLine
 10
8098.411860201881
 20
1140.760787611754
 30
0.0
 11
8341.175870770291
 21
1140.760787611754
 31
0.0
  0
LINE
  5
2027A
330
2021D
100
AcDbEntity
  8
寸法
 62
     0
 48
50.0
370
    -2
100
AcDbLine
 10
8281.17587077029
 20
1340.760787611756
 30
0.0
 11
8281.17587077029
 21
1140.760787611754
 31
0.0
  0
INSERT
  5
2027B
330
2021D
100
AcDbEntity
  8
寸法
 62
     0
 48
50.0
370
    -2
100
AcDbBlockReference
  2
_DOTSMALL
 10
8281.17587077029
 20
1340.760787611756
 30
0.0
 41
100.0
 42
100.0
 43
100.0
 50
90.0
  0
INSERT
  5
2027C
330
2021D
100
AcDbEntity
  8
寸法
 62
     0
 48
50.0
370
    -2
100
AcDbBlockReference
  2
_DOTSMALL
 10
8281.17587077029
 20
1140.760787611754
 30
0.0
 41
100.0
 42
100.0
 43
100.0
 50
270.0
  0
MTEXT
  5
2027D
330
2021D
100
AcDbEntity
  8
寸法
 62
     7
 48
50.0
100
AcDbMText
 10
8181.175870770291
 20
1240.760787611757
 30
0.0
 40
120.0
 41
0.0
 71
     5
 72
     1
  1
\A1;b
  7
STYLE1
 11
0.0000000000000001
 21
1.0
 31
0.0
 73
     1
 44
1.0
1001
ACAD
1000
MTEXTBEGIN
1070
    73
1070
     1
1070
    44
1040
1.0
1070
    74
1070
     0
1000
MTEXTEND
  0
POINT
  5
2027E
330
2021D
100
AcDbEntity
  8
DEFPOINTS
 62
     0
 48
50.0
100
AcDbPoint
 10
8058.96262330739
 20
1340.760787611756
 30
0.0
  0
POINT
  5
2027F
330
2021D
100
AcDbEntity
  8
DEFPOINTS
 62
     0
 48
50.0
100
AcDbPoint
 10
8078.41186020188
 20
1140.760787611754
 30
0.0
  0
POINT
  5
20280
330
2021D
100
AcDbEntity
  8
DEFPOINTS
 62
     0
 48
50.0
100
AcDbPoint
 10
8281.17587077029
 20
1140.760787611754
 30
0.0
  0
ENDBLK
  5
20228
330
2021D
100
AcDbEntity
  8
0
 48
50.0
100
AcDbBlockEnd
  0
BLOCK
  5
20233
330
20229
100
AcDbEntity
  8
0
 48
50.0
100
AcDbBlockBegin
  2
*D26
 70
     1
 10
0.0
 20
0.0
 30
0.0
  3
*D26
  1

  0
LINE
  5
2026F
330
20229
100
AcDbEntity
  8
寸法
 62
     0
 48
50.0
370
    -2
100
AcDbLine
 10
9578.85555682453
 20
1440.760787611754
 30
0.0
 11
9821.491110541648
 21
1440.760787611754
 31
0.0
  0
LINE
  5
20270
330
20229
100
AcDbEntity
  8
寸法
 62
     0
 48
50.0
370
    -2
100
AcDbLine
 10
9608.744464914863
 20
1140.760787611754
 30
0.0
 11
9821.491110541648
 21
1140.760787611754
 31
0.0
  0
LINE
  5
20271
330
20229
100
AcDbEntity
  8
寸法
 62
     0
 48
50.0
370
    -2
100
AcDbLine
 10
9761.491110541648
 20
1440.760787611754
 30
0.0
 11
9761.491110541648
 21
1140.760787611754
 31
0.0
  0
INSERT
  5
20272
330
20229
100
AcDbEntity
  8
寸法
 62
     0
 48
50.0
370
    -2
100
AcDbBlockReference
  2
_DOTSMALL
 10
9761.491110541648
 20
1440.760787611754
 30
0.0
 41
100.0
 42
100.0
 43
100.0
 50
90.0
  0
INSERT
  5
20273
330
20229
100
AcDbEntity
  8
寸法
 62
     0
 48
50.0
370
    -2
100
AcDbBlockReference
  2
_DOTSMALL
 10
9761.491110541648
 20
1140.760787611754
 30
0.0
 41
100.0
 42
100.0
 43
100.0
 50
270.0
  0
MTEXT
  5
20274
330
20229
100
AcDbEntity
  8
寸法
 62
     7
 48
50.0
100
AcDbMText
 10
9661.491110541646
 20
1290.760787611756
 30
0.0
 40
120.0
 41
0.0
 71
     5
 72
     1
  1
\A1;c
  7
STYLE1
 11
0.0000000000000001
 21
1.0
 31
0.0
 73
     1
 44
1.0
1001
ACAD
1000
MTEXTBEGIN
1070
    73
1070
     1
1070
    44
1040
1.0
1070
    74
1070
     0
1000
MTEXTEND
  0
POINT
  5
20275
330
20229
100
AcDbEntity
  8
DEFPOINTS
 62
     0
 48
50.0
100
AcDbPoint
 10
9558.85555682453
 20
1440.760787611754
 30
0.0
  0
POINT
  5
20276
330
20229
100
AcDbEntity
  8
DEFPOINTS
 62
     0
 48
50.0
100
AcDbPoint
 10
9588.744464914862
 20
1140.760787611754
 30
0.0
  0
POINT
  5
20277
330
20229
100
AcDbEntity
  8
DEFPOINTS
 62
     0
 48
50.0
100
AcDbPoint
 10
9761.491110541648
 20
1140.760787611754
 30
0.0
  0
ENDBLK
  5
20234
330
20229
100
AcDbEntity
  8
0
 48
50.0
100
AcDbBlockEnd
  0
BLOCK
  5
2023F
330
20235
100
AcDbEntity
  8
0
 48
50.0
100
AcDbBlockBegin
  2
*D27
 70
     1
 10
0.0
 20
0.0
 30
0.0
  3
*D27
  1

  0
LINE
  5
20266
330
20235
100
AcDbEntity
  8
寸法
 62
     0
 48
50.0
370
    -2
100
AcDbLine
 10
6465.356359188783
 20
1340.760787611755
 30
0.0
 11
6753.427363549177
 21
1340.760787611755
 31
0.0
  0
LINE
  5
20267
330
20235
100
AcDbEntity
  8
寸法
 62
     0
 48
50.0
370
    -2
100
AcDbLine
 10
6465.356359188785
 20
1140.760787611754
 30
0.0
 11
6753.427363549177
 21
1140.760787611754
 31
0.0
  0
LINE
  5
20268
330
20235
100
AcDbEntity
  8
寸法
 62
     0
 48
50.0
370
    -2
100
AcDbLine
 10
6693.427363549178
 20
1340.760787611755
 30
0.0
 11
6693.427363549178
 21
1140.760787611754
 31
0.0
  0
INSERT
  5
20269
330
20235
100
AcDbEntity
  8
寸法
 62
     0
 48
50.0
370
    -2
100
AcDbBlockReference
  2
_DOTSMALL
 10
6693.427363549178
 20
1340.760787611755
 30
0.0
 41
100.0
 42
100.0
 43
100.0
 50
90.0
  0
INSERT
  5
2026A
330
20235
100
AcDbEntity
  8
寸法
 62
     0
 48
50.0
370
    -2
100
AcDbBlockReference
  2
_DOTSMALL
 10
6693.427363549178
 20
1140.760787611754
 30
0.0
 41
100.0
 42
100.0
 43
100.0
 50
270.0
  0
MTEXT
  5
2026B
330
20235
100
AcDbEntity
  8
寸法
 62
     7
 48
50.0
100
AcDbMText
 10
6593.427363549178
 20
1240.760787611756
 30
0.0
 40
120.0
 41
0.0
 71
     5
 72
     1
  1
\A1;a
  7
STYLE1
 11
0.0000000000000001
 21
1.0
 31
0.0
 73
     1
 44
1.0
1001
ACAD
1000
MTEXTBEGIN
1070
    73
1070
     1
1070
    44
1040
1.0
1070
    74
1070
     0
1000
MTEXTEND
  0
POINT
  5
2026C
330
20235
100
AcDbEntity
  8
DEFPOINTS
 62
     0
 48
50.0
100
AcDbPoint
 10
6445.356359188783
 20
1340.760787611755
 30
0.0
  0
POINT
  5
2026D
330
20235
100
AcDbEntity
  8
DEFPOINTS
 62
     0
 48
50.0
100
AcDbPoint
 10
6445.356359188785
 20
1140.760787611754
 30
0.0
  0
POINT
  5
2026E
330
20235
100
AcDbEntity
  8
DEFPOINTS
 62
     0
 48
50.0
100
AcDbPoint
 10
6693.427363549178
 20
1140.760787611754
 30
0.0
  0
ENDBLK
  5
20240
330
20235
100
AcDbEntity
  8
0
 48
50.0
100
AcDbBlockEnd
  0
BLOCK
  5
20441
330
20438
100
AcDbEntity
  8
0
 48
50.0
100
AcDbBlockBegin
  2
*D28
 70
     1
 10
0.0
 20
0.0
 30
0.0
  3
*D28
  1

  0
LINE
  5
2165C
330
20438
100
AcDbEntity
  8
寸法
 62
     0
 48
50.0
370
    -2
100
AcDbLine
 10
6467.6
 20
8334.732195510817
 30
0.0
 11
5786.888116550751
 21
8334.732195510817
 31
0.0
  0
LINE
  5
2165D
330
20438
100
AcDbEntity
  8
寸法
 62
     0
 48
50.0
370
    -2
100
AcDbLine
 10
6467.6
 20
5702.732195510816
 30
0.0
 11
5786.88811655075
 21
5702.732195510817
 31
0.0
  0
LINE
  5
2165E
330
20438
100
AcDbEntity
  8
寸法
 62
     0
 48
50.0
370
    -2
100
AcDbLine
 10
5846.888116550751
 20
8334.732195510817
 30
0.0
 11
5846.888116550751
 21
5702.732195510817
 31
0.0
  0
INSERT
  5
2165F
330
20438
100
AcDbEntity
  8
寸法
 62
     0
 48
50.0
370
    -2
100
AcDbBlockReference
  2
_DOTSMALL
 10
5846.888116550751
 20
8334.732195510817
 30
0.0
 41
100.0
 42
100.0
 43
100.0
 50
90.0
  0
INSERT
  5
21660
330
20438
100
AcDbEntity
  8
寸法
 62
     0
 48
50.0
370
    -2
100
AcDbBlockReference
  2
_DOTSMALL
 10
5846.888116550751
 20
5702.732195510817
 30
0.0
 41
100.0
 42
100.0
 43
100.0
 50
270.0
  0
MTEXT
  5
21661
330
20438
100
AcDbEntity
  8
寸法
 62
     7
 48
50.0
100
AcDbMText
 10
5746.876305527127
 20
7018.732195510819
 30
0.0
 40
120.0
 41
0.0
 71
     5
 72
     1
  1
\A1;2632
  7
STYLE1
 11
0.0000000000000001
 21
1.0
 31
0.0
 73
     1
 44
1.0
1001
ACAD
1000
MTEXTBEGIN
1070
    73
1070
     1
1070
    44
1040
1.0
1070
    74
1070
     0
1000
MTEXTEND
  0
POINT
  5
21662
330
20438
100
AcDbEntity
  8
DEFPOINTS
 62
     0
 48
50.0
100
AcDbPoint
 10
6487.6
 20
8334.732195510817
 30
0.0
  0
POINT
  5
21663
330
20438
100
AcDbEntity
  8
DEFPOINTS
 62
     0
 48
50.0
100
AcDbPoint
 10
6487.6
 20
5702.732195510816
 30
0.0
  0
POINT
  5
21664
330
20438
100
AcDbEntity
  8
DEFPOINTS
 62
     0
 48
50.0
100
AcDbPoint
 10
5846.888116550751
 20
5702.732195510817
 30
0.0
  0
ENDBLK
  5
20442
330
20438
100
AcDbEntity
  8
0
 48
50.0
100
AcDbBlockEnd
  0
BLOCK
  5
2044E
330
20443
100
AcDbEntity
  8
0
 48
50.0
100
AcDbBlockBegin
  2
*D29
 70
     1
 10
0.0
 20
0.0
 30
0.0
  3
*D29
  1

  0
LINE
  5
21025
330
20443
100
AcDbEntity
  8
寸法
 62
     0
 48
50.0
370
    -2
100
AcDbLine
 10
10059.6
 20
5582.732195510812
 30
0.0
 11
10059.6
 21
5214.533514425166
 31
0.0
  0
LINE
  5
21026
330
20443
100
AcDbEntity
  8
寸法
 62
     0
 48
50.0
370
    -2
100
AcDbLine
 10
9859.6
 20
5582.732195510812
 30
0.0
 11
9859.6
 21
5214.533514425166
 31
0.0
  0
LINE
  5
21027
330
20443
100
AcDbEntity
  8
寸法
 62
     0
 48
50.0
370
    -2
100
AcDbLine
 10
9859.6
 20
5274.533514425166
 30
0.0
 11
10059.6
 21
5274.533514425166
 31
0.0
  0
LINE
  5
21028
330
20443
100
AcDbEntity
  8
寸法
 62
     0
 48
50.0
370
    -2
100
AcDbLine
 10
10059.6
 20
5274.533514425166
 30
0.0
 11
10458.74173228346
 21
5274.533514425166
 31
0.0
  0
INSERT
  5
21029
330
20443
100
AcDbEntity
  8
寸法
 62
     0
 48
50.0
370
    -2
100
AcDbBlockReference
  2
_DOTSMALL
 10
9859.6
 20
5274.533514425166
 30
0.0
 41
100.0
 42
100.0
 43
100.0
 50
180.0
  0
INSERT
  5
2102A
330
20443
100
AcDbEntity
  8
寸法
 62
     0
 48
50.0
370
    -2
100
AcDbBlockReference
  2
_DOTSMALL
 10
10059.6
 20
5274.533514425166
 30
0.0
 41
100.0
 42
100.0
 43
100.0
  0
MTEXT
  5
2102B
330
20443
100
AcDbEntity
  8
寸法
 62
     7
 48
50.0
100
AcDbMText
 10
10309.17086614173
 20
5374.545325448788
 30
0.0
 40
120.0
 41
0.0
 71
     5
 72
     1
  1
\A1;200
  7
STYLE1
 73
     1
 44
1.0
1001
ACAD
1000
MTEXTBEGIN
1070
    73
1070
     1
1070
    44
1040
1.0
1070
    74
1070
     0
1000
MTEXTEND
  0
POINT
  5
2102C
330
20443
100
AcDbEntity
  8
DEFPOINTS
 62
     0
 48
50.0
100
AcDbPoint
 10
10059.6
 20
5602.732195510813
 30
0.0
  0
POINT
  5
2102D
330
20443
100
AcDbEntity
  8
DEFPOINTS
 62
     0
 48
50.0
100
AcDbPoint
 10
9859.6
 20
5602.732195510813
 30
0.0
  0
POINT
  5
2102E
330
20443
100
AcDbEntity
  8
DEFPOINTS
 62
     0
 48
50.0
100
AcDbPoint
 10
9859.6
 20
5274.533514425166
 30
0.0
  0
ENDBLK
  5
2044F
330
20443
100
AcDbEntity
  8
0
 48
50.0
100
AcDbBlockEnd
  0
BLOCK
  5
20467
330
2045D
100
AcDbEntity
  8
0
 48
50.0
100
AcDbBlockBegin
  2
*D30
 70
     1
 10
0.0
 20
0.0
 30
0.0
  3
*D30
  1

  0
LINE
  5
20F23
330
2045D
100
AcDbEntity
  8
寸法
 62
     0
 48
50.0
370
    -2
100
AcDbLine
 10
10079.6
 20
5802.732195510813
 30
0.0
 11
10419.23045670601
 21
5802.732195510812
 31
0.0
  0
LINE
  5
20F24
330
2045D
100
AcDbEntity
  8
寸法
 62
     0
 48
50.0
370
    -2
100
AcDbLine
 10
10079.6
 20
5602.732195510813
 30
0.0
 11
10419.23045670601
 21
5602.732195510812
 31
0.0
  0
LINE
  5
20F25
330
2045D
100
AcDbEntity
  8
寸法
 62
     0
 48
50.0
370
    -2
100
AcDbLine
 10
10359.23045670601
 20
5602.732195510812
 30
0.0
 11
10359.23045670601
 21
5802.732195510812
 31
0.0
  0
LINE
  5
20F26
330
2045D
100
AcDbEntity
  8
寸法
 62
     0
 48
50.0
370
    -2
100
AcDbLine
 10
10359.23045670601
 20
5802.732195510812
 30
0.0
 11
10359.23045670601
 21
6201.873927794276
 31
0.0
  0
INSERT
  5
20F27
330
2045D
100
AcDbEntity
  8
寸法
 62
     0
 48
50.0
370
    -2
100
AcDbBlockReference
  2
_DOTSMALL
 10
10359.23045670601
 20
5602.732195510812
 30
0.0
 41
100.0
 42
100.0
 43
100.0
 50
270.0
  0
INSERT
  5
20F28
330
2045D
100
AcDbEntity
  8
寸法
 62
     0
 48
50.0
370
    -2
100
AcDbBlockReference
  2
_DOTSMALL
 10
10359.23045670601
 20
5802.732195510812
 30
0.0
 41
100.0
 42
100.0
 43
100.0
 50
90.0
  0
MTEXT
  5
20F29
330
2045D
100
AcDbEntity
  8
寸法
 62
     7
 48
50.0
100
AcDbMText
 10
10259.21864568239
 20
6052.303061652546
 30
0.0
 40
120.0
 41
0.0
 71
     5
 72
     1
  1
\A1;200
  7
STYLE1
 11
0.0000000000000001
 21
1.0
 31
0.0
 73
     1
 44
1.0
1001
ACAD
1000
MTEXTBEGIN
1070
    73
1070
     1
1070
    44
1040
1.0
1070
    74
1070
     0
1000
MTEXTEND
  0
POINT
  5
20F2A
330
2045D
100
AcDbEntity
  8
DEFPOINTS
 62
     0
 48
50.0
100
AcDbPoint
 10
10059.6
 20
5802.732195510813
 30
0.0
  0
POINT
  5
20F2B
330
2045D
100
AcDbEntity
  8
DEFPOINTS
 62
     0
 48
50.0
100
AcDbPoint
 10
10059.6
 20
5602.732195510813
 30
0.0
  0
POINT
  5
20F2C
330
2045D
100
AcDbEntity
  8
DEFPOINTS
 62
     0
 48
50.0
100
AcDbPoint
 10
10359.23045670601
 20
5602.732195510812
 30
0.0
  0
ENDBLK
  5
20468
330
2045D
100
AcDbEntity
  8
0
 48
50.0
100
AcDbBlockEnd
  0
BLOCK
  5
20473
330
20469
100
AcDbEntity
  8
0
 48
50.0
100
AcDbBlockBegin
  2
*D31
 70
     1
 10
0.0
 20
0.0
 30
0.0
  3
*D31
  1

  0
LINE
  5
21653
330
20469
100
AcDbEntity
  8
寸法
 62
     0
 48
50.0
370
    -2
100
AcDbLine
 10
9959.600000000001
 20
8354.732195510816
 30
0.0
 11
9959.600000000001
 21
8740.74475515396
 31
0.0
  0
LINE
  5
21654
330
20469
100
AcDbEntity
  8
寸法
 62
     0
 48
50.0
370
    -2
100
AcDbLine
 10
9055.600000000001
 20
8354.732195510816
 30
0.0
 11
9055.600000000001
 21
8740.74475515396
 31
0.0
  0
LINE
  5
21655
330
20469
100
AcDbEntity
  8
寸法
 62
     0
 48
50.0
370
    -2
100
AcDbLine
 10
9959.600000000001
 20
8680.744755153959
 30
0.0
 11
9055.600000000001
 21
8680.744755153959
 31
0.0
  0
INSERT
  5
21656
330
20469
100
AcDbEntity
  8
寸法
 62
     0
 48
50.0
370
    -2
100
AcDbBlockReference
  2
_DOTSMALL
 10
9959.600000000001
 20
8680.744755153959
 30
0.0
 41
100.0
 42
100.0
 43
100.0
  0
INSERT
  5
21657
330
20469
100
AcDbEntity
  8
寸法
 62
     0
 48
50.0
370
    -2
100
AcDbBlockReference
  2
_DOTSMALL
 10
9055.600000000001
 20
8680.744755153959
 30
0.0
 41
100.0
 42
100.0
 43
100.0
 50
180.0
  0
MTEXT
  5
21658
330
20469
100
AcDbEntity
  8
寸法
 62
     7
 48
50.0
100
AcDbMText
 10
9511.599999999999
 20
8780.744755153959
 30
0.0
 40
120.0
 41
0.0
 71
     5
 72
     1
  1
\A1;904
  7
STYLE1
 73
     1
 44
1.0
1001
ACAD
1000
MTEXTBEGIN
1070
    73
1070
     1
1070
    44
1040
1.0
1070
    74
1070
     0
1000
MTEXTEND
  0
POINT
  5
21659
330
20469
100
AcDbEntity
  8
DEFPOINTS
 62
     0
 48
50.0
100
AcDbPoint
 10
9959.600000000001
 20
8334.732195510817
 30
0.0
  0
POINT
  5
2165A
330
20469
100
AcDbEntity
  8
DEFPOINTS
 62
     0
 48
50.0
100
AcDbPoint
 10
9055.600000000001
 20
8334.732195510817
 30
0.0
  0
POINT
  5
2165B
330
20469
100
AcDbEntity
  8
DEFPOINTS
 62
     0
 48
50.0
100
AcDbPoint
 10
9055.600000000001
 20
8680.744755153959
 30
0.0
  0
ENDBLK
  5
20474
330
20469
100
AcDbEntity
  8
0
 48
50.0
100
AcDbBlockEnd
  0
BLOCK
  5
2047E
330
20475
100
AcDbEntity
  8
0
 48
50.0
100
AcDbBlockBegin
  2
*D32
 70
     1
 10
0.0
 20
0.0
 30
0.0
  3
*D32
  1

  0
LINE
  5
2164A
330
20475
100
AcDbEntity
  8
寸法
 62
     0
 48
50.0
370
    -2
100
AcDbLine
 10
6487.6
 20
8354.732195510816
 30
0.0
 11
6487.6
 21
8987.144783182436
 31
0.0
  0
LINE
  5
2164B
330
20475
100
AcDbEntity
  8
寸法
 62
     0
 48
50.0
370
    -2
100
AcDbLine
 10
9959.600000000001
 20
8354.732195510816
 30
0.0
 11
9959.600000000001
 21
8987.144783182436
 31
0.0
  0
LINE
  5
2164C
330
20475
100
AcDbEntity
  8
寸法
 62
     0
 48
50.0
370
    -2
100
AcDbLine
 10
6487.6
 20
8927.144783182438
 30
0.0
 11
9959.600000000001
 21
8927.144783182438
 31
0.0
  0
INSERT
  5
2164D
330
20475
100
AcDbEntity
  8
寸法
 62
     0
 48
50.0
370
    -2
100
AcDbBlockReference
  2
_DOTSMALL
 10
6487.6
 20
8927.144783182438
 30
0.0
 41
100.0
 42
100.0
 43
100.0
 50
180.0
  0
INSERT
  5
2164E
330
20475
100
AcDbEntity
  8
寸法
 62
     0
 48
50.0
370
    -2
100
AcDbBlockReference
  2
_DOTSMALL
 10
9959.600000000001
 20
8927.144783182438
 30
0.0
 41
100.0
 42
100.0
 43
100.0
  0
MTEXT
  5
2164F
330
20475
100
AcDbEntity
  8
寸法
 62
     7
 48
50.0
100
AcDbMText
 10
8223.600000000001
 20
9027.15659420606
 30
0.0
 40
120.0
 41
0.0
 71
     5
 72
     1
  1
\A1;3472
  7
STYLE1
 73
     1
 44
1.0
1001
ACAD
1000
MTEXTBEGIN
1070
    73
1070
     1
1070
    44
1040
1.0
1070
    74
1070
     0
1000
MTEXTEND
  0
POINT
  5
21650
330
20475
100
AcDbEntity
  8
DEFPOINTS
 62
     0
 48
50.0
100
AcDbPoint
 10
6487.6
 20
8334.732195510817
 30
0.0
  0
POINT
  5
21651
330
20475
100
AcDbEntity
  8
DEFPOINTS
 62
     0
 48
50.0
100
AcDbPoint
 10
9959.600000000001
 20
8334.732195510817
 30
0.0
  0
POINT
  5
21652
330
20475
100
AcDbEntity
  8
DEFPOINTS
 62
     0
 48
50.0
100
AcDbPoint
 10
9959.600000000001
 20
8927.144783182438
 30
0.0
  0
ENDBLK
  5
2047F
330
20475
100
AcDbEntity
  8
0
 48
50.0
100
AcDbBlockEnd
  0
BLOCK
  5
20489
330
20480
100
AcDbEntity
  8
0
 48
50.0
100
AcDbBlockBegin
  2
*D33
 70
     1
 10
0.0
 20
0.0
 30
0.0
  3
*D33
  1

  0
LINE
  5
21641
330
20480
100
AcDbEntity
  8
寸法
 62
     0
 48
50.0
370
    -2
100
AcDbLine
 10
8223.600000000001
 20
8354.732195510816
 30
0.0
 11
8223.600000000001
 21
8740.74475515396
 31
0.0
  0
LINE
  5
21642
330
20480
100
AcDbEntity
  8
寸法
 62
     0
 48
50.0
370
    -2
100
AcDbLine
 10
7391.600000000001
 20
8354.732195510816
 30
0.0
 11
7391.600000000001
 21
8740.74475515396
 31
0.0
  0
LINE
  5
21643
330
20480
100
AcDbEntity
  8
寸法
 62
     0
 48
50.0
370
    -2
100
AcDbLine
 10
8223.600000000001
 20
8680.744755153959
 30
0.0
 11
7391.600000000001
 21
8680.744755153959
 31
0.0
  0
INSERT
  5
21644
330
20480
100
AcDbEntity
  8
寸法
 62
     0
 48
50.0
370
    -2
100
AcDbBlockReference
  2
_DOTSMALL
 10
8223.600000000001
 20
8680.744755153959
 30
0.0
 41
100.0
 42
100.0
 43
100.0
  0
INSERT
  5
21645
330
20480
100
AcDbEntity
  8
寸法
 62
     0
 48
50.0
370
    -2
100
AcDbBlockReference
  2
_DOTSMALL
 10
7391.600000000001
 20
8680.744755153959
 30
0.0
 41
100.0
 42
100.0
 43
100.0
 50
180.0
  0
MTEXT
  5
21646
330
20480
100
AcDbEntity
  8
寸法
 62
     7
 48
50.0
100
AcDbMText
 10
7807.6
 20
8780.756566177581
 30
0.0
 40
120.0
 41
0.0
 71
     5
 72
     1
  1
\A1;832
  7
STYLE1
 73
     1
 44
1.0
1001
ACAD
1000
MTEXTBEGIN
1070
    73
1070
     1
1070
    44
1040
1.0
1070
    74
1070
     0
1000
MTEXTEND
  0
POINT
  5
21647
330
20480
100
AcDbEntity
  8
DEFPOINTS
 62
     0
 48
50.0
100
AcDbPoint
 10
8223.600000000001
 20
8334.732195510817
 30
0.0
  0
POINT
  5
21648
330
20480
100
AcDbEntity
  8
DEFPOINTS
 62
     0
 48
50.0
100
AcDbPoint
 10
7391.600000000001
 20
8334.732195510817
 30
0.0
  0
POINT
  5
21649
330
20480
100
AcDbEntity
  8
DEFPOINTS
 62
     0
 48
50.0
100
AcDbPoint
 10
7391.600000000001
 20
8680.744755153959
 30
0.0
  0
ENDBLK
  5
2048A
330
20480
100
AcDbEntity
  8
0
 48
50.0
100
AcDbBlockEnd
  0
BLOCK
  5
20494
330
2048B
100
AcDbEntity
  8
0
 48
50.0
100
AcDbBlockBegin
  2
*D34
 70
     1
 10
0.0
 20
0.0
 30
0.0
  3
*D34
  1

  0
LINE
  5
21638
330
2048B
100
AcDbEntity
  8
寸法
 62
     0
 48
50.0
370
    -2
100
AcDbLine
 10
7391.600000000001
 20
8354.732195510816
 30
0.0
 11
7391.600000000001
 21
8740.74475515396
 31
0.0
  0
LINE
  5
21639
330
2048B
100
AcDbEntity
  8
寸法
 62
     0
 48
50.0
370
    -2
100
AcDbLine
 10
6487.6
 20
8354.732195510816
 30
0.0
 11
6487.6
 21
8740.74475515396
 31
0.0
  0
LINE
  5
2163A
330
2048B
100
AcDbEntity
  8
寸法
 62
     0
 48
50.0
370
    -2
100
AcDbLine
 10
7391.600000000001
 20
8680.744755153959
 30
0.0
 11
6487.6
 21
8680.744755153959
 31
0.0
  0
INSERT
  5
2163B
330
2048B
100
AcDbEntity
  8
寸法
 62
     0
 48
50.0
370
    -2
100
AcDbBlockReference
  2
_DOTSMALL
 10
7391.600000000001
 20
8680.744755153959
 30
0.0
 41
100.0
 42
100.0
 43
100.0
  0
INSERT
  5
2163C
330
2048B
100
AcDbEntity
  8
寸法
 62
     0
 48
50.0
370
    -2
100
AcDbBlockReference
  2
_DOTSMALL
 10
6487.6
 20
8680.744755153959
 30
0.0
 41
100.0
 42
100.0
 43
100.0
 50
180.0
  0
MTEXT
  5
2163D
330
2048B
100
AcDbEntity
  8
寸法
 62
     7
 48
50.0
100
AcDbMText
 10
6939.6
 20
8780.744755153959
 30
0.0
 40
120.0
 41
0.0
 71
     5
 72
     1
  1
\A1;904
  7
STYLE1
 73
     1
 44
1.0
1001
ACAD
1000
MTEXTBEGIN
1070
    73
1070
     1
1070
    44
1040
1.0
1070
    74
1070
     0
1000
MTEXTEND
  0
POINT
  5
2163E
330
2048B
100
AcDbEntity
  8
DEFPOINTS
 62
     0
 48
50.0
100
AcDbPoint
 10
7391.600000000001
 20
8334.732195510817
 30
0.0
  0
POINT
  5
2163F
330
2048B
100
AcDbEntity
  8
DEFPOINTS
 62
     0
 48
50.0
100
AcDbPoint
 10
6487.6
 20
8334.732195510817
 30
0.0
  0
POINT
  5
21640
330
2048B
100
AcDbEntity
  8
DEFPOINTS
 62
     0
 48
50.0
100
AcDbPoint
 10
6487.6
 20
8680.744755153959
 30
0.0
  0
ENDBLK
  5
20495
330
2048B
100
AcDbEntity
  8
0
 48
50.0
100
AcDbBlockEnd
  0
BLOCK
  5
204AC
330
204A3
100
AcDbEntity
  8
0
 48
50.0
100
AcDbBlockBegin
  2
*D35
 70
     1
 10
0.0
 20
0.0
 30
0.0
  3
*D35
  1

  0
LINE
  5
2162F
330
204A3
100
AcDbEntity
  8
寸法
 62
     0
 48
50.0
370
    -2
100
AcDbLine
 10
9055.600000000001
 20
8354.732195510816
 30
0.0
 11
9055.600000000001
 21
8740.74475515396
 31
0.0
  0
LINE
  5
21630
330
204A3
100
AcDbEntity
  8
寸法
 62
     0
 48
50.0
370
    -2
100
AcDbLine
 10
8223.600000000001
 20
8354.732195510816
 30
0.0
 11
8223.600000000001
 21
8740.74475515396
 31
0.0
  0
LINE
  5
21631
330
204A3
100
AcDbEntity
  8
寸法
 62
     0
 48
50.0
370
    -2
100
AcDbLine
 10
9055.600000000001
 20
8680.744755153959
 30
0.0
 11
8223.600000000001
 21
8680.744755153959
 31
0.0
  0
INSERT
  5
21632
330
204A3
100
AcDbEntity
  8
寸法
 62
     0
 48
50.0
370
    -2
100
AcDbBlockReference
  2
_DOTSMALL
 10
9055.600000000001
 20
8680.744755153959
 30
0.0
 41
100.0
 42
100.0
 43
100.0
  0
INSERT
  5
21633
330
204A3
100
AcDbEntity
  8
寸法
 62
     0
 48
50.0
370
    -2
100
AcDbBlockReference
  2
_DOTSMALL
 10
8223.600000000001
 20
8680.744755153959
 30
0.0
 41
100.0
 42
100.0
 43
100.0
 50
180.0
  0
MTEXT
  5
21634
330
204A3
100
AcDbEntity
  8
寸法
 62
     7
 48
50.0
100
AcDbMText
 10
8639.599999999999
 20
8780.756566177581
 30
0.0
 40
120.0
 41
0.0
 71
     5
 72
     1
  1
\A1;832
  7
STYLE1
 73
     1
 44
1.0
1001
ACAD
1000
MTEXTBEGIN
1070
    73
1070
     1
1070
    44
1040
1.0
1070
    74
1070
     0
1000
MTEXTEND
  0
POINT
  5
21635
330
204A3
100
AcDbEntity
  8
DEFPOINTS
 62
     0
 48
50.0
100
AcDbPoint
 10
9055.600000000001
 20
8334.732195510817
 30
0.0
  0
POINT
  5
21636
330
204A3
100
AcDbEntity
  8
DEFPOINTS
 62
     0
 48
50.0
100
AcDbPoint
 10
8223.600000000001
 20
8334.732195510817
 30
0.0
  0
POINT
  5
21637
330
204A3
100
AcDbEntity
  8
DEFPOINTS
 62
     0
 48
50.0
100
AcDbPoint
 10
8223.600000000001
 20
8680.744755153959
 30
0.0
  0
ENDBLK
  5
204AD
330
204A3
100
AcDbEntity
  8
0
 48
50.0
100
AcDbBlockEnd
  0
BLOCK
  5
20F6F
330
20F63
100
AcDbEntity
  8
0
 48
50.0
100
AcDbBlockBegin
  2
*D36
 70
     1
 10
0.0
 20
0.0
 30
0.0
  3
*D36
  1

  0
LINE
  5
20F87
330
20F63
100
AcDbEntity
  8
寸法
 62
     0
 48
50.0
370
    -2
100
AcDbLine
 10
6467.6
 20
5702.732195510817
 30
0.0
 11
5786.888116550751
 21
5702.732195510819
 31
0.0
  0
LINE
  5
20F88
330
20F63
100
AcDbEntity
  8
寸法
 62
     0
 48
50.0
370
    -2
100
AcDbLine
 10
6417.6
 20
5642.732195510818
 30
0.0
 11
5786.888116550751
 21
5642.732195510819
 31
0.0
  0
LINE
  5
20F89
330
20F63
100
AcDbEntity
  8
寸法
 62
     0
 48
50.0
370
    -2
100
AcDbLine
 10
5846.888116550751
 20
5702.732195510819
 30
0.0
 11
5846.888116550751
 21
5802.732195510818
 31
0.0
  0
LINE
  5
20F8A
330
20F63
100
AcDbEntity
  8
寸法
 62
     0
 48
50.0
370
    -2
100
AcDbLine
 10
5846.888116550751
 20
5642.732195510819
 30
0.0
 11
5846.888116550751
 21
5542.732195510819
 31
0.0
  0
LINE
  5
20F8B
330
20F63
100
AcDbEntity
  8
寸法
 62
     0
 48
50.0
370
    -2
100
AcDbLine
 10
5846.888116550751
 20
5702.732195510819
 30
0.0
 11
5846.888116550751
 21
5642.732195510819
 31
0.0
  0
INSERT
  5
20F8C
330
20F63
100
AcDbEntity
  8
寸法
 62
     0
 48
50.0
370
    -2
100
AcDbBlockReference
  2
_DOTSMALL
 10
5846.888116550751
 20
5702.732195510819
 30
0.0
 41
100.0
 42
100.0
 43
100.0
 50
270.0
  0
INSERT
  5
20F8D
330
20F63
100
AcDbEntity
  8
寸法
 62
     0
 48
50.0
370
    -2
100
AcDbBlockReference
  2
_DOTSMALL
 10
5846.888116550751
 20
5642.732195510819
 30
0.0
 41
100.0
 42
100.0
 43
100.0
 50
90.0
  0
MTEXT
  5
20F8E
330
20F63
100
AcDbEntity
  8
寸法
 62
     7
 48
50.0
100
AcDbMText
 10
5746.88811655075
 20
5672.73219551082
 30
0.0
 40
120.0
 41
0.0
 71
     5
 72
     1
  1
\A1;b
  7
STYLE1
 11
0.0000000000000001
 21
1.0
 31
0.0
 73
     1
 44
1.0
1001
ACAD
1000
MTEXTBEGIN
1070
    73
1070
     1
1070
    44
1040
1.0
1070
    74
1070
     0
1000
MTEXTEND
  0
POINT
  5
20F8F
330
20F63
100
AcDbEntity
  8
DEFPOINTS
 62
     0
 48
50.0
100
AcDbPoint
 10
6487.6
 20
5702.732195510817
 30
0.0
  0
POINT
  5
20F90
330
20F63
100
AcDbEntity
  8
DEFPOINTS
 62
     0
 48
50.0
100
AcDbPoint
 10
6437.599999999999
 20
5642.732195510818
 30
0.0
  0
POINT
  5
20F91
330
20F63
100
AcDbEntity
  8
DEFPOINTS
 62
     0
 48
50.0
100
AcDbPoint
 10
5846.888116550751
 20
5642.732195510819
 30
0.0
  0
ENDBLK
  5
20F70
330
20F63
100
AcDbEntity
  8
0
 48
50.0
100
AcDbBlockEnd
  0
BLOCK
  5
20F9D
330
20F93
100
AcDbEntity
  8
0
 48
50.0
100
AcDbBlockBegin
  2
*D37
 70
     1
 10
0.0
 20
0.0
 30
0.0
  3
*D37
  1

  0
LINE
  5
21626
330
20F93
100
AcDbEntity
  8
寸法
 62
     0
 48
50.0
370
    -2
100
AcDbLine
 10
6417.6
 20
8414.732195510818
 30
0.0
 11
5786.888116550752
 21
8414.732195510818
 31
0.0
  0
LINE
  5
21627
330
20F93
100
AcDbEntity
  8
寸法
 62
     0
 48
50.0
370
    -2
100
AcDbLine
 10
6467.6
 20
8334.732195510817
 30
0.0
 11
5786.888116550752
 21
8334.732195510817
 31
0.0
  0
LINE
  5
21628
330
20F93
100
AcDbEntity
  8
寸法
 62
     0
 48
50.0
370
    -2
100
AcDbLine
 10
5846.888116550752
 20
8414.732195510818
 30
0.0
 11
5846.888116550752
 21
8334.732195510817
 31
0.0
  0
INSERT
  5
21629
330
20F93
100
AcDbEntity
  8
寸法
 62
     0
 48
50.0
370
    -2
100
AcDbBlockReference
  2
_DOTSMALL
 10
5846.888116550752
 20
8414.732195510818
 30
0.0
 41
100.0
 42
100.0
 43
100.0
 50
90.0
  0
INSERT
  5
2162A
330
20F93
100
AcDbEntity
  8
寸法
 62
     0
 48
50.0
370
    -2
100
AcDbBlockReference
  2
_DOTSMALL
 10
5846.888116550752
 20
8334.732195510817
 30
0.0
 41
100.0
 42
100.0
 43
100.0
 50
270.0
  0
MTEXT
  5
2162B
330
20F93
100
AcDbEntity
  8
寸法
 62
     7
 48
50.0
100
AcDbMText
 10
5746.888116550751
 20
8374.732195510821
 30
0.0
 40
120.0
 41
0.0
 71
     5
 72
     1
  1
\A1;c
  7
STYLE1
 11
0.0000000000000001
 21
1.0
 31
0.0
 73
     1
 44
1.0
1001
ACAD
1000
MTEXTBEGIN
1070
    73
1070
     1
1070
    44
1040
1.0
1070
    74
1070
     0
1000
MTEXTEND
  0
POINT
  5
2162C
330
20F93
100
AcDbEntity
  8
DEFPOINTS
 62
     0
 48
50.0
100
AcDbPoint
 10
6437.6
 20
8414.732195510818
 30
0.0
  0
POINT
  5
2162D
330
20F93
100
AcDbEntity
  8
DEFPOINTS
 62
     0
 48
50.0
100
AcDbPoint
 10
6487.6
 20
8334.732195510817
 30
0.0
  0
POINT
  5
2162E
330
20F93
100
AcDbEntity
  8
DEFPOINTS
 62
     0
 48
50.0
100
AcDbPoint
 10
5846.888116550752
 20
8334.732195510817
 30
0.0
  0
ENDBLK
  5
20F9E
330
20F93
100
AcDbEntity
  8
0
 48
50.0
100
AcDbBlockEnd
  0
BLOCK
  5
20FC7
330
20FBB
100
AcDbEntity
  8
0
 48
50.0
100
AcDbBlockBegin
  2
*D38
 70
     1
 10
0.0
 20
0.0
 30
0.0
  3
*D38
  1

  0
LINE
  5
2161B
330
20FBB
100
AcDbEntity
  8
寸法
 62
     0
 48
50.0
370
    -2
100
AcDbLine
 10
6437.600000000002
 20
8434.732195510813
 30
0.0
 11
6437.600000000002
 21
8987.144783182436
 31
0.0
  0
LINE
  5
2161C
330
20FBB
100
AcDbEntity
  8
寸法
 62
     0
 48
50.0
370
    -2
100
AcDbLine
 10
6487.600000000002
 20
8354.732195510816
 30
0.0
 11
6487.600000000002
 21
8987.144783182436
 31
0.0
  0
LINE
  5
2161D
330
20FBB
100
AcDbEntity
  8
寸法
 62
     0
 48
50.0
370
    -2
100
AcDbLine
 10
6437.600000000002
 20
8927.144783182438
 30
0.0
 11
6337.600000000001
 21
8927.144783182438
 31
0.0
  0
LINE
  5
2161E
330
20FBB
100
AcDbEntity
  8
寸法
 62
     0
 48
50.0
370
    -2
100
AcDbLine
 10
6487.600000000002
 20
8927.144783182438
 30
0.0
 11
6587.600000000001
 21
8927.144783182438
 31
0.0
  0
LINE
  5
2161F
330
20FBB
100
AcDbEntity
  8
寸法
 62
     0
 48
50.0
370
    -2
100
AcDbLine
 10
6437.600000000002
 20
8927.144783182438
 30
0.0
 11
6487.600000000002
 21
8927.144783182438
 31
0.0
  0
INSERT
  5
21620
330
20FBB
100
AcDbEntity
  8
寸法
 62
     0
 48
50.0
370
    -2
100
AcDbBlockReference
  2
_DOTSMALL
 10
6437.600000000002
 20
8927.144783182438
 30
0.0
 41
100.0
 42
100.0
 43
100.0
  0
INSERT
  5
21621
330
20FBB
100
AcDbEntity
  8
寸法
 62
     0
 48
50.0
370
    -2
100
AcDbBlockReference
  2
_DOTSMALL
 10
6487.600000000002
 20
8927.144783182438
 30
0.0
 41
100.0
 42
100.0
 43
100.0
 50
180.0
  0
MTEXT
  5
21622
330
20FBB
100
AcDbEntity
  8
寸法
 62
     7
 48
50.0
100
AcDbMText
 10
6462.600000000001
 20
9027.144783182437
 30
0.0
 40
120.0
 41
0.0
 71
     5
 72
     1
  1
\A1;a
  7
STYLE1
 73
     1
 44
1.0
1001
ACAD
1000
MTEXTBEGIN
1070
    73
1070
     1
1070
    44
1040
1.0
1070
    74
1070
     0
1000
MTEXTEND
  0
POINT
  5
21623
330
20FBB
100
AcDbEntity
  8
DEFPOINTS
 62
     0
 48
50.0
100
AcDbPoint
 10
6437.600000000002
 20
8414.732195510813
 30
0.0
  0
POINT
  5
21624
330
20FBB
100
AcDbEntity
  8
DEFPOINTS
 62
     0
 48
50.0
100
AcDbPoint
 10
6487.600000000002
 20
8334.732195510817
 30
0.0
  0
POINT
  5
21625
330
20FBB
100
AcDbEntity
  8
DEFPOINTS
 62
     0
 48
50.0
100
AcDbPoint
 10
6487.600000000002
 20
8927.144783182438
 30
0.0
  0
ENDBLK
  5
20FC8
330
20FBB
100
AcDbEntity
  8
0
 48
50.0
100
AcDbBlockEnd
  0
BLOCK
  5
20FF7
330
20FEB
100
AcDbEntity
  8
0
 48
50.0
100
AcDbBlockBegin
  2
*D39
 70
     1
 10
0.0
 20
0.0
 30
0.0
  3
*D39
  1

  0
LINE
  5
21610
330
20FEB
100
AcDbEntity
  8
寸法
 62
     0
 48
50.0
370
    -2
100
AcDbLine
 10
9959.6
 20
8354.732195510816
 30
0.0
 11
9959.6
 21
8987.144783182436
 31
0.0
  0
LINE
  5
21611
330
20FEB
100
AcDbEntity
  8
寸法
 62
     0
 48
50.0
370
    -2
100
AcDbLine
 10
10009.59999999999
 20
8434.732195510816
 30
0.0
 11
10009.59999999999
 21
8987.144783182436
 31
0.0
  0
LINE
  5
21612
330
20FEB
100
AcDbEntity
  8
寸法
 62
     0
 48
50.0
370
    -2
100
AcDbLine
 10
9959.6
 20
8927.144783182438
 30
0.0
 11
9859.6
 21
8927.144783182438
 31
0.0
  0
LINE
  5
21613
330
20FEB
100
AcDbEntity
  8
寸法
 62
     0
 48
50.0
370
    -2
100
AcDbLine
 10
10009.59999999999
 20
8927.144783182438
 30
0.0
 11
10109.59999999999
 21
8927.144783182438
 31
0.0
  0
LINE
  5
21614
330
20FEB
100
AcDbEntity
  8
寸法
 62
     0
 48
50.0
370
    -2
100
AcDbLine
 10
9959.6
 20
8927.144783182438
 30
0.0
 11
10009.59999999999
 21
8927.144783182438
 31
0.0
  0
INSERT
  5
21615
330
20FEB
100
AcDbEntity
  8
寸法
 62
     0
 48
50.0
370
    -2
100
AcDbBlockReference
  2
_DOTSMALL
 10
9959.6
 20
8927.144783182438
 30
0.0
 41
100.0
 42
100.0
 43
100.0
  0
INSERT
  5
21616
330
20FEB
100
AcDbEntity
  8
寸法
 62
     0
 48
50.0
370
    -2
100
AcDbBlockReference
  2
_DOTSMALL
 10
10009.59999999999
 20
8927.144783182438
 30
0.0
 41
100.0
 42
100.0
 43
100.0
 50
180.0
  0
MTEXT
  5
21617
330
20FEB
100
AcDbEntity
  8
寸法
 62
     7
 48
50.0
100
AcDbMText
 10
9984.599999999995
 20
9027.144783182437
 30
0.0
 40
120.0
 41
0.0
 71
     5
 72
     1
  1
\A1;a
  7
STYLE1
 73
     1
 44
1.0
1001
ACAD
1000
MTEXTBEGIN
1070
    73
1070
     1
1070
    44
1040
1.0
1070
    74
1070
     0
1000
MTEXTEND
  0
POINT
  5
21618
330
20FEB
100
AcDbEntity
  8
DEFPOINTS
 62
     0
 48
50.0
100
AcDbPoint
 10
9959.6
 20
8334.732195510817
 30
0.0
  0
POINT
  5
21619
330
20FEB
100
AcDbEntity
  8
DEFPOINTS
 62
     0
 48
50.0
100
AcDbPoint
 10
10009.59999999999
 20
8414.732195510817
 30
0.0
  0
POINT
  5
2161A
330
20FEB
100
AcDbEntity
  8
DEFPOINTS
 62
     0
 48
50.0
100
AcDbPoint
 10
10009.59999999999
 20
8927.144783182438
 30
0.0
  0
ENDBLK
  5
20FF8
330
20FEB
100
AcDbEntity
  8
0
 48
50.0
100
AcDbBlockEnd
  0
BLOCK
  5
2183C
330
21830
100
AcDbEntity
  8
0
 48
50.0
100
AcDbBlockBegin
  2
*D40
 70
     1
 10
0.0
 20
0.0
 30
0.0
  3
*D40
  1

  0
LINE
  5
2191F
330
21830
100
AcDbEntity
  8
寸法
 62
     0
 48
50.0
370
    -2
100
AcDbLine
 10
7371.6
 20
5627.732195510815
 30
0.0
 11
7058.454656983378
 21
5627.732195510815
 31
0.0
  0
LINE
  5
21920
330
21830
100
AcDbEntity
  8
寸法
 62
     0
 48
50.0
370
    -2
100
AcDbLine
 10
7271.600000000001
 20
5702.732195510813
 30
0.0
 11
7058.454656983378
 21
5702.732195510813
 31
0.0
  0
LINE
  5
21921
330
21830
100
AcDbEntity
  8
寸法
 62
     0
 48
50.0
370
    -2
100
AcDbLine
 10
7118.454656983377
 20
5702.732195510813
 30
0.0
 11
7118.454656983377
 21
5802.732195510813
 31
0.0
  0
LINE
  5
21922
330
21830
100
AcDbEntity
  8
寸法
 62
     0
 48
50.0
370
    -2
100
AcDbLine
 10
7118.454656983377
 20
5627.732195510815
 30
0.0
 11
7118.454656983377
 21
4760.761632762335
 31
0.0
  0
LINE
  5
21923
330
21830
100
AcDbEntity
  8
寸法
 62
     0
 48
50.0
370
    -2
100
AcDbLine
 10
7118.454656983377
 20
5702.732195510813
 30
0.0
 11
7118.454656983377
 21
5627.732195510815
 31
0.0
  0
INSERT
  5
21924
330
21830
100
AcDbEntity
  8
寸法
 62
     0
 48
50.0
370
    -2
100
AcDbBlockReference
  2
_DOTSMALL
 10
7118.454656983377
 20
5702.732195510813
 30
0.0
 41
100.0
 42
100.0
 43
100.0
 50
270.0
  0
INSERT
  5
21925
330
21830
100
AcDbEntity
  8
寸法
 62
     0
 48
50.0
370
    -2
100
AcDbBlockReference
  2
_DOTSMALL
 10
7118.454656983377
 20
5627.732195510815
 30
0.0
 41
100.0
 42
100.0
 43
100.0
 50
90.0
  0
MTEXT
  5
21926
330
21830
100
AcDbEntity
  8
寸法
 62
     7
 48
50.0
100
AcDbMText
 10
7018.454656983377
 20
5094.246914136576
 30
0.0
 40
120.0
 41
0.0
 71
     5
 72
     1
  1
\A1;扉の出75
  7
STYLE1
 11
0.0000000000000001
 21
1.0
 31
0.0
 73
     1
 44
1.0
1001
ACAD
1000
MTEXTBEGIN
1070
    73
1070
     1
1070
    44
1040
1.0
1070
    74
1070
     0
1000
MTEXTEND
  0
POINT
  5
21927
330
21830
100
AcDbEntity
  8
DEFPOINTS
 62
     0
 48
50.0
100
AcDbPoint
 10
7391.600000000001
 20
5627.732195510815
 30
0.0
  0
POINT
  5
21928
330
21830
100
AcDbEntity
  8
DEFPOINTS
 62
     0
 48
50.0
100
AcDbPoint
 10
7291.600000000001
 20
5702.732195510813
 30
0.0
  0
POINT
  5
21929
330
21830
100
AcDbEntity
  8
DEFPOINTS
 62
     0
 48
50.0
100
AcDbPoint
 10
7118.454656983377
 20
5702.732195510813
 30
0.0
  0
ENDBLK
  5
2183D
330
21830
100
AcDbEntity
  8
0
 48
50.0
100
AcDbBlockEnd
  0
ENDSEC
  0
SECTION
  2
ENTITIES
  0
LINE
  5
10B57
330
747D
100
AcDbEntity
  8
補助
  6
PHANTOM
 62
   230
 48
50.0
100
AcDbLine
 10
139.9999999999995
 20
11409.6
 30
0.0
 11
16307.2
 21
11409.6
 31
0.0
  0
LINE
  5
10B59
330
747D
100
AcDbEntity
  8
仕様書枠
  6
Continuous
 48
50.0
100
AcDbLine
 10
13107.2
 20
1200.0
 30
0.0
 11
13107.2
 21
-0.0000000000000729
 31
0.0
  0
LINE
  5
10B5C
330
747D
100
AcDbEntity
  8
仕様書枠
 48
50.0
100
AcDbLine
 10
16307.2
 20
1200.0
 30
0.0
 11
16307.2
 21
-0.0000000000000909
 31
0.0
  0
LINE
  5
10B5D
330
747D
100
AcDbEntity
  8
仕様書枠
 48
50.0
100
AcDbLine
 10
140.0
 20
0.0
 30
0.0
 11
16307.2
 21
-0.0000000000000909
 31
0.0
  0
LINE
  5
10B5E
330
747D
100
AcDbEntity
  8
補助
  6
PHANTOM
 62
   230
 48
50.0
100
AcDbLine
 10
16307.2
 20
11409.6
 30
0.0
 11
16307.2
 21
1200.0
 31
0.0
  0
LINE
  5
10B6C
330
747D
100
AcDbEntity
  8
仕様書枠
 48
50.0
100
AcDbLine
 10
13107.2
 20
1200.0
 30
0.0
 11
16307.2
 21
1200.0
 31
0.0
  0
LINE
  5
10B6D
330
747D
100
AcDbEntity
  8
補助
  6
PHANTOM
 62
   230
 48
50.0
100
AcDbLine
 10
13107.2
 20
11409.6
 30
0.0
 11
13107.2
 21
4800.0
 31
0.0
  0
LINE
  5
10B6F
330
747D
100
AcDbEntity
  8
補助
  6
PHANTOM
 62
   230
 48
50.0
100
AcDbLine
 10
13107.2
 20
4800.0
 30
0.0
 11
16307.2
 21
4800.0
 31
0.0
  0
LINE
  5
10B72
330
747D
100
AcDbEntity
  8
文字
 62
     7
 48
50.0
100
AcDbLine
 10
13187.2
 20
400.0
 30
0.0
 11
16227.2
 21
400.0
 31
0.0
  0
TEXT
  5
10B73
330
747D
100
AcDbEntity
  8
文字
 62
     7
 48
50.0
100
AcDbText
 10
13162.9790565769
 20
895.0906074299405
 30
0.0
 40
200.0
  1
基 礎 図
  7
STYLE2
100
AcDbText
  0
TEXT
  5
10B74
330
747D
100
AcDbEntity
  8
文字
 62
     7
 48
50.0
100
AcDbText
 10
13201.43669998441
 20
477.2740661031255
 30
0.0
 40
160.0
  1
機種名
  7
STYLE2
100
AcDbText
  0
TEXT
  5
10B79
330
747D
100
AcDbEntity
  8
文字
 62
     7
 48
50.0
100
AcDbText
 10
14524.131837222
 20
1031.557706291228
 30
0.0
 40
100.0
  1
NO.30      <縮尺> S=1/40
  7
STYLE2
100
AcDbText
  0
LINE
  5
10B7B
330
747D
100
AcDbEntity
  8
仕様書枠
 48
50.0
100
AcDbLine
 10
13107.2
 20
800.0
 30
0.0
 11
14251.2
 21
800.0
 31
0.0
  0
LINE
  5
10B88
330
747D
100
AcDbEntity
  8
仕様書枠
  6
Continuous
 48
50.0
100
AcDbLine
 10
14251.2
 20
1200.0
 30
0.0
 11
14251.2
 21
800.0
 31
0.0
  0
TEXT
  5
14DEF
330
747D
100
AcDbEntity
  8
文字
 62
     7
 48
50.0
100
AcDbText
 10
14641.2525855784
 20
871.1744590657925
 30
0.0
 40
100.0
  1
～一般型～
  7
STYLE2
100
AcDbText
  0
TEXT
  5
15A76
330
747D
100
AcDbEntity
  8
文字
 62
     7
 48
50.0
100
AcDbText
 10
14482.61482192223
 20
488.1241585855691
 30
0.0
 40
160.0
  1
ＮＸＮ－９２Ｓ/Ｈ
  7
STYLE2
100
AcDbText
  0
TEXT
  5
1C9B2
330
747D
100
AcDbEntity
  8
部品1
 48
50.0
100
AcDbText
 10
10327.36733715367
 20
7239.492092100526
 30
0.0
 40
80.0
  1
(a=50,b=60,c=80)
  7
STYLE1
100
AcDbText
  0
TEXT
  5
1C9B3
330
747D
100
AcDbEntity
  8
部品1
 48
50.0
100
AcDbText
 10
10213.66709642772
 20
7373.04861818647
 30
0.0
 40
80.0
  1
※a,b,cは屋根の出幅です。
  7
STYLE1
100
AcDbText
  0
MTEXT
  5
1C9B4
102
{ACAD_REACTORS
330
1C9B5
102
}
330
747D
100
AcDbEntity
  8
部品1
 62
     7
 48
50.0
100
AcDbMText
 10
11079.83718660449
 20
7584.716518385936
 30
0.0
 40
120.0
 41
0.0
 71
     6
 72
     1
  1
\A1;屋根の外寸
  7
STYLE1
 73
     1
 44
1.0
1001
ACAD
1000
MTEXTBEGIN
1070
    73
1070
     1
1070
    44
1040
1.0
1070
    74
1070
     0
1000
MTEXTEND
  0
LEADER
  5
1C9B5
330
747D
100
AcDbEntity
  8
寸法
 48
50.0
100
AcDbLeader
  3
INABA_S50G
 71
     0
 73
     0
 74
     0
 75
     1
 40
120.0
 41
672.0
 76
     3
 10
10009.6
 20
7879.733910345727
 30
0.0
 10
10257.83718660449
 20
7499.716518385937
 30
0.0
 10
10382.83718660449
 20
7499.716518385937
 30
0.0
340
1C9B4
1001
ACAD
1000
DSTYLE
1002
{
1070
   341
1005
1C530
1070
    40
1040
1.0
1070
   343
1005
1C530
1070
   344
1005
1C530
1002
}
  0
LINE
  5
1C9BB
330
747D
100
AcDbEntity
  8
想像線
 48
10.0
100
AcDbLine
 10
10006.6
 20
5642.732195510809
 30
0.0
 11
6437.599999999999
 21
5642.732195510818
 31
0.0
  0
LINE
  5
1C9BC
330
747D
100
AcDbEntity
  8
想像線
 48
10.0
100
AcDbLine
 10
6437.6
 20
8414.732195510813
 30
0.0
 11
10009.59999999999
 21
8414.732195510817
 31
0.0
  0
LINE
  5
1CAB9
330
747D
100
AcDbEntity
  8
想像線
 48
10.0
100
AcDbLine
 10
6437.599999999999
 20
5642.732195510818
 30
0.0
 11
6437.6
 21
8414.732195510813
 31
0.0
  0
LINE
  5
1CCF0
330
747D
100
AcDbEntity
  8
想像線
 48
10.0
100
AcDbLine
 10
10009.59999999999
 20
8414.732195510817
 30
0.0
 11
10009.6
 21
5645.732195510809
 31
0.0
  0
TEXT
  5
1D002
330
747D
100
AcDbEntity
  8
文字
 62
     7
 48
50.0
100
AcDbText
 10
13188.16259899338
 20
246.7109242801889
 30
0.0
 40
80.0
  1
※寒冷地等は地域の実情に合わせた基礎にして下さい。
  7
STYLE2
100
AcDbText
  0
LEADER
  5
1EB63
330
747D
100
AcDbEntity
  8
寸法
 48
50.0
100
AcDbLeader
  3
INABA_S50G
 71
     0
 73
     0
 74
     0
 75
     1
 40
120.0
 41
1282.349242404918
 76
     3
 10
10054.44068557283
 20
8324.188834798741
 30
0.0
 10
10310.82789715523
 20
8520.532772414881
 30
0.0
 10
10435.82789715524
 20
8520.532772414881
 30
0.0
340
1EB64
1001
ACAD
1000
DSTYLE
1002
{
1070
   341
1005
1C530
1070
    40
1040
1.0
1070
   343
1005
1C530
1070
   344
1005
1C530
1002
}
  0
MTEXT
  5
1EB64
102
{ACAD_REACTORS
330
1EB63
102
}
330
747D
100
AcDbEntity
  8
部品1
 62
     7
 48
50.0
100
AcDbMText
 10
10460.82789715524
 20
8605.53277241488
 30
0.0
 40
120.0
 41
0.0
 71
     4
 72
     1
  1
現場打コンクリート
  7
STYLE1
 73
     1
 44
1.0
1001
ACAD
1000
MTEXTBEGIN
1070
    73
1070
     1
1070
    44
1040
1.0
1070
    74
1070
     0
1000
MTEXTEND
  0
TEXT
  5
1EB65
330
747D
100
AcDbEntity
  8
部品1
 48
50.0
100
AcDbText
 10
10468.95182925034
 20
8732.010360886958
 30
0.0
 40
120.0
  1
組立後
  7
STYLE1
100
AcDbText
  0
TEXT
  5
1F34D
330
747D
100
AcDbEntity
  8
文字
 48
50.0
100
AcDbText
 10
6719.171187008955
 20
7769.66809826624
 30
0.0
 40
120.0
  1
100x190x390
  7
STYLE1
100
AcDbText
  0
MTEXT
  5
1F34E
102
{ACAD_REACTORS
330
1F34F
102
}
330
747D
100
AcDbEntity
  8
部品1
 62
     7
 48
50.0
100
AcDbMText
 10
6858.112371873492
 20
8022.166697759862
 30
0.0
 40
120.0
 41
0.0
 71
     4
 72
     1
  1
\A1;C.B
  7
STYLE1
 73
     1
 44
1.0
1001
ACAD
1000
MTEXTBEGIN
1070
    73
1070
     1
1070
    44
1040
1.0
1070
    74
1070
     0
1000
MTEXTEND
  0
LEADER
  5
1F34F
330
747D
100
AcDbEntity
  8
寸法
 48
50.0
100
AcDbLeader
  3
INABA_S50G
 71
     0
 73
     0
 74
     0
 75
     1
 40
120.0
 41
185.591883092037
 76
     3
 10
6660.147659102761
 20
8182.429203238028
 30
0.0
 10
6708.112371873491
 20
7937.166697759862
 30
0.0
 10
6833.112371873491
 20
7937.166697759862
 30
0.0
340
1F34E
1001
ACAD
1000
DSTYLE
1002
{
1070
   341
1005
1C530
1070
    40
1040
1.0
1070
   343
1005
1C530
1070
   344
1005
1C530
1002
}
  0
TEXT
  5
1F6EC
330
747D
100
AcDbEntity
  8
文字
 48
50.0
100
AcDbText
 10
10491.8664264809
 20
8330.095724898759
 30
0.0
 40
120.0
  1
深サ:200
  7
STYLE1
100
AcDbText
  0
LINE
  5
200B3
330
747D
100
AcDbEntity
  8
部品1
 48
50.0
100
AcDbLine
 10
4062.64865692558
 20
2120.0
 30
0.0
 11
10462.64865692558
 21
2120.0
 31
0.0
  0
LINE
  5
200B4
330
747D
100
AcDbEntity
  8
部品1
 48
50.0
100
AcDbLine
 10
10462.64865692558
 20
2360.0
 30
0.0
 11
5662.648656925581
 21
2360.0
 31
0.0
  0
LINE
  5
200B5
330
747D
100
AcDbEntity
  8
部品1
 48
50.0
100
AcDbLine
 10
10462.64865692558
 20
2600.0
 30
0.0
 11
4062.64865692558
 21
2600.000000000002
 31
0.0
  0
LINE
  5
200B6
330
747D
100
AcDbEntity
  8
部品1
 48
50.0
100
AcDbLine
 10
4062.64865692558
 20
200.0
 30
0.0
 11
10462.64865692558
 21
200.0
 31
0.0
  0
TEXT
  5
200B7
330
747D
100
AcDbEntity
  8
部品1
100
AcDbText
 10
7316.375973304274
 20
2414.063814602734
 30
0.0
 40
120.0
  1
アンカー部詳細
  7
STYLE2
100
AcDbText
  0
LINE
  5
200B8
330
747D
100
AcDbEntity
  8
細線
100
AcDbLine
 10
4858.135165960373
 20
1040.760787611754
 30
0.0
 11
4958.13516596037
 21
1140.760787611756
 31
0.0
  0
LINE
  5
200B9
330
747D
100
AcDbEntity
  8
細線
100
AcDbLine
 10
4933.564615338962
 20
1140.760787611756
 30
0.0
 11
4733.564615338965
 21
1340.760787611754
 31
0.0
  0
LEADER
  5
200BA
330
747D
100
AcDbEntity
  8
寸法
 48
50.0
100
AcDbLeader
  3
INABA_S50G
 71
     0
 73
     0
 74
     0
 75
     1
 40
120.0
 41
185.591883092037
 76
     3
 10
4787.522407499808
 20
1340.760787611754
 30
0.0
 10
4942.785990070984
 20
1553.612705420522
 30
0.0
 10
5067.785990070984
 20
1553.612705420522
 30
0.0
340
200BB
213
67.73172584638814
223
0.0
233
0.0
1001
ACAD
1000
DSTYLE
1002
{
1070
    40
1040
1.0
1002
}
  0
MTEXT
  5
200BB
102
{ACAD_REACTORS
330
200BA
102
}
330
747D
100
AcDbEntity
  8
寸法
 62
     7
 48
50.0
100
AcDbMText
 10
5025.054264224596
 20
1638.612705420522
 30
0.0
 40
120.0
 41
1.0
 71
     4
 72
     1
  1
\A1;C.B
  7
STYLE1
 73
     1
 44
1.0
1001
ACAD
1000
MTEXTBEGIN
1070
    73
1070
     1
1070
    44
1040
1.0
1070
    74
1070
     0
1000
MTEXTEND
  0
TEXT
  5
200BC
330
747D
100
AcDbEntity
  8
部品1
100
AcDbText
 10
4528.24867793038
 20
2307.972217178321
 30
0.0
 40
120.0
  1
基礎詳細
  7
STYLE2
100
AcDbText
  0
LINE
  5
200BD
330
747D
100
AcDbEntity
  8
細線
100
AcDbLine
 10
4975.991022210155
 20
1140.760787611756
 30
0.0
 11
4775.991022210159
 21
1340.760787611754
 31
0.0
  0
LINE
  5
200BE
330
747D
100
AcDbEntity
  8
Ｇ．Ｌ
100
AcDbLine
 10
4157.421401454484
 20
1140.760787611756
 30
0.0
 11
5588.314685277643
 21
1140.760787611756
 31
0.0
  0
LINE
  5
200BF
330
747D
100
AcDbEntity
  8
部品1
100
AcDbLine
 10
4587.522407499809
 20
1340.760787611754
 30
0.0
 11
4987.522407499806
 21
1340.760787611754
 31
0.0
  0
LINE
  5
200C0
330
747D
100
AcDbEntity
  8
部品1
100
AcDbLine
 10
4487.522407499805
 20
1040.760787611753
 30
0.0
 11
5087.522407499806
 21
1040.760787611754
 31
0.0
  0
LINE
  5
200C1
330
747D
100
AcDbEntity
  8
部品1
100
AcDbLine
 10
4487.522407499805
 20
840.7607876117507
 30
0.0
 11
5087.522407499806
 21
840.7607876117545
 31
0.0
  0
LINE
  5
200C2
330
747D
100
AcDbEntity
  8
部品1
 48
50.0
100
AcDbLine
 10
4062.64865692558
 20
2600.0
 30
0.0
 11
4062.64865692558
 21
200.0
 31
0.0
  0
LINE
  5
200C3
330
747D
100
AcDbEntity
  8
細線
100
AcDbLine
 10
4587.522407499809
 20
1040.760787611753
 30
0.0
 11
4641.112245986028
 21
840.760787611749
 31
0.0
  0
LINE
  5
200C4
330
747D
100
AcDbEntity
  8
細線
100
AcDbLine
 10
4687.522407499805
 20
1040.760787611754
 30
0.0
 11
4741.112245986029
 21
840.7607876117507
 31
0.0
  0
LINE
  5
200C5
330
747D
100
AcDbEntity
  8
細線
100
AcDbLine
 10
4787.522407499806
 20
1040.760787611754
 30
0.0
 11
4841.112245986033
 21
840.7607876117507
 31
0.0
  0
LINE
  5
200C6
330
747D
100
AcDbEntity
  8
細線
100
AcDbLine
 10
4487.522407499805
 20
1040.760787611753
 30
0.0
 11
4541.112245986033
 21
840.760787611749
 31
0.0
  0
LINE
  5
200C7
330
747D
100
AcDbEntity
  8
部品1
100
AcDbLine
 10
4487.522407499805
 20
840.7607876117507
 30
0.0
 11
4487.522407499805
 21
1140.760787611756
 31
0.0
  0
LINE
  5
200C8
330
747D
100
AcDbEntity
  8
細線
100
AcDbLine
 10
4627.714786364477
 20
890.7607876117527
 30
0.0
 11
4614.317326742917
 21
840.7607876117507
 31
0.0
  0
LINE
  5
200C9
330
747D
100
AcDbEntity
  8
細線
100
AcDbLine
 10
4527.714786364473
 20
890.7607876117527
 30
0.0
 11
4514.317326742918
 21
840.7607876117507
 31
0.0
  0
LINE
  5
200CA
330
747D
100
AcDbEntity
  8
細線
100
AcDbLine
 10
4727.714786364473
 20
890.7607876117545
 30
0.0
 11
4714.317326742921
 21
840.7607876117545
 31
0.0
  0
LINE
  5
200CB
330
747D
100
AcDbEntity
  8
細線
100
AcDbLine
 10
4827.714786364474
 20
890.7607876117545
 30
0.0
 11
4814.317326742918
 21
840.7607876117545
 31
0.0
  0
LINE
  5
200CC
330
747D
100
AcDbEntity
  8
部品1
100
AcDbLine
 10
4587.522407499809
 20
1140.760787611756
 30
0.0
 11
4587.522407499809
 21
1340.760787611754
 31
0.0
  0
LINE
  5
200CD
330
747D
100
AcDbEntity
  8
細線
100
AcDbLine
 10
4749.716852230462
 20
1140.760787611756
 30
0.0
 11
4587.522407499806
 21
1302.955232342408
 31
0.0
  0
LINE
  5
200CE
330
747D
100
AcDbEntity
  8
細線
100
AcDbLine
 10
4614.7037084553
 20
1040.760787611754
 30
0.0
 11
4714.703708455295
 21
1140.760787611756
 31
0.0
  0
LINE
  5
200CF
330
747D
100
AcDbEntity
  8
細線
100
AcDbLine
 10
4707.290445359268
 20
1140.760787611756
 30
0.0
 11
4587.522407499809
 21
1260.528825471216
 31
0.0
  0
LINE
  5
200D0
330
747D
100
AcDbEntity
  8
細線
100
AcDbLine
 10
4586.419437207836
 20
1040.760787611754
 30
0.0
 11
4686.419437207833
 21
1140.760787611756
 31
0.0
  0
LINE
  5
200D1
330
747D
100
AcDbEntity
  8
細線
100
AcDbLine
 10
4558.135165960373
 20
1040.760787611753
 30
0.0
 11
4658.135165960373
 21
1140.760787611756
 31
0.0
  0
LINE
  5
200D2
330
747D
100
AcDbEntity
  8
細線
100
AcDbLine
 10
4614.317326742917
 20
1040.760787611753
 30
0.0
 11
4600.919867121361
 21
990.7607876117507
 31
0.0
  0
LINE
  5
200D3
330
747D
100
AcDbEntity
  8
細線
100
AcDbLine
 10
4514.317326742918
 20
1040.760787611753
 30
0.0
 11
4500.919867121365
 21
990.7607876117507
 31
0.0
  0
LINE
  5
200D4
330
747D
100
AcDbEntity
  8
細線
100
AcDbLine
 10
4714.317326742921
 20
1040.760787611754
 30
0.0
 11
4700.919867121362
 21
990.7607876117562
 31
0.0
  0
LINE
  5
200D5
330
747D
100
AcDbEntity
  8
細線
100
AcDbLine
 10
4814.317326742918
 20
1040.760787611754
 30
0.0
 11
4800.919867121365
 21
990.7607876117562
 31
0.0
  0
LINE
  5
200D6
330
747D
100
AcDbEntity
  8
細線
 48
50.0
100
AcDbLine
 10
5900.356359188782
 20
1940.760787611752
 30
0.0
 11
5900.356359188782
 21
1440.760787611754
 31
0.0
  0
LINE
  5
200D7
330
747D
100
AcDbEntity
  8
細線
 48
50.0
100
AcDbLine
 10
5930.356359188781
 20
1940.760787611752
 30
0.0
 11
5930.356359188781
 21
1440.760787611754
 31
0.0
  0
LINE
  5
200D8
330
747D
100
AcDbEntity
  8
細線
 48
50.0
100
AcDbLine
 10
6210.356359188781
 20
1940.760787611752
 30
0.0
 11
6210.356359188781
 21
1440.760787611754
 31
0.0
  0
LINE
  5
200D9
330
747D
100
AcDbEntity
  8
細線
 48
50.0
100
AcDbLine
 10
6180.356359188781
 20
1940.760787611752
 30
0.0
 11
6180.356359188781
 21
1440.760787611754
 31
0.0
  0
LINE
  5
200DA
330
747D
100
AcDbEntity
  8
部品1
 48
50.0
100
AcDbLine
 10
7262.648656925581
 20
2360.0
 30
0.0
 11
7262.648656925581
 21
200.0
 31
0.0
  0
LINE
  5
200DB
330
747D
100
AcDbEntity
  8
部品1
 48
50.0
100
AcDbLine
 10
5662.648656925581
 20
2600.0
 30
0.0
 11
5662.648656925581
 21
200.0
 31
0.0
  0
LINE
  5
200DC
330
747D
100
AcDbEntity
  8
部品1
100
AcDbLine
 10
6445.356359188782
 20
1940.760787611752
 30
0.0
 11
6445.356359188782
 21
1140.760787611754
 31
0.0
  0
LINE
  5
200DD
330
747D
100
AcDbEntity
  8
部品1
100
AcDbLine
 10
6335.356359188781
 20
1940.760787611752
 30
0.0
 11
6335.356359188786
 21
1434.760787611756
 31
0.0
  0
LINE
  5
200DE
330
747D
100
AcDbEntity
  8
部品1
100
AcDbLine
 10
5730.101925945188
 20
1434.760787611754
 30
0.0
 11
6445.356359188782
 21
1434.760787611754
 31
0.0
  0
DIMENSION
  5
200DF
330
747D
100
AcDbEntity
  8
寸法
 48
50.0
100
AcDbDimension
  2
*D24
 10
5952.026612113252
 20
740.7607876117545
 30
0.0
 11
5952.026612113252
 21
928.3854207276599
 31
0.0
 70
   160
  1
200
 71
     5
 42
400.0
  3
INABA_S40G
100
AcDbAlignedDimension
 13
6045.356359188781
 23
1140.760787611754
 33
0.0
 14
6195.356359188782
 24
740.7607876117545
 34
0.0
 50
90.0
100
AcDbRotatedDimension
1001
ACAD
1000
DSTYLE
1002
{
1070
   174
1070
     0
1070
   272
1070
     1
1070
   288
1070
     0
1070
   341
1005
0
1002
}
  0
LINE
  5
200E0
330
747D
100
AcDbEntity
  8
Ｇ．Ｌ
100
AcDbLine
 10
5730.101925945188
 20
1140.760787611754
 30
0.0
 11
6365.356359188782
 21
1140.760787611754
 31
0.0
  0
LINE
  5
200E1
330
747D
100
AcDbEntity
  8
部品1
100
AcDbLine
 10
5730.101925945188
 20
1340.760787611754
 30
0.0
 11
6365.356359188782
 21
1340.760787611754
 31
0.0
  0
LINE
  5
200E2
330
747D
100
AcDbEntity
  8
部品1
100
AcDbLine
 10
5730.101925945188
 20
1440.760787611756
 30
0.0
 11
6335.356359188781
 21
1440.760787611754
 31
0.0
  0
LINE
  5
200E3
330
747D
100
AcDbEntity
  8
細線
100
AcDbLine
 10
4987.522407499806
 20
1040.760787611754
 30
0.0
 11
5041.112245986028
 21
840.7607876117545
 31
0.0
  0
LINE
  5
200E4
330
747D
100
AcDbEntity
  8
細線
100
AcDbLine
 10
4887.522407499809
 20
1040.760787611754
 30
0.0
 11
4941.112245986029
 21
840.7607876117507
 31
0.0
  0
LINE
  5
200E5
330
747D
100
AcDbEntity
  8
部品1
100
AcDbLine
 10
5087.522407499806
 20
1140.760787611756
 30
0.0
 11
5087.522407499806
 21
840.7607876117545
 31
0.0
  0
LINE
  5
200E6
330
747D
100
AcDbEntity
  8
細線
100
AcDbLine
 10
5027.714786364473
 20
890.7607876117545
 30
0.0
 11
5014.317326742921
 21
840.7607876117545
 31
0.0
  0
LINE
  5
200E7
330
747D
100
AcDbEntity
  8
細線
100
AcDbLine
 10
4927.714786364477
 20
890.7607876117545
 30
0.0
 11
4914.317326742917
 21
840.7607876117545
 31
0.0
  0
TEXT
  5
200E8
330
747D
100
AcDbEntity
  8
部品1
100
AcDbText
 10
5210.775033367236
 20
1148.66682929066
 30
0.0
 40
120.0
  1
▽G.L
  7
STYLE1
100
AcDbText
  0
LINE
  5
200E9
330
747D
100
AcDbEntity
  8
部品1
100
AcDbLine
 10
4987.522407499806
 20
1340.760787611754
 30
0.0
 11
4987.522407499806
 21
1140.760787611756
 31
0.0
  0
LINE
  5
200EA
330
747D
100
AcDbEntity
  8
細線
100
AcDbLine
 10
4914.703708455295
 20
1040.760787611754
 30
0.0
 11
5014.703708455296
 21
1140.760787611756
 31
0.0
  0
LINE
  5
200EB
330
747D
100
AcDbEntity
  8
細線
100
AcDbLine
 10
4886.419437207837
 20
1040.760787611754
 30
0.0
 11
4986.419437207833
 21
1140.760787611756
 31
0.0
  0
LINE
  5
200EC
330
747D
100
AcDbEntity
  8
細線
100
AcDbLine
 10
5014.317326742921
 20
1040.760787611754
 30
0.0
 11
5000.919867121361
 21
990.7607876117562
 31
0.0
  0
LINE
  5
200ED
330
747D
100
AcDbEntity
  8
細線
100
AcDbLine
 10
4914.317326742917
 20
1040.760787611754
 30
0.0
 11
4900.919867121362
 21
990.7607876117562
 31
0.0
  0
TEXT
  5
200EE
330
747D
100
AcDbEntity
  8
部品1
100
AcDbText
 10
6829.919906258393
 20
1148.666829290658
 30
0.0
 40
120.0
  1
▽G.L
  7
STYLE1
100
AcDbText
  0
LINE
  5
200EF
330
747D
100
AcDbEntity
  8
細線
  6
HIDDEN
 48
10.0
100
AcDbLine
 10
6480.083088090738
 20
740.7607876117562
 30
0.0
 11
6595.35635918878
 21
856.0340587098036
 31
0.0
  0
LINE
  5
200F0
330
747D
100
AcDbEntity
  8
細線
  6
HIDDEN
 48
10.0
100
AcDbLine
 10
6451.798816843276
 20
740.7607876117554
 30
0.0
 11
6595.356359188781
 21
884.3183299572638
 31
0.0
  0
LINE
  5
200F1
330
747D
100
AcDbEntity
  8
細線
  6
HIDDEN
 48
10.0
100
AcDbLine
 10
6508.367359338198
 20
740.7607876117562
 30
0.0
 11
6595.35635918878
 21
827.7497874623396
 31
0.0
  0
LINE
  5
200F2
330
747D
100
AcDbEntity
  8
Ｇ．Ｌ
100
AcDbLine
 10
6445.356359188782
 20
1140.760787611754
 30
0.0
 11
7197.452601427119
 21
1140.760787611754
 31
0.0
  0
LINE
  5
200F3
330
747D
100
AcDbEntity
  8
細線
  6
HIDDEN
 48
10.0
100
AcDbLine
 10
6195.356359188782
 20
882.6924475626292
 30
0.0
 11
6358.618685142015
 21
1045.954773515872
 31
0.0
  0
LINE
  5
200F4
330
747D
100
AcDbEntity
  8
細線
  6
HIDDEN
 48
10.0
100
AcDbLine
 10
6195.356359188782
 20
910.9767188100905
 30
0.0
 11
6361.835585338618
 21
1077.455944959931
 31
0.0
  0
LINE
  5
200F5
330
747D
100
AcDbEntity
  8
細線
  6
HIDDEN
 48
10.0
100
AcDbLine
 10
6195.356359188782
 20
854.408176315168
 30
0.0
 11
6355.401784945405
 21
1014.453602071808
 31
0.0
  0
LINE
  5
200F6
330
747D
100
AcDbEntity
  8
部品1
100
AcDbLine
 10
6364.459590180714
 20
1103.151248310656
 30
0.0
 11
6335.356359188781
 21
818.160787611754
 31
0.0
  0
LINE
  5
200F7
330
747D
100
AcDbEntity
  8
部品1
100
AcDbLine
 10
6446.253128196857
 20
1103.151248310656
 30
0.0
 11
6475.356359188781
 21
818.160787611754
 31
0.0
  0
LINE
  5
200F8
330
747D
100
AcDbEntity
  8
部品1
100
AcDbLine
 10
6335.356359188781
 20
818.160787611754
 30
0.0
 11
6475.356359188781
 21
818.160787611754
 31
0.0
  0
LINE
  5
200F9
330
747D
100
AcDbEntity
  8
部品1
100
AcDbLine
 10
6335.356359188781
 20
806.1607876117541
 30
0.0
 11
6475.356359188781
 21
806.1607876117541
 31
0.0
  0
LINE
  5
200FA
330
747D
100
AcDbEntity
  8
部品1
100
AcDbLine
 10
6335.356359188781
 20
818.1607876117523
 30
0.0
 11
6335.356359188781
 21
806.1607876117541
 31
0.0
  0
LINE
  5
200FB
330
747D
100
AcDbEntity
  8
細線
100
AcDbLine
 10
6390.356359188782
 20
830.1607876117559
 30
0.0
 11
6420.356359188781
 21
830.1607876117524
 31
0.0
  0
LINE
  5
200FC
330
747D
100
AcDbEntity
  8
細線
100
AcDbLine
 10
6390.356359188782
 20
836.160787611756
 30
0.0
 11
6420.356359188781
 21
836.1607876117522
 31
0.0
  0
LINE
  5
200FD
330
747D
100
AcDbEntity
  8
細線
100
AcDbLine
 10
6390.356359188782
 20
876.1607876117578
 30
0.0
 11
6420.356359188781
 21
876.1607876117523
 31
0.0
  0
LINE
  5
200FE
330
747D
100
AcDbEntity
  8
細線
100
AcDbLine
 10
6390.356359188782
 20
870.1607876117577
 30
0.0
 11
6420.356359188781
 21
870.1607876117522
 31
0.0
  0
LINE
  5
200FF
330
747D
100
AcDbEntity
  8
細線
100
AcDbLine
 10
6390.356359188782
 20
836.160787611756
 30
0.0
 11
6390.356359188782
 21
830.1607876117524
 31
0.0
  0
LINE
  5
20100
330
747D
100
AcDbEntity
  8
細線
100
AcDbLine
 10
6390.356359188782
 20
876.1607876117578
 30
0.0
 11
6390.356359188782
 21
870.1607876117522
 31
0.0
  0
LINE
  5
20101
330
747D
100
AcDbEntity
  8
細線
100
AcDbLine
 10
6420.356359188781
 20
836.1607876117505
 30
0.0
 11
6420.356359188781
 21
830.1607876117504
 31
0.0
  0
LINE
  5
20102
330
747D
100
AcDbEntity
  8
細線
100
AcDbLine
 10
6420.356359188781
 20
876.1607876117487
 30
0.0
 11
6420.356359188781
 21
870.1607876117487
 31
0.0
  0
LINE
  5
20103
330
747D
100
AcDbEntity
  8
部品1
100
AcDbLine
 10
6475.356359188781
 20
818.160787611754
 30
0.0
 11
6475.356359188781
 21
806.1607876117541
 31
0.0
  0
LINE
  5
20104
330
747D
100
AcDbEntity
  8
細線
100
AcDbLine
 10
6173.811028752172
 20
1140.760787611754
 30
0.0
 11
6045.356359188781
 21
1269.215457175147
 31
0.0
  0
LINE
  5
20105
330
747D
100
AcDbEntity
  8
細線
100
AcDbLine
 10
6357.658791860677
 20
1140.760787611754
 30
0.0
 11
6157.658791860677
 21
1340.760787611754
 31
0.0
  0
LINE
  5
20106
330
747D
100
AcDbEntity
  8
部品1
100
AcDbLine
 10
6045.356359188781
 20
1140.760787611754
 30
0.0
 11
6045.356359188781
 21
1340.760787611754
 31
0.0
  0
LINE
  5
20107
330
747D
100
AcDbEntity
  8
細線
100
AcDbLine
 10
6131.384621880979
 20
1140.760787611754
 30
0.0
 11
6045.356359188781
 21
1226.789050303954
 31
0.0
  0
LINE
  5
20108
330
747D
100
AcDbEntity
  8
細線
100
AcDbLine
 10
6365.356359188782
 20
1175.489627154842
 30
0.0
 11
6200.085198731869
 21
1340.760787611754
 31
0.0
  0
LINE
  5
20109
330
747D
100
AcDbEntity
  8
部品1
100
AcDbLine
 10
6445.356359188782
 20
1403.760787611754
 30
0.0
 11
6445.356359188785
 21
1106.406256599763
 31
0.0
  0
LINE
  5
2010A
330
747D
100
AcDbEntity
  8
部品1
100
AcDbLine
 10
6365.356359188782
 20
1404.760787611754
 30
0.0
 11
6365.356359188782
 21
1106.406256599763
 31
0.0
  0
LINE
  5
2010B
330
747D
100
AcDbEntity
  8
部品1
100
AcDbLine
 10
6374.410418669025
 20
1112.160787611754
 30
0.0
 11
6436.302299708538
 21
1112.160787611748
 31
0.0
  0
ARC
  5
2010C
330
747D
100
AcDbEntity
  8
部品1
100
AcDbCircle
 10
6374.410418669025
 20
1102.160787611752
 30
0.0
 40
10.0
100
AcDbArc
 50
90.0
 51
174.3157584018092
  0
LINE
  5
2010D
330
747D
100
AcDbEntity
  8
細線
  6
HIDDEN
 48
10.0
100
AcDbLine
 10
6445.356359188782
 20
1132.692447562642
 30
0.0
 11
6453.424699237896
 21
1140.760787611754
 31
0.0
  0
LINE
  5
2010E
330
747D
100
AcDbEntity
  8
細線
  6
HIDDEN
 48
10.0
100
AcDbLine
 10
6445.903804845669
 20
1104.955621972072
 30
0.0
 11
6481.708970485351
 21
1140.760787611756
 31
0.0
  0
ARC
  5
2010F
330
747D
100
AcDbEntity
  8
部品1
100
AcDbCircle
 10
6436.302299708538
 20
1102.160787611748
 30
0.0
 40
10.0
100
AcDbArc
 50
5.684241598190771
 51
90.0
  0
CIRCLE
  5
20110
330
747D
100
AcDbEntity
  8
細線
100
AcDbCircle
 10
6405.356359188781
 20
1244.760787611756
 30
0.0
 40
6.0
  0
CIRCLE
  5
20111
330
747D
100
AcDbEntity
  8
細線
100
AcDbCircle
 10
6405.356359188781
 20
1244.760787611756
 30
0.0
 40
7.0
  0
CIRCLE
  5
20112
330
747D
100
AcDbEntity
  8
細線
100
AcDbCircle
 10
6405.356359188781
 20
1089.760787611754
 30
0.0
 40
16.0
  0
LINE
  5
20113
330
747D
100
AcDbEntity
  8
細線
100
AcDbLine
 10
6390.356359188782
 20
1020.160787611756
 30
0.0
 11
6391.356359188781
 21
1020.160787611756
 31
0.0
  0
LINE
  5
20114
330
747D
100
AcDbEntity
  8
細線
100
AcDbLine
 10
6390.356359188782
 20
1026.160787611756
 30
0.0
 11
6420.356359188781
 21
1026.160787611752
 31
0.0
  0
ARC
  5
20115
330
747D
100
AcDbEntity
  8
細線
100
AcDbCircle
 10
6405.356359188781
 20
1050.16078761175
 30
0.0
 40
8.0
100
AcDbArc
 50
180.0
 51
0.0
  0
LINE
  5
20116
330
747D
100
AcDbEntity
  8
細線
100
AcDbLine
 10
6390.356359188782
 20
1026.160787611756
 30
0.0
 11
6390.356359188782
 21
1020.160787611752
 31
0.0
  0
LINE
  5
20117
330
747D
100
AcDbEntity
  8
細線
100
AcDbLine
 10
6390.356359188782
 20
1024.760787611749
 30
0.0
 11
6420.356359188781
 21
1024.760787611754
 31
0.0
  0
LINE
  5
20118
330
747D
100
AcDbEntity
  8
細線
100
AcDbLine
 10
6397.479464814403
 20
1008.160787611745
 30
0.0
 11
6413.233253563166
 21
1008.16078761175
 31
0.0
  0
LINE
  5
20119
330
747D
100
AcDbEntity
  8
細線
100
AcDbLine
 10
6391.356359188781
 20
1024.760787611749
 30
0.0
 11
6391.356359188781
 21
1020.160787611752
 31
0.0
  0
LINE
  5
2011A
330
747D
100
AcDbEntity
  8
細線
100
AcDbLine
 10
6391.356359188781
 20
1020.16078761175
 30
0.0
 11
6393.59889481382
 21
1011.190645111601
 31
0.0
  0
ARC
  5
2011B
330
747D
100
AcDbEntity
  8
細線
100
AcDbCircle
 10
6397.479464814403
 20
1012.160787611747
 30
0.0
 40
4.0
100
AcDbArc
 50
194.0362434679581
 51
270.0
  0
LINE
  5
2011C
330
747D
100
AcDbEntity
  8
細線
100
AcDbLine
 10
6419.356359188781
 20
1024.760787611751
 30
0.0
 11
6419.356359188781
 21
1020.160787611752
 31
0.0
  0
LINE
  5
2011D
330
747D
100
AcDbEntity
  8
細線
100
AcDbLine
 10
6419.356359188781
 20
1020.16078761175
 30
0.0
 11
6417.113823563743
 21
1011.190645111601
 31
0.0
  0
ARC
  5
2011E
330
747D
100
AcDbEntity
  8
細線
100
AcDbCircle
 10
6413.233253563166
 20
1012.160787611748
 30
0.0
 40
4.0
100
AcDbArc
 50
270.0
 51
345.963756532042
  0
LINE
  5
2011F
330
747D
100
AcDbEntity
  8
細線
100
AcDbLine
 10
6420.356359188781
 20
1026.16078761175
 30
0.0
 11
6420.356359188781
 21
1020.16078761175
 31
0.0
  0
LINE
  5
20120
330
747D
100
AcDbEntity
  8
細線
100
AcDbLine
 10
6419.356359188781
 20
1020.160787611756
 30
0.0
 11
6420.356359188781
 21
1020.160787611752
 31
0.0
  0
LINE
  5
20121
330
747D
100
AcDbEntity
  8
細線
100
AcDbLine
 10
6413.356359188782
 20
1075.904381151204
 30
0.0
 11
6413.356359188782
 21
1050.16078761175
 31
0.0
  0
LINE
  5
20122
330
747D
100
AcDbEntity
  8
細線
100
AcDbLine
 10
6397.356359188782
 20
1075.904381151204
 30
0.0
 11
6397.356359188782
 21
1050.16078761175
 31
0.0
  0
LINE
  5
20123
330
747D
100
AcDbEntity
  8
部品1
100
AcDbLine
 10
6375.356359188781
 20
1414.760787611754
 30
0.0
 11
6435.356359188782
 21
1414.760787611754
 31
0.0
  0
ARC
  5
20124
330
747D
100
AcDbEntity
  8
部品1
100
AcDbCircle
 10
6375.356359188781
 20
1404.760787611754
 30
0.0
 40
10.0
100
AcDbArc
 50
90.0
 51
180.0
  0
ARC
  5
20125
330
747D
100
AcDbEntity
  8
細線
100
AcDbCircle
 10
6405.356359188781
 20
1354.760787611754
 30
0.0
 40
8.0
100
AcDbArc
 50
0.0
 51
180.0
  0
ARC
  5
20126
330
747D
100
AcDbEntity
  8
細線
100
AcDbCircle
 10
6405.356359188781
 20
1314.760787611754
 30
0.0
 40
8.0
100
AcDbArc
 50
180.0
 51
0.0
  0
LINE
  5
20127
330
747D
100
AcDbEntity
  8
細線
100
AcDbLine
 10
6397.356359188782
 20
1354.760787611754
 30
0.0
 11
6397.356359188782
 21
1314.760787611754
 31
0.0
  0
LINE
  5
20128
330
747D
100
AcDbEntity
  8
細線
100
AcDbLine
 10
6413.356359188782
 20
1354.760787611754
 30
0.0
 11
6413.356359188782
 21
1314.760787611754
 31
0.0
  0
ARC
  5
20129
330
747D
100
AcDbEntity
  8
部品1
100
AcDbCircle
 10
6435.356359188782
 20
1404.760787611754
 30
0.0
 40
10.0
100
AcDbArc
 50
0.0
 51
90.0
  0
CIRCLE
  5
2012A
330
747D
100
AcDbEntity
  8
部品1
100
AcDbCircle
 10
6405.356359188781
 20
1384.760787611754
 30
0.0
 40
16.0
  0
TEXT
  5
2012B
330
747D
100
AcDbEntity
  8
部品1
100
AcDbText
 10
5874.802018364151
 20
2178.285116341204
 30
0.0
 40
120.0
  1
地盤が土の場合
  7
STYLE2
100
AcDbText
  0
TEXT
  5
2012C
330
747D
100
AcDbEntity
  8
部品1
100
AcDbText
 10
10008.81469956665
 20
1148.666829290658
 30
0.0
 40
120.0
  1
▽G.L
  7
STYLE1
100
AcDbText
  0
LINE
  5
2012D
330
747D
100
AcDbEntity
  8
細線
 48
10.0
100
AcDbLine
 10
10029.53615455351
 20
833.8425902724702
 30
0.0
 11
10336.45435189279
 21
1140.760787611754
 31
0.0
  0
LINE
  5
2012E
330
747D
100
AcDbEntity
  8
細線
 48
10.0
100
AcDbLine
 10
10001.25188330604
 20
833.8425902724702
 30
0.0
 11
10308.17008064532
 21
1140.760787611754
 31
0.0
  0
LINE
  5
2012F
330
747D
100
AcDbEntity
  8
細線
 48
10.0
100
AcDbLine
 10
9972.967612058587
 20
833.8425902724702
 30
0.0
 11
10279.88580939786
 21
1140.760787611754
 31
0.0
  0
LINE
  5
20130
330
747D
100
AcDbEntity
  8
Ｇ．Ｌ
100
AcDbLine
 10
8935.947068116155
 20
1140.760787611754
 30
0.0
 11
10380.8387701213
 21
1140.760787611754
 31
0.0
  0
LINE
  5
20131
330
747D
100
AcDbEntity
  8
部品1
100
AcDbLine
 10
9448.744464914865
 20
2040.760787611753
 30
0.0
 11
9448.74446491487
 21
1534.760787611756
 31
0.0
  0
LINE
  5
20132
330
747D
100
AcDbEntity
  8
部品1
100
AcDbLine
 10
9558.744464914866
 20
2040.760787611753
 30
0.0
 11
9558.74446491487
 21
1541.006256599761
 31
0.0
  0
LINE
  5
20133
330
747D
100
AcDbEntity
  8
細線
 48
50.0
100
AcDbLine
 10
9013.744464914863
 20
2040.760787611753
 30
0.0
 11
9013.744464914863
 21
1540.760787611756
 31
0.0
  0
LINE
  5
20134
330
747D
100
AcDbEntity
  8
細線
 48
50.0
100
AcDbLine
 10
9043.744464914862
 20
2040.760787611753
 30
0.0
 11
9043.744464914862
 21
1540.760787611756
 31
0.0
  0
LINE
  5
20135
330
747D
100
AcDbEntity
  8
細線
 48
50.0
100
AcDbLine
 10
9293.744464914862
 20
2040.760787611753
 30
0.0
 11
9293.744464914862
 21
1540.760787611756
 31
0.0
  0
LINE
  5
20136
330
747D
100
AcDbEntity
  8
細線
 48
50.0
100
AcDbLine
 10
9323.744464914863
 20
2040.760787611753
 30
0.0
 11
9323.744464914863
 21
1540.760787611756
 31
0.0
  0
LINE
  5
20137
330
747D
100
AcDbEntity
  8
部品1
100
AcDbLine
 10
7938.411860201885
 20
1940.760787611754
 30
0.0
 11
7938.411860201888
 21
1434.760787611758
 31
0.0
  0
LINE
  5
20138
330
747D
100
AcDbEntity
  8
細線
 48
50.0
100
AcDbLine
 10
7813.41186020188
 20
1940.760787611754
 30
0.0
 11
7813.41186020188
 21
1440.760787611756
 31
0.0
  0
LINE
  5
20139
330
747D
100
AcDbEntity
  8
細線
 48
50.0
100
AcDbLine
 10
7783.41186020188
 20
1940.760787611754
 30
0.0
 11
7783.41186020188
 21
1440.760787611756
 31
0.0
  0
LINE
  5
2013A
330
747D
100
AcDbEntity
  8
細線
 48
50.0
100
AcDbLine
 10
7533.41186020188
 20
1940.760787611754
 30
0.0
 11
7533.41186020188
 21
1440.760787611756
 31
0.0
  0
LINE
  5
2013B
330
747D
100
AcDbEntity
  8
細線
 48
50.0
100
AcDbLine
 10
7503.411860201881
 20
1940.760787611754
 30
0.0
 11
7503.411860201881
 21
1440.760787611756
 31
0.0
  0
LINE
  5
2013C
330
747D
100
AcDbEntity
  8
部品1
100
AcDbLine
 10
8048.411860201884
 20
1940.760787611754
 30
0.0
 11
8048.411860201888
 21
1441.006256599761
 31
0.0
  0
LINE
  5
2013D
330
747D
100
AcDbEntity
  8
部品1
 48
50.0
100
AcDbLine
 10
8862.648656925582
 20
2120.0
 30
0.0
 11
8862.648656925582
 21
200.0
 31
0.0
  0
LINE
  5
2013E
330
747D
100
AcDbEntity
  8
細線
 48
10.0
100
AcDbLine
 10
7945.54772393227
 20
833.8425902724702
 30
0.0
 11
8252.465921271543
 21
1140.760787611754
 31
0.0
  0
LINE
  5
2013F
330
747D
100
AcDbEntity
  8
細線
 48
10.0
100
AcDbLine
 10
7917.263452684811
 20
833.8425902724702
 30
0.0
 11
8224.181650024084
 21
1140.760787611754
 31
0.0
  0
LINE
  5
20140
330
747D
100
AcDbEntity
  8
細線
 48
10.0
100
AcDbLine
 10
7973.831995179731
 20
833.8425902724702
 30
0.0
 11
8280.750192519009
 21
1140.760787611754
 31
0.0
  0
DIMENSION
  5
20141
330
747D
100
AcDbEntity
  8
寸法
 48
50.0
100
AcDbDimension
  2
*D25
 10
8281.17587077029
 20
1140.760787611754
 30
0.0
 11
8181.175870770291
 21
1240.760787611757
 31
0.0
 70
    32
  1
b
 71
     5
 42
200.0000000000018
  3
INABA_S40G
100
AcDbAlignedDimension
 13
8058.96262330739
 23
1340.760787611756
 33
0.0
 14
8078.41186020188
 24
1140.760787611754
 34
0.0
 50
90.0
100
AcDbRotatedDimension
1001
ACAD
1000
DSTYLE
1002
{
1070
   174
1070
     0
1070
   272
1070
     1
1070
   288
1070
     0
1070
   341
1005
0
1002
}
  0
LINE
  5
20142
330
747D
100
AcDbEntity
  8
Ｇ．Ｌ
100
AcDbLine
 10
7333.15742695829
 20
1140.760787611754
 30
0.0
 11
8797.192665722572
 21
1140.760787611754
 31
0.0
  0
LINE
  5
20143
330
747D
100
AcDbEntity
  8
細線
 48
10.0
100
AcDbLine
 10
7518.889335079449
 20
833.8425902724702
 30
0.0
 11
7825.807532418718
 21
1140.760787611754
 31
0.0
  0
LINE
  5
20144
330
747D
100
AcDbEntity
  8
細線
 48
10.0
100
AcDbLine
 10
7490.605063831985
 20
833.8425902724702
 30
0.0
 11
7797.523261171261
 21
1140.760787611754
 31
0.0
  0
LINE
  5
20145
330
747D
100
AcDbEntity
  8
細線
 48
10.0
100
AcDbLine
 10
7547.173606326909
 20
833.8425902724702
 30
0.0
 11
7854.091803666169
 21
1140.760787611754
 31
0.0
  0
LINE
  5
20146
330
747D
100
AcDbEntity
  8
部品1
100
AcDbLine
 10
7333.157426958287
 20
1340.760787611756
 30
0.0
 11
7957.610423596126
 21
1340.760787611756
 31
0.0
  0
LINE
  5
20147
330
747D
100
AcDbEntity
  8
部品1
100
AcDbLine
 10
7333.157426958287
 20
1440.760787611758
 30
0.0
 11
7938.411860201885
 21
1440.760787611756
 31
0.0
  0
LINE
  5
20148
330
747D
100
AcDbEntity
  8
部品1
100
AcDbLine
 10
7333.157426958287
 20
1434.760787611758
 30
0.0
 11
7967.209705293246
 21
1434.760787611758
 31
0.0
  0
LINE
  5
20149
330
747D
100
AcDbEntity
  8
細線
100
AcDbLine
 10
7734.440122894078
 20
1140.760787611754
 30
0.0
 11
7648.411860201881
 21
1226.789050303954
 31
0.0
  0
LINE
  5
2014A
330
747D
100
AcDbEntity
  8
細線
100
AcDbLine
 10
7776.866529765271
 20
1140.760787611754
 30
0.0
 11
7648.411860201881
 21
1269.215457175147
 31
0.0
  0
LINE
  5
2014B
330
747D
100
AcDbEntity
  8
部品1
100
AcDbLine
 10
7648.411860201881
 20
1140.760787611754
 30
0.0
 11
7648.411860201881
 21
1340.760787611756
 31
0.0
  0
LINE
  5
2014C
330
747D
100
AcDbEntity
  8
細線
 48
10.0
100
AcDbLine
 10
7333.157426958287
 20
1103.05334225162
 30
0.0
 11
7370.864872318425
 21
1140.760787611754
 31
0.0
  0
LINE
  5
2014D
330
747D
100
AcDbEntity
  8
細線
 48
10.0
100
AcDbLine
 10
7333.15742695829
 20
1046.484799756705
 30
0.0
 11
7427.433414813329
 21
1140.760787611754
 31
0.0
  0
LINE
  5
2014E
330
747D
100
AcDbEntity
  8
細線
 48
10.0
100
AcDbLine
 10
7333.15742695829
 20
1074.769071004164
 30
0.0
 11
7399.149143565877
 21
1140.760787611754
 31
0.0
  0
LINE
  5
2014F
330
747D
100
AcDbEntity
  8
細線
100
AcDbLine
 10
7939.366460965162
 20
1162.10861952037
 30
0.0
 11
7760.714292873776
 21
1340.760787611754
 31
0.0
  0
LINE
  5
20150
330
747D
100
AcDbEntity
  8
細線
100
AcDbLine
 10
7943.2975985588
 20
1200.603888797927
 30
0.0
 11
7803.140699744969
 21
1340.760787611754
 31
0.0
  0
LINE
  5
20151
330
747D
100
AcDbEntity
  8
部品1
100
AcDbLine
 10
8049.308629209956
 20
1437.751248310656
 30
0.0
 11
8078.41186020188
 21
1152.760787611754
 31
0.0
  0
LINE
  5
20152
330
747D
100
AcDbEntity
  8
部品1
100
AcDbLine
 10
7967.515091193813
 20
1437.751248310656
 30
0.0
 11
7938.41186020188
 21
1152.760787611754
 31
0.0
  0
LINE
  5
20153
330
747D
100
AcDbEntity
  8
部品1
100
AcDbLine
 10
7938.41186020188
 20
1152.760787611754
 30
0.0
 11
8078.41186020188
 21
1152.760787611754
 31
0.0
  0
LINE
  5
20154
330
747D
100
AcDbEntity
  8
部品1
100
AcDbLine
 10
7938.41186020188
 20
1140.760787611754
 30
0.0
 11
8078.41186020188
 21
1140.760787611754
 31
0.0
  0
LINE
  5
20155
330
747D
100
AcDbEntity
  8
部品1
100
AcDbLine
 10
7938.41186020188
 20
1152.760787611754
 30
0.0
 11
7938.41186020188
 21
1140.760787611754
 31
0.0
  0
LINE
  5
20156
330
747D
100
AcDbEntity
  8
部品1
100
AcDbLine
 10
7993.411860201881
 20
1207.160787611758
 30
0.0
 11
8023.41186020188
 21
1207.160787611758
 31
0.0
  0
LINE
  5
20157
330
747D
100
AcDbEntity
  8
部品1
100
AcDbLine
 10
7993.411860201881
 20
1213.160787611758
 30
0.0
 11
8023.41186020188
 21
1213.160787611758
 31
0.0
  0
LINE
  5
20158
330
747D
100
AcDbEntity
  8
部品1
100
AcDbLine
 10
7993.411860201881
 20
1173.160787611758
 30
0.0
 11
7998.411860201881
 21
1173.160787611758
 31
0.0
  0
LINE
  5
20159
330
747D
100
AcDbEntity
  8
部品1
100
AcDbLine
 10
7993.411860201881
 20
1213.160787611758
 30
0.0
 11
7993.411860201881
 21
1207.160787611758
 31
0.0
  0
LINE
  5
2015A
330
747D
100
AcDbEntity
  8
部品1
100
AcDbLine
 10
7993.411860201881
 20
1173.160787611758
 30
0.0
 11
7993.411860201881
 21
1171.760787611756
 31
0.0
  0
LINE
  5
2015B
330
747D
100
AcDbEntity
  8
部品1
100
AcDbLine
 10
8078.41186020188
 20
1152.760787611754
 30
0.0
 11
8078.41186020188
 21
1140.760787611754
 31
0.0
  0
LINE
  5
2015C
330
747D
100
AcDbEntity
  8
部品1
100
AcDbLine
 10
8023.41186020188
 20
1213.160787611754
 30
0.0
 11
8023.41186020188
 21
1207.160787611754
 31
0.0
  0
LINE
  5
2015D
330
747D
100
AcDbEntity
  8
部品1
100
AcDbLine
 10
8023.41186020188
 20
1173.160787611752
 30
0.0
 11
8023.41186020188
 21
1171.760787611756
 31
0.0
  0
LINE
  5
2015E
330
747D
100
AcDbEntity
  8
部品1
100
AcDbLine
 10
7978.41186020188
 20
1155.760787611754
 30
0.0
 11
8038.411860201881
 21
1155.76078761176
 31
0.0
  0
LINE
  5
2015F
330
747D
100
AcDbEntity
  8
部品1
100
AcDbLine
 10
7998.411860201881
 20
1192.760787611756
 30
0.0
 11
8018.411860201881
 21
1192.760787611756
 31
0.0
  0
LINE
  5
20160
330
747D
100
AcDbEntity
  8
部品1
100
AcDbLine
 10
7998.411860201881
 20
1155.760787611754
 30
0.0
 11
7998.411860201881
 21
1192.760787611756
 31
0.0
  0
LINE
  5
20161
330
747D
100
AcDbEntity
  8
部品1
100
AcDbLine
 10
8018.411860201881
 20
1155.760787611754
 30
0.0
 11
8018.411860201881
 21
1192.760787611756
 31
0.0
  0
LINE
  5
20162
330
747D
100
AcDbEntity
  8
部品1
100
AcDbLine
 10
7991.41186020188
 20
1171.760787611756
 30
0.0
 11
8025.411860201881
 21
1171.760787611756
 31
0.0
  0
LINE
  5
20163
330
747D
100
AcDbEntity
  8
部品1
100
AcDbLine
 10
7988.41186020188
 20
1155.760787611754
 30
0.0
 11
7988.41186020188
 21
1168.760787611756
 31
0.0
  0
LINE
  5
20164
330
747D
100
AcDbEntity
  8
部品1
100
AcDbLine
 10
8028.411860201881
 20
1155.76078761176
 30
0.0
 11
8028.411860201881
 21
1168.760787611756
 31
0.0
  0
LINE
  5
20165
330
747D
100
AcDbEntity
  8
部品1
100
AcDbLine
 10
7991.41186020188
 20
1171.760787611756
 30
0.0
 11
7988.41186020188
 21
1168.760787611756
 31
0.0
  0
LINE
  5
20166
330
747D
100
AcDbEntity
  8
部品1
100
AcDbLine
 10
8025.411860201881
 20
1171.760787611756
 30
0.0
 11
8028.411860201881
 21
1168.760787611756
 31
0.0
  0
LINE
  5
20167
330
747D
100
AcDbEntity
  8
部品1
100
AcDbLine
 10
7978.41186020188
 20
1152.760787611754
 30
0.0
 11
7978.41186020188
 21
1155.760787611754
 31
0.0
  0
LINE
  5
20168
330
747D
100
AcDbEntity
  8
部品1
100
AcDbLine
 10
8038.411860201881
 20
1152.760787611754
 30
0.0
 11
8038.411860201881
 21
1155.760787611763
 31
0.0
  0
LINE
  5
20169
330
747D
100
AcDbEntity
  8
部品1
100
AcDbLine
 10
8018.411860201881
 20
1173.160787611758
 30
0.0
 11
8023.41186020188
 21
1173.160787611758
 31
0.0
  0
LINE
  5
2016A
330
747D
100
AcDbEntity
  8
部品1
100
AcDbLine
 10
7988.41186020188
 20
1168.760787611756
 30
0.0
 11
8028.411860201881
 21
1168.760787611756
 31
0.0
  0
ARC
  5
2016B
330
747D
100
AcDbEntity
  8
部品1
100
AcDbCircle
 10
7993.411860201881
 20
1164.246032821438
 30
0.0
 40
6.736691384996243
100
AcDbArc
 50
42.08048849858703
 51
137.9195115014129
  0
ARC
  5
2016C
330
747D
100
AcDbEntity
  8
部品1
100
AcDbCircle
 10
8023.41186020188
 20
1164.246032821438
 30
0.0
 40
6.736691384996243
100
AcDbArc
 50
42.08048849858703
 51
137.9195115014129
  0
ARC
  5
2016D
330
747D
100
AcDbEntity
  8
部品1
100
AcDbCircle
 10
8008.41186020188
 20
1147.672154390937
 30
0.0
 40
23.33946124318486
100
AcDbArc
 50
64.63020194521864
 51
115.3697980547813
  0
LINE
  5
2016E
330
747D
100
AcDbEntity
  8
部品1
100
AcDbLine
 10
8001.411860201882
 20
1205.013683635416
 30
0.0
 11
8015.411860201881
 21
1205.013683635416
 31
0.0
  0
LINE
  5
2016F
330
747D
100
AcDbEntity
  8
部品1
100
AcDbLine
 10
8003.411860201881
 20
1192.760787611756
 30
0.0
 11
8003.411860201881
 21
1201.013683635416
 31
0.0
  0
LINE
  5
20170
330
747D
100
AcDbEntity
  8
部品1
100
AcDbLine
 10
8013.41186020188
 20
1192.760787611756
 30
0.0
 11
8013.41186020188
 21
1201.013683635416
 31
0.0
  0
LINE
  5
20171
330
747D
100
AcDbEntity
  8
部品1
100
AcDbLine
 10
8001.411860201882
 20
1201.013683635416
 30
0.0
 11
8001.411860201882
 21
1205.013683635416
 31
0.0
  0
LINE
  5
20172
330
747D
100
AcDbEntity
  8
部品1
100
AcDbLine
 10
8015.411860201881
 20
1201.013683635416
 30
0.0
 11
8015.411860201881
 21
1205.013683635416
 31
0.0
  0
LINE
  5
20173
330
747D
100
AcDbEntity
  8
部品1
100
AcDbLine
 10
8001.411860201882
 20
1201.013683635416
 30
0.0
 11
8015.411860201881
 21
1201.013683635416
 31
0.0
  0
LINE
  5
20174
330
747D
100
AcDbEntity
  8
部品1
100
AcDbLine
 10
7998.411860201881
 20
1140.760787611754
 30
0.0
 11
7998.411860201881
 21
1105.360787611755
 31
0.0
  0
LINE
  5
20175
330
747D
100
AcDbEntity
  8
部品1
100
AcDbLine
 10
8018.411860201881
 20
1140.760787611754
 30
0.0
 11
8018.411860201881
 21
1105.360787611755
 31
0.0
  0
LINE
  5
20176
330
747D
100
AcDbEntity
  8
部品1
100
AcDbLine
 10
8006.501359568344
 20
1105.360787611755
 30
0.0
 11
8010.322360835418
 21
1105.360787611755
 31
0.0
  0
LINE
  5
20177
330
747D
100
AcDbEntity
  8
部品1
100
AcDbLine
 10
7998.411860201881
 20
1105.360787611755
 30
0.0
 11
7992.41186020188
 21
1065.360787611755
 31
0.0
  0
LINE
  5
20178
330
747D
100
AcDbEntity
  8
部品1
100
AcDbLine
 10
8024.411860201881
 20
1065.360787611755
 30
0.0
 11
8018.411860201881
 21
1105.360787611755
 31
0.0
  0
LINE
  5
20179
330
747D
100
AcDbEntity
  8
部品1
100
AcDbLine
 10
8006.501359568344
 20
1105.360787611755
 30
0.0
 11
8000.323351024826
 21
1064.174063988315
 31
0.0
  0
LINE
  5
2017A
330
747D
100
AcDbEntity
  8
部品1
100
AcDbLine
 10
8016.500369378935
 20
1064.174063988315
 30
0.0
 11
8010.322360835418
 21
1105.360787611755
 31
0.0
  0
LINE
  5
2017B
330
747D
100
AcDbEntity
  8
部品1
100
AcDbLine
 10
7992.41186020188
 20
1065.360787611755
 30
0.0
 11
8000.323351024826
 21
1064.174063988315
 31
0.0
  0
LINE
  5
2017C
330
747D
100
AcDbEntity
  8
部品1
100
AcDbLine
 10
8016.500369378935
 20
1064.174063988315
 30
0.0
 11
8024.411860201881
 21
1065.360787611755
 31
0.0
  0
LINE
  5
2017D
330
747D
100
AcDbEntity
  8
部品1
100
AcDbLine
 10
7993.301902919464
 20
1071.294405728964
 30
0.0
 11
8001.213393742409
 21
1070.107682105521
 31
0.0
  0
LINE
  5
2017E
330
747D
100
AcDbEntity
  8
部品1
100
AcDbLine
 10
7994.19194563704
 20
1077.228023846173
 30
0.0
 11
8002.103436459986
 21
1076.04130022273
 31
0.0
  0
LINE
  5
2017F
330
747D
100
AcDbEntity
  8
部品1
100
AcDbLine
 10
7995.081988354623
 20
1083.161641963381
 30
0.0
 11
8002.993479177568
 21
1081.97491833994
 31
0.0
  0
LINE
  5
20180
330
747D
100
AcDbEntity
  8
部品1
100
AcDbLine
 10
7995.972031072206
 20
1089.095260080592
 30
0.0
 11
8003.883521895152
 21
1087.908536457153
 31
0.0
  0
LINE
  5
20181
330
747D
100
AcDbEntity
  8
部品1
100
AcDbLine
 10
7996.862073789782
 20
1095.028878197801
 30
0.0
 11
8004.773564612728
 21
1093.842154574358
 31
0.0
  0
LINE
  5
20182
330
747D
100
AcDbEntity
  8
部品1
100
AcDbLine
 10
7997.752116507365
 20
1100.962496315011
 30
0.0
 11
8005.66360733031
 21
1099.775772691568
 31
0.0
  0
LINE
  5
20183
330
747D
100
AcDbEntity
  8
部品1
100
AcDbLine
 10
8015.61032666135
 20
1070.107682105521
 30
0.0
 11
8023.521817484306
 21
1071.294405728964
 31
0.0
  0
LINE
  5
20184
330
747D
100
AcDbEntity
  8
部品1
100
AcDbLine
 10
8014.720283943777
 20
1076.04130022273
 30
0.0
 11
8022.631774766722
 21
1077.228023846173
 31
0.0
  0
LINE
  5
20185
330
747D
100
AcDbEntity
  8
部品1
100
AcDbLine
 10
8013.830241226193
 20
1081.97491833994
 30
0.0
 11
8021.741732049139
 21
1083.161641963381
 31
0.0
  0
LINE
  5
20186
330
747D
100
AcDbEntity
  8
部品1
100
AcDbLine
 10
8012.940198508617
 20
1087.908536457153
 30
0.0
 11
8020.851689331562
 21
1089.095260080592
 31
0.0
  0
LINE
  5
20187
330
747D
100
AcDbEntity
  8
部品1
100
AcDbLine
 10
8012.050155791035
 20
1093.842154574358
 30
0.0
 11
8019.96164661398
 21
1095.028878197801
 31
0.0
  0
LINE
  5
20188
330
747D
100
AcDbEntity
  8
部品1
100
AcDbLine
 10
8011.160113073451
 20
1099.775772691568
 30
0.0
 11
8019.071603896398
 21
1100.962496315011
 31
0.0
  0
ARC
  5
20189
330
747D
100
AcDbEntity
  8
部品1
100
AcDbCircle
 10
7977.465919682124
 20
1436.760787611756
 30
0.0
 40
10.0
100
AcDbArc
 50
90.0
 51
174.3157584018092
  0
CIRCLE
  5
2018A
330
747D
100
AcDbEntity
  8
部品1
100
AcDbCircle
 10
8008.41186020188
 20
1384.760787611754
 30
0.0
 40
16.0
  0
LINE
  5
2018B
330
747D
100
AcDbEntity
  8
細線
100
AcDbLine
 10
7993.411860201881
 20
1360.760787611756
 30
0.0
 11
8023.41186020188
 21
1360.760787611756
 31
0.0
  0
LINE
  5
2018C
330
747D
100
AcDbEntity
  8
細線
100
AcDbLine
 10
8000.41186020188
 20
1424.760787611752
 30
0.0
 11
8000.41186020188
 21
1398.617194072307
 31
0.0
  0
LINE
  5
2018D
330
747D
100
AcDbEntity
  8
細線
100
AcDbLine
 10
8016.411860201881
 20
1424.760787611752
 30
0.0
 11
8016.411860201881
 21
1398.617194072307
 31
0.0
  0
ARC
  5
2018E
330
747D
100
AcDbEntity
  8
細線
100
AcDbCircle
 10
8008.41186020188
 20
1424.760787611752
 30
0.0
 40
8.0
100
AcDbArc
 50
0.0
 51
180.0
  0
LINE
  5
2018F
330
747D
100
AcDbEntity
  8
部品1
100
AcDbLine
 10
7977.465919682124
 20
1446.760787611754
 30
0.0
 11
8039.357800721637
 21
1446.760787611752
 31
0.0
  0
ARC
  5
20190
330
747D
100
AcDbEntity
  8
部品1
100
AcDbCircle
 10
8039.357800721637
 20
1436.760787611753
 30
0.0
 40
10.0
100
AcDbArc
 50
5.684241598190771
 51
90.0
  0
LINE
  5
20191
330
747D
100
AcDbEntity
  8
細線
100
AcDbLine
 10
7993.411860201881
 20
1354.760787611756
 30
0.0
 11
8023.41186020188
 21
1354.760787611756
 31
0.0
  0
LINE
  5
20192
330
747D
100
AcDbEntity
  8
細線
100
AcDbLine
 10
7993.411860201881
 20
1360.760787611756
 30
0.0
 11
7993.411860201881
 21
1354.760787611756
 31
0.0
  0
LINE
  5
20193
330
747D
100
AcDbEntity
  8
細線
100
AcDbLine
 10
8023.41186020188
 20
1360.760787611751
 30
0.0
 11
8023.41186020188
 21
1354.760787611751
 31
0.0
  0
LINE
  5
20194
330
747D
100
AcDbEntity
  8
細線
 48
10.0
100
AcDbLine
 10
8400.490384032551
 20
833.8425902724702
 30
0.0
 11
8707.408581371828
 21
1140.760787611754
 31
0.0
  0
LINE
  5
20195
330
747D
100
AcDbEntity
  8
細線
 48
10.0
100
AcDbLine
 10
8372.206112785089
 20
833.8425902724702
 30
0.0
 11
8679.124310124363
 21
1140.760787611754
 31
0.0
  0
LINE
  5
20196
330
747D
100
AcDbEntity
  8
細線
 48
10.0
100
AcDbLine
 10
8343.921841537627
 20
833.8425902724702
 30
0.0
 11
8650.840038876902
 21
1140.760787611754
 31
0.0
  0
TEXT
  5
20197
330
747D
100
AcDbEntity
  8
部品1
100
AcDbText
 10
8422.901063470256
 20
1148.666829290658
 30
0.0
 40
120.0
  1
▽G.L
  7
STYLE1
100
AcDbText
  0
LINE
  5
20198
330
747D
100
AcDbEntity
  8
部品1
100
AcDbLine
 10
8935.947068116155
 20
1440.760787611754
 30
0.0
 11
9478.633373005198
 21
1440.760787611756
 31
0.0
  0
LINE
  5
20199
330
747D
100
AcDbEntity
  8
部品1
100
AcDbLine
 10
8935.947068116155
 20
1540.760787611756
 30
0.0
 11
9448.744464914865
 21
1540.760787611756
 31
0.0
  0
LINE
  5
2019A
330
747D
100
AcDbEntity
  8
部品1
100
AcDbLine
 10
8935.947068116155
 20
1534.760787611756
 30
0.0
 11
9478.744464914866
 21
1534.760787611756
 31
0.0
  0
LINE
  5
2019B
330
747D
100
AcDbEntity
  8
細線
100
AcDbLine
 10
9449.699065678144
 20
1162.10861952037
 30
0.0
 11
9171.046897586757
 21
1440.760787611754
 31
0.0
  0
LINE
  5
2019C
330
747D
100
AcDbEntity
  8
細線
100
AcDbLine
 10
9453.630203271782
 20
1200.603888797927
 30
0.0
 11
9213.47330445795
 21
1440.760787611754
 31
0.0
  0
LINE
  5
2019D
330
747D
100
AcDbEntity
  8
細線
 48
10.0
100
AcDbLine
 10
9119.650834352944
 20
833.8425902724702
 30
0.0
 11
9426.569031692217
 21
1140.760787611756
 31
0.0
  0
LINE
  5
2019E
330
747D
100
AcDbEntity
  8
細線
 48
10.0
100
AcDbLine
 10
9147.935105600401
 20
833.8425902724702
 30
0.0
 11
9454.853302939673
 21
1140.760787611754
 31
0.0
  0
LINE
  5
2019F
330
747D
100
AcDbEntity
  8
細線
 48
10.0
100
AcDbLine
 10
9176.219376847866
 20
833.8425902724702
 30
0.0
 11
9483.137574187125
 21
1140.760787611754
 31
0.0
  0
LINE
  5
201A0
330
747D
100
AcDbEntity
  8
細線
 48
10.0
100
AcDbLine
 10
8935.947068116153
 20
1020.228670393613
 30
0.0
 11
9056.479185334286
 21
1140.760787611754
 31
0.0
  0
LINE
  5
201A1
330
747D
100
AcDbEntity
  8
細線
 48
10.0
100
AcDbLine
 10
8935.947068116156
 20
1048.512941641072
 30
0.0
 11
9028.194914086833
 21
1140.760787611754
 31
0.0
  0
LINE
  5
201A2
330
747D
100
AcDbEntity
  8
細線
 48
10.0
100
AcDbLine
 10
8935.947068116155
 20
1076.797212888527
 30
0.0
 11
8999.910642839379
 21
1140.760787611754
 31
0.0
  0
LINE
  5
201A3
330
747D
100
AcDbEntity
  8
部品1
100
AcDbLine
 10
9158.744464914862
 20
1140.760787611751
 30
0.0
 11
9158.744464914862
 21
1440.760787611754
 31
0.0
  0
LINE
  5
201A4
330
747D
100
AcDbEntity
  8
細線
100
AcDbLine
 10
9287.199134478253
 20
1140.760787611754
 30
0.0
 11
9158.744464914862
 21
1269.215457175147
 31
0.0
  0
LINE
  5
201A5
330
747D
100
AcDbEntity
  8
細線
100
AcDbLine
 10
9244.772727607061
 20
1140.760787611754
 30
0.0
 11
9158.744464914862
 21
1226.789050303954
 31
0.0
  0
LINE
  5
201A6
330
747D
100
AcDbEntity
  8
細線
 48
10.0
100
AcDbLine
 10
9602.877765700682
 20
833.8425902724702
 30
0.0
 11
9909.795963039966
 21
1140.760787611756
 31
0.0
  0
LINE
  5
201A7
330
747D
100
AcDbEntity
  8
細線
 48
10.0
100
AcDbLine
 10
9574.593494453225
 20
833.8425902724702
 30
0.0
 11
9881.5116917925
 21
1140.760787611754
 31
0.0
  0
LINE
  5
201A8
330
747D
100
AcDbEntity
  8
細線
 48
10.0
100
AcDbLine
 10
9546.309223205765
 20
833.8425902724702
 30
0.0
 11
9853.227420545039
 21
1140.760787611754
 31
0.0
  0
DIMENSION
  5
201A9
330
747D
100
AcDbEntity
  8
寸法
 48
50.0
100
AcDbDimension
  2
*D26
 10
9761.491110541648
 20
1140.760787611754
 30
0.0
 11
9661.491110541646
 21
1290.760787611756
 31
0.0
 70
    32
  1
c
 71
     5
 42
300.0
  3
INABA_S40G
100
AcDbAlignedDimension
 13
9558.85555682453
 23
1440.760787611754
 33
0.0
 14
9588.744464914862
 24
1140.760787611754
 34
0.0
 50
90.0
100
AcDbRotatedDimension
1001
ACAD
1000
DSTYLE
1002
{
1070
   174
1070
     0
1070
   272
1070
     1
1070
   288
1070
     0
1070
   341
1005
0
1002
}
  0
LINE
  5
201AA
330
747D
100
AcDbEntity
  8
部品1
100
AcDbLine
 10
9477.847695906794
 20
1437.751248310655
 30
0.0
 11
9448.744464914863
 21
1152.760787611754
 31
0.0
  0
LINE
  5
201AB
330
747D
100
AcDbEntity
  8
部品1
100
AcDbLine
 10
9559.641233922935
 20
1437.751248310655
 30
0.0
 11
9588.744464914862
 21
1152.760787611754
 31
0.0
  0
LINE
  5
201AC
330
747D
100
AcDbEntity
  8
部品1
100
AcDbLine
 10
9448.744464914863
 20
1152.760787611754
 30
0.0
 11
9588.744464914862
 21
1152.760787611754
 31
0.0
  0
LINE
  5
201AD
330
747D
100
AcDbEntity
  8
部品1
100
AcDbLine
 10
9448.744464914863
 20
1140.760787611754
 30
0.0
 11
9588.744464914862
 21
1140.760787611754
 31
0.0
  0
LINE
  5
201AE
330
747D
100
AcDbEntity
  8
部品1
100
AcDbLine
 10
9526.832974091915
 20
1064.174063988313
 30
0.0
 11
9520.6549655484
 21
1105.360787611753
 31
0.0
  0
LINE
  5
201AF
330
747D
100
AcDbEntity
  8
部品1
100
AcDbLine
 10
9516.833964281325
 20
1105.360787611753
 30
0.0
 11
9510.655955737808
 21
1064.174063988313
 31
0.0
  0
LINE
  5
201B0
330
747D
100
AcDbEntity
  8
部品1
100
AcDbLine
 10
9534.744464914863
 20
1065.360787611753
 30
0.0
 11
9528.744464914863
 21
1105.360787611753
 31
0.0
  0
LINE
  5
201B1
330
747D
100
AcDbEntity
  8
部品1
100
AcDbLine
 10
9508.744464914862
 20
1105.360787611753
 30
0.0
 11
9502.744464914862
 21
1065.360787611753
 31
0.0
  0
LINE
  5
201B2
330
747D
100
AcDbEntity
  8
部品1
100
AcDbLine
 10
9525.052888656757
 20
1076.041300222729
 30
0.0
 11
9532.964379479704
 21
1077.228023846172
 31
0.0
  0
LINE
  5
201B3
330
747D
100
AcDbEntity
  8
部品1
100
AcDbLine
 10
9525.942931374332
 20
1070.107682105521
 30
0.0
 11
9533.854422197283
 21
1071.294405728964
 31
0.0
  0
LINE
  5
201B4
330
747D
100
AcDbEntity
  8
部品1
100
AcDbLine
 10
9504.524550350021
 20
1077.228023846172
 30
0.0
 11
9512.436041172966
 21
1076.041300222729
 31
0.0
  0
LINE
  5
201B5
330
747D
100
AcDbEntity
  8
部品1
100
AcDbLine
 10
9503.634507632446
 20
1071.294405728964
 30
0.0
 11
9511.545998455391
 21
1070.107682105521
 31
0.0
  0
LINE
  5
201B6
330
747D
100
AcDbEntity
  8
部品1
100
AcDbLine
 10
9526.832974091915
 20
1064.174063988313
 30
0.0
 11
9534.744464914863
 21
1065.360787611753
 31
0.0
  0
LINE
  5
201B7
330
747D
100
AcDbEntity
  8
部品1
100
AcDbLine
 10
9502.744464914862
 20
1065.360787611753
 30
0.0
 11
9510.655955737808
 21
1064.174063988313
 31
0.0
  0
LINE
  5
201B8
330
747D
100
AcDbEntity
  8
部品1
100
AcDbLine
 10
9448.744464914863
 20
1152.760787611754
 30
0.0
 11
9448.744464914863
 21
1140.760787611754
 31
0.0
  0
LINE
  5
201B9
330
747D
100
AcDbEntity
  8
部品1
100
AcDbLine
 10
9503.744464914863
 20
1207.160787611756
 30
0.0
 11
9533.744464914862
 21
1207.160787611756
 31
0.0
  0
LINE
  5
201BA
330
747D
100
AcDbEntity
  8
部品1
100
AcDbLine
 10
9503.744464914863
 20
1213.160787611756
 30
0.0
 11
9533.744464914862
 21
1213.160787611756
 31
0.0
  0
LINE
  5
201BB
330
747D
100
AcDbEntity
  8
部品1
100
AcDbLine
 10
9503.744464914863
 20
1213.160787611756
 30
0.0
 11
9503.744464914863
 21
1207.160787611756
 31
0.0
  0
LINE
  5
201BC
330
747D
100
AcDbEntity
  8
部品1
100
AcDbLine
 10
9533.744464914862
 20
1213.160787611752
 30
0.0
 11
9533.744464914862
 21
1207.160787611752
 31
0.0
  0
LINE
  5
201BD
330
747D
100
AcDbEntity
  8
部品1
100
AcDbLine
 10
9503.744464914863
 20
1173.160787611756
 30
0.0
 11
9508.744464914862
 21
1173.160787611756
 31
0.0
  0
LINE
  5
201BE
330
747D
100
AcDbEntity
  8
部品1
100
AcDbLine
 10
9503.744464914863
 20
1173.160787611756
 30
0.0
 11
9503.744464914863
 21
1171.760787611751
 31
0.0
  0
LINE
  5
201BF
330
747D
100
AcDbEntity
  8
部品1
100
AcDbLine
 10
9533.744464914862
 20
1173.160787611752
 30
0.0
 11
9533.744464914862
 21
1171.760787611754
 31
0.0
  0
LINE
  5
201C0
330
747D
100
AcDbEntity
  8
部品1
100
AcDbLine
 10
9503.744464914863
 20
1171.760787611754
 30
0.0
 11
9533.744464914862
 21
1171.760787611754
 31
0.0
  0
LINE
  5
201C1
330
747D
100
AcDbEntity
  8
部品1
100
AcDbLine
 10
9525.744464914863
 20
1201.013683635414
 30
0.0
 11
9525.744464914863
 21
1205.013683635414
 31
0.0
  0
LINE
  5
201C2
330
747D
100
AcDbEntity
  8
部品1
100
AcDbLine
 10
9511.744464914862
 20
1201.013683635414
 30
0.0
 11
9511.744464914862
 21
1205.013683635414
 31
0.0
  0
LINE
  5
201C3
330
747D
100
AcDbEntity
  8
部品1
100
AcDbLine
 10
9521.492717786433
 20
1099.775772691566
 30
0.0
 11
9529.404208609378
 21
1100.962496315009
 31
0.0
  0
LINE
  5
201C4
330
747D
100
AcDbEntity
  8
部品1
100
AcDbLine
 10
9522.382760504015
 20
1093.842154574358
 30
0.0
 11
9530.294251326962
 21
1095.028878197801
 31
0.0
  0
LINE
  5
201C5
330
747D
100
AcDbEntity
  8
部品1
100
AcDbLine
 10
9523.272803221599
 20
1087.908536457151
 30
0.0
 11
9531.184294044544
 21
1089.09526008059
 31
0.0
  0
LINE
  5
201C6
330
747D
100
AcDbEntity
  8
部品1
100
AcDbLine
 10
9524.162845939175
 20
1081.97491833994
 30
0.0
 11
9532.07433676212
 21
1083.161641963379
 31
0.0
  0
LINE
  5
201C7
330
747D
100
AcDbEntity
  8
部品1
100
AcDbLine
 10
9508.084721220347
 20
1100.962496315009
 30
0.0
 11
9515.996212043292
 21
1099.775772691566
 31
0.0
  0
LINE
  5
201C8
330
747D
100
AcDbEntity
  8
部品1
100
AcDbLine
 10
9507.194678502763
 20
1095.028878197801
 30
0.0
 11
9515.10616932571
 21
1093.842154574358
 31
0.0
  0
LINE
  5
201C9
330
747D
100
AcDbEntity
  8
部品1
100
AcDbLine
 10
9506.304635785188
 20
1089.09526008059
 30
0.0
 11
9514.216126608129
 21
1087.908536457151
 31
0.0
  0
LINE
  5
201CA
330
747D
100
AcDbEntity
  8
部品1
100
AcDbLine
 10
9505.414593067603
 20
1083.161641963379
 30
0.0
 11
9513.32608389055
 21
1081.97491833994
 31
0.0
  0
LINE
  5
201CB
330
747D
100
AcDbEntity
  8
部品1
100
AcDbLine
 10
9516.833964281325
 20
1105.360787611753
 30
0.0
 11
9520.6549655484
 21
1105.360787611753
 31
0.0
  0
LINE
  5
201CC
330
747D
100
AcDbEntity
  8
部品1
100
AcDbLine
 10
9528.744464914863
 20
1140.760787611754
 30
0.0
 11
9528.744464914863
 21
1105.360787611753
 31
0.0
  0
LINE
  5
201CD
330
747D
100
AcDbEntity
  8
部品1
100
AcDbLine
 10
9508.744464914862
 20
1140.760787611754
 30
0.0
 11
9508.744464914862
 21
1105.360787611753
 31
0.0
  0
LINE
  5
201CE
330
747D
100
AcDbEntity
  8
部品1
100
AcDbLine
 10
9523.744464914862
 20
1192.760787611754
 30
0.0
 11
9523.744464914862
 21
1201.013683635414
 31
0.0
  0
LINE
  5
201CF
330
747D
100
AcDbEntity
  8
部品1
100
AcDbLine
 10
9513.744464914863
 20
1192.760787611754
 30
0.0
 11
9513.744464914863
 21
1201.013683635414
 31
0.0
  0
LINE
  5
201D0
330
747D
100
AcDbEntity
  8
部品1
100
AcDbLine
 10
9511.744464914862
 20
1201.013683635414
 30
0.0
 11
9525.744464914863
 21
1201.013683635414
 31
0.0
  0
ARC
  5
201D1
330
747D
100
AcDbEntity
  8
部品1
100
AcDbCircle
 10
9518.744464914862
 20
1147.672154390937
 30
0.0
 40
23.33946124318486
100
AcDbArc
 50
64.63020194521864
 51
115.3697980547813
  0
ARC
  5
201D2
330
747D
100
AcDbEntity
  8
部品1
100
AcDbCircle
 10
9533.744464914862
 20
1164.246032821436
 30
0.0
 40
6.736691384996243
100
AcDbArc
 50
42.08048849858703
 51
137.9195115014129
  0
ARC
  5
201D3
330
747D
100
AcDbEntity
  8
部品1
100
AcDbCircle
 10
9503.744464914863
 20
1164.246032821436
 30
0.0
 40
6.736691384996243
100
AcDbArc
 50
42.08048849858703
 51
137.9195115014129
  0
LINE
  5
201D4
330
747D
100
AcDbEntity
  8
部品1
100
AcDbLine
 10
9498.744464914862
 20
1168.760787611754
 30
0.0
 11
9538.744464914861
 21
1168.760787611754
 31
0.0
  0
LINE
  5
201D5
330
747D
100
AcDbEntity
  8
部品1
100
AcDbLine
 10
9528.744464914863
 20
1173.160787611756
 30
0.0
 11
9533.744464914862
 21
1173.160787611756
 31
0.0
  0
LINE
  5
201D6
330
747D
100
AcDbEntity
  8
部品1
100
AcDbLine
 10
9503.744464914863
 20
1173.160787611756
 30
0.0
 11
9508.744464914862
 21
1173.160787611756
 31
0.0
  0
LINE
  5
201D7
330
747D
100
AcDbEntity
  8
部品1
100
AcDbLine
 10
9538.744464914861
 20
1155.760787611758
 30
0.0
 11
9538.744464914861
 21
1168.760787611754
 31
0.0
  0
LINE
  5
201D8
330
747D
100
AcDbEntity
  8
部品1
100
AcDbLine
 10
9528.744464914863
 20
1155.760787611754
 30
0.0
 11
9528.744464914863
 21
1192.760787611754
 31
0.0
  0
LINE
  5
201D9
330
747D
100
AcDbEntity
  8
部品1
100
AcDbLine
 10
9508.744464914862
 20
1155.760787611754
 30
0.0
 11
9508.744464914862
 21
1192.760787611754
 31
0.0
  0
LINE
  5
201DA
330
747D
100
AcDbEntity
  8
部品1
100
AcDbLine
 10
9498.744464914862
 20
1155.760787611754
 30
0.0
 11
9498.744464914862
 21
1168.760787611754
 31
0.0
  0
LINE
  5
201DB
330
747D
100
AcDbEntity
  8
部品1
100
AcDbLine
 10
9548.744464914863
 20
1152.760787611754
 30
0.0
 11
9548.744464914863
 21
1155.760787611762
 31
0.0
  0
LINE
  5
201DC
330
747D
100
AcDbEntity
  8
部品1
100
AcDbLine
 10
9488.744464914862
 20
1152.760787611754
 30
0.0
 11
9488.744464914862
 21
1155.760787611754
 31
0.0
  0
LINE
  5
201DD
330
747D
100
AcDbEntity
  8
部品1
100
AcDbLine
 10
9488.744464914862
 20
1155.760787611754
 30
0.0
 11
9548.744464914863
 21
1155.760787611758
 31
0.0
  0
LINE
  5
201DE
330
747D
100
AcDbEntity
  8
部品1
100
AcDbLine
 10
9533.744464914862
 20
1173.160787611752
 30
0.0
 11
9533.744464914862
 21
1171.760787611754
 31
0.0
  0
LINE
  5
201DF
330
747D
100
AcDbEntity
  8
部品1
100
AcDbLine
 10
9503.744464914863
 20
1173.160787611756
 30
0.0
 11
9503.744464914863
 21
1171.760787611754
 31
0.0
  0
LINE
  5
201E0
330
747D
100
AcDbEntity
  8
部品1
100
AcDbLine
 10
9535.744464914861
 20
1171.760787611754
 30
0.0
 11
9538.744464914861
 21
1168.760787611754
 31
0.0
  0
LINE
  5
201E1
330
747D
100
AcDbEntity
  8
部品1
100
AcDbLine
 10
9501.744464914862
 20
1171.760787611754
 30
0.0
 11
9535.744464914861
 21
1171.760787611754
 31
0.0
  0
LINE
  5
201E2
330
747D
100
AcDbEntity
  8
部品1
100
AcDbLine
 10
9501.744464914862
 20
1171.760787611754
 30
0.0
 11
9498.744464914862
 21
1168.760787611754
 31
0.0
  0
LINE
  5
201E3
330
747D
100
AcDbEntity
  8
部品1
100
AcDbLine
 10
9508.744464914862
 20
1192.760787611754
 30
0.0
 11
9528.744464914863
 21
1192.760787611754
 31
0.0
  0
LINE
  5
201E4
330
747D
100
AcDbEntity
  8
部品1
100
AcDbLine
 10
9511.744464914862
 20
1205.013683635414
 30
0.0
 11
9525.744464914863
 21
1205.013683635414
 31
0.0
  0
LINE
  5
201E5
330
747D
100
AcDbEntity
  8
部品1
100
AcDbLine
 10
9533.744464914862
 20
1213.160787611752
 30
0.0
 11
9533.744464914862
 21
1207.160787611752
 31
0.0
  0
LINE
  5
201E6
330
747D
100
AcDbEntity
  8
部品1
100
AcDbLine
 10
9503.744464914863
 20
1213.160787611756
 30
0.0
 11
9503.744464914863
 21
1207.160787611756
 31
0.0
  0
LINE
  5
201E7
330
747D
100
AcDbEntity
  8
部品1
100
AcDbLine
 10
9503.744464914863
 20
1213.160787611756
 30
0.0
 11
9533.744464914862
 21
1213.160787611756
 31
0.0
  0
LINE
  5
201E8
330
747D
100
AcDbEntity
  8
部品1
100
AcDbLine
 10
9503.744464914863
 20
1207.160787611756
 30
0.0
 11
9533.744464914862
 21
1207.160787611756
 31
0.0
  0
LINE
  5
201E9
330
747D
100
AcDbEntity
  8
部品1
100
AcDbLine
 10
9528.744464914863
 20
1173.160787611756
 30
0.0
 11
9533.744464914862
 21
1173.160787611756
 31
0.0
  0
LINE
  5
201EA
330
747D
100
AcDbEntity
  8
部品1
100
AcDbLine
 10
9588.744464914862
 20
1152.760787611754
 30
0.0
 11
9588.744464914862
 21
1140.760787611754
 31
0.0
  0
LINE
  5
201EB
330
747D
100
AcDbEntity
  8
細線
100
AcDbLine
 10
9474.596270437839
 20
1405.911991611565
 30
0.0
 11
9439.74747443765
 21
1440.760787611754
 31
0.0
  0
LINE
  5
201EC
330
747D
100
AcDbEntity
  8
細線
100
AcDbLine
 10
9470.665132844203
 20
1367.416722334008
 30
0.0
 11
9397.321067566457
 21
1440.760787611754
 31
0.0
  0
LINE
  5
201ED
330
747D
100
AcDbEntity
  8
部品1
100
AcDbLine
 10
9488.744464914862
 20
1554.360787611753
 30
0.0
 11
9548.744464914863
 21
1554.360787611757
 31
0.0
  0
ARC
  5
201EE
330
747D
100
AcDbEntity
  8
部品1
100
AcDbCircle
 10
9488.744464914862
 20
1544.360787611753
 30
0.0
 40
10.0
100
AcDbArc
 50
90.0
 51
180.0
  0
ARC
  5
201EF
330
747D
100
AcDbEntity
  8
部品1
100
AcDbCircle
 10
9548.744464914863
 20
1544.360787611757
 30
0.0
 40
10.0
100
AcDbArc
 50
0.0
 51
90.0
  0
ARC
  5
201F0
330
747D
100
AcDbEntity
  8
部品1
100
AcDbCircle
 10
9518.744464914862
 20
1494.360787611753
 30
0.0
 40
8.0
100
AcDbArc
 50
28.00674301448806
 51
151.9932569855119
  0
CIRCLE
  5
201F1
330
747D
100
AcDbEntity
  8
部品1
100
AcDbCircle
 10
9518.744464914862
 20
1483.760787611754
 30
0.0
 40
16.0
  0
CIRCLE
  5
201F2
330
747D
100
AcDbEntity
  8
細線
100
AcDbCircle
 10
9518.744464914862
 20
1524.360787611753
 30
0.0
 40
8.0
  0
ARC
  5
201F3
330
747D
100
AcDbEntity
  8
細線
100
AcDbCircle
 10
9518.744464914862
 20
1424.760787611751
 30
0.0
 40
8.0
100
AcDbArc
 50
0.0
 51
180.0
  0
LINE
  5
201F4
330
747D
100
AcDbEntity
  8
細線
100
AcDbLine
 10
9503.744464914863
 20
1354.760787611754
 30
0.0
 11
9533.744464914862
 21
1354.760787611754
 31
0.0
  0
LINE
  5
201F5
330
747D
100
AcDbEntity
  8
細線
100
AcDbLine
 10
9503.744464914863
 20
1360.760787611754
 30
0.0
 11
9533.744464914862
 21
1360.760787611754
 31
0.0
  0
LINE
  5
201F6
330
747D
100
AcDbEntity
  8
細線
100
AcDbLine
 10
9503.744464914863
 20
1360.760787611754
 30
0.0
 11
9503.744464914863
 21
1354.760787611754
 31
0.0
  0
LINE
  5
201F7
330
747D
100
AcDbEntity
  8
細線
100
AcDbLine
 10
9533.744464914862
 20
1360.760787611751
 30
0.0
 11
9533.744464914862
 21
1354.760787611751
 31
0.0
  0
LINE
  5
201F8
330
747D
100
AcDbEntity
  8
細線
100
AcDbLine
 10
9510.744464914862
 20
1424.760787611751
 30
0.0
 11
9510.744464914862
 21
1398.217194072305
 31
0.0
  0
LINE
  5
201F9
330
747D
100
AcDbEntity
  8
細線
100
AcDbLine
 10
9526.744464914861
 20
1424.760787611751
 30
0.0
 11
9526.744464914861
 21
1398.217194072305
 31
0.0
  0
CIRCLE
  5
201FA
330
747D
100
AcDbEntity
  8
部品1
100
AcDbCircle
 10
9518.744464914862
 20
1384.360787611753
 30
0.0
 40
16.0
  0
LINE
  5
201FB
330
747D
100
AcDbEntity
  8
部品1
100
AcDbLine
 10
9487.798524395106
 20
1446.760787611754
 30
0.0
 11
9549.690405434617
 21
1446.760787611751
 31
0.0
  0
ARC
  5
201FC
330
747D
100
AcDbEntity
  8
部品1
100
AcDbCircle
 10
9487.798524395106
 20
1436.760787611754
 30
0.0
 40
10.0
100
AcDbArc
 50
90.0
 51
174.3157584018092
  0
ARC
  5
201FD
330
747D
100
AcDbEntity
  8
部品1
100
AcDbCircle
 10
9549.690405434617
 20
1436.760787611751
 30
0.0
 40
10.0
100
AcDbArc
 50
5.684241598190771
 51
90.0
  0
ARC
  5
201FE
330
747D
100
AcDbEntity
  8
部品1
100
AcDbCircle
 10
9518.744464914862
 20
1454.360787611753
 30
0.0
 40
8.0
100
AcDbArc
 50
180.0
 51
251.8051276613376
  0
ARC
  5
201FF
330
747D
100
AcDbEntity
  8
部品1
100
AcDbCircle
 10
9518.744464914862
 20
1454.360787611753
 30
0.0
 40
8.0
100
AcDbArc
 50
288.1948723386625
 51
0.0
  0
LINE
  5
20200
330
747D
100
AcDbEntity
  8
部品1
100
AcDbLine
 10
9478.744464914862
 20
1544.360787611753
 30
0.0
 11
9478.744464914862
 21
1441.006256599761
 31
0.0
  0
LINE
  5
20201
330
747D
100
AcDbEntity
  8
部品1
100
AcDbLine
 10
9558.744464914862
 20
1544.360787611757
 30
0.0
 11
9558.744464914862
 21
1441.006256599767
 31
0.0
  0
LINE
  5
20202
330
747D
100
AcDbEntity
  8
部品1
100
AcDbLine
 10
9526.744464914861
 20
1469.904381151202
 30
0.0
 11
9526.744464914861
 21
1454.360787611753
 31
0.0
  0
LINE
  5
20203
330
747D
100
AcDbEntity
  8
部品1
100
AcDbLine
 10
9510.744464914862
 20
1469.904381151202
 30
0.0
 11
9510.744464914862
 21
1454.360787611753
 31
0.0
  0
TEXT
  5
20204
330
747D
100
AcDbEntity
  8
部品1
100
AcDbText
 10
8023.993437770858
 20
2175.866049504641
 30
0.0
 40
120.0
  1
地盤がコンクリートの場合
  7
STYLE2
100
AcDbText
  0
LINE
  5
20205
330
747D
100
AcDbEntity
  8
部品1
 48
50.0
100
AcDbLine
 10
10462.64865692558
 20
2600.000000000002
 30
0.0
 11
10462.64865692558
 21
200.0
 31
0.0
  0
DIMENSION
  5
20206
330
747D
100
AcDbEntity
  8
寸法
 48
50.0
100
AcDbDimension
  2
*D27
 10
6693.427363549178
 20
1140.760787611754
 30
0.0
 11
6593.427363549178
 21
1240.760787611756
 31
0.0
 70
    32
  1
a
 71
     5
 42
200.0000000000009
  3
INABA_S40G
100
AcDbAlignedDimension
 13
6445.356359188783
 23
1340.760787611755
 33
0.0
 14
6445.356359188785
 24
1140.760787611754
 34
0.0
 50
90.0
100
AcDbRotatedDimension
1001
ACAD
1000
DSTYLE
1002
{
1070
   174
1070
     0
1070
   272
1070
     1
1070
   288
1070
     0
1070
   341
1005
0
1002
}
  0
TEXT
  5
20207
330
747D
100
AcDbEntity
  8
部品1
100
AcDbText
 10
7351.815914174178
 20
673.9251098471076
 30
0.0
 40
80.0
  1
b寸法：100～120mmに対応
  7
STYLE2
100
AcDbText
  0
TEXT
  5
20208
330
747D
100
AcDbEntity
  8
部品1
100
AcDbText
 10
7356.361368719632
 20
528.3190492410467
 30
0.0
 40
80.0
  1
\U+203BオールアンカーM10(市販品)
  7
STYLE2
100
AcDbText
  0
TEXT
  5
20209
330
747D
100
AcDbEntity
  8
部品1
100
AcDbText
 10
7357.725005083269
 20
378.6220795440777
 30
0.0
 40
80.0
  1
  が4本必要になります。
  7
STYLE2
100
AcDbText
  0
TEXT
  5
2020A
330
747D
100
AcDbEntity
  8
部品1
100
AcDbText
 10
8911.147758698813
 20
673.9251098471076
 30
0.0
 40
80.0
  1
c寸法：135～175,190mmに対応
  7
STYLE2
100
AcDbText
  0
TEXT
  5
2020B
330
747D
100
AcDbEntity
  8
部品1
100
AcDbText
 10
8915.238667789722
 20
528.3190492410467
 30
0.0
 40
80.0
  1
\U+203BオールアンカーM10(市販品)
  7
STYLE2
100
AcDbText
  0
TEXT
  5
2020C
330
747D
100
AcDbEntity
  8
部品1
100
AcDbText
 10
8916.602304153359
 20
378.6220795440777
 30
0.0
 40
80.0
  1
  が4本必要になります。
  7
STYLE2
100
AcDbText
  0
TEXT
  5
2020D
330
747D
100
AcDbEntity
  8
部品1
100
AcDbText
 10
5799.197934974523
 20
402.0913671270181
 30
0.0
 40
80.0
  1
a寸法：100～150mmに対応
  7
STYLE2
100
AcDbText
  0
LINE
  5
2020E
330
747D
100
AcDbEntity
  8
部品1
 48
50.0
100
AcDbLine
 10
6195.356359188782
 20
740.7607876117545
 30
0.0
 11
6195.356359188782
 21
1140.760787611754
 31
0.0
  0
LINE
  5
2020F
330
747D
100
AcDbEntity
  8
部品1
 48
50.0
100
AcDbLine
 10
6595.356359188781
 20
1140.760787611754
 30
0.0
 11
6595.35635918878
 21
740.7607876117562
 31
0.0
  0
LINE
  5
20210
330
747D
100
AcDbEntity
  8
部品1
 48
50.0
100
AcDbLine
 10
6595.35635918878
 20
740.7607876117562
 30
0.0
 11
6195.356359188782
 21
740.7607876117545
 31
0.0
  0
LINE
  5
20293
330
747D
100
AcDbEntity
  8
補助
  6
PHANTOM
 62
   230
 48
50.0
100
AcDbLine
 10
140.0
 20
0.0
 30
0.0
 11
139.9999999999995
 21
11409.6
 31
0.0
  0
DIMENSION
  5
203B0
330
747D
100
AcDbEntity
  8
寸法
 48
50.0
100
AcDbDimension
  2
*D28
 10
5846.888116550751
 20
5702.732195510817
 30
0.0
 11
5746.876305527127
 21
7018.732195510819
 31
0.0
 70
    32
 71
     5
 42
2632.0
  3
INABA_S40G
100
AcDbAlignedDimension
 13
6487.6
 23
8334.732195510817
 33
0.0
 14
6487.6
 24
5702.732195510816
 34
0.0
 50
90.0
100
AcDbRotatedDimension
1001
ACAD
1000
DSTYLE
1002
{
1070
   174
1070
     0
1070
   272
1070
     1
1070
   288
1070
     0
1070
   341
1005
0
1002
}
  0
LINE
  5
203B3
330
747D
100
AcDbEntity
  8
想像線
 48
10.0
100
AcDbLine
 10
7391.600000000001
 20
5702.732195510816
 30
0.0
 11
9509.6
 21
5702.73219551082
 31
0.0
  0
LINE
  5
203B4
330
747D
100
AcDbEntity
  8
想像線
 48
10.0
100
AcDbLine
 10
7391.600000000001
 20
5627.732195510816
 30
0.0
 11
9509.6
 21
5627.732195510819
 31
0.0
  0
DIMENSION
  5
203B6
330
747D
100
AcDbEntity
  8
寸法
 48
50.0
100
AcDbDimension
  2
*D29
 10
9859.6
 20
5274.533514425166
 30
0.0
 11
10309.17086614173
 21
5274.533514425166
 31
0.0
 70
   160
 71
     5
 42
200.0
  3
INABA_S40G
100
AcDbAlignedDimension
 13
10059.6
 23
5602.732195510813
 33
0.0
 14
9859.6
 24
5602.732195510813
 34
0.0
100
AcDbRotatedDimension
1001
ACAD
1000
DSTYLE
1002
{
1070
   174
1070
     0
1070
   272
1070
     1
1070
   288
1070
     0
1070
   341
1005
0
1002
}
  0
LINE
  5
203BD
330
747D
100
AcDbEntity
  8
部品1
 48
50.0
100
AcDbLine
 10
7291.600000000001
 20
5702.73219551082
 30
0.0
 11
7291.600000000001
 21
6102.73219551082
 31
0.0
  0
LINE
  5
203BE
330
747D
100
AcDbEntity
  8
部品1
 48
50.0
100
AcDbLine
 10
7491.600000000001
 20
5702.73219551082
 30
0.0
 11
7491.600000000001
 21
6102.73219551082
 31
0.0
  0
LINE
  5
203BF
330
747D
100
AcDbEntity
  8
部品1
 48
50.0
100
AcDbLine
 10
6487.6
 20
5902.732195510816
 30
0.0
 11
6487.6
 21
5702.732195510816
 31
0.0
  0
LINE
  5
203C0
330
747D
100
AcDbEntity
  8
部品1
 48
50.0
100
AcDbLine
 10
6887.6
 20
5902.732195510816
 30
0.0
 11
6887.6
 21
5702.732195510816
 31
0.0
  0
LINE
  5
203C1
330
747D
100
AcDbEntity
  8
部品1
 48
50.0
100
AcDbLine
 10
6887.6
 20
5702.732195510816
 30
0.0
 11
6487.6
 21
5702.732195510816
 31
0.0
  0
LINE
  5
203C2
330
747D
100
AcDbEntity
  8
部品1
 48
50.0
100
AcDbLine
 10
6887.6
 20
5702.73219551082
 30
0.0
 11
6487.6
 21
5702.732195510816
 31
0.0
  0
LINE
  5
203C3
330
747D
100
AcDbEntity
  8
点線
 48
10.0
100
AcDbLine
 10
6587.600000000001
 20
5602.732195510809
 30
0.0
 11
6387.6
 21
5602.732195510809
 31
0.0
  0
LINE
  5
203C4
330
747D
100
AcDbEntity
  8
点線
 48
10.0
100
AcDbLine
 10
6587.600000000001
 20
5802.732195510809
 30
0.0
 11
6387.6
 21
5802.732195510809
 31
0.0
  0
LINE
  5
203C5
330
747D
100
AcDbEntity
  8
点線
 48
10.0
100
AcDbLine
 10
6387.6
 20
5802.732195510809
 30
0.0
 11
6387.6
 21
5602.732195510809
 31
0.0
  0
LINE
  5
203C6
330
747D
100
AcDbEntity
  8
点線
 48
10.0
100
AcDbLine
 10
6587.600000000001
 20
5802.732195510809
 30
0.0
 11
6587.600000000001
 21
5602.732195510809
 31
0.0
  0
LINE
  5
203C7
330
747D
100
AcDbEntity
  8
部品1
 48
50.0
100
AcDbLine
 10
7491.600000000001
 20
5702.732195510816
 30
0.0
 11
7291.600000000001
 21
5702.732195510816
 31
0.0
  0
LINE
  5
203C8
330
747D
100
AcDbEntity
  8
想像線
 48
10.0
100
AcDbLine
 10
7391.600000000001
 20
5627.732195510816
 30
0.0
 11
7391.600000000001
 21
5702.732195510816
 31
0.0
  0
LINE
  5
203C9
330
747D
100
AcDbEntity
  8
部品1
 48
50.0
100
AcDbLine
 10
6887.6
 20
5902.732195510816
 30
0.0
 11
6487.6
 21
5902.732195510816
 31
0.0
  0
LINE
  5
203D0
330
747D
100
AcDbEntity
  8
部品1
 48
50.0
100
AcDbLine
 10
7491.600000000001
 20
6102.732195510816
 30
0.0
 11
7291.600000000001
 21
6102.732195510816
 31
0.0
  0
LINE
  5
203D3
330
747D
100
AcDbEntity
  8
部品1
 48
50.0
100
AcDbLine
 10
9155.600000000001
 20
5627.732195510819
 30
0.0
 11
9155.600000000001
 21
6027.73219551082
 31
0.0
  0
LINE
  5
203D4
330
747D
100
AcDbEntity
  8
部品1
 48
50.0
100
AcDbLine
 10
8955.600000000002
 20
5627.732195510819
 30
0.0
 11
8955.600000000002
 21
6027.73219551082
 31
0.0
  0
LINE
  5
203D5
330
747D
100
AcDbEntity
  8
部品1
 48
50.0
100
AcDbLine
 10
8123.600000000001
 20
5627.732195510819
 30
0.0
 11
8123.600000000001
 21
6027.73219551082
 31
0.0
  0
LINE
  5
203D6
330
747D
100
AcDbEntity
  8
部品1
 48
50.0
100
AcDbLine
 10
8323.6
 20
5627.732195510819
 30
0.0
 11
8323.6
 21
6027.73219551082
 31
0.0
  0
LINE
  5
203DB
330
747D
100
AcDbEntity
  8
部品1
 48
50.0
100
AcDbLine
 10
8323.6
 20
5627.732195510816
 30
0.0
 11
8123.600000000001
 21
5627.732195510816
 31
0.0
  0
LINE
  5
203DC
330
747D
100
AcDbEntity
  8
部品1
 48
50.0
100
AcDbLine
 10
9155.600000000001
 20
5627.732195510816
 30
0.0
 11
8955.600000000002
 21
5627.732195510816
 31
0.0
  0
LINE
  5
203DF
330
747D
100
AcDbEntity
  8
部品1
 48
50.0
100
AcDbLine
 10
8323.6
 20
6027.732195510816
 30
0.0
 11
8123.600000000001
 21
6027.732195510816
 31
0.0
  0
LINE
  5
203E5
330
747D
100
AcDbEntity
  8
部品1
 48
50.0
100
AcDbLine
 10
9155.600000000001
 20
6027.732195510816
 30
0.0
 11
8955.600000000002
 21
6027.732195510816
 31
0.0
  0
LINE
  5
203E7
330
747D
100
AcDbEntity
  8
部品1
 48
50.0
100
AcDbLine
 10
9559.600000000001
 20
5902.732195510816
 30
0.0
 11
9559.600000000001
 21
5702.732195510816
 31
0.0
  0
LINE
  5
203E8
330
747D
100
AcDbEntity
  8
部品1
 48
50.0
100
AcDbLine
 10
9959.600000000001
 20
5902.732195510816
 30
0.0
 11
9959.600000000001
 21
5702.732195510816
 31
0.0
  0
DIMENSION
  5
203E9
330
747D
100
AcDbEntity
  8
寸法
 48
50.0
100
AcDbDimension
  2
*D30
 10
10359.23045670601
 20
5602.732195510812
 30
0.0
 11
10359.23045670601
 21
6052.303061652546
 31
0.0
 70
   160
 71
     5
 42
200.0
  3
INABA_S40G
100
AcDbAlignedDimension
 13
10059.6
 23
5802.732195510813
 33
0.0
 14
10059.6
 24
5602.732195510813
 34
0.0
 50
90.0
100
AcDbRotatedDimension
1001
ACAD
1000
DSTYLE
1002
{
1070
   174
1070
     0
1070
   272
1070
     1
1070
   288
1070
     0
1070
   341
1005
0
1002
}
  0
LINE
  5
203EA
330
747D
100
AcDbEntity
  8
部品1
 48
50.0
100
AcDbLine
 10
9559.600000000001
 20
5702.73219551082
 30
0.0
 11
9959.600000000001
 21
5702.732195510816
 31
0.0
  0
LINE
  5
203EB
330
747D
100
AcDbEntity
  8
想像線
 48
10.0
100
AcDbLine
 10
9509.6
 20
5627.732195510819
 30
0.0
 11
9509.6
 21
5702.732195510816
 31
0.0
  0
LINE
  5
203EC
330
747D
100
AcDbEntity
  8
点線
 48
10.0
100
AcDbLine
 10
10059.6
 20
5802.732195510809
 30
0.0
 11
10059.6
 21
5602.732195510809
 31
0.0
  0
LINE
  5
203ED
330
747D
100
AcDbEntity
  8
点線
 48
10.0
100
AcDbLine
 10
9859.6
 20
5802.732195510809
 30
0.0
 11
9859.6
 21
5602.732195510809
 31
0.0
  0
LINE
  5
203EE
330
747D
100
AcDbEntity
  8
点線
 48
10.0
100
AcDbLine
 10
9859.6
 20
5602.732195510809
 30
0.0
 11
10059.6
 21
5602.732195510809
 31
0.0
  0
LINE
  5
203EF
330
747D
100
AcDbEntity
  8
点線
 48
10.0
100
AcDbLine
 10
9859.6
 20
5802.732195510809
 30
0.0
 11
10059.6
 21
5802.732195510809
 31
0.0
  0
LINE
  5
203F0
330
747D
100
AcDbEntity
  8
部品1
 48
50.0
100
AcDbLine
 10
9559.600000000001
 20
5902.732195510816
 30
0.0
 11
9959.600000000001
 21
5902.732195510816
 31
0.0
  0
DIMENSION
  5
203F5
330
747D
100
AcDbEntity
  8
寸法
 48
50.0
100
AcDbDimension
  2
*D31
 10
9055.600000000001
 20
8680.744755153959
 30
0.0
 11
9511.599999999999
 21
8680.744755153959
 31
0.0
 70
   160
 71
     5
 42
904.0
  3
INABA_S40G
100
AcDbAlignedDimension
 13
9959.600000000001
 23
8334.732195510817
 33
0.0
 14
9055.600000000001
 24
8334.732195510817
 34
0.0
100
AcDbRotatedDimension
1001
ACAD
1000
DSTYLE
1002
{
1070
   174
1070
     0
1070
   272
1070
     1
1070
   288
1070
     0
1070
   341
1005
0
1002
}
  0
DIMENSION
  5
203F6
330
747D
100
AcDbEntity
  8
寸法
 48
50.0
100
AcDbDimension
  2
*D32
 10
9959.600000000001
 20
8927.144783182438
 30
0.0
 11
8223.600000000001
 21
9027.15659420606
 31
0.0
 70
    32
 71
     5
 42
3472.0
  3
INABA_S40G
100
AcDbAlignedDimension
 13
6487.6
 23
8334.732195510817
 33
0.0
 14
9959.600000000001
 24
8334.732195510817
 34
0.0
100
AcDbRotatedDimension
1001
ACAD
1000
DSTYLE
1002
{
1070
   174
1070
     0
1070
   272
1070
     1
1070
   288
1070
     0
1070
   341
1005
0
1002
}
  0
DIMENSION
  5
203F8
330
747D
100
AcDbEntity
  8
寸法
 48
50.0
100
AcDbDimension
  2
*D33
 10
7391.600000000001
 20
8680.744755153959
 30
0.0
 11
7807.6
 21
8780.756566177581
 31
0.0
 70
    32
 71
     5
 42
832.0
  3
INABA_S40G
100
AcDbAlignedDimension
 13
8223.600000000001
 23
8334.732195510817
 33
0.0
 14
7391.600000000001
 24
8334.732195510817
 34
0.0
100
AcDbRotatedDimension
1001
ACAD
1000
DSTYLE
1002
{
1070
   174
1070
     0
1070
   272
1070
     1
1070
   288
1070
     0
1070
   341
1005
0
1002
}
  0
DIMENSION
  5
203F9
330
747D
100
AcDbEntity
  8
寸法
 48
50.0
100
AcDbDimension
  2
*D34
 10
6487.6
 20
8680.744755153959
 30
0.0
 11
6939.6
 21
8780.744755153959
 31
0.0
 70
    32
 71
     5
 42
904.0
  3
INABA_S40G
100
AcDbAlignedDimension
 13
7391.600000000001
 23
8334.732195510817
 33
0.0
 14
6487.6
 24
8334.732195510817
 34
0.0
100
AcDbRotatedDimension
1001
ACAD
1000
DSTYLE
1002
{
1070
   174
1070
     0
1070
   272
1070
     1
1070
   288
1070
     0
1070
   341
1005
0
1002
}
  0
LINE
  5
203FB
330
747D
100
AcDbEntity
  8
部品1
 48
50.0
100
AcDbLine
 10
6887.6
 20
8334.732195510817
 30
0.0
 11
6487.6
 21
8334.732195510817
 31
0.0
  0
LINE
  5
203FC
330
747D
100
AcDbEntity
  8
部品1
 48
50.0
100
AcDbLine
 10
6887.6
 20
8334.732195510813
 30
0.0
 11
6487.6
 21
8334.732195510817
 31
0.0
  0
LINE
  5
203FD
330
747D
100
AcDbEntity
  8
点線
 48
10.0
100
AcDbLine
 10
6587.600000000001
 20
8434.732195510816
 30
0.0
 11
6387.6
 21
8434.732195510816
 31
0.0
  0
LINE
  5
203FE
330
747D
100
AcDbEntity
  8
部品1
 48
50.0
100
AcDbLine
 10
6887.6
 20
8134.732195510817
 30
0.0
 11
6487.6
 21
8134.732195510817
 31
0.0
  0
LINE
  5
203FF
330
747D
100
AcDbEntity
  8
点線
 48
10.0
100
AcDbLine
 10
6587.600000000001
 20
8234.732195510817
 30
0.0
 11
6387.6
 21
8234.732195510817
 31
0.0
  0
LINE
  5
20400
330
747D
100
AcDbEntity
  8
部品1
 48
50.0
100
AcDbLine
 10
6487.6
 20
8134.732195510817
 30
0.0
 11
6487.6
 21
8334.732195510817
 31
0.0
  0
LINE
  5
20401
330
747D
100
AcDbEntity
  8
点線
 48
10.0
100
AcDbLine
 10
6387.6
 20
8234.732195510817
 30
0.0
 11
6387.6
 21
8434.732195510816
 31
0.0
  0
LINE
  5
20402
330
747D
100
AcDbEntity
  8
部品1
 48
50.0
100
AcDbLine
 10
6887.6
 20
8134.732195510817
 30
0.0
 11
6887.6
 21
8334.732195510817
 31
0.0
  0
LINE
  5
20403
330
747D
100
AcDbEntity
  8
点線
 48
10.0
100
AcDbLine
 10
6587.600000000001
 20
8234.732195510817
 30
0.0
 11
6587.600000000001
 21
8434.732195510816
 31
0.0
  0
LINE
  5
20404
330
747D
100
AcDbEntity
  8
部品1
 48
50.0
100
AcDbLine
 10
7491.600000000001
 20
8334.732195510817
 30
0.0
 11
7291.600000000001
 21
8334.732195510817
 31
0.0
  0
LINE
  5
20405
330
747D
100
AcDbEntity
  8
部品1
 48
50.0
100
AcDbLine
 10
7491.600000000001
 20
7934.732195510817
 30
0.0
 11
7291.600000000001
 21
7934.732195510817
 31
0.0
  0
LINE
  5
20406
330
747D
100
AcDbEntity
  8
部品1
 48
50.0
100
AcDbLine
 10
7291.600000000001
 20
7934.73219551082
 30
0.0
 11
7291.600000000001
 21
8334.73219551082
 31
0.0
  0
LINE
  5
20407
330
747D
100
AcDbEntity
  8
部品1
 48
50.0
100
AcDbLine
 10
7491.600000000001
 20
7934.73219551082
 30
0.0
 11
7491.600000000001
 21
8334.73219551082
 31
0.0
  0
DIMENSION
  5
20408
330
747D
100
AcDbEntity
  8
寸法
 48
50.0
100
AcDbDimension
  2
*D35
 10
8223.600000000001
 20
8680.744755153959
 30
0.0
 11
8639.599999999999
 21
8780.756566177581
 31
0.0
 70
    32
 71
     5
 42
832.0
  3
INABA_S40G
100
AcDbAlignedDimension
 13
9055.600000000001
 23
8334.732195510817
 33
0.0
 14
8223.600000000001
 24
8334.732195510817
 34
0.0
100
AcDbRotatedDimension
1001
ACAD
1000
DSTYLE
1002
{
1070
   174
1070
     0
1070
   272
1070
     1
1070
   288
1070
     0
1070
   341
1005
0
1002
}
  0
LINE
  5
20409
330
747D
100
AcDbEntity
  8
部品1
 48
50.0
100
AcDbLine
 10
8323.6
 20
8334.732195510817
 30
0.0
 11
8123.600000000001
 21
8334.732195510817
 31
0.0
  0
LINE
  5
2040A
330
747D
100
AcDbEntity
  8
部品1
 48
50.0
100
AcDbLine
 10
8323.6
 20
7934.732195510817
 30
0.0
 11
8123.600000000001
 21
7934.732195510817
 31
0.0
  0
LINE
  5
2040B
330
747D
100
AcDbEntity
  8
部品1
 48
50.0
100
AcDbLine
 10
8123.600000000001
 20
7934.73219551082
 30
0.0
 11
8123.600000000001
 21
8334.73219551082
 31
0.0
  0
LINE
  5
2040C
330
747D
100
AcDbEntity
  8
部品1
 48
50.0
100
AcDbLine
 10
8323.6
 20
7934.73219551082
 30
0.0
 11
8323.6
 21
8334.73219551082
 31
0.0
  0
LINE
  5
2040D
330
747D
100
AcDbEntity
  8
部品1
 48
50.0
100
AcDbLine
 10
9155.600000000001
 20
8334.732195510817
 30
0.0
 11
8955.600000000002
 21
8334.732195510817
 31
0.0
  0
LINE
  5
2040E
330
747D
100
AcDbEntity
  8
部品1
 48
50.0
100
AcDbLine
 10
9155.600000000001
 20
7934.732195510817
 30
0.0
 11
8955.600000000002
 21
7934.732195510817
 31
0.0
  0
LINE
  5
2040F
330
747D
100
AcDbEntity
  8
部品1
 48
50.0
100
AcDbLine
 10
8955.600000000002
 20
7934.73219551082
 30
0.0
 11
8955.600000000002
 21
8334.73219551082
 31
0.0
  0
LINE
  5
20410
330
747D
100
AcDbEntity
  8
部品1
 48
50.0
100
AcDbLine
 10
9155.600000000001
 20
7934.73219551082
 30
0.0
 11
9155.600000000001
 21
8334.73219551082
 31
0.0
  0
LINE
  5
20414
330
747D
100
AcDbEntity
  8
部品1
 48
50.0
100
AcDbLine
 10
9559.600000000001
 20
8334.732195510813
 30
0.0
 11
9959.600000000001
 21
8334.732195510817
 31
0.0
  0
LINE
  5
20415
330
747D
100
AcDbEntity
  8
部品1
 48
50.0
100
AcDbLine
 10
9559.600000000001
 20
8334.732195510817
 30
0.0
 11
9959.600000000001
 21
8334.732195510817
 31
0.0
  0
LINE
  5
20416
330
747D
100
AcDbEntity
  8
部品1
 48
50.0
100
AcDbLine
 10
9559.600000000001
 20
8134.732195510817
 30
0.0
 11
9959.600000000001
 21
8134.732195510817
 31
0.0
  0
LINE
  5
20417
330
747D
100
AcDbEntity
  8
部品1
 48
50.0
100
AcDbLine
 10
9559.600000000001
 20
8134.732195510817
 30
0.0
 11
9559.600000000001
 21
8334.732195510817
 31
0.0
  0
LINE
  5
20418
330
747D
100
AcDbEntity
  8
部品1
 48
50.0
100
AcDbLine
 10
9959.600000000001
 20
8134.732195510817
 30
0.0
 11
9959.600000000001
 21
8334.732195510817
 31
0.0
  0
LINE
  5
20419
330
747D
100
AcDbEntity
  8
点線
 48
10.0
100
AcDbLine
 10
9859.6
 20
8434.732195510816
 30
0.0
 11
10059.6
 21
8434.732195510816
 31
0.0
  0
LINE
  5
2041A
330
747D
100
AcDbEntity
  8
点線
 48
10.0
100
AcDbLine
 10
9859.6
 20
8234.732195510817
 30
0.0
 11
10059.6
 21
8234.732195510817
 31
0.0
  0
LINE
  5
2041B
330
747D
100
AcDbEntity
  8
点線
 48
10.0
100
AcDbLine
 10
9859.6
 20
8234.732195510817
 30
0.0
 11
9859.6
 21
8434.732195510816
 31
0.0
  0
LINE
  5
2041C
330
747D
100
AcDbEntity
  8
点線
 48
10.0
100
AcDbLine
 10
10059.6
 20
8234.732195510817
 30
0.0
 11
10059.6
 21
8434.732195510816
 31
0.0
  0
HATCH
  5
20F49
330
747D
100
AcDbEntity
  8
寸法
 48
50.0
100
AcDbHatch
 10
0.0
 20
0.0
 30
0.0
210
0.0
220
0.0
230
1.0
  2
DOTS
 70
     0
 71
     0
 91
        5
 92
        7
 72
     0
 73
     1
 93
        4
 10
8955.600000000002
 20
5702.73219551082
 10
8323.6
 20
5702.732195510819
 10
8323.6
 20
5627.732195510819
 10
8955.600000000002
 20
5627.732195510819
 97
        0
 92
        7
 72
     0
 73
     1
 93
        4
 10
9509.6
 20
5702.73219551082
 10
9155.600000000001
 20
5702.732195510819
 10
9155.600000000003
 20
5627.732195510819
 10
9509.6
 20
5627.732195510819
 97
        0
 92
        7
 72
     0
 73
     1
 93
        4
 10
9155.600000000001
 20
5702.73219551082
 10
8955.600000000002
 20
5702.73219551082
 10
8955.600000000002
 20
5627.732195510817
 10
9155.600000000001
 20
5627.732195510817
 97
        0
 92
        7
 72
     0
 73
     1
 93
        4
 10
8323.6
 20
5702.732195510819
 10
8123.600000000001
 20
5702.732195510819
 10
8123.600000000001
 20
5627.732195510817
 10
8323.6
 20
5627.732195510817
 97
        0
 92
        7
 72
     0
 73
     1
 93
        4
 10
8123.600000000001
 20
5702.732195510817
 10
7391.600000000001
 20
5702.732195510815
 10
7391.6
 20
5627.732195510817
 10
8123.600000000001
 20
5627.732195510819
 97
        0
 75
     0
 76
     1
 52
0.0
 41
10.0
 77
     0
 78
     1
 53
0.0
 43
0.0
 44
0.0
 45
7.9375
 46
15.875
 79
     2
 49
0.0
 49
-15.875
 47
6.040334419946638
 98
        5
 10
8658.602207547351
 20
5673.133121526007
 10
9220.316193878586
 20
5654.323464681373
 10
9080.782016012504
 20
5654.323464681373
 10
8252.687669110406
 20
5668.506009172794
 10
7994.904216863543
 20
5656.690802767021
  0
DIMENSION
  5
20F62
330
747D
100
AcDbEntity
  8
寸法
 48
50.0
100
AcDbDimension
  2
*D36
 10
5846.888116550751
 20
5642.732195510819
 30
0.0
 11
5846.888116550751
 21
5672.73219551082
 31
0.0
 70
   160
  1
b
 71
     5
 42
59.99999999999909
  3
INABA_S40G
100
AcDbAlignedDimension
 13
6487.6
 23
5702.732195510817
 33
0.0
 14
6437.599999999999
 24
5642.732195510818
 34
0.0
 50
90.0
100
AcDbRotatedDimension
1001
ACAD
1000
DSTYLE
1002
{
1070
   174
1070
     0
1070
   272
1070
     1
1070
   288
1070
     0
1070
   341
1005
0
1002
}
  0
DIMENSION
  5
20F92
330
747D
100
AcDbEntity
  8
寸法
 48
50.0
100
AcDbDimension
  2
*D37
 10
5846.888116550752
 20
8334.732195510817
 30
0.0
 11
5846.888116550751
 21
8374.732195510821
 31
0.0
 70
   160
  1
c
 71
     5
 42
80.00000000000182
  3
INABA_S40G
100
AcDbAlignedDimension
 13
6437.6
 23
8414.732195510818
 33
0.0
 14
6487.6
 24
8334.732195510817
 34
0.0
 50
90.0
100
AcDbRotatedDimension
1001
ACAD
1000
DSTYLE
1002
{
1070
   174
1070
     0
1070
   272
1070
     1
1070
   288
1070
     0
1070
   341
1005
0
1002
}
  0
DIMENSION
  5
20FBA
330
747D
100
AcDbEntity
  8
寸法
 48
50.0
100
AcDbDimension
  2
*D38
 10
6487.600000000002
 20
8927.144783182438
 30
0.0
 11
6462.600000000001
 21
8927.144783182438
 31
0.0
 70
   160
  1
a
 71
     5
 42
50.00000000000091
  3
INABA_S40G
100
AcDbAlignedDimension
 13
6437.600000000002
 23
8414.732195510813
 33
0.0
 14
6487.600000000002
 24
8334.732195510817
 34
0.0
100
AcDbRotatedDimension
1001
ACAD
1000
DSTYLE
1002
{
1070
   174
1070
     0
1070
   272
1070
     1
1070
   288
1070
     0
1070
   341
1005
0
1002
}
  0
DIMENSION
  5
20FEA
330
747D
100
AcDbEntity
  8
寸法
 48
50.0
100
AcDbDimension
  2
*D39
 10
10009.59999999999
 20
8927.144783182438
 30
0.0
 11
9984.599999999995
 21
8927.144783182438
 31
0.0
 70
   160
  1
a
 71
     5
 42
49.99999999999454
  3
INABA_S40G
100
AcDbAlignedDimension
 13
9959.6
 23
8334.732195510817
 33
0.0
 14
10009.59999999999
 24
8414.732195510817
 34
0.0
100
AcDbRotatedDimension
1001
ACAD
1000
DSTYLE
1002
{
1070
   174
1070
     0
1070
   272
1070
     1
1070
   288
1070
     0
1070
   341
1005
0
1002
}
  0
LINE
  5
21491
330
747D
100
AcDbEntity
  8
部品1
 48
50.0
100
AcDbLine
 10
6687.6
 20
6512.732195510813
 30
0.0
 11
6487.6
 21
6512.732195510813
 31
0.0
  0
LINE
  5
21492
330
747D
100
AcDbEntity
  8
部品1
 48
50.0
100
AcDbLine
 10
6687.6
 20
6712.732195510813
 30
0.0
 11
6487.6
 21
6712.732195510813
 31
0.0
  0
LINE
  5
21493
330
747D
100
AcDbEntity
  8
部品1
 48
50.0
100
AcDbLine
 10
6487.6
 20
6512.732195510816
 30
0.0
 11
6487.6
 21
6712.732195510816
 31
0.0
  0
LINE
  5
21494
330
747D
100
AcDbEntity
  8
部品1
 48
50.0
100
AcDbLine
 10
6687.6
 20
6512.732195510816
 30
0.0
 11
6687.6
 21
6712.732195510816
 31
0.0
  0
LINE
  5
21495
330
747D
100
AcDbEntity
  8
部品1
 48
50.0
100
AcDbLine
 10
6687.6
 20
7324.732195510813
 30
0.0
 11
6487.6
 21
7324.732195510813
 31
0.0
  0
LINE
  5
21496
330
747D
100
AcDbEntity
  8
部品1
 48
50.0
100
AcDbLine
 10
6687.6
 20
7524.732195510813
 30
0.0
 11
6487.6
 21
7524.732195510813
 31
0.0
  0
LINE
  5
21497
330
747D
100
AcDbEntity
  8
部品1
 48
50.0
100
AcDbLine
 10
6487.6
 20
7324.732195510816
 30
0.0
 11
6487.6
 21
7524.732195510816
 31
0.0
  0
LINE
  5
21498
330
747D
100
AcDbEntity
  8
部品1
 48
50.0
100
AcDbLine
 10
6687.6
 20
7324.732195510816
 30
0.0
 11
6687.6
 21
7524.732195510816
 31
0.0
  0
LINE
  5
2149F
330
747D
100
AcDbEntity
  8
部品1
 48
50.0
100
AcDbLine
 10
8123.600000000001
 20
6412.732195510816
 30
0.0
 11
8123.600000000001
 21
6812.732195510815
 31
0.0
  0
LINE
  5
214A0
330
747D
100
AcDbEntity
  8
部品1
 48
50.0
100
AcDbLine
 10
8323.6
 20
6412.732195510816
 30
0.0
 11
8323.6
 21
6812.732195510815
 31
0.0
  0
LINE
  5
214A1
330
747D
100
AcDbEntity
  8
部品1
 48
50.0
100
AcDbLine
 10
7291.600000000001
 20
6412.732195510816
 30
0.0
 11
7291.600000000001
 21
6812.732195510815
 31
0.0
  0
LINE
  5
214A2
330
747D
100
AcDbEntity
  8
部品1
 48
50.0
100
AcDbLine
 10
7491.600000000001
 20
6412.732195510816
 30
0.0
 11
7491.600000000001
 21
6812.732195510815
 31
0.0
  0
LINE
  5
214A9
330
747D
100
AcDbEntity
  8
部品1
 48
50.0
100
AcDbLine
 10
7491.600000000001
 20
6412.732195510812
 30
0.0
 11
7291.600000000001
 21
6412.732195510812
 31
0.0
  0
LINE
  5
214AE
330
747D
100
AcDbEntity
  8
部品1
 48
50.0
100
AcDbLine
 10
8323.6
 20
6412.732195510812
 30
0.0
 11
8123.600000000001
 21
6412.732195510812
 31
0.0
  0
LINE
  5
214B1
330
747D
100
AcDbEntity
  8
部品1
 48
50.0
100
AcDbLine
 10
7491.600000000001
 20
7224.732195510816
 30
0.0
 11
7491.600000000001
 21
7624.732195510816
 31
0.0
  0
LINE
  5
214B2
330
747D
100
AcDbEntity
  8
部品1
 48
50.0
100
AcDbLine
 10
7291.600000000001
 20
7224.732195510816
 30
0.0
 11
7291.600000000001
 21
7624.732195510816
 31
0.0
  0
LINE
  5
214B3
330
747D
100
AcDbEntity
  8
部品1
 48
50.0
100
AcDbLine
 10
7491.600000000001
 20
6812.732195510813
 30
0.0
 11
7291.600000000001
 21
6812.732195510813
 31
0.0
  0
LINE
  5
214B4
330
747D
100
AcDbEntity
  8
部品1
 48
50.0
100
AcDbLine
 10
7491.600000000001
 20
7224.732195510814
 30
0.0
 11
7291.600000000001
 21
7224.732195510814
 31
0.0
  0
LINE
  5
214B5
330
747D
100
AcDbEntity
  8
部品1
 48
50.0
100
AcDbLine
 10
7491.600000000001
 20
7624.732195510813
 30
0.0
 11
7291.600000000001
 21
7624.732195510813
 31
0.0
  0
LINE
  5
214B6
330
747D
100
AcDbEntity
  8
部品1
 48
50.0
100
AcDbLine
 10
8323.6
 20
7224.732195510816
 30
0.0
 11
8323.6
 21
7624.732195510816
 31
0.0
  0
LINE
  5
214B7
330
747D
100
AcDbEntity
  8
部品1
 48
50.0
100
AcDbLine
 10
8123.600000000001
 20
7224.732195510816
 30
0.0
 11
8123.600000000001
 21
7624.732195510816
 31
0.0
  0
LINE
  5
214B8
330
747D
100
AcDbEntity
  8
部品1
 48
50.0
100
AcDbLine
 10
8323.6
 20
6812.732195510813
 30
0.0
 11
8123.600000000001
 21
6812.732195510813
 31
0.0
  0
LINE
  5
214B9
330
747D
100
AcDbEntity
  8
部品1
 48
50.0
100
AcDbLine
 10
8323.6
 20
7224.732195510814
 30
0.0
 11
8123.600000000001
 21
7224.732195510814
 31
0.0
  0
LINE
  5
214BA
330
747D
100
AcDbEntity
  8
部品1
 48
50.0
100
AcDbLine
 10
8323.6
 20
7624.732195510813
 30
0.0
 11
8123.600000000001
 21
7624.732195510813
 31
0.0
  0
LINE
  5
214BB
330
747D
100
AcDbEntity
  8
部品1
 48
50.0
100
AcDbLine
 10
9155.600000000001
 20
6412.732195510816
 30
0.0
 11
9155.600000000001
 21
6812.732195510815
 31
0.0
  0
LINE
  5
214BC
330
747D
100
AcDbEntity
  8
部品1
 48
50.0
100
AcDbLine
 10
8955.600000000002
 20
6412.732195510816
 30
0.0
 11
8955.600000000002
 21
6812.732195510815
 31
0.0
  0
LINE
  5
214C1
330
747D
100
AcDbEntity
  8
部品1
 48
50.0
100
AcDbLine
 10
9155.600000000001
 20
6412.732195510812
 30
0.0
 11
8955.600000000002
 21
6412.732195510812
 31
0.0
  0
LINE
  5
214CC
330
747D
100
AcDbEntity
  8
部品1
 48
50.0
100
AcDbLine
 10
9759.600000000007
 20
6712.732195510813
 30
0.0
 11
9959.600000000008
 21
6712.732195510813
 31
0.0
  0
LINE
  5
214CD
330
747D
100
AcDbEntity
  8
部品1
 48
50.0
100
AcDbLine
 10
9759.600000000007
 20
6512.732195510813
 30
0.0
 11
9959.600000000008
 21
6512.732195510813
 31
0.0
  0
LINE
  5
214CE
330
747D
100
AcDbEntity
  8
部品1
 48
50.0
100
AcDbLine
 10
9759.600000000007
 20
6512.732195510816
 30
0.0
 11
9759.600000000007
 21
6712.732195510816
 31
0.0
  0
LINE
  5
214CF
330
747D
100
AcDbEntity
  8
部品1
 48
50.0
100
AcDbLine
 10
9959.600000000008
 20
6512.732195510816
 30
0.0
 11
9959.600000000008
 21
6712.732195510816
 31
0.0
  0
LINE
  5
214D0
330
747D
100
AcDbEntity
  8
部品1
 48
50.0
100
AcDbLine
 10
9155.600000000001
 20
7224.732195510816
 30
0.0
 11
9155.600000000001
 21
7624.732195510816
 31
0.0
  0
LINE
  5
214D1
330
747D
100
AcDbEntity
  8
部品1
 48
50.0
100
AcDbLine
 10
8955.600000000002
 20
7224.732195510816
 30
0.0
 11
8955.600000000002
 21
7624.732195510816
 31
0.0
  0
LINE
  5
214D2
330
747D
100
AcDbEntity
  8
部品1
 48
50.0
100
AcDbLine
 10
9155.600000000001
 20
6812.732195510813
 30
0.0
 11
8955.600000000002
 21
6812.732195510813
 31
0.0
  0
LINE
  5
214D3
330
747D
100
AcDbEntity
  8
部品1
 48
50.0
100
AcDbLine
 10
9155.600000000001
 20
7224.732195510814
 30
0.0
 11
8955.600000000002
 21
7224.732195510814
 31
0.0
  0
LINE
  5
214D4
330
747D
100
AcDbEntity
  8
部品1
 48
50.0
100
AcDbLine
 10
9155.600000000001
 20
7624.732195510813
 30
0.0
 11
8955.600000000002
 21
7624.732195510813
 31
0.0
  0
LINE
  5
214D5
330
747D
100
AcDbEntity
  8
部品1
 48
50.0
100
AcDbLine
 10
9759.600000000007
 20
7524.732195510813
 30
0.0
 11
9959.600000000008
 21
7524.732195510813
 31
0.0
  0
LINE
  5
214D6
330
747D
100
AcDbEntity
  8
部品1
 48
50.0
100
AcDbLine
 10
9759.600000000007
 20
7324.732195510813
 30
0.0
 11
9959.600000000008
 21
7324.732195510813
 31
0.0
  0
LINE
  5
214D7
330
747D
100
AcDbEntity
  8
部品1
 48
50.0
100
AcDbLine
 10
9759.600000000007
 20
7324.732195510816
 30
0.0
 11
9759.600000000007
 21
7524.732195510816
 31
0.0
  0
LINE
  5
214D8
330
747D
100
AcDbEntity
  8
部品1
 48
50.0
100
AcDbLine
 10
9959.600000000008
 20
7324.732195510816
 30
0.0
 11
9959.600000000008
 21
7524.732195510816
 31
0.0
  0
DIMENSION
  5
2178E
330
747D
100
AcDbEntity
  8
寸法
 48
50.0
100
AcDbDimension
  2
*D40
 10
7118.454656983377
 20
5702.732195510813
 30
0.0
 11
7118.454656983377
 21
5094.246914136576
 31
0.0
 70
   160
  1
扉の出<>
 71
     5
 42
74.99999999999818
  3
INABA_S40G
100
AcDbAlignedDimension
 13
7391.600000000001
 23
5627.732195510815
 33
0.0
 14
7291.600000000001
 24
5702.732195510813
 34
0.0
 50
90.0
100
AcDbRotatedDimension
1001
ACAD
1000
DSTYLE
1002
{
1070
   341
1005
0
1002
}
  0
TEXT
  5
2178F
330
747D
100
AcDbEntity
  8
寸法
 48
50.0
100
AcDbText
 10
8348.285880756765
 20
5520.172034866539
 30
0.0
 40
96.0
  1
扉面
  7
STYLE1
100
AcDbText
  0
ENDSEC
  0
SECTION
  2
OBJECTS
  0
DICTIONARY
  5
7471
330
0
100
AcDbDictionary
281
     1
  3
ACAD_COLOR
350
159B0
  3
ACAD_GROUP
350
7472
  3
ACAD_LAYOUT
350
159B1
  3
ACAD_MATERIAL
350
159AF
  3
ACAD_MLINESTYLE
350
7473
  3
ACAD_PLOTSETTINGS
350
159B2
  3
ACAD_PLOTSTYLENAME
350
159AD
  3
ACDBHEADERROUNDTRIPXREC
350
21992
  3
AcDbVariableDictionary
350
2196C
  3
CONTENTDICTIONARY
350
E71C
  3
DRAWINGVARIABLESDICT
350
F3B9
  0
DICTIONARY
  5
1ED5D
330
7467
100
AcDbDictionary
280
     1
281
     1
  3
ACAD_LAYERSTATES
360
1ED5E
  0
DICTIONARY
  5
159B0
102
{ACAD_REACTORS
330
7471
102
}
330
7471
100
AcDbDictionary
281
     1
  0
DICTIONARY
  5
7472
102
{ACAD_REACTORS
330
7471
102
}
330
7471
100
AcDbDictionary
281
     1
  0
DICTIONARY
  5
159B1
102
{ACAD_REACTORS
330
7471
102
}
330
7471
100
AcDbDictionary
281
     1
  3
Model
350
159B3
  3
レイアウト1
350
159B4
  0
DICTIONARY
  5
159AF
102
{ACAD_REACTORS
330
7471
102
}
330
7471
100
AcDbDictionary
281
     1
  0
DICTIONARY
  5
7473
102
{ACAD_REACTORS
330
7471
102
}
330
7471
100
AcDbDictionary
281
     1
  3
STANDARD
350
7480
  0
DICTIONARY
  5
159B2
102
{ACAD_REACTORS
330
7471
102
}
330
7471
100
AcDbDictionary
281
     1
  0
ACDBDICTIONARYWDFLT
  5
159AD
102
{ACAD_REACTORS
330
7471
102
}
330
7471
100
AcDbDictionary
281
     1
  3
Normal
350
159AE
100
AcDbDictionaryWithDefault
340
159AE
  0
DICTIONARY
  5
21992
102
{ACAD_REACTORS
330
7471
102
}
330
7471
100
AcDbDictionary
281
     1
  3
COLORDICT
350
21994
  3
MATERIALDICT
350
21993
  0
DICTIONARY
  5
2196C
102
{ACAD_REACTORS
330
7471
102
}
330
7471
100
AcDbDictionary
281
     1
  3
DIMASSOC
350
2196D
  3
PROJECTNAME
350
2196E
  0
DICTIONARY
  5
E71C
102
{ACAD_REACTORS
330
7471
102
}
330
7471
100
AcDbDictionary
281
     1
  0
DICTIONARY
  5
F3B9
102
{ACAD_REACTORS
330
7471
102
}
330
7471
100
AcDbDictionary
281
     1
1001
DRAWINGVARIABLESXDATA
1000
POLARMODE
1000
1
  0
DICTIONARY
  5
1ED5E
102
{ACAD_REACTORS
330
1ED5D
102
}
330
1ED5D
100
AcDbDictionary
281
     1
  0
LAYOUT
  5
159B3
102
{ACAD_XDICTIONARY
360
21995
102
}
102
{ACAD_REACTORS
330
159B1
102
}
330
159B1
100
AcDbPlotSettings
  1

  2
none_device
  4
Letter_(8.50_x_11.00_Inches)
  6

 40
6.349999904632568
 41
6.349999904632568
 42
6.350006103515625
 43
6.350006103515625
 44
215.8999938964844
 45
279.3999938964844
 46
0.0
 47
0.0
 48
0.0
 49
0.0
140
0.0
141
0.0
142
1.0
143
1.0
 70
 11952
 72
     1
 73
     1
 74
     0
  7

 75
     0
147
1.0
148
-4149.571981164617
149
65.56433826894044
100
AcDbLayout
  1
Model
 70
     1
 71
     0
 10
0.0
 20
0.0
 11
12.0
 21
9.0
 12
0.0
 22
0.0
 32
0.0
 14
0.0
 24
0.0
 34
0.0
 15
0.0
 25
0.0
 35
0.0
146
0.0
 13
0.0
 23
0.0
 33
0.0
 16
1.0
 26
0.0
 36
0.0
 17
0.0
 27
1.0
 37
0.0
 76
     0
330
747D
  0
LAYOUT
  5
159B4
102
{ACAD_XDICTIONARY
360
21997
102
}
102
{ACAD_REACTORS
330
159B1
102
}
330
159B1
100
AcDbPlotSettings
  1

  2
自動 EPSON LP-8400FX (TATENO 上)
  4

  6

 40
0.0
 41
0.0
 42
0.0
 43
0.0
 44
0.0
 45
0.0
 46
0.0
 47
0.0
 48
0.0
 49
0.0
140
0.0
141
0.0
142
1.0
143
1.0
 70
   688
 72
     0
 73
     0
 74
     5
  7
inaba.ctb
 75
    16
147
1.0
148
0.0
149
0.0
100
AcDbLayout
  1
レイアウト1
 70
     0
 71
     1
 10
0.0
 20
0.0
 11
420.0
 21
297.0
 12
0.0
 22
0.0
 32
0.0
 14
1.000000000000000E+20
 24
1.000000000000000E+20
 34
1.000000000000000E+20
 15
-1.000000000000000E+20
 25
-1.000000000000000E+20
 35
-1.000000000000000E+20
146
0.0
 13
0.0
 23
0.0
 33
0.0
 16
1.0
 26
0.0
 36
0.0
 17
0.0
 27
1.0
 37
0.0
 76
     0
330
747A
  0
MLINESTYLE
  5
7480
102
{ACAD_REACTORS
330
7473
102
}
330
7473
100
AcDbMlineStyle
  2
STANDARD
 70
     0
  3

 62
     0
 51
90.0
 52
90.0
 71
     2
 49
0.5
 62
   256
  6
BYLAYER
 49
-0.5
 62
   256
  6
BYLAYER
  0
ACDBPLACEHOLDER
  5
159AE
102
{ACAD_REACTORS
330
159AD
102
}
330
159AD
  0
XRECORD
  5
21994
102
{ACAD_REACTORS
330
21992
102
}
330
21992
100
AcDbXrecord
280
     1
340
159B0
  0
XRECORD
  5
21993
102
{ACAD_REACTORS
330
21992
102
}
330
21992
100
AcDbXrecord
280
     1
340
159AF
  0
DICTIONARYVAR
  5
2196D
102
{ACAD_REACTORS
330
2196C
102
}
330
2196C
100
DictionaryVariables
280
     0
  1
1
  0
DICTIONARYVAR
  5
2196E
102
{ACAD_REACTORS
330
2196C
102
}
330
2196C
100
DictionaryVariables
280
     0
  1

  0
DICTIONARY
  5
21995
330
159B3
100
AcDbDictionary
280
     1
281
     1
  3
ACAD_XREC_ROUNDTRIP
360
21996
  0
DICTIONARY
  5
21997
330
159B4
100
AcDbDictionary
280
     1
281
     1
  3
ACAD_XREC_ROUNDTRIP
360
21998
  0
XRECORD
  5
21996
102
{ACAD_REACTORS
330
21995
102
}
330
21995
100
AcDbXrecord
280
     1
102
SHADEPLOT
 70
     0
102
SHADEPLOTRESLEVEL
 70
     2
102
SHADEPLOTCUSTOMDPI
 70
   300
  0
XRECORD
  5
21998
102
{ACAD_REACTORS
330
21997
102
}
330
21997
100
AcDbXrecord
280
     1
102
SHADEPLOT
 70
     0
102
SHADEPLOTRESLEVEL
 70
     2
102
SHADEPLOTCUSTOMDPI
 70
   300
  0
ENDSEC
  0
EOF
