  0
SECTION
  2
HEADER
  9
$ACADVER
  1
AC1015
  9
$ACADMAINTVER
 70
    20
  9
$DWGCODEPAGE
  3
ANSI_932
  9
$INSBASE
 10
0.0
 20
0.0
 30
0.0
  9
$EXTMIN
 10
139.9999999999995
 20
-0.0000000000000909
 30
0.0
  9
$EXTMAX
 10
16307.2
 20
11409.6
 30
0.0
  9
$LIMMIN
 10
0.0
 20
0.0
  9
$LIMMAX
 10
16800.0
 20
11880.0
  9
$ORTHOMODE
 70
     0
  9
$REGENMODE
 70
     1
  9
$FILLMODE
 70
     1
  9
$QTEXTMODE
 70
     0
  9
$MIRRTEXT
 70
     1
  9
$LTSCALE
 40
20.0
  9
$ATTMODE
 70
     1
  9
$TEXTSIZE
 40
100.0
  9
$TRACEWID
 40
1.0
  9
$TEXTSTYLE
  7
STYLE2
  9
$CLAYER
  8
寸法
  9
$CELTYPE
  6
BYLAYER
  9
$CECOLOR
 62
   256
  9
$CELTSCALE
 40
50.0
  9
$DISPSILH
 70
     0
  9
$DIMSCALE
 40
40.0
  9
$DIMASZ
 40
2.5
  9
$DIMEXO
 40
0.5
  9
$DIMDLI
 40
7.0
  9
$DIMRND
 40
0.0
  9
$DIMDLE
 40
0.0
  9
$DIMEXE
 40
1.5
  9
$DIMTP
 40
0.0
  9
$DIMTM
 40
0.0
  9
$DIMTXT
 40
3.0
  9
$DIMCEN
 40
0.0
  9
$DIMTSZ
 40
0.0
  9
$DIMTOL
 70
     0
  9
$DIMLIM
 70
     0
  9
$DIMTIH
 70
     0
  9
$DIMTOH
 70
     0
  9
$DIMSE1
 70
     0
  9
$DIMSE2
 70
     0
  9
$DIMTAD
 70
     3
  9
$DIMZIN
 70
     8
  9
$DIMBLK
  1

  9
$DIMASO
 70
     1
  9
$DIMSHO
 70
     1
  9
$DIMPOST
  1

  9
$DIMAPOST
  1

  9
$DIMALT
 70
     0
  9
$DIMALTD
 70
     2
  9
$DIMALTF
 40
0.0394
  9
$DIMLFAC
 40
1.0
  9
$DIMTOFL
 70
     1
  9
$DIMTVP
 40
0.0
  9
$DIMTIX
 70
     0
  9
$DIMSOXD
 70
     0
  9
$DIMSAH
 70
     1
  9
$DIMBLK1
  1
DOTSMALL
  9
$DIMBLK2
  1
DOTSMALL
  9
$DIMSTYLE
  2
INABA_S40G
  9
$DIMCLRD
 70
     0
  9
$DIMCLRE
 70
     0
  9
$DIMCLRT
 70
     7
  9
$DIMTFAC
 40
1.0
  9
$DIMGAP
 40
1.0
  9
$DIMJUST
 70
     0
  9
$DIMSD1
 70
     0
  9
$DIMSD2
 70
     0
  9
$DIMTOLJ
 70
     1
  9
$DIMTZIN
 70
     0
  9
$DIMALTZ
 70
     0
  9
$DIMALTTZ
 70
     0
  9
$DIMUPT
 70
     0
  9
$DIMDEC
 70
     1
  9
$DIMTDEC
 70
     1
  9
$DIMALTU
 70
     2
  9
$DIMALTTD
 70
     2
  9
$DIMTXSTY
  7
STYLE1
  9
$DIMAUNIT
 70
     0
  9
$DIMADEC
 70
     0
  9
$DIMALTRND
 40
0.0
  9
$DIMAZIN
 70
     0
  9
$DIMDSEP
 70
    46
  9
$DIMATFIT
 70
     3
  9
$DIMFRAC
 70
     0
  9
$DIMLDRBLK
  1

  9
$DIMLUNIT
 70
     2
  9
$DIMLWD
 70
    -2
  9
$DIMLWE
 70
    -2
  9
$DIMTMOVE
 70
     0
  9
$LUNITS
 70
     2
  9
$LUPREC
 70
     1
  9
$SKETCHINC
 40
1.0
  9
$FILLETRAD
 40
0.0
  9
$AUNITS
 70
     0
  9
$AUPREC
 70
     0
  9
$MENU
  1
acad
  9
$ELEVATION
 40
0.0
  9
$PELEVATION
 40
0.0
  9
$THICKNESS
 40
0.0
  9
$LIMCHECK
 70
     0
  9
$CHAMFERA
 40
3.0
  9
$CHAMFERB
 40
3.0
  9
$CHAMFERC
 40
0.0
  9
$CHAMFERD
 40
0.0
  9
$SKPOLY
 70
     0
  9
$TDCREATE
 40
2451368.612993866
  9
$TDUCREATE
 40
2451368.237993866
  9
$TDUPDATE
 40
2455575.709205359
  9
$TDUUPDATE
 40
2455575.334205359
  9
$TDINDWG
 40
1.4135746644
  9
$TDUSRTIMER
 40
1.4135746644
  9
$USRTIMER
 70
     1
  9
$ANGBASE
 50
0.0
  9
$ANGDIR
 70
     0
  9
$PDMODE
 70
     3
  9
$PDSIZE
 40
2.0
  9
$PLINEWID
 40
0.0
  9
$SPLFRAME
 70
     0
  9
$SPLINETYPE
 70
     6
  9
$SPLINESEGS
 70
     8
  9
$HANDSEED
  5
20382
  9
$SURFTAB1
 70
     6
  9
$SURFTAB2
 70
     6
  9
$SURFTYPE
 70
     6
  9
$SURFU
 70
     6
  9
$SURFV
 70
     6
  9
$UCSBASE
  2

  9
$UCSNAME
  2

  9
$UCSORG
 10
0.0
 20
0.0
 30
0.0
  9
$UCSXDIR
 10
1.0
 20
0.0
 30
0.0
  9
$UCSYDIR
 10
0.0
 20
1.0
 30
0.0
  9
$UCSORTHOREF
  2

  9
$UCSORTHOVIEW
 70
     0
  9
$UCSORGTOP
 10
0.0
 20
0.0
 30
0.0
  9
$UCSORGBOTTOM
 10
0.0
 20
0.0
 30
0.0
  9
$UCSORGLEFT
 10
0.0
 20
0.0
 30
0.0
  9
$UCSORGRIGHT
 10
0.0
 20
0.0
 30
0.0
  9
$UCSORGFRONT
 10
0.0
 20
0.0
 30
0.0
  9
$UCSORGBACK
 10
0.0
 20
0.0
 30
0.0
  9
$PUCSBASE
  2

  9
$PUCSNAME
  2

  9
$PUCSORG
 10
0.0
 20
0.0
 30
0.0
  9
$PUCSXDIR
 10
1.0
 20
0.0
 30
0.0
  9
$PUCSYDIR
 10
0.0
 20
1.0
 30
0.0
  9
$PUCSORTHOREF
  2

  9
$PUCSORTHOVIEW
 70
     0
  9
$PUCSORGTOP
 10
0.0
 20
0.0
 30
0.0
  9
$PUCSORGBOTTOM
 10
0.0
 20
0.0
 30
0.0
  9
$PUCSORGLEFT
 10
0.0
 20
0.0
 30
0.0
  9
$PUCSORGRIGHT
 10
0.0
 20
0.0
 30
0.0
  9
$PUCSORGFRONT
 10
0.0
 20
0.0
 30
0.0
  9
$PUCSORGBACK
 10
0.0
 20
0.0
 30
0.0
  9
$USERI1
 70
     0
  9
$USERI2
 70
     0
  9
$USERI3
 70
     0
  9
$USERI4
 70
     0
  9
$USERI5
 70
     0
  9
$USERR1
 40
0.0
  9
$USERR2
 40
0.0
  9
$USERR3
 40
0.0
  9
$USERR4
 40
0.0
  9
$USERR5
 40
0.0
  9
$WORLDVIEW
 70
     1
  9
$SHADEDGE
 70
     3
  9
$SHADEDIF
 70
    70
  9
$TILEMODE
 70
     1
  9
$MAXACTVP
 70
    16
  9
$PINSBASE
 10
0.0
 20
0.0
 30
0.0
  9
$PLIMCHECK
 70
     0
  9
$PEXTMIN
 10
1.000000000000000E+20
 20
1.000000000000000E+20
 30
1.000000000000000E+20
  9
$PEXTMAX
 10
-1.000000000000000E+20
 20
-1.000000000000000E+20
 30
-1.000000000000000E+20
  9
$PLIMMIN
 10
0.0
 20
0.0
  9
$PLIMMAX
 10
420.0
 20
297.0
  9
$UNITMODE
 70
     0
  9
$VISRETAIN
 70
     0
  9
$PLINEGEN
 70
     0
  9
$PSLTSCALE
 70
     0
  9
$TREEDEPTH
 70
  3020
  9
$CMLSTYLE
  2
STANDARD
  9
$CMLJUST
 70
     0
  9
$CMLSCALE
 40
1.0
  9
$PROXYGRAPHICS
 70
     1
  9
$MEASUREMENT
 70
     1
  9
$CELWEIGHT
370
    -1
  9
$ENDCAPS
280
     0
  9
$JOINSTYLE
280
     0
  9
$LWDISPLAY
290
     0
  9
$INSUNITS
 70
     0
  9
$HYPERLINKBASE
  1

  9
$STYLESHEET
  1
inaba.ctb
  9
$XEDIT
290
     1
  9
$CEPSNTYPE
380
     0
  9
$PSTYLEMODE
290
     1
  9
$FINGERPRINTGUID
  2
{3B57B35E-7D77-4BBF-81B7-6C583B9EB24C}
  9
$VERSIONGUID
  2
{B64EB677-D899-4E4D-AA72-46DAAB028520}
  9
$EXTNAMES
290
     1
  9
$PSVPSCALE
 40
0.0
  9
$OLESTARTUP
290
     0
  0
ENDSEC
  0
SECTION
  2
CLASSES
  0
CLASS
  1
ACDBDICTIONARYWDFLT
  2
AcDbDictionaryWithDefault
  3
ObjectDBX Classes
 90
        0
280
     0
281
     0
  0
CLASS
  1
DICTIONARYVAR
  2
AcDbDictionaryVar
  3
ObjectDBX Classes
 90
        0
280
     0
281
     0
  0
CLASS
  1
ACDBPLACEHOLDER
  2
AcDbPlaceHolder
  3
ObjectDBX Classes
 90
        0
280
     0
281
     0
  0
CLASS
  1
LAYOUT
  2
AcDbLayout
  3
ObjectDBX Classes
 90
        0
280
     0
281
     0
  0
ENDSEC
  0
SECTION
  2
TABLES
  0
TABLE
  2
VPORT
  5
746D
330
0
100
AcDbSymbolTable
 70
     2
  0
VPORT
  5
2037A
330
746D
100
AcDbSymbolTableRecord
100
AcDbViewportTableRecord
  2
*Active
 70
     0
 10
0.0
 20
0.0
 11
1.0
 21
1.0
 12
8223.761025238502
 22
6621.748141184378
 13
0.0
 23
0.0
 14
10.0
 24
10.0
 15
10.0
 25
10.0
 16
0.0
 26
0.0
 36
1.0
 17
0.0
 27
0.0
 37
0.0
 40
13359.23578804915
 41
1.525925925925925
 42
50.0
 43
0.0
 44
0.0
 50
0.0
 51
0.0
 71
     0
 72
     0
 73
     1
 74
     0
 75
     0
 76
     0
 77
     0
 78
     0
281
     0
 65
     1
110
0.0
120
0.0
130
0.0
111
1.0
121
0.0
131
0.0
112
0.0
122
1.0
132
0.0
 79
     0
146
0.0
  0
ENDTAB
  0
TABLE
  2
LTYPE
  5
746A
330
0
100
AcDbSymbolTable
 70
     4
  0
LTYPE
  5
7477
330
746A
100
AcDbSymbolTableRecord
100
AcDbLinetypeTableRecord
  2
BYBLOCK
 70
     0
  3

 72
    65
 73
     0
 40
0.0
  0
LTYPE
  5
7478
330
746A
100
AcDbSymbolTableRecord
100
AcDbLinetypeTableRecord
  2
BYLAYER
 70
     0
  3

 72
    65
 73
     0
 40
0.0
  0
LTYPE
  5
7479
330
746A
100
AcDbSymbolTableRecord
100
AcDbLinetypeTableRecord
  2
CONTINUOUS
 70
     0
  3
Solid line
 72
    65
 73
     0
 40
0.0
  0
LTYPE
  5
7816
330
746A
100
AcDbSymbolTableRecord
100
AcDbLinetypeTableRecord
  2
CENTER
 70
     0
  3
____ _ ____ _ ____ _ ____ _ ____ _ ____ _ ____ 
 72
    65
 73
     4
 40
2.0
 49
1.25
 74
     0
 49
-0.25
 74
     0
 49
0.25
 74
     0
 49
-0.25
 74
     0
  0
LTYPE
  5
781A
330
746A
100
AcDbSymbolTableRecord
100
AcDbLinetypeTableRecord
  2
HIDDEN
 70
     0
  3
__ __ __ __ __ __ __ __ __ __ __ __ __ __ __ __
 72
    65
 73
     2
 40
0.375
 49
0.25
 74
     0
 49
-0.125
 74
     0
  0
LTYPE
  5
781B
330
746A
100
AcDbSymbolTableRecord
100
AcDbLinetypeTableRecord
  2
PHANTOM
 70
     0
  3
______  __  __  ______  __  __  ______  __  __ 
 72
    65
 73
     6
 40
2.5
 49
1.25
 74
     0
 49
-0.25
 74
     0
 49
0.25
 74
     0
 49
-0.25
 74
     0
 49
0.25
 74
     0
 49
-0.25
 74
     0
  0
ENDTAB
  0
TABLE
  2
LAYER
  5
7467
102
{ACAD_XDICTIONARY
360
1ED5D
102
}
330
0
100
AcDbSymbolTable
 70
    13
  0
LAYER
  5
7474
330
7467
100
AcDbSymbolTableRecord
100
AcDbLayerTableRecord
  2
0
 70
     0
 62
     7
  6
CONTINUOUS
370
    -3
390
159AE
  0
LAYER
  5
DEB2
330
7467
100
AcDbSymbolTableRecord
100
AcDbLayerTableRecord
  2
センター
 70
     0
 62
     3
  6
CENTER
370
    -3
390
159AE
  0
LAYER
  5
DEB3
330
7467
100
AcDbSymbolTableRecord
100
AcDbLayerTableRecord
  2
寸法
 70
     0
 62
     4
  6
CONTINUOUS
370
    -3
390
159AE
  0
LAYER
  5
DEB4
330
7467
100
AcDbSymbolTableRecord
100
AcDbLayerTableRecord
  2
部品1
 70
     0
 62
     7
  6
CONTINUOUS
370
    -3
390
159AE
  0
LAYER
  5
DEB5
330
7467
100
AcDbSymbolTableRecord
100
AcDbLayerTableRecord
  2
補助
 70
     0
 62
    -1
  6
CONTINUOUS
370
    -3
390
159AE
  0
LAYER
  5
DEB6
330
7467
100
AcDbSymbolTableRecord
100
AcDbLayerTableRecord
  2
文字
 70
     0
 62
     7
  6
CONTINUOUS
370
    -3
390
159AE
  0
LAYER
  5
F255
330
7467
100
AcDbSymbolTableRecord
100
AcDbLayerTableRecord
  2
DEFPOINTS
 70
     0
 62
     7
  6
CONTINUOUS
290
     0
370
    -3
390
159AE
  0
LAYER
  5
10B54
330
7467
100
AcDbSymbolTableRecord
100
AcDbLayerTableRecord
  2
仕様書枠
 70
     0
 62
   230
  6
CONTINUOUS
370
    -3
390
159AE
  0
LAYER
  5
11729
330
7467
100
AcDbSymbolTableRecord
100
AcDbLayerTableRecord
  2
Ｇ．Ｌ
 70
     0
 62
    30
  6
CONTINUOUS
370
    -3
390
159AE
  0
LAYER
  5
1173F
330
7467
100
AcDbSymbolTableRecord
100
AcDbLayerTableRecord
  2
細線
 70
     0
 62
     5
  6
CONTINUOUS
370
    -3
390
159AE
  0
LAYER
  5
12CC4
330
7467
100
AcDbSymbolTableRecord
100
AcDbLayerTableRecord
  2
想像線
 70
     0
 62
     6
  6
PHANTOM
370
    -3
390
159AE
  0
LAYER
  5
142E2
330
7467
100
AcDbSymbolTableRecord
100
AcDbLayerTableRecord
  2
破線
 70
     0
 62
     2
  6
HIDDEN
370
    -3
390
159AE
  0
LAYER
  5
1C644
330
7467
100
AcDbSymbolTableRecord
100
AcDbLayerTableRecord
  2
点線
 70
     0
 62
     2
  6
HIDDEN
370
    -3
390
159AE
  0
ENDTAB
  0
TABLE
  2
STYLE
  5
7468
330
0
100
AcDbSymbolTable
 70
     3
  0
STYLE
  5
7475
330
7468
100
AcDbSymbolTableRecord
100
AcDbTextStyleTableRecord
  2
STANDARD
 70
     0
 40
0.0
 41
1.0
 50
0.0
 71
     0
 42
4.0
  3
txt
  4
C:\AutoCAD LT\bigfont.shx
  0
STYLE
  5
F706
330
7468
100
AcDbSymbolTableRecord
100
AcDbTextStyleTableRecord
  2
STYLE1
 70
     0
 40
0.0
 41
1.0
 50
0.0
 71
     0
 42
100.0
  3
isocp.shx
  4
bigfont.shx
  0
STYLE
  5
103BF
330
7468
100
AcDbSymbolTableRecord
100
AcDbTextStyleTableRecord
  2
STYLE2
 70
     0
 40
0.0
 41
1.0
 50
0.0
 71
     0
 42
100.0
  3
MS PGothic.ttf
  4

1001
ACAD
1000
MS PGothic
1071
    32818
  0
ENDTAB
  0
TABLE
  2
VIEW
  5
746B
330
0
100
AcDbSymbolTable
 70
     0
  0
ENDTAB
  0
TABLE
  2
UCS
  5
746C
330
0
100
AcDbSymbolTable
 70
     0
  0
ENDTAB
  0
TABLE
  2
APPID
  5
746E
330
0
100
AcDbSymbolTable
 70
     6
  0
APPID
  5
7476
330
746E
100
AcDbSymbolTableRecord
100
AcDbRegAppTableRecord
  2
ACAD
 70
     0
  0
APPID
  5
DEA9
330
746E
100
AcDbSymbolTableRecord
100
AcDbRegAppTableRecord
  2
CONTENTBLOCKICON
 70
     0
  0
APPID
  5
DEAA
330
746E
100
AcDbSymbolTableRecord
100
AcDbRegAppTableRecord
  2
CONTENTBLOCKDESCRIPTION
 70
     0
  0
APPID
  5
E71D
330
746E
100
AcDbSymbolTableRecord
100
AcDbRegAppTableRecord
  2
CONTENTTABDATA
 70
     0
  0
APPID
  5
E71E
330
746E
100
AcDbSymbolTableRecord
100
AcDbRegAppTableRecord
  2
CONTENTCURRENTTAB
 70
     0
  0
APPID
  5
F3BA
330
746E
100
AcDbSymbolTableRecord
100
AcDbRegAppTableRecord
  2
DRAWINGVARIABLESXDATA
 70
     0
  0
ENDTAB
  0
TABLE
  2
DIMSTYLE
  5
746F
330
0
100
AcDbSymbolTable
 70
     2
100
AcDbDimStyleTable
 71
     1
340
F71F
  0
DIMSTYLE
105
F71F
102
{ACAD_REACTORS
330
1CAB8
330
1CAB7
330
1CAB6
330
1E8FD
330
1E8FC
330
1E8FB
330
1E8FA
330
1E8F9
330
1E8F8
330
1E9AA
330
1F6EE
330
1F6ED
330
20194
330
201F6
330
2025E
330
202BB
102
}
330
746F
100
AcDbSymbolTableRecord
100
AcDbDimStyleTableRecord
  2
INABA_S40G
 70
     0
 40
40.0
 41
2.5
 42
0.5
 43
7.0
 44
1.5
 73
     0
 74
     0
 77
     3
 78
     8
140
3.0
141
0.0
143
0.0394
147
1.0
172
     1
173
     1
174
     1
178
     7
271
     1
288
     1
340
F706
341
F770
343
F770
344
F770
  0
DIMSTYLE
105
1C645
330
746F
100
AcDbSymbolTableRecord
100
AcDbDimStyleTableRecord
  2
INABA_S50G
 70
     0
 40
0.0
 41
125.0
 42
25.0
 43
7.0
 44
75.0
 73
     0
 74
     0
 77
     3
 78
     8
140
150.0
141
0.0
143
0.0394
147
25.0
172
     1
173
     1
174
     1
178
     7
271
     1
340
F706
341
F770
343
F770
344
F770
  0
ENDTAB
  0
TABLE
  2
BLOCK_RECORD
  5
7466
330
0
100
AcDbSymbolTable
 70
    40
  0
BLOCK_RECORD
  5
747D
330
7466
100
AcDbSymbolTableRecord
100
AcDbBlockTableRecord
  2
*MODEL_SPACE
340
159B3
  0
BLOCK_RECORD
  5
747A
330
7466
100
AcDbSymbolTableRecord
100
AcDbBlockTableRecord
  2
*PAPER_SPACE
340
159B4
  0
BLOCK_RECORD
  5
F770
330
7466
100
AcDbSymbolTableRecord
100
AcDbBlockTableRecord
  2
_DOTSMALL
340
0
102
{BLKREFS
331
1E214
331
1E215
331
1E1AD
331
1E1AE
331
1E1D1
331
1E1D2
331
1E1C6
331
1E1C7
331
1E187
331
1E188
331
1E1BA
331
1E1BB
331
1E1DF
331
1E1E0
331
1E1A1
331
1E1A2
331
1E194
331
1E195
331
1E220
331
1E221
331
1E24F
331
1E250
331
1E1FA
331
1E1FB
331
1E1ED
331
1E1EE
331
1E207
331
1E208
331
1E22B
331
1E22C
331
1E242
331
1E243
331
1E17A
331
1E17B
331
1E16D
331
1E16E
331
1E160
331
1E161
331
1E155
331
1E156
331
1E236
331
1E237
331
1E65F
331
1E660
331
1FE5A
331
1FE5B
331
1FE6C
331
1FE6D
331
1FE75
331
1FE76
331
1FF0B
331
1FF0C
331
1FF14
331
1FF15
331
1FF1F
331
1FF20
331
1FF28
331
1FF29
331
1FF31
331
1FF32
331
1FF3A
331
1FF3B
331
1FF55
331
1FF56
331
1FF5E
331
1FF5F
331
20344
331
20345
331
2034D
331
2034E
331
20356
331
20357
331
2035F
331
20360
102
}
  0
BLOCK_RECORD
  5
1C530
330
7466
100
AcDbSymbolTableRecord
100
AcDbBlockTableRecord
  2
_NONE
340
0
  0
BLOCK_RECORD
  5
1CDBF
330
7466
100
AcDbSymbolTableRecord
100
AcDbBlockTableRecord
  2
*D2
340
0
  0
BLOCK_RECORD
  5
1CDCD
330
7466
100
AcDbSymbolTableRecord
100
AcDbBlockTableRecord
  2
*D3
340
0
  0
BLOCK_RECORD
  5
1CDD8
330
7466
100
AcDbSymbolTableRecord
100
AcDbBlockTableRecord
  2
*D4
340
0
  0
BLOCK_RECORD
  5
1E151
330
7466
100
AcDbSymbolTableRecord
100
AcDbBlockTableRecord
  2
*D5
340
0
  0
BLOCK_RECORD
  5
1E15C
330
7466
100
AcDbSymbolTableRecord
100
AcDbBlockTableRecord
  2
*D6
340
0
  0
BLOCK_RECORD
  5
1E167
330
7466
100
AcDbSymbolTableRecord
100
AcDbBlockTableRecord
  2
*D7
340
0
  0
BLOCK_RECORD
  5
1E174
330
7466
100
AcDbSymbolTableRecord
100
AcDbBlockTableRecord
  2
*D8
340
0
  0
BLOCK_RECORD
  5
1E181
330
7466
100
AcDbSymbolTableRecord
100
AcDbBlockTableRecord
  2
*D9
340
0
  0
BLOCK_RECORD
  5
1E18E
330
7466
100
AcDbSymbolTableRecord
100
AcDbBlockTableRecord
  2
*D10
340
0
  0
BLOCK_RECORD
  5
1E19B
330
7466
100
AcDbSymbolTableRecord
100
AcDbBlockTableRecord
  2
*D11
340
0
  0
BLOCK_RECORD
  5
1E1A8
330
7466
100
AcDbSymbolTableRecord
100
AcDbBlockTableRecord
  2
*D12
340
0
  0
BLOCK_RECORD
  5
1E1B4
330
7466
100
AcDbSymbolTableRecord
100
AcDbBlockTableRecord
  2
*D13
340
0
  0
BLOCK_RECORD
  5
1E1C1
330
7466
100
AcDbSymbolTableRecord
100
AcDbBlockTableRecord
  2
*D14
340
0
  0
BLOCK_RECORD
  5
1E1CD
330
7466
100
AcDbSymbolTableRecord
100
AcDbBlockTableRecord
  2
*D15
340
0
  0
BLOCK_RECORD
  5
1E1D8
330
7466
100
AcDbSymbolTableRecord
100
AcDbBlockTableRecord
  2
*D16
340
0
  0
BLOCK_RECORD
  5
1E1E6
330
7466
100
AcDbSymbolTableRecord
100
AcDbBlockTableRecord
  2
*D17
340
0
  0
BLOCK_RECORD
  5
1E1F4
330
7466
100
AcDbSymbolTableRecord
100
AcDbBlockTableRecord
  2
*D18
340
0
  0
BLOCK_RECORD
  5
1E201
330
7466
100
AcDbSymbolTableRecord
100
AcDbBlockTableRecord
  2
*D19
340
0
  0
BLOCK_RECORD
  5
1E20E
330
7466
100
AcDbSymbolTableRecord
100
AcDbBlockTableRecord
  2
*D20
340
0
  0
BLOCK_RECORD
  5
1E21B
330
7466
100
AcDbSymbolTableRecord
100
AcDbBlockTableRecord
  2
*D21
340
0
  0
BLOCK_RECORD
  5
1E227
330
7466
100
AcDbSymbolTableRecord
100
AcDbBlockTableRecord
  2
*D22
340
0
  0
BLOCK_RECORD
  5
1E232
330
7466
100
AcDbSymbolTableRecord
100
AcDbBlockTableRecord
  2
*D23
340
0
  0
BLOCK_RECORD
  5
1E23D
330
7466
100
AcDbSymbolTableRecord
100
AcDbBlockTableRecord
  2
*D24
340
0
  0
BLOCK_RECORD
  5
1E249
330
7466
100
AcDbSymbolTableRecord
100
AcDbBlockTableRecord
  2
*D25
340
0
  0
BLOCK_RECORD
  5
1E256
330
7466
100
AcDbSymbolTableRecord
100
AcDbBlockTableRecord
  2
A$C56A41A26
340
0
  0
BLOCK_RECORD
  5
1E8FE
330
7466
100
AcDbSymbolTableRecord
100
AcDbBlockTableRecord
  2
*D27
340
0
  0
BLOCK_RECORD
  5
1E90A
330
7466
100
AcDbSymbolTableRecord
100
AcDbBlockTableRecord
  2
*D28
340
0
  0
BLOCK_RECORD
  5
1E916
330
7466
100
AcDbSymbolTableRecord
100
AcDbBlockTableRecord
  2
*D29
340
0
  0
BLOCK_RECORD
  5
1E922
330
7466
100
AcDbSymbolTableRecord
100
AcDbBlockTableRecord
  2
*D30
340
0
  0
BLOCK_RECORD
  5
1E930
330
7466
100
AcDbSymbolTableRecord
100
AcDbBlockTableRecord
  2
*D31
340
0
  0
BLOCK_RECORD
  5
1E93E
330
7466
100
AcDbSymbolTableRecord
100
AcDbBlockTableRecord
  2
*D32
340
0
  0
BLOCK_RECORD
  5
1E9AB
330
7466
100
AcDbSymbolTableRecord
100
AcDbBlockTableRecord
  2
*D33
340
0
  0
BLOCK_RECORD
  5
1F6EF
330
7466
100
AcDbSymbolTableRecord
100
AcDbBlockTableRecord
  2
*D34
340
0
  0
BLOCK_RECORD
  5
1F6FB
330
7466
100
AcDbSymbolTableRecord
100
AcDbBlockTableRecord
  2
*D35
340
0
  0
BLOCK_RECORD
  5
202C6
330
7466
100
AcDbSymbolTableRecord
100
AcDbBlockTableRecord
  2
*D36
340
0
  0
BLOCK_RECORD
  5
202D2
330
7466
100
AcDbSymbolTableRecord
100
AcDbBlockTableRecord
  2
*D37
340
0
  0
BLOCK_RECORD
  5
202DE
330
7466
100
AcDbSymbolTableRecord
100
AcDbBlockTableRecord
  2
*D38
340
0
  0
BLOCK_RECORD
  5
202EA
330
7466
100
AcDbSymbolTableRecord
100
AcDbBlockTableRecord
  2
*D39
340
0
  0
ENDTAB
  0
ENDSEC
  0
SECTION
  2
BLOCKS
  0
BLOCK
  5
7489
330
747D
100
AcDbEntity
  8
0
100
AcDbBlockBegin
  2
*MODEL_SPACE
 70
     0
 10
0.0
 20
0.0
 30
0.0
  3
*MODEL_SPACE
  1

  0
ENDBLK
  5
748A
330
747D
100
AcDbEntity
  8
0
100
AcDbBlockEnd
  0
BLOCK
  5
7487
330
747A
100
AcDbEntity
 67
     1
  8
0
100
AcDbBlockBegin
  2
*PAPER_SPACE
 70
     0
 10
0.0
 20
0.0
 30
0.0
  3
*PAPER_SPACE
  1

  0
ENDBLK
  5
7488
330
747A
100
AcDbEntity
 67
     1
  8
0
100
AcDbBlockEnd
  0
BLOCK
  5
F771
330
F770
100
AcDbEntity
  8
0
 48
50.0
100
AcDbBlockBegin
  2
_DOTSMALL
 70
     0
 10
0.0
 20
0.0
 30
0.0
  3
_DOTSMALL
  1

  0
LWPOLYLINE
  5
F772
330
F770
100
AcDbEntity
  8
0
  6
ByBlock
 62
     0
 48
50.0
100
AcDbPolyline
 90
        2
 70
     1
 43
0.5
 10
-0.0625
 20
0.0
 42
1.0
 10
0.0625
 20
0.0
 42
1.0
  0
ENDBLK
  5
F776
330
F770
100
AcDbEntity
  8
0
 48
50.0
100
AcDbBlockEnd
  0
BLOCK
  5
1C531
330
1C530
100
AcDbEntity
  8
0
 48
50.0
100
AcDbBlockBegin
  2
_NONE
 70
     0
 10
0.0
 20
0.0
 30
0.0
  3
_NONE
  1

  0
CIRCLE
  5
1C532
330
1C530
100
AcDbEntity
  8
0
  6
ByBlock
 62
     0
 48
50.0
100
AcDbCircle
 10
0.0
 20
0.0
 30
0.0
 40
0.25
  0
ENDBLK
  5
1C533
330
1C530
100
AcDbEntity
  8
0
 48
50.0
100
AcDbBlockEnd
  0
BLOCK
  5
1CDCB
330
1CDBF
100
AcDbEntity
  8
0
 48
50.0
100
AcDbBlockBegin
  2
*D2
 70
     1
 10
0.0
 20
0.0
 30
0.0
  3
*D2
  1

  0
LINE
  5
1E65A
330
1CDBF
100
AcDbEntity
  8
寸法
 62
     0
 48
50.0
370
    -2
100
AcDbLine
 10
6887.599999999999
 20
5500.0
 30
0.0
 11
6406.888116550749
 21
5500.0
 31
0.0
  0
LINE
  5
1E65B
330
1CDBF
100
AcDbEntity
  8
寸法
 62
     0
 48
50.0
370
    -2
100
AcDbLine
 10
6837.599999999999
 20
5440.0
 30
0.0
 11
6406.888116550749
 21
5440.0
 31
0.0
  0
LINE
  5
1E65C
330
1CDBF
100
AcDbEntity
  8
寸法
 62
     0
 48
50.0
370
    -2
100
AcDbLine
 10
6466.888116550748
 20
5500.0
 30
0.0
 11
6466.888116550748
 21
5600.0
 31
0.0
  0
LINE
  5
1E65D
330
1CDBF
100
AcDbEntity
  8
寸法
 62
     0
 48
50.0
370
    -2
100
AcDbLine
 10
6466.888116550748
 20
5440.0
 30
0.0
 11
6466.888116550748
 21
5340.0
 31
0.0
  0
LINE
  5
1E65E
330
1CDBF
100
AcDbEntity
  8
寸法
 62
     0
 48
50.0
370
    -2
100
AcDbLine
 10
6466.888116550748
 20
5500.0
 30
0.0
 11
6466.888116550748
 21
5440.0
 31
0.0
  0
INSERT
  5
1E65F
330
1CDBF
100
AcDbEntity
  8
寸法
 62
     0
 48
50.0
370
    -2
100
AcDbBlockReference
  2
_DOTSMALL
 10
6466.888116550748
 20
5500.0
 30
0.0
 41
100.0
 42
100.0
 43
100.0
 50
270.0
  0
INSERT
  5
1E660
330
1CDBF
100
AcDbEntity
  8
寸法
 62
     0
 48
50.0
370
    -2
100
AcDbBlockReference
  2
_DOTSMALL
 10
6466.888116550748
 20
5440.0
 30
0.0
 41
100.0
 42
100.0
 43
100.0
 50
90.0
  0
MTEXT
  5
1E661
330
1CDBF
100
AcDbEntity
  8
寸法
 62
     7
 48
50.0
100
AcDbMText
 10
6366.888116550748
 20
5470.000000000002
 30
0.0
 40
120.0
 41
0.0
 71
     5
 72
     1
  1
\A1;b
  7
STYLE1
 11
0.0000000000000001
 21
1.0
 31
0.0
 73
     1
 44
1.0
1001
ACAD
1000
MTEXTBEGIN
1070
    73
1070
     1
1070
    44
1040
1.0
1070
    74
1070
     0
1000
MTEXTEND
  0
POINT
  5
1E662
330
1CDBF
100
AcDbEntity
  8
DEFPOINTS
 62
     0
 48
50.0
100
AcDbPoint
 10
6907.599999999999
 20
5500.0
 30
0.0
  0
POINT
  5
1E663
330
1CDBF
100
AcDbEntity
  8
DEFPOINTS
 62
     0
 48
50.0
100
AcDbPoint
 10
6857.599999999999
 20
5440.0
 30
0.0
  0
POINT
  5
1E664
330
1CDBF
100
AcDbEntity
  8
DEFPOINTS
 62
     0
 48
50.0
100
AcDbPoint
 10
6466.888116550748
 20
5440.0
 30
0.0
  0
ENDBLK
  5
1CDCC
330
1CDBF
100
AcDbEntity
  8
0
 48
50.0
100
AcDbBlockEnd
  0
BLOCK
  5
1CDD6
330
1CDCD
100
AcDbEntity
  8
0
 48
50.0
100
AcDbBlockBegin
  2
*D3
 70
     1
 10
0.0
 20
0.0
 30
0.0
  3
*D3
  1

  0
LINE
  5
1FE72
330
1CDCD
100
AcDbEntity
  8
寸法
 62
     0
 48
50.0
370
    -2
100
AcDbLine
 10
6887.599999999999
 20
7712.0
 30
0.0
 11
6406.88811655075
 21
7712.0
 31
0.0
  0
LINE
  5
1FE73
330
1CDCD
100
AcDbEntity
  8
寸法
 62
     0
 48
50.0
370
    -2
100
AcDbLine
 10
6887.599999999999
 20
5500.0
 30
0.0
 11
6406.888116550749
 21
5500.0
 31
0.0
  0
LINE
  5
1FE74
330
1CDCD
100
AcDbEntity
  8
寸法
 62
     0
 48
50.0
370
    -2
100
AcDbLine
 10
6466.88811655075
 20
7712.0
 30
0.0
 11
6466.888116550748
 21
5500.0
 31
0.0
  0
INSERT
  5
1FE75
330
1CDCD
100
AcDbEntity
  8
寸法
 62
     0
 48
50.0
370
    -2
100
AcDbBlockReference
  2
_DOTSMALL
 10
6466.88811655075
 20
7712.0
 30
0.0
 41
100.0
 42
100.0
 43
100.0
 50
90.0
  0
INSERT
  5
1FE76
330
1CDCD
100
AcDbEntity
  8
寸法
 62
     0
 48
50.0
370
    -2
100
AcDbBlockReference
  2
_DOTSMALL
 10
6466.888116550748
 20
5500.0
 30
0.0
 41
100.0
 42
100.0
 43
100.0
 50
270.0
  0
MTEXT
  5
1FE77
330
1CDCD
100
AcDbEntity
  8
寸法
 62
     7
 48
50.0
100
AcDbMText
 10
6366.876305527126
 20
6606.000000000001
 30
0.0
 40
120.0
 41
0.0
 71
     5
 72
     1
  1
\A1;2212
  7
STYLE1
 11
0.0000000000000001
 21
1.0
 31
0.0
 73
     1
 44
1.0
1001
ACAD
1000
MTEXTBEGIN
1070
    73
1070
     1
1070
    44
1040
1.0
1070
    74
1070
     0
1000
MTEXTEND
  0
POINT
  5
1FE78
330
1CDCD
100
AcDbEntity
  8
DEFPOINTS
 62
     0
 48
50.0
100
AcDbPoint
 10
6907.599999999999
 20
7712.0
 30
0.0
  0
POINT
  5
1FE79
330
1CDCD
100
AcDbEntity
  8
DEFPOINTS
 62
     0
 48
50.0
100
AcDbPoint
 10
6907.599999999999
 20
5500.0
 30
0.0
  0
POINT
  5
1FE7A
330
1CDCD
100
AcDbEntity
  8
DEFPOINTS
 62
     0
 48
50.0
100
AcDbPoint
 10
6466.888116550748
 20
5500.0
 30
0.0
  0
ENDBLK
  5
1CDD7
330
1CDCD
100
AcDbEntity
  8
0
 48
50.0
100
AcDbBlockEnd
  0
BLOCK
  5
1CDE4
330
1CDD8
100
AcDbEntity
  8
0
 48
50.0
100
AcDbBlockBegin
  2
*D4
 70
     1
 10
0.0
 20
0.0
 30
0.0
  3
*D4
  1

  0
LINE
  5
1FE69
330
1CDD8
100
AcDbEntity
  8
寸法
 62
     0
 48
50.0
370
    -2
100
AcDbLine
 10
6837.599999999999
 20
7792.0
 30
0.0
 11
6406.888116550748
 21
7792.0
 31
0.0
  0
LINE
  5
1FE6A
330
1CDD8
100
AcDbEntity
  8
寸法
 62
     0
 48
50.0
370
    -2
100
AcDbLine
 10
6887.599999999999
 20
7712.0
 30
0.0
 11
6406.888116550748
 21
7712.0
 31
0.0
  0
LINE
  5
1FE6B
330
1CDD8
100
AcDbEntity
  8
寸法
 62
     0
 48
50.0
370
    -2
100
AcDbLine
 10
6466.888116550748
 20
7792.0
 30
0.0
 11
6466.888116550748
 21
7712.0
 31
0.0
  0
INSERT
  5
1FE6C
330
1CDD8
100
AcDbEntity
  8
寸法
 62
     0
 48
50.0
370
    -2
100
AcDbBlockReference
  2
_DOTSMALL
 10
6466.888116550748
 20
7792.0
 30
0.0
 41
100.0
 42
100.0
 43
100.0
 50
90.0
  0
INSERT
  5
1FE6D
330
1CDD8
100
AcDbEntity
  8
寸法
 62
     0
 48
50.0
370
    -2
100
AcDbBlockReference
  2
_DOTSMALL
 10
6466.888116550748
 20
7712.0
 30
0.0
 41
100.0
 42
100.0
 43
100.0
 50
270.0
  0
MTEXT
  5
1FE6E
330
1CDD8
100
AcDbEntity
  8
寸法
 62
     7
 48
50.0
100
AcDbMText
 10
6366.888116550747
 20
7752.000000000002
 30
0.0
 40
120.0
 41
0.0
 71
     5
 72
     1
  1
\A1;c
  7
STYLE1
 11
0.0000000000000001
 21
1.0
 31
0.0
 73
     1
 44
1.0
1001
ACAD
1000
MTEXTBEGIN
1070
    73
1070
     1
1070
    44
1040
1.0
1070
    74
1070
     0
1000
MTEXTEND
  0
POINT
  5
1FE6F
330
1CDD8
100
AcDbEntity
  8
DEFPOINTS
 62
     0
 48
50.0
100
AcDbPoint
 10
6857.599999999999
 20
7792.0
 30
0.0
  0
POINT
  5
1FE70
330
1CDD8
100
AcDbEntity
  8
DEFPOINTS
 62
     0
 48
50.0
100
AcDbPoint
 10
6907.599999999999
 20
7712.0
 30
0.0
  0
POINT
  5
1FE71
330
1CDD8
100
AcDbEntity
  8
DEFPOINTS
 62
     0
 48
50.0
100
AcDbPoint
 10
6466.888116550748
 20
7712.0
 30
0.0
  0
ENDBLK
  5
1CDE5
330
1CDD8
100
AcDbEntity
  8
0
 48
50.0
100
AcDbBlockEnd
  0
BLOCK
  5
1E152
330
1E151
100
AcDbEntity
  8
0
 48
50.0
100
AcDbBlockBegin
  2
*D5
 70
     1
 10
0.0
 20
0.0
 30
0.0
  3
*D5
  1

  0
LINE
  5
1E153
330
1E151
100
AcDbEntity
  8
0
  6
ByBlock
 62
     0
 48
50.0
100
AcDbLine
 10
5296.0
 20
8029.0
 30
0.0
 11
5296.0
 21
9017.667619817153
 31
0.0
  0
LINE
  5
1E154
330
1E151
100
AcDbEntity
  8
0
  6
ByBlock
 62
     0
 48
50.0
100
AcDbLine
 10
3496.0
 20
8942.667619817154
 30
0.0
 11
5296.0
 21
8942.667619817154
 31
0.0
  0
INSERT
  5
1E155
330
1E151
100
AcDbEntity
  8
0
  6
ByBlock
 62
     0
 48
50.0
100
AcDbBlockReference
  2
_DOTSMALL
 10
3496.0
 20
8942.667619817154
 30
0.0
 41
125.0
 42
125.0
 43
125.0
 50
180.0
  0
INSERT
  5
1E156
330
1E151
100
AcDbEntity
  8
0
  6
ByBlock
 62
     0
 48
50.0
100
AcDbBlockReference
  2
_DOTSMALL
 10
5296.0
 20
8942.667619817154
 30
0.0
 41
125.0
 42
125.0
 43
125.0
  0
MTEXT
  5
1E157
330
1E151
100
AcDbEntity
  8
0
  6
ByBlock
 62
     7
 48
50.0
100
AcDbMText
 10
4396.0
 20
9042.667619817153
 30
0.0
 40
150.0
 41
0.0
 71
     5
 72
     1
  1
\A1;1800
  7
STYLE1
 73
     1
 44
1.0
1001
ACAD
1000
MTEXTBEGIN
1070
    73
1070
     1
1070
    44
1040
1.0
1070
    74
1070
     0
1000
MTEXTEND
  0
POINT
  5
1E158
330
1E151
100
AcDbEntity
  8
DEFPOINTS
  6
ByBlock
 62
     0
 48
50.0
100
AcDbPoint
 10
3496.0
 20
8004.0
 30
0.0
  0
POINT
  5
1E159
330
1E151
100
AcDbEntity
  8
DEFPOINTS
  6
ByBlock
 62
     0
 48
50.0
100
AcDbPoint
 10
5296.0
 20
8004.0
 30
0.0
  0
POINT
  5
1E15A
330
1E151
100
AcDbEntity
  8
DEFPOINTS
  6
ByBlock
 62
     0
 48
50.0
100
AcDbPoint
 10
5296.0
 20
8942.667619817154
 30
0.0
  0
ENDBLK
  5
1E15B
330
1E151
100
AcDbEntity
  8
0
 48
50.0
100
AcDbBlockEnd
  0
BLOCK
  5
1E15D
330
1E15C
100
AcDbEntity
  8
0
 48
50.0
100
AcDbBlockBegin
  2
*D6
 70
     1
 10
0.0
 20
0.0
 30
0.0
  3
*D6
  1

  0
LINE
  5
1E15E
330
1E15C
100
AcDbEntity
  8
0
  6
ByBlock
 62
     0
 48
50.0
100
AcDbLine
 10
3619.0
 20
7956.0
 30
0.0
 11
3619.0
 21
8805.206924300318
 31
0.0
  0
LINE
  5
1E15F
330
1E15C
100
AcDbEntity
  8
0
  6
ByBlock
 62
     0
 48
50.0
100
AcDbLine
 10
5173.0
 20
8730.206924300317
 30
0.0
 11
3619.0
 21
8730.206924300317
 31
0.0
  0
INSERT
  5
1E160
330
1E15C
100
AcDbEntity
  8
0
  6
ByBlock
 62
     0
 48
50.0
100
AcDbBlockReference
  2
_DOTSMALL
 10
5173.0
 20
8730.206924300317
 30
0.0
 41
125.0
 42
125.0
 43
125.0
  0
INSERT
  5
1E161
330
1E15C
100
AcDbEntity
  8
0
  6
ByBlock
 62
     0
 48
50.0
100
AcDbBlockReference
  2
_DOTSMALL
 10
3619.0
 20
8730.206924300317
 30
0.0
 41
125.0
 42
125.0
 43
125.0
 50
180.0
  0
MTEXT
  5
1E162
330
1E15C
100
AcDbEntity
  8
0
  6
ByBlock
 62
     7
 48
50.0
100
AcDbMText
 10
4396.0
 20
8830.206924300318
 30
0.0
 40
150.0
 41
0.0
 71
     5
 72
     1
  1
\A1;1554
  7
STYLE1
 73
     1
 44
1.0
1001
ACAD
1000
MTEXTBEGIN
1070
    73
1070
     1
1070
    44
1040
1.0
1070
    74
1070
     0
1000
MTEXTEND
  0
POINT
  5
1E163
330
1E15C
100
AcDbEntity
  8
DEFPOINTS
  6
ByBlock
 62
     0
 48
50.0
100
AcDbPoint
 10
5173.0
 20
7931.0
 30
0.0
  0
POINT
  5
1E164
330
1E15C
100
AcDbEntity
  8
DEFPOINTS
  6
ByBlock
 62
     0
 48
50.0
100
AcDbPoint
 10
3619.0
 20
7931.0
 30
0.0
  0
POINT
  5
1E165
330
1E15C
100
AcDbEntity
  8
DEFPOINTS
  6
ByBlock
 62
     0
 48
50.0
100
AcDbPoint
 10
3619.0
 20
8730.206924300317
 30
0.0
  0
ENDBLK
  5
1E166
330
1E15C
100
AcDbEntity
  8
0
 48
50.0
100
AcDbBlockEnd
  0
BLOCK
  5
1E168
330
1E167
100
AcDbEntity
  8
0
 48
50.0
100
AcDbBlockBegin
  2
*D7
 70
     1
 10
0.0
 20
0.0
 30
0.0
  3
*D7
  1

  0
LINE
  5
1E169
330
1E167
100
AcDbEntity
  8
0
  6
ByBlock
 62
     0
 48
50.0
100
AcDbLine
 10
3751.000000000001
 20
2304.000000000004
 30
0.0
 11
4106.75372407693
 21
2304.000000000004
 31
0.0
  0
LINE
  5
1E16A
330
1E167
100
AcDbEntity
  8
0
  6
ByBlock
 62
     0
 48
50.0
100
AcDbLine
 10
3821.000000000001
 20
2504.000000000007
 30
0.0
 11
4106.75372407693
 21
2504.000000000007
 31
0.0
  0
LINE
  5
1E16B
330
1E167
100
AcDbEntity
  8
0
  6
ByBlock
 62
     0
 48
50.0
100
AcDbLine
 10
4031.753724076931
 20
2304.000000000004
 30
0.0
 11
4031.753724076931
 21
2504.000000000007
 31
0.0
  0
LINE
  5
1E16C
330
1E167
100
AcDbEntity
  8
0
  6
ByBlock
 62
     0
 48
50.0
100
AcDbLine
 10
4031.753724076931
 20
2504.000000000007
 30
0.0
 11
4031.753724076931
 21
2952.927165354338
 31
0.0
  0
INSERT
  5
1E16D
330
1E167
100
AcDbEntity
  8
0
  6
ByBlock
 62
     0
 48
50.0
100
AcDbBlockReference
  2
_DOTSMALL
 10
4031.753724076931
 20
2304.000000000004
 30
0.0
 41
125.0
 42
125.0
 43
125.0
 50
270.0
  0
INSERT
  5
1E16E
330
1E167
100
AcDbEntity
  8
0
  6
ByBlock
 62
     0
 48
50.0
100
AcDbBlockReference
  2
_DOTSMALL
 10
4031.753724076931
 20
2504.000000000007
 30
0.0
 41
125.0
 42
125.0
 43
125.0
 50
90.0
  0
MTEXT
  5
1E16F
330
1E167
100
AcDbEntity
  8
0
  6
ByBlock
 62
     7
 48
50.0
100
AcDbMText
 10
3931.738960297403
 20
2790.963582677173
 30
0.0
 40
150.0
 41
0.0
 71
     5
 72
     1
  1
\A1;200
  7
STYLE1
 11
0.0000000000000001
 21
1.0
 31
0.0
 73
     1
 44
1.0
1001
ACAD
1000
MTEXTBEGIN
1070
    73
1070
     1
1070
    44
1040
1.0
1070
    74
1070
     0
1000
MTEXTEND
  0
POINT
  5
1E170
330
1E167
100
AcDbEntity
  8
DEFPOINTS
  6
ByBlock
 62
     0
 48
50.0
100
AcDbPoint
 10
3726.000000000001
 20
2304.000000000004
 30
0.0
  0
POINT
  5
1E171
330
1E167
100
AcDbEntity
  8
DEFPOINTS
  6
ByBlock
 62
     0
 48
50.0
100
AcDbPoint
 10
3796.000000000001
 20
2504.000000000007
 30
0.0
  0
POINT
  5
1E172
330
1E167
100
AcDbEntity
  8
DEFPOINTS
  6
ByBlock
 62
     0
 48
50.0
100
AcDbPoint
 10
4031.753724076931
 20
2504.000000000007
 30
0.0
  0
ENDBLK
  5
1E173
330
1E167
100
AcDbEntity
  8
0
 48
50.0
100
AcDbBlockEnd
  0
BLOCK
  5
1E175
330
1E174
100
AcDbEntity
  8
0
 48
50.0
100
AcDbBlockBegin
  2
*D8
 70
     1
 10
0.0
 20
0.0
 30
0.0
  3
*D8
  1

  0
LINE
  5
1E176
330
1E174
100
AcDbEntity
  8
0
  6
ByBlock
 62
     0
 48
50.0
100
AcDbLine
 10
3751.000000000001
 20
6724.000000000005
 30
0.0
 11
4106.75372407693
 21
6724.000000000005
 31
0.0
  0
LINE
  5
1E177
330
1E174
100
AcDbEntity
  8
0
  6
ByBlock
 62
     0
 48
50.0
100
AcDbLine
 10
3751.000000000002
 20
6624.000000000002
 30
0.0
 11
4106.75372407693
 21
6624.000000000002
 31
0.0
  0
LINE
  5
1E178
330
1E174
100
AcDbEntity
  8
0
  6
ByBlock
 62
     0
 48
50.0
100
AcDbLine
 10
4031.753724076931
 20
6724.000000000005
 30
0.0
 11
4031.753724076931
 21
6624.000000000002
 31
0.0
  0
LINE
  5
1E179
330
1E174
100
AcDbEntity
  8
0
  6
ByBlock
 62
     0
 48
50.0
100
AcDbLine
 10
4031.753724076931
 20
6624.000000000002
 30
0.0
 11
4031.753724076931
 21
6200.857401609004
 31
0.0
  0
INSERT
  5
1E17A
330
1E174
100
AcDbEntity
  8
0
  6
ByBlock
 62
     0
 48
50.0
100
AcDbBlockReference
  2
_DOTSMALL
 10
4031.753724076931
 20
6724.000000000005
 30
0.0
 41
125.0
 42
125.0
 43
125.0
 50
90.0
  0
INSERT
  5
1E17B
330
1E174
100
AcDbEntity
  8
0
  6
ByBlock
 62
     0
 48
50.0
100
AcDbBlockReference
  2
_DOTSMALL
 10
4031.753724076931
 20
6624.000000000002
 30
0.0
 41
125.0
 42
125.0
 43
125.0
 50
270.0
  0
MTEXT
  5
1E17C
330
1E174
100
AcDbEntity
  8
0
  6
ByBlock
 62
     7
 48
50.0
100
AcDbMText
 10
3931.75372407693
 20
6345.916456727114
 30
0.0
 40
150.0
 41
0.0
 71
     5
 72
     1
  1
\A1;100
  7
STYLE1
 11
0.0000000000000001
 21
1.0
 31
0.0
 73
     1
 44
1.0
1001
ACAD
1000
MTEXTBEGIN
1070
    73
1070
     1
1070
    44
1040
1.0
1070
    74
1070
     0
1000
MTEXTEND
  0
POINT
  5
1E17D
330
1E174
100
AcDbEntity
  8
DEFPOINTS
  6
ByBlock
 62
     0
 48
50.0
100
AcDbPoint
 10
3726.000000000001
 20
6724.000000000005
 30
0.0
  0
POINT
  5
1E17E
330
1E174
100
AcDbEntity
  8
DEFPOINTS
  6
ByBlock
 62
     0
 48
50.0
100
AcDbPoint
 10
3726.000000000002
 20
6624.000000000002
 30
0.0
  0
POINT
  5
1E17F
330
1E174
100
AcDbEntity
  8
DEFPOINTS
  6
ByBlock
 62
     0
 48
50.0
100
AcDbPoint
 10
4031.753724076931
 20
6624.000000000002
 30
0.0
  0
ENDBLK
  5
1E180
330
1E174
100
AcDbEntity
  8
0
 48
50.0
100
AcDbBlockEnd
  0
BLOCK
  5
1E182
330
1E181
100
AcDbEntity
  8
0
 48
50.0
100
AcDbBlockBegin
  2
*D9
 70
     1
 10
0.0
 20
0.0
 30
0.0
  3
*D9
  1

  0
LINE
  5
1E183
330
1E181
100
AcDbEntity
  8
0
  6
ByBlock
 62
     0
 48
50.0
100
AcDbLine
 10
3544.000000000006
 20
6822.000000000001
 30
0.0
 11
2925.057733986177
 21
6822.000000000001
 31
0.0
  0
LINE
  5
1E184
330
1E181
100
AcDbEntity
  8
0
  6
ByBlock
 62
     0
 48
50.0
100
AcDbLine
 10
3471.0
 20
6624.0
 30
0.0
 11
2925.057733986177
 21
6624.0
 31
0.0
  0
LINE
  5
1E185
330
1E181
100
AcDbEntity
  8
0
  6
ByBlock
 62
     0
 48
50.0
100
AcDbLine
 10
3000.057733986178
 20
6822.000000000001
 30
0.0
 11
3000.057733986178
 21
6624.0
 31
0.0
  0
LINE
  5
1E186
330
1E181
100
AcDbEntity
  8
0
  6
ByBlock
 62
     0
 48
50.0
100
AcDbLine
 10
3000.057733986178
 20
6624.0
 30
0.0
 11
3000.057733986178
 21
6143.206976370337
 31
0.0
  0
INSERT
  5
1E187
330
1E181
100
AcDbEntity
  8
0
  6
ByBlock
 62
     0
 48
50.0
100
AcDbBlockReference
  2
_DOTSMALL
 10
3000.057733986178
 20
6822.000000000001
 30
0.0
 41
125.0
 42
125.0
 43
125.0
 50
90.0
  0
INSERT
  5
1E188
330
1E181
100
AcDbEntity
  8
0
  6
ByBlock
 62
     0
 48
50.0
100
AcDbBlockReference
  2
_DOTSMALL
 10
3000.057733986178
 20
6624.0
 30
0.0
 41
125.0
 42
125.0
 43
125.0
 50
270.0
  0
MTEXT
  5
1E189
330
1E181
100
AcDbEntity
  8
0
  6
ByBlock
 62
     7
 48
50.0
100
AcDbMText
 10
2900.057733986177
 20
6288.469051157409
 30
0.0
 40
150.0
 41
0.0
 71
     5
 72
     1
  1
\A1;198
  7
STYLE1
 11
0.0000000000000001
 21
1.0
 31
0.0
 73
     1
 44
1.0
1001
ACAD
1000
MTEXTBEGIN
1070
    73
1070
     1
1070
    44
1040
1.0
1070
    74
1070
     0
1000
MTEXTEND
  0
POINT
  5
1E18A
330
1E181
100
AcDbEntity
  8
DEFPOINTS
  6
ByBlock
 62
     0
 48
50.0
100
AcDbPoint
 10
3569.000000000006
 20
6822.000000000001
 30
0.0
  0
POINT
  5
1E18B
330
1E181
100
AcDbEntity
  8
DEFPOINTS
  6
ByBlock
 62
     0
 48
50.0
100
AcDbPoint
 10
3496.0
 20
6624.0
 30
0.0
  0
POINT
  5
1E18C
330
1E181
100
AcDbEntity
  8
DEFPOINTS
  6
ByBlock
 62
     0
 48
50.0
100
AcDbPoint
 10
3000.057733986178
 20
6624.0
 30
0.0
  0
ENDBLK
  5
1E18D
330
1E181
100
AcDbEntity
  8
0
 48
50.0
100
AcDbBlockEnd
  0
BLOCK
  5
1E18F
330
1E18E
100
AcDbEntity
  8
0
 48
50.0
100
AcDbBlockBegin
  2
*D10
 70
     1
 10
0.0
 20
0.0
 30
0.0
  3
*D10
  1

  0
LINE
  5
1E190
330
1E18E
100
AcDbEntity
  8
0
  6
ByBlock
 62
     0
 48
50.0
100
AcDbLine
 10
3438.740228660987
 20
8755.206924300313
 30
0.0
 11
3438.740228660987
 21
9017.667619817155
 31
0.0
  0
LINE
  5
1E191
330
1E18E
100
AcDbEntity
  8
0
  6
ByBlock
 62
     0
 48
50.0
100
AcDbLine
 10
3496.0
 20
8029.0
 30
0.0
 11
3496.0
 21
9017.667619817155
 31
0.0
  0
LINE
  5
1E192
330
1E18E
100
AcDbEntity
  8
0
  6
ByBlock
 62
     0
 48
50.0
100
AcDbLine
 10
3496.0
 20
8942.667619817155
 30
0.0
 11
3438.740228660987
 21
8942.667619817155
 31
0.0
  0
LINE
  5
1E193
330
1E18E
100
AcDbEntity
  8
0
  6
ByBlock
 62
     0
 48
50.0
100
AcDbLine
 10
3438.740228660987
 20
8942.667619817155
 30
0.0
 11
3198.30367565484
 21
8942.667619817155
 31
0.0
  0
INSERT
  5
1E194
330
1E18E
100
AcDbEntity
  8
0
  6
ByBlock
 62
     0
 48
50.0
100
AcDbBlockReference
  2
_DOTSMALL
 10
3496.0
 20
8942.667619817155
 30
0.0
 41
125.0
 42
125.0
 43
125.0
  0
INSERT
  5
1E195
330
1E18E
100
AcDbEntity
  8
0
  6
ByBlock
 62
     0
 48
50.0
100
AcDbBlockReference
  2
_DOTSMALL
 10
3438.740228660987
 20
8942.667619817155
 30
0.0
 41
125.0
 42
125.0
 43
125.0
 50
180.0
  0
MTEXT
  5
1E196
330
1E18E
100
AcDbEntity
  8
0
  6
ByBlock
 62
     7
 48
50.0
100
AcDbMText
 10
3256.021952157913
 20
9042.667619817155
 30
0.0
 40
150.0
 41
0.0
 71
     5
 72
     1
  1
\A1;a
  7
STYLE1
 73
     1
 44
1.0
1001
ACAD
1000
MTEXTBEGIN
1070
    73
1070
     1
1070
    44
1040
1.0
1070
    74
1070
     0
1000
MTEXTEND
  0
POINT
  5
1E197
330
1E18E
100
AcDbEntity
  8
DEFPOINTS
  6
ByBlock
 62
     0
 48
50.0
100
AcDbPoint
 10
3438.740228660987
 20
8730.206924300313
 30
0.0
  0
POINT
  5
1E198
330
1E18E
100
AcDbEntity
  8
DEFPOINTS
  6
ByBlock
 62
     0
 48
50.0
100
AcDbPoint
 10
3496.0
 20
8004.0
 30
0.0
  0
POINT
  5
1E199
330
1E18E
100
AcDbEntity
  8
DEFPOINTS
  6
ByBlock
 62
     0
 48
50.0
100
AcDbPoint
 10
3496.0
 20
8942.667619817155
 30
0.0
  0
ENDBLK
  5
1E19A
330
1E18E
100
AcDbEntity
  8
0
 48
50.0
100
AcDbBlockEnd
  0
BLOCK
  5
1E19C
330
1E19B
100
AcDbEntity
  8
0
 48
50.0
100
AcDbBlockBegin
  2
*D11
 70
     1
 10
0.0
 20
0.0
 30
0.0
  3
*D11
  1

  0
LINE
  5
1E19D
330
1E19B
100
AcDbEntity
  8
0
  6
ByBlock
 62
     0
 48
50.0
100
AcDbLine
 10
3619.0
 20
7956.0
 30
0.0
 11
3619.0
 21
8805.206924300318
 31
0.0
  0
LINE
  5
1E19E
330
1E19B
100
AcDbEntity
  8
0
  6
ByBlock
 62
     0
 48
50.0
100
AcDbLine
 10
3496.0
 20
8029.0
 30
0.0
 11
3496.0
 21
8805.206924300318
 31
0.0
  0
LINE
  5
1E19F
330
1E19B
100
AcDbEntity
  8
0
  6
ByBlock
 62
     0
 48
50.0
100
AcDbLine
 10
3619.0
 20
8730.206924300317
 30
0.0
 11
3496.0
 21
8730.206924300317
 31
0.0
  0
LINE
  5
1E1A0
330
1E19B
100
AcDbEntity
  8
0
  6
ByBlock
 62
     0
 48
50.0
100
AcDbLine
 10
3496.0
 20
8730.206924300317
 30
0.0
 11
3067.527025225391
 21
8730.206924300317
 31
0.0
  0
INSERT
  5
1E1A1
330
1E19B
100
AcDbEntity
  8
0
  6
ByBlock
 62
     0
 48
50.0
100
AcDbBlockReference
  2
_DOTSMALL
 10
3619.0
 20
8730.206924300317
 30
0.0
 41
125.0
 42
125.0
 43
125.0
  0
INSERT
  5
1E1A2
330
1E19B
100
AcDbEntity
  8
0
  6
ByBlock
 62
     0
 48
50.0
100
AcDbBlockReference
  2
_DOTSMALL
 10
3496.0
 20
8730.206924300317
 30
0.0
 41
125.0
 42
125.0
 43
125.0
 50
180.0
  0
MTEXT
  5
1E1A3
330
1E19B
100
AcDbEntity
  8
0
  6
ByBlock
 62
     7
 48
50.0
100
AcDbMText
 10
3215.633626943189
 20
8830.221688079843
 30
0.0
 40
150.0
 41
0.0
 71
     5
 72
     1
  1
\A1;123
  7
STYLE1
 73
     1
 44
1.0
1001
ACAD
1000
MTEXTBEGIN
1070
    73
1070
     1
1070
    44
1040
1.0
1070
    74
1070
     0
1000
MTEXTEND
  0
POINT
  5
1E1A4
330
1E19B
100
AcDbEntity
  8
DEFPOINTS
  6
ByBlock
 62
     0
 48
50.0
100
AcDbPoint
 10
3619.0
 20
7931.0
 30
0.0
  0
POINT
  5
1E1A5
330
1E19B
100
AcDbEntity
  8
DEFPOINTS
  6
ByBlock
 62
     0
 48
50.0
100
AcDbPoint
 10
3496.0
 20
8004.0
 30
0.0
  0
POINT
  5
1E1A6
330
1E19B
100
AcDbEntity
  8
DEFPOINTS
  6
ByBlock
 62
     0
 48
50.0
100
AcDbPoint
 10
3496.0
 20
8730.206924300317
 30
0.0
  0
ENDBLK
  5
1E1A7
330
1E19B
100
AcDbEntity
  8
0
 48
50.0
100
AcDbBlockEnd
  0
BLOCK
  5
1E1A9
330
1E1A8
100
AcDbEntity
  8
0
 48
50.0
100
AcDbBlockBegin
  2
*D12
 70
     1
 10
0.0
 20
0.0
 30
0.0
  3
*D12
  1

  0
LINE
  5
1E1AA
330
1E1A8
100
AcDbEntity
  8
0
  6
ByBlock
 62
     0
 48
50.0
100
AcDbLine
 10
3544.0
 20
3881.0
 30
0.0
 11
2925.057733986178
 21
3881.0
 31
0.0
  0
LINE
  5
1E1AB
330
1E1A8
100
AcDbEntity
  8
0
  6
ByBlock
 62
     0
 48
50.0
100
AcDbLine
 10
3544.000000000006
 20
2402.000000000002
 30
0.0
 11
2925.057733986177
 21
2402.000000000002
 31
0.0
  0
LINE
  5
1E1AC
330
1E1A8
100
AcDbEntity
  8
0
  6
ByBlock
 62
     0
 48
50.0
100
AcDbLine
 10
3000.057733986178
 20
3881.0
 30
0.0
 11
3000.057733986178
 21
2402.000000000002
 31
0.0
  0
INSERT
  5
1E1AD
330
1E1A8
100
AcDbEntity
  8
0
  6
ByBlock
 62
     0
 48
50.0
100
AcDbBlockReference
  2
_DOTSMALL
 10
3000.057733986178
 20
3881.0
 30
0.0
 41
125.0
 42
125.0
 43
125.0
 50
90.0
  0
INSERT
  5
1E1AE
330
1E1A8
100
AcDbEntity
  8
0
  6
ByBlock
 62
     0
 48
50.0
100
AcDbBlockReference
  2
_DOTSMALL
 10
3000.057733986178
 20
2402.000000000002
 30
0.0
 41
125.0
 42
125.0
 43
125.0
 50
270.0
  0
MTEXT
  5
1E1AF
330
1E1A8
100
AcDbEntity
  8
0
  6
ByBlock
 62
     7
 48
50.0
100
AcDbMText
 10
2900.057733986177
 20
3104.0
 30
0.0
 40
150.0
 41
0.0
 71
     5
 72
     1
  1
\A1;1479
  7
STYLE1
 11
0.0000000000000001
 21
1.0
 31
0.0
 73
     1
 44
1.0
1001
ACAD
1000
MTEXTBEGIN
1070
    73
1070
     1
1070
    44
1040
1.0
1070
    74
1070
     0
1000
MTEXTEND
  0
POINT
  5
1E1B0
330
1E1A8
100
AcDbEntity
  8
DEFPOINTS
  6
ByBlock
 62
     0
 48
50.0
100
AcDbPoint
 10
3569.0
 20
3881.0
 30
0.0
  0
POINT
  5
1E1B1
330
1E1A8
100
AcDbEntity
  8
DEFPOINTS
  6
ByBlock
 62
     0
 48
50.0
100
AcDbPoint
 10
3569.000000000006
 20
2402.000000000002
 30
0.0
  0
POINT
  5
1E1B2
330
1E1A8
100
AcDbEntity
  8
DEFPOINTS
  6
ByBlock
 62
     0
 48
50.0
100
AcDbPoint
 10
3000.057733986178
 20
2402.000000000002
 30
0.0
  0
ENDBLK
  5
1E1B3
330
1E1A8
100
AcDbEntity
  8
0
 48
50.0
100
AcDbBlockEnd
  0
BLOCK
  5
1E1B5
330
1E1B4
100
AcDbEntity
  8
0
 48
50.0
100
AcDbBlockBegin
  2
*D13
 70
     1
 10
0.0
 20
0.0
 30
0.0
  3
*D13
  1

  0
LINE
  5
1E1B6
330
1E1B4
100
AcDbEntity
  8
0
  6
ByBlock
 62
     0
 48
50.0
100
AcDbLine
 10
3471.0
 20
8004.0
 30
0.0
 11
2925.057733986177
 21
8004.0
 31
0.0
  0
LINE
  5
1E1B7
330
1E1B4
100
AcDbEntity
  8
0
  6
ByBlock
 62
     0
 48
50.0
100
AcDbLine
 10
3544.0
 20
7881.0
 30
0.0
 11
2925.057733986177
 21
7881.0
 31
0.0
  0
LINE
  5
1E1B8
330
1E1B4
100
AcDbEntity
  8
0
  6
ByBlock
 62
     0
 48
50.0
100
AcDbLine
 10
3000.057733986178
 20
7881.0
 30
0.0
 11
3000.057733986178
 21
8004.0
 31
0.0
  0
LINE
  5
1E1B9
330
1E1B4
100
AcDbEntity
  8
0
  6
ByBlock
 62
     0
 48
50.0
100
AcDbLine
 10
3000.057733986178
 20
8004.0
 30
0.0
 11
3000.057733986178
 21
8425.213203435596
 31
0.0
  0
INSERT
  5
1E1BA
330
1E1B4
100
AcDbEntity
  8
0
  6
ByBlock
 62
     0
 48
50.0
100
AcDbBlockReference
  2
_DOTSMALL
 10
3000.057733986178
 20
7881.0
 30
0.0
 41
125.0
 42
125.0
 43
125.0
 50
270.0
  0
INSERT
  5
1E1BB
330
1E1B4
100
AcDbEntity
  8
0
  6
ByBlock
 62
     0
 48
50.0
100
AcDbBlockReference
  2
_DOTSMALL
 10
3000.057733986178
 20
8004.0
 30
0.0
 41
125.0
 42
125.0
 43
125.0
 50
90.0
  0
MTEXT
  5
1E1BC
330
1E1B4
100
AcDbEntity
  8
0
  6
ByBlock
 62
     7
 48
50.0
100
AcDbMText
 10
2900.04297020665
 20
8277.106601717798
 30
0.0
 40
150.0
 41
0.0
 71
     5
 72
     1
  1
\A1;123
  7
STYLE1
 11
0.0000000000000001
 21
1.0
 31
0.0
 73
     1
 44
1.0
1001
ACAD
1000
MTEXTBEGIN
1070
    73
1070
     1
1070
    44
1040
1.0
1070
    74
1070
     0
1000
MTEXTEND
  0
POINT
  5
1E1BD
330
1E1B4
100
AcDbEntity
  8
DEFPOINTS
  6
ByBlock
 62
     0
 48
50.0
100
AcDbPoint
 10
3496.0
 20
8004.0
 30
0.0
  0
POINT
  5
1E1BE
330
1E1B4
100
AcDbEntity
  8
DEFPOINTS
  6
ByBlock
 62
     0
 48
50.0
100
AcDbPoint
 10
3569.0
 20
7881.0
 30
0.0
  0
POINT
  5
1E1BF
330
1E1B4
100
AcDbEntity
  8
DEFPOINTS
  6
ByBlock
 62
     0
 48
50.0
100
AcDbPoint
 10
3000.057733986178
 20
7881.0
 30
0.0
  0
ENDBLK
  5
1E1C0
330
1E1B4
100
AcDbEntity
  8
0
 48
50.0
100
AcDbBlockEnd
  0
BLOCK
  5
1E1C2
330
1E1C1
100
AcDbEntity
  8
0
 48
50.0
100
AcDbBlockBegin
  2
*D14
 70
     1
 10
0.0
 20
0.0
 30
0.0
  3
*D14
  1

  0
LINE
  5
1E1C3
330
1E1C1
100
AcDbEntity
  8
0
  6
ByBlock
 62
     0
 48
50.0
100
AcDbLine
 10
3471.0
 20
6624.0
 30
0.0
 11
2679.56493184821
 21
6624.0
 31
0.0
  0
LINE
  5
1E1C4
330
1E1C1
100
AcDbEntity
  8
0
  6
ByBlock
 62
     0
 48
50.0
100
AcDbLine
 10
2975.057733986178
 20
6494.0
 30
0.0
 11
2679.56493184821
 21
6494.0
 31
0.0
  0
LINE
  5
1E1C5
330
1E1C1
100
AcDbEntity
  8
0
  6
ByBlock
 62
     0
 48
50.0
100
AcDbLine
 10
2754.56493184821
 20
6624.0
 30
0.0
 11
2754.56493184821
 21
6494.0
 31
0.0
  0
INSERT
  5
1E1C6
330
1E1C1
100
AcDbEntity
  8
0
  6
ByBlock
 62
     0
 48
50.0
100
AcDbBlockReference
  2
_DOTSMALL
 10
2754.56493184821
 20
6624.0
 30
0.0
 41
125.0
 42
125.0
 43
125.0
 50
90.0
  0
INSERT
  5
1E1C7
330
1E1C1
100
AcDbEntity
  8
0
  6
ByBlock
 62
     0
 48
50.0
100
AcDbBlockReference
  2
_DOTSMALL
 10
2754.56493184821
 20
6494.0
 30
0.0
 41
125.0
 42
125.0
 43
125.0
 50
270.0
  0
MTEXT
  5
1E1C8
330
1E1C1
100
AcDbEntity
  8
0
  6
ByBlock
 62
     7
 48
50.0
100
AcDbMText
 10
2654.56493184821
 20
6559.0
 30
0.0
 40
150.0
 41
0.0
 71
     5
 72
     1
  1
\A1;b
  7
STYLE1
 11
0.0000000000000001
 21
1.0
 31
0.0
 73
     1
 44
1.0
1001
ACAD
1000
MTEXTBEGIN
1070
    73
1070
     1
1070
    44
1040
1.0
1070
    74
1070
     0
1000
MTEXTEND
  0
POINT
  5
1E1C9
330
1E1C1
100
AcDbEntity
  8
DEFPOINTS
  6
ByBlock
 62
     0
 48
50.0
100
AcDbPoint
 10
3496.0
 20
6624.0
 30
0.0
  0
POINT
  5
1E1CA
330
1E1C1
100
AcDbEntity
  8
DEFPOINTS
  6
ByBlock
 62
     0
 48
50.0
100
AcDbPoint
 10
3000.057733986178
 20
6494.0
 30
0.0
  0
POINT
  5
1E1CB
330
1E1C1
100
AcDbEntity
  8
DEFPOINTS
  6
ByBlock
 62
     0
 48
50.0
100
AcDbPoint
 10
2754.56493184821
 20
6494.0
 30
0.0
  0
ENDBLK
  5
1E1CC
330
1E1C1
100
AcDbEntity
  8
0
 48
50.0
100
AcDbBlockEnd
  0
BLOCK
  5
1E1CE
330
1E1CD
100
AcDbEntity
  8
0
 48
50.0
100
AcDbBlockBegin
  2
*D15
 70
     1
 10
0.0
 20
0.0
 30
0.0
  3
*D15
  1

  0
LINE
  5
1E1CF
330
1E1CD
100
AcDbEntity
  8
0
  6
ByBlock
 62
     0
 48
50.0
100
AcDbLine
 10
3471.0
 20
2204.0
 30
0.0
 11
2679.56493184821
 21
2204.0
 31
0.0
  0
LINE
  5
1E1D0
330
1E1CD
100
AcDbEntity
  8
0
  6
ByBlock
 62
     0
 48
50.0
100
AcDbLine
 10
2754.564931848211
 20
4004.0
 30
0.0
 11
2754.56493184821
 21
2204.0
 31
0.0
  0
INSERT
  5
1E1D1
330
1E1CD
100
AcDbEntity
  8
0
  6
ByBlock
 62
     0
 48
50.0
100
AcDbBlockReference
  2
_DOTSMALL
 10
2754.564931848211
 20
4004.0
 30
0.0
 41
125.0
 42
125.0
 43
125.0
 50
90.0
  0
INSERT
  5
1E1D2
330
1E1CD
100
AcDbEntity
  8
0
  6
ByBlock
 62
     0
 48
50.0
100
AcDbBlockReference
  2
_DOTSMALL
 10
2754.56493184821
 20
2204.0
 30
0.0
 41
125.0
 42
125.0
 43
125.0
 50
270.0
  0
MTEXT
  5
1E1D3
330
1E1CD
100
AcDbEntity
  8
0
  6
ByBlock
 62
     7
 48
50.0
100
AcDbMText
 10
2654.56493184821
 20
3104.0
 30
0.0
 40
150.0
 41
0.0
 71
     5
 72
     1
  1
\A1;1800
  7
STYLE1
 11
0.0000000000000001
 21
1.0
 31
0.0
 73
     1
 44
1.0
1001
ACAD
1000
MTEXTBEGIN
1070
    73
1070
     1
1070
    44
1040
1.0
1070
    74
1070
     0
1000
MTEXTEND
  0
POINT
  5
1E1D4
330
1E1CD
100
AcDbEntity
  8
DEFPOINTS
  6
ByBlock
 62
     0
 48
50.0
100
AcDbPoint
 10
3496.0
 20
4004.0
 30
0.0
  0
POINT
  5
1E1D5
330
1E1CD
100
AcDbEntity
  8
DEFPOINTS
  6
ByBlock
 62
     0
 48
50.0
100
AcDbPoint
 10
3496.0
 20
2204.0
 30
0.0
  0
POINT
  5
1E1D6
330
1E1CD
100
AcDbEntity
  8
DEFPOINTS
  6
ByBlock
 62
     0
 48
50.0
100
AcDbPoint
 10
2754.56493184821
 20
2204.0
 30
0.0
  0
ENDBLK
  5
1E1D7
330
1E1CD
100
AcDbEntity
  8
0
 48
50.0
100
AcDbBlockEnd
  0
BLOCK
  5
1E1D9
330
1E1D8
100
AcDbEntity
  8
0
 48
50.0
100
AcDbBlockBegin
  2
*D16
 70
     1
 10
0.0
 20
0.0
 30
0.0
  3
*D16
  1

  0
LINE
  5
1E1DA
330
1E1D8
100
AcDbEntity
  8
0
  6
ByBlock
 62
     0
 48
50.0
100
AcDbLine
 10
2975.057733986178
 20
8093.999999999997
 30
0.0
 11
2679.56493184821
 21
8093.999999999997
 31
0.0
  0
LINE
  5
1E1DB
330
1E1D8
100
AcDbEntity
  8
0
  6
ByBlock
 62
     0
 48
50.0
100
AcDbLine
 10
3471.0
 20
8004.0
 30
0.0
 11
2679.56493184821
 21
8004.0
 31
0.0
  0
LINE
  5
1E1DC
330
1E1D8
100
AcDbEntity
  8
0
  6
ByBlock
 62
     0
 48
50.0
100
AcDbLine
 10
2754.56493184821
 20
8093.999999999997
 30
0.0
 11
2754.56493184821
 21
8218.999999999997
 31
0.0
  0
LINE
  5
1E1DD
330
1E1D8
100
AcDbEntity
  8
0
  6
ByBlock
 62
     0
 48
50.0
100
AcDbLine
 10
2754.56493184821
 20
8004.0
 30
0.0
 11
2754.56493184821
 21
7879.0
 31
0.0
  0
LINE
  5
1E1DE
330
1E1D8
100
AcDbEntity
  8
0
  6
ByBlock
 62
     0
 48
50.0
100
AcDbLine
 10
2754.56493184821
 20
8093.999999999997
 30
0.0
 11
2754.56493184821
 21
8004.0
 31
0.0
  0
INSERT
  5
1E1DF
330
1E1D8
100
AcDbEntity
  8
0
  6
ByBlock
 62
     0
 48
50.0
100
AcDbBlockReference
  2
_DOTSMALL
 10
2754.56493184821
 20
8093.999999999997
 30
0.0
 41
125.0
 42
125.0
 43
125.0
 50
270.0
  0
INSERT
  5
1E1E0
330
1E1D8
100
AcDbEntity
  8
0
  6
ByBlock
 62
     0
 48
50.0
100
AcDbBlockReference
  2
_DOTSMALL
 10
2754.56493184821
 20
8004.0
 30
0.0
 41
125.0
 42
125.0
 43
125.0
 50
90.0
  0
MTEXT
  5
1E1E1
330
1E1D8
100
AcDbEntity
  8
0
  6
ByBlock
 62
     7
 48
50.0
100
AcDbMText
 10
2654.56493184821
 20
8048.999999999997
 30
0.0
 40
150.0
 41
0.0
 71
     5
 72
     1
  1
\A1;c
  7
STYLE1
 11
0.0000000000000001
 21
1.0
 31
0.0
 73
     1
 44
1.0
1001
ACAD
1000
MTEXTBEGIN
1070
    73
1070
     1
1070
    44
1040
1.0
1070
    74
1070
     0
1000
MTEXTEND
  0
POINT
  5
1E1E2
330
1E1D8
100
AcDbEntity
  8
DEFPOINTS
  6
ByBlock
 62
     0
 48
50.0
100
AcDbPoint
 10
3000.057733986178
 20
8093.999999999997
 30
0.0
  0
POINT
  5
1E1E3
330
1E1D8
100
AcDbEntity
  8
DEFPOINTS
  6
ByBlock
 62
     0
 48
50.0
100
AcDbPoint
 10
3496.0
 20
8004.0
 30
0.0
  0
POINT
  5
1E1E4
330
1E1D8
100
AcDbEntity
  8
DEFPOINTS
  6
ByBlock
 62
     0
 48
50.0
100
AcDbPoint
 10
2754.56493184821
 20
8004.0
 30
0.0
  0
ENDBLK
  5
1E1E5
330
1E1D8
100
AcDbEntity
  8
0
 48
50.0
100
AcDbBlockEnd
  0
BLOCK
  5
1E1E7
330
1E1E6
100
AcDbEntity
  8
0
 48
50.0
100
AcDbBlockBegin
  2
*D17
 70
     1
 10
0.0
 20
0.0
 30
0.0
  3
*D17
  1

  0
LINE
  5
1E1E8
330
1E1E6
100
AcDbEntity
  8
0
  6
ByBlock
 62
     0
 48
50.0
100
AcDbLine
 10
5296.0
 20
8029.0
 30
0.0
 11
5296.0
 21
9017.667619817155
 31
0.0
  0
LINE
  5
1E1E9
330
1E1E6
100
AcDbEntity
  8
0
  6
ByBlock
 62
     0
 48
50.0
100
AcDbLine
 10
5338.740228660987
 20
8755.206924300319
 30
0.0
 11
5338.740228660987
 21
9017.667619817155
 31
0.0
  0
LINE
  5
1E1EA
330
1E1E6
100
AcDbEntity
  8
0
  6
ByBlock
 62
     0
 48
50.0
100
AcDbLine
 10
5296.0
 20
8942.667619817155
 30
0.0
 11
5171.0
 21
8942.667619817155
 31
0.0
  0
LINE
  5
1E1EB
330
1E1E6
100
AcDbEntity
  8
0
  6
ByBlock
 62
     0
 48
50.0
100
AcDbLine
 10
5338.740228660987
 20
8942.667619817155
 30
0.0
 11
5704.176781667134
 21
8942.667619817155
 31
0.0
  0
LINE
  5
1E1EC
330
1E1E6
100
AcDbEntity
  8
0
  6
ByBlock
 62
     0
 48
50.0
100
AcDbLine
 10
5296.0
 20
8942.667619817155
 30
0.0
 11
5338.740228660987
 21
8942.667619817155
 31
0.0
  0
INSERT
  5
1E1ED
330
1E1E6
100
AcDbEntity
  8
0
  6
ByBlock
 62
     0
 48
50.0
100
AcDbBlockReference
  2
_DOTSMALL
 10
5296.0
 20
8942.667619817155
 30
0.0
 41
125.0
 42
125.0
 43
125.0
  0
INSERT
  5
1E1EE
330
1E1E6
100
AcDbEntity
  8
0
  6
ByBlock
 62
     0
 48
50.0
100
AcDbBlockReference
  2
_DOTSMALL
 10
5338.740228660987
 20
8942.667619817155
 30
0.0
 41
125.0
 42
125.0
 43
125.0
 50
180.0
  0
MTEXT
  5
1E1EF
330
1E1E6
100
AcDbEntity
  8
0
  6
ByBlock
 62
     7
 48
50.0
100
AcDbMText
 10
5646.45850516406
 20
9042.667619817155
 30
0.0
 40
150.0
 41
0.0
 71
     5
 72
     1
  1
\A1;a
  7
STYLE1
 73
     1
 44
1.0
1001
ACAD
1000
MTEXTBEGIN
1070
    73
1070
     1
1070
    44
1040
1.0
1070
    74
1070
     0
1000
MTEXTEND
  0
POINT
  5
1E1F0
330
1E1E6
100
AcDbEntity
  8
DEFPOINTS
  6
ByBlock
 62
     0
 48
50.0
100
AcDbPoint
 10
5296.0
 20
8004.0
 30
0.0
  0
POINT
  5
1E1F1
330
1E1E6
100
AcDbEntity
  8
DEFPOINTS
  6
ByBlock
 62
     0
 48
50.0
100
AcDbPoint
 10
5338.740228660987
 20
8730.206924300318
 30
0.0
  0
POINT
  5
1E1F2
330
1E1E6
100
AcDbEntity
  8
DEFPOINTS
  6
ByBlock
 62
     0
 48
50.0
100
AcDbPoint
 10
5338.740228660987
 20
8942.667619817155
 30
0.0
  0
ENDBLK
  5
1E1F3
330
1E1E6
100
AcDbEntity
  8
0
 48
50.0
100
AcDbBlockEnd
  0
BLOCK
  5
1E1F5
330
1E1F4
100
AcDbEntity
  8
0
 48
50.0
100
AcDbBlockBegin
  2
*D18
 70
     1
 10
0.0
 20
0.0
 30
0.0
  3
*D18
  1

  0
LINE
  5
1E1F6
330
1E1F4
100
AcDbEntity
  8
0
  6
ByBlock
 62
     0
 48
50.0
100
AcDbLine
 10
5296.0
 20
8029.0
 30
0.0
 11
5296.0
 21
8805.206924300318
 31
0.0
  0
LINE
  5
1E1F7
330
1E1F4
100
AcDbEntity
  8
0
  6
ByBlock
 62
     0
 48
50.0
100
AcDbLine
 10
5173.0
 20
7956.0
 30
0.0
 11
5173.0
 21
8805.206924300318
 31
0.0
  0
LINE
  5
1E1F8
330
1E1F4
100
AcDbEntity
  8
0
  6
ByBlock
 62
     0
 48
50.0
100
AcDbLine
 10
5173.0
 20
8730.206924300317
 30
0.0
 11
5296.0
 21
8730.206924300317
 31
0.0
  0
LINE
  5
1E1F9
330
1E1F4
100
AcDbEntity
  8
0
  6
ByBlock
 62
     0
 48
50.0
100
AcDbLine
 10
5296.0
 20
8730.206924300317
 30
0.0
 11
5717.213203435597
 21
8730.206924300317
 31
0.0
  0
INSERT
  5
1E1FA
330
1E1F4
100
AcDbEntity
  8
0
  6
ByBlock
 62
     0
 48
50.0
100
AcDbBlockReference
  2
_DOTSMALL
 10
5173.0
 20
8730.206924300317
 30
0.0
 41
125.0
 42
125.0
 43
125.0
 50
180.0
  0
INSERT
  5
1E1FB
330
1E1F4
100
AcDbEntity
  8
0
  6
ByBlock
 62
     0
 48
50.0
100
AcDbBlockReference
  2
_DOTSMALL
 10
5296.0
 20
8730.206924300317
 30
0.0
 41
125.0
 42
125.0
 43
125.0
  0
MTEXT
  5
1E1FC
330
1E1F4
100
AcDbEntity
  8
0
  6
ByBlock
 62
     7
 48
50.0
100
AcDbMText
 10
5569.106601717798
 20
8830.221688079843
 30
0.0
 40
150.0
 41
0.0
 71
     5
 72
     1
  1
\A1;123
  7
STYLE1
 73
     1
 44
1.0
1001
ACAD
1000
MTEXTBEGIN
1070
    73
1070
     1
1070
    44
1040
1.0
1070
    74
1070
     0
1000
MTEXTEND
  0
POINT
  5
1E1FD
330
1E1F4
100
AcDbEntity
  8
DEFPOINTS
  6
ByBlock
 62
     0
 48
50.0
100
AcDbPoint
 10
5296.0
 20
8004.0
 30
0.0
  0
POINT
  5
1E1FE
330
1E1F4
100
AcDbEntity
  8
DEFPOINTS
  6
ByBlock
 62
     0
 48
50.0
100
AcDbPoint
 10
5173.0
 20
7931.0
 30
0.0
  0
POINT
  5
1E1FF
330
1E1F4
100
AcDbEntity
  8
DEFPOINTS
  6
ByBlock
 62
     0
 48
50.0
100
AcDbPoint
 10
5173.0
 20
8730.206924300317
 30
0.0
  0
ENDBLK
  5
1E200
330
1E1F4
100
AcDbEntity
  8
0
 48
50.0
100
AcDbBlockEnd
  0
BLOCK
  5
1E202
330
1E201
100
AcDbEntity
  8
0
 48
50.0
100
AcDbBlockBegin
  2
*D19
 70
     1
 10
0.0
 20
0.0
 30
0.0
  3
*D19
  1

  0
LINE
  5
1E203
330
1E201
100
AcDbEntity
  8
0
  6
ByBlock
 62
     0
 48
50.0
100
AcDbLine
 10
4765.91864628953
 20
8004.0
 30
0.0
 11
5028.847448568776
 21
8004.0
 31
0.0
  0
LINE
  5
1E204
330
1E201
100
AcDbEntity
  8
0
  6
ByBlock
 62
     0
 48
50.0
100
AcDbLine
 10
4765.91864628953
 20
7903.999999999998
 30
0.0
 11
5028.847448568776
 21
7903.999999999998
 31
0.0
  0
LINE
  5
1E205
330
1E201
100
AcDbEntity
  8
0
  6
ByBlock
 62
     0
 48
50.0
100
AcDbLine
 10
4953.847448568776
 20
7903.999999999998
 30
0.0
 11
4953.847448568776
 21
8004.0
 31
0.0
  0
LINE
  5
1E206
330
1E201
100
AcDbEntity
  8
0
  6
ByBlock
 62
     0
 48
50.0
100
AcDbLine
 10
4953.847448568776
 20
8004.0
 30
0.0
 11
4953.847448568776
 21
8419.118110236221
 31
0.0
  0
INSERT
  5
1E207
330
1E201
100
AcDbEntity
  8
0
  6
ByBlock
 62
     0
 48
50.0
100
AcDbBlockReference
  2
_DOTSMALL
 10
4953.847448568776
 20
7903.999999999998
 30
0.0
 41
125.0
 42
125.0
 43
125.0
 50
270.0
  0
INSERT
  5
1E208
330
1E201
100
AcDbEntity
  8
0
  6
ByBlock
 62
     0
 48
50.0
100
AcDbBlockReference
  2
_DOTSMALL
 10
4953.847448568776
 20
8004.0
 30
0.0
 41
125.0
 42
125.0
 43
125.0
 50
90.0
  0
MTEXT
  5
1E209
330
1E201
100
AcDbEntity
  8
0
  6
ByBlock
 62
     7
 48
50.0
100
AcDbMText
 10
4853.847448568776
 20
8274.05905511811
 30
0.0
 40
150.0
 41
0.0
 71
     5
 72
     1
  1
\A1;100
  7
STYLE1
 11
0.0000000000000001
 21
1.0
 31
0.0
 73
     1
 44
1.0
1001
ACAD
1000
MTEXTBEGIN
1070
    73
1070
     1
1070
    44
1040
1.0
1070
    74
1070
     0
1000
MTEXTEND
  0
POINT
  5
1E20A
330
1E201
100
AcDbEntity
  8
DEFPOINTS
  6
ByBlock
 62
     0
 48
50.0
100
AcDbPoint
 10
4740.91864628953
 20
8004.0
 30
0.0
  0
POINT
  5
1E20B
330
1E201
100
AcDbEntity
  8
DEFPOINTS
  6
ByBlock
 62
     0
 48
50.0
100
AcDbPoint
 10
4740.91864628953
 20
7903.999999999998
 30
0.0
  0
POINT
  5
1E20C
330
1E201
100
AcDbEntity
  8
DEFPOINTS
  6
ByBlock
 62
     0
 48
50.0
100
AcDbPoint
 10
4953.847448568776
 20
7903.999999999998
 30
0.0
  0
ENDBLK
  5
1E20D
330
1E201
100
AcDbEntity
  8
0
 48
50.0
100
AcDbBlockEnd
  0
BLOCK
  5
1E20F
330
1E20E
100
AcDbEntity
  8
0
 48
50.0
100
AcDbBlockBegin
  2
*D20
 70
     1
 10
0.0
 20
0.0
 30
0.0
  3
*D20
  1

  0
LINE
  5
1E210
330
1E20E
100
AcDbEntity
  8
0
  6
ByBlock
 62
     0
 48
50.0
100
AcDbLine
 10
3796.000000000001
 20
2529.000000000007
 30
0.0
 11
3796.000000000001
 21
2931.6104948313
 31
0.0
  0
LINE
  5
1E211
330
1E20E
100
AcDbEntity
  8
0
  6
ByBlock
 62
     0
 48
50.0
100
AcDbLine
 10
3595.999999999998
 20
2529.000000000004
 30
0.0
 11
3595.999999999998
 21
2931.6104948313
 31
0.0
  0
LINE
  5
1E212
330
1E20E
100
AcDbEntity
  8
0
  6
ByBlock
 62
     0
 48
50.0
100
AcDbLine
 10
3796.000000000001
 20
2856.610494831301
 30
0.0
 11
3595.999999999998
 21
2856.610494831301
 31
0.0
  0
LINE
  5
1E213
330
1E20E
100
AcDbEntity
  8
0
  6
ByBlock
 62
     0
 48
50.0
100
AcDbLine
 10
3595.999999999998
 20
2856.610494831301
 30
0.0
 11
3122.996254565651
 21
2856.610494831301
 31
0.0
  0
INSERT
  5
1E214
330
1E20E
100
AcDbEntity
  8
0
  6
ByBlock
 62
     0
 48
50.0
100
AcDbBlockReference
  2
_DOTSMALL
 10
3796.000000000001
 20
2856.610494831301
 30
0.0
 41
125.0
 42
125.0
 43
125.0
  0
INSERT
  5
1E215
330
1E20E
100
AcDbEntity
  8
0
  6
ByBlock
 62
     0
 48
50.0
100
AcDbBlockReference
  2
_DOTSMALL
 10
3595.999999999998
 20
2856.610494831301
 30
0.0
 41
125.0
 42
125.0
 43
125.0
 50
180.0
  0
MTEXT
  5
1E216
330
1E20E
100
AcDbEntity
  8
0
  6
ByBlock
 62
     7
 48
50.0
100
AcDbMText
 10
3284.959837242816
 20
2956.625258610828
 30
0.0
 40
150.0
 41
0.0
 71
     5
 72
     1
  1
\A1;200
  7
STYLE1
 73
     1
 44
1.0
1001
ACAD
1000
MTEXTBEGIN
1070
    73
1070
     1
1070
    44
1040
1.0
1070
    74
1070
     0
1000
MTEXTEND
  0
POINT
  5
1E217
330
1E20E
100
AcDbEntity
  8
DEFPOINTS
  6
ByBlock
 62
     0
 48
50.0
100
AcDbPoint
 10
3796.000000000001
 20
2504.000000000007
 30
0.0
  0
POINT
  5
1E218
330
1E20E
100
AcDbEntity
  8
DEFPOINTS
  6
ByBlock
 62
     0
 48
50.0
100
AcDbPoint
 10
3595.999999999998
 20
2504.000000000004
 30
0.0
  0
POINT
  5
1E219
330
1E20E
100
AcDbEntity
  8
DEFPOINTS
  6
ByBlock
 62
     0
 48
50.0
100
AcDbPoint
 10
3595.999999999998
 20
2856.610494831301
 30
0.0
  0
ENDBLK
  5
1E21A
330
1E20E
100
AcDbEntity
  8
0
 48
50.0
100
AcDbBlockEnd
  0
BLOCK
  5
1E21C
330
1E21B
100
AcDbEntity
  8
0
 48
50.0
100
AcDbBlockBegin
  2
*D21
 70
     1
 10
0.0
 20
0.0
 30
0.0
  3
*D21
  1

  0
LINE
  5
1E21D
330
1E21B
100
AcDbEntity
  8
0
  6
ByBlock
 62
     0
 48
50.0
100
AcDbLine
 10
4421.0
 20
2204.000000000009
 30
0.0
 11
4870.266817430558
 21
2204.000000000009
 31
0.0
  0
LINE
  5
1E21E
330
1E21B
100
AcDbEntity
  8
0
  6
ByBlock
 62
     0
 48
50.0
100
AcDbLine
 10
4471.0
 20
3104.0
 30
0.0
 11
4870.266817430558
 21
3104.0
 31
0.0
  0
LINE
  5
1E21F
330
1E21B
100
AcDbEntity
  8
0
  6
ByBlock
 62
     0
 48
50.0
100
AcDbLine
 10
4795.266817430558
 20
2204.000000000009
 30
0.0
 11
4795.266817430558
 21
3104.0
 31
0.0
  0
INSERT
  5
1E220
330
1E21B
100
AcDbEntity
  8
0
  6
ByBlock
 62
     0
 48
50.0
100
AcDbBlockReference
  2
_DOTSMALL
 10
4795.266817430558
 20
2204.000000000009
 30
0.0
 41
125.0
 42
125.0
 43
125.0
 50
270.0
  0
INSERT
  5
1E221
330
1E21B
100
AcDbEntity
  8
0
  6
ByBlock
 62
     0
 48
50.0
100
AcDbBlockReference
  2
_DOTSMALL
 10
4795.266817430558
 20
3104.0
 30
0.0
 41
125.0
 42
125.0
 43
125.0
 50
90.0
  0
MTEXT
  5
1E222
330
1E21B
100
AcDbEntity
  8
0
  6
ByBlock
 62
     7
 48
50.0
100
AcDbMText
 10
4695.266817430558
 20
2654.000000000005
 30
0.0
 40
150.0
 41
0.0
 71
     5
 72
     1
  1
\A1;900
  7
STYLE1
 11
0.0000000000000001
 21
1.0
 31
0.0
 73
     1
 44
1.0
1001
ACAD
1000
MTEXTBEGIN
1070
    73
1070
     1
1070
    44
1040
1.0
1070
    74
1070
     0
1000
MTEXTEND
  0
POINT
  5
1E223
330
1E21B
100
AcDbEntity
  8
DEFPOINTS
  6
ByBlock
 62
     0
 48
50.0
100
AcDbPoint
 10
4396.0
 20
2204.000000000009
 30
0.0
  0
POINT
  5
1E224
330
1E21B
100
AcDbEntity
  8
DEFPOINTS
  6
ByBlock
 62
     0
 48
50.0
100
AcDbPoint
 10
4446.0
 20
3104.0
 30
0.0
  0
POINT
  5
1E225
330
1E21B
100
AcDbEntity
  8
DEFPOINTS
  6
ByBlock
 62
     0
 48
50.0
100
AcDbPoint
 10
4795.266817430558
 20
3104.0
 30
0.0
  0
ENDBLK
  5
1E226
330
1E21B
100
AcDbEntity
  8
0
 48
50.0
100
AcDbBlockEnd
  0
BLOCK
  5
1E228
330
1E227
100
AcDbEntity
  8
0
 48
50.0
100
AcDbBlockBegin
  2
*D22
 70
     1
 10
0.0
 20
0.0
 30
0.0
  3
*D22
  1

  0
LINE
  5
1E229
330
1E227
100
AcDbEntity
  8
0
  6
ByBlock
 62
     0
 48
50.0
100
AcDbLine
 10
4421.0
 20
4004.0
 30
0.0
 11
4870.266817430558
 21
4004.0
 31
0.0
  0
LINE
  5
1E22A
330
1E227
100
AcDbEntity
  8
0
  6
ByBlock
 62
     0
 48
50.0
100
AcDbLine
 10
4795.266817430558
 20
3104.0
 30
0.0
 11
4795.266817430558
 21
4004.0
 31
0.0
  0
INSERT
  5
1E22B
330
1E227
100
AcDbEntity
  8
0
  6
ByBlock
 62
     0
 48
50.0
100
AcDbBlockReference
  2
_DOTSMALL
 10
4795.266817430558
 20
3104.0
 30
0.0
 41
125.0
 42
125.0
 43
125.0
 50
270.0
  0
INSERT
  5
1E22C
330
1E227
100
AcDbEntity
  8
0
  6
ByBlock
 62
     0
 48
50.0
100
AcDbBlockReference
  2
_DOTSMALL
 10
4795.266817430558
 20
4004.0
 30
0.0
 41
125.0
 42
125.0
 43
125.0
 50
90.0
  0
MTEXT
  5
1E22D
330
1E227
100
AcDbEntity
  8
0
  6
ByBlock
 62
     7
 48
50.0
100
AcDbMText
 10
4695.266817430558
 20
3554.0
 30
0.0
 40
150.0
 41
0.0
 71
     5
 72
     1
  1
\A1;900
  7
STYLE1
 11
0.0000000000000001
 21
1.0
 31
0.0
 73
     1
 44
1.0
1001
ACAD
1000
MTEXTBEGIN
1070
    73
1070
     1
1070
    44
1040
1.0
1070
    74
1070
     0
1000
MTEXTEND
  0
POINT
  5
1E22E
330
1E227
100
AcDbEntity
  8
DEFPOINTS
  6
ByBlock
 62
     0
 48
50.0
100
AcDbPoint
 10
4446.0
 20
3104.0
 30
0.0
  0
POINT
  5
1E22F
330
1E227
100
AcDbEntity
  8
DEFPOINTS
  6
ByBlock
 62
     0
 48
50.0
100
AcDbPoint
 10
4396.0
 20
4004.0
 30
0.0
  0
POINT
  5
1E230
330
1E227
100
AcDbEntity
  8
DEFPOINTS
  6
ByBlock
 62
     0
 48
50.0
100
AcDbPoint
 10
4795.266817430558
 20
4004.0
 30
0.0
  0
ENDBLK
  5
1E231
330
1E227
100
AcDbEntity
  8
0
 48
50.0
100
AcDbBlockEnd
  0
BLOCK
  5
1E233
330
1E232
100
AcDbEntity
  8
0
 48
50.0
100
AcDbBlockBegin
  2
*D23
 70
     1
 10
0.0
 20
0.0
 30
0.0
  3
*D23
  1

  0
LINE
  5
1E234
330
1E232
100
AcDbEntity
  8
0
  6
ByBlock
 62
     0
 48
50.0
100
AcDbLine
 10
3496.0
 20
4029.0
 30
0.0
 11
3496.0
 21
4605.909765648328
 31
0.0
  0
LINE
  5
1E235
330
1E232
100
AcDbEntity
  8
0
  6
ByBlock
 62
     0
 48
50.0
100
AcDbLine
 10
4396.0
 20
4530.909765648328
 30
0.0
 11
3496.0
 21
4530.909765648328
 31
0.0
  0
INSERT
  5
1E236
330
1E232
100
AcDbEntity
  8
0
  6
ByBlock
 62
     0
 48
50.0
100
AcDbBlockReference
  2
_DOTSMALL
 10
4396.0
 20
4530.909765648328
 30
0.0
 41
125.0
 42
125.0
 43
125.0
  0
INSERT
  5
1E237
330
1E232
100
AcDbEntity
  8
0
  6
ByBlock
 62
     0
 48
50.0
100
AcDbBlockReference
  2
_DOTSMALL
 10
3496.0
 20
4530.909765648328
 30
0.0
 41
125.0
 42
125.0
 43
125.0
 50
180.0
  0
MTEXT
  5
1E238
330
1E232
100
AcDbEntity
  8
0
  6
ByBlock
 62
     7
 48
50.0
100
AcDbMText
 10
3946.0
 20
4630.909765648328
 30
0.0
 40
150.0
 41
0.0
 71
     5
 72
     1
  1
\A1;900
  7
STYLE1
 73
     1
 44
1.0
1001
ACAD
1000
MTEXTBEGIN
1070
    73
1070
     1
1070
    44
1040
1.0
1070
    74
1070
     0
1000
MTEXTEND
  0
POINT
  5
1E239
330
1E232
100
AcDbEntity
  8
DEFPOINTS
  6
ByBlock
 62
     0
 48
50.0
100
AcDbPoint
 10
4396.0
 20
3304.0
 30
0.0
  0
POINT
  5
1E23A
330
1E232
100
AcDbEntity
  8
DEFPOINTS
  6
ByBlock
 62
     0
 48
50.0
100
AcDbPoint
 10
3496.0
 20
4004.0
 30
0.0
  0
POINT
  5
1E23B
330
1E232
100
AcDbEntity
  8
DEFPOINTS
  6
ByBlock
 62
     0
 48
50.0
100
AcDbPoint
 10
3496.0
 20
4530.909765648328
 30
0.0
  0
ENDBLK
  5
1E23C
330
1E232
100
AcDbEntity
  8
0
 48
50.0
100
AcDbBlockEnd
  0
BLOCK
  5
1E23E
330
1E23D
100
AcDbEntity
  8
0
 48
50.0
100
AcDbBlockBegin
  2
*D24
 70
     1
 10
0.0
 20
0.0
 30
0.0
  3
*D24
  1

  0
LINE
  5
1E23F
330
1E23D
100
AcDbEntity
  8
0
  6
ByBlock
 62
     0
 48
50.0
100
AcDbLine
 10
5296.0
 20
4029.0
 30
0.0
 11
5296.0
 21
4605.909765648328
 31
0.0
  0
LINE
  5
1E240
330
1E23D
100
AcDbEntity
  8
0
  6
ByBlock
 62
     0
 48
50.0
100
AcDbLine
 10
4396.0
 20
3329.0
 30
0.0
 11
4396.0
 21
4605.909765648328
 31
0.0
  0
LINE
  5
1E241
330
1E23D
100
AcDbEntity
  8
0
  6
ByBlock
 62
     0
 48
50.0
100
AcDbLine
 10
5296.0
 20
4530.909765648328
 30
0.0
 11
4396.0
 21
4530.909765648328
 31
0.0
  0
INSERT
  5
1E242
330
1E23D
100
AcDbEntity
  8
0
  6
ByBlock
 62
     0
 48
50.0
100
AcDbBlockReference
  2
_DOTSMALL
 10
5296.0
 20
4530.909765648328
 30
0.0
 41
125.0
 42
125.0
 43
125.0
  0
INSERT
  5
1E243
330
1E23D
100
AcDbEntity
  8
0
  6
ByBlock
 62
     0
 48
50.0
100
AcDbBlockReference
  2
_DOTSMALL
 10
4396.0
 20
4530.909765648328
 30
0.0
 41
125.0
 42
125.0
 43
125.0
 50
180.0
  0
MTEXT
  5
1E244
330
1E23D
100
AcDbEntity
  8
0
  6
ByBlock
 62
     7
 48
50.0
100
AcDbMText
 10
4866.91852200628
 20
4630.909765648328
 30
0.0
 40
150.0
 41
0.0
 71
     5
 72
     1
  1
\A1;900
  7
STYLE1
 73
     1
 44
1.0
1001
ACAD
1000
MTEXTBEGIN
1070
    73
1070
     1
1070
    44
1040
1.0
1070
    74
1070
     0
1000
MTEXTEND
  0
POINT
  5
1E245
330
1E23D
100
AcDbEntity
  8
DEFPOINTS
  6
ByBlock
 62
     0
 48
50.0
100
AcDbPoint
 10
5296.0
 20
4004.0
 30
0.0
  0
POINT
  5
1E246
330
1E23D
100
AcDbEntity
  8
DEFPOINTS
  6
ByBlock
 62
     0
 48
50.0
100
AcDbPoint
 10
4396.0
 20
3304.0
 30
0.0
  0
POINT
  5
1E247
330
1E23D
100
AcDbEntity
  8
DEFPOINTS
  6
ByBlock
 62
     0
 48
50.0
100
AcDbPoint
 10
4396.0
 20
4530.909765648328
 30
0.0
  0
ENDBLK
  5
1E248
330
1E23D
100
AcDbEntity
  8
0
 48
50.0
100
AcDbBlockEnd
  0
BLOCK
  5
1E24A
330
1E249
100
AcDbEntity
  8
0
 48
50.0
100
AcDbBlockBegin
  2
*D25
 70
     1
 10
0.0
 20
0.0
 30
0.0
  3
*D25
  1

  0
LINE
  5
1E24B
330
1E249
100
AcDbEntity
  8
0
  6
ByBlock
 62
     0
 48
50.0
100
AcDbLine
 10
5196.0
 20
7079.000000000007
 30
0.0
 11
5196.0
 21
6928.700321064884
 31
0.0
  0
LINE
  5
1E24C
330
1E249
100
AcDbEntity
  8
0
  6
ByBlock
 62
     0
 48
50.0
100
AcDbLine
 10
5296.0
 20
7079.000000000007
 30
0.0
 11
5296.0
 21
6928.700321064884
 31
0.0
  0
LINE
  5
1E24D
330
1E249
100
AcDbEntity
  8
0
  6
ByBlock
 62
     0
 48
50.0
100
AcDbLine
 10
5196.0
 20
7003.700321064883
 30
0.0
 11
5296.0
 21
7003.700321064883
 31
0.0
  0
LINE
  5
1E24E
330
1E249
100
AcDbEntity
  8
0
  6
ByBlock
 62
     0
 48
50.0
100
AcDbLine
 10
5296.0
 20
7003.700321064883
 30
0.0
 11
5711.11811023622
 21
7003.700321064883
 31
0.0
  0
INSERT
  5
1E24F
330
1E249
100
AcDbEntity
  8
0
  6
ByBlock
 62
     0
 48
50.0
100
AcDbBlockReference
  2
_DOTSMALL
 10
5196.0
 20
7003.700321064883
 30
0.0
 41
125.0
 42
125.0
 43
125.0
 50
180.0
  0
INSERT
  5
1E250
330
1E249
100
AcDbEntity
  8
0
  6
ByBlock
 62
     0
 48
50.0
100
AcDbBlockReference
  2
_DOTSMALL
 10
5296.0
 20
7003.700321064883
 30
0.0
 41
125.0
 42
125.0
 43
125.0
  0
MTEXT
  5
1E251
330
1E249
100
AcDbEntity
  8
0
  6
ByBlock
 62
     7
 48
50.0
100
AcDbMText
 10
5566.05905511811
 20
7103.700321064883
 30
0.0
 40
150.0
 41
0.0
 71
     5
 72
     1
  1
\A1;100
  7
STYLE1
 73
     1
 44
1.0
1001
ACAD
1000
MTEXTBEGIN
1070
    73
1070
     1
1070
    44
1040
1.0
1070
    74
1070
     0
1000
MTEXTEND
  0
POINT
  5
1E252
330
1E249
100
AcDbEntity
  8
DEFPOINTS
  6
ByBlock
 62
     0
 48
50.0
100
AcDbPoint
 10
5196.0
 20
7104.000000000008
 30
0.0
  0
POINT
  5
1E253
330
1E249
100
AcDbEntity
  8
DEFPOINTS
  6
ByBlock
 62
     0
 48
50.0
100
AcDbPoint
 10
5296.0
 20
7104.000000000008
 30
0.0
  0
POINT
  5
1E254
330
1E249
100
AcDbEntity
  8
DEFPOINTS
  6
ByBlock
 62
     0
 48
50.0
100
AcDbPoint
 10
5296.0
 20
7003.700321064883
 30
0.0
  0
ENDBLK
  5
1E255
330
1E249
100
AcDbEntity
  8
0
 48
50.0
100
AcDbBlockEnd
  0
BLOCK
  5
1E2A5
330
1E256
100
AcDbEntity
  8
0
 48
50.0
100
AcDbBlockBegin
  2
A$C56A41A26
 70
     0
 10
0.0
 20
0.0
 30
0.0
  3
A$C56A41A26
  1

  0
LINE
  5
1E257
330
1E256
100
AcDbEntity
  8
部品1
 48
50.0
100
AcDbLine
 10
2708.994140400603
 20
2627.271234847374
 30
0.0
 11
908.9941404006022
 21
2627.271234847374
 31
0.0
  0
LINE
  5
1E258
330
1E256
100
AcDbEntity
  8
部品1
 48
50.0
100
AcDbLine
 10
2708.994140400602
 20
2727.271234847376
 30
0.0
 11
908.9941404006022
 21
2727.271234847376
 31
0.0
  0
LINE
  5
1E259
330
1E256
100
AcDbEntity
  8
想像線
 48
10.0
100
AcDbLine
 10
858.9941404005985
 20
2817.271234847376
 30
0.0
 11
2758.994140400606
 21
2817.27123484738
 31
0.0
  0
LINE
  5
1E25A
330
1E256
100
AcDbEntity
  8
想像線
 48
10.0
100
AcDbLine
 10
2758.994140400603
 20
797.2712348473724
 30
0.0
 11
858.9941404006022
 21
797.271234847376
 31
0.0
  0
LINE
  5
1E25B
330
1E256
100
AcDbEntity
  8
部品1
 48
50.0
100
AcDbLine
 10
2708.994140400602
 20
927.2712348473943
 30
0.0
 11
908.9941404006022
 21
927.271234847376
 31
0.0
  0
DIMENSION
  5
1E25C
330
1E256
100
AcDbEntity
  8
寸法
 48
50.0
100
AcDbDimension
  2
*D8
 10
1444.747864477533
 20
927.2712348473778
 30
0.0
 11
1444.747864477533
 21
649.1876915744906
 31
0.0
 12
-2587.005859599398
 22
-5696.728765152624
 32
0.0
 70
   128
 71
     5
 42
-1.0
  3
INABA_S50G
100
AcDbAlignedDimension
 13
1138.994140400603
 23
1027.271234847381
 33
0.0
 14
1138.994140400604
 24
927.2712348473778
 34
0.0
 50
90.0
100
AcDbRotatedDimension
1001
ACAD
1000
DSTYLE
1002
{
1070
   288
1070
     1
1070
    40
1040
1.0
1002
}
  0
LINE
  5
1E25D
330
1E256
100
AcDbEntity
  8
部品1
 48
50.0
100
AcDbLine
 10
2708.994140400603
 20
1027.271234847398
 30
0.0
 11
908.9941404006022
 21
1027.27123484738
 31
0.0
  0
DIMENSION
  5
1E25E
330
1E256
100
AcDbEntity
  8
寸法
 48
50.0
100
AcDbDimension
  2
*D7
 10
1444.747864477533
 20
1227.271234847383
 30
0.0
 11
1444.747864477533
 21
1514.234817524549
 31
0.0
 12
-2587.005859599398
 22
-1276.728765152624
 32
0.0
 70
   128
 71
     5
 42
-1.0
  3
INABA_S50G
100
AcDbAlignedDimension
 13
1138.994140400603
 23
1027.27123484738
 33
0.0
 14
1208.994140400603
 24
1227.271234847383
 34
0.0
 50
90.0
100
AcDbRotatedDimension
1001
ACAD
1000
DSTYLE
1002
{
1070
   288
1070
     1
1070
    40
1040
1.0
1002
}
  0
MTEXT
  5
1E25F
102
{ACAD_REACTORS
330
1E260
102
}
330
1E256
100
AcDbEntity
  8
寸法
 62
     7
 48
50.0
100
AcDbMText
 10
1566.166025099446
 20
2207.190649171135
 30
0.0
 40
150.0
 41
0.0
 71
     6
 72
     1
  1
\A1;C.B
  7
STYLE1
 73
     1
 44
1.0
1001
ACAD
1000
MTEXTBEGIN
1070
    73
1070
     1
1070
    44
1040
1.0
1070
    74
1070
     0
1000
MTEXTEND
  0
LEADER
  5
1E260
330
1E256
100
AcDbEntity
  8
寸法
 48
50.0
100
AcDbLeader
  3
INABA_S50G
 73
     0
 75
     1
 40
150.0
 41
231.9898538650463
 76
     3
 10
1759.920575772113
 20
1978.037610834701
 30
0.0
 10
1716.166025099446
 20
2107.190649171135
 30
0.0
 10
1591.166025099446
 20
2107.190649171135
 30
0.0
340
1E25F
1001
ACAD
1000
DSTYLE
1002
{
1070
    40
1040
1.0
1002
}
  0
DIMENSION
  5
1E261
330
1E256
100
AcDbEntity
  8
寸法
 48
50.0
100
AcDbDimension
  2
*D6
 10
1031.994140400602
 20
3453.478159147693
 30
0.0
 11
1808.994140400602
 21
3553.478159147693
 31
0.0
 12
-2587.005859599398
 22
-5276.728765152624
 32
0.0
 71
     5
 42
-1.0
  3
INABA_S50G
100
AcDbAlignedDimension
 13
2585.994140400603
 23
2654.271234847376
 33
0.0
 14
1031.994140400602
 24
2654.271234847376
 34
0.0
100
AcDbRotatedDimension
1001
ACAD
1000
DSTYLE
1002
{
1070
    40
1040
1.0
1070
    75
1070
     1
1070
   279
1070
     1
1002
}
  0
DIMENSION
  5
1E262
330
1E256
100
AcDbEntity
  8
寸法
 48
50.0
100
AcDbDimension
  2
*D5
 10
2708.994140400602
 20
3665.93885466453
 30
0.0
 11
1808.994140400602
 21
3765.93885466453
 31
0.0
 12
-2587.005859599398
 22
-5276.728765152624
 32
0.0
 71
     5
 42
-1.0
  3
INABA_S50G
100
AcDbAlignedDimension
 13
908.9941404006022
 23
2727.271234847376
 33
0.0
 14
2708.994140400602
 24
2727.271234847376
 34
0.0
100
AcDbRotatedDimension
1001
ACAD
1000
DSTYLE
1002
{
1070
    40
1040
1.0
1070
    75
1070
     1
1070
   279
1070
     1
1002
}
  0
DIMENSION
  5
1E263
330
1E256
100
AcDbEntity
  8
寸法
 48
50.0
100
AcDbDimension
  2
*D23
 10
908.9941404006022
 20
3254.181000495704
 30
0.0
 11
1358.994140400602
 21
3354.181000495704
 31
0.0
 12
-2587.005859599398
 22
-1276.728765152624
 32
0.0
 71
     5
 42
-1.0
  3
INABA_S50G
100
AcDbAlignedDimension
 13
1808.994140400602
 23
2027.271234847376
 33
0.0
 14
908.9941404006022
 24
2727.271234847376
 34
0.0
100
AcDbRotatedDimension
1001
ACAD
1000
DSTYLE
1002
{
1070
    40
1040
1.0
1070
    75
1070
     1
1070
   279
1070
     1
1070
   288
1070
     1
1002
}
  0
DIMENSION
  5
1E264
330
1E256
100
AcDbEntity
  8
寸法
 48
50.0
100
AcDbDimension
  2
*D20
 10
1008.9941404006
 20
1579.881729678676
 30
0.0
 11
697.9539776434176
 21
1579.881729678676
 31
0.0
 12
-2587.005859599398
 22
-1276.728765152624
 32
0.0
 70
   128
 71
     5
 42
-1.0
  3
INABA_S50G
100
AcDbAlignedDimension
 13
1208.994140400603
 23
1227.271234847383
 33
0.0
 14
1008.9941404006
 24
1227.271234847379
 34
0.0
100
AcDbRotatedDimension
1001
ACAD
1000
DSTYLE
1002
{
1070
    40
1040
1.0
1002
}
  0
LINE
  5
1E265
330
1E256
100
AcDbEntity
  8
部品1
 48
50.0
100
AcDbLine
 10
1008.994140400602
 20
1027.27123484738
 30
0.0
 11
1008.994140400602
 21
2627.271234847373
 31
0.0
  0
DIMENSION
  5
1E266
330
1E256
100
AcDbEntity
  8
寸法
 48
50.0
100
AcDbDimension
  2
*D12
 10
413.0518743867797
 20
1125.271234847378
 30
0.0
 11
413.0518743867797
 21
1827.271234847376
 31
0.0
 12
-2587.005859599398
 22
-1276.728765152624
 32
0.0
 70
   128
 71
     5
 42
-1.0
  3
INABA_S50G
100
AcDbAlignedDimension
 13
981.9941404006021
 23
2604.271234847376
 33
0.0
 14
981.9941404006085
 24
1125.271234847378
 34
0.0
 50
90.0
100
AcDbRotatedDimension
1001
ACAD
1000
DSTYLE
1002
{
1070
   288
1070
     1
1070
    40
1040
1.0
1002
}
  0
DIMENSION
  5
1E267
330
1E256
100
AcDbEntity
  8
寸法
 48
50.0
100
AcDbDimension
  2
*D15
 10
167.5590722488123
 20
927.271234847376
 30
0.0
 11
67.5590722488123
 21
1827.271234847376
 31
0.0
 12
-2587.005859599398
 22
-1276.728765152624
 32
0.0
 71
     5
 42
-1.0
  3
INABA_S50G
100
AcDbAlignedDimension
 13
908.9941404006022
 23
2727.271234847376
 33
0.0
 14
908.9941404006022
 24
927.271234847376
 34
0.0
 50
90.0
100
AcDbRotatedDimension
1001
ACAD
1000
DSTYLE
1002
{
1070
    40
1040
1.0
1070
    75
1070
     1
1070
   279
1070
     1
1002
}
  0
LINE
  5
1E268
330
1E256
100
AcDbEntity
  8
想像線
 48
10.0
100
AcDbLine
 10
858.9941404006022
 20
797.271234847376
 30
0.0
 11
858.9941404006022
 21
2817.27123484738
 31
0.0
  0
LINE
  5
1E269
330
1E256
100
AcDbEntity
  8
部品1
 48
50.0
100
AcDbLine
 10
908.9941404006022
 20
927.271234847376
 30
0.0
 11
908.9941404006022
 21
2727.271234847376
 31
0.0
  0
DIMENSION
  5
1E26A
330
1E256
100
AcDbEntity
  8
寸法
 48
50.0
100
AcDbDimension
  2
*D14
 10
167.5590722488123
 20
797.271234847376
 30
0.0
 11
67.5590722488123
 21
1282.271234847376
 31
0.0
 12
-2587.005859599398
 22
-5696.728765152624
 32
0.0
  1
b
 71
     5
 42
-1.0
  3
INABA_S50G
100
AcDbAlignedDimension
 13
908.9941404006022
 23
927.271234847376
 33
0.0
 14
413.0518743867797
 24
797.271234847376
 34
0.0
 50
90.0
100
AcDbRotatedDimension
1001
ACAD
1000
DSTYLE
1002
{
1070
    40
1040
1.0
1002
}
  0
DIMENSION
  5
1E26B
330
1E256
100
AcDbEntity
  8
寸法
 48
50.0
100
AcDbDimension
  2
*D9
 10
413.0518743867797
 20
927.271234847376
 30
0.0
 11
413.0518743867797
 21
591.7402860047841
 31
0.0
 12
-2587.005859599398
 22
-5696.728765152624
 32
0.0
 70
   128
 71
     5
 42
-1.0
  3
INABA_S50G
100
AcDbAlignedDimension
 13
981.9941404006085
 23
1125.271234847378
 33
0.0
 14
908.9941404006022
 24
927.271234847376
 34
0.0
 50
90.0
100
AcDbRotatedDimension
1001
ACAD
1000
DSTYLE
1002
{
1070
    40
1040
1.0
1002
}
  0
LINE
  5
1E26C
330
1E256
100
AcDbEntity
  8
部品1
 48
50.0
100
AcDbLine
 10
1008.994140400602
 20
1427.27123484738
 30
0.0
 11
908.9941404006022
 21
1427.27123484738
 31
0.0
  0
LINE
  5
1E26D
330
1E256
100
AcDbEntity
  8
点線
 48
10.0
100
AcDbLine
 10
1208.994140400603
 20
1027.27123484738
 30
0.0
 11
1208.994140400603
 21
1227.271234847383
 31
0.0
  0
LINE
  5
1E26E
330
1E256
100
AcDbEntity
  8
センター
 48
2.0
100
AcDbLine
 10
981.9941404006085
 20
1125.271234847378
 30
0.0
 11
1081.994140400608
 21
1125.271234847378
 31
0.0
  0
LINE
  5
1E26F
330
1E256
100
AcDbEntity
  8
センター
 48
2.0
100
AcDbLine
 10
1031.994140400608
 20
1175.271234847378
 30
0.0
 11
1031.994140400608
 21
1075.271234847378
 31
0.0
  0
LINE
  5
1E270
330
1E256
100
AcDbEntity
  8
部品1
 48
50.0
100
AcDbLine
 10
1308.994140400602
 20
927.271234847376
 30
0.0
 11
1308.994140400602
 21
1027.271234847383
 31
0.0
  0
LINE
  5
1E271
330
1E256
100
AcDbEntity
  8
点線
 48
10.0
100
AcDbLine
 10
1208.994140400603
 20
1227.271234847383
 30
0.0
 11
1008.9941404006
 21
1227.271234847379
 31
0.0
  0
LINE
  5
1E272
330
1E256
100
AcDbEntity
  8
部品1
 48
50.0
100
AcDbLine
 10
1308.994140400602
 20
2627.271234847374
 30
0.0
 11
1308.994140400602
 21
2727.271234847382
 31
0.0
  0
DIMENSION
  5
1E273
330
1E256
100
AcDbEntity
  8
寸法
 48
50.0
100
AcDbDimension
  2
*D13
 10
413.0518743867797
 20
2604.271234847376
 30
0.0
 11
413.0518743867797
 21
3000.377836565175
 31
0.0
 12
-2587.005859599398
 22
-5276.728765152624
 32
0.0
 70
   128
 71
     5
 42
-1.0
  3
INABA_S50G
100
AcDbAlignedDimension
 13
908.9941404006022
 23
2727.271234847376
 33
0.0
 14
981.9941404006021
 24
2604.271234847376
 34
0.0
 50
90.0
100
AcDbRotatedDimension
1001
ACAD
1000
DSTYLE
1002
{
1070
    40
1040
1.0
1002
}
  0
DIMENSION
  5
1E274
330
1E256
100
AcDbEntity
  8
寸法
 48
50.0
100
AcDbDimension
  2
*D16
 10
167.5590722488123
 20
2727.271234847376
 30
0.0
 11
67.5590722488123
 21
2772.271234847374
 31
0.0
 12
-2587.005859599398
 22
-5276.728765152624
 32
0.0
  1
c
 71
     5
 42
-1.0
  3
INABA_S50G
100
AcDbAlignedDimension
 13
413.0518743867797
 23
2817.271234847373
 33
0.0
 14
908.9941404006022
 24
2727.271234847376
 34
0.0
 50
90.0
100
AcDbRotatedDimension
1001
ACAD
1000
DSTYLE
1002
{
1070
    40
1040
1.0
1002
}
  0
DIMENSION
  5
1E275
330
1E256
100
AcDbEntity
  8
寸法
 48
50.0
100
AcDbDimension
  2
*D11
 10
908.9941404006022
 20
3453.478159147693
 30
0.0
 11
628.6277673437908
 21
3453.478159147693
 31
0.0
 12
-2587.005859599398
 22
-5276.728765152624
 32
0.0
 70
   128
 71
     5
 42
-1.0
  3
INABA_S50G
100
AcDbAlignedDimension
 13
1031.994140400602
 23
2654.271234847376
 33
0.0
 14
908.9941404006022
 24
2727.271234847376
 34
0.0
100
AcDbRotatedDimension
1001
ACAD
1000
DSTYLE
1002
{
1070
    40
1040
1.0
1002
}
  0
LINE
  5
1E276
330
1E256
100
AcDbEntity
  8
部品1
 48
50.0
100
AcDbLine
 10
1008.994140400602
 20
1827.271234847379
 30
0.0
 11
908.9941404006022
 21
1827.271234847379
 31
0.0
  0
LINE
  5
1E277
330
1E256
100
AcDbEntity
  8
部品1
 48
50.0
100
AcDbLine
 10
1008.994140400602
 20
2227.271234847375
 30
0.0
 11
908.9941404006022
 21
2227.271234847374
 31
0.0
  0
LINE
  5
1E278
330
1E256
100
AcDbEntity
  8
点線
 48
10.0
100
AcDbLine
 10
1208.994140400601
 20
2427.271234847373
 30
0.0
 11
1008.994140400602
 21
2427.271234847375
 31
0.0
  0
LINE
  5
1E279
330
1E256
100
AcDbEntity
  8
センター
 48
2.0
100
AcDbLine
 10
1031.994140400602
 20
2654.271234847376
 30
0.0
 11
1031.994140400602
 21
2554.271234847376
 31
0.0
  0
LINE
  5
1E27A
330
1E256
100
AcDbEntity
  8
センター
 48
2.0
100
AcDbLine
 10
981.9941404006021
 20
2604.271234847376
 30
0.0
 11
1081.994140400602
 21
2604.271234847376
 31
0.0
  0
LINE
  5
1E27B
330
1E256
100
AcDbEntity
  8
点線
 48
10.0
100
AcDbLine
 10
1208.994140400601
 20
2427.271234847373
 30
0.0
 11
1208.994140400602
 21
2627.271234847373
 31
0.0
  0
DIMENSION
  5
1E27C
330
1E256
100
AcDbEntity
  8
寸法
 48
50.0
100
AcDbDimension
  2
*D10
 10
908.9941404006022
 20
3665.938854664532
 30
0.0
 11
669.0160925585151
 21
3665.938854664532
 31
0.0
 12
-2587.005859599398
 22
-5276.728765152624
 32
0.0
 70
   128
  1
a
 71
     5
 42
-1.0
  3
INABA_S50G
100
AcDbAlignedDimension
 13
851.734369061589
 23
3453.478159147689
 33
0.0
 14
908.9941404006022
 24
2727.271234847376
 34
0.0
100
AcDbRotatedDimension
1001
ACAD
1000
DSTYLE
1002
{
1070
    40
1040
1.0
1002
}
  0
LINE
  5
1E27D
330
1E256
100
AcDbEntity
  8
部品1
 48
50.0
100
AcDbLine
 10
1312.994140400602
 20
2727.271234847373
 30
0.0
 11
908.9941404006022
 21
2727.271234847376
 31
0.0
  0
LINE
  5
1E27E
330
1E256
100
AcDbEntity
  8
部品1
 48
50.0
100
AcDbLine
 10
2608.994140400602
 20
1027.271234847396
 30
0.0
 11
2608.994140400601
 21
2627.271234847373
 31
0.0
  0
LINE
  5
1E27F
330
1E256
100
AcDbEntity
  8
想像線
 48
10.0
100
AcDbLine
 10
2758.994140400603
 20
2817.27123484738
 30
0.0
 11
2758.994140400606
 21
797.271234847376
 31
0.0
  0
LINE
  5
1E280
330
1E256
100
AcDbEntity
  8
部品1
 48
50.0
100
AcDbLine
 10
2708.994140400602
 20
927.2712348473943
 30
0.0
 11
2708.994140400602
 21
2727.271234847376
 31
0.0
  0
DIMENSION
  5
1E281
330
1E256
100
AcDbEntity
  8
寸法
 48
50.0
100
AcDbDimension
  2
*D21
 10
2208.260957831161
 20
1827.271234847376
 30
0.0
 11
2208.260957831161
 21
1377.271234847381
 31
0.0
 12
-2587.005859599398
 22
-1276.728765152624
 32
0.0
 70
   128
 71
     5
 42
-1.0
  3
INABA_S50G
100
AcDbAlignedDimension
 13
1808.994140400602
 23
927.271234847385
 33
0.0
 14
1858.994140400602
 24
1827.271234847376
 34
0.0
 50
90.0
100
AcDbRotatedDimension
1001
ACAD
1000
DSTYLE
1002
{
1070
   288
1070
     1
1070
    40
1040
1.0
1002
}
  0
DIMENSION
  5
1E282
330
1E256
100
AcDbEntity
  8
寸法
 48
50.0
100
AcDbDimension
  2
*D25
 10
2708.994140400602
 20
1306.97155591226
 30
0.0
 11
2979.053195518713
 21
1306.97155591226
 31
0.0
 12
-2587.005859599398
 22
-5696.728765152624
 32
0.0
 70
   128
 71
     5
 42
-1.0
  3
INABA_S50G
100
AcDbAlignedDimension
 13
2608.994140400602
 23
1407.271234847383
 33
0.0
 14
2708.994140400602
 24
1407.271234847383
 34
0.0
100
AcDbRotatedDimension
1001
ACAD
1000
DSTYLE
1002
{
1070
    40
1040
1.0
1002
}
  0
TEXT
  5
1E283
330
1E256
100
AcDbEntity
  8
寸法
 48
50.0
100
AcDbText
 10
1431.428391756737
 20
210.9080740941899
 30
0.0
 40
150.0
  1
MBW-32
  7
STYLE2
100
AcDbText
  0
TEXT
  5
1E284
330
1E256
100
AcDbEntity
  8
寸法
 48
50.0
100
AcDbText
 10
1431.428391756737
 20
40.90807409418994
 30
0.0
 40
150.0
  1
MBW-32H
  7
STYLE2
100
AcDbText
  0
TEXT
  5
1E285
330
1E256
100
AcDbEntity
  8
寸法
 48
50.0
100
AcDbText
 10
1679.121083237383
 20
648.2218646227884
 30
0.0
 40
120.0
  1
扉面
  7
STYLE1
100
AcDbText
  0
LINE
  5
1E286
330
1E256
100
AcDbEntity
  8
部品1
 48
50.0
100
AcDbLine
 10
1908.994140400602
 20
1127.27123484739
 30
0.0
 11
1708.994140400602
 21
1127.271234847389
 31
0.0
  0
LINE
  5
1E287
330
1E256
100
AcDbEntity
  8
部品1
 48
50.0
100
AcDbLine
 10
1708.994140400602
 20
1127.271234847389
 30
0.0
 11
1708.994140400602
 21
1027.271234847389
 31
0.0
  0
LINE
  5
1E288
330
1E256
100
AcDbEntity
  8
部品1
 48
50.0
100
AcDbLine
 10
1708.994140400602
 20
927.2712348473797
 30
0.0
 11
1708.994140400602
 21
1027.271234847387
 31
0.0
  0
LINE
  5
1E289
330
1E256
100
AcDbEntity
  8
部品1
 48
50.0
100
AcDbLine
 10
1908.994140400602
 20
1127.271234847389
 30
0.0
 11
1908.994140400602
 21
1027.271234847389
 31
0.0
  0
LINE
  5
1E28A
330
1E256
100
AcDbEntity
  8
部品1
 48
50.0
100
AcDbLine
 10
2108.994140400602
 20
927.271234847376
 30
0.0
 11
2108.994140400602
 21
1027.271234847383
 31
0.0
  0
LINE
  5
1E28B
330
1E256
100
AcDbEntity
  8
センター
 48
2.0
100
AcDbLine
 10
2535.994140400609
 20
1125.271234847378
 30
0.0
 11
2635.994140400609
 21
1125.271234847378
 31
0.0
  0
LINE
  5
1E28C
330
1E256
100
AcDbEntity
  8
点線
 48
10.0
100
AcDbLine
 10
2608.9941404006
 20
1227.271234847396
 30
0.0
 11
2408.994140400601
 21
1227.271234847394
 31
0.0
  0
LINE
  5
1E28D
330
1E256
100
AcDbEntity
  8
点線
 48
10.0
100
AcDbLine
 10
2408.994140400603
 20
1027.271234847396
 30
0.0
 11
2408.994140400601
 21
1227.271234847394
 31
0.0
  0
LINE
  5
1E28E
330
1E256
100
AcDbEntity
  8
部品1
 48
50.0
100
AcDbLine
 10
2308.994140400602
 20
927.2712348473943
 30
0.0
 11
2308.994140400602
 21
1027.27123484739
 31
0.0
  0
LINE
  5
1E28F
330
1E256
100
AcDbEntity
  8
センター
 48
2.0
100
AcDbLine
 10
2585.994140400609
 20
1175.271234847378
 30
0.0
 11
2585.994140400609
 21
1075.271234847378
 31
0.0
  0
LINE
  5
1E290
330
1E256
100
AcDbEntity
  8
部品1
 48
50.0
100
AcDbLine
 10
2708.994140400603
 20
1427.271234847398
 30
0.0
 11
2608.994140400601
 21
1427.271234847396
 31
0.0
  0
DIMENSION
  5
1E291
330
1E256
100
AcDbEntity
  8
寸法
 48
50.0
100
AcDbDimension
  2
*D18
 10
2585.994140400603
 20
3453.478159147693
 30
0.0
 11
2982.100742118401
 21
3453.478159147693
 31
0.0
 12
-2587.005859599398
 22
-5276.728765152624
 32
0.0
 70
   128
 71
     5
 42
-1.0
  3
INABA_S50G
100
AcDbAlignedDimension
 13
2708.994140400602
 23
2727.271234847376
 33
0.0
 14
2585.994140400603
 24
2654.271234847376
 34
0.0
100
AcDbRotatedDimension
1001
ACAD
1000
DSTYLE
1002
{
1070
    40
1040
1.0
1002
}
  0
DIMENSION
  5
1E292
330
1E256
100
AcDbEntity
  8
寸法
 48
50.0
100
AcDbDimension
  2
*D17
 10
2751.734369061589
 20
3665.938854664532
 30
0.0
 11
3059.452645564663
 21
3665.938854664532
 31
0.0
 12
-2587.005859599398
 22
-5276.728765152624
 32
0.0
 70
   128
  1
a
 71
     5
 42
-1.0
  3
INABA_S50G
100
AcDbAlignedDimension
 13
2708.994140400602
 23
2727.271234847376
 33
0.0
 14
2751.734369061589
 24
3453.478159147695
 34
0.0
100
AcDbRotatedDimension
1001
ACAD
1000
DSTYLE
1002
{
1070
    40
1040
1.0
1002
}
  0
LINE
  5
1E293
330
1E256
100
AcDbEntity
  8
部品1
 48
50.0
100
AcDbLine
 10
2308.994140400602
 20
2627.271234847392
 30
0.0
 11
2308.994140400602
 21
2727.271234847389
 31
0.0
  0
LINE
  5
1E294
330
1E256
100
AcDbEntity
  8
部品1
 48
50.0
100
AcDbLine
 10
2108.994140400602
 20
2627.271234847374
 30
0.0
 11
2108.994140400602
 21
2727.271234847382
 31
0.0
  0
LINE
  5
1E295
330
1E256
100
AcDbEntity
  8
部品1
 48
50.0
100
AcDbLine
 10
1708.994140400602
 20
2627.271234847378
 30
0.0
 11
1708.994140400602
 21
2727.271234847385
 31
0.0
  0
DIMENSION
  5
1E296
330
1E256
100
AcDbEntity
  8
寸法
 48
50.0
100
AcDbDimension
  2
*D19
 10
2366.841588969379
 20
2627.271234847374
 30
0.0
 11
2366.841588969379
 21
2997.330289965487
 31
0.0
 12
-2587.005859599398
 22
-5276.728765152624
 32
0.0
 70
   128
 71
     5
 42
-1.0
  3
INABA_S50G
100
AcDbAlignedDimension
 13
2153.912786690133
 23
2727.271234847376
 33
0.0
 14
2153.912786690133
 24
2627.271234847374
 34
0.0
 50
90.0
100
AcDbRotatedDimension
1001
ACAD
1000
DSTYLE
1002
{
1070
    40
1040
1.0
1002
}
  0
DIMENSION
  5
1E297
330
1E256
100
AcDbEntity
  8
寸法
 48
50.0
100
AcDbDimension
  2
*D22
 10
2208.260957831161
 20
2727.271234847376
 30
0.0
 11
2108.260957831161
 21
2277.271234847376
 31
0.0
 12
-2587.005859599398
 22
-1276.728765152624
 32
0.0
 71
     5
 42
-1.0
  3
INABA_S50G
100
AcDbAlignedDimension
 13
1858.994140400602
 23
1827.271234847376
 33
0.0
 14
1808.994140400602
 24
2727.271234847376
 34
0.0
 50
90.0
100
AcDbRotatedDimension
1001
ACAD
1000
DSTYLE
1002
{
1070
    40
1040
1.0
1070
    75
1070
     1
1070
   279
1070
     1
1070
   288
1070
     1
1002
}
  0
DIMENSION
  5
1E298
330
1E256
100
AcDbEntity
  8
寸法
 48
50.0
100
AcDbDimension
  2
*D24
 10
1808.994140400602
 20
3254.181000495704
 30
0.0
 11
2279.912662406881
 21
3254.181000495704
 31
0.0
 12
-2587.005859599398
 22
-1276.728765152624
 32
0.0
 70
   128
 71
     5
 42
-1.0
  3
INABA_S50G
100
AcDbAlignedDimension
 13
2708.994140400602
 23
2727.271234847376
 33
0.0
 14
1808.994140400602
 24
2027.271234847376
 34
0.0
100
AcDbRotatedDimension
1001
ACAD
1000
DSTYLE
1002
{
1070
   288
1070
     1
1070
    40
1040
1.0
1002
}
  0
LINE
  5
1E299
330
1E256
100
AcDbEntity
  8
部品1
 48
50.0
100
AcDbLine
 10
1908.994140400602
 20
2027.271234847376
 30
0.0
 11
1708.994140400602
 21
2027.271234847376
 31
0.0
  0
LINE
  5
1E29A
330
1E256
100
AcDbEntity
  8
部品1
 48
50.0
100
AcDbLine
 10
1908.994140400602
 20
1627.271234847374
 30
0.0
 11
1708.994140400602
 21
1627.271234847374
 31
0.0
  0
LINE
  5
1E29B
330
1E256
100
AcDbEntity
  8
センター
 48
2.0
100
AcDbLine
 10
1758.994140400602
 20
1827.271234847376
 30
0.0
 11
1858.994140400602
 21
1827.271234847376
 31
0.0
  0
LINE
  5
1E29C
330
1E256
100
AcDbEntity
  8
部品1
 48
50.0
100
AcDbLine
 10
1708.994140400602
 20
1627.271234847376
 30
0.0
 11
1708.994140400602
 21
2027.271234847376
 31
0.0
  0
LINE
  5
1E29D
330
1E256
100
AcDbEntity
  8
部品1
 48
50.0
100
AcDbLine
 10
1908.994140400602
 20
1627.271234847374
 30
0.0
 11
1908.994140400602
 21
2027.271234847376
 31
0.0
  0
LINE
  5
1E29E
330
1E256
100
AcDbEntity
  8
センター
 48
2.0
100
AcDbLine
 10
1808.994140400602
 20
1877.271234847376
 30
0.0
 11
1808.994140400602
 21
1777.271234847376
 31
0.0
  0
LINE
  5
1E29F
330
1E256
100
AcDbEntity
  8
部品1
 48
50.0
100
AcDbLine
 10
2708.994140400603
 20
1827.271234847398
 30
0.0
 11
2608.994140400601
 21
1827.271234847396
 31
0.0
  0
LINE
  5
1E2A0
330
1E256
100
AcDbEntity
  8
点線
 48
10.0
100
AcDbLine
 10
2608.994140400601
 20
2427.271234847375
 30
0.0
 11
2408.994140400603
 21
2427.271234847375
 31
0.0
  0
LINE
  5
1E2A1
330
1E256
100
AcDbEntity
  8
センター
 48
2.0
100
AcDbLine
 10
2535.994140400602
 20
2604.271234847376
 30
0.0
 11
2635.994140400602
 21
2604.271234847376
 31
0.0
  0
LINE
  5
1E2A2
330
1E256
100
AcDbEntity
  8
点線
 48
10.0
100
AcDbLine
 10
2408.994140400603
 20
2427.271234847375
 30
0.0
 11
2408.994140400601
 21
2627.271234847373
 31
0.0
  0
LINE
  5
1E2A3
330
1E256
100
AcDbEntity
  8
部品1
 48
50.0
100
AcDbLine
 10
2708.994140400603
 20
2227.271234847374
 30
0.0
 11
2608.994140400602
 21
2227.271234847374
 31
0.0
  0
LINE
  5
1E2A4
330
1E256
100
AcDbEntity
  8
センター
 48
2.0
100
AcDbLine
 10
2585.994140400603
 20
2654.271234847376
 30
0.0
 11
2585.994140400603
 21
2554.271234847376
 31
0.0
  0
ENDBLK
  5
1E2A6
330
1E256
100
AcDbEntity
  8
0
 48
50.0
100
AcDbBlockEnd
  0
BLOCK
  5
1E908
330
1E8FE
100
AcDbEntity
  8
0
 48
50.0
100
AcDbBlockBegin
  2
*D27
 70
     1
 10
0.0
 20
0.0
 30
0.0
  3
*D27
  1

  0
LINE
  5
1FF37
330
1E8FE
100
AcDbEntity
  8
寸法
 62
     0
 48
50.0
370
    -2
100
AcDbLine
 10
8638.600000000002
 20
7732.000000000003
 30
0.0
 11
8638.600000000002
 21
8280.624237135963
 31
0.0
  0
LINE
  5
1FF38
330
1E8FE
100
AcDbEntity
  8
寸法
 62
     0
 48
50.0
370
    -2
100
AcDbLine
 10
9539.599999999998
 20
7732.0
 30
0.0
 11
9539.599999999998
 21
8280.624237135963
 31
0.0
  0
LINE
  5
1FF39
330
1E8FE
100
AcDbEntity
  8
寸法
 62
     0
 48
50.0
370
    -2
100
AcDbLine
 10
8638.600000000002
 20
8220.624237135963
 30
0.0
 11
9539.599999999998
 21
8220.624237135963
 31
0.0
  0
INSERT
  5
1FF3A
330
1E8FE
100
AcDbEntity
  8
寸法
 62
     0
 48
50.0
370
    -2
100
AcDbBlockReference
  2
_DOTSMALL
 10
8638.600000000002
 20
8220.624237135963
 30
0.0
 41
100.0
 42
100.0
 43
100.0
 50
180.0
  0
INSERT
  5
1FF3B
330
1E8FE
100
AcDbEntity
  8
寸法
 62
     0
 48
50.0
370
    -2
100
AcDbBlockReference
  2
_DOTSMALL
 10
9539.599999999998
 20
8220.624237135963
 30
0.0
 41
100.0
 42
100.0
 43
100.0
  0
MTEXT
  5
1FF3C
330
1E8FE
100
AcDbEntity
  8
寸法
 62
     7
 48
50.0
100
AcDbMText
 10
9089.1
 20
8320.624237135962
 30
0.0
 40
120.0
 41
0.0
 71
     5
 72
     1
  1
\A1;901
  7
STYLE1
 73
     1
 44
1.0
1001
ACAD
1000
MTEXTBEGIN
1070
    73
1070
     1
1070
    44
1040
1.0
1070
    74
1070
     0
1000
MTEXTEND
  0
POINT
  5
1FF3D
330
1E8FE
100
AcDbEntity
  8
DEFPOINTS
 62
     0
 48
50.0
100
AcDbPoint
 10
8638.600000000002
 20
7712.000000000003
 30
0.0
  0
POINT
  5
1FF3E
330
1E8FE
100
AcDbEntity
  8
DEFPOINTS
 62
     0
 48
50.0
100
AcDbPoint
 10
9539.599999999998
 20
7712.0
 30
0.0
  0
POINT
  5
1FF3F
330
1E8FE
100
AcDbEntity
  8
DEFPOINTS
 62
     0
 48
50.0
100
AcDbPoint
 10
9539.599999999998
 20
8220.624237135963
 30
0.0
  0
ENDBLK
  5
1E909
330
1E8FE
100
AcDbEntity
  8
0
 48
50.0
100
AcDbBlockEnd
  0
BLOCK
  5
1E914
330
1E90A
100
AcDbEntity
  8
0
 48
50.0
100
AcDbBlockBegin
  2
*D28
 70
     1
 10
0.0
 20
0.0
 30
0.0
  3
*D28
  1

  0
LINE
  5
1FF25
330
1E90A
100
AcDbEntity
  8
寸法
 62
     0
 48
50.0
370
    -2
100
AcDbLine
 10
7808.600000000002
 20
7732.000000000005
 30
0.0
 11
7808.600000000002
 21
8280.624237135963
 31
0.0
  0
LINE
  5
1FF26
330
1E90A
100
AcDbEntity
  8
寸法
 62
     0
 48
50.0
370
    -2
100
AcDbLine
 10
6907.599999999999
 20
7732.0
 30
0.0
 11
6907.599999999999
 21
8280.624237135963
 31
0.0
  0
LINE
  5
1FF27
330
1E90A
100
AcDbEntity
  8
寸法
 62
     0
 48
50.0
370
    -2
100
AcDbLine
 10
7808.600000000002
 20
8220.624237135963
 30
0.0
 11
6907.599999999999
 21
8220.624237135963
 31
0.0
  0
INSERT
  5
1FF28
330
1E90A
100
AcDbEntity
  8
寸法
 62
     0
 48
50.0
370
    -2
100
AcDbBlockReference
  2
_DOTSMALL
 10
7808.600000000002
 20
8220.624237135963
 30
0.0
 41
100.0
 42
100.0
 43
100.0
  0
INSERT
  5
1FF29
330
1E90A
100
AcDbEntity
  8
寸法
 62
     0
 48
50.0
370
    -2
100
AcDbBlockReference
  2
_DOTSMALL
 10
6907.599999999999
 20
8220.624237135963
 30
0.0
 41
100.0
 42
100.0
 43
100.0
 50
180.0
  0
MTEXT
  5
1FF2A
330
1E90A
100
AcDbEntity
  8
寸法
 62
     7
 48
50.0
100
AcDbMText
 10
7358.1
 20
8320.624237135962
 30
0.0
 40
120.0
 41
0.0
 71
     5
 72
     1
  1
\A1;901
  7
STYLE1
 73
     1
 44
1.0
1001
ACAD
1000
MTEXTBEGIN
1070
    73
1070
     1
1070
    44
1040
1.0
1070
    74
1070
     0
1000
MTEXTEND
  0
POINT
  5
1FF2B
330
1E90A
100
AcDbEntity
  8
DEFPOINTS
 62
     0
 48
50.0
100
AcDbPoint
 10
7808.600000000002
 20
7712.000000000006
 30
0.0
  0
POINT
  5
1FF2C
330
1E90A
100
AcDbEntity
  8
DEFPOINTS
 62
     0
 48
50.0
100
AcDbPoint
 10
6907.599999999999
 20
7712.0
 30
0.0
  0
POINT
  5
1FF2D
330
1E90A
100
AcDbEntity
  8
DEFPOINTS
 62
     0
 48
50.0
100
AcDbPoint
 10
6907.599999999999
 20
8220.624237135963
 30
0.0
  0
ENDBLK
  5
1E915
330
1E90A
100
AcDbEntity
  8
0
 48
50.0
100
AcDbBlockEnd
  0
BLOCK
  5
1E920
330
1E916
100
AcDbEntity
  8
0
 48
50.0
100
AcDbBlockBegin
  2
*D29
 70
     1
 10
0.0
 20
0.0
 30
0.0
  3
*D29
  1

  0
LINE
  5
1FF2E
330
1E916
100
AcDbEntity
  8
寸法
 62
     0
 48
50.0
370
    -2
100
AcDbLine
 10
7808.600000000002
 20
7732.000000000005
 30
0.0
 11
7808.600000000002
 21
8280.624237135963
 31
0.0
  0
LINE
  5
1FF2F
330
1E916
100
AcDbEntity
  8
寸法
 62
     0
 48
50.0
370
    -2
100
AcDbLine
 10
8638.600000000002
 20
7732.000000000003
 30
0.0
 11
8638.600000000002
 21
8280.624237135963
 31
0.0
  0
LINE
  5
1FF30
330
1E916
100
AcDbEntity
  8
寸法
 62
     0
 48
50.0
370
    -2
100
AcDbLine
 10
7808.600000000002
 20
8220.624237135963
 30
0.0
 11
8638.600000000002
 21
8220.624237135963
 31
0.0
  0
INSERT
  5
1FF31
330
1E916
100
AcDbEntity
  8
寸法
 62
     0
 48
50.0
370
    -2
100
AcDbBlockReference
  2
_DOTSMALL
 10
7808.600000000002
 20
8220.624237135963
 30
0.0
 41
100.0
 42
100.0
 43
100.0
 50
180.0
  0
INSERT
  5
1FF32
330
1E916
100
AcDbEntity
  8
寸法
 62
     0
 48
50.0
370
    -2
100
AcDbBlockReference
  2
_DOTSMALL
 10
8638.600000000002
 20
8220.624237135963
 30
0.0
 41
100.0
 42
100.0
 43
100.0
  0
MTEXT
  5
1FF33
330
1E916
100
AcDbEntity
  8
寸法
 62
     7
 48
50.0
100
AcDbMText
 10
8223.600000000002
 20
8320.624237135962
 30
0.0
 40
120.0
 41
0.0
 71
     5
 72
     1
  1
\A1;830
  7
STYLE1
 73
     1
 44
1.0
1001
ACAD
1000
MTEXTBEGIN
1070
    73
1070
     1
1070
    44
1040
1.0
1070
    74
1070
     0
1000
MTEXTEND
  0
POINT
  5
1FF34
330
1E916
100
AcDbEntity
  8
DEFPOINTS
 62
     0
 48
50.0
100
AcDbPoint
 10
7808.600000000002
 20
7712.000000000006
 30
0.0
  0
POINT
  5
1FF35
330
1E916
100
AcDbEntity
  8
DEFPOINTS
 62
     0
 48
50.0
100
AcDbPoint
 10
8638.600000000002
 20
7712.000000000003
 30
0.0
  0
POINT
  5
1FF36
330
1E916
100
AcDbEntity
  8
DEFPOINTS
 62
     0
 48
50.0
100
AcDbPoint
 10
8638.600000000002
 20
8220.624237135963
 30
0.0
  0
ENDBLK
  5
1E921
330
1E916
100
AcDbEntity
  8
0
 48
50.0
100
AcDbBlockEnd
  0
BLOCK
  5
1E92E
330
1E922
100
AcDbEntity
  8
0
 48
50.0
100
AcDbBlockBegin
  2
*D30
 70
     1
 10
0.0
 20
0.0
 30
0.0
  3
*D30
  1

  0
LINE
  5
1FF1A
330
1E922
100
AcDbEntity
  8
寸法
 62
     0
 48
50.0
370
    -2
100
AcDbLine
 10
9539.599999999998
 20
7732.0
 30
0.0
 11
9539.599999999998
 21
8538.551625802021
 31
0.0
  0
LINE
  5
1FF1B
330
1E922
100
AcDbEntity
  8
寸法
 62
     0
 48
50.0
370
    -2
100
AcDbLine
 10
9589.599999999999
 20
7812.000000000003
 30
0.0
 11
9589.599999999999
 21
8538.551625802021
 31
0.0
  0
LINE
  5
1FF1C
330
1E922
100
AcDbEntity
  8
寸法
 62
     0
 48
50.0
370
    -2
100
AcDbLine
 10
9539.599999999998
 20
8478.551625802023
 30
0.0
 11
9439.599999999998
 21
8478.551625802023
 31
0.0
  0
LINE
  5
1FF1D
330
1E922
100
AcDbEntity
  8
寸法
 62
     0
 48
50.0
370
    -2
100
AcDbLine
 10
9589.599999999999
 20
8478.551625802023
 30
0.0
 11
9689.599999999998
 21
8478.551625802023
 31
0.0
  0
LINE
  5
1FF1E
330
1E922
100
AcDbEntity
  8
寸法
 62
     0
 48
50.0
370
    -2
100
AcDbLine
 10
9539.599999999998
 20
8478.551625802023
 30
0.0
 11
9589.599999999999
 21
8478.551625802023
 31
0.0
  0
INSERT
  5
1FF1F
330
1E922
100
AcDbEntity
  8
寸法
 62
     0
 48
50.0
370
    -2
100
AcDbBlockReference
  2
_DOTSMALL
 10
9539.599999999998
 20
8478.551625802023
 30
0.0
 41
100.0
 42
100.0
 43
100.0
  0
INSERT
  5
1FF20
330
1E922
100
AcDbEntity
  8
寸法
 62
     0
 48
50.0
370
    -2
100
AcDbBlockReference
  2
_DOTSMALL
 10
9589.599999999999
 20
8478.551625802023
 30
0.0
 41
100.0
 42
100.0
 43
100.0
 50
180.0
  0
MTEXT
  5
1FF21
330
1E922
100
AcDbEntity
  8
寸法
 62
     7
 48
50.0
100
AcDbMText
 10
9564.599999999998
 20
8578.551625802022
 30
0.0
 40
120.0
 41
0.0
 71
     5
 72
     1
  1
\A1;a
  7
STYLE1
 73
     1
 44
1.0
1001
ACAD
1000
MTEXTBEGIN
1070
    73
1070
     1
1070
    44
1040
1.0
1070
    74
1070
     0
1000
MTEXTEND
  0
POINT
  5
1FF22
330
1E922
100
AcDbEntity
  8
DEFPOINTS
 62
     0
 48
50.0
100
AcDbPoint
 10
9539.599999999998
 20
7712.0
 30
0.0
  0
POINT
  5
1FF23
330
1E922
100
AcDbEntity
  8
DEFPOINTS
 62
     0
 48
50.0
100
AcDbPoint
 10
9589.599999999999
 20
7792.000000000005
 30
0.0
  0
POINT
  5
1FF24
330
1E922
100
AcDbEntity
  8
DEFPOINTS
 62
     0
 48
50.0
100
AcDbPoint
 10
9589.599999999999
 20
8478.551625802023
 30
0.0
  0
ENDBLK
  5
1E92F
330
1E922
100
AcDbEntity
  8
0
 48
50.0
100
AcDbBlockEnd
  0
BLOCK
  5
1E93C
330
1E930
100
AcDbEntity
  8
0
 48
50.0
100
AcDbBlockBegin
  2
*D31
 70
     1
 10
0.0
 20
0.0
 30
0.0
  3
*D31
  1

  0
LINE
  5
1FE55
330
1E930
100
AcDbEntity
  8
寸法
 62
     0
 48
50.0
370
    -2
100
AcDbLine
 10
6857.599999999999
 20
7812.0
 30
0.0
 11
6857.599999999999
 21
8538.551625802021
 31
0.0
  0
LINE
  5
1FE56
330
1E930
100
AcDbEntity
  8
寸法
 62
     0
 48
50.0
370
    -2
100
AcDbLine
 10
6907.599999999999
 20
7732.0
 30
0.0
 11
6907.599999999999
 21
8538.551625802021
 31
0.0
  0
LINE
  5
1FE57
330
1E930
100
AcDbEntity
  8
寸法
 62
     0
 48
50.0
370
    -2
100
AcDbLine
 10
6857.599999999999
 20
8478.551625802023
 30
0.0
 11
6757.6
 21
8478.551625802023
 31
0.0
  0
LINE
  5
1FE58
330
1E930
100
AcDbEntity
  8
寸法
 62
     0
 48
50.0
370
    -2
100
AcDbLine
 10
6907.599999999999
 20
8478.551625802023
 30
0.0
 11
7007.6
 21
8478.551625802023
 31
0.0
  0
LINE
  5
1FE59
330
1E930
100
AcDbEntity
  8
寸法
 62
     0
 48
50.0
370
    -2
100
AcDbLine
 10
6857.599999999999
 20
8478.551625802023
 30
0.0
 11
6907.599999999999
 21
8478.551625802023
 31
0.0
  0
INSERT
  5
1FE5A
330
1E930
100
AcDbEntity
  8
寸法
 62
     0
 48
50.0
370
    -2
100
AcDbBlockReference
  2
_DOTSMALL
 10
6857.599999999999
 20
8478.551625802023
 30
0.0
 41
100.0
 42
100.0
 43
100.0
  0
INSERT
  5
1FE5B
330
1E930
100
AcDbEntity
  8
寸法
 62
     0
 48
50.0
370
    -2
100
AcDbBlockReference
  2
_DOTSMALL
 10
6907.599999999999
 20
8478.551625802023
 30
0.0
 41
100.0
 42
100.0
 43
100.0
 50
180.0
  0
MTEXT
  5
1FE5C
330
1E930
100
AcDbEntity
  8
寸法
 62
     7
 48
50.0
100
AcDbMText
 10
6882.6
 20
8578.551625802022
 30
0.0
 40
120.0
 41
0.0
 71
     5
 72
     1
  1
\A1;a
  7
STYLE1
 73
     1
 44
1.0
1001
ACAD
1000
MTEXTBEGIN
1070
    73
1070
     1
1070
    44
1040
1.0
1070
    74
1070
     0
1000
MTEXTEND
  0
POINT
  5
1FE5D
330
1E930
100
AcDbEntity
  8
DEFPOINTS
 62
     0
 48
50.0
100
AcDbPoint
 10
6857.599999999999
 20
7792.0
 30
0.0
  0
POINT
  5
1FE5E
330
1E930
100
AcDbEntity
  8
DEFPOINTS
 62
     0
 48
50.0
100
AcDbPoint
 10
6907.599999999999
 20
7712.0
 30
0.0
  0
POINT
  5
1FE5F
330
1E930
100
AcDbEntity
  8
DEFPOINTS
 62
     0
 48
50.0
100
AcDbPoint
 10
6907.599999999999
 20
8478.551625802023
 30
0.0
  0
ENDBLK
  5
1E93D
330
1E930
100
AcDbEntity
  8
0
 48
50.0
100
AcDbBlockEnd
  0
BLOCK
  5
1E948
330
1E93E
100
AcDbEntity
  8
0
 48
50.0
100
AcDbBlockBegin
  2
*D32
 70
     1
 10
0.0
 20
0.0
 30
0.0
  3
*D32
  1

  0
LINE
  5
1FF5B
330
1E93E
100
AcDbEntity
  8
寸法
 62
     0
 48
50.0
370
    -2
100
AcDbLine
 10
6907.599999999999
 20
7732.0
 30
0.0
 11
6907.599999999999
 21
8538.551625802021
 31
0.0
  0
LINE
  5
1FF5C
330
1E93E
100
AcDbEntity
  8
寸法
 62
     0
 48
50.0
370
    -2
100
AcDbLine
 10
9539.599999999998
 20
7732.0
 30
0.0
 11
9539.599999999998
 21
8538.551625802021
 31
0.0
  0
LINE
  5
1FF5D
330
1E93E
100
AcDbEntity
  8
寸法
 62
     0
 48
50.0
370
    -2
100
AcDbLine
 10
6907.599999999999
 20
8478.551625802023
 30
0.0
 11
9539.599999999998
 21
8478.551625802023
 31
0.0
  0
INSERT
  5
1FF5E
330
1E93E
100
AcDbEntity
  8
寸法
 62
     0
 48
50.0
370
    -2
100
AcDbBlockReference
  2
_DOTSMALL
 10
6907.599999999999
 20
8478.551625802023
 30
0.0
 41
100.0
 42
100.0
 43
100.0
 50
180.0
  0
INSERT
  5
1FF5F
330
1E93E
100
AcDbEntity
  8
寸法
 62
     0
 48
50.0
370
    -2
100
AcDbBlockReference
  2
_DOTSMALL
 10
9539.599999999998
 20
8478.551625802023
 30
0.0
 41
100.0
 42
100.0
 43
100.0
  0
MTEXT
  5
1FF60
330
1E93E
100
AcDbEntity
  8
寸法
 62
     7
 48
50.0
100
AcDbMText
 10
8223.599999999999
 20
8578.563436825644
 30
0.0
 40
120.0
 41
0.0
 71
     5
 72
     1
  1
\A1;2632
  7
STYLE1
 73
     1
 44
1.0
1001
ACAD
1000
MTEXTBEGIN
1070
    73
1070
     1
1070
    44
1040
1.0
1070
    74
1070
     0
1000
MTEXTEND
  0
POINT
  5
1FF61
330
1E93E
100
AcDbEntity
  8
DEFPOINTS
 62
     0
 48
50.0
100
AcDbPoint
 10
6907.599999999999
 20
7712.0
 30
0.0
  0
POINT
  5
1FF62
330
1E93E
100
AcDbEntity
  8
DEFPOINTS
 62
     0
 48
50.0
100
AcDbPoint
 10
9539.599999999998
 20
7712.0
 30
0.0
  0
POINT
  5
1FF63
330
1E93E
100
AcDbEntity
  8
DEFPOINTS
 62
     0
 48
50.0
100
AcDbPoint
 10
9539.599999999998
 20
8478.551625802023
 30
0.0
  0
ENDBLK
  5
1E949
330
1E93E
100
AcDbEntity
  8
0
 48
50.0
100
AcDbBlockEnd
  0
BLOCK
  5
1E9B5
330
1E9AB
100
AcDbEntity
  8
0
 48
50.0
100
AcDbBlockBegin
  2
*D33
 70
     1
 10
0.0
 20
0.0
 30
0.0
  3
*D33
  1

  0
LINE
  5
1FF52
330
1E9AB
100
AcDbEntity
  8
寸法
 62
     0
 48
50.0
370
    -2
100
AcDbLine
 10
6907.599999999999
 20
7732.0
 30
0.0
 11
6907.599999999999
 21
8538.551625802021
 31
0.0
  0
LINE
  5
1FF53
330
1E9AB
100
AcDbEntity
  8
寸法
 62
     0
 48
50.0
370
    -2
100
AcDbLine
 10
9539.599999999998
 20
7732.0
 30
0.0
 11
9539.599999999998
 21
8538.551625802021
 31
0.0
  0
LINE
  5
1FF54
330
1E9AB
100
AcDbEntity
  8
寸法
 62
     0
 48
50.0
370
    -2
100
AcDbLine
 10
6907.599999999999
 20
8478.551625802023
 30
0.0
 11
9539.599999999998
 21
8478.551625802023
 31
0.0
  0
INSERT
  5
1FF55
330
1E9AB
100
AcDbEntity
  8
寸法
 62
     0
 48
50.0
370
    -2
100
AcDbBlockReference
  2
_DOTSMALL
 10
6907.599999999999
 20
8478.551625802023
 30
0.0
 41
100.0
 42
100.0
 43
100.0
 50
180.0
  0
INSERT
  5
1FF56
330
1E9AB
100
AcDbEntity
  8
寸法
 62
     0
 48
50.0
370
    -2
100
AcDbBlockReference
  2
_DOTSMALL
 10
9539.599999999998
 20
8478.551625802023
 30
0.0
 41
100.0
 42
100.0
 43
100.0
  0
MTEXT
  5
1FF57
330
1E9AB
100
AcDbEntity
  8
寸法
 62
     7
 48
50.0
100
AcDbMText
 10
8223.599999999999
 20
8578.563436825644
 30
0.0
 40
120.0
 41
0.0
 71
     5
 72
     1
  1
\A1;2632
  7
STYLE1
 73
     1
 44
1.0
1001
ACAD
1000
MTEXTBEGIN
1070
    73
1070
     1
1070
    44
1040
1.0
1070
    74
1070
     0
1000
MTEXTEND
  0
POINT
  5
1FF58
330
1E9AB
100
AcDbEntity
  8
DEFPOINTS
 62
     0
 48
50.0
100
AcDbPoint
 10
6907.599999999999
 20
7712.0
 30
0.0
  0
POINT
  5
1FF59
330
1E9AB
100
AcDbEntity
  8
DEFPOINTS
 62
     0
 48
50.0
100
AcDbPoint
 10
9539.599999999998
 20
7712.0
 30
0.0
  0
POINT
  5
1FF5A
330
1E9AB
100
AcDbEntity
  8
DEFPOINTS
 62
     0
 48
50.0
100
AcDbPoint
 10
9539.599999999998
 20
8478.551625802023
 30
0.0
  0
ENDBLK
  5
1E9B6
330
1E9AB
100
AcDbEntity
  8
0
 48
50.0
100
AcDbBlockEnd
  0
BLOCK
  5
1F6F9
330
1F6EF
100
AcDbEntity
  8
0
 48
50.0
100
AcDbBlockBegin
  2
*D34
 70
     1
 10
0.0
 20
0.0
 30
0.0
  3
*D34
  1

  0
LINE
  5
1FF08
330
1F6EF
100
AcDbEntity
  8
寸法
 62
     0
 48
50.0
370
    -2
100
AcDbLine
 10
9639.600000000001
 20
5379.999999999992
 30
0.0
 11
9639.600000000001
 21
4866.168926156461
 31
0.0
  0
LINE
  5
1FF09
330
1F6EF
100
AcDbEntity
  8
寸法
 62
     0
 48
50.0
370
    -2
100
AcDbLine
 10
9439.6
 20
5379.999999999992
 30
0.0
 11
9439.6
 21
4866.168926156461
 31
0.0
  0
LINE
  5
1FF0A
330
1F6EF
100
AcDbEntity
  8
寸法
 62
     0
 48
50.0
370
    -2
100
AcDbLine
 10
9639.600000000001
 20
4926.16892615646
 30
0.0
 11
9439.6
 21
4926.16892615646
 31
0.0
  0
INSERT
  5
1FF0B
330
1F6EF
100
AcDbEntity
  8
寸法
 62
     0
 48
50.0
370
    -2
100
AcDbBlockReference
  2
_DOTSMALL
 10
9639.600000000001
 20
4926.16892615646
 30
0.0
 41
100.0
 42
100.0
 43
100.0
  0
INSERT
  5
1FF0C
330
1F6EF
100
AcDbEntity
  8
寸法
 62
     0
 48
50.0
370
    -2
100
AcDbBlockReference
  2
_DOTSMALL
 10
9439.6
 20
4926.16892615646
 30
0.0
 41
100.0
 42
100.0
 43
100.0
 50
180.0
  0
MTEXT
  5
1FF0D
330
1F6EF
100
AcDbEntity
  8
寸法
 62
     7
 48
50.0
100
AcDbMText
 10
9539.6
 20
5026.180737180083
 30
0.0
 40
120.0
 41
0.0
 71
     5
 72
     1
  1
\A1;200
  7
STYLE1
 73
     1
 44
1.0
1001
ACAD
1000
MTEXTBEGIN
1070
    73
1070
     1
1070
    44
1040
1.0
1070
    74
1070
     0
1000
MTEXTEND
  0
POINT
  5
1FF0E
330
1F6EF
100
AcDbEntity
  8
DEFPOINTS
 62
     0
 48
50.0
100
AcDbPoint
 10
9639.600000000001
 20
5399.999999999993
 30
0.0
  0
POINT
  5
1FF0F
330
1F6EF
100
AcDbEntity
  8
DEFPOINTS
 62
     0
 48
50.0
100
AcDbPoint
 10
9439.6
 20
5399.999999999993
 30
0.0
  0
POINT
  5
1FF10
330
1F6EF
100
AcDbEntity
  8
DEFPOINTS
 62
     0
 48
50.0
100
AcDbPoint
 10
9439.6
 20
4926.16892615646
 30
0.0
  0
ENDBLK
  5
1F6FA
330
1F6EF
100
AcDbEntity
  8
0
 48
50.0
100
AcDbBlockEnd
  0
BLOCK
  5
1F705
330
1F6FB
100
AcDbEntity
  8
0
 48
50.0
100
AcDbBlockBegin
  2
*D35
 70
     1
 10
0.0
 20
0.0
 30
0.0
  3
*D35
  1

  0
LINE
  5
1FF11
330
1F6FB
100
AcDbEntity
  8
寸法
 62
     0
 48
50.0
370
    -2
100
AcDbLine
 10
9659.599999999999
 20
5599.999999999993
 30
0.0
 11
10217.84087348511
 21
5599.999999999993
 31
0.0
  0
LINE
  5
1FF12
330
1F6FB
100
AcDbEntity
  8
寸法
 62
     0
 48
50.0
370
    -2
100
AcDbLine
 10
9659.600000000001
 20
5399.999999999993
 30
0.0
 11
10217.84087348511
 21
5399.999999999993
 31
0.0
  0
LINE
  5
1FF13
330
1F6FB
100
AcDbEntity
  8
寸法
 62
     0
 48
50.0
370
    -2
100
AcDbLine
 10
10157.84087348511
 20
5599.999999999993
 30
0.0
 11
10157.84087348511
 21
5399.999999999993
 31
0.0
  0
INSERT
  5
1FF14
330
1F6FB
100
AcDbEntity
  8
寸法
 62
     0
 48
50.0
370
    -2
100
AcDbBlockReference
  2
_DOTSMALL
 10
10157.84087348511
 20
5599.999999999993
 30
0.0
 41
100.0
 42
100.0
 43
100.0
 50
90.0
  0
INSERT
  5
1FF15
330
1F6FB
100
AcDbEntity
  8
寸法
 62
     0
 48
50.0
370
    -2
100
AcDbBlockReference
  2
_DOTSMALL
 10
10157.84087348511
 20
5399.999999999993
 30
0.0
 41
100.0
 42
100.0
 43
100.0
 50
270.0
  0
MTEXT
  5
1FF16
330
1F6FB
100
AcDbEntity
  8
寸法
 62
     7
 48
50.0
100
AcDbMText
 10
10057.82906246149
 20
5499.999999999993
 30
0.0
 40
120.0
 41
0.0
 71
     5
 72
     1
  1
\A1;200
  7
STYLE1
 11
0.0000000000000001
 21
1.0
 31
0.0
 73
     1
 44
1.0
1001
ACAD
1000
MTEXTBEGIN
1070
    73
1070
     1
1070
    44
1040
1.0
1070
    74
1070
     0
1000
MTEXTEND
  0
POINT
  5
1FF17
330
1F6FB
100
AcDbEntity
  8
DEFPOINTS
 62
     0
 48
50.0
100
AcDbPoint
 10
9639.599999999999
 20
5599.999999999993
 30
0.0
  0
POINT
  5
1FF18
330
1F6FB
100
AcDbEntity
  8
DEFPOINTS
 62
     0
 48
50.0
100
AcDbPoint
 10
9639.600000000001
 20
5399.999999999993
 30
0.0
  0
POINT
  5
1FF19
330
1F6FB
100
AcDbEntity
  8
DEFPOINTS
 62
     0
 48
50.0
100
AcDbPoint
 10
10157.84087348511
 20
5399.999999999993
 30
0.0
  0
ENDBLK
  5
1F706
330
1F6FB
100
AcDbEntity
  8
0
 48
50.0
100
AcDbBlockEnd
  0
BLOCK
  5
202D0
330
202C6
100
AcDbEntity
  8
0
 48
50.0
100
AcDbBlockBegin
  2
*D36
 70
     1
 10
0.0
 20
0.0
 30
0.0
  3
*D36
  1

  0
LINE
  5
2035C
330
202C6
100
AcDbEntity
  8
寸法
 62
     0
 48
50.0
370
    -2
100
AcDbLine
 10
6607.305229737185
 20
1140.760787611754
 30
0.0
 11
6473.975482661656
 21
1140.760787611754
 31
0.0
  0
LINE
  5
2035D
330
202C6
100
AcDbEntity
  8
寸法
 62
     0
 48
50.0
370
    -2
100
AcDbLine
 10
6757.305229737184
 20
740.7607876117545
 30
0.0
 11
6473.975482661656
 21
740.7607876117545
 31
0.0
  0
LINE
  5
2035E
330
202C6
100
AcDbEntity
  8
寸法
 62
     0
 48
50.0
370
    -2
100
AcDbLine
 10
6533.975482661656
 20
1140.760787611754
 30
0.0
 11
6533.975482661656
 21
740.7607876117545
 31
0.0
  0
INSERT
  5
2035F
330
202C6
100
AcDbEntity
  8
寸法
 62
     0
 48
50.0
370
    -2
100
AcDbBlockReference
  2
_DOTSMALL
 10
6533.975482661656
 20
1140.760787611754
 30
0.0
 41
100.0
 42
100.0
 43
100.0
 50
90.0
  0
INSERT
  5
20360
330
202C6
100
AcDbEntity
  8
寸法
 62
     0
 48
50.0
370
    -2
100
AcDbBlockReference
  2
_DOTSMALL
 10
6533.975482661656
 20
740.7607876117545
 30
0.0
 41
100.0
 42
100.0
 43
100.0
 50
270.0
  0
MTEXT
  5
20361
330
202C6
100
AcDbEntity
  8
寸法
 62
     7
 48
50.0
100
AcDbMText
 10
6433.963671638034
 20
928.3854207276601
 30
0.0
 40
120.0
 41
0.0
 71
     5
 72
     1
  1
\A1;200
  7
STYLE1
 11
0.0000000000000001
 21
1.0
 31
0.0
 73
     1
 44
1.0
1001
ACAD
1000
MTEXTBEGIN
1070
    73
1070
     1
1070
    44
1040
1.0
1070
    74
1070
     0
1000
MTEXTEND
  0
POINT
  5
20362
330
202C6
100
AcDbEntity
  8
DEFPOINTS
 62
     0
 48
50.0
100
AcDbPoint
 10
6627.305229737185
 20
1140.760787611754
 30
0.0
  0
POINT
  5
20363
330
202C6
100
AcDbEntity
  8
DEFPOINTS
 62
     0
 48
50.0
100
AcDbPoint
 10
6777.305229737184
 20
740.7607876117545
 30
0.0
  0
POINT
  5
20364
330
202C6
100
AcDbEntity
  8
DEFPOINTS
 62
     0
 48
50.0
100
AcDbPoint
 10
6533.975482661656
 20
740.7607876117545
 30
0.0
  0
ENDBLK
  5
202D1
330
202C6
100
AcDbEntity
  8
0
 48
50.0
100
AcDbBlockEnd
  0
BLOCK
  5
202DC
330
202D2
100
AcDbEntity
  8
0
 48
50.0
100
AcDbBlockBegin
  2
*D37
 70
     1
 10
0.0
 20
0.0
 30
0.0
  3
*D37
  1

  0
LINE
  5
20353
330
202D2
100
AcDbEntity
  8
寸法
 62
     0
 48
50.0
370
    -2
100
AcDbLine
 10
8660.911493855794
 20
1340.760787611756
 30
0.0
 11
8923.124741318693
 21
1340.760787611756
 31
0.0
  0
LINE
  5
20354
330
202D2
100
AcDbEntity
  8
寸法
 62
     0
 48
50.0
370
    -2
100
AcDbLine
 10
8680.360730750285
 20
1140.760787611754
 30
0.0
 11
8923.124741318693
 21
1140.760787611754
 31
0.0
  0
LINE
  5
20355
330
202D2
100
AcDbEntity
  8
寸法
 62
     0
 48
50.0
370
    -2
100
AcDbLine
 10
8863.124741318694
 20
1340.760787611756
 30
0.0
 11
8863.124741318694
 21
1140.760787611754
 31
0.0
  0
INSERT
  5
20356
330
202D2
100
AcDbEntity
  8
寸法
 62
     0
 48
50.0
370
    -2
100
AcDbBlockReference
  2
_DOTSMALL
 10
8863.124741318694
 20
1340.760787611756
 30
0.0
 41
100.0
 42
100.0
 43
100.0
 50
90.0
  0
INSERT
  5
20357
330
202D2
100
AcDbEntity
  8
寸法
 62
     0
 48
50.0
370
    -2
100
AcDbBlockReference
  2
_DOTSMALL
 10
8863.124741318694
 20
1140.760787611754
 30
0.0
 41
100.0
 42
100.0
 43
100.0
 50
270.0
  0
MTEXT
  5
20358
330
202D2
100
AcDbEntity
  8
寸法
 62
     7
 48
50.0
100
AcDbMText
 10
8763.124741318694
 20
1240.760787611757
 30
0.0
 40
120.0
 41
0.0
 71
     5
 72
     1
  1
\A1;b
  7
STYLE1
 11
0.0000000000000001
 21
1.0
 31
0.0
 73
     1
 44
1.0
1001
ACAD
1000
MTEXTBEGIN
1070
    73
1070
     1
1070
    44
1040
1.0
1070
    74
1070
     0
1000
MTEXTEND
  0
POINT
  5
20359
330
202D2
100
AcDbEntity
  8
DEFPOINTS
 62
     0
 48
50.0
100
AcDbPoint
 10
8640.911493855794
 20
1340.760787611756
 30
0.0
  0
POINT
  5
2035A
330
202D2
100
AcDbEntity
  8
DEFPOINTS
 62
     0
 48
50.0
100
AcDbPoint
 10
8660.360730750284
 20
1140.760787611754
 30
0.0
  0
POINT
  5
2035B
330
202D2
100
AcDbEntity
  8
DEFPOINTS
 62
     0
 48
50.0
100
AcDbPoint
 10
8863.124741318694
 20
1140.760787611754
 30
0.0
  0
ENDBLK
  5
202DD
330
202D2
100
AcDbEntity
  8
0
 48
50.0
100
AcDbBlockEnd
  0
BLOCK
  5
202E8
330
202DE
100
AcDbEntity
  8
0
 48
50.0
100
AcDbBlockBegin
  2
*D38
 70
     1
 10
0.0
 20
0.0
 30
0.0
  3
*D38
  1

  0
LINE
  5
2034A
330
202DE
100
AcDbEntity
  8
寸法
 62
     0
 48
50.0
370
    -2
100
AcDbLine
 10
10160.80442737293
 20
1440.760787611754
 30
0.0
 11
10403.43998109005
 21
1440.760787611754
 31
0.0
  0
LINE
  5
2034B
330
202DE
100
AcDbEntity
  8
寸法
 62
     0
 48
50.0
370
    -2
100
AcDbLine
 10
10190.69333546326
 20
1140.760787611754
 30
0.0
 11
10403.43998109005
 21
1140.760787611754
 31
0.0
  0
LINE
  5
2034C
330
202DE
100
AcDbEntity
  8
寸法
 62
     0
 48
50.0
370
    -2
100
AcDbLine
 10
10343.43998109005
 20
1440.760787611754
 30
0.0
 11
10343.43998109005
 21
1140.760787611754
 31
0.0
  0
INSERT
  5
2034D
330
202DE
100
AcDbEntity
  8
寸法
 62
     0
 48
50.0
370
    -2
100
AcDbBlockReference
  2
_DOTSMALL
 10
10343.43998109005
 20
1440.760787611754
 30
0.0
 41
100.0
 42
100.0
 43
100.0
 50
90.0
  0
INSERT
  5
2034E
330
202DE
100
AcDbEntity
  8
寸法
 62
     0
 48
50.0
370
    -2
100
AcDbBlockReference
  2
_DOTSMALL
 10
10343.43998109005
 20
1140.760787611754
 30
0.0
 41
100.0
 42
100.0
 43
100.0
 50
270.0
  0
MTEXT
  5
2034F
330
202DE
100
AcDbEntity
  8
寸法
 62
     7
 48
50.0
100
AcDbMText
 10
10243.43998109005
 20
1290.760787611756
 30
0.0
 40
120.0
 41
0.0
 71
     5
 72
     1
  1
\A1;c
  7
STYLE1
 11
0.0000000000000001
 21
1.0
 31
0.0
 73
     1
 44
1.0
1001
ACAD
1000
MTEXTBEGIN
1070
    73
1070
     1
1070
    44
1040
1.0
1070
    74
1070
     0
1000
MTEXTEND
  0
POINT
  5
20350
330
202DE
100
AcDbEntity
  8
DEFPOINTS
 62
     0
 48
50.0
100
AcDbPoint
 10
10140.80442737293
 20
1440.760787611754
 30
0.0
  0
POINT
  5
20351
330
202DE
100
AcDbEntity
  8
DEFPOINTS
 62
     0
 48
50.0
100
AcDbPoint
 10
10170.69333546326
 20
1140.760787611754
 30
0.0
  0
POINT
  5
20352
330
202DE
100
AcDbEntity
  8
DEFPOINTS
 62
     0
 48
50.0
100
AcDbPoint
 10
10343.43998109005
 20
1140.760787611754
 30
0.0
  0
ENDBLK
  5
202E9
330
202DE
100
AcDbEntity
  8
0
 48
50.0
100
AcDbBlockEnd
  0
BLOCK
  5
202F4
330
202EA
100
AcDbEntity
  8
0
 48
50.0
100
AcDbBlockBegin
  2
*D39
 70
     1
 10
0.0
 20
0.0
 30
0.0
  3
*D39
  1

  0
LINE
  5
20341
330
202EA
100
AcDbEntity
  8
寸法
 62
     0
 48
50.0
370
    -2
100
AcDbLine
 10
7047.305229737187
 20
1340.760787611755
 30
0.0
 11
7335.37623409758
 21
1340.760787611755
 31
0.0
  0
LINE
  5
20342
330
202EA
100
AcDbEntity
  8
寸法
 62
     0
 48
50.0
370
    -2
100
AcDbLine
 10
7047.305229737189
 20
1140.760787611754
 30
0.0
 11
7335.37623409758
 21
1140.760787611754
 31
0.0
  0
LINE
  5
20343
330
202EA
100
AcDbEntity
  8
寸法
 62
     0
 48
50.0
370
    -2
100
AcDbLine
 10
7275.376234097581
 20
1340.760787611755
 30
0.0
 11
7275.376234097581
 21
1140.760787611754
 31
0.0
  0
INSERT
  5
20344
330
202EA
100
AcDbEntity
  8
寸法
 62
     0
 48
50.0
370
    -2
100
AcDbBlockReference
  2
_DOTSMALL
 10
7275.376234097581
 20
1340.760787611755
 30
0.0
 41
100.0
 42
100.0
 43
100.0
 50
90.0
  0
INSERT
  5
20345
330
202EA
100
AcDbEntity
  8
寸法
 62
     0
 48
50.0
370
    -2
100
AcDbBlockReference
  2
_DOTSMALL
 10
7275.376234097581
 20
1140.760787611754
 30
0.0
 41
100.0
 42
100.0
 43
100.0
 50
270.0
  0
MTEXT
  5
20346
330
202EA
100
AcDbEntity
  8
寸法
 62
     7
 48
50.0
100
AcDbMText
 10
7175.376234097581
 20
1240.760787611756
 30
0.0
 40
120.0
 41
0.0
 71
     5
 72
     1
  1
\A1;a
  7
STYLE1
 11
0.0000000000000001
 21
1.0
 31
0.0
 73
     1
 44
1.0
1001
ACAD
1000
MTEXTBEGIN
1070
    73
1070
     1
1070
    44
1040
1.0
1070
    74
1070
     0
1000
MTEXTEND
  0
POINT
  5
20347
330
202EA
100
AcDbEntity
  8
DEFPOINTS
 62
     0
 48
50.0
100
AcDbPoint
 10
7027.305229737187
 20
1340.760787611755
 30
0.0
  0
POINT
  5
20348
330
202EA
100
AcDbEntity
  8
DEFPOINTS
 62
     0
 48
50.0
100
AcDbPoint
 10
7027.305229737189
 20
1140.760787611754
 30
0.0
  0
POINT
  5
20349
330
202EA
100
AcDbEntity
  8
DEFPOINTS
 62
     0
 48
50.0
100
AcDbPoint
 10
7275.376234097581
 20
1140.760787611754
 30
0.0
  0
ENDBLK
  5
202F5
330
202EA
100
AcDbEntity
  8
0
 48
50.0
100
AcDbBlockEnd
  0
ENDSEC
  0
SECTION
  2
ENTITIES
  0
LINE
  5
10B57
330
747D
100
AcDbEntity
  8
補助
  6
PHANTOM
 62
   230
 48
50.0
100
AcDbLine
 10
139.9999999999995
 20
11409.6
 30
0.0
 11
16307.2
 21
11409.6
 31
0.0
  0
LINE
  5
10B59
330
747D
100
AcDbEntity
  8
仕様書枠
  6
Continuous
 48
50.0
100
AcDbLine
 10
13107.2
 20
1200.0
 30
0.0
 11
13107.2
 21
-0.0000000000000729
 31
0.0
  0
LINE
  5
10B5C
330
747D
100
AcDbEntity
  8
仕様書枠
 48
50.0
100
AcDbLine
 10
16307.2
 20
1200.0
 30
0.0
 11
16307.2
 21
-0.0000000000000909
 31
0.0
  0
LINE
  5
10B5D
330
747D
100
AcDbEntity
  8
仕様書枠
 48
50.0
100
AcDbLine
 10
140.0
 20
0.0
 30
0.0
 11
16307.2
 21
-0.0000000000000909
 31
0.0
  0
LINE
  5
10B5E
330
747D
100
AcDbEntity
  8
補助
  6
PHANTOM
 62
   230
 48
50.0
100
AcDbLine
 10
16307.2
 20
11409.6
 30
0.0
 11
16307.2
 21
1200.0
 31
0.0
  0
LINE
  5
10B6C
330
747D
100
AcDbEntity
  8
仕様書枠
 48
50.0
100
AcDbLine
 10
13107.2
 20
1200.0
 30
0.0
 11
16307.2
 21
1200.0
 31
0.0
  0
LINE
  5
10B6D
330
747D
100
AcDbEntity
  8
補助
  6
PHANTOM
 62
   230
 48
50.0
100
AcDbLine
 10
13107.2
 20
11409.6
 30
0.0
 11
13107.2
 21
4800.0
 31
0.0
  0
LINE
  5
10B6F
330
747D
100
AcDbEntity
  8
補助
  6
PHANTOM
 62
   230
 48
50.0
100
AcDbLine
 10
13107.2
 20
4800.0
 30
0.0
 11
16307.2
 21
4800.0
 31
0.0
  0
LINE
  5
10B72
330
747D
100
AcDbEntity
  8
文字
 62
     7
 48
50.0
100
AcDbLine
 10
13187.2
 20
400.0
 30
0.0
 11
16227.2
 21
400.0
 31
0.0
  0
TEXT
  5
10B73
330
747D
100
AcDbEntity
  8
文字
 62
     7
 48
50.0
100
AcDbText
 10
13162.9790565769
 20
895.0906074299405
 30
0.0
 40
200.0
  1
基 礎 図
  7
STYLE2
100
AcDbText
  0
TEXT
  5
10B74
330
747D
100
AcDbEntity
  8
文字
 62
     7
 48
50.0
100
AcDbText
 10
13201.43669998441
 20
477.2740661031255
 30
0.0
 40
160.0
  1
機種名
  7
STYLE2
100
AcDbText
  0
TEXT
  5
10B79
330
747D
100
AcDbEntity
  8
文字
 62
     7
 48
50.0
100
AcDbText
 10
14524.131837222
 20
1031.557706291228
 30
0.0
 40
100.0
  1
NO.20      <縮尺> S=1/40
  7
STYLE2
100
AcDbText
  0
LINE
  5
10B7B
330
747D
100
AcDbEntity
  8
仕様書枠
 48
50.0
100
AcDbLine
 10
13107.2
 20
800.0
 30
0.0
 11
14251.2
 21
800.0
 31
0.0
  0
LINE
  5
10B88
330
747D
100
AcDbEntity
  8
仕様書枠
  6
Continuous
 48
50.0
100
AcDbLine
 10
14251.2
 20
1200.0
 30
0.0
 11
14251.2
 21
800.0
 31
0.0
  0
TEXT
  5
14DEF
330
747D
100
AcDbEntity
  8
文字
 62
     7
 48
50.0
100
AcDbText
 10
14641.2525855784
 20
871.1744590657925
 30
0.0
 40
100.0
  1
～一般型・多雪地型～
  7
STYLE2
100
AcDbText
  0
TEXT
  5
15A76
330
747D
100
AcDbEntity
  8
文字
 62
     7
 48
50.0
100
AcDbText
 10
14482.61482192223
 20
488.1241585855691
 30
0.0
 40
160.0
  1
ＮＸＮ－６０Ｓ・H
  7
STYLE2
100
AcDbText
  0
TEXT
  5
1C9B2
330
747D
100
AcDbEntity
  8
部品1
 48
50.0
100
AcDbText
 10
7410.264262424615
 20
4799.758181754799
 30
0.0
 40
80.0
  1
(a=50,b=60,c=80)
  7
STYLE1
100
AcDbText
  0
TEXT
  5
1C9B3
330
747D
100
AcDbEntity
  8
部品1
 48
50.0
100
AcDbText
 10
7296.564021698666
 20
4933.314707840743
 30
0.0
 40
80.0
  1
※a,b,cは屋根の出幅です。
  7
STYLE1
100
AcDbText
  0
MTEXT
  5
1C9B4
102
{ACAD_REACTORS
330
1C9B5
102
}
330
747D
100
AcDbEntity
  8
部品1
 62
     7
 48
50.0
100
AcDbMText
 10
8162.734111875435
 20
5144.982608040209
 30
0.0
 40
120.0
 41
0.0
 71
     6
 72
     1
  1
\A1;屋根の外寸
  7
STYLE1
 73
     1
 44
1.0
1001
ACAD
1000
MTEXTBEGIN
1070
    73
1070
     1
1070
    44
1040
1.0
1070
    74
1070
     0
1000
MTEXTEND
  0
LEADER
  5
1C9B5
330
747D
100
AcDbEntity
  8
寸法
 48
50.0
100
AcDbLeader
  3
INABA_S50G
 71
     0
 73
     0
 74
     0
 75
     1
 40
120.0
 41
672.0
 76
     3
 10
7092.496925270943
 20
5440.0
 30
0.0
 10
7340.734111875434
 20
5059.982608040209
 30
0.0
 10
7465.734111875434
 20
5059.982608040209
 30
0.0
340
1C9B4
1001
ACAD
1000
DSTYLE
1002
{
1070
   341
1005
1C530
1070
    40
1040
1.0
1070
   343
1005
1C530
1070
   344
1005
1C530
1002
}
  0
LINE
  5
1C9BB
330
747D
100
AcDbEntity
  8
想像線
 48
10.0
100
AcDbLine
 10
9589.600000000004
 20
5439.999999999996
 30
0.0
 11
6860.600000000001
 21
5440.000000000001
 31
0.0
  0
LINE
  5
1C9BC
330
747D
100
AcDbEntity
  8
想像線
 48
10.0
100
AcDbLine
 10
6857.599999999999
 20
7792.0
 30
0.0
 11
9589.599999999993
 21
7792.0
 31
0.0
  0
DIMENSION
  5
1CAB6
330
747D
100
AcDbEntity
  8
寸法
 48
50.0
100
AcDbDimension
  2
*D2
 10
6466.888116550748
 20
5440.0
 30
0.0
 11
6466.888116550748
 21
5470.000000000002
 31
0.0
 70
   160
  1
b
 71
     5
 42
60.0
  3
INABA_S40G
100
AcDbAlignedDimension
 13
6907.599999999999
 23
5500.0
 33
0.0
 14
6857.599999999999
 24
5440.0
 34
0.0
 50
90.0
100
AcDbRotatedDimension
1001
ACAD
1000
DSTYLE
1002
{
1070
   174
1070
     0
1070
   272
1070
     1
1070
   288
1070
     0
1070
   341
1005
0
1002
}
  0
DIMENSION
  5
1CAB7
330
747D
100
AcDbEntity
  8
寸法
 48
50.0
100
AcDbDimension
  2
*D3
 10
6466.888116550748
 20
5500.0
 30
0.0
 11
6366.876305527126
 21
6606.000000000001
 31
0.0
 70
    32
 71
     5
 42
2212.0
  3
INABA_S40G
100
AcDbAlignedDimension
 13
6907.599999999999
 23
7712.0
 33
0.0
 14
6907.599999999999
 24
5500.0
 34
0.0
 50
90.0
100
AcDbRotatedDimension
1001
ACAD
1000
DSTYLE
1002
{
1070
   174
1070
     0
1070
   272
1070
     1
1070
   288
1070
     0
1070
   341
1005
0
1002
}
  0
DIMENSION
  5
1CAB8
330
747D
100
AcDbEntity
  8
寸法
 48
50.0
100
AcDbDimension
  2
*D4
 10
6466.888116550748
 20
7712.0
 30
0.0
 11
6466.888116550747
 21
7752.000000000002
 31
0.0
 70
   160
  1
c
 71
     5
 42
80.0
  3
INABA_S40G
100
AcDbAlignedDimension
 13
6857.599999999999
 23
7792.0
 33
0.0
 14
6907.599999999999
 24
7712.0
 34
0.0
 50
90.0
100
AcDbRotatedDimension
1001
ACAD
1000
DSTYLE
1002
{
1070
   174
1070
     0
1070
   272
1070
     1
1070
   288
1070
     0
1070
   341
1005
0
1002
}
  0
LINE
  5
1CAB9
330
747D
100
AcDbEntity
  8
想像線
 48
10.0
100
AcDbLine
 10
6857.600000000001
 20
5443.000000000001
 30
0.0
 11
6857.599999999997
 21
7791.999999999998
 31
0.0
  0
LINE
  5
1CAC3
330
747D
100
AcDbEntity
  8
部品1
 48
50.0
100
AcDbLine
 10
7903.600000000003
 20
5500.000000000006
 30
0.0
 11
7713.600000000004
 21
5500.000000000006
 31
0.0
  0
LINE
  5
1CAC4
330
747D
100
AcDbEntity
  8
部品1
 48
50.0
100
AcDbLine
 10
7903.600000000003
 20
5690.000000000005
 30
0.0
 11
7713.600000000004
 21
5690.000000000005
 31
0.0
  0
LINE
  5
1CAC5
330
747D
100
AcDbEntity
  8
部品1
 48
50.0
100
AcDbLine
 10
7713.600000000004
 20
5500.000000000009
 30
0.0
 11
7713.600000000004
 21
5690.000000000009
 31
0.0
  0
LINE
  5
1CAC6
330
747D
100
AcDbEntity
  8
部品1
 48
50.0
100
AcDbLine
 10
7903.600000000003
 20
5500.000000000009
 30
0.0
 11
7903.600000000003
 21
5690.000000000009
 31
0.0
  0
LINE
  5
1CAC7
330
747D
100
AcDbEntity
  8
部品1
 48
50.0
100
AcDbLine
 10
7297.599999999999
 20
7712.0
 30
0.0
 11
6907.599999999999
 21
7712.0
 31
0.0
  0
LINE
  5
1CAC8
330
747D
100
AcDbEntity
  8
部品1
 48
50.0
100
AcDbLine
 10
7297.599999999999
 20
7711.999999999996
 30
0.0
 11
6907.599999999999
 21
7712.0
 31
0.0
  0
LINE
  5
1CAC9
330
747D
100
AcDbEntity
  8
部品1
 48
50.0
100
AcDbLine
 10
7297.599999999999
 20
7522.0
 30
0.0
 11
6907.599999999999
 21
7522.0
 31
0.0
  0
LINE
  5
1CACE
330
747D
100
AcDbEntity
  8
部品1
 48
50.0
100
AcDbLine
 10
6907.599999999999
 20
7522.0
 30
0.0
 11
6907.599999999999
 21
7712.0
 31
0.0
  0
LINE
  5
1CAD0
330
747D
100
AcDbEntity
  8
部品1
 48
50.0
100
AcDbLine
 10
7297.599999999999
 20
7522.0
 30
0.0
 11
7297.599999999999
 21
7712.0
 31
0.0
  0
LINE
  5
1CAD1
330
747D
100
AcDbEntity
  8
部品1
 48
50.0
100
AcDbLine
 10
7903.600000000001
 20
7712.000000000006
 30
0.0
 11
7713.600000000003
 21
7712.000000000006
 31
0.0
  0
LINE
  5
1CAD2
330
747D
100
AcDbEntity
  8
部品1
 48
50.0
100
AcDbLine
 10
7903.600000000001
 20
7522.000000000005
 30
0.0
 11
7713.600000000003
 21
7522.000000000005
 31
0.0
  0
LINE
  5
1CAD3
330
747D
100
AcDbEntity
  8
部品1
 48
50.0
100
AcDbLine
 10
7713.600000000003
 20
7522.00000000001
 30
0.0
 11
7713.600000000003
 21
7712.000000000009
 31
0.0
  0
LINE
  5
1CAD4
330
747D
100
AcDbEntity
  8
部品1
 48
50.0
100
AcDbLine
 10
7903.600000000001
 20
7522.00000000001
 30
0.0
 11
7903.600000000001
 21
7712.000000000009
 31
0.0
  0
LINE
  5
1CCF0
330
747D
100
AcDbEntity
  8
想像線
 48
10.0
100
AcDbLine
 10
9589.599999999993
 20
7792.0
 30
0.0
 11
9589.600000000004
 21
5440.0
 31
0.0
  0
LINE
  5
1CCF3
330
747D
100
AcDbEntity
  8
部品1
 48
50.0
100
AcDbLine
 10
9149.600000000001
 20
5690.0
 30
0.0
 11
9539.6
 21
5690.0
 31
0.0
  0
LINE
  5
1CCF4
330
747D
100
AcDbEntity
  8
部品1
 48
50.0
100
AcDbLine
 10
9149.600000000001
 20
5500.0
 30
0.0
 11
9539.6
 21
5500.0
 31
0.0
  0
LINE
  5
1CCF5
330
747D
100
AcDbEntity
  8
部品1
 48
50.0
100
AcDbLine
 10
9149.600000000001
 20
5500.000000000003
 30
0.0
 11
9539.6
 21
5500.0
 31
0.0
  0
LINE
  5
1CCF6
330
747D
100
AcDbEntity
  8
部品1
 48
50.0
100
AcDbLine
 10
9149.600000000001
 20
5690.0
 30
0.0
 11
9149.600000000001
 21
5500.0
 31
0.0
  0
LINE
  5
1CCFB
330
747D
100
AcDbEntity
  8
部品1
 48
50.0
100
AcDbLine
 10
9539.6
 20
5690.0
 30
0.0
 11
9539.6
 21
5500.0
 31
0.0
  0
LINE
  5
1CCFF
330
747D
100
AcDbEntity
  8
部品1
 48
50.0
100
AcDbLine
 10
9149.599999999997
 20
7711.999999999996
 30
0.0
 11
9539.599999999998
 21
7712.0
 31
0.0
  0
LINE
  5
1CD00
330
747D
100
AcDbEntity
  8
部品1
 48
50.0
100
AcDbLine
 10
9149.599999999997
 20
7712.0
 30
0.0
 11
9539.599999999998
 21
7712.0
 31
0.0
  0
LINE
  5
1CD01
330
747D
100
AcDbEntity
  8
部品1
 48
50.0
100
AcDbLine
 10
9149.599999999997
 20
7522.0
 30
0.0
 11
9539.599999999998
 21
7522.0
 31
0.0
  0
LINE
  5
1CD02
330
747D
100
AcDbEntity
  8
部品1
 48
50.0
100
AcDbLine
 10
9149.599999999997
 20
7522.0
 30
0.0
 11
9149.599999999997
 21
7712.0
 31
0.0
  0
LINE
  5
1CD04
330
747D
100
AcDbEntity
  8
部品1
 48
50.0
100
AcDbLine
 10
9539.599999999998
 20
7522.0
 30
0.0
 11
9539.599999999998
 21
7712.0
 31
0.0
  0
TEXT
  5
1D002
330
747D
100
AcDbEntity
  8
文字
 62
     7
 48
50.0
100
AcDbText
 10
13188.16259899338
 20
246.7109242801889
 30
0.0
 40
80.0
  1
※寒冷地等は地域の実情に合わせた基礎にして下さい。
  7
STYLE2
100
AcDbText
  0
TEXT
  5
1D6DB
330
747D
100
AcDbEntity
  8
部品1
 48
50.0
100
AcDbText
 10
8102.735210891813
 20
5297.533387806431
 30
0.0
 40
120.0
  1
扉面
  7
STYLE1
 72
     1
 11
8230.735210891813
 21
5281.533387806432
 31
0.0
100
AcDbText
 73
     1
  0
LINE
  5
1E666
330
747D
100
AcDbEntity
  8
想像線
 48
10.0
100
AcDbLine
 10
6857.600000000001
 20
5443.000000000001
 30
0.0
 11
6860.600000000001
 21
5440.000000000001
 31
0.0
  0
DIMENSION
  5
1E8F8
330
747D
100
AcDbEntity
  8
寸法
 48
50.0
100
AcDbDimension
  2
*D32
 10
9539.599999999998
 20
8478.551625802023
 30
0.0
 11
8223.599999999999
 21
8478.551625802023
 31
0.0
 70
   160
 71
     5
 42
2632.0
  3
INABA_S40G
100
AcDbAlignedDimension
 13
6907.599999999999
 23
7712.0
 33
0.0
 14
9539.599999999998
 24
7712.0
 34
0.0
100
AcDbRotatedDimension
1001
ACAD
1000
DSTYLE
1002
{
1070
   174
1070
     0
1070
   272
1070
     1
1070
   288
1070
     0
1070
   341
1005
0
1002
}
  0
DIMENSION
  5
1E8F9
330
747D
100
AcDbEntity
  8
寸法
 48
50.0
100
AcDbDimension
  2
*D31
 10
6907.599999999999
 20
8478.551625802023
 30
0.0
 11
6882.6
 21
8478.551625802023
 31
0.0
 70
   160
  1
a
 71
     5
 42
50.0
  3
INABA_S40G
100
AcDbAlignedDimension
 13
6857.599999999999
 23
7792.0
 33
0.0
 14
6907.599999999999
 24
7712.0
 34
0.0
100
AcDbRotatedDimension
1001
ACAD
1000
DSTYLE
1002
{
1070
   174
1070
     0
1070
   272
1070
     1
1070
   288
1070
     0
1070
   341
1005
0
1002
}
  0
DIMENSION
  5
1E8FA
330
747D
100
AcDbEntity
  8
寸法
 48
50.0
100
AcDbDimension
  2
*D30
 10
9589.599999999999
 20
8478.551625802023
 30
0.0
 11
9564.599999999998
 21
8478.551625802023
 31
0.0
 70
   160
  1
a
 71
     5
 42
50.0
  3
INABA_S40G
100
AcDbAlignedDimension
 13
9539.599999999998
 23
7712.0
 33
0.0
 14
9589.599999999999
 24
7792.000000000005
 34
0.0
100
AcDbRotatedDimension
1001
ACAD
1000
DSTYLE
1002
{
1070
   174
1070
     0
1070
   272
1070
     1
1070
   288
1070
     0
1070
   341
1005
0
1002
}
  0
DIMENSION
  5
1E8FB
330
747D
100
AcDbEntity
  8
寸法
 48
50.0
100
AcDbDimension
  2
*D29
 10
8638.600000000002
 20
8220.624237135963
 30
0.0
 11
8223.600000000002
 21
8320.624237135962
 31
0.0
 70
    32
 71
     5
 42
830.0
  3
INABA_S40G
100
AcDbAlignedDimension
 13
7808.600000000002
 23
7712.000000000006
 33
0.0
 14
8638.600000000002
 24
7712.000000000003
 34
0.0
100
AcDbRotatedDimension
1001
ACAD
1000
DSTYLE
1002
{
1070
   174
1070
     0
1070
   272
1070
     1
1070
   288
1070
     0
1070
   341
1005
0
1002
}
  0
DIMENSION
  5
1E8FC
330
747D
100
AcDbEntity
  8
寸法
 48
50.0
100
AcDbDimension
  2
*D28
 10
6907.599999999999
 20
8220.624237135963
 30
0.0
 11
7358.1
 21
8320.624237135962
 31
0.0
 70
    32
 71
     5
 42
901.0000000000037
  3
INABA_S40G
100
AcDbAlignedDimension
 13
7808.600000000002
 23
7712.000000000006
 33
0.0
 14
6907.599999999999
 24
7712.0
 34
0.0
100
AcDbRotatedDimension
1001
ACAD
1000
DSTYLE
1002
{
1070
   174
1070
     0
1070
   272
1070
     1
1070
   288
1070
     0
1070
   341
1005
0
1002
}
  0
DIMENSION
  5
1E8FD
330
747D
100
AcDbEntity
  8
寸法
 48
50.0
100
AcDbDimension
  2
*D27
 10
9539.599999999998
 20
8220.624237135963
 30
0.0
 11
9089.1
 21
8320.624237135962
 31
0.0
 70
    32
 71
     5
 42
900.9999999999964
  3
INABA_S40G
100
AcDbAlignedDimension
 13
8638.600000000002
 23
7712.000000000003
 33
0.0
 14
9539.599999999998
 24
7712.0
 34
0.0
100
AcDbRotatedDimension
1001
ACAD
1000
DSTYLE
1002
{
1070
   174
1070
     0
1070
   272
1070
     1
1070
   288
1070
     0
1070
   341
1005
0
1002
}
  0
DIMENSION
  5
1E9AA
330
747D
100
AcDbEntity
  8
寸法
 48
50.0
100
AcDbDimension
  2
*D33
 10
9539.599999999998
 20
8478.551625802023
 30
0.0
 11
8223.599999999999
 21
8478.551625802023
 31
0.0
 70
   160
 71
     5
 42
2632.0
  3
INABA_S40G
100
AcDbAlignedDimension
 13
6907.599999999999
 23
7712.0
 33
0.0
 14
9539.599999999998
 24
7712.0
 34
0.0
100
AcDbRotatedDimension
1001
ACAD
1000
DSTYLE
1002
{
1070
   174
1070
     0
1070
   272
1070
     1
1070
   288
1070
     0
1070
   341
1005
0
1002
}
  0
LINE
  5
1E9C4
330
747D
100
AcDbEntity
  8
部品1
 48
50.0
100
AcDbLine
 10
8733.6
 20
7522.000000000007
 30
0.0
 11
8733.6
 21
7712.000000000007
 31
0.0
  0
LINE
  5
1E9C5
330
747D
100
AcDbEntity
  8
部品1
 48
50.0
100
AcDbLine
 10
8543.600000000003
 20
7522.000000000007
 30
0.0
 11
8543.600000000003
 21
7712.000000000007
 31
0.0
  0
LINE
  5
1E9C6
330
747D
100
AcDbEntity
  8
部品1
 48
50.0
100
AcDbLine
 10
8733.6
 20
7522.000000000004
 30
0.0
 11
8543.600000000003
 21
7522.000000000004
 31
0.0
  0
LINE
  5
1E9C7
330
747D
100
AcDbEntity
  8
部品1
 48
50.0
100
AcDbLine
 10
8733.6
 20
7712.000000000003
 30
0.0
 11
8543.600000000003
 21
7712.000000000003
 31
0.0
  0
LINE
  5
1E9C8
330
747D
100
AcDbEntity
  8
部品1
 48
50.0
100
AcDbLine
 10
8733.600000000002
 20
5500.000000000007
 30
0.0
 11
8733.600000000002
 21
5690.000000000008
 31
0.0
  0
LINE
  5
1E9C9
330
747D
100
AcDbEntity
  8
部品1
 48
50.0
100
AcDbLine
 10
8543.600000000003
 20
5500.000000000007
 30
0.0
 11
8543.600000000003
 21
5690.000000000008
 31
0.0
  0
LINE
  5
1E9CA
330
747D
100
AcDbEntity
  8
部品1
 48
50.0
100
AcDbLine
 10
8733.600000000002
 20
5690.000000000003
 30
0.0
 11
8543.600000000003
 21
5690.000000000003
 31
0.0
  0
LINE
  5
1E9CB
330
747D
100
AcDbEntity
  8
部品1
 48
50.0
100
AcDbLine
 10
8733.600000000002
 20
5500.000000000003
 30
0.0
 11
8543.600000000003
 21
5500.000000000003
 31
0.0
  0
LEADER
  5
1EB63
330
747D
100
AcDbEntity
  8
寸法
 48
50.0
100
AcDbLeader
  3
INABA_S50G
 71
     0
 73
     0
 74
     0
 75
     1
 40
120.0
 41
1282.349242404918
 76
     3
 10
9634.440685572831
 20
7701.456639287918
 30
0.0
 10
9890.827897155237
 20
7897.800576904058
 30
0.0
 10
10015.82789715523
 20
7897.800576904058
 30
0.0
340
1EB64
1001
ACAD
1000
DSTYLE
1002
{
1070
   341
1005
1C530
1070
    40
1040
1.0
1070
   343
1005
1C530
1070
   344
1005
1C530
1002
}
  0
MTEXT
  5
1EB64
102
{ACAD_REACTORS
330
1EB63
102
}
330
747D
100
AcDbEntity
  8
部品1
 62
     7
 48
50.0
100
AcDbMText
 10
10040.82789715523
 20
7982.800576904057
 30
0.0
 40
120.0
 41
0.0
 71
     4
 72
     1
  1
現場打コンクリート
  7
STYLE1
 73
     1
 44
1.0
1001
ACAD
1000
MTEXTBEGIN
1070
    73
1070
     1
1070
    44
1040
1.0
1070
    74
1070
     0
1000
MTEXTEND
  0
TEXT
  5
1EB65
330
747D
100
AcDbEntity
  8
部品1
 48
50.0
100
AcDbText
 10
10048.95182925034
 20
8109.278165376133
 30
0.0
 40
120.0
  1
組立後
  7
STYLE1
100
AcDbText
  0
LINE
  5
1ECE1
330
747D
100
AcDbEntity
  8
点線
 48
10.0
100
AcDbLine
 10
9639.599999999999
 20
5599.999999999999
 30
0.0
 11
9639.600000000001
 21
5399.999999999999
 31
0.0
  0
LINE
  5
1ECE2
330
747D
100
AcDbEntity
  8
点線
 48
10.0
100
AcDbLine
 10
9439.6
 20
5399.999999999999
 30
0.0
 11
9639.600000000001
 21
5399.999999999999
 31
0.0
  0
LINE
  5
1ECE3
330
747D
100
AcDbEntity
  8
点線
 48
10.0
100
AcDbLine
 10
9439.6
 20
5600.0
 30
0.0
 11
9439.6
 21
5399.999999999999
 31
0.0
  0
LINE
  5
1ECE4
330
747D
100
AcDbEntity
  8
点線
 48
10.0
100
AcDbLine
 10
9439.6
 20
5600.0
 30
0.0
 11
9639.599999999999
 21
5599.999999999999
 31
0.0
  0
LINE
  5
1ECE5
330
747D
100
AcDbEntity
  8
点線
 48
10.0
100
AcDbLine
 10
6807.6
 20
5399.999999999999
 30
0.0
 11
7007.6
 21
5399.999999999999
 31
0.0
  0
LINE
  5
1ECE6
330
747D
100
AcDbEntity
  8
点線
 48
10.0
100
AcDbLine
 10
6807.6
 20
5600.0
 30
0.0
 11
6807.6
 21
5399.999999999999
 31
0.0
  0
LINE
  5
1ECE7
330
747D
100
AcDbEntity
  8
点線
 48
10.0
100
AcDbLine
 10
7007.6
 20
5599.999999999999
 30
0.0
 11
7007.6
 21
5399.999999999999
 31
0.0
  0
LINE
  5
1ECE8
330
747D
100
AcDbEntity
  8
点線
 48
10.0
100
AcDbLine
 10
6807.6
 20
5600.0
 30
0.0
 11
7007.6
 21
5599.999999999999
 31
0.0
  0
LINE
  5
1ED13
330
747D
100
AcDbEntity
  8
点線
 48
10.0
100
AcDbLine
 10
6807.599999999999
 20
7611.999999999992
 30
0.0
 11
7007.6
 21
7611.999999999992
 31
0.0
  0
LINE
  5
1ED14
330
747D
100
AcDbEntity
  8
点線
 48
10.0
100
AcDbLine
 10
7007.599999999996
 20
7811.999999999992
 30
0.0
 11
7007.6
 21
7611.999999999992
 31
0.0
  0
LINE
  5
1ED15
330
747D
100
AcDbEntity
  8
点線
 48
10.0
100
AcDbLine
 10
6807.599999999999
 20
7811.999999999994
 30
0.0
 11
6807.599999999999
 21
7611.999999999992
 31
0.0
  0
LINE
  5
1ED16
330
747D
100
AcDbEntity
  8
点線
 48
10.0
100
AcDbLine
 10
6807.599999999999
 20
7811.999999999994
 30
0.0
 11
7007.599999999996
 21
7811.999999999992
 31
0.0
  0
LINE
  5
1ED17
330
747D
100
AcDbEntity
  8
点線
 48
10.0
100
AcDbLine
 10
9439.599999999998
 20
7811.999999999994
 30
0.0
 11
9439.599999999998
 21
7611.999999999992
 31
0.0
  0
LINE
  5
1ED18
330
747D
100
AcDbEntity
  8
点線
 48
10.0
100
AcDbLine
 10
9439.599999999998
 20
7611.999999999992
 30
0.0
 11
9639.599999999999
 21
7611.999999999992
 31
0.0
  0
LINE
  5
1ED19
330
747D
100
AcDbEntity
  8
点線
 48
10.0
100
AcDbLine
 10
9439.599999999998
 20
7811.999999999994
 30
0.0
 11
9639.599999999997
 21
7811.999999999992
 31
0.0
  0
LINE
  5
1ED1A
330
747D
100
AcDbEntity
  8
点線
 48
10.0
100
AcDbLine
 10
9639.599999999997
 20
7811.999999999992
 30
0.0
 11
9639.599999999999
 21
7611.999999999992
 31
0.0
  0
TEXT
  5
1F34D
330
747D
100
AcDbEntity
  8
文字
 48
50.0
100
AcDbText
 10
7308.552229389291
 20
7221.437820004372
 30
0.0
 40
120.0
  1
100x190x390
  7
STYLE1
100
AcDbText
  0
MTEXT
  5
1F34E
102
{ACAD_REACTORS
330
1F34F
102
}
330
747D
100
AcDbEntity
  8
部品1
 62
     7
 48
50.0
100
AcDbMText
 10
7447.493414253826
 20
7473.936419497994
 30
0.0
 40
120.0
 41
0.0
 71
     4
 72
     1
  1
\A1;C.B
  7
STYLE1
 73
     1
 44
1.0
1001
ACAD
1000
MTEXTBEGIN
1070
    73
1070
     1
1070
    44
1040
1.0
1070
    74
1070
     0
1000
MTEXTEND
  0
LEADER
  5
1F34F
330
747D
100
AcDbEntity
  8
寸法
 48
50.0
100
AcDbLeader
  3
INABA_S50G
 71
     0
 73
     0
 74
     0
 75
     1
 40
120.0
 41
185.591883092037
 76
     3
 10
7229.116701030521
 20
7604.069562767072
 30
0.0
 10
7297.493414253826
 20
7388.936419497993
 30
0.0
 10
7422.493414253826
 20
7388.936419497993
 30
0.0
340
1F34E
1001
ACAD
1000
DSTYLE
1002
{
1070
   341
1005
1C530
1070
    40
1040
1.0
1070
   343
1005
1C530
1070
   344
1005
1C530
1002
}
  0
TEXT
  5
1F6EC
330
747D
100
AcDbEntity
  8
文字
 48
50.0
100
AcDbText
 10
10071.86642648089
 20
7707.363529387935
 30
0.0
 40
120.0
  1
深サ:200
  7
STYLE1
100
AcDbText
  0
DIMENSION
  5
1F6ED
330
747D
100
AcDbEntity
  8
寸法
 48
50.0
100
AcDbDimension
  2
*D35
 10
10157.84087348511
 20
5399.999999999993
 30
0.0
 11
10157.84087348511
 21
5499.999999999993
 31
0.0
 70
   160
 71
     5
 42
200.0
  3
INABA_S40G
100
AcDbAlignedDimension
 13
9639.599999999999
 23
5599.999999999993
 33
0.0
 14
9639.600000000001
 24
5399.999999999993
 34
0.0
 50
90.0
100
AcDbRotatedDimension
1001
ACAD
1000
DSTYLE
1002
{
1070
   174
1070
     0
1070
   272
1070
     1
1070
   288
1070
     0
1070
   341
1005
0
1002
}
  0
DIMENSION
  5
1F6EE
330
747D
100
AcDbEntity
  8
寸法
 48
50.0
100
AcDbDimension
  2
*D34
 10
9439.6
 20
4926.16892615646
 30
0.0
 11
9539.6
 21
4926.16892615646
 31
0.0
 70
   160
 71
     5
 42
200.0
  3
INABA_S40G
100
AcDbAlignedDimension
 13
9639.600000000001
 23
5399.999999999993
 33
0.0
 14
9439.6
 24
5399.999999999993
 34
0.0
100
AcDbRotatedDimension
1001
ACAD
1000
DSTYLE
1002
{
1070
   174
1070
     0
1070
   272
1070
     1
1070
   288
1070
     0
1070
   341
1005
0
1002
}
  0
LINE
  5
1FF69
330
747D
100
AcDbEntity
  8
部品1
 48
50.0
100
AcDbLine
 10
7713.600000000006
 20
6041.0
 30
0.0
 11
7713.600000000003
 21
6431.0
 31
0.0
  0
LINE
  5
1FF6A
330
747D
100
AcDbEntity
  8
部品1
 48
50.0
100
AcDbLine
 10
7713.600000000003
 20
6041.0
 30
0.0
 11
7713.600000000003
 21
6431.0
 31
0.0
  0
LINE
  5
1FF6B
330
747D
100
AcDbEntity
  8
部品1
 48
50.0
100
AcDbLine
 10
7903.600000000003
 20
6041.0
 30
0.0
 11
7903.600000000003
 21
6431.0
 31
0.0
  0
LINE
  5
1FF6C
330
747D
100
AcDbEntity
  8
部品1
 48
50.0
100
AcDbLine
 10
7903.600000000003
 20
6431.0
 30
0.0
 11
7713.600000000003
 21
6431.0
 31
0.0
  0
LINE
  5
1FF6D
330
747D
100
AcDbEntity
  8
部品1
 48
50.0
100
AcDbLine
 10
7903.600000000003
 20
6041.0
 30
0.0
 11
7713.600000000003
 21
6041.0
 31
0.0
  0
LINE
  5
1FF6E
330
747D
100
AcDbEntity
  8
部品1
 48
50.0
100
AcDbLine
 10
8733.600000000002
 20
6041.0
 30
0.0
 11
8543.600000000003
 21
6041.0
 31
0.0
  0
LINE
  5
1FF6F
330
747D
100
AcDbEntity
  8
部品1
 48
50.0
100
AcDbLine
 10
8733.600000000002
 20
6431.0
 30
0.0
 11
8543.600000000003
 21
6431.0
 31
0.0
  0
LINE
  5
1FF70
330
747D
100
AcDbEntity
  8
部品1
 48
50.0
100
AcDbLine
 10
8733.600000000002
 20
6041.0
 30
0.0
 11
8733.600000000002
 21
6431.0
 31
0.0
  0
LINE
  5
1FF71
330
747D
100
AcDbEntity
  8
部品1
 48
50.0
100
AcDbLine
 10
8543.600000000003
 20
6041.0
 30
0.0
 11
8543.600000000003
 21
6431.0
 31
0.0
  0
LINE
  5
1FF72
330
747D
100
AcDbEntity
  8
部品1
 48
50.0
100
AcDbLine
 10
8543.600000000006
 20
6041.0
 30
0.0
 11
8543.600000000003
 21
6431.0
 31
0.0
  0
LINE
  5
1FF7B
330
747D
100
AcDbEntity
  8
部品1
 48
50.0
100
AcDbLine
 10
8543.600000000013
 20
6780.999999999996
 30
0.0
 11
8543.60000000001
 21
7170.999999999996
 31
0.0
  0
LINE
  5
1FF7C
330
747D
100
AcDbEntity
  8
部品1
 48
50.0
100
AcDbLine
 10
8543.60000000001
 20
6780.999999999996
 30
0.0
 11
8543.60000000001
 21
7170.999999999996
 31
0.0
  0
LINE
  5
1FF7D
330
747D
100
AcDbEntity
  8
部品1
 48
50.0
100
AcDbLine
 10
8733.600000000009
 20
6780.999999999996
 30
0.0
 11
8733.600000000009
 21
7170.999999999996
 31
0.0
  0
LINE
  5
1FF7E
330
747D
100
AcDbEntity
  8
部品1
 48
50.0
100
AcDbLine
 10
8733.600000000009
 20
7170.999999999996
 30
0.0
 11
8543.60000000001
 21
7170.999999999996
 31
0.0
  0
LINE
  5
1FF7F
330
747D
100
AcDbEntity
  8
部品1
 48
50.0
100
AcDbLine
 10
8733.600000000009
 20
6780.999999999996
 30
0.0
 11
8543.60000000001
 21
6780.999999999996
 31
0.0
  0
LINE
  5
1FF88
330
747D
100
AcDbEntity
  8
部品1
 48
50.0
100
AcDbLine
 10
7903.60000000001
 20
6780.999999999996
 30
0.0
 11
7713.60000000001
 21
6780.999999999996
 31
0.0
  0
LINE
  5
1FF89
330
747D
100
AcDbEntity
  8
部品1
 48
50.0
100
AcDbLine
 10
7903.60000000001
 20
7170.999999999996
 30
0.0
 11
7713.60000000001
 21
7170.999999999996
 31
0.0
  0
LINE
  5
1FF8A
330
747D
100
AcDbEntity
  8
部品1
 48
50.0
100
AcDbLine
 10
7903.60000000001
 20
6780.999999999996
 30
0.0
 11
7903.60000000001
 21
7170.999999999996
 31
0.0
  0
LINE
  5
1FF8B
330
747D
100
AcDbEntity
  8
部品1
 48
50.0
100
AcDbLine
 10
7713.60000000001
 20
6780.999999999996
 30
0.0
 11
7713.60000000001
 21
7170.999999999996
 31
0.0
  0
LINE
  5
1FF8C
330
747D
100
AcDbEntity
  8
部品1
 48
50.0
100
AcDbLine
 10
7713.600000000013
 20
6780.999999999996
 30
0.0
 11
7713.60000000001
 21
7170.999999999996
 31
0.0
  0
LINE
  5
1FF9E
330
747D
100
AcDbEntity
  8
部品1
 48
50.0
100
AcDbLine
 10
7297.6
 20
5690.0
 30
0.0
 11
7297.6
 21
5500.0
 31
0.0
  0
LINE
  5
1FF9F
330
747D
100
AcDbEntity
  8
部品1
 48
50.0
100
AcDbLine
 10
6907.599999999999
 20
5690.0
 30
0.0
 11
6907.599999999999
 21
5500.0
 31
0.0
  0
LINE
  5
1FFA0
330
747D
100
AcDbEntity
  8
部品1
 48
50.0
100
AcDbLine
 10
6907.599999999999
 20
5500.000000000003
 30
0.0
 11
7297.6
 21
5500.0
 31
0.0
  0
LINE
  5
1FFA1
330
747D
100
AcDbEntity
  8
部品1
 48
50.0
100
AcDbLine
 10
6907.599999999999
 20
5500.0
 30
0.0
 11
7297.6
 21
5500.0
 31
0.0
  0
LINE
  5
1FFA2
330
747D
100
AcDbEntity
  8
部品1
 48
50.0
100
AcDbLine
 10
6907.599999999999
 20
5690.0
 30
0.0
 11
7297.6
 21
5690.0
 31
0.0
  0
LINE
  5
1FFC5
330
747D
100
AcDbEntity
  8
寸法
 62
     0
 48
50.0
100
AcDbLine
 10
6907.599999999998
 20
6511.000000000001
 30
0.0
 11
7097.599999999999
 21
6511.000000000001
 31
0.0
  0
LINE
  5
1FFC6
330
747D
100
AcDbEntity
  8
寸法
 62
     0
 48
50.0
100
AcDbLine
 10
6907.599999999998
 20
6701.0
 30
0.0
 11
7097.599999999999
 21
6701.0
 31
0.0
  0
LINE
  5
1FFC7
330
747D
100
AcDbEntity
  8
部品1
 48
50.0
100
AcDbLine
 10
7097.599999999999
 20
6511.000000000001
 30
0.0
 11
7097.599999999999
 21
6701.0
 31
0.0
  0
LINE
  5
1FFC8
330
747D
100
AcDbEntity
  8
部品1
 48
50.0
100
AcDbLine
 10
6907.599999999999
 20
6511.0
 30
0.0
 11
6907.599999999999
 21
6701.0
 31
0.0
  0
LINE
  5
1FFC9
330
747D
100
AcDbEntity
  8
寸法
 62
     0
 48
50.0
100
AcDbLine
 10
9349.599999999997
 20
6701.0
 30
0.0
 11
9349.599999999997
 21
6511.000000000001
 31
0.0
  0
LINE
  5
1FFCA
330
747D
100
AcDbEntity
  8
部品1
 48
50.0
100
AcDbLine
 10
9539.599999999998
 20
6511.000000000001
 30
0.0
 11
9539.599999999998
 21
6701.0
 31
0.0
  0
LINE
  5
1FFCB
330
747D
100
AcDbEntity
  8
寸法
 62
     0
 48
50.0
100
AcDbLine
 10
9349.599999999997
 20
6701.0
 30
0.0
 11
9539.599999999998
 21
6701.0
 31
0.0
  0
LINE
  5
1FFCC
330
747D
100
AcDbEntity
  8
寸法
 62
     0
 48
50.0
100
AcDbLine
 10
9349.599999999997
 20
6511.000000000001
 30
0.0
 11
9539.599999999998
 21
6511.000000000001
 31
0.0
  0
LINE
  5
20168
330
747D
100
AcDbEntity
  8
部品1
 48
50.0
100
AcDbLine
 10
4644.597527473985
 20
2120.0
 30
0.0
 11
11044.59752747398
 21
2120.0
 31
0.0
  0
LINE
  5
20169
330
747D
100
AcDbEntity
  8
部品1
 48
50.0
100
AcDbLine
 10
11044.59752747398
 20
2360.0
 30
0.0
 11
6244.597527473985
 21
2360.0
 31
0.0
  0
LINE
  5
2016A
330
747D
100
AcDbEntity
  8
部品1
 48
50.0
100
AcDbLine
 10
11044.59752747398
 20
2600.0
 30
0.0
 11
4644.597527473985
 21
2600.000000000002
 31
0.0
  0
LINE
  5
2016B
330
747D
100
AcDbEntity
  8
部品1
 48
50.0
100
AcDbLine
 10
4644.597527473985
 20
200.0
 30
0.0
 11
11044.59752747398
 21
200.0
 31
0.0
  0
TEXT
  5
2016C
330
747D
100
AcDbEntity
  8
部品1
100
AcDbText
 10
7898.324843852677
 20
2414.063814602734
 30
0.0
 40
120.0
  1
アンカー部詳細
  7
STYLE2
100
AcDbText
  0
LINE
  5
2016D
330
747D
100
AcDbEntity
  8
細線
100
AcDbLine
 10
5440.084036508777
 20
1040.760787611754
 30
0.0
 11
5540.084036508773
 21
1140.760787611756
 31
0.0
  0
LINE
  5
2016E
330
747D
100
AcDbEntity
  8
細線
100
AcDbLine
 10
5515.513485887367
 20
1140.760787611756
 30
0.0
 11
5315.51348588737
 21
1340.760787611754
 31
0.0
  0
LEADER
  5
2016F
330
747D
100
AcDbEntity
  8
寸法
 48
50.0
100
AcDbLeader
  3
INABA_S50G
 71
     0
 73
     0
 74
     0
 75
     1
 40
120.0
 41
185.591883092037
 76
     3
 10
5369.471278048211
 20
1340.760787611754
 30
0.0
 10
5524.734860619388
 20
1553.612705420522
 30
0.0
 10
5649.734860619388
 20
1553.612705420522
 30
0.0
340
20170
213
67.73172584638814
223
0.0
233
0.0
1001
ACAD
1000
DSTYLE
1002
{
1070
    40
1040
1.0
1002
}
  0
MTEXT
  5
20170
102
{ACAD_REACTORS
330
2016F
102
}
330
747D
100
AcDbEntity
  8
寸法
 62
     7
 48
50.0
100
AcDbMText
 10
5607.003134773
 20
1638.612705420522
 30
0.0
 40
120.0
 41
1.0
 71
     4
 72
     1
  1
\A1;C.B
  7
STYLE1
 73
     1
 44
1.0
1001
ACAD
1000
MTEXTBEGIN
1070
    73
1070
     1
1070
    44
1040
1.0
1070
    74
1070
     0
1000
MTEXTEND
  0
TEXT
  5
20171
330
747D
100
AcDbEntity
  8
部品1
100
AcDbText
 10
5110.197548478783
 20
2307.972217178321
 30
0.0
 40
120.0
  1
基礎詳細
  7
STYLE2
100
AcDbText
  0
LINE
  5
20172
330
747D
100
AcDbEntity
  8
細線
100
AcDbLine
 10
5557.939892758559
 20
1140.760787611756
 30
0.0
 11
5357.939892758563
 21
1340.760787611754
 31
0.0
  0
LINE
  5
20173
330
747D
100
AcDbEntity
  8
Ｇ．Ｌ
100
AcDbLine
 10
4739.370272002886
 20
1140.760787611756
 30
0.0
 11
6170.263555826046
 21
1140.760787611756
 31
0.0
  0
LINE
  5
20174
330
747D
100
AcDbEntity
  8
部品1
100
AcDbLine
 10
5169.471278048213
 20
1340.760787611754
 30
0.0
 11
5569.47127804821
 21
1340.760787611754
 31
0.0
  0
LINE
  5
20175
330
747D
100
AcDbEntity
  8
部品1
100
AcDbLine
 10
5069.47127804821
 20
1040.760787611753
 30
0.0
 11
5669.471278048209
 21
1040.760787611754
 31
0.0
  0
LINE
  5
20176
330
747D
100
AcDbEntity
  8
部品1
100
AcDbLine
 10
5069.47127804821
 20
840.7607876117507
 30
0.0
 11
5669.471278048209
 21
840.7607876117545
 31
0.0
  0
LINE
  5
20177
330
747D
100
AcDbEntity
  8
部品1
 48
50.0
100
AcDbLine
 10
4644.597527473985
 20
2600.0
 30
0.0
 11
4644.597527473985
 21
200.0
 31
0.0
  0
LINE
  5
20178
330
747D
100
AcDbEntity
  8
細線
100
AcDbLine
 10
5169.471278048213
 20
1040.760787611753
 30
0.0
 11
5223.061116534433
 21
840.760787611749
 31
0.0
  0
LINE
  5
20179
330
747D
100
AcDbEntity
  8
細線
100
AcDbLine
 10
5269.47127804821
 20
1040.760787611754
 30
0.0
 11
5323.061116534432
 21
840.7607876117507
 31
0.0
  0
LINE
  5
2017A
330
747D
100
AcDbEntity
  8
細線
100
AcDbLine
 10
5369.47127804821
 20
1040.760787611754
 30
0.0
 11
5423.061116534436
 21
840.7607876117507
 31
0.0
  0
LINE
  5
2017B
330
747D
100
AcDbEntity
  8
細線
100
AcDbLine
 10
5069.47127804821
 20
1040.760787611753
 30
0.0
 11
5123.061116534437
 21
840.760787611749
 31
0.0
  0
LINE
  5
2017C
330
747D
100
AcDbEntity
  8
部品1
100
AcDbLine
 10
5069.47127804821
 20
840.7607876117507
 30
0.0
 11
5069.47127804821
 21
1140.760787611756
 31
0.0
  0
LINE
  5
2017D
330
747D
100
AcDbEntity
  8
細線
100
AcDbLine
 10
5209.66365691288
 20
890.7607876117527
 30
0.0
 11
5196.266197291321
 21
840.7607876117507
 31
0.0
  0
LINE
  5
2017E
330
747D
100
AcDbEntity
  8
細線
100
AcDbLine
 10
5109.663656912877
 20
890.7607876117527
 30
0.0
 11
5096.266197291321
 21
840.7607876117507
 31
0.0
  0
LINE
  5
2017F
330
747D
100
AcDbEntity
  8
細線
100
AcDbLine
 10
5309.663656912877
 20
890.7607876117545
 30
0.0
 11
5296.266197291324
 21
840.7607876117545
 31
0.0
  0
LINE
  5
20180
330
747D
100
AcDbEntity
  8
細線
100
AcDbLine
 10
5409.663656912877
 20
890.7607876117545
 30
0.0
 11
5396.266197291321
 21
840.7607876117545
 31
0.0
  0
LINE
  5
20181
330
747D
100
AcDbEntity
  8
部品1
100
AcDbLine
 10
5169.471278048213
 20
1140.760787611756
 30
0.0
 11
5169.471278048213
 21
1340.760787611754
 31
0.0
  0
LINE
  5
20182
330
747D
100
AcDbEntity
  8
細線
100
AcDbLine
 10
5331.665722778865
 20
1140.760787611756
 30
0.0
 11
5169.471278048209
 21
1302.955232342408
 31
0.0
  0
LINE
  5
20183
330
747D
100
AcDbEntity
  8
細線
100
AcDbLine
 10
5196.652579003703
 20
1040.760787611754
 30
0.0
 11
5296.6525790037
 21
1140.760787611756
 31
0.0
  0
LINE
  5
20184
330
747D
100
AcDbEntity
  8
細線
100
AcDbLine
 10
5289.239315907673
 20
1140.760787611756
 30
0.0
 11
5169.471278048213
 21
1260.528825471216
 31
0.0
  0
LINE
  5
20185
330
747D
100
AcDbEntity
  8
細線
100
AcDbLine
 10
5168.36830775624
 20
1040.760787611754
 30
0.0
 11
5268.368307756237
 21
1140.760787611756
 31
0.0
  0
LINE
  5
20186
330
747D
100
AcDbEntity
  8
細線
100
AcDbLine
 10
5140.084036508778
 20
1040.760787611753
 30
0.0
 11
5240.084036508777
 21
1140.760787611756
 31
0.0
  0
LINE
  5
20187
330
747D
100
AcDbEntity
  8
細線
100
AcDbLine
 10
5196.266197291321
 20
1040.760787611753
 30
0.0
 11
5182.868737669765
 21
990.7607876117507
 31
0.0
  0
LINE
  5
20188
330
747D
100
AcDbEntity
  8
細線
100
AcDbLine
 10
5096.266197291321
 20
1040.760787611753
 30
0.0
 11
5082.86873766977
 21
990.7607876117507
 31
0.0
  0
LINE
  5
20189
330
747D
100
AcDbEntity
  8
細線
100
AcDbLine
 10
5296.266197291324
 20
1040.760787611754
 30
0.0
 11
5282.868737669765
 21
990.7607876117562
 31
0.0
  0
LINE
  5
2018A
330
747D
100
AcDbEntity
  8
細線
100
AcDbLine
 10
5396.266197291321
 20
1040.760787611754
 30
0.0
 11
5382.868737669769
 21
990.7607876117562
 31
0.0
  0
LINE
  5
2018B
330
747D
100
AcDbEntity
  8
細線
 48
50.0
100
AcDbLine
 10
6482.305229737185
 20
1940.760787611752
 30
0.0
 11
6482.305229737185
 21
1440.760787611754
 31
0.0
  0
LINE
  5
2018C
330
747D
100
AcDbEntity
  8
細線
 48
50.0
100
AcDbLine
 10
6512.305229737186
 20
1940.760787611752
 30
0.0
 11
6512.305229737186
 21
1440.760787611754
 31
0.0
  0
LINE
  5
2018D
330
747D
100
AcDbEntity
  8
細線
 48
50.0
100
AcDbLine
 10
6792.305229737185
 20
1940.760787611752
 30
0.0
 11
6792.305229737185
 21
1440.760787611754
 31
0.0
  0
LINE
  5
2018E
330
747D
100
AcDbEntity
  8
細線
 48
50.0
100
AcDbLine
 10
6762.305229737186
 20
1940.760787611752
 30
0.0
 11
6762.305229737186
 21
1440.760787611754
 31
0.0
  0
LINE
  5
2018F
330
747D
100
AcDbEntity
  8
部品1
 48
50.0
100
AcDbLine
 10
7844.597527473985
 20
2360.0
 30
0.0
 11
7844.597527473985
 21
200.0
 31
0.0
  0
LINE
  5
20190
330
747D
100
AcDbEntity
  8
部品1
 48
50.0
100
AcDbLine
 10
6244.597527473985
 20
2600.0
 30
0.0
 11
6244.597527473985
 21
200.0
 31
0.0
  0
LINE
  5
20191
330
747D
100
AcDbEntity
  8
部品1
100
AcDbLine
 10
7027.305229737184
 20
1940.760787611752
 30
0.0
 11
7027.305229737184
 21
1140.760787611754
 31
0.0
  0
LINE
  5
20192
330
747D
100
AcDbEntity
  8
部品1
100
AcDbLine
 10
6917.305229737185
 20
1940.760787611752
 30
0.0
 11
6917.305229737188
 21
1434.760787611756
 31
0.0
  0
LINE
  5
20193
330
747D
100
AcDbEntity
  8
部品1
100
AcDbLine
 10
6312.050796493592
 20
1434.760787611754
 30
0.0
 11
7027.305229737184
 21
1434.760787611754
 31
0.0
  0
DIMENSION
  5
20194
330
747D
100
AcDbEntity
  8
寸法
 48
50.0
100
AcDbDimension
  2
*D36
 10
6533.975482661656
 20
740.7607876117545
 30
0.0
 11
6533.975482661656
 21
928.3854207276599
 31
0.0
 70
   160
  1
200
 71
     5
 42
399.9999999999999
  3
INABA_S40G
100
AcDbAlignedDimension
 13
6627.305229737185
 23
1140.760787611754
 33
0.0
 14
6777.305229737184
 24
740.7607876117545
 34
0.0
 50
90.0
100
AcDbRotatedDimension
1001
ACAD
1000
DSTYLE
1002
{
1070
   174
1070
     0
1070
   272
1070
     1
1070
   288
1070
     0
1070
   341
1005
0
1002
}
  0
LINE
  5
20195
330
747D
100
AcDbEntity
  8
Ｇ．Ｌ
100
AcDbLine
 10
6312.050796493592
 20
1140.760787611754
 30
0.0
 11
6947.305229737185
 21
1140.760787611754
 31
0.0
  0
LINE
  5
20196
330
747D
100
AcDbEntity
  8
部品1
100
AcDbLine
 10
6312.050796493592
 20
1340.760787611754
 30
0.0
 11
6947.305229737185
 21
1340.760787611754
 31
0.0
  0
LINE
  5
20197
330
747D
100
AcDbEntity
  8
部品1
100
AcDbLine
 10
6312.050796493592
 20
1440.760787611756
 30
0.0
 11
6917.305229737185
 21
1440.760787611754
 31
0.0
  0
LINE
  5
20198
330
747D
100
AcDbEntity
  8
細線
100
AcDbLine
 10
5569.47127804821
 20
1040.760787611754
 30
0.0
 11
5623.061116534433
 21
840.7607876117545
 31
0.0
  0
LINE
  5
20199
330
747D
100
AcDbEntity
  8
細線
100
AcDbLine
 10
5469.471278048214
 20
1040.760787611754
 30
0.0
 11
5523.061116534432
 21
840.7607876117507
 31
0.0
  0
LINE
  5
2019A
330
747D
100
AcDbEntity
  8
部品1
100
AcDbLine
 10
5669.471278048209
 20
1140.760787611756
 30
0.0
 11
5669.471278048209
 21
840.7607876117545
 31
0.0
  0
LINE
  5
2019B
330
747D
100
AcDbEntity
  8
細線
100
AcDbLine
 10
5609.663656912877
 20
890.7607876117545
 30
0.0
 11
5596.266197291324
 21
840.7607876117545
 31
0.0
  0
LINE
  5
2019C
330
747D
100
AcDbEntity
  8
細線
100
AcDbLine
 10
5509.663656912881
 20
890.7607876117545
 30
0.0
 11
5496.266197291321
 21
840.7607876117545
 31
0.0
  0
TEXT
  5
2019D
330
747D
100
AcDbEntity
  8
部品1
100
AcDbText
 10
5792.723903915639
 20
1148.66682929066
 30
0.0
 40
120.0
  1
▽G.L
  7
STYLE1
100
AcDbText
  0
LINE
  5
2019E
330
747D
100
AcDbEntity
  8
部品1
100
AcDbLine
 10
5569.47127804821
 20
1340.760787611754
 30
0.0
 11
5569.47127804821
 21
1140.760787611756
 31
0.0
  0
LINE
  5
2019F
330
747D
100
AcDbEntity
  8
細線
100
AcDbLine
 10
5496.6525790037
 20
1040.760787611754
 30
0.0
 11
5596.652579003699
 21
1140.760787611756
 31
0.0
  0
LINE
  5
201A0
330
747D
100
AcDbEntity
  8
細線
100
AcDbLine
 10
5468.368307756239
 20
1040.760787611754
 30
0.0
 11
5568.368307756236
 21
1140.760787611756
 31
0.0
  0
LINE
  5
201A1
330
747D
100
AcDbEntity
  8
細線
100
AcDbLine
 10
5596.266197291324
 20
1040.760787611754
 30
0.0
 11
5582.868737669765
 21
990.7607876117562
 31
0.0
  0
LINE
  5
201A2
330
747D
100
AcDbEntity
  8
細線
100
AcDbLine
 10
5496.266197291321
 20
1040.760787611754
 30
0.0
 11
5482.868737669765
 21
990.7607876117562
 31
0.0
  0
TEXT
  5
201A3
330
747D
100
AcDbEntity
  8
部品1
100
AcDbText
 10
7411.868776806795
 20
1148.666829290658
 30
0.0
 40
120.0
  1
▽G.L
  7
STYLE1
100
AcDbText
  0
LINE
  5
201A4
330
747D
100
AcDbEntity
  8
細線
  6
HIDDEN
 48
10.0
100
AcDbLine
 10
7062.031958639142
 20
740.7607876117562
 30
0.0
 11
7177.305229737185
 21
856.0340587098036
 31
0.0
  0
LINE
  5
201A5
330
747D
100
AcDbEntity
  8
細線
  6
HIDDEN
 48
10.0
100
AcDbLine
 10
7033.74768739168
 20
740.7607876117554
 30
0.0
 11
7177.305229737185
 21
884.3183299572638
 31
0.0
  0
LINE
  5
201A6
330
747D
100
AcDbEntity
  8
細線
  6
HIDDEN
 48
10.0
100
AcDbLine
 10
7090.316229886603
 20
740.7607876117562
 30
0.0
 11
7177.305229737185
 21
827.7497874623396
 31
0.0
  0
LINE
  5
201A7
330
747D
100
AcDbEntity
  8
Ｇ．Ｌ
100
AcDbLine
 10
7027.305229737184
 20
1140.760787611754
 30
0.0
 11
7779.401471975524
 21
1140.760787611754
 31
0.0
  0
LINE
  5
201A8
330
747D
100
AcDbEntity
  8
細線
  6
HIDDEN
 48
10.0
100
AcDbLine
 10
6777.305229737186
 20
882.6924475626292
 30
0.0
 11
6940.567555690418
 21
1045.954773515872
 31
0.0
  0
LINE
  5
201A9
330
747D
100
AcDbEntity
  8
細線
  6
HIDDEN
 48
10.0
100
AcDbLine
 10
6777.305229737184
 20
910.9767188100905
 30
0.0
 11
6943.784455887023
 21
1077.455944959931
 31
0.0
  0
LINE
  5
201AA
330
747D
100
AcDbEntity
  8
細線
  6
HIDDEN
 48
10.0
100
AcDbLine
 10
6777.305229737186
 20
854.408176315168
 30
0.0
 11
6937.350655493808
 21
1014.453602071808
 31
0.0
  0
LINE
  5
201AB
330
747D
100
AcDbEntity
  8
部品1
100
AcDbLine
 10
6946.408460729116
 20
1103.151248310656
 30
0.0
 11
6917.305229737185
 21
818.160787611754
 31
0.0
  0
LINE
  5
201AC
330
747D
100
AcDbEntity
  8
部品1
100
AcDbLine
 10
7028.201998745259
 20
1103.151248310656
 30
0.0
 11
7057.305229737186
 21
818.160787611754
 31
0.0
  0
LINE
  5
201AD
330
747D
100
AcDbEntity
  8
部品1
100
AcDbLine
 10
6917.305229737185
 20
818.160787611754
 30
0.0
 11
7057.305229737186
 21
818.160787611754
 31
0.0
  0
LINE
  5
201AE
330
747D
100
AcDbEntity
  8
部品1
100
AcDbLine
 10
6917.305229737185
 20
806.1607876117541
 30
0.0
 11
7057.305229737186
 21
806.1607876117541
 31
0.0
  0
LINE
  5
201AF
330
747D
100
AcDbEntity
  8
部品1
100
AcDbLine
 10
6917.305229737185
 20
818.1607876117523
 30
0.0
 11
6917.305229737185
 21
806.1607876117541
 31
0.0
  0
LINE
  5
201B0
330
747D
100
AcDbEntity
  8
細線
100
AcDbLine
 10
6972.305229737185
 20
830.1607876117559
 30
0.0
 11
7002.305229737185
 21
830.1607876117524
 31
0.0
  0
LINE
  5
201B1
330
747D
100
AcDbEntity
  8
細線
100
AcDbLine
 10
6972.305229737185
 20
836.160787611756
 30
0.0
 11
7002.305229737185
 21
836.1607876117522
 31
0.0
  0
LINE
  5
201B2
330
747D
100
AcDbEntity
  8
細線
100
AcDbLine
 10
6972.305229737185
 20
876.1607876117578
 30
0.0
 11
7002.305229737185
 21
876.1607876117523
 31
0.0
  0
LINE
  5
201B3
330
747D
100
AcDbEntity
  8
細線
100
AcDbLine
 10
6972.305229737185
 20
870.1607876117577
 30
0.0
 11
7002.305229737185
 21
870.1607876117522
 31
0.0
  0
LINE
  5
201B4
330
747D
100
AcDbEntity
  8
細線
100
AcDbLine
 10
6972.305229737185
 20
836.160787611756
 30
0.0
 11
6972.305229737185
 21
830.1607876117524
 31
0.0
  0
LINE
  5
201B5
330
747D
100
AcDbEntity
  8
細線
100
AcDbLine
 10
6972.305229737185
 20
876.1607876117578
 30
0.0
 11
6972.305229737185
 21
870.1607876117522
 31
0.0
  0
LINE
  5
201B6
330
747D
100
AcDbEntity
  8
細線
100
AcDbLine
 10
7002.305229737185
 20
836.1607876117505
 30
0.0
 11
7002.305229737185
 21
830.1607876117504
 31
0.0
  0
LINE
  5
201B7
330
747D
100
AcDbEntity
  8
細線
100
AcDbLine
 10
7002.305229737185
 20
876.1607876117487
 30
0.0
 11
7002.305229737185
 21
870.1607876117487
 31
0.0
  0
LINE
  5
201B8
330
747D
100
AcDbEntity
  8
部品1
100
AcDbLine
 10
7057.305229737186
 20
818.160787611754
 30
0.0
 11
7057.305229737186
 21
806.1607876117541
 31
0.0
  0
LINE
  5
201B9
330
747D
100
AcDbEntity
  8
細線
100
AcDbLine
 10
6755.759899300575
 20
1140.760787611754
 30
0.0
 11
6627.305229737185
 21
1269.215457175147
 31
0.0
  0
LINE
  5
201BA
330
747D
100
AcDbEntity
  8
細線
100
AcDbLine
 10
6939.607662409081
 20
1140.760787611754
 30
0.0
 11
6739.607662409079
 21
1340.760787611754
 31
0.0
  0
LINE
  5
201BB
330
747D
100
AcDbEntity
  8
部品1
100
AcDbLine
 10
6627.305229737185
 20
1140.760787611754
 30
0.0
 11
6627.305229737185
 21
1340.760787611754
 31
0.0
  0
LINE
  5
201BC
330
747D
100
AcDbEntity
  8
細線
100
AcDbLine
 10
6713.333492429383
 20
1140.760787611754
 30
0.0
 11
6627.305229737185
 21
1226.789050303954
 31
0.0
  0
LINE
  5
201BD
330
747D
100
AcDbEntity
  8
細線
100
AcDbLine
 10
6947.305229737185
 20
1175.489627154842
 30
0.0
 11
6782.034069280273
 21
1340.760787611754
 31
0.0
  0
LINE
  5
201BE
330
747D
100
AcDbEntity
  8
部品1
100
AcDbLine
 10
7027.305229737184
 20
1403.760787611754
 30
0.0
 11
7027.305229737189
 21
1106.406256599763
 31
0.0
  0
LINE
  5
201BF
330
747D
100
AcDbEntity
  8
部品1
100
AcDbLine
 10
6947.305229737185
 20
1404.760787611754
 30
0.0
 11
6947.305229737185
 21
1106.406256599763
 31
0.0
  0
LINE
  5
201C0
330
747D
100
AcDbEntity
  8
部品1
100
AcDbLine
 10
6956.35928921743
 20
1112.160787611754
 30
0.0
 11
7018.251170256942
 21
1112.160787611748
 31
0.0
  0
ARC
  5
201C1
330
747D
100
AcDbEntity
  8
部品1
100
AcDbCircle
 10
6956.35928921743
 20
1102.160787611752
 30
0.0
 40
10.0
100
AcDbArc
 50
90.0
 51
174.3157584018092
  0
LINE
  5
201C2
330
747D
100
AcDbEntity
  8
細線
  6
HIDDEN
 48
10.0
100
AcDbLine
 10
7027.305229737184
 20
1132.692447562642
 30
0.0
 11
7035.3735697863
 21
1140.760787611754
 31
0.0
  0
LINE
  5
201C3
330
747D
100
AcDbEntity
  8
細線
  6
HIDDEN
 48
10.0
100
AcDbLine
 10
7027.852675394074
 20
1104.955621972072
 30
0.0
 11
7063.657841033755
 21
1140.760787611756
 31
0.0
  0
ARC
  5
201C4
330
747D
100
AcDbEntity
  8
部品1
100
AcDbCircle
 10
7018.251170256942
 20
1102.160787611748
 30
0.0
 40
10.0
100
AcDbArc
 50
5.684241598190771
 51
90.0
  0
CIRCLE
  5
201C5
330
747D
100
AcDbEntity
  8
細線
100
AcDbCircle
 10
6987.305229737185
 20
1244.760787611756
 30
0.0
 40
6.0
  0
CIRCLE
  5
201C6
330
747D
100
AcDbEntity
  8
細線
100
AcDbCircle
 10
6987.305229737185
 20
1244.760787611756
 30
0.0
 40
7.0
  0
CIRCLE
  5
201C7
330
747D
100
AcDbEntity
  8
細線
100
AcDbCircle
 10
6987.305229737185
 20
1089.760787611754
 30
0.0
 40
16.0
  0
LINE
  5
201C8
330
747D
100
AcDbEntity
  8
細線
100
AcDbLine
 10
6972.305229737185
 20
1020.160787611756
 30
0.0
 11
6973.305229737185
 21
1020.160787611756
 31
0.0
  0
LINE
  5
201C9
330
747D
100
AcDbEntity
  8
細線
100
AcDbLine
 10
6972.305229737185
 20
1026.160787611756
 30
0.0
 11
7002.305229737185
 21
1026.160787611752
 31
0.0
  0
ARC
  5
201CA
330
747D
100
AcDbEntity
  8
細線
100
AcDbCircle
 10
6987.305229737185
 20
1050.16078761175
 30
0.0
 40
8.0
100
AcDbArc
 50
180.0
 51
0.0
  0
LINE
  5
201CB
330
747D
100
AcDbEntity
  8
細線
100
AcDbLine
 10
6972.305229737185
 20
1026.160787611756
 30
0.0
 11
6972.305229737185
 21
1020.160787611752
 31
0.0
  0
LINE
  5
201CC
330
747D
100
AcDbEntity
  8
細線
100
AcDbLine
 10
6972.305229737185
 20
1024.760787611749
 30
0.0
 11
7002.305229737185
 21
1024.760787611754
 31
0.0
  0
LINE
  5
201CD
330
747D
100
AcDbEntity
  8
細線
100
AcDbLine
 10
6979.428335362808
 20
1008.160787611745
 30
0.0
 11
6995.182124111571
 21
1008.16078761175
 31
0.0
  0
LINE
  5
201CE
330
747D
100
AcDbEntity
  8
細線
100
AcDbLine
 10
6973.305229737185
 20
1024.760787611749
 30
0.0
 11
6973.305229737185
 21
1020.160787611752
 31
0.0
  0
LINE
  5
201CF
330
747D
100
AcDbEntity
  8
細線
100
AcDbLine
 10
6973.305229737185
 20
1020.16078761175
 30
0.0
 11
6975.547765362223
 21
1011.190645111601
 31
0.0
  0
ARC
  5
201D0
330
747D
100
AcDbEntity
  8
細線
100
AcDbCircle
 10
6979.428335362808
 20
1012.160787611747
 30
0.0
 40
4.0
100
AcDbArc
 50
194.0362434679644
 51
270.0
  0
LINE
  5
201D1
330
747D
100
AcDbEntity
  8
細線
100
AcDbLine
 10
7001.305229737186
 20
1024.760787611751
 30
0.0
 11
7001.305229737186
 21
1020.160787611752
 31
0.0
  0
LINE
  5
201D2
330
747D
100
AcDbEntity
  8
細線
100
AcDbLine
 10
7001.305229737186
 20
1020.16078761175
 30
0.0
 11
6999.062694112146
 21
1011.190645111601
 31
0.0
  0
ARC
  5
201D3
330
747D
100
AcDbEntity
  8
細線
100
AcDbCircle
 10
6995.182124111571
 20
1012.160787611748
 30
0.0
 40
4.0
100
AcDbArc
 50
270.0
 51
345.9637565320356
  0
LINE
  5
201D4
330
747D
100
AcDbEntity
  8
細線
100
AcDbLine
 10
7002.305229737185
 20
1026.16078761175
 30
0.0
 11
7002.305229737185
 21
1020.16078761175
 31
0.0
  0
LINE
  5
201D5
330
747D
100
AcDbEntity
  8
細線
100
AcDbLine
 10
7001.305229737186
 20
1020.160787611756
 30
0.0
 11
7002.305229737185
 21
1020.160787611752
 31
0.0
  0
LINE
  5
201D6
330
747D
100
AcDbEntity
  8
細線
100
AcDbLine
 10
6995.305229737185
 20
1075.904381151204
 30
0.0
 11
6995.305229737185
 21
1050.16078761175
 31
0.0
  0
LINE
  5
201D7
330
747D
100
AcDbEntity
  8
細線
100
AcDbLine
 10
6979.305229737185
 20
1075.904381151204
 30
0.0
 11
6979.305229737185
 21
1050.16078761175
 31
0.0
  0
LINE
  5
201D8
330
747D
100
AcDbEntity
  8
部品1
100
AcDbLine
 10
6957.305229737186
 20
1414.760787611754
 30
0.0
 11
7017.305229737186
 21
1414.760787611754
 31
0.0
  0
ARC
  5
201D9
330
747D
100
AcDbEntity
  8
部品1
100
AcDbCircle
 10
6957.305229737186
 20
1404.760787611754
 30
0.0
 40
10.0
100
AcDbArc
 50
90.0
 51
180.0
  0
ARC
  5
201DA
330
747D
100
AcDbEntity
  8
細線
100
AcDbCircle
 10
6987.305229737185
 20
1354.760787611754
 30
0.0
 40
8.0
100
AcDbArc
 50
0.0
 51
180.0
  0
ARC
  5
201DB
330
747D
100
AcDbEntity
  8
細線
100
AcDbCircle
 10
6987.305229737185
 20
1314.760787611754
 30
0.0
 40
8.0
100
AcDbArc
 50
180.0
 51
0.0
  0
LINE
  5
201DC
330
747D
100
AcDbEntity
  8
細線
100
AcDbLine
 10
6979.305229737185
 20
1354.760787611754
 30
0.0
 11
6979.305229737185
 21
1314.760787611754
 31
0.0
  0
LINE
  5
201DD
330
747D
100
AcDbEntity
  8
細線
100
AcDbLine
 10
6995.305229737185
 20
1354.760787611754
 30
0.0
 11
6995.305229737185
 21
1314.760787611754
 31
0.0
  0
ARC
  5
201DE
330
747D
100
AcDbEntity
  8
部品1
100
AcDbCircle
 10
7017.305229737186
 20
1404.760787611754
 30
0.0
 40
10.0
100
AcDbArc
 50
0.0
 51
90.0
  0
CIRCLE
  5
201DF
330
747D
100
AcDbEntity
  8
部品1
100
AcDbCircle
 10
6987.305229737185
 20
1384.760787611754
 30
0.0
 40
16.0
  0
TEXT
  5
201E0
330
747D
100
AcDbEntity
  8
部品1
100
AcDbText
 10
6456.750888912555
 20
2178.285116341204
 30
0.0
 40
120.0
  1
地盤が土の場合
  7
STYLE2
100
AcDbText
  0
TEXT
  5
201E1
330
747D
100
AcDbEntity
  8
部品1
100
AcDbText
 10
10590.76357011505
 20
1148.666829290658
 30
0.0
 40
120.0
  1
▽G.L
  7
STYLE1
100
AcDbText
  0
LINE
  5
201E2
330
747D
100
AcDbEntity
  8
細線
 48
10.0
100
AcDbLine
 10
10611.48502510191
 20
833.8425902724702
 30
0.0
 11
10918.40322244119
 21
1140.760787611754
 31
0.0
  0
LINE
  5
201E3
330
747D
100
AcDbEntity
  8
細線
 48
10.0
100
AcDbLine
 10
10583.20075385444
 20
833.8425902724702
 30
0.0
 11
10890.11895119372
 21
1140.760787611754
 31
0.0
  0
LINE
  5
201E4
330
747D
100
AcDbEntity
  8
細線
 48
10.0
100
AcDbLine
 10
10554.91648260699
 20
833.8425902724702
 30
0.0
 11
10861.83467994627
 21
1140.760787611754
 31
0.0
  0
LINE
  5
201E5
330
747D
100
AcDbEntity
  8
Ｇ．Ｌ
100
AcDbLine
 10
9517.895938664558
 20
1140.760787611754
 30
0.0
 11
10962.7876406697
 21
1140.760787611754
 31
0.0
  0
LINE
  5
201E6
330
747D
100
AcDbEntity
  8
部品1
100
AcDbLine
 10
10030.69333546327
 20
2040.760787611753
 30
0.0
 11
10030.69333546327
 21
1534.760787611756
 31
0.0
  0
LINE
  5
201E7
330
747D
100
AcDbEntity
  8
部品1
100
AcDbLine
 10
10140.69333546327
 20
2040.760787611753
 30
0.0
 11
10140.69333546327
 21
1541.006256599761
 31
0.0
  0
LINE
  5
201E8
330
747D
100
AcDbEntity
  8
細線
 48
50.0
100
AcDbLine
 10
9595.693335463264
 20
2040.760787611753
 30
0.0
 11
9595.693335463264
 21
1540.760787611756
 31
0.0
  0
LINE
  5
201E9
330
747D
100
AcDbEntity
  8
細線
 48
50.0
100
AcDbLine
 10
9625.693335463267
 20
2040.760787611753
 30
0.0
 11
9625.693335463267
 21
1540.760787611756
 31
0.0
  0
LINE
  5
201EA
330
747D
100
AcDbEntity
  8
細線
 48
50.0
100
AcDbLine
 10
9875.693335463267
 20
2040.760787611753
 30
0.0
 11
9875.693335463267
 21
1540.760787611756
 31
0.0
  0
LINE
  5
201EB
330
747D
100
AcDbEntity
  8
細線
 48
50.0
100
AcDbLine
 10
9905.693335463267
 20
2040.760787611753
 30
0.0
 11
9905.693335463267
 21
1540.760787611756
 31
0.0
  0
LINE
  5
201EC
330
747D
100
AcDbEntity
  8
部品1
100
AcDbLine
 10
8520.360730750288
 20
1940.760787611754
 30
0.0
 11
8520.360730750292
 21
1434.760787611758
 31
0.0
  0
LINE
  5
201ED
330
747D
100
AcDbEntity
  8
細線
 48
50.0
100
AcDbLine
 10
8395.360730750285
 20
1940.760787611754
 30
0.0
 11
8395.360730750285
 21
1440.760787611756
 31
0.0
  0
LINE
  5
201EE
330
747D
100
AcDbEntity
  8
細線
 48
50.0
100
AcDbLine
 10
8365.360730750284
 20
1940.760787611754
 30
0.0
 11
8365.360730750284
 21
1440.760787611756
 31
0.0
  0
LINE
  5
201EF
330
747D
100
AcDbEntity
  8
細線
 48
50.0
100
AcDbLine
 10
8115.360730750284
 20
1940.760787611754
 30
0.0
 11
8115.360730750284
 21
1440.760787611756
 31
0.0
  0
LINE
  5
201F0
330
747D
100
AcDbEntity
  8
細線
 48
50.0
100
AcDbLine
 10
8085.360730750284
 20
1940.760787611754
 30
0.0
 11
8085.360730750284
 21
1440.760787611756
 31
0.0
  0
LINE
  5
201F1
330
747D
100
AcDbEntity
  8
部品1
100
AcDbLine
 10
8630.360730750288
 20
1940.760787611754
 30
0.0
 11
8630.360730750291
 21
1441.006256599761
 31
0.0
  0
LINE
  5
201F2
330
747D
100
AcDbEntity
  8
部品1
 48
50.0
100
AcDbLine
 10
9444.597527473986
 20
2120.0
 30
0.0
 11
9444.597527473986
 21
200.0
 31
0.0
  0
LINE
  5
201F3
330
747D
100
AcDbEntity
  8
細線
 48
10.0
100
AcDbLine
 10
8527.496594480673
 20
833.8425902724702
 30
0.0
 11
8834.414791819947
 21
1140.760787611754
 31
0.0
  0
LINE
  5
201F4
330
747D
100
AcDbEntity
  8
細線
 48
10.0
100
AcDbLine
 10
8499.212323233214
 20
833.8425902724702
 30
0.0
 11
8806.130520572487
 21
1140.760787611754
 31
0.0
  0
LINE
  5
201F5
330
747D
100
AcDbEntity
  8
細線
 48
10.0
100
AcDbLine
 10
8555.780865728136
 20
833.8425902724702
 30
0.0
 11
8862.699063067415
 21
1140.760787611754
 31
0.0
  0
DIMENSION
  5
201F6
330
747D
100
AcDbEntity
  8
寸法
 48
50.0
100
AcDbDimension
  2
*D37
 10
8863.124741318694
 20
1140.760787611754
 30
0.0
 11
8763.124741318694
 21
1240.760787611757
 31
0.0
 70
    32
  1
b
 71
     5
 42
200.0000000000018
  3
INABA_S40G
100
AcDbAlignedDimension
 13
8640.911493855794
 23
1340.760787611756
 33
0.0
 14
8660.360730750284
 24
1140.760787611754
 34
0.0
 50
90.0
100
AcDbRotatedDimension
1001
ACAD
1000
DSTYLE
1002
{
1070
   174
1070
     0
1070
   272
1070
     1
1070
   288
1070
     0
1070
   341
1005
0
1002
}
  0
LINE
  5
201F7
330
747D
100
AcDbEntity
  8
Ｇ．Ｌ
100
AcDbLine
 10
7915.106297506695
 20
1140.760787611754
 30
0.0
 11
9379.141536270976
 21
1140.760787611754
 31
0.0
  0
LINE
  5
201F8
330
747D
100
AcDbEntity
  8
細線
 48
10.0
100
AcDbLine
 10
8100.838205627852
 20
833.8425902724702
 30
0.0
 11
8407.756402967121
 21
1140.760787611754
 31
0.0
  0
LINE
  5
201F9
330
747D
100
AcDbEntity
  8
細線
 48
10.0
100
AcDbLine
 10
8072.553934380389
 20
833.8425902724702
 30
0.0
 11
8379.472131719666
 21
1140.760787611754
 31
0.0
  0
LINE
  5
201FA
330
747D
100
AcDbEntity
  8
細線
 48
10.0
100
AcDbLine
 10
8129.122476875313
 20
833.8425902724702
 30
0.0
 11
8436.040674214574
 21
1140.760787611754
 31
0.0
  0
LINE
  5
201FB
330
747D
100
AcDbEntity
  8
部品1
100
AcDbLine
 10
7915.106297506691
 20
1340.760787611756
 30
0.0
 11
8539.559294144529
 21
1340.760787611756
 31
0.0
  0
LINE
  5
201FC
330
747D
100
AcDbEntity
  8
部品1
100
AcDbLine
 10
7915.106297506691
 20
1440.760787611758
 30
0.0
 11
8520.360730750288
 21
1440.760787611756
 31
0.0
  0
LINE
  5
201FD
330
747D
100
AcDbEntity
  8
部品1
100
AcDbLine
 10
7915.106297506691
 20
1434.760787611758
 30
0.0
 11
8549.15857584165
 21
1434.760787611758
 31
0.0
  0
LINE
  5
201FE
330
747D
100
AcDbEntity
  8
細線
100
AcDbLine
 10
8316.388993442483
 20
1140.760787611754
 30
0.0
 11
8230.360730750284
 21
1226.789050303954
 31
0.0
  0
LINE
  5
201FF
330
747D
100
AcDbEntity
  8
細線
100
AcDbLine
 10
8358.815400313675
 20
1140.760787611754
 30
0.0
 11
8230.360730750284
 21
1269.215457175147
 31
0.0
  0
LINE
  5
20200
330
747D
100
AcDbEntity
  8
部品1
100
AcDbLine
 10
8230.360730750284
 20
1140.760787611754
 30
0.0
 11
8230.360730750284
 21
1340.760787611756
 31
0.0
  0
LINE
  5
20201
330
747D
100
AcDbEntity
  8
細線
 48
10.0
100
AcDbLine
 10
7915.106297506691
 20
1103.05334225162
 30
0.0
 11
7952.813742866829
 21
1140.760787611754
 31
0.0
  0
LINE
  5
20202
330
747D
100
AcDbEntity
  8
細線
 48
10.0
100
AcDbLine
 10
7915.106297506695
 20
1046.484799756705
 30
0.0
 11
8009.382285361732
 21
1140.760787611754
 31
0.0
  0
LINE
  5
20203
330
747D
100
AcDbEntity
  8
細線
 48
10.0
100
AcDbLine
 10
7915.106297506695
 20
1074.769071004164
 30
0.0
 11
7981.09801411428
 21
1140.760787611754
 31
0.0
  0
LINE
  5
20204
330
747D
100
AcDbEntity
  8
細線
100
AcDbLine
 10
8521.315331513566
 20
1162.10861952037
 30
0.0
 11
8342.663163422178
 21
1340.760787611754
 31
0.0
  0
LINE
  5
20205
330
747D
100
AcDbEntity
  8
細線
100
AcDbLine
 10
8525.246469107203
 20
1200.603888797927
 30
0.0
 11
8385.089570293372
 21
1340.760787611754
 31
0.0
  0
LINE
  5
20206
330
747D
100
AcDbEntity
  8
部品1
100
AcDbLine
 10
8631.25749975836
 20
1437.751248310656
 30
0.0
 11
8660.360730750284
 21
1152.760787611754
 31
0.0
  0
LINE
  5
20207
330
747D
100
AcDbEntity
  8
部品1
100
AcDbLine
 10
8549.463961742217
 20
1437.751248310656
 30
0.0
 11
8520.360730750285
 21
1152.760787611754
 31
0.0
  0
LINE
  5
20208
330
747D
100
AcDbEntity
  8
部品1
100
AcDbLine
 10
8520.360730750285
 20
1152.760787611754
 30
0.0
 11
8660.360730750284
 21
1152.760787611754
 31
0.0
  0
LINE
  5
20209
330
747D
100
AcDbEntity
  8
部品1
100
AcDbLine
 10
8520.360730750285
 20
1140.760787611754
 30
0.0
 11
8660.360730750284
 21
1140.760787611754
 31
0.0
  0
LINE
  5
2020A
330
747D
100
AcDbEntity
  8
部品1
100
AcDbLine
 10
8520.360730750285
 20
1152.760787611754
 30
0.0
 11
8520.360730750285
 21
1140.760787611754
 31
0.0
  0
LINE
  5
2020B
330
747D
100
AcDbEntity
  8
部品1
100
AcDbLine
 10
8575.360730750285
 20
1207.160787611758
 30
0.0
 11
8605.360730750284
 21
1207.160787611758
 31
0.0
  0
LINE
  5
2020C
330
747D
100
AcDbEntity
  8
部品1
100
AcDbLine
 10
8575.360730750285
 20
1213.160787611758
 30
0.0
 11
8605.360730750284
 21
1213.160787611758
 31
0.0
  0
LINE
  5
2020D
330
747D
100
AcDbEntity
  8
部品1
100
AcDbLine
 10
8575.360730750285
 20
1173.160787611758
 30
0.0
 11
8580.360730750284
 21
1173.160787611758
 31
0.0
  0
LINE
  5
2020E
330
747D
100
AcDbEntity
  8
部品1
100
AcDbLine
 10
8575.360730750285
 20
1213.160787611758
 30
0.0
 11
8575.360730750285
 21
1207.160787611758
 31
0.0
  0
LINE
  5
2020F
330
747D
100
AcDbEntity
  8
部品1
100
AcDbLine
 10
8575.360730750285
 20
1173.160787611758
 30
0.0
 11
8575.360730750285
 21
1171.760787611756
 31
0.0
  0
LINE
  5
20210
330
747D
100
AcDbEntity
  8
部品1
100
AcDbLine
 10
8660.360730750284
 20
1152.760787611754
 30
0.0
 11
8660.360730750284
 21
1140.760787611754
 31
0.0
  0
LINE
  5
20211
330
747D
100
AcDbEntity
  8
部品1
100
AcDbLine
 10
8605.360730750284
 20
1213.160787611754
 30
0.0
 11
8605.360730750284
 21
1207.160787611754
 31
0.0
  0
LINE
  5
20212
330
747D
100
AcDbEntity
  8
部品1
100
AcDbLine
 10
8605.360730750284
 20
1173.160787611752
 30
0.0
 11
8605.360730750284
 21
1171.760787611756
 31
0.0
  0
LINE
  5
20213
330
747D
100
AcDbEntity
  8
部品1
100
AcDbLine
 10
8560.360730750284
 20
1155.760787611754
 30
0.0
 11
8620.360730750284
 21
1155.76078761176
 31
0.0
  0
LINE
  5
20214
330
747D
100
AcDbEntity
  8
部品1
100
AcDbLine
 10
8580.360730750284
 20
1192.760787611756
 30
0.0
 11
8600.360730750285
 21
1192.760787611756
 31
0.0
  0
LINE
  5
20215
330
747D
100
AcDbEntity
  8
部品1
100
AcDbLine
 10
8580.360730750284
 20
1155.760787611754
 30
0.0
 11
8580.360730750284
 21
1192.760787611756
 31
0.0
  0
LINE
  5
20216
330
747D
100
AcDbEntity
  8
部品1
100
AcDbLine
 10
8600.360730750285
 20
1155.760787611754
 30
0.0
 11
8600.360730750285
 21
1192.760787611756
 31
0.0
  0
LINE
  5
20217
330
747D
100
AcDbEntity
  8
部品1
100
AcDbLine
 10
8573.360730750286
 20
1171.760787611756
 30
0.0
 11
8607.360730750285
 21
1171.760787611756
 31
0.0
  0
LINE
  5
20218
330
747D
100
AcDbEntity
  8
部品1
100
AcDbLine
 10
8570.360730750286
 20
1155.760787611754
 30
0.0
 11
8570.360730750286
 21
1168.760787611756
 31
0.0
  0
LINE
  5
20219
330
747D
100
AcDbEntity
  8
部品1
100
AcDbLine
 10
8610.360730750285
 20
1155.76078761176
 30
0.0
 11
8610.360730750285
 21
1168.760787611756
 31
0.0
  0
LINE
  5
2021A
330
747D
100
AcDbEntity
  8
部品1
100
AcDbLine
 10
8573.360730750286
 20
1171.760787611756
 30
0.0
 11
8570.360730750286
 21
1168.760787611756
 31
0.0
  0
LINE
  5
2021B
330
747D
100
AcDbEntity
  8
部品1
100
AcDbLine
 10
8607.360730750285
 20
1171.760787611756
 30
0.0
 11
8610.360730750285
 21
1168.760787611756
 31
0.0
  0
LINE
  5
2021C
330
747D
100
AcDbEntity
  8
部品1
100
AcDbLine
 10
8560.360730750284
 20
1152.760787611754
 30
0.0
 11
8560.360730750284
 21
1155.760787611754
 31
0.0
  0
LINE
  5
2021D
330
747D
100
AcDbEntity
  8
部品1
100
AcDbLine
 10
8620.360730750284
 20
1152.760787611754
 30
0.0
 11
8620.360730750284
 21
1155.760787611763
 31
0.0
  0
LINE
  5
2021E
330
747D
100
AcDbEntity
  8
部品1
100
AcDbLine
 10
8600.360730750285
 20
1173.160787611758
 30
0.0
 11
8605.360730750284
 21
1173.160787611758
 31
0.0
  0
LINE
  5
2021F
330
747D
100
AcDbEntity
  8
部品1
100
AcDbLine
 10
8570.360730750286
 20
1168.760787611756
 30
0.0
 11
8610.360730750285
 21
1168.760787611756
 31
0.0
  0
ARC
  5
20220
330
747D
100
AcDbEntity
  8
部品1
100
AcDbCircle
 10
8575.360730750285
 20
1164.246032821438
 30
0.0
 40
6.736691384996243
100
AcDbArc
 50
42.08048849858703
 51
137.9195115014129
  0
ARC
  5
20221
330
747D
100
AcDbEntity
  8
部品1
100
AcDbCircle
 10
8605.360730750284
 20
1164.246032821438
 30
0.0
 40
6.736691384996243
100
AcDbArc
 50
42.08048849858703
 51
137.9195115014129
  0
ARC
  5
20222
330
747D
100
AcDbEntity
  8
部品1
100
AcDbCircle
 10
8590.360730750283
 20
1147.672154390937
 30
0.0
 40
23.33946124318486
100
AcDbArc
 50
64.63020194521864
 51
115.3697980547813
  0
LINE
  5
20223
330
747D
100
AcDbEntity
  8
部品1
100
AcDbLine
 10
8583.360730750284
 20
1205.013683635416
 30
0.0
 11
8597.360730750285
 21
1205.013683635416
 31
0.0
  0
LINE
  5
20224
330
747D
100
AcDbEntity
  8
部品1
100
AcDbLine
 10
8585.360730750284
 20
1192.760787611756
 30
0.0
 11
8585.360730750284
 21
1201.013683635416
 31
0.0
  0
LINE
  5
20225
330
747D
100
AcDbEntity
  8
部品1
100
AcDbLine
 10
8595.360730750284
 20
1192.760787611756
 30
0.0
 11
8595.360730750284
 21
1201.013683635416
 31
0.0
  0
LINE
  5
20226
330
747D
100
AcDbEntity
  8
部品1
100
AcDbLine
 10
8583.360730750284
 20
1201.013683635416
 30
0.0
 11
8583.360730750284
 21
1205.013683635416
 31
0.0
  0
LINE
  5
20227
330
747D
100
AcDbEntity
  8
部品1
100
AcDbLine
 10
8597.360730750285
 20
1201.013683635416
 30
0.0
 11
8597.360730750285
 21
1205.013683635416
 31
0.0
  0
LINE
  5
20228
330
747D
100
AcDbEntity
  8
部品1
100
AcDbLine
 10
8583.360730750284
 20
1201.013683635416
 30
0.0
 11
8597.360730750285
 21
1201.013683635416
 31
0.0
  0
LINE
  5
20229
330
747D
100
AcDbEntity
  8
部品1
100
AcDbLine
 10
8580.360730750284
 20
1140.760787611754
 30
0.0
 11
8580.360730750284
 21
1105.360787611755
 31
0.0
  0
LINE
  5
2022A
330
747D
100
AcDbEntity
  8
部品1
100
AcDbLine
 10
8600.360730750285
 20
1140.760787611754
 30
0.0
 11
8600.360730750285
 21
1105.360787611755
 31
0.0
  0
LINE
  5
2022B
330
747D
100
AcDbEntity
  8
部品1
100
AcDbLine
 10
8588.450230116746
 20
1105.360787611755
 30
0.0
 11
8592.271231383822
 21
1105.360787611755
 31
0.0
  0
LINE
  5
2022C
330
747D
100
AcDbEntity
  8
部品1
100
AcDbLine
 10
8580.360730750284
 20
1105.360787611755
 30
0.0
 11
8574.360730750283
 21
1065.360787611755
 31
0.0
  0
LINE
  5
2022D
330
747D
100
AcDbEntity
  8
部品1
100
AcDbLine
 10
8606.360730750285
 20
1065.360787611755
 30
0.0
 11
8600.360730750285
 21
1105.360787611755
 31
0.0
  0
LINE
  5
2022E
330
747D
100
AcDbEntity
  8
部品1
100
AcDbLine
 10
8588.450230116746
 20
1105.360787611755
 30
0.0
 11
8582.27222157323
 21
1064.174063988315
 31
0.0
  0
LINE
  5
2022F
330
747D
100
AcDbEntity
  8
部品1
100
AcDbLine
 10
8598.449239927338
 20
1064.174063988315
 30
0.0
 11
8592.271231383822
 21
1105.360787611755
 31
0.0
  0
LINE
  5
20230
330
747D
100
AcDbEntity
  8
部品1
100
AcDbLine
 10
8574.360730750283
 20
1065.360787611755
 30
0.0
 11
8582.27222157323
 21
1064.174063988315
 31
0.0
  0
LINE
  5
20231
330
747D
100
AcDbEntity
  8
部品1
100
AcDbLine
 10
8598.449239927338
 20
1064.174063988315
 30
0.0
 11
8606.360730750285
 21
1065.360787611755
 31
0.0
  0
LINE
  5
20232
330
747D
100
AcDbEntity
  8
部品1
100
AcDbLine
 10
8575.250773467868
 20
1071.294405728964
 30
0.0
 11
8583.162264290812
 21
1070.107682105521
 31
0.0
  0
LINE
  5
20233
330
747D
100
AcDbEntity
  8
部品1
100
AcDbLine
 10
8576.140816185443
 20
1077.228023846173
 30
0.0
 11
8584.05230700839
 21
1076.04130022273
 31
0.0
  0
LINE
  5
20234
330
747D
100
AcDbEntity
  8
部品1
100
AcDbLine
 10
8577.030858903027
 20
1083.161641963381
 30
0.0
 11
8584.942349725972
 21
1081.97491833994
 31
0.0
  0
LINE
  5
20235
330
747D
100
AcDbEntity
  8
部品1
100
AcDbLine
 10
8577.920901620609
 20
1089.095260080592
 30
0.0
 11
8585.832392443554
 21
1087.908536457153
 31
0.0
  0
LINE
  5
20236
330
747D
100
AcDbEntity
  8
部品1
100
AcDbLine
 10
8578.810944338185
 20
1095.028878197801
 30
0.0
 11
8586.722435161131
 21
1093.842154574358
 31
0.0
  0
LINE
  5
20237
330
747D
100
AcDbEntity
  8
部品1
100
AcDbLine
 10
8579.700987055769
 20
1100.962496315011
 30
0.0
 11
8587.612477878714
 21
1099.775772691568
 31
0.0
  0
LINE
  5
20238
330
747D
100
AcDbEntity
  8
部品1
100
AcDbLine
 10
8597.559197209756
 20
1070.107682105521
 30
0.0
 11
8605.470688032708
 21
1071.294405728964
 31
0.0
  0
LINE
  5
20239
330
747D
100
AcDbEntity
  8
部品1
100
AcDbLine
 10
8596.669154492181
 20
1076.04130022273
 30
0.0
 11
8604.580645315126
 21
1077.228023846173
 31
0.0
  0
LINE
  5
2023A
330
747D
100
AcDbEntity
  8
部品1
100
AcDbLine
 10
8595.779111774596
 20
1081.97491833994
 30
0.0
 11
8603.690602597543
 21
1083.161641963381
 31
0.0
  0
LINE
  5
2023B
330
747D
100
AcDbEntity
  8
部品1
100
AcDbLine
 10
8594.889069057021
 20
1087.908536457153
 30
0.0
 11
8602.800559879966
 21
1089.095260080592
 31
0.0
  0
LINE
  5
2023C
330
747D
100
AcDbEntity
  8
部品1
100
AcDbLine
 10
8593.999026339437
 20
1093.842154574358
 30
0.0
 11
8601.910517162384
 21
1095.028878197801
 31
0.0
  0
LINE
  5
2023D
330
747D
100
AcDbEntity
  8
部品1
100
AcDbLine
 10
8593.108983621855
 20
1099.775772691568
 30
0.0
 11
8601.0204744448
 21
1100.962496315011
 31
0.0
  0
ARC
  5
2023E
330
747D
100
AcDbEntity
  8
部品1
100
AcDbCircle
 10
8559.414790230528
 20
1436.760787611756
 30
0.0
 40
10.0
100
AcDbArc
 50
90.0
 51
174.3157584018092
  0
CIRCLE
  5
2023F
330
747D
100
AcDbEntity
  8
部品1
100
AcDbCircle
 10
8590.360730750283
 20
1384.760787611754
 30
0.0
 40
16.0
  0
LINE
  5
20240
330
747D
100
AcDbEntity
  8
細線
100
AcDbLine
 10
8575.360730750285
 20
1360.760787611756
 30
0.0
 11
8605.360730750284
 21
1360.760787611756
 31
0.0
  0
LINE
  5
20241
330
747D
100
AcDbEntity
  8
細線
100
AcDbLine
 10
8582.360730750284
 20
1424.760787611752
 30
0.0
 11
8582.360730750284
 21
1398.617194072307
 31
0.0
  0
LINE
  5
20242
330
747D
100
AcDbEntity
  8
細線
100
AcDbLine
 10
8598.360730750284
 20
1424.760787611752
 30
0.0
 11
8598.360730750284
 21
1398.617194072307
 31
0.0
  0
ARC
  5
20243
330
747D
100
AcDbEntity
  8
細線
100
AcDbCircle
 10
8590.360730750283
 20
1424.760787611752
 30
0.0
 40
8.0
100
AcDbArc
 50
0.0
 51
180.0
  0
LINE
  5
20244
330
747D
100
AcDbEntity
  8
部品1
100
AcDbLine
 10
8559.414790230528
 20
1446.760787611754
 30
0.0
 11
8621.306671270041
 21
1446.760787611752
 31
0.0
  0
ARC
  5
20245
330
747D
100
AcDbEntity
  8
部品1
100
AcDbCircle
 10
8621.306671270041
 20
1436.760787611753
 30
0.0
 40
10.0
100
AcDbArc
 50
5.684241598190771
 51
90.0
  0
LINE
  5
20246
330
747D
100
AcDbEntity
  8
細線
100
AcDbLine
 10
8575.360730750285
 20
1354.760787611756
 30
0.0
 11
8605.360730750284
 21
1354.760787611756
 31
0.0
  0
LINE
  5
20247
330
747D
100
AcDbEntity
  8
細線
100
AcDbLine
 10
8575.360730750285
 20
1360.760787611756
 30
0.0
 11
8575.360730750285
 21
1354.760787611756
 31
0.0
  0
LINE
  5
20248
330
747D
100
AcDbEntity
  8
細線
100
AcDbLine
 10
8605.360730750284
 20
1360.760787611751
 30
0.0
 11
8605.360730750284
 21
1354.760787611751
 31
0.0
  0
LINE
  5
20249
330
747D
100
AcDbEntity
  8
細線
 48
10.0
100
AcDbLine
 10
8982.439254580956
 20
833.8425902724702
 30
0.0
 11
9289.357451920231
 21
1140.760787611754
 31
0.0
  0
LINE
  5
2024A
330
747D
100
AcDbEntity
  8
細線
 48
10.0
100
AcDbLine
 10
8954.154983333493
 20
833.8425902724702
 30
0.0
 11
9261.073180672765
 21
1140.760787611754
 31
0.0
  0
LINE
  5
2024B
330
747D
100
AcDbEntity
  8
細線
 48
10.0
100
AcDbLine
 10
8925.87071208603
 20
833.8425902724702
 30
0.0
 11
9232.788909425307
 21
1140.760787611754
 31
0.0
  0
TEXT
  5
2024C
330
747D
100
AcDbEntity
  8
部品1
100
AcDbText
 10
9004.849934018659
 20
1148.666829290658
 30
0.0
 40
120.0
  1
▽G.L
  7
STYLE1
100
AcDbText
  0
LINE
  5
2024D
330
747D
100
AcDbEntity
  8
部品1
100
AcDbLine
 10
9517.895938664558
 20
1440.760787611754
 30
0.0
 11
10060.5822435536
 21
1440.760787611756
 31
0.0
  0
LINE
  5
2024E
330
747D
100
AcDbEntity
  8
部品1
100
AcDbLine
 10
9517.895938664558
 20
1540.760787611756
 30
0.0
 11
10030.69333546327
 21
1540.760787611756
 31
0.0
  0
LINE
  5
2024F
330
747D
100
AcDbEntity
  8
部品1
100
AcDbLine
 10
9517.895938664558
 20
1534.760787611756
 30
0.0
 11
10060.69333546327
 21
1534.760787611756
 31
0.0
  0
LINE
  5
20250
330
747D
100
AcDbEntity
  8
細線
100
AcDbLine
 10
10031.64793622655
 20
1162.10861952037
 30
0.0
 11
9752.995768135161
 21
1440.760787611754
 31
0.0
  0
LINE
  5
20251
330
747D
100
AcDbEntity
  8
細線
100
AcDbLine
 10
10035.57907382018
 20
1200.603888797927
 30
0.0
 11
9795.422175006354
 21
1440.760787611754
 31
0.0
  0
LINE
  5
20252
330
747D
100
AcDbEntity
  8
細線
 48
10.0
100
AcDbLine
 10
9701.599704901347
 20
833.8425902724702
 30
0.0
 11
10008.51790224062
 21
1140.760787611756
 31
0.0
  0
LINE
  5
20253
330
747D
100
AcDbEntity
  8
細線
 48
10.0
100
AcDbLine
 10
9729.883976148805
 20
833.8425902724702
 30
0.0
 11
10036.80217348807
 21
1140.760787611754
 31
0.0
  0
LINE
  5
20254
330
747D
100
AcDbEntity
  8
細線
 48
10.0
100
AcDbLine
 10
9758.16824739627
 20
833.8425902724702
 30
0.0
 11
10065.08644473553
 21
1140.760787611754
 31
0.0
  0
LINE
  5
20255
330
747D
100
AcDbEntity
  8
細線
 48
10.0
100
AcDbLine
 10
9517.895938664556
 20
1020.228670393613
 30
0.0
 11
9638.428055882689
 21
1140.760787611754
 31
0.0
  0
LINE
  5
20256
330
747D
100
AcDbEntity
  8
細線
 48
10.0
100
AcDbLine
 10
9517.89593866456
 20
1048.512941641072
 30
0.0
 11
9610.143784635237
 21
1140.760787611754
 31
0.0
  0
LINE
  5
20257
330
747D
100
AcDbEntity
  8
細線
 48
10.0
100
AcDbLine
 10
9517.895938664558
 20
1076.797212888527
 30
0.0
 11
9581.859513387785
 21
1140.760787611754
 31
0.0
  0
LINE
  5
20258
330
747D
100
AcDbEntity
  8
部品1
100
AcDbLine
 10
9740.693335463266
 20
1140.760787611751
 30
0.0
 11
9740.693335463266
 21
1440.760787611754
 31
0.0
  0
LINE
  5
20259
330
747D
100
AcDbEntity
  8
細線
100
AcDbLine
 10
9869.148005026657
 20
1140.760787611754
 30
0.0
 11
9740.693335463266
 21
1269.215457175147
 31
0.0
  0
LINE
  5
2025A
330
747D
100
AcDbEntity
  8
細線
100
AcDbLine
 10
9826.721598155465
 20
1140.760787611754
 30
0.0
 11
9740.693335463266
 21
1226.789050303954
 31
0.0
  0
LINE
  5
2025B
330
747D
100
AcDbEntity
  8
細線
 48
10.0
100
AcDbLine
 10
10184.82663624908
 20
833.8425902724702
 30
0.0
 11
10491.74483358837
 21
1140.760787611756
 31
0.0
  0
LINE
  5
2025C
330
747D
100
AcDbEntity
  8
細線
 48
10.0
100
AcDbLine
 10
10156.54236500163
 20
833.8425902724702
 30
0.0
 11
10463.4605623409
 21
1140.760787611754
 31
0.0
  0
LINE
  5
2025D
330
747D
100
AcDbEntity
  8
細線
 48
10.0
100
AcDbLine
 10
10128.25809375417
 20
833.8425902724702
 30
0.0
 11
10435.17629109344
 21
1140.760787611754
 31
0.0
  0
DIMENSION
  5
2025E
330
747D
100
AcDbEntity
  8
寸法
 48
50.0
100
AcDbDimension
  2
*D38
 10
10343.43998109005
 20
1140.760787611754
 30
0.0
 11
10243.43998109005
 21
1290.760787611756
 31
0.0
 70
    32
  1
c
 71
     5
 42
300.0
  3
INABA_S40G
100
AcDbAlignedDimension
 13
10140.80442737293
 23
1440.760787611754
 33
0.0
 14
10170.69333546326
 24
1140.760787611754
 34
0.0
 50
90.0
100
AcDbRotatedDimension
1001
ACAD
1000
DSTYLE
1002
{
1070
   174
1070
     0
1070
   272
1070
     1
1070
   288
1070
     0
1070
   341
1005
0
1002
}
  0
LINE
  5
2025F
330
747D
100
AcDbEntity
  8
部品1
100
AcDbLine
 10
10059.79656645519
 20
1437.751248310655
 30
0.0
 11
10030.69333546326
 21
1152.760787611754
 31
0.0
  0
LINE
  5
20260
330
747D
100
AcDbEntity
  8
部品1
100
AcDbLine
 10
10141.59010447134
 20
1437.751248310655
 30
0.0
 11
10170.69333546326
 21
1152.760787611754
 31
0.0
  0
LINE
  5
20261
330
747D
100
AcDbEntity
  8
部品1
100
AcDbLine
 10
10030.69333546326
 20
1152.760787611754
 30
0.0
 11
10170.69333546326
 21
1152.760787611754
 31
0.0
  0
LINE
  5
20262
330
747D
100
AcDbEntity
  8
部品1
100
AcDbLine
 10
10030.69333546326
 20
1140.760787611754
 30
0.0
 11
10170.69333546326
 21
1140.760787611754
 31
0.0
  0
LINE
  5
20263
330
747D
100
AcDbEntity
  8
部品1
100
AcDbLine
 10
10108.78184464032
 20
1064.174063988313
 30
0.0
 11
10102.6038360968
 21
1105.360787611753
 31
0.0
  0
LINE
  5
20264
330
747D
100
AcDbEntity
  8
部品1
100
AcDbLine
 10
10098.78283482973
 20
1105.360787611753
 30
0.0
 11
10092.60482628621
 21
1064.174063988313
 31
0.0
  0
LINE
  5
20265
330
747D
100
AcDbEntity
  8
部品1
100
AcDbLine
 10
10116.69333546326
 20
1065.360787611753
 30
0.0
 11
10110.69333546326
 21
1105.360787611753
 31
0.0
  0
LINE
  5
20266
330
747D
100
AcDbEntity
  8
部品1
100
AcDbLine
 10
10090.69333546326
 20
1105.360787611753
 30
0.0
 11
10084.69333546326
 21
1065.360787611753
 31
0.0
  0
LINE
  5
20267
330
747D
100
AcDbEntity
  8
部品1
100
AcDbLine
 10
10107.00175920516
 20
1076.041300222729
 30
0.0
 11
10114.91325002811
 21
1077.228023846172
 31
0.0
  0
LINE
  5
20268
330
747D
100
AcDbEntity
  8
部品1
100
AcDbLine
 10
10107.89180192273
 20
1070.107682105521
 30
0.0
 11
10115.80329274568
 21
1071.294405728964
 31
0.0
  0
LINE
  5
20269
330
747D
100
AcDbEntity
  8
部品1
100
AcDbLine
 10
10086.47342089842
 20
1077.228023846172
 30
0.0
 11
10094.38491172137
 21
1076.041300222729
 31
0.0
  0
LINE
  5
2026A
330
747D
100
AcDbEntity
  8
部品1
100
AcDbLine
 10
10085.58337818085
 20
1071.294405728964
 30
0.0
 11
10093.49486900379
 21
1070.107682105521
 31
0.0
  0
LINE
  5
2026B
330
747D
100
AcDbEntity
  8
部品1
100
AcDbLine
 10
10108.78184464032
 20
1064.174063988313
 30
0.0
 11
10116.69333546326
 21
1065.360787611753
 31
0.0
  0
LINE
  5
2026C
330
747D
100
AcDbEntity
  8
部品1
100
AcDbLine
 10
10084.69333546326
 20
1065.360787611753
 30
0.0
 11
10092.60482628621
 21
1064.174063988313
 31
0.0
  0
LINE
  5
2026D
330
747D
100
AcDbEntity
  8
部品1
100
AcDbLine
 10
10030.69333546326
 20
1152.760787611754
 30
0.0
 11
10030.69333546326
 21
1140.760787611754
 31
0.0
  0
LINE
  5
2026E
330
747D
100
AcDbEntity
  8
部品1
100
AcDbLine
 10
10085.69333546326
 20
1207.160787611756
 30
0.0
 11
10115.69333546326
 21
1207.160787611756
 31
0.0
  0
LINE
  5
2026F
330
747D
100
AcDbEntity
  8
部品1
100
AcDbLine
 10
10085.69333546326
 20
1213.160787611756
 30
0.0
 11
10115.69333546326
 21
1213.160787611756
 31
0.0
  0
LINE
  5
20270
330
747D
100
AcDbEntity
  8
部品1
100
AcDbLine
 10
10085.69333546326
 20
1213.160787611756
 30
0.0
 11
10085.69333546326
 21
1207.160787611756
 31
0.0
  0
LINE
  5
20271
330
747D
100
AcDbEntity
  8
部品1
100
AcDbLine
 10
10115.69333546326
 20
1213.160787611752
 30
0.0
 11
10115.69333546326
 21
1207.160787611752
 31
0.0
  0
LINE
  5
20272
330
747D
100
AcDbEntity
  8
部品1
100
AcDbLine
 10
10085.69333546326
 20
1173.160787611756
 30
0.0
 11
10090.69333546326
 21
1173.160787611756
 31
0.0
  0
LINE
  5
20273
330
747D
100
AcDbEntity
  8
部品1
100
AcDbLine
 10
10085.69333546326
 20
1173.160787611756
 30
0.0
 11
10085.69333546326
 21
1171.760787611751
 31
0.0
  0
LINE
  5
20274
330
747D
100
AcDbEntity
  8
部品1
100
AcDbLine
 10
10115.69333546326
 20
1173.160787611752
 30
0.0
 11
10115.69333546326
 21
1171.760787611754
 31
0.0
  0
LINE
  5
20275
330
747D
100
AcDbEntity
  8
部品1
100
AcDbLine
 10
10085.69333546326
 20
1171.760787611754
 30
0.0
 11
10115.69333546326
 21
1171.760787611754
 31
0.0
  0
LINE
  5
20276
330
747D
100
AcDbEntity
  8
部品1
100
AcDbLine
 10
10107.69333546326
 20
1201.013683635414
 30
0.0
 11
10107.69333546326
 21
1205.013683635414
 31
0.0
  0
LINE
  5
20277
330
747D
100
AcDbEntity
  8
部品1
100
AcDbLine
 10
10093.69333546326
 20
1201.013683635414
 30
0.0
 11
10093.69333546326
 21
1205.013683635414
 31
0.0
  0
LINE
  5
20278
330
747D
100
AcDbEntity
  8
部品1
100
AcDbLine
 10
10103.44158833483
 20
1099.775772691566
 30
0.0
 11
10111.35307915778
 21
1100.962496315009
 31
0.0
  0
LINE
  5
20279
330
747D
100
AcDbEntity
  8
部品1
100
AcDbLine
 10
10104.33163105242
 20
1093.842154574358
 30
0.0
 11
10112.24312187536
 21
1095.028878197801
 31
0.0
  0
LINE
  5
2027A
330
747D
100
AcDbEntity
  8
部品1
100
AcDbLine
 10
10105.22167377
 20
1087.908536457151
 30
0.0
 11
10113.13316459295
 21
1089.09526008059
 31
0.0
  0
LINE
  5
2027B
330
747D
100
AcDbEntity
  8
部品1
100
AcDbLine
 10
10106.11171648758
 20
1081.97491833994
 30
0.0
 11
10114.02320731052
 21
1083.161641963379
 31
0.0
  0
LINE
  5
2027C
330
747D
100
AcDbEntity
  8
部品1
100
AcDbLine
 10
10090.03359176875
 20
1100.962496315009
 30
0.0
 11
10097.94508259169
 21
1099.775772691566
 31
0.0
  0
LINE
  5
2027D
330
747D
100
AcDbEntity
  8
部品1
100
AcDbLine
 10
10089.14354905116
 20
1095.028878197801
 30
0.0
 11
10097.05503987411
 21
1093.842154574358
 31
0.0
  0
LINE
  5
2027E
330
747D
100
AcDbEntity
  8
部品1
100
AcDbLine
 10
10088.25350633359
 20
1089.09526008059
 30
0.0
 11
10096.16499715653
 21
1087.908536457151
 31
0.0
  0
LINE
  5
2027F
330
747D
100
AcDbEntity
  8
部品1
100
AcDbLine
 10
10087.36346361601
 20
1083.161641963379
 30
0.0
 11
10095.27495443895
 21
1081.97491833994
 31
0.0
  0
LINE
  5
20280
330
747D
100
AcDbEntity
  8
部品1
100
AcDbLine
 10
10098.78283482973
 20
1105.360787611753
 30
0.0
 11
10102.6038360968
 21
1105.360787611753
 31
0.0
  0
LINE
  5
20281
330
747D
100
AcDbEntity
  8
部品1
100
AcDbLine
 10
10110.69333546326
 20
1140.760787611754
 30
0.0
 11
10110.69333546326
 21
1105.360787611753
 31
0.0
  0
LINE
  5
20282
330
747D
100
AcDbEntity
  8
部品1
100
AcDbLine
 10
10090.69333546326
 20
1140.760787611754
 30
0.0
 11
10090.69333546326
 21
1105.360787611753
 31
0.0
  0
LINE
  5
20283
330
747D
100
AcDbEntity
  8
部品1
100
AcDbLine
 10
10105.69333546326
 20
1192.760787611754
 30
0.0
 11
10105.69333546326
 21
1201.013683635414
 31
0.0
  0
LINE
  5
20284
330
747D
100
AcDbEntity
  8
部品1
100
AcDbLine
 10
10095.69333546326
 20
1192.760787611754
 30
0.0
 11
10095.69333546326
 21
1201.013683635414
 31
0.0
  0
LINE
  5
20285
330
747D
100
AcDbEntity
  8
部品1
100
AcDbLine
 10
10093.69333546326
 20
1201.013683635414
 30
0.0
 11
10107.69333546326
 21
1201.013683635414
 31
0.0
  0
ARC
  5
20286
330
747D
100
AcDbEntity
  8
部品1
100
AcDbCircle
 10
10100.69333546326
 20
1147.672154390937
 30
0.0
 40
23.33946124318486
100
AcDbArc
 50
64.63020194521864
 51
115.3697980547813
  0
ARC
  5
20287
330
747D
100
AcDbEntity
  8
部品1
100
AcDbCircle
 10
10115.69333546326
 20
1164.246032821436
 30
0.0
 40
6.736691384996243
100
AcDbArc
 50
42.08048849858703
 51
137.9195115014129
  0
ARC
  5
20288
330
747D
100
AcDbEntity
  8
部品1
100
AcDbCircle
 10
10085.69333546326
 20
1164.246032821436
 30
0.0
 40
6.736691384996243
100
AcDbArc
 50
42.08048849858703
 51
137.9195115014129
  0
LINE
  5
20289
330
747D
100
AcDbEntity
  8
部品1
100
AcDbLine
 10
10080.69333546326
 20
1168.760787611754
 30
0.0
 11
10120.69333546326
 21
1168.760787611754
 31
0.0
  0
LINE
  5
2028A
330
747D
100
AcDbEntity
  8
部品1
100
AcDbLine
 10
10110.69333546326
 20
1173.160787611756
 30
0.0
 11
10115.69333546326
 21
1173.160787611756
 31
0.0
  0
LINE
  5
2028B
330
747D
100
AcDbEntity
  8
部品1
100
AcDbLine
 10
10085.69333546326
 20
1173.160787611756
 30
0.0
 11
10090.69333546326
 21
1173.160787611756
 31
0.0
  0
LINE
  5
2028C
330
747D
100
AcDbEntity
  8
部品1
100
AcDbLine
 10
10120.69333546326
 20
1155.760787611758
 30
0.0
 11
10120.69333546326
 21
1168.760787611754
 31
0.0
  0
LINE
  5
2028D
330
747D
100
AcDbEntity
  8
部品1
100
AcDbLine
 10
10110.69333546326
 20
1155.760787611754
 30
0.0
 11
10110.69333546326
 21
1192.760787611754
 31
0.0
  0
LINE
  5
2028E
330
747D
100
AcDbEntity
  8
部品1
100
AcDbLine
 10
10090.69333546326
 20
1155.760787611754
 30
0.0
 11
10090.69333546326
 21
1192.760787611754
 31
0.0
  0
LINE
  5
2028F
330
747D
100
AcDbEntity
  8
部品1
100
AcDbLine
 10
10080.69333546326
 20
1155.760787611754
 30
0.0
 11
10080.69333546326
 21
1168.760787611754
 31
0.0
  0
LINE
  5
20290
330
747D
100
AcDbEntity
  8
部品1
100
AcDbLine
 10
10130.69333546326
 20
1152.760787611754
 30
0.0
 11
10130.69333546326
 21
1155.760787611762
 31
0.0
  0
LINE
  5
20291
330
747D
100
AcDbEntity
  8
部品1
100
AcDbLine
 10
10070.69333546326
 20
1152.760787611754
 30
0.0
 11
10070.69333546326
 21
1155.760787611754
 31
0.0
  0
LINE
  5
20292
330
747D
100
AcDbEntity
  8
部品1
100
AcDbLine
 10
10070.69333546326
 20
1155.760787611754
 30
0.0
 11
10130.69333546326
 21
1155.760787611758
 31
0.0
  0
LINE
  5
20293
330
747D
100
AcDbEntity
  8
部品1
100
AcDbLine
 10
10115.69333546326
 20
1173.160787611752
 30
0.0
 11
10115.69333546326
 21
1171.760787611754
 31
0.0
  0
LINE
  5
20294
330
747D
100
AcDbEntity
  8
部品1
100
AcDbLine
 10
10085.69333546326
 20
1173.160787611756
 30
0.0
 11
10085.69333546326
 21
1171.760787611754
 31
0.0
  0
LINE
  5
20295
330
747D
100
AcDbEntity
  8
部品1
100
AcDbLine
 10
10117.69333546326
 20
1171.760787611754
 30
0.0
 11
10120.69333546326
 21
1168.760787611754
 31
0.0
  0
LINE
  5
20296
330
747D
100
AcDbEntity
  8
部品1
100
AcDbLine
 10
10083.69333546326
 20
1171.760787611754
 30
0.0
 11
10117.69333546326
 21
1171.760787611754
 31
0.0
  0
LINE
  5
20297
330
747D
100
AcDbEntity
  8
部品1
100
AcDbLine
 10
10083.69333546326
 20
1171.760787611754
 30
0.0
 11
10080.69333546326
 21
1168.760787611754
 31
0.0
  0
LINE
  5
20298
330
747D
100
AcDbEntity
  8
部品1
100
AcDbLine
 10
10090.69333546326
 20
1192.760787611754
 30
0.0
 11
10110.69333546326
 21
1192.760787611754
 31
0.0
  0
LINE
  5
20299
330
747D
100
AcDbEntity
  8
部品1
100
AcDbLine
 10
10093.69333546326
 20
1205.013683635414
 30
0.0
 11
10107.69333546326
 21
1205.013683635414
 31
0.0
  0
LINE
  5
2029A
330
747D
100
AcDbEntity
  8
部品1
100
AcDbLine
 10
10115.69333546326
 20
1213.160787611752
 30
0.0
 11
10115.69333546326
 21
1207.160787611752
 31
0.0
  0
LINE
  5
2029B
330
747D
100
AcDbEntity
  8
部品1
100
AcDbLine
 10
10085.69333546326
 20
1213.160787611756
 30
0.0
 11
10085.69333546326
 21
1207.160787611756
 31
0.0
  0
LINE
  5
2029C
330
747D
100
AcDbEntity
  8
部品1
100
AcDbLine
 10
10085.69333546326
 20
1213.160787611756
 30
0.0
 11
10115.69333546326
 21
1213.160787611756
 31
0.0
  0
LINE
  5
2029D
330
747D
100
AcDbEntity
  8
部品1
100
AcDbLine
 10
10085.69333546326
 20
1207.160787611756
 30
0.0
 11
10115.69333546326
 21
1207.160787611756
 31
0.0
  0
LINE
  5
2029E
330
747D
100
AcDbEntity
  8
部品1
100
AcDbLine
 10
10110.69333546326
 20
1173.160787611756
 30
0.0
 11
10115.69333546326
 21
1173.160787611756
 31
0.0
  0
LINE
  5
2029F
330
747D
100
AcDbEntity
  8
部品1
100
AcDbLine
 10
10170.69333546326
 20
1152.760787611754
 30
0.0
 11
10170.69333546326
 21
1140.760787611754
 31
0.0
  0
LINE
  5
202A0
330
747D
100
AcDbEntity
  8
細線
100
AcDbLine
 10
10056.54514098624
 20
1405.911991611565
 30
0.0
 11
10021.69634498605
 21
1440.760787611754
 31
0.0
  0
LINE
  5
202A1
330
747D
100
AcDbEntity
  8
細線
100
AcDbLine
 10
10052.61400339261
 20
1367.416722334008
 30
0.0
 11
9979.269938114862
 21
1440.760787611754
 31
0.0
  0
LINE
  5
202A2
330
747D
100
AcDbEntity
  8
部品1
100
AcDbLine
 10
10070.69333546326
 20
1554.360787611753
 30
0.0
 11
10130.69333546326
 21
1554.360787611757
 31
0.0
  0
ARC
  5
202A3
330
747D
100
AcDbEntity
  8
部品1
100
AcDbCircle
 10
10070.69333546326
 20
1544.360787611753
 30
0.0
 40
10.0
100
AcDbArc
 50
90.0
 51
180.0
  0
ARC
  5
202A4
330
747D
100
AcDbEntity
  8
部品1
100
AcDbCircle
 10
10130.69333546326
 20
1544.360787611757
 30
0.0
 40
10.0
100
AcDbArc
 50
0.0
 51
90.0
  0
ARC
  5
202A5
330
747D
100
AcDbEntity
  8
部品1
100
AcDbCircle
 10
10100.69333546326
 20
1494.360787611753
 30
0.0
 40
8.0
100
AcDbArc
 50
28.00674301450029
 51
151.9932569854997
  0
CIRCLE
  5
202A6
330
747D
100
AcDbEntity
  8
部品1
100
AcDbCircle
 10
10100.69333546326
 20
1483.760787611754
 30
0.0
 40
16.0
  0
CIRCLE
  5
202A7
330
747D
100
AcDbEntity
  8
細線
100
AcDbCircle
 10
10100.69333546326
 20
1524.360787611753
 30
0.0
 40
8.0
  0
ARC
  5
202A8
330
747D
100
AcDbEntity
  8
細線
100
AcDbCircle
 10
10100.69333546326
 20
1424.760787611751
 30
0.0
 40
8.0
100
AcDbArc
 50
0.0
 51
180.0
  0
LINE
  5
202A9
330
747D
100
AcDbEntity
  8
細線
100
AcDbLine
 10
10085.69333546326
 20
1354.760787611754
 30
0.0
 11
10115.69333546326
 21
1354.760787611754
 31
0.0
  0
LINE
  5
202AA
330
747D
100
AcDbEntity
  8
細線
100
AcDbLine
 10
10085.69333546326
 20
1360.760787611754
 30
0.0
 11
10115.69333546326
 21
1360.760787611754
 31
0.0
  0
LINE
  5
202AB
330
747D
100
AcDbEntity
  8
細線
100
AcDbLine
 10
10085.69333546326
 20
1360.760787611754
 30
0.0
 11
10085.69333546326
 21
1354.760787611754
 31
0.0
  0
LINE
  5
202AC
330
747D
100
AcDbEntity
  8
細線
100
AcDbLine
 10
10115.69333546326
 20
1360.760787611751
 30
0.0
 11
10115.69333546326
 21
1354.760787611751
 31
0.0
  0
LINE
  5
202AD
330
747D
100
AcDbEntity
  8
細線
100
AcDbLine
 10
10092.69333546326
 20
1424.760787611751
 30
0.0
 11
10092.69333546326
 21
1398.217194072305
 31
0.0
  0
LINE
  5
202AE
330
747D
100
AcDbEntity
  8
細線
100
AcDbLine
 10
10108.69333546326
 20
1424.760787611751
 30
0.0
 11
10108.69333546326
 21
1398.217194072305
 31
0.0
  0
CIRCLE
  5
202AF
330
747D
100
AcDbEntity
  8
部品1
100
AcDbCircle
 10
10100.69333546326
 20
1384.360787611753
 30
0.0
 40
16.0
  0
LINE
  5
202B0
330
747D
100
AcDbEntity
  8
部品1
100
AcDbLine
 10
10069.74739494351
 20
1446.760787611754
 30
0.0
 11
10131.63927598302
 21
1446.760787611751
 31
0.0
  0
ARC
  5
202B1
330
747D
100
AcDbEntity
  8
部品1
100
AcDbCircle
 10
10069.74739494351
 20
1436.760787611754
 30
0.0
 40
10.0
100
AcDbArc
 50
90.0
 51
174.3157584018092
  0
ARC
  5
202B2
330
747D
100
AcDbEntity
  8
部品1
100
AcDbCircle
 10
10131.63927598302
 20
1436.760787611751
 30
0.0
 40
10.0
100
AcDbArc
 50
5.684241598190771
 51
90.0
  0
ARC
  5
202B3
330
747D
100
AcDbEntity
  8
部品1
100
AcDbCircle
 10
10100.69333546326
 20
1454.360787611753
 30
0.0
 40
8.0
100
AcDbArc
 50
180.0
 51
251.8051276613376
  0
ARC
  5
202B4
330
747D
100
AcDbEntity
  8
部品1
100
AcDbCircle
 10
10100.69333546326
 20
1454.360787611753
 30
0.0
 40
8.0
100
AcDbArc
 50
288.1948723386625
 51
0.0
  0
LINE
  5
202B5
330
747D
100
AcDbEntity
  8
部品1
100
AcDbLine
 10
10060.69333546326
 20
1544.360787611753
 30
0.0
 11
10060.69333546326
 21
1441.006256599761
 31
0.0
  0
LINE
  5
202B6
330
747D
100
AcDbEntity
  8
部品1
100
AcDbLine
 10
10140.69333546326
 20
1544.360787611757
 30
0.0
 11
10140.69333546326
 21
1441.006256599767
 31
0.0
  0
LINE
  5
202B7
330
747D
100
AcDbEntity
  8
部品1
100
AcDbLine
 10
10108.69333546326
 20
1469.904381151202
 30
0.0
 11
10108.69333546326
 21
1454.360787611753
 31
0.0
  0
LINE
  5
202B8
330
747D
100
AcDbEntity
  8
部品1
100
AcDbLine
 10
10092.69333546326
 20
1469.904381151202
 30
0.0
 11
10092.69333546326
 21
1454.360787611753
 31
0.0
  0
TEXT
  5
202B9
330
747D
100
AcDbEntity
  8
部品1
100
AcDbText
 10
8605.942308319262
 20
2175.866049504641
 30
0.0
 40
120.0
  1
地盤がコンクリートの場合
  7
STYLE2
100
AcDbText
  0
LINE
  5
202BA
330
747D
100
AcDbEntity
  8
部品1
 48
50.0
100
AcDbLine
 10
11044.59752747398
 20
2600.000000000002
 30
0.0
 11
11044.59752747398
 21
200.0
 31
0.0
  0
DIMENSION
  5
202BB
330
747D
100
AcDbEntity
  8
寸法
 48
50.0
100
AcDbDimension
  2
*D39
 10
7275.376234097581
 20
1140.760787611754
 30
0.0
 11
7175.376234097581
 21
1240.760787611756
 31
0.0
 70
    32
  1
a
 71
     5
 42
200.0000000000009
  3
INABA_S40G
100
AcDbAlignedDimension
 13
7027.305229737187
 23
1340.760787611755
 33
0.0
 14
7027.305229737189
 24
1140.760787611754
 34
0.0
 50
90.0
100
AcDbRotatedDimension
1001
ACAD
1000
DSTYLE
1002
{
1070
   174
1070
     0
1070
   272
1070
     1
1070
   288
1070
     0
1070
   341
1005
0
1002
}
  0
TEXT
  5
202BC
330
747D
100
AcDbEntity
  8
部品1
100
AcDbText
 10
7933.764784722582
 20
673.9251098471076
 30
0.0
 40
80.0
  1
b寸法：100～120mmに対応
  7
STYLE2
100
AcDbText
  0
TEXT
  5
202BD
330
747D
100
AcDbEntity
  8
部品1
100
AcDbText
 10
7938.310239268036
 20
528.3190492410467
 30
0.0
 40
80.0
  1
\U+203BオールアンカーM10(市販品)
  7
STYLE2
100
AcDbText
  0
TEXT
  5
202BE
330
747D
100
AcDbEntity
  8
部品1
100
AcDbText
 10
7939.673875631672
 20
378.6220795440777
 30
0.0
 40
80.0
  1
  が4本必要になります。
  7
STYLE2
100
AcDbText
  0
TEXT
  5
202BF
330
747D
100
AcDbEntity
  8
部品1
100
AcDbText
 10
9493.096629247217
 20
673.9251098471076
 30
0.0
 40
80.0
  1
c寸法：135～175,190mmに対応
  7
STYLE2
100
AcDbText
  0
TEXT
  5
202C0
330
747D
100
AcDbEntity
  8
部品1
100
AcDbText
 10
9497.187538338128
 20
528.3190492410467
 30
0.0
 40
80.0
  1
\U+203BオールアンカーM10(市販品)
  7
STYLE2
100
AcDbText
  0
TEXT
  5
202C1
330
747D
100
AcDbEntity
  8
部品1
100
AcDbText
 10
9498.551174701763
 20
378.6220795440777
 30
0.0
 40
80.0
  1
  が4本必要になります。
  7
STYLE2
100
AcDbText
  0
TEXT
  5
202C2
330
747D
100
AcDbEntity
  8
部品1
100
AcDbText
 10
6381.146805522927
 20
402.0913671270181
 30
0.0
 40
80.0
  1
a寸法：100～150mmに対応
  7
STYLE2
100
AcDbText
  0
LINE
  5
202C3
330
747D
100
AcDbEntity
  8
部品1
 48
50.0
100
AcDbLine
 10
6777.305229737184
 20
740.7607876117545
 30
0.0
 11
6777.305229737184
 21
1140.760787611754
 31
0.0
  0
LINE
  5
202C4
330
747D
100
AcDbEntity
  8
部品1
 48
50.0
100
AcDbLine
 10
7177.305229737185
 20
1140.760787611754
 30
0.0
 11
7177.305229737185
 21
740.7607876117562
 31
0.0
  0
LINE
  5
202C5
330
747D
100
AcDbEntity
  8
部品1
 48
50.0
100
AcDbLine
 10
7177.305229737185
 20
740.7607876117562
 30
0.0
 11
6777.305229737184
 21
740.7607876117545
 31
0.0
  0
ENDSEC
  0
SECTION
  2
OBJECTS
  0
DICTIONARY
  5
7471
330
0
100
AcDbDictionary
281
     1
  3
ACAD_COLOR
350
159B0
  3
ACAD_GROUP
350
7472
  3
ACAD_LAYOUT
350
159B1
  3
ACAD_MATERIAL
350
159AF
  3
ACAD_MLINESTYLE
350
7473
  3
ACAD_PLOTSETTINGS
350
159B2
  3
ACAD_PLOTSTYLENAME
350
159AD
  3
ACDBHEADERROUNDTRIPXREC
350
2037B
  3
AcDbVariableDictionary
350
20377
  3
CONTENTDICTIONARY
350
E71C
  3
DRAWINGVARIABLESDICT
350
F3B9
  0
DICTIONARY
  5
1ED5D
330
7467
100
AcDbDictionary
280
     1
281
     1
  3
ACAD_LAYERSTATES
360
1ED5E
  0
DICTIONARY
  5
159B0
102
{ACAD_REACTORS
330
7471
102
}
330
7471
100
AcDbDictionary
281
     1
  0
DICTIONARY
  5
7472
102
{ACAD_REACTORS
330
7471
102
}
330
7471
100
AcDbDictionary
281
     1
  0
DICTIONARY
  5
159B1
102
{ACAD_REACTORS
330
7471
102
}
330
7471
100
AcDbDictionary
281
     1
  3
Model
350
159B3
  3
レイアウト1
350
159B4
  0
DICTIONARY
  5
159AF
102
{ACAD_REACTORS
330
7471
102
}
330
7471
100
AcDbDictionary
281
     1
  0
DICTIONARY
  5
7473
102
{ACAD_REACTORS
330
7471
102
}
330
7471
100
AcDbDictionary
281
     1
  3
STANDARD
350
7480
  0
DICTIONARY
  5
159B2
102
{ACAD_REACTORS
330
7471
102
}
330
7471
100
AcDbDictionary
281
     1
  0
ACDBDICTIONARYWDFLT
  5
159AD
102
{ACAD_REACTORS
330
7471
102
}
330
7471
100
AcDbDictionary
281
     1
  3
Normal
350
159AE
100
AcDbDictionaryWithDefault
340
159AE
  0
DICTIONARY
  5
2037B
102
{ACAD_REACTORS
330
7471
102
}
330
7471
100
AcDbDictionary
281
     1
  3
COLORDICT
350
2037D
  3
MATERIALDICT
350
2037C
  0
DICTIONARY
  5
20377
102
{ACAD_REACTORS
330
7471
102
}
330
7471
100
AcDbDictionary
281
     1
  3
DIMASSOC
350
20378
  3
PROJECTNAME
350
20379
  0
DICTIONARY
  5
E71C
102
{ACAD_REACTORS
330
7471
102
}
330
7471
100
AcDbDictionary
281
     1
  0
DICTIONARY
  5
F3B9
102
{ACAD_REACTORS
330
7471
102
}
330
7471
100
AcDbDictionary
281
     1
1001
DRAWINGVARIABLESXDATA
1000
POLARMODE
1000
1
  0
DICTIONARY
  5
1ED5E
102
{ACAD_REACTORS
330
1ED5D
102
}
330
1ED5D
100
AcDbDictionary
281
     1
  0
LAYOUT
  5
159B3
102
{ACAD_XDICTIONARY
360
2037E
102
}
102
{ACAD_REACTORS
330
159B1
102
}
330
159B1
100
AcDbPlotSettings
  1

  2
none_device
  4
Letter_(8.50_x_11.00_Inches)
  6

 40
6.349999904632568
 41
6.349999904632568
 42
6.350006103515625
 43
6.350006103515625
 44
215.8999938964844
 45
279.3999938964844
 46
0.0
 47
0.0
 48
0.0
 49
0.0
140
0.0
141
0.0
142
1.0
143
1.0
 70
 11952
 72
     1
 73
     1
 74
     0
  7

 75
     0
147
1.0
148
-4149.571981164617
149
65.56433826894044
100
AcDbLayout
  1
Model
 70
     1
 71
     0
 10
0.0
 20
0.0
 11
12.0
 21
9.0
 12
0.0
 22
0.0
 32
0.0
 14
0.0
 24
0.0
 34
0.0
 15
0.0
 25
0.0
 35
0.0
146
0.0
 13
0.0
 23
0.0
 33
0.0
 16
1.0
 26
0.0
 36
0.0
 17
0.0
 27
1.0
 37
0.0
 76
     0
330
747D
  0
LAYOUT
  5
159B4
102
{ACAD_XDICTIONARY
360
20380
102
}
102
{ACAD_REACTORS
330
159B1
102
}
330
159B1
100
AcDbPlotSettings
  1

  2
自動 EPSON LP-8400FX (TATENO 上)
  4

  6

 40
0.0
 41
0.0
 42
0.0
 43
0.0
 44
0.0
 45
0.0
 46
0.0
 47
0.0
 48
0.0
 49
0.0
140
0.0
141
0.0
142
1.0
143
1.0
 70
   688
 72
     0
 73
     0
 74
     5
  7
inaba.ctb
 75
    16
147
1.0
148
0.0
149
0.0
100
AcDbLayout
  1
レイアウト1
 70
     0
 71
     1
 10
0.0
 20
0.0
 11
420.0
 21
297.0
 12
0.0
 22
0.0
 32
0.0
 14
1.000000000000000E+20
 24
1.000000000000000E+20
 34
1.000000000000000E+20
 15
-1.000000000000000E+20
 25
-1.000000000000000E+20
 35
-1.000000000000000E+20
146
0.0
 13
0.0
 23
0.0
 33
0.0
 16
1.0
 26
0.0
 36
0.0
 17
0.0
 27
1.0
 37
0.0
 76
     0
330
747A
  0
MLINESTYLE
  5
7480
102
{ACAD_REACTORS
330
7473
102
}
330
7473
100
AcDbMlineStyle
  2
STANDARD
 70
     0
  3

 62
     0
 51
90.0
 52
90.0
 71
     2
 49
0.5
 62
   256
  6
BYLAYER
 49
-0.5
 62
   256
  6
BYLAYER
  0
ACDBPLACEHOLDER
  5
159AE
102
{ACAD_REACTORS
330
159AD
102
}
330
159AD
  0
XRECORD
  5
2037D
102
{ACAD_REACTORS
330
2037B
102
}
330
2037B
100
AcDbXrecord
280
     1
340
159B0
  0
XRECORD
  5
2037C
102
{ACAD_REACTORS
330
2037B
102
}
330
2037B
100
AcDbXrecord
280
     1
340
159AF
  0
DICTIONARYVAR
  5
20378
102
{ACAD_REACTORS
330
20377
102
}
330
20377
100
DictionaryVariables
280
     0
  1
1
  0
DICTIONARYVAR
  5
20379
102
{ACAD_REACTORS
330
20377
102
}
330
20377
100
DictionaryVariables
280
     0
  1

  0
DICTIONARY
  5
2037E
330
159B3
100
AcDbDictionary
280
     1
281
     1
  3
ACAD_XREC_ROUNDTRIP
360
2037F
  0
DICTIONARY
  5
20380
330
159B4
100
AcDbDictionary
280
     1
281
     1
  3
ACAD_XREC_ROUNDTRIP
360
20381
  0
XRECORD
  5
2037F
102
{ACAD_REACTORS
330
2037E
102
}
330
2037E
100
AcDbXrecord
280
     1
102
SHADEPLOT
 70
     0
102
SHADEPLOTRESLEVEL
 70
     2
102
SHADEPLOTCUSTOMDPI
 70
   300
  0
XRECORD
  5
20381
102
{ACAD_REACTORS
330
20380
102
}
330
20380
100
AcDbXrecord
280
     1
102
SHADEPLOT
 70
     0
102
SHADEPLOTRESLEVEL
 70
     2
102
SHADEPLOTCUSTOMDPI
 70
   300
  0
ENDSEC
  0
EOF
